  0
SECTION
  2
HEADER
  9
$ACADVER
  1
AC1015
  9
$ACADMAINTVER
 70
     6
  9
$DWGCODEPAGE
  3
ANSI_1252
  9
$INSBASE
 10
0.0
 20
0.0
 30
0.0
  9
$EXTMIN
 10
0.0
 20
0.0
 30
0.0
  9
$EXTMAX
 10
297.0
 20
210.0
 30
0.0
  9
$LIMMIN
 10
0.0
 20
0.0
  9
$LIMMAX
 10
297.0
 20
210.0
  9
$ORTHOMODE
 70
     0
  9
$REGENMODE
 70
     1
  9
$FILLMODE
 70
     1
  9
$QTEXTMODE
 70
     0
  9
$MIRRTEXT
 70
     1
  9
$LTSCALE
 40
1.0
  9
$ATTMODE
 70
     1
  9
$TEXTSIZE
 40
2.0
  9
$TRACEWID
 40
1.0
  9
$TEXTSTYLE
  7
Standard
  9
$CLAYER
  8
0
  9
$CELTYPE
  6
ByLayer
  9
$CECOLOR
 62
   256
  9
$CELTSCALE
 40
1.0
  9
$DISPSILH
 70
     0
  9
$DIMSCALE
 40
1.0
  9
$DIMASZ
 40
3.0
  9
$DIMEXO
 40
0.0
  9
$DIMDLI
 40
3.75
  9
$DIMRND
 40
0.0
  9
$DIMDLE
 40
0.0
  9
$DIMEXE
 40
1.0
  9
$DIMTP
 40
0.0
  9
$DIMTM
 40
0.0
  9
$DIMTXT
 40
2.0
  9
$DIMCEN
 40
2.5
  9
$DIMTSZ
 40
0.0
  9
$DIMTOL
 70
     0
  9
$DIMLIM
 70
     0
  9
$DIMTIH
 70
     1
  9
$DIMTOH
 70
     1
  9
$DIMSE1
 70
     0
  9
$DIMSE2
 70
     0
  9
$DIMTAD
 70
     1
  9
$DIMZIN
 70
     0
  9
$DIMBLK
  1

  9
$DIMASO
 70
     1
  9
$DIMSHO
 70
     1
  9
$DIMPOST
  1

  9
$DIMAPOST
  1

  9
$DIMALT
 70
     0
  9
$DIMALTD
 70
     3
  9
$DIMALTF
 40
0.0393700787
  9
$DIMLFAC
 40
1.0
  9
$DIMTOFL
 70
     1
  9
$DIMTVP
 40
0.0
  9
$DIMTIX
 70
     0
  9
$DIMSOXD
 70
     0
  9
$DIMSAH
 70
     0
  9
$DIMBLK1
  1

  9
$DIMBLK2
  1

  9
$DIMSTYLE
  2
ISO-25
  9
$DIMCLRD
 70
     0
  9
$DIMCLRE
 70
     0
  9
$DIMCLRT
 70
     0
  9
$DIMTFAC
 40
1.0
  9
$DIMGAP
 40
1.524
  9
$DIMJUST
 70
     0
  9
$DIMSD1
 70
     0
  9
$DIMSD2
 70
     0
  9
$DIMTOLJ
 70
     0
  9
$DIMTZIN
 70
     0
  9
$DIMALTZ
 70
     0
  9
$DIMALTTZ
 70
     0
  9
$DIMUPT
 70
     0
  9
$DIMDEC
 70
     2
  9
$DIMTDEC
 70
     3
  9
$DIMALTU
 70
     2
  9
$DIMALTTD
 70
     3
  9
$DIMTXSTY
  7
Standard
  9
$DIMAUNIT
 70
     0
  9
$DIMADEC
 70
     2
  9
$DIMALTRND
 40
0.0
  9
$DIMAZIN
 70
     0
  9
$DIMDSEP
 70
    44
  9
$DIMATFIT
 70
     3
  9
$DIMFRAC
 70
     0
  9
$DIMLDRBLK
  1

  9
$DIMLUNIT
 70
     2
  9
$DIMLWD
 70
    -2
  9
$DIMLWE
 70
    -2
  9
$DIMTMOVE
 70
     0
  9
$LUNITS
 70
     2
  9
$LUPREC
 70
     2
  9
$SKETCHINC
 40
1.0
  9
$FILLETRAD
 40
10.0
  9
$AUNITS
 70
     0
  9
$AUPREC
 70
     2
  9
$MENU
  1
.
  9
$ELEVATION
 40
0.0
  9
$PELEVATION
 40
0.0
  9
$THICKNESS
 40
0.0
  9
$LIMCHECK
 70
     0
  9
$CHAMFERA
 40
10.0
  9
$CHAMFERB
 40
10.0
  9
$CHAMFERC
 40
20.0
  9
$CHAMFERD
 40
0.0
  9
$SKPOLY
 70
     0
  9
$TDCREATE
 40
2456434.403693403
  9
$TDUCREATE
 40
2456434.32036007
  9
$TDUPDATE
 40
2456434.403694849
  9
$TDUUPDATE
 40
2456434.320361516
  9
$TDINDWG
 40
0.0000000116
  9
$TDUSRTIMER
 40
0.0000000116
  9
$USRTIMER
 70
     1
  9
$ANGBASE
 50
0.0
  9
$ANGDIR
 70
     0
  9
$PDMODE
 70
     0
  9
$PDSIZE
 40
-1.0
  9
$PLINEWID
 40
0.0
  9
$SPLFRAME
 70
     0
  9
$SPLINETYPE
 70
     6
  9
$SPLINESEGS
 70
     8
  9
$HANDSEED
  5
2A2
  9
$SURFTAB1
 70
     6
  9
$SURFTAB2
 70
     6
  9
$SURFTYPE
 70
     6
  9
$SURFU
 70
     6
  9
$SURFV
 70
     6
  9
$UCSBASE
  2

  9
$UCSNAME
  2

  9
$UCSORG
 10
0.0
 20
0.0
 30
0.0
  9
$UCSXDIR
 10
1.0
 20
0.0
 30
0.0
  9
$UCSYDIR
 10
0.0
 20
1.0
 30
0.0
  9
$UCSORTHOREF
  2

  9
$UCSORTHOVIEW
 70
     0
  9
$UCSORGTOP
 10
0.0
 20
0.0
 30
0.0
  9
$UCSORGBOTTOM
 10
0.0
 20
0.0
 30
0.0
  9
$UCSORGLEFT
 10
0.0
 20
0.0
 30
0.0
  9
$UCSORGRIGHT
 10
0.0
 20
0.0
 30
0.0
  9
$UCSORGFRONT
 10
0.0
 20
0.0
 30
0.0
  9
$UCSORGBACK
 10
0.0
 20
0.0
 30
0.0
  9
$PUCSBASE
  2

  9
$PUCSNAME
  2

  9
$PUCSORG
 10
0.0
 20
0.0
 30
0.0
  9
$PUCSXDIR
 10
1.0
 20
0.0
 30
0.0
  9
$PUCSYDIR
 10
0.0
 20
1.0
 30
0.0
  9
$PUCSORTHOREF
  2

  9
$PUCSORTHOVIEW
 70
     0
  9
$PUCSORGTOP
 10
0.0
 20
0.0
 30
0.0
  9
$PUCSORGBOTTOM
 10
0.0
 20
0.0
 30
0.0
  9
$PUCSORGLEFT
 10
0.0
 20
0.0
 30
0.0
  9
$PUCSORGRIGHT
 10
0.0
 20
0.0
 30
0.0
  9
$PUCSORGFRONT
 10
0.0
 20
0.0
 30
0.0
  9
$PUCSORGBACK
 10
0.0
 20
0.0
 30
0.0
  9
$USERI1
 70
     0
  9
$USERI2
 70
     0
  9
$USERI3
 70
     0
  9
$USERI4
 70
     0
  9
$USERI5
 70
     0
  9
$USERR1
 40
0.0
  9
$USERR2
 40
0.0
  9
$USERR3
 40
0.0
  9
$USERR4
 40
0.0
  9
$USERR5
 40
0.0
  9
$WORLDVIEW
 70
     1
  9
$SHADEDGE
 70
     3
  9
$SHADEDIF
 70
    70
  9
$TILEMODE
 70
     1
  9
$MAXACTVP
 70
    64
  9
$PINSBASE
 10
0.0
 20
0.0
 30
0.0
  9
$PLIMCHECK
 70
     0
  9
$PEXTMIN
 10
1.0000000000E+20
 20
1.0000000000E+20
 30
1.0000000000E+20
  9
$PEXTMAX
 10
-1.0000000000E+20
 20
-1.0000000000E+20
 30
-1.0000000000E+20
  9
$PLIMMIN
 10
0.0
 20
0.0
  9
$PLIMMAX
 10
420.0
 20
297.0
  9
$UNITMODE
 70
     0
  9
$VISRETAIN
 70
     1
  9
$PLINEGEN
 70
     0
  9
$PSLTSCALE
 70
     1
  9
$TREEDEPTH
 70
  3020
  9
$CMLSTYLE
  2
Standard
  9
$CMLJUST
 70
     0
  9
$CMLSCALE
 40
20.0
  9
$PROXYGRAPHICS
 70
     1
  9
$MEASUREMENT
 70
     1
  9
$CELWEIGHT
370
    -1
  9
$ENDCAPS
280
     0
  9
$JOINSTYLE
280
     0
  9
$LWDISPLAY
290
     1
  9
$INSUNITS
 70
     4
  9
$HYPERLINKBASE
  1

  9
$STYLESHEET
  1

  9
$XEDIT
290
     1
  9
$CEPSNTYPE
380
     0
  9
$PSTYLEMODE
290
     1
  9
$FINGERPRINTGUID
  2
{C6EFFAEF-F97A-4465-9E34-BA12FE9BCCDC}
  9
$VERSIONGUID
  2
{FAEB1C32-E019-11D5-929B-00C0DF256EC4}
  9
$EXTNAMES
290
     1
  9
$PSVPSCALE
 40
0.0
  9
$OLESTARTUP
290
     0
  0
ENDSEC
  0
SECTION
  2
CLASSES
  0
CLASS
  1
ACDBDICTIONARYWDFLT
  2
AcDbDictionaryWithDefault
  3
ObjectDBX Classes
 90
        0
280
     0
281
     0
  0
CLASS
  1
VISUALSTYLE
  2
AcDbVisualStyle
  3
ObjectDBX Classes
 90
     4095
280
     0
281
     0
  0
CLASS
  1
MATERIAL
  2
AcDbMaterial
  3
ObjectDBX Classes
 90
     1153
280
     0
281
     0
  0
CLASS
  1
ACDBPLACEHOLDER
  2
AcDbPlaceHolder
  3
ObjectDBX Classes
 90
        0
280
     0
281
     0
  0
CLASS
  1
LAYOUT
  2
AcDbLayout
  3
ObjectDBX Classes
 90
        0
280
     0
281
     0
  0
ENDSEC
  0
SECTION
  2
TABLES
  0
TABLE
  2
VPORT
  5
8
330
0
100
AcDbSymbolTable
 70
     1
  0
VPORT
  5
29
330
8
100
AcDbSymbolTableRecord
100
AcDbViewportTableRecord
  2
*Active
 70
     0
 10
0.0
 20
0.0
 11
1.0
 21
1.0
 12
148.5
 22
105.0
 13
0.0
 23
0.0
 14
10.0
 24
10.0
 15
10.0
 25
10.0
 16
0.0
 26
0.0
 36
1.0
 17
0.0
 27
0.0
 37
0.0
 40
210.0
 41
1.4142857143
 42
50.0
 43
0.0
 44
0.0
 50
0.0
 51
0.0
 71
     0
 72
  2000
 73
     1
 74
     3
 75
     0
 76
     0
 77
     0
 78
     0
281
     0
 65
     1
110
0.0
120
0.0
130
0.0
111
1.0
121
0.0
131
0.0
112
0.0
122
1.0
132
0.0
 79
     0
146
0.0
  0
ENDTAB
  0
TABLE
  2
LTYPE
  5
5
330
0
100
AcDbSymbolTable
 70
     6
  0
LTYPE
  5
14
330
5
100
AcDbSymbolTableRecord
100
AcDbLinetypeTableRecord
  2
ByBlock
 70
     0
  3

 72
    65
 73
     0
 40
0.0
  0
LTYPE
  5
15
330
5
100
AcDbSymbolTableRecord
100
AcDbLinetypeTableRecord
  2
ByLayer
 70
     0
  3

 72
    65
 73
     0
 40
0.0
  0
LTYPE
  5
16
330
5
100
AcDbSymbolTableRecord
100
AcDbLinetypeTableRecord
  2
Continuous
 70
     0
  3
Solid line
 72
    65
 73
     0
 40
0.0
  0
LTYPE
  5
3F
330
5
100
AcDbSymbolTableRecord
100
AcDbLinetypeTableRecord
  2
HIDDEN
 70
     0
  3
Hidden __ __ __ __ __ __ __ __ __ __ __ __ __ __
 72
    65
 73
     2
 40
1.905
 49
1.27
 74
     0
 49
-0.635
 74
     0
  0
LTYPE
  5
40
330
5
100
AcDbSymbolTableRecord
100
AcDbLinetypeTableRecord
  2
PHANTOM
 70
     0
  3
Phantom ______  __  __  ______  __  __  ______
 72
    65
 73
     6
 40
12.7
 49
6.35
 74
     0
 49
-1.27
 74
     0
 49
1.27
 74
     0
 49
-1.27
 74
     0
 49
1.27
 74
     0
 49
-1.27
 74
     0
  0
LTYPE
  5
41
330
5
100
AcDbSymbolTableRecord
100
AcDbLinetypeTableRecord
  2
CENTER
 70
     0
  3
Center ____ _ ____ _ ____ _ ____ _ ____ _ ____
 72
    65
 73
     4
 40
10.16
 49
6.35
 74
     0
 49
-1.27
 74
     0
 49
1.27
 74
     0
 49
-1.27
 74
     0
  0
LTYPE
  5
42
330
5
100
AcDbSymbolTableRecord
100
AcDbLinetypeTableRecord
  2
CENTERX2
 70
     0
  3
Center (2x) ________  __  ________  __  _____
 72
    65
 73
     4
 40
20.32
 49
12.7
 74
     0
 49
-2.54
 74
     0
 49
2.54
 74
     0
 49
-2.54
 74
     0
  0
LTYPE
  5
43
330
5
100
AcDbSymbolTableRecord
100
AcDbLinetypeTableRecord
  2
DOT2
 70
     0
  3
Dot (.5x) ........................................
 72
    65
 73
     2
 40
0.635
 49
0.0
 74
     0
 49
-0.635
 74
     0
  0
ENDTAB
  0
TABLE
  2
LAYER
  5
2
330
0
100
AcDbSymbolTable
 70
     5
  0
LAYER
  5
10
330
2
100
AcDbSymbolTableRecord
100
AcDbLayerTableRecord
  2
0
 70
     0
 62
     7
  6
Continuous
370
    -3
390
F
  0
LAYER
  5
44
330
2
100
AcDbSymbolTableRecord
100
AcDbLayerTableRecord
  2
FORMAT
 70
     0
 62
     7
  6
Continuous
370
    -3
390
F
  0
LAYER
  5
45
330
2
100
AcDbSymbolTableRecord
100
AcDbLayerTableRecord
  2
VERMASSUNG
 70
     0
 62
     7
  6
Continuous
370
    -3
390
F
  0
LAYER
  5
46
330
2
100
AcDbSymbolTableRecord
100
AcDbLayerTableRecord
  2
KOPF_DÜNN
 70
     0
 62
     7
  6
Continuous
370
    -3
390
F
  0
LAYER
  5
47
330
2
100
AcDbSymbolTableRecord
100
AcDbLayerTableRecord
  2
KOPF_DICK
 70
     0
 62
     7
  6
Continuous
370
    15
390
F
  0
ENDTAB
  0
TABLE
  2
STYLE
  5
3
330
0
100
AcDbSymbolTable
 70
     2
  0
STYLE
  5
11
330
3
100
AcDbSymbolTableRecord
100
AcDbTextStyleTableRecord
  2
Standard
 70
     0
 40
0.0
 41
1.0
 50
0.0
 71
     0
 42
2.0
  3
txt
  4

  0
STYLE
  5
48
330
3
100
AcDbSymbolTableRecord
100
AcDbTextStyleTableRecord
  2
SLDTEXTSTYLE0
 70
     0
 40
0.0
 41
0.7
 50
0.0
 71
     0
 42
0.2
  3
TXT
  4

  0
ENDTAB
  0
TABLE
  2
VIEW
  5
6
330
0
100
AcDbSymbolTable
 70
     0
  0
ENDTAB
  0
TABLE
  2
UCS
  5
7
330
0
100
AcDbSymbolTable
 70
     0
  0
ENDTAB
  0
TABLE
  2
APPID
  5
9
330
0
100
AcDbSymbolTable
 70
     1
  0
APPID
  5
12
330
9
100
AcDbSymbolTableRecord
100
AcDbRegAppTableRecord
  2
ACAD
 70
     0
  0
ENDTAB
  0
TABLE
  2
DIMSTYLE
  5
A
330
0
100
AcDbSymbolTable
 70
     5
100
AcDbDimStyleTable
  0
DIMSTYLE
105
27
330
A
100
AcDbSymbolTableRecord
100
AcDbDimStyleTableRecord
  2
ISO-25
 70
     0
 41
2.5
 42
0.625
 43
3.75
 44
1.25
 73
     0
 74
     0
 77
     1
 78
     8
140
2.5
141
2.5
143
0.0393700787
147
0.625
171
     3
172
     1
178
     0
271
     2
272
     2
274
     3
278
    44
283
     0
284
     8
340
11
  0
DIMSTYLE
105
19A
102
{ACAD_REACTORS
330
199
102
}
330
A
100
AcDbSymbolTableRecord
100
AcDbDimStyleTableRecord
  2
SLDDIMSTYLE0
 70
     0
 41
3.0
 44
0.0
 73
     0
 74
     0
 77
     1
 78
    12
 79
     3
140
2.0
147
0.5
173
     1
178
     0
179
     2
272
     3
276
     2
284
    12
340
48
  0
DIMSTYLE
105
1A4
102
{ACAD_REACTORS
330
1A3
330
1AE
330
1C1
102
}
330
A
100
AcDbSymbolTableRecord
100
AcDbDimStyleTableRecord
  2
SLDDIMSTYLE1
 70
     0
 41
3.0
 44
0.0
 45
0.000000001
 73
     0
 74
     0
 77
     1
 78
    12
 79
     3
140
2.0
147
0.5
173
     1
178
     0
271
     2
272
     3
276
     2
284
    12
340
48
  0
DIMSTYLE
105
1B9
102
{ACAD_REACTORS
330
1B8
102
}
330
A
100
AcDbSymbolTableRecord
100
AcDbDimStyleTableRecord
  2
SLDDIMSTYLE2
 70
     0
 41
3.0
 44
0.0
 45
0.000000001
 73
     0
 74
     0
 77
     1
 78
    12
 79
     3
140
2.0
141
0.0
147
0.5
173
     1
178
     0
271
     2
272
     3
276
     2
284
    12
340
48
  0
DIMSTYLE
105
297
330
A
100
AcDbSymbolTableRecord
100
AcDbDimStyleTableRecord
  2
SLDDIMSTYLE3
 70
     0
 41
0.9
 44
0.0
 45
0.000000001
140
0.0
146
0.9
147
0.0
173
     1
178
     0
271
     0
272
     0
276
     2
340
11
341
298
343
298
344
298
  0
ENDTAB
  0
TABLE
  2
BLOCK_RECORD
  5
1
330
0
100
AcDbSymbolTable
 70
    10
  0
BLOCK_RECORD
  5
1F
330
1
100
AcDbSymbolTableRecord
100
AcDbBlockTableRecord
  2
*Model_Space
340
22
  0
BLOCK_RECORD
  5
1B
330
1
100
AcDbSymbolTableRecord
100
AcDbBlockTableRecord
  2
*Paper_Space
340
1E
  0
BLOCK_RECORD
  5
23
330
1
100
AcDbSymbolTableRecord
100
AcDbBlockTableRecord
  2
*Paper_Space0
340
26
  0
BLOCK_RECORD
  5
4E
330
1
100
AcDbSymbolTableRecord
100
AcDbBlockTableRecord
  2
SW_TABLEANNOTATION_0
340
0
102
{BLKREFS
331
64
102
}
  0
BLOCK_RECORD
  5
19B
330
1
100
AcDbSymbolTableRecord
100
AcDbBlockTableRecord
  2
_D
340
0
  0
BLOCK_RECORD
  5
1A5
330
1
100
AcDbSymbolTableRecord
100
AcDbBlockTableRecord
  2
_D_1
340
0
  0
BLOCK_RECORD
  5
1AF
330
1
100
AcDbSymbolTableRecord
100
AcDbBlockTableRecord
  2
_D_2
340
0
  0
BLOCK_RECORD
  5
1BA
330
1
100
AcDbSymbolTableRecord
100
AcDbBlockTableRecord
  2
_D_3
340
0
  0
BLOCK_RECORD
  5
1C2
330
1
100
AcDbSymbolTableRecord
100
AcDbBlockTableRecord
  2
_D_4
340
0
  0
BLOCK_RECORD
  5
26B
330
1
100
AcDbSymbolTableRecord
100
AcDbBlockTableRecord
  2
SW_CENTERMARKSYMBOL_0
340
0
102
{BLKREFS
331
276
102
}
  0
BLOCK_RECORD
  5
291
330
1
100
AcDbSymbolTableRecord
100
AcDbBlockTableRecord
  2
SW_NOTE_0
340
0
102
{BLKREFS
331
296
102
}
  0
BLOCK_RECORD
  5
298
330
1
100
AcDbSymbolTableRecord
100
AcDbBlockTableRecord
  2
_DOT
340
0
  0
ENDTAB
  0
ENDSEC
  0
SECTION
  2
BLOCKS
  0
BLOCK
  5
20
330
1F
100
AcDbEntity
  8
0
100
AcDbBlockBegin
  2
*Model_Space
 70
     0
 10
0.0
 20
0.0
 30
0.0
  3
*Model_Space
  1

  0
ENDBLK
  5
21
330
1F
100
AcDbEntity
  8
0
100
AcDbBlockEnd
  0
BLOCK
  5
1C
330
1B
100
AcDbEntity
 67
     1
  8
0
100
AcDbBlockBegin
  2
*Paper_Space
 70
     0
 10
0.0
 20
0.0
 30
0.0
  3
*Paper_Space
  1

  0
ENDBLK
  5
1D
330
1B
100
AcDbEntity
 67
     1
  8
0
100
AcDbBlockEnd
  0
BLOCK
  5
24
330
23
100
AcDbEntity
  8
0
100
AcDbBlockBegin
  2
*Paper_Space0
 70
     0
 10
0.0
 20
0.0
 30
0.0
  3
*Paper_Space0
  1

  0
ENDBLK
  5
25
330
23
100
AcDbEntity
  8
0
100
AcDbBlockEnd
  0
BLOCK
  5
4F
330
4E
100
AcDbEntity
  8
0
100
AcDbBlockBegin
  2
SW_TABLEANNOTATION_0
 70
     0
 10
0.0
 20
0.0
 30
0.0
  3
SW_TABLEANNOTATION_0
  1

  0
LINE
  5
51
330
4E
100
AcDbEntity
  8
VERMASSUNG
 62
     0
100
AcDbLine
 10
0.0
 20
0.0
 30
0.0
 11
0.0
 21
-7.3075975359
 31
0.0
  0
LINE
  5
52
330
4E
100
AcDbEntity
  8
VERMASSUNG
 62
     0
100
AcDbLine
 10
0.0
 20
-7.3075975359
 30
0.0
 11
149.8403327902
 21
-7.3075975359
 31
0.0
  0
LINE
  5
53
330
4E
100
AcDbEntity
  8
VERMASSUNG
 62
     0
100
AcDbLine
 10
149.8403327902
 20
-7.3075975359
 30
0.0
 11
149.8403327902
 21
0.0
 31
0.0
  0
LINE
  5
54
330
4E
100
AcDbEntity
  8
VERMASSUNG
 62
     0
100
AcDbLine
 10
149.8403327902
 20
0.0
 30
0.0
 11
0.0
 21
0.0
 31
0.0
  0
LINE
  5
55
330
4E
100
AcDbEntity
  8
VERMASSUNG
 62
     0
100
AcDbLine
 10
15.9651052694
 20
-3.653798768
 30
0.0
 11
15.9651052694
 21
-7.3075975359
 31
0.0
  0
LINE
  5
56
330
4E
100
AcDbEntity
  8
VERMASSUNG
 62
     0
100
AcDbLine
 10
48.9080189007
 20
-3.653798768
 30
0.0
 11
48.9080189007
 21
-7.3075975359
 31
0.0
  0
LINE
  5
57
330
4E
100
AcDbEntity
  8
VERMASSUNG
 62
     0
100
AcDbLine
 10
117.4945422358
 20
-3.653798768
 30
0.0
 11
117.4945422358
 21
-7.3075975359
 31
0.0
  0
LINE
  5
58
330
4E
100
AcDbEntity
  8
VERMASSUNG
 62
     0
100
AcDbLine
 10
15.9651052694
 20
0.0
 30
0.0
 11
15.9651052694
 21
-3.653798768
 31
0.0
  0
LINE
  5
59
330
4E
100
AcDbEntity
  8
VERMASSUNG
 62
     0
100
AcDbLine
 10
48.9080189007
 20
0.0
 30
0.0
 11
48.9080189007
 21
-3.653798768
 31
0.0
  0
LINE
  5
5A
330
4E
100
AcDbEntity
  8
VERMASSUNG
 62
     0
100
AcDbLine
 10
117.4945422358
 20
0.0
 30
0.0
 11
117.4945422358
 21
-3.653798768
 31
0.0
  0
LINE
  5
5B
330
4E
100
AcDbEntity
  8
VERMASSUNG
 62
     0
100
AcDbLine
 10
0.0
 20
-3.653798768
 30
0.0
 11
149.8403327902
 21
-3.653798768
 31
0.0
  0
MTEXT
  5
5C
330
4E
100
AcDbEntity
  8
VERMASSUNG
 62
     0
100
AcDbMText
 10
7.4825526109
 20
-0.9148112682
 30
0.0
 40
2.0
 41
0.0
 71
     1
 72
     1
  1
1
  7
SLDTEXTSTYLE0
 73
     1
 44
1.0
  0
MTEXT
  5
5D
330
4E
100
AcDbEntity
  8
VERMASSUNG
 62
     0
100
AcDbMText
 10
31.9365620613
 20
-0.9148112682
 30
0.0
 40
2.0
 41
0.0
 71
     1
 72
     1
  1
1
  7
SLDTEXTSTYLE0
 73
     1
 44
1.0
  0
MTEXT
  5
5E
330
4E
100
AcDbEntity
  8
VERMASSUNG
 62
     0
100
AcDbMText
 10
67.1012799782
 20
-0.9148112682
 30
0.0
 40
2.0
 41
0.0
 71
     1
 72
     1
  1
Torx-Schraube M4x9 (T15)
  7
SLDTEXTSTYLE0
 73
     1
 44
1.0
  0
MTEXT
  5
5F
330
4E
100
AcDbEntity
  8
VERMASSUNG
 62
     0
100
AcDbMText
 10
123.5674369751
 20
-0.9148112682
 30
0.0
 40
2.0
 41
0.0
 71
     1
 72
     1
  1
WCB-ER2.001.009
  7
SLDTEXTSTYLE0
 73
     1
 44
1.0
  0
MTEXT
  5
60
330
4E
100
AcDbEntity
  8
VERMASSUNG
 62
     0
100
AcDbMText
 10
5.2825525646
 20
-4.3025627389
 30
0.0
 40
2.0
 41
0.0
 71
     1
 72
     1
  1
POS.
  7
SLDTEXTSTYLE0
 73
     1
 44
1.0
  0
MTEXT
  5
61
330
4E
100
AcDbEntity
  8
VERMASSUNG
 62
     0
100
AcDbMText
 10
21.1365617229
 20
-4.3025627389
 30
0.0
 40
2.0
 41
0.0
 71
     1
 72
     1
  1
Ersatzteile/MENGE
  7
SLDTEXTSTYLE0
 73
     1
 44
1.0
  0
MTEXT
  5
62
330
4E
100
AcDbEntity
  8
VERMASSUNG
 62
     0
100
AcDbMText
 10
75.9012794648
 20
-4.3025627389
 30
0.0
 40
2.0
 41
0.0
 71
     1
 72
     1
  1
Bezeichnung
  7
SLDTEXTSTYLE0
 73
     1
 44
1.0
  0
MTEXT
  5
63
330
4E
100
AcDbEntity
  8
VERMASSUNG
 62
     0
100
AcDbMText
 10
122.5674358798
 20
-4.3025627389
 30
0.0
 40
2.0
 41
0.0
 71
     1
 72
     1
  1
Zeichnungsnummer
  7
SLDTEXTSTYLE0
 73
     1
 44
1.0
  0
ENDBLK
  5
50
330
4E
100
AcDbEntity
  8
0
100
AcDbBlockEnd
  0
BLOCK
  5
19C
330
19B
100
AcDbEntity
  8
0
100
AcDbBlockBegin
  2
_D
 70
     0
 10
0.0
 20
0.0
 30
0.0
  3
_D
  1

  0
ARC
  5
19E
330
19B
100
AcDbEntity
  8
VERMASSUNG
100
AcDbCircle
 10
268.7156968654
 20
92.2342293783
 30
0.0
 40
21.795831013982
100
AcDbArc
 50
220.0
 51
270.0
  0
SOLID
  5
19F
330
19B
100
AcDbEntity
  8
VERMASSUNG
100
AcDbTrace
 10
252.019121634
 20
78.2241392597
 30
0.0
 11
253.7758778575
 21
75.7510222848
 31
0.0
 12
254.424172295
 22
76.3752933175
 32
0.0
 13
254.424172295
 23
76.3752933175
 33
0.0
  0
SOLID
  5
1A0
330
19B
100
AcDbEntity
  8
VERMASSUNG
100
AcDbTrace
 10
268.7156968654
 20
70.4383983643
 30
0.0
 11
265.7534619396
 21
71.0923587947
 31
0.0
 12
265.691958216
 22
70.1944627585
 32
0.0
 13
265.691958216
 23
70.1944627585
 33
0.0
  0
LINE
  5
1A1
330
19B
100
AcDbEntity
  8
VERMASSUNG
100
AcDbLine
 10
256.9497985489
 20
82.3614684405
 30
0.0
 11
251.2530771909
 21
77.58135165
 31
0.0
  0
MTEXT
  5
1A2
330
19B
100
AcDbEntity
  8
VERMASSUNG
100
AcDbMText
 10
257.9656549748
 20
76.0426752029
 30
0.1
 40
2.0
 41
0.0
 71
     1
 72
     1
  1
50°
  7
SLDTEXTSTYLE0
 11
0.9063077870366584
 21
-0.4226182617406815
 31
0.0
 73
     1
 44
1.0
  0
ENDBLK
  5
19D
330
19B
100
AcDbEntity
  8
0
100
AcDbBlockEnd
  0
BLOCK
  5
1A6
330
1A5
100
AcDbEntity
  8
0
100
AcDbBlockBegin
  2
_D_1
 70
     0
 10
0.0
 20
0.0
 30
0.0
  3
_D_1
  1

  0
SOLID
  5
1A8
330
1A5
100
AcDbEntity
  8
VERMASSUNG
100
AcDbTrace
 10
268.7156968654
 20
55.1950719977
 30
0.0
 11
265.7156968654
 21
55.6450719977
 31
0.0
 12
265.7156968654
 22
54.7450719977
 32
0.0
 13
265.7156968654
 23
54.7450719977
 33
0.0
  0
SOLID
  5
1A9
330
1A5
100
AcDbEntity
  8
VERMASSUNG
100
AcDbTrace
 10
138.7156968654
 20
55.1950719977
 30
0.0
 11
141.7156968654
 21
54.7450719977
 31
0.0
 12
141.7156968654
 22
55.6450719977
 32
0.0
 13
141.7156968654
 23
55.6450719977
 33
0.0
  0
LINE
  5
1AA
330
1A5
100
AcDbEntity
  8
VERMASSUNG
100
AcDbLine
 10
268.7156968654
 20
56.3372688397
 30
0.0
 11
268.7156968654
 21
54.1950719977
 31
0.0
  0
LINE
  5
1AB
330
1A5
100
AcDbEntity
  8
VERMASSUNG
100
AcDbLine
 10
138.7156968654
 20
61.599374877
 30
0.0
 11
138.7156968654
 21
54.1950719977
 31
0.0
  0
LINE
  5
1AC
330
1A5
100
AcDbEntity
  8
VERMASSUNG
100
AcDbLine
 10
268.7156968654
 20
55.1950719977
 30
0.0
 11
138.7156968654
 21
55.1950719977
 31
0.0
  0
MTEXT
  5
1AD
330
1A5
100
AcDbEntity
  8
VERMASSUNG
100
AcDbMText
 10
200.9156967324
 20
57.7732073608
 30
0.1
 40
2.0
 41
0.0
 71
     1
 72
     1
  1
130
  7
SLDTEXTSTYLE0
 73
     1
 44
1.0
  0
ENDBLK
  5
1A7
330
1A5
100
AcDbEntity
  8
0
100
AcDbBlockEnd
  0
BLOCK
  5
1B0
330
1AF
100
AcDbEntity
  8
0
100
AcDbBlockBegin
  2
_D_2
 70
     0
 10
0.0
 20
0.0
 30
0.0
  3
_D_2
  1

  0
SOLID
  5
1B2
330
1AF
100
AcDbEntity
  8
VERMASSUNG
100
AcDbTrace
 10
100.7156968654
 20
48.0544410876
 30
0.0
 11
103.7156968654
 21
47.6044410876
 31
0.0
 12
103.7156968654
 22
48.5044410876
 32
0.0
 13
103.7156968654
 23
48.5044410876
 33
0.0
  0
SOLID
  5
1B3
330
1AF
100
AcDbEntity
  8
VERMASSUNG
100
AcDbTrace
 10
268.7156968654
 20
48.0544410876
 30
0.0
 11
265.7156968654
 21
48.5044410876
 31
0.0
 12
265.7156968654
 22
47.6044410876
 32
0.0
 13
265.7156968654
 23
47.6044410876
 33
0.0
  0
LINE
  5
1B4
330
1AF
100
AcDbEntity
  8
VERMASSUNG
100
AcDbLine
 10
100.7156968654
 20
72.3070368845
 30
0.0
 11
100.7156968654
 21
47.0544410876
 31
0.0
  0
LINE
  5
1B5
330
1AF
100
AcDbEntity
  8
VERMASSUNG
100
AcDbLine
 10
268.7156968654
 20
56.3372688397
 30
0.0
 11
268.7156968654
 21
47.0544410876
 31
0.0
  0
LINE
  5
1B6
330
1AF
100
AcDbEntity
  8
VERMASSUNG
100
AcDbLine
 10
100.7156968654
 20
48.0544410876
 30
0.0
 11
268.7156968654
 21
48.0544410876
 31
0.0
  0
MTEXT
  5
1B7
330
1AF
100
AcDbEntity
  8
VERMASSUNG
100
AcDbMText
 10
181.9156967324
 20
50.6325764507
 30
0.1
 40
2.0
 41
0.0
 71
     1
 72
     1
  1
168
  7
SLDTEXTSTYLE0
 73
     1
 44
1.0
  0
ENDBLK
  5
1B1
330
1AF
100
AcDbEntity
  8
0
100
AcDbBlockEnd
  0
BLOCK
  5
1BB
330
1BA
100
AcDbEntity
  8
0
100
AcDbBlockBegin
  2
_D_3
 70
     0
 10
0.0
 20
0.0
 30
0.0
  3
_D_3
  1

  0
SOLID
  5
1BD
330
1BA
100
AcDbEntity
  8
VERMASSUNG
100
AcDbTrace
 10
268.6925552139
 20
92.646301504
 30
0.0
 11
271.5156314253
 21
93.7565900723
 31
0.0
 12
271.0656314253
 22
94.5360129357
 32
0.0
 13
271.0656314253
 23
94.5360129357
 33
0.0
  0
LINE
  5
1BE
330
1BA
100
AcDbEntity
  8
VERMASSUNG
100
AcDbLine
 10
268.6925552139
 20
92.646301504
 30
0.0
 11
278.3054167078
 21
98.1962896752
 31
0.0
  0
LINE
  5
1BF
330
1BA
100
AcDbEntity
  8
VERMASSUNG
100
AcDbLine
 10
268.6925552139
 20
92.646301504
 30
0.0
 11
268.3461450524
 21
92.446301504
 31
0.0
  0
MTEXT
  5
1C0
330
1BA
100
AcDbEntity
  8
VERMASSUNG
100
AcDbMText
 10
270.9786248593
 20
96.8866649811
 30
0.1
 40
2.0
 41
0.0
 71
     1
 72
     1
  1
R0.4
  7
SLDTEXTSTYLE0
 11
0.8660254037844387
 21
0.4999999999999998
 31
0.0
 73
     1
 44
1.0
  0
ENDBLK
  5
1BC
330
1BA
100
AcDbEntity
  8
0
100
AcDbBlockEnd
  0
BLOCK
  5
1C3
330
1C2
100
AcDbEntity
  8
0
100
AcDbBlockBegin
  2
_D_4
 70
     0
 10
0.0
 20
0.0
 30
0.0
  3
_D_4
  1

  0
SOLID
  5
1C5
330
1C2
100
AcDbEntity
  8
VERMASSUNG
100
AcDbTrace
 10
90.7156468654
 20
124.099374877
 30
0.0
 11
90.2656468654
 21
121.099374877
 31
0.0
 12
91.1656468654
 22
121.099374877
 32
0.0
 13
91.1656468654
 23
121.099374877
 33
0.0
  0
SOLID
  5
1C6
330
1C2
100
AcDbEntity
  8
VERMASSUNG
100
AcDbTrace
 10
90.7156468654
 20
61.099374877
 30
0.0
 11
91.1656468654
 21
64.099374877
 31
0.0
 12
90.2656468654
 22
64.099374877
 32
0.0
 13
90.2656468654
 23
64.099374877
 33
0.0
  0
LINE
  5
1C7
330
1C2
100
AcDbEntity
  8
VERMASSUNG
100
AcDbLine
 10
139.2156968654
 20
124.099374877
 30
0.0
 11
89.7156468654
 21
124.099374877
 31
0.0
  0
LINE
  5
1C8
330
1C2
100
AcDbEntity
  8
VERMASSUNG
100
AcDbLine
 10
139.2156968654
 20
61.099374877
 30
0.0
 11
89.7156468654
 21
61.099374877
 31
0.0
  0
LINE
  5
1C9
330
1C2
100
AcDbEntity
  8
VERMASSUNG
100
AcDbLine
 10
90.7156468654
 20
124.099374877
 30
0.0
 11
90.7156468654
 21
61.099374877
 31
0.0
  0
MTEXT
  5
1CA
330
1C2
100
AcDbEntity
  8
VERMASSUNG
100
AcDbMText
 10
87.9375113764
 20
86.1943747677
 30
0.1
 40
2.0
 41
0.0
 71
     1
 72
     1
  1
PSC
  7
SLDTEXTSTYLE0
 11
-7.044195017643634E-15
 21
1.0
 31
0.0
 73
     1
 44
1.0
  0
MTEXT
  5
1CB
330
1C2
100
AcDbEntity
  8
VERMASSUNG
100
AcDbMText
 10
88.1375113859
 20
90.7943748698
 30
0.1
 40
2.0
 41
0.0
 71
     1
 72
     1
  1
%%c
  7
SLDTEXTSTYLE0
 11
-7.044195017643634E-15
 21
1.0
 31
0.0
 73
     1
 44
1.0
  0
MTEXT
  5
1CC
330
1C2
100
AcDbEntity
  8
VERMASSUNG
100
AcDbMText
 10
87.9375113764
 20
94.4043753498
 30
0.1
 40
2.0
 41
0.0
 71
     1
 72
     1
  1
63
  7
SLDTEXTSTYLE0
 11
-7.044195017643634E-15
 21
1.0
 31
0.0
 73
     1
 44
1.0
  0
ENDBLK
  5
1C4
330
1C2
100
AcDbEntity
  8
0
100
AcDbBlockEnd
  0
BLOCK
  5
26C
330
26B
100
AcDbEntity
  8
0
100
AcDbBlockBegin
  2
SW_CENTERMARKSYMBOL_0
 70
     0
 10
0.0
 20
0.0
 30
0.0
  3
SW_CENTERMARKSYMBOL_0
  1

  0
LINE
  5
26E
330
26B
100
AcDbEntity
  8
VERMASSUNG
 62
     0
100
AcDbLine
 10
0.0
 20
0.0
 30
0.0
 11
0.0
 21
2.5
 31
0.0
  0
LINE
  5
26F
330
26B
100
AcDbEntity
  8
VERMASSUNG
 62
     0
100
AcDbLine
 10
0.0
 20
0.0
 30
0.0
 11
-2.5
 21
0.0
 31
0.0
  0
LINE
  5
270
330
26B
100
AcDbEntity
  8
VERMASSUNG
 62
     0
100
AcDbLine
 10
0.0
 20
0.0
 30
0.0
 11
0.0
 21
-2.5
 31
0.0
  0
LINE
  5
271
330
26B
100
AcDbEntity
  8
VERMASSUNG
 62
     0
100
AcDbLine
 10
0.0
 20
0.0
 30
0.0
 11
2.5
 21
0.0
 31
0.0
  0
LINE
  5
272
330
26B
100
AcDbEntity
  8
VERMASSUNG
 62
     0
100
AcDbLine
 10
0.0
 20
5.0
 30
0.0
 11
0.0
 21
34.0
 31
0.0
  0
LINE
  5
273
330
26B
100
AcDbEntity
  8
VERMASSUNG
 62
     0
100
AcDbLine
 10
-5.0
 20
0.0
 30
0.0
 11
-34.0
 21
0.0
 31
0.0
  0
LINE
  5
274
330
26B
100
AcDbEntity
  8
VERMASSUNG
 62
     0
100
AcDbLine
 10
0.0
 20
-5.0
 30
0.0
 11
0.0
 21
-34.0
 31
0.0
  0
LINE
  5
275
330
26B
100
AcDbEntity
  8
VERMASSUNG
 62
     0
100
AcDbLine
 10
5.0
 20
0.0
 30
0.0
 11
34.0
 21
0.0
 31
0.0
  0
ENDBLK
  5
26D
330
26B
100
AcDbEntity
  8
0
100
AcDbBlockEnd
  0
BLOCK
  5
292
330
291
100
AcDbEntity
  8
0
100
AcDbBlockBegin
  2
SW_NOTE_0
 70
     0
 10
0.0
 20
0.0
 30
0.0
  3
SW_NOTE_0
  1

  0
CIRCLE
  5
294
330
291
100
AcDbEntity
  8
VERMASSUNG
 62
     0
100
AcDbCircle
 10
2.3755656655
 20
0.0
 30
0.0
 40
2.37556566551002
  0
MTEXT
  5
295
330
291
100
AcDbEntity
  8
VERMASSUNG
 62
     0
100
AcDbMText
 10
2.3755656418
 20
0.6868740853
 30
0.0
 40
2.0
 41
0.0
 71
     2
 72
     1
  1
1
  7
SLDTEXTSTYLE0
 73
     1
 44
1.0
  0
ENDBLK
  5
293
330
291
100
AcDbEntity
  8
0
100
AcDbBlockEnd
  0
BLOCK
  5
299
330
298
100
AcDbEntity
  8
0
100
AcDbBlockBegin
  2
_DOT
 70
     0
 10
0.0
 20
0.0
 30
0.0
  3
_DOT
  1

  0
POLYLINE
  5
29B
330
298
100
AcDbEntity
  8
0
  6
ByBlock
 62
     0
100
AcDb2dPolyline
 66
     1
 10
0.0
 20
0.0
 30
0.0
 70
     1
 40
0.5
 41
0.5
  0
VERTEX
  5
29D
330
29B
100
AcDbEntity
  8
0
  6
ByBlock
 62
     0
100
AcDbVertex
100
AcDb2dVertex
 10
-0.25
 20
0.0
 30
0.0
 42
1.0
  0
VERTEX
  5
29E
330
29B
100
AcDbEntity
  8
0
  6
ByBlock
 62
     0
100
AcDbVertex
100
AcDb2dVertex
 10
0.25
 20
0.0
 30
0.0
 42
1.0
  0
SEQEND
  5
29F
330
29B
100
AcDbEntity
  8
0
  6
ByBlock
 62
     0
  0
LINE
  5
29C
330
298
100
AcDbEntity
  8
0
  6
ByBlock
 62
     0
370
    -2
100
AcDbLine
 10
-0.5
 20
0.0
 30
0.0
 11
-1.0
 21
0.0
 31
0.0
  0
ENDBLK
  5
29A
330
298
100
AcDbEntity
  8
0
100
AcDbBlockEnd
  0
ENDSEC
  0
SECTION
  2
ENTITIES
  0
MTEXT
  5
49
330
1F
100
AcDbEntity
  8
KOPF_DÜNN
100
AcDbMText
 10
13.8892156294
 20
23.8442973028
 30
0.0
 40
3.0
 41
0.0
 71
     1
 72
     1
  1
PS6.KVB.NMA.130
  7
SLDTEXTSTYLE0
 73
     1
 44
1.0
  0
MTEXT
  5
4A
330
1F
100
AcDbEntity
  8
VERMASSUNG
100
AcDbMText
 10
13.9329988022
 20
28.8834360957
 30
0.0
 40
3.0
 41
0.0
 71
     1
 72
     1
  1
Klemmhalter_Turning tool neutral
  7
SLDTEXTSTYLE0
 73
     1
 44
1.0
  0
MTEXT
  5
4B
330
1F
100
AcDbEntity
  8
VERMASSUNG
100
AcDbMText
 10
98.8601118557
 20
13.8365368179
 30
0.0
 40
2.0
 41
0.0
 71
     1
 72
     1
  1
Datum: 16.04.2013
  7
SLDTEXTSTYLE0
 73
     1
 44
1.0
  0
MTEXT
  5
4C
330
1F
100
AcDbEntity
  8
VERMASSUNG
100
AcDbMText
 10
13.933048693
 20
18.0482802738
 30
0.0
 40
2.0
 41
0.0
 71
     1
 72
     1
  1
PSC ø63 / VC.. 16 04 .. / Sonderw..50°
  7
SLDTEXTSTYLE0
 73
     1
 44
1.0
  0
MTEXT
  5
4D
330
1F
100
AcDbEntity
  8
VERMASSUNG
100
AcDbMText
 10
13.9808475933
 20
13.9090973692
 30
0.0
 40
2.0
 41
0.0
 71
     1
 72
     1
  1
Gewicht: 1g
  7
SLDTEXTSTYLE0
 73
     1
 44
1.0
  0
INSERT
  5
64
330
1F
100
AcDbEntity
  8
VERMASSUNG
100
AcDbBlockReference
  2
SW_TABLEANNOTATION_0
 10
130.5710382684
 20
19.2953337654
 30
0.0
  0
ARC
  5
65
330
1F
100
AcDbEntity
  8
0
  6
Continuous
 62
     7
370
    15
100
AcDbCircle
 10
139.2156968654
 20
61.599374877
 30
0.0
 40
0.5
100
AcDbArc
 50
180.0
 51
270.0
  0
ARC
  5
66
330
1F
100
AcDbEntity
  8
0
  6
Continuous
 62
     7
370
    15
100
AcDbCircle
 10
139.2156968654
 20
123.599374877
 30
0.0
 40
0.5
100
AcDbArc
 50
90.0
 51
180.0
  0
LINE
  5
67
330
1F
100
AcDbEntity
  8
0
  6
Continuous
 62
     7
370
    15
100
AcDbLine
 10
167.175469333
 20
124.0993753836
 30
0.0
 11
139.2156968892
 21
124.0993753836
 31
0.0
  0
LINE
  5
68
330
1F
100
AcDbEntity
  8
0
  6
Continuous
 62
     7
370
    15
100
AcDbLine
 10
139.2156968892
 20
61.0993743703
 30
0.0
 11
165.6343539895
 21
61.0993743703
 31
0.0
  0
LWPOLYLINE
  5
69
330
1F
100
AcDbEntity
  8
0
  6
Continuous
 62
     7
370
    15
100
AcDbPolyline
 90
        3
 70
   128
 43
0.0
 10
138.5156968705
 20
70.0595543549
 10
138.6411518057
 20
69.9912530199
 10
138.7156968654
 20
69.9385140852
  0
LWPOLYLINE
  5
6A
330
1F
100
AcDbEntity
  8
0
  6
Continuous
 62
     7
370
    15
100
AcDbPolyline
 90
        3
 70
   128
 43
0.0
 10
138.7156968654
 20
115.2602356688
 10
138.6411518057
 20
115.207496734
 10
138.5156968705
 20
115.139195399
  0
ARC
  5
6B
330
1F
100
AcDbEntity
  8
0
  6
Continuous
 62
     7
370
    15
100
AcDbCircle
 10
254.8320645814
 20
86.8485860899
 30
0.0
 40
1.67500000000004
100
AcDbArc
 50
351.6787537241
 51
50.2786868513
  0
ARC
  5
6C
330
1F
100
AcDbEntity
  8
0
  6
Continuous
 62
     7
370
    15
100
AcDbCircle
 10
254.8320645814
 20
86.8485860899
 30
0.0
 40
1.67500000000004
100
AcDbArc
 50
50.2786868513
 51
110.3855285861
  0
ARC
  5
6D
330
1F
100
AcDbEntity
  8
0
  6
Continuous
 62
     7
370
    15
100
AcDbCircle
 10
254.8320645814
 20
86.8485860899
 30
0.0
 40
1.675000000000007
100
AcDbArc
 50
110.3855285861
 51
168.9854617133
  0
LINE
  5
6E
330
1F
100
AcDbEntity
  8
0
  6
Continuous
 62
     7
370
    15
100
AcDbLine
 10
253.1738107742
 20
87.0848243885
 30
0.0
 11
253.1879221738
 21
87.1686084956
 31
0.0
  0
ARC
  5
6F
330
1F
100
AcDbEntity
  8
0
  6
Continuous
 62
     7
370
    15
100
AcDbCircle
 10
254.8320645814
 20
86.8485860899
 30
0.0
 40
1.674999999999985
100
AcDbArc
 50
171.8920924852
 51
228.3358106515
  0
LINE
  5
70
330
1F
100
AcDbEntity
  8
0
  6
Continuous
 62
     7
370
    15
100
AcDbLine
 10
253.8108801187
 20
85.5208786034
 30
0.0
 11
253.7185823263
 21
85.5972708032
 31
0.0
  0
ARC
  5
71
330
1F
100
AcDbEntity
  8
0
  6
Continuous
 62
     7
370
    15
100
AcDbCircle
 10
254.8320645814
 20
86.8485860899
 30
0.0
 40
1.675000000000004
100
AcDbArc
 50
232.4349025517
 51
288.2293128857
  0
LINE
  5
72
330
1F
100
AcDbEntity
  8
0
  6
Continuous
 62
     7
370
    15
100
AcDbLine
 10
255.4684182347
 20
85.2991749362
 30
0.0
 11
255.3560411275
 21
85.2576509879
 31
0.0
  0
ARC
  5
73
330
1F
100
AcDbEntity
  8
0
  6
Continuous
 62
     7
370
    15
100
AcDbCircle
 10
254.8320645814
 20
86.8485860899
 30
0.0
 40
1.67500000000001
100
AcDbArc
 50
292.328404786
 51
348.7721229523
  0
LINE
  5
74
330
1F
100
AcDbEntity
  8
0
  6
Continuous
 62
     7
370
    15
100
AcDbLine
 10
256.4894308985
 20
86.6061748766
 30
0.0
 11
256.4750065745
 21
86.5224443205
 31
0.0
  0
CIRCLE
  5
75
330
1F
100
AcDbEntity
  8
0
  6
Continuous
 62
     7
370
    15
100
AcDbCircle
 10
254.8320645814
 20
86.8485860899
 30
0.0
 40
1.800000000000013
  0
SPLINE
  5
76
330
1F
100
AcDbEntity
  8
0
  6
Continuous
 62
     7
370
    15
100
AcDbSpline
210
0.0
220
0.0
230
1.0
 70
     8
 71
     3
 72
    11
 73
     7
 74
     0
 42
0.00000001
 43
0.00000001
 12
1.0
 22
0.0
 32
0.0
 13
1.0
 23
0.0
 33
0.0
 40
0.0
 40
0.0
 40
0.0
 40
0.0
 40
0.2669034585997256
 40
0.5546197785620319
 40
0.8439161247396573
 40
0.9999999999999999
 40
0.9999999999999999
 40
0.9999999999999999
 40
0.9999999999999999
 10
253.8108801187046
 20
85.52087860336356
 30
0.0
 10
253.8427059448945
 20
85.5066220757801
 30
0.0
 10
253.9088393429653
 20
85.47699731103224
 30
0.0
 10
254.0205432663042
 20
85.47535922261426
 30
0.0
 10
254.1128790146917
 20
85.50251068956786
 30
0.0
 10
254.1602952000215
 20
85.5345301784176
 30
0.0
 10
254.1769122422702
 20
85.54575143536381
 30
0.0
  0
SPLINE
  5
77
330
1F
100
AcDbEntity
  8
0
  6
Continuous
 62
     7
370
    15
100
AcDbSpline
210
0.0
220
0.0
230
1.0
 70
     8
 71
     3
 72
    12
 73
     8
 74
     0
 42
0.00000001
 43
0.00000001
 12
1.0
 22
0.0
 32
0.0
 13
1.0
 23
0.0
 33
0.0
 40
0.0
 40
0.0
 40
0.0
 40
0.0
 40
0.205843871836602
 40
0.4120613284381481
 40
0.6141411039685845
 40
0.813278444017941
 40
1.0
 40
1.0
 40
1.0
 40
1.0
 10
254.1769122422702
 20
85.54575143536381
 30
0.0
 10
254.2327900487024
 20
85.58006351707039
 30
0.0
 10
254.3446470738505
 20
85.64874995326757
 30
0.0
 10
254.5443611550814
 20
85.67478154196132
 30
0.0
 10
254.7371252346504
 20
85.63761045222395
 30
0.0
 10
254.9052888476317
 20
85.54457408272222
 30
0.0
 10
254.981842339515
 20
85.44870688893268
 30
0.0
 10
255.0188874543674
 20
85.40231565167956
 30
0.0
  0
SPLINE
  5
78
330
1F
100
AcDbEntity
  8
0
  6
Continuous
 62
     7
370
    15
100
AcDbSpline
210
0.0
220
0.0
230
1.0
 70
     8
 71
     3
 72
    11
 73
     7
 74
     0
 42
0.00000001
 43
0.00000001
 12
1.0
 22
0.0
 32
0.0
 13
1.0
 23
0.0
 33
0.0
 40
0.0
 40
0.0
 40
0.0
 40
0.0
 40
0.2928982465450431
 40
0.5864402464301812
 40
0.8775113295285929
 40
1.0
 40
1.0
 40
1.0
 40
1.0
 10
255.0188874543674
 20
85.40231565167956
 30
0.0
 10
255.04282918487
 20
85.37292641333836
 30
0.0
 10
255.0907652667738
 20
85.31408334282322
 30
0.0
 10
255.1948414131127
 20
85.26265339029682
 30
0.0
 10
255.287089164856
 20
85.24855584663582
 30
0.0
 10
255.3402853975406
 20
85.25557272084696
 30
0.0
 10
255.3560411275394
 20
85.2576509878581
 30
0.0
  0
SPLINE
  5
79
330
1F
100
AcDbEntity
  8
0
  6
Continuous
 62
     7
370
    15
100
AcDbSpline
210
0.0
220
0.0
230
1.0
 70
     8
 71
     3
 72
    12
 73
     8
 74
     0
 42
0.00000001
 43
0.00000001
 12
1.0
 22
0.0
 32
0.0
 13
1.0
 23
0.0
 33
0.0
 40
0.0
 40
0.0
 40
0.0
 40
0.0
 40
0.2057902189373287
 40
0.4120331972804284
 40
0.6141273972592024
 40
0.813258572373303
 40
1.0
 40
1.0
 40
1.0
 40
1.0
 10
255.6304311097629
 20
85.62892319788985
 30
0.0
 10
255.6286544955183
 20
85.69445179934873
 30
0.0
 10
255.6250973582971
 20
85.82565317185245
 30
0.0
 10
255.7023915851431
 20
86.01162439471588
 30
0.0
 10
255.8309660611353
 20
86.15999337753635
 30
0.0
 10
255.9956284592612
 20
86.25912336411814
 30
0.0
 10
256.1169359801644
 20
86.27748830016711
 30
0.0
 10
256.175642246104
 20
86.28637593393974
 30
0.0
  0
SPLINE
  5
7A
330
1F
100
AcDbEntity
  8
0
  6
Continuous
 62
     7
370
    15
100
AcDbSpline
210
0.0
220
0.0
230
1.0
 70
     8
 71
     3
 72
    11
 73
     7
 74
     0
 42
0.00000001
 43
0.00000001
 12
1.0
 22
0.0
 32
0.0
 13
1.0
 23
0.0
 33
0.0
 40
0.0
 40
0.0
 40
0.0
 40
0.0
 40
0.2802354232878676
 40
0.5612856864711349
 40
0.8399899568738022
 40
1.0
 40
1.0
 40
1.0
 40
1.0
 10
256.175642246104
 20
86.28637593393974
 30
0.0
 10
256.2130413328672
 20
86.29240766835424
 30
0.0
 10
256.2879482516321
 20
86.30448867564355
 30
0.0
 10
256.3844452313064
 20
86.3688751086265
 30
0.0
 10
256.4467147067866
 20
86.44625181187737
 30
0.0
 10
256.4674455275378
 20
86.50208175057205
 30
0.0
 10
256.4750065744884
 20
86.52244432052426
 30
0.0
  0
SPLINE
  5
7B
330
1F
100
AcDbEntity
  8
0
  6
Continuous
 62
     7
370
    15
100
AcDbSpline
210
0.0
220
0.0
230
1.0
 70
     8
 71
     3
 72
    11
 73
     7
 74
     0
 42
0.00000001
 43
0.00000001
 12
1.0
 22
0.0
 32
0.0
 13
1.0
 23
0.0
 33
0.0
 40
0.0
 40
0.0
 40
0.0
 40
0.0
 40
0.2657597910662577
 40
0.5530029984885575
 40
0.8418212487101441
 40
1.0
 40
1.0
 40
1.0
 40
1.0
 10
255.4684182346828
 20
85.2991749361699
 30
0.0
 10
255.4966441067
 20
85.31949422729399
 30
0.0
 10
255.555377565956
 20
85.36177537476814
 30
0.0
 10
255.6128535525314
 20
85.45745473115832
 30
0.0
 10
255.6358532247953
 20
85.55123622084766
 30
0.0
 10
255.6318483234916
 20
85.6086176437378
 30
0.0
 10
255.6304311097629
 20
85.62892319788985
 30
0.0
  0
SPLINE
  5
7C
330
1F
100
AcDbEntity
  8
0
  6
Continuous
 62
     7
370
    15
100
AcDbSpline
210
0.0
220
0.0
230
1.0
 70
     8
 71
     3
 72
    11
 73
     7
 74
     0
 42
0.00000001
 43
0.00000001
 12
1.0
 22
0.0
 32
0.0
 13
1.0
 23
0.0
 33
0.0
 40
0.0
 40
0.0
 40
0.0
 40
0.0
 40
0.2431081397904058
 40
0.5182778255811632
 40
0.7947780964563215
 40
1.0
 40
1.0
 40
1.0
 40
1.0
 10
253.173810774184
 20
87.08482438852839
 30
0.0
 10
253.1753504205872
 20
87.0517019416755
 30
0.0
 10
253.1786327647765
 20
86.98108879911412
 30
0.0
 10
253.2256268006013
 20
86.88178308515182
 30
0.0
 10
253.2958105336658
 20
86.80498082265576
 30
0.0
 10
253.3535360054402
 20
86.77550719530116
 30
0.0
 10
253.3781280458934
 20
86.76295092483811
 30
0.0
  0
SPLINE
  5
7D
330
1F
100
AcDbEntity
  8
0
  6
Continuous
 62
     7
370
    15
100
AcDbSpline
210
0.0
220
0.0
230
1.0
 70
     8
 71
     3
 72
    12
 73
     8
 74
     0
 42
0.00000001
 43
0.00000001
 12
1.0
 22
0.0
 32
0.0
 13
1.0
 23
0.0
 33
0.0
 40
0.0
 40
0.0
 40
0.0
 40
0.0
 40
0.2058146665357721
 40
0.4120188968867627
 40
0.6140764606575038
 40
0.8132121773069378
 40
1.0
 40
1.0
 40
1.0
 40
1.0
 10
253.3781280458934
 20
86.76295092483811
 30
0.0
 10
253.4357746885283
 20
86.73171981233358
 30
0.0
 10
253.5511770867511
 20
86.66919847340638
 30
0.0
 10
253.6735719659297
 20
86.50927439419921
 30
0.0
 10
253.7377685737951
 20
86.3237675783706
 30
0.0
 10
253.7412990888925
 20
86.13160827687173
 30
0.0
 10
253.6965505234994
 20
86.01735920264181
 30
0.0
 10
253.6748921216495
 20
85.96206240510396
 30
0.0
  0
SPLINE
  5
7E
330
1F
100
AcDbEntity
  8
0
  6
Continuous
 62
     7
370
    15
100
AcDbSpline
210
0.0
220
0.0
230
1.0
 70
     8
 71
     3
 72
    11
 73
     7
 74
     0
 42
0.00000001
 43
0.00000001
 12
1.0
 22
0.0
 32
0.0
 13
1.0
 23
0.0
 33
0.0
 40
0.0
 40
0.0
 40
0.0
 40
0.0
 40
0.2908622850742865
 40
0.5839554358565494
 40
0.8745992610101138
 40
1.0
 40
1.0
 40
1.0
 40
1.0
 10
253.6748921216495
 20
85.96206240510396
 30
0.0
 10
253.6614692182696
 20
85.92683373941158
 30
0.0
 10
253.6345204600568
 20
85.85610620997687
 30
0.0
 10
253.6417808871376
 20
85.74045537625875
 30
0.0
 10
253.6756856623079
 20
85.653054489279
 30
0.0
 10
253.7086472999063
 20
85.6101905116555
 30
0.0
 10
253.7185823262699
 20
85.59727080320768
 30
0.0
  0
SPLINE
  5
7F
330
1F
100
AcDbEntity
  8
0
  6
Continuous
 62
     7
370
    15
100
AcDbSpline
210
0.0
220
0.0
230
1.0
 70
     8
 71
     3
 72
    12
 73
     8
 74
     0
 42
0.00000001
 43
0.00000001
 12
1.0
 22
0.0
 32
0.0
 13
1.0
 23
0.0
 33
0.0
 40
0.0
 40
0.0
 40
0.0
 40
0.0
 40
0.2058605449083954
 40
0.4121039999793017
 40
0.6141946018083992
 40
0.8133187251844786
 40
1.0
 40
1.0
 40
1.0
 40
1.0
 10
256.2851657808788
 20
86.92929491555147
 30
0.0
 10
256.2275079514167
 20
86.96053113646853
 30
0.0
 10
256.1120850462553
 20
87.02306167912248
 30
0.0
 10
255.9896821605296
 20
87.18302030711823
 30
0.0
 10
255.9255037923848
 20
87.36855892386328
 30
0.0
 10
255.922003019219
 20
87.56070080727999
 30
0.0
 10
255.9667448414971
 20
87.6749171128593
 30
0.0
 10
255.9883942545421
 20
87.73018343528561
 30
0.0
  0
SPLINE
  5
80
330
1F
100
AcDbEntity
  8
0
  6
Continuous
 62
     7
370
    15
100
AcDbSpline
210
0.0
220
0.0
230
1.0
 70
     8
 71
     3
 72
    11
 73
     7
 74
     0
 42
0.00000001
 43
0.00000001
 12
1.0
 22
0.0
 32
0.0
 13
1.0
 23
0.0
 33
0.0
 40
0.0
 40
0.0
 40
0.0
 40
0.0
 40
0.2524822064563288
 40
0.5068949699758493
 40
0.7591839467322424
 40
1.0
 40
1.0
 40
1.0
 40
1.0
 10
255.9883942545421
 20
87.73018343528561
 30
0.0
 10
256.0018288629748
 20
87.76542205418356
 30
0.0
 10
256.0288008050128
 20
87.83616873736162
 30
0.0
 10
256.0214092186101
 20
87.95163675557613
 30
0.0
 10
255.9806718027392
 20
88.05843328128614
 30
0.0
 10
255.9281375747762
 20
88.11117483460404
 30
0.0
 10
255.902481609679
 20
88.1369320504909
 30
0.0
  0
SPLINE
  5
81
330
1F
100
AcDbEntity
  8
0
  6
Continuous
 62
     7
370
    15
100
AcDbSpline
210
0.0
220
0.0
230
1.0
 70
     8
 71
     3
 72
    11
 73
     7
 74
     0
 42
0.00000001
 43
0.00000001
 12
1.0
 22
0.0
 32
0.0
 13
1.0
 23
0.0
 33
0.0
 40
0.0
 40
0.0
 40
0.0
 40
0.0
 40
0.2423608135072587
 40
0.5166826300310381
 40
0.7923394126538772
 40
1.0
 40
1.0
 40
1.0
 40
1.0
 10
256.4894308985241
 20
86.60617487659506
 30
0.0
 10
256.488014382786
 20
86.63930299320016
 30
0.0
 10
256.4849945502215
 20
86.7099279517807
 30
0.0
 10
256.4383728902084
 20
86.80940687333386
 30
0.0
 10
256.3681879103924
 20
86.8867934330554
 30
0.0
 10
256.3101165394305
 20
86.91652188462513
 30
0.0
 10
256.2851657808788
 20
86.92929491555147
 30
0.0
  0
SPLINE
  5
82
330
1F
100
AcDbEntity
  8
0
  6
Continuous
 62
     7
370
    15
100
AcDbSpline
210
0.0
220
0.0
230
1.0
 70
     8
 71
     3
 72
    12
 73
     8
 74
     0
 42
0.00000001
 43
0.00000001
 12
1.0
 22
0.0
 32
0.0
 13
1.0
 23
0.0
 33
0.0
 40
0.0
 40
0.0
 40
0.0
 40
0.0
 40
0.0091651166775489
 40
0.2576723161101934
 40
0.5061848691088403
 40
0.7560331462822405
 40
1.0
 40
1.0
 40
1.0
 40
1.0
 10
254.2486017287738
 20
88.41868087803773
 30
0.0
 10
254.2473193327895
 20
88.41819795395988
 30
0.0
 10
254.2112654608004
 20
88.40462080376894
 30
0.0
 10
254.1446137165709
 20
88.36508938992915
 30
0.0
 10
254.0720186096139
 20
88.2785048963063
 30
0.0
 10
254.0295959330559
 20
88.17330326408694
 30
0.0
 10
254.0317774828493
 20
88.0996902915176
 30
0.0
 10
254.0328552664287
 20
88.06332217683844
 30
0.0
  0
SPLINE
  5
83
330
1F
100
AcDbEntity
  8
0
  6
Continuous
 62
     7
370
    15
100
AcDbSpline
210
0.0
220
0.0
230
1.0
 70
     8
 71
     3
 72
    12
 73
     8
 74
     0
 42
0.00000001
 43
0.00000001
 12
1.0
 22
0.0
 32
0.0
 13
1.0
 23
0.0
 33
0.0
 40
0.0
 40
0.0
 40
0.0
 40
0.0
 40
0.2057539874578085
 40
0.4119615544716249
 40
0.614015540174669
 40
0.8131403560991067
 40
1.0
 40
1.0
 40
1.0
 40
1.0
 10
254.0328552664287
 20
88.06332217683844
 30
0.0
 10
254.0346333713475
 20
87.99780299361026
 30
0.0
 10
254.038193500973
 20
87.86662019174146
 30
0.0
 10
253.960921809166
 20
87.68067077983521
 30
0.0
 10
253.8323842345994
 20
87.5323083343084
 30
0.0
 10
253.6677285787922
 20
87.43314261199427
 30
0.0
 10
253.546392036449
 20
87.41476584912444
 30
0.0
 10
253.4876515806682
 20
87.40586944078855
 30
0.0
  0
SPLINE
  5
84
330
1F
100
AcDbEntity
  8
0
  6
Continuous
 62
     7
370
    15
100
AcDbSpline
210
0.0
220
0.0
230
1.0
 70
     8
 71
     3
 72
    11
 73
     7
 74
     0
 42
0.00000001
 43
0.00000001
 12
1.0
 22
0.0
 32
0.0
 13
1.0
 23
0.0
 33
0.0
 40
0.0
 40
0.0
 40
0.0
 40
0.0
 40
0.279402836211163
 40
0.5596247667530841
 40
0.8375010212761987
 40
1.0
 40
1.0
 40
1.0
 40
1.0
 10
253.4876515806682
 20
87.40586944078855
 30
0.0
 10
253.4502495868157
 20
87.39983684311204
 30
0.0
 10
253.3753359518302
 20
87.38775396266098
 30
0.0
 10
253.2788373015581
 20
87.32335985325875
 30
0.0
 10
253.2162939859388
 20
87.24565386703273
 30
0.0
 10
253.1955695244758
 20
87.18937533874144
 30
0.0
 10
253.1879221738346
 20
87.16860849564723
 30
0.0
  0
SPLINE
  5
85
330
1F
100
AcDbEntity
  8
0
  6
Continuous
 62
     7
370
    15
100
AcDbSpline
210
0.0
220
0.0
230
1.0
 70
     8
 71
     3
 72
    12
 73
     8
 74
     0
 42
0.00000001
 43
0.00000001
 12
1.0
 22
0.0
 32
0.0
 13
1.0
 23
0.0
 33
0.0
 40
0.0
 40
0.0
 40
0.0
 40
0.0
 40
0.0091772347680983
 40
0.2573255217173588
 40
0.5054910613594521
 40
0.754989854443415
 40
1.0
 40
1.0
 40
1.0
 40
1.0
 10
255.902481609679
 20
88.1369320504909
 30
0.0
 10
255.9014206110569
 20
88.13780514873798
 30
0.0
 10
255.8716706884607
 20
88.1622864296047
 30
0.0
 10
255.8041907793827
 20
88.20038611623275
 30
0.0
 10
255.6929427992724
 20
88.2201626930071
 30
0.0
 10
255.5803802102047
 20
88.20448593127617
 30
0.0
 10
255.5175192969409
 20
88.16570758368644
 30
0.0
 10
255.4863741339214
 20
88.14649440502576
 30
0.0
  0
SPLINE
  5
86
330
1F
100
AcDbEntity
  8
0
  6
Continuous
 62
     7
370
    15
100
AcDbSpline
210
0.0
220
0.0
230
1.0
 70
     8
 71
     3
 72
    12
 73
     8
 74
     0
 42
0.00000001
 43
0.00000001
 12
1.0
 22
0.0
 32
0.0
 13
1.0
 23
0.0
 33
0.0
 40
0.0
 40
0.0
 40
0.0
 40
0.0
 40
0.2058386735918273
 40
0.4120711047539871
 40
0.614134105807489
 40
0.813259274556657
 40
1.0
 40
1.0
 40
1.0
 40
1.0
 10
255.4863741339214
 20
88.14649440502576
 30
0.0
 10
255.4304990324617
 20
88.11218189647688
 30
0.0
 10
255.3186419436797
 20
88.04349124151932
 30
0.0
 10
255.1189275807625
 20
88.01746384345087
 30
0.0
 10
254.9261677920813
 20
88.05463886189582
 30
0.0
 10
254.7580047527846
 20
88.14766778732688
 30
0.0
 10
254.6814485027418
 20
88.24353501421048
 30
0.0
 10
254.6443989218242
 20
88.28993018871002
 30
0.0
  0
SPLINE
  5
87
330
1F
100
AcDbEntity
  8
0
  6
Continuous
 62
     7
370
    15
100
AcDbSpline
210
0.0
220
0.0
230
1.0
 70
     8
 71
     3
 72
    11
 73
     7
 74
     0
 42
0.00000001
 43
0.00000001
 12
1.0
 22
0.0
 32
0.0
 13
1.0
 23
0.0
 33
0.0
 40
0.0
 40
0.0
 40
0.0
 40
0.0
 40
0.2535048264569749
 40
0.507564273716573
 40
0.7595000040532355
 40
1.0
 40
1.0
 40
1.0
 40
1.0
 10
254.6443989218242
 20
88.28993018871002
 30
0.0
 10
254.6204506306698
 20
88.31933297165372
 30
0.0
 10
254.5725016540115
 20
88.37820286529102
 30
0.0
 10
254.4685227386877
 20
88.42944167236428
 30
0.0
 10
254.3556300973597
 20
88.44734978524005
 30
0.0
 10
254.2837212098285
 20
88.42808807686409
 30
0.0
 10
254.2486017287738
 20
88.41868087803773
 30
0.0
  0
CIRCLE
  5
88
330
1F
100
AcDbEntity
  8
0
  6
Continuous
 62
     7
370
    15
100
AcDbCircle
 10
254.8320645814
 20
86.8485860899
 30
0.0
 40
2.624999999999994
  0
LINE
  5
89
330
1F
100
AcDbEntity
  8
0
  6
Continuous
 62
     7
370
    15
100
AcDbLine
 10
268.3407788814
 20
92.8473595068
 30
0.0
 11
253.1566595376
 21
91.5189214811
 31
0.0
  0
LINE
  5
8A
330
1F
100
AcDbEntity
  8
0
  6
Continuous
 62
     7
370
    15
100
AcDbLine
 10
256.9498022736
 20
82.3614687488
 30
0.0
 11
268.6259424032
 21
92.1589124719
 31
0.0
  0
LINE
  5
8B
330
1F
100
AcDbEntity
  8
0
  6
Continuous
 62
     7
370
    15
100
AcDbLine
 10
241.5450861395
 20
80.9416563079
 30
0.0
 11
256.7292054833
 21
82.2700948284
 31
0.0
  0
LINE
  5
8C
330
1F
100
AcDbEntity
  8
0
  6
Continuous
 62
     7
370
    15
100
AcDbLine
 10
252.9360627473
 20
91.4275477935
 30
0.0
 11
241.2599226178
 21
81.6301039249
 31
0.0
  0
LINE
  5
8D
330
1F
100
AcDbEntity
  8
0
  6
Continuous
 62
     7
370
    15
100
AcDbLine
 10
256.9376652778
 20
82.3773934335
 30
0.0
 11
268.5904031337
 21
92.1552046148
 31
0.0
  0
ARC
  5
8E
330
1F
100
AcDbEntity
  8
0
  6
Continuous
 62
     7
370
    15
100
AcDbCircle
 10
268.3461450524
 20
92.446301504
 30
0.0
 40
0.3800000000000222
100
AcDbArc
 50
310.0
 51
95.0
  0
LINE
  5
8F
330
1F
100
AcDbEntity
  8
0
  6
Continuous
 62
     7
370
    15
100
AcDbLine
 10
268.3130329193
 20
92.8248554938
 30
0.0
 11
253.1593342961
 21
91.4990795373
 31
0.0
  0
ARC
  5
90
330
1F
100
AcDbEntity
  8
0
  6
Continuous
 62
     7
370
    15
100
AcDbCircle
 10
253.1924563895
 20
91.1205255354
 30
0.0
 40
0.3799999999999931
100
AcDbArc
 50
95.0
 51
130.0
  0
LINE
  5
91
330
1F
100
AcDbEntity
  8
0
  6
Continuous
 62
     7
370
    15
100
AcDbLine
 10
252.9481997431
 20
91.4116224103
 30
0.0
 11
241.2954544366
 21
81.6338115201
 31
0.0
  0
ARC
  5
92
330
1F
100
AcDbEntity
  8
0
  6
Continuous
 62
     7
370
    15
100
AcDbCircle
 10
241.5397151982
 20
81.3427146996
 30
0.0
 40
0.3800000000000222
100
AcDbArc
 50
130.0
 51
275.0
  0
LINE
  5
93
330
1F
100
AcDbEntity
  8
0
  6
Continuous
 62
     7
370
    15
100
AcDbLine
 10
241.5728321017
 20
80.9641607866
 30
0.0
 11
256.7265232743
 21
82.2899366558
 31
0.0
  0
ARC
  5
94
330
1F
100
AcDbEntity
  8
0
  6
Continuous
 62
     7
370
    15
100
AcDbCircle
 10
256.6934038611
 20
82.6684906682
 30
0.0
 40
0.3799999999999838
100
AcDbArc
 50
275.0
 51
310.0
  0
SPLINE
  5
95
330
1F
100
AcDbEntity
  8
0
  6
Continuous
 62
     7
370
    15
100
AcDbSpline
210
0.0
220
0.0
230
1.0
 70
     8
 71
     3
 72
    10
 73
     6
 74
     0
 42
0.00000001
 43
0.00000001
 12
1.0
 22
0.0
 32
0.0
 13
1.0
 23
0.0
 33
0.0
 40
0.0
 40
0.0
 40
0.0
 40
0.0
 40
0.2724824594365624
 40
0.54475588463671
 40
1.0
 40
1.0
 40
1.0
 40
1.0
 10
256.7292054832943
 20
82.27009482836179
 30
0.0
 10
256.751005758567
 20
82.2731101229186
 30
0.0
 10
256.7945895850858
 20
82.27913839885649
 30
0.0
 10
256.8715918510392
 20
82.30585968847741
 30
0.0
 10
256.9196991379035
 20
82.34006486125928
 30
0.0
 10
256.949802273608
 20
82.36146874880247
 30
0.0
  0
SPLINE
  5
96
330
1F
100
AcDbEntity
  8
0
  6
Continuous
 62
     7
370
    15
100
AcDbSpline
210
0.0
220
0.0
230
1.0
 70
     8
 71
     3
 72
    10
 73
     6
 74
     0
 42
0.00000001
 43
0.00000001
 12
1.0
 22
0.0
 32
0.0
 13
1.0
 23
0.0
 33
0.0
 40
0.0
 40
0.0
 40
0.0
 40
0.0
 40
0.2724823932251526
 40
0.5447562329731679
 40
0.9999999999999999
 40
0.9999999999999999
 40
0.9999999999999999
 40
0.9999999999999999
 10
253.1566595376499
 20
91.51892148112707
 30
0.0
 10
253.1348592507434
 20
91.51590630586715
 30
0.0
 10
253.0912753625063
 20
91.50987826311214
 30
0.0
 10
253.014273293872
 20
91.48315647341914
 30
0.0
 10
252.9661659149022
 20
91.4489515233638
 30
0.0
 10
252.9360627473362
 20
91.42754779351704
 30
0.0
  0
SPLINE
  5
97
330
1F
100
AcDbEntity
  8
0
  6
Continuous
 62
     7
370
    15
100
AcDbSpline
210
0.0
220
0.0
230
1.0
 70
     8
 71
     3
 72
    15
 73
    11
 74
     0
 42
0.00000001
 43
0.00000001
 12
1.0
 22
0.0
 32
0.0
 13
1.0
 23
0.0
 33
0.0
 40
0.0
 40
0.0
 40
0.0
 40
0.0
 40
0.1411607417870447
 40
0.2818345534704892
 40
0.4169668541658881
 40
0.5461351816116915
 40
0.6723584143565294
 40
0.7999841451806449
 40
0.9323927448675241
 40
1.0
 40
1.0
 40
1.0
 40
1.0
 10
241.25992261777
 20
81.63010392492465
 30
0.0
 10
241.2268019302034
 20
81.59634044375782
 30
0.0
 10
241.1606748039729
 20
81.52892994762554
 30
0.0
 10
241.1123242626478
 20
81.39478635126535
 30
0.0
 10
241.1107208926466
 20
81.25805396760514
 30
0.0
 10
241.1554017214793
 20
81.1334635917853
 30
0.0
 10
241.2374163055135
 20
81.03317662814527
 30
0.0
 10
241.3482348148104
 20
80.96486886028936
 30
0.0
 10
241.4561923272448
 20
80.93816979235602
 30
0.0
 10
241.5226296833345
 20
80.9407755403912
 30
0.0
 10
241.5450861395366
 20
80.94165630793027
 30
0.0
  0
SPLINE
  5
98
330
1F
100
AcDbEntity
  8
0
  6
Continuous
 62
     7
370
    15
100
AcDbSpline
210
0.0
220
0.0
230
1.0
 70
     8
 71
     3
 72
    15
 73
    11
 74
     0
 42
0.00000001
 43
0.00000001
 12
1.0
 22
0.0
 32
0.0
 13
1.0
 23
0.0
 33
0.0
 40
0.0
 40
0.0
 40
0.0
 40
0.0
 40
0.1411616940003671
 40
0.2818358150969913
 40
0.416969349675896
 40
0.546138267868741
 40
0.6723570438740538
 40
0.7999902606069381
 40
0.9323923478146579
 40
1.0
 40
1.0
 40
1.0
 40
1.0
 10
268.6259424031742
 20
92.1589124718757
 30
0.0
 10
268.6590628422622
 20
92.19267603082251
 30
0.0
 10
268.725189322345
 20
92.26008652928482
 30
0.0
 10
268.7735436013976
 20
92.39422982898941
 30
0.0
 10
268.7751345739546
 20
92.53096280303049
 30
0.0
 10
268.7304555175536
 20
92.65554970686064
 30
0.0
 10
268.6484477920312
 20
92.75584419485187
 30
0.0
 10
268.537625777252
 20
92.82414357080627
 30
0.0
 10
268.429670487091
 20
92.85084760265077
 30
0.0
 10
268.3632353918899
 20
92.84824069754913
 30
0.0
 10
268.3407788814075
 20
92.84735950679347
 30
0.0
  0
LINE
  5
99
330
1F
100
AcDbEntity
  8
0
  6
Continuous
 62
     7
370
    15
100
AcDbLine
 10
265.2564471305
 20
91.1665057593
 30
0.0
 11
268.3461432994
 21
92.4463015053
 31
0.0
  0
LINE
  5
9A
330
1F
100
AcDbEntity
  8
0
  6
Continuous
 62
     7
370
    15
100
AcDbLine
 10
265.2564471305
 20
91.1665057593
 30
0.0
 11
264.0052711309
 21
91.0570418291
 31
0.0
  0
LINE
  5
9B
330
1F
100
AcDbEntity
  8
0
  6
Continuous
 62
     7
370
    15
100
AcDbLine
 10
253.2447403015
 20
90.9943067764
 30
0.0
 11
253.1924595774
 21
91.1205255488
 31
0.0
  0
LINE
  5
9C
330
1F
100
AcDbEntity
  8
0
  6
Continuous
 62
     7
370
    15
100
AcDbLine
 10
261.4383300484
 20
90.6172855121
 30
0.0
 11
253.9960866512
 21
89.9661739186
 31
0.0
  0
ARC
  5
9D
330
1F
100
AcDbEntity
  8
0
  6
Continuous
 62
     7
370
    15
100
AcDbCircle
 10
248.3603770064
 20
84.1679253249
 30
0.0
 40
1.0
100
AcDbArc
 50
130.0
 51
275.0
  0
LINE
  5
9E
330
1F
100
AcDbEntity
  8
0
  6
Continuous
 62
     7
370
    15
100
AcDbLine
 10
253.4404521526
 20
89.7360236213
 30
0.0
 11
247.7175866903
 21
84.9339698271
 31
0.0
  0
ARC
  5
9F
330
1F
100
AcDbEntity
  8
0
  6
Continuous
 62
     7
370
    15
100
AcDbCircle
 10
254.083241878
 20
88.9699791279
 30
0.0
 40
0.9999999999999934
100
AcDbArc
 50
95.0
 51
130.0
  0
ARC
  5
A0
330
1F
100
AcDbEntity
  8
0
  6
Continuous
 62
     7
370
    15
100
AcDbCircle
 10
261.5254832442
 20
89.6210908787
 30
0.0
 40
1.000000000295433
100
AcDbArc
 50
310.0
 51
95.0
  0
LINE
  5
A1
330
1F
100
AcDbEntity
  8
0
  6
Continuous
 62
     7
370
    15
100
AcDbLine
 10
256.4454054178
 20
84.0529926882
 30
0.0
 11
262.1682708801
 21
88.8550464824
 31
0.0
  0
ARC
  5
A2
330
1F
100
AcDbEntity
  8
0
  6
Continuous
 62
     7
370
    15
100
AcDbCircle
 10
255.8026183726
 20
84.8190370757
 30
0.0
 40
1.000000000000001
100
AcDbArc
 50
275.0
 51
310.0
  0
LINE
  5
A3
330
1F
100
AcDbEntity
  8
0
  6
Continuous
 62
     7
370
    15
100
AcDbLine
 10
248.4475349725
 20
83.1717305646
 30
0.0
 11
255.8897709192
 21
83.8228423909
 31
0.0
  0
CIRCLE
  5
A4
330
1F
100
AcDbEntity
  8
0
  6
Continuous
 62
     7
370
    15
100
AcDbCircle
 10
254.9429301253
 20
86.8945081018
 30
0.0
 40
3.049999999999995
  0
LINE
  5
A5
330
1F
100
AcDbEntity
  8
0
  6
Continuous
 62
     7
370
    15
100
AcDbLine
 10
256.6411247195
 20
82.794709766
 30
0.0
 11
256.6934054435
 21
82.6684904114
 31
0.0
  0
LINE
  5
A6
330
1F
100
AcDbEntity
  8
0
  6
Continuous
 62
     7
370
    15
100
AcDbLine
 10
264.2943238557
 20
90.3591920451
 30
0.0
 11
265.2564471305
 21
91.1665057593
 31
0.0
  0
ARC
  5
A7
330
1F
100
AcDbEntity
  8
0
  6
Continuous
 62
     7
370
    15
100
AcDbCircle
 10
261.5254832442
 20
89.6210908787
 30
0.0
 40
2.38564064605519
100
AcDbArc
 50
21.5810823052
 51
23.4189176948
  0
LINE
  5
A8
330
1F
100
AcDbEntity
  8
0
  6
Continuous
 62
     7
370
    15
100
AcDbLine
 10
244.6294178904
 20
82.6225100846
 30
0.0
 11
241.5397142709
 21
81.3427145422
 31
0.0
  0
LINE
  5
A9
330
1F
100
AcDbEntity
  8
0
  6
Continuous
 62
     7
370
    15
100
AcDbLine
 10
245.5915337146
 20
83.4298242644
 30
0.0
 11
244.6294178904
 21
82.6225100846
 31
0.0
  0
LINE
  5
AA
330
1F
100
AcDbEntity
  8
0
  6
Continuous
 62
     7
370
    15
100
AcDbLine
 10
244.6294178904
 20
82.6225100846
 30
0.0
 11
245.88059389
 21
82.7319740147
 31
0.0
  0
ARC
  5
AB
330
1F
100
AcDbEntity
  8
0
  6
Continuous
 62
     7
370
    15
100
AcDbCircle
 10
248.3603770064
 20
84.1679253249
 30
0.0
 40
2.385640646055112
100
AcDbArc
 50
201.5810823052
 51
203.4189176948
  0
SPLINE
  5
AC
330
1F
100
AcDbEntity
  8
0
  6
Continuous
 62
     7
370
    15
100
AcDbSpline
210
0.0
220
0.0
230
1.0
 70
     8
 71
     3
 72
    14
 73
    10
 74
     0
 42
0.00000001
 43
0.00000001
 12
1.0
 22
0.0
 32
0.0
 13
1.0
 23
0.0
 33
0.0
 40
0.0
 40
0.0
 40
0.0
 40
0.0
 40
0.2086146296609153
 40
0.3652082226395697
 40
0.4768551556320357
 40
0.5890241360819574
 40
0.7185687797267638
 40
0.9352576967962025
 40
1.0
 40
1.0
 40
1.0
 40
1.0
 10
264.0052711308963
 20
91.05704182913355
 30
0.0
 10
263.956256607739
 20
91.0504636312252
 30
0.0
 10
263.8704500326445
 20
91.038947602986
 30
0.0
 10
263.7665169217459
 20
90.99042416129328
 30
0.0
 10
263.7004055113183
 20
90.92735661546666
 30
0.0
 10
263.6643892525245
 20
90.84983288215885
 30
0.0
 10
263.6576048176372
 20
90.73993570369896
 30
0.0
 10
263.6832908292143
 20
90.64466659925912
 30
0.0
 10
263.7087457998996
 20
90.58336747781132
 30
0.0
 10
263.7146016300686
 20
90.56926582163028
 30
0.0
  0
SPLINE
  5
AD
330
1F
100
AcDbEntity
  8
0
  6
Continuous
 62
     7
370
    15
100
AcDbSpline
210
0.0
220
0.0
230
1.0
 70
     8
 71
     3
 72
    14
 73
    10
 74
     0
 42
0.00000001
 43
0.00000001
 12
1.0
 22
0.0
 32
0.0
 13
1.0
 23
0.0
 33
0.0
 40
0.0
 40
0.0
 40
0.0
 40
0.0
 40
0.205513934518997
 40
0.3570196633789651
 40
0.4668389971108031
 40
0.5770741603930669
 40
0.7093756777759264
 40
0.9240678278094703
 40
1.0
 40
1.0
 40
1.0
 40
1.0
 10
263.7438898623951
 20
90.49857145329766
 30
0.0
 10
263.7635559736604
 20
90.45402389291662
 30
0.0
 10
263.7977200240952
 20
90.37663568540252
 30
0.0
 10
263.8705411124648
 20
90.29124876213449
 30
0.0
 10
263.9474225301543
 20
90.24578751784216
 30
0.0
 10
264.0314364395098
 20
90.23204706705707
 30
0.0
 10
264.1389817886173
 20
90.25413647273477
 30
0.0
 10
264.227008081401
 20
90.30492339160749
 30
0.0
 10
264.2803793941148
 20
90.34795029435199
 30
0.0
 10
264.2943238557346
 20
90.35919204508714
 30
0.0
  0
SPLINE
  5
AE
330
1F
100
AcDbEntity
  8
0
  6
Continuous
 62
     7
370
    15
100
AcDbSpline
210
0.0
220
0.0
230
1.0
 70
     8
 71
     3
 72
    14
 73
    10
 74
     0
 42
0.00000001
 43
0.00000001
 12
1.0
 22
0.0
 32
0.0
 13
1.0
 23
0.0
 33
0.0
 40
0.0
 40
0.0
 40
0.0
 40
0.0
 40
0.2086066492642149
 40
0.3652018651562409
 40
0.4768493777178917
 40
0.5890204133372083
 40
0.7185652531294722
 40
0.9352564159315382
 40
1.0
 40
1.0
 40
1.0
 40
1.0
 10
245.8805938900478
 20
82.73197401469402
 30
0.0
 10
245.9296058673948
 20
82.73855282259731
 30
0.0
 10
246.0154097744382
 20
82.75007015881484
 30
0.0
 10
246.1193403613526
 20
82.79859243330574
 30
0.0
 10
246.1854524582692
 20
82.86165948586866
 30
0.0
 10
246.2214680142871
 20
82.93918339920548
 30
0.0
 10
246.2282528965641
 20
83.04908036932063
 30
0.0
 10
246.202566517363
 20
83.14434931956583
 30
0.0
 10
246.1771117631396
 20
83.20564867546328
 30
0.0
 10
246.171255940295
 20
83.21975048785858
 30
0.0
  0
SPLINE
  5
AF
330
1F
100
AcDbEntity
  8
0
  6
Continuous
 62
     7
370
    15
100
AcDbSpline
210
0.0
220
0.0
230
1.0
 70
     8
 71
     3
 72
    14
 73
    10
 74
     0
 42
0.00000001
 43
0.00000001
 12
1.0
 22
0.0
 32
0.0
 13
1.0
 23
0.0
 33
0.0
 40
0.0
 40
0.0
 40
0.0
 40
0.0
 40
0.2055176968877869
 40
0.3570156632588375
 40
0.4668437543259146
 40
0.5770784263442778
 40
0.7093689307164444
 40
0.9240603287931789
 40
1.0
 40
1.0
 40
1.0
 40
1.0
 10
246.1419751585491
 20
83.29044439052991
 30
0.0
 10
246.1223052276294
 20
83.33499084576961
 30
0.0
 10
246.0881355500791
 20
83.41237484969753
 30
0.0
 10
246.0153230241046
 20
83.49777211872495
 30
0.0
 10
245.93843622261
 20
83.5432264701859
 30
0.0
 10
245.8544239792002
 20
83.55696990276157
 30
0.0
 10
245.7468802465637
 20
83.53487862969631
 30
0.0
 10
245.6588580732925
 20
83.48408817110119
 30
0.0
 10
245.6054807897673
 20
83.44106570507874
 30
0.0
 10
245.591533714629
 20
83.42982426440172
 30
0.0
  0
SPLINE
  5
B0
330
1F
100
AcDbEntity
  8
0
  6
Continuous
 62
     7
370
    15
100
AcDbSpline
210
0.0
220
0.0
230
1.0
 70
     8
 71
     3
 72
    11
 73
     7
 74
     0
 42
0.00000001
 43
0.00000001
 12
1.0
 22
0.0
 32
0.0
 13
1.0
 23
0.0
 33
0.0
 40
0.0
 40
0.0
 40
0.0
 40
0.0
 40
0.3241866746636752
 40
0.6482215424103199
 40
0.9887973697320971
 40
1.0
 40
1.0
 40
1.0
 40
1.0
 10
253.2447403014667
 20
90.99430677635424
 30
0.0
 10
253.2726429732832
 20
90.9269409272285
 30
0.0
 10
253.3284352509301
 20
90.79224077438793
 30
0.0
 10
253.422578681361
 20
90.5649403501976
 30
0.0
 10
253.4828532847435
 20
90.4195090195849
 30
0.0
 10
253.5111294075348
 20
90.35117622207522
 30
0.0
 10
253.5120298803814
 20
90.34900011649184
 30
0.0
  0
SPLINE
  5
B1
330
1F
100
AcDbEntity
  8
0
  6
Continuous
 62
     7
370
    15
100
AcDbSpline
210
0.0
220
0.0
230
1.0
 70
     8
 71
     3
 72
    11
 73
     7
 74
     0
 42
0.00000001
 43
0.00000001
 12
1.0
 22
0.0
 32
0.0
 13
1.0
 23
0.0
 33
0.0
 40
0.0
 40
0.0
 40
0.0
 40
0.0
 40
0.3241885861547407
 40
0.6482227938712906
 40
0.9887981743052076
 40
1.0
 40
1.0
 40
1.0
 40
1.0
 10
256.6411247194774
 20
82.79470976596527
 30
0.0
 10
256.6132190309686
 20
82.86207522899421
 30
0.0
 10
256.5574209426255
 20
82.99677407565322
 30
0.0
 10
256.46327858023
 20
83.22407488455914
 30
0.0
 10
256.4030062553927
 20
83.36950974175586
 30
0.0
 10
256.3747281640457
 20
83.43783985575182
 30
0.0
 10
256.3738276899822
 20
83.44001572733573
 30
0.0
  0
LINE
  5
B2
330
1F
100
AcDbEntity
  8
0
  6
Continuous
 62
     7
370
    15
100
AcDbLine
 10
138.7156968654
 20
61.5993753836
 30
0.0
 11
138.7156968654
 21
123.5993743703
 31
0.0
  0
ELLIPSE
  5
B3
330
1F
100
AcDbEntity
  8
0
  6
Continuous
 62
     7
370
    15
100
AcDbEllipse
 10
217.9654490503
 20
92.599374877
 30
0.0
 11
0.0
 21
2.5
 31
0.0
210
0.0
220
0.0
230
1.0
 40
0.2855752194
 41
0.0
 42
6.283185307179586
  0
ELLIPSE
  5
B4
330
1F
100
AcDbEntity
  8
0
  6
Continuous
 62
     7
370
    15
100
AcDbEllipse
 10
220.6353121077
 20
92.599374877
 30
0.0
 11
0.0
 21
31.49999999999998
 31
0.0
210
0.0
220
0.0
230
1.0
 40
0.2679491924
 41
1.397741063488266
 42
2.476838275488563
  0
LINE
  5
B5
330
1F
100
AcDbEntity
  8
0
  6
Continuous
 62
     7
370
    15
100
AcDbLine
 10
219.5241054238
 20
99.1485991344
 30
0.0
 11
212.3209809602
 21
98.0234473773
 31
0.0
  0
LINE
  5
B6
330
1F
100
AcDbEntity
  8
0
  6
Continuous
 62
     7
370
    15
100
AcDbLine
 10
219.5241054238
 20
68.0213530377
 30
0.0
 11
215.4287149848
 21
67.8067222998
 31
0.0
  0
SPLINE
  5
B7
330
1F
100
AcDbEntity
  8
0
  6
Continuous
 62
     7
370
    15
100
AcDbSpline
210
0.0
220
0.0
230
1.0
 70
     8
 71
     3
 72
    12
 73
     8
 74
     0
 42
0.00000001
 43
0.00000001
 12
1.0
 22
0.0
 32
0.0
 13
1.0
 23
0.0
 33
0.0
 40
0.0
 40
0.0
 40
0.0
 40
0.0
 40
0.4999999999999972
 40
0.4999999999999972
 40
0.7499999999999986
 40
0.7499999999999986
 40
1.0
 40
1.0
 40
1.0
 40
1.0
 10
148.8104409770905
 20
62.69863241685331
 30
0.0
 10
148.8415861750526
 20
62.6608168939331
 30
0.0
 10
148.8838604413871
 20
62.62475003584948
 30
0.0
 10
148.9838059752124
 20
62.57678997083822
 30
0.0
 10
149.0235362799164
 20
62.56192899694056
 30
0.0
 10
149.1204243299226
 20
62.53897785080943
 30
0.0
 10
149.1804895716692
 20
62.53088291809738
 30
0.0
 10
149.2434536789827
 20
62.53088291809738
 30
0.0
  0
LINE
  5
B8
330
1F
100
AcDbEntity
  8
0
  6
Continuous
 62
     7
370
    15
100
AcDbLine
 10
149.2434538619
 20
62.5308823601
 30
0.0
 11
152.1879400776
 21
62.5308823601
 31
0.0
  0
SPLINE
  5
B9
330
1F
100
AcDbEntity
  8
0
  6
Continuous
 62
     7
370
    15
100
AcDbSpline
210
0.0
220
0.0
230
1.0
 70
     8
 71
     3
 72
    12
 73
     8
 74
     0
 42
0.00000001
 43
0.00000001
 12
1.0
 22
0.0
 32
0.0
 13
1.0
 23
0.0
 33
0.0
 40
0.0
 40
0.0
 40
0.0
 40
0.0
 40
0.2500000000000001
 40
0.2500000000000001
 40
0.5000000000000001
 40
0.5000000000000001
 40
1.0
 40
1.0
 40
1.0
 40
1.0
 10
152.1879400518499
 20
62.53088291809744
 30
0.0
 10
152.2509970067477
 20
62.53088291809744
 30
0.0
 10
152.3101271564933
 20
62.538783249177
 30
0.0
 10
152.4085747070265
 20
62.56209399718203
 30
0.0
 10
152.4476069452146
 20
62.57679912346567
 30
0.0
 10
152.5474968296716
 20
62.6247326516523
 30
0.0
 10
152.5897958032809
 20
62.66080262441706
 30
0.0
 10
152.6209527537422
 20
62.69863241685329
 30
0.0
  0
ELLIPSE
  5
BA
330
1F
100
AcDbEntity
  8
0
  6
Continuous
 62
     7
370
    15
100
AcDbEllipse
 10
136.3685426761
 20
92.599374877
 30
0.0
 11
-14.75368316065621
 21
31.09325491558117
 31
0.0
210
0.0
220
0.0
230
1.0
 40
0.3419987131
 41
3.30073485621712
 42
4.231496223360772
  0
SPLINE
  5
BB
330
1F
100
AcDbEntity
  8
0
  6
Continuous
 62
     7
370
    15
100
AcDbSpline
210
0.0
220
0.0
230
1.0
 70
     8
 71
     3
 72
    12
 73
     8
 74
     0
 42
0.00000001
 43
0.00000001
 12
1.0
 22
0.0
 32
0.0
 13
1.0
 23
0.0
 33
0.0
 40
0.0
 40
0.0
 40
0.0
 40
0.0
 40
0.5000000000000029
 40
0.5000000000000029
 40
0.7500000000000014
 40
0.7500000000000014
 40
1.0
 40
1.0
 40
1.0
 40
1.0
 10
152.6209527537421
 20
82.69000555628517
 30
0.0
 10
152.58980755578
 20
82.80411092215047
 30
0.0
 10
152.5475332894455
 20
82.91521724936923
 30
0.0
 10
152.4475877556202
 20
83.06537485679952
 30
0.0
 10
152.4078574509162
 20
83.11236754841688
 30
0.0
 10
152.31096940091
 20
83.18534313295538
 30
0.0
 10
152.2509041591634
 20
83.21130844563439
 30
0.0
 10
152.1879400518499
 20
83.21130844563439
 30
0.0
  0
LINE
  5
BC
330
1F
100
AcDbEntity
  8
0
  6
Continuous
 62
     7
370
    15
100
AcDbLine
 10
152.1879400776
 20
83.2113080487
 30
0.0
 11
149.2434538619
 21
83.2113080487
 31
0.0
  0
SPLINE
  5
BD
330
1F
100
AcDbEntity
  8
0
  6
Continuous
 62
     7
370
    15
100
AcDbSpline
210
0.0
220
0.0
230
1.0
 70
     8
 71
     3
 72
    12
 73
     8
 74
     0
 42
0.00000001
 43
0.00000001
 12
1.0
 22
0.0
 32
0.0
 13
1.0
 23
0.0
 33
0.0
 40
0.0
 40
0.0
 40
0.0
 40
0.0
 40
0.25
 40
0.25
 40
0.5
 40
0.5
 40
1.0
 40
1.0
 40
1.0
 40
1.0
 10
149.2434536789827
 20
83.21130844563429
 30
0.0
 10
149.1803967240849
 20
83.21130844563429
 30
0.0
 10
149.1212665743394
 20
83.18596209225359
 30
0.0
 10
149.0228190238061
 20
83.1118427101141
 30
0.0
 10
148.983786785618
 20
83.0653461954161
 30
0.0
 10
148.8838969011611
 20
82.91527168840751
 30
0.0
 10
148.8415979275517
 20
82.80415397929266
 30
0.0
 10
148.8104409770905
 20
82.69000555628519
 30
0.0
  0
ELLIPSE
  5
BE
330
1F
100
AcDbEntity
  8
0
  6
Continuous
 62
     7
370
    15
100
AcDbEllipse
 10
165.0628510548
 20
92.599374877
 30
0.0
 11
14.75368316065621
 21
31.09325491558116
 31
0.0
210
0.0
220
0.0
230
1.0
 40
0.3419987131
 41
2.051689083818826
 42
2.982450450962503
  0
SPLINE
  5
BF
330
1F
100
AcDbEntity
  8
0
  6
Continuous
 62
     7
370
    15
100
AcDbSpline
210
0.0
220
0.0
230
1.0
 70
     8
 71
     3
 72
    12
 73
     8
 74
     0
 42
0.00000001
 43
0.00000001
 12
1.0
 22
0.0
 32
0.0
 13
1.0
 23
0.0
 33
0.0
 40
0.0
 40
0.0
 40
0.0
 40
0.0
 40
0.4999999999999982
 40
0.4999999999999982
 40
0.7499999999999991
 40
0.7499999999999991
 40
1.0
 40
1.0
 40
1.0
 40
1.0
 10
148.8104409770905
 20
102.5087441976556
 30
0.0
 10
148.8411632190096
 20
102.3961883982464
 30
0.0
 10
148.8840004335448
 20
102.2834305385068
 30
0.0
 10
148.9834274577446
 20
102.1338896527105
 30
0.0
 10
149.0231796525612
 20
102.0865969210036
 30
0.0
 10
149.1212211094195
 20
102.0128606276822
 30
0.0
 10
149.1807771650069
 20
101.9874413083064
 30
0.0
 10
149.2434536789827
 20
101.9874413083064
 30
0.0
  0
LINE
  5
C0
330
1F
100
AcDbEntity
  8
0
  6
Continuous
 62
     7
370
    15
100
AcDbLine
 10
149.2434538619
 20
101.9874417052
 30
0.0
 11
152.1879400776
 21
101.9874417052
 31
0.0
  0
SPLINE
  5
C1
330
1F
100
AcDbEntity
  8
0
  6
Continuous
 62
     7
370
    15
100
AcDbSpline
210
0.0
220
0.0
230
1.0
 70
     8
 71
     3
 72
    12
 73
     8
 74
     0
 42
0.00000001
 43
0.00000001
 12
1.0
 22
0.0
 32
0.0
 13
1.0
 23
0.0
 33
0.0
 40
0.0
 40
0.0
 40
0.0
 40
0.0
 40
0.2500000000000023
 40
0.2500000000000023
 40
0.5000000000000047
 40
0.5000000000000047
 40
1.0
 40
1.0
 40
1.0
 40
1.0
 10
152.1879400518499
 20
101.9874413083064
 30
0.0
 10
152.2510200903432
 20
101.9874413083064
 30
0.0
 10
152.3101687125246
 20
102.0128056275214
 30
0.0
 10
152.4086412625937
 20
102.0869704878943
 30
0.0
 10
152.4476778745784
 20
102.1334908284484
 30
0.0
 10
152.5475743413575
 20
102.2836331712937
 30
0.0
 10
152.5899952224241
 20
102.3953263782658
 30
0.0
 10
152.6209527537421
 20
102.5087441976556
 30
0.0
  0
ELLIPSE
  5
C2
330
1F
100
AcDbEntity
  8
0
  6
Continuous
 62
     7
370
    15
100
AcDbEllipse
 10
136.3685426761
 20
92.599374877
 30
0.0
 11
14.75368316065601
 21
31.09325491558116
 31
0.0
210
0.0
220
0.0
230
1.0
 40
0.3419987131
 41
5.19328173740862
 42
6.124043104552323
  0
SPLINE
  5
C3
330
1F
100
AcDbEntity
  8
0
  6
Continuous
 62
     7
370
    15
100
AcDbSpline
210
0.0
220
0.0
230
1.0
 70
     8
 71
     3
 72
    12
 73
     8
 74
     0
 42
0.00000001
 43
0.00000001
 12
1.0
 22
0.0
 32
0.0
 13
1.0
 23
0.0
 33
0.0
 40
0.0
 40
0.0
 40
0.0
 40
0.0
 40
0.5000000000000037
 40
0.5000000000000037
 40
0.7500000000000018
 40
0.7500000000000018
 40
1.0
 40
1.0
 40
1.0
 40
1.0
 10
152.6209527537421
 20
122.5001173370877
 30
0.0
 10
152.590230511823
 20
122.5374193200408
 30
0.0
 10
152.5473932972878
 20
122.5740311520872
 30
0.0
 10
152.447966273088
 20
122.6217959353724
 30
0.0
 10
152.4082140782714
 20
122.6367534508547
 30
0.0
 10
152.3101726214131
 20
122.6599433966239
 30
0.0
 10
152.2506165658257
 20
122.6678668358436
 30
0.0
 10
152.1879400518499
 20
122.6678668358436
 30
0.0
  0
LINE
  5
C4
330
1F
100
AcDbEntity
  8
0
  6
Continuous
 62
     7
370
    15
100
AcDbLine
 10
152.1879400776
 20
122.6678673938
 30
0.0
 11
149.2434538619
 21
122.6678673938
 31
0.0
  0
SPLINE
  5
C5
330
1F
100
AcDbEntity
  8
0
  6
Continuous
 62
     7
370
    15
100
AcDbSpline
210
0.0
220
0.0
230
1.0
 70
     8
 71
     3
 72
    12
 73
     8
 74
     0
 42
0.00000001
 43
0.00000001
 12
1.0
 22
0.0
 32
0.0
 13
1.0
 23
0.0
 33
0.0
 40
0.0
 40
0.0
 40
0.0
 40
0.0
 40
0.2500000000000009
 40
0.2500000000000009
 40
0.5000000000000018
 40
0.5000000000000018
 40
1.0
 40
1.0
 40
1.0
 40
1.0
 10
149.2434536789827
 20
122.6678668358436
 30
0.0
 10
149.1803736404894
 20
122.6678668358436
 30
0.0
 10
149.121225018308
 20
122.6599609096312
 30
0.0
 10
149.0227524682389
 20
122.6366357481949
 30
0.0
 10
148.9837158562542
 20
122.6219229583632
 30
0.0
 10
148.8838193894751
 20
122.5739671576323
 30
0.0
 10
148.8413985084085
 20
122.5377050010522
 30
0.0
 10
148.8104409770905
 20
122.5001173370877
 30
0.0
  0
ELLIPSE
  5
C6
330
1F
100
AcDbEntity
  8
0
  6
Continuous
 62
     7
370
    15
100
AcDbEllipse
 10
165.0628510548
 20
92.599374877
 30
0.0
 11
-14.75368316065604
 21
31.09325491558116
 31
0.0
210
0.0
220
0.0
230
1.0
 40
0.3419987131
 41
0.1591422026273028
 42
1.089903569770979
  0
SPLINE
  5
C7
330
1F
100
AcDbEntity
  8
0
  6
Continuous
 62
     7
370
    15
100
AcDbSpline
210
0.0
220
0.0
230
1.0
 70
     8
 71
     3
 72
    68
 73
    64
 74
     0
 42
0.00000001
 43
0.00000001
 12
1.0
 22
0.0
 32
0.0
 13
1.0
 23
0.0
 33
0.0
 40
-0.0624999999999999
 40
-0.0624999999999999
 40
0.0
 40
0.0
 40
0.03125
 40
0.03125
 40
0.0625
 40
0.0625
 40
0.09375
 40
0.09375
 40
0.125
 40
0.125
 40
0.1562500000000001
 40
0.1562500000000001
 40
0.1875000000000001
 40
0.1875000000000001
 40
0.2187500000000001
 40
0.2187500000000001
 40
0.2500000000000001
 40
0.2500000000000001
 40
0.2812500000000001
 40
0.2812500000000001
 40
0.3125000000000001
 40
0.3125000000000001
 40
0.3437500000000001
 40
0.3437500000000001
 40
0.3750000000000001
 40
0.3750000000000001
 40
0.4062500000000001
 40
0.4062500000000001
 40
0.4375000000000001
 40
0.4375000000000001
 40
0.4687500000000001
 40
0.4687500000000001
 40
0.5000000000000001
 40
0.5000000000000001
 40
0.5312500000000001
 40
0.5312500000000001
 40
0.5625000000000001
 40
0.5625000000000001
 40
0.5937500000000001
 40
0.5937500000000001
 40
0.6250000000000001
 40
0.6250000000000001
 40
0.6562500000000001
 40
0.6562500000000001
 40
0.6875000000000001
 40
0.6875000000000001
 40
0.7187500000000001
 40
0.7187500000000001
 40
0.7500000000000001
 40
0.7500000000000001
 40
0.7812500000000001
 40
0.7812500000000001
 40
0.8125000000000001
 40
0.8125000000000001
 40
0.8437500000000001
 40
0.8437500000000001
 40
0.8750000000000001
 40
0.8750000000000001
 40
0.9062500000000001
 40
0.9062500000000001
 40
0.9375000000000001
 40
0.9375000000000001
 40
1.0
 40
1.0
 40
1.03125
 40
1.03125
 10
202.7156968654163
 20
92.2027454240406
 30
0.0
 10
202.7156968654163
 20
92.79768960343557
 30
0.0
 10
202.7351675385166
 20
92.99266798423822
 30
0.0
 10
202.8114365646369
 20
93.37623177630911
 30
0.0
 10
202.8691686716513
 20
93.56681298986214
 30
0.0
 10
203.0197875826298
 20
93.93006357052737
 30
0.0
 10
203.11194104694
 20
94.10233084136453
 30
0.0
 10
203.3296415551998
 20
94.4283530205645
 30
0.0
 10
203.4562819563352
 20
94.58262863716136
 30
0.0
 10
203.7329006625242
 20
94.85919133555427
 30
0.0
 10
203.8838555795317
 20
94.98333371581263
 30
0.0
 10
204.2117436077602
 20
95.20264721016015
 30
0.0
 10
204.3861925769741
 20
95.29577716514491
 30
0.0
 10
204.7471241797224
 20
95.44543072764985
 30
0.0
 10
204.9362759177316
 20
95.50307744991535
 30
0.0
 10
205.3235706029894
 20
95.58018393494979
 30
0.0
 10
205.5182921475386
 20
95.59926769782447
 30
0.0
 10
205.9098303850534
 20
95.59948116438848
 30
0.0
 10
206.1086967816307
 20
95.57998593753314
 30
0.0
 10
206.4935369928568
 20
95.50341619290184
 30
0.0
 10
206.6805962442033
 20
95.44676310147518
 30
0.0
 10
207.0439409613585
 20
95.29648780264233
 30
0.0
 10
207.2194841843787
 20
95.2026048206574
 30
0.0
 10
207.5444656106178
 20
94.9855406962199
 30
0.0
 10
207.6959785091702
 20
94.8616098671092
 30
0.0
 10
207.9761826072806
 20
94.58165304867721
 30
0.0
 10
208.100286707257
 20
94.430194363399
 30
0.0
 10
208.3175950260165
 20
94.10546075352646
 30
0.0
 10
208.411593026901
 20
93.93009555445572
 30
0.0
 10
208.5622396979729
 20
93.56677734617081
 30
0.0
 10
208.6190417280922
 20
93.37978527290247
 30
0.0
 10
208.695925730735
 20
92.99521283374843
 30
0.0
 10
208.7156249530402
 20
92.79630513346648
 30
0.0
 10
208.7157683755114
 20
92.40464174893651
 30
0.0
 10
208.6968495165149
 20
92.20993380230551
 30
0.0
 10
208.6201575147772
 20
91.82281591842151
 30
0.0
 10
208.5626193471239
 20
91.63334478780172
 30
0.0
 10
208.4132548587728
 20
91.27221150250973
 30
0.0
 10
208.3203424732376
 20
91.09779199172114
 30
0.0
 10
208.1012423453859
 20
90.76959274059104
 30
0.0
 10
207.9772089862197
 20
90.61851438355718
 30
0.0
 10
207.7009056410298
 20
90.34167882033816
 30
0.0
 10
207.5467572995322
 20
90.21491561975058
 30
0.0
 10
207.2208930609036
 20
89.99691206728103
 30
0.0
 10
207.0487319909126
 20
89.90463142524871
 30
0.0
 10
206.6857785142658
 20
89.75375253537814
 30
0.0
 10
206.4951368310468
 20
89.69580628394912
 30
0.0
 10
206.1116273257402
 20
89.61919429435648
 30
0.0
 10
205.9167342738484
 20
89.59956626943683
 30
0.0
 10
205.5204127613486
 20
89.59918624288088
 30
0.0
 10
205.3250499219396
 20
89.6184985980156
 30
0.0
 10
204.9414488448311
 20
89.69441903780469
 30
0.0
 10
204.7509565527953
 20
89.75192458252253
 30
0.0
 10
204.3873905293945
 20
89.90228397604926
 30
0.0
 10
204.2150311766987
 20
89.9943027687304
 30
0.0
 10
203.8889104280304
 20
90.21164593284648
 30
0.0
 10
203.7344859448298
 20
90.33816474528334
 30
0.0
 10
203.4576164149549
 20
90.61459764747103
 30
0.0
 10
203.3333666689836
 20
90.7654272511576
 30
0.0
 10
203.1138678010277
 20
91.09293982069919
 30
0.0
 10
203.0204700313217
 20
91.26748886780129
 30
0.0
 10
202.7955087966214
 20
91.80869557570747
 30
0.0
 10
202.7156968654163
 20
92.2027454240406
 30
0.0
 10
202.7156968654163
 20
92.79768960343557
 30
0.0
  0
SPLINE
  5
C8
330
1F
100
AcDbEntity
  8
0
  6
Continuous
 62
     7
370
    15
100
AcDbSpline
210
0.0
220
0.0
230
1.0
 70
     8
 71
     3
 72
    38
 73
    34
 74
     0
 42
0.00000001
 43
0.00000001
 12
1.0
 22
0.0
 32
0.0
 13
1.0
 23
0.0
 33
0.0
 40
0.0
 40
0.0
 40
0.0
 40
0.0
 40
0.1249999999999992
 40
0.1249999999999992
 40
0.1562499999999994
 40
0.1562499999999994
 40
0.1874999999999996
 40
0.1874999999999996
 40
0.2499999999999996
 40
0.2499999999999996
 40
0.3124999999999996
 40
0.3124999999999996
 40
0.3749999999999996
 40
0.3749999999999996
 40
0.4999999999999994
 40
0.4999999999999994
 40
0.5312499999999993
 40
0.5312499999999993
 40
0.5624999999999992
 40
0.5624999999999992
 40
0.6249999999999994
 40
0.6249999999999994
 40
0.6874999999999996
 40
0.6874999999999996
 40
0.7187499999999997
 40
0.7187499999999997
 40
0.7499999999999997
 40
0.7499999999999997
 40
0.8749999999999999
 40
0.8749999999999999
 40
0.9374999999999999
 40
0.9374999999999999
 40
1.0
 40
1.0
 40
1.0
 40
1.0
 10
183.8788549902679
 20
106.569830334769
 30
0.0
 10
182.2180210032118
 20
107.0794786135449
 30
0.0
 10
180.6581604916365
 20
107.7497331518029
 30
0.0
 10
178.8315207119265
 20
108.7590592804367
 30
0.0
 10
178.4724139009636
 20
108.9695555958591
 30
0.0
 10
177.7667929335403
 20
109.407243660555
 30
0.0
 10
177.4192565698827
 20
109.6351984272671
 30
0.0
 10
176.4087767903196
 20
110.3340286212715
 30
0.0
 10
175.774691339542
 20
110.8215305292403
 30
0.0
 10
174.5806114272819
 20
111.8288228280173
 30
0.0
 10
174.0206390879786
 20
112.3486392585408
 30
0.0
 10
172.9709530365287
 20
113.4101037993383
 30
0.0
 10
172.4789202362556
 20
113.9549375428871
 30
0.0
 10
171.1340354014883
 20
115.567149704643
 30
0.0
 10
170.4010433151967
 20
116.6202881581335
 30
0.0
 10
169.6399060978969
 20
117.8639862399258
 30
0.0
 10
169.4952072960877
 20
118.109665741405
 30
0.0
 10
169.2230546907689
 20
118.5880934400278
 30
0.0
 10
169.0953098813742
 20
118.8212738833797
 30
0.0
 10
168.7346858232245
 20
119.5020069683069
 30
0.0
 10
168.5243223429086
 20
119.930755775574
 30
0.0
 10
168.1535402329391
 20
120.7343948982668
 30
0.0
 10
167.9931366321341
 20
121.1093006227999
 30
0.0
 10
167.7845464635195
 20
121.6282649512969
 30
0.0
 10
167.7203356155958
 20
121.7941458665806
 30
0.0
 10
167.6029700439139
 20
122.1080536491087
 30
0.0
 10
167.549644551507
 20
122.2564923260946
 30
0.0
 10
167.3075402570383
 20
122.9563151470145
 30
0.0
 10
167.1904305847501
 20
123.3813705335726
 30
0.0
 10
167.1103017206536
 20
123.8116075649876
 30
0.0
 10
167.100006478808
 20
123.9204276917908
 30
0.0
 10
167.1127257039669
 20
124.0639546862197
 30
0.0
 10
167.1355210627303
 20
124.0993748769706
 30
0.0
 10
167.1754701506825
 20
124.0993748769706
 30
0.0
  0
ELLIPSE
  5
C9
330
1F
100
AcDbEntity
  8
0
  6
Continuous
 62
     7
370
    15
100
AcDbEllipse
 10
243.9170360005
 20
92.599374877
 30
0.0
 11
109.8558632444936
 21
-31.31058925818013
 31
0.0
210
0.0
220
0.0
230
1.0
 40
0.0313975308
 41
4.143163225840637
 42
4.429615211697588
  0
LWPOLYLINE
  5
CA
330
1F
100
AcDbEntity
  8
0
  6
Continuous
 62
     7
370
    15
100
AcDbPolyline
 90
        4
 70
   128
 43
0.0
 10
215.4287149848
 20
67.8067222998
 10
202.8107469619
 20
67.1454422936
 10
190.7813003005
 20
66.5150058285
 10
179.3549632371
 20
65.9161765889
  0
SPLINE
  5
CB
330
1F
100
AcDbEntity
  8
0
  6
Continuous
 62
     7
370
    15
100
AcDbSpline
210
0.0
220
0.0
230
1.0
 70
     8
 71
     3
 72
    17
 73
    13
 74
     0
 42
0.00000001
 43
0.00000001
 12
1.0
 22
0.0
 32
0.0
 13
1.0
 23
0.0
 33
0.0
 40
0.0
 40
0.0
 40
0.0
 40
0.0
 40
0.0994305623584507
 40
0.2021059641518707
 40
0.3015242628652311
 40
0.4040131254888855
 40
0.5009153000653024
 40
0.6002560958392671
 40
0.7046762963377176
 40
0.8115957448212509
 40
0.9267764704937552
 40
1.0
 40
1.0
 40
1.0
 40
1.0
 10
179.3549632371433
 20
65.9161765888875
 30
0.0
 10
178.547769643481
 20
65.85163834039164
 30
0.0
 10
176.9070403180627
 20
65.72045568761831
 30
0.0
 10
174.590612397192
 20
65.2522236282561
 30
0.0
 10
172.4430486218359
 20
64.63204562900255
 30
0.0
 10
170.5851456567394
 20
63.92094396582848
 30
0.0
 10
169.012179950164
 20
63.18658993355859
 30
0.0
 10
167.7280233350482
 20
62.48867828362667
 30
0.0
 10
166.7179138286877
 20
61.86985401669391
 30
0.0
 10
166.0076172610143
 20
61.39555325077214
 30
0.0
 10
165.6216729535506
 20
61.12198798843519
 30
0.0
 10
165.6308048625642
 20
61.12837999035769
 30
0.0
 10
165.6343539894588
 20
61.130864249224
 30
0.0
  0
LINE
  5
CC
330
1F
100
AcDbEntity
  8
0
  6
Continuous
 62
     7
370
    15
100
AcDbLine
 10
223.4461581052
 20
98.5105169766
 30
0.0
 11
183.576726699
 21
110.0231592373
 31
0.0
  0
ELLIPSE
  5
CD
330
1F
100
AcDbEntity
  8
0
  6
Continuous
 62
     7
370
    15
100
AcDbEllipse
 10
225.3196587933
 20
97.2899328483
 30
0.0
 11
5.996898189587001
 21
-1.754655532768311
 31
0.0
210
0.0
220
0.0
230
1.0
 40
0.1099386099
 41
1.920513029223547
 42
2.911949538927759
  0
ELLIPSE
  5
CE
330
1F
100
AcDbEntity
  8
0
  6
Continuous
 62
     7
370
    15
100
AcDbEllipse
 10
190.7112307318
 20
135.2022345712
 30
0.0
 11
-2.283066946249448
 21
26.09557460633357
 31
0.0
210
0.0
220
0.0
230
1.0
 40
0.9925461516
 41
1.921895319509294
 42
2.775720720817921
  0
SPLINE
  5
CF
330
1F
100
AcDbEntity
  8
0
  6
Continuous
 62
     7
370
    15
100
AcDbSpline
210
0.0
220
0.0
230
1.0
 70
     8
 71
     3
 72
    12
 73
     8
 74
     0
 42
0.00000001
 43
0.00000001
 12
1.0
 22
0.0
 32
0.0
 13
1.0
 23
0.0
 33
0.0
 40
0.0
 40
0.0
 40
0.0
 40
0.0
 40
0.4999999999999999
 40
0.4999999999999999
 40
0.75
 40
0.75
 40
1.0
 40
1.0
 40
1.0
 40
1.0
 10
137.8991845789598
 20
70.74458117449471
 30
0.0
 10
137.955621079867
 20
70.74316329315297
 30
0.0
 10
138.0247057105558
 20
70.74159895690465
 30
0.0
 10
138.1435079822737
 20
70.73865476493022
 30
0.0
 10
138.1836932577438
 20
70.73761656183284
 30
0.0
 10
138.2570743051476
 20
70.7356826666182
 30
0.0
 10
138.2904838688902
 20
70.73478777932938
 30
0.0
 10
138.3207199765467
 20
70.73400398905704
 30
0.0
  0
SPLINE
  5
D0
330
1F
100
AcDbEntity
  8
0
  6
Continuous
 62
     7
370
    15
100
AcDbSpline
210
0.0
220
0.0
230
1.0
 70
     8
 71
     3
 72
    16
 73
    12
 74
     0
 42
0.00000001
 43
0.00000001
 12
1.0
 22
0.0
 32
0.0
 13
1.0
 23
0.0
 33
0.0
 40
0.0
 40
0.0
 40
0.0
 40
0.0
 40
0.0624999999999994
 40
0.0624999999999994
 40
0.1249999999999988
 40
0.1249999999999988
 40
0.2499999999999993
 40
0.2499999999999993
 40
0.4999999999999983
 40
0.4999999999999983
 40
1.0
 40
1.0
 40
1.0
 40
1.0
 10
138.3207199765095
 20
70.73400398908129
 30
0.0
 10
138.3323003840974
 20
70.73370379796995
 30
0.0
 10
138.3456099108587
 20
70.73237604971095
 30
0.0
 10
138.3749113409448
 20
70.72567737493594
 30
0.0
 10
138.3897254408291
 20
70.72031919183026
 30
0.0
 10
138.425553842532
 20
70.7032735426629
 30
0.0
 10
138.439673466895
 20
70.69181100488717
 30
0.0
 10
138.4741776109835
 20
70.66024767951492
 30
0.0
 10
138.4852821616881
 20
70.64235038046967
 30
0.0
 10
138.5114583389043
 20
70.5921889628554
 30
0.0
 10
138.5156968654163
 20
70.56444455065883
 30
0.0
 10
138.5156968654163
 20
70.5397803887293
 30
0.0
  0
LINE
  5
D1
330
1F
100
AcDbEntity
  8
0
  6
Continuous
 62
     7
370
    15
100
AcDbLine
 10
138.5156968705
 20
85.5774876491
 30
0.0
 11
138.5156968705
 21
70.0595543549
 31
0.0
  0
SPLINE
  5
D2
330
1F
100
AcDbEntity
  8
0
  6
Continuous
 62
     7
370
    15
100
AcDbSpline
210
0.0
220
0.0
230
1.0
 70
     8
 71
     3
 72
    16
 73
    12
 74
     0
 42
0.00000001
 43
0.00000001
 12
1.0
 22
0.0
 32
0.0
 13
1.0
 23
0.0
 33
0.0
 40
0.0
 40
0.0
 40
0.0
 40
0.0
 40
0.5000000000000012
 40
0.5000000000000012
 40
0.7500000000000018
 40
0.7500000000000018
 40
0.8750000000000014
 40
0.8750000000000014
 40
0.9375000000000008
 40
0.9375000000000008
 40
1.0
 40
1.0
 40
1.0
 40
1.0
 10
138.5156968654163
 20
85.57748755122046
 30
0.0
 10
138.5156968654163
 20
85.69118009534834
 30
0.0
 10
138.5115505903383
 20
85.80550025669785
 30
0.0
 10
138.4855849949448
 20
85.97854854719495
 30
0.0
 10
138.4741240895675
 20
86.03772405435666
 30
0.0
 10
138.4398123517931
 20
86.1208471738248
 30
0.0
 10
138.4257876158635
 20
86.14896848992547
 30
0.0
 10
138.3897646528297
 20
86.17758430390292
 30
0.0
 10
138.37501014374
 20
86.18337735180471
 30
0.0
 10
138.3456579825931
 20
86.18178392586768
 30
0.0
 10
138.332318108089
 20
86.17528752254388
 30
0.0
 10
138.3207199765407
 20
86.16677177634075
 30
0.0
  0
SPLINE
  5
D3
330
1F
100
AcDbEntity
  8
0
  6
Continuous
 62
     7
370
    15
100
AcDbSpline
210
0.0
220
0.0
230
1.0
 70
     8
 71
     3
 72
    12
 73
     8
 74
     0
 42
0.00000001
 43
0.00000001
 12
1.0
 22
0.0
 32
0.0
 13
1.0
 23
0.0
 33
0.0
 40
0.0
 40
0.0
 40
0.0
 40
0.0
 40
0.2499999999999998
 40
0.2499999999999998
 40
0.4999999999999999
 40
0.4999999999999999
 40
1.0
 40
1.0
 40
1.0
 40
1.0
 10
138.3207199765477
 20
86.1667717763316
 30
0.0
 10
138.2905215351071
 20
86.14459904428655
 30
0.0
 10
138.2571541797711
 20
86.12551938840932
 30
0.0
 10
138.1839989039412
 20
86.1003463439666
 30
0.0
 10
138.1437462049172
 20
86.0947898075498
 30
0.0
 10
138.0260174616424
 20
86.10570161853656
 30
0.0
 10
137.9555590135834
 20
86.14763737394739
 30
0.0
 10
137.8991845789652
 20
86.19684915632894
 30
0.0
  0
SPLINE
  5
D4
330
1F
100
AcDbEntity
  8
0
  6
Continuous
 62
     7
370
    15
100
AcDbSpline
210
0.0
220
0.0
230
1.0
 70
     8
 71
     3
 72
    12
 73
     8
 74
     0
 42
0.00000001
 43
0.00000001
 12
1.0
 22
0.0
 32
0.0
 13
1.0
 23
0.0
 33
0.0
 40
0.0
 40
0.0
 40
0.0
 40
0.0
 40
0.4999999999999993
 40
0.4999999999999993
 40
0.7499999999999997
 40
0.7499999999999997
 40
1.0
 40
1.0
 40
1.0
 40
1.0
 10
137.3943765218567
 20
87.4132005482095
 30
0.0
 10
137.4381268737411
 20
87.19275356323497
 30
0.0
 10
137.4910170248656
 20
86.97720857342941
 30
0.0
 10
137.6026285680072
 20
86.6647944968575
 30
0.0
 10
137.6451879119108
 20
86.56271502124159
 30
0.0
 10
137.7501651472482
 20
86.36827500859982
 30
0.0
 10
137.8117323903428
 20
86.27319010953617
 30
0.0
 10
137.8991845789652
 20
86.19684915632898
 30
0.0
  0
SPLINE
  5
D5
330
1F
100
AcDbEntity
  8
0
  6
Continuous
 62
     7
370
    15
100
AcDbSpline
210
0.0
220
0.0
230
1.0
 70
     8
 71
     3
 72
    12
 73
     8
 74
     0
 42
0.00000001
 43
0.00000001
 12
1.0
 22
0.0
 32
0.0
 13
1.0
 23
0.0
 33
0.0
 40
0.0
 40
0.0
 40
0.0
 40
0.0
 40
0.2499999999999999
 40
0.2499999999999999
 40
0.4999999999999999
 40
0.4999999999999999
 40
1.0
 40
1.0
 40
1.0
 40
1.0
 10
137.8991845789651
 20
99.00190059761212
 30
0.0
 10
137.8106911713972
 20
98.92465071750382
 30
0.0
 10
137.7506331306313
 20
98.83133139361459
 30
0.0
 10
137.6447848576487
 20
98.63529834064515
 30
0.0
 10
137.6022513363713
 20
98.53297198243342
 30
0.0
 10
137.4911000295476
 20
98.22162757665754
 30
0.0
 10
137.4381691724998
 20
98.00620932347954
 30
0.0
 10
137.3943765218567
 20
97.78554920573167
 30
0.0
  0
SPLINE
  5
D6
330
1F
100
AcDbEntity
  8
0
  6
Continuous
 62
     7
370
    15
100
AcDbSpline
210
0.0
220
0.0
230
1.0
 70
     8
 71
     3
 72
    12
 73
     8
 74
     0
 42
0.00000001
 43
0.00000001
 12
1.0
 22
0.0
 32
0.0
 13
1.0
 23
0.0
 33
0.0
 40
0.0
 40
0.0
 40
0.0
 40
0.0
 40
0.4999999999999994
 40
0.4999999999999994
 40
0.7499999999999997
 40
0.7499999999999997
 40
1.0
 40
1.0
 40
1.0
 40
1.0
 10
137.899184578965
 20
99.00190059761213
 30
0.0
 10
137.9554931272607
 20
99.05105486485598
 30
0.0
 10
138.0257677879788
 20
99.09301218345973
 30
0.0
 10
138.1438057023024
 20
99.10397186099216
 30
0.0
 10
138.1839819431563
 20
99.09846310274482
 30
0.0
 10
138.2579390378343
 20
99.07290587395586
 30
0.0
 10
138.2905554255457
 20
99.05412582611656
 30
0.0
 10
138.3207199765415
 20
99.03197797759982
 30
0.0
  0
SPLINE
  5
D7
330
1F
100
AcDbEntity
  8
0
  6
Continuous
 62
     7
370
    15
100
AcDbSpline
210
0.0
220
0.0
230
1.0
 70
     8
 71
     3
 72
    16
 73
    12
 74
     0
 42
0.00000001
 43
0.00000001
 12
1.0
 22
0.0
 32
0.0
 13
1.0
 23
0.0
 33
0.0
 40
0.0
 40
0.0
 40
0.0
 40
0.0
 40
0.0624999999999991
 40
0.0624999999999991
 40
0.1249999999999982
 40
0.1249999999999982
 40
0.2499999999999963
 40
0.2499999999999963
 40
0.4999999999999976
 40
0.4999999999999976
 40
1.0
 40
1.0
 40
1.0
 40
1.0
 10
138.3207199765097
 20
99.03197797754531
 30
0.0
 10
138.3323328763491
 20
99.02345138795006
 30
0.0
 10
138.3456840607816
 20
99.0169511264173
 30
0.0
 10
138.3750839004007
 20
99.01538172929978
 30
0.0
 10
138.389924624956
 20
99.02126511993036
 30
0.0
 10
138.4257578329246
 20
99.04981275598091
 30
0.0
 10
138.4398710407462
 20
99.0779797752867
 30
0.0
 10
138.4743624119651
 20
99.16173403370865
 30
0.0
 10
138.4854464830755
 20
99.21944744733007
 30
0.0
 10
138.5115693008714
 20
99.39303798397592
 30
0.0
 10
138.5156968654163
 20
99.50806603661785
 30
0.0
 10
138.5156968654163
 20
99.62126220272069
 30
0.0
  0
LINE
  5
D8
330
1F
100
AcDbEntity
  8
0
  6
Continuous
 62
     7
370
    15
100
AcDbLine
 10
138.5156968705
 20
115.139195399
 30
0.0
 11
138.5156968705
 21
99.6212621049
 31
0.0
  0
SPLINE
  5
D9
330
1F
100
AcDbEntity
  8
0
  6
Continuous
 62
     7
370
    15
100
AcDbSpline
210
0.0
220
0.0
230
1.0
 70
     8
 71
     3
 72
    16
 73
    12
 74
     0
 42
0.00000001
 43
0.00000001
 12
1.0
 22
0.0
 32
0.0
 13
1.0
 23
0.0
 33
0.0
 40
0.0
 40
0.0
 40
0.0
 40
0.0
 40
0.4999999999999947
 40
0.4999999999999947
 40
0.7499999999999937
 40
0.7499999999999937
 40
0.8749999999999932
 40
0.8749999999999932
 40
0.9374999999999966
 40
0.9374999999999966
 40
1.0
 40
1.0
 40
1.0
 40
1.0
 10
138.5156968654163
 20
114.6589693652119
 30
0.0
 10
138.5156968654163
 20
114.6342982091689
 30
0.0
 10
138.5115311669563
 20
114.6067163777777
 30
0.0
 10
138.4852728386314
 20
114.5563735069544
 30
0.0
 10
138.4737690568938
 20
114.5380840088925
 30
0.0
 10
138.4396382975473
 20
114.5069289778554
 30
0.0
 10
138.4252164108766
 20
114.4952896026437
 30
0.0
 10
138.3896494424387
 20
114.4784075767126
 30
0.0
 10
138.3746976741441
 20
114.473018472905
 30
0.0
 10
138.3456938557843
 20
114.4663979769605
 30
0.0
 10
138.3322785017751
 20
114.465045388754
 30
0.0
 10
138.3207199765385
 20
114.4647457648824
 30
0.0
  0
SPLINE
  5
DA
330
1F
100
AcDbEntity
  8
0
  6
Continuous
 62
     7
370
    15
100
AcDbSpline
210
0.0
220
0.0
230
1.0
 70
     8
 71
     3
 72
    12
 73
     8
 74
     0
 42
0.00000001
 43
0.00000001
 12
1.0
 22
0.0
 32
0.0
 13
1.0
 23
0.0
 33
0.0
 40
0.0
 40
0.0
 40
0.0
 40
0.0
 40
0.2499999999999996
 40
0.2499999999999996
 40
0.4999999999999996
 40
0.4999999999999996
 40
1.0
 40
1.0
 40
1.0
 40
1.0
 10
138.3207199765477
 20
114.4647457648841
 30
0.0
 10
138.2905321999981
 20
114.4639632274666
 30
0.0
 10
138.2571783959064
 20
114.4630698956481
 30
0.0
 10
138.1840521927104
 20
114.4611425868444
 30
0.0
 10
138.1438169896863
 20
114.4601030556318
 30
0.0
 10
138.0261253595532
 20
114.4571851722845
 30
0.0
 10
137.9557446863931
 20
114.4555895662143
 30
0.0
 10
137.8991845789625
 20
114.4541685794465
 30
0.0
  0
SPLINE
  5
DB
330
1F
100
AcDbEntity
  8
0
  6
Continuous
 62
     7
370
    15
100
AcDbSpline
210
0.0
220
0.0
230
1.0
 70
     8
 71
     3
 72
    16
 73
    12
 74
     0
 42
0.00000001
 43
0.00000001
 12
1.0
 22
0.0
 32
0.0
 13
1.0
 23
0.0
 33
0.0
 40
0.0
 40
0.0
 40
0.0
 40
0.0
 40
0.2500000000000001
 40
0.2500000000000001
 40
0.375
 40
0.375
 40
0.5
 40
0.5
 40
0.75
 40
0.75
 40
1.0
 40
1.0
 40
1.0
 40
1.0
 10
137.3943765218567
 20
97.78554920573167
 30
0.0
 10
137.2331440443722
 20
96.97313943048484
 30
0.0
 10
137.1126642047326
 20
96.1330611361001
 30
0.0
 10
136.9902836874193
 20
94.8317660867373
 30
0.0
 10
136.9593060270218
 20
94.39108505115254
 30
0.0
 10
136.9176922893938
 20
93.49524541022139
 30
0.0
 10
136.907456376461
 20
93.04858727901893
 30
0.0
 10
136.9072679794049
 20
91.71327732187903
 30
0.0
 10
136.9474126820425
 20
90.8287819485715
 30
0.0
 10
137.1115664369821
 20
89.0715320605455
 30
0.0
 10
137.2331180873916
 20
88.22574111413236
 30
0.0
 10
137.3943765218567
 20
87.4132005482095
 30
0.0
  0
LINE
  5
DC
330
1F
100
AcDbEntity
  8
0
  6
Continuous
 62
     7
370
    15
100
AcDbLine
 10
136.5156968773
 20
99.0845530123
 30
0.0
 11
136.5156968773
 21
86.1141967416
 31
0.0
  0
LINE
  5
DD
330
1F
100
AcDbEntity
  8
0
  6
Continuous
 62
     7
370
    15
100
AcDbLine
 10
102.2156974019
 20
98.6536854707
 30
0.0
 11
102.2156974019
 21
86.5450642832
 31
0.0
  0
LINE
  5
DE
330
1F
100
AcDbEntity
  8
0
  6
Continuous
 62
     7
370
    15
100
AcDbLine
 10
100.7156980873
 20
98.2206726276
 30
0.0
 11
100.7156980873
 21
86.9780771263
 31
0.0
  0
LINE
  5
DF
330
1F
100
AcDbEntity
  8
0
  6
Continuous
 62
     7
370
    15
100
AcDbLine
 10
102.2156974019
 20
98.6536854707
 30
0.0
 11
102.2156974019
 21
113.7577385471
 31
0.0
  0
LINE
  5
E0
330
1F
100
AcDbEntity
  8
0
  6
Continuous
 62
     7
370
    15
100
AcDbLine
 10
102.2156974019
 20
113.7577385471
 30
0.0
 11
136.5156968773
 21
114.6194745616
 31
0.0
  0
LINE
  5
E1
330
1F
100
AcDbEntity
  8
0
  6
Continuous
 62
     7
370
    15
100
AcDbLine
 10
136.5156968773
 20
99.0845530123
 30
0.0
 11
136.5156968773
 21
114.6194745616
 31
0.0
  0
ARC
  5
E2
330
1F
100
AcDbEntity
  8
0
  6
Continuous
 62
     7
370
    15
100
AcDbCircle
 10
136.7156337764
 20
114.6244967727
 30
0.0
 40
0.2000000000000059
100
AcDbArc
 50
181.4391666667
 51
271.4391666667
  0
LINE
  5
E3
330
1F
100
AcDbEntity
  8
0
  6
Continuous
 62
     7
370
    15
100
AcDbLine
 10
102.2156974019
 20
71.4410112069
 30
0.0
 11
102.2156974019
 21
86.5450642832
 31
0.0
  0
LINE
  5
E4
330
1F
100
AcDbEntity
  8
0
  6
Continuous
 62
     7
370
    15
100
AcDbLine
 10
136.5156968773
 20
70.5792751924
 30
0.0
 11
136.5156968773
 21
86.1141967416
 31
0.0
  0
LINE
  5
E5
330
1F
100
AcDbEntity
  8
0
  6
Continuous
 62
     7
370
    15
100
AcDbLine
 10
102.2156974019
 20
71.4410112069
 30
0.0
 11
136.5156968773
 21
70.5792751924
 31
0.0
  0
ARC
  5
E6
330
1F
100
AcDbEntity
  8
0
  6
Continuous
 62
     7
370
    15
100
AcDbCircle
 10
136.7156337764
 20
70.5742529813
 30
0.0
 40
0.2000000000000059
100
AcDbArc
 50
88.5608333333
 51
178.5608333333
  0
LINE
  5
E7
330
1F
100
AcDbEntity
  8
0
  6
Continuous
 62
     7
370
    15
100
AcDbLine
 10
136.7206569945
 20
114.4245599226
 30
0.0
 11
137.8991845946
 21
114.4541685299
 31
0.0
  0
LINE
  5
E8
330
1F
100
AcDbEntity
  8
0
  6
Continuous
 62
     7
370
    15
100
AcDbLine
 10
136.7206569945
 20
70.7741898314
 30
0.0
 11
137.8991845946
 21
70.7445812241
 31
0.0
  0
LINE
  5
E9
330
1F
100
AcDbEntity
  8
0
  6
Continuous
 62
     7
370
    15
100
AcDbLine
 10
100.7156980873
 20
112.8917128608
 30
0.0
 11
102.2156974019
 21
113.7577385471
 31
0.0
  0
LINE
  5
EA
330
1F
100
AcDbEntity
  8
0
  6
Continuous
 62
     7
370
    15
100
AcDbLine
 10
100.7156980873
 20
98.2206726276
 30
0.0
 11
100.7156980873
 21
112.8917128608
 31
0.0
  0
LINE
  5
EB
330
1F
100
AcDbEntity
  8
0
  6
Continuous
 62
     7
370
    15
100
AcDbLine
 10
100.7156980873
 20
72.3070368931
 30
0.0
 11
102.2156974019
 21
71.4410112069
 31
0.0
  0
LINE
  5
EC
330
1F
100
AcDbEntity
  8
0
  6
Continuous
 62
     7
370
    15
100
AcDbLine
 10
100.7156980873
 20
72.3070368931
 30
0.0
 11
100.7156980873
 21
86.9780771263
 31
0.0
  0
ELLIPSE
  5
ED
330
1F
100
AcDbEntity
  8
0
  6
Continuous
 62
     7
370
    15
100
AcDbEllipse
 10
225.3196587933
 20
98.6491230754
 30
0.0
 11
5.996898189587001
 21
-1.754655532768325
 31
0.0
210
0.0
220
0.0
230
1.0
 40
0.1099386099
 41
4.426984824230328
 42
4.744545253521828
  0
LWPOLYLINE
  5
EE
330
1F
100
AcDbEntity
  8
0
  6
Continuous
 62
     7
370
    15
100
AcDbPolyline
 90
        8
 70
   128
 43
0.0
 10
225.3196587504
 20
68.325085269
 10
224.2041876257
 20
68.266626151
 10
223.1276159824
 20
68.2102047667
 10
222.1274649442
 20
68.1577899322
 10
221.2386255802
 20
68.1112070397
 10
220.4920699538
 20
68.0720821783
 10
219.9138452948
 20
68.0417788044
 10
219.5241054238
 20
68.0213530377
  0
ELLIPSE
  5
EF
330
1F
100
AcDbEntity
  8
0
  6
Continuous
 62
     7
370
    15
100
AcDbEllipse
 10
251.7179338912
 20
117.5502546416
 30
0.0
 11
-2.283066946249392
 21
26.09557460633354
 31
0.0
210
0.0
220
0.0
230
1.0
 40
0.9925461516
 41
2.775720720817925
 42
3.10074376146224
  0
LINE
  5
F0
330
1F
100
AcDbEntity
  8
0
  6
Continuous
 62
     7
370
    15
100
AcDbLine
 10
245.6772377432
 20
85.336672777
 30
0.0
 11
239.8656433166
 21
84.8282242023
 31
0.0
  0
ARC
  5
F1
330
1F
100
AcDbEntity
  8
0
  6
Continuous
 62
     7
370
    15
100
AcDbCircle
 10
240.0391422714
 20
82.8451414466
 30
0.0
 40
1.990657739369703
100
AcDbArc
 50
95.0
 51
275.0
  0
LINE
  5
F2
330
1F
100
AcDbEntity
  8
0
  6
Continuous
 62
     7
370
    15
100
AcDbLine
 10
240.2126392067
 20
80.8620589614
 30
0.0
 11
241.3807635845
 21
80.9642557815
 31
0.0
  0
LINE
  5
F3
330
1F
100
AcDbEntity
  8
0
  6
Continuous
 62
     7
370
    15
100
AcDbLine
 10
256.6149433793
 20
82.2600980118
 30
0.0
 11
240.9863372983
 21
69.1461411134
 31
0.0
  0
LINE
  5
F4
330
1F
100
AcDbEntity
  8
0
  6
Continuous
 62
     7
370
    15
100
AcDbLine
 10
225.3196587504
 20
97.9337596164
 30
0.0
 11
244.583432907
 21
92.3711794112
 31
0.0
  0
LINE
  5
F5
330
1F
100
AcDbEntity
  8
0
  6
Continuous
 62
     7
370
    15
100
AcDbLine
 10
240.9863372983
 20
69.1461411134
 30
0.0
 11
225.3196587504
 21
68.325085269
 31
0.0
  0
LINE
  5
F6
330
1F
100
AcDbEntity
  8
0
  6
Continuous
 62
     7
370
    15
100
AcDbLine
 10
240.1916658224
 20
81.1018009499
 30
0.0
 11
241.1447217406
 21
81.18518226
 31
0.0
  0
LINE
  5
F7
330
1F
100
AcDbEntity
  8
0
  6
Continuous
 62
     7
370
    15
100
AcDbLine
 10
245.3558271469
 20
85.0669757292
 30
0.0
 11
239.886616701
 21
84.5884817482
 31
0.0
  0
ARC
  5
F8
330
1F
100
AcDbEntity
  8
0
  6
Continuous
 62
     7
370
    15
100
AcDbCircle
 10
240.0391422714
 20
82.8451414466
 30
0.0
 40
1.750000000000008
100
AcDbArc
 50
95.0
 51
275.0
  0
LWPOLYLINE
  5
F9
330
1F
100
AcDbEntity
  8
0
  6
Continuous
 62
     7
370
    15
100
AcDbPolyline
 90
        3
 70
   128
 43
0.0
 10
206.9490452946
 20
89.8646257647
 10
206.1992114128
 20
89.6385961041
 10
205.9982469023
 20
89.6127099932
  0
LWPOLYLINE
  5
FA
330
1F
100
AcDbEntity
  8
0
  6
Continuous
 62
     7
370
    15
100
AcDbPolyline
 90
        3
 70
   128
 43
0.0
 10
202.8669094385
 20
91.6589517674
 10
202.7549197615
 20
92.1158575748
 10
202.7157297076
 20
92.6135810842
  0
LINE
  5
FB
330
1F
100
AcDbEntity
  8
0
  6
Continuous
 62
     7
370
    15
100
AcDbLine
 10
207.4526076854
 20
90.1533285451
 30
0.0
 11
206.9490452946
 21
89.8646257647
 31
0.0
  0
CIRCLE
  5
FC
330
1F
100
AcDbEntity
  8
0
  6
Continuous
 62
     7
370
    15
100
AcDbCircle
 10
205.7156968654
 20
92.599374877
 30
0.0
 40
2.859999999999995
  0
CIRCLE
  5
FD
330
1F
100
AcDbEntity
  8
0
  6
Continuous
 62
     7
370
    15
100
AcDbCircle
 10
205.7156968654
 20
92.599374877
 30
0.0
 40
2.499999999999999
  0
LINE
  5
FE
330
1F
100
AcDbEntity
  8
0
  6
HIDDEN
 62
     7
370
     0
100
AcDbLine
 10
138.7156968654
 20
61.5993753836
 30
0.0
 11
138.7156968654
 21
123.5993743703
 31
0.0
  0
SPLINE
  5
FF
330
1F
100
AcDbEntity
  8
0
  6
HIDDEN
 62
     7
370
     0
100
AcDbSpline
210
0.0
220
0.0
230
1.0
 70
     8
 71
     3
 72
    12
 73
     8
 74
     0
 42
0.00000001
 43
0.00000001
 12
1.0
 22
0.0
 32
0.0
 13
1.0
 23
0.0
 33
0.0
 40
0.0
 40
0.0
 40
0.0
 40
0.0
 40
0.4999999999999963
 40
0.4999999999999963
 40
0.7499999999999981
 40
0.7499999999999981
 40
1.0
 40
1.0
 40
1.0
 40
1.0
 10
148.8104409770905
 20
122.5001173370879
 30
0.0
 10
148.8411632190096
 20
122.537419320041
 30
0.0
 10
148.8840004335448
 20
122.5740311520873
 30
0.0
 10
148.9834274577446
 20
122.6217959353726
 30
0.0
 10
149.0231796525612
 20
122.6367534508549
 30
0.0
 10
149.1212211094195
 20
122.6599433966241
 30
0.0
 10
149.1807771650069
 20
122.6678668358438
 30
0.0
 10
149.2434536789827
 20
122.6678668358438
 30
0.0
  0
LINE
  5
100
330
1F
100
AcDbEntity
  8
0
  6
HIDDEN
 62
     7
370
     0
100
AcDbLine
 10
149.2434538619
 20
122.6678673938
 30
0.0
 11
152.1879400776
 21
122.6678673938
 31
0.0
  0
SPLINE
  5
101
330
1F
100
AcDbEntity
  8
0
  6
HIDDEN
 62
     7
370
     0
100
AcDbSpline
210
0.0
220
0.0
230
1.0
 70
     8
 71
     3
 72
    12
 73
     8
 74
     0
 42
0.00000001
 43
0.00000001
 12
1.0
 22
0.0
 32
0.0
 13
1.0
 23
0.0
 33
0.0
 40
0.0
 40
0.0
 40
0.0
 40
0.0
 40
0.2499999999999991
 40
0.2499999999999991
 40
0.4999999999999982
 40
0.4999999999999982
 40
1.0
 40
1.0
 40
1.0
 40
1.0
 10
152.1879400518499
 20
122.6678668358438
 30
0.0
 10
152.2510200903432
 20
122.6678668358438
 30
0.0
 10
152.3101687125246
 20
122.6599609096313
 30
0.0
 10
152.4086412625937
 20
122.6366357481951
 30
0.0
 10
152.4476778745784
 20
122.6219229583634
 30
0.0
 10
152.5475743413575
 20
122.5739671576325
 30
0.0
 10
152.5899952224241
 20
122.5377050010524
 30
0.0
 10
152.6209527537421
 20
122.5001173370879
 30
0.0
  0
ELLIPSE
  5
102
330
1F
100
AcDbEntity
  8
0
  6
HIDDEN
 62
     7
370
     0
100
AcDbEllipse
 10
136.3685426761
 20
92.599374877
 30
0.0
 11
14.75368316065624
 21
31.09325491558116
 31
0.0
210
0.0
220
0.0
230
1.0
 40
0.3419987131
 41
5.193281737408638
 42
6.124043104552339
  0
SPLINE
  5
103
330
1F
100
AcDbEntity
  8
0
  6
HIDDEN
 62
     7
370
     0
100
AcDbSpline
210
0.0
220
0.0
230
1.0
 70
     8
 71
     3
 72
    12
 73
     8
 74
     0
 42
0.00000001
 43
0.00000001
 12
1.0
 22
0.0
 32
0.0
 13
1.0
 23
0.0
 33
0.0
 40
0.0
 40
0.0
 40
0.0
 40
0.0
 40
0.5
 40
0.5
 40
0.75
 40
0.75
 40
1.0
 40
1.0
 40
1.0
 40
1.0
 10
152.6209527537421
 20
102.5087441976562
 30
0.0
 10
152.590230511823
 20
102.396188398247
 30
0.0
 10
152.5473932972878
 20
102.2834305385074
 30
0.0
 10
152.447966273088
 20
102.1338896527111
 30
0.0
 10
152.4082140782714
 20
102.0865969210042
 30
0.0
 10
152.3101726214131
 20
102.0128606276828
 30
0.0
 10
152.2506165658257
 20
101.9874413083071
 30
0.0
 10
152.1879400518499
 20
101.9874413083071
 30
0.0
  0
LINE
  5
104
330
1F
100
AcDbEntity
  8
0
  6
HIDDEN
 62
     7
370
     0
100
AcDbLine
 10
152.1879400776
 20
101.9874417052
 30
0.0
 11
149.2434538619
 21
101.9874417052
 31
0.0
  0
SPLINE
  5
105
330
1F
100
AcDbEntity
  8
0
  6
HIDDEN
 62
     7
370
     0
100
AcDbSpline
210
0.0
220
0.0
230
1.0
 70
     8
 71
     3
 72
    12
 73
     8
 74
     0
 42
0.00000001
 43
0.00000001
 12
1.0
 22
0.0
 32
0.0
 13
1.0
 23
0.0
 33
0.0
 40
0.0
 40
0.0
 40
0.0
 40
0.0
 40
0.2500000000000009
 40
0.2500000000000009
 40
0.5000000000000018
 40
0.5000000000000018
 40
1.0
 40
1.0
 40
1.0
 40
1.0
 10
149.2434536789827
 20
101.9874413083071
 30
0.0
 10
149.1803736404894
 20
101.9874413083071
 30
0.0
 10
149.121225018308
 20
102.012805627522
 30
0.0
 10
149.0227524682389
 20
102.0869704878949
 30
0.0
 10
148.9837158562542
 20
102.1334908284491
 30
0.0
 10
148.8838193894751
 20
102.2836331712943
 30
0.0
 10
148.8413985084085
 20
102.3953263782664
 30
0.0
 10
148.8104409770905
 20
102.5087441976562
 30
0.0
  0
ELLIPSE
  5
106
330
1F
100
AcDbEntity
  8
0
  6
HIDDEN
 62
     7
370
     0
100
AcDbEllipse
 10
165.0628510548
 20
92.599374877
 30
0.0
 11
-14.75368316065627
 21
31.09325491558117
 31
0.0
210
0.0
220
0.0
230
1.0
 40
0.3419987131
 41
0.159142202627283
 42
1.08990356977096
  0
SPLINE
  5
107
330
1F
100
AcDbEntity
  8
0
  6
HIDDEN
 62
     7
370
     0
100
AcDbSpline
210
0.0
220
0.0
230
1.0
 70
     8
 71
     3
 72
    12
 73
     8
 74
     0
 42
0.00000001
 43
0.00000001
 12
1.0
 22
0.0
 32
0.0
 13
1.0
 23
0.0
 33
0.0
 40
0.0
 40
0.0
 40
0.0
 40
0.0
 40
0.4999999999999981
 40
0.4999999999999981
 40
0.749999999999999
 40
0.749999999999999
 40
1.0
 40
1.0
 40
1.0
 40
1.0
 10
148.8104409770905
 20
82.69000555628536
 30
0.0
 10
148.8411632190096
 20
82.80256135569454
 30
0.0
 10
148.8840004335448
 20
82.91531921543412
 30
0.0
 10
148.9834274577446
 20
83.0648601012305
 30
0.0
 10
149.0231796525612
 20
83.11215283293735
 30
0.0
 10
149.1212211094195
 20
83.1858891262588
 30
0.0
 10
149.1807771650069
 20
83.2113084456345
 30
0.0
 10
149.2434536789827
 20
83.2113084456345
 30
0.0
  0
LINE
  5
108
330
1F
100
AcDbEntity
  8
0
  6
HIDDEN
 62
     7
370
     0
100
AcDbLine
 10
149.2434538619
 20
83.2113080487
 30
0.0
 11
152.1879400776
 21
83.2113080487
 31
0.0
  0
SPLINE
  5
109
330
1F
100
AcDbEntity
  8
0
  6
HIDDEN
 62
     7
370
     0
100
AcDbSpline
210
0.0
220
0.0
230
1.0
 70
     8
 71
     3
 72
    12
 73
     8
 74
     0
 42
0.00000001
 43
0.00000001
 12
1.0
 22
0.0
 32
0.0
 13
1.0
 23
0.0
 33
0.0
 40
0.0
 40
0.0
 40
0.0
 40
0.0
 40
0.25
 40
0.25
 40
0.5
 40
0.5
 40
1.0
 40
1.0
 40
1.0
 40
1.0
 10
152.1879400518499
 20
83.21130844563451
 30
0.0
 10
152.2510200903432
 20
83.21130844563451
 30
0.0
 10
152.3101687125246
 20
83.18594412641959
 30
0.0
 10
152.4086412625937
 20
83.11177926604665
 30
0.0
 10
152.4476778745784
 20
83.06525892549251
 30
0.0
 10
152.5475743413575
 20
82.91511658264727
 30
0.0
 10
152.5899952224241
 20
82.80342337567514
 30
0.0
 10
152.6209527537421
 20
82.69000555628537
 30
0.0
  0
ELLIPSE
  5
10A
330
1F
100
AcDbEntity
  8
0
  6
HIDDEN
 62
     7
370
     0
100
AcDbEllipse
 10
136.3685426761
 20
92.599374877
 30
0.0
 11
-14.75368316065612
 21
31.09325491558117
 31
0.0
210
0.0
220
0.0
230
1.0
 40
0.3419987131
 41
3.30073485621713
 42
4.231496223360779
  0
SPLINE
  5
10B
330
1F
100
AcDbEntity
  8
0
  6
HIDDEN
 62
     7
370
     0
100
AcDbSpline
210
0.0
220
0.0
230
1.0
 70
     8
 71
     3
 72
    12
 73
     8
 74
     0
 42
0.00000001
 43
0.00000001
 12
1.0
 22
0.0
 32
0.0
 13
1.0
 23
0.0
 33
0.0
 40
0.0
 40
0.0
 40
0.0
 40
0.0
 40
0.4999999999999953
 40
0.4999999999999953
 40
0.7499999999999977
 40
0.7499999999999977
 40
1.0
 40
1.0
 40
1.0
 40
1.0
 10
152.6209527537421
 20
62.69863241685336
 30
0.0
 10
152.590230511823
 20
62.66133043390032
 30
0.0
 10
152.5473932972878
 20
62.62471860185392
 30
0.0
 10
152.447966273088
 20
62.57695381856872
 30
0.0
 10
152.4082140782714
 20
62.56199630308635
 30
0.0
 10
152.3101726214132
 20
62.53880635731721
 30
0.0
 10
152.2506165658257
 20
62.5308829180975
 30
0.0
 10
152.1879400518499
 20
62.5308829180975
 30
0.0
  0
LINE
  5
10C
330
1F
100
AcDbEntity
  8
0
  6
HIDDEN
 62
     7
370
     0
100
AcDbLine
 10
152.1879400776
 20
62.5308823601
 30
0.0
 11
149.2434538619
 21
62.5308823601
 31
0.0
  0
SPLINE
  5
10D
330
1F
100
AcDbEntity
  8
0
  6
HIDDEN
 62
     7
370
     0
100
AcDbSpline
210
0.0
220
0.0
230
1.0
 70
     8
 71
     3
 72
    12
 73
     8
 74
     0
 42
0.00000001
 43
0.00000001
 12
1.0
 22
0.0
 32
0.0
 13
1.0
 23
0.0
 33
0.0
 40
0.0
 40
0.0
 40
0.0
 40
0.0
 40
0.2499999999999999
 40
0.2499999999999999
 40
0.4999999999999999
 40
0.4999999999999999
 40
1.0
 40
1.0
 40
1.0
 40
1.0
 10
149.2434536789827
 20
62.5308829180975
 30
0.0
 10
149.1803736404894
 20
62.5308829180975
 30
0.0
 10
149.121225018308
 20
62.53878884430994
 30
0.0
 10
149.0227524682389
 20
62.56211400574618
 30
0.0
 10
148.9837158562542
 20
62.57682679557787
 30
0.0
 10
148.8838193894751
 20
62.62478259630881
 30
0.0
 10
148.8413985084085
 20
62.66104475288886
 30
0.0
 10
148.8104409770905
 20
62.69863241685336
 30
0.0
  0
ELLIPSE
  5
10E
330
1F
100
AcDbEntity
  8
0
  6
HIDDEN
 62
     7
370
     0
100
AcDbEllipse
 10
165.0628510548
 20
92.599374877
 30
0.0
 11
14.75368316065612
 21
31.09325491558116
 31
0.0
210
0.0
220
0.0
230
1.0
 40
0.3419987131
 41
2.05168908381882
 42
2.982450450962497
  0
SPLINE
  5
10F
330
1F
100
AcDbEntity
  8
0
  6
HIDDEN
 62
     7
370
     0
100
AcDbSpline
210
0.0
220
0.0
230
1.0
 70
     8
 71
     3
 72
    60
 73
    56
 74
     0
 42
0.00000001
 43
0.00000001
 12
1.0
 22
0.0
 32
0.0
 13
1.0
 23
0.0
 33
0.0
 40
-0.0624999999999998
 40
-0.0624999999999998
 40
0.0
 40
0.0
 40
0.0312499999999999
 40
0.0312499999999999
 40
0.0624999999999998
 40
0.0624999999999998
 40
0.0937499999999997
 40
0.0937499999999997
 40
0.1249999999999996
 40
0.1249999999999996
 40
0.1874999999999993
 40
0.1874999999999993
 40
0.249999999999999
 40
0.249999999999999
 40
0.2812499999999991
 40
0.2812499999999991
 40
0.3124999999999992
 40
0.3124999999999992
 40
0.3437499999999992
 40
0.3437499999999992
 40
0.3749999999999993
 40
0.3749999999999993
 40
0.4062499999999994
 40
0.4062499999999994
 40
0.4374999999999994
 40
0.4374999999999994
 40
0.4687499999999996
 40
0.4687499999999996
 40
0.4999999999999997
 40
0.4999999999999997
 40
0.5624999999999998
 40
0.5624999999999998
 40
0.625
 40
0.625
 40
0.65625
 40
0.65625
 40
0.6875
 40
0.6875
 40
0.71875
 40
0.71875
 40
0.75
 40
0.75
 40
0.7812500000000001
 40
0.7812500000000001
 40
0.8125000000000001
 40
0.8125000000000001
 40
0.8437500000000001
 40
0.8437500000000001
 40
0.8750000000000001
 40
0.8750000000000001
 40
0.9062500000000001
 40
0.9062500000000001
 40
0.9375000000000002
 40
0.9375000000000002
 40
1.0
 40
1.0
 40
1.03125
 40
1.03125
 10
152.7156968654163
 20
92.33504435188387
 30
0.0
 10
152.7156968654163
 20
92.73154013951392
 30
0.0
 10
152.7027250069275
 20
92.86149020051806
 30
0.0
 10
152.6519048372351
 20
93.11714313387816
 30
0.0
 10
152.6134375137682
 20
93.24417264042748
 30
0.0
 10
152.5130392776961
 20
93.486360771552
 30
0.0
 10
152.4516062467229
 20
93.60122226410486
 30
0.0
 10
152.306471415178
 20
93.818602459929
 30
0.0
 10
152.2220162977701
 20
93.92150002712762
 30
0.0
 10
151.9452968474118
 20
94.1981670661354
 30
0.0
 10
151.7222199554937
 20
94.34716515661539
 30
0.0
 10
151.2409365932734
 20
94.54667629708008
 30
0.0
 10
150.9777061742824
 20
94.59923440007678
 30
0.0
 10
150.5863039725945
 20
94.59944468245487
 30
0.0
 10
150.4537809444856
 20
94.58645891172773
 30
0.0
 10
150.1972504912445
 20
94.53543176351393
 30
0.0
 10
150.0725636569479
 20
94.49767656436353
 30
0.0
 10
149.8303843947124
 20
94.39753823145479
 30
0.0
 10
149.7132908625624
 20
94.33493256404326
 30
0.0
 10
149.496575859207
 20
94.19019927077831
 30
0.0
 10
149.3955570323442
 20
94.10757192349872
 30
0.0
 10
149.208772144892
 20
93.92096687024716
 30
0.0
 10
149.1259152636959
 20
93.81985180637098
 30
0.0
 10
148.981030998622
 20
93.60331900238113
 30
0.0
 10
148.9183934908011
 20
93.48644879478002
 30
0.0
 10
148.8179446674013
 20
93.24415092412985
 30
0.0
 10
148.7800935663841
 20
93.11948692566888
 30
0.0
 10
148.7288720011278
 20
92.86319988160501
 30
0.0
 10
148.7157438745105
 20
92.73062788585942
 30
0.0
 10
148.7156032341703
 20
92.33902369308544
 30
0.0
 10
148.7679279835421
 20
92.07585836176149
 30
0.0
 10
148.9670390455994
 20
91.59435299258836
 30
0.0
 10
149.1159013820566
 20
91.37110145310426
 30
0.0
 10
149.3922223413822
 20
91.09424515421539
 30
0.0
 10
149.4949859897557
 20
91.00973170737169
 30
0.0
 10
149.7123695471352
 20
90.86431443393143
 30
0.0
 10
149.8271683150916
 20
90.80280323487304
 30
0.0
 10
150.0690450385156
 20
90.70227338661822
 30
0.0
 10
150.1961986465159
 20
90.6636283634002
 30
0.0
 10
150.4518646559484
 20
90.61257203584923
 30
0.0
 10
150.5817306937045
 20
90.5995071773036
 30
0.0
 10
150.8456832204361
 20
90.59924455650565
 30
0.0
 10
150.9760875438602
 20
90.61212155674968
 30
0.0
 10
151.2317383072395
 20
90.66270756055549
 30
0.0
 10
151.3586038563539
 20
90.70098392517733
 30
0.0
 10
151.6011243142998
 20
90.80125479265736
 30
0.0
 10
151.7160509529601
 20
90.86261081679824
 30
0.0
 10
151.9334224217921
 20
91.00745711197105
 30
0.0
 10
152.0364362344543
 20
91.09183462646568
 30
0.0
 10
152.2211367800363
 20
91.27624194665394
 30
0.0
 10
152.3039665142929
 20
91.37681500992339
 30
0.0
 10
152.4502189528904
 20
91.59504115050238
 30
0.0
 10
152.5125874336828
 20
91.71159626042363
 30
0.0
 10
152.6625435852495
 20
92.07244585445741
 30
0.0
 10
152.7156968654163
 20
92.33504435188387
 30
0.0
 10
152.7156968654163
 20
92.73154013951392
 30
0.0
  0
SPLINE
  5
110
330
1F
100
AcDbEntity
  8
0
  6
HIDDEN
 62
     7
370
     0
100
AcDbSpline
210
0.0
220
0.0
230
1.0
 70
     8
 71
     3
 72
    10
 73
     6
 74
     0
 42
0.00000001
 43
0.00000001
 12
1.0
 22
0.0
 32
0.0
 13
1.0
 23
0.0
 33
0.0
 40
0.0
 40
0.0
 40
0.0
 40
0.0
 40
0.5
 40
0.5
 40
1.0
 40
1.0
 40
1.0
 40
1.0
 10
254.3307571571482
 20
87.685548053923
 30
0.0
 10
252.7333276961264
 20
87.54845953723019
 30
0.0
 10
251.1502857371592
 20
87.55843796879647
 30
0.0
 10
248.0115634254883
 20
87.85816932148838
 30
0.0
 10
246.4558837687553
 20
88.14791986555706
 30
0.0
 10
244.9145672218685
 20
88.58627519279973
 30
0.0
  0
ELLIPSE
  5
111
330
1F
100
AcDbEntity
  8
0
  6
HIDDEN
 62
     7
370
     0
100
AcDbEllipse
 10
243.9170360005
 20
92.599374877
 30
0.0
 11
109.8558632444936
 21
-31.31058925818013
 31
0.0
210
0.0
220
0.0
230
1.0
 40
0.0313975308
 41
4.143163225840637
 42
4.730417639769251
  0
SPLINE
  5
112
330
1F
100
AcDbEntity
  8
0
  6
HIDDEN
 62
     7
370
     0
100
AcDbSpline
210
0.0
220
0.0
230
1.0
 70
     8
 71
     3
 72
    38
 73
    34
 74
     0
 42
0.00000001
 43
0.00000001
 12
1.0
 22
0.0
 32
0.0
 13
1.0
 23
0.0
 33
0.0
 40
0.0
 40
0.0
 40
0.0
 40
0.0
 40
0.1250000000000007
 40
0.1250000000000007
 40
0.1562500000000008
 40
0.1562500000000008
 40
0.1875000000000009
 40
0.1875000000000009
 40
0.2500000000000005
 40
0.2500000000000005
 40
0.3125000000000002
 40
0.3125000000000002
 40
0.3749999999999998
 40
0.3749999999999998
 40
0.4999999999999989
 40
0.4999999999999989
 40
0.5312499999999988
 40
0.5312499999999988
 40
0.5624999999999988
 40
0.5624999999999988
 40
0.6249999999999989
 40
0.6249999999999989
 40
0.687499999999999
 40
0.687499999999999
 40
0.718749999999999
 40
0.718749999999999
 40
0.7499999999999991
 40
0.7499999999999991
 40
0.8749999999999996
 40
0.8749999999999996
 40
0.9374999999999998
 40
0.9374999999999998
 40
1.0
 40
1.0
 40
1.0
 40
1.0
 10
183.8788549902679
 20
106.569830334769
 30
0.0
 10
182.2180210032118
 20
107.0794786135449
 30
0.0
 10
180.6581604916365
 20
107.7497331518029
 30
0.0
 10
178.8315207119265
 20
108.7590592804367
 30
0.0
 10
178.4724139009637
 20
108.969555595859
 30
0.0
 10
177.7667929335403
 20
109.4072436605549
 30
0.0
 10
177.4192565698827
 20
109.635198427267
 30
0.0
 10
176.4087767903196
 20
110.3340286212715
 30
0.0
 10
175.774691339542
 20
110.8215305292402
 30
0.0
 10
174.580611427282
 20
111.8288228280173
 30
0.0
 10
174.0206390879787
 20
112.3486392585407
 30
0.0
 10
172.9709530365288
 20
113.4101037993383
 30
0.0
 10
172.4789202362556
 20
113.9549375428871
 30
0.0
 10
171.1340354014884
 20
115.5671497046429
 30
0.0
 10
170.4010433151968
 20
116.6202881581334
 30
0.0
 10
169.6399060978969
 20
117.8639862399257
 30
0.0
 10
169.4952072960878
 20
118.1096657414049
 30
0.0
 10
169.223054690769
 20
118.5880934400277
 30
0.0
 10
169.0953098813742
 20
118.8212738833796
 30
0.0
 10
168.7346858232246
 20
119.5020069683068
 30
0.0
 10
168.5243223429086
 20
119.9307557755739
 30
0.0
 10
168.1535402329392
 20
120.7343948982667
 30
0.0
 10
167.9931366321342
 20
121.1093006227998
 30
0.0
 10
167.7845464635195
 20
121.6282649512968
 30
0.0
 10
167.7203356155958
 20
121.7941458665805
 30
0.0
 10
167.6029700439139
 20
122.1080536491086
 30
0.0
 10
167.549644551507
 20
122.2564923260945
 30
0.0
 10
167.3075402570383
 20
122.9563151470144
 30
0.0
 10
167.1904305847501
 20
123.3813705335726
 30
0.0
 10
167.1103017206536
 20
123.8116075649875
 30
0.0
 10
167.100006478808
 20
123.9204276917908
 30
0.0
 10
167.1127257039669
 20
124.0639546862197
 30
0.0
 10
167.1355210627302
 20
124.0993748769706
 30
0.0
 10
167.1754701506825
 20
124.0993748769706
 30
0.0
  0
SPLINE
  5
113
330
1F
100
AcDbEntity
  8
0
  6
HIDDEN
 62
     7
370
     0
100
AcDbSpline
210
0.0
220
0.0
230
1.0
 70
     8
 71
     3
 72
    17
 73
    13
 74
     0
 42
0.00000001
 43
0.00000001
 12
1.0
 22
0.0
 32
0.0
 13
1.0
 23
0.0
 33
0.0
 40
0.0
 40
0.0
 40
0.0
 40
0.0
 40
0.0448902696717214
 40
0.1677625016390195
 40
0.2942953526583682
 40
0.4148543518305129
 40
0.5396553587515378
 40
0.6486140633462244
 40
0.7614497206435928
 40
0.8598661380391742
 40
0.9613916794936479
 40
1.0
 40
1.0
 40
1.0
 40
1.0
 10
165.6343539894588
 20
61.130864249224
 30
0.0
 10
165.6230189333774
 20
61.12278237512155
 30
0.0
 10
165.5806579188783
 20
61.09257904982917
 30
0.0
 10
165.9201424234579
 20
61.33516664156699
 30
0.0
 10
166.6780644407181
 20
61.84699411268896
 30
0.0
 10
167.9146498792096
 20
62.60239834166356
 30
0.0
 10
169.5295546046976
 20
63.45137695496803
 30
0.0
 10
171.5137224618797
 20
64.30256378277986
 30
0.0
 10
173.6664831487043
 20
65.01543901450668
 30
0.0
 10
176.0021911146095
 20
65.55577266067728
 30
0.0
 10
177.9016148690792
 20
65.82371470476507
 30
0.0
 10
179.0410399157029
 20
65.89620481721309
 30
0.0
 10
179.3549632371433
 20
65.9161765888875
 30
0.0
  0
LWPOLYLINE
  5
114
330
1F
100
AcDbEntity
  8
0
  6
HIDDEN
 62
     7
370
     0
100
AcDbPolyline
 90
        7
 70
   128
 43
0.0
 10
179.3549632371
 20
65.9161765889
 10
188.0620991529
 20
66.3724985734
 10
197.1257900537
 20
66.8475066141
 10
206.5395837368
 20
67.3408635721
 10
216.2967672289
 20
67.8522155449
 10
226.3903891386
 20
68.3811993167
 10
236.8132596553
 20
68.9274386332
  0
ELLIPSE
  5
115
330
1F
100
AcDbEntity
  8
0
  6
HIDDEN
 62
     7
370
     0
100
AcDbEllipse
 10
268.9941196212
 20
92.599374877
 30
0.0
 11
37.94017155979753
 21
31.35986399341219
 31
0.0
210
0.0
220
0.0
230
1.0
 40
0.0782280126
 41
1.823826151642689
 42
2.515475694649332
  0
ELLIPSE
  5
116
330
1F
100
AcDbEntity
  8
0
  6
HIDDEN
 62
     7
370
     0
100
AcDbEllipse
 10
268.8065264685
 20
92.599374877
 30
0.0
 11
-15.3225886445401
 21
30.99442485134653
 31
0.0
210
0.0
220
0.0
230
1.0
 40
0.3668439443
 41
1.540717083464252
 42
1.550059200528223
  0
ELLIPSE
  5
117
330
1F
100
AcDbEntity
  8
0
  6
HIDDEN
 62
     7
370
     0
100
AcDbEllipse
 10
266.662284296
 20
92.599374877
 30
0.0
 11
362.771003781009
 21
31.26691556200289
 31
0.0
210
0.0
220
0.0
230
1.0
 40
0.0105436132
 41
4.677481106930539
 42
4.684789294253628
  0
CIRCLE
  5
118
330
1F
100
AcDbEntity
  8
0
  6
HIDDEN
 62
     7
370
     0
100
AcDbCircle
 10
205.7156968654
 20
92.599374877
 30
0.0
 40
2.5
  0
CIRCLE
  5
119
330
1F
100
AcDbEntity
  8
0
  6
HIDDEN
 62
     7
370
     0
100
AcDbCircle
 10
205.7156968654
 20
92.599374877
 30
0.0
 40
3.0
  0
LINE
  5
11A
330
1F
100
AcDbEntity
  8
0
  6
HIDDEN
 62
     7
370
     0
100
AcDbLine
 10
138.7156968654
 20
68.3493741617
 30
0.0
 11
138.7156968654
 21
116.8493755922
 31
0.0
  0
SPLINE
  5
11B
330
1F
100
AcDbEntity
  8
0
  6
HIDDEN
 62
     7
370
     0
100
AcDbSpline
210
0.0
220
0.0
230
1.0
 70
     8
 71
     3
 72
    12
 73
     8
 74
     0
 42
0.00000001
 43
0.00000001
 12
1.0
 22
0.0
 32
0.0
 13
1.0
 23
0.0
 33
0.0
 40
0.0
 40
0.0
 40
0.0
 40
0.0
 40
0.4999999999999993
 40
0.4999999999999993
 40
0.7499999999999997
 40
0.7499999999999997
 40
1.0
 40
1.0
 40
1.0
 40
1.0
 10
137.8991845789693
 20
108.0516428588014
 30
0.0
 10
137.9555907576495
 20
108.0038204851416
 30
0.0
 10
138.0257536591213
 20
107.9635496382031
 30
0.0
 10
138.1437643725105
 20
107.9555037697261
 30
0.0
 10
138.1839701561059
 20
107.962066368065
 30
0.0
 10
138.257690852839
 20
107.9894484625186
 30
0.0
 10
138.2905515746255
 20
108.009209953049
 30
0.0
 10
138.3207199765548
 20
108.032142664237
 30
0.0
  0
SPLINE
  5
11C
330
1F
100
AcDbEntity
  8
0
  6
HIDDEN
 62
     7
370
     0
100
AcDbSpline
210
0.0
220
0.0
230
1.0
 70
     8
 71
     3
 72
    16
 73
    12
 74
     0
 42
0.00000001
 43
0.00000001
 12
1.0
 22
0.0
 32
0.0
 13
1.0
 23
0.0
 33
0.0
 40
0.0
 40
0.0
 40
0.0
 40
0.0
 40
0.062499999999995
 40
0.062499999999995
 40
0.1249999999999899
 40
0.1249999999999899
 40
0.249999999999988
 40
0.249999999999988
 40
0.4999999999999903
 40
0.4999999999999903
 40
1.0
 40
1.0
 40
1.0
 40
1.0
 10
138.3207199765097
 20
108.0321426642851
 30
0.0
 10
138.332332876349
 20
108.0409702872665
 30
0.0
 10
138.3456840607815
 20
108.0488046691484
 30
0.0
 10
138.3750839004007
 20
108.0571147952208
 30
0.0
 10
138.3899246249559
 20
108.0566189759858
 30
0.0
 10
138.4257578329245
 20
108.0451680050164
 30
0.0
 10
138.4398710407461
 20
108.0284875041578
 30
0.0
 10
138.474362411965
 20
107.9763668184007
 30
0.0
 10
138.4854464830754
 20
107.9365773243757
 30
0.0
 10
138.5115693008714
 20
107.8132406922786
 30
0.0
 10
138.5156968654163
 20
107.72581928178
 30
0.0
 10
138.5156968654163
 20
107.6370820394617
 30
0.0
  0
LINE
  5
11D
330
1F
100
AcDbEntity
  8
0
  6
HIDDEN
 62
     7
370
     0
100
AcDbLine
 10
138.5156968705
 20
77.5616678238
 30
0.0
 11
138.5156968705
 21
107.6370819301
 31
0.0
  0
SPLINE
  5
11E
330
1F
100
AcDbEntity
  8
0
  6
HIDDEN
 62
     7
370
     0
100
AcDbSpline
210
0.0
220
0.0
230
1.0
 70
     8
 71
     3
 72
    16
 73
    12
 74
     0
 42
0.00000001
 43
0.00000001
 12
1.0
 22
0.0
 32
0.0
 13
1.0
 23
0.0
 33
0.0
 40
0.0
 40
0.0
 40
0.0
 40
0.0
 40
0.5000000000000057
 40
0.5000000000000057
 40
0.750000000000006
 40
0.750000000000006
 40
0.875000000000003
 40
0.875000000000003
 40
0.9375000000000016
 40
0.9375000000000016
 40
1.0
 40
1.0
 40
1.0
 40
1.0
 10
138.5156968654163
 20
77.56166771447943
 30
0.0
 10
138.5156968654163
 20
77.47254134929068
 30
0.0
 10
138.5115505903384
 20
77.38567998167726
 30
0.0
 10
138.4855849949448
 20
77.26269773518321
 30
0.0
 10
138.4741240895674
 20
77.22192643995193
 30
0.0
 10
138.439812351793
 20
77.17022211995217
 30
0.0
 10
138.4257876158634
 20
77.15355175336178
 30
0.0
 10
138.3897646528296
 20
77.14209953290505
 30
0.0
 10
138.3750101437399
 20
77.14164648663004
 30
0.0
 10
138.3456579825931
 20
77.14996180784618
 30
0.0
 10
138.332318108089
 20
77.15779069292445
 30
0.0
 10
138.3207199765407
 20
77.16660708968709
 30
0.0
  0
SPLINE
  5
11F
330
1F
100
AcDbEntity
  8
0
  6
HIDDEN
 62
     7
370
     0
100
AcDbSpline
210
0.0
220
0.0
230
1.0
 70
     8
 71
     3
 72
    12
 73
     8
 74
     0
 42
0.00000001
 43
0.00000001
 12
1.0
 22
0.0
 32
0.0
 13
1.0
 23
0.0
 33
0.0
 40
0.0
 40
0.0
 40
0.0
 40
0.0
 40
0.25
 40
0.25
 40
0.5
 40
0.5
 40
1.0
 40
1.0
 40
1.0
 40
1.0
 10
138.3207199765477
 20
77.16660708969599
 30
0.0
 10
138.2905281348305
 20
77.18955761879381
 30
0.0
 10
138.2571691654159
 20
77.20952709281799
 30
0.0
 10
138.1840318808353
 20
77.23662822644347
 30
0.0
 10
138.1437900081813
 20
77.24322896708892
 30
0.0
 10
138.0260842312128
 20
77.23526009258221
 30
0.0
 10
137.9556737534334
 20
77.19499963441434
 30
0.0
 10
137.8991845789651
 20
77.14710689513618
 30
0.0
  0
SPLINE
  5
120
330
1F
100
AcDbEntity
  8
0
  6
HIDDEN
 62
     7
370
     0
100
AcDbSpline
210
0.0
220
0.0
230
1.0
 70
     8
 71
     3
 72
    12
 73
     8
 74
     0
 42
0.00000001
 43
0.00000001
 12
1.0
 22
0.0
 32
0.0
 13
1.0
 23
0.0
 33
0.0
 40
0.0
 40
0.0
 40
0.0
 40
0.0
 40
0.2500000000000014
 40
0.2500000000000014
 40
0.5000000000000028
 40
0.5000000000000028
 40
1.0
 40
1.0
 40
1.0
 40
1.0
 10
137.8991845789648
 20
77.14710689513639
 30
0.0
 10
137.811030641227
 20
77.0723680872823
 30
0.0
 10
137.7506772165983
 20
76.98138758679991
 30
0.0
 10
137.6444152585315
 20
76.79247376404733
 30
0.0
 10
137.6021830919694
 20
76.69596930450675
 30
0.0
 10
137.4911123966522
 20
76.4052015503396
 30
0.0
 10
137.4381756202255
 20
76.20953473579587
 30
0.0
 10
137.3943765218567
 20
76.01546825072955
 30
0.0
  0
SPLINE
  5
121
330
1F
100
AcDbEntity
  8
0
  6
HIDDEN
 62
     7
370
     0
100
AcDbSpline
210
0.0
220
0.0
230
1.0
 70
     8
 71
     3
 72
    12
 73
     8
 74
     0
 42
0.00000001
 43
0.00000001
 12
1.0
 22
0.0
 32
0.0
 13
1.0
 23
0.0
 33
0.0
 40
0.0
 40
0.0
 40
0.0
 40
0.0
 40
0.4999999999999991
 40
0.4999999999999991
 40
0.7499999999999996
 40
0.7499999999999996
 40
1.0
 40
1.0
 40
1.0
 40
1.0
 10
137.3943765218567
 20
70.82929392196846
 30
0.0
 10
137.4381230626932
 20
70.80269975132728
 30
0.0
 10
137.4910074179247
 20
70.78293952600157
 30
0.0
 10
137.6025745052609
 20
70.76248853577248
 30
0.0
 10
137.6451581018039
 20
70.75722831111604
 30
0.0
 10
137.7500748288857
 20
70.74934551719339
 30
0.0
 10
137.8116084367305
 20
70.74678139201424
 30
0.0
 10
137.8991845789566
 20
70.7445811744946
 30
0.0
  0
LINE
  5
122
330
1F
100
AcDbEntity
  8
0
  6
HIDDEN
 62
     7
370
     0
100
AcDbLine
 10
138.5156968705
 20
70.0595543549
 30
0.0
 11
138.5156968705
 21
70.5397796646
 31
0.0
  0
LINE
  5
123
330
1F
100
AcDbEntity
  8
0
  6
HIDDEN
 62
     7
370
     0
100
AcDbLine
 10
138.5156968705
 20
114.6589700893
 30
0.0
 11
138.5156968705
 21
115.139195399
 31
0.0
  0
SPLINE
  5
124
330
1F
100
AcDbEntity
  8
0
  6
HIDDEN
 62
     7
370
     0
100
AcDbSpline
210
0.0
220
0.0
230
1.0
 70
     8
 71
     3
 72
    12
 73
     8
 74
     0
 42
0.00000001
 43
0.00000001
 12
1.0
 22
0.0
 32
0.0
 13
1.0
 23
0.0
 33
0.0
 40
0.0
 40
0.0
 40
0.0
 40
0.0
 40
0.2499999999999996
 40
0.2499999999999996
 40
0.4999999999999992
 40
0.4999999999999992
 40
1.0
 40
1.0
 40
1.0
 40
1.0
 10
137.8991845789646
 20
114.4541685794465
 30
0.0
 10
137.8104999191082
 20
114.4519405121055
 30
0.0
 10
137.7505815033848
 20
114.4494387280752
 30
0.0
 10
137.6449222760641
 20
114.4415072922392
 30
0.0
 10
137.6022810379491
 20
114.4362151373423
 30
0.0
 10
137.4910916958466
 20
114.4158101968552
 30
0.0
 10
137.4381650137256
 20
114.3960755052683
 30
0.0
 10
137.3943765218567
 20
114.3694558319727
 30
0.0
  0
SPLINE
  5
125
330
1F
100
AcDbEntity
  8
0
  6
HIDDEN
 62
     7
370
     0
100
AcDbSpline
210
0.0
220
0.0
230
1.0
 70
     8
 71
     3
 72
    12
 73
     8
 74
     0
 42
0.00000001
 43
0.00000001
 12
1.0
 22
0.0
 32
0.0
 13
1.0
 23
0.0
 33
0.0
 40
0.0
 40
0.0
 40
0.0
 40
0.0
 40
0.5000000000000043
 40
0.5000000000000043
 40
0.7500000000000036
 40
0.7500000000000036
 40
1.0
 40
1.0
 40
1.0
 40
1.0
 10
137.3943765218551
 20
109.1832815032118
 30
0.0
 10
137.4381379981538
 20
108.9893817152497
 30
0.0
 10
137.4910443138068
 20
108.7935253513129
 30
0.0
 10
137.6027555114542
 20
108.5013832048139
 30
0.0
 10
137.6452749550406
 20
108.404665268116
 30
0.0
 10
137.750398297608
 20
108.2179408316915
 30
0.0
 10
137.8119642613257
 20
108.1255901234218
 30
0.0
 10
137.8991845789684
 20
108.0516428588021
 30
0.0
  0
LINE
  5
126
330
1F
100
AcDbEntity
  8
0
  6
HIDDEN
 62
     7
370
     0
100
AcDbLine
 10
138.5156968705
 20
70.5397796646
 30
0.0
 11
138.5156968705
 21
85.5774876491
 31
0.0
  0
LINE
  5
127
330
1F
100
AcDbEntity
  8
0
  6
HIDDEN
 62
     7
370
     0
100
AcDbLine
 10
138.5156968705
 20
99.6212621049
 30
0.0
 11
138.5156968705
 21
114.6589700893
 31
0.0
  0
CIRCLE
  5
128
330
1F
100
AcDbEntity
  8
0
  6
HIDDEN
 62
     7
370
     0
100
AcDbCircle
 10
123.2156968654
 20
92.599374877
 30
0.0
 40
4.049999999999997
  0
LINE
  5
129
330
1F
100
AcDbEntity
  8
0
  6
HIDDEN
 62
     7
370
     0
100
AcDbLine
 10
102.2459244073
 20
107.9123259351
 30
0.0
 11
102.2459244073
 21
77.2864238188
 31
0.0
  0
LINE
  5
12A
330
1F
100
AcDbEntity
  8
0
  6
HIDDEN
 62
     7
370
     0
100
AcDbLine
 10
100.7156980873
 20
76.4029451475
 30
0.0
 11
100.7156980873
 21
108.7712102399
 31
0.0
  0
LINE
  5
12B
330
1F
100
AcDbEntity
  8
0
  6
HIDDEN
 62
     7
370
     0
100
AcDbLine
 10
108.7459245415
 20
106.9457853973
 30
0.0
 11
108.7459245415
 21
78.2529643566
 31
0.0
  0
LINE
  5
12C
330
1F
100
AcDbEntity
  8
0
  6
HIDDEN
 62
     7
370
     0
100
AcDbLine
 10
114.5459258647
 20
106.5993753091
 30
0.0
 11
114.5459258647
 21
78.5993744448
 31
0.0
  0
LINE
  5
12D
330
1F
100
AcDbEntity
  8
0
  6
HIDDEN
 62
     7
370
     0
100
AcDbLine
 10
107.1459253968
 20
106.5993753091
 30
0.0
 11
107.1459253968
 21
78.5993744448
 31
0.0
  0
LINE
  5
12E
330
1F
100
AcDbEntity
  8
0
  6
HIDDEN
 62
     7
370
     0
100
AcDbLine
 10
108.1459255607
 20
106.5993753091
 30
0.0
 11
108.1459255607
 21
78.5993744448
 31
0.0
  0
ARC
  5
12F
330
1F
100
AcDbEntity
  8
0
  6
HIDDEN
 62
     7
370
     0
100
AcDbCircle
 10
205.7156968654
 20
92.599374877
 30
0.0
 40
2.500000000000006
100
AcDbArc
 50
274.0512550226
 51
85.9487449774
  0
SPLINE
  5
130
330
1F
100
AcDbEntity
  8
0
  6
HIDDEN
 62
     7
370
     0
100
AcDbSpline
210
0.0
220
0.0
230
1.0
 70
     8
 71
     3
 72
     8
 73
     4
 74
     0
 42
0.00000001
 43
0.00000001
 12
1.0
 22
0.0
 32
0.0
 13
1.0
 23
0.0
 33
0.0
 40
0.0
 40
0.0
 40
0.0
 40
0.0
 40
1.0
 40
1.0
 40
1.0
 40
1.0
 10
205.8400543923667
 20
95.09628000241874
 30
0.0
 10
205.8574658272861
 20
95.1012738395002
 30
0.0
 10
205.8749294987915
 20
95.10022062990808
 30
0.0
 10
205.8923189541462
 20
95.09312799983002
 30
0.0
  0
ARC
  5
131
330
1F
100
AcDbEntity
  8
0
  6
HIDDEN
 62
     7
370
     0
100
AcDbCircle
 10
205.7156968654
 20
92.599374877
 30
0.0
 40
2.500000000000002
100
AcDbArc
 50
272.8512412397
 51
87.1487587604
  0
SPLINE
  5
132
330
1F
100
AcDbEntity
  8
0
  6
HIDDEN
 62
     7
370
     0
100
AcDbSpline
210
0.0
220
0.0
230
1.0
 70
     8
 71
     3
 72
     8
 73
     4
 74
     0
 42
0.00000001
 43
0.00000001
 12
1.0
 22
0.0
 32
0.0
 13
1.0
 23
0.0
 33
0.0
 40
0.0
 40
0.0
 40
0.0
 40
0.0
 40
1.0
 40
1.0
 40
1.0
 40
1.0
 10
205.8923189541462
 20
90.10562175411113
 30
0.0
 10
205.8749294987915
 20
90.09852912403308
 30
0.0
 10
205.8574658272861
 20
90.09747591444096
 30
0.0
 10
205.8400543923667
 20
90.10246975152242
 30
0.0
  0
SPLINE
  5
133
330
1F
100
AcDbEntity
  8
0
  6
HIDDEN
 62
     7
370
     0
100
AcDbSpline
210
0.0
220
0.0
230
1.0
 70
     8
 71
     3
 72
    10
 73
     6
 74
     0
 42
0.00000001
 43
0.00000001
 12
1.0
 22
0.0
 32
0.0
 13
1.0
 23
0.0
 33
0.0
 40
0.0
 40
0.0
 40
0.0
 40
0.0
 40
0.5
 40
0.5
 40
1.0
 40
1.0
 40
1.0
 40
1.0
 10
127.2156968654163
 20
93.23380375399309
 30
0.0
 10
127.2488442834928
 20
93.02481315298506
 30
0.0
 10
127.2657031288544
 20
92.81325068696347
 30
0.0
 10
127.2656905985067
 20
92.38526192099586
 30
0.0
 10
127.2487756407664
 20
92.17350381658015
 30
0.0
 10
127.2156968654163
 20
91.96494599994807
 30
0.0
  0
LINE
  5
134
330
1F
100
AcDbEntity
  8
0
  6
HIDDEN
 62
     7
370
     0
100
AcDbLine
 10
127.715696925
 20
106.0993752271
 30
0.0
 11
127.715696925
 21
79.0993745268
 31
0.0
  0
SPLINE
  5
135
330
1F
100
AcDbEntity
  8
0
  6
HIDDEN
 62
     7
370
     0
100
AcDbSpline
210
0.0
220
0.0
230
1.0
 70
     8
 71
     3
 72
    10
 73
     6
 74
     0
 42
0.00000001
 43
0.00000001
 12
1.0
 22
0.0
 32
0.0
 13
1.0
 23
0.0
 33
0.0
 40
0.0
 40
0.0
 40
0.0
 40
0.0
 40
0.5
 40
0.5
 40
1.0
 40
1.0
 40
1.0
 40
1.0
 10
127.2156968654163
 20
91.96494599994807
 30
0.0
 10
127.24888582789
 20
92.17419853353056
 30
0.0
 10
127.2655866041447
 20
92.3850152944295
 30
0.0
 10
127.2658060445893
 20
92.80954757563278
 30
0.0
 10
127.2489263291959
 20
93.0242958644054
 30
0.0
 10
127.2156968654163
 20
93.23380375399309
 30
0.0
  0
SPLINE
  5
136
330
1F
100
AcDbEntity
  8
0
  6
HIDDEN
 62
     7
370
     0
100
AcDbSpline
210
0.0
220
0.0
230
1.0
 70
     8
 71
     3
 72
    68
 73
    64
 74
     0
 42
0.00000001
 43
0.00000001
 12
1.0
 22
0.0
 32
0.0
 13
1.0
 23
0.0
 33
0.0
 40
0.0
 40
0.0
 40
0.0
 40
0.0
 40
0.03125
 40
0.03125
 40
0.0625
 40
0.0625
 40
0.09375
 40
0.09375
 40
0.125
 40
0.125
 40
0.1562499999999999
 40
0.1562499999999999
 40
0.1874999999999999
 40
0.1874999999999999
 40
0.2187499999999999
 40
0.2187499999999999
 40
0.2499999999999999
 40
0.2499999999999999
 40
0.2812499999999999
 40
0.2812499999999999
 40
0.3124999999999999
 40
0.3124999999999999
 40
0.3437499999999999
 40
0.3437499999999999
 40
0.3749999999999999
 40
0.3749999999999999
 40
0.4062499999999999
 40
0.4062499999999999
 40
0.4374999999999999
 40
0.4374999999999999
 40
0.4687499999999999
 40
0.4687499999999999
 40
0.4999999999999999
 40
0.4999999999999999
 40
0.5624999999999999
 40
0.5624999999999999
 40
0.5937499999999999
 40
0.5937499999999999
 40
0.6249999999999999
 40
0.6249999999999999
 40
0.6562499999999999
 40
0.6562499999999999
 40
0.6874999999999999
 40
0.6874999999999999
 40
0.7187499999999999
 40
0.7187499999999999
 40
0.7499999999999999
 40
0.7499999999999999
 40
0.78125
 40
0.78125
 40
0.8125
 40
0.8125
 40
0.84375
 40
0.84375
 40
0.875
 40
0.875
 40
0.90625
 40
0.90625
 40
0.9375
 40
0.9375
 40
0.96875
 40
0.96875
 40
1.0
 40
1.0
 40
1.0
 40
1.0
 10
127.2156968654163
 20
91.96494599994807
 30
0.0
 10
127.1756819130666
 20
91.71265639713248
 30
0.0
 10
127.1127401116553
 20
91.46865754675666
 30
0.0
 10
126.9433534495832
 20
90.99623915769416
 30
0.0
 10
126.8356598869978
 20
90.76582577153422
 30
0.0
 10
126.5803751184599
 20
90.33112117573712
 30
0.0
 10
126.4343358879876
 20
90.12847920908578
 30
0.0
 10
126.1061144514284
 20
89.75148991832798
 30
0.0
 10
125.9218671636534
 20
89.57583196475059
 30
0.0
 10
125.5289069963451
 20
89.26557399580436
 30
0.0
 10
125.319612399386
 20
89.12962878815445
 30
0.0
 10
124.8747269724486
 20
88.8962386927486
 30
0.0
 10
124.6379293799496
 20
88.7989920863342
 30
0.0
 10
124.1571943110303
 20
88.65232062846283
 30
0.0
 10
123.9109512178475
 20
88.60142828352042
 30
0.0
 10
123.4062344378681
 20
88.54590093328493
 30
0.0
 10
123.1500397369316
 20
88.54207604621499
 30
0.0
 10
122.6476609877315
 20
88.5814998288594
 30
0.0
 10
122.3984112885479
 20
88.62452727807066
 30
0.0
 10
121.9068834910692
 20
88.75823224752195
 30
0.0
 10
121.6715878898433
 20
88.84690209342713
 30
0.0
 10
121.2206739951812
 20
89.06593345720455
 30
0.0
 10
121.0030616447178
 20
89.1979350228881
 30
0.0
 10
120.5998544751695
 20
89.497292303891
 30
0.0
 10
120.4142429827351
 20
89.66391123132887
 30
0.0
 10
120.0742549123326
 20
90.03102265675635
 30
0.0
 10
119.9191819815097
 20
90.23332640229705
 30
0.0
 10
119.6528389048463
 20
90.65740708189108
 30
0.0
 10
119.5398548041295
 20
90.88056668735727
 30
0.0
 10
119.3549995471987
 20
91.34992192895145
 30
0.0
 10
119.2838587856953
 20
91.59613243228694
 30
0.0
 10
119.1898983744071
 20
92.0906582586581
 30
0.0
 10
119.1658890444507
 20
92.34158925375012
 30
0.0
 10
119.1653159237781
 20
93.10583463330633
 30
0.0
 10
119.2607150350968
 20
93.6080589353573
 30
0.0
 10
119.5385788272979
 20
94.31562344162968
 30
0.0
 10
119.6517407833784
 20
94.53932970537049
 30
0.0
 10
119.9178719654223
 20
94.96359961669107
 30
0.0
 10
120.072699739622
 20
95.16585157874714
 30
0.0
 10
120.4128808454098
 20
95.53356232011531
 30
0.0
 10
120.5983833023596
 20
95.70017919536465
 30
0.0
 10
121.0006771034189
 20
95.99922857416007
 30
0.0
 10
121.2186851516709
 20
96.13168528218849
 30
0.0
 10
121.6692835188212
 20
96.35089168289316
 30
0.0
 10
121.903832517702
 20
96.4393768128968
 30
0.0
 10
122.3922925112543
 20
96.57286304283544
 30
0.0
 10
122.6445579069682
 20
96.6168047553292
 30
0.0
 10
123.1467385451284
 20
96.6566137518027
 30
0.0
 10
123.3992206624801
 20
96.65326953898919
 30
0.0
 10
123.9070857055496
 20
96.59809021899866
 30
0.0
 10
124.1546311787334
 20
96.54704429052926
 30
0.0
 10
124.6355987162041
 20
96.40063390229366
 30
0.0
 10
124.8715585813094
 20
96.30398769752006
 30
0.0
 10
125.318129030831
 20
96.07008275320702
 30
0.0
 10
125.5277738934045
 20
95.93395773938052
 30
0.0
 10
125.9207606001589
 20
95.6239034750514
 30
0.0
 10
126.1051565039739
 20
95.4482462274763
 30
0.0
 10
126.4337069218343
 20
95.07110630481189
 30
0.0
 10
126.5796490183575
 20
94.86864009954202
 30
0.0
 10
126.8345343735596
 20
94.43506380140869
 30
0.0
 10
126.942845686368
 20
94.20377195782714
 30
0.0
 10
127.1126806637849
 20
93.73041227769392
 30
0.0
 10
127.175676024922
 20
93.48613048087313
 30
0.0
 10
127.2156968654163
 20
93.23380375399309
 30
0.0
  0
SPLINE
  5
137
330
1F
100
AcDbEntity
  8
0
  6
HIDDEN
 62
     7
370
     0
100
AcDbSpline
210
0.0
220
0.0
230
1.0
 70
     8
 71
     3
 72
    68
 73
    64
 74
     0
 42
0.00000001
 43
0.00000001
 12
1.0
 22
0.0
 32
0.0
 13
1.0
 23
0.0
 33
0.0
 40
0.0
 40
0.0
 40
0.0
 40
0.0
 40
0.03125
 40
0.03125
 40
0.0625
 40
0.0625
 40
0.09375
 40
0.09375
 40
0.125
 40
0.125
 40
0.1562499999999999
 40
0.1562499999999999
 40
0.1874999999999999
 40
0.1874999999999999
 40
0.2187499999999999
 40
0.2187499999999999
 40
0.2499999999999999
 40
0.2499999999999999
 40
0.2812499999999999
 40
0.2812499999999999
 40
0.3124999999999999
 40
0.3124999999999999
 40
0.3437499999999999
 40
0.3437499999999999
 40
0.3749999999999999
 40
0.3749999999999999
 40
0.4062499999999999
 40
0.4062499999999999
 40
0.4374999999999999
 40
0.4374999999999999
 40
0.4687499999999999
 40
0.4687499999999999
 40
0.4999999999999999
 40
0.4999999999999999
 40
0.5624999999999999
 40
0.5624999999999999
 40
0.5937499999999999
 40
0.5937499999999999
 40
0.6249999999999999
 40
0.6249999999999999
 40
0.6562499999999999
 40
0.6562499999999999
 40
0.6874999999999999
 40
0.6874999999999999
 40
0.7187499999999999
 40
0.7187499999999999
 40
0.7499999999999999
 40
0.7499999999999999
 40
0.78125
 40
0.78125
 40
0.8125
 40
0.8125
 40
0.84375
 40
0.84375
 40
0.875
 40
0.875
 40
0.90625
 40
0.90625
 40
0.9375
 40
0.9375
 40
0.96875
 40
0.96875
 40
1.0
 40
1.0
 40
1.0
 40
1.0
 10
127.2156968654163
 20
93.23380375399309
 30
0.0
 10
127.1756819130666
 20
93.48609335680867
 30
0.0
 10
127.1127401116553
 20
93.7300922071845
 30
0.0
 10
126.9433534495832
 20
94.202510596247
 30
0.0
 10
126.8356598869978
 20
94.43292398240693
 30
0.0
 10
126.5803751184599
 20
94.86762857820403
 30
0.0
 10
126.4343358879876
 20
95.07027054485536
 30
0.0
 10
126.1061144514284
 20
95.44725983561318
 30
0.0
 10
125.9218671636534
 20
95.62291778919057
 30
0.0
 10
125.5289069963451
 20
95.9331757581368
 30
0.0
 10
125.319612399386
 20
96.06912096578671
 30
0.0
 10
124.8747269724486
 20
96.30251106119256
 30
0.0
 10
124.6379293799496
 20
96.39975766760696
 30
0.0
 10
124.1571943110303
 20
96.54642912547833
 30
0.0
 10
123.9109512178475
 20
96.59732147042072
 30
0.0
 10
123.4062344378681
 20
96.65284882065622
 30
0.0
 10
123.1500397369316
 20
96.65667370772617
 30
0.0
 10
122.6476609877315
 20
96.61724992508175
 30
0.0
 10
122.3984112885479
 20
96.5742224758705
 30
0.0
 10
121.9068834910692
 20
96.44051750641921
 30
0.0
 10
121.6715878898433
 20
96.35184766051403
 30
0.0
 10
121.2206739951812
 20
96.1328162967366
 30
0.0
 10
121.0030616447178
 20
96.00081473105305
 30
0.0
 10
120.5998544751695
 20
95.70145745005016
 30
0.0
 10
120.4142429827351
 20
95.53483852261229
 30
0.0
 10
120.0742549123326
 20
95.16772709718481
 30
0.0
 10
119.9191819815097
 20
94.96542335164409
 30
0.0
 10
119.6528389048463
 20
94.54134267205008
 30
0.0
 10
119.5398548041295
 20
94.31818306658387
 30
0.0
 10
119.3549995471987
 20
93.84882782498971
 30
0.0
 10
119.2838587856953
 20
93.60261732165422
 30
0.0
 10
119.1898983744071
 20
93.10809149528305
 30
0.0
 10
119.1658890444507
 20
92.85716050019103
 30
0.0
 10
119.1653159237781
 20
92.09291512063481
 30
0.0
 10
119.2607150350968
 20
91.59069081858385
 30
0.0
 10
119.5385788272979
 20
90.88312631231148
 30
0.0
 10
119.6517407833784
 20
90.65942004857067
 30
0.0
 10
119.9178719654223
 20
90.23515013725009
 30
0.0
 10
120.072699739622
 20
90.032898175194
 30
0.0
 10
120.4128808454098
 20
89.66518743382585
 30
0.0
 10
120.5983833023596
 20
89.4985705585765
 30
0.0
 10
121.0006771034189
 20
89.19952117978109
 30
0.0
 10
121.2186851516709
 20
89.06706447175267
 30
0.0
 10
121.6692835188212
 20
88.847858071048
 30
0.0
 10
121.903832517702
 20
88.75937294104436
 30
0.0
 10
122.3922925112543
 20
88.62588671110572
 30
0.0
 10
122.6445579069682
 20
88.58194499861196
 30
0.0
 10
123.1467385451284
 20
88.54213600213846
 30
0.0
 10
123.3992206624801
 20
88.54548021495197
 30
0.0
 10
123.9070857055496
 20
88.6006595349425
 30
0.0
 10
124.1546311787334
 20
88.6517054634119
 30
0.0
 10
124.6355987162041
 20
88.79811585164748
 30
0.0
 10
124.8715585813094
 20
88.89476205642109
 30
0.0
 10
125.318129030831
 20
89.12866700073414
 30
0.0
 10
125.5277738934045
 20
89.26479201456064
 30
0.0
 10
125.9207606001589
 20
89.57484627888975
 30
0.0
 10
126.1051565039739
 20
89.75050352646485
 30
0.0
 10
126.4337069218343
 20
90.12764344912927
 30
0.0
 10
126.5796490183575
 20
90.33010965439914
 30
0.0
 10
126.8345343735596
 20
90.76368595253247
 30
0.0
 10
126.942845686368
 20
90.99497779611401
 30
0.0
 10
127.1126806637849
 20
91.46833747624724
 30
0.0
 10
127.175676024922
 20
91.71261927306803
 30
0.0
 10
127.2156968654163
 20
91.96494599994807
 30
0.0
  0
LINE
  5
138
330
1F
100
AcDbEntity
  8
0
  6
HIDDEN
 62
     7
370
     0
100
AcDbLine
 10
128.9656966643
 20
101.5993744895
 30
0.0
 11
128.9656966643
 21
83.5993752644
 31
0.0
  0
LINE
  5
139
330
1F
100
AcDbEntity
  8
0
  6
HIDDEN
 62
     7
370
     0
100
AcDbLine
 10
127.715696925
 20
82.3493745938
 30
0.0
 11
127.715696925
 21
102.8493751601
 31
0.0
  0
LINE
  5
13A
330
1F
100
AcDbEntity
  8
0
  6
HIDDEN
 62
     7
370
     0
100
AcDbLine
 10
165.7156975658
 20
83.5993752644
 30
0.0
 11
165.7156975658
 21
101.5993744895
 31
0.0
  0
LINE
  5
13B
330
1F
100
AcDbEntity
  8
0
  6
HIDDEN
 62
     7
370
     0
100
AcDbLine
 10
168.5697840245
 20
88.349374646
 30
0.0
 11
168.5697840245
 21
96.8493751079
 31
0.0
  0
LINE
  5
13C
330
1F
100
AcDbEntity
  8
0
  6
HIDDEN
 62
     7
370
     0
100
AcDbLine
 10
209.71569919
 20
88.349374646
 30
0.0
 11
209.71569919
 21
96.8493751079
 31
0.0
  0
SPLINE
  5
13D
330
1F
100
AcDbEntity
  8
0
  6
HIDDEN
 62
     7
370
     0
100
AcDbSpline
210
0.0
220
0.0
230
1.0
 70
     8
 71
     3
 72
    64
 73
    60
 74
     0
 42
0.00000001
 43
0.00000001
 12
1.0
 22
0.0
 32
0.0
 13
1.0
 23
0.0
 33
0.0
 40
-0.0312500000000016
 40
-0.0312500000000016
 40
0.0
 40
0.0
 40
0.0312499999999998
 40
0.0312499999999998
 40
0.0624999999999996
 40
0.0624999999999996
 40
0.1249999999999982
 40
0.1249999999999982
 40
0.1562499999999976
 40
0.1562499999999976
 40
0.1874999999999969
 40
0.1874999999999969
 40
0.2187499999999962
 40
0.2187499999999962
 40
0.2499999999999956
 40
0.2499999999999956
 40
0.2812499999999949
 40
0.2812499999999949
 40
0.3124999999999943
 40
0.3124999999999943
 40
0.3437499999999936
 40
0.3437499999999936
 40
0.374999999999993
 40
0.374999999999993
 40
0.4062499999999923
 40
0.4062499999999923
 40
0.4374999999999916
 40
0.4374999999999916
 40
0.4687499999999909
 40
0.4687499999999909
 40
0.4999999999999902
 40
0.4999999999999902
 40
0.5312499999999895
 40
0.5312499999999895
 40
0.5624999999999887
 40
0.5624999999999887
 40
0.6249999999999883
 40
0.6249999999999883
 40
0.656249999999989
 40
0.656249999999989
 40
0.6874999999999897
 40
0.6874999999999897
 40
0.7187499999999903
 40
0.7187499999999903
 40
0.7499999999999911
 40
0.7499999999999911
 40
0.7812499999999918
 40
0.7812499999999918
 40
0.8124999999999925
 40
0.8124999999999925
 40
0.8437499999999931
 40
0.8437499999999931
 40
0.8749999999999938
 40
0.8749999999999938
 40
0.9374999999999969
 40
0.9374999999999969
 40
0.9687499999999984
 40
0.9687499999999984
 40
1.0
 40
1.0
 40
1.03125
 40
1.03125
 10
203.2156968654164
 20
92.76876587031076
 30
0.0
 10
203.2156968654163
 20
92.4299838836304
 30
0.0
 10
203.2327289888175
 20
92.2641317758142
 30
0.0
 10
203.2987911858227
 20
91.93900804781968
 30
0.0
 10
203.3487223353897
 20
91.77827454941094
 30
0.0
 10
203.5395504307564
 20
91.32600007363483
 30
0.0
 10
203.7244328338567
 20
91.05468819147711
 30
0.0
 10
204.0621454272509
 20
90.71760310779348
 30
0.0
 10
204.1866949054301
 20
90.6149955147637
 30
0.0
 10
204.4521792984835
 20
90.4362447826752
 30
0.0
 10
204.5925858556121
 20
90.35999752183521
 30
0.0
 10
204.8906696864028
 20
90.23388984575065
 30
0.0
 10
205.050423107051
 20
90.18382385421091
 30
0.0
 10
205.3751634886982
 20
90.11713537674792
 30
0.0
 10
205.5419081188339
 20
90.099690100549
 30
0.0
 10
205.8802949577701
 20
90.09906810021177
 30
0.0
 10
206.046169580496
 20
90.1157535591161
 30
0.0
 10
206.3718255669937
 20
90.18130081009842
 30
0.0
 10
206.5315521406021
 20
90.23065845359112
 30
0.0
 10
206.8314955656109
 20
90.3562898172637
 30
0.0
 10
206.974920751545
 20
90.4337040847127
 30
0.0
 10
207.2415855662495
 20
90.61255871826204
 30
0.0
 10
207.3644864422882
 20
90.71337417088183
 30
0.0
 10
207.5910678425118
 20
90.93850479462328
 30
0.0
 10
207.6946974475556
 20
91.0633954398827
 30
0.0
 10
207.8745957114896
 20
91.3286145110133
 30
0.0
 10
207.952100124633
 20
91.4699891842961
 30
0.0
 10
208.08070693303
 20
91.77248978172535
 30
0.0
 10
208.1306800000262
 20
91.93216358783724
 30
0.0
 10
208.1974959847302
 20
92.25588168028325
 30
0.0
 10
208.2151736470923
 20
92.42258015644737
 30
0.0
 10
208.2161972205109
 20
92.76104902305919
 30
0.0
 10
208.1996953709106
 20
92.92720997266682
 30
0.0
 10
208.1342786277334
 20
93.25373462837273
 30
0.0
 10
208.0846317634831
 20
93.41484731399741
 30
0.0
 10
207.8945785327105
 20
93.86817985301937
 30
0.0
 10
207.7099622950224
 20
94.14039920224798
 30
0.0
 10
207.371645593188
 20
94.47908135796597
 30
0.0
 10
207.2466796379284
 20
94.58220506733588
 30
0.0
 10
206.9818324166798
 20
94.7609540634404
 30
0.0
 10
206.8412837496489
 20
94.83758000492546
 30
0.0
 10
206.5414805615545
 20
94.96466329827408
 30
0.0
 10
206.3818697961692
 20
95.01467593011671
 30
0.0
 10
206.057216369946
 20
95.081476804576
 30
0.0
 10
205.8880202164275
 20
95.09910169200857
 30
0.0
 10
205.5513933355016
 20
95.0996416301754
 30
0.0
 10
205.3854294820189
 20
95.08308627227098
 30
0.0
 10
205.0579573876173
 20
95.01707577224815
 30
0.0
 10
204.8989522137942
 20
94.96780552772577
 30
0.0
 10
204.5985140567203
 20
94.84179280085189
 30
0.0
 10
204.4544463088039
 20
94.76385167787566
 30
0.0
 10
204.1882564337005
 20
94.584982722385
 30
0.0
 10
204.0651076613757
 20
94.4838809590523
 30
0.0
 10
203.7236733224443
 20
94.1437432850386
 30
0.0
 10
203.5416881245101
 20
93.87744134728172
 30
0.0
 10
203.348293852325
 20
93.4196461434572
 30
0.0
 10
203.299518503785
 20
93.26231469226899
 30
0.0
 10
203.2331996580365
 20
92.93792278979089
 30
0.0
 10
203.2156968654164
 20
92.76876587031076
 30
0.0
 10
203.2156968654163
 20
92.4299838836304
 30
0.0
  0
LINE
  5
13E
330
1F
100
AcDbEntity
  8
0
  6
HIDDEN
 62
     7
370
     0
100
AcDbLine
 10
240.9863372983
 20
69.1461411134
 30
0.0
 11
236.8132596553
 21
68.9274386332
 31
0.0
  0
LINE
  5
13F
330
1F
100
AcDbEntity
  8
0
  6
HIDDEN
 62
     7
370
     0
100
AcDbLine
 10
252.9413601101
 20
91.3839090445
 30
0.0
 11
245.7412158788
 21
85.3422700257
 31
0.0
  0
LINE
  5
140
330
1F
100
AcDbEntity
  8
0
  6
HIDDEN
 62
     7
370
     0
100
AcDbLine
 10
245.7412158788
 20
85.3422700257
 30
0.0
 11
245.6772377432
 21
85.336672777
 31
0.0
  0
LINE
  5
141
330
1F
100
AcDbEntity
  8
0
  6
HIDDEN
 62
     7
370
     0
100
AcDbLine
 10
241.3807635845
 20
80.9642557815
 30
0.0
 11
256.6641395629
 21
82.301378885
 31
0.0
  0
LINE
  5
142
330
1F
100
AcDbEntity
  8
0
  6
HIDDEN
 62
     7
370
     0
100
AcDbLine
 10
256.6641395629
 20
82.301378885
 30
0.0
 11
256.6149433793
 21
82.2600980118
 31
0.0
  0
LINE
  5
143
330
1F
100
AcDbEntity
  8
0
  6
HIDDEN
 62
     7
370
     0
100
AcDbLine
 10
241.1447217406
 20
81.18518226
 30
0.0
 11
256.5675725878
 21
82.5345075518
 31
0.0
  0
LINE
  5
144
330
1F
100
AcDbEntity
  8
0
  6
HIDDEN
 62
     7
370
     0
100
AcDbLine
 10
256.6641395629
 20
82.301378885
 30
0.0
 11
256.5675725878
 21
82.5345075518
 31
0.0
  0
LINE
  5
145
330
1F
100
AcDbEntity
  8
0
  6
HIDDEN
 62
     7
370
     0
100
AcDbLine
 10
245.7412158788
 20
85.3422700257
 30
0.0
 11
245.8377828539
 21
85.1091413588
 31
0.0
  0
LINE
  5
146
330
1F
100
AcDbEntity
  8
0
  6
HIDDEN
 62
     7
370
     0
100
AcDbLine
 10
245.8377828539
 20
85.1091413588
 30
0.0
 11
245.3558271469
 21
85.0669757292
 31
0.0
  0
ELLIPSE
  5
147
330
1F
100
AcDbEntity
  8
0
  6
HIDDEN
 62
     7
370
     0
100
AcDbEllipse
 10
241.6788921945
 20
232.2970263045
 30
0.0
 11
-27.5779620305178
 21
164.8893624952976
 31
0.0
210
0.0
220
0.0
230
1.0
 40
0.1347458493
 41
2.572610623762976
 42
2.575374300355645
  0
LINE
  5
148
330
1F
100
AcDbEntity
  8
0
  6
HIDDEN
 62
     7
370
     0
100
AcDbLine
 10
253.034112388
 20
91.1475793055
 30
0.0
 11
245.8377828539
 21
85.1091413588
 31
0.0
  0
LINE
  5
149
330
1F
100
AcDbEntity
  8
0
  6
HIDDEN
 62
     7
370
     0
100
AcDbLine
 10
252.6496102751
 20
90.8249477452
 30
0.0
 11
253.034112388
 21
91.1475793055
 31
0.0
  0
LINE
  5
14A
330
1F
100
AcDbEntity
  8
0
  6
HIDDEN
 62
     7
370
     0
100
AcDbLine
 10
256.0344388426
 20
82.4878641233
 30
0.0
 11
256.5675725878
 21
82.5345075518
 31
0.0
  0
LINE
  5
14B
330
1F
100
AcDbEntity
  8
0
  6
HIDDEN
 62
     7
370
     0
100
AcDbLine
 10
266.9358825029
 20
92.0366242008
 30
0.0
 11
254.0487324537
 21
90.9091447775
 31
0.0
  0
LINE
  5
14C
330
1F
100
AcDbEntity
  8
0
  6
HIDDEN
 62
     7
370
     0
100
AcDbLine
 10
267.0592492164
 20
91.7387778118
 30
0.0
 11
266.9358825029
 21
92.0366242008
 31
0.0
  0
CIRCLE
  5
14D
330
1F
100
AcDbEntity
  8
0
  6
HIDDEN
 62
     7
370
     0
100
AcDbCircle
 10
254.8320645814
 20
86.8485860899
 30
0.0
 40
2.099999999999994
  0
LINE
  5
14E
330
1F
100
AcDbEntity
  8
0
  6
HIDDEN
 62
     7
370
     0
100
AcDbLine
 10
245.8377828539
 20
85.1091413588
 30
0.0
 11
239.886616701
 21
84.5884817482
 31
0.0
  0
LINE
  5
14F
330
1F
100
AcDbEntity
  8
0
  6
HIDDEN
 62
     7
370
     0
100
AcDbLine
 10
240.1916658224
 20
81.1018009499
 30
0.0
 11
256.0344388426
 21
82.4878641233
 31
0.0
  0
ARC
  5
150
330
1F
100
AcDbEntity
  8
0
  6
HIDDEN
 62
     7
370
     0
100
AcDbCircle
 10
240.0391422714
 20
82.8451414466
 30
0.0
 40
1.750000000000008
100
AcDbArc
 50
95.0
 51
275.0
  0
LINE
  5
151
330
1F
100
AcDbEntity
  8
0
  6
HIDDEN
 62
     7
370
     0
100
AcDbLine
 10
252.6496102751
 20
90.8249477452
 30
0.0
 11
245.8377828539
 21
85.1091413588
 31
0.0
  0
ELLIPSE
  5
152
330
1F
100
AcDbEntity
  8
0
  6
HIDDEN
 62
     7
370
     0
100
AcDbEllipse
 10
251.7656620442
 20
117.0047193561
 30
0.0
 11
-2.28306694624942
 21
26.09557460633354
 31
1.776356839400250E-15
210
5.910219121467642E-18
220
-6.755411367914771E-17
230
1.0
 40
0.9925461516
 41
3.08767693678272
 42
3.141592653589808
  0
LINE
  5
153
330
1F
100
AcDbEntity
  8
0
  6
HIDDEN
 62
     7
370
     0
100
AcDbLine
 10
267.0592492164
 20
91.7387778118
 30
0.0
 11
256.0344388426
 21
82.4878641233
 31
0.0
  0
CIRCLE
  5
154
330
1F
100
AcDbEntity
  8
0
  6
HIDDEN
 62
     7
370
     0
100
AcDbCircle
 10
254.8320645814
 20
86.8485860899
 30
0.0
 40
1.649999999999991
  0
LINE
  5
155
330
1F
100
AcDbEntity
  8
0
  6
HIDDEN
 62
     7
370
     0
100
AcDbLine
 10
257.1211283744
 20
87.6222738825
 30
0.0
 11
267.0592492164
 21
91.7387778118
 31
0.0
  0
LINE
  5
156
330
1F
100
AcDbEntity
  8
0
  6
HIDDEN
 62
     7
370
     0
100
AcDbLine
 10
266.9358825029
 20
92.0366242008
 30
0.0
 11
256.9807296337
 21
87.9130667836
 31
0.0
  0
LINE
  5
157
330
1F
100
AcDbEntity
  8
0
  6
HIDDEN
 62
     7
370
     0
100
AcDbLine
 10
102.2156974019
 20
77.4953222663
 30
0.0
 11
102.2156974019
 21
71.4410112069
 31
0.0
  0
LINE
  5
158
330
1F
100
AcDbEntity
  8
0
  6
HIDDEN
 62
     7
370
     0
100
AcDbLine
 10
100.7156980873
 20
77.9283351094
 30
0.0
 11
100.7156980873
 21
72.3070368931
 31
0.0
  0
LINE
  5
159
330
1F
100
AcDbEntity
  8
0
  6
HIDDEN
 62
     7
370
     0
100
AcDbLine
 10
136.5156968773
 20
77.064454259
 30
0.0
 11
136.5156968773
 21
70.5792751924
 31
0.0
  0
SPLINE
  5
15A
330
1F
100
AcDbEntity
  8
0
  6
HIDDEN
 62
     7
370
     0
100
AcDbSpline
210
0.0
220
0.0
230
1.0
 70
     8
 71
     3
 72
    16
 73
    12
 74
     0
 42
0.00000001
 43
0.00000001
 12
1.0
 22
0.0
 32
0.0
 13
1.0
 23
0.0
 33
0.0
 40
0.0
 40
0.0
 40
0.0
 40
0.0
 40
0.2499999999999998
 40
0.2499999999999998
 40
0.3749999999999995
 40
0.3749999999999995
 40
0.4999999999999992
 40
0.4999999999999992
 40
0.7499999999999996
 40
0.7499999999999996
 40
1.0
 40
1.0
 40
1.0
 40
1.0
 10
137.3943765218567
 20
76.01546825072955
 30
0.0
 10
137.2331440443722
 20
75.30107408853742
 30
0.0
 10
137.1126642047326
 20
74.64773182582873
 30
0.0
 10
136.9902836874193
 20
73.75947658402485
 30
0.0
 10
136.9593060270218
 20
73.47879604767301
 30
0.0
 10
136.9176922893938
 20
72.94976205783301
 30
0.0
 10
136.907456376461
 20
72.70644107925456
 30
0.0
 10
136.9072679794049
 20
72.03841838874133
 30
0.0
 10
136.9474126820425
 20
71.67473747932188
 30
0.0
 10
137.1115664369821
 20
71.11484660677355
 30
0.0
 10
137.2331180873916
 20
70.92732531465643
 30
0.0
 10
137.3943765218567
 20
70.82929392196846
 30
0.0
  0
SPLINE
  5
15B
330
1F
100
AcDbEntity
  8
0
  6
HIDDEN
 62
     7
370
     0
100
AcDbSpline
210
0.0
220
0.0
230
1.0
 70
     8
 71
     3
 72
    16
 73
    12
 74
     0
 42
0.00000001
 43
0.00000001
 12
1.0
 22
0.0
 32
0.0
 13
1.0
 23
0.0
 33
0.0
 40
0.0
 40
0.0
 40
0.0
 40
0.0
 40
0.2500000000000003
 40
0.2500000000000003
 40
0.3750000000000003
 40
0.3750000000000003
 40
0.5000000000000002
 40
0.5000000000000002
 40
0.7500000000000001
 40
0.7500000000000001
 40
1.0
 40
1.0
 40
1.0
 40
1.0
 10
137.3943765218567
 20
114.3694558319727
 30
0.0
 10
137.2331440443722
 20
114.271440218918
 30
0.0
 10
137.1126642047326
 20
114.0847041872419
 30
0.0
 10
136.9902836874193
 20
113.671664379683
 30
0.0
 10
136.9593060270218
 20
113.5116638804501
 30
0.0
 10
136.9176922893938
 20
113.1448582293589
 30
0.0
 10
136.907456376461
 20
112.9415210767349
 30
0.0
 10
136.9072679794049
 20
112.2742338101083
 30
0.0
 10
136.9474126820425
 20
111.7534193462202
 30
0.0
 10
137.1115664369821
 20
110.5560603307425
 30
0.0
 10
137.2331180873916
 20
109.8977906764465
 30
0.0
 10
137.3943765218567
 20
109.1832815032116
 30
0.0
  0
LINE
  5
15C
330
1F
100
AcDbEntity
  8
0
  6
HIDDEN
 62
     7
370
     0
100
AcDbLine
 10
136.5156968773
 20
114.6194745616
 30
0.0
 11
136.5156968773
 21
108.1342954949
 31
0.0
  0
LINE
  5
15D
330
1F
100
AcDbEntity
  8
0
  6
HIDDEN
 62
     7
370
     0
100
AcDbLine
 10
102.2156974019
 20
113.7577385471
 30
0.0
 11
102.2156974019
 21
107.7034274877
 31
0.0
  0
LINE
  5
15E
330
1F
100
AcDbEntity
  8
0
  6
HIDDEN
 62
     7
370
     0
100
AcDbLine
 10
100.7156980873
 20
112.8917128608
 30
0.0
 11
100.7156980873
 21
107.2704146445
 31
0.0
  0
LINE
  5
15F
330
1F
100
AcDbEntity
  8
0
  6
HIDDEN
 62
     7
370
     0
100
AcDbLine
 10
100.7156980873
 20
107.2704146445
 30
0.0
 11
100.7156980873
 21
95.5013622825
 31
0.0
  0
LINE
  5
160
330
1F
100
AcDbEntity
  8
0
  6
HIDDEN
 62
     7
370
     0
100
AcDbLine
 10
100.7156980873
 20
89.6973874715
 30
0.0
 11
100.7156980873
 21
77.9283351094
 31
0.0
  0
LINE
  5
161
330
1F
100
AcDbEntity
  8
0
  6
HIDDEN
 62
     7
370
     0
100
AcDbLine
 10
102.2156974019
 20
88.6341637761
 30
0.0
 11
102.2156974019
 21
77.4953222663
 31
0.0
  0
LINE
  5
162
330
1F
100
AcDbEntity
  8
0
  6
HIDDEN
 62
     7
370
     0
100
AcDbLine
 10
102.2156974019
 20
107.7034274877
 30
0.0
 11
102.2156974019
 21
96.5645859778
 31
0.0
  0
CIRCLE
  5
163
330
1F
100
AcDbEntity
  8
0
  6
HIDDEN
 62
     7
370
     0
100
AcDbCircle
 10
254.8320645814
 20
86.8485860899
 30
0.0
 40
1.649999999999977
  0
LINE
  5
164
330
1F
100
AcDbEntity
  8
0
  6
HIDDEN
 62
     7
370
     0
100
AcDbLine
 10
138.5156968705
 20
107.6370819301
 30
0.0
 11
138.5156968705
 21
77.5616678238
 31
0.0
  0
LINE
  5
165
330
1F
100
AcDbEntity
  8
0
  6
HIDDEN
 62
     7
370
     0
100
AcDbLine
 10
136.5156968773
 20
108.1342954949
 30
0.0
 11
136.5156968773
 21
77.064454259
 31
0.0
  0
SPLINE
  5
166
330
1F
100
AcDbEntity
  8
0
  6
HIDDEN
 62
     7
370
     0
100
AcDbSpline
210
0.0
220
0.0
230
1.0
 70
     8
 71
     3
 72
    24
 73
    20
 74
     0
 42
0.00000001
 43
0.00000001
 12
1.0
 22
0.0
 32
0.0
 13
1.0
 23
0.0
 33
0.0
 40
0.0
 40
0.0
 40
0.0
 40
0.0
 40
0.1249999999999999
 40
0.1249999999999999
 40
0.2499999999999998
 40
0.2499999999999998
 40
0.3749999999999998
 40
0.3749999999999998
 40
0.4374999999999998
 40
0.4374999999999998
 40
0.4999999999999998
 40
0.4999999999999998
 40
0.6249999999999998
 40
0.6249999999999998
 40
0.7499999999999998
 40
0.7499999999999998
 40
0.8749999999999999
 40
0.8749999999999999
 40
1.0
 40
1.0
 40
1.0
 40
1.0
 10
107.1656968654163
 20
88.51341382387133
 30
0.0
 10
107.4035004976914
 20
88.81242092620147
 30
0.0
 10
107.6335861589027
 20
89.11675877752019
 30
0.0
 10
108.0683395575125
 20
89.74249231491618
 30
0.0
 10
108.2732723497987
 20
90.0637170422437
 30
0.0
 10
108.6383743002974
 20
90.73564281297642
 30
0.0
 10
108.8001746860889
 20
91.09095804485531
 30
0.0
 10
108.9720348906686
 20
91.64118926620776
 30
0.0
 10
109.0176200823287
 20
91.82759305118823
 30
0.0
 10
109.0800948219036
 20
92.20772755328449
 30
0.0
 10
109.0967659676521
 20
92.40339734557038
 30
0.0
 10
109.0972870108286
 20
92.9818777242448
 30
0.0
 10
109.0328447099419
 20
93.35978956321358
 30
0.0
 10
108.8029956165685
 20
94.10175758831201
 30
0.0
 10
108.6444749389054
 20
94.45047304847299
 30
0.0
 10
108.2802406090052
 20
95.12356544620613
 30
0.0
 10
108.0735043689417
 20
95.44851793344777
 30
0.0
 10
107.6355664232013
 20
96.07944174390956
 30
0.0
 10
107.4042936959218
 20
96.3853314842502
 30
0.0
 10
107.1656968654164
 20
96.6853359300697
 30
0.0
  0
LINE
  5
167
330
1F
100
AcDbEntity
  8
0
  6
HIDDEN
 62
     7
370
     0
100
AcDbLine
 10
107.1656955124
 20
88.5134136133
 30
0.0
 11
107.1656955124
 21
96.6853361406
 31
0.0
  0
SPLINE
  5
168
330
1F
100
AcDbEntity
  8
0
  6
HIDDEN
 62
     7
370
     0
100
AcDbSpline
210
0.0
220
0.0
230
1.0
 70
     8
 71
     3
 72
     8
 73
     4
 74
     0
 42
0.00000001
 43
0.00000001
 12
1.0
 22
0.0
 32
0.0
 13
1.0
 23
0.0
 33
0.0
 40
0.0000249638557296
 40
0.0000249638557296
 40
0.0000249638557296
 40
0.0000249638557296
 40
0.0049776420541172
 40
0.0049776420541172
 40
0.0049776420541172
 40
0.0049776420541172
 10
102.2156968654163
 20
88.63416398013403
 30
0.0
 10
103.8656730999259
 20
88.59288474236581
 30
0.0
 10
105.5156744196709
 20
88.55266306112634
 30
0.0
 10
107.1656968654163
 20
88.51341382387133
 30
0.0
  0
SPLINE
  5
169
330
1F
100
AcDbEntity
  8
0
  6
HIDDEN
 62
     7
370
     0
100
AcDbSpline
210
0.0
220
0.0
230
1.0
 70
     8
 71
     3
 72
     8
 73
     4
 74
     0
 42
0.00000001
 43
0.00000001
 12
1.0
 22
0.0
 32
0.0
 13
1.0
 23
0.0
 33
0.0
 40
0.0000249631533153
 40
0.0000249631533153
 40
0.0000249631533153
 40
0.0000249631533153
 40
0.0049776413517029
 40
0.0049776413517029
 40
0.0049776413517029
 40
0.0049776413517029
 10
107.1656968654163
 20
96.68533593006983
 30
0.0
 10
105.5156744196709
 20
96.6460866928148
 30
0.0
 10
103.8656730999258
 20
96.60586501157533
 30
0.0
 10
102.2156968654163
 20
96.56458577380712
 30
0.0
  0
SPLINE
  5
16A
330
1F
100
AcDbEntity
  8
0
  6
HIDDEN
 62
     7
370
     0
100
AcDbSpline
210
0.0
220
0.0
230
1.0
 70
     8
 71
     3
 72
     8
 73
     4
 74
     0
 42
0.00000001
 43
0.00000001
 12
1.0
 22
0.0
 32
0.0
 13
1.0
 23
0.0
 33
0.0
 40
0.0
 40
0.0
 40
0.0
 40
0.0
 40
1.0
 40
1.0
 40
1.0
 40
1.0
 10
100.7156968654141
 20
89.69738754399022
 30
0.0
 10
101.1824574767919
 20
89.28202429836719
 30
0.0
 10
101.6882050235719
 20
88.9374338690626
 30
0.0
 10
102.2156968654163
 20
88.63416398013403
 30
0.0
  0
SPLINE
  5
16B
330
1F
100
AcDbEntity
  8
0
  6
HIDDEN
 62
     7
370
     0
100
AcDbSpline
210
0.0
220
0.0
230
1.0
 70
     8
 71
     3
 72
     8
 73
     4
 74
     0
 42
0.00000001
 43
0.00000001
 12
1.0
 22
0.0
 32
0.0
 13
1.0
 23
0.0
 33
0.0
 40
0.0
 40
0.0
 40
0.0
 40
0.0
 40
1.0
 40
1.0
 40
1.0
 40
1.0
 10
102.2156968654163
 20
96.56458577380712
 30
0.0
 10
101.6882050235728
 20
96.26131588487904
 30
0.0
 10
101.1824574767935
 20
95.91672545557506
 30
0.0
 10
100.7156968654163
 20
95.50136220995292
 30
0.0
  0
LINE
  5
16C
330
1F
100
AcDbEntity
  8
0
  6
HIDDEN
 62
     7
370
     0
100
AcDbLine
 10
100.7156980873
 20
89.6973874715
 30
0.0
 11
100.7156980873
 21
95.5013622825
 31
0.0
  0
SPLINE
  5
16D
330
1F
100
AcDbEntity
  8
0
  6
HIDDEN
 62
     7
370
     0
100
AcDbSpline
210
0.0
220
0.0
230
1.0
 70
     8
 71
     3
 72
    72
 73
    68
 74
     0
 42
0.00000001
 43
0.00000001
 12
1.0
 22
0.0
 32
0.0
 13
1.0
 23
0.0
 33
0.0
 40
-0.03125
 40
-0.03125
 40
0.0
 40
0.0
 40
0.03125
 40
0.03125
 40
0.0625
 40
0.0625
 40
0.09375
 40
0.09375
 40
0.125
 40
0.125
 40
0.15625
 40
0.15625
 40
0.1875
 40
0.1875
 40
0.21875
 40
0.21875
 40
0.25
 40
0.25
 40
0.28125
 40
0.28125
 40
0.3125
 40
0.3125
 40
0.34375
 40
0.34375
 40
0.375
 40
0.375
 40
0.390625
 40
0.390625
 40
0.40625
 40
0.40625
 40
0.4375
 40
0.4375
 40
0.46875
 40
0.46875
 40
0.5
 40
0.5
 40
0.53125
 40
0.53125
 40
0.5625
 40
0.5625
 40
0.59375
 40
0.59375
 40
0.625
 40
0.625
 40
0.65625
 40
0.65625
 40
0.6875
 40
0.6875
 40
0.71875
 40
0.71875
 40
0.75
 40
0.75
 40
0.78125
 40
0.78125
 40
0.8125
 40
0.8125
 40
0.84375
 40
0.84375
 40
0.875
 40
0.875
 40
0.90625
 40
0.90625
 40
0.9375
 40
0.9375
 40
0.96875
 40
0.96875
 40
1.0
 40
1.0
 40
1.03125
 40
1.03125
 10
119.8396431842415
 20
95.04020852678542
 30
0.0
 10
120.2140734041154
 20
95.45056432727056
 30
0.0
 10
120.418926005381
 20
95.63421340992907
 30
0.0
 10
120.861794202228
 20
95.96116831342438
 30
0.0
 10
121.1017496195463
 20
96.10494652160423
 30
0.0
 10
121.5973606023208
 20
96.34246387705012
 30
0.0
 10
121.8546268934753
 20
96.43778344194783
 30
0.0
 10
122.3879806613124
 20
96.58186897458232
 30
0.0
 10
122.6622608012107
 20
96.6296049815519
 30
0.0
 10
123.2086893357902
 20
96.67518712208573
 30
0.0
 10
123.483265654258
 20
96.67375336201349
 30
0.0
 10
124.0352328285287
 20
96.62084005392263
 30
0.0
 10
124.3058497911004
 20
96.56987032771846
 30
0.0
 10
124.8321349621796
 20
96.42126370077487
 30
0.0
 10
125.0897665255872
 20
96.32297833001776
 30
0.0
 10
125.5856926902607
 20
96.07872497083204
 30
0.0
 10
125.8186763680523
 20
95.93564483980987
 30
0.0
 10
126.2550096433773
 20
95.60778628934102
 30
0.0
 10
126.4602908972356
 20
95.4207926516408
 30
0.0
 10
126.8283251950958
 20
95.0113620318178
 30
0.0
 10
126.989840185081
 20
94.79125659083331
 30
0.0
 10
127.2669978682281
 20
94.31950650939528
 30
0.0
 10
127.3833920476619
 20
94.06448998295406
 30
0.0
 10
127.5566660843085
 20
93.54325215955707
 30
0.0
 10
127.6151126387742
 20
93.27576804177615
 30
0.0
 10
127.6589773642501
 20
92.8638523824437
 30
0.0
 10
127.6661575808795
 20
92.72414507936817
 30
0.0
 10
127.665189553584
 20
92.44802202390575
 30
0.0
 10
127.6571867641704
 20
92.31084545757497
 30
0.0
 10
127.611114032258
 20
91.90191201631171
 30
0.0
 10
127.5501791998059
 20
91.62998576730746
 30
0.0
 10
127.3720590433974
 20
91.10680525085237
 30
0.0
 10
127.2564911320551
 20
90.858093250489
 30
0.0
 10
126.9746443481158
 20
90.38520872549705
 30
0.0
 10
126.8077744027011
 20
90.16159950826493
 30
0.0
 10
126.4384488479023
 20
89.75694212007728
 30
0.0
 10
126.2336636916048
 20
89.57252853190775
 30
0.0
 10
125.7890107440886
 20
89.24350249701337
 30
0.0
 10
125.5541616145778
 20
89.10233442102513
 30
0.0
 10
125.0607518521008
 20
88.86392489224465
 30
0.0
 10
124.7994648983962
 20
88.76614233583976
 30
0.0
 10
124.2687266178835
 20
88.62081430764965
 30
0.0
 10
123.9990869169862
 20
88.57252491745469
 30
0.0
 10
123.451335577241
 20
88.52410969366804
 30
0.0
 10
123.1714315353824
 20
88.52456787930399
 30
0.0
 10
122.6243536275474
 20
88.57471973490617
 30
0.0
 10
122.3547485228599
 20
88.6238933019382
 30
0.0
 10
121.8235937662039
 20
88.77156782524523
 30
0.0
 10
121.5622989497603
 20
88.87072298961081
 30
0.0
 10
121.069984971585
 20
89.11173576008753
 30
0.0
 10
120.8360280960063
 20
89.25422388471226
 30
0.0
 10
120.3938594754759
 20
89.58571131369719
 30
0.0
 10
120.1886659443642
 20
89.77314494168557
 30
0.0
 10
119.8229717280062
 20
90.18004866073599
 30
0.0
 10
119.6602011056179
 20
90.40122773540499
 30
0.0
 10
119.3792486748523
 20
90.88097506462024
 30
0.0
 10
119.2660448225788
 20
91.13098703143055
 30
0.0
 10
119.0934360984399
 20
91.65106224145096
 30
0.0
 10
119.0338298157635
 20
91.92479370608073
 30
0.0
 10
118.9759380456936
 20
92.47341135597922
 30
0.0
 10
118.9767275845536
 20
92.7477512198708
 30
0.0
 10
119.03791806017
 20
93.29649317100976
 30
0.0
 10
119.0990467839041
 20
93.5695584848669
 30
0.0
 10
119.2751264695338
 20
94.0897237336353
 30
0.0
 10
119.3914570645238
 20
94.34204286719421
 30
0.0
 10
119.6746582942645
 20
94.81844720860119
 30
0.0
 10
119.8396431842415
 20
95.04020852678542
 30
0.0
 10
120.2140734041154
 20
95.45056432727056
 30
0.0
  0
CIRCLE
  5
16E
330
1F
100
AcDbEntity
  8
0
  6
HIDDEN
 62
     7
370
     0
100
AcDbCircle
 10
123.2156968654
 20
92.599374877
 30
0.0
 40
4.050000000000011
  0
CIRCLE
  5
16F
330
1F
100
AcDbEntity
  8
0
  6
HIDDEN
 62
     7
370
     0
100
AcDbCircle
 10
150.7156968654
 20
92.599374877
 30
0.0
 40
2.0
  0
LINE
  5
170
330
1F
100
AcDbEntity
  8
0
  6
HIDDEN
 62
     7
370
     0
100
AcDbLine
 10
138.7156968654
 20
68.3493741617
 30
0.0
 11
138.8085900858
 21
68.4422680006
 31
0.0
  0
LINE
  5
171
330
1F
100
AcDbEntity
  8
0
  6
HIDDEN
 62
     7
370
     0
100
AcDbLine
 10
138.8085900858
 20
116.7564817533
 30
0.0
 11
138.7156968654
 21
116.8493755922
 31
0.0
  0
ARC
  5
172
330
1F
100
AcDbEntity
  8
0
  6
HIDDEN
 62
     7
370
     0
100
AcDbCircle
 10
138.101483303
 20
69.149374877
 30
0.0
 40
1.0
100
AcDbArc
 50
315.0
 51
0.0
  0
ARC
  5
173
330
1F
100
AcDbEntity
  8
0
  6
HIDDEN
 62
     7
370
     0
100
AcDbCircle
 10
138.101483303
 20
69.149374877
 30
0.0
 40
1.0
100
AcDbArc
 50
0.0
 51
52.1052014664
  0
ARC
  5
174
330
1F
100
AcDbEntity
  8
0
  6
HIDDEN
 62
     7
370
     0
100
AcDbCircle
 10
138.101483303
 20
116.049374877
 30
0.0
 40
0.9999999999999779
100
AcDbArc
 50
351.8087250651
 51
45.0
  0
ARC
  5
175
330
1F
100
AcDbEntity
  8
0
  6
HIDDEN
 62
     7
370
     0
100
AcDbCircle
 10
138.101483303
 20
116.049374877
 30
0.0
 40
0.9999999999999815
100
AcDbArc
 50
307.8947985336
 51
351.8087250651
  0
LINE
  5
176
330
1F
100
AcDbEntity
  8
0
  6
HIDDEN
 62
     7
370
     0
100
AcDbLine
 10
139.1014833012
 20
69.1493746654
 30
0.0
 11
139.1014833012
 21
116.0493750886
 31
0.0
  0
LINE
  5
177
330
1F
100
AcDbEntity
  8
0
  6
HIDDEN
 62
     7
370
     0
100
AcDbLine
 10
139.1014833012
 20
69.1493746654
 30
0.0
 11
139.1014833012
 21
116.0493750886
 31
0.0
  0
LINE
  5
178
330
1F
100
AcDbEntity
  8
0
  6
HIDDEN
 62
     7
370
     0
100
AcDbLine
 10
100.7156980873
 20
76.4029451475
 30
0.0
 11
102.2459244073
 21
77.2864238188
 31
0.0
  0
LINE
  5
179
330
1F
100
AcDbEntity
  8
0
  6
HIDDEN
 62
     7
370
     0
100
AcDbLine
 10
102.2459244073
 20
107.9123259351
 30
0.0
 11
100.7156980873
 21
108.7958046064
 31
0.0
  0
ARC
  5
17A
330
1F
100
AcDbEntity
  8
0
  6
HIDDEN
 62
     7
370
     0
100
AcDbCircle
 10
111.7174981803
 20
78.599374877
 30
0.0
 40
2.000000000000016
100
AcDbArc
 50
270.0
 51
315.0
  0
ARC
  5
17B
330
1F
100
AcDbEntity
  8
0
  6
HIDDEN
 62
     7
370
     0
100
AcDbCircle
 10
111.7174981803
 20
106.599374877
 30
0.0
 40
2.000000000000026
100
AcDbArc
 50
45.0
 51
90.0
  0
LINE
  5
17C
330
1F
100
AcDbEntity
  8
0
  6
HIDDEN
 62
     7
370
     0
100
AcDbLine
 10
110.7156960011
 20
76.599374117
 30
0.0
 11
111.7174973429
 21
76.599374117
 31
0.0
  0
LINE
  5
17D
330
1F
100
AcDbEntity
  8
0
  6
HIDDEN
 62
     7
370
     0
100
AcDbLine
 10
111.7174973429
 20
108.5993756369
 30
0.0
 11
110.7156960011
 21
108.5993756369
 31
0.0
  0
ARC
  5
17E
330
1F
100
AcDbEntity
  8
0
  6
HIDDEN
 62
     7
370
     0
100
AcDbCircle
 10
110.7156968654
 20
78.599374877
 30
0.0
 40
2.0
100
AcDbArc
 50
189.9742217944
 51
270.0
  0
ARC
  5
17F
330
1F
100
AcDbEntity
  8
0
  6
HIDDEN
 62
     7
370
     0
100
AcDbCircle
 10
110.7156968654
 20
106.599374877
 30
0.0
 40
2.0
100
AcDbArc
 50
90.0
 51
170.0257782056
  0
LINE
  5
180
330
1F
100
AcDbEntity
  8
0
  6
HIDDEN
 62
     7
370
     0
100
AcDbLine
 10
113.1317125351
 20
77.1851611153
 30
0.0
 11
114.5459258647
 21
78.5993744448
 31
0.0
  0
LINE
  5
181
330
1F
100
AcDbEntity
  8
0
  6
HIDDEN
 62
     7
370
     0
100
AcDbLine
 10
114.5459258647
 20
106.5993753091
 30
0.0
 11
113.1317125351
 21
108.0135886387
 31
0.0
  0
LINE
  5
182
330
1F
100
AcDbEntity
  8
0
  6
HIDDEN
 62
     7
370
     0
100
AcDbLine
 10
102.2459244073
 20
77.2864238188
 30
0.0
 11
107.1459253968
 21
78.5993744448
 31
0.0
  0
LINE
  5
183
330
1F
100
AcDbEntity
  8
0
  6
HIDDEN
 62
     7
370
     0
100
AcDbLine
 10
107.1459253968
 20
106.5993753091
 30
0.0
 11
102.2459244073
 21
107.9123259351
 31
0.0
  0
LINE
  5
184
330
1F
100
AcDbEntity
  8
0
  6
HIDDEN
 62
     7
370
     0
100
AcDbLine
 10
108.7459245415
 20
106.9457853973
 30
0.0
 11
108.1459255607
 21
106.5993753091
 31
0.0
  0
LINE
  5
185
330
1F
100
AcDbEntity
  8
0
  6
HIDDEN
 62
     7
370
     0
100
AcDbLine
 10
108.1459255607
 20
78.5993744448
 30
0.0
 11
108.7459245415
 21
78.2529643566
 31
0.0
  0
LINE
  5
186
330
1F
100
AcDbEntity
  8
0
  6
HIDDEN
 62
     7
370
     0
100
AcDbLine
 10
217.9654514135
 20
95.0993748211
 30
0.0
 11
205.8032577575
 21
95.0993748211
 31
0.0
  0
LINE
  5
187
330
1F
100
AcDbEntity
  8
0
  6
HIDDEN
 62
     7
370
     0
100
AcDbLine
 10
205.8032577575
 20
90.0993749328
 30
0.0
 11
217.9654514135
 21
90.0993749328
 31
0.0
  0
ARC
  5
188
330
1F
100
AcDbEntity
  8
0
  6
HIDDEN
 62
     7
370
     0
100
AcDbCircle
 10
127.2156968654
 20
79.099374877
 30
0.0
 40
0.5
100
AcDbArc
 50
270.0
 51
0.0
  0
ARC
  5
189
330
1F
100
AcDbEntity
  8
0
  6
HIDDEN
 62
     7
370
     0
100
AcDbCircle
 10
127.2156968654
 20
106.099374877
 30
0.0
 40
0.5
100
AcDbArc
 50
0.0
 51
90.0
  0
LINE
  5
18A
330
1F
100
AcDbEntity
  8
0
  6
HIDDEN
 62
     7
370
     0
100
AcDbLine
 10
107.1459253968
 20
78.5993744448
 30
0.0
 11
108.1459255607
 21
78.5993744448
 31
0.0
  0
LINE
  5
18B
330
1F
100
AcDbEntity
  8
0
  6
HIDDEN
 62
     7
370
     0
100
AcDbLine
 10
108.1459255607
 20
106.5993753091
 30
0.0
 11
107.1459253968
 21
106.5993753091
 31
0.0
  0
LINE
  5
18C
330
1F
100
AcDbEntity
  8
0
  6
HIDDEN
 62
     7
370
     0
100
AcDbLine
 10
114.5459258647
 20
78.5993744448
 30
0.0
 11
127.2156968431
 21
78.5993744448
 31
0.0
  0
LINE
  5
18D
330
1F
100
AcDbEntity
  8
0
  6
HIDDEN
 62
     7
370
     0
100
AcDbLine
 10
127.2156968431
 20
106.5993753091
 30
0.0
 11
114.5459258647
 21
106.5993753091
 31
0.0
  0
LINE
  5
18E
330
1F
100
AcDbEntity
  8
0
  6
HIDDEN
 62
     7
370
     0
100
AcDbLine
 10
127.715696925
 20
82.3493745938
 30
0.0
 11
128.9656966643
 21
83.5993752644
 31
0.0
  0
LINE
  5
18F
330
1F
100
AcDbEntity
  8
0
  6
HIDDEN
 62
     7
370
     0
100
AcDbLine
 10
128.9656966643
 20
101.5993744895
 30
0.0
 11
127.715696925
 21
102.8493751601
 31
0.0
  0
LINE
  5
190
330
1F
100
AcDbEntity
  8
0
  6
HIDDEN
 62
     7
370
     0
100
AcDbLine
 10
165.7156975658
 20
101.5993744895
 30
0.0
 11
128.9656966643
 21
101.5993744895
 31
0.0
  0
LINE
  5
191
330
1F
100
AcDbEntity
  8
0
  6
HIDDEN
 62
     7
370
     0
100
AcDbLine
 10
128.9656966643
 20
83.5993752644
 30
0.0
 11
165.7156975658
 21
83.5993752644
 31
0.0
  0
LINE
  5
192
330
1F
100
AcDbEntity
  8
0
  6
HIDDEN
 62
     7
370
     0
100
AcDbLine
 10
165.7156975658
 20
83.5993752644
 30
0.0
 11
168.5697840245
 21
88.349374646
 31
0.0
  0
LINE
  5
193
330
1F
100
AcDbEntity
  8
0
  6
HIDDEN
 62
     7
370
     0
100
AcDbLine
 10
168.5697840245
 20
96.8493751079
 30
0.0
 11
165.7156975658
 21
101.5993744895
 31
0.0
  0
LINE
  5
194
330
1F
100
AcDbEntity
  8
0
  6
HIDDEN
 62
     7
370
     0
100
AcDbLine
 10
209.71569919
 20
96.8493751079
 30
0.0
 11
168.5697840245
 21
96.8493751079
 31
0.0
  0
LINE
  5
195
330
1F
100
AcDbEntity
  8
0
  6
HIDDEN
 62
     7
370
     0
100
AcDbLine
 10
168.5697840245
 20
88.349374646
 30
0.0
 11
209.71569919
 21
88.349374646
 31
0.0
  0
LINE
  5
196
330
1F
100
AcDbEntity
  8
0
  6
HIDDEN
 62
     7
370
     0
100
AcDbLine
 10
209.71569919
 20
88.349374646
 30
0.0
 11
212.2693558873
 21
92.599374877
 31
0.0
  0
LINE
  5
197
330
1F
100
AcDbEntity
  8
0
  6
HIDDEN
 62
     7
370
     0
100
AcDbLine
 10
212.2693558873
 20
92.599374877
 30
0.0
 11
209.71569919
 21
96.8493751079
 31
0.0
  0
LINE
  5
198
330
1F
100
AcDbEntity
  8
VERMASSUNG
100
AcDbLine
 10
268.7156968654
 20
92.599374877
 30
0.0
 11
268.7156968654
 21
56.3372688397
 31
0.0
  0
DIMENSION
  5
199
330
1F
100
AcDbEntity
  8
VERMASSUNG
100
AcDbDimension
  2
_D
 10
268.7156968654
 20
56.3372688397
 30
0.0
 11
259.5043806491
 21
72.4804980054
 31
0.0
 70
   162
  1
<>
 71
     1
 42
-1.0
  3
SLDDIMSTYLE0
100
AcDb2LineAngularDimension
 13
256.9497985489
 23
82.3614684405
 33
0.0
 14
268.6259376885
 24
92.1589124861
 34
0.0
 15
268.7156968654
 25
92.599374877
 35
0.0
 16
259.5043806491
 26
72.4804980054
 36
0.0
  0
DIMENSION
  5
1A3
330
1F
100
AcDbEntity
  8
VERMASSUNG
100
AcDbDimension
  2
_D_1
 10
138.7156968654
 20
55.1950719977
 30
0.0
 11
203.7156968654
 21
55.1950719977
 31
0.0
 70
   160
  1
<>
 71
     2
 42
-1.0
  3
SLDDIMSTYLE1
100
AcDbAlignedDimension
 13
268.7156968654
 23
56.3372688397
 33
0.0
 14
138.7156968654
 24
61.599374877
 34
0.0
 50
0.0
100
AcDbRotatedDimension
  0
DIMENSION
  5
1AE
330
1F
100
AcDbEntity
  8
VERMASSUNG
100
AcDbDimension
  2
_D_2
 10
268.7156968654
 20
48.0544410876
 30
0.0
 11
184.7156968654
 21
48.0544410876
 31
0.0
 70
   160
  1
<>
 71
     2
 42
-1.0
  3
SLDDIMSTYLE1
100
AcDbAlignedDimension
 13
100.7156968654
 23
72.3070368845
 33
0.0
 14
268.7156968654
 24
56.3372688397
 34
0.0
 50
0.0
100
AcDbRotatedDimension
  0
DIMENSION
  5
1B8
330
1F
100
AcDbEntity
  8
VERMASSUNG
100
AcDbDimension
  2
_D_3
 10
268.3461450524
 20
92.446301504
 30
0.0
 11
275.45738715
 21
96.5519832699
 31
0.0
 70
   164
  1
<>
 71
     1
 42
-1.0
  3
SLDDIMSTYLE2
100
AcDbRadialDimension
 15
268.6925552139
 25
92.646301504
 35
0.0
 40
0.0
  0
DIMENSION
  5
1C1
330
1F
100
AcDbEntity
  8
VERMASSUNG
100
AcDbDimension
  2
_D_4
 10
90.7156468654
 20
61.099374877
 30
0.0
 11
90.7156468654
 21
92.599374877
 31
0.0
 70
   160
  1
PSC%%c<>
 71
     2
 42
-1.0
  3
SLDDIMSTYLE1
100
AcDbAlignedDimension
 13
139.2156968654
 23
124.099374877
 33
0.0
 14
139.2156968654
 24
61.099374877
 34
0.0
 50
90.0
100
AcDbRotatedDimension
  0
LINE
  5
1CD
330
1F
100
AcDbEntity
  8
VERMASSUNG
  6
CENTERX2
370
     0
100
AcDbLine
 10
95.1609327234
 20
92.599374877
 30
0.0
 11
272.133373548
 21
92.599374877
 31
0.0
  0
LINE
  5
1CE
330
1F
100
AcDbEntity
  8
0
  6
Continuous
 62
     7
370
    15
100
AcDbLine
 10
241.1001672686
 20
164.5508791069
 30
0.0
 11
241.1877637447
 21
164.2110880737
 31
0.0
  0
SPLINE
  5
1CF
330
1F
100
AcDbEntity
  8
0
  6
Continuous
 62
     7
370
    15
100
AcDbSpline
210
0.0
220
0.0
230
1.0
 70
     8
 71
     3
 72
    10
 73
     6
 74
     0
 42
0.00000001
 43
0.00000001
 12
1.0
 22
0.0
 32
0.0
 13
1.0
 23
0.0
 33
0.0
 40
0.0
 40
0.0
 40
0.0
 40
0.0
 40
0.3313499779671841
 40
0.6671573417919514
 40
1.0
 40
1.0
 40
1.0
 40
1.0
 10
267.557812267638
 20
159.7008824272376
 30
0.0
 10
267.7286040473267
 20
160.2257710592695
 30
0.0
 10
268.0724851317199
 20
161.2826092296883
 30
0.0
 10
268.3384767722937
 20
162.9410248416701
 30
0.0
 10
268.6370653931164
 20
164.0158495619853
 30
0.0
 10
268.7856977523334
 20
164.550879106933
 30
0.0
  0
ARC
  5
1D0
330
1F
100
AcDbEntity
  8
0
  6
Continuous
 62
     7
370
    15
100
AcDbCircle
 10
139.2156968654
 20
133.511088088
 30
0.0
 40
0.5
100
AcDbArc
 50
180.0
 51
270.0
  0
ARC
  5
1D1
330
1F
100
AcDbEntity
  8
0
  6
Continuous
 62
     7
370
    15
100
AcDbCircle
 10
139.2156968654
 20
195.511088088
 30
0.0
 40
0.5
100
AcDbArc
 50
90.0
 51
180.0
  0
LINE
  5
1D2
330
1F
100
AcDbEntity
  8
0
  6
Continuous
 62
     7
370
    15
100
AcDbLine
 10
202.7156999053
 20
196.0110885946
 30
0.0
 11
139.2156968892
 21
196.0110885946
 31
0.0
  0
LINE
  5
1D3
330
1F
100
AcDbEntity
  8
0
  6
Continuous
 62
     7
370
    15
100
AcDbLine
 10
212.1949096859
 20
196.0110885946
 30
0.0
 11
208.6784070076
 21
196.0110885946
 31
0.0
  0
LINE
  5
1D4
330
1F
100
AcDbEntity
  8
0
  6
Continuous
 62
     7
370
    15
100
AcDbLine
 10
152.7156972975
 20
133.0110875814
 30
0.0
 11
230.9108202995
 21
133.0110875814
 31
0.0
  0
LINE
  5
1D5
330
1F
100
AcDbEntity
  8
0
  6
Continuous
 62
     7
370
    15
100
AcDbLine
 10
139.2156968892
 20
133.0110875814
 30
0.0
 11
148.7403152228
 21
133.0110875814
 31
0.0
  0
LWPOLYLINE
  5
1D6
330
1F
100
AcDbEntity
  8
0
  6
Continuous
 62
     7
370
    15
100
AcDbPolyline
 90
        3
 70
   128
 43
0.0
 10
138.5156968705
 20
141.9712675659
 10
138.6411518057
 20
141.902966231
 10
138.7156968654
 20
141.8502272962
  0
ARC
  5
1D7
330
1F
100
AcDbEntity
  8
0
  6
Continuous
 62
     7
370
    15
100
AcDbCircle
 10
138.101483303
 20
187.961088088
 30
0.0
 40
1.000000000000028
100
AcDbArc
 50
225.0
 51
307.8947985336
  0
LINE
  5
1D8
330
1F
100
AcDbEntity
  8
0
  6
Continuous
 62
     7
370
    15
100
AcDbLine
 10
127.6360381112
 20
144.1140768973
 30
0.0
 11
136.5156968773
 21
143.8909897505
 31
0.0
  0
LINE
  5
1D9
330
1F
100
AcDbEntity
  8
0
  6
Continuous
 62
     7
370
    15
100
AcDbLine
 10
109.0577033998
 20
144.5808296947
 30
0.0
 11
119.0403805763
 21
144.3300301133
 31
0.0
  0
ARC
  5
1DA
330
1F
100
AcDbEntity
  8
0
  6
Continuous
 62
     7
370
    15
100
AcDbCircle
 10
136.7156337764
 20
143.8859661923
 30
0.0
 40
0.2000000000000336
100
AcDbArc
 50
88.5608333333
 51
178.5608333333
  0
ARC
  5
1DB
330
1F
100
AcDbEntity
  8
0
  6
Continuous
 62
     7
370
    15
100
AcDbCircle
 10
138.3156968654
 20
143.8457670382
 30
0.0
 40
0.2000000000000171
100
AcDbArc
 50
0.0
 51
88.5608333333
  0
LINE
  5
1DC
330
1F
100
AcDbEntity
  8
0
  6
Continuous
 62
     7
370
    15
100
AcDbLine
 10
136.7206569945
 20
144.0859025268
 30
0.0
 11
138.3207199638
 21
144.0457047819
 31
0.0
  0
ARC
  5
1DD
330
1F
100
AcDbEntity
  8
0
  6
Continuous
 62
     7
370
    15
100
AcDbCircle
 10
136.7156337764
 20
187.9362099837
 30
0.0
 40
0.2000000000000052
100
AcDbArc
 50
181.4391666666
 51
271.4391666667
  0
LINE
  5
1DE
330
1F
100
AcDbEntity
  8
0
  6
Continuous
 62
     7
370
    15
100
AcDbLine
 10
136.5156968773
 20
187.931187257
 30
0.0
 11
102.2156974019
 21
187.0694512425
 31
0.0
  0
LINE
  5
1DF
330
1F
100
AcDbEntity
  8
0
  6
Continuous
 62
     7
370
    15
100
AcDbLine
 10
136.9214360553
 20
187.7413166611
 30
0.0
 11
136.7206569945
 21
187.736272618
 31
0.0
  0
LINE
  5
1E0
330
1F
100
AcDbEntity
  8
0
  6
Continuous
 62
     7
370
    15
100
AcDbLine
 10
102.2156974019
 20
187.0694512425
 30
0.0
 11
100.7156980873
 21
186.2034255563
 31
0.0
  0
LINE
  5
1E1
330
1F
100
AcDbEntity
  8
0
  6
Continuous
 62
     7
370
    15
100
AcDbLine
 10
137.3943765598
 20
187.2539816348
 30
0.0
 11
136.9316314763
 21
187.7167260198
 31
0.0
  0
LINE
  5
1E2
330
1F
100
AcDbEntity
  8
0
  6
Continuous
 62
     7
370
    15
100
AcDbLine
 10
256.44440704
 20
159.7510881646
 30
0.0
 11
256.5882181467
 21
159.7510881646
 31
0.0
  0
LINE
  5
1E3
330
1F
100
AcDbEntity
  8
0
  6
Continuous
 62
     7
370
    15
100
AcDbLine
 10
241.5450861395
 20
164.511088088
 30
0.0
 11
256.7292054833
 21
164.511088088
 31
0.0
  0
LINE
  5
1E4
330
1F
100
AcDbEntity
  8
0
  6
Continuous
 62
     7
370
    15
100
AcDbLine
 10
248.4475349725
 20
164.5110880882
 30
0.0
 11
255.8897709192
 21
164.5110880882
 31
0.0
  0
SPLINE
  5
1E5
330
1F
100
AcDbEntity
  8
0
  6
Continuous
 62
     7
370
    15
100
AcDbSpline
210
0.0
220
0.0
230
1.0
 70
    24
 71
     3
 72
    13
 73
     9
 74
     0
 42
0.00000001
 43
0.00000001
 12
1.0
 22
0.0
 32
0.0
 13
1.0
 23
0.0
 33
0.0
 40
0.0
 40
0.0
 40
0.0
 40
0.0
 40
0.10639937280299
 40
0.3043725056244986
 40
0.4978317639077555
 40
0.6934405966573014
 40
0.8963800154054394
 40
0.9999999999999999
 40
0.9999999999999999
 40
0.9999999999999999
 40
0.9999999999999999
 10
241.1193078101642
 20
164.5110880880001
 30
0.0
 10
241.1179399157031
 20
164.511088088001
 30
0.0
 10
241.1140268337593
 20
164.5110880880037
 30
0.0
 10
241.1567693280174
 20
164.5110880879998
 30
0.0
 10
241.2370489362299
 20
164.5110880879976
 30
0.0
 10
241.3483395697956
 20
164.5110880879982
 30
0.0
 10
241.4561802051922
 20
164.511088087998
 30
0.0
 10
241.5226266210477
 20
164.511088087998
 30
0.0
 10
241.5450861395366
 20
164.511088087998
 30
0.0
  0
LINE
  5
1E6
330
1F
100
AcDbEntity
  8
0
  6
Continuous
 62
     7
370
    15
100
AcDbLine
 10
247.3603760541
 20
164.5110880882
 30
0.0
 11
248.4475349725
 21
164.5110880882
 31
0.0
  0
SPLINE
  5
1E7
330
1F
100
AcDbEntity
  8
0
  6
Continuous
 62
     7
370
    15
100
AcDbSpline
210
0.0
220
0.0
230
1.0
 70
    24
 71
     3
 72
    10
 73
     6
 74
     0
 42
0.00000001
 43
0.00000001
 12
1.0
 22
0.0
 32
0.0
 13
1.0
 23
0.0
 33
0.0
 40
0.0
 40
0.0
 40
0.0
 40
0.0
 40
0.4165463398500279
 40
0.7036688565789572
 40
0.9999999999999999
 40
0.9999999999999999
 40
0.9999999999999999
 40
0.9999999999999999
 10
256.6433673442371
 20
159.75108816459
 30
0.0
 10
256.6365175602769
 20
159.75108816459
 30
0.0
 10
256.6249462675156
 20
159.75108816459
 30
0.0
 10
256.6058154836564
 20
159.75108816459
 30
0.0
 10
256.5941453222277
 20
159.75108816459
 30
0.0
 10
256.5882181466587
 20
159.75108816459
 30
0.0
  0
SPLINE
  5
1E8
330
1F
100
AcDbEntity
  8
0
  6
Continuous
 62
     7
370
    15
100
AcDbSpline
210
0.0
220
0.0
230
1.0
 70
    24
 71
     3
 72
    10
 73
     6
 74
     0
 42
0.00000001
 43
0.00000001
 12
1.0
 22
0.0
 32
0.0
 13
1.0
 23
0.0
 33
0.0
 40
0.0
 40
0.0
 40
0.0
 40
0.0
 40
0.2724824594365624
 40
0.54475588463671
 40
1.0
 40
1.0
 40
1.0
 40
1.0
 10
256.7292054832943
 20
164.511088087998
 30
0.0
 10
256.751005758567
 20
164.511088087998
 30
0.0
 10
256.7945895850858
 20
164.511088087998
 30
0.0
 10
256.8715918510392
 20
164.511088087998
 30
0.0
 10
256.9196991379035
 20
164.511088087998
 30
0.0
 10
256.949802273608
 20
164.511088087998
 30
0.0
  0
LINE
  5
1E9
330
1F
100
AcDbEntity
  8
0
  6
Continuous
 62
     7
370
    15
100
AcDbLine
 10
256.6433673442
 20
159.7510881646
 30
0.0
 11
267.5382917465
 21
159.7510881646
 31
0.0
  0
LINE
  5
1EA
330
1F
100
AcDbEntity
  8
0
  6
Continuous
 62
     7
370
    15
100
AcDbLine
 10
256.9498022736
 20
164.511088088
 30
0.0
 11
268.6259424032
 21
164.511088088
 31
0.0
  0
LINE
  5
1EB
330
1F
100
AcDbEntity
  8
0
  6
Continuous
 62
     7
370
    15
100
AcDbLine
 10
255.8897709192
 20
164.5110880882
 30
0.0
 11
256.4454054178
 21
164.5110880882
 31
0.0
  0
LINE
  5
1EC
330
1F
100
AcDbEntity
  8
0
  6
Continuous
 62
     7
370
    15
100
AcDbLine
 10
256.4454054178
 20
164.5110880882
 30
0.0
 11
256.9498022736
 21
164.5110880882
 31
0.0
  0
SPLINE
  5
1ED
330
1F
100
AcDbEntity
  8
0
  6
Continuous
 62
     7
370
    15
100
AcDbSpline
210
0.0
220
0.0
230
1.0
 70
    24
 71
     3
 72
    10
 73
     6
 74
     0
 42
0.00000001
 43
0.00000001
 12
1.0
 22
0.0
 32
0.0
 13
1.0
 23
0.0
 33
0.0
 40
0.0
 40
0.0
 40
0.0
 40
0.0
 40
0.4061648814709961
 40
0.8109268682540277
 40
1.0
 40
1.0
 40
1.0
 40
1.0
 10
268.6259424031742
 20
164.511088087998
 30
0.0
 10
268.6585494851078
 20
164.5110880879982
 30
0.0
 10
268.7236510240188
 20
164.5110880879985
 30
0.0
 10
268.7702612261969
 20
164.5110880879968
 30
0.0
 10
268.7674460829795
 20
164.5110880879993
 30
0.0
 10
268.7665497601993
 20
164.5110880880001
 30
0.0
  0
LINE
  5
1EE
330
1F
100
AcDbEntity
  8
0
  6
Continuous
 62
     7
370
    15
100
AcDbLine
 10
138.7156968654
 20
164.511088088
 30
0.0
 11
138.7156968654
 21
195.5110875814
 31
0.0
  0
LINE
  5
1EF
330
1F
100
AcDbEntity
  8
0
  6
Continuous
 62
     7
370
    15
100
AcDbLine
 10
138.7156968654
 20
133.5110885946
 30
0.0
 11
138.7156968654
 21
164.511088088
 31
0.0
  0
SPLINE
  5
1F0
330
1F
100
AcDbEntity
  8
0
  6
Continuous
 62
     7
370
    15
100
AcDbSpline
210
0.0
220
0.0
230
1.0
 70
     8
 71
     3
 72
    12
 73
     8
 74
     0
 42
0.00000001
 43
0.00000001
 12
1.0
 22
0.0
 32
0.0
 13
1.0
 23
0.0
 33
0.0
 40
0.0
 40
0.0
 40
0.0
 40
0.0
 40
0.4999999999999972
 40
0.4999999999999972
 40
0.7499999999999986
 40
0.7499999999999986
 40
1.0
 40
1.0
 40
1.0
 40
1.0
 10
148.8104409770905
 20
174.4204574086834
 30
0.0
 10
148.8415861750526
 20
174.306352042818
 30
0.0
 10
148.8838604413871
 20
174.1952457155993
 30
0.0
 10
148.9838059752124
 20
174.045088108169
 30
0.0
 10
149.0235362799164
 20
173.9980954165516
 30
0.0
 10
149.1204243299226
 20
173.9251198320131
 30
0.0
 10
149.1804895716692
 20
173.8991545193341
 30
0.0
 10
149.2434536789827
 20
173.8991545193341
 30
0.0
  0
LINE
  5
1F1
330
1F
100
AcDbEntity
  8
0
  6
Continuous
 62
     7
370
    15
100
AcDbLine
 10
149.2434538619
 20
173.8991549162
 30
0.0
 11
152.1879400776
 21
173.8991549162
 31
0.0
  0
SPLINE
  5
1F2
330
1F
100
AcDbEntity
  8
0
  6
Continuous
 62
     7
370
    15
100
AcDbSpline
210
0.0
220
0.0
230
1.0
 70
     8
 71
     3
 72
    12
 73
     8
 74
     0
 42
0.00000001
 43
0.00000001
 12
1.0
 22
0.0
 32
0.0
 13
1.0
 23
0.0
 33
0.0
 40
0.0
 40
0.0
 40
0.0
 40
0.0
 40
0.2500000000000001
 40
0.2500000000000001
 40
0.5000000000000001
 40
0.5000000000000001
 40
1.0
 40
1.0
 40
1.0
 40
1.0
 10
152.1879400518499
 20
173.8991545193342
 30
0.0
 10
152.2509970067477
 20
173.8991545193342
 30
0.0
 10
152.3101271564933
 20
173.9245008727149
 30
0.0
 10
152.4085747070265
 20
173.9986202548544
 30
0.0
 10
152.4476069452146
 20
174.0451167695524
 30
0.0
 10
152.5474968296716
 20
174.195191276561
 30
0.0
 10
152.5897958032809
 20
174.3063089856759
 30
0.0
 10
152.6209527537422
 20
174.4204574086833
 30
0.0
  0
ELLIPSE
  5
1F3
330
1F
100
AcDbEntity
  8
0
  6
Continuous
 62
     7
370
    15
100
AcDbEllipse
 10
136.3685426761
 20
164.511088088
 30
0.0
 11
14.7536831606561
 21
31.09325491558116
 31
0.0
210
0.0
220
0.0
230
1.0
 40
0.3419987131
 41
5.193281737408629
 42
6.124043104552331
  0
SPLINE
  5
1F4
330
1F
100
AcDbEntity
  8
0
  6
Continuous
 62
     7
370
    15
100
AcDbSpline
210
0.0
220
0.0
230
1.0
 70
     8
 71
     3
 72
    12
 73
     8
 74
     0
 42
0.00000001
 43
0.00000001
 12
1.0
 22
0.0
 32
0.0
 13
1.0
 23
0.0
 33
0.0
 40
0.0
 40
0.0
 40
0.0
 40
0.0
 40
0.5000000000000029
 40
0.5000000000000029
 40
0.7500000000000014
 40
0.7500000000000014
 40
1.0
 40
1.0
 40
1.0
 40
1.0
 10
152.6209527537421
 20
194.4118305481153
 30
0.0
 10
152.58980755578
 20
194.4496460710355
 30
0.0
 10
152.5475332894455
 20
194.4857129291191
 30
0.0
 10
152.4475877556202
 20
194.5336729941304
 30
0.0
 10
152.4078574509162
 20
194.548533968028
 30
0.0
 10
152.31096940091
 20
194.5714851141592
 30
0.0
 10
152.2509041591634
 20
194.5795800468712
 30
0.0
 10
152.1879400518499
 20
194.5795800468712
 30
0.0
  0
LINE
  5
1F5
330
1F
100
AcDbEntity
  8
0
  6
Continuous
 62
     7
370
    15
100
AcDbLine
 10
152.1879400776
 20
194.5795806049
 30
0.0
 11
149.2434538619
 21
194.5795806049
 31
0.0
  0
SPLINE
  5
1F6
330
1F
100
AcDbEntity
  8
0
  6
Continuous
 62
     7
370
    15
100
AcDbSpline
210
0.0
220
0.0
230
1.0
 70
     8
 71
     3
 72
    12
 73
     8
 74
     0
 42
0.00000001
 43
0.00000001
 12
1.0
 22
0.0
 32
0.0
 13
1.0
 23
0.0
 33
0.0
 40
0.0
 40
0.0
 40
0.0
 40
0.0
 40
0.25
 40
0.25
 40
0.5
 40
0.5
 40
1.0
 40
1.0
 40
1.0
 40
1.0
 10
149.2434536789827
 20
194.5795800468711
 30
0.0
 10
149.1803967240849
 20
194.5795800468711
 30
0.0
 10
149.1212665743394
 20
194.5716797157916
 30
0.0
 10
149.0228190238061
 20
194.5483689677866
 30
0.0
 10
148.983786785618
 20
194.5336638415029
 30
0.0
 10
148.8838969011611
 20
194.4857303133163
 30
0.0
 10
148.8415979275517
 20
194.4496603405515
 30
0.0
 10
148.8104409770905
 20
194.4118305481153
 30
0.0
  0
ELLIPSE
  5
1F7
330
1F
100
AcDbEntity
  8
0
  6
Continuous
 62
     7
370
    15
100
AcDbEllipse
 10
165.0628510548
 20
164.511088088
 30
0.0
 11
-14.75368316065615
 21
31.09325491558116
 31
0.0
210
0.0
220
0.0
230
1.0
 40
0.3419987131
 41
0.1591422026272941
 42
1.08990356977097
  0
SPLINE
  5
1F8
330
1F
100
AcDbEntity
  8
0
  6
Continuous
 62
     7
370
    15
100
AcDbSpline
210
0.0
220
0.0
230
1.0
 70
     8
 71
     3
 72
    12
 73
     8
 74
     0
 42
0.00000001
 43
0.00000001
 12
1.0
 22
0.0
 32
0.0
 13
1.0
 23
0.0
 33
0.0
 40
0.0
 40
0.0
 40
0.0
 40
0.0
 40
0.4999999999999981
 40
0.4999999999999981
 40
0.749999999999999
 40
0.749999999999999
 40
1.0
 40
1.0
 40
1.0
 40
1.0
 10
148.8104409770905
 20
134.6103456278807
 30
0.0
 10
148.8411632190096
 20
134.5730436449277
 30
0.0
 10
148.8840004335448
 20
134.5364318128813
 30
0.0
 10
148.9834274577446
 20
134.4886670295961
 30
0.0
 10
149.0231796525612
 20
134.4737095141138
 30
0.0
 10
149.1212211094195
 20
134.4505195683446
 30
0.0
 10
149.1807771650069
 20
134.4425961291249
 30
0.0
 10
149.2434536789827
 20
134.4425961291249
 30
0.0
  0
LINE
  5
1F9
330
1F
100
AcDbEntity
  8
0
  6
Continuous
 62
     7
370
    15
100
AcDbLine
 10
149.2434538619
 20
134.4425955711
 30
0.0
 11
152.1879400776
 21
134.4425955711
 31
0.0
  0
SPLINE
  5
1FA
330
1F
100
AcDbEntity
  8
0
  6
Continuous
 62
     7
370
    15
100
AcDbSpline
210
0.0
220
0.0
230
1.0
 70
     8
 71
     3
 72
    12
 73
     8
 74
     0
 42
0.00000001
 43
0.00000001
 12
1.0
 22
0.0
 32
0.0
 13
1.0
 23
0.0
 33
0.0
 40
0.0
 40
0.0
 40
0.0
 40
0.0
 40
0.25
 40
0.25
 40
0.5
 40
0.5
 40
1.0
 40
1.0
 40
1.0
 40
1.0
 10
152.1879400518499
 20
134.4425961291249
 30
0.0
 10
152.2510200903432
 20
134.4425961291249
 30
0.0
 10
152.3101687125246
 20
134.4505020553373
 30
0.0
 10
152.4086412625937
 20
134.4738272167736
 30
0.0
 10
152.4476778745784
 20
134.4885400066053
 30
0.0
 10
152.5475743413575
 20
134.5364958073362
 30
0.0
 10
152.5899952224241
 20
134.5727579639162
 30
0.0
 10
152.6209527537421
 20
134.6103456278807
 30
0.0
  0
ELLIPSE
  5
1FB
330
1F
100
AcDbEntity
  8
0
  6
Continuous
 62
     7
370
    15
100
AcDbEllipse
 10
136.3685426761
 20
164.511088088
 30
0.0
 11
-14.75368316065622
 21
31.09325491558116
 31
0.0
210
0.0
220
0.0
230
1.0
 40
0.3419987131
 41
3.300734856217121
 42
4.231496223360769
  0
SPLINE
  5
1FC
330
1F
100
AcDbEntity
  8
0
  6
Continuous
 62
     7
370
    15
100
AcDbSpline
210
0.0
220
0.0
230
1.0
 70
     8
 71
     3
 72
    12
 73
     8
 74
     0
 42
0.00000001
 43
0.00000001
 12
1.0
 22
0.0
 32
0.0
 13
1.0
 23
0.0
 33
0.0
 40
0.0
 40
0.0
 40
0.0
 40
0.0
 40
0.4999999999999953
 40
0.4999999999999953
 40
0.7499999999999977
 40
0.7499999999999977
 40
1.0
 40
1.0
 40
1.0
 40
1.0
 10
152.6209527537421
 20
154.6017187673125
 30
0.0
 10
152.590230511823
 20
154.7142745667217
 30
0.0
 10
152.5473932972878
 20
154.8270324264613
 30
0.0
 10
152.447966273088
 20
154.9765733122577
 30
0.0
 10
152.4082140782714
 20
155.0238660439645
 30
0.0
 10
152.3101726214132
 20
155.097602337286
 30
0.0
 10
152.2506165658257
 20
155.1230216566617
 30
0.0
 10
152.1879400518499
 20
155.1230216566617
 30
0.0
  0
LINE
  5
1FD
330
1F
100
AcDbEntity
  8
0
  6
Continuous
 62
     7
370
    15
100
AcDbLine
 10
152.1879400776
 20
155.1230212597
 30
0.0
 11
149.2434538619
 21
155.1230212597
 31
0.0
  0
SPLINE
  5
1FE
330
1F
100
AcDbEntity
  8
0
  6
Continuous
 62
     7
370
    15
100
AcDbSpline
210
0.0
220
0.0
230
1.0
 70
     8
 71
     3
 72
    12
 73
     8
 74
     0
 42
0.00000001
 43
0.00000001
 12
1.0
 22
0.0
 32
0.0
 13
1.0
 23
0.0
 33
0.0
 40
0.0
 40
0.0
 40
0.0
 40
0.0
 40
0.2499999999999999
 40
0.2499999999999999
 40
0.4999999999999999
 40
0.4999999999999999
 40
1.0
 40
1.0
 40
1.0
 40
1.0
 10
149.2434536789827
 20
155.1230216566617
 30
0.0
 10
149.1803736404894
 20
155.1230216566617
 30
0.0
 10
149.121225018308
 20
155.0976573374467
 30
0.0
 10
149.0227524682389
 20
155.0234924770738
 30
0.0
 10
148.9837158562542
 20
154.9769721365197
 30
0.0
 10
148.8838193894751
 20
154.8268297936744
 30
0.0
 10
148.8413985084085
 20
154.7151365867023
 30
0.0
 10
148.8104409770905
 20
154.6017187673125
 30
0.0
  0
ELLIPSE
  5
1FF
330
1F
100
AcDbEntity
  8
0
  6
Continuous
 62
     7
370
    15
100
AcDbEllipse
 10
165.0628510548
 20
164.511088088
 30
0.0
 11
14.75368316065624
 21
31.09325491558116
 31
0.0
210
0.0
220
0.0
230
1.0
 40
0.3419987131
 41
2.05168908381883
 42
2.982450450962507
  0
ARC
  5
200
330
1F
100
AcDbEntity
  8
0
  6
Continuous
 62
     7
370
    15
100
AcDbCircle
 10
150.7157408595
 20
101.5483528275
 30
0.0
 40
31.52623516927189
100
AcDbArc
 50
86.3628368575
 51
93.5924919873
  0
ARC
  5
201
330
1F
100
AcDbEntity
  8
0
  6
Continuous
 62
     7
370
    15
100
AcDbCircle
 10
205.7155848967
 20
227.4303687843
 30
0.0
 40
31.56216845528131
100
AcDbArc
 50
264.5459831306
 51
275.3864332858
  0
SPLINE
  5
202
330
1F
100
AcDbEntity
  8
0
  6
Continuous
 62
     7
370
    15
100
AcDbSpline
210
0.0
220
0.0
230
1.0
 70
     8
 71
     3
 72
    10
 73
     6
 74
     0
 42
0.00000001
 43
0.00000001
 12
1.0
 22
0.0
 32
0.0
 13
1.0
 23
0.0
 33
0.0
 40
0.0
 40
0.0
 40
0.0
 40
0.0
 40
0.5
 40
0.5
 40
1.0
 40
1.0
 40
1.0
 40
1.0
 10
254.3307571571482
 20
133.39671350079
 30
0.0
 10
252.7333276961264
 20
133.4183635978719
 30
0.0
 10
251.1502857371592
 20
133.4166839342392
 30
0.0
 10
248.0115634254883
 20
133.36957263884
 30
0.0
 10
246.4558837687553
 20
133.3240735794247
 30
0.0
 10
244.9145672218685
 20
133.2677683072048
 30
0.0
  0
ELLIPSE
  5
203
330
1F
100
AcDbEntity
  8
0
  6
Continuous
 62
     7
370
    15
100
AcDbEllipse
 10
243.9170360005
 20
164.511088088
 30
0.0
 11
109.8542030098188
 21
4.057533415168905
 31
0.0
210
0.0
220
0.0
230
1.0
 40
0.2843548944
 41
4.583219501809985
 42
4.710966666575047
  0
LWPOLYLINE
  5
204
330
1F
100
AcDbEntity
  8
0
  6
Continuous
 62
     7
370
    15
100
AcDbPolyline
 90
       13
 70
   128
 43
0.0
 10
215.4287149848
 20
183.9423624723
 10
214.9326404274
 20
185.7937553821
 10
214.4704213084
 20
187.5187678187
 10
214.0448143424
 20
189.1071589588
 10
213.6583452762
 20
190.5494945048
 10
213.3133014382
 20
191.837211877
 10
213.0117391885
 20
192.9626611917
 10
212.755439216
 20
193.9191630034
 10
212.5459437908
 20
194.7010343818
 10
212.3844748081
 20
195.3036354779
 10
212.2720008434
 20
195.7233844249
 10
212.209192449
 20
195.9577908663
 10
212.1949096859
 20
196.0110885946
  0
ELLIPSE
  5
205
330
1F
100
AcDbEntity
  8
0
  6
Continuous
 62
     7
370
    15
100
AcDbEllipse
 10
688.5007039954
 20
164.511088088
 30
0.0
 11
601.0558056634316
 21
0.0
 31
0.0
210
0.0
220
0.0
230
1.0
 40
0.0524077793
 41
2.476838275488563
 42
2.581273692695115
  0
SPLINE
  5
206
330
1F
100
AcDbEntity
  8
0
  6
Continuous
 62
     7
370
    15
100
AcDbSpline
210
0.0
220
0.0
230
1.0
 70
     8
 71
     3
 72
    54
 73
    50
 74
     0
 42
0.00000001
 43
0.00000001
 12
1.0
 22
0.0
 32
0.0
 13
1.0
 23
0.0
 33
0.0
 40
0.0
 40
0.0
 40
0.0
 40
0.0
 40
0.0625
 40
0.0625
 40
0.0937500000000002
 40
0.0937500000000002
 40
0.1250000000000003
 40
0.1250000000000003
 40
0.1875000000000008
 40
0.1875000000000008
 40
0.2187500000000009
 40
0.2187500000000009
 40
0.250000000000001
 40
0.250000000000001
 40
0.2812500000000011
 40
0.2812500000000011
 40
0.3125000000000012
 40
0.3125000000000012
 40
0.3750000000000013
 40
0.3750000000000013
 40
0.4375000000000014
 40
0.4375000000000014
 40
0.5000000000000016
 40
0.5000000000000016
 40
0.5312500000000017
 40
0.5312500000000017
 40
0.5625000000000018
 40
0.5625000000000018
 40
0.6250000000000018
 40
0.6250000000000018
 40
0.6562500000000018
 40
0.6562500000000018
 40
0.6875000000000018
 40
0.6875000000000018
 40
0.7500000000000018
 40
0.7500000000000018
 40
0.7812500000000018
 40
0.7812500000000018
 40
0.8125000000000016
 40
0.8125000000000016
 40
0.875000000000001
 40
0.875000000000001
 40
0.9062500000000008
 40
0.9062500000000008
 40
0.9375000000000006
 40
0.9375000000000006
 40
0.9687500000000003
 40
0.9687500000000003
 40
1.0
 40
1.0
 40
1.0
 40
1.0
 10
179.3549620030998
 20
181.2519650705384
 30
0.0
 10
178.3242992296133
 20
181.165871243034
 30
0.0
 10
177.325504370481
 20
180.9848729153435
 30
0.0
 10
175.872788306908
 20
180.5728960384446
 30
0.0
 10
175.3961973428936
 20
180.4119040366907
 30
0.0
 10
174.4586759273662
 20
180.0399860484212
 30
0.0
 10
174.0000102965478
 20
179.829550211954
 30
0.0
 10
172.6815061545151
 20
179.1378451196207
 30
0.0
 10
171.8674125530218
 20
178.5924021848181
 30
0.0
 10
170.7391441941535
 20
177.6428702709673
 30
0.0
 10
170.3775589010042
 20
177.30282581795
 30
0.0
 10
169.7002432775223
 20
176.5929793859164
 30
0.0
 10
169.3824958513519
 20
176.2217353289888
 30
0.0
 10
168.7860617585393
 20
175.4472737627162
 30
0.0
 10
168.5073803824887
 20
175.0440543888962
 30
0.0
 10
167.9872728310708
 20
174.205659680797
 30
0.0
 10
167.7448950086882
 20
173.7683137975593
 30
0.0
 10
167.0826404354687
 20
172.4299795687312
 30
0.0
 10
166.7241968444398
 20
171.5003187240396
 30
0.0
 10
166.1518891213966
 20
169.5702773799446
 30
0.0
 10
165.9381470675281
 20
168.5630671205942
 30
0.0
 10
165.6586053954025
 20
166.5456543949726
 30
0.0
 10
165.58985236976
 20
165.528610623182
 30
0.0
 10
165.5903850192725
 20
163.9906226822784
 30
0.0
 10
165.6082062757152
 20
163.4735170692732
 30
0.0
 10
165.6792346359115
 20
162.4480436545227
 30
0.0
 10
165.7321966986538
 20
161.9403135210781
 30
0.0
 10
165.943398598735
 20
160.4319061824515
 30
0.0
 10
166.1533000635708
 20
159.4458818734603
 30
0.0
 10
166.583295183729
 20
157.9976676333915
 30
0.0
 10
166.7470219776436
 20
157.517580098991
 30
0.0
 10
167.1115349545668
 20
156.5825001279321
 30
0.0
 10
167.3118194352734
 20
156.1280417470146
 30
0.0
 10
167.968704289165
 20
154.8036435521273
 30
0.0
 10
168.4807932605327
 20
153.972406327441
 30
0.0
 10
169.3770486198313
 20
152.8069638862153
 30
0.0
 10
169.6996035181353
 20
152.4298773744435
 30
0.0
 10
170.3779313288743
 20
151.71894994885
 30
0.0
 10
170.7336757105475
 20
151.3844700045378
 30
0.0
 10
171.8514318630608
 20
150.4421192946255
 30
0.0
 10
172.6635139851088
 20
149.8948129712918
 30
0.0
 10
173.9919801118493
 20
149.1963271763856
 30
0.0
 10
174.4504613406355
 20
148.9859128591702
 30
0.0
 10
175.3813798561707
 20
148.6156976474198
 30
0.0
 10
175.8562737919314
 20
148.4545608899387
 30
0.0
 10
176.8248870461465
 20
148.178696271551
 30
0.0
 10
177.3186031726196
 20
148.0639623894881
 30
0.0
 10
178.3254113372322
 20
147.8811870680533
 30
0.0
 10
178.8392298689531
 20
147.8132914946383
 30
0.0
 10
179.3549620030998
 20
147.7702111054577
 30
0.0
  0
ELLIPSE
  5
207
330
1F
100
AcDbEntity
  8
0
  6
Continuous
 62
     7
370
    15
100
AcDbEllipse
 10
688.5007039954
 20
164.511088088
 30
0.0
 11
601.0558056634316
 21
0.0
 31
0.0
210
0.0
220
0.0
230
1.0
 40
0.0524077793
 41
3.701911614484663
 42
3.862071306172039
  0
ELLIPSE
  5
208
330
1F
100
AcDbEntity
  8
0
  6
Continuous
 62
     7
370
    15
100
AcDbEllipse
 10
268.9941196212
 20
164.511088088
 30
0.0
 11
36.57764554599271
 21
13.28031858649979
 31
0.0
210
0.0
220
0.0
230
1.0
 40
0.7809050507
 41
3.426865077019124
 42
4.118514620025758
  0
ELLIPSE
  5
209
330
1F
100
AcDbEntity
  8
0
  6
Continuous
 62
     7
370
    15
100
AcDbEllipse
 10
268.8065264685
 20
164.511088088
 30
0.0
 11
15.94677769222073
 21
31.0366469890339
 31
0.0
210
0.0
220
0.0
230
1.0
 40
0.3375595124
 41
3.462649990877699
 42
3.471992107941672
  0
ELLIPSE
  5
20A
330
1F
100
AcDbEntity
  8
0
  6
Continuous
 62
     7
370
    15
100
AcDbEllipse
 10
266.662284296
 20
164.511088088
 30
0.0
 11
362.7709993338692
 21
-3.882156690642603
 31
0.0
210
0.0
220
0.0
230
1.0
 40
0.086169678
 41
4.679311987205085
 42
4.686620174528174
  0
LINE
  5
20B
330
1F
100
AcDbEntity
  8
0
  6
Continuous
 62
     7
370
    15
100
AcDbLine
 10
219.5241054238
 20
168.6581739148
 30
0.0
 11
215.4287149848
 21
183.9423624723
 31
0.0
  0
ARC
  5
20C
330
1F
100
AcDbEntity
  8
0
  6
Continuous
 62
     7
370
    15
100
AcDbCircle
 10
225.3196587933
 20
170.211088088
 30
0.0
 40
6.0
100
AcDbArc
 50
195.0
 51
270.0
  0
LINE
  5
20D
330
1F
100
AcDbEntity
  8
0
  6
Continuous
 62
     7
370
    15
100
AcDbLine
 10
240.9863372983
 20
164.2110880737
 30
0.0
 11
225.3196587504
 21
164.2110880737
 31
0.0
  0
LINE
  5
20E
330
1F
100
AcDbEntity
  8
0
  6
Continuous
 62
     7
370
    15
100
AcDbLine
 10
240.9863372983
 20
164.2110880737
 30
0.0
 11
236.8132596553
 21
143.7291370629
 31
0.0
  0
LINE
  5
20F
330
1F
100
AcDbEntity
  8
0
  6
Continuous
 62
     7
370
    15
100
AcDbLine
 10
138.5156968705
 20
147.7208862005
 30
0.0
 11
138.5156968705
 21
141.9712675659
 31
0.0
  0
SPLINE
  5
210
330
1F
100
AcDbEntity
  8
0
  6
Continuous
 62
     7
370
    15
100
AcDbSpline
210
0.0
220
0.0
230
1.0
 70
     8
 71
     3
 72
    16
 73
    12
 74
     0
 42
0.00000001
 43
0.00000001
 12
1.0
 22
0.0
 32
0.0
 13
1.0
 23
0.0
 33
0.0
 40
0.0
 40
0.0
 40
0.0
 40
0.0
 40
0.5000000000000057
 40
0.5000000000000057
 40
0.750000000000006
 40
0.750000000000006
 40
0.875000000000003
 40
0.875000000000003
 40
0.9375000000000016
 40
0.9375000000000016
 40
1.0
 40
1.0
 40
1.0
 40
1.0
 10
138.5156968654163
 20
147.7208867342569
 30
0.0
 10
138.5156968654163
 20
147.8007104452374
 30
0.0
 10
138.5115505903384
 20
147.8825665631215
 30
0.0
 10
138.4855849949448
 20
148.0113816842054
 30
0.0
 10
138.4741240895674
 20
148.056172355907
 30
0.0
 10
138.439812351793
 20
148.1223031636383
 30
0.0
 10
138.4257876158634
 20
148.1451502218414
 30
0.0
 10
138.3897646528296
 20
148.1715809750836
 30
0.0
 10
138.3750101437399
 20
148.1780086442258
 30
0.0
 10
138.3456579825931
 20
148.180969567381
 30
0.0
 10
138.332318108089
 20
148.1779881758729
 30
0.0
 10
138.3207199765407
 20
148.1732451881916
 30
0.0
  0
SPLINE
  5
211
330
1F
100
AcDbEntity
  8
0
  6
Continuous
 62
     7
370
    15
100
AcDbSpline
210
0.0
220
0.0
230
1.0
 70
     8
 71
     3
 72
    12
 73
     8
 74
     0
 42
0.00000001
 43
0.00000001
 12
1.0
 22
0.0
 32
0.0
 13
1.0
 23
0.0
 33
0.0
 40
0.0
 40
0.0
 40
0.0
 40
0.0
 40
0.25
 40
0.25
 40
0.5
 40
0.5
 40
1.0
 40
1.0
 40
1.0
 40
1.0
 10
138.3207199765477
 20
148.1732451881862
 30
0.0
 10
138.2905281348305
 20
148.1608984120917
 30
0.0
 10
138.2571691654159
 20
148.1504007256219
 30
0.0
 10
138.1840318808353
 20
148.1369796710427
 30
0.0
 10
138.1437900081813
 20
148.1343692597957
 30
0.0
 10
138.0260842312128
 20
148.1423397125378
 30
0.0
 10
137.9556737534334
 20
148.1674274701557
 30
0.0
 10
137.8991845789651
 20
148.196717112484
 30
0.0
  0
SPLINE
  5
212
330
1F
100
AcDbEntity
  8
0
  6
Continuous
 62
     7
370
    15
100
AcDbSpline
210
0.0
220
0.0
230
1.0
 70
     8
 71
     3
 72
    12
 73
     8
 74
     0
 42
0.00000001
 43
0.00000001
 12
1.0
 22
0.0
 32
0.0
 13
1.0
 23
0.0
 33
0.0
 40
0.0
 40
0.0
 40
0.0
 40
0.0
 40
0.2500000000000014
 40
0.2500000000000014
 40
0.5000000000000028
 40
0.5000000000000028
 40
1.0
 40
1.0
 40
1.0
 40
1.0
 10
137.8991845789648
 20
148.1967171124838
 30
0.0
 10
137.811030641227
 20
148.2424249375755
 30
0.0
 10
137.7506772165983
 20
148.2978421758948
 30
0.0
 10
137.6444152585315
 20
148.4161349029501
 30
0.0
 10
137.6021830919694
 20
148.477930018359
 30
0.0
 10
137.4911123966522
 20
148.6693506448739
 30
0.0
 10
137.4381756202255
 20
148.8050973097594
 30
0.0
 10
137.3943765218567
 20
148.9478868435731
 30
0.0
  0
SPLINE
  5
213
330
1F
100
AcDbEntity
  8
0
  6
Continuous
 62
     7
370
    15
100
AcDbSpline
210
0.0
220
0.0
230
1.0
 70
     8
 71
     3
 72
    12
 73
     8
 74
     0
 42
0.00000001
 43
0.00000001
 12
1.0
 22
0.0
 32
0.0
 13
1.0
 23
0.0
 33
0.0
 40
0.0
 40
0.0
 40
0.0
 40
0.0
 40
0.4999999999999991
 40
0.4999999999999991
 40
0.7499999999999996
 40
0.7499999999999996
 40
1.0
 40
1.0
 40
1.0
 40
1.0
 10
137.3943765218567
 20
157.9306042778967
 30
0.0
 10
137.4381230626932
 20
158.1697782049433
 30
0.0
 10
137.4910074179247
 20
158.4072210598592
 30
0.0
 10
137.6025745052609
 20
158.7560590962748
 30
0.0
 10
137.6451581018039
 20
158.8709680038853
 30
0.0
 10
137.7500748288857
 20
159.0908504487954
 30
0.0
 10
137.8116084367305
 20
159.1992113698097
 30
0.0
 10
137.8991845789566
 20
159.2862169574089
 30
0.0
  0
SPLINE
  5
214
330
1F
100
AcDbEntity
  8
0
  6
Continuous
 62
     7
370
    15
100
AcDbSpline
210
0.0
220
0.0
230
1.0
 70
     8
 71
     3
 72
    12
 73
     8
 74
     0
 42
0.00000001
 43
0.00000001
 12
1.0
 22
0.0
 32
0.0
 13
1.0
 23
0.0
 33
0.0
 40
0.0
 40
0.0
 40
0.0
 40
0.0
 40
0.4999999999999999
 40
0.4999999999999999
 40
0.75
 40
0.75
 40
1.0
 40
1.0
 40
1.0
 40
1.0
 10
137.8991845789598
 20
159.286216957409
 30
0.0
 10
137.955621079867
 20
159.3422857770508
 30
0.0
 10
138.0247057105558
 20
159.3893984558052
 30
0.0
 10
138.1435079822737
 20
159.4007189023011
 30
0.0
 10
138.1836932577438
 20
159.3937180118095
 30
0.0
 10
138.2570743051476
 20
159.3635067151507
 30
0.0
 10
138.2904838688902
 20
159.3409279047692
 30
0.0
 10
138.3207199765467
 20
159.314840583415
 30
0.0
  0
SPLINE
  5
215
330
1F
100
AcDbEntity
  8
0
  6
Continuous
 62
     7
370
    15
100
AcDbSpline
210
0.0
220
0.0
230
1.0
 70
     8
 71
     3
 72
    16
 73
    12
 74
     0
 42
0.00000001
 43
0.00000001
 12
1.0
 22
0.0
 32
0.0
 13
1.0
 23
0.0
 33
0.0
 40
0.0
 40
0.0
 40
0.0
 40
0.0
 40
0.0624999999999994
 40
0.0624999999999994
 40
0.1249999999999988
 40
0.1249999999999988
 40
0.2499999999999993
 40
0.2499999999999993
 40
0.4999999999999983
 40
0.4999999999999983
 40
1.0
 40
1.0
 40
1.0
 40
1.0
 10
138.3207199765095
 20
159.3148405833581
 30
0.0
 10
138.3323003840974
 20
159.3048491579483
 30
0.0
 10
138.3456099108587
 20
159.2965917515666
 30
0.0
 10
138.3749113409448
 20
159.2908424667544
 30
0.0
 10
138.3897254408291
 20
159.2944527654625
 30
0.0
 10
138.425553842532
 20
159.3173732247452
 30
0.0
 10
138.439673466895
 20
159.3431687329907
 30
0.0
 10
138.4741776109835
 20
159.4213237574098
 30
0.0
 10
138.4852821616881
 20
159.4774666001457
 30
0.0
 10
138.5114583389043
 20
159.6483726556795
 30
0.0
 10
138.5156968654163
 20
159.7655877482583
 30
0.0
 10
138.5156968654163
 20
159.8831523474801
 30
0.0
  0
LINE
  5
216
330
1F
100
AcDbEntity
  8
0
  6
Continuous
 62
     7
370
    15
100
AcDbLine
 10
138.5156968705
 20
185.9292255638
 30
0.0
 11
138.5156968705
 21
159.8831524996
 31
0.0
  0
SPLINE
  5
217
330
1F
100
AcDbEntity
  8
0
  6
Continuous
 62
     7
370
    15
100
AcDbSpline
210
0.0
220
0.0
230
1.0
 70
     8
 71
     3
 72
    16
 73
    12
 74
     0
 42
0.00000001
 43
0.00000001
 12
1.0
 22
0.0
 32
0.0
 13
1.0
 23
0.0
 33
0.0
 40
0.0
 40
0.0
 40
0.0
 40
0.0
 40
0.5000000000000012
 40
0.5000000000000012
 40
0.7500000000000018
 40
0.7500000000000018
 40
0.8750000000000014
 40
0.8750000000000014
 40
0.9375000000000008
 40
0.9375000000000008
 40
1.0
 40
1.0
 40
1.0
 40
1.0
 10
138.5156968654163
 20
185.9292251822572
 30
0.0
 10
138.5156968654163
 20
185.9664990231674
 30
0.0
 10
138.5115505903383
 20
186.000795115186
 30
0.0
 10
138.4855849949448
 20
186.0428933043223
 30
0.0
 10
138.4741240895675
 20
186.055806945887
 30
0.0
 10
138.4398123517931
 20
186.0675187966266
 30
0.0
 10
138.4257876158635
 20
186.0705322284827
 30
0.0
 10
138.3897646528297
 20
186.0672347657069
 30
0.0
 10
138.37501014374
 20
186.064413280719
 30
0.0
 10
138.3456579825931
 20
186.0557315397276
 30
0.0
 10
138.332318108089
 20
186.0504422221206
 30
0.0
 10
138.3207199765407
 20
186.0451784923949
 30
0.0
  0
SPLINE
  5
218
330
1F
100
AcDbEntity
  8
0
  6
Continuous
 62
     7
370
    15
100
AcDbSpline
210
0.0
220
0.0
230
1.0
 70
     8
 71
     3
 72
    12
 73
     8
 74
     0
 42
0.00000001
 43
0.00000001
 12
1.0
 22
0.0
 32
0.0
 13
1.0
 23
0.0
 33
0.0
 40
0.0
 40
0.0
 40
0.0
 40
0.0
 40
0.2499999999999998
 40
0.2499999999999998
 40
0.4999999999999999
 40
0.4999999999999999
 40
1.0
 40
1.0
 40
1.0
 40
1.0
 10
138.3207199765477
 20
186.0451784923899
 30
0.0
 10
138.2905215351071
 20
186.0314731439706
 30
0.0
 10
138.2571541797711
 20
186.0194255385201
 30
0.0
 10
138.1839989039412
 20
186.0026655502905
 30
0.0
 10
138.1437462049172
 20
185.9982566607495
 30
0.0
 10
138.0260174616424
 20
186.0011864258472
 30
0.0
 10
137.9555590135834
 20
186.0235531861029
 30
0.0
 10
137.8991845789652
 20
186.0503301941085
 30
0.0
  0
SPLINE
  5
219
330
1F
100
AcDbEntity
  8
0
  6
Continuous
 62
     7
370
    15
100
AcDbSpline
210
0.0
220
0.0
230
1.0
 70
     8
 71
     3
 72
    12
 73
     8
 74
     0
 42
0.00000001
 43
0.00000001
 12
1.0
 22
0.0
 32
0.0
 13
1.0
 23
0.0
 33
0.0
 40
0.0
 40
0.0
 40
0.0
 40
0.0
 40
0.4999999999999993
 40
0.4999999999999993
 40
0.7499999999999997
 40
0.7499999999999997
 40
1.0
 40
1.0
 40
1.0
 40
1.0
 10
137.3943765218567
 20
186.6547731425244
 30
0.0
 10
137.4381268737411
 20
186.5582089947659
 30
0.0
 10
137.4910170248656
 20
186.4565847315802
 30
0.0
 10
137.6026285680072
 20
186.2998302673972
 30
0.0
 10
137.6451879119108
 20
186.2469636977236
 30
0.0
 10
137.7501651472482
 20
186.1438075834093
 30
0.0
 10
137.8117323903428
 20
186.0918686675444
 30
0.0
 10
137.8991845789652
 20
186.0503301941085
 30
0.0
  0
LINE
  5
21A
330
1F
100
AcDbEntity
  8
0
  6
Continuous
 62
     7
370
    15
100
AcDbLine
 10
256.6641395629
 20
164.2110880737
 30
0.0
 11
256.5675725878
 21
162.2510881087
 31
0.0
  0
LINE
  5
21B
330
1F
100
AcDbEntity
  8
0
  6
Continuous
 62
     7
370
    15
100
AcDbLine
 10
256.0344388426
 20
159.7510881646
 30
0.0
 11
256.5675725878
 21
162.2510881087
 31
0.0
  0
LINE
  5
21C
330
1F
100
AcDbEntity
  8
0
  6
Continuous
 62
     7
370
    15
100
AcDbLine
 10
256.44440704
 20
159.7510881646
 30
0.0
 11
256.0344388426
 21
159.7510881646
 31
0.0
  0
LINE
  5
21D
330
1F
100
AcDbEntity
  8
0
  6
Continuous
 62
     7
370
    15
100
AcDbLine
 10
257.1211283744
 20
133.4067730157
 30
0.0
 11
267.0592492164
 21
159.7510881646
 31
0.0
  0
LINE
  5
21E
330
1F
100
AcDbEntity
  8
0
  6
Continuous
 62
     7
370
    15
100
AcDbLine
 10
256.6641395629
 20
164.2110880737
 30
0.0
 11
240.9863372983
 21
164.2110880737
 31
0.0
  0
SPLINE
  5
21F
330
1F
100
AcDbEntity
  8
0
  6
Continuous
 62
     7
370
    15
100
AcDbSpline
210
0.0
220
0.0
230
1.0
 70
     8
 71
     3
 72
    16
 73
    12
 74
     0
 42
0.00000001
 43
0.00000001
 12
1.0
 22
0.0
 32
0.0
 13
1.0
 23
0.0
 33
0.0
 40
0.0
 40
0.0
 40
0.0
 40
0.0
 40
0.2499999999999998
 40
0.2499999999999998
 40
0.3749999999999995
 40
0.3749999999999995
 40
0.4999999999999992
 40
0.4999999999999992
 40
0.7499999999999996
 40
0.7499999999999996
 40
1.0
 40
1.0
 40
1.0
 40
1.0
 10
137.3943765218567
 20
148.9478868435731
 30
0.0
 10
137.2331440443722
 20
149.4735211865861
 30
0.0
 10
137.1126642047326
 20
150.066352714145
 30
0.0
 10
136.9902836874193
 20
151.0561244052699
 30
0.0
 10
136.9593060270218
 20
151.4029280510942
 30
0.0
 10
136.9176922893938
 20
152.1319166503343
 30
0.0
 10
136.907456376461
 20
152.5071916024235
 30
0.0
 10
136.9072679794049
 20
153.6633916486435
 30
0.0
 10
136.9474126820425
 20
154.4747476614432
 30
0.0
 10
137.1115664369821
 20
156.1805919072311
 30
0.0
 10
137.2331180873916
 20
157.048961699928
 30
0.0
 10
137.3943765218567
 20
157.9306042778967
 30
0.0
  0
LINE
  5
220
330
1F
100
AcDbEntity
  8
0
  6
Continuous
 62
     7
370
    15
100
AcDbLine
 10
102.2156974019
 20
159.2862171045
 30
0.0
 11
102.2156974019
 21
185.4472046642
 31
0.0
  0
LINE
  5
221
330
1F
100
AcDbEntity
  8
0
  6
Continuous
 62
     7
370
    15
100
AcDbLine
 10
136.5156968773
 20
159.2862171045
 30
0.0
 11
136.5156968773
 21
186.1934883444
 31
0.0
  0
LINE
  5
222
330
1F
100
AcDbEntity
  8
0
  6
Continuous
 62
     7
370
    15
100
AcDbLine
 10
136.5156968773
 20
148.0535583495
 30
0.0
 11
136.5156968773
 21
159.2862171045
 31
0.0
  0
LINE
  5
223
330
1F
100
AcDbEntity
  8
0
  6
Continuous
 62
     7
370
    15
100
AcDbLine
 10
102.2156974019
 20
148.7998438923
 30
0.0
 11
102.2156974019
 21
159.2862171045
 31
0.0
  0
LINE
  5
224
330
1F
100
AcDbEntity
  8
0
  6
Continuous
 62
     7
370
    15
100
AcDbLine
 10
100.7156980873
 20
149.5498435496
 30
0.0
 11
100.7156980873
 21
159.2862171045
 31
0.0
  0
LINE
  5
225
330
1F
100
AcDbEntity
  8
0
  6
Continuous
 62
     7
370
    15
100
AcDbLine
 10
100.7156980873
 20
159.2862171045
 30
0.0
 11
100.7156980873
 21
184.6972031443
 31
0.0
  0
SPLINE
  5
226
330
1F
100
AcDbEntity
  8
0
  6
Continuous
 62
     7
370
    15
100
AcDbSpline
210
0.0
220
0.0
230
1.0
 70
     8
 71
     3
 72
     8
 73
     4
 74
     0
 42
0.00000001
 43
0.00000001
 12
1.0
 22
0.0
 32
0.0
 13
1.0
 23
0.0
 33
0.0
 40
0.0000249638557296
 40
0.0000249638557296
 40
0.0000249638557296
 40
0.0000249638557296
 40
0.0049776420541172
 40
0.0049776420541172
 40
0.0049776420541172
 40
0.0049776420541172
 10
102.2156968654163
 20
145.0140984747958
 30
0.0
 10
103.8656730999259
 20
144.9777492618579
 30
0.0
 10
105.5156744196709
 20
144.9413246757258
 30
0.0
 10
107.1656968654163
 20
144.9048247975149
 30
0.0
  0
LINE
  5
227
330
1F
100
AcDbEntity
  8
0
  6
Continuous
 62
     7
370
    15
100
AcDbLine
 10
102.2156974019
 20
145.0140977202
 30
0.0
 11
102.2156974019
 21
148.7998438923
 31
0.0
  0
LINE
  5
228
330
1F
100
AcDbEntity
  8
0
  6
Continuous
 62
     7
370
    15
100
AcDbLine
 10
136.5156968773
 20
143.8909897505
 30
0.0
 11
136.5156968773
 21
148.0535583495
 31
0.0
  0
SPLINE
  5
229
330
1F
100
AcDbEntity
  8
0
  6
Continuous
 62
     7
370
    15
100
AcDbSpline
210
0.0
220
0.0
230
1.0
 70
     8
 71
     3
 72
    11
 73
     7
 74
     0
 42
0.00000001
 43
0.00000001
 12
1.0
 22
0.0
 32
0.0
 13
1.0
 23
0.0
 33
0.0
 40
0.0
 40
0.0
 40
0.0
 40
0.0
 40
0.3219025833169185
 40
0.6486447978197779
 40
0.945700110112147
 40
1.0
 40
1.0
 40
1.0
 40
1.0
 10
107.1656955123909
 20
144.9048256425482
 30
0.0
 10
107.4674191285308
 20
144.848119152053
 30
0.0
 10
108.0754026121423
 20
144.7338536196572
 30
0.0
 10
108.7600013042867
 20
144.6273006927563
 30
0.0
 10
109.150047484997
 20
144.5722552040091
 30
0.0
 10
109.0701643540557
 20
144.5836523086169
 30
0.0
 10
109.0578188837536
 20
144.5854136644226
 30
0.0
  0
SPLINE
  5
22A
330
1F
100
AcDbEntity
  8
0
  6
Continuous
 62
     7
370
    15
100
AcDbSpline
210
0.0
220
0.0
230
1.0
 70
     8
 71
     3
 72
    17
 73
    13
 74
     0
 42
0.00000001
 43
0.00000001
 12
1.0
 22
0.0
 32
0.0
 13
1.0
 23
0.0
 33
0.0
 40
0.0
 40
0.0
 40
0.0
 40
0.0
 40
0.0814963198894112
 40
0.1776426501979228
 40
0.2779756612776855
 40
0.3853005089454375
 40
0.4989008095969844
 40
0.6154924751236023
 40
0.7315308020053202
 40
0.84389575367252
 40
0.949895873886425
 40
1.0
 40
1.0
 40
1.0
 40
1.0
 10
127.6361275182135
 20
144.117656901322
 30
0.0
 10
127.6180475085713
 20
144.1204144165887
 30
0.0
 10
127.5786373752941
 20
144.1264251459149
 30
0.0
 10
127.0076403517396
 20
144.2074659279491
 30
0.0
 10
126.0801513581331
 20
144.3190867243782
 30
0.0
 10
124.8151271539942
 20
144.4322240465652
 30
0.0
 10
123.3309498452089
 20
144.5042610489575
 30
0.0
 10
121.8042073908784
 20
144.5089331319937
 30
0.0
 10
120.444147345086
 20
144.4528650140807
 30
0.0
 10
119.4810634057569
 20
144.3800389649217
 30
0.0
 10
118.9970663697442
 20
144.3327967957943
 30
0.0
 10
119.029990127129
 20
144.3360098341728
 30
0.0
 10
119.0405575276382
 20
144.3370411096436
 30
0.0
  0
SPLINE
  5
22B
330
1F
100
AcDbEntity
  8
0
  6
Continuous
 62
     7
370
    15
100
AcDbSpline
210
0.0
220
0.0
230
1.0
 70
     8
 71
     3
 72
     8
 73
     4
 74
     0
 42
0.00000001
 43
0.00000001
 12
1.0
 22
0.0
 32
0.0
 13
1.0
 23
0.0
 33
0.0
 40
0.0
 40
0.0
 40
0.0
 40
0.0
 40
1.0
 40
1.0
 40
1.0
 40
1.0
 10
100.7156968654141
 20
145.7626087743537
 30
0.0
 10
101.1824574767919
 20
145.5330792819697
 30
0.0
 10
101.6882050235719
 20
145.2811485068783
 30
0.0
 10
102.2156968654163
 20
145.0140984747958
 30
0.0
  0
LINE
  5
22C
330
1F
100
AcDbEntity
  8
0
  6
Continuous
 62
     7
370
    15
100
AcDbLine
 10
100.7156980873
 20
145.762609124
 30
0.0
 11
100.7156980873
 21
149.5498435496
 31
0.0
  0
LINE
  5
22D
330
1F
100
AcDbEntity
  8
0
  6
Continuous
 62
     7
370
    15
100
AcDbLine
 10
136.5156968773
 20
187.931187257
 30
0.0
 11
136.5156968773
 21
186.1934883444
 31
0.0
  0
LINE
  5
22E
330
1F
100
AcDbEntity
  8
0
  6
Continuous
 62
     7
370
    15
100
AcDbLine
 10
102.2156974019
 20
187.0694512425
 30
0.0
 11
102.2156974019
 21
185.4472046642
 31
0.0
  0
SPLINE
  5
22F
330
1F
100
AcDbEntity
  8
0
  6
Continuous
 62
     7
370
    15
100
AcDbSpline
210
0.0
220
0.0
230
1.0
 70
     8
 71
     3
 72
    10
 73
     6
 74
     0
 42
0.00000001
 43
0.00000001
 12
1.0
 22
0.0
 32
0.0
 13
1.0
 23
0.0
 33
0.0
 40
0.0
 40
0.0
 40
0.0
 40
0.0
 40
0.1209913211536928
 40
0.5024127976154565
 40
1.0
 40
1.0
 40
1.0
 40
1.0
 10
136.9222878661968
 20
187.7074127940756
 30
0.0
 10
136.9182605660952
 20
187.7164961756297
 30
0.0
 10
136.9015373243655
 20
187.7542146424987
 30
0.0
 10
137.0199285148832
 20
187.4862706940342
 30
0.0
 10
137.2590277928775
 20
186.9553275079079
 30
0.0
 10
137.3943765598379
 20
186.6547724156004
 30
0.0
  0
LINE
  5
230
330
1F
100
AcDbEntity
  8
0
  6
Continuous
 62
     7
370
    15
100
AcDbLine
 10
100.7156980873
 20
186.2034255563
 30
0.0
 11
100.7156980873
 21
184.6972031443
 31
0.0
  0
LINE
  5
231
330
1F
100
AcDbEntity
  8
VERMASSUNG
  6
CENTERX2
370
     0
100
AcDbLine
 10
97.1976060533
 20
164.511088088
 30
0.0
 11
272.6545697612
 21
164.511088088
 31
0.0
  0
LINE
  5
232
330
1F
100
AcDbEntity
  8
0
  6
Continuous
 62
     7
370
    15
100
AcDbLine
 10
40.0359267334
 20
91.0704836079
 30
0.0
 11
39.7764697518
 21
90.6210908961
 31
0.0
  0
LINE
  5
233
330
1F
100
AcDbEntity
  8
0
  6
Continuous
 62
     7
370
    15
100
AcDbLine
 10
39.7764697518
 20
83.1679251805
 30
0.0
 11
40.0359267334
 21
82.718532236
 31
0.0
  0
SPLINE
  5
234
330
1F
100
AcDbEntity
  8
0
  6
Continuous
 62
     7
370
    15
100
AcDbSpline
210
0.0
220
0.0
230
1.0
 70
     8
 71
     3
 72
    10
 73
     6
 74
     0
 42
0.00000001
 43
0.00000001
 12
1.0
 22
0.0
 32
0.0
 13
1.0
 23
0.0
 33
0.0
 40
0.0
 40
0.0
 40
0.0
 40
0.0
 40
0.2764503143103396
 40
0.5590974008892566
 40
1.0
 40
1.0
 40
1.0
 40
1.0
 10
44.53646967534416
 20
92.00921491175718
 30
0.0
 10
44.10911657031633
 20
92.05797198268534
 30
0.0
 10
43.24483102635132
 20
92.15657903870878
 30
0.0
 10
41.62550838697857
 20
92.09637845501182
 30
0.0
 10
40.47658082620723
 20
92.1352348932166
 30
0.0
 10
39.77646975193981
 20
92.1589124718757
 30
0.0
  0
SPLINE
  5
235
330
1F
100
AcDbEntity
  8
0
  6
Continuous
 62
     7
370
    15
100
AcDbSpline
210
0.0
220
0.0
230
1.0
 70
    24
 71
     3
 72
    15
 73
    11
 74
     0
 42
0.00000001
 43
0.00000001
 12
1.0
 22
0.0
 32
0.0
 13
1.0
 23
0.0
 33
0.0
 40
0.0
 40
0.0
 40
0.0
 40
0.0
 40
0.1411616940003671
 40
0.2818358150969913
 40
0.416969349675896
 40
0.546138267868741
 40
0.6723570438740538
 40
0.7999902606069381
 40
0.9323923478146579
 40
1.0
 40
1.0
 40
1.0
 40
1.0
 10
39.77646975193613
 20
92.1589124718757
 30
0.0
 10
39.77646975193598
 20
92.19267603082251
 30
0.0
 10
39.77646975193568
 20
92.26008652928482
 30
0.0
 10
39.7764697519379
 20
92.39422982898941
 30
0.0
 10
39.77646975192988
 20
92.53096280303049
 30
0.0
 10
39.77646975193431
 20
92.65554970686064
 30
0.0
 10
39.77646975193662
 20
92.75584419485187
 30
0.0
 10
39.77646975193598
 20
92.82414357080627
 30
0.0
 10
39.77646975193615
 20
92.85084760265077
 30
0.0
 10
39.77646975193613
 20
92.84824069754913
 30
0.0
 10
39.77646975193613
 20
92.84735950679347
 30
0.0
  0
SPLINE
  5
236
330
1F
100
AcDbEntity
  8
0
  6
Continuous
 62
     7
370
    15
100
AcDbSpline
210
0.0
220
0.0
230
1.0
 70
     8
 71
     3
 72
    11
 73
     7
 74
     0
 42
0.00000001
 43
0.00000001
 12
1.0
 22
0.0
 32
0.0
 13
1.0
 23
0.0
 33
0.0
 40
0.0
 40
0.0
 40
0.0
 40
0.0
 40
0.278991613510974
 40
0.5625822686453683
 40
0.7832768672452455
 40
1.0
 40
1.0
 40
1.0
 40
1.0
 10
39.77646975193981
 20
92.84735950679347
 30
0.0
 10
40.21765250245038
 20
92.78462031030064
 30
0.0
 10
41.10729068743363
 20
92.65810769204757
 30
0.0
 10
42.37093606071888
 20
92.4933172354309
 30
0.0
 10
43.53063974000548
 20
92.33694246009198
 30
0.0
 10
44.20322858528949
 20
92.23475506569125
 30
0.0
 10
44.53646967534416
 20
92.18412526571952
 30
0.0
  0
SPLINE
  5
237
330
1F
100
AcDbEntity
  8
0
  6
Continuous
 62
     7
370
    15
100
AcDbSpline
210
0.0
220
0.0
230
1.0
 70
    24
 71
     3
 72
    15
 73
    11
 74
     0
 42
0.00000001
 43
0.00000001
 12
1.0
 22
0.0
 32
0.0
 13
1.0
 23
0.0
 33
0.0
 40
0.0
 40
0.0
 40
0.0
 40
0.0
 40
0.1437305378718301
 40
0.2878286826803035
 40
0.4234979777526836
 40
0.54972666401357
 40
0.6719015217771076
 40
0.7962350889464664
 40
0.9276381778770173
 40
1.0
 40
1.0
 40
1.0
 40
1.0
 10
44.53646967534416
 20
92.18412526571952
 30
0.0
 10
44.53646967534416
 20
92.18405061424909
 30
0.0
 10
44.53646967534416
 20
92.18390112037874
 30
0.0
 10
44.53646967534416
 20
92.16833499251653
 30
0.0
 10
44.53646967534416
 20
92.14365819947051
 30
0.0
 10
44.53646967534416
 20
92.11332316687393
 30
0.0
 10
44.53646967534416
 20
92.08116146594817
 30
0.0
 10
44.53646967534416
 20
92.04952527829076
 30
0.0
 10
44.53646967534416
 20
92.02519032575957
 30
0.0
 10
44.53646967534416
 20
92.01340143166811
 30
0.0
 10
44.53646967534416
 20
92.00921491175718
 30
0.0
  0
LINE
  5
238
330
1F
100
AcDbEntity
  8
0
  6
Continuous
 62
     7
370
    15
100
AcDbLine
 10
44.5364696753
 20
82.8672905282
 30
0.0
 11
44.5364696753
 21
92.0092149118
 31
0.0
  0
SPLINE
  5
239
330
1F
100
AcDbEntity
  8
0
  6
Continuous
 62
     7
370
    15
100
AcDbSpline
210
0.0
220
0.0
230
1.0
 70
     8
 71
     3
 72
     9
 73
     5
 74
     0
 42
0.00000001
 43
0.00000001
 12
1.0
 22
0.0
 32
0.0
 13
1.0
 23
0.0
 33
0.0
 40
0.0
 40
0.0
 40
0.0
 40
0.0
 40
0.560011579604312
 40
1.0
 40
1.0
 40
1.0
 40
1.0
 10
39.7764697519383
 20
82.36146874880247
 30
0.0
 10
40.66505073365198
 20
82.45489273853734
 30
0.0
 10
42.25176967675228
 20
82.6217178420484
 30
0.0
 10
43.83837965654925
 20
82.79225580099734
 30
0.0
 10
44.53646967534416
 20
82.86729052817277
 30
0.0
  0
LINE
  5
23A
330
1F
100
AcDbEntity
  8
0
  6
Continuous
 62
     7
370
    15
100
AcDbLine
 10
39.7764697519
 20
82.3614687488
 30
0.0
 11
39.7764697519
 21
92.1589124719
 31
0.0
  0
LINE
  5
23B
330
1F
100
AcDbEntity
  8
0
  6
Continuous
 62
     7
370
    15
100
AcDbLine
 10
39.9958628515
 20
91.1205255488
 30
0.0
 11
39.7764697519
 21
91.4990795373
 31
0.0
  0
LINE
  5
23C
330
1F
100
AcDbEntity
  8
0
  6
Continuous
 62
     7
370
    15
100
AcDbLine
 10
40.0308885693
 20
91.0617572317
 30
0.0
 11
39.9958628515
 21
91.1205255488
 31
0.0
  0
SPLINE
  5
23D
330
1F
100
AcDbEntity
  8
0
  6
Continuous
 62
     7
370
    15
100
AcDbSpline
210
0.0
220
0.0
230
1.0
 70
     8
 71
     3
 72
     9
 73
     5
 74
     0
 42
0.00000001
 43
0.00000001
 12
1.0
 22
0.0
 32
0.0
 13
1.0
 23
0.0
 33
0.0
 40
0.0
 40
0.0
 40
0.0
 40
0.0
 40
0.5600108070560769
 40
1.0
 40
1.0
 40
1.0
 40
1.0
 10
44.53646967534416
 20
82.8444470480626
 30
0.0
 10
43.64789159661147
 20
82.73710151256452
 30
0.0
 10
42.06117564838922
 20
82.54541675551066
 30
0.0
 10
40.47456242403575
 20
82.35421953785239
 30
0.0
 10
39.7764697519383
 20
82.27009482836179
 30
0.0
  0
SPLINE
  5
23E
330
1F
100
AcDbEntity
  8
0
  6
Continuous
 62
     7
370
    15
100
AcDbSpline
210
0.0
220
0.0
230
1.0
 70
    24
 71
     3
 72
    10
 73
     6
 74
     0
 42
0.00000001
 43
0.00000001
 12
1.0
 22
0.0
 32
0.0
 13
1.0
 23
0.0
 33
0.0
 40
0.0
 40
0.0
 40
0.0
 40
0.0
 40
0.4165463398500279
 40
0.7036688565789572
 40
0.9999999999999999
 40
0.9999999999999999
 40
0.9999999999999999
 40
0.9999999999999999
 10
44.53646967534416
 20
82.86729052817277
 30
0.0
 10
44.53646967534416
 20
82.86235873063086
 30
0.0
 10
44.53646967534416
 20
82.85402747908644
 30
0.0
 10
44.53646967534416
 20
82.84695589424699
 30
0.0
 10
44.53646967534416
 20
82.84529208341155
 30
0.0
 10
44.53646967534416
 20
82.8444470480626
 30
0.0
  0
SPLINE
  5
23F
330
1F
100
AcDbEntity
  8
0
  6
Continuous
 62
     7
370
    15
100
AcDbSpline
210
0.0
220
0.0
230
1.0
 70
    24
 71
     3
 72
    10
 73
     6
 74
     0
 42
0.00000001
 43
0.00000001
 12
1.0
 22
0.0
 32
0.0
 13
1.0
 23
0.0
 33
0.0
 40
0.0
 40
0.0
 40
0.0
 40
0.0
 40
0.2724824594365624
 40
0.54475588463671
 40
1.0
 40
1.0
 40
1.0
 40
1.0
 10
39.77646975193613
 20
82.27009482836179
 30
0.0
 10
39.77646975193613
 20
82.2731101229186
 30
0.0
 10
39.77646975193613
 20
82.27913839885649
 30
0.0
 10
39.77646975193612
 20
82.30585968847741
 30
0.0
 10
39.77646975193613
 20
82.34006486125928
 30
0.0
 10
39.77646975193613
 20
82.36146874880247
 30
0.0
  0
LINE
  5
240
330
1F
100
AcDbEntity
  8
0
  6
Continuous
 62
     7
370
    15
100
AcDbLine
 10
39.7764697519
 20
80.9416563079
 30
0.0
 11
40.0764697662
 21
80.9837241486
 31
0.0
  0
LINE
  5
241
330
1F
100
AcDbEntity
  8
0
  6
Continuous
 62
     7
370
    15
100
AcDbLine
 10
44.5364696753
 20
82.8318648801
 30
0.0
 11
44.5364696753
 21
82.8444470481
 31
0.0
  0
LINE
  5
242
330
1F
100
AcDbEntity
  8
0
  6
Continuous
 62
     7
370
    15
100
AcDbLine
 10
39.7764697519
 20
80.9416563079
 30
0.0
 11
39.7764697519
 21
82.2700948284
 31
0.0
  0
LINE
  5
243
330
1F
100
AcDbEntity
  8
0
  6
Continuous
 62
     7
370
    15
100
AcDbLine
 10
40.0362773763
 20
83.3745549262
 30
0.0
 11
40.0608964811
 21
83.4400157273
 31
0.0
  0
LINE
  5
244
330
1F
100
AcDbEntity
  8
0
  6
Continuous
 62
     7
370
    15
100
AcDbLine
 10
40.0362773763
 20
83.3745549262
 30
0.0
 11
39.7764697518
 21
83.8228423909
 31
0.0
  0
LINE
  5
245
330
1F
100
AcDbEntity
  8
0
  6
Continuous
 62
     7
370
    15
100
AcDbLine
 10
40.0362773763
 20
82.7234430999
 30
0.0
 11
39.7764697518
 21
83.1717305646
 31
0.0
  0
LINE
  5
246
330
1F
100
AcDbEntity
  8
0
  6
Continuous
 62
     7
370
    15
100
AcDbLine
 10
39.9958628515
 20
81.3427145422
 30
0.0
 11
39.7764697518
 21
81.6338115201
 31
0.0
  0
LINE
  5
247
330
1F
100
AcDbEntity
  8
0
  6
Continuous
 62
     7
370
    15
100
AcDbLine
 10
39.9958628515
 20
91.1205255488
 30
0.0
 11
39.7764697518
 21
91.4116224103
 31
0.0
  0
LINE
  5
248
330
1F
100
AcDbEntity
  8
0
  6
Continuous
 62
     7
370
    15
100
AcDbLine
 10
40.0764697662
 20
69.1461411134
 30
0.0
 11
60.5584207771
 21
68.9274386332
 31
0.0
  0
LINE
  5
249
330
1F
100
AcDbEntity
  8
0
  6
Continuous
 62
     7
370
    15
100
AcDbLine
 10
40.0764697662
 20
82.301378885
 30
0.0
 11
40.0764697662
 21
69.1461411134
 31
0.0
  0
LINE
  5
24A
330
1F
100
AcDbEntity
  8
0
  6
Continuous
 62
     7
370
    15
100
AcDbLine
 10
44.5364696753
 20
82.4878641233
 30
0.0
 11
42.0364697312
 21
82.5345075518
 31
0.0
  0
LINE
  5
24B
330
1F
100
AcDbEntity
  8
0
  6
Continuous
 62
     7
370
    15
100
AcDbLine
 10
44.5364696753
 20
82.8672905282
 30
0.0
 11
44.5364696753
 21
82.8508284703
 31
0.0
  0
LINE
  5
24C
330
1F
100
AcDbEntity
  8
0
  6
Continuous
 62
     7
370
    15
100
AcDbLine
 10
44.5364696753
 20
82.8318648801
 30
0.0
 11
44.5364696753
 21
82.4878641233
 31
0.0
  0
LINE
  5
24D
330
1F
100
AcDbEntity
  8
0
  6
Continuous
 62
     7
370
    15
100
AcDbLine
 10
70.8807848242
 20
87.6222738825
 30
0.0
 11
44.5364696753
 21
91.7387778118
 31
0.0
  0
ARC
  5
24E
330
1F
100
AcDbEntity
  8
0
  6
Continuous
 62
     7
370
    15
100
AcDbCircle
 10
39.7764697519
 20
92.599374877
 30
0.0
 40
31.5
100
AcDbArc
 50
311.2803860222
 51
350.9089857387
  0
LINE
  5
24F
330
1F
100
AcDbEntity
  8
0
  6
Continuous
 62
     7
370
    15
100
AcDbLine
 10
44.5364696753
 20
92.0366242008
 30
0.0
 11
70.9259241668
 21
87.9130667836
 31
0.0
  0
ARC
  5
250
330
1F
100
AcDbEntity
  8
0
  6
Continuous
 62
     7
370
    15
100
AcDbCircle
 10
39.7764697519
 20
92.599374877
 30
0.0
 40
31.5
100
AcDbArc
 50
350.9089857387
 51
351.4442496181
  0
SPLINE
  5
251
330
1F
100
AcDbEntity
  8
0
  6
Continuous
 62
     7
370
    15
100
AcDbSpline
210
0.0
220
0.0
230
1.0
 70
     8
 71
     3
 72
     9
 73
     5
 74
     0
 42
0.00000001
 43
0.00000001
 12
1.0
 22
0.0
 32
0.0
 13
1.0
 23
0.0
 33
0.0
 40
0.0
 40
0.0
 40
0.0
 40
0.0
 40
0.2662499874336848
 40
1.0
 40
1.0
 40
1.0
 40
1.0
 10
70.92562428091162
 20
87.91311381539158
 30
0.0
 10
70.93136995571734
 20
87.94989398404184
 30
0.0
 10
70.95294995600625
 20
88.08803546906032
 30
0.0
 10
70.99150242893502
 20
88.37541236690367
 30
0.0
 10
71.01979030643099
 20
88.58627516930751
 30
0.0
  0
LINE
  5
252
330
1F
100
AcDbEntity
  8
0
  6
Continuous
 62
     7
370
    15
100
AcDbLine
 10
68.0090106872
 20
106.5698300317
 30
0.0
 11
39.7764697519
 21
110.0231592373
 31
0.0
  0
ELLIPSE
  5
253
330
1F
100
AcDbEntity
  8
0
  6
Continuous
 62
     7
370
    15
100
AcDbEllipse
 10
34.0764697519
 20
98.6491230754
 30
0.0
 11
5.995911462121008
 21
-0.7788250845125048
 31
0.0
210
0.0
220
0.0
230
1.0
 40
0.2843548944
 41
0.0369188402700984
 42
0.3544792695616139
  0
LINE
  5
254
330
1F
100
AcDbEntity
  8
0
  6
Continuous
 62
     7
370
    15
100
AcDbLine
 10
39.7764697519
 20
98.5105169766
 30
0.0
 11
39.7764697519
 21
110.0231592373
 31
0.0
  0
LINE
  5
255
330
1F
100
AcDbEntity
  8
0
  6
Continuous
 62
     7
370
    15
100
AcDbLine
 10
40.0764697662
 20
97.9337596164
 30
0.0
 11
40.0764697662
 21
92.8052923646
 31
0.0
  0
ARC
  5
256
330
1F
100
AcDbEntity
  8
0
  6
Continuous
 62
     7
370
    15
100
AcDbCircle
 10
39.7764697519
 20
92.599374877
 30
0.0
 40
31.50000000000001
100
AcDbArc
 50
352.6806266142
 51
26.3278260327
  0
LINE
  5
257
330
1F
100
AcDbEntity
  8
0
  6
Continuous
 62
     7
370
    15
100
AcDbLine
 10
35.6293839251
 20
68.0213530377
 30
0.0
 11
20.3451953677
 21
67.8067222998
 31
0.0
  0
ELLIPSE
  5
258
330
1F
100
AcDbEntity
  8
0
  6
Continuous
 62
     7
370
    15
100
AcDbEllipse
 10
34.0764697519
 20
68.3250848919
 30
0.0
 11
6.0
 21
0.0
 31
0.0
210
0.0
220
0.0
230
1.0
 40
0.0524077793
 41
4.974188368183859
 42
6.283185307179586
  0
LINE
  5
259
330
1F
100
AcDbEntity
  8
0
  6
Continuous
 62
     7
370
    15
100
AcDbLine
 10
56.5173469332
 20
65.9161765889
 30
0.0
 11
23.0355925706
 21
65.9161765889
 31
0.0
  0
LINE
  5
25A
330
1F
100
AcDbEntity
  8
0
  6
Continuous
 62
     7
370
    15
100
AcDbLine
 10
40.0764697662
 20
69.1461411134
 30
0.0
 11
40.0764697662
 21
68.325085269
 31
0.0
  0
ARC
  5
25B
330
1F
100
AcDbEntity
  8
0
  6
Continuous
 62
     7
370
    15
100
AcDbCircle
 10
39.7764697519
 20
92.599374877
 30
0.0
 40
31.49999999999999
100
AcDbArc
 50
231.912379722
 51
237.8960883596
  0
ARC
  5
25C
330
1F
100
AcDbEntity
  8
0
  6
Continuous
 62
     7
370
    15
100
AcDbCircle
 10
39.7764697519
 20
92.599374877
 30
0.0
 40
31.5
100
AcDbArc
 50
302.1039116404
 51
311.2803860222
  0
LINE
  5
25D
330
1F
100
AcDbEntity
  8
0
  6
Continuous
 62
     7
370
    15
100
AcDbLine
 10
35.6293839251
 20
68.0213530377
 30
0.0
 11
35.6293839251
 21
99.1485991344
 31
0.0
  0
ELLIPSE
  5
25E
330
1F
100
AcDbEntity
  8
0
  6
Continuous
 62
     7
370
    15
100
AcDbEllipse
 10
34.0764697519
 20
97.2899328483
 30
0.0
 11
5.995911462121008
 21
0.7788250845124907
 31
0.0
210
0.0
220
0.0
230
1.0
 40
0.2843548944
 41
0.2806415890214313
 42
1.272078098725655
  0
LINE
  5
25F
330
1F
100
AcDbEntity
  8
0
  6
Continuous
 62
     7
370
    15
100
AcDbLine
 10
11.5439288167
 20
106.5698300317
 30
0.0
 11
39.7764697519
 21
110.0231592373
 31
0.0
  0
LINE
  5
260
330
1F
100
AcDbEntity
  8
0
  6
Continuous
 62
     7
370
    15
100
AcDbLine
 10
35.6293839251
 20
99.1485991344
 30
0.0
 11
8.7469771353
 21
98.0234473773
 31
0.0
  0
ARC
  5
261
330
1F
100
AcDbEntity
  8
0
  6
Continuous
 62
     7
370
    15
100
AcDbCircle
 10
39.7764697519
 20
92.599374877
 30
0.0
 40
31.50000000000001
100
AcDbArc
 50
153.6721739673
 51
170.08466379
  0
ELLIPSE
  5
262
330
1F
100
AcDbEntity
  8
0
  6
Continuous
 62
     7
370
    15
100
AcDbEllipse
 10
29.8124051726
 20
92.599374877
 30
0.0
 11
2.664453070207379
 21
0.0
 31
0.0
210
0.0
220
0.0
230
1.0
 40
0.938278864
 41
0.0
 42
6.283185307179586
  0
ARC
  5
263
330
1F
100
AcDbEntity
  8
0
  6
Continuous
 62
     7
370
    15
100
AcDbCircle
 10
39.7764697519
 20
92.599374877
 30
0.0
 40
31.49999999999999
100
AcDbArc
 50
170.08466379
 51
231.912379722
  0
ELLIPSE
  5
264
330
1F
100
AcDbEntity
  8
0
  6
Continuous
 62
     7
370
    15
100
AcDbEllipse
 10
27.6524433554
 20
92.599374877
 30
0.0
 11
2.979383981485505
 21
0.0
 31
0.0
210
0.0
220
0.0
230
1.0
 40
0.8390996312
 41
5.105118533251625
 42
7.461252081107561
  0
LINE
  5
265
330
1F
100
AcDbEntity
  8
0
  6
Continuous
 62
     7
370
    15
100
AcDbLine
 10
39.7764697519
 20
110.0231592373
 30
0.0
 11
39.7764697519
 21
124.0993753836
 31
0.0
  0
SPLINE
  5
266
330
1F
100
AcDbEntity
  8
0
  6
Continuous
 62
     7
370
    15
100
AcDbSpline
210
0.0
220
0.0
230
1.0
 70
     8
 71
     3
 72
    38
 73
    34
 74
     0
 42
0.00000001
 43
0.00000001
 12
1.0
 22
0.0
 32
0.0
 13
1.0
 23
0.0
 33
0.0
 40
0.0
 40
0.0
 40
0.0
 40
0.0
 40
0.1250000000000007
 40
0.1250000000000007
 40
0.1562500000000008
 40
0.1562500000000008
 40
0.1875000000000009
 40
0.1875000000000009
 40
0.2500000000000005
 40
0.2500000000000005
 40
0.3125000000000002
 40
0.3125000000000002
 40
0.3749999999999998
 40
0.3749999999999998
 40
0.4999999999999989
 40
0.4999999999999989
 40
0.5312499999999988
 40
0.5312499999999988
 40
0.5624999999999988
 40
0.5624999999999988
 40
0.6249999999999989
 40
0.6249999999999989
 40
0.687499999999999
 40
0.687499999999999
 40
0.718749999999999
 40
0.718749999999999
 40
0.7499999999999991
 40
0.7499999999999991
 40
0.8749999999999996
 40
0.8749999999999996
 40
0.9374999999999998
 40
0.9374999999999998
 40
1.0
 40
1.0
 40
1.0
 40
1.0
 10
68.00901080480045
 20
106.569830334769
 30
0.0
 10
67.75681889035498
 20
107.0794786135449
 30
0.0
 10
67.40966961347344
 20
107.7497331518029
 30
0.0
 10
66.81661431762011
 20
108.7590592804367
 30
0.0
 10
66.68991353969855
 20
108.969555595859
 30
0.0
 10
66.41876357660381
 20
109.4072436605549
 30
0.0
 10
66.27379591498189
 20
109.635198427267
 30
0.0
 10
65.81571643613223
 20
110.3340286212715
 30
0.0
 10
65.47851903479102
 20
110.8215305292402
 30
0.0
 10
64.73384592516055
 20
111.8288228280173
 30
0.0
 10
64.32637069176096
 20
112.3486392585407
 30
0.0
 10
63.4332793738631
 20
113.4101037993383
 30
0.0
 10
62.94430534076513
 20
113.9549375428871
 30
0.0
 10
61.38586516367616
 20
115.5671497046429
 30
0.0
 10
60.21971271860355
 20
116.6202881581334
 30
0.0
 10
58.59446489740253
 20
117.8639862399257
 30
0.0
 10
58.26017964150879
 20
118.1096657414049
 30
0.0
 10
57.58121571249784
 20
118.5880934400277
 30
0.0
 10
57.23603882290511
 20
118.8212738833796
 30
0.0
 10
56.18367990915701
 20
119.5020069683068
 30
0.0
 10
55.45969815269066
 20
119.9307557755739
 30
0.0
 10
53.96761781317622
 20
120.7343948982667
 30
0.0
 10
53.19952378666281
 20
121.1093006227998
 30
0.0
 10
52.01410034227742
 20
121.6282649512968
 30
0.0
 10
51.61295276093601
 20
121.7941458665805
 30
0.0
 10
50.80710256609892
 20
122.1080536491086
 30
0.0
 10
50.40151579950518
 20
122.2564923260945
 30
0.0
 10
48.3605060931028
 20
122.9563151470144
 30
0.0
 10
46.68621124532087
 20
123.3813705335726
 30
0.0
 10
44.1127096733661
 20
123.8116075649875
 30
0.0
 10
43.24052832593455
 20
123.9204276917908
 30
0.0
 10
41.5051306962059
 20
124.0639546862197
 30
0.0
 10
40.63967170687306
 20
124.0993748769706
 30
0.0
 10
39.77646975193628
 20
124.0993748769706
 30
0.0
  0
SPLINE
  5
267
330
1F
100
AcDbEntity
  8
0
  6
Continuous
 62
     7
370
    15
100
AcDbSpline
210
0.0
220
0.0
230
1.0
 70
     8
 71
     3
 72
    38
 73
    34
 74
     0
 42
0.00000001
 43
0.00000001
 12
1.0
 22
0.0
 32
0.0
 13
1.0
 23
0.0
 33
0.0
 40
0.0
 40
0.0
 40
0.0
 40
0.0
 40
0.1249999999999992
 40
0.1249999999999992
 40
0.1562499999999994
 40
0.1562499999999994
 40
0.1874999999999996
 40
0.1874999999999996
 40
0.2499999999999996
 40
0.2499999999999996
 40
0.3124999999999996
 40
0.3124999999999996
 40
0.3749999999999996
 40
0.3749999999999996
 40
0.4999999999999994
 40
0.4999999999999994
 40
0.5312499999999993
 40
0.5312499999999993
 40
0.5624999999999992
 40
0.5624999999999992
 40
0.6249999999999994
 40
0.6249999999999994
 40
0.6874999999999996
 40
0.6874999999999996
 40
0.7187499999999997
 40
0.7187499999999997
 40
0.7499999999999997
 40
0.7499999999999997
 40
0.8749999999999999
 40
0.8749999999999999
 40
0.9374999999999999
 40
0.9374999999999999
 40
1.0
 40
1.0
 40
1.0
 40
1.0
 10
11.54392869907179
 20
106.569830334769
 30
0.0
 10
11.79612061351726
 20
107.0794786135449
 30
0.0
 10
12.14326989039882
 20
107.7497331518029
 30
0.0
 10
12.73632518625216
 20
108.7590592804367
 30
0.0
 10
12.86302596417372
 20
108.9695555958591
 30
0.0
 10
13.13417592726846
 20
109.407243660555
 30
0.0
 10
13.27914358889038
 20
109.6351984272671
 30
0.0
 10
13.73722306774004
 20
110.3340286212715
 30
0.0
 10
14.07442046908126
 20
110.8215305292403
 30
0.0
 10
14.81909357871175
 20
111.8288228280173
 30
0.0
 10
15.22656881211132
 20
112.3486392585408
 30
0.0
 10
16.11966013000919
 20
113.4101037993383
 30
0.0
 10
16.60863416310718
 20
113.9549375428871
 30
0.0
 10
18.16707434019616
 20
115.567149704643
 30
0.0
 10
19.33322678526879
 20
116.6202881581335
 30
0.0
 10
20.95847460646984
 20
117.8639862399258
 30
0.0
 10
21.29275986236359
 20
118.109665741405
 30
0.0
 10
21.97172379137456
 20
118.5880934400278
 30
0.0
 10
22.31690068096729
 20
118.8212738833797
 30
0.0
 10
23.3692595947154
 20
119.5020069683069
 30
0.0
 10
24.09324135118177
 20
119.930755775574
 30
0.0
 10
25.58532169069623
 20
120.7343948982668
 30
0.0
 10
26.35341571720964
 20
121.1093006227999
 30
0.0
 10
27.53883916159505
 20
121.6282649512969
 30
0.0
 10
27.93998674293647
 20
121.7941458665806
 30
0.0
 10
28.74583693777356
 20
122.1080536491087
 30
0.0
 10
29.1514237043673
 20
122.2564923260946
 30
0.0
 10
31.19243341076971
 20
122.9563151470145
 30
0.0
 10
32.86672825855167
 20
123.3813705335726
 30
0.0
 10
35.44022983050646
 20
123.8116075649876
 30
0.0
 10
36.31241117793802
 20
123.9204276917908
 30
0.0
 10
38.04780880766669
 20
124.0639546862197
 30
0.0
 10
38.91326779699952
 20
124.0993748769706
 30
0.0
 10
39.77646975193629
 20
124.0993748769706
 30
0.0
  0
SPLINE
  5
268
330
1F
100
AcDbEntity
  8
0
  6
Continuous
 62
     7
370
    15
100
AcDbSpline
210
0.0
220
0.0
230
1.0
 70
     8
 71
     3
 72
    54
 73
    50
 74
     0
 42
0.00000001
 43
0.00000001
 12
1.0
 22
0.0
 32
0.0
 13
1.0
 23
0.0
 33
0.0
 40
0.0
 40
0.0
 40
0.0
 40
0.0
 40
0.0625
 40
0.0625
 40
0.0937500000000002
 40
0.0937500000000002
 40
0.1250000000000003
 40
0.1250000000000003
 40
0.1875000000000008
 40
0.1875000000000008
 40
0.2187500000000009
 40
0.2187500000000009
 40
0.250000000000001
 40
0.250000000000001
 40
0.2812500000000011
 40
0.2812500000000011
 40
0.3125000000000012
 40
0.3125000000000012
 40
0.3750000000000013
 40
0.3750000000000013
 40
0.4375000000000014
 40
0.4375000000000014
 40
0.5000000000000016
 40
0.5000000000000016
 40
0.5312500000000017
 40
0.5312500000000017
 40
0.5625000000000018
 40
0.5625000000000018
 40
0.6250000000000018
 40
0.6250000000000018
 40
0.6562500000000018
 40
0.6562500000000018
 40
0.6875000000000018
 40
0.6875000000000018
 40
0.7500000000000018
 40
0.7500000000000018
 40
0.7812500000000018
 40
0.7812500000000018
 40
0.8125000000000016
 40
0.8125000000000016
 40
0.875000000000001
 40
0.875000000000001
 40
0.9062500000000008
 40
0.9062500000000008
 40
0.9375000000000006
 40
0.9375000000000006
 40
0.9687500000000003
 40
0.9687500000000003
 40
1.0
 40
1.0
 40
1.0
 40
1.0
 10
23.03559276939583
 20
65.91617720773587
 30
0.0
 10
23.12168659690023
 20
65.86216246058775
 30
0.0
 10
23.30268492459066
 20
65.74854679515596
 30
0.0
 10
23.71466180148963
 20
65.50151584406572
 30
0.0
 10
23.87565380324344
 20
65.40635938731818
 30
0.0
 10
24.24757179151297
 20
65.19227055364885
 30
0.0
 10
24.45800762798019
 20
65.07368310217855
 30
0.0
 10
25.14971272031352
 20
64.69625790352865
 30
0.0
 10
25.69515565511607
 20
64.41326788547153
 30
0.0
 10
26.64468756896687
 20
63.96497589241995
 30
0.0
 10
26.98473202198417
 20
63.81099737499089
 30
0.0
 10
27.69457845401782
 20
63.50595403971509
 30
0.0
 10
28.06582251094533
 20
63.35415405872035
 30
0.0
 10
28.84028407721793
 20
63.05581310119225
 30
0.0
 10
29.24350345103796
 20
62.90926634641844
 30
0.0
 10
30.0818981591372
 20
62.62503242740353
 30
0.0
 10
30.51924404237489
 20
62.48675824056323
 30
0.0
 10
31.85757827120298
 20
62.09683741150113
 30
0.0
 10
32.78723911589459
 20
61.86881559699327
 30
0.0
 10
34.71728045998962
 20
61.49276428931197
 30
0.0
 10
35.72449071933997
 20
61.34463857978977
 30
0.0
 10
37.74190344496154
 20
61.14881661436679
 30
0.0
 10
38.75894721675218
 20
61.09912186349015
 30
0.0
 10
40.29693515765582
 20
61.09950283330712
 30
0.0
 10
40.81404077066095
 20
61.11228254282329
 30
0.0
 10
41.83951418541152
 20
61.16281359963745
 30
0.0
 10
42.34724431885609
 20
61.200388293279
 30
0.0
 10
43.8556516574827
 20
61.34827511378579
 30
0.0
 10
44.84167596647391
 20
61.49372754046436
 30
0.0
 10
46.28989020654274
 20
61.77621383634669
 30
0.0
 10
46.76997774094316
 20
61.88175074855184
 30
0.0
 10
47.70505771200211
 20
62.10971959773505
 30
0.0
 10
48.15951609291956
 20
62.23185894096071
 30
0.0
 10
49.48391428780687
 20
62.61835620017195
 30
0.0
 10
50.31515151249324
 20
62.90292226281863
 30
0.0
 10
51.48059395371884
 20
63.35152445257251
 30
0.0
 10
51.85768046549065
 20
63.50566360996172
 30
0.0
 10
52.56860789108417
 20
63.81116740546697
 30
0.0
 10
52.90308783539639
 20
63.96264095085004
 30
0.0
 10
53.84543854530872
 20
64.40723685679006
 30
0.0
 10
54.39274486864242
 20
64.69066959493392
 30
0.0
 10
55.09123066354858
 20
65.07159925993508
 30
0.0
 10
55.30164498076402
 20
65.19016941661101
 30
0.0
 10
55.6718601925144
 20
65.40319550199975
 30
0.0
 10
55.8329969499955
 20
65.49838237089669
 30
0.0
 10
56.10886156838313
 20
65.66373235576184
 30
0.0
 10
56.2235954504461
 20
65.73390286684574
 30
0.0
 10
56.40637077188087
 20
65.84665684428782
 30
0.0
 10
56.47426634529587
 20
65.88914883188035
 30
0.0
 10
56.51734673447643
 20
65.91617720773587
 30
0.0
  0
SPLINE
  5
269
330
1F
100
AcDbEntity
  8
0
  6
Continuous
 62
     8
370
    15
100
AcDbSpline
210
0.0
220
0.0
230
1.0
 70
     8
 71
     3
 72
     9
 73
     5
 74
     0
 42
0.00000001
 43
0.00000001
 12
1.0
 22
0.0
 32
0.0
 13
1.0
 23
0.0
 33
0.0
 40
0.0
 40
0.0
 40
0.0
 40
0.0
 40
0.5647923837157635
 40
0.9999999999999999
 40
0.9999999999999999
 40
0.9999999999999999
 40
0.9999999999999999
 10
40.03627737632461
 20
83.37455492621116
 30
0.0
 10
40.06654719389265
 20
83.31366393626371
 30
0.0
 10
40.12014178624337
 20
83.20585265604272
 30
0.0
 10
40.12288763081266
 20
83.08606405614546
 30
0.0
 10
40.12408264328234
 20
83.03393114512615
 30
0.0
  0
LINE
  5
26A
330
1F
100
AcDbEntity
  8
0
  6
Continuous
 62
     8
370
    15
100
AcDbLine
 10
71.0197903064
 20
88.5862751693
 30
0.0
 11
50.7526557741
 21
91.0652968396
 31
0.0
  0
INSERT
  5
276
330
1F
100
AcDbEntity
  8
VERMASSUNG
100
AcDbBlockReference
  2
SW_CENTERMARKSYMBOL_0
 10
39.7764697519
 20
92.599374877
 30
0.0
  0
ARC
  5
277
330
1F
100
AcDbEntity
  8
0
  6
Continuous
 62
     7
370
    15
100
AcDbCircle
 10
45.781328995
 20
164.400209201
 30
0.0
 40
7.00000000000001
100
AcDbArc
 50
104.9005966878
 51
112.024312837
  0
ARC
  5
278
330
1F
100
AcDbEntity
  8
0
  6
Continuous
 62
     7
370
    15
100
AcDbCircle
 10
45.781328995
 20
164.400209201
 30
0.0
 40
7.000000000000016
100
AcDbArc
 50
67.975687163
 51
75.0994033122
  0
LINE
  5
279
330
1F
100
AcDbEntity
  8
0
  6
Continuous
 62
     7
370
    15
100
AcDbLine
 10
43.156328995
 20
170.1648230111
 30
0.0
 11
43.7038093184
 21
169.2165592748
 31
0.0
  0
LINE
  5
27A
330
1F
100
AcDbEntity
  8
0
  6
Continuous
 62
     7
370
    15
100
AcDbLine
 10
47.8588486715
 20
169.2165592748
 30
0.0
 11
48.406328995
 21
170.1648230111
 31
0.0
  0
LINE
  5
27B
330
1F
100
AcDbEntity
  8
0
  6
Continuous
 62
     7
370
    15
100
AcDbLine
 10
43.156328995
 20
170.8893828772
 30
0.0
 11
43.156328995
 21
170.1648230111
 31
0.0
  0
LINE
  5
27C
330
1F
100
AcDbEntity
  8
0
  6
Continuous
 62
     7
370
    15
100
AcDbLine
 10
48.406328995
 20
170.1648230111
 30
0.0
 11
48.406328995
 21
170.8893828772
 31
0.0
  0
ARC
  5
27D
330
1F
100
AcDbEntity
  8
0
  6
Continuous
 62
     7
370
    15
100
AcDbCircle
 10
41.9717585108
 20
168.2165592748
 30
0.0
 40
2.000000000000004
100
AcDbArc
 50
334.7943742942
 51
30.0
  0
ARC
  5
27E
330
1F
100
AcDbEntity
  8
0
  6
Continuous
 62
     7
370
    15
100
AcDbCircle
 10
49.5908994791
 20
168.2165592748
 30
0.0
 40
1.999999999999992
100
AcDbArc
 50
150.0
 51
205.2056257058
  0
LINE
  5
27F
330
1F
100
AcDbEntity
  8
0
  6
Continuous
 62
     7
370
    15
100
AcDbLine
 10
43.781328995
 20
167.3648230111
 30
0.0
 11
43.781328995
 21
162.2648230111
 31
0.0
  0
LINE
  5
280
330
1F
100
AcDbEntity
  8
0
  6
Continuous
 62
     7
370
    15
100
AcDbLine
 10
47.781328995
 20
162.2648230111
 30
0.0
 11
47.781328995
 21
167.3648230111
 31
0.0
  0
LINE
  5
281
330
1F
100
AcDbEntity
  8
0
  6
Continuous
 62
     7
370
    15
100
AcDbLine
 10
43.781328995
 20
162.2648230111
 30
0.0
 11
43.881328995
 21
162.1648230111
 31
0.0
  0
LINE
  5
282
330
1F
100
AcDbEntity
  8
0
  6
Continuous
 62
     7
370
    15
100
AcDbLine
 10
47.681328995
 20
162.1648230111
 30
0.0
 11
47.781328995
 21
162.2648230111
 31
0.0
  0
LINE
  5
283
330
1F
100
AcDbEntity
  8
0
  6
Continuous
 62
     7
370
    15
100
AcDbLine
 10
47.8003789562
 20
170.8893828772
 30
0.0
 11
48.406328995
 21
170.8893828772
 31
0.0
  0
LINE
  5
284
330
1F
100
AcDbEntity
  8
0
  6
Continuous
 62
     7
370
    15
100
AcDbLine
 10
43.156328995
 20
170.8893828772
 30
0.0
 11
47.8003789562
 21
170.8893828772
 31
0.0
  0
LINE
  5
285
330
1F
100
AcDbEntity
  8
0
  6
Continuous
 62
     7
370
    15
100
AcDbLine
 10
47.165820397
 20
171.1648230111
 30
0.0
 11
47.581328995
 21
171.1648230111
 31
0.0
  0
LINE
  5
286
330
1F
100
AcDbEntity
  8
0
  6
Continuous
 62
     7
370
    15
100
AcDbLine
 10
43.981328995
 20
171.1648230111
 30
0.0
 11
47.165820397
 21
171.1648230111
 31
0.0
  0
LINE
  5
287
330
1F
100
AcDbEntity
  8
0
  6
Continuous
 62
     7
370
    15
100
AcDbLine
 10
47.8003789562
 20
170.1648230111
 30
0.0
 11
48.406328995
 21
170.1648230111
 31
0.0
  0
LINE
  5
288
330
1F
100
AcDbEntity
  8
0
  6
Continuous
 62
     7
370
    15
100
AcDbLine
 10
43.156328995
 20
170.1648230111
 30
0.0
 11
47.8003789562
 21
170.1648230111
 31
0.0
  0
LINE
  5
289
330
1F
100
AcDbEntity
  8
0
  6
Continuous
 62
     7
370
    15
100
AcDbLine
 10
47.319652775
 20
167.3648230111
 30
0.0
 11
47.781328995
 21
167.3648230111
 31
0.0
  0
LINE
  5
28A
330
1F
100
AcDbEntity
  8
0
  6
Continuous
 62
     7
370
    15
100
AcDbLine
 10
43.781328995
 20
167.3648230111
 30
0.0
 11
47.319652775
 21
167.3648230111
 31
0.0
  0
LINE
  5
28B
330
1F
100
AcDbEntity
  8
0
  6
Continuous
 62
     7
370
    15
100
AcDbLine
 10
47.319652775
 20
162.2648230111
 30
0.0
 11
47.781328995
 21
162.2648230111
 31
0.0
  0
LINE
  5
28C
330
1F
100
AcDbEntity
  8
0
  6
Continuous
 62
     7
370
    15
100
AcDbLine
 10
43.781328995
 20
162.2648230111
 30
0.0
 11
47.319652775
 21
162.2648230111
 31
0.0
  0
LINE
  5
28D
330
1F
100
AcDbEntity
  8
0
  6
Continuous
 62
     7
370
    15
100
AcDbLine
 10
47.242736586
 20
162.1648230111
 30
0.0
 11
47.681328995
 21
162.1648230111
 31
0.0
  0
LINE
  5
28E
330
1F
100
AcDbEntity
  8
0
  6
Continuous
 62
     7
370
    15
100
AcDbLine
 10
43.881328995
 20
162.1648230111
 30
0.0
 11
47.242736586
 21
162.1648230111
 31
0.0
  0
LINE
  5
28F
330
1F
100
AcDbEntity
  8
0
  6
Continuous
 62
     8
370
    15
100
AcDbLine
 10
47.3792779559
 20
169.2165592748
 30
0.0
 11
47.8588486715
 21
169.2165592748
 31
0.0
  0
LINE
  5
290
330
1F
100
AcDbEntity
  8
0
  6
Continuous
 62
     8
370
    15
100
AcDbLine
 10
43.7038093184
 20
169.2165592748
 30
0.0
 11
47.3792779559
 21
169.2165592748
 31
0.0
  0
INSERT
  5
296
330
1F
100
AcDbEntity
  8
VERMASSUNG
100
AcDbBlockReference
  2
SW_NOTE_0
 10
61.2505604606
 20
164.6318018018
 30
0.0
  0
LEADER
  5
2A0
330
1F
100
AcDbEntity
  8
VERMASSUNG
100
AcDbLeader
  3
SLDDIMSTYLE3
 76
     2
 10
45.8742302972
 20
164.6236923448
 30
0.0
 10
61.2505604606
 20
164.6318018018
 30
0.0
  0
OLE2FRAME
  5
2A1
330
1F
100
AcDbEntity
  8
0
100
AcDbOle2Frame
 70
     2
  3
Paintbrush-Bild
 10
13.8511154363
 20
38.264191557
 30
0.0
 11
51.6290888628
 21
31.9806341108
 31
0.0
 71
     2
 72
     0
 73
     1
 90
    12928
310
80552BED0767C5B32B40DDAF6807D121434000000000000000006FFBDDFB85D0
310
4940DDAF6807D121434000000000000000006FFBDDFB85D04940416F4BD60AFB
310
3F4000000000000000002BED0767C5B32B40416F4BD60AFB3F40000000000000
310
0000000000000100000000010000010000000100000000000100000000320000
310
D0CF11E0A1B11AE1000000000000000000000000000000003E000300FEFF0900
310
0600000000000000000000000100000001000000000000000010000002000000
310
01000000FEFFFFFF0000000000000000FFFFFFFFFFFFFFFFFFFFFFFFFFFFFFFF
310
FFFFFFFFFFFFFFFFFFFFFFFFFFFFFFFFFFFFFFFFFFFFFFFFFFFFFFFFFFFFFFFF
310
FFFFFFFFFFFFFFFFFFFFFFFFFFFFFFFFFFFFFFFFFFFFFFFFFFFFFFFFFFFFFFFF
310
FFFFFFFFFFFFFFFFFFFFFFFFFFFFFFFFFFFFFFFFFFFFFFFFFFFFFFFFFFFFFFFF
310
FFFFFFFFFFFFFFFFFFFFFFFFFFFFFFFFFFFFFFFFFFFFFFFFFFFFFFFFFFFFFFFF
310
FFFFFFFFFFFFFFFFFFFFFFFFFFFFFFFFFFFFFFFFFFFFFFFFFFFFFFFFFFFFFFFF
310
FFFFFFFFFFFFFFFFFFFFFFFFFFFFFFFFFFFFFFFFFFFFFFFFFFFFFFFFFFFFFFFF
310
FFFFFFFFFFFFFFFFFFFFFFFFFFFFFFFFFFFFFFFFFFFFFFFFFFFFFFFFFFFFFFFF
310
FFFFFFFFFFFFFFFFFFFFFFFFFFFFFFFFFFFFFFFFFFFFFFFFFFFFFFFFFFFFFFFF
310
FFFFFFFFFFFFFFFFFFFFFFFFFFFFFFFFFFFFFFFFFFFFFFFFFFFFFFFFFFFFFFFF
310
FFFFFFFFFFFFFFFFFFFFFFFFFFFFFFFFFFFFFFFFFFFFFFFFFFFFFFFFFFFFFFFF
310
FFFFFFFFFFFFFFFFFFFFFFFFFFFFFFFFFFFFFFFFFFFFFFFFFFFFFFFFFFFFFFFF
310
FFFFFFFFFFFFFFFFFFFFFFFFFFFFFFFFFFFFFFFFFFFFFFFFFFFFFFFFFFFFFFFF
310
FFFFFFFFFFFFFFFFFFFFFFFFFFFFFFFFFFFFFFFFFFFFFFFFFFFFFFFFFFFFFFFF
310
FDFFFFFFFEFFFFFFFEFFFFFFFEFFFFFF05000000060000000700000008000000
310
090000000A0000000B0000000C0000000D0000000E0000000F00000010000000
310
11000000120000001300000014000000150000001600000017000000FEFFFFFF
310
FFFFFFFFFFFFFFFFFFFFFFFFFFFFFFFFFFFFFFFFFFFFFFFFFFFFFFFFFFFFFFFF
310
FFFFFFFFFFFFFFFFFFFFFFFFFFFFFFFFFFFFFFFFFFFFFFFFFFFFFFFFFFFFFFFF
310
FFFFFFFFFFFFFFFFFFFFFFFFFFFFFFFFFFFFFFFFFFFFFFFFFFFFFFFFFFFFFFFF
310
FFFFFFFFFFFFFFFFFFFFFFFFFFFFFFFFFFFFFFFFFFFFFFFFFFFFFFFFFFFFFFFF
310
FFFFFFFFFFFFFFFFFFFFFFFFFFFFFFFFFFFFFFFFFFFFFFFFFFFFFFFFFFFFFFFF
310
FFFFFFFFFFFFFFFFFFFFFFFFFFFFFFFFFFFFFFFFFFFFFFFFFFFFFFFFFFFFFFFF
310
FFFFFFFFFFFFFFFFFFFFFFFFFFFFFFFFFFFFFFFFFFFFFFFFFFFFFFFFFFFFFFFF
310
FFFFFFFFFFFFFFFFFFFFFFFFFFFFFFFFFFFFFFFFFFFFFFFFFFFFFFFFFFFFFFFF
310
FFFFFFFFFFFFFFFFFFFFFFFFFFFFFFFFFFFFFFFFFFFFFFFFFFFFFFFFFFFFFFFF
310
FFFFFFFFFFFFFFFFFFFFFFFFFFFFFFFFFFFFFFFFFFFFFFFFFFFFFFFFFFFFFFFF
310
FFFFFFFFFFFFFFFFFFFFFFFFFFFFFFFFFFFFFFFFFFFFFFFFFFFFFFFFFFFFFFFF
310
FFFFFFFFFFFFFFFFFFFFFFFFFFFFFFFFFFFFFFFFFFFFFFFFFFFFFFFFFFFFFFFF
310
FFFFFFFFFFFFFFFFFFFFFFFFFFFFFFFFFFFFFFFFFFFFFFFFFFFFFFFFFFFFFFFF
310
52006F006F007400200045006E00740072007900000000000000000000000000
310
0000000000000000000000000000000000000000000000000000000000000000
310
16000500FFFFFFFFFFFFFFFF020000000A00030000000000C000000000000046
310
00000000000000000000000030151D95F655CE0103000000C000000000000000
310
01004F006C006500000000000000000000000000000000000000000000000000
310
0000000000000000000000000000000000000000000000000000000000000000
310
0A000200FFFFFFFFFFFFFFFFFFFFFFFF00000000000000000000000000000000
310
0000000000000000000000000000000000000000000000001400000000000000
310
010043006F006D0070004F0062006A0000000000000000000000000000000000
310
0000000000000000000000000000000000000000000000000000000000000000
310
120002010100000003000000FFFFFFFF00000000000000000000000000000000
310
0000000000000000000000000000000000000000010000004D00000000000000
310
01004F006C006500310030004E00610074006900760065000000000000000000
310
0000000000000000000000000000000000000000000000000000000000000000
310
1A000200FFFFFFFFFFFFFFFFFFFFFFFF00000000000000000000000000000000
310
0000000000000000000000000000000000000000040000002426000000000000
310
FEFFFFFF02000000FEFFFFFFFFFFFFFFFFFFFFFFFFFFFFFFFFFFFFFFFFFFFFFF
310
FFFFFFFFFFFFFFFFFFFFFFFFFFFFFFFFFFFFFFFFFFFFFFFFFFFFFFFFFFFFFFFF
310
FFFFFFFFFFFFFFFFFFFFFFFFFFFFFFFFFFFFFFFFFFFFFFFFFFFFFFFFFFFFFFFF
310
FFFFFFFFFFFFFFFFFFFFFFFFFFFFFFFFFFFFFFFFFFFFFFFFFFFFFFFFFFFFFFFF
310
FFFFFFFFFFFFFFFFFFFFFFFFFFFFFFFFFFFFFFFFFFFFFFFFFFFFFFFFFFFFFFFF
310
FFFFFFFFFFFFFFFFFFFFFFFFFFFFFFFFFFFFFFFFFFFFFFFFFFFFFFFFFFFFFFFF
310
FFFFFFFFFFFFFFFFFFFFFFFFFFFFFFFFFFFFFFFFFFFFFFFFFFFFFFFFFFFFFFFF
310
FFFFFFFFFFFFFFFFFFFFFFFFFFFFFFFFFFFFFFFFFFFFFFFFFFFFFFFFFFFFFFFF
310
FFFFFFFFFFFFFFFFFFFFFFFFFFFFFFFFFFFFFFFFFFFFFFFFFFFFFFFFFFFFFFFF
310
FFFFFFFFFFFFFFFFFFFFFFFFFFFFFFFFFFFFFFFFFFFFFFFFFFFFFFFFFFFFFFFF
310
FFFFFFFFFFFFFFFFFFFFFFFFFFFFFFFFFFFFFFFFFFFFFFFFFFFFFFFFFFFFFFFF
310
FFFFFFFFFFFFFFFFFFFFFFFFFFFFFFFFFFFFFFFFFFFFFFFFFFFFFFFFFFFFFFFF
310
FFFFFFFFFFFFFFFFFFFFFFFFFFFFFFFFFFFFFFFFFFFFFFFFFFFFFFFFFFFFFFFF
310
FFFFFFFFFFFFFFFFFFFFFFFFFFFFFFFFFFFFFFFFFFFFFFFFFFFFFFFFFFFFFFFF
310
FFFFFFFFFFFFFFFFFFFFFFFFFFFFFFFFFFFFFFFFFFFFFFFFFFFFFFFFFFFFFFFF
310
FFFFFFFFFFFFFFFFFFFFFFFFFFFFFFFFFFFFFFFFFFFFFFFFFFFFFFFFFFFFFFFF
310
0100000200000000000000000000000000000000000000000000000000000000
310
0000000000000000000000000000000000000000000000000000000000000000
310
0100FEFF030A0000FFFFFFFF0A00030000000000C00000000000004607000000
310
5042727573680007000000504272757368000700000050427275736800F439B2
310
7100000000000000000000000000000000000000000000000000000000000000
310
0000000000000000000000000000000000000000000000000000000000000000
310
0000000000000000000000000000000000000000000000000000000000000000
310
0000000000000000000000000000000000000000000000000000000000000000
310
0000000000000000000000000000000000000000000000000000000000000000
310
0000000000000000000000000000000000000000000000000000000000000000
310
0000000000000000000000000000000000000000000000000000000000000000
310
0000000000000000000000000000000000000000000000000000000000000000
310
0000000000000000000000000000000000000000000000000000000000000000
310
0000000000000000000000000000000000000000000000000000000000000000
310
0000000000000000000000000000000000000000000000000000000000000000
310
0000000000000000000000000000000000000000000000000000000000000000
310
20260000424D0E260000000000003E00000028000000B40200006E0000000100
310
01000000000000000000130B0000130B00000200000002000000000000FFFFFF
310
FFFFFFFFFFFFFFFFFFFFFFFFFFFFFFFFFFFFFFFFFFFFFFFFFFFFFFFFFFFFFFFF
310
FFFFFFFFFFFFFFFFFFFFFFFFFFFFFFFFFFFFFFFFFFFFFFFFFFFFFFFFFFFFFFFF
310
FFFFFFFFFFFFFFFFFFFFFFFFFFFFFFFFFFFFFFFFFFFFFFFFF000FFFFFFFFFFFF
310
FFFFFFFFFFFFFFFFFFFFFFFFFFFFFFFFFFFFFFFFFFFFFFFFFFFFFFFFFFFFFFFF
310
FFFFFFFFFFFFFFFFFFFFFFFFFFFFFFFFFFFFFFFFFFFFFFFFFFFFFFFFFFFFFFFF
310
FFFFFFFFFFFFFFFFFFFFFFFFFFFFFFFFF000FFFFFFFFFFFFFFFFFFFFFFFFFFFF
310
FFFFFFFFFFFFFFFFFFFFFFFFFFFFFFFFFFFFFFFFFFFFFFFFFFFFFFFFFFFFFFFF
310
FFFFFFFFFFFFFFFFFFFFFFFFFFFFFFFFFFFFFFFFFFFFFFFFFFFFFFFFFFFFFFFF
310
FFFFFFFFFFFFFFFFF000FFFFFFFFFFFFFFFFFFFFFFFFFFFFFFFFFFFFFFFFFFFF
310
FFFFFFFFFFFFFFFFFFFFFFFFFFFFFFFFFFFFFFFFFFFFFFFFFFFFFFFFFFFFFFFF
310
FFFFFFFFFFFFFFFFFFFFFFFFFFFFFFFFFFFFFFFFFFFFFFFFFFFFFFFFFFFFFFFF
310
F000FFFFFFFFFFFFFFFFFFFFFFFFFFFFFFFFFFFFFFFFFFFFFFFFFFFFFFFFFFFF
310
FFFFFFFFFFFFFFFFFFFFFFFFFFFFFFFFFFFFFFFFFFFFFFFFFFFFFFFFFFFFFFFF
310
FFFFFFFFFFFFFFFFFFFFFFFFFFFFFFFFFFFFFFFFFFFFFFFFF000FFFFFFFFFFFF
310
FFFFFFFFFFFFFFFFFFFFFFFFFFFFFFFFFFFFFFFFFFFFFFFFFFFFFFFFFFFFFFFF
310
FFFFFFFFFFFFFFFFFFFFFFFFFFFFFFFFFFFFFFFFFFFFFFFFFFFFFFFFFFFFFFFF
310
FFFFFFFFFFFFFFFFFFFFFFFFFFFFFFFFF000FFFFFFFFFFFFFFFFFFFFFFFFFFFF
310
FFFFFFFFFFFFFFFFFFFFFFFFFFFFFFFFFFFFFFFFFFFFFFFFFFFFFFFFFFFFFFFF
310
FFFFFFFFFFFFFFFFFFFFFFFFFFFFFFFFFFFFFFFFFFFFFFFFFFFFFFFFFFFFFFFF
310
FFFFFFFFFFFFFFFFF000FFFFFFFFFFFFFFFFFFFFFFFFFFFFFFFFFFFFFFFFFFFF
310
FFFFFFFFFFFFFFFFFFFFFFFFFFFFFFFFFFFFFFFFFFFFFFFFFFFFFFFFFFFFFFFF
310
FFFFFFFFFFFFFFFFFFFFFFFFFFFFFFFFFFFFFFFFFFFFFFFFFFFFFFFFFFFFFFFF
310
F000FFFFFFFFFFFFFFFFFFFFFFFFFFFFFFFFFFFFFFFFFFFFFFFFFFFFFFFFFFFF
310
FFFFFFFFFFFFFFFFFFFFFFFFFFFFFFFFFFFFFFFFFFFFFFFFFFFFFFFFFFFFFFFF
310
FFFFFFFFFFFFFFFFFFFFFFFFFFFFFFFFFFFFFFFFFFFFFFFFF000FFFFFFFFFFFF
310
FFFFFFFFFFFFFFFFFFFFFFFFFFFFFFFFFFFFFFFFFFFFFFFFFFFFFFFFFFFFFFFF
310
FFFFFFFFFFFFFFFFFFFFFFFFFFFFFFFFFFFFFFFFFFFFFFFFFFFFFFFFFFFFFFFF
310
FFFFFFFFFFFFFFFFFFFFFFFFFFFFFFFFF000FFFFFFFFFFFFFFFFFFFFFFFFFFFF
310
FFFFFFFFFFFFFFFFFFFFFFFFFFFFFFFFFFFFFFFFFFFFFFFFFFFFFFFFFFFFFFFF
310
FFFFFFFFFFFFFFFFFFFFFFFFFFFFFFFFFFFFFFFFFFFFFFFFFFFFFFFFFFFFFFFF
310
FFFFFFFFFFFFFFFFF000FFFFFFFFFFFFFFFFFFFFFFFFFFFFFFFFFFFFFFFFFFFF
310
FFFFFFFFFFFFFFFFFFFFFFFFFFFFFFFFFFFFFFFFFFFFFFFFFFFFFFFFFFFFFFFF
310
FFFFFFFFFFFFFFFFFFFFFFFFFFFFFFFFFFFFFFFFFFFFFFFFFFFFFFFFFFFFFFFF
310
F000FFFFFFFFFFFFFFFFFFFFFFFFFFFFFFFFFFFFFFFFFFFFFFFFFFFFFFFFFFFF
310
FFFFFFFFFFFFFFFFFFFFFFFFFFFFFFFFFFFFFFFFFFFFFFFFFFFFFFFFFFFFFFFF
310
FFFFFFFFFFFFFFFFFFFFFFFFFFFFFFFFFFFFFFFFFFFFFFFFF000FFFFFFFFFFFF
310
FFFFFFFFFFFFFFFFFFFFFFFFFFFFFFFFFFFFFFFFFFFFFFFFFFFFFFFFFFFFFFFF
310
FFFFFFFFFFFFFFFFFFFFFFFFFFFFFFFFFFFFFFFFFFFFFFFFFFFFFFFFFFFFFFFF
310
FFFFFFFFFFFFFFFFFFFFFFFFFFFFFFFFF000FFFFFFFFFFFFFFFFFFFFFFFFFFFF
310
FFFFFFFFFFFFFFFFFFFFFFFFFFFFFFFFFFFFFFFFFFFFFFFFFFFFFFFFFFFFFFFF
310
FFFFFFFFFFFFFFFFFFFFFFFFFFFFFFFFFFFFFFFFFFFFFFFFFFFFFFFFFFFFFFFF
310
FFFFFFFFFFFFFFFFF000FFFFFFFFFFFFFFFFFFFFFFFFFFFFFFFFFFFFFFFFFFFF
310
FFFFFFFFFFFFFFFFFFFFFFFFFFFFFFFFFFFFFFFFFFFFFFFFFFFFFFFFFFFFFFFF
310
FFFFFFFFFFFFFFFFFFFFFFFFFFFFFFFFFFFFFFFFFFFFFFFFFFFFFFFFFFFFFFFF
310
F000FFFFFFFFFFFFFFFFFFFFFFFFFFFFFFFFFFFFFFFFFFFFFFFFFFFFFFFFFFFF
310
FFFFFFFFFFFFFFFFFFFFFFFFFFFFFFFFFFFFFFFFFFFFFFFFFFFFFFFFFFFFFFFF
310
FFFFFFFFFFFFFFFFFFFFFFFFFFFFFFFFFFFFFFFFFFFFFFFFF000FFFFFFFFFFFF
310
FFFFFFFFFFFFFFFFFFFFFFFFFFFFFFFFFFFFFFFFFFFFFFFFFFFFFFFFFFFFFFFF
310
FFFFFFFFFFFFFFFFFFFFFFFFFFFFFFFFFFFFFFFFFFFFFFFFFFFFFFFFFFFFFFFF
310
FFFFFFFFFFFFFFFFFFFFFFFFFFFFFFFFF000FFFFFFFFFFFFFFFFFFFFFFFFFFFF
310
FFFFFFFFFFFFFFFFFFFFFFFFFFFFFFFFFFFFFFFFFFFFFFFFFFFFFFFFFFFFFFFF
310
FFFFFFFFFFFFFFFFFFFFFFFFFFFFFFFFFFFFFFFFFFFFFFFFFFFFFFFFFFFFFFFF
310
FFFFFFFFFFFFFFFFF000FFFFF80003FFFFFFFFFFFFFFFFFFFFFFFFFFFFFFFFFF
310
FFFFF00007FFFFFFFFFF00007FFFFFF800000000000000007FFFFFFFFFFFFFFF
310
FFFFFFFC001FFFFFFFFFFFFFFC001FFFFFFFFFFFFFFFFFFFFFFFFFFE0007FFFF
310
F000FFFF8000007FFFFFFFF8000FFFFFC0007FFFFF80007FFFFF0000007FFFFF
310
FFF8000007FFFFF800000000000000007FFFFFF0001FFFFFFFFFFFC00001FFFF
310
FFFFFFFFC00001FFFFFFFF000000000003FFFFE000007FFFF000FFFE0000000F
310
FFFFFFF0000FFFFF80007FFFFF80007FFFFC0000001FFFFFFFC0000001FFFFF8
310
00000000000000007FFFFFF0001FFFFFFFFFFE0000003FFFFFFFFFFE0000003F
310
FFFFFF000000000003FFFF0000000FFFF000FFF800000003FFFFFFF00007FFFF
310
80007FFFFF80007FFFF000000007FFFFFF000000003FFFF80000000000000000
310
7FFFFFF0001FFFFFFFFFF80000000FFFFFFFFFF80000000FFFFFFF0000000000
310
03FFFC00000003FFF000FFE000000000FFFFFFF00007FFFF80003FFFFF80007F
310
FFC000000001FFFFFC000000001FFFF800000000000000007FFFFFF0001FFFFF
310
FFFFE000000003FFFFFFFFE000000003FFFFFF000000000003FFF000000000FF
310
F000FF80000000007FFFFFF00007FFFF80003FFFFF80007FFF8000000000FFFF
310
F80000000007FFF800000000000000007FFFFFF0001FFFFFFFFFC000000001FF
310
FFFFFFC000000001FFFFFF000000000003FFC0000000007FF000FF0000000000
310
3FFFFFE00007FFFF00003FFFFF80007FFE00000000003FFFF00000000003FFF8
310
00000000000000007FFFFFF0001FFFFFFFFF8000000000FFFFFFFF8000000000
310
FFFFFF000000000003FF80000000003FF000FE00000000001FFFFFE00003FFFF
310
00003FFFFF80007FFC00000000001FFFE00000000001FFF8000001FFFE000000
310
7FFFFFF0001FFFFFFFFE00000000003FFFFFFE00000000003FFFFF0000000000
310
03FF00000000001FF000FC00000000000FFFFFE00003FFFF00001FFFFF80007F
310
F800000000001FFFC00000000000FFF8000001FFFE0000007FFFFFF0001FFFFF
310
FFFC00000000001FFFFFFC00000000001FFFFF000000000003FE00000000000F
310
F000F8000000000007FFFFE00003FFFF00001FFFFF80007FF800000000000FFF
310
800000000000FFF8000001FFFE0000007FFFFFF0001FFFFFFFF800000000000F
310
FFFFF800000000000FFFFF000000000003FC000000000007F000F80000000000
310
03FFFFC00003FFFE00001FFFFF80007FF0000000000007FF0000000000007FF8
310
000001FFFE0000007FFFFFF0001FFFFFFFF0000000000007FFFFF00000000000
310
07FFFF000000000003F8000000000003F000F0000000000003FFFFC00001FFFE
310
00001FFFFF80007FE0000000000007FE0000000000003FF8000001FFFE000000
310
7FFFFFF0001FFFFFFFF0000000000007FFFFF0000000000007FFFF0000000000
310
03F800001F800003F000E00001FFF00001FFFFC00001FFFE00000FFFFF80007F
310
E00001FFE00003FE00001FFF00003FF8000001FFFE0000007FFFFFF0001FFFFF
310
FFE000003E000003FFFFE000003E000003FFFF000000000003F00001FFF80001
310
F000E00007FFFC0001FFFFC00001FFFE00000FFFFF80007FC0000FFFFC0003FC
310
0000FFFFC0001FF8000001FFFE0000007FFFFFF0001FFFFFFFC00003FFE00001
310
FFFFC00003FFE00001FFFF0001FFFFFFFFF00007FFFE0001F000E0000FFFFF00
310
00FFFF800001FFFC00000FFFFF80007FC0001FFFFE0001FC0001FFFFE0001FF8
310
000001FFFE0000007FFFFFF0001FFFFFFF80000FFFF80000FFFF80000FFFF800
310
00FFFF0003FFFFFFFFE0000FFFFF8000F000C0003FFFFF8000FFFF800000FFFC
310
000007FFFF80007F80003FFFFF0001FC0003FFFFF0001FF8000001FFFE000000
310
7FFFFFF0001FFFFFFF80003FFFFE0000FFFF80003FFFFE0000FFFF0003FFFFFF
310
FFE0003FFFFF8000F000C0003FFFFF8000FFFF800000FFFC000007FFFF80007F
310
80007FFFFF8001F80007FFFFF8000FF8000001FFFE0000007FFFFFF0001FFFFF
310
FF00007FFFFF00007FFF00007FFFFF00007FFF0003FFFFFFFFE0003FFFFFC000
310
F000C0007FFFFFC000FFFF000000FFFC000007FFFF80007F8000FFFFFF8000F8
310
000FFFFFF8000FF8000001FFFE0000007FFFFFF0001FFFFFFF0000FFFFFF8000
310
7FFF0000FFFFFF80007FFF0003FFFFFFFFC0007FFFFFC00070008000FFFFFFC0
310
00FFFF000000FFF8000007FFFF80007F8000FFFFFF8000F8000FFFFFF8000FF8
310
000001FFFE0000007FFFFFF0001FFFFFFE0001FFFFFFC0003FFE0001FFFFFFC0
310
003FFF0003FFFFFFFFC0007FFFFFE00070008000FFFFFFC0007FFF0000007FF8
310
000003FFFF80007F0001FFFFFF8000F8000FFFFFF8000FF8000001FFFE000000
310
7FFFFFF0001FFFFFFE0001FFFFFFC0003FFE0001FFFFFFC0003FFF0003FFFFFF
310
FFC000FFFFFFE00070008000FFFFFFC0007FFF0000007FF8000003FFFF80007F
310
0001FFFFFF8000F8001FFFFFF8000FF8000001FFFE0000007FFFFFF0001FFFFF
310
FE0003FFFFFFE0003FFE0003FFFFFFE0003FFF0003FFFFFFFFC000FFFFFFE000
310
70008000FFFFFFC0007FFE0000007FF8000003FFFF80007F0001FFFFFF8000F0
310
001FFFFFF8000FF8000001FFFE0000007FFFFFF0001FFFFFFC0003FFFFFFE000
310
1FFC0003FFFFFFE0001FFF0003FFFFFFFFC000FFFFFFC00070008000FFFFFF80
310
007FFE0000007FF0000003FFFF80007F0001FFFFFF0000F0001FFFFFF8000FF8
310
000001FFFE0000007FFFFFF0001FFFFFFC0007FFFFFFF0001FFC0007FFFFFFF0
310
001FFF0003FFFFFFFFC000FFFFFFC00070008001FFFFFF0000FFFE0000003FF0
310
000001FFFF80007F0001FFFFFF0000F8001FFFFFF0000FF8000001FFFE000000
310
7FFFFFF0001FFFFFFC0007FFFFFFF0001FFC0007FFFFFFF0001FFF0003FFFFFF
310
FFC001FFFFFF80007000FFFFFFFFFE0000FFFE0008003FF0008001FFFF80007F
310
FFFFFFFFFC0000FFFFFFFFFFE0000FF8000001FFFE0000007FFFFFF0001FFFFF
310
F8000FFFFFFFF8000FF8000FFFFFFFF8000FFF0003FFFFFFFFFFFFFFFFFF0000
310
7000FFFFFFFFFC0000FFFC0008003FF0008001FFFF80007FFFFFFFFFF80001FF
310
FFFFFFFF80000FF8000001FFFE0000007FFFFFF0001FFFFFF8000FFFFFFFF800
310
0FF8000FFFFFFFF8000FFF0003FFFFFFFFFFFFFFFFFE0000F000FFFFFFFFE000
310
00FFFC000C003FE000C001FFFF80007FFFFFFFFFC00001FFFFFFFFFE00001FF8
310
000001FFFE0000007FFFFFF0001FFFFFF8000FFFFFFFF8000FF8000FFFFFFFF8
310
000FFF0003FFFFFFFFFFFFFFFFF00000F000FFFFFFFE000001FFFC000C001FE0
310
00C000FFFF80007FFFFFFFFE000001FFFFFFFFE000001FF80FFFFFFFFFFFFFC0
310
7FFFFFF0001FFFFFF8000FFFFFFFF8000FF8000FFFFFFFF8000FFF0003FFFFFF
310
FFFFFFFFFF800000F000FFFFFFC0000001FFFC001C001FE001C000FFFF80007F
310
FFFFFF80000003FFFFFFF80000001FF80FFFFFFFFFFFFFC07FFFFFF0001FFFFF
310
F8001FFFFFFFFC000FF8001FFFFFFFFC000FFF0003FFFFFFFFFFFFFFF0000001
310
F000FFFFF800000001FFF8001C001FE001C000FFFF80007FFFFFF800000003FF
310
FFFF800000003FF80FFFFFFFFFFFFFC07FFFFFF0001FFFFFF8001FFFFFFFFC00
310
0FF8001FFFFFFFFC000FFF0003FFFFFFFFFFFFFE00000001F000FFFFC0000000
310
03FFF8001E001FC001E000FFFF80007FFFFF8000000007FFFFFC000000003FF8
310
0FFFFFFFFFFFFFC07FFFFFF0001FFFFFF8001FFFFFFFFC000FF8001FFFFFFFFC
310
000FFF0003FFFFFFFFFFFFE000000003F000FFFE0000000007FFF8001E000FC0
310
01E0007FFF80007FFFFE0000000007FFFFE0000000007FF80FFFFFFFFFFFFFC0
310
7FFFFFF0001FFFFFF0001FFFFFFFFC0007F0001FFFFFFFFC0007FF0003FFFFFF
310
FFFFFF0000000003F000FFF80000000007FFF8001E000FC003E0007FFF80007F
310
FFF0000000000FFFFF8000000000FFF80FFFFFFFFFFFFFC07FFFFFF0001FFFFF
310
F0001FFFFFFFFC0007F0001FFFFFFFFC0007FF0003FFFFFFFFFFFC0000000007
310
F000FFE0000000000FFFF0003E000FC003E0007FFF80007FFFC0000000001FFF
310
FE0000000001FFF80FFFFFFFFFFFFFC07FFFFFF0001FFFFFF0001FFFFFFFFC00
310
07F0001FFFFFFFFC0007FF0003FFFFFFFFFFF0000000000FF000FFC000000000
310
1FFFF0003F000F8003F0003FFF80007FFF80000000003FFFF80000000003FFF8
310
0FFFFFFFFFFFFFC07FFFFFF0001FFFFFF0001FFFFFFFFC0007F0001FFFFFFFFC
310
0007FF0003FFFFFFFFFFE0000000001FF000FF00000000007FFFF0003F000780
310
03F0003FFF80007FFF00000000007FFFF00000000007FFF80FFFFFFFFFFFFFC0
310
7FFFFFF0001FFFFFF0001FFFFFFFFC0007F0001FFFFFFFFC0007FF0003FFFFFF
310
FFFF80000000007FF000FE0000000000FFFFE0003F00078007F0003FFF80007F
310
FE0000000001FFFFE0000000001FFFF80FFFFFFFFFFFFFC07FFFFFF0001FFFFF
310
F0001FFFFFFFFC0007F0001FFFFFFFFC0007FF0003FFFFFFFFFF0000000000FF
310
F000FC0000000003FFFFE0007F00078007F0003FFF80007FFC0000000007FFFF
310
C0000000007FFFF80FFFFFFFFFFFFFC07FFFFFF0001FFFFFF8001FFFFFFFFC00
310
0FF8001FFFFFFFFC000FFF0003FFFFFFFFFE0000000003FFF000FC000000000F
310
FFFFE0007F80070007F8001FFF80007FF8000000001FFFFF8000000001FFFFF8
310
0FFFFFFFFFFFFFC07FFFFFF0001FFFFFF8001FFFFFFFFC000FF8001FFFFFFFFC
310
000FFF0003FFFFFFFFFC000000000FFFF000F8000000007FFFFFE0007F800700
310
07F8001FFF80007FF000000000FFFFFF800000000FFFFFF80FFFFFFFFFFFFFC0
310
7FFFFFF0001FFFFFF8000FFFFFFFF8000FF8000FFFFFFFF8000FFF0003FFFFFF
310
FFFC000000007FFFF000F800000007FFFFFFC0007F8003000FF8001FFF80007F
310
F000000007FFFFFF000000007FFFFFF80FFFFFFFFFFFFFC07FFFFFF0001FFFFF
310
F8000FFFFFFFF8000FF8000FFFFFFFF8000FFF0003FFFFFFFFF80000000FFFFF
310
F000F0000000FFFFFFFFC000FF8003000FF8001FFF80007FE0000000FFFFFFFF
310
0000000FFFFFFFF8000001FFFE0000007FFFFFF0001FFFFFF8000FFFFFFFF800
310
0FF8000FFFFFFFF8000FFF0003FFFFFFFFF8000000FFFFFFF000F000000FFFFF
310
FFFFC000FFC002000FF8000FFF80007FE000001FFFFFFFFE000001FFFFFFFFF8
310
000001FFFE0000007FFFFFF0001FFFFFF8000FFFFFFFF8000FF8000FFFFFFFF8
310
000FFF0003FFFFFFFFF000001FFFFFFFF000E00000FFFFFFFFFFC000FFC00200
310
0FFC000FFF80007FE00001FFFFFFFFFE00001FFFFFFFFFF8000001FFFE000000
310
7FFFFFF0001FFFFFFC000FFFFFFFF8001FFC000FFFFFFFF8001FFF0003FFFFFF
310
FFF00001FFFFFFFFF000E00007FFFFFFFFFF8000FFC000001FFC000FFF80007F
310
C0000FFFFFFFFFFE0000FFFFFFFFFFF8000001FFFE0000007FFFFFF0001FFFFF
310
FC0007FFFFFFF0001FFC0007FFFFFFF0001FFF0003FFFFFFFFF00007FFFFFFFF
310
F000E0001FFFFFFFFFFF8000FFC000001FFC000FFF80007FC0003FFFFFFFFFFE
310
0001FFFFFFFFFFF8000001FFFE0000007FFFFFF0001FFFFFFC0007FFFFFFF000
310
1FFC0007FFFFFFF0001FFF0003FFFFFFFFF0001FFFFFFFFFF000E0003FFFFF00
310
03FF8001FFE000001FFC0007FF80007FC0007FFFFF0007FC0003FFFFF0003FF8
310
000001FFFE0000007FFFFFF0001FFFFFFC0003FFFFFFE0001FFC0003FFFFFFE0
310
001FFF0003FFFFFFFFF0003FFFFFFFFFF000E0003FFFFF0001FF8001FFE00000
310
1FFE0007FF80007FC0007FFFFE0003FC0007FFFFE0003FF8000001FFFE000000
310
7FFFFFF0001FFFFFFE0003FFFFFFE0003FFE0003FFFFFFE0003FFF0003FFFFFF
310
FFF0003FFFFF8001F000E0003FFFFF0001FF0001FFE000001FFE0007FF80007F
310
C0007FFFFE0003FC0007FFFFE0003FF8000001FFFE0000007FFFFFF0001FFFFF
310
FE0001FFFFFFC0003FFE0001FFFFFFC0003FFF0003FFFFFFFFF0003FFFFF0001
310
F000E0003FFFFF0003FF0001FFE000003FFE0007FF80007FC0007FFFFE0003FC
310
0007FFFFE0003FF8000001FFFE0000007FFFFFF0001FFFFFFF0001FFFFFFC000
310
7FFF0001FFFFFFC0007FFF0003FFFFFFFFF0003FFFFF0001F000E0003FFFFE00
310
03FF0003FFF000003FFE0003FF80007FC0007FFFFC0003FE0007FFFFE0003FF8
310
000001FFFE0000007FFFFFF0001FFFFFFF0000FFFFFF80007FFF0000FFFFFF80
310
007FFF0003FFFFFFFFF0003FFFFF0001F000E0003FFFFE0003FF0003FFF00000
310
3FFF0003FF80007FC0007FFFFC0007FE0007FFFFC0003FF8000001FFFE000000
310
7FFFFFF0001FFFFFFF80007FFFFF0000FFFF80007FFFFF0000FFFF0003FFFFFF
310
FFF0003FFFFF0003F000E0003FFFFC0003FE0003FFF000003FFF0003FF80007F
310
E0003FFFF80007FE0003FFFFC0007FF8000001FFFE0000007FFFFFF0001FFFFF
310
FF80003FFFFE0000FFFF80003FFFFE0000FFFF0003FFFFFFFFF0001FFFFE0003
310
F000F0001FFFF80003FE0003FFF000007FFF0001FF80007FE0003FFFF00007FE
310
0001FFFF80007FF8000001FFFE0000007FFFFFF0001FFFFFFFC0000FFFF80001
310
FFFFC0000FFFF80001FFFF0003FFFFFFFFF0001FFFFC0003F000F0000FFFF000
310
07FE0007FFF800007FFF0001FF80007FE0001FFFE00007FF0000FFFE00007FF8
310
000001FFFE0000007FFFFFF0001FFFFFFFC00003FFE00001FFFFC00003FFE000
310
01FFFF0003FFFFFFFFF8000FFFF80003F000F00003FFC00007FC0007FFF80000
310
7FFF8001FF80007FF00007FF80000FFF00007FF80000FFF8000001FFFE000000
310
7F80000000000001FFE000003E000003FFFFE000003E000003FFFF0003FFFFFF
310
FFF80003FFE00007F000F800000000000FFC0007FFF800007FFF8001FF80007F
310
F000000000000FFF000000000000FFF8000001FFFE0000007F80000000000001
310
FFF0000000000007FFFFF0000000000007FFFF0003FFFFFFFFFC00007E000007
310
F000F800000000000FFC0007FFF80000FFFF8000FF80007FF800000000001FFF
310
800000000001FFF8000001FFFE0000007F80000000000001FFF800000000000F
310
FFFFF800000000000FFFFF0003FFFFFFFFFC00000000000FF000FC0000000000
310
1FFC0007FFFC0000FFFF8000FF80007FF800000000003FFFC00000000001FFF8
310
000001FFFE0000007F80000000000001FFF800000000000FFFFFF80000000000
310
0FFFFF0003FFFFFFFFFE00000000001FF000FE00000000003FF8000FFFFC0000
310
FFFF8000FF80007FFC00000000003FFFC00000000003FFF8000001FFFE000000
310
7F80000000000001FFFC00000000001FFFFFFC00000000001FFFFF0003FFFFFF
310
FFFF00000000001FF000FF00000000003FF8000FFFFC0000FFFFC000FF80007F
310
FE00000000007FFFE00000000007FFF8000001FFFE0000007F80000000000001
310
FFFE00000000003FFFFFFE00000000003FFFFF0003FFFFFFFFFF80000000003F
310
F000FF80000000007FF8000FFFFC0001FFFFC0007F80007FFF0000000000FFFF
310
F0000000000FFFF800000000000000007F80000000000001FFFF8000000000FF
310
FFFFFF8000000000FFFFFF0003FFFFFFFFFFC0000000007FF000FFC000000000
310
FFF8000FFFFE0001FFFFC0007F80007FFF8000000001FFFFF8000000001FFFF8
310
00000000000000007F80000000000001FFFFC000000001FFFFFFFFC000000001
310
FFFFFF0003FFFFFFFFFFE000000000FFF000FFE000000003FFF0001FFFFE0001
310
FFFFC0007F80007FFFC000000007FFFFFE000000003FFFF80000000000000000
310
7F80000000000001FFFFE000000003FFFFFFFFE000000003FFFFFF0003FFFFFF
310
FFFFF000000003FFF000FFF80000000FFFF0001FFFFE0001FFFFE0007F80007F
310
FFF00000000FFFFFFF00000000FFFFF800000000000000007F80000000000001
310
FFFFF80000000FFFFFFFFFF80000000FFFFFFF0003FFFFFFFFFFFC0000000FFF
310
F000FFFE0000003FFFF0001FFFFE0003FFFFE0003F80007FFFFC0000003FFFFF
310
FFC0000003FFFFF800000000000000007F80000000000001FFFFFE0000003FFF
310
FFFFFFFE0000003FFFFFFF0003FFFFFFFFFFFF0000003FFFF000FFFF800000FF
310
FFF0001FFFFF0003FFFFE0003F80007FFFFF000001FFFFFFFFF800001FFFFFF8
310
00000000000000007F80000000000001FFFFFFC00001FFFFFFFFFFFFC00001FF
310
FFFFFF0003FFFFFFFFFFFFC00000FFFFF000FFFFF8000FFFFFFFFFFFFFFFFFFF
310
FFFFFFFFFFFFFFFFFFFFF0001FFFFFFFFFFF0000FFFFFFF80000000000000000
310
7FFFFFFFFFFFFFFFFFFFFFFC001FFFFFFFFFFFFFFC001FFFFFFFFFFFFFFFFFFF
310
FFFFFFFC001FFFFFF000FFFFFFFFFFFFFFFFFFFFFFFFFFFFFFFFFFFFFFFFFFFF
310
FFFFFFFFFFFFFFFFFFFFFFFFFFFFFFFFFFFFFFFFFFFFFFFFFFFFFFFFFFFFFFFF
310
FFFFFFFFFFFFFFFFFFFFFFFFFFFFFFFFFFFFFFFFFFFFFFFFFFFFFFFFFFFFFFFF
310
F000FFFFFFFFFFFFFFFFFFFFFFFFFFFFFFFFFFFFFFFFFFFFFFFFFFFFFFFFFFFF
310
FFFFFFFFFFFFFFFFFFFFFFFFFFFFFFFFFFFFFFFFFFFFFFFFFFFFFFFFFFFFFFFF
310
FFFFFFFFFFFFFFFFFFFFFFFFFFFFFFFFFFFFFFFFFFFFFFFFF000FFFFFFFFFFFF
310
FFFFFFFFFFFFFFFFFFFFFFFFFFFFFFFFFFFFFFFFFFFFFFFFFFFFFFFFFFFFFFFF
310
FFFFFFFFFFFFFFFFFFFFFFFFFFFFFFFFFFFFFFFFFFFFFFFFFFFFFFFFFFFFFFFF
310
FFFFFFFFFFFFFFFFFFFFFFFFFFFFFFFFF000FFFFFFFFFFFFFFFFFFFFFFFFFFFF
310
FFFFFFFFFFFFFFFFFFFFFFFFFFFFFFFFFFFFFFFFFFFFFFFFFFFFFFFFFFFFFFFF
310
FFFFFFFFFFFFFFFFFFFFFFFFFFFFFFFFFFFFFFFFFFFFFFFFFFFFFFFFFFFFFFFF
310
FFFFFFFFFFFFFFFFF000FFFFFFFFFFFFFFFFFFFFFFFFFFFFFFFFFFFFFFFFFFFF
310
FFFFFFFFFFFFFFFFFFFFFFFFFFFFFFFFFFFFFFFFFFFFFFFFFFFFFFFFFFFFFFFF
310
FFFFFFFFFFFFFFFFFFFFFFFFFFFFFFFFFFFFFFFFFFFFFFFFFFFFFFFFFFFFFFFF
310
F000FFFFFFFFFFFFFFFFFFFFFFFFFFFFFFFFFFFFFFFFFFFFFFFFFFFFFFFFFFFF
310
FFFFFFFFFFFFFFFFFFFFFFFFFFFFFFFFFFFFFFFFFFFFFFFFFFFFFFFFFFFFFFFF
310
FFFFFFFFFFFFFFFFFFFFFFFFFFFFFFFFFFFFFFFFFFFFFFFFF000FFFFFFFFFFFF
310
FFFFFFFFFFFFFFFFFFFFFFFFFFFFFFFFFFFFFFFFFFFFFFFFFFFFFFFFFFFFFFFF
310
FFFFFFFFFFFFFFFFFFFFFFFFFFFFFFFFFFFFFFFFFFFFFFFFFFFFFFFFFFFFFFFF
310
FFFFFFFFFFFFFFFFFFFFFFFFFFFFFFFFF000FFFFFFFFFFFFFFFFFFFFFFFFFFFF
310
FFFFFFFFFFFFFFFFFFFFFFFFFFFFFFFFFFFFFFFFFFFFFFFFFFFFFFFFFFFFFFFF
310
FFFFFFFFFFFFFFFFFFFFFFFFFFFFFFFFFFFFFFFFFFFFFFFFFFFFFFFFFFFFFFFF
310
FFFFFFFFFFFFFFFFF000FFFFFFFFFFFFFFFFFFFFFFFFFFFFFFFFFFFFFFFFFFFF
310
FFFFFFFFFFFFFFFFFFFFFFFFFFFFFFFFFFFFFFFFFFFFFFFFFFFFFFFFFFFFFFFF
310
FFFFFFFFFFFFFFFFFFFFFFFFFFFFFFFFFFFFFFFFFFFFFFFFFFFFFFFFFFFFFFFF
310
F000FFFFFFFFFFFFFFFFFFFFFFFFFFFFFFFFFFFFFFFFFFFFFFFFFFFFFFFFFFFF
310
FFFFFFFFFFFFFFFFFFFFFFFFFFFFFFFFFFFFFFFFFFFFFFFFFFFFFFFFFFFFFFFF
310
FFFFFFFFFFFFFFFFFFFFFFFFFFFFFFFFFFFFFFFFFFFFFFFFF000FFFFFFFFFFFF
310
FFFFFFFFFFFFFFFFFFFFFFFFFFFFFFFFFFFFFFFFFFFFFFFFFFFFFFFFFFFFFFFF
310
FFFFFFFFFFFFFFFFFFFFFFFFFFFFFFFFFFFFFFFFFFFFFFFFFFFFFFFFFFFFFFFF
310
FFFFFFFFFFFFFFFFFFFFFFFFFFFFFFFFF000FFFFFFFFFFFFFFFFFFFFFFFFFFFF
310
FFFFFFFFFFFFFFFFFFFFFFFFFFFFFFFFFFFFFFFFFFFFFFFFFFFFFFFFFFFFFFFF
310
FFFFFFFFFFFFFFFFFFFFFFFFFFFFFFFFFFFFFFFFFFFFFFFFFFFFFFFFFFFFFFFF
310
FFFFFFFFFFFFFFFFF000FFFFFFFFFFFFFFFFFFFFFFFFFFFFFFFFFFFFFFFFFFFF
310
FFFFFFFFFFFFFFFFFFFFFFFFFFFFFFFFFFFFFFFFFFFFFFFFFFFFFFFFFFFFFFFF
310
FFFFFFFFFFFFFFFFFFFFFFFFFFFFFFFFFFFFFFFFFFFFFFFFFFFFFFFFFFFFFFFF
310
F000FFFFFFFFFFFFFFFFFFFFFFFFFFFFFFFFFFFFFFFFFFFFFFFFFFFFFFFFFFFF
310
FFFFFFFFFFFFFFFFFFFFFFFFFFFFFFFFFFFFFFFFFFFFFFFFFFFFFFFFFFFFFFFF
310
FFFFFFFFFFFFFFFFFFFFFFFFFFFFFFFFFFFFFFFFFFFFFFFFF000FFFFFFFFFFFF
310
FFFFFFFFFFFFFFFFFFFFFFFFFFFFFFFFFFFFFFFFFFFFFFFFFFFFFFFFFFFFFFFF
310
FFFFFFFFFFFFFFFFFFFFFFFFFFFFFFFFFFFFFFFFFFFFFFFFFFFFFFFFFFFFFFFF
310
FFFFFFFFFFFFFFFFFFFFFFFFFFFFFFFFF000FFFFFFFFFFFFFFFFFFFFFFFFFFFF
310
FFFFFFFFFFFFFFFFFFFFFFFFFFFFFFFFFFFFFFFFFFFFFFFFFFFFFFFFFFFFFFFF
310
FFFFFFFFFFFFFFFFFFFFFFFFFFFFFFFFFFFFFFFFFFFFFFFFFFFFFFFFFFFFFFFF
310
FFFFFFFFFFFFFFFFF000FFFFFFFFFFFFFFFFFFFFFFFFFFFFFFFFFFFFFFFFFFFF
310
FFFFFFFFFFFFFFFFFFFFFFFFFFFFFFFFFFFFFFFFFFFFFFFFFFFFFFFFFFFFFFFF
310
FFFFFFFFFFFFFFFFFFFFFFFFFFFFFFFFFFFFFFFFFFFFFFFFFFFFFFFFFFFFFFFF
310
F000FFFFFFFFFFFFFFFFFFFFFFFFFFFFFFFFFFFFFFFFFFFFFFFFFFFFFFFFFFFF
310
FFFFFFFFFFFFFFFFFFFFFFFFFFFFFFFFFFFFFFFFFFFFFFFFFFFFFFFFFFFFFFFF
310
FFFFFFFFFFFFFFFFFFFFFFFFFFFFFFFFFFFFFFFFFFFFFFFFF000FFFFFFFFFFFF
310
FFFFFFFFFFFFFFFFFFFFFFFFFFFFFFFFFFFFFFFFFFFFFFFFFFFFFFFFFFFFFFFF
310
FFFFFFFFFFFFFFFFFFFFFFFFFFFFFFFFFFFFFFFFFFFFFFFFFFFFFFFFFFFFFFFF
310
FFFFFFFFFFFFFFFFFFFFFFFFFFFFFFFFF000FFFFFFFFFFFFFFFFFFFFFFFFFFFF
310
FFFFFFFFFFFFFFFFFFFFFFFFFFFFFFFFFFFFFFFFFFFFFFFFFFFFFFFFFFFFFFFF
310
FFFFFFFFFFFFFFFFFFFFFFFFFFFFFFFFFFFFFFFFFFFFFFFFFFFFFFFFFFFFFFFF
310
FFFFFFFFFFFFFFFFF000FFFFFFFFFFFFFFFFFFFFFFFFFFFFFFFFFFFFFFFFFFFF
310
FFFFFFFFFFFFFFFFFFFFFFFFFFFFFFFFFFFFFFFFFFFFFFFFFFFFFFFFFFFFFFFF
310
FFFFFFFFFFFFFFFFFFFFFFFFFFFFFFFFFFFFFFFFFFFFFFFFFFFFFFFFFFFFFFFF
310
F000FFFFFFFFFFFFFFFFFFFFFFFFFFFFFFFFFFFFFFFFFFFFFFFFFFFFFFFFFFFF
310
FFFFFFFFFFFFFFFFFFFFFFFFFFFFFFFFFFFFFFFFFFFFFFFFFFFFFFFFFFFFFFFF
310
FFFFFFFFFFFFFFFFFFFFFFFFFFFFFFFFFFFFFFFFFFFFFFFFF000FFFFFFFFFFFF
310
FFFFFFFFFFFFFFFFFFFFFFFFFFFFFFFFFFFFFFFFFFFFFFFFFFFFFFFFFFFFFFFF
310
FFFFFFFFFFFFFFFFFFFFFFFFFFFFFFFFFFFFFFFFFFFFFFFFFFFFFFFFFFFFFFFF
310
FFFFFFFFFFFFFFFFFFFFFFFFFFFFFFFFF0000000000000000000000000000000
310
0000000000000000000000000000000000000000000000000000000000000000
310
0000000000000000000000000000000000000000000000000000000000000000
310
0000000000000000000000000000000000000000000000000000000000000000
310
0000000000000000000000000000000000000000000000000000000000000000
310
0000000000000000000000000000000000000000000000000000000000000000
310
0000000000000000000000000000000000000000000000000000000000000000
310
0000000000000000000000000000000000000000000000000000000000000000
310
0000000000000000000000000000000000000000000000000000000000000000
310
0000000000000000000000000000000000000000000000000000000000000000
310
0000000000000000000000000000000000000000000000000000000000000000
310
0000000000000000000000000000000000000000000000000000000000000000
310
0000000000000000000000000000000000000000000000000000000000000000
310
0000000000000000000000000000000000000000000000000000000000000000
310
0000000000000000000000000000000000000000000000000000000000000000
310
0000000000000000000000000000000000000000000000000000000000000000
  1
OLE
  0
ENDSEC
  0
SECTION
  2
OBJECTS
  0
DICTIONARY
  5
C
330
0
100
AcDbDictionary
281
     1
  3
ACAD_GROUP
350
D
  3
ACAD_LAYOUT
350
1A
  3
ACAD_MLINESTYLE
350
17
  3
ACAD_PLOTSETTINGS
350
19
  3
ACAD_PLOTSTYLENAME
350
E
  0
DICTIONARY
  5
D
102
{ACAD_REACTORS
330
C
102
}
330
C
100
AcDbDictionary
281
     1
  0
DICTIONARY
  5
1A
102
{ACAD_REACTORS
330
C
102
}
330
C
100
AcDbDictionary
281
     1
  3
Layout1
350
1E
  3
Layout2
350
26
  3
Model
350
22
  0
DICTIONARY
  5
17
102
{ACAD_REACTORS
330
C
102
}
330
C
100
AcDbDictionary
281
     1
  3
Standard
350
18
  0
DICTIONARY
  5
19
102
{ACAD_REACTORS
330
C
102
}
330
C
100
AcDbDictionary
281
     1
  0
ACDBDICTIONARYWDFLT
  5
E
102
{ACAD_REACTORS
330
C
102
}
330
C
100
AcDbDictionary
281
     1
  3
Normal
350
F
100
AcDbDictionaryWithDefault
340
F
  0
LAYOUT
  5
1E
102
{ACAD_REACTORS
330
1A
102
}
330
1A
100
AcDbPlotSettings
  1

  2
none_device
  4

  6

 40
0.0
 41
0.0
 42
0.0
 43
0.0
 44
0.0
 45
0.0
 46
0.0
 47
0.0
 48
0.0
 49
0.0
140
0.0
141
0.0
142
1.0
143
1.0
 70
   688
 72
     0
 73
     0
 74
     5
  7

 75
    16
147
1.0
148
0.0
149
0.0
100
AcDbLayout
  1
Layout1
 70
     1
 71
     1
 10
0.0
 20
0.0
 11
420.0
 21
297.0
 12
0.0
 22
0.0
 32
0.0
 14
1.0000000000E+20
 24
1.0000000000E+20
 34
1.0000000000E+20
 15
-1.0000000000E+20
 25
-1.0000000000E+20
 35
-1.0000000000E+20
146
0.0
 13
0.0
 23
0.0
 33
0.0
 16
1.0
 26
0.0
 36
0.0
 17
0.0
 27
1.0
 37
0.0
 76
     0
330
1B
  0
LAYOUT
  5
26
102
{ACAD_REACTORS
330
1A
102
}
330
1A
100
AcDbPlotSettings
  1

  2
none_device
  4

  6

 40
0.0
 41
0.0
 42
0.0
 43
0.0
 44
0.0
 45
0.0
 46
0.0
 47
0.0
 48
0.0
 49
0.0
140
0.0
141
0.0
142
1.0
143
1.0
 70
   688
 72
     0
 73
     0
 74
     5
  7

 75
    16
147
1.0
148
0.0
149
0.0
100
AcDbLayout
  1
Layout2
 70
     1
 71
     2
 10
0.0
 20
0.0
 11
0.0
 21
0.0
 12
0.0
 22
0.0
 32
0.0
 14
0.0
 24
0.0
 34
0.0
 15
0.0
 25
0.0
 35
0.0
146
0.0
 13
0.0
 23
0.0
 33
0.0
 16
1.0
 26
0.0
 36
0.0
 17
0.0
 27
1.0
 37
0.0
 76
     0
330
23
  0
LAYOUT
  5
22
102
{ACAD_REACTORS
330
1A
102
}
330
1A
100
AcDbPlotSettings
  1

  2
none_device
  4

  6

 40
0.0
 41
0.0
 42
0.0
 43
0.0
 44
0.0
 45
0.0
 46
0.0
 47
0.0
 48
0.0
 49
0.0
140
0.0
141
0.0
142
1.0
143
1.0
 70
  1712
 72
     0
 73
     0
 74
     0
  7

 75
     0
147
1.0
148
0.0
149
0.0
100
AcDbLayout
  1
Model
 70
     1
 71
     0
 10
0.0
 20
0.0
 11
297.0
 21
210.0
 12
0.0
 22
0.0
 32
0.0
 14
0.0
 24
0.0
 34
0.0
 15
297.0
 25
210.0
 35
0.0
146
0.0
 13
0.0
 23
0.0
 33
0.0
 16
1.0
 26
0.0
 36
0.0
 17
0.0
 27
1.0
 37
0.0
 76
     0
330
1F
331
29
  0
MLINESTYLE
  5
18
102
{ACAD_REACTORS
330
17
102
}
330
17
100
AcDbMlineStyle
  2
Standard
 70
     0
  3

 62
   256
 51
90.0
 52
90.0
 71
     2
 49
0.5
 62
   256
  6
BYLAYER
 49
-0.5
 62
   256
  6
BYLAYER
  0
ACDBPLACEHOLDER
  5
F
102
{ACAD_REACTORS
330
E
102
}
330
E
  0
ENDSEC
  0
EOF
