  0
SECTION
  2
HEADER
  9
$ACADVER
  1
AC1015
  9
$ACADMAINTVER
 70
     6
  9
$DWGCODEPAGE
  3
ANSI_1252
  9
$INSBASE
 10
0.0
 20
0.0
 30
0.0
  9
$EXTMIN
 10
0.0
 20
0.0
 30
0.0
  9
$EXTMAX
 10
297.0
 20
210.0
 30
0.0
  9
$LIMMIN
 10
0.0
 20
0.0
  9
$LIMMAX
 10
297.0
 20
210.0
  9
$ORTHOMODE
 70
     0
  9
$REGENMODE
 70
     1
  9
$FILLMODE
 70
     1
  9
$QTEXTMODE
 70
     0
  9
$MIRRTEXT
 70
     1
  9
$LTSCALE
 40
1.0
  9
$ATTMODE
 70
     1
  9
$TEXTSIZE
 40
2.0
  9
$TRACEWID
 40
1.0
  9
$TEXTSTYLE
  7
Standard
  9
$CLAYER
  8
0
  9
$CELTYPE
  6
ByLayer
  9
$CECOLOR
 62
   256
  9
$CELTSCALE
 40
1.0
  9
$DISPSILH
 70
     0
  9
$DIMSCALE
 40
1.0
  9
$DIMASZ
 40
3.0
  9
$DIMEXO
 40
0.0
  9
$DIMDLI
 40
3.75
  9
$DIMRND
 40
0.0
  9
$DIMDLE
 40
0.0
  9
$DIMEXE
 40
1.0
  9
$DIMTP
 40
0.0
  9
$DIMTM
 40
0.0
  9
$DIMTXT
 40
2.0
  9
$DIMCEN
 40
2.5
  9
$DIMTSZ
 40
0.0
  9
$DIMTOL
 70
     0
  9
$DIMLIM
 70
     0
  9
$DIMTIH
 70
     1
  9
$DIMTOH
 70
     1
  9
$DIMSE1
 70
     0
  9
$DIMSE2
 70
     0
  9
$DIMTAD
 70
     1
  9
$DIMZIN
 70
     0
  9
$DIMBLK
  1

  9
$DIMASO
 70
     1
  9
$DIMSHO
 70
     1
  9
$DIMPOST
  1

  9
$DIMAPOST
  1

  9
$DIMALT
 70
     0
  9
$DIMALTD
 70
     3
  9
$DIMALTF
 40
0.0393700787
  9
$DIMLFAC
 40
1.0
  9
$DIMTOFL
 70
     1
  9
$DIMTVP
 40
0.0
  9
$DIMTIX
 70
     0
  9
$DIMSOXD
 70
     0
  9
$DIMSAH
 70
     0
  9
$DIMBLK1
  1

  9
$DIMBLK2
  1

  9
$DIMSTYLE
  2
ISO-25
  9
$DIMCLRD
 70
     0
  9
$DIMCLRE
 70
     0
  9
$DIMCLRT
 70
     0
  9
$DIMTFAC
 40
1.0
  9
$DIMGAP
 40
1.524
  9
$DIMJUST
 70
     0
  9
$DIMSD1
 70
     0
  9
$DIMSD2
 70
     0
  9
$DIMTOLJ
 70
     0
  9
$DIMTZIN
 70
     0
  9
$DIMALTZ
 70
     0
  9
$DIMALTTZ
 70
     0
  9
$DIMUPT
 70
     0
  9
$DIMDEC
 70
     2
  9
$DIMTDEC
 70
     3
  9
$DIMALTU
 70
     2
  9
$DIMALTTD
 70
     3
  9
$DIMTXSTY
  7
Standard
  9
$DIMAUNIT
 70
     0
  9
$DIMADEC
 70
     2
  9
$DIMALTRND
 40
0.0
  9
$DIMAZIN
 70
     0
  9
$DIMDSEP
 70
    44
  9
$DIMATFIT
 70
     3
  9
$DIMFRAC
 70
     0
  9
$DIMLDRBLK
  1

  9
$DIMLUNIT
 70
     2
  9
$DIMLWD
 70
    -2
  9
$DIMLWE
 70
    -2
  9
$DIMTMOVE
 70
     0
  9
$LUNITS
 70
     2
  9
$LUPREC
 70
     2
  9
$SKETCHINC
 40
1.0
  9
$FILLETRAD
 40
10.0
  9
$AUNITS
 70
     0
  9
$AUPREC
 70
     2
  9
$MENU
  1
.
  9
$ELEVATION
 40
0.0
  9
$PELEVATION
 40
0.0
  9
$THICKNESS
 40
0.0
  9
$LIMCHECK
 70
     0
  9
$CHAMFERA
 40
10.0
  9
$CHAMFERB
 40
10.0
  9
$CHAMFERC
 40
20.0
  9
$CHAMFERD
 40
0.0
  9
$SKPOLY
 70
     0
  9
$TDCREATE
 40
2456434.41831934
  9
$TDUCREATE
 40
2456434.334986007
  9
$TDUPDATE
 40
2456434.418320787
  9
$TDUUPDATE
 40
2456434.334987454
  9
$TDINDWG
 40
0.0000000116
  9
$TDUSRTIMER
 40
0.0000000116
  9
$USRTIMER
 70
     1
  9
$ANGBASE
 50
0.0
  9
$ANGDIR
 70
     0
  9
$PDMODE
 70
     0
  9
$PDSIZE
 40
-1.0
  9
$PLINEWID
 40
0.0
  9
$SPLFRAME
 70
     0
  9
$SPLINETYPE
 70
     6
  9
$SPLINESEGS
 70
     8
  9
$HANDSEED
  5
392
  9
$SURFTAB1
 70
     6
  9
$SURFTAB2
 70
     6
  9
$SURFTYPE
 70
     6
  9
$SURFU
 70
     6
  9
$SURFV
 70
     6
  9
$UCSBASE
  2

  9
$UCSNAME
  2

  9
$UCSORG
 10
0.0
 20
0.0
 30
0.0
  9
$UCSXDIR
 10
1.0
 20
0.0
 30
0.0
  9
$UCSYDIR
 10
0.0
 20
1.0
 30
0.0
  9
$UCSORTHOREF
  2

  9
$UCSORTHOVIEW
 70
     0
  9
$UCSORGTOP
 10
0.0
 20
0.0
 30
0.0
  9
$UCSORGBOTTOM
 10
0.0
 20
0.0
 30
0.0
  9
$UCSORGLEFT
 10
0.0
 20
0.0
 30
0.0
  9
$UCSORGRIGHT
 10
0.0
 20
0.0
 30
0.0
  9
$UCSORGFRONT
 10
0.0
 20
0.0
 30
0.0
  9
$UCSORGBACK
 10
0.0
 20
0.0
 30
0.0
  9
$PUCSBASE
  2

  9
$PUCSNAME
  2

  9
$PUCSORG
 10
0.0
 20
0.0
 30
0.0
  9
$PUCSXDIR
 10
1.0
 20
0.0
 30
0.0
  9
$PUCSYDIR
 10
0.0
 20
1.0
 30
0.0
  9
$PUCSORTHOREF
  2

  9
$PUCSORTHOVIEW
 70
     0
  9
$PUCSORGTOP
 10
0.0
 20
0.0
 30
0.0
  9
$PUCSORGBOTTOM
 10
0.0
 20
0.0
 30
0.0
  9
$PUCSORGLEFT
 10
0.0
 20
0.0
 30
0.0
  9
$PUCSORGRIGHT
 10
0.0
 20
0.0
 30
0.0
  9
$PUCSORGFRONT
 10
0.0
 20
0.0
 30
0.0
  9
$PUCSORGBACK
 10
0.0
 20
0.0
 30
0.0
  9
$USERI1
 70
     0
  9
$USERI2
 70
     0
  9
$USERI3
 70
     0
  9
$USERI4
 70
     0
  9
$USERI5
 70
     0
  9
$USERR1
 40
0.0
  9
$USERR2
 40
0.0
  9
$USERR3
 40
0.0
  9
$USERR4
 40
0.0
  9
$USERR5
 40
0.0
  9
$WORLDVIEW
 70
     1
  9
$SHADEDGE
 70
     3
  9
$SHADEDIF
 70
    70
  9
$TILEMODE
 70
     1
  9
$MAXACTVP
 70
    64
  9
$PINSBASE
 10
0.0
 20
0.0
 30
0.0
  9
$PLIMCHECK
 70
     0
  9
$PEXTMIN
 10
1.0000000000E+20
 20
1.0000000000E+20
 30
1.0000000000E+20
  9
$PEXTMAX
 10
-1.0000000000E+20
 20
-1.0000000000E+20
 30
-1.0000000000E+20
  9
$PLIMMIN
 10
0.0
 20
0.0
  9
$PLIMMAX
 10
420.0
 20
297.0
  9
$UNITMODE
 70
     0
  9
$VISRETAIN
 70
     1
  9
$PLINEGEN
 70
     0
  9
$PSLTSCALE
 70
     1
  9
$TREEDEPTH
 70
  3020
  9
$CMLSTYLE
  2
Standard
  9
$CMLJUST
 70
     0
  9
$CMLSCALE
 40
20.0
  9
$PROXYGRAPHICS
 70
     1
  9
$MEASUREMENT
 70
     1
  9
$CELWEIGHT
370
    -1
  9
$ENDCAPS
280
     0
  9
$JOINSTYLE
280
     0
  9
$LWDISPLAY
290
     1
  9
$INSUNITS
 70
     4
  9
$HYPERLINKBASE
  1

  9
$STYLESHEET
  1

  9
$XEDIT
290
     1
  9
$CEPSNTYPE
380
     0
  9
$PSTYLEMODE
290
     1
  9
$FINGERPRINTGUID
  2
{5C72C909-4B18-4812-B5B2-2FB574C083CD}
  9
$VERSIONGUID
  2
{FAEB1C32-E019-11D5-929B-00C0DF256EC4}
  9
$EXTNAMES
290
     1
  9
$PSVPSCALE
 40
0.0
  9
$OLESTARTUP
290
     0
  0
ENDSEC
  0
SECTION
  2
CLASSES
  0
CLASS
  1
ACDBDICTIONARYWDFLT
  2
AcDbDictionaryWithDefault
  3
ObjectDBX Classes
 90
        0
280
     0
281
     0
  0
CLASS
  1
VISUALSTYLE
  2
AcDbVisualStyle
  3
ObjectDBX Classes
 90
     4095
280
     0
281
     0
  0
CLASS
  1
MATERIAL
  2
AcDbMaterial
  3
ObjectDBX Classes
 90
     1153
280
     0
281
     0
  0
CLASS
  1
ACDBPLACEHOLDER
  2
AcDbPlaceHolder
  3
ObjectDBX Classes
 90
        0
280
     0
281
     0
  0
CLASS
  1
LAYOUT
  2
AcDbLayout
  3
ObjectDBX Classes
 90
        0
280
     0
281
     0
  0
ENDSEC
  0
SECTION
  2
TABLES
  0
TABLE
  2
VPORT
  5
8
330
0
100
AcDbSymbolTable
 70
     1
  0
VPORT
  5
29
330
8
100
AcDbSymbolTableRecord
100
AcDbViewportTableRecord
  2
*Active
 70
     0
 10
0.0
 20
0.0
 11
1.0
 21
1.0
 12
148.5
 22
105.0
 13
0.0
 23
0.0
 14
10.0
 24
10.0
 15
10.0
 25
10.0
 16
0.0
 26
0.0
 36
1.0
 17
0.0
 27
0.0
 37
0.0
 40
210.0
 41
1.4142857143
 42
50.0
 43
0.0
 44
0.0
 50
0.0
 51
0.0
 71
     0
 72
  2000
 73
     1
 74
     3
 75
     0
 76
     0
 77
     0
 78
     0
281
     0
 65
     1
110
0.0
120
0.0
130
0.0
111
1.0
121
0.0
131
0.0
112
0.0
122
1.0
132
0.0
 79
     0
146
0.0
  0
ENDTAB
  0
TABLE
  2
LTYPE
  5
5
330
0
100
AcDbSymbolTable
 70
     6
  0
LTYPE
  5
14
330
5
100
AcDbSymbolTableRecord
100
AcDbLinetypeTableRecord
  2
ByBlock
 70
     0
  3

 72
    65
 73
     0
 40
0.0
  0
LTYPE
  5
15
330
5
100
AcDbSymbolTableRecord
100
AcDbLinetypeTableRecord
  2
ByLayer
 70
     0
  3

 72
    65
 73
     0
 40
0.0
  0
LTYPE
  5
16
330
5
100
AcDbSymbolTableRecord
100
AcDbLinetypeTableRecord
  2
Continuous
 70
     0
  3
Solid line
 72
    65
 73
     0
 40
0.0
  0
LTYPE
  5
3F
330
5
100
AcDbSymbolTableRecord
100
AcDbLinetypeTableRecord
  2
HIDDEN
 70
     0
  3
Hidden __ __ __ __ __ __ __ __ __ __ __ __ __ __
 72
    65
 73
     2
 40
1.905
 49
1.27
 74
     0
 49
-0.635
 74
     0
  0
LTYPE
  5
40
330
5
100
AcDbSymbolTableRecord
100
AcDbLinetypeTableRecord
  2
PHANTOM
 70
     0
  3
Phantom ______  __  __  ______  __  __  ______
 72
    65
 73
     6
 40
12.7
 49
6.35
 74
     0
 49
-1.27
 74
     0
 49
1.27
 74
     0
 49
-1.27
 74
     0
 49
1.27
 74
     0
 49
-1.27
 74
     0
  0
LTYPE
  5
41
330
5
100
AcDbSymbolTableRecord
100
AcDbLinetypeTableRecord
  2
CENTER
 70
     0
  3
Center ____ _ ____ _ ____ _ ____ _ ____ _ ____
 72
    65
 73
     4
 40
10.16
 49
6.35
 74
     0
 49
-1.27
 74
     0
 49
1.27
 74
     0
 49
-1.27
 74
     0
  0
LTYPE
  5
42
330
5
100
AcDbSymbolTableRecord
100
AcDbLinetypeTableRecord
  2
CENTERX2
 70
     0
  3
Center (2x) ________  __  ________  __  _____
 72
    65
 73
     4
 40
20.32
 49
12.7
 74
     0
 49
-2.54
 74
     0
 49
2.54
 74
     0
 49
-2.54
 74
     0
  0
LTYPE
  5
43
330
5
100
AcDbSymbolTableRecord
100
AcDbLinetypeTableRecord
  2
DOT2
 70
     0
  3
Dot (.5x) ........................................
 72
    65
 73
     2
 40
0.635
 49
0.0
 74
     0
 49
-0.635
 74
     0
  0
ENDTAB
  0
TABLE
  2
LAYER
  5
2
330
0
100
AcDbSymbolTable
 70
     5
  0
LAYER
  5
10
330
2
100
AcDbSymbolTableRecord
100
AcDbLayerTableRecord
  2
0
 70
     0
 62
     7
  6
Continuous
370
    -3
390
F
  0
LAYER
  5
44
330
2
100
AcDbSymbolTableRecord
100
AcDbLayerTableRecord
  2
FORMAT
 70
     0
 62
     7
  6
Continuous
370
    -3
390
F
  0
LAYER
  5
45
330
2
100
AcDbSymbolTableRecord
100
AcDbLayerTableRecord
  2
VERMASSUNG
 70
     0
 62
     7
  6
Continuous
370
    -3
390
F
  0
LAYER
  5
46
330
2
100
AcDbSymbolTableRecord
100
AcDbLayerTableRecord
  2
KOPF_DÜNN
 70
     0
 62
     7
  6
Continuous
370
    -3
390
F
  0
LAYER
  5
47
330
2
100
AcDbSymbolTableRecord
100
AcDbLayerTableRecord
  2
KOPF_DICK
 70
     0
 62
     7
  6
Continuous
370
    15
390
F
  0
ENDTAB
  0
TABLE
  2
STYLE
  5
3
330
0
100
AcDbSymbolTable
 70
     2
  0
STYLE
  5
11
330
3
100
AcDbSymbolTableRecord
100
AcDbTextStyleTableRecord
  2
Standard
 70
     0
 40
0.0
 41
1.0
 50
0.0
 71
     0
 42
2.0
  3
txt
  4

  0
STYLE
  5
48
330
3
100
AcDbSymbolTableRecord
100
AcDbTextStyleTableRecord
  2
SLDTEXTSTYLE0
 70
     0
 40
0.0
 41
0.7
 50
0.0
 71
     0
 42
0.2
  3
TXT
  4

  0
ENDTAB
  0
TABLE
  2
VIEW
  5
6
330
0
100
AcDbSymbolTable
 70
     0
  0
ENDTAB
  0
TABLE
  2
UCS
  5
7
330
0
100
AcDbSymbolTable
 70
     0
  0
ENDTAB
  0
TABLE
  2
APPID
  5
9
330
0
100
AcDbSymbolTable
 70
     1
  0
APPID
  5
12
330
9
100
AcDbSymbolTableRecord
100
AcDbRegAppTableRecord
  2
ACAD
 70
     0
  0
ENDTAB
  0
TABLE
  2
DIMSTYLE
  5
A
330
0
100
AcDbSymbolTable
 70
     5
100
AcDbDimStyleTable
  0
DIMSTYLE
105
27
330
A
100
AcDbSymbolTableRecord
100
AcDbDimStyleTableRecord
  2
ISO-25
 70
     0
 41
2.5
 42
0.625
 43
3.75
 44
1.25
 73
     0
 74
     0
 77
     1
 78
     8
140
2.5
141
2.5
143
0.0393700787
147
0.625
171
     3
172
     1
178
     0
271
     2
272
     2
274
     3
278
    44
283
     0
284
     8
340
11
  0
DIMSTYLE
105
257
102
{ACAD_REACTORS
330
256
330
262
102
}
330
A
100
AcDbSymbolTableRecord
100
AcDbDimStyleTableRecord
  2
SLDDIMSTYLE0
 70
     0
 41
3.0
 44
0.0
 45
0.000000001
 47
0.1
 48
0.1
 71
     1
 73
     0
 74
     0
 77
     1
 78
    12
 79
     3
140
2.0
147
0.5
173
     1
178
     0
271
     2
272
     1
276
     2
284
     8
340
48
  0
DIMSTYLE
105
26F
102
{ACAD_REACTORS
330
26E
330
279
102
}
330
A
100
AcDbSymbolTableRecord
100
AcDbDimStyleTableRecord
  2
SLDDIMSTYLE1
 70
     0
 41
3.0
 44
0.0
 45
0.000000001
 73
     0
 74
     0
 77
     1
 78
    12
 79
     3
140
2.0
147
0.5
173
     1
178
     0
271
     2
272
     3
276
     2
284
    12
340
48
  0
DIMSTYLE
105
315
102
{ACAD_REACTORS
330
314
102
}
330
A
100
AcDbSymbolTableRecord
100
AcDbDimStyleTableRecord
  2
SLDDIMSTYLE2
 70
     0
 41
3.0
 44
0.0
 73
     0
 74
     0
 77
     1
 78
    12
 79
     3
140
2.0
147
0.5
173
     1
178
     0
179
     1
272
     3
276
     2
284
    12
340
48
  0
DIMSTYLE
105
37A
330
A
100
AcDbSymbolTableRecord
100
AcDbDimStyleTableRecord
  2
SLDDIMSTYLE3
 70
     0
 41
0.9
 44
0.0
 45
0.000000001
140
0.0
146
0.9
147
0.0
173
     1
178
     0
271
     0
272
     0
276
     2
340
11
341
37B
343
37B
344
37B
  0
ENDTAB
  0
TABLE
  2
BLOCK_RECORD
  5
1
330
0
100
AcDbSymbolTable
 70
    12
  0
BLOCK_RECORD
  5
1F
330
1
100
AcDbSymbolTableRecord
100
AcDbBlockTableRecord
  2
*Model_Space
340
22
  0
BLOCK_RECORD
  5
1B
330
1
100
AcDbSymbolTableRecord
100
AcDbBlockTableRecord
  2
*Paper_Space
340
1E
  0
BLOCK_RECORD
  5
23
330
1
100
AcDbSymbolTableRecord
100
AcDbBlockTableRecord
  2
*Paper_Space0
340
26
  0
BLOCK_RECORD
  5
4E
330
1
100
AcDbSymbolTableRecord
100
AcDbBlockTableRecord
  2
SW_TABLEANNOTATION_0
340
0
102
{BLKREFS
331
6E
102
}
  0
BLOCK_RECORD
  5
258
330
1
100
AcDbSymbolTableRecord
100
AcDbBlockTableRecord
  2
_D
340
0
  0
BLOCK_RECORD
  5
263
330
1
100
AcDbSymbolTableRecord
100
AcDbBlockTableRecord
  2
_D_1
340
0
  0
BLOCK_RECORD
  5
270
330
1
100
AcDbSymbolTableRecord
100
AcDbBlockTableRecord
  2
_D_2
340
0
  0
BLOCK_RECORD
  5
27A
330
1
100
AcDbSymbolTableRecord
100
AcDbBlockTableRecord
  2
_D_3
340
0
  0
BLOCK_RECORD
  5
316
330
1
100
AcDbSymbolTableRecord
100
AcDbBlockTableRecord
  2
_D_4
340
0
  0
BLOCK_RECORD
  5
31F
330
1
100
AcDbSymbolTableRecord
100
AcDbBlockTableRecord
  2
SW_CENTERMARKSYMBOL_0
340
0
102
{BLKREFS
331
32A
102
}
  0
BLOCK_RECORD
  5
374
330
1
100
AcDbSymbolTableRecord
100
AcDbBlockTableRecord
  2
SW_NOTE_0
340
0
102
{BLKREFS
331
379
102
}
  0
BLOCK_RECORD
  5
37B
330
1
100
AcDbSymbolTableRecord
100
AcDbBlockTableRecord
  2
_DOT
340
0
  0
BLOCK_RECORD
  5
384
330
1
100
AcDbSymbolTableRecord
100
AcDbBlockTableRecord
  2
SW_NOTE_1
340
0
102
{BLKREFS
331
389
102
}
  0
BLOCK_RECORD
  5
38B
330
1
100
AcDbSymbolTableRecord
100
AcDbBlockTableRecord
  2
SW_NOTE_2
340
0
102
{BLKREFS
331
390
102
}
  0
ENDTAB
  0
ENDSEC
  0
SECTION
  2
BLOCKS
  0
BLOCK
  5
20
330
1F
100
AcDbEntity
  8
0
100
AcDbBlockBegin
  2
*Model_Space
 70
     0
 10
0.0
 20
0.0
 30
0.0
  3
*Model_Space
  1

  0
ENDBLK
  5
21
330
1F
100
AcDbEntity
  8
0
100
AcDbBlockEnd
  0
BLOCK
  5
1C
330
1B
100
AcDbEntity
 67
     1
  8
0
100
AcDbBlockBegin
  2
*Paper_Space
 70
     0
 10
0.0
 20
0.0
 30
0.0
  3
*Paper_Space
  1

  0
ENDBLK
  5
1D
330
1B
100
AcDbEntity
 67
     1
  8
0
100
AcDbBlockEnd
  0
BLOCK
  5
24
330
23
100
AcDbEntity
  8
0
100
AcDbBlockBegin
  2
*Paper_Space0
 70
     0
 10
0.0
 20
0.0
 30
0.0
  3
*Paper_Space0
  1

  0
ENDBLK
  5
25
330
23
100
AcDbEntity
  8
0
100
AcDbBlockEnd
  0
BLOCK
  5
4F
330
4E
100
AcDbEntity
  8
0
100
AcDbBlockBegin
  2
SW_TABLEANNOTATION_0
 70
     0
 10
0.0
 20
0.0
 30
0.0
  3
SW_TABLEANNOTATION_0
  1

  0
LINE
  5
51
330
4E
100
AcDbEntity
  8
VERMASSUNG
 62
     0
100
AcDbLine
 10
0.0
 20
0.0
 30
0.0
 11
0.0
 21
-14.6151950719
 31
0.0
  0
LINE
  5
52
330
4E
100
AcDbEntity
  8
VERMASSUNG
 62
     0
100
AcDbLine
 10
0.0
 20
-14.6151950719
 30
0.0
 11
145.6628592349
 21
-14.6151950719
 31
0.0
  0
LINE
  5
53
330
4E
100
AcDbEntity
  8
VERMASSUNG
 62
     0
100
AcDbLine
 10
145.6628592349
 20
-14.6151950719
 30
0.0
 11
145.6628592349
 21
0.0
 31
0.0
  0
LINE
  5
54
330
4E
100
AcDbEntity
  8
VERMASSUNG
 62
     0
100
AcDbLine
 10
145.6628592349
 20
0.0
 30
0.0
 11
0.0
 21
0.0
 31
0.0
  0
LINE
  5
55
330
4E
100
AcDbEntity
  8
VERMASSUNG
 62
     0
100
AcDbLine
 10
15.9651052694
 20
-10.9613963039
 30
0.0
 11
15.9651052694
 21
-14.6151950719
 31
0.0
  0
LINE
  5
56
330
4E
100
AcDbEntity
  8
VERMASSUNG
 62
     0
100
AcDbLine
 10
44.7305453454
 20
-10.9613963039
 30
0.0
 11
44.7305453454
 21
-14.6151950719
 31
0.0
  0
LINE
  5
57
330
4E
100
AcDbEntity
  8
VERMASSUNG
 62
     0
100
AcDbLine
 10
113.3170686805
 20
-10.9613963039
 30
0.0
 11
113.3170686805
 21
-14.6151950719
 31
0.0
  0
LINE
  5
58
330
4E
100
AcDbEntity
  8
VERMASSUNG
 62
     0
100
AcDbLine
 10
15.9651052694
 20
0.0
 30
0.0
 11
15.9651052694
 21
-10.9613963039
 31
0.0
  0
LINE
  5
59
330
4E
100
AcDbEntity
  8
VERMASSUNG
 62
     0
100
AcDbLine
 10
44.7305453454
 20
0.0
 30
0.0
 11
44.7305453454
 21
-10.9613963039
 31
0.0
  0
LINE
  5
5A
330
4E
100
AcDbEntity
  8
VERMASSUNG
 62
     0
100
AcDbLine
 10
113.3170686805
 20
0.0
 30
0.0
 11
113.3170686805
 21
-10.9613963039
 31
0.0
  0
LINE
  5
5B
330
4E
100
AcDbEntity
  8
VERMASSUNG
 62
     0
100
AcDbLine
 10
0.0
 20
-3.653798768
 30
0.0
 11
145.6628592349
 21
-3.653798768
 31
0.0
  0
LINE
  5
5C
330
4E
100
AcDbEntity
  8
VERMASSUNG
 62
     0
100
AcDbLine
 10
0.0
 20
-7.3075975359
 30
0.0
 11
145.6628592349
 21
-7.3075975359
 31
0.0
  0
LINE
  5
5D
330
4E
100
AcDbEntity
  8
VERMASSUNG
 62
     0
100
AcDbLine
 10
0.0
 20
-10.9613963039
 30
0.0
 11
145.6628592349
 21
-10.9613963039
 31
0.0
  0
MTEXT
  5
5E
330
4E
100
AcDbEntity
  8
VERMASSUNG
 62
     0
100
AcDbMText
 10
7.2825526014
 20
-0.9148112682
 30
0.0
 40
2.0
 41
0.0
 71
     1
 72
     1
  1
3
  7
SLDTEXTSTYLE0
 73
     1
 44
1.0
  0
MTEXT
  5
5F
330
4E
100
AcDbEntity
  8
VERMASSUNG
 62
     0
100
AcDbMText
 10
29.8478252836
 20
-0.9148112682
 30
0.0
 40
2.0
 41
0.0
 71
     1
 72
     1
  1
1
  7
SLDTEXTSTYLE0
 73
     1
 44
1.0
  0
MTEXT
  5
60
330
4E
100
AcDbEntity
  8
VERMASSUNG
 62
     0
100
AcDbMText
 10
73.5238065771
 20
-0.9148112682
 30
0.0
 40
2.0
 41
0.0
 71
     1
 72
     1
  1
Schraube
  7
SLDTEXTSTYLE0
 73
     1
 44
1.0
  0
MTEXT
  5
61
330
4E
100
AcDbEntity
  8
VERMASSUNG
 62
     0
100
AcDbMText
 10
119.4899632499
 20
-0.9148112682
 30
0.0
 40
2.0
 41
0.0
 71
     1
 72
     1
  1
WGB-ER2.001.012
  7
SLDTEXTSTYLE0
 73
     1
 44
1.0
  0
MTEXT
  5
62
330
4E
100
AcDbEntity
  8
VERMASSUNG
 62
     0
100
AcDbMText
 10
7.2825526014
 20
-4.5686100362
 30
0.0
 40
2.0
 41
0.0
 71
     1
 72
     1
  1
2
  7
SLDTEXTSTYLE0
 73
     1
 44
1.0
  0
MTEXT
  5
63
330
4E
100
AcDbEntity
  8
VERMASSUNG
 62
     0
100
AcDbMText
 10
29.8478252836
 20
-4.5686100362
 30
0.0
 40
2.0
 41
0.0
 71
     1
 72
     1
  1
1
  7
SLDTEXTSTYLE0
 73
     1
 44
1.0
  0
MTEXT
  5
64
330
4E
100
AcDbEntity
  8
VERMASSUNG
 62
     0
100
AcDbMText
 10
73.5238065771
 20
-4.5686100362
 30
0.0
 40
2.0
 41
0.0
 71
     1
 72
     1
  1
Schraube
  7
SLDTEXTSTYLE0
 73
     1
 44
1.0
  0
MTEXT
  5
65
330
4E
100
AcDbEntity
  8
VERMASSUNG
 62
     0
100
AcDbMText
 10
119.2899635896
 20
-4.5686100362
 30
0.0
 40
2.0
 41
0.0
 71
     1
 72
     1
  1
WGB-ER3.001.007
  7
SLDTEXTSTYLE0
 73
     1
 44
1.0
  0
MTEXT
  5
66
330
4E
100
AcDbEntity
  8
VERMASSUNG
 62
     0
100
AcDbMText
 10
7.4825526109
 20
-7.9563615069
 30
0.0
 40
2.0
 41
0.0
 71
     1
 72
     1
  1
1
  7
SLDTEXTSTYLE0
 73
     1
 44
1.0
  0
MTEXT
  5
67
330
4E
100
AcDbEntity
  8
VERMASSUNG
 62
     0
100
AcDbMText
 10
29.8478252836
 20
-7.9563615069
 30
0.0
 40
2.0
 41
0.0
 71
     1
 72
     1
  1
1
  7
SLDTEXTSTYLE0
 73
     1
 44
1.0
  0
MTEXT
  5
68
330
4E
100
AcDbEntity
  8
VERMASSUNG
 62
     0
100
AcDbMText
 10
73.1238063252
 20
-7.9563615069
 30
0.0
 40
2.0
 41
0.0
 71
     1
 72
     1
  1
Unterlage
  7
SLDTEXTSTYLE0
 73
     1
 44
1.0
  0
MTEXT
  5
69
330
4E
100
AcDbEntity
  8
VERMASSUNG
 62
     0
100
AcDbMText
 10
119.4899641812
 20
-7.9563615069
 30
0.0
 40
2.0
 41
0.0
 71
     1
 72
     1
  1
WGB-ER2.101.003
  7
SLDTEXTSTYLE0
 73
     1
 44
1.0
  0
MTEXT
  5
6A
330
4E
100
AcDbEntity
  8
VERMASSUNG
 62
     0
100
AcDbMText
 10
5.2825525646
 20
-11.6101602748
 30
0.0
 40
2.0
 41
0.0
 71
     1
 72
     1
  1
POS.
  7
SLDTEXTSTYLE0
 73
     1
 44
1.0
  0
MTEXT
  5
6B
330
4E
100
AcDbEntity
  8
VERMASSUNG
 62
     0
100
AcDbMText
 10
19.0478249453
 20
-11.6101602748
 30
0.0
 40
2.0
 41
0.0
 71
     1
 72
     1
  1
Ersatzteile/MENGE
  7
SLDTEXTSTYLE0
 73
     1
 44
1.0
  0
MTEXT
  5
6C
330
4E
100
AcDbEntity
  8
VERMASSUNG
 62
     0
100
AcDbMText
 10
71.7238059095
 20
-11.6101602748
 30
0.0
 40
2.0
 41
0.0
 71
     1
 72
     1
  1
Bezeichnung
  7
SLDTEXTSTYLE0
 73
     1
 44
1.0
  0
MTEXT
  5
6D
330
4E
100
AcDbEntity
  8
VERMASSUNG
 62
     0
100
AcDbMText
 10
118.3899623245
 20
-11.6101602748
 30
0.0
 40
2.0
 41
0.0
 71
     1
 72
     1
  1
Zeichnungsnummer
  7
SLDTEXTSTYLE0
 73
     1
 44
1.0
  0
ENDBLK
  5
50
330
4E
100
AcDbEntity
  8
0
100
AcDbBlockEnd
  0
BLOCK
  5
259
330
258
100
AcDbEntity
  8
0
100
AcDbBlockBegin
  2
_D
 70
     0
 10
0.0
 20
0.0
 30
0.0
  3
_D
  1

  0
SOLID
  5
25B
330
258
100
AcDbEntity
  8
VERMASSUNG
100
AcDbTrace
 10
278.6912709909
 20
85.457057216
 30
0.0
 11
279.1412709909
 21
88.457057216
 31
0.0
 12
278.2412709909
 22
88.457057216
 32
0.0
 13
278.2412709909
 23
88.457057216
 33
0.0
  0
SOLID
  5
25C
330
258
100
AcDbEntity
  8
VERMASSUNG
100
AcDbTrace
 10
278.6912709909
 20
130.457057216
 30
0.0
 11
278.2412709909
 21
127.457057216
 31
0.0
 12
279.1412709909
 22
127.457057216
 32
0.0
 13
279.1412709909
 23
127.457057216
 33
0.0
  0
LINE
  5
25D
330
258
100
AcDbEntity
  8
VERMASSUNG
100
AcDbLine
 10
267.5012426588
 20
85.457057216
 30
0.0
 11
279.6912709909
 21
85.457057216
 31
0.0
  0
LINE
  5
25E
330
258
100
AcDbEntity
  8
VERMASSUNG
100
AcDbLine
 10
278.6912709909
 20
85.457057216
 30
0.0
 11
278.6912709909
 21
130.457057216
 31
0.0
  0
MTEXT
  5
25F
330
258
100
AcDbEntity
  8
VERMASSUNG
100
AcDbMText
 10
276.1131356278
 20
103.3070571988
 30
0.1
 40
2.0
 41
0.0
 71
     1
 72
     1
  1
45
  7
SLDTEXTSTYLE0
 11
-1.608122649676637E-16
 21
1.0
 31
0.0
 73
     1
 44
1.0
  0
MTEXT
  5
260
330
258
100
AcDbEntity
  8
VERMASSUNG
100
AcDbMText
 10
276.1131356278
 20
109.2945574268
 30
0.1
 40
2.0
 41
0.0
 71
     1
 72
     1
  1

  7
SLDTEXTSTYLE0
 11
-1.608122649676637E-16
 21
1.0
 31
0.0
 73
     1
 44
1.0
  0
MTEXT
  5
261
330
258
100
AcDbEntity
  8
VERMASSUNG
100
AcDbMText
 10
276.6076694906
 20
109.307057251
 30
0.1
 40
1.5
 41
0.0
 71
     1
 72
     1
  1
±0.1
  7
SLDTEXTSTYLE0
 11
-1.608122649676637E-16
 21
1.0
 31
0.0
 73
     1
 44
1.0
  0
ENDBLK
  5
25A
330
258
100
AcDbEntity
  8
0
100
AcDbBlockEnd
  0
BLOCK
  5
264
330
263
100
AcDbEntity
  8
0
100
AcDbBlockBegin
  2
_D_1
 70
     0
 10
0.0
 20
0.0
 30
0.0
  3
_D_1
  1

  0
SOLID
  5
266
330
263
100
AcDbEntity
  8
VERMASSUNG
100
AcDbTrace
 10
202.5012426588
 20
138.042209102
 30
0.0
 11
205.5012426588
 21
137.592209102
 31
0.0
 12
205.5012426588
 22
138.492209102
 32
0.0
 13
205.5012426588
 23
138.492209102
 33
0.0
  0
SOLID
  5
267
330
263
100
AcDbEntity
  8
VERMASSUNG
100
AcDbTrace
 10
267.5012426588
 20
138.042209102
 30
0.0
 11
264.5012426588
 21
138.492209102
 31
0.0
 12
264.5012426588
 22
137.592209102
 32
0.0
 13
264.5012426588
 23
137.592209102
 33
0.0
  0
LINE
  5
268
330
263
100
AcDbEntity
  8
VERMASSUNG
100
AcDbLine
 10
202.5012426588
 20
116.457057216
 30
0.0
 11
202.5012426588
 21
139.042209102
 31
0.0
  0
LINE
  5
269
330
263
100
AcDbEntity
  8
VERMASSUNG
100
AcDbLine
 10
267.5012426588
 20
130.457057216
 30
0.0
 11
267.5012426588
 21
139.042209102
 31
0.0
  0
LINE
  5
26A
330
263
100
AcDbEntity
  8
VERMASSUNG
100
AcDbLine
 10
202.5012426588
 20
138.042209102
 30
0.0
 11
267.5012426588
 21
138.042209102
 31
0.0
  0
MTEXT
  5
26B
330
263
100
AcDbEntity
  8
VERMASSUNG
100
AcDbMText
 10
230.4512424718
 20
140.6203444652
 30
0.1
 40
2.0
 41
0.0
 71
     1
 72
     1
  1
65
  7
SLDTEXTSTYLE0
 73
     1
 44
1.0
  0
MTEXT
  5
26C
330
263
100
AcDbEntity
  8
VERMASSUNG
100
AcDbMText
 10
236.2387425738
 20
140.6203444652
 30
0.1
 40
2.0
 41
0.0
 71
     1
 72
     1
  1

  7
SLDTEXTSTYLE0
 73
     1
 44
1.0
  0
MTEXT
  5
26D
330
263
100
AcDbEntity
  8
VERMASSUNG
100
AcDbMText
 10
236.2512428637
 20
140.1258106024
 30
0.1
 40
1.5
 41
0.0
 71
     1
 72
     1
  1
±0.1
  7
SLDTEXTSTYLE0
 73
     1
 44
1.0
  0
ENDBLK
  5
265
330
263
100
AcDbEntity
  8
0
100
AcDbBlockEnd
  0
BLOCK
  5
271
330
270
100
AcDbEntity
  8
0
100
AcDbBlockBegin
  2
_D_2
 70
     0
 10
0.0
 20
0.0
 30
0.0
  3
_D_2
  1

  0
SOLID
  5
273
330
270
100
AcDbEntity
  8
VERMASSUNG
100
AcDbTrace
 10
164.5012426588
 20
143.7055214651
 30
0.0
 11
167.5012426588
 21
143.2555214651
 31
0.0
 12
167.5012426588
 22
144.1555214651
 32
0.0
 13
167.5012426588
 23
144.1555214651
 33
0.0
  0
SOLID
  5
274
330
270
100
AcDbEntity
  8
VERMASSUNG
100
AcDbTrace
 10
267.5012426588
 20
143.7055214651
 30
0.0
 11
264.5012426588
 21
144.1555214651
 31
0.0
 12
264.5012426588
 22
143.2555214651
 32
0.0
 13
264.5012426588
 23
143.2555214651
 33
0.0
  0
LINE
  5
275
330
270
100
AcDbEntity
  8
VERMASSUNG
100
AcDbLine
 10
164.5012426588
 20
105.7493952085
 30
0.0
 11
164.5012426588
 21
144.7055214651
 31
0.0
  0
LINE
  5
276
330
270
100
AcDbEntity
  8
VERMASSUNG
100
AcDbLine
 10
267.5012426588
 20
130.457057216
 30
0.0
 11
267.5012426588
 21
144.7055214651
 31
0.0
  0
LINE
  5
277
330
270
100
AcDbEntity
  8
VERMASSUNG
100
AcDbLine
 10
164.5012426588
 20
143.7055214651
 30
0.0
 11
267.5012426588
 21
143.7055214651
 31
0.0
  0
MTEXT
  5
278
330
270
100
AcDbEntity
  8
VERMASSUNG
100
AcDbMText
 10
213.2012425258
 20
146.2836568283
 30
0.1
 40
2.0
 41
0.0
 71
     1
 72
     1
  1
103
  7
SLDTEXTSTYLE0
 73
     1
 44
1.0
  0
ENDBLK
  5
272
330
270
100
AcDbEntity
  8
0
100
AcDbBlockEnd
  0
BLOCK
  5
27B
330
27A
100
AcDbEntity
  8
0
100
AcDbBlockBegin
  2
_D_3
 70
     0
 10
0.0
 20
0.0
 30
0.0
  3
_D_3
  1

  0
SOLID
  5
27D
330
27A
100
AcDbEntity
  8
VERMASSUNG
100
AcDbTrace
 10
154.5012426588
 20
116.957057216
 30
0.0
 11
154.0512426588
 21
113.957057216
 31
0.0
 12
154.9512426588
 22
113.957057216
 32
0.0
 13
154.9512426588
 23
113.957057216
 33
0.0
  0
SOLID
  5
27E
330
27A
100
AcDbEntity
  8
VERMASSUNG
100
AcDbTrace
 10
154.5012426588
 20
53.957057216
 30
0.0
 11
154.9512426588
 21
56.957057216
 31
0.0
 12
154.0512426588
 22
56.957057216
 32
0.0
 13
154.0512426588
 23
56.957057216
 33
0.0
  0
LINE
  5
27F
330
27A
100
AcDbEntity
  8
VERMASSUNG
100
AcDbLine
 10
203.0012426588
 20
116.957057216
 30
0.0
 11
153.5012426588
 21
116.957057216
 31
0.0
  0
LINE
  5
280
330
27A
100
AcDbEntity
  8
VERMASSUNG
100
AcDbLine
 10
203.0012426588
 20
53.957057216
 30
0.0
 11
153.5012426588
 21
53.957057216
 31
0.0
  0
LINE
  5
281
330
27A
100
AcDbEntity
  8
VERMASSUNG
100
AcDbLine
 10
154.5012426588
 20
116.957057216
 30
0.0
 11
154.5012426588
 21
53.957057216
 31
0.0
  0
MTEXT
  5
282
330
27A
100
AcDbEntity
  8
VERMASSUNG
100
AcDbMText
 10
151.7231071697
 20
79.0520571068
 30
0.35
 40
2.0
 41
0.0
 71
     1
 72
     1
  1
PSC
  7
SLDTEXTSTYLE0
 11
-7.044195017643634E-15
 21
1.0
 31
0.0
 73
     1
 44
1.0
  0
MTEXT
  5
283
330
27A
100
AcDbEntity
  8
VERMASSUNG
100
AcDbMText
 10
151.9231071792
 20
83.6520572088
 30
0.35
 40
2.0
 41
0.0
 71
     1
 72
     1
  1
%%c
  7
SLDTEXTSTYLE0
 11
-7.044195017643634E-15
 21
1.0
 31
0.0
 73
     1
 44
1.0
  0
MTEXT
  5
284
330
27A
100
AcDbEntity
  8
VERMASSUNG
100
AcDbMText
 10
151.7231071697
 20
87.2620576888
 30
0.35
 40
2.0
 41
0.0
 71
     1
 72
     1
  1
63
  7
SLDTEXTSTYLE0
 11
-7.044195017643634E-15
 21
1.0
 31
0.0
 73
     1
 44
1.0
  0
ENDBLK
  5
27C
330
27A
100
AcDbEntity
  8
0
100
AcDbBlockEnd
  0
BLOCK
  5
317
330
316
100
AcDbEntity
  8
0
100
AcDbBlockBegin
  2
_D_4
 70
     0
 10
0.0
 20
0.0
 30
0.0
  3
_D_4
  1

  0
ARC
  5
319
330
316
100
AcDbEntity
  8
VERMASSUNG
100
AcDbCircle
 10
79.0149872128
 20
128.8042598579
 30
0.0
 40
84.64815712502099
100
AcDbArc
 50
260.0069227625
 51
270.0
  0
SOLID
  5
31A
330
316
100
AcDbEntity
  8
VERMASSUNG
100
AcDbTrace
 10
64.3260613255
 20
45.4403230451
 30
0.0
 11
67.2190783412
 21
44.5276607052
 31
0.0
 12
67.3595310906
 22
45.4166337223
 32
0.0
 13
67.3595310906
 23
45.4166337223
 33
0.0
  0
SOLID
  5
31B
330
316
100
AcDbEntity
  8
VERMASSUNG
100
AcDbTrace
 10
79.0149872128
 20
44.1561027329
 30
0.0
 11
76.0234282571
 21
44.6591683495
 31
0.0
 12
76.0074873945
 22
43.7593095334
 32
0.0
 13
76.0074873945
 23
43.7593095334
 33
0.0
  0
LINE
  5
31C
330
316
100
AcDbEntity
  8
VERMASSUNG
100
AcDbLine
 10
74.0366671164
 20
100.550841934
 30
0.0
 11
64.1525321385
 21
44.4554943182
 31
0.0
  0
LINE
  5
31D
330
316
100
AcDbEntity
  8
VERMASSUNG
100
AcDbLine
 10
79.0149872128
 20
51.457057216
 30
0.0
 11
79.0149872128
 21
43.1561027329
 31
0.0
  0
MTEXT
  5
31E
330
316
100
AcDbEntity
  8
VERMASSUNG
100
AcDbMText
 10
69.1773127441
 20
47.2812653507
 30
-16.5450248492
 40
2.0
 41
0.0
 71
     1
 72
     1
  1
10°
  7
SLDTEXTSTYLE0
 11
0.9961999615701118
 21
-0.08709555997700295
 31
0.0
 73
     1
 44
1.0
  0
ENDBLK
  5
318
330
316
100
AcDbEntity
  8
0
100
AcDbBlockEnd
  0
BLOCK
  5
320
330
31F
100
AcDbEntity
  8
0
100
AcDbBlockBegin
  2
SW_CENTERMARKSYMBOL_0
 70
     0
 10
0.0
 20
0.0
 30
0.0
  3
SW_CENTERMARKSYMBOL_0
  1

  0
LINE
  5
322
330
31F
100
AcDbEntity
  8
VERMASSUNG
 62
     0
100
AcDbLine
 10
0.0
 20
0.0
 30
0.0
 11
0.0
 21
2.5
 31
0.0
  0
LINE
  5
323
330
31F
100
AcDbEntity
  8
VERMASSUNG
 62
     0
100
AcDbLine
 10
0.0
 20
0.0
 30
0.0
 11
-2.5
 21
0.0
 31
0.0
  0
LINE
  5
324
330
31F
100
AcDbEntity
  8
VERMASSUNG
 62
     0
100
AcDbLine
 10
0.0
 20
0.0
 30
0.0
 11
0.0
 21
-2.5
 31
0.0
  0
LINE
  5
325
330
31F
100
AcDbEntity
  8
VERMASSUNG
 62
     0
100
AcDbLine
 10
0.0
 20
0.0
 30
0.0
 11
2.5
 21
0.0
 31
0.0
  0
LINE
  5
326
330
31F
100
AcDbEntity
  8
VERMASSUNG
 62
     0
100
AcDbLine
 10
0.0
 20
5.0
 30
0.0
 11
0.0
 21
46.7995981672
 31
0.0
  0
LINE
  5
327
330
31F
100
AcDbEntity
  8
VERMASSUNG
 62
     0
100
AcDbLine
 10
-5.0
 20
0.0
 30
0.0
 11
-34.0
 21
0.0
 31
0.0
  0
LINE
  5
328
330
31F
100
AcDbEntity
  8
VERMASSUNG
 62
     0
100
AcDbLine
 10
0.0
 20
-5.0
 30
0.0
 11
0.0
 21
-34.0
 31
0.0
  0
LINE
  5
329
330
31F
100
AcDbEntity
  8
VERMASSUNG
 62
     0
100
AcDbLine
 10
5.0
 20
0.0
 30
0.0
 11
34.0
 21
0.0
 31
0.0
  0
ENDBLK
  5
321
330
31F
100
AcDbEntity
  8
0
100
AcDbBlockEnd
  0
BLOCK
  5
375
330
374
100
AcDbEntity
  8
0
100
AcDbBlockBegin
  2
SW_NOTE_0
 70
     0
 10
0.0
 20
0.0
 30
0.0
  3
SW_NOTE_0
  1

  0
CIRCLE
  5
377
330
374
100
AcDbEntity
  8
VERMASSUNG
 62
     0
100
AcDbCircle
 10
2.3755656655
 20
0.0
 30
0.0
 40
2.375565665510059
  0
MTEXT
  5
378
330
374
100
AcDbEntity
  8
VERMASSUNG
 62
     0
100
AcDbMText
 10
2.3630656323
 20
0.6868740853
 30
0.0
 40
2.0
 41
0.0
 71
     2
 72
     1
  1
3
  7
SLDTEXTSTYLE0
 73
     1
 44
1.0
  0
ENDBLK
  5
376
330
374
100
AcDbEntity
  8
0
100
AcDbBlockEnd
  0
BLOCK
  5
37C
330
37B
100
AcDbEntity
  8
0
100
AcDbBlockBegin
  2
_DOT
 70
     0
 10
0.0
 20
0.0
 30
0.0
  3
_DOT
  1

  0
POLYLINE
  5
37E
330
37B
100
AcDbEntity
  8
0
  6
ByBlock
 62
     0
100
AcDb2dPolyline
 66
     1
 10
0.0
 20
0.0
 30
0.0
 70
     1
 40
0.5
 41
0.5
  0
VERTEX
  5
380
330
37E
100
AcDbEntity
  8
0
  6
ByBlock
 62
     0
100
AcDbVertex
100
AcDb2dVertex
 10
-0.25
 20
0.0
 30
0.0
 42
1.0
  0
VERTEX
  5
381
330
37E
100
AcDbEntity
  8
0
  6
ByBlock
 62
     0
100
AcDbVertex
100
AcDb2dVertex
 10
0.25
 20
0.0
 30
0.0
 42
1.0
  0
SEQEND
  5
382
330
37E
100
AcDbEntity
  8
0
  6
ByBlock
 62
     0
  0
LINE
  5
37F
330
37B
100
AcDbEntity
  8
0
  6
ByBlock
 62
     0
370
    -2
100
AcDbLine
 10
-0.5
 20
0.0
 30
0.0
 11
-1.0
 21
0.0
 31
0.0
  0
ENDBLK
  5
37D
330
37B
100
AcDbEntity
  8
0
100
AcDbBlockEnd
  0
BLOCK
  5
385
330
384
100
AcDbEntity
  8
0
100
AcDbBlockBegin
  2
SW_NOTE_1
 70
     0
 10
0.0
 20
0.0
 30
0.0
  3
SW_NOTE_1
  1

  0
CIRCLE
  5
387
330
384
100
AcDbEntity
  8
VERMASSUNG
 62
     0
100
AcDbCircle
 10
2.3755656655
 20
0.0
 30
0.0
 40
2.375565665509997
  0
MTEXT
  5
388
330
384
100
AcDbEntity
  8
VERMASSUNG
 62
     0
100
AcDbMText
 10
2.3755656418
 20
0.6868740853
 30
0.0
 40
2.0
 41
0.0
 71
     2
 72
     1
  1
1
  7
SLDTEXTSTYLE0
 73
     1
 44
1.0
  0
ENDBLK
  5
386
330
384
100
AcDbEntity
  8
0
100
AcDbBlockEnd
  0
BLOCK
  5
38C
330
38B
100
AcDbEntity
  8
0
100
AcDbBlockBegin
  2
SW_NOTE_2
 70
     0
 10
0.0
 20
0.0
 30
0.0
  3
SW_NOTE_2
  1

  0
CIRCLE
  5
38E
330
38B
100
AcDbEntity
  8
VERMASSUNG
 62
     0
100
AcDbCircle
 10
2.3755656655
 20
0.0
 30
0.0
 40
2.375565665510011
  0
MTEXT
  5
38F
330
38B
100
AcDbEntity
  8
VERMASSUNG
 62
     0
100
AcDbMText
 10
2.3630656323
 20
0.6868740853
 30
0.0
 40
2.0
 41
0.0
 71
     2
 72
     1
  1
2
  7
SLDTEXTSTYLE0
 73
     1
 44
1.0
  0
ENDBLK
  5
38D
330
38B
100
AcDbEntity
  8
0
100
AcDbBlockEnd
  0
ENDSEC
  0
SECTION
  2
ENTITIES
  0
MTEXT
  5
49
330
1F
100
AcDbEntity
  8
KOPF_DÜNN
100
AcDbMText
 10
13.8892156294
 20
23.8442973028
 30
0.0
 40
3.0
 41
0.0
 71
     1
 72
     1
  1
PS6.KGB.RGA.065
  7
SLDTEXTSTYLE0
 73
     1
 44
1.0
  0
MTEXT
  5
4A
330
1F
100
AcDbEntity
  8
VERMASSUNG
100
AcDbMText
 10
13.9329988022
 20
28.8834360957
 30
0.0
 40
3.0
 41
0.0
 71
     1
 72
     1
  1
Klemmhalter / Aussengewinde axial
  7
SLDTEXTSTYLE0
 73
     1
 44
1.0
  0
MTEXT
  5
4B
330
1F
100
AcDbEntity
  8
VERMASSUNG
100
AcDbMText
 10
98.8601118557
 20
13.8365368179
 30
0.0
 40
2.0
 41
0.0
 71
     1
 72
     1
  1
Datum: 21.12.2011
  7
SLDTEXTSTYLE0
 73
     1
 44
1.0
  0
MTEXT
  5
4C
330
1F
100
AcDbEntity
  8
VERMASSUNG
100
AcDbMText
 10
13.933048693
 20
18.0482802738
 30
0.0
 40
2.0
 41
0.0
 71
     1
 72
     1
  1
PSC ø 63 / rechte Ausführung
  7
SLDTEXTSTYLE0
 73
     1
 44
1.0
  0
MTEXT
  5
4D
330
1F
100
AcDbEntity
  8
VERMASSUNG
100
AcDbMText
 10
13.9808475933
 20
13.9090973692
 30
0.0
 40
2.0
 41
0.0
 71
     1
 72
     1
  1
Gewicht: 1370g
  7
SLDTEXTSTYLE0
 73
     1
 44
1.0
  0
INSERT
  5
6E
330
1F
100
AcDbEntity
  8
VERMASSUNG
100
AcDbBlockReference
  2
SW_TABLEANNOTATION_0
 10
134.7485118237
 20
26.6029313014
 30
0.0
  0
LINE
  5
6F
330
1F
100
AcDbEntity
  8
0
  6
Continuous
 62
     7
370
    15
100
AcDbLine
 10
265.2492277833
 20
121.8765457056
 30
0.0
 11
265.2562089774
 21
121.9228361629
 31
0.0
  0
LINE
  5
70
330
1F
100
AcDbEntity
  8
0
  6
Continuous
 62
     7
370
    15
100
AcDbLine
 10
263.4684011849
 20
122.0801179193
 30
0.0
 11
263.4369895371
 21
121.8718108616
 31
0.0
  0
LINE
  5
71
330
1F
100
AcDbEntity
  8
0
  6
Continuous
 62
     7
370
    15
100
AcDbLine
 10
261.5810722622
 20
122.4236604653
 30
0.0
 11
261.61248391
 21
122.6319675229
 31
0.0
  0
LINE
  5
72
330
1F
100
AcDbEntity
  8
0
  6
Continuous
 62
     7
370
    15
100
AcDbLine
 10
254.3919250878
 20
121.6497127793
 30
0.0
 11
254.366056672
 21
121.4781706117
 31
0.0
  0
ARC
  5
73
330
1F
100
AcDbEntity
  8
0
  6
Continuous
 62
     7
370
    15
100
AcDbCircle
 10
223.5012426588
 20
99.107057216
 30
0.0
 40
2.50000000000001
100
AcDbArc
 50
21.3713330903
 51
158.6286669097
  0
LINE
  5
74
330
1F
100
AcDbEntity
  8
0
  6
Continuous
 62
     7
370
    15
100
AcDbLine
 10
203.0012426825
 20
53.9570567093
 30
0.0
 11
235.5668262157
 21
53.9570567093
 31
0.0
  0
LINE
  5
75
330
1F
100
AcDbEntity
  8
0
  6
Continuous
 62
     7
370
    15
100
AcDbLine
 10
239.7339173171
 20
116.9570577226
 30
0.0
 11
203.0012426825
 21
116.9570577226
 31
0.0
  0
ARC
  5
76
330
1F
100
AcDbEntity
  8
0
  6
Continuous
 62
     7
370
    15
100
AcDbCircle
 10
203.0012426588
 20
54.457057216
 30
0.0
 40
0.5
100
AcDbArc
 50
180.0
 51
270.0
  0
ARC
  5
77
330
1F
100
AcDbEntity
  8
0
  6
Continuous
 62
     7
370
    15
100
AcDbCircle
 10
203.0012426588
 20
116.457057216
 30
0.0
 40
0.5
100
AcDbArc
 50
90.0
 51
180.0
  0
LWPOLYLINE
  5
78
330
1F
100
AcDbEntity
  8
0
  6
Continuous
 62
     7
370
    15
100
AcDbPolyline
 90
        3
 70
   128
 43
0.0
 10
202.3012426638
 20
62.9172366939
 10
202.426697599
 20
62.8489353589
 10
202.5012426588
 20
62.7961964242
  0
LWPOLYLINE
  5
79
330
1F
100
AcDbEntity
  8
0
  6
Continuous
 62
     7
370
    15
100
AcDbPolyline
 90
        3
 70
   128
 43
0.0
 10
202.5012426588
 20
108.1179180078
 10
202.426697599
 20
108.065179073
 10
202.3012426638
 20
107.9968777381
  0
ARC
  5
7A
330
1F
100
AcDbEntity
  8
0
  6
Continuous
 62
     7
370
    15
100
AcDbCircle
 10
239.7339156708
 20
117.957057216
 30
0.0
 40
1.0
100
AcDbArc
 50
270.0
 51
345.0
  0
LINE
  5
7B
330
1F
100
AcDbEntity
  8
0
  6
Continuous
 62
     7
370
    15
100
AcDbLine
 10
243.1626298043
 20
126.8894825957
 30
0.0
 11
240.699840388
 21
117.6982377551
 31
0.0
  0
ARC
  5
7C
330
1F
100
AcDbEntity
  8
0
  6
Continuous
 62
     7
370
    15
100
AcDbCircle
 10
262.5632453898
 20
122.3338753812
 30
0.0
 40
2.710688093287939
100
AcDbArc
 50
264.8906225775
 51
95.1093774225
  0
CIRCLE
  5
7D
330
1F
100
AcDbEntity
  8
0
  6
Continuous
 62
     7
370
    15
100
AcDbCircle
 10
262.5123037072
 20
122.3332687961
 30
0.0
 40
2.500888578283137
  0
ARC
  5
7E
330
1F
100
AcDbEntity
  8
0
  6
Continuous
 62
     7
370
    15
100
AcDbCircle
 10
261.0642528424
 20
122.714458542
 30
0.0
 40
0.5542442510823482
100
AcDbArc
 50
300.9002697982
 51
31.5685751132
  0
ARC
  5
7F
330
1F
100
AcDbEntity
  8
0
  6
Continuous
 62
     7
370
    15
100
AcDbCircle
 10
261.4650087222
 20
122.048900528
 30
0.0
 40
0.2226621192533564
100
AcDbArc
 50
121.4353527105
 51
271.8826118904
  0
ARC
  5
80
330
1F
100
AcDbEntity
  8
0
  6
Continuous
 62
     7
370
    15
100
AcDbCircle
 10
261.4849206167
 20
121.2585821126
 30
0.0
 40
0.567916207539786
100
AcDbArc
 50
2.1996846978
 51
91.2709899432
  0
ARC
  5
81
330
1F
100
AcDbEntity
  8
0
  6
Continuous
 62
     7
370
    15
100
AcDbCircle
 10
262.2790558195
 20
121.2898243203
 30
0.0
 40
0.2268341690140973
100
AcDbArc
 50
182.3862073948
 51
330.4011986731
  0
ARC
  5
82
330
1F
100
AcDbEntity
  8
0
  6
Continuous
 62
     7
370
    15
100
AcDbCircle
 10
262.9725170608
 20
120.8950564859
 30
0.0
 40
0.5711196839423254
100
AcDbArc
 50
61.6201716603
 51
150.327383421
  0
ARC
  5
83
330
1F
100
AcDbEntity
  8
0
  6
Continuous
 62
     7
370
    15
100
AcDbCircle
 10
263.3526487155
 20
121.5927740284
 30
0.0
 40
0.2234431118190962
100
AcDbArc
 50
240.8994414665
 51
30.8845801215
  0
ARC
  5
84
330
1F
100
AcDbEntity
  8
0
  6
Continuous
 62
     7
370
    15
100
AcDbCircle
 10
264.0166316207
 20
121.9976247413
 30
0.0
 40
0.5542425824972433
100
AcDbArc
 50
120.9002969064
 51
211.5684191604
  0
ARC
  5
85
330
1F
100
AcDbEntity
  8
0
  6
Continuous
 62
     7
370
    15
100
AcDbCircle
 10
263.6158721359
 20
122.6631818647
 30
0.0
 40
0.2226649056267525
100
AcDbArc
 50
301.4361922311
 51
91.8805383984
  0
ARC
  5
86
330
1F
100
AcDbEntity
  8
0
  6
Continuous
 62
     7
370
    15
100
AcDbCircle
 10
263.5959609067
 20
123.4534995977
 30
0.0
 40
0.5679126384404973
100
AcDbArc
 50
182.1996978597
 51
271.2717342724
  0
ARC
  5
87
330
1F
100
AcDbEntity
  8
0
  6
Continuous
 62
     7
370
    15
100
AcDbCircle
 10
262.8018310133
 20
123.422261483
 30
0.0
 40
0.2268322625433634
100
AcDbArc
 50
2.3851943581
 51
150.4010300496
  0
ARC
  5
88
330
1F
100
AcDbEntity
  8
0
  6
Continuous
 62
     7
370
    15
100
AcDbCircle
 10
262.1083677234
 20
123.8170299358
 30
0.0
 40
0.5711236755871837
100
AcDbArc
 50
241.6204234282
 51
330.3274984858
  0
ARC
  5
89
330
1F
100
AcDbEntity
  8
0
  6
Continuous
 62
     7
370
    15
100
AcDbCircle
 10
261.7282341084
 20
123.1193112685
 30
0.0
 40
0.2234410882643089
100
AcDbArc
 50
60.8984861801
 51
210.8848470614
  0
ARC
  5
8A
330
1F
100
AcDbEntity
  8
0
  6
Continuous
 62
     7
370
    15
100
AcDbCircle
 10
262.595757522
 20
122.2800333553
 30
0.0
 40
2.683972188963254
100
AcDbArc
 50
311.56155587
 51
351.3538170377
  0
LINE
  5
8B
330
1F
100
AcDbEntity
  8
0
  6
Continuous
 62
     7
370
    15
100
AcDbLine
 10
263.5322899136
 20
121.4592237852
 30
0.0
 11
263.5129966351
 21
121.4991626225
 31
0.0
  0
LWPOLYLINE
  5
8C
330
1F
100
AcDbEntity
  8
0
  6
Continuous
 62
     7
370
    15
100
AcDbPolyline
 90
        3
 70
   128
 43
0.0
 10
261.3174707207
 20
122.0305790089
 10
261.2621389839
 20
121.9833646796
 10
261.2550348553
 20
121.9744873128
  0
ARC
  5
8D
330
1F
100
AcDbEntity
  8
0
  6
Continuous
 62
     7
370
    15
100
AcDbCircle
 10
263.9853808727
 20
121.7895878498
 30
0.0
 40
0.5545211272709634
100
AcDbArc
 50
171.4728811003
 51
211.5834996247
  0
ARC
  5
8E
330
1F
100
AcDbEntity
  8
0
  6
Continuous
 62
     7
370
    15
100
AcDbCircle
 10
261.031304795
 20
122.5074093913
 30
0.0
 40
0.5561098367962751
100
AcDbArc
 50
300.9697373028
 51
351.3384276459
  0
ARC
  5
8F
330
1F
100
AcDbEntity
  8
0
  6
Continuous
 62
     7
370
    15
100
AcDbCircle
 10
262.0769531865
 20
123.6087245587
 30
0.0
 40
0.5711237809942273
100
AcDbArc
 50
241.6207585676
 51
330.3273104673
  0
ARC
  5
90
330
1F
100
AcDbEntity
  8
0
  6
Continuous
 62
     7
370
    15
100
AcDbCircle
 10
263.5645469335
 20
123.2451900065
 30
0.0
 40
0.5679100744731899
100
AcDbArc
 50
182.1990758856
 51
271.2715987554
  0
ARC
  5
91
330
1F
100
AcDbEntity
  8
0
  6
Continuous
 62
     7
370
    15
100
AcDbCircle
 10
261.6974955343
 20
122.9064106164
 30
0.0
 40
0.2271449629804068
100
AcDbArc
 50
61.6103949244
 51
142.5423095537
  0
ARC
  5
92
330
1F
100
AcDbEntity
  8
0
  6
Continuous
 62
     7
370
    15
100
AcDbCircle
 10
263.5815448654
 20
122.4504275939
 30
0.0
 40
0.227034739888669
100
AcDbArc
 50
20.3261115382
 51
91.1092180296
  0
ARC
  5
93
330
1F
100
AcDbEntity
  8
0
  6
Continuous
 62
     7
370
    15
100
AcDbCircle
 10
262.7704176277
 20
123.2139540642
 30
0.0
 40
0.2268341690141174
100
AcDbArc
 50
2.3862073948
 51
150.4011986731
  0
LINE
  5
94
330
1F
100
AcDbEntity
  8
0
  6
Continuous
 62
     7
370
    15
100
AcDbLine
 10
266.524670324
 20
114.76980009
 30
0.0
 11
267.1336733314
 21
114.7617944412
 31
0.0
  0
LINE
  5
95
330
1F
100
AcDbEntity
  8
0
  6
Continuous
 62
     7
370
    15
100
AcDbLine
 10
267.0688681814
 20
114.332072892
 30
0.0
 11
267.1336733314
 21
114.7617944412
 31
0.0
  0
LINE
  5
96
330
1F
100
AcDbEntity
  8
0
  6
Continuous
 62
     7
370
    15
100
AcDbLine
 10
266.5194400164
 20
114.7350822471
 30
0.0
 11
266.524670324
 21
114.76980009
 31
0.0
  0
LINE
  5
97
330
1F
100
AcDbEntity
  8
0
  6
Continuous
 62
     7
370
    15
100
AcDbLine
 10
265.5461855742
 20
129.3539595686
 30
0.0
 11
254.1971259328
 21
122.9505170963
 31
0.0
  0
LINE
  5
98
330
1F
100
AcDbEntity
  8
0
  6
Continuous
 62
     7
370
    15
100
AcDbLine
 10
266.7034321043
 20
129.3486994587
 30
0.0
 11
265.5461855742
 21
129.3539595686
 31
0.0
  0
LINE
  5
99
330
1F
100
AcDbEntity
  8
0
  6
Continuous
 62
     7
370
    15
100
AcDbLine
 10
267.0033328744
 20
129.86952857
 30
0.0
 11
266.7034321043
 21
129.3486994587
 31
0.0
  0
LINE
  5
9A
330
1F
100
AcDbEntity
  8
0
  6
Continuous
 62
     7
370
    15
100
AcDbLine
 10
267.2032617542
 20
129.8686195992
 30
0.0
 11
267.0033328744
 21
129.86952857
 31
0.0
  0
LINE
  5
9B
330
1F
100
AcDbEntity
  8
0
  6
Continuous
 62
     7
370
    15
100
AcDbLine
 10
267.5031625244
 20
129.3450635753
 30
0.0
 11
267.2032617542
 21
129.8686195992
 31
0.0
  0
LINE
  5
9C
330
1F
100
AcDbEntity
  8
0
  6
Continuous
 62
     7
370
    15
100
AcDbLine
 10
267.5031625244
 20
116.4349657379
 30
0.0
 11
267.5031625244
 21
129.3450635753
 31
0.0
  0
LINE
  5
9D
330
1F
100
AcDbEntity
  8
0
  6
Continuous
 62
     7
370
    15
100
AcDbLine
 10
266.9245355341
 20
115.4502765171
 30
0.0
 11
267.5031625244
 21
116.4349657379
 31
0.0
  0
LINE
  5
9E
330
1F
100
AcDbEntity
  8
0
  6
Continuous
 62
     7
370
    15
100
AcDbLine
 10
267.2336377713
 20
114.9319135479
 30
0.0
 11
266.9245355341
 21
115.4502765171
 31
0.0
  0
LINE
  5
9F
330
1F
100
AcDbEntity
  8
0
  6
Continuous
 62
     7
370
    15
100
AcDbLine
 10
267.1336733314
 20
114.7617944412
 30
0.0
 11
267.2336377713
 21
114.9319135479
 31
0.0
  0
LINE
  5
A0
330
1F
100
AcDbEntity
  8
0
  6
Continuous
 62
     7
370
    15
100
AcDbLine
 10
255.1756144079
 20
121.2764535926
 30
0.0
 11
266.524670324
 21
114.76980009
 31
0.0
  0
LINE
  5
A1
330
1F
100
AcDbEntity
  8
0
  6
Continuous
 62
     7
370
    15
100
AcDbLine
 10
254.5969911429
 20
122.2664047859
 30
0.0
 11
255.1756144079
 21
121.2764535926
 31
0.0
  0
LINE
  5
A2
330
1F
100
AcDbEntity
  8
0
  6
Continuous
 62
     7
370
    15
100
AcDbLine
 10
253.9879918608
 20
122.2639386437
 30
0.0
 11
254.5969911429
 21
122.2664047859
 31
0.0
  0
LINE
  5
A3
330
1F
100
AcDbEntity
  8
0
  6
Continuous
 62
     7
370
    15
100
AcDbLine
 10
253.8880236956
 20
122.4349667214
 30
0.0
 11
253.9879918608
 21
122.2639386437
 31
0.0
  0
LINE
  5
A4
330
1F
100
AcDbEntity
  8
0
  6
Continuous
 62
     7
370
    15
100
AcDbLine
 10
254.1971259328
 20
122.9505170963
 30
0.0
 11
253.8880236956
 21
122.4349667214
 31
0.0
  0
CIRCLE
  5
A5
330
1F
100
AcDbEntity
  8
0
  6
Continuous
 62
     7
370
    15
100
AcDbCircle
 10
262.7618927759
 20
122.3211447601
 30
0.0
 40
2.831013499528373
  0
LINE
  5
A6
330
1F
100
AcDbEntity
  8
0
  6
Continuous
 62
     7
370
    15
100
AcDbLine
 10
255.0826870414
 20
120.6602123461
 30
0.0
 11
257.156459293
 21
119.4712784968
 31
0.0
  0
LINE
  5
A7
330
1F
100
AcDbEntity
  8
0
  6
Continuous
 62
     7
370
    15
100
AcDbLine
 10
255.0826870414
 20
120.6602123461
 30
0.0
 11
255.1756144079
 21
121.2764535926
 31
0.0
  0
LINE
  5
A8
330
1F
100
AcDbEntity
  8
0
  6
Continuous
 62
     7
370
    15
100
AcDbLine
 10
267.1407066795
 20
114.3156741641
 30
0.0
 11
267.2336377713
 21
114.9319135479
 31
0.0
  0
LINE
  5
A9
330
1F
100
AcDbEntity
  8
0
  6
Continuous
 62
     7
370
    15
100
AcDbLine
 10
267.0695163819
 20
114.1945165477
 30
0.0
 11
267.1407066795
 21
114.3156741641
 31
0.0
  0
LINE
  5
AA
330
1F
100
AcDbEntity
  8
0
  6
Continuous
 62
     7
370
    15
100
AcDbLine
 10
267.4102314326
 20
115.8187263541
 30
0.0
 11
267.5031625244
 21
116.4349657379
 31
0.0
  0
LINE
  5
AB
330
1F
100
AcDbEntity
  8
0
  6
Continuous
 62
     7
370
    15
100
AcDbLine
 10
267.0601137492
 20
115.222907149
 30
0.0
 11
267.4102314326
 21
115.8187263541
 31
0.0
  0
LINE
  5
AC
330
1F
100
AcDbEntity
  8
0
  6
Continuous
 62
     7
370
    15
100
AcDbLine
 10
254.5040600511
 20
121.6501672648
 30
0.0
 11
255.0826870414
 21
120.6602123461
 31
0.0
  0
LINE
  5
AD
330
1F
100
AcDbEntity
  8
0
  6
Continuous
 62
     7
370
    15
100
AcDbLine
 10
254.5040600511
 20
121.6501672648
 30
0.0
 11
254.5969911429
 21
122.2664047859
 31
0.0
  0
LINE
  5
AE
330
1F
100
AcDbEntity
  8
0
  6
Continuous
 62
     7
370
    15
100
AcDbLine
 10
253.895060769
 20
121.6477011226
 30
0.0
 11
254.5040600511
 21
121.6501672648
 31
0.0
  0
LINE
  5
AF
330
1F
100
AcDbEntity
  8
0
  6
Continuous
 62
     7
370
    15
100
AcDbLine
 10
253.895060769
 20
121.6477011226
 30
0.0
 11
253.9879918608
 21
122.2639386437
 31
0.0
  0
LINE
  5
B0
330
1F
100
AcDbEntity
  8
0
  6
Continuous
 62
     7
370
    15
100
AcDbLine
 10
253.7950963291
 20
121.8187292002
 30
0.0
 11
253.895060769
 21
121.6477011226
 31
0.0
  0
LINE
  5
B1
330
1F
100
AcDbEntity
  8
0
  6
Continuous
 62
     7
370
    15
100
AcDbLine
 10
253.7950963291
 20
121.8187292002
 30
0.0
 11
253.8880236956
 21
122.4349667214
 31
0.0
  0
LINE
  5
B2
330
1F
100
AcDbEntity
  8
0
  6
Continuous
 62
     7
370
    15
100
AcDbLine
 10
255.0724238667
 20
120.64723716
 30
0.0
 11
257.1398780259
 21
119.4619242929
 31
0.0
  0
ARC
  5
B3
330
1F
100
AcDbEntity
  8
0
  6
Continuous
 62
     7
370
    15
100
AcDbCircle
 10
255.7076203052
 20
121.7647147207
 30
0.0
 40
1.285391229999297
100
AcDbArc
 50
185.1266918784
 51
240.3852400035
  0
LINE
  5
B4
330
1F
100
AcDbEntity
  8
0
  6
Continuous
 62
     7
370
    15
100
AcDbLine
 10
255.0017476591
 20
120.1785472117
 30
0.0
 11
256.6922396931
 21
119.2093533359
 31
0.0
  0
ARC
  5
B5
330
1F
100
AcDbEntity
  8
0
  6
Continuous
 62
     7
370
    15
100
AcDbCircle
 10
255.6329345936
 20
121.2925636659
 30
0.0
 40
1.28040212684831
100
AcDbArc
 50
171.6650437421
 51
240.464684878
  0
ARC
  5
B6
330
1F
100
AcDbEntity
  8
0
  6
Continuous
 62
     7
370
    15
100
AcDbCircle
 10
223.9601770077
 20
100.6676798505
 30
0.0
 40
2.542012768014554
100
AcDbArc
 50
1.5639260968
 51
65.6665880012
  0
ARC
  5
B7
330
1F
100
AcDbEntity
  8
0
  6
Continuous
 62
     7
370
    15
100
AcDbCircle
 10
223.4784765385
 20
100.3866906555
 30
0.0
 40
3.013894126527356
100
AcDbArc
 50
59.5119313434
 51
170.4739642808
  0
ARC
  5
B8
330
1F
100
AcDbEntity
  8
0
  6
Continuous
 62
     7
370
    15
100
AcDbCircle
 10
223.9777219979
 20
100.7757743572
 30
0.0
 40
2.375664653644257
100
AcDbArc
 50
351.7740106533
 51
66.1763771703
  0
LWPOLYLINE
  5
B9
330
1F
100
AcDbEntity
  8
0
  6
Continuous
 62
     7
370
    15
100
AcDbPolyline
 90
       12
 70
   128
 43
0.0
 10
220.7428288224
 20
100.1527919329
 10
220.7167275759
 20
100.2417658351
 10
220.6412513318
 20
100.813124784
 10
220.7199592653
 20
101.3841559074
 10
220.9486045453
 20
101.9240771316
 10
221.3148657742
 20
102.4037771754
 10
221.7989933255
 20
102.7973987989
 10
222.3748915407
 20
103.0837208859
 10
223.0115101251
 20
103.2473076962
 10
223.6745298418
 20
103.2793396048
 10
224.3282083931
 20
103.1780899398
 10
224.9373063954
 20
102.9490162514
  0
LWPOLYLINE
  5
BA
330
1F
100
AcDbEntity
  8
0
  6
Continuous
 62
     7
370
    15
100
AcDbPolyline
 90
       26
 70
   128
 43
0.0
 10
224.7565422716
 20
102.6794002287
 10
225.2547719094
 20
102.3502205394
 10
225.642818636
 20
101.9240789942
 10
225.8963041517
 20
101.4277492545
 10
225.9992991152
 20
100.8924213133
 10
225.9453308347
 20
100.3517289541
 10
225.7377930495
 20
99.8396458931
 10
225.3897224131
 20
99.3883493252
 10
224.9229938301
 20
99.0261952288
 10
224.3669309231
 20
98.7759395398
 10
223.7564731899
 20
98.6533057771
 10
223.1299780818
 20
98.6660006351
 10
222.5268107417
 20
98.8132259704
 10
221.9848704102
 20
99.0857309557
 10
221.5382099661
 20
99.4663932256
 10
221.2148957464
 20
99.9312945537
 10
221.0352380338
 20
100.4512230761
 10
221.0105300459
 20
100.9935098596
 10
221.1423233661
 20
101.5240815363
 10
221.4223348114
 20
102.0095986209
 10
221.8329716983
 20
102.4195575051
 10
222.3484326663
 20
102.7281959436
 10
222.9363300416
 20
102.916121938
 10
223.5597219827
 20
102.9715281807
 10
224.1794389251
 20
102.8909333877
 10
224.7565422716
 20
102.6794002287
  0
SPLINE
  5
BB
330
1F
100
AcDbEntity
  8
0
  6
Continuous
 62
     7
370
    15
100
AcDbSpline
210
0.0
220
0.0
230
1.0
 70
     8
 71
     3
 72
    68
 73
    64
 74
     0
 42
0.00000001
 43
0.00000001
 12
1.0
 22
0.0
 32
0.0
 13
1.0
 23
0.0
 33
0.0
 40
-0.0625
 40
-0.0625
 40
0.0
 40
0.0
 40
0.03125
 40
0.03125
 40
0.0625
 40
0.0625
 40
0.09375
 40
0.09375
 40
0.125
 40
0.125
 40
0.15625
 40
0.15625
 40
0.1875
 40
0.1875
 40
0.21875
 40
0.21875
 40
0.25
 40
0.25
 40
0.28125
 40
0.28125
 40
0.3125
 40
0.3125
 40
0.34375
 40
0.34375
 40
0.375
 40
0.375
 40
0.40625
 40
0.40625
 40
0.4375
 40
0.4375
 40
0.46875
 40
0.46875
 40
0.5
 40
0.5
 40
0.53125
 40
0.53125
 40
0.5625
 40
0.5625
 40
0.59375
 40
0.59375
 40
0.625
 40
0.625
 40
0.65625
 40
0.65625
 40
0.6875
 40
0.6875
 40
0.71875
 40
0.71875
 40
0.75
 40
0.75
 40
0.78125
 40
0.78125
 40
0.8125
 40
0.8125
 40
0.84375
 40
0.84375
 40
0.875
 40
0.875
 40
0.90625
 40
0.90625
 40
0.9375
 40
0.9375
 40
1.0
 40
1.0
 40
1.03125
 40
1.03125
 10
220.5012426587608
 20
101.5505483981099
 30
0.0
 10
220.5012426587608
 20
101.0353116249201
 30
0.0
 10
220.5207133318611
 20
100.8655197591853
 30
0.0
 10
220.5969823579813
 20
100.5297810362522
 30
0.0
 10
220.6547144649957
 20
100.3620636915913
 30
0.0
 10
220.8053333759742
 20
100.0408496840793
 30
0.0
 10
220.8974868402844
 20
99.88773308801613
 30
0.0
 10
221.1151873485442
 20
99.59675621093753
 30
0.0
 10
221.2418277496796
 20
99.45841420307886
 30
0.0
 10
221.5184464558687
 20
99.20956939229512
 30
0.0
 10
221.6694013728761
 20
99.09741460261844
 30
0.0
 10
221.9972894011047
 20
98.89877552579631
 30
0.0
 10
222.1717383703185
 20
98.81414013408238
 30
0.0
 10
222.5326699730667
 20
98.67792779799784
 30
0.0
 10
222.721821711076
 20
98.62532963702046
 30
0.0
 10
223.1091163963338
 20
98.55493658637691
 30
0.0
 10
223.3038379408831
 20
98.53748767184162
 30
0.0
 10
223.6953761783978
 20
98.53729259288528
 30
0.0
 10
223.8942425749752
 20
98.55511730137111
 30
0.0
 10
224.2790827862012
 20
98.6250204306787
 30
0.0
 10
224.4661420375477
 20
98.67671385116795
 30
0.0
 10
224.829486754703
 20
98.81349454714608
 30
0.0
 10
225.0050299777231
 20
98.89881202773083
 30
0.0
 10
225.3300114039622
 20
99.09541754437339
 30
0.0
 10
225.4815243025146
 20
99.20739163458576
 30
0.0
 10
225.761728400625
 20
99.45929362519136
 30
0.0
 10
225.8858325006014
 20
99.5951063183586
 30
0.0
 10
226.103140819361
 20
99.88494600527953
 30
0.0
 10
226.1971388202454
 20
100.0408214067252
 30
0.0
 10
226.3477854913174
 20
100.3620952051883
 30
0.0
 10
226.4045875214366
 20
100.5266612260099
 30
0.0
 10
226.4814715240794
 20
100.8633014545941
 30
0.0
 10
226.5011707463846
 20
101.0365071866855
 30
0.0
 10
226.5013141688558
 20
101.3757044570617
 30
0.0
 10
226.4823953098593
 20
101.5434168121895
 30
0.0
 10
226.4057033081216
 20
101.8750877434643
 30
0.0
 10
226.3481651404683
 20
102.0365148378674
 30
0.0
 10
226.1988006521172
 20
102.3426884714967
 30
0.0
 10
226.105888266582
 20
102.4897756740188
 30
0.0
 10
225.8867881387303
 20
102.7653150128733
 30
0.0
 10
225.7627547795641
 20
102.8915135941584
 30
0.0
 10
225.4864514343743
 20
103.1219265114668
 30
0.0
 10
225.3323030928766
 20
103.2269656700285
 30
0.0
 10
225.006438854248
 20
103.4071068174338
 30
0.0
 10
224.834277784257
 20
103.4830812766587
 30
0.0
 10
224.4713243076103
 20
103.6070861046248
 30
0.0
 10
224.2806826243911
 20
103.6545800420475
 30
0.0
 10
223.8971731190847
 20
103.7173347607584
 30
0.0
 10
223.7022800671928
 20
103.7333855524131
 30
0.0
 10
223.305958554693
 20
103.7336964859375
 30
0.0
 10
223.1105957152841
 20
103.7179039777647
 30
0.0
 10
222.7269946381755
 20
103.6557169957592
 30
0.0
 10
222.5365023461397
 20
103.6085859128902
 30
0.0
 10
222.1729363227389
 20
103.4850130912894
 30
0.0
 10
222.0005769700432
 20
103.4092577506397
 30
0.0
 10
221.6744562213749
 20
103.229672533818
 30
0.0
 10
221.5200317381743
 20
103.1248429927932
 30
0.0
 10
221.2431622082993
 20
102.8947816282158
 30
0.0
 10
221.118912462328
 20
102.7688002138627
 30
0.0
 10
220.8994135943722
 20
102.4938609164041
 30
0.0
 10
220.8060158246661
 20
102.3466781723399
 30
0.0
 10
220.5810545899658
 20
101.8878779469075
 30
0.0
 10
220.5012426587608
 20
101.5505483981099
 30
0.0
 10
220.5012426587608
 20
101.0353116249201
 30
0.0
  0
ELLIPSE
  5
BC
330
1F
100
AcDbEntity
  8
0
  6
Continuous
 62
     7
370
    15
100
AcDbEllipse
 10
554.4518140722
 20
85.457057216
 30
0.0
 11
1202.9364595755
 21
-5.473557541774426
 31
0.0
210
0.0
220
0.0
230
1.0
 40
0.025787565
 41
1.83561882027703
 42
1.836268120601338
  0
SPLINE
  5
BD
330
1F
100
AcDbEntity
  8
0
  6
Continuous
 62
     7
370
    15
100
AcDbSpline
210
0.0
220
0.0
230
1.0
 70
     8
 71
     3
 72
    20
 73
    16
 74
     0
 42
0.00000001
 43
0.00000001
 12
1.0
 22
0.0
 32
0.0
 13
1.0
 23
0.0
 33
0.0
 40
0.0
 40
0.0
 40
0.0
 40
0.0
 40
0.2499999999999986
 40
0.2499999999999986
 40
0.3749999999999989
 40
0.3749999999999989
 40
0.4999999999999992
 40
0.4999999999999992
 40
0.6249999999999994
 40
0.6249999999999994
 40
0.7499999999999996
 40
0.7499999999999996
 40
0.8749999999999998
 40
0.8749999999999998
 40
1.0
 40
1.0
 40
1.0
 40
1.0
 10
233.3416265721106
 20
116.049280225417
 30
0.0
 10
233.4998834391389
 20
116.2031196781002
 30
0.0
 10
233.7456840745138
 20
116.3287120922088
 30
0.0
 10
234.2574469543864
 20
116.4835668535497
 30
0.0
 10
234.4505976200662
 20
116.5288770741017
 30
0.0
 10
234.8733781667209
 20
116.6073227223985
 30
0.0
 10
235.1041530792724
 20
116.6408181157685
 30
0.0
 10
235.6062257112835
 20
116.6985041959645
 30
0.0
 10
235.8780537305451
 20
116.7225927168982
 30
0.0
 10
236.4419984523871
 20
116.7618255432316
 30
0.0
 10
236.7365487515921
 20
116.7772851694984
 30
0.0
 10
237.3513008824189
 20
116.8017945145841
 30
0.0
 10
237.6727293650653
 20
116.8108101594872
 30
0.0
 10
238.31949441643
 20
116.8230544540212
 30
0.0
 10
238.6474540783193
 20
116.8264130923965
 30
0.0
 10
238.9801198399978
 20
116.8272318218921
 30
0.0
  0
ELLIPSE
  5
BE
330
1F
100
AcDbEntity
  8
0
  6
Continuous
 62
     7
370
    15
100
AcDbEllipse
 10
236.7461747353
 20
85.457057216
 30
0.0
 11
-1.574944762879824
 21
31.497271033161
 31
0.0
210
0.0
220
0.0
230
1.0
 40
0.263265937
 41
0.2274934144491295
 42
2.538706958092953
  0
SPLINE
  5
BF
330
1F
100
AcDbEntity
  8
0
  6
Continuous
 62
     7
370
    15
100
AcDbSpline
210
0.0
220
0.0
230
1.0
 70
     8
 71
     3
 72
    14
 73
    10
 74
     0
 42
0.00000001
 43
0.00000001
 12
1.0
 22
0.0
 32
0.0
 13
1.0
 23
0.0
 33
0.0
 40
0.0
 40
0.0
 40
0.0
 40
0.0
 40
0.2499999999999998
 40
0.2499999999999998
 40
0.4999999999999996
 40
0.4999999999999996
 40
0.7499999999999993
 40
0.7499999999999993
 40
1.0
 40
1.0
 40
1.0
 40
1.0
 10
236.4949320257221
 20
57.23205087306091
 30
0.0
 10
236.1010280813367
 20
57.32145273499695
 30
0.0
 10
235.7324124087175
 20
57.43152318490819
 30
0.0
 10
235.0466453058609
 20
57.6990778513514
 30
0.0
 10
234.7420967635805
 20
57.85173922673917
 30
0.0
 10
234.2051877302579
 20
58.19744962530113
 30
0.0
 10
233.9718707282053
 20
58.39263703265968
 30
0.0
 10
233.5949031598946
 20
58.81121781847195
 30
0.0
 10
233.4481405293421
 20
59.03596667009422
 30
0.0
 10
233.3416265721106
 20
59.27756319406267
 30
0.0
  0
ELLIPSE
  5
C0
330
1F
100
AcDbEntity
  8
0
  6
Continuous
 62
     7
370
    15
100
AcDbEllipse
 10
257.2261830456
 20
85.457057216
 30
0.0
 11
21.77023436953101
 21
31.46903455576092
 31
0.0
210
0.0
220
0.0
230
1.0
 40
0.0641414938
 41
2.725890273985534
 42
3.692535761183668
  0
SPLINE
  5
C1
330
1F
100
AcDbEntity
  8
0
  6
Continuous
 62
     7
370
    15
100
AcDbSpline
210
0.0
220
0.0
230
1.0
 70
     8
 71
     3
 72
    12
 73
     8
 74
     0
 42
0.00000001
 43
0.00000001
 12
1.0
 22
0.0
 32
0.0
 13
1.0
 23
0.0
 33
0.0
 40
0.0
 40
0.0
 40
0.0
 40
0.0
 40
0.2500000000000009
 40
0.2500000000000009
 40
0.5000000000000018
 40
0.5000000000000018
 40
1.0
 40
1.0
 40
1.0
 40
1.0
 10
213.0289994723272
 20
55.38856525711041
 30
0.0
 10
212.9659425174294
 20
55.3885652571104
 30
0.0
 10
212.9068123676838
 20
55.39646558818996
 30
0.0
 10
212.8083648171505
 20
55.41977633619501
 30
0.0
 10
212.7693325789624
 20
55.43448146247864
 30
0.0
 10
212.6694426945055
 20
55.48241499066528
 30
0.0
 10
212.6271437208961
 20
55.51848496343004
 30
0.0
 10
212.5959867704349
 20
55.55631475586626
 30
0.0
  0
LINE
  5
C2
330
1F
100
AcDbEntity
  8
0
  6
Continuous
 62
     7
370
    15
100
AcDbLine
 10
215.9734858709
 20
55.3885646991
 30
0.0
 11
213.0289996552
 21
55.3885646991
 31
0.0
  0
SPLINE
  5
C3
330
1F
100
AcDbEntity
  8
0
  6
Continuous
 62
     7
370
    15
100
AcDbSpline
210
0.0
220
0.0
230
1.0
 70
     8
 71
     3
 72
    12
 73
     8
 74
     0
 42
0.00000001
 43
0.00000001
 12
1.0
 22
0.0
 32
0.0
 13
1.0
 23
0.0
 33
0.0
 40
0.0
 40
0.0
 40
0.0
 40
0.0
 40
0.4999999999999981
 40
0.4999999999999981
 40
0.749999999999999
 40
0.749999999999999
 40
1.0
 40
1.0
 40
1.0
 40
1.0
 10
216.4064985470865
 20
55.55631475586625
 30
0.0
 10
216.3753533491245
 20
55.51849923294606
 30
0.0
 10
216.33307908279
 20
55.48243237486246
 30
0.0
 10
216.2331335489647
 20
55.4344723098512
 30
0.0
 10
216.1934032442606
 20
55.41961133595354
 30
0.0
 10
216.0965151942544
 20
55.39666018982241
 30
0.0
 10
216.0364499525079
 20
55.38856525711035
 30
0.0
 10
215.9734858451943
 20
55.38856525711035
 30
0.0
  0
ELLIPSE
  5
C4
330
1F
100
AcDbEntity
  8
0
  6
Continuous
 62
     7
370
    15
100
AcDbEllipse
 10
200.1540884694
 20
85.457057216
 30
0.0
 11
-14.75368316065618
 21
31.09325491558116
 31
0.0
210
0.0
220
0.0
230
1.0
 40
0.3419987131
 41
3.30073485621712
 42
4.231496223360772
  0
SPLINE
  5
C5
330
1F
100
AcDbEntity
  8
0
  6
Continuous
 62
     7
370
    15
100
AcDbSpline
210
0.0
220
0.0
230
1.0
 70
     8
 71
     3
 72
    12
 73
     8
 74
     0
 42
0.00000001
 43
0.00000001
 12
1.0
 22
0.0
 32
0.0
 13
1.0
 23
0.0
 33
0.0
 40
0.0
 40
0.0
 40
0.0
 40
0.0
 40
0.25
 40
0.25
 40
0.5
 40
0.5
 40
1.0
 40
1.0
 40
1.0
 40
1.0
 10
215.9734858451943
 20
76.0689907846473
 30
0.0
 10
216.0365428000921
 20
76.0689907846473
 30
0.0
 10
216.0956729498377
 20
76.04364443126659
 30
0.0
 10
216.194120500371
 20
75.96952504912709
 30
0.0
 10
216.2331527385591
 20
75.9230285344291
 30
0.0
 10
216.333042623016
 20
75.77295402742051
 30
0.0
 10
216.3753415966253
 20
75.66183631830565
 30
0.0
 10
216.4064985470866
 20
75.54768789529815
 30
0.0
  0
LINE
  5
C6
330
1F
100
AcDbEntity
  8
0
  6
Continuous
 62
     7
370
    15
100
AcDbLine
 10
213.0289996552
 20
76.0689903877
 30
0.0
 11
215.9734858709
 21
76.0689903877
 31
0.0
  0
SPLINE
  5
C7
330
1F
100
AcDbEntity
  8
0
  6
Continuous
 62
     7
370
    15
100
AcDbSpline
210
0.0
220
0.0
230
1.0
 70
     8
 71
     3
 72
    12
 73
     8
 74
     0
 42
0.00000001
 43
0.00000001
 12
1.0
 22
0.0
 32
0.0
 13
1.0
 23
0.0
 33
0.0
 40
0.0
 40
0.0
 40
0.0
 40
0.0
 40
0.5000000000000009
 40
0.5000000000000009
 40
0.7500000000000004
 40
0.7500000000000004
 40
1.0
 40
1.0
 40
1.0
 40
1.0
 10
212.595986770435
 20
75.54768789529814
 30
0.0
 10
212.6271319683971
 20
75.66179326116345
 30
0.0
 10
212.6694062347315
 20
75.77289958838222
 30
0.0
 10
212.7693517685568
 20
75.9230571958125
 30
0.0
 10
212.8090820732608
 20
75.97004988742987
 30
0.0
 10
212.9059701232671
 20
76.04302547196836
 30
0.0
 10
212.9660353650136
 20
76.06899078464738
 30
0.0
 10
213.0289994723272
 20
76.06899078464738
 30
0.0
  0
ELLIPSE
  5
C8
330
1F
100
AcDbEntity
  8
0
  6
Continuous
 62
     7
370
    15
100
AcDbEllipse
 10
228.8483968481
 20
85.457057216
 30
0.0
 11
14.75368316065621
 21
31.09325491558116
 31
0.0
210
0.0
220
0.0
230
1.0
 40
0.3419987131
 41
2.051689083818828
 42
2.982450450962506
  0
SPLINE
  5
C9
330
1F
100
AcDbEntity
  8
0
  6
Continuous
 62
     7
370
    15
100
AcDbSpline
210
0.0
220
0.0
230
1.0
 70
     8
 71
     3
 72
    12
 73
     8
 74
     0
 42
0.00000001
 43
0.00000001
 12
1.0
 22
0.0
 32
0.0
 13
1.0
 23
0.0
 33
0.0
 40
0.0
 40
0.0
 40
0.0
 40
0.0
 40
0.2499999999999995
 40
0.2499999999999995
 40
0.499999999999999
 40
0.499999999999999
 40
1.0
 40
1.0
 40
1.0
 40
1.0
 10
213.0289994723272
 20
94.84512364731943
 30
0.0
 10
212.9659194338338
 20
94.84512364731943
 30
0.0
 10
212.9067708116524
 20
94.87048796653437
 30
0.0
 10
212.8082982615833
 20
94.94465282690729
 30
0.0
 10
212.7692616495986
 20
94.9911731674614
 30
0.0
 10
212.6693651828196
 20
95.14131551030667
 30
0.0
 10
212.6269443017529
 20
95.25300871727879
 30
0.0
 10
212.595986770435
 20
95.36642653666857
 30
0.0
  0
LINE
  5
CA
330
1F
100
AcDbEntity
  8
0
  6
Continuous
 62
     7
370
    15
100
AcDbLine
 10
215.9734858709
 20
94.8451240442
 30
0.0
 11
213.0289996552
 21
94.8451240442
 31
0.0
  0
SPLINE
  5
CB
330
1F
100
AcDbEntity
  8
0
  6
Continuous
 62
     7
370
    15
100
AcDbSpline
210
0.0
220
0.0
230
1.0
 70
     8
 71
     3
 72
    12
 73
     8
 74
     0
 42
0.00000001
 43
0.00000001
 12
1.0
 22
0.0
 32
0.0
 13
1.0
 23
0.0
 33
0.0
 40
0.0
 40
0.0
 40
0.0
 40
0.0
 40
0.5
 40
0.5
 40
0.75
 40
0.75
 40
1.0
 40
1.0
 40
1.0
 40
1.0
 10
216.4064985470865
 20
95.36642653666856
 30
0.0
 10
216.3757763051674
 20
95.25387073725938
 30
0.0
 10
216.3329390906323
 20
95.14111287751977
 30
0.0
 10
216.2335120664325
 20
94.9915719917234
 30
0.0
 10
216.1937598716158
 20
94.94427926001656
 30
0.0
 10
216.0957184147576
 20
94.87054296669511
 30
0.0
 10
216.0361623591701
 20
94.84512364731941
 30
0.0
 10
215.9734858451943
 20
94.84512364731941
 30
0.0
  0
ELLIPSE
  5
CC
330
1F
100
AcDbEntity
  8
0
  6
Continuous
 62
     7
370
    15
100
AcDbEllipse
 10
200.1540884694
 20
85.457057216
 30
0.0
 11
14.75368316065604
 21
31.09325491558116
 31
0.0
210
0.0
220
0.0
230
1.0
 40
0.3419987131
 41
5.193281737408619
 42
6.124043104552324
  0
SPLINE
  5
CD
330
1F
100
AcDbEntity
  8
0
  6
Continuous
 62
     7
370
    15
100
AcDbSpline
210
0.0
220
0.0
230
1.0
 70
     8
 71
     3
 72
    12
 73
     8
 74
     0
 42
0.00000001
 43
0.00000001
 12
1.0
 22
0.0
 32
0.0
 13
1.0
 23
0.0
 33
0.0
 40
0.0
 40
0.0
 40
0.0
 40
0.0
 40
0.2500000000000005
 40
0.2500000000000005
 40
0.500000000000001
 40
0.500000000000001
 40
1.0
 40
1.0
 40
1.0
 40
1.0
 10
215.9734858451943
 20
115.5255491748566
 30
0.0
 10
216.0365658836877
 20
115.5255491748566
 30
0.0
 10
216.0957145058691
 20
115.5176432486441
 30
0.0
 10
216.1941870559382
 20
115.4943180872079
 30
0.0
 10
216.2332236679229
 20
115.4796052973762
 30
0.0
 10
216.3331201347019
 20
115.4316494966453
 30
0.0
 10
216.3755410157685
 20
115.3953873400652
 30
0.0
 10
216.4064985470865
 20
115.3577996761007
 30
0.0
  0
LINE
  5
CE
330
1F
100
AcDbEntity
  8
0
  6
Continuous
 62
     7
370
    15
100
AcDbLine
 10
213.0289996552
 20
115.5255497329
 30
0.0
 11
215.9734858709
 21
115.5255497329
 31
0.0
  0
SPLINE
  5
CF
330
1F
100
AcDbEntity
  8
0
  6
Continuous
 62
     7
370
    15
100
AcDbSpline
210
0.0
220
0.0
230
1.0
 70
     8
 71
     3
 72
    12
 73
     8
 74
     0
 42
0.00000001
 43
0.00000001
 12
1.0
 22
0.0
 32
0.0
 13
1.0
 23
0.0
 33
0.0
 40
0.0
 40
0.0
 40
0.0
 40
0.0
 40
0.5
 40
0.5
 40
0.75
 40
0.75
 40
1.0
 40
1.0
 40
1.0
 40
1.0
 10
212.595986770435
 20
115.3577996761007
 30
0.0
 10
212.6267090123541
 20
115.3951016590537
 30
0.0
 10
212.6695462268892
 20
115.4317134911001
 30
0.0
 10
212.768973251089
 20
115.4794782743853
 30
0.0
 10
212.8087254459057
 20
115.4944357898677
 30
0.0
 10
212.9067669027639
 20
115.5176257356369
 30
0.0
 10
212.9663229583514
 20
115.5255491748566
 30
0.0
 10
213.0289994723272
 20
115.5255491748566
 30
0.0
  0
ELLIPSE
  5
D0
330
1F
100
AcDbEntity
  8
0
  6
Continuous
 62
     7
370
    15
100
AcDbEllipse
 10
228.8483968481
 20
85.457057216
 30
0.0
 11
-14.75368316065604
 21
31.09325491558116
 31
0.0
210
0.0
220
0.0
230
1.0
 40
0.3419987131
 41
0.1591422026273017
 42
1.08990356977098
  0
ELLIPSE
  5
D1
330
1F
100
AcDbEntity
  8
0
  6
Continuous
 62
     7
370
    15
100
AcDbEllipse
 10
231.9489289412
 20
101.6288406571
 30
0.0
 11
0.1359444410772142
 21
3.120531159634396
 31
0.0
210
0.0
220
0.0
230
1.0
 40
0.2331539851
 41
0.0
 42
6.283185307179586
  0
LINE
  5
D2
330
1F
100
AcDbEntity
  8
0
  6
Continuous
 62
     7
370
    15
100
AcDbLine
 10
202.5012426588
 20
54.4570577226
 30
0.0
 11
202.5012426588
 21
116.4570567093
 31
0.0
  0
SPLINE
  5
D3
330
1F
100
AcDbEntity
  8
0
  6
Continuous
 62
     7
370
    15
100
AcDbSpline
210
0.0
220
0.0
230
1.0
 70
     8
 71
     3
 72
    12
 73
     8
 74
     0
 42
0.00000001
 43
0.00000001
 12
1.0
 22
0.0
 32
0.0
 13
1.0
 23
0.0
 33
0.0
 40
0.0
 40
0.0
 40
0.0
 40
0.0
 40
0.5
 40
0.5
 40
0.75
 40
0.75
 40
1.0
 40
1.0
 40
1.0
 40
1.0
 10
201.6847303723042
 20
63.6022635135077
 30
0.0
 10
201.7411668732115
 20
63.60084563216595
 30
0.0
 10
201.8102515039002
 20
63.59928129591764
 30
0.0
 10
201.9290537756181
 20
63.59633710394319
 30
0.0
 10
201.9692390510882
 20
63.59529890084581
 30
0.0
 10
202.042620098492
 20
63.59336500563119
 30
0.0
 10
202.0760296622346
 20
63.59247011834238
 30
0.0
 10
202.1062657698911
 20
63.59168632807004
 30
0.0
  0
SPLINE
  5
D4
330
1F
100
AcDbEntity
  8
0
  6
Continuous
 62
     7
370
    15
100
AcDbSpline
210
0.0
220
0.0
230
1.0
 70
     8
 71
     3
 72
    16
 73
    12
 74
     0
 42
0.00000001
 43
0.00000001
 12
1.0
 22
0.0
 32
0.0
 13
1.0
 23
0.0
 33
0.0
 40
0.0
 40
0.0
 40
0.0
 40
0.0
 40
0.0624999999999963
 40
0.0624999999999963
 40
0.1249999999999925
 40
0.1249999999999925
 40
0.2499999999999919
 40
0.2499999999999919
 40
0.4999999999999958
 40
0.4999999999999958
 40
1.0
 40
1.0
 40
1.0
 40
1.0
 10
202.1062657698539
 20
63.59168632809428
 30
0.0
 10
202.1178461774418
 20
63.59138613698293
 30
0.0
 10
202.1311557042031
 20
63.59005838872393
 30
0.0
 10
202.1604571342893
 20
63.58335971394894
 30
0.0
 10
202.1752712341735
 20
63.57800153084324
 30
0.0
 10
202.2110996358764
 20
63.56095588167589
 30
0.0
 10
202.2252192602394
 20
63.54949334390015
 30
0.0
 10
202.2597234043279
 20
63.5179300185279
 30
0.0
 10
202.2708279550325
 20
63.50003271948264
 30
0.0
 10
202.2970041322487
 20
63.44987130186838
 30
0.0
 10
202.3012426587608
 20
63.42212688967182
 30
0.0
 10
202.3012426587608
 20
63.39746272774227
 30
0.0
  0
LINE
  5
D5
330
1F
100
AcDbEntity
  8
0
  6
Continuous
 62
     7
370
    15
100
AcDbLine
 10
202.3012426638
 20
78.4351699881
 30
0.0
 11
202.3012426638
 21
62.9172366939
 31
0.0
  0
SPLINE
  5
D6
330
1F
100
AcDbEntity
  8
0
  6
Continuous
 62
     7
370
    15
100
AcDbSpline
210
0.0
220
0.0
230
1.0
 70
     8
 71
     3
 72
    16
 73
    12
 74
     0
 42
0.00000001
 43
0.00000001
 12
1.0
 22
0.0
 32
0.0
 13
1.0
 23
0.0
 33
0.0
 40
0.0
 40
0.0
 40
0.0
 40
0.0
 40
0.4999999999999971
 40
0.4999999999999971
 40
0.7499999999999991
 40
0.7499999999999991
 40
0.8750000000000011
 40
0.8750000000000011
 40
0.9375000000000006
 40
0.9375000000000006
 40
1.0
 40
1.0
 40
1.0
 40
1.0
 10
202.3012426587608
 20
78.43516989023345
 30
0.0
 10
202.3012426587608
 20
78.54886243436134
 30
0.0
 10
202.2970963836828
 20
78.66318259571084
 30
0.0
 10
202.2711307882893
 20
78.83623088620793
 30
0.0
 10
202.2596698829119
 20
78.89540639336964
 30
0.0
 10
202.2253581451375
 20
78.9785295128378
 30
0.0
 10
202.211333409208
 20
79.00665082893846
 30
0.0
 10
202.1753104461741
 20
79.03526664291593
 30
0.0
 10
202.1605559370844
 20
79.04105969081773
 30
0.0
 10
202.1312037759375
 20
79.0394662648807
 30
0.0
 10
202.1178639014334
 20
79.03296986155688
 30
0.0
 10
202.1062657698851
 20
79.02445411535375
 30
0.0
  0
SPLINE
  5
D7
330
1F
100
AcDbEntity
  8
0
  6
Continuous
 62
     7
370
    15
100
AcDbSpline
210
0.0
220
0.0
230
1.0
 70
     8
 71
     3
 72
    12
 73
     8
 74
     0
 42
0.00000001
 43
0.00000001
 12
1.0
 22
0.0
 32
0.0
 13
1.0
 23
0.0
 33
0.0
 40
0.0
 40
0.0
 40
0.0
 40
0.0
 40
0.2499999999999999
 40
0.2499999999999999
 40
0.5000000000000001
 40
0.5000000000000001
 40
1.0
 40
1.0
 40
1.0
 40
1.0
 10
202.1062657698922
 20
79.02445411534458
 30
0.0
 10
202.0760673284515
 20
79.00228138329953
 30
0.0
 10
202.0426999731156
 20
78.98320172742233
 30
0.0
 10
201.9695446972856
 20
78.9580286829796
 30
0.0
 10
201.9292919982617
 20
78.95247214656283
 30
0.0
 10
201.8115632549868
 20
78.96338395754958
 30
0.0
 10
201.7411048069279
 20
79.00531971296037
 30
0.0
 10
201.6847303723096
 20
79.05453149534193
 30
0.0
  0
SPLINE
  5
D8
330
1F
100
AcDbEntity
  8
0
  6
Continuous
 62
     7
370
    15
100
AcDbSpline
210
0.0
220
0.0
230
1.0
 70
     8
 71
     3
 72
    12
 73
     8
 74
     0
 42
0.00000001
 43
0.00000001
 12
1.0
 22
0.0
 32
0.0
 13
1.0
 23
0.0
 33
0.0
 40
0.0
 40
0.0
 40
0.0
 40
0.0
 40
0.4999999999999978
 40
0.4999999999999978
 40
0.7499999999999989
 40
0.7499999999999989
 40
1.0
 40
1.0
 40
1.0
 40
1.0
 10
201.1799223152011
 20
80.2708828872225
 30
0.0
 10
201.2236726670855
 20
80.05043590224795
 30
0.0
 10
201.27656281821
 20
79.83489091244239
 30
0.0
 10
201.3881743613517
 20
79.52247683587046
 30
0.0
 10
201.4307337052552
 20
79.42039736025457
 30
0.0
 10
201.5357109405927
 20
79.2259573476128
 30
0.0
 10
201.5972781836873
 20
79.13087244854913
 30
0.0
 10
201.6847303723096
 20
79.05453149534196
 30
0.0
  0
SPLINE
  5
D9
330
1F
100
AcDbEntity
  8
0
  6
Continuous
 62
     7
370
    15
100
AcDbSpline
210
0.0
220
0.0
230
1.0
 70
     8
 71
     3
 72
    12
 73
     8
 74
     0
 42
0.00000001
 43
0.00000001
 12
1.0
 22
0.0
 32
0.0
 13
1.0
 23
0.0
 33
0.0
 40
0.0
 40
0.0
 40
0.0
 40
0.0
 40
0.2500000000000008
 40
0.2500000000000008
 40
0.5000000000000016
 40
0.5000000000000016
 40
1.0
 40
1.0
 40
1.0
 40
1.0
 10
201.6847303723095
 20
91.85958293662509
 30
0.0
 10
201.5962369647416
 20
91.7823330565168
 30
0.0
 10
201.5361789239758
 20
91.68901373262759
 30
0.0
 10
201.4303306509932
 20
91.49298067965813
 30
0.0
 10
201.3877971297157
 20
91.3906543214464
 30
0.0
 10
201.2766458228921
 20
91.0793099156705
 30
0.0
 10
201.2237149658443
 20
90.8638916624925
 30
0.0
 10
201.1799223152011
 20
90.64323154474462
 30
0.0
  0
SPLINE
  5
DA
330
1F
100
AcDbEntity
  8
0
  6
Continuous
 62
     7
370
    15
100
AcDbSpline
210
0.0
220
0.0
230
1.0
 70
     8
 71
     3
 72
    12
 73
     8
 74
     0
 42
0.00000001
 43
0.00000001
 12
1.0
 22
0.0
 32
0.0
 13
1.0
 23
0.0
 33
0.0
 40
0.0
 40
0.0
 40
0.0
 40
0.0
 40
0.4999999999999997
 40
0.4999999999999997
 40
0.7499999999999998
 40
0.7499999999999998
 40
1.0
 40
1.0
 40
1.0
 40
1.0
 10
201.6847303723095
 20
91.85958293662512
 30
0.0
 10
201.7410389206051
 20
91.90873720386895
 30
0.0
 10
201.8113135813232
 20
91.95069452247267
 30
0.0
 10
201.9293514956468
 20
91.96165420000511
 30
0.0
 10
201.9695277365008
 20
91.95614544175777
 30
0.0
 10
202.0434848311787
 20
91.93058821296881
 30
0.0
 10
202.0761012188901
 20
91.9118081651295
 30
0.0
 10
202.1062657698859
 20
91.8896603166128
 30
0.0
  0
SPLINE
  5
DB
330
1F
100
AcDbEntity
  8
0
  6
Continuous
 62
     7
370
    15
100
AcDbSpline
210
0.0
220
0.0
230
1.0
 70
     8
 71
     3
 72
    16
 73
    12
 74
     0
 42
0.00000001
 43
0.00000001
 12
1.0
 22
0.0
 32
0.0
 13
1.0
 23
0.0
 33
0.0
 40
0.0
 40
0.0
 40
0.0
 40
0.0
 40
0.0625000000000014
 40
0.0625000000000014
 40
0.1250000000000028
 40
0.1250000000000028
 40
0.2500000000000033
 40
0.2500000000000033
 40
0.5000000000000046
 40
0.5000000000000046
 40
1.0
 40
1.0
 40
1.0
 40
1.0
 10
202.1062657698542
 20
91.88966031655829
 30
0.0
 10
202.1178786696935
 20
91.88113372696303
 30
0.0
 10
202.131229854126
 20
91.87463346543025
 30
0.0
 10
202.1606296937452
 20
91.87306406831271
 30
0.0
 10
202.1754704183004
 20
91.87894745894332
 30
0.0
 10
202.211303626269
 20
91.90749509499385
 30
0.0
 10
202.2254168340906
 20
91.93566211429967
 30
0.0
 10
202.2599082053095
 20
92.0194163727216
 30
0.0
 10
202.2709922764199
 20
92.07712978634302
 30
0.0
 10
202.2971150942159
 20
92.25072032298887
 30
0.0
 10
202.3012426587608
 20
92.36574837563082
 30
0.0
 10
202.3012426587608
 20
92.47894454173365
 30
0.0
  0
LINE
  5
DC
330
1F
100
AcDbEntity
  8
0
  6
Continuous
 62
     7
370
    15
100
AcDbLine
 10
202.3012426638
 20
107.9968777381
 30
0.0
 11
202.3012426638
 21
92.4789444439
 31
0.0
  0
SPLINE
  5
DD
330
1F
100
AcDbEntity
  8
0
  6
Continuous
 62
     7
370
    15
100
AcDbSpline
210
0.0
220
0.0
230
1.0
 70
     8
 71
     3
 72
    16
 73
    12
 74
     0
 42
0.00000001
 43
0.00000001
 12
1.0
 22
0.0
 32
0.0
 13
1.0
 23
0.0
 33
0.0
 40
0.0
 40
0.0
 40
0.0
 40
0.0
 40
0.5000000000000002
 40
0.5000000000000002
 40
0.7499999999999966
 40
0.7499999999999966
 40
0.8749999999999948
 40
0.8749999999999948
 40
0.9374999999999974
 40
0.9374999999999974
 40
1.0
 40
1.0
 40
1.0
 40
1.0
 10
202.3012426587608
 20
107.5166517042248
 30
0.0
 10
202.3012426587608
 20
107.4919805481819
 30
0.0
 10
202.2970769603008
 20
107.4643987167907
 30
0.0
 10
202.2708186319758
 20
107.4140558459673
 30
0.0
 10
202.2593148502382
 20
107.3957663479055
 30
0.0
 10
202.2251840908917
 20
107.3646113168684
 30
0.0
 10
202.210762204221
 20
107.3529719416567
 30
0.0
 10
202.1751952357832
 20
107.3360899157256
 30
0.0
 10
202.1602434674885
 20
107.3307008119179
 30
0.0
 10
202.1312396491287
 20
107.3240803159734
 30
0.0
 10
202.1178242951195
 20
107.322727727767
 30
0.0
 10
202.1062657698829
 20
107.3224281038954
 30
0.0
  0
SPLINE
  5
DE
330
1F
100
AcDbEntity
  8
0
  6
Continuous
 62
     7
370
    15
100
AcDbSpline
210
0.0
220
0.0
230
1.0
 70
     8
 71
     3
 72
    12
 73
     8
 74
     0
 42
0.00000001
 43
0.00000001
 12
1.0
 22
0.0
 32
0.0
 13
1.0
 23
0.0
 33
0.0
 40
0.0
 40
0.0
 40
0.0
 40
0.0
 40
0.2499999999999998
 40
0.2499999999999998
 40
0.4999999999999999
 40
0.4999999999999999
 40
1.0
 40
1.0
 40
1.0
 40
1.0
 10
202.1062657698922
 20
107.3224281038971
 30
0.0
 10
202.0760779933425
 20
107.3216455664795
 30
0.0
 10
202.0427241892508
 20
107.320752234661
 30
0.0
 10
201.9695979860549
 20
107.3188249258574
 30
0.0
 10
201.9293627830307
 20
107.3177853946448
 30
0.0
 10
201.8116711528976
 20
107.3148675112975
 30
0.0
 10
201.7412904797376
 20
107.3132719052273
 30
0.0
 10
201.684730372307
 20
107.3118509184594
 30
0.0
  0
SPLINE
  5
DF
330
1F
100
AcDbEntity
  8
0
  6
Continuous
 62
     7
370
    15
100
AcDbSpline
210
0.0
220
0.0
230
1.0
 70
     8
 71
     3
 72
    16
 73
    12
 74
     0
 42
0.00000001
 43
0.00000001
 12
1.0
 22
0.0
 32
0.0
 13
1.0
 23
0.0
 33
0.0
 40
0.0
 40
0.0
 40
0.0
 40
0.0
 40
0.2500000000000001
 40
0.2500000000000001
 40
0.3750000000000001
 40
0.3750000000000001
 40
0.5000000000000001
 40
0.5000000000000001
 40
0.7500000000000001
 40
0.7500000000000001
 40
1.0
 40
1.0
 40
1.0
 40
1.0
 10
201.1799223152011
 20
90.64323154474462
 30
0.0
 10
201.0186898377166
 20
89.8308217694978
 30
0.0
 10
200.898209998077
 20
88.99074347511306
 30
0.0
 10
200.7758294807637
 20
87.68944842575029
 30
0.0
 10
200.7448518203662
 20
87.24876739016551
 30
0.0
 10
200.7032380827383
 20
86.35292774923438
 30
0.0
 10
200.6930021698055
 20
85.90626961803191
 30
0.0
 10
200.6928137727493
 20
84.57095966089203
 30
0.0
 10
200.732958475387
 20
83.6864642875845
 30
0.0
 10
200.8971122303265
 20
81.92921439955849
 30
0.0
 10
201.0186638807361
 20
81.08342345314537
 30
0.0
 10
201.1799223152011
 20
80.2708828872225
 30
0.0
  0
LINE
  5
E0
330
1F
100
AcDbEntity
  8
0
  6
Continuous
 62
     7
370
    15
100
AcDbLine
 10
200.3012426707
 20
91.9422353513
 30
0.0
 11
200.3012426707
 21
78.9718790806
 31
0.0
  0
LINE
  5
E1
330
1F
100
AcDbEntity
  8
0
  6
Continuous
 62
     7
370
    15
100
AcDbLine
 10
166.0012431952
 20
91.5113678097
 30
0.0
 11
166.0012431952
 21
79.4027466222
 31
0.0
  0
LINE
  5
E2
330
1F
100
AcDbEntity
  8
0
  6
Continuous
 62
     7
370
    15
100
AcDbLine
 10
164.5012438807
 20
91.0783549666
 30
0.0
 11
164.5012438807
 21
79.8357594654
 31
0.0
  0
LINE
  5
E3
330
1F
100
AcDbEntity
  8
0
  6
Continuous
 62
     7
370
    15
100
AcDbLine
 10
166.0012431952
 20
91.5113678097
 30
0.0
 11
166.0012431952
 21
106.6154208861
 31
0.0
  0
LINE
  5
E4
330
1F
100
AcDbEntity
  8
0
  6
Continuous
 62
     7
370
    15
100
AcDbLine
 10
166.0012431952
 20
106.6154208861
 30
0.0
 11
200.3012426707
 21
107.4771569006
 31
0.0
  0
LINE
  5
E5
330
1F
100
AcDbEntity
  8
0
  6
Continuous
 62
     7
370
    15
100
AcDbLine
 10
200.3012426707
 20
91.9422353513
 30
0.0
 11
200.3012426707
 21
107.4771569006
 31
0.0
  0
ARC
  5
E6
330
1F
100
AcDbEntity
  8
0
  6
Continuous
 62
     7
370
    15
100
AcDbCircle
 10
200.5011795697
 20
107.4821791117
 30
0.0
 40
0.1999999999999917
100
AcDbArc
 50
181.4391666667
 51
271.4391666667
  0
LINE
  5
E7
330
1F
100
AcDbEntity
  8
0
  6
Continuous
 62
     7
370
    15
100
AcDbLine
 10
200.3012426707
 20
63.4369575314
 30
0.0
 11
200.3012426707
 21
78.9718790806
 31
0.0
  0
ARC
  5
E8
330
1F
100
AcDbEntity
  8
0
  6
Continuous
 62
     7
370
    15
100
AcDbCircle
 10
200.5011795697
 20
63.4319353203
 30
0.0
 40
0.1999999999999917
100
AcDbArc
 50
88.5608333333
 51
178.5608333333
  0
LINE
  5
E9
330
1F
100
AcDbEntity
  8
0
  6
Continuous
 62
     7
370
    15
100
AcDbLine
 10
166.0012431952
 20
64.2986935459
 30
0.0
 11
166.0012431952
 21
79.4027466222
 31
0.0
  0
LINE
  5
EA
330
1F
100
AcDbEntity
  8
0
  6
Continuous
 62
     7
370
    15
100
AcDbLine
 10
166.0012431952
 20
64.2986935459
 30
0.0
 11
200.3012426707
 21
63.4369575314
 31
0.0
  0
LINE
  5
EB
330
1F
100
AcDbEntity
  8
0
  6
Continuous
 62
     7
370
    15
100
AcDbLine
 10
200.5062027878
 20
107.2822422616
 30
0.0
 11
201.6847303879
 21
107.3118508689
 31
0.0
  0
LINE
  5
EC
330
1F
100
AcDbEntity
  8
0
  6
Continuous
 62
     7
370
    15
100
AcDbLine
 10
200.5062027878
 20
63.6318721704
 30
0.0
 11
201.6847303879
 21
63.6022635631
 31
0.0
  0
LINE
  5
ED
330
1F
100
AcDbEntity
  8
0
  6
Continuous
 62
     7
370
    15
100
AcDbLine
 10
164.5012438807
 20
105.7493951998
 30
0.0
 11
166.0012431952
 21
106.6154208861
 31
0.0
  0
LINE
  5
EE
330
1F
100
AcDbEntity
  8
0
  6
Continuous
 62
     7
370
    15
100
AcDbLine
 10
164.5012438807
 20
91.0783549666
 30
0.0
 11
164.5012438807
 21
105.7493951998
 31
0.0
  0
LINE
  5
EF
330
1F
100
AcDbEntity
  8
0
  6
Continuous
 62
     7
370
    15
100
AcDbLine
 10
164.5012438807
 20
65.1647192321
 30
0.0
 11
166.0012431952
 21
64.2986935459
 31
0.0
  0
LINE
  5
F0
330
1F
100
AcDbEntity
  8
0
  6
Continuous
 62
     7
370
    15
100
AcDbLine
 10
164.5012438807
 20
65.1647192321
 30
0.0
 11
164.5012438807
 21
79.8357594654
 31
0.0
  0
ELLIPSE
  5
F1
330
1F
100
AcDbEntity
  8
0
  6
Continuous
 62
     7
370
    15
100
AcDbEllipse
 10
239.1371815298
 20
61.7188440569
 30
0.0
 11
5.987605468417456
 21
8.554242125761213
 31
0.0
210
0.0
220
0.0
230
1.0
 40
0.0450608875
 41
4.192084863147096
 42
4.62192114414441
  0
SPLINE
  5
F2
330
1F
100
AcDbEntity
  8
0
  6
Continuous
 62
     7
370
    15
100
AcDbSpline
210
0.0
220
0.0
230
1.0
 70
     8
 71
     3
 72
    12
 73
     8
 74
     0
 42
0.00000001
 43
0.00000001
 12
1.0
 22
0.0
 32
0.0
 13
1.0
 23
0.0
 33
0.0
 40
0.0
 40
0.0
 40
0.0
 40
0.0
 40
0.2499999999999989
 40
0.2499999999999989
 40
0.4999999999999978
 40
0.4999999999999978
 40
1.0
 40
1.0
 40
1.0
 40
1.0
 10
240.5999410745668
 20
58.83310293199953
 30
0.0
 10
240.5489767481099
 20
58.78982174563841
 30
0.0
 10
240.4893121625191
 20
58.73333934808164
 30
0.0
 10
240.3611509083179
 20
58.60583087943211
 30
0.0
 10
240.2921855504011
 20
58.5343043670051
 30
0.0
 10
240.0735969992782
 20
58.3011204911714
 30
0.0
 10
239.9133446132578
 20
58.12255062108584
 30
0.0
 10
239.7339156707818
 20
57.91346821398972
 30
0.0
  0
LINE
  5
F3
330
1F
100
AcDbEntity
  8
0
  6
Continuous
 62
     7
370
    15
100
AcDbLine
 10
238.9801197263
 20
60.6773127697
 30
0.0
 11
267.1334423634
 21
100.5508419953
 31
0.0
  0
LINE
  5
F4
330
1F
100
AcDbEntity
  8
0
  6
Continuous
 62
     7
370
    15
100
AcDbLine
 10
266.150189242
 20
94.0305660374
 30
0.0
 11
267.1334423634
 21
100.5508419953
 31
0.0
  0
LINE
  5
F5
330
1F
100
AcDbEntity
  8
0
  6
Continuous
 62
     7
370
    15
100
AcDbLine
 10
266.150189242
 20
94.0305660374
 30
0.0
 11
260.2550551805
 21
85.457057216
 31
0.0
  0
ELLIPSE
  5
F6
330
1F
100
AcDbEntity
  8
0
  6
Continuous
 62
     7
370
    15
100
AcDbEllipse
 10
257.2261830456
 20
85.457057216
 30
0.0
 11
22.11579364523794
 21
31.96854304077314
 31
0.0
210
0.0
220
0.0
230
1.0
 40
0.0641414938
 41
3.774032403238652
 42
4.756732888107576
  0
LINE
  5
F7
330
1F
100
AcDbEntity
  8
0
  6
Continuous
 62
     7
370
    15
100
AcDbLine
 10
252.7690209958
 20
122.112978705
 30
0.0
 11
254.1683480653
 21
122.9025167308
 31
0.0
  0
ARC
  5
F8
330
1F
100
AcDbEntity
  8
0
  6
Continuous
 62
     7
370
    15
100
AcDbCircle
 10
253.888138615
 20
120.185697846
 30
0.0
 40
2.228639889101301
100
AcDbArc
 50
120.1425264036
 51
300.4699236553
  0
LINE
  5
F9
330
1F
100
AcDbEntity
  8
0
  6
Continuous
 62
     7
370
    15
100
AcDbLine
 10
257.7118628236
 20
119.7846499167
 30
0.0
 11
255.0182506951
 21
118.2648432336
 31
0.0
  0
LINE
  5
FA
330
1F
100
AcDbEntity
  8
0
  6
Continuous
 62
     7
370
    15
100
AcDbLine
 10
267.0684583994
 20
114.4203175686
 30
0.0
 11
257.7118628236
 21
119.7846499167
 31
0.0
  0
LINE
  5
FB
330
1F
100
AcDbEntity
  8
0
  6
Continuous
 62
     7
370
    15
100
AcDbLine
 10
267.1334423634
 20
100.5508419953
 30
0.0
 11
267.0684583994
 21
114.4203175686
 31
0.0
  0
SPLINE
  5
FC
330
1F
100
AcDbEntity
  8
0
  6
Continuous
 62
     7
370
    15
100
AcDbSpline
210
0.0
220
0.0
230
1.0
 70
     8
 71
     3
 72
    10
 73
     6
 74
     0
 42
0.00000001
 43
0.00000001
 12
1.0
 22
0.0
 32
0.0
 13
1.0
 23
0.0
 33
0.0
 40
0.0
 40
0.0
 40
0.0
 40
0.0
 40
0.5
 40
0.5
 40
1.0
 40
1.0
 40
1.0
 40
1.0
 10
239.7339156707818
 20
116.8290802255756
 30
0.0
 10
239.9566410206441
 20
116.829624374721
 30
0.0
 10
240.1749508668184
 20
116.9079247312996
 30
0.0
 10
240.5205284043354
 20
117.1827426811478
 30
0.0
 10
240.6438839694726
 20
117.3740761891597
 30
0.0
 10
240.6998414970708
 20
117.5868870382239
 30
0.0
  0
SPLINE
  5
FD
330
1F
100
AcDbEntity
  8
0
  6
Continuous
 62
     7
370
    15
100
AcDbSpline
210
0.0
220
0.0
230
1.0
 70
     8
 71
     3
 72
     8
 73
     4
 74
     0
 42
0.00000001
 43
0.00000001
 12
1.0
 22
0.0
 32
0.0
 13
1.0
 23
0.0
 33
0.0
 40
0.0
 40
0.0
 40
0.0
 40
0.0
 40
1.0
 40
1.0
 40
1.0
 40
1.0
 10
240.6998414970708
 20
117.5868870382239
 30
0.0
 10
241.5299222469859
 20
120.7437489791154
 30
0.0
 10
242.3677942484098
 20
123.8985700329832
 30
0.0
 10
243.2091569356131
 20
127.0524767157384
 30
0.0
  0
LINE
  5
FE
330
1F
100
AcDbEntity
  8
0
  6
Continuous
 62
     7
370
    15
100
AcDbLine
 10
260.5119400236
 20
126.9737970911
 30
0.0
 11
243.2091586801
 21
127.0524752222
 31
0.0
  0
LINE
  5
FF
330
1F
100
AcDbEntity
  8
0
  6
Continuous
 62
     7
370
    15
100
AcDbLine
 10
260.5119400236
 20
126.9737970911
 30
0.0
 11
260.5140895161
 21
126.5147183917
 31
0.0
  0
LINE
  5
100
330
1F
100
AcDbEntity
  8
0
  6
Continuous
 62
     7
370
    15
100
AcDbLine
 10
243.2091586801
 20
127.0524752222
 30
0.0
 11
243.1738317522
 21
126.886483737
 31
0.0
  0
ARC
  5
101
330
1F
100
AcDbEntity
  8
0
  6
Continuous
 62
     7
370
    15
100
AcDbCircle
 10
253.6778676778
 20
119.031151114
 30
0.0
 40
2.210845836043015
100
AcDbArc
 50
119.3289160584
 51
155.8583060892
  0
LINE
  5
102
330
1F
100
AcDbEntity
  8
0
  6
Continuous
 62
     7
370
    15
100
AcDbLine
 10
253.8755141708
 20
121.6811467789
 30
0.0
 11
252.5949456307
 21
120.9586155496
 31
0.0
  0
LINE
  5
103
330
1F
100
AcDbEntity
  8
0
  6
HIDDEN
 62
     7
370
     0
100
AcDbLine
 10
261.7586717519
 20
124.9338579259
 30
0.0
 11
262.3218387875
 21
125.0337925635
 31
0.0
  0
ARC
  5
104
330
1F
100
AcDbEntity
  8
0
  6
HIDDEN
 62
     7
370
     0
100
AcDbCircle
 10
262.5002267772
 20
122.3327846079
 30
0.0
 40
2.7047155601402
100
AcDbArc
 50
105.9126273091
 51
266.2183440888
  0
ARC
  5
105
330
1F
100
AcDbEntity
  8
0
  6
HIDDEN
 62
     7
370
     0
100
AcDbCircle
 10
262.5318318158
 20
122.2569201724
 30
0.0
 40
2.743888769558807
100
AcDbArc
 50
352.0316504106
 51
106.5181799405
  0
ARC
  5
106
330
1F
100
AcDbEntity
  8
0
  6
HIDDEN
 62
     7
370
     0
100
AcDbCircle
 10
262.5272699326
 20
122.2744504164
 30
0.0
 40
2.725785042044163
100
AcDbArc
 50
106.5310142636
 51
312.7166627518
  0
ARC
  5
107
330
1F
100
AcDbEntity
  8
0
  6
HIDDEN
 62
     7
370
     0
100
AcDbCircle
 10
263.3212148713
 20
121.3848757054
 30
0.0
 40
0.223786305302736
100
AcDbArc
 50
240.9548380317
 51
19.4040628099
  0
ARC
  5
108
330
1F
100
AcDbEntity
  8
0
  6
HIDDEN
 62
     7
370
     0
100
AcDbCircle
 10
261.4346348256
 20
121.8414623452
 30
0.0
 40
0.2234989739349166
100
AcDbArc
 50
143.4736263796
 51
271.6094009602
  0
ARC
  5
109
330
1F
100
AcDbEntity
  8
0
  6
HIDDEN
 62
     7
370
     0
100
AcDbCircle
 10
263.9867333608
 20
121.7880777911
 30
0.0
 40
0.5560840752485108
100
AcDbArc
 50
120.9684891515
 51
171.3396757972
  0
ARC
  5
10A
330
1F
100
AcDbEntity
  8
0
  6
HIDDEN
 62
     7
370
     0
100
AcDbCircle
 10
261.0326809266
 20
122.5058834771
 30
0.0
 40
0.5545211272709057
100
AcDbArc
 50
351.4728811003
 51
31.5834996247
  0
ARC
  5
10B
330
1F
100
AcDbEntity
  8
0
  6
HIDDEN
 62
     7
370
     0
100
AcDbCircle
 10
261.6922478689
 20
122.9115873007
 30
0.0
 40
0.2198329358695251
100
AcDbArc
 50
142.7815102606
 51
211.627310797
  0
ARC
  5
10C
330
1F
100
AcDbEntity
  8
0
  6
HIDDEN
 62
     7
370
     0
100
AcDbCircle
 10
263.5874827294
 20
122.4538975078
 30
0.0
 40
0.220264523749768
100
AcDbArc
 50
300.8980082987
 51
20.016238876
  0
ARC
  5
10D
330
1F
100
AcDbEntity
  8
0
  6
HIDDEN
 62
     7
370
     0
100
AcDbCircle
 10
261.4535127155
 20
121.0502790357
 30
0.0
 40
0.5679123109453693
100
AcDbArc
 50
2.1992978961
 51
91.2713767449
  0
ARC
  5
10E
330
1F
100
AcDbEntity
  8
0
  6
HIDDEN
 62
     7
370
     0
100
AcDbCircle
 10
262.2476441717
 20
121.0815172627
 30
0.0
 40
0.2268341690140973
100
AcDbArc
 50
182.3862073948
 51
330.4011986731
  0
ARC
  5
10F
330
1F
100
AcDbEntity
  8
0
  6
HIDDEN
 62
     7
370
     0
100
AcDbCircle
 10
262.9411086128
 20
120.6867467682
 30
0.0
 40
0.5711237809942447
100
AcDbArc
 50
61.6207585676
 51
150.3273104674
  0
CIRCLE
  5
110
330
1F
100
AcDbEntity
  8
0
  6
HIDDEN
 62
     7
370
     0
100
AcDbCircle
 10
262.4275114392
 20
121.7015622689
 30
0.0
 40
1.377003643989508
  0
CIRCLE
  5
111
330
1F
100
AcDbEntity
  8
0
  6
HIDDEN
 62
     7
370
     0
100
AcDbCircle
 10
262.4521320129
 20
121.8647501058
 30
0.0
 40
1.377008881075065
  0
CIRCLE
  5
112
330
1F
100
AcDbEntity
  8
0
  6
HIDDEN
 62
     7
370
     0
100
AcDbCircle
 10
262.2112384923
 20
120.2791145703
 30
0.0
 40
1.575845221367668
  0
CIRCLE
  5
113
330
1F
100
AcDbEntity
  8
0
  6
HIDDEN
 62
     7
370
     0
100
AcDbCircle
 10
262.4254317606
 20
121.6995038883
 30
0.0
 40
1.575845812387161
  0
CIRCLE
  5
114
330
1F
100
AcDbEntity
  8
0
  6
HIDDEN
 62
     7
370
     0
100
AcDbCircle
 10
262.2068471406
 20
120.2259740253
 30
0.0
 40
1.261598979234203
  0
LINE
  5
115
330
1F
100
AcDbEntity
  8
0
  6
HIDDEN
 62
     7
370
     0
100
AcDbLine
 10
267.0407422396
 20
114.1455550573
 30
0.0
 11
267.0688681814
 21
114.332072892
 31
0.0
  0
LINE
  5
116
330
1F
100
AcDbEntity
  8
0
  6
HIDDEN
 62
     7
370
     0
100
AcDbLine
 10
266.4317466828
 20
114.1535607062
 30
0.0
 11
267.0407422396
 21
114.1455550573
 31
0.0
  0
LINE
  5
117
330
1F
100
AcDbEntity
  8
0
  6
HIDDEN
 62
     7
370
     0
100
AcDbLine
 10
266.4317466828
 20
114.1535607062
 30
0.0
 11
266.5194400164
 21
114.7350822471
 31
0.0
  0
LINE
  5
118
330
1F
100
AcDbEntity
  8
0
  6
HIDDEN
 62
     7
370
     0
100
AcDbLine
 10
257.156459293
 20
119.4712784968
 30
0.0
 11
266.4317466828
 21
114.1535607062
 31
0.0
  0
LINE
  5
119
330
1F
100
AcDbEntity
  8
0
  6
HIDDEN
 62
     7
370
     0
100
AcDbLine
 10
267.0407422396
 20
114.1455550573
 30
0.0
 11
267.0695163819
 21
114.1945165477
 31
0.0
  0
LINE
  5
11A
330
1F
100
AcDbEntity
  8
0
  6
HIDDEN
 62
     7
370
     0
100
AcDbLine
 10
266.8316044423
 20
114.8340371333
 30
0.0
 11
267.0601137492
 21
115.222907149
 31
0.0
  0
LINE
  5
11B
330
1F
100
AcDbEntity
  8
0
  6
HIDDEN
 62
     7
370
     0
100
AcDbLine
 10
266.8316044423
 20
114.8340371333
 30
0.0
 11
266.9245355341
 21
115.4502765171
 31
0.0
  0
LINE
  5
11C
330
1F
100
AcDbEntity
  8
0
  6
HIDDEN
 62
     7
370
     0
100
AcDbLine
 10
254.1041985663
 20
122.3342795752
 30
0.0
 11
254.1971259328
 21
122.9505170963
 31
0.0
  0
CIRCLE
  5
11D
330
1F
100
AcDbEntity
  8
0
  6
HIDDEN
 62
     7
370
     0
100
AcDbCircle
 10
262.6857959802
 20
122.1015004805
 30
0.0
 40
1.988038250445771
  0
CIRCLE
  5
11E
330
1F
100
AcDbEntity
  8
0
  6
HIDDEN
 62
     7
370
     0
100
AcDbCircle
 10
262.659920002
 20
121.6963353925
 30
0.0
 40
1.988038250445759
  0
LINE
  5
11F
330
1F
100
AcDbEntity
  8
0
  6
HIDDEN
 62
     7
370
     0
100
AcDbLine
 10
265.4532544824
 20
128.7377220474
 30
0.0
 11
265.5461855742
 21
129.3539595686
 31
0.0
  0
LINE
  5
120
330
1F
100
AcDbEntity
  8
0
  6
HIDDEN
 62
     7
370
     0
100
AcDbLine
 10
266.6105084631
 20
128.7324582122
 30
0.0
 11
266.7034321043
 21
129.3486994587
 31
0.0
  0
LINE
  5
121
330
1F
100
AcDbEntity
  8
0
  6
HIDDEN
 62
     7
370
     0
100
AcDbLine
 10
267.4102314326
 20
128.7288223289
 30
0.0
 11
267.5031625244
 21
129.3450635753
 31
0.0
  0
LINE
  5
122
330
1F
100
AcDbEntity
  8
0
  6
HIDDEN
 62
     7
370
     0
100
AcDbLine
 10
267.110338113
 20
129.2523783527
 30
0.0
 11
267.2032617542
 21
129.8686195992
 31
0.0
  0
LINE
  5
123
330
1F
100
AcDbEntity
  8
0
  6
HIDDEN
 62
     7
370
     0
100
AcDbLine
 10
266.9104017827
 20
129.2532873235
 30
0.0
 11
267.0033328744
 21
129.86952857
 31
0.0
  0
LINE
  5
124
330
1F
100
AcDbEntity
  8
0
  6
HIDDEN
 62
     7
370
     0
100
AcDbLine
 10
266.4563186976
 20
114.2343287252
 30
0.0
 11
266.4317466828
 21
114.1535607062
 31
0.0
  0
LINE
  5
125
330
1F
100
AcDbEntity
  8
0
  6
HIDDEN
 62
     7
370
     0
100
AcDbLine
 10
266.9807054612
 20
114.2274350755
 30
0.0
 11
267.0407422396
 21
114.1455550573
 31
0.0
  0
LINE
  5
126
330
1F
100
AcDbEntity
  8
0
  6
HIDDEN
 62
     7
370
     0
100
AcDbLine
 10
267.0223691079
 20
114.2983441136
 30
0.0
 11
267.1407066795
 21
114.3156741641
 31
0.0
  0
LINE
  5
127
330
1F
100
AcDbEntity
  8
0
  6
HIDDEN
 62
     7
370
     0
100
AcDbLine
 10
267.1407066795
 20
114.3156741641
 30
0.0
 11
266.8316044423
 21
114.8340371333
 31
0.0
  0
LINE
  5
128
330
1F
100
AcDbEntity
  8
0
  6
HIDDEN
 62
     7
370
     0
100
AcDbLine
 10
266.7132668706
 20
114.8167070828
 30
0.0
 11
267.0223691079
 21
114.2983441136
 31
0.0
  0
LINE
  5
129
330
1F
100
AcDbEntity
  8
0
  6
HIDDEN
 62
     7
370
     0
100
AcDbLine
 10
267.0223691079
 20
114.2983441136
 30
0.0
 11
266.9807054612
 21
114.2274350755
 31
0.0
  0
LINE
  5
12A
330
1F
100
AcDbEntity
  8
0
  6
HIDDEN
 62
     7
370
     0
100
AcDbLine
 10
266.4563186976
 20
114.2343287252
 30
0.0
 11
255.153247765
 21
120.7146164857
 31
0.0
  0
LINE
  5
12B
330
1F
100
AcDbEntity
  8
0
  6
HIDDEN
 62
     7
370
     0
100
AcDbLine
 10
266.9807054612
 20
114.2274350755
 30
0.0
 11
266.4563186976
 21
114.2343287252
 31
0.0
  0
LINE
  5
12C
330
1F
100
AcDbEntity
  8
0
  6
HIDDEN
 62
     7
370
     0
100
AcDbLine
 10
267.3076518389
 20
115.8282090805
 30
0.0
 11
266.7132668706
 21
114.8167070828
 31
0.0
  0
LINE
  5
12D
330
1F
100
AcDbEntity
  8
0
  6
HIDDEN
 62
     7
370
     0
100
AcDbLine
 10
266.7132668706
 20
114.8167070828
 30
0.0
 11
266.8316044423
 21
114.8340371333
 31
0.0
  0
LINE
  5
12E
330
1F
100
AcDbEntity
  8
0
  6
HIDDEN
 62
     7
370
     0
100
AcDbLine
 10
267.3076518389
 20
115.8282090805
 30
0.0
 11
267.4102314326
 21
115.8187263541
 31
0.0
  0
LINE
  5
12F
330
1F
100
AcDbEntity
  8
0
  6
HIDDEN
 62
     7
370
     0
100
AcDbLine
 10
267.3076518389
 20
128.685988941
 30
0.0
 11
267.3076518389
 21
115.8282090805
 31
0.0
  0
LINE
  5
130
330
1F
100
AcDbEntity
  8
0
  6
HIDDEN
 62
     7
370
     0
100
AcDbLine
 10
267.4102314326
 20
115.8187263541
 30
0.0
 11
267.4102314326
 21
128.7288223289
 31
0.0
  0
LINE
  5
131
330
1F
100
AcDbEntity
  8
0
  6
HIDDEN
 62
     7
370
     0
100
AcDbLine
 10
254.1743569585
 20
122.2442653857
 30
0.0
 11
265.4774241659
 21
128.621761211
 31
0.0
  0
LINE
  5
132
330
1F
100
AcDbEntity
  8
0
  6
HIDDEN
 62
     7
370
     0
100
AcDbLine
 10
265.4532544824
 20
128.7377220474
 30
0.0
 11
254.1041985663
 21
122.3342795752
 31
0.0
  0
LINE
  5
133
330
1F
100
AcDbEntity
  8
0
  6
HIDDEN
 62
     7
370
     0
100
AcDbLine
 10
255.153247765
 20
120.7146164857
 30
0.0
 11
254.558866522
 21
121.7315238796
 31
0.0
  0
LINE
  5
134
330
1F
100
AcDbEntity
  8
0
  6
HIDDEN
 62
     7
370
     0
100
AcDbLine
 10
255.153247765
 20
120.7146164857
 30
0.0
 11
255.0826870414
 21
120.6602123461
 31
0.0
  0
LINE
  5
135
330
1F
100
AcDbEntity
  8
0
  6
HIDDEN
 62
     7
370
     0
100
AcDbLine
 10
254.558866522
 20
121.7315238796
 30
0.0
 11
254.5040600511
 21
121.6501672648
 31
0.0
  0
LINE
  5
136
330
1F
100
AcDbEntity
  8
0
  6
HIDDEN
 62
     7
370
     0
100
AcDbLine
 10
254.558866522
 20
121.7315238796
 30
0.0
 11
253.9498672399
 21
121.7290577374
 31
0.0
  0
LINE
  5
137
330
1F
100
AcDbEntity
  8
0
  6
HIDDEN
 62
     7
370
     0
100
AcDbLine
 10
253.9498672399
 20
121.7290577374
 30
0.0
 11
253.895060769
 21
121.6477011226
 31
0.0
  0
LINE
  5
138
330
1F
100
AcDbEntity
  8
0
  6
HIDDEN
 62
     7
370
     0
100
AcDbLine
 10
253.9498672399
 20
121.7290577374
 30
0.0
 11
253.9081998679
 21
121.8003448926
 31
0.0
  0
LINE
  5
139
330
1F
100
AcDbEntity
  8
0
  6
HIDDEN
 62
     7
370
     0
100
AcDbLine
 10
253.7950963291
 20
121.8187292002
 30
0.0
 11
253.9081998679
 21
121.8003448926
 31
0.0
  0
LINE
  5
13A
330
1F
100
AcDbEntity
  8
0
  6
HIDDEN
 62
     7
370
     0
100
AcDbLine
 10
254.1041985663
 20
122.3342795752
 30
0.0
 11
254.1743569585
 21
122.2442653857
 31
0.0
  0
LINE
  5
13B
330
1F
100
AcDbEntity
  8
0
  6
HIDDEN
 62
     7
370
     0
100
AcDbLine
 10
253.9081998679
 20
121.8003448926
 30
0.0
 11
254.1743569585
 21
122.2442653857
 31
0.0
  0
LINE
  5
13C
330
1F
100
AcDbEntity
  8
0
  6
HIDDEN
 62
     7
370
     0
100
AcDbLine
 10
254.1041985663
 20
122.3342795752
 30
0.0
 11
253.7950963291
 21
121.8187292002
 31
0.0
  0
LINE
  5
13D
330
1F
100
AcDbEntity
  8
0
  6
HIDDEN
 62
     7
370
     0
100
AcDbLine
 10
265.4532544824
 20
128.7377220474
 30
0.0
 11
265.4774241659
 21
128.621761211
 31
0.0
  0
LINE
  5
13E
330
1F
100
AcDbEntity
  8
0
  6
HIDDEN
 62
     7
370
     0
100
AcDbLine
 10
265.4774241659
 20
128.621761211
 30
0.0
 11
266.6661866519
 21
128.6163558147
 31
0.0
  0
LINE
  5
13F
330
1F
100
AcDbEntity
  8
0
  6
HIDDEN
 62
     7
370
     0
100
AcDbLine
 10
266.6105084631
 20
128.7324582122
 30
0.0
 11
265.4532544824
 21
128.7377220474
 31
0.0
  0
LINE
  5
140
330
1F
100
AcDbEntity
  8
0
  6
HIDDEN
 62
     7
370
     0
100
AcDbLine
 10
266.6105084631
 20
128.7324582122
 30
0.0
 11
266.6661866519
 21
128.6163558147
 31
0.0
  0
LINE
  5
141
330
1F
100
AcDbEntity
  8
0
  6
HIDDEN
 62
     7
370
     0
100
AcDbLine
 10
266.6661866519
 20
128.6163558147
 30
0.0
 11
266.966087422
 21
129.1371849261
 31
0.0
  0
LINE
  5
142
330
1F
100
AcDbEntity
  8
0
  6
HIDDEN
 62
     7
370
     0
100
AcDbLine
 10
266.9104017827
 20
129.2532873235
 30
0.0
 11
266.6105084631
 21
128.7324582122
 31
0.0
  0
LINE
  5
143
330
1F
100
AcDbEntity
  8
0
  6
HIDDEN
 62
     7
370
     0
100
AcDbLine
 10
267.4102314326
 20
128.7288223289
 30
0.0
 11
267.3076518389
 21
128.685988941
 31
0.0
  0
LINE
  5
144
330
1F
100
AcDbEntity
  8
0
  6
HIDDEN
 62
     7
370
     0
100
AcDbLine
 10
267.049422166
 20
129.1368049465
 30
0.0
 11
267.3076518389
 21
128.685988941
 31
0.0
  0
LINE
  5
145
330
1F
100
AcDbEntity
  8
0
  6
HIDDEN
 62
     7
370
     0
100
AcDbLine
 10
267.4102314326
 20
128.7288223289
 30
0.0
 11
267.110338113
 21
129.2523783527
 31
0.0
  0
LINE
  5
146
330
1F
100
AcDbEntity
  8
0
  6
HIDDEN
 62
     7
370
     0
100
AcDbLine
 10
267.110338113
 20
129.2523783527
 30
0.0
 11
267.049422166
 21
129.1368049465
 31
0.0
  0
LINE
  5
147
330
1F
100
AcDbEntity
  8
0
  6
HIDDEN
 62
     7
370
     0
100
AcDbLine
 10
266.9104017827
 20
129.2532873235
 30
0.0
 11
266.966087422
 21
129.1371849261
 31
0.0
  0
LINE
  5
148
330
1F
100
AcDbEntity
  8
0
  6
HIDDEN
 62
     7
370
     0
100
AcDbLine
 10
266.966087422
 20
129.1371849261
 30
0.0
 11
267.049422166
 21
129.1368049465
 31
0.0
  0
LINE
  5
149
330
1F
100
AcDbEntity
  8
0
  6
HIDDEN
 62
     7
370
     0
100
AcDbLine
 10
267.110338113
 20
129.2523783527
 30
0.0
 11
266.9104017827
 21
129.2532873235
 31
0.0
  0
LWPOLYLINE
  5
14A
330
1F
100
AcDbEntity
  8
0
  6
HIDDEN
 62
     7
370
     0
100
AcDbPolyline
 90
       27
 70
   128
 43
0.0
 10
263.264016858
 20
116.0114430718
 10
263.2634729656
 20
116.6620203189
 10
263.2670827719
 20
117.2985811613
 10
263.2746413859
 20
117.8841260157
 10
263.2857017728
 20
118.3846262179
 10
263.2996231827
 20
118.7709984265
 10
263.3156009528
 20
119.0207865916
 10
263.3327037605
 20
119.1194732569
 10
263.3499332282
 20
119.06131775
 10
263.3662947032
 20
118.8497100852
 10
263.3808345112
 20
118.4969399951
 10
263.3927070114
 20
118.0235152028
 10
263.4012267503
 20
117.4569432519
 10
263.4058908137
 20
116.8301557086
 10
263.4064347061
 20
116.1795784615
 10
263.4028211745
 20
115.5430194817
 10
263.3952662858
 20
114.9574746273
 10
263.3842058989
 20
114.4569725625
 10
263.3702807638
 20
114.0706003539
 10
263.354306719
 20
113.8208140514
 10
263.3372039112
 20
113.7221273861
 10
263.3199707183
 20
113.7802810304
 10
263.3036092433
 20
113.9918905578
 10
263.2890694353
 20
114.3446587853
 10
263.2771969351
 20
114.8180854402
 10
263.2686809215
 20
115.3846555285
 10
263.264016858
 20
116.0114430718
  0
LWPOLYLINE
  5
14B
330
1F
100
AcDbEntity
  8
0
  6
HIDDEN
 62
     7
370
     0
100
AcDbPolyline
 90
       27
 70
   128
 43
0.0
 10
265.6456731769
 20
116.0114430718
 10
265.6503372404
 20
115.3846555285
 10
265.658853254
 20
114.8180854402
 10
265.6707294795
 20
114.3446587853
 10
265.6852655622
 20
113.9918905578
 10
265.7016270372
 20
113.7802810304
 10
265.7188602301
 20
113.7221273861
 10
265.7359667632
 20
113.8208140514
 10
265.751940808
 20
114.0706003539
 10
265.7658659431
 20
114.4569725625
 10
265.7769226047
 20
114.9574746273
 10
265.7844774934
 20
115.5430194817
 10
265.788091025
 20
116.1795784615
 10
265.7875471326
 20
116.8301557086
 10
265.7828830692
 20
117.4569432519
 10
265.7743670556
 20
118.0235152028
 10
265.7624908301
 20
118.4969399951
 10
265.7479547473
 20
118.8497100852
 10
265.7315932724
 20
119.06131775
 10
265.7143600794
 20
119.1194732569
 10
265.697260997
 20
119.0207865916
 10
265.6812795016
 20
118.7709984265
 10
265.667361817
 20
118.3846262179
 10
265.6562977048
 20
117.8841260157
 10
265.6487428161
 20
117.2985811613
 10
265.6451292845
 20
116.6620203189
 10
265.6456731769
 20
116.0114430718
  0
LWPOLYLINE
  5
14C
330
1F
100
AcDbEntity
  8
0
  6
HIDDEN
 62
     7
370
     0
100
AcDbPolyline
 90
       21
 70
   128
 43
0.0
 10
263.3766621861
 20
116.6614857398
 10
263.3726425978
 20
117.134601333
 10
263.3649349722
 20
117.537841656
 10
263.3542918178
 20
117.8317409835
 10
263.341756216
 20
117.9875251732
 10
263.3285537871
 20
117.9899466119
 10
263.3159809324
 20
117.8387706063
 10
263.3052632722
 20
117.5487940095
 10
263.2974513384
 20
117.1484035335
 10
263.2933088156
 20
116.6767873697
 10
263.2932454857
 20
116.1801130406
 10
263.2972613486
 20
115.7069993101
 10
263.3049689743
 20
115.303758987
 10
263.3156121286
 20
115.0098596595
 10
263.3281477305
 20
114.8540754698
 10
263.3413501593
 20
114.8516521684
 10
263.3539267394
 20
115.002828174
 10
263.3646443996
 20
115.2928047709
 10
263.3724563333
 20
115.6931971095
 10
263.3765988561
 20
116.1648132734
 10
263.3766621861
 20
116.6614857398
  0
LWPOLYLINE
  5
14D
330
1F
100
AcDbEntity
  8
0
  6
HIDDEN
 62
     7
370
     0
100
AcDbPolyline
 90
       26
 70
   128
 43
0.0
 10
265.97140511
 20
116.059581273
 10
265.9709804269
 20
116.6565832577
 10
265.9745194527
 20
117.2387716256
 10
265.98179867
 20
117.7695621632
 10
265.9923486921
 20
118.2156060718
 10
266.0055213186
 20
118.5488742672
 10
266.020489535
 20
118.7484306179
 10
266.036299667
 20
118.8017320715
 10
266.0519607874
 20
118.7054295919
 10
266.0665043208
 20
118.4655767761
 10
266.0789989444
 20
118.0972424231
 10
266.0886623475
 20
117.6235717617
 10
266.0948984834
 20
117.0743261359
 10
266.097305021
 20
116.4840166352
 10
266.0957329484
 20
115.8897359751
 10
266.090286574
 20
115.3288227401
 10
266.0812937233
 20
114.8365237645
 10
266.0693355414
 20
114.4437701337
 10
266.0551570865
 20
114.1752400331
 10
266.0396524283
 20
114.0478071652
 10
266.0237901422
 20
114.0694790415
 10
266.008568606
 20
114.2388922058
 10
265.9949414941
 20
114.5454035036
 10
265.9837730738
 20
114.9697513215
 10
265.9757562491
 20
115.4852737568
 10
265.97140511
 20
116.059581273
  0
LWPOLYLINE
  5
14E
330
1F
100
AcDbEntity
  8
0
  6
HIDDEN
 62
     7
370
     0
100
AcDbPolyline
 90
       21
 70
   128
 43
0.0
 10
259.4455495986
 20
116.6614857398
 10
259.4454862687
 20
116.1648132734
 10
259.4413474711
 20
115.6931971095
 10
259.4335355374
 20
115.2928047709
 10
259.4228141519
 20
115.002828174
 10
259.4102412972
 20
114.8516521684
 10
259.3970388683
 20
114.8540754698
 10
259.3845032665
 20
115.0098596595
 10
259.3738601121
 20
115.303758987
 10
259.3661524865
 20
115.7069993101
 10
259.3621328982
 20
116.1801130406
 10
259.3621999535
 20
116.6767873697
 10
259.366338751
 20
117.1484035335
 10
259.3741506847
 20
117.5487940095
 10
259.3848683449
 20
117.8387706063
 10
259.397444925
 20
117.9899466119
 10
259.4106473538
 20
117.9875251732
 10
259.4231829556
 20
117.8317409835
 10
259.43382611
 20
117.537841656
 10
259.4415337357
 20
117.134601333
 10
259.4455495986
 20
116.6614857398
  0
LWPOLYLINE
  5
14F
330
1F
100
AcDbEntity
  8
0
  6
HIDDEN
 62
     7
370
     0
100
AcDbPolyline
 90
       19
 70
   128
 43
0.0
 10
259.1198213908
 20
116.6133494012
 10
259.1160588476
 20
117.0310829661
 10
259.108723751
 20
117.3752029322
 10
259.0987064454
 20
117.604211428
 10
259.0872101995
 20
117.6904817007
 10
259.0756208214
 20
117.6236127399
 10
259.0653390202
 20
117.4116623483
 10
259.0576053175
 20
117.0802009187
 10
259.053351036
 20
116.6692064039
 10
259.0530865404
 20
116.2282512419
 10
259.0568490836
 20
115.8105176769
 10
259.0641841802
 20
115.4663958482
 10
259.0742052111
 20
115.2373873524
 10
259.0857014569
 20
115.1511170797
 10
259.097290835
 20
115.2179879032
 10
259.107568911
 20
115.4299364321
 10
259.1153063389
 20
115.7613978617
 10
259.1195606205
 20
116.1723923765
 10
259.1198213908
 20
116.6133494012
  0
ARC
  5
150
330
1F
100
AcDbEntity
  8
0
  6
HIDDEN
 62
     7
370
     0
100
AcDbCircle
 10
261.3033793809
 20
116.0299647811
 30
0.0
 40
3.566216327423182
100
AcDbArc
 50
356.1402873995
 51
2.6739157348
  0
ARC
  5
151
330
1F
100
AcDbEntity
  8
0
  6
HIDDEN
 62
     7
370
     0
100
AcDbCircle
 10
262.5043260175
 20
116.0299832088
 30
0.0
 40
3.564847326365721
100
AcDbArc
 50
356.138506063
 51
2.6746468392
  0
ARC
  5
152
330
1F
100
AcDbEntity
  8
0
  6
HIDDEN
 62
     7
370
     0
100
AcDbCircle
 10
281.960430243
 20
116.6617504245
 30
0.0
 40
17.10105182926158
100
AcDbArc
 50
178.9075583136
 51
181.5595323198
  0
ARC
  5
153
330
1F
100
AcDbEntity
  8
0
  6
HIDDEN
 62
     7
370
     0
100
AcDbCircle
 10
283.1640425408
 20
116.661766873
 30
0.0
 40
17.10508607651541
100
AcDbArc
 50
178.9078711045
 51
181.5592195289
  0
LWPOLYLINE
  5
154
330
1F
100
AcDbEntity
  8
0
  6
HIDDEN
 62
     7
370
     0
100
AcDbPolyline
 90
        9
 70
   128
 43
0.0
 10
264.8552373561
 20
117.3280891858
 10
264.8571260783
 20
117.3459929309
 10
264.8590706798
 20
117.3401479505
 10
264.8608662697
 20
117.3111763678
 10
264.8623154077
 20
117.2621254705
 10
264.8632728073
 20
117.1981696866
 10
264.8636341604
 20
117.1260517917
 10
264.8633622142
 20
117.053371378
 10
264.862486771
 20
116.9877913676
  0
LWPOLYLINE
  5
155
330
1F
100
AcDbEntity
  8
0
  6
HIDDEN
 62
     7
370
     0
100
AcDbPolyline
 90
        9
 70
   128
 43
0.0
 10
266.0548143598
 20
117.3280891858
 10
266.0567068073
 20
117.3459929309
 10
266.0586514088
 20
117.3401479505
 10
266.0604395482
 20
117.3111763678
 10
266.0618924114
 20
117.2621254705
 10
266.0628460857
 20
117.1981696866
 10
266.0632111641
 20
117.1260517917
 10
266.0629429432
 20
117.053371378
 10
266.0620637747
 20
116.9877913676
  0
LWPOLYLINE
  5
156
330
1F
100
AcDbEntity
  8
0
  6
HIDDEN
 62
     7
370
     0
100
AcDbPolyline
 90
        9
 70
   128
 43
0.0
 10
264.8449034008
 20
115.289045953
 10
264.845521799
 20
115.3974295489
 10
264.8466878149
 20
115.4992342822
 10
264.8483567449
 20
115.5905933015
 10
264.8504652592
 20
115.6680364988
 10
264.8529314014
 20
115.7286227576
 10
264.8556657645
 20
115.7700461231
 10
264.858560315
 20
115.790738248
 10
264.8615070197
 20
115.789909371
  0
LWPOLYLINE
  5
157
330
1F
100
AcDbEntity
  8
0
  6
HIDDEN
 62
     7
370
     0
100
AcDbPolyline
 90
        9
 70
   128
 43
0.0
 10
266.0444804045
 20
115.289045953
 10
266.0450988027
 20
115.3974295489
 10
266.0462610933
 20
115.4992342822
 10
266.0479300233
 20
115.5905933015
 10
266.0500385376
 20
115.6680364988
 10
266.0525121304
 20
115.7286227576
 10
266.0552390429
 20
115.7700461231
 10
266.0581373188
 20
115.790738248
 10
266.0610802981
 20
115.789909371
  0
LWPOLYLINE
  5
158
330
1F
100
AcDbEntity
  8
0
  6
HIDDEN
 62
     7
370
     0
100
AcDbPolyline
 90
        9
 70
   128
 43
0.0
 10
264.8552373561
 20
117.3280891858
 10
264.8524322125
 20
117.2940735601
 10
264.8495041343
 20
117.2811691545
 10
264.8465686056
 20
117.2898677073
 10
264.8437299344
 20
117.3198451183
 10
264.8411036047
 20
117.3699502729
 10
264.8387827488
 20
117.4382907234
 10
264.8368567738
 20
117.522262492
 10
264.8354039105
 20
117.6186804555
  0
LWPOLYLINE
  5
159
330
1F
100
AcDbEntity
  8
0
  6
HIDDEN
 62
     7
370
     0
100
AcDbPolyline
 90
        9
 70
   128
 43
0.0
 10
266.0548143598
 20
117.3280891858
 10
266.0520054909
 20
117.2940735601
 10
266.0490774128
 20
117.2811691545
 10
266.046141884
 20
117.2898677073
 10
266.0433032128
 20
117.3198451183
 10
266.0406806084
 20
117.3699502729
 10
266.0383560273
 20
117.4382907234
 10
266.0364337775
 20
117.522262492
 10
266.0349809143
 20
117.6186804555
  0
LWPOLYLINE
  5
15A
330
1F
100
AcDbEntity
  8
0
  6
HIDDEN
 62
     7
370
     0
100
AcDbPolyline
 90
        9
 70
   128
 43
0.0
 10
264.8449034008
 20
115.289045953
 10
264.844366959
 20
115.2184535645
 10
264.8432605478
 20
115.1580163173
 10
264.8416996511
 20
115.1141044579
 10
264.8398444566
 20
115.0913485221
 10
264.8378924045
 20
115.0921457342
 10
264.8360521111
 20
115.1164122752
 10
264.8345135662
 20
115.1615907333
 10
264.8334406826
 20
115.2229183249
  0
LWPOLYLINE
  5
15B
330
1F
100
AcDbEntity
  8
0
  6
HIDDEN
 62
     7
370
     0
100
AcDbPolyline
 90
        9
 70
   128
 43
0.0
 10
266.0444804045
 20
115.289045953
 10
266.0439439627
 20
115.2184535645
 10
266.0428338262
 20
115.1580163173
 10
266.0412766549
 20
115.1141044579
 10
266.0394214603
 20
115.0913485221
 10
266.0374694082
 20
115.0921457342
 10
266.0356291148
 20
115.1164122752
 10
266.0340868446
 20
115.1615907333
 10
266.0330214116
 20
115.2229183249
  0
LWPOLYLINE
  5
15C
330
1F
100
AcDbEntity
  8
0
  6
HIDDEN
 62
     7
370
     0
100
AcDbPolyline
 90
        9
 70
   128
 43
0.0
 10
264.8239449176
 20
117.5525528274
 10
264.8244776341
 20
117.6231470786
 10
264.8255840453
 20
117.6835824631
 10
264.8271486672
 20
117.7274961851
 10
264.8290038618
 20
117.7502502583
 10
264.8309521886
 20
117.7494530461
 10
264.8327962073
 20
117.7251865051
 10
264.8343310269
 20
117.6800099097
 10
264.8354039105
 20
117.6186804555
  0
LWPOLYLINE
  5
15D
330
1F
100
AcDbEntity
  8
0
  6
HIDDEN
 62
     7
370
     0
100
AcDbPolyline
 90
        9
 70
   128
 43
0.0
 10
266.0235219213
 20
117.5525528274
 10
266.0240509125
 20
117.6231470786
 10
266.025161049
 20
117.6835824631
 10
266.026725671
 20
117.7274961851
 10
266.0285808655
 20
117.7502502583
 10
266.0305329176
 20
117.7494530461
 10
266.0323732111
 20
117.7251865051
 10
266.0339080307
 20
117.6800099097
 10
266.0349809143
 20
117.6186804555
  0
LWPOLYLINE
  5
15E
330
1F
100
AcDbEntity
  8
0
  6
HIDDEN
 62
     7
370
     0
100
AcDbPolyline
 90
        9
 70
   128
 43
0.0
 10
264.8136109623
 20
115.5135114573
 10
264.8164161059
 20
115.5475289456
 10
264.8193404588
 20
115.5604314886
 10
264.8222797128
 20
115.5517310731
 10
264.8251146587
 20
115.5217573873
 10
264.8277447137
 20
115.4716485075
 10
264.8300655695
 20
115.4033099197
 10
264.8319878193
 20
115.3193362884
 10
264.8334406826
 20
115.2229183249
  0
LWPOLYLINE
  5
15F
330
1F
100
AcDbEntity
  8
0
  6
HIDDEN
 62
     7
370
     0
100
AcDbPolyline
 90
        9
 70
   128
 43
0.0
 10
266.013187966
 20
115.5135114573
 10
266.0159893843
 20
115.5475289456
 10
266.0189174625
 20
115.5604314886
 10
266.0218529912
 20
115.5517310731
 10
266.0246916625
 20
115.5217573873
 10
266.0273217174
 20
115.4716485075
 10
266.029638848
 20
115.4033099197
 10
266.0315610978
 20
115.3193362884
 10
266.0330214116
 20
115.2229183249
  0
LWPOLYLINE
  5
160
330
1F
100
AcDbEntity
  8
0
  6
HIDDEN
 62
     7
370
     0
100
AcDbPolyline
 90
        9
 70
   128
 43
0.0
 10
264.8239449176
 20
117.5525528274
 10
264.8233265194
 20
117.4441692315
 10
264.8221605035
 20
117.3423644982
 10
264.8204878482
 20
117.2510054789
 10
264.8183830592
 20
117.1735641442
 10
264.8159131917
 20
117.1129797481
 10
264.8131788286
 20
117.0715545199
 10
264.8102842781
 20
117.0508605323
 10
264.8073375734
 20
117.0516912721
  0
LWPOLYLINE
  5
161
330
1F
100
AcDbEntity
  8
0
  6
HIDDEN
 62
     7
370
     0
100
AcDbPolyline
 90
        9
 70
   128
 43
0.0
 10
266.0235219213
 20
117.5525528274
 10
266.0229035231
 20
117.4441692315
 10
266.021733782
 20
117.3423644982
 10
266.0200648519
 20
117.2510054789
 10
266.0179563376
 20
117.1735641442
 10
266.0154901954
 20
117.1129797481
 10
266.0127558323
 20
117.0715545199
 10
266.0098650071
 20
117.0508605323
 10
266.0069145772
 20
117.0516912721
  0
LWPOLYLINE
  5
162
330
1F
100
AcDbEntity
  8
0
  6
HIDDEN
 62
     7
370
     0
100
AcDbPolyline
 90
        9
 70
   128
 43
0.0
 10
264.8136109623
 20
115.5135114573
 10
264.8117185148
 20
115.4956077121
 10
264.8097739133
 20
115.5014508299
 10
264.8079820487
 20
115.5304242752
 10
264.8065291854
 20
115.5794733099
 10
264.8055717858
 20
115.6434290938
 10
264.8052104327
 20
115.7155488513
 10
264.8054823789
 20
115.788229265
 10
264.8063578221
 20
115.8538092754
  0
LWPOLYLINE
  5
163
330
1F
100
AcDbEntity
  8
0
  6
HIDDEN
 62
     7
370
     0
100
AcDbPolyline
 90
        9
 70
   128
 43
0.0
 10
266.013187966
 20
115.5135114573
 10
266.0112955185
 20
115.4956077121
 10
266.009350917
 20
115.5014508299
 10
266.0075553271
 20
115.5304242752
 10
266.0061024639
 20
115.5794733099
 10
266.0051487896
 20
115.6434290938
 10
266.0047837111
 20
115.7155488513
 10
266.0050593826
 20
115.788229265
 10
266.0059311005
 20
115.8538092754
  0
ARC
  5
164
330
1F
100
AcDbEntity
  8
0
  6
HIDDEN
 62
     7
370
     0
100
AcDbCircle
 10
247.7084846244
 20
116.1798494096
 30
0.0
 40
17.10098155232054
100
AcDbArc
 50
358.9075565342
 51
1.5595351984
  0
ARC
  5
165
330
1F
100
AcDbEntity
  8
0
  6
HIDDEN
 62
     7
370
     0
100
AcDbCircle
 10
248.9257332554
 20
116.1799214573
 30
0.0
 40
17.08331079100941
100
AcDbArc
 50
358.9061847023
 51
1.5609070304
  0
ARC
  5
166
330
1F
100
AcDbEntity
  8
0
  6
HIDDEN
 62
     7
370
     0
100
AcDbCircle
 10
268.3654887862
 20
116.8116348555
 30
0.0
 40
3.566239915673193
100
AcDbArc
 50
176.1402967614
 51
182.673911807
  0
ARC
  5
167
330
1F
100
AcDbEntity
  8
0
  6
HIDDEN
 62
     7
370
     0
100
AcDbCircle
 10
269.5685684025
 20
116.8115659248
 30
0.0
 40
3.569739227753358
100
AcDbArc
 50
176.1429771642
 51
182.6701811769
  0
LINE
  5
168
330
1F
100
AcDbEntity
  8
0
  6
HIDDEN
 62
     7
370
     0
100
AcDbLine
 10
267.405694029
 20
116.5613536618
 30
0.0
 11
267.405694029
 21
125.0118021749
 31
0.0
  0
ARC
  5
169
330
1F
100
AcDbEntity
  8
0
  6
HIDDEN
 62
     7
370
     0
100
AcDbCircle
 10
265.6634209608
 20
116.5835600295
 30
0.0
 40
1.742414579536091
100
AcDbArc
 50
239.596014566
 51
359.2697687425
  0
LINE
  5
16A
330
1F
100
AcDbEntity
  8
0
  6
HIDDEN
 62
     7
370
     0
100
AcDbLine
 10
257.1398780259
 20
119.4619242929
 30
0.0
 11
264.7815958175
 21
115.0807649724
 31
0.0
  0
ARC
  5
16B
330
1F
100
AcDbEntity
  8
0
  6
HIDDEN
 62
     7
370
     0
100
AcDbCircle
 10
255.6911130977
 20
121.7575130656
 30
0.0
 40
1.268319329634046
100
AcDbArc
 50
119.1962427014
 51
184.8692958389
  0
LINE
  5
16C
330
1F
100
AcDbEntity
  8
0
  6
HIDDEN
 62
     7
370
     0
100
AcDbLine
 10
261.1527272078
 20
126.2953658484
 30
0.0
 11
255.0724238667
 21
122.8646975837
 31
0.0
  0
LINE
  5
16D
330
1F
100
AcDbEntity
  8
0
  6
HIDDEN
 62
     7
370
     0
100
AcDbLine
 10
261.1527272078
 20
126.2953658484
 30
0.0
 11
264.731889269
 21
126.279090055
 31
0.0
  0
ARC
  5
16E
330
1F
100
AcDbEntity
  8
0
  6
HIDDEN
 62
     7
370
     0
100
AcDbCircle
 10
264.7339305519
 20
126.528310907
 30
0.0
 40
0.2492292115218954
100
AcDbArc
 50
269.5307203256
 51
329.8329973777
  0
LINE
  5
16F
330
1F
100
AcDbEntity
  8
0
  6
HIDDEN
 62
     7
370
     0
100
AcDbLine
 10
264.9494052443
 20
126.4030677162
 30
0.0
 11
265.5276261779
 21
127.4072532437
 31
0.0
  0
ARC
  5
170
330
1F
100
AcDbEntity
  8
0
  6
HIDDEN
 62
     7
370
     0
100
AcDbCircle
 10
265.6138038402
 20
127.3571772986
 30
0.0
 40
0.0996704055834057
100
AcDbArc
 50
89.5270247477
 51
149.8400703696
  0
LINE
  5
171
330
1F
100
AcDbEntity
  8
0
  6
HIDDEN
 62
     7
370
     0
100
AcDbLine
 10
265.6146266076
 20
127.4568443082
 30
0.0
 11
265.9478761765
 21
127.455328115
 31
0.0
  0
ARC
  5
172
330
1F
100
AcDbEntity
  8
0
  6
HIDDEN
 62
     7
370
     0
100
AcDbCircle
 10
265.9476370763
 20
127.3545933033
 30
0.0
 40
0.1007350955267965
100
AcDbArc
 50
29.9910933334
 51
89.8640052494
  0
LINE
  5
173
330
1F
100
AcDbEntity
  8
0
  6
HIDDEN
 62
     7
370
     0
100
AcDbLine
 10
266.0348840567
 20
127.404947289
 30
0.0
 11
267.405694029
 21
125.0118021749
 31
0.0
  0
CIRCLE
  5
174
330
1F
100
AcDbEntity
  8
0
  6
HIDDEN
 62
     7
370
     0
100
AcDbCircle
 10
262.3916313999
 20
121.7427971886
 30
0.0
 40
2.995694797131867
  0
ELLIPSE
  5
175
330
1F
100
AcDbEntity
  8
0
  6
HIDDEN
 62
     7
370
     0
100
AcDbEllipse
 10
265.6178448691
 20
116.3143213264
 30
0.0
 11
1.742869122870161
 21
-0.1616128851061234
 31
0.0
210
0.0
220
0.0
230
1.0
 40
0.9375704985
 41
4.282527634009067
 42
6.376922736402234
  0
LINE
  5
176
330
1F
100
AcDbEntity
  8
0
  6
HIDDEN
 62
     7
370
     0
100
AcDbLine
 10
256.6922396931
 20
119.2093533359
 30
0.0
 11
264.411022565
 21
114.7840139351
 31
0.0
  0
ELLIPSE
  5
177
330
1F
100
AcDbEntity
  8
0
  6
HIDDEN
 62
     7
370
     0
100
AcDbEllipse
 10
264.745644767
 20
114.8423575475
 30
0.0
 11
0.3001967167188013
 21
-0.1666207688660393
 31
0.0
210
0.0
220
0.0
230
1.0
 40
0.1490188781
 41
1.626325990154923
 42
3.19712231695094
  0
LINE
  5
178
330
1F
100
AcDbEntity
  8
0
  6
HIDDEN
 62
     7
370
     0
100
AcDbLine
 10
264.4445315513
 20
115.0062386773
 30
0.0
 11
264.411022565
 21
114.7840139351
 31
0.0
  0
ARC
  5
179
330
1F
100
AcDbEntity
  8
0
  6
HIDDEN
 62
     7
370
     0
100
AcDbCircle
 10
255.6233341897
 20
121.2864415082
 30
0.0
 40
1.271812409802937
100
AcDbArc
 50
119.2578472295
 51
171.3294531997
  0
LINE
  5
17A
330
1F
100
AcDbEntity
  8
0
  6
HIDDEN
 62
     7
370
     0
100
AcDbLine
 10
267.3672415825
 20
116.3063668541
 30
0.0
 11
267.3350178215
 21
120.617349156
 31
0.0
  0
ELLIPSE
  5
17B
330
1F
100
AcDbEntity
  8
0
  6
HIDDEN
 62
     7
370
     0
100
AcDbEllipse
 10
264.6978300848
 20
121.2386618765
 30
0.0
 11
-0.000384828225946876
 21
1.14150230114339
 31
0.0
210
0.0
220
0.0
230
1.0
 40
0.2627212843
 41
6.281902106353574
 42
7.852698433148527
  0
LINE
  5
17C
330
1F
100
AcDbEntity
  8
0
  6
HIDDEN
 62
     7
370
     0
100
AcDbLine
 10
264.3979318949
 20
121.2400239788
 30
0.0
 11
264.4445315513
 21
115.0062386773
 31
0.0
  0
LINE
  5
17D
330
1F
100
AcDbEntity
  8
0
  6
HIDDEN
 62
     7
370
     0
100
AcDbLine
 10
267.3350178215
 20
124.5431122265
 30
0.0
 11
267.405694029
 21
125.0118021749
 31
0.0
  0
LINE
  5
17E
330
1F
100
AcDbEntity
  8
0
  6
HIDDEN
 62
     7
370
     0
100
AcDbLine
 10
261.1527272078
 20
126.2953658484
 30
0.0
 11
261.082047275
 21
125.8266759
 31
0.0
  0
CIRCLE
  5
17F
330
1F
100
AcDbEntity
  8
0
  6
HIDDEN
 62
     7
370
     0
100
AcDbCircle
 10
262.3925380385
 20
121.3842324326
 30
0.0
 40
1.988719552968729
  0
CIRCLE
  5
180
330
1F
100
AcDbEntity
  8
0
  6
HIDDEN
 62
     7
370
     0
100
AcDbCircle
 10
262.3150237405
 20
121.1812403939
 30
0.0
 40
1.990699389848784
  0
LINE
  5
181
330
1F
100
AcDbEntity
  8
0
  6
HIDDEN
 62
     7
370
     0
100
AcDbLine
 10
264.3979318949
 20
115.2657982789
 30
0.0
 11
264.411022565
 21
114.7840139351
 31
0.0
  0
LINE
  5
182
330
1F
100
AcDbEntity
  8
0
  6
HIDDEN
 62
     7
370
     0
100
AcDbLine
 10
264.3979318949
 20
115.2657982789
 30
0.0
 11
255.238571814
 21
120.5170531653
 31
0.0
  0
ARC
  5
183
330
1F
100
AcDbEntity
  8
0
  6
HIDDEN
 62
     7
370
     0
100
AcDbCircle
 10
265.8638641444
 20
126.7991010858
 30
0.0
 40
0.100745565795736
100
AcDbArc
 50
29.9945223799
 51
89.860576203
  0
LINE
  5
184
330
1F
100
AcDbEntity
  8
0
  6
HIDDEN
 62
     7
370
     0
100
AcDbLine
 10
265.8641092989
 20
126.8998463533
 30
0.0
 11
265.5308597299
 21
126.9013625465
 31
0.0
  0
ARC
  5
185
330
1F
100
AcDbEntity
  8
0
  6
HIDDEN
 62
     7
370
     0
100
AcDbCircle
 10
265.5300443777
 20
126.801682528
 30
0.0
 40
0.0996833531149269
100
AcDbArc
 50
89.5313484168
 51
149.8357467004
  0
LINE
  5
186
330
1F
100
AcDbEntity
  8
0
  6
HIDDEN
 62
     7
370
     0
100
AcDbLine
 10
265.4438593003
 20
126.851771482
 30
0.0
 11
264.8656383666
 21
125.8475822292
 31
0.0
  0
ARC
  5
187
330
1F
100
AcDbEntity
  8
0
  6
HIDDEN
 62
     7
370
     0
100
AcDbCircle
 10
264.6501619888
 20
125.9728283771
 30
0.0
 40
0.2492321547333849
100
AcDbArc
 50
269.5311133507
 51
329.8326043527
  0
LINE
  5
188
330
1F
100
AcDbEntity
  8
0
  6
HIDDEN
 62
     7
370
     0
100
AcDbLine
 10
264.6481223914
 20
125.7236045681
 30
0.0
 11
262.0686159047
 21
125.7353355072
 31
0.0
  0
LINE
  5
189
330
1F
100
AcDbEntity
  8
0
  6
HIDDEN
 62
     7
370
     0
100
AcDbLine
 10
266.822104952
 20
125.3289137862
 30
0.0
 11
265.9511171791
 21
126.8494655274
 31
0.0
  0
LINE
  5
18A
330
1F
100
AcDbEntity
  8
0
  6
HIDDEN
 62
     7
370
     0
100
AcDbLine
 10
264.3979318949
 20
121.2400239788
 30
0.0
 11
264.3979318949
 21
115.2657982789
 31
0.0
  0
LINE
  5
18B
330
1F
100
AcDbEntity
  8
0
  6
HIDDEN
 62
     7
370
     0
100
AcDbLine
 10
264.6978289398
 20
122.3801639758
 30
0.0
 11
266.822104952
 21
122.370504298
 31
0.0
  0
ARC
  5
18C
330
1F
100
AcDbEntity
  8
0
  6
HIDDEN
 62
     7
370
     0
100
AcDbCircle
 10
255.6217995335
 20
121.199347534
 30
0.0
 40
0.7825529315312317
100
AcDbArc
 50
119.3218351767
 51
240.6781648233
  0
LINE
  5
18D
330
1F
100
AcDbEntity
  8
0
  6
HIDDEN
 62
     7
370
     0
100
AcDbLine
 10
255.238571814
 20
121.8816419027
 30
0.0
 11
262.0686159047
 21
125.7353355072
 31
0.0
  0
LINE
  5
18E
330
1F
100
AcDbEntity
  8
0
  6
HIDDEN
 62
     7
370
     0
100
AcDbLine
 10
262.0686159047
 20
125.7353355072
 30
0.0
 11
261.082047275
 21
125.8266759
 31
0.0
  0
LINE
  5
18F
330
1F
100
AcDbEntity
  8
0
  6
HIDDEN
 62
     7
370
     0
100
AcDbLine
 10
261.082047275
 20
125.8266759
 30
0.0
 11
255.0017476591
 21
122.3960076354
 31
0.0
  0
LINE
  5
190
330
1F
100
AcDbEntity
  8
0
  6
HIDDEN
 62
     7
370
     0
100
AcDbLine
 10
266.822104952
 20
125.3289137862
 30
0.0
 11
266.822104952
 21
122.370504298
 31
0.0
  0
LINE
  5
191
330
1F
100
AcDbEntity
  8
0
  6
HIDDEN
 62
     7
370
     0
100
AcDbLine
 10
267.3350178215
 20
124.5431122265
 30
0.0
 11
266.822104952
 21
125.3289137862
 31
0.0
  0
LINE
  5
192
330
1F
100
AcDbEntity
  8
0
  6
HIDDEN
 62
     7
370
     0
100
AcDbLine
 10
267.3350178215
 20
120.617349156
 30
0.0
 11
266.822104952
 21
122.370504298
 31
0.0
  0
LINE
  5
193
330
1F
100
AcDbEntity
  8
0
  6
HIDDEN
 62
     7
370
     0
100
AcDbLine
 10
267.3350178215
 20
120.617349156
 30
0.0
 11
267.3350178215
 21
124.5431122265
 31
0.0
  0
LWPOLYLINE
  5
194
330
1F
100
AcDbEntity
  8
0
  6
HIDDEN
 62
     7
370
     0
100
AcDbPolyline
 90
       16
 70
   128
 43
0.0
 10
226.5012428674
 20
100.7370571501
 10
226.4922965827
 20
100.5365564383
 10
226.3657857242
 20
99.9651816569
 10
226.095636985
 20
99.432510779
 10
225.6953936579
 20
98.9652559988
 10
225.1851257446
 20
98.5868475295
 10
224.590422264
 20
98.3162582747
 10
223.9411004397
 20
98.1670585356
 10
223.2697248968
 20
98.1467286951
 10
222.6099573585
 20
98.2562894828
 10
221.9948821279
 20
98.4902460955
 10
221.455342746
 20
98.8368675939
 10
221.0183941337
 20
99.2787717737
 10
220.7059447232
 20
99.793800608
 10
220.5336630854
 20
100.356128522
 10
220.5061425033
 20
100.8854773722
  0
ARC
  5
195
330
1F
100
AcDbEntity
  8
0
  6
HIDDEN
 62
     7
370
     0
100
AcDbCircle
 10
223.5088548266
 20
101.2796634147
 30
0.0
 40
2.986760651997122
100
AcDbArc
 50
202.1658483639
 51
333.9344959723
  0
LWPOLYLINE
  5
196
330
1F
100
AcDbEntity
  8
0
  6
HIDDEN
 62
     7
370
     0
100
AcDbPolyline
 90
       29
 70
   128
 43
0.0
 10
225.0076026234
 20
102.7088672749
 10
225.5471420052
 20
102.3622476391
 10
225.9840906176
 20
101.920342528
 10
226.2965400281
 20
101.4053136937
 10
226.4688216659
 20
100.8429857798
 10
226.4922965827
 20
100.2615564398
 10
226.3657857242
 20
99.6901816584
 10
226.095636985
 20
99.1575107805
 10
225.6953936579
 20
98.6902560003
 10
225.1851257446
 20
98.311847531
 10
224.590422264
 20
98.0412582762
 10
223.9411004397
 20
97.8920585371
 10
223.2697248968
 20
97.8717286966
 10
222.6099573585
 20
97.9812894843
 10
221.9948821279
 20
98.215246097
 10
221.455342746
 20
98.5618675954
 10
221.0183941337
 20
99.0037717752
 10
220.7059447232
 20
99.5188006095
 10
220.5336630854
 20
100.0811285235
 10
220.5101900312
 20
100.6625578634
 10
220.6366990271
 20
101.2339335762
 10
220.906849629
 20
101.7666035227
 10
221.307092956
 20
102.2338573716
 10
221.8173590067
 20
102.6122667722
 10
222.4120643499
 20
102.8828569583
 10
223.0613843116
 20
103.0320566974
 10
223.7327617171
 20
103.0523856066
 10
224.3925273928
 20
102.9428248189
 10
225.0076026234
 20
102.7088672749
  0
LWPOLYLINE
  5
197
330
1F
100
AcDbEntity
  8
0
  6
HIDDEN
 62
     7
370
     0
100
AcDbPolyline
 90
       26
 70
   128
 43
0.0
 10
224.7565422716
 20
100.2510874428
 10
225.2547719094
 20
99.9219086848
 10
225.642818636
 20
99.4957662083
 10
225.8963041517
 20
98.9994383312
 10
225.9992991152
 20
98.4641094587
 10
225.9453308347
 20
97.9234161682
 10
225.7377930495
 20
97.4113340385
 10
225.3897224131
 20
96.9600374706
 10
224.9229938301
 20
96.5978833742
 10
224.3669309231
 20
96.3476276852
 10
223.7564731899
 20
96.2249939225
 10
223.1299780818
 20
96.2376887805
 10
222.5268107417
 20
96.3849141158
 10
221.9848704102
 20
96.6574191011
 10
221.5382099661
 20
97.038081371
 10
221.2148957464
 20
97.5029826991
 10
221.0352380338
 20
98.0229102902
 10
221.0105300459
 20
98.5651970736
 10
221.1423233661
 20
99.0957687504
 10
221.4223348114
 20
99.5812867663
 10
221.8329716983
 20
99.9912447191
 10
222.3484326663
 20
100.2998831577
 10
222.9363300416
 20
100.4878100834
 10
223.5597219827
 20
100.5432163261
 10
224.1794389251
 20
100.4626206018
 10
224.7565422716
 20
100.2510874428
  0
LWPOLYLINE
  5
198
330
1F
100
AcDbEntity
  8
0
  6
HIDDEN
 62
     7
370
     0
100
AcDbPolyline
 90
       28
 70
   128
 43
0.0
 10
224.9071781101
 20
102.3039505712
 10
225.4277017477
 20
101.9666311226
 10
225.8443698796
 20
101.5344471566
 10
226.1347208681
 20
101.0306966386
 10
226.2830973181
 20
100.4825360037
 10
226.2815047565
 20
99.9195170484
 10
226.130028865
 20
99.3719915755
 10
225.8368317547
 20
98.8694787852
 10
225.4177235576
 20
98.4390680574
 10
224.8952981594
 20
98.1039623625
 10
224.2977187547
 20
97.8822284273
 10
223.6571997913
 20
97.7858197771
 10
223.0082747104
 20
97.8199331917
 10
222.3859239879
 20
97.9827302403
 10
221.8237013134
 20
98.2654341392
 10
221.3519156488
 20
98.6528037943
 10
220.9959995511
 20
99.1239580221
 10
220.7751438531
 20
99.6534940682
 10
220.7012508574
 20
100.2128659643
 10
220.7783066246
 20
100.7719184167
 10
221.0021574559
 20
101.3005119644
 10
221.360733411
 20
101.7701499991
 10
221.8347058209
 20
102.155512654
 10
222.398521057
 20
102.4358277104
 10
223.0217844757
 20
102.5959816657
 10
223.6708958211
 20
102.627343022
 10
224.3108597162
 20
102.5282167725
 10
224.9071781101
 20
102.3039505712
  0
LWPOLYLINE
  5
199
330
1F
100
AcDbEntity
  8
0
  6
HIDDEN
 62
     7
370
     0
100
AcDbPolyline
 90
       29
 70
   128
 43
0.0
 10
225.0076026234
 20
102.3638681404
 10
225.5471420052
 20
102.0172466419
 10
225.9840906176
 20
101.5753433935
 10
226.2965400281
 20
101.0603136278
 10
226.4688216659
 20
100.4979857139
 10
226.4922965827
 20
99.9165563739
 10
226.3657857242
 20
99.3451815925
 10
226.095636985
 20
98.8125107146
 10
225.6953936579
 20
98.3452559344
 10
225.1851257446
 20
97.9668474652
 10
224.590422264
 20
97.6962582104
 10
223.9411004397
 20
97.5470584713
 10
223.2697248968
 20
97.5267295621
 10
222.6099573585
 20
97.6362894185
 10
221.9948821279
 20
97.8702460311
 10
221.455342746
 20
98.2168675296
 10
221.0183941337
 20
98.6587717093
 10
220.7059447232
 20
99.1738005437
 10
220.5336630854
 20
99.7361284576
 10
220.5101900312
 20
100.3175577975
 10
220.6366990271
 20
100.8889335103
 10
220.906849629
 20
101.4216025255
 10
221.307092956
 20
101.8888582371
 10
221.8173590067
 20
102.2672676377
 10
222.4120643499
 20
102.5378559611
 10
223.0613843116
 20
102.6870557002
 10
223.7327617171
 20
102.7073846094
 10
224.3925273928
 20
102.5978256844
 10
225.0076026234
 20
102.3638681404
  0
LWPOLYLINE
  5
19A
330
1F
100
AcDbEntity
  8
0
  6
HIDDEN
 62
     7
370
     0
100
AcDbPolyline
 90
       28
 70
   128
 43
0.0
 10
224.9071781101
 20
101.958949574
 10
225.4277017477
 20
101.6216319881
 10
225.8443698796
 20
101.1894480221
 10
226.1347208681
 20
100.6856965728
 10
226.2830973181
 20
100.1375359378
 10
226.2815047565
 20
99.5745169826
 10
226.130028865
 20
99.0269915096
 10
225.8368317547
 20
98.5244787193
 10
225.4177235576
 20
98.0940679915
 10
224.8952981594
 20
97.7589622967
 10
224.2977187547
 20
97.5372283615
 10
223.6571997913
 20
97.4408197112
 10
223.0082747104
 20
97.4749331258
 10
222.3859239879
 20
97.6377301745
 10
221.8237013134
 20
97.9204340733
 10
221.3519156488
 20
98.3078046597
 10
220.9959995511
 20
98.7789579562
 10
220.7751438531
 20
99.3084940023
 10
220.7012508574
 20
99.8678668297
 10
220.7783066246
 20
100.4269183509
 10
221.0021574559
 20
100.9555118985
 10
221.360733411
 20
101.4251490019
 10
221.8347058209
 20
101.8105135195
 10
222.398521057
 20
102.0908285759
 10
223.0217844757
 20
102.2509825311
 10
223.6708958211
 20
102.2823420249
 10
224.3108597162
 20
102.1832157753
 10
224.9071781101
 20
101.958949574
  0
LWPOLYLINE
  5
19B
330
1F
100
AcDbEntity
  8
0
  6
HIDDEN
 62
     7
370
     0
100
AcDbPolyline
 90
       29
 70
   128
 43
0.0
 10
225.0076026234
 20
102.0188690059
 10
225.5471420052
 20
101.6722475074
 10
225.9840906176
 20
101.2303423963
 10
226.2965400281
 20
100.715313562
 10
226.4688216659
 20
100.152985648
 10
226.4922965827
 20
99.5715563081
 10
226.3657857242
 20
99.0001815267
 10
226.095636985
 20
98.4675115801
 10
225.6953936579
 20
98.0002567999
 10
225.1851257446
 20
97.6218473993
 10
224.590422264
 20
97.3512581445
 10
223.9411004397
 20
97.2020584054
 10
223.2697248968
 20
97.1817294962
 10
222.6099573585
 20
97.2912893526
 10
221.9948821279
 20
97.5252459652
 10
221.455342746
 20
97.8718674637
 10
221.0183941337
 20
98.3137716435
 10
220.7059447232
 20
98.8288004778
 10
220.5336630854
 20
99.3911283917
 10
220.5101900312
 20
99.9725577317
 10
220.6366990271
 20
100.5439334444
 10
220.906849629
 20
101.076603391
 10
221.307092956
 20
101.5438572399
 10
221.8173590067
 20
101.9222666405
 10
222.4120643499
 20
102.1928568266
 10
223.0613843116
 20
102.3420565657
 10
223.7327617171
 20
102.3623854749
 10
224.3925273928
 20
102.2528246872
 10
225.0076026234
 20
102.0188690059
  0
LWPOLYLINE
  5
19C
330
1F
100
AcDbEntity
  8
0
  6
HIDDEN
 62
     7
370
     0
100
AcDbPolyline
 90
       28
 70
   128
 43
0.0
 10
224.9071781101
 20
101.6139504395
 10
225.4277017477
 20
101.2766309909
 10
225.8443698796
 20
100.8444479562
 10
226.1347208681
 20
100.3406965069
 10
226.2830973181
 20
99.792535872
 10
226.2815047565
 20
99.2295169167
 10
226.130028865
 20
98.6819923751
 10
225.8368317547
 20
98.1794786535
 10
225.4177235576
 20
97.7490679256
 10
224.8952981594
 20
97.4139622308
 10
224.2977187547
 20
97.1922282956
 10
223.6571997913
 20
97.0958196453
 10
223.0082747104
 20
97.1299330599
 10
222.3859239879
 20
97.2927301086
 10
221.8237013134
 20
97.5754340075
 10
221.3519156488
 20
97.9628045939
 10
220.9959995511
 20
98.4339578904
 10
220.7751438531
 20
98.9634939365
 10
220.7012508574
 20
99.5228667639
 10
220.7783066246
 20
100.081918285
 10
221.0021574559
 20
100.6105118326
 10
221.360733411
 20
101.080148936
 10
221.8347058209
 20
101.4655125223
 10
222.398521057
 20
101.7458275787
 10
223.0217844757
 20
101.9059815339
 10
223.6708958211
 20
101.9373428903
 10
224.3108597162
 20
101.8382166408
 10
224.9071781101
 20
101.6139504395
  0
LWPOLYLINE
  5
19D
330
1F
100
AcDbEntity
  8
0
  6
HIDDEN
 62
     7
370
     0
100
AcDbPolyline
 90
       29
 70
   128
 43
0.0
 10
225.0076026234
 20
101.6738680087
 10
225.5471420052
 20
101.3272465102
 10
225.9840906176
 20
100.8853423305
 10
226.2965400281
 20
100.3703134961
 10
226.4688216659
 20
99.8079855822
 10
226.4922965827
 20
99.2265562422
 10
226.3657857242
 20
98.6551814608
 10
226.095636985
 20
98.1225115142
 10
225.6953936579
 20
97.655256734
 10
225.1851257446
 20
97.2768473334
 10
224.590422264
 20
97.0062580786
 10
223.9411004397
 20
96.8570583395
 10
223.2697248968
 20
96.8367294304
 10
222.6099573585
 20
96.9462892867
 10
221.9948821279
 20
97.1802458994
 10
221.455342746
 20
97.5268673978
 10
221.0183941337
 20
97.9687715776
 10
220.7059447232
 20
98.4838004119
 10
220.5336630854
 20
99.0461283259
 10
220.5101900312
 20
99.6275576658
 10
220.6366990271
 20
100.1989333786
 10
220.906849629
 20
100.7316033251
 10
221.307092956
 20
101.1988581054
 10
221.8173590067
 20
101.5772675059
 10
222.4120643499
 20
101.8478558294
 10
223.0613843116
 20
101.9970555685
 10
223.7327617171
 20
102.0173844777
 10
224.3925273928
 20
101.9078255526
 10
225.0076026234
 20
101.6738680087
  0
LWPOLYLINE
  5
19E
330
1F
100
AcDbEntity
  8
0
  6
HIDDEN
 62
     7
370
     0
100
AcDbPolyline
 90
       28
 70
   128
 43
0.0
 10
224.9071781101
 20
101.2689494423
 10
225.4277017477
 20
100.9316318564
 10
225.8443698796
 20
100.4994478903
 10
226.1347208681
 20
99.995696441
 10
226.2830973181
 20
99.4475358061
 10
226.2815047565
 20
98.8845168508
 10
226.130028865
 20
98.3369923092
 10
225.8368317547
 20
97.8344785876
 10
225.4177235576
 20
97.4040678598
 10
224.8952981594
 20
97.0689621649
 10
224.2977187547
 20
96.8472282298
 10
223.6571997913
 20
96.7508195795
 10
223.0082747104
 20
96.7849329941
 10
222.3859239879
 20
96.9477300428
 10
221.8237013134
 20
97.2304339416
 10
221.3519156488
 20
97.617804528
 10
220.9959995511
 20
98.0889578245
 10
220.7751438531
 20
98.6184938706
 10
220.7012508574
 20
99.177866698
 10
220.7783066246
 20
99.7369182191
 10
221.0021574559
 20
100.2655117668
 10
221.360733411
 20
100.7351488702
 10
221.8347058209
 20
101.1205133877
 10
222.398521057
 20
101.4008284442
 10
223.0217844757
 20
101.5609823994
 10
223.6708958211
 20
101.5923418931
 10
224.3108597162
 20
101.4932175062
 10
224.9071781101
 20
101.2689494423
  0
LWPOLYLINE
  5
19F
330
1F
100
AcDbEntity
  8
0
  6
HIDDEN
 62
     7
370
     0
100
AcDbPolyline
 90
       29
 70
   128
 43
0.0
 10
225.0076026234
 20
101.3288688741
 10
225.5471420052
 20
100.9822473757
 10
225.9840906176
 20
100.5403422646
 10
226.2965400281
 20
100.0253134302
 10
226.4688216659
 20
99.4629855163
 10
226.4922965827
 20
98.8815561764
 10
226.3657857242
 20
98.3101813949
 10
226.095636985
 20
97.7775114484
 10
225.6953936579
 20
97.3102566681
 10
225.1851257446
 20
96.9318472676
 10
224.590422264
 20
96.6612580128
 10
223.9411004397
 20
96.5120582737
 10
223.2697248968
 20
96.4917293645
 10
222.6099573585
 20
96.6012892209
 10
221.9948821279
 20
96.8352458335
 10
221.455342746
 20
97.181867332
 10
221.0183941337
 20
97.6237715117
 10
220.7059447232
 20
98.1388003461
 10
220.5336630854
 20
98.70112826
 10
220.5101900312
 20
99.2825576
 10
220.6366990271
 20
99.8539333127
 10
220.906849629
 20
100.3866032593
 10
221.307092956
 20
100.8538580395
 10
221.8173590067
 20
101.2322665088
 10
222.4120643499
 20
101.5028566949
 10
223.0613843116
 20
101.652056434
 10
223.7327617171
 20
101.6723853431
 10
224.3925273928
 20
101.5628245555
 10
225.0076026234
 20
101.3288688741
  0
LWPOLYLINE
  5
1A0
330
1F
100
AcDbEntity
  8
0
  6
HIDDEN
 62
     7
370
     0
100
AcDbPolyline
 90
       29
 70
   128
 43
0.0
 10
225.0076026234
 20
99.9538679503
 10
225.5471420052
 20
99.6072473831
 10
225.9840906176
 20
99.165342272
 10
226.2965400281
 20
98.6503134377
 10
226.4688216659
 20
98.0879855238
 10
226.4922965827
 20
97.5065561838
 10
226.3657857242
 20
96.9351814024
 10
226.095636985
 20
96.4025114558
 10
225.6953936579
 20
95.9352566756
 10
225.1851257446
 20
95.556847275
 10
224.590422264
 20
95.2862580202
 10
223.9411004397
 20
95.1370582811
 10
223.2697248968
 20
95.116729372
 10
222.6099573585
 20
95.2262892283
 10
221.9948821279
 20
95.460245841
 10
221.455342746
 20
95.8068673394
 10
221.0183941337
 20
96.2487715192
 10
220.7059447232
 20
96.7638003535
 10
220.5336630854
 20
97.3261282675
 10
220.5101900312
 20
97.9075576074
 10
220.6366990271
 20
98.4789333202
 10
220.906849629
 20
99.0116032667
 10
221.307092956
 20
99.4788580469
 10
221.8173590067
 20
99.8572674475
 10
222.4120643499
 20
100.127855771
 10
223.0613843116
 20
100.2770555101
 10
223.7327617171
 20
100.2973853506
 10
224.3925273928
 20
100.1878245629
 10
225.0076026234
 20
99.9538679503
  0
LWPOLYLINE
  5
1A1
330
1F
100
AcDbEntity
  8
0
  6
HIDDEN
 62
     7
370
     0
100
AcDbPolyline
 90
       26
 70
   128
 43
0.0
 10
224.7466926041
 20
99.4147094793
 10
225.2410125497
 20
99.0881123475
 10
225.6260157141
 20
98.6653142504
 10
225.8775119248
 20
98.172880233
 10
225.9796985003
 20
97.6417516254
 10
225.9261549028
 20
97.1053014405
 10
225.7202432069
 20
96.597236105
 10
225.3749050709
 20
96.1494804255
 10
224.9118384483
 20
95.7901677943
 10
224.3601378563
 20
95.5418762646
 10
223.7544689837
 20
95.4202045582
 10
223.1328912589
 20
95.4327997647
 10
222.5344569
 20
95.5788702599
 10
221.9967689874
 20
95.8492369286
 10
221.5536121788
 20
96.226912447
 10
221.2328330192
 20
96.6881657846
 10
221.0545871916
 20
97.2040151141
 10
221.0300729188
 20
97.7420466847
 10
221.1608306083
 20
98.2684553496
 10
221.4386459949
 20
98.7501642562
 10
221.8460623684
 20
99.1569054208
 10
222.3574776712
 20
99.4631224207
 10
222.9407612744
 20
99.6495741315
 10
223.5592619094
 20
99.7045454465
 10
224.1741173479
 20
99.6245820902
 10
224.7466926041
 20
99.4147094793
  0
SPLINE
  5
1A2
330
1F
100
AcDbEntity
  8
0
  6
HIDDEN
 62
     7
370
     0
100
AcDbSpline
210
0.0
220
0.0
230
1.0
 70
     8
 71
     3
 72
     9
 73
     5
 74
     0
 42
0.00000001
 43
0.00000001
 12
1.0
 22
0.0
 32
0.0
 13
1.0
 23
0.0
 33
0.0
 40
0.0
 40
0.0
 40
0.0
 40
0.0
 40
0.3547925647816698
 40
1.0
 40
1.0
 40
1.0
 40
1.0
 10
212.5281092288758
 20
85.20792732132837
 30
0.0
 10
212.5150803745551
 20
85.29109546302956
 30
0.0
 10
212.4783579186357
 20
85.52550889204934
 30
0.0
 10
212.5387119354705
 20
85.75694697072589
 30
0.0
 10
212.5776527958776
 20
85.90627253988065
 30
0.0
  0
LWPOLYLINE
  5
1A3
330
1F
100
AcDbEntity
  8
0
  6
HIDDEN
 62
     7
370
     0
100
AcDbPolyline
 90
       29
 70
   128
 43
0.0
 10
223.5012423756
 20
100.3051330231
 10
224.1688050839
 20
100.2399944596
 10
224.8028941962
 20
100.0478430546
 10
225.3717124971
 20
99.738315203
 10
225.8467373016
 20
99.3269313953
 10
226.2041491034
 20
98.8343204267
 10
226.426025531
 20
98.2851837657
 10
226.5012428674
 20
97.7070568956
 10
226.426025531
 20
97.1289309568
 10
226.2041491034
 20
96.5797942958
 10
225.8467373016
 20
96.0871833272
 10
225.3717124971
 20
95.6757995195
 10
224.8028941962
 20
95.3662716679
 10
224.1688050839
 20
95.174120263
 10
223.5012423756
 20
95.1089807681
 10
222.8336796674
 20
95.174120263
 10
222.1995905551
 20
95.3662716679
 10
221.6307741168
 20
95.6757995195
 10
221.1557474497
 20
96.0871833272
 10
220.7983356478
 20
96.5797942958
 10
220.5764592203
 20
97.1289309568
 10
220.5012418839
 20
97.7070568956
 10
220.5764592203
 20
98.2851837657
 10
220.7983356478
 20
98.8343204267
 10
221.1557474497
 20
99.3269313953
 10
221.6307741168
 20
99.738315203
 10
222.1995905551
 20
100.0478430546
 10
222.8336796674
 20
100.2399944596
 10
223.5012423756
 20
100.3051330231
  0
SPLINE
  5
1A4
330
1F
100
AcDbEntity
  8
0
  6
HIDDEN
 62
     7
370
     0
100
AcDbSpline
210
0.0
220
0.0
230
1.0
 70
     8
 71
     3
 72
    12
 73
     8
 74
     0
 42
0.00000001
 43
0.00000001
 12
1.0
 22
0.0
 32
0.0
 13
1.0
 23
0.0
 33
0.0
 40
0.0
 40
0.0
 40
0.0
 40
0.0
 40
0.4999999999999996
 40
0.4999999999999996
 40
0.7499999999999998
 40
0.7499999999999998
 40
1.0
 40
1.0
 40
1.0
 40
1.0
 10
201.6847303723137
 20
100.9093251978144
 30
0.0
 10
201.741136550994
 20
100.8615028241546
 30
0.0
 10
201.8112994524658
 20
100.8212319772161
 30
0.0
 10
201.9293101658549
 20
100.8131861087391
 30
0.0
 10
201.9695159494504
 20
100.819748707078
 30
0.0
 10
202.0432366461835
 20
100.8471308015316
 30
0.0
 10
202.0760973679699
 20
100.866892292062
 30
0.0
 10
202.1062657698992
 20
100.88982500325
 30
0.0
  0
SPLINE
  5
1A5
330
1F
100
AcDbEntity
  8
0
  6
HIDDEN
 62
     7
370
     0
100
AcDbSpline
210
0.0
220
0.0
230
1.0
 70
     8
 71
     3
 72
    16
 73
    12
 74
     0
 42
0.00000001
 43
0.00000001
 12
1.0
 22
0.0
 32
0.0
 13
1.0
 23
0.0
 33
0.0
 40
0.0
 40
0.0
 40
0.0
 40
0.0
 40
0.0625000000000065
 40
0.0625000000000065
 40
0.1250000000000129
 40
0.1250000000000129
 40
0.2500000000000194
 40
0.2500000000000194
 40
0.500000000000018
 40
0.500000000000018
 40
1.0
 40
1.0
 40
1.0
 40
1.0
 10
202.1062657698541
 20
100.8898250032981
 30
0.0
 10
202.1178786696935
 20
100.8986526262795
 30
0.0
 10
202.1312298541259
 20
100.9064870081614
 30
0.0
 10
202.1606296937451
 20
100.9147971342338
 30
0.0
 10
202.1754704183004
 20
100.9143013149988
 30
0.0
 10
202.211303626269
 20
100.9028503440294
 30
0.0
 10
202.2254168340906
 20
100.8861698431707
 30
0.0
 10
202.2599082053095
 20
100.8340491574137
 30
0.0
 10
202.2709922764199
 20
100.7942596633887
 30
0.0
 10
202.2971150942159
 20
100.6709230312916
 30
0.0
 10
202.3012426587608
 20
100.583501620793
 30
0.0
 10
202.3012426587608
 20
100.4947643784747
 30
0.0
  0
SPLINE
  5
1A6
330
1F
100
AcDbEntity
  8
0
  6
HIDDEN
 62
     7
370
     0
100
AcDbSpline
210
0.0
220
0.0
230
1.0
 70
     8
 71
     3
 72
    15
 73
    11
 74
     0
 42
0.00000001
 43
0.00000001
 12
1.0
 22
0.0
 32
0.0
 13
1.0
 23
0.0
 33
0.0
 40
0.0
 40
0.0
 40
0.0
 40
0.0
 40
0.4268843763604754
 40
0.5843961482583137
 40
0.7428273461336078
 40
0.8118413696459921
 40
0.8557788122930884
 40
0.900039989507922
 40
0.9390169194331116
 40
0.9999999999999999
 40
0.9999999999999999
 40
0.9999999999999999
 40
0.9999999999999999
 10
202.2816900411242
 20
70.25160592865437
 30
0.0
 10
202.2801802670693
 20
70.20063368130775
 30
0.0
 10
202.2781134166729
 20
70.13085369715516
 30
0.0
 10
202.2454099946328
 20
70.05583839190707
 30
0.0
 10
202.2204870617661
 20
70.02052006725967
 30
0.0
 10
202.1914090458897
 20
70.0036723193458
 30
0.0
 10
202.16954533413
 20
69.99951397044194
 30
0.0
 10
202.1493958436191
 20
70.00174254000726
 30
0.0
 10
202.1270784574673
 20
70.00988742668616
 30
0.0
 10
202.1141519147607
 20
70.01883248907268
 30
0.0
 10
202.1062657571718
 20
70.0242896459648
 30
0.0
  0
SPLINE
  5
1A7
330
1F
100
AcDbEntity
  8
0
  6
HIDDEN
 62
     7
370
     0
100
AcDbSpline
210
0.0
220
0.0
230
1.0
 70
     8
 71
     3
 72
    12
 73
     8
 74
     0
 42
0.00000001
 43
0.00000001
 12
1.0
 22
0.0
 32
0.0
 13
1.0
 23
0.0
 33
0.0
 40
0.0
 40
0.0
 40
0.0
 40
0.0
 40
0.2499999999999994
 40
0.2499999999999994
 40
0.4999999999999989
 40
0.4999999999999989
 40
1.0
 40
1.0
 40
1.0
 40
1.0
 10
202.1062657698922
 20
70.02428942870894
 30
0.0
 10
202.0760739281749
 20
70.04723995780677
 30
0.0
 10
202.0427149587604
 20
70.06720943183096
 30
0.0
 10
201.9695776741798
 20
70.09431056545647
 30
0.0
 10
201.9293358015258
 20
70.10091130610186
 30
0.0
 10
201.8116300245573
 20
70.09294243159516
 30
0.0
 10
201.7412195467779
 20
70.05268197342731
 30
0.0
 10
201.6847303723096
 20
70.00478923414916
 30
0.0
  0
SPLINE
  5
1A8
330
1F
100
AcDbEntity
  8
0
  6
HIDDEN
 62
     7
370
     0
100
AcDbSpline
210
0.0
220
0.0
230
1.0
 70
     8
 71
     3
 72
    12
 73
     8
 74
     0
 42
0.00000001
 43
0.00000001
 12
1.0
 22
0.0
 32
0.0
 13
1.0
 23
0.0
 33
0.0
 40
0.0
 40
0.0
 40
0.0
 40
0.0
 40
0.25
 40
0.25
 40
0.5000000000000001
 40
0.5000000000000001
 40
1.0
 40
1.0
 40
1.0
 40
1.0
 10
201.6847303723092
 20
70.00478923414938
 30
0.0
 10
201.5965764345715
 20
69.9300504262953
 30
0.0
 10
201.5362230099427
 20
69.83906992581291
 30
0.0
 10
201.4299610518759
 20
69.6501561030603
 30
0.0
 10
201.3877288853138
 20
69.55365164351971
 30
0.0
 10
201.2766581899967
 20
69.26288388935257
 30
0.0
 10
201.2237214135699
 20
69.06721707480881
 30
0.0
 10
201.1799223152011
 20
68.8731505897425
 30
0.0
  0
SPLINE
  5
1A9
330
1F
100
AcDbEntity
  8
0
  6
HIDDEN
 62
     7
370
     0
100
AcDbSpline
210
0.0
220
0.0
230
1.0
 70
     8
 71
     3
 72
    12
 73
     8
 74
     0
 42
0.00000001
 43
0.00000001
 12
1.0
 22
0.0
 32
0.0
 13
1.0
 23
0.0
 33
0.0
 40
0.0
 40
0.0
 40
0.0
 40
0.0
 40
0.500000000000001
 40
0.500000000000001
 40
0.7500000000000006
 40
0.7500000000000006
 40
1.0
 40
1.0
 40
1.0
 40
1.0
 10
201.1799223152011
 20
63.68697626098145
 30
0.0
 10
201.2236688560377
 20
63.66038209034028
 30
0.0
 10
201.2765532112692
 20
63.64062186501454
 30
0.0
 10
201.3881202986053
 20
63.62017087478547
 30
0.0
 10
201.4307038951483
 20
63.61491065012903
 30
0.0
 10
201.5356206222301
 20
63.60702785620636
 30
0.0
 10
201.5971542300749
 20
63.60446373102722
 30
0.0
 10
201.6847303723011
 20
63.60226351350757
 30
0.0
  0
SPLINE
  5
1AA
330
1F
100
AcDbEntity
  8
0
  6
HIDDEN
 62
     7
370
     0
100
AcDbSpline
210
0.0
220
0.0
230
1.0
 70
     8
 71
     3
 72
    12
 73
     8
 74
     0
 42
0.00000001
 43
0.00000001
 12
1.0
 22
0.0
 32
0.0
 13
1.0
 23
0.0
 33
0.0
 40
0.0
 40
0.0
 40
0.0
 40
0.0
 40
0.25
 40
0.25
 40
0.5
 40
0.5
 40
1.0
 40
1.0
 40
1.0
 40
1.0
 10
201.684730372309
 20
107.3118509184595
 30
0.0
 10
201.5960457124526
 20
107.3096228511185
 30
0.0
 10
201.5361272967293
 20
107.3071210670881
 30
0.0
 10
201.4304680694085
 20
107.2991896312521
 30
0.0
 10
201.3878268312936
 20
107.2938974763553
 30
0.0
 10
201.276637489191
 20
107.2734925358682
 30
0.0
 10
201.2237108070701
 20
107.2537578442813
 30
0.0
 10
201.1799223152011
 20
107.2271381709857
 30
0.0
  0
SPLINE
  5
1AB
330
1F
100
AcDbEntity
  8
0
  6
HIDDEN
 62
     7
370
     0
100
AcDbSpline
210
0.0
220
0.0
230
1.0
 70
     8
 71
     3
 72
    12
 73
     8
 74
     0
 42
0.00000001
 43
0.00000001
 12
1.0
 22
0.0
 32
0.0
 13
1.0
 23
0.0
 33
0.0
 40
0.0
 40
0.0
 40
0.0
 40
0.0
 40
0.4999999999999994
 40
0.4999999999999994
 40
0.7500000000000011
 40
0.7500000000000011
 40
1.0
 40
1.0
 40
1.0
 40
1.0
 10
201.1799223151995
 20
102.0409638422248
 30
0.0
 10
201.2236837914983
 20
101.8470640542627
 30
0.0
 10
201.2765901071513
 20
101.6512076903258
 30
0.0
 10
201.3883013047987
 20
101.3590655438269
 30
0.0
 10
201.430820748385
 20
101.262347607129
 30
0.0
 10
201.5359440909525
 20
101.0756231707045
 30
0.0
 10
201.5975100546701
 20
100.9832724624348
 30
0.0
 10
201.6847303723129
 20
100.9093251978151
 30
0.0
  0
LWPOLYLINE
  5
1AC
330
1F
100
AcDbEntity
  8
0
  6
HIDDEN
 62
     7
370
     0
100
AcDbPolyline
 90
       26
 70
   128
 43
0.0
 10
223.5012423756
 20
99.7219052992
 10
224.1229672494
 20
99.653886155
 10
224.7056268665
 20
99.4541016303
 10
225.2126109364
 20
99.135105022
 10
225.6120626393
 20
98.716941186
 10
225.8788846942
 20
98.2258836634
 10
225.9963095697
 20
97.6927871711
 10
225.956961191
 20
97.1511495195
 10
225.7633094254
 20
96.6350030981
 10
225.427526659
 20
96.1767784215
 10
224.9707054856
 20
95.8052691899
 10
224.4215548548
 20
95.5438171409
 10
223.8145765426
 20
95.4088508047
 10
223.1879100713
 20
95.4088508047
 10
222.5809317591
 20
95.5438171409
 10
222.0317792657
 20
95.8052691899
 10
221.5749599549
 20
96.1767784215
 10
221.2391753259
 20
96.6350030981
 10
221.045525423
 20
97.1511495195
 10
221.0061751815
 20
97.6927871711
 10
221.1236019197
 20
98.2258836634
 10
221.390422112
 20
98.716941186
 10
221.7898756775
 20
99.135105022
 10
222.2968578848
 20
99.4541016303
 10
222.8795175019
 20
99.653886155
 10
223.5012423756
 20
99.7219052992
  0
SPLINE
  5
1AD
330
1F
100
AcDbEntity
  8
0
  6
HIDDEN
 62
     7
370
     0
100
AcDbSpline
210
0.0
220
0.0
230
1.0
 70
     8
 71
     3
 72
    62
 73
    58
 74
     0
 42
0.00000001
 43
0.00000001
 12
1.0
 22
0.0
 32
0.0
 13
1.0
 23
0.0
 33
0.0
 40
-0.0312500000000003
 40
-0.0312500000000003
 40
0.0
 40
0.0
 40
0.0312499999999996
 40
0.0312499999999996
 40
0.0624999999999991
 40
0.0624999999999991
 40
0.0937499999999987
 40
0.0937499999999987
 40
0.1249999999999983
 40
0.1249999999999983
 40
0.1874999999999974
 40
0.1874999999999974
 40
0.2187499999999971
 40
0.2187499999999971
 40
0.2499999999999968
 40
0.2499999999999968
 40
0.2812499999999966
 40
0.2812499999999966
 40
0.3124999999999964
 40
0.3124999999999964
 40
0.374999999999996
 40
0.374999999999996
 40
0.4062499999999957
 40
0.4062499999999957
 40
0.4374999999999954
 40
0.4374999999999954
 40
0.4687499999999952
 40
0.4687499999999952
 40
0.499999999999995
 40
0.499999999999995
 40
0.5624999999999951
 40
0.5624999999999951
 40
0.5937499999999954
 40
0.5937499999999954
 40
0.6249999999999958
 40
0.6249999999999958
 40
0.6562499999999962
 40
0.6562499999999962
 40
0.6874999999999966
 40
0.6874999999999966
 40
0.7187499999999969
 40
0.7187499999999969
 40
0.7499999999999972
 40
0.7499999999999972
 40
0.7812499999999976
 40
0.7812499999999976
 40
0.8124999999999979
 40
0.8124999999999979
 40
0.8749999999999986
 40
0.8749999999999986
 40
0.906249999999999
 40
0.906249999999999
 40
0.9374999999999993
 40
0.9374999999999993
 40
0.9687499999999997
 40
0.9687499999999997
 40
1.0
 40
1.0
 40
1.03125
 40
1.03125
 10
223.3351988398248
 20
91.94502484189226
 30
0.0
 10
223.6672864776971
 20
91.94502484189226
 30
0.0
 10
223.8303832082741
 20
91.93323370122032
 30
0.0
 10
224.1509795131826
 20
91.8868650574846
 30
0.0
 10
224.3101817164891
 20
91.85168039478394
 30
0.0
 10
224.6124922182032
 20
91.75946854434619
 30
0.0
 10
224.7557437924476
 20
91.70278109222264
 30
0.0
 10
225.0268546335148
 20
91.56723330289583
 30
0.0
 10
225.1545366286436
 20
91.48802034907087
 30
0.0
 10
225.4985367168588
 20
91.22450103747099
 30
0.0
 10
225.6845383454431
 20
91.0069799578019
 30
0.0
 10
225.8720248586248
 20
90.64079745450988
 30
0.0
 10
225.9204968033769
 20
90.51013025589387
 30
0.0
 10
225.9850587827905
 20
90.23912711532401
 30
0.0
 10
226.0011372830105
 20
90.10042412037751
 30
0.0
 10
226.0013470119242
 20
89.8164595381596
 30
0.0
 10
225.9849154645133
 20
89.66988992920776
 30
0.0
 10
225.9207467743609
 20
89.38287474978655
 30
0.0
 10
225.8732778115695
 20
89.24112688641611
 30
0.0
 10
225.6841543276153
 20
88.8221358838854
 30
0.0
 10
225.5000144352491
 20
88.56162397706926
 30
0.0
 10
225.1532788514452
 20
88.22666756548008
 30
0.0
 10
225.0279618952935
 20
88.12611536935393
 30
0.0
 10
224.7579023924935
 20
87.94793330966543
 30
0.0
 10
224.6115290166124
 20
87.86984286459109
 30
0.0
 10
224.3101111135587
 20
87.74471350360719
 30
0.0
 10
224.1542589521198
 20
87.6967857381702
 30
0.0
 10
223.8319158908035
 20
87.6316161944031
 30
0.0
 10
223.6659644237339
 20
87.61496958821192
 30
0.0
 10
223.1750430561827
 20
87.61475500146322
 30
0.0
 10
222.84456006908
 20
87.68177897657532
 30
0.0
 10
222.3926505714815
 20
87.86901885533291
 30
0.0
 10
222.2463533541021
 20
87.94688714797866
 30
0.0
 10
221.9754697915458
 20
88.12537023684463
 30
0.0
 10
221.8501132693879
 20
88.22592289199541
 30
0.0
 10
221.6193356278987
 20
88.44859923524952
 30
0.0
 10
221.5145477478287
 20
88.57064875272528
 30
0.0
 10
221.3338841236466
 20
88.82530754734785
 30
0.0
 10
221.2566956264513
 20
88.95908608390762
 30
0.0
 10
221.12983222216
 20
89.23934825466895
 30
0.0
 10
221.0821708682277
 20
89.38153640598864
 30
0.0
 10
221.0179405011651
 20
89.66764412784028
 30
0.0
 10
221.001307287286
 20
89.81344877009182
 30
0.0
 10
221.0011784122746
 20
90.09897289174523
 30
0.0
 10
221.0172593914034
 20
90.23773247339828
 30
0.0
 10
221.0812268038718
 20
90.50761600660712
 30
0.0
 10
221.1297908541155
 20
90.63926491994403
 30
0.0
 10
221.317521696158
 20
91.0065956348496
 30
0.0
 10
221.5034675336537
 20
91.22399838835938
 30
0.0
 10
221.8472427557581
 20
91.4875463617219
 30
0.0
 10
221.9744180601256
 20
91.56655631816307
 30
0.0
 10
222.2460604694002
 20
91.70251079936197
 30
0.0
 10
222.3892196403474
 20
91.75915343914431
 30
0.0
 10
222.6903465828852
 20
91.8511619252665
 30
0.0
 10
222.8498628115767
 20
91.88657700148649
 30
0.0
 10
223.1717287038085
 20
91.93322980561221
 30
0.0
 10
223.3351988398248
 20
91.94502484189226
 30
0.0
 10
223.6672864776971
 20
91.94502484189226
 30
0.0
  0
SPLINE
  5
1AE
330
1F
100
AcDbEntity
  8
0
  6
HIDDEN
 62
     7
370
     0
100
AcDbSpline
210
0.0
220
0.0
230
1.0
 70
     8
 71
     3
 72
    66
 73
    62
 74
     0
 42
0.00000001
 43
0.00000001
 12
1.0
 22
0.0
 32
0.0
 13
1.0
 23
0.0
 33
0.0
 40
0.0
 40
0.0
 40
0.0
 40
0.0
 40
0.0625000000000004
 40
0.0625000000000004
 40
0.0937500000000004
 40
0.0937500000000004
 40
0.1250000000000003
 40
0.1250000000000003
 40
0.1562500000000002
 40
0.1562500000000002
 40
0.1875000000000002
 40
0.1875000000000002
 40
0.2187500000000001
 40
0.2187500000000001
 40
0.2500000000000001
 40
0.2500000000000001
 40
0.28125
 40
0.28125
 40
0.3124999999999999
 40
0.3124999999999999
 40
0.3437499999999999
 40
0.3437499999999999
 40
0.3749999999999998
 40
0.3749999999999998
 40
0.4062499999999997
 40
0.4062499999999997
 40
0.4374999999999997
 40
0.4374999999999997
 40
0.4687499999999996
 40
0.4687499999999996
 40
0.4999999999999996
 40
0.4999999999999996
 40
0.5312499999999996
 40
0.5312499999999996
 40
0.5624999999999996
 40
0.5624999999999996
 40
0.5937499999999996
 40
0.5937499999999996
 40
0.6249999999999996
 40
0.6249999999999996
 40
0.6562499999999996
 40
0.6562499999999996
 40
0.6874999999999997
 40
0.6874999999999997
 40
0.7187499999999998
 40
0.7187499999999998
 40
0.7499999999999998
 40
0.7499999999999998
 40
0.7812499999999999
 40
0.7812499999999999
 40
0.8125
 40
0.8125
 40
0.8750000000000001
 40
0.8750000000000001
 40
0.9062500000000001
 40
0.9062500000000001
 40
0.9375000000000001
 40
0.9375000000000001
 40
0.9687500000000001
 40
0.9687500000000001
 40
1.0
 40
1.0
 40
1.0
 40
1.0
 10
225.5538291295804
 20
95.53282748591332
 30
0.0
 10
225.7132244034721
 20
95.7874005885974
 30
0.0
 10
225.8235602735829
 20
96.06207398131123
 30
0.0
 10
225.9357947238932
 20
96.49502035115421
 30
0.0
 10
225.9634037941894
 20
96.64258177858581
 30
0.0
 10
225.9975349940946
 20
96.93602128926975
 30
0.0
 10
226.0043650926688
 20
97.08297113978591
 30
0.0
 10
225.9955119717504
 20
97.37707303622335
 30
0.0
 10
225.9794049707228
 20
97.52557778146098
 30
0.0
 10
225.9224352361239
 20
97.81006155552754
 30
0.0
 10
225.8817725498181
 20
97.94719528035318
 30
0.0
 10
225.7725782839268
 20
98.20915996032636
 30
0.0
 10
225.7060412913423
 20
98.32890477513511
 30
0.0
 10
225.5502928836207
 20
98.54364153177372
 30
0.0
 10
225.4594210193526
 20
98.63977214340346
 30
0.0
 10
225.2647523644966
 20
98.79703179439981
 30
0.0
 10
225.1598239081839
 20
98.85981804601926
 30
0.0
 10
224.9408108709591
 20
98.95391336413729
 30
0.0
 10
224.8291719886202
 20
98.98444059623746
 30
0.0
 10
224.6034566483507
 20
99.01766098707479
 30
0.0
 10
224.4898336542867
 20
99.01998411009302
 30
0.0
 10
224.2696992248248
 20
99.00098101048304
 30
0.0
 10
224.1620832244225
 20
98.97980378049417
 30
0.0
 10
223.9533167598937
 20
98.91738114483238
 30
0.0
 10
223.8520961196838
 20
98.87589722958347
 30
0.0
 10
223.6645782067077
 20
98.77776639466887
 30
0.0
 10
223.5774054465349
 20
98.72091899739036
 30
0.0
 10
223.4218646848311
 20
98.59394750088731
 30
0.0
 10
223.3530330413209
 20
98.52305763325228
 30
0.0
 10
223.2510075382425
 20
98.37585549159174
 30
0.0
 10
223.2173150909058
 20
98.29781218914549
 30
0.0
 10
223.2012288788056
 20
98.1476244974881
 30
0.0
 10
223.2186426570389
 20
98.07476478153397
 30
0.0
 10
223.2974594673824
 20
97.936829891414
 30
0.0
 10
223.3566875710509
 20
97.87284547459839
 30
0.0
 10
223.5011780600754
 20
97.74537058276152
 30
0.0
 10
223.5857427017553
 20
97.68259661945548
 30
0.0
 10
223.7676129197491
 20
97.55453830103674
 30
0.0
 10
223.8655878548799
 20
97.48887734211684
 30
0.0
 10
224.0722765043223
 20
97.34916957941356
 30
0.0
 10
224.1812231824991
 20
97.27499418910737
 30
0.0
 10
224.4008865478557
 20
97.11928909751533
 30
0.0
 10
224.5124792942312
 20
97.03724342185625
 30
0.0
 10
224.737800891018
 20
96.86131337129768
 30
0.0
 10
224.8529443519851
 20
96.76615833726524
 30
0.0
 10
225.0747433649154
 20
96.56792131178793
 30
0.0
 10
225.1818748482562
 20
96.46466383978058
 30
0.0
 10
225.3862687950613
 20
96.24736736951326
 30
0.0
 10
225.4803376076459
 20
96.13655576178841
 30
0.0
 10
225.6476984510013
 20
95.91363362114507
 30
0.0
 10
225.7222318592679
 20
95.79944220330738
 30
0.0
 10
225.9043707963376
 20
95.46809158338483
 30
0.0
 10
225.9741826243568
 20
95.25647629784935
 30
0.0
 10
226.0048443353484
 20
94.96903079711856
 30
0.0
 10
226.0029976857213
 20
94.8771106546077
 30
0.0
 10
225.977708029816
 20
94.704176454156
 30
0.0
 10
225.9544161930443
 20
94.62229023259731
 30
0.0
 10
225.8871525506475
 20
94.46388696733452
 30
0.0
 10
225.8428149102675
 20
94.38702014039133
 30
0.0
 10
225.733822923205
 20
94.23750031017072
 30
0.0
 10
225.6692235906372
 20
94.16457548969206
 30
0.0
 10
225.5921922944291
 20
94.08974521938163
 30
0.0
  0
SPLINE
  5
1AF
330
1F
100
AcDbEntity
  8
0
  6
HIDDEN
 62
     7
370
     0
100
AcDbSpline
210
0.0
220
0.0
230
1.0
 70
     8
 71
     3
 72
    12
 73
     8
 74
     0
 42
0.00000001
 43
0.00000001
 12
1.0
 22
0.0
 32
0.0
 13
1.0
 23
0.0
 33
0.0
 40
0.0
 40
0.0
 40
0.0
 40
0.0
 40
0.5
 40
0.5
 40
0.75
 40
0.75
 40
1.0
 40
1.0
 40
1.0
 40
1.0
 10
225.5921922944288
 20
94.08974521938144
 30
0.0
 10
225.4993059712892
 20
94.20778705488243
 30
0.0
 10
225.4208195558566
 20
94.37561069950544
 30
0.0
 10
225.4086433601061
 20
94.74578484264893
 30
0.0
 10
225.4222489392118
 20
94.88778681598734
 30
0.0
 10
225.4741168133077
 20
95.19358620756553
 30
0.0
 10
225.511747741008
 20
95.35853526607393
 30
0.0
 10
225.5538291295807
 20
95.53282748591315
 30
0.0
  0
LWPOLYLINE
  5
1B0
330
1F
100
AcDbEntity
  8
0
  6
HIDDEN
 62
     7
370
     0
100
AcDbPolyline
 90
        9
 70
   128
 43
0.0
 10
225.5538289013
 20
95.5328275345
 10
225.6916627797
 20
95.2256969072
 10
225.7942479613
 20
94.9426223419
 10
225.8589674297
 20
94.6908336959
 10
225.8841652932
 20
94.4767589576
 10
225.8692008021
 20
94.3058640591
 10
225.8144557985
 20
94.1825131781
 10
225.7213272664
 20
94.1098551161
 10
225.5921919408
 20
94.0897450678
  0
CIRCLE
  5
1B1
330
1F
100
AcDbEntity
  8
0
  6
HIDDEN
 62
     7
370
     0
100
AcDbCircle
 10
187.0012426588
 20
85.457057216
 30
0.0
 40
4.049999999999997
  0
LINE
  5
1B2
330
1F
100
AcDbEntity
  8
0
  6
HIDDEN
 62
     7
370
     0
100
AcDbLine
 10
166.0314702007
 20
70.1441061578
 30
0.0
 11
166.0314702007
 21
100.7700082741
 31
0.0
  0
LINE
  5
1B3
330
1F
100
AcDbEntity
  8
0
  6
HIDDEN
 62
     7
370
     0
100
AcDbLine
 10
172.5314703348
 20
71.1106466956
 30
0.0
 11
172.5314703348
 21
99.8034677364
 31
0.0
  0
LINE
  5
1B4
330
1F
100
AcDbEntity
  8
0
  6
HIDDEN
 62
     7
370
     0
100
AcDbLine
 10
178.331471658
 20
71.4570567838
 30
0.0
 11
178.331471658
 21
99.4570576481
 31
0.0
  0
LINE
  5
1B5
330
1F
100
AcDbEntity
  8
0
  6
HIDDEN
 62
     7
370
     0
100
AcDbLine
 10
170.9314711901
 20
71.4570567838
 30
0.0
 11
170.9314711901
 21
99.4570576481
 31
0.0
  0
LINE
  5
1B6
330
1F
100
AcDbEntity
  8
0
  6
HIDDEN
 62
     7
370
     0
100
AcDbLine
 10
171.931471354
 20
71.4570567838
 30
0.0
 11
171.931471354
 21
99.4570576481
 31
0.0
  0
LINE
  5
1B7
330
1F
100
AcDbEntity
  8
0
  6
HIDDEN
 62
     7
370
     0
100
AcDbLine
 10
191.5012427184
 20
71.9570568658
 30
0.0
 11
191.5012427184
 21
98.9570575662
 31
0.0
  0
LINE
  5
1B8
330
1F
100
AcDbEntity
  8
0
  6
HIDDEN
 62
     7
370
     0
100
AcDbLine
 10
191.0012426364
 20
86.0914860864
 30
0.0
 11
190.7917751509
 21
86.7150082381
 31
0.0
  0
LINE
  5
1B9
330
1F
100
AcDbEntity
  8
0
  6
HIDDEN
 62
     7
370
     0
100
AcDbLine
 10
187.125242925
 20
89.4829011418
 30
0.0
 11
186.2653267148
 21
89.4004329934
 31
0.0
  0
LINE
  5
1BA
330
1F
100
AcDbEntity
  8
0
  6
HIDDEN
 62
     7
370
     0
100
AcDbLine
 10
190.8502882856
 20
84.358434648
 30
0.0
 11
191.0012426364
 21
84.8226283456
 31
0.0
  0
LINE
  5
1BB
330
1F
100
AcDbEntity
  8
0
  6
HIDDEN
 62
     7
370
     0
100
AcDbLine
 10
254.1683480653
 20
122.9025167308
 30
0.0
 11
260.5142385277
 21
126.483038523
 31
0.0
  0
LINE
  5
1BC
330
1F
100
AcDbEntity
  8
0
  6
HIDDEN
 62
     7
370
     0
100
AcDbLine
 10
260.5140895161
 20
126.5147183917
 30
0.0
 11
260.5142385277
 21
126.483038523
 31
0.0
  0
LINE
  5
1BD
330
1F
100
AcDbEntity
  8
0
  6
HIDDEN
 62
     7
370
     0
100
AcDbLine
 10
192.7512424576
 20
76.4570576034
 30
0.0
 11
192.7512424576
 21
94.4570568286
 31
0.0
  0
LINE
  5
1BE
330
1F
100
AcDbEntity
  8
0
  6
HIDDEN
 62
     7
370
     0
100
AcDbLine
 10
229.5012433591
 20
76.4570576034
 30
0.0
 11
229.5012433591
 21
94.4570568286
 31
0.0
  0
SPLINE
  5
1BF
330
1F
100
AcDbEntity
  8
0
  6
HIDDEN
 62
     7
370
     0
100
AcDbSpline
210
0.0
220
0.0
230
1.0
 70
     8
 71
     3
 72
    10
 73
     6
 74
     0
 42
0.00000001
 43
0.00000001
 12
1.0
 22
0.0
 32
0.0
 13
1.0
 23
0.0
 33
0.0
 40
0.0
 40
0.0
 40
0.0
 40
0.0
 40
0.5
 40
0.5
 40
1.0
 40
1.0
 40
1.0
 40
1.0
 10
240.5999410745662
 20
85.45705721598357
 30
0.0
 10
240.5999410745662
 20
86.11315111115474
 30
0.0
 10
240.6124364299116
 20
86.76920081056304
 30
0.0
 10
240.651849936109
 20
88.08124919630855
 30
0.0
 10
240.6783812101464
 20
88.7372492510195
 30
0.0
 10
240.6998414970708
 20
89.39326724168647
 30
0.0
  0
LINE
  5
1C0
330
1F
100
AcDbEntity
  8
0
  6
HIDDEN
 62
     7
370
     0
100
AcDbLine
 10
240.599939278
 20
58.8331022195
 30
0.0
 11
240.599939278
 21
85.457057216
 31
0.0
  0
SPLINE
  5
1C1
330
1F
100
AcDbEntity
  8
0
  6
HIDDEN
 62
     7
370
     0
100
AcDbSpline
210
0.0
220
0.0
230
1.0
 70
     8
 71
     3
 72
    11
 73
     7
 74
     0
 42
0.00000001
 43
0.00000001
 12
1.0
 22
0.0
 32
0.0
 13
1.0
 23
0.0
 33
0.0
 40
0.0
 40
0.0
 40
0.0
 40
0.0
 40
0.2110882040355576
 40
0.4733582561500784
 40
0.7366766458735826
 40
1.0
 40
1.0
 40
1.0
 40
1.0
 10
243.1738317522075
 20
126.8864837370464
 30
0.0
 10
243.1173239259424
 20
126.6583289537734
 30
0.0
 10
242.9906070105093
 20
126.1466994629838
 30
0.0
 10
242.979960476177
 20
125.349602119604
 30
0.0
 10
243.1019234195384
 20
124.4962779233475
 30
0.0
 10
243.3125202383174
 20
123.9277035218558
 30
0.0
 10
243.4178196403052
 20
123.6434136412689
 30
0.0
  0
SPLINE
  5
1C2
330
1F
100
AcDbEntity
  8
0
  6
HIDDEN
 62
     7
370
     0
100
AcDbSpline
210
0.0
220
0.0
230
1.0
 70
     8
 71
     3
 72
     8
 73
     4
 74
     0
 42
0.00000001
 43
0.00000001
 12
1.0
 22
0.0
 32
0.0
 13
1.0
 23
0.0
 33
0.0
 40
0.0
 40
0.0
 40
0.0
 40
0.0
 40
1.0
 40
1.0
 40
1.0
 40
1.0
 10
240.6998414970708
 20
89.39326724168647
 30
0.0
 10
240.7878984309576
 20
92.08507341538477
 30
0.0
 10
240.9657326185947
 20
94.77277374205634
 30
0.0
 10
241.2182787119257
 20
97.45705721598357
 30
0.0
  0
SPLINE
  5
1C3
330
1F
100
AcDbEntity
  8
0
  6
HIDDEN
 62
     7
370
     0
100
AcDbSpline
210
0.0
220
0.0
230
1.0
 70
     8
 71
     3
 72
    22
 73
    18
 74
     0
 42
0.00000001
 43
0.00000001
 12
1.0
 22
0.0
 32
0.0
 13
1.0
 23
0.0
 33
0.0
 40
0.0
 40
0.0
 40
0.0
 40
0.0
 40
0.2499999999999993
 40
0.2499999999999993
 40
0.3124999999999992
 40
0.3124999999999992
 40
0.374999999999999
 40
0.374999999999999
 40
0.499999999999999
 40
0.499999999999999
 40
0.6249999999999993
 40
0.6249999999999993
 40
0.6874999999999996
 40
0.6874999999999996
 40
0.7499999999999999
 40
0.7499999999999999
 40
1.0
 40
1.0
 40
1.0
 40
1.0
 10
241.2182787119257
 20
97.45705721598357
 30
0.0
 10
241.4607150703708
 20
100.0338854767972
 30
0.0
 10
241.6888148086637
 20
102.5595722667688
 30
0.0
 10
241.9596753704353
 20
105.6545701242214
 30
0.0
 10
242.0131251036119
 20
106.2704219720645
 30
0.0
 10
242.1186375667581
 20
107.4957048462269
 30
0.0
 10
242.1708736386206
 20
108.1071918721858
 30
0.0
 10
242.3239659619624
 20
109.9127286329125
 30
0.0
 10
242.4213050161831
 20
111.0787692830813
 30
0.0
 10
242.6074871642721
 20
113.3377670983454
 30
0.0
 10
242.6963274673761
 20
114.4307196829171
 30
0.0
 10
242.8236199278874
 20
116.0146108366667
 30
0.0
 10
242.8650532029717
 20
116.5332941329458
 30
0.0
 10
242.9459588910779
 20
117.5516720274795
 30
0.0
 10
242.9854006889419
 20
118.051002764975
 30
0.0
 10
243.1752128538123
 20
120.466176022207
 30
0.0
 10
243.3059748600983
 20
122.1690858907847
 30
0.0
 10
243.4178200863154
 20
123.643413665055
 30
0.0
  0
LINE
  5
1C4
330
1F
100
AcDbEntity
  8
0
  6
HIDDEN
 62
     7
370
     0
100
AcDbLine
 10
266.8943830344
 20
113.2659525506
 30
0.0
 11
267.0684583994
 21
114.4203175686
 31
0.0
  0
ARC
  5
1C5
330
1F
100
AcDbEntity
  8
0
  6
HIDDEN
 62
     7
370
     0
100
AcDbCircle
 10
253.7214568142
 20
119.0517086018
 30
0.0
 40
2.242513109560815
100
AcDbArc
 50
156.7931431515
 51
300.0431407091
  0
LINE
  5
1C6
330
1F
100
AcDbEntity
  8
0
  6
HIDDEN
 62
     7
370
     0
100
AcDbLine
 10
257.5377837333
 20
118.6302867613
 30
0.0
 11
257.7118628236
 21
119.7846499167
 31
0.0
  0
LINE
  5
1C7
330
1F
100
AcDbEntity
  8
0
  6
HIDDEN
 62
     7
370
     0
100
AcDbLine
 10
260.3401594373
 20
125.3286753676
 30
0.0
 11
253.8755141708
 21
121.6811467789
 31
0.0
  0
LINE
  5
1C8
330
1F
100
AcDbEntity
  8
0
  6
HIDDEN
 62
     7
370
     0
100
AcDbLine
 10
260.5142385277
 20
126.483038523
 30
0.0
 11
260.3401594373
 21
125.3286753676
 31
0.0
  0
LINE
  5
1C9
330
1F
100
AcDbEntity
  8
0
  6
HIDDEN
 62
     7
370
     0
100
AcDbLine
 10
260.3378609332
 20
125.8194339357
 30
0.0
 11
260.5119400236
 21
126.9737970911
 31
0.0
  0
LINE
  5
1CA
330
1F
100
AcDbEntity
  8
0
  6
HIDDEN
 62
     7
370
     0
100
AcDbLine
 10
264.6986373278
 20
114.5248175494
 30
0.0
 11
266.8884821745
 21
114.5248175494
 31
0.0
  0
LWPOLYLINE
  5
1CB
330
1F
100
AcDbEntity
  8
0
  6
HIDDEN
 62
     7
370
     0
100
AcDbPolyline
 90
       21
 70
   128
 43
0.0
 10
263.3691892537
 20
118.9069826983
 10
263.3524403485
 20
119.142406144
 10
263.334685615
 20
119.2207825265
 10
263.3169420573
 20
119.1375856183
 10
263.3002415809
 20
118.8976173184
 10
263.2855415854
 20
118.514724531
 10
263.2736951622
 20
118.0110019527
 10
263.2653840395
 20
117.4155180238
 10
263.2610850545
 20
116.7626348219
 10
263.2610478016
 20
116.090026208
 10
263.2652760061
 20
115.4365041189
 10
263.2735275241
 20
114.8397815309
 10
263.2853217932
 20
114.3342894397
 10
263.2999808105
 20
113.9492005936
 10
263.3166552099
 20
113.706732624
 10
263.3343875917
 20
113.6208814464
 10
263.3521535012
 20
113.6965961091
 10
263.3689247581
 20
113.9295124344
 10
263.3837365123
 20
114.3061858497
 10
263.3957319471
 20
114.8048830114
 10
263.4042218837
 20
115.3968260519
  0
LINE
  5
1CC
330
1F
100
AcDbEntity
  8
0
  6
HIDDEN
 62
     7
370
     0
100
AcDbLine
 10
266.8679483744
 20
118.9069826983
 30
0.0
 11
263.3691892537
 21
118.9069826983
 31
0.0
  0
ELLIPSE
  5
1CD
330
1F
100
AcDbEntity
  8
0
  6
HIDDEN
 62
     7
370
     0
100
AcDbEllipse
 10
260.8323998799
 20
116.4207999098
 30
0.0
 11
4.804794336815916
 21
-2.7717672776444
 31
0.0
210
0.0
220
0.0
230
1.0
 40
0.0825463852
 41
0.6848049522119525
 42
1.054278715514811
  0
LWPOLYLINE
  5
1CE
330
1F
100
AcDbEntity
  8
0
  6
HIDDEN
 62
     7
370
     0
100
AcDbPolyline
 90
       20
 70
   128
 43
0.0
 10
266.8679483744
 20
118.9069826983
 10
266.8516912076
 20
119.1378873668
 10
266.8344580146
 20
119.2206633173
 10
266.8171801182
 20
119.1507880471
 10
266.8008037421
 20
118.932079979
 10
266.7862155053
 20
118.5764563165
 10
266.7742275211
 20
118.103310921
 10
266.7654805395
 20
117.5384339772
 10
266.7604513976
 20
116.9126261852
 10
266.7594157669
 20
116.2600037537
 10
266.762433252
 20
115.6161469303
 10
266.7693324896
 20
115.016160988
 10
266.7797484013
 20
114.4927539758
 10
266.7930998417
 20
114.0744616173
 10
266.8086715552
 20
113.7840901397
 10
266.8256067249
 20
113.6374701641
 10
266.8429814788
 20
113.6425943009
 10
266.8598570439
 20
113.799185016
 10
266.8753020975
 20
114.0987020813
 10
266.8884821745
 20
114.5248175494
  0
LINE
  5
1CF
330
1F
100
AcDbEntity
  8
0
  6
HIDDEN
 62
     7
370
     0
100
AcDbLine
 10
263.4042218837
 20
115.3968260519
 30
0.0
 11
263.3861952039
 21
115.2772703103
 31
0.0
  0
LINE
  5
1D0
330
1F
100
AcDbEntity
  8
0
  6
HIDDEN
 62
     7
370
     0
100
AcDbLine
 10
264.6986373278
 20
114.5248175494
 30
0.0
 11
266.8943830344
 21
113.2659525506
 31
0.0
  0
LINE
  5
1D1
330
1F
100
AcDbEntity
  8
0
  6
HIDDEN
 62
     7
370
     0
100
AcDbLine
 10
266.8884821745
 20
114.5248175494
 30
0.0
 11
266.8943830344
 21
113.2659525506
 31
0.0
  0
LINE
  5
1D2
330
1F
100
AcDbEntity
  8
0
  6
HIDDEN
 62
     7
370
     0
100
AcDbLine
 10
266.8380119416
 20
125.2974797867
 30
0.0
 11
266.3358726117
 21
125.7921610854
 31
0.0
  0
CIRCLE
  5
1D3
330
1F
100
AcDbEntity
  8
0
  6
HIDDEN
 62
     7
370
     0
100
AcDbCircle
 10
262.3628045307
 20
121.1823890588
 30
0.0
 40
1.284897465587048
  0
LINE
  5
1D4
330
1F
100
AcDbEntity
  8
0
  6
HIDDEN
 62
     7
370
     0
100
AcDbLine
 10
263.3861952039
 20
115.2772703103
 30
0.0
 11
263.3691892537
 21
118.9069826983
 31
0.0
  0
LINE
  5
1D5
330
1F
100
AcDbEntity
  8
0
  6
HIDDEN
 62
     7
370
     0
100
AcDbLine
 10
260.3378609332
 20
125.8194339357
 30
0.0
 11
260.3401594373
 21
125.3286753676
 31
0.0
  0
LINE
  5
1D6
330
1F
100
AcDbEntity
  8
0
  6
HIDDEN
 62
     7
370
     0
100
AcDbLine
 10
260.3378609332
 20
125.8194339357
 30
0.0
 11
266.3358726117
 21
125.7921610854
 31
0.0
  0
LINE
  5
1D7
330
1F
100
AcDbEntity
  8
0
  6
HIDDEN
 62
     7
370
     0
100
AcDbLine
 10
254.8441753301
 20
117.1104800783
 30
0.0
 11
257.5377837333
 21
118.6302867613
 31
0.0
  0
LINE
  5
1D8
330
1F
100
AcDbEntity
  8
0
  6
HIDDEN
 62
     7
370
     0
100
AcDbLine
 10
257.5377837333
 20
118.6302867613
 30
0.0
 11
263.3861952039
 21
115.2772703103
 31
0.0
  0
LINE
  5
1D9
330
1F
100
AcDbEntity
  8
0
  6
HIDDEN
 62
     7
370
     0
100
AcDbLine
 10
266.8380119416
 20
125.2974797867
 30
0.0
 11
266.8679483744
 21
118.9069826983
 31
0.0
  0
LWPOLYLINE
  5
1DA
330
1F
100
AcDbEntity
  8
0
  6
HIDDEN
 62
     7
370
     0
100
AcDbPolyline
 90
       19
 70
   128
 43
0.0
 10
255.3720415148
 20
116.4208003215
 10
255.369977704
 20
115.9799196653
 10
255.3640284153
 20
115.5922138027
 10
255.35491263
 20
115.3044500284
 10
255.3437293085
 20
115.1513331465
 10
255.3318307313
 20
115.1513331465
 10
255.3206474098
 20
115.3044500284
 10
255.3115316245
 20
115.5922138027
 10
255.3055823359
 20
115.9799196653
 10
255.3035147997
 20
116.4208003215
 10
255.3055823359
 20
116.8616791151
 10
255.3115316245
 20
117.2493849776
 10
255.3206474098
 20
117.537148752
 10
255.3318307313
 20
117.6902656339
 10
255.3437293085
 20
117.6902656339
 10
255.35491263
 20
117.537148752
 10
255.3640284153
 20
117.2493849776
 10
255.369977704
 20
116.8616791151
 10
255.3720415148
 20
116.4208003215
  0
LWPOLYLINE
  5
1DB
330
1F
100
AcDbEntity
  8
0
  6
HIDDEN
 62
     7
370
     0
100
AcDbPolyline
 90
       19
 70
   128
 43
0.0
 10
263.3692153307
 20
116.4208003215
 10
263.3671515199
 20
115.9799196653
 10
263.3612022313
 20
115.5922138027
 10
263.352086446
 20
115.3044500284
 10
263.3409031245
 20
115.1513331465
 10
263.3290045473
 20
115.1513331465
 10
263.3178212258
 20
115.3044500284
 10
263.3087054404
 20
115.5922138027
 10
263.3027561518
 20
115.9799196653
 10
263.3006886157
 20
116.4208003215
 10
263.3027561518
 20
116.8616791151
 10
263.3087054404
 20
117.2493849776
 10
263.3178212258
 20
117.537148752
 10
263.3290045473
 20
117.6902656339
 10
263.3409031245
 20
117.6902656339
 10
263.352086446
 20
117.537148752
 10
263.3612022313
 20
117.2493849776
 10
263.3671515199
 20
116.8616791151
 10
263.3692153307
 20
116.4208003215
  0
CIRCLE
  5
1DC
330
1F
100
AcDbEntity
  8
0
  6
HIDDEN
 62
     7
370
     0
100
AcDbCircle
 10
262.1402898643
 20
119.7068853978
 30
0.0
 40
1.284895596422877
  0
SPLINE
  5
1DD
330
1F
100
AcDbEntity
  8
0
  6
HIDDEN
 62
     7
370
     0
100
AcDbSpline
210
0.0
220
0.0
230
1.0
 70
     8
 71
     3
 72
    16
 73
    12
 74
     0
 42
0.00000001
 43
0.00000001
 12
1.0
 22
0.0
 32
0.0
 13
1.0
 23
0.0
 33
0.0
 40
0.0
 40
0.0
 40
0.0
 40
0.0
 40
0.2500000000000005
 40
0.2500000000000005
 40
0.3750000000000004
 40
0.3750000000000004
 40
0.5000000000000003
 40
0.5000000000000003
 40
0.7500000000000001
 40
0.7500000000000001
 40
1.0
 40
1.0
 40
1.0
 40
1.0
 10
201.1799223152011
 20
68.8731505897425
 30
0.0
 10
201.0186898377166
 20
68.15875642755039
 30
0.0
 10
200.898209998077
 20
67.5054141648417
 30
0.0
 10
200.7758294807637
 20
66.61715892303782
 30
0.0
 10
200.7448518203662
 20
66.33647838668598
 30
0.0
 10
200.7032380827383
 20
65.80744439684601
 30
0.0
 10
200.6930021698055
 20
65.56412341826754
 30
0.0
 10
200.6928137727493
 20
64.89610072775433
 30
0.0
 10
200.732958475387
 20
64.53241981833486
 30
0.0
 10
200.8971122303265
 20
63.97252894578655
 30
0.0
 10
201.0186638807361
 20
63.7850076536694
 30
0.0
 10
201.1799223152011
 20
63.68697626098145
 30
0.0
  0
SPLINE
  5
1DE
330
1F
100
AcDbEntity
  8
0
  6
HIDDEN
 62
     7
370
     0
100
AcDbSpline
210
0.0
220
0.0
230
1.0
 70
     8
 71
     3
 72
    16
 73
    12
 74
     0
 42
0.00000001
 43
0.00000001
 12
1.0
 22
0.0
 32
0.0
 13
1.0
 23
0.0
 33
0.0
 40
0.0
 40
0.0
 40
0.0
 40
0.0
 40
0.2500000000000002
 40
0.2500000000000002
 40
0.3750000000000003
 40
0.3750000000000003
 40
0.5000000000000004
 40
0.5000000000000004
 40
0.7500000000000002
 40
0.7500000000000002
 40
1.0
 40
1.0
 40
1.0
 40
1.0
 10
201.1799223152011
 20
107.2271381709857
 30
0.0
 10
201.0186898377166
 20
107.129122557931
 30
0.0
 10
200.898209998077
 20
106.9423865262549
 30
0.0
 10
200.7758294807637
 20
106.529346718696
 30
0.0
 10
200.7448518203662
 20
106.3693462194631
 30
0.0
 10
200.7032380827383
 20
106.0025405683719
 30
0.0
 10
200.6930021698055
 20
105.7992034157479
 30
0.0
 10
200.6928137727493
 20
105.1319161491213
 30
0.0
 10
200.732958475387
 20
104.6111016852332
 30
0.0
 10
200.8971122303265
 20
103.4137426697555
 30
0.0
 10
201.0186638807361
 20
102.7554730154595
 30
0.0
 10
201.1799223152011
 20
102.0409638422246
 30
0.0
  0
LINE
  5
1DF
330
1F
100
AcDbEntity
  8
0
  6
HIDDEN
 62
     7
370
     0
100
AcDbLine
 10
266.3358726117
 20
125.7921610854
 30
0.0
 11
266.0118468615
 21
123.6434136413
 31
0.0
  0
LINE
  5
1E0
330
1F
100
AcDbEntity
  8
0
  6
HIDDEN
 62
     7
370
     0
100
AcDbLine
 10
266.4876036855
 20
122.9737889848
 30
0.0
 11
266.8380119416
 21
125.2974797867
 31
0.0
  0
LINE
  5
1E1
330
1F
100
AcDbEntity
  8
0
  6
HIDDEN
 62
     7
370
     0
100
AcDbLine
 10
202.3012426638
 20
92.4789444439
 30
0.0
 11
202.3012426638
 21
78.4351699881
 31
0.0
  0
ELLIPSE
  5
1E2
330
1F
100
AcDbEntity
  8
0
  6
HIDDEN
 62
     7
370
     0
100
AcDbEllipse
 10
295.4934452533
 20
97.457057216
 30
0.0
 11
32.01005447606053
 21
-31.8374698567907
 31
0.0
210
0.0
220
0.0
230
1.0
 40
0.1006278929
 41
3.653070410162889
 42
3.688587958812731
  0
LINE
  5
1E3
330
1F
100
AcDbEntity
  8
0
  6
HIDDEN
 62
     7
370
     0
100
AcDbLine
 10
243.4178196403
 20
123.6434136413
 30
0.0
 11
266.0118468615
 21
123.6434136413
 31
0.0
  0
ELLIPSE
  5
1E4
330
1F
100
AcDbEntity
  8
0
  6
HIDDEN
 62
     7
370
     0
100
AcDbEllipse
 10
267.0010659345
 20
97.457057216
 30
0.0
 11
0.0
 21
32.00000000000001
 31
0.0
210
0.0
220
0.0
230
1.0
 40
0.0265898816
 41
0.6478255813803364
 42
1.570796326794896
  0
SPLINE
  5
1E5
330
1F
100
AcDbEntity
  8
0
  6
HIDDEN
 62
     7
370
     0
100
AcDbSpline
210
0.0
220
0.0
230
1.0
 70
     8
 71
     3
 72
    24
 73
    20
 74
     0
 42
0.00000001
 43
0.00000001
 12
1.0
 22
0.0
 32
0.0
 13
1.0
 23
0.0
 33
0.0
 40
0.0
 40
0.0
 40
0.0
 40
0.0
 40
0.125
 40
0.125
 40
0.25
 40
0.25
 40
0.375
 40
0.375
 40
0.4375
 40
0.4375
 40
0.5
 40
0.5
 40
0.625
 40
0.625
 40
0.75
 40
0.75
 40
0.875
 40
0.875
 40
1.0
 40
1.0
 40
1.0
 40
1.0
 10
170.9512426587607
 20
81.37109616288433
 30
0.0
 10
171.1890462910359
 20
81.67010326521445
 30
0.0
 10
171.4191319522471
 20
81.97444111653319
 30
0.0
 10
171.8538853508569
 20
82.60017465392917
 30
0.0
 10
172.0588181431431
 20
82.92139938125669
 30
0.0
 10
172.4239200936418
 20
83.59332515198942
 30
0.0
 10
172.5857204794333
 20
83.94864038386831
 30
0.0
 10
172.757580684013
 20
84.49887160522076
 30
0.0
 10
172.8031658756732
 20
84.68527539020123
 30
0.0
 10
172.865640615248
 20
85.06540989229748
 30
0.0
 10
172.8823117609965
 20
85.26107968458336
 30
0.0
 10
172.882832804173
 20
85.83956006325778
 30
0.0
 10
172.8183905032863
 20
86.21747190222658
 30
0.0
 10
172.5885414099129
 20
86.95943992732501
 30
0.0
 10
172.4300207322498
 20
87.30815538748595
 30
0.0
 10
172.0657864023497
 20
87.98124778521911
 30
0.0
 10
171.8590501622861
 20
88.30620027246076
 30
0.0
 10
171.4211122165457
 20
88.93712408292254
 30
0.0
 10
171.1898394892662
 20
89.24301382326317
 30
0.0
 10
170.9512426587608
 20
89.54301826908268
 30
0.0
  0
LINE
  5
1E6
330
1F
100
AcDbEntity
  8
0
  6
HIDDEN
 62
     7
370
     0
100
AcDbLine
 10
170.9512413057
 20
81.3710959524
 30
0.0
 11
170.9512413057
 21
89.5430184796
 31
0.0
  0
SPLINE
  5
1E7
330
1F
100
AcDbEntity
  8
0
  6
HIDDEN
 62
     7
370
     0
100
AcDbSpline
210
0.0
220
0.0
230
1.0
 70
     8
 71
     3
 72
     8
 73
     4
 74
     0
 42
0.00000001
 43
0.00000001
 12
1.0
 22
0.0
 32
0.0
 13
1.0
 23
0.0
 33
0.0
 40
0.0000249638557296
 40
0.0000249638557296
 40
0.0000249638557296
 40
0.0000249638557296
 40
0.0049776420541172
 40
0.0049776420541172
 40
0.0049776420541172
 40
0.0049776420541172
 10
166.0012426587608
 20
81.49184631914703
 30
0.0
 10
167.6512188932703
 20
81.45056708137882
 30
0.0
 10
169.3012202130153
 20
81.41034540013933
 30
0.0
 10
170.9512426587607
 20
81.37109616288433
 30
0.0
  0
SPLINE
  5
1E8
330
1F
100
AcDbEntity
  8
0
  6
HIDDEN
 62
     7
370
     0
100
AcDbSpline
210
0.0
220
0.0
230
1.0
 70
     8
 71
     3
 72
     8
 73
     4
 74
     0
 42
0.00000001
 43
0.00000001
 12
1.0
 22
0.0
 32
0.0
 13
1.0
 23
0.0
 33
0.0
 40
0.0000249631533153
 40
0.0000249631533153
 40
0.0000249631533153
 40
0.0000249631533153
 40
0.0049776413517029
 40
0.0049776413517029
 40
0.0049776413517029
 40
0.0049776413517029
 10
170.9512426587607
 20
89.5430182690828
 30
0.0
 10
169.3012202130153
 20
89.50376903182779
 30
0.0
 10
167.6512188932703
 20
89.4635473505883
 30
0.0
 10
166.0012426587607
 20
89.42226811282009
 30
0.0
  0
SPLINE
  5
1E9
330
1F
100
AcDbEntity
  8
0
  6
HIDDEN
 62
     7
370
     0
100
AcDbSpline
210
0.0
220
0.0
230
1.0
 70
     8
 71
     3
 72
     8
 73
     4
 74
     0
 42
0.00000001
 43
0.00000001
 12
1.0
 22
0.0
 32
0.0
 13
1.0
 23
0.0
 33
0.0
 40
0.0
 40
0.0
 40
0.0
 40
0.0
 40
1.0
 40
1.0
 40
1.0
 40
1.0
 10
164.5012426587585
 20
82.55506988300321
 30
0.0
 10
164.9680032701363
 20
82.13970663738019
 30
0.0
 10
165.4737508169164
 20
81.79511620807558
 30
0.0
 10
166.0012426587608
 20
81.49184631914702
 30
0.0
  0
SPLINE
  5
1EA
330
1F
100
AcDbEntity
  8
0
  6
HIDDEN
 62
     7
370
     0
100
AcDbSpline
210
0.0
220
0.0
230
1.0
 70
     8
 71
     3
 72
     8
 73
     4
 74
     0
 42
0.00000001
 43
0.00000001
 12
1.0
 22
0.0
 32
0.0
 13
1.0
 23
0.0
 33
0.0
 40
0.0
 40
0.0
 40
0.0
 40
0.0
 40
1.0
 40
1.0
 40
1.0
 40
1.0
 10
166.0012426587608
 20
89.4222681128201
 30
0.0
 10
165.4737508169172
 20
89.118998223892
 30
0.0
 10
164.968003270138
 20
88.77440779458803
 30
0.0
 10
164.5012426587608
 20
88.3590445489659
 30
0.0
  0
SPLINE
  5
1EB
330
1F
100
AcDbEntity
  8
0
  6
HIDDEN
 62
     7
370
     0
100
AcDbSpline
210
0.0
220
0.0
230
1.0
 70
     8
 71
     3
 72
     9
 73
     5
 74
     0
 42
0.00000001
 43
0.00000001
 12
1.0
 22
0.0
 32
0.0
 13
1.0
 23
0.0
 33
0.0
 40
0.0
 40
0.0
 40
0.0
 40
0.0
 40
0.8225168871897831
 40
1.0
 40
1.0
 40
1.0
 40
1.0
 10
183.8124037298228
 20
88.10306874919921
 30
0.0
 10
184.1024552457116
 20
88.40559149499063
 30
0.0
 10
184.4550942254166
 20
88.7733927529381
 30
0.0
 10
184.9231242132816
 20
88.9469790048712
 30
0.0
 10
185.0061916324164
 20
88.97778763320535
 30
0.0
  0
SPLINE
  5
1EC
330
1F
100
AcDbEntity
  8
0
  6
HIDDEN
 62
     7
370
     0
100
AcDbSpline
210
0.0
220
0.0
230
1.0
 70
     8
 71
     3
 72
    17
 73
    13
 74
     0
 42
0.00000001
 43
0.00000001
 12
1.0
 22
0.0
 32
0.0
 13
1.0
 23
0.0
 33
0.0
 40
0.0
 40
0.0
 40
0.0
 40
0.0
 40
0.0207454896333732
 40
0.1433563655426323
 40
0.2656473094020145
 40
0.3832837169072165
 40
0.4926771654167745
 40
0.5951587173733993
 40
0.6963638949184273
 40
0.8019760401492655
 40
0.9149479053089112
 40
1.0
 40
1.0
 40
1.0
 40
1.0
 10
187.3271769421961
 20
89.48566018488496
 30
0.0
 10
187.4135535448467
 20
89.49255536261357
 30
0.0
 10
188.0104368212962
 20
89.54020271326239
 30
0.0
 10
189.0971687168252
 20
89.14068166908149
 30
0.0
 10
190.3538739577079
 20
88.29314231246724
 30
0.0
 10
191.1936331673361
 20
87.05997465239871
 30
0.0
 10
191.5229001005741
 20
85.69798912027998
 30
0.0
 10
191.3687843383277
 20
84.37655722234406
 30
0.0
 10
190.8012631925592
 20
83.19411776679013
 30
0.0
 10
189.8622192361906
 20
82.23406329696647
 30
0.0
 10
188.734491927962
 20
81.59037170515288
 30
0.0
 10
187.9087581005721
 20
81.49941211005383
 30
0.0
 10
187.5541020694043
 20
81.46034459468216
 30
0.0
  0
SPLINE
  5
1ED
330
1F
100
AcDbEntity
  8
0
  6
HIDDEN
 62
     7
370
     0
100
AcDbSpline
210
0.0
220
0.0
230
1.0
 70
     8
 71
     3
 72
    13
 73
     9
 74
     0
 42
0.00000001
 43
0.00000001
 12
1.0
 22
0.0
 32
0.0
 13
1.0
 23
0.0
 33
0.0
 40
0.0
 40
0.0
 40
0.0
 40
0.0
 40
0.0766864887232983
 40
0.2889130501105494
 40
0.4891181913565547
 40
0.6772675226877667
 40
0.860341721946493
 40
1.0
 40
1.0
 40
1.0
 40
1.0
 10
184.7455814990069
 20
82.11526972126454
 30
0.0
 10
184.5855247554546
 20
82.19523577108356
 30
0.0
 10
183.9825178537129
 20
82.49650442665953
 30
0.0
 10
183.2601635887543
 20
83.43781581242797
 30
0.0
 10
182.7480018601554
 20
84.75215778326233
 30
0.0
 10
182.7538092294282
 20
86.10825959384123
 30
0.0
 10
183.1424178481254
 20
87.25865956674386
 30
0.0
 10
183.6100444190619
 20
87.84802746425612
 30
0.0
 10
183.8124037298228
 20
88.10306874919921
 30
0.0
  0
CIRCLE
  5
1EE
330
1F
100
AcDbEntity
  8
0
  6
HIDDEN
 62
     7
370
     0
100
AcDbCircle
 10
214.5012426588
 20
85.457057216
 30
0.0
 40
2.0
  0
LINE
  5
1EF
330
1F
100
AcDbEntity
  8
0
  6
HIDDEN
 62
     7
370
     0
100
AcDbLine
 10
266.150189242
 20
97.4570573203
 30
0.0
 11
266.150189242
 21
94.0305660374
 31
0.0
  0
LINE
  5
1F0
330
1F
100
AcDbEntity
  8
0
  6
HIDDEN
 62
     7
370
     0
100
AcDbLine
 10
259.8176986488
 20
122.7429588221
 30
0.0
 11
259.8107174548
 21
122.6966683648
 31
0.0
  0
LINE
  5
1F1
330
1F
100
AcDbEntity
  8
0
  6
HIDDEN
 62
     7
370
     0
100
AcDbLine
 10
263.5432050141
 20
121.3510562561
 30
0.0
 11
263.5746166619
 21
121.5593595884
 31
0.0
  0
LINE
  5
1F2
330
1F
100
AcDbEntity
  8
0
  6
HIDDEN
 62
     7
370
     0
100
AcDbLine
 10
261.2441160294
 20
122.082654842
 30
0.0
 11
261.2127043816
 21
121.8743477843
 31
0.0
  0
LINE
  5
1F3
330
1F
100
AcDbEntity
  8
0
  6
HIDDEN
 62
     7
370
     0
100
AcDbLine
 10
261.506268433
 20
123.1527221284
 30
0.0
 11
261.4748567852
 21
122.9444150708
 31
0.0
  0
LINE
  5
1F4
330
1F
100
AcDbEntity
  8
0
  6
HIDDEN
 62
     7
370
     0
100
AcDbLine
 10
263.8053574177
 20
122.4211235426
 30
0.0
 11
263.8367690655
 21
122.6294268749
 31
0.0
  0
LINE
  5
1F5
330
1F
100
AcDbEntity
  8
0
  6
HIDDEN
 62
     7
370
     0
100
AcDbLine
 10
263.815575889
 20
121.5068702481
 30
0.0
 11
263.8401851567
 21
121.6700565897
 31
0.0
  0
LINE
  5
1F6
330
1F
100
AcDbEntity
  8
0
  6
HIDDEN
 62
     7
370
     0
100
AcDbLine
 10
261.0962071034
 20
122.0838469348
 30
0.0
 11
261.071601561
 21
121.920656868
 31
0.0
  0
LINE
  5
1F7
330
1F
100
AcDbEntity
  8
0
  6
HIDDEN
 62
     7
370
     0
100
AcDbLine
 10
263.7991473588
 20
120.0566594384
 30
0.0
 11
264.0133403751
 21
121.477045574
 31
0.0
  0
LINE
  5
1F8
330
1F
100
AcDbEntity
  8
0
  6
HIDDEN
 62
     7
370
     0
100
AcDbLine
 10
260.8738370749
 20
121.9504815422
 30
0.0
 11
260.6596440586
 21
120.5300916813
 31
0.0
  0
LINE
  5
1F9
330
1F
100
AcDbEntity
  8
0
  6
HIDDEN
 62
     7
370
     0
100
AcDbLine
 10
260.7219681653
 20
122.3745313368
 30
0.0
 11
260.6684692713
 21
122.0197533153
 31
0.0
  0
LINE
  5
1FA
330
1F
100
AcDbEntity
  8
0
  6
HIDDEN
 62
     7
370
     0
100
AcDbLine
 10
264.6237478169
 20
121.4233045362
 30
0.0
 11
264.6772467109
 21
121.7780788324
 31
0.0
  0
LINE
  5
1FB
330
1F
100
AcDbEntity
  8
0
  6
HIDDEN
 62
     7
370
     0
100
AcDbLine
 10
265.7166101548
 20
119.1207994602
 30
0.0
 11
263.3349538359
 21
119.1207994602
 31
0.0
  0
LINE
  5
1FC
330
1F
100
AcDbEntity
  8
0
  6
HIDDEN
 62
     7
370
     0
100
AcDbLine
 10
263.3349538359
 20
113.7207993202
 30
0.0
 11
265.7166101548
 21
113.7207993202
 31
0.0
  0
LINE
  5
1FD
330
1F
100
AcDbEntity
  8
0
  6
HIDDEN
 62
     7
370
     0
100
AcDbLine
 10
265.7185175034
 20
113.7217548571
 30
0.0
 11
266.0356812688
 21
114.03914214
 31
0.0
  0
LINE
  5
1FE
330
1F
100
AcDbEntity
  8
0
  6
HIDDEN
 62
     7
370
     0
100
AcDbLine
 10
266.0356812688
 20
118.8024585031
 30
0.0
 11
265.7185175034
 21
119.1198457859
 31
0.0
  0
LINE
  5
1FF
330
1F
100
AcDbEntity
  8
0
  6
HIDDEN
 62
     7
370
     0
100
AcDbLine
 10
259.4038412484
 20
114.8332995258
 30
0.0
 11
263.3349538359
 21
114.8332995258
 31
0.0
  0
LINE
  5
200
330
1F
100
AcDbEntity
  8
0
  6
HIDDEN
 62
     7
370
     0
100
AcDbLine
 10
263.3349538359
 20
118.0083011172
 30
0.0
 11
259.4038412484
 21
118.0083011172
 31
0.0
  0
LINE
  5
201
330
1F
100
AcDbEntity
  8
0
  6
HIDDEN
 62
     7
370
     0
100
AcDbLine
 10
259.402719936
 20
118.0077385984
 30
0.0
 11
259.0855561706
 21
117.6903513156
 31
0.0
  0
LINE
  5
202
330
1F
100
AcDbEntity
  8
0
  6
HIDDEN
 62
     7
370
     0
100
AcDbLine
 10
259.0855561706
 20
115.1512493275
 30
0.0
 11
259.402719936
 21
114.8338620446
 31
0.0
  0
LINE
  5
203
330
1F
100
AcDbEntity
  8
0
  6
HIDDEN
 62
     7
370
     0
100
AcDbLine
 10
264.8621365937
 20
115.7886613987
 30
0.0
 11
266.0617135974
 21
115.7886613987
 31
0.0
  0
LINE
  5
204
330
1F
100
AcDbEntity
  8
0
  6
HIDDEN
 62
     7
370
     0
100
AcDbLine
 10
266.0572059962
 20
117.3467752419
 30
0.0
 11
264.8576289925
 21
117.3467752419
 31
0.0
  0
LINE
  5
205
330
1F
100
AcDbEntity
  8
0
  6
HIDDEN
 62
     7
370
     0
100
AcDbLine
 10
266.059500775
 20
115.7930460654
 30
0.0
 11
264.859920046
 21
115.7930460654
 31
0.0
  0
LINE
  5
206
330
1F
100
AcDbEntity
  8
0
  6
HIDDEN
 62
     7
370
     0
100
AcDbLine
 10
264.849217287
 20
117.2810648463
 30
0.0
 11
266.0487942907
 21
117.2810648463
 31
0.0
  0
LINE
  5
207
330
1F
100
AcDbEntity
  8
0
  6
HIDDEN
 62
     7
370
     0
100
AcDbLine
 10
264.8389317605
 20
115.088735231
 30
0.0
 11
266.0385050389
 21
115.088735231
 31
0.0
  0
LINE
  5
208
330
1F
100
AcDbEntity
  8
0
  6
HIDDEN
 62
     7
370
     0
100
AcDbLine
 10
266.0294898364
 20
117.7528654121
 30
0.0
 11
264.8299128326
 21
117.7528654121
 31
0.0
  0
LINE
  5
209
330
1F
100
AcDbEntity
  8
0
  6
HIDDEN
 62
     7
370
     0
100
AcDbLine
 10
266.0192080351
 20
115.5605339341
 30
0.0
 11
264.8196310314
 21
115.5605339341
 31
0.0
  0
LINE
  5
20A
330
1F
100
AcDbEntity
  8
0
  6
HIDDEN
 62
     7
370
     0
100
AcDbLine
 10
264.8089245471
 20
117.0485545776
 30
0.0
 11
266.0085015508
 21
117.0485545776
 31
0.0
  0
LINE
  5
20B
330
1F
100
AcDbEntity
  8
0
  6
HIDDEN
 62
     7
370
     0
100
AcDbLine
 10
264.8112193259
 20
115.4948235385
 30
0.0
 11
266.0107963296
 21
115.4948235385
 31
0.0
  0
LINE
  5
20C
330
1F
100
AcDbEntity
  8
0
  6
HIDDEN
 62
     7
370
     0
100
AcDbLine
 10
266.0062812778
 20
117.0529392443
 30
0.0
 11
264.8067079994
 21
117.0529392443
 31
0.0
  0
LINE
  5
20D
330
1F
100
AcDbEntity
  8
0
  6
HIDDEN
 62
     7
370
     0
100
AcDbLine
 10
267.3500828954
 20
116.0653275333
 30
0.0
 11
267.3867323014
 21
116.3083598844
 31
0.0
  0
LINE
  5
20E
330
1F
100
AcDbEntity
  8
0
  6
HIDDEN
 62
     7
370
     0
100
AcDbLine
 10
254.4367366048
 20
121.94686056
 30
0.0
 11
254.3919250878
 21
121.6497127793
 31
0.0
  0
LINE
  5
20F
330
1F
100
AcDbEntity
  8
0
  6
HIDDEN
 62
     7
370
     0
100
AcDbLine
 10
264.3261418256
 20
120.8669845841
 30
0.0
 11
264.3594421956
 21
121.0878123425
 31
0.0
  0
LINE
  5
210
330
1F
100
AcDbEntity
  8
0
  6
HIDDEN
 62
     7
370
     0
100
AcDbLine
 10
260.3794388982
 20
121.6879901372
 30
0.0
 11
260.3461385283
 21
121.4671623788
 31
0.0
  0
LINE
  5
211
330
1F
100
AcDbEntity
  8
0
  6
HIDDEN
 62
     7
370
     0
100
AcDbLine
 10
226.5012428674
 20
100.4620571516
 30
0.0
 11
226.5012428674
 21
100.7370571501
 31
0.0
  0
LINE
  5
212
330
1F
100
AcDbEntity
  8
0
  6
HIDDEN
 62
     7
370
     0
100
AcDbLine
 10
220.5012418839
 20
100.7370571501
 30
0.0
 11
220.5012418839
 21
100.4620571516
 31
0.0
  0
LINE
  5
213
330
1F
100
AcDbEntity
  8
0
  6
HIDDEN
 62
     7
370
     0
100
AcDbLine
 10
226.0012418541
 20
98.3787453629
 30
0.0
 11
226.0012418541
 21
100.8070572175
 31
0.0
  0
LINE
  5
214
330
1F
100
AcDbEntity
  8
0
  6
HIDDEN
 62
     7
370
     0
100
AcDbLine
 10
221.0012428972
 20
100.8070572175
 30
0.0
 11
221.0012428972
 21
98.3787453629
 31
0.0
  0
LINE
  5
215
330
1F
100
AcDbEntity
  8
0
  6
HIDDEN
 62
     7
370
     0
100
AcDbLine
 10
221.2985136124
 20
98.6982579238
 30
0.0
 11
221.4453626933
 21
98.5607127554
 31
0.0
  0
LINE
  5
216
330
1F
100
AcDbEntity
  8
0
  6
HIDDEN
 62
     7
370
     0
100
AcDbLine
 10
225.5571220579
 20
98.5607127554
 30
0.0
 11
225.7039711389
 21
98.6982579238
 31
0.0
  0
LINE
  5
217
330
1F
100
AcDbEntity
  8
0
  6
HIDDEN
 62
     7
370
     0
100
AcDbLine
 10
221.2985136124
 20
98.353257858
 30
0.0
 11
221.4453626933
 21
98.2157136209
 31
0.0
  0
LINE
  5
218
330
1F
100
AcDbEntity
  8
0
  6
HIDDEN
 62
     7
370
     0
100
AcDbLine
 10
225.5571220579
 20
98.2157136209
 30
0.0
 11
225.7039711389
 21
98.353257858
 31
0.0
  0
LINE
  5
219
330
1F
100
AcDbEntity
  8
0
  6
HIDDEN
 62
     7
370
     0
100
AcDbLine
 10
221.2985136124
 20
98.0082577921
 30
0.0
 11
221.4453626933
 21
97.870713555
 31
0.0
  0
LINE
  5
21A
330
1F
100
AcDbEntity
  8
0
  6
HIDDEN
 62
     7
370
     0
100
AcDbLine
 10
225.5571220579
 20
97.870713555
 30
0.0
 11
225.7039711389
 21
98.0082577921
 31
0.0
  0
LINE
  5
21B
330
1F
100
AcDbEntity
  8
0
  6
HIDDEN
 62
     7
370
     0
100
AcDbLine
 10
221.2985136124
 20
97.6632577262
 30
0.0
 11
221.4453626933
 21
97.5257134892
 31
0.0
  0
LINE
  5
21C
330
1F
100
AcDbEntity
  8
0
  6
HIDDEN
 62
     7
370
     0
100
AcDbLine
 10
225.5571220579
 20
97.5257134892
 30
0.0
 11
225.7039711389
 21
97.6632577262
 31
0.0
  0
LINE
  5
21D
330
1F
100
AcDbEntity
  8
0
  6
HIDDEN
 62
     7
370
     0
100
AcDbLine
 10
226.5012428674
 20
97.7070568956
 30
0.0
 11
226.5012428674
 21
99.0820568882
 31
0.0
  0
LINE
  5
21E
330
1F
100
AcDbEntity
  8
0
  6
HIDDEN
 62
     7
370
     0
100
AcDbLine
 10
220.5012418839
 20
99.0820568882
 30
0.0
 11
220.5012418839
 21
97.7070568956
 31
0.0
  0
ARC
  5
21F
330
1F
100
AcDbEntity
  8
0
  6
HIDDEN
 62
     7
370
     0
100
AcDbCircle
 10
223.5012426588
 20
99.107057216
 30
0.0
 40
2.500000000000013
100
AcDbArc
 50
243.3052549208
 51
21.3713330903
  0
ARC
  5
220
330
1F
100
AcDbEntity
  8
0
  6
HIDDEN
 62
     7
370
     0
100
AcDbCircle
 10
223.5012426588
 20
99.107057216
 30
0.0
 40
2.500000000000013
100
AcDbArc
 50
158.6286669097
 51
243.3052549208
  0
LINE
  5
221
330
1F
100
AcDbEntity
  8
0
  6
HIDDEN
 62
     7
370
     0
100
AcDbLine
 10
226.5012428674
 20
97.7070568956
 30
0.0
 11
226.5012428674
 21
101.2053047202
 31
0.0
  0
LINE
  5
222
330
1F
100
AcDbEntity
  8
0
  6
HIDDEN
 62
     7
370
     0
100
AcDbLine
 10
220.5012418839
 20
101.2070574693
 30
0.0
 11
220.5012418839
 21
97.7070568956
 31
0.0
  0
LINE
  5
223
330
1F
100
AcDbEntity
  8
0
  6
HIDDEN
 62
     7
370
     0
100
AcDbLine
 10
202.5012426588
 20
61.2070565007
 30
0.0
 11
202.5941358792
 21
61.2999503396
 31
0.0
  0
LINE
  5
224
330
1F
100
AcDbEntity
  8
0
  6
HIDDEN
 62
     7
370
     0
100
AcDbLine
 10
202.5941358792
 20
109.6141640924
 30
0.0
 11
202.5012426588
 21
109.7070579312
 31
0.0
  0
ARC
  5
225
330
1F
100
AcDbEntity
  8
0
  6
HIDDEN
 62
     7
370
     0
100
AcDbCircle
 10
201.8870290964
 20
62.007057216
 30
0.0
 40
1.000000000000018
100
AcDbArc
 50
315.0
 51
0.0
  0
ARC
  5
226
330
1F
100
AcDbEntity
  8
0
  6
HIDDEN
 62
     7
370
     0
100
AcDbCircle
 10
201.8870290964
 20
62.007057216
 30
0.0
 40
1.0
100
AcDbArc
 50
0.0
 51
52.1052014664
  0
ARC
  5
227
330
1F
100
AcDbEntity
  8
0
  6
HIDDEN
 62
     7
370
     0
100
AcDbCircle
 10
201.8870290964
 20
108.907057216
 30
0.0
 40
1.000000000000008
100
AcDbArc
 50
351.8087250651
 51
45.0
  0
ARC
  5
228
330
1F
100
AcDbEntity
  8
0
  6
HIDDEN
 62
     7
370
     0
100
AcDbCircle
 10
201.8870290964
 20
108.907057216
 30
0.0
 40
1.00000000000001
100
AcDbArc
 50
307.8947985336
 51
351.8087250651
  0
LINE
  5
229
330
1F
100
AcDbEntity
  8
0
  6
HIDDEN
 62
     7
370
     0
100
AcDbLine
 10
202.8870290946
 20
62.0070570044
 30
0.0
 11
202.8870290946
 21
108.9070574276
 31
0.0
  0
LINE
  5
22A
330
1F
100
AcDbEntity
  8
0
  6
HIDDEN
 62
     7
370
     0
100
AcDbLine
 10
226.0012418541
 20
97.1341025911
 30
0.0
 11
226.0012418541
 21
97.5568420149
 31
0.0
  0
LINE
  5
22B
330
1F
100
AcDbEntity
  8
0
  6
HIDDEN
 62
     7
370
     0
100
AcDbLine
 10
226.0012418541
 20
89.9530919164
 30
0.0
 11
226.0012418541
 21
94.9433264218
 31
0.0
  0
LINE
  5
22C
330
1F
100
AcDbEntity
  8
0
  6
HIDDEN
 62
     7
370
     0
100
AcDbLine
 10
221.0012428972
 20
97.5568420149
 30
0.0
 11
221.0012428972
 21
89.9547315098
 31
0.0
  0
LINE
  5
22D
330
1F
100
AcDbEntity
  8
0
  6
HIDDEN
 62
     7
370
     0
100
AcDbLine
 10
231.9520075383
 20
104.7043339245
 30
0.0
 11
223.5812429848
 21
98.7192639045
 31
0.0
  0
LINE
  5
22E
330
1F
100
AcDbEntity
  8
0
  6
HIDDEN
 62
     7
370
     0
100
AcDbLine
 10
225.7652465763
 20
94.1342343472
 30
0.0
 11
231.9458496335
 21
98.5533469252
 31
0.0
  0
LINE
  5
22F
330
1F
100
AcDbEntity
  8
0
  6
HIDDEN
 62
     7
370
     0
100
AcDbLine
 10
164.5012438807
 20
69.2606274865
 30
0.0
 11
166.0314702007
 21
70.1441061578
 31
0.0
  0
LINE
  5
230
330
1F
100
AcDbEntity
  8
0
  6
HIDDEN
 62
     7
370
     0
100
AcDbLine
 10
166.0314702007
 20
100.7700082741
 30
0.0
 11
164.5012438807
 21
101.6534869454
 31
0.0
  0
ARC
  5
231
330
1F
100
AcDbEntity
  8
0
  6
HIDDEN
 62
     7
370
     0
100
AcDbCircle
 10
175.5030439737
 20
71.457057216
 30
0.0
 40
2.000000000000006
100
AcDbArc
 50
270.0
 51
315.0
  0
ARC
  5
232
330
1F
100
AcDbEntity
  8
0
  6
HIDDEN
 62
     7
370
     0
100
AcDbCircle
 10
175.5030439737
 20
99.457057216
 30
0.0
 40
2.000000000000016
100
AcDbArc
 50
45.0
 51
90.0
  0
LINE
  5
233
330
1F
100
AcDbEntity
  8
0
  6
HIDDEN
 62
     7
370
     0
100
AcDbLine
 10
174.5012417945
 20
69.457056456
 30
0.0
 11
175.5030431363
 21
69.457056456
 31
0.0
  0
LINE
  5
234
330
1F
100
AcDbEntity
  8
0
  6
HIDDEN
 62
     7
370
     0
100
AcDbLine
 10
175.5030431363
 20
101.4570579759
 30
0.0
 11
174.5012417945
 21
101.4570579759
 31
0.0
  0
ARC
  5
235
330
1F
100
AcDbEntity
  8
0
  6
HIDDEN
 62
     7
370
     0
100
AcDbCircle
 10
174.5012426588
 20
71.457057216
 30
0.0
 40
2.000000000000022
100
AcDbArc
 50
189.9742217944
 51
270.0
  0
ARC
  5
236
330
1F
100
AcDbEntity
  8
0
  6
HIDDEN
 62
     7
370
     0
100
AcDbCircle
 10
174.5012426588
 20
99.457057216
 30
0.0
 40
2.000000000000022
100
AcDbArc
 50
90.0
 51
170.0257782056
  0
LINE
  5
237
330
1F
100
AcDbEntity
  8
0
  6
HIDDEN
 62
     7
370
     0
100
AcDbLine
 10
176.9172583285
 20
70.0428434543
 30
0.0
 11
178.331471658
 21
71.4570567838
 31
0.0
  0
LINE
  5
238
330
1F
100
AcDbEntity
  8
0
  6
HIDDEN
 62
     7
370
     0
100
AcDbLine
 10
178.331471658
 20
99.4570576481
 30
0.0
 11
176.9172583285
 21
100.8712709777
 31
0.0
  0
LINE
  5
239
330
1F
100
AcDbEntity
  8
0
  6
HIDDEN
 62
     7
370
     0
100
AcDbLine
 10
166.0314702007
 20
70.1441061578
 30
0.0
 11
170.9314711901
 21
71.4570567838
 31
0.0
  0
LINE
  5
23A
330
1F
100
AcDbEntity
  8
0
  6
HIDDEN
 62
     7
370
     0
100
AcDbLine
 10
170.9314711901
 20
99.4570576481
 30
0.0
 11
166.0314702007
 21
100.7700082741
 31
0.0
  0
LINE
  5
23B
330
1F
100
AcDbEntity
  8
0
  6
HIDDEN
 62
     7
370
     0
100
AcDbLine
 10
172.5314703348
 20
99.8034677364
 30
0.0
 11
171.931471354
 21
99.4570576481
 31
0.0
  0
LINE
  5
23C
330
1F
100
AcDbEntity
  8
0
  6
HIDDEN
 62
     7
370
     0
100
AcDbLine
 10
171.931471354
 20
71.4570567838
 30
0.0
 11
172.5314703348
 21
71.1106466956
 31
0.0
  0
ARC
  5
23D
330
1F
100
AcDbEntity
  8
0
  6
HIDDEN
 62
     7
370
     0
100
AcDbCircle
 10
191.0012426588
 20
71.957057216
 30
0.0
 40
0.5000000000000284
100
AcDbArc
 50
270.0
 51
0.0
  0
ARC
  5
23E
330
1F
100
AcDbEntity
  8
0
  6
HIDDEN
 62
     7
370
     0
100
AcDbCircle
 10
191.0012426588
 20
98.957057216
 30
0.0
 40
0.5000000000000284
100
AcDbArc
 50
0.0
 51
90.0
  0
LINE
  5
23F
330
1F
100
AcDbEntity
  8
0
  6
HIDDEN
 62
     7
370
     0
100
AcDbLine
 10
170.9314711901
 20
71.4570567838
 30
0.0
 11
171.931471354
 21
71.4570567838
 31
0.0
  0
LINE
  5
240
330
1F
100
AcDbEntity
  8
0
  6
HIDDEN
 62
     7
370
     0
100
AcDbLine
 10
171.931471354
 20
99.4570576481
 30
0.0
 11
170.9314711901
 21
99.4570576481
 31
0.0
  0
LINE
  5
241
330
1F
100
AcDbEntity
  8
0
  6
HIDDEN
 62
     7
370
     0
100
AcDbLine
 10
178.331471658
 20
71.4570567838
 30
0.0
 11
191.0012426364
 21
71.4570567838
 31
0.0
  0
LINE
  5
242
330
1F
100
AcDbEntity
  8
0
  6
HIDDEN
 62
     7
370
     0
100
AcDbLine
 10
191.0012426364
 20
99.4570576481
 30
0.0
 11
178.331471658
 21
99.4570576481
 31
0.0
  0
LINE
  5
243
330
1F
100
AcDbEntity
  8
0
  6
HIDDEN
 62
     7
370
     0
100
AcDbLine
 10
191.5012427184
 20
75.2070569329
 30
0.0
 11
192.7512424576
 21
76.4570576034
 31
0.0
  0
LINE
  5
244
330
1F
100
AcDbEntity
  8
0
  6
HIDDEN
 62
     7
370
     0
100
AcDbLine
 10
192.7512424576
 20
94.4570568286
 30
0.0
 11
191.5012427184
 21
95.7070574991
 31
0.0
  0
LINE
  5
245
330
1F
100
AcDbEntity
  8
0
  6
HIDDEN
 62
     7
370
     0
100
AcDbLine
 10
192.7512424576
 20
76.4570576034
 30
0.0
 11
229.5012433591
 21
76.4570576034
 31
0.0
  0
LINE
  5
246
330
1F
100
AcDbEntity
  8
0
  6
HIDDEN
 62
     7
370
     0
100
AcDbLine
 10
229.5012433591
 20
94.4570568286
 30
0.0
 11
192.7512424576
 21
94.4570568286
 31
0.0
  0
LINE
  5
247
330
1F
100
AcDbEntity
  8
0
  6
HIDDEN
 62
     7
370
     0
100
AcDbLine
 10
229.5012433591
 20
76.4570576034
 30
0.0
 11
234.9089883777
 21
85.457057216
 31
0.0
  0
LINE
  5
248
330
1F
100
AcDbEntity
  8
0
  6
HIDDEN
 62
     7
370
     0
100
AcDbLine
 10
234.9089883777
 20
85.457057216
 30
0.0
 11
229.5012433591
 21
94.4570568286
 31
0.0
  0
LINE
  5
249
330
1F
100
AcDbEntity
  8
0
  6
HIDDEN
 62
     7
370
     0
100
AcDbLine
 10
251.6687900337
 20
120.5244143389
 30
0.0
 11
251.4947146687
 21
119.3700511835
 31
0.0
  0
LINE
  5
24A
330
1F
100
AcDbEntity
  8
0
  6
HIDDEN
 62
     7
370
     0
100
AcDbLine
 10
266.8337129566
 20
119.220801153
 30
0.0
 11
263.3349538359
 21
119.220801153
 31
0.0
  0
LINE
  5
24B
330
1F
100
AcDbEntity
  8
0
  6
HIDDEN
 62
     7
370
     0
100
AcDbLine
 10
263.3349538359
 20
113.62079949
 30
0.0
 11
266.8337129566
 21
113.62079949
 31
0.0
  0
LINE
  5
24C
330
1F
100
AcDbEntity
  8
0
  6
HIDDEN
 62
     7
370
     0
100
AcDbLine
 10
255.3362638268
 20
117.7085866116
 30
0.0
 11
254.5635156843
 21
116.4208003215
 31
0.0
  0
LINE
  5
24D
330
1F
100
AcDbEntity
  8
0
  6
HIDDEN
 62
     7
370
     0
100
AcDbLine
 10
254.5635156843
 20
116.4208003215
 30
0.0
 11
255.3362638268
 21
115.1330121688
 31
0.0
  0
LINE
  5
24E
330
1F
100
AcDbEntity
  8
0
  6
HIDDEN
 62
     7
370
     0
100
AcDbLine
 10
263.3349538359
 20
117.709849485
 30
0.0
 11
255.3377800199
 21
117.709849485
 31
0.0
  0
LINE
  5
24F
330
1F
100
AcDbEntity
  8
0
  6
HIDDEN
 62
     7
370
     0
100
AcDbLine
 10
255.3377800199
 20
115.1317492954
 30
0.0
 11
263.3349538359
 21
115.1317492954
 31
0.0
  0
LINE
  5
250
330
1F
100
AcDbEntity
  8
0
  6
HIDDEN
 62
     7
370
     0
100
AcDbLine
 10
261.0864915463
 20
121.3591736637
 30
0.0
 11
260.8639874074
 21
119.8836681328
 31
0.0
  0
LINE
  5
251
330
1F
100
AcDbEntity
  8
0
  6
HIDDEN
 62
     7
370
     0
100
AcDbLine
 10
263.4132668885
 20
119.4992405258
 30
0.0
 11
263.6357710275
 21
120.9747460566
 31
0.0
  0
LINE
  5
252
330
1F
100
AcDbEntity
  8
VERMASSUNG
  6
CENTERX2
100
AcDbLine
 10
161.7782545186
 20
85.457057216
 30
0.0
 11
267.5012426588
 21
85.457057216
 31
0.0
  0
LINE
  5
253
330
1F
100
AcDbEntity
  8
VERMASSUNG
  6
CENTERX2
100
AcDbLine
 10
267.5012426588
 20
130.457057216
 30
0.0
 11
267.5012426588
 21
85.457057216
 31
0.0
  0
LINE
  5
254
330
1F
100
AcDbEntity
  8
VERMASSUNG
  6
CENTERX2
100
AcDbLine
 10
279.182745595
 20
130.457057216
 30
0.0
 11
267.5012426588
 21
130.457057216
 31
0.0
  0
LINE
  5
255
330
1F
100
AcDbEntity
  8
VERMASSUNG
100
AcDbLine
 10
267.5012426588
 20
130.457057216
 30
0.0
 11
253.2186386282
 21
122.3984294144
 31
0.0
  0
DIMENSION
  5
256
330
1F
100
AcDbEntity
  8
VERMASSUNG
100
AcDbDimension
  2
_D
 10
278.6912709909
 20
130.457057216
 30
0.0
 11
278.6912709909
 21
107.957057216
 31
0.0
 70
   160
  1
<>
 71
     2
 42
-1.0
  3
SLDDIMSTYLE0
100
AcDbAlignedDimension
 13
267.5012426588
 23
85.457057216
 33
0.0
 14
279.182745595
 24
130.457057216
 34
0.0
 50
90.0
100
AcDbRotatedDimension
  0
DIMENSION
  5
262
330
1F
100
AcDbEntity
  8
VERMASSUNG
100
AcDbDimension
  2
_D_1
 10
267.5012426588
 20
138.042209102
 30
0.0
 11
235.0012426588
 21
138.042209102
 31
0.0
 70
   160
  1
<>
 71
     2
 42
-1.0
  3
SLDDIMSTYLE0
100
AcDbAlignedDimension
 13
202.5012426588
 23
116.457057216
 33
0.0
 14
267.5012426588
 24
130.457057216
 34
0.0
100
AcDbRotatedDimension
  0
DIMENSION
  5
26E
330
1F
100
AcDbEntity
  8
VERMASSUNG
100
AcDbDimension
  2
_D_2
 10
267.5012426588
 20
143.7055214651
 30
0.0
 11
216.0012426588
 21
143.7055214651
 31
0.0
 70
   160
  1
<>
 71
     2
 42
-1.0
  3
SLDDIMSTYLE1
100
AcDbAlignedDimension
 13
164.5012426588
 23
105.7493952085
 33
0.0
 14
267.5012426588
 24
130.457057216
 34
0.0
100
AcDbRotatedDimension
  0
DIMENSION
  5
279
330
1F
100
AcDbEntity
  8
VERMASSUNG
100
AcDbDimension
  2
_D_3
 10
154.5012426588
 20
53.957057216
 30
0.0
 11
154.5012426588
 21
85.457057216
 31
0.0
 70
   160
  1
PSC%%c<>
 71
     2
 42
-1.0
  3
SLDDIMSTYLE1
100
AcDbAlignedDimension
 13
203.0012426588
 23
116.957057216
 33
0.0
 14
203.0012426588
 24
53.957057216
 34
0.0
 50
90.0
100
AcDbRotatedDimension
  0
LINE
  5
285
330
1F
100
AcDbEntity
  8
0
  6
Continuous
 62
     7
370
    15
100
AcDbLine
 10
78.0412676914
 20
124.8956550739
 30
0.0
 11
77.9902647419
 21
124.8347987316
 31
0.0
  0
LINE
  5
286
330
1F
100
AcDbEntity
  8
0
  6
Continuous
 62
     7
370
    15
100
AcDbLine
 10
77.1163046529
 20
119.8783260665
 30
0.0
 11
77.143417665
 21
119.8036936007
 31
0.0
  0
LINE
  5
287
330
1F
100
AcDbEntity
  8
0
  6
Continuous
 62
     7
370
    15
100
AcDbLine
 10
77.677703689
 20
122.8856597922
 30
0.0
 11
77.6783546835
 21
122.8855443082
 31
0.0
  0
LINE
  5
288
330
1F
100
AcDbEntity
  8
0
  6
Continuous
 62
     7
370
    15
100
AcDbLine
 10
77.4252378551
 20
121.4631427906
 30
0.0
 11
77.4107777916
 21
121.4656908892
 31
0.0
  0
LINE
  5
289
330
1F
100
AcDbEntity
  8
0
  6
Continuous
 62
     7
370
    15
100
AcDbLine
 10
77.7016823349
 20
123.246394553
 30
0.0
 11
77.7264829894
 21
123.2420210622
 31
0.0
  0
LINE
  5
28A
330
1F
100
AcDbEntity
  8
0
  6
Continuous
 62
     7
370
    15
100
AcDbLine
 10
77.4865506619
 20
121.8172912381
 30
0.0
 11
77.4347564375
 21
121.8264256499
 31
0.0
  0
LINE
  5
28B
330
1F
100
AcDbEntity
  8
0
  6
Continuous
 62
     7
370
    15
100
AcDbLine
 10
84.3285028759
 20
115.7930460654
 30
0.0
 11
84.2966064747
 21
115.7930460654
 31
0.0
  0
LINE
  5
28C
330
1F
100
AcDbEntity
  8
0
  6
Continuous
 62
     7
370
    15
100
AcDbLine
 10
84.6991874214
 20
117.2810648463
 30
0.0
 11
84.7310838226
 21
117.2810648463
 31
0.0
  0
LINE
  5
28D
330
1F
100
AcDbEntity
  8
0
  6
Continuous
 62
     7
370
    15
100
AcDbLine
 10
85.8438233782
 20
115.5605339341
 30
0.0
 11
85.811926977
 21
115.5605339341
 31
0.0
  0
LINE
  5
28E
330
1F
100
AcDbEntity
  8
0
  6
Continuous
 62
     7
370
    15
100
AcDbLine
 10
86.214507458
 20
117.0485545776
 30
0.0
 11
86.2464043248
 21
117.0485545776
 31
0.0
  0
LINE
  5
28F
330
1F
100
AcDbEntity
  8
0
  6
Continuous
 62
     7
370
    15
100
AcDbLine
 10
85.2790144209
 20
119.1207994602
 30
0.0
 11
85.2156863484
 21
119.1207994602
 31
0.0
  0
LINE
  5
290
330
1F
100
AcDbEntity
  8
0
  6
Continuous
 62
     7
370
    15
100
AcDbLine
 10
85.2156863484
 20
113.7207993202
 30
0.0
 11
85.2790144209
 21
113.7207993202
 31
0.0
  0
LINE
  5
291
330
1F
100
AcDbEntity
  8
0
  6
Continuous
 62
     7
370
    15
100
AcDbLine
 10
80.0500418927
 20
114.8410220526
 30
0.0
 11
81.0068864312
 21
114.6723055176
 31
0.0
  0
LWPOLYLINE
  5
292
330
1F
100
AcDbEntity
  8
0
  6
Continuous
 62
     7
370
    15
100
AcDbPolyline
 90
       26
 70
   128
 43
0.0
 10
77.9573790433
 20
124.7385782085
 10
77.9910631182
 20
124.8356592737
 10
77.9974249827
 20
124.7769375227
 10
77.976064983
 20
124.5660972677
 10
77.9283252714
 20
124.2163968168
 10
77.8572054051
 20
123.7498004816
 10
77.7671741025
 20
123.1956300221
 10
77.66388845
 20
122.5887057267
 10
77.5538382523
 20
121.9671596668
 10
77.4439382303
 20
121.3700515113
 10
77.3410940247
 20
120.8348949335
 10
77.2517676169
 20
120.3953181289
 10
77.1815716226
 20
120.0789403997
 10
77.1349167854
 20
119.9056436203
 10
77.1147346759
 20
119.8863130889
 10
77.1222932899
 20
120.0221632503
 10
77.1571177693
 20
120.3046594642
 10
77.2170199716
 20
120.7160544477
 10
77.2982359568
 20
121.2304946862
 10
77.395662659
 20
121.8156558357
 10
77.5031783787
 20
122.4347730063
 10
77.6140275348
 20
123.0489429913
 10
77.7212451149
 20
123.6195755086
 10
77.8180941643
 20
124.1108146391
 10
77.898489305
 20
124.4917963527
 10
77.9573790433
 20
124.7385782085
  0
ARC
  5
293
330
1F
100
AcDbEntity
  8
0
  6
Continuous
 62
     7
370
    15
100
AcDbCircle
 10
61.4112545147
 20
125.5769370558
 30
0.0
 40
16.43519024093712
100
AcDbArc
 50
348.281461984
 51
350.9954428767
  0
ARC
  5
294
330
1F
100
AcDbEntity
  8
0
  6
Continuous
 62
     7
370
    15
100
AcDbCircle
 10
81.5022774695
 20
121.3535597497
 30
0.0
 40
4.095230194334169
100
AcDbArc
 50
167.5150101069
 51
173.3703553163
  0
ARC
  5
295
330
1F
100
AcDbEntity
  8
0
  6
Continuous
 62
     7
370
    15
100
AcDbCircle
 10
72.4833664409
 20
122.280514824
 30
0.0
 40
4.971850980077185
100
AcDbArc
 50
348.3952316923
 51
354.7589823785
  0
LWPOLYLINE
  5
296
330
1F
100
AcDbEntity
  8
0
  6
Continuous
 62
     7
370
    15
100
AcDbPolyline
 90
        9
 70
   128
 43
0.0
 10
77.3535853887
 20
121.2803800486
 10
77.3414394289
 20
121.2093760155
 10
77.3313109467
 20
121.1464484118
 10
77.3242675869
 20
121.0982282541
 10
77.3210519629
 20
121.0698005639
 10
77.3220029596
 20
121.0641567491
 10
77.3270203436
 20
121.0819003068
 10
77.3355751235
 20
121.1211536906
 10
77.3467656627
 20
121.1777855537
  0
LWPOLYLINE
  5
297
330
1F
100
AcDbEntity
  8
0
  6
Continuous
 62
     7
370
    15
100
AcDbPolyline
 90
        9
 70
   128
 43
0.0
 10
77.4059268815
 20
121.3975367032
 10
77.4107202824
 20
121.440139123
 10
77.4117637129
 20
121.4624312602
 10
77.4090174755
 20
121.4635674737
 10
77.4025861111
 20
121.4435067854
 10
77.3927137425
 20
121.4030091546
 10
77.3797755765
 20
121.3436131261
 10
77.3642631184
 20
121.2675762258
 10
77.3467656627
 20
121.1777855537
  0
LWPOLYLINE
  5
298
330
1F
100
AcDbEntity
  8
0
  6
Continuous
 62
     7
370
    15
100
AcDbPolyline
 90
        9
 70
   128
 43
0.0
 10
77.4059268815
 20
121.3975367032
 10
77.4035770383
 20
121.3737469993
 10
77.4054095319
 20
121.3730764471
 10
77.4112312293
 20
121.3955958269
 10
77.4204285054
 20
121.438932129
 10
77.4320317369
 20
121.498514422
 10
77.4448177481
 20
121.5680693172
 10
77.4574387988
 20
121.6402542673
 10
77.4685642619
 20
121.7074696801
  0
ARC
  5
299
330
1F
100
AcDbEntity
  8
0
  6
Continuous
 62
     7
370
    15
100
AcDbCircle
 10
93.7016648912
 20
119.1350457034
 30
0.0
 40
16.43566004631592
100
AcDbArc
 50
168.2814493866
 51
170.9953399816
  0
ARC
  5
29A
330
1F
100
AcDbEntity
  8
0
  6
Continuous
 62
     7
370
    15
100
AcDbCircle
 10
73.6099505005
 20
123.3585567858
 30
0.0
 40
4.095464388237455
100
AcDbArc
 50
347.515236652
 51
353.3702982
  0
ARC
  5
29B
330
1F
100
AcDbEntity
  8
0
  6
Continuous
 62
     7
370
    15
100
AcDbCircle
 10
82.6288245519
 20
122.4316036465
 30
0.0
 40
4.971579954532832
100
AcDbArc
 50
168.3950226749
 51
174.7590781028
  0
LWPOLYLINE
  5
29C
330
1F
100
AcDbEntity
  8
0
  6
Continuous
 62
     7
370
    15
100
AcDbPolyline
 90
        9
 70
   128
 43
0.0
 10
77.7588747378
 20
123.4317016683
 10
77.7710206976
 20
123.5027057014
 10
77.7811491799
 20
123.5656370304
 10
77.7881925397
 20
123.613857188
 10
77.7914081637
 20
123.6422848783
 10
77.7904571669
 20
123.6479249678
 10
77.785439783
 20
123.6301814101
 10
77.7768848866
 20
123.5909280263
 10
77.7656944638
 20
123.5342998884
  0
LWPOLYLINE
  5
29D
330
1F
100
AcDbEntity
  8
0
  6
Continuous
 62
     7
370
    15
100
AcDbPolyline
 90
        9
 70
   128
 43
0.0
 10
77.7065331286
 20
123.3145450137
 10
77.7017398441
 20
123.2719425939
 10
77.7006964136
 20
123.2496504567
 10
77.7034425346
 20
123.2485142432
 10
77.7098740155
 20
123.2685749314
 10
77.7197462676
 20
123.3090762876
 10
77.7326844336
 20
123.3684723161
 10
77.7481968917
 20
123.4445092164
 10
77.7656944638
 20
123.5342998884
  0
LWPOLYLINE
  5
29E
330
1F
100
AcDbEntity
  8
0
  6
Continuous
 62
     7
370
    15
100
AcDbPolyline
 90
        9
 70
   128
 43
0.0
 10
77.7065331286
 20
123.3145450137
 10
77.7088830883
 20
123.3383347176
 10
77.7070505947
 20
123.3390089951
 10
77.7012288973
 20
123.3164896153
 10
77.6920316212
 20
123.2731533132
 10
77.6804283896
 20
123.2135672949
 10
77.6676423784
 20
123.144016125
 10
77.6550213277
 20
123.0718274496
 10
77.6438957483
 20
123.004615762
  0
LINE
  5
29F
330
1F
100
AcDbEntity
  8
0
  6
Continuous
 62
     7
370
    15
100
AcDbLine
 10
78.8700743224
 20
129.3539595686
 30
0.0
 11
77.4392045505
 21
122.9505170963
 31
0.0
  0
LINE
  5
2A0
330
1F
100
AcDbEntity
  8
0
  6
Continuous
 62
     7
370
    15
100
AcDbLine
 10
78.8999176157
 20
129.3486994587
 30
0.0
 11
78.8700743224
 21
129.3539595686
 31
0.0
  0
LINE
  5
2A1
330
1F
100
AcDbEntity
  8
0
  6
Continuous
 62
     7
370
    15
100
AcDbLine
 10
78.9997280272
 20
129.86952857
 30
0.0
 11
78.8999176157
 21
129.3486994587
 31
0.0
  0
LINE
  5
2A2
330
1F
100
AcDbEntity
  8
0
  6
Continuous
 62
     7
370
    15
100
AcDbLine
 10
79.004883879
 20
129.8686195992
 30
0.0
 11
78.9997280272
 21
129.86952857
 31
0.0
  0
LINE
  5
2A3
330
1F
100
AcDbEntity
  8
0
  6
Continuous
 62
     7
370
    15
100
AcDbLine
 10
78.9205410192
 20
129.3450635753
 30
0.0
 11
79.004883879
 21
129.8686195992
 31
0.0
  0
LINE
  5
2A4
330
1F
100
AcDbEntity
  8
0
  6
Continuous
 62
     7
370
    15
100
AcDbLine
 10
76.6441426177
 20
116.4349657379
 30
0.0
 11
78.9205410192
 21
129.3450635753
 31
0.0
  0
LINE
  5
2A5
330
1F
100
AcDbEntity
  8
0
  6
Continuous
 62
     7
370
    15
100
AcDbLine
 10
76.4551297698
 20
115.4502765171
 30
0.0
 11
76.6441426177
 21
116.4349657379
 31
0.0
  0
LINE
  5
2A6
330
1F
100
AcDbEntity
  8
0
  6
Continuous
 62
     7
370
    15
100
AcDbLine
 10
76.3719475299
 20
114.9319135479
 30
0.0
 11
76.4551297698
 21
115.4502765171
 31
0.0
  0
LINE
  5
2A7
330
1F
100
AcDbEntity
  8
0
  6
Continuous
 62
     7
370
    15
100
AcDbLine
 10
76.3392927993
 20
114.7617944412
 30
0.0
 11
76.3719475299
 21
114.9319135479
 31
0.0
  0
LINE
  5
2A8
330
1F
100
AcDbEntity
  8
0
  6
Continuous
 62
     7
370
    15
100
AcDbLine
 10
76.3245110802
 20
114.76980009
 30
0.0
 11
76.3392927993
 21
114.7617944412
 31
0.0
  0
LINE
  5
2A9
330
1F
100
AcDbEntity
  8
0
  6
Continuous
 62
     7
370
    15
100
AcDbLine
 10
77.1700396372
 20
121.2764535926
 30
0.0
 11
76.3245110802
 21
114.76980009
 31
0.0
  0
LINE
  5
2AA
330
1F
100
AcDbEntity
  8
0
  6
Continuous
 62
     7
370
    15
100
AcDbLine
 10
77.3292093009
 20
122.2664047859
 30
0.0
 11
77.1700396372
 21
121.2764535926
 31
0.0
  0
LINE
  5
2AB
330
1F
100
AcDbEntity
  8
0
  6
Continuous
 62
     7
370
    15
100
AcDbLine
 10
77.3125811184
 20
122.2639386437
 30
0.0
 11
77.3292093009
 21
122.2664047859
 31
0.0
  0
LINE
  5
2AC
330
1F
100
AcDbEntity
  8
0
  6
Continuous
 62
     7
370
    15
100
AcDbLine
 10
77.3400799308
 20
122.4349667214
 30
0.0
 11
77.3125811184
 21
122.2639386437
 31
0.0
  0
LINE
  5
2AD
330
1F
100
AcDbEntity
  8
0
  6
Continuous
 62
     7
370
    15
100
AcDbLine
 10
77.4392045505
 20
122.9505170963
 30
0.0
 11
77.3400799308
 21
122.4349667214
 31
0.0
  0
LWPOLYLINE
  5
2AE
330
1F
100
AcDbEntity
  8
0
  6
Continuous
 62
     7
370
    15
100
AcDbPolyline
 90
       28
 70
   128
 43
0.0
 10
78.0267479068
 20
124.7793254338
 10
78.0565969699
 20
125.0402037881
 10
78.0597508356
 20
125.1563285373
 10
78.0360394793
 20
125.1214374683
 10
77.9867411993
 20
124.9374155782
 10
77.9145137576
 20
124.6141833149
 10
77.823250781
 20
124.1691638611
 10
77.7178723302
 20
123.6263480864
 10
77.6040595893
 20
123.0150018714
 10
77.487947995
 20
122.3680828593
 10
77.3757971993
 20
121.7204634927
 10
77.2736533482
 20
121.1070571921
 10
77.1870230028
 20
120.560937085
 10
77.1205765132
 20
120.1115404151
 10
77.0778958622
 20
119.7831001959
 10
77.0612819988
 20
119.5933152817
 10
77.0716308553
 20
119.5524190448
 10
77.1083841037
 20
119.6626205824
 10
77.1695607046
 20
119.9179743312
 10
77.251862379
 20
120.3047153435
 10
77.3508524226
 20
120.8019968949
 10
77.4611941243
 20
121.3830043457
 10
77.5769388938
 20
122.0164229057
 10
77.6918471029
 20
122.6680991135
 10
77.7997238265
 20
123.3029034815
 10
77.8947534209
 20
123.8866117678
 10
77.9718129134
 20
124.3877564452
 10
78.0267479068
 20
124.7793254338
  0
LINE
  5
2AF
330
1F
100
AcDbEntity
  8
0
  6
Continuous
 62
     7
370
    15
100
AcDbLine
 10
82.415410544
 20
128.7288223289
 30
0.0
 11
78.9205410192
 21
129.3450635753
 31
0.0
  0
LINE
  5
2B0
330
1F
100
AcDbEntity
  8
0
  6
Continuous
 62
     7
370
    15
100
AcDbLine
 10
80.139012186
 20
115.8187263541
 30
0.0
 11
82.415410544
 21
128.7288223289
 31
0.0
  0
LINE
  5
2B1
330
1F
100
AcDbEntity
  8
0
  6
Continuous
 62
     7
370
    15
100
AcDbLine
 10
80.139012186
 20
115.8187263541
 30
0.0
 11
76.6441426177
 21
116.4349657379
 31
0.0
  0
LINE
  5
2B2
330
1F
100
AcDbEntity
  8
0
  6
Continuous
 62
     7
370
    15
100
AcDbLine
 10
80.2395342553
 20
115.8282090805
 30
0.0
 11
80.139012186
 21
115.8187263541
 31
0.0
  0
LINE
  5
2B3
330
1F
100
AcDbEntity
  8
0
  6
Continuous
 62
     7
370
    15
100
AcDbLine
 10
82.415410544
 20
128.7288223289
 30
0.0
 11
82.5067078631
 21
128.685988941
 31
0.0
  0
LINE
  5
2B4
330
1F
100
AcDbEntity
  8
0
  6
Continuous
 62
     7
370
    15
100
AcDbLine
 10
82.5067078631
 20
128.685988941
 30
0.0
 11
80.2395342553
 21
115.8282090805
 31
0.0
  0
LINE
  5
2B5
330
1F
100
AcDbEntity
  8
0
  6
Continuous
 62
     7
370
    15
100
AcDbLine
 10
82.4997534446
 20
129.2523783527
 30
0.0
 11
79.004883879
 21
129.8686195992
 31
0.0
  0
LINE
  5
2B6
330
1F
100
AcDbEntity
  8
0
  6
Continuous
 62
     7
370
    15
100
AcDbLine
 10
82.415410544
 20
128.7288223289
 30
0.0
 11
82.4997534446
 21
129.2523783527
 31
0.0
  0
LINE
  5
2B7
330
1F
100
AcDbEntity
  8
0
  6
Continuous
 62
     7
370
    15
100
AcDbLine
 10
82.4997534446
 20
129.2523783527
 30
0.0
 11
82.5793321647
 21
129.1368049465
 31
0.0
  0
LINE
  5
2B8
330
1F
100
AcDbEntity
  8
0
  6
Continuous
 62
     7
370
    15
100
AcDbLine
 10
82.5793321647
 20
129.1368049465
 30
0.0
 11
82.5067078631
 21
128.685988941
 31
0.0
  0
LINE
  5
2B9
330
1F
100
AcDbEntity
  8
0
  6
Continuous
 62
     7
370
    15
100
AcDbLine
 10
79.94999928
 20
114.8340371333
 30
0.0
 11
80.139012186
 21
115.8187263541
 31
0.0
  0
LINE
  5
2BA
330
1F
100
AcDbEntity
  8
0
  6
Continuous
 62
     7
370
    15
100
AcDbLine
 10
79.94999928
 20
114.8340371333
 30
0.0
 11
76.4551297698
 21
115.4502765171
 31
0.0
  0
LINE
  5
2BB
330
1F
100
AcDbEntity
  8
0
  6
Continuous
 62
     7
370
    15
100
AcDbLine
 10
80.0453743368
 20
114.8167070828
 30
0.0
 11
79.94999928
 21
114.8340371333
 31
0.0
  0
LINE
  5
2BC
330
1F
100
AcDbEntity
  8
0
  6
Continuous
 62
     7
370
    15
100
AcDbLine
 10
80.2395342553
 20
115.8282090805
 30
0.0
 11
80.0453743368
 21
114.8167070828
 31
0.0
  0
LINE
  5
2BD
330
1F
100
AcDbEntity
  8
0
  6
Continuous
 62
     7
370
    15
100
AcDbLine
 10
79.8668169819
 20
114.3156741641
 30
0.0
 11
79.94999928
 21
114.8340371333
 31
0.0
  0
LINE
  5
2BE
330
1F
100
AcDbEntity
  8
0
  6
Continuous
 62
     7
370
    15
100
AcDbLine
 10
79.8668169819
 20
114.3156741641
 30
0.0
 11
76.3719475299
 21
114.9319135479
 31
0.0
  0
LINE
  5
2BF
330
1F
100
AcDbEntity
  8
0
  6
Continuous
 62
     7
370
    15
100
AcDbLine
 10
79.9621920387
 20
114.2983441136
 30
0.0
 11
79.8668169819
 21
114.3156741641
 31
0.0
  0
LINE
  5
2C0
330
1F
100
AcDbEntity
  8
0
  6
Continuous
 62
     7
370
    15
100
AcDbLine
 10
80.0453743368
 20
114.8167070828
 30
0.0
 11
79.9621920387
 21
114.2983441136
 31
0.0
  0
LINE
  5
2C1
330
1F
100
AcDbEntity
  8
0
  6
Continuous
 62
     7
370
    15
100
AcDbLine
 10
79.8341623095
 20
114.1455550573
 30
0.0
 11
79.8668169819
 21
114.3156741641
 31
0.0
  0
LINE
  5
2C2
330
1F
100
AcDbEntity
  8
0
  6
Continuous
 62
     7
370
    15
100
AcDbLine
 10
79.8341623095
 20
114.1455550573
 30
0.0
 11
76.3392927993
 21
114.7617944412
 31
0.0
  0
LINE
  5
2C3
330
1F
100
AcDbEntity
  8
0
  6
Continuous
 62
     7
370
    15
100
AcDbLine
 10
79.9485809921
 20
114.2274350755
 30
0.0
 11
79.8341623095
 21
114.1455550573
 31
0.0
  0
LINE
  5
2C4
330
1F
100
AcDbEntity
  8
0
  6
Continuous
 62
     7
370
    15
100
AcDbLine
 10
79.9621920387
 20
114.2983441136
 30
0.0
 11
79.9485809921
 21
114.2274350755
 31
0.0
  0
LINE
  5
2C5
330
1F
100
AcDbEntity
  8
0
  6
Continuous
 62
     7
370
    15
100
AcDbLine
 10
77.3283651734
 20
122.2611558519
 30
0.0
 11
77.3125811184
 21
122.2639386437
 31
0.0
  0
CIRCLE
  5
2C6
330
1F
100
AcDbEntity
  8
0
  6
Continuous
 62
     7
370
    15
100
AcDbCircle
 10
85.278304105
 20
116.4207621444
 30
0.0
 40
2.699764029923508
  0
CIRCLE
  5
2C7
330
1F
100
AcDbEntity
  8
0
  6
Continuous
 62
     7
370
    15
100
AcDbCircle
 10
85.2868763832
 20
116.4205046366
 30
0.0
 40
2.382203332504758
  0
ARC
  5
2C8
330
1F
100
AcDbEntity
  8
0
  6
Continuous
 62
     7
370
    15
100
AcDbCircle
 10
86.8030947176
 20
116.1882810958
 30
0.0
 40
0.5688844583095678
100
AcDbArc
 50
126.5539464903
 51
216.0111957918
  0
ARC
  5
2C9
330
1F
100
AcDbEntity
  8
0
  6
Continuous
 62
     7
370
    15
100
AcDbCircle
 10
86.3296786091
 20
116.8268764811
 30
0.0
 40
0.226053829917958
100
AcDbArc
 50
306.5436131391
 51
96.0016786732
  0
ARC
  5
2CA
330
1F
100
AcDbEntity
  8
0
  6
Continuous
 62
     7
370
    15
100
AcDbCircle
 10
86.246468535
 20
117.6171712177
 30
0.0
 40
0.5686094277885866
100
AcDbArc
 50
186.5253523389
 51
276.014038867
  0
ARC
  5
2CB
330
1F
100
AcDbEntity
  8
0
  6
Continuous
 62
     7
370
    15
100
AcDbCircle
 10
85.4570485927
 20
117.5268988156
 30
0.0
 40
0.225955203535968
100
AcDbArc
 50
6.5191812244
 51
156.0340312505
  0
ARC
  5
2CC
330
1F
100
AcDbEntity
  8
0
  6
Continuous
 62
     7
370
    15
100
AcDbCircle
 10
84.7310832059
 20
117.8495642696
 30
0.0
 40
0.5684872037843642
100
AcDbArc
 50
246.5349469745
 51
336.0375889814
  0
ARC
  5
2CD
330
1F
100
AcDbEntity
  8
0
  6
Continuous
 62
     7
370
    15
100
AcDbCircle
 10
84.4147790401
 20
117.1207302503
 30
0.0
 40
0.2260235667303625
100
AcDbArc
 50
66.5520226672
 51
216.0268147382
  0
ARC
  5
2CE
330
1F
100
AcDbEntity
  8
0
  6
Continuous
 62
     7
370
    15
100
AcDbCircle
 10
83.7718106488
 20
116.653318753
 30
0.0
 40
0.5688864090664891
100
AcDbArc
 50
306.554030808
 51
36.0111518756
  0
ARC
  5
2CF
330
1F
100
AcDbEntity
  8
0
  6
Continuous
 62
     7
370
    15
100
AcDbCircle
 10
84.2452279847
 20
116.0147230933
 30
0.0
 40
0.2260528305901404
100
AcDbArc
 50
126.5436093625
 51
276.0018600034
  0
ARC
  5
2D0
330
1F
100
AcDbEntity
  8
0
  6
Continuous
 62
     7
370
    15
100
AcDbCircle
 10
84.328437955
 20
115.2244287795
 30
0.0
 40
0.5686099956365337
100
AcDbArc
 50
6.5252223863
 51
96.0139608262
  0
ARC
  5
2D1
330
1F
100
AcDbEntity
  8
0
  6
Continuous
 62
     7
370
    15
100
AcDbCircle
 10
85.1178586081
 20
115.3146999648
 30
0.0
 40
0.225955203535968
100
AcDbArc
 50
186.5191812244
 51
336.0340312505
  0
ARC
  5
2D2
330
1F
100
AcDbEntity
  8
0
  6
Continuous
 62
     7
370
    15
100
AcDbCircle
 10
85.8438231862
 20
114.9920399289
 30
0.0
 40
0.5684842643772045
100
AcDbArc
 50
66.5347295265
 51
156.0380548871
  0
ARC
  5
2D3
330
1F
100
AcDbEntity
  8
0
  6
Continuous
 62
     7
370
    15
100
AcDbCircle
 10
86.1601294568
 20
115.7208693539
 30
0.0
 40
0.2260231294667532
100
AcDbArc
 50
246.5516164422
 51
36.0272209633
  0
LINE
  5
2D4
330
1F
100
AcDbEntity
  8
0
  6
Continuous
 62
     7
370
    15
100
AcDbLine
 10
84.2292131793
 20
115.7892257802
 30
0.0
 11
84.2369678367
 21
115.789909371
 31
0.0
  0
LINE
  5
2D5
330
1F
100
AcDbEntity
  8
0
  6
Continuous
 62
     7
370
    15
100
AcDbLine
 10
84.2966064747
 20
115.7930460654
 30
0.0
 11
84.2369678367
 21
115.789909371
 31
0.0
  0
LWPOLYLINE
  5
2D6
330
1F
100
AcDbEntity
  8
0
  6
Continuous
 62
     7
370
    15
100
AcDbPolyline
 90
        3
 70
   128
 43
0.0
 10
84.4728210878
 20
117.3280891858
 10
84.40166944
 20
117.3459929309
 10
84.3988014322
 20
117.3462127231
  0
ARC
  5
2D7
330
1F
100
AcDbEntity
  8
0
  6
Continuous
 62
     7
370
    15
100
AcDbCircle
 10
84.699230492
 20
117.8496268467
 30
0.0
 40
0.5685620019671936
100
AcDbArc
 50
246.5334195567
 51
269.9956596388
  0
ARC
  5
2D8
330
1F
100
AcDbEntity
  8
0
  6
Continuous
 62
     7
370
    15
100
AcDbCircle
 10
85.0859523096
 20
115.3146986135
 30
0.0
 40
0.2259636987508969
100
AcDbArc
 50
274.0515087016
 51
336.0353637053
  0
ARC
  5
2D9
330
1F
100
AcDbEntity
  8
0
  6
Continuous
 62
     7
370
    15
100
AcDbCircle
 10
85.8119727682
 20
114.9919855764
 30
0.0
 40
0.5685483594545268
100
AcDbArc
 50
90.004614636
 51
156.0349315555
  0
ARC
  5
2DA
330
1F
100
AcDbEntity
  8
0
  6
Continuous
 62
     7
370
    15
100
AcDbCircle
 10
85.4251216423
 20
117.5268766736
 30
0.0
 40
0.2259876072467161
100
AcDbArc
 50
6.5238927404
 51
85.9472158187
  0
ARC
  5
2DB
330
1F
100
AcDbEntity
  8
0
  6
Continuous
 62
     7
370
    15
100
AcDbCircle
 10
86.2145861064
 20
117.6171792585
 30
0.0
 40
0.5686246863443535
100
AcDbArc
 50
186.5259919707
 51
269.9920752238
  0
ARC
  5
2DC
330
1F
100
AcDbEntity
  8
0
  6
Continuous
 62
     7
370
    15
100
AcDbCircle
 10
86.771197711
 20
116.188281388
 30
0.0
 40
0.5688841403695623
100
AcDbArc
 50
126.5539527093
 51
216.0112554452
  0
ARC
  5
2DD
330
1F
100
AcDbEntity
  8
0
  6
Continuous
 62
     7
370
    15
100
AcDbCircle
 10
86.1281808304
 20
115.7208776118
 30
0.0
 40
0.2260605120833961
100
AcDbArc
 50
274.0658970042
 51
36.0177429023
  0
ARC
  5
2DE
330
1F
100
AcDbEntity
  8
0
  6
Continuous
 62
     7
370
    15
100
AcDbCircle
 10
86.2977720135
 20
116.8268796094
 30
0.0
 40
0.2260621361072385
100
AcDbArc
 50
306.5451220407
 51
85.9348767798
  0
ARC
  5
2DF
330
1F
100
AcDbEntity
  8
0
  6
Continuous
 62
     7
370
    15
100
AcDbCircle
 10
85.2157128671
 20
116.4224923656
 30
0.0
 40
2.698307094718716
100
AcDbArc
 50
90.0005630959
 51
119.0356120817
  0
ARC
  5
2E0
330
1F
100
AcDbEntity
  8
0
  6
Continuous
 62
     7
370
    15
100
AcDbCircle
 10
85.2159008653
 20
116.4197229294
 30
0.0
 40
2.698923617758085
100
AcDbArc
 50
212.6288214313
 51
269.9954459963
  0
LINE
  5
2E1
330
1F
100
AcDbEntity
  8
0
  6
Continuous
 62
     7
370
    15
100
AcDbLine
 10
80.3714141885
 20
116.5613536618
 30
0.0
 11
81.8614563841
 21
125.0118021749
 31
0.0
  0
LWPOLYLINE
  5
2E2
330
1F
100
AcDbEntity
  8
0
  6
Continuous
 62
     7
370
    15
100
AcDbPolyline
 90
        3
 70
   128
 43
0.0
 10
80.2685803438
 20
115.9929376922
 10
80.2912259178
 20
116.1155723862
 10
80.3714141885
 20
116.5613536618
  0
LINE
  5
2E3
330
1F
100
AcDbEntity
  8
0
  6
Continuous
 62
     7
370
    15
100
AcDbLine
 10
81.8890312158
 20
125.1829718135
 30
0.0
 11
81.8614563841
 21
125.0118021749
 31
0.0
  0
LINE
  5
2E4
330
1F
100
AcDbEntity
  8
0
  6
Continuous
 62
     7
370
    15
100
AcDbLine
 10
84.5195259836
 20
124.5431122265
 30
0.0
 11
81.8614563841
 21
125.0118021749
 31
0.0
  0
LINE
  5
2E5
330
1F
100
AcDbEntity
  8
0
  6
Continuous
 62
     7
370
    15
100
AcDbLine
 10
83.8273079071
 20
120.617349156
 30
0.0
 11
84.5195259836
 21
124.5431122265
 31
0.0
  0
LINE
  5
2E6
330
1F
100
AcDbEntity
  8
0
  6
Continuous
 62
     7
370
    15
100
AcDbLine
 10
81.8175135583
 20
116.3063668541
 30
0.0
 11
83.8273079071
 21
120.617349156
 31
0.0
  0
LINE
  5
2E7
330
1F
100
AcDbEntity
  8
0
  6
Continuous
 62
     7
370
    15
100
AcDbLine
 10
84.5195259836
 20
124.5431122265
 30
0.0
 11
85.1523326647
 21
125.3289137862
 31
0.0
  0
LINE
  5
2E8
330
1F
100
AcDbEntity
  8
0
  6
Continuous
 62
     7
370
    15
100
AcDbLine
 10
85.1523326647
 20
125.3289137862
 30
0.0
 11
85.3972877312
 21
126.8494655274
 31
0.0
  0
ELLIPSE
  5
2E9
330
1F
100
AcDbEntity
  8
0
  6
Continuous
 62
     7
370
    15
100
AcDbEllipse
 10
81.7723997745
 20
116.3143213264
 30
0.0
 11
0.7657922570394646
 21
1.641928660910636
 31
0.0
210
0.0
220
0.0
230
1.0
 40
0.0244235004
 41
3.148138759942577
 42
4.718935086737305
  0
LINE
  5
2EA
330
1F
100
AcDbEntity
  8
0
  6
Continuous
 62
     7
370
    15
100
AcDbLine
 10
85.1523326647
 20
125.3289137862
 30
0.0
 11
84.6306853864
 21
122.370504298
 31
0.0
  0
LINE
  5
2EB
330
1F
100
AcDbEntity
  8
0
  6
Continuous
 62
     7
370
    15
100
AcDbLine
 10
83.8273079071
 20
120.617349156
 30
0.0
 11
84.6306853864
 21
122.370504298
 31
0.0
  0
LINE
  5
2EC
330
1F
100
AcDbEntity
  8
0
  6
Continuous
 62
     7
370
    15
100
AcDbLine
 10
82.2886188917
 20
127.4491478584
 30
0.0
 11
85.4038577463
 21
126.8998463533
 31
0.0
  0
ARC
  5
2ED
330
1F
100
AcDbEntity
  8
0
  6
Continuous
 62
     7
370
    15
100
AcDbCircle
 10
85.0341021671
 20
126.922446288
 30
0.0
 40
0.3704456038452855
100
AcDbArc
 50
348.6379486299
 51
356.5023597346
  0
ELLIPSE
  5
2EE
330
1F
100
AcDbEntity
  8
0
  6
Continuous
 62
     7
370
    15
100
AcDbEllipse
 10
81.3926485104
 20
114.8423575475
 30
0.0
 11
0.3129564152678341
 21
-0.02428101262377425
 31
0.0
210
0.0
220
0.0
230
1.0
 40
0.545776847
 41
1.394179254700586
 42
2.365188780765247
  0
ELLIPSE
  5
2EF
330
1F
100
AcDbEntity
  8
0
  6
Continuous
 62
     7
370
    15
100
AcDbEllipse
 10
84.3746271
 20
121.2386618765
 30
0.0
 11
0.2012775113958299
 21
1.141501491077051
 31
0.0
210
0.0
220
0.0
230
1.0
 40
0.0067750928
 41
0.6427504097599883
 42
1.570796326794916
  0
LINE
  5
2F0
330
1F
100
AcDbEntity
  8
0
  6
Continuous
 62
     7
370
    15
100
AcDbLine
 10
82.9606223788
 20
114.9788745574
 30
0.0
 11
82.7209846985
 21
114.7840139351
 31
0.0
  0
LINE
  5
2F1
330
1F
100
AcDbEntity
  8
0
  6
Continuous
 62
     7
370
    15
100
AcDbLine
 10
81.4606808063
 20
115.0062386773
 30
0.0
 11
82.7209846985
 21
114.7840139351
 31
0.0
  0
LINE
  5
2F2
330
1F
100
AcDbEntity
  8
0
  6
Continuous
 62
     7
370
    15
100
AcDbLine
 10
84.3668933894
 20
121.2400239788
 30
0.0
 11
83.9334195416
 21
118.7816713832
 31
0.0
  0
LINE
  5
2F3
330
1F
100
AcDbEntity
  8
0
  6
Continuous
 62
     7
370
    15
100
AcDbLine
 10
111.0149887327
 20
97.4570573203
 30
0.0
 11
111.0149887327
 21
94.0305660374
 31
0.0
  0
LINE
  5
2F4
330
1F
100
AcDbEntity
  8
0
  6
Continuous
 62
     7
370
    15
100
AcDbLine
 10
111.0149887327
 20
94.0305660374
 30
0.0
 11
74.0366671171
 21
100.5508419953
 31
0.0
  0
LINE
  5
2F5
330
1F
100
AcDbEntity
  8
0
  6
Continuous
 62
     7
370
    15
100
AcDbLine
 10
74.0366671171
 20
100.5508419953
 30
0.0
 11
76.4805020235
 21
114.4203175686
 31
0.0
  0
LINE
  5
2F6
330
1F
100
AcDbEntity
  8
0
  6
Continuous
 62
     7
370
    15
100
AcDbLine
 10
83.0272291724
 20
113.2659525506
 30
0.0
 11
76.4805020235
 21
114.4203175686
 31
0.0
  0
LINE
  5
2F7
330
1F
100
AcDbEntity
  8
0
  6
Continuous
 62
     7
370
    15
100
AcDbLine
 10
83.2490445983
 20
114.5248175494
 30
0.0
 11
83.0272291724
 21
113.2659525506
 31
0.0
  0
ARC
  5
2F8
330
1F
100
AcDbEntity
  8
0
  6
Continuous
 62
     7
370
    15
100
AcDbCircle
 10
85.3087927832
 20
116.4209947498
 30
0.0
 40
2.799651864208531
100
AcDbArc
 50
222.6322628435
 51
117.3815857019
  0
LINE
  5
2F9
330
1F
100
AcDbEntity
  8
0
  6
Continuous
 62
     7
370
    15
100
AcDbLine
 10
85.1472131845
 20
125.2974797867
 30
0.0
 11
84.0211925033
 21
118.9069826983
 31
0.0
  0
LINE
  5
2FA
330
1F
100
AcDbEntity
  8
0
  6
Continuous
 62
     7
370
    15
100
AcDbLine
 10
98.3255137626
 20
122.9737889848
 30
0.0
 11
85.1472131845
 21
125.2974797867
 31
0.0
  0
ARC
  5
2FB
330
1F
100
AcDbEntity
  8
0
  6
Continuous
 62
     7
370
    15
100
AcDbCircle
 10
79.0149872128
 20
97.457057216
 30
0.0
 40
32.00000000000001
100
AcDbArc
 50
0.0
 51
52.8823283263
  0
SPLINE
  5
2FC
330
1F
100
AcDbEntity
  8
0
  6
Continuous
 62
     7
370
    15
100
AcDbSpline
210
0.0
220
0.0
230
1.0
 70
     8
 71
     3
 72
    12
 73
     8
 74
     0
 42
0.00000001
 43
0.00000001
 12
1.0
 22
0.0
 32
0.0
 13
1.0
 23
0.0
 33
0.0
 40
0.0
 40
0.0
 40
0.0
 40
0.0
 40
0.2499999999999989
 40
0.2499999999999989
 40
0.4999999999999978
 40
0.4999999999999978
 40
1.0
 40
1.0
 40
1.0
 40
1.0
 10
96.76787594347897
 20
58.83310293199953
 30
0.0
 10
96.5438534715947
 20
58.78982174563841
 30
0.0
 10
96.32381268041858
 20
58.73333934808164
 30
0.0
 10
95.89607233591754
 20
58.60583087943211
 30
0.0
 10
95.68705652785552
 20
58.5343043670051
 30
0.0
 10
95.07162889308411
 20
58.3011204911714
 30
0.0
 10
94.67578018129156
 20
58.12255062108584
 30
0.0
 10
94.29898881214876
 20
57.91346821398972
 30
0.0
  0
ARC
  5
2FD
330
1F
100
AcDbEntity
  8
0
  6
Continuous
 62
     7
370
    15
100
AcDbCircle
 10
79.0149872128
 20
85.457057216
 30
0.0
 40
31.50000000000003
100
AcDbArc
 50
243.6412893555
 51
299.0259960573
  0
ELLIPSE
  5
2FE
330
1F
100
AcDbEntity
  8
0
  6
Continuous
 62
     7
370
    15
100
AcDbEllipse
 10
60.3504728523
 20
61.7188440569
 30
0.0
 11
1.799671654727526
 21
8.467223621562873
 31
0.0
210
0.0
220
0.0
230
1.0
 40
0.692674477
 41
4.306729481443899
 42
4.736565762441276
  0
LINE
  5
2FF
330
1F
100
AcDbEntity
  8
0
  6
Continuous
 62
     7
370
    15
100
AcDbLine
 10
66.2572947267
 20
60.6773127697
 30
0.0
 11
74.0366671171
 21
100.5508419953
 31
0.0
  0
LINE
  5
300
330
1F
100
AcDbEntity
  8
0
  6
Continuous
 62
     7
370
    15
100
AcDbLine
 10
111.0149887327
 20
94.0305660374
 30
0.0
 11
111.0149887327
 21
85.457057216
 31
0.0
  0
ARC
  5
301
330
1F
100
AcDbEntity
  8
0
  6
Continuous
 62
     7
370
    15
100
AcDbCircle
 10
79.0149872128
 20
85.457057216
 30
0.0
 40
32.00000000000002
100
AcDbArc
 50
303.6954096915
 51
0.0
  0
LWPOLYLINE
  5
302
330
1F
100
AcDbEntity
  8
0
  6
Continuous
 62
     7
370
    15
100
AcDbPolyline
 90
        3
 70
   128
 43
0.0
 10
76.7765033461
 20
118.2480458997
 10
76.7799788091
 20
118.2750728808
 10
76.7836787209
 20
118.3032658778
  0
LINE
  5
303
330
1F
100
AcDbEntity
  8
0
  6
Continuous
 62
     7
370
    15
100
AcDbLine
 10
76.4805020235
 20
114.4203175686
 30
0.0
 11
76.5207193263
 21
114.7298035107
 31
0.0
  0
LINE
  5
304
330
1F
100
AcDbEntity
  8
0
  6
Continuous
 62
     7
370
    15
100
AcDbLine
 10
76.1784096472
 20
116.8290802256
 30
0.0
 11
76.1580403818
 21
116.8272318219
 31
0.0
  0
SPLINE
  5
305
330
1F
100
AcDbEntity
  8
0
  6
Continuous
 62
     7
370
    15
100
AcDbSpline
210
0.0
220
0.0
230
1.0
 70
     8
 71
     3
 72
    10
 73
     6
 74
     0
 42
0.00000001
 43
0.00000001
 12
1.0
 22
0.0
 32
0.0
 13
1.0
 23
0.0
 33
0.0
 40
0.0
 40
0.0
 40
0.0
 40
0.0
 40
0.5
 40
0.5
 40
1.0
 40
1.0
 40
1.0
 40
1.0
 10
76.17840964719512
 20
116.8290802255756
 30
0.0
 10
76.18442783605718
 20
116.829624374721
 30
0.0
 10
76.20403913448692
 20
116.9079247312996
 30
0.0
 10
76.26168581964059
 20
117.1827426811478
 30
0.0
 10
76.29870308929061
 20
117.3740761891597
 30
0.0
 10
76.3377152878026
 20
117.5868870382239
 30
0.0
  0
SPLINE
  5
306
330
1F
100
AcDbEntity
  8
0
  6
Continuous
 62
     7
370
    15
100
AcDbSpline
210
0.0
220
0.0
230
1.0
 70
     8
 71
     3
 72
     8
 73
     4
 74
     0
 42
0.00000001
 43
0.00000001
 12
1.0
 22
0.0
 32
0.0
 13
1.0
 23
0.0
 33
0.0
 40
0.0
 40
0.0
 40
0.0
 40
0.0
 40
1.0
 40
1.0
 40
1.0
 40
1.0
 10
76.3377152878026
 20
117.5868870382239
 30
0.0
 10
76.91642697122717
 20
120.7437489791154
 30
0.0
 10
77.49498595966016
 20
123.8985700329832
 30
0.0
 10
78.07347653671724
 20
127.0524767157384
 30
0.0
  0
LINE
  5
307
330
1F
100
AcDbEntity
  8
0
  6
Continuous
 62
     7
370
    15
100
AcDbLine
 10
78.3450981189
 20
127.0045828901
 30
0.0
 11
78.0734765513
 21
127.0524752222
 31
0.0
  0
LINE
  5
308
330
1F
100
AcDbEntity
  8
0
  6
Continuous
 62
     7
370
    15
100
AcDbLine
 10
83.1908169139
 20
114.5248175494
 30
0.0
 11
83.0272291724
 21
113.2659525506
 31
0.0
  0
ELLIPSE
  5
309
330
1F
100
AcDbEntity
  8
0
  6
Continuous
 62
     7
370
    15
100
AcDbEllipse
 10
85.1491436917
 20
116.4207999098
 30
0.0
 11
-1.850161824623925
 21
2.171756351264492
 31
0.0
210
0.0
220
0.0
230
1.0
 40
0.9552328656
 41
1.456961257553857
 42
1.631572200836441
  0
LINE
  5
30A
330
1F
100
AcDbEntity
  8
0
  6
Continuous
 62
     7
370
    15
100
AcDbLine
 10
83.1908169139
 20
114.5248175494
 30
0.0
 11
83.2490445983
 21
114.5248175494
 31
0.0
  0
ARC
  5
30B
330
1F
100
AcDbEntity
  8
0
  6
Continuous
 62
     7
370
    15
100
AcDbCircle
 10
85.2149836539
 20
116.4208003215
 30
0.0
 40
2.80000091965969
100
AcDbArc
 50
270.0143790774
 51
89.9856209226
  0
LINE
  5
30C
330
1F
100
AcDbEntity
  8
0
  6
Continuous
 62
     7
370
    15
100
AcDbLine
 10
84.0211925033
 20
118.9069826983
 30
0.0
 11
83.9555151697
 21
118.9069826983
 31
0.0
  0
LINE
  5
30D
330
1F
100
AcDbEntity
  8
0
  6
Continuous
 62
     7
370
    15
100
AcDbLine
 10
85.1472131845
 20
125.2974797867
 30
0.0
 11
85.1495535981
 21
125.313152083
 31
0.0
  0
LINE
  5
30E
330
1F
100
AcDbEntity
  8
0
  6
Continuous
 62
     7
370
    15
100
AcDbLine
 10
85.2267979581
 20
125.7911515318
 30
0.0
 11
97.4072334293
 21
123.6434136413
 31
0.0
  0
ARC
  5
30F
330
1F
100
AcDbEntity
  8
0
  6
Continuous
 62
     7
370
    15
100
AcDbCircle
 10
79.0149872128
 20
97.457057216
 30
0.0
 40
32.00000000000001
100
AcDbArc
 50
52.8823283263
 51
54.9173339626
  0
SPLINE
  5
310
330
1F
100
AcDbEntity
  8
0
  6
Continuous
 62
     7
370
    15
100
AcDbSpline
210
0.0
220
0.0
230
1.0
 70
     8
 71
     3
 72
    20
 73
    16
 74
     0
 42
0.00000001
 43
0.00000001
 12
1.0
 22
0.0
 32
0.0
 13
1.0
 23
0.0
 33
0.0
 40
0.0
 40
0.0
 40
0.0
 40
0.0
 40
0.2499999999999986
 40
0.2499999999999986
 40
0.3749999999999989
 40
0.3749999999999989
 40
0.4999999999999992
 40
0.4999999999999992
 40
0.6249999999999994
 40
0.6249999999999994
 40
0.7499999999999996
 40
0.7499999999999996
 40
0.8749999999999998
 40
0.8749999999999998
 40
1.0
 40
1.0
 40
1.0
 40
1.0
 10
71.50726509878558
 20
116.049280225417
 30
0.0
 10
72.13412512006354
 20
116.2031196781002
 30
0.0
 10
72.72902832000109
 20
116.3287120922088
 30
0.0
 10
73.56647473600542
 20
116.4835668535497
 30
0.0
 10
73.83283581088384
 20
116.5288770741017
 30
0.0
 10
74.32738213903664
 20
116.6073227223985
 30
0.0
 10
74.55753767728532
 20
116.6408181157685
 30
0.0
 10
74.98165226345056
 20
116.6985041959645
 30
0.0
 10
75.17511802116942
 20
116.7225927168982
 30
0.0
 10
75.50930817085826
 20
116.7618255432316
 30
0.0
 10
75.65232781278011
 20
116.7772851694984
 30
0.0
 10
75.88903120185044
 20
116.8017945145841
 30
0.0
 10
75.98243077186429
 20
116.8108101594872
 30
0.0
 10
76.11180973404828
 20
116.8230544540212
 30
0.0
 10
76.14905047452834
 20
116.8264130923965
 30
0.0
 10
76.15804038184974
 20
116.8272318218921
 30
0.0
  0
SPLINE
  5
311
330
1F
100
AcDbEntity
  8
0
  6
Continuous
 62
     7
370
    15
100
AcDbSpline
210
0.0
220
0.0
230
1.0
 70
     8
 71
     3
 72
    14
 73
    10
 74
     0
 42
0.00000001
 43
0.00000001
 12
1.0
 22
0.0
 32
0.0
 13
1.0
 23
0.0
 33
0.0
 40
0.0
 40
0.0
 40
0.0
 40
0.0
 40
0.2499999999999998
 40
0.2499999999999998
 40
0.4999999999999996
 40
0.4999999999999996
 40
0.7499999999999993
 40
0.7499999999999993
 40
1.0
 40
1.0
 40
1.0
 40
1.0
 10
65.0293153682909
 20
57.23205087306091
 30
0.0
 10
64.84889013393172
 20
57.32145273499695
 30
0.0
 10
64.63088814652285
 20
57.43152318490819
 30
0.0
 10
64.1211144703563
 20
57.6990778513514
 30
0.0
 10
63.83868664820339
 20
57.85173922673917
 30
0.0
 10
63.22614703638747
 20
58.19744962530113
 30
0.0
 10
62.8927197096819
 20
58.39263703265968
 30
0.0
 10
62.20994058675218
 20
58.81121781847195
 30
0.0
 10
61.85792747683227
 20
59.03596667009422
 30
0.0
 10
61.4968796450115
 20
59.27756319406267
 30
0.0
  0
ELLIPSE
  5
312
330
1F
100
AcDbEntity
  8
0
  6
Continuous
 62
     7
370
    15
100
AcDbEllipse
 10
63.6867525705
 20
101.6288406571
 30
0.0
 11
2.29485883119348
 21
2.689707100225107
 31
0.0
210
0.0
220
0.0
230
1.0
 40
0.6895695935
 41
0.0
 42
6.283185307179586
  0
ARC
  5
313
330
1F
100
AcDbEntity
  8
0
  6
Continuous
 62
     7
370
    15
100
AcDbCircle
 10
79.0149872128
 20
85.457057216
 30
0.0
 40
31.50000000000001
100
AcDbArc
 50
103.7886091979
 51
236.2113908021
  0
DIMENSION
  5
314
330
1F
100
AcDbEntity
  8
VERMASSUNG
100
AcDbDimension
  2
_D_4
 10
76.4805019661
 20
114.4203171803
 30
0.0
 11
71.642508567
 21
44.477768983
 31
0.0
 70
   162
  1
<>
 71
     1
 42
-1.0
  3
SLDDIMSTYLE2
100
AcDb2LineAngularDimension
 13
79.0149872128
 23
132.2566553832
 33
0.0
 14
79.0149872128
 24
51.457057216
 34
0.0
 15
74.0366671164
 25
100.550841934
 35
0.0
 16
71.642508567
 26
44.477768983
 36
0.0
  0
INSERT
  5
32A
330
1F
100
AcDbEntity
  8
VERMASSUNG
100
AcDbBlockReference
  2
SW_CENTERMARKSYMBOL_0
 10
79.0149872128
 20
85.457057216
 30
0.0
  0
LINE
  5
32B
330
1F
100
AcDbEntity
  8
0
  6
Continuous
 62
     7
370
    15
100
AcDbLine
 10
128.6236260498
 20
167.8606200706
 30
0.0
 11
128.8378189293
 21
175.9160481694
 31
0.0
  0
LINE
  5
32C
330
1F
100
AcDbEntity
  8
0
  6
Continuous
 62
     7
370
    15
100
AcDbLine
 10
125.6639407316
 20
176.0004412149
 30
0.0
 11
125.4497478521
 21
167.9450131162
 31
0.0
  0
LINE
  5
32D
330
1F
100
AcDbEntity
  8
0
  6
Continuous
 62
     7
370
    15
100
AcDbLine
 10
125.4733037529
 20
167.8957959857
 30
0.0
 11
125.7776692114
 21
167.584630792
 31
0.0
  0
LINE
  5
32E
330
1F
100
AcDbEntity
  8
0
  6
Continuous
 62
     7
370
    15
100
AcDbLine
 10
128.2770165518
 20
167.5181734421
 30
0.0
 11
128.5974879284
 21
167.8127242983
 31
0.0
  0
LINE
  5
32F
330
1F
100
AcDbEntity
  8
0
  6
Continuous
 62
     7
370
    15
100
AcDbLine
 10
124.6012161999
 20
179.2311505012
 30
0.0
 11
125.8881519093
 21
176.9083237063
 31
0.0
  0
LINE
  5
330
330
1F
100
AcDbEntity
  8
0
  6
Continuous
 62
     7
370
    15
100
AcDbLine
 10
128.6621714364
 20
176.8345628554
 30
0.0
 11
130.0707287525
 21
179.0857168099
 31
0.0
  0
LINE
  5
331
330
1F
100
AcDbEntity
  8
0
  6
Continuous
 62
     7
370
    15
100
AcDbLine
 10
130.0862921201
 20
179.1339002907
 30
0.0
 11
130.0932726397
 21
179.3964256997
 31
0.0
  0
LINE
  5
332
330
1F
100
AcDbEntity
  8
0
  6
Continuous
 62
     7
370
    15
100
AcDbLine
 10
124.5952159192
 20
179.5426183771
 30
0.0
 11
124.5882353997
 21
179.280092968
 31
0.0
  0
LINE
  5
333
330
1F
100
AcDbEntity
  8
0
  6
Continuous
 62
     7
370
    15
100
AcDbLine
 10
129.9658980326
 20
179.545604502
 30
0.0
 11
129.7492264742
 21
179.6704779366
 31
0.0
  0
LINE
  5
334
330
1F
100
AcDbEntity
  8
0
  6
Continuous
 62
     7
370
    15
100
AcDbLine
 10
124.9533396683
 20
179.797999999
 30
0.0
 11
124.7303382286
 21
179.6848174174
 31
0.0
  0
LINE
  5
335
330
1F
100
AcDbEntity
  8
0
  6
Continuous
 62
     7
370
    15
100
AcDbLine
 10
128.6414487154
 20
176.0552167374
 30
0.0
 11
128.6624980399
 21
176.846845854
 31
0.0
  0
LINE
  5
336
330
1F
100
AcDbEntity
  8
0
  6
Continuous
 62
     7
370
    15
100
AcDbLine
 10
125.8884785128
 20
176.9206067048
 30
0.0
 11
125.8674291883
 21
176.1289775883
 31
0.0
  0
LINE
  5
337
330
1F
100
AcDbEntity
  8
0
  6
Continuous
 62
     7
370
    15
100
AcDbLine
 10
130.5956698874
 20
154.0245442221
 30
0.0
 11
128.2140116808
 21
154.0878722319
 31
0.0
  0
LINE
  5
338
330
1F
100
AcDbEntity
  8
0
  6
Continuous
 62
     7
370
    15
100
AcDbLine
 10
128.0704770521
 20
148.6897801791
 30
0.0
 11
130.4521352587
 21
148.6264521693
 31
0.0
  0
LINE
  5
339
330
1F
100
AcDbEntity
  8
0
  6
Continuous
 62
     7
370
    15
100
AcDbLine
 10
130.4521352587
 20
148.6264521693
 30
0.0
 11
130.7779623831
 21
148.9354006845
 31
0.0
  0
LINE
  5
33A
330
1F
100
AcDbEntity
  8
0
  6
Continuous
 62
     7
370
    15
100
AcDbLine
 10
130.9046184026
 20
153.6987170978
 30
0.0
 11
130.5956698874
 21
154.0245442221
 31
0.0
  0
LINE
  5
33B
330
1F
100
AcDbEntity
  8
0
  6
Continuous
 62
     7
370
    15
100
AcDbLine
 10
124.1689372886
 20
149.9064148709
 30
0.0
 11
128.1000478437
 21
149.8018871066
 31
0.0
  0
LINE
  5
33C
330
1F
100
AcDbEntity
  8
0
  6
Continuous
 62
     7
370
    15
100
AcDbLine
 10
128.1844408892
 20
152.9757653043
 30
0.0
 11
124.2533303341
 21
153.0802930686
 31
0.0
  0
LINE
  5
33D
330
1F
100
AcDbEntity
  8
0
  6
Continuous
 62
     7
370
    15
100
AcDbLine
 10
124.2533303341
 20
153.0802930686
 30
0.0
 11
123.9275032098
 21
152.7713445534
 31
0.0
  0
LINE
  5
33E
330
1F
100
AcDbEntity
  8
0
  6
Continuous
 62
     7
370
    15
100
AcDbLine
 10
123.8599887733
 20
150.2322419952
 30
0.0
 11
124.1689372886
 21
149.9064148709
 31
0.0
  0
LINE
  5
33F
330
1F
100
AcDbEntity
  8
0
  6
Continuous
 62
     7
370
    15
100
AcDbLine
 10
119.1785645992
 20
159.3599988268
 30
0.0
 11
119.6578802819
 21
158.8699748998
 31
0.0
  0
LINE
  5
340
330
1F
100
AcDbEntity
  8
0
  6
Continuous
 62
     7
370
    15
100
AcDbLine
 10
119.2299524881
 20
162.0583723855
 30
0.0
 11
119.1592747276
 21
159.4003026187
 31
0.0
  0
LWPOLYLINE
  5
341
330
1F
100
AcDbEntity
  8
0
  6
Continuous
 62
     7
370
    15
100
AcDbPolyline
 90
       30
 70
   128
 43
0.0
 10
128.5974879284
 20
167.8127242983
 10
128.609620591
 20
167.82568862
 10
128.6235662112
 20
167.8591829855
 10
128.6134563595
 20
167.893338792
 10
128.5794442909
 20
167.9276382723
 10
128.5220455935
 20
167.9615614812
 10
128.4421303732
 20
167.9945941776
 10
128.3409100633
 20
168.0262356193
 10
128.2199190604
 20
168.0560061543
 10
128.0809914649
 20
168.0834544918
 10
127.9262332774
 20
168.1081645429
 10
127.7579904744
 20
168.1297617284
 10
127.5788134453
 20
168.1479186569
 10
127.3914183311
 20
168.1623600881
 10
127.1986458507
 20
168.1728671044
 10
127.0034182386
 20
168.1792804302
 10
126.8086949462
 20
168.1815028461
 10
126.6174277802
 20
168.1795006625
 10
126.4325161558
 20
168.1733042304
 10
126.2567631449
 20
168.1630074815
 10
126.0928329838
 20
168.1487665039
 10
125.9432106868
 20
168.1307971764
 10
125.8101643753
 20
168.1093718957
 10
125.6957108958
 20
168.0848154471
 10
125.6015852464
 20
168.0575000814
 10
125.529214276
 20
168.0278398717
 10
125.4796950546
 20
167.9962844365
 10
125.4537782434
 20
167.9633121242
 10
125.4518567146
 20
167.9294227612
 10
125.4733037529
 20
167.8957959857
  0
ARC
  5
342
330
1F
100
AcDbEntity
  8
0
  6
Continuous
 62
     7
370
    15
100
AcDbCircle
 10
127.160486714
 20
172.5587140834
 30
0.0
 40
3.753016856510996
100
AcDbArc
 50
63.4531757025
 51
113.5005660969
  0
LWPOLYLINE
  5
343
330
1F
100
AcDbEntity
  8
0
  6
Continuous
 62
     7
370
    15
100
AcDbPolyline
 90
       46
 70
   128
 43
0.0
 10
126.6689509093
 20
167.3880054687
 10
126.8419093354
 20
167.3769143533
 10
127.0184971185
 20
167.3699755205
 10
127.1952771783
 20
167.367324027
 10
127.3688086921
 20
167.369011481
 10
127.5357140662
 20
167.3750050381
 10
127.6927446775
 20
167.3851880406
 10
127.8368441038
 20
167.399362288
 10
127.9652076135
 20
167.4172518945
 10
128.075336757
 20
167.4385086594
 10
128.1650879958
 20
167.4627188439
 10
128.2327144242
 20
167.4894112243
 10
128.2768997705
 20
167.5180662638
 10
128.2967840173
 20
167.5481262246
 10
128.2919801404
 20
167.5790060239
 10
128.2625816418
 20
167.6101046213
 10
128.2091607297
 20
167.6408167182
 10
128.1327571815
 20
167.6705445385
 10
128.0348581054
 20
167.6987094639
 10
127.9173689955
 20
167.7247632962
 10
127.7825766436
 20
167.7481989273
 10
127.6331046296
 20
167.7685602092
 10
127.4718622562
 20
167.7854508327
 10
127.3019879229
 20
167.7985420411
 10
127.1267880402
 20
167.8075790288
 10
126.9496726746
 20
167.8123859012
 10
126.7740891752
 20
167.812869098
 10
126.6034550752
 20
167.8090192143
 10
126.4410915731
 20
167.8009111838
 10
126.2901588899
 20
167.7887028199
 10
126.1535947585
 20
167.7726317447
 10
126.0340572445
 20
167.7530107632
 10
125.9338730096
 20
167.7302217757
 10
125.8549920259
 20
167.7047083438
 10
125.7989496221
 20
167.6769670575
 10
125.7668365998
 20
167.6475378693
 10
125.7592780025
 20
167.6169935849
 10
125.7764209496
 20
167.5859287141
 10
125.8179317733
 20
167.5549478992
 10
125.8830025124
 20
167.5246541466
 10
125.9703666392
 20
167.4956370896
 10
126.0783237103
 20
167.4684615124
 10
126.204772464
 20
167.4436563566
 10
126.3472517192
 20
167.4217044263
 10
126.5029882793
 20
167.4030329909
 10
126.6689509093
 20
167.3880054687
  0
ARC
  5
344
330
1F
100
AcDbEntity
  8
0
  6
Continuous
 62
     7
370
    15
100
AcDbCircle
 10
127.1968512584
 20
173.926322443
 30
0.0
 40
3.267656267395183
100
AcDbArc
 50
63.3504942336
 51
113.6032475658
  0
LWPOLYLINE
  5
345
330
1F
100
AcDbEntity
  8
0
  6
Continuous
 62
     7
370
    15
100
AcDbPolyline
 90
       38
 70
   128
 43
0.0
 10
130.0707287525
 20
179.0857168099
 10
130.0783793906
 20
179.1000359767
 10
130.0858884751
 20
179.1445893805
 10
130.0692425469
 20
179.1896912213
 10
130.0285878908
 20
179.2349451428
 10
129.9642817814
 20
179.2799534517
 10
129.8768893433
 20
179.3243206134
 10
129.7671785842
 20
179.3676567278
 10
129.6361136462
 20
179.4095809554
 10
129.4848463328
 20
179.4497248646
 10
129.3147059866
 20
179.4877356695
 10
129.1271878069
 20
179.5232793295
 10
128.9239397104
 20
179.5560434858
 10
128.7067478485
 20
179.5857402058
 10
128.4775209113
 20
179.6121085136
 10
128.2382733531
 20
179.6349166835
 10
127.9911076903
 20
179.6539642767
 10
127.7381960236
 20
179.6690839021
 10
127.4817609496
 20
179.680142688
 10
127.2240560292
 20
179.6870434493
 10
126.9673459824
 20
179.6897255418
 10
126.7138867863
 20
179.6881653953
 10
126.4659058495
 20
179.6823767204
 10
126.2255824373
 20
179.6724103882
 10
125.9950285205
 20
179.6583539831
 10
125.7762702153
 20
179.6403310334
 10
125.5712299775
 20
179.6184999253
 10
125.3817097081
 20
179.5930525115
 10
125.209374918
 20
179.5642124247
 10
125.0557400915
 20
179.5322331127
 10
124.9221553771
 20
179.4973956107
 10
124.809794722
 20
179.4600060721
 10
124.7196455557
 20
179.4203930773
 10
124.6525001123
 20
179.378904747
 10
124.6089484683
 20
179.3359056819
 10
124.5893733572
 20
179.2917737594
 10
124.5939468058
 20
179.2468968124
 10
124.6012161999
 20
179.2311505012
  0
LWPOLYLINE
  5
346
330
1F
100
AcDbEntity
  8
0
  6
Continuous
 62
     7
370
    15
100
AcDbPolyline
 90
       36
 70
   128
 43
0.0
 10
130.0932726397
 20
179.3964256997
 10
130.0928689947
 20
179.4071147895
 10
130.0762230664
 20
179.4522166304
 10
130.0355684103
 20
179.4974705519
 10
129.971262301
 20
179.5424788608
 10
129.8838698628
 20
179.5868460225
 10
129.7741591037
 20
179.6301821368
 10
129.6430941658
 20
179.6721063644
 10
129.4918268524
 20
179.7122502737
 10
129.3216865061
 20
179.7502610785
 10
129.1341683265
 20
179.7858047386
 10
128.9309202299
 20
179.8185688948
 10
128.7137283681
 20
179.8482656148
 10
128.4845014308
 20
179.8746339226
 10
128.2452538727
 20
179.8974420926
 10
127.9980882099
 20
179.9164896858
 10
127.7451765431
 20
179.9316093112
 10
127.4887414692
 20
179.942668097
 10
127.2310365488
 20
179.9495688583
 10
126.9743265019
 20
179.9522509509
 10
126.7208673058
 20
179.9506908044
 10
126.472886369
 20
179.9449021295
 10
126.2325629568
 20
179.9349357973
 10
126.0020090401
 20
179.9208793922
 10
125.7832507349
 20
179.9028564424
 10
125.5782104971
 20
179.8810253344
 10
125.3886902277
 20
179.8555779206
 10
125.2163554375
 20
179.8267378338
 10
125.0627206111
 20
179.7947585217
 10
124.9291358967
 20
179.7599210198
 10
124.8167752416
 20
179.7225314811
 10
124.7266260752
 20
179.6829184864
 10
124.6594806318
 20
179.641430156
 10
124.6159289878
 20
179.5984310909
 10
124.5963538768
 20
179.5542991684
 10
124.5952159192
 20
179.5426183771
  0
ARC
  5
347
330
1F
100
AcDbEntity
  8
0
  6
Continuous
 62
     7
370
    15
100
AcDbCircle
 10
127.1318932808
 20
171.4833639326
 30
0.0
 40
8.595305041701794
100
AcDbArc
 50
72.2714752049
 51
104.6822665946
  0
LINE
  5
348
330
1F
100
AcDbEntity
  8
0
  6
Continuous
 62
     7
370
    15
100
AcDbLine
 10
128.071306694
 20
148.7209815909
 30
0.0
 11
128.0704770521
 21
148.6897801791
 31
0.0
  0
LINE
  5
349
330
1F
100
AcDbEntity
  8
0
  6
Continuous
 62
     7
370
    15
100
AcDbLine
 10
128.2140116808
 20
154.0878722319
 30
0.0
 11
128.071306694
 21
148.7209815909
 31
0.0
  0
LINE
  5
34A
330
1F
100
AcDbEntity
  8
0
  6
Continuous
 62
     7
370
    15
100
AcDbLine
 10
130.4529649006
 20
148.6576535812
 30
0.0
 11
130.5956698874
 21
154.0245442221
 31
0.0
  0
LINE
  5
34B
330
1F
100
AcDbEntity
  8
0
  6
Continuous
 62
     7
370
    15
100
AcDbLine
 10
130.4521352587
 20
148.6264521693
 30
0.0
 11
130.4529649006
 21
148.6576535812
 31
0.0
  0
LINE
  5
34C
330
1F
100
AcDbEntity
  8
0
  6
Continuous
 62
     7
370
    15
100
AcDbLine
 10
130.7786944652
 20
148.9629330415
 30
0.0
 11
130.7779623831
 21
148.9354006845
 31
0.0
  0
LINE
  5
34D
330
1F
100
AcDbEntity
  8
0
  6
Continuous
 62
     7
370
    15
100
AcDbLine
 10
130.9046184026
 20
153.6987170978
 30
0.0
 11
130.7786944652
 21
148.9629330415
 31
0.0
  0
LINE
  5
34E
330
1F
100
AcDbEntity
  8
0
  6
Continuous
 62
     7
370
    15
100
AcDbLine
 10
124.2533303341
 20
153.0802930686
 30
0.0
 11
124.1689372886
 21
149.9064148709
 31
0.0
  0
LINE
  5
34F
330
1F
100
AcDbEntity
  8
0
  6
Continuous
 62
     7
370
    15
100
AcDbLine
 10
123.8599887733
 20
150.2322419952
 30
0.0
 11
123.9275032098
 21
152.7713445534
 31
0.0
  0
ARC
  5
350
330
1F
100
AcDbEntity
  8
0
  6
Continuous
 62
     7
370
    15
100
AcDbCircle
 10
130.3831681004
 20
158.6872730749
 30
0.0
 40
4.34536283375638
100
AcDbArc
 50
65.0961233054
 51
100.5321984881
  0
LINE
  5
351
330
1F
100
AcDbEntity
  8
0
  6
Continuous
 62
     7
370
    15
100
AcDbLine
 10
132.2129881531
 20
162.6285846246
 30
0.0
 11
132.1745365435
 21
161.1824853098
 31
0.0
  0
ELLIPSE
  5
352
330
1F
100
AcDbEntity
  8
0
  6
Continuous
 62
     7
370
    15
100
AcDbEllipse
 10
130.4251362248
 20
161.2275990177
 30
0.0
 11
1.7493112397282
 21
-0.04915083896617033
 31
0.0
210
0.0
220
0.0
230
1.0
 40
0.4374663123
 41
0.0052746009176999
 42
2.099669703310896
  0
LINE
  5
353
330
1F
100
AcDbEntity
  8
0
  6
Continuous
 62
     7
370
    15
100
AcDbLine
 10
129.5610662339
 20
161.9131098725
 30
0.0
 11
129.588887675
 21
162.9594267195
 31
0.0
  0
LINE
  5
354
330
1F
100
AcDbEntity
  8
0
  6
Continuous
 62
     7
370
    15
100
AcDbLine
 10
132.1745365435
 20
161.1824853098
 30
0.0
 11
132.1423103927
 21
159.1726906718
 31
0.0
  0
LINE
  5
355
330
1F
100
AcDbEntity
  8
0
  6
Continuous
 62
     7
370
    15
100
AcDbLine
 10
132.1423103927
 20
159.1726906718
 30
0.0
 11
131.629393256
 21
158.3693132498
 31
0.0
  0
LINE
  5
356
330
1F
100
AcDbEntity
  8
0
  6
Continuous
 62
     7
370
    15
100
AcDbLine
 10
129.5051214405
 20
158.4240941808
 30
0.0
 11
131.629393256
 21
158.3693132498
 31
0.0
  0
LINE
  5
357
330
1F
100
AcDbEntity
  8
0
  6
Continuous
 62
     7
370
    15
100
AcDbLine
 10
129.5610662339
 20
161.9131098725
 30
0.0
 11
129.5051214405
 21
158.4240941808
 31
0.0
  0
LINE
  5
358
330
1F
100
AcDbEntity
  8
0
  6
Continuous
 62
     7
370
    15
100
AcDbLine
 10
119.8090381458
 20
159.5780033591
 30
0.0
 11
129.2183127171
 21
160.2790139845
 31
0.0
  0
LINE
  5
359
330
1F
100
AcDbEntity
  8
0
  6
Continuous
 62
     7
370
    15
100
AcDbLine
 10
119.8797159062
 20
162.2360731258
 30
0.0
 11
119.8090381458
 21
159.5780033591
 31
0.0
  0
LINE
  5
35A
330
1F
100
AcDbEntity
  8
0
  6
Continuous
 62
     7
370
    15
100
AcDbLine
 10
119.8797159062
 20
162.2360731258
 30
0.0
 11
129.588887675
 21
162.9594267195
 31
0.0
  0
ELLIPSE
  5
35B
330
1F
100
AcDbEntity
  8
0
  6
Continuous
 62
     7
370
    15
100
AcDbEllipse
 10
129.5529361226
 20
161.6073502819
 30
0.0
 11
0.2225071710988118
 21
0.2611177008301695
 31
0.0
210
0.0
220
0.0
230
1.0
 40
0.7775794043
 41
0.804119401329445
 42
2.374915728124465
  0
LINE
  5
35C
330
1F
100
AcDbEntity
  8
0
  6
Continuous
 62
     7
370
    15
100
AcDbLine
 10
129.2518240487
 20
161.5393178888
 30
0.0
 11
129.2183127171
 21
160.2790139845
 31
0.0
  0
LINE
  5
35D
330
1F
100
AcDbEntity
  8
0
  6
Continuous
 62
     7
370
    15
100
AcDbLine
 10
129.205224243
 20
159.6865230204
 30
0.0
 11
129.2183127171
 21
160.2790139845
 31
0.0
  0
LINE
  5
35E
330
1F
100
AcDbEntity
  8
0
  6
Continuous
 62
     7
370
    15
100
AcDbLine
 10
129.205224243
 20
158.6331054707
 30
0.0
 11
129.2518240487
 21
161.5393178888
 31
0.0
  0
LINE
  5
35F
330
1F
100
AcDbEntity
  8
0
  6
Continuous
 62
     7
370
    15
100
AcDbLine
 10
129.205224243
 20
158.6331054707
 30
0.0
 11
129.205224243
 21
159.6865230204
 31
0.0
  0
LINE
  5
360
330
1F
100
AcDbEntity
  8
0
  6
Continuous
 62
     7
370
    15
100
AcDbLine
 10
120.0458640029
 20
159.0041315351
 30
0.0
 11
119.8090381458
 21
159.5780033591
 31
0.0
  0
LINE
  5
361
330
1F
100
AcDbEntity
  8
0
  6
Continuous
 62
     7
370
    15
100
AcDbLine
 10
129.205224243
 20
159.6865230204
 30
0.0
 11
120.0458640029
 21
159.0041315351
 31
0.0
  0
ELLIPSE
  5
362
330
1F
100
AcDbEntity
  8
0
  6
Continuous
 62
     7
370
    15
100
AcDbEllipse
 10
129.5051214405
 20
158.6253716922
 30
0.0
 11
0.2997492251105598
 21
-0.01405205444285684
 31
0.0
210
0.0
220
0.0
230
1.0
 40
0.6703446265
 41
3.173007647906406
 42
4.743803974701201
  0
LINE
  5
363
330
1F
100
AcDbEntity
  8
0
  6
Continuous
 62
     7
370
    15
100
AcDbLine
 10
131.629393256
 20
157.8476660205
 30
0.0
 11
130.7584091161
 21
157.6027111143
 31
0.0
  0
ARC
  5
364
330
1F
100
AcDbEntity
  8
0
  6
Continuous
 62
     7
370
    15
100
AcDbCircle
 10
130.6895719091
 20
157.9349123681
 30
0.0
 40
0.3392583588373805
100
AcDbArc
 50
266.930130876
 51
281.7068853815
  0
LINE
  5
365
330
1F
100
AcDbEntity
  8
0
  6
Continuous
 62
     7
370
    15
100
AcDbLine
 10
130.6714033714
 20
157.5961408547
 30
0.0
 11
130.3381541594
 21
157.6047347182
 31
0.0
  0
ARC
  5
366
330
1F
100
AcDbEntity
  8
0
  6
Continuous
 62
     7
370
    15
100
AcDbCircle
 10
130.3377700131
 20
157.9495368199
 30
0.0
 40
0.3448023156658375
100
AcDbArc
 50
255.4502208576
 51
270.0638335907
  0
LINE
  5
367
330
1F
100
AcDbEntity
  8
0
  6
Continuous
 62
     7
370
    15
100
AcDbLine
 10
130.2511484148
 20
157.6157924033
 30
0.0
 11
129.6729298163
 21
157.8082324714
 31
0.0
  0
ARC
  5
368
330
1F
100
AcDbEntity
  8
0
  6
Continuous
 62
     7
370
    15
100
AcDbCircle
 10
129.4563758205
 20
156.97387143
 30
0.0
 40
0.8620057891614823
100
AcDbArc
 50
75.4502208576
 51
90.0638335908
  0
LINE
  5
369
330
1F
100
AcDbEntity
  8
0
  6
Continuous
 62
     7
370
    15
100
AcDbLine
 10
129.4554154546
 20
157.8358766841
 30
0.0
 11
126.8759083351
 21
157.902397268
 31
0.0
  0
LINE
  5
36A
330
1F
100
AcDbEntity
  8
0
  6
Continuous
 62
     7
370
    15
100
AcDbLine
 10
120.0458640029
 20
158.763517562
 30
0.0
 11
126.8759083351
 21
157.902397268
 31
0.0
  0
LWPOLYLINE
  5
36B
330
1F
100
AcDbEntity
  8
0
  6
Continuous
 62
     7
370
    15
100
AcDbPolyline
 90
       13
 70
   128
 43
0.0
 10
120.0458640029
 20
159.0041315351
 10
119.9316730589
 20
158.9931870931
 10
119.8331013818
 20
158.9786064096
 10
119.7531440221
 20
158.9608325113
 10
119.6942304436
 20
158.9404054491
 10
119.6581507057
 20
158.9179458889
 10
119.6460010729
 20
158.8941362532
 10
119.6581507057
 20
158.8696999856
 10
119.6942304436
 20
158.8453795697
 10
119.7531440221
 20
158.8219139692
 10
119.8331013818
 20
158.8000161743
 10
119.9316730589
 20
158.7803515386
 10
120.0458640029
 20
158.763517562
  0
LINE
  5
36C
330
1F
100
AcDbEntity
  8
0
  6
Continuous
 62
     7
370
    15
100
AcDbLine
 10
131.629393256
 20
157.8476660205
 30
0.0
 11
131.629393256
 21
158.3693132498
 31
0.0
  0
LWPOLYLINE
  5
36D
330
1F
100
AcDbEntity
  8
0
  6
Continuous
 62
     7
370
    15
100
AcDbPolyline
 90
       58
 70
   128
 43
0.0
 10
125.1316206437
 20
158.7526725549
 10
125.14383097
 20
158.7139134355
 10
125.180313732
 20
158.6749950371
 10
125.2406260785
 20
158.6363897764
 10
125.3240358993
 20
158.5985662689
 10
125.4295307121
 20
158.5619836407
 10
125.5558299528
 20
158.5270859554
 10
125.7014005197
 20
158.4942968237
 10
125.8644753833
 20
158.4640142611
 10
126.0430750357
 20
158.4366058571
 10
126.2350315191
 20
158.4124043123
 10
126.4380147418
 20
158.3917034009
 10
126.6495607623
 20
158.3747544039
 10
126.8671016987
 20
158.3617630591
 10
127.0879968986
 20
158.3528870638
 10
127.3095649935
 20
158.3482341606
 10
127.5291164469
 20
158.3478608294
 10
127.7439862015
 20
158.3517716021
 10
127.9515660297
 20
158.359919007
 10
128.1493361935
 20
158.3722041458
 10
128.3348960309
 20
158.3884778935
 10
128.505993097
 20
158.4085427088
 10
128.6605505052
 20
158.432155032
 10
128.7966921378
 20
158.4590282417
 10
128.91276542
 20
158.4888361333
 10
129.0073613791
 20
158.5212168794
 10
129.0793317486
 20
158.5557774218
 10
129.1278029055
 20
158.5920982421
 10
129.1521864757
 20
158.6297384549
 10
129.1521864757
 20
158.6682411589
 10
129.1278029055
 20
158.7071389835
 10
129.0793317486
 20
158.7459597618
 10
129.0073613791
 20
158.7842322621
 10
128.91276542
 20
158.8214919081
 10
128.7966921378
 20
158.8572864182
 10
128.6605505052
 20
158.8911812955
 10
128.505993097
 20
158.9227651021
 10
128.3348960309
 20
158.9516544534
 10
128.1493361935
 20
158.9774986718
 10
127.9515660297
 20
158.9999840436
 10
127.7439862015
 20
159.0188376266
 10
127.5291164469
 20
159.0338305641
 10
127.3095649935
 20
159.044780862
 10
127.0879968986
 20
159.0515555986
 10
126.8671016987
 20
159.0540725377
 10
126.6495607623
 20
159.0523011271
 10
126.4380147418
 20
159.0462628693
 10
126.2350315191
 20
159.0360310606
 10
126.0430750357
 20
159.0217299013
 10
125.8644753833
 20
159.0035329881
 10
125.7014005197
 20
158.9816612069
 10
125.5558299528
 20
158.9563800514
 10
125.4295307121
 20
158.9279964007
 10
125.3240358993
 20
158.8968547938
 10
125.2406260785
 20
158.8633332476
 10
125.180313732
 20
158.8278386684
 10
125.14383097
 20
158.7908019121
 10
125.1316206437
 20
158.7526725549
  0
LINE
  5
36E
330
1F
100
AcDbEntity
  8
0
  6
Continuous
 62
     7
370
    15
100
AcDbLine
 10
132.1423103927
 20
158.4804725892
 30
0.0
 11
132.2129881531
 21
161.138542356
 31
0.0
  0
LINE
  5
36F
330
1F
100
AcDbEntity
  8
0
  6
Continuous
 62
     7
370
    15
100
AcDbLine
 10
132.1423103927
 20
159.1726906718
 30
0.0
 11
132.1423103927
 21
158.4804725892
 31
0.0
  0
LINE
  5
370
330
1F
100
AcDbEntity
  8
0
  6
Continuous
 62
     7
370
    15
100
AcDbLine
 10
132.2129881531
 20
162.6285846246
 30
0.0
 11
132.2129881531
 21
161.138542356
 31
0.0
  0
LWPOLYLINE
  5
371
330
1F
100
AcDbEntity
  8
0
  6
Continuous
 62
     7
370
    15
100
AcDbPolyline
 90
       10
 70
   128
 43
0.0
 10
119.1785645992
 20
159.3599988268
 10
119.1624265341
 20
159.38343238
 10
119.1624265341
 20
159.4149263998
 10
119.1876592688
 20
159.4454632177
 10
119.2376336119
 20
159.4744484694
 10
119.3113768696
 20
159.5013179897
 10
119.4074537132
 20
159.5255487942
 10
119.5239941163
 20
159.5466692576
 10
119.6587297524
 20
159.5642682943
 10
119.8090381458
 20
159.5780033591
  0
LWPOLYLINE
  5
372
330
1F
100
AcDbEntity
  8
0
  6
Continuous
 62
     7
370
    15
100
AcDbPolyline
 90
        9
 70
   128
 43
0.0
 10
119.2299524881
 20
162.0583723855
 10
119.2331042945
 20
162.0729961666
 10
119.2583370293
 20
162.1035329845
 10
119.3083113724
 20
162.1325182361
 10
119.38205463
 20
162.1593877565
 10
119.4781314737
 20
162.1836185609
 10
119.5946718767
 20
162.2047390244
 10
119.7294075129
 20
162.2223380611
 10
119.8797159062
 20
162.2360731258
  0
LINE
  5
373
330
1F
100
AcDbEntity
  8
0
  6
Continuous
 62
     7
370
    15
100
AcDbLine
 10
132.1423103927
 20
158.4804725892
 30
0.0
 11
131.629393256
 21
157.8476660205
 31
0.0
  0
INSERT
  5
379
330
1F
100
AcDbEntity
  8
VERMASSUNG
100
AcDbBlockReference
  2
SW_NOTE_0
 10
143.4577676678
 20
170.6002702703
 30
0.0
  0
LEADER
  5
383
330
1F
100
AcDbEntity
  8
VERMASSUNG
100
AcDbLeader
  3
SLDDIMSTYLE3
 76
     2
 10
127.0624181875
 20
170.4966950699
 30
0.0
 10
143.4577676678
 20
170.6002702703
 30
0.0
  0
INSERT
  5
389
330
1F
100
AcDbEntity
  8
VERMASSUNG
100
AcDbBlockReference
  2
SW_NOTE_1
 10
143.11992983
 20
159.6768468468
 30
0.0
  0
LEADER
  5
38A
330
1F
100
AcDbEntity
  8
VERMASSUNG
100
AcDbLeader
  3
SLDDIMSTYLE3
 76
     2
 10
131.2741159371
 20
159.8700619416
 30
0.0
 10
143.11992983
 20
159.6768468468
 30
0.0
  0
INSERT
  5
390
330
1F
100
AcDbEntity
  8
VERMASSUNG
100
AcDbBlockReference
  2
SW_NOTE_2
 10
143.3451550552
 20
150.4426126126
 30
0.0
  0
LEADER
  5
391
330
1F
100
AcDbEntity
  8
VERMASSUNG
100
AcDbLeader
  3
SLDDIMSTYLE3
 76
     2
 10
129.3228520549
 20
150.186561595
 30
0.0
 10
143.3451550552
 20
150.4426126126
 30
0.0
  0
ENDSEC
  0
SECTION
  2
OBJECTS
  0
DICTIONARY
  5
C
330
0
100
AcDbDictionary
281
     1
  3
ACAD_GROUP
350
D
  3
ACAD_LAYOUT
350
1A
  3
ACAD_MLINESTYLE
350
17
  3
ACAD_PLOTSETTINGS
350
19
  3
ACAD_PLOTSTYLENAME
350
E
  0
DICTIONARY
  5
D
102
{ACAD_REACTORS
330
C
102
}
330
C
100
AcDbDictionary
281
     1
  0
DICTIONARY
  5
1A
102
{ACAD_REACTORS
330
C
102
}
330
C
100
AcDbDictionary
281
     1
  3
Layout1
350
1E
  3
Layout2
350
26
  3
Model
350
22
  0
DICTIONARY
  5
17
102
{ACAD_REACTORS
330
C
102
}
330
C
100
AcDbDictionary
281
     1
  3
Standard
350
18
  0
DICTIONARY
  5
19
102
{ACAD_REACTORS
330
C
102
}
330
C
100
AcDbDictionary
281
     1
  0
ACDBDICTIONARYWDFLT
  5
E
102
{ACAD_REACTORS
330
C
102
}
330
C
100
AcDbDictionary
281
     1
  3
Normal
350
F
100
AcDbDictionaryWithDefault
340
F
  0
LAYOUT
  5
1E
102
{ACAD_REACTORS
330
1A
102
}
330
1A
100
AcDbPlotSettings
  1

  2
none_device
  4

  6

 40
0.0
 41
0.0
 42
0.0
 43
0.0
 44
0.0
 45
0.0
 46
0.0
 47
0.0
 48
0.0
 49
0.0
140
0.0
141
0.0
142
1.0
143
1.0
 70
   688
 72
     0
 73
     0
 74
     5
  7

 75
    16
147
1.0
148
0.0
149
0.0
100
AcDbLayout
  1
Layout1
 70
     1
 71
     1
 10
0.0
 20
0.0
 11
420.0
 21
297.0
 12
0.0
 22
0.0
 32
0.0
 14
1.0000000000E+20
 24
1.0000000000E+20
 34
1.0000000000E+20
 15
-1.0000000000E+20
 25
-1.0000000000E+20
 35
-1.0000000000E+20
146
0.0
 13
0.0
 23
0.0
 33
0.0
 16
1.0
 26
0.0
 36
0.0
 17
0.0
 27
1.0
 37
0.0
 76
     0
330
1B
  0
LAYOUT
  5
26
102
{ACAD_REACTORS
330
1A
102
}
330
1A
100
AcDbPlotSettings
  1

  2
none_device
  4

  6

 40
0.0
 41
0.0
 42
0.0
 43
0.0
 44
0.0
 45
0.0
 46
0.0
 47
0.0
 48
0.0
 49
0.0
140
0.0
141
0.0
142
1.0
143
1.0
 70
   688
 72
     0
 73
     0
 74
     5
  7

 75
    16
147
1.0
148
0.0
149
0.0
100
AcDbLayout
  1
Layout2
 70
     1
 71
     2
 10
0.0
 20
0.0
 11
0.0
 21
0.0
 12
0.0
 22
0.0
 32
0.0
 14
0.0
 24
0.0
 34
0.0
 15
0.0
 25
0.0
 35
0.0
146
0.0
 13
0.0
 23
0.0
 33
0.0
 16
1.0
 26
0.0
 36
0.0
 17
0.0
 27
1.0
 37
0.0
 76
     0
330
23
  0
LAYOUT
  5
22
102
{ACAD_REACTORS
330
1A
102
}
330
1A
100
AcDbPlotSettings
  1

  2
none_device
  4

  6

 40
0.0
 41
0.0
 42
0.0
 43
0.0
 44
0.0
 45
0.0
 46
0.0
 47
0.0
 48
0.0
 49
0.0
140
0.0
141
0.0
142
1.0
143
1.0
 70
  1712
 72
     0
 73
     0
 74
     0
  7

 75
     0
147
1.0
148
0.0
149
0.0
100
AcDbLayout
  1
Model
 70
     1
 71
     0
 10
0.0
 20
0.0
 11
297.0
 21
210.0
 12
0.0
 22
0.0
 32
0.0
 14
0.0
 24
0.0
 34
0.0
 15
297.0
 25
210.0
 35
0.0
146
0.0
 13
0.0
 23
0.0
 33
0.0
 16
1.0
 26
0.0
 36
0.0
 17
0.0
 27
1.0
 37
0.0
 76
     0
330
1F
331
29
  0
MLINESTYLE
  5
18
102
{ACAD_REACTORS
330
17
102
}
330
17
100
AcDbMlineStyle
  2
Standard
 70
     0
  3

 62
   256
 51
90.0
 52
90.0
 71
     2
 49
0.5
 62
   256
  6
BYLAYER
 49
-0.5
 62
   256
  6
BYLAYER
  0
ACDBPLACEHOLDER
  5
F
102
{ACAD_REACTORS
330
E
102
}
330
E
  0
ENDSEC
  0
EOF
