  0
SECTION
  2
HEADER
  9
$ACADVER
  1
AC1015
  9
$ACADMAINTVER
 70
     6
  9
$DWGCODEPAGE
  3
ANSI_1252
  9
$INSBASE
 10
0.0
 20
0.0
 30
0.0
  9
$EXTMIN
 10
0.0
 20
0.0
 30
0.0
  9
$EXTMAX
 10
297.0
 20
210.0
 30
0.0
  9
$LIMMIN
 10
0.0
 20
0.0
  9
$LIMMAX
 10
297.0
 20
210.0
  9
$ORTHOMODE
 70
     0
  9
$REGENMODE
 70
     1
  9
$FILLMODE
 70
     1
  9
$QTEXTMODE
 70
     0
  9
$MIRRTEXT
 70
     1
  9
$LTSCALE
 40
1.0
  9
$ATTMODE
 70
     1
  9
$TEXTSIZE
 40
2.0
  9
$TRACEWID
 40
1.0
  9
$TEXTSTYLE
  7
Standard
  9
$CLAYER
  8
0
  9
$CELTYPE
  6
ByLayer
  9
$CECOLOR
 62
   256
  9
$CELTSCALE
 40
1.0
  9
$DISPSILH
 70
     0
  9
$DIMSCALE
 40
1.0
  9
$DIMASZ
 40
3.0
  9
$DIMEXO
 40
0.0
  9
$DIMDLI
 40
3.75
  9
$DIMRND
 40
0.0
  9
$DIMDLE
 40
0.0
  9
$DIMEXE
 40
1.0
  9
$DIMTP
 40
0.0
  9
$DIMTM
 40
0.0
  9
$DIMTXT
 40
2.0
  9
$DIMCEN
 40
2.5
  9
$DIMTSZ
 40
0.0
  9
$DIMTOL
 70
     0
  9
$DIMLIM
 70
     0
  9
$DIMTIH
 70
     1
  9
$DIMTOH
 70
     1
  9
$DIMSE1
 70
     0
  9
$DIMSE2
 70
     0
  9
$DIMTAD
 70
     1
  9
$DIMZIN
 70
     0
  9
$DIMBLK
  1

  9
$DIMASO
 70
     1
  9
$DIMSHO
 70
     1
  9
$DIMPOST
  1

  9
$DIMAPOST
  1

  9
$DIMALT
 70
     0
  9
$DIMALTD
 70
     3
  9
$DIMALTF
 40
0.0393700787
  9
$DIMLFAC
 40
1.0
  9
$DIMTOFL
 70
     1
  9
$DIMTVP
 40
0.0
  9
$DIMTIX
 70
     0
  9
$DIMSOXD
 70
     0
  9
$DIMSAH
 70
     0
  9
$DIMBLK1
  1

  9
$DIMBLK2
  1

  9
$DIMSTYLE
  2
ISO-25
  9
$DIMCLRD
 70
     0
  9
$DIMCLRE
 70
     0
  9
$DIMCLRT
 70
     0
  9
$DIMTFAC
 40
1.0
  9
$DIMGAP
 40
1.524
  9
$DIMJUST
 70
     0
  9
$DIMSD1
 70
     0
  9
$DIMSD2
 70
     0
  9
$DIMTOLJ
 70
     0
  9
$DIMTZIN
 70
     0
  9
$DIMALTZ
 70
     0
  9
$DIMALTTZ
 70
     0
  9
$DIMUPT
 70
     0
  9
$DIMDEC
 70
     2
  9
$DIMTDEC
 70
     3
  9
$DIMALTU
 70
     2
  9
$DIMALTTD
 70
     3
  9
$DIMTXSTY
  7
Standard
  9
$DIMAUNIT
 70
     0
  9
$DIMADEC
 70
     2
  9
$DIMALTRND
 40
0.0
  9
$DIMAZIN
 70
     0
  9
$DIMDSEP
 70
    44
  9
$DIMATFIT
 70
     3
  9
$DIMFRAC
 70
     0
  9
$DIMLDRBLK
  1

  9
$DIMLUNIT
 70
     2
  9
$DIMLWD
 70
    -2
  9
$DIMLWE
 70
    -2
  9
$DIMTMOVE
 70
     0
  9
$LUNITS
 70
     2
  9
$LUPREC
 70
     2
  9
$SKETCHINC
 40
1.0
  9
$FILLETRAD
 40
10.0
  9
$AUNITS
 70
     0
  9
$AUPREC
 70
     2
  9
$MENU
  1
.
  9
$ELEVATION
 40
0.0
  9
$PELEVATION
 40
0.0
  9
$THICKNESS
 40
0.0
  9
$LIMCHECK
 70
     0
  9
$CHAMFERA
 40
10.0
  9
$CHAMFERB
 40
10.0
  9
$CHAMFERC
 40
20.0
  9
$CHAMFERD
 40
0.0
  9
$SKPOLY
 70
     0
  9
$TDCREATE
 40
2455917.561847442
  9
$TDUCREATE
 40
2455917.520180775
  9
$TDUPDATE
 40
2455917.561847453
  9
$TDUUPDATE
 40
2455917.520180787
  9
$TDINDWG
 40
0.0000000116
  9
$TDUSRTIMER
 40
0.0000000116
  9
$USRTIMER
 70
     1
  9
$ANGBASE
 50
0.0
  9
$ANGDIR
 70
     0
  9
$PDMODE
 70
     0
  9
$PDSIZE
 40
-1.0
  9
$PLINEWID
 40
0.0
  9
$SPLFRAME
 70
     0
  9
$SPLINETYPE
 70
     6
  9
$SPLINESEGS
 70
     8
  9
$HANDSEED
  5
2F9
  9
$SURFTAB1
 70
     6
  9
$SURFTAB2
 70
     6
  9
$SURFTYPE
 70
     6
  9
$SURFU
 70
     6
  9
$SURFV
 70
     6
  9
$UCSBASE
  2

  9
$UCSNAME
  2

  9
$UCSORG
 10
0.0
 20
0.0
 30
0.0
  9
$UCSXDIR
 10
1.0
 20
0.0
 30
0.0
  9
$UCSYDIR
 10
0.0
 20
1.0
 30
0.0
  9
$UCSORTHOREF
  2

  9
$UCSORTHOVIEW
 70
     0
  9
$UCSORGTOP
 10
0.0
 20
0.0
 30
0.0
  9
$UCSORGBOTTOM
 10
0.0
 20
0.0
 30
0.0
  9
$UCSORGLEFT
 10
0.0
 20
0.0
 30
0.0
  9
$UCSORGRIGHT
 10
0.0
 20
0.0
 30
0.0
  9
$UCSORGFRONT
 10
0.0
 20
0.0
 30
0.0
  9
$UCSORGBACK
 10
0.0
 20
0.0
 30
0.0
  9
$PUCSBASE
  2

  9
$PUCSNAME
  2

  9
$PUCSORG
 10
0.0
 20
0.0
 30
0.0
  9
$PUCSXDIR
 10
1.0
 20
0.0
 30
0.0
  9
$PUCSYDIR
 10
0.0
 20
1.0
 30
0.0
  9
$PUCSORTHOREF
  2

  9
$PUCSORTHOVIEW
 70
     0
  9
$PUCSORGTOP
 10
0.0
 20
0.0
 30
0.0
  9
$PUCSORGBOTTOM
 10
0.0
 20
0.0
 30
0.0
  9
$PUCSORGLEFT
 10
0.0
 20
0.0
 30
0.0
  9
$PUCSORGRIGHT
 10
0.0
 20
0.0
 30
0.0
  9
$PUCSORGFRONT
 10
0.0
 20
0.0
 30
0.0
  9
$PUCSORGBACK
 10
0.0
 20
0.0
 30
0.0
  9
$USERI1
 70
     0
  9
$USERI2
 70
     0
  9
$USERI3
 70
     0
  9
$USERI4
 70
     0
  9
$USERI5
 70
     0
  9
$USERR1
 40
0.0
  9
$USERR2
 40
0.0
  9
$USERR3
 40
0.0
  9
$USERR4
 40
0.0
  9
$USERR5
 40
0.0
  9
$WORLDVIEW
 70
     1
  9
$SHADEDGE
 70
     3
  9
$SHADEDIF
 70
    70
  9
$TILEMODE
 70
     1
  9
$MAXACTVP
 70
    64
  9
$PINSBASE
 10
0.0
 20
0.0
 30
0.0
  9
$PLIMCHECK
 70
     0
  9
$PEXTMIN
 10
1.0000000000E+20
 20
1.0000000000E+20
 30
1.0000000000E+20
  9
$PEXTMAX
 10
-1.0000000000E+20
 20
-1.0000000000E+20
 30
-1.0000000000E+20
  9
$PLIMMIN
 10
0.0
 20
0.0
  9
$PLIMMAX
 10
420.0
 20
297.0
  9
$UNITMODE
 70
     0
  9
$VISRETAIN
 70
     1
  9
$PLINEGEN
 70
     0
  9
$PSLTSCALE
 70
     1
  9
$TREEDEPTH
 70
  3020
  9
$CMLSTYLE
  2
Standard
  9
$CMLJUST
 70
     0
  9
$CMLSCALE
 40
20.0
  9
$PROXYGRAPHICS
 70
     1
  9
$MEASUREMENT
 70
     1
  9
$CELWEIGHT
370
    -1
  9
$ENDCAPS
280
     0
  9
$JOINSTYLE
280
     0
  9
$LWDISPLAY
290
     1
  9
$INSUNITS
 70
     4
  9
$HYPERLINKBASE
  1

  9
$STYLESHEET
  1

  9
$XEDIT
290
     1
  9
$CEPSNTYPE
380
     0
  9
$PSTYLEMODE
290
     1
  9
$FINGERPRINTGUID
  2
{A68F9F6B-827A-45A9-888D-847C47E19C8D}
  9
$VERSIONGUID
  2
{FAEB1C32-E019-11D5-929B-00C0DF256EC4}
  9
$EXTNAMES
290
     1
  9
$PSVPSCALE
 40
0.0
  9
$OLESTARTUP
290
     0
  0
ENDSEC
  0
SECTION
  2
CLASSES
  0
CLASS
  1
ACDBDICTIONARYWDFLT
  2
AcDbDictionaryWithDefault
  3
ObjectDBX Classes
 90
        0
280
     0
281
     0
  0
CLASS
  1
VISUALSTYLE
  2
AcDbVisualStyle
  3
ObjectDBX Classes
 90
     4095
280
     0
281
     0
  0
CLASS
  1
MATERIAL
  2
AcDbMaterial
  3
ObjectDBX Classes
 90
     1153
280
     0
281
     0
  0
CLASS
  1
ACDBPLACEHOLDER
  2
AcDbPlaceHolder
  3
ObjectDBX Classes
 90
        0
280
     0
281
     0
  0
CLASS
  1
LAYOUT
  2
AcDbLayout
  3
ObjectDBX Classes
 90
        0
280
     0
281
     0
  0
ENDSEC
  0
SECTION
  2
TABLES
  0
TABLE
  2
VPORT
  5
8
330
0
100
AcDbSymbolTable
 70
     1
  0
VPORT
  5
29
330
8
100
AcDbSymbolTableRecord
100
AcDbViewportTableRecord
  2
*Active
 70
     0
 10
0.0
 20
0.0
 11
1.0
 21
1.0
 12
148.5
 22
105.0
 13
0.0
 23
0.0
 14
10.0
 24
10.0
 15
10.0
 25
10.0
 16
0.0
 26
0.0
 36
1.0
 17
0.0
 27
0.0
 37
0.0
 40
210.0
 41
1.4142857143
 42
50.0
 43
0.0
 44
0.0
 50
0.0
 51
0.0
 71
     0
 72
  2000
 73
     1
 74
     3
 75
     0
 76
     0
 77
     0
 78
     0
281
     0
 65
     1
110
0.0
120
0.0
130
0.0
111
1.0
121
0.0
131
0.0
112
0.0
122
1.0
132
0.0
 79
     0
146
0.0
  0
ENDTAB
  0
TABLE
  2
LTYPE
  5
5
330
0
100
AcDbSymbolTable
 70
     6
  0
LTYPE
  5
14
330
5
100
AcDbSymbolTableRecord
100
AcDbLinetypeTableRecord
  2
ByBlock
 70
     0
  3

 72
    65
 73
     0
 40
0.0
  0
LTYPE
  5
15
330
5
100
AcDbSymbolTableRecord
100
AcDbLinetypeTableRecord
  2
ByLayer
 70
     0
  3

 72
    65
 73
     0
 40
0.0
  0
LTYPE
  5
16
330
5
100
AcDbSymbolTableRecord
100
AcDbLinetypeTableRecord
  2
Continuous
 70
     0
  3
Solid line
 72
    65
 73
     0
 40
0.0
  0
LTYPE
  5
3F
330
5
100
AcDbSymbolTableRecord
100
AcDbLinetypeTableRecord
  2
HIDDEN
 70
     0
  3
Hidden __ __ __ __ __ __ __ __ __ __ __ __ __ __
 72
    65
 73
     2
 40
1.905
 49
1.27
 74
     0
 49
-0.635
 74
     0
  0
LTYPE
  5
40
330
5
100
AcDbSymbolTableRecord
100
AcDbLinetypeTableRecord
  2
PHANTOM
 70
     0
  3
Phantom ______  __  __  ______  __  __  ______
 72
    65
 73
     6
 40
12.7
 49
6.35
 74
     0
 49
-1.27
 74
     0
 49
1.27
 74
     0
 49
-1.27
 74
     0
 49
1.27
 74
     0
 49
-1.27
 74
     0
  0
LTYPE
  5
41
330
5
100
AcDbSymbolTableRecord
100
AcDbLinetypeTableRecord
  2
CENTER
 70
     0
  3
Center ____ _ ____ _ ____ _ ____ _ ____ _ ____
 72
    65
 73
     4
 40
10.16
 49
6.35
 74
     0
 49
-1.27
 74
     0
 49
1.27
 74
     0
 49
-1.27
 74
     0
  0
LTYPE
  5
42
330
5
100
AcDbSymbolTableRecord
100
AcDbLinetypeTableRecord
  2
CENTERX2
 70
     0
  3
Center (2x) ________  __  ________  __  _____
 72
    65
 73
     4
 40
20.32
 49
12.7
 74
     0
 49
-2.54
 74
     0
 49
2.54
 74
     0
 49
-2.54
 74
     0
  0
LTYPE
  5
43
330
5
100
AcDbSymbolTableRecord
100
AcDbLinetypeTableRecord
  2
DOT2
 70
     0
  3
Dot (.5x) ........................................
 72
    65
 73
     2
 40
0.635
 49
0.0
 74
     0
 49
-0.635
 74
     0
  0
ENDTAB
  0
TABLE
  2
LAYER
  5
2
330
0
100
AcDbSymbolTable
 70
     5
  0
LAYER
  5
10
330
2
100
AcDbSymbolTableRecord
100
AcDbLayerTableRecord
  2
0
 70
     0
 62
     7
  6
Continuous
370
    -3
390
F
  0
LAYER
  5
44
330
2
100
AcDbSymbolTableRecord
100
AcDbLayerTableRecord
  2
FORMAT
 70
     0
 62
     7
  6
Continuous
370
    -3
390
F
  0
LAYER
  5
45
330
2
100
AcDbSymbolTableRecord
100
AcDbLayerTableRecord
  2
VERMASSUNG
 70
     0
 62
     7
  6
Continuous
370
    -3
390
F
  0
LAYER
  5
46
330
2
100
AcDbSymbolTableRecord
100
AcDbLayerTableRecord
  2
KOPF_DÜNN
 70
     0
 62
     7
  6
Continuous
370
    -3
390
F
  0
LAYER
  5
47
330
2
100
AcDbSymbolTableRecord
100
AcDbLayerTableRecord
  2
KOPF_DICK
 70
     0
 62
     7
  6
Continuous
370
    15
390
F
  0
ENDTAB
  0
TABLE
  2
STYLE
  5
3
330
0
100
AcDbSymbolTable
 70
     2
  0
STYLE
  5
11
330
3
100
AcDbSymbolTableRecord
100
AcDbTextStyleTableRecord
  2
Standard
 70
     0
 40
0.0
 41
1.0
 50
0.0
 71
     0
 42
2.5
  3
txt
  4

  0
STYLE
  5
48
330
3
100
AcDbSymbolTableRecord
100
AcDbTextStyleTableRecord
  2
SLDTEXTSTYLE0
 70
     0
 40
0.0
 41
0.7
 50
0.0
 71
     0
 42
0.2
  3
TXT
  4

  0
ENDTAB
  0
TABLE
  2
VIEW
  5
6
330
0
100
AcDbSymbolTable
 70
     0
  0
ENDTAB
  0
TABLE
  2
UCS
  5
7
330
0
100
AcDbSymbolTable
 70
     0
  0
ENDTAB
  0
TABLE
  2
APPID
  5
9
330
0
100
AcDbSymbolTable
 70
     1
  0
APPID
  5
12
330
9
100
AcDbSymbolTableRecord
100
AcDbRegAppTableRecord
  2
ACAD
 70
     0
  0
ENDTAB
  0
TABLE
  2
DIMSTYLE
  5
A
330
0
100
AcDbSymbolTable
 70
     4
100
AcDbDimStyleTable
  0
DIMSTYLE
105
27
330
A
100
AcDbSymbolTableRecord
100
AcDbDimStyleTableRecord
  2
ISO-25
 70
     0
 41
2.5
 42
0.625
 43
3.75
 44
1.25
 73
     0
 74
     0
 77
     1
 78
     8
140
2.5
141
2.5
143
0.0393700787
147
0.625
171
     3
172
     1
178
     0
271
     2
272
     2
274
     3
278
    44
283
     0
284
     8
340
11
  0
DIMSTYLE
105
247
102
{ACAD_REACTORS
330
246
330
26A
102
}
330
A
100
AcDbSymbolTableRecord
100
AcDbDimStyleTableRecord
  2
SLDDIMSTYLE0
 70
     0
 41
3.0
 44
0.0
 45
0.000000001
 73
     0
 74
     0
 77
     1
 78
    12
 79
     3
140
2.0
147
0.5
173
     1
178
     0
271
     2
272
     3
276
     2
284
    12
340
48
  0
DIMSTYLE
105
252
102
{ACAD_REACTORS
330
251
330
25E
102
}
330
A
100
AcDbSymbolTableRecord
100
AcDbDimStyleTableRecord
  2
SLDDIMSTYLE1
 70
     0
 41
3.0
 44
0.0
 45
0.000000001
 47
0.1
 48
0.1
 71
     1
 73
     0
 74
     0
 77
     1
 78
    12
 79
     3
140
2.0
147
0.5
173
     1
178
     0
271
     2
272
     1
276
     2
284
     8
340
48
  0
DIMSTYLE
105
2E4
102
{ACAD_REACTORS
330
2E3
102
}
330
A
100
AcDbSymbolTableRecord
100
AcDbDimStyleTableRecord
  2
SLDDIMSTYLE2
 70
     0
 41
3.0
 44
0.0
 45
0.000000001
 73
     0
 74
     0
 77
     1
 78
    12
 79
     3
140
2.0
141
0.0
147
0.5
173
     1
178
     0
271
     2
272
     3
276
     2
284
    12
340
48
  0
ENDTAB
  0
TABLE
  2
BLOCK_RECORD
  5
1
330
0
100
AcDbSymbolTable
 70
     7
  0
BLOCK_RECORD
  5
1F
330
1
100
AcDbSymbolTableRecord
100
AcDbBlockTableRecord
  2
*Model_Space
340
22
  0
BLOCK_RECORD
  5
1B
330
1
100
AcDbSymbolTableRecord
100
AcDbBlockTableRecord
  2
*Paper_Space
340
1E
  0
BLOCK_RECORD
  5
23
330
1
100
AcDbSymbolTableRecord
100
AcDbBlockTableRecord
  2
*Paper_Space0
340
26
  0
BLOCK_RECORD
  5
248
330
1
100
AcDbSymbolTableRecord
100
AcDbBlockTableRecord
  2
*D1
340
0
  0
BLOCK_RECORD
  5
253
330
1
100
AcDbSymbolTableRecord
100
AcDbBlockTableRecord
  2
*D2
340
0
  0
BLOCK_RECORD
  5
25F
330
1
100
AcDbSymbolTableRecord
100
AcDbBlockTableRecord
  2
*D3
340
0
  0
BLOCK_RECORD
  5
26B
330
1
100
AcDbSymbolTableRecord
100
AcDbBlockTableRecord
  2
*D4
340
0
  0
BLOCK_RECORD
  5
2E5
330
1
100
AcDbSymbolTableRecord
100
AcDbBlockTableRecord
  2
*D5
340
0
  0
BLOCK_RECORD
  5
2EC
330
1
100
AcDbSymbolTableRecord
100
AcDbBlockTableRecord
  2
SW_CENTERMARKSYMBOL_0
340
0
102
{BLKREFS
331
2F7
102
}
  0
ENDTAB
  0
ENDSEC
  0
SECTION
  2
BLOCKS
  0
BLOCK
  5
20
330
1F
100
AcDbEntity
  8
0
100
AcDbBlockBegin
  2
*Model_Space
 70
     0
 10
0.0
 20
0.0
 30
0.0
  3
*Model_Space
  1

  0
ENDBLK
  5
21
330
1F
100
AcDbEntity
  8
0
100
AcDbBlockEnd
  0
BLOCK
  5
1C
330
1B
100
AcDbEntity
 67
     1
  8
0
100
AcDbBlockBegin
  2
*Paper_Space
 70
     0
 10
0.0
 20
0.0
 30
0.0
  3
*Paper_Space
  1

  0
ENDBLK
  5
1D
330
1B
100
AcDbEntity
 67
     1
  8
0
100
AcDbBlockEnd
  0
BLOCK
  5
24
330
23
100
AcDbEntity
  8
0
100
AcDbBlockBegin
  2
*Paper_Space0
 70
     0
 10
0.0
 20
0.0
 30
0.0
  3
*Paper_Space0
  1

  0
ENDBLK
  5
25
330
23
100
AcDbEntity
  8
0
100
AcDbBlockEnd
  0
BLOCK
  5
249
330
248
100
AcDbEntity
  8
0
100
AcDbBlockBegin
  2
*D1
 70
     1
 10
0.0
 20
0.0
 30
0.0
  3
*D1
  1

  0
SOLID
  5
24B
330
248
100
AcDbEntity
  8
VERMASSUNG
100
AcDbTrace
 10
141.7083063583
 20
62.5113541342
 30
0.0
 11
144.7083063583
 21
62.0613541342
 31
0.0
 12
144.7083063583
 22
62.9613541342
 32
0.0
 13
144.7083063583
 23
62.9613541342
 33
0.0
  0
SOLID
  5
24C
330
248
100
AcDbEntity
  8
VERMASSUNG
100
AcDbTrace
 10
244.7083063583
 20
62.5113541342
 30
0.0
 11
241.7083063583
 21
62.9613541342
 31
0.0
 12
241.7083063583
 22
62.0613541342
 32
0.0
 13
241.7083063583
 23
62.0613541342
 33
0.0
  0
LINE
  5
24D
330
248
100
AcDbEntity
  8
VERMASSUNG
100
AcDbLine
 10
141.7083063583
 20
103.5439269209
 30
0.0
 11
141.7083063583
 21
61.5113541342
 31
0.0
  0
LINE
  5
24E
330
248
100
AcDbEntity
  8
VERMASSUNG
100
AcDbLine
 10
244.7083063583
 20
78.8362649134
 30
0.0
 11
244.7083063583
 21
61.5113541342
 31
0.0
  0
LINE
  5
24F
330
248
100
AcDbEntity
  8
VERMASSUNG
100
AcDbLine
 10
141.7083063583
 20
62.5113541342
 30
0.0
 11
244.7083063583
 21
62.5113541342
 31
0.0
  0
MTEXT
  5
250
330
248
100
AcDbEntity
  8
VERMASSUNG
100
AcDbMText
 10
190.4083062253
 20
65.0894894973
 30
0.1
 40
2.0
 41
0.0
 71
     1
 72
     1
  1
103
  7
SLDTEXTSTYLE0
 73
     1
 44
1.0
  0
ENDBLK
  5
24A
330
248
100
AcDbEntity
  8
0
100
AcDbBlockEnd
  0
BLOCK
  5
254
330
253
100
AcDbEntity
  8
0
100
AcDbBlockBegin
  2
*D2
 70
     1
 10
0.0
 20
0.0
 30
0.0
  3
*D2
  1

  0
SOLID
  5
256
330
253
100
AcDbEntity
  8
VERMASSUNG
100
AcDbTrace
 10
179.7083063583
 20
71.8711076502
 30
0.0
 11
182.7083063583
 21
71.4211076502
 31
0.0
 12
182.7083063583
 22
72.3211076502
 32
0.0
 13
182.7083063583
 23
72.3211076502
 33
0.0
  0
SOLID
  5
257
330
253
100
AcDbEntity
  8
VERMASSUNG
100
AcDbTrace
 10
244.7083063583
 20
71.8711076502
 30
0.0
 11
241.7083063583
 21
72.3211076502
 31
0.0
 12
241.7083063583
 22
71.4211076502
 32
0.0
 13
241.7083063583
 23
71.4211076502
 33
0.0
  0
LINE
  5
258
330
253
100
AcDbEntity
  8
VERMASSUNG
100
AcDbLine
 10
179.7083063583
 20
92.8362649134
 30
0.0
 11
179.7083063583
 21
70.8711076502
 31
0.0
  0
LINE
  5
259
330
253
100
AcDbEntity
  8
VERMASSUNG
100
AcDbLine
 10
244.7083063583
 20
78.8362649134
 30
0.0
 11
244.7083063583
 21
70.8711076502
 31
0.0
  0
LINE
  5
25A
330
253
100
AcDbEntity
  8
VERMASSUNG
100
AcDbLine
 10
179.7083063583
 20
71.8711076502
 30
0.0
 11
244.7083063583
 21
71.8711076502
 31
0.0
  0
MTEXT
  5
25B
330
253
100
AcDbEntity
  8
VERMASSUNG
100
AcDbMText
 10
207.6583061713
 20
74.4492430133
 30
0.1
 40
2.0
 41
0.0
 71
     1
 72
     1
  1
65
  7
SLDTEXTSTYLE0
 73
     1
 44
1.0
  0
MTEXT
  5
25C
330
253
100
AcDbEntity
  8
VERMASSUNG
100
AcDbMText
 10
213.4458062733
 20
74.4492430133
 30
0.1
 40
2.0
 41
0.0
 71
     1
 72
     1
  1

  7
SLDTEXTSTYLE0
 73
     1
 44
1.0
  0
MTEXT
  5
25D
330
253
100
AcDbEntity
  8
VERMASSUNG
100
AcDbMText
 10
213.4583065632
 20
73.9547091505
 30
0.1
 40
1.5
 41
0.0
 71
     1
 72
     1
  1
±0.1
  7
SLDTEXTSTYLE0
 73
     1
 44
1.0
  0
ENDBLK
  5
255
330
253
100
AcDbEntity
  8
0
100
AcDbBlockEnd
  0
BLOCK
  5
260
330
25F
100
AcDbEntity
  8
0
100
AcDbBlockBegin
  2
*D3
 70
     1
 10
0.0
 20
0.0
 30
0.0
  3
*D3
  1

  0
SOLID
  5
262
330
25F
100
AcDbEntity
  8
VERMASSUNG
100
AcDbTrace
 10
254.4359113288
 20
78.8362649134
 30
0.0
 11
254.8859113288
 21
81.8362649134
 31
0.0
 12
253.9859113288
 22
81.8362649134
 32
0.0
 13
253.9859113288
 23
81.8362649134
 33
0.0
  0
SOLID
  5
263
330
25F
100
AcDbEntity
  8
VERMASSUNG
100
AcDbTrace
 10
254.4359113288
 20
123.8362649134
 30
0.0
 11
253.9859113288
 21
120.8362649134
 31
0.0
 12
254.8859113288
 22
120.8362649134
 32
0.0
 13
254.8859113288
 23
120.8362649134
 33
0.0
  0
LINE
  5
264
330
25F
100
AcDbEntity
  8
VERMASSUNG
100
AcDbLine
 10
244.7083063583
 20
78.8362649134
 30
0.0
 11
255.4359113288
 21
78.8362649134
 31
0.0
  0
LINE
  5
265
330
25F
100
AcDbEntity
  8
VERMASSUNG
100
AcDbLine
 10
244.7083063583
 20
123.8362649134
 30
0.0
 11
255.4359113288
 21
123.8362649134
 31
0.0
  0
LINE
  5
266
330
25F
100
AcDbEntity
  8
VERMASSUNG
100
AcDbLine
 10
254.4359113288
 20
78.8362649134
 30
0.0
 11
254.4359113288
 21
123.8362649134
 31
0.0
  0
MTEXT
  5
267
330
25F
100
AcDbEntity
  8
VERMASSUNG
100
AcDbMText
 10
251.8577759657
 20
96.6862648963
 30
0.1
 40
2.0
 41
0.0
 71
     1
 72
     1
  1
45
  7
SLDTEXTSTYLE0
 11
9.494107596574928E-16
 21
1.0
 31
0.0
 73
     1
 44
1.0
  0
MTEXT
  5
268
330
25F
100
AcDbEntity
  8
VERMASSUNG
100
AcDbMText
 10
251.8577759657
 20
102.6737651243
 30
0.1
 40
2.0
 41
0.0
 71
     1
 72
     1
  1

  7
SLDTEXTSTYLE0
 11
9.494107596574928E-16
 21
1.0
 31
0.0
 73
     1
 44
1.0
  0
MTEXT
  5
269
330
25F
100
AcDbEntity
  8
VERMASSUNG
100
AcDbMText
 10
252.3523098284
 20
102.6862649485
 30
0.1
 40
1.5
 41
0.0
 71
     1
 72
     1
  1
±0.1
  7
SLDTEXTSTYLE0
 11
9.494107596574928E-16
 21
1.0
 31
0.0
 73
     1
 44
1.0
  0
ENDBLK
  5
261
330
25F
100
AcDbEntity
  8
0
100
AcDbBlockEnd
  0
BLOCK
  5
26C
330
26B
100
AcDbEntity
  8
0
100
AcDbBlockBegin
  2
*D4
 70
     1
 10
0.0
 20
0.0
 30
0.0
  3
*D4
  1

  0
SOLID
  5
26E
330
26B
100
AcDbEntity
  8
VERMASSUNG
100
AcDbTrace
 10
131.7083063583
 20
155.3362649134
 30
0.0
 11
131.2583063583
 21
152.3362649134
 31
0.0
 12
132.1583063583
 22
152.3362649134
 32
0.0
 13
132.1583063583
 23
152.3362649134
 33
0.0
  0
SOLID
  5
26F
330
26B
100
AcDbEntity
  8
VERMASSUNG
100
AcDbTrace
 10
131.7083063583
 20
92.3362649134
 30
0.0
 11
132.1583063583
 21
95.3362649134
 31
0.0
 12
131.2583063583
 22
95.3362649134
 32
0.0
 13
131.2583063583
 23
95.3362649134
 33
0.0
  0
LINE
  5
270
330
26B
100
AcDbEntity
  8
VERMASSUNG
100
AcDbLine
 10
180.2083063583
 20
155.3362649134
 30
0.0
 11
130.7083063583
 21
155.3362649134
 31
0.0
  0
LINE
  5
271
330
26B
100
AcDbEntity
  8
VERMASSUNG
100
AcDbLine
 10
180.2083063583
 20
92.3362649134
 30
0.0
 11
130.7083063583
 21
92.3362649134
 31
0.0
  0
LINE
  5
272
330
26B
100
AcDbEntity
  8
VERMASSUNG
100
AcDbLine
 10
131.7083063583
 20
155.3362649134
 30
0.0
 11
131.7083063583
 21
92.3362649134
 31
0.0
  0
MTEXT
  5
273
330
26B
100
AcDbEntity
  8
VERMASSUNG
100
AcDbMText
 10
128.9301708692
 20
117.4312648042
 30
0.4051525567
 40
2.0
 41
0.0
 71
     1
 72
     1
  1
PSC
  7
SLDTEXTSTYLE0
 11
-7.044195017643634E-15
 21
1.0
 31
0.0
 73
     1
 44
1.0
  0
MTEXT
  5
274
330
26B
100
AcDbEntity
  8
VERMASSUNG
100
AcDbMText
 10
129.1301708787
 20
122.0312649063
 30
0.4051525567
 40
2.0
 41
0.0
 71
     1
 72
     1
  1
%%c
  7
SLDTEXTSTYLE0
 11
-7.044195017643634E-15
 21
1.0
 31
0.0
 73
     1
 44
1.0
  0
MTEXT
  5
275
330
26B
100
AcDbEntity
  8
VERMASSUNG
100
AcDbMText
 10
128.9301708692
 20
125.6412653863
 30
0.4051525567
 40
2.0
 41
0.0
 71
     1
 72
     1
  1
63
  7
SLDTEXTSTYLE0
 11
-7.044195017643634E-15
 21
1.0
 31
0.0
 73
     1
 44
1.0
  0
ENDBLK
  5
26D
330
26B
100
AcDbEntity
  8
0
100
AcDbBlockEnd
  0
BLOCK
  5
2E6
330
2E5
100
AcDbEntity
  8
0
100
AcDbBlockBegin
  2
*D5
 70
     1
 10
0.0
 20
0.0
 30
0.0
  3
*D5
  1

  0
SOLID
  5
2E8
330
2E5
100
AcDbEntity
  8
VERMASSUNG
100
AcDbTrace
 10
92.4043047696
 20
84.290178284
 30
0.0
 11
93.4404040969
 21
81.4390384797
 31
0.0
 12
94.2313258295
 22
81.8685065378
 32
0.0
 13
94.2313258295
 23
81.8685065378
 33
0.0
  0
LINE
  5
2E9
330
2E5
100
AcDbEntity
  8
VERMASSUNG
100
AcDbLine
 10
92.4043047696
 20
84.290178284
 30
0.0
 11
97.3445295341
 21
75.1921067125
 31
0.0
  0
LINE
  5
2EA
330
2E5
100
AcDbEntity
  8
VERMASSUNG
100
AcDbLine
 10
92.4043047696
 20
84.290178284
 30
0.0
 11
70.9309018651
 21
123.8362649134
 31
0.0
  0
MTEXT
  5
2EB
330
2E5
100
AcDbEntity
  8
VERMASSUNG
100
AcDbMText
 10
96.5550991274
 20
82.0460910025
 30
-13.2638024853
 40
2.0
 41
0.0
 71
     1
 72
     1
  1
R45
  7
SLDTEXTSTYLE0
 11
0.4771867312108002
 21
-0.878801925098228
 31
0.0
 73
     1
 44
1.0
  0
ENDBLK
  5
2E7
330
2E5
100
AcDbEntity
  8
0
100
AcDbBlockEnd
  0
BLOCK
  5
2ED
330
2EC
100
AcDbEntity
  8
0
100
AcDbBlockBegin
  2
SW_CENTERMARKSYMBOL_0
 70
     0
 10
0.0
 20
0.0
 30
0.0
  3
SW_CENTERMARKSYMBOL_0
  1

  0
LINE
  5
2EF
330
2EC
100
AcDbEntity
  8
VERMASSUNG
 62
     0
100
AcDbLine
 10
0.0
 20
0.0
 30
0.0
 11
0.0
 21
2.5
 31
0.0
  0
LINE
  5
2F0
330
2EC
100
AcDbEntity
  8
VERMASSUNG
 62
     0
100
AcDbLine
 10
0.0
 20
0.0
 30
0.0
 11
-2.5
 21
0.0
 31
0.0
  0
LINE
  5
2F1
330
2EC
100
AcDbEntity
  8
VERMASSUNG
 62
     0
100
AcDbLine
 10
0.0
 20
0.0
 30
0.0
 11
0.0
 21
-2.5
 31
0.0
  0
LINE
  5
2F2
330
2EC
100
AcDbEntity
  8
VERMASSUNG
 62
     0
100
AcDbLine
 10
0.0
 20
0.0
 30
0.0
 11
2.5
 21
0.0
 31
0.0
  0
LINE
  5
2F3
330
2EC
100
AcDbEntity
  8
VERMASSUNG
 62
     0
100
AcDbLine
 10
0.0
 20
5.0
 30
0.0
 11
0.0
 21
34.0
 31
0.0
  0
LINE
  5
2F4
330
2EC
100
AcDbEntity
  8
VERMASSUNG
 62
     0
100
AcDbLine
 10
-5.0
 20
0.0
 30
0.0
 11
-34.0
 21
0.0
 31
0.0
  0
LINE
  5
2F5
330
2EC
100
AcDbEntity
  8
VERMASSUNG
 62
     0
100
AcDbLine
 10
0.0
 20
-5.0
 30
0.0
 11
0.0
 21
-47.4004763792
 31
0.0
  0
LINE
  5
2F6
330
2EC
100
AcDbEntity
  8
VERMASSUNG
 62
     0
100
AcDbLine
 10
5.0
 20
0.0
 30
0.0
 11
34.0
 21
0.0
 31
0.0
  0
ENDBLK
  5
2EE
330
2EC
100
AcDbEntity
  8
0
100
AcDbBlockEnd
  0
ENDSEC
  0
SECTION
  2
ENTITIES
  0
MTEXT
  5
49
330
1F
100
AcDbEntity
  8
KOPF_DÜNN
100
AcDbMText
 10
13.8892156294
 20
23.8442973028
 30
0.0
 40
3.0
 41
0.0
 71
     1
 72
     1
  1
PS6.KGB.LGR.065
  7
SLDTEXTSTYLE0
 73
     1
 44
1.0
  0
MTEXT
  5
4A
330
1F
100
AcDbEntity
  8
VERMASSUNG
100
AcDbMText
 10
13.9329988022
 20
28.8834360957
 30
0.0
 40
3.0
 41
0.0
 71
     1
 72
     1
  1
Klemmhalter / Aussengewinde radial
  7
SLDTEXTSTYLE0
 73
     1
 44
1.0
  0
MTEXT
  5
4B
330
1F
100
AcDbEntity
  8
VERMASSUNG
100
AcDbMText
 10
98.8601118557
 20
13.8365368179
 30
0.0
 40
2.0
 41
0.0
 71
     1
 72
     1
  1
Datum: 21.12.2011
  7
SLDTEXTSTYLE0
 73
     1
 44
1.0
  0
MTEXT
  5
4C
330
1F
100
AcDbEntity
  8
VERMASSUNG
100
AcDbMText
 10
13.933048693
 20
18.0482802738
 30
0.0
 40
2.0
 41
0.0
 71
     1
 72
     1
  1
PSC ø 63 / linke Ausführung
  7
SLDTEXTSTYLE0
 73
     1
 44
1.0
  0
MTEXT
  5
4D
330
1F
100
AcDbEntity
  8
VERMASSUNG
100
AcDbMText
 10
13.9808475933
 20
13.9090973692
 30
0.0
 40
2.0
 41
0.0
 71
     1
 72
     1
  1
Gewicht: 1298g
  7
SLDTEXTSTYLE0
 73
     1
 44
1.0
  0
ARC
  5
4E
330
1F
100
AcDbEntity
  8
0
  6
Continuous
 62
     7
370
    15
100
AcDbCircle
 10
200.7083063583
 20
110.1862649134
 30
0.0
 40
2.500000000000005
100
AcDbArc
 50
243.3052549208
 51
338.6286669096
  0
ARC
  5
4F
330
1F
100
AcDbEntity
  8
0
  6
Continuous
 62
     7
370
    15
100
AcDbCircle
 10
200.7083063583
 20
110.1862649134
 30
0.0
 40
2.500000000000001
100
AcDbArc
 50
201.3713330904
 51
243.3052549208
  0
LINE
  5
50
330
1F
100
AcDbEntity
  8
0
  6
Continuous
 62
     7
370
    15
100
AcDbLine
 10
235.8999580907
 20
91.9435700749
 30
0.0
 11
235.725390076
 21
91.9694858926
 31
0.0
  0
LINE
  5
51
330
1F
100
AcDbEntity
  8
0
  6
Continuous
 62
     7
370
    15
100
AcDbLine
 10
236.9859258895
 20
86.1208714431
 30
0.0
 11
236.9396197088
 21
86.1277459128
 31
0.0
  0
LINE
  5
52
330
1F
100
AcDbEntity
  8
0
  6
Continuous
 62
     7
370
    15
100
AcDbLine
 10
235.6681286786
 20
82.8251253918
 30
0.0
 11
235.4597508654
 21
82.8560605058
 31
0.0
  0
LINE
  5
53
330
1F
100
AcDbEntity
  8
0
  6
Continuous
 62
     7
370
    15
100
AcDbLine
 10
235.8595944054
 20
84.3257240543
 30
0.0
 11
236.0679722186
 21
84.2947889403
 31
0.0
  0
LINE
  5
54
330
1F
100
AcDbEntity
  8
0
  6
Continuous
 62
     7
370
    15
100
AcDbLine
 10
237.1425247513
 20
82.4997041466
 30
0.0
 11
236.9341469381
 21
82.5306392606
 31
0.0
  0
LINE
  5
55
330
1F
100
AcDbEntity
  8
0
  6
Continuous
 62
     7
370
    15
100
AcDbLine
 10
237.3339904781
 20
84.0003028091
 30
0.0
 11
237.5423682913
 21
83.9693676951
 31
0.0
  0
LINE
  5
56
330
1F
100
AcDbEntity
  8
0
  6
Continuous
 62
     7
370
    15
100
AcDbLine
 10
180.2083063583
 20
92.3362649134
 30
0.0
 11
216.9409793703
 21
92.3362649134
 31
0.0
  0
LINE
  5
57
330
1F
100
AcDbEntity
  8
0
  6
Continuous
 62
     7
370
    15
100
AcDbLine
 10
211.648588682
 20
155.3362649134
 30
0.0
 11
180.2083063583
 21
155.3362649134
 31
0.0
  0
ARC
  5
58
330
1F
100
AcDbEntity
  8
0
  6
Continuous
 62
     7
370
    15
100
AcDbCircle
 10
180.2083063583
 20
92.8362649134
 30
0.0
 40
0.5
100
AcDbArc
 50
180.0
 51
270.0
  0
ARC
  5
59
330
1F
100
AcDbEntity
  8
0
  6
Continuous
 62
     7
370
    15
100
AcDbCircle
 10
180.2083063583
 20
154.8362649134
 30
0.0
 40
0.5
100
AcDbArc
 50
90.0
 51
180.0
  0
LWPOLYLINE
  5
5A
330
1F
100
AcDbEntity
  8
0
  6
Continuous
 62
     7
370
    15
100
AcDbPolyline
 90
        3
 70
   128
 43
0.0
 10
179.5083063583
 20
101.2964446346
 10
179.6337613018
 20
101.2281425196
 10
179.7083063583
 20
101.1754047615
  0
LWPOLYLINE
  5
5B
330
1F
100
AcDbEntity
  8
0
  6
Continuous
 62
     7
370
    15
100
AcDbPolyline
 90
        3
 70
   128
 43
0.0
 10
179.7083063583
 20
146.4971250654
 10
179.6337613018
 20
146.4443873073
 10
179.5083063583
 20
146.3760851923
  0
ARC
  5
5C
330
1F
100
AcDbEntity
  8
0
  6
Continuous
 62
     7
370
    15
100
AcDbCircle
 10
216.9409793703
 20
91.3362649134
 30
0.0
 40
1.00000000000002
100
AcDbArc
 50
15.0
 51
90.0
  0
LINE
  5
5D
330
1F
100
AcDbEntity
  8
0
  6
Continuous
 62
     7
370
    15
100
AcDbLine
 10
217.9069051966
 20
91.5950839585
 30
0.0
 11
221.1270216178
 21
79.5774458683
 31
0.0
  0
ARC
  5
5E
330
1F
100
AcDbEntity
  8
0
  6
Continuous
 62
     7
370
    15
100
AcDbCircle
 10
222.0929474441
 20
79.8362649134
 30
0.0
 40
1.000000000000003
100
AcDbArc
 50
195.0
 51
270.0
  0
LINE
  5
5F
330
1F
100
AcDbEntity
  8
0
  6
Continuous
 62
     7
370
    15
100
AcDbLine
 10
222.0929474441
 20
78.8362649134
 30
0.0
 11
227.931228438
 21
78.8362649134
 31
0.0
  0
LWPOLYLINE
  5
60
330
1F
100
AcDbEntity
  8
0
  6
Continuous
 62
     7
370
    15
100
AcDbPolyline
 90
       16
 70
   128
 43
0.0
 10
203.7083063583
 20
108.5562649134
 10
203.6993595729
 20
108.3557642886
 10
203.5728499825
 20
107.784389037
 10
203.3027002135
 20
107.2517188648
 10
202.9024567034
 20
106.7844640789
 10
202.392189333
 20
106.4060547852
 10
201.7974850389
 20
106.1354660058
 10
201.1481647778
 20
105.986266192
 10
200.4767881788
 20
105.9659368455
 10
199.8170208681
 20
106.0754973646
 10
199.2019463336
 20
106.3094539274
 10
198.6624069807
 20
106.6560749749
 10
198.2254575655
 20
107.0979794804
 10
197.9130085563
 20
107.6130085067
 10
197.740727451
 20
108.1753363481
 10
197.7083063583
 20
108.5562649134
  0
LWPOLYLINE
  5
61
330
1F
100
AcDbEntity
  8
0
  6
Continuous
 62
     7
370
    15
100
AcDbPolyline
 90
       17
 70
   128
 43
0.0
 10
203.4916076738
 20
109.0560239329
 10
203.5497729037
 20
108.7677802834
 10
203.5481461721
 20
108.1926965676
 10
203.3934229412
 20
107.6334391973
 10
203.0939443802
 20
107.1201578821
 10
202.665855456
 20
106.6805237505
 10
202.1322345532
 20
106.3382375924
 10
201.5218493129
 20
106.1117521433
 10
200.8676057613
 20
106.0132772921
 10
200.2047743376
 20
106.0481218438
 10
199.5690884556
 20
106.2144073194
 10
198.9948181055
 20
106.503169226
 10
198.5129223507
 20
106.8988403343
 10
198.1493803159
 20
107.3800899127
 10
197.9237906465
 20
107.9209736716
 10
197.8483149398
 20
108.4923324277
 10
197.9170803439
 20
109.0261658325
  0
LWPOLYLINE
  5
62
330
1F
100
AcDbEntity
  8
0
  6
Continuous
 62
     7
370
    15
100
AcDbPolyline
 90
       26
 70
   128
 43
0.0
 10
201.9636063788
 20
110.3586074018
 10
202.4618350829
 20
110.0294281449
 10
202.8498831283
 20
109.6032862667
 10
203.103368029
 20
109.1069578288
 10
203.2063623965
 20
108.5716289723
 10
203.1523947159
 20
108.030936378
 10
202.9448559751
 20
107.5188537502
 10
202.5967865964
 20
107.0675571237
 10
202.130057059
 20
106.7054031252
 10
201.5739936962
 20
106.4551472224
 10
200.9635360142
 20
106.3325139141
 10
200.3370413143
 20
106.345208702
 10
199.7338745625
 20
106.492433926
 10
199.1919349441
 20
106.7649388837
 10
198.7452745185
 20
107.1456010864
 10
198.421958603
 20
107.610502128
 10
198.2423023255
 20
108.1304305662
 10
198.2175941507
 20
108.6727173851
 10
198.3493865841
 20
109.2032887096
 10
198.6293986224
 20
109.6888067918
 10
199.0400360794
 20
110.0987647453
 10
199.5554970936
 20
110.4074034039
 10
200.1433933536
 20
110.5953298657
 10
200.7667851752
 20
110.65073602
 10
201.3865025577
 20
110.5701404942
 10
201.9636063788
 20
110.3586074018
  0
LINE
  5
63
330
1F
100
AcDbEntity
  8
0
  6
Continuous
 62
     7
370
    15
100
AcDbLine
 10
234.8975315443
 20
91.2637589689
 30
0.0
 11
233.9993881054
 21
89.696979207
 31
0.0
  0
ARC
  5
64
330
1F
100
AcDbEntity
  8
0
  6
Continuous
 62
     7
370
    15
100
AcDbCircle
 10
236.0149419633
 20
90.6286937906
 30
0.0
 40
1.285267997432437
100
AcDbArc
 50
95.1263079635
 51
150.3888479602
  0
LINE
  5
65
330
1F
100
AcDbEntity
  8
0
  6
Continuous
 62
     7
370
    15
100
AcDbLine
 10
234.4286814646
 20
91.3333629753
 30
0.0
 11
233.7470165326
 21
90.1442223841
 31
0.0
  0
ARC
  5
66
330
1F
100
AcDbEntity
  8
0
  6
Continuous
 62
     7
370
    15
100
AcDbCircle
 10
235.5426536343
 20
90.7022828807
 30
0.0
 40
1.280310931191351
100
AcDbArc
 50
81.7942551568
 51
150.4678678573
  0
LINE
  5
67
330
1F
100
AcDbEntity
  8
0
  6
Continuous
 62
     7
370
    15
100
AcDbLine
 10
230.6863603863
 20
78.8343463888
 30
0.0
 11
243.5963232605
 21
78.8343463888
 31
0.0
  0
LINE
  5
68
330
1F
100
AcDbEntity
  8
0
  6
Continuous
 62
     7
370
    15
100
AcDbLine
 10
229.7016416045
 20
79.4129776803
 30
0.0
 11
230.6863603863
 21
78.8343463888
 31
0.0
  0
LINE
  5
69
330
1F
100
AcDbEntity
  8
0
  6
Continuous
 62
     7
370
    15
100
AcDbLine
 10
229.1833054793
 20
79.103872027
 30
0.0
 11
229.7016416045
 21
79.4129776803
 31
0.0
  0
LINE
  5
6A
330
1F
100
AcDbEntity
  8
0
  6
Continuous
 62
     7
370
    15
100
AcDbLine
 10
229.0131813373
 20
79.203838793
 30
0.0
 11
229.1833054793
 21
79.103872027
 31
0.0
  0
LINE
  5
6B
330
1F
100
AcDbEntity
  8
0
  6
Continuous
 62
     7
370
    15
100
AcDbLine
 10
229.0211450366
 20
79.8128447442
 30
0.0
 11
229.0131813373
 21
79.203838793
 31
0.0
  0
LINE
  5
6C
330
1F
100
AcDbEntity
  8
0
  6
Continuous
 62
     7
370
    15
100
AcDbLine
 10
235.5269650895
 20
91.1620198894
 30
0.0
 11
229.0211450366
 21
79.8128447442
 31
0.0
  0
LINE
  5
6D
330
1F
100
AcDbEntity
  8
0
  6
Continuous
 62
     7
370
    15
100
AcDbLine
 10
236.5168678276
 20
91.7406511809
 30
0.0
 11
235.5269650895
 21
91.1620198894
 31
0.0
  0
LINE
  5
6E
330
1F
100
AcDbEntity
  8
0
  6
Continuous
 62
     7
370
    15
100
AcDbLine
 10
236.5143602111
 20
92.3496571321
 30
0.0
 11
236.5168678276
 21
91.7406511809
 31
0.0
  0
LINE
  5
6F
330
1F
100
AcDbEntity
  8
0
  6
Continuous
 62
     7
370
    15
100
AcDbLine
 10
236.6853799551
 20
92.449623898
 30
0.0
 11
236.5143602111
 21
92.3496571321
 31
0.0
  0
LINE
  5
70
330
1F
100
AcDbEntity
  8
0
  6
Continuous
 62
     7
370
    15
100
AcDbLine
 10
237.2009468036
 20
92.1405182447
 30
0.0
 11
236.6853799551
 21
92.449623898
 31
0.0
  0
LINE
  5
71
330
1F
100
AcDbEntity
  8
0
  6
Continuous
 62
     7
370
    15
100
AcDbLine
 10
243.6050896249
 20
80.7913430995
 30
0.0
 11
237.2009468036
 21
92.1405182447
 31
0.0
  0
LINE
  5
72
330
1F
100
AcDbEntity
  8
0
  6
Continuous
 62
     7
370
    15
100
AcDbLine
 10
243.5999056686
 20
79.6340805165
 30
0.0
 11
243.6050896249
 21
80.7913430995
 31
0.0
  0
LINE
  5
73
330
1F
100
AcDbEntity
  8
0
  6
Continuous
 62
     7
370
    15
100
AcDbLine
 10
244.1207494103
 20
79.3341802186
 30
0.0
 11
243.5999056686
 21
79.6340805165
 31
0.0
  0
LINE
  5
74
330
1F
100
AcDbEntity
  8
0
  6
Continuous
 62
     7
370
    15
100
AcDbLine
 10
244.1198538083
 20
79.1342466867
 30
0.0
 11
244.1207494103
 21
79.3341802186
 31
0.0
  0
LINE
  5
75
330
1F
100
AcDbEntity
  8
0
  6
Continuous
 62
     7
370
    15
100
AcDbLine
 10
243.5963232605
 20
78.8343463888
 30
0.0
 11
244.1198538083
 21
79.1342466867
 31
0.0
  0
CIRCLE
  5
76
330
1F
100
AcDbEntity
  8
0
  6
Continuous
 62
     7
370
    15
100
AcDbCircle
 10
236.6372974199
 20
83.5665526165
 30
0.0
 40
2.83522127571933
  0
LINE
  5
77
330
1F
100
AcDbEntity
  8
0
  6
Continuous
 62
     7
370
    15
100
AcDbLine
 10
228.986415401
 20
79.8180005965
 30
0.0
 11
229.0211450366
 21
79.8128447442
 31
0.0
  0
LINE
  5
78
330
1F
100
AcDbEntity
  8
0
  6
Continuous
 62
     7
370
    15
100
AcDbLine
 10
234.9105140588
 20
91.2535362682
 30
0.0
 11
234.0087352007
 21
89.6804146449
 31
0.0
  0
LINE
  5
79
330
1F
100
AcDbEntity
  8
0
  6
Continuous
 62
     7
370
    15
100
AcDbLine
 10
234.9105140588
 20
91.2535362682
 30
0.0
 11
235.5269650895
 21
91.1620198894
 31
0.0
  0
LINE
  5
7A
330
1F
100
AcDbEntity
  8
0
  6
Continuous
 62
     7
370
    15
100
AcDbLine
 10
228.6640628284
 20
79.2556678275
 30
0.0
 11
229.0131813373
 21
79.203838793
 31
0.0
  0
LINE
  5
7B
330
1F
100
AcDbEntity
  8
0
  6
Continuous
 62
     7
370
    15
100
AcDbLine
 10
228.6245943882
 20
79.1868165163
 30
0.0
 11
229.1833054793
 21
79.103872027
 31
0.0
  0
LINE
  5
7C
330
1F
100
AcDbEntity
  8
0
  6
Continuous
 62
     7
370
    15
100
AcDbLine
 10
230.0699093556
 20
78.9258627676
 30
0.0
 11
230.6863603863
 21
78.8343463888
 31
0.0
  0
LINE
  5
7D
330
1F
100
AcDbEntity
  8
0
  6
Continuous
 62
     7
370
    15
100
AcDbLine
 10
229.4729865074
 20
79.2766210196
 30
0.0
 11
230.0699093556
 21
78.9258627676
 31
0.0
  0
LINE
  5
7E
330
1F
100
AcDbEntity
  8
0
  6
Continuous
 62
     7
370
    15
100
AcDbLine
 10
235.9004167969
 20
91.8321675597
 30
0.0
 11
234.9105140588
 21
91.2535362682
 31
0.0
  0
LINE
  5
7F
330
1F
100
AcDbEntity
  8
0
  6
Continuous
 62
     7
370
    15
100
AcDbLine
 10
235.9004167969
 20
91.8321675597
 30
0.0
 11
236.5168678276
 21
91.7406511809
 31
0.0
  0
LINE
  5
80
330
1F
100
AcDbEntity
  8
0
  6
Continuous
 62
     7
370
    15
100
AcDbLine
 10
235.8979091804
 20
92.4411735109
 30
0.0
 11
235.9004167969
 21
91.8321675597
 31
0.0
  0
LINE
  5
81
330
1F
100
AcDbEntity
  8
0
  6
Continuous
 62
     7
370
    15
100
AcDbLine
 10
235.8979091804
 20
92.4411735109
 30
0.0
 11
236.5143602111
 21
92.3496571321
 31
0.0
  0
LINE
  5
82
330
1F
100
AcDbEntity
  8
0
  6
Continuous
 62
     7
370
    15
100
AcDbLine
 10
236.0689289244
 20
92.5411402769
 30
0.0
 11
235.8979091804
 21
92.4411735109
 31
0.0
  0
LINE
  5
83
330
1F
100
AcDbEntity
  8
0
  6
Continuous
 62
     7
370
    15
100
AcDbLine
 10
236.0689289244
 20
92.5411402769
 30
0.0
 11
236.6853799551
 21
92.449623898
 31
0.0
  0
ARC
  5
84
330
1F
100
AcDbEntity
  8
0
  6
Continuous
 62
     7
370
    15
100
AcDbCircle
 10
236.5874747065
 20
83.4365036369
 30
0.0
 40
2.705270612758489
100
AcDbArc
 50
354.5640630446
 51
168.3189033952
  0
LWPOLYLINE
  5
85
330
1F
100
AcDbEntity
  8
0
  6
Continuous
 62
     7
370
    15
100
AcDbPolyline
 90
        3
 70
   128
 43
0.0
 10
233.881636688
 20
83.1802259681
 10
233.8741497791
 20
83.348959232
 10
233.9382311619
 20
83.9842241219
  0
CIRCLE
  5
86
330
1F
100
AcDbEntity
  8
0
  6
Continuous
 62
     7
370
    15
100
AcDbCircle
 10
236.6322377177
 20
83.3903826276
 30
0.0
 40
2.507960224957194
  0
ARC
  5
87
330
1F
100
AcDbEntity
  8
0
  6
Continuous
 62
     7
370
    15
100
AcDbCircle
 10
235.5840141548
 20
82.2704690818
 30
0.0
 40
0.5604974520889773
100
AcDbArc
 50
2.2342248709
 51
92.1635267619
  0
ARC
  5
88
330
1F
100
AcDbEntity
  8
0
  6
Continuous
 62
     7
370
    15
100
AcDbCircle
 10
236.3657337862
 20
82.3003369176
 30
0.0
 40
0.2217932053768151
100
AcDbArc
 50
182.0714837076
 51
333.0355467158
  0
ARC
  5
89
330
1F
100
AcDbEntity
  8
0
  6
Continuous
 62
     7
370
    15
100
AcDbCircle
 10
237.0609908447
 20
81.9471102643
 30
0.0
 40
0.5580474957130713
100
AcDbArc
 50
62.8625533844
 51
153.0795958418
  0
ARC
  5
8A
330
1F
100
AcDbEntity
  8
0
  6
Continuous
 62
     7
370
    15
100
AcDbCircle
 10
237.4157963307
 20
82.6454487995
 30
0.0
 40
0.2252677955052806
100
AcDbArc
 50
243.5706975432
 51
32.4885394378
  0
ARC
  5
8B
330
1F
100
AcDbEntity
  8
0
  6
Continuous
 62
     7
370
    15
100
AcDbCircle
 10
238.0941295341
 20
83.0695345266
 30
0.0
 40
0.5747333977623094
100
AcDbArc
 50
123.5261598981
 51
211.8267876672
  0
ARC
  5
8C
330
1F
100
AcDbEntity
  8
0
  6
Continuous
 62
     7
370
    15
100
AcDbCircle
 10
237.6537345725
 20
83.7381298855
 30
0.0
 40
0.2258783847973253
100
AcDbArc
 50
302.9810596095
 51
91.5454773654
  0
ARC
  5
8D
330
1F
100
AcDbEntity
  8
0
  6
Continuous
 62
     7
370
    15
100
AcDbCircle
 10
237.6264828152
 20
84.5240240051
 30
0.0
 40
0.5604974520889078
100
AcDbArc
 50
182.2342248709
 51
272.163526762
  0
ARC
  5
8E
330
1F
100
AcDbEntity
  8
0
  6
Continuous
 62
     7
370
    15
100
AcDbCircle
 10
236.8447631837
 20
84.4941561693
 30
0.0
 40
0.2217932053767862
100
AcDbArc
 50
2.0714837076
 51
153.0355467158
  0
ARC
  5
8F
330
1F
100
AcDbEntity
  8
0
  6
Continuous
 62
     7
370
    15
100
AcDbCircle
 10
236.1495061253
 20
84.8473828226
 30
0.0
 40
0.5580474957130651
100
AcDbArc
 50
242.8625533844
 51
333.0795958418
  0
ARC
  5
90
330
1F
100
AcDbEntity
  8
0
  6
Continuous
 62
     7
370
    15
100
AcDbCircle
 10
235.7947006392
 20
84.1490442874
 30
0.0
 40
0.2252677955052553
100
AcDbArc
 50
63.5706975432
 51
212.4885394378
  0
ARC
  5
91
330
1F
100
AcDbEntity
  8
0
  6
Continuous
 62
     7
370
    15
100
AcDbCircle
 10
235.1163674359
 20
83.7249585603
 30
0.0
 40
0.5747333977622369
100
AcDbArc
 50
303.5261598981
 51
31.8267876672
  0
ARC
  5
92
330
1F
100
AcDbEntity
  8
0
  6
Continuous
 62
     7
370
    15
100
AcDbCircle
 10
235.5567623975
 20
83.0563632014
 30
0.0
 40
0.2258783847973111
100
AcDbArc
 50
122.9810596095
 51
271.5454773654
  0
ARC
  5
93
330
1F
100
AcDbEntity
  8
0
  6
Continuous
 62
     7
370
    15
100
AcDbCircle
 10
236.5496451806
 20
83.4619445655
 30
0.0
 40
2.69417463354238
100
AcDbArc
 50
81.6773533079
 51
137.2606401926
  0
LINE
  5
94
330
1F
100
AcDbEntity
  8
0
  6
Continuous
 62
     7
370
    15
100
AcDbLine
 10
235.4597508654
 20
82.8560605058
 30
0.0
 11
235.446978077
 21
82.8578043227
 31
0.0
  0
LWPOLYLINE
  5
95
330
1F
100
AcDbEntity
  8
0
  6
Continuous
 62
     7
370
    15
100
AcDbPolyline
 90
        3
 70
   128
 43
0.0
 10
235.7241477227
 20
84.3639886869
 10
235.7880499506
 20
84.3412597411
 10
235.8595944054
 20
84.3257240543
  0
ARC
  5
96
330
1F
100
AcDbEntity
  8
0
  6
Continuous
 62
     7
370
    15
100
AcDbCircle
 10
236.1551864412
 20
82.3334828152
 30
0.0
 40
0.2247315016329032
100
AcDbArc
 50
290.2626959455
 51
332.7839852447
  0
ARC
  5
97
330
1F
100
AcDbEntity
  8
0
  6
Continuous
 62
     7
370
    15
100
AcDbCircle
 10
236.8544910907
 20
81.9754040967
 30
0.0
 40
0.5609199062144945
100
AcDbArc
 50
81.835867069
 51
152.9258895789
  0
ARC
  5
98
330
1F
100
AcDbEntity
  8
0
  6
Continuous
 62
     7
370
    15
100
AcDbCircle
 10
236.6326535978
 20
84.5231090039
 30
0.0
 40
0.2256017449587963
100
AcDbArc
 50
2.5403390165
 51
52.7839352803
  0
ARC
  5
99
330
1F
100
AcDbEntity
  8
0
  6
Continuous
 62
     7
370
    15
100
AcDbCircle
 10
237.4192616832
 20
84.5554654757
 30
0.0
 40
0.5616731832703058
100
AcDbArc
 50
182.2812387134
 51
261.2677952529
  0
ARC
  5
9A
330
1F
100
AcDbEntity
  8
0
  6
Continuous
 62
     7
370
    15
100
AcDbCircle
 10
237.8857517209
 20
83.1004696406
 30
0.0
 40
0.5747333977623518
100
AcDbArc
 50
123.5261598981
 51
211.8267876672
  0
ARC
  5
9B
330
1F
100
AcDbEntity
  8
0
  6
Continuous
 62
     7
370
    15
100
AcDbCircle
 10
237.2043667001
 20
82.6768243312
 30
0.0
 40
0.227614319618079
100
AcDbArc
 50
288.8671422057
 51
31.9823888826
  0
ARC
  5
9C
330
1F
100
AcDbEntity
  8
0
  6
Continuous
 62
     7
370
    15
100
AcDbCircle
 10
237.4437493338
 20
83.769599512
 30
0.0
 40
0.2272042425778735
100
AcDbArc
 50
303.2477184217
 51
60.6415838519
  0
SPLINE
  5
9D
330
1F
100
AcDbEntity
  8
0
  6
Continuous
 62
     7
370
    15
100
AcDbSpline
210
0.0
220
0.0
230
1.0
 70
     8
 71
     3
 72
    68
 73
    64
 74
     0
 42
0.00000001
 43
0.00000001
 40
-0.0625
 40
-0.0625
 40
0.0
 40
0.0
 40
0.0312500000000001
 40
0.0312500000000001
 40
0.0625000000000002
 40
0.0625000000000002
 40
0.0937500000000003
 40
0.0937500000000003
 40
0.1250000000000004
 40
0.1250000000000004
 40
0.1562500000000005
 40
0.1562500000000005
 40
0.1875000000000006
 40
0.1875000000000006
 40
0.2187500000000007
 40
0.2187500000000007
 40
0.2500000000000008
 40
0.2500000000000008
 40
0.2812500000000009
 40
0.2812500000000009
 40
0.3125000000000011
 40
0.3125000000000011
 40
0.3437500000000012
 40
0.3437500000000012
 40
0.3750000000000012
 40
0.3750000000000012
 40
0.4062500000000013
 40
0.4062500000000013
 40
0.4375000000000014
 40
0.4375000000000014
 40
0.4687500000000016
 40
0.4687500000000016
 40
0.5000000000000017
 40
0.5000000000000017
 40
0.5312500000000016
 40
0.5312500000000016
 40
0.5625000000000014
 40
0.5625000000000014
 40
0.5937500000000013
 40
0.5937500000000013
 40
0.6250000000000012
 40
0.6250000000000012
 40
0.6562500000000011
 40
0.6562500000000011
 40
0.687500000000001
 40
0.687500000000001
 40
0.7187500000000009
 40
0.7187500000000009
 40
0.7500000000000007
 40
0.7500000000000007
 40
0.7812500000000006
 40
0.7812500000000006
 40
0.8125000000000004
 40
0.8125000000000004
 40
0.8437500000000003
 40
0.8437500000000003
 40
0.8750000000000002
 40
0.8750000000000002
 40
0.9062500000000001
 40
0.9062500000000001
 40
0.9375
 40
0.9375
 40
1.0
 40
1.0
 40
1.03125
 40
1.03125
 10
197.708306358266
 20
108.4297560955646
 30
0.0
 10
197.708306358266
 20
107.9145193223749
 30
0.0
 10
197.7277770313663
 20
107.746598726182
 30
0.0
 10
197.8040460574865
 20
107.4179854733045
 30
0.0
 10
197.8617781645009
 20
107.2556064731235
 30
0.0
 10
198.0123970754794
 20
106.9476520190444
 30
0.0
 10
198.1045505397896
 20
106.8023929495364
 30
0.0
 10
198.3222510480495
 20
106.5286828478463
 30
0.0
 10
198.4488914491849
 20
106.3998116493902
 30
0.0
 10
198.7255101553739
 20
106.1696358150791
 30
0.0
 10
198.8764650723813
 20
106.0667696947758
 30
0.0
 10
199.2043531006099
 20
105.8855466566025
 30
0.0
 10
199.3788020698237
 20
105.8088762345762
 30
0.0
 10
199.739733672572
 20
105.6858809968685
 30
0.0
 10
199.9288854105812
 20
105.6386321059923
 30
0.0
 10
200.316180095839
 20
105.5754728069631
 30
0.0
 10
200.5109016403883
 20
105.5598676745998
 30
0.0
 10
200.9024398779031
 20
105.5596930186216
 30
0.0
 10
201.1013062744804
 20
105.5756350335543
 30
0.0
 10
201.4861464857065
 20
105.6383545922707
 30
0.0
 10
201.6732057370529
 20
105.6847872045383
 30
0.0
 10
202.0365504542082
 20
105.8082909612612
 30
0.0
 10
202.2120936772283
 20
105.8855835754405
 30
0.0
 10
202.5370751034675
 20
106.0649441508241
 30
0.0
 10
202.6885880020199
 20
106.1676245532556
 30
0.0
 10
202.9687921001302
 20
106.4006219960995
 30
0.0
 10
203.0928962001067
 20
106.5271434410817
 30
0.0
 10
203.3102045188662
 20
106.7997588653853
 30
0.0
 10
203.4042025197506
 20
106.9476248986096
 30
0.0
 10
203.5548491908226
 20
107.2556366962108
 30
0.0
 10
203.6116512209418
 20
107.4149504469026
 30
0.0
 10
203.6885352235847
 20
107.744409222124
 30
0.0
 10
203.7082344458898
 20
107.9157217329376
 30
0.0
 10
203.708377868361
 20
108.2549053440317
 30
0.0
 10
203.6894590093646
 20
108.4244370451061
 30
0.0
 10
203.6127670076268
 20
108.763273957237
 30
0.0
 10
203.5552288399736
 20
108.9300204876349
 30
0.0
 10
203.4058643516225
 20
109.2493480524356
 30
0.0
 10
203.3129519660873
 20
109.4043643044307
 30
0.0
 10
203.0938518382355
 20
109.6972827435395
 30
0.0
 10
202.9698184790694
 20
109.8327595525611
 30
0.0
 10
202.6935151338795
 20
110.08183989609
 30
0.0
 10
202.5393667923818
 20
110.1963610414761
 30
0.0
 10
202.2135025537532
 20
110.3938131231785
 30
0.0
 10
202.0413414837622
 20
110.4776734245086
 30
0.0
 10
201.6783880071155
 20
110.614998499588
 30
0.0
 10
201.4877463238964
 20
110.6678704137485
 30
0.0
 10
201.1042368185899
 20
110.737811553481
 30
0.0
 10
200.909343766698
 20
110.7557574982394
 30
0.0
 10
200.5130222541982
 20
110.756104790018
 30
0.0
 10
200.3176594147893
 20
110.7384473178837
 30
0.0
 10
199.9340583376807
 20
110.6691362408416
 30
0.0
 10
199.743566045645
 20
110.6166647985423
 30
0.0
 10
199.3800000222441
 20
110.4798075111595
 30
0.0
 10
199.2076406695484
 20
110.3961816276344
 30
0.0
 10
198.8815199208801
 20
110.1993174415293
 30
0.0
 10
198.7270954376795
 20
110.0850099713002
 30
0.0
 10
198.4502259078045
 20
109.8362755044048
 30
0.0
 10
198.3259761618332
 20
109.7010123818873
 30
0.0
 10
198.1064772938774
 20
109.4086832687824
 30
0.0
 10
198.0130795241714
 20
109.253538194853
 30
0.0
 10
197.7881182894711
 20
108.7749409047948
 30
0.0
 10
197.708306358266
 20
108.4297560955646
 30
0.0
 10
197.708306358266
 20
107.9145193223749
 30
0.0
  0
SPLINE
  5
9E
330
1F
100
AcDbEntity
  8
0
  6
Continuous
 62
     7
370
    15
100
AcDbSpline
210
0.0
220
0.0
230
1.0
 70
     8
 71
     3
 72
    12
 73
     8
 74
     0
 42
0.00000001
 43
0.00000001
 40
0.0
 40
0.0
 40
0.0
 40
0.0
 40
0.25
 40
0.25
 40
0.5
 40
0.5
 40
1.0
 40
1.0
 40
1.0
 40
1.0
 10
190.2360631718324
 20
133.2243313447738
 30
0.0
 10
190.172983133339
 20
133.2243313447738
 30
0.0
 10
190.1138345111576
 20
133.2496956639888
 30
0.0
 10
190.0153619610886
 20
133.3238605243617
 30
0.0
 10
189.9763253491039
 20
133.3703808649158
 30
0.0
 10
189.8764288823248
 20
133.5205232077611
 30
0.0
 10
189.8340080012582
 20
133.6322164147332
 30
0.0
 10
189.8030504699402
 20
133.7456342341229
 30
0.0
  0
LINE
  5
9F
330
1F
100
AcDbEntity
  8
0
  6
Continuous
 62
     7
370
    15
100
AcDbLine
 10
193.1805495447
 20
133.2243313448
 30
0.0
 11
190.2360631718
 21
133.2243313448
 31
0.0
  0
SPLINE
  5
A0
330
1F
100
AcDbEntity
  8
0
  6
Continuous
 62
     7
370
    15
100
AcDbSpline
210
0.0
220
0.0
230
1.0
 70
     8
 71
     3
 72
    12
 73
     8
 74
     0
 42
0.00000001
 43
0.00000001
 40
0.0
 40
0.0
 40
0.0
 40
0.0
 40
0.4999999999999982
 40
0.4999999999999982
 40
0.7499999999999991
 40
0.7499999999999991
 40
1.0
 40
1.0
 40
1.0
 40
1.0
 10
193.6135622465917
 20
133.745634234123
 30
0.0
 10
193.5828400046726
 20
133.6330784347138
 30
0.0
 10
193.5400027901375
 20
133.5203205749742
 30
0.0
 10
193.4405757659376
 20
133.3707796891778
 30
0.0
 10
193.400823571121
 20
133.323486957471
 30
0.0
 10
193.3027821142628
 20
133.2497506641495
 30
0.0
 10
193.2432260586753
 20
133.2243313447738
 30
0.0
 10
193.1805495446995
 20
133.2243313447738
 30
0.0
  0
ELLIPSE
  5
A1
330
1F
100
AcDbEntity
  8
0
  6
Continuous
 62
     7
370
    15
100
AcDbEllipse
 10
177.3611521689
 20
123.8362649134
 30
0.0
 11
14.75368316065604
 21
31.09325491558117
 31
0.0
210
0.0
220
0.0
230
1.0
 40
0.3419987131
 41
5.193281737408618
 42
6.124043104552327
  0
SPLINE
  5
A2
330
1F
100
AcDbEntity
  8
0
  6
Continuous
 62
     7
370
    15
100
AcDbSpline
210
0.0
220
0.0
230
1.0
 70
     8
 71
     3
 72
    12
 73
     8
 74
     0
 42
0.00000001
 43
0.00000001
 40
0.0
 40
0.0
 40
0.0
 40
0.0
 40
0.2500000000000009
 40
0.2500000000000009
 40
0.5000000000000018
 40
0.5000000000000018
 40
1.0
 40
1.0
 40
1.0
 40
1.0
 10
193.1805495446995
 20
153.904756872311
 30
0.0
 10
193.2436295831929
 20
153.904756872311
 30
0.0
 10
193.3027782053743
 20
153.8968509460986
 30
0.0
 10
193.4012507554434
 20
153.8735257846623
 30
0.0
 10
193.4402873674281
 20
153.8588129948306
 30
0.0
 10
193.5401838342071
 20
153.8108571940997
 30
0.0
 10
193.5826047152738
 20
153.7745950375196
 30
0.0
 10
193.6135622465917
 20
153.7370073735551
 30
0.0
  0
LINE
  5
A3
330
1F
100
AcDbEntity
  8
0
  6
Continuous
 62
     7
370
    15
100
AcDbLine
 10
190.2360631718
 20
153.9047568723
 30
0.0
 11
193.1805495447
 21
153.9047568723
 31
0.0
  0
SPLINE
  5
A4
330
1F
100
AcDbEntity
  8
0
  6
Continuous
 62
     7
370
    15
100
AcDbSpline
210
0.0
220
0.0
230
1.0
 70
     8
 71
     3
 72
    12
 73
     8
 74
     0
 42
0.00000001
 43
0.00000001
 40
0.0
 40
0.0
 40
0.0
 40
0.0
 40
0.5
 40
0.5
 40
0.75
 40
0.75
 40
1.0
 40
1.0
 40
1.0
 40
1.0
 10
189.8030504699402
 20
153.7370073735551
 30
0.0
 10
189.8337727118593
 20
153.7743093565082
 30
0.0
 10
189.8766099263944
 20
153.8109211885545
 30
0.0
 10
189.9760369505942
 20
153.8586859718398
 30
0.0
 10
190.0157891454109
 20
153.8736434873221
 30
0.0
 10
190.1138306022691
 20
153.8968334330913
 30
0.0
 10
190.1733866578566
 20
153.904756872311
 30
0.0
 10
190.2360631718324
 20
153.904756872311
 30
0.0
  0
ELLIPSE
  5
A5
330
1F
100
AcDbEntity
  8
0
  6
Continuous
 62
     7
370
    15
100
AcDbEllipse
 10
206.0554605476
 20
123.8362649134
 30
0.0
 11
-14.75368316065606
 21
31.09325491558114
 31
0.0
210
0.0
220
0.0
230
0.9999999999999999
 40
0.3419987131
 41
0.1591422026273026
 42
1.08990356977098
  0
SPLINE
  5
A6
330
1F
100
AcDbEntity
  8
0
  6
Continuous
 62
     7
370
    15
100
AcDbSpline
210
0.0
220
0.0
230
1.0
 70
     8
 71
     3
 72
    12
 73
     8
 74
     0
 42
0.00000001
 43
0.00000001
 40
0.0
 40
0.0
 40
0.0
 40
0.0
 40
0.2500000000000014
 40
0.2500000000000014
 40
0.5000000000000028
 40
0.5000000000000028
 40
1.0
 40
1.0
 40
1.0
 40
1.0
 10
190.2360631718324
 20
93.76777295456483
 30
0.0
 10
190.1730062169346
 20
93.76777295456483
 30
0.0
 10
190.113876067189
 20
93.77567328564439
 30
0.0
 10
190.0154285166558
 20
93.79898403364945
 30
0.0
 10
189.9763962784677
 20
93.81368915993308
 30
0.0
 10
189.8765063940107
 20
93.86162268811971
 30
0.0
 10
189.8342074204014
 20
93.89769266088445
 30
0.0
 10
189.8030504699401
 20
93.93552245332067
 30
0.0
  0
LINE
  5
A7
330
1F
100
AcDbEntity
  8
0
  6
Continuous
 62
     7
370
    15
100
AcDbLine
 10
193.1805495447
 20
93.7677729546
 30
0.0
 11
190.2360631718
 21
93.7677729546
 31
0.0
  0
SPLINE
  5
A8
330
1F
100
AcDbEntity
  8
0
  6
Continuous
 62
     7
370
    15
100
AcDbSpline
210
0.0
220
0.0
230
1.0
 70
     8
 71
     3
 72
    12
 73
     8
 74
     0
 42
0.00000001
 43
0.00000001
 40
0.0
 40
0.0
 40
0.0
 40
0.0
 40
0.4999999999999953
 40
0.4999999999999953
 40
0.7499999999999977
 40
0.7499999999999977
 40
1.0
 40
1.0
 40
1.0
 40
1.0
 10
193.6135622465917
 20
93.93552245332067
 30
0.0
 10
193.5824170486296
 20
93.89770693040047
 30
0.0
 10
193.5401427822952
 20
93.86164007231687
 30
0.0
 10
193.4401972484699
 20
93.81368000730562
 30
0.0
 10
193.4004669437658
 20
93.79881903340795
 30
0.0
 10
193.3035788937597
 20
93.77586788727683
 30
0.0
 10
193.2435136520131
 20
93.76777295456476
 30
0.0
 10
193.1805495446995
 20
93.76777295456478
 30
0.0
  0
ELLIPSE
  5
A9
330
1F
100
AcDbEntity
  8
0
  6
Continuous
 62
     7
370
    15
100
AcDbEllipse
 10
177.3611521689
 20
123.8362649134
 30
0.0
 11
-14.75368316065621
 21
31.09325491558117
 31
0.0
210
0.0
220
0.0
230
1.0
 40
0.3419987131
 41
3.300734856217118
 42
4.231496223360772
  0
SPLINE
  5
AA
330
1F
100
AcDbEntity
  8
0
  6
Continuous
 62
     7
370
    15
100
AcDbSpline
210
0.0
220
0.0
230
1.0
 70
     8
 71
     3
 72
    12
 73
     8
 74
     0
 42
0.00000001
 43
0.00000001
 40
0.0
 40
0.0
 40
0.0
 40
0.0
 40
0.2499999999999986
 40
0.2499999999999986
 40
0.4999999999999972
 40
0.4999999999999972
 40
1.0
 40
1.0
 40
1.0
 40
1.0
 10
193.1805495446995
 20
114.4481984821017
 30
0.0
 10
193.2436064995973
 20
114.4481984821017
 30
0.0
 10
193.3027366493429
 20
114.422852128721
 30
0.0
 10
193.4011841998762
 20
114.3487327465815
 30
0.0
 10
193.4402164380643
 20
114.3022362318835
 30
0.0
 10
193.5401063225212
 20
114.1521617248749
 30
0.0
 10
193.5824052961306
 20
114.0410440157601
 30
0.0
 10
193.6135622465918
 20
113.9268955927526
 30
0.0
  0
LINE
  5
AB
330
1F
100
AcDbEntity
  8
0
  6
Continuous
 62
     7
370
    15
100
AcDbLine
 10
190.2360631718
 20
114.4481984821
 30
0.0
 11
193.1805495447
 21
114.4481984821
 31
0.0
  0
SPLINE
  5
AC
330
1F
100
AcDbEntity
  8
0
  6
Continuous
 62
     7
370
    15
100
AcDbSpline
210
0.0
220
0.0
230
1.0
 70
     8
 71
     3
 72
    12
 73
     8
 74
     0
 42
0.00000001
 43
0.00000001
 40
0.0
 40
0.0
 40
0.0
 40
0.0
 40
0.5000000000000046
 40
0.5000000000000046
 40
0.7500000000000022
 40
0.7500000000000022
 40
1.0
 40
1.0
 40
1.0
 40
1.0
 10
189.8030504699402
 20
113.9268955927526
 30
0.0
 10
189.8341956679023
 20
114.0410009586179
 30
0.0
 10
189.8764699342367
 20
114.1521072858366
 30
0.0
 10
189.976415468062
 20
114.3022648932669
 30
0.0
 10
190.0161457727661
 20
114.3492575848843
 30
0.0
 10
190.1130338227723
 20
114.4222331694228
 30
0.0
 10
190.1730990645189
 20
114.4481984821018
 30
0.0
 10
190.2360631718324
 20
114.4481984821018
 30
0.0
  0
ELLIPSE
  5
AD
330
1F
100
AcDbEntity
  8
0
  6
Continuous
 62
     7
370
    15
100
AcDbEllipse
 10
206.0554605476
 20
123.8362649134
 30
0.0
 11
14.75368316065618
 21
31.09325491558117
 31
0.0
210
0.0
220
0.0
230
1.0
 40
0.3419987131
 41
2.051689083818824
 42
2.9824504509625
  0
ELLIPSE
  5
AE
330
1F
100
AcDbEntity
  8
0
  6
Continuous
 62
     7
370
    15
100
AcDbEllipse
 10
213.501455862
 20
123.8362649134
 30
0.0
 11
0.2380198950872056
 21
31.49993548694766
 31
0.0
210
0.0
220
0.0
230
0.9999999999999999
 40
0.2678431773
 41
0.3641475962704327
 42
2.833852683988805
  0
SPLINE
  5
AF
330
1F
100
AcDbEntity
  8
0
  6
Continuous
 62
     7
370
    15
100
AcDbSpline
210
0.0
220
0.0
230
1.0
 70
     8
 71
     3
 72
    18
 73
    14
 74
     0
 42
0.00000001
 43
0.00000001
 40
0.0
 40
0.0
 40
0.0
 40
0.0
 40
0.2499999999999999
 40
0.2499999999999999
 40
0.3749999999999995
 40
0.3749999999999995
 40
0.4999999999999991
 40
0.4999999999999991
 40
0.6249999999999988
 40
0.6249999999999988
 40
0.7499999999999983
 40
0.7499999999999983
 40
1.0
 40
1.0
 40
1.0
 40
1.0
 10
210.7189908588735
 20
93.83548899509678
 30
0.0
 10
210.8618689596646
 20
93.66331862221192
 30
0.0
 10
211.075655259289
 20
93.51513184663496
 30
0.0
 10
211.5069137301639
 20
93.32241211522789
 30
0.0
 10
211.6701762738238
 20
93.26306346813968
 30
0.0
 10
212.0247364069779
 20
93.15679109565903
 30
0.0
 10
212.2170553452441
 20
93.10931246378054
 30
0.0
 10
212.6320236096595
 20
93.02405580450446
 30
0.0
 10
212.8563907080695
 20
92.98605027216757
 30
0.0
 10
213.3291493194442
 20
92.91976311601468
 30
0.0
 10
213.575357114707
 20
92.89166955045073
 30
0.0
 10
214.342724752905
 20
92.8199030172238
 30
0.0
 10
214.8987680154885
 20
92.78835582145788
 30
0.0
 10
215.4726567506063
 20
92.77128098444493
 30
0.0
  0
ELLIPSE
  5
B0
330
1F
100
AcDbEntity
  8
0
  6
Continuous
 62
     7
370
    15
100
AcDbEllipse
 10
249.6612335097
 20
123.8362649134
 30
0.0
 11
178.6453143423569
 21
0.8510139164426818
 31
0.0
210
0.0
220
0.0
230
0.9999999999999998
 40
0.1762626822
 41
4.518984656670368
 42
4.527351911212021
  0
ELLIPSE
  5
B1
330
1F
100
AcDbEntity
  8
0
  6
Continuous
 62
     7
370
    15
100
AcDbEllipse
 10
233.9671110478
 20
123.8362649134
 30
0.0
 11
-22.62876809348171
 21
31.41112139639843
 31
0.0
210
0.0
220
0.0
230
1.0
 40
0.1044964202
 41
5.965791014231633
 42
6.208047156796408
  0
SPLINE
  5
B2
330
1F
100
AcDbEntity
  8
0
  6
Continuous
 62
     7
370
    15
100
AcDbSpline
210
0.0
220
0.0
230
1.0
 70
     8
 71
     3
 72
    14
 73
    10
 74
     0
 42
0.00000001
 43
0.00000001
 40
0.0
 40
0.0
 40
0.0
 40
0.0
 40
0.25
 40
0.25
 40
0.5
 40
0.5
 40
0.75
 40
0.75
 40
1.0
 40
1.0
 40
1.0
 40
1.0
 10
213.4930030768529
 20
154.4164400962447
 30
0.0
 10
213.1472864273628
 20
154.3669464238549
 30
0.0
 10
212.8275744500918
 20
154.3078685196143
 30
0.0
 10
212.2382770817744
 20
154.1670075483085
 30
0.0
 10
211.9667237718982
 20
154.0841416280655
 30
0.0
 10
211.495378938515
 20
153.8975318331894
 30
0.0
 10
211.2929974205886
 20
153.7935249341854
 30
0.0
 10
210.9535061567859
 20
153.5605161962708
 30
0.0
 10
210.8180235492589
 20
153.4320679227284
 30
0.0
 10
210.7189908588735
 20
153.2933822232526
 30
0.0
  0
LINE
  5
B3
330
1F
100
AcDbEntity
  8
0
  6
Continuous
 62
     7
370
    15
100
AcDbLine
 10
179.7083063583
 20
92.8362649134
 30
0.0
 11
179.7083063583
 21
154.8362649075
 31
0.0
  0
ELLIPSE
  5
B4
330
1F
100
AcDbEntity
  8
0
  6
Continuous
 62
     7
370
    15
100
AcDbEllipse
 10
209.0848278927
 20
106.6144836084
 30
0.0
 11
-0.3474074387399071
 21
3.371749224490372
 31
0.0
210
0.0
220
0.0
230
0.9999999999999999
 40
0.2215793443
 41
0.0
 42
6.283185307179586
  0
SPLINE
  5
B5
330
1F
100
AcDbEntity
  8
0
  6
Continuous
 62
     7
370
    15
100
AcDbSpline
210
0.0
220
0.0
230
1.0
 70
     8
 71
     3
 72
    12
 73
     8
 74
     0
 42
0.00000001
 43
0.00000001
 40
0.0
 40
0.0
 40
0.0
 40
0.0
 40
0.4999999999999998
 40
0.4999999999999998
 40
0.7499999999999997
 40
0.7499999999999997
 40
1.0
 40
1.0
 40
1.0
 40
1.0
 10
178.8917940718095
 20
101.9814712109621
 30
0.0
 10
178.9482305727166
 20
101.9800533296203
 30
0.0
 10
179.0173152034054
 20
101.9784889933721
 30
0.0
 10
179.1361174751233
 20
101.9755448013976
 30
0.0
 10
179.1763027505934
 20
101.9745065983002
 30
0.0
 10
179.2496837979972
 20
101.9725727030856
 30
0.0
 10
179.2830933617399
 20
101.9716778157968
 30
0.0
 10
179.3133294693963
 20
101.9708940255244
 30
0.0
  0
SPLINE
  5
B6
330
1F
100
AcDbEntity
  8
0
  6
Continuous
 62
     7
370
    15
100
AcDbSpline
210
0.0
220
0.0
230
1.0
 70
     8
 71
     3
 72
    16
 73
    12
 74
     0
 42
0.00000001
 43
0.00000001
 40
0.0
 40
0.0
 40
0.0
 40
0.0
 40
0.0624999999999986
 40
0.0624999999999986
 40
0.1249999999999971
 40
0.1249999999999971
 40
0.2499999999999997
 40
0.2499999999999997
 40
0.4999999999999998
 40
0.4999999999999998
 40
1.0
 40
1.0
 40
1.0
 40
1.0
 10
179.3133294693591
 20
101.9708940255487
 30
0.0
 10
179.3249098769471
 20
101.9705938344373
 30
0.0
 10
179.3382194037083
 20
101.9692660861784
 30
0.0
 10
179.3675208337945
 20
101.9625674114033
 30
0.0
 10
179.3823349336787
 20
101.9572092282977
 30
0.0
 10
179.4181633353816
 20
101.9401635791303
 30
0.0
 10
179.4322829597446
 20
101.9287010413546
 30
0.0
 10
179.4667871038332
 20
101.8971377159823
 30
0.0
 10
179.4778916545378
 20
101.8792404169371
 30
0.0
 10
179.5040678317539
 20
101.8290789993228
 30
0.0
 10
179.5083063582659
 20
101.8013345871262
 30
0.0
 10
179.5083063582659
 20
101.7766704251967
 30
0.0
  0
LINE
  5
B7
330
1F
100
AcDbEntity
  8
0
  6
Continuous
 62
     7
370
    15
100
AcDbLine
 10
179.5083063583
 20
116.8143775877
 30
0.0
 11
179.5083063583
 21
101.2964446346
 31
0.0
  0
SPLINE
  5
B8
330
1F
100
AcDbEntity
  8
0
  6
Continuous
 62
     7
370
    15
100
AcDbSpline
210
0.0
220
0.0
230
1.0
 70
     8
 71
     3
 72
    16
 73
    12
 74
     0
 42
0.00000001
 43
0.00000001
 40
0.0
 40
0.0
 40
0.0
 40
0.0
 40
0.5000000000000004
 40
0.5000000000000004
 40
0.7500000000000007
 40
0.7500000000000007
 40
0.8750000000000014
 40
0.8750000000000014
 40
0.9375000000000007
 40
0.9375000000000007
 40
1.0
 40
1.0
 40
1.0
 40
1.0
 10
179.5083063582659
 20
116.8143775876879
 30
0.0
 10
179.5083063582659
 20
116.9280701318158
 30
0.0
 10
179.504160083188
 20
117.0423902931653
 30
0.0
 10
179.4781944877945
 20
117.2154385836624
 30
0.0
 10
179.4667335824171
 20
117.2746140908241
 30
0.0
 10
179.4324218446427
 20
117.3577372102922
 30
0.0
 10
179.4183971087132
 20
117.3858585263929
 30
0.0
 10
179.3823741456793
 20
117.4144743403703
 30
0.0
 10
179.3676196365896
 20
117.4202673882722
 30
0.0
 10
179.3382674754427
 20
117.4186739623351
 30
0.0
 10
179.3249276009387
 20
117.4121775590113
 30
0.0
 10
179.3133294693903
 20
117.4036618128082
 30
0.0
  0
SPLINE
  5
B9
330
1F
100
AcDbEntity
  8
0
  6
Continuous
 62
     7
370
    15
100
AcDbSpline
210
0.0
220
0.0
230
1.0
 70
     8
 71
     3
 72
    12
 73
     8
 74
     0
 42
0.00000001
 43
0.00000001
 40
0.0
 40
0.0
 40
0.0
 40
0.0
 40
0.2500000000000001
 40
0.2500000000000001
 40
0.5000000000000002
 40
0.5000000000000002
 40
1.0
 40
1.0
 40
1.0
 40
1.0
 10
179.3133294693974
 20
117.403661812799
 30
0.0
 10
179.2831310279568
 20
117.381489080754
 30
0.0
 10
179.2497636726208
 20
117.3624094248767
 30
0.0
 10
179.1766083967909
 20
117.337236380434
 30
0.0
 10
179.1363556977669
 20
117.3316798440172
 30
0.0
 10
179.018626954492
 20
117.342591655004
 30
0.0
 10
178.9481685064331
 20
117.3845274104148
 30
0.0
 10
178.8917940718148
 20
117.4337391927963
 30
0.0
  0
SPLINE
  5
BA
330
1F
100
AcDbEntity
  8
0
  6
Continuous
 62
     7
370
    15
100
AcDbSpline
210
0.0
220
0.0
230
1.0
 70
     8
 71
     3
 72
    12
 73
     8
 74
     0
 42
0.00000001
 43
0.00000001
 40
0.0
 40
0.0
 40
0.0
 40
0.0
 40
0.4999999999999978
 40
0.4999999999999978
 40
0.7499999999999989
 40
0.7499999999999989
 40
1.0
 40
1.0
 40
1.0
 40
1.0
 10
178.3869860147063
 20
118.6500905846769
 30
0.0
 10
178.4307363665908
 20
118.4296435997024
 30
0.0
 10
178.4836265177152
 20
118.2140986098968
 30
0.0
 10
178.5952380608569
 20
117.9016845333249
 30
0.0
 10
178.6377974047604
 20
117.799605057709
 30
0.0
 10
178.7427746400979
 20
117.6051650450672
 30
0.0
 10
178.8043418831925
 20
117.5100801460036
 30
0.0
 10
178.8917940718148
 20
117.4337391927964
 30
0.0
  0
SPLINE
  5
BB
330
1F
100
AcDbEntity
  8
0
  6
Continuous
 62
     7
370
    15
100
AcDbSpline
210
0.0
220
0.0
230
1.0
 70
     8
 71
     3
 72
    12
 73
     8
 74
     0
 42
0.00000001
 43
0.00000001
 40
0.0
 40
0.0
 40
0.0
 40
0.0
 40
0.2499999999999992
 40
0.2499999999999992
 40
0.4999999999999984
 40
0.4999999999999984
 40
1.0
 40
1.0
 40
1.0
 40
1.0
 10
178.8917940718148
 20
130.2387906340795
 30
0.0
 10
178.8033006642469
 20
130.1615407539712
 30
0.0
 10
178.743242623481
 20
130.068221430082
 30
0.0
 10
178.6373943504984
 20
129.8721883771126
 30
0.0
 10
178.5948608292209
 20
129.7698620189008
 30
0.0
 10
178.4837095223973
 20
129.4585176131249
 30
0.0
 10
178.4307786653495
 20
129.2430993599469
 30
0.0
 10
178.3869860147063
 20
129.0224392421991
 30
0.0
  0
SPLINE
  5
BC
330
1F
100
AcDbEntity
  8
0
  6
Continuous
 62
     7
370
    15
100
AcDbSpline
210
0.0
220
0.0
230
1.0
 70
     8
 71
     3
 72
    12
 73
     8
 74
     0
 42
0.00000001
 43
0.00000001
 40
0.0
 40
0.0
 40
0.0
 40
0.0
 40
0.5
 40
0.5
 40
0.75
 40
0.75
 40
1.0
 40
1.0
 40
1.0
 40
1.0
 10
178.8917940718148
 20
130.2387906340795
 30
0.0
 10
178.9481026201104
 20
130.2879449013233
 30
0.0
 10
179.0183772808285
 20
130.3299022199271
 30
0.0
 10
179.1364151951521
 20
130.3408618974595
 30
0.0
 10
179.176591436006
 20
130.3353531392121
 30
0.0
 10
179.2505485306839
 20
130.3097959104232
 30
0.0
 10
179.2831649183954
 20
130.2910158625839
 30
0.0
 10
179.3133294693911
 20
130.2688680140672
 30
0.0
  0
SPLINE
  5
BD
330
1F
100
AcDbEntity
  8
0
  6
Continuous
 62
     7
370
    15
100
AcDbSpline
210
0.0
220
0.0
230
1.0
 70
     8
 71
     3
 72
    16
 73
    12
 74
     0
 42
0.00000001
 43
0.00000001
 40
0.0
 40
0.0
 40
0.0
 40
0.0
 40
0.0625000000000011
 40
0.0625000000000011
 40
0.1250000000000022
 40
0.1250000000000022
 40
0.2500000000000033
 40
0.2500000000000033
 40
0.5000000000000022
 40
0.5000000000000022
 40
1.0
 40
1.0
 40
1.0
 40
1.0
 10
179.3133294693594
 20
130.2688680140127
 30
0.0
 10
179.3249423691987
 20
130.2603414244174
 30
0.0
 10
179.3382935536312
 20
130.2538411628846
 30
0.0
 10
179.3676933932504
 20
130.2522717657671
 30
0.0
 10
179.3825341178057
 20
130.2581551563977
 30
0.0
 10
179.4183673257742
 20
130.2867027924482
 30
0.0
 10
179.4324805335959
 20
130.3148698117541
 30
0.0
 10
179.4669719048147
 20
130.398624070176
 30
0.0
 10
179.4780559759251
 20
130.4563374837974
 30
0.0
 10
179.5041787937211
 20
130.6299280204433
 30
0.0
 10
179.508306358266
 20
130.7449560730852
 30
0.0
 10
179.508306358266
 20
130.858152239188
 30
0.0
  0
LINE
  5
BE
330
1F
100
AcDbEntity
  8
0
  6
Continuous
 62
     7
370
    15
100
AcDbLine
 10
179.5083063583
 20
146.3760851923
 30
0.0
 11
179.5083063583
 21
130.8581522392
 31
0.0
  0
SPLINE
  5
BF
330
1F
100
AcDbEntity
  8
0
  6
Continuous
 62
     7
370
    15
100
AcDbSpline
210
0.0
220
0.0
230
1.0
 70
     8
 71
     3
 72
    16
 73
    12
 74
     0
 42
0.00000001
 43
0.00000001
 40
0.0
 40
0.0
 40
0.0
 40
0.0
 40
0.5000000000000037
 40
0.5000000000000037
 40
0.7500000000000034
 40
0.7500000000000034
 40
0.8750000000000036
 40
0.8750000000000036
 40
0.9375000000000018
 40
0.9375000000000018
 40
1.0
 40
1.0
 40
1.0
 40
1.0
 10
179.5083063582659
 20
145.8958594016793
 30
0.0
 10
179.5083063582659
 20
145.8711882456363
 30
0.0
 10
179.504140659806
 20
145.8436064142451
 30
0.0
 10
179.4778823314811
 20
145.7932635434217
 30
0.0
 10
179.4663785497435
 20
145.7749740453598
 30
0.0
 10
179.4322477903969
 20
145.7438190143228
 30
0.0
 10
179.4178259037262
 20
145.7321796391111
 30
0.0
 10
179.3822589352884
 20
145.71529761318
 30
0.0
 10
179.3673071669937
 20
145.7099085093724
 30
0.0
 10
179.338303348634
 20
145.7032880134279
 30
0.0
 10
179.3248879946247
 20
145.7019354252214
 30
0.0
 10
179.3133294693881
 20
145.7016358013498
 30
0.0
  0
SPLINE
  5
C0
330
1F
100
AcDbEntity
  8
0
  6
Continuous
 62
     7
370
    15
100
AcDbSpline
210
0.0
220
0.0
230
1.0
 70
     8
 71
     3
 72
    12
 73
     8
 74
     0
 42
0.00000001
 43
0.00000001
 40
0.0
 40
0.0
 40
0.0
 40
0.0
 40
0.25
 40
0.25
 40
0.5
 40
0.5
 40
1.0
 40
1.0
 40
1.0
 40
1.0
 10
179.3133294693974
 20
145.7016358013515
 30
0.0
 10
179.2831416928477
 20
145.7008532639339
 30
0.0
 10
179.249787888756
 20
145.6999599321154
 30
0.0
 10
179.1766616855601
 20
145.6980326233119
 30
0.0
 10
179.1364264825359
 20
145.6969930920992
 30
0.0
 10
179.0187348524028
 20
145.6940752087519
 30
0.0
 10
178.9483541792428
 20
145.6924796026817
 30
0.0
 10
178.8917940718122
 20
145.6910586159138
 30
0.0
  0
SPLINE
  5
C1
330
1F
100
AcDbEntity
  8
0
  6
Continuous
 62
     7
370
    15
100
AcDbSpline
210
0.0
220
0.0
230
1.0
 70
     8
 71
     3
 72
    16
 73
    12
 74
     0
 42
0.00000001
 43
0.00000001
 40
0.0
 40
0.0
 40
0.0
 40
0.0
 40
0.25
 40
0.25
 40
0.375
 40
0.375
 40
0.5
 40
0.5
 40
0.75
 40
0.75
 40
1.0
 40
1.0
 40
1.0
 40
1.0
 10
178.3869860147063
 20
129.0224392421991
 30
0.0
 10
178.2257535372218
 20
128.2100294669522
 30
0.0
 10
178.1052736975822
 20
127.3699511725675
 30
0.0
 10
177.9828931802689
 20
126.0686561232047
 30
0.0
 10
177.9519155198714
 20
125.6279750876199
 30
0.0
 10
177.9103017822435
 20
124.7321354466888
 30
0.0
 10
177.9000658693107
 20
124.2854773154863
 30
0.0
 10
177.8998774722546
 20
122.9501673583464
 30
0.0
 10
177.9400221748922
 20
122.0656719850389
 30
0.0
 10
178.1041759298317
 20
120.3084220970129
 30
0.0
 10
178.2257275802413
 20
119.4626311505998
 30
0.0
 10
178.3869860147063
 20
118.6500905846769
 30
0.0
  0
LINE
  5
C2
330
1F
100
AcDbEntity
  8
0
  6
Continuous
 62
     7
370
    15
100
AcDbLine
 10
177.5083063583
 20
130.3214431751
 30
0.0
 11
177.5083063583
 21
117.3510866518
 31
0.0
  0
LINE
  5
C3
330
1F
100
AcDbEntity
  8
0
  6
Continuous
 62
     7
370
    15
100
AcDbLine
 10
143.2083063583
 20
129.890575481
 30
0.0
 11
143.2083063583
 21
117.7819543459
 31
0.0
  0
LINE
  5
C4
330
1F
100
AcDbEntity
  8
0
  6
Continuous
 62
     7
370
    15
100
AcDbLine
 10
141.7083063583
 20
129.4575627791
 30
0.0
 11
141.7083063583
 21
118.2149670478
 31
0.0
  0
LINE
  5
C5
330
1F
100
AcDbEntity
  8
0
  6
Continuous
 62
     7
370
    15
100
AcDbLine
 10
177.5083063583
 20
130.3214431751
 30
0.0
 11
177.5083063583
 21
145.856363698
 31
0.0
  0
ARC
  5
C6
330
1F
100
AcDbEntity
  8
0
  6
Continuous
 62
     7
370
    15
100
AcDbCircle
 10
177.7082432692
 20
145.8613868091
 30
0.0
 40
0.2000000000000066
100
AcDbArc
 50
181.4391666667
 51
271.4391666667
  0
LINE
  5
C7
330
1F
100
AcDbEntity
  8
0
  6
Continuous
 62
     7
370
    15
100
AcDbLine
 10
143.2083063583
 20
129.890575481
 30
0.0
 11
143.2083063583
 21
144.9946283097
 31
0.0
  0
LINE
  5
C8
330
1F
100
AcDbEntity
  8
0
  6
Continuous
 62
     7
370
    15
100
AcDbLine
 10
143.2083063583
 20
144.9946283097
 30
0.0
 11
177.5083063583
 21
145.856363698
 31
0.0
  0
LINE
  5
C9
330
1F
100
AcDbEntity
  8
0
  6
Continuous
 62
     7
370
    15
100
AcDbLine
 10
143.2083063583
 20
102.6779015172
 30
0.0
 11
143.2083063583
 21
117.7819543459
 31
0.0
  0
LINE
  5
CA
330
1F
100
AcDbEntity
  8
0
  6
Continuous
 62
     7
370
    15
100
AcDbLine
 10
177.5083063583
 20
101.8161661289
 30
0.0
 11
177.5083063583
 21
117.3510866518
 31
0.0
  0
LINE
  5
CB
330
1F
100
AcDbEntity
  8
0
  6
Continuous
 62
     7
370
    15
100
AcDbLine
 10
143.2083063583
 20
102.6779015172
 30
0.0
 11
177.5083063583
 21
101.8161661289
 31
0.0
  0
ARC
  5
CC
330
1F
100
AcDbEntity
  8
0
  6
Continuous
 62
     7
370
    15
100
AcDbCircle
 10
177.7082432692
 20
101.8111430177
 30
0.0
 40
0.1999999999999924
100
AcDbArc
 50
88.5608333333
 51
178.5608333333
  0
LINE
  5
CD
330
1F
100
AcDbEntity
  8
0
  6
Continuous
 62
     7
370
    15
100
AcDbLine
 10
177.7132663803
 20
145.6614498982
 30
0.0
 11
178.8917940718
 21
145.6910586159
 31
0.0
  0
LINE
  5
CE
330
1F
100
AcDbEntity
  8
0
  6
Continuous
 62
     7
370
    15
100
AcDbLine
 10
177.7132663803
 20
102.0110799287
 30
0.0
 11
178.8917940718
 21
101.981471211
 31
0.0
  0
LINE
  5
CF
330
1F
100
AcDbEntity
  8
0
  6
Continuous
 62
     7
370
    15
100
AcDbLine
 10
141.7083063583
 20
144.1286029059
 30
0.0
 11
143.2083063583
 21
144.9946283097
 31
0.0
  0
LINE
  5
D0
330
1F
100
AcDbEntity
  8
0
  6
Continuous
 62
     7
370
    15
100
AcDbLine
 10
141.7083063583
 20
129.4575627791
 30
0.0
 11
141.7083063583
 21
144.1286029059
 31
0.0
  0
LINE
  5
D1
330
1F
100
AcDbEntity
  8
0
  6
Continuous
 62
     7
370
    15
100
AcDbLine
 10
141.7083063583
 20
103.5439269209
 30
0.0
 11
143.2083063583
 21
102.6779015172
 31
0.0
  0
LINE
  5
D2
330
1F
100
AcDbEntity
  8
0
  6
Continuous
 62
     7
370
    15
100
AcDbLine
 10
141.7083063583
 20
103.5439269209
 30
0.0
 11
141.7083063583
 21
118.2149670478
 31
0.0
  0
ELLIPSE
  5
D3
330
1F
100
AcDbEntity
  8
0
  6
Continuous
 62
     7
370
    15
100
AcDbEllipse
 10
216.5145458166
 20
151.2887688897
 30
0.0
 11
-5.96650571193922
 21
8.612347037101388
 31
0.0
210
0.0
220
0.0
230
1.0
 40
0.0735101875
 41
1.148759320196017
 42
1.501976058541742
  0
ARC
  5
D4
330
1F
100
AcDbEntity
  8
0
  6
Continuous
 62
     7
370
    15
100
AcDbCircle
 10
234.652036873
 20
92.5707269928
 30
0.0
 40
1.980938003314048
100
AcDbArc
 50
30.2452792657
 51
210.3701519709
  0
LINE
  5
D5
330
1F
100
AcDbEntity
  8
0
  6
Continuous
 62
     7
370
    15
100
AcDbLine
 10
232.9429287913
 20
91.5691956963
 30
0.0
 11
234.321862893
 21
89.125501814
 31
0.0
  0
LINE
  5
D6
330
1F
100
AcDbEntity
  8
0
  6
Continuous
 62
     7
370
    15
100
AcDbLine
 10
234.321862893
 20
89.125501814
 30
0.0
 11
228.4654917515
 21
78.909267541
 31
0.0
  0
ELLIPSE
  5
D7
330
1F
100
AcDbEntity
  8
0
  6
Continuous
 62
     7
370
    15
100
AcDbEllipse
 10
249.6612335097
 20
123.8362649134
 30
0.0
 11
255.2075919176526
 21
1.215734166346693
 31
0.0
210
0.0
220
0.0
230
0.9999999999999998
 40
0.1762626822
 41
4.603315172403716
 42
4.628400624617573
  0
SPLINE
  5
D8
330
1F
100
AcDbEntity
  8
0
  6
Continuous
 62
     7
370
    15
100
AcDbSpline
210
0.0
220
0.0
230
1.0
 70
     8
 71
     3
 72
    10
 73
     6
 74
     0
 42
0.00000001
 43
0.00000001
 40
0.0
 40
0.0
 40
0.0
 40
0.0
 40
0.5
 40
0.5
 40
1.0
 40
1.0
 40
1.0
 40
1.0
 10
221.1270216177759
 20
79.74772100657584
 30
0.0
 10
221.184369760375
 20
79.53148020506276
 30
0.0
 10
221.3107614023067
 20
79.34095380612288
 30
0.0
 10
221.6576883771934
 20
79.06798995661924
 30
0.0
 10
221.8721294990055
 20
78.99088009619531
 30
0.0
 10
222.0929474440638
 20
78.98767002023047
 30
0.0
  0
SPLINE
  5
D9
330
1F
100
AcDbEntity
  8
0
  6
Continuous
 62
     7
370
    15
100
AcDbSpline
210
0.0
220
0.0
230
1.0
 70
     8
 71
     3
 72
     8
 73
     4
 74
     0
 42
0.00000001
 43
0.00000001
 40
0.0
 40
0.0
 40
0.0
 40
0.0
 40
1.0
 40
1.0
 40
1.0
 40
1.0
 10
217.9069051965761
 20
91.94930392436204
 30
0.0
 10
218.9735528596665
 20
87.88025222792021
 30
0.0
 10
220.0487409046846
 20
83.81355949911861
 30
0.0
 10
221.127021617776
 20
79.74772100657584
 30
0.0
  0
SPLINE
  5
DA
330
1F
100
AcDbEntity
  8
0
  6
Continuous
 62
     7
370
    15
100
AcDbSpline
210
0.0
220
0.0
230
1.0
 70
     8
 71
     3
 72
    10
 73
     6
 74
     0
 42
0.00000001
 43
0.00000001
 40
0.0
 40
0.0
 40
0.0
 40
0.0
 40
0.5
 40
0.5
 40
1.0
 40
1.0
 40
1.0
 40
1.0
 10
216.940979370287
 20
92.72871721801462
 30
0.0
 10
217.1626520549617
 20
92.72246064165428
 30
0.0
 10
217.3772816333416
 20
92.64134275980807
 30
0.0
 10
217.7245789693191
 20
92.36024308084339
 30
0.0
 10
217.8499535854795
 20
92.16656315415908
 30
0.0
 10
217.9069051965761
 20
91.94930392436203
 30
0.0
  0
LINE
  5
DB
330
1F
100
AcDbEntity
  8
0
  6
Continuous
 62
     7
370
    15
100
AcDbLine
 10
241.7191534637
 20
113.1448589604
 30
0.0
 11
241.7191534637
 21
85.3127996251
 31
0.0
  0
LINE
  5
DC
330
1F
100
AcDbEntity
  8
0
  6
Continuous
 62
     7
370
    15
100
AcDbLine
 10
241.0554387624
 20
85.3097361156
 30
0.0
 11
241.7191534637
 21
85.3127996251
 31
0.0
  0
LINE
  5
DD
330
1F
100
AcDbEntity
  8
0
  6
Continuous
 62
     7
370
    15
100
AcDbLine
 10
237.1528571827
 20
92.1693501484
 30
0.0
 11
236.3633236711
 21
93.5685310155
 31
0.0
  0
LINE
  5
DE
330
1F
100
AcDbEntity
  8
0
  6
Continuous
 62
     7
370
    15
100
AcDbLine
 10
215.4726567506
 20
151.4434444596
 30
0.0
 11
241.7191534637
 21
113.1448589604
 31
0.0
  0
ELLIPSE
  5
DF
330
1F
100
AcDbEntity
  8
0
  6
Continuous
 62
     7
370
    15
100
AcDbEllipse
 10
254.3737098857
 20
123.8362649134
 30
0.0
 11
27.0814685474391
 21
44.83645157147819
 31
0.0
210
0.0
220
0.0
230
1.0
 40
0.1415393743
 41
3.226875865860488
 42
3.283844619289669
  0
ELLIPSE
  5
E0
330
1F
100
AcDbEntity
  8
0
  6
Continuous
 62
     7
370
    15
100
AcDbEllipse
 10
211.3654097968
 20
123.8362649134
 30
0.0
 11
255.2075919176528
 21
1.215734166346721
 31
0.0
210
0.0
220
0.0
230
0.9999999999999998
 40
0.1762626822
 41
4.778882406390937
 42
4.779913818696395
  0
ARC
  5
E1
330
1F
100
AcDbEntity
  8
0
  6
Continuous
 62
     7
370
    15
100
AcDbCircle
 10
233.4951968386
 20
92.7773930912
 30
0.0
 40
1.96523933089241
100
AcDbArc
 50
29.3272962191
 51
64.0150143465
  0
LINE
  5
E2
330
1F
100
AcDbEntity
  8
0
  6
Continuous
 62
     7
370
    15
100
AcDbLine
 10
235.9306488308
 20
92.4603109326
 30
0.0
 11
235.2085632896
 21
93.7399631054
 31
0.0
  0
LINE
  5
E3
330
1F
100
AcDbEntity
  8
0
  6
Continuous
 62
     7
370
    15
100
AcDbLine
 10
228.7989685483
 20
79.0372347998
 30
0.0
 11
228.7989685483
 21
79.1609294775
 31
0.0
  0
ARC
  5
E4
330
1F
100
AcDbEntity
  8
0
  6
HIDDEN
 62
     7
370
     0
100
AcDbCircle
 10
201.1672437332
 20
108.4868898187
 30
0.0
 40
2.542009474463576
100
AcDbArc
 50
1.563878409
 51
65.6666277987
  0
ARC
  5
E5
330
1F
100
AcDbEntity
  8
0
  6
HIDDEN
 62
     7
370
     0
100
AcDbCircle
 10
200.6848559178
 20
108.2288302465
 30
0.0
 40
2.994505091204748
100
AcDbArc
 50
59.2780323529
 51
173.7224311492
  0
ARC
  5
E6
330
1F
100
AcDbEntity
  8
0
  6
HIDDEN
 62
     7
370
     0
100
AcDbCircle
 10
201.0112221258
 20
108.2796029987
 30
0.0
 40
2.607690002169626
100
AcDbArc
 50
24.632113218
 51
64.2439280751
  0
ARC
  5
E7
330
1F
100
AcDbEntity
  8
0
  6
HIDDEN
 62
     7
370
     0
100
AcDbCircle
 10
200.7122809186
 20
107.9622666285
 30
0.0
 40
3.026253539558553
100
AcDbArc
 50
61.7563757901
 51
151.4555910311
  0
LWPOLYLINE
  5
E8
330
1F
100
AcDbEntity
  8
0
  6
HIDDEN
 62
     7
370
     0
100
AcDbPolyline
 90
       29
 70
   128
 43
0.0
 10
202.2146663829
 20
111.0780758995
 10
202.7542057358
 20
110.731454852
 10
203.191155151
 20
110.2895503465
 10
203.5036041602
 20
109.7745213201
 10
203.6758852655
 20
109.2121934788
 10
203.6993595729
 20
108.6307642886
 10
203.5728499825
 20
108.059389037
 10
203.3027002135
 20
107.5267188648
 10
202.9024567034
 20
107.0594640789
 10
202.392189333
 20
106.6810547852
 10
201.7974850389
 20
106.4104660058
 10
201.1481647778
 20
106.261266192
 10
200.4767881788
 20
106.2409368455
 10
199.8170208681
 20
106.3504973646
 10
199.2019463336
 20
106.5844539274
 10
198.6624069807
 20
106.9310749749
 10
198.2254575655
 20
107.3729794804
 10
197.9130085563
 20
107.8880085067
 10
197.740727451
 20
108.4503363481
 10
197.7172531437
 20
109.0317655383
 10
197.843762734
 20
109.6031407899
 10
198.113912503
 20
110.135810962
 10
198.5141560132
 20
110.603065748
 10
199.0244233836
 20
110.9814750417
 10
199.6191276776
 20
111.2520638211
 10
200.2684479387
 20
111.4012636349
 10
200.9398245377
 20
111.4215929814
 10
201.5995918484
 20
111.3120324623
 10
202.2146663829
 20
111.0780758995
  0
LWPOLYLINE
  5
E9
330
1F
100
AcDbEntity
  8
0
  6
HIDDEN
 62
     7
370
     0
100
AcDbPolyline
 90
       26
 70
   128
 43
0.0
 10
201.9636063788
 20
112.7869195653
 10
202.4618350829
 20
112.4577403084
 10
202.8498831283
 20
112.0315984302
 10
203.103368029
 20
111.5352699923
 10
203.2063623965
 20
110.9999411358
 10
203.1523947159
 20
110.4592485415
 10
202.9448559751
 20
109.9471659137
 10
202.5967865964
 20
109.4958692872
 10
202.130057059
 20
109.1337152887
 10
201.5739936962
 20
108.8834593859
 10
200.9635360142
 20
108.7608260776
 10
200.3370413143
 20
108.7735208656
 10
199.7338745625
 20
108.9207460895
 10
199.1919349441
 20
109.1932510472
 10
198.7452745185
 20
109.5739132499
 10
198.421958603
 20
110.0388142915
 10
198.2423023255
 20
110.5587427297
 10
198.2175941507
 20
111.1010295487
 10
198.3493865841
 20
111.6316008731
 10
198.6293986224
 20
112.1171189553
 10
199.0400360794
 20
112.5270769088
 10
199.5554970936
 20
112.8357155674
 10
200.1433933536
 20
113.0236420292
 10
200.7667851752
 20
113.0790481835
 10
201.3865025577
 20
112.9984526578
 10
201.9636063788
 20
112.7869195653
  0
LWPOLYLINE
  5
EA
330
1F
100
AcDbEntity
  8
0
  6
HIDDEN
 62
     7
370
     0
100
AcDbPolyline
 90
       28
 70
   128
 43
0.0
 10
202.1142423813
 20
111.1834195122
 10
202.6347663653
 20
110.8461015487
 10
203.0514343916
 20
110.4139173994
 10
203.3417837792
 20
109.9101662239
 10
203.4901617174
 20
109.3620053784
 10
203.4885691131
 20
108.7989863559
 10
203.3370918241
 20
108.2514616577
 10
203.0438960301
 20
107.748948482
 10
202.6247879924
 20
107.3185374441
 10
202.1023619337
 20
106.9834321145
 10
201.5047819782
 20
106.7616981083
 10
200.8642638158
 20
106.6652891631
 10
200.2153379465
 20
106.6994027102
 10
199.5929881318
 20
106.8621996793
 10
199.0307654115
 20
107.1449036438
 10
198.5589793578
 20
107.5322739597
 10
198.203064079
 20
108.003427393
 10
197.98220706
 20
108.5329639403
 10
197.9083147598
 20
109.092336149
 10
197.9853707314
 20
109.6513881188
 10
198.2092208674
 20
110.1799812132
 10
198.5677973491
 20
110.6496188416
 10
199.0417692256
 20
111.034982718
 10
199.6055845502
 20
111.3152977761
 10
200.2288478929
 20
111.4754521584
 10
200.8779589657
 20
111.5068119008
 10
201.5179240224
 20
111.4076863915
 10
202.1142423813
 20
111.1834195122
  0
LWPOLYLINE
  5
EB
330
1F
100
AcDbEntity
  8
0
  6
HIDDEN
 62
     7
370
     0
100
AcDbPolyline
 90
       29
 70
   128
 43
0.0
 10
202.2146663829
 20
111.4230758995
 10
202.7542057358
 20
111.076454852
 10
203.191155151
 20
110.6345503465
 10
203.5036041602
 20
110.1195213201
 10
203.6758852655
 20
109.5571934788
 10
203.6993595729
 20
108.9757642886
 10
203.5728499825
 20
108.404389037
 10
203.3027002135
 20
107.8717188648
 10
202.9024567034
 20
107.4044640789
 10
202.392189333
 20
107.0260547852
 10
201.7974850389
 20
106.7554660058
 10
201.1481647778
 20
106.606266192
 10
200.4767881788
 20
106.5859368455
 10
199.8170208681
 20
106.6954973646
 10
199.2019463336
 20
106.9294539274
 10
198.6624069807
 20
107.2760749749
 10
198.2254575655
 20
107.7179794804
 10
197.9130085563
 20
108.2330085067
 10
197.740727451
 20
108.7953363481
 10
197.7172531437
 20
109.3767655383
 10
197.843762734
 20
109.9481407899
 10
198.113912503
 20
110.480810962
 10
198.5141560132
 20
110.948065748
 10
199.0244233836
 20
111.3264750417
 10
199.6191276776
 20
111.5970638211
 10
200.2684479387
 20
111.7462636349
 10
200.9398245377
 20
111.7665929814
 10
201.5995918484
 20
111.6570324623
 10
202.2146663829
 20
111.4230758995
  0
LWPOLYLINE
  5
EC
330
1F
100
AcDbEntity
  8
0
  6
HIDDEN
 62
     7
370
     0
100
AcDbPolyline
 90
       28
 70
   128
 43
0.0
 10
202.1142423813
 20
111.5284195122
 10
202.6347663653
 20
111.1911015487
 10
203.0514343916
 20
110.7589173994
 10
203.3417837792
 20
110.2551662239
 10
203.4901617174
 20
109.7070053784
 10
203.4885691131
 20
109.1439863559
 10
203.3370918241
 20
108.5964616577
 10
203.0438960301
 20
108.093948482
 10
202.6247879924
 20
107.6635374441
 10
202.1023619337
 20
107.3284321145
 10
201.5047819782
 20
107.1066981083
 10
200.8642638158
 20
107.0102891631
 10
200.2153379465
 20
107.0444027102
 10
199.5929881318
 20
107.2071996793
 10
199.0307654115
 20
107.4899036438
 10
198.5589793578
 20
107.8772739597
 10
198.203064079
 20
108.348427393
 10
197.98220706
 20
108.8779639403
 10
197.9083147598
 20
109.437336149
 10
197.9853707314
 20
109.9963881188
 10
198.2092208674
 20
110.5249812132
 10
198.5677973491
 20
110.9946188416
 10
199.0417692256
 20
111.379982718
 10
199.6055845502
 20
111.6602977761
 10
200.2288478929
 20
111.8204521584
 10
200.8779589657
 20
111.8518119008
 10
201.5179240224
 20
111.7526863915
 10
202.1142423813
 20
111.5284195122
  0
LWPOLYLINE
  5
ED
330
1F
100
AcDbEntity
  8
0
  6
HIDDEN
 62
     7
370
     0
100
AcDbPolyline
 90
       29
 70
   128
 43
0.0
 10
202.2146663829
 20
111.7680758995
 10
202.7542057358
 20
111.421454852
 10
203.191155151
 20
110.9795503465
 10
203.5036041602
 20
110.4645213201
 10
203.6758852655
 20
109.9021934788
 10
203.6993595729
 20
109.3207642886
 10
203.5728499825
 20
108.749389037
 10
203.3027002135
 20
108.2167188648
 10
202.9024567034
 20
107.7494640789
 10
202.392189333
 20
107.3710547852
 10
201.7974850389
 20
107.1004660058
 10
201.1481647778
 20
106.951266192
 10
200.4767881788
 20
106.9309368455
 10
199.8170208681
 20
107.0404973646
 10
199.2019463336
 20
107.2744539274
 10
198.6624069807
 20
107.6210749749
 10
198.2254575655
 20
108.0629794804
 10
197.9130085563
 20
108.5780085067
 10
197.740727451
 20
109.1403363481
 10
197.7172531437
 20
109.7217655383
 10
197.843762734
 20
110.2931407899
 10
198.113912503
 20
110.825810962
 10
198.5141560132
 20
111.293065748
 10
199.0244233836
 20
111.6714750417
 10
199.6191276776
 20
111.9420638211
 10
200.2684479387
 20
112.0912636349
 10
200.9398245377
 20
112.1115929814
 10
201.5995918484
 20
112.0020324623
 10
202.2146663829
 20
111.7680758995
  0
LWPOLYLINE
  5
EE
330
1F
100
AcDbEntity
  8
0
  6
HIDDEN
 62
     7
370
     0
100
AcDbPolyline
 90
       28
 70
   128
 43
0.0
 10
202.1142423813
 20
111.8734195122
 10
202.6347663653
 20
111.5361015487
 10
203.0514343916
 20
111.1039173994
 10
203.3417837792
 20
110.6001662239
 10
203.4901617174
 20
110.0520053784
 10
203.4885691131
 20
109.4889863559
 10
203.3370918241
 20
108.9414616577
 10
203.0438960301
 20
108.438948482
 10
202.6247879924
 20
108.0085374441
 10
202.1023619337
 20
107.6734321145
 10
201.5047819782
 20
107.4516981083
 10
200.8642638158
 20
107.3552891631
 10
200.2153379465
 20
107.3894027102
 10
199.5929881318
 20
107.5521996793
 10
199.0307654115
 20
107.8349036438
 10
198.5589793578
 20
108.2222739597
 10
198.203064079
 20
108.693427393
 10
197.98220706
 20
109.2229639403
 10
197.9083147598
 20
109.782336149
 10
197.9853707314
 20
110.3413881188
 10
198.2092208674
 20
110.8699812132
 10
198.5677973491
 20
111.3396188416
 10
199.0417692256
 20
111.724982718
 10
199.6055845502
 20
112.0052977761
 10
200.2288478929
 20
112.1654521584
 10
200.8779589657
 20
112.1968119008
 10
201.5179240224
 20
112.0976863915
 10
202.1142423813
 20
111.8734195122
  0
LWPOLYLINE
  5
EF
330
1F
100
AcDbEntity
  8
0
  6
HIDDEN
 62
     7
370
     0
100
AcDbPolyline
 90
       29
 70
   128
 43
0.0
 10
202.2146663829
 20
112.1130758995
 10
202.7542057358
 20
111.766454852
 10
203.191155151
 20
111.3245503465
 10
203.5036041602
 20
110.8095213201
 10
203.6758852655
 20
110.2471934788
 10
203.6993595729
 20
109.6657642886
 10
203.5728499825
 20
109.094389037
 10
203.3027002135
 20
108.5617188648
 10
202.9024567034
 20
108.0944640789
 10
202.392189333
 20
107.7160547852
 10
201.7974850389
 20
107.4454660058
 10
201.1481647778
 20
107.296266192
 10
200.4767881788
 20
107.2759368455
 10
199.8170208681
 20
107.3854973646
 10
199.2019463336
 20
107.6194539274
 10
198.6624069807
 20
107.9660749749
 10
198.2254575655
 20
108.4079794804
 10
197.9130085563
 20
108.9230085067
 10
197.740727451
 20
109.4853363481
 10
197.7172531437
 20
110.0667655383
 10
197.843762734
 20
110.6381407899
 10
198.113912503
 20
111.170810962
 10
198.5141560132
 20
111.638065748
 10
199.0244233836
 20
112.0164750417
 10
199.6191276776
 20
112.2870638211
 10
200.2684479387
 20
112.4362636349
 10
200.9398245377
 20
112.4565929814
 10
201.5995918484
 20
112.3470324623
 10
202.2146663829
 20
112.1130758995
  0
LWPOLYLINE
  5
F0
330
1F
100
AcDbEntity
  8
0
  6
HIDDEN
 62
     7
370
     0
100
AcDbPolyline
 90
       28
 70
   128
 43
0.0
 10
202.1142423813
 20
112.2184195122
 10
202.6347663653
 20
111.8811015487
 10
203.0514343916
 20
111.4489173994
 10
203.3417837792
 20
110.9451662239
 10
203.4901617174
 20
110.3970053784
 10
203.4885691131
 20
109.8339863559
 10
203.3370918241
 20
109.2864616577
 10
203.0438960301
 20
108.783948482
 10
202.6247879924
 20
108.3535374441
 10
202.1023619337
 20
108.0184321145
 10
201.5047819782
 20
107.7966981083
 10
200.8642638158
 20
107.7002891631
 10
200.2153379465
 20
107.7344027102
 10
199.5929881318
 20
107.8971996793
 10
199.0307654115
 20
108.1799036438
 10
198.5589793578
 20
108.5672739597
 10
198.203064079
 20
109.038427393
 10
197.98220706
 20
109.5679639403
 10
197.9083147598
 20
110.127336149
 10
197.9853707314
 20
110.6863881188
 10
198.2092208674
 20
111.2149812132
 10
198.5677973491
 20
111.6846188416
 10
199.0417692256
 20
112.069982718
 10
199.6055845502
 20
112.3502977761
 10
200.2288478929
 20
112.5104521584
 10
200.8779589657
 20
112.5418119008
 10
201.5179240224
 20
112.4426863915
 10
202.1142423813
 20
112.2184195122
  0
LWPOLYLINE
  5
F1
330
1F
100
AcDbEntity
  8
0
  6
HIDDEN
 62
     7
370
     0
100
AcDbPolyline
 90
       29
 70
   128
 43
0.0
 10
202.2146663829
 20
112.4580758995
 10
202.7542057358
 20
112.111454852
 10
203.191155151
 20
111.6695503465
 10
203.5036041602
 20
111.1545213201
 10
203.6758852655
 20
110.5921934788
 10
203.6993595729
 20
110.0107642886
 10
203.5728499825
 20
109.439389037
 10
203.3027002135
 20
108.9067188648
 10
202.9024567034
 20
108.4394640789
 10
202.392189333
 20
108.0610547852
 10
201.7974850389
 20
107.7904660058
 10
201.1481647778
 20
107.641266192
 10
200.4767881788
 20
107.6209368455
 10
199.8170208681
 20
107.7304973646
 10
199.2019463336
 20
107.9644539274
 10
198.6624069807
 20
108.3110749749
 10
198.2254575655
 20
108.7529794804
 10
197.9130085563
 20
109.2680085067
 10
197.740727451
 20
109.8303363481
 10
197.7172531437
 20
110.4117655383
 10
197.843762734
 20
110.9831407899
 10
198.113912503
 20
111.515810962
 10
198.5141560132
 20
111.983065748
 10
199.0244233836
 20
112.3614750417
 10
199.6191276776
 20
112.6320638211
 10
200.2684479387
 20
112.7812636349
 10
200.9398245377
 20
112.8015929814
 10
201.5995918484
 20
112.6920324623
 10
202.2146663829
 20
112.4580758995
  0
LWPOLYLINE
  5
F2
330
1F
100
AcDbEntity
  8
0
  6
HIDDEN
 62
     7
370
     0
100
AcDbPolyline
 90
       29
 70
   128
 43
0.0
 10
202.2146663829
 20
113.8330758995
 10
202.7542057358
 20
113.486454852
 10
203.191155151
 20
113.0445503465
 10
203.5036041602
 20
112.5295213201
 10
203.6758852655
 20
111.9671934788
 10
203.6993595729
 20
111.3857642886
 10
203.5728499825
 20
110.814389037
 10
203.3027002135
 20
110.2817188648
 10
202.9024567034
 20
109.8144640789
 10
202.392189333
 20
109.4360547852
 10
201.7974850389
 20
109.1654660058
 10
201.1481647778
 20
109.016266192
 10
200.4767881788
 20
108.9959368455
 10
199.8170208681
 20
109.1054973646
 10
199.2019463336
 20
109.3394539274
 10
198.6624069807
 20
109.6860749749
 10
198.2254575655
 20
110.1279794804
 10
197.9130085563
 20
110.6430085067
 10
197.740727451
 20
111.2053363481
 10
197.7172531437
 20
111.7867655383
 10
197.843762734
 20
112.3581407899
 10
198.113912503
 20
112.890810962
 10
198.5141560132
 20
113.358065748
 10
199.0244233836
 20
113.7364750417
 10
199.6191276776
 20
114.0070638211
 10
200.2684479387
 20
114.1562636349
 10
200.9398245377
 20
114.1765929814
 10
201.5995918484
 20
114.0670324623
 10
202.2146663829
 20
113.8330758995
  0
LWPOLYLINE
  5
F3
330
1F
100
AcDbEntity
  8
0
  6
HIDDEN
 62
     7
370
     0
100
AcDbPolyline
 90
       26
 70
   128
 43
0.0
 10
201.9537571732
 20
113.5939168212
 10
202.4480767266
 20
113.2673203366
 10
202.8330801094
 20
112.8445220089
 10
203.084576143
 20
112.3520878121
 10
203.1867624067
 20
111.8209591976
 10
203.1332181618
 20
111.2845089298
 10
202.92730779
 20
110.7764441519
 10
202.5819693974
 20
110.3286884425
 10
202.1189018652
 20
109.9693759394
 10
201.5672014294
 20
109.7210835687
 10
200.9615334576
 20
109.5994124532
 10
200.3399542958
 20
109.6120076366
 10
199.7415200488
 20
109.7580777171
 10
199.2038325412
 20
110.0284445745
 10
198.7606766566
 20
110.4061200647
 10
198.439897509
 20
110.8673734477
 10
198.2616508321
 20
111.383222477
 10
198.23713652
 20
111.921254461
 10
198.3678948972
 20
112.4476628714
 10
198.645709934
 20
112.9293715317
 10
199.0531254897
 20
113.3361129153
 10
199.5645421468
 20
113.6423299651
 10
200.1478257157
 20
113.8287819377
 10
200.7663263448
 20
113.8837533699
 10
201.3811813646
 20
113.8037902045
 10
201.9537571732
 20
113.5939168212
  0
ARC
  5
F4
330
1F
100
AcDbEntity
  8
0
  6
HIDDEN
 62
     7
370
     0
100
AcDbCircle
 10
230.8347540261
 20
80.6727489032
 30
0.0
 40
1.742531514516823
100
AcDbArc
 50
149.6015957626
 51
269.2689721182
  0
ELLIPSE
  5
F5
330
1F
100
AcDbEntity
  8
0
  6
HIDDEN
 62
     7
370
     0
100
AcDbEllipse
 10
230.5652847267
 20
80.717645066
 30
0.0
 11
0.1591471150468919
 21
1.743085472498066
 31
0.0
210
0.0
220
0.0
230
1.0
 40
0.937566278
 41
1.139500734565706
 42
3.233895836958903
  0
LINE
  5
F6
330
1F
100
AcDbEntity
  8
0
  6
HIDDEN
 62
     7
370
     0
100
AcDbLine
 10
230.8125219425
 20
78.9303592184
 30
0.0
 11
239.2628842095
 21
78.9303592184
 31
0.0
  0
LINE
  5
F7
330
1F
100
AcDbEntity
  8
0
  6
HIDDEN
 62
     7
370
     0
100
AcDbLine
 10
233.9993881054
 20
89.696979207
 30
0.0
 11
229.3317722177
 21
81.5544868249
 31
0.0
  0
ARC
  5
F8
330
1F
100
AcDbEntity
  8
0
  6
HIDDEN
 62
     7
370
     0
100
AcDbCircle
 10
236.0077428345
 20
90.6450173767
 30
0.0
 40
1.268379310246135
100
AcDbArc
 50
29.1974381821
 51
94.8682914449
  0
LINE
  5
F9
330
1F
100
AcDbEntity
  8
0
  6
HIDDEN
 62
     7
370
     0
100
AcDbLine
 10
240.5460109301
 20
85.1833947712
 30
0.0
 11
237.1149668032
 21
91.2637589689
 31
0.0
  0
LINE
  5
FA
330
1F
100
AcDbEntity
  8
0
  6
HIDDEN
 62
     7
370
     0
100
AcDbLine
 10
240.5460109301
 20
85.1833947712
 30
0.0
 11
240.5299779017
 21
81.6041933246
 31
0.0
  0
ARC
  5
FB
330
1F
100
AcDbEntity
  8
0
  6
HIDDEN
 62
     7
370
     0
100
AcDbCircle
 10
240.7792222948
 20
81.6021723078
 30
0.0
 40
0.2492525868010703
100
AcDbArc
 50
179.5354230671
 51
239.8333138449
  0
LINE
  5
FC
330
1F
100
AcDbEntity
  8
0
  6
HIDDEN
 62
     7
370
     0
100
AcDbLine
 10
240.6539685477
 20
81.3866767142
 30
0.0
 11
241.6581844619
 21
80.8084521381
 31
0.0
  0
ARC
  5
FD
330
1F
100
AcDbEntity
  8
0
  6
HIDDEN
 62
     7
370
     0
100
AcDbCircle
 10
241.608082963
 20
80.7222539006
 30
0.0
 40
0.0997010347203145
100
AcDbArc
 50
359.5354230671
 51
59.833313845
  0
LINE
  5
FE
330
1F
100
AcDbEntity
  8
0
  6
HIDDEN
 62
     7
370
     0
100
AcDbLine
 10
241.7077807203
 20
80.7214454939
 30
0.0
 11
241.7062879154
 21
80.3881928367
 31
0.0
  0
ARC
  5
FF
330
1F
100
AcDbEntity
  8
0
  6
HIDDEN
 62
     7
370
     0
100
AcDbCircle
 10
241.6055426093
 20
80.388436315
 30
0.0
 40
0.1007456002864114
100
AcDbArc
 50
299.9978691766
 51
359.8615295067
  0
LINE
  5
100
330
1F
100
AcDbEntity
  8
0
  6
HIDDEN
 62
     7
370
     0
100
AcDbLine
 10
241.6559121647
 20
80.3011861926
 30
0.0
 11
239.2628842095
 21
78.9303592184
 31
0.0
  0
CIRCLE
  5
101
330
1F
100
AcDbEntity
  8
0
  6
HIDDEN
 62
     7
370
     0
100
AcDbCircle
 10
235.9933832714
 20
83.9445338707
 30
0.0
 40
2.995669525463294
  0
LINE
  5
102
330
1F
100
AcDbEntity
  8
0
  6
HIDDEN
 62
     7
370
     0
100
AcDbLine
 10
233.7470165326
 20
90.1442223841
 30
0.0
 11
229.034837484
 21
81.9239911292
 31
0.0
  0
ELLIPSE
  5
103
330
1F
100
AcDbEntity
  8
0
  6
HIDDEN
 62
     7
370
     0
100
AcDbEllipse
 10
229.0932829374
 20
81.5898921925
 30
0.0
 11
0.1666124542548459
 21
0.3001797053648687
 31
0.0
210
0.0
220
0.0
230
1.0
 40
0.1489020632
 41
4.768263348090571
 42
6.33905967488546
  0
LINE
  5
104
330
1F
100
AcDbEntity
  8
0
  6
HIDDEN
 62
     7
370
     0
100
AcDbLine
 10
229.2571392435
 20
81.89098891
 30
0.0
 11
229.034837484
 21
81.9239911292
 31
0.0
  0
ARC
  5
105
330
1F
100
AcDbEntity
  8
0
  6
HIDDEN
 62
     7
370
     0
100
AcDbCircle
 10
235.5365116378
 20
90.7117095227
 30
0.0
 40
1.271879106386619
100
AcDbArc
 50
29.2596196105
 51
81.4597906162
  0
LINE
  5
106
330
1F
100
AcDbEntity
  8
0
  6
HIDDEN
 62
     7
370
     0
100
AcDbLine
 10
230.5574482091
 20
78.9682266617
 30
0.0
 11
234.8683108874
 21
78.9999632249
 31
0.0
  0
ELLIPSE
  5
107
330
1F
100
AcDbEntity
  8
0
  6
HIDDEN
 62
     7
370
     0
100
AcDbEllipse
 10
235.4894091717
 20
81.6369804622
 30
0.0
 11
1.141490476325174
 21
0.0003791168247033738
 31
0.0
210
0.0
220
0.0
230
0.9999999999999999
 40
0.2627267283
 41
6.281921163968195
 42
7.852717490762979
  0
LINE
  5
108
330
1F
100
AcDbEntity
  8
0
  6
HIDDEN
 62
     7
370
     0
100
AcDbLine
 10
235.4907525747
 20
81.9368807601
 30
0.0
 11
229.2571392435
 21
81.89098891
 31
0.0
  0
LINE
  5
109
330
1F
100
AcDbEntity
  8
0
  6
HIDDEN
 62
     7
370
     0
100
AcDbLine
 10
238.7940341298
 20
78.9999632249
 30
0.0
 11
239.2628842095
 21
78.9303592184
 31
0.0
  0
LINE
  5
10A
330
1F
100
AcDbEntity
  8
0
  6
HIDDEN
 62
     7
370
     0
100
AcDbLine
 10
240.5460109301
 20
85.1833947712
 30
0.0
 11
240.0771608504
 21
85.2529987776
 31
0.0
  0
CIRCLE
  5
10B
330
1F
100
AcDbEntity
  8
0
  6
HIDDEN
 62
     7
370
     0
100
AcDbCircle
 10
235.6349728601
 20
83.9440225457
 30
0.0
 40
1.98996039639618
  0
CIRCLE
  5
10C
330
1F
100
AcDbEntity
  8
0
  6
HIDDEN
 62
     7
370
     0
100
AcDbCircle
 10
235.4317593302
 20
84.0181311577
 30
0.0
 40
1.992401806037519
  0
LINE
  5
10D
330
1F
100
AcDbEntity
  8
0
  6
HIDDEN
 62
     7
370
     0
100
AcDbLine
 10
229.5165865384
 20
81.9368807601
 30
0.0
 11
229.034837484
 21
81.9239911292
 31
0.0
  0
LINE
  5
10E
330
1F
100
AcDbEntity
  8
0
  6
HIDDEN
 62
     7
370
     0
100
AcDbLine
 10
229.5165865384
 20
81.9368807601
 30
0.0
 11
234.7671677307
 21
91.0963356912
 31
0.0
  0
ARC
  5
10F
330
1F
100
AcDbEntity
  8
0
  6
HIDDEN
 62
     7
370
     0
100
AcDbCircle
 10
241.0498684408
 20
80.4709299523
 30
0.0
 40
0.1007456002861029
100
AcDbArc
 50
299.9978691765
 51
359.8615295067
  0
LINE
  5
110
330
1F
100
AcDbEntity
  8
0
  6
HIDDEN
 62
     7
370
     0
100
AcDbLine
 10
241.1506137469
 20
80.470686474
 30
0.0
 11
241.1521065517
 21
80.8039391312
 31
0.0
  0
ARC
  5
111
330
1F
100
AcDbEntity
  8
0
  6
HIDDEN
 62
     7
370
     0
100
AcDbCircle
 10
241.0524087945
 20
80.8047475379
 30
0.0
 40
0.0997010347204935
100
AcDbArc
 50
359.5354230671
 51
59.8333138449
  0
LINE
  5
112
330
1F
100
AcDbEntity
  8
0
  6
HIDDEN
 62
     7
370
     0
100
AcDbLine
 10
241.1025102933
 20
80.8909457753
 30
0.0
 11
240.0982943792
 21
81.4691703515
 31
0.0
  0
ARC
  5
113
330
1F
100
AcDbEntity
  8
0
  6
HIDDEN
 62
     7
370
     0
100
AcDbCircle
 10
240.2235481263
 20
81.6846659451
 30
0.0
 40
0.2492525868010217
100
AcDbArc
 50
179.5354230671
 51
239.8333138449
  0
LINE
  5
114
330
1F
100
AcDbEntity
  8
0
  6
HIDDEN
 62
     7
370
     0
100
AcDbLine
 10
239.9743037331
 20
81.6866869619
 30
0.0
 11
239.9858587515
 21
84.2662207488
 31
0.0
  0
LINE
  5
115
330
1F
100
AcDbEntity
  8
0
  6
HIDDEN
 62
     7
370
     0
100
AcDbLine
 10
239.5797609539
 20
79.5126866855
 30
0.0
 11
241.1002379962
 21
80.3836798298
 31
0.0
  0
LINE
  5
116
330
1F
100
AcDbEntity
  8
0
  6
HIDDEN
 62
     7
370
     0
100
AcDbLine
 10
235.4907525747
 20
81.9368807601
 30
0.0
 11
229.5165865384
 21
81.9368807601
 31
0.0
  0
LINE
  5
117
330
1F
100
AcDbEntity
  8
0
  6
HIDDEN
 62
     7
370
     0
100
AcDbLine
 10
236.6308988618
 20
81.6369804622
 30
0.0
 11
236.6213830905
 21
79.5126866855
 31
0.0
  0
ARC
  5
118
330
1F
100
AcDbEntity
  8
0
  6
HIDDEN
 62
     7
370
     0
100
AcDbCircle
 10
235.4494555027
 20
90.7131287002
 30
0.0
 40
0.7825370289582692
100
AcDbArc
 50
29.3207484513
 51
150.6792515487
  0
LINE
  5
119
330
1F
100
AcDbEntity
  8
0
  6
HIDDEN
 62
     7
370
     0
100
AcDbLine
 10
236.1317432746
 20
91.0963356912
 30
0.0
 11
239.9858587515
 21
84.2662207488
 31
0.0
  0
LINE
  5
11A
330
1F
100
AcDbEntity
  8
0
  6
HIDDEN
 62
     7
370
     0
100
AcDbLine
 10
239.9858587515
 20
84.2662207488
 30
0.0
 11
240.0771608504
 21
85.2529987776
 31
0.0
  0
LINE
  5
11B
330
1F
100
AcDbEntity
  8
0
  6
HIDDEN
 62
     7
370
     0
100
AcDbLine
 10
240.0771608504
 20
85.2529987776
 30
0.0
 11
236.6461167235
 21
91.3333629753
 31
0.0
  0
LINE
  5
11C
330
1F
100
AcDbEntity
  8
0
  6
HIDDEN
 62
     7
370
     0
100
AcDbLine
 10
239.5797609539
 20
79.5126866855
 30
0.0
 11
236.6213830905
 21
79.5126866855
 31
0.0
  0
LINE
  5
11D
330
1F
100
AcDbEntity
  8
0
  6
HIDDEN
 62
     7
370
     0
100
AcDbLine
 10
238.7940341298
 20
78.9999632249
 30
0.0
 11
239.5797609539
 21
79.5126866855
 31
0.0
  0
LINE
  5
11E
330
1F
100
AcDbEntity
  8
0
  6
HIDDEN
 62
     7
370
     0
100
AcDbLine
 10
234.8683108874
 20
78.9999632249
 30
0.0
 11
236.6213830905
 21
79.5126866855
 31
0.0
  0
LINE
  5
11F
330
1F
100
AcDbEntity
  8
0
  6
HIDDEN
 62
     7
370
     0
100
AcDbLine
 10
234.8683108874
 20
78.9999632249
 30
0.0
 11
238.7940341298
 21
78.9999632249
 31
0.0
  0
LINE
  5
120
330
1F
100
AcDbEntity
  8
0
  6
HIDDEN
 62
     7
370
     0
100
AcDbLine
 10
228.4046940058
 20
79.904361123
 30
0.0
 11
228.986415401
 21
79.8180005965
 31
0.0
  0
LINE
  5
121
330
1F
100
AcDbEntity
  8
0
  6
HIDDEN
 62
     7
370
     0
100
AcDbLine
 10
234.0087352007
 20
89.6804146449
 30
0.0
 11
228.4046940058
 21
79.904361123
 31
0.0
  0
LINE
  5
122
330
1F
100
AcDbEntity
  8
0
  6
HIDDEN
 62
     7
370
     0
100
AcDbLine
 10
228.3967303066
 20
79.2953551718
 30
0.0
 11
228.6640628284
 21
79.2556678275
 31
0.0
  0
LINE
  5
123
330
1F
100
AcDbEntity
  8
0
  6
HIDDEN
 62
     7
370
     0
100
AcDbLine
 10
228.4046940058
 20
79.904361123
 30
0.0
 11
228.3967303066
 21
79.2953551718
 31
0.0
  0
LINE
  5
124
330
1F
100
AcDbEntity
  8
0
  6
HIDDEN
 62
     7
370
     0
100
AcDbLine
 10
228.5668544486
 20
79.1953884059
 30
0.0
 11
228.6245943882
 21
79.1868165163
 31
0.0
  0
LINE
  5
125
330
1F
100
AcDbEntity
  8
0
  6
HIDDEN
 62
     7
370
     0
100
AcDbLine
 10
228.3967303066
 20
79.2953551718
 30
0.0
 11
228.5668544486
 21
79.1953884059
 31
0.0
  0
LINE
  5
126
330
1F
100
AcDbEntity
  8
0
  6
HIDDEN
 62
     7
370
     0
100
AcDbLine
 10
229.0851905738
 20
79.5044940592
 30
0.0
 11
229.4729865074
 21
79.2766210196
 31
0.0
  0
LINE
  5
127
330
1F
100
AcDbEntity
  8
0
  6
HIDDEN
 62
     7
370
     0
100
AcDbLine
 10
229.0851905738
 20
79.5044940592
 30
0.0
 11
229.7016416045
 21
79.4129776803
 31
0.0
  0
LINE
  5
128
330
1F
100
AcDbEntity
  8
0
  6
HIDDEN
 62
     7
370
     0
100
AcDbLine
 10
236.5844957729
 20
92.2320346236
 30
0.0
 11
237.2009468036
 21
92.1405182447
 31
0.0
  0
CIRCLE
  5
129
330
1F
100
AcDbEntity
  8
0
  6
HIDDEN
 62
     7
370
     0
100
AcDbCircle
 10
236.3049903094
 20
83.6573232077
 30
0.0
 40
1.990234289634827
  0
CIRCLE
  5
12A
330
1F
100
AcDbEntity
  8
0
  6
HIDDEN
 62
     7
370
     0
100
AcDbCircle
 10
235.994553785
 20
83.6699844576
 30
0.0
 40
1.990234289634851
  0
LINE
  5
12B
330
1F
100
AcDbEntity
  8
0
  6
HIDDEN
 62
     7
370
     0
100
AcDbLine
 10
242.9886385941
 20
80.8828594784
 30
0.0
 11
243.6050896249
 21
80.7913430995
 31
0.0
  0
LINE
  5
12C
330
1F
100
AcDbEntity
  8
0
  6
HIDDEN
 62
     7
370
     0
100
AcDbLine
 10
242.9834546378
 20
79.7255968953
 30
0.0
 11
243.5999056686
 21
79.6340805165
 31
0.0
  0
LINE
  5
12D
330
1F
100
AcDbEntity
  8
0
  6
HIDDEN
 62
     7
370
     0
100
AcDbLine
 10
242.9798722298
 20
78.9258627676
 30
0.0
 11
243.5963232605
 21
78.8343463888
 31
0.0
  0
LINE
  5
12E
330
1F
100
AcDbEntity
  8
0
  6
HIDDEN
 62
     7
370
     0
100
AcDbLine
 10
243.5034027776
 20
79.2257630655
 30
0.0
 11
244.1198538083
 21
79.1342466867
 31
0.0
  0
LINE
  5
12F
330
1F
100
AcDbEntity
  8
0
  6
HIDDEN
 62
     7
370
     0
100
AcDbLine
 10
243.5042983796
 20
79.4256965974
 30
0.0
 11
244.1207494103
 21
79.3341802186
 31
0.0
  0
LINE
  5
130
330
1F
100
AcDbEntity
  8
0
  6
HIDDEN
 62
     7
370
     0
100
AcDbLine
 10
228.4854571383
 20
79.8797486347
 30
0.0
 11
234.9649136138
 21
91.1829334426
 31
0.0
  0
LINE
  5
131
330
1F
100
AcDbEntity
  8
0
  6
HIDDEN
 62
     7
370
     0
100
AcDbLine
 10
228.4785999081
 20
79.3553574095
 30
0.0
 11
228.4854571383
 21
79.8797486347
 31
0.0
  0
LINE
  5
132
330
1F
100
AcDbEntity
  8
0
  6
HIDDEN
 62
     7
370
     0
100
AcDbLine
 10
228.4046940058
 20
79.904361123
 30
0.0
 11
228.4854571383
 21
79.8797486347
 31
0.0
  0
LINE
  5
133
330
1F
100
AcDbEntity
  8
0
  6
HIDDEN
 62
     7
370
     0
100
AcDbLine
 10
228.3967303066
 20
79.2953551718
 30
0.0
 11
228.4785999081
 21
79.3553574095
 31
0.0
  0
LINE
  5
134
330
1F
100
AcDbEntity
  8
0
  6
HIDDEN
 62
     7
370
     0
100
AcDbLine
 10
228.5495105828
 20
79.3136895383
 30
0.0
 11
228.4785999081
 21
79.3553574095
 31
0.0
  0
LINE
  5
135
330
1F
100
AcDbEntity
  8
0
  6
HIDDEN
 62
     7
370
     0
100
AcDbLine
 10
228.5668544486
 20
79.1953884059
 30
0.0
 11
228.5495105828
 21
79.3136895383
 31
0.0
  0
LINE
  5
136
330
1F
100
AcDbEntity
  8
0
  6
HIDDEN
 62
     7
370
     0
100
AcDbLine
 10
229.067846708
 20
79.6227951916
 30
0.0
 11
228.5495105828
 21
79.3136895383
 31
0.0
  0
LINE
  5
137
330
1F
100
AcDbEntity
  8
0
  6
HIDDEN
 62
     7
370
     0
100
AcDbLine
 10
228.5668544486
 20
79.1953884059
 30
0.0
 11
229.0851905738
 21
79.5044940592
 31
0.0
  0
LINE
  5
138
330
1F
100
AcDbEntity
  8
0
  6
HIDDEN
 62
     7
370
     0
100
AcDbLine
 10
229.0851905738
 20
79.5044940592
 30
0.0
 11
229.067846708
 21
79.6227951916
 31
0.0
  0
LINE
  5
139
330
1F
100
AcDbEntity
  8
0
  6
HIDDEN
 62
     7
370
     0
100
AcDbLine
 10
230.0793799102
 20
79.0284074598
 30
0.0
 11
229.067846708
 21
79.6227951916
 31
0.0
  0
LINE
  5
13A
330
1F
100
AcDbEntity
  8
0
  6
HIDDEN
 62
     7
370
     0
100
AcDbLine
 10
230.0699093556
 20
78.9258627676
 30
0.0
 11
230.0793799102
 21
79.0284074598
 31
0.0
  0
LINE
  5
13B
330
1F
100
AcDbEntity
  8
0
  6
HIDDEN
 62
     7
370
     0
100
AcDbLine
 10
242.9370276567
 20
79.0284074598
 30
0.0
 11
230.0793799102
 21
79.0284074598
 31
0.0
  0
LINE
  5
13C
330
1F
100
AcDbEntity
  8
0
  6
HIDDEN
 62
     7
370
     0
100
AcDbLine
 10
230.0699093556
 20
78.9258627676
 30
0.0
 11
242.9798722298
 21
78.9258627676
 31
0.0
  0
LINE
  5
13D
330
1F
100
AcDbEntity
  8
0
  6
HIDDEN
 62
     7
370
     0
100
AcDbLine
 10
234.9649136138
 20
91.1829334426
 30
0.0
 11
235.9817719341
 21
91.7773211745
 31
0.0
  0
LINE
  5
13E
330
1F
100
AcDbEntity
  8
0
  6
HIDDEN
 62
     7
370
     0
100
AcDbLine
 10
234.9649136138
 20
91.1829334426
 30
0.0
 11
234.9105140588
 21
91.2535362682
 31
0.0
  0
LINE
  5
13F
330
1F
100
AcDbEntity
  8
0
  6
HIDDEN
 62
     7
370
     0
100
AcDbLine
 10
235.9817719341
 20
91.7773211745
 30
0.0
 11
235.9004167969
 21
91.8321675597
 31
0.0
  0
LINE
  5
140
330
1F
100
AcDbEntity
  8
0
  6
HIDDEN
 62
     7
370
     0
100
AcDbLine
 10
235.9817719341
 20
91.7773211745
 30
0.0
 11
235.9792643177
 21
92.3863271256
 31
0.0
  0
LINE
  5
141
330
1F
100
AcDbEntity
  8
0
  6
HIDDEN
 62
     7
370
     0
100
AcDbLine
 10
235.9792643177
 20
92.3863271256
 30
0.0
 11
235.8979091804
 21
92.4411735109
 31
0.0
  0
LINE
  5
142
330
1F
100
AcDbEntity
  8
0
  6
HIDDEN
 62
     7
370
     0
100
AcDbLine
 10
235.9792643177
 20
92.3863271256
 30
0.0
 11
236.0505482948
 21
92.4279949968
 31
0.0
  0
LINE
  5
143
330
1F
100
AcDbEntity
  8
0
  6
HIDDEN
 62
     7
370
     0
100
AcDbLine
 10
236.0505482948
 20
92.4279949968
 30
0.0
 11
236.0689289244
 21
92.5411402769
 31
0.0
  0
LINE
  5
144
330
1F
100
AcDbEntity
  8
0
  6
HIDDEN
 62
     7
370
     0
100
AcDbLine
 10
236.0505482948
 20
92.4279949968
 30
0.0
 11
236.4944827602
 21
92.1618361982
 31
0.0
  0
LINE
  5
145
330
1F
100
AcDbEntity
  8
0
  6
HIDDEN
 62
     7
370
     0
100
AcDbLine
 10
236.5844957729
 20
92.2320346236
 30
0.0
 11
236.0689289244
 21
92.5411402769
 31
0.0
  0
LINE
  5
146
330
1F
100
AcDbEntity
  8
0
  6
HIDDEN
 62
     7
370
     0
100
AcDbLine
 10
236.4944827602
 20
92.1618361982
 30
0.0
 11
236.5844957729
 21
92.2320346236
 31
0.0
  0
LINE
  5
147
330
1F
100
AcDbEntity
  8
0
  6
HIDDEN
 62
     7
370
     0
100
AcDbLine
 10
236.4944827602
 20
92.1618361982
 30
0.0
 11
242.8726740313
 21
80.8586513903
 31
0.0
  0
LINE
  5
148
330
1F
100
AcDbEntity
  8
0
  6
HIDDEN
 62
     7
370
     0
100
AcDbLine
 10
242.9886385941
 20
80.8828594784
 30
0.0
 11
236.5844957729
 21
92.2320346236
 31
0.0
  0
LINE
  5
149
330
1F
100
AcDbEntity
  8
0
  6
HIDDEN
 62
     7
370
     0
100
AcDbLine
 10
242.8726740313
 20
80.8586513903
 30
0.0
 11
242.9886385941
 21
80.8828594784
 31
0.0
  0
LINE
  5
14A
330
1F
100
AcDbEntity
  8
0
  6
HIDDEN
 62
     7
370
     0
100
AcDbLine
 10
242.8726740313
 20
80.8586513903
 30
0.0
 11
242.8673489131
 21
79.6698759267
 31
0.0
  0
LINE
  5
14B
330
1F
100
AcDbEntity
  8
0
  6
HIDDEN
 62
     7
370
     0
100
AcDbLine
 10
242.9834546378
 20
79.7255968953
 30
0.0
 11
242.9886385941
 21
80.8828594784
 31
0.0
  0
LINE
  5
14C
330
1F
100
AcDbEntity
  8
0
  6
HIDDEN
 62
     7
370
     0
100
AcDbLine
 10
242.8673489131
 20
79.6698759267
 30
0.0
 11
242.9834546378
 21
79.7255968953
 31
0.0
  0
LINE
  5
14D
330
1F
100
AcDbEntity
  8
0
  6
HIDDEN
 62
     7
370
     0
100
AcDbLine
 10
242.8673489131
 20
79.6698759267
 30
0.0
 11
243.3881926548
 21
79.3699756288
 31
0.0
  0
LINE
  5
14E
330
1F
100
AcDbEntity
  8
0
  6
HIDDEN
 62
     7
370
     0
100
AcDbLine
 10
243.5042983796
 20
79.4256965974
 30
0.0
 11
242.9834546378
 21
79.7255968953
 31
0.0
  0
LINE
  5
14F
330
1F
100
AcDbEntity
  8
0
  6
HIDDEN
 62
     7
370
     0
100
AcDbLine
 10
242.9798722298
 20
78.9258627676
 30
0.0
 11
242.9370276567
 21
79.0284074598
 31
0.0
  0
LINE
  5
150
330
1F
100
AcDbEntity
  8
0
  6
HIDDEN
 62
     7
370
     0
100
AcDbLine
 10
243.3878193524
 20
79.2866398865
 30
0.0
 11
242.9370276567
 21
79.0284074598
 31
0.0
  0
LINE
  5
151
330
1F
100
AcDbEntity
  8
0
  6
HIDDEN
 62
     7
370
     0
100
AcDbLine
 10
242.9798722298
 20
78.9258627676
 30
0.0
 11
243.5034027776
 21
79.2257630655
 31
0.0
  0
LINE
  5
152
330
1F
100
AcDbEntity
  8
0
  6
HIDDEN
 62
     7
370
     0
100
AcDbLine
 10
243.5034027776
 20
79.2257630655
 30
0.0
 11
243.3878193524
 21
79.2866398865
 31
0.0
  0
LINE
  5
153
330
1F
100
AcDbEntity
  8
0
  6
HIDDEN
 62
     7
370
     0
100
AcDbLine
 10
243.3881926548
 20
79.3699756288
 30
0.0
 11
243.5042983796
 21
79.4256965974
 31
0.0
  0
LINE
  5
154
330
1F
100
AcDbEntity
  8
0
  6
HIDDEN
 62
     7
370
     0
100
AcDbLine
 10
243.3881926548
 20
79.3699756288
 30
0.0
 11
243.3878193524
 21
79.2866398865
 31
0.0
  0
LINE
  5
155
330
1F
100
AcDbEntity
  8
0
  6
HIDDEN
 62
     7
370
     0
100
AcDbLine
 10
243.5034027776
 20
79.2257630655
 30
0.0
 11
243.5042983796
 21
79.4256965974
 31
0.0
  0
ARC
  5
156
330
1F
100
AcDbEntity
  8
0
  6
HIDDEN
 62
     7
370
     0
100
AcDbCircle
 10
236.5811078541
 20
83.3684933328
 30
0.0
 40
2.706028303133275
100
AcDbArc
 50
183.9894803279
 51
356.0105196723
  0
ARC
  5
157
330
1F
100
AcDbEntity
  8
0
  6
HIDDEN
 62
     7
370
     0
100
AcDbCircle
 10
236.6039776272
 20
83.4008780422
 30
0.0
 40
2.775534156089186
100
AcDbArc
 50
137.0959752142
 51
167.7222377758
  0
ARC
  5
158
330
1F
100
AcDbEntity
  8
0
  6
HIDDEN
 62
     7
370
     0
100
AcDbCircle
 10
236.5618036227
 20
83.4247334349
 30
0.0
 40
2.729289550595268
100
AcDbArc
 50
168.0233076805
 51
82.0429813979
  0
ARC
  5
159
330
1F
100
AcDbEntity
  8
0
  6
HIDDEN
 62
     7
370
     0
100
AcDbCircle
 10
235.3483845843
 20
83.0872983154
 30
0.0
 40
0.2258783847973038
100
AcDbArc
 50
122.9810596095
 51
271.5454773654
  0
ARC
  5
15A
330
1F
100
AcDbEntity
  8
0
  6
HIDDEN
 62
     7
370
     0
100
AcDbCircle
 10
235.586322826
 20
84.1799794014
 30
0.0
 40
0.2252677955052423
100
AcDbArc
 50
63.5706975432
 51
212.4885394378
  0
ARC
  5
15B
330
1F
100
AcDbEntity
  8
0
  6
HIDDEN
 62
     7
370
     0
100
AcDbCircle
 10
235.3744796603
 20
82.3008978392
 30
0.0
 40
0.5616731832701295
100
AcDbArc
 50
2.2812387134
 51
81.2677952529
  0
LINE
  5
15C
330
1F
100
AcDbEntity
  8
0
  6
HIDDEN
 62
     7
370
     0
100
AcDbLine
 10
235.446978077
 20
82.8578043227
 30
0.0
 11
235.3544766141
 21
82.8615020977
 31
0.0
  0
LINE
  5
15D
330
1F
100
AcDbEntity
  8
0
  6
HIDDEN
 62
     7
370
     0
100
AcDbLine
 10
235.6865879922
 20
84.3817031634
 30
0.0
 11
235.7241477227
 21
84.3639886869
 31
0.0
  0
ARC
  5
15E
330
1F
100
AcDbEntity
  8
0
  6
HIDDEN
 62
     7
370
     0
100
AcDbCircle
 10
235.9392502528
 20
84.8809592181
 30
0.0
 40
0.5609199062140666
100
AcDbArc
 50
261.8358670689
 51
332.9258895789
  0
ARC
  5
15F
330
1F
100
AcDbEntity
  8
0
  6
HIDDEN
 62
     7
370
     0
100
AcDbCircle
 10
236.1575491471
 20
82.3314293884
 30
0.0
 40
0.2219919918896194
100
AcDbArc
 50
182.1102685221
 51
289.8741681514
  0
LWPOLYLINE
  5
160
330
1F
100
AcDbEntity
  8
0
  6
HIDDEN
 62
     7
370
     0
100
AcDbPolyline
 90
        3
 70
   128
 43
0.0
 10
237.1071533514
 20
82.4746601515
 10
237.005691393
 20
82.5151035738
 10
236.9341469381
 20
82.5306392606
  0
ARC
  5
161
330
1F
100
AcDbEntity
  8
0
  6
HIDDEN
 62
     7
370
     0
100
AcDbCircle
 10
236.6362523533
 20
84.5256035956
 30
0.0
 40
0.2214427016319924
100
AcDbArc
 50
53.1350771662
 51
153.1380856175
  0
LINE
  5
162
330
1F
100
AcDbEntity
  8
0
  6
HIDDEN
 62
     7
370
     0
100
AcDbLine
 10
237.3339904781
 20
84.0003028091
 30
0.0
 11
237.4392647294
 21
83.9948612171
 31
0.0
  0
ARC
  5
163
330
1F
100
AcDbEntity
  8
0
  6
HIDDEN
 62
     7
370
     0
100
AcDbCircle
 10
237.2081566994
 20
82.6695369794
 30
0.0
 40
0.2194963652577499
100
AcDbArc
 50
242.6025967411
 51
288.546116925
  0
LWPOLYLINE
  5
164
330
1F
100
AcDbEntity
  8
0
  6
HIDDEN
 62
     7
370
     0
100
AcDbPolyline
 90
        3
 70
   128
 43
0.0
 10
237.5551410575
 20
83.9676238836
 10
237.5109864563
 20
83.9861022823
 10
237.4392647294
 20
83.9948612171
  0
ARC
  5
165
330
1F
100
AcDbEntity
  8
0
  6
HIDDEN
 62
     7
370
     0
100
AcDbCircle
 10
234.9079896227
 20
83.7558936743
 30
0.0
 40
0.5747333977623665
100
AcDbArc
 50
303.5261598982
 51
31.8267876672
  0
CIRCLE
  5
166
330
1F
100
AcDbEntity
  8
0
  6
HIDDEN
 62
     7
370
     0
100
AcDbCircle
 10
235.9775644643
 20
83.487800235
 30
0.0
 40
1.38156287863646
  0
CIRCLE
  5
167
330
1F
100
AcDbEntity
  8
0
  6
HIDDEN
 62
     7
370
     0
100
AcDbCircle
 10
236.1408077777
 20
83.4635656467
 30
0.0
 40
1.38156287863642
  0
CIRCLE
  5
168
330
1F
100
AcDbEntity
  8
0
  6
HIDDEN
 62
     7
370
     0
100
AcDbCircle
 10
234.5574774726
 20
83.6983710935
 30
0.0
 40
1.579321782197361
  0
CIRCLE
  5
169
330
1F
100
AcDbEntity
  8
0
  6
HIDDEN
 62
     7
370
     0
100
AcDbCircle
 10
235.9783536864
 20
83.4874322851
 30
0.0
 40
1.579321782197327
  0
CIRCLE
  5
16A
330
1F
100
AcDbEntity
  8
0
  6
HIDDEN
 62
     7
370
     0
100
AcDbCircle
 10
234.5013807001
 20
83.7070692613
 30
0.0
 40
1.26567741668004
  0
LWPOLYLINE
  5
16B
330
1F
100
AcDbEntity
  8
0
  6
HIDDEN
 62
     7
370
     0
100
AcDbPolyline
 90
       27
 70
   128
 43
0.0
 10
233.0678160794
 20
82.5343381445
 10
233.3133600781
 20
82.5185584932
 10
233.4075078236
 20
82.5016991463
 10
233.3447877911
 20
82.4847399077
 10
233.128845041
 20
82.4686663869
 10
232.772229381
 20
82.4544127183
 10
232.2956660169
 20
82.4428072733
 10
231.7268510793
 20
82.4345245184
 10
231.0988420247
 20
82.430045817
 10
230.4481364568
 20
82.429631455
 10
229.8125510178
 20
82.4333055137
 10
229.2290236233
 20
82.44085447
 10
228.7314667644
 20
82.4518396061
 10
228.3487966372
 20
82.4656225059
 10
228.1032526385
 20
82.4814021572
 10
228.0091048929
 20
82.4982615041
 10
228.0718249254
 20
82.5152207426
 10
228.2877676755
 20
82.5312942635
 10
228.6443833356
 20
82.5455479321
 10
229.1209466997
 20
82.557153377
 10
229.6897616373
 20
82.565436132
 10
230.3177706918
 20
82.5699148334
 10
230.9684762598
 20
82.5703291954
 10
231.6040616987
 20
82.5666551367
 10
232.1875890932
 20
82.5591061804
 10
232.6851459521
 20
82.5481210442
 10
233.0678160794
 20
82.5343381445
  0
LWPOLYLINE
  5
16C
330
1F
100
AcDbEntity
  8
0
  6
HIDDEN
 62
     7
370
     0
100
AcDbPolyline
 90
       27
 70
   128
 43
0.0
 10
233.0678160794
 20
80.1526545677
 10
232.6851459521
 20
80.1664374675
 10
232.1875890932
 20
80.1774226036
 10
231.6040616987
 20
80.18497156
 10
230.9684762598
 20
80.1886456186
 10
230.3177706918
 20
80.1882312566
 10
229.6897616373
 20
80.1837525552
 10
229.1209466997
 20
80.1754698003
 10
228.6443833356
 20
80.1638643554
 10
228.2877676755
 20
80.1496106868
 10
228.0718249254
 20
80.1335371659
 10
228.0091048929
 20
80.1165779274
 10
228.1032526385
 20
80.0997185804
 10
228.3487966372
 20
80.0839389291
 10
228.7314667644
 20
80.0701560294
 10
229.2290236233
 20
80.0591708933
 10
229.8125510178
 20
80.0516219369
 10
230.4481364568
 20
80.0479478783
 10
231.0988420247
 20
80.0483622402
 10
231.7268510793
 20
80.0528409416
 10
232.2956660169
 20
80.0611236966
 10
232.772229381
 20
80.0727291415
 10
233.128845041
 20
80.0869828101
 10
233.3447877911
 20
80.103056331
 10
233.4075078236
 20
80.1200155695
 10
233.3133600781
 20
80.1368749164
 10
233.0678160794
 20
80.1526545677
  0
LWPOLYLINE
  5
16D
330
1F
100
AcDbEntity
  8
0
  6
HIDDEN
 62
     7
370
     0
100
AcDbPolyline
 90
       21
 70
   128
 43
0.0
 10
229.3210020315
 20
82.4797792
 10
229.6273743706
 20
82.4695458396
 10
230.0395558638
 20
82.4622916187
 10
230.517199315
 20
82.4587266311
 10
231.0135496551
 20
82.4591998424
 10
231.4800206545
 20
82.4636649315
 10
231.8709508817
 20
82.4716848244
 10
232.1480733624
 20
82.4824744781
 10
232.2842614173
 20
82.494977726
 10
232.2661840106
 20
82.5079706632
 10
232.095610685
 20
82.5201814504
 10
231.789238346
 20
82.5304148108
 10
231.3770568527
 20
82.5376690316
 10
230.8994134015
 20
82.5412340193
 10
230.4030630615
 20
82.540760808
 10
229.9365920621
 20
82.5362957188
 10
229.5456618348
 20
82.528275826
 10
229.2685393541
 20
82.5174861723
 10
229.1323512993
 20
82.5049829244
 10
229.1504287059
 20
82.4919899872
 10
229.3210020315
 20
82.4797792
  0
LWPOLYLINE
  5
16E
330
1F
100
AcDbEntity
  8
0
  6
HIDDEN
 62
     7
370
     0
100
AcDbPolyline
 90
       26
 70
   128
 43
0.0
 10
232.790355214
 20
79.831223142
 10
233.0129712486
 20
79.8167166411
 10
233.0907767122
 20
79.801216671
 10
233.0188828014
 20
79.7856971519
 10
232.8018068749
 20
79.7711332323
 10
232.4531886116
 20
79.7584400167
 10
231.9949329791
 20
79.7484150666
 10
231.4558338641
 20
79.7416882865
 10
230.8697648467
 20
79.7386823447
 10
230.2735507987
 20
79.7395861156
 10
229.7046540414
 20
79.7443428119
 10
229.1988204504
 20
79.752653553
 10
228.7878334104
 20
79.7639961443
 10
228.4975167488
 20
79.7776578892
 10
228.3461121291
 20
79.79278037
 10
228.3431328603
 20
79.8084133856
 10
228.4887661408
 20
79.8235746561
 10
228.7738612962
 20
79.8373115432
 10
229.1805047492
 20
79.8487609077
 10
229.6831455961
 20
79.8572033439
 10
230.250201064
 20
79.8621083825
 10
230.8460409724
 20
79.863167822
 10
231.4332265083
 20
79.8603150938
 10
231.9748626452
 20
79.8537294453
 10
232.4369163925
 20
79.843824677
 10
232.790355214
 20
79.831223142
  0
LWPOLYLINE
  5
16F
330
1F
100
AcDbEntity
  8
0
  6
HIDDEN
 62
     7
370
     0
100
AcDbPolyline
 90
       21
 70
   128
 43
0.0
 10
229.3210020315
 20
86.4109316304
 10
229.1504287059
 20
86.4231424177
 10
229.1323512993
 20
86.4361353549
 10
229.2685393541
 20
86.4486386028
 10
229.5456618348
 20
86.4594282564
 10
229.9365920621
 20
86.4674481493
 10
230.4030630615
 20
86.4719132384
 10
230.8994134015
 20
86.4723864498
 10
231.3770568527
 20
86.4688214621
 10
231.789238346
 20
86.4615672412
 10
232.095610685
 20
86.4513338809
 10
232.2661840106
 20
86.4391230937
 10
232.2842614173
 20
86.4261301565
 10
232.1480733624
 20
86.4136269085
 10
231.8709508817
 20
86.4028372549
 10
231.4800206545
 20
86.394817362
 10
231.0135496551
 20
86.3903522729
 10
230.517199315
 20
86.3898790615
 10
230.0395558638
 20
86.3934440492
 10
229.6273743706
 20
86.4006982701
 10
229.3210020315
 20
86.4109316304
  0
LWPOLYLINE
  5
170
330
1F
100
AcDbEntity
  8
0
  6
HIDDEN
 62
     7
370
     0
100
AcDbPolyline
 90
       19
 70
   128
 43
0.0
 10
229.5984628969
 20
86.7323630561
 10
229.8765481147
 20
86.7234012008
 10
230.2549556522
 20
86.7174695205
 10
230.6880439755
 20
86.7152834635
 10
231.1235762413
 20
86.7171067005
 10
231.5090208304
 20
86.7227193222
 10
231.797887437
 20
86.7314443637
 10
231.9553344849
 20
86.7422294561
 10
231.9623715365
 20
86.7537737581
 10
231.8181498197
 20
86.7646848565
 10
231.5400646018
 20
86.7736467119
 10
231.1616570643
 20
86.7795783922
 10
230.728568741
 20
86.7817644492
 10
230.2930364752
 20
86.7799412122
 10
229.9075918861
 20
86.7743285904
 10
229.6187252796
 20
86.765603549
 10
229.4612782317
 20
86.7548184566
 10
229.45424118
 20
86.7432741546
 10
229.5984628969
 20
86.7323630561
  0
ARC
  5
171
330
1F
100
AcDbEntity
  8
0
  6
HIDDEN
 62
     7
370
     0
100
AcDbCircle
 10
230.6827546952
 20
62.9451471616
 30
0.0
 40
18.03022733683892
100
AcDbArc
 50
88.7038895953
 51
91.2482458864
  0
ARC
  5
172
330
1F
100
AcDbEntity
  8
0
  6
HIDDEN
 62
     7
370
     0
100
AcDbCircle
 10
230.6827546952
 20
61.7455583715
 30
0.0
 40
18.03022733691362
100
AcDbArc
 50
88.7038895953
 51
91.2482458864
  0
LWPOLYLINE
  5
173
330
1F
100
AcDbEntity
  8
0
  6
HIDDEN
 62
     7
370
     0
100
AcDbPolyline
 90
        9
 70
   128
 43
0.0
 10
231.4717488336
 20
80.9763116466
 10
231.477487634
 20
80.9743963077
 10
231.4594827364
 20
80.9725337948
 10
231.4196321428
 20
80.9709204464
 10
231.3621367384
 20
80.9697263349
 10
231.2930574514
 20
80.9690773387
 10
231.2196763354
 20
80.9690418723
 10
231.1497289247
 20
80.9696236744
 10
231.0905887869
 20
80.9707614139
  0
LWPOLYLINE
  5
174
330
1F
100
AcDbEntity
  8
0
  6
HIDDEN
 62
     7
370
     0
100
AcDbPolyline
 90
        9
 70
   128
 43
0.0
 10
231.4717488336
 20
79.7767228566
 10
231.477487634
 20
79.7748075177
 10
231.4594827364
 20
79.7729450048
 10
231.4196321428
 20
79.7713316564
 10
231.3621367384
 20
79.770137545
 10
231.2930574514
 20
79.7694885488
 10
231.2196763354
 20
79.7694530824
 10
231.1497289247
 20
79.7700348845
 10
231.0905887869
 20
79.7711726239
  0
LWPOLYLINE
  5
175
330
1F
100
AcDbEntity
  8
0
  6
HIDDEN
 62
     7
370
     0
100
AcDbPolyline
 90
        9
 70
   128
 43
0.0
 10
230.289979224
 20
80.9710958259
 10
230.2294824855
 20
80.9700080584
 10
230.1588615683
 20
80.9694849712
 10
230.0855610381
 20
80.9695817061
 10
230.0173079343
 20
80.9702880655
 10
229.9612972176
 20
80.9715295881
 10
229.9234333065
 20
80.9731753977
 10
229.9077076584
 20
80.9750519997
 10
229.9157780062
 20
80.9769615705
  0
LWPOLYLINE
  5
176
330
1F
100
AcDbEntity
  8
0
  6
HIDDEN
 62
     7
370
     0
100
AcDbPolyline
 90
        9
 70
   128
 43
0.0
 10
230.289979224
 20
79.7715070359
 10
230.2294824855
 20
79.7704192684
 10
230.1588615683
 20
79.7698961812
 10
230.0855610381
 20
79.7699929161
 10
230.0173079343
 20
79.7706992756
 10
229.9612972176
 20
79.7719407982
 10
229.9234333065
 20
79.7735866077
 10
229.9077076584
 20
79.7754632097
 10
229.9157780062
 20
79.7773727805
  0
LWPOLYLINE
  5
177
330
1F
100
AcDbEntity
  8
0
  6
HIDDEN
 62
     7
370
     0
100
AcDbPolyline
 90
        9
 70
   128
 43
0.0
 10
229.5265367486
 20
80.995278517
 10
229.6294917972
 20
80.9942024647
 10
229.7225171074
 20
80.9926240559
 10
229.80207859
 20
80.9906032553
 10
229.8651536548
 20
80.9882168345
 10
229.9093460409
 20
80.985555455
 10
229.9329768521
 20
80.9827202242
 10
229.9351483393
 20
80.9798188545
 10
229.9157780062
 20
80.9769615705
  0
LWPOLYLINE
  5
178
330
1F
100
AcDbEntity
  8
0
  6
HIDDEN
 62
     7
370
     0
100
AcDbPolyline
 90
        9
 70
   128
 43
0.0
 10
229.5265367486
 20
79.7956897271
 10
229.6294917972
 20
79.7946136747
 10
229.7225171074
 20
79.7930352659
 10
229.80207859
 20
79.7910144654
 10
229.8651536548
 20
79.7886280445
 10
229.9093460409
 20
79.785966665
 10
229.9329768521
 20
79.7831314343
 10
229.9351483393
 20
79.7802300645
 10
229.9157780062
 20
79.7773727805
  0
LWPOLYLINE
  5
179
330
1F
100
AcDbEntity
  8
0
  6
HIDDEN
 62
     7
370
     0
100
AcDbPolyline
 90
        9
 70
   128
 43
0.0
 10
231.4717488336
 20
80.9763116466
 10
231.4558709002
 20
80.9791836536
 10
231.4615775531
 20
80.9820817327
 10
231.488651993
 20
80.984895784
 10
231.5360656451
 20
80.9875189
 10
231.6020172354
 20
80.9898514268
 10
231.6840012219
 20
80.9918047504
 10
231.778902982
 20
80.9933046627
 10
231.883117139
 20
80.9942941811
  0
LWPOLYLINE
  5
17A
330
1F
100
AcDbEntity
  8
0
  6
HIDDEN
 62
     7
370
     0
100
AcDbPolyline
 90
        9
 70
   128
 43
0.0
 10
231.4717488336
 20
79.7767228566
 10
231.4558709002
 20
79.7795948636
 10
231.4615775531
 20
79.7824929427
 10
231.488651993
 20
79.7853069941
 10
231.5360656451
 20
79.78793011
 10
231.6020172354
 20
79.7902626369
 10
231.6840012219
 20
79.7922159604
 10
231.778902982
 20
79.7937158727
 10
231.883117139
 20
79.7947053911
  0
LWPOLYLINE
  5
17B
330
1F
100
AcDbEntity
  8
0
  6
HIDDEN
 62
     7
370
     0
100
AcDbPolyline
 90
        9
 70
   128
 43
0.0
 10
231.8900759679
 20
81.0057101584
 10
231.9563115067
 20
81.004882587
 10
232.0089275263
 20
81.0035431613
 10
232.0423774629
 20
81.001833078
 10
232.0531351623
 20
80.9999326071
 10
232.0400665921
 20
80.9980420883
 10
232.0045493872
 20
80.9963608124
 10
231.9503276246
 20
80.9950660125
 10
231.883117139
 20
80.9942941811
  0
LWPOLYLINE
  5
17C
330
1F
100
AcDbEntity
  8
0
  6
HIDDEN
 62
     7
370
     0
100
AcDbPolyline
 90
        9
 70
   128
 43
0.0
 10
231.8900759679
 20
79.8061213685
 10
231.9563115067
 20
79.805293797
 10
232.0089275263
 20
79.8039543713
 10
232.0423774629
 20
79.8022442881
 10
232.0531351623
 20
79.8003438171
 10
232.0400665921
 20
79.7984532984
 10
232.0045493872
 20
79.7967720225
 10
231.9503276246
 20
79.7954772225
 10
231.883117139
 20
79.7947053911
  0
LWPOLYLINE
  5
17D
330
1F
100
AcDbEntity
  8
0
  6
HIDDEN
 62
     7
370
     0
100
AcDbPolyline
 90
        9
 70
   128
 43
0.0
 10
229.5265367486
 20
80.995278517
 10
229.4603012098
 20
80.9961060884
 10
229.4076851902
 20
80.9974455141
 10
229.3742352536
 20
80.9991555974
 10
229.3634775542
 20
81.0010560683
 10
229.3765461244
 20
81.0029465871
 10
229.4120633293
 20
81.004627863
 10
229.4662850919
 20
81.0059226629
 10
229.5334955775
 20
81.0066944944
  0
LWPOLYLINE
  5
17E
330
1F
100
AcDbEntity
  8
0
  6
HIDDEN
 62
     7
370
     0
100
AcDbPolyline
 90
        9
 70
   128
 43
0.0
 10
229.5265367486
 20
79.7956897271
 10
229.4603012098
 20
79.7965172985
 10
229.4076851902
 20
79.7978567242
 10
229.3742352536
 20
79.7995668074
 10
229.3634775542
 20
79.8014672784
 10
229.3765461244
 20
79.8033577971
 10
229.4120633293
 20
79.8050390731
 10
229.4662850919
 20
79.806333873
 10
229.5334955775
 20
79.8071057044
  0
LWPOLYLINE
  5
17F
330
1F
100
AcDbEntity
  8
0
  6
HIDDEN
 62
     7
370
     0
100
AcDbPolyline
 90
        9
 70
   128
 43
0.0
 10
231.8900759679
 20
81.0057101584
 10
231.7871209193
 20
81.0067862107
 10
231.6940956091
 20
81.0083646196
 10
231.6145341265
 20
81.0103854201
 10
231.5514590617
 20
81.012771841
 10
231.5072666756
 20
81.0154332205
 10
231.4836358644
 20
81.0182684512
 10
231.4814643773
 20
81.021169821
 10
231.5008347104
 20
81.0240271049
  0
LWPOLYLINE
  5
180
330
1F
100
AcDbEntity
  8
0
  6
HIDDEN
 62
     7
370
     0
100
AcDbPolyline
 90
        9
 70
   128
 43
0.0
 10
231.8900759679
 20
79.8061213685
 10
231.7871209193
 20
79.8071974208
 10
231.6940956091
 20
79.8087758296
 10
231.6145341265
 20
79.8107966301
 10
231.5514590617
 20
79.813183051
 10
231.5072666756
 20
79.8158444305
 10
231.4836358644
 20
79.8186796612
 10
231.4814643773
 20
79.821581031
 10
231.5008347104
 20
79.824438315
  0
LWPOLYLINE
  5
181
330
1F
100
AcDbEntity
  8
0
  6
HIDDEN
 62
     7
370
     0
100
AcDbPolyline
 90
        9
 70
   128
 43
0.0
 10
229.9448638829
 20
81.0246770289
 10
229.9607418163
 20
81.0218050218
 10
229.9550351634
 20
81.0189069427
 10
229.9279607235
 20
81.0160928914
 10
229.8805470714
 20
81.0134697755
 10
229.8145954812
 20
81.0111372486
 10
229.7326114947
 20
81.0091839251
 10
229.6377097345
 20
81.0076840128
 10
229.5334955775
 20
81.0066944944
  0
LWPOLYLINE
  5
182
330
1F
100
AcDbEntity
  8
0
  6
HIDDEN
 62
     7
370
     0
100
AcDbPolyline
 90
        9
 70
   128
 43
0.0
 10
229.9448638829
 20
79.8250882389
 10
229.9607418163
 20
79.8222162319
 10
229.9550351634
 20
79.8193181528
 10
229.9279607235
 20
79.8165041015
 10
229.8805470714
 20
79.8138809855
 10
229.8145954812
 20
79.8115484587
 10
229.7326114947
 20
79.8095951351
 10
229.6377097345
 20
79.8080952228
 10
229.5334955775
 20
79.8071057044
  0
LWPOLYLINE
  5
183
330
1F
100
AcDbEntity
  8
0
  6
HIDDEN
 62
     7
370
     0
100
AcDbPolyline
 90
        9
 70
   128
 43
0.0
 10
231.1266334925
 20
81.0298928496
 10
231.187130231
 20
81.0309806171
 10
231.2577511482
 20
81.0315037042
 10
231.3310516784
 20
81.0314069694
 10
231.3993047822
 20
81.0307006099
 10
231.455315499
 20
81.0294590873
 10
231.49317941
 20
81.0278132778
 10
231.5089050582
 20
81.0259366758
 10
231.5008347104
 20
81.0240271049
  0
LWPOLYLINE
  5
184
330
1F
100
AcDbEntity
  8
0
  6
HIDDEN
 62
     7
370
     0
100
AcDbPolyline
 90
        9
 70
   128
 43
0.0
 10
231.1266334925
 20
79.8303040596
 10
231.187130231
 20
79.8313918271
 10
231.2577511482
 20
79.8319149143
 10
231.3310516784
 20
79.8318181794
 10
231.3993047822
 20
79.83111182
 10
231.455315499
 20
79.8298702974
 10
231.49317941
 20
79.8282244878
 10
231.5089050582
 20
79.8263478858
 10
231.5008347104
 20
79.824438315
  0
ARC
  5
185
330
1F
100
AcDbEntity
  8
0
  6
HIDDEN
 62
     7
370
     0
100
AcDbCircle
 10
230.7338580213
 20
99.0558415139
 30
0.0
 40
18.03022733683164
100
AcDbArc
 50
268.7038895953
 51
271.2482458864
  0
ARC
  5
186
330
1F
100
AcDbEntity
  8
0
  6
HIDDEN
 62
     7
370
     0
100
AcDbCircle
 10
230.7338580213
 20
97.8562527239
 30
0.0
 40
18.03022733685262
100
AcDbArc
 50
268.7038895953
 51
271.2482458864
  0
LWPOLYLINE
  5
187
330
1F
100
AcDbEntity
  8
0
  6
HIDDEN
 62
     7
370
     0
100
AcDbPolyline
 90
        9
 70
   128
 43
0.0
 10
229.9448638829
 20
81.0246770289
 10
229.9391250826
 20
81.0265923678
 10
229.9571299802
 20
81.0284548807
 10
229.9969805738
 20
81.0300682291
 10
230.0544759782
 20
81.0312623405
 10
230.1235552651
 20
81.0319113367
 10
230.1969363811
 20
81.0319468031
 10
230.2668837918
 20
81.031365001
 10
230.3260239296
 20
81.0302272616
  0
LWPOLYLINE
  5
188
330
1F
100
AcDbEntity
  8
0
  6
HIDDEN
 62
     7
370
     0
100
AcDbPolyline
 90
        9
 70
   128
 43
0.0
 10
229.9448638829
 20
79.8250882389
 10
229.9391250826
 20
79.8270035778
 10
229.9571299802
 20
79.8288660907
 10
229.9969805738
 20
79.8304794391
 10
230.0544759782
 20
79.8316735506
 10
230.1235552651
 20
79.8323225467
 10
230.1969363811
 20
79.8323580131
 10
230.2668837918
 20
79.831776211
 10
230.3260239296
 20
79.8306384716
  0
SPLINE
  5
189
330
1F
100
AcDbEntity
  8
0
  6
HIDDEN
 62
     7
370
     0
100
AcDbSpline
210
0.0
220
0.0
230
1.0
 70
     8
 71
     3
 72
     9
 73
     5
 74
     0
 42
0.00000001
 43
0.00000001
 40
0.0
 40
0.0
 40
0.0
 40
0.0
 40
0.3547925376017284
 40
1.0
 40
1.0
 40
1.0
 40
1.0
 10
189.7351729706667
 20
123.5871350330103
 30
0.0
 10
189.7221441912743
 20
123.6703031708229
 30
0.0
 10
189.6854219437306
 20
123.9047166068404
 30
0.0
 10
189.7457758378198
 20
124.1361546717078
 30
0.0
 10
189.7847166206709
 20
124.2854802382433
 30
0.0
  0
ELLIPSE
  5
18A
330
1F
100
AcDbEntity
  8
0
  6
HIDDEN
 62
     7
370
     0
100
AcDbEllipse
 10
233.9671110478
 20
123.8362649134
 30
0.0
 11
-22.62876809348171
 21
31.41112139639843
 31
0.0
210
0.0
220
0.0
230
1.0
 40
0.1044964202
 41
6.208047156796408
 42
7.15806631740775
  0
LWPOLYLINE
  5
18B
330
1F
100
AcDbEntity
  8
0
  6
HIDDEN
 62
     7
370
     0
100
AcDbPolyline
 90
       24
 70
   128
 43
0.0
 10
202.1229194851
 20
109.2951620619
 10
201.4919410619
 20
109.0783898192
 10
200.820841641
 20
108.9900172639
 10
200.1439805714
 20
109.0345689471
 10
199.4960121906
 20
109.209763885
 10
198.910111571
 20
109.5066323425
 10
198.4162760025
 20
109.9099750709
 10
198.0397891736
 20
110.3991414883
 10
197.799926682
 20
110.9490869601
 10
197.7089691509
 20
111.5316550495
 10
197.7715734781
 20
112.1170190873
 10
197.9845344101
 20
112.6752092558
 10
198.3369486457
 20
113.1776470012
 10
198.8107730703
 20
113.5986082156
 10
199.3817485381
 20
113.9165402753
 10
200.0206419057
 20
114.1151655047
 10
200.6947427288
 20
114.1843145706
 10
201.3695379907
 20
114.1204471378
 10
202.0104791204
 20
113.9268331293
 10
202.584750831
 20
113.6133853108
 10
203.0629512164
 20
113.196151771
 10
203.4205970873
 20
112.696494282
 10
203.639377477
 20
112.1399946064
 10
203.7080911362
 20
111.5551447471
  0
SPLINE
  5
18C
330
1F
100
AcDbEntity
  8
0
  6
HIDDEN
 62
     7
370
     0
100
AcDbSpline
210
0.0
220
0.0
230
1.0
 70
     8
 71
     3
 72
    20
 73
    16
 74
     0
 42
0.00000001
 43
0.00000001
 40
0.0
 40
0.0
 40
0.0
 40
0.0
 40
0.1249999999999999
 40
0.1249999999999999
 40
0.2499999999999998
 40
0.2499999999999998
 40
0.3749999999999998
 40
0.3749999999999998
 40
0.4999999999999997
 40
0.4999999999999997
 40
0.7499999999999992
 40
0.7499999999999992
 40
0.8749999999999997
 40
0.8749999999999997
 40
1.0
 40
1.0
 40
1.0
 40
1.0
 10
202.1229194850726
 20
109.2951620619494
 30
0.0
 10
202.2257718543236
 20
109.3016561373619
 30
0.0
 10
202.3291800124636
 20
109.3196838154998
 30
0.0
 10
202.535268232074
 20
109.3813125639561
 30
0.0
 10
202.6391560320903
 20
109.4256571050357
 30
0.0
 10
202.8377984270048
 20
109.5407075065876
 30
0.0
 10
202.9323535714494
 20
109.6108789496683
 30
0.0
 10
203.1104518007715
 20
109.7777329002101
 30
0.0
 10
203.1942268558416
 20
109.8753439548446
 30
0.0
 10
203.4150295705294
 20
110.1938646451751
 30
0.0
 10
203.5269083137505
 20
110.4483441112718
 30
0.0
 10
203.6349000835264
 20
110.85101299858
 30
0.0
 10
203.6616921027971
 20
110.9905247264142
 30
0.0
 10
203.6974194136088
 20
111.2710112710432
 30
0.0
 10
203.7066025325705
 20
111.4125215234379
 30
0.0
 10
203.7080911361565
 20
111.5551447471033
 30
0.0
  0
SPLINE
  5
18D
330
1F
100
AcDbEntity
  8
0
  6
HIDDEN
 62
     7
370
     0
100
AcDbSpline
210
0.0
220
0.0
230
1.0
 70
     8
 71
     3
 72
    12
 73
     8
 74
     0
 42
0.00000001
 43
0.00000001
 40
0.0
 40
0.0
 40
0.0
 40
0.0
 40
0.4999999999999987
 40
0.4999999999999987
 40
0.7499999999999991
 40
0.7499999999999991
 40
1.0
 40
1.0
 40
1.0
 40
1.0
 10
178.891794071819
 20
139.2885328952688
 30
0.0
 10
178.9482002504992
 20
139.240710521609
 30
0.0
 10
179.018363151971
 20
139.2004396746705
 30
0.0
 10
179.1363738653602
 20
139.1923938061936
 30
0.0
 10
179.1765796489556
 20
139.1989564045324
 30
0.0
 10
179.2503003456887
 20
139.2263384989861
 30
0.0
 10
179.2831610674752
 20
139.2460999895164
 30
0.0
 10
179.3133294694044
 20
139.2690327007045
 30
0.0
  0
SPLINE
  5
18E
330
1F
100
AcDbEntity
  8
0
  6
HIDDEN
 62
     7
370
     0
100
AcDbSpline
210
0.0
220
0.0
230
1.0
 70
     8
 71
     3
 72
    16
 73
    12
 74
     0
 42
0.00000001
 43
0.00000001
 40
0.0
 40
0.0
 40
0.0
 40
0.0
 40
0.0624999999999969
 40
0.0624999999999969
 40
0.1249999999999938
 40
0.1249999999999938
 40
0.2499999999999877
 40
0.2499999999999877
 40
0.49999999999999
 40
0.49999999999999
 40
1.0
 40
1.0
 40
1.0
 40
1.0
 10
179.3133294693593
 20
139.2690327007525
 30
0.0
 10
179.3249423691987
 20
139.2778603237339
 30
0.0
 10
179.3382935536311
 20
139.2856947056158
 30
0.0
 10
179.3676933932503
 20
139.2940048316882
 30
0.0
 10
179.3825341178056
 20
139.2935090124532
 30
0.0
 10
179.4183673257742
 20
139.2820580414838
 30
0.0
 10
179.4324805335958
 20
139.2653775406252
 30
0.0
 10
179.4669719048147
 20
139.2132568548681
 30
0.0
 10
179.4780559759251
 20
139.1734673608431
 30
0.0
 10
179.5041787937211
 20
139.050130728746
 30
0.0
 10
179.508306358266
 20
138.9627093182474
 30
0.0
 10
179.508306358266
 20
138.8739720759292
 30
0.0
  0
SPLINE
  5
18F
330
1F
100
AcDbEntity
  8
0
  6
HIDDEN
 62
     7
370
     0
100
AcDbSpline
210
0.0
220
0.0
230
1.0
 70
     8
 71
     3
 72
    15
 73
    11
 74
     0
 42
0.00000001
 43
0.00000001
 40
0.0
 40
0.0
 40
0.0
 40
0.0
 40
0.4674590227698932
 40
0.6138195217539538
 40
0.7610345520183309
 40
0.8251627250282227
 40
0.8659896103887402
 40
0.9071170947599062
 40
0.9433345100161016
 40
1.0
 40
1.0
 40
1.0
 40
1.0
 10
179.4918153418185
 20
108.6570793624783
 30
0.0
 10
179.4902244711531
 20
108.5969247165996
 30
0.0
 10
179.4881355020169
 20
108.5179357696203
 30
0.0
 10
179.4525304044602
 20
108.4350196616474
 30
0.0
 10
179.4275446044792
 20
108.3997310849713
 30
0.0
 10
179.3984733462699
 20
108.3828792690152
 30
0.0
 10
179.3766089827544
 20
108.3787216561987
 30
0.0
 10
179.3564595560365
 20
108.3809503998491
 30
0.0
 10
179.3341421803485
 20
108.3890946262603
 30
0.0
 10
179.3212156286674
 20
108.3980398645621
 30
0.0
 10
179.3133294693907
 20
108.4034971261549
 30
0.0
  0
SPLINE
  5
190
330
1F
100
AcDbEntity
  8
0
  6
HIDDEN
 62
     7
370
     0
100
AcDbSpline
210
0.0
220
0.0
230
1.0
 70
     8
 71
     3
 72
    12
 73
     8
 74
     0
 42
0.00000001
 43
0.00000001
 40
0.0
 40
0.0
 40
0.0
 40
0.0
 40
0.2500000000000001
 40
0.2500000000000001
 40
0.4999999999999998
 40
0.4999999999999998
 40
1.0
 40
1.0
 40
1.0
 40
1.0
 10
179.3133294693974
 20
108.4034971261633
 30
0.0
 10
179.2831376276802
 20
108.4264476552612
 30
0.0
 10
179.2497786582655
 20
108.4464171292854
 30
0.0
 10
179.176641373685
 20
108.4735182629109
 30
0.0
 10
179.136399501031
 20
108.4801190035563
 30
0.0
 10
179.0186937240625
 20
108.4721501290496
 30
0.0
 10
178.9482832462831
 20
108.4318896708817
 30
0.0
 10
178.8917940718148
 20
108.3839969316036
 30
0.0
  0
SPLINE
  5
191
330
1F
100
AcDbEntity
  8
0
  6
HIDDEN
 62
     7
370
     0
100
AcDbSpline
210
0.0
220
0.0
230
1.0
 70
     8
 71
     3
 72
    12
 73
     8
 74
     0
 42
0.00000001
 43
0.00000001
 40
0.0
 40
0.0
 40
0.0
 40
0.0
 40
0.2500000000000019
 40
0.2500000000000019
 40
0.5000000000000012
 40
0.5000000000000012
 40
1.0
 40
1.0
 40
1.0
 40
1.0
 10
178.8917940718144
 20
108.3839969316038
 30
0.0
 10
178.8036401340767
 20
108.3092581237497
 30
0.0
 10
178.743286709448
 20
108.2182776232673
 30
0.0
 10
178.6370247513811
 20
108.0293638005147
 30
0.0
 10
178.5947925848191
 20
107.9328593409741
 30
0.0
 10
178.4837218895019
 20
107.642091586807
 30
0.0
 10
178.4307851130751
 20
107.4464247722633
 30
0.0
 10
178.3869860147063
 20
107.2523582871969
 30
0.0
  0
SPLINE
  5
192
330
1F
100
AcDbEntity
  8
0
  6
HIDDEN
 62
     7
370
     0
100
AcDbSpline
210
0.0
220
0.0
230
1.0
 70
     8
 71
     3
 72
    12
 73
     8
 74
     0
 42
0.00000001
 43
0.00000001
 40
0.0
 40
0.0
 40
0.0
 40
0.0
 40
0.5000000000000009
 40
0.5000000000000009
 40
0.7500000000000004
 40
0.7500000000000004
 40
1.0
 40
1.0
 40
1.0
 40
1.0
 10
178.3869860147063
 20
102.0661839584359
 30
0.0
 10
178.4307325555429
 20
102.0395897877947
 30
0.0
 10
178.4836169107744
 20
102.0198295624689
 30
0.0
 10
178.5951839981106
 20
101.9993785722399
 30
0.0
 10
178.6377675946536
 20
101.9941183475834
 30
0.0
 10
178.7426843217353
 20
101.9862355536608
 30
0.0
 10
178.8042179295801
 20
101.9836714284816
 30
0.0
 10
178.8917940718063
 20
101.981471210962
 30
0.0
  0
SPLINE
  5
193
330
1F
100
AcDbEntity
  8
0
  6
HIDDEN
 62
     7
370
     0
100
AcDbSpline
210
0.0
220
0.0
230
1.0
 70
     8
 71
     3
 72
    12
 73
     8
 74
     0
 42
0.00000001
 43
0.00000001
 40
0.0
 40
0.0
 40
0.0
 40
0.0
 40
0.2500000000000004
 40
0.2500000000000004
 40
0.5000000000000008
 40
0.5000000000000008
 40
1.0
 40
1.0
 40
1.0
 40
1.0
 10
178.8917940718143
 20
145.6910586159138
 30
0.0
 10
178.8031094119579
 20
145.6888305485729
 30
0.0
 10
178.7431909962345
 20
145.6863287645426
 30
0.0
 10
178.6375317689138
 20
145.6783973287065
 30
0.0
 10
178.5948905307988
 20
145.6731051738097
 30
0.0
 10
178.4837011886963
 20
145.6527002333225
 30
0.0
 10
178.4307745065753
 20
145.6329655417357
 30
0.0
 10
178.3869860147063
 20
145.6063458684401
 30
0.0
  0
SPLINE
  5
194
330
1F
100
AcDbEntity
  8
0
  6
HIDDEN
 62
     7
370
     0
100
AcDbSpline
210
0.0
220
0.0
230
1.0
 70
     8
 71
     3
 72
    12
 73
     8
 74
     0
 42
0.00000001
 43
0.00000001
 40
0.0
 40
0.0
 40
0.0
 40
0.0
 40
0.4999999999999987
 40
0.4999999999999987
 40
0.7500000000000008
 40
0.7500000000000008
 40
1.0
 40
1.0
 40
1.0
 40
1.0
 10
178.3869860147047
 20
140.4201715396792
 30
0.0
 10
178.4307474910035
 20
140.2262717517171
 30
0.0
 10
178.4836538066565
 20
140.0304153877803
 30
0.0
 10
178.5953650043039
 20
139.7382732412813
 30
0.0
 10
178.6378844478903
 20
139.6415553045834
 30
0.0
 10
178.7430077904577
 20
139.4548308681589
 30
0.0
 10
178.8045737541754
 20
139.3624801598892
 30
0.0
 10
178.8917940718181
 20
139.2885328952696
 30
0.0
  0
SPLINE
  5
195
330
1F
100
AcDbEntity
  8
0
  6
HIDDEN
 62
     7
370
     0
100
AcDbSpline
210
0.0
220
0.0
230
1.0
 70
     8
 71
     3
 72
     8
 73
     4
 74
     0
 42
0.00000001
 43
0.00000001
 40
0.0
 40
0.0
 40
0.0
 40
0.0
 40
1.0
 40
1.0
 40
1.0
 40
1.0
 10
203.7080911361569
 20
111.5551447471035
 30
0.0
 10
203.5098824287055
 20
111.9601564326673
 30
0.0
 10
203.2527147143347
 20
112.342191086608
 30
0.0
 10
202.9599127486146
 20
112.6773315427687
 30
0.0
  0
LWPOLYLINE
  5
196
330
1F
100
AcDbEntity
  8
0
  6
HIDDEN
 62
     7
370
     0
100
AcDbPolyline
 90
       19
 70
   128
 43
0.0
 10
201.365368366
 20
109.6475324531
 10
200.7441788193
 20
109.5716394563
 10
200.1207304204
 20
109.6320642614
 10
199.5342810781
 20
109.8250019801
 10
199.0217589084
 20
110.1383035214
 10
198.6154369088
 20
110.5522406073
 10
198.3409007605
 20
111.0407480424
 10
198.2154377243
 20
111.5730650124
 10
198.2469480795
 20
112.1156720615
 10
198.4334476512
 20
112.6344017782
 10
198.7631927519
 20
113.096590282
 10
199.2154196694
 20
113.473134035
 10
199.7616521366
 20
113.7403224618
 10
200.3674944532
 20
113.88133098
 10
200.9947973473
 20
113.8872804273
 10
201.6040601965
 20
113.7577961731
 10
202.1569183415
 20
113.5010317086
 10
202.6185588697
 20
113.1331552298
 10
202.9599127486
 20
112.6773315428
  0
SPLINE
  5
197
330
1F
100
AcDbEntity
  8
0
  6
HIDDEN
 62
     7
370
     0
100
AcDbSpline
210
0.0
220
0.0
230
1.0
 70
     8
 71
     3
 72
     8
 73
     4
 74
     0
 42
0.00000001
 43
0.00000001
 40
0.0
 40
0.0
 40
0.0
 40
0.0
 40
1.0
 40
1.0
 40
1.0
 40
1.0
 10
201.3653683659965
 20
109.6475324531267
 30
0.0
 10
201.6097430868101
 20
109.5129279850907
 30
0.0
 10
201.8622889959716
 20
109.3913278490241
 30
0.0
 10
202.1229194850724
 20
109.2951620619487
 30
0.0
  0
SPLINE
  5
198
330
1F
100
AcDbEntity
  8
0
  6
HIDDEN
 62
     7
370
     0
100
AcDbSpline
210
0.0
220
0.0
230
1.0
 70
     8
 71
     3
 72
    62
 73
    58
 74
     0
 42
0.00000001
 43
0.00000001
 40
-0.0312499999999997
 40
-0.0312499999999997
 40
0.0
 40
0.0
 40
0.0312500000000001
 40
0.0312500000000001
 40
0.0625000000000002
 40
0.0625000000000002
 40
0.0937500000000003
 40
0.0937500000000003
 40
0.1250000000000004
 40
0.1250000000000004
 40
0.1875
 40
0.1875
 40
0.2187499999999998
 40
0.2187499999999998
 40
0.2499999999999997
 40
0.2499999999999997
 40
0.2812499999999996
 40
0.2812499999999996
 40
0.3124999999999994
 40
0.3124999999999994
 40
0.3749999999999993
 40
0.3749999999999993
 40
0.4062499999999992
 40
0.4062499999999992
 40
0.437499999999999
 40
0.437499999999999
 40
0.4687499999999989
 40
0.4687499999999989
 40
0.4999999999999988
 40
0.4999999999999988
 40
0.5624999999999992
 40
0.5624999999999992
 40
0.5937499999999994
 40
0.5937499999999994
 40
0.6249999999999996
 40
0.6249999999999996
 40
0.6562499999999998
 40
0.6562499999999998
 40
0.6875
 40
0.6875
 40
0.7187500000000002
 40
0.7187500000000002
 40
0.7500000000000004
 40
0.7500000000000004
 40
0.7812500000000007
 40
0.7812500000000007
 40
0.8125000000000009
 40
0.8125000000000009
 40
0.875000000000001
 40
0.875000000000001
 40
0.9062500000000008
 40
0.9062500000000008
 40
0.9375000000000006
 40
0.9375000000000006
 40
0.9687500000000003
 40
0.9687500000000003
 40
1.0
 40
1.0
 40
1.03125
 40
1.03125
 10
200.54226253933
 20
121.6784243064515
 30
0.0
 10
200.8743501772023
 20
121.6784243064515
 30
0.0
 10
201.0374469077794
 20
121.661850662396
 30
0.0
 10
201.3580432126878
 20
121.5973620915675
 30
0.0
 10
201.5172454159943
 20
121.548618066109
 30
0.0
 10
201.8195559177084
 20
121.4230405225391
 30
0.0
 10
201.9628074919528
 20
121.3466661942184
 30
0.0
 10
202.23391833302
 20
121.1680824037889
 30
0.0
 10
202.3616003281488
 20
121.0654804793025
 30
0.0
 10
202.705600416364
 20
120.73304355696
 30
0.0
 10
202.8916020449483
 20
120.4697872156634
 30
0.0
 10
203.07908855813
 20
120.0552428893545
 30
0.0
 10
203.1275605028821
 20
119.9114859773766
 30
0.0
 10
203.1921224822958
 20
119.6228705099086
 30
0.0
 10
203.2082009825158
 20
119.4796610888683
 30
0.0
 10
203.2084107114294
 20
119.1956382486298
 30
0.0
 10
203.1919791640185
 20
119.0536722442518
 30
0.0
 10
203.1278104738662
 20
118.7841624559576
 30
0.0
 10
203.0803415110747
 20
118.6552444470555
 30
0.0
 10
202.8912180271205
 20
118.285051474513
 30
0.0
 10
202.7070781347544
 20
118.0698791394024
 30
0.0
 10
202.3603425509504
 20
117.8043753255142
 30
0.0
 10
202.2350255947987
 20
117.7267640115639
 30
0.0
 10
201.9649660919987
 20
117.5915001522311
 30
0.0
 10
201.8185927161176
 20
117.5335299814704
 30
0.0
 10
201.517174813064
 20
117.441650105826
 30
0.0
 10
201.361322651625
 20
117.4070524500058
 30
0.0
 10
201.0389795903087
 20
117.3601908329919
 30
0.0
 10
200.8730281232392
 20
117.3483485190597
 30
0.0
 10
200.382106755688
 20
117.3481953305904
 30
0.0
 10
200.0516237685852
 20
117.3954476034006
 30
0.0
 10
199.5997142709867
 20
117.5329204619934
 30
0.0
 10
199.4534170536074
 20
117.5907147668575
 30
0.0
 10
199.182533491051
 20
117.7261896544064
 30
0.0
 10
199.0571769688932
 20
117.8037984602154
 30
0.0
 10
198.8263993274039
 20
117.9802765958557
 30
0.0
 10
198.7216114473339
 20
118.0791607578964
 30
0.0
 10
198.5409478231518
 20
118.2916184981939
 30
0.0
 10
198.4637593259565
 20
118.4060916200251
 30
0.0
 10
198.3368959216653
 20
118.6536336697184
 30
0.0
 10
198.2892345677329
 20
118.7829407152812
 30
0.0
 10
198.2250042006704
 20
119.0515288764141
 30
0.0
 10
198.2083709867913
 20
119.1926744199132
 30
0.0
 10
198.2082421117798
 20
119.4781627429548
 30
0.0
 10
198.2243230909087
 20
119.6214287307783
 30
0.0
 10
198.2882905033771
 20
119.9087654544225
 30
0.0
 10
198.3368545536207
 20
120.053533774153
 30
0.0
 10
198.5245853956633
 20
120.4693008538648
 30
0.0
 10
198.7105312331589
 20
120.7324287795168
 30
0.0
 10
199.0543064552633
 20
121.0648729067756
 30
0.0
 10
199.1814817596309
 20
121.1671985624987
 30
0.0
 10
199.4531241689054
 20
121.3463020563609
 30
0.0
 10
199.5962833398526
 20
121.4226166042433
 30
0.0
 10
199.8974102823904
 20
121.5479068381377
 30
0.0
 10
200.0569265110819
 20
121.5969624394518
 30
0.0
 10
200.3787924033138
 20
121.6618442801827
 30
0.0
 10
200.54226253933
 20
121.6784243064515
 30
0.0
 10
200.8743501772023
 20
121.6784243064515
 30
0.0
  0
SPLINE
  5
199
330
1F
100
AcDbEntity
  8
0
  6
HIDDEN
 62
     7
370
     0
100
AcDbSpline
210
0.0
220
0.0
230
1.0
 70
     8
 71
     3
 72
    14
 73
    10
 74
     0
 42
0.00000001
 43
0.00000001
 40
0.0
 40
0.0
 40
0.0
 40
0.0
 40
0.25
 40
0.25
 40
0.5
 40
0.5
 40
0.75
 40
0.75
 40
1.0
 40
1.0
 40
1.0
 40
1.0
 10
202.8335288523442
 20
112.9258681571148
 30
0.0
 10
202.7856872734417
 20
113.1212891747892
 30
0.0
 10
202.7399543468093
 20
113.3075718562966
 30
0.0
 10
202.6717813974355
 20
113.6553550579859
 30
0.0
 10
202.6511824212186
 20
113.8133539396478
 30
0.0
 10
202.6512213843936
 20
114.084556174264
 30
0.0
 10
202.6717801898628
 20
114.1993559157311
 30
0.0
 10
202.7400173092925
 20
114.3903459767984
 30
0.0
 10
202.7857451093468
 20
114.4654864969897
 30
0.0
 10
202.8335288523442
 20
114.5270756786625
 30
0.0
  0
SPLINE
  5
19A
330
1F
100
AcDbEntity
  8
0
  6
HIDDEN
 62
     7
370
     0
100
AcDbSpline
210
0.0
220
0.0
230
1.0
 70
     8
 71
     3
 72
    40
 73
    36
 74
     0
 42
0.00000001
 43
0.00000001
 40
0.0
 40
0.0
 40
0.0
 40
0.0
 40
0.0625000000000002
 40
0.0625000000000002
 40
0.1250000000000004
 40
0.1250000000000004
 40
0.1875000000000007
 40
0.1875000000000007
 40
0.2500000000000009
 40
0.2500000000000009
 40
0.3125000000000011
 40
0.3125000000000011
 40
0.3750000000000013
 40
0.3750000000000013
 40
0.4375000000000016
 40
0.4375000000000016
 40
0.5000000000000018
 40
0.5000000000000018
 40
0.562500000000002
 40
0.562500000000002
 40
0.6250000000000022
 40
0.6250000000000022
 40
0.6875000000000024
 40
0.6875000000000024
 40
0.7500000000000027
 40
0.7500000000000027
 40
0.7812500000000022
 40
0.7812500000000022
 40
0.8125000000000018
 40
0.8125000000000018
 40
0.8750000000000012
 40
0.8750000000000012
 40
0.9375000000000007
 40
0.9375000000000007
 40
1.0
 40
1.0
 40
1.0
 40
1.0
 10
202.8335288523443
 20
114.5270756786625
 30
0.0
 10
202.928017238067
 20
114.4250369129797
 30
0.0
 10
203.0018436379158
 20
114.3273593902998
 30
0.0
 10
203.1172495832858
 20
114.1269923448667
 30
0.0
 10
203.1588111599371
 20
114.0233978442701
 30
0.0
 10
203.2072121709635
 20
113.8078899483749
 30
0.0
 10
203.2143743643119
 20
113.6964501638296
 30
0.0
 10
203.1920485990625
 20
113.4590668084697
 30
0.0
 10
203.1617216196822
 20
113.3320824936382
 30
0.0
 10
203.0614086640998
 20
113.0705245474295
 30
0.0
 10
202.9896672456782
 20
112.9319978980685
 30
0.0
 10
202.8102040904298
 20
112.6555011130162
 30
0.0
 10
202.7014076478898
 20
112.5153845617826
 30
0.0
 10
202.4558016538804
 20
112.2407907483097
 30
0.0
 10
202.3219564261391
 20
112.1092556571588
 30
0.0
 10
202.0410242034295
 20
111.8579268537074
 30
0.0
 10
201.8984908847367
 20
111.7420672572921
 30
0.0
 10
201.6130024533902
 20
111.5233368619335
 30
0.0
 10
201.4741745777365
 20
111.423706004501
 30
0.0
 10
201.2092279828544
 20
111.2371230120652
 30
0.0
 10
201.0814473494399
 20
111.1491991569826
 30
0.0
 10
200.8503484749214
 20
110.9815557023586
 30
0.0
 10
200.7468449604569
 20
110.9020099519241
 30
0.0
 10
200.5760444546122
 20
110.7385089100311
 30
0.0
 10
200.5091699171595
 20
110.6535825382555
 30
0.0
 10
200.4596203365407
 20
110.5191074933442
 30
0.0
 10
200.4513200965352
 20
110.472271354755
 30
0.0
 10
200.4532308765727
 20
110.3778770822291
 30
0.0
 10
200.463182111754
 20
110.3304274669983
 30
0.0
 10
200.5175779108908
 20
110.1881503578748
 30
0.0
 10
200.5869258933009
 20
110.0941039113955
 30
0.0
 10
200.7616991256942
 20
109.9266445810031
 30
0.0
 10
200.8689528517847
 20
109.8509855902926
 30
0.0
 10
201.1030638870398
 20
109.7275797725093
 30
0.0
 10
201.2302893428189
 20
109.6791677122996
 30
0.0
 10
201.3653683659963
 20
109.6475324531269
 30
0.0
  0
SPLINE
  5
19B
330
1F
100
AcDbEntity
  8
0
  6
HIDDEN
 62
     7
370
     0
100
AcDbSpline
210
0.0
220
0.0
230
1.0
 70
     8
 71
     3
 72
     8
 73
     4
 74
     0
 42
0.00000001
 43
0.00000001
 40
0.0
 40
0.0
 40
0.0
 40
0.0
 40
1.0
 40
1.0
 40
1.0
 40
1.0
 10
202.9599127486143
 20
112.6773315427685
 30
0.0
 10
202.9222454362517
 20
112.7626368293351
 30
0.0
 10
202.8802937396959
 20
112.845622898494
 30
0.0
 10
202.8335288523441
 20
112.9258681571148
 30
0.0
  0
LWPOLYLINE
  5
19C
330
1F
100
AcDbEntity
  8
0
  6
HIDDEN
 62
     7
370
     0
100
AcDbPolyline
 90
        9
 70
   128
 43
0.0
 10
202.8335288523
 20
114.5270756787
 10
202.9994357897
 20
114.5086032399
 10
203.12164486
 20
114.4293473048
 10
203.1964746162
 20
114.2916953926
 10
203.2216708737
 20
114.0997941535
 10
203.1964746162
 20
113.8594244535
 10
203.12164486
 20
113.5778272309
 10
202.9994357897
 20
113.2634853693
 10
202.8335288523
 20
112.9258681571
  0
CIRCLE
  5
19D
330
1F
100
AcDbEntity
  8
0
  6
HIDDEN
 62
     7
370
     0
100
AcDbCircle
 10
164.2083063583
 20
123.8362649134
 30
0.0
 40
4.050000000000011
  0
LINE
  5
19E
330
1F
100
AcDbEntity
  8
0
  6
HIDDEN
 62
     7
370
     0
100
AcDbLine
 10
143.2385347979
 20
108.5233138705
 30
0.0
 11
143.2385347979
 21
139.1492159564
 31
0.0
  0
LINE
  5
19F
330
1F
100
AcDbEntity
  8
0
  6
HIDDEN
 62
     7
370
     0
100
AcDbLine
 10
149.7385347979
 20
109.4898547519
 30
0.0
 11
149.7385347979
 21
138.182675075
 31
0.0
  0
LINE
  5
1A0
330
1F
100
AcDbEntity
  8
0
  6
HIDDEN
 62
     7
370
     0
100
AcDbLine
 10
155.5385347979
 20
109.8362649134
 30
0.0
 11
155.5385347979
 21
137.8362649134
 31
0.0
  0
LINE
  5
1A1
330
1F
100
AcDbEntity
  8
0
  6
HIDDEN
 62
     7
370
     0
100
AcDbLine
 10
148.1385347979
 20
109.8362649134
 30
0.0
 11
148.1385347979
 21
137.8362649134
 31
0.0
  0
LINE
  5
1A2
330
1F
100
AcDbEntity
  8
0
  6
HIDDEN
 62
     7
370
     0
100
AcDbLine
 10
149.1385347979
 20
109.8362649134
 30
0.0
 11
149.1385347979
 21
137.8362649134
 31
0.0
  0
LINE
  5
1A3
330
1F
100
AcDbEntity
  8
0
  6
HIDDEN
 62
     7
370
     0
100
AcDbLine
 10
168.7083063583
 20
110.3362649134
 30
0.0
 11
168.7083063583
 21
137.3362649007
 31
0.0
  0
SPLINE
  5
1A4
330
1F
100
AcDbEntity
  8
0
  6
HIDDEN
 62
     7
370
     0
100
AcDbSpline
210
0.0
220
0.0
230
1.0
 70
     8
 71
     3
 72
     9
 73
     5
 74
     0
 42
0.00000001
 43
0.00000001
 40
0.0
 40
0.0
 40
0.0
 40
0.0
 40
0.6548288968746828
 40
1.0
 40
1.0
 40
1.0
 40
1.0
 10
168.208306358266
 20
124.4706937904605
 30
0.0
 10
168.1670132002647
 20
124.6903996946962
 30
0.0
 10
168.1039537381695
 20
125.0259162018088
 30
0.0
 10
167.9612210885942
 20
125.3329998905361
 30
0.0
 10
167.9119539024883
 20
125.438996306126
 30
0.0
  0
LINE
  5
1A5
330
1F
100
AcDbEntity
  8
0
  6
HIDDEN
 62
     7
370
     0
100
AcDbLine
 10
164.271287661
 20
127.8741214894
 30
0.0
 11
164.0504382846
 21
127.8713765638
 31
0.0
  0
SPLINE
  5
1A6
330
1F
100
AcDbEntity
  8
0
  6
HIDDEN
 62
     7
370
     0
100
AcDbSpline
210
0.0
220
0.0
230
1.0
 70
     8
 71
     3
 72
     9
 73
     5
 74
     0
 42
0.00000001
 43
0.00000001
 40
0.0
 40
0.0
 40
0.0
 40
0.0
 40
0.0734006932852937
 40
1.0
 40
1.0
 40
1.0
 40
1.0
 10
168.0373580891354
 20
122.5280011635175
 30
0.0
 10
168.0439684394285
 20
122.5436420815586
 30
0.0
 10
168.1340268570979
 20
122.7567315953096
 30
0.0
 10
168.1725815793534
 20
122.9877627389182
 30
0.0
 10
168.208306358266
 20
123.2018360364154
 30
0.0
  0
LINE
  5
1A7
330
1F
100
AcDbEntity
  8
0
  6
HIDDEN
 62
     7
370
     0
100
AcDbLine
 10
169.9583063583
 20
114.8362649134
 30
0.0
 11
169.9583063583
 21
132.8362649134
 31
0.0
  0
LINE
  5
1A8
330
1F
100
AcDbEntity
  8
0
  6
HIDDEN
 62
     7
370
     0
100
AcDbLine
 10
206.7083063583
 20
114.8362649134
 30
0.0
 11
206.7083063583
 21
132.8362649134
 31
0.0
  0
LINE
  5
1A9
330
1F
100
AcDbEntity
  8
0
  6
HIDDEN
 62
     7
370
     0
100
AcDbLine
 10
241.0237011475
 20
85.3095896242
 30
0.0
 11
241.0554387624
 21
85.3097361156
 31
0.0
  0
LINE
  5
1AA
330
1F
100
AcDbEntity
  8
0
  6
HIDDEN
 62
     7
370
     0
100
AcDbLine
 10
241.0237011475
 20
85.3095896242
 30
0.0
 11
237.1528571827
 21
92.1693501484
 31
0.0
  0
SPLINE
  5
1AB
330
1F
100
AcDbEntity
  8
0
  6
HIDDEN
 62
     7
370
     0
100
AcDbSpline
210
0.0
220
0.0
230
1.0
 70
     8
 71
     3
 72
    10
 73
     6
 74
     0
 42
0.00000001
 43
0.00000001
 40
0.0
 40
0.0
 40
0.0
 40
0.0
 40
0.5
 40
0.5
 40
1.0
 40
1.0
 40
1.0
 40
1.0
 10
217.9069051965761
 20
119.9000548877352
 30
0.0
 10
217.8855395499935
 20
120.5531798244953
 30
0.0
 10
217.858972375345
 20
121.2104007039065
 30
0.0
 10
217.8195191872527
 20
122.5232042788826
 30
0.0
 10
217.8070047740715
 20
123.1797952949203
 30
0.0
 10
217.8070047740715
 20
123.836264913438
 30
0.0
  0
LINE
  5
1AC
330
1F
100
AcDbEntity
  8
0
  6
HIDDEN
 62
     7
370
     0
100
AcDbLine
 10
217.8070047741
 20
140.5679685092
 30
0.0
 11
217.8070047741
 21
123.8362649134
 31
0.0
  0
SPLINE
  5
1AD
330
1F
100
AcDbEntity
  8
0
  6
HIDDEN
 62
     7
370
     0
100
AcDbSpline
210
0.0
220
0.0
230
1.0
 70
     8
 71
     3
 72
    12
 73
     8
 74
     0
 42
0.00000001
 43
0.00000001
 40
0.0
 40
0.0
 40
0.0
 40
0.0
 40
0.5000000000000029
 40
0.5000000000000029
 40
0.7500000000000014
 40
0.7500000000000014
 40
1.0
 40
1.0
 40
1.0
 40
1.0
 10
216.940979370287
 20
142.1587912837254
 30
0.0
 10
217.1214343137324
 20
141.8558417508027
 30
0.0
 10
217.282248442386
 20
141.5732694530215
 30
0.0
 10
217.5010993898756
 20
141.1726200105261
 30
0.0
 10
217.5700652428451
 20
141.0432040542217
 30
0.0
 10
217.6981457320055
 20
140.7945927237452
 30
0.0
 10
217.7569640496918
 20
140.6760085682622
 30
0.0
 10
217.8070047740668
 20
140.5679685092439
 30
0.0
  0
SPLINE
  5
1AE
330
1F
100
AcDbEntity
  8
0
  6
HIDDEN
 62
     7
370
     0
100
AcDbSpline
210
0.0
220
0.0
230
1.0
 70
     8
 71
     3
 72
    10
 73
     6
 74
     0
 42
0.00000001
 43
0.00000001
 40
0.0
 40
0.0
 40
0.0
 40
0.0
 40
0.5
 40
0.5
 40
1.0
 40
1.0
 40
1.0
 40
1.0
 10
221.1270216177759
 20
93.26106150827458
 30
0.0
 10
220.313040924386
 20
97.65842248648633
 30
0.0
 10
219.5851848826843
 20
102.0689745670614
 30
0.0
 10
218.4531808990436
 20
110.9396588030923
 30
0.0
 10
218.0540967556935
 20
115.4005665446809
 30
0.0
 10
217.9069051965761
 20
119.9000548877352
 30
0.0
  0
SPLINE
  5
1AF
330
1F
100
AcDbEntity
  8
0
  6
HIDDEN
 62
     7
370
     0
100
AcDbSpline
210
0.0
220
0.0
230
1.0
 70
     8
 71
     3
 72
    14
 73
    10
 74
     0
 42
0.00000001
 43
0.00000001
 40
0.0
 40
0.0
 40
0.0
 40
0.0
 40
0.25
 40
0.25
 40
0.5
 40
0.5
 40
0.75
 40
0.75
 40
1.0
 40
1.0
 40
1.0
 40
1.0
 10
222.092947444065
 20
92.19768087432521
 30
0.0
 10
221.9629131225502
 20
92.19768087432523
 30
0.0
 10
221.8335232868208
 20
92.23555837058609
 30
0.0
 10
221.6082998723463
 20
92.36416258901257
 30
0.0
 10
221.510884516195
 20
92.45392757739707
 30
0.0
 10
221.3505723280648
 20
92.65660820222296
 30
0.0
 10
221.2861108405433
 20
92.77117879000352
 30
0.0
 10
221.1867319698534
 20
93.00842741553278
 30
0.0
 10
221.1504821910441
 20
93.13432065280476
 30
0.0
 10
221.1270216177759
 20
93.26106150827454
 30
0.0
  0
ELLIPSE
  5
1B0
330
1F
100
AcDbEntity
  8
0
  6
HIDDEN
 62
     7
370
     0
100
AcDbEllipse
 10
254.3737098857
 20
123.8362649134
 30
0.0
 11
27.0814685474391
 21
44.83645157147819
 31
0.0
210
0.0
220
0.0
230
1.0
 40
0.1415393743
 41
3.138328763944825
 42
3.226875865860488
  0
ELLIPSE
  5
1B1
330
1F
100
AcDbEntity
  8
0
  6
HIDDEN
 62
     7
370
     0
100
AcDbEllipse
 10
211.3654097968
 20
123.8362649134
 30
0.0
 11
255.2075919176528
 21
1.215734166346721
 31
0.0
210
0.0
220
0.0
230
0.9999999999999998
 40
0.1762626822
 41
4.773916479962319
 42
4.778882406390937
  0
SPLINE
  5
1B2
330
1F
100
AcDbEntity
  8
0
  6
HIDDEN
 62
     7
370
     0
100
AcDbSpline
210
0.0
220
0.0
230
1.0
 70
     8
 71
     3
 72
    29
 73
    25
 74
     0
 42
0.00000001
 43
0.00000001
 40
0.0
 40
0.0
 40
0.0
 40
0.0
 40
0.0385841602119985
 40
0.0773510785204841
 40
0.1239248902604561
 40
0.1708196374189613
 40
0.2187230167608074
 40
0.2669733662175585
 40
0.3138171745191602
 40
0.36098290907475
 40
0.4091607955526932
 40
0.457687201132596
 40
0.5048428165767063
 40
0.5523243879932951
 40
0.6008348115622678
 40
0.6497014078128189
 40
0.696919290516222
 40
0.7444681793456747
 40
0.7930673211260101
 40
0.8420323126280932
 40
0.8888541099179498
 40
0.9360076721078827
 40
0.9842152074810046
 40
1.0
 40
1.0
 40
1.0
 40
1.0
 10
233.2029647105798
 20
79.11746856054496
 30
0.0
 10
233.2308813313967
 20
79.12398091842907
 30
0.0
 10
233.2868468031596
 20
79.13703648069291
 30
0.0
 10
233.3601336844125
 20
79.15971064217464
 30
0.0
 10
233.4235929742189
 20
79.1853737350508
 30
0.0
 10
233.4722916221689
 20
79.21457853229106
 30
0.0
 10
233.5020120747834
 20
79.24575838639522
 30
0.0
 10
233.5116111657154
 20
79.27840483244927
 30
0.0
 10
233.5013733389043
 20
79.31211305120053
 30
0.0
 10
233.4716848393169
 20
79.34677904334414
 30
0.0
 10
233.421916347553
 20
79.38257410990971
 30
0.0
 10
233.3525175040087
 20
79.41877439261397
 30
0.0
 10
233.2646279627916
 20
79.45485457101378
 30
0.0
 10
233.1587261083661
 20
79.49063459793679
 30
0.0
 10
233.0337938020459
 20
79.52615829315718
 30
0.0
 10
232.8919786665606
 20
79.56051943394635
 30
0.0
 10
232.735328693679
 20
79.59316930494921
 30
0.0
 10
232.5644718387797
 20
79.62391386231383
 30
0.0
 10
232.3778373652698
 20
79.65275585234552
 30
0.0
 10
232.1796050826858
 20
79.67874184726602
 30
0.0
 10
231.972728527774
 20
79.7015693869462
 30
0.0
 10
231.7574907040743
 20
79.72080413711845
 30
0.0
 10
231.5843440774921
 20
79.73389449884385
 30
0.0
 10
231.4812245227608
 20
79.7391500482689
 30
0.0
 10
231.4557883364288
 20
79.74044641863048
 30
0.0
  0
SPLINE
  5
1B3
330
1F
100
AcDbEntity
  8
0
  6
HIDDEN
 62
     7
370
     0
100
AcDbSpline
210
0.0
220
0.0
230
1.0
 70
     8
 71
     3
 72
    33
 73
    29
 74
     0
 42
0.00000001
 43
0.00000001
 40
0.0
 40
0.0
 40
0.0
 40
0.0
 40
0.0268332085828393
 40
0.0654009762624581
 40
0.1042342257620697
 40
0.1438990792088506
 40
0.1838487933577737
 40
0.2227413153156303
 40
0.2618985181010985
 40
0.3018854494371164
 40
0.3421571603972996
 40
0.3815566418750207
 40
0.4212268394031032
 40
0.4617499546195123
 40
0.5025676586846032
 40
0.5421761055275538
 40
0.5820605564294727
 40
0.6228181805386044
 40
0.6638787603763795
 40
0.7033411333925802
 40
0.7430803292357613
 40
0.7836957352810783
 40
0.8246152009443101
 40
0.8638032356951455
 40
0.903265529385641
 40
0.9435944361694248
 40
0.9842234357762623
 40
0.9999999999999999
 40
0.9999999999999999
 40
0.9999999999999999
 40
0.9999999999999999
 10
229.9440409454822
 20
79.73951004785005
 30
0.0
 10
229.8928864277443
 20
79.73657012377659
 30
0.0
 10
229.7682067648572
 20
79.72940460333771
 30
0.0
 10
229.576577817669
 20
79.71387762845522
 30
0.0
 10
229.3684108444135
 20
79.69371334421565
 30
0.0
 10
229.167492330179
 20
79.67010168529916
 30
0.0
 10
228.9774380810999
 20
79.64372357491739
 30
0.0
 10
228.8003835221123
 20
79.61503642733112
 30
0.0
 10
228.6364665382571
 20
79.58430212954622
 30
0.0
 10
228.4852686699967
 20
79.551485830135
 30
0.0
 10
228.3496650948535
 20
79.51724502844904
 30
0.0
 10
228.231086233374
 20
79.4821412020137
 30
0.0
 10
228.1296152060219
 20
79.44638674773324
 30
0.0
 10
228.0454561156465
 20
79.40998920940322
 30
0.0
 10
227.9807178375157
 20
79.37375637474697
 30
0.0
 10
227.9358558520387
 20
79.33820155702313
 30
0.0
 10
227.9106419517204
 20
79.30344514326214
 30
0.0
 10
227.9054852652018
 20
79.26935230426137
 30
0.0
 10
227.9210103167467
 20
79.23672998801214
 30
0.0
 10
227.9564958727415
 20
79.20591912279399
 30
0.0
 10
228.0113310635898
 20
79.17689577823761
 30
0.0
 10
228.0864836849307
 20
79.14937717053483
 30
0.0
 10
228.180623593613
 20
79.12396616950468
 30
0.0
 10
228.2920242868571
 20
79.10079999006733
 30
0.0
 10
228.4198278726702
 20
79.07973022936169
 30
0.0
 10
228.5658778884527
 20
79.06047918760707
 30
0.0
 10
228.6953926244727
 20
79.04660518703069
 30
0.0
 10
228.7763303654616
 20
79.03928284855742
 30
0.0
 10
228.7989685483308
 20
79.03723479983056
 30
0.0
  0
ELLIPSE
  5
1B4
330
1F
100
AcDbEntity
  8
0
  6
HIDDEN
 62
     7
370
     0
100
AcDbEllipse
 10
211.3654097968
 20
123.8362649134
 30
0.0
 11
255.2075919176528
 21
1.215734166346721
 31
0.0
210
0.0
220
0.0
230
0.9999999999999998
 40
0.1762626822
 41
4.79722186191502
 42
4.824162617219534
  0
SPLINE
  5
1B5
330
1F
100
AcDbEntity
  8
0
  6
HIDDEN
 62
     7
370
     0
100
AcDbSpline
210
0.0
220
0.0
230
1.0
 70
     8
 71
     3
 72
    13
 73
     9
 74
     0
 42
0.00000001
 43
0.00000001
 40
0.0
 40
0.0
 40
0.0
 40
0.0
 40
0.3183295683601015
 40
0.6538880003607582
 40
0.7446526944760143
 40
0.8366025173207442
 40
0.9297378952563702
 40
0.9999999999999999
 40
0.9999999999999999
 40
0.9999999999999999
 40
0.9999999999999999
 10
235.496205114837
 20
92.1976387077917
 30
0.0
 10
235.661328470201
 20
91.30751519979505
 30
0.0
 10
236.0005121068579
 20
89.47909227409428
 30
0.0
 10
236.424367897258
 20
87.65089149875698
 30
0.0
 10
236.7285295089357
 20
86.46755557744576
 30
0.0
 10
236.8930276595596
 20
85.86176509555956
 30
0.0
 10
237.0471967363002
 20
85.31969355575997
 30
0.0
 10
237.1475898381757
 20
84.99114425958402
 30
0.0
 10
237.1907596014049
 20
84.84986567509887
 30
0.0
  0
SPLINE
  5
1B6
330
1F
100
AcDbEntity
  8
0
  6
HIDDEN
 62
     7
370
     0
100
AcDbSpline
210
0.0
220
0.0
230
1.0
 70
     8
 71
     3
 72
    13
 73
     9
 74
     0
 42
0.00000001
 43
0.00000001
 40
0.0
 40
0.0
 40
0.0
 40
0.0
 40
0.0394637549563467
 40
0.1099754750872313
 40
0.3012331306609171
 40
0.5133229817638594
 40
0.746245493600735
 40
1.0
 40
1.0
 40
1.0
 40
1.0
 10
237.3121083087158
 20
84.46299948951442
 30
0.0
 10
237.3456516530016
 20
84.35739436156726
 30
0.0
 10
237.4391284452613
 20
84.06309965670496
 30
0.0
 10
237.6993011596056
 20
83.30512352660793
 30
0.0
 10
238.1177332657967
 20
82.21388731503666
 30
0.0
 10
238.6955719268418
 20
80.99983894550515
 30
0.0
 10
239.3431801738931
 20
79.93886101627834
 30
0.0
 10
239.8040922956108
 20
79.49856730353622
 30
0.0
 10
240.0444129262495
 20
79.2689971583247
 30
0.0
  0
LINE
  5
1B7
330
1F
100
AcDbEntity
  8
0
  6
HIDDEN
 62
     7
370
     0
100
AcDbLine
 10
235.4967280144
 20
92.1976808743
 30
0.0
 11
222.0929474441
 21
92.1976808743
 31
0.0
  0
ARC
  5
1B8
330
1F
100
AcDbEntity
  8
0
  6
HIDDEN
 62
     7
370
     0
100
AcDbCircle
 10
233.5143214004
 20
92.7372821108
 30
0.0
 40
1.993219503612961
100
AcDbArc
 50
65.0144051478
 51
210.001479482
  0
LINE
  5
1B9
330
1F
100
AcDbEntity
  8
0
  6
HIDDEN
 62
     7
370
     0
100
AcDbLine
 10
233.1671025115
 20
89.2969339039
 30
0.0
 11
234.321862893
 21
89.125501814
 31
0.0
  0
LINE
  5
1BA
330
1F
100
AcDbEntity
  8
0
  6
HIDDEN
 62
     7
370
     0
100
AcDbLine
 10
239.868940766
 20
85.4810217142
 30
0.0
 11
235.9306488308
 21
92.4603109326
 31
0.0
  0
LINE
  5
1BB
330
1F
100
AcDbEntity
  8
0
  6
HIDDEN
 62
     7
370
     0
100
AcDbLine
 10
241.0237011475
 20
85.3095896242
 30
0.0
 11
239.868940766
 21
85.4810217142
 31
0.0
  0
LINE
  5
1BC
330
1F
100
AcDbEntity
  8
0
  6
HIDDEN
 62
     7
370
     0
100
AcDbLine
 10
235.8770399202
 20
114.0121607404
 30
0.0
 11
241.7191534637
 21
113.1448589604
 31
0.0
  0
LINE
  5
1BD
330
1F
100
AcDbEntity
  8
0
  6
HIDDEN
 62
     7
370
     0
100
AcDbLine
 10
240.5643930822
 20
85.484231715
 30
0.0
 11
241.7191534637
 21
85.3127996251
 31
0.0
  0
LINE
  5
1BE
330
1F
100
AcDbEntity
  8
0
  6
HIDDEN
 62
     7
370
     0
100
AcDbLine
 10
233.2029647106
 20
82.4666966704
 30
0.0
 11
233.2029647106
 21
79.1174685605
 31
0.0
  0
LINE
  5
1BF
330
1F
100
AcDbEntity
  8
0
  6
HIDDEN
 62
     7
370
     0
100
AcDbLine
 10
228.7989685483
 20
79.1609294775
 30
0.0
 11
228.7989685483
 21
81.6768772467
 31
0.0
  0
LWPOLYLINE
  5
1C0
330
1F
100
AcDbEntity
  8
0
  6
HIDDEN
 62
     7
370
     0
100
AcDbPolyline
 90
       21
 70
   128
 43
0.0
 10
229.322918881
 20
82.4362852874
 10
228.7978919174
 20
82.4463954236
 10
228.3763834459
 20
82.4594091331
 10
228.0812334958
 20
82.4746212496
 10
227.9284351821
 20
82.4912074833
 10
227.9262680961
 20
82.5082690858
 10
228.0748496646
 20
82.5248815501
 10
228.3661287862
 20
82.5401447066
 10
228.7843220923
 20
82.5532314996
 10
229.3067691907
 20
82.5634328028
 10
229.905160551
 20
82.5701958443
 10
230.5470714958
 20
82.5731541592
 10
231.1977191784
 20
82.5721474471
 10
231.8218473393
 20
82.567230258
 10
232.3856367166
 20
82.5586690367
 10
232.8585375904
 20
82.5469276851
 10
233.214925162
 20
82.5326424248
 10
233.4354880697
 20
82.5165873227
 10
233.5082748024
 20
82.4996323471
 10
233.4293413086
 20
82.4826962272
 10
233.2029647106
 20
82.4666966704
  0
ELLIPSE
  5
1C1
330
1F
100
AcDbEntity
  8
0
  6
HIDDEN
 62
     7
370
     0
100
AcDbEllipse
 10
230.7083063583
 20
85.5616331725
 30
0.0
 11
2.77181541874046
 21
4.805403477891133
 31
0.0
210
0.0
220
0.0
230
0.9999999999999998
 40
0.0824658796
 41
3.820017170542281
 42
4.052799879812738
  0
LINE
  5
1C2
330
1F
100
AcDbEntity
  8
0
  6
HIDDEN
 62
     7
370
     0
100
AcDbLine
 10
229.2412435807
 20
82.4484105453
 30
0.0
 11
229.322918881
 21
82.4362852874
 31
0.0
  0
LINE
  5
1C3
330
1F
100
AcDbEntity
  8
0
  6
HIDDEN
 62
     7
370
     0
100
AcDbLine
 10
228.7989685483
 20
81.6768772467
 30
0.0
 11
227.2716725779
 21
79.0125629365
 31
0.0
  0
CIRCLE
  5
1C4
330
1F
100
AcDbEntity
  8
0
  6
HIDDEN
 62
     7
370
     0
100
AcDbCircle
 10
235.4311962514
 20
83.572251752
 30
0.0
 40
1.284892068404753
  0
LINE
  5
1C5
330
1F
100
AcDbEntity
  8
0
  6
HIDDEN
 62
     7
370
     0
100
AcDbLine
 10
240.0445047756
 20
79.2652818697
 30
0.0
 11
240.5644158512
 21
79.8091390431
 31
0.0
  0
LINE
  5
1C6
330
1F
100
AcDbEntity
  8
0
  6
HIDDEN
 62
     7
370
     0
100
AcDbLine
 10
233.2029647106
 20
82.4666966704
 30
0.0
 11
229.2412435807
 21
82.4484105453
 31
0.0
  0
LINE
  5
1C7
330
1F
100
AcDbEntity
  8
0
  6
HIDDEN
 62
     7
370
     0
100
AcDbLine
 10
240.5643930822
 20
85.484231715
 30
0.0
 11
239.868940766
 21
85.4810217142
 31
0.0
  0
LINE
  5
1C8
330
1F
100
AcDbEntity
  8
0
  6
HIDDEN
 62
     7
370
     0
100
AcDbLine
 10
240.5643930822
 20
85.484231715
 30
0.0
 11
240.5643930822
 21
79.8091614584
 31
0.0
  0
LINE
  5
1C9
330
1F
100
AcDbEntity
  8
0
  6
HIDDEN
 62
     7
370
     0
100
AcDbLine
 10
231.7881684098
 20
91.7406277862
 30
0.0
 11
233.1671025115
 21
89.2969339039
 31
0.0
  0
LINE
  5
1CA
330
1F
100
AcDbEntity
  8
0
  6
HIDDEN
 62
     7
370
     0
100
AcDbLine
 10
233.1671025115
 20
89.2969339039
 30
0.0
 11
229.2412435807
 21
82.4484105453
 31
0.0
  0
LWPOLYLINE
  5
1CB
330
1F
100
AcDbEntity
  8
0
  6
HIDDEN
 62
     7
370
     0
100
AcDbPolyline
 90
       19
 70
   128
 43
0.0
 10
230.7083063583
 20
90.5309823202
 10
231.149187424
 20
90.5289473445
 10
231.5368917265
 20
90.5230878654
 10
231.824656405
 20
90.5141106226
 10
231.9777727923
 20
90.5030984041
 10
231.9777727923
 20
90.4913794459
 10
231.824656405
 20
90.4803672274
 10
231.5368917265
 20
90.4713899846
 10
231.149187424
 20
90.4655305055
 10
230.7083063583
 20
90.4634955298
 10
230.2674252925
 20
90.4655305055
 10
229.87972099
 20
90.4713899846
 10
229.5919563115
 20
90.4803672274
 10
229.4388399242
 20
90.4913794459
 10
229.4388399242
 20
90.5030984041
 10
229.5919563115
 20
90.5141106226
 10
229.87972099
 20
90.5230878654
 10
230.2674252925
 20
90.5289473445
 10
230.7083063583
 20
90.5309823202
  0
LWPOLYLINE
  5
1CC
330
1F
100
AcDbEntity
  8
0
  6
HIDDEN
 62
     7
370
     0
100
AcDbPolyline
 90
       19
 70
   128
 43
0.0
 10
230.7083063583
 20
82.5337237204
 10
231.149187424
 20
82.5316887447
 10
231.5368917265
 20
82.5258292656
 10
231.824656405
 20
82.5168520228
 10
231.9777727923
 20
82.5058398043
 10
231.9777727923
 20
82.4941208461
 10
231.824656405
 20
82.4831086276
 10
231.5368917265
 20
82.4741313848
 10
231.149187424
 20
82.4682719057
 10
230.7083063583
 20
82.46623693
 10
230.2674252925
 20
82.4682719057
 10
229.87972099
 20
82.4741313848
 10
229.5919563115
 20
82.4831086276
 10
229.4388399242
 20
82.4941208461
 10
229.4388399242
 20
82.5058398043
 10
229.5919563115
 20
82.5168520228
 10
229.87972099
 20
82.5258292656
 10
230.2674252925
 20
82.5316887447
 10
230.7083063583
 20
82.5337237204
  0
CIRCLE
  5
1CD
330
1F
100
AcDbEntity
  8
0
  6
HIDDEN
 62
     7
370
     0
100
AcDbCircle
 10
233.9551867412
 20
83.791375476
 30
0.0
 40
1.284892068404781
  0
SPLINE
  5
1CE
330
1F
100
AcDbEntity
  8
0
  6
HIDDEN
 62
     7
370
     0
100
AcDbSpline
210
0.0
220
0.0
230
1.0
 70
     8
 71
     3
 72
    16
 73
    12
 74
     0
 42
0.00000001
 43
0.00000001
 40
0.0
 40
0.0
 40
0.0
 40
0.0
 40
0.2499999999999997
 40
0.2499999999999997
 40
0.3749999999999997
 40
0.3749999999999997
 40
0.4999999999999998
 40
0.4999999999999998
 40
0.7499999999999999
 40
0.7499999999999999
 40
1.0
 40
1.0
 40
1.0
 40
1.0
 10
178.3869860147063
 20
145.6063458684401
 30
0.0
 10
178.2257535372219
 20
145.5083302553854
 30
0.0
 10
178.1052736975822
 20
145.3215942237093
 30
0.0
 10
177.9828931802689
 20
144.9085544161504
 30
0.0
 10
177.9519155198714
 20
144.7485539169175
 30
0.0
 10
177.9103017822435
 20
144.3817482658263
 30
0.0
 10
177.9000658693107
 20
144.1784111132023
 30
0.0
 10
177.8998774722546
 20
143.5111238465757
 30
0.0
 10
177.9400221748922
 20
142.9903093826876
 30
0.0
 10
178.1041759298317
 20
141.7929503672099
 30
0.0
 10
178.2257275802413
 20
141.1346807129139
 30
0.0
 10
178.3869860147063
 20
140.420171539679
 30
0.0
  0
SPLINE
  5
1CF
330
1F
100
AcDbEntity
  8
0
  6
HIDDEN
 62
     7
370
     0
100
AcDbSpline
210
0.0
220
0.0
230
1.0
 70
     8
 71
     3
 72
    16
 73
    12
 74
     0
 42
0.00000001
 43
0.00000001
 40
0.0
 40
0.0
 40
0.0
 40
0.0
 40
0.2500000000000001
 40
0.2500000000000001
 40
0.3750000000000001
 40
0.3750000000000001
 40
0.5000000000000001
 40
0.5000000000000001
 40
0.75
 40
0.75
 40
1.0
 40
1.0
 40
1.0
 40
1.0
 10
178.3869860147063
 20
107.2523582871969
 30
0.0
 10
178.2257535372218
 20
106.5379641250048
 30
0.0
 10
178.1052736975822
 20
105.8846218622961
 30
0.0
 10
177.9828931802689
 20
104.9963666204923
 30
0.0
 10
177.9519155198714
 20
104.7156860841404
 30
0.0
 10
177.9103017822435
 20
104.1866520943004
 30
0.0
 10
177.9000658693107
 20
103.943331115722
 30
0.0
 10
177.8998774722546
 20
103.2753084252087
 30
0.0
 10
177.9400221748922
 20
102.9116275157893
 30
0.0
 10
178.1041759298317
 20
102.3517366432409
 30
0.0
 10
178.2257275802413
 20
102.1642153511238
 30
0.0
 10
178.3869860147063
 20
102.0661839584359
 30
0.0
  0
SPLINE
  5
1D0
330
1F
100
AcDbEntity
  8
0
  6
HIDDEN
 62
     7
370
     0
100
AcDbSpline
210
0.0
220
0.0
230
1.0
 70
     8
 71
     3
 72
    40
 73
    36
 74
     0
 42
0.00000001
 43
0.00000001
 40
0.0
 40
0.0
 40
0.0
 40
0.0
 40
0.0227888048503731
 40
0.0455418385265104
 40
0.0682641583307994
 40
0.0909608420967448
 40
0.1136369848797713
 40
0.13629769559067
 40
0.1589480935825768
 40
0.1815933052027521
 40
0.2042384603206841
 40
0.2268886888442507
 40
0.2495491172357527
 40
0.2722248650396268
 40
0.2949210414335784
 40
0.317642741814663
 40
0.3403950444315884
 40
0.363183007074143
 40
0.3860116638302188
 40
0.4088860219203805
 40
0.4318110586193504
 40
0.4547917182731376
 40
0.4778329094198489
 40
0.5009395020214699
 40
0.5470678095544067
 40
0.5929227803144393
 40
0.6385439768613538
 40
0.6839715725357847
 40
0.729246256041751
 40
0.7744091293758278
 40
0.8195016002820988
 40
0.8645652705775198
 40
0.9096418218206497
 40
0.9547728998808197
 40
1.0
 40
1.0
 40
1.0
 40
1.0
 10
240.5643206898083
 20
79.80917220552939
 30
0.0
 10
240.5253831857062
 20
79.84080604125205
 30
0.0
 10
240.447569296997
 20
79.90402405763837
 30
0.0
 10
240.3312015555399
 20
80.01139597933147
 30
0.0
 10
240.2152219271604
 20
80.12785497183341
 30
0.0
 10
240.0996478807751
 20
80.25430370632469
 30
0.0
 10
239.9844747671035
 20
80.3905007797196
 30
0.0
 10
239.8697038525983
 20
80.53651076916942
 30
0.0
 10
239.7553348210089
 20
80.69231638076882
 30
0.0
 10
239.6413677795828
 20
80.85792222424536
 30
0.0
 10
239.5278027219976
 20
81.03332703739986
 30
0.0
 10
239.4146396720552
 20
81.21853112294676
 30
0.0
 10
239.3018786450956
 20
81.41353435684084
 30
0.0
 10
239.1895196582406
 20
81.61833672209958
 30
0.0
 10
239.0775627275445
 20
81.83293816604336
 30
0.0
 10
238.9660078687099
 20
82.05733863869489
 30
0.0
 10
238.8548550966601
 20
82.29153808352389
 30
0.0
 10
238.7441044261487
 20
82.53553643773235
 30
0.0
 10
238.6337558693842
 20
82.789333642283
 30
0.0
 10
238.5238094446181
 20
83.05292960342948
 30
0.0
 10
238.4142651437861
 20
83.32632433915724
 30
0.0
 10
238.3051230534841
 20
83.6095174324323
 30
0.0
 10
238.1963829016364
 20
83.90251008123082
 30
0.0
 10
238.052178284616
 20
84.30554204051657
 30
0.0
 10
237.8741244287725
 20
84.83023406135503
 30
0.0
 10
237.6643551783823
 20
85.49264881222528
 30
0.0
 10
237.4589662399085
 20
86.1864171860853
 30
0.0
 10
237.2579591983565
 20
86.91153554436143
 30
0.0
 10
237.0613349250033
 20
87.66800749890027
 30
0.0
 10
236.8690917789841
 20
88.45581857030922
 30
0.0
 10
236.6812387958321
 20
89.27501684477521
 30
0.0
 10
236.4977447694707
 20
90.12541622483921
 30
0.0
 10
236.3187285819182
 20
91.00770236751646
 30
0.0
 10
236.1437481617521
 20
91.91930246956791
 30
0.0
 10
236.0310433422446
 20
92.55212438612706
 30
0.0
 10
235.9746310477685
 20
92.86887158880997
 30
0.0
  0
LINE
  5
1D1
330
1F
100
AcDbEntity
  8
0
  6
HIDDEN
 62
     7
370
     0
100
AcDbLine
 10
179.5083063583
 20
130.8581522392
 30
0.0
 11
179.5083063583
 21
116.8143775877
 31
0.0
  0
SPLINE
  5
1D2
330
1F
100
AcDbEntity
  8
0
  6
HIDDEN
 62
     7
370
     0
100
AcDbSpline
210
0.0
220
0.0
230
1.0
 70
     8
 71
     3
 72
    24
 73
    20
 74
     0
 42
0.00000001
 43
0.00000001
 40
0.0
 40
0.0
 40
0.0
 40
0.0
 40
0.125
 40
0.125
 40
0.25
 40
0.25
 40
0.3749999999999999
 40
0.3749999999999999
 40
0.4374999999999999
 40
0.4374999999999999
 40
0.4999999999999999
 40
0.4999999999999999
 40
0.625
 40
0.625
 40
0.75
 40
0.75
 40
0.875
 40
0.875
 40
1.0
 40
1.0
 40
1.0
 40
1.0
 10
148.1583063582659
 20
119.7503038603387
 30
0.0
 10
148.396109990541
 20
120.0493109626689
 30
0.0
 10
148.6261956517523
 20
120.3536488139876
 30
0.0
 10
149.0609490503622
 20
120.9793823513836
 30
0.0
 10
149.2658818426483
 20
121.3006070787111
 30
0.0
 10
149.630983793147
 20
121.9725328494438
 30
0.0
 10
149.7927841789385
 20
122.3278480813227
 30
0.0
 10
149.9646443835182
 20
122.8780793026752
 30
0.0
 10
150.0102295751784
 20
123.0644830876556
 30
0.0
 10
150.0727043147532
 20
123.4446175897519
 30
0.0
 10
150.0893754605017
 20
123.6402873820378
 30
0.0
 10
150.0898965036781
 20
124.2187677607122
 30
0.0
 10
150.0254542027915
 20
124.596679599681
 30
0.0
 10
149.7956051094181
 20
125.3386476247794
 30
0.0
 10
149.6370844317551
 20
125.6873630849404
 30
0.0
 10
149.2728501018549
 20
126.3604554826735
 30
0.0
 10
149.0661138617913
 20
126.6854079699152
 30
0.0
 10
148.6281759160509
 20
127.316331780377
 30
0.0
 10
148.3969031887713
 20
127.6222215207176
 30
0.0
 10
148.158306358266
 20
127.9222259665371
 30
0.0
  0
LINE
  5
1D3
330
1F
100
AcDbEntity
  8
0
  6
HIDDEN
 62
     7
370
     0
100
AcDbLine
 10
148.1583063583
 20
119.7503038603
 30
0.0
 11
148.1583063583
 21
127.9222259665
 31
0.0
  0
SPLINE
  5
1D4
330
1F
100
AcDbEntity
  8
0
  6
HIDDEN
 62
     7
370
     0
100
AcDbSpline
210
0.0
220
0.0
230
1.0
 70
     8
 71
     3
 72
     8
 73
     4
 74
     0
 42
0.00000001
 43
0.00000001
 40
0.0000249638557296
 40
0.0000249638557296
 40
0.0000249638557296
 40
0.0000249638557296
 40
0.0049776420541172
 40
0.0049776420541172
 40
0.0049776420541172
 40
0.0049776420541172
 10
143.2083063582659
 20
119.8710540166014
 30
0.0
 10
144.8582825927755
 20
119.8297747788332
 30
0.0
 10
146.5082839125205
 20
119.7895530975937
 30
0.0
 10
148.1583063582659
 20
119.7503038603387
 30
0.0
  0
SPLINE
  5
1D5
330
1F
100
AcDbEntity
  8
0
  6
HIDDEN
 62
     7
370
     0
100
AcDbSpline
210
0.0
220
0.0
230
1.0
 70
     8
 71
     3
 72
     8
 73
     4
 74
     0
 42
0.00000001
 43
0.00000001
 40
0.0000249631533153
 40
0.0000249631533153
 40
0.0000249631533153
 40
0.0000249631533153
 40
0.0049776413517029
 40
0.0049776413517029
 40
0.0049776413517029
 40
0.0049776413517029
 10
148.1583063582659
 20
127.9222259665372
 30
0.0
 10
146.5082839125205
 20
127.8829767292822
 30
0.0
 10
144.8582825927755
 20
127.8427550480427
 30
0.0
 10
143.2083063582659
 20
127.8014758102745
 30
0.0
  0
SPLINE
  5
1D6
330
1F
100
AcDbEntity
  8
0
  6
HIDDEN
 62
     7
370
     0
100
AcDbSpline
210
0.0
220
0.0
230
1.0
 70
     8
 71
     3
 72
     8
 73
     4
 74
     0
 42
0.00000001
 43
0.00000001
 40
0.0
 40
0.0
 40
0.0
 40
0.0
 40
1.0
 40
1.0
 40
1.0
 40
1.0
 10
141.7083063582637
 20
120.9342775804576
 30
0.0
 10
142.1750669696415
 20
120.5189143348346
 30
0.0
 10
142.6808145164216
 20
120.17432390553
 30
0.0
 10
143.208306358266
 20
119.8710540166014
 30
0.0
  0
SPLINE
  5
1D7
330
1F
100
AcDbEntity
  8
0
  6
HIDDEN
 62
     7
370
     0
100
AcDbSpline
210
0.0
220
0.0
230
1.0
 70
     8
 71
     3
 72
     8
 73
     4
 74
     0
 42
0.00000001
 43
0.00000001
 40
0.0
 40
0.0
 40
0.0
 40
0.0
 40
1.0
 40
1.0
 40
1.0
 40
1.0
 10
143.208306358266
 20
127.8014758102745
 30
0.0
 10
142.6808145164224
 20
127.4982059213464
 30
0.0
 10
142.1750669696431
 20
127.1536154920424
 30
0.0
 10
141.708306358266
 20
126.7382522464203
 30
0.0
  0
SPLINE
  5
1D8
330
1F
100
AcDbEntity
  8
0
  6
HIDDEN
 62
     7
370
     0
100
AcDbSpline
210
0.0
220
0.0
230
1.0
 70
     8
 71
     3
 72
     9
 73
     5
 74
     0
 42
0.00000001
 43
0.00000001
 40
0.0
 40
0.0
 40
0.0
 40
0.0
 40
0.7798269336057482
 40
1.0
 40
1.0
 40
1.0
 40
1.0
 10
161.0194677870281
 20
126.4822764634954
 30
0.0
 10
161.3108698128144
 20
126.7825260298751
 30
0.0
 10
161.6845450646281
 20
127.1675467997932
 30
0.0
 10
162.1799281743244
 20
127.3477208690307
 30
0.0
 10
162.2889981926261
 20
127.3873903463394
 30
0.0
  0
SPLINE
  5
1D9
330
1F
100
AcDbEntity
  8
0
  6
HIDDEN
 62
     7
370
     0
100
AcDbSpline
210
0.0
220
0.0
230
1.0
 70
     8
 71
     3
 72
    19
 73
    15
 74
     0
 42
0.00000001
 43
0.00000001
 40
0.0
 40
0.0
 40
0.0
 40
0.0
 40
0.0199023960751209
 40
0.1472909643499303
 40
0.2100853749634809
 40
0.2748385573525902
 40
0.3351951222383168
 40
0.3975659039905224
 40
0.5112219857198439
 40
0.6176968430826143
 40
0.722845594427566
 40
0.8325729949969297
 40
0.9499469805753328
 40
1.0
 40
1.0
 40
1.0
 40
1.0
 10
164.5540781470458
 20
127.8660302564338
 30
0.0
 10
164.6338241164564
 20
127.8723291625221
 30
0.0
 10
165.2239973143547
 20
127.9189452558102
 30
0.0
 10
166.0529357112159
 20
127.6037186302353
 30
0.0
 10
166.9375440398361
 20
127.105943889835
 30
0.0
 10
167.514527386855
 20
126.6148174981369
 30
0.0
 10
167.9941138470179
 20
126.0342799471728
 30
0.0
 10
168.4573505322142
 20
125.2036372143151
 30
0.0
 10
168.7302790242096
 20
124.0762824837317
 30
0.0
 10
168.5756534862279
 20
122.7564122320175
 30
0.0
 10
168.0088062816335
 20
121.5715946230662
 30
0.0
 10
167.0674238204879
 20
120.6200393527684
 30
0.0
 10
166.0841445937787
 20
120.0272517209098
 30
0.0
 10
165.4152293710829
 20
119.9421200959827
 30
0.0
 10
165.2152543035336
 20
119.9166696325043
 30
0.0
  0
SPLINE
  5
1DA
330
1F
100
AcDbEntity
  8
0
  6
HIDDEN
 62
     7
370
     0
100
AcDbSpline
210
0.0
220
0.0
230
1.0
 70
     8
 71
     3
 72
    13
 73
     9
 74
     0
 42
0.00000001
 43
0.00000001
 40
0.0
 40
0.0
 40
0.0
 40
0.0
 40
0.0675938904525031
 40
0.2819104594217077
 40
0.4840871491744013
 40
0.6740893152354509
 40
0.8589663231732735
 40
0.9999999999999999
 40
0.9999999999999999
 40
0.9999999999999999
 40
0.9999999999999999
 10
161.8931648431115
 20
120.5272658768715
 30
0.0
 10
161.7537980854049
 20
120.5975493631989
 30
0.0
 10
161.1725481169514
 20
120.8906771856645
 30
0.0
 10
160.4681611451859
 20
121.8183729364015
 30
0.0
 10
159.9548373530922
 20
123.1310360770615
 30
0.0
 10
159.9609320018746
 20
124.4875507065567
 30
0.0
 10
160.3494702115066
 20
125.6378527163415
 30
0.0
 10
160.8171048733423
 20
126.2272306900438
 30
0.0
 10
161.0194677870281
 20
126.4822764634954
 30
0.0
  0
ELLIPSE
  5
1DB
330
1F
100
AcDbEntity
  8
0
  6
HIDDEN
 62
     7
370
     0
100
AcDbEllipse
 10
233.9671110478
 20
123.8362649134
 30
0.0
 11
-22.98795488861638
 21
31.90971062491274
 31
0.0
210
0.0
220
0.0
230
1.0
 40
0.1044964202
 41
0.9454487749284101
 42
1.495658176411585
  0
CIRCLE
  5
1DC
330
1F
100
AcDbEntity
  8
0
  6
HIDDEN
 62
     7
370
     0
100
AcDbCircle
 10
191.7083063583
 20
123.8362649134
 30
0.0
 40
2.0
  0
LINE
  5
1DD
330
1F
100
AcDbEntity
  8
0
  6
HIDDEN
 62
     7
370
     0
100
AcDbLine
 10
235.9757409351
 20
92.8704539472
 30
0.0
 11
235.4980482705
 21
92.1932404566
 31
0.0
  0
LINE
  5
1DE
330
1F
100
AcDbEntity
  8
0
  6
HIDDEN
 62
     7
370
     0
100
AcDbLine
 10
235.8770399202
 20
114.0121607404
 30
0.0
 11
235.9746310477
 21
92.8688715888
 31
0.0
  0
LINE
  5
1DF
330
1F
100
AcDbEntity
  8
0
  6
HIDDEN
 62
     7
370
     0
100
AcDbLine
 10
228.916421231
 20
123.8362649134
 30
0.0
 11
235.8770399202
 21
114.0121607404
 31
0.0
  0
LINE
  5
1E0
330
1F
100
AcDbEntity
  8
0
  6
HIDDEN
 62
     7
370
     0
100
AcDbLine
 10
197.7083063583
 20
108.8312649134
 30
0.0
 11
197.7083063583
 21
108.5562649134
 31
0.0
  0
LINE
  5
1E1
330
1F
100
AcDbEntity
  8
0
  6
HIDDEN
 62
     7
370
     0
100
AcDbLine
 10
203.7083063583
 20
108.5562649134
 30
0.0
 11
203.7083063583
 21
108.8312649134
 31
0.0
  0
LINE
  5
1E2
330
1F
100
AcDbEntity
  8
0
  6
HIDDEN
 62
     7
370
     0
100
AcDbLine
 10
198.2083063583
 20
110.914577077
 30
0.0
 11
198.2083063583
 21
108.4862649134
 31
0.0
  0
LINE
  5
1E3
330
1F
100
AcDbEntity
  8
0
  6
HIDDEN
 62
     7
370
     0
100
AcDbLine
 10
203.2083063583
 20
108.4862649134
 30
0.0
 11
203.2083063583
 21
110.914577077
 31
0.0
  0
LINE
  5
1E4
330
1F
100
AcDbEntity
  8
0
  6
HIDDEN
 62
     7
370
     0
100
AcDbLine
 10
202.9110351651
 20
110.5950646052
 30
0.0
 11
202.764186578
 21
110.7326089709
 31
0.0
  0
LINE
  5
1E5
330
1F
100
AcDbEntity
  8
0
  6
HIDDEN
 62
     7
370
     0
100
AcDbLine
 10
198.6524261385
 20
110.7326089709
 30
0.0
 11
198.5055775514
 21
110.5950646052
 31
0.0
  0
LINE
  5
1E6
330
1F
100
AcDbEntity
  8
0
  6
HIDDEN
 62
     7
370
     0
100
AcDbLine
 10
202.9110351651
 20
110.9400646052
 30
0.0
 11
202.764186578
 21
111.0776089709
 31
0.0
  0
LINE
  5
1E7
330
1F
100
AcDbEntity
  8
0
  6
HIDDEN
 62
     7
370
     0
100
AcDbLine
 10
198.6524261385
 20
111.0776089709
 30
0.0
 11
198.5055775514
 21
110.9400646052
 31
0.0
  0
LINE
  5
1E8
330
1F
100
AcDbEntity
  8
0
  6
HIDDEN
 62
     7
370
     0
100
AcDbLine
 10
202.9110351651
 20
111.2850646052
 30
0.0
 11
202.764186578
 21
111.4226089709
 31
0.0
  0
LINE
  5
1E9
330
1F
100
AcDbEntity
  8
0
  6
HIDDEN
 62
     7
370
     0
100
AcDbLine
 10
198.6524261385
 20
111.4226089709
 30
0.0
 11
198.5055775514
 21
111.2850646052
 31
0.0
  0
LINE
  5
1EA
330
1F
100
AcDbEntity
  8
0
  6
HIDDEN
 62
     7
370
     0
100
AcDbLine
 10
202.9110351651
 20
111.6300646052
 30
0.0
 11
202.764186578
 21
111.7676089709
 31
0.0
  0
LINE
  5
1EB
330
1F
100
AcDbEntity
  8
0
  6
HIDDEN
 62
     7
370
     0
100
AcDbLine
 10
198.6524261385
 20
111.7676089709
 30
0.0
 11
198.5055775514
 21
111.6300646052
 31
0.0
  0
LINE
  5
1EC
330
1F
100
AcDbEntity
  8
0
  6
HIDDEN
 62
     7
370
     0
100
AcDbLine
 10
197.7083063583
 20
111.5862649134
 30
0.0
 11
197.7083063583
 21
110.2112649134
 31
0.0
  0
LINE
  5
1ED
330
1F
100
AcDbEntity
  8
0
  6
HIDDEN
 62
     7
370
     0
100
AcDbLine
 10
203.7083063583
 20
110.2112649134
 30
0.0
 11
203.7083063583
 21
111.5862649134
 31
0.0
  0
ARC
  5
1EE
330
1F
100
AcDbEntity
  8
0
  6
HIDDEN
 62
     7
370
     0
100
AcDbCircle
 10
200.7083063583
 20
110.1862649134
 30
0.0
 40
2.500000000000005
100
AcDbArc
 50
338.6286669096
 51
201.3713330904
  0
LINE
  5
1EF
330
1F
100
AcDbEntity
  8
0
  6
HIDDEN
 62
     7
370
     0
100
AcDbLine
 10
230.3200770424
 20
78.9848684195
 30
0.0
 11
230.5633754178
 21
78.9487491088
 31
0.0
  0
LINE
  5
1F0
330
1F
100
AcDbEntity
  8
0
  6
HIDDEN
 62
     7
370
     0
100
AcDbLine
 10
236.1942401557
 20
91.8998818862
 30
0.0
 11
235.8999580907
 21
91.9435700749
 31
0.0
  0
LINE
  5
1F1
330
1F
100
AcDbEntity
  8
0
  6
HIDDEN
 62
     7
370
     0
100
AcDbLine
 10
235.122131133
 20
82.008012517
 30
0.0
 11
235.343034464
 21
81.9752179041
 31
0.0
  0
LINE
  5
1F2
330
1F
100
AcDbEntity
  8
0
  6
HIDDEN
 62
     7
370
     0
100
AcDbLine
 10
235.9340954612
 20
85.9565834861
 30
0.0
 11
235.7131921301
 21
85.989378099
 31
0.0
  0
LINE
  5
1F3
330
1F
100
AcDbEntity
  8
0
  6
HIDDEN
 62
     7
370
     0
100
AcDbLine
 10
236.6209164814
 20
85.615628536
 30
0.0
 11
236.2660174238
 21
85.6683157325
 31
0.0
  0
LINE
  5
1F4
330
1F
100
AcDbEntity
  8
0
  6
HIDDEN
 62
     7
370
     0
100
AcDbLine
 10
235.678627613
 20
81.7116791293
 30
0.0
 11
236.0335266706
 21
81.6589919328
 31
0.0
  0
LINE
  5
1F5
330
1F
100
AcDbEntity
  8
0
  6
HIDDEN
 62
     7
370
     0
100
AcDbLine
 10
236.131958719
 20
80.6873705834
 30
0.0
 11
236.1782648997
 21
80.6804961136
 31
0.0
  0
LINE
  5
1F6
330
1F
100
AcDbEntity
  8
0
  6
HIDDEN
 62
     7
370
     0
100
AcDbLine
 10
235.312635978
 20
82.8636648267
 30
0.0
 11
235.5210137912
 21
82.8327297127
 31
0.0
  0
LINE
  5
1F7
330
1F
100
AcDbEntity
  8
0
  6
HIDDEN
 62
     7
370
     0
100
AcDbLine
 10
235.8262054172
 20
84.3730166192
 30
0.0
 11
235.617827604
 21
84.4039517332
 31
0.0
  0
LINE
  5
1F8
330
1F
100
AcDbEntity
  8
0
  6
HIDDEN
 62
     7
370
     0
100
AcDbLine
 10
236.1248739742
 20
82.1114945925
 30
0.0
 11
236.3332517874
 21
82.0805594786
 31
0.0
  0
LINE
  5
1F9
330
1F
100
AcDbEntity
  8
0
  6
HIDDEN
 62
     7
370
     0
100
AcDbLine
 10
236.8772451826
 20
84.7139336084
 30
0.0
 11
236.6688673694
 21
84.7448687223
 31
0.0
  0
LINE
  5
1FA
330
1F
100
AcDbEntity
  8
0
  6
HIDDEN
 62
     7
370
     0
100
AcDbLine
 10
237.1759137396
 20
82.4524115816
 30
0.0
 11
237.3842915528
 21
82.4214764677
 31
0.0
  0
LINE
  5
1FB
330
1F
100
AcDbEntity
  8
0
  6
HIDDEN
 62
     7
370
     0
100
AcDbLine
 10
237.6894831788
 20
83.9617633742
 30
0.0
 11
237.4811053656
 21
83.9926984882
 31
0.0
  0
LINE
  5
1FC
330
1F
100
AcDbEntity
  8
0
  6
HIDDEN
 62
     7
370
     0
100
AcDbLine
 10
235.758999387
 20
82.1201714898
 30
0.0
 11
235.9222427004
 21
82.0959369015
 31
0.0
  0
LINE
  5
1FD
330
1F
100
AcDbEntity
  8
0
  6
HIDDEN
 62
     7
370
     0
100
AcDbLine
 10
236.3297443816
 20
84.840853545
 30
0.0
 11
236.1665010682
 21
84.8650881333
 31
0.0
  0
LINE
  5
1FE
330
1F
100
AcDbEntity
  8
0
  6
HIDDEN
 62
     7
370
     0
100
AcDbLine
 10
234.3087536827
 20
82.133278468
 30
0.0
 11
235.7296298965
 21
81.9223396596
 31
0.0
  0
LINE
  5
1FF
330
1F
100
AcDbEntity
  8
0
  6
HIDDEN
 62
     7
370
     0
100
AcDbLine
 10
236.1958705588
 20
85.0629199635
 30
0.0
 11
234.774994345
 21
85.2738587719
 31
0.0
  0
LINE
  5
200
330
1F
100
AcDbEntity
  8
0
  6
HIDDEN
 62
     7
370
     0
100
AcDbLine
 10
233.4083063583
 20
80.1182967484
 30
0.0
 11
233.4083063583
 21
82.4999803252
 31
0.0
  0
LINE
  5
201
330
1F
100
AcDbEntity
  8
0
  6
HIDDEN
 62
     7
370
     0
100
AcDbLine
 10
228.0083063583
 20
82.4999803252
 30
0.0
 11
228.0083063583
 21
80.1182967484
 31
0.0
  0
LINE
  5
202
330
1F
100
AcDbEntity
  8
0
  6
HIDDEN
 62
     7
370
     0
100
AcDbLine
 10
228.0092322154
 20
80.1164459861
 30
0.0
 11
228.3266233414
 21
79.7992724214
 31
0.0
  0
LINE
  5
203
330
1F
100
AcDbEntity
  8
0
  6
HIDDEN
 62
     7
370
     0
100
AcDbLine
 10
233.0899893751
 20
79.7992724214
 30
0.0
 11
233.4073805012
 21
80.1164459861
 31
0.0
  0
LINE
  5
204
330
1F
100
AcDbEntity
  8
0
  6
HIDDEN
 62
     7
370
     0
100
AcDbLine
 10
229.1208063583
 20
86.4311327557
 30
0.0
 11
229.1208063583
 21
82.4999803252
 31
0.0
  0
LINE
  5
205
330
1F
100
AcDbEntity
  8
0
  6
HIDDEN
 62
     7
370
     0
100
AcDbLine
 10
232.2958063583
 20
82.4999803252
 30
0.0
 11
232.2958063583
 21
86.4311327557
 31
0.0
  0
LINE
  5
206
330
1F
100
AcDbEntity
  8
0
  6
HIDDEN
 62
     7
370
     0
100
AcDbLine
 10
232.2952619886
 20
86.4322209353
 30
0.0
 11
231.9778708625
 21
86.7493945001
 31
0.0
  0
LINE
  5
207
330
1F
100
AcDbEntity
  8
0
  6
HIDDEN
 62
     7
370
     0
100
AcDbLine
 10
229.438741854
 20
86.7493945001
 30
0.0
 11
229.121350728
 21
86.4322209353
 31
0.0
  0
LINE
  5
208
330
1F
100
AcDbEntity
  8
0
  6
HIDDEN
 62
     7
370
     0
100
AcDbLine
 10
231.4782996997
 20
79.7753086379
 30
0.0
 11
231.4782996997
 21
80.9748974278
 31
0.0
  0
LINE
  5
209
330
1F
100
AcDbEntity
  8
0
  6
HIDDEN
 62
     7
370
     0
100
AcDbLine
 10
229.9073917031
 20
80.9753647499
 30
0.0
 11
229.9073917031
 21
79.77577596
 31
0.0
  0
LINE
  5
20A
330
1F
100
AcDbEntity
  8
0
  6
HIDDEN
 62
     7
370
     0
100
AcDbLine
 10
229.9368785883
 20
79.7813905037
 30
0.0
 11
229.9368785883
 21
80.9809792936
 31
0.0
  0
LINE
  5
20B
330
1F
100
AcDbEntity
  8
0
  6
HIDDEN
 62
     7
370
     0
100
AcDbLine
 10
231.4552663518
 20
80.9798699294
 30
0.0
 11
231.4552663518
 21
79.7802811395
 31
0.0
  0
LINE
  5
20C
330
1F
100
AcDbEntity
  8
0
  6
HIDDEN
 62
     7
370
     0
100
AcDbLine
 10
232.0531639347
 20
79.8004382257
 30
0.0
 11
232.0531639347
 21
81.0000270156
 31
0.0
  0
LINE
  5
20D
330
1F
100
AcDbEntity
  8
0
  6
HIDDEN
 62
     7
370
     0
100
AcDbLine
 10
229.3634487818
 20
81.0009616598
 30
0.0
 11
229.3634487818
 21
79.8013728699
 31
0.0
  0
LINE
  5
20E
330
1F
100
AcDbEntity
  8
0
  6
HIDDEN
 62
     7
370
     0
100
AcDbLine
 10
231.4797341282
 20
81.0200093818
 30
0.0
 11
231.4797341282
 21
79.8204205918
 31
0.0
  0
LINE
  5
20F
330
1F
100
AcDbEntity
  8
0
  6
HIDDEN
 62
     7
370
     0
100
AcDbLine
 10
229.9613463647
 20
79.821529956
 30
0.0
 11
229.9613463647
 21
81.021118746
 31
0.0
  0
LINE
  5
210
330
1F
100
AcDbEntity
  8
0
  6
HIDDEN
 62
     7
370
     0
100
AcDbLine
 10
231.5092210135
 20
79.8260351356
 30
0.0
 11
231.5092210135
 21
81.0256239255
 31
0.0
  0
LINE
  5
211
330
1F
100
AcDbEntity
  8
0
  6
HIDDEN
 62
     7
370
     0
100
AcDbLine
 10
229.9383130168
 20
81.0260912476
 30
0.0
 11
229.9383130168
 21
79.8265024577
 31
0.0
  0
LINE
  5
212
330
1F
100
AcDbEntity
  8
0
  6
HIDDEN
 62
     7
370
     0
100
AcDbLine
 10
197.7083063583
 20
111.5862649134
 30
0.0
 11
197.7083063583
 21
108.0862649134
 31
0.0
  0
LINE
  5
213
330
1F
100
AcDbEntity
  8
0
  6
HIDDEN
 62
     7
370
     0
100
AcDbLine
 10
203.7083063583
 20
108.0865359364
 30
0.0
 11
203.7083063583
 21
111.5862649134
 31
0.0
  0
LINE
  5
214
330
1F
100
AcDbEntity
  8
0
  6
HIDDEN
 62
     7
370
     0
100
AcDbLine
 10
179.7083063583
 20
99.5862649134
 30
0.0
 11
179.8011995771
 21
99.6791581323
 31
0.0
  0
LINE
  5
215
330
1F
100
AcDbEntity
  8
0
  6
HIDDEN
 62
     7
370
     0
100
AcDbLine
 10
179.8011995771
 20
147.9933716946
 30
0.0
 11
179.7083063583
 21
148.0862649134
 31
0.0
  0
ARC
  5
216
330
1F
100
AcDbEntity
  8
0
  6
HIDDEN
 62
     7
370
     0
100
AcDbCircle
 10
179.0940927959
 20
100.3862649134
 30
0.0
 40
1.000000000000018
100
AcDbArc
 50
315.0
 51
0.0
  0
ARC
  5
217
330
1F
100
AcDbEntity
  8
0
  6
HIDDEN
 62
     7
370
     0
100
AcDbCircle
 10
179.0940927959
 20
100.3862649134
 30
0.0
 40
1.0
100
AcDbArc
 50
0.0
 51
52.1052014664
  0
ARC
  5
218
330
1F
100
AcDbEntity
  8
0
  6
HIDDEN
 62
     7
370
     0
100
AcDbCircle
 10
179.0940927959
 20
147.2862649134
 30
0.0
 40
1.00000000000001
100
AcDbArc
 50
351.8087250651
 51
45.0
  0
ARC
  5
219
330
1F
100
AcDbEntity
  8
0
  6
HIDDEN
 62
     7
370
     0
100
AcDbCircle
 10
179.0940927959
 20
147.2862649134
 30
0.0
 40
1.000000000000021
100
AcDbArc
 50
307.8947985336
 51
351.8087250651
  0
LINE
  5
21A
330
1F
100
AcDbEntity
  8
0
  6
HIDDEN
 62
     7
370
     0
100
AcDbLine
 10
180.0940927959
 20
100.3862649134
 30
0.0
 11
180.0940927959
 21
147.2862649134
 31
0.0
  0
LINE
  5
21B
330
1F
100
AcDbEntity
  8
0
  6
HIDDEN
 62
     7
370
     0
100
AcDbLine
 10
198.2083063583
 20
119.3372250784
 30
0.0
 11
198.2083063583
 21
111.7364800682
 31
0.0
  0
LINE
  5
21C
330
1F
100
AcDbEntity
  8
0
  6
HIDDEN
 62
     7
370
     0
100
AcDbLine
 10
203.2083063583
 20
113.6844302755
 30
0.0
 11
203.2083063583
 21
119.3374897064
 31
0.0
  0
LINE
  5
21D
330
1F
100
AcDbEntity
  8
0
  6
HIDDEN
 62
     7
370
     0
100
AcDbLine
 10
208.9004561008
 20
109.9284701417
 30
0.0
 11
203.0861453227
 21
114.4623113978
 31
0.0
  0
LINE
  5
21E
330
1F
100
AcDbEntity
  8
0
  6
HIDDEN
 62
     7
370
     0
100
AcDbLine
 10
200.7708373661
 20
109.927288652
 30
0.0
 11
209.2691996846
 21
103.3004970752
 31
0.0
  0
LINE
  5
21F
330
1F
100
AcDbEntity
  8
0
  6
HIDDEN
 62
     7
370
     0
100
AcDbLine
 10
141.7083063583
 20
107.639836069
 30
0.0
 11
143.2385347979
 21
108.5233138705
 31
0.0
  0
LINE
  5
220
330
1F
100
AcDbEntity
  8
0
  6
HIDDEN
 62
     7
370
     0
100
AcDbLine
 10
143.2385347979
 20
139.1492159564
 30
0.0
 11
141.7083063583
 21
140.0326937579
 31
0.0
  0
ARC
  5
221
330
1F
100
AcDbEntity
  8
0
  6
HIDDEN
 62
     7
370
     0
100
AcDbCircle
 10
152.7101076732
 20
109.8362649134
 30
0.0
 40
2.000000000000014
100
AcDbArc
 50
270.0
 51
315.0
  0
ARC
  5
222
330
1F
100
AcDbEntity
  8
0
  6
HIDDEN
 62
     7
370
     0
100
AcDbCircle
 10
152.7101076732
 20
137.8362649134
 30
0.0
 40
2.000000000000028
100
AcDbArc
 50
45.0
 51
90.0
  0
LINE
  5
223
330
1F
100
AcDbEntity
  8
0
  6
HIDDEN
 62
     7
370
     0
100
AcDbLine
 10
151.7083063583
 20
107.8362649134
 30
0.0
 11
152.7101076732
 21
107.8362649134
 31
0.0
  0
LINE
  5
224
330
1F
100
AcDbEntity
  8
0
  6
HIDDEN
 62
     7
370
     0
100
AcDbLine
 10
152.7101076732
 20
139.8362649134
 30
0.0
 11
151.7083063583
 21
139.8362649134
 31
0.0
  0
ARC
  5
225
330
1F
100
AcDbEntity
  8
0
  6
HIDDEN
 62
     7
370
     0
100
AcDbCircle
 10
151.7083063583
 20
109.8362649134
 30
0.0
 40
2.000000000000014
100
AcDbArc
 50
189.9742217944
 51
270.0
  0
ARC
  5
226
330
1F
100
AcDbEntity
  8
0
  6
HIDDEN
 62
     7
370
     0
100
AcDbCircle
 10
151.7083063583
 20
137.8362649134
 30
0.0
 40
2.000000000000004
100
AcDbArc
 50
90.0
 51
170.0257782056
  0
LINE
  5
227
330
1F
100
AcDbEntity
  8
0
  6
HIDDEN
 62
     7
370
     0
100
AcDbLine
 10
154.1243212355
 20
108.4220513511
 30
0.0
 11
155.5385347979
 21
109.8362649134
 31
0.0
  0
LINE
  5
228
330
1F
100
AcDbEntity
  8
0
  6
HIDDEN
 62
     7
370
     0
100
AcDbLine
 10
155.5385347979
 20
137.8362649134
 30
0.0
 11
154.1243212355
 21
139.2504784758
 31
0.0
  0
LINE
  5
229
330
1F
100
AcDbEntity
  8
0
  6
HIDDEN
 62
     7
370
     0
100
AcDbLine
 10
143.2385347979
 20
108.5233138705
 30
0.0
 11
148.1385347979
 21
109.8362649134
 31
0.0
  0
LINE
  5
22A
330
1F
100
AcDbEntity
  8
0
  6
HIDDEN
 62
     7
370
     0
100
AcDbLine
 10
148.1385347979
 20
137.8362649134
 30
0.0
 11
143.2385347979
 21
139.1492159564
 31
0.0
  0
LINE
  5
22B
330
1F
100
AcDbEntity
  8
0
  6
HIDDEN
 62
     7
370
     0
100
AcDbLine
 10
149.7385347979
 20
138.182675075
 30
0.0
 11
149.1385347979
 21
137.8362649134
 31
0.0
  0
LINE
  5
22C
330
1F
100
AcDbEntity
  8
0
  6
HIDDEN
 62
     7
370
     0
100
AcDbLine
 10
149.1385347979
 20
109.8362649134
 30
0.0
 11
149.7385347979
 21
109.4898547519
 31
0.0
  0
ARC
  5
22D
330
1F
100
AcDbEntity
  8
0
  6
HIDDEN
 62
     7
370
     0
100
AcDbCircle
 10
168.2083063583
 20
110.3362649134
 30
0.0
 40
0.5
100
AcDbArc
 50
270.0
 51
0.0
  0
ARC
  5
22E
330
1F
100
AcDbEntity
  8
0
  6
HIDDEN
 62
     7
370
     0
100
AcDbCircle
 10
168.2083063583
 20
137.3362649134
 30
0.0
 40
0.5
100
AcDbArc
 50
0.0
 51
90.0
  0
LINE
  5
22F
330
1F
100
AcDbEntity
  8
0
  6
HIDDEN
 62
     7
370
     0
100
AcDbLine
 10
148.1385347979
 20
109.8362649134
 30
0.0
 11
149.1385347979
 21
109.8362649134
 31
0.0
  0
LINE
  5
230
330
1F
100
AcDbEntity
  8
0
  6
HIDDEN
 62
     7
370
     0
100
AcDbLine
 10
149.1385347979
 20
137.8362649134
 30
0.0
 11
148.1385347979
 21
137.8362649134
 31
0.0
  0
LINE
  5
231
330
1F
100
AcDbEntity
  8
0
  6
HIDDEN
 62
     7
370
     0
100
AcDbLine
 10
155.5385347979
 20
109.8362649134
 30
0.0
 11
168.2083063583
 21
109.8362649134
 31
0.0
  0
LINE
  5
232
330
1F
100
AcDbEntity
  8
0
  6
HIDDEN
 62
     7
370
     0
100
AcDbLine
 10
168.2083063583
 20
137.8362649134
 30
0.0
 11
155.5385347979
 21
137.8362649134
 31
0.0
  0
LINE
  5
233
330
1F
100
AcDbEntity
  8
0
  6
HIDDEN
 62
     7
370
     0
100
AcDbLine
 10
168.7083063583
 20
113.5862649134
 30
0.0
 11
169.9583063583
 21
114.8362649134
 31
0.0
  0
LINE
  5
234
330
1F
100
AcDbEntity
  8
0
  6
HIDDEN
 62
     7
370
     0
100
AcDbLine
 10
169.9583063583
 20
132.8362649134
 30
0.0
 11
168.7083063583
 21
134.0862649134
 31
0.0
  0
LINE
  5
235
330
1F
100
AcDbEntity
  8
0
  6
HIDDEN
 62
     7
370
     0
100
AcDbLine
 10
169.9583063583
 20
114.8362649134
 30
0.0
 11
206.7083063583
 21
114.8362649134
 31
0.0
  0
LINE
  5
236
330
1F
100
AcDbEntity
  8
0
  6
HIDDEN
 62
     7
370
     0
100
AcDbLine
 10
206.7083063583
 20
132.8362649134
 30
0.0
 11
169.9583063583
 21
132.8362649134
 31
0.0
  0
LINE
  5
237
330
1F
100
AcDbEntity
  8
0
  6
HIDDEN
 62
     7
370
     0
100
AcDbLine
 10
206.7083063583
 20
114.8362649134
 30
0.0
 11
212.1160519295
 21
123.8362649134
 31
0.0
  0
LINE
  5
238
330
1F
100
AcDbEntity
  8
0
  6
HIDDEN
 62
     7
370
     0
100
AcDbLine
 10
212.1160519295
 20
123.8362649134
 30
0.0
 11
206.7083063583
 21
132.8362649134
 31
0.0
  0
LINE
  5
239
330
1F
100
AcDbEntity
  8
0
  6
HIDDEN
 62
     7
370
     0
100
AcDbLine
 10
234.9468211366
 20
94.5471816575
 30
0.0
 11
233.7920607551
 21
94.7186137474
 31
0.0
  0
LINE
  5
23A
330
1F
100
AcDbEntity
  8
0
  6
HIDDEN
 62
     7
370
     0
100
AcDbLine
 10
233.5083063583
 20
79.2781341375
 30
0.0
 11
233.5083063583
 21
82.4999803252
 31
0.0
  0
LINE
  5
23B
330
1F
100
AcDbEntity
  8
0
  6
HIDDEN
 62
     7
370
     0
100
AcDbLine
 10
227.9083063583
 20
82.4999803252
 30
0.0
 11
227.9083063583
 21
79.2782362461
 31
0.0
  0
LINE
  5
23C
330
1F
100
AcDbEntity
  8
0
  6
HIDDEN
 62
     7
370
     0
100
AcDbLine
 10
231.9973563583
 20
82.4999803252
 30
0.0
 11
231.9973563583
 21
90.497238925
 31
0.0
  0
LINE
  5
23D
330
1F
100
AcDbEntity
  8
0
  6
HIDDEN
 62
     7
370
     0
100
AcDbLine
 10
229.4192563583
 20
90.497238925
 30
0.0
 11
229.4192563583
 21
82.4999803252
 31
0.0
  0
LINE
  5
23E
330
1F
100
AcDbEntity
  8
0
  6
HIDDEN
 62
     7
370
     0
100
AcDbLine
 10
231.9961316451
 20
90.4987094855
 30
0.0
 11
230.7083063583
 21
91.2715128907
 31
0.0
  0
LINE
  5
23F
330
1F
100
AcDbEntity
  8
0
  6
HIDDEN
 62
     7
370
     0
100
AcDbLine
 10
230.7083063583
 20
91.2715128907
 30
0.0
 11
229.4204810714
 21
90.4987094855
 31
0.0
  0
LINE
  5
240
330
1F
100
AcDbEntity
  8
0
  6
HIDDEN
 62
     7
370
     0
100
AcDbLine
 10
235.6050521769
 20
84.8489100891
 30
0.0
 11
234.1290426667
 21
85.068033813
 31
0.0
  0
LINE
  5
241
330
1F
100
AcDbEntity
  8
0
  6
HIDDEN
 62
     7
370
     0
100
AcDbLine
 10
233.7504552489
 20
82.5178826063
 30
0.0
 11
235.2264647591
 21
82.2987588824
 31
0.0
  0
LINE
  5
242
330
1F
100
AcDbEntity
  8
VERMASSUNG
  6
CENTERX2
100
AcDbLine
 10
244.7083063583
 20
78.8362649134
 30
0.0
 11
244.7083063583
 21
123.8362649134
 31
0.0
  0
LINE
  5
243
330
1F
100
AcDbEntity
  8
VERMASSUNG
  6
CENTERX2
100
AcDbLine
 10
229.5322714758
 20
78.8362649134
 30
0.0
 11
244.7083063583
 21
78.8362649134
 31
0.0
  0
LINE
  5
244
330
1F
100
AcDbEntity
  8
VERMASSUNG
  6
CENTERX2
100
AcDbLine
 10
138.1451919198
 20
123.8362649134
 30
0.0
 11
244.7083063583
 21
123.8362649134
 31
0.0
  0
LINE
  5
245
330
1F
100
AcDbEntity
  8
VERMASSUNG
100
AcDbLine
 10
236.6487971418
 20
93.1190166001
 30
0.0
 11
244.7083063583
 21
78.8362649134
 31
0.0
  0
DIMENSION
  5
246
330
1F
100
AcDbEntity
  8
VERMASSUNG
100
AcDbDimension
  2
*D1
 10
244.7083063583
 20
62.5113541342
 30
0.0
 11
193.2083063583
 21
62.5113541342
 31
0.0
 70
   160
 71
     2
 42
-1.0
  3
SLDDIMSTYLE0
100
AcDbAlignedDimension
 13
141.7083063583
 23
103.5439269209
 33
0.0
 14
244.7083063583
 24
78.8362649134
 34
0.0
 50
0.0
100
AcDbRotatedDimension
  0
DIMENSION
  5
251
330
1F
100
AcDbEntity
  8
VERMASSUNG
100
AcDbDimension
  2
*D2
 10
244.7083063583
 20
71.8711076502
 30
0.0
 11
212.2083063583
 21
71.8711076502
 31
0.0
 70
   160
 71
     2
 42
-1.0
  3
SLDDIMSTYLE1
100
AcDbAlignedDimension
 13
179.7083063583
 23
92.8362649134
 33
0.0
 14
244.7083063583
 24
78.8362649134
 34
0.0
100
AcDbRotatedDimension
  0
DIMENSION
  5
25E
330
1F
100
AcDbEntity
  8
VERMASSUNG
100
AcDbDimension
  2
*D3
 10
254.4359113288
 20
123.8362649134
 30
0.0
 11
254.4359113288
 21
101.3362649134
 31
0.0
 70
   160
 71
     2
 42
-1.0
  3
SLDDIMSTYLE1
100
AcDbAlignedDimension
 13
244.7083063583
 23
78.8362649134
 33
0.0
 14
244.7083063583
 24
123.8362649134
 34
0.0
 50
90.0
100
AcDbRotatedDimension
  0
DIMENSION
  5
26A
330
1F
100
AcDbEntity
  8
VERMASSUNG
100
AcDbDimension
  2
*D4
 10
131.7083063583
 20
92.3362649134
 30
0.0
 11
131.7083063583
 21
123.8362649134
 31
0.0
 70
   160
  1
PSC%%c<>
 71
     2
 42
-1.0
  3
SLDDIMSTYLE0
100
AcDbAlignedDimension
 13
180.2083063583
 23
155.3362649134
 33
0.0
 14
180.2083063583
 24
92.3362649134
 34
0.0
 50
90.0
100
AcDbRotatedDimension
  0
LINE
  5
276
330
1F
100
AcDbEntity
  8
0
  6
Continuous
 62
     7
370
    15
100
AcDbLine
 10
69.4006918432
 20
86.0145771555
 30
0.0
 11
69.2874290483
 21
85.791629707
 31
0.0
  0
LINE
  5
277
330
1F
100
AcDbEntity
  8
0
  6
Continuous
 62
     7
370
    15
100
AcDbLine
 10
69.4130104469
 20
80.9958660654
 30
0.0
 11
69.4700665274
 21
80.8967696182
 31
0.0
  0
LINE
  5
278
330
1F
100
AcDbEntity
  8
0
  6
Continuous
 62
     7
370
    15
100
AcDbLine
 10
69.6324354006
 20
86.1520813457
 30
0.0
 11
69.5430443823
 21
86.1497418634
 31
0.0
  0
LINE
  5
279
330
1F
100
AcDbEntity
  8
0
  6
Continuous
 62
     7
370
    15
100
AcDbLine
 10
69.6489713821
 20
83.9633950642
 30
0.0
 11
69.6571858801
 21
83.9636111311
 31
0.0
  0
LINE
  5
27A
330
1F
100
AcDbEntity
  8
0
  6
Continuous
 62
     7
370
    15
100
AcDbLine
 10
69.6814468331
 20
82.5081439368
 30
0.0
 11
69.587151703
 21
82.5056740693
 31
0.0
  0
LINE
  5
27B
330
1F
100
AcDbEntity
  8
0
  6
Continuous
 62
     7
370
    15
100
AcDbLine
 10
69.3803849365
 20
84.2888177983
 30
0.0
 11
69.5504751723
 21
84.2932732455
 31
0.0
  0
LINE
  5
27C
330
1F
100
AcDbEntity
  8
0
  6
Continuous
 62
     7
370
    15
100
AcDbLine
 10
69.6680050544
 20
82.8402461163
 30
0.0
 11
69.3185652574
 21
82.8310968033
 31
0.0
  0
LINE
  5
27D
330
1F
100
AcDbEntity
  8
0
  6
Continuous
 62
     7
370
    15
100
AcDbLine
 10
73.8396748868
 20
85.1833941094
 30
0.0
 11
73.8126288136
 21
85.3985296241
 31
0.0
  0
LINE
  5
27E
330
1F
100
AcDbEntity
  8
0
  6
Continuous
 62
     7
370
    15
100
AcDbLine
 10
73.8396748868
 20
85.1833941094
 30
0.0
 11
73.8447524575
 21
84.9834615043
 31
0.0
  0
ARC
  5
27F
330
1F
100
AcDbEntity
  8
0
  6
Continuous
 62
     7
370
    15
100
AcDbCircle
 10
76.9670769717
 20
80.8044628363
 30
0.0
 40
0.344665030280923
100
AcDbArc
 50
359.9129376048
 51
14.5320977389
  0
LINE
  5
280
330
1F
100
AcDbEntity
  8
0
  6
Continuous
 62
     7
370
    15
100
AcDbLine
 10
77.320204998
 20
80.470685815
 30
0.0
 11
77.3117416041
 21
80.8039391092
 31
0.0
  0
ARC
  5
281
330
1F
100
AcDbEntity
  8
0
  6
Continuous
 62
     7
370
    15
100
AcDbCircle
 10
76.9815196806
 20
80.4526532874
 30
0.0
 40
0.3391650279930601
100
AcDbArc
 50
348.2666560015
 51
3.0477054602
  0
LINE
  5
282
330
1F
100
AcDbEntity
  8
0
  6
Continuous
 62
     7
370
    15
100
AcDbLine
 10
77.3007152104
 20
80.8909469894
 30
0.0
 11
77.1084427336
 21
81.4691716484
 31
0.0
  0
LINE
  5
283
330
1F
100
AcDbEntity
  8
0
  6
Continuous
 62
     7
370
    15
100
AcDbLine
 10
76.4351589108
 20
78.9999635569
 30
0.0
 11
77.0682123923
 21
79.5126864365
 31
0.0
  0
LINE
  5
284
330
1F
100
AcDbEntity
  8
0
  6
Continuous
 62
     7
370
    15
100
AcDbLine
 10
76.4351589108
 20
78.9999635569
 30
0.0
 11
74.3485935466
 21
78.9453247241
 31
0.0
  0
LINE
  5
285
330
1F
100
AcDbEntity
  8
0
  6
Continuous
 62
     7
370
    15
100
AcDbLine
 10
77.0682123923
 20
79.5126864365
 30
0.0
 11
77.31359773
 21
80.3836816601
 31
0.0
  0
ARC
  5
286
330
1F
100
AcDbEntity
  8
0
  6
Continuous
 62
     7
370
    15
100
AcDbCircle
 10
77.9424665965
 20
81.6853738402
 30
0.0
 40
0.8615910814469354
100
AcDbArc
 50
179.9126334074
 51
194.5327674376
  0
LINE
  5
287
330
1F
100
AcDbEntity
  8
0
  6
Continuous
 62
     7
370
    15
100
AcDbLine
 10
76.4977447191
 20
85.2529974333
 30
0.0
 11
76.4706986459
 21
85.468132948
 31
0.0
  0
LINE
  5
288
330
1F
100
AcDbEntity
  8
0
  6
Continuous
 62
     7
370
    15
100
AcDbLine
 10
73.8396748868
 20
85.1833941094
 30
0.0
 11
76.4977447191
 21
85.2529974333
 31
0.0
  0
LINE
  5
289
330
1F
100
AcDbEntity
  8
0
  6
Continuous
 62
     7
370
    15
100
AcDbLine
 10
77.0153672868
 20
84.2662201873
 30
0.0
 11
76.4977447191
 21
85.2529974333
 31
0.0
  0
LINE
  5
28A
330
1F
100
AcDbEntity
  8
0
  6
Continuous
 62
     7
370
    15
100
AcDbLine
 10
77.0808765167
 20
81.6866876236
 30
0.0
 11
77.0153672868
 21
84.2662201873
 31
0.0
  0
LINE
  5
28B
330
1F
100
AcDbEntity
  8
0
  6
Continuous
 62
     7
370
    15
100
AcDbLine
 10
76.8629735769
 20
85.4784035734
 30
0.0
 11
77.0153672868
 21
84.2662201873
 31
0.0
  0
LINE
  5
28C
330
1F
100
AcDbEntity
  8
0
  6
Continuous
 62
     7
370
    15
100
AcDbLine
 10
68.5592346793
 20
78.8343446008
 30
0.0
 11
70.8363897368
 21
78.8343446008
 31
0.0
  0
LINE
  5
28D
330
1F
100
AcDbEntity
  8
0
  6
Continuous
 62
     7
370
    15
100
AcDbLine
 10
68.3703906336
 20
79.4129790417
 30
0.0
 11
68.5592346793
 21
78.8343446008
 31
0.0
  0
LINE
  5
28E
330
1F
100
AcDbEntity
  8
0
  6
Continuous
 62
     7
370
    15
100
AcDbLine
 10
68.287056821
 20
79.1038730792
 30
0.0
 11
68.3703906336
 21
79.4129790417
 31
0.0
  0
LINE
  5
28F
330
1F
100
AcDbEntity
  8
0
  6
Continuous
 62
     7
370
    15
100
AcDbLine
 10
68.2544314271
 20
79.203837519
 30
0.0
 11
68.287056821
 21
79.1038730792
 31
0.0
  0
LINE
  5
290
330
1F
100
AcDbEntity
  8
0
  6
Continuous
 62
     7
370
    15
100
AcDbLine
 10
68.239888825
 20
79.8128442518
 30
0.0
 11
68.2544314271
 21
79.203837519
 31
0.0
  0
LINE
  5
291
330
1F
100
AcDbEntity
  8
0
  6
Continuous
 62
     7
370
    15
100
AcDbLine
 10
69.0902448926
 20
91.1620193771
 30
0.0
 11
68.239888825
 21
79.8128442518
 31
0.0
  0
LINE
  5
292
330
1F
100
AcDbEntity
  8
0
  6
Continuous
 62
     7
370
    15
100
AcDbLine
 10
69.2496993081
 20
91.7406500927
 30
0.0
 11
69.0902448926
 21
91.1620193771
 31
0.0
  0
LINE
  5
293
330
1F
100
AcDbEntity
  8
0
  6
Continuous
 62
     7
370
    15
100
AcDbLine
 10
69.2333096606
 20
92.3496568254
 30
0.0
 11
69.2496993081
 21
91.7406500927
 31
0.0
  0
LINE
  5
294
330
1F
100
AcDbEntity
  8
0
  6
Continuous
 62
     7
370
    15
100
AcDbLine
 10
69.2608577167
 20
92.4496249906
 30
0.0
 11
69.2333096606
 21
92.3496568254
 31
0.0
  0
LINE
  5
295
330
1F
100
AcDbEntity
  8
0
  6
Continuous
 62
     7
370
    15
100
AcDbLine
 10
69.3598914161
 20
92.1405190281
 30
0.0
 11
69.2608577167
 21
92.4496249906
 31
0.0
  0
LINE
  5
296
330
1F
100
AcDbEntity
  8
0
  6
Continuous
 62
     7
370
    15
100
AcDbLine
 10
70.786690246
 20
80.7913439027
 30
0.0
 11
69.3598914161
 21
92.1405190281
 31
0.0
  0
LINE
  5
297
330
1F
100
AcDbEntity
  8
0
  6
Continuous
 62
     7
370
    15
100
AcDbLine
 10
70.8160798543
 20
79.6340787462
 30
0.0
 11
70.786690246
 21
80.7913439027
 31
0.0
  0
LINE
  5
298
330
1F
100
AcDbEntity
  8
0
  6
Continuous
 62
     7
370
    15
100
AcDbLine
 10
70.9158033062
 20
79.3341817013
 30
0.0
 11
70.8160798543
 21
79.6340787462
 31
0.0
  0
LINE
  5
299
330
1F
100
AcDbEntity
  8
0
  6
Continuous
 62
     7
370
    15
100
AcDbLine
 10
70.9208807778
 20
79.134245371
 30
0.0
 11
70.9158033062
 21
79.3341817013
 31
0.0
  0
LINE
  5
29A
330
1F
100
AcDbEntity
  8
0
  6
Continuous
 62
     7
370
    15
100
AcDbLine
 10
70.8363897368
 20
78.8343446008
 30
0.0
 11
70.9208807778
 21
79.134245371
 31
0.0
  0
LWPOLYLINE
  5
29B
330
1F
100
AcDbEntity
  8
0
  6
Continuous
 62
     7
370
    15
100
AcDbPolyline
 90
       28
 70
   128
 43
0.0
 10
69.0861641863
 20
82.1713776938
 10
69.1682806439
 20
81.6407659701
 10
69.2671332011
 20
81.2155538849
 10
69.3773925971
 20
80.9186705998
 10
69.4931147821
 20
80.7661162368
 10
69.6080611754
 20
80.7661162368
 10
69.716034873
 20
80.9186705998
 10
69.8112151088
 20
81.2155538849
 10
69.8884705282
 20
81.6407659701
 10
69.9436363732
 20
82.1713776938
 10
69.9737386979
 20
82.7787862769
 10
69.9771545563
 20
83.4302464179
 10
69.9536998957
 20
84.0906360797
 10
69.904639103
 20
84.7243563882
 10
69.832617018
 20
85.2972389809
 10
69.7415165571
 20
85.7784049264
 10
69.6362488173
 20
86.1419113032
 10
69.5224886961
 20
86.3681593589
 10
69.406369302
 20
86.4449562184
 10
69.2941505197
 20
86.3681593589
 10
69.1918821042
 20
86.1419113032
 10
69.1050773687
 20
85.7784049264
 10
69.03841586
 20
85.2972389809
 10
68.9954915518
 20
84.7243563882
 10
68.9786184314
 20
84.0906360797
 10
68.9887060519
 20
83.4302464179
 10
69.0252106372
 20
82.7787862769
 10
69.0861641863
 20
82.1713776938
  0
LINE
  5
29C
330
1F
100
AcDbEntity
  8
0
  6
Continuous
 62
     7
370
    15
100
AcDbLine
 10
74.4106727155
 20
79.4256971828
 30
0.0
 11
70.9158033062
 21
79.3341817013
 31
0.0
  0
LINE
  5
29D
330
1F
100
AcDbEntity
  8
0
  6
Continuous
 62
     7
370
    15
100
AcDbLine
 10
74.4157502861
 20
79.2257645777
 30
0.0
 11
74.4106727155
 21
79.4256971828
 31
0.0
  0
LINE
  5
29E
330
1F
100
AcDbEntity
  8
0
  6
Continuous
 62
     7
370
    15
100
AcDbLine
 10
74.4157502861
 20
79.2257645777
 30
0.0
 11
70.9208807778
 21
79.134245371
 31
0.0
  0
LINE
  5
29F
330
1F
100
AcDbEntity
  8
0
  6
Continuous
 62
     7
370
    15
100
AcDbLine
 10
74.3109492553
 20
79.725597953
 30
0.0
 11
70.8160798543
 21
79.6340787462
 31
0.0
  0
LINE
  5
2A0
330
1F
100
AcDbEntity
  8
0
  6
Continuous
 62
     7
370
    15
100
AcDbLine
 10
74.4106727155
 20
79.4256971828
 30
0.0
 11
74.3109492553
 21
79.725597953
 31
0.0
  0
LINE
  5
2A1
330
1F
100
AcDbEntity
  8
0
  6
Continuous
 62
     7
370
    15
100
AcDbLine
 10
74.3312593052
 20
78.9258638076
 30
0.0
 11
74.4157502861
 21
79.2257645777
 31
0.0
  0
LINE
  5
2A2
330
1F
100
AcDbEntity
  8
0
  6
Continuous
 62
     7
370
    15
100
AcDbLine
 10
74.3312593052
 20
78.9258638076
 30
0.0
 11
70.8363897368
 21
78.8343446008
 31
0.0
  0
LINE
  5
2A3
330
1F
100
AcDbEntity
  8
0
  6
Continuous
 62
     7
370
    15
100
AcDbLine
 10
74.2815597416
 20
80.8828593842
 30
0.0
 11
70.786690246
 21
80.7913439027
 31
0.0
  0
LINE
  5
2A4
330
1F
100
AcDbEntity
  8
0
  6
Continuous
 62
     7
370
    15
100
AcDbLine
 10
74.3109492553
 20
79.725597953
 30
0.0
 11
74.2815597416
 21
80.8828593842
 31
0.0
  0
LINE
  5
2A5
330
1F
100
AcDbEntity
  8
0
  6
Continuous
 62
     7
370
    15
100
AcDbLine
 10
69.5567854648
 20
92.1456748298
 30
0.0
 11
69.3598914161
 21
92.1405190281
 31
0.0
  0
LINE
  5
2A6
330
1F
100
AcDbEntity
  8
0
  6
Continuous
 62
     7
370
    15
100
AcDbLine
 10
74.2815597416
 20
80.8828593842
 30
0.0
 11
73.714181731
 21
85.3959517232
 31
0.0
  0
LINE
  5
2A7
330
1F
100
AcDbEntity
  8
0
  6
Continuous
 62
     7
370
    15
100
AcDbLine
 10
74.4932298051
 20
79.3699742905
 30
0.0
 11
74.4106727155
 21
79.4256971828
 31
0.0
  0
LINE
  5
2A8
330
1F
100
AcDbEntity
  8
0
  6
Continuous
 62
     7
370
    15
100
AcDbLine
 10
74.4157502861
 20
79.2257645777
 30
0.0
 11
74.4953462356
 21
79.2866395465
 31
0.0
  0
LINE
  5
2A9
330
1F
100
AcDbEntity
  8
0
  6
Continuous
 62
     7
370
    15
100
AcDbLine
 10
74.4932298051
 20
79.3699742905
 30
0.0
 11
74.4953462356
 21
79.2866395465
 31
0.0
  0
LINE
  5
2AA
330
1F
100
AcDbEntity
  8
0
  6
Continuous
 62
     7
370
    15
100
AcDbLine
 10
74.3935063449
 20
79.6698750607
 30
0.0
 11
74.3109492553
 21
79.725597953
 31
0.0
  0
LINE
  5
2AB
330
1F
100
AcDbEntity
  8
0
  6
Continuous
 62
     7
370
    15
100
AcDbLine
 10
74.3935063449
 20
79.6698750607
 30
0.0
 11
74.4932298051
 21
79.3699742905
 31
0.0
  0
LINE
  5
2AC
330
1F
100
AcDbEntity
  8
0
  6
Continuous
 62
     7
370
    15
100
AcDbLine
 10
74.3312593052
 20
78.9258638076
 30
0.0
 11
74.4225943429
 21
79.0284061483
 31
0.0
  0
LINE
  5
2AD
330
1F
100
AcDbEntity
  8
0
  6
Continuous
 62
     7
370
    15
100
AcDbLine
 10
74.4953462356
 20
79.2866395465
 30
0.0
 11
74.4225943429
 21
79.0284061483
 31
0.0
  0
LINE
  5
2AE
330
1F
100
AcDbEntity
  8
0
  6
Continuous
 62
     7
370
    15
100
AcDbLine
 10
74.3633163595
 20
80.8586524478
 30
0.0
 11
74.2815597416
 21
80.8828593842
 31
0.0
  0
LINE
  5
2AF
330
1F
100
AcDbEntity
  8
0
  6
Continuous
 62
     7
370
    15
100
AcDbLine
 10
74.3633163595
 20
80.8586524478
 30
0.0
 11
74.3935063449
 21
79.6698750607
 31
0.0
  0
LINE
  5
2B0
330
1F
100
AcDbEntity
  8
0
  6
Continuous
 62
     7
370
    15
100
AcDbLine
 10
73.7926368104
 20
85.3980043582
 30
0.0
 11
74.3633163595
 21
80.8586524478
 31
0.0
  0
LINE
  5
2B1
330
1F
100
AcDbEntity
  8
0
  6
Continuous
 62
     7
370
    15
100
AcDbLine
 10
69.5177277751
 20
92.4563491396
 30
0.0
 11
69.2608577167
 21
92.4496249906
 31
0.0
  0
LINE
  5
2B2
330
1F
100
AcDbEntity
  8
0
  6
Continuous
 62
     7
370
    15
100
AcDbLine
 10
68.4697103655
 20
79.1086563519
 30
0.0
 11
68.287056821
 21
79.1038730792
 31
0.0
  0
LWPOLYLINE
  5
2B3
330
1F
100
AcDbEntity
  8
0
  6
Continuous
 62
     7
370
    15
100
AcDbPolyline
 90
        4
 70
   128
 43
0.0
 10
69.4006918432
 20
86.0145771555
 10
69.4547298565
 20
86.0985451988
 10
69.5640675924
 20
86.1476407996
 10
69.6613001139
 20
86.0702478937
  0
LWPOLYLINE
  5
2B4
330
1F
100
AcDbEntity
  8
0
  6
Continuous
 62
     7
370
    15
100
AcDbPolyline
 90
       26
 70
   128
 43
0.0
 10
69.0425893493
 20
83.9317822508
 10
69.0640069745
 20
84.526975607
 10
69.1117997715
 20
85.0511798314
 10
69.1829646906
 20
85.4714633576
 10
69.2730302192
 20
85.7614176027
 10
69.3763371758
 20
85.9028221718
 10
69.4863944748
 20
85.8867922477
 10
69.5962866969
 20
85.7143336586
 10
69.6991090165
 20
85.3962832741
 10
69.7884007325
 20
84.9526272765
 10
69.8585512085
 20
84.4112420133
 10
69.9051527274
 20
83.8061431102
 10
69.9252770949
 20
83.1753508798
 10
69.9176598075
 20
82.558502411
 10
69.8827795652
 20
81.9943518988
 10
69.8228280028
 20
81.5183529309
 10
69.7415719708
 20
81.1604121379
 10
69.6441173289
 20
80.9430190972
 10
69.5365872901
 20
80.8798344485
 10
69.4257384833
 20
80.9748293511
 10
69.3185358043
 20
81.2220321647
 10
69.2217153931
 20
81.6059121541
 10
69.1413607649
 20
82.1023480645
 10
69.082520736
 20
82.6801480404
 10
69.0488926569
 20
83.3030054024
 10
69.0425893493
 20
83.9317822508
  0
ARC
  5
2B5
330
1F
100
AcDbEntity
  8
0
  6
Continuous
 62
     7
370
    15
100
AcDbCircle
 10
68.6553571538
 20
82.4059488686
 30
0.0
 40
0.7842766461101742
100
AcDbArc
 50
351.669402045
 51
32.7799989624
  0
LWPOLYLINE
  5
2B6
330
1F
100
AcDbEntity
  8
0
  6
Continuous
 62
     7
370
    15
100
AcDbPolyline
 90
        9
 70
   128
 43
0.0
 10
69.4313585493
 20
82.2923192433
 10
69.4359045677
 20
82.2206483833
 10
69.4440733144
 20
82.1577766589
 10
69.4550036654
 20
82.1103388122
 10
69.4675433417
 20
82.0833341829
 10
69.4803704476
 20
82.0796051673
 10
69.4921328189
 20
82.0995503715
 10
69.501590516
 20
82.1410612813
 10
69.5077465582
 20
82.1997681311
  0
LWPOLYLINE
  5
2B7
330
1F
100
AcDbEntity
  8
0
  6
Continuous
 62
     7
370
    15
100
AcDbPolyline
 90
        9
 70
   128
 43
0.0
 10
69.6340221414
 20
82.4437262169
 10
69.6150664674
 20
82.4841679684
 10
69.5956159118
 20
82.5038300506
 10
69.5764093628
 20
82.5019599549
 10
69.5581766279
 20
82.478632187
 10
69.541610262
 20
82.4347296408
 10
69.5273397226
 20
82.3719212464
 10
69.5159070395
 20
82.2925986401
 10
69.5077465582
 20
82.1997681311
  0
LWPOLYLINE
  5
2B8
330
1F
100
AcDbEntity
  8
0
  6
Continuous
 62
     7
370
    15
100
AcDbPolyline
 90
        9
 70
   128
 43
0.0
 10
69.6340221414
 20
82.4437262169
 10
69.6467356259
 20
82.421475058
 10
69.6594489939
 20
82.4227938107
 10
69.6708218395
 20
82.4475483648
 10
69.6796553177
 20
82.4931235663
 10
69.6850183388
 20
82.5547175161
 10
69.6863454735
 20
82.6258370332
 10
69.6834969069
 20
82.6989831082
 10
69.676772758
 20
82.7664481155
  0
ARC
  5
2B9
330
1F
100
AcDbEntity
  8
0
  6
Continuous
 62
     7
370
    15
100
AcDbCircle
 10
72.1875098741
 20
83.1266048071
 30
0.0
 40
2.536437207724056
100
AcDbArc
 50
170.4218144932
 51
188.1631973075
  0
ARC
  5
2BA
330
1F
100
AcDbEntity
  8
0
  6
Continuous
 62
     7
370
    15
100
AcDbCircle
 10
69.0764765352
 20
83.7082452086
 30
0.0
 40
0.6304886435525718
100
AcDbArc
 50
345.3373269163
 51
23.924394884
  0
ARC
  5
2BB
330
1F
100
AcDbEntity
  8
0
  6
Continuous
 62
     7
370
    15
100
AcDbCircle
 10
70.3121500039
 20
84.3885395502
 30
0.0
 40
0.7842479750578376
100
AcDbArc
 50
171.6688406823
 51
212.7807244548
  0
LWPOLYLINE
  5
2BC
330
1F
100
AcDbEntity
  8
0
  6
Continuous
 62
     7
370
    15
100
AcDbPolyline
 90
        9
 70
   128
 43
0.0
 10
69.5361780902
 20
84.5021726242
 10
69.5316320719
 20
84.5738472096
 10
69.5234633252
 20
84.6367152086
 10
69.5125329742
 20
84.6841530553
 10
69.4999932978
 20
84.7111576847
 10
69.487166192
 20
84.7148867003
 10
69.4754038207
 20
84.6949452213
 10
69.4659461235
 20
84.6534305862
 10
69.4597900813
 20
84.5947237364
  0
LWPOLYLINE
  5
2BD
330
1F
100
AcDbEntity
  8
0
  6
Continuous
 62
     7
370
    15
100
AcDbPolyline
 90
        9
 70
   128
 43
0.0
 10
69.3335144981
 20
84.3507693759
 10
69.3524701722
 20
84.3103238991
 10
69.3719207277
 20
84.2906655422
 10
69.3911272768
 20
84.292535638
 10
69.4093600116
 20
84.3158634058
 10
69.4259263776
 20
84.3597622267
 10
69.440196917
 20
84.4225706211
 10
69.4516296001
 20
84.5018969527
 10
69.4597900813
 20
84.5947237364
  0
LWPOLYLINE
  5
2BE
330
1F
100
AcDbEntity
  8
0
  6
Continuous
 62
     7
370
    15
100
AcDbPolyline
 90
        9
 70
   128
 43
0.0
 10
69.3335144981
 20
84.3507693759
 10
69.3208010137
 20
84.3730205349
 10
69.3080876456
 20
84.3716980568
 10
69.2967148
 20
84.3469472281
 10
69.2878813218
 20
84.3013720266
 10
69.2825183008
 20
84.2397780768
 10
69.2811911661
 20
84.1686585597
 10
69.2840397326
 20
84.0955124847
 10
69.2907638816
 20
84.0280474774
  0
ARC
  5
2BF
330
1F
100
AcDbEntity
  8
0
  6
Continuous
 62
     7
370
    15
100
AcDbCircle
 10
66.7800006401
 20
83.6678890983
 30
0.0
 40
2.536463307995511
100
AcDbArc
 50
350.4218672972
 51
8.1631512417
  0
ARC
  5
2C0
330
1F
100
AcDbEntity
  8
0
  6
Continuous
 62
     7
370
    15
100
AcDbCircle
 10
69.8910507516
 20
83.086248195
 30
0.0
 40
0.6304792065935595
100
AcDbArc
 50
165.3372468172
 51
203.9245577059
  0
LINE
  5
2C1
330
1F
100
AcDbEntity
  8
0
  6
Continuous
 62
     7
370
    15
100
AcDbLine
 10
69.8099830854
 20
113.1448587081
 30
0.0
 11
70.5387912542
 21
85.3127995185
 31
0.0
  0
LINE
  5
2C2
330
1F
100
AcDbEntity
  8
0
  6
Continuous
 62
     7
370
    15
100
AcDbLine
 10
102.930903385
 20
114.0121603063
 30
0.0
 11
69.8099830854
 21
113.1448587081
 31
0.0
  0
LINE
  5
2C3
330
1F
100
AcDbEntity
  8
0
  6
Continuous
 62
     7
370
    15
100
AcDbLine
 10
102.930903385
 20
114.0121603063
 30
0.0
 11
102.930903385
 21
92.8688710234
 31
0.0
  0
SPLINE
  5
2C4
330
1F
100
AcDbEntity
  8
0
  6
Continuous
 62
     7
370
    15
100
AcDbSpline
210
0.0
220
0.0
230
1.0
 70
     8
 71
     3
 72
    40
 73
    36
 74
     0
 42
0.00000001
 43
0.00000001
 40
0.0
 40
0.0
 40
0.0
 40
0.0
 40
0.0227888048503731
 40
0.0455418385265104
 40
0.0682641583307994
 40
0.0909608420967448
 40
0.1136369848797713
 40
0.13629769559067
 40
0.1589480935825768
 40
0.1815933052027521
 40
0.2042384603206841
 40
0.2268886888442507
 40
0.2495491172357527
 40
0.2722248650396268
 40
0.2949210414335784
 40
0.317642741814663
 40
0.3403950444315884
 40
0.363183007074143
 40
0.3860116638302188
 40
0.4088860219203805
 40
0.4318110586193504
 40
0.4547917182731376
 40
0.4778329094198489
 40
0.5009395020214699
 40
0.5470678095544067
 40
0.5929227803144393
 40
0.6385439768613538
 40
0.6839715725357847
 40
0.729246256041751
 40
0.7744091293758278
 40
0.8195016002820988
 40
0.8645652705775198
 40
0.9096418218206497
 40
0.9547728998808197
 40
1.0
 40
1.0
 40
1.0
 40
1.0
 10
77.23453601319953
 20
79.8091722055294
 30
0.0
 10
77.45460890851719
 20
79.84080604125207
 30
0.0
 10
77.89440925471455
 20
79.90402405763838
 30
0.0
 10
78.55177810587371
 20
80.01139597933147
 30
0.0
 10
79.20670715054838
 20
80.12785497183343
 30
0.0
 10
79.85907364635156
 20
80.2543037063247
 30
0.0
 10
80.50891029106438
 20
80.39050077971963
 30
0.0
 10
81.15620820880179
 20
80.53651076916945
 30
0.0
 10
81.80096964658291
 20
80.69231638076882
 30
0.0
 10
82.44319387525704
 20
80.85792222424537
 30
0.0
 10
83.08288096374594
 20
81.03332703739987
 30
0.0
 10
83.72003076908786
 20
81.21853112294677
 30
0.0
 10
84.35464320750472
 20
81.41353435684086
 30
0.0
 10
84.98671818230478
 20
81.6183367220996
 30
0.0
 10
85.61625560378852
 20
81.83293816604336
 30
0.0
 10
86.24325538417897
 20
82.05733863869492
 30
0.0
 10
86.86771744029437
 20
82.2915380835239
 30
0.0
 10
87.48964169007888
 20
82.53553643773236
 30
0.0
 10
88.10902806581568
 20
82.78933364228301
 30
0.0
 10
88.72587646641516
 20
83.05292960342948
 30
0.0
 10
89.34018693715741
 20
83.32632433915724
 30
0.0
 10
89.95195899768382
 20
83.60951743243231
 30
0.0
 10
90.56119416017278
 20
83.90251008123083
 30
0.0
 10
91.3687457639856
 20
84.30554204051658
 30
0.0
 10
92.3651459651005
 20
84.83023406135504
 30
0.0
 10
93.53786836713928
 20
85.4926488122253
 30
0.0
 10
94.68491924668437
 20
86.18641718608531
 30
0.0
 10
95.80628970692167
 20
86.91153554436143
 30
0.0
 10
96.90197471032025
 20
87.66800749890028
 30
0.0
 10
97.97198394503324
 20
88.45581857030923
 30
0.0
 10
99.01626489125827
 20
89.27501684477522
 30
0.0
 10
100.0349994612508
 20
90.12541622483921
 30
0.0
 10
101.0274952559057
 20
91.00770236751649
 30
0.0
 10
101.996327617487
 20
91.91930246956792
 30
0.0
 10
102.6191564926453
 20
92.55212438612706
 30
0.0
 10
102.9309018649124
 20
92.86887158880997
 30
0.0
  0
LINE
  5
2C5
330
1F
100
AcDbEntity
  8
0
  6
Continuous
 62
     7
370
    15
100
AcDbLine
 10
77.0855186941
 20
85.4842299274
 30
0.0
 11
77.197684391
 21
81.2007905594
 31
0.0
  0
LINE
  5
2C6
330
1F
100
AcDbEntity
  8
0
  6
Continuous
 62
     7
370
    15
100
AcDbLine
 10
77.2271193066
 20
80.07672519
 30
0.0
 11
77.2341256464
 21
79.8091599396
 31
0.0
  0
LINE
  5
2C7
330
1F
100
AcDbEntity
  8
0
  6
Continuous
 62
     7
370
    15
100
AcDbLine
 10
77.0855186941
 20
85.4842299274
 30
0.0
 11
70.5387912542
 21
85.3127995185
 31
0.0
  0
LINE
  5
2C8
330
1F
100
AcDbEntity
  8
0
  6
Continuous
 62
     7
370
    15
100
AcDbLine
 10
64.1775475317
 20
151.4434450916
 30
0.0
 11
69.8099830854
 21
113.1448587081
 31
0.0
  0
ELLIPSE
  5
2C9
330
1F
100
AcDbEntity
  8
0
  6
Continuous
 62
     7
370
    15
100
AcDbEllipse
 10
58.2707257287
 20
151.2887688897
 30
0.0
 11
-2.112484461660479
 21
8.50823088817279
 31
0.0
210
0.0
220
0.0
230
1.0
 40
0.6652406465
 41
4.566633645412621
 42
4.919850383758346
  0
ARC
  5
2CA
330
1F
100
AcDbEntity
  8
0
  6
Continuous
 62
     7
370
    15
100
AcDbCircle
 10
70.9309018651
 20
123.8362649134
 30
0.0
 40
31.50000000000002
100
AcDbArc
 50
35.5679116404
 51
103.8802545301
  0
SPLINE
  5
2CB
330
1F
100
AcDbEntity
  8
0
  6
Continuous
 62
     7
370
    15
100
AcDbSpline
210
0.0
220
0.0
230
1.0
 70
     8
 71
     3
 72
    12
 73
     8
 74
     0
 42
0.00000001
 43
0.00000001
 40
0.0
 40
0.0
 40
0.0
 40
0.0
 40
0.5000000000000029
 40
0.5000000000000029
 40
0.7500000000000014
 40
0.7500000000000014
 40
1.0
 40
1.0
 40
1.0
 40
1.0
 10
96.5538413414463
 20
142.1587912837254
 30
0.0
 10
96.77047537794941
 20
141.8558417508028
 30
0.0
 10
97.02007469558274
 20
141.5732694530215
 30
0.0
 10
97.43202004876747
 20
141.1726200105261
 30
0.0
 10
97.57602271687173
 20
141.0432040542217
 30
0.0
 10
97.8805624043289
 20
140.7945927237452
 30
0.0
 10
98.04023303954291
 20
140.6760085682622
 30
0.0
 10
98.20818352548285
 20
140.567968509244
 30
0.0
  0
ARC
  5
2CC
330
1F
100
AcDbEntity
  8
0
  6
Continuous
 62
     7
370
    15
100
AcDbCircle
 10
70.9309018651
 20
123.8362649134
 30
0.0
 40
32.00000000000004
100
AcDbArc
 50
0.0
 51
31.5246765534
  0
LINE
  5
2CD
330
1F
100
AcDbEntity
  8
0
  6
Continuous
 62
     7
370
    15
100
AcDbLine
 10
102.930903385
 20
123.8362649134
 30
0.0
 11
102.930903385
 21
114.0121603063
 31
0.0
  0
LWPOLYLINE
  5
2CE
330
1F
100
AcDbEntity
  8
0
  6
Continuous
 62
     7
370
    15
100
AcDbPolyline
 90
       12
 70
   128
 43
0.0
 10
69.3779063379
 20
93.5685308329
 10
69.3054204542
 20
94.0158506534
 10
69.21648916
 20
94.3459430388
 10
69.1183171669
 20
94.5320678554
 10
69.0188578531
 20
94.5591451279
 10
68.9261685559
 20
94.4249825231
 10
68.8477588785
 20
94.1404467127
 10
68.7899807902
 20
93.7285916558
 10
68.7575148852
 20
93.2227810523
 10
68.7529919171
 20
92.6639949582
 10
68.7767778957
 20
92.097503101
 10
68.8269461473
 20
91.569197332
  0
LINE
  5
2CF
330
1F
100
AcDbEntity
  8
0
  6
Continuous
 62
     7
370
    15
100
AcDbLine
 10
68.8269461473
 20
91.569197332
 30
0.0
 11
69.0110370718
 21
90.1048825732
 31
0.0
  0
LINE
  5
2D0
330
1F
100
AcDbEntity
  8
0
  6
Continuous
 62
     7
370
    15
100
AcDbLine
 10
68.3834645399
 20
79.1063951007
 30
0.0
 11
68.3686944624
 21
78.9092676393
 31
0.0
  0
ARC
  5
2D1
330
1F
100
AcDbEntity
  8
0
  6
Continuous
 62
     7
370
    15
100
AcDbCircle
 10
70.9309018651
 20
123.8362649134
 30
0.0
 40
45.00000000000001
100
AcDbArc
 50
265.2986403254
 51
266.7359308644
  0
SPLINE
  5
2D2
330
1F
100
AcDbEntity
  8
0
  6
Continuous
 62
     7
370
    15
100
AcDbSpline
210
0.0
220
0.0
230
1.0
 70
     8
 71
     3
 72
    10
 73
     6
 74
     0
 42
0.00000001
 43
0.00000001
 40
0.0
 40
0.0
 40
0.0
 40
0.0
 40
0.5
 40
0.5
 40
1.0
 40
1.0
 40
1.0
 40
1.0
 10
67.05232487861859
 20
79.74772100657584
 30
0.0
 10
67.06810283444698
 20
79.53148020506276
 30
0.0
 10
67.09538583995649
 20
79.34095380612291
 30
0.0
 10
67.16372720542203
 20
79.06798995661926
 30
0.0
 10
67.20357111531403
 20
78.99088009619533
 30
0.0
 10
67.24260468267366
 20
78.9876700202305
 30
0.0
  0
SPLINE
  5
2D3
330
1F
100
AcDbEntity
  8
0
  6
Continuous
 62
     7
370
    15
100
AcDbSpline
210
0.0
220
0.0
230
1.0
 70
     8
 71
     3
 72
     8
 73
     4
 74
     0
 42
0.00000001
 43
0.00000001
 40
0.0
 40
0.0
 40
0.0
 40
0.0
 40
1.0
 40
1.0
 40
1.0
 40
1.0
 10
66.16482714391763
 20
91.94930392436204
 30
0.0
 10
66.45952224640136
 20
87.88025222792022
 30
0.0
 10
66.75566199311403
 20
83.81355949911864
 30
0.0
 10
67.05232487861859
 20
79.74772100657586
 30
0.0
  0
SPLINE
  5
2D4
330
1F
100
AcDbEntity
  8
0
  6
Continuous
 62
     7
370
    15
100
AcDbSpline
210
0.0
220
0.0
230
1.0
 70
     8
 71
     3
 72
    10
 73
     6
 74
     0
 42
0.00000001
 43
0.00000001
 40
0.0
 40
0.0
 40
0.0
 40
0.0
 40
0.5
 40
0.5
 40
1.0
 40
1.0
 40
1.0
 40
1.0
 10
65.9740403200018
 20
92.72871721801462
 30
0.0
 10
66.01330442810122
 20
92.7224606416543
 30
0.0
 10
66.0532865330964
 20
92.64134275980808
 30
0.0
 10
66.12190626979296
 20
92.3602430808434
 30
0.0
 10
66.14909246277644
 20
92.16656315415909
 30
0.0
 10
66.16482714391763
 20
91.94930392436204
 30
0.0
  0
ARC
  5
2D5
330
1F
100
AcDbEntity
  8
0
  6
Continuous
 62
     7
370
    15
100
AcDbCircle
 10
70.9309018651
 20
123.8362649134
 30
0.0
 40
31.50000000000003
100
AcDbArc
 50
260.4668576897
 51
260.946266061
  0
LINE
  5
2D6
330
1F
100
AcDbEntity
  8
0
  6
Continuous
 62
     7
370
    15
100
AcDbLine
 10
70.4162062696
 20
85.3095883182
 30
0.0
 11
69.3779063379
 21
93.5685308329
 31
0.0
  0
LINE
  5
2D7
330
1F
100
AcDbEntity
  8
0
  6
Continuous
 62
     7
370
    15
100
AcDbLine
 10
70.4162062696
 20
85.3095883182
 30
0.0
 11
70.5387912542
 21
85.3127995185
 31
0.0
  0
SPLINE
  5
2D8
330
1F
100
AcDbEntity
  8
0
  6
Continuous
 62
     7
370
    15
100
AcDbSpline
210
0.0
220
0.0
230
1.0
 70
     8
 71
     3
 72
    40
 73
    36
 74
     0
 42
0.00000001
 43
0.00000001
 40
0.0
 40
0.0
 40
0.0
 40
0.0
 40
0.0228113586160289
 40
0.045847991043531
 40
0.069109974736852
 40
0.0925973849165071
 40
0.1163102946533396
 40
0.1402487749488055
 40
0.1644128948115536
 40
0.1888027213305471
 40
0.2134183197448618
 40
0.2382597535103769
 40
0.2633270843635053
 40
0.2886203723821255
 40
0.31413967604384
 40
0.3398850522817406
 40
0.3658565565377515
 40
0.3920542428137309
 40
0.4184781637203972
 40
0.4451283705242128
 40
0.4720049131923189
 40
0.4991078404356235
 40
0.5309755343004063
 40
0.5639534293140358
 40
0.5980415981865446
 40
0.6332401062190665
 40
0.6695490121928894
 40
0.7069683691267168
 40
0.7454982249248806
 40
0.7851386229348453
 40
0.825889602428789
 40
0.8677511990213546
 40
0.9107234450334387
 40
0.9548063698102032
 40
1.0
 40
1.0
 40
1.0
 40
1.0
 10
102.9308601747194
 20
92.19763870779171
 30
0.0
 10
102.7726119476208
 20
92.0389591124545
 30
0.0
 10
102.4545527113957
 20
91.72003287977064
 30
0.0
 10
101.9661923886743
 20
91.24861866696243
 30
0.0
 10
101.466525458569
 20
90.77969659916401
 30
0.0
 10
100.9548123935535
 20
90.31425771502572
 30
0.0
 10
100.4311505678342
 20
89.85245179547694
 30
0.0
 10
99.89541833222799
 20
89.39466543943131
 30
0.0
 10
99.34756244787714
 20
88.9412288995249
 30
0.0
 10
98.78752033074741
 20
88.49249567883675
 30
0.0
 10
98.2152415641684
 20
88.04882079303441
 30
0.0
 10
97.6306824362495
 20
87.6105665601788
 30
0.0
 10
97.03380781121565
 20
87.17810089668649
 30
0.0
 10
96.424591011215
 20
86.75179763565409
 30
0.0
 10
95.803014241763
 20
86.33203628174071
 30
0.0
 10
95.1690688710996
 20
85.91920190409732
 30
0.0
 10
94.52275575484167
 20
85.51368497872264
 30
0.0
 10
93.86408553682061
 20
85.11588122236694
 30
0.0
 10
93.19307900764316
 20
84.72619143919499
 30
0.0
 10
92.50976725942209
 20
84.34502124924967
 30
0.0
 10
91.8141926105133
 20
83.9727812058153
 30
0.0
 10
91.06690083012315
 20
83.5896299823791
 30
0.0
 10
90.25892997066252
 20
83.194796704888
 30
0.0
 10
89.38101479817739
 20
82.78853914692681
 30
0.0
 10
88.46479382490077
 20
82.38862758140716
 30
0.0
 10
87.5098591627847
 20
81.99723490638357
 30
0.0
 10
86.51586919605776
 20
81.61662516698668
 30
0.0
 10
85.48256012748953
 20
81.24915273214451
 30
0.0
 10
84.40975332196807
 20
80.89726666110414
 30
0.0
 10
83.29736784500541
 20
80.56348600771354
 30
0.0
 10
82.14541772097661
 20
80.2504874950473
 30
0.0
 10
80.95406892324637
 20
79.96075269572142
 30
0.0
 10
79.72346569570823
 20
79.69792396467848
 30
0.0
 10
78.45445320201438
 20
79.4615241077702
 30
0.0
 10
77.59275524353086
 20
79.33370289026587
 30
0.0
 10
77.15654599592276
 20
79.2689971583247
 30
0.0
  0
LINE
  5
2D9
330
1F
100
AcDbEntity
  8
0
  6
Continuous
 62
     7
370
    15
100
AcDbLine
 10
77.1566656852
 20
79.2652824572
 30
0.0
 11
77.234130303
 21
79.8091375879
 31
0.0
  0
LINE
  5
2DA
330
1F
100
AcDbEntity
  8
0
  6
Continuous
 62
     7
370
    15
100
AcDbLine
 10
102.930903385
 20
92.8704542718
 30
0.0
 11
102.930903385
 21
92.1932393364
 31
0.0
  0
ARC
  5
2DB
330
1F
100
AcDbEntity
  8
0
  6
Continuous
 62
     7
370
    15
100
AcDbCircle
 10
70.9309018651
 20
123.8362649134
 30
0.0
 40
45.00000000000004
100
AcDbArc
 50
277.3527764557
 51
277.9522668296
  0
ARC
  5
2DC
330
1F
100
AcDbEntity
  8
0
  6
Continuous
 62
     7
370
    15
100
AcDbCircle
 10
70.9309018651
 20
123.8362649134
 30
0.0
 40
45.00000000000004
100
AcDbArc
 50
269.9731875345
 51
273.0268124655
  0
ARC
  5
2DD
330
1F
100
AcDbEntity
  8
0
  6
Continuous
 62
     7
370
    15
100
AcDbCircle
 10
70.9309018651
 20
123.8362649134
 30
0.0
 40
45.00000000000004
100
AcDbArc
 50
266.7359308644
 51
266.9516043487
  0
SPLINE
  5
2DE
330
1F
100
AcDbEntity
  8
0
  6
Continuous
 62
     7
370
    15
100
AcDbSpline
210
0.0
220
0.0
230
1.0
 70
     8
 71
     3
 72
    12
 73
     8
 74
     0
 42
0.00000001
 43
0.00000001
 40
0.0
 40
0.0
 40
0.0
 40
0.0
 40
0.2105715439481111
 40
0.4210803613099786
 40
0.6333315902660954
 40
0.8483863449695385
 40
1.0
 40
1.0
 40
1.0
 40
1.0
 10
80.00979008764368
 20
79.76162523543658
 30
0.0
 10
79.97959047138382
 20
79.75536026455026
 30
0.0
 10
79.91920023494589
 20
79.74283218903285
 30
0.0
 10
79.4491979691167
 20
79.6483751634311
 30
0.0
 10
78.75340067662654
 20
79.51939698036028
 30
0.0
 10
77.96318668361761
 20
79.38513475942878
 30
0.0
 10
77.42456418569063
 20
79.30897697633269
 30
0.0
 10
77.201849265549
 20
79.27748650824847
 30
0.0
  0
SPLINE
  5
2DF
330
1F
100
AcDbEntity
  8
0
  6
Continuous
 62
     7
370
    15
100
AcDbSpline
210
0.0
220
0.0
230
1.0
 70
     8
 71
     3
 72
    18
 73
    14
 74
     0
 42
0.00000001
 43
0.00000001
 40
0.0
 40
0.0
 40
0.0
 40
0.0
 40
0.2499999999999999
 40
0.2499999999999999
 40
0.3749999999999995
 40
0.3749999999999995
 40
0.4999999999999991
 40
0.4999999999999991
 40
0.6249999999999988
 40
0.6249999999999988
 40
0.7499999999999983
 40
0.7499999999999983
 40
1.0
 40
1.0
 40
1.0
 40
1.0
 10
61.3286394078411
 20
93.8354889950968
 30
0.0
 10
61.86655896583111
 20
93.66331862221192
 30
0.0
 10
62.37925868990946
 20
93.51513184663497
 30
0.0
 10
63.10672681132188
 20
93.3224121152279
 30
0.0
 10
63.34268935063417
 20
93.26306346813969
 30
0.0
 10
63.78446904559664
 20
93.15679109565905
 30
0.0
 10
63.99231148670957
 20
93.10931246378057
 30
0.0
 10
64.38129018883015
 20
93.02405580450447
 30
0.0
 10
64.56359542829145
 20
92.98605027216759
 30
0.0
 10
64.8936631516997
 20
92.91976311601469
 30
0.0
 10
65.0403058998876
 20
92.89166955045074
 30
0.0
 10
65.42602159941858
 20
92.8199030172238
 30
0.0
 10
65.61225822751476
 20
92.7883558214579
 30
0.0
 10
65.71393210366453
 20
92.77128098444493
 30
0.0
  0
SPLINE
  5
2E0
330
1F
100
AcDbEntity
  8
0
  6
Continuous
 62
     7
370
    15
100
AcDbSpline
210
0.0
220
0.0
230
1.0
 70
     8
 71
     3
 72
    14
 73
    10
 74
     0
 42
0.00000001
 43
0.00000001
 40
0.0
 40
0.0
 40
0.0
 40
0.0
 40
0.25
 40
0.25
 40
0.5
 40
0.5
 40
0.75
 40
0.75
 40
1.0
 40
1.0
 40
1.0
 40
1.0
 10
63.3742567239458
 20
154.4164400962447
 30
0.0
 10
63.17396609975276
 20
154.3669464238549
 30
0.0
 10
62.94317776528996
 20
154.3078685196144
 30
0.0
 10
62.42393919656167
 20
154.1670075483085
 30
0.0
 10
62.13203312839099
 20
154.0841416280656
 30
0.0
 10
61.51419501139342
 20
153.8975318331894
 30
0.0
 10
61.18693458696126
 20
153.7935249341854
 30
0.0
 10
60.49772344511867
 20
153.5605161962708
 30
0.0
 10
60.13776979278059
 20
153.4320679227284
 30
0.0
 10
59.7716796790995
 20
153.2933822232526
 30
0.0
  0
ELLIPSE
  5
2E1
330
1F
100
AcDbEntity
  8
0
  6
Continuous
 62
     7
370
    15
100
AcDbEllipse
 10
54.8931398239
 20
106.6144836084
 30
0.0
 11
-2.476293975485611
 21
2.989047021598807
 31
0.0
210
0.0
220
0.0
230
1.0
 40
0.6308294636
 41
0.0
 42
6.283185307179586
  0
ARC
  5
2E2
330
1F
100
AcDbEntity
  8
0
  6
Continuous
 62
     7
370
    15
100
AcDbCircle
 10
70.9309018651
 20
123.8362649134
 30
0.0
 40
31.50000000000003
100
AcDbArc
 50
110.7481609159
 51
252.2518390841
  0
DIMENSION
  5
2E3
330
1F
100
AcDbEntity
  8
VERMASSUNG
100
AcDbDimension
  2
*D5
 10
70.9309018651
 20
123.8362649134
 30
0.0
 11
95.8340299504
 21
77.97391814
 31
0.0
 70
   164
  1
<>
 71
     1
 42
-1.0
  3
SLDDIMSTYLE2
100
AcDbRadialDimension
 15
92.4043047696
 25
84.290178284
 35
0.0
 40
0.0
  0
INSERT
  5
2F7
330
1F
100
AcDbEntity
  8
VERMASSUNG
100
AcDbBlockReference
  2
SW_CENTERMARKSYMBOL_0
 10
70.9309018651
 20
123.8362649134
 30
0.0
  0
OLE2FRAME
  5
2F8
330
1F
100
AcDbEntity
  8
0
100
AcDbOle2Frame
 70
     2
  3
Paintbrush-Bild
 10
13.8511154363
 20
38.264191557
 30
0.0
 11
51.6290888628
 21
31.9806341108
 31
0.0
 71
     2
 72
     0
 73
     1
 90
    12928
310
80552BED0767C5B32B40DDAF6807D121434000000000000000006FFBDDFB85D0
310
4940DDAF6807D121434000000000000000006FFBDDFB85D04940416F4BD60AFB
310
3F4000000000000000002BED0767C5B32B40416F4BD60AFB3F40000000000000
310
0000000000000100000000010000010000000100000000000100000000320000
310
D0CF11E0A1B11AE1000000000000000000000000000000003E000300FEFF0900
310
0600000000000000000000000100000001000000000000000010000002000000
310
01000000FEFFFFFF0000000000000000FFFFFFFFFFFFFFFFFFFFFFFFFFFFFFFF
310
FFFFFFFFFFFFFFFFFFFFFFFFFFFFFFFFFFFFFFFFFFFFFFFFFFFFFFFFFFFFFFFF
310
FFFFFFFFFFFFFFFFFFFFFFFFFFFFFFFFFFFFFFFFFFFFFFFFFFFFFFFFFFFFFFFF
310
FFFFFFFFFFFFFFFFFFFFFFFFFFFFFFFFFFFFFFFFFFFFFFFFFFFFFFFFFFFFFFFF
310
FFFFFFFFFFFFFFFFFFFFFFFFFFFFFFFFFFFFFFFFFFFFFFFFFFFFFFFFFFFFFFFF
310
FFFFFFFFFFFFFFFFFFFFFFFFFFFFFFFFFFFFFFFFFFFFFFFFFFFFFFFFFFFFFFFF
310
FFFFFFFFFFFFFFFFFFFFFFFFFFFFFFFFFFFFFFFFFFFFFFFFFFFFFFFFFFFFFFFF
310
FFFFFFFFFFFFFFFFFFFFFFFFFFFFFFFFFFFFFFFFFFFFFFFFFFFFFFFFFFFFFFFF
310
FFFFFFFFFFFFFFFFFFFFFFFFFFFFFFFFFFFFFFFFFFFFFFFFFFFFFFFFFFFFFFFF
310
FFFFFFFFFFFFFFFFFFFFFFFFFFFFFFFFFFFFFFFFFFFFFFFFFFFFFFFFFFFFFFFF
310
FFFFFFFFFFFFFFFFFFFFFFFFFFFFFFFFFFFFFFFFFFFFFFFFFFFFFFFFFFFFFFFF
310
FFFFFFFFFFFFFFFFFFFFFFFFFFFFFFFFFFFFFFFFFFFFFFFFFFFFFFFFFFFFFFFF
310
FFFFFFFFFFFFFFFFFFFFFFFFFFFFFFFFFFFFFFFFFFFFFFFFFFFFFFFFFFFFFFFF
310
FFFFFFFFFFFFFFFFFFFFFFFFFFFFFFFFFFFFFFFFFFFFFFFFFFFFFFFFFFFFFFFF
310
FDFFFFFFFEFFFFFFFEFFFFFFFEFFFFFF05000000060000000700000008000000
310
090000000A0000000B0000000C0000000D0000000E0000000F00000010000000
310
11000000120000001300000014000000150000001600000017000000FEFFFFFF
310
FFFFFFFFFFFFFFFFFFFFFFFFFFFFFFFFFFFFFFFFFFFFFFFFFFFFFFFFFFFFFFFF
310
FFFFFFFFFFFFFFFFFFFFFFFFFFFFFFFFFFFFFFFFFFFFFFFFFFFFFFFFFFFFFFFF
310
FFFFFFFFFFFFFFFFFFFFFFFFFFFFFFFFFFFFFFFFFFFFFFFFFFFFFFFFFFFFFFFF
310
FFFFFFFFFFFFFFFFFFFFFFFFFFFFFFFFFFFFFFFFFFFFFFFFFFFFFFFFFFFFFFFF
310
FFFFFFFFFFFFFFFFFFFFFFFFFFFFFFFFFFFFFFFFFFFFFFFFFFFFFFFFFFFFFFFF
310
FFFFFFFFFFFFFFFFFFFFFFFFFFFFFFFFFFFFFFFFFFFFFFFFFFFFFFFFFFFFFFFF
310
FFFFFFFFFFFFFFFFFFFFFFFFFFFFFFFFFFFFFFFFFFFFFFFFFFFFFFFFFFFFFFFF
310
FFFFFFFFFFFFFFFFFFFFFFFFFFFFFFFFFFFFFFFFFFFFFFFFFFFFFFFFFFFFFFFF
310
FFFFFFFFFFFFFFFFFFFFFFFFFFFFFFFFFFFFFFFFFFFFFFFFFFFFFFFFFFFFFFFF
310
FFFFFFFFFFFFFFFFFFFFFFFFFFFFFFFFFFFFFFFFFFFFFFFFFFFFFFFFFFFFFFFF
310
FFFFFFFFFFFFFFFFFFFFFFFFFFFFFFFFFFFFFFFFFFFFFFFFFFFFFFFFFFFFFFFF
310
FFFFFFFFFFFFFFFFFFFFFFFFFFFFFFFFFFFFFFFFFFFFFFFFFFFFFFFFFFFFFFFF
310
FFFFFFFFFFFFFFFFFFFFFFFFFFFFFFFFFFFFFFFFFFFFFFFFFFFFFFFFFFFFFFFF
310
52006F006F007400200045006E00740072007900000000000000000000000000
310
0000000000000000000000000000000000000000000000000000000000000000
310
16000500FFFFFFFFFFFFFFFF020000000A00030000000000C000000000000046
310
0000000000000000000000000058FF1FDCBFCC0103000000C000000000000000
310
01004F006C006500000000000000000000000000000000000000000000000000
310
0000000000000000000000000000000000000000000000000000000000000000
310
0A000200FFFFFFFFFFFFFFFFFFFFFFFF00000000000000000000000000000000
310
0000000000000000000000000000000000000000000000001400000000000000
310
010043006F006D0070004F0062006A0000000000000000000000000000000000
310
0000000000000000000000000000000000000000000000000000000000000000
310
120002010100000003000000FFFFFFFF00000000000000000000000000000000
310
0000000000000000000000000000000000000000010000004D00000000000000
310
01004F006C006500310030004E00610074006900760065000000000000000000
310
0000000000000000000000000000000000000000000000000000000000000000
310
1A000200FFFFFFFFFFFFFFFFFFFFFFFF00000000000000000000000000000000
310
0000000000000000000000000000000000000000040000002426000000000000
310
FEFFFFFF02000000FEFFFFFFFFFFFFFFFFFFFFFFFFFFFFFFFFFFFFFFFFFFFFFF
310
FFFFFFFFFFFFFFFFFFFFFFFFFFFFFFFFFFFFFFFFFFFFFFFFFFFFFFFFFFFFFFFF
310
FFFFFFFFFFFFFFFFFFFFFFFFFFFFFFFFFFFFFFFFFFFFFFFFFFFFFFFFFFFFFFFF
310
FFFFFFFFFFFFFFFFFFFFFFFFFFFFFFFFFFFFFFFFFFFFFFFFFFFFFFFFFFFFFFFF
310
FFFFFFFFFFFFFFFFFFFFFFFFFFFFFFFFFFFFFFFFFFFFFFFFFFFFFFFFFFFFFFFF
310
FFFFFFFFFFFFFFFFFFFFFFFFFFFFFFFFFFFFFFFFFFFFFFFFFFFFFFFFFFFFFFFF
310
FFFFFFFFFFFFFFFFFFFFFFFFFFFFFFFFFFFFFFFFFFFFFFFFFFFFFFFFFFFFFFFF
310
FFFFFFFFFFFFFFFFFFFFFFFFFFFFFFFFFFFFFFFFFFFFFFFFFFFFFFFFFFFFFFFF
310
FFFFFFFFFFFFFFFFFFFFFFFFFFFFFFFFFFFFFFFFFFFFFFFFFFFFFFFFFFFFFFFF
310
FFFFFFFFFFFFFFFFFFFFFFFFFFFFFFFFFFFFFFFFFFFFFFFFFFFFFFFFFFFFFFFF
310
FFFFFFFFFFFFFFFFFFFFFFFFFFFFFFFFFFFFFFFFFFFFFFFFFFFFFFFFFFFFFFFF
310
FFFFFFFFFFFFFFFFFFFFFFFFFFFFFFFFFFFFFFFFFFFFFFFFFFFFFFFFFFFFFFFF
310
FFFFFFFFFFFFFFFFFFFFFFFFFFFFFFFFFFFFFFFFFFFFFFFFFFFFFFFFFFFFFFFF
310
FFFFFFFFFFFFFFFFFFFFFFFFFFFFFFFFFFFFFFFFFFFFFFFFFFFFFFFFFFFFFFFF
310
FFFFFFFFFFFFFFFFFFFFFFFFFFFFFFFFFFFFFFFFFFFFFFFFFFFFFFFFFFFFFFFF
310
FFFFFFFFFFFFFFFFFFFFFFFFFFFFFFFFFFFFFFFFFFFFFFFFFFFFFFFFFFFFFFFF
310
0100000200000000000000000000000000000000000000000000000000000000
310
0000000000000000000000000000000000000000000000000000000000000000
310
0100FEFF030A0000FFFFFFFF0A00030000000000C00000000000004607000000
310
5042727573680007000000504272757368000700000050427275736800F439B2
310
7100000000000000000000000000000000000000000000000000000000000000
310
0000000000000000000000000000000000000000000000000000000000000000
310
0000000000000000000000000000000000000000000000000000000000000000
310
0000000000000000000000000000000000000000000000000000000000000000
310
0000000000000000000000000000000000000000000000000000000000000000
310
0000000000000000000000000000000000000000000000000000000000000000
310
0000000000000000000000000000000000000000000000000000000000000000
310
0000000000000000000000000000000000000000000000000000000000000000
310
0000000000000000000000000000000000000000000000000000000000000000
310
0000000000000000000000000000000000000000000000000000000000000000
310
0000000000000000000000000000000000000000000000000000000000000000
310
0000000000000000000000000000000000000000000000000000000000000000
310
20260000424D0E260000000000003E00000028000000B40200006E0000000100
310
01000000000000000000130B0000130B00000200000002000000000000FFFFFF
310
FFFFFFFFFFFFFFFFFFFFFFFFFFFFFFFFFFFFFFFFFFFFFFFFFFFFFFFFFFFFFFFF
310
FFFFFFFFFFFFFFFFFFFFFFFFFFFFFFFFFFFFFFFFFFFFFFFFFFFFFFFFFFFFFFFF
310
FFFFFFFFFFFFFFFFFFFFFFFFFFFFFFFFFFFFFFFFFFFFFFFFF000FFFFFFFFFFFF
310
FFFFFFFFFFFFFFFFFFFFFFFFFFFFFFFFFFFFFFFFFFFFFFFFFFFFFFFFFFFFFFFF
310
FFFFFFFFFFFFFFFFFFFFFFFFFFFFFFFFFFFFFFFFFFFFFFFFFFFFFFFFFFFFFFFF
310
FFFFFFFFFFFFFFFFFFFFFFFFFFFFFFFFF000FFFFFFFFFFFFFFFFFFFFFFFFFFFF
310
FFFFFFFFFFFFFFFFFFFFFFFFFFFFFFFFFFFFFFFFFFFFFFFFFFFFFFFFFFFFFFFF
310
FFFFFFFFFFFFFFFFFFFFFFFFFFFFFFFFFFFFFFFFFFFFFFFFFFFFFFFFFFFFFFFF
310
FFFFFFFFFFFFFFFFF000FFFFFFFFFFFFFFFFFFFFFFFFFFFFFFFFFFFFFFFFFFFF
310
FFFFFFFFFFFFFFFFFFFFFFFFFFFFFFFFFFFFFFFFFFFFFFFFFFFFFFFFFFFFFFFF
310
FFFFFFFFFFFFFFFFFFFFFFFFFFFFFFFFFFFFFFFFFFFFFFFFFFFFFFFFFFFFFFFF
310
F000FFFFFFFFFFFFFFFFFFFFFFFFFFFFFFFFFFFFFFFFFFFFFFFFFFFFFFFFFFFF
310
FFFFFFFFFFFFFFFFFFFFFFFFFFFFFFFFFFFFFFFFFFFFFFFFFFFFFFFFFFFFFFFF
310
FFFFFFFFFFFFFFFFFFFFFFFFFFFFFFFFFFFFFFFFFFFFFFFFF000FFFFFFFFFFFF
310
FFFFFFFFFFFFFFFFFFFFFFFFFFFFFFFFFFFFFFFFFFFFFFFFFFFFFFFFFFFFFFFF
310
FFFFFFFFFFFFFFFFFFFFFFFFFFFFFFFFFFFFFFFFFFFFFFFFFFFFFFFFFFFFFFFF
310
FFFFFFFFFFFFFFFFFFFFFFFFFFFFFFFFF000FFFFFFFFFFFFFFFFFFFFFFFFFFFF
310
FFFFFFFFFFFFFFFFFFFFFFFFFFFFFFFFFFFFFFFFFFFFFFFFFFFFFFFFFFFFFFFF
310
FFFFFFFFFFFFFFFFFFFFFFFFFFFFFFFFFFFFFFFFFFFFFFFFFFFFFFFFFFFFFFFF
310
FFFFFFFFFFFFFFFFF000FFFFFFFFFFFFFFFFFFFFFFFFFFFFFFFFFFFFFFFFFFFF
310
FFFFFFFFFFFFFFFFFFFFFFFFFFFFFFFFFFFFFFFFFFFFFFFFFFFFFFFFFFFFFFFF
310
FFFFFFFFFFFFFFFFFFFFFFFFFFFFFFFFFFFFFFFFFFFFFFFFFFFFFFFFFFFFFFFF
310
F000FFFFFFFFFFFFFFFFFFFFFFFFFFFFFFFFFFFFFFFFFFFFFFFFFFFFFFFFFFFF
310
FFFFFFFFFFFFFFFFFFFFFFFFFFFFFFFFFFFFFFFFFFFFFFFFFFFFFFFFFFFFFFFF
310
FFFFFFFFFFFFFFFFFFFFFFFFFFFFFFFFFFFFFFFFFFFFFFFFF000FFFFFFFFFFFF
310
FFFFFFFFFFFFFFFFFFFFFFFFFFFFFFFFFFFFFFFFFFFFFFFFFFFFFFFFFFFFFFFF
310
FFFFFFFFFFFFFFFFFFFFFFFFFFFFFFFFFFFFFFFFFFFFFFFFFFFFFFFFFFFFFFFF
310
FFFFFFFFFFFFFFFFFFFFFFFFFFFFFFFFF000FFFFFFFFFFFFFFFFFFFFFFFFFFFF
310
FFFFFFFFFFFFFFFFFFFFFFFFFFFFFFFFFFFFFFFFFFFFFFFFFFFFFFFFFFFFFFFF
310
FFFFFFFFFFFFFFFFFFFFFFFFFFFFFFFFFFFFFFFFFFFFFFFFFFFFFFFFFFFFFFFF
310
FFFFFFFFFFFFFFFFF000FFFFFFFFFFFFFFFFFFFFFFFFFFFFFFFFFFFFFFFFFFFF
310
FFFFFFFFFFFFFFFFFFFFFFFFFFFFFFFFFFFFFFFFFFFFFFFFFFFFFFFFFFFFFFFF
310
FFFFFFFFFFFFFFFFFFFFFFFFFFFFFFFFFFFFFFFFFFFFFFFFFFFFFFFFFFFFFFFF
310
F000FFFFFFFFFFFFFFFFFFFFFFFFFFFFFFFFFFFFFFFFFFFFFFFFFFFFFFFFFFFF
310
FFFFFFFFFFFFFFFFFFFFFFFFFFFFFFFFFFFFFFFFFFFFFFFFFFFFFFFFFFFFFFFF
310
FFFFFFFFFFFFFFFFFFFFFFFFFFFFFFFFFFFFFFFFFFFFFFFFF000FFFFFFFFFFFF
310
FFFFFFFFFFFFFFFFFFFFFFFFFFFFFFFFFFFFFFFFFFFFFFFFFFFFFFFFFFFFFFFF
310
FFFFFFFFFFFFFFFFFFFFFFFFFFFFFFFFFFFFFFFFFFFFFFFFFFFFFFFFFFFFFFFF
310
FFFFFFFFFFFFFFFFFFFFFFFFFFFFFFFFF000FFFFFFFFFFFFFFFFFFFFFFFFFFFF
310
FFFFFFFFFFFFFFFFFFFFFFFFFFFFFFFFFFFFFFFFFFFFFFFFFFFFFFFFFFFFFFFF
310
FFFFFFFFFFFFFFFFFFFFFFFFFFFFFFFFFFFFFFFFFFFFFFFFFFFFFFFFFFFFFFFF
310
FFFFFFFFFFFFFFFFF000FFFFFFFFFFFFFFFFFFFFFFFFFFFFFFFFFFFFFFFFFFFF
310
FFFFFFFFFFFFFFFFFFFFFFFFFFFFFFFFFFFFFFFFFFFFFFFFFFFFFFFFFFFFFFFF
310
FFFFFFFFFFFFFFFFFFFFFFFFFFFFFFFFFFFFFFFFFFFFFFFFFFFFFFFFFFFFFFFF
310
F000FFFFFFFFFFFFFFFFFFFFFFFFFFFFFFFFFFFFFFFFFFFFFFFFFFFFFFFFFFFF
310
FFFFFFFFFFFFFFFFFFFFFFFFFFFFFFFFFFFFFFFFFFFFFFFFFFFFFFFFFFFFFFFF
310
FFFFFFFFFFFFFFFFFFFFFFFFFFFFFFFFFFFFFFFFFFFFFFFFF000FFFFFFFFFFFF
310
FFFFFFFFFFFFFFFFFFFFFFFFFFFFFFFFFFFFFFFFFFFFFFFFFFFFFFFFFFFFFFFF
310
FFFFFFFFFFFFFFFFFFFFFFFFFFFFFFFFFFFFFFFFFFFFFFFFFFFFFFFFFFFFFFFF
310
FFFFFFFFFFFFFFFFFFFFFFFFFFFFFFFFF000FFFFFFFFFFFFFFFFFFFFFFFFFFFF
310
FFFFFFFFFFFFFFFFFFFFFFFFFFFFFFFFFFFFFFFFFFFFFFFFFFFFFFFFFFFFFFFF
310
FFFFFFFFFFFFFFFFFFFFFFFFFFFFFFFFFFFFFFFFFFFFFFFFFFFFFFFFFFFFFFFF
310
FFFFFFFFFFFFFFFFF000FFFFF80003FFFFFFFFFFFFFFFFFFFFFFFFFFFFFFFFFF
310
FFFFF00007FFFFFFFFFF00007FFFFFF800000000000000007FFFFFFFFFFFFFFF
310
FFFFFFFC001FFFFFFFFFFFFFFC001FFFFFFFFFFFFFFFFFFFFFFFFFFE0007FFFF
310
F000FFFF8000007FFFFFFFF8000FFFFFC0007FFFFF80007FFFFF0000007FFFFF
310
FFF8000007FFFFF800000000000000007FFFFFF0001FFFFFFFFFFFC00001FFFF
310
FFFFFFFFC00001FFFFFFFF000000000003FFFFE000007FFFF000FFFE0000000F
310
FFFFFFF0000FFFFF80007FFFFF80007FFFFC0000001FFFFFFFC0000001FFFFF8
310
00000000000000007FFFFFF0001FFFFFFFFFFE0000003FFFFFFFFFFE0000003F
310
FFFFFF000000000003FFFF0000000FFFF000FFF800000003FFFFFFF00007FFFF
310
80007FFFFF80007FFFF000000007FFFFFF000000003FFFF80000000000000000
310
7FFFFFF0001FFFFFFFFFF80000000FFFFFFFFFF80000000FFFFFFF0000000000
310
03FFFC00000003FFF000FFE000000000FFFFFFF00007FFFF80003FFFFF80007F
310
FFC000000001FFFFFC000000001FFFF800000000000000007FFFFFF0001FFFFF
310
FFFFE000000003FFFFFFFFE000000003FFFFFF000000000003FFF000000000FF
310
F000FF80000000007FFFFFF00007FFFF80003FFFFF80007FFF8000000000FFFF
310
F80000000007FFF800000000000000007FFFFFF0001FFFFFFFFFC000000001FF
310
FFFFFFC000000001FFFFFF000000000003FFC0000000007FF000FF0000000000
310
3FFFFFE00007FFFF00003FFFFF80007FFE00000000003FFFF00000000003FFF8
310
00000000000000007FFFFFF0001FFFFFFFFF8000000000FFFFFFFF8000000000
310
FFFFFF000000000003FF80000000003FF000FE00000000001FFFFFE00003FFFF
310
00003FFFFF80007FFC00000000001FFFE00000000001FFF8000001FFFE000000
310
7FFFFFF0001FFFFFFFFE00000000003FFFFFFE00000000003FFFFF0000000000
310
03FF00000000001FF000FC00000000000FFFFFE00003FFFF00001FFFFF80007F
310
F800000000001FFFC00000000000FFF8000001FFFE0000007FFFFFF0001FFFFF
310
FFFC00000000001FFFFFFC00000000001FFFFF000000000003FE00000000000F
310
F000F8000000000007FFFFE00003FFFF00001FFFFF80007FF800000000000FFF
310
800000000000FFF8000001FFFE0000007FFFFFF0001FFFFFFFF800000000000F
310
FFFFF800000000000FFFFF000000000003FC000000000007F000F80000000000
310
03FFFFC00003FFFE00001FFFFF80007FF0000000000007FF0000000000007FF8
310
000001FFFE0000007FFFFFF0001FFFFFFFF0000000000007FFFFF00000000000
310
07FFFF000000000003F8000000000003F000F0000000000003FFFFC00001FFFE
310
00001FFFFF80007FE0000000000007FE0000000000003FF8000001FFFE000000
310
7FFFFFF0001FFFFFFFF0000000000007FFFFF0000000000007FFFF0000000000
310
03F800001F800003F000E00001FFF00001FFFFC00001FFFE00000FFFFF80007F
310
E00001FFE00003FE00001FFF00003FF8000001FFFE0000007FFFFFF0001FFFFF
310
FFE000003E000003FFFFE000003E000003FFFF000000000003F00001FFF80001
310
F000E00007FFFC0001FFFFC00001FFFE00000FFFFF80007FC0000FFFFC0003FC
310
0000FFFFC0001FF8000001FFFE0000007FFFFFF0001FFFFFFFC00003FFE00001
310
FFFFC00003FFE00001FFFF0001FFFFFFFFF00007FFFE0001F000E0000FFFFF00
310
00FFFF800001FFFC00000FFFFF80007FC0001FFFFE0001FC0001FFFFE0001FF8
310
000001FFFE0000007FFFFFF0001FFFFFFF80000FFFF80000FFFF80000FFFF800
310
00FFFF0003FFFFFFFFE0000FFFFF8000F000C0003FFFFF8000FFFF800000FFFC
310
000007FFFF80007F80003FFFFF0001FC0003FFFFF0001FF8000001FFFE000000
310
7FFFFFF0001FFFFFFF80003FFFFE0000FFFF80003FFFFE0000FFFF0003FFFFFF
310
FFE0003FFFFF8000F000C0003FFFFF8000FFFF800000FFFC000007FFFF80007F
310
80007FFFFF8001F80007FFFFF8000FF8000001FFFE0000007FFFFFF0001FFFFF
310
FF00007FFFFF00007FFF00007FFFFF00007FFF0003FFFFFFFFE0003FFFFFC000
310
F000C0007FFFFFC000FFFF000000FFFC000007FFFF80007F8000FFFFFF8000F8
310
000FFFFFF8000FF8000001FFFE0000007FFFFFF0001FFFFFFF0000FFFFFF8000
310
7FFF0000FFFFFF80007FFF0003FFFFFFFFC0007FFFFFC00070008000FFFFFFC0
310
00FFFF000000FFF8000007FFFF80007F8000FFFFFF8000F8000FFFFFF8000FF8
310
000001FFFE0000007FFFFFF0001FFFFFFE0001FFFFFFC0003FFE0001FFFFFFC0
310
003FFF0003FFFFFFFFC0007FFFFFE00070008000FFFFFFC0007FFF0000007FF8
310
000003FFFF80007F0001FFFFFF8000F8000FFFFFF8000FF8000001FFFE000000
310
7FFFFFF0001FFFFFFE0001FFFFFFC0003FFE0001FFFFFFC0003FFF0003FFFFFF
310
FFC000FFFFFFE00070008000FFFFFFC0007FFF0000007FF8000003FFFF80007F
310
0001FFFFFF8000F8001FFFFFF8000FF8000001FFFE0000007FFFFFF0001FFFFF
310
FE0003FFFFFFE0003FFE0003FFFFFFE0003FFF0003FFFFFFFFC000FFFFFFE000
310
70008000FFFFFFC0007FFE0000007FF8000003FFFF80007F0001FFFFFF8000F0
310
001FFFFFF8000FF8000001FFFE0000007FFFFFF0001FFFFFFC0003FFFFFFE000
310
1FFC0003FFFFFFE0001FFF0003FFFFFFFFC000FFFFFFC00070008000FFFFFF80
310
007FFE0000007FF0000003FFFF80007F0001FFFFFF0000F0001FFFFFF8000FF8
310
000001FFFE0000007FFFFFF0001FFFFFFC0007FFFFFFF0001FFC0007FFFFFFF0
310
001FFF0003FFFFFFFFC000FFFFFFC00070008001FFFFFF0000FFFE0000003FF0
310
000001FFFF80007F0001FFFFFF0000F8001FFFFFF0000FF8000001FFFE000000
310
7FFFFFF0001FFFFFFC0007FFFFFFF0001FFC0007FFFFFFF0001FFF0003FFFFFF
310
FFC001FFFFFF80007000FFFFFFFFFE0000FFFE0008003FF0008001FFFF80007F
310
FFFFFFFFFC0000FFFFFFFFFFE0000FF8000001FFFE0000007FFFFFF0001FFFFF
310
F8000FFFFFFFF8000FF8000FFFFFFFF8000FFF0003FFFFFFFFFFFFFFFFFF0000
310
7000FFFFFFFFFC0000FFFC0008003FF0008001FFFF80007FFFFFFFFFF80001FF
310
FFFFFFFF80000FF8000001FFFE0000007FFFFFF0001FFFFFF8000FFFFFFFF800
310
0FF8000FFFFFFFF8000FFF0003FFFFFFFFFFFFFFFFFE0000F000FFFFFFFFE000
310
00FFFC000C003FE000C001FFFF80007FFFFFFFFFC00001FFFFFFFFFE00001FF8
310
000001FFFE0000007FFFFFF0001FFFFFF8000FFFFFFFF8000FF8000FFFFFFFF8
310
000FFF0003FFFFFFFFFFFFFFFFF00000F000FFFFFFFE000001FFFC000C001FE0
310
00C000FFFF80007FFFFFFFFE000001FFFFFFFFE000001FF80FFFFFFFFFFFFFC0
310
7FFFFFF0001FFFFFF8000FFFFFFFF8000FF8000FFFFFFFF8000FFF0003FFFFFF
310
FFFFFFFFFF800000F000FFFFFFC0000001FFFC001C001FE001C000FFFF80007F
310
FFFFFF80000003FFFFFFF80000001FF80FFFFFFFFFFFFFC07FFFFFF0001FFFFF
310
F8001FFFFFFFFC000FF8001FFFFFFFFC000FFF0003FFFFFFFFFFFFFFF0000001
310
F000FFFFF800000001FFF8001C001FE001C000FFFF80007FFFFFF800000003FF
310
FFFF800000003FF80FFFFFFFFFFFFFC07FFFFFF0001FFFFFF8001FFFFFFFFC00
310
0FF8001FFFFFFFFC000FFF0003FFFFFFFFFFFFFE00000001F000FFFFC0000000
310
03FFF8001E001FC001E000FFFF80007FFFFF8000000007FFFFFC000000003FF8
310
0FFFFFFFFFFFFFC07FFFFFF0001FFFFFF8001FFFFFFFFC000FF8001FFFFFFFFC
310
000FFF0003FFFFFFFFFFFFE000000003F000FFFE0000000007FFF8001E000FC0
310
01E0007FFF80007FFFFE0000000007FFFFE0000000007FF80FFFFFFFFFFFFFC0
310
7FFFFFF0001FFFFFF0001FFFFFFFFC0007F0001FFFFFFFFC0007FF0003FFFFFF
310
FFFFFF0000000003F000FFF80000000007FFF8001E000FC003E0007FFF80007F
310
FFF0000000000FFFFF8000000000FFF80FFFFFFFFFFFFFC07FFFFFF0001FFFFF
310
F0001FFFFFFFFC0007F0001FFFFFFFFC0007FF0003FFFFFFFFFFFC0000000007
310
F000FFE0000000000FFFF0003E000FC003E0007FFF80007FFFC0000000001FFF
310
FE0000000001FFF80FFFFFFFFFFFFFC07FFFFFF0001FFFFFF0001FFFFFFFFC00
310
07F0001FFFFFFFFC0007FF0003FFFFFFFFFFF0000000000FF000FFC000000000
310
1FFFF0003F000F8003F0003FFF80007FFF80000000003FFFF80000000003FFF8
310
0FFFFFFFFFFFFFC07FFFFFF0001FFFFFF0001FFFFFFFFC0007F0001FFFFFFFFC
310
0007FF0003FFFFFFFFFFE0000000001FF000FF00000000007FFFF0003F000780
310
03F0003FFF80007FFF00000000007FFFF00000000007FFF80FFFFFFFFFFFFFC0
310
7FFFFFF0001FFFFFF0001FFFFFFFFC0007F0001FFFFFFFFC0007FF0003FFFFFF
310
FFFF80000000007FF000FE0000000000FFFFE0003F00078007F0003FFF80007F
310
FE0000000001FFFFE0000000001FFFF80FFFFFFFFFFFFFC07FFFFFF0001FFFFF
310
F0001FFFFFFFFC0007F0001FFFFFFFFC0007FF0003FFFFFFFFFF0000000000FF
310
F000FC0000000003FFFFE0007F00078007F0003FFF80007FFC0000000007FFFF
310
C0000000007FFFF80FFFFFFFFFFFFFC07FFFFFF0001FFFFFF8001FFFFFFFFC00
310
0FF8001FFFFFFFFC000FFF0003FFFFFFFFFE0000000003FFF000FC000000000F
310
FFFFE0007F80070007F8001FFF80007FF8000000001FFFFF8000000001FFFFF8
310
0FFFFFFFFFFFFFC07FFFFFF0001FFFFFF8001FFFFFFFFC000FF8001FFFFFFFFC
310
000FFF0003FFFFFFFFFC000000000FFFF000F8000000007FFFFFE0007F800700
310
07F8001FFF80007FF000000000FFFFFF800000000FFFFFF80FFFFFFFFFFFFFC0
310
7FFFFFF0001FFFFFF8000FFFFFFFF8000FF8000FFFFFFFF8000FFF0003FFFFFF
310
FFFC000000007FFFF000F800000007FFFFFFC0007F8003000FF8001FFF80007F
310
F000000007FFFFFF000000007FFFFFF80FFFFFFFFFFFFFC07FFFFFF0001FFFFF
310
F8000FFFFFFFF8000FF8000FFFFFFFF8000FFF0003FFFFFFFFF80000000FFFFF
310
F000F0000000FFFFFFFFC000FF8003000FF8001FFF80007FE0000000FFFFFFFF
310
0000000FFFFFFFF8000001FFFE0000007FFFFFF0001FFFFFF8000FFFFFFFF800
310
0FF8000FFFFFFFF8000FFF0003FFFFFFFFF8000000FFFFFFF000F000000FFFFF
310
FFFFC000FFC002000FF8000FFF80007FE000001FFFFFFFFE000001FFFFFFFFF8
310
000001FFFE0000007FFFFFF0001FFFFFF8000FFFFFFFF8000FF8000FFFFFFFF8
310
000FFF0003FFFFFFFFF000001FFFFFFFF000E00000FFFFFFFFFFC000FFC00200
310
0FFC000FFF80007FE00001FFFFFFFFFE00001FFFFFFFFFF8000001FFFE000000
310
7FFFFFF0001FFFFFFC000FFFFFFFF8001FFC000FFFFFFFF8001FFF0003FFFFFF
310
FFF00001FFFFFFFFF000E00007FFFFFFFFFF8000FFC000001FFC000FFF80007F
310
C0000FFFFFFFFFFE0000FFFFFFFFFFF8000001FFFE0000007FFFFFF0001FFFFF
310
FC0007FFFFFFF0001FFC0007FFFFFFF0001FFF0003FFFFFFFFF00007FFFFFFFF
310
F000E0001FFFFFFFFFFF8000FFC000001FFC000FFF80007FC0003FFFFFFFFFFE
310
0001FFFFFFFFFFF8000001FFFE0000007FFFFFF0001FFFFFFC0007FFFFFFF000
310
1FFC0007FFFFFFF0001FFF0003FFFFFFFFF0001FFFFFFFFFF000E0003FFFFF00
310
03FF8001FFE000001FFC0007FF80007FC0007FFFFF0007FC0003FFFFF0003FF8
310
000001FFFE0000007FFFFFF0001FFFFFFC0003FFFFFFE0001FFC0003FFFFFFE0
310
001FFF0003FFFFFFFFF0003FFFFFFFFFF000E0003FFFFF0001FF8001FFE00000
310
1FFE0007FF80007FC0007FFFFE0003FC0007FFFFE0003FF8000001FFFE000000
310
7FFFFFF0001FFFFFFE0003FFFFFFE0003FFE0003FFFFFFE0003FFF0003FFFFFF
310
FFF0003FFFFF8001F000E0003FFFFF0001FF0001FFE000001FFE0007FF80007F
310
C0007FFFFE0003FC0007FFFFE0003FF8000001FFFE0000007FFFFFF0001FFFFF
310
FE0001FFFFFFC0003FFE0001FFFFFFC0003FFF0003FFFFFFFFF0003FFFFF0001
310
F000E0003FFFFF0003FF0001FFE000003FFE0007FF80007FC0007FFFFE0003FC
310
0007FFFFE0003FF8000001FFFE0000007FFFFFF0001FFFFFFF0001FFFFFFC000
310
7FFF0001FFFFFFC0007FFF0003FFFFFFFFF0003FFFFF0001F000E0003FFFFE00
310
03FF0003FFF000003FFE0003FF80007FC0007FFFFC0003FE0007FFFFE0003FF8
310
000001FFFE0000007FFFFFF0001FFFFFFF0000FFFFFF80007FFF0000FFFFFF80
310
007FFF0003FFFFFFFFF0003FFFFF0001F000E0003FFFFE0003FF0003FFF00000
310
3FFF0003FF80007FC0007FFFFC0007FE0007FFFFC0003FF8000001FFFE000000
310
7FFFFFF0001FFFFFFF80007FFFFF0000FFFF80007FFFFF0000FFFF0003FFFFFF
310
FFF0003FFFFF0003F000E0003FFFFC0003FE0003FFF000003FFF0003FF80007F
310
E0003FFFF80007FE0003FFFFC0007FF8000001FFFE0000007FFFFFF0001FFFFF
310
FF80003FFFFE0000FFFF80003FFFFE0000FFFF0003FFFFFFFFF0001FFFFE0003
310
F000F0001FFFF80003FE0003FFF000007FFF0001FF80007FE0003FFFF00007FE
310
0001FFFF80007FF8000001FFFE0000007FFFFFF0001FFFFFFFC0000FFFF80001
310
FFFFC0000FFFF80001FFFF0003FFFFFFFFF0001FFFFC0003F000F0000FFFF000
310
07FE0007FFF800007FFF0001FF80007FE0001FFFE00007FF0000FFFE00007FF8
310
000001FFFE0000007FFFFFF0001FFFFFFFC00003FFE00001FFFFC00003FFE000
310
01FFFF0003FFFFFFFFF8000FFFF80003F000F00003FFC00007FC0007FFF80000
310
7FFF8001FF80007FF00007FF80000FFF00007FF80000FFF8000001FFFE000000
310
7F80000000000001FFE000003E000003FFFFE000003E000003FFFF0003FFFFFF
310
FFF80003FFE00007F000F800000000000FFC0007FFF800007FFF8001FF80007F
310
F000000000000FFF000000000000FFF8000001FFFE0000007F80000000000001
310
FFF0000000000007FFFFF0000000000007FFFF0003FFFFFFFFFC00007E000007
310
F000F800000000000FFC0007FFF80000FFFF8000FF80007FF800000000001FFF
310
800000000001FFF8000001FFFE0000007F80000000000001FFF800000000000F
310
FFFFF800000000000FFFFF0003FFFFFFFFFC00000000000FF000FC0000000000
310
1FFC0007FFFC0000FFFF8000FF80007FF800000000003FFFC00000000001FFF8
310
000001FFFE0000007F80000000000001FFF800000000000FFFFFF80000000000
310
0FFFFF0003FFFFFFFFFE00000000001FF000FE00000000003FF8000FFFFC0000
310
FFFF8000FF80007FFC00000000003FFFC00000000003FFF8000001FFFE000000
310
7F80000000000001FFFC00000000001FFFFFFC00000000001FFFFF0003FFFFFF
310
FFFF00000000001FF000FF00000000003FF8000FFFFC0000FFFFC000FF80007F
310
FE00000000007FFFE00000000007FFF8000001FFFE0000007F80000000000001
310
FFFE00000000003FFFFFFE00000000003FFFFF0003FFFFFFFFFF80000000003F
310
F000FF80000000007FF8000FFFFC0001FFFFC0007F80007FFF0000000000FFFF
310
F0000000000FFFF800000000000000007F80000000000001FFFF8000000000FF
310
FFFFFF8000000000FFFFFF0003FFFFFFFFFFC0000000007FF000FFC000000000
310
FFF8000FFFFE0001FFFFC0007F80007FFF8000000001FFFFF8000000001FFFF8
310
00000000000000007F80000000000001FFFFC000000001FFFFFFFFC000000001
310
FFFFFF0003FFFFFFFFFFE000000000FFF000FFE000000003FFF0001FFFFE0001
310
FFFFC0007F80007FFFC000000007FFFFFE000000003FFFF80000000000000000
310
7F80000000000001FFFFE000000003FFFFFFFFE000000003FFFFFF0003FFFFFF
310
FFFFF000000003FFF000FFF80000000FFFF0001FFFFE0001FFFFE0007F80007F
310
FFF00000000FFFFFFF00000000FFFFF800000000000000007F80000000000001
310
FFFFF80000000FFFFFFFFFF80000000FFFFFFF0003FFFFFFFFFFFC0000000FFF
310
F000FFFE0000003FFFF0001FFFFE0003FFFFE0003F80007FFFFC0000003FFFFF
310
FFC0000003FFFFF800000000000000007F80000000000001FFFFFE0000003FFF
310
FFFFFFFE0000003FFFFFFF0003FFFFFFFFFFFF0000003FFFF000FFFF800000FF
310
FFF0001FFFFF0003FFFFE0003F80007FFFFF000001FFFFFFFFF800001FFFFFF8
310
00000000000000007F80000000000001FFFFFFC00001FFFFFFFFFFFFC00001FF
310
FFFFFF0003FFFFFFFFFFFFC00000FFFFF000FFFFF8000FFFFFFFFFFFFFFFFFFF
310
FFFFFFFFFFFFFFFFFFFFF0001FFFFFFFFFFF0000FFFFFFF80000000000000000
310
7FFFFFFFFFFFFFFFFFFFFFFC001FFFFFFFFFFFFFFC001FFFFFFFFFFFFFFFFFFF
310
FFFFFFFC001FFFFFF000FFFFFFFFFFFFFFFFFFFFFFFFFFFFFFFFFFFFFFFFFFFF
310
FFFFFFFFFFFFFFFFFFFFFFFFFFFFFFFFFFFFFFFFFFFFFFFFFFFFFFFFFFFFFFFF
310
FFFFFFFFFFFFFFFFFFFFFFFFFFFFFFFFFFFFFFFFFFFFFFFFFFFFFFFFFFFFFFFF
310
F000FFFFFFFFFFFFFFFFFFFFFFFFFFFFFFFFFFFFFFFFFFFFFFFFFFFFFFFFFFFF
310
FFFFFFFFFFFFFFFFFFFFFFFFFFFFFFFFFFFFFFFFFFFFFFFFFFFFFFFFFFFFFFFF
310
FFFFFFFFFFFFFFFFFFFFFFFFFFFFFFFFFFFFFFFFFFFFFFFFF000FFFFFFFFFFFF
310
FFFFFFFFFFFFFFFFFFFFFFFFFFFFFFFFFFFFFFFFFFFFFFFFFFFFFFFFFFFFFFFF
310
FFFFFFFFFFFFFFFFFFFFFFFFFFFFFFFFFFFFFFFFFFFFFFFFFFFFFFFFFFFFFFFF
310
FFFFFFFFFFFFFFFFFFFFFFFFFFFFFFFFF000FFFFFFFFFFFFFFFFFFFFFFFFFFFF
310
FFFFFFFFFFFFFFFFFFFFFFFFFFFFFFFFFFFFFFFFFFFFFFFFFFFFFFFFFFFFFFFF
310
FFFFFFFFFFFFFFFFFFFFFFFFFFFFFFFFFFFFFFFFFFFFFFFFFFFFFFFFFFFFFFFF
310
FFFFFFFFFFFFFFFFF000FFFFFFFFFFFFFFFFFFFFFFFFFFFFFFFFFFFFFFFFFFFF
310
FFFFFFFFFFFFFFFFFFFFFFFFFFFFFFFFFFFFFFFFFFFFFFFFFFFFFFFFFFFFFFFF
310
FFFFFFFFFFFFFFFFFFFFFFFFFFFFFFFFFFFFFFFFFFFFFFFFFFFFFFFFFFFFFFFF
310
F000FFFFFFFFFFFFFFFFFFFFFFFFFFFFFFFFFFFFFFFFFFFFFFFFFFFFFFFFFFFF
310
FFFFFFFFFFFFFFFFFFFFFFFFFFFFFFFFFFFFFFFFFFFFFFFFFFFFFFFFFFFFFFFF
310
FFFFFFFFFFFFFFFFFFFFFFFFFFFFFFFFFFFFFFFFFFFFFFFFF000FFFFFFFFFFFF
310
FFFFFFFFFFFFFFFFFFFFFFFFFFFFFFFFFFFFFFFFFFFFFFFFFFFFFFFFFFFFFFFF
310
FFFFFFFFFFFFFFFFFFFFFFFFFFFFFFFFFFFFFFFFFFFFFFFFFFFFFFFFFFFFFFFF
310
FFFFFFFFFFFFFFFFFFFFFFFFFFFFFFFFF000FFFFFFFFFFFFFFFFFFFFFFFFFFFF
310
FFFFFFFFFFFFFFFFFFFFFFFFFFFFFFFFFFFFFFFFFFFFFFFFFFFFFFFFFFFFFFFF
310
FFFFFFFFFFFFFFFFFFFFFFFFFFFFFFFFFFFFFFFFFFFFFFFFFFFFFFFFFFFFFFFF
310
FFFFFFFFFFFFFFFFF000FFFFFFFFFFFFFFFFFFFFFFFFFFFFFFFFFFFFFFFFFFFF
310
FFFFFFFFFFFFFFFFFFFFFFFFFFFFFFFFFFFFFFFFFFFFFFFFFFFFFFFFFFFFFFFF
310
FFFFFFFFFFFFFFFFFFFFFFFFFFFFFFFFFFFFFFFFFFFFFFFFFFFFFFFFFFFFFFFF
310
F000FFFFFFFFFFFFFFFFFFFFFFFFFFFFFFFFFFFFFFFFFFFFFFFFFFFFFFFFFFFF
310
FFFFFFFFFFFFFFFFFFFFFFFFFFFFFFFFFFFFFFFFFFFFFFFFFFFFFFFFFFFFFFFF
310
FFFFFFFFFFFFFFFFFFFFFFFFFFFFFFFFFFFFFFFFFFFFFFFFF000FFFFFFFFFFFF
310
FFFFFFFFFFFFFFFFFFFFFFFFFFFFFFFFFFFFFFFFFFFFFFFFFFFFFFFFFFFFFFFF
310
FFFFFFFFFFFFFFFFFFFFFFFFFFFFFFFFFFFFFFFFFFFFFFFFFFFFFFFFFFFFFFFF
310
FFFFFFFFFFFFFFFFFFFFFFFFFFFFFFFFF000FFFFFFFFFFFFFFFFFFFFFFFFFFFF
310
FFFFFFFFFFFFFFFFFFFFFFFFFFFFFFFFFFFFFFFFFFFFFFFFFFFFFFFFFFFFFFFF
310
FFFFFFFFFFFFFFFFFFFFFFFFFFFFFFFFFFFFFFFFFFFFFFFFFFFFFFFFFFFFFFFF
310
FFFFFFFFFFFFFFFFF000FFFFFFFFFFFFFFFFFFFFFFFFFFFFFFFFFFFFFFFFFFFF
310
FFFFFFFFFFFFFFFFFFFFFFFFFFFFFFFFFFFFFFFFFFFFFFFFFFFFFFFFFFFFFFFF
310
FFFFFFFFFFFFFFFFFFFFFFFFFFFFFFFFFFFFFFFFFFFFFFFFFFFFFFFFFFFFFFFF
310
F000FFFFFFFFFFFFFFFFFFFFFFFFFFFFFFFFFFFFFFFFFFFFFFFFFFFFFFFFFFFF
310
FFFFFFFFFFFFFFFFFFFFFFFFFFFFFFFFFFFFFFFFFFFFFFFFFFFFFFFFFFFFFFFF
310
FFFFFFFFFFFFFFFFFFFFFFFFFFFFFFFFFFFFFFFFFFFFFFFFF000FFFFFFFFFFFF
310
FFFFFFFFFFFFFFFFFFFFFFFFFFFFFFFFFFFFFFFFFFFFFFFFFFFFFFFFFFFFFFFF
310
FFFFFFFFFFFFFFFFFFFFFFFFFFFFFFFFFFFFFFFFFFFFFFFFFFFFFFFFFFFFFFFF
310
FFFFFFFFFFFFFFFFFFFFFFFFFFFFFFFFF000FFFFFFFFFFFFFFFFFFFFFFFFFFFF
310
FFFFFFFFFFFFFFFFFFFFFFFFFFFFFFFFFFFFFFFFFFFFFFFFFFFFFFFFFFFFFFFF
310
FFFFFFFFFFFFFFFFFFFFFFFFFFFFFFFFFFFFFFFFFFFFFFFFFFFFFFFFFFFFFFFF
310
FFFFFFFFFFFFFFFFF000FFFFFFFFFFFFFFFFFFFFFFFFFFFFFFFFFFFFFFFFFFFF
310
FFFFFFFFFFFFFFFFFFFFFFFFFFFFFFFFFFFFFFFFFFFFFFFFFFFFFFFFFFFFFFFF
310
FFFFFFFFFFFFFFFFFFFFFFFFFFFFFFFFFFFFFFFFFFFFFFFFFFFFFFFFFFFFFFFF
310
F000FFFFFFFFFFFFFFFFFFFFFFFFFFFFFFFFFFFFFFFFFFFFFFFFFFFFFFFFFFFF
310
FFFFFFFFFFFFFFFFFFFFFFFFFFFFFFFFFFFFFFFFFFFFFFFFFFFFFFFFFFFFFFFF
310
FFFFFFFFFFFFFFFFFFFFFFFFFFFFFFFFFFFFFFFFFFFFFFFFF000FFFFFFFFFFFF
310
FFFFFFFFFFFFFFFFFFFFFFFFFFFFFFFFFFFFFFFFFFFFFFFFFFFFFFFFFFFFFFFF
310
FFFFFFFFFFFFFFFFFFFFFFFFFFFFFFFFFFFFFFFFFFFFFFFFFFFFFFFFFFFFFFFF
310
FFFFFFFFFFFFFFFFFFFFFFFFFFFFFFFFF000FFFFFFFFFFFFFFFFFFFFFFFFFFFF
310
FFFFFFFFFFFFFFFFFFFFFFFFFFFFFFFFFFFFFFFFFFFFFFFFFFFFFFFFFFFFFFFF
310
FFFFFFFFFFFFFFFFFFFFFFFFFFFFFFFFFFFFFFFFFFFFFFFFFFFFFFFFFFFFFFFF
310
FFFFFFFFFFFFFFFFF000FFFFFFFFFFFFFFFFFFFFFFFFFFFFFFFFFFFFFFFFFFFF
310
FFFFFFFFFFFFFFFFFFFFFFFFFFFFFFFFFFFFFFFFFFFFFFFFFFFFFFFFFFFFFFFF
310
FFFFFFFFFFFFFFFFFFFFFFFFFFFFFFFFFFFFFFFFFFFFFFFFFFFFFFFFFFFFFFFF
310
F000FFFFFFFFFFFFFFFFFFFFFFFFFFFFFFFFFFFFFFFFFFFFFFFFFFFFFFFFFFFF
310
FFFFFFFFFFFFFFFFFFFFFFFFFFFFFFFFFFFFFFFFFFFFFFFFFFFFFFFFFFFFFFFF
310
FFFFFFFFFFFFFFFFFFFFFFFFFFFFFFFFFFFFFFFFFFFFFFFFF000FFFFFFFFFFFF
310
FFFFFFFFFFFFFFFFFFFFFFFFFFFFFFFFFFFFFFFFFFFFFFFFFFFFFFFFFFFFFFFF
310
FFFFFFFFFFFFFFFFFFFFFFFFFFFFFFFFFFFFFFFFFFFFFFFFFFFFFFFFFFFFFFFF
310
FFFFFFFFFFFFFFFFFFFFFFFFFFFFFFFFF0000000000000000000000000000000
310
0000000000000000000000000000000000000000000000000000000000000000
310
0000000000000000000000000000000000000000000000000000000000000000
310
0000000000000000000000000000000000000000000000000000000000000000
310
0000000000000000000000000000000000000000000000000000000000000000
310
0000000000000000000000000000000000000000000000000000000000000000
310
0000000000000000000000000000000000000000000000000000000000000000
310
0000000000000000000000000000000000000000000000000000000000000000
310
0000000000000000000000000000000000000000000000000000000000000000
310
0000000000000000000000000000000000000000000000000000000000000000
310
0000000000000000000000000000000000000000000000000000000000000000
310
0000000000000000000000000000000000000000000000000000000000000000
310
0000000000000000000000000000000000000000000000000000000000000000
310
0000000000000000000000000000000000000000000000000000000000000000
310
0000000000000000000000000000000000000000000000000000000000000000
310
0000000000000000000000000000000000000000000000000000000000000000
  1
OLE
  0
ENDSEC
  0
SECTION
  2
OBJECTS
  0
DICTIONARY
  5
C
330
0
100
AcDbDictionary
281
     1
  3
ACAD_GROUP
350
D
  3
ACAD_LAYOUT
350
1A
  3
ACAD_MLINESTYLE
350
17
  3
ACAD_PLOTSETTINGS
350
19
  3
ACAD_PLOTSTYLENAME
350
E
  0
DICTIONARY
  5
D
102
{ACAD_REACTORS
330
C
102
}
330
C
100
AcDbDictionary
281
     1
  0
DICTIONARY
  5
1A
102
{ACAD_REACTORS
330
C
102
}
330
C
100
AcDbDictionary
281
     1
  3
Layout1
350
1E
  3
Layout2
350
26
  3
Model
350
22
  0
DICTIONARY
  5
17
102
{ACAD_REACTORS
330
C
102
}
330
C
100
AcDbDictionary
281
     1
  3
Standard
350
18
  0
DICTIONARY
  5
19
102
{ACAD_REACTORS
330
C
102
}
330
C
100
AcDbDictionary
281
     1
  0
ACDBDICTIONARYWDFLT
  5
E
102
{ACAD_REACTORS
330
C
102
}
330
C
100
AcDbDictionary
281
     1
  3
Normal
350
F
100
AcDbDictionaryWithDefault
340
F
  0
LAYOUT
  5
1E
102
{ACAD_REACTORS
330
1A
102
}
330
1A
100
AcDbPlotSettings
  1

  2
none_device
  4

  6

 40
0.0
 41
0.0
 42
0.0
 43
0.0
 44
0.0
 45
0.0
 46
0.0
 47
0.0
 48
0.0
 49
0.0
140
0.0
141
0.0
142
1.0
143
1.0
 70
   688
 72
     0
 73
     0
 74
     5
  7

 75
    16
147
1.0
148
0.0
149
0.0
100
AcDbLayout
  1
Layout1
 70
     1
 71
     1
 10
0.0
 20
0.0
 11
420.0
 21
297.0
 12
0.0
 22
0.0
 32
0.0
 14
1.0000000000E+20
 24
1.0000000000E+20
 34
1.0000000000E+20
 15
-1.0000000000E+20
 25
-1.0000000000E+20
 35
-1.0000000000E+20
146
0.0
 13
0.0
 23
0.0
 33
0.0
 16
1.0
 26
0.0
 36
0.0
 17
0.0
 27
1.0
 37
0.0
 76
     0
330
1B
  0
LAYOUT
  5
26
102
{ACAD_REACTORS
330
1A
102
}
330
1A
100
AcDbPlotSettings
  1

  2
none_device
  4

  6

 40
0.0
 41
0.0
 42
0.0
 43
0.0
 44
0.0
 45
0.0
 46
0.0
 47
0.0
 48
0.0
 49
0.0
140
0.0
141
0.0
142
1.0
143
1.0
 70
   688
 72
     0
 73
     0
 74
     5
  7

 75
    16
147
1.0
148
0.0
149
0.0
100
AcDbLayout
  1
Layout2
 70
     1
 71
     2
 10
0.0
 20
0.0
 11
0.0
 21
0.0
 12
0.0
 22
0.0
 32
0.0
 14
0.0
 24
0.0
 34
0.0
 15
0.0
 25
0.0
 35
0.0
146
0.0
 13
0.0
 23
0.0
 33
0.0
 16
1.0
 26
0.0
 36
0.0
 17
0.0
 27
1.0
 37
0.0
 76
     0
330
23
  0
LAYOUT
  5
22
102
{ACAD_REACTORS
330
1A
102
}
330
1A
100
AcDbPlotSettings
  1

  2
none_device
  4

  6

 40
0.0
 41
0.0
 42
0.0
 43
0.0
 44
0.0
 45
0.0
 46
0.0
 47
0.0
 48
0.0
 49
0.0
140
0.0
141
0.0
142
1.0
143
1.0
 70
  1712
 72
     0
 73
     0
 74
     0
  7

 75
     0
147
1.0
148
0.0
149
0.0
100
AcDbLayout
  1
Model
 70
     1
 71
     0
 10
0.0
 20
0.0
 11
297.0
 21
210.0
 12
0.0
 22
0.0
 32
0.0
 14
0.0
 24
0.0
 34
0.0
 15
297.0
 25
210.0
 35
0.0
146
0.0
 13
0.0
 23
0.0
 33
0.0
 16
1.0
 26
0.0
 36
0.0
 17
0.0
 27
1.0
 37
0.0
 76
     0
330
1F
331
29
  0
MLINESTYLE
  5
18
102
{ACAD_REACTORS
330
17
102
}
330
17
100
AcDbMlineStyle
  2
Standard
 70
     0
  3

 62
   256
 51
90.0
 52
90.0
 71
     2
 49
0.5
 62
   256
  6
BYLAYER
 49
-0.5
 62
   256
  6
BYLAYER
  0
ACDBPLACEHOLDER
  5
F
102
{ACAD_REACTORS
330
E
102
}
330
E
  0
ENDSEC
  0
EOF
