  0
SECTION
  2
HEADER
  9
$ACADVER
  1
AC1015
  9
$ACADMAINTVER
 70
     6
  9
$DWGCODEPAGE
  3
ANSI_1252
  9
$INSBASE
 10
0.0
 20
0.0
 30
0.0
  9
$EXTMIN
 10
0.0
 20
0.0
 30
0.0
  9
$EXTMAX
 10
297.0
 20
210.0
 30
0.0
  9
$LIMMIN
 10
0.0
 20
0.0
  9
$LIMMAX
 10
297.0
 20
210.0
  9
$ORTHOMODE
 70
     0
  9
$REGENMODE
 70
     1
  9
$FILLMODE
 70
     1
  9
$QTEXTMODE
 70
     0
  9
$MIRRTEXT
 70
     1
  9
$LTSCALE
 40
1.0
  9
$ATTMODE
 70
     1
  9
$TEXTSIZE
 40
2.0
  9
$TRACEWID
 40
1.0
  9
$TEXTSTYLE
  7
Standard
  9
$CLAYER
  8
0
  9
$CELTYPE
  6
ByLayer
  9
$CECOLOR
 62
   256
  9
$CELTSCALE
 40
1.0
  9
$DISPSILH
 70
     0
  9
$DIMSCALE
 40
1.0
  9
$DIMASZ
 40
3.0
  9
$DIMEXO
 40
0.0
  9
$DIMDLI
 40
3.75
  9
$DIMRND
 40
0.0
  9
$DIMDLE
 40
0.0
  9
$DIMEXE
 40
1.0
  9
$DIMTP
 40
0.0
  9
$DIMTM
 40
0.0
  9
$DIMTXT
 40
2.0
  9
$DIMCEN
 40
2.5
  9
$DIMTSZ
 40
0.0
  9
$DIMTOL
 70
     0
  9
$DIMLIM
 70
     0
  9
$DIMTIH
 70
     1
  9
$DIMTOH
 70
     1
  9
$DIMSE1
 70
     0
  9
$DIMSE2
 70
     0
  9
$DIMTAD
 70
     1
  9
$DIMZIN
 70
     0
  9
$DIMBLK
  1

  9
$DIMASO
 70
     1
  9
$DIMSHO
 70
     1
  9
$DIMPOST
  1

  9
$DIMAPOST
  1

  9
$DIMALT
 70
     0
  9
$DIMALTD
 70
     3
  9
$DIMALTF
 40
0.0393700787
  9
$DIMLFAC
 40
1.0
  9
$DIMTOFL
 70
     1
  9
$DIMTVP
 40
0.0
  9
$DIMTIX
 70
     0
  9
$DIMSOXD
 70
     0
  9
$DIMSAH
 70
     0
  9
$DIMBLK1
  1

  9
$DIMBLK2
  1

  9
$DIMSTYLE
  2
ISO-25
  9
$DIMCLRD
 70
     0
  9
$DIMCLRE
 70
     0
  9
$DIMCLRT
 70
     0
  9
$DIMTFAC
 40
1.0
  9
$DIMGAP
 40
1.524
  9
$DIMJUST
 70
     0
  9
$DIMSD1
 70
     0
  9
$DIMSD2
 70
     0
  9
$DIMTOLJ
 70
     0
  9
$DIMTZIN
 70
     0
  9
$DIMALTZ
 70
     0
  9
$DIMALTTZ
 70
     0
  9
$DIMUPT
 70
     0
  9
$DIMDEC
 70
     2
  9
$DIMTDEC
 70
     3
  9
$DIMALTU
 70
     2
  9
$DIMALTTD
 70
     3
  9
$DIMTXSTY
  7
Standard
  9
$DIMAUNIT
 70
     0
  9
$DIMADEC
 70
     2
  9
$DIMALTRND
 40
0.0
  9
$DIMAZIN
 70
     0
  9
$DIMDSEP
 70
    44
  9
$DIMATFIT
 70
     3
  9
$DIMFRAC
 70
     0
  9
$DIMLDRBLK
  1

  9
$DIMLUNIT
 70
     2
  9
$DIMLWD
 70
    -2
  9
$DIMLWE
 70
    -2
  9
$DIMTMOVE
 70
     0
  9
$LUNITS
 70
     2
  9
$LUPREC
 70
     2
  9
$SKETCHINC
 40
1.0
  9
$FILLETRAD
 40
10.0
  9
$AUNITS
 70
     0
  9
$AUPREC
 70
     2
  9
$MENU
  1
.
  9
$ELEVATION
 40
0.0
  9
$PELEVATION
 40
0.0
  9
$THICKNESS
 40
0.0
  9
$LIMCHECK
 70
     0
  9
$CHAMFERA
 40
0.0
  9
$CHAMFERB
 40
0.0
  9
$CHAMFERC
 40
0.0
  9
$CHAMFERD
 40
0.0
  9
$SKPOLY
 70
     0
  9
$TDCREATE
 40
2458157.560443681
  9
$TDUCREATE
 40
2458157.518777014
  9
$TDUPDATE
 40
2458157.560445451
  9
$TDUUPDATE
 40
2458157.518778785
  9
$TDINDWG
 40
0.0000000116
  9
$TDUSRTIMER
 40
0.0000000116
  9
$USRTIMER
 70
     1
  9
$ANGBASE
 50
0.0
  9
$ANGDIR
 70
     0
  9
$PDMODE
 70
     0
  9
$PDSIZE
 40
-1.0
  9
$PLINEWID
 40
0.0
  9
$SPLFRAME
 70
     0
  9
$SPLINETYPE
 70
     6
  9
$SPLINESEGS
 70
     8
  9
$HANDSEED
  5
232
  9
$SURFTAB1
 70
     6
  9
$SURFTAB2
 70
     6
  9
$SURFTYPE
 70
     6
  9
$SURFU
 70
     6
  9
$SURFV
 70
     6
  9
$UCSBASE
  2

  9
$UCSNAME
  2

  9
$UCSORG
 10
0.0
 20
0.0
 30
0.0
  9
$UCSXDIR
 10
1.0
 20
0.0
 30
0.0
  9
$UCSYDIR
 10
0.0
 20
1.0
 30
0.0
  9
$UCSORTHOREF
  2

  9
$UCSORTHOVIEW
 70
     0
  9
$UCSORGTOP
 10
0.0
 20
0.0
 30
0.0
  9
$UCSORGBOTTOM
 10
0.0
 20
0.0
 30
0.0
  9
$UCSORGLEFT
 10
0.0
 20
0.0
 30
0.0
  9
$UCSORGRIGHT
 10
0.0
 20
0.0
 30
0.0
  9
$UCSORGFRONT
 10
0.0
 20
0.0
 30
0.0
  9
$UCSORGBACK
 10
0.0
 20
0.0
 30
0.0
  9
$PUCSBASE
  2

  9
$PUCSNAME
  2

  9
$PUCSORG
 10
0.0
 20
0.0
 30
0.0
  9
$PUCSXDIR
 10
1.0
 20
0.0
 30
0.0
  9
$PUCSYDIR
 10
0.0
 20
1.0
 30
0.0
  9
$PUCSORTHOREF
  2

  9
$PUCSORTHOVIEW
 70
     0
  9
$PUCSORGTOP
 10
0.0
 20
0.0
 30
0.0
  9
$PUCSORGBOTTOM
 10
0.0
 20
0.0
 30
0.0
  9
$PUCSORGLEFT
 10
0.0
 20
0.0
 30
0.0
  9
$PUCSORGRIGHT
 10
0.0
 20
0.0
 30
0.0
  9
$PUCSORGFRONT
 10
0.0
 20
0.0
 30
0.0
  9
$PUCSORGBACK
 10
0.0
 20
0.0
 30
0.0
  9
$USERI1
 70
     0
  9
$USERI2
 70
     0
  9
$USERI3
 70
     0
  9
$USERI4
 70
     0
  9
$USERI5
 70
     0
  9
$USERR1
 40
0.0
  9
$USERR2
 40
0.0
  9
$USERR3
 40
0.0
  9
$USERR4
 40
0.0
  9
$USERR5
 40
0.0
  9
$WORLDVIEW
 70
     1
  9
$SHADEDGE
 70
     3
  9
$SHADEDIF
 70
    70
  9
$TILEMODE
 70
     1
  9
$MAXACTVP
 70
    64
  9
$PINSBASE
 10
0.0
 20
0.0
 30
0.0
  9
$PLIMCHECK
 70
     0
  9
$PEXTMIN
 10
1.0000000000E+20
 20
1.0000000000E+20
 30
1.0000000000E+20
  9
$PEXTMAX
 10
-1.0000000000E+20
 20
-1.0000000000E+20
 30
-1.0000000000E+20
  9
$PLIMMIN
 10
0.0
 20
0.0
  9
$PLIMMAX
 10
420.0
 20
297.0
  9
$UNITMODE
 70
     0
  9
$VISRETAIN
 70
     1
  9
$PLINEGEN
 70
     0
  9
$PSLTSCALE
 70
     1
  9
$TREEDEPTH
 70
  3020
  9
$CMLSTYLE
  2
Standard
  9
$CMLJUST
 70
     0
  9
$CMLSCALE
 40
20.0
  9
$PROXYGRAPHICS
 70
     1
  9
$MEASUREMENT
 70
     1
  9
$CELWEIGHT
370
    -1
  9
$ENDCAPS
280
     0
  9
$JOINSTYLE
280
     0
  9
$LWDISPLAY
290
     1
  9
$INSUNITS
 70
     4
  9
$HYPERLINKBASE
  1

  9
$STYLESHEET
  1

  9
$XEDIT
290
     1
  9
$CEPSNTYPE
380
     0
  9
$PSTYLEMODE
290
     1
  9
$FINGERPRINTGUID
  2
{FBEC3874-9470-4B87-8DC0-5BF6A1984019}
  9
$VERSIONGUID
  2
{FAEB1C32-E019-11D5-929B-00C0DF256EC4}
  9
$EXTNAMES
290
     1
  9
$PSVPSCALE
 40
0.0
  9
$OLESTARTUP
290
     0
  0
ENDSEC
  0
SECTION
  2
CLASSES
  0
CLASS
  1
ACDBDICTIONARYWDFLT
  2
AcDbDictionaryWithDefault
  3
ObjectDBX Classes
 90
        0
280
     0
281
     0
  0
CLASS
  1
VISUALSTYLE
  2
AcDbVisualStyle
  3
ObjectDBX Classes
 90
     4095
280
     0
281
     0
  0
CLASS
  1
MATERIAL
  2
AcDbMaterial
  3
ObjectDBX Classes
 90
     1153
280
     0
281
     0
  0
CLASS
  1
SCALE
  2
AcDbScale
  3
ObjectDBX Classes
 90
     1153
280
     0
281
     0
  0
CLASS
  1
TABLESTYLE
  2
AcDbTableStyle
  3
ObjectDBX Classes
 90
     4095
280
     0
281
     0
  0
CLASS
  1
MLEADERSTYLE
  2
AcDbMLeaderStyle
  3
ACDB_MLEADERSTYLE_CLASS
 90
     4095
280
     0
281
     0
  0
CLASS
  1
SUN
  2
AcDbSun
  3
SCENEOE
 90
     1153
280
     0
281
     0
  0
CLASS
  1
ACDBPLACEHOLDER
  2
AcDbPlaceHolder
  3
ObjectDBX Classes
 90
        0
280
     0
281
     0
  0
CLASS
  1
LAYOUT
  2
AcDbLayout
  3
ObjectDBX Classes
 90
        0
280
     0
281
     0
  0
ENDSEC
  0
SECTION
  2
TABLES
  0
TABLE
  2
VPORT
  5
8
330
0
100
AcDbSymbolTable
 70
     1
  0
VPORT
  5
29
330
8
100
AcDbSymbolTableRecord
100
AcDbViewportTableRecord
  2
*Active
 70
     0
 10
0.0
 20
0.0
 11
1.0
 21
1.0
 12
148.5
 22
105.0
 13
0.0
 23
0.0
 14
10.0
 24
10.0
 15
10.0
 25
10.0
 16
0.0
 26
0.0
 36
1.0
 17
0.0
 27
0.0
 37
0.0
 40
210.0
 41
1.4142857143
 42
50.0
 43
0.0
 44
0.0
 50
0.0
 51
0.0
 71
     0
 72
  2000
 73
     1
 74
     3
 75
     0
 76
     0
 77
     0
 78
     0
281
     0
 65
     1
110
0.0
120
0.0
130
0.0
111
1.0
121
0.0
131
0.0
112
0.0
122
1.0
132
0.0
 79
     0
146
0.0
  0
ENDTAB
  0
TABLE
  2
LTYPE
  5
5
330
0
100
AcDbSymbolTable
 70
     6
  0
LTYPE
  5
14
330
5
100
AcDbSymbolTableRecord
100
AcDbLinetypeTableRecord
  2
ByBlock
 70
     0
  3

 72
    65
 73
     0
 40
0.0
  0
LTYPE
  5
15
330
5
100
AcDbSymbolTableRecord
100
AcDbLinetypeTableRecord
  2
ByLayer
 70
     0
  3

 72
    65
 73
     0
 40
0.0
  0
LTYPE
  5
16
330
5
100
AcDbSymbolTableRecord
100
AcDbLinetypeTableRecord
  2
Continuous
 70
     0
  3
Solid line
 72
    65
 73
     0
 40
0.0
  0
LTYPE
  5
6E
330
5
100
AcDbSymbolTableRecord
100
AcDbLinetypeTableRecord
  2
HIDDEN
 70
     0
  3
Hidden __ __ __ __ __ __ __ __ __ __ __ __ __ __
 72
    65
 73
     2
 40
1.905
 49
1.27
 74
     0
 49
-0.635
 74
     0
  0
LTYPE
  5
6F
330
5
100
AcDbSymbolTableRecord
100
AcDbLinetypeTableRecord
  2
PHANTOM
 70
     0
  3
Phantom ______  __  __  ______  __  __  ______
 72
    65
 73
     6
 40
12.7
 49
6.35
 74
     0
 49
-1.27
 74
     0
 49
1.27
 74
     0
 49
-1.27
 74
     0
 49
1.27
 74
     0
 49
-1.27
 74
     0
  0
LTYPE
  5
70
330
5
100
AcDbSymbolTableRecord
100
AcDbLinetypeTableRecord
  2
CENTER
 70
     0
  3
Center ____ _ ____ _ ____ _ ____ _ ____ _ ____
 72
    65
 73
     4
 40
10.16
 49
6.35
 74
     0
 49
-1.27
 74
     0
 49
1.27
 74
     0
 49
-1.27
 74
     0
  0
LTYPE
  5
71
330
5
100
AcDbSymbolTableRecord
100
AcDbLinetypeTableRecord
  2
CENTERX2
 70
     0
  3
Center (2x) ________  __  ________  __  _____
 72
    65
 73
     4
 40
20.32
 49
12.7
 74
     0
 49
-2.54
 74
     0
 49
2.54
 74
     0
 49
-2.54
 74
     0
  0
LTYPE
  5
72
330
5
100
AcDbSymbolTableRecord
100
AcDbLinetypeTableRecord
  2
DOT2
 70
     0
  3
Dot (.5x) ........................................
 72
    65
 73
     2
 40
0.635
 49
0.0
 74
     0
 49
-0.635
 74
     0
  0
ENDTAB
  0
TABLE
  2
LAYER
  5
2
330
0
100
AcDbSymbolTable
 70
     5
  0
LAYER
  5
10
330
2
100
AcDbSymbolTableRecord
100
AcDbLayerTableRecord
  2
0
 70
     0
 62
     7
  6
Continuous
370
    -3
390
F
  0
LAYER
  5
73
330
2
100
AcDbSymbolTableRecord
100
AcDbLayerTableRecord
  2
FORMAT
 70
     0
 62
     7
  6
Continuous
370
    -3
390
F
  0
LAYER
  5
74
330
2
100
AcDbSymbolTableRecord
100
AcDbLayerTableRecord
  2
VERMASSUNG
 70
     0
 62
     7
  6
Continuous
370
    -3
390
F
  0
LAYER
  5
75
330
2
100
AcDbSymbolTableRecord
100
AcDbLayerTableRecord
  2
KOPF_DÜNN
 70
     0
 62
     7
  6
Continuous
370
    -3
390
F
  0
LAYER
  5
76
330
2
100
AcDbSymbolTableRecord
100
AcDbLayerTableRecord
  2
KOPF_DICK
 70
     0
 62
     7
  6
Continuous
370
    25
390
F
  0
ENDTAB
  0
TABLE
  2
STYLE
  5
3
330
0
100
AcDbSymbolTable
 70
     2
  0
STYLE
  5
11
330
3
100
AcDbSymbolTableRecord
100
AcDbTextStyleTableRecord
  2
Standard
 70
     0
 40
0.0
 41
1.0
 50
0.0
 71
     0
 42
2.0
  3
txt
  4

  0
STYLE
  5
77
330
3
100
AcDbSymbolTableRecord
100
AcDbTextStyleTableRecord
  2
SLDTEXTSTYLE0
 70
     0
 40
0.0
 41
0.7
 50
0.0
 71
     0
 42
2.0
  3
TXT
  4

  0
ENDTAB
  0
TABLE
  2
VIEW
  5
6
330
0
100
AcDbSymbolTable
 70
     0
  0
ENDTAB
  0
TABLE
  2
UCS
  5
7
330
0
100
AcDbSymbolTable
 70
     0
  0
ENDTAB
  0
TABLE
  2
APPID
  5
9
330
0
100
AcDbSymbolTable
 70
     1
  0
APPID
  5
12
330
9
100
AcDbSymbolTableRecord
100
AcDbRegAppTableRecord
  2
ACAD
 70
     0
  0
ENDTAB
  0
TABLE
  2
DIMSTYLE
  5
A
330
0
100
AcDbSymbolTable
 70
     5
100
AcDbDimStyleTable
  0
DIMSTYLE
105
27
330
A
100
AcDbSymbolTableRecord
100
AcDbDimStyleTableRecord
  2
ISO-25
 70
     0
 41
2.5
 42
0.625
 43
3.75
 44
1.25
 73
     0
 74
     0
 77
     1
 78
     8
140
2.5
141
2.5
143
0.0393700787
147
0.625
171
     3
172
     1
178
     0
271
     2
272
     2
274
     3
278
    44
283
     0
284
     8
340
11
  0
DIMSTYLE
105
1BB
102
{ACAD_REACTORS
330
1BA
330
1E9
102
}
330
A
100
AcDbSymbolTableRecord
100
AcDbDimStyleTableRecord
  2
SLDDIMSTYLE0
 70
     0
 41
3.0
 44
0.0
 45
0.000000001
 73
     0
 74
     0
 77
     1
 78
    12
 79
     3
140
2.0
147
0.5
173
     1
178
     0
271
     2
272
     3
276
     2
284
    12
340
77
  0
DIMSTYLE
105
1C6
102
{ACAD_REACTORS
330
1C5
330
1D2
102
}
330
A
100
AcDbSymbolTableRecord
100
AcDbDimStyleTableRecord
  2
SLDDIMSTYLE1
 70
     0
 41
3.0
 44
0.0
 45
0.000000001
 47
0.1
 48
0.1
 71
     1
 73
     0
 74
     0
 77
     1
 78
    12
 79
     3
140
2.0
147
0.5
173
     1
178
     0
271
     2
272
     1
276
     2
284
     8
340
77
  0
DIMSTYLE
105
1DF
102
{ACAD_REACTORS
330
1DE
102
}
330
A
100
AcDbSymbolTableRecord
100
AcDbDimStyleTableRecord
  2
SLDDIMSTYLE2
 70
     0
 41
3.0
 44
0.0
 73
     0
 74
     0
 77
     1
 78
    12
 79
     3
140
2.0
147
0.5
173
     1
178
     0
179
     2
272
     3
276
     2
284
    12
340
77
  0
DIMSTYLE
105
217
102
{ACAD_REACTORS
330
216
102
}
330
A
100
AcDbSymbolTableRecord
100
AcDbDimStyleTableRecord
  2
SLDDIMSTYLE3
 70
     0
 41
3.0
 44
0.0
 45
0.000000001
 73
     0
 74
     0
 77
     1
 78
    12
 79
     3
140
2.0
147
0.5
172
     1
173
     1
178
     0
271
     2
272
     3
276
     2
284
     8
289
     0
340
77
  0
ENDTAB
  0
TABLE
  2
BLOCK_RECORD
  5
1
330
0
100
AcDbSymbolTable
 70
     8
  0
BLOCK_RECORD
  5
1F
330
1
100
AcDbSymbolTableRecord
100
AcDbBlockTableRecord
  2
*Model_Space
340
22
  0
BLOCK_RECORD
  5
1B
330
1
100
AcDbSymbolTableRecord
100
AcDbBlockTableRecord
  2
*Paper_Space
340
1E
  0
BLOCK_RECORD
  5
23
330
1
100
AcDbSymbolTableRecord
100
AcDbBlockTableRecord
  2
*Paper_Space0
340
26
  0
BLOCK_RECORD
  5
1BC
330
1
100
AcDbSymbolTableRecord
100
AcDbBlockTableRecord
  2
_D
340
0
  0
BLOCK_RECORD
  5
1C7
330
1
100
AcDbSymbolTableRecord
100
AcDbBlockTableRecord
  2
_D_1
340
0
  0
BLOCK_RECORD
  5
1D3
330
1
100
AcDbSymbolTableRecord
100
AcDbBlockTableRecord
  2
_D_2
340
0
  0
BLOCK_RECORD
  5
1E0
330
1
100
AcDbSymbolTableRecord
100
AcDbBlockTableRecord
  2
_D_3
340
0
  0
BLOCK_RECORD
  5
1EA
330
1
100
AcDbSymbolTableRecord
100
AcDbBlockTableRecord
  2
_D_4
340
0
  0
BLOCK_RECORD
  5
218
330
1
100
AcDbSymbolTableRecord
100
AcDbBlockTableRecord
  2
_D_5
340
0
  0
BLOCK_RECORD
  5
225
330
1
100
AcDbSymbolTableRecord
100
AcDbBlockTableRecord
  2
SW_CENTERMARKSYMBOL_0
340
0
102
{BLKREFS
331
230
102
}
  0
ENDTAB
  0
ENDSEC
  0
SECTION
  2
BLOCKS
  0
BLOCK
  5
20
330
1F
100
AcDbEntity
  8
0
100
AcDbBlockBegin
  2
*Model_Space
 70
     0
 10
0.0
 20
0.0
 30
0.0
  3
*Model_Space
  1

  0
ENDBLK
  5
21
330
1F
100
AcDbEntity
  8
0
100
AcDbBlockEnd
  0
BLOCK
  5
1C
330
1B
100
AcDbEntity
 67
     1
  8
0
100
AcDbBlockBegin
  2
*Paper_Space
 70
     0
 10
0.0
 20
0.0
 30
0.0
  3
*Paper_Space
  1

  0
ENDBLK
  5
1D
330
1B
100
AcDbEntity
 67
     1
  8
0
100
AcDbBlockEnd
  0
BLOCK
  5
24
330
23
100
AcDbEntity
  8
0
100
AcDbBlockBegin
  2
*Paper_Space0
 70
     0
 10
0.0
 20
0.0
 30
0.0
  3
*Paper_Space0
  1

  0
ENDBLK
  5
25
330
23
100
AcDbEntity
  8
0
100
AcDbBlockEnd
  0
BLOCK
  5
1BD
330
1BC
100
AcDbEntity
  8
0
100
AcDbBlockBegin
  2
_D
 70
     0
 10
0.0
 20
0.0
 30
0.0
  3
_D
  1

  0
SOLID
  5
1BF
330
1BC
100
AcDbEntity
  8
VERMASSUNG
100
AcDbTrace
 10
149.0235315863
 20
175.0260918606
 30
0.0
 11
152.0235315863
 21
174.5760918606
 31
0.0
 12
152.0235315863
 22
175.4760918606
 32
0.0
 13
152.0235315863
 23
175.4760918606
 33
0.0
  0
SOLID
  5
1C0
330
1BC
100
AcDbEntity
  8
VERMASSUNG
100
AcDbTrace
 10
252.0235315863
 20
175.0260918606
 30
0.0
 11
249.0235315863
 21
175.4760918606
 31
0.0
 12
249.0235315863
 22
174.5760918606
 32
0.0
 13
249.0235315863
 23
174.5760918606
 33
0.0
  0
LINE
  5
1C1
330
1BC
100
AcDbEntity
  8
VERMASSUNG
100
AcDbLine
 10
149.0235315863
 20
133.762631014
 30
0.0
 11
149.0235315863
 21
176.0260918606
 31
0.0
  0
LINE
  5
1C2
330
1BC
100
AcDbEntity
  8
VERMASSUNG
100
AcDbLine
 10
252.0235315863
 20
158.4702930215
 30
0.0
 11
252.0235315863
 21
176.0260918606
 31
0.0
  0
LINE
  5
1C3
330
1BC
100
AcDbEntity
  8
VERMASSUNG
100
AcDbLine
 10
149.0235315863
 20
175.0260918606
 30
0.0
 11
252.0235315863
 21
175.0260918606
 31
0.0
  0
MTEXT
  5
1C4
330
1BC
100
AcDbEntity
  8
VERMASSUNG
100
AcDbMText
 10
198.6235315543
 20
177.6042274566
 30
0.0
 40
2.0
 41
0.0
 71
     1
 72
     1
  1
103
  7
SLDTEXTSTYLE0
 73
     1
 44
1.0
  0
ENDBLK
  5
1BE
330
1BC
100
AcDbEntity
  8
0
100
AcDbBlockEnd
  0
BLOCK
  5
1C8
330
1C7
100
AcDbEntity
  8
0
100
AcDbBlockBegin
  2
_D_1
 70
     0
 10
0.0
 20
0.0
 30
0.0
  3
_D_1
  1

  0
SOLID
  5
1CA
330
1C7
100
AcDbEntity
  8
VERMASSUNG
100
AcDbTrace
 10
187.0235315863
 20
169.0260918606
 30
0.0
 11
190.0235315863
 21
168.5760918606
 31
0.0
 12
190.0235315863
 22
169.4760918606
 32
0.0
 13
190.0235315863
 23
169.4760918606
 33
0.0
  0
SOLID
  5
1CB
330
1C7
100
AcDbEntity
  8
VERMASSUNG
100
AcDbTrace
 10
252.0235315863
 20
169.0260918606
 30
0.0
 11
249.0235315863
 21
169.4760918606
 31
0.0
 12
249.0235315863
 22
168.5760918606
 32
0.0
 13
249.0235315863
 23
168.5760918606
 33
0.0
  0
LINE
  5
1CC
330
1C7
100
AcDbEntity
  8
VERMASSUNG
100
AcDbLine
 10
187.0235315863
 20
144.4702930215
 30
0.0
 11
187.0235315863
 21
170.0260918606
 31
0.0
  0
LINE
  5
1CD
330
1C7
100
AcDbEntity
  8
VERMASSUNG
100
AcDbLine
 10
252.0235315863
 20
158.4702930215
 30
0.0
 11
252.0235315863
 21
170.0260918606
 31
0.0
  0
LINE
  5
1CE
330
1C7
100
AcDbEntity
  8
VERMASSUNG
100
AcDbLine
 10
187.0235315863
 20
169.0260918606
 30
0.0
 11
252.0235315863
 21
169.0260918606
 31
0.0
  0
MTEXT
  5
1CF
330
1C7
100
AcDbEntity
  8
VERMASSUNG
100
AcDbMText
 10
215.8735315003
 20
171.6042274566
 30
0.0
 40
2.0
 41
0.0
 71
     1
 72
     1
  1
65
  7
SLDTEXTSTYLE0
 73
     1
 44
1.0
  0
MTEXT
  5
1D0
330
1C7
100
AcDbEntity
  8
VERMASSUNG
100
AcDbMText
 10
219.8610314004
 20
171.6042274566
 30
0.0
 40
2.0
 41
0.0
 71
     1
 72
     1
  1

  7
SLDTEXTSTYLE0
 73
     1
 44
1.0
  0
MTEXT
  5
1D1
330
1C7
100
AcDbEntity
  8
VERMASSUNG
100
AcDbMText
 10
219.8735312246
 20
171.1096936229
 30
0.0
 40
1.5
 41
0.0
 71
     1
 72
     1
  1
±0.1
  7
SLDTEXTSTYLE0
 73
     1
 44
1.0
  0
ENDBLK
  5
1C9
330
1C7
100
AcDbEntity
  8
0
100
AcDbBlockEnd
  0
BLOCK
  5
1D4
330
1D3
100
AcDbEntity
  8
0
100
AcDbBlockBegin
  2
_D_2
 70
     0
 10
0.0
 20
0.0
 30
0.0
  3
_D_2
  1

  0
SOLID
  5
1D6
330
1D3
100
AcDbEntity
  8
VERMASSUNG
100
AcDbTrace
 10
272.7314978574
 20
158.4702930215
 30
0.0
 11
272.2814978574
 21
155.4702930215
 31
0.0
 12
273.1814978574
 22
155.4702930215
 32
0.0
 13
273.1814978574
 23
155.4702930215
 33
0.0
  0
SOLID
  5
1D7
330
1D3
100
AcDbEntity
  8
VERMASSUNG
100
AcDbTrace
 10
272.7314978574
 20
113.4702930215
 30
0.0
 11
273.1814978574
 21
116.4702930215
 31
0.0
 12
272.2814978574
 22
116.4702930215
 32
0.0
 13
272.2814978574
 23
116.4702930215
 33
0.0
  0
LINE
  5
1D8
330
1D3
100
AcDbEntity
  8
VERMASSUNG
100
AcDbLine
 10
252.0235315863
 20
158.4702930215
 30
0.0
 11
273.7314978574
 21
158.4702930215
 31
0.0
  0
LINE
  5
1D9
330
1D3
100
AcDbEntity
  8
VERMASSUNG
100
AcDbLine
 10
252.0235315863
 20
113.4702930215
 30
0.0
 11
273.7314978574
 21
113.4702930215
 31
0.0
  0
LINE
  5
1DA
330
1D3
100
AcDbEntity
  8
VERMASSUNG
100
AcDbLine
 10
272.7314978574
 20
158.4702930215
 30
0.0
 11
272.7314978574
 21
113.4702930215
 31
0.0
  0
MTEXT
  5
1DB
330
1D3
100
AcDbEntity
  8
VERMASSUNG
100
AcDbMText
 10
270.1533622615
 20
132.2202926396
 30
0.0
 40
2.0
 41
0.0
 71
     1
 72
     1
  1
45
  7
SLDTEXTSTYLE0
 11
-7.044195017643634E-15
 21
1.0
 31
0.0
 73
     1
 44
1.0
  0
MTEXT
  5
1DC
330
1D3
100
AcDbEntity
  8
VERMASSUNG
100
AcDbMText
 10
270.1533622615
 20
136.4077926657
 30
0.0
 40
2.0
 41
0.0
 71
     1
 72
     1
  1

  7
SLDTEXTSTYLE0
 11
-7.044195017643634E-15
 21
1.0
 31
0.0
 73
     1
 44
1.0
  0
MTEXT
  5
1DD
330
1D3
100
AcDbEntity
  8
VERMASSUNG
100
AcDbMText
 10
270.6478960951
 20
136.4202924899
 30
0.0
 40
1.5
 41
0.0
 71
     1
 72
     1
  1
±0.1
  7
SLDTEXTSTYLE0
 11
-7.044195017643634E-15
 21
1.0
 31
0.0
 73
     1
 44
1.0
  0
ENDBLK
  5
1D5
330
1D3
100
AcDbEntity
  8
0
100
AcDbBlockEnd
  0
BLOCK
  5
1E1
330
1E0
100
AcDbEntity
  8
0
100
AcDbBlockBegin
  2
_D_3
 70
     0
 10
0.0
 20
0.0
 30
0.0
  3
_D_3
  1

  0
ARC
  5
1E3
330
1E0
100
AcDbEntity
  8
VERMASSUNG
100
AcDbCircle
 10
252.0450436364
 20
158.4702930215
 30
0.0
 40
14.32665444655647
100
AcDbArc
 50
267.0
 51
0.0
  0
SOLID
  5
1E4
330
1E0
100
AcDbEntity
  8
VERMASSUNG
100
AcDbTrace
 10
251.2952444762
 20
144.1632727569
 30
0.0
 11
254.3142390141
 21
143.8663350868
 31
0.0
 12
254.2684948057
 22
144.7651718169
 32
0.0
 13
254.2684948057
 23
144.7651718169
 33
0.0
  0
SOLID
  5
1E5
330
1E0
100
AcDbEntity
  8
VERMASSUNG
100
AcDbTrace
 10
266.371698083
 20
158.4702930215
 30
0.0
 11
265.6150160056
 21
155.5326183911
 31
0.0
 12
266.5102268443
 22
155.4398953937
 32
0.0
 13
266.5102268443
 23
155.4398953937
 33
0.0
  0
LINE
  5
1E6
330
1E0
100
AcDbEntity
  8
VERMASSUNG
100
AcDbLine
 10
251.4654581235
 20
147.4111426281
 30
0.0
 11
251.24290852
 21
143.1646432222
 31
0.0
  0
LINE
  5
1E7
330
1E0
100
AcDbEntity
  8
VERMASSUNG
100
AcDbLine
 10
266.0979492924
 20
158.4702930215
 30
0.0
 11
267.371698083
 21
158.4702930215
 31
0.0
  0
MTEXT
  5
1E8
330
1E0
100
AcDbEntity
  8
VERMASSUNG
100
AcDbMText
 10
258.6814417028
 20
148.5715094934
 30
0.0
 40
2.0
 41
0.0
 71
     1
 72
     1
  1
93°
  7
SLDTEXTSTYLE0
 11
0.7253743710122834
 21
0.6883545756937584
 31
0.0
 73
     1
 44
1.0
  0
ENDBLK
  5
1E2
330
1E0
100
AcDbEntity
  8
0
100
AcDbBlockEnd
  0
BLOCK
  5
1EB
330
1EA
100
AcDbEntity
  8
0
100
AcDbBlockBegin
  2
_D_4
 70
     0
 10
0.0
 20
0.0
 30
0.0
  3
_D_4
  1

  0
SOLID
  5
1ED
330
1EA
100
AcDbEntity
  8
VERMASSUNG
100
AcDbTrace
 10
137.0337571182
 20
144.9702930215
 30
0.0
 11
136.5837571182
 21
141.9702930215
 31
0.0
 12
137.4837571182
 22
141.9702930215
 32
0.0
 13
137.4837571182
 23
141.9702930215
 33
0.0
  0
SOLID
  5
1EE
330
1EA
100
AcDbEntity
  8
VERMASSUNG
100
AcDbTrace
 10
137.0337571182
 20
81.9702930215
 30
0.0
 11
137.4837571182
 21
84.9702930215
 31
0.0
 12
136.5837571182
 22
84.9702930215
 32
0.0
 13
136.5837571182
 23
84.9702930215
 33
0.0
  0
LINE
  5
1EF
330
1EA
100
AcDbEntity
  8
VERMASSUNG
100
AcDbLine
 10
187.5235315863
 20
144.9702930215
 30
0.0
 11
136.0337571182
 21
144.9702930215
 31
0.0
  0
LINE
  5
1F0
330
1EA
100
AcDbEntity
  8
VERMASSUNG
100
AcDbLine
 10
187.5235315863
 20
81.9702930215
 30
0.0
 11
136.0337571182
 21
81.9702930215
 31
0.0
  0
LINE
  5
1F1
330
1EA
100
AcDbEntity
  8
VERMASSUNG
100
AcDbLine
 10
137.0337571182
 20
144.9702930215
 30
0.0
 11
137.0337571182
 21
81.9702930215
 31
0.0
  0
MTEXT
  5
1F2
330
1EA
100
AcDbEntity
  8
VERMASSUNG
100
AcDbMText
 10
134.255621862
 20
107.9652937117
 30
0.0
 40
2.0
 41
0.0
 71
     1
 72
     1
  1
PSC
  7
SLDTEXTSTYLE0
 11
-7.044195017643634E-15
 21
1.0
 31
0.0
 73
     1
 44
1.0
  0
MTEXT
  5
1F3
330
1EA
100
AcDbEntity
  8
VERMASSUNG
100
AcDbMText
 10
134.4556218133
 20
112.5652933481
 30
0.0
 40
2.0
 41
0.0
 71
     1
 72
     1
  1
%%c
  7
SLDTEXTSTYLE0
 11
-7.044195017643634E-15
 21
1.0
 31
0.0
 73
     1
 44
1.0
  0
MTEXT
  5
1F4
330
1EA
100
AcDbEntity
  8
VERMASSUNG
100
AcDbMText
 10
134.255621862
 20
116.1752933624
 30
0.0
 40
2.0
 41
0.0
 71
     1
 72
     1
  1
63
  7
SLDTEXTSTYLE0
 11
-7.044195017643634E-15
 21
1.0
 31
0.0
 73
     1
 44
1.0
  0
ENDBLK
  5
1EC
330
1EA
100
AcDbEntity
  8
0
100
AcDbBlockEnd
  0
BLOCK
  5
219
330
218
100
AcDbEntity
  8
0
100
AcDbBlockBegin
  2
_D_5
 70
     0
 10
0.0
 20
0.0
 30
0.0
  3
_D_5
  1

  0
SOLID
  5
21B
330
218
100
AcDbEntity
  8
VERMASSUNG
100
AcDbTrace
 10
100.8877703536
 20
87.9411931874
 30
0.0
 11
102.5149735319
 21
85.3809764356
 31
0.0
 12
103.1945245173
 22
85.9710700369
 32
0.0
 13
103.1945245173
 23
85.9710700369
 33
0.0
  0
SOLID
  5
21C
330
218
100
AcDbEntity
  8
VERMASSUNG
100
AcDbTrace
 10
48.4350057939
 20
148.3457252198
 30
0.0
 11
46.8078026156
 21
150.9059419716
 31
0.0
 12
46.1282516303
 22
150.3158483703
 32
0.0
 13
46.1282516303
 23
150.3158483703
 33
0.0
  0
LINE
  5
21D
330
218
100
AcDbEntity
  8
VERMASSUNG
100
AcDbLine
 10
100.8877703536
 20
87.9411931874
 30
0.0
 11
101.642827004
 21
88.5968527444
 31
0.0
  0
LINE
  5
21E
330
218
100
AcDbEntity
  8
VERMASSUNG
100
AcDbLine
 10
48.4350057939
 20
148.3457252198
 30
0.0
 11
49.1900624443
 21
149.0013847768
 31
0.0
  0
LINE
  5
21F
330
218
100
AcDbEntity
  8
VERMASSUNG
100
AcDbLine
 10
100.8877703536
 20
87.9411931874
 30
0.0
 11
104.8217276956
 21
83.410853285
 31
0.0
  0
LINE
  5
220
330
218
100
AcDbEntity
  8
VERMASSUNG
100
AcDbLine
 10
100.8877703536
 20
87.9411931874
 30
0.0
 11
48.4350057939
 21
148.3457252198
 31
0.0
  0
LINE
  5
221
330
218
100
AcDbEntity
  8
VERMASSUNG
100
AcDbLine
 10
48.4350057939
 20
148.3457252198
 30
0.0
 11
35.7838951022
 21
162.9147270148
 31
0.0
  0
MTEXT
  5
222
330
218
100
AcDbEntity
  8
VERMASSUNG
100
AcDbMText
 10
37.7305333098
 20
164.6051060667
 30
0.0
 40
2.0
 41
0.0
 71
     1
 72
     1
  1
%%c
  7
SLDTEXTSTYLE0
 11
0.6556595569959766
 21
-0.755056650404352
 31
0.0
 73
     1
 44
1.0
  0
MTEXT
  5
223
330
218
100
AcDbEntity
  8
VERMASSUNG
100
AcDbMText
 10
40.2484756132
 20
162.0104834274
 30
0.0
 40
2.0
 41
0.0
 71
     1
 72
     1
  1
80
  7
SLDTEXTSTYLE0
 11
0.6556595569959766
 21
-0.755056650404352
 31
0.0
 73
     1
 44
1.0
  0
MTEXT
  5
224
330
218
100
AcDbEntity
  8
VERMASSUNG
100
AcDbMText
 10
42.8629180313
 20
158.9996951093
 30
0.0
 40
2.0
 41
0.0
 71
     1
 72
     1
  1
min.
  7
SLDTEXTSTYLE0
 11
0.6556595569959766
 21
-0.755056650404352
 31
0.0
 73
     1
 44
1.0
  0
ENDBLK
  5
21A
330
218
100
AcDbEntity
  8
0
100
AcDbBlockEnd
  0
BLOCK
  5
226
330
225
100
AcDbEntity
  8
0
100
AcDbBlockBegin
  2
SW_CENTERMARKSYMBOL_0
 70
     0
 10
0.0
 20
0.0
 30
0.0
  3
SW_CENTERMARKSYMBOL_0
  1

  0
LINE
  5
228
330
225
100
AcDbEntity
  8
VERMASSUNG
 62
     0
100
AcDbLine
 10
0.0
 20
0.0
 30
0.0
 11
0.0
 21
2.5
 31
0.0
  0
LINE
  5
229
330
225
100
AcDbEntity
  8
VERMASSUNG
 62
     0
100
AcDbLine
 10
0.0
 20
0.0
 30
0.0
 11
-2.5
 21
0.0
 31
0.0
  0
LINE
  5
22A
330
225
100
AcDbEntity
  8
VERMASSUNG
 62
     0
100
AcDbLine
 10
0.0
 20
0.0
 30
0.0
 11
0.0
 21
-2.5
 31
0.0
  0
LINE
  5
22B
330
225
100
AcDbEntity
  8
VERMASSUNG
 62
     0
100
AcDbLine
 10
0.0
 20
0.0
 30
0.0
 11
2.5
 21
0.0
 31
0.0
  0
LINE
  5
22C
330
225
100
AcDbEntity
  8
VERMASSUNG
 62
     0
100
AcDbLine
 10
0.0
 20
5.0
 30
0.0
 11
0.0
 21
34.0
 31
0.0
  0
LINE
  5
22D
330
225
100
AcDbEntity
  8
VERMASSUNG
 62
     0
100
AcDbLine
 10
-5.0
 20
0.0
 30
0.0
 11
-34.0
 21
0.0
 31
0.0
  0
LINE
  5
22E
330
225
100
AcDbEntity
  8
VERMASSUNG
 62
     0
100
AcDbLine
 10
0.0
 20
-5.0
 30
0.0
 11
0.0
 21
-34.0
 31
0.0
  0
LINE
  5
22F
330
225
100
AcDbEntity
  8
VERMASSUNG
 62
     0
100
AcDbLine
 10
5.0
 20
0.0
 30
0.0
 11
34.0
 21
0.0
 31
0.0
  0
ENDBLK
  5
227
330
225
100
AcDbEntity
  8
0
100
AcDbBlockEnd
  0
ENDSEC
  0
SECTION
  2
ENTITIES
  0
MTEXT
  5
78
330
1F
100
AcDbEntity
  8
KOPF_DÜNN
100
AcDbMText
 10
13.8892156294
 20
23.8442973028
 30
0.0
 40
3.0
 41
0.0
 71
     1
 72
     1
  1
PS6.KDB.RUA.065
  7
SLDTEXTSTYLE0
 73
     1
 44
1.0
  0
MTEXT
  5
79
330
1F
100
AcDbEntity
  8
VERMASSUNG
100
AcDbMText
 10
13.9329988022
 20
28.8834360957
 30
0.0
 40
3.0
 41
0.0
 71
     1
 72
     1
  1
Klemmhalter rechts_Turning tool right 93° /55°
  7
SLDTEXTSTYLE0
 73
     1
 44
1.0
  0
MTEXT
  5
7A
330
1F
100
AcDbEntity
  8
VERMASSUNG
100
AcDbMText
 10
98.8601118557
 20
13.8365368761
 30
0.0
 40
2.0
 41
0.0
 71
     1
 72
     1
  1
Datum: 27.04.2012
  7
SLDTEXTSTYLE0
 73
     1
 44
1.0
  0
MTEXT
  5
7B
330
1F
100
AcDbEntity
  8
VERMASSUNG
100
AcDbMText
 10
13.933048693
 20
18.0482802738
 30
0.0
 40
2.0
 41
0.0
 71
     1
 72
     1
  1
PSC ø63 / DC..11 T3..
  7
SLDTEXTSTYLE0
 73
     1
 44
1.0
  0
MTEXT
  5
7C
330
1F
100
AcDbEntity
  8
VERMASSUNG
100
AcDbMText
 10
13.9808475933
 20
13.9090974274
 30
0.0
 40
2.0
 41
0.0
 71
     1
 72
     1
  1
Gewicht: 1268g
  7
SLDTEXTSTYLE0
 73
     1
 44
1.0
  0
ARC
  5
7D
330
1F
100
AcDbEntity
  8
0
  6
Continuous
 62
     7
370
    25
100
AcDbCircle
 10
208.0235315863
 20
127.1202930215
 30
0.0
 40
2.500000000000004
100
AcDbArc
 50
21.3713330904
 51
158.6286669096
  0
ARC
  5
7E
330
1F
100
AcDbEntity
  8
0
  6
Continuous
 62
     7
370
    25
100
AcDbCircle
 10
187.5235315863
 20
82.4702930215
 30
0.0
 40
0.5
100
AcDbArc
 50
180.0
 51
270.0
  0
ARC
  5
7F
330
1F
100
AcDbEntity
  8
0
  6
Continuous
 62
     7
370
    25
100
AcDbCircle
 10
187.5235315863
 20
144.4702930215
 30
0.0
 40
0.5000000000000284
100
AcDbArc
 50
90.0
 51
180.0
  0
LINE
  5
80
330
1F
100
AcDbEntity
  8
0
  6
Continuous
 62
     7
370
    25
100
AcDbLine
 10
224.2562045983
 20
144.9702930215
 30
0.0
 11
187.5235315863
 21
144.9702930215
 31
0.0
  0
LINE
  5
81
330
1F
100
AcDbEntity
  8
0
  6
Continuous
 62
     7
370
    25
100
AcDbLine
 10
187.5235315863
 20
81.9702930215
 30
0.0
 11
221.5645036742
 21
81.9702930215
 31
0.0
  0
LWPOLYLINE
  5
82
330
1F
100
AcDbEntity
  8
0
  6
Continuous
 62
     7
370
    25
100
AcDbPolyline
 90
        3
 70
   128
 43
0.0
 10
186.8235315863
 20
90.9304727426
 10
186.9489865298
 20
90.8621706276
 10
187.0235315863
 20
90.8094328695
  0
LWPOLYLINE
  5
83
330
1F
100
AcDbEntity
  8
0
  6
Continuous
 62
     7
370
    25
100
AcDbPolyline
 90
        3
 70
   128
 43
0.0
 10
187.0235315863
 20
136.1311531734
 10
186.9489865298
 20
136.0784154153
 10
186.8235315863
 20
136.0101133003
  0
LWPOLYLINE
  5
84
330
1F
100
AcDbEntity
  8
0
  6
Continuous
 62
     7
370
    25
100
AcDbPolyline
 90
        3
 70
   128
 43
0.0
 10
224.7679575195
 20
145.1111603497
 10
224.7091540993
 20
145.0787568474
 10
224.6954482402
 20
145.0719250439
  0
LWPOLYLINE
  5
85
330
1F
100
AcDbEntity
  8
0
  6
Continuous
 62
     7
370
    25
100
AcDbPolyline
 90
        3
 70
   128
 43
0.0
 10
210.8432013234
 20
129.6374778558
 10
211.0004640609
 20
129.0718591599
 10
211.0235315863
 20
128.7502930215
  0
ARC
  5
86
330
1F
100
AcDbEntity
  8
0
  6
Continuous
 62
     7
370
    25
100
AcDbCircle
 10
208.0483457491
 20
128.2915513012
 30
0.0
 40
3.102053508823372
100
AcDbArc
 50
25.7142032865
 51
165.338282606
  0
ARC
  5
87
330
1F
100
AcDbEntity
  8
0
  6
Continuous
 62
     7
370
    25
100
AcDbCircle
 10
208.7154856721
 20
128.8204471668
 30
0.0
 40
2.167862350830988
100
AcDbArc
 50
338.0126371048
 51
22.959161135
  0
LWPOLYLINE
  5
88
330
1F
100
AcDbEntity
  8
0
  6
Continuous
 62
     7
370
    25
100
AcDbPolyline
 90
       15
 70
   128
 43
0.0
 10
205.2455949423
 20
128.2312251126
 10
205.2402429555
 20
128.2504875299
 10
205.1635320629
 20
128.8217228965
 10
205.2410044849
 20
129.3928811782
 10
205.4684836631
 20
129.9331710842
 10
205.8337061362
 20
130.4134654458
 10
206.3169826662
 20
130.8078714696
 10
206.8922596902
 20
131.0951266248
 10
207.5285238749
 20
131.2597449116
 10
208.1914740534
 20
131.2928517156
 10
208.8453704101
 20
131.1926622404
 10
209.4549612231
 20
130.9645777265
 10
209.9873832938
 20
130.6208942692
 10
210.4139336107
 20
130.1801399325
 10
210.7116167357
 20
129.6660758969
  0
LWPOLYLINE
  5
89
330
1F
100
AcDbEntity
  8
0
  6
Continuous
 62
     7
370
    25
100
AcDbPolyline
 90
       27
 70
   128
 43
0.0
 10
210.3732563672
 20
129.5596137167
 10
210.5092799834
 20
129.0511418458
 10
210.5008409381
 20
128.5292538803
 10
210.3484296779
 20
128.0242800519
 10
210.0609037913
 20
127.5655676038
 10
209.6549732377
 20
127.1797752362
 10
209.1542292253
 20
126.8893237993
 10
208.5877731761
 20
126.7110932748
 10
207.9885254566
 20
126.655441773
 10
207.3913121662
 20
126.7256035568
 10
206.8308411704
 20
126.9175010783
 10
206.3396850063
 20
127.2199819513
 10
205.9463878849
 20
127.6154670868
 10
205.6738068054
 20
128.0809723262
 10
205.5377831892
 20
128.5894441971
 10
205.5462222345
 20
129.1113321626
 10
205.6986334947
 20
129.6163059911
 10
205.9861593813
 20
130.0750184392
 10
206.392089935
 20
130.4608108067
 10
206.8928339473
 20
130.7512622436
 10
207.4592899965
 20
130.9294927681
 10
208.058537716
 20
130.98514427
 10
208.6557510064
 20
130.9149824862
 10
209.2162220022
 20
130.7230849646
 10
209.7073781663
 20
130.4206040916
 10
210.1006752877
 20
130.0251189562
 10
210.3732563672
 20
129.5596137167
  0
LINE
  5
8A
330
1F
100
AcDbEntity
  8
0
  6
Continuous
 62
     7
370
    25
100
AcDbLine
 10
242.5907522744
 20
152.4259860669
 30
0.0
 11
242.3893829541
 21
152.7482443432
 31
0.0
  0
LINE
  5
8B
330
1F
100
AcDbEntity
  8
0
  6
Continuous
 62
     7
370
    25
100
AcDbLine
 10
251.4221622659
 20
158.392551298
 30
0.0
 11
242.3893829541
 21
152.7482443432
 31
0.0
  0
LINE
  5
8C
330
1F
100
AcDbEntity
  8
0
  6
Continuous
 62
     7
370
    25
100
AcDbLine
 10
251.6235315863
 20
158.0702930215
 30
0.0
 11
251.4221622659
 21
158.392551298
 31
0.0
  0
LINE
  5
8D
330
1F
100
AcDbEntity
  8
0
  6
Continuous
 62
     7
370
    25
100
AcDbLine
 10
250.6046696631
 20
156.3406087107
 30
0.0
 11
251.6235315863
 21
158.0702930215
 31
0.0
  0
LINE
  5
8E
330
1F
100
AcDbEntity
  8
0
  6
Continuous
 62
     7
370
    25
100
AcDbLine
 10
242.8049213957
 20
152.2998308133
 30
0.0
 11
242.5907522744
 21
152.4259860669
 31
0.0
  0
SPLINE
  5
8F
330
1F
100
AcDbEntity
  8
0
  6
Continuous
 62
     7
370
    25
100
AcDbSpline
210
0.0
220
0.0
230
1.0
 70
    24
 71
     3
 72
    11
 73
     7
 74
     0
 42
0.000000001
 43
0.00000001
 40
0.0
 40
0.0
 40
0.0
 40
0.0
 40
0.3277695037492367
 40
0.6551509568890612
 40
0.9907861901610089
 40
1.0
 40
1.0
 40
1.0
 40
1.0
 10
242.8049213957402
 20
152.2998308132933
 30
0.0
 10
242.86896647793
 20
152.262105376803
 30
0.0
 10
242.9969808184979
 20
152.1866991674609
 30
0.0
 10
243.2080646802867
 20
152.0623612706278
 30
0.0
 10
243.3411975236248
 20
151.9839400327367
 30
0.0
 10
243.4033390334204
 20
151.9473358860794
 30
0.0
 10
243.4049993542646
 20
151.9463578823605
 30
0.0
  0
LINE
  5
90
330
1F
100
AcDbEntity
  8
0
  6
Continuous
 62
     7
370
    25
100
AcDbLine
 10
251.0660877987
 20
147.4336319138
 30
0.0
 11
251.2674571191
 21
147.1113736373
 31
0.0
  0
LINE
  5
91
330
1F
100
AcDbEntity
  8
0
  6
Continuous
 62
     7
370
    25
100
AcDbLine
 10
242.2346778072
 20
141.4670666827
 30
0.0
 11
251.2674571191
 21
147.1113736373
 31
0.0
  0
LINE
  5
92
330
1F
100
AcDbEntity
  8
0
  6
Continuous
 62
     7
370
    25
100
AcDbLine
 10
242.0333084868
 20
141.7893249593
 30
0.0
 11
242.2346778072
 21
141.4670666827
 31
0.0
  0
LINE
  5
93
330
1F
100
AcDbEntity
  8
0
  6
Continuous
 62
     7
370
    25
100
AcDbLine
 10
243.05217041
 20
143.51900927
 30
0.0
 11
242.0333084868
 21
141.7893249593
 31
0.0
  0
LINE
  5
94
330
1F
100
AcDbEntity
  8
0
  6
Continuous
 62
     7
370
    25
100
AcDbLine
 10
250.8519186773
 20
147.5597871674
 30
0.0
 11
251.0660877987
 21
147.4336319138
 31
0.0
  0
SPLINE
  5
95
330
1F
100
AcDbEntity
  8
0
  6
Continuous
 62
     7
370
    25
100
AcDbSpline
210
0.0
220
0.0
230
1.0
 70
    24
 71
     3
 72
    11
 73
     7
 74
     0
 42
0.000000001
 43
0.00000001
 40
0.0
 40
0.0
 40
0.0
 40
0.0
 40
0.009213809838986
 40
0.3448490431109587
 40
0.672230496250745
 40
1.0
 40
1.0
 40
1.0
 40
1.0
 10
250.2518407187966
 20
147.9132600983608
 30
0.0
 10
250.2535010396407
 20
147.9122820946419
 30
0.0
 10
250.3156425494362
 20
147.8756779479836
 30
0.0
 10
250.4487753927745
 20
147.7972567100938
 30
0.0
 10
250.6598592545633
 20
147.6729188132602
 30
0.0
 10
250.7878735951313
 20
147.5975126039183
 30
0.0
 10
250.8519186773212
 20
147.5597871674281
 30
0.0
  0
LINE
  5
96
330
1F
100
AcDbEntity
  8
0
  6
Continuous
 62
     7
370
    25
100
AcDbLine
 10
251.4189344146
 20
158.4141178807
 30
0.0
 11
242.3774641263
 21
152.7643802014
 31
0.0
  0
LINE
  5
97
330
1F
100
AcDbEntity
  8
0
  6
Continuous
 62
     7
370
    25
100
AcDbLine
 10
251.4654581235
 20
147.4111426281
 30
0.0
 11
252.0234382611
 21
158.0580379025
 31
0.0
  0
LINE
  5
98
330
1F
100
AcDbEntity
  8
0
  6
Continuous
 62
     7
370
    25
100
AcDbLine
 10
242.2379056585
 20
141.4455001
 30
0.0
 11
251.2793759467
 21
147.0952377793
 31
0.0
  0
LINE
  5
99
330
1F
100
AcDbEntity
  8
0
  6
Continuous
 62
     7
370
    25
100
AcDbLine
 10
242.1913819495
 20
152.4484753526
 30
0.0
 11
241.6334018119
 21
141.8015800783
 31
0.0
  0
ARC
  5
9A
330
1F
100
AcDbEntity
  8
0
  6
Continuous
 62
     7
370
    25
100
AcDbCircle
 10
251.6235315863
 20
158.0702930215
 30
0.0
 40
0.3800000000000128
100
AcDbArc
 50
357.0
 51
122.0
  0
ARC
  5
9B
330
1F
100
AcDbEntity
  8
0
  6
Continuous
 62
     7
370
    25
100
AcDbCircle
 10
242.5907522744
 20
152.4259860669
 30
0.0
 40
0.380000000000004
100
AcDbArc
 50
122.0
 51
177.0
  0
LINE
  5
9C
330
1F
100
AcDbEntity
  8
0
  6
Continuous
 62
     7
370
    25
100
AcDbLine
 10
242.2112730512
 20
152.4458737303
 30
0.0
 11
241.6538292635
 21
141.8092126226
 31
0.0
  0
ARC
  5
9D
330
1F
100
AcDbEntity
  8
0
  6
Continuous
 62
     7
370
    25
100
AcDbCircle
 10
242.0333084868
 20
141.7893249593
 30
0.0
 40
0.3800000000000069
100
AcDbArc
 50
177.0
 51
302.0
  0
ARC
  5
9E
330
1F
100
AcDbEntity
  8
0
  6
Continuous
 62
     7
370
    25
100
AcDbCircle
 10
251.0660877987
 20
147.4336319138
 30
0.0
 40
0.3800000000000279
100
AcDbArc
 50
302.0
 51
357.0
  0
LINE
  5
9F
330
1F
100
AcDbEntity
  8
0
  6
Continuous
 62
     7
370
    25
100
AcDbLine
 10
251.4455670219
 20
147.4137442505
 30
0.0
 11
252.0030108095
 21
158.0504053581
 31
0.0
  0
SPLINE
  5
A0
330
1F
100
AcDbEntity
  8
0
  6
Continuous
 62
     7
370
    25
100
AcDbSpline
210
0.0
220
0.0
230
1.0
 70
     8
 71
     3
 72
    10
 73
     6
 74
     0
 42
0.000000001
 43
0.00000001
 40
0.0
 40
0.0
 40
0.0
 40
0.0
 40
0.3518022785809916
 40
0.7034245935032154
 40
1.0
 40
1.0
 40
1.0
 40
1.0
 10
242.3774641263419
 20
152.764380201396
 30
0.0
 10
242.3420256838494
 20
152.7369642218717
 30
0.0
 10
242.2711669273193
 20
152.6821462874053
 30
0.0
 10
242.2078392587771
 20
152.5673082156407
 30
0.0
 10
242.1965480926255
 20
152.4857783872059
 30
0.0
 10
242.1913819495173
 20
152.4484753526369
 30
0.0
  0
SPLINE
  5
A1
330
1F
100
AcDbEntity
  8
0
  6
Continuous
 62
     7
370
    25
100
AcDbSpline
210
0.0
220
0.0
230
1.0
 70
     8
 71
     3
 72
    10
 73
     6
 74
     0
 42
0.000000001
 43
0.00000001
 40
0.0
 40
0.0
 40
0.0
 40
0.0
 40
0.3518022785810248
 40
0.7034245935032262
 40
0.9999999999999999
 40
0.9999999999999999
 40
0.9999999999999999
 40
0.9999999999999999
 10
251.2793759467193
 20
147.0952377793252
 30
0.0
 10
251.3148143892118
 20
147.1226537588496
 30
0.0
 10
251.3856731457418
 20
147.1774716933159
 30
0.0
 10
251.4490008142841
 20
147.2923097650805
 30
0.0
 10
251.4602919804357
 20
147.3738395935153
 30
0.0
 10
251.4654581235439
 20
147.4111426280843
 30
0.0
  0
SPLINE
  5
A2
330
1F
100
AcDbEntity
  8
0
  6
Continuous
 62
     7
370
    25
100
AcDbSpline
210
0.0
220
0.0
230
1.0
 70
     8
 71
     3
 72
    14
 73
    10
 74
     0
 42
0.000000001
 43
0.00000001
 40
0.0
 40
0.0
 40
0.0
 40
0.0
 40
0.1588501103508141
 40
0.3173321153185051
 40
0.4720153553660759
 40
0.6236441635915663
 40
0.774661834164422
 40
0.9277417761107857
 40
1.0
 40
1.0
 40
1.0
 40
1.0
 10
241.6334018119281
 20
141.80158007826
 30
0.0
 10
241.6354654049399
 20
141.755533643243
 30
0.0
 10
241.6395878089731
 20
141.6635474771992
 30
0.0
 10
241.7032507550105
 20
141.539185258998
 30
0.0
 10
241.8005929292125
 20
141.444611053735
 30
0.0
 10
241.9229332053573
 20
141.3893187372547
 30
0.0
 10
242.0555214138778
 20
141.3779489631459
 30
0.0
 10
242.1632626319591
 20
141.4034900692383
 30
0.0
 10
242.2197818750549
 20
141.4352998075645
 30
0.0
 10
242.2379056585095
 20
141.4455001000241
 30
0.0
  0
SPLINE
  5
A3
330
1F
100
AcDbEntity
  8
0
  6
Continuous
 62
     7
370
    25
100
AcDbSpline
210
0.0
220
0.0
230
1.0
 70
     8
 71
     3
 72
    14
 73
    10
 74
     0
 42
0.000000001
 43
0.00000001
 40
0.0
 40
0.0
 40
0.0
 40
0.0
 40
0.1588501103508051
 40
0.3173321153184951
 40
0.4720153553660916
 40
0.6236441635915853
 40
0.7746618341644552
 40
0.9277417761107906
 40
0.9999999999999999
 40
0.9999999999999999
 40
0.9999999999999999
 40
0.9999999999999999
 10
252.0234382611331
 20
158.0580379024613
 30
0.0
 10
252.0213746681214
 20
158.1040843374782
 30
0.0
 10
252.0172522640881
 20
158.196070503522
 30
0.0
 10
251.9535893180507
 20
158.3204327217233
 30
0.0
 10
251.8562471438487
 20
158.4150069269863
 30
0.0
 10
251.7339068677039
 20
158.4702992434666
 30
0.0
 10
251.6013186591834
 20
158.4816690175753
 30
0.0
 10
251.4935774411021
 20
158.4561279114829
 30
0.0
 10
251.4370581980063
 20
158.4243181731567
 30
0.0
 10
251.4189344145516
 20
158.4141178806971
 30
0.0
  0
LINE
  5
A4
330
1F
100
AcDbEntity
  8
0
  6
Continuous
 62
     7
370
    25
100
AcDbLine
 10
251.6235315863
 20
158.0702930215
 30
0.0
 11
252.0030108095
 21
158.0504053581
 31
0.0
  0
LINE
  5
A5
330
1F
100
AcDbEntity
  8
0
  6
Continuous
 62
     7
370
    25
100
AcDbLine
 10
251.0660877987
 20
147.4336319138
 30
0.0
 11
251.4455670219
 21
147.4137442505
 31
0.0
  0
LINE
  5
A6
330
1F
100
AcDbEntity
  8
0
  6
Continuous
 62
     7
370
    25
100
AcDbLine
 10
249.9082422774
 20
148.6515568424
 30
0.0
 11
250.1820126651
 21
153.8754070253
 31
0.0
  0
ARC
  5
A7
330
1F
100
AcDbEntity
  8
0
  6
Continuous
 62
     7
370
    25
100
AcDbCircle
 10
248.9096127426
 20
148.7038927986
 30
0.0
 40
1.000000000000054
100
AcDbArc
 50
302.0
 51
357.0
  0
ARC
  5
A8
330
1F
100
AcDbEntity
  8
0
  6
Continuous
 62
     7
370
    25
100
AcDbCircle
 10
249.18338313
 20
153.9277429816
 30
0.0
 40
1.000000000295363
100
AcDbArc
 50
357.0
 51
122.0
  0
LINE
  5
A9
330
1F
100
AcDbEntity
  8
0
  6
Continuous
 62
     7
370
    25
100
AcDbLine
 10
245.0033762073
 20
145.083826903
 30
0.0
 11
249.4395320069
 21
147.8558447025
 31
0.0
  0
ARC
  5
AA
330
1F
100
AcDbEntity
  8
0
  6
Continuous
 62
     7
370
    25
100
AcDbCircle
 10
244.473456943
 20
145.9318749992
 30
0.0
 40
1.000000000000027
100
AcDbArc
 50
177.0
 51
302.0
  0
LINE
  5
AB
330
1F
100
AcDbEntity
  8
0
  6
Continuous
 62
     7
370
    25
100
AcDbLine
 10
243.7485977957
 20
151.2080611383
 30
0.0
 11
243.4748274083
 21
145.9842109554
 31
0.0
  0
ARC
  5
AC
330
1F
100
AcDbEntity
  8
0
  6
Continuous
 62
     7
370
    25
100
AcDbCircle
 10
244.7472273304
 20
151.1557251821
 30
0.0
 40
0.999999999999991
100
AcDbArc
 50
122.0
 51
177.0
  0
LINE
  5
AD
330
1F
100
AcDbEntity
  8
0
  6
Continuous
 62
     7
370
    25
100
AcDbLine
 10
248.6534638658
 20
154.7757910777
 30
0.0
 11
244.2173080662
 21
152.0037732783
 31
0.0
  0
CIRCLE
  5
AE
330
1F
100
AcDbEntity
  8
0
  6
Continuous
 62
     7
370
    25
100
AcDbCircle
 10
246.8284200365
 20
149.9298089904
 30
0.0
 40
3.049999999999986
  0
LINE
  5
AF
330
1F
100
AcDbEntity
  8
0
  6
Continuous
 62
     7
370
    25
100
AcDbLine
 10
242.0333084868
 20
141.7893249593
 30
0.0
 11
241.6538292635
 21
141.8092126226
 31
0.0
  0
LINE
  5
B0
330
1F
100
AcDbEntity
  8
0
  6
Continuous
 62
     7
370
    25
100
AcDbLine
 10
242.5907522744
 20
152.4259860669
 30
0.0
 11
242.2112730512
 21
152.4458737303
 31
0.0
  0
SPLINE
  5
B1
330
1F
100
AcDbEntity
  8
0
  6
Continuous
 62
     7
370
    25
100
AcDbSpline
210
0.0
220
0.0
230
1.0
 70
    24
 71
     3
 72
    11
 73
     7
 74
     0
 42
0.000000001
 43
0.00000001
 40
0.0
 40
0.0
 40
0.0
 40
0.0
 40
0.007298723869148
 40
0.1268462096078904
 40
0.5874298328383075
 40
0.9999999999999999
 40
0.9999999999999999
 40
0.9999999999999999
 40
0.9999999999999999
 10
250.2557120982873
 20
155.7481963227641
 30
0.0
 10
250.2564734122041
 20
155.749488777323
 30
0.0
 10
250.2697044627827
 20
155.7719506439206
 30
0.0
 10
250.3323677077422
 20
155.878331723824
 30
0.0
 10
250.4499328984525
 20
156.0779178122113
 30
0.0
 10
250.5550168799339
 20
156.2563150120026
 30
0.0
 10
250.604669663078
 20
156.3406087107175
 30
0.0
  0
SPLINE
  5
B2
330
1F
100
AcDbEntity
  8
0
  6
Continuous
 62
     7
370
    25
100
AcDbSpline
210
0.0
220
0.0
230
1.0
 70
    24
 71
     3
 72
    11
 73
     7
 74
     0
 42
0.000000001
 43
0.00000001
 40
0.0
 40
0.0
 40
0.0
 40
0.0
 40
0.4125701671613246
 40
0.8731537903910513
 40
0.9927012761303022
 40
1.0
 40
1.0
 40
1.0
 40
1.0
 10
243.0521704099836
 20
143.5190092700029
 30
0.0
 10
243.1018231931275
 20
143.6033029687182
 30
0.0
 10
243.2069071746083
 20
143.7817001685104
 30
0.0
 10
243.3244723653187
 20
143.981286256895
 30
0.0
 10
243.3871356102786
 20
144.0876673368017
 30
0.0
 10
243.400366660857
 20
144.1101292033984
 30
0.0
 10
243.4011279747739
 20
144.1114216579573
 30
0.0
  0
ARC
  5
B3
330
1F
100
AcDbEntity
  8
0
  6
Continuous
 62
     7
370
    25
100
AcDbCircle
 10
246.7633250815
 20
149.8192996859
 30
0.0
 40
1.675
100
AcDbArc
 50
149.07804828
 51
207.6779814073
  0
ARC
  5
B4
330
1F
100
AcDbEntity
  8
0
  6
Continuous
 62
     7
370
    25
100
AcDbCircle
 10
246.7633250815
 20
149.8192996859
 30
0.0
 40
1.675000000000024
100
AcDbArc
 50
207.6779814073
 51
267.784823142
  0
ARC
  5
B5
330
1F
100
AcDbEntity
  8
0
  6
Continuous
 62
     7
370
    25
100
AcDbCircle
 10
246.7633250815
 20
149.8192996859
 30
0.0
 40
1.675000000000024
100
AcDbArc
 50
267.784823142
 51
326.3847562692
  0
LINE
  5
B6
330
1F
100
AcDbEntity
  8
0
  6
Continuous
 62
     7
370
    25
100
AcDbLine
 10
248.2034490687
 20
148.9639238028
 30
0.0
 11
248.1582214973
 21
148.8919976913
 31
0.0
  0
ARC
  5
B7
330
1F
100
AcDbEntity
  8
0
  6
Continuous
 62
     7
370
    25
100
AcDbCircle
 10
246.7633250815
 20
149.8192996859
 30
0.0
 40
1.675000000000014
100
AcDbArc
 50
329.2913870411
 51
25.7351052074
  0
LINE
  5
B8
330
1F
100
AcDbEntity
  8
0
  6
Continuous
 62
     7
370
    25
100
AcDbLine
 10
248.2163351186
 20
150.6525984511
 30
0.0
 11
248.2721837555
 21
150.5466032689
 31
0.0
  0
ARC
  5
B9
330
1F
100
AcDbEntity
  8
0
  6
Continuous
 62
     7
370
    25
100
AcDbCircle
 10
246.7633250815
 20
149.8192996859
 30
0.0
 40
1.674999999999978
100
AcDbArc
 50
29.8341971076
 51
85.6286074416
  0
LINE
  5
BA
330
1F
100
AcDbEntity
  8
0
  6
Continuous
 62
     7
370
    25
100
AcDbLine
 10
246.7712855611
 20
151.4942807696
 30
0.0
 11
246.8909955849
 21
151.4894269992
 31
0.0
  0
ARC
  5
BB
330
1F
100
AcDbEntity
  8
0
  6
Continuous
 62
     7
370
    25
100
AcDbCircle
 10
246.7633250815
 20
149.8192996859
 30
0.0
 40
1.674999999999997
100
AcDbArc
 50
89.7276993419
 51
146.1714175082
  0
LINE
  5
BC
330
1F
100
AcDbEntity
  8
0
  6
Continuous
 62
     7
370
    25
100
AcDbLine
 10
245.3263960311
 20
150.6800318766
 30
0.0
 11
245.3718911026
 21
150.7517890866
 31
0.0
  0
CIRCLE
  5
BD
330
1F
100
AcDbEntity
  8
0
  6
Continuous
 62
     7
370
    25
100
AcDbCircle
 10
246.7633250815
 20
149.8192996859
 30
0.0
 40
1.800000000000013
  0
SPLINE
  5
BE
330
1F
100
AcDbEntity
  8
0
  6
Continuous
 62
     7
370
    25
100
AcDbSpline
210
0.0
220
0.0
230
1.0
 70
     8
 71
     3
 72
    11
 73
     7
 74
     0
 42
0.000000001
 43
0.00000001
 40
0.0
 40
0.0
 40
0.0
 40
0.0
 40
0.2657596322624823
 40
0.5530029385954799
 40
0.8418208483437817
 40
1.0
 40
1.0
 40
1.0
 40
1.0
 10
246.7712855610887
 20
151.494280769593
 30
0.0
 10
246.737418882662
 20
151.4863691518914
 30
0.0
 10
246.6669477861639
 20
151.4699063512743
 30
0.0
 10
246.5771135553481
 20
151.4036643728374
 30
0.0
 10
246.5198504746261
 20
151.3259180998321
 30
0.0
 10
246.5014883151339
 20
151.2714075371209
 30
0.0
 10
246.4949904853675
 20
151.2521178475223
 30
0.0
  0
SPLINE
  5
BF
330
1F
100
AcDbEntity
  8
0
  6
Continuous
 62
     7
370
    25
100
AcDbSpline
210
0.0
220
0.0
230
1.0
 70
     8
 71
     3
 72
    12
 73
     8
 74
     0
 42
0.000000001
 43
0.00000001
 40
0.0
 40
0.0
 40
0.0
 40
0.0
 40
0.2057904614204098
 40
0.4120344203360419
 40
0.6141302471427765
 40
0.8132633242112807
 40
1.0
 40
1.0
 40
1.0
 40
1.0
 10
246.4949904853675
 20
151.2521178475223
 30
0.0
 10
246.4714490806437
 20
151.1909381428836
 30
0.0
 10
246.4243143933392
 20
151.0684439127665
 30
0.0
 10
246.2814837814943
 20
150.9264599392834
 30
0.0
 10
246.1057629964766
 20
150.8388973050709
 30
0.0
 10
245.9156503349106
 20
150.8106621001121
 30
0.0
 10
245.7966019175017
 20
150.8403250172028
 30
0.0
 10
245.7389899757513
 20
150.8546800022481
 30
0.0
  0
SPLINE
  5
C0
330
1F
100
AcDbEntity
  8
0
  6
Continuous
 62
     7
370
    25
100
AcDbSpline
210
0.0
220
0.0
230
1.0
 70
     8
 71
     3
 72
    11
 73
     7
 74
     0
 42
0.000000001
 43
0.00000001
 40
0.0
 40
0.0
 40
0.0
 40
0.0
 40
0.2802371411012735
 40
0.5612869875923641
 40
0.8399906057824533
 40
1.0
 40
1.0
 40
1.0
 40
1.0
 10
245.7389899757513
 20
150.8546800022481
 30
0.0
 10
245.7021445814769
 20
150.863484413332
 30
0.0
 10
245.6283469389602
 20
150.8811187688474
 30
0.0
 10
245.51451568348
 20
150.8587616657595
 30
0.0
 10
245.4272917848282
 20
150.8112574725576
 30
0.0
 10
245.3866970118401
 20
150.767682095326
 30
0.0
 10
245.3718911026226
 20
150.7517890866473
 30
0.0
  0
SPLINE
  5
C1
330
1F
100
AcDbEntity
  8
0
  6
Continuous
 62
     7
370
    25
100
AcDbSpline
210
0.0
220
0.0
230
1.0
 70
     8
 71
     3
 72
    11
 73
     7
 74
     0
 42
0.000000001
 43
0.00000001
 40
0.0
 40
0.0
 40
0.0
 40
0.0
 40
0.2669010467949883
 40
0.5546143410792668
 40
0.8439070439785926
 40
0.9999999999999999
 40
0.9999999999999999
 40
0.9999999999999999
 40
0.9999999999999999
 10
248.2163351185544
 20
150.6525984511082
 30
0.0
 10
248.1924324197143
 20
150.6779908541926
 30
0.0
 10
248.1427631519223
 20
150.7307556937245
 30
0.0
 10
248.0402678988923
 20
150.7751973881027
 30
0.0
 10
247.9445882503808
 20
150.7856135473903
 30
0.0
 10
247.888506702659
 20
150.774277866691
 30
0.0
 10
247.8688519733546
 20
150.7703050851848
 30
0.0
  0
SPLINE
  5
C2
330
1F
100
AcDbEntity
  8
0
  6
Continuous
 62
     7
370
    25
100
AcDbSpline
210
0.0
220
0.0
230
1.0
 70
     8
 71
     3
 72
    12
 73
     8
 74
     0
 42
0.000000001
 43
0.00000001
 40
0.0
 40
0.0
 40
0.0
 40
0.0
 40
0.2058401281337995
 40
0.4120619935509935
 40
0.614138733096982
 40
0.8132772113524542
 40
1.0
 40
1.0
 40
1.0
 40
1.0
 10
247.8688519733546
 20
150.7703050851848
 30
0.0
 10
247.8040803086851
 20
150.7601014610904
 30
0.0
 10
247.6744168581651
 20
150.7396752899454
 30
0.0
 10
247.4800364322938
 20
150.7923957164254
 30
0.0
 10
247.3163610733093
 20
150.9007936292923
 30
0.0
 10
247.1968656501263
 20
151.0513107569444
 30
0.0
 10
247.1630326387703
 20
151.1692362710168
 30
0.0
 10
247.1466604481136
 20
151.2263018091493
 30
0.0
  0
SPLINE
  5
C3
330
1F
100
AcDbEntity
  8
0
  6
Continuous
 62
     7
370
    25
100
AcDbSpline
210
0.0
220
0.0
230
1.0
 70
     8
 71
     3
 72
    11
 73
     7
 74
     0
 42
0.000000001
 43
0.00000001
 40
0.0
 40
0.0
 40
0.0
 40
0.0
 40
0.292899322061901
 40
0.5864344719079151
 40
0.8775178868033389
 40
1.0
 40
1.0
 40
1.0
 40
1.0
 10
247.1466604481136
 20
151.2263018091493
 30
0.0
 10
247.1358515598883
 20
151.2626349212874
 30
0.0
 10
247.1142103194315
 20
151.3353800177237
 30
0.0
 10
247.0378938349732
 20
151.422859950151
 30
0.0
 10
246.9581472013566
 20
151.4713247463302
 30
0.0
 10
246.9063391313585
 20
151.4852907955712
 30
0.0
 10
246.8909955848998
 20
151.4894269991662
 30
0.0
  0
SPLINE
  5
C4
330
1F
100
AcDbEntity
  8
0
  6
Continuous
 62
     7
370
    25
100
AcDbSpline
210
0.0
220
0.0
230
1.0
 70
     8
 71
     3
 72
    11
 73
     7
 74
     0
 42
0.000000001
 43
0.00000001
 40
0.0
 40
0.0
 40
0.0
 40
0.0
 40
0.2431090893443753
 40
0.5182793655622844
 40
0.7947794085752111
 40
0.9999999999999999
 40
0.9999999999999999
 40
0.9999999999999999
 40
0.9999999999999999
 10
248.2034490687162
 20
148.9639238028177
 30
0.0
 10
248.2147566406758
 20
148.9950944812103
 30
0.0
 10
248.2388630253325
 20
149.0615466219553
 30
0.0
 10
248.2336410762821
 20
149.1712861847945
 30
0.0
 10
248.1983635453736
 20
149.2691624608217
 30
0.0
 10
248.15639842763
 20
149.318556930606
 30
0.0
 10
248.1385206252962
 20
149.3395997541382
 30
0.0
  0
SPLINE
  5
C5
330
1F
100
AcDbEntity
  8
0
  6
Continuous
 62
     7
370
    25
100
AcDbSpline
210
0.0
220
0.0
230
1.0
 70
     8
 71
     3
 72
    12
 73
     8
 74
     0
 42
0.000000001
 43
0.00000001
 40
0.0
 40
0.0
 40
0.0
 40
0.0
 40
0.2058179564998953
 40
0.4120215045907099
 40
0.6140779969168088
 40
0.813213000645346
 40
0.9999999999999999
 40
0.9999999999999999
 40
0.9999999999999999
 40
0.9999999999999999
 10
248.1385206252962
 20
149.3395997541382
 30
0.0
 10
248.0973014027464
 20
149.3905869360366
 30
0.0
 10
248.0147857351055
 20
149.49265682225
 30
0.0
 10
247.9632488661895
 20
149.6873383485013
 30
0.0
 10
247.9752731441556
 20
149.8832709375328
 30
0.0
 10
248.0458636180127
 20
150.0620299928461
 30
0.0
 10
248.1310831773615
 20
150.1503077280236
 30
0.0
 10
248.1723296096716
 20
150.1930343233769
 30
0.0
  0
SPLINE
  5
C6
330
1F
100
AcDbEntity
  8
0
  6
Continuous
 62
     7
370
    25
100
AcDbSpline
210
0.0
220
0.0
230
1.0
 70
     8
 71
     3
 72
    11
 73
     7
 74
     0
 42
0.000000001
 43
0.00000001
 40
0.0
 40
0.0
 40
0.0
 40
0.0
 40
0.2908641666076281
 40
0.583956078989193
 40
0.8745988053617392
 40
1.0
 40
1.0
 40
1.0
 40
1.0
 10
248.1723296096716
 20
150.1930343233769
 30
0.0
 10
248.1982623009864
 20
150.2203982851372
 30
0.0
 10
248.2503263036253
 20
150.2753357908518
 30
0.0
 10
248.2880583259357
 20
150.3848998929259
 30
0.0
 10
248.2903494638604
 20
150.4786179347947
 30
0.0
 10
248.2763910175974
 20
150.5308575509057
 30
0.0
 10
248.2721837554592
 20
150.5466032689343
 30
0.0
  0
SPLINE
  5
C7
330
1F
100
AcDbEntity
  8
0
  6
Continuous
 62
     7
370
    25
100
AcDbSpline
210
0.0
220
0.0
230
1.0
 70
     8
 71
     3
 72
    12
 73
     8
 74
     0
 42
0.000000001
 43
0.00000001
 40
0.0
 40
0.0
 40
0.0
 40
0.0
 40
0.205858574121368
 40
0.4121026961456852
 40
0.6141937841967353
 40
0.8133180967416312
 40
1.0
 40
1.0
 40
1.0
 40
1.0
 10
245.3907976493222
 20
150.3032252788132
 30
0.0
 10
245.4320223781532
 20
150.2522296499362
 30
0.0
 10
245.5145490446846
 20
150.1501428836137
 30
0.0
 10
245.5660790456276
 20
149.9554290214846
 30
0.0
 10
245.5540289571179
 20
149.7594736420826
 30
0.0
 10
245.483415553139
 20
149.58074275408
 30
0.0
 10
245.3982150438443
 20
149.4924926907858
 30
0.0
 10
245.3569886649469
 20
149.4497907095745
 30
0.0
  0
SPLINE
  5
C8
330
1F
100
AcDbEntity
  8
0
  6
Continuous
 62
     7
370
    25
100
AcDbSpline
210
0.0
220
0.0
230
1.0
 70
     8
 71
     3
 72
    11
 73
     7
 74
     0
 42
0.000000001
 43
0.00000001
 40
0.0
 40
0.0
 40
0.0
 40
0.0
 40
0.2524782265335552
 40
0.5068902417933465
 40
0.7591786113116985
 40
0.9999999999999999
 40
0.9999999999999999
 40
0.9999999999999999
 40
0.9999999999999999
 10
245.3569886649469
 20
149.4497907095745
 30
0.0
 10
245.3310456115138
 20
149.4224201907962
 30
0.0
 10
245.2789608008429
 20
149.3674695161499
 30
0.0
 10
245.2414012528835
 20
149.2580322239117
 30
0.0
 10
245.2379700833089
 20
149.143779192733
 30
0.0
 10
245.2662033103573
 20
149.0748986333417
 30
0.0
 10
245.2799916502387
 20
149.0412592423335
 30
0.0
  0
SPLINE
  5
C9
330
1F
100
AcDbEntity
  8
0
  6
Continuous
 62
     7
370
    25
100
AcDbSpline
210
0.0
220
0.0
230
1.0
 70
     8
 71
     3
 72
    11
 73
     7
 74
     0
 42
0.000000001
 43
0.00000001
 40
0.0
 40
0.0
 40
0.0
 40
0.0
 40
0.2423611237744784
 40
0.5166847928456885
 40
0.7923341374632513
 40
1.0
 40
1.0
 40
1.0
 40
1.0
 10
245.3263960310502
 20
150.6800318765718
 30
0.0
 10
245.3149723662521
 20
150.6489033309639
 30
0.0
 10
245.290618485614
 20
150.5825410122533
 30
0.0
 10
245.2954337037604
 20
150.4727860567662
 30
0.0
 10
245.330482032299
 20
150.3743676822897
 30
0.0
 10
245.3726705324112
 20
150.3246062532406
 30
0.0
 10
245.3907976493222
 20
150.3032252788132
 30
0.0
  0
SPLINE
  5
CA
330
1F
100
AcDbEntity
  8
0
  6
Continuous
 62
     7
370
    25
100
AcDbSpline
210
0.0
220
0.0
230
1.0
 70
     8
 71
     3
 72
    12
 73
     8
 74
     0
 42
0.000000001
 43
0.00000001
 40
0.0
 40
0.0
 40
0.0
 40
0.0
 40
0.0091735205190169
 40
0.2576775215525393
 40
0.5061895192299373
 40
0.7560357430218675
 40
1.0
 40
1.0
 40
1.0
 40
1.0
 10
246.6985821462476
 20
148.145551391689
 30
0.0
 10
246.6999529038758
 20
148.1455038834187
 30
0.0
 10
246.7384564890093
 20
148.1441694106472
 30
0.0
 10
246.8151836960886
 20
148.1550687042395
 30
0.0
 10
246.9154789678342
 20
148.2070971041244
 30
0.0
 10
246.9950751647155
 20
148.2879178243513
 30
0.0
 10
247.0213478959457
 20
148.3567172304773
 30
0.0
 10
247.0343277892509
 20
148.3907071854291
 30
0.0
  0
SPLINE
  5
CB
330
1F
100
AcDbEntity
  8
0
  6
Continuous
 62
     7
370
    25
100
AcDbSpline
210
0.0
220
0.0
230
1.0
 70
     8
 71
     3
 72
    12
 73
     8
 74
     0
 42
0.000000001
 43
0.00000001
 40
0.0
 40
0.0
 40
0.0
 40
0.0
 40
0.2057532787804301
 40
0.4119604088044633
 40
0.6140154573248907
 40
0.8131414684040803
 40
0.9999999999999999
 40
0.9999999999999999
 40
0.9999999999999999
 40
0.9999999999999999
 10
247.0343277892509
 20
148.3907071854291
 30
0.0
 10
247.0578649246717
 20
148.4518785168075
 30
0.0
 10
247.1049911138023
 20
148.5743561114839
 30
0.0
 10
247.2477915851078
 20
148.7163296579535
 30
0.0
 10
247.4234766168352
 20
148.8039000262001
 30
0.0
 10
247.6135987389801
 20
148.832170503879
 30
0.0
 10
247.7326800047124
 20
148.8025059187718
 30
0.0
 10
247.7903282988671
 20
148.7881450307033
 30
0.0
  0
SPLINE
  5
CC
330
1F
100
AcDbEntity
  8
0
  6
Continuous
 62
     7
370
    25
100
AcDbSpline
210
0.0
220
0.0
230
1.0
 70
     8
 71
     3
 72
    11
 73
     7
 74
     0
 42
0.000000001
 43
0.00000001
 40
0.0
 40
0.0
 40
0.0
 40
0.0
 40
0.2794069064555177
 40
0.5596240257155995
 40
0.8375007392219173
 40
0.9999999999999999
 40
0.9999999999999999
 40
0.9999999999999999
 40
0.9999999999999999
 10
247.7903282988671
 20
148.7881450307033
 30
0.0
 10
247.8271769658805
 20
148.7793400654543
 30
0.0
 10
247.9009811521761
 20
148.7617046026757
 30
0.0
 10
248.0148161088436
 20
148.7840702844937
 30
0.0
 10
248.1024186083739
 20
148.8317729623941
 30
0.0
 10
248.1431803616174
 20
148.875764690913
 30
0.0
 10
248.1582214972762
 20
148.8919976913084
 30
0.0
  0
SPLINE
  5
CD
330
1F
100
AcDbEntity
  8
0
  6
Continuous
 62
     7
370
    25
100
AcDbSpline
210
0.0
220
0.0
230
1.0
 70
     8
 71
     3
 72
    12
 73
     8
 74
     0
 42
0.000000001
 43
0.00000001
 40
0.0
 40
0.0
 40
0.0
 40
0.0
 40
0.0091681771491162
 40
0.2573268097002275
 40
0.505493468742964
 40
0.7549925359452806
 40
1.0
 40
1.0
 40
1.0
 40
1.0
 10
245.2799916502387
 20
149.0412592423335
 30
0.0
 10
245.2806341493763
 20
149.040046200481
 30
0.0
 10
245.2986674236734
 20
149.005999280918
 30
0.0
 10
245.346357835137
 20
148.9449114905658
 30
0.0
 10
245.4414494345098
 20
148.8838923728305
 30
0.0
 10
245.551395181351
 20
148.8551079722068
 30
0.0
 10
245.624330083882
 20
148.866751207752
 30
0.0
 10
245.6604663012638
 20
148.8725199477666
 30
0.0
  0
SPLINE
  5
CE
330
1F
100
AcDbEntity
  8
0
  6
Continuous
 62
     7
370
    25
100
AcDbSpline
210
0.0
220
0.0
230
1.0
 70
     8
 71
     3
 72
    12
 73
     8
 74
     0
 42
0.000000001
 43
0.00000001
 40
0.0
 40
0.0
 40
0.0
 40
0.0
 40
0.2058435564095089
 40
0.4120691620553589
 40
0.6141397217727276
 40
0.8132604579561157
 40
1.0
 40
1.0
 40
1.0
 40
1.0
 10
245.6604663012638
 20
148.8725199477666
 30
0.0
 10
245.7252386470282
 20
148.8827236281806
 30
0.0
 10
245.8549035571621
 20
148.9031499272178
 30
0.0
 10
246.0492844522165
 20
148.8504282805092
 30
0.0
 10
246.2129554697298
 20
148.742031453684
 30
0.0
 10
246.3324503136116
 20
148.591517986777
 30
0.0
 10
246.3662838640393
 20
148.4735935209644
 30
0.0
 10
246.3826578265048
 20
148.416523223802
 30
0.0
  0
SPLINE
  5
CF
330
1F
100
AcDbEntity
  8
0
  6
Continuous
 62
     7
370
    25
100
AcDbSpline
210
0.0
220
0.0
230
1.0
 70
     8
 71
     3
 72
    11
 73
     7
 74
     0
 42
0.000000001
 43
0.00000001
 40
0.0
 40
0.0
 40
0.0
 40
0.0
 40
0.2535086227483745
 40
0.507567474260482
 40
0.7595056251925297
 40
0.9999999999999999
 40
0.9999999999999999
 40
0.9999999999999999
 40
0.9999999999999999
 10
246.3826578265048
 20
148.416523223802
 30
0.0
 10
246.3934683612478
 20
148.3801745749996
 30
0.0
 10
246.4151128945004
 20
148.3073983843302
 30
0.0
 10
246.4914152968443
 20
148.2201334031942
 30
0.0
 10
246.5887563913372
 20
148.1602155299332
 30
0.0
 10
246.6625451605056
 20
148.1503631167826
 30
0.0
 10
246.6985821462476
 20
148.145551391689
 30
0.0
  0
CIRCLE
  5
D0
330
1F
100
AcDbEntity
  8
0
  6
Continuous
 62
     7
370
    25
100
AcDbCircle
 10
246.7633250815
 20
149.8192996859
 30
0.0
 40
2.62500000000002
  0
LINE
  5
D1
330
1F
100
AcDbEntity
  8
0
  6
Continuous
 62
     7
370
    25
100
AcDbLine
 10
187.0235315863
 20
82.4702930215
 30
0.0
 11
187.0235315863
 21
144.4702930188
 31
0.0
  0
SPLINE
  5
D2
330
1F
100
AcDbEntity
  8
0
  6
Continuous
 62
     7
370
    25
100
AcDbSpline
210
0.0
220
0.0
230
1.0
 70
    11
 71
     3
 72
    68
 73
    64
 74
     0
 42
0.000000001
 43
0.00000001
 40
0.0
 40
0.0
 40
0.0
 40
0.0
 40
0.0312499999999999
 40
0.0312499999999999
 40
0.0624999999999998
 40
0.0624999999999998
 40
0.0937499999999997
 40
0.0937499999999997
 40
0.1249999999999996
 40
0.1249999999999996
 40
0.1562499999999995
 40
0.1562499999999995
 40
0.1874999999999994
 40
0.1874999999999994
 40
0.2187499999999993
 40
0.2187499999999993
 40
0.2499999999999992
 40
0.2499999999999992
 40
0.2812499999999991
 40
0.2812499999999991
 40
0.3124999999999989
 40
0.3124999999999989
 40
0.3437499999999988
 40
0.3437499999999988
 40
0.3749999999999988
 40
0.3749999999999988
 40
0.4062499999999987
 40
0.4062499999999987
 40
0.4374999999999986
 40
0.4374999999999986
 40
0.4687499999999984
 40
0.4687499999999984
 40
0.4999999999999983
 40
0.4999999999999983
 40
0.5312499999999982
 40
0.5312499999999982
 40
0.5624999999999981
 40
0.5624999999999981
 40
0.593749999999998
 40
0.593749999999998
 40
0.6249999999999979
 40
0.6249999999999979
 40
0.6562499999999978
 40
0.6562499999999978
 40
0.6874999999999977
 40
0.6874999999999977
 40
0.7187499999999976
 40
0.7187499999999976
 40
0.7499999999999976
 40
0.7499999999999976
 40
0.7812499999999979
 40
0.7812499999999979
 40
0.8124999999999982
 40
0.8124999999999982
 40
0.8437499999999986
 40
0.8437499999999986
 40
0.8749999999999989
 40
0.8749999999999989
 40
0.9062499999999992
 40
0.9062499999999992
 40
0.9374999999999996
 40
0.9374999999999996
 40
1.0
 40
1.0
 40
1.0
 40
1.0
 10
208.023531586306
 20
131.7467779530971
 30
0.0
 10
208.2218463964909
 20
131.7467779530971
 30
0.0
 10
208.4168246427406
 20
131.7308558995
 30
0.0
 10
208.8003878678861
 20
131.6683828780518
 30
0.0
 10
208.9909686433484
 20
131.6210654049215
 30
0.0
 10
209.3542179301352
 20
131.4972774123459
 30
0.0
 10
209.5264846691311
 20
131.4214098717263
 30
0.0
 10
209.8525063858391
 20
131.2415249238357
 30
0.0
 10
210.0067817526157
 20
131.1365914748231
 30
0.0
 10
210.2833446738668
 20
130.9063677135746
 30
0.0
 10
210.4074875641822
 20
130.7802769337785
 30
0.0
 10
210.6268023365531
 20
130.5050096640607
 30
0.0
 10
210.7199327919564
 20
130.3579038249935
 30
0.0
 10
210.8695871224826
 20
130.0519141625191
 30
0.0
 10
210.9272340924744
 20
129.8907672690354
 30
0.0
 10
211.0043406542968
 20
129.5589616736067
 30
0.0
 10
211.0234244356402
 20
129.3912452477746
 30
0.0
 10
211.0236378457176
 20
129.0521729404388
 30
0.0
 10
211.0041425552181
 20
128.8790126160962
 30
0.0
 10
210.9275726807411
 20
128.5421544117491
 30
0.0
 10
210.8709194395319
 20
128.3775361259638
 30
0.0
 10
210.7206434887226
 20
128.0562524243683
 30
0.0
 10
210.6267598263101
 20
127.9002250187052
 30
0.0
 10
210.4096946262137
 20
127.6101747994337
 30
0.0
 10
210.285763369939
 20
127.4743183992444
 30
0.0
 10
210.0058065247867
 20
127.2222030233707
 30
0.0
 10
209.8543473738849
 20
127.110075712828
 30
0.0
 10
209.5296143649372
 20
126.9132550167069
 30
0.0
 10
209.3542499261208
 20
126.8278355933645
 30
0.0
 10
208.990932907221
 20
126.6907200593962
 30
0.0
 10
208.8039414542304
 20
126.6388916163562
 30
0.0
 10
208.4193699558737
 20
126.5687024359318
 30
0.0
 10
208.2204621027543
 20
126.5506912635123
 30
0.0
 10
207.8287987030577
 20
126.550560165067
 30
0.0
 10
207.6340909666709
 20
126.5678583438163
 30
0.0
 10
207.2469739030159
 20
126.6378734223106
 30
0.0
 10
207.057502900289
 20
126.6903731841385
 30
0.0
 10
206.6963704022714
 20
126.8263242908166
 30
0.0
 10
206.5219511529111
 20
126.9107636754182
 30
0.0
 10
206.1937531151072
 20
127.1092134420261
 30
0.0
 10
206.0426748776566
 20
127.2212724281535
 30
0.0
 10
205.765838784629
 20
127.4698916062335
 30
0.0
 10
205.6390749681165
 20
127.6081247842139
 30
0.0
 10
205.4210704299596
 20
127.8989724464896
 30
0.0
 10
205.3287892504295
 20
128.0520012469357
 30
0.0
 10
205.1779095632641
 20
128.3729680771925
 30
0.0
 10
205.1199631287941
 20
128.5407473086289
 30
0.0
 10
205.0433509463794
 20
128.8764551412481
 30
0.0
 10
205.023722926364
 20
129.0461808976758
 30
0.0
 10
205.0233430031189
 20
129.3894238662502
 30
0.0
 10
205.0426553436235
 20
129.5576844279591
 30
0.0
 10
205.1185759603003
 20
129.8863460236838
 30
0.0
 10
205.1760817292664
 20
130.048658153432
 30
0.0
 10
205.3264418758555
 20
130.3568956322525
 30
0.0
 10
205.4184611637469
 20
130.5022388407725
 30
0.0
 10
205.6358051787369
 20
130.7760436478014
 30
0.0
 10
205.7623245988685
 20
130.9050448850263
 30
0.0
 10
206.0387582183283
 20
131.1354842681711
 30
0.0
 10
206.1895878084046
 20
131.2384421403658
 30
0.0
 10
206.5170994006448
 20
131.4198226806535
 30
0.0
 10
206.6916479337329
 20
131.4967153187347
 30
0.0
 10
207.2328528021045
 20
131.6816061114702
 30
0.0
 10
207.6269019659362
 20
131.7467779530971
 30
0.0
 10
208.023531586306
 20
131.7467779530971
 30
0.0
  0
SPLINE
  5
D3
330
1F
100
AcDbEntity
  8
0
  6
Continuous
 62
     7
370
    25
100
AcDbSpline
210
0.0
220
0.0
230
1.0
 70
     8
 71
     3
 72
    14
 73
    10
 74
     0
 42
0.000000001
 43
0.00000001
 40
0.0
 40
0.0
 40
0.0
 40
0.0
 40
0.25
 40
0.25
 40
0.5
 40
0.5
 40
0.75
 40
0.75
 40
1.0
 40
1.0
 40
1.0
 40
1.0
 10
220.8319385564454
 20
144.6961105440433
 30
0.0
 10
220.9489996979357
 20
144.7541321169704
 30
0.0
 10
221.1129543109437
 20
144.8001786884187
 30
0.0
 10
221.5323482938467
 20
144.8734701714395
 30
0.0
 10
221.79135962561
 20
144.9006998787395
 30
0.0
 10
222.3789824950952
 20
144.9392347047964
 30
0.0
 10
222.7100811869652
 20
144.9510797832916
 30
0.0
 10
223.4443841741662
 20
144.9658531422717
 30
0.0
 10
223.8373515489976
 20
144.9686509849579
 30
0.0
 10
224.256204598327
 20
144.969729206042
 30
0.0
  0
ELLIPSE
  5
D4
330
1F
100
AcDbEntity
  8
0
  6
Continuous
 62
     7
370
    25
100
AcDbEllipse
 10
221.9431468286
 20
113.4702930215
 30
0.0
 11
0.0
 21
31.49999999999997
 31
0.0
210
0.0
220
0.0
230
1.0
 40
0.2679491924
 41
0.1320368298873457
 42
3.009555823702448
  0
SPLINE
  5
D5
330
1F
100
AcDbEntity
  8
0
  6
Continuous
 62
     7
370
    25
100
AcDbSpline
210
0.0
220
0.0
230
1.0
 70
     8
 71
     3
 72
    10
 73
     6
 74
     0
 42
0.000000001
 43
0.00000001
 40
0.0
 40
0.0
 40
0.0
 40
0.0
 40
0.5
 40
0.5
 40
1.0
 40
1.0
 40
1.0
 40
1.0
 10
221.9078683070934
 20
82.0335476623838
 30
0.0
 10
221.6598003709684
 20
82.05360533541328
 30
0.0
 10
221.4422743120512
 20
82.0801877727493
 30
0.0
 10
221.0796859672826
 20
82.14995223463153
 30
0.0
 10
220.9367064091623
 20
82.19254711745636
 30
0.0
 10
220.8319385564454
 20
82.2444754988939
 30
0.0
  0
ELLIPSE
  5
D6
330
1F
100
AcDbEntity
  8
0
  6
Continuous
 62
     7
370
    25
100
AcDbEllipse
 10
243.6210411278
 20
113.4702930215
 30
0.0
 11
22.33599140011941
 21
31.42058670065012
 31
0.0
210
0.0
220
0.0
230
1.0
 40
0.1000778042
 41
3.212615426319576
 42
3.275999277030581
  0
SPLINE
  5
D7
330
1F
100
AcDbEntity
  8
0
  6
Continuous
 62
     7
370
    25
100
AcDbSpline
210
0.0
220
0.0
230
1.0
 70
     8
 71
     3
 72
    12
 73
     8
 74
     0
 42
0.000000001
 43
0.00000001
 40
0.0
 40
0.0
 40
0.0
 40
0.0
 40
0.5
 40
0.5
 40
0.75
 40
0.75
 40
1.0
 40
1.0
 40
1.0
 40
1.0
 10
197.1182756979802
 20
83.56955056135135
 30
0.0
 10
197.1494208959423
 20
83.53173503843115
 30
0.0
 10
197.1916951622767
 20
83.49566818034752
 30
0.0
 10
197.2916406961021
 20
83.44770811533628
 30
0.0
 10
197.3313710008061
 20
83.4328471414386
 30
0.0
 10
197.4282590508123
 20
83.40989599530748
 30
0.0
 10
197.4883242925589
 20
83.40180106259542
 30
0.0
 10
197.5512883998724
 20
83.40180106259542
 30
0.0
  0
LINE
  5
D8
330
1F
100
AcDbEntity
  8
0
  6
Continuous
 62
     7
370
    25
100
AcDbLine
 10
197.5512883999
 20
83.4018010626
 30
0.0
 11
200.4957747727
 21
83.4018010626
 31
0.0
  0
SPLINE
  5
D9
330
1F
100
AcDbEntity
  8
0
  6
Continuous
 62
     7
370
    25
100
AcDbSpline
210
0.0
220
0.0
230
1.0
 70
     8
 71
     3
 72
    12
 73
     8
 74
     0
 42
0.000000001
 43
0.00000001
 40
0.0
 40
0.0
 40
0.0
 40
0.0
 40
0.2499999999999968
 40
0.2499999999999968
 40
0.4999999999999936
 40
0.4999999999999936
 40
1.0
 40
1.0
 40
1.0
 40
1.0
 10
200.4957747727396
 20
83.40180106259548
 30
0.0
 10
200.5588317276374
 20
83.40180106259547
 30
0.0
 10
200.6179618773829
 20
83.40970139367502
 30
0.0
 10
200.7164094279162
 20
83.43301214168007
 30
0.0
 10
200.7554416661043
 20
83.44771726796371
 30
0.0
 10
200.8553315505613
 20
83.49565079615036
 30
0.0
 10
200.8976305241706
 20
83.53172076891514
 30
0.0
 10
200.9287874746318
 20
83.56955056135133
 30
0.0
  0
ELLIPSE
  5
DA
330
1F
100
AcDbEntity
  8
0
  6
Continuous
 62
     7
370
    25
100
AcDbEllipse
 10
184.6763773969
 20
113.4702930215
 30
0.0
 11
-14.75368316065621
 21
31.09325491558116
 31
0.0
210
0.0
220
0.0
230
1.0
 40
0.3419987131
 41
3.300734856217118
 42
4.231496223360772
  0
SPLINE
  5
DB
330
1F
100
AcDbEntity
  8
0
  6
Continuous
 62
     7
370
    25
100
AcDbSpline
210
0.0
220
0.0
230
1.0
 70
     8
 71
     3
 72
    12
 73
     8
 74
     0
 42
0.000000001
 43
0.00000001
 40
0.0
 40
0.0
 40
0.0
 40
0.0
 40
0.5000000000000019
 40
0.5000000000000019
 40
0.7500000000000009
 40
0.7500000000000009
 40
1.0
 40
1.0
 40
1.0
 40
1.0
 10
200.9287874746318
 20
103.5609237007832
 30
0.0
 10
200.8976422766697
 20
103.6750290666485
 30
0.0
 10
200.8553680103352
 20
103.7861353938673
 30
0.0
 10
200.7554224765099
 20
103.9362930012976
 30
0.0
 10
200.7156921718059
 20
103.9832856929149
 30
0.0
 10
200.6188041217997
 20
104.0562612774534
 30
0.0
 10
200.5587388800531
 20
104.0822265901324
 30
0.0
 10
200.4957747727396
 20
104.0822265901324
 30
0.0
  0
LINE
  5
DC
330
1F
100
AcDbEntity
  8
0
  6
Continuous
 62
     7
370
    25
100
AcDbLine
 10
200.4957747727
 20
104.0822265901
 30
0.0
 11
197.5512883999
 21
104.0822265901
 31
0.0
  0
SPLINE
  5
DD
330
1F
100
AcDbEntity
  8
0
  6
Continuous
 62
     7
370
    25
100
AcDbSpline
210
0.0
220
0.0
230
1.0
 70
     8
 71
     3
 72
    12
 73
     8
 74
     0
 42
0.000000001
 43
0.00000001
 40
0.0
 40
0.0
 40
0.0
 40
0.0
 40
0.2499999999999986
 40
0.2499999999999986
 40
0.4999999999999971
 40
0.4999999999999971
 40
1.0
 40
1.0
 40
1.0
 40
1.0
 10
197.5512883998724
 20
104.0822265901323
 30
0.0
 10
197.4882314449746
 20
104.0822265901323
 30
0.0
 10
197.4291012952291
 20
104.0568802367517
 30
0.0
 10
197.3306537446958
 20
103.9827608546121
 30
0.0
 10
197.2916215065077
 20
103.9362643399141
 30
0.0
 10
197.1917316220507
 20
103.7861898329055
 30
0.0
 10
197.1494326484414
 20
103.6750721237907
 30
0.0
 10
197.1182756979802
 20
103.5609237007832
 30
0.0
  0
ELLIPSE
  5
DE
330
1F
100
AcDbEntity
  8
0
  6
Continuous
 62
     7
370
    25
100
AcDbEllipse
 10
213.3706857757
 20
113.4702930215
 30
0.0
 11
14.75368316065618
 21
31.09325491558116
 31
0.0
210
0.0
220
0.0
230
1.0
 40
0.3419987131
 41
2.051689083818826
 42
2.982450450962502
  0
SPLINE
  5
DF
330
1F
100
AcDbEntity
  8
0
  6
Continuous
 62
     7
370
    25
100
AcDbSpline
210
0.0
220
0.0
230
1.0
 70
     8
 71
     3
 72
    12
 73
     8
 74
     0
 42
0.000000001
 43
0.00000001
 40
0.0
 40
0.0
 40
0.0
 40
0.0
 40
0.5000000000000018
 40
0.5000000000000018
 40
0.7500000000000009
 40
0.7500000000000009
 40
1.0
 40
1.0
 40
1.0
 40
1.0
 10
197.1182756979802
 20
123.3796623421536
 30
0.0
 10
197.1489979398993
 20
123.2671065427444
 30
0.0
 10
197.1918351544345
 20
123.1543486830048
 30
0.0
 10
197.2912621786343
 20
123.0048077972085
 30
0.0
 10
197.3310143734509
 20
122.9575150655016
 30
0.0
 10
197.4290558303091
 20
122.8837787721802
 30
0.0
 10
197.4886118858966
 20
122.8583594528045
 30
0.0
 10
197.5512883998724
 20
122.8583594528045
 30
0.0
  0
LINE
  5
E0
330
1F
100
AcDbEntity
  8
0
  6
Continuous
 62
     7
370
    25
100
AcDbLine
 10
197.5512883999
 20
122.8583594528
 30
0.0
 11
200.4957747727
 21
122.8583594528
 31
0.0
  0
SPLINE
  5
E1
330
1F
100
AcDbEntity
  8
0
  6
Continuous
 62
     7
370
    25
100
AcDbSpline
210
0.0
220
0.0
230
1.0
 70
     8
 71
     3
 72
    12
 73
     8
 74
     0
 42
0.000000001
 43
0.00000001
 40
0.0
 40
0.0
 40
0.0
 40
0.0
 40
0.2500000000000004
 40
0.2500000000000004
 40
0.5000000000000009
 40
0.5000000000000009
 40
1.0
 40
1.0
 40
1.0
 40
1.0
 10
200.4957747727396
 20
122.8583594528045
 30
0.0
 10
200.5588548112329
 20
122.8583594528045
 30
0.0
 10
200.6180034334143
 20
122.8837237720194
 30
0.0
 10
200.7164759834834
 20
122.9578886323923
 30
0.0
 10
200.7555125954681
 20
123.0044089729465
 30
0.0
 10
200.8554090622472
 20
123.1545513157917
 30
0.0
 10
200.8978299433138
 20
123.2662445227639
 30
0.0
 10
200.9287874746318
 20
123.3796623421536
 30
0.0
  0
ELLIPSE
  5
E2
330
1F
100
AcDbEntity
  8
0
  6
Continuous
 62
     7
370
    25
100
AcDbEllipse
 10
184.6763773969
 20
113.4702930215
 30
0.0
 11
14.75368316065601
 21
31.09325491558116
 31
0.0
210
0.0
220
0.0
230
1.0
 40
0.3419987131
 41
5.193281737408619
 42
6.124043104552323
  0
SPLINE
  5
E3
330
1F
100
AcDbEntity
  8
0
  6
Continuous
 62
     7
370
    25
100
AcDbSpline
210
0.0
220
0.0
230
1.0
 70
     8
 71
     3
 72
    12
 73
     8
 74
     0
 42
0.000000001
 43
0.00000001
 40
0.0
 40
0.0
 40
0.0
 40
0.0
 40
0.4999999999999971
 40
0.4999999999999971
 40
0.7499999999999986
 40
0.7499999999999986
 40
1.0
 40
1.0
 40
1.0
 40
1.0
 10
200.9287874746318
 20
143.3710354815857
 30
0.0
 10
200.8980652327127
 20
143.4083374645388
 30
0.0
 10
200.8552280181775
 20
143.4449492965852
 30
0.0
 10
200.7558009939777
 20
143.4927140798704
 30
0.0
 10
200.7160487991611
 20
143.5076715953528
 30
0.0
 10
200.6180073423029
 20
143.5308615411219
 30
0.0
 10
200.5584512867154
 20
143.5387849803416
 30
0.0
 10
200.4957747727396
 20
143.5387849803416
 30
0.0
  0
LINE
  5
E4
330
1F
100
AcDbEntity
  8
0
  6
Continuous
 62
     7
370
    25
100
AcDbLine
 10
200.4957747727
 20
143.5387849803
 30
0.0
 11
197.5512883999
 21
143.5387849803
 31
0.0
  0
SPLINE
  5
E5
330
1F
100
AcDbEntity
  8
0
  6
Continuous
 62
     7
370
    25
100
AcDbSpline
210
0.0
220
0.0
230
1.0
 70
     8
 71
     3
 72
    12
 73
     8
 74
     0
 42
0.000000001
 43
0.00000001
 40
0.0
 40
0.0
 40
0.0
 40
0.0
 40
0.2499999999999994
 40
0.2499999999999994
 40
0.4999999999999989
 40
0.4999999999999989
 40
1.0
 40
1.0
 40
1.0
 40
1.0
 10
197.5512883998724
 20
143.5387849803416
 30
0.0
 10
197.4882083613791
 20
143.5387849803416
 30
0.0
 10
197.4290597391977
 20
143.5308790541292
 30
0.0
 10
197.3305871891286
 20
143.5075538926929
 30
0.0
 10
197.2915505771439
 20
143.4928411028613
 30
0.0
 10
197.1916541103648
 20
143.4448853021303
 30
0.0
 10
197.1492332292982
 20
143.4086231455503
 30
0.0
 10
197.1182756979802
 20
143.3710354815857
 30
0.0
  0
ELLIPSE
  5
E6
330
1F
100
AcDbEntity
  8
0
  6
Continuous
 62
     7
370
    25
100
AcDbEllipse
 10
213.3706857757
 20
113.4702930215
 30
0.0
 11
-14.75368316065604
 21
31.09325491558113
 31
0.0
210
0.0
220
0.0
230
1.0
 40
0.3419987131
 41
0.1591422026273036
 42
1.08990356977098
  0
ELLIPSE
  5
E7
330
1F
100
AcDbEntity
  8
0
  6
Continuous
 62
     7
370
    25
100
AcDbEllipse
 10
218.6701710824
 20
131.0351519812
 30
0.0
 11
0.3267812967788757
 21
3.437685688267663
 31
0.0
210
0.0
220
0.0
230
1.0
 40
0.2095444568
 41
0.0
 42
6.283185307179586
  0
SPLINE
  5
E8
330
1F
100
AcDbEntity
  8
0
  6
Continuous
 62
     7
370
    25
100
AcDbSpline
210
0.0
220
0.0
230
1.0
 70
     8
 71
     3
 72
    12
 73
     8
 74
     0
 42
0.000000001
 43
0.00000001
 40
0.0
 40
0.0
 40
0.0
 40
0.0
 40
0.4999999999999998
 40
0.4999999999999998
 40
0.7499999999999997
 40
0.7499999999999997
 40
1.0
 40
1.0
 40
1.0
 40
1.0
 10
186.2070192998495
 20
91.61549931899275
 30
0.0
 10
186.2634558007566
 20
91.614081437651
 30
0.0
 10
186.3325404314454
 20
91.6125171014027
 30
0.0
 10
186.4513427031634
 20
91.60957290942825
 30
0.0
 10
186.4915279786334
 20
91.60853470633087
 30
0.0
 10
186.5649090260373
 20
91.60660081111622
 30
0.0
 10
186.5983185897799
 20
91.60570592382743
 30
0.0
 10
186.6285546974364
 20
91.60492213355509
 30
0.0
  0
SPLINE
  5
E9
330
1F
100
AcDbEntity
  8
0
  6
Continuous
 62
     7
370
    25
100
AcDbSpline
210
0.0
220
0.0
230
1.0
 70
     8
 71
     3
 72
    16
 73
    12
 74
     0
 42
0.000000001
 43
0.00000001
 40
0.0
 40
0.0
 40
0.0
 40
0.0
 40
0.0624999999999963
 40
0.0624999999999963
 40
0.1249999999999926
 40
0.1249999999999926
 40
0.2499999999999923
 40
0.2499999999999923
 40
0.4999999999999949
 40
0.4999999999999949
 40
1.0
 40
1.0
 40
1.0
 40
1.0
 10
186.6285546973992
 20
91.60492213357934
 30
0.0
 10
186.6401351049871
 20
91.60462194246799
 30
0.0
 10
186.6534446317484
 20
91.60329419420898
 30
0.0
 10
186.6827460618345
 20
91.59659551943398
 30
0.0
 10
186.6975601617188
 20
91.59123733632829
 30
0.0
 10
186.7333885634216
 20
91.57419168716093
 30
0.0
 10
186.7475081877847
 20
91.56272914938519
 30
0.0
 10
186.7820123318732
 20
91.53116582401296
 30
0.0
 10
186.7931168825778
 20
91.51326852496769
 30
0.0
 10
186.819293059794
 20
91.46310710735345
 30
0.0
 10
186.823531586306
 20
91.43536269515687
 30
0.0
 10
186.823531586306
 20
91.41069853322733
 30
0.0
  0
LINE
  5
EA
330
1F
100
AcDbEntity
  8
0
  6
Continuous
 62
     7
370
    25
100
AcDbLine
 10
186.8235315863
 20
106.4484056957
 30
0.0
 11
186.8235315863
 21
90.9304727426
 31
0.0
  0
SPLINE
  5
EB
330
1F
100
AcDbEntity
  8
0
  6
Continuous
 62
     7
370
    25
100
AcDbSpline
210
0.0
220
0.0
230
1.0
 70
     8
 71
     3
 72
    16
 73
    12
 74
     0
 42
0.000000001
 43
0.00000001
 40
0.0
 40
0.0
 40
0.0
 40
0.0
 40
0.5000000000000013
 40
0.5000000000000013
 40
0.7499999999999986
 40
0.7499999999999986
 40
0.8749999999999981
 40
0.8749999999999981
 40
0.937499999999999
 40
0.937499999999999
 40
1.0
 40
1.0
 40
1.0
 40
1.0
 10
186.823531586306
 20
106.4484056957184
 30
0.0
 10
186.823531586306
 20
106.5620982398463
 30
0.0
 10
186.819385311228
 20
106.6764184011958
 30
0.0
 10
186.7934197158345
 20
106.849466691693
 30
0.0
 10
186.7819588104571
 20
106.9086421988547
 30
0.0
 10
186.7476470726827
 20
106.9917653183228
 30
0.0
 10
186.7336223367532
 20
107.0198866344235
 30
0.0
 10
186.6975993737193
 20
107.0485024484009
 30
0.0
 10
186.6828448646297
 20
107.0542954963027
 30
0.0
 10
186.6534927034828
 20
107.0527020703657
 30
0.0
 10
186.6401528289787
 20
107.0462056670419
 30
0.0
 10
186.6285546974303
 20
107.0376899208387
 30
0.0
  0
SPLINE
  5
EC
330
1F
100
AcDbEntity
  8
0
  6
Continuous
 62
     7
370
    25
100
AcDbSpline
210
0.0
220
0.0
230
1.0
 70
     8
 71
     3
 72
    12
 73
     8
 74
     0
 42
0.000000001
 43
0.00000001
 40
0.0
 40
0.0
 40
0.0
 40
0.0
 40
0.2500000000000003
 40
0.2500000000000003
 40
0.5000000000000002
 40
0.5000000000000002
 40
1.0
 40
1.0
 40
1.0
 40
1.0
 10
186.6285546974374
 20
107.0376899208296
 30
0.0
 10
186.5983562559968
 20
107.0155171887845
 30
0.0
 10
186.5649889006608
 20
106.9964375329073
 30
0.0
 10
186.4918336248309
 20
106.9712644884646
 30
0.0
 10
186.4515809258069
 20
106.9657079520478
 30
0.0
 10
186.3338521825321
 20
106.9766197630346
 30
0.0
 10
186.2633937344731
 20
107.0185555184454
 30
0.0
 10
186.2070192998549
 20
107.067767300827
 30
0.0
  0
SPLINE
  5
ED
330
1F
100
AcDbEntity
  8
0
  6
Continuous
 62
     7
370
    25
100
AcDbSpline
210
0.0
220
0.0
230
1.0
 70
     8
 71
     3
 72
    12
 73
     8
 74
     0
 42
0.000000001
 43
0.00000001
 40
0.0
 40
0.0
 40
0.0
 40
0.0
 40
0.5000000000000016
 40
0.5000000000000016
 40
0.7500000000000008
 40
0.7500000000000008
 40
1.0
 40
1.0
 40
1.0
 40
1.0
 10
185.7022112427464
 20
108.2841186927075
 30
0.0
 10
185.7459615946308
 20
108.063671707733
 30
0.0
 10
185.7988517457553
 20
107.8481267179275
 30
0.0
 10
185.9104632888969
 20
107.5357126413555
 30
0.0
 10
185.9530226328005
 20
107.4336331657396
 30
0.0
 10
186.0579998681379
 20
107.2391931530979
 30
0.0
 10
186.1195671112325
 20
107.1441082540342
 30
0.0
 10
186.2070192998549
 20
107.067767300827
 30
0.0
  0
SPLINE
  5
EE
330
1F
100
AcDbEntity
  8
0
  6
Continuous
 62
     7
370
    25
100
AcDbSpline
210
0.0
220
0.0
230
1.0
 70
     8
 71
     3
 72
    12
 73
     8
 74
     0
 42
0.000000001
 43
0.00000001
 40
0.0
 40
0.0
 40
0.0
 40
0.0
 40
0.2499999999999997
 40
0.2499999999999997
 40
0.4999999999999993
 40
0.4999999999999993
 40
1.0
 40
1.0
 40
1.0
 40
1.0
 10
186.2070192998548
 20
119.8728187421102
 30
0.0
 10
186.1185258922869
 20
119.7955688620019
 30
0.0
 10
186.058467851521
 20
119.7022495381127
 30
0.0
 10
185.9526195785384
 20
119.5062164851432
 30
0.0
 10
185.910086057261
 20
119.4038901269315
 30
0.0
 10
185.7989347504373
 20
119.0925457211556
 30
0.0
 10
185.7460038933895
 20
118.8771274679776
 30
0.0
 10
185.7022112427464
 20
118.6564673502297
 30
0.0
  0
SPLINE
  5
EF
330
1F
100
AcDbEntity
  8
0
  6
Continuous
 62
     7
370
    25
100
AcDbSpline
210
0.0
220
0.0
230
1.0
 70
     8
 71
     3
 72
    12
 73
     8
 74
     0
 42
0.000000001
 43
0.00000001
 40
0.0
 40
0.0
 40
0.0
 40
0.0
 40
0.4999999999999996
 40
0.4999999999999996
 40
0.7499999999999998
 40
0.7499999999999998
 40
1.0
 40
1.0
 40
1.0
 40
1.0
 10
186.2070192998548
 20
119.8728187421102
 30
0.0
 10
186.2633278481504
 20
119.921973009354
 30
0.0
 10
186.3336025088685
 20
119.9639303279578
 30
0.0
 10
186.4516404231921
 20
119.9748900054902
 30
0.0
 10
186.491816664046
 20
119.9693812472429
 30
0.0
 10
186.565773758724
 20
119.9438240184539
 30
0.0
 10
186.5983901464354
 20
119.9250439706146
 30
0.0
 10
186.6285546974312
 20
119.9028961220979
 30
0.0
  0
SPLINE
  5
F0
330
1F
100
AcDbEntity
  8
0
  6
Continuous
 62
     7
370
    25
100
AcDbSpline
210
0.0
220
0.0
230
1.0
 70
     8
 71
     3
 72
    16
 73
    12
 74
     0
 42
0.000000001
 43
0.00000001
 40
0.0
 40
0.0
 40
0.0
 40
0.0
 40
0.0625000000000002
 40
0.0625000000000002
 40
0.1250000000000004
 40
0.1250000000000004
 40
0.250000000000003
 40
0.250000000000003
 40
0.5000000000000031
 40
0.5000000000000031
 40
1.0
 40
1.0
 40
1.0
 40
1.0
 10
186.6285546973994
 20
119.9028961220434
 30
0.0
 10
186.6401675972388
 20
119.8943695324481
 30
0.0
 10
186.6535187816712
 20
119.8878692709154
 30
0.0
 10
186.6829186212904
 20
119.8862998737978
 30
0.0
 10
186.6977593458457
 20
119.8921832644284
 30
0.0
 10
186.7335925538143
 20
119.920730900479
 30
0.0
 10
186.7477057616358
 20
119.9488979197848
 30
0.0
 10
186.7821971328547
 20
120.0326521782067
 30
0.0
 10
186.7932812039651
 20
120.0903655918281
 30
0.0
 10
186.8194040217611
 20
120.263956128474
 30
0.0
 10
186.823531586306
 20
120.3789841811159
 30
0.0
 10
186.823531586306
 20
120.4921803472188
 30
0.0
  0
LINE
  5
F1
330
1F
100
AcDbEntity
  8
0
  6
Continuous
 62
     7
370
    25
100
AcDbLine
 10
186.8235315863
 20
136.0101133003
 30
0.0
 11
186.8235315863
 21
120.4921803472
 31
0.0
  0
SPLINE
  5
F2
330
1F
100
AcDbEntity
  8
0
  6
Continuous
 62
     7
370
    25
100
AcDbSpline
210
0.0
220
0.0
230
1.0
 70
     8
 71
     3
 72
    16
 73
    12
 74
     0
 42
0.000000001
 43
0.00000001
 40
0.0
 40
0.0
 40
0.0
 40
0.0
 40
0.5000000000000072
 40
0.5000000000000072
 40
0.7500000000000088
 40
0.7500000000000088
 40
0.8750000000000081
 40
0.8750000000000081
 40
0.9375000000000041
 40
0.9375000000000041
 40
1.0
 40
1.0
 40
1.0
 40
1.0
 10
186.823531586306
 20
135.5298875097099
 30
0.0
 10
186.823531586306
 20
135.505216353667
 30
0.0
 10
186.819365887846
 20
135.4776345222757
 30
0.0
 10
186.7931075595211
 20
135.4272916514524
 30
0.0
 10
186.7816037777835
 20
135.4090021533905
 30
0.0
 10
186.747473018437
 20
135.3778471223535
 30
0.0
 10
186.7330511317662
 20
135.3662077471417
 30
0.0
 10
186.6974841633284
 20
135.3493257212107
 30
0.0
 10
186.6825323950338
 20
135.343936617403
 30
0.0
 10
186.653528576674
 20
135.3373161214585
 30
0.0
 10
186.6401132226648
 20
135.3359635332521
 30
0.0
 10
186.6285546974281
 20
135.3356639093805
 30
0.0
  0
SPLINE
  5
F3
330
1F
100
AcDbEntity
  8
0
  6
Continuous
 62
     7
370
    25
100
AcDbSpline
210
0.0
220
0.0
230
1.0
 70
     8
 71
     3
 72
    12
 73
     8
 74
     0
 42
0.000000001
 43
0.00000001
 40
0.0
 40
0.0
 40
0.0
 40
0.0
 40
0.2499999999999999
 40
0.2499999999999999
 40
0.5000000000000001
 40
0.5000000000000001
 40
1.0
 40
1.0
 40
1.0
 40
1.0
 10
186.6285546974374
 20
135.3356639093822
 30
0.0
 10
186.5983669208878
 20
135.3348813719646
 30
0.0
 10
186.5650131167961
 20
135.3339880401461
 30
0.0
 10
186.4918869136001
 20
135.3320607313425
 30
0.0
 10
186.4516517105759
 20
135.3310212001298
 30
0.0
 10
186.3339600804428
 20
135.3281033167826
 30
0.0
 10
186.2635794072828
 20
135.3265077107123
 30
0.0
 10
186.2070192998522
 20
135.3250867239445
 30
0.0
  0
SPLINE
  5
F4
330
1F
100
AcDbEntity
  8
0
  6
Continuous
 62
     7
370
    25
100
AcDbSpline
210
0.0
220
0.0
230
1.0
 70
     8
 71
     3
 72
    16
 73
    12
 74
     0
 42
0.000000001
 43
0.00000001
 40
0.0
 40
0.0
 40
0.0
 40
0.0
 40
0.2500000000000001
 40
0.2500000000000001
 40
0.3750000000000001
 40
0.3750000000000001
 40
0.5000000000000001
 40
0.5000000000000001
 40
0.75
 40
0.75
 40
1.0
 40
1.0
 40
1.0
 40
1.0
 10
185.7022112427463
 20
118.6564673502297
 30
0.0
 10
185.5409787652619
 20
117.8440575749828
 30
0.0
 10
185.4204989256223
 20
117.0039792805981
 30
0.0
 10
185.2981184083089
 20
115.7026842312353
 30
0.0
 10
185.2671407479115
 20
115.2620031956506
 30
0.0
 10
185.2255270102835
 20
114.3661635547194
 30
0.0
 10
185.2152910973507
 20
113.919505423517
 30
0.0
 10
185.2151027002946
 20
112.5841954663771
 30
0.0
 10
185.2552474029322
 20
111.6997000930696
 30
0.0
 10
185.4194011578718
 20
109.9424502050435
 30
0.0
 10
185.5409528082813
 20
109.0966592586304
 30
0.0
 10
185.7022112427463
 20
108.2841186927075
 30
0.0
  0
LINE
  5
F5
330
1F
100
AcDbEntity
  8
0
  6
Continuous
 62
     7
370
    25
100
AcDbLine
 10
184.8235315863
 20
119.9554712832
 30
0.0
 11
184.8235315863
 21
106.9851147598
 31
0.0
  0
LINE
  5
F6
330
1F
100
AcDbEntity
  8
0
  6
Continuous
 62
     7
370
    25
100
AcDbLine
 10
150.5235315863
 20
119.524603589
 30
0.0
 11
150.5235315863
 21
107.4159824539
 31
0.0
  0
LINE
  5
F7
330
1F
100
AcDbEntity
  8
0
  6
Continuous
 62
     7
370
    25
100
AcDbLine
 10
149.0235315863
 20
119.0915908871
 30
0.0
 11
149.0235315863
 21
107.8489951558
 31
0.0
  0
LINE
  5
F8
330
1F
100
AcDbEntity
  8
0
  6
Continuous
 62
     7
370
    25
100
AcDbLine
 10
150.5235315863
 20
92.3119296252
 30
0.0
 11
150.5235315863
 21
107.4159824539
 31
0.0
  0
LINE
  5
F9
330
1F
100
AcDbEntity
  8
0
  6
Continuous
 62
     7
370
    25
100
AcDbLine
 10
184.8235315863
 20
91.4501942369
 30
0.0
 11
184.8235315863
 21
106.9851147598
 31
0.0
  0
LINE
  5
FA
330
1F
100
AcDbEntity
  8
0
  6
Continuous
 62
     7
370
    25
100
AcDbLine
 10
150.5235315863
 20
92.3119296252
 30
0.0
 11
184.8235315863
 21
91.4501942369
 31
0.0
  0
ARC
  5
FB
330
1F
100
AcDbEntity
  8
0
  6
Continuous
 62
     7
370
    25
100
AcDbCircle
 10
185.0234684972
 20
91.4451711258
 30
0.0
 40
0.2000000000000059
100
AcDbArc
 50
88.5608333333
 51
178.5608333333
  0
LINE
  5
FC
330
1F
100
AcDbEntity
  8
0
  6
Continuous
 62
     7
370
    25
100
AcDbLine
 10
150.5235315863
 20
119.524603589
 30
0.0
 11
150.5235315863
 21
134.6286564178
 31
0.0
  0
LINE
  5
FD
330
1F
100
AcDbEntity
  8
0
  6
Continuous
 62
     7
370
    25
100
AcDbLine
 10
150.5235315863
 20
134.6286564178
 30
0.0
 11
184.8235315863
 21
135.490391806
 31
0.0
  0
LINE
  5
FE
330
1F
100
AcDbEntity
  8
0
  6
Continuous
 62
     7
370
    25
100
AcDbLine
 10
184.8235315863
 20
119.9554712832
 30
0.0
 11
184.8235315863
 21
135.490391806
 31
0.0
  0
ARC
  5
FF
330
1F
100
AcDbEntity
  8
0
  6
Continuous
 62
     7
370
    25
100
AcDbCircle
 10
185.0234684972
 20
135.4954149172
 30
0.0
 40
0.2000000000000066
100
AcDbArc
 50
181.4391666667
 51
271.4391666667
  0
LINE
  5
100
330
1F
100
AcDbEntity
  8
0
  6
Continuous
 62
     7
370
    25
100
AcDbLine
 10
185.0284916084
 20
135.2954780062
 30
0.0
 11
186.2070192999
 21
135.3250867239
 31
0.0
  0
LINE
  5
101
330
1F
100
AcDbEntity
  8
0
  6
Continuous
 62
     7
370
    25
100
AcDbLine
 10
185.0284916084
 20
91.6451080367
 30
0.0
 11
186.2070192999
 21
91.615499319
 31
0.0
  0
LINE
  5
102
330
1F
100
AcDbEntity
  8
0
  6
Continuous
 62
     7
370
    25
100
AcDbLine
 10
149.0235315863
 20
93.177955029
 30
0.0
 11
150.5235315863
 21
92.3119296252
 31
0.0
  0
LINE
  5
103
330
1F
100
AcDbEntity
  8
0
  6
Continuous
 62
     7
370
    25
100
AcDbLine
 10
149.0235315863
 20
93.177955029
 30
0.0
 11
149.0235315863
 21
107.8489951558
 31
0.0
  0
LINE
  5
104
330
1F
100
AcDbEntity
  8
0
  6
Continuous
 62
     7
370
    25
100
AcDbLine
 10
149.0235315863
 20
133.762631014
 30
0.0
 11
150.5235315863
 21
134.6286564178
 31
0.0
  0
LINE
  5
105
330
1F
100
AcDbEntity
  8
0
  6
Continuous
 62
     7
370
    25
100
AcDbLine
 10
149.0235315863
 20
119.0915908871
 30
0.0
 11
149.0235315863
 21
133.762631014
 31
0.0
  0
ELLIPSE
  5
106
330
1F
100
AcDbEntity
  8
0
  6
Continuous
 62
     7
370
    25
100
AcDbEllipse
 10
226.6274935142
 20
87.9808022788
 30
0.0
 11
5.969584085074786
 21
8.654613893686445
 31
0.0
210
0.0
220
0.0
230
1.0
 40
0.0697175754
 41
1.470062936571582
 42
2.375352856374818
  0
SPLINE
  5
107
330
1F
100
AcDbEntity
  8
0
  6
Continuous
 62
     7
370
    25
100
AcDbSpline
210
0.0
220
0.0
230
1.0
 70
     8
 71
     3
 72
    12
 73
     8
 74
     0
 42
0.000000001
 43
0.00000001
 40
0.0
 40
0.0
 40
0.0
 40
0.0
 40
0.2499999999999968
 40
0.2499999999999968
 40
0.4999999999999937
 40
0.4999999999999937
 40
1.0
 40
1.0
 40
1.0
 40
1.0
 10
224.256204598327
 20
144.969729206042
 30
0.0
 10
224.3567123066595
 20
144.9699879352799
 30
0.0
 10
224.4560953845263
 20
144.9849588390903
 30
0.0
 10
224.6520226834083
 20
145.0462508313349
 30
0.0
 10
224.7460401490128
 20
145.0922124773651
 30
0.0
 10
225.0031612440984
 20
145.2731091522794
 30
0.0
 10
225.139771307635
 20
145.4537818377634
 30
0.0
 10
225.2070793382344
 20
145.6604568727346
 30
0.0
  0
SPLINE
  5
108
330
1F
100
AcDbEntity
  8
0
  6
Continuous
 62
     7
370
    25
100
AcDbSpline
210
0.0
220
0.0
230
1.0
 70
     8
 71
     3
 72
     8
 73
     4
 74
     0
 42
0.000000001
 43
0.00000001
 40
0.0
 40
0.0
 40
0.0
 40
0.0
 40
1.0
 40
1.0
 40
1.0
 40
1.0
 10
226.6274935141798
 20
145.7497887726415
 30
0.0
 10
226.1457929984233
 20
145.6999470720613
 30
0.0
 10
225.672339372653
 20
145.6709186799387
 30
0.0
 10
225.2070793382344
 20
145.6604568727346
 30
0.0
  0
LINE
  5
109
330
1F
100
AcDbEntity
  8
0
  6
Continuous
 62
     7
370
    25
100
AcDbLine
 10
241.7897677769
 20
144.7852204283
 30
0.0
 11
239.8269361868
 21
143.5587071247
 31
0.0
  0
ARC
  5
10A
330
1F
100
AcDbEntity
  8
0
  6
Continuous
 62
     7
370
    25
100
AcDbCircle
 10
240.6305282792
 20
142.2726909521
 30
0.0
 40
1.516442497159258
100
AcDbArc
 50
122.0
 51
302.0
  0
LINE
  5
10B
330
1F
100
AcDbEntity
  8
0
  6
Continuous
 62
     7
370
    25
100
AcDbLine
 10
241.4341203715
 20
140.9866747794
 30
0.0
 11
242.0825765223
 21
141.3918751541
 31
0.0
  0
LINE
  5
10C
330
1F
100
AcDbEntity
  8
0
  6
Continuous
 62
     7
370
    25
100
AcDbLine
 10
242.1869707414
 20
152.3643044872
 30
0.0
 11
237.6636219158
 21
149.5378024381
 31
0.0
  0
LINE
  5
10D
330
1F
100
AcDbEntity
  8
0
  6
Continuous
 62
     7
370
    25
100
AcDbLine
 10
251.2094519929
 20
147.0515444436
 30
0.0
 11
249.9247031339
 21
122.5370758555
 31
0.0
  0
ELLIPSE
  5
10E
330
1F
100
AcDbEntity
  8
0
  6
Continuous
 62
     7
370
    25
100
AcDbEllipse
 10
223.782251415
 20
171.7526389609
 30
0.0
 11
-13.88137050078677
 21
22.21483652282103
 31
-1.000341302848096E-13
210
-2.023649389324525E-15
220
3.238515992408887E-15
230
1.0
 40
0.9925461516
 41
2.689139201377407
 42
3.141592653589808
  0
LINE
  5
10F
330
1F
100
AcDbEntity
  8
0
  6
Continuous
 62
     7
370
    25
100
AcDbLine
 10
249.9247031339
 20
122.5370758555
 30
0.0
 11
226.6274935142
 21
89.2652123744
 31
0.0
  0
LINE
  5
110
330
1F
100
AcDbEntity
  8
0
  6
Continuous
 62
     7
370
    25
100
AcDbLine
 10
241.2929273595
 20
141.2126308319
 30
0.0
 11
241.7537464279
 21
141.5005825445
 31
0.0
  0
LINE
  5
111
330
1F
100
AcDbEntity
  8
0
  6
Continuous
 62
     7
370
    25
100
AcDbLine
 10
239.9681291989
 20
143.3327510722
 30
0.0
 11
241.7727446577
 21
144.4603999644
 31
0.0
  0
ARC
  5
112
330
1F
100
AcDbEntity
  8
0
  6
Continuous
 62
     7
370
    25
100
AcDbCircle
 10
240.6305282792
 20
142.2726909521
 30
0.0
 40
1.249999999999979
100
AcDbArc
 50
122.0
 51
302.0
  0
LINE
  5
113
330
1F
100
AcDbEntity
  8
0
  6
HIDDEN
 62
     7
370
    18
100
AcDbLine
 10
187.0235315863
 20
82.4702930215
 30
0.0
 11
187.0235315863
 21
144.4702930215
 31
0.0
  0
ELLIPSE
  5
114
330
1F
100
AcDbEntity
  8
0
  6
HIDDEN
 62
     7
370
    18
100
AcDbEllipse
 10
243.6210411278
 20
113.4702930215
 30
0.0
 11
22.33599140011941
 21
31.42058670065012
 31
0.0
210
0.0
220
0.0
230
1.0
 40
0.1000778042
 41
2.46329661317062
 42
3.212615426319576
  0
SPLINE
  5
115
330
1F
100
AcDbEntity
  8
0
  6
HIDDEN
 62
     7
370
    18
100
AcDbSpline
210
0.0
220
0.0
230
1.0
 70
     8
 71
     3
 72
    12
 73
     8
 74
     0
 42
0.000000001
 43
0.00000001
 40
0.0
 40
0.0
 40
0.0
 40
0.0
 40
0.4999999999999972
 40
0.4999999999999972
 40
0.7499999999999986
 40
0.7499999999999986
 40
1.0
 40
1.0
 40
1.0
 40
1.0
 10
197.1182756979802
 20
143.3710354815859
 30
0.0
 10
197.1489979398993
 20
143.408337464539
 30
0.0
 10
197.1918351544344
 20
143.4449492965854
 30
0.0
 10
197.2912621786343
 20
143.4927140798706
 30
0.0
 10
197.3310143734509
 20
143.507671595353
 30
0.0
 10
197.4290558303091
 20
143.5308615411221
 30
0.0
 10
197.4886118858966
 20
143.5387849803418
 30
0.0
 10
197.5512883998724
 20
143.5387849803418
 30
0.0
  0
LINE
  5
116
330
1F
100
AcDbEntity
  8
0
  6
HIDDEN
 62
     7
370
    18
100
AcDbLine
 10
197.5512883999
 20
143.5387849803
 30
0.0
 11
200.4957747727
 21
143.5387849803
 31
0.0
  0
SPLINE
  5
117
330
1F
100
AcDbEntity
  8
0
  6
HIDDEN
 62
     7
370
    18
100
AcDbSpline
210
0.0
220
0.0
230
1.0
 70
     8
 71
     3
 72
    12
 73
     8
 74
     0
 42
0.000000001
 43
0.00000001
 40
0.0
 40
0.0
 40
0.0
 40
0.0
 40
0.2499999999999977
 40
0.2499999999999977
 40
0.4999999999999953
 40
0.4999999999999953
 40
1.0
 40
1.0
 40
1.0
 40
1.0
 10
200.4957747727396
 20
143.5387849803418
 30
0.0
 10
200.5588548112329
 20
143.5387849803418
 30
0.0
 10
200.6180034334143
 20
143.5308790541294
 30
0.0
 10
200.7164759834834
 20
143.5075538926932
 30
0.0
 10
200.7555125954681
 20
143.4928411028615
 30
0.0
 10
200.8554090622472
 20
143.4448853021305
 30
0.0
 10
200.8978299433138
 20
143.4086231455505
 30
0.0
 10
200.9287874746318
 20
143.371035481586
 30
0.0
  0
ELLIPSE
  5
118
330
1F
100
AcDbEntity
  8
0
  6
HIDDEN
 62
     7
370
    18
100
AcDbEllipse
 10
184.6763773969
 20
113.4702930215
 30
0.0
 11
14.75368316065621
 21
31.09325491558116
 31
0.0
210
0.0
220
0.0
230
1.0
 40
0.3419987131
 41
5.193281737408636
 42
6.12404310455234
  0
SPLINE
  5
119
330
1F
100
AcDbEntity
  8
0
  6
HIDDEN
 62
     7
370
    18
100
AcDbSpline
210
0.0
220
0.0
230
1.0
 70
     8
 71
     3
 72
    12
 73
     8
 74
     0
 42
0.000000001
 43
0.00000001
 40
0.0
 40
0.0
 40
0.0
 40
0.0
 40
0.4999999999999981
 40
0.4999999999999981
 40
0.749999999999999
 40
0.749999999999999
 40
1.0
 40
1.0
 40
1.0
 40
1.0
 10
200.9287874746318
 20
123.3796623421542
 30
0.0
 10
200.8980652327127
 20
123.2671065427451
 30
0.0
 10
200.8552280181775
 20
123.1543486830055
 30
0.0
 10
200.7558009939777
 20
123.0048077972091
 30
0.0
 10
200.7160487991611
 20
122.9575150655023
 30
0.0
 10
200.6180073423028
 20
122.8837787721808
 30
0.0
 10
200.5584512867154
 20
122.8583594528051
 30
0.0
 10
200.4957747727396
 20
122.8583594528051
 30
0.0
  0
LINE
  5
11A
330
1F
100
AcDbEntity
  8
0
  6
HIDDEN
 62
     7
370
    18
100
AcDbLine
 10
200.4957747727
 20
122.8583594528
 30
0.0
 11
197.5512883999
 21
122.8583594528
 31
0.0
  0
SPLINE
  5
11B
330
1F
100
AcDbEntity
  8
0
  6
HIDDEN
 62
     7
370
    18
100
AcDbSpline
210
0.0
220
0.0
230
1.0
 70
     8
 71
     3
 72
    12
 73
     8
 74
     0
 42
0.000000001
 43
0.00000001
 40
0.0
 40
0.0
 40
0.0
 40
0.0
 40
0.2499999999999994
 40
0.2499999999999994
 40
0.4999999999999989
 40
0.4999999999999989
 40
1.0
 40
1.0
 40
1.0
 40
1.0
 10
197.5512883998724
 20
122.8583594528051
 30
0.0
 10
197.4882083613791
 20
122.8583594528051
 30
0.0
 10
197.4290597391977
 20
122.8837237720201
 30
0.0
 10
197.3305871891286
 20
122.957888632393
 30
0.0
 10
197.2915505771439
 20
123.0044089729471
 30
0.0
 10
197.1916541103648
 20
123.1545513157923
 30
0.0
 10
197.1492332292982
 20
123.2662445227645
 30
0.0
 10
197.1182756979802
 20
123.3796623421542
 30
0.0
  0
ELLIPSE
  5
11C
330
1F
100
AcDbEntity
  8
0
  6
HIDDEN
 62
     7
370
    18
100
AcDbEllipse
 10
213.3706857757
 20
113.4702930215
 30
0.0
 11
-14.75368316065624
 21
31.09325491558116
 31
0.0
210
0.0
220
0.0
230
1.0
 40
0.3419987131
 41
0.1591422026272857
 42
1.089903569770961
  0
SPLINE
  5
11D
330
1F
100
AcDbEntity
  8
0
  6
HIDDEN
 62
     7
370
    18
100
AcDbSpline
210
0.0
220
0.0
230
1.0
 70
     8
 71
     3
 72
    12
 73
     8
 74
     0
 42
0.000000001
 43
0.00000001
 40
0.0
 40
0.0
 40
0.0
 40
0.0
 40
0.5
 40
0.5
 40
0.75
 40
0.75
 40
1.0
 40
1.0
 40
1.0
 40
1.0
 10
197.1182756979802
 20
103.5609237007834
 30
0.0
 10
197.1489979398993
 20
103.6734795001926
 30
0.0
 10
197.1918351544344
 20
103.7862373599322
 30
0.0
 10
197.2912621786342
 20
103.9357782457285
 30
0.0
 10
197.3310143734509
 20
103.9830709774354
 30
0.0
 10
197.4290558303091
 20
104.0568072707568
 30
0.0
 10
197.4886118858966
 20
104.0822265901325
 30
0.0
 10
197.5512883998724
 20
104.0822265901325
 30
0.0
  0
LINE
  5
11E
330
1F
100
AcDbEntity
  8
0
  6
HIDDEN
 62
     7
370
    18
100
AcDbLine
 10
197.5512883999
 20
104.0822265901
 30
0.0
 11
200.4957747727
 21
104.0822265901
 31
0.0
  0
SPLINE
  5
11F
330
1F
100
AcDbEntity
  8
0
  6
HIDDEN
 62
     7
370
    18
100
AcDbSpline
210
0.0
220
0.0
230
1.0
 70
     8
 71
     3
 72
    12
 73
     8
 74
     0
 42
0.000000001
 43
0.00000001
 40
0.0
 40
0.0
 40
0.0
 40
0.0
 40
0.2500000000000009
 40
0.2500000000000009
 40
0.5000000000000018
 40
0.5000000000000018
 40
1.0
 40
1.0
 40
1.0
 40
1.0
 10
200.4957747727396
 20
104.0822265901325
 30
0.0
 10
200.5588548112329
 20
104.0822265901325
 30
0.0
 10
200.6180034334143
 20
104.0568622709176
 30
0.0
 10
200.7164759834834
 20
103.9826974105447
 30
0.0
 10
200.7555125954681
 20
103.9361770699906
 30
0.0
 10
200.8554090622472
 20
103.7860347271453
 30
0.0
 10
200.8978299433138
 20
103.6743415201732
 30
0.0
 10
200.9287874746318
 20
103.5609237007834
 30
0.0
  0
ELLIPSE
  5
120
330
1F
100
AcDbEntity
  8
0
  6
HIDDEN
 62
     7
370
    18
100
AcDbEllipse
 10
184.6763773969
 20
113.4702930215
 30
0.0
 11
-14.75368316065612
 21
31.09325491558116
 31
0.0
210
0.0
220
0.0
230
1.0
 40
0.3419987131
 41
3.300734856217128
 42
4.231496223360779
  0
SPLINE
  5
121
330
1F
100
AcDbEntity
  8
0
  6
HIDDEN
 62
     7
370
    18
100
AcDbSpline
210
0.0
220
0.0
230
1.0
 70
     8
 71
     3
 72
    12
 73
     8
 74
     0
 42
0.000000001
 43
0.00000001
 40
0.0
 40
0.0
 40
0.0
 40
0.0
 40
0.4999999999999991
 40
0.4999999999999991
 40
0.7499999999999996
 40
0.7499999999999996
 40
1.0
 40
1.0
 40
1.0
 40
1.0
 10
200.9287874746318
 20
83.5695505613514
 30
0.0
 10
200.8980652327127
 20
83.53224857839837
 30
0.0
 10
200.8552280181775
 20
83.49563674635196
 30
0.0
 10
200.7558009939777
 20
83.44787196306677
 30
0.0
 10
200.7160487991611
 20
83.4329144475844
 30
0.0
 10
200.6180073423029
 20
83.40972450181525
 30
0.0
 10
200.5584512867154
 20
83.40180106259554
 30
0.0
 10
200.4957747727396
 20
83.40180106259554
 30
0.0
  0
LINE
  5
122
330
1F
100
AcDbEntity
  8
0
  6
HIDDEN
 62
     7
370
    18
100
AcDbLine
 10
200.4957747727
 20
83.4018010626
 30
0.0
 11
197.5512883999
 21
83.4018010626
 31
0.0
  0
SPLINE
  5
123
330
1F
100
AcDbEntity
  8
0
  6
HIDDEN
 62
     7
370
    18
100
AcDbSpline
210
0.0
220
0.0
230
1.0
 70
     8
 71
     3
 72
    12
 73
     8
 74
     0
 42
0.000000001
 43
0.00000001
 40
0.0
 40
0.0
 40
0.0
 40
0.0
 40
0.2500000000000009
 40
0.2500000000000009
 40
0.5000000000000018
 40
0.5000000000000018
 40
1.0
 40
1.0
 40
1.0
 40
1.0
 10
197.5512883998724
 20
83.40180106259555
 30
0.0
 10
197.4882083613791
 20
83.40180106259555
 30
0.0
 10
197.4290597391977
 20
83.40970698880798
 30
0.0
 10
197.3305871891286
 20
83.43303215024422
 30
0.0
 10
197.2915505771439
 20
83.4477449400759
 30
0.0
 10
197.1916541103648
 20
83.49570074080684
 30
0.0
 10
197.1492332292982
 20
83.5319628973869
 30
0.0
 10
197.1182756979802
 20
83.5695505613514
 30
0.0
  0
ELLIPSE
  5
124
330
1F
100
AcDbEntity
  8
0
  6
HIDDEN
 62
     7
370
    18
100
AcDbEllipse
 10
213.3706857757
 20
113.4702930215
 30
0.0
 11
14.75368316065612
 21
31.09325491558116
 31
0.0
210
0.0
220
0.0
230
1.0
 40
0.3419987131
 41
2.05168908381882
 42
2.982450450962498
  0
SPLINE
  5
125
330
1F
100
AcDbEntity
  8
0
  6
HIDDEN
 62
     7
370
    18
100
AcDbSpline
210
0.0
220
0.0
230
1.0
 70
    11
 71
     3
 72
    60
 73
    56
 74
     0
 42
0.000000001
 43
0.00000001
 40
0.0
 40
0.0
 40
0.0
 40
0.0
 40
0.0312500000000002
 40
0.0312500000000002
 40
0.0625000000000003
 40
0.0625000000000003
 40
0.0937500000000004
 40
0.0937500000000004
 40
0.1250000000000006
 40
0.1250000000000006
 40
0.1875000000000008
 40
0.1875000000000008
 40
0.2500000000000011
 40
0.2500000000000011
 40
0.2812500000000009
 40
0.2812500000000009
 40
0.3125000000000008
 40
0.3125000000000008
 40
0.3437500000000007
 40
0.3437500000000007
 40
0.3750000000000006
 40
0.3750000000000006
 40
0.4062500000000004
 40
0.4062500000000004
 40
0.4375000000000003
 40
0.4375000000000003
 40
0.4687500000000002
 40
0.4687500000000002
 40
0.5000000000000001
 40
0.5000000000000001
 40
0.5624999999999999
 40
0.5624999999999999
 40
0.6249999999999997
 40
0.6249999999999997
 40
0.6562499999999997
 40
0.6562499999999997
 40
0.6874999999999998
 40
0.6874999999999998
 40
0.7187499999999998
 40
0.7187499999999998
 40
0.7499999999999998
 40
0.7499999999999998
 40
0.7812499999999999
 40
0.7812499999999999
 40
0.8124999999999999
 40
0.8124999999999999
 40
0.84375
 40
0.84375
 40
0.875
 40
0.875
 40
0.9062500000000001
 40
0.9062500000000001
 40
0.9375000000000001
 40
0.9375000000000001
 40
1.0
 40
1.0
 40
1.0
 40
1.0
 10
201.023531586306
 20
113.4702930214686
 30
0.0
 10
201.023531586306
 20
113.602458284012
 30
0.0
 10
201.0105597278172
 20
113.7324083450161
 30
0.0
 10
200.9597395581248
 20
113.9880612783762
 30
0.0
 10
200.9212722346579
 20
114.1150907849255
 30
0.0
 10
200.8208739985857
 20
114.35727891605
 30
0.0
 10
200.7594409676126
 20
114.4721404086029
 30
0.0
 10
200.6143061360677
 20
114.689520604427
 30
0.0
 10
200.5298510186598
 20
114.7924181716257
 30
0.0
 10
200.2531315683015
 20
115.0690852106334
 30
0.0
 10
200.0300546763834
 20
115.2180833011134
 30
0.0
 10
199.5487713141631
 20
115.4175944415781
 30
0.0
 10
199.2855408951721
 20
115.4701525445748
 30
0.0
 10
198.8941386934842
 20
115.4703628269529
 30
0.0
 10
198.7616156653753
 20
115.4573770562258
 30
0.0
 10
198.5050852121342
 20
115.406349908012
 30
0.0
 10
198.3803983778377
 20
115.3685947088616
 30
0.0
 10
198.1382191156021
 20
115.2684563759528
 30
0.0
 10
198.0211255834521
 20
115.2058507085413
 30
0.0
 10
197.8044105800966
 20
115.0611174152763
 30
0.0
 10
197.7033917532339
 20
114.9784900679968
 30
0.0
 10
197.5166068657817
 20
114.7918850147452
 30
0.0
 10
197.4337499845856
 20
114.690769950869
 30
0.0
 10
197.2888657195117
 20
114.4742371468792
 30
0.0
 10
197.2262282116908
 20
114.3573669392781
 30
0.0
 10
197.1257793882911
 20
114.1150690686279
 30
0.0
 10
197.0879282872738
 20
113.9904050701669
 30
0.0
 10
197.0367067220174
 20
113.7341180261031
 30
0.0
 10
197.0235785954002
 20
113.6015460303575
 30
0.0
 10
197.02343795506
 20
113.2099418375835
 30
0.0
 10
197.0757627044318
 20
112.9467765062595
 30
0.0
 10
197.2748737664891
 20
112.4652711370864
 30
0.0
 10
197.4237361029463
 20
112.2420195976023
 30
0.0
 10
197.7000570622718
 20
111.9651632987134
 30
0.0
 10
197.8028207106454
 20
111.8806498518697
 30
0.0
 10
198.0202042680249
 20
111.7352325784295
 30
0.0
 10
198.1350030359813
 20
111.6737213793711
 30
0.0
 10
198.3768797594053
 20
111.5731915311163
 30
0.0
 10
198.5040333674056
 20
111.5345465078983
 30
0.0
 10
198.7596993768381
 20
111.4834901803473
 30
0.0
 10
198.8895654145942
 20
111.4704253218016
 30
0.0
 10
199.1535179413258
 20
111.4701627010037
 30
0.0
 10
199.2839222647499
 20
111.4830397012477
 30
0.0
 10
199.5395730281292
 20
111.5336257050535
 30
0.0
 10
199.6664385772436
 20
111.5719020696754
 30
0.0
 10
199.9089590351895
 20
111.6721729371554
 30
0.0
 10
200.0238856738498
 20
111.7335289612963
 30
0.0
 10
200.2412571426818
 20
111.8783752564691
 30
0.0
 10
200.3442709553441
 20
111.9627527709637
 30
0.0
 10
200.528971500926
 20
112.147160091152
 30
0.0
 10
200.6118012351826
 20
112.2477331544214
 30
0.0
 10
200.7580536737801
 20
112.4659592950004
 30
0.0
 10
200.8204221545725
 20
112.5825144049217
 30
0.0
 10
200.9703783061392
 20
112.9433639989554
 30
0.0
 10
201.023531586306
 20
113.2059624963819
 30
0.0
 10
201.023531586306
 20
113.4702930214686
 30
0.0
  0
LWPOLYLINE
  5
126
330
1F
100
AcDbEntity
  8
0
  6
HIDDEN
 62
     7
370
    18
100
AcDbPolyline
 90
       29
 70
   128
 43
0.0
 10
208.0235315863
 20
128.3183692328
 10
208.6910943882
 20
128.2532300379
 10
209.3251828037
 20
128.0610788043
 10
209.8940009919
 20
127.7515507974
 10
210.3690260337
 20
127.3401670437
 10
210.72643819
 20
126.8475560426
 10
210.9483153229
 20
126.2984193665
 10
211.0235315863
 20
125.7202930215
 10
210.9483153229
 20
125.1421666764
 10
210.72643819
 20
124.5930300004
 10
210.3690260337
 20
124.1004189992
 10
209.8940009919
 20
123.6890352456
 10
209.3251828037
 20
123.3795072386
 10
208.6910943882
 20
123.187356005
 10
208.0235315863
 20
123.1222168101
 10
207.3559687844
 20
123.187356005
 10
206.721880369
 20
123.3795072386
 10
206.1530621807
 20
123.6890352456
 10
205.6780371389
 20
124.1004189992
 10
205.3206249826
 20
124.5930300004
 10
205.0987478498
 20
125.1421666764
 10
205.0235315863
 20
125.7202930215
 10
205.0987478498
 20
126.2984193665
 10
205.3206249826
 20
126.8475560426
 10
205.6780371389
 20
127.3401670437
 10
206.1530621807
 20
127.7515507974
 10
206.721880369
 20
128.0610788043
 10
207.3559687844
 20
128.2532300379
 10
208.0235315863
 20
128.3183692328
  0
LINE
  5
127
330
1F
100
AcDbEntity
  8
0
  6
HIDDEN
 62
     7
370
    18
100
AcDbLine
 10
187.0235315863
 20
89.2202930215
 30
0.0
 11
187.0235315863
 21
137.7020558697
 31
0.0
  0
SPLINE
  5
128
330
1F
100
AcDbEntity
  8
0
  6
HIDDEN
 62
     7
370
    18
100
AcDbSpline
210
0.0
220
0.0
230
1.0
 70
     8
 71
     3
 72
    12
 73
     8
 74
     0
 42
0.000000001
 43
0.00000001
 40
0.0
 40
0.0
 40
0.0
 40
0.0
 40
0.5
 40
0.5
 40
0.75
 40
0.75
 40
1.0
 40
1.0
 40
1.0
 40
1.0
 10
186.2070192998506
 20
128.9225610033066
 30
0.0
 10
186.2634254785312
 20
128.8747386296446
 30
0.0
 10
186.3335883800033
 20
128.8344677827033
 30
0.0
 10
186.4515990933952
 20
128.8264219142236
 30
0.0
 10
186.4918048769919
 20
128.832984512562
 30
0.0
 10
186.565525573727
 20
128.8603666070156
 30
0.0
 10
186.5983862955144
 20
128.8801280975464
 30
0.0
 10
186.6285546974445
 20
128.903060808735
 30
0.0
  0
SPLINE
  5
129
330
1F
100
AcDbEntity
  8
0
  6
HIDDEN
 62
     7
370
    18
100
AcDbSpline
210
0.0
220
0.0
230
1.0
 70
     8
 71
     3
 72
    16
 73
    12
 74
     0
 42
0.000000001
 43
0.00000001
 40
0.0
 40
0.0
 40
0.0
 40
0.0
 40
0.0624999999999964
 40
0.0624999999999964
 40
0.1249999999999929
 40
0.1249999999999929
 40
0.2499999999999939
 40
0.2499999999999939
 40
0.4999999999999959
 40
0.4999999999999959
 40
1.0
 40
1.0
 40
1.0
 40
1.0
 10
186.6285546973993
 20
128.9030608087831
 30
0.0
 10
186.6401675972387
 20
128.9118884317645
 30
0.0
 10
186.6535187816712
 20
128.9197228136464
 30
0.0
 10
186.6829186212903
 20
128.9280329397188
 30
0.0
 10
186.6977593458456
 20
128.9275371204838
 30
0.0
 10
186.7335925538142
 20
128.9160861495144
 30
0.0
 10
186.7477057616358
 20
128.8994056486558
 30
0.0
 10
186.7821971328547
 20
128.8472849628987
 30
0.0
 10
186.7932812039651
 20
128.8074954688737
 30
0.0
 10
186.8194040217611
 20
128.6841588367766
 30
0.0
 10
186.823531586306
 20
128.596737426278
 30
0.0
 10
186.823531586306
 20
128.5080001839598
 30
0.0
  0
LINE
  5
12A
330
1F
100
AcDbEntity
  8
0
  6
HIDDEN
 62
     7
370
    18
100
AcDbLine
 10
186.8235315863
 20
98.432585859
 30
0.0
 11
186.8235315863
 21
128.508000184
 31
0.0
  0
SPLINE
  5
12B
330
1F
100
AcDbEntity
  8
0
  6
HIDDEN
 62
     7
370
    18
100
AcDbSpline
210
0.0
220
0.0
230
1.0
 70
     8
 71
     3
 72
    16
 73
    12
 74
     0
 42
0.000000001
 43
0.00000001
 40
0.0
 40
0.0
 40
0.0
 40
0.0
 40
0.5000000000000054
 40
0.5000000000000054
 40
0.7500000000000057
 40
0.7500000000000057
 40
0.8750000000000038
 40
0.8750000000000038
 40
0.9375000000000019
 40
0.9375000000000019
 40
1.0
 40
1.0
 40
1.0
 40
1.0
 10
186.823531586306
 20
98.43258585897749
 30
0.0
 10
186.823531586306
 20
98.34345949378876
 30
0.0
 10
186.819385311228
 20
98.25659812617533
 30
0.0
 10
186.7934197158345
 20
98.13361587968129
 30
0.0
 10
186.7819588104571
 20
98.09284458445002
 30
0.0
 10
186.7476470726827
 20
98.04114026445023
 30
0.0
 10
186.7336223367531
 20
98.02446989785982
 30
0.0
 10
186.6975993737193
 20
98.01301767740308
 30
0.0
 10
186.6828448646296
 20
98.01256463112809
 30
0.0
 10
186.6534927034828
 20
98.02087995234423
 30
0.0
 10
186.6401528289787
 20
98.02870883742251
 30
0.0
 10
186.6285546974303
 20
98.03752523418515
 30
0.0
  0
SPLINE
  5
12C
330
1F
100
AcDbEntity
  8
0
  6
HIDDEN
 62
     7
370
    18
100
AcDbSpline
210
0.0
220
0.0
230
1.0
 70
     8
 71
     3
 72
    12
 73
     8
 74
     0
 42
0.000000001
 43
0.00000001
 40
0.0
 40
0.0
 40
0.0
 40
0.0
 40
0.2499999999999992
 40
0.2499999999999992
 40
0.4999999999999988
 40
0.4999999999999988
 40
1.0
 40
1.0
 40
1.0
 40
1.0
 10
186.6285546974374
 20
98.03752523419405
 30
0.0
 10
186.5983628557202
 20
98.06047576329188
 30
0.0
 10
186.5650038863056
 20
98.08044523731607
 30
0.0
 10
186.491866601725
 20
98.10754637094158
 30
0.0
 10
186.451624729071
 20
98.11414711158697
 30
0.0
 10
186.3339189521025
 20
98.10617823708024
 30
0.0
 10
186.2635084743231
 20
98.06591777891238
 30
0.0
 10
186.2070192998548
 20
98.01802503963424
 30
0.0
  0
SPLINE
  5
12D
330
1F
100
AcDbEntity
  8
0
  6
HIDDEN
 62
     7
370
    18
100
AcDbSpline
210
0.0
220
0.0
230
1.0
 70
     8
 71
     3
 72
    12
 73
     8
 74
     0
 42
0.000000001
 43
0.00000001
 40
0.0
 40
0.0
 40
0.0
 40
0.0
 40
0.2499999999999987
 40
0.2499999999999987
 40
0.4999999999999972
 40
0.4999999999999972
 40
1.0
 40
1.0
 40
1.0
 40
1.0
 10
186.2070192998544
 20
98.01802503963442
 30
0.0
 10
186.1188653621167
 20
97.94328623178033
 30
0.0
 10
186.058511937488
 20
97.85230573129796
 30
0.0
 10
185.9522499794212
 20
97.66339190854536
 30
0.0
 10
185.9100178128591
 20
97.56688744900478
 30
0.0
 10
185.7989471175419
 20
97.27611969483766
 30
0.0
 10
185.7460103411152
 20
97.0804528802939
 30
0.0
 10
185.7022112427464
 20
96.88638639522759
 30
0.0
  0
SPLINE
  5
12E
330
1F
100
AcDbEntity
  8
0
  6
HIDDEN
 62
     7
370
    18
100
AcDbSpline
210
0.0
220
0.0
230
1.0
 70
     8
 71
     3
 72
    12
 73
     8
 74
     0
 42
0.000000001
 43
0.00000001
 40
0.0
 40
0.0
 40
0.0
 40
0.0
 40
0.4999999999999994
 40
0.4999999999999994
 40
0.7499999999999998
 40
0.7499999999999998
 40
1.0
 40
1.0
 40
1.0
 40
1.0
 10
185.7022112427463
 20
91.7002120664665
 30
0.0
 10
185.7459577835829
 20
91.67361789582534
 30
0.0
 10
185.7988421388144
 20
91.6538576704996
 30
0.0
 10
185.9104092261506
 20
91.63340668027054
 30
0.0
 10
185.9529928226936
 20
91.62814645561409
 30
0.0
 10
186.0579095497754
 20
91.62026366169142
 30
0.0
 10
186.1194431576202
 20
91.61769953651229
 30
0.0
 10
186.2070192998463
 20
91.61549931899265
 30
0.0
  0
LINE
  5
12F
330
1F
100
AcDbEntity
  8
0
  6
HIDDEN
 62
     7
370
    18
100
AcDbLine
 10
186.8235315863
 20
90.9304727426
 30
0.0
 11
186.8235315863
 21
91.4106985332
 31
0.0
  0
LINE
  5
130
330
1F
100
AcDbEntity
  8
0
  6
HIDDEN
 62
     7
370
    18
100
AcDbLine
 10
186.8235315863
 20
135.5298875097
 30
0.0
 11
186.8235315863
 21
136.0101133003
 31
0.0
  0
SPLINE
  5
131
330
1F
100
AcDbEntity
  8
0
  6
HIDDEN
 62
     7
370
    18
100
AcDbSpline
210
0.0
220
0.0
230
1.0
 70
     8
 71
     3
 72
    12
 73
     8
 74
     0
 42
0.000000001
 43
0.00000001
 40
0.0
 40
0.0
 40
0.0
 40
0.0
 40
0.2500000000000005
 40
0.2500000000000005
 40
0.5000000000000009
 40
0.5000000000000009
 40
1.0
 40
1.0
 40
1.0
 40
1.0
 10
186.2070192998543
 20
135.3250867239445
 30
0.0
 10
186.1183346399979
 20
135.3228586566035
 30
0.0
 10
186.0584162242745
 20
135.3203568725732
 30
0.0
 10
185.9527569969538
 20
135.3124254367372
 30
0.0
 10
185.9101157588388
 20
135.3071332818404
 30
0.0
 10
185.7989264167363
 20
135.2867283413532
 30
0.0
 10
185.7459997346153
 20
135.2669936497664
 30
0.0
 10
185.7022112427464
 20
135.2403739764707
 30
0.0
  0
SPLINE
  5
132
330
1F
100
AcDbEntity
  8
0
  6
HIDDEN
 62
     7
370
    18
100
AcDbSpline
210
0.0
220
0.0
230
1.0
 70
     8
 71
     3
 72
    12
 73
     8
 74
     0
 42
0.000000001
 43
0.00000001
 40
0.0
 40
0.0
 40
0.0
 40
0.0
 40
0.5000000000000009
 40
0.5000000000000009
 40
0.7500000000000004
 40
0.7500000000000004
 40
1.0
 40
1.0
 40
1.0
 40
1.0
 10
185.7022112427448
 20
130.0541996477099
 30
0.0
 10
185.7459727190432
 20
129.860299859749
 30
0.0
 10
185.7988790346959
 20
129.6644434958135
 30
0.0
 10
185.9105902323421
 20
129.3723013493164
 30
0.0
 10
185.953109675928
 20
129.275583412619
 30
0.0
 10
186.0582330184939
 20
129.0888589761954
 30
0.0
 10
186.1197989822108
 20
128.9965082679262
 30
0.0
 10
186.2070192998514
 20
128.9225610033059
 30
0.0
  0
LWPOLYLINE
  5
133
330
1F
100
AcDbEntity
  8
0
  6
HIDDEN
 62
     7
370
    18
100
AcDbPolyline
 90
       27
 70
   128
 43
0.0
 10
208.0235315863
 20
127.7351413762
 10
208.621820747
 20
127.6722285654
 10
209.1853395164
 20
127.4871463971
 10
209.6813382319
 20
127.190651174
 10
210.080991251
 20
126.7999741209
 10
210.361072193
 20
126.3378199679
 10
210.5053037716
 20
125.8310474347
 10
210.5053037716
 20
125.3091082987
 10
210.361072193
 20
124.8023357655
 10
210.080991251
 20
124.3401816126
 10
209.6813382319
 20
123.9495045594
 10
209.1853395164
 20
123.6530093363
 10
208.621820747
 20
123.467927168
 10
208.0235315863
 20
123.4050143573
 10
207.4252424256
 20
123.467927168
 10
206.8617236562
 20
123.6530093363
 10
206.3657249407
 20
123.9495045594
 10
205.9660719216
 20
124.3401816126
 10
205.6859909796
 20
124.8023357655
 10
205.5417594011
 20
125.3091082987
 10
205.5417594011
 20
125.8310474347
 10
205.6859909796
 20
126.3378199679
 10
205.9660719216
 20
126.7999741209
 10
206.3657249407
 20
127.190651174
 10
206.8617236562
 20
127.4871463971
 10
207.4252424256
 20
127.6722285654
 10
208.0235315863
 20
127.7351413762
  0
SPLINE
  5
134
330
1F
100
AcDbEntity
  8
0
  6
HIDDEN
 62
     7
370
    18
100
AcDbSpline
210
0.0
220
0.0
230
1.0
 70
    11
 71
     3
 72
    62
 73
    58
 74
     0
 42
0.000000001
 43
0.00000001
 40
0.0
 40
0.0
 40
0.0
 40
0.0
 40
0.0312499999999994
 40
0.0312499999999994
 40
0.0624999999999988
 40
0.0624999999999988
 40
0.0937499999999982
 40
0.0937499999999982
 40
0.1249999999999976
 40
0.1249999999999976
 40
0.187499999999997
 40
0.187499999999997
 40
0.2187499999999966
 40
0.2187499999999966
 40
0.2499999999999963
 40
0.2499999999999963
 40
0.281249999999996
 40
0.281249999999996
 40
0.3124999999999957
 40
0.3124999999999957
 40
0.3749999999999949
 40
0.3749999999999949
 40
0.4062499999999947
 40
0.4062499999999947
 40
0.4374999999999946
 40
0.4374999999999946
 40
0.4687499999999944
 40
0.4687499999999944
 40
0.4999999999999942
 40
0.4999999999999942
 40
0.5624999999999946
 40
0.5624999999999946
 40
0.593749999999995
 40
0.593749999999995
 40
0.6249999999999956
 40
0.6249999999999956
 40
0.656249999999996
 40
0.656249999999996
 40
0.6874999999999966
 40
0.6874999999999966
 40
0.718749999999997
 40
0.718749999999997
 40
0.7499999999999976
 40
0.7499999999999976
 40
0.7812499999999978
 40
0.7812499999999978
 40
0.8124999999999981
 40
0.8124999999999981
 40
0.8749999999999988
 40
0.8749999999999988
 40
0.906249999999999
 40
0.906249999999999
 40
0.9374999999999993
 40
0.9374999999999993
 40
0.9687499999999996
 40
0.9687499999999996
 40
1.0
 40
1.0
 40
1.0
 40
1.0
 10
208.0235315863061
 20
119.9582606473774
 30
0.0
 10
207.85748776737
 20
119.9582606473774
 30
0.0
 10
207.6943910367929
 20
119.9464695067054
 30
0.0
 10
207.3737947318844
 20
119.9001008629697
 30
0.0
 10
207.214592528578
 20
119.864916200269
 30
0.0
 10
206.9122820268639
 20
119.7727043498313
 30
0.0
 10
206.7690304526195
 20
119.7160168977077
 30
0.0
 10
206.4979196115523
 20
119.5804691083809
 30
0.0
 10
206.3702376164235
 20
119.501256154556
 30
0.0
 10
206.0262375282082
 20
119.2377368429561
 30
0.0
 10
205.8402358996239
 20
119.020215763287
 30
0.0
 10
205.6527493864423
 20
118.654033259995
 30
0.0
 10
205.6042774416902
 20
118.523366061379
 30
0.0
 10
205.5397154622765
 20
118.2523629208091
 30
0.0
 10
205.5236369620565
 20
118.1136599258626
 30
0.0
 10
205.5234272331429
 20
117.8296953436447
 30
0.0
 10
205.5398587805537
 20
117.6831257346929
 30
0.0
 10
205.6040274707061
 20
117.3961105552717
 30
0.0
 10
205.6514964334976
 20
117.2543626919012
 30
0.0
 10
205.8406199174518
 20
116.8353716893705
 30
0.0
 10
206.0247598098179
 20
116.5748597825544
 30
0.0
 10
206.3714953936219
 20
116.2399033709652
 30
0.0
 10
206.4968123497736
 20
116.139351174839
 30
0.0
 10
206.7668718525735
 20
115.9611691151505
 30
0.0
 10
206.9132452284547
 20
115.8830786700762
 30
0.0
 10
207.2146631315083
 20
115.7579493090923
 30
0.0
 10
207.3705152929473
 20
115.7100215436553
 30
0.0
 10
207.6928583542636
 20
115.6448519998882
 30
0.0
 10
207.8588098213331
 20
115.628205393697
 30
0.0
 10
208.3497311888843
 20
115.6279908069483
 30
0.0
 10
208.6802141759871
 20
115.6950147820604
 30
0.0
 10
209.1321236735856
 20
115.882254660818
 30
0.0
 10
209.2784208909649
 20
115.9601229534638
 30
0.0
 10
209.5493044535213
 20
116.1386060423298
 30
0.0
 10
209.6746609756791
 20
116.2391586974805
 30
0.0
 10
209.9054386171683
 20
116.4618350407346
 30
0.0
 10
210.0102264972384
 20
116.5838845582104
 30
0.0
 10
210.1908901214205
 20
116.838543352833
 30
0.0
 10
210.2680786186158
 20
116.9723218893927
 30
0.0
 10
210.394942022907
 20
117.252584060154
 30
0.0
 10
210.4426033768394
 20
117.3947722114737
 30
0.0
 10
210.506833743902
 20
117.6808799333254
 30
0.0
 10
210.523466957781
 20
117.8266845755769
 30
0.0
 10
210.5235958327925
 20
118.1122086972303
 30
0.0
 10
210.5075148536637
 20
118.2509682788834
 30
0.0
 10
210.4435474411952
 20
118.5208518120922
 30
0.0
 10
210.3949833909516
 20
118.6525007254291
 30
0.0
 10
210.207252548909
 20
119.0198314403347
 30
0.0
 10
210.0213067114134
 20
119.2372341938445
 30
0.0
 10
209.677531489309
 20
119.500782167207
 30
0.0
 10
209.5503561849414
 20
119.5797921236482
 30
0.0
 10
209.2787137756668
 20
119.7157466048471
 30
0.0
 10
209.1355546047197
 20
119.7723892446294
 30
0.0
 10
208.8344276621819
 20
119.8643977307516
 30
0.0
 10
208.6749114334903
 20
119.8998128069716
 30
0.0
 10
208.3530455412585
 20
119.9464656110973
 30
0.0
 10
208.1895754052423
 20
119.9582606473774
 30
0.0
 10
208.0235315863061
 20
119.9582606473774
 30
0.0
  0
SPLINE
  5
135
330
1F
100
AcDbEntity
  8
0
  6
HIDDEN
 62
     7
370
    18
100
AcDbSpline
210
0.0
220
0.0
230
1.0
 70
     8
 71
     3
 72
    10
 73
     6
 74
     0
 42
0.000000001
 43
0.00000001
 40
0.0
 40
0.0
 40
0.0
 40
0.0
 40
0.4999999999999998
 40
0.4999999999999998
 40
1.0
 40
1.0
 40
1.0
 40
1.0
 10
210.0322413035529
 20
120.7314012524065
 30
0.0
 10
209.943275343603
 20
120.8332631932053
 30
0.0
 10
209.8679831615741
 20
120.9747499810607
 30
0.0
 10
209.8241388312311
 20
121.3724516557841
 30
0.0
 10
209.8586249798857
 20
121.6180121912537
 30
0.0
 10
209.9183936034231
 20
121.8906296789013
 30
0.0
  0
SPLINE
  5
136
330
1F
100
AcDbEntity
  8
0
  6
HIDDEN
 62
     7
370
    18
100
AcDbSpline
210
0.0
220
0.0
230
1.0
 70
     8
 71
     3
 72
    66
 73
    62
 74
     0
 42
0.000000001
 43
0.00000001
 40
0.0
 40
0.0
 40
0.0
 40
0.0
 40
0.03125
 40
0.03125
 40
0.0625
 40
0.0625
 40
0.1250000000000002
 40
0.1250000000000002
 40
0.1875000000000004
 40
0.1875000000000004
 40
0.2187500000000006
 40
0.2187500000000006
 40
0.2500000000000007
 40
0.2500000000000007
 40
0.2812500000000009
 40
0.2812500000000009
 40
0.3125000000000011
 40
0.3125000000000011
 40
0.3437500000000012
 40
0.3437500000000012
 40
0.3750000000000014
 40
0.3750000000000014
 40
0.4062500000000016
 40
0.4062500000000016
 40
0.4375000000000018
 40
0.4375000000000018
 40
0.4687500000000019
 40
0.4687500000000019
 40
0.5000000000000021
 40
0.5000000000000021
 40
0.5156250000000021
 40
0.5156250000000021
 40
0.5312500000000021
 40
0.5312500000000021
 40
0.562500000000002
 40
0.562500000000002
 40
0.5937500000000019
 40
0.5937500000000019
 40
0.6250000000000018
 40
0.6250000000000018
 40
0.6562500000000017
 40
0.6562500000000017
 40
0.6875000000000016
 40
0.6875000000000016
 40
0.7187500000000014
 40
0.7187500000000014
 40
0.7500000000000014
 40
0.7500000000000014
 40
0.7812500000000013
 40
0.7812500000000013
 40
0.8125000000000012
 40
0.8125000000000012
 40
0.8437500000000011
 40
0.8437500000000011
 40
0.875000000000001
 40
0.875000000000001
 40
0.9375000000000007
 40
0.9375000000000007
 40
0.9687500000000003
 40
0.9687500000000003
 40
1.0
 40
1.0
 40
1.0
 40
1.0
 10
209.9183936034233
 20
121.8906296789002
 30
0.0
 10
210.0198384280581
 20
122.0154006630017
 30
0.0
 10
210.1033274076928
 20
122.150017843921
 30
0.0
 10
210.246930041434
 20
122.4319481342067
 30
0.0
 10
210.3070549490993
 20
122.5802837067063
 30
0.0
 10
210.4548397776936
 20
123.0357084547328
 30
0.0
 10
210.5101521994426
 20
123.3467600415646
 30
0.0
 10
210.5328208480868
 20
123.9848487222889
 30
0.0
 10
210.4978308510278
 20
124.3058574581354
 30
0.0
 10
210.3569799177542
 20
124.7539073849158
 30
0.0
 10
210.2963391385758
 20
124.8944658447775
 30
0.0
 10
210.1444378409539
 20
125.1552478164233
 30
0.0
 10
210.0543002214452
 20
125.2724742212153
 30
0.0
 10
209.8532629490324
 20
125.4707266493741
 30
0.0
 10
209.7398567764969
 20
125.5536938069311
 30
0.0
 10
209.5047825111036
 20
125.6782616800694
 30
0.0
 10
209.3804203188801
 20
125.7217222074226
 30
0.0
 10
209.1317922244754
 20
125.7726645815709
 30
0.0
 10
209.0078298621942
 20
125.7806761220189
 30
0.0
 10
208.7617021352589
 20
125.7681093509092
 30
0.0
 10
208.6396791790048
 20
125.7471818479624
 30
0.0
 10
208.4072137414199
 20
125.6829728184909
 30
0.0
 10
208.2955045425027
 20
125.6396337588659
 30
0.0
 10
208.0826744737771
 20
125.5341234828443
 30
0.0
 10
207.9809744827633
 20
125.4714325143791
 30
0.0
 10
207.7972187681313
 20
125.3328534333381
 30
0.0
 10
207.7144572926709
 20
125.2568243622774
 30
0.0
 10
207.5776101684135
 20
125.0946359305707
 30
0.0
 10
207.5244265114433
 20
125.0089453904377
 30
0.0
 10
207.4855831702951
 20
124.8834033063644
 30
0.0
 10
207.4795515640974
 20
124.8416510678108
 30
0.0
 10
207.4830821807899
 20
124.7627994247465
 30
0.0
 10
207.4924213501184
 20
124.7252518280802
 30
0.0
 10
207.5418715523584
 20
124.6172504696157
 30
0.0
 10
207.603020141667
 20
124.5530060681901
 30
0.0
 10
207.7558474124706
 20
124.4321863807143
 30
0.0
 10
207.8488097326792
 20
124.3740746366403
 30
0.0
 10
208.0493864845499
 20
124.2563223087428
 30
0.0
 10
208.157881842446
 20
124.1962550742699
 30
0.0
 10
208.3871431832471
 20
124.0670657311149
 30
0.0
 10
208.5089638932348
 20
123.9974095328135
 30
0.0
 10
208.7549698641072
 20
123.8490357379546
 30
0.0
 10
208.8799227052016
 20
123.7699961040665
 30
0.0
 10
209.1323568561146
 20
123.5983225722422
 30
0.0
 10
209.2616241854375
 20
123.5042758473335
 30
0.0
 10
209.5106346091729
 20
123.3061193388758
 30
0.0
 10
209.6306687938711
 20
123.2020774831231
 30
0.0
 10
209.8593520731239
 20
122.9812602070346
 30
0.0
 10
209.9633230805699
 20
122.8689137652195
 30
0.0
 10
210.1484437783218
 20
122.640808410786
 30
0.0
 10
210.2299491984481
 20
122.5240223230012
 30
0.0
 10
210.3614256754063
 20
122.2983017935739
 30
0.0
 10
210.4132283210988
 20
122.1866128256241
 30
0.0
 10
210.487138285098
 20
121.9724535415567
 30
0.0
 10
210.5095280488597
 20
121.8702387749892
 30
0.0
 10
210.5371682313923
 20
121.5736390400379
 30
0.0
 10
210.5035574226302
 20
121.398381581032
 30
0.0
 10
210.3826636295366
 20
121.1463184635112
 30
0.0
 10
210.330394879683
 20
121.0646224561958
 30
0.0
 10
210.2018152670384
 20
120.9016704301869
 30
0.0
 10
210.125473600954
 20
120.8200774442399
 30
0.0
 10
210.0322413035524
 20
120.7314012524063
 30
0.0
  0
LINE
  5
137
330
1F
100
AcDbEntity
  8
0
  6
HIDDEN
 62
     7
370
    18
100
AcDbLine
 10
186.8235315863
 20
91.4106985332
 30
0.0
 11
186.8235315863
 21
106.4484056957
 31
0.0
  0
LINE
  5
138
330
1F
100
AcDbEntity
  8
0
  6
HIDDEN
 62
     7
370
    18
100
AcDbLine
 10
186.8235315863
 20
120.4921803472
 30
0.0
 11
186.8235315863
 21
135.5298875097
 31
0.0
  0
LWPOLYLINE
  5
139
330
1F
100
AcDbEntity
  8
0
  6
HIDDEN
 62
     7
370
    18
100
AcDbPolyline
 90
        9
 70
   128
 43
0.0
 10
209.9183936034
 20
121.8906296789
 10
210.034255973
 20
121.6552961775
 10
210.1229730727
 20
121.4390936043
 10
210.1829290457
 20
121.245959784
 10
210.2130318786
 20
121.0794123765
 10
210.2127332907
 20
120.9424848078
 10
210.1820387205
 20
120.8376710203
 10
210.1215072262
 20
120.7668800493
 10
210.0322413036
 20
120.7314012524
  0
CIRCLE
  5
13A
330
1F
100
AcDbEntity
  8
0
  6
HIDDEN
 62
     7
370
    18
100
AcDbCircle
 10
171.5235315863
 20
113.4702930215
 30
0.0
 40
4.049999999999997
  0
LINE
  5
13B
330
1F
100
AcDbEntity
  8
0
  6
HIDDEN
 62
     7
370
    18
100
AcDbLine
 10
150.5537600259
 20
128.7832440644
 30
0.0
 11
150.5537600259
 21
98.1573419786
 31
0.0
  0
LINE
  5
13C
330
1F
100
AcDbEntity
  8
0
  6
HIDDEN
 62
     7
370
    18
100
AcDbLine
 10
149.0235315863
 20
97.273864177
 30
0.0
 11
149.0235315863
 21
129.6667218659
 31
0.0
  0
LINE
  5
13D
330
1F
100
AcDbEntity
  8
0
  6
HIDDEN
 62
     7
370
    18
100
AcDbLine
 10
157.0537600259
 20
127.816703183
 30
0.0
 11
157.0537600259
 21
99.12388286
 31
0.0
  0
LINE
  5
13E
330
1F
100
AcDbEntity
  8
0
  6
HIDDEN
 62
     7
370
    18
100
AcDbLine
 10
162.8537600259
 20
127.4702930215
 30
0.0
 11
162.8537600259
 21
99.4702930215
 31
0.0
  0
LINE
  5
13F
330
1F
100
AcDbEntity
  8
0
  6
HIDDEN
 62
     7
370
    18
100
AcDbLine
 10
155.4537600259
 20
127.4702930215
 30
0.0
 11
155.4537600259
 21
99.4702930215
 31
0.0
  0
LINE
  5
140
330
1F
100
AcDbEntity
  8
0
  6
HIDDEN
 62
     7
370
    18
100
AcDbLine
 10
156.4537600259
 20
127.4702930215
 30
0.0
 11
156.4537600259
 21
99.4702930215
 31
0.0
  0
SPLINE
  5
141
330
1F
100
AcDbEntity
  8
0
  6
HIDDEN
 62
     7
370
    18
100
AcDbSpline
210
0.0
220
0.0
230
1.0
 70
     8
 71
     3
 72
    10
 73
     6
 74
     0
 42
0.000000001
 43
0.00000001
 40
0.0
 40
0.0
 40
0.0
 40
0.0
 40
0.5
 40
0.5
 40
1.0
 40
1.0
 40
1.0
 40
1.0
 10
175.523531586306
 20
114.1047218984912
 30
0.0
 10
175.5566790043824
 20
113.8957312974831
 30
0.0
 10
175.5735378497441
 20
113.6841688314615
 30
0.0
 10
175.5735253193964
 20
113.2561800654939
 30
0.0
 10
175.556610361656
 20
113.0444219610782
 30
0.0
 10
175.523531586306
 20
112.8358641444461
 30
0.0
  0
LINE
  5
142
330
1F
100
AcDbEntity
  8
0
  6
HIDDEN
 62
     7
370
    18
100
AcDbLine
 10
176.0235315863
 20
126.9702930215
 30
0.0
 11
176.0235315863
 21
99.9702930215
 31
0.0
  0
SPLINE
  5
143
330
1F
100
AcDbEntity
  8
0
  6
HIDDEN
 62
     7
370
    18
100
AcDbSpline
210
0.0
220
0.0
230
1.0
 70
     8
 71
     3
 72
    10
 73
     6
 74
     0
 42
0.000000001
 43
0.00000001
 40
0.0
 40
0.0
 40
0.0
 40
0.0
 40
0.5
 40
0.5
 40
1.0
 40
1.0
 40
1.0
 40
1.0
 10
175.523531586306
 20
112.8358641444461
 30
0.0
 10
175.5567205487797
 20
113.0451166780286
 30
0.0
 10
175.5734213250344
 20
113.2559334389275
 30
0.0
 10
175.573640765479
 20
113.6804657201308
 30
0.0
 10
175.5567610500856
 20
113.8952140089035
 30
0.0
 10
175.523531586306
 20
114.1047218984912
 30
0.0
  0
SPLINE
  5
144
330
1F
100
AcDbEntity
  8
0
  6
HIDDEN
 62
     7
370
    18
100
AcDbSpline
210
0.0
220
0.0
230
1.0
 70
     8
 71
     3
 72
    68
 73
    64
 74
     0
 42
0.000000001
 43
0.00000001
 40
0.0
 40
0.0
 40
0.0
 40
0.0
 40
0.0312499999999997
 40
0.0312499999999997
 40
0.0624999999999994
 40
0.0624999999999994
 40
0.0937499999999991
 40
0.0937499999999991
 40
0.1249999999999989
 40
0.1249999999999989
 40
0.1562499999999986
 40
0.1562499999999986
 40
0.1874999999999984
 40
0.1874999999999984
 40
0.2187499999999981
 40
0.2187499999999981
 40
0.2499999999999979
 40
0.2499999999999979
 40
0.2812499999999979
 40
0.2812499999999979
 40
0.3124999999999978
 40
0.3124999999999978
 40
0.3437499999999978
 40
0.3437499999999978
 40
0.3749999999999978
 40
0.3749999999999978
 40
0.4062499999999978
 40
0.4062499999999978
 40
0.4374999999999978
 40
0.4374999999999978
 40
0.4687499999999977
 40
0.4687499999999977
 40
0.4999999999999978
 40
0.4999999999999978
 40
0.5624999999999978
 40
0.5624999999999978
 40
0.5937499999999978
 40
0.5937499999999978
 40
0.6249999999999978
 40
0.6249999999999978
 40
0.6562499999999979
 40
0.6562499999999979
 40
0.6874999999999979
 40
0.6874999999999979
 40
0.7187499999999979
 40
0.7187499999999979
 40
0.7499999999999979
 40
0.7499999999999979
 40
0.7812499999999982
 40
0.7812499999999982
 40
0.8124999999999984
 40
0.8124999999999984
 40
0.8437499999999987
 40
0.8437499999999987
 40
0.874999999999999
 40
0.874999999999999
 40
0.9062499999999992
 40
0.9062499999999992
 40
0.9374999999999994
 40
0.9374999999999994
 40
0.9687499999999998
 40
0.9687499999999998
 40
1.0
 40
1.0
 40
1.0
 40
1.0
 10
175.523531586306
 20
112.8358641444461
 30
0.0
 10
175.4835166339563
 20
112.5835745416305
 30
0.0
 10
175.420574832545
 20
112.3395756912547
 30
0.0
 10
175.2511881704729
 20
111.8671573021922
 30
0.0
 10
175.1434946078874
 20
111.6367439160322
 30
0.0
 10
174.8882098393496
 20
111.2020393202351
 30
0.0
 10
174.7421706088773
 20
110.9993973535838
 30
0.0
 10
174.4139491723181
 20
110.622408062826
 30
0.0
 10
174.2297018845431
 20
110.4467501092486
 30
0.0
 10
173.8367417172348
 20
110.1364921403024
 30
0.0
 10
173.6274471202756
 20
110.0005469326525
 30
0.0
 10
173.1825616933383
 20
109.7671568372466
 30
0.0
 10
172.9457641008393
 20
109.6699102308322
 30
0.0
 10
172.46502903192
 20
109.5232387729609
 30
0.0
 10
172.2187859387372
 20
109.4723464280185
 30
0.0
 10
171.7140691587578
 20
109.416819077783
 30
0.0
 10
171.4578744578213
 20
109.412994190713
 30
0.0
 10
170.9554957086212
 20
109.4524179733574
 30
0.0
 10
170.7062460094376
 20
109.4954454225687
 30
0.0
 10
170.2147182119588
 20
109.62915039202
 30
0.0
 10
169.979422610733
 20
109.7178202379252
 30
0.0
 10
169.5285087160709
 20
109.9368516017026
 30
0.0
 10
169.3108963656075
 20
110.0688531673862
 30
0.0
 10
168.9076891960592
 20
110.368210448389
 30
0.0
 10
168.7220777036248
 20
110.5348293758269
 30
0.0
 10
168.3820896332223
 20
110.9019408012544
 30
0.0
 10
168.2270167023994
 20
111.1042445467951
 30
0.0
 10
167.960673625736
 20
111.5283252263891
 30
0.0
 10
167.8476895250192
 20
111.7514848318553
 30
0.0
 10
167.6628342680884
 20
112.2208400734495
 30
0.0
 10
167.591693506585
 20
112.467050576785
 30
0.0
 10
167.4977330952968
 20
112.9615764031561
 30
0.0
 10
167.4737237653404
 20
113.2125073982481
 30
0.0
 10
167.4731506446678
 20
113.9767527778044
 30
0.0
 10
167.5685497559865
 20
114.4789770798553
 30
0.0
 10
167.8464135481876
 20
115.1865415861277
 30
0.0
 10
167.9595755042681
 20
115.4102478498685
 30
0.0
 10
168.225706686312
 20
115.8345177611891
 30
0.0
 10
168.3805344605117
 20
116.0367697232452
 30
0.0
 10
168.7207155662995
 20
116.4044804646133
 30
0.0
 10
168.9062180232493
 20
116.5710973398627
 30
0.0
 10
169.3085118243086
 20
116.8701467186581
 30
0.0
 10
169.5265198725606
 20
117.0026034266865
 30
0.0
 10
169.9771182397109
 20
117.2218098273912
 30
0.0
 10
170.2116672385916
 20
117.3102949573948
 30
0.0
 10
170.700127232144
 20
117.4437811873335
 30
0.0
 10
170.9523926278578
 20
117.4877228998272
 30
0.0
 10
171.4545732660181
 20
117.5275318963007
 30
0.0
 10
171.7070553833698
 20
117.5241876834872
 30
0.0
 10
172.2149204264393
 20
117.4690083634967
 30
0.0
 10
172.4624658996231
 20
117.4179624350273
 30
0.0
 10
172.9434334370938
 20
117.2715520467917
 30
0.0
 10
173.1793933021991
 20
117.1749058420181
 30
0.0
 10
173.6259637517207
 20
116.9410008977051
 30
0.0
 10
173.8356086142942
 20
116.8048758838786
 30
0.0
 10
174.2285953210486
 20
116.4948216195495
 30
0.0
 10
174.4129912248636
 20
116.3191643719744
 30
0.0
 10
174.741541642724
 20
115.94202444931
 30
0.0
 10
174.8874837392472
 20
115.7395582440401
 30
0.0
 10
175.1423690944494
 20
115.3059819459068
 30
0.0
 10
175.2506804072577
 20
115.0746901023252
 30
0.0
 10
175.4205153846746
 20
114.601330422192
 30
0.0
 10
175.4835107458117
 20
114.3570486253712
 30
0.0
 10
175.523531586306
 20
114.1047218984912
 30
0.0
  0
SPLINE
  5
145
330
1F
100
AcDbEntity
  8
0
  6
HIDDEN
 62
     7
370
    18
100
AcDbSpline
210
0.0
220
0.0
230
1.0
 70
     8
 71
     3
 72
    68
 73
    64
 74
     0
 42
0.000000001
 43
0.00000001
 40
0.0
 40
0.0
 40
0.0
 40
0.0
 40
0.0312500000000001
 40
0.0312500000000001
 40
0.0625000000000002
 40
0.0625000000000002
 40
0.0937500000000003
 40
0.0937500000000003
 40
0.1250000000000004
 40
0.1250000000000004
 40
0.1562500000000005
 40
0.1562500000000005
 40
0.1875000000000006
 40
0.1875000000000006
 40
0.2187500000000006
 40
0.2187500000000006
 40
0.2500000000000007
 40
0.2500000000000007
 40
0.2812500000000006
 40
0.2812500000000006
 40
0.3125000000000005
 40
0.3125000000000005
 40
0.3437500000000004
 40
0.3437500000000004
 40
0.3750000000000003
 40
0.3750000000000003
 40
0.4062500000000002
 40
0.4062500000000002
 40
0.4375000000000001
 40
0.4375000000000001
 40
0.4687499999999999
 40
0.4687499999999999
 40
0.4999999999999999
 40
0.4999999999999999
 40
0.5624999999999998
 40
0.5624999999999998
 40
0.5937499999999997
 40
0.5937499999999997
 40
0.6249999999999996
 40
0.6249999999999996
 40
0.6562499999999994
 40
0.6562499999999994
 40
0.6874999999999993
 40
0.6874999999999993
 40
0.7187499999999992
 40
0.7187499999999992
 40
0.7499999999999991
 40
0.7499999999999991
 40
0.7812499999999992
 40
0.7812499999999992
 40
0.8124999999999993
 40
0.8124999999999993
 40
0.8437499999999994
 40
0.8437499999999994
 40
0.8749999999999996
 40
0.8749999999999996
 40
0.9062499999999997
 40
0.9062499999999997
 40
0.9374999999999998
 40
0.9374999999999998
 40
0.9687499999999999
 40
0.9687499999999999
 40
1.0
 40
1.0
 40
1.0
 40
1.0
 10
175.523531586306
 20
114.1047218984912
 30
0.0
 10
175.4835166339563
 20
114.3570115013068
 30
0.0
 10
175.420574832545
 20
114.6010103516826
 30
0.0
 10
175.2511881704729
 20
115.0734287407451
 30
0.0
 10
175.1434946078874
 20
115.303842126905
 30
0.0
 10
174.8882098393495
 20
115.7385467227021
 30
0.0
 10
174.7421706088773
 20
115.9411886893534
 30
0.0
 10
174.4139491723181
 20
116.3181779801112
 30
0.0
 10
174.2297018845431
 20
116.4938359336886
 30
0.0
 10
173.8367417172348
 20
116.8040939026348
 30
0.0
 10
173.6274471202756
 20
116.9400391102848
 30
0.0
 10
173.1825616933383
 20
117.1734292056906
 30
0.0
 10
172.9457641008393
 20
117.270675812105
 30
0.0
 10
172.46502903192
 20
117.4173472699764
 30
0.0
 10
172.2187859387372
 20
117.4682396149188
 30
0.0
 10
171.7140691587578
 20
117.5237669651543
 30
0.0
 10
171.4578744578213
 20
117.5275918522242
 30
0.0
 10
170.9554957086212
 20
117.4881680695798
 30
0.0
 10
170.7062460094376
 20
117.4451406203685
 30
0.0
 10
170.2147182119588
 20
117.3114356509173
 30
0.0
 10
169.979422610733
 20
117.2227658050121
 30
0.0
 10
169.5285087160709
 20
117.0037344412346
 30
0.0
 10
169.3108963656075
 20
116.8717328755511
 30
0.0
 10
168.9076891960592
 20
116.5723755945482
 30
0.0
 10
168.7220777036248
 20
116.4057566671103
 30
0.0
 10
168.3820896332223
 20
116.0386452416828
 30
0.0
 10
168.2270167023994
 20
115.8363414961421
 30
0.0
 10
167.960673625736
 20
115.4122608165481
 30
0.0
 10
167.8476895250192
 20
115.1891012110819
 30
0.0
 10
167.6628342680884
 20
114.7197459694877
 30
0.0
 10
167.591693506585
 20
114.4735354661523
 30
0.0
 10
167.4977330952968
 20
113.9790096397811
 30
0.0
 10
167.4737237653404
 20
113.7280786446891
 30
0.0
 10
167.4731506446678
 20
112.9638332651329
 30
0.0
 10
167.5685497559865
 20
112.4616089630819
 30
0.0
 10
167.8464135481875
 20
111.7540444568095
 30
0.0
 10
167.9595755042681
 20
111.5303381930687
 30
0.0
 10
168.225706686312
 20
111.1060682817481
 30
0.0
 10
168.3805344605117
 20
110.9038163196921
 30
0.0
 10
168.7207155662995
 20
110.5361055783239
 30
0.0
 10
168.9062180232492
 20
110.3694887030746
 30
0.0
 10
169.3085118243086
 20
110.0704393242791
 30
0.0
 10
169.5265198725606
 20
109.9379826162507
 30
0.0
 10
169.9771182397109
 20
109.718776215546
 30
0.0
 10
170.2116672385916
 20
109.6302910855424
 30
0.0
 10
170.700127232144
 20
109.4968048556038
 30
0.0
 10
170.9523926278578
 20
109.45286314311
 30
0.0
 10
171.4545732660181
 20
109.4130541466365
 30
0.0
 10
171.7070553833698
 20
109.41639835945
 30
0.0
 10
172.2149204264393
 20
109.4715776794405
 30
0.0
 10
172.4624658996231
 20
109.5226236079099
 30
0.0
 10
172.9434334370938
 20
109.6690339961455
 30
0.0
 10
173.1793933021991
 20
109.7656802009191
 30
0.0
 10
173.6259637517207
 20
109.9995851452322
 30
0.0
 10
173.8356086142942
 20
110.1357101590587
 30
0.0
 10
174.2285953210486
 20
110.4457644233878
 30
0.0
 10
174.4129912248636
 20
110.6214216709629
 30
0.0
 10
174.741541642724
 20
110.9985615936273
 30
0.0
 10
174.8874837392472
 20
111.2010277988971
 30
0.0
 10
175.1423690944494
 20
111.6346040970305
 30
0.0
 10
175.2506804072577
 20
111.865895940612
 30
0.0
 10
175.4205153846746
 20
112.3392556207452
 30
0.0
 10
175.4835107458117
 20
112.583537417566
 30
0.0
 10
175.523531586306
 20
112.8358641444461
 30
0.0
  0
LINE
  5
146
330
1F
100
AcDbEntity
  8
0
  6
HIDDEN
 62
     7
370
    18
100
AcDbLine
 10
177.2735315863
 20
122.4702930215
 30
0.0
 11
177.2735315863
 21
104.4702930215
 31
0.0
  0
LINE
  5
147
330
1F
100
AcDbEntity
  8
0
  6
HIDDEN
 62
     7
370
    18
100
AcDbLine
 10
176.0235315863
 20
103.2202930215
 30
0.0
 11
176.0235315863
 21
123.7022912721
 31
0.0
  0
LINE
  5
148
330
1F
100
AcDbEntity
  8
0
  6
HIDDEN
 62
     7
370
    18
100
AcDbLine
 10
214.0235315863
 20
104.4702930215
 30
0.0
 11
214.0235315863
 21
122.4702930215
 31
0.0
  0
LINE
  5
149
330
1F
100
AcDbEntity
  8
0
  6
HIDDEN
 62
     7
370
    18
100
AcDbLine
 10
225.1751064364
 20
116.0710645009
 30
0.0
 11
225.1751064364
 21
92.2922214428
 31
0.0
  0
SPLINE
  5
14A
330
1F
100
AcDbEntity
  8
0
  6
HIDDEN
 62
     7
370
    18
100
AcDbSpline
210
0.0
220
0.0
230
1.0
 70
     8
 71
     3
 72
     9
 73
     5
 74
     0
 42
0.000000001
 43
0.00000001
 40
0.0
 40
0.0
 40
0.0
 40
0.0
 40
0.5
 40
1.0
 40
1.0
 40
1.0
 40
1.0
 10
225.2221304246161
 20
117.4065030471715
 30
0.0
 10
225.214849215563
 20
117.183924283454
 30
0.0
 10
225.1990533821962
 20
116.7387793373656
 30
0.0
 10
225.1828467743202
 20
116.2936385813472
 30
0.0
 10
225.1751064363689
 20
116.0710645009346
 30
0.0
  0
SPLINE
  5
14B
330
1F
100
AcDbEntity
  8
0
  6
HIDDEN
 62
     7
370
    18
100
AcDbSpline
210
0.0
220
0.0
230
1.0
 70
     8
 71
     3
 72
    14
 73
    10
 74
     0
 42
0.000000001
 43
0.00000001
 40
0.0
 40
0.0
 40
0.0
 40
0.0
 40
0.25
 40
0.25
 40
0.5
 40
0.5
 40
0.75
 40
0.75
 40
1.0
 40
1.0
 40
1.0
 40
1.0
 10
225.2070793382344
 20
145.6604568727346
 30
0.0
 10
225.1871708155727
 20
145.5969631112174
 30
0.0
 10
225.1661900785177
 20
145.533626358759
 30
0.0
 10
225.1377689414763
 20
145.4078288048082
 30
0.0
 10
225.1305854224315
 20
145.3453827737014
 30
0.0
 10
225.1354316612004
 20
145.2213473468163
 30
0.0
 10
225.1473879228211
 20
145.159746936807
 30
0.0
 10
225.1816079970598
 20
145.0369313004109
 30
0.0
 10
225.2036347108368
 20
144.9757154507644
 30
0.0
 10
225.2221304246161
 20
144.9143957249594
 30
0.0
  0
SPLINE
  5
14C
330
1F
100
AcDbEntity
  8
0
  6
HIDDEN
 62
     7
370
    18
100
AcDbSpline
210
0.0
220
0.0
230
1.0
 70
     8
 71
     3
 72
    12
 73
     8
 74
     0
 42
0.000000001
 43
0.00000001
 40
0.0
 40
0.0
 40
0.0
 40
0.0
 40
0.5000000000000004
 40
0.5000000000000004
 40
0.7500000000000002
 40
0.7500000000000002
 40
1.0
 40
1.0
 40
1.0
 40
1.0
 10
224.2562045983275
 20
90.40747281457723
 30
0.0
 10
224.452863926593
 20
90.77227195630203
 30
0.0
 10
224.6268416694537
 20
91.11107278199223
 30
0.0
 10
224.8617717414086
 20
91.58943015185514
 30
0.0
 10
224.9353684105726
 20
91.74352449547315
 30
0.0
 10
225.0681830833749
 20
92.03377627556806
 30
0.0
 10
225.1279308544842
 20
92.17072111434157
 30
0.0
 10
225.1751064363678
 20
92.29222144282451
 30
0.0
  0
LINE
  5
14D
330
1F
100
AcDbEntity
  8
0
  6
HIDDEN
 62
     7
370
    18
100
AcDbLine
 10
249.9247031339
 20
122.5370758555
 30
0.0
 11
246.0961784452
 21
123.855342624
 31
0.0
  0
LINE
  5
14E
330
1F
100
AcDbEntity
  8
0
  6
HIDDEN
 62
     7
370
    18
100
AcDbLine
 10
242.2251054981
 20
152.3881337279
 30
0.0
 11
241.8279025336
 21
144.809049669
 31
0.0
  0
LINE
  5
14F
330
1F
100
AcDbEntity
  8
0
  6
HIDDEN
 62
     7
370
    18
100
AcDbLine
 10
241.8279025336
 20
144.809049669
 30
0.0
 11
241.7897677769
 21
144.7852204283
 31
0.0
  0
LINE
  5
150
330
1F
100
AcDbEntity
  8
0
  6
HIDDEN
 62
     7
370
    18
100
AcDbLine
 10
242.0825765223
 20
141.3918751541
 30
0.0
 11
251.2118054195
 21
147.0964504985
 31
0.0
  0
LINE
  5
151
330
1F
100
AcDbEntity
  8
0
  6
HIDDEN
 62
     7
370
    18
100
AcDbLine
 10
242.2251054981
 20
152.3881337279
 30
0.0
 11
242.1869707414
 21
152.3643044872
 31
0.0
  0
LINE
  5
152
330
1F
100
AcDbEntity
  8
0
  6
HIDDEN
 62
     7
370
    18
100
AcDbLine
 10
251.2118054195
 20
147.0964504985
 30
0.0
 11
251.2094519929
 21
147.0515444436
 31
0.0
  0
LINE
  5
153
330
1F
100
AcDbEntity
  8
0
  6
HIDDEN
 62
     7
370
    18
100
AcDbLine
 10
241.7537464279
 20
141.5005825445
 30
0.0
 11
250.9529871317
 21
147.2489061211
 31
0.0
  0
LINE
  5
154
330
1F
100
AcDbEntity
  8
0
  6
HIDDEN
 62
     7
370
    18
100
AcDbLine
 10
251.2118054195
 20
147.0964504985
 30
0.0
 11
250.9529871317
 21
147.2489061211
 31
0.0
  0
LINE
  5
155
330
1F
100
AcDbEntity
  8
0
  6
HIDDEN
 62
     7
370
    18
100
AcDbLine
 10
242.4839237859
 20
152.2356781053
 30
0.0
 11
242.0867208214
 21
144.6565940464
 31
0.0
  0
LINE
  5
156
330
1F
100
AcDbEntity
  8
0
  6
HIDDEN
 62
     7
370
    18
100
AcDbLine
 10
241.8279025336
 20
144.809049669
 30
0.0
 11
242.0867208214
 21
144.6565940464
 31
0.0
  0
LINE
  5
157
330
1F
100
AcDbEntity
  8
0
  6
HIDDEN
 62
     7
370
    18
100
AcDbLine
 10
242.2251054981
 20
152.3881337279
 30
0.0
 11
242.4839237859
 21
152.2356781053
 31
0.0
  0
LINE
  5
158
330
1F
100
AcDbEntity
  8
0
  6
HIDDEN
 62
     7
370
    18
100
AcDbLine
 10
241.7727446577
 20
144.4603999644
 30
0.0
 11
242.0867208214
 21
144.6565940464
 31
0.0
  0
LINE
  5
159
330
1F
100
AcDbEntity
  8
0
  6
HIDDEN
 62
     7
370
    18
100
AcDbLine
 10
250.9529871317
 20
147.2489061211
 30
0.0
 11
250.7623133481
 21
147.1297599175
 31
0.0
  0
LINE
  5
15A
330
1F
100
AcDbEntity
  8
0
  6
HIDDEN
 62
     7
370
    18
100
AcDbLine
 10
242.4839237859
 20
152.2356781053
 30
0.0
 11
242.4721566529
 21
152.0111478307
 31
0.0
  0
LINE
  5
15B
330
1F
100
AcDbEntity
  8
0
  6
HIDDEN
 62
     7
370
    18
100
AcDbLine
 10
250.8719864054
 20
157.2599440043
 30
0.0
 11
249.4110973837
 21
154.7798465909
 31
0.0
  0
LINE
  5
15C
330
1F
100
AcDbEntity
  8
0
  6
HIDDEN
 62
     7
370
    18
100
AcDbLine
 10
249.7172755396
 20
154.3652546393
 30
0.0
 11
251.2805996866
 21
157.0192523874
 31
0.0
  0
CIRCLE
  5
15D
330
1F
100
AcDbEntity
  8
0
  6
HIDDEN
 62
     7
370
    18
100
AcDbCircle
 10
246.7633250815
 20
149.8192996859
 30
0.0
 40
2.399999999999977
  0
LINE
  5
15E
330
1F
100
AcDbEntity
  8
0
  6
HIDDEN
 62
     7
370
    18
100
AcDbLine
 10
251.2805996866
 20
157.0192523874
 30
0.0
 11
250.8719864054
 21
157.2599440043
 31
0.0
  0
ARC
  5
15F
330
1F
100
AcDbEntity
  8
0
  6
HIDDEN
 62
     7
370
    18
100
AcDbCircle
 10
240.6305282792
 20
142.2726909521
 30
0.0
 40
1.249999999999994
100
AcDbArc
 50
122.0
 51
302.0
  0
LINE
  5
160
330
1F
100
AcDbEntity
  8
0
  6
HIDDEN
 62
     7
370
    18
100
AcDbLine
 10
242.0867208214
 20
144.6565940464
 30
0.0
 11
239.9681291989
 21
143.3327510722
 31
0.0
  0
LINE
  5
161
330
1F
100
AcDbEntity
  8
0
  6
HIDDEN
 62
     7
370
    18
100
AcDbLine
 10
242.4721566529
 20
152.0111478307
 30
0.0
 11
242.0867208214
 21
144.6565940464
 31
0.0
  0
LINE
  5
162
330
1F
100
AcDbEntity
  8
0
  6
HIDDEN
 62
     7
370
    18
100
AcDbLine
 10
241.2929273595
 20
141.2126308319
 30
0.0
 11
250.7623133481
 21
147.1297599175
 31
0.0
  0
LINE
  5
163
330
1F
100
AcDbEntity
  8
0
  6
HIDDEN
 62
     7
370
    18
100
AcDbLine
 10
250.8719864054
 20
157.2599440043
 30
0.0
 11
242.4721566529
 21
152.0111478307
 31
0.0
  0
LINE
  5
164
330
1F
100
AcDbEntity
  8
0
  6
HIDDEN
 62
     7
370
    18
100
AcDbLine
 10
251.2805996866
 20
157.0192523874
 30
0.0
 11
250.7623133481
 21
147.1297599175
 31
0.0
  0
CIRCLE
  5
165
330
1F
100
AcDbEntity
  8
0
  6
HIDDEN
 62
     7
370
    18
100
AcDbCircle
 10
246.7633250815
 20
149.8192996859
 30
0.0
 40
1.650000000000006
  0
LINE
  5
166
330
1F
100
AcDbEntity
  8
0
  6
HIDDEN
 62
     7
370
    18
100
AcDbLine
 10
150.5235315863
 20
134.6286564178
 30
0.0
 11
150.5235315863
 21
128.5743458502
 31
0.0
  0
LINE
  5
167
330
1F
100
AcDbEntity
  8
0
  6
HIDDEN
 62
     7
370
    18
100
AcDbLine
 10
184.8235315863
 20
135.490391806
 30
0.0
 11
184.8235315863
 21
129.0052135443
 31
0.0
  0
LINE
  5
168
330
1F
100
AcDbEntity
  8
0
  6
HIDDEN
 62
     7
370
    18
100
AcDbLine
 10
150.5235315863
 20
98.3662401927
 30
0.0
 11
150.5235315863
 21
92.3119296252
 31
0.0
  0
LINE
  5
169
330
1F
100
AcDbEntity
  8
0
  6
HIDDEN
 62
     7
370
    18
100
AcDbLine
 10
184.8235315863
 20
97.9353724986
 30
0.0
 11
184.8235315863
 21
91.4501942369
 31
0.0
  0
LINE
  5
16A
330
1F
100
AcDbEntity
  8
0
  6
HIDDEN
 62
     7
370
    18
100
AcDbLine
 10
149.0235315863
 20
133.762631014
 30
0.0
 11
149.0235315863
 21
128.1413331483
 31
0.0
  0
LINE
  5
16B
330
1F
100
AcDbEntity
  8
0
  6
HIDDEN
 62
     7
370
    18
100
AcDbLine
 10
149.0235315863
 20
98.7992528946
 30
0.0
 11
149.0235315863
 21
93.177955029
 31
0.0
  0
SPLINE
  5
16C
330
1F
100
AcDbEntity
  8
0
  6
HIDDEN
 62
     7
370
    18
100
AcDbSpline
210
0.0
220
0.0
230
1.0
 70
     8
 71
     3
 72
    16
 73
    12
 74
     0
 42
0.000000001
 43
0.00000001
 40
0.0
 40
0.0
 40
0.0
 40
0.0
 40
0.2499999999999998
 40
0.2499999999999998
 40
0.3749999999999997
 40
0.3749999999999997
 40
0.4999999999999996
 40
0.4999999999999996
 40
0.7499999999999998
 40
0.7499999999999998
 40
1.0
 40
1.0
 40
1.0
 40
1.0
 10
185.7022112427464
 20
96.88638639522759
 30
0.0
 10
185.5409787652619
 20
96.17199223303547
 30
0.0
 10
185.4204989256223
 20
95.51864997032679
 30
0.0
 10
185.2981184083089
 20
94.63039472852292
 30
0.0
 10
185.2671407479115
 20
94.34971419217106
 30
0.0
 10
185.2255270102835
 20
93.82068020233109
 30
0.0
 10
185.2152910973507
 20
93.57735922375261
 30
0.0
 10
185.2151027002946
 20
92.90933653323941
 30
0.0
 10
185.2552474029322
 20
92.54565562381994
 30
0.0
 10
185.4194011578718
 20
91.98576475127162
 30
0.0
 10
185.5409528082813
 20
91.79824345915446
 30
0.0
 10
185.7022112427463
 20
91.70021206646652
 30
0.0
  0
SPLINE
  5
16D
330
1F
100
AcDbEntity
  8
0
  6
HIDDEN
 62
     7
370
    18
100
AcDbSpline
210
0.0
220
0.0
230
1.0
 70
     8
 71
     3
 72
    16
 73
    12
 74
     0
 42
0.000000001
 43
0.00000001
 40
0.0
 40
0.0
 40
0.0
 40
0.0
 40
0.2500000000000004
 40
0.2500000000000004
 40
0.3750000000000003
 40
0.3750000000000003
 40
0.5000000000000003
 40
0.5000000000000003
 40
0.7500000000000001
 40
0.7500000000000001
 40
1.0
 40
1.0
 40
1.0
 40
1.0
 10
185.7022112427463
 20
135.2403739764707
 30
0.0
 10
185.5409787652619
 20
135.142358363416
 30
0.0
 10
185.4204989256223
 20
134.9556223317399
 30
0.0
 10
185.298118408309
 20
134.5425825241811
 30
0.0
 10
185.2671407479115
 20
134.3825820249481
 30
0.0
 10
185.2255270102835
 20
134.015776373857
 30
0.0
 10
185.2152910973507
 20
133.812439221233
 30
0.0
 10
185.2151027002946
 20
133.1451519546063
 30
0.0
 10
185.2552474029322
 20
132.6243374907183
 30
0.0
 10
185.4194011578718
 20
131.4269784752406
 30
0.0
 10
185.5409528082813
 20
130.7687088209446
 30
0.0
 10
185.7022112427463
 20
130.0541996477097
 30
0.0
  0
SPLINE
  5
16E
330
1F
100
AcDbEntity
  8
0
  6
HIDDEN
 62
     7
370
    18
100
AcDbSpline
210
0.0
220
0.0
230
1.0
 70
     8
 71
     3
 72
    10
 73
     6
 74
     0
 42
0.000000001
 43
0.00000001
 40
0.0
 40
0.0
 40
0.0
 40
0.0
 40
0.5
 40
0.5
 40
1.0
 40
1.0
 40
1.0
 40
1.0
 10
225.2221304246161
 20
144.9143957249594
 30
0.0
 10
225.336341617094
 20
144.5357458880197
 30
0.0
 10
225.6147873907567
 20
144.1638215278766
 30
0.0
 10
226.4167536000269
 20
143.4327542336919
 30
0.0
 10
226.9380928861065
 20
143.074352286547
 30
0.0
 10
227.5355846248174
 20
142.72969653622
 30
0.0
  0
CIRCLE
  5
16F
330
1F
100
AcDbEntity
  8
0
  6
HIDDEN
 62
     7
370
    18
100
AcDbCircle
 10
246.7633250815
 20
149.8192996859
 30
0.0
 40
1.650000000000006
  0
SPLINE
  5
170
330
1F
100
AcDbEntity
  8
0
  6
HIDDEN
 62
     7
370
    18
100
AcDbSpline
210
0.0
220
0.0
230
1.0
 70
     8
 71
     3
 72
     8
 73
     4
 74
     0
 42
0.000000001
 43
0.00000001
 40
0.0
 40
0.0
 40
0.0
 40
0.0
 40
1.0
 40
1.0
 40
1.0
 40
1.0
 10
227.5355846248176
 20
142.7296965362205
 30
0.0
 10
227.4291662011842
 20
140.8972143588333
 30
0.0
 10
227.321043381914
 20
138.9572403548458
 30
0.0
 10
227.2110493824156
 20
136.9058887956313
 30
0.0
  0
ELLIPSE
  5
171
330
1F
100
AcDbEntity
  8
0
  6
HIDDEN
 62
     7
370
    18
100
AcDbEllipse
 10
319.201767008
 20
119.4702930215
 30
0.0
 11
70.89135351192272
 21
-38.95523708400304
 31
0.0
210
0.0
220
0.0
230
1.0
 40
0.1281167984
 41
3.401672236750584
 42
3.423293939815147
  0
ELLIPSE
  5
172
330
1F
100
AcDbEntity
  8
0
  6
HIDDEN
 62
     7
370
    18
100
AcDbEllipse
 10
188.5492199956
 20
119.4702930215
 30
0.0
 11
64.63014058646127
 21
39.78309973280994
 31
0.0
210
0.0
220
0.0
230
1.0
 40
0.0643650922
 41
5.574258636998414
 42
5.898235155233736
  0
ELLIPSE
  5
173
330
1F
100
AcDbEntity
  8
0
  6
HIDDEN
 62
     7
370
    18
100
AcDbEllipse
 10
250.2926780304
 20
119.4702930215
 30
0.0
 11
2.128352356694762
 21
39.99914874120347
 31
0.0
210
0.0
220
0.0
230
1.0
 40
0.1226111485
 41
0.517282403906397
 42
1.126293554452511
  0
SPLINE
  5
174
330
1F
100
AcDbEntity
  8
0
  6
HIDDEN
 62
     7
370
    18
100
AcDbSpline
210
0.0
220
0.0
230
1.0
 70
     8
 71
     3
 72
    18
 73
    14
 74
     0
 42
0.000000001
 43
0.00000001
 40
0.0
 40
0.0
 40
0.0
 40
0.0
 40
0.2500000000000012
 40
0.2500000000000012
 40
0.3750000000000007
 40
0.3750000000000007
 40
0.5000000000000003
 40
0.5000000000000003
 40
0.7499999999999994
 40
0.7499999999999994
 40
0.8749999999999998
 40
0.8749999999999998
 40
1.0
 40
1.0
 40
1.0
 40
1.0
 10
239.2744720222687
 20
146.9599033916097
 30
0.0
 10
238.4866803918082
 20
146.3895071141372
 30
0.0
 10
237.6446327347305
 20
145.8597798849648
 30
0.0
 10
236.2993024793496
 20
145.1391728270172
 30
0.0
 10
235.8371164281731
 20
144.9113069640996
 30
0.0
 10
234.8846188464835
 20
144.482641750581
 30
0.0
 10
234.3928290215321
 20
144.2812993818954
 30
0.0
 10
232.8834677271189
 20
143.7255110336225
 30
0.0
 10
231.8501042142778
 20
143.4252849750174
 30
0.0
 10
230.2612554607321
 20
143.0822271672168
 30
0.0
 10
229.7251402905378
 20
142.9858015181179
 30
0.0
 10
228.6398373597794
 20
142.8297522268825
 30
0.0
 10
228.0890783556201
 20
142.7700301099262
 30
0.0
 10
227.5355846248174
 20
142.7296965362198
 30
0.0
  0
LINE
  5
175
330
1F
100
AcDbEntity
  8
0
  6
HIDDEN
 62
     7
370
    18
100
AcDbLine
 10
149.0235315863
 20
128.1413331483
 30
0.0
 11
149.0235315863
 21
116.3722803545
 31
0.0
  0
LINE
  5
176
330
1F
100
AcDbEntity
  8
0
  6
HIDDEN
 62
     7
370
    18
100
AcDbLine
 10
149.0235315863
 20
110.5683056885
 30
0.0
 11
149.0235315863
 21
98.7992528946
 31
0.0
  0
LINE
  5
177
330
1F
100
AcDbEntity
  8
0
  6
HIDDEN
 62
     7
370
    18
100
AcDbLine
 10
150.5235315863
 20
109.5050821246
 30
0.0
 11
150.5235315863
 21
98.3662401927
 31
0.0
  0
LINE
  5
178
330
1F
100
AcDbEntity
  8
0
  6
HIDDEN
 62
     7
370
    18
100
AcDbLine
 10
150.5235315863
 20
128.5743458502
 30
0.0
 11
150.5235315863
 21
117.4355039183
 31
0.0
  0
LINE
  5
179
330
1F
100
AcDbEntity
  8
0
  6
HIDDEN
 62
     7
370
    18
100
AcDbLine
 10
186.8235315863
 20
128.508000184
 30
0.0
 11
186.8235315863
 21
98.432585859
 31
0.0
  0
LINE
  5
17A
330
1F
100
AcDbEntity
  8
0
  6
HIDDEN
 62
     7
370
    18
100
AcDbLine
 10
184.8235315863
 20
129.0052135443
 30
0.0
 11
184.8235315863
 21
97.9353724986
 31
0.0
  0
SPLINE
  5
17B
330
1F
100
AcDbEntity
  8
0
  6
HIDDEN
 62
     7
370
    18
100
AcDbSpline
210
0.0
220
0.0
230
1.0
 70
     8
 71
     3
 72
    24
 73
    20
 74
     0
 42
0.000000001
 43
0.00000001
 40
0.0
 40
0.0
 40
0.0
 40
0.0
 40
0.125
 40
0.125
 40
0.2500000000000001
 40
0.2500000000000001
 40
0.375
 40
0.375
 40
0.4375
 40
0.4375
 40
0.4999999999999999
 40
0.4999999999999999
 40
0.6249999999999999
 40
0.6249999999999999
 40
0.7499999999999999
 40
0.7499999999999999
 40
0.875
 40
0.875
 40
1.0
 40
1.0
 40
1.0
 40
1.0
 10
155.473531586306
 20
109.3843319683694
 30
0.0
 10
155.7113352185811
 20
109.6833390706995
 30
0.0
 10
155.9414208797924
 20
109.9876769220182
 30
0.0
 10
156.3761742784022
 20
110.6134104594142
 30
0.0
 10
156.5811070706884
 20
110.9346351867417
 30
0.0
 10
156.9462090211871
 20
111.6065609574745
 30
0.0
 10
157.1080094069786
 20
111.9618761893533
 30
0.0
 10
157.2798696115583
 20
112.5121074107058
 30
0.0
 10
157.3254548032184
 20
112.6985111956863
 30
0.0
 10
157.3879295427933
 20
113.0786456977825
 30
0.0
 10
157.4046006885417
 20
113.2743154900684
 30
0.0
 10
157.4051217317183
 20
113.8527958687428
 30
0.0
 10
157.3406794308316
 20
114.2307077077116
 30
0.0
 10
157.1108303374582
 20
114.9726757328101
 30
0.0
 10
156.9523096597951
 20
115.321391192971
 30
0.0
 10
156.5880753298949
 20
115.9944835907042
 30
0.0
 10
156.3813390898314
 20
116.3194360779458
 30
0.0
 10
155.943401144091
 20
116.9503598884076
 30
0.0
 10
155.7121284168114
 20
117.2562496287482
 30
0.0
 10
155.4735315863061
 20
117.5562540745677
 30
0.0
  0
LINE
  5
17C
330
1F
100
AcDbEntity
  8
0
  6
HIDDEN
 62
     7
370
    18
100
AcDbLine
 10
155.4735315863
 20
109.3843319684
 30
0.0
 11
155.4735315863
 21
117.5562540746
 31
0.0
  0
SPLINE
  5
17D
330
1F
100
AcDbEntity
  8
0
  6
HIDDEN
 62
     7
370
    18
100
AcDbSpline
210
0.0
220
0.0
230
1.0
 70
     8
 71
     3
 72
     8
 73
     4
 74
     0
 42
0.000000001
 43
0.00000001
 40
0.0000249638557296
 40
0.0000249638557296
 40
0.0000249638557296
 40
0.0000249638557296
 40
0.0049776420541172
 40
0.0049776420541172
 40
0.0049776420541172
 40
0.0049776420541172
 10
150.523531586306
 20
109.5050821246321
 30
0.0
 10
152.1735078208155
 20
109.4638028868639
 30
0.0
 10
153.8235091405606
 20
109.4235812056244
 30
0.0
 10
155.473531586306
 20
109.3843319683694
 30
0.0
  0
SPLINE
  5
17E
330
1F
100
AcDbEntity
  8
0
  6
HIDDEN
 62
     7
370
    18
100
AcDbSpline
210
0.0
220
0.0
230
1.0
 70
     8
 71
     3
 72
     8
 73
     4
 74
     0
 42
0.000000001
 43
0.00000001
 40
0.0000249631533153
 40
0.0000249631533153
 40
0.0000249631533153
 40
0.0000249631533153
 40
0.0049776413517028
 40
0.0049776413517028
 40
0.0049776413517028
 40
0.0049776413517028
 10
155.473531586306
 20
117.5562540745679
 30
0.0
 10
153.8235091405606
 20
117.5170048373129
 30
0.0
 10
152.1735078208155
 20
117.4767831560734
 30
0.0
 10
150.523531586306
 20
117.4355039183052
 30
0.0
  0
SPLINE
  5
17F
330
1F
100
AcDbEntity
  8
0
  6
HIDDEN
 62
     7
370
    18
100
AcDbSpline
210
0.0
220
0.0
230
1.0
 70
     8
 71
     3
 72
     8
 73
     4
 74
     0
 42
0.000000001
 43
0.00000001
 40
0.0
 40
0.0
 40
0.0
 40
0.0
 40
1.0
 40
1.0
 40
1.0
 40
1.0
 10
149.0235315863037
 20
110.5683056884882
 30
0.0
 10
149.4902921976815
 20
110.1529424428652
 30
0.0
 10
149.9960397444616
 20
109.8083520135606
 30
0.0
 10
150.523531586306
 20
109.5050821246321
 30
0.0
  0
SPLINE
  5
180
330
1F
100
AcDbEntity
  8
0
  6
HIDDEN
 62
     7
370
    18
100
AcDbSpline
210
0.0
220
0.0
230
1.0
 70
     8
 71
     3
 72
     8
 73
     4
 74
     0
 42
0.000000001
 43
0.00000001
 40
0.0
 40
0.0
 40
0.0
 40
0.0
 40
1.0
 40
1.0
 40
1.0
 40
1.0
 10
150.523531586306
 20
117.4355039183052
 30
0.0
 10
149.9960397444625
 20
117.1322340293771
 30
0.0
 10
149.4902921976832
 20
116.7876436000731
 30
0.0
 10
149.023531586306
 20
116.372280354451
 30
0.0
  0
LINE
  5
181
330
1F
100
AcDbEntity
  8
0
  6
HIDDEN
 62
     7
370
    18
100
AcDbLine
 10
149.0235315863
 20
110.5683056885
 30
0.0
 11
149.0235315863
 21
116.3722803545
 31
0.0
  0
SPLINE
  5
182
330
1F
100
AcDbEntity
  8
0
  6
HIDDEN
 62
     7
370
    18
100
AcDbSpline
210
0.0
220
0.0
230
1.0
 70
    11
 71
     3
 72
    72
 73
    68
 74
     0
 42
0.000000001
 43
0.00000001
 40
0.0
 40
0.0
 40
0.0
 40
0.0
 40
0.0312500000000001
 40
0.0312500000000001
 40
0.0625000000000002
 40
0.0625000000000002
 40
0.0937500000000002
 40
0.0937500000000002
 40
0.1250000000000003
 40
0.1250000000000003
 40
0.1562500000000004
 40
0.1562500000000004
 40
0.1875000000000004
 40
0.1875000000000004
 40
0.2187500000000005
 40
0.2187500000000005
 40
0.2500000000000006
 40
0.2500000000000006
 40
0.2812500000000007
 40
0.2812500000000007
 40
0.3125000000000008
 40
0.3125000000000008
 40
0.3437500000000008
 40
0.3437500000000008
 40
0.3750000000000009
 40
0.3750000000000009
 40
0.390625000000001
 40
0.390625000000001
 40
0.406250000000001
 40
0.406250000000001
 40
0.4375000000000011
 40
0.4375000000000011
 40
0.4687500000000012
 40
0.4687500000000012
 40
0.5000000000000012
 40
0.5000000000000012
 40
0.5312500000000014
 40
0.5312500000000014
 40
0.5625000000000016
 40
0.5625000000000016
 40
0.5937500000000016
 40
0.5937500000000016
 40
0.6250000000000017
 40
0.6250000000000017
 40
0.6562500000000016
 40
0.6562500000000016
 40
0.6875000000000013
 40
0.6875000000000013
 40
0.7187500000000012
 40
0.7187500000000012
 40
0.7500000000000011
 40
0.7500000000000011
 40
0.781250000000001
 40
0.781250000000001
 40
0.8125000000000008
 40
0.8125000000000008
 40
0.8437500000000007
 40
0.8437500000000007
 40
0.8750000000000006
 40
0.8750000000000006
 40
0.9062500000000004
 40
0.9062500000000004
 40
0.9375000000000002
 40
0.9375000000000002
 40
0.9687500000000001
 40
0.9687500000000001
 40
1.0
 40
1.0
 40
1.0
 40
1.0
 10
168.3346930150682
 20
116.116304571526
 30
0.0
 10
168.5219081250051
 20
116.3214824717686
 30
0.0
 10
168.7267607262707
 20
116.5051315544271
 30
0.0
 10
169.1696289231176
 20
116.8320864579224
 30
0.0
 10
169.409584340436
 20
116.9758646661023
 30
0.0
 10
169.9051953232105
 20
117.2133820215481
 30
0.0
 10
170.162461614365
 20
117.3087015864458
 30
0.0
 10
170.6958153822021
 20
117.4527871190803
 30
0.0
 10
170.9700955221004
 20
117.5005231260499
 30
0.0
 10
171.5165240566799
 20
117.5461052665838
 30
0.0
 10
171.7911003751477
 20
117.5446715065115
 30
0.0
 10
172.3430675494184
 20
117.4917581984207
 30
0.0
 10
172.6136845119901
 20
117.4407884722165
 30
0.0
 10
173.1399696830693
 20
117.2921818452729
 30
0.0
 10
173.3976012464769
 20
117.1938964745158
 30
0.0
 10
173.8935274111504
 20
116.9496431153301
 30
0.0
 10
174.126511088942
 20
116.8065629843079
 30
0.0
 10
174.562844364267
 20
116.4787044338391
 30
0.0
 10
174.7681256181253
 20
116.2917107961388
 30
0.0
 10
175.1361599159855
 20
115.8822801763158
 30
0.0
 10
175.2976749059707
 20
115.6621747353314
 30
0.0
 10
175.5748325891178
 20
115.1904246538933
 30
0.0
 10
175.6912267685515
 20
114.9354081274521
 30
0.0
 10
175.8645008051981
 20
114.4141703040551
 30
0.0
 10
175.9229473596639
 20
114.1466861862742
 30
0.0
 10
175.9668120851398
 20
113.7347705269417
 30
0.0
 10
175.9739923017692
 20
113.5950632238662
 30
0.0
 10
175.9730242744737
 20
113.3189401684038
 30
0.0
 10
175.9650214850601
 20
113.181763602073
 30
0.0
 10
175.9189487531477
 20
112.7728301608098
 30
0.0
 10
175.8580139206956
 20
112.5009039118055
 30
0.0
 10
175.6798937642871
 20
111.9777233953504
 30
0.0
 10
175.5643258529447
 20
111.7290113949871
 30
0.0
 10
175.2824790690054
 20
111.2561268699951
 30
0.0
 10
175.1156091235908
 20
111.032517652763
 30
0.0
 10
174.746283568792
 20
110.6278602645753
 30
0.0
 10
174.5414984124945
 20
110.4434466764058
 30
0.0
 10
174.0968454649783
 20
110.1144206415114
 30
0.0
 10
173.8619963354675
 20
109.9732525655232
 30
0.0
 10
173.3685865729905
 20
109.7348430367427
 30
0.0
 10
173.1072996192858
 20
109.6370604803378
 30
0.0
 10
172.5765613387732
 20
109.4917324521477
 30
0.0
 10
172.3069216378759
 20
109.4434430619527
 30
0.0
 10
171.7591702981307
 20
109.3950278381661
 30
0.0
 10
171.4792662562721
 20
109.3954860238021
 30
0.0
 10
170.9321883484371
 20
109.4456378794042
 30
0.0
 10
170.6625832437497
 20
109.4948114464362
 30
0.0
 10
170.1314284870936
 20
109.6424859697433
 30
0.0
 10
169.87013367065
 20
109.7416411341089
 30
0.0
 10
169.3778196924747
 20
109.9826539045856
 30
0.0
 10
169.143862816896
 20
110.1251420292103
 30
0.0
 10
168.7016941963656
 20
110.4566294581953
 30
0.0
 10
168.4965006652539
 20
110.6440630861836
 30
0.0
 10
168.130806448896
 20
111.050966805234
 30
0.0
 10
167.9680358265076
 20
111.272145879903
 30
0.0
 10
167.687083395742
 20
111.7518932091183
 30
0.0
 10
167.5738795434685
 20
112.0019051759286
 30
0.0
 10
167.4012708193296
 20
112.521980385949
 30
0.0
 10
167.3416645366532
 20
112.7957118505788
 30
0.0
 10
167.2837727665834
 20
113.3443295004773
 30
0.0
 10
167.2845623054433
 20
113.6186693643688
 30
0.0
 10
167.3457527810597
 20
114.1674113155078
 30
0.0
 10
167.4068815047938
 20
114.4404766293649
 30
0.0
 10
167.5829611904236
 20
114.9606418781333
 30
0.0
 10
167.6992917854135
 20
115.2129610116922
 30
0.0
 10
167.9824930151543
 20
115.6893653530992
 30
0.0
 10
168.1474779051312
 20
115.9111266712835
 30
0.0
 10
168.3346930150682
 20
116.116304571526
 30
0.0
  0
CIRCLE
  5
183
330
1F
100
AcDbEntity
  8
0
  6
HIDDEN
 62
     7
370
    18
100
AcDbCircle
 10
171.5235315863
 20
113.4702930215
 30
0.0
 40
4.050000000000011
  0
LINE
  5
184
330
1F
100
AcDbEntity
  8
0
  6
HIDDEN
 62
     7
370
    18
100
AcDbLine
 10
225.1751064364
 20
92.2551050981
 30
0.0
 11
225.1751064364
 21
92.2922214428
 31
0.0
  0
LINE
  5
185
330
1F
100
AcDbEntity
  8
0
  6
HIDDEN
 62
     7
370
    18
100
AcDbLine
 10
225.1751064364
 20
113.4702930215
 30
0.0
 11
225.1751064364
 21
92.2551050981
 31
0.0
  0
ELLIPSE
  5
186
330
1F
100
AcDbEntity
  8
0
  6
HIDDEN
 62
     7
370
    18
100
AcDbEllipse
 10
243.6210411278
 20
113.4702930215
 30
0.0
 11
22.69053094615313
 21
31.91932617208911
 31
0.0
210
0.0
220
0.0
230
1.0
 40
0.1000778042
 41
1.641819099524552
 42
2.366604263344922
  0
CIRCLE
  5
187
330
1F
100
AcDbEntity
  8
0
  6
HIDDEN
 62
     7
370
    18
100
AcDbCircle
 10
199.0235315863
 20
113.4702930215
 30
0.0
 40
2.0
  0
LINE
  5
188
330
1F
100
AcDbEntity
  8
0
  6
HIDDEN
 62
     7
370
    18
100
AcDbLine
 10
225.1751064364
 20
113.4702930215
 30
0.0
 11
225.1751064364
 21
116.0710645009
 31
0.0
  0
LINE
  5
189
330
1F
100
AcDbEntity
  8
0
  6
HIDDEN
 62
     7
370
    18
100
AcDbLine
 10
227.2110493824
 20
136.9058887956
 30
0.0
 11
246.7801285885
 21
136.9058887956
 31
0.0
  0
SPLINE
  5
18A
330
1F
100
AcDbEntity
  8
0
  6
HIDDEN
 62
     7
370
    18
100
AcDbSpline
210
0.0
220
0.0
230
1.0
 70
     8
 71
     3
 72
    10
 73
     6
 74
     0
 42
0.000000001
 43
0.00000001
 40
0.0
 40
0.0
 40
0.0
 40
0.0
 40
0.5
 40
0.5
 40
1.0
 40
1.0
 40
1.0
 40
1.0
 10
227.2110493824156
 20
136.9058887956314
 30
0.0
 10
226.7008623676308
 20
133.6833610443185
 30
0.0
 10
226.2568938636952
 20
130.4506912282694
 30
0.0
 10
225.5704569044354
 20
123.9544897342659
 30
0.0
 10
225.3295667453198
 20
120.6907163235677
 30
0.0
 10
225.2221304246161
 20
117.4065030471715
 30
0.0
  0
LINE
  5
18B
330
1F
100
AcDbEntity
  8
0
  6
HIDDEN
 62
     7
370
    18
100
AcDbLine
 10
246.7801285885
 20
136.9058887956
 30
0.0
 11
246.0961784452
 21
123.855342624
 31
0.0
  0
LINE
  5
18C
330
1F
100
AcDbEntity
  8
0
  6
HIDDEN
 62
     7
370
    18
100
AcDbLine
 10
246.0961784452
 20
123.855342624
 30
0.0
 11
238.8244884288
 21
113.4702930215
 31
0.0
  0
LINE
  5
18D
330
1F
100
AcDbEntity
  8
0
  6
HIDDEN
 62
     7
370
    18
100
AcDbLine
 10
211.0235315863
 20
125.7202930215
 30
0.0
 11
211.0235315863
 21
129.2185021873
 31
0.0
  0
LINE
  5
18E
330
1F
100
AcDbEntity
  8
0
  6
HIDDEN
 62
     7
370
    18
100
AcDbLine
 10
205.0235315863
 20
129.2202104269
 30
0.0
 11
205.0235315863
 21
125.7202930215
 31
0.0
  0
LINE
  5
18F
330
1F
100
AcDbEntity
  8
0
  6
HIDDEN
 62
     7
370
    18
100
AcDbLine
 10
187.0235315863
 20
89.2202930215
 30
0.0
 11
187.1164248051
 21
89.3131862403
 31
0.0
  0
LINE
  5
190
330
1F
100
AcDbEntity
  8
0
  6
HIDDEN
 62
     7
370
    18
100
AcDbLine
 10
187.1164248051
 20
137.6273998027
 30
0.0
 11
187.0235315863
 21
137.7202930215
 31
0.0
  0
ARC
  5
191
330
1F
100
AcDbEntity
  8
0
  6
HIDDEN
 62
     7
370
    18
100
AcDbCircle
 10
186.4093180239
 20
90.0202930215
 30
0.0
 40
1.0
100
AcDbArc
 50
315.0
 51
0.0
  0
ARC
  5
192
330
1F
100
AcDbEntity
  8
0
  6
HIDDEN
 62
     7
370
    18
100
AcDbCircle
 10
186.4093180239
 20
90.0202930215
 30
0.0
 40
1.0
100
AcDbArc
 50
0.0
 51
52.1052014664
  0
ARC
  5
193
330
1F
100
AcDbEntity
  8
0
  6
HIDDEN
 62
     7
370
    18
100
AcDbCircle
 10
186.4093180239
 20
136.9202930215
 30
0.0
 40
1.000000000000002
100
AcDbArc
 50
351.8087250651
 51
45.0
  0
ARC
  5
194
330
1F
100
AcDbEntity
  8
0
  6
HIDDEN
 62
     7
370
    18
100
AcDbCircle
 10
186.4093180239
 20
136.9202930215
 30
0.0
 40
1.000000000000002
100
AcDbArc
 50
307.8947985336
 51
351.8087250651
  0
LINE
  5
195
330
1F
100
AcDbEntity
  8
0
  6
HIDDEN
 62
     7
370
    18
100
AcDbLine
 10
187.4093180239
 20
90.0202930215
 30
0.0
 11
187.4093180239
 21
136.9202930215
 31
0.0
  0
LINE
  5
196
330
1F
100
AcDbEntity
  8
0
  6
HIDDEN
 62
     7
370
    18
100
AcDbLine
 10
187.4093180239
 20
90.0202930215
 30
0.0
 11
187.4093180239
 21
136.9202930215
 31
0.0
  0
LINE
  5
197
330
1F
100
AcDbEntity
  8
0
  6
HIDDEN
 62
     7
370
    18
100
AcDbLine
 10
210.5235315863
 20
123.7800966921
 30
0.0
 11
210.5235315863
 21
125.5700778667
 31
0.0
  0
LINE
  5
198
330
1F
100
AcDbEntity
  8
0
  6
HIDDEN
 62
     7
370
    18
100
AcDbLine
 10
210.5235315863
 20
117.9679672844
 30
0.0
 11
210.5235315863
 21
121.67198001
 31
0.0
  0
LINE
  5
199
330
1F
100
AcDbEntity
  8
0
  6
HIDDEN
 62
     7
370
    18
100
AcDbLine
 10
205.5235315863
 20
125.5700778667
 30
0.0
 11
205.5235315863
 21
117.9663276616
 31
0.0
  0
LINE
  5
19A
330
1F
100
AcDbEntity
  8
0
  6
HIDDEN
 62
     7
370
    18
100
AcDbLine
 10
218.8429742227
 20
134.4143875002
 30
0.0
 11
207.8421747753
 21
125.3655696349
 31
0.0
  0
LINE
  5
19B
330
1F
100
AcDbEntity
  8
0
  6
HIDDEN
 62
     7
370
    18
100
AcDbLine
 10
210.1320229977
 20
120.774918118
 30
0.0
 11
218.4973679421
 21
127.6559164622
 31
0.0
  0
LINE
  5
19C
330
1F
100
AcDbEntity
  8
0
  6
HIDDEN
 62
     7
370
    18
100
AcDbLine
 10
149.0235315863
 20
97.273864177
 30
0.0
 11
150.5537600259
 21
98.1573419786
 31
0.0
  0
LINE
  5
19D
330
1F
100
AcDbEntity
  8
0
  6
HIDDEN
 62
     7
370
    18
100
AcDbLine
 10
150.5537600259
 20
128.7832440644
 30
0.0
 11
149.0235315863
 21
129.6667218659
 31
0.0
  0
LINE
  5
19E
330
1F
100
AcDbEntity
  8
0
  6
HIDDEN
 62
     7
370
    18
100
AcDbLine
 10
159.0235315863
 20
97.4702930215
 30
0.0
 11
160.0253329012
 21
97.4702930215
 31
0.0
  0
LINE
  5
19F
330
1F
100
AcDbEntity
  8
0
  6
HIDDEN
 62
     7
370
    18
100
AcDbLine
 10
160.0253329012
 20
129.4702930215
 30
0.0
 11
159.0235315863
 21
129.4702930215
 31
0.0
  0
ARC
  5
1A0
330
1F
100
AcDbEntity
  8
0
  6
HIDDEN
 62
     7
370
    18
100
AcDbCircle
 10
160.0253329012
 20
99.4702930215
 30
0.0
 40
2.000000000000026
100
AcDbArc
 50
270.0
 51
315.0
  0
ARC
  5
1A1
330
1F
100
AcDbEntity
  8
0
  6
HIDDEN
 62
     7
370
    18
100
AcDbCircle
 10
160.0253329012
 20
127.4702930215
 30
0.0
 40
2.000000000000016
100
AcDbArc
 50
45.0
 51
90.0
  0
ARC
  5
1A2
330
1F
100
AcDbEntity
  8
0
  6
HIDDEN
 62
     7
370
    18
100
AcDbCircle
 10
159.0235315863
 20
99.4702930215
 30
0.0
 40
2.000000000000004
100
AcDbArc
 50
189.9742217944
 51
270.0
  0
ARC
  5
1A3
330
1F
100
AcDbEntity
  8
0
  6
HIDDEN
 62
     7
370
    18
100
AcDbCircle
 10
159.0235315863
 20
127.4702930215
 30
0.0
 40
2.000000000000001
100
AcDbArc
 50
90.0
 51
170.0257782056
  0
LINE
  5
1A4
330
1F
100
AcDbEntity
  8
0
  6
HIDDEN
 62
     7
370
    18
100
AcDbLine
 10
161.4395464636
 20
98.0560794591
 30
0.0
 11
162.8537600259
 21
99.4702930215
 31
0.0
  0
LINE
  5
1A5
330
1F
100
AcDbEntity
  8
0
  6
HIDDEN
 62
     7
370
    18
100
AcDbLine
 10
162.8537600259
 20
127.4702930215
 30
0.0
 11
161.4395464636
 21
128.8845065838
 31
0.0
  0
LINE
  5
1A6
330
1F
100
AcDbEntity
  8
0
  6
HIDDEN
 62
     7
370
    18
100
AcDbLine
 10
150.5537600259
 20
98.1573419786
 30
0.0
 11
155.4537600259
 21
99.4702930215
 31
0.0
  0
LINE
  5
1A7
330
1F
100
AcDbEntity
  8
0
  6
HIDDEN
 62
     7
370
    18
100
AcDbLine
 10
155.4537600259
 20
127.4702930215
 30
0.0
 11
150.5537600259
 21
128.7832440644
 31
0.0
  0
LINE
  5
1A8
330
1F
100
AcDbEntity
  8
0
  6
HIDDEN
 62
     7
370
    18
100
AcDbLine
 10
157.0537600259
 20
127.816703183
 30
0.0
 11
156.4537600259
 21
127.4702930215
 31
0.0
  0
LINE
  5
1A9
330
1F
100
AcDbEntity
  8
0
  6
HIDDEN
 62
     7
370
    18
100
AcDbLine
 10
156.4537600259
 20
99.4702930215
 30
0.0
 11
157.0537600259
 21
99.12388286
 31
0.0
  0
ARC
  5
1AA
330
1F
100
AcDbEntity
  8
0
  6
HIDDEN
 62
     7
370
    18
100
AcDbCircle
 10
175.5235315863
 20
99.9702930215
 30
0.0
 40
0.5
100
AcDbArc
 50
270.0
 51
0.0
  0
ARC
  5
1AB
330
1F
100
AcDbEntity
  8
0
  6
HIDDEN
 62
     7
370
    18
100
AcDbCircle
 10
175.5235315863
 20
126.9702930215
 30
0.0
 40
0.5
100
AcDbArc
 50
0.0
 51
90.0
  0
LINE
  5
1AC
330
1F
100
AcDbEntity
  8
0
  6
HIDDEN
 62
     7
370
    18
100
AcDbLine
 10
162.8537600259
 20
99.4702930215
 30
0.0
 11
175.5235315863
 21
99.4702930215
 31
0.0
  0
LINE
  5
1AD
330
1F
100
AcDbEntity
  8
0
  6
HIDDEN
 62
     7
370
    18
100
AcDbLine
 10
175.5235315863
 20
127.4702930215
 30
0.0
 11
162.8537600259
 21
127.4702930215
 31
0.0
  0
LINE
  5
1AE
330
1F
100
AcDbEntity
  8
0
  6
HIDDEN
 62
     7
370
    18
100
AcDbLine
 10
155.4537600259
 20
99.4702930215
 30
0.0
 11
156.4537600259
 21
99.4702930215
 31
0.0
  0
LINE
  5
1AF
330
1F
100
AcDbEntity
  8
0
  6
HIDDEN
 62
     7
370
    18
100
AcDbLine
 10
156.4537600259
 20
127.4702930215
 30
0.0
 11
155.4537600259
 21
127.4702930215
 31
0.0
  0
LINE
  5
1B0
330
1F
100
AcDbEntity
  8
0
  6
HIDDEN
 62
     7
370
    18
100
AcDbLine
 10
176.0235315863
 20
103.2202930215
 30
0.0
 11
177.2735315863
 21
104.4702930215
 31
0.0
  0
LINE
  5
1B1
330
1F
100
AcDbEntity
  8
0
  6
HIDDEN
 62
     7
370
    18
100
AcDbLine
 10
177.2735315863
 20
122.4702930215
 30
0.0
 11
176.0235315863
 21
123.7202930215
 31
0.0
  0
LINE
  5
1B2
330
1F
100
AcDbEntity
  8
0
  6
HIDDEN
 62
     7
370
    18
100
AcDbLine
 10
214.0235315863
 20
122.4702930215
 30
0.0
 11
177.2735315863
 21
122.4702930215
 31
0.0
  0
LINE
  5
1B3
330
1F
100
AcDbEntity
  8
0
  6
HIDDEN
 62
     7
370
    18
100
AcDbLine
 10
177.2735315863
 20
104.4702930215
 30
0.0
 11
214.0235315863
 21
104.4702930215
 31
0.0
  0
LINE
  5
1B4
330
1F
100
AcDbEntity
  8
0
  6
HIDDEN
 62
     7
370
    18
100
AcDbLine
 10
214.0235315863
 20
104.4702930215
 30
0.0
 11
219.4312771576
 21
113.4702930215
 31
0.0
  0
LINE
  5
1B5
330
1F
100
AcDbEntity
  8
0
  6
HIDDEN
 62
     7
370
    18
100
AcDbLine
 10
219.4312771576
 20
113.4702930215
 30
0.0
 11
214.0235315863
 21
122.4702930215
 31
0.0
  0
ARC
  5
1B6
330
1F
100
AcDbEntity
  8
0
  6
HIDDEN
 62
     7
370
    18
100
AcDbCircle
 10
224.2562045983
 20
145.9702930215
 30
0.0
 40
1.000000000000008
100
AcDbArc
 50
270.0
 51
296.0556324729
  0
LINE
  5
1B7
330
1F
100
AcDbEntity
  8
VERMASSUNG
  6
CENTERX2
100
AcDbLine
 10
143.382886607
 20
113.4702930215
 30
0.0
 11
252.0235315863
 21
113.4702930215
 31
0.0
  0
LINE
  5
1B8
330
1F
100
AcDbEntity
  8
VERMASSUNG
  6
CENTERX2
100
AcDbLine
 10
252.0235315863
 20
158.4702930215
 30
0.0
 11
266.0979492924
 21
158.4702930215
 31
0.0
  0
LINE
  5
1B9
330
1F
100
AcDbEntity
  8
VERMASSUNG
  6
CENTERX2
100
AcDbLine
 10
252.0235315863
 20
158.4702930215
 30
0.0
 11
252.0235315863
 21
113.4702930215
 31
0.0
  0
DIMENSION
  5
1BA
330
1F
100
AcDbEntity
  8
VERMASSUNG
100
AcDbDimension
  2
_D
 10
252.0235315863
 20
175.0260918606
 30
0.0
 11
200.5235315863
 21
175.0260918606
 31
0.0
 70
   160
  1
<>
 71
     2
 42
-1.0
  3
SLDDIMSTYLE0
100
AcDbAlignedDimension
 13
149.0235315863
 23
133.762631014
 33
0.0
 14
252.0235315863
 24
158.4702930215
 34
0.0
100
AcDbRotatedDimension
  0
DIMENSION
  5
1C5
330
1F
100
AcDbEntity
  8
VERMASSUNG
100
AcDbDimension
  2
_D_1
 10
252.0235315863
 20
169.0260918606
 30
0.0
 11
219.5235315863
 21
169.0260918606
 31
0.0
 70
   160
  1
<>
 71
     2
 42
-1.0
  3
SLDDIMSTYLE1
100
AcDbAlignedDimension
 13
187.0235315863
 23
144.4702930215
 33
0.0
 14
252.0235315863
 24
158.4702930215
 34
0.0
100
AcDbRotatedDimension
  0
DIMENSION
  5
1D2
330
1F
100
AcDbEntity
  8
VERMASSUNG
100
AcDbDimension
  2
_D_2
 10
272.7314978574
 20
113.4702930215
 30
0.0
 11
272.7314978574
 21
135.9702930215
 31
0.0
 70
   160
  1
<>
 71
     2
 42
-1.0
  3
SLDDIMSTYLE1
100
AcDbAlignedDimension
 13
252.0235315863
 23
158.4702930215
 33
0.0
 14
252.0235315863
 24
113.4702930215
 34
0.0
 50
90.0
100
AcDbRotatedDimension
  0
DIMENSION
  5
1DE
330
1F
100
AcDbEntity
  8
VERMASSUNG
100
AcDbDimension
  2
_D_3
 10
266.0979492924
 20
158.4702930215
 30
0.0
 11
261.9068617791
 21
148.0781050636
 31
0.0
 70
   162
  1
<>
 71
     1
 42
-1.0
  3
SLDDIMSTYLE2
100
AcDb2LineAngularDimension
 13
251.4654581235
 23
147.4111426281
 33
0.0
 14
252.0234382611
 24
158.0580379025
 34
0.0
 15
252.0235315863
 25
158.4702930215
 35
0.0
 16
261.9068617791
 26
148.0781050636
 36
0.0
  0
DIMENSION
  5
1E9
330
1F
100
AcDbEntity
  8
VERMASSUNG
100
AcDbDimension
  2
_D_4
 10
137.0337571182
 20
81.9702930215
 30
0.0
 11
137.0337571182
 21
113.4702930215
 31
0.0
 70
   160
  1
PSC%%c<>
 71
     2
 42
-1.0
  3
SLDDIMSTYLE0
100
AcDbAlignedDimension
 13
187.5235315863
 23
144.9702930215
 33
0.0
 14
187.5235315863
 24
81.9702930215
 34
0.0
 50
90.0
100
AcDbRotatedDimension
  0
SPLINE
  5
1F5
330
1F
100
AcDbEntity
  8
0
  6
Continuous
 62
     7
370
    25
100
AcDbSpline
210
0.0
220
0.0
230
1.0
 70
     8
 71
     3
 72
     9
 73
     5
 74
     0
 42
0.000000001
 43
0.00000001
 40
0.0
 40
0.0
 40
0.0
 40
0.0
 40
0.4997220385126814
 40
1.0
 40
1.0
 40
1.0
 40
1.0
 10
78.6647334224821
 20
157.8140382855425
 30
0.0
 10
77.9923295226882
 20
157.9290971792296
 30
0.0
 10
76.64677369770364
 20
158.1593429655261
 30
0.0
 10
75.29795478700018
 20
158.3758376729476
 30
0.0
 10
74.62317041193792
 20
158.4841452038492
 30
0.0
  0
LINE
  5
1F6
330
1F
100
AcDbEntity
  8
0
  6
Continuous
 62
     7
370
    25
100
AcDbLine
 10
74.6231704119
 20
141.3754727769
 30
0.0
 11
74.9613880738
 21
141.4303561803
 31
0.0
  0
SPLINE
  5
1F7
330
1F
100
AcDbEntity
  8
0
  6
Continuous
 62
     7
370
    25
100
AcDbSpline
210
0.0
220
0.0
230
1.0
 70
    24
 71
     3
 72
    12
 73
     8
 74
     0
 42
0.000000001
 43
0.00000001
 40
0.0
 40
0.0
 40
0.0
 40
0.0
 40
0.2136808228073032
 40
0.4268664803234594
 40
0.6349421431912892
 40
0.8389090679316002
 40
1.0
 40
1.0
 40
1.0
 40
1.0
 10
74.66138807376382
 20
158.0580379024613
 30
0.0
 10
74.6613880737638
 20
158.104065081035
 30
0.0
 10
74.6613880737638
 20
158.1960127788155
 30
0.0
 10
74.66138807376393
 20
158.3206606971392
 30
0.0
 10
74.66138807376349
 20
158.4141817258115
 30
0.0
 10
74.66138807376389
 20
158.469267676991
 30
0.0
 10
74.66138807376385
 20
158.4713445975055
 30
0.0
 10
74.66138807376383
 20
158.4722610907553
 30
0.0
  0
LINE
  5
1F8
330
1F
100
AcDbEntity
  8
0
  6
Continuous
 62
     7
370
    25
100
AcDbLine
 10
78.6313880738
 20
147.5352704586
 30
0.0
 11
78.6313880738
 21
157.7166963151
 31
0.0
  0
LINE
  5
1F9
330
1F
100
AcDbEntity
  8
0
  6
Continuous
 62
     7
370
    25
100
AcDbLine
 10
74.6613880738
 20
147.4111426281
 30
0.0
 11
74.6613880738
 21
158.0580379025
 31
0.0
  0
SPLINE
  5
1FA
330
1F
100
AcDbEntity
  8
0
  6
Continuous
 62
     7
370
    25
100
AcDbSpline
210
0.0
220
0.0
230
1.0
 70
    24
 71
     3
 72
    10
 73
     6
 74
     0
 42
0.000000001
 43
0.00000001
 40
0.0
 40
0.0
 40
0.0
 40
0.0
 40
0.265712295724586
 40
0.6165157621682416
 40
0.9999999999999999
 40
0.9999999999999999
 40
0.9999999999999999
 40
0.9999999999999999
 10
78.63138807376383
 20
147.5352704585851
 30
0.0
 10
78.6313880737637
 20
147.5269189977481
 30
0.0
 10
78.63138807376339
 20
147.5075416210667
 30
0.0
 10
78.63138807376397
 20
147.4783442569436
 30
0.0
 10
78.63138807376389
 20
147.4638579034693
 30
0.0
 10
78.63138807376383
 20
147.4562923563566
 30
0.0
  0
SPLINE
  5
1FB
330
1F
100
AcDbEntity
  8
0
  6
Continuous
 62
     7
370
    25
100
AcDbSpline
210
0.0
220
0.0
230
1.0
 70
    24
 71
     3
 72
    10
 73
     6
 74
     0
 42
0.000000001
 43
0.00000001
 40
0.0
 40
0.0
 40
0.0
 40
0.0
 40
0.3518022785810592
 40
0.7034245935032508
 40
1.0
 40
1.0
 40
1.0
 40
1.0
 10
74.66138807376383
 20
147.0952377793252
 30
0.0
 10
74.66138807376383
 20
147.1226537588495
 30
0.0
 10
74.66138807376383
 20
147.1774716933159
 30
0.0
 10
74.66138807376382
 20
147.2923097650806
 30
0.0
 10
74.66138807376383
 20
147.3738395935153
 30
0.0
 10
74.66138807376385
 20
147.4111426280843
 30
0.0
  0
LINE
  5
1FC
330
1F
100
AcDbEntity
  8
0
  6
Continuous
 62
     7
370
    25
100
AcDbLine
 10
78.6313880738
 20
147.3542901921
 30
0.0
 11
78.6313880738
 21
147.4562923564
 31
0.0
  0
LINE
  5
1FD
330
1F
100
AcDbEntity
  8
0
  6
Continuous
 62
     7
370
    25
100
AcDbLine
 10
74.6613880738
 20
141.4455001
 30
0.0
 11
74.6613880738
 21
147.0952377793
 31
0.0
  0
SPLINE
  5
1FE
330
1F
100
AcDbEntity
  8
0
  6
Continuous
 62
     7
370
    25
100
AcDbSpline
210
0.0
220
0.0
230
1.0
 70
    24
 71
     3
 72
    10
 73
     6
 74
     0
 42
0.000000001
 43
0.00000001
 40
0.0
 40
0.0
 40
0.0
 40
0.0
 40
0.1218344149033312
 40
0.7184024054495272
 40
1.0
 40
1.0
 40
1.0
 40
1.0
 10
74.66138807376389
 20
141.3873568899659
 30
0.0
 10
74.66138807376389
 20
141.3863343986205
 30
0.0
 10
74.66138807376389
 20
141.3803052299107
 30
0.0
 10
74.6613880737639
 20
141.404420166209
 30
0.0
 10
74.6613880737639
 20
141.4355256407986
 30
0.0
 10
74.6613880737639
 20
141.4455001000241
 30
0.0
  0
LINE
  5
1FF
330
1F
100
AcDbEntity
  8
0
  6
Continuous
 62
     7
370
    25
100
AcDbLine
 10
74.9613880738
 20
122.5370758555
 30
0.0
 11
106.6613880738
 21
123.855342624
 31
0.0
  0
LINE
  5
200
330
1F
100
AcDbEntity
  8
0
  6
Continuous
 62
     7
370
    25
100
AcDbLine
 10
74.9613880738
 20
147.0964504985
 30
0.0
 11
74.9613880738
 21
122.5370758555
 31
0.0
  0
LINE
  5
201
330
1F
100
AcDbEntity
  8
0
  6
Continuous
 62
     7
370
    25
100
AcDbLine
 10
77.1313880738
 20
147.2489061211
 30
0.0
 11
78.6313880738
 21
147.1297599175
 31
0.0
  0
LINE
  5
202
330
1F
100
AcDbEntity
  8
0
  6
Continuous
 62
     7
370
    25
100
AcDbLine
 10
78.6313880738
 20
147.3542901921
 30
0.0
 11
78.6313880738
 21
147.1297599175
 31
0.0
  0
LINE
  5
203
330
1F
100
AcDbEntity
  8
0
  6
Continuous
 62
     7
370
    25
100
AcDbLine
 10
90.2149466678
 20
154.3652546393
 30
0.0
 11
78.6313880738
 21
157.0192523874
 31
0.0
  0
ARC
  5
204
330
1F
100
AcDbEntity
  8
0
  6
Continuous
 62
     7
370
    25
100
AcDbCircle
 10
70.6613880738
 20
119.4702930215
 30
0.0
 40
40.00000000000003
100
AcDbArc
 50
25.8419327632
 51
60.7357013659
  0
LINE
  5
205
330
1F
100
AcDbEntity
  8
0
  6
Continuous
 62
     7
370
    25
100
AcDbLine
 10
106.6613880738
 20
136.9058887956
 30
0.0
 11
106.6613880738
 21
123.855342624
 31
0.0
  0
LINE
  5
206
330
1F
100
AcDbEntity
  8
0
  6
Continuous
 62
     7
370
    25
100
AcDbLine
 10
78.6313880738
 20
157.2599440043
 30
0.0
 11
89.4559465077
 21
154.7798465909
 31
0.0
  0
ARC
  5
207
330
1F
100
AcDbEntity
  8
0
  6
Continuous
 62
     7
370
    25
100
AcDbCircle
 10
70.6613880738
 20
119.4702930215
 30
0.0
 40
40.00000000000003
100
AcDbArc
 50
60.7357013659
 51
61.9745336974
  0
SPLINE
  5
208
330
1F
100
AcDbEntity
  8
0
  6
Continuous
 62
     7
370
    25
100
AcDbSpline
210
0.0
220
0.0
230
1.0
 70
     8
 71
     3
 72
    12
 73
     8
 74
     0
 42
0.000000001
 43
0.00000001
 40
0.0
 40
0.0
 40
0.0
 40
0.0
 40
0.5000000000000004
 40
0.5000000000000004
 40
0.7500000000000002
 40
0.7500000000000002
 40
1.0
 40
1.0
 40
1.0
 40
1.0
 10
96.11730390377612
 20
90.40747281457723
 30
0.0
 10
96.50942405767151
 20
90.77227195630203
 30
0.0
 10
96.93141478782556
 20
91.11107278199223
 30
0.0
 10
97.59868977906993
 20
91.58943015185514
 30
0.0
 10
97.82752980805306
 20
91.74352449547315
 30
0.0
 10
98.29734596824153
 20
92.03377627556806
 30
0.0
 10
98.53846605318365
 20
92.17072111434157
 30
0.0
 10
98.79131340514638
 20
92.29222144282451
 30
0.0
  0
ARC
  5
209
330
1F
100
AcDbEntity
  8
0
  6
Continuous
 62
     7
370
    25
100
AcDbCircle
 10
74.6613880738
 20
113.4702930215
 30
0.0
 40
31.49999999999999
100
AcDbArc
 50
266.368372865
 51
312.9328055032
  0
ELLIPSE
  5
20A
330
1F
100
AcDbEntity
  8
0
  6
Continuous
 62
     7
370
    25
100
AcDbEllipse
 10
68.9613880738
 20
87.9808022788
 30
0.0
 11
1.63381661745747
 21
8.594832069372503
 31
0.0
210
0.0
220
0.0
230
1.0
 40
0.6717140804
 41
4.082884489369248
 42
4.988174409172463
  0
LINE
  5
20B
330
1F
100
AcDbEntity
  8
0
  6
Continuous
 62
     7
370
    25
100
AcDbLine
 10
106.6613880738
 20
123.855342624
 30
0.0
 11
106.6613880738
 21
113.4702930215
 31
0.0
  0
ARC
  5
20C
330
1F
100
AcDbEntity
  8
0
  6
Continuous
 62
     7
370
    25
100
AcDbCircle
 10
74.6613880738
 20
113.4702930215
 30
0.0
 40
32.00000000000001
100
AcDbArc
 50
318.4728690594
 51
0.0
  0
LINE
  5
20D
330
1F
100
AcDbEntity
  8
0
  6
Continuous
 62
     7
370
    25
100
AcDbLine
 10
98.6179279194
 20
92.2551050981
 30
0.0
 11
98.7913134051
 21
92.2922214428
 31
0.0
  0
LINE
  5
20E
330
1F
100
AcDbEntity
  8
0
  6
Continuous
 62
     7
370
    25
100
AcDbLine
 10
74.9613880738
 20
122.5370758555
 30
0.0
 11
74.9613880738
 21
89.2652123744
 31
0.0
  0
SPLINE
  5
20F
330
1F
100
AcDbEntity
  8
0
  6
Continuous
 62
     7
370
    25
100
AcDbSpline
210
0.0
220
0.0
230
1.0
 70
     8
 71
     3
 72
    10
 73
     6
 74
     0
 42
0.000000001
 43
0.00000001
 40
0.0
 40
0.0
 40
0.0
 40
0.0
 40
0.5
 40
0.5
 40
1.0
 40
1.0
 40
1.0
 40
1.0
 10
72.66613339627119
 20
82.0335476623838
 30
0.0
 10
72.35010959909062
 20
82.05360533541328
 30
0.0
 10
72.00734071924327
 20
82.0801877727493
 30
0.0
 10
71.28219765561606
 20
82.14995223463153
 30
0.0
 10
70.90530129371938
 20
82.19254711745636
 30
0.0
 10
70.51430234437964
 20
82.2444754988939
 30
0.0
  0
SPLINE
  5
210
330
1F
100
AcDbEntity
  8
0
  6
Continuous
 62
     7
370
    25
100
AcDbSpline
210
0.0
220
0.0
230
1.0
 70
     8
 71
     3
 72
    14
 73
    10
 74
     0
 42
0.000000001
 43
0.00000001
 40
0.0
 40
0.0
 40
0.0
 40
0.0
 40
0.25
 40
0.25
 40
0.5
 40
0.5
 40
0.75
 40
0.75
 40
1.0
 40
1.0
 40
1.0
 40
1.0
 10
70.51430234437964
 20
144.6961105440433
 30
0.0
 10
70.95118047201376
 20
144.7541321169704
 30
0.0
 10
71.36789888060581
 20
144.8001786884187
 30
0.0
 10
72.16153370657375
 20
144.8734701714395
 30
0.0
 10
72.54105808704394
 20
144.9006998787395
 30
0.0
 10
73.22194936458779
 20
144.9392347047964
 30
0.0
 10
73.5288057455346
 20
144.9510797832916
 30
0.0
 10
74.0677799955943
 20
144.9658531422717
 30
0.0
 10
74.29271254083581
 20
144.9686509849579
 30
0.0
 10
74.47292042670901
 20
144.969729206042
 30
0.0
  0
SPLINE
  5
211
330
1F
100
AcDbEntity
  8
0
  6
Continuous
 62
     7
370
    25
100
AcDbSpline
210
0.0
220
0.0
230
1.0
 70
     8
 71
     3
 72
     9
 73
     5
 74
     0
 42
0.000000001
 43
0.00000001
 40
0.0
 40
0.0
 40
0.0
 40
0.0
 40
0.6518647949665672
 40
1.0
 40
1.0
 40
1.0
 40
1.0
 10
74.47292042670901
 20
144.969729206042
 30
0.0
 10
74.52123021151756
 20
144.9768482607468
 30
0.0
 10
74.59534034168807
 20
144.987769321003
 30
0.0
 10
74.64433226153307
 20
145.090068356405
 30
0.0
 10
74.66138807359327
 20
145.1256822520694
 30
0.0
  0
ARC
  5
212
330
1F
100
AcDbEntity
  8
0
  6
Continuous
 62
     7
370
    25
100
AcDbCircle
 10
74.6613880738
 20
113.4702930215
 30
0.0
 40
32.10551373655941
100
AcDbArc
 50
318.7275996399
 51
4.6464506928
  0
ELLIPSE
  5
213
330
1F
100
AcDbEntity
  8
0
  6
Continuous
 62
     7
370
    25
100
AcDbEllipse
 10
62.4464762971
 20
131.0351519812
 30
0.0
 11
2.156649216541965
 21
3.149035452977217
 31
0.0
210
0.0
220
0.0
230
1.0
 40
0.6401414518
 41
0.0
 42
6.283185307179586
  0
ARC
  5
214
330
1F
100
AcDbEntity
  8
0
  6
Continuous
 62
     7
370
    25
100
AcDbCircle
 10
74.6613880738
 20
113.4702930215
 30
0.0
 40
31.5
100
AcDbArc
 50
97.5651530928
 51
262.4348469072
  0
CIRCLE
  5
215
330
1F
100
AcDbEntity
  8
VERMASSUNG
  6
CENTERX2
100
AcDbCircle
 10
74.6613880738
 20
118.1434592036
 30
0.0
 40
40.00000000000001
  0
DIMENSION
  5
216
330
1F
100
AcDbEntity
  8
VERMASSUNG
100
AcDbDimension
  2
_D_5
 10
48.4350057939
 20
148.3457252198
 30
0.0
 11
39.7211306484
 21
158.3806119368
 31
0.0
 70
   160
  1
%%c<> min. 
 71
     2
 42
-1.0
  3
SLDDIMSTYLE3
100
AcDbAlignedDimension
 13
100.8877703536
 23
87.9411931874
 33
0.0
 14
48.4350057939
 24
148.3457252198
 34
0.0
 50
-49.0303200036
100
AcDbRotatedDimension
  0
INSERT
  5
230
330
1F
100
AcDbEntity
  8
VERMASSUNG
100
AcDbBlockReference
  2
SW_CENTERMARKSYMBOL_0
 10
74.6613880738
 20
113.4702930215
 30
0.0
  0
OLE2FRAME
  5
231
330
1F
100
AcDbEntity
  8
0
100
AcDbOle2Frame
 70
     2
  3
Paintbrush-Bild
 10
13.8511154363
 20
38.264191557
 30
0.0
 11
51.6290888628
 21
31.9806341108
 31
0.0
 71
     2
 72
     0
 73
     1
 90
    12928
310
80552BED0767C5B32B40DDAF6807D121434000000000000000006FFBDDFB85D0
310
4940DDAF6807D121434000000000000000006FFBDDFB85D04940416F4BD60AFB
310
3F4000000000000000002BED0767C5B32B40416F4BD60AFB3F40000000000000
310
0000000000000100000000010000010000000100000000000100000000320000
310
D0CF11E0A1B11AE1000000000000000000000000000000003E000300FEFF0900
310
0600000000000000000000000100000001000000000000000010000002000000
310
01000000FEFFFFFF0000000000000000FFFFFFFFFFFFFFFFFFFFFFFFFFFFFFFF
310
FFFFFFFFFFFFFFFFFFFFFFFFFFFFFFFFFFFFFFFFFFFFFFFFFFFFFFFFFFFFFFFF
310
FFFFFFFFFFFFFFFFFFFFFFFFFFFFFFFFFFFFFFFFFFFFFFFFFFFFFFFFFFFFFFFF
310
FFFFFFFFFFFFFFFFFFFFFFFFFFFFFFFFFFFFFFFFFFFFFFFFFFFFFFFFFFFFFFFF
310
FFFFFFFFFFFFFFFFFFFFFFFFFFFFFFFFFFFFFFFFFFFFFFFFFFFFFFFFFFFFFFFF
310
FFFFFFFFFFFFFFFFFFFFFFFFFFFFFFFFFFFFFFFFFFFFFFFFFFFFFFFFFFFFFFFF
310
FFFFFFFFFFFFFFFFFFFFFFFFFFFFFFFFFFFFFFFFFFFFFFFFFFFFFFFFFFFFFFFF
310
FFFFFFFFFFFFFFFFFFFFFFFFFFFFFFFFFFFFFFFFFFFFFFFFFFFFFFFFFFFFFFFF
310
FFFFFFFFFFFFFFFFFFFFFFFFFFFFFFFFFFFFFFFFFFFFFFFFFFFFFFFFFFFFFFFF
310
FFFFFFFFFFFFFFFFFFFFFFFFFFFFFFFFFFFFFFFFFFFFFFFFFFFFFFFFFFFFFFFF
310
FFFFFFFFFFFFFFFFFFFFFFFFFFFFFFFFFFFFFFFFFFFFFFFFFFFFFFFFFFFFFFFF
310
FFFFFFFFFFFFFFFFFFFFFFFFFFFFFFFFFFFFFFFFFFFFFFFFFFFFFFFFFFFFFFFF
310
FFFFFFFFFFFFFFFFFFFFFFFFFFFFFFFFFFFFFFFFFFFFFFFFFFFFFFFFFFFFFFFF
310
FFFFFFFFFFFFFFFFFFFFFFFFFFFFFFFFFFFFFFFFFFFFFFFFFFFFFFFFFFFFFFFF
310
FDFFFFFFFEFFFFFFFEFFFFFFFEFFFFFF05000000060000000700000008000000
310
090000000A0000000B0000000C0000000D0000000E0000000F00000010000000
310
11000000120000001300000014000000150000001600000017000000FEFFFFFF
310
FFFFFFFFFFFFFFFFFFFFFFFFFFFFFFFFFFFFFFFFFFFFFFFFFFFFFFFFFFFFFFFF
310
FFFFFFFFFFFFFFFFFFFFFFFFFFFFFFFFFFFFFFFFFFFFFFFFFFFFFFFFFFFFFFFF
310
FFFFFFFFFFFFFFFFFFFFFFFFFFFFFFFFFFFFFFFFFFFFFFFFFFFFFFFFFFFFFFFF
310
FFFFFFFFFFFFFFFFFFFFFFFFFFFFFFFFFFFFFFFFFFFFFFFFFFFFFFFFFFFFFFFF
310
FFFFFFFFFFFFFFFFFFFFFFFFFFFFFFFFFFFFFFFFFFFFFFFFFFFFFFFFFFFFFFFF
310
FFFFFFFFFFFFFFFFFFFFFFFFFFFFFFFFFFFFFFFFFFFFFFFFFFFFFFFFFFFFFFFF
310
FFFFFFFFFFFFFFFFFFFFFFFFFFFFFFFFFFFFFFFFFFFFFFFFFFFFFFFFFFFFFFFF
310
FFFFFFFFFFFFFFFFFFFFFFFFFFFFFFFFFFFFFFFFFFFFFFFFFFFFFFFFFFFFFFFF
310
FFFFFFFFFFFFFFFFFFFFFFFFFFFFFFFFFFFFFFFFFFFFFFFFFFFFFFFFFFFFFFFF
310
FFFFFFFFFFFFFFFFFFFFFFFFFFFFFFFFFFFFFFFFFFFFFFFFFFFFFFFFFFFFFFFF
310
FFFFFFFFFFFFFFFFFFFFFFFFFFFFFFFFFFFFFFFFFFFFFFFFFFFFFFFFFFFFFFFF
310
FFFFFFFFFFFFFFFFFFFFFFFFFFFFFFFFFFFFFFFFFFFFFFFFFFFFFFFFFFFFFFFF
310
FFFFFFFFFFFFFFFFFFFFFFFFFFFFFFFFFFFFFFFFFFFFFFFFFFFFFFFFFFFFFFFF
310
52006F006F007400200045006E00740072007900000000000000000000000000
310
0000000000000000000000000000000000000000000000000000000000000000
310
16000500FFFFFFFFFFFFFFFF020000000A00030000000000C000000000000046
310
00000000000000000000000060D708F50EA0D30103000000C000000000000000
310
01004F006C006500000000000000000000000000000000000000000000000000
310
0000000000000000000000000000000000000000000000000000000000000000
310
0A000200FFFFFFFFFFFFFFFFFFFFFFFF00000000000000000000000000000000
310
0000000000000000000000000000000000000000000000001400000000000000
310
010043006F006D0070004F0062006A0000000000000000000000000000000000
310
0000000000000000000000000000000000000000000000000000000000000000
310
120002010100000003000000FFFFFFFF00000000000000000000000000000000
310
0000000000000000000000000000000000000000010000004D00000000000000
310
01004F006C006500310030004E00610074006900760065000000000000000000
310
0000000000000000000000000000000000000000000000000000000000000000
310
1A000200FFFFFFFFFFFFFFFFFFFFFFFF00000000000000000000000000000000
310
0000000000000000000000000000000000000000040000002426000000000000
310
FEFFFFFF02000000FEFFFFFFFFFFFFFFFFFFFFFFFFFFFFFFFFFFFFFFFFFFFFFF
310
FFFFFFFFFFFFFFFFFFFFFFFFFFFFFFFFFFFFFFFFFFFFFFFFFFFFFFFFFFFFFFFF
310
FFFFFFFFFFFFFFFFFFFFFFFFFFFFFFFFFFFFFFFFFFFFFFFFFFFFFFFFFFFFFFFF
310
FFFFFFFFFFFFFFFFFFFFFFFFFFFFFFFFFFFFFFFFFFFFFFFFFFFFFFFFFFFFFFFF
310
FFFFFFFFFFFFFFFFFFFFFFFFFFFFFFFFFFFFFFFFFFFFFFFFFFFFFFFFFFFFFFFF
310
FFFFFFFFFFFFFFFFFFFFFFFFFFFFFFFFFFFFFFFFFFFFFFFFFFFFFFFFFFFFFFFF
310
FFFFFFFFFFFFFFFFFFFFFFFFFFFFFFFFFFFFFFFFFFFFFFFFFFFFFFFFFFFFFFFF
310
FFFFFFFFFFFFFFFFFFFFFFFFFFFFFFFFFFFFFFFFFFFFFFFFFFFFFFFFFFFFFFFF
310
FFFFFFFFFFFFFFFFFFFFFFFFFFFFFFFFFFFFFFFFFFFFFFFFFFFFFFFFFFFFFFFF
310
FFFFFFFFFFFFFFFFFFFFFFFFFFFFFFFFFFFFFFFFFFFFFFFFFFFFFFFFFFFFFFFF
310
FFFFFFFFFFFFFFFFFFFFFFFFFFFFFFFFFFFFFFFFFFFFFFFFFFFFFFFFFFFFFFFF
310
FFFFFFFFFFFFFFFFFFFFFFFFFFFFFFFFFFFFFFFFFFFFFFFFFFFFFFFFFFFFFFFF
310
FFFFFFFFFFFFFFFFFFFFFFFFFFFFFFFFFFFFFFFFFFFFFFFFFFFFFFFFFFFFFFFF
310
FFFFFFFFFFFFFFFFFFFFFFFFFFFFFFFFFFFFFFFFFFFFFFFFFFFFFFFFFFFFFFFF
310
FFFFFFFFFFFFFFFFFFFFFFFFFFFFFFFFFFFFFFFFFFFFFFFFFFFFFFFFFFFFFFFF
310
FFFFFFFFFFFFFFFFFFFFFFFFFFFFFFFFFFFFFFFFFFFFFFFFFFFFFFFFFFFFFFFF
310
0100000200000000000000000000000000000000000000000000000000000000
310
0000000000000000000000000000000000000000000000000000000000000000
310
0100FEFF030A0000FFFFFFFF0A00030000000000C00000000000004607000000
310
5042727573680007000000504272757368000700000050427275736800F439B2
310
7100000000000000000000000000000000000000000000000000000000000000
310
0000000000000000000000000000000000000000000000000000000000000000
310
0000000000000000000000000000000000000000000000000000000000000000
310
0000000000000000000000000000000000000000000000000000000000000000
310
0000000000000000000000000000000000000000000000000000000000000000
310
0000000000000000000000000000000000000000000000000000000000000000
310
0000000000000000000000000000000000000000000000000000000000000000
310
0000000000000000000000000000000000000000000000000000000000000000
310
0000000000000000000000000000000000000000000000000000000000000000
310
0000000000000000000000000000000000000000000000000000000000000000
310
0000000000000000000000000000000000000000000000000000000000000000
310
0000000000000000000000000000000000000000000000000000000000000000
310
20260000424D0E260000000000003E00000028000000B40200006E0000000100
310
01000000000000000000130B0000130B00000200000002000000000000FFFFFF
310
FFFFFFFFFFFFFFFFFFFFFFFFFFFFFFFFFFFFFFFFFFFFFFFFFFFFFFFFFFFFFFFF
310
FFFFFFFFFFFFFFFFFFFFFFFFFFFFFFFFFFFFFFFFFFFFFFFFFFFFFFFFFFFFFFFF
310
FFFFFFFFFFFFFFFFFFFFFFFFFFFFFFFFFFFFFFFFFFFFFFFFF000FFFFFFFFFFFF
310
FFFFFFFFFFFFFFFFFFFFFFFFFFFFFFFFFFFFFFFFFFFFFFFFFFFFFFFFFFFFFFFF
310
FFFFFFFFFFFFFFFFFFFFFFFFFFFFFFFFFFFFFFFFFFFFFFFFFFFFFFFFFFFFFFFF
310
FFFFFFFFFFFFFFFFFFFFFFFFFFFFFFFFF000FFFFFFFFFFFFFFFFFFFFFFFFFFFF
310
FFFFFFFFFFFFFFFFFFFFFFFFFFFFFFFFFFFFFFFFFFFFFFFFFFFFFFFFFFFFFFFF
310
FFFFFFFFFFFFFFFFFFFFFFFFFFFFFFFFFFFFFFFFFFFFFFFFFFFFFFFFFFFFFFFF
310
FFFFFFFFFFFFFFFFF000FFFFFFFFFFFFFFFFFFFFFFFFFFFFFFFFFFFFFFFFFFFF
310
FFFFFFFFFFFFFFFFFFFFFFFFFFFFFFFFFFFFFFFFFFFFFFFFFFFFFFFFFFFFFFFF
310
FFFFFFFFFFFFFFFFFFFFFFFFFFFFFFFFFFFFFFFFFFFFFFFFFFFFFFFFFFFFFFFF
310
F000FFFFFFFFFFFFFFFFFFFFFFFFFFFFFFFFFFFFFFFFFFFFFFFFFFFFFFFFFFFF
310
FFFFFFFFFFFFFFFFFFFFFFFFFFFFFFFFFFFFFFFFFFFFFFFFFFFFFFFFFFFFFFFF
310
FFFFFFFFFFFFFFFFFFFFFFFFFFFFFFFFFFFFFFFFFFFFFFFFF000FFFFFFFFFFFF
310
FFFFFFFFFFFFFFFFFFFFFFFFFFFFFFFFFFFFFFFFFFFFFFFFFFFFFFFFFFFFFFFF
310
FFFFFFFFFFFFFFFFFFFFFFFFFFFFFFFFFFFFFFFFFFFFFFFFFFFFFFFFFFFFFFFF
310
FFFFFFFFFFFFFFFFFFFFFFFFFFFFFFFFF000FFFFFFFFFFFFFFFFFFFFFFFFFFFF
310
FFFFFFFFFFFFFFFFFFFFFFFFFFFFFFFFFFFFFFFFFFFFFFFFFFFFFFFFFFFFFFFF
310
FFFFFFFFFFFFFFFFFFFFFFFFFFFFFFFFFFFFFFFFFFFFFFFFFFFFFFFFFFFFFFFF
310
FFFFFFFFFFFFFFFFF000FFFFFFFFFFFFFFFFFFFFFFFFFFFFFFFFFFFFFFFFFFFF
310
FFFFFFFFFFFFFFFFFFFFFFFFFFFFFFFFFFFFFFFFFFFFFFFFFFFFFFFFFFFFFFFF
310
FFFFFFFFFFFFFFFFFFFFFFFFFFFFFFFFFFFFFFFFFFFFFFFFFFFFFFFFFFFFFFFF
310
F000FFFFFFFFFFFFFFFFFFFFFFFFFFFFFFFFFFFFFFFFFFFFFFFFFFFFFFFFFFFF
310
FFFFFFFFFFFFFFFFFFFFFFFFFFFFFFFFFFFFFFFFFFFFFFFFFFFFFFFFFFFFFFFF
310
FFFFFFFFFFFFFFFFFFFFFFFFFFFFFFFFFFFFFFFFFFFFFFFFF000FFFFFFFFFFFF
310
FFFFFFFFFFFFFFFFFFFFFFFFFFFFFFFFFFFFFFFFFFFFFFFFFFFFFFFFFFFFFFFF
310
FFFFFFFFFFFFFFFFFFFFFFFFFFFFFFFFFFFFFFFFFFFFFFFFFFFFFFFFFFFFFFFF
310
FFFFFFFFFFFFFFFFFFFFFFFFFFFFFFFFF000FFFFFFFFFFFFFFFFFFFFFFFFFFFF
310
FFFFFFFFFFFFFFFFFFFFFFFFFFFFFFFFFFFFFFFFFFFFFFFFFFFFFFFFFFFFFFFF
310
FFFFFFFFFFFFFFFFFFFFFFFFFFFFFFFFFFFFFFFFFFFFFFFFFFFFFFFFFFFFFFFF
310
FFFFFFFFFFFFFFFFF000FFFFFFFFFFFFFFFFFFFFFFFFFFFFFFFFFFFFFFFFFFFF
310
FFFFFFFFFFFFFFFFFFFFFFFFFFFFFFFFFFFFFFFFFFFFFFFFFFFFFFFFFFFFFFFF
310
FFFFFFFFFFFFFFFFFFFFFFFFFFFFFFFFFFFFFFFFFFFFFFFFFFFFFFFFFFFFFFFF
310
F000FFFFFFFFFFFFFFFFFFFFFFFFFFFFFFFFFFFFFFFFFFFFFFFFFFFFFFFFFFFF
310
FFFFFFFFFFFFFFFFFFFFFFFFFFFFFFFFFFFFFFFFFFFFFFFFFFFFFFFFFFFFFFFF
310
FFFFFFFFFFFFFFFFFFFFFFFFFFFFFFFFFFFFFFFFFFFFFFFFF000FFFFFFFFFFFF
310
FFFFFFFFFFFFFFFFFFFFFFFFFFFFFFFFFFFFFFFFFFFFFFFFFFFFFFFFFFFFFFFF
310
FFFFFFFFFFFFFFFFFFFFFFFFFFFFFFFFFFFFFFFFFFFFFFFFFFFFFFFFFFFFFFFF
310
FFFFFFFFFFFFFFFFFFFFFFFFFFFFFFFFF000FFFFFFFFFFFFFFFFFFFFFFFFFFFF
310
FFFFFFFFFFFFFFFFFFFFFFFFFFFFFFFFFFFFFFFFFFFFFFFFFFFFFFFFFFFFFFFF
310
FFFFFFFFFFFFFFFFFFFFFFFFFFFFFFFFFFFFFFFFFFFFFFFFFFFFFFFFFFFFFFFF
310
FFFFFFFFFFFFFFFFF000FFFFFFFFFFFFFFFFFFFFFFFFFFFFFFFFFFFFFFFFFFFF
310
FFFFFFFFFFFFFFFFFFFFFFFFFFFFFFFFFFFFFFFFFFFFFFFFFFFFFFFFFFFFFFFF
310
FFFFFFFFFFFFFFFFFFFFFFFFFFFFFFFFFFFFFFFFFFFFFFFFFFFFFFFFFFFFFFFF
310
F000FFFFFFFFFFFFFFFFFFFFFFFFFFFFFFFFFFFFFFFFFFFFFFFFFFFFFFFFFFFF
310
FFFFFFFFFFFFFFFFFFFFFFFFFFFFFFFFFFFFFFFFFFFFFFFFFFFFFFFFFFFFFFFF
310
FFFFFFFFFFFFFFFFFFFFFFFFFFFFFFFFFFFFFFFFFFFFFFFFF000FFFFFFFFFFFF
310
FFFFFFFFFFFFFFFFFFFFFFFFFFFFFFFFFFFFFFFFFFFFFFFFFFFFFFFFFFFFFFFF
310
FFFFFFFFFFFFFFFFFFFFFFFFFFFFFFFFFFFFFFFFFFFFFFFFFFFFFFFFFFFFFFFF
310
FFFFFFFFFFFFFFFFFFFFFFFFFFFFFFFFF000FFFFFFFFFFFFFFFFFFFFFFFFFFFF
310
FFFFFFFFFFFFFFFFFFFFFFFFFFFFFFFFFFFFFFFFFFFFFFFFFFFFFFFFFFFFFFFF
310
FFFFFFFFFFFFFFFFFFFFFFFFFFFFFFFFFFFFFFFFFFFFFFFFFFFFFFFFFFFFFFFF
310
FFFFFFFFFFFFFFFFF000FFFFF80003FFFFFFFFFFFFFFFFFFFFFFFFFFFFFFFFFF
310
FFFFF00007FFFFFFFFFF00007FFFFFF800000000000000007FFFFFFFFFFFFFFF
310
FFFFFFFC001FFFFFFFFFFFFFFC001FFFFFFFFFFFFFFFFFFFFFFFFFFE0007FFFF
310
F000FFFF8000007FFFFFFFF8000FFFFFC0007FFFFF80007FFFFF0000007FFFFF
310
FFF8000007FFFFF800000000000000007FFFFFF0001FFFFFFFFFFFC00001FFFF
310
FFFFFFFFC00001FFFFFFFF000000000003FFFFE000007FFFF000FFFE0000000F
310
FFFFFFF0000FFFFF80007FFFFF80007FFFFC0000001FFFFFFFC0000001FFFFF8
310
00000000000000007FFFFFF0001FFFFFFFFFFE0000003FFFFFFFFFFE0000003F
310
FFFFFF000000000003FFFF0000000FFFF000FFF800000003FFFFFFF00007FFFF
310
80007FFFFF80007FFFF000000007FFFFFF000000003FFFF80000000000000000
310
7FFFFFF0001FFFFFFFFFF80000000FFFFFFFFFF80000000FFFFFFF0000000000
310
03FFFC00000003FFF000FFE000000000FFFFFFF00007FFFF80003FFFFF80007F
310
FFC000000001FFFFFC000000001FFFF800000000000000007FFFFFF0001FFFFF
310
FFFFE000000003FFFFFFFFE000000003FFFFFF000000000003FFF000000000FF
310
F000FF80000000007FFFFFF00007FFFF80003FFFFF80007FFF8000000000FFFF
310
F80000000007FFF800000000000000007FFFFFF0001FFFFFFFFFC000000001FF
310
FFFFFFC000000001FFFFFF000000000003FFC0000000007FF000FF0000000000
310
3FFFFFE00007FFFF00003FFFFF80007FFE00000000003FFFF00000000003FFF8
310
00000000000000007FFFFFF0001FFFFFFFFF8000000000FFFFFFFF8000000000
310
FFFFFF000000000003FF80000000003FF000FE00000000001FFFFFE00003FFFF
310
00003FFFFF80007FFC00000000001FFFE00000000001FFF8000001FFFE000000
310
7FFFFFF0001FFFFFFFFE00000000003FFFFFFE00000000003FFFFF0000000000
310
03FF00000000001FF000FC00000000000FFFFFE00003FFFF00001FFFFF80007F
310
F800000000001FFFC00000000000FFF8000001FFFE0000007FFFFFF0001FFFFF
310
FFFC00000000001FFFFFFC00000000001FFFFF000000000003FE00000000000F
310
F000F8000000000007FFFFE00003FFFF00001FFFFF80007FF800000000000FFF
310
800000000000FFF8000001FFFE0000007FFFFFF0001FFFFFFFF800000000000F
310
FFFFF800000000000FFFFF000000000003FC000000000007F000F80000000000
310
03FFFFC00003FFFE00001FFFFF80007FF0000000000007FF0000000000007FF8
310
000001FFFE0000007FFFFFF0001FFFFFFFF0000000000007FFFFF00000000000
310
07FFFF000000000003F8000000000003F000F0000000000003FFFFC00001FFFE
310
00001FFFFF80007FE0000000000007FE0000000000003FF8000001FFFE000000
310
7FFFFFF0001FFFFFFFF0000000000007FFFFF0000000000007FFFF0000000000
310
03F800001F800003F000E00001FFF00001FFFFC00001FFFE00000FFFFF80007F
310
E00001FFE00003FE00001FFF00003FF8000001FFFE0000007FFFFFF0001FFFFF
310
FFE000003E000003FFFFE000003E000003FFFF000000000003F00001FFF80001
310
F000E00007FFFC0001FFFFC00001FFFE00000FFFFF80007FC0000FFFFC0003FC
310
0000FFFFC0001FF8000001FFFE0000007FFFFFF0001FFFFFFFC00003FFE00001
310
FFFFC00003FFE00001FFFF0001FFFFFFFFF00007FFFE0001F000E0000FFFFF00
310
00FFFF800001FFFC00000FFFFF80007FC0001FFFFE0001FC0001FFFFE0001FF8
310
000001FFFE0000007FFFFFF0001FFFFFFF80000FFFF80000FFFF80000FFFF800
310
00FFFF0003FFFFFFFFE0000FFFFF8000F000C0003FFFFF8000FFFF800000FFFC
310
000007FFFF80007F80003FFFFF0001FC0003FFFFF0001FF8000001FFFE000000
310
7FFFFFF0001FFFFFFF80003FFFFE0000FFFF80003FFFFE0000FFFF0003FFFFFF
310
FFE0003FFFFF8000F000C0003FFFFF8000FFFF800000FFFC000007FFFF80007F
310
80007FFFFF8001F80007FFFFF8000FF8000001FFFE0000007FFFFFF0001FFFFF
310
FF00007FFFFF00007FFF00007FFFFF00007FFF0003FFFFFFFFE0003FFFFFC000
310
F000C0007FFFFFC000FFFF000000FFFC000007FFFF80007F8000FFFFFF8000F8
310
000FFFFFF8000FF8000001FFFE0000007FFFFFF0001FFFFFFF0000FFFFFF8000
310
7FFF0000FFFFFF80007FFF0003FFFFFFFFC0007FFFFFC00070008000FFFFFFC0
310
00FFFF000000FFF8000007FFFF80007F8000FFFFFF8000F8000FFFFFF8000FF8
310
000001FFFE0000007FFFFFF0001FFFFFFE0001FFFFFFC0003FFE0001FFFFFFC0
310
003FFF0003FFFFFFFFC0007FFFFFE00070008000FFFFFFC0007FFF0000007FF8
310
000003FFFF80007F0001FFFFFF8000F8000FFFFFF8000FF8000001FFFE000000
310
7FFFFFF0001FFFFFFE0001FFFFFFC0003FFE0001FFFFFFC0003FFF0003FFFFFF
310
FFC000FFFFFFE00070008000FFFFFFC0007FFF0000007FF8000003FFFF80007F
310
0001FFFFFF8000F8001FFFFFF8000FF8000001FFFE0000007FFFFFF0001FFFFF
310
FE0003FFFFFFE0003FFE0003FFFFFFE0003FFF0003FFFFFFFFC000FFFFFFE000
310
70008000FFFFFFC0007FFE0000007FF8000003FFFF80007F0001FFFFFF8000F0
310
001FFFFFF8000FF8000001FFFE0000007FFFFFF0001FFFFFFC0003FFFFFFE000
310
1FFC0003FFFFFFE0001FFF0003FFFFFFFFC000FFFFFFC00070008000FFFFFF80
310
007FFE0000007FF0000003FFFF80007F0001FFFFFF0000F0001FFFFFF8000FF8
310
000001FFFE0000007FFFFFF0001FFFFFFC0007FFFFFFF0001FFC0007FFFFFFF0
310
001FFF0003FFFFFFFFC000FFFFFFC00070008001FFFFFF0000FFFE0000003FF0
310
000001FFFF80007F0001FFFFFF0000F8001FFFFFF0000FF8000001FFFE000000
310
7FFFFFF0001FFFFFFC0007FFFFFFF0001FFC0007FFFFFFF0001FFF0003FFFFFF
310
FFC001FFFFFF80007000FFFFFFFFFE0000FFFE0008003FF0008001FFFF80007F
310
FFFFFFFFFC0000FFFFFFFFFFE0000FF8000001FFFE0000007FFFFFF0001FFFFF
310
F8000FFFFFFFF8000FF8000FFFFFFFF8000FFF0003FFFFFFFFFFFFFFFFFF0000
310
7000FFFFFFFFFC0000FFFC0008003FF0008001FFFF80007FFFFFFFFFF80001FF
310
FFFFFFFF80000FF8000001FFFE0000007FFFFFF0001FFFFFF8000FFFFFFFF800
310
0FF8000FFFFFFFF8000FFF0003FFFFFFFFFFFFFFFFFE0000F000FFFFFFFFE000
310
00FFFC000C003FE000C001FFFF80007FFFFFFFFFC00001FFFFFFFFFE00001FF8
310
000001FFFE0000007FFFFFF0001FFFFFF8000FFFFFFFF8000FF8000FFFFFFFF8
310
000FFF0003FFFFFFFFFFFFFFFFF00000F000FFFFFFFE000001FFFC000C001FE0
310
00C000FFFF80007FFFFFFFFE000001FFFFFFFFE000001FF80FFFFFFFFFFFFFC0
310
7FFFFFF0001FFFFFF8000FFFFFFFF8000FF8000FFFFFFFF8000FFF0003FFFFFF
310
FFFFFFFFFF800000F000FFFFFFC0000001FFFC001C001FE001C000FFFF80007F
310
FFFFFF80000003FFFFFFF80000001FF80FFFFFFFFFFFFFC07FFFFFF0001FFFFF
310
F8001FFFFFFFFC000FF8001FFFFFFFFC000FFF0003FFFFFFFFFFFFFFF0000001
310
F000FFFFF800000001FFF8001C001FE001C000FFFF80007FFFFFF800000003FF
310
FFFF800000003FF80FFFFFFFFFFFFFC07FFFFFF0001FFFFFF8001FFFFFFFFC00
310
0FF8001FFFFFFFFC000FFF0003FFFFFFFFFFFFFE00000001F000FFFFC0000000
310
03FFF8001E001FC001E000FFFF80007FFFFF8000000007FFFFFC000000003FF8
310
0FFFFFFFFFFFFFC07FFFFFF0001FFFFFF8001FFFFFFFFC000FF8001FFFFFFFFC
310
000FFF0003FFFFFFFFFFFFE000000003F000FFFE0000000007FFF8001E000FC0
310
01E0007FFF80007FFFFE0000000007FFFFE0000000007FF80FFFFFFFFFFFFFC0
310
7FFFFFF0001FFFFFF0001FFFFFFFFC0007F0001FFFFFFFFC0007FF0003FFFFFF
310
FFFFFF0000000003F000FFF80000000007FFF8001E000FC003E0007FFF80007F
310
FFF0000000000FFFFF8000000000FFF80FFFFFFFFFFFFFC07FFFFFF0001FFFFF
310
F0001FFFFFFFFC0007F0001FFFFFFFFC0007FF0003FFFFFFFFFFFC0000000007
310
F000FFE0000000000FFFF0003E000FC003E0007FFF80007FFFC0000000001FFF
310
FE0000000001FFF80FFFFFFFFFFFFFC07FFFFFF0001FFFFFF0001FFFFFFFFC00
310
07F0001FFFFFFFFC0007FF0003FFFFFFFFFFF0000000000FF000FFC000000000
310
1FFFF0003F000F8003F0003FFF80007FFF80000000003FFFF80000000003FFF8
310
0FFFFFFFFFFFFFC07FFFFFF0001FFFFFF0001FFFFFFFFC0007F0001FFFFFFFFC
310
0007FF0003FFFFFFFFFFE0000000001FF000FF00000000007FFFF0003F000780
310
03F0003FFF80007FFF00000000007FFFF00000000007FFF80FFFFFFFFFFFFFC0
310
7FFFFFF0001FFFFFF0001FFFFFFFFC0007F0001FFFFFFFFC0007FF0003FFFFFF
310
FFFF80000000007FF000FE0000000000FFFFE0003F00078007F0003FFF80007F
310
FE0000000001FFFFE0000000001FFFF80FFFFFFFFFFFFFC07FFFFFF0001FFFFF
310
F0001FFFFFFFFC0007F0001FFFFFFFFC0007FF0003FFFFFFFFFF0000000000FF
310
F000FC0000000003FFFFE0007F00078007F0003FFF80007FFC0000000007FFFF
310
C0000000007FFFF80FFFFFFFFFFFFFC07FFFFFF0001FFFFFF8001FFFFFFFFC00
310
0FF8001FFFFFFFFC000FFF0003FFFFFFFFFE0000000003FFF000FC000000000F
310
FFFFE0007F80070007F8001FFF80007FF8000000001FFFFF8000000001FFFFF8
310
0FFFFFFFFFFFFFC07FFFFFF0001FFFFFF8001FFFFFFFFC000FF8001FFFFFFFFC
310
000FFF0003FFFFFFFFFC000000000FFFF000F8000000007FFFFFE0007F800700
310
07F8001FFF80007FF000000000FFFFFF800000000FFFFFF80FFFFFFFFFFFFFC0
310
7FFFFFF0001FFFFFF8000FFFFFFFF8000FF8000FFFFFFFF8000FFF0003FFFFFF
310
FFFC000000007FFFF000F800000007FFFFFFC0007F8003000FF8001FFF80007F
310
F000000007FFFFFF000000007FFFFFF80FFFFFFFFFFFFFC07FFFFFF0001FFFFF
310
F8000FFFFFFFF8000FF8000FFFFFFFF8000FFF0003FFFFFFFFF80000000FFFFF
310
F000F0000000FFFFFFFFC000FF8003000FF8001FFF80007FE0000000FFFFFFFF
310
0000000FFFFFFFF8000001FFFE0000007FFFFFF0001FFFFFF8000FFFFFFFF800
310
0FF8000FFFFFFFF8000FFF0003FFFFFFFFF8000000FFFFFFF000F000000FFFFF
310
FFFFC000FFC002000FF8000FFF80007FE000001FFFFFFFFE000001FFFFFFFFF8
310
000001FFFE0000007FFFFFF0001FFFFFF8000FFFFFFFF8000FF8000FFFFFFFF8
310
000FFF0003FFFFFFFFF000001FFFFFFFF000E00000FFFFFFFFFFC000FFC00200
310
0FFC000FFF80007FE00001FFFFFFFFFE00001FFFFFFFFFF8000001FFFE000000
310
7FFFFFF0001FFFFFFC000FFFFFFFF8001FFC000FFFFFFFF8001FFF0003FFFFFF
310
FFF00001FFFFFFFFF000E00007FFFFFFFFFF8000FFC000001FFC000FFF80007F
310
C0000FFFFFFFFFFE0000FFFFFFFFFFF8000001FFFE0000007FFFFFF0001FFFFF
310
FC0007FFFFFFF0001FFC0007FFFFFFF0001FFF0003FFFFFFFFF00007FFFFFFFF
310
F000E0001FFFFFFFFFFF8000FFC000001FFC000FFF80007FC0003FFFFFFFFFFE
310
0001FFFFFFFFFFF8000001FFFE0000007FFFFFF0001FFFFFFC0007FFFFFFF000
310
1FFC0007FFFFFFF0001FFF0003FFFFFFFFF0001FFFFFFFFFF000E0003FFFFF00
310
03FF8001FFE000001FFC0007FF80007FC0007FFFFF0007FC0003FFFFF0003FF8
310
000001FFFE0000007FFFFFF0001FFFFFFC0003FFFFFFE0001FFC0003FFFFFFE0
310
001FFF0003FFFFFFFFF0003FFFFFFFFFF000E0003FFFFF0001FF8001FFE00000
310
1FFE0007FF80007FC0007FFFFE0003FC0007FFFFE0003FF8000001FFFE000000
310
7FFFFFF0001FFFFFFE0003FFFFFFE0003FFE0003FFFFFFE0003FFF0003FFFFFF
310
FFF0003FFFFF8001F000E0003FFFFF0001FF0001FFE000001FFE0007FF80007F
310
C0007FFFFE0003FC0007FFFFE0003FF8000001FFFE0000007FFFFFF0001FFFFF
310
FE0001FFFFFFC0003FFE0001FFFFFFC0003FFF0003FFFFFFFFF0003FFFFF0001
310
F000E0003FFFFF0003FF0001FFE000003FFE0007FF80007FC0007FFFFE0003FC
310
0007FFFFE0003FF8000001FFFE0000007FFFFFF0001FFFFFFF0001FFFFFFC000
310
7FFF0001FFFFFFC0007FFF0003FFFFFFFFF0003FFFFF0001F000E0003FFFFE00
310
03FF0003FFF000003FFE0003FF80007FC0007FFFFC0003FE0007FFFFE0003FF8
310
000001FFFE0000007FFFFFF0001FFFFFFF0000FFFFFF80007FFF0000FFFFFF80
310
007FFF0003FFFFFFFFF0003FFFFF0001F000E0003FFFFE0003FF0003FFF00000
310
3FFF0003FF80007FC0007FFFFC0007FE0007FFFFC0003FF8000001FFFE000000
310
7FFFFFF0001FFFFFFF80007FFFFF0000FFFF80007FFFFF0000FFFF0003FFFFFF
310
FFF0003FFFFF0003F000E0003FFFFC0003FE0003FFF000003FFF0003FF80007F
310
E0003FFFF80007FE0003FFFFC0007FF8000001FFFE0000007FFFFFF0001FFFFF
310
FF80003FFFFE0000FFFF80003FFFFE0000FFFF0003FFFFFFFFF0001FFFFE0003
310
F000F0001FFFF80003FE0003FFF000007FFF0001FF80007FE0003FFFF00007FE
310
0001FFFF80007FF8000001FFFE0000007FFFFFF0001FFFFFFFC0000FFFF80001
310
FFFFC0000FFFF80001FFFF0003FFFFFFFFF0001FFFFC0003F000F0000FFFF000
310
07FE0007FFF800007FFF0001FF80007FE0001FFFE00007FF0000FFFE00007FF8
310
000001FFFE0000007FFFFFF0001FFFFFFFC00003FFE00001FFFFC00003FFE000
310
01FFFF0003FFFFFFFFF8000FFFF80003F000F00003FFC00007FC0007FFF80000
310
7FFF8001FF80007FF00007FF80000FFF00007FF80000FFF8000001FFFE000000
310
7F80000000000001FFE000003E000003FFFFE000003E000003FFFF0003FFFFFF
310
FFF80003FFE00007F000F800000000000FFC0007FFF800007FFF8001FF80007F
310
F000000000000FFF000000000000FFF8000001FFFE0000007F80000000000001
310
FFF0000000000007FFFFF0000000000007FFFF0003FFFFFFFFFC00007E000007
310
F000F800000000000FFC0007FFF80000FFFF8000FF80007FF800000000001FFF
310
800000000001FFF8000001FFFE0000007F80000000000001FFF800000000000F
310
FFFFF800000000000FFFFF0003FFFFFFFFFC00000000000FF000FC0000000000
310
1FFC0007FFFC0000FFFF8000FF80007FF800000000003FFFC00000000001FFF8
310
000001FFFE0000007F80000000000001FFF800000000000FFFFFF80000000000
310
0FFFFF0003FFFFFFFFFE00000000001FF000FE00000000003FF8000FFFFC0000
310
FFFF8000FF80007FFC00000000003FFFC00000000003FFF8000001FFFE000000
310
7F80000000000001FFFC00000000001FFFFFFC00000000001FFFFF0003FFFFFF
310
FFFF00000000001FF000FF00000000003FF8000FFFFC0000FFFFC000FF80007F
310
FE00000000007FFFE00000000007FFF8000001FFFE0000007F80000000000001
310
FFFE00000000003FFFFFFE00000000003FFFFF0003FFFFFFFFFF80000000003F
310
F000FF80000000007FF8000FFFFC0001FFFFC0007F80007FFF0000000000FFFF
310
F0000000000FFFF800000000000000007F80000000000001FFFF8000000000FF
310
FFFFFF8000000000FFFFFF0003FFFFFFFFFFC0000000007FF000FFC000000000
310
FFF8000FFFFE0001FFFFC0007F80007FFF8000000001FFFFF8000000001FFFF8
310
00000000000000007F80000000000001FFFFC000000001FFFFFFFFC000000001
310
FFFFFF0003FFFFFFFFFFE000000000FFF000FFE000000003FFF0001FFFFE0001
310
FFFFC0007F80007FFFC000000007FFFFFE000000003FFFF80000000000000000
310
7F80000000000001FFFFE000000003FFFFFFFFE000000003FFFFFF0003FFFFFF
310
FFFFF000000003FFF000FFF80000000FFFF0001FFFFE0001FFFFE0007F80007F
310
FFF00000000FFFFFFF00000000FFFFF800000000000000007F80000000000001
310
FFFFF80000000FFFFFFFFFF80000000FFFFFFF0003FFFFFFFFFFFC0000000FFF
310
F000FFFE0000003FFFF0001FFFFE0003FFFFE0003F80007FFFFC0000003FFFFF
310
FFC0000003FFFFF800000000000000007F80000000000001FFFFFE0000003FFF
310
FFFFFFFE0000003FFFFFFF0003FFFFFFFFFFFF0000003FFFF000FFFF800000FF
310
FFF0001FFFFF0003FFFFE0003F80007FFFFF000001FFFFFFFFF800001FFFFFF8
310
00000000000000007F80000000000001FFFFFFC00001FFFFFFFFFFFFC00001FF
310
FFFFFF0003FFFFFFFFFFFFC00000FFFFF000FFFFF8000FFFFFFFFFFFFFFFFFFF
310
FFFFFFFFFFFFFFFFFFFFF0001FFFFFFFFFFF0000FFFFFFF80000000000000000
310
7FFFFFFFFFFFFFFFFFFFFFFC001FFFFFFFFFFFFFFC001FFFFFFFFFFFFFFFFFFF
310
FFFFFFFC001FFFFFF000FFFFFFFFFFFFFFFFFFFFFFFFFFFFFFFFFFFFFFFFFFFF
310
FFFFFFFFFFFFFFFFFFFFFFFFFFFFFFFFFFFFFFFFFFFFFFFFFFFFFFFFFFFFFFFF
310
FFFFFFFFFFFFFFFFFFFFFFFFFFFFFFFFFFFFFFFFFFFFFFFFFFFFFFFFFFFFFFFF
310
F000FFFFFFFFFFFFFFFFFFFFFFFFFFFFFFFFFFFFFFFFFFFFFFFFFFFFFFFFFFFF
310
FFFFFFFFFFFFFFFFFFFFFFFFFFFFFFFFFFFFFFFFFFFFFFFFFFFFFFFFFFFFFFFF
310
FFFFFFFFFFFFFFFFFFFFFFFFFFFFFFFFFFFFFFFFFFFFFFFFF000FFFFFFFFFFFF
310
FFFFFFFFFFFFFFFFFFFFFFFFFFFFFFFFFFFFFFFFFFFFFFFFFFFFFFFFFFFFFFFF
310
FFFFFFFFFFFFFFFFFFFFFFFFFFFFFFFFFFFFFFFFFFFFFFFFFFFFFFFFFFFFFFFF
310
FFFFFFFFFFFFFFFFFFFFFFFFFFFFFFFFF000FFFFFFFFFFFFFFFFFFFFFFFFFFFF
310
FFFFFFFFFFFFFFFFFFFFFFFFFFFFFFFFFFFFFFFFFFFFFFFFFFFFFFFFFFFFFFFF
310
FFFFFFFFFFFFFFFFFFFFFFFFFFFFFFFFFFFFFFFFFFFFFFFFFFFFFFFFFFFFFFFF
310
FFFFFFFFFFFFFFFFF000FFFFFFFFFFFFFFFFFFFFFFFFFFFFFFFFFFFFFFFFFFFF
310
FFFFFFFFFFFFFFFFFFFFFFFFFFFFFFFFFFFFFFFFFFFFFFFFFFFFFFFFFFFFFFFF
310
FFFFFFFFFFFFFFFFFFFFFFFFFFFFFFFFFFFFFFFFFFFFFFFFFFFFFFFFFFFFFFFF
310
F000FFFFFFFFFFFFFFFFFFFFFFFFFFFFFFFFFFFFFFFFFFFFFFFFFFFFFFFFFFFF
310
FFFFFFFFFFFFFFFFFFFFFFFFFFFFFFFFFFFFFFFFFFFFFFFFFFFFFFFFFFFFFFFF
310
FFFFFFFFFFFFFFFFFFFFFFFFFFFFFFFFFFFFFFFFFFFFFFFFF000FFFFFFFFFFFF
310
FFFFFFFFFFFFFFFFFFFFFFFFFFFFFFFFFFFFFFFFFFFFFFFFFFFFFFFFFFFFFFFF
310
FFFFFFFFFFFFFFFFFFFFFFFFFFFFFFFFFFFFFFFFFFFFFFFFFFFFFFFFFFFFFFFF
310
FFFFFFFFFFFFFFFFFFFFFFFFFFFFFFFFF000FFFFFFFFFFFFFFFFFFFFFFFFFFFF
310
FFFFFFFFFFFFFFFFFFFFFFFFFFFFFFFFFFFFFFFFFFFFFFFFFFFFFFFFFFFFFFFF
310
FFFFFFFFFFFFFFFFFFFFFFFFFFFFFFFFFFFFFFFFFFFFFFFFFFFFFFFFFFFFFFFF
310
FFFFFFFFFFFFFFFFF000FFFFFFFFFFFFFFFFFFFFFFFFFFFFFFFFFFFFFFFFFFFF
310
FFFFFFFFFFFFFFFFFFFFFFFFFFFFFFFFFFFFFFFFFFFFFFFFFFFFFFFFFFFFFFFF
310
FFFFFFFFFFFFFFFFFFFFFFFFFFFFFFFFFFFFFFFFFFFFFFFFFFFFFFFFFFFFFFFF
310
F000FFFFFFFFFFFFFFFFFFFFFFFFFFFFFFFFFFFFFFFFFFFFFFFFFFFFFFFFFFFF
310
FFFFFFFFFFFFFFFFFFFFFFFFFFFFFFFFFFFFFFFFFFFFFFFFFFFFFFFFFFFFFFFF
310
FFFFFFFFFFFFFFFFFFFFFFFFFFFFFFFFFFFFFFFFFFFFFFFFF000FFFFFFFFFFFF
310
FFFFFFFFFFFFFFFFFFFFFFFFFFFFFFFFFFFFFFFFFFFFFFFFFFFFFFFFFFFFFFFF
310
FFFFFFFFFFFFFFFFFFFFFFFFFFFFFFFFFFFFFFFFFFFFFFFFFFFFFFFFFFFFFFFF
310
FFFFFFFFFFFFFFFFFFFFFFFFFFFFFFFFF000FFFFFFFFFFFFFFFFFFFFFFFFFFFF
310
FFFFFFFFFFFFFFFFFFFFFFFFFFFFFFFFFFFFFFFFFFFFFFFFFFFFFFFFFFFFFFFF
310
FFFFFFFFFFFFFFFFFFFFFFFFFFFFFFFFFFFFFFFFFFFFFFFFFFFFFFFFFFFFFFFF
310
FFFFFFFFFFFFFFFFF000FFFFFFFFFFFFFFFFFFFFFFFFFFFFFFFFFFFFFFFFFFFF
310
FFFFFFFFFFFFFFFFFFFFFFFFFFFFFFFFFFFFFFFFFFFFFFFFFFFFFFFFFFFFFFFF
310
FFFFFFFFFFFFFFFFFFFFFFFFFFFFFFFFFFFFFFFFFFFFFFFFFFFFFFFFFFFFFFFF
310
F000FFFFFFFFFFFFFFFFFFFFFFFFFFFFFFFFFFFFFFFFFFFFFFFFFFFFFFFFFFFF
310
FFFFFFFFFFFFFFFFFFFFFFFFFFFFFFFFFFFFFFFFFFFFFFFFFFFFFFFFFFFFFFFF
310
FFFFFFFFFFFFFFFFFFFFFFFFFFFFFFFFFFFFFFFFFFFFFFFFF000FFFFFFFFFFFF
310
FFFFFFFFFFFFFFFFFFFFFFFFFFFFFFFFFFFFFFFFFFFFFFFFFFFFFFFFFFFFFFFF
310
FFFFFFFFFFFFFFFFFFFFFFFFFFFFFFFFFFFFFFFFFFFFFFFFFFFFFFFFFFFFFFFF
310
FFFFFFFFFFFFFFFFFFFFFFFFFFFFFFFFF000FFFFFFFFFFFFFFFFFFFFFFFFFFFF
310
FFFFFFFFFFFFFFFFFFFFFFFFFFFFFFFFFFFFFFFFFFFFFFFFFFFFFFFFFFFFFFFF
310
FFFFFFFFFFFFFFFFFFFFFFFFFFFFFFFFFFFFFFFFFFFFFFFFFFFFFFFFFFFFFFFF
310
FFFFFFFFFFFFFFFFF000FFFFFFFFFFFFFFFFFFFFFFFFFFFFFFFFFFFFFFFFFFFF
310
FFFFFFFFFFFFFFFFFFFFFFFFFFFFFFFFFFFFFFFFFFFFFFFFFFFFFFFFFFFFFFFF
310
FFFFFFFFFFFFFFFFFFFFFFFFFFFFFFFFFFFFFFFFFFFFFFFFFFFFFFFFFFFFFFFF
310
F000FFFFFFFFFFFFFFFFFFFFFFFFFFFFFFFFFFFFFFFFFFFFFFFFFFFFFFFFFFFF
310
FFFFFFFFFFFFFFFFFFFFFFFFFFFFFFFFFFFFFFFFFFFFFFFFFFFFFFFFFFFFFFFF
310
FFFFFFFFFFFFFFFFFFFFFFFFFFFFFFFFFFFFFFFFFFFFFFFFF000FFFFFFFFFFFF
310
FFFFFFFFFFFFFFFFFFFFFFFFFFFFFFFFFFFFFFFFFFFFFFFFFFFFFFFFFFFFFFFF
310
FFFFFFFFFFFFFFFFFFFFFFFFFFFFFFFFFFFFFFFFFFFFFFFFFFFFFFFFFFFFFFFF
310
FFFFFFFFFFFFFFFFFFFFFFFFFFFFFFFFF000FFFFFFFFFFFFFFFFFFFFFFFFFFFF
310
FFFFFFFFFFFFFFFFFFFFFFFFFFFFFFFFFFFFFFFFFFFFFFFFFFFFFFFFFFFFFFFF
310
FFFFFFFFFFFFFFFFFFFFFFFFFFFFFFFFFFFFFFFFFFFFFFFFFFFFFFFFFFFFFFFF
310
FFFFFFFFFFFFFFFFF000FFFFFFFFFFFFFFFFFFFFFFFFFFFFFFFFFFFFFFFFFFFF
310
FFFFFFFFFFFFFFFFFFFFFFFFFFFFFFFFFFFFFFFFFFFFFFFFFFFFFFFFFFFFFFFF
310
FFFFFFFFFFFFFFFFFFFFFFFFFFFFFFFFFFFFFFFFFFFFFFFFFFFFFFFFFFFFFFFF
310
F000FFFFFFFFFFFFFFFFFFFFFFFFFFFFFFFFFFFFFFFFFFFFFFFFFFFFFFFFFFFF
310
FFFFFFFFFFFFFFFFFFFFFFFFFFFFFFFFFFFFFFFFFFFFFFFFFFFFFFFFFFFFFFFF
310
FFFFFFFFFFFFFFFFFFFFFFFFFFFFFFFFFFFFFFFFFFFFFFFFF000FFFFFFFFFFFF
310
FFFFFFFFFFFFFFFFFFFFFFFFFFFFFFFFFFFFFFFFFFFFFFFFFFFFFFFFFFFFFFFF
310
FFFFFFFFFFFFFFFFFFFFFFFFFFFFFFFFFFFFFFFFFFFFFFFFFFFFFFFFFFFFFFFF
310
FFFFFFFFFFFFFFFFFFFFFFFFFFFFFFFFF0000000000000000000000000000000
310
0000000000000000000000000000000000000000000000000000000000000000
310
0000000000000000000000000000000000000000000000000000000000000000
310
0000000000000000000000000000000000000000000000000000000000000000
310
0000000000000000000000000000000000000000000000000000000000000000
310
0000000000000000000000000000000000000000000000000000000000000000
310
0000000000000000000000000000000000000000000000000000000000000000
310
0000000000000000000000000000000000000000000000000000000000000000
310
0000000000000000000000000000000000000000000000000000000000000000
310
0000000000000000000000000000000000000000000000000000000000000000
310
0000000000000000000000000000000000000000000000000000000000000000
310
0000000000000000000000000000000000000000000000000000000000000000
310
0000000000000000000000000000000000000000000000000000000000000000
310
0000000000000000000000000000000000000000000000000000000000000000
310
0000000000000000000000000000000000000000000000000000000000000000
310
0000000000000000000000000000000000000000000000000000000000000000
  1
OLE
  0
ENDSEC
  0
SECTION
  2
OBJECTS
  0
DICTIONARY
  5
C
330
0
100
AcDbDictionary
281
     1
  3
ACAD_GROUP
350
D
  3
ACAD_LAYOUT
350
1A
  3
ACAD_MLINESTYLE
350
17
  3
ACAD_PLOTSETTINGS
350
19
  3
ACAD_PLOTSTYLENAME
350
E
  3
ACAD_SCALELIST
350
47
  0
DICTIONARY
  5
D
102
{ACAD_REACTORS
330
C
102
}
330
C
100
AcDbDictionary
281
     1
  0
DICTIONARY
  5
1A
102
{ACAD_REACTORS
330
C
102
}
330
C
100
AcDbDictionary
281
     1
  3
Layout1
350
1E
  3
Layout2
350
26
  3
Model
350
22
  0
DICTIONARY
  5
17
102
{ACAD_REACTORS
330
C
102
}
330
C
100
AcDbDictionary
281
     1
  3
Standard
350
18
  0
DICTIONARY
  5
19
102
{ACAD_REACTORS
330
C
102
}
330
C
100
AcDbDictionary
281
     1
  0
ACDBDICTIONARYWDFLT
  5
E
102
{ACAD_REACTORS
330
C
102
}
330
C
100
AcDbDictionary
281
     1
  3
Normal
350
F
100
AcDbDictionaryWithDefault
340
F
  0
DICTIONARY
  5
47
102
{ACAD_REACTORS
330
C
102
}
330
C
100
AcDbDictionary
281
     1
  3
A0
350
48
  3
A1
350
49
  3
A2
350
4A
  3
A3
350
4B
  3
A4
350
4C
  3
A5
350
4D
  3
A6
350
4E
  3
A7
350
4F
  3
A8
350
50
  3
A9
350
51
  3
B0
350
52
  3
B1
350
53
  3
B2
350
54
  3
B3
350
55
  3
B4
350
56
  3
B5
350
57
  3
B6
350
58
  3
B7
350
59
  3
B8
350
5A
  3
B9
350
5B
  3
C0
350
5C
  3
C1
350
5D
  3
C2
350
5E
  3
C3
350
5F
  3
C4
350
60
  3
C5
350
61
  3
C6
350
62
  3
C7
350
63
  3
C8
350
64
  3
C9
350
65
  3
D0
350
66
  3
D1
350
67
  3
D2
350
68
  0
LAYOUT
  5
1E
102
{ACAD_REACTORS
330
1A
102
}
330
1A
100
AcDbPlotSettings
  1

  2
none_device
  4

  6

 40
0.0
 41
0.0
 42
0.0
 43
0.0
 44
0.0
 45
0.0
 46
0.0
 47
0.0
 48
0.0
 49
0.0
140
0.0
141
0.0
142
1.0
143
1.0
 70
   688
 72
     1
 73
     0
 74
     5
  7

 75
    16
147
1.0
148
0.0
149
0.0
100
AcDbLayout
  1
Layout1
 70
     1
 71
     1
 10
0.0
 20
0.0
 11
420.0
 21
297.0
 12
0.0
 22
0.0
 32
0.0
 14
1.0000000000E+20
 24
1.0000000000E+20
 34
1.0000000000E+20
 15
-1.0000000000E+20
 25
-1.0000000000E+20
 35
-1.0000000000E+20
146
0.0
 13
0.0
 23
0.0
 33
0.0
 16
1.0
 26
0.0
 36
0.0
 17
0.0
 27
1.0
 37
0.0
 76
     0
330
1B
  0
LAYOUT
  5
26
102
{ACAD_REACTORS
330
1A
102
}
330
1A
100
AcDbPlotSettings
  1

  2
none_device
  4

  6

 40
0.0
 41
0.0
 42
0.0
 43
0.0
 44
0.0
 45
0.0
 46
0.0
 47
0.0
 48
0.0
 49
0.0
140
0.0
141
0.0
142
1.0
143
1.0
 70
   688
 72
     1
 73
     0
 74
     5
  7

 75
    16
147
1.0
148
0.0
149
0.0
100
AcDbLayout
  1
Layout2
 70
     1
 71
     2
 10
0.0
 20
0.0
 11
0.0
 21
0.0
 12
0.0
 22
0.0
 32
0.0
 14
0.0
 24
0.0
 34
0.0
 15
0.0
 25
0.0
 35
0.0
146
0.0
 13
0.0
 23
0.0
 33
0.0
 16
1.0
 26
0.0
 36
0.0
 17
0.0
 27
1.0
 37
0.0
 76
     0
330
23
  0
LAYOUT
  5
22
102
{ACAD_REACTORS
330
1A
102
}
330
1A
100
AcDbPlotSettings
  1

  2
none_device
  4
Letter_(8.50_x_11.00_Inches)
  6

 40
6.35
 41
6.35
 42
6.35000508
 43
6.35000508
 44
215.9
 45
279.4
 46
0.0
 47
0.0
 48
0.0
 49
0.0
140
0.0
141
0.0
142
1.0
143
1.0
 70
  1712
 72
     1
 73
     0
 74
     0
  7

 75
     0
147
1.0
148
0.0
149
0.0
100
AcDbLayout
  1
Model
 70
     1
 71
     0
 10
0.0
 20
0.0
 11
297.0
 21
210.0
 12
0.0
 22
0.0
 32
0.0
 14
0.0
 24
0.0
 34
0.0
 15
297.0
 25
210.0
 35
0.0
146
0.0
 13
0.0
 23
0.0
 33
0.0
 16
1.0
 26
0.0
 36
0.0
 17
0.0
 27
1.0
 37
0.0
 76
     0
330
1F
331
29
  0
MLINESTYLE
  5
18
102
{ACAD_REACTORS
330
17
102
}
330
17
100
AcDbMlineStyle
  2
Standard
 70
     0
  3

 62
   256
 51
90.0
 52
90.0
 71
     2
 49
0.5
 62
   256
  6
BYLAYER
 49
-0.5
 62
   256
  6
BYLAYER
  0
ACDBPLACEHOLDER
  5
F
102
{ACAD_REACTORS
330
E
102
}
330
E
  0
SCALE
  5
48
102
{ACAD_REACTORS
330
47
102
}
330
47
100
AcDbScale
 70
     0
300
1:1
140
1.0
141
1.0
290
     1
  0
SCALE
  5
49
102
{ACAD_REACTORS
330
47
102
}
330
47
100
AcDbScale
 70
     0
300
1:2
140
1.0
141
2.0
290
     0
  0
SCALE
  5
4A
102
{ACAD_REACTORS
330
47
102
}
330
47
100
AcDbScale
 70
     0
300
1:4
140
1.0
141
4.0
290
     0
  0
SCALE
  5
4B
102
{ACAD_REACTORS
330
47
102
}
330
47
100
AcDbScale
 70
     0
300
1:5
140
1.0
141
5.0
290
     0
  0
SCALE
  5
4C
102
{ACAD_REACTORS
330
47
102
}
330
47
100
AcDbScale
 70
     0
300
1:8
140
1.0
141
8.0
290
     0
  0
SCALE
  5
4D
102
{ACAD_REACTORS
330
47
102
}
330
47
100
AcDbScale
 70
     0
300
1:10
140
1.0
141
10.0
290
     0
  0
SCALE
  5
4E
102
{ACAD_REACTORS
330
47
102
}
330
47
100
AcDbScale
 70
     0
300
1:16
140
1.0
141
16.0
290
     0
  0
SCALE
  5
4F
102
{ACAD_REACTORS
330
47
102
}
330
47
100
AcDbScale
 70
     0
300
1:20
140
1.0
141
20.0
290
     0
  0
SCALE
  5
50
102
{ACAD_REACTORS
330
47
102
}
330
47
100
AcDbScale
 70
     0
300
1:30
140
1.0
141
30.0
290
     0
  0
SCALE
  5
51
102
{ACAD_REACTORS
330
47
102
}
330
47
100
AcDbScale
 70
     0
300
1:40
140
1.0
141
40.0
290
     0
  0
SCALE
  5
52
102
{ACAD_REACTORS
330
47
102
}
330
47
100
AcDbScale
 70
     0
300
1:50
140
1.0
141
50.0
290
     0
  0
SCALE
  5
53
102
{ACAD_REACTORS
330
47
102
}
330
47
100
AcDbScale
 70
     0
300
1:100
140
1.0
141
100.0
290
     0
  0
SCALE
  5
54
102
{ACAD_REACTORS
330
47
102
}
330
47
100
AcDbScale
 70
     0
300
2:1
140
2.0
141
1.0
290
     0
  0
SCALE
  5
55
102
{ACAD_REACTORS
330
47
102
}
330
47
100
AcDbScale
 70
     0
300
4:1
140
4.0
141
1.0
290
     0
  0
SCALE
  5
56
102
{ACAD_REACTORS
330
47
102
}
330
47
100
AcDbScale
 70
     0
300
8:1
140
8.0
141
1.0
290
     0
  0
SCALE
  5
57
102
{ACAD_REACTORS
330
47
102
}
330
47
100
AcDbScale
 70
     0
300
10:1
140
10.0
141
1.0
290
     0
  0
SCALE
  5
58
102
{ACAD_REACTORS
330
47
102
}
330
47
100
AcDbScale
 70
     0
300
100:1
140
100.0
141
1.0
290
     0
  0
SCALE
  5
59
102
{ACAD_REACTORS
330
47
102
}
330
47
100
AcDbScale
 70
     0
300
1/128" = 1'-0"
140
0.0078125
141
12.0
290
     0
  0
SCALE
  5
5A
102
{ACAD_REACTORS
330
47
102
}
330
47
100
AcDbScale
 70
     0
300
1/64" = 1'-0"
140
0.015625
141
12.0
290
     0
  0
SCALE
  5
5B
102
{ACAD_REACTORS
330
47
102
}
330
47
100
AcDbScale
 70
     0
300
1/32" = 1'-0"
140
0.03125
141
12.0
290
     0
  0
SCALE
  5
5C
102
{ACAD_REACTORS
330
47
102
}
330
47
100
AcDbScale
 70
     0
300
1/16" = 1'-0"
140
0.0625
141
12.0
290
     0
  0
SCALE
  5
5D
102
{ACAD_REACTORS
330
47
102
}
330
47
100
AcDbScale
 70
     0
300
3/32" = 1'-0"
140
0.09375
141
12.0
290
     0
  0
SCALE
  5
5E
102
{ACAD_REACTORS
330
47
102
}
330
47
100
AcDbScale
 70
     0
300
1/8" = 1'-0"
140
0.125
141
12.0
290
     0
  0
SCALE
  5
5F
102
{ACAD_REACTORS
330
47
102
}
330
47
100
AcDbScale
 70
     0
300
3/16" = 1'-0"
140
0.1875
141
12.0
290
     0
  0
SCALE
  5
60
102
{ACAD_REACTORS
330
47
102
}
330
47
100
AcDbScale
 70
     0
300
1/4" = 1'-0"
140
0.25
141
12.0
290
     0
  0
SCALE
  5
61
102
{ACAD_REACTORS
330
47
102
}
330
47
100
AcDbScale
 70
     0
300
3/8" = 1'-0"
140
0.375
141
12.0
290
     0
  0
SCALE
  5
62
102
{ACAD_REACTORS
330
47
102
}
330
47
100
AcDbScale
 70
     0
300
1/2" = 1'-0"
140
0.5
141
12.0
290
     0
  0
SCALE
  5
63
102
{ACAD_REACTORS
330
47
102
}
330
47
100
AcDbScale
 70
     0
300
3/4" = 1'-0"
140
0.75
141
12.0
290
     0
  0
SCALE
  5
64
102
{ACAD_REACTORS
330
47
102
}
330
47
100
AcDbScale
 70
     0
300
1" = 1'-0"
140
1.0
141
12.0
290
     0
  0
SCALE
  5
65
102
{ACAD_REACTORS
330
47
102
}
330
47
100
AcDbScale
 70
     0
300
1-1/2" = 1'-0"
140
1.5
141
12.0
290
     0
  0
SCALE
  5
66
102
{ACAD_REACTORS
330
47
102
}
330
47
100
AcDbScale
 70
     0
300
3" = 1'-0"
140
3.0
141
12.0
290
     0
  0
SCALE
  5
67
102
{ACAD_REACTORS
330
47
102
}
330
47
100
AcDbScale
 70
     0
300
6" = 1'-0"
140
6.0
141
12.0
290
     0
  0
SCALE
  5
68
102
{ACAD_REACTORS
330
47
102
}
330
47
100
AcDbScale
 70
     0
300
1'-0" = 1'-0"
140
12.0
141
12.0
290
     0
  0
ENDSEC
  0
EOF
