  0
SECTION
  2
HEADER
  9
$ACADVER
  1
AC1015
  9
$ACADMAINTVER
 70
     6
  9
$DWGCODEPAGE
  3
ANSI_1252
  9
$INSBASE
 10
0.0
 20
0.0
 30
0.0
  9
$EXTMIN
 10
0.0
 20
0.0
 30
0.0
  9
$EXTMAX
 10
297.0
 20
210.0
 30
0.0
  9
$LIMMIN
 10
0.0
 20
0.0
  9
$LIMMAX
 10
297.0
 20
210.0
  9
$ORTHOMODE
 70
     0
  9
$REGENMODE
 70
     1
  9
$FILLMODE
 70
     1
  9
$QTEXTMODE
 70
     0
  9
$MIRRTEXT
 70
     1
  9
$LTSCALE
 40
1.0
  9
$ATTMODE
 70
     1
  9
$TEXTSIZE
 40
2.0
  9
$TRACEWID
 40
1.0
  9
$TEXTSTYLE
  7
Standard
  9
$CLAYER
  8
0
  9
$CELTYPE
  6
ByLayer
  9
$CECOLOR
 62
   256
  9
$CELTSCALE
 40
1.0
  9
$DISPSILH
 70
     0
  9
$DIMSCALE
 40
1.0
  9
$DIMASZ
 40
3.0
  9
$DIMEXO
 40
0.0
  9
$DIMDLI
 40
3.75
  9
$DIMRND
 40
0.0
  9
$DIMDLE
 40
0.0
  9
$DIMEXE
 40
1.0
  9
$DIMTP
 40
0.0
  9
$DIMTM
 40
0.0
  9
$DIMTXT
 40
2.0
  9
$DIMCEN
 40
2.5
  9
$DIMTSZ
 40
0.0
  9
$DIMTOL
 70
     0
  9
$DIMLIM
 70
     0
  9
$DIMTIH
 70
     1
  9
$DIMTOH
 70
     1
  9
$DIMSE1
 70
     0
  9
$DIMSE2
 70
     0
  9
$DIMTAD
 70
     1
  9
$DIMZIN
 70
     0
  9
$DIMBLK
  1

  9
$DIMASO
 70
     1
  9
$DIMSHO
 70
     1
  9
$DIMPOST
  1

  9
$DIMAPOST
  1

  9
$DIMALT
 70
     0
  9
$DIMALTD
 70
     3
  9
$DIMALTF
 40
0.0393700787
  9
$DIMLFAC
 40
1.0
  9
$DIMTOFL
 70
     1
  9
$DIMTVP
 40
0.0
  9
$DIMTIX
 70
     0
  9
$DIMSOXD
 70
     0
  9
$DIMSAH
 70
     0
  9
$DIMBLK1
  1

  9
$DIMBLK2
  1

  9
$DIMSTYLE
  2
ISO-25
  9
$DIMCLRD
 70
     0
  9
$DIMCLRE
 70
     0
  9
$DIMCLRT
 70
     0
  9
$DIMTFAC
 40
1.0
  9
$DIMGAP
 40
1.524
  9
$DIMJUST
 70
     0
  9
$DIMSD1
 70
     0
  9
$DIMSD2
 70
     0
  9
$DIMTOLJ
 70
     0
  9
$DIMTZIN
 70
     0
  9
$DIMALTZ
 70
     0
  9
$DIMALTTZ
 70
     0
  9
$DIMUPT
 70
     0
  9
$DIMDEC
 70
     2
  9
$DIMTDEC
 70
     3
  9
$DIMALTU
 70
     2
  9
$DIMALTTD
 70
     3
  9
$DIMTXSTY
  7
Standard
  9
$DIMAUNIT
 70
     0
  9
$DIMADEC
 70
     2
  9
$DIMALTRND
 40
0.0
  9
$DIMAZIN
 70
     0
  9
$DIMDSEP
 70
    44
  9
$DIMATFIT
 70
     3
  9
$DIMFRAC
 70
     0
  9
$DIMLDRBLK
  1

  9
$DIMLUNIT
 70
     2
  9
$DIMLWD
 70
    -2
  9
$DIMLWE
 70
    -2
  9
$DIMTMOVE
 70
     0
  9
$LUNITS
 70
     2
  9
$LUPREC
 70
     2
  9
$SKETCHINC
 40
1.0
  9
$FILLETRAD
 40
10.0
  9
$AUNITS
 70
     0
  9
$AUPREC
 70
     2
  9
$MENU
  1
.
  9
$ELEVATION
 40
0.0
  9
$PELEVATION
 40
0.0
  9
$THICKNESS
 40
0.0
  9
$LIMCHECK
 70
     0
  9
$CHAMFERA
 40
10.0
  9
$CHAMFERB
 40
10.0
  9
$CHAMFERC
 40
20.0
  9
$CHAMFERD
 40
0.0
  9
$SKPOLY
 70
     0
  9
$TDCREATE
 40
2456079.669045278
  9
$TDUCREATE
 40
2456079.585711944
  9
$TDUPDATE
 40
2456079.669046713
  9
$TDUUPDATE
 40
2456079.58571338
  9
$TDINDWG
 40
0.0000000116
  9
$TDUSRTIMER
 40
0.0000000116
  9
$USRTIMER
 70
     1
  9
$ANGBASE
 50
0.0
  9
$ANGDIR
 70
     0
  9
$PDMODE
 70
     0
  9
$PDSIZE
 40
-1.0
  9
$PLINEWID
 40
0.0
  9
$SPLFRAME
 70
     0
  9
$SPLINETYPE
 70
     6
  9
$SPLINESEGS
 70
     8
  9
$HANDSEED
  5
2B9
  9
$SURFTAB1
 70
     6
  9
$SURFTAB2
 70
     6
  9
$SURFTYPE
 70
     6
  9
$SURFU
 70
     6
  9
$SURFV
 70
     6
  9
$UCSBASE
  2

  9
$UCSNAME
  2

  9
$UCSORG
 10
0.0
 20
0.0
 30
0.0
  9
$UCSXDIR
 10
1.0
 20
0.0
 30
0.0
  9
$UCSYDIR
 10
0.0
 20
1.0
 30
0.0
  9
$UCSORTHOREF
  2

  9
$UCSORTHOVIEW
 70
     0
  9
$UCSORGTOP
 10
0.0
 20
0.0
 30
0.0
  9
$UCSORGBOTTOM
 10
0.0
 20
0.0
 30
0.0
  9
$UCSORGLEFT
 10
0.0
 20
0.0
 30
0.0
  9
$UCSORGRIGHT
 10
0.0
 20
0.0
 30
0.0
  9
$UCSORGFRONT
 10
0.0
 20
0.0
 30
0.0
  9
$UCSORGBACK
 10
0.0
 20
0.0
 30
0.0
  9
$PUCSBASE
  2

  9
$PUCSNAME
  2

  9
$PUCSORG
 10
0.0
 20
0.0
 30
0.0
  9
$PUCSXDIR
 10
1.0
 20
0.0
 30
0.0
  9
$PUCSYDIR
 10
0.0
 20
1.0
 30
0.0
  9
$PUCSORTHOREF
  2

  9
$PUCSORTHOVIEW
 70
     0
  9
$PUCSORGTOP
 10
0.0
 20
0.0
 30
0.0
  9
$PUCSORGBOTTOM
 10
0.0
 20
0.0
 30
0.0
  9
$PUCSORGLEFT
 10
0.0
 20
0.0
 30
0.0
  9
$PUCSORGRIGHT
 10
0.0
 20
0.0
 30
0.0
  9
$PUCSORGFRONT
 10
0.0
 20
0.0
 30
0.0
  9
$PUCSORGBACK
 10
0.0
 20
0.0
 30
0.0
  9
$USERI1
 70
     0
  9
$USERI2
 70
     0
  9
$USERI3
 70
     0
  9
$USERI4
 70
     0
  9
$USERI5
 70
     0
  9
$USERR1
 40
0.0
  9
$USERR2
 40
0.0
  9
$USERR3
 40
0.0
  9
$USERR4
 40
0.0
  9
$USERR5
 40
0.0
  9
$WORLDVIEW
 70
     1
  9
$SHADEDGE
 70
     3
  9
$SHADEDIF
 70
    70
  9
$TILEMODE
 70
     1
  9
$MAXACTVP
 70
    64
  9
$PINSBASE
 10
0.0
 20
0.0
 30
0.0
  9
$PLIMCHECK
 70
     0
  9
$PEXTMIN
 10
1.0000000000E+20
 20
1.0000000000E+20
 30
1.0000000000E+20
  9
$PEXTMAX
 10
-1.0000000000E+20
 20
-1.0000000000E+20
 30
-1.0000000000E+20
  9
$PLIMMIN
 10
0.0
 20
0.0
  9
$PLIMMAX
 10
420.0
 20
297.0
  9
$UNITMODE
 70
     0
  9
$VISRETAIN
 70
     1
  9
$PLINEGEN
 70
     0
  9
$PSLTSCALE
 70
     1
  9
$TREEDEPTH
 70
  3020
  9
$CMLSTYLE
  2
Standard
  9
$CMLJUST
 70
     0
  9
$CMLSCALE
 40
20.0
  9
$PROXYGRAPHICS
 70
     1
  9
$MEASUREMENT
 70
     1
  9
$CELWEIGHT
370
    -1
  9
$ENDCAPS
280
     0
  9
$JOINSTYLE
280
     0
  9
$LWDISPLAY
290
     1
  9
$INSUNITS
 70
     4
  9
$HYPERLINKBASE
  1

  9
$STYLESHEET
  1

  9
$XEDIT
290
     1
  9
$CEPSNTYPE
380
     0
  9
$PSTYLEMODE
290
     1
  9
$FINGERPRINTGUID
  2
{74BF8772-0F51-46B8-AE13-FC94D5C65A0F}
  9
$VERSIONGUID
  2
{FAEB1C32-E019-11D5-929B-00C0DF256EC4}
  9
$EXTNAMES
290
     1
  9
$PSVPSCALE
 40
0.0
  9
$OLESTARTUP
290
     0
  0
ENDSEC
  0
SECTION
  2
CLASSES
  0
CLASS
  1
ACDBDICTIONARYWDFLT
  2
AcDbDictionaryWithDefault
  3
ObjectDBX Classes
 90
        0
280
     0
281
     0
  0
CLASS
  1
VISUALSTYLE
  2
AcDbVisualStyle
  3
ObjectDBX Classes
 90
     4095
280
     0
281
     0
  0
CLASS
  1
MATERIAL
  2
AcDbMaterial
  3
ObjectDBX Classes
 90
     1153
280
     0
281
     0
  0
CLASS
  1
ACDBPLACEHOLDER
  2
AcDbPlaceHolder
  3
ObjectDBX Classes
 90
        0
280
     0
281
     0
  0
CLASS
  1
LAYOUT
  2
AcDbLayout
  3
ObjectDBX Classes
 90
        0
280
     0
281
     0
  0
ENDSEC
  0
SECTION
  2
TABLES
  0
TABLE
  2
VPORT
  5
8
330
0
100
AcDbSymbolTable
 70
     1
  0
VPORT
  5
29
330
8
100
AcDbSymbolTableRecord
100
AcDbViewportTableRecord
  2
*Active
 70
     0
 10
0.0
 20
0.0
 11
1.0
 21
1.0
 12
148.5
 22
105.0
 13
0.0
 23
0.0
 14
10.0
 24
10.0
 15
10.0
 25
10.0
 16
0.0
 26
0.0
 36
1.0
 17
0.0
 27
0.0
 37
0.0
 40
210.0
 41
1.4142857143
 42
50.0
 43
0.0
 44
0.0
 50
0.0
 51
0.0
 71
     0
 72
  2000
 73
     1
 74
     3
 75
     0
 76
     0
 77
     0
 78
     0
281
     0
 65
     1
110
0.0
120
0.0
130
0.0
111
1.0
121
0.0
131
0.0
112
0.0
122
1.0
132
0.0
 79
     0
146
0.0
  0
ENDTAB
  0
TABLE
  2
LTYPE
  5
5
330
0
100
AcDbSymbolTable
 70
     6
  0
LTYPE
  5
14
330
5
100
AcDbSymbolTableRecord
100
AcDbLinetypeTableRecord
  2
ByBlock
 70
     0
  3

 72
    65
 73
     0
 40
0.0
  0
LTYPE
  5
15
330
5
100
AcDbSymbolTableRecord
100
AcDbLinetypeTableRecord
  2
ByLayer
 70
     0
  3

 72
    65
 73
     0
 40
0.0
  0
LTYPE
  5
16
330
5
100
AcDbSymbolTableRecord
100
AcDbLinetypeTableRecord
  2
Continuous
 70
     0
  3
Solid line
 72
    65
 73
     0
 40
0.0
  0
LTYPE
  5
3F
330
5
100
AcDbSymbolTableRecord
100
AcDbLinetypeTableRecord
  2
HIDDEN
 70
     0
  3
Hidden __ __ __ __ __ __ __ __ __ __ __ __ __ __
 72
    65
 73
     2
 40
1.905
 49
1.27
 74
     0
 49
-0.635
 74
     0
  0
LTYPE
  5
40
330
5
100
AcDbSymbolTableRecord
100
AcDbLinetypeTableRecord
  2
PHANTOM
 70
     0
  3
Phantom ______  __  __  ______  __  __  ______
 72
    65
 73
     6
 40
12.7
 49
6.35
 74
     0
 49
-1.27
 74
     0
 49
1.27
 74
     0
 49
-1.27
 74
     0
 49
1.27
 74
     0
 49
-1.27
 74
     0
  0
LTYPE
  5
41
330
5
100
AcDbSymbolTableRecord
100
AcDbLinetypeTableRecord
  2
CENTER
 70
     0
  3
Center ____ _ ____ _ ____ _ ____ _ ____ _ ____
 72
    65
 73
     4
 40
10.16
 49
6.35
 74
     0
 49
-1.27
 74
     0
 49
1.27
 74
     0
 49
-1.27
 74
     0
  0
LTYPE
  5
42
330
5
100
AcDbSymbolTableRecord
100
AcDbLinetypeTableRecord
  2
CENTERX2
 70
     0
  3
Center (2x) ________  __  ________  __  _____
 72
    65
 73
     4
 40
20.32
 49
12.7
 74
     0
 49
-2.54
 74
     0
 49
2.54
 74
     0
 49
-2.54
 74
     0
  0
LTYPE
  5
43
330
5
100
AcDbSymbolTableRecord
100
AcDbLinetypeTableRecord
  2
DOT2
 70
     0
  3
Dot (.5x) ........................................
 72
    65
 73
     2
 40
0.635
 49
0.0
 74
     0
 49
-0.635
 74
     0
  0
ENDTAB
  0
TABLE
  2
LAYER
  5
2
330
0
100
AcDbSymbolTable
 70
     5
  0
LAYER
  5
10
330
2
100
AcDbSymbolTableRecord
100
AcDbLayerTableRecord
  2
0
 70
     0
 62
     7
  6
Continuous
370
    -3
390
F
  0
LAYER
  5
44
330
2
100
AcDbSymbolTableRecord
100
AcDbLayerTableRecord
  2
FORMAT
 70
     0
 62
     7
  6
Continuous
370
    -3
390
F
  0
LAYER
  5
45
330
2
100
AcDbSymbolTableRecord
100
AcDbLayerTableRecord
  2
VERMASSUNG
 70
     0
 62
     7
  6
Continuous
370
    -3
390
F
  0
LAYER
  5
46
330
2
100
AcDbSymbolTableRecord
100
AcDbLayerTableRecord
  2
KOPF_DÜNN
 70
     0
 62
     7
  6
Continuous
370
    -3
390
F
  0
LAYER
  5
47
330
2
100
AcDbSymbolTableRecord
100
AcDbLayerTableRecord
  2
KOPF_DICK
 70
     0
 62
     7
  6
Continuous
370
    15
390
F
  0
ENDTAB
  0
TABLE
  2
STYLE
  5
3
330
0
100
AcDbSymbolTable
 70
     3
  0
STYLE
  5
11
330
3
100
AcDbSymbolTableRecord
100
AcDbTextStyleTableRecord
  2
Standard
 70
     0
 40
0.0
 41
1.0
 50
0.0
 71
     0
 42
2.0
  3
txt
  4

  0
STYLE
  5
48
330
3
100
AcDbSymbolTableRecord
100
AcDbTextStyleTableRecord
  2
SLDTEXTSTYLE0
 70
     0
 40
0.0
 41
0.7
 50
0.0
 71
     0
 42
0.2
  3
TXT
  4

  0
STYLE
  5
4C
330
3
100
AcDbSymbolTableRecord
100
AcDbTextStyleTableRecord
  2
SLDTEXTSTYLE1
 70
     0
 40
0.0
 41
0.6466666667
 50
0.0
 71
     0
 42
0.2
  3
TXT
  4

  0
ENDTAB
  0
TABLE
  2
VIEW
  5
6
330
0
100
AcDbSymbolTable
 70
     0
  0
ENDTAB
  0
TABLE
  2
UCS
  5
7
330
0
100
AcDbSymbolTable
 70
     0
  0
ENDTAB
  0
TABLE
  2
APPID
  5
9
330
0
100
AcDbSymbolTable
 70
     1
  0
APPID
  5
12
330
9
100
AcDbSymbolTableRecord
100
AcDbRegAppTableRecord
  2
ACAD
 70
     0
  0
ENDTAB
  0
TABLE
  2
DIMSTYLE
  5
A
330
0
100
AcDbSymbolTable
 70
     2
100
AcDbDimStyleTable
  0
DIMSTYLE
105
27
330
A
100
AcDbSymbolTableRecord
100
AcDbDimStyleTableRecord
  2
ISO-25
 70
     0
 41
2.5
 42
0.625
 43
3.75
 44
1.25
 73
     0
 74
     0
 77
     1
 78
     8
140
2.5
141
2.5
143
0.0393700787
147
0.625
171
     3
172
     1
178
     0
271
     2
272
     2
274
     3
278
    44
283
     0
284
     8
340
11
  0
DIMSTYLE
105
180
102
{ACAD_REACTORS
330
17F
330
2A4
330
2AE
102
}
330
A
100
AcDbSymbolTableRecord
100
AcDbDimStyleTableRecord
  2
SLDDIMSTYLE0
 70
     0
 41
3.0
 44
0.0
 45
0.000000001
 73
     0
 74
     0
 77
     1
 78
    12
 79
     3
140
2.0
147
0.5
173
     1
178
     0
271
     2
272
     3
276
     2
284
    12
340
48
  0
ENDTAB
  0
TABLE
  2
BLOCK_RECORD
  5
1
330
0
100
AcDbSymbolTable
 70
     4
  0
BLOCK_RECORD
  5
1F
330
1
100
AcDbSymbolTableRecord
100
AcDbBlockTableRecord
  2
*Model_Space
340
22
  0
BLOCK_RECORD
  5
1B
330
1
100
AcDbSymbolTableRecord
100
AcDbBlockTableRecord
  2
*Paper_Space
340
1E
  0
BLOCK_RECORD
  5
23
330
1
100
AcDbSymbolTableRecord
100
AcDbBlockTableRecord
  2
*Paper_Space0
340
26
  0
BLOCK_RECORD
  5
181
330
1
100
AcDbSymbolTableRecord
100
AcDbBlockTableRecord
  2
_D
340
0
  0
BLOCK_RECORD
  5
2A5
330
1
100
AcDbSymbolTableRecord
100
AcDbBlockTableRecord
  2
_D_1
340
0
  0
BLOCK_RECORD
  5
2AF
330
1
100
AcDbSymbolTableRecord
100
AcDbBlockTableRecord
  2
_D_2
340
0
  0
ENDTAB
  0
ENDSEC
  0
SECTION
  2
BLOCKS
  0
BLOCK
  5
20
330
1F
100
AcDbEntity
  8
0
100
AcDbBlockBegin
  2
*Model_Space
 70
     0
 10
0.0
 20
0.0
 30
0.0
  3
*Model_Space
  1

  0
ENDBLK
  5
21
330
1F
100
AcDbEntity
  8
0
100
AcDbBlockEnd
  0
BLOCK
  5
1C
330
1B
100
AcDbEntity
 67
     1
  8
0
100
AcDbBlockBegin
  2
*Paper_Space
 70
     0
 10
0.0
 20
0.0
 30
0.0
  3
*Paper_Space
  1

  0
ENDBLK
  5
1D
330
1B
100
AcDbEntity
 67
     1
  8
0
100
AcDbBlockEnd
  0
BLOCK
  5
24
330
23
100
AcDbEntity
  8
0
100
AcDbBlockBegin
  2
*Paper_Space0
 70
     0
 10
0.0
 20
0.0
 30
0.0
  3
*Paper_Space0
  1

  0
ENDBLK
  5
25
330
23
100
AcDbEntity
  8
0
100
AcDbBlockEnd
  0
BLOCK
  5
182
330
181
100
AcDbEntity
  8
0
100
AcDbBlockBegin
  2
_D
 70
     0
 10
0.0
 20
0.0
 30
0.0
  3
_D
  1

  0
SOLID
  5
184
330
181
100
AcDbEntity
  8
VERMASSUNG
100
AcDbTrace
 10
82.0469566896
 20
96.4549223159
 30
0.0
 11
81.5969566896
 21
93.4549223159
 31
0.0
 12
82.4969566896
 22
93.4549223159
 32
0.0
 13
82.4969566896
 23
93.4549223159
 33
0.0
  0
SOLID
  5
185
330
181
100
AcDbEntity
  8
VERMASSUNG
100
AcDbTrace
 10
82.0469566896
 20
33.4549223159
 30
0.0
 11
82.4969566896
 21
36.4549223159
 31
0.0
 12
81.5969566896
 22
36.4549223159
 32
0.0
 13
81.5969566896
 23
36.4549223159
 33
0.0
  0
LINE
  5
186
330
181
100
AcDbEntity
  8
VERMASSUNG
100
AcDbLine
 10
126.1021943516
 20
96.4549223159
 30
0.0
 11
81.0469566896
 21
96.4549223159
 31
0.0
  0
LINE
  5
187
330
181
100
AcDbEntity
  8
VERMASSUNG
100
AcDbLine
 10
126.1021943516
 20
33.4549223159
 30
0.0
 11
81.0469566896
 21
33.4549223159
 31
0.0
  0
LINE
  5
188
330
181
100
AcDbEntity
  8
VERMASSUNG
100
AcDbLine
 10
82.0469566896
 20
96.4549223159
 30
0.0
 11
82.0469566896
 21
33.4549223159
 31
0.0
  0
MTEXT
  5
189
330
181
100
AcDbEntity
  8
VERMASSUNG
100
AcDbMText
 10
79.46882121
 20
60.8499224905
 30
0.1
 40
2.0
 41
0.0
 71
     1
 72
     1
  1
%%c
  7
SLDTEXTSTYLE0
 11
-7.044195017643634E-15
 21
1.0
 31
0.0
 73
     1
 44
1.0
  0
MTEXT
  5
18A
330
181
100
AcDbEntity
  8
VERMASSUNG
100
AcDbMText
 10
79.2688212005
 20
64.4599225048
 30
0.1
 40
2.0
 41
0.0
 71
     1
 72
     1
  1
63
  7
SLDTEXTSTYLE0
 11
-7.044195017643634E-15
 21
1.0
 31
0.0
 73
     1
 44
1.0
  0
ENDBLK
  5
183
330
181
100
AcDbEntity
  8
0
100
AcDbBlockEnd
  0
BLOCK
  5
2A6
330
2A5
100
AcDbEntity
  8
0
100
AcDbBlockBegin
  2
_D_1
 70
     0
 10
0.0
 20
0.0
 30
0.0
  3
_D_1
  1

  0
SOLID
  5
2A8
330
2A5
100
AcDbEntity
  8
VERMASSUNG
100
AcDbTrace
 10
125.6021943516
 20
187.5250469253
 30
0.0
 11
128.6021943516
 21
187.0750469253
 31
0.0
 12
128.6021943516
 22
187.9750469253
 32
0.0
 13
128.6021943516
 23
187.9750469253
 33
0.0
  0
SOLID
  5
2A9
330
2A5
100
AcDbEntity
  8
VERMASSUNG
100
AcDbTrace
 10
255.6021943516
 20
187.5250469253
 30
0.0
 11
252.6021943516
 21
187.9750469253
 31
0.0
 12
252.6021943516
 22
187.0750469253
 32
0.0
 13
252.6021943516
 23
187.0750469253
 33
0.0
  0
LINE
  5
2AA
330
2A5
100
AcDbEntity
  8
VERMASSUNG
100
AcDbLine
 10
125.6021943516
 20
177.0250469253
 30
0.0
 11
125.6021943516
 21
188.5250469253
 31
0.0
  0
LINE
  5
2AB
330
2A5
100
AcDbEntity
  8
VERMASSUNG
100
AcDbLine
 10
255.6021943516
 20
170.8083947107
 30
0.0
 11
255.6021943516
 21
188.5250469253
 31
0.0
  0
LINE
  5
2AC
330
2A5
100
AcDbEntity
  8
VERMASSUNG
100
AcDbLine
 10
125.6021943516
 20
187.5250469253
 30
0.0
 11
255.6021943516
 21
187.5250469253
 31
0.0
  0
MTEXT
  5
2AD
330
2A5
100
AcDbEntity
  8
VERMASSUNG
100
AcDbMText
 10
187.8021942186
 20
190.1031822884
 30
0.1
 40
2.0
 41
0.0
 71
     1
 72
     1
  1
130
  7
SLDTEXTSTYLE0
 73
     1
 44
1.0
  0
ENDBLK
  5
2A7
330
2A5
100
AcDbEntity
  8
0
100
AcDbBlockEnd
  0
BLOCK
  5
2B0
330
2AF
100
AcDbEntity
  8
0
100
AcDbBlockBegin
  2
_D_2
 70
     0
 10
0.0
 20
0.0
 30
0.0
  3
_D_2
  1

  0
SOLID
  5
2B2
330
2AF
100
AcDbEntity
  8
VERMASSUNG
100
AcDbTrace
 10
87.6021943516
 20
193.5250469253
 30
0.0
 11
90.6021943516
 21
193.0750469253
 31
0.0
 12
90.6021943516
 22
193.9750469253
 32
0.0
 13
90.6021943516
 23
193.9750469253
 33
0.0
  0
SOLID
  5
2B3
330
2AF
100
AcDbEntity
  8
VERMASSUNG
100
AcDbTrace
 10
255.6021943516
 20
193.5250469253
 30
0.0
 11
252.6021943516
 21
193.9750469253
 31
0.0
 12
252.6021943516
 22
193.0750469253
 32
0.0
 13
252.6021943516
 23
193.0750469253
 33
0.0
  0
LINE
  5
2B4
330
2AF
100
AcDbEntity
  8
VERMASSUNG
100
AcDbLine
 10
87.6021943516
 20
166.2111626942
 30
0.0
 11
87.6021943516
 21
194.5250469253
 31
0.0
  0
LINE
  5
2B5
330
2AF
100
AcDbEntity
  8
VERMASSUNG
100
AcDbLine
 10
255.6021943516
 20
170.8083947107
 30
0.0
 11
255.6021943516
 21
194.5250469253
 31
0.0
  0
LINE
  5
2B6
330
2AF
100
AcDbEntity
  8
VERMASSUNG
100
AcDbLine
 10
87.6021943516
 20
193.5250469253
 30
0.0
 11
255.6021943516
 21
193.5250469253
 31
0.0
  0
MTEXT
  5
2B7
330
2AF
100
AcDbEntity
  8
VERMASSUNG
100
AcDbMText
 10
168.8021942186
 20
196.1031822884
 30
0.1
 40
2.0
 41
0.0
 71
     1
 72
     1
  1
168
  7
SLDTEXTSTYLE0
 73
     1
 44
1.0
  0
ENDBLK
  5
2B1
330
2AF
100
AcDbEntity
  8
0
100
AcDbBlockEnd
  0
ENDSEC
  0
SECTION
  2
ENTITIES
  0
MTEXT
  5
49
330
1F
100
AcDbEntity
  8
KOPF_DÜNN
100
AcDbMText
 10
13.8892156294
 20
23.8442973028
 30
0.0
 40
3.0
 41
0.0
 71
     1
 72
     1
  1
PS6.KDB.NNA.130
  7
SLDTEXTSTYLE0
 73
     1
 44
1.0
  0
MTEXT
  5
4A
330
1F
100
AcDbEntity
  8
VERMASSUNG
100
AcDbMText
 10
13.9329988022
 20
28.8834360957
 30
0.0
 40
3.0
 41
0.0
 71
     1
 72
     1
  1
Klemmhalter_Turning tool neutral
  7
SLDTEXTSTYLE0
 73
     1
 44
1.0
  0
MTEXT
  5
4B
330
1F
100
AcDbEntity
  8
VERMASSUNG
100
AcDbMText
 10
98.8601118557
 20
13.8365368179
 30
0.0
 40
2.0
 41
0.0
 71
     1
 72
     1
  1
Datum: 31.05.2012
  7
SLDTEXTSTYLE0
 73
     1
 44
1.0
  0
MTEXT
  5
4D
330
1F
100
AcDbEntity
  8
VERMASSUNG
100
AcDbMText
 10
13.933048693
 20
18.0482802738
 30
0.0
 40
2.0
 41
0.0
 71
     1
 72
     1
  1
PSC ø63 / DC.. 11 T3 .. / 62.5° / 55° / 62.5°
  7
SLDTEXTSTYLE1
 73
     1
 44
1.0
  0
MTEXT
  5
4E
330
1F
100
AcDbEntity
  8
VERMASSUNG
100
AcDbMText
 10
13.9808475933
 20
13.9090973692
 30
0.0
 40
2.0
 41
0.0
 71
     1
 72
     1
  1
Gewicht: 2353g
  7
SLDTEXTSTYLE0
 73
     1
 44
1.0
  0
LINE
  5
4F
330
1F
100
AcDbEntity
  8
0
  6
Continuous
 62
     7
370
    15
100
AcDbLine
 10
194.907825409
 20
96.4549223159
 30
0.0
 11
126.1021943516
 21
96.4549223159
 31
0.0
  0
LINE
  5
50
330
1F
100
AcDbEntity
  8
0
  6
Continuous
 62
     7
370
    15
100
AcDbLine
 10
126.1021943516
 20
33.4549223159
 30
0.0
 11
194.907825409
 21
33.4549223159
 31
0.0
  0
ARC
  5
51
330
1F
100
AcDbEntity
  8
0
  6
Continuous
 62
     7
370
    15
100
AcDbCircle
 10
126.1021943516
 20
33.9549223159
 30
0.0
 40
0.5
100
AcDbArc
 50
180.0
 51
270.0
  0
ARC
  5
52
330
1F
100
AcDbEntity
  8
0
  6
Continuous
 62
     7
370
    15
100
AcDbCircle
 10
126.1021943516
 20
95.9549223159
 30
0.0
 40
0.5
100
AcDbArc
 50
90.0
 51
180.0
  0
LWPOLYLINE
  5
53
330
1F
100
AcDbEntity
  8
0
  6
Continuous
 62
     7
370
    15
100
AcDbPolyline
 90
        3
 70
   128
 43
0.0
 10
125.4021943516
 20
42.415102037
 10
125.5276492951
 20
42.346799922
 10
125.6021943516
 20
42.2940621639
  0
LWPOLYLINE
  5
54
330
1F
100
AcDbEntity
  8
0
  6
Continuous
 62
     7
370
    15
100
AcDbPolyline
 90
        3
 70
   128
 43
0.0
 10
125.6021943516
 20
87.6157824678
 10
125.5276492951
 20
87.5630447097
 10
125.4021943516
 20
87.4947425947
  0
SPLINE
  5
55
330
1F
100
AcDbEntity
  8
0
  6
Continuous
 62
     7
370
    15
100
AcDbSpline
210
0.0
220
0.0
230
1.0
 70
     8
 71
     3
 72
    12
 73
     8
 74
     0
 42
0.00000001
 43
0.00000001
 12
1.0
 22
0.0
 32
0.0
 13
1.0
 23
0.0
 33
0.0
 40
0.0
 40
0.0
 40
0.0
 40
0.0
 40
0.4999999999999982
 40
0.4999999999999982
 40
0.7499999999999991
 40
0.7499999999999991
 40
1.0
 40
1.0
 40
1.0
 40
1.0
 10
135.6969384632735
 20
74.86429163654944
 30
0.0
 10
135.7276607051926
 20
74.75173583714026
 30
0.0
 10
135.7704979197277
 20
74.63897797740067
 30
0.0
 10
135.8699249439275
 20
74.4894370916043
 30
0.0
 10
135.9096771387442
 20
74.44214435989744
 30
0.0
 10
136.0077185956024
 20
74.36840806657601
 30
0.0
 10
136.0672746511899
 20
74.3429887472003
 30
0.0
 10
136.1299511651657
 20
74.3429887472003
 30
0.0
  0
LINE
  5
56
330
1F
100
AcDbEntity
  8
0
  6
Continuous
 62
     7
370
    15
100
AcDbLine
 10
136.1299511652
 20
74.3429887472
 30
0.0
 11
139.074437538
 21
74.3429887472
 31
0.0
  0
SPLINE
  5
57
330
1F
100
AcDbEntity
  8
0
  6
Continuous
 62
     7
370
    15
100
AcDbSpline
210
0.0
220
0.0
230
1.0
 70
     8
 71
     3
 72
    12
 73
     8
 74
     0
 42
0.00000001
 43
0.00000001
 12
1.0
 22
0.0
 32
0.0
 13
1.0
 23
0.0
 33
0.0
 40
0.0
 40
0.0
 40
0.0
 40
0.0
 40
0.2500000000000023
 40
0.2500000000000023
 40
0.5000000000000047
 40
0.5000000000000047
 40
1.0
 40
1.0
 40
1.0
 40
1.0
 10
139.0744375380328
 20
74.34298874720028
 30
0.0
 10
139.1375175765262
 20
74.34298874720028
 30
0.0
 10
139.1966661987076
 20
74.36835306641524
 30
0.0
 10
139.2951387487767
 20
74.44251792678814
 30
0.0
 10
139.3341753607614
 20
74.48903826734228
 30
0.0
 10
139.4340718275405
 20
74.63918061018752
 30
0.0
 10
139.4764927086071
 20
74.75087381715967
 30
0.0
 10
139.507450239925
 20
74.86429163654942
 30
0.0
  0
ELLIPSE
  5
58
330
1F
100
AcDbEntity
  8
0
  6
Continuous
 62
     7
370
    15
100
AcDbEllipse
 10
123.2550401622
 20
64.9549223159
 30
0.0
 11
14.75368316065604
 21
31.09325491558115
 31
0.0
210
0.0
220
0.0
230
1.0
 40
0.3419987131
 41
5.193281737408618
 42
6.124043104552324
  0
SPLINE
  5
59
330
1F
100
AcDbEntity
  8
0
  6
Continuous
 62
     7
370
    15
100
AcDbSpline
210
0.0
220
0.0
230
1.0
 70
     8
 71
     3
 72
    12
 73
     8
 74
     0
 42
0.00000001
 43
0.00000001
 12
1.0
 22
0.0
 32
0.0
 13
1.0
 23
0.0
 33
0.0
 40
0.0
 40
0.0
 40
0.0
 40
0.0
 40
0.5000000000000037
 40
0.5000000000000037
 40
0.7500000000000018
 40
0.7500000000000018
 40
1.0
 40
1.0
 40
1.0
 40
1.0
 10
139.507450239925
 20
94.85566477598158
 30
0.0
 10
139.4767279980059
 20
94.8929667589346
 30
0.0
 10
139.4338907834708
 20
94.92957859098101
 30
0.0
 10
139.334463759271
 20
94.97734337426623
 30
0.0
 10
139.2947115644543
 20
94.99230088974858
 30
0.0
 10
139.1966701075961
 20
95.01549083551772
 30
0.0
 10
139.1371140520087
 20
95.02341427473743
 30
0.0
 10
139.0744375380328
 20
95.02341427473743
 30
0.0
  0
LINE
  5
5A
330
1F
100
AcDbEntity
  8
0
  6
Continuous
 62
     7
370
    15
100
AcDbLine
 10
139.074437538
 20
95.0234142747
 30
0.0
 11
136.1299511652
 21
95.0234142747
 31
0.0
  0
SPLINE
  5
5B
330
1F
100
AcDbEntity
  8
0
  6
Continuous
 62
     7
370
    15
100
AcDbSpline
210
0.0
220
0.0
230
1.0
 70
     8
 71
     3
 72
    12
 73
     8
 74
     0
 42
0.00000001
 43
0.00000001
 12
1.0
 22
0.0
 32
0.0
 13
1.0
 23
0.0
 33
0.0
 40
0.0
 40
0.0
 40
0.0
 40
0.0
 40
0.2500000000000009
 40
0.2500000000000009
 40
0.5000000000000018
 40
0.5000000000000018
 40
1.0
 40
1.0
 40
1.0
 40
1.0
 10
136.1299511651657
 20
95.02341427473743
 30
0.0
 10
136.0668711266724
 20
95.02341427473743
 30
0.0
 10
136.0077225044909
 20
95.015508348525
 30
0.0
 10
135.9092499544219
 20
94.99218318708877
 30
0.0
 10
135.8702133424372
 20
94.97747039725705
 30
0.0
 10
135.7703168756581
 20
94.92951459652613
 30
0.0
 10
135.7278959945915
 20
94.8932524399461
 30
0.0
 10
135.6969384632735
 20
94.85566477598158
 30
0.0
  0
ELLIPSE
  5
5C
330
1F
100
AcDbEntity
  8
0
  6
Continuous
 62
     7
370
    15
100
AcDbEllipse
 10
151.949348541
 20
64.9549223159
 30
0.0
 11
-14.75368316065606
 21
31.09325491558114
 31
0.0
210
0.0
220
0.0
230
1.0
 40
0.3419987131
 41
0.1591422026273028
 42
1.089903569770979
  0
SPLINE
  5
5D
330
1F
100
AcDbEntity
  8
0
  6
Continuous
 62
     7
370
    15
100
AcDbSpline
210
0.0
220
0.0
230
1.0
 70
     8
 71
     3
 72
    12
 73
     8
 74
     0
 42
0.00000001
 43
0.00000001
 12
1.0
 22
0.0
 32
0.0
 13
1.0
 23
0.0
 33
0.0
 40
0.0
 40
0.0
 40
0.0
 40
0.0
 40
0.4999999999999972
 40
0.4999999999999972
 40
0.7499999999999986
 40
0.7499999999999986
 40
1.0
 40
1.0
 40
1.0
 40
1.0
 10
135.6969384632735
 20
35.05417985574715
 30
0.0
 10
135.7280836612356
 20
35.01636433282695
 30
0.0
 10
135.77035792757
 20
34.98029747474334
 30
0.0
 10
135.8703034613953
 20
34.93233740973208
 30
0.0
 10
135.9100337660994
 20
34.91747643583442
 30
0.0
 10
136.0069218161056
 20
34.89452528970328
 30
0.0
 10
136.0669870578522
 20
34.88643035699124
 30
0.0
 10
136.1299511651657
 20
34.88643035699124
 30
0.0
  0
LINE
  5
5E
330
1F
100
AcDbEntity
  8
0
  6
Continuous
 62
     7
370
    15
100
AcDbLine
 10
136.1299511652
 20
34.886430357
 30
0.0
 11
139.074437538
 21
34.886430357
 31
0.0
  0
SPLINE
  5
5F
330
1F
100
AcDbEntity
  8
0
  6
Continuous
 62
     7
370
    15
100
AcDbSpline
210
0.0
220
0.0
230
1.0
 70
     8
 71
     3
 72
    12
 73
     8
 74
     0
 42
0.00000001
 43
0.00000001
 12
1.0
 22
0.0
 32
0.0
 13
1.0
 23
0.0
 33
0.0
 40
0.0
 40
0.0
 40
0.0
 40
0.0
 40
0.2500000000000001
 40
0.2500000000000001
 40
0.5000000000000001
 40
0.5000000000000001
 40
1.0
 40
1.0
 40
1.0
 40
1.0
 10
139.0744375380328
 20
34.88643035699129
 30
0.0
 10
139.1374944929306
 20
34.88643035699129
 30
0.0
 10
139.1966246426762
 20
34.89433068807085
 30
0.0
 10
139.2950721932095
 20
34.91764143607588
 30
0.0
 10
139.3341044313976
 20
34.93234656235952
 30
0.0
 10
139.4339943158546
 20
34.98028009054616
 30
0.0
 10
139.4762932894639
 20
35.01635006331092
 30
0.0
 10
139.5074502399251
 20
35.05417985574714
 30
0.0
  0
ELLIPSE
  5
60
330
1F
100
AcDbEntity
  8
0
  6
Continuous
 62
     7
370
    15
100
AcDbEllipse
 10
123.2550401622
 20
64.9549223159
 30
0.0
 11
-14.75368316065619
 21
31.09325491558115
 31
0.0
210
0.0
220
0.0
230
1.0
 40
0.3419987131
 41
3.30073485621712
 42
4.231496223360772
  0
SPLINE
  5
61
330
1F
100
AcDbEntity
  8
0
  6
Continuous
 62
     7
370
    15
100
AcDbSpline
210
0.0
220
0.0
230
1.0
 70
     8
 71
     3
 72
    12
 73
     8
 74
     0
 42
0.00000001
 43
0.00000001
 12
1.0
 22
0.0
 32
0.0
 13
1.0
 23
0.0
 33
0.0
 40
0.0
 40
0.0
 40
0.0
 40
0.0
 40
0.5000000000000029
 40
0.5000000000000029
 40
0.7500000000000014
 40
0.7500000000000014
 40
1.0
 40
1.0
 40
1.0
 40
1.0
 10
139.507450239925
 20
55.04555299517902
 30
0.0
 10
139.4763050419629
 20
55.15965836104432
 30
0.0
 10
139.4340307756285
 20
55.27076468826309
 30
0.0
 10
139.3340852418032
 20
55.42092229569338
 30
0.0
 10
139.2943549370991
 20
55.46791498731073
 30
0.0
 10
139.197466887093
 20
55.54089057184923
 30
0.0
 10
139.1374016453464
 20
55.56685588452824
 30
0.0
 10
139.0744375380328
 20
55.56685588452824
 30
0.0
  0
LINE
  5
62
330
1F
100
AcDbEntity
  8
0
  6
Continuous
 62
     7
370
    15
100
AcDbLine
 10
139.074437538
 20
55.5668558845
 30
0.0
 11
136.1299511652
 21
55.5668558845
 31
0.0
  0
SPLINE
  5
63
330
1F
100
AcDbEntity
  8
0
  6
Continuous
 62
     7
370
    15
100
AcDbSpline
210
0.0
220
0.0
230
1.0
 70
     8
 71
     3
 72
    12
 73
     8
 74
     0
 42
0.00000001
 43
0.00000001
 12
1.0
 22
0.0
 32
0.0
 13
1.0
 23
0.0
 33
0.0
 40
0.0
 40
0.0
 40
0.0
 40
0.0
 40
0.25
 40
0.25
 40
0.5
 40
0.5
 40
1.0
 40
1.0
 40
1.0
 40
1.0
 10
136.1299511651657
 20
55.56685588452815
 30
0.0
 10
136.0668942102679
 20
55.56685588452815
 30
0.0
 10
136.0077640605223
 20
55.54150953114745
 30
0.0
 10
135.9093165099891
 20
55.46739014900795
 30
0.0
 10
135.870284271801
 20
55.42089363430995
 30
0.0
 10
135.770394387344
 20
55.27081912730137
 30
0.0
 10
135.7280954137347
 20
55.15970141818652
 30
0.0
 10
135.6969384632734
 20
55.04555299517904
 30
0.0
  0
ELLIPSE
  5
64
330
1F
100
AcDbEntity
  8
0
  6
Continuous
 62
     7
370
    15
100
AcDbEllipse
 10
151.949348541
 20
64.9549223159
 30
0.0
 11
14.75368316065618
 21
31.09325491558114
 31
0.0
210
0.0
220
0.0
230
1.0
 40
0.3419987131
 41
2.051689083818826
 42
2.9824504509625
  0
ELLIPSE
  5
65
330
1F
100
AcDbEntity
  8
0
  6
Continuous
 62
     7
370
    15
100
AcDbEllipse
 10
207.5218095939
 20
64.9549223159
 30
0.0
 11
0.0
 21
31.49999999999998
 31
0.0
210
0.0
220
0.0
230
1.0
 40
0.2679491924
 41
0.432343115234273
 42
2.70924953835552
  0
ELLIPSE
  5
66
330
1F
100
AcDbEntity
  8
0
  6
Continuous
 62
     7
370
    15
100
AcDbEllipse
 10
255.4187624086
 20
64.9549223159
 30
0.0
 11
61.06272678867805
 21
31.3136530307888
 31
0.0
210
0.0
220
0.0
230
1.0
 40
0.0560288874
 41
3.250419293298576
 42
3.682762408532783
  0
ELLIPSE
  5
67
330
1F
100
AcDbEntity
  8
0
  6
Continuous
 62
     7
370
    15
100
AcDbEllipse
 10
255.4187624086
 20
64.9549223159
 30
0.0
 11
61.06272678867805
 21
-31.31365303078882
 31
0.0
210
0.0
220
0.0
230
1.0
 40
0.0560288874
 41
2.60042289864699
 42
3.032766013881264
  0
SPLINE
  5
68
330
1F
100
AcDbEntity
  8
0
  6
Continuous
 62
     7
370
    15
100
AcDbSpline
210
0.0
220
0.0
230
1.0
 70
     8
 71
     3
 72
    68
 73
    64
 74
     0
 42
0.00000001
 43
0.00000001
 12
1.0
 22
0.0
 32
0.0
 13
1.0
 23
0.0
 33
0.0
 40
-0.0624999999999998
 40
-0.0624999999999998
 40
0.0
 40
0.0
 40
0.03125
 40
0.03125
 40
0.0625
 40
0.0625
 40
0.09375
 40
0.09375
 40
0.125
 40
0.125
 40
0.15625
 40
0.15625
 40
0.1875
 40
0.1875
 40
0.21875
 40
0.21875
 40
0.25
 40
0.25
 40
0.2812499999999999
 40
0.2812499999999999
 40
0.3124999999999999
 40
0.3124999999999999
 40
0.34375
 40
0.34375
 40
0.375
 40
0.375
 40
0.40625
 40
0.40625
 40
0.4375
 40
0.4375
 40
0.4687500000000001
 40
0.4687500000000001
 40
0.5
 40
0.5
 40
0.53125
 40
0.53125
 40
0.5625
 40
0.5625
 40
0.59375
 40
0.59375
 40
0.625
 40
0.625
 40
0.6562500000000001
 40
0.6562500000000001
 40
0.6875000000000001
 40
0.6875000000000001
 40
0.7187500000000001
 40
0.7187500000000001
 40
0.7500000000000001
 40
0.7500000000000001
 40
0.7812500000000001
 40
0.7812500000000001
 40
0.8125000000000001
 40
0.8125000000000001
 40
0.8437500000000001
 40
0.8437500000000001
 40
0.8750000000000001
 40
0.8750000000000001
 40
0.9062500000000002
 40
0.9062500000000002
 40
0.9375000000000002
 40
0.9375000000000002
 40
1.0
 40
1.0
 40
1.03125
 40
1.03125
 10
189.6021943515993
 20
64.55829286293445
 30
0.0
 10
189.6021943515993
 20
65.15323704232942
 30
0.0
 10
189.6216650246996
 20
65.34821542313207
 30
0.0
 10
189.6979340508199
 20
65.73177921520298
 30
0.0
 10
189.7556661578342
 20
65.922360428756
 30
0.0
 10
189.9062850688127
 20
66.28561100942122
 30
0.0
 10
189.998438533123
 20
66.45787828025838
 30
0.0
 10
190.2161390413828
 20
66.78390045945835
 30
0.0
 10
190.3427794425182
 20
66.93817607605521
 30
0.0
 10
190.6193981487072
 20
67.21473877444812
 30
0.0
 10
190.7703530657147
 20
67.33888115470648
 30
0.0
 10
191.0982410939432
 20
67.558194649054
 30
0.0
 10
191.272690063157
 20
67.65132460403876
 30
0.0
 10
191.6336216659053
 20
67.8009781665437
 30
0.0
 10
191.8227734039145
 20
67.8586248888092
 30
0.0
 10
192.2100680891723
 20
67.93573137384364
 30
0.0
 10
192.4047896337216
 20
67.95481513671832
 30
0.0
 10
192.7963278712364
 20
67.95502860328233
 30
0.0
 10
192.9951942678137
 20
67.93553337642699
 30
0.0
 10
193.3800344790398
 20
67.85896363179569
 30
0.0
 10
193.5670937303863
 20
67.80231054036904
 30
0.0
 10
193.9304384475415
 20
67.65203524153618
 30
0.0
 10
194.1059816705616
 20
67.55815225955125
 30
0.0
 10
194.4309630968008
 20
67.34108813511375
 30
0.0
 10
194.5824759953532
 20
67.21715730600305
 30
0.0
 10
194.8626800934635
 20
66.93720048757108
 30
0.0
 10
194.98678419344
 20
66.78574180229285
 30
0.0
 10
195.2040925121995
 20
66.46100819242031
 30
0.0
 10
195.2980905130839
 20
66.28564299334957
 30
0.0
 10
195.4487371841559
 20
65.92232478506466
 30
0.0
 10
195.5055392142752
 20
65.7353327117963
 30
0.0
 10
195.5824232169179
 20
65.35076027264228
 30
0.0
 10
195.6021224392231
 20
65.15185257236033
 30
0.0
 10
195.6022658616943
 20
64.76018918783036
 30
0.0
 10
195.5833470026978
 20
64.56548124119936
 30
0.0
 10
195.5066550009601
 20
64.17836335731536
 30
0.0
 10
195.4491168333068
 20
63.98889222669557
 30
0.0
 10
195.2997523449557
 20
63.62775894140357
 30
0.0
 10
195.2068399594206
 20
63.45333943061499
 30
0.0
 10
194.9877398315688
 20
63.12514017948488
 30
0.0
 10
194.8637064724026
 20
62.97406182245102
 30
0.0
 10
194.5874031272128
 20
62.697226259232
 30
0.0
 10
194.4332547857151
 20
62.57046305864444
 30
0.0
 10
194.1073905470865
 20
62.35245950617487
 30
0.0
 10
193.9352294770955
 20
62.26017886414256
 30
0.0
 10
193.5722760004488
 20
62.109299974272
 30
0.0
 10
193.3816343172297
 20
62.05135372284298
 30
0.0
 10
192.9981248119232
 20
61.97474173325032
 30
0.0
 10
192.8032317600313
 20
61.95511370833069
 30
0.0
 10
192.4069102475315
 20
61.95473368177473
 30
0.0
 10
192.2115474081226
 20
61.97404603690945
 30
0.0
 10
191.8279463310141
 20
62.04996647669854
 30
0.0
 10
191.6374540389783
 20
62.10747202141638
 30
0.0
 10
191.2738880155774
 20
62.25783141494313
 30
0.0
 10
191.1015286628817
 20
62.34985020762426
 30
0.0
 10
190.7754079142134
 20
62.56719337174032
 30
0.0
 10
190.6209834310127
 20
62.69371218417719
 30
0.0
 10
190.3441139011378
 20
62.97014508636488
 30
0.0
 10
190.2198641551666
 20
63.12097469005145
 30
0.0
 10
190.0003652872107
 20
63.44848725959304
 30
0.0
 10
189.9069675175047
 20
63.62303630669515
 30
0.0
 10
189.6820062828044
 20
64.16424301460133
 30
0.0
 10
189.6021943515993
 20
64.55829286293445
 30
0.0
 10
189.6021943515993
 20
65.15323704232942
 30
0.0
  0
LINE
  5
69
330
1F
100
AcDbEntity
  8
0
  6
Continuous
 62
     7
370
    15
100
AcDbLine
 10
125.6021943516
 20
33.9549223159
 30
0.0
 11
125.6021943516
 21
95.9549223138
 31
0.0
  0
LINE
  5
6A
330
1F
100
AcDbEntity
  8
0
  6
Continuous
 62
     7
370
    15
100
AcDbLine
 10
206.4106013217
 20
38.8688277002
 30
0.0
 11
203.985286671
 21
36.3533482259
 31
0.0
  0
LINE
  5
6B
330
1F
100
AcDbEntity
  8
0
  6
Continuous
 62
     7
370
    15
100
AcDbLine
 10
206.4106013217
 20
91.0410169315
 30
0.0
 11
203.985286671
 21
93.5564964058
 31
0.0
  0
ELLIPSE
  5
6C
330
1F
100
AcDbEntity
  8
0
  6
Continuous
 62
     7
370
    15
100
AcDbEllipse
 10
203.8027788901
 20
64.9549223159
 30
0.0
 11
0.0
 21
2.499999999999986
 31
0.0
210
0.0
220
0.0
230
1.0
 40
0.2988584907
 41
0.0
 42
6.283185307179586
  0
SPLINE
  5
6D
330
1F
100
AcDbEntity
  8
0
  6
Continuous
 62
     7
370
    15
100
AcDbSpline
210
0.0
220
0.0
230
1.0
 70
     8
 71
     3
 72
    12
 73
     8
 74
     0
 42
0.00000001
 43
0.00000001
 12
1.0
 22
0.0
 32
0.0
 13
1.0
 23
0.0
 33
0.0
 40
0.0
 40
0.0
 40
0.0
 40
0.0
 40
0.4999999999999998
 40
0.4999999999999998
 40
0.7499999999999997
 40
0.7499999999999997
 40
1.0
 40
1.0
 40
1.0
 40
1.0
 10
124.7856820651428
 20
43.10012861338856
 30
0.0
 10
124.84211856605
 20
43.09871073204681
 30
0.0
 10
124.9112031967387
 20
43.09714639579852
 30
0.0
 10
125.0300054684567
 20
43.09420220382407
 30
0.0
 10
125.0701907439267
 20
43.09316400072669
 30
0.0
 10
125.1435717913306
 20
43.09123010551204
 30
0.0
 10
125.1769813550732
 20
43.09033521822325
 30
0.0
 10
125.2072174627296
 20
43.0895514279509
 30
0.0
  0
SPLINE
  5
6E
330
1F
100
AcDbEntity
  8
0
  6
Continuous
 62
     7
370
    15
100
AcDbSpline
210
0.0
220
0.0
230
1.0
 70
     8
 71
     3
 72
    16
 73
    12
 74
     0
 42
0.00000001
 43
0.00000001
 12
1.0
 22
0.0
 32
0.0
 13
1.0
 23
0.0
 33
0.0
 40
0.0
 40
0.0
 40
0.0
 40
0.0
 40
0.0625000000000009
 40
0.0625000000000009
 40
0.1250000000000019
 40
0.1250000000000019
 40
0.2500000000000022
 40
0.2500000000000022
 40
0.5000000000000027
 40
0.5000000000000027
 40
1.0
 40
1.0
 40
1.0
 40
1.0
 10
125.2072174626924
 20
43.08955142797515
 30
0.0
 10
125.2187978702804
 20
43.0892512368638
 30
0.0
 10
125.2321073970417
 20
43.08792348860479
 30
0.0
 10
125.2614088271278
 20
43.0812248138298
 30
0.0
 10
125.2762229270121
 20
43.0758666307241
 30
0.0
 10
125.3120513287149
 20
43.05882098155675
 30
0.0
 10
125.326170953078
 20
43.04735844378102
 30
0.0
 10
125.3606750971665
 20
43.01579511840878
 30
0.0
 10
125.3717796478711
 20
42.99789781936351
 30
0.0
 10
125.3979558250873
 20
42.94773640174926
 30
0.0
 10
125.4021943515993
 20
42.91999198955268
 30
0.0
 10
125.4021943515993
 20
42.89532782762315
 30
0.0
  0
LINE
  5
6F
330
1F
100
AcDbEntity
  8
0
  6
Continuous
 62
     7
370
    15
100
AcDbLine
 10
125.4021943516
 20
57.9330349901
 30
0.0
 11
125.4021943516
 21
42.415102037
 31
0.0
  0
SPLINE
  5
70
330
1F
100
AcDbEntity
  8
0
  6
Continuous
 62
     7
370
    15
100
AcDbSpline
210
0.0
220
0.0
230
1.0
 70
     8
 71
     3
 72
    16
 73
    12
 74
     0
 42
0.00000001
 43
0.00000001
 12
1.0
 22
0.0
 32
0.0
 13
1.0
 23
0.0
 33
0.0
 40
0.0
 40
0.0
 40
0.0
 40
0.0
 40
0.5000000000000064
 40
0.5000000000000064
 40
0.7500000000000062
 40
0.7500000000000062
 40
0.8750000000000046
 40
0.8750000000000046
 40
0.9375000000000023
 40
0.9375000000000023
 40
1.0
 40
1.0
 40
1.0
 40
1.0
 10
125.4021943515993
 20
57.93303499011431
 30
0.0
 10
125.4021943515993
 20
58.0467275342422
 30
0.0
 10
125.3980480765213
 20
58.16104769559171
 30
0.0
 10
125.3720824811278
 20
58.3340959860888
 30
0.0
 10
125.3606215757504
 20
58.39327149325052
 30
0.0
 10
125.326309837976
 20
58.47639461271866
 30
0.0
 10
125.3122851020464
 20
58.50451592881933
 30
0.0
 10
125.2762621390126
 20
58.53313174279677
 30
0.0
 10
125.261507629923
 20
58.53892479069855
 30
0.0
 10
125.2321554687761
 20
58.53733136476153
 30
0.0
 10
125.218815594272
 20
58.53083496143773
 30
0.0
 10
125.2072174627236
 20
58.52231921523459
 30
0.0
  0
SPLINE
  5
71
330
1F
100
AcDbEntity
  8
0
  6
Continuous
 62
     7
370
    15
100
AcDbSpline
210
0.0
220
0.0
230
1.0
 70
     8
 71
     3
 72
    12
 73
     8
 74
     0
 42
0.00000001
 43
0.00000001
 12
1.0
 22
0.0
 32
0.0
 13
1.0
 23
0.0
 33
0.0
 40
0.0
 40
0.0
 40
0.0
 40
0.0
 40
0.2500000000000006
 40
0.2500000000000006
 40
0.5000000000000008
 40
0.5000000000000008
 40
1.0
 40
1.0
 40
1.0
 40
1.0
 10
125.2072174627307
 20
58.52231921522546
 30
0.0
 10
125.1770190212901
 20
58.5001464831804
 30
0.0
 10
125.1436516659541
 20
58.48106682730317
 30
0.0
 10
125.0704963901242
 20
58.45589378286046
 30
0.0
 10
125.0302436911002
 20
58.45033724644364
 30
0.0
 10
124.9125149478253
 20
58.4612490574304
 30
0.0
 10
124.8420564997664
 20
58.50318481284125
 30
0.0
 10
124.7856820651482
 20
58.5523965952228
 30
0.0
  0
SPLINE
  5
72
330
1F
100
AcDbEntity
  8
0
  6
Continuous
 62
     7
370
    15
100
AcDbSpline
210
0.0
220
0.0
230
1.0
 70
     8
 71
     3
 72
    12
 73
     8
 74
     0
 42
0.00000001
 43
0.00000001
 12
1.0
 22
0.0
 32
0.0
 13
1.0
 23
0.0
 33
0.0
 40
0.0
 40
0.0
 40
0.0
 40
0.0
 40
0.4999999999999993
 40
0.4999999999999993
 40
0.7499999999999997
 40
0.7499999999999997
 40
1.0
 40
1.0
 40
1.0
 40
1.0
 10
124.2808740080396
 20
59.76874798710337
 30
0.0
 10
124.3246243599241
 20
59.54830100212883
 30
0.0
 10
124.3775145110486
 20
59.33275601232327
 30
0.0
 10
124.4891260541902
 20
59.02034193575135
 30
0.0
 10
124.5316853980938
 20
58.91826246013545
 30
0.0
 10
124.6366626334312
 20
58.72382244749368
 30
0.0
 10
124.6982298765258
 20
58.62873754843002
 30
0.0
 10
124.7856820651482
 20
58.55239659522284
 30
0.0
  0
SPLINE
  5
73
330
1F
100
AcDbEntity
  8
0
  6
Continuous
 62
     7
370
    15
100
AcDbSpline
210
0.0
220
0.0
230
1.0
 70
     8
 71
     3
 72
    12
 73
     8
 74
     0
 42
0.00000001
 43
0.00000001
 12
1.0
 22
0.0
 32
0.0
 13
1.0
 23
0.0
 33
0.0
 40
0.0
 40
0.0
 40
0.0
 40
0.0
 40
0.2500000000000007
 40
0.2500000000000007
 40
0.5000000000000014
 40
0.5000000000000014
 40
1.0
 40
1.0
 40
1.0
 40
1.0
 10
124.785682065148
 20
71.35744803650597
 30
0.0
 10
124.6971886575802
 20
71.28019815639766
 30
0.0
 10
124.6371306168143
 20
71.18687883250843
 30
0.0
 10
124.5312823438317
 20
70.99084577953899
 30
0.0
 10
124.4887488225542
 20
70.88851942132726
 30
0.0
 10
124.3775975157306
 20
70.57717501555138
 30
0.0
 10
124.3246666586828
 20
70.36175676237337
 30
0.0
 10
124.2808740080396
 20
70.14109664462549
 30
0.0
  0
SPLINE
  5
74
330
1F
100
AcDbEntity
  8
0
  6
Continuous
 62
     7
370
    15
100
AcDbSpline
210
0.0
220
0.0
230
1.0
 70
     8
 71
     3
 72
    12
 73
     8
 74
     0
 42
0.00000001
 43
0.00000001
 12
1.0
 22
0.0
 32
0.0
 13
1.0
 23
0.0
 33
0.0
 40
0.0
 40
0.0
 40
0.0
 40
0.0
 40
0.4999999999999999
 40
0.4999999999999999
 40
0.7499999999999998
 40
0.7499999999999998
 40
1.0
 40
1.0
 40
1.0
 40
1.0
 10
124.785682065148
 20
71.35744803650599
 30
0.0
 10
124.8419906134437
 20
71.40660230374984
 30
0.0
 10
124.9122652741618
 20
71.44855962235359
 30
0.0
 10
125.0303031884853
 20
71.45951929988601
 30
0.0
 10
125.0704794293393
 20
71.45401054163867
 30
0.0
 10
125.1444365240172
 20
71.42845331284971
 30
0.0
 10
125.1770529117287
 20
71.40967326501041
 30
0.0
 10
125.2072174627244
 20
71.38752541649369
 30
0.0
  0
SPLINE
  5
75
330
1F
100
AcDbEntity
  8
0
  6
Continuous
 62
     7
370
    15
100
AcDbSpline
210
0.0
220
0.0
230
1.0
 70
     8
 71
     3
 72
    16
 73
    12
 74
     0
 42
0.00000001
 43
0.00000001
 12
1.0
 22
0.0
 32
0.0
 13
1.0
 23
0.0
 33
0.0
 40
0.0
 40
0.0
 40
0.0
 40
0.0
 40
0.0625000000000001
 40
0.0625000000000001
 40
0.1250000000000001
 40
0.1250000000000001
 40
0.2500000000000015
 40
0.2500000000000015
 40
0.500000000000001
 40
0.500000000000001
 40
1.0
 40
1.0
 40
1.0
 40
1.0
 10
125.2072174626927
 20
71.38752541643919
 30
0.0
 10
125.218830362532
 20
71.37899882684393
 30
0.0
 10
125.2321815469645
 20
71.37249856531116
 30
0.0
 10
125.2615813865837
 20
71.37092916819364
 30
0.0
 10
125.276422111139
 20
71.37681255882423
 30
0.0
 10
125.3122553191076
 20
71.40536019487475
 30
0.0
 10
125.3263685269291
 20
71.43352721418054
 30
0.0
 10
125.360859898148
 20
71.51728147260248
 30
0.0
 10
125.3719439692584
 20
71.5749948862239
 30
0.0
 10
125.3980667870544
 20
71.74858542286974
 30
0.0
 10
125.4021943515993
 20
71.86361347551171
 30
0.0
 10
125.4021943515993
 20
71.97680964161454
 30
0.0
  0
LINE
  5
76
330
1F
100
AcDbEntity
  8
0
  6
Continuous
 62
     7
370
    15
100
AcDbLine
 10
125.4021943516
 20
87.4947425947
 30
0.0
 11
125.4021943516
 21
71.9768096416
 31
0.0
  0
SPLINE
  5
77
330
1F
100
AcDbEntity
  8
0
  6
Continuous
 62
     7
370
    15
100
AcDbSpline
210
0.0
220
0.0
230
1.0
 70
     8
 71
     3
 72
    16
 73
    12
 74
     0
 42
0.00000001
 43
0.00000001
 12
1.0
 22
0.0
 32
0.0
 13
1.0
 23
0.0
 33
0.0
 40
0.0
 40
0.0
 40
0.0
 40
0.0
 40
0.4999999999999981
 40
0.4999999999999981
 40
0.7499999999999973
 40
0.7499999999999973
 40
0.874999999999997
 40
0.874999999999997
 40
0.9374999999999986
 40
0.9374999999999986
 40
1.0
 40
1.0
 40
1.0
 40
1.0
 10
125.4021943515993
 20
87.01451680410571
 30
0.0
 10
125.4021943515993
 20
86.98984564806277
 30
0.0
 10
125.3980286531393
 20
86.96226381667154
 30
0.0
 10
125.3717703248143
 20
86.91192094584821
 30
0.0
 10
125.3602665430767
 20
86.8936314477863
 30
0.0
 10
125.3261357837303
 20
86.86247641674927
 30
0.0
 10
125.3117138970595
 20
86.85083704153753
 30
0.0
 10
125.2761469286217
 20
86.83395501560648
 30
0.0
 10
125.261195160327
 20
86.8285659117988
 30
0.0
 10
125.2321913419673
 20
86.82194541585432
 30
0.0
 10
125.2187759879581
 20
86.82059282764787
 30
0.0
 10
125.2072174627215
 20
86.82029320377626
 30
0.0
  0
SPLINE
  5
78
330
1F
100
AcDbEntity
  8
0
  6
Continuous
 62
     7
370
    15
100
AcDbSpline
210
0.0
220
0.0
230
1.0
 70
     8
 71
     3
 72
    12
 73
     8
 74
     0
 42
0.00000001
 43
0.00000001
 12
1.0
 22
0.0
 32
0.0
 13
1.0
 23
0.0
 33
0.0
 40
0.0
 40
0.0
 40
0.0
 40
0.0
 40
0.2499999999999999
 40
0.2499999999999999
 40
0.4999999999999998
 40
0.4999999999999998
 40
1.0
 40
1.0
 40
1.0
 40
1.0
 10
125.2072174627307
 20
86.82029320377801
 30
0.0
 10
125.1770296861811
 20
86.81951066636042
 30
0.0
 10
125.1436758820894
 20
86.81861733454191
 30
0.0
 10
125.0705496788934
 20
86.8166900257383
 30
0.0
 10
125.0303144758692
 20
86.81565049452564
 30
0.0
 10
124.9126228457361
 20
86.81273261117839
 30
0.0
 10
124.8422421725761
 20
86.81113700510818
 30
0.0
 10
124.7856820651455
 20
86.80971601834031
 30
0.0
  0
SPLINE
  5
79
330
1F
100
AcDbEntity
  8
0
  6
Continuous
 62
     7
370
    15
100
AcDbSpline
210
0.0
220
0.0
230
1.0
 70
     8
 71
     3
 72
    16
 73
    12
 74
     0
 42
0.00000001
 43
0.00000001
 12
1.0
 22
0.0
 32
0.0
 13
1.0
 23
0.0
 33
0.0
 40
0.0
 40
0.0
 40
0.0
 40
0.0
 40
0.2499999999999999
 40
0.2499999999999999
 40
0.3749999999999999
 40
0.3749999999999999
 40
0.5
 40
0.5
 40
0.75
 40
0.75
 40
1.0
 40
1.0
 40
1.0
 40
1.0
 10
124.2808740080396
 20
70.14109664462549
 30
0.0
 10
124.1196415305552
 20
69.32868686937867
 30
0.0
 10
123.9991616909155
 20
68.48860857499392
 30
0.0
 10
123.8767811736022
 20
67.18731352563115
 30
0.0
 10
123.8458035132048
 20
66.74663249004638
 30
0.0
 10
123.8041897755768
 20
65.85079284911524
 30
0.0
 10
123.793953862644
 20
65.40413471791278
 30
0.0
 10
123.7937654655879
 20
64.06882476077288
 30
0.0
 10
123.8339101682255
 20
63.18432938746536
 30
0.0
 10
123.9980639231651
 20
61.42707949943936
 30
0.0
 10
124.1196155735746
 20
60.58128855302623
 30
0.0
 10
124.2808740080396
 20
59.76874798710337
 30
0.0
  0
LINE
  5
7A
330
1F
100
AcDbEntity
  8
0
  6
Continuous
 62
     7
370
    15
100
AcDbLine
 10
123.4021943516
 20
71.4401005776
 30
0.0
 11
123.4021943516
 21
58.4697440542
 31
0.0
  0
LINE
  5
7B
330
1F
100
AcDbEntity
  8
0
  6
Continuous
 62
     7
370
    15
100
AcDbLine
 10
89.1021943516
 20
71.0092328834
 30
0.0
 11
89.1021943516
 21
58.9006117483
 31
0.0
  0
LINE
  5
7C
330
1F
100
AcDbEntity
  8
0
  6
Continuous
 62
     7
370
    15
100
AcDbLine
 10
87.6021943516
 20
70.5762201815
 30
0.0
 11
87.6021943516
 21
59.3336244502
 31
0.0
  0
LINE
  5
7D
330
1F
100
AcDbEntity
  8
0
  6
Continuous
 62
     7
370
    15
100
AcDbLine
 10
89.1021943516
 20
71.0092328834
 30
0.0
 11
89.1021943516
 21
86.1132857121
 31
0.0
  0
LINE
  5
7E
330
1F
100
AcDbEntity
  8
0
  6
Continuous
 62
     7
370
    15
100
AcDbLine
 10
89.1021943516
 20
86.1132857121
 30
0.0
 11
123.4021943516
 21
86.9750211004
 31
0.0
  0
LINE
  5
7F
330
1F
100
AcDbEntity
  8
0
  6
Continuous
 62
     7
370
    15
100
AcDbLine
 10
123.4021943516
 20
71.4401005776
 30
0.0
 11
123.4021943516
 21
86.9750211004
 31
0.0
  0
ARC
  5
80
330
1F
100
AcDbEntity
  8
0
  6
Continuous
 62
     7
370
    15
100
AcDbCircle
 10
123.6021312625
 20
86.9800442116
 30
0.0
 40
0.2000000000000201
100
AcDbArc
 50
181.4391666667
 51
271.4391666667
  0
LINE
  5
81
330
1F
100
AcDbEntity
  8
0
  6
Continuous
 62
     7
370
    15
100
AcDbLine
 10
89.1021943516
 20
43.7965589196
 30
0.0
 11
89.1021943516
 21
58.9006117483
 31
0.0
  0
LINE
  5
82
330
1F
100
AcDbEntity
  8
0
  6
Continuous
 62
     7
370
    15
100
AcDbLine
 10
123.4021943516
 20
42.9348235313
 30
0.0
 11
123.4021943516
 21
58.4697440542
 31
0.0
  0
LINE
  5
83
330
1F
100
AcDbEntity
  8
0
  6
Continuous
 62
     7
370
    15
100
AcDbLine
 10
89.1021943516
 20
43.7965589196
 30
0.0
 11
123.4021943516
 21
42.9348235313
 31
0.0
  0
ARC
  5
84
330
1F
100
AcDbEntity
  8
0
  6
Continuous
 62
     7
370
    15
100
AcDbCircle
 10
123.6021312625
 20
42.9298004202
 30
0.0
 40
0.2000000000000201
100
AcDbArc
 50
88.5608333333
 51
178.5608333333
  0
LINE
  5
85
330
1F
100
AcDbEntity
  8
0
  6
Continuous
 62
     7
370
    15
100
AcDbLine
 10
123.6071543737
 20
86.7801073006
 30
0.0
 11
124.7856820651
 21
86.8097160183
 31
0.0
  0
LINE
  5
86
330
1F
100
AcDbEntity
  8
0
  6
Continuous
 62
     7
370
    15
100
AcDbLine
 10
123.6071543737
 20
43.1297373311
 30
0.0
 11
124.7856820651
 21
43.1001286134
 31
0.0
  0
LINE
  5
87
330
1F
100
AcDbEntity
  8
0
  6
Continuous
 62
     7
370
    15
100
AcDbLine
 10
87.6021943516
 20
85.2472603084
 30
0.0
 11
89.1021943516
 21
86.1132857121
 31
0.0
  0
LINE
  5
88
330
1F
100
AcDbEntity
  8
0
  6
Continuous
 62
     7
370
    15
100
AcDbLine
 10
87.6021943516
 20
70.5762201815
 30
0.0
 11
87.6021943516
 21
85.2472603084
 31
0.0
  0
LINE
  5
89
330
1F
100
AcDbEntity
  8
0
  6
Continuous
 62
     7
370
    15
100
AcDbLine
 10
87.6021943516
 20
44.6625843234
 30
0.0
 11
89.1021943516
 21
43.7965589196
 31
0.0
  0
LINE
  5
8A
330
1F
100
AcDbEntity
  8
0
  6
Continuous
 62
     7
370
    15
100
AcDbLine
 10
87.6021943516
 20
44.6625843234
 30
0.0
 11
87.6021943516
 21
59.3336244502
 31
0.0
  0
ELLIPSE
  5
8B
330
1F
100
AcDbEntity
  8
0
  6
Continuous
 62
     7
370
    15
100
AcDbEllipse
 10
212.2061562795
 20
88.2390042899
 30
0.0
 11
5.990149005310799
 21
-3.165847926406457
 31
0.0
210
0.0
220
0.0
230
1.0
 40
0.1085581124
 41
3.460703155738103
 42
4.76970009473379
  0
ELLIPSE
  5
8C
330
1F
100
AcDbEntity
  8
0
  6
Continuous
 62
     7
370
    15
100
AcDbEllipse
 10
212.2061562795
 20
41.6708403419
 30
0.0
 11
5.990149005310795
 21
3.165847926406471
 31
0.0
210
0.0
220
0.0
230
1.0
 40
0.1085581124
 41
1.513485212445797
 42
2.822482151441558
  0
LINE
  5
8D
330
1F
100
AcDbEntity
  8
0
  6
Continuous
 62
     7
370
    15
100
AcDbLine
 10
235.5365744301
 20
65.2508985538
 30
0.0
 11
235.9168369697
 21
65.0529464051
 31
0.0
  0
LINE
  5
8E
330
1F
100
AcDbEntity
  8
0
  6
Continuous
 62
     7
370
    15
100
AcDbLine
 10
235.8995078232
 20
64.9756860805
 30
0.0
 11
235.5600196106
 21
64.9756860805
 31
0.0
  0
LINE
  5
8F
330
1F
100
AcDbEntity
  8
0
  6
Continuous
 62
     7
370
    15
100
AcDbLine
 10
235.4288527888
 20
65.043967206
 30
0.0
 11
235.5600196106
 21
64.9756860805
 31
0.0
  0
LINE
  5
90
330
1F
100
AcDbEntity
  8
0
  6
Continuous
 62
     7
370
    15
100
AcDbLine
 10
235.901744977
 20
64.9549223159
 30
0.0
 11
235.5201327899
 21
64.9549223159
 31
0.0
  0
LINE
  5
91
330
1F
100
AcDbEntity
  8
0
  6
Continuous
 62
     7
370
    15
100
AcDbLine
 10
235.5600196106
 20
64.9756860805
 30
0.0
 11
235.5201327899
 21
64.9549223159
 31
0.0
  0
ARC
  5
92
330
1F
100
AcDbEntity
  8
0
  6
Continuous
 62
     7
370
    15
100
AcDbCircle
 10
236.1137601967
 20
66.3596620953
 30
0.0
 40
1.483290665715555
100
AcDbArc
 50
62.5
 51
242.5
  0
LINE
  5
93
330
1F
100
AcDbEntity
  8
0
  6
Continuous
 62
     7
370
    15
100
AcDbLine
 10
235.5201327899
 20
64.9549223159
 30
0.0
 11
235.9891824527
 21
64.7107505163
 31
0.0
  0
LINE
  5
94
330
1F
100
AcDbEntity
  8
0
  6
Continuous
 62
     7
370
    15
100
AcDbLine
 10
238.7324665646
 20
66.6686849635
 30
0.0
 11
236.7986676046
 21
67.6753569845
 31
0.0
  0
LINE
  5
95
330
1F
100
AcDbEntity
  8
0
  6
Continuous
 62
     7
370
    15
100
AcDbLine
 10
245.3896739579
 20
70.1342077812
 30
0.0
 11
212.2061562795
 21
87.408453706
 31
0.0
  0
LINE
  5
96
330
1F
100
AcDbEntity
  8
0
  6
Continuous
 62
     7
370
    15
100
AcDbLine
 10
245.3896739579
 20
59.7756368505
 30
0.0
 11
212.2061562795
 21
42.5013909258
 31
0.0
  0
LINE
  5
97
330
1F
100
AcDbEntity
  8
0
  6
Continuous
 62
     7
370
    15
100
AcDbLine
 10
238.4798500336
 20
66.5371811211
 30
0.0
 11
236.6909459632
 21
67.4684256367
 31
0.0
  0
ARC
  5
98
330
1F
100
AcDbEntity
  8
0
  6
Continuous
 62
     7
370
    15
100
AcDbCircle
 10
236.1137601967
 20
66.3596620953
 30
0.0
 40
1.250000000000012
100
AcDbArc
 50
62.5
 51
242.5
  0
LWPOLYLINE
  5
99
330
1F
100
AcDbEntity
  8
0
  6
Continuous
 62
     7
370
    15
100
AcDbPolyline
 90
        3
 70
   128
 43
0.0
 10
189.6165242612
 20
64.66205014
 10
189.6220665557
 20
65.2996516594
 10
189.7364086223
 20
65.8422058972
  0
LWPOLYLINE
  5
9A
330
1F
100
AcDbEntity
  8
0
  6
Continuous
 62
     7
370
    15
100
AcDbPolyline
 90
        3
 70
   128
 43
0.0
 10
191.563246844
 20
62.14056838
 10
191.4978975452
 20
62.1655624317
 10
190.8135860848
 20
62.5464206099
  0
CIRCLE
  5
9B
330
1F
100
AcDbEntity
  8
0
  6
Continuous
 62
     7
370
    15
100
AcDbCircle
 10
192.6021943516
 20
64.9549223159
 30
0.0
 40
2.860000000000037
  0
CIRCLE
  5
9C
330
1F
100
AcDbEntity
  8
0
  6
Continuous
 62
     7
370
    15
100
AcDbCircle
 10
192.6021943516
 20
64.9549223159
 30
0.0
 40
2.500000000000018
  0
ARC
  5
9D
330
1F
100
AcDbEntity
  8
0
  6
Continuous
 62
     7
370
    15
100
AcDbCircle
 10
245.6544128641
 20
64.9549223159
 30
0.0
 40
1.675000000000074
100
AcDbArc
 50
300.3120697157
 51
358.912002843
  0
ARC
  5
9E
330
1F
100
AcDbEntity
  8
0
  6
Continuous
 62
     7
370
    15
100
AcDbCircle
 10
245.6544128641
 20
64.9549223159
 30
0.0
 40
1.674999999999998
100
AcDbArc
 50
358.912002843
 51
59.0188445777
  0
ARC
  5
9F
330
1F
100
AcDbEntity
  8
0
  6
Continuous
 62
     7
370
    15
100
AcDbCircle
 10
245.6544128641
 20
64.9549223159
 30
0.0
 40
1.675000000000019
100
AcDbArc
 50
59.0188445777
 51
117.6187777049
  0
LINE
  5
A0
330
1F
100
AcDbEntity
  8
0
  6
Continuous
 62
     7
370
    15
100
AcDbLine
 10
244.8036461732
 20
66.3977740192
 30
0.0
 11
244.8779055634
 21
66.4390589039
 31
0.0
  0
ARC
  5
A1
330
1F
100
AcDbEntity
  8
0
  6
Continuous
 62
     7
370
    15
100
AcDbCircle
 10
245.6544128641
 20
64.9549223159
 30
0.0
 40
1.674999999999972
100
AcDbArc
 50
120.5254084768
 51
176.9691266431
  0
LINE
  5
A2
330
1F
100
AcDbEntity
  8
0
  6
Continuous
 62
     7
370
    15
100
AcDbLine
 10
243.9797039674
 20
64.923695541
 30
0.0
 11
243.9817558726
 21
65.0434863528
 31
0.0
  0
ARC
  5
A3
330
1F
100
AcDbEntity
  8
0
  6
Continuous
 62
     7
370
    15
100
AcDbCircle
 10
245.6544128641
 20
64.9549223159
 30
0.0
 40
1.675000000000028
100
AcDbArc
 50
181.0682185433
 51
236.8626288773
  0
LINE
  5
A4
330
1F
100
AcDbEntity
  8
0
  6
Continuous
 62
     7
370
    15
100
AcDbLine
 10
244.8413781753
 20
63.4904771668
 30
0.0
 11
244.7387770518
 21
63.5523403898
 31
0.0
  0
ARC
  5
A5
330
1F
100
AcDbEntity
  8
0
  6
Continuous
 62
     7
370
    15
100
AcDbCircle
 10
245.6544128641
 20
64.9549223159
 30
0.0
 40
1.675000000000005
100
AcDbArc
 50
240.9617207776
 51
297.4054389439
  0
LINE
  5
A6
330
1F
100
AcDbEntity
  8
0
  6
Continuous
 62
     7
370
    15
100
AcDbLine
 10
246.4998012637
 20
63.5089128229
 30
0.0
 11
246.4253886659
 21
63.4679047258
 31
0.0
  0
CIRCLE
  5
A7
330
1F
100
AcDbEntity
  8
0
  6
Continuous
 62
     7
370
    15
100
AcDbCircle
 10
245.6544128641
 20
64.9549223159
 30
0.0
 40
1.800000000000006
  0
SPLINE
  5
A8
330
1F
100
AcDbEntity
  8
0
  6
Continuous
 62
     7
370
    15
100
AcDbSpline
210
0.0
220
0.0
230
1.0
 70
     8
 71
     3
 72
    11
 73
     7
 74
     0
 42
0.00000001
 43
0.00000001
 12
1.0
 22
0.0
 32
0.0
 13
1.0
 23
0.0
 33
0.0
 40
0.0
 40
0.0
 40
0.0
 40
0.0
 40
0.2669010467947603
 40
0.554614341078802
 40
0.8439070439780142
 40
0.9999999999999999
 40
0.9999999999999999
 40
0.9999999999999999
 40
0.9999999999999999
 10
243.9797039674461
 20
64.92369554104658
 30
0.0
 10
243.9884372273164
 20
64.88993397535015
 30
0.0
 10
244.0065847438833
 20
64.81977820512225
 30
0.0
 10
244.0750445015578
 20
64.73149682162578
 30
0.0
 10
244.1539039697064
 20
64.67632186537841
 30
0.0
 10
244.2085197450175
 20
64.65927033351244
 30
0.0
 10
244.2276607695273
 20
64.65329433504832
 30
0.0
  0
SPLINE
  5
A9
330
1F
100
AcDbEntity
  8
0
  6
Continuous
 62
     7
370
    15
100
AcDbSpline
210
0.0
220
0.0
230
1.0
 70
     8
 71
     3
 72
    17
 73
    13
 74
     0
 42
0.00000001
 43
0.00000001
 12
1.0
 22
0.0
 32
0.0
 13
1.0
 23
0.0
 33
0.0
 40
0.0
 40
0.0
 40
0.0
 40
0.0
 40
0.1014854109283099
 40
0.2058503156554664
 40
0.3074575495324592
 40
0.4121271808785858
 40
0.5116993224725402
 40
0.6142486845228059
 40
0.7124357472861143
 40
0.813385776190428
 40
0.9056155741941877
 40
0.9999999999999999
 40
0.9999999999999999
 40
0.9999999999999999
 40
0.9999999999999999
 10
244.2276607695273
 20
64.65329433504832
 30
0.0
 10
244.2584485928913
 20
64.64387899318129
 30
0.0
 10
244.3208977971644
 20
64.62478116347746
 30
0.0
 10
244.4068893902245
 20
64.57695123548537
 30
0.0
 10
244.4851434827921
 20
64.51568960933827
 30
0.0
 10
244.5510841703069
 20
64.44274558972081
 30
0.0
 10
244.6041889858389
 20
64.35956264206978
 30
0.0
 10
244.6419898479612
 20
64.27063800877075
 30
0.0
 10
244.6648301525634
 20
64.1765165636551
 30
0.0
 10
244.6715815690214
 20
64.08358785529623
 30
0.0
 10
244.6647474847346
 20
63.99200148961645
 30
0.0
 10
244.6491676022656
 20
63.93490584542579
 30
0.0
 10
244.6412877192055
 20
63.90602841324009
 30
0.0
  0
SPLINE
  5
AA
330
1F
100
AcDbEntity
  8
0
  6
Continuous
 62
     7
370
    15
100
AcDbSpline
210
0.0
220
0.0
230
1.0
 70
     8
 71
     3
 72
    11
 73
     7
 74
     0
 42
0.00000001
 43
0.00000001
 12
1.0
 22
0.0
 32
0.0
 13
1.0
 23
0.0
 33
0.0
 40
0.0
 40
0.0
 40
0.0
 40
0.0
 40
0.2928993220619483
 40
0.5864344719079457
 40
0.8775178868033029
 40
0.9999999999999999
 40
0.9999999999999999
 40
0.9999999999999999
 40
0.9999999999999999
 10
244.6412877192055
 20
63.90602841324009
 30
0.0
 10
244.6332780088117
 20
63.86897748016519
 30
0.0
 10
244.6172412004921
 20
63.79479518360502
 30
0.0
 10
244.6420414125816
 20
63.6813848936932
 30
0.0
 10
244.6886238488216
 20
63.60052428105753
 30
0.0
 10
244.7273174915086
 20
63.56334997993523
 30
0.0
 10
244.7387770518483
 20
63.55234038980069
 30
0.0
  0
SPLINE
  5
AB
330
1F
100
AcDbEntity
  8
0
  6
Continuous
 62
     7
370
    15
100
AcDbSpline
210
0.0
220
0.0
230
1.0
 70
     8
 71
     3
 72
    12
 73
     8
 74
     0
 42
0.00000001
 43
0.00000001
 12
1.0
 22
0.0
 32
0.0
 13
1.0
 23
0.0
 33
0.0
 40
0.0
 40
0.0
 40
0.0
 40
0.0
 40
0.2057904614204262
 40
0.4120344203357322
 40
0.6141302471425126
 40
0.8132633242112984
 40
1.0
 40
1.0
 40
1.0
 40
1.0
 10
245.200113239809
 20
63.56979301102136
 30
0.0
 10
245.2501911687389
 20
63.6120937796922
 30
0.0
 10
245.3504573826141
 20
63.69678853463244
 30
0.0
 10
245.5439890468273
 20
63.75251579324807
 30
0.0
 10
245.7401626349419
 20
63.74470986449318
 30
0.0
 10
245.9204017036873
 20
63.67797210168505
 30
0.0
 10
246.0104838815332
 20
63.59467975166154
 30
0.0
 10
246.0540779863165
 20
63.55437149622863
 30
0.0
  0
SPLINE
  5
AC
330
1F
100
AcDbEntity
  8
0
  6
Continuous
 62
     7
370
    15
100
AcDbSpline
210
0.0
220
0.0
230
1.0
 70
     8
 71
     3
 72
    11
 73
     7
 74
     0
 42
0.00000001
 43
0.00000001
 12
1.0
 22
0.0
 32
0.0
 13
1.0
 23
0.0
 33
0.0
 40
0.0
 40
0.0
 40
0.0
 40
0.0
 40
0.2802371411010759
 40
0.5612869875920978
 40
0.8399906057824532
 40
1.0
 40
1.0
 40
1.0
 40
1.0
 10
246.0540779863165
 20
63.55437149622863
 30
0.0
 10
246.0821394103332
 20
63.52892238591181
 30
0.0
 10
246.1383436382668
 20
63.47795036125259
 30
0.0
 10
246.2488862540576
 20
63.44276904693909
 30
0.0
 10
246.3482066740846
 20
63.44243583014656
 30
0.0
 10
246.404761671469
 20
63.46109812812136
 30
0.0
 10
246.4253886659175
 20
63.46790472584971
 30
0.0
  0
SPLINE
  5
AD
330
1F
100
AcDbEntity
  8
0
  6
Continuous
 62
     7
370
    15
100
AcDbSpline
210
0.0
220
0.0
230
1.0
 70
     8
 71
     3
 72
    11
 73
     7
 74
     0
 42
0.00000001
 43
0.00000001
 12
1.0
 22
0.0
 32
0.0
 13
1.0
 23
0.0
 33
0.0
 40
0.0
 40
0.0
 40
0.0
 40
0.0
 40
0.2657596322624373
 40
0.5530029385960349
 40
0.8418208483444435
 40
1.0
 40
1.0
 40
1.0
 40
1.0
 10
244.8413781752514
 20
63.49047716676274
 30
0.0
 10
244.8748727879138
 20
63.48111466042558
 30
0.0
 10
244.9445696755553
 20
63.46163279452667
 30
0.0
 10
245.0551955386955
 20
63.47646880268268
 30
0.0
 10
245.1428060222758
 20
63.51706371057557
 30
0.0
 10
245.185134450396
 20
63.55601078390814
 30
0.0
 10
245.200113239809
 20
63.56979301102136
 30
0.0
  0
SPLINE
  5
AE
330
1F
100
AcDbEntity
  8
0
  6
Continuous
 62
     7
370
    15
100
AcDbSpline
210
0.0
220
0.0
230
1.0
 70
     8
 71
     3
 72
    11
 73
     7
 74
     0
 42
0.00000001
 43
0.00000001
 12
1.0
 22
0.0
 32
0.0
 13
1.0
 23
0.0
 33
0.0
 40
0.0
 40
0.0
 40
0.0
 40
0.0
 40
0.2431090893442957
 40
0.5182793655621061
 40
0.794779408575186
 40
1.0
 40
1.0
 40
1.0
 40
1.0
 10
244.803646173215
 20
66.3977740191517
 30
0.0
 10
244.778733672607
 20
66.37589161323882
 30
0.0
 10
244.7256232148923
 20
66.32924095330635
 30
0.0
 10
244.6773904101709
 20
66.23053109081668
 30
0.0
 10
244.6612131136926
 20
66.12775675221707
 30
0.0
 10
244.674229163449
 20
66.06426291628581
 30
0.0
 10
244.6797742060277
 20
66.03721354029875
 30
0.0
  0
SPLINE
  5
AF
330
1F
100
AcDbEntity
  8
0
  6
Continuous
 62
     7
370
    15
100
AcDbSpline
210
0.0
220
0.0
230
1.0
 70
     8
 71
     3
 72
    17
 73
    13
 74
     0
 42
0.00000001
 43
0.00000001
 12
1.0
 22
0.0
 32
0.0
 13
1.0
 23
0.0
 33
0.0
 40
0.0
 40
0.0
 40
0.0
 40
0.0
 40
0.101474560977405
 40
0.2058281164580224
 40
0.3074263014593842
 40
0.4120866925240622
 40
0.5116490280909324
 40
0.6141878306403505
 40
0.7123733939562024
 40
0.8133213163074887
 40
0.9055824244510187
 40
1.0
 40
1.0
 40
1.0
 40
1.0
 10
244.6797742060277
 20
66.03721354029875
 30
0.0
 10
244.6870136828683
 20
66.00584566892638
 30
0.0
 10
244.7016980320085
 20
65.942219969838
 30
0.0
 10
244.703274035406
 20
65.84384196857341
 30
0.0
 10
244.6893513503856
 20
65.74544777660088
 30
0.0
 10
244.6591568415296
 20
65.65187502554987
 30
0.0
 10
244.6136799586854
 20
65.56429863090874
 30
0.0
 10
244.5555798997422
 20
65.48710160964512
 30
0.0
 10
244.4854988913529
 20
65.42025877106362
 30
0.0
 10
244.4083954737004
 20
65.36793657658001
 30
0.0
 10
244.3256491679636
 20
65.32804763757808
 30
0.0
 10
244.2683944596755
 20
65.31298662843732
 30
0.0
 10
244.2394364091986
 20
65.30536913328326
 30
0.0
  0
SPLINE
  5
B0
330
1F
100
AcDbEntity
  8
0
  6
Continuous
 62
     7
370
    15
100
AcDbSpline
210
0.0
220
0.0
230
1.0
 70
     8
 71
     3
 72
    11
 73
     7
 74
     0
 42
0.00000001
 43
0.00000001
 12
1.0
 22
0.0
 32
0.0
 13
1.0
 23
0.0
 33
0.0
 40
0.0
 40
0.0
 40
0.0
 40
0.0
 40
0.2908641666076556
 40
0.5839560789892103
 40
0.874598805361774
 40
1.0
 40
1.0
 40
1.0
 40
1.0
 10
244.2394364091985
 20
65.30536913328325
 30
0.0
 10
244.20353555604
 20
65.29386176066659
 30
0.0
 10
244.1314588829753
 20
65.27075887978901
 30
0.0
 10
244.0456573830527
 20
65.19287370416507
 30
0.0
 10
243.9985487506192
 20
65.1118237354114
 30
0.0
 10
243.9856451808336
 20
65.05931360686185
 30
0.0
 10
243.9817558725552
 20
65.04348635277117
 30
0.0
  0
SPLINE
  5
B1
330
1F
100
AcDbEntity
  8
0
  6
Continuous
 62
     7
370
    15
100
AcDbSpline
210
0.0
220
0.0
230
1.0
 70
     8
 71
     3
 72
    12
 73
     8
 74
     0
 42
0.00000001
 43
0.00000001
 12
1.0
 22
0.0
 32
0.0
 13
1.0
 23
0.0
 33
0.0
 40
0.0
 40
0.0
 40
0.0
 40
0.0
 40
0.2058585741213778
 40
0.4121026961456594
 40
0.6141937841967007
 40
0.8133180967416105
 40
1.0
 40
1.0
 40
1.0
 40
1.0
 10
246.6246791465912
 20
63.87021089224487
 30
0.0
 10
246.6130826472599
 20
63.93475199259961
 30
0.0
 10
246.589867929774
 20
64.06395507088733
 30
0.0
 10
246.6383998978757
 20
64.25943774831566
 30
0.0
 10
246.7432631602854
 20
64.42541187746379
 30
0.0
 10
246.8911735927548
 20
64.54810453052174
 30
0.0
 10
247.0083285921857
 20
64.58446256352484
 30
0.0
 10
247.0650169434204
 20
64.60205529926034
 30
0.0
  0
SPLINE
  5
B2
330
1F
100
AcDbEntity
  8
0
  6
Continuous
 62
     7
370
    15
100
AcDbSpline
210
0.0
220
0.0
230
1.0
 70
     8
 71
     3
 72
    11
 73
     7
 74
     0
 42
0.00000001
 43
0.00000001
 12
1.0
 22
0.0
 32
0.0
 13
1.0
 23
0.0
 33
0.0
 40
0.0
 40
0.0
 40
0.0
 40
0.0
 40
0.2524782265335584
 40
0.5068902417933338
 40
0.7591786113116934
 40
0.9999999999999999
 40
0.9999999999999999
 40
0.9999999999999999
 40
0.9999999999999999
 10
247.0650169434204
 20
64.60205529926034
 30
0.0
 10
247.10093003539
 20
64.61356343311445
 30
0.0
 10
247.1730312859492
 20
64.63666784426302
 30
0.0
 10
247.258620571025
 20
64.71452485971794
 30
0.0
 10
247.3166106664031
 20
64.8130270266799
 30
0.0
 10
247.325009244438
 20
64.88699398186002
 30
0.0
 10
247.32911088143
 20
64.92311743017363
 30
0.0
  0
SPLINE
  5
B3
330
1F
100
AcDbEntity
  8
0
  6
Continuous
 62
     7
370
    15
100
AcDbSpline
210
0.0
220
0.0
230
1.0
 70
     8
 71
     3
 72
    15
 73
    11
 74
     0
 42
0.00000001
 43
0.00000001
 12
1.0
 22
0.0
 32
0.0
 13
1.0
 23
0.0
 33
0.0
 40
0.0
 40
0.0
 40
0.0
 40
0.0
 40
0.1198016777829424
 40
0.2423071339074657
 40
0.3775962153060585
 40
0.5167738875163796
 40
0.652731822153016
 40
0.7925565342194045
 40
0.895474264087742
 40
1.0
 40
1.0
 40
1.0
 40
1.0
 10
246.4998012637258
 20
63.50891282288734
 30
0.0
 10
246.5125775345689
 20
63.51910155090021
 30
0.0
 10
246.5384184211686
 20
63.53970895414073
 30
0.0
 10
246.5721246508652
 20
63.57884727837237
 30
0.0
 10
246.6010719555193
 20
63.62459895740592
 30
0.0
 10
246.6225574480616
 20
63.67626114024561
 30
0.0
 10
246.6353307176183
 20
63.73122704177479
 30
0.0
 10
246.6383281084889
 20
63.78251278921133
 30
0.0
 10
246.6345893516302
 20
63.82935661449498
 30
0.0
 10
246.6279995752396
 20
63.85652260691478
 30
0.0
 10
246.6246791465911
 20
63.87021089224486
 30
0.0
  0
SPLINE
  5
B4
330
1F
100
AcDbEntity
  8
0
  6
Continuous
 62
     7
370
    15
100
AcDbSpline
210
0.0
220
0.0
230
1.0
 70
     8
 71
     3
 72
    12
 73
     8
 74
     0
 42
0.00000001
 43
0.00000001
 12
1.0
 22
0.0
 32
0.0
 13
1.0
 23
0.0
 33
0.0
 40
0.0
 40
0.0
 40
0.0
 40
0.0
 40
0.009173520518984
 40
0.2576775215527304
 40
0.5061895192298589
 40
0.7560357430224252
 40
1.0
 40
1.0
 40
1.0
 40
1.0
 10
246.5166293731331
 20
66.39096120515407
 30
0.0
 10
246.5154506397209
 20
66.39166250470058
 30
0.0
 10
246.482340875199
 20
66.4113614990655
 30
0.0
 10
246.4098372719856
 20
66.4387309423951
 30
0.0
 10
246.2968813845519
 20
66.44138865252238
 30
0.0
 10
246.1882143307352
 20
66.40884614507799
 30
0.0
 10
246.1320752875304
 20
66.36118040772253
 30
0.0
 10
246.10434011281
 20
66.33763142152225
 30
0.0
  0
SPLINE
  5
B5
330
1F
100
AcDbEntity
  8
0
  6
Continuous
 62
     7
370
    15
100
AcDbSpline
210
0.0
220
0.0
230
1.0
 70
     8
 71
     3
 72
    12
 73
     8
 74
     0
 42
0.00000001
 43
0.00000001
 12
1.0
 22
0.0
 32
0.0
 13
1.0
 23
0.0
 33
0.0
 40
0.0
 40
0.0
 40
0.0
 40
0.0
 40
0.2057532787804659
 40
0.4119604088045377
 40
0.6140154573251739
 40
0.8131414684043
 40
0.9999999999999999
 40
0.9999999999999999
 40
0.9999999999999999
 40
0.9999999999999999
 10
246.10434011281
 20
66.33763142152225
 30
0.0
 10
246.0542699558107
 20
66.29533593825863
 30
0.0
 10
245.9540191968989
 20
66.2106516762185
 30
0.0
 10
245.7605189714844
 20
66.15491905321588
 30
0.0
 10
245.5643730025646
 20
66.16270099670167
 30
0.0
 10
245.3841086663404
 20
66.2294123924502
 30
0.0
 10
245.293998496603
 20
66.31272201235
 30
0.0
 10
245.2503753663028
 20
66.35305293631498
 30
0.0
  0
SPLINE
  5
B6
330
1F
100
AcDbEntity
  8
0
  6
Continuous
 62
     7
370
    15
100
AcDbSpline
210
0.0
220
0.0
230
1.0
 70
     8
 71
     3
 72
    11
 73
     7
 74
     0
 42
0.00000001
 43
0.00000001
 12
1.0
 22
0.0
 32
0.0
 13
1.0
 23
0.0
 33
0.0
 40
0.0
 40
0.0
 40
0.0
 40
0.0
 40
0.2794069064560005
 40
0.5596240257157893
 40
0.8375007392220326
 40
0.9999999999999999
 40
0.9999999999999999
 40
0.9999999999999999
 40
0.9999999999999999
 10
245.2503753663028
 20
66.35305293631498
 30
0.0
 10
245.2223113401097
 20
66.37850410735963
 30
0.0
 10
245.1661019087998
 20
66.4294802517214
 30
0.0
 10
245.0555519202056
 20
66.46465582711835
 30
0.0
 10
244.9558041040194
 20
66.4649972490273
 30
0.0
 10
244.8989023708982
 20
66.44605033705285
 30
0.0
 10
244.8779055633766
 20
66.43905890389195
 30
0.0
  0
SPLINE
  5
B7
330
1F
100
AcDbEntity
  8
0
  6
Continuous
 62
     7
370
    15
100
AcDbSpline
210
0.0
220
0.0
230
1.0
 70
     8
 71
     3
 72
    16
 73
    12
 74
     0
 42
0.00000001
 43
0.00000001
 12
1.0
 22
0.0
 32
0.0
 13
1.0
 23
0.0
 33
0.0
 40
0.0
 40
0.0
 40
0.0
 40
0.0
 40
0.00913674215245
 40
0.1314574589347962
 40
0.2573264769228898
 40
0.3796644500652877
 40
0.5055145346814666
 40
0.6285196273506887
 40
0.7550277257920217
 40
0.8758931221066094
 40
1.0
 40
1.0
 40
1.0
 40
1.0
 10
247.32911088143
 20
64.92311743017363
 30
0.0
 10
247.3291314465944
 20
64.92449006159423
 30
0.0
 10
247.3294273337065
 20
64.94423918393946
 30
0.0
 10
247.3264377926685
 20
64.98299686641852
 30
0.0
 10
247.3130123802146
 20
65.03725388724278
 30
0.0
 10
247.2905488241221
 20
65.08894977801252
 30
0.0
 10
247.2600910074829
 20
65.13576651510492
 30
0.0
 10
247.2219466122613
 20
65.1772872461766
 30
0.0
 10
247.1780625650108
 20
65.21119617775814
 30
0.0
 10
247.1293173456918
 20
65.2380639026055
 30
0.0
 10
247.0944546056181
 20
65.2487276647758
 30
0.0
 10
247.0767925830918
 20
65.25413009749529
 30
0.0
  0
SPLINE
  5
B8
330
1F
100
AcDbEntity
  8
0
  6
Continuous
 62
     7
370
    15
100
AcDbSpline
210
0.0
220
0.0
230
1.0
 70
     8
 71
     3
 72
    12
 73
     8
 74
     0
 42
0.00000001
 43
0.00000001
 12
1.0
 22
0.0
 32
0.0
 13
1.0
 23
0.0
 33
0.0
 40
0.0
 40
0.0
 40
0.0
 40
0.0
 40
0.2058435564094885
 40
0.4120691620552591
 40
0.6141397217726888
 40
0.8132604579561132
 40
1.0
 40
1.0
 40
1.0
 40
1.0
 10
247.0767925830918
 20
65.25413009749529
 30
0.0
 10
247.0151032748432
 20
65.2763562334082
 30
0.0
 10
246.8916101619123
 20
65.32084975733045
 30
0.0
 10
246.7465887202222
 20
65.460607711823
 30
0.0
 10
246.6552800773451
 20
65.63439150213603
 30
0.0
 10
246.6229638682767
 20
65.8238353831831
 30
0.0
 10
246.6500548028731
 20
65.94348892485414
 30
0.0
 10
246.6631656334134
 20
66.00139601930353
 30
0.0
  0
SPLINE
  5
B9
330
1F
100
AcDbEntity
  8
0
  6
Continuous
 62
     7
370
    15
100
AcDbSpline
210
0.0
220
0.0
230
1.0
 70
     8
 71
     3
 72
    15
 73
    11
 74
     0
 42
0.00000001
 43
0.00000001
 12
1.0
 22
0.0
 32
0.0
 13
1.0
 23
0.0
 33
0.0
 40
0.0
 40
0.0
 40
0.0
 40
0.0
 40
0.1249626702014785
 40
0.253506787523135
 40
0.3787030943824265
 40
0.5075886164187766
 40
0.6317356957294445
 40
0.7595517005242881
 40
0.8781644097821387
 40
0.9999999999999999
 40
0.9999999999999999
 40
0.9999999999999999
 40
0.9999999999999999
 10
246.6631656334134
 20
66.00139601930353
 30
0.0
 10
246.6679893937438
 20
66.01935607170316
 30
0.0
 10
246.6777751640317
 20
66.05579091404636
 30
0.0
 10
246.6805739496962
 20
66.11251373418479
 30
0.0
 10
246.6743591714008
 20
66.16946184276556
 30
0.0
 10
246.6585497832922
 20
66.22406637502722
 30
0.0
 10
246.6336071667605
 20
66.27567526081715
 30
0.0
 10
246.6010560396088
 20
66.32101991492577
 30
0.0
 10
246.5620205185967
 20
66.36069290652075
 30
0.0
 10
246.5318943549762
 20
66.38078201658458
 30
0.0
 10
246.5166293731331
 20
66.39096120515407
 30
0.0
  0
CIRCLE
  5
BA
330
1F
100
AcDbEntity
  8
0
  6
Continuous
 62
     7
370
    15
100
AcDbCircle
 10
245.6544128641
 20
64.9549223159
 30
0.0
 40
2.625000000000006
  0
LINE
  5
BB
330
1F
100
AcDbEntity
  8
0
  6
Continuous
 62
     7
370
    15
100
AcDbLine
 10
245.7544128641
 20
60.0367185727
 30
0.0
 11
245.5789483911
 21
59.6996544561
 31
0.0
  0
LINE
  5
BC
330
1F
100
AcDbEntity
  8
0
  6
Continuous
 62
     7
370
    15
100
AcDbLine
 10
236.1311669036
 20
64.6178581993
 30
0.0
 11
245.5789483911
 21
59.6996544561
 31
0.0
  0
LINE
  5
BD
330
1F
100
AcDbEntity
  8
0
  6
Continuous
 62
     7
370
    15
100
AcDbLine
 10
236.3066313766
 20
64.9549223159
 30
0.0
 11
236.1311669036
 21
64.6178581993
 31
0.0
  0
LINE
  5
BE
330
1F
100
AcDbEntity
  8
0
  6
Continuous
 62
     7
370
    15
100
AcDbLine
 10
238.3140893297
 20
64.9549223159
 30
0.0
 11
236.3066313766
 21
64.9549223159
 31
0.0
  0
LINE
  5
BF
330
1F
100
AcDbEntity
  8
0
  6
Continuous
 62
     7
370
    15
100
AcDbLine
 10
245.7544128641
 20
60.2852815638
 30
0.0
 11
245.7544128641
 21
60.0367185727
 31
0.0
  0
SPLINE
  5
C0
330
1F
100
AcDbEntity
  8
0
  6
Continuous
 62
     7
370
    15
100
AcDbSpline
210
0.0
220
0.0
230
1.0
 70
    24
 71
     3
 72
    11
 73
     7
 74
     0
 42
0.00000001
 43
0.00000001
 12
1.0
 22
0.0
 32
0.0
 13
1.0
 23
0.0
 33
0.0
 40
0.0
 40
0.0
 40
0.0
 40
0.0
 40
0.0092138098389882
 40
0.344849043110953
 40
0.6722304962507235
 40
1.0
 40
1.0
 40
1.0
 40
1.0
 10
245.7544128641009
 20
60.9817273040896
 30
0.0
 10
245.7544128641009
 20
60.97980034882813
 30
0.0
 10
245.7544128641002
 20
60.90767940324217
 30
0.0
 10
245.7544128641011
 20
60.7531664765092
 30
0.0
 10
245.7544128641008
 20
60.50818421328051
 30
0.0
 10
245.7544128641008
 20
60.359611780446
 30
0.0
 10
245.7544128641009
 20
60.28528156377009
 30
0.0
  0
LINE
  5
C1
330
1F
100
AcDbEntity
  8
0
  6
Continuous
 62
     7
370
    15
100
AcDbLine
 10
245.7544128641
 20
69.8731260591
 30
0.0
 11
245.929877337
 21
70.2101901754
 31
0.0
  0
LINE
  5
C2
330
1F
100
AcDbEntity
  8
0
  6
Continuous
 62
     7
370
    15
100
AcDbLine
 10
255.3776588246
 20
65.2919864325
 30
0.0
 11
245.929877337
 21
70.2101901754
 31
0.0
  0
LINE
  5
C3
330
1F
100
AcDbEntity
  8
0
  6
Continuous
 62
     7
370
    15
100
AcDbLine
 10
255.2021943516
 20
64.9549223159
 30
0.0
 11
255.3776588246
 21
65.2919864325
 31
0.0
  0
LINE
  5
C4
330
1F
100
AcDbEntity
  8
0
  6
Continuous
 62
     7
370
    15
100
AcDbLine
 10
253.1947363985
 20
64.9549223159
 30
0.0
 11
255.2021943516
 21
64.9549223159
 31
0.0
  0
LINE
  5
C5
330
1F
100
AcDbEntity
  8
0
  6
Continuous
 62
     7
370
    15
100
AcDbLine
 10
245.7544128641
 20
69.624563068
 30
0.0
 11
245.7544128641
 21
69.8731260591
 31
0.0
  0
SPLINE
  5
C6
330
1F
100
AcDbEntity
  8
0
  6
Continuous
 62
     7
370
    15
100
AcDbSpline
210
0.0
220
0.0
230
1.0
 70
    24
 71
     3
 72
    11
 73
     7
 74
     0
 42
0.00000001
 43
0.00000001
 12
1.0
 22
0.0
 32
0.0
 13
1.0
 23
0.0
 33
0.0
 40
0.0
 40
0.0
 40
0.0
 40
0.0
 40
0.3277695037501703
 40
0.6551509568909898
 40
0.990786190160957
 40
0.9999999999999999
 40
0.9999999999999999
 40
0.9999999999999999
 40
0.9999999999999999
 10
245.7544128641009
 20
69.624563067957
 30
0.0
 10
245.7544128641009
 20
69.55023285128101
 30
0.0
 10
245.7544128641009
 20
69.4016604184463
 30
0.0
 10
245.7544128641011
 20
69.15667815521827
 30
0.0
 10
245.7544128641003
 20
69.00216522848616
 30
0.0
 10
245.7544128641009
 20
68.93004428290072
 30
0.0
 10
245.7544128641009
 20
68.92811732763924
 30
0.0
  0
LINE
  5
C7
330
1F
100
AcDbEntity
  8
0
  6
Continuous
 62
     7
370
    15
100
AcDbLine
 10
255.3946029628
 20
65.3057135114
 30
0.0
 11
245.9377312006
 21
70.2286493521
 31
0.0
  0
LINE
  5
C8
330
1F
100
AcDbEntity
  8
0
  6
Continuous
 62
     7
370
    15
100
AcDbLine
 10
245.9377312006
 20
59.6811952797
 30
0.0
 11
255.3946029628
 21
64.6041311203
 31
0.0
  0
LINE
  5
C9
330
1F
100
AcDbEntity
  8
0
  6
Continuous
 62
     7
370
    15
100
AcDbLine
 10
236.1142227654
 20
64.6041311203
 30
0.0
 11
245.5710945276
 21
59.6811952797
 31
0.0
  0
LINE
  5
CA
330
1F
100
AcDbEntity
  8
0
  6
Continuous
 62
     7
370
    15
100
AcDbLine
 10
245.5710945276
 20
70.2286493521
 30
0.0
 11
236.1142227654
 21
65.3057135114
 31
0.0
  0
ARC
  5
CB
330
1F
100
AcDbEntity
  8
0
  6
Continuous
 62
     7
370
    15
100
AcDbCircle
 10
255.2021943516
 20
64.9549223159
 30
0.0
 40
0.3799999999999688
100
AcDbArc
 50
297.5
 51
62.5
  0
ARC
  5
CC
330
1F
100
AcDbEntity
  8
0
  6
Continuous
 62
     7
370
    15
100
AcDbCircle
 10
245.7544128641
 20
69.8731260591
 30
0.0
 40
0.3799999999999945
100
AcDbArc
 50
62.5
 51
117.5
  0
LINE
  5
CD
330
1F
100
AcDbEntity
  8
0
  6
Continuous
 62
     7
370
    15
100
AcDbLine
 10
245.5789483911
 20
70.2101901757
 30
0.0
 11
236.1311669036
 21
65.2919864325
 31
0.0
  0
ARC
  5
CE
330
1F
100
AcDbEntity
  8
0
  6
Continuous
 62
     7
370
    15
100
AcDbCircle
 10
236.3066313766
 20
64.9549223159
 30
0.0
 40
0.3800000000000071
100
AcDbArc
 50
117.5
 51
242.5
  0
ARC
  5
CF
330
1F
100
AcDbEntity
  8
0
  6
Continuous
 62
     7
370
    15
100
AcDbCircle
 10
245.7544128641
 20
60.0367185727
 30
0.0
 40
0.3800000000000271
100
AcDbArc
 50
242.5
 51
297.5
  0
LINE
  5
D0
330
1F
100
AcDbEntity
  8
0
  6
Continuous
 62
     7
370
    15
100
AcDbLine
 10
245.9298773371
 20
59.6996544561
 30
0.0
 11
255.3776588246
 21
64.6178581993
 31
0.0
  0
SPLINE
  5
D1
330
1F
100
AcDbEntity
  8
0
  6
Continuous
 62
     7
370
    15
100
AcDbSpline
210
0.0
220
0.0
230
1.0
 70
     8
 71
     3
 72
    13
 73
     9
 74
     0
 42
0.00000001
 43
0.00000001
 12
1.0
 22
0.0
 32
0.0
 13
1.0
 23
0.0
 33
0.0
 40
0.0
 40
0.0
 40
0.0
 40
0.0
 40
0.1734385751045133
 40
0.3519090391368983
 40
0.5252484949918239
 40
0.7036433105307315
 40
0.8503205800977947
 40
0.9999999999999999
 40
0.9999999999999999
 40
0.9999999999999999
 40
0.9999999999999999
 10
245.5710945275921
 20
59.68119527966189
 30
0.0
 10
245.5911291239416
 20
59.67195969726487
 30
0.0
 10
245.631779570629
 20
59.6532205850158
 30
0.0
 10
245.6973213486874
 20
59.6386448683166
 30
0.0
 10
245.7647356984184
 20
59.63446737995659
 30
0.0
 10
245.8278749281104
 20
59.64163055308283
 30
0.0
 10
245.8863951611298
 20
59.65711299939025
 30
0.0
 10
245.9205040110436
 20
59.67311382243172
 30
0.0
 10
245.9377312006096
 20
59.68119527966184
 30
0.0
  0
SPLINE
  5
D2
330
1F
100
AcDbEntity
  8
0
  6
Continuous
 62
     7
370
    15
100
AcDbSpline
210
0.0
220
0.0
230
1.0
 70
     8
 71
     3
 72
    10
 73
     6
 74
     0
 42
0.00000001
 43
0.00000001
 12
1.0
 22
0.0
 32
0.0
 13
1.0
 23
0.0
 33
0.0
 40
0.0
 40
0.0
 40
0.0
 40
0.0
 40
0.3518022785810175
 40
0.7034245935031578
 40
1.0
 40
1.0
 40
1.0
 40
1.0
 10
245.9377312006096
 20
70.22864935206697
 30
0.0
 10
245.8961224241009
 20
70.24526948615244
 30
0.0
 10
245.8129261559587
 20
70.27850125233141
 30
0.0
 10
245.6818371033754
 20
70.27478149126122
 30
0.0
 10
245.6058579257657
 20
70.2431307736166
 30
0.0
 10
245.5710945275922
 20
70.228649352067
 30
0.0
  0
SPLINE
  5
D3
330
1F
100
AcDbEntity
  8
0
  6
Continuous
 62
     7
370
    15
100
AcDbSpline
210
0.0
220
0.0
230
1.0
 70
     8
 71
     3
 72
    14
 73
    10
 74
     0
 42
0.00000001
 43
0.00000001
 12
1.0
 22
0.0
 32
0.0
 13
1.0
 23
0.0
 33
0.0
 40
0.0
 40
0.0
 40
0.0
 40
0.0
 40
0.1588501103508102
 40
0.3173321153185312
 40
0.4720153553661142
 40
0.6236441635915992
 40
0.7746618341644429
 40
0.9277417761108093
 40
1.0
 40
1.0
 40
1.0
 40
1.0
 10
236.1142227654253
 20
65.30571351138973
 30
0.0
 10
236.0755951668993
 20
65.2805651272268
 30
0.0
 10
235.9984294820733
 20
65.23032663557174
 30
0.0
 10
235.9235867558269
 20
65.11235418818632
 30
0.0
 10
235.8915037504883
 20
64.98048129503556
 30
0.0
 10
235.9059546617391
 20
64.84700637382201
 30
0.0
 10
235.9634517351198
 20
64.72699391049164
 30
0.0
 10
236.0401414983673
 20
64.64712402638574
 30
0.0
 10
236.0962353806118
 20
64.61457006092454
 30
0.0
 10
236.1142227654253
 20
64.60413112033916
 30
0.0
  0
SPLINE
  5
D4
330
1F
100
AcDbEntity
  8
0
  6
Continuous
 62
     7
370
    15
100
AcDbSpline
210
0.0
220
0.0
230
1.0
 70
     8
 71
     3
 72
    20
 73
    16
 74
     0
 42
0.00000001
 43
0.00000001
 12
1.0
 22
0.0
 32
0.0
 13
1.0
 23
0.0
 33
0.0
 40
0.0
 40
0.0
 40
0.0
 40
0.0
 40
0.0783075311860409
 40
0.158891012685664
 40
0.2369785693217265
 40
0.317439816075713
 40
0.3936615824744704
 40
0.4721830276909459
 40
0.5469240757152619
 40
0.6238523130449315
 40
0.6983189620749424
 40
0.7748908420225374
 40
0.8503894607880084
 40
0.9279814901989352
 40
1.0
 40
1.0
 40
1.0
 40
1.0
 10
255.3946029627764
 20
64.60413112033912
 30
0.0
 10
255.4141559340246
 20
64.61552885416287
 30
0.0
 10
255.453830169128
 20
64.63865558849028
 30
0.0
 10
255.5046356672055
 20
64.68511561696083
 30
0.0
 10
255.5476467665768
 20
64.73934007811856
 30
0.0
 10
255.5799735309105
 20
64.7992613438626
 30
0.0
 10
255.6015628457177
 20
64.86388424209588
 30
0.0
 10
255.6115009978926
 20
64.92966174478062
 30
0.0
 10
255.6100716323513
 20
64.99632825814437
 30
0.0
 10
255.5976349526588
 20
65.06067500699089
 30
0.0
 10
255.574414327735
 20
65.12248123008979
 30
0.0
 10
255.5414991580447
 20
65.17929312169827
 30
0.0
 10
255.4990219892409
 20
65.23040336006214
 30
0.0
 10
255.4500414416467
 20
65.27367289060615
 30
0.0
 10
255.4126177340876
 20
65.29530188993391
 30
0.0
 10
255.3946029627764
 20
65.3057135113897
 30
0.0
  0
LINE
  5
D5
330
1F
100
AcDbEntity
  8
0
  6
Continuous
 62
     7
370
    15
100
AcDbLine
 10
250.856132099
 20
65.841933149
 30
0.0
 11
246.2161614773
 21
68.2573489702
 31
0.0
  0
LINE
  5
D6
330
1F
100
AcDbEntity
  8
0
  6
Continuous
 62
     7
370
    15
100
AcDbLine
 10
240.6526936292
 20
64.0679114827
 30
0.0
 11
245.2926642509
 21
61.6524956615
 31
0.0
  0
ARC
  5
D7
330
1F
100
AcDbEntity
  8
0
  6
Continuous
 62
     7
370
    15
100
AcDbCircle
 10
241.1144422424
 20
64.9549223159
 30
0.0
 40
1.000000000000007
100
AcDbArc
 50
117.5
 51
242.5
  0
LINE
  5
D8
330
1F
100
AcDbEntity
  8
0
  6
Continuous
 62
     7
370
    15
100
AcDbLine
 10
245.2926642509
 20
68.2573489702
 30
0.0
 11
240.6526936292
 21
65.841933149
 31
0.0
  0
ARC
  5
D9
330
1F
100
AcDbEntity
  8
0
  6
Continuous
 62
     7
370
    15
100
AcDbCircle
 10
245.7544128641
 20
67.370338137
 30
0.0
 40
1.000000000000008
100
AcDbArc
 50
62.5
 51
117.5
  0
ARC
  5
DA
330
1F
100
AcDbEntity
  8
0
  6
Continuous
 62
     7
370
    15
100
AcDbCircle
 10
250.3943834858
 20
64.9549223159
 30
0.0
 40
1.000000000295363
100
AcDbArc
 50
297.5
 51
62.5
  0
LINE
  5
DB
330
1F
100
AcDbEntity
  8
0
  6
Continuous
 62
     7
370
    15
100
AcDbLine
 10
246.2161614773
 20
61.6524956615
 30
0.0
 11
250.8561320991
 21
64.0679114824
 31
0.0
  0
ARC
  5
DC
330
1F
100
AcDbEntity
  8
0
  6
Continuous
 62
     7
370
    15
100
AcDbCircle
 10
245.7544128641
 20
62.5395064947
 30
0.0
 40
1.000000000000044
100
AcDbArc
 50
242.5
 51
297.5
  0
CIRCLE
  5
DD
330
1F
100
AcDbEntity
  8
0
  6
Continuous
 62
     7
370
    15
100
AcDbCircle
 10
245.7544128641
 20
64.9549223159
 30
0.0
 40
3.049999999999994
  0
LINE
  5
DE
330
1F
100
AcDbEntity
  8
0
  6
Continuous
 62
     7
370
    15
100
AcDbLine
 10
245.7544128641
 20
69.8731260591
 30
0.0
 11
245.5789483911
 21
70.2101901757
 31
0.0
  0
LINE
  5
DF
330
1F
100
AcDbEntity
  8
0
  6
Continuous
 62
     7
370
    15
100
AcDbLine
 10
236.3066313766
 20
64.9549223159
 30
0.0
 11
236.1311669036
 21
65.2919864325
 31
0.0
  0
LINE
  5
E0
330
1F
100
AcDbEntity
  8
0
  6
Continuous
 62
     7
370
    15
100
AcDbLine
 10
255.2021943516
 20
64.9549223159
 30
0.0
 11
255.3776588246
 21
64.6178581993
 31
0.0
  0
LINE
  5
E1
330
1F
100
AcDbEntity
  8
0
  6
Continuous
 62
     7
370
    15
100
AcDbLine
 10
245.7544128641
 20
60.0367185727
 30
0.0
 11
245.9298773371
 21
59.6996544561
 31
0.0
  0
SPLINE
  5
E2
330
1F
100
AcDbEntity
  8
0
  6
Continuous
 62
     7
370
    15
100
AcDbSpline
210
0.0
220
0.0
230
1.0
 70
    24
 71
     3
 72
    11
 73
     7
 74
     0
 42
0.00000001
 43
0.00000001
 12
1.0
 22
0.0
 32
0.0
 13
1.0
 23
0.0
 33
0.0
 40
0.0
 40
0.0
 40
0.0
 40
0.0
 40
0.0072987238691708
 40
0.1268462096079473
 40
0.5874298328383124
 40
1.0
 40
1.0
 40
1.0
 40
1.0
 10
252.5071872588555
 20
64.95492231586442
 30
0.0
 10
252.5086872714111
 20
64.95492231586445
 30
0.0
 10
252.5347563364203
 20
64.95492231586492
 30
0.0
 10
252.658221377749
 20
64.95492231586353
 30
0.0
 10
252.8898594159561
 20
64.95492231586505
 30
0.0
 10
253.096905797372
 20
64.95492231586405
 30
0.0
 10
253.1947363984997
 20
64.9549223158636
 30
0.0
  0
SPLINE
  5
E3
330
1F
100
AcDbEntity
  8
0
  6
Continuous
 62
     7
370
    15
100
AcDbSpline
210
0.0
220
0.0
230
1.0
 70
    24
 71
     3
 72
    13
 73
     9
 74
     0
 42
0.00000001
 43
0.00000001
 12
1.0
 22
0.0
 32
0.0
 13
1.0
 23
0.0
 33
0.0
 40
0.0
 40
0.0
 40
0.0
 40
0.0
 40
0.2028032316190655
 40
0.4129496756857696
 40
0.6399829593560895
 40
0.8735763818373412
 40
0.9927255920193307
 40
1.0
 40
1.0
 40
1.0
 40
1.0
 10
238.3140893297017
 20
64.95492231586445
 30
0.0
 10
238.3614967138674
 20
64.95492231586445
 30
0.0
 10
238.4580280351885
 20
64.95492231586442
 30
0.0
 10
238.6114583815202
 20
64.95492231586447
 30
0.0
 10
238.7685095569487
 20
64.95492231586452
 30
0.0
 10
238.8980308623172
 20
64.95492231586415
 30
0.0
 10
238.974070253548
 20
64.9549223158648
 30
0.0
 10
239.0001385036787
 20
64.95492231586445
 30
0.0
 10
239.0016384693461
 20
64.95492231586444
 30
0.0
  0
SPLINE
  5
E4
330
1F
100
AcDbEntity
  8
0
  6
HIDDEN
 62
     7
370
     0
100
AcDbSpline
210
0.0
220
0.0
230
1.0
 70
     8
 71
     3
 72
    60
 73
    56
 74
     0
 42
0.00000001
 43
0.00000001
 12
1.0
 22
0.0
 32
0.0
 13
1.0
 23
0.0
 33
0.0
 40
-0.0624999999999998
 40
-0.0624999999999998
 40
0.0
 40
0.0
 40
0.0312499999999999
 40
0.0312499999999999
 40
0.0624999999999998
 40
0.0624999999999998
 40
0.0937499999999997
 40
0.0937499999999997
 40
0.1249999999999996
 40
0.1249999999999996
 40
0.1874999999999993
 40
0.1874999999999993
 40
0.249999999999999
 40
0.249999999999999
 40
0.2812499999999991
 40
0.2812499999999991
 40
0.3124999999999992
 40
0.3124999999999992
 40
0.3437499999999992
 40
0.3437499999999992
 40
0.3749999999999993
 40
0.3749999999999993
 40
0.4062499999999994
 40
0.4062499999999994
 40
0.4374999999999994
 40
0.4374999999999994
 40
0.4687499999999996
 40
0.4687499999999996
 40
0.4999999999999997
 40
0.4999999999999997
 40
0.5624999999999998
 40
0.5624999999999998
 40
0.625
 40
0.625
 40
0.65625
 40
0.65625
 40
0.6875
 40
0.6875
 40
0.71875
 40
0.71875
 40
0.75
 40
0.75
 40
0.7812500000000001
 40
0.7812500000000001
 40
0.8125000000000001
 40
0.8125000000000001
 40
0.8437500000000001
 40
0.8437500000000001
 40
0.8750000000000001
 40
0.8750000000000001
 40
0.9062500000000001
 40
0.9062500000000001
 40
0.9375000000000002
 40
0.9375000000000002
 40
1.0
 40
1.0
 40
1.03125
 40
1.03125
 10
139.6021943515993
 20
64.69059179077772
 30
0.0
 10
139.6021943515993
 20
65.08708757840778
 30
0.0
 10
139.5892224931104
 20
65.21703763941191
 30
0.0
 10
139.5384023234181
 20
65.47269057277201
 30
0.0
 10
139.4999349999512
 20
65.59972007932133
 30
0.0
 10
139.3995367638791
 20
65.84190821044585
 30
0.0
 10
139.3381037329059
 20
65.95676970299871
 30
0.0
 10
139.1929689013609
 20
66.17414989882285
 30
0.0
 10
139.1085137839531
 20
66.27704746602147
 30
0.0
 10
138.8317943335948
 20
66.55371450502925
 30
0.0
 10
138.6087174416767
 20
66.70271259550924
 30
0.0
 10
138.1274340794564
 20
66.90222373597393
 30
0.0
 10
137.8642036604654
 20
66.95478183897063
 30
0.0
 10
137.4728014587775
 20
66.95499212134872
 30
0.0
 10
137.3402784306686
 20
66.94200635062158
 30
0.0
 10
137.0837479774275
 20
66.89097920240778
 30
0.0
 10
136.959061143131
 20
66.85322400325738
 30
0.0
 10
136.7168818808954
 20
66.75308567034864
 30
0.0
 10
136.5997883487453
 20
66.69048000293711
 30
0.0
 10
136.3830733453899
 20
66.54574670967216
 30
0.0
 10
136.2820545185272
 20
66.46311936239258
 30
0.0
 10
136.095269631075
 20
66.276514309141
 30
0.0
 10
136.0124127498788
 20
66.17539924526483
 30
0.0
 10
135.867528484805
 20
65.95886644127498
 30
0.0
 10
135.8048909769841
 20
65.84199623367387
 30
0.0
 10
135.7044421535843
 20
65.5996983630237
 30
0.0
 10
135.6665910525671
 20
65.47503436456273
 30
0.0
 10
135.6153694873107
 20
65.21874732049888
 30
0.0
 10
135.6022413606935
 20
65.08617532475327
 30
0.0
 10
135.6021007203533
 20
64.6945711319793
 30
0.0
 10
135.6544254697251
 20
64.43140580065534
 30
0.0
 10
135.8535365317824
 20
63.9499004314822
 30
0.0
 10
136.0023988682396
 20
63.72664889199811
 30
0.0
 10
136.2787198275651
 20
63.44979259310924
 30
0.0
 10
136.3814834759387
 20
63.36527914626554
 30
0.0
 10
136.5988670333181
 20
63.21986187282527
 30
0.0
 10
136.7136658012746
 20
63.15835067376689
 30
0.0
 10
136.9555425246986
 20
63.05782082551206
 30
0.0
 10
137.0826961326988
 20
63.01917580229406
 30
0.0
 10
137.3383621421314
 20
62.96811947474308
 30
0.0
 10
137.4682281798875
 20
62.95505461619745
 30
0.0
 10
137.7321807066191
 20
62.95479199539951
 30
0.0
 10
137.8625850300431
 20
62.96766899564354
 30
0.0
 10
138.1182357934225
 20
63.01825499944934
 30
0.0
 10
138.2451013425368
 20
63.05653136407118
 30
0.0
 10
138.4876218004828
 20
63.1568022315512
 30
0.0
 10
138.6025484391431
 20
63.21815825569209
 30
0.0
 10
138.8199199079751
 20
63.36300455086489
 30
0.0
 10
138.9229337206373
 20
63.44738206535953
 30
0.0
 10
139.1076342662193
 20
63.6317893855478
 30
0.0
 10
139.1904640004759
 20
63.73236244881725
 30
0.0
 10
139.3367164390734
 20
63.95058858939623
 30
0.0
 10
139.3990849198657
 20
64.06714369931748
 30
0.0
 10
139.5490410714325
 20
64.42799329335126
 30
0.0
 10
139.6021943515993
 20
64.69059179077772
 30
0.0
 10
139.6021943515993
 20
65.08708757840778
 30
0.0
  0
SPLINE
  5
E5
330
1F
100
AcDbEntity
  8
0
  6
HIDDEN
 62
     7
370
     0
100
AcDbSpline
210
0.0
220
0.0
230
1.0
 70
     8
 71
     3
 72
    12
 73
     8
 74
     0
 42
0.00000001
 43
0.00000001
 12
1.0
 22
0.0
 32
0.0
 13
1.0
 23
0.0
 33
0.0
 40
0.0
 40
0.0
 40
0.0
 40
0.0
 40
0.4999999999999981
 40
0.4999999999999981
 40
0.749999999999999
 40
0.749999999999999
 40
1.0
 40
1.0
 40
1.0
 40
1.0
 10
135.6969384632735
 20
55.04555299517921
 30
0.0
 10
135.7276607051926
 20
55.15810879458839
 30
0.0
 10
135.7704979197277
 20
55.27086665432798
 30
0.0
 10
135.8699249439275
 20
55.42040754012434
 30
0.0
 10
135.9096771387442
 20
55.46770027183121
 30
0.0
 10
136.0077185956024
 20
55.54143656515264
 30
0.0
 10
136.0672746511899
 20
55.56685588452836
 30
0.0
 10
136.1299511651657
 20
55.56685588452836
 30
0.0
  0
LINE
  5
E6
330
1F
100
AcDbEntity
  8
0
  6
HIDDEN
 62
     7
370
     0
100
AcDbLine
 10
136.1299511652
 20
55.5668558845
 30
0.0
 11
139.074437538
 21
55.5668558845
 31
0.0
  0
SPLINE
  5
E7
330
1F
100
AcDbEntity
  8
0
  6
HIDDEN
 62
     7
370
     0
100
AcDbSpline
210
0.0
220
0.0
230
1.0
 70
     8
 71
     3
 72
    12
 73
     8
 74
     0
 42
0.00000001
 43
0.00000001
 12
1.0
 22
0.0
 32
0.0
 13
1.0
 23
0.0
 33
0.0
 40
0.0
 40
0.0
 40
0.0
 40
0.0
 40
0.25
 40
0.25
 40
0.5
 40
0.5
 40
1.0
 40
1.0
 40
1.0
 40
1.0
 10
139.0744375380328
 20
55.56685588452837
 30
0.0
 10
139.1375175765262
 20
55.56685588452837
 30
0.0
 10
139.1966661987076
 20
55.54149156531343
 30
0.0
 10
139.2951387487767
 20
55.46732670494051
 30
0.0
 10
139.3341753607614
 20
55.42080636438637
 30
0.0
 10
139.4340718275404
 20
55.27066402154113
 30
0.0
 10
139.4764927086071
 20
55.15897081456899
 30
0.0
 10
139.507450239925
 20
55.04555299517922
 30
0.0
  0
ELLIPSE
  5
E8
330
1F
100
AcDbEntity
  8
0
  6
HIDDEN
 62
     7
370
     0
100
AcDbEllipse
 10
123.2550401622
 20
64.9549223159
 30
0.0
 11
-14.75368316065612
 21
31.09325491558116
 31
0.0
210
0.0
220
0.0
230
1.0
 40
0.3419987131
 41
3.300734856217129
 42
4.231496223360779
  0
SPLINE
  5
E9
330
1F
100
AcDbEntity
  8
0
  6
HIDDEN
 62
     7
370
     0
100
AcDbSpline
210
0.0
220
0.0
230
1.0
 70
     8
 71
     3
 72
    12
 73
     8
 74
     0
 42
0.00000001
 43
0.00000001
 12
1.0
 22
0.0
 32
0.0
 13
1.0
 23
0.0
 33
0.0
 40
0.0
 40
0.0
 40
0.0
 40
0.0
 40
0.4999999999999953
 40
0.4999999999999953
 40
0.7499999999999977
 40
0.7499999999999977
 40
1.0
 40
1.0
 40
1.0
 40
1.0
 10
139.507450239925
 20
35.05417985574721
 30
0.0
 10
139.4767279980059
 20
35.01687787279418
 30
0.0
 10
139.4338907834708
 20
34.98026604074778
 30
0.0
 10
139.334463759271
 20
34.93250125746257
 30
0.0
 10
139.2947115644544
 20
34.91754374198021
 30
0.0
 10
139.1966701075961
 20
34.89435379621106
 30
0.0
 10
139.1371140520087
 20
34.88643035699135
 30
0.0
 10
139.0744375380328
 20
34.88643035699135
 30
0.0
  0
LINE
  5
EA
330
1F
100
AcDbEntity
  8
0
  6
HIDDEN
 62
     7
370
     0
100
AcDbLine
 10
139.074437538
 20
34.886430357
 30
0.0
 11
136.1299511652
 21
34.886430357
 31
0.0
  0
SPLINE
  5
EB
330
1F
100
AcDbEntity
  8
0
  6
HIDDEN
 62
     7
370
     0
100
AcDbSpline
210
0.0
220
0.0
230
1.0
 70
     8
 71
     3
 72
    12
 73
     8
 74
     0
 42
0.00000001
 43
0.00000001
 12
1.0
 22
0.0
 32
0.0
 13
1.0
 23
0.0
 33
0.0
 40
0.0
 40
0.0
 40
0.0
 40
0.0
 40
0.2499999999999999
 40
0.2499999999999999
 40
0.4999999999999999
 40
0.4999999999999999
 40
1.0
 40
1.0
 40
1.0
 40
1.0
 10
136.1299511651657
 20
34.88643035699135
 30
0.0
 10
136.0668711266724
 20
34.88643035699135
 30
0.0
 10
136.0077225044909
 20
34.89433628320379
 30
0.0
 10
135.9092499544219
 20
34.91766144464003
 30
0.0
 10
135.8702133424372
 20
34.93237423447172
 30
0.0
 10
135.7703168756581
 20
34.98033003520266
 30
0.0
 10
135.7278959945914
 20
35.01659219178272
 30
0.0
 10
135.6969384632735
 20
35.05417985574721
 30
0.0
  0
ELLIPSE
  5
EC
330
1F
100
AcDbEntity
  8
0
  6
HIDDEN
 62
     7
370
     0
100
AcDbEllipse
 10
151.949348541
 20
64.9549223159
 30
0.0
 11
14.75368316065613
 21
31.09325491558114
 31
0.0
210
0.0
220
0.0
230
1.0
 40
0.3419987131
 41
2.05168908381882
 42
2.982450450962495
  0
SPLINE
  5
ED
330
1F
100
AcDbEntity
  8
0
  6
HIDDEN
 62
     7
370
     0
100
AcDbSpline
210
0.0
220
0.0
230
1.0
 70
     8
 71
     3
 72
    12
 73
     8
 74
     0
 42
0.00000001
 43
0.00000001
 12
1.0
 22
0.0
 32
0.0
 13
1.0
 23
0.0
 33
0.0
 40
0.0
 40
0.0
 40
0.0
 40
0.0
 40
0.4999999999999963
 40
0.4999999999999963
 40
0.7499999999999981
 40
0.7499999999999981
 40
1.0
 40
1.0
 40
1.0
 40
1.0
 10
135.6969384632735
 20
94.85566477598178
 30
0.0
 10
135.7276607051926
 20
94.89296675893483
 30
0.0
 10
135.7704979197277
 20
94.9295785909812
 30
0.0
 10
135.8699249439275
 20
94.97734337426641
 30
0.0
 10
135.9096771387442
 20
94.99230088974878
 30
0.0
 10
136.0077185956024
 20
95.01549083551791
 30
0.0
 10
136.0672746511899
 20
95.02341427473762
 30
0.0
 10
136.1299511651657
 20
95.02341427473763
 30
0.0
  0
LINE
  5
EE
330
1F
100
AcDbEntity
  8
0
  6
HIDDEN
 62
     7
370
     0
100
AcDbLine
 10
136.1299511652
 20
95.0234142747
 30
0.0
 11
139.074437538
 21
95.0234142747
 31
0.0
  0
SPLINE
  5
EF
330
1F
100
AcDbEntity
  8
0
  6
HIDDEN
 62
     7
370
     0
100
AcDbSpline
210
0.0
220
0.0
230
1.0
 70
     8
 71
     3
 72
    12
 73
     8
 74
     0
 42
0.00000001
 43
0.00000001
 12
1.0
 22
0.0
 32
0.0
 13
1.0
 23
0.0
 33
0.0
 40
0.0
 40
0.0
 40
0.0
 40
0.0
 40
0.2499999999999991
 40
0.2499999999999991
 40
0.4999999999999982
 40
0.4999999999999982
 40
1.0
 40
1.0
 40
1.0
 40
1.0
 10
139.0744375380328
 20
95.02341427473762
 30
0.0
 10
139.1375175765262
 20
95.02341427473763
 30
0.0
 10
139.1966661987076
 20
95.01550834852517
 30
0.0
 10
139.2951387487767
 20
94.99218318708897
 30
0.0
 10
139.3341753607614
 20
94.97747039725726
 30
0.0
 10
139.4340718275404
 20
94.92951459652633
 30
0.0
 10
139.4764927086071
 20
94.89325243994625
 30
0.0
 10
139.507450239925
 20
94.85566477598177
 30
0.0
  0
ELLIPSE
  5
F0
330
1F
100
AcDbEntity
  8
0
  6
HIDDEN
 62
     7
370
     0
100
AcDbEllipse
 10
123.2550401622
 20
64.9549223159
 30
0.0
 11
14.75368316065626
 21
31.09325491558114
 31
0.0
210
0.0
220
0.0
230
1.0
 40
0.3419987131
 41
5.193281737408638
 42
6.124043104552343
  0
SPLINE
  5
F1
330
1F
100
AcDbEntity
  8
0
  6
HIDDEN
 62
     7
370
     0
100
AcDbSpline
210
0.0
220
0.0
230
1.0
 70
     8
 71
     3
 72
    12
 73
     8
 74
     0
 42
0.00000001
 43
0.00000001
 12
1.0
 22
0.0
 32
0.0
 13
1.0
 23
0.0
 33
0.0
 40
0.0
 40
0.0
 40
0.0
 40
0.0
 40
0.5
 40
0.5
 40
0.75
 40
0.75
 40
1.0
 40
1.0
 40
1.0
 40
1.0
 10
139.507450239925
 20
74.86429163655006
 30
0.0
 10
139.4767279980059
 20
74.75173583714087
 30
0.0
 10
139.4338907834708
 20
74.63897797740128
 30
0.0
 10
139.334463759271
 20
74.48943709160493
 30
0.0
 10
139.2947115644543
 20
74.44214435989805
 30
0.0
 10
139.1966701075961
 20
74.36840806657663
 30
0.0
 10
139.1371140520087
 20
74.3429887472009
 30
0.0
 10
139.0744375380328
 20
74.3429887472009
 30
0.0
  0
LINE
  5
F2
330
1F
100
AcDbEntity
  8
0
  6
HIDDEN
 62
     7
370
     0
100
AcDbLine
 10
139.074437538
 20
74.3429887472
 30
0.0
 11
136.1299511652
 21
74.3429887472
 31
0.0
  0
SPLINE
  5
F3
330
1F
100
AcDbEntity
  8
0
  6
HIDDEN
 62
     7
370
     0
100
AcDbSpline
210
0.0
220
0.0
230
1.0
 70
     8
 71
     3
 72
    12
 73
     8
 74
     0
 42
0.00000001
 43
0.00000001
 12
1.0
 22
0.0
 32
0.0
 13
1.0
 23
0.0
 33
0.0
 40
0.0
 40
0.0
 40
0.0
 40
0.0
 40
0.2500000000000009
 40
0.2500000000000009
 40
0.5000000000000018
 40
0.5000000000000018
 40
1.0
 40
1.0
 40
1.0
 40
1.0
 10
136.1299511651657
 20
74.34298874720092
 30
0.0
 10
136.0668711266724
 20
74.34298874720092
 30
0.0
 10
136.0077225044909
 20
74.36835306641586
 30
0.0
 10
135.9092499544219
 20
74.44251792678877
 30
0.0
 10
135.8702133424372
 20
74.4890382673429
 30
0.0
 10
135.7703168756581
 20
74.63918061018815
 30
0.0
 10
135.7278959945915
 20
74.7508738171603
 30
0.0
 10
135.6969384632735
 20
74.86429163655005
 30
0.0
  0
ELLIPSE
  5
F4
330
1F
100
AcDbEntity
  8
0
  6
HIDDEN
 62
     7
370
     0
100
AcDbEllipse
 10
151.949348541
 20
64.9549223159
 30
0.0
 11
-14.75368316065627
 21
31.09325491558116
 31
0.0
210
0.0
220
0.0
230
1.0
 40
0.3419987131
 41
0.1591422026272856
 42
1.089903569770962
  0
ELLIPSE
  5
F5
330
1F
100
AcDbEntity
  8
0
  6
HIDDEN
 62
     7
370
     0
100
AcDbEllipse
 10
255.4187624086
 20
64.9549223159
 30
0.0
 11
61.06272678867805
 21
31.3136530307888
 31
0.0
210
0.0
220
0.0
230
1.0
 40
0.0560288874
 41
1.688656105497682
 42
3.250419293298576
  0
ELLIPSE
  5
F6
330
1F
100
AcDbEntity
  8
0
  6
HIDDEN
 62
     7
370
     0
100
AcDbEllipse
 10
254.8721661376
 20
64.9549223159
 30
0.0
 11
0.0
 21
31.49999999999998
 31
0.0
210
0.0
220
0.0
230
1.0
 40
0.2659121379
 41
1.56176318780062
 42
1.579829465789174
  0
ELLIPSE
  5
F7
330
1F
100
AcDbEntity
  8
0
  6
HIDDEN
 62
     7
370
     0
100
AcDbEllipse
 10
255.4187624086
 20
64.9549223159
 30
0.0
 11
61.06272678867805
 21
-31.31365303078882
 31
0.0
210
0.0
220
0.0
230
1.0
 40
0.0560288874
 41
3.032766013881264
 42
4.59452920168191
  0
LINE
  5
F8
330
1F
100
AcDbEntity
  8
0
  6
HIDDEN
 62
     7
370
     0
100
AcDbLine
 10
125.6021943516
 20
33.9549223159
 30
0.0
 11
125.6021943516
 21
95.9549223159
 31
0.0
  0
CIRCLE
  5
F9
330
1F
100
AcDbEntity
  8
0
  6
HIDDEN
 62
     7
370
     0
100
AcDbCircle
 10
192.6021943516
 20
64.9549223159
 30
0.0
 40
2.5
  0
CIRCLE
  5
FA
330
1F
100
AcDbEntity
  8
0
  6
HIDDEN
 62
     7
370
     0
100
AcDbCircle
 10
192.6021943516
 20
64.9549223159
 30
0.0
 40
3.0
  0
LINE
  5
FB
330
1F
100
AcDbEntity
  8
0
  6
HIDDEN
 62
     7
370
     0
100
AcDbLine
 10
125.6021943516
 20
40.7049223159
 30
0.0
 11
125.6021943516
 21
89.2049223159
 31
0.0
  0
SPLINE
  5
FC
330
1F
100
AcDbEntity
  8
0
  6
HIDDEN
 62
     7
370
     0
100
AcDbSpline
210
0.0
220
0.0
230
1.0
 70
     8
 71
     3
 72
    12
 73
     8
 74
     0
 42
0.00000001
 43
0.00000001
 12
1.0
 22
0.0
 32
0.0
 13
1.0
 23
0.0
 33
0.0
 40
0.0
 40
0.0
 40
0.0
 40
0.0
 40
0.5000000000000007
 40
0.5000000000000007
 40
0.7500000000000003
 40
0.7500000000000003
 40
1.0
 40
1.0
 40
1.0
 40
1.0
 10
124.7856820651522
 20
80.40719029769531
 30
0.0
 10
124.8420882438325
 20
80.35936792403547
 30
0.0
 10
124.9122511453043
 20
80.3190970770969
 30
0.0
 10
125.0302618586934
 20
80.31105120861996
 30
0.0
 10
125.0704676422889
 20
80.31761380695885
 30
0.0
 10
125.144188339022
 20
80.34499590141247
 30
0.0
 10
125.1770490608085
 20
80.36475739194282
 30
0.0
 10
125.2072174627378
 20
80.38769010313086
 30
0.0
  0
SPLINE
  5
FD
330
1F
100
AcDbEntity
  8
0
  6
HIDDEN
 62
     7
370
     0
100
AcDbSpline
210
0.0
220
0.0
230
1.0
 70
     8
 71
     3
 72
    16
 73
    12
 74
     0
 42
0.00000001
 43
0.00000001
 12
1.0
 22
0.0
 32
0.0
 13
1.0
 23
0.0
 33
0.0
 40
0.0
 40
0.0
 40
0.0
 40
0.0
 40
0.0625000000000009
 40
0.0625000000000009
 40
0.1250000000000018
 40
0.1250000000000018
 40
0.2500000000000019
 40
0.2500000000000019
 40
0.5000000000000064
 40
0.5000000000000064
 40
1.0
 40
1.0
 40
1.0
 40
1.0
 10
125.2072174626926
 20
80.38769010317895
 30
0.0
 10
125.218830362532
 20
80.39651772616035
 30
0.0
 10
125.2321815469645
 20
80.40435210804226
 30
0.0
 10
125.2615813865836
 20
80.41266223411463
 30
0.0
 10
125.2764221111389
 20
80.41216641487961
 30
0.0
 10
125.3122553191075
 20
80.40071544391024
 30
0.0
 10
125.3263685269291
 20
80.38403494305162
 30
0.0
 10
125.360859898148
 20
80.33191425729457
 30
0.0
 10
125.3719439692584
 20
80.29212476326957
 30
0.0
 10
125.3980667870544
 20
80.16878813117243
 30
0.0
 10
125.4021943515993
 20
80.08136672067381
 30
0.0
 10
125.4021943515993
 20
79.99262947835558
 30
0.0
  0
LINE
  5
FE
330
1F
100
AcDbEntity
  8
0
  6
HIDDEN
 62
     7
370
     0
100
AcDbLine
 10
125.4021943516
 20
49.9172151534
 30
0.0
 11
125.4021943516
 21
79.9926294784
 31
0.0
  0
SPLINE
  5
FF
330
1F
100
AcDbEntity
  8
0
  6
HIDDEN
 62
     7
370
     0
100
AcDbSpline
210
0.0
220
0.0
230
1.0
 70
     8
 71
     3
 72
    16
 73
    12
 74
     0
 42
0.00000001
 43
0.00000001
 12
1.0
 22
0.0
 32
0.0
 13
1.0
 23
0.0
 33
0.0
 40
0.0
 40
0.0
 40
0.0
 40
0.0
 40
0.5000000000000066
 40
0.5000000000000066
 40
0.7500000000000098
 40
0.7500000000000098
 40
0.8750000000000041
 40
0.8750000000000041
 40
0.9375000000000021
 40
0.9375000000000021
 40
1.0
 40
1.0
 40
1.0
 40
1.0
 10
125.4021943515993
 20
49.91721515337326
 30
0.0
 10
125.4021943515993
 20
49.82808878818452
 30
0.0
 10
125.3980480765213
 20
49.74122742057111
 30
0.0
 10
125.3720824811278
 20
49.61824517407707
 30
0.0
 10
125.3606215757503
 20
49.57747387884579
 30
0.0
 10
125.326309837976
 20
49.52576955884602
 30
0.0
 10
125.3122851020463
 20
49.50909919225562
 30
0.0
 10
125.2762621390126
 20
49.49764697179889
 30
0.0
 10
125.2615076299229
 20
49.49719392552387
 30
0.0
 10
125.2321554687761
 20
49.50550924674003
 30
0.0
 10
125.218815594272
 20
49.51333813181832
 30
0.0
 10
125.2072174627236
 20
49.52215452858096
 30
0.0
  0
SPLINE
  5
100
330
1F
100
AcDbEntity
  8
0
  6
HIDDEN
 62
     7
370
     0
100
AcDbSpline
210
0.0
220
0.0
230
1.0
 70
     8
 71
     3
 72
    12
 73
     8
 74
     0
 42
0.00000001
 43
0.00000001
 12
1.0
 22
0.0
 32
0.0
 13
1.0
 23
0.0
 33
0.0
 40
0.0
 40
0.0
 40
0.0
 40
0.0
 40
0.2499999999999994
 40
0.2499999999999994
 40
0.4999999999999991
 40
0.4999999999999991
 40
1.0
 40
1.0
 40
1.0
 40
1.0
 10
125.2072174627307
 20
49.52215452858983
 30
0.0
 10
125.1770256210135
 20
49.54510505768765
 30
0.0
 10
125.1436666515989
 20
49.56507453171183
 30
0.0
 10
125.0705293670183
 20
49.59217566533732
 30
0.0
 10
125.0302874943643
 20
49.59877640598276
 30
0.0
 10
124.9125817173958
 20
49.59080753147606
 30
0.0
 10
124.8421712396164
 20
49.55054707330819
 30
0.0
 10
124.7856820651481
 20
49.50265433403003
 30
0.0
  0
SPLINE
  5
101
330
1F
100
AcDbEntity
  8
0
  6
HIDDEN
 62
     7
370
     0
100
AcDbSpline
210
0.0
220
0.0
230
1.0
 70
     8
 71
     3
 72
    12
 73
     8
 74
     0
 42
0.00000001
 43
0.00000001
 12
1.0
 22
0.0
 32
0.0
 13
1.0
 23
0.0
 33
0.0
 40
0.0
 40
0.0
 40
0.0
 40
0.0
 40
0.2500000000000012
 40
0.2500000000000012
 40
0.4999999999999996
 40
0.4999999999999996
 40
1.0
 40
1.0
 40
1.0
 40
1.0
 10
124.7856820651477
 20
49.50265433403024
 30
0.0
 10
124.69752812741
 20
49.42791552617616
 30
0.0
 10
124.6371747027813
 20
49.33693502569377
 30
0.0
 10
124.5309127447144
 20
49.14802120294117
 30
0.0
 10
124.4886805781524
 20
49.0515167434006
 30
0.0
 10
124.3776098828352
 20
48.76074898923344
 30
0.0
 10
124.3246731064084
 20
48.5650821746897
 30
0.0
 10
124.2808740080396
 20
48.37101568962339
 30
0.0
  0
SPLINE
  5
102
330
1F
100
AcDbEntity
  8
0
  6
HIDDEN
 62
     7
370
     0
100
AcDbSpline
210
0.0
220
0.0
230
1.0
 70
     8
 71
     3
 72
    12
 73
     8
 74
     0
 42
0.00000001
 43
0.00000001
 12
1.0
 22
0.0
 32
0.0
 13
1.0
 23
0.0
 33
0.0
 40
0.0
 40
0.0
 40
0.0
 40
0.0
 40
0.4999999999999991
 40
0.4999999999999991
 40
0.7499999999999996
 40
0.7499999999999996
 40
1.0
 40
1.0
 40
1.0
 40
1.0
 10
124.2808740080396
 20
43.18484136086231
 30
0.0
 10
124.3246205488762
 20
43.15824719022114
 30
0.0
 10
124.3775049041077
 20
43.13848696489542
 30
0.0
 10
124.4890719914439
 20
43.11803597466633
 30
0.0
 10
124.5316555879868
 20
43.1127757500099
 30
0.0
 10
124.6365723150686
 20
43.10489295608724
 30
0.0
 10
124.6981059229134
 20
43.10232883090809
 30
0.0
 10
124.7856820651396
 20
43.10012861338845
 30
0.0
  0
LINE
  5
103
330
1F
100
AcDbEntity
  8
0
  6
HIDDEN
 62
     7
370
     0
100
AcDbLine
 10
125.4021943516
 20
42.415102037
 30
0.0
 11
125.4021943516
 21
42.8953278276
 31
0.0
  0
LINE
  5
104
330
1F
100
AcDbEntity
  8
0
  6
HIDDEN
 62
     7
370
     0
100
AcDbLine
 10
125.4021943516
 20
87.0145168041
 30
0.0
 11
125.4021943516
 21
87.4947425947
 31
0.0
  0
SPLINE
  5
105
330
1F
100
AcDbEntity
  8
0
  6
HIDDEN
 62
     7
370
     0
100
AcDbSpline
210
0.0
220
0.0
230
1.0
 70
     8
 71
     3
 72
    12
 73
     8
 74
     0
 42
0.00000001
 43
0.00000001
 12
1.0
 22
0.0
 32
0.0
 13
1.0
 23
0.0
 33
0.0
 40
0.0
 40
0.0
 40
0.0
 40
0.0
 40
0.2500000000000001
 40
0.2500000000000001
 40
0.5000000000000001
 40
0.5000000000000001
 40
1.0
 40
1.0
 40
1.0
 40
1.0
 10
124.7856820651476
 20
86.80971601834034
 30
0.0
 10
124.6969974052912
 20
86.80748795099933
 30
0.0
 10
124.6370789895678
 20
86.804986166969
 30
0.0
 10
124.5314197622471
 20
86.797054731133
 30
0.0
 10
124.4887785241321
 20
86.79176257623617
 30
0.0
 10
124.3775891820296
 20
86.77135763574901
 30
0.0
 10
124.3246624999086
 20
86.75162294416215
 30
0.0
 10
124.2808740080396
 20
86.72500327086655
 30
0.0
  0
SPLINE
  5
106
330
1F
100
AcDbEntity
  8
0
  6
HIDDEN
 62
     7
370
     0
100
AcDbSpline
210
0.0
220
0.0
230
1.0
 70
     8
 71
     3
 72
    12
 73
     8
 74
     0
 42
0.00000001
 43
0.00000001
 12
1.0
 22
0.0
 32
0.0
 13
1.0
 23
0.0
 33
0.0
 40
0.0
 40
0.0
 40
0.0
 40
0.0
 40
0.4999999999999982
 40
0.4999999999999982
 40
0.7499999999999991
 40
0.7499999999999991
 40
1.0
 40
1.0
 40
1.0
 40
1.0
 10
124.280874008038
 20
81.53882894210568
 30
0.0
 10
124.3246354843368
 20
81.3449291541436
 30
0.0
 10
124.3775417999898
 20
81.14907279020673
 30
0.0
 10
124.4892529976372
 20
80.85693064370777
 30
0.0
 10
124.5317724412236
 20
80.76021270700986
 30
0.0
 10
124.636895783791
 20
80.57348827058537
 30
0.0
 10
124.6984617475087
 20
80.48113756231568
 30
0.0
 10
124.7856820651514
 20
80.40719029769598
 30
0.0
  0
LINE
  5
107
330
1F
100
AcDbEntity
  8
0
  6
HIDDEN
 62
     7
370
     0
100
AcDbLine
 10
125.4021943516
 20
42.8953278276
 30
0.0
 11
125.4021943516
 21
57.9330349901
 31
0.0
  0
LINE
  5
108
330
1F
100
AcDbEntity
  8
0
  6
HIDDEN
 62
     7
370
     0
100
AcDbLine
 10
125.4021943516
 20
71.9768096416
 30
0.0
 11
125.4021943516
 21
87.0145168041
 31
0.0
  0
ARC
  5
109
330
1F
100
AcDbEntity
  8
0
  6
HIDDEN
 62
     7
370
     0
100
AcDbCircle
 10
192.8172743212
 20
67.2796654161
 30
0.0
 40
0.1751536150535895
100
AcDbArc
 50
64.7350004801
 51
104.6933421267
  0
ARC
  5
10A
330
1F
100
AcDbEntity
  8
0
  6
HIDDEN
 62
     7
370
     0
100
AcDbCircle
 10
192.8172743212
 20
62.6301792156
 30
0.0
 40
0.175153615054676
100
AcDbArc
 50
255.3066578734
 51
295.2649995198
  0
ARC
  5
10B
330
1F
100
AcDbEntity
  8
0
  6
HIDDEN
 62
     7
370
     0
100
AcDbCircle
 10
192.6021943516
 20
64.9549223159
 30
0.0
 40
2.50000000000017
100
AcDbArc
 50
276.6575341882
 51
83.3424658118
  0
ARC
  5
10C
330
1F
100
AcDbEntity
  8
0
  6
HIDDEN
 62
     7
370
     0
100
AcDbCircle
 10
192.6021943516
 20
64.9549223159
 30
0.0
 40
2.500000000000166
100
AcDbArc
 50
273.9141232049
 51
86.0858767951
  0
CIRCLE
  5
10D
330
1F
100
AcDbEntity
  8
0
  6
HIDDEN
 62
     7
370
     0
100
AcDbCircle
 10
110.1021943516
 20
64.9549223159
 30
0.0
 40
4.049999999999997
  0
SPLINE
  5
10E
330
1F
100
AcDbEntity
  8
0
  6
HIDDEN
 62
     7
370
     0
100
AcDbSpline
210
0.0
220
0.0
230
1.0
 70
     8
 71
     3
 72
     8
 73
     4
 74
     0
 42
0.00000001
 43
0.00000001
 12
1.0
 22
0.0
 32
0.0
 13
1.0
 23
0.0
 33
0.0
 40
0.0
 40
0.0
 40
0.0
 40
0.0
 40
1.0
 40
1.0
 40
1.0
 40
1.0
 10
192.7728473871144
 20
62.46075360836497
 30
0.0
 10
192.8049922924375
 20
62.46295298872495
 30
0.0
 10
192.8452698406419
 20
62.46632216950599
 30
0.0
 10
192.8920308480588
 20
62.47178019240068
 30
0.0
  0
SPLINE
  5
10F
330
1F
100
AcDbEntity
  8
0
  6
HIDDEN
 62
     7
370
     0
100
AcDbSpline
210
0.0
220
0.0
230
1.0
 70
     8
 71
     3
 72
     8
 73
     4
 74
     0
 42
0.00000001
 43
0.00000001
 12
1.0
 22
0.0
 32
0.0
 13
1.0
 23
0.0
 33
0.0
 40
0.0
 40
0.0
 40
0.0
 40
0.0
 40
1.0
 40
1.0
 40
1.0
 40
1.0
 10
192.8920308480587
 20
67.43806443932819
 30
0.0
 10
192.8451961312142
 20
67.4435310657104
 30
0.0
 10
192.8050028792607
 20
67.44689091864493
 30
0.0
 10
192.7728473871144
 20
67.44909102336388
 30
0.0
  0
LINE
  5
110
330
1F
100
AcDbEntity
  8
0
  6
HIDDEN
 62
     7
370
     0
100
AcDbLine
 10
89.1324227912
 20
80.2678733588
 30
0.0
 11
89.1324227912
 21
49.641971273
 31
0.0
  0
LINE
  5
111
330
1F
100
AcDbEntity
  8
0
  6
HIDDEN
 62
     7
370
     0
100
AcDbLine
 10
87.6021943516
 20
48.7584934714
 30
0.0
 11
87.6021943516
 21
81.1267571493
 31
0.0
  0
LINE
  5
112
330
1F
100
AcDbEntity
  8
0
  6
HIDDEN
 62
     7
370
     0
100
AcDbLine
 10
95.6324227912
 20
79.3013324774
 30
0.0
 11
95.6324227912
 21
50.6085121544
 31
0.0
  0
LINE
  5
113
330
1F
100
AcDbEntity
  8
0
  6
HIDDEN
 62
     7
370
     0
100
AcDbLine
 10
101.4324227912
 20
78.9549223159
 30
0.0
 11
101.4324227912
 21
50.9549223159
 31
0.0
  0
LINE
  5
114
330
1F
100
AcDbEntity
  8
0
  6
HIDDEN
 62
     7
370
     0
100
AcDbLine
 10
94.0324227912
 20
78.9549223159
 30
0.0
 11
94.0324227912
 21
50.9549223159
 31
0.0
  0
LINE
  5
115
330
1F
100
AcDbEntity
  8
0
  6
HIDDEN
 62
     7
370
     0
100
AcDbLine
 10
95.0324227912
 20
78.9549223159
 30
0.0
 11
95.0324227912
 21
50.9549223159
 31
0.0
  0
SPLINE
  5
116
330
1F
100
AcDbEntity
  8
0
  6
HIDDEN
 62
     7
370
     0
100
AcDbSpline
210
0.0
220
0.0
230
1.0
 70
     8
 71
     3
 72
    10
 73
     6
 74
     0
 42
0.00000001
 43
0.00000001
 12
1.0
 22
0.0
 32
0.0
 13
1.0
 23
0.0
 33
0.0
 40
0.0
 40
0.0
 40
0.0
 40
0.0
 40
0.5
 40
0.5
 40
1.0
 40
1.0
 40
1.0
 40
1.0
 10
114.1021943515993
 20
65.58935119288697
 30
0.0
 10
114.1353417696757
 20
65.38036059187894
 30
0.0
 10
114.1522006150374
 20
65.16879812585732
 30
0.0
 10
114.1521880846897
 20
64.7408093598897
 30
0.0
 10
114.1352731269493
 20
64.52905125547399
 30
0.0
 10
114.1021943515993
 20
64.3204934388419
 30
0.0
  0
LINE
  5
117
330
1F
100
AcDbEntity
  8
0
  6
HIDDEN
 62
     7
370
     0
100
AcDbLine
 10
114.6021943516
 20
78.4549223159
 30
0.0
 11
114.6021943516
 21
51.4549223159
 31
0.0
  0
SPLINE
  5
118
330
1F
100
AcDbEntity
  8
0
  6
HIDDEN
 62
     7
370
     0
100
AcDbSpline
210
0.0
220
0.0
230
1.0
 70
     8
 71
     3
 72
    10
 73
     6
 74
     0
 42
0.00000001
 43
0.00000001
 12
1.0
 22
0.0
 32
0.0
 13
1.0
 23
0.0
 33
0.0
 40
0.0
 40
0.0
 40
0.0
 40
0.0
 40
0.5
 40
0.5
 40
1.0
 40
1.0
 40
1.0
 40
1.0
 10
114.1021943515993
 20
64.3204934388419
 30
0.0
 10
114.135383314073
 20
64.5297459724244
 30
0.0
 10
114.1520840903276
 20
64.74056273332333
 30
0.0
 10
114.1523035307723
 20
65.16509501452664
 30
0.0
 10
114.1354238153789
 20
65.37984330329927
 30
0.0
 10
114.1021943515993
 20
65.58935119288697
 30
0.0
  0
SPLINE
  5
119
330
1F
100
AcDbEntity
  8
0
  6
HIDDEN
 62
     7
370
     0
100
AcDbSpline
210
0.0
220
0.0
230
1.0
 70
     8
 71
     3
 72
    68
 73
    64
 74
     0
 42
0.00000001
 43
0.00000001
 12
1.0
 22
0.0
 32
0.0
 13
1.0
 23
0.0
 33
0.0
 40
0.0
 40
0.0
 40
0.0
 40
0.0
 40
0.0312500000000002
 40
0.0312500000000002
 40
0.0625000000000004
 40
0.0625000000000004
 40
0.0937500000000007
 40
0.0937500000000007
 40
0.1250000000000009
 40
0.1250000000000009
 40
0.1562500000000011
 40
0.1562500000000011
 40
0.1875000000000013
 40
0.1875000000000013
 40
0.2187500000000016
 40
0.2187500000000016
 40
0.2500000000000018
 40
0.2500000000000018
 40
0.2812500000000018
 40
0.2812500000000018
 40
0.3125000000000018
 40
0.3125000000000018
 40
0.3437500000000018
 40
0.3437500000000018
 40
0.3750000000000018
 40
0.3750000000000018
 40
0.4062500000000018
 40
0.4062500000000018
 40
0.4375000000000018
 40
0.4375000000000018
 40
0.4687500000000018
 40
0.4687500000000018
 40
0.5000000000000018
 40
0.5000000000000018
 40
0.5625000000000018
 40
0.5625000000000018
 40
0.5937500000000018
 40
0.5937500000000018
 40
0.6250000000000018
 40
0.6250000000000018
 40
0.6562500000000018
 40
0.6562500000000018
 40
0.6875000000000018
 40
0.6875000000000018
 40
0.7187500000000018
 40
0.7187500000000018
 40
0.7500000000000018
 40
0.7500000000000018
 40
0.7812500000000016
 40
0.7812500000000016
 40
0.8125000000000013
 40
0.8125000000000013
 40
0.8437500000000011
 40
0.8437500000000011
 40
0.8750000000000009
 40
0.8750000000000009
 40
0.9062500000000007
 40
0.9062500000000007
 40
0.9375000000000004
 40
0.9375000000000004
 40
0.9687500000000002
 40
0.9687500000000002
 40
1.0
 40
1.0
 40
1.0
 40
1.0
 10
114.1021943515993
 20
64.3204934388419
 30
0.0
 10
114.0621793992496
 20
64.06820383602631
 30
0.0
 10
113.9992375978383
 20
63.8242049856505
 30
0.0
 10
113.8298509357662
 20
63.35178659658799
 30
0.0
 10
113.7221573731807
 20
63.12137321042806
 30
0.0
 10
113.4668726046429
 20
62.68666861463096
 30
0.0
 10
113.3208333741706
 20
62.48402664797963
 30
0.0
 10
112.9926119376114
 20
62.10703735722182
 30
0.0
 10
112.8083646498364
 20
61.93137940364444
 30
0.0
 10
112.4154044825281
 20
61.6211214346982
 30
0.0
 10
112.2061098855689
 20
61.48517622704829
 30
0.0
 10
111.7612244586316
 20
61.25178613164245
 30
0.0
 10
111.5244268661325
 20
61.15453952522805
 30
0.0
 10
111.0436917972133
 20
61.00786806735668
 30
0.0
 10
110.7974487040305
 20
60.95697572241428
 30
0.0
 10
110.2927319240511
 20
60.90144837217879
 30
0.0
 10
110.0365372231146
 20
60.89762348510884
 30
0.0
 10
109.5341584739145
 20
60.93704726775326
 30
0.0
 10
109.2849087747309
 20
60.98007471696451
 30
0.0
 10
108.7933809772521
 20
61.1137796864158
 30
0.0
 10
108.5580853760263
 20
61.20244953232099
 30
0.0
 10
108.1071714813642
 20
61.4214808960984
 30
0.0
 10
107.8895591309008
 20
61.55348246178196
 30
0.0
 10
107.4863519613525
 20
61.85283974278485
 30
0.0
 10
107.3007404689181
 20
62.01945867022273
 30
0.0
 10
106.9607523985156
 20
62.38657009565021
 30
0.0
 10
106.8056794676927
 20
62.58887384119091
 30
0.0
 10
106.5393363910293
 20
63.01295452078492
 30
0.0
 10
106.4263522903125
 20
63.23611412625113
 30
0.0
 10
106.2414970333816
 20
63.70546936784528
 30
0.0
 10
106.1703562718782
 20
63.95167987118078
 30
0.0
 10
106.0763958605901
 20
64.44620569755196
 30
0.0
 10
106.0523865306337
 20
64.69713669264395
 30
0.0
 10
106.0518134099611
 20
65.4613820722002
 30
0.0
 10
106.1472125212797
 20
65.96360637425114
 30
0.0
 10
106.4250763134808
 20
66.67117088052352
 30
0.0
 10
106.5382382695614
 20
66.89487714426434
 30
0.0
 10
106.8043694516053
 20
67.31914705558492
 30
0.0
 10
106.959197225805
 20
67.52139901764099
 30
0.0
 10
107.2993783315928
 20
67.88910975900914
 30
0.0
 10
107.4848807885425
 20
68.0557266342585
 30
0.0
 10
107.8871745896019
 20
68.35477601305392
 30
0.0
 10
108.1051826378539
 20
68.48723272108234
 30
0.0
 10
108.5557810050042
 20
68.706439121787
 30
0.0
 10
108.7903300038849
 20
68.79492425179063
 30
0.0
 10
109.2787899974372
 20
68.92841048172929
 30
0.0
 10
109.5310553931511
 20
68.97235219422305
 30
0.0
 10
110.0332360313114
 20
69.01216119069653
 30
0.0
 10
110.2857181486631
 20
69.00881697788303
 30
0.0
 10
110.7935831917326
 20
68.95363765789251
 30
0.0
 10
111.0411286649164
 20
68.90259172942311
 30
0.0
 10
111.5220962023871
 20
68.75618134118753
 30
0.0
 10
111.7580560674924
 20
68.65953513641392
 30
0.0
 10
112.204626517014
 20
68.42563019210088
 30
0.0
 10
112.4142713795874
 20
68.28950517827437
 30
0.0
 10
112.8072580863419
 20
67.97945091394527
 30
0.0
 10
112.9916539901569
 20
67.80379366637017
 30
0.0
 10
113.3202044080173
 20
67.42665374370576
 30
0.0
 10
113.4661465045405
 20
67.22418753843588
 30
0.0
 10
113.7210318597426
 20
66.79061124030255
 30
0.0
 10
113.8293431725509
 20
66.55931939672101
 30
0.0
 10
113.9991781499679
 20
66.08595971658778
 30
0.0
 10
114.062173511105
 20
65.841677919767
 30
0.0
 10
114.1021943515993
 20
65.58935119288697
 30
0.0
  0
SPLINE
  5
11A
330
1F
100
AcDbEntity
  8
0
  6
HIDDEN
 62
     7
370
     0
100
AcDbSpline
210
0.0
220
0.0
230
1.0
 70
     8
 71
     3
 72
    68
 73
    64
 74
     0
 42
0.00000001
 43
0.00000001
 12
1.0
 22
0.0
 32
0.0
 13
1.0
 23
0.0
 33
0.0
 40
0.0
 40
0.0
 40
0.0
 40
0.0
 40
0.0312500000000002
 40
0.0312500000000002
 40
0.0625000000000004
 40
0.0625000000000004
 40
0.0937500000000007
 40
0.0937500000000007
 40
0.1250000000000009
 40
0.1250000000000009
 40
0.1562500000000011
 40
0.1562500000000011
 40
0.1875000000000013
 40
0.1875000000000013
 40
0.2187500000000016
 40
0.2187500000000016
 40
0.2500000000000018
 40
0.2500000000000018
 40
0.2812500000000018
 40
0.2812500000000018
 40
0.3125000000000018
 40
0.3125000000000018
 40
0.3437500000000018
 40
0.3437500000000018
 40
0.3750000000000018
 40
0.3750000000000018
 40
0.4062500000000018
 40
0.4062500000000018
 40
0.4375000000000018
 40
0.4375000000000018
 40
0.4687500000000018
 40
0.4687500000000018
 40
0.5000000000000018
 40
0.5000000000000018
 40
0.5625000000000018
 40
0.5625000000000018
 40
0.5937500000000018
 40
0.5937500000000018
 40
0.6250000000000018
 40
0.6250000000000018
 40
0.6562500000000018
 40
0.6562500000000018
 40
0.6875000000000018
 40
0.6875000000000018
 40
0.7187500000000018
 40
0.7187500000000018
 40
0.7500000000000018
 40
0.7500000000000018
 40
0.7812500000000016
 40
0.7812500000000016
 40
0.8125000000000013
 40
0.8125000000000013
 40
0.8437500000000011
 40
0.8437500000000011
 40
0.8750000000000009
 40
0.8750000000000009
 40
0.9062500000000007
 40
0.9062500000000007
 40
0.9375000000000004
 40
0.9375000000000004
 40
0.9687500000000002
 40
0.9687500000000002
 40
1.0
 40
1.0
 40
1.0
 40
1.0
 10
114.1021943515993
 20
65.58935119288697
 30
0.0
 10
114.0621793992496
 20
65.84164079570255
 30
0.0
 10
113.9992375978383
 20
66.08563964607836
 30
0.0
 10
113.8298509357662
 20
66.55805803514086
 30
0.0
 10
113.7221573731807
 20
66.7884714213008
 30
0.0
 10
113.4668726046429
 20
67.2231760170979
 30
0.0
 10
113.3208333741706
 20
67.42581798374923
 30
0.0
 10
112.9926119376114
 20
67.80280727450703
 30
0.0
 10
112.8083646498364
 20
67.97846522808442
 30
0.0
 10
112.4154044825281
 20
68.28872319703066
 30
0.0
 10
112.2061098855689
 20
68.42466840468057
 30
0.0
 10
111.7612244586316
 20
68.65805850008641
 30
0.0
 10
111.5244268661325
 20
68.75530510650081
 30
0.0
 10
111.0436917972133
 20
68.90197656437218
 30
0.0
 10
110.7974487040305
 20
68.95286890931459
 30
0.0
 10
110.2927319240511
 20
69.00839625955008
 30
0.0
 10
110.0365372231146
 20
69.01222114662
 30
0.0
 10
109.5341584739145
 20
68.9727973639756
 30
0.0
 10
109.2849087747309
 20
68.92976991476435
 30
0.0
 10
108.7933809772521
 20
68.79606494531306
 30
0.0
 10
108.5580853760263
 20
68.70739509940786
 30
0.0
 10
108.1071714813642
 20
68.48836373563046
 30
0.0
 10
107.8895591309008
 20
68.35636216994689
 30
0.0
 10
107.4863519613525
 20
68.05700488894401
 30
0.0
 10
107.3007404689181
 20
67.89038596150614
 30
0.0
 10
106.9607523985156
 20
67.52327453607866
 30
0.0
 10
106.8056794676927
 20
67.32097079053794
 30
0.0
 10
106.5393363910293
 20
66.89689011094393
 30
0.0
 10
106.4263522903125
 20
66.67373050547774
 30
0.0
 10
106.2414970333816
 20
66.20437526388358
 30
0.0
 10
106.1703562718782
 20
65.95816476054809
 30
0.0
 10
106.0763958605901
 20
65.46363893417691
 30
0.0
 10
106.0523865306337
 20
65.21270793908491
 30
0.0
 10
106.0518134099611
 20
64.44846255952866
 30
0.0
 10
106.1472125212797
 20
63.94623825747772
 30
0.0
 10
106.4250763134808
 20
63.23867375120534
 30
0.0
 10
106.5382382695614
 20
63.01496748746452
 30
0.0
 10
106.8043694516053
 20
62.59069757614394
 30
0.0
 10
106.959197225805
 20
62.38844561408788
 30
0.0
 10
107.2993783315928
 20
62.02073487271971
 30
0.0
 10
107.4848807885425
 20
61.85411799747036
 30
0.0
 10
107.8871745896019
 20
61.55506861867494
 30
0.0
 10
108.1051826378539
 20
61.42261191064652
 30
0.0
 10
108.5557810050042
 20
61.20340550994185
 30
0.0
 10
108.7903300038849
 20
61.11492037993822
 30
0.0
 10
109.2787899974372
 20
60.98143414999957
 30
0.0
 10
109.5310553931511
 20
60.93749243750581
 30
0.0
 10
110.0332360313114
 20
60.89768344103232
 30
0.0
 10
110.2857181486631
 20
60.90102765384583
 30
0.0
 10
110.7935831917326
 20
60.95620697383634
 30
0.0
 10
111.0411286649164
 20
61.00725290230576
 30
0.0
 10
111.5220962023871
 20
61.15366329054133
 30
0.0
 10
111.7580560674924
 20
61.25030949531494
 30
0.0
 10
112.204626517014
 20
61.48421443962798
 30
0.0
 10
112.4142713795874
 20
61.62033945345449
 30
0.0
 10
112.8072580863419
 20
61.93039371778358
 30
0.0
 10
112.9916539901569
 20
62.10605096535869
 30
0.0
 10
113.3202044080173
 20
62.48319088802312
 30
0.0
 10
113.4661465045405
 20
62.68565709329297
 30
0.0
 10
113.7210318597426
 20
63.11923339142631
 30
0.0
 10
113.8293431725509
 20
63.35052523500785
 30
0.0
 10
113.9991781499679
 20
63.82388491514109
 30
0.0
 10
114.062173511105
 20
64.06816671196187
 30
0.0
 10
114.1021943515993
 20
64.3204934388419
 30
0.0
  0
LINE
  5
11B
330
1F
100
AcDbEntity
  8
0
  6
HIDDEN
 62
     7
370
     0
100
AcDbLine
 10
115.8521943516
 20
73.9549223159
 30
0.0
 11
115.8521943516
 21
55.9549223159
 31
0.0
  0
LINE
  5
11C
330
1F
100
AcDbEntity
  8
0
  6
HIDDEN
 62
     7
370
     0
100
AcDbLine
 10
114.6021943516
 20
54.7049223159
 30
0.0
 11
114.6021943516
 21
75.2049223159
 31
0.0
  0
LINE
  5
11D
330
1F
100
AcDbEntity
  8
0
  6
HIDDEN
 62
     7
370
     0
100
AcDbLine
 10
152.6021943516
 20
55.9549223159
 30
0.0
 11
152.6021943516
 21
73.9549223159
 31
0.0
  0
LINE
  5
11E
330
1F
100
AcDbEntity
  8
0
  6
HIDDEN
 62
     7
370
     0
100
AcDbLine
 10
155.456282292
 20
60.7049223159
 30
0.0
 11
155.456282292
 21
69.2049223159
 31
0.0
  0
LINE
  5
11F
330
1F
100
AcDbEntity
  8
0
  6
HIDDEN
 62
     7
370
     0
100
AcDbLine
 10
196.6021943516
 20
60.7049223159
 30
0.0
 11
196.6021943516
 21
69.2049223159
 31
0.0
  0
SPLINE
  5
120
330
1F
100
AcDbEntity
  8
0
  6
HIDDEN
 62
     7
370
     0
100
AcDbSpline
210
0.0
220
0.0
230
1.0
 70
     8
 71
     3
 72
    64
 73
    60
 74
     0
 42
0.00000001
 43
0.00000001
 12
1.0
 22
0.0
 32
0.0
 13
1.0
 23
0.0
 33
0.0
 40
-0.0312500000000017
 40
-0.0312500000000017
 40
0.0
 40
0.0
 40
0.0312499999999999
 40
0.0312499999999999
 40
0.0624999999999997
 40
0.0624999999999997
 40
0.1249999999999984
 40
0.1249999999999984
 40
0.1562499999999978
 40
0.1562499999999978
 40
0.1874999999999972
 40
0.1874999999999972
 40
0.2187499999999965
 40
0.2187499999999965
 40
0.2499999999999959
 40
0.2499999999999959
 40
0.2812499999999953
 40
0.2812499999999953
 40
0.3124999999999946
 40
0.3124999999999946
 40
0.343749999999994
 40
0.343749999999994
 40
0.3749999999999933
 40
0.3749999999999933
 40
0.4062499999999927
 40
0.4062499999999927
 40
0.437499999999992
 40
0.437499999999992
 40
0.4687499999999913
 40
0.4687499999999913
 40
0.4999999999999906
 40
0.4999999999999906
 40
0.5312499999999899
 40
0.5312499999999899
 40
0.5624999999999892
 40
0.5624999999999892
 40
0.6249999999999887
 40
0.6249999999999887
 40
0.6562499999999893
 40
0.6562499999999893
 40
0.68749999999999
 40
0.68749999999999
 40
0.7187499999999906
 40
0.7187499999999906
 40
0.7499999999999912
 40
0.7499999999999912
 40
0.7812499999999919
 40
0.7812499999999919
 40
0.8124999999999926
 40
0.8124999999999926
 40
0.8437499999999931
 40
0.8437499999999931
 40
0.8749999999999938
 40
0.8749999999999938
 40
0.9374999999999968
 40
0.9374999999999968
 40
0.9687499999999983
 40
0.9687499999999983
 40
1.0
 40
1.0
 40
1.03125
 40
1.03125
 10
190.1021943515993
 20
65.12431330920461
 30
0.0
 10
190.1021943515993
 20
64.78553132252425
 30
0.0
 10
190.1192264750005
 20
64.61967921470806
 30
0.0
 10
190.1852886720057
 20
64.29455548671353
 30
0.0
 10
190.2352198215727
 20
64.13382198830479
 30
0.0
 10
190.4260479169394
 20
63.68154751252867
 30
0.0
 10
190.6109303200397
 20
63.41023563037096
 30
0.0
 10
190.9486429134338
 20
63.07315054668733
 30
0.0
 10
191.0731923916131
 20
62.97054295365756
 30
0.0
 10
191.3386767846664
 20
62.79179222156905
 30
0.0
 10
191.479083341795
 20
62.71554496072908
 30
0.0
 10
191.7771671725858
 20
62.5894372846445
 30
0.0
 10
191.936920593234
 20
62.53937129310477
 30
0.0
 10
192.2616609748811
 20
62.47268281564178
 30
0.0
 10
192.4284056050169
 20
62.45523753944285
 30
0.0
 10
192.7667924439531
 20
62.45461553910562
 30
0.0
 10
192.9326670666789
 20
62.47130099800996
 30
0.0
 10
193.2583230531767
 20
62.53684824899228
 30
0.0
 10
193.4180496267851
 20
62.58620589248497
 30
0.0
 10
193.7179930517938
 20
62.71183725615754
 30
0.0
 10
193.8614182377279
 20
62.78925152360655
 30
0.0
 10
194.1280830524325
 20
62.96810615715589
 30
0.0
 10
194.2509839284711
 20
63.06892160977567
 30
0.0
 10
194.4775653286948
 20
63.29405223351713
 30
0.0
 10
194.5811949337386
 20
63.41894287877654
 30
0.0
 10
194.7610931976726
 20
63.68416194990716
 30
0.0
 10
194.8385976108159
 20
63.82553662318995
 30
0.0
 10
194.967204419213
 20
64.1280372206192
 30
0.0
 10
195.0171774862092
 20
64.28771102673109
 30
0.0
 10
195.0839934709131
 20
64.61142911917712
 30
0.0
 10
195.1016711332752
 20
64.77812759534123
 30
0.0
 10
195.1026947066939
 20
65.11659646195304
 30
0.0
 10
195.0861928570936
 20
65.28275741156067
 30
0.0
 10
195.0207761139164
 20
65.60928206726658
 30
0.0
 10
194.9711292496661
 20
65.77039475289125
 30
0.0
 10
194.7810760188935
 20
66.22372729191322
 30
0.0
 10
194.5964597812054
 20
66.49594664114183
 30
0.0
 10
194.2581430793709
 20
66.83462879685982
 30
0.0
 10
194.1331771241114
 20
66.93775250622973
 30
0.0
 10
193.8683299028628
 20
67.11650150233426
 30
0.0
 10
193.7277812358319
 20
67.19312744381931
 30
0.0
 10
193.4279780477374
 20
67.32021073716793
 30
0.0
 10
193.2683672823522
 20
67.37022336901056
 30
0.0
 10
192.943713856129
 20
67.43702424346985
 30
0.0
 10
192.7745177026105
 20
67.45464913090244
 30
0.0
 10
192.4378908216846
 20
67.45518906906925
 30
0.0
 10
192.2719269682018
 20
67.43863371116484
 30
0.0
 10
191.9444548738003
 20
67.372623211142
 30
0.0
 10
191.7854496999771
 20
67.32335296661962
 30
0.0
 10
191.4850115429033
 20
67.19734023974574
 30
0.0
 10
191.3409437949869
 20
67.11939911676951
 30
0.0
 10
191.0747539198835
 20
66.94053016127886
 30
0.0
 10
190.9516051475587
 20
66.83942839794614
 30
0.0
 10
190.6101708086273
 20
66.49929072393245
 30
0.0
 10
190.428185610693
 20
66.23298878617558
 30
0.0
 10
190.234791338508
 20
65.77519358235105
 30
0.0
 10
190.1860159899679
 20
65.61786213116284
 30
0.0
 10
190.1196971442195
 20
65.29347022868473
 30
0.0
 10
190.1021943515993
 20
65.12431330920461
 30
0.0
 10
190.1021943515993
 20
64.78553132252425
 30
0.0
  0
LINE
  5
121
330
1F
100
AcDbEntity
  8
0
  6
HIDDEN
 62
     7
370
     0
100
AcDbLine
 10
235.9168369697
 20
65.0529464051
 30
0.0
 11
236.0652526725
 21
64.9756860805
 31
0.0
  0
LINE
  5
122
330
1F
100
AcDbEntity
  8
0
  6
HIDDEN
 62
     7
370
     0
100
AcDbLine
 10
236.0652526725
 20
64.9756860805
 30
0.0
 11
235.8995078232
 21
64.9756860805
 31
0.0
  0
LINE
  5
123
330
1F
100
AcDbEntity
  8
0
  6
HIDDEN
 62
     7
370
     0
100
AcDbLine
 10
236.1051394932
 20
64.9549223159
 30
0.0
 11
235.901744977
 21
64.9549223159
 31
0.0
  0
LINE
  5
124
330
1F
100
AcDbEntity
  8
0
  6
HIDDEN
 62
     7
370
     0
100
AcDbLine
 10
236.1051394932
 20
64.9549223159
 30
0.0
 11
236.0652526725
 21
64.9756860805
 31
0.0
  0
LINE
  5
125
330
1F
100
AcDbEntity
  8
0
  6
HIDDEN
 62
     7
370
     0
100
AcDbLine
 10
235.9891824527
 20
64.7107505163
 30
0.0
 11
245.4295607786
 21
59.7964006151
 31
0.0
  0
LINE
  5
126
330
1F
100
AcDbEntity
  8
0
  6
HIDDEN
 62
     7
370
     0
100
AcDbLine
 10
245.4295607786
 20
70.1134440166
 30
0.0
 11
238.7723533853
 21
66.6479211989
 31
0.0
  0
LINE
  5
127
330
1F
100
AcDbEntity
  8
0
  6
HIDDEN
 62
     7
370
     0
100
AcDbLine
 10
238.7723533853
 20
66.6479211989
 30
0.0
 11
238.7324665646
 21
66.6686849635
 31
0.0
  0
LINE
  5
128
330
1F
100
AcDbEntity
  8
0
  6
HIDDEN
 62
     7
370
     0
100
AcDbLine
 10
245.4295607786
 20
70.1134440166
 30
0.0
 11
245.3896739579
 21
70.1342077812
 31
0.0
  0
LINE
  5
129
330
1F
100
AcDbEntity
  8
0
  6
HIDDEN
 62
     7
370
     0
100
AcDbLine
 10
245.4295607786
 20
59.7964006151
 30
0.0
 11
245.3896739579
 21
59.7756368505
 31
0.0
  0
LINE
  5
12A
330
1F
100
AcDbEntity
  8
0
  6
HIDDEN
 62
     7
370
     0
100
AcDbLine
 10
236.1051394932
 20
64.9549223159
 30
0.0
 11
245.4295607786
 21
60.1009358292
 31
0.0
  0
LINE
  5
12B
330
1F
100
AcDbEntity
  8
0
  6
HIDDEN
 62
     7
370
     0
100
AcDbLine
 10
245.4295607786
 20
59.7964006151
 30
0.0
 11
245.4295607786
 21
60.1009358292
 31
0.0
  0
LINE
  5
12C
330
1F
100
AcDbEntity
  8
0
  6
HIDDEN
 62
     7
370
     0
100
AcDbLine
 10
245.4295607786
 20
69.8089088025
 30
0.0
 11
238.8122402059
 21
66.3641497494
 31
0.0
  0
LINE
  5
12D
330
1F
100
AcDbEntity
  8
0
  6
HIDDEN
 62
     7
370
     0
100
AcDbLine
 10
238.7723533853
 20
66.384913514
 30
0.0
 11
238.8122402059
 21
66.3641497494
 31
0.0
  0
LINE
  5
12E
330
1F
100
AcDbEntity
  8
0
  6
HIDDEN
 62
     7
370
     0
100
AcDbLine
 10
238.7723533853
 20
66.6479211989
 30
0.0
 11
238.7723533853
 21
66.384913514
 31
0.0
  0
LINE
  5
12F
330
1F
100
AcDbEntity
  8
0
  6
HIDDEN
 62
     7
370
     0
100
AcDbLine
 10
245.4295607786
 20
70.1134440166
 30
0.0
 11
245.4295607786
 21
69.8089088025
 31
0.0
  0
LINE
  5
130
330
1F
100
AcDbEntity
  8
0
  6
HIDDEN
 62
     7
370
     0
100
AcDbLine
 10
238.7723533853
 20
66.384913514
 30
0.0
 11
238.4798500336
 21
66.5371811211
 31
0.0
  0
LINE
  5
131
330
1F
100
AcDbEntity
  8
0
  6
HIDDEN
 62
     7
370
     0
100
AcDbLine
 10
245.2341153572
 20
60.2026782758
 30
0.0
 11
245.4295607786
 21
60.1009358292
 31
0.0
  0
LINE
  5
132
330
1F
100
AcDbEntity
  8
0
  6
HIDDEN
 62
     7
370
     0
100
AcDbLine
 10
245.2341153572
 20
69.707166356
 30
0.0
 11
245.4295607786
 21
69.8089088025
 31
0.0
  0
LINE
  5
133
330
1F
100
AcDbEntity
  8
0
  6
HIDDEN
 62
     7
370
     0
100
AcDbLine
 10
253.8164949503
 20
65.2394623245
 30
0.0
 11
246.4962755327
 21
65.2394623245
 31
0.0
  0
LINE
  5
134
330
1F
100
AcDbEntity
  8
0
  6
HIDDEN
 62
     7
370
     0
100
AcDbLine
 10
246.4962755327
 20
64.6703823072
 30
0.0
 11
253.8164949503
 21
64.6703823072
 31
0.0
  0
CIRCLE
  5
135
330
1F
100
AcDbEntity
  8
0
  6
HIDDEN
 62
     7
370
     0
100
AcDbCircle
 10
245.6544128641
 20
64.9549223159
 30
0.0
 40
2.100000000000009
  0
LINE
  5
136
330
1F
100
AcDbEntity
  8
0
  6
HIDDEN
 62
     7
370
     0
100
AcDbLine
 10
253.8164949503
 20
64.6703823072
 30
0.0
 11
253.8164949503
 21
65.2394623245
 31
0.0
  0
LINE
  5
137
330
1F
100
AcDbEntity
  8
0
  6
HIDDEN
 62
     7
370
     0
100
AcDbLine
 10
245.2341153572
 20
69.707166356
 30
0.0
 11
238.8122402059
 21
66.3641497494
 31
0.0
  0
LINE
  5
138
330
1F
100
AcDbEntity
  8
0
  6
HIDDEN
 62
     7
370
     0
100
AcDbLine
 10
238.8122402059
 20
66.3641497494
 30
0.0
 11
236.6909459632
 21
67.4684256367
 31
0.0
  0
ARC
  5
139
330
1F
100
AcDbEntity
  8
0
  6
HIDDEN
 62
     7
370
     0
100
AcDbCircle
 10
236.1137601967
 20
66.3596620953
 30
0.0
 40
1.249999999999999
100
AcDbArc
 50
62.5
 51
242.5
  0
LINE
  5
13A
330
1F
100
AcDbEntity
  8
0
  6
HIDDEN
 62
     7
370
     0
100
AcDbLine
 10
235.5365744301
 20
65.2508985538
 30
0.0
 11
245.2341153572
 21
60.2026782758
 31
0.0
  0
LINE
  5
13B
330
1F
100
AcDbEntity
  8
0
  6
HIDDEN
 62
     7
370
     0
100
AcDbLine
 10
253.8164949503
 20
65.2394623245
 30
0.0
 11
245.2341153572
 21
69.707166356
 31
0.0
  0
LINE
  5
13C
330
1F
100
AcDbEntity
  8
0
  6
HIDDEN
 62
     7
370
     0
100
AcDbLine
 10
253.8164949503
 20
64.6703823072
 30
0.0
 11
245.2341153572
 21
60.2026782758
 31
0.0
  0
CIRCLE
  5
13D
330
1F
100
AcDbEntity
  8
0
  6
HIDDEN
 62
     7
370
     0
100
AcDbCircle
 10
245.6544128641
 20
64.9549223159
 30
0.0
 40
1.650000000000006
  0
LINE
  5
13E
330
1F
100
AcDbEntity
  8
0
  6
HIDDEN
 62
     7
370
     0
100
AcDbLine
 10
89.1021943516
 20
49.8508694871
 30
0.0
 11
89.1021943516
 21
43.7965589196
 31
0.0
  0
LINE
  5
13F
330
1F
100
AcDbEntity
  8
0
  6
HIDDEN
 62
     7
370
     0
100
AcDbLine
 10
87.6021943516
 20
50.283882189
 30
0.0
 11
87.6021943516
 21
44.6625843234
 31
0.0
  0
SPLINE
  5
140
330
1F
100
AcDbEntity
  8
0
  6
HIDDEN
 62
     7
370
     0
100
AcDbSpline
210
0.0
220
0.0
230
1.0
 70
     8
 71
     3
 72
    16
 73
    12
 74
     0
 42
0.00000001
 43
0.00000001
 12
1.0
 22
0.0
 32
0.0
 13
1.0
 23
0.0
 33
0.0
 40
0.0
 40
0.0
 40
0.0
 40
0.0
 40
0.2500000000000001
 40
0.2500000000000001
 40
0.3749999999999999
 40
0.3749999999999999
 40
0.4999999999999998
 40
0.4999999999999998
 40
0.7499999999999999
 40
0.7499999999999999
 40
1.0
 40
1.0
 40
1.0
 40
1.0
 10
124.2808740080396
 20
48.37101568962339
 30
0.0
 10
124.1196415305552
 20
47.65662152743126
 30
0.0
 10
123.9991616909155
 20
47.00327926472259
 30
0.0
 10
123.8767811736022
 20
46.1150240229187
 30
0.0
 10
123.8458035132048
 20
45.83434348656687
 30
0.0
 10
123.8041897755768
 20
45.30530949672687
 30
0.0
 10
123.793953862644
 20
45.06198851814841
 30
0.0
 10
123.7937654655879
 20
44.39396582763519
 30
0.0
 10
123.8339101682255
 20
44.03028491821572
 30
0.0
 10
123.9980639231651
 20
43.47039404566741
 30
0.0
 10
124.1196155735746
 20
43.28287275355027
 30
0.0
 10
124.2808740080396
 20
43.18484136086231
 30
0.0
  0
LINE
  5
141
330
1F
100
AcDbEntity
  8
0
  6
HIDDEN
 62
     7
370
     0
100
AcDbLine
 10
123.4021943516
 20
49.420001793
 30
0.0
 11
123.4021943516
 21
42.9348235313
 31
0.0
  0
LINE
  5
142
330
1F
100
AcDbEntity
  8
0
  6
HIDDEN
 62
     7
370
     0
100
AcDbLine
 10
89.1021943516
 20
86.1132857121
 30
0.0
 11
89.1021943516
 21
80.0589751446
 31
0.0
  0
LINE
  5
143
330
1F
100
AcDbEntity
  8
0
  6
HIDDEN
 62
     7
370
     0
100
AcDbLine
 10
87.6021943516
 20
85.2472603084
 30
0.0
 11
87.6021943516
 21
79.6259624427
 31
0.0
  0
LINE
  5
144
330
1F
100
AcDbEntity
  8
0
  6
HIDDEN
 62
     7
370
     0
100
AcDbLine
 10
123.4021943516
 20
86.9750211004
 30
0.0
 11
123.4021943516
 21
80.4898428387
 31
0.0
  0
SPLINE
  5
145
330
1F
100
AcDbEntity
  8
0
  6
HIDDEN
 62
     7
370
     0
100
AcDbSpline
210
0.0
220
0.0
230
1.0
 70
     8
 71
     3
 72
    16
 73
    12
 74
     0
 42
0.00000001
 43
0.00000001
 12
1.0
 22
0.0
 32
0.0
 13
1.0
 23
0.0
 33
0.0
 40
0.0
 40
0.0
 40
0.0
 40
0.0
 40
0.2499999999999997
 40
0.2499999999999997
 40
0.3749999999999998
 40
0.3749999999999998
 40
0.4999999999999999
 40
0.4999999999999999
 40
0.7499999999999999
 40
0.7499999999999999
 40
1.0
 40
1.0
 40
1.0
 40
1.0
 10
124.2808740080396
 20
86.72500327086654
 30
0.0
 10
124.1196415305552
 20
86.62698765781182
 30
0.0
 10
123.9991616909155
 20
86.44025162613576
 30
0.0
 10
123.8767811736022
 20
86.02721181857686
 30
0.0
 10
123.8458035132048
 20
85.86721131934394
 30
0.0
 10
123.8041897755768
 20
85.50040566825278
 30
0.0
 10
123.793953862644
 20
85.29706851562878
 30
0.0
 10
123.7937654655879
 20
84.62978124900211
 30
0.0
 10
123.8339101682255
 20
84.10896678511406
 30
0.0
 10
123.9980639231651
 20
82.91160776963636
 30
0.0
 10
124.1196155735746
 20
82.2533381153404
 30
0.0
 10
124.2808740080396
 20
81.53882894210548
 30
0.0
  0
LINE
  5
146
330
1F
100
AcDbEntity
  8
0
  6
HIDDEN
 62
     7
370
     0
100
AcDbLine
 10
87.6021943516
 20
79.6259624427
 30
0.0
 11
87.6021943516
 21
67.8569096488
 31
0.0
  0
LINE
  5
147
330
1F
100
AcDbEntity
  8
0
  6
HIDDEN
 62
     7
370
     0
100
AcDbLine
 10
87.6021943516
 20
62.0529349829
 30
0.0
 11
87.6021943516
 21
50.283882189
 31
0.0
  0
CIRCLE
  5
148
330
1F
100
AcDbEntity
  8
0
  6
HIDDEN
 62
     7
370
     0
100
AcDbCircle
 10
245.6544128641
 20
64.9549223159
 30
0.0
 40
1.649999999999991
  0
LINE
  5
149
330
1F
100
AcDbEntity
  8
0
  6
HIDDEN
 62
     7
370
     0
100
AcDbLine
 10
89.1021943516
 20
60.989711419
 30
0.0
 11
89.1021943516
 21
49.8508694871
 31
0.0
  0
LINE
  5
14A
330
1F
100
AcDbEntity
  8
0
  6
HIDDEN
 62
     7
370
     0
100
AcDbLine
 10
89.1021943516
 20
80.0589751446
 30
0.0
 11
89.1021943516
 21
68.9201332127
 31
0.0
  0
LINE
  5
14B
330
1F
100
AcDbEntity
  8
0
  6
HIDDEN
 62
     7
370
     0
100
AcDbLine
 10
125.4021943516
 20
79.9926294784
 30
0.0
 11
125.4021943516
 21
49.9172151534
 31
0.0
  0
LINE
  5
14C
330
1F
100
AcDbEntity
  8
0
  6
HIDDEN
 62
     7
370
     0
100
AcDbLine
 10
123.4021943516
 20
80.4898428387
 30
0.0
 11
123.4021943516
 21
49.420001793
 31
0.0
  0
SPLINE
  5
14D
330
1F
100
AcDbEntity
  8
0
  6
HIDDEN
 62
     7
370
     0
100
AcDbSpline
210
0.0
220
0.0
230
1.0
 70
     8
 71
     3
 72
    24
 73
    20
 74
     0
 42
0.00000001
 43
0.00000001
 12
1.0
 22
0.0
 32
0.0
 13
1.0
 23
0.0
 33
0.0
 40
0.0
 40
0.0
 40
0.0
 40
0.0
 40
0.1249999999999999
 40
0.1249999999999999
 40
0.2499999999999997
 40
0.2499999999999997
 40
0.3749999999999996
 40
0.3749999999999996
 40
0.4374999999999996
 40
0.4374999999999996
 40
0.4999999999999997
 40
0.4999999999999997
 40
0.6249999999999998
 40
0.6249999999999998
 40
0.7499999999999998
 40
0.7499999999999998
 40
0.8749999999999999
 40
0.8749999999999999
 40
1.0
 40
1.0
 40
1.0
 40
1.0
 10
94.05219435159928
 20
60.86896126276518
 30
0.0
 10
94.28999798387439
 20
61.16796836509532
 30
0.0
 10
94.52008364508566
 20
61.47230621641405
 30
0.0
 10
94.95483704369548
 20
62.09803975381003
 30
0.0
 10
95.15976983598165
 20
62.41926448113755
 30
0.0
 10
95.52487178648033
 20
63.09119025187028
 30
0.0
 10
95.68667217227184
 20
63.44650548374916
 30
0.0
 10
95.85853237685156
 20
63.99673670510161
 30
0.0
 10
95.90411756851171
 20
64.18314049008208
 30
0.0
 10
95.96659230808656
 20
64.56327499217835
 30
0.0
 10
95.98326345383501
 20
64.75894478446423
 30
0.0
 10
95.98378449701151
 20
65.33742516313865
 30
0.0
 10
95.91934219612483
 20
65.71533700210743
 30
0.0
 10
95.68949310275146
 20
66.45730502720588
 30
0.0
 10
95.53097242508838
 20
66.80602048736684
 30
0.0
 10
95.16673809518821
 20
67.4791128851
 30
0.0
 10
94.96000185512463
 20
67.80406537234163
 30
0.0
 10
94.52206390938426
 20
68.4349891828034
 30
0.0
 10
94.2907911821047
 20
68.74087892314405
 30
0.0
 10
94.05219435159938
 20
69.04088336896355
 30
0.0
  0
LINE
  5
14E
330
1F
100
AcDbEntity
  8
0
  6
HIDDEN
 62
     7
370
     0
100
AcDbLine
 10
94.0521943516
 20
60.8689612628
 30
0.0
 11
94.0521943516
 21
69.040883369
 31
0.0
  0
SPLINE
  5
14F
330
1F
100
AcDbEntity
  8
0
  6
HIDDEN
 62
     7
370
     0
100
AcDbSpline
210
0.0
220
0.0
230
1.0
 70
     8
 71
     3
 72
     8
 73
     4
 74
     0
 42
0.00000001
 43
0.00000001
 12
1.0
 22
0.0
 32
0.0
 13
1.0
 23
0.0
 33
0.0
 40
0.0000249638557296
 40
0.0000249638557296
 40
0.0000249638557296
 40
0.0000249638557296
 40
0.0049776420541172
 40
0.0049776420541172
 40
0.0049776420541172
 40
0.0049776420541172
 10
89.10219435159928
 20
60.98971141902789
 30
0.0
 10
90.75217058610882
 20
60.94843218125968
 30
0.0
 10
92.40217190585386
 20
60.9082105000202
 30
0.0
 10
94.05219435159928
 20
60.86896126276518
 30
0.0
  0
SPLINE
  5
150
330
1F
100
AcDbEntity
  8
0
  6
HIDDEN
 62
     7
370
     0
100
AcDbSpline
210
0.0
220
0.0
230
1.0
 70
     8
 71
     3
 72
     8
 73
     4
 74
     0
 42
0.00000001
 43
0.00000001
 12
1.0
 22
0.0
 32
0.0
 13
1.0
 23
0.0
 33
0.0
 40
0.0000249631533153
 40
0.0000249631533153
 40
0.0000249631533153
 40
0.0000249631533153
 40
0.0049776413517029
 40
0.0049776413517029
 40
0.0049776413517029
 40
0.0049776413517029
 10
94.05219435159928
 20
69.04088336896368
 30
0.0
 10
92.40217190585385
 20
69.00163413170867
 30
0.0
 10
90.7521705861088
 20
68.96141245046917
 30
0.0
 10
89.10219435159928
 20
68.92013321270097
 30
0.0
  0
SPLINE
  5
151
330
1F
100
AcDbEntity
  8
0
  6
HIDDEN
 62
     7
370
     0
100
AcDbSpline
210
0.0
220
0.0
230
1.0
 70
     8
 71
     3
 72
     8
 73
     4
 74
     0
 42
0.00000001
 43
0.00000001
 12
1.0
 22
0.0
 32
0.0
 13
1.0
 23
0.0
 33
0.0
 40
0.0
 40
0.0
 40
0.0
 40
0.0
 40
1.0
 40
1.0
 40
1.0
 40
1.0
 10
87.60219435159702
 20
62.05293498288408
 30
0.0
 10
88.06895496297481
 20
61.63757173726105
 30
0.0
 10
88.57470250975491
 20
61.29298130795645
 30
0.0
 10
89.10219435159928
 20
60.98971141902788
 30
0.0
  0
SPLINE
  5
152
330
1F
100
AcDbEntity
  8
0
  6
HIDDEN
 62
     7
370
     0
100
AcDbSpline
210
0.0
220
0.0
230
1.0
 70
     8
 71
     3
 72
     8
 73
     4
 74
     0
 42
0.00000001
 43
0.00000001
 12
1.0
 22
0.0
 32
0.0
 13
1.0
 23
0.0
 33
0.0
 40
0.0
 40
0.0
 40
0.0
 40
0.0
 40
1.0
 40
1.0
 40
1.0
 40
1.0
 10
89.10219435159928
 20
68.92013321270097
 30
0.0
 10
88.57470250975574
 20
68.6168633237729
 30
0.0
 10
88.06895496297645
 20
68.27227289446891
 30
0.0
 10
87.60219435159927
 20
67.85690964884678
 30
0.0
  0
LINE
  5
153
330
1F
100
AcDbEntity
  8
0
  6
HIDDEN
 62
     7
370
     0
100
AcDbLine
 10
87.6021943516
 20
62.0529349829
 30
0.0
 11
87.6021943516
 21
67.8569096488
 31
0.0
  0
SPLINE
  5
154
330
1F
100
AcDbEntity
  8
0
  6
HIDDEN
 62
     7
370
     0
100
AcDbSpline
210
0.0
220
0.0
230
1.0
 70
     8
 71
     3
 72
    72
 73
    68
 74
     0
 42
0.00000001
 43
0.00000001
 12
1.0
 22
0.0
 32
0.0
 13
1.0
 23
0.0
 33
0.0
 40
-0.03125
 40
-0.03125
 40
0.0
 40
0.0
 40
0.03125
 40
0.03125
 40
0.0625
 40
0.0625
 40
0.09375
 40
0.09375
 40
0.125
 40
0.125
 40
0.15625
 40
0.15625
 40
0.1874999999999999
 40
0.1874999999999999
 40
0.2187499999999999
 40
0.2187499999999999
 40
0.2499999999999999
 40
0.2499999999999999
 40
0.2812499999999999
 40
0.2812499999999999
 40
0.3124999999999999
 40
0.3124999999999999
 40
0.3437499999999999
 40
0.3437499999999999
 40
0.3749999999999998
 40
0.3749999999999998
 40
0.3906249999999998
 40
0.3906249999999998
 40
0.4062499999999998
 40
0.4062499999999998
 40
0.4374999999999998
 40
0.4374999999999998
 40
0.4687499999999998
 40
0.4687499999999998
 40
0.4999999999999998
 40
0.4999999999999998
 40
0.5312499999999998
 40
0.5312499999999998
 40
0.5624999999999998
 40
0.5624999999999998
 40
0.5937499999999998
 40
0.5937499999999998
 40
0.6249999999999998
 40
0.6249999999999998
 40
0.6562499999999998
 40
0.6562499999999998
 40
0.6874999999999998
 40
0.6874999999999998
 40
0.7187499999999998
 40
0.7187499999999998
 40
0.7499999999999998
 40
0.7499999999999998
 40
0.7812499999999997
 40
0.7812499999999997
 40
0.8124999999999997
 40
0.8124999999999997
 40
0.8437499999999997
 40
0.8437499999999997
 40
0.8749999999999997
 40
0.8749999999999997
 40
0.9062499999999998
 40
0.9062499999999998
 40
0.9374999999999999
 40
0.9374999999999999
 40
0.96875
 40
0.96875
 40
1.0
 40
1.0
 40
1.03125
 40
1.03125
 10
106.7261406704245
 20
67.39575596567926
 30
0.0
 10
107.1005708902984
 20
67.80611176616439
 30
0.0
 10
107.305423491564
 20
67.98976084882291
 30
0.0
 10
107.7482916884109
 20
68.31671575231822
 30
0.0
 10
107.9882471057293
 20
68.46049396049807
 30
0.0
 10
108.4838580885038
 20
68.69801131594396
 30
0.0
 10
108.7411243796583
 20
68.79333088084167
 30
0.0
 10
109.2744781474953
 20
68.93741641347616
 30
0.0
 10
109.5487582873936
 20
68.98515242044574
 30
0.0
 10
110.0951868219732
 20
69.03073456097957
 30
0.0
 10
110.369763140441
 20
69.02930080090731
 30
0.0
 10
110.9217303147117
 20
68.97638749281647
 30
0.0
 10
111.1923472772834
 20
68.92541776661228
 30
0.0
 10
111.7186324483626
 20
68.77681113966871
 30
0.0
 10
111.9762640117702
 20
68.6785257689116
 30
0.0
 10
112.4721901764437
 20
68.43427240972586
 30
0.0
 10
112.7051738542353
 20
68.2911922787037
 30
0.0
 10
113.1415071295603
 20
67.96333372823486
 30
0.0
 10
113.3467883834186
 20
67.77634009053465
 30
0.0
 10
113.7148226812788
 20
67.36690947071163
 30
0.0
 10
113.876337671264
 20
67.14680402972715
 30
0.0
 10
114.1534953544111
 20
66.67505394828913
 30
0.0
 10
114.2698895338448
 20
66.4200374218479
 30
0.0
 10
114.4431635704914
 20
65.8987995984509
 30
0.0
 10
114.5016101249572
 20
65.63131548067
 30
0.0
 10
114.5454748504331
 20
65.21939982133755
 30
0.0
 10
114.5526550670624
 20
65.07969251826202
 30
0.0
 10
114.551687039767
 20
64.80356946279962
 30
0.0
 10
114.5436842503534
 20
64.66639289646882
 30
0.0
 10
114.4976115184409
 20
64.25745945520558
 30
0.0
 10
114.4366766859889
 20
63.98553320620133
 30
0.0
 10
114.2585565295804
 20
63.46235268974623
 30
0.0
 10
114.142988618238
 20
63.21364068938287
 30
0.0
 10
113.8611418342987
 20
62.7407561643909
 30
0.0
 10
113.6942718888841
 20
62.51714694715878
 30
0.0
 10
113.3249463340853
 20
62.11248955897116
 30
0.0
 10
113.1201611777878
 20
61.92807597080161
 30
0.0
 10
112.6755082302716
 20
61.59904993590722
 30
0.0
 10
112.4406591007608
 20
61.45788185991901
 30
0.0
 10
111.9472493382838
 20
61.21947233113853
 30
0.0
 10
111.6859623845791
 20
61.12168977473364
 30
0.0
 10
111.1552241040664
 20
60.97636174654352
 30
0.0
 10
110.8855844031692
 20
60.92807235634856
 30
0.0
 10
110.337833063424
 20
60.87965713256192
 30
0.0
 10
110.0579290215654
 20
60.88011531819787
 30
0.0
 10
109.5108511137304
 20
60.93026717380005
 30
0.0
 10
109.2412460090429
 20
60.97944074083207
 30
0.0
 10
108.7100912523869
 20
61.12711526413909
 30
0.0
 10
108.4487964359433
 20
61.22627042850468
 30
0.0
 10
107.9564824577679
 20
61.4672831989814
 30
0.0
 10
107.7225255821893
 20
61.60977132360613
 30
0.0
 10
107.2803569616589
 20
61.94125875259106
 30
0.0
 10
107.0751634305472
 20
62.12869238057944
 30
0.0
 10
106.7094692141892
 20
62.53559609962986
 30
0.0
 10
106.5466985918009
 20
62.75677517429884
 30
0.0
 10
106.2657461610353
 20
63.23652250351411
 30
0.0
 10
106.1525423087618
 20
63.48653447032441
 30
0.0
 10
105.9799335846229
 20
64.00660968034481
 30
0.0
 10
105.9203273019465
 20
64.2803411449746
 30
0.0
 10
105.8624355318766
 20
64.82895879487307
 30
0.0
 10
105.8632250707366
 20
65.10329865876464
 30
0.0
 10
105.924415546353
 20
65.6520406099036
 30
0.0
 10
105.985544270087
 20
65.92510592376074
 30
0.0
 10
106.1616239557168
 20
66.44527117252913
 30
0.0
 10
106.2779545507068
 20
66.69759030608806
 30
0.0
 10
106.5611557804475
 20
67.17399464749505
 30
0.0
 10
106.7261406704245
 20
67.39575596567926
 30
0.0
 10
107.1005708902984
 20
67.80611176616439
 30
0.0
  0
CIRCLE
  5
155
330
1F
100
AcDbEntity
  8
0
  6
HIDDEN
 62
     7
370
     0
100
AcDbCircle
 10
110.1021943516
 20
64.9549223159
 30
0.0
 40
4.049999999999997
  0
CIRCLE
  5
156
330
1F
100
AcDbEntity
  8
0
  6
HIDDEN
 62
     7
370
     0
100
AcDbCircle
 10
137.6021943516
 20
64.9549223159
 30
0.0
 40
2.000000000000007
  0
LINE
  5
157
330
1F
100
AcDbEntity
  8
0
  6
HIDDEN
 62
     7
370
     0
100
AcDbLine
 10
125.6021943516
 20
40.7049223159
 30
0.0
 11
125.6950875704
 21
40.7978155347
 31
0.0
  0
LINE
  5
158
330
1F
100
AcDbEntity
  8
0
  6
HIDDEN
 62
     7
370
     0
100
AcDbLine
 10
125.6950875704
 20
89.1120290971
 30
0.0
 11
125.6021943516
 21
89.2049223159
 31
0.0
  0
ARC
  5
159
330
1F
100
AcDbEntity
  8
0
  6
HIDDEN
 62
     7
370
     0
100
AcDbCircle
 10
124.9879807892
 20
41.5049223159
 30
0.0
 40
1.000000000000003
100
AcDbArc
 50
315.0
 51
0.0
  0
ARC
  5
15A
330
1F
100
AcDbEntity
  8
0
  6
HIDDEN
 62
     7
370
     0
100
AcDbCircle
 10
124.9879807892
 20
41.5049223159
 30
0.0
 40
1.0
100
AcDbArc
 50
0.0
 51
52.1052014664
  0
ARC
  5
15B
330
1F
100
AcDbEntity
  8
0
  6
HIDDEN
 62
     7
370
     0
100
AcDbCircle
 10
124.9879807892
 20
88.4049223159
 30
0.0
 40
1.000000000000008
100
AcDbArc
 50
351.8087250651
 51
45.0
  0
ARC
  5
15C
330
1F
100
AcDbEntity
  8
0
  6
HIDDEN
 62
     7
370
     0
100
AcDbCircle
 10
124.9879807892
 20
88.4049223159
 30
0.0
 40
1.000000000000004
100
AcDbArc
 50
307.8947985336
 51
351.8087250651
  0
LINE
  5
15D
330
1F
100
AcDbEntity
  8
0
  6
HIDDEN
 62
     7
370
     0
100
AcDbLine
 10
125.9879807892
 20
41.5049223159
 30
0.0
 11
125.9879807892
 21
88.4049223159
 31
0.0
  0
LINE
  5
15E
330
1F
100
AcDbEntity
  8
0
  6
HIDDEN
 62
     7
370
     0
100
AcDbLine
 10
125.9879807892
 20
41.5049223159
 30
0.0
 11
125.9879807892
 21
88.4049223159
 31
0.0
  0
LINE
  5
15F
330
1F
100
AcDbEntity
  8
0
  6
HIDDEN
 62
     7
370
     0
100
AcDbLine
 10
203.8027788901
 20
67.4549223159
 30
0.0
 11
192.8170156428
 21
67.4549223159
 31
0.0
  0
LINE
  5
160
330
1F
100
AcDbEntity
  8
0
  6
HIDDEN
 62
     7
370
     0
100
AcDbLine
 10
192.8170156428
 20
62.4549223159
 30
0.0
 11
203.8027788901
 21
62.4549223159
 31
0.0
  0
LINE
  5
161
330
1F
100
AcDbEntity
  8
0
  6
HIDDEN
 62
     7
370
     0
100
AcDbLine
 10
87.6021943516
 20
48.7584934714
 30
0.0
 11
89.1324227912
 21
49.641971273
 31
0.0
  0
LINE
  5
162
330
1F
100
AcDbEntity
  8
0
  6
HIDDEN
 62
     7
370
     0
100
AcDbLine
 10
89.1324227912
 20
80.2678733588
 30
0.0
 11
87.6021943516
 21
81.1513511603
 31
0.0
  0
ARC
  5
163
330
1F
100
AcDbEntity
  8
0
  6
HIDDEN
 62
     7
370
     0
100
AcDbCircle
 10
97.6021943516
 20
50.9549223159
 30
0.0
 40
2.000000000000007
100
AcDbArc
 50
189.9742217944
 51
270.0
  0
ARC
  5
164
330
1F
100
AcDbEntity
  8
0
  6
HIDDEN
 62
     7
370
     0
100
AcDbCircle
 10
97.6021943516
 20
78.9549223159
 30
0.0
 40
2.000000000000014
100
AcDbArc
 50
90.0
 51
170.0257782056
  0
LINE
  5
165
330
1F
100
AcDbEntity
  8
0
  6
HIDDEN
 62
     7
370
     0
100
AcDbLine
 10
97.6021943516
 20
48.9549223159
 30
0.0
 11
98.6039956665
 21
48.9549223159
 31
0.0
  0
LINE
  5
166
330
1F
100
AcDbEntity
  8
0
  6
HIDDEN
 62
     7
370
     0
100
AcDbLine
 10
98.6039956665
 20
80.9549223159
 30
0.0
 11
97.6021943516
 21
80.9549223159
 31
0.0
  0
ARC
  5
167
330
1F
100
AcDbEntity
  8
0
  6
HIDDEN
 62
     7
370
     0
100
AcDbCircle
 10
98.6039956665
 20
50.9549223159
 30
0.0
 40
2.000000000000006
100
AcDbArc
 50
270.0
 51
315.0
  0
ARC
  5
168
330
1F
100
AcDbEntity
  8
0
  6
HIDDEN
 62
     7
370
     0
100
AcDbCircle
 10
98.6039956665
 20
78.9549223159
 30
0.0
 40
2.000000000000006
100
AcDbArc
 50
45.0
 51
90.0
  0
LINE
  5
169
330
1F
100
AcDbEntity
  8
0
  6
HIDDEN
 62
     7
370
     0
100
AcDbLine
 10
100.0182092289
 20
49.5407087535
 30
0.0
 11
101.4324227912
 21
50.9549223159
 31
0.0
  0
LINE
  5
16A
330
1F
100
AcDbEntity
  8
0
  6
HIDDEN
 62
     7
370
     0
100
AcDbLine
 10
101.4324227912
 20
78.9549223159
 30
0.0
 11
100.0182092289
 21
80.3691358782
 31
0.0
  0
LINE
  5
16B
330
1F
100
AcDbEntity
  8
0
  6
HIDDEN
 62
     7
370
     0
100
AcDbLine
 10
89.1324227912
 20
49.641971273
 30
0.0
 11
94.0324227912
 21
50.9549223159
 31
0.0
  0
LINE
  5
16C
330
1F
100
AcDbEntity
  8
0
  6
HIDDEN
 62
     7
370
     0
100
AcDbLine
 10
94.0324227912
 20
78.9549223159
 30
0.0
 11
89.1324227912
 21
80.2678733588
 31
0.0
  0
LINE
  5
16D
330
1F
100
AcDbEntity
  8
0
  6
HIDDEN
 62
     7
370
     0
100
AcDbLine
 10
95.6324227912
 20
79.3013324774
 30
0.0
 11
95.0324227912
 21
78.9549223159
 31
0.0
  0
LINE
  5
16E
330
1F
100
AcDbEntity
  8
0
  6
HIDDEN
 62
     7
370
     0
100
AcDbLine
 10
95.0324227912
 20
50.9549223159
 30
0.0
 11
95.6324227912
 21
50.6085121544
 31
0.0
  0
ARC
  5
16F
330
1F
100
AcDbEntity
  8
0
  6
HIDDEN
 62
     7
370
     0
100
AcDbCircle
 10
114.1021943516
 20
51.4549223159
 30
0.0
 40
0.5
100
AcDbArc
 50
270.0
 51
0.0
  0
ARC
  5
170
330
1F
100
AcDbEntity
  8
0
  6
HIDDEN
 62
     7
370
     0
100
AcDbCircle
 10
114.1021943516
 20
78.4549223159
 30
0.0
 40
0.5
100
AcDbArc
 50
0.0
 51
90.0
  0
LINE
  5
171
330
1F
100
AcDbEntity
  8
0
  6
HIDDEN
 62
     7
370
     0
100
AcDbLine
 10
101.4324227912
 20
50.9549223159
 30
0.0
 11
114.1021943516
 21
50.9549223159
 31
0.0
  0
LINE
  5
172
330
1F
100
AcDbEntity
  8
0
  6
HIDDEN
 62
     7
370
     0
100
AcDbLine
 10
114.1021943516
 20
78.9549223159
 30
0.0
 11
101.4324227912
 21
78.9549223159
 31
0.0
  0
LINE
  5
173
330
1F
100
AcDbEntity
  8
0
  6
HIDDEN
 62
     7
370
     0
100
AcDbLine
 10
94.0324227912
 20
50.9549223159
 30
0.0
 11
95.0324227912
 21
50.9549223159
 31
0.0
  0
LINE
  5
174
330
1F
100
AcDbEntity
  8
0
  6
HIDDEN
 62
     7
370
     0
100
AcDbLine
 10
95.0324227912
 20
78.9549223159
 30
0.0
 11
94.0324227912
 21
78.9549223159
 31
0.0
  0
LINE
  5
175
330
1F
100
AcDbEntity
  8
0
  6
HIDDEN
 62
     7
370
     0
100
AcDbLine
 10
114.6021943516
 20
54.7049223159
 30
0.0
 11
115.8521943516
 21
55.9549223159
 31
0.0
  0
LINE
  5
176
330
1F
100
AcDbEntity
  8
0
  6
HIDDEN
 62
     7
370
     0
100
AcDbLine
 10
115.8521943516
 20
73.9549223159
 30
0.0
 11
114.6021943516
 21
75.2049223159
 31
0.0
  0
LINE
  5
177
330
1F
100
AcDbEntity
  8
0
  6
HIDDEN
 62
     7
370
     0
100
AcDbLine
 10
152.6021943516
 20
73.9549223159
 30
0.0
 11
115.8521943516
 21
73.9549223159
 31
0.0
  0
LINE
  5
178
330
1F
100
AcDbEntity
  8
0
  6
HIDDEN
 62
     7
370
     0
100
AcDbLine
 10
115.8521943516
 20
55.9549223159
 30
0.0
 11
152.6021943516
 21
55.9549223159
 31
0.0
  0
LINE
  5
179
330
1F
100
AcDbEntity
  8
0
  6
HIDDEN
 62
     7
370
     0
100
AcDbLine
 10
152.6021943516
 20
55.9549223159
 30
0.0
 11
155.456282292
 21
60.7049223159
 31
0.0
  0
LINE
  5
17A
330
1F
100
AcDbEntity
  8
0
  6
HIDDEN
 62
     7
370
     0
100
AcDbLine
 10
155.456282292
 20
69.2049223159
 30
0.0
 11
152.6021943516
 21
73.9549223159
 31
0.0
  0
LINE
  5
17B
330
1F
100
AcDbEntity
  8
0
  6
HIDDEN
 62
     7
370
     0
100
AcDbLine
 10
196.6021943516
 20
60.7049223159
 30
0.0
 11
199.1558519825
 21
64.9549223159
 31
0.0
  0
LINE
  5
17C
330
1F
100
AcDbEntity
  8
0
  6
HIDDEN
 62
     7
370
     0
100
AcDbLine
 10
199.1558519825
 20
64.9549223159
 30
0.0
 11
196.6021943516
 21
69.2049223159
 31
0.0
  0
LINE
  5
17D
330
1F
100
AcDbEntity
  8
0
  6
HIDDEN
 62
     7
370
     0
100
AcDbLine
 10
196.6021943516
 20
69.2049223159
 30
0.0
 11
155.456282292
 21
69.2049223159
 31
0.0
  0
LINE
  5
17E
330
1F
100
AcDbEntity
  8
0
  6
HIDDEN
 62
     7
370
     0
100
AcDbLine
 10
155.456282292
 20
60.7049223159
 30
0.0
 11
196.6021943516
 21
60.7049223159
 31
0.0
  0
DIMENSION
  5
17F
330
1F
100
AcDbEntity
  8
VERMASSUNG
100
AcDbDimension
  2
_D
 10
82.0469566896
 20
33.4549223159
 30
0.0
 11
82.0469566896
 21
64.9549223159
 31
0.0
 70
   160
  1
%%c<>
 71
     2
 42
-1.0
  3
SLDDIMSTYLE0
100
AcDbAlignedDimension
 13
126.1021943516
 23
96.4549223159
 33
0.0
 14
126.1021943516
 24
33.4549223159
 34
0.0
 50
90.0
100
AcDbRotatedDimension
  0
LINE
  5
18B
330
1F
100
AcDbEntity
  8
VERMASSUNG
  6
CENTERX2
370
     0
100
AcDbLine
 10
259.1694516641
 20
64.9549223159
 30
0.0
 11
85.0607647791
 21
64.9549223159
 31
0.0
  0
LINE
  5
18C
330
1F
100
AcDbEntity
  8
0
  6
Continuous
 62
     7
370
    15
100
AcDbLine
 10
189.6021943516
 20
177.5250469253
 30
0.0
 11
126.1021943516
 21
177.5250469253
 31
0.0
  0
LINE
  5
18D
330
1F
100
AcDbEntity
  8
0
  6
Continuous
 62
     7
370
    15
100
AcDbLine
 10
199.0814100323
 20
177.5250469253
 30
0.0
 11
195.564905213
 21
177.5250469253
 31
0.0
  0
LINE
  5
18E
330
1F
100
AcDbEntity
  8
0
  6
Continuous
 62
     7
370
    15
100
AcDbLine
 10
139.6021943516
 20
114.5250469253
 30
0.0
 11
246.4959337947
 21
114.5250469253
 31
0.0
  0
LINE
  5
18F
330
1F
100
AcDbEntity
  8
0
  6
Continuous
 62
     7
370
    15
100
AcDbLine
 10
126.1021943516
 20
114.5250469253
 30
0.0
 11
135.6268127073
 21
114.5250469253
 31
0.0
  0
ARC
  5
190
330
1F
100
AcDbEntity
  8
0
  6
Continuous
 62
     7
370
    15
100
AcDbCircle
 10
126.1021943516
 20
115.0250469253
 30
0.0
 40
0.5
100
AcDbArc
 50
180.0
 51
270.0
  0
ARC
  5
191
330
1F
100
AcDbEntity
  8
0
  6
Continuous
 62
     7
370
    15
100
AcDbCircle
 10
126.1021943516
 20
177.0250469253
 30
0.0
 40
0.5
100
AcDbArc
 50
90.0
 51
180.0
  0
LWPOLYLINE
  5
192
330
1F
100
AcDbEntity
  8
0
  6
Continuous
 62
     7
370
    15
100
AcDbPolyline
 90
        3
 70
   128
 43
0.0
 10
125.4021943516
 20
123.4852266464
 10
125.5276492951
 20
123.4169245314
 10
125.6021943516
 20
123.3641867733
  0
ARC
  5
193
330
1F
100
AcDbEntity
  8
0
  6
Continuous
 62
     7
370
    15
100
AcDbCircle
 10
124.9879807892
 20
169.4750469253
 30
0.0
 40
1.000000000000018
100
AcDbArc
 50
225.0
 51
307.8947985336
  0
LINE
  5
194
330
1F
100
AcDbEntity
  8
0
  6
Continuous
 62
     7
370
    15
100
AcDbLine
 10
114.5404840575
 20
125.6275851483
 30
0.0
 11
123.4021943516
 21
125.4049481407
 31
0.0
  0
LINE
  5
195
330
1F
100
AcDbEntity
  8
0
  6
Continuous
 62
     7
370
    15
100
AcDbLine
 10
95.968101757
 20
126.0941880367
 30
0.0
 11
105.8715078222
 21
125.8453800055
 31
0.0
  0
ARC
  5
196
330
1F
100
AcDbEntity
  8
0
  6
Continuous
 62
     7
370
    15
100
AcDbCircle
 10
123.6021312625
 20
125.3999250296
 30
0.0
 40
0.2000000000000194
100
AcDbArc
 50
88.5608333333
 51
178.5608333333
  0
ARC
  5
197
330
1F
100
AcDbEntity
  8
0
  6
Continuous
 62
     7
370
    15
100
AcDbCircle
 10
125.2021943516
 20
125.3597258754
 30
0.0
 40
0.2000000000000055
100
AcDbArc
 50
0.0
 51
88.5608333333
  0
LINE
  5
198
330
1F
100
AcDbEntity
  8
0
  6
Continuous
 62
     7
370
    15
100
AcDbLine
 10
123.6071543737
 20
125.5998619405
 30
0.0
 11
125.2072174627
 21
125.5596627864
 31
0.0
  0
ARC
  5
199
330
1F
100
AcDbEntity
  8
0
  6
Continuous
 62
     7
370
    15
100
AcDbCircle
 10
123.6021312625
 20
169.450168821
 30
0.0
 40
0.2000000000000194
100
AcDbArc
 50
181.4391666667
 51
271.4391666667
  0
LINE
  5
19A
330
1F
100
AcDbEntity
  8
0
  6
Continuous
 62
     7
370
    15
100
AcDbLine
 10
123.4021943516
 20
169.4451457098
 30
0.0
 11
89.1021943516
 21
168.5834103215
 31
0.0
  0
LINE
  5
19B
330
1F
100
AcDbEntity
  8
0
  6
Continuous
 62
     7
370
    15
100
AcDbLine
 10
123.8079335007
 20
169.2552761805
 30
0.0
 11
123.6071543737
 21
169.25023191
 31
0.0
  0
LINE
  5
19C
330
1F
100
AcDbEntity
  8
0
  6
Continuous
 62
     7
370
    15
100
AcDbLine
 10
89.1021943516
 20
168.5834103215
 30
0.0
 11
87.6021943516
 21
167.7173849178
 31
0.0
  0
LINE
  5
19D
330
1F
100
AcDbEntity
  8
0
  6
Continuous
 62
     7
370
    15
100
AcDbLine
 10
124.280874008
 20
168.7679401441
 30
0.0
 11
123.8181289119
 21
169.2306852402
 31
0.0
  0
LINE
  5
19E
330
1F
100
AcDbEntity
  8
0
  6
Continuous
 62
     7
370
    15
100
AcDbLine
 10
243.9752820747
 20
146.0565777391
 30
0.0
 11
243.9752820747
 21
146.0250469253
 31
0.0
  0
LINE
  5
19F
330
1F
100
AcDbEntity
  8
0
  6
Continuous
 62
     7
370
    15
100
AcDbLine
 10
235.8923452239
 20
146.0490029148
 30
0.0
 11
235.9493266466
 21
145.7250469253
 31
0.0
  0
SPLINE
  5
1A0
330
1F
100
AcDbEntity
  8
0
  6
Continuous
 62
     7
370
    15
100
AcDbSpline
210
0.0
220
0.0
230
1.0
 70
     8
 71
     3
 72
     9
 73
     5
 74
     0
 42
0.00000001
 43
0.00000001
 12
1.0
 22
0.0
 32
0.0
 13
1.0
 23
0.0
 33
0.0
 40
0.0
 40
0.0
 40
0.0
 40
0.0
 40
0.4998119767810014
 40
1.0
 40
1.0
 40
1.0
 40
1.0
 10
254.8882629036472
 20
142.0181432859014
 30
0.0
 10
255.0142443875314
 20
142.6888591527118
 30
0.0
 10
255.26630214072
 20
144.0307955167225
 30
0.0
 10
255.4997251238281
 20
145.3760984833073
 30
0.0
 10
255.6164805043229
 20
146.049002914794
 30
0.0
  0
ARC
  5
1A1
330
1F
100
AcDbEntity
  8
0
  6
Continuous
 62
     7
370
    15
100
AcDbCircle
 10
137.6022534496
 20
83.0603476701
 30
0.0
 40
31.52819472830569
100
AcDbArc
 50
86.3630915114
 51
93.5922959171
  0
SPLINE
  5
1A2
330
1F
100
AcDbEntity
  8
0
  6
Continuous
 62
     7
370
    15
100
AcDbSpline
210
0.0
220
0.0
230
1.0
 70
     8
 71
     3
 72
    12
 73
     8
 74
     0
 42
0.00000001
 43
0.00000001
 12
1.0
 22
0.0
 32
0.0
 13
1.0
 23
0.0
 33
0.0
 40
0.0
 40
0.0
 40
0.0
 40
0.0
 40
0.4999999999999981
 40
0.4999999999999981
 40
0.749999999999999
 40
0.749999999999999
 40
1.0
 40
1.0
 40
1.0
 40
1.0
 10
135.6969384632735
 20
116.1243044651444
 30
0.0
 10
135.7276607051926
 20
116.0870024821914
 30
0.0
 10
135.7704979197277
 20
116.050390650145
 30
0.0
 10
135.8699249439275
 20
116.0026258668598
 30
0.0
 10
135.9096771387442
 20
115.9876683513774
 30
0.0
 10
136.0077185956024
 20
115.9644784056083
 30
0.0
 10
136.0672746511899
 20
115.9565549663886
 30
0.0
 10
136.1299511651657
 20
115.9565549663886
 30
0.0
  0
LINE
  5
1A3
330
1F
100
AcDbEntity
  8
0
  6
Continuous
 62
     7
370
    15
100
AcDbLine
 10
136.1299511652
 20
115.9565549664
 30
0.0
 11
139.074437538
 21
115.9565549664
 31
0.0
  0
SPLINE
  5
1A4
330
1F
100
AcDbEntity
  8
0
  6
Continuous
 62
     7
370
    15
100
AcDbSpline
210
0.0
220
0.0
230
1.0
 70
     8
 71
     3
 72
    12
 73
     8
 74
     0
 42
0.00000001
 43
0.00000001
 12
1.0
 22
0.0
 32
0.0
 13
1.0
 23
0.0
 33
0.0
 40
0.0
 40
0.0
 40
0.0
 40
0.0
 40
0.25
 40
0.25
 40
0.5
 40
0.5
 40
1.0
 40
1.0
 40
1.0
 40
1.0
 10
139.0744375380328
 20
115.9565549663885
 30
0.0
 10
139.1375175765262
 20
115.9565549663886
 30
0.0
 10
139.1966661987076
 20
115.964460892601
 30
0.0
 10
139.2951387487767
 20
115.9877860540372
 30
0.0
 10
139.3341753607614
 20
116.0024988438689
 30
0.0
 10
139.4340718275404
 20
116.0504546445998
 30
0.0
 10
139.4764927086071
 20
116.0867168011799
 30
0.0
 10
139.507450239925
 20
116.1243044651444
 30
0.0
  0
ELLIPSE
  5
1A5
330
1F
100
AcDbEntity
  8
0
  6
Continuous
 62
     7
370
    15
100
AcDbEllipse
 10
123.2550401622
 20
146.0250469253
 30
0.0
 11
-14.75368316065623
 21
31.09325491558113
 31
0.0
210
0.0
220
0.0
230
1.0
 40
0.3419987131
 41
3.300734856217117
 42
4.231496223360767
  0
SPLINE
  5
1A6
330
1F
100
AcDbEntity
  8
0
  6
Continuous
 62
     7
370
    15
100
AcDbSpline
210
0.0
220
0.0
230
1.0
 70
     8
 71
     3
 72
    12
 73
     8
 74
     0
 42
0.00000001
 43
0.00000001
 12
1.0
 22
0.0
 32
0.0
 13
1.0
 23
0.0
 33
0.0
 40
0.0
 40
0.0
 40
0.0
 40
0.0
 40
0.4999999999999953
 40
0.4999999999999953
 40
0.7499999999999977
 40
0.7499999999999977
 40
1.0
 40
1.0
 40
1.0
 40
1.0
 10
139.507450239925
 20
136.1156776045762
 30
0.0
 10
139.4767279980059
 20
136.2282334039854
 30
0.0
 10
139.4338907834708
 20
136.340991263725
 30
0.0
 10
139.334463759271
 20
136.4905321495213
 30
0.0
 10
139.2947115644544
 20
136.5378248812282
 30
0.0
 10
139.1966701075961
 20
136.6115611745496
 30
0.0
 10
139.1371140520087
 20
136.6369804939253
 30
0.0
 10
139.0744375380328
 20
136.6369804939253
 30
0.0
  0
LINE
  5
1A7
330
1F
100
AcDbEntity
  8
0
  6
Continuous
 62
     7
370
    15
100
AcDbLine
 10
139.074437538
 20
136.6369804939
 30
0.0
 11
136.1299511652
 21
136.6369804939
 31
0.0
  0
SPLINE
  5
1A8
330
1F
100
AcDbEntity
  8
0
  6
Continuous
 62
     7
370
    15
100
AcDbSpline
210
0.0
220
0.0
230
1.0
 70
     8
 71
     3
 72
    12
 73
     8
 74
     0
 42
0.00000001
 43
0.00000001
 12
1.0
 22
0.0
 32
0.0
 13
1.0
 23
0.0
 33
0.0
 40
0.0
 40
0.0
 40
0.0
 40
0.0
 40
0.2499999999999999
 40
0.2499999999999999
 40
0.4999999999999999
 40
0.4999999999999999
 40
1.0
 40
1.0
 40
1.0
 40
1.0
 10
136.1299511651657
 20
136.6369804939253
 30
0.0
 10
136.0668711266724
 20
136.6369804939253
 30
0.0
 10
136.0077225044909
 20
136.6116161747104
 30
0.0
 10
135.9092499544219
 20
136.5374513143375
 30
0.0
 10
135.8702133424372
 20
136.4909309737834
 30
0.0
 10
135.7703168756581
 20
136.3407886309381
 30
0.0
 10
135.7278959945914
 20
136.229095423966
 30
0.0
 10
135.6969384632735
 20
136.1156776045762
 30
0.0
  0
ELLIPSE
  5
1A9
330
1F
100
AcDbEntity
  8
0
  6
Continuous
 62
     7
370
    15
100
AcDbEllipse
 10
151.949348541
 20
146.0250469253
 30
0.0
 11
14.75368316065621
 21
31.09325491558113
 31
0.0
210
0.0
220
0.0
230
1.0
 40
0.3419987131
 41
2.05168908381883
 42
2.982450450962504
  0
SPLINE
  5
1AA
330
1F
100
AcDbEntity
  8
0
  6
Continuous
 62
     7
370
    15
100
AcDbSpline
210
0.0
220
0.0
230
1.0
 70
     8
 71
     3
 72
    12
 73
     8
 74
     0
 42
0.00000001
 43
0.00000001
 12
1.0
 22
0.0
 32
0.0
 13
1.0
 23
0.0
 33
0.0
 40
0.0
 40
0.0
 40
0.0
 40
0.0
 40
0.4999999999999972
 40
0.4999999999999972
 40
0.7499999999999986
 40
0.7499999999999986
 40
1.0
 40
1.0
 40
1.0
 40
1.0
 10
135.6969384632735
 20
155.934416245947
 30
0.0
 10
135.7280836612356
 20
155.8203108800817
 30
0.0
 10
135.77035792757
 20
155.7092045528629
 30
0.0
 10
135.8703034613953
 20
155.5590469454327
 30
0.0
 10
135.9100337660994
 20
155.5120542538153
 30
0.0
 10
136.0069218161056
 20
155.4390786692768
 30
0.0
 10
136.0669870578522
 20
155.4131133565978
 30
0.0
 10
136.1299511651657
 20
155.4131133565978
 30
0.0
  0
LINE
  5
1AB
330
1F
100
AcDbEntity
  8
0
  6
Continuous
 62
     7
370
    15
100
AcDbLine
 10
136.1299511652
 20
155.4131133566
 30
0.0
 11
139.074437538
 21
155.4131133566
 31
0.0
  0
SPLINE
  5
1AC
330
1F
100
AcDbEntity
  8
0
  6
Continuous
 62
     7
370
    15
100
AcDbSpline
210
0.0
220
0.0
230
1.0
 70
     8
 71
     3
 72
    12
 73
     8
 74
     0
 42
0.00000001
 43
0.00000001
 12
1.0
 22
0.0
 32
0.0
 13
1.0
 23
0.0
 33
0.0
 40
0.0
 40
0.0
 40
0.0
 40
0.0
 40
0.2500000000000001
 40
0.2500000000000001
 40
0.5000000000000001
 40
0.5000000000000001
 40
1.0
 40
1.0
 40
1.0
 40
1.0
 10
139.0744375380328
 20
155.4131133565979
 30
0.0
 10
139.1374944929306
 20
155.4131133565979
 30
0.0
 10
139.1966246426762
 20
155.4384597099786
 30
0.0
 10
139.2950721932095
 20
155.5125790921181
 30
0.0
 10
139.3341044313976
 20
155.5590756068161
 30
0.0
 10
139.4339943158546
 20
155.7091501138247
 30
0.0
 10
139.4762932894639
 20
155.8202678229395
 30
0.0
 10
139.5074502399251
 20
155.934416245947
 30
0.0
  0
ELLIPSE
  5
1AD
330
1F
100
AcDbEntity
  8
0
  6
Continuous
 62
     7
370
    15
100
AcDbEllipse
 10
123.2550401622
 20
146.0250469253
 30
0.0
 11
14.75368316065615
 21
31.09325491558113
 31
0.0
210
0.0
220
0.0
230
1.0
 40
0.3419987131
 41
5.19328173740863
 42
6.124043104552335
  0
SPLINE
  5
1AE
330
1F
100
AcDbEntity
  8
0
  6
Continuous
 62
     7
370
    15
100
AcDbSpline
210
0.0
220
0.0
230
1.0
 70
     8
 71
     3
 72
    12
 73
     8
 74
     0
 42
0.00000001
 43
0.00000001
 12
1.0
 22
0.0
 32
0.0
 13
1.0
 23
0.0
 33
0.0
 40
0.0
 40
0.0
 40
0.0
 40
0.0
 40
0.5000000000000029
 40
0.5000000000000029
 40
0.7500000000000014
 40
0.7500000000000014
 40
1.0
 40
1.0
 40
1.0
 40
1.0
 10
139.507450239925
 20
175.9257893853789
 30
0.0
 10
139.4763050419629
 20
175.9636049082991
 30
0.0
 10
139.4340307756285
 20
175.9996717663828
 30
0.0
 10
139.3340852418032
 20
176.0476318313941
 30
0.0
 10
139.2943549370991
 20
176.0624928052917
 30
0.0
 10
139.197466887093
 20
176.0854439514228
 30
0.0
 10
139.1374016453464
 20
176.0935388841349
 30
0.0
 10
139.0744375380328
 20
176.0935388841349
 30
0.0
  0
LINE
  5
1AF
330
1F
100
AcDbEntity
  8
0
  6
Continuous
 62
     7
370
    15
100
AcDbLine
 10
139.074437538
 20
176.0935388841
 30
0.0
 11
136.1299511652
 21
176.0935388841
 31
0.0
  0
SPLINE
  5
1B0
330
1F
100
AcDbEntity
  8
0
  6
Continuous
 62
     7
370
    15
100
AcDbSpline
210
0.0
220
0.0
230
1.0
 70
     8
 71
     3
 72
    12
 73
     8
 74
     0
 42
0.00000001
 43
0.00000001
 12
1.0
 22
0.0
 32
0.0
 13
1.0
 23
0.0
 33
0.0
 40
0.0
 40
0.0
 40
0.0
 40
0.0
 40
0.25
 40
0.25
 40
0.5
 40
0.5
 40
1.0
 40
1.0
 40
1.0
 40
1.0
 10
136.1299511651657
 20
176.0935388841348
 30
0.0
 10
136.0668942102679
 20
176.0935388841348
 30
0.0
 10
136.0077640605223
 20
176.0856385530552
 30
0.0
 10
135.9093165099891
 20
176.0623278050502
 30
0.0
 10
135.870284271801
 20
176.0476226787666
 30
0.0
 10
135.770394387344
 20
175.9996891505799
 30
0.0
 10
135.7280954137347
 20
175.9636191778152
 30
0.0
 10
135.6969384632734
 20
175.925789385379
 30
0.0
  0
ELLIPSE
  5
1B1
330
1F
100
AcDbEntity
  8
0
  6
Continuous
 62
     7
370
    15
100
AcDbEllipse
 10
151.949348541
 20
146.0250469253
 30
0.0
 11
-14.75368316065615
 21
31.09325491558113
 31
0.0
210
0.0
220
0.0
230
1.0
 40
0.3419987131
 41
0.1591422026272956
 42
1.089903569770969
  0
LINE
  5
1B2
330
1F
100
AcDbEntity
  8
0
  6
Continuous
 62
     7
370
    15
100
AcDbLine
 10
203.985286671
 20
159.2235301555
 30
0.0
 11
199.0814100323
 21
177.5250469253
 31
0.0
  0
ELLIPSE
  5
1B3
330
1F
100
AcDbEntity
  8
0
  6
Continuous
 62
     7
370
    15
100
AcDbEllipse
 10
255.4187624086
 20
146.0250469253
 30
0.0
 11
61.01644039620209
 21
5.823223729669878
 31
0.0
210
0.0
220
0.0
230
1.0
 40
0.5073561797
 41
2.523315813327813
 42
4.517422116362711
  0
LINE
  5
1B4
330
1F
100
AcDbEntity
  8
0
  6
Continuous
 62
     7
370
    15
100
AcDbLine
 10
246.4959337947
 20
114.5250469253
 30
0.0
 11
246.4962755327
 21
114.5263320787
 31
0.0
  0
ARC
  5
1B5
330
1F
100
AcDbEntity
  8
0
  6
Continuous
 62
     7
370
    15
100
AcDbCircle
 10
192.6020876455
 20
208.9480203473
 30
0.0
 40
31.56584575862688
100
AcDbArc
 50
264.5466052905
 51
275.3857956481
  0
LINE
  5
1B6
330
1F
100
AcDbEntity
  8
0
  6
Continuous
 62
     7
370
    15
100
AcDbLine
 10
125.6021943516
 20
146.0250469253
 30
0.0
 11
125.6021943516
 21
177.0250469253
 31
0.0
  0
LINE
  5
1B7
330
1F
100
AcDbEntity
  8
0
  6
Continuous
 62
     7
370
    15
100
AcDbLine
 10
125.6021943516
 20
115.0250469253
 30
0.0
 11
125.6021943516
 21
146.0250469253
 31
0.0
  0
LINE
  5
1B8
330
1F
100
AcDbEntity
  8
0
  6
Continuous
 62
     7
370
    15
100
AcDbLine
 10
246.4962755327
 20
114.5263320787
 30
0.0
 11
253.8164949503
 21
142.0550469253
 31
0.0
  0
LINE
  5
1B9
330
1F
100
AcDbEntity
  8
0
  6
Continuous
 62
     7
370
    15
100
AcDbLine
 10
206.4106013217
 20
150.1721326546
 30
0.0
 11
203.985286671
 21
159.2235301555
 31
0.0
  0
ARC
  5
1BA
330
1F
100
AcDbEntity
  8
0
  6
Continuous
 62
     7
370
    15
100
AcDbCircle
 10
212.2061562795
 20
151.7250469253
 30
0.0
 40
6.0
100
AcDbArc
 50
195.0
 51
270.0
  0
LINE
  5
1BB
330
1F
100
AcDbEntity
  8
0
  6
Continuous
 62
     7
370
    15
100
AcDbLine
 10
245.4295607786
 20
145.7250469253
 30
0.0
 11
212.2061562795
 21
145.7250469253
 31
0.0
  0
LINE
  5
1BC
330
1F
100
AcDbEntity
  8
0
  6
Continuous
 62
     7
370
    15
100
AcDbLine
 10
245.4295607786
 20
145.7250469253
 30
0.0
 11
245.4295607786
 21
143.5250469253
 31
0.0
  0
LINE
  5
1BD
330
1F
100
AcDbEntity
  8
0
  6
Continuous
 62
     7
370
    15
100
AcDbLine
 10
245.2341153572
 20
142.0550469253
 30
0.0
 11
245.4295607786
 21
143.5250469253
 31
0.0
  0
LINE
  5
1BE
330
1F
100
AcDbEntity
  8
0
  6
Continuous
 62
     7
370
    15
100
AcDbLine
 10
245.4295607786
 20
142.0550469253
 30
0.0
 11
245.2341153572
 21
142.0550469253
 31
0.0
  0
LINE
  5
1BF
330
1F
100
AcDbEntity
  8
0
  6
Continuous
 62
     7
370
    15
100
AcDbLine
 10
125.4021943516
 20
129.2348455715
 30
0.0
 11
125.4021943516
 21
123.4852266464
 31
0.0
  0
SPLINE
  5
1C0
330
1F
100
AcDbEntity
  8
0
  6
Continuous
 62
     7
370
    15
100
AcDbSpline
210
0.0
220
0.0
230
1.0
 70
     8
 71
     3
 72
    16
 73
    12
 74
     0
 42
0.00000001
 43
0.00000001
 12
1.0
 22
0.0
 32
0.0
 13
1.0
 23
0.0
 33
0.0
 40
0.0
 40
0.0
 40
0.0
 40
0.0
 40
0.5000000000000066
 40
0.5000000000000066
 40
0.7500000000000098
 40
0.7500000000000098
 40
0.8750000000000041
 40
0.8750000000000041
 40
0.9375000000000021
 40
0.9375000000000021
 40
1.0
 40
1.0
 40
1.0
 40
1.0
 10
125.4021943515993
 20
129.2348455715206
 30
0.0
 10
125.4021943515993
 20
129.3146692825011
 30
0.0
 10
125.3980480765213
 20
129.3965254003851
 30
0.0
 10
125.3720824811278
 20
129.5253405214691
 30
0.0
 10
125.3606215757503
 20
129.5701311931707
 30
0.0
 10
125.326309837976
 20
129.636262000902
 30
0.0
 10
125.3122851020463
 20
129.659109059105
 30
0.0
 10
125.2762621390126
 20
129.6855398123473
 30
0.0
 10
125.2615076299229
 20
129.6919674814895
 30
0.0
 10
125.2321554687761
 20
129.6949284046447
 30
0.0
 10
125.218815594272
 20
129.6919470131365
 30
0.0
 10
125.2072174627236
 20
129.6872040254553
 30
0.0
  0
SPLINE
  5
1C1
330
1F
100
AcDbEntity
  8
0
  6
Continuous
 62
     7
370
    15
100
AcDbSpline
210
0.0
220
0.0
230
1.0
 70
     8
 71
     3
 72
    12
 73
     8
 74
     0
 42
0.00000001
 43
0.00000001
 12
1.0
 22
0.0
 32
0.0
 13
1.0
 23
0.0
 33
0.0
 40
0.0
 40
0.0
 40
0.0
 40
0.0
 40
0.2499999999999994
 40
0.2499999999999994
 40
0.4999999999999991
 40
0.4999999999999991
 40
1.0
 40
1.0
 40
1.0
 40
1.0
 10
125.2072174627307
 20
129.6872040254499
 30
0.0
 10
125.1770256210135
 20
129.6748572493553
 30
0.0
 10
125.1436666515989
 20
129.6643595628855
 30
0.0
 10
125.0705293670183
 20
129.6509385083063
 30
0.0
 10
125.0302874943643
 20
129.6483280970593
 30
0.0
 10
124.9125817173958
 20
129.6562985498015
 30
0.0
 10
124.8421712396164
 20
129.6813863074194
 30
0.0
 10
124.7856820651481
 20
129.7106759497476
 30
0.0
  0
SPLINE
  5
1C2
330
1F
100
AcDbEntity
  8
0
  6
Continuous
 62
     7
370
    15
100
AcDbSpline
210
0.0
220
0.0
230
1.0
 70
     8
 71
     3
 72
    12
 73
     8
 74
     0
 42
0.00000001
 43
0.00000001
 12
1.0
 22
0.0
 32
0.0
 13
1.0
 23
0.0
 33
0.0
 40
0.0
 40
0.0
 40
0.0
 40
0.0
 40
0.2500000000000012
 40
0.2500000000000012
 40
0.4999999999999996
 40
0.4999999999999996
 40
1.0
 40
1.0
 40
1.0
 40
1.0
 10
124.7856820651477
 20
129.7106759497475
 30
0.0
 10
124.69752812741
 20
129.7563837748392
 30
0.0
 10
124.6371747027813
 20
129.8118010131585
 30
0.0
 10
124.5309127447144
 20
129.9300937402137
 30
0.0
 10
124.4886805781524
 20
129.9918888556226
 30
0.0
 10
124.3776098828352
 20
130.1833094821376
 30
0.0
 10
124.3246731064084
 20
130.319056147023
 30
0.0
 10
124.2808740080396
 20
130.4618456808368
 30
0.0
  0
SPLINE
  5
1C3
330
1F
100
AcDbEntity
  8
0
  6
Continuous
 62
     7
370
    15
100
AcDbSpline
210
0.0
220
0.0
230
1.0
 70
     8
 71
     3
 72
    12
 73
     8
 74
     0
 42
0.00000001
 43
0.00000001
 12
1.0
 22
0.0
 32
0.0
 13
1.0
 23
0.0
 33
0.0
 40
0.0
 40
0.0
 40
0.0
 40
0.0
 40
0.4999999999999991
 40
0.4999999999999991
 40
0.7499999999999996
 40
0.7499999999999996
 40
1.0
 40
1.0
 40
1.0
 40
1.0
 10
124.2808740080396
 20
139.4445631151604
 30
0.0
 10
124.3246205488762
 20
139.683737042207
 30
0.0
 10
124.3775049041077
 20
139.9211798971229
 30
0.0
 10
124.4890719914439
 20
140.2700179335384
 30
0.0
 10
124.5316555879868
 20
140.3849268411489
 30
0.0
 10
124.6365723150686
 20
140.6048092860591
 30
0.0
 10
124.6981059229134
 20
140.7131702070734
 30
0.0
 10
124.7856820651396
 20
140.8001757946726
 30
0.0
  0
SPLINE
  5
1C4
330
1F
100
AcDbEntity
  8
0
  6
Continuous
 62
     7
370
    15
100
AcDbSpline
210
0.0
220
0.0
230
1.0
 70
     8
 71
     3
 72
    12
 73
     8
 74
     0
 42
0.00000001
 43
0.00000001
 12
1.0
 22
0.0
 32
0.0
 13
1.0
 23
0.0
 33
0.0
 40
0.0
 40
0.0
 40
0.0
 40
0.0
 40
0.4999999999999998
 40
0.4999999999999998
 40
0.7499999999999997
 40
0.7499999999999997
 40
1.0
 40
1.0
 40
1.0
 40
1.0
 10
124.7856820651428
 20
140.8001757946727
 30
0.0
 10
124.84211856605
 20
140.8562446143145
 30
0.0
 10
124.9112031967387
 20
140.9033572930689
 30
0.0
 10
125.0300054684567
 20
140.9146777395647
 30
0.0
 10
125.0701907439267
 20
140.9076768490732
 30
0.0
 10
125.1435717913306
 20
140.8774655524144
 30
0.0
 10
125.1769813550732
 20
140.8548867420328
 30
0.0
 10
125.2072174627296
 20
140.8287994206786
 30
0.0
  0
SPLINE
  5
1C5
330
1F
100
AcDbEntity
  8
0
  6
Continuous
 62
     7
370
    15
100
AcDbSpline
210
0.0
220
0.0
230
1.0
 70
     8
 71
     3
 72
    16
 73
    12
 74
     0
 42
0.00000001
 43
0.00000001
 12
1.0
 22
0.0
 32
0.0
 13
1.0
 23
0.0
 33
0.0
 40
0.0
 40
0.0
 40
0.0
 40
0.0
 40
0.0625000000000009
 40
0.0625000000000009
 40
0.1250000000000019
 40
0.1250000000000019
 40
0.2500000000000022
 40
0.2500000000000022
 40
0.5000000000000027
 40
0.5000000000000027
 40
1.0
 40
1.0
 40
1.0
 40
1.0
 10
125.2072174626924
 20
140.8287994206217
 30
0.0
 10
125.2187978702804
 20
140.8188079952119
 30
0.0
 10
125.2321073970417
 20
140.8105505888303
 30
0.0
 10
125.2614088271278
 20
140.8048013040181
 30
0.0
 10
125.2762229270121
 20
140.8084116027262
 30
0.0
 10
125.3120513287149
 20
140.8313320620088
 30
0.0
 10
125.326170953078
 20
140.8571275702544
 30
0.0
 10
125.3606750971665
 20
140.9352825946735
 30
0.0
 10
125.3717796478711
 20
140.9914254374094
 30
0.0
 10
125.3979558250873
 20
141.1623314929431
 30
0.0
 10
125.4021943515993
 20
141.279546585522
 30
0.0
 10
125.4021943515993
 20
141.3971111847437
 30
0.0
  0
LINE
  5
1C6
330
1F
100
AcDbEntity
  8
0
  6
Continuous
 62
     7
370
    15
100
AcDbLine
 10
125.4021943516
 20
167.4431840195
 30
0.0
 11
125.4021943516
 21
141.3971111847
 31
0.0
  0
SPLINE
  5
1C7
330
1F
100
AcDbEntity
  8
0
  6
Continuous
 62
     7
370
    15
100
AcDbSpline
210
0.0
220
0.0
230
1.0
 70
     8
 71
     3
 72
    16
 73
    12
 74
     0
 42
0.00000001
 43
0.00000001
 12
1.0
 22
0.0
 32
0.0
 13
1.0
 23
0.0
 33
0.0
 40
0.0
 40
0.0
 40
0.0
 40
0.0
 40
0.5000000000000064
 40
0.5000000000000064
 40
0.7500000000000062
 40
0.7500000000000062
 40
0.8750000000000046
 40
0.8750000000000046
 40
0.9375000000000023
 40
0.9375000000000023
 40
1.0
 40
1.0
 40
1.0
 40
1.0
 10
125.4021943515993
 20
167.4431840195209
 30
0.0
 10
125.4021943515993
 20
167.480457860431
 30
0.0
 10
125.3980480765213
 20
167.5147539524497
 30
0.0
 10
125.3720824811278
 20
167.556852141586
 30
0.0
 10
125.3606215757504
 20
167.5697657831507
 30
0.0
 10
125.326309837976
 20
167.5814776338902
 30
0.0
 10
125.3122851020464
 20
167.5844910657464
 30
0.0
 10
125.2762621390126
 20
167.5811936029706
 30
0.0
 10
125.261507629923
 20
167.5783721179827
 30
0.0
 10
125.2321554687761
 20
167.5696903769913
 30
0.0
 10
125.218815594272
 20
167.5644010593842
 30
0.0
 10
125.2072174627236
 20
167.5591373296586
 30
0.0
  0
SPLINE
  5
1C8
330
1F
100
AcDbEntity
  8
0
  6
Continuous
 62
     7
370
    15
100
AcDbSpline
210
0.0
220
0.0
230
1.0
 70
     8
 71
     3
 72
    12
 73
     8
 74
     0
 42
0.00000001
 43
0.00000001
 12
1.0
 22
0.0
 32
0.0
 13
1.0
 23
0.0
 33
0.0
 40
0.0
 40
0.0
 40
0.0
 40
0.0
 40
0.2500000000000006
 40
0.2500000000000006
 40
0.5000000000000008
 40
0.5000000000000008
 40
1.0
 40
1.0
 40
1.0
 40
1.0
 10
125.2072174627307
 20
167.5591373296536
 30
0.0
 10
125.1770190212901
 20
167.5454319812342
 30
0.0
 10
125.1436516659541
 20
167.5333843757838
 30
0.0
 10
125.0704963901242
 20
167.5166243875541
 30
0.0
 10
125.0302436911002
 20
167.5122154980132
 30
0.0
 10
124.9125149478253
 20
167.5151452631108
 30
0.0
 10
124.8420564997664
 20
167.5375120233665
 30
0.0
 10
124.7856820651482
 20
167.5642890313722
 30
0.0
  0
SPLINE
  5
1C9
330
1F
100
AcDbEntity
  8
0
  6
Continuous
 62
     7
370
    15
100
AcDbSpline
210
0.0
220
0.0
230
1.0
 70
     8
 71
     3
 72
    12
 73
     8
 74
     0
 42
0.00000001
 43
0.00000001
 12
1.0
 22
0.0
 32
0.0
 13
1.0
 23
0.0
 33
0.0
 40
0.0
 40
0.0
 40
0.0
 40
0.0
 40
0.4999999999999993
 40
0.4999999999999993
 40
0.7499999999999997
 40
0.7499999999999997
 40
1.0
 40
1.0
 40
1.0
 40
1.0
 10
124.2808740080396
 20
168.168731979788
 30
0.0
 10
124.3246243599241
 20
168.0721678320296
 30
0.0
 10
124.3775145110486
 20
167.9705435688439
 30
0.0
 10
124.4891260541902
 20
167.8137891046609
 30
0.0
 10
124.5316853980938
 20
167.7609225349873
 30
0.0
 10
124.6366626334312
 20
167.6577664206729
 30
0.0
 10
124.6982298765258
 20
167.6058275048081
 30
0.0
 10
124.7856820651482
 20
167.5642890313722
 30
0.0
  0
SPLINE
  5
1CA
330
1F
100
AcDbEntity
  8
0
  6
Continuous
 62
     7
370
    15
100
AcDbSpline
210
0.0
220
0.0
230
1.0
 70
     8
 71
     3
 72
    16
 73
    12
 74
     0
 42
0.00000001
 43
0.00000001
 12
1.0
 22
0.0
 32
0.0
 13
1.0
 23
0.0
 33
0.0
 40
0.0
 40
0.0
 40
0.0
 40
0.0
 40
0.2500000000000001
 40
0.2500000000000001
 40
0.3749999999999999
 40
0.3749999999999999
 40
0.4999999999999998
 40
0.4999999999999998
 40
0.7499999999999999
 40
0.7499999999999999
 40
1.0
 40
1.0
 40
1.0
 40
1.0
 10
124.2808740080396
 20
130.4618456808368
 30
0.0
 10
124.1196415305552
 20
130.9874800238497
 30
0.0
 10
123.9991616909155
 20
131.5803115514087
 30
0.0
 10
123.8767811736022
 20
132.5700832425336
 30
0.0
 10
123.8458035132048
 20
132.9168868883579
 30
0.0
 10
123.8041897755768
 20
133.6458754875979
 30
0.0
 10
123.793953862644
 20
134.0211504396871
 30
0.0
 10
123.7937654655879
 20
135.1773504859071
 30
0.0
 10
123.8339101682255
 20
135.9887064987068
 30
0.0
 10
123.9980639231651
 20
137.6945507444948
 30
0.0
 10
124.1196155735746
 20
138.5629205371917
 30
0.0
 10
124.2808740080396
 20
139.4445631151604
 30
0.0
  0
LINE
  5
1CB
330
1F
100
AcDbEntity
  8
0
  6
Continuous
 62
     7
370
    15
100
AcDbLine
 10
123.4021943516
 20
140.8001757947
 30
0.0
 11
123.4021943516
 21
167.7074474318
 31
0.0
  0
LINE
  5
1CC
330
1F
100
AcDbEntity
  8
0
  6
Continuous
 62
     7
370
    15
100
AcDbLine
 10
89.1021943516
 20
140.8001757947
 30
0.0
 11
89.1021943516
 21
166.9611626942
 31
0.0
  0
LINE
  5
1CD
330
1F
100
AcDbEntity
  8
0
  6
Continuous
 62
     7
370
    15
100
AcDbLine
 10
123.4021943516
 20
129.5675175493
 30
0.0
 11
123.4021943516
 21
140.8001757947
 31
0.0
  0
LINE
  5
1CE
330
1F
100
AcDbEntity
  8
0
  6
Continuous
 62
     7
370
    15
100
AcDbLine
 10
89.1021943516
 20
130.3138022869
 30
0.0
 11
89.1021943516
 21
140.8001757947
 31
0.0
  0
LINE
  5
1CF
330
1F
100
AcDbEntity
  8
0
  6
Continuous
 62
     7
370
    15
100
AcDbLine
 10
87.6021943516
 20
131.0638022869
 30
0.0
 11
87.6021943516
 21
140.8001757947
 31
0.0
  0
LINE
  5
1D0
330
1F
100
AcDbEntity
  8
0
  6
Continuous
 62
     7
370
    15
100
AcDbLine
 10
87.6021943516
 20
140.8001757947
 30
0.0
 11
87.6021943516
 21
166.2111626942
 31
0.0
  0
SPLINE
  5
1D1
330
1F
100
AcDbEntity
  8
0
  6
Continuous
 62
     7
370
    15
100
AcDbSpline
210
0.0
220
0.0
230
1.0
 70
     8
 71
     3
 72
     8
 73
     4
 74
     0
 42
0.00000001
 43
0.00000001
 12
1.0
 22
0.0
 32
0.0
 13
1.0
 23
0.0
 33
0.0
 40
0.0000249638557296
 40
0.0000249638557296
 40
0.0000249638557296
 40
0.0000249638557296
 40
0.0049776420541172
 40
0.0049776420541172
 40
0.0049776420541172
 40
0.0049776420541172
 10
89.10219435159928
 20
126.5280573120595
 30
0.0
 10
90.75217058610882
 20
126.4917080991215
 30
0.0
 10
92.40217190585386
 20
126.4552835129894
 30
0.0
 10
94.05219435159928
 20
126.4187836347786
 30
0.0
  0
LINE
  5
1D2
330
1F
100
AcDbEntity
  8
0
  6
Continuous
 62
     7
370
    15
100
AcDbLine
 10
89.1021943516
 20
126.5280573121
 30
0.0
 11
89.1021943516
 21
130.3138022869
 31
0.0
  0
LINE
  5
1D3
330
1F
100
AcDbEntity
  8
0
  6
Continuous
 62
     7
370
    15
100
AcDbLine
 10
123.4021943516
 20
125.4049481407
 30
0.0
 11
123.4021943516
 21
129.5675175493
 31
0.0
  0
SPLINE
  5
1D4
330
1F
100
AcDbEntity
  8
0
  6
Continuous
 62
     7
370
    15
100
AcDbSpline
210
0.0
220
0.0
230
1.0
 70
     8
 71
     3
 72
    13
 73
     9
 74
     0
 42
0.00000001
 43
0.00000001
 12
1.0
 22
0.0
 32
0.0
 13
1.0
 23
0.0
 33
0.0
 40
0.0
 40
0.0
 40
0.0
 40
0.0
 40
0.321584752684968
 40
0.4843334633322202
 40
0.648365393223888
 40
0.795403819569855
 40
0.9461289082384656
 40
1.0
 40
1.0
 40
1.0
 40
1.0
 10
94.05219435159928
 20
126.4187836347786
 30
0.0
 10
94.35203428731275
 20
126.3622371960378
 30
0.0
 10
94.80361824238811
 20
126.2770735423331
 30
0.0
 10
95.32177653009217
 20
126.1924102954396
 30
0.0
 10
95.64791844725544
 20
126.1421109530151
 30
0.0
 10
95.87461694794568
 20
126.1090886035539
 30
0.0
 10
95.98747477129652
 20
126.093233424222
 30
0.0
 10
95.97217466424325
 20
126.0953854928728
 30
0.0
 10
95.96814607744707
 20
126.0959521421989
 30
0.0
  0
SPLINE
  5
1D5
330
1F
100
AcDbEntity
  8
0
  6
Continuous
 62
     7
370
    15
100
AcDbSpline
210
0.0
220
0.0
230
1.0
 70
     8
 71
     3
 72
    27
 73
    23
 74
     0
 42
0.00000001
 43
0.00000001
 12
1.0
 22
0.0
 32
0.0
 13
1.0
 23
0.0
 33
0.0
 40
0.0
 40
0.0
 40
0.0
 40
0.0
 40
0.032252404578572
 40
0.0816430999251082
 40
0.1290586612648769
 40
0.1777432041577066
 40
0.2272475226158279
 40
0.2780116234121244
 40
0.330956920965909
 40
0.3852748754781222
 40
0.4412837295085763
 40
0.4988337213646153
 40
0.556281853659749
 40
0.6154087749742457
 40
0.6725513772536962
 40
0.7314550518215062
 40
0.7867561477595284
 40
0.8438515416930649
 40
0.8960134612747821
 40
0.949884652353124
 40
0.9989419924478979
 40
1.0
 40
1.0
 40
1.0
 40
1.0
 10
114.5405200109257
 20
125.6290162187414
 30
0.0
 10
114.5404777607543
 20
125.6290245571146
 30
0.0
 10
114.5403708095049
 20
125.6290456647081
 30
0.0
 10
114.4167675700988
 20
125.6472371801026
 30
0.0
 10
114.1908463964981
 20
125.6793337613231
 30
0.0
 10
113.8676334291434
 20
125.7228634015131
 30
0.0
 10
113.4524027453427
 20
125.7745196659198
 30
0.0
 10
112.9483890101743
 20
125.8307867799087
 30
0.0
 10
112.362001336092
 20
125.8872415810882
 30
0.0
 10
111.7017971041603
 20
125.9390530497743
 30
0.0
 10
110.9836572131455
 20
125.9811717793157
 30
0.0
 10
110.2305413018288
 20
126.0091696371161
 30
0.0
 10
109.4626098191572
 20
126.0206699467363
 30
0.0
 10
108.7166998138604
 20
126.0152103517604
 30
0.0
 10
108.0076257693907
 20
125.9949483360649
 30
0.0
 10
107.3771954504572
 20
125.9645398729563
 30
0.0
 10
106.8306433845844
 20
125.9288848855729
 30
0.0
 10
106.4045809484427
 20
125.8950846992847
 30
0.0
 10
106.0899616486821
 20
125.8668096982731
 30
0.0
 10
105.920844610273
 20
125.8504501501194
 30
0.0
 10
105.8522317953076
 20
125.8436282544321
 30
0.0
 10
105.8711129342159
 20
125.8454888040585
 30
0.0
 10
105.8715115423968
 20
125.8455280829551
 30
0.0
  0
SPLINE
  5
1D6
330
1F
100
AcDbEntity
  8
0
  6
Continuous
 62
     7
370
    15
100
AcDbSpline
210
0.0
220
0.0
230
1.0
 70
     8
 71
     3
 72
     8
 73
     4
 74
     0
 42
0.00000001
 43
0.00000001
 12
1.0
 22
0.0
 32
0.0
 13
1.0
 23
0.0
 33
0.0
 40
0.0
 40
0.0
 40
0.0
 40
0.0
 40
1.0
 40
1.0
 40
1.0
 40
1.0
 10
87.60219435159702
 20
127.2765676116174
 30
0.0
 10
88.06895496297481
 20
127.0470381192333
 30
0.0
 10
88.57470250975491
 20
126.795107344142
 30
0.0
 10
89.10219435159928
 20
126.5280573120595
 30
0.0
  0
LINE
  5
1D7
330
1F
100
AcDbEntity
  8
0
  6
Continuous
 62
     7
370
    15
100
AcDbLine
 10
87.6021943516
 20
127.2765676116
 30
0.0
 11
87.6021943516
 21
131.0638022869
 31
0.0
  0
LINE
  5
1D8
330
1F
100
AcDbEntity
  8
0
  6
Continuous
 62
     7
370
    15
100
AcDbLine
 10
123.4021943516
 20
169.4451457098
 30
0.0
 11
123.4021943516
 21
167.7074474318
 31
0.0
  0
LINE
  5
1D9
330
1F
100
AcDbEntity
  8
0
  6
Continuous
 62
     7
370
    15
100
AcDbLine
 10
89.1021943516
 20
168.5834103215
 30
0.0
 11
89.1021943516
 21
166.9611626942
 31
0.0
  0
SPLINE
  5
1DA
330
1F
100
AcDbEntity
  8
0
  6
Continuous
 62
     7
370
    15
100
AcDbSpline
210
0.0
220
0.0
230
1.0
 70
     8
 71
     3
 72
    10
 73
     6
 74
     0
 42
0.00000001
 43
0.00000001
 12
1.0
 22
0.0
 32
0.0
 13
1.0
 23
0.0
 33
0.0
 40
0.0
 40
0.0
 40
0.0
 40
0.0
 40
0.1209913321306124
 40
0.5024128609468727
 40
1.0
 40
1.0
 40
1.0
 40
1.0
 10
123.8087853058931
 20
169.2213714351564
 30
0.0
 10
123.8047580369365
 20
169.2304546466046
 30
0.0
 10
123.7880349239447
 20
169.2681724084471
 30
0.0
 10
123.906425884372
 20
169.0002285564283
 30
0.0
 10
124.1455252225482
 20
168.4692864349319
 30
0.0
 10
124.2808740080396
 20
168.168731979788
 30
0.0
  0
LINE
  5
1DB
330
1F
100
AcDbEntity
  8
0
  6
Continuous
 62
     7
370
    15
100
AcDbLine
 10
87.6021943516
 20
167.7173849178
 30
0.0
 11
87.6021943516
 21
166.2111626942
 31
0.0
  0
LINE
  5
1DC
330
1F
100
AcDbEntity
  8
0
  6
Continuous
 62
     7
370
    15
100
AcDbLine
 10
245.4295607786
 20
142.0550469253
 30
0.0
 11
245.7085821832
 21
142.0550469253
 31
0.0
  0
LINE
  5
1DD
330
1F
100
AcDbEntity
  8
0
  6
Continuous
 62
     7
370
    15
100
AcDbLine
 10
236.1142227654
 20
146.0250469253
 30
0.0
 11
245.5710945276
 21
146.0250469253
 31
0.0
  0
SPLINE
  5
1DE
330
1F
100
AcDbEntity
  8
0
  6
Continuous
 62
     7
370
    15
100
AcDbSpline
210
0.0
220
0.0
230
1.0
 70
    24
 71
     3
 72
    10
 73
     6
 74
     0
 42
0.00000001
 43
0.00000001
 12
1.0
 22
0.0
 32
0.0
 13
1.0
 23
0.0
 33
0.0
 40
0.0
 40
0.0
 40
0.0
 40
0.0
 40
0.2657122957245866
 40
0.6165157621683783
 40
1.0
 40
1.0
 40
1.0
 40
1.0
 10
245.8002435450101
 20
142.0550469252617
 30
0.0
 10
245.7924963828939
 20
142.0550469252618
 30
0.0
 10
245.77452112306
 20
142.0550469252622
 30
0.0
 10
245.741802416823
 20
142.0550469252616
 30
0.0
 10
245.7199793524127
 20
142.0550469252617
 30
0.0
 10
245.7085821831916
 20
142.0550469252617
 30
0.0
  0
SPLINE
  5
1DF
330
1F
100
AcDbEntity
  8
0
  6
Continuous
 62
     7
370
    15
100
AcDbSpline
210
0.0
220
0.0
230
1.0
 70
    24
 71
     3
 72
    13
 73
     9
 74
     0
 42
0.00000001
 43
0.00000001
 12
1.0
 22
0.0
 32
0.0
 13
1.0
 23
0.0
 33
0.0
 40
0.0
 40
0.0
 40
0.0
 40
0.0
 40
0.1734385751045133
 40
0.3519090391368983
 40
0.5252484949918239
 40
0.7036433105307315
 40
0.8503205800977947
 40
0.9999999999999999
 40
0.9999999999999999
 40
0.9999999999999999
 40
0.9999999999999999
 10
245.5710945275921
 20
146.0250469252617
 30
0.0
 10
245.5911291239416
 20
146.0250469252617
 30
0.0
 10
245.631779570629
 20
146.0250469252617
 30
0.0
 10
245.6973213486874
 20
146.0250469252617
 30
0.0
 10
245.7647356984184
 20
146.0250469252617
 30
0.0
 10
245.8278749281104
 20
146.0250469252617
 30
0.0
 10
245.8863951611298
 20
146.0250469252617
 30
0.0
 10
245.9205040110436
 20
146.0250469252617
 30
0.0
 10
245.9377312006096
 20
146.0250469252617
 30
0.0
  0
LINE
  5
1E0
330
1F
100
AcDbEntity
  8
0
  6
Continuous
 62
     7
370
    15
100
AcDbLine
 10
245.800243545
 20
142.0550469253
 30
0.0
 11
254.8436722817
 21
142.0550469253
 31
0.0
  0
LINE
  5
1E1
330
1F
100
AcDbEntity
  8
0
  6
Continuous
 62
     7
370
    15
100
AcDbLine
 10
245.9377312006
 20
146.0250469253
 30
0.0
 11
255.3946029628
 21
146.0250469253
 31
0.0
  0
SPLINE
  5
1E2
330
1F
100
AcDbEntity
  8
0
  6
Continuous
 62
     7
370
    15
100
AcDbSpline
210
0.0
220
0.0
230
1.0
 70
    24
 71
     3
 72
    11
 73
     7
 74
     0
 42
0.00000001
 43
0.00000001
 12
1.0
 22
0.0
 32
0.0
 13
1.0
 23
0.0
 33
0.0
 40
0.0
 40
0.0
 40
0.0
 40
0.0
 40
0.2481111098436246
 40
0.549816298753728
 40
0.8556415219086483
 40
1.0
 40
1.0
 40
1.0
 40
1.0
 10
235.9016872309061
 20
146.0250469252619
 30
0.0
 10
235.9032286241765
 20
146.0250469252618
 30
0.0
 10
235.9066443645818
 20
146.0250469252617
 30
0.0
 10
235.9642830028035
 20
146.0250469252617
 30
0.0
 10
236.0400546079023
 20
146.0250469252617
 30
0.0
 10
236.0962142830754
 20
146.0250469252617
 30
0.0
 10
236.1142227654253
 20
146.0250469252617
 30
0.0
  0
SPLINE
  5
1E3
330
1F
100
AcDbEntity
  8
0
  6
Continuous
 62
     7
370
    15
100
AcDbSpline
210
0.0
220
0.0
230
1.0
 70
    24
 71
     3
 72
    14
 73
    10
 74
     0
 42
0.00000001
 43
0.00000001
 12
1.0
 22
0.0
 32
0.0
 13
1.0
 23
0.0
 33
0.0
 40
0.0
 40
0.0
 40
0.0
 40
0.0
 40
0.1566390538116438
 40
0.3178307055438483
 40
0.4740297428609176
 40
0.634976887652226
 40
0.7874437728639233
 40
0.9445107202742645
 40
0.9999999999999999
 40
0.9999999999999999
 40
0.9999999999999999
 40
0.9999999999999999
 10
255.3946029627764
 20
146.0250469252617
 30
0.0
 10
255.4141551879013
 20
146.0250469252617
 30
0.0
 10
255.4538279090726
 20
146.0250469252617
 30
0.0
 10
255.5046448938252
 20
146.0250469252617
 30
0.0
 10
255.5476129652367
 20
146.0250469252618
 30
0.0
 10
255.580101216086
 20
146.0250469252617
 30
0.0
 10
255.6011088835507
 20
146.0250469252616
 30
0.0
 10
255.6107391556582
 20
146.025046925262
 30
0.0
 10
255.6094860339079
 20
146.0250469252619
 30
0.0
 10
255.6091588977695
 20
146.0250469252618
 30
0.0
  0
SPLINE
  5
1E4
330
1F
100
AcDbEntity
  8
0
  6
HIDDEN
 62
     7
370
     0
100
AcDbSpline
210
0.0
220
0.0
230
1.0
 70
     8
 71
     3
 72
    17
 73
    13
 74
     0
 42
0.00000001
 43
0.00000001
 12
1.0
 22
0.0
 32
0.0
 13
1.0
 23
0.0
 33
0.0
 40
0.0
 40
0.0
 40
0.0
 40
0.0
 40
0.1072234106502363
 40
0.2144416097158173
 40
0.3217951603242431
 40
0.4292380196980166
 40
0.53653340490726
 40
0.6436746584774126
 40
0.750895662955314
 40
0.8583056864987275
 40
0.9657193504048532
 40
1.0
 40
1.0
 40
1.0
 40
1.0
 10
139.6021943515993
 20
114.5250469252617
 30
0.0
 10
139.5801268917668
 20
114.5264879224983
 30
0.0
 10
139.5359930446886
 20
114.5293698469321
 30
0.0
 10
139.1920108587848
 20
114.5494107093236
 30
0.0
 10
138.6850643945705
 20
114.5717176053561
 30
0.0
 10
138.0514623710276
 20
114.5877902753124
 30
0.0
 10
137.3683222793238
 20
114.5901858512661
 30
0.0
 10
136.7129651459089
 20
114.5780647220685
 30
0.0
 10
136.1533971724984
 20
114.5564068751096
 30
0.0
 10
135.7722717801534
 20
114.5358547013624
 30
0.0
 10
135.5911519620781
 20
114.5243551948509
 30
0.0
 10
135.619865846813
 20
114.5261583654898
 30
0.0
 10
135.6268127072535
 20
114.5265946134896
 30
0.0
  0
SPLINE
  5
1E5
330
1F
100
AcDbEntity
  8
0
  6
HIDDEN
 62
     7
370
     0
100
AcDbSpline
210
0.0
220
0.0
230
1.0
 70
     8
 71
     3
 72
    12
 73
     8
 74
     0
 42
0.00000001
 43
0.00000001
 12
1.0
 22
0.0
 32
0.0
 13
1.0
 23
0.0
 33
0.0
 40
0.0
 40
0.0
 40
0.0
 40
0.0
 40
0.4999999999999963
 40
0.4999999999999963
 40
0.7499999999999981
 40
0.7499999999999981
 40
1.0
 40
1.0
 40
1.0
 40
1.0
 10
135.6969384632735
 20
136.1156776045766
 30
0.0
 10
135.7276607051926
 20
136.2282334039858
 30
0.0
 10
135.7704979197277
 20
136.3409912637254
 30
0.0
 10
135.8699249439275
 20
136.4905321495218
 30
0.0
 10
135.9096771387442
 20
136.5378248812286
 30
0.0
 10
136.0077185956024
 20
136.61156117455
 30
0.0
 10
136.0672746511899
 20
136.6369804939258
 30
0.0
 10
136.1299511651657
 20
136.6369804939258
 30
0.0
  0
LINE
  5
1E6
330
1F
100
AcDbEntity
  8
0
  6
HIDDEN
 62
     7
370
     0
100
AcDbLine
 10
136.1299511652
 20
136.6369804939
 30
0.0
 11
139.074437538
 21
136.6369804939
 31
0.0
  0
SPLINE
  5
1E7
330
1F
100
AcDbEntity
  8
0
  6
HIDDEN
 62
     7
370
     0
100
AcDbSpline
210
0.0
220
0.0
230
1.0
 70
     8
 71
     3
 72
    12
 73
     8
 74
     0
 42
0.00000001
 43
0.00000001
 12
1.0
 22
0.0
 32
0.0
 13
1.0
 23
0.0
 33
0.0
 40
0.0
 40
0.0
 40
0.0
 40
0.0
 40
0.2499999999999991
 40
0.2499999999999991
 40
0.4999999999999982
 40
0.4999999999999982
 40
1.0
 40
1.0
 40
1.0
 40
1.0
 10
139.0744375380328
 20
136.6369804939258
 30
0.0
 10
139.1375175765262
 20
136.6369804939258
 30
0.0
 10
139.1966661987076
 20
136.6116161747108
 30
0.0
 10
139.2951387487767
 20
136.5374513143379
 30
0.0
 10
139.3341753607614
 20
136.4909309737837
 30
0.0
 10
139.4340718275404
 20
136.3407886309385
 30
0.0
 10
139.4764927086071
 20
136.2290954239664
 30
0.0
 10
139.507450239925
 20
136.1156776045766
 30
0.0
  0
ELLIPSE
  5
1E8
330
1F
100
AcDbEntity
  8
0
  6
HIDDEN
 62
     7
370
     0
100
AcDbEllipse
 10
123.2550401622
 20
146.0250469253
 30
0.0
 11
-14.75368316065608
 21
31.09325491558113
 31
0.0
210
0.0
220
0.0
230
1.0
 40
0.3419987131
 41
3.300734856217132
 42
4.23149622336078
  0
SPLINE
  5
1E9
330
1F
100
AcDbEntity
  8
0
  6
HIDDEN
 62
     7
370
     0
100
AcDbSpline
210
0.0
220
0.0
230
1.0
 70
     8
 71
     3
 72
    12
 73
     8
 74
     0
 42
0.00000001
 43
0.00000001
 12
1.0
 22
0.0
 32
0.0
 13
1.0
 23
0.0
 33
0.0
 40
0.0
 40
0.0
 40
0.0
 40
0.0
 40
0.5
 40
0.5
 40
0.75
 40
0.75
 40
1.0
 40
1.0
 40
1.0
 40
1.0
 10
139.507450239925
 20
116.1243044651445
 30
0.0
 10
139.4767279980059
 20
116.0870024821915
 30
0.0
 10
139.4338907834708
 20
116.0503906501451
 30
0.0
 10
139.334463759271
 20
116.0026258668599
 30
0.0
 10
139.2947115644543
 20
115.9876683513775
 30
0.0
 10
139.1966701075961
 20
115.9644784056084
 30
0.0
 10
139.1371140520087
 20
115.9565549663887
 30
0.0
 10
139.0744375380328
 20
115.9565549663887
 30
0.0
  0
LINE
  5
1EA
330
1F
100
AcDbEntity
  8
0
  6
HIDDEN
 62
     7
370
     0
100
AcDbLine
 10
139.074437538
 20
115.9565549664
 30
0.0
 11
136.1299511652
 21
115.9565549664
 31
0.0
  0
SPLINE
  5
1EB
330
1F
100
AcDbEntity
  8
0
  6
HIDDEN
 62
     7
370
     0
100
AcDbSpline
210
0.0
220
0.0
230
1.0
 70
     8
 71
     3
 72
    12
 73
     8
 74
     0
 42
0.00000001
 43
0.00000001
 12
1.0
 22
0.0
 32
0.0
 13
1.0
 23
0.0
 33
0.0
 40
0.0
 40
0.0
 40
0.0
 40
0.0
 40
0.2500000000000009
 40
0.2500000000000009
 40
0.5000000000000018
 40
0.5000000000000018
 40
1.0
 40
1.0
 40
1.0
 40
1.0
 10
136.1299511651657
 20
115.9565549663887
 30
0.0
 10
136.0668711266724
 20
115.9565549663887
 30
0.0
 10
136.0077225044909
 20
115.9644608926011
 30
0.0
 10
135.9092499544219
 20
115.9877860540374
 30
0.0
 10
135.8702133424372
 20
116.002498843869
 30
0.0
 10
135.7703168756581
 20
116.0504546446
 30
0.0
 10
135.7278959945915
 20
116.08671680118
 30
0.0
 10
135.6969384632735
 20
116.1243044651445
 30
0.0
  0
ELLIPSE
  5
1EC
330
1F
100
AcDbEntity
  8
0
  6
HIDDEN
 62
     7
370
     0
100
AcDbEllipse
 10
151.949348541
 20
146.0250469253
 30
0.0
 11
14.75368316065607
 21
31.09325491558113
 31
0.0
210
0.0
220
0.0
230
1.0
 40
0.3419987131
 41
2.051689083818816
 42
2.982450450962492
  0
SPLINE
  5
1ED
330
1F
100
AcDbEntity
  8
0
  6
HIDDEN
 62
     7
370
     0
100
AcDbSpline
210
0.0
220
0.0
230
1.0
 70
     8
 71
     3
 72
    12
 73
     8
 74
     0
 42
0.00000001
 43
0.00000001
 12
1.0
 22
0.0
 32
0.0
 13
1.0
 23
0.0
 33
0.0
 40
0.0
 40
0.0
 40
0.0
 40
0.0
 40
0.4999999999999982
 40
0.4999999999999982
 40
0.7499999999999991
 40
0.7499999999999991
 40
1.0
 40
1.0
 40
1.0
 40
1.0
 10
135.6969384632735
 20
175.9257893853791
 30
0.0
 10
135.7276607051926
 20
175.9630913683322
 30
0.0
 10
135.7704979197277
 20
175.9997032003785
 30
0.0
 10
135.8699249439275
 20
176.0474679836637
 30
0.0
 10
135.9096771387442
 20
176.0624254991461
 30
0.0
 10
136.0077185956024
 20
176.0856154449152
 30
0.0
 10
136.0672746511899
 20
176.0935388841349
 30
0.0
 10
136.1299511651657
 20
176.0935388841349
 30
0.0
  0
LINE
  5
1EE
330
1F
100
AcDbEntity
  8
0
  6
HIDDEN
 62
     7
370
     0
100
AcDbLine
 10
136.1299511652
 20
176.0935388841
 30
0.0
 11
139.074437538
 21
176.0935388841
 31
0.0
  0
SPLINE
  5
1EF
330
1F
100
AcDbEntity
  8
0
  6
HIDDEN
 62
     7
370
     0
100
AcDbSpline
210
0.0
220
0.0
230
1.0
 70
     8
 71
     3
 72
    12
 73
     8
 74
     0
 42
0.00000001
 43
0.00000001
 12
1.0
 22
0.0
 32
0.0
 13
1.0
 23
0.0
 33
0.0
 40
0.0
 40
0.0
 40
0.0
 40
0.0
 40
0.2500000000000023
 40
0.2500000000000023
 40
0.5000000000000047
 40
0.5000000000000047
 40
1.0
 40
1.0
 40
1.0
 40
1.0
 10
139.0744375380328
 20
176.0935388841349
 30
0.0
 10
139.1375175765262
 20
176.0935388841349
 30
0.0
 10
139.1966661987076
 20
176.0856329579225
 30
0.0
 10
139.2951387487767
 20
176.0623077964863
 30
0.0
 10
139.3341753607614
 20
176.0475950066546
 30
0.0
 10
139.4340718275405
 20
175.9996392059236
 30
0.0
 10
139.4764927086071
 20
175.9633770493436
 30
0.0
 10
139.507450239925
 20
175.9257893853791
 30
0.0
  0
ELLIPSE
  5
1F0
330
1F
100
AcDbEntity
  8
0
  6
HIDDEN
 62
     7
370
     0
100
AcDbEllipse
 10
123.2550401622
 20
146.0250469253
 30
0.0
 11
14.75368316065629
 21
31.09325491558112
 31
0.0
210
0.0
220
0.0
230
1.0
 40
0.3419987131
 41
5.193281737408642
 42
6.12404310455235
  0
SPLINE
  5
1F1
330
1F
100
AcDbEntity
  8
0
  6
HIDDEN
 62
     7
370
     0
100
AcDbSpline
210
0.0
220
0.0
230
1.0
 70
     8
 71
     3
 72
    12
 73
     8
 74
     0
 42
0.00000001
 43
0.00000001
 12
1.0
 22
0.0
 32
0.0
 13
1.0
 23
0.0
 33
0.0
 40
0.0
 40
0.0
 40
0.0
 40
0.0
 40
0.5000000000000037
 40
0.5000000000000037
 40
0.7500000000000018
 40
0.7500000000000018
 40
1.0
 40
1.0
 40
1.0
 40
1.0
 10
139.507450239925
 20
155.9344162459475
 30
0.0
 10
139.4767279980059
 20
155.8218604465383
 30
0.0
 10
139.4338907834708
 20
155.7091025867987
 30
0.0
 10
139.334463759271
 20
155.5595617010023
 30
0.0
 10
139.2947115644543
 20
155.5122689692955
 30
0.0
 10
139.1966701075961
 20
155.438532675974
 30
0.0
 10
139.1371140520087
 20
155.4131133565983
 30
0.0
 10
139.0744375380328
 20
155.4131133565983
 30
0.0
  0
LINE
  5
1F2
330
1F
100
AcDbEntity
  8
0
  6
HIDDEN
 62
     7
370
     0
100
AcDbLine
 10
139.074437538
 20
155.4131133566
 30
0.0
 11
136.1299511652
 21
155.4131133566
 31
0.0
  0
SPLINE
  5
1F3
330
1F
100
AcDbEntity
  8
0
  6
HIDDEN
 62
     7
370
     0
100
AcDbSpline
210
0.0
220
0.0
230
1.0
 70
     8
 71
     3
 72
    12
 73
     8
 74
     0
 42
0.00000001
 43
0.00000001
 12
1.0
 22
0.0
 32
0.0
 13
1.0
 23
0.0
 33
0.0
 40
0.0
 40
0.0
 40
0.0
 40
0.0
 40
0.2500000000000009
 40
0.2500000000000009
 40
0.5000000000000018
 40
0.5000000000000018
 40
1.0
 40
1.0
 40
1.0
 40
1.0
 10
136.1299511651657
 20
155.4131133565983
 30
0.0
 10
136.0668711266724
 20
155.4131133565983
 30
0.0
 10
136.0077225044909
 20
155.4384776758133
 30
0.0
 10
135.9092499544219
 20
155.5126425361861
 30
0.0
 10
135.8702133424372
 20
155.5591628767403
 30
0.0
 10
135.7703168756581
 20
155.7093052195855
 30
0.0
 10
135.7278959945915
 20
155.8209984265577
 30
0.0
 10
135.6969384632735
 20
155.9344162459474
 30
0.0
  0
ELLIPSE
  5
1F4
330
1F
100
AcDbEntity
  8
0
  6
HIDDEN
 62
     7
370
     0
100
AcDbEllipse
 10
151.949348541
 20
146.0250469253
 30
0.0
 11
-14.75368316065632
 21
31.09325491558113
 31
0.0
210
0.0
220
0.0
230
1.0
 40
0.3419987131
 41
0.1591422026272797
 42
1.089903569770956
  0
LINE
  5
1F5
330
1F
100
AcDbEntity
  8
0
  6
HIDDEN
 62
     7
370
     0
100
AcDbLine
 10
199.0814100323
 20
177.5250469253
 30
0.0
 11
203.985286671
 21
159.2235301555
 31
0.0
  0
LINE
  5
1F6
330
1F
100
AcDbEntity
  8
0
  6
HIDDEN
 62
     7
370
     0
100
AcDbLine
 10
246.4962755327
 20
114.5263320787
 30
0.0
 11
246.4959337947
 21
114.5250469253
 31
0.0
  0
ELLIPSE
  5
1F7
330
1F
100
AcDbEntity
  8
0
  6
HIDDEN
 62
     7
370
     0
100
AcDbEllipse
 10
255.4187624086
 20
146.0250469253
 30
0.0
 11
61.01644039620209
 21
5.823223729669878
 31
0.0
210
0.0
220
0.0
230
1.0
 40
0.5073561797
 41
2.523315813327813
 42
4.517422116362711
  0
SPLINE
  5
1F8
330
1F
100
AcDbEntity
  8
0
  6
HIDDEN
 62
     7
370
     0
100
AcDbSpline
210
0.0
220
0.0
230
1.0
 70
     8
 71
     3
 72
    17
 73
    13
 74
     0
 42
0.00000001
 43
0.00000001
 12
1.0
 22
0.0
 32
0.0
 13
1.0
 23
0.0
 33
0.0
 40
0.0
 40
0.0
 40
0.0
 40
0.0
 40
0.1070404310418579
 40
0.2140692208269858
 40
0.3214006267621798
 40
0.4289352334048873
 40
0.5361390417601454
 40
0.6429940049047796
 40
0.7500263616023637
 40
0.8574847810843099
 40
0.9649549246529505
 40
0.9999999999999999
 40
0.9999999999999999
 40
0.9999999999999999
 40
0.9999999999999999
 10
189.6021943515993
 20
177.5250469252617
 30
0.0
 10
189.6352102781314
 20
177.5218137913983
 30
0.0
 10
189.7012385405254
 20
177.5153478752931
 30
0.0
 10
190.2157636525353
 20
177.470352174946
 30
0.0
 10
190.9747192776682
 20
177.4201174733585
 30
0.0
 10
191.9246047587552
 20
177.383777912908
 30
0.0
 10
192.9487374270729
 20
177.3782608143065
 30
0.0
 10
193.9305874068054
 20
177.4054182227949
 30
0.0
 10
194.7698211926012
 20
177.4540548346076
 30
0.0
 10
195.3437502043434
 20
177.5004256264542
 30
0.0
 10
195.6177101562956
 20
177.5265048171991
 30
0.0
 10
195.5753273246453
 20
177.5225114331118
 30
0.0
 10
195.5649052129585
 20
177.5215294436281
 30
0.0
  0
LINE
  5
1F9
330
1F
100
AcDbEntity
  8
0
  6
HIDDEN
 62
     7
370
     0
100
AcDbLine
 10
125.6021943516
 20
177.0250469253
 30
0.0
 11
125.6021943516
 21
115.0250469253
 31
0.0
  0
LINE
  5
1FA
330
1F
100
AcDbEntity
  8
0
  6
HIDDEN
 62
     7
370
     0
100
AcDbLine
 10
253.8164949503
 20
142.0550469253
 30
0.0
 11
245.4295607786
 21
142.0550469253
 31
0.0
  0
LINE
  5
1FB
330
1F
100
AcDbEntity
  8
0
  6
HIDDEN
 62
     7
370
     0
100
AcDbLine
 10
125.6021943516
 20
121.7994650616
 30
0.0
 11
125.6021943516
 21
170.2506287889
 31
0.0
  0
SPLINE
  5
1FC
330
1F
100
AcDbEntity
  8
0
  6
HIDDEN
 62
     7
370
     0
100
AcDbSpline
210
0.0
220
0.0
230
1.0
 70
     8
 71
     3
 72
    12
 73
     8
 74
     0
 42
0.00000001
 43
0.00000001
 12
1.0
 22
0.0
 32
0.0
 13
1.0
 23
0.0
 33
0.0
 40
0.0
 40
0.0
 40
0.0
 40
0.0
 40
0.5000000000000007
 40
0.5000000000000007
 40
0.7500000000000003
 40
0.7500000000000003
 40
1.0
 40
1.0
 40
1.0
 40
1.0
 10
124.7856820651522
 20
129.7106759497455
 30
0.0
 10
124.8420882438325
 20
129.6814293407417
 30
0.0
 10
124.9122511453043
 20
129.65634246481
 30
0.0
 10
125.0302618586934
 20
129.6483190939322
 30
0.0
 10
125.0704676422889
 20
129.6509086149131
 30
0.0
 10
125.144188339022
 20
129.664473977918
 30
0.0
 10
125.1770490608085
 20
129.6748668349133
 30
0.0
 10
125.2072174627378
 20
129.6872040254449
 30
0.0
  0
SPLINE
  5
1FD
330
1F
100
AcDbEntity
  8
0
  6
HIDDEN
 62
     7
370
     0
100
AcDbSpline
210
0.0
220
0.0
230
1.0
 70
     8
 71
     3
 72
    16
 73
    12
 74
     0
 42
0.00000001
 43
0.00000001
 12
1.0
 22
0.0
 32
0.0
 13
1.0
 23
0.0
 33
0.0
 40
0.0
 40
0.0
 40
0.0
 40
0.0
 40
0.0625000000000009
 40
0.0625000000000009
 40
0.1250000000000018
 40
0.1250000000000018
 40
0.2500000000000019
 40
0.2500000000000019
 40
0.5000000000000064
 40
0.5000000000000064
 40
1.0
 40
1.0
 40
1.0
 40
1.0
 10
125.2072174626926
 20
129.687204025501
 30
0.0
 10
125.218830362532
 20
129.6919530525925
 30
0.0
 10
125.2321815469645
 20
129.6949357255956
 30
0.0
 10
125.2615813865836
 20
129.6919500557673
 30
0.0
 10
125.2764221111389
 20
129.6854427628075
 30
0.0
 10
125.3122553191075
 20
129.6590900132621
 30
0.0
 10
125.3263685269291
 20
129.6361960325661
 30
0.0
 10
125.360859898148
 20
129.5695768372269
 30
0.0
 10
125.3719439692584
 20
129.5259076025328
 30
0.0
 10
125.3980667870544
 20
129.3966709541525
 30
0.0
 10
125.4021943515993
 20
129.3143207747224
 30
0.0
 10
125.4021943515993
 20
129.2348455715206
 30
0.0
  0
LINE
  5
1FE
330
1F
100
AcDbEntity
  8
0
  6
HIDDEN
 62
     7
370
     0
100
AcDbLine
 10
125.4021943516
 20
123.4852266464
 30
0.0
 11
125.4021943516
 21
129.2348455715
 31
0.0
  0
SPLINE
  5
1FF
330
1F
100
AcDbEntity
  8
0
  6
HIDDEN
 62
     7
370
     0
100
AcDbSpline
210
0.0
220
0.0
230
1.0
 70
     8
 71
     3
 72
    12
 73
     8
 74
     0
 42
0.00000001
 43
0.00000001
 12
1.0
 22
0.0
 32
0.0
 13
1.0
 23
0.0
 33
0.0
 40
0.0
 40
0.0
 40
0.0
 40
0.0
 40
0.2500000000000007
 40
0.2500000000000007
 40
0.5000000000000014
 40
0.5000000000000014
 40
1.0
 40
1.0
 40
1.0
 40
1.0
 10
124.785682065148
 20
167.5642890313723
 30
0.0
 10
124.6971886575802
 20
167.6063220681368
 30
0.0
 10
124.6371306168143
 20
167.6573114282993
 30
0.0
 10
124.5312823438317
 20
167.7613137276031
 30
0.0
 10
124.4887488225542
 20
167.8142888574457
 30
0.0
 10
124.3775975157306
 20
167.9704873762601
 30
0.0
 10
124.3246666586828
 20
168.0720744717842
 30
0.0
 10
124.2808740080396
 20
168.168731979788
 30
0.0
  0
SPLINE
  5
200
330
1F
100
AcDbEntity
  8
0
  6
HIDDEN
 62
     7
370
     0
100
AcDbSpline
210
0.0
220
0.0
230
1.0
 70
     8
 71
     3
 72
    12
 73
     8
 74
     0
 42
0.00000001
 43
0.00000001
 12
1.0
 22
0.0
 32
0.0
 13
1.0
 23
0.0
 33
0.0
 40
0.0
 40
0.0
 40
0.0
 40
0.0
 40
0.4999999999999999
 40
0.4999999999999999
 40
0.7499999999999998
 40
0.7499999999999998
 40
1.0
 40
1.0
 40
1.0
 40
1.0
 10
124.785682065148
 20
167.5642890313723
 30
0.0
 10
124.8419906134437
 20
167.5375433183783
 30
0.0
 10
124.9122652741618
 20
167.5151589329145
 30
0.0
 10
125.0303031884853
 20
167.5122102922256
 30
0.0
 10
125.0704794293393
 20
167.516589283475
 30
0.0
 10
125.1444365240172
 20
167.5335957321337
 30
0.0
 10
125.1770529117287
 20
167.545447362178
 30
0.0
 10
125.2072174627244
 20
167.5591373296589
 30
0.0
  0
SPLINE
  5
201
330
1F
100
AcDbEntity
  8
0
  6
HIDDEN
 62
     7
370
     0
100
AcDbSpline
210
0.0
220
0.0
230
1.0
 70
     8
 71
     3
 72
    16
 73
    12
 74
     0
 42
0.00000001
 43
0.00000001
 12
1.0
 22
0.0
 32
0.0
 13
1.0
 23
0.0
 33
0.0
 40
0.0
 40
0.0
 40
0.0
 40
0.0
 40
0.0625000000000001
 40
0.0625000000000001
 40
0.1250000000000001
 40
0.1250000000000001
 40
0.2500000000000015
 40
0.2500000000000015
 40
0.500000000000001
 40
0.500000000000001
 40
1.0
 40
1.0
 40
1.0
 40
1.0
 10
125.2072174626927
 20
167.5591373296627
 30
0.0
 10
125.218830362532
 20
167.5644077618738
 30
0.0
 10
125.2321815469645
 20
167.5697011991049
 30
0.0
 10
125.2615813865837
 20
167.5783908143064
 30
0.0
 10
125.276422111139
 20
167.5812150687331
 30
0.0
 10
125.3122553191076
 20
167.5844746117483
 30
0.0
 10
125.3263685269291
 20
167.5814758646049
 30
0.0
 10
125.360859898148
 20
167.5696476243462
 30
0.0
 10
125.3719439692584
 20
167.5570235290639
 30
0.0
 10
125.3980667870544
 20
167.5148291966407
 30
0.0
 10
125.4021943515993
 20
167.4802951240293
 30
0.0
 10
125.4021943515993
 20
167.4431840195209
 30
0.0
  0
LINE
  5
202
330
1F
100
AcDbEntity
  8
0
  6
HIDDEN
 62
     7
370
     0
100
AcDbLine
 10
125.4021943516
 20
141.3971111847
 30
0.0
 11
125.4021943516
 21
167.4431840195
 31
0.0
  0
SPLINE
  5
203
330
1F
100
AcDbEntity
  8
0
  6
HIDDEN
 62
     7
370
     0
100
AcDbSpline
210
0.0
220
0.0
230
1.0
 70
     8
 71
     3
 72
    16
 73
    12
 74
     0
 42
0.00000001
 43
0.00000001
 12
1.0
 22
0.0
 32
0.0
 13
1.0
 23
0.0
 33
0.0
 40
0.0
 40
0.0
 40
0.0
 40
0.0
 40
0.4999999999999981
 40
0.4999999999999981
 40
0.7499999999999973
 40
0.7499999999999973
 40
0.874999999999997
 40
0.874999999999997
 40
0.9374999999999986
 40
0.9374999999999986
 40
1.0
 40
1.0
 40
1.0
 40
1.0
 10
125.4021943515993
 20
141.3971111847437
 30
0.0
 10
125.4021943515993
 20
141.2795132472662
 30
0.0
 10
125.3980286531393
 20
141.1628788476053
 30
0.0
 10
125.3717703248143
 20
140.9913286944429
 30
0.0
 10
125.3602665430767
 20
140.9341833940082
 30
0.0
 10
125.3261357837303
 20
140.8571357208824
 30
0.0
 10
125.3117138970595
 20
140.8310254433745
 30
0.0
 10
125.2761469286217
 20
140.8084088313677
 30
0.0
 10
125.261195160327
 20
140.80482650469
 30
0.0
 10
125.2321913419673
 20
140.8105509160813
 30
0.0
 10
125.2187759879581
 20
140.818826875073
 30
0.0
 10
125.2072174627215
 20
140.8287994206684
 30
0.0
  0
SPLINE
  5
204
330
1F
100
AcDbEntity
  8
0
  6
HIDDEN
 62
     7
370
     0
100
AcDbSpline
210
0.0
220
0.0
230
1.0
 70
     8
 71
     3
 72
    12
 73
     8
 74
     0
 42
0.00000001
 43
0.00000001
 12
1.0
 22
0.0
 32
0.0
 13
1.0
 23
0.0
 33
0.0
 40
0.0
 40
0.0
 40
0.0
 40
0.0
 40
0.2499999999999999
 40
0.2499999999999999
 40
0.4999999999999998
 40
0.4999999999999998
 40
1.0
 40
1.0
 40
1.0
 40
1.0
 10
125.2072174627307
 20
140.8287994206817
 30
0.0
 10
125.1770296861811
 20
140.8548450425841
 30
0.0
 10
125.1436758820894
 20
140.8773852752579
 30
0.0
 10
125.0705496788934
 20
140.9075662603185
 30
0.0
 10
125.0303144758692
 20
140.9145909947966
 30
0.0
 10
124.9126228457361
 20
140.9037219562043
 30
0.0
 10
124.8422421725761
 20
140.8563674155405
 30
0.0
 10
124.7856820651455
 20
140.8001757946668
 30
0.0
  0
SPLINE
  5
205
330
1F
100
AcDbEntity
  8
0
  6
HIDDEN
 62
     7
370
     0
100
AcDbSpline
210
0.0
220
0.0
230
1.0
 70
     8
 71
     3
 72
    12
 73
     8
 74
     0
 42
0.00000001
 43
0.00000001
 12
1.0
 22
0.0
 32
0.0
 13
1.0
 23
0.0
 33
0.0
 40
0.0
 40
0.0
 40
0.0
 40
0.0
 40
0.2500000000000001
 40
0.2500000000000001
 40
0.5000000000000001
 40
0.5000000000000001
 40
1.0
 40
1.0
 40
1.0
 40
1.0
 10
124.7856820651476
 20
140.8001757946648
 30
0.0
 10
124.6969974052912
 20
140.7120689113808
 30
0.0
 10
124.6370789895678
 20
140.6058243503926
 30
0.0
 10
124.5314197622471
 20
140.3844792965495
 30
0.0
 10
124.4887785241321
 20
140.2691587570935
 30
0.0
 10
124.3775891820296
 20
139.9213261908353
 30
0.0
 10
124.3246624999086
 20
139.6839663996137
 30
0.0
 10
124.2808740080396
 20
139.4445631151603
 30
0.0
  0
SPLINE
  5
206
330
1F
100
AcDbEntity
  8
0
  6
HIDDEN
 62
     7
370
     0
100
AcDbSpline
210
0.0
220
0.0
230
1.0
 70
     8
 71
     3
 72
    12
 73
     8
 74
     0
 42
0.00000001
 43
0.00000001
 12
1.0
 22
0.0
 32
0.0
 13
1.0
 23
0.0
 33
0.0
 40
0.0
 40
0.0
 40
0.0
 40
0.0
 40
0.4999999999999982
 40
0.4999999999999982
 40
0.7499999999999991
 40
0.7499999999999991
 40
1.0
 40
1.0
 40
1.0
 40
1.0
 10
124.280874008038
 20
130.4618456808358
 30
0.0
 10
124.3246354843368
 20
130.3191787988123
 30
0.0
 10
124.3775417999898
 20
130.1832723978218
 30
0.0
 10
124.4892529976372
 20
129.9909801099254
 30
0.0
 10
124.5317724412236
 20
129.9290803941254
 30
0.0
 10
124.636895783791
 20
129.8121681392819
 30
0.0
 10
124.6984617475087
 20
129.7558996927289
 30
0.0
 10
124.7856820651514
 20
129.7106759497459
 30
0.0
  0
LINE
  5
207
330
1F
100
AcDbEntity
  8
0
  6
HIDDEN
 62
     7
370
     0
100
AcDbLine
 10
125.4021943516
 20
141.3971111847
 30
0.0
 11
125.4021943516
 21
167.4431840195
 31
0.0
  0
LINE
  5
208
330
1F
100
AcDbEntity
  8
0
  6
HIDDEN
 62
     7
370
     0
100
AcDbLine
 10
89.1324227912
 20
130.7120958823
 30
0.0
 11
89.1324227912
 21
161.3379979682
 31
0.0
  0
LINE
  5
209
330
1F
100
AcDbEntity
  8
0
  6
HIDDEN
 62
     7
370
     0
100
AcDbLine
 10
87.6021943516
 20
129.8347677511
 30
0.0
 11
87.6021943516
 21
162.2153260995
 31
0.0
  0
LINE
  5
20A
330
1F
100
AcDbEntity
  8
0
  6
HIDDEN
 62
     7
370
     0
100
AcDbLine
 10
95.6324227912
 20
131.6786367637
 30
0.0
 11
95.6324227912
 21
160.3714570868
 31
0.0
  0
LINE
  5
20B
330
1F
100
AcDbEntity
  8
0
  6
HIDDEN
 62
     7
370
     0
100
AcDbLine
 10
123.4021943516
 20
129.5675175493
 30
0.0
 11
123.4021943516
 21
125.4049481407
 31
0.0
  0
LINE
  5
20C
330
1F
100
AcDbEntity
  8
0
  6
HIDDEN
 62
     7
370
     0
100
AcDbLine
 10
89.1021943516
 20
130.3138022869
 30
0.0
 11
89.1021943516
 21
126.5280573121
 31
0.0
  0
SPLINE
  5
20D
330
1F
100
AcDbEntity
  8
0
  6
HIDDEN
 62
     7
370
     0
100
AcDbSpline
210
0.0
220
0.0
230
1.0
 70
     8
 71
     3
 72
     8
 73
     4
 74
     0
 42
0.00000001
 43
0.00000001
 12
1.0
 22
0.0
 32
0.0
 13
1.0
 23
0.0
 33
0.0
 40
0.0000249631533153
 40
0.0000249631533153
 40
0.0000249631533153
 40
0.0000249631533153
 40
0.0049776413517029
 40
0.0049776413517029
 40
0.0049776413517029
 40
0.0049776413517029
 10
94.05219435159928
 20
126.4187836347786
 30
0.0
 10
92.40217190585385
 20
126.4552835129894
 30
0.0
 10
90.7521705861088
 20
126.4917080991215
 30
0.0
 10
89.10219435159928
 20
126.5280573120595
 30
0.0
  0
SPLINE
  5
20E
330
1F
100
AcDbEntity
  8
0
  6
HIDDEN
 62
     7
370
     0
100
AcDbSpline
210
0.0
220
0.0
230
1.0
 70
     8
 71
     3
 72
    13
 73
     9
 74
     0
 42
0.00000001
 43
0.00000001
 12
1.0
 22
0.0
 32
0.0
 13
1.0
 23
0.0
 33
0.0
 40
0.0
 40
0.0
 40
0.0
 40
0.0
 40
0.0935458787704175
 40
0.2465130809348836
 40
0.3526141325759296
 40
0.4596039599517626
 40
0.6775761982108254
 40
1.0
 40
1.0
 40
1.0
 40
1.0
 10
95.96814607744707
 20
126.0959521421989
 30
0.0
 10
95.96895499890319
 20
126.0958350111349
 30
0.0
 10
95.97108667720907
 20
126.0955263461265
 30
0.0
 10
95.83839841560032
 20
126.1142903774941
 30
0.0
 10
95.64725495423295
 20
126.1424119046399
 30
0.0
 10
95.36503536368573
 20
126.1855962411669
 30
0.0
 10
94.85593309236049
 20
126.2673017392764
 30
0.0
 10
94.35254036576791
 20
126.3621769525007
 30
0.0
 10
94.05219435159928
 20
126.4187836347788
 30
0.0
  0
SPLINE
  5
20F
330
1F
100
AcDbEntity
  8
0
  6
HIDDEN
 62
     7
370
     0
100
AcDbSpline
210
0.0
220
0.0
230
1.0
 70
     8
 71
     3
 72
    23
 73
    19
 74
     0
 42
0.00000001
 43
0.00000001
 12
1.0
 22
0.0
 32
0.0
 13
1.0
 23
0.0
 33
0.0
 40
0.0
 40
0.0
 40
0.0
 40
0.0
 40
0.0590543542813679
 40
0.0605265748702168
 40
0.1193586220126305
 40
0.1882688117774979
 40
0.2590144674574125
 40
0.3309448053364082
 40
0.4048654755148606
 40
0.4784639153686753
 40
0.5542036025367557
 40
0.6275546244683784
 40
0.7031937148771825
 40
0.7736970554037197
 40
0.8465532305871087
 40
0.9121236125012513
 40
0.9798587759005855
 40
1.0
 40
1.0
 40
1.0
 40
1.0
 10
106.9133557803614
 20
125.933612801517
 30
0.0
 10
107.0513369931468
 20
125.9434671461665
 30
0.0
 10
107.1927580671382
 20
125.9535671588833
 30
0.0
 10
107.5278901136221
 20
125.9701943612246
 30
0.0
 10
107.8777465369343
 20
125.9896696711101
 30
0.0
 10
108.4966015522053
 20
126.0100345927829
 30
0.0
 10
109.1914722604076
 20
126.0203591570133
 30
0.0
 10
109.9316829332243
 20
126.0155959545668
 30
0.0
 10
110.6882067170637
 20
125.9941714391911
 30
0.0
 10
111.4441329989315
 20
125.9561098133876
 30
0.0
 10
112.1631802403311
 20
125.904466951331
 30
0.0
 10
112.8315912411066
 20
125.8431820299814
 30
0.0
 10
113.4084831449858
 20
125.7799850158342
 30
0.0
 10
113.8876112586204
 20
125.7204562170631
 30
0.0
 10
114.2400085819282
 20
125.6725284893346
 30
0.0
 10
114.4612870366567
 20
125.6407564010141
 30
0.0
 10
114.5577429182188
 20
125.6264709997206
 30
0.0
 10
114.5437314357138
 20
125.6285416310707
 30
0.0
 10
114.5405200109257
 20
125.6290162187414
 30
0.0
  0
SPLINE
  5
210
330
1F
100
AcDbEntity
  8
0
  6
HIDDEN
 62
     7
370
     0
100
AcDbSpline
210
0.0
220
0.0
230
1.0
 70
     8
 71
     3
 72
    12
 73
     8
 74
     0
 42
0.00000001
 43
0.00000001
 12
1.0
 22
0.0
 32
0.0
 13
1.0
 23
0.0
 33
0.0
 40
0.0
 40
0.0
 40
0.0
 40
0.0
 40
0.2248154263062799
 40
0.4418133834436932
 40
0.6648545650420532
 40
0.8312150911298726
 40
1.0
 40
1.0
 40
1.0
 40
1.0
 10
105.8715115423968
 20
125.8455280829551
 30
0.0
 10
105.8818662144143
 20
125.8465638333721
 30
0.0
 10
105.9022154971733
 20
125.8485993182303
 30
0.0
 10
106.0711926703461
 20
125.8650238368529
 30
0.0
 10
106.3104402586849
 20
125.8866833218832
 30
0.0
 10
106.5965171462513
 20
125.9106217890509
 30
0.0
 10
106.8072348042389
 20
125.9259122611716
 30
0.0
 10
106.9133557803614
 20
125.933612801517
 30
0.0
  0
LINE
  5
211
330
1F
100
AcDbEntity
  8
0
  6
HIDDEN
 62
     7
370
     0
100
AcDbLine
 10
125.4021943516
 20
129.2348455715
 30
0.0
 11
125.4021943516
 21
125.3597258754
 31
0.0
  0
LINE
  5
212
330
1F
100
AcDbEntity
  8
0
  6
HIDDEN
 62
     7
370
     0
100
AcDbLine
 10
101.4324227912
 20
132.0250469253
 30
0.0
 11
101.4324227912
 21
160.0250469253
 31
0.0
  0
LINE
  5
213
330
1F
100
AcDbEntity
  8
0
  6
HIDDEN
 62
     7
370
     0
100
AcDbLine
 10
94.0324227912
 20
132.0250469253
 30
0.0
 11
94.0324227912
 21
160.0250469253
 31
0.0
  0
LINE
  5
214
330
1F
100
AcDbEntity
  8
0
  6
HIDDEN
 62
     7
370
     0
100
AcDbLine
 10
95.0324227912
 20
132.0250469253
 30
0.0
 11
95.0324227912
 21
160.0250469253
 31
0.0
  0
SPLINE
  5
215
330
1F
100
AcDbEntity
  8
0
  6
HIDDEN
 62
     7
370
     0
100
AcDbSpline
210
0.0
220
0.0
230
1.0
 70
    11
 71
     3
 72
    68
 73
    64
 74
     0
 42
0.00000001
 43
0.00000001
 12
1.0
 22
0.0
 32
0.0
 13
1.0
 23
0.0
 33
0.0
 40
0.0
 40
0.0
 40
0.0
 40
0.0
 40
0.0312500000000002
 40
0.0312500000000002
 40
0.0625000000000004
 40
0.0625000000000004
 40
0.0937500000000007
 40
0.0937500000000007
 40
0.1250000000000009
 40
0.1250000000000009
 40
0.1562500000000011
 40
0.1562500000000011
 40
0.1875000000000013
 40
0.1875000000000013
 40
0.2187500000000016
 40
0.2187500000000016
 40
0.2500000000000018
 40
0.2500000000000018
 40
0.2812500000000018
 40
0.2812500000000018
 40
0.3125000000000018
 40
0.3125000000000018
 40
0.3437500000000018
 40
0.3437500000000018
 40
0.3750000000000018
 40
0.3750000000000018
 40
0.4062500000000018
 40
0.4062500000000018
 40
0.4375000000000018
 40
0.4375000000000018
 40
0.4687500000000018
 40
0.4687500000000018
 40
0.5000000000000018
 40
0.5000000000000018
 40
0.5625000000000018
 40
0.5625000000000018
 40
0.5937500000000018
 40
0.5937500000000018
 40
0.6250000000000018
 40
0.6250000000000018
 40
0.6562500000000018
 40
0.6562500000000018
 40
0.6875000000000018
 40
0.6875000000000018
 40
0.7187500000000018
 40
0.7187500000000018
 40
0.7500000000000018
 40
0.7500000000000018
 40
0.7812500000000016
 40
0.7812500000000016
 40
0.8125000000000013
 40
0.8125000000000013
 40
0.8437500000000011
 40
0.8437500000000011
 40
0.8750000000000009
 40
0.8750000000000009
 40
0.9062500000000007
 40
0.9062500000000007
 40
0.9375000000000004
 40
0.9375000000000004
 40
0.9687500000000002
 40
0.9687500000000002
 40
1.0
 40
1.0
 40
1.0
 40
1.0
 10
114.1021943515993
 20
132.0394293128715
 30
0.0
 10
114.0621793992496
 20
132.0508739135917
 30
0.0
 10
113.9992375978383
 20
132.0687648229405
 30
0.0
 10
113.8298509357662
 20
132.1151120704179
 30
0.0
 10
113.7221573731807
 20
132.1438951086467
 30
0.0
 10
113.4668726046429
 20
132.2082707736118
 30
0.0
 10
113.3208333741706
 20
132.243481888015
 30
0.0
 10
112.9926119376114
 20
132.3164214821412
 30
0.0
 10
112.8083646498364
 20
132.3545106790858
 30
0.0
 10
112.4154044825281
 20
132.426843195181
 30
0.0
 10
112.2061098855689
 20
132.4612924211589
 30
0.0
 10
111.7612244586316
 20
132.5231449640738
 30
0.0
 10
111.5244268661325
 20
132.5505185602934
 30
0.0
 10
111.0436917972133
 20
132.5927505179813
 30
0.0
 10
110.7974487040305
 20
132.6079957090541
 30
0.0
 10
110.2927319240511
 20
132.6246667332567
 30
0.0
 10
110.0365372231146
 20
132.6258398589287
 30
0.0
 10
109.5341584739145
 20
132.6139655405902
 30
0.0
 10
109.2849087747309
 20
132.6009851891237
 30
0.0
 10
108.7933809772521
 20
132.5621174435197
 30
0.0
 10
108.5580853760263
 20
132.5368367858695
 30
0.0
 10
108.1071714813642
 20
132.4778089599523
 30
0.0
 10
107.8895591309008
 20
132.4436667233491
 30
0.0
 10
107.4863519613525
 20
132.3721803771832
 30
0.0
 10
107.3007404689181
 20
132.3349738788849
 30
0.0
 10
106.9607523985156
 20
132.2613768586357
 30
0.0
 10
106.8056794676927
 20
132.2247619334465
 30
0.0
 10
106.5393363910293
 20
132.1587275750268
 30
0.0
 10
106.4263522903125
 20
132.1289540231853
 30
0.0
 10
106.2414970333816
 20
132.0789160329136
 30
0.0
 10
106.1703562718782
 20
132.0588440648464
 30
0.0
 10
106.0763958605901
 20
132.0321013760451
 30
0.0
 10
106.0523865306337
 20
132.0251025198967
 30
0.0
 10
106.0518134099611
 20
132.0249367243163
 30
0.0
 10
106.1472125212797
 20
132.0533762089877
 30
0.0
 10
106.4250763134808
 20
132.1286176213825
 30
0.0
 10
106.5382382695614
 20
132.1584443990201
 30
0.0
 10
106.8043694516053
 20
132.2244479622784
 30
0.0
 10
106.959197225805
 20
132.2610229106838
 30
0.0
 10
107.2993783315928
 20
132.3346961706926
 30
0.0
 10
107.4848807885425
 20
132.3718918330254
 30
0.0
 10
107.8871745896019
 20
132.4432714068938
 30
0.0
 10
108.1051826378539
 20
132.4775132755332
 30
0.0
 10
108.5557810050042
 20
132.5365701230347
 30
0.0
 10
108.7903300038849
 20
132.5617926397988
 30
0.0
 10
109.2787899974372
 20
132.600583337517
 30
0.0
 10
109.5310553931511
 20
132.6138318685004
 30
0.0
 10
110.0332360313114
 20
132.6258213939565
 30
0.0
 10
110.2857181486631
 20
132.6247943943123
 30
0.0
 10
110.7935831917326
 20
132.6082251914311
 30
0.0
 10
111.0411286649164
 20
132.5929320625299
 30
0.0
 10
111.5220962023871
 20
132.5507664878221
 30
0.0
 10
111.7580560674924
 20
132.5235476348728
 30
0.0
 10
112.204626517014
 20
132.4615360937557
 30
0.0
 10
112.4142713795874
 20
132.4270361298299
 30
0.0
 10
112.8072580863419
 20
132.3547299129042
 30
0.0
 10
112.9916539901569
 20
132.3166253270562
 30
0.0
 10
113.3202044080173
 20
132.2436306542647
 30
0.0
 10
113.4661465045405
 20
132.2084458687214
 30
0.0
 10
113.7210318597426
 20
132.1441868806298
 30
0.0
 10
113.8293431725509
 20
132.1152494018408
 30
0.0
 10
113.9991781499679
 20
132.0687826853659
 30
0.0
 10
114.062173511105
 20
132.0508755976487
 30
0.0
 10
114.1021943515993
 20
132.0394293128715
 30
0.0
  0
SPLINE
  5
216
330
1F
100
AcDbEntity
  8
0
  6
HIDDEN
 62
     7
370
     0
100
AcDbSpline
210
0.0
220
0.0
230
1.0
 70
    11
 71
     3
 72
    68
 73
    64
 74
     0
 42
0.00000001
 43
0.00000001
 12
1.0
 22
0.0
 32
0.0
 13
1.0
 23
0.0
 33
0.0
 40
0.0
 40
0.0
 40
0.0
 40
0.0
 40
0.0312500000000002
 40
0.0312500000000002
 40
0.0625000000000004
 40
0.0625000000000004
 40
0.0937500000000007
 40
0.0937500000000007
 40
0.1250000000000009
 40
0.1250000000000009
 40
0.1562500000000011
 40
0.1562500000000011
 40
0.1875000000000013
 40
0.1875000000000013
 40
0.2187500000000016
 40
0.2187500000000016
 40
0.2500000000000018
 40
0.2500000000000018
 40
0.2812500000000018
 40
0.2812500000000018
 40
0.3125000000000018
 40
0.3125000000000018
 40
0.3437500000000018
 40
0.3437500000000018
 40
0.3750000000000018
 40
0.3750000000000018
 40
0.4062500000000018
 40
0.4062500000000018
 40
0.4375000000000018
 40
0.4375000000000018
 40
0.4687500000000018
 40
0.4687500000000018
 40
0.5000000000000018
 40
0.5000000000000018
 40
0.5625000000000018
 40
0.5625000000000018
 40
0.5937500000000018
 40
0.5937500000000018
 40
0.6250000000000018
 40
0.6250000000000018
 40
0.6562500000000018
 40
0.6562500000000018
 40
0.6875000000000018
 40
0.6875000000000018
 40
0.7187500000000018
 40
0.7187500000000018
 40
0.7500000000000018
 40
0.7500000000000018
 40
0.7812500000000016
 40
0.7812500000000016
 40
0.8125000000000013
 40
0.8125000000000013
 40
0.8437500000000011
 40
0.8437500000000011
 40
0.8750000000000009
 40
0.8750000000000009
 40
0.9062500000000007
 40
0.9062500000000007
 40
0.9375000000000004
 40
0.9375000000000004
 40
0.9687500000000002
 40
0.9687500000000002
 40
1.0
 40
1.0
 40
1.0
 40
1.0
 10
114.1021943515993
 20
160.0106645376519
 30
0.0
 10
114.0621793992496
 20
159.9992199369318
 30
0.0
 10
113.9992375978383
 20
159.981329027583
 30
0.0
 10
113.8298509357662
 20
159.9349817801055
 30
0.0
 10
113.7221573731807
 20
159.9061987418768
 30
0.0
 10
113.4668726046429
 20
159.8418230769117
 30
0.0
 10
113.3208333741706
 20
159.8066119625085
 30
0.0
 10
112.9926119376114
 20
159.7336723683823
 30
0.0
 10
112.8083646498364
 20
159.6955831714376
 30
0.0
 10
112.4154044825281
 20
159.6232506553424
 30
0.0
 10
112.2061098855689
 20
159.5888014293645
 30
0.0
 10
111.7612244586316
 20
159.5269488864497
 30
0.0
 10
111.5244268661325
 20
159.49957529023
 30
0.0
 10
111.0436917972133
 20
159.4573433325421
 30
0.0
 10
110.7974487040305
 20
159.4420981414693
 30
0.0
 10
110.2927319240511
 20
159.4254271172667
 30
0.0
 10
110.0365372231146
 20
159.4242539915947
 30
0.0
 10
109.5341584739145
 20
159.4361283099333
 30
0.0
 10
109.2849087747309
 20
159.4491086613998
 30
0.0
 10
108.7933809772521
 20
159.4879764070037
 30
0.0
 10
108.5580853760263
 20
159.5132570646539
 30
0.0
 10
108.1071714813642
 20
159.5722848905711
 30
0.0
 10
107.8895591309008
 20
159.6064271271743
 30
0.0
 10
107.4863519613525
 20
159.6779134733402
 30
0.0
 10
107.3007404689181
 20
159.7151199716385
 30
0.0
 10
106.9607523985156
 20
159.7887169918878
 30
0.0
 10
106.8056794676927
 20
159.8253319170769
 30
0.0
 10
106.5393363910293
 20
159.8913662754966
 30
0.0
 10
106.4263522903125
 20
159.9211398273381
 30
0.0
 10
106.2414970333816
 20
159.9711778176099
 30
0.0
 10
106.1703562718782
 20
159.991249785677
 30
0.0
 10
106.0763958605901
 20
160.0179924744783
 30
0.0
 10
106.0523865306337
 20
160.0249913306268
 30
0.0
 10
106.0518134099611
 20
160.0251571262072
 30
0.0
 10
106.1472125212797
 20
159.9967176415358
 30
0.0
 10
106.4250763134808
 20
159.921476229141
 30
0.0
 10
106.5382382695614
 20
159.8916494515034
 30
0.0
 10
106.8043694516053
 20
159.8256458882451
 30
0.0
 10
106.959197225805
 20
159.7890709398396
 30
0.0
 10
107.2993783315928
 20
159.7153976798308
 30
0.0
 10
107.4848807885425
 20
159.6782020174981
 30
0.0
 10
107.8871745896019
 20
159.6068224436296
 30
0.0
 10
108.1051826378539
 20
159.5725805749902
 30
0.0
 10
108.5557810050042
 20
159.5135237274887
 30
0.0
 10
108.7903300038849
 20
159.4883012107247
 30
0.0
 10
109.2787899974372
 20
159.4495105130065
 30
0.0
 10
109.5310553931511
 20
159.436261982023
 30
0.0
 10
110.0332360313114
 20
159.4242724565669
 30
0.0
 10
110.2857181486631
 20
159.4252994562111
 30
0.0
 10
110.7935831917326
 20
159.4418686590923
 30
0.0
 10
111.0411286649164
 20
159.4571617879936
 30
0.0
 10
111.5220962023871
 20
159.4993273627013
 30
0.0
 10
111.7580560674924
 20
159.5265462156506
 30
0.0
 10
112.204626517014
 20
159.5885577567678
 30
0.0
 10
112.4142713795874
 20
159.6230577206935
 30
0.0
 10
112.8072580863419
 20
159.6953639376192
 30
0.0
 10
112.9916539901569
 20
159.7334685234673
 30
0.0
 10
113.3202044080173
 20
159.8064631962588
 30
0.0
 10
113.4661465045405
 20
159.841647981802
 30
0.0
 10
113.7210318597426
 20
159.9059069698936
 30
0.0
 10
113.8293431725509
 20
159.9348444486827
 30
0.0
 10
113.9991781499679
 20
159.9813111651575
 30
0.0
 10
114.062173511105
 20
159.9992182528747
 30
0.0
 10
114.1021943515993
 20
160.0106645376519
 30
0.0
  0
SPLINE
  5
217
330
1F
100
AcDbEntity
  8
0
  6
HIDDEN
 62
     7
370
     0
100
AcDbSpline
210
0.0
220
0.0
230
1.0
 70
    11
 71
     3
 72
    10
 73
     6
 74
     0
 42
0.00000001
 43
0.00000001
 12
1.0
 22
0.0
 32
0.0
 13
1.0
 23
0.0
 33
0.0
 40
0.0
 40
0.0
 40
0.0
 40
0.0
 40
0.5
 40
0.5
 40
1.0
 40
1.0
 40
1.0
 40
1.0
 10
114.1021943515993
 20
160.0106645376519
 30
0.0
 10
114.135383314073
 20
160.0201568499383
 30
0.0
 10
114.1520840903276
 20
160.0225198226511
 30
0.0
 10
114.1523035307723
 20
160.0225612606416
 30
0.0
 10
114.1354238153789
 20
160.0201684336402
 30
0.0
 10
114.1021943515993
 20
160.0106645376519
 30
0.0
  0
SPLINE
  5
218
330
1F
100
AcDbEntity
  8
0
  6
HIDDEN
 62
     7
370
     0
100
AcDbSpline
210
0.0
220
0.0
230
1.0
 70
    11
 71
     3
 72
    10
 73
     6
 74
     0
 42
0.00000001
 43
0.00000001
 12
1.0
 22
0.0
 32
0.0
 13
1.0
 23
0.0
 33
0.0
 40
0.0
 40
0.0
 40
0.0
 40
0.0
 40
0.5
 40
0.5
 40
1.0
 40
1.0
 40
1.0
 40
1.0
 10
114.1021943515993
 20
132.0394293128715
 30
0.0
 10
114.1353417696757
 20
132.0299488826195
 30
0.0
 10
114.1522006150374
 20
132.02755202396
 30
0.0
 10
114.1521880846897
 20
132.0275543901124
 30
0.0
 10
114.1352731269493
 20
132.0299685149956
 30
0.0
 10
114.1021943515993
 20
132.0394293128715
 30
0.0
  0
LINE
  5
219
330
1F
100
AcDbEntity
  8
0
  6
HIDDEN
 62
     7
370
     0
100
AcDbLine
 10
114.6021943516
 20
132.5250469253
 30
0.0
 11
114.6021943516
 21
159.5250469253
 31
0.0
  0
LINE
  5
21A
330
1F
100
AcDbEntity
  8
0
  6
HIDDEN
 62
     7
370
     0
100
AcDbLine
 10
115.8521943516
 20
137.0250469253
 30
0.0
 11
115.8521943516
 21
155.0250469253
 31
0.0
  0
LINE
  5
21B
330
1F
100
AcDbEntity
  8
0
  6
HIDDEN
 62
     7
370
     0
100
AcDbLine
 10
114.6021943516
 20
135.7989420411
 30
0.0
 11
114.6021943516
 21
156.2511518095
 31
0.0
  0
LINE
  5
21C
330
1F
100
AcDbEntity
  8
0
  6
HIDDEN
 62
     7
370
     0
100
AcDbLine
 10
152.6021943516
 20
137.0250469253
 30
0.0
 11
152.6021943516
 21
155.0250469253
 31
0.0
  0
LINE
  5
21D
330
1F
100
AcDbEntity
  8
0
  6
HIDDEN
 62
     7
370
     0
100
AcDbLine
 10
155.456282292
 20
141.7750469253
 30
0.0
 11
155.456282292
 21
150.2750469253
 31
0.0
  0
LINE
  5
21E
330
1F
100
AcDbEntity
  8
0
  6
HIDDEN
 62
     7
370
     0
100
AcDbLine
 10
123.4021943516
 20
167.7074474318
 30
0.0
 11
123.4021943516
 21
169.4451457098
 31
0.0
  0
LINE
  5
21F
330
1F
100
AcDbEntity
  8
0
  6
HIDDEN
 62
     7
370
     0
100
AcDbLine
 10
89.1021943516
 20
166.9611626942
 30
0.0
 11
89.1021943516
 21
168.5834103215
 31
0.0
  0
SPLINE
  5
220
330
1F
100
AcDbEntity
  8
0
  6
HIDDEN
 62
     7
370
     0
100
AcDbSpline
210
0.0
220
0.0
230
1.0
 70
     8
 71
     3
 72
    10
 73
     6
 74
     0
 42
0.00000001
 43
0.00000001
 12
1.0
 22
0.0
 32
0.0
 13
1.0
 23
0.0
 33
0.0
 40
0.0
 40
0.0
 40
0.0
 40
0.0
 40
0.3700749405053259
 40
0.7506758864502969
 40
1.0
 40
1.0
 40
1.0
 40
1.0
 10
124.2808740080396
 20
168.168731979788
 30
0.0
 10
124.1754336042957
 20
168.4025439843204
 30
0.0
 10
123.9615537656877
 20
168.8768182854266
 30
0.0
 10
123.8099145923621
 20
169.2189101890384
 30
0.0
 10
123.8091055317818
 20
169.2206735123998
 30
0.0
 10
123.8087853058931
 20
169.2213714351564
 30
0.0
  0
LINE
  5
221
330
1F
100
AcDbEntity
  8
0
  6
HIDDEN
 62
     7
370
     0
100
AcDbLine
 10
87.6021943516
 20
166.2111626942
 30
0.0
 11
87.6021943516
 21
167.7173849178
 31
0.0
  0
LINE
  5
222
330
1F
100
AcDbEntity
  8
0
  6
HIDDEN
 62
     7
370
     0
100
AcDbLine
 10
235.5201327899
 20
145.7250469253
 30
0.0
 11
245.4295607786
 21
145.7250469253
 31
0.0
  0
LINE
  5
223
330
1F
100
AcDbEntity
  8
0
  6
HIDDEN
 62
     7
370
     0
100
AcDbLine
 10
236.1051394932
 20
143.5250469253
 30
0.0
 11
245.4295607786
 21
143.5250469253
 31
0.0
  0
LINE
  5
224
330
1F
100
AcDbEntity
  8
0
  6
HIDDEN
 62
     7
370
     0
100
AcDbLine
 10
235.5365744301
 20
142.0550469253
 30
0.0
 11
245.2341153572
 21
142.0550469253
 31
0.0
  0
LINE
  5
225
330
1F
100
AcDbEntity
  8
0
  6
HIDDEN
 62
     7
370
     0
100
AcDbLine
 10
106.0521943516
 20
126.027290945
 30
0.0
 11
114.1521943516
 21
126.027290945
 31
0.0
  0
LINE
  5
226
330
1F
100
AcDbEntity
  8
0
  6
HIDDEN
 62
     7
370
     0
100
AcDbLine
 10
196.6021943516
 20
141.7750469253
 30
0.0
 11
196.6021943516
 21
150.2750469253
 31
0.0
  0
SPLINE
  5
227
330
1F
100
AcDbEntity
  8
0
  6
HIDDEN
 62
     7
370
     0
100
AcDbSpline
210
0.0
220
0.0
230
1.0
 70
    11
 71
     3
 72
    64
 73
    60
 74
     0
 42
0.00000001
 43
0.00000001
 12
1.0
 22
0.0
 32
0.0
 13
1.0
 23
0.0
 33
0.0
 40
-0.0312500000000017
 40
-0.0312500000000017
 40
0.0
 40
0.0
 40
0.0312499999999999
 40
0.0312499999999999
 40
0.0624999999999997
 40
0.0624999999999997
 40
0.1249999999999984
 40
0.1249999999999984
 40
0.1562499999999978
 40
0.1562499999999978
 40
0.1874999999999972
 40
0.1874999999999972
 40
0.2187499999999965
 40
0.2187499999999965
 40
0.2499999999999959
 40
0.2499999999999959
 40
0.2812499999999953
 40
0.2812499999999953
 40
0.3124999999999946
 40
0.3124999999999946
 40
0.343749999999994
 40
0.343749999999994
 40
0.3749999999999933
 40
0.3749999999999933
 40
0.4062499999999927
 40
0.4062499999999927
 40
0.437499999999992
 40
0.437499999999992
 40
0.4687499999999913
 40
0.4687499999999913
 40
0.4999999999999906
 40
0.4999999999999906
 40
0.5312499999999899
 40
0.5312499999999899
 40
0.5624999999999892
 40
0.5624999999999892
 40
0.6249999999999887
 40
0.6249999999999887
 40
0.6562499999999893
 40
0.6562499999999893
 40
0.68749999999999
 40
0.68749999999999
 40
0.7187499999999906
 40
0.7187499999999906
 40
0.7499999999999912
 40
0.7499999999999912
 40
0.7812499999999919
 40
0.7812499999999919
 40
0.8124999999999926
 40
0.8124999999999926
 40
0.8437499999999931
 40
0.8437499999999931
 40
0.8749999999999938
 40
0.8749999999999938
 40
0.9374999999999968
 40
0.9374999999999968
 40
0.9687499999999983
 40
0.9687499999999983
 40
1.0
 40
1.0
 40
1.03125
 40
1.03125
 10
190.1021943515993
 20
150.2750469252617
 30
0.0
 10
190.1021943515993
 20
150.2750469252617
 30
0.0
 10
190.1192264750005
 20
150.2649650877332
 30
0.0
 10
190.1852886720057
 20
150.2266192038601
 30
0.0
 10
190.2352198215727
 20
150.197848900511
 30
0.0
 10
190.4260479169394
 20
150.0916111876926
 30
0.0
 10
190.6109303200397
 20
149.9921028101555
 30
0.0
 10
190.9486429134338
 20
149.8377503422981
 30
0.0
 10
191.0731923916131
 20
149.784730773025
 30
0.0
 10
191.3386767846664
 20
149.6848081583804
 30
0.0
 10
191.479083341795
 20
149.6379842944156
 30
0.0
 10
191.7771671725858
 20
149.5567048842374
 30
0.0
 10
191.936920593234
 20
149.5220853482134
 30
0.0
 10
192.2616609748811
 20
149.4750688873208
 30
0.0
 10
192.4284056050169
 20
149.4622079873048
 30
0.0
 10
192.7667924439531
 20
149.4617555498025
 30
0.0
 10
192.9326670666789
 20
149.4740662671026
 30
0.0
 10
193.2583230531767
 20
149.5203333338432
 30
0.0
 10
193.4180496267851
 20
149.5545333545807
 30
0.0
 10
193.7179930517938
 20
149.6356786378647
 30
0.0
 10
193.8614182377279
 20
149.6833080125451
 30
0.0
 10
194.1280830524325
 20
149.7834462806609
 30
0.0
 10
194.2509839284711
 20
149.8356694110908
 30
0.0
 10
194.4775653286948
 20
149.9390414273576
 30
0.0
 10
194.5811949337386
 20
149.9902713227916
 30
0.0
 10
194.7610931976726
 20
150.0830520319902
 30
0.0
 10
194.8385976108159
 20
150.1251864513736
 30
0.0
 10
194.967204419213
 20
150.1967273079929
 30
0.0
 10
195.0171774862092
 20
150.2255115626893
 30
0.0
 10
195.0839934709131
 20
150.2642787540788
 30
0.0
 10
195.1016711332752
 20
150.2747391506873
 30
0.0
 10
195.1026947066939
 20
150.2753412508978
 30
0.0
 10
195.0861928570936
 20
150.2655704136207
 30
0.0
 10
195.0207761139164
 20
150.2275852797612
 30
0.0
 10
194.9711292496661
 20
150.1989641180614
 30
0.0
 10
194.7810760188935
 20
150.0930874909828
 30
0.0
 10
194.5964597812054
 20
149.9935952372215
 30
0.0
 10
194.2581430793709
 20
149.8387867517532
 30
0.0
 10
194.1331771241114
 20
149.7855473477445
 30
0.0
 10
193.8683299028628
 20
149.6857236949231
 30
0.0
 10
193.7277812358319
 20
149.6387225020558
 30
0.0
 10
193.4279780477374
 20
149.5568487392328
 30
0.0
 10
193.2683672823522
 20
149.5222587835608
 30
0.0
 10
192.943713856129
 20
149.4751686593653
 30
0.0
 10
192.7745177026105
 20
149.4621774089102
 30
0.0
 10
192.4378908216846
 20
149.4617846624573
 30
0.0
 10
192.2719269682018
 20
149.474004696669
 30
0.0
 10
191.9444548738003
 20
149.5205947199671
 30
0.0
 10
191.7854496999771
 20
149.554729805226
 30
0.0
 10
191.4850115429033
 20
149.6360975805704
 30
0.0
 10
191.3409437949869
 20
149.6840142954137
 30
0.0
 10
191.0747539198835
 20
149.7840845044463
 30
0.0
 10
190.9516051475587
 20
149.8364368760735
 30
0.0
 10
190.6101708086273
 20
149.9923699953392
 30
0.0
 10
190.428185610693
 20
150.0904302881517
 30
0.0
 10
190.234791338508
 20
150.1980828700896
 30
0.0
 10
190.1860159899679
 20
150.226200180173
 30
0.0
 10
190.1196971442195
 20
150.2646887946517
 30
0.0
 10
190.1021943515993
 20
150.2750469252617
 30
0.0
 10
190.1021943515993
 20
150.2750469252617
 30
0.0
  0
SPLINE
  5
228
330
1F
100
AcDbEntity
  8
0
  6
HIDDEN
 62
     7
370
     0
100
AcDbSpline
210
0.0
220
0.0
230
1.0
 70
    11
 71
     3
 72
    64
 73
    60
 74
     0
 42
0.00000001
 43
0.00000001
 12
1.0
 22
0.0
 32
0.0
 13
1.0
 23
0.0
 33
0.0
 40
-0.0312500000000017
 40
-0.0312500000000017
 40
0.0
 40
0.0
 40
0.0312499999999999
 40
0.0312499999999999
 40
0.0624999999999997
 40
0.0624999999999997
 40
0.1249999999999984
 40
0.1249999999999984
 40
0.1562499999999978
 40
0.1562499999999978
 40
0.1874999999999972
 40
0.1874999999999972
 40
0.2187499999999965
 40
0.2187499999999965
 40
0.2499999999999959
 40
0.2499999999999959
 40
0.2812499999999953
 40
0.2812499999999953
 40
0.3124999999999946
 40
0.3124999999999946
 40
0.343749999999994
 40
0.343749999999994
 40
0.3749999999999933
 40
0.3749999999999933
 40
0.4062499999999927
 40
0.4062499999999927
 40
0.437499999999992
 40
0.437499999999992
 40
0.4687499999999913
 40
0.4687499999999913
 40
0.4999999999999906
 40
0.4999999999999906
 40
0.5312499999999899
 40
0.5312499999999899
 40
0.5624999999999892
 40
0.5624999999999892
 40
0.6249999999999887
 40
0.6249999999999887
 40
0.6562499999999893
 40
0.6562499999999893
 40
0.68749999999999
 40
0.68749999999999
 40
0.7187499999999906
 40
0.7187499999999906
 40
0.7499999999999912
 40
0.7499999999999912
 40
0.7812499999999919
 40
0.7812499999999919
 40
0.8124999999999926
 40
0.8124999999999926
 40
0.8437499999999931
 40
0.8437499999999931
 40
0.8749999999999938
 40
0.8749999999999938
 40
0.9374999999999968
 40
0.9374999999999968
 40
0.9687499999999983
 40
0.9687499999999983
 40
1.0
 40
1.0
 40
1.03125
 40
1.03125
 10
190.1021943515993
 20
150.2750469252617
 30
0.0
 10
190.1021943515993
 20
150.2750469252617
 30
0.0
 10
190.1192264750005
 20
150.2649650877332
 30
0.0
 10
190.1852886720057
 20
150.2266192038601
 30
0.0
 10
190.2352198215727
 20
150.197848900511
 30
0.0
 10
190.4260479169394
 20
150.0916111876926
 30
0.0
 10
190.6109303200397
 20
149.9921028101555
 30
0.0
 10
190.9486429134338
 20
149.8377503422981
 30
0.0
 10
191.0731923916131
 20
149.784730773025
 30
0.0
 10
191.3386767846664
 20
149.6848081583804
 30
0.0
 10
191.479083341795
 20
149.6379842944156
 30
0.0
 10
191.7771671725858
 20
149.5567048842374
 30
0.0
 10
191.936920593234
 20
149.5220853482134
 30
0.0
 10
192.2616609748811
 20
149.4750688873208
 30
0.0
 10
192.4284056050169
 20
149.4622079873048
 30
0.0
 10
192.7667924439531
 20
149.4617555498025
 30
0.0
 10
192.9326670666789
 20
149.4740662671026
 30
0.0
 10
193.2583230531767
 20
149.5203333338432
 30
0.0
 10
193.4180496267851
 20
149.5545333545807
 30
0.0
 10
193.7179930517938
 20
149.6356786378647
 30
0.0
 10
193.8614182377279
 20
149.6833080125451
 30
0.0
 10
194.1280830524325
 20
149.7834462806609
 30
0.0
 10
194.2509839284711
 20
149.8356694110908
 30
0.0
 10
194.4775653286948
 20
149.9390414273576
 30
0.0
 10
194.5811949337386
 20
149.9902713227916
 30
0.0
 10
194.7610931976726
 20
150.0830520319902
 30
0.0
 10
194.8385976108159
 20
150.1251864513736
 30
0.0
 10
194.967204419213
 20
150.1967273079929
 30
0.0
 10
195.0171774862092
 20
150.2255115626893
 30
0.0
 10
195.0839934709131
 20
150.2642787540788
 30
0.0
 10
195.1016711332752
 20
150.2747391506873
 30
0.0
 10
195.1026947066939
 20
150.2753412508978
 30
0.0
 10
195.0861928570936
 20
150.2655704136207
 30
0.0
 10
195.0207761139164
 20
150.2275852797612
 30
0.0
 10
194.9711292496661
 20
150.1989641180614
 30
0.0
 10
194.7810760188935
 20
150.0930874909828
 30
0.0
 10
194.5964597812054
 20
149.9935952372215
 30
0.0
 10
194.2581430793709
 20
149.8387867517532
 30
0.0
 10
194.1331771241114
 20
149.7855473477445
 30
0.0
 10
193.8683299028628
 20
149.6857236949231
 30
0.0
 10
193.7277812358319
 20
149.6387225020558
 30
0.0
 10
193.4279780477374
 20
149.5568487392328
 30
0.0
 10
193.2683672823522
 20
149.5222587835608
 30
0.0
 10
192.943713856129
 20
149.4751686593653
 30
0.0
 10
192.7745177026105
 20
149.4621774089102
 30
0.0
 10
192.4378908216846
 20
149.4617846624573
 30
0.0
 10
192.2719269682018
 20
149.474004696669
 30
0.0
 10
191.9444548738003
 20
149.5205947199671
 30
0.0
 10
191.7854496999771
 20
149.554729805226
 30
0.0
 10
191.4850115429033
 20
149.6360975805704
 30
0.0
 10
191.3409437949869
 20
149.6840142954137
 30
0.0
 10
191.0747539198835
 20
149.7840845044463
 30
0.0
 10
190.9516051475587
 20
149.8364368760735
 30
0.0
 10
190.6101708086273
 20
149.9923699953392
 30
0.0
 10
190.428185610693
 20
150.0904302881517
 30
0.0
 10
190.234791338508
 20
150.1980828700896
 30
0.0
 10
190.1860159899679
 20
150.226200180173
 30
0.0
 10
190.1196971442195
 20
150.2646887946517
 30
0.0
 10
190.1021943515993
 20
150.2750469252617
 30
0.0
 10
190.1021943515993
 20
150.2750469252617
 30
0.0
  0
SPLINE
  5
229
330
1F
100
AcDbEntity
  8
0
  6
HIDDEN
 62
     7
370
     0
100
AcDbSpline
210
0.0
220
0.0
230
1.0
 70
     8
 71
     3
 72
     8
 73
     4
 74
     0
 42
0.00000001
 43
0.00000001
 12
1.0
 22
0.0
 32
0.0
 13
1.0
 23
0.0
 33
0.0
 40
0.0
 40
0.0
 40
0.0
 40
0.0
 40
1.0
 40
1.0
 40
1.0
 40
1.0
 10
89.10219435159928
 20
126.5280573120595
 30
0.0
 10
88.57470250975574
 20
126.7951073441415
 30
0.0
 10
88.06895496297645
 20
127.0470381192325
 30
0.0
 10
87.60219435159927
 20
127.2765676116163
 30
0.0
  0
LINE
  5
22A
330
1F
100
AcDbEntity
  8
0
  6
HIDDEN
 62
     7
370
     0
100
AcDbLine
 10
94.0521943516
 20
126.4187836348
 30
0.0
 11
94.0521943516
 21
128.0250469253
 31
0.0
  0
LINE
  5
22B
330
1F
100
AcDbEntity
  8
0
  6
HIDDEN
 62
     7
370
     0
100
AcDbLine
 10
87.6021943516
 20
127.2765676116
 30
0.0
 11
87.6021943516
 21
128.0250469253
 31
0.0
  0
LINE
  5
22C
330
1F
100
AcDbEntity
  8
0
  6
HIDDEN
 62
     7
370
     0
100
AcDbLine
 10
106.0521943516
 20
163.5250469253
 30
0.0
 11
114.1521943516
 21
163.5250469253
 31
0.0
  0
LINE
  5
22D
330
1F
100
AcDbEntity
  8
0
  6
HIDDEN
 62
     7
370
     0
100
AcDbLine
 10
195.6021943516
 20
170.5250469253
 30
0.0
 11
189.6021943516
 21
170.5250469253
 31
0.0
  0
LINE
  5
22E
330
1F
100
AcDbEntity
  8
0
  6
HIDDEN
 62
     7
370
     0
100
AcDbLine
 10
195.1021943516
 20
170.2246166157
 30
0.0
 11
190.1021943516
 21
170.2246166157
 31
0.0
  0
LINE
  5
22F
330
1F
100
AcDbEntity
  8
0
  6
HIDDEN
 62
     7
370
     0
100
AcDbLine
 10
192.8920308481
 20
163.1282454143
 30
0.0
 11
195.1021943516
 21
164.8241635184
 31
0.0
  0
SPLINE
  5
230
330
1F
100
AcDbEntity
  8
0
  6
HIDDEN
 62
     7
370
     0
100
AcDbSpline
210
0.0
220
0.0
230
1.0
 70
     8
 71
     3
 72
     8
 73
     4
 74
     0
 42
0.00000001
 43
0.00000001
 12
1.0
 22
0.0
 32
0.0
 13
1.0
 23
0.0
 33
0.0
 40
0.0
 40
0.0
 40
0.0
 40
0.0
 40
1.0
 40
1.0
 40
1.0
 40
1.0
 10
192.8920308480587
 20
163.128245414255
 30
0.0
 10
192.8451961312142
 20
162.9821058297322
 30
0.0
 10
192.8050028792607
 20
162.8327161745205
 30
0.0
 10
192.7728473871144
 20
162.6834466825888
 30
0.0
  0
LINE
  5
231
330
1F
100
AcDbEntity
  8
0
  6
HIDDEN
 62
     7
370
     0
100
AcDbLine
 10
192.7728473871
 20
162.6834466826
 30
0.0
 11
195.1021943516
 21
159.6477826163
 31
0.0
  0
SPLINE
  5
232
330
1F
100
AcDbEntity
  8
0
  6
HIDDEN
 62
     7
370
     0
100
AcDbSpline
210
0.0
220
0.0
230
1.0
 70
     8
 71
     3
 72
     8
 73
     4
 74
     0
 42
0.00000001
 43
0.00000001
 12
1.0
 22
0.0
 32
0.0
 13
1.0
 23
0.0
 33
0.0
 40
0.0
 40
0.0
 40
0.0
 40
0.0
 40
1.0
 40
1.0
 40
1.0
 40
1.0
 10
192.7728473871144
 20
162.6834466825888
 30
0.0
 10
192.8049922924375
 20
162.8326670292701
 30
0.0
 10
192.8452698406419
 20
162.9823358271756
 30
0.0
 10
192.8920308480588
 20
163.1282454142552
 30
0.0
  0
LINE
  5
233
330
1F
100
AcDbEntity
  8
0
  6
HIDDEN
 62
     7
370
     0
100
AcDbLine
 10
192.7728473871
 20
162.6834466826
 30
0.0
 11
192.8920308481
 21
163.1282454143
 31
0.0
  0
LINE
  5
234
330
1F
100
AcDbEntity
  8
0
  6
HIDDEN
 62
     7
370
     0
100
AcDbLine
 10
192.8920308481
 20
163.1282454143
 30
0.0
 11
192.7728473871
 21
162.6834466826
 31
0.0
  0
LINE
  5
235
330
1F
100
AcDbEntity
  8
0
  6
HIDDEN
 62
     7
370
     0
100
AcDbLine
 10
204.5499251169
 20
157.1162707874
 30
0.0
 11
203.0556326633
 21
162.6930461457
 31
0.0
  0
LINE
  5
236
330
1F
100
AcDbEntity
  8
0
  6
HIDDEN
 62
     7
370
     0
100
AcDbLine
 10
244.0044128641
 20
141.6050469253
 30
0.0
 11
247.3044128641
 21
141.6050469253
 31
0.0
  0
LINE
  5
237
330
1F
100
AcDbEntity
  8
0
  6
HIDDEN
 62
     7
370
     0
100
AcDbLine
 10
243.5544128641
 20
142.0550469253
 30
0.0
 11
247.7544128641
 21
142.0550469253
 31
0.0
  0
LINE
  5
238
330
1F
100
AcDbEntity
  8
0
  6
HIDDEN
 62
     7
370
     0
100
AcDbLine
 10
135.6021943516
 20
115.0250469253
 30
0.0
 11
139.6021943516
 21
115.0250469253
 31
0.0
  0
LINE
  5
239
330
1F
100
AcDbEntity
  8
0
  6
HIDDEN
 62
     7
370
     0
100
AcDbLine
 10
244.0044128641
 20
130.5550469253
 30
0.0
 11
247.3044128641
 21
130.5550469253
 31
0.0
  0
LINE
  5
23A
330
1F
100
AcDbEntity
  8
0
  6
HIDDEN
 62
     7
370
     0
100
AcDbLine
 10
236.0652526725
 20
143.8250469253
 30
0.0
 11
235.5600196106
 21
145.7250469253
 31
0.0
  0
LINE
  5
23B
330
1F
100
AcDbEntity
  8
0
  6
HIDDEN
 62
     7
370
     0
100
AcDbLine
 10
236.1051394932
 20
143.5250469253
 30
0.0
 11
236.0652526725
 21
143.8250469253
 31
0.0
  0
LINE
  5
23C
330
1F
100
AcDbEntity
  8
0
  6
HIDDEN
 62
     7
370
     0
100
AcDbLine
 10
236.1051394932
 20
143.5250469253
 30
0.0
 11
235.5201327899
 21
145.7250469253
 31
0.0
  0
LINE
  5
23D
330
1F
100
AcDbEntity
  8
0
  6
HIDDEN
 62
     7
370
     0
100
AcDbLine
 10
235.5600196106
 20
145.7250469253
 30
0.0
 11
235.5201327899
 21
145.7250469253
 31
0.0
  0
LINE
  5
23E
330
1F
100
AcDbEntity
  8
0
  6
HIDDEN
 62
     7
370
     0
100
AcDbLine
 10
235.5365744301
 20
143.8250469253
 30
0.0
 11
236.0652526725
 21
143.8250469253
 31
0.0
  0
LINE
  5
23F
330
1F
100
AcDbEntity
  8
0
  6
HIDDEN
 62
     7
370
     0
100
AcDbLine
 10
235.4288527888
 20
145.7250469253
 30
0.0
 11
235.5600196106
 21
145.7250469253
 31
0.0
  0
LINE
  5
240
330
1F
100
AcDbEntity
  8
0
  6
HIDDEN
 62
     7
370
     0
100
AcDbLine
 10
236.6909459632
 20
143.8250469253
 30
0.0
 11
234.8637601967
 21
143.8250469253
 31
0.0
  0
LINE
  5
241
330
1F
100
AcDbEntity
  8
0
  6
HIDDEN
 62
     7
370
     0
100
AcDbLine
 10
236.7986676046
 20
145.7250469253
 30
0.0
 11
234.6361138998
 21
145.7250469253
 31
0.0
  0
LINE
  5
242
330
1F
100
AcDbEntity
  8
0
  6
HIDDEN
 62
     7
370
     0
100
AcDbLine
 10
253.8164949503
 20
142.0550469253
 30
0.0
 11
246.4962755327
 21
114.5263320787
 31
0.0
  0
LINE
  5
243
330
1F
100
AcDbEntity
  8
0
  6
HIDDEN
 62
     7
370
     0
100
AcDbLine
 10
253.8164949503
 20
142.0550469253
 30
0.0
 11
245.2341153572
 21
142.0550469253
 31
0.0
  0
LINE
  5
244
330
1F
100
AcDbEntity
  8
0
  6
HIDDEN
 62
     7
370
     0
100
AcDbLine
 10
245.4295607786
 20
145.7250469253
 30
0.0
 11
212.2061562795
 21
145.7250469253
 31
0.0
  0
ARC
  5
245
330
1F
100
AcDbEntity
  8
0
  6
HIDDEN
 62
     7
370
     0
100
AcDbCircle
 10
212.2061562795
 20
151.7250469253
 30
0.0
 40
6.0
100
AcDbArc
 50
195.0
 51
270.0
  0
LINE
  5
246
330
1F
100
AcDbEntity
  8
0
  6
HIDDEN
 62
     7
370
     0
100
AcDbLine
 10
206.4106013217
 20
150.1721326546
 30
0.0
 11
203.985286671
 21
159.2235301555
 31
0.0
  0
LINE
  5
247
330
1F
100
AcDbEntity
  8
0
  6
HIDDEN
 62
     7
370
     0
100
AcDbLine
 10
236.6909459632
 20
142.0550469253
 30
0.0
 11
234.8637601967
 21
142.0550469253
 31
0.0
  0
LINE
  5
248
330
1F
100
AcDbEntity
  8
0
  6
HIDDEN
 62
     7
370
     0
100
AcDbLine
 10
238.8122402059
 20
142.0550469253
 30
0.0
 11
238.8122402059
 21
143.5250469253
 31
0.0
  0
LINE
  5
249
330
1F
100
AcDbEntity
  8
0
  6
HIDDEN
 62
     7
370
     0
100
AcDbLine
 10
238.7723533853
 20
143.8250469253
 30
0.0
 11
236.6909459632
 21
143.8250469253
 31
0.0
  0
LINE
  5
24A
330
1F
100
AcDbEntity
  8
0
  6
HIDDEN
 62
     7
370
     0
100
AcDbLine
 10
238.7723533853
 20
143.8250469253
 30
0.0
 11
238.8122402059
 21
143.5250469253
 31
0.0
  0
LINE
  5
24B
330
1F
100
AcDbEntity
  8
0
  6
HIDDEN
 62
     7
370
     0
100
AcDbLine
 10
238.8122402059
 20
142.0550469253
 30
0.0
 11
236.6909459632
 21
142.0550469253
 31
0.0
  0
LINE
  5
24C
330
1F
100
AcDbEntity
  8
0
  6
HIDDEN
 62
     7
370
     0
100
AcDbLine
 10
245.4295607786
 20
143.5250469253
 30
0.0
 11
238.8122402059
 21
143.5250469253
 31
0.0
  0
LINE
  5
24D
330
1F
100
AcDbEntity
  8
0
  6
HIDDEN
 62
     7
370
     0
100
AcDbLine
 10
245.2341153572
 20
142.0550469253
 30
0.0
 11
245.4295607786
 21
143.5250469253
 31
0.0
  0
LINE
  5
24E
330
1F
100
AcDbEntity
  8
0
  6
HIDDEN
 62
     7
370
     0
100
AcDbLine
 10
245.2341153572
 20
142.0550469253
 30
0.0
 11
238.8122402059
 21
142.0550469253
 31
0.0
  0
LINE
  5
24F
330
1F
100
AcDbEntity
  8
0
  6
HIDDEN
 62
     7
370
     0
100
AcDbLine
 10
238.7723533853
 20
145.7250469253
 30
0.0
 11
238.7723533853
 21
143.8250469253
 31
0.0
  0
LINE
  5
250
330
1F
100
AcDbEntity
  8
0
  6
HIDDEN
 62
     7
370
     0
100
AcDbLine
 10
245.4295607786
 20
145.7250469253
 30
0.0
 11
245.4295607786
 21
143.5250469253
 31
0.0
  0
LINE
  5
251
330
1F
100
AcDbEntity
  8
0
  6
HIDDEN
 62
     7
370
     0
100
AcDbLine
 10
245.4295607786
 20
145.7250469253
 30
0.0
 11
238.7723533853
 21
145.7250469253
 31
0.0
  0
LINE
  5
252
330
1F
100
AcDbEntity
  8
0
  6
HIDDEN
 62
     7
370
     0
100
AcDbLine
 10
238.7723533853
 20
145.7250469253
 30
0.0
 11
236.7986676046
 21
145.7250469253
 31
0.0
  0
LINE
  5
253
330
1F
100
AcDbEntity
  8
0
  6
HIDDEN
 62
     7
370
     0
100
AcDbLine
 10
87.6021943516
 20
131.0638022869
 30
0.0
 11
87.6021943516
 21
127.2765676116
 31
0.0
  0
LINE
  5
254
330
1F
100
AcDbEntity
  8
0
  6
HIDDEN
 62
     7
370
     0
100
AcDbLine
 10
87.6021943516
 20
166.2111626942
 30
0.0
 11
87.6021943516
 21
140.8001757947
 31
0.0
  0
LINE
  5
255
330
1F
100
AcDbEntity
  8
0
  6
HIDDEN
 62
     7
370
     0
100
AcDbLine
 10
89.1021943516
 20
166.9611626942
 30
0.0
 11
89.1021943516
 21
140.8001757947
 31
0.0
  0
LINE
  5
256
330
1F
100
AcDbEntity
  8
0
  6
HIDDEN
 62
     7
370
     0
100
AcDbLine
 10
125.4021943516
 20
167.4431840195
 30
0.0
 11
125.4021943516
 21
141.3971111847
 31
0.0
  0
LINE
  5
257
330
1F
100
AcDbEntity
  8
0
  6
HIDDEN
 62
     7
370
     0
100
AcDbLine
 10
123.4021943516
 20
167.7074474318
 30
0.0
 11
123.4021943516
 21
140.8001757947
 31
0.0
  0
LINE
  5
258
330
1F
100
AcDbEntity
  8
0
  6
HIDDEN
 62
     7
370
     0
100
AcDbLine
 10
87.6021943516
 20
140.8001757947
 30
0.0
 11
87.6021943516
 21
131.0638022869
 31
0.0
  0
LINE
  5
259
330
1F
100
AcDbEntity
  8
0
  6
HIDDEN
 62
     7
370
     0
100
AcDbLine
 10
89.1021943516
 20
140.8001757947
 30
0.0
 11
89.1021943516
 21
130.3138022869
 31
0.0
  0
LINE
  5
25A
330
1F
100
AcDbEntity
  8
0
  6
HIDDEN
 62
     7
370
     0
100
AcDbLine
 10
123.4021943516
 20
140.8001757947
 30
0.0
 11
123.4021943516
 21
129.5675175493
 31
0.0
  0
SPLINE
  5
25B
330
1F
100
AcDbEntity
  8
0
  6
HIDDEN
 62
     7
370
     0
100
AcDbSpline
210
0.0
220
0.0
230
1.0
 70
     8
 71
     3
 72
    16
 73
    12
 74
     0
 42
0.00000001
 43
0.00000001
 12
1.0
 22
0.0
 32
0.0
 13
1.0
 23
0.0
 33
0.0
 40
0.0
 40
0.0
 40
0.0
 40
0.0
 40
0.2499999999999997
 40
0.2499999999999997
 40
0.3749999999999998
 40
0.3749999999999998
 40
0.4999999999999999
 40
0.4999999999999999
 40
0.7499999999999999
 40
0.7499999999999999
 40
1.0
 40
1.0
 40
1.0
 40
1.0
 10
124.2808740080396
 20
139.4445631151603
 30
0.0
 10
124.1196415305552
 20
138.5630624508802
 30
0.0
 10
123.9991616909155
 20
137.700835690229
 30
0.0
 10
123.8767811736022
 20
136.4366982402197
 30
0.0
 10
123.8458035132048
 20
136.0202199424791
 30
0.0
 10
123.8041897755768
 20
135.1975687681921
 30
0.0
 10
123.793953862644
 20
134.7992091434249
 30
0.0
 10
123.7937654655879
 20
133.642584500026
 30
0.0
 10
123.8339101682255
 20
132.9219495871975
 30
0.0
 10
123.9980639231651
 20
131.5841477453296
 30
0.0
 10
124.1196155735746
 20
130.9875646462573
 30
0.0
 10
124.2808740080396
 20
130.4618456808368
 30
0.0
  0
LINE
  5
25C
330
1F
100
AcDbEntity
  8
0
  6
HIDDEN
 62
     7
370
     0
100
AcDbLine
 10
125.6021943516
 20
121.7750469253
 30
0.0
 11
125.6950875704
 21
121.8679401441
 31
0.0
  0
LINE
  5
25D
330
1F
100
AcDbEntity
  8
0
  6
HIDDEN
 62
     7
370
     0
100
AcDbLine
 10
125.6950875704
 20
170.1821537064
 30
0.0
 11
125.6021943516
 21
170.2750469253
 31
0.0
  0
ARC
  5
25E
330
1F
100
AcDbEntity
  8
0
  6
HIDDEN
 62
     7
370
     0
100
AcDbCircle
 10
124.9879807892
 20
122.5750469253
 30
0.0
 40
1.0
100
AcDbArc
 50
315.0
 51
0.0
  0
ARC
  5
25F
330
1F
100
AcDbEntity
  8
0
  6
HIDDEN
 62
     7
370
     0
100
AcDbCircle
 10
124.9879807892
 20
122.5750469253
 30
0.0
 40
1.00000000000001
100
AcDbArc
 50
0.0
 51
52.1052014664
  0
ARC
  5
260
330
1F
100
AcDbEntity
  8
0
  6
HIDDEN
 62
     7
370
     0
100
AcDbCircle
 10
124.9879807892
 20
169.4750469253
 30
0.0
 40
1.000000000000008
100
AcDbArc
 50
343.125
 51
45.0
  0
ARC
  5
261
330
1F
100
AcDbEntity
  8
0
  6
HIDDEN
 62
     7
370
     0
100
AcDbCircle
 10
124.9879807892
 20
169.4750469253
 30
0.0
 40
1.000000000000008
100
AcDbArc
 50
307.8947985336
 51
343.125
  0
LINE
  5
262
330
1F
100
AcDbEntity
  8
0
  6
HIDDEN
 62
     7
370
     0
100
AcDbLine
 10
125.9879807892
 20
122.5750469253
 30
0.0
 11
125.9879807892
 21
169.4750469253
 31
0.0
  0
LINE
  5
263
330
1F
100
AcDbEntity
  8
0
  6
HIDDEN
 62
     7
370
     0
100
AcDbLine
 10
125.9879807892
 20
122.5750469253
 30
0.0
 11
125.9879807892
 21
169.4750469253
 31
0.0
  0
LINE
  5
264
330
1F
100
AcDbEntity
  8
0
  6
HIDDEN
 62
     7
370
     0
100
AcDbLine
 10
87.6021943516
 20
129.8286180808
 30
0.0
 11
89.1324227912
 21
130.7120958823
 31
0.0
  0
LINE
  5
265
330
1F
100
AcDbEntity
  8
0
  6
HIDDEN
 62
     7
370
     0
100
AcDbLine
 10
89.1324227912
 20
161.3379979682
 30
0.0
 11
87.6021943516
 21
162.2214757697
 31
0.0
  0
ARC
  5
266
330
1F
100
AcDbEntity
  8
0
  6
HIDDEN
 62
     7
370
     0
100
AcDbCircle
 10
97.6021943516
 20
132.0250469253
 30
0.0
 40
2.000000000000004
100
AcDbArc
 50
189.9742217944
 51
270.0
  0
ARC
  5
267
330
1F
100
AcDbEntity
  8
0
  6
HIDDEN
 62
     7
370
     0
100
AcDbCircle
 10
97.6021943516
 20
160.0250469253
 30
0.0
 40
2.000000000000004
100
AcDbArc
 50
90.0
 51
170.0257782056
  0
LINE
  5
268
330
1F
100
AcDbEntity
  8
0
  6
HIDDEN
 62
     7
370
     0
100
AcDbLine
 10
97.6021943516
 20
130.0250469253
 30
0.0
 11
98.6039956665
 21
130.0250469253
 31
0.0
  0
LINE
  5
269
330
1F
100
AcDbEntity
  8
0
  6
HIDDEN
 62
     7
370
     0
100
AcDbLine
 10
98.6039956665
 20
162.0250469253
 30
0.0
 11
97.6021943516
 21
162.0250469253
 31
0.0
  0
ARC
  5
26A
330
1F
100
AcDbEntity
  8
0
  6
HIDDEN
 62
     7
370
     0
100
AcDbCircle
 10
98.6039956665
 20
132.0250469253
 30
0.0
 40
2.0
100
AcDbArc
 50
270.0
 51
315.0
  0
ARC
  5
26B
330
1F
100
AcDbEntity
  8
0
  6
HIDDEN
 62
     7
370
     0
100
AcDbCircle
 10
98.6039956665
 20
160.0250469253
 30
0.0
 40
2.0
100
AcDbArc
 50
45.0
 51
90.0
  0
LINE
  5
26C
330
1F
100
AcDbEntity
  8
0
  6
HIDDEN
 62
     7
370
     0
100
AcDbLine
 10
100.0182092289
 20
130.6108333629
 30
0.0
 11
101.4324227912
 21
132.0250469253
 31
0.0
  0
LINE
  5
26D
330
1F
100
AcDbEntity
  8
0
  6
HIDDEN
 62
     7
370
     0
100
AcDbLine
 10
101.4324227912
 20
160.0250469253
 30
0.0
 11
100.0182092289
 21
161.4392604876
 31
0.0
  0
LINE
  5
26E
330
1F
100
AcDbEntity
  8
0
  6
HIDDEN
 62
     7
370
     0
100
AcDbLine
 10
89.1324227912
 20
130.7120958823
 30
0.0
 11
94.0324227912
 21
132.0250469253
 31
0.0
  0
LINE
  5
26F
330
1F
100
AcDbEntity
  8
0
  6
HIDDEN
 62
     7
370
     0
100
AcDbLine
 10
94.0324227912
 20
160.0250469253
 30
0.0
 11
89.1324227912
 21
161.3379979682
 31
0.0
  0
LINE
  5
270
330
1F
100
AcDbEntity
  8
0
  6
HIDDEN
 62
     7
370
     0
100
AcDbLine
 10
95.6324227912
 20
160.3714570868
 30
0.0
 11
95.0324227912
 21
160.0250469253
 31
0.0
  0
LINE
  5
271
330
1F
100
AcDbEntity
  8
0
  6
HIDDEN
 62
     7
370
     0
100
AcDbLine
 10
95.0324227912
 20
132.0250469253
 30
0.0
 11
95.6324227912
 21
131.6786367637
 31
0.0
  0
LINE
  5
272
330
1F
100
AcDbEntity
  8
0
  6
HIDDEN
 62
     7
370
     0
100
AcDbLine
 10
101.4324227912
 20
132.0250469253
 30
0.0
 11
106.0588027875
 21
132.0250469253
 31
0.0
  0
LINE
  5
273
330
1F
100
AcDbEntity
  8
0
  6
HIDDEN
 62
     7
370
     0
100
AcDbLine
 10
106.0588027875
 20
160.0250469253
 30
0.0
 11
101.4324227912
 21
160.0250469253
 31
0.0
  0
ARC
  5
274
330
1F
100
AcDbEntity
  8
0
  6
HIDDEN
 62
     7
370
     0
100
AcDbCircle
 10
114.1021943516
 20
132.5250469253
 30
0.0
 40
0.5
100
AcDbArc
 50
275.5682401931
 51
0.0
  0
ARC
  5
275
330
1F
100
AcDbEntity
  8
0
  6
HIDDEN
 62
     7
370
     0
100
AcDbCircle
 10
114.1021943516
 20
159.5250469253
 30
0.0
 40
0.5
100
AcDbArc
 50
0.0
 51
86.7052363418
  0
LINE
  5
276
330
1F
100
AcDbEntity
  8
0
  6
HIDDEN
 62
     7
370
     0
100
AcDbLine
 10
94.0324227912
 20
132.0250469253
 30
0.0
 11
95.0324227912
 21
132.0250469253
 31
0.0
  0
LINE
  5
277
330
1F
100
AcDbEntity
  8
0
  6
HIDDEN
 62
     7
370
     0
100
AcDbLine
 10
95.0324227912
 20
160.0250469253
 30
0.0
 11
94.0324227912
 21
160.0250469253
 31
0.0
  0
LINE
  5
278
330
1F
100
AcDbEntity
  8
0
  6
HIDDEN
 62
     7
370
     0
100
AcDbLine
 10
114.6021943516
 20
135.7750469253
 30
0.0
 11
115.8521943516
 21
137.0250469253
 31
0.0
  0
LINE
  5
279
330
1F
100
AcDbEntity
  8
0
  6
HIDDEN
 62
     7
370
     0
100
AcDbLine
 10
115.8521943516
 20
155.0250469253
 30
0.0
 11
114.6021943516
 21
156.2750469253
 31
0.0
  0
LINE
  5
27A
330
1F
100
AcDbEntity
  8
0
  6
HIDDEN
 62
     7
370
     0
100
AcDbLine
 10
152.6021943516
 20
155.0250469253
 30
0.0
 11
115.8521943516
 21
155.0250469253
 31
0.0
  0
LINE
  5
27B
330
1F
100
AcDbEntity
  8
0
  6
HIDDEN
 62
     7
370
     0
100
AcDbLine
 10
115.8521943516
 20
137.0250469253
 30
0.0
 11
152.6021943516
 21
137.0250469253
 31
0.0
  0
LINE
  5
27C
330
1F
100
AcDbEntity
  8
0
  6
HIDDEN
 62
     7
370
     0
100
AcDbLine
 10
152.6021943516
 20
137.0250469253
 30
0.0
 11
155.456282292
 21
141.7750469253
 31
0.0
  0
LINE
  5
27D
330
1F
100
AcDbEntity
  8
0
  6
HIDDEN
 62
     7
370
     0
100
AcDbLine
 10
155.456282292
 20
150.2750469253
 30
0.0
 11
152.6021943516
 21
155.0250469253
 31
0.0
  0
LINE
  5
27E
330
1F
100
AcDbEntity
  8
0
  6
HIDDEN
 62
     7
370
     0
100
AcDbLine
 10
114.5454964931
 20
125.6339888034
 30
0.0
 11
114.1521943516
 21
126.027290945
 31
0.0
  0
LINE
  5
27F
330
1F
100
AcDbEntity
  8
0
  6
HIDDEN
 62
     7
370
     0
100
AcDbLine
 10
106.0521943516
 20
126.027290945
 30
0.0
 11
105.8709696969
 21
125.8460662903
 31
0.0
  0
LINE
  5
280
330
1F
100
AcDbEntity
  8
0
  6
HIDDEN
 62
     7
370
     0
100
AcDbLine
 10
196.6021943516
 20
141.7750469253
 30
0.0
 11
199.1558519825
 21
146.0250469253
 31
0.0
  0
LINE
  5
281
330
1F
100
AcDbEntity
  8
0
  6
HIDDEN
 62
     7
370
     0
100
AcDbLine
 10
199.1558519825
 20
146.0250469253
 30
0.0
 11
196.6021943516
 21
150.2750469253
 31
0.0
  0
LINE
  5
282
330
1F
100
AcDbEntity
  8
0
  6
HIDDEN
 62
     7
370
     0
100
AcDbLine
 10
190.1021943516
 20
150.2750469253
 30
0.0
 11
155.456282292
 21
150.2750469253
 31
0.0
  0
LINE
  5
283
330
1F
100
AcDbEntity
  8
0
  6
HIDDEN
 62
     7
370
     0
100
AcDbLine
 10
196.6021943516
 20
150.2750469253
 30
0.0
 11
195.0995381067
 21
150.2750469253
 31
0.0
  0
LINE
  5
284
330
1F
100
AcDbEntity
  8
0
  6
HIDDEN
 62
     7
370
     0
100
AcDbLine
 10
155.456282292
 20
141.7750469253
 30
0.0
 11
196.6021943516
 21
141.7750469253
 31
0.0
  0
LINE
  5
285
330
1F
100
AcDbEntity
  8
0
  6
HIDDEN
 62
     7
370
     0
100
AcDbLine
 10
94.0521943516
 20
128.0250469253
 30
0.0
 11
87.6021943516
 21
128.0250469253
 31
0.0
  0
LINE
  5
286
330
1F
100
AcDbEntity
  8
0
  6
HIDDEN
 62
     7
370
     0
100
AcDbLine
 10
95.9747197109
 20
126.102521566
 30
0.0
 11
94.0521943516
 21
128.0250469253
 31
0.0
  0
LINE
  5
287
330
1F
100
AcDbEntity
  8
0
  6
HIDDEN
 62
     7
370
     0
100
AcDbLine
 10
114.1521943516
 20
163.5250469253
 30
0.0
 11
110.1021943516
 21
165.9585324323
 31
0.0
  0
LINE
  5
288
330
1F
100
AcDbEntity
  8
0
  6
HIDDEN
 62
     7
370
     0
100
AcDbLine
 10
110.1021943516
 20
165.9585324323
 30
0.0
 11
106.0521943516
 21
163.5250469253
 31
0.0
  0
LINE
  5
289
330
1F
100
AcDbEntity
  8
0
  6
HIDDEN
 62
     7
370
     0
100
AcDbLine
 10
114.1521943516
 20
126.027290945
 30
0.0
 11
114.1521943516
 21
132.027865118
 31
0.0
  0
LINE
  5
28A
330
1F
100
AcDbEntity
  8
0
  6
HIDDEN
 62
     7
370
     0
100
AcDbLine
 10
106.0521943516
 20
132.0269429249
 30
0.0
 11
106.0521943516
 21
126.027290945
 31
0.0
  0
LINE
  5
28B
330
1F
100
AcDbEntity
  8
0
  6
HIDDEN
 62
     7
370
     0
100
AcDbLine
 10
114.1521943516
 20
160.0175579982
 30
0.0
 11
114.1521943516
 21
163.5250469253
 31
0.0
  0
LINE
  5
28C
330
1F
100
AcDbEntity
  8
0
  6
HIDDEN
 62
     7
370
     0
100
AcDbLine
 10
106.0521943516
 20
163.5250469253
 30
0.0
 11
106.0521943516
 21
160.0231509256
 31
0.0
  0
LINE
  5
28D
330
1F
100
AcDbEntity
  8
0
  6
HIDDEN
 62
     7
370
     0
100
AcDbLine
 10
189.6021943516
 20
177.5250469253
 30
0.0
 11
189.6021943516
 21
170.5250469253
 31
0.0
  0
LINE
  5
28E
330
1F
100
AcDbEntity
  8
0
  6
HIDDEN
 62
     7
370
     0
100
AcDbLine
 10
195.6021943516
 20
170.5250469253
 30
0.0
 11
195.6021943516
 21
177.5250469253
 31
0.0
  0
LINE
  5
28F
330
1F
100
AcDbEntity
  8
0
  6
HIDDEN
 62
     7
370
     0
100
AcDbLine
 10
189.6021943516
 20
170.5250469253
 30
0.0
 11
190.1021943516
 21
170.2246166157
 31
0.0
  0
LINE
  5
290
330
1F
100
AcDbEntity
  8
0
  6
HIDDEN
 62
     7
370
     0
100
AcDbLine
 10
195.1021943516
 20
170.2246166157
 30
0.0
 11
195.6021943516
 21
170.5250469253
 31
0.0
  0
LINE
  5
291
330
1F
100
AcDbEntity
  8
0
  6
HIDDEN
 62
     7
370
     0
100
AcDbLine
 10
190.1021943516
 20
170.2246166157
 30
0.0
 11
190.1021943516
 21
150.2750469253
 31
0.0
  0
LINE
  5
292
330
1F
100
AcDbEntity
  8
0
  6
HIDDEN
 62
     7
370
     0
100
AcDbLine
 10
195.1021943516
 20
164.8241635184
 30
0.0
 11
195.1021943516
 21
170.2246166157
 31
0.0
  0
LINE
  5
293
330
1F
100
AcDbEntity
  8
0
  6
HIDDEN
 62
     7
370
     0
100
AcDbLine
 10
195.1021943516
 20
150.2734918227
 30
0.0
 11
195.1021943516
 21
159.6477826163
 31
0.0
  0
LINE
  5
294
330
1F
100
AcDbEntity
  8
0
  6
HIDDEN
 62
     7
370
     0
100
AcDbLine
 10
203.0556326633
 20
162.6930461457
 30
0.0
 11
195.1021943516
 21
164.8241635184
 31
0.0
  0
LINE
  5
295
330
1F
100
AcDbEntity
  8
0
  6
HIDDEN
 62
     7
370
     0
100
AcDbLine
 10
195.1021943516
 20
159.6477826163
 30
0.0
 11
204.5499251169
 21
157.1162707874
 31
0.0
  0
LINE
  5
296
330
1F
100
AcDbEntity
  8
0
  6
HIDDEN
 62
     7
370
     0
100
AcDbLine
 10
243.5544128641
 20
142.0550469253
 30
0.0
 11
244.0044128641
 21
141.6050469253
 31
0.0
  0
LINE
  5
297
330
1F
100
AcDbEntity
  8
0
  6
HIDDEN
 62
     7
370
     0
100
AcDbLine
 10
247.3044128641
 20
141.6050469253
 30
0.0
 11
247.7544128641
 21
142.0550469253
 31
0.0
  0
LINE
  5
298
330
1F
100
AcDbEntity
  8
0
  6
HIDDEN
 62
     7
370
     0
100
AcDbLine
 10
135.6021943516
 20
115.0250469253
 30
0.0
 11
135.6021943516
 21
114.5250469253
 31
0.0
  0
LINE
  5
299
330
1F
100
AcDbEntity
  8
0
  6
HIDDEN
 62
     7
370
     0
100
AcDbLine
 10
139.6021943516
 20
114.5250469253
 30
0.0
 11
139.6021943516
 21
115.0250469253
 31
0.0
  0
LINE
  5
29A
330
1F
100
AcDbEntity
  8
0
  6
HIDDEN
 62
     7
370
     0
100
AcDbLine
 10
139.6021943516
 20
115.0250469253
 30
0.0
 11
137.6021943516
 21
116.2267681633
 31
0.0
  0
LINE
  5
29B
330
1F
100
AcDbEntity
  8
0
  6
HIDDEN
 62
     7
370
     0
100
AcDbLine
 10
137.6021943516
 20
116.2267681633
 30
0.0
 11
135.6021943516
 21
115.0250469253
 31
0.0
  0
LINE
  5
29C
330
1F
100
AcDbEntity
  8
0
  6
HIDDEN
 62
     7
370
     0
100
AcDbLine
 10
244.0044128641
 20
141.6050469253
 30
0.0
 11
244.0044128641
 21
130.5550469253
 31
0.0
  0
LINE
  5
29D
330
1F
100
AcDbEntity
  8
0
  6
HIDDEN
 62
     7
370
     0
100
AcDbLine
 10
247.3044128641
 20
130.5550469253
 30
0.0
 11
247.3044128641
 21
141.6050469253
 31
0.0
  0
LINE
  5
29E
330
1F
100
AcDbEntity
  8
0
  6
HIDDEN
 62
     7
370
     0
100
AcDbLine
 10
244.0044128641
 20
130.5550469253
 30
0.0
 11
245.6544128641
 21
129.5636269039
 31
0.0
  0
LINE
  5
29F
330
1F
100
AcDbEntity
  8
0
  6
HIDDEN
 62
     7
370
     0
100
AcDbLine
 10
245.6544128641
 20
129.5636269039
 30
0.0
 11
247.3044128641
 21
130.5550469253
 31
0.0
  0
LINE
  5
2A0
330
1F
100
AcDbEntity
  8
0
  6
HIDDEN
 62
     7
370
     0
100
AcDbLine
 10
234.630469531
 20
145.7250469253
 30
0.0
 11
234.8637601967
 21
143.8250469253
 31
0.0
  0
LINE
  5
2A1
330
1F
100
AcDbEntity
  8
0
  6
HIDDEN
 62
     7
370
     0
100
AcDbLine
 10
234.8637601967
 20
143.8250469253
 30
0.0
 11
234.8637601967
 21
142.0550469253
 31
0.0
  0
LINE
  5
2A2
330
1F
100
AcDbEntity
  8
VERMASSUNG
  6
CENTERX2
100
AcDbLine
 10
84.8223881657
 20
146.0250469253
 30
0.0
 11
255.6021943516
 21
146.0250469253
 31
0.0
  0
LINE
  5
2A3
330
1F
100
AcDbEntity
  8
VERMASSUNG
100
AcDbLine
 10
255.6021943516
 20
146.0250469253
 30
0.0
 11
255.6021943516
 21
170.8083947107
 31
0.0
  0
DIMENSION
  5
2A4
330
1F
100
AcDbEntity
  8
VERMASSUNG
100
AcDbDimension
  2
_D_1
 10
255.6021943516
 20
187.5250469253
 30
0.0
 11
190.6021943516
 21
187.5250469253
 31
0.0
 70
   160
  1
<>
 71
     2
 42
-1.0
  3
SLDDIMSTYLE0
100
AcDbAlignedDimension
 13
125.6021943516
 23
177.0250469253
 33
0.0
 14
255.6021943516
 24
170.8083947107
 34
0.0
100
AcDbRotatedDimension
  0
DIMENSION
  5
2AE
330
1F
100
AcDbEntity
  8
VERMASSUNG
100
AcDbDimension
  2
_D_2
 10
255.6021943516
 20
193.5250469253
 30
0.0
 11
171.6021943516
 21
193.5250469253
 31
0.0
 70
   160
  1
<>
 71
     2
 42
-1.0
  3
SLDDIMSTYLE0
100
AcDbAlignedDimension
 13
87.6021943516
 23
166.2111626942
 33
0.0
 14
255.6021943516
 24
170.8083947107
 34
0.0
100
AcDbRotatedDimension
  0
OLE2FRAME
  5
2B8
330
1F
100
AcDbEntity
  8
0
100
AcDbOle2Frame
 70
     2
  3
Paintbrush-Bild
 10
13.8511154363
 20
38.264191557
 30
0.0
 11
51.6290888628
 21
31.9806341108
 31
0.0
 71
     2
 72
     0
 73
     1
 90
    12928
310
80552BED0767C5B32B40DDAF6807D121434000000000000000006FFBDDFB85D0
310
4940DDAF6807D121434000000000000000006FFBDDFB85D04940416F4BD60AFB
310
3F4000000000000000002BED0767C5B32B40416F4BD60AFB3F40000000000000
310
0000000000000100000000010000010000000100000000000100000000320000
310
D0CF11E0A1B11AE1000000000000000000000000000000003E000300FEFF0900
310
0600000000000000000000000100000001000000000000000010000002000000
310
01000000FEFFFFFF0000000000000000FFFFFFFFFFFFFFFFFFFFFFFFFFFFFFFF
310
FFFFFFFFFFFFFFFFFFFFFFFFFFFFFFFFFFFFFFFFFFFFFFFFFFFFFFFFFFFFFFFF
310
FFFFFFFFFFFFFFFFFFFFFFFFFFFFFFFFFFFFFFFFFFFFFFFFFFFFFFFFFFFFFFFF
310
FFFFFFFFFFFFFFFFFFFFFFFFFFFFFFFFFFFFFFFFFFFFFFFFFFFFFFFFFFFFFFFF
310
FFFFFFFFFFFFFFFFFFFFFFFFFFFFFFFFFFFFFFFFFFFFFFFFFFFFFFFFFFFFFFFF
310
FFFFFFFFFFFFFFFFFFFFFFFFFFFFFFFFFFFFFFFFFFFFFFFFFFFFFFFFFFFFFFFF
310
FFFFFFFFFFFFFFFFFFFFFFFFFFFFFFFFFFFFFFFFFFFFFFFFFFFFFFFFFFFFFFFF
310
FFFFFFFFFFFFFFFFFFFFFFFFFFFFFFFFFFFFFFFFFFFFFFFFFFFFFFFFFFFFFFFF
310
FFFFFFFFFFFFFFFFFFFFFFFFFFFFFFFFFFFFFFFFFFFFFFFFFFFFFFFFFFFFFFFF
310
FFFFFFFFFFFFFFFFFFFFFFFFFFFFFFFFFFFFFFFFFFFFFFFFFFFFFFFFFFFFFFFF
310
FFFFFFFFFFFFFFFFFFFFFFFFFFFFFFFFFFFFFFFFFFFFFFFFFFFFFFFFFFFFFFFF
310
FFFFFFFFFFFFFFFFFFFFFFFFFFFFFFFFFFFFFFFFFFFFFFFFFFFFFFFFFFFFFFFF
310
FFFFFFFFFFFFFFFFFFFFFFFFFFFFFFFFFFFFFFFFFFFFFFFFFFFFFFFFFFFFFFFF
310
FFFFFFFFFFFFFFFFFFFFFFFFFFFFFFFFFFFFFFFFFFFFFFFFFFFFFFFFFFFFFFFF
310
FDFFFFFFFEFFFFFFFEFFFFFFFEFFFFFF05000000060000000700000008000000
310
090000000A0000000B0000000C0000000D0000000E0000000F00000010000000
310
11000000120000001300000014000000150000001600000017000000FEFFFFFF
310
FFFFFFFFFFFFFFFFFFFFFFFFFFFFFFFFFFFFFFFFFFFFFFFFFFFFFFFFFFFFFFFF
310
FFFFFFFFFFFFFFFFFFFFFFFFFFFFFFFFFFFFFFFFFFFFFFFFFFFFFFFFFFFFFFFF
310
FFFFFFFFFFFFFFFFFFFFFFFFFFFFFFFFFFFFFFFFFFFFFFFFFFFFFFFFFFFFFFFF
310
FFFFFFFFFFFFFFFFFFFFFFFFFFFFFFFFFFFFFFFFFFFFFFFFFFFFFFFFFFFFFFFF
310
FFFFFFFFFFFFFFFFFFFFFFFFFFFFFFFFFFFFFFFFFFFFFFFFFFFFFFFFFFFFFFFF
310
FFFFFFFFFFFFFFFFFFFFFFFFFFFFFFFFFFFFFFFFFFFFFFFFFFFFFFFFFFFFFFFF
310
FFFFFFFFFFFFFFFFFFFFFFFFFFFFFFFFFFFFFFFFFFFFFFFFFFFFFFFFFFFFFFFF
310
FFFFFFFFFFFFFFFFFFFFFFFFFFFFFFFFFFFFFFFFFFFFFFFFFFFFFFFFFFFFFFFF
310
FFFFFFFFFFFFFFFFFFFFFFFFFFFFFFFFFFFFFFFFFFFFFFFFFFFFFFFFFFFFFFFF
310
FFFFFFFFFFFFFFFFFFFFFFFFFFFFFFFFFFFFFFFFFFFFFFFFFFFFFFFFFFFFFFFF
310
FFFFFFFFFFFFFFFFFFFFFFFFFFFFFFFFFFFFFFFFFFFFFFFFFFFFFFFFFFFFFFFF
310
FFFFFFFFFFFFFFFFFFFFFFFFFFFFFFFFFFFFFFFFFFFFFFFFFFFFFFFFFFFFFFFF
310
FFFFFFFFFFFFFFFFFFFFFFFFFFFFFFFFFFFFFFFFFFFFFFFFFFFFFFFFFFFFFFFF
310
52006F006F007400200045006E00740072007900000000000000000000000000
310
0000000000000000000000000000000000000000000000000000000000000000
310
16000500FFFFFFFFFFFFFFFF020000000A00030000000000C000000000000046
310
0000000000000000000000004000AB25363FCD0103000000C000000000000000
310
01004F006C006500000000000000000000000000000000000000000000000000
310
0000000000000000000000000000000000000000000000000000000000000000
310
0A000200FFFFFFFFFFFFFFFFFFFFFFFF00000000000000000000000000000000
310
0000000000000000000000000000000000000000000000001400000000000000
310
010043006F006D0070004F0062006A0000000000000000000000000000000000
310
0000000000000000000000000000000000000000000000000000000000000000
310
120002010100000003000000FFFFFFFF00000000000000000000000000000000
310
0000000000000000000000000000000000000000010000004D00000000000000
310
01004F006C006500310030004E00610074006900760065000000000000000000
310
0000000000000000000000000000000000000000000000000000000000000000
310
1A000200FFFFFFFFFFFFFFFFFFFFFFFF00000000000000000000000000000000
310
0000000000000000000000000000000000000000040000002426000000000000
310
FEFFFFFF02000000FEFFFFFFFFFFFFFFFFFFFFFFFFFFFFFFFFFFFFFFFFFFFFFF
310
FFFFFFFFFFFFFFFFFFFFFFFFFFFFFFFFFFFFFFFFFFFFFFFFFFFFFFFFFFFFFFFF
310
FFFFFFFFFFFFFFFFFFFFFFFFFFFFFFFFFFFFFFFFFFFFFFFFFFFFFFFFFFFFFFFF
310
FFFFFFFFFFFFFFFFFFFFFFFFFFFFFFFFFFFFFFFFFFFFFFFFFFFFFFFFFFFFFFFF
310
FFFFFFFFFFFFFFFFFFFFFFFFFFFFFFFFFFFFFFFFFFFFFFFFFFFFFFFFFFFFFFFF
310
FFFFFFFFFFFFFFFFFFFFFFFFFFFFFFFFFFFFFFFFFFFFFFFFFFFFFFFFFFFFFFFF
310
FFFFFFFFFFFFFFFFFFFFFFFFFFFFFFFFFFFFFFFFFFFFFFFFFFFFFFFFFFFFFFFF
310
FFFFFFFFFFFFFFFFFFFFFFFFFFFFFFFFFFFFFFFFFFFFFFFFFFFFFFFFFFFFFFFF
310
FFFFFFFFFFFFFFFFFFFFFFFFFFFFFFFFFFFFFFFFFFFFFFFFFFFFFFFFFFFFFFFF
310
FFFFFFFFFFFFFFFFFFFFFFFFFFFFFFFFFFFFFFFFFFFFFFFFFFFFFFFFFFFFFFFF
310
FFFFFFFFFFFFFFFFFFFFFFFFFFFFFFFFFFFFFFFFFFFFFFFFFFFFFFFFFFFFFFFF
310
FFFFFFFFFFFFFFFFFFFFFFFFFFFFFFFFFFFFFFFFFFFFFFFFFFFFFFFFFFFFFFFF
310
FFFFFFFFFFFFFFFFFFFFFFFFFFFFFFFFFFFFFFFFFFFFFFFFFFFFFFFFFFFFFFFF
310
FFFFFFFFFFFFFFFFFFFFFFFFFFFFFFFFFFFFFFFFFFFFFFFFFFFFFFFFFFFFFFFF
310
FFFFFFFFFFFFFFFFFFFFFFFFFFFFFFFFFFFFFFFFFFFFFFFFFFFFFFFFFFFFFFFF
310
FFFFFFFFFFFFFFFFFFFFFFFFFFFFFFFFFFFFFFFFFFFFFFFFFFFFFFFFFFFFFFFF
310
0100000200000000000000000000000000000000000000000000000000000000
310
0000000000000000000000000000000000000000000000000000000000000000
310
0100FEFF030A0000FFFFFFFF0A00030000000000C00000000000004607000000
310
5042727573680007000000504272757368000700000050427275736800F439B2
310
7100000000000000000000000000000000000000000000000000000000000000
310
0000000000000000000000000000000000000000000000000000000000000000
310
0000000000000000000000000000000000000000000000000000000000000000
310
0000000000000000000000000000000000000000000000000000000000000000
310
0000000000000000000000000000000000000000000000000000000000000000
310
0000000000000000000000000000000000000000000000000000000000000000
310
0000000000000000000000000000000000000000000000000000000000000000
310
0000000000000000000000000000000000000000000000000000000000000000
310
0000000000000000000000000000000000000000000000000000000000000000
310
0000000000000000000000000000000000000000000000000000000000000000
310
0000000000000000000000000000000000000000000000000000000000000000
310
0000000000000000000000000000000000000000000000000000000000000000
310
20260000424D0E260000000000003E00000028000000B40200006E0000000100
310
01000000000000000000130B0000130B00000200000002000000000000FFFFFF
310
FFFFFFFFFFFFFFFFFFFFFFFFFFFFFFFFFFFFFFFFFFFFFFFFFFFFFFFFFFFFFFFF
310
FFFFFFFFFFFFFFFFFFFFFFFFFFFFFFFFFFFFFFFFFFFFFFFFFFFFFFFFFFFFFFFF
310
FFFFFFFFFFFFFFFFFFFFFFFFFFFFFFFFFFFFFFFFFFFFFFFFF000FFFFFFFFFFFF
310
FFFFFFFFFFFFFFFFFFFFFFFFFFFFFFFFFFFFFFFFFFFFFFFFFFFFFFFFFFFFFFFF
310
FFFFFFFFFFFFFFFFFFFFFFFFFFFFFFFFFFFFFFFFFFFFFFFFFFFFFFFFFFFFFFFF
310
FFFFFFFFFFFFFFFFFFFFFFFFFFFFFFFFF000FFFFFFFFFFFFFFFFFFFFFFFFFFFF
310
FFFFFFFFFFFFFFFFFFFFFFFFFFFFFFFFFFFFFFFFFFFFFFFFFFFFFFFFFFFFFFFF
310
FFFFFFFFFFFFFFFFFFFFFFFFFFFFFFFFFFFFFFFFFFFFFFFFFFFFFFFFFFFFFFFF
310
FFFFFFFFFFFFFFFFF000FFFFFFFFFFFFFFFFFFFFFFFFFFFFFFFFFFFFFFFFFFFF
310
FFFFFFFFFFFFFFFFFFFFFFFFFFFFFFFFFFFFFFFFFFFFFFFFFFFFFFFFFFFFFFFF
310
FFFFFFFFFFFFFFFFFFFFFFFFFFFFFFFFFFFFFFFFFFFFFFFFFFFFFFFFFFFFFFFF
310
F000FFFFFFFFFFFFFFFFFFFFFFFFFFFFFFFFFFFFFFFFFFFFFFFFFFFFFFFFFFFF
310
FFFFFFFFFFFFFFFFFFFFFFFFFFFFFFFFFFFFFFFFFFFFFFFFFFFFFFFFFFFFFFFF
310
FFFFFFFFFFFFFFFFFFFFFFFFFFFFFFFFFFFFFFFFFFFFFFFFF000FFFFFFFFFFFF
310
FFFFFFFFFFFFFFFFFFFFFFFFFFFFFFFFFFFFFFFFFFFFFFFFFFFFFFFFFFFFFFFF
310
FFFFFFFFFFFFFFFFFFFFFFFFFFFFFFFFFFFFFFFFFFFFFFFFFFFFFFFFFFFFFFFF
310
FFFFFFFFFFFFFFFFFFFFFFFFFFFFFFFFF000FFFFFFFFFFFFFFFFFFFFFFFFFFFF
310
FFFFFFFFFFFFFFFFFFFFFFFFFFFFFFFFFFFFFFFFFFFFFFFFFFFFFFFFFFFFFFFF
310
FFFFFFFFFFFFFFFFFFFFFFFFFFFFFFFFFFFFFFFFFFFFFFFFFFFFFFFFFFFFFFFF
310
FFFFFFFFFFFFFFFFF000FFFFFFFFFFFFFFFFFFFFFFFFFFFFFFFFFFFFFFFFFFFF
310
FFFFFFFFFFFFFFFFFFFFFFFFFFFFFFFFFFFFFFFFFFFFFFFFFFFFFFFFFFFFFFFF
310
FFFFFFFFFFFFFFFFFFFFFFFFFFFFFFFFFFFFFFFFFFFFFFFFFFFFFFFFFFFFFFFF
310
F000FFFFFFFFFFFFFFFFFFFFFFFFFFFFFFFFFFFFFFFFFFFFFFFFFFFFFFFFFFFF
310
FFFFFFFFFFFFFFFFFFFFFFFFFFFFFFFFFFFFFFFFFFFFFFFFFFFFFFFFFFFFFFFF
310
FFFFFFFFFFFFFFFFFFFFFFFFFFFFFFFFFFFFFFFFFFFFFFFFF000FFFFFFFFFFFF
310
FFFFFFFFFFFFFFFFFFFFFFFFFFFFFFFFFFFFFFFFFFFFFFFFFFFFFFFFFFFFFFFF
310
FFFFFFFFFFFFFFFFFFFFFFFFFFFFFFFFFFFFFFFFFFFFFFFFFFFFFFFFFFFFFFFF
310
FFFFFFFFFFFFFFFFFFFFFFFFFFFFFFFFF000FFFFFFFFFFFFFFFFFFFFFFFFFFFF
310
FFFFFFFFFFFFFFFFFFFFFFFFFFFFFFFFFFFFFFFFFFFFFFFFFFFFFFFFFFFFFFFF
310
FFFFFFFFFFFFFFFFFFFFFFFFFFFFFFFFFFFFFFFFFFFFFFFFFFFFFFFFFFFFFFFF
310
FFFFFFFFFFFFFFFFF000FFFFFFFFFFFFFFFFFFFFFFFFFFFFFFFFFFFFFFFFFFFF
310
FFFFFFFFFFFFFFFFFFFFFFFFFFFFFFFFFFFFFFFFFFFFFFFFFFFFFFFFFFFFFFFF
310
FFFFFFFFFFFFFFFFFFFFFFFFFFFFFFFFFFFFFFFFFFFFFFFFFFFFFFFFFFFFFFFF
310
F000FFFFFFFFFFFFFFFFFFFFFFFFFFFFFFFFFFFFFFFFFFFFFFFFFFFFFFFFFFFF
310
FFFFFFFFFFFFFFFFFFFFFFFFFFFFFFFFFFFFFFFFFFFFFFFFFFFFFFFFFFFFFFFF
310
FFFFFFFFFFFFFFFFFFFFFFFFFFFFFFFFFFFFFFFFFFFFFFFFF000FFFFFFFFFFFF
310
FFFFFFFFFFFFFFFFFFFFFFFFFFFFFFFFFFFFFFFFFFFFFFFFFFFFFFFFFFFFFFFF
310
FFFFFFFFFFFFFFFFFFFFFFFFFFFFFFFFFFFFFFFFFFFFFFFFFFFFFFFFFFFFFFFF
310
FFFFFFFFFFFFFFFFFFFFFFFFFFFFFFFFF000FFFFFFFFFFFFFFFFFFFFFFFFFFFF
310
FFFFFFFFFFFFFFFFFFFFFFFFFFFFFFFFFFFFFFFFFFFFFFFFFFFFFFFFFFFFFFFF
310
FFFFFFFFFFFFFFFFFFFFFFFFFFFFFFFFFFFFFFFFFFFFFFFFFFFFFFFFFFFFFFFF
310
FFFFFFFFFFFFFFFFF000FFFFFFFFFFFFFFFFFFFFFFFFFFFFFFFFFFFFFFFFFFFF
310
FFFFFFFFFFFFFFFFFFFFFFFFFFFFFFFFFFFFFFFFFFFFFFFFFFFFFFFFFFFFFFFF
310
FFFFFFFFFFFFFFFFFFFFFFFFFFFFFFFFFFFFFFFFFFFFFFFFFFFFFFFFFFFFFFFF
310
F000FFFFFFFFFFFFFFFFFFFFFFFFFFFFFFFFFFFFFFFFFFFFFFFFFFFFFFFFFFFF
310
FFFFFFFFFFFFFFFFFFFFFFFFFFFFFFFFFFFFFFFFFFFFFFFFFFFFFFFFFFFFFFFF
310
FFFFFFFFFFFFFFFFFFFFFFFFFFFFFFFFFFFFFFFFFFFFFFFFF000FFFFFFFFFFFF
310
FFFFFFFFFFFFFFFFFFFFFFFFFFFFFFFFFFFFFFFFFFFFFFFFFFFFFFFFFFFFFFFF
310
FFFFFFFFFFFFFFFFFFFFFFFFFFFFFFFFFFFFFFFFFFFFFFFFFFFFFFFFFFFFFFFF
310
FFFFFFFFFFFFFFFFFFFFFFFFFFFFFFFFF000FFFFFFFFFFFFFFFFFFFFFFFFFFFF
310
FFFFFFFFFFFFFFFFFFFFFFFFFFFFFFFFFFFFFFFFFFFFFFFFFFFFFFFFFFFFFFFF
310
FFFFFFFFFFFFFFFFFFFFFFFFFFFFFFFFFFFFFFFFFFFFFFFFFFFFFFFFFFFFFFFF
310
FFFFFFFFFFFFFFFFF000FFFFF80003FFFFFFFFFFFFFFFFFFFFFFFFFFFFFFFFFF
310
FFFFF00007FFFFFFFFFF00007FFFFFF800000000000000007FFFFFFFFFFFFFFF
310
FFFFFFFC001FFFFFFFFFFFFFFC001FFFFFFFFFFFFFFFFFFFFFFFFFFE0007FFFF
310
F000FFFF8000007FFFFFFFF8000FFFFFC0007FFFFF80007FFFFF0000007FFFFF
310
FFF8000007FFFFF800000000000000007FFFFFF0001FFFFFFFFFFFC00001FFFF
310
FFFFFFFFC00001FFFFFFFF000000000003FFFFE000007FFFF000FFFE0000000F
310
FFFFFFF0000FFFFF80007FFFFF80007FFFFC0000001FFFFFFFC0000001FFFFF8
310
00000000000000007FFFFFF0001FFFFFFFFFFE0000003FFFFFFFFFFE0000003F
310
FFFFFF000000000003FFFF0000000FFFF000FFF800000003FFFFFFF00007FFFF
310
80007FFFFF80007FFFF000000007FFFFFF000000003FFFF80000000000000000
310
7FFFFFF0001FFFFFFFFFF80000000FFFFFFFFFF80000000FFFFFFF0000000000
310
03FFFC00000003FFF000FFE000000000FFFFFFF00007FFFF80003FFFFF80007F
310
FFC000000001FFFFFC000000001FFFF800000000000000007FFFFFF0001FFFFF
310
FFFFE000000003FFFFFFFFE000000003FFFFFF000000000003FFF000000000FF
310
F000FF80000000007FFFFFF00007FFFF80003FFFFF80007FFF8000000000FFFF
310
F80000000007FFF800000000000000007FFFFFF0001FFFFFFFFFC000000001FF
310
FFFFFFC000000001FFFFFF000000000003FFC0000000007FF000FF0000000000
310
3FFFFFE00007FFFF00003FFFFF80007FFE00000000003FFFF00000000003FFF8
310
00000000000000007FFFFFF0001FFFFFFFFF8000000000FFFFFFFF8000000000
310
FFFFFF000000000003FF80000000003FF000FE00000000001FFFFFE00003FFFF
310
00003FFFFF80007FFC00000000001FFFE00000000001FFF8000001FFFE000000
310
7FFFFFF0001FFFFFFFFE00000000003FFFFFFE00000000003FFFFF0000000000
310
03FF00000000001FF000FC00000000000FFFFFE00003FFFF00001FFFFF80007F
310
F800000000001FFFC00000000000FFF8000001FFFE0000007FFFFFF0001FFFFF
310
FFFC00000000001FFFFFFC00000000001FFFFF000000000003FE00000000000F
310
F000F8000000000007FFFFE00003FFFF00001FFFFF80007FF800000000000FFF
310
800000000000FFF8000001FFFE0000007FFFFFF0001FFFFFFFF800000000000F
310
FFFFF800000000000FFFFF000000000003FC000000000007F000F80000000000
310
03FFFFC00003FFFE00001FFFFF80007FF0000000000007FF0000000000007FF8
310
000001FFFE0000007FFFFFF0001FFFFFFFF0000000000007FFFFF00000000000
310
07FFFF000000000003F8000000000003F000F0000000000003FFFFC00001FFFE
310
00001FFFFF80007FE0000000000007FE0000000000003FF8000001FFFE000000
310
7FFFFFF0001FFFFFFFF0000000000007FFFFF0000000000007FFFF0000000000
310
03F800001F800003F000E00001FFF00001FFFFC00001FFFE00000FFFFF80007F
310
E00001FFE00003FE00001FFF00003FF8000001FFFE0000007FFFFFF0001FFFFF
310
FFE000003E000003FFFFE000003E000003FFFF000000000003F00001FFF80001
310
F000E00007FFFC0001FFFFC00001FFFE00000FFFFF80007FC0000FFFFC0003FC
310
0000FFFFC0001FF8000001FFFE0000007FFFFFF0001FFFFFFFC00003FFE00001
310
FFFFC00003FFE00001FFFF0001FFFFFFFFF00007FFFE0001F000E0000FFFFF00
310
00FFFF800001FFFC00000FFFFF80007FC0001FFFFE0001FC0001FFFFE0001FF8
310
000001FFFE0000007FFFFFF0001FFFFFFF80000FFFF80000FFFF80000FFFF800
310
00FFFF0003FFFFFFFFE0000FFFFF8000F000C0003FFFFF8000FFFF800000FFFC
310
000007FFFF80007F80003FFFFF0001FC0003FFFFF0001FF8000001FFFE000000
310
7FFFFFF0001FFFFFFF80003FFFFE0000FFFF80003FFFFE0000FFFF0003FFFFFF
310
FFE0003FFFFF8000F000C0003FFFFF8000FFFF800000FFFC000007FFFF80007F
310
80007FFFFF8001F80007FFFFF8000FF8000001FFFE0000007FFFFFF0001FFFFF
310
FF00007FFFFF00007FFF00007FFFFF00007FFF0003FFFFFFFFE0003FFFFFC000
310
F000C0007FFFFFC000FFFF000000FFFC000007FFFF80007F8000FFFFFF8000F8
310
000FFFFFF8000FF8000001FFFE0000007FFFFFF0001FFFFFFF0000FFFFFF8000
310
7FFF0000FFFFFF80007FFF0003FFFFFFFFC0007FFFFFC00070008000FFFFFFC0
310
00FFFF000000FFF8000007FFFF80007F8000FFFFFF8000F8000FFFFFF8000FF8
310
000001FFFE0000007FFFFFF0001FFFFFFE0001FFFFFFC0003FFE0001FFFFFFC0
310
003FFF0003FFFFFFFFC0007FFFFFE00070008000FFFFFFC0007FFF0000007FF8
310
000003FFFF80007F0001FFFFFF8000F8000FFFFFF8000FF8000001FFFE000000
310
7FFFFFF0001FFFFFFE0001FFFFFFC0003FFE0001FFFFFFC0003FFF0003FFFFFF
310
FFC000FFFFFFE00070008000FFFFFFC0007FFF0000007FF8000003FFFF80007F
310
0001FFFFFF8000F8001FFFFFF8000FF8000001FFFE0000007FFFFFF0001FFFFF
310
FE0003FFFFFFE0003FFE0003FFFFFFE0003FFF0003FFFFFFFFC000FFFFFFE000
310
70008000FFFFFFC0007FFE0000007FF8000003FFFF80007F0001FFFFFF8000F0
310
001FFFFFF8000FF8000001FFFE0000007FFFFFF0001FFFFFFC0003FFFFFFE000
310
1FFC0003FFFFFFE0001FFF0003FFFFFFFFC000FFFFFFC00070008000FFFFFF80
310
007FFE0000007FF0000003FFFF80007F0001FFFFFF0000F0001FFFFFF8000FF8
310
000001FFFE0000007FFFFFF0001FFFFFFC0007FFFFFFF0001FFC0007FFFFFFF0
310
001FFF0003FFFFFFFFC000FFFFFFC00070008001FFFFFF0000FFFE0000003FF0
310
000001FFFF80007F0001FFFFFF0000F8001FFFFFF0000FF8000001FFFE000000
310
7FFFFFF0001FFFFFFC0007FFFFFFF0001FFC0007FFFFFFF0001FFF0003FFFFFF
310
FFC001FFFFFF80007000FFFFFFFFFE0000FFFE0008003FF0008001FFFF80007F
310
FFFFFFFFFC0000FFFFFFFFFFE0000FF8000001FFFE0000007FFFFFF0001FFFFF
310
F8000FFFFFFFF8000FF8000FFFFFFFF8000FFF0003FFFFFFFFFFFFFFFFFF0000
310
7000FFFFFFFFFC0000FFFC0008003FF0008001FFFF80007FFFFFFFFFF80001FF
310
FFFFFFFF80000FF8000001FFFE0000007FFFFFF0001FFFFFF8000FFFFFFFF800
310
0FF8000FFFFFFFF8000FFF0003FFFFFFFFFFFFFFFFFE0000F000FFFFFFFFE000
310
00FFFC000C003FE000C001FFFF80007FFFFFFFFFC00001FFFFFFFFFE00001FF8
310
000001FFFE0000007FFFFFF0001FFFFFF8000FFFFFFFF8000FF8000FFFFFFFF8
310
000FFF0003FFFFFFFFFFFFFFFFF00000F000FFFFFFFE000001FFFC000C001FE0
310
00C000FFFF80007FFFFFFFFE000001FFFFFFFFE000001FF80FFFFFFFFFFFFFC0
310
7FFFFFF0001FFFFFF8000FFFFFFFF8000FF8000FFFFFFFF8000FFF0003FFFFFF
310
FFFFFFFFFF800000F000FFFFFFC0000001FFFC001C001FE001C000FFFF80007F
310
FFFFFF80000003FFFFFFF80000001FF80FFFFFFFFFFFFFC07FFFFFF0001FFFFF
310
F8001FFFFFFFFC000FF8001FFFFFFFFC000FFF0003FFFFFFFFFFFFFFF0000001
310
F000FFFFF800000001FFF8001C001FE001C000FFFF80007FFFFFF800000003FF
310
FFFF800000003FF80FFFFFFFFFFFFFC07FFFFFF0001FFFFFF8001FFFFFFFFC00
310
0FF8001FFFFFFFFC000FFF0003FFFFFFFFFFFFFE00000001F000FFFFC0000000
310
03FFF8001E001FC001E000FFFF80007FFFFF8000000007FFFFFC000000003FF8
310
0FFFFFFFFFFFFFC07FFFFFF0001FFFFFF8001FFFFFFFFC000FF8001FFFFFFFFC
310
000FFF0003FFFFFFFFFFFFE000000003F000FFFE0000000007FFF8001E000FC0
310
01E0007FFF80007FFFFE0000000007FFFFE0000000007FF80FFFFFFFFFFFFFC0
310
7FFFFFF0001FFFFFF0001FFFFFFFFC0007F0001FFFFFFFFC0007FF0003FFFFFF
310
FFFFFF0000000003F000FFF80000000007FFF8001E000FC003E0007FFF80007F
310
FFF0000000000FFFFF8000000000FFF80FFFFFFFFFFFFFC07FFFFFF0001FFFFF
310
F0001FFFFFFFFC0007F0001FFFFFFFFC0007FF0003FFFFFFFFFFFC0000000007
310
F000FFE0000000000FFFF0003E000FC003E0007FFF80007FFFC0000000001FFF
310
FE0000000001FFF80FFFFFFFFFFFFFC07FFFFFF0001FFFFFF0001FFFFFFFFC00
310
07F0001FFFFFFFFC0007FF0003FFFFFFFFFFF0000000000FF000FFC000000000
310
1FFFF0003F000F8003F0003FFF80007FFF80000000003FFFF80000000003FFF8
310
0FFFFFFFFFFFFFC07FFFFFF0001FFFFFF0001FFFFFFFFC0007F0001FFFFFFFFC
310
0007FF0003FFFFFFFFFFE0000000001FF000FF00000000007FFFF0003F000780
310
03F0003FFF80007FFF00000000007FFFF00000000007FFF80FFFFFFFFFFFFFC0
310
7FFFFFF0001FFFFFF0001FFFFFFFFC0007F0001FFFFFFFFC0007FF0003FFFFFF
310
FFFF80000000007FF000FE0000000000FFFFE0003F00078007F0003FFF80007F
310
FE0000000001FFFFE0000000001FFFF80FFFFFFFFFFFFFC07FFFFFF0001FFFFF
310
F0001FFFFFFFFC0007F0001FFFFFFFFC0007FF0003FFFFFFFFFF0000000000FF
310
F000FC0000000003FFFFE0007F00078007F0003FFF80007FFC0000000007FFFF
310
C0000000007FFFF80FFFFFFFFFFFFFC07FFFFFF0001FFFFFF8001FFFFFFFFC00
310
0FF8001FFFFFFFFC000FFF0003FFFFFFFFFE0000000003FFF000FC000000000F
310
FFFFE0007F80070007F8001FFF80007FF8000000001FFFFF8000000001FFFFF8
310
0FFFFFFFFFFFFFC07FFFFFF0001FFFFFF8001FFFFFFFFC000FF8001FFFFFFFFC
310
000FFF0003FFFFFFFFFC000000000FFFF000F8000000007FFFFFE0007F800700
310
07F8001FFF80007FF000000000FFFFFF800000000FFFFFF80FFFFFFFFFFFFFC0
310
7FFFFFF0001FFFFFF8000FFFFFFFF8000FF8000FFFFFFFF8000FFF0003FFFFFF
310
FFFC000000007FFFF000F800000007FFFFFFC0007F8003000FF8001FFF80007F
310
F000000007FFFFFF000000007FFFFFF80FFFFFFFFFFFFFC07FFFFFF0001FFFFF
310
F8000FFFFFFFF8000FF8000FFFFFFFF8000FFF0003FFFFFFFFF80000000FFFFF
310
F000F0000000FFFFFFFFC000FF8003000FF8001FFF80007FE0000000FFFFFFFF
310
0000000FFFFFFFF8000001FFFE0000007FFFFFF0001FFFFFF8000FFFFFFFF800
310
0FF8000FFFFFFFF8000FFF0003FFFFFFFFF8000000FFFFFFF000F000000FFFFF
310
FFFFC000FFC002000FF8000FFF80007FE000001FFFFFFFFE000001FFFFFFFFF8
310
000001FFFE0000007FFFFFF0001FFFFFF8000FFFFFFFF8000FF8000FFFFFFFF8
310
000FFF0003FFFFFFFFF000001FFFFFFFF000E00000FFFFFFFFFFC000FFC00200
310
0FFC000FFF80007FE00001FFFFFFFFFE00001FFFFFFFFFF8000001FFFE000000
310
7FFFFFF0001FFFFFFC000FFFFFFFF8001FFC000FFFFFFFF8001FFF0003FFFFFF
310
FFF00001FFFFFFFFF000E00007FFFFFFFFFF8000FFC000001FFC000FFF80007F
310
C0000FFFFFFFFFFE0000FFFFFFFFFFF8000001FFFE0000007FFFFFF0001FFFFF
310
FC0007FFFFFFF0001FFC0007FFFFFFF0001FFF0003FFFFFFFFF00007FFFFFFFF
310
F000E0001FFFFFFFFFFF8000FFC000001FFC000FFF80007FC0003FFFFFFFFFFE
310
0001FFFFFFFFFFF8000001FFFE0000007FFFFFF0001FFFFFFC0007FFFFFFF000
310
1FFC0007FFFFFFF0001FFF0003FFFFFFFFF0001FFFFFFFFFF000E0003FFFFF00
310
03FF8001FFE000001FFC0007FF80007FC0007FFFFF0007FC0003FFFFF0003FF8
310
000001FFFE0000007FFFFFF0001FFFFFFC0003FFFFFFE0001FFC0003FFFFFFE0
310
001FFF0003FFFFFFFFF0003FFFFFFFFFF000E0003FFFFF0001FF8001FFE00000
310
1FFE0007FF80007FC0007FFFFE0003FC0007FFFFE0003FF8000001FFFE000000
310
7FFFFFF0001FFFFFFE0003FFFFFFE0003FFE0003FFFFFFE0003FFF0003FFFFFF
310
FFF0003FFFFF8001F000E0003FFFFF0001FF0001FFE000001FFE0007FF80007F
310
C0007FFFFE0003FC0007FFFFE0003FF8000001FFFE0000007FFFFFF0001FFFFF
310
FE0001FFFFFFC0003FFE0001FFFFFFC0003FFF0003FFFFFFFFF0003FFFFF0001
310
F000E0003FFFFF0003FF0001FFE000003FFE0007FF80007FC0007FFFFE0003FC
310
0007FFFFE0003FF8000001FFFE0000007FFFFFF0001FFFFFFF0001FFFFFFC000
310
7FFF0001FFFFFFC0007FFF0003FFFFFFFFF0003FFFFF0001F000E0003FFFFE00
310
03FF0003FFF000003FFE0003FF80007FC0007FFFFC0003FE0007FFFFE0003FF8
310
000001FFFE0000007FFFFFF0001FFFFFFF0000FFFFFF80007FFF0000FFFFFF80
310
007FFF0003FFFFFFFFF0003FFFFF0001F000E0003FFFFE0003FF0003FFF00000
310
3FFF0003FF80007FC0007FFFFC0007FE0007FFFFC0003FF8000001FFFE000000
310
7FFFFFF0001FFFFFFF80007FFFFF0000FFFF80007FFFFF0000FFFF0003FFFFFF
310
FFF0003FFFFF0003F000E0003FFFFC0003FE0003FFF000003FFF0003FF80007F
310
E0003FFFF80007FE0003FFFFC0007FF8000001FFFE0000007FFFFFF0001FFFFF
310
FF80003FFFFE0000FFFF80003FFFFE0000FFFF0003FFFFFFFFF0001FFFFE0003
310
F000F0001FFFF80003FE0003FFF000007FFF0001FF80007FE0003FFFF00007FE
310
0001FFFF80007FF8000001FFFE0000007FFFFFF0001FFFFFFFC0000FFFF80001
310
FFFFC0000FFFF80001FFFF0003FFFFFFFFF0001FFFFC0003F000F0000FFFF000
310
07FE0007FFF800007FFF0001FF80007FE0001FFFE00007FF0000FFFE00007FF8
310
000001FFFE0000007FFFFFF0001FFFFFFFC00003FFE00001FFFFC00003FFE000
310
01FFFF0003FFFFFFFFF8000FFFF80003F000F00003FFC00007FC0007FFF80000
310
7FFF8001FF80007FF00007FF80000FFF00007FF80000FFF8000001FFFE000000
310
7F80000000000001FFE000003E000003FFFFE000003E000003FFFF0003FFFFFF
310
FFF80003FFE00007F000F800000000000FFC0007FFF800007FFF8001FF80007F
310
F000000000000FFF000000000000FFF8000001FFFE0000007F80000000000001
310
FFF0000000000007FFFFF0000000000007FFFF0003FFFFFFFFFC00007E000007
310
F000F800000000000FFC0007FFF80000FFFF8000FF80007FF800000000001FFF
310
800000000001FFF8000001FFFE0000007F80000000000001FFF800000000000F
310
FFFFF800000000000FFFFF0003FFFFFFFFFC00000000000FF000FC0000000000
310
1FFC0007FFFC0000FFFF8000FF80007FF800000000003FFFC00000000001FFF8
310
000001FFFE0000007F80000000000001FFF800000000000FFFFFF80000000000
310
0FFFFF0003FFFFFFFFFE00000000001FF000FE00000000003FF8000FFFFC0000
310
FFFF8000FF80007FFC00000000003FFFC00000000003FFF8000001FFFE000000
310
7F80000000000001FFFC00000000001FFFFFFC00000000001FFFFF0003FFFFFF
310
FFFF00000000001FF000FF00000000003FF8000FFFFC0000FFFFC000FF80007F
310
FE00000000007FFFE00000000007FFF8000001FFFE0000007F80000000000001
310
FFFE00000000003FFFFFFE00000000003FFFFF0003FFFFFFFFFF80000000003F
310
F000FF80000000007FF8000FFFFC0001FFFFC0007F80007FFF0000000000FFFF
310
F0000000000FFFF800000000000000007F80000000000001FFFF8000000000FF
310
FFFFFF8000000000FFFFFF0003FFFFFFFFFFC0000000007FF000FFC000000000
310
FFF8000FFFFE0001FFFFC0007F80007FFF8000000001FFFFF8000000001FFFF8
310
00000000000000007F80000000000001FFFFC000000001FFFFFFFFC000000001
310
FFFFFF0003FFFFFFFFFFE000000000FFF000FFE000000003FFF0001FFFFE0001
310
FFFFC0007F80007FFFC000000007FFFFFE000000003FFFF80000000000000000
310
7F80000000000001FFFFE000000003FFFFFFFFE000000003FFFFFF0003FFFFFF
310
FFFFF000000003FFF000FFF80000000FFFF0001FFFFE0001FFFFE0007F80007F
310
FFF00000000FFFFFFF00000000FFFFF800000000000000007F80000000000001
310
FFFFF80000000FFFFFFFFFF80000000FFFFFFF0003FFFFFFFFFFFC0000000FFF
310
F000FFFE0000003FFFF0001FFFFE0003FFFFE0003F80007FFFFC0000003FFFFF
310
FFC0000003FFFFF800000000000000007F80000000000001FFFFFE0000003FFF
310
FFFFFFFE0000003FFFFFFF0003FFFFFFFFFFFF0000003FFFF000FFFF800000FF
310
FFF0001FFFFF0003FFFFE0003F80007FFFFF000001FFFFFFFFF800001FFFFFF8
310
00000000000000007F80000000000001FFFFFFC00001FFFFFFFFFFFFC00001FF
310
FFFFFF0003FFFFFFFFFFFFC00000FFFFF000FFFFF8000FFFFFFFFFFFFFFFFFFF
310
FFFFFFFFFFFFFFFFFFFFF0001FFFFFFFFFFF0000FFFFFFF80000000000000000
310
7FFFFFFFFFFFFFFFFFFFFFFC001FFFFFFFFFFFFFFC001FFFFFFFFFFFFFFFFFFF
310
FFFFFFFC001FFFFFF000FFFFFFFFFFFFFFFFFFFFFFFFFFFFFFFFFFFFFFFFFFFF
310
FFFFFFFFFFFFFFFFFFFFFFFFFFFFFFFFFFFFFFFFFFFFFFFFFFFFFFFFFFFFFFFF
310
FFFFFFFFFFFFFFFFFFFFFFFFFFFFFFFFFFFFFFFFFFFFFFFFFFFFFFFFFFFFFFFF
310
F000FFFFFFFFFFFFFFFFFFFFFFFFFFFFFFFFFFFFFFFFFFFFFFFFFFFFFFFFFFFF
310
FFFFFFFFFFFFFFFFFFFFFFFFFFFFFFFFFFFFFFFFFFFFFFFFFFFFFFFFFFFFFFFF
310
FFFFFFFFFFFFFFFFFFFFFFFFFFFFFFFFFFFFFFFFFFFFFFFFF000FFFFFFFFFFFF
310
FFFFFFFFFFFFFFFFFFFFFFFFFFFFFFFFFFFFFFFFFFFFFFFFFFFFFFFFFFFFFFFF
310
FFFFFFFFFFFFFFFFFFFFFFFFFFFFFFFFFFFFFFFFFFFFFFFFFFFFFFFFFFFFFFFF
310
FFFFFFFFFFFFFFFFFFFFFFFFFFFFFFFFF000FFFFFFFFFFFFFFFFFFFFFFFFFFFF
310
FFFFFFFFFFFFFFFFFFFFFFFFFFFFFFFFFFFFFFFFFFFFFFFFFFFFFFFFFFFFFFFF
310
FFFFFFFFFFFFFFFFFFFFFFFFFFFFFFFFFFFFFFFFFFFFFFFFFFFFFFFFFFFFFFFF
310
FFFFFFFFFFFFFFFFF000FFFFFFFFFFFFFFFFFFFFFFFFFFFFFFFFFFFFFFFFFFFF
310
FFFFFFFFFFFFFFFFFFFFFFFFFFFFFFFFFFFFFFFFFFFFFFFFFFFFFFFFFFFFFFFF
310
FFFFFFFFFFFFFFFFFFFFFFFFFFFFFFFFFFFFFFFFFFFFFFFFFFFFFFFFFFFFFFFF
310
F000FFFFFFFFFFFFFFFFFFFFFFFFFFFFFFFFFFFFFFFFFFFFFFFFFFFFFFFFFFFF
310
FFFFFFFFFFFFFFFFFFFFFFFFFFFFFFFFFFFFFFFFFFFFFFFFFFFFFFFFFFFFFFFF
310
FFFFFFFFFFFFFFFFFFFFFFFFFFFFFFFFFFFFFFFFFFFFFFFFF000FFFFFFFFFFFF
310
FFFFFFFFFFFFFFFFFFFFFFFFFFFFFFFFFFFFFFFFFFFFFFFFFFFFFFFFFFFFFFFF
310
FFFFFFFFFFFFFFFFFFFFFFFFFFFFFFFFFFFFFFFFFFFFFFFFFFFFFFFFFFFFFFFF
310
FFFFFFFFFFFFFFFFFFFFFFFFFFFFFFFFF000FFFFFFFFFFFFFFFFFFFFFFFFFFFF
310
FFFFFFFFFFFFFFFFFFFFFFFFFFFFFFFFFFFFFFFFFFFFFFFFFFFFFFFFFFFFFFFF
310
FFFFFFFFFFFFFFFFFFFFFFFFFFFFFFFFFFFFFFFFFFFFFFFFFFFFFFFFFFFFFFFF
310
FFFFFFFFFFFFFFFFF000FFFFFFFFFFFFFFFFFFFFFFFFFFFFFFFFFFFFFFFFFFFF
310
FFFFFFFFFFFFFFFFFFFFFFFFFFFFFFFFFFFFFFFFFFFFFFFFFFFFFFFFFFFFFFFF
310
FFFFFFFFFFFFFFFFFFFFFFFFFFFFFFFFFFFFFFFFFFFFFFFFFFFFFFFFFFFFFFFF
310
F000FFFFFFFFFFFFFFFFFFFFFFFFFFFFFFFFFFFFFFFFFFFFFFFFFFFFFFFFFFFF
310
FFFFFFFFFFFFFFFFFFFFFFFFFFFFFFFFFFFFFFFFFFFFFFFFFFFFFFFFFFFFFFFF
310
FFFFFFFFFFFFFFFFFFFFFFFFFFFFFFFFFFFFFFFFFFFFFFFFF000FFFFFFFFFFFF
310
FFFFFFFFFFFFFFFFFFFFFFFFFFFFFFFFFFFFFFFFFFFFFFFFFFFFFFFFFFFFFFFF
310
FFFFFFFFFFFFFFFFFFFFFFFFFFFFFFFFFFFFFFFFFFFFFFFFFFFFFFFFFFFFFFFF
310
FFFFFFFFFFFFFFFFFFFFFFFFFFFFFFFFF000FFFFFFFFFFFFFFFFFFFFFFFFFFFF
310
FFFFFFFFFFFFFFFFFFFFFFFFFFFFFFFFFFFFFFFFFFFFFFFFFFFFFFFFFFFFFFFF
310
FFFFFFFFFFFFFFFFFFFFFFFFFFFFFFFFFFFFFFFFFFFFFFFFFFFFFFFFFFFFFFFF
310
FFFFFFFFFFFFFFFFF000FFFFFFFFFFFFFFFFFFFFFFFFFFFFFFFFFFFFFFFFFFFF
310
FFFFFFFFFFFFFFFFFFFFFFFFFFFFFFFFFFFFFFFFFFFFFFFFFFFFFFFFFFFFFFFF
310
FFFFFFFFFFFFFFFFFFFFFFFFFFFFFFFFFFFFFFFFFFFFFFFFFFFFFFFFFFFFFFFF
310
F000FFFFFFFFFFFFFFFFFFFFFFFFFFFFFFFFFFFFFFFFFFFFFFFFFFFFFFFFFFFF
310
FFFFFFFFFFFFFFFFFFFFFFFFFFFFFFFFFFFFFFFFFFFFFFFFFFFFFFFFFFFFFFFF
310
FFFFFFFFFFFFFFFFFFFFFFFFFFFFFFFFFFFFFFFFFFFFFFFFF000FFFFFFFFFFFF
310
FFFFFFFFFFFFFFFFFFFFFFFFFFFFFFFFFFFFFFFFFFFFFFFFFFFFFFFFFFFFFFFF
310
FFFFFFFFFFFFFFFFFFFFFFFFFFFFFFFFFFFFFFFFFFFFFFFFFFFFFFFFFFFFFFFF
310
FFFFFFFFFFFFFFFFFFFFFFFFFFFFFFFFF000FFFFFFFFFFFFFFFFFFFFFFFFFFFF
310
FFFFFFFFFFFFFFFFFFFFFFFFFFFFFFFFFFFFFFFFFFFFFFFFFFFFFFFFFFFFFFFF
310
FFFFFFFFFFFFFFFFFFFFFFFFFFFFFFFFFFFFFFFFFFFFFFFFFFFFFFFFFFFFFFFF
310
FFFFFFFFFFFFFFFFF000FFFFFFFFFFFFFFFFFFFFFFFFFFFFFFFFFFFFFFFFFFFF
310
FFFFFFFFFFFFFFFFFFFFFFFFFFFFFFFFFFFFFFFFFFFFFFFFFFFFFFFFFFFFFFFF
310
FFFFFFFFFFFFFFFFFFFFFFFFFFFFFFFFFFFFFFFFFFFFFFFFFFFFFFFFFFFFFFFF
310
F000FFFFFFFFFFFFFFFFFFFFFFFFFFFFFFFFFFFFFFFFFFFFFFFFFFFFFFFFFFFF
310
FFFFFFFFFFFFFFFFFFFFFFFFFFFFFFFFFFFFFFFFFFFFFFFFFFFFFFFFFFFFFFFF
310
FFFFFFFFFFFFFFFFFFFFFFFFFFFFFFFFFFFFFFFFFFFFFFFFF000FFFFFFFFFFFF
310
FFFFFFFFFFFFFFFFFFFFFFFFFFFFFFFFFFFFFFFFFFFFFFFFFFFFFFFFFFFFFFFF
310
FFFFFFFFFFFFFFFFFFFFFFFFFFFFFFFFFFFFFFFFFFFFFFFFFFFFFFFFFFFFFFFF
310
FFFFFFFFFFFFFFFFFFFFFFFFFFFFFFFFF000FFFFFFFFFFFFFFFFFFFFFFFFFFFF
310
FFFFFFFFFFFFFFFFFFFFFFFFFFFFFFFFFFFFFFFFFFFFFFFFFFFFFFFFFFFFFFFF
310
FFFFFFFFFFFFFFFFFFFFFFFFFFFFFFFFFFFFFFFFFFFFFFFFFFFFFFFFFFFFFFFF
310
FFFFFFFFFFFFFFFFF000FFFFFFFFFFFFFFFFFFFFFFFFFFFFFFFFFFFFFFFFFFFF
310
FFFFFFFFFFFFFFFFFFFFFFFFFFFFFFFFFFFFFFFFFFFFFFFFFFFFFFFFFFFFFFFF
310
FFFFFFFFFFFFFFFFFFFFFFFFFFFFFFFFFFFFFFFFFFFFFFFFFFFFFFFFFFFFFFFF
310
F000FFFFFFFFFFFFFFFFFFFFFFFFFFFFFFFFFFFFFFFFFFFFFFFFFFFFFFFFFFFF
310
FFFFFFFFFFFFFFFFFFFFFFFFFFFFFFFFFFFFFFFFFFFFFFFFFFFFFFFFFFFFFFFF
310
FFFFFFFFFFFFFFFFFFFFFFFFFFFFFFFFFFFFFFFFFFFFFFFFF000FFFFFFFFFFFF
310
FFFFFFFFFFFFFFFFFFFFFFFFFFFFFFFFFFFFFFFFFFFFFFFFFFFFFFFFFFFFFFFF
310
FFFFFFFFFFFFFFFFFFFFFFFFFFFFFFFFFFFFFFFFFFFFFFFFFFFFFFFFFFFFFFFF
310
FFFFFFFFFFFFFFFFFFFFFFFFFFFFFFFFF0000000000000000000000000000000
310
0000000000000000000000000000000000000000000000000000000000000000
310
0000000000000000000000000000000000000000000000000000000000000000
310
0000000000000000000000000000000000000000000000000000000000000000
310
0000000000000000000000000000000000000000000000000000000000000000
310
0000000000000000000000000000000000000000000000000000000000000000
310
0000000000000000000000000000000000000000000000000000000000000000
310
0000000000000000000000000000000000000000000000000000000000000000
310
0000000000000000000000000000000000000000000000000000000000000000
310
0000000000000000000000000000000000000000000000000000000000000000
310
0000000000000000000000000000000000000000000000000000000000000000
310
0000000000000000000000000000000000000000000000000000000000000000
310
0000000000000000000000000000000000000000000000000000000000000000
310
0000000000000000000000000000000000000000000000000000000000000000
310
0000000000000000000000000000000000000000000000000000000000000000
310
0000000000000000000000000000000000000000000000000000000000000000
  1
OLE
  0
ENDSEC
  0
SECTION
  2
OBJECTS
  0
DICTIONARY
  5
C
330
0
100
AcDbDictionary
281
     1
  3
ACAD_GROUP
350
D
  3
ACAD_LAYOUT
350
1A
  3
ACAD_MLINESTYLE
350
17
  3
ACAD_PLOTSETTINGS
350
19
  3
ACAD_PLOTSTYLENAME
350
E
  0
DICTIONARY
  5
D
102
{ACAD_REACTORS
330
C
102
}
330
C
100
AcDbDictionary
281
     1
  0
DICTIONARY
  5
1A
102
{ACAD_REACTORS
330
C
102
}
330
C
100
AcDbDictionary
281
     1
  3
Layout1
350
1E
  3
Layout2
350
26
  3
Model
350
22
  0
DICTIONARY
  5
17
102
{ACAD_REACTORS
330
C
102
}
330
C
100
AcDbDictionary
281
     1
  3
Standard
350
18
  0
DICTIONARY
  5
19
102
{ACAD_REACTORS
330
C
102
}
330
C
100
AcDbDictionary
281
     1
  0
ACDBDICTIONARYWDFLT
  5
E
102
{ACAD_REACTORS
330
C
102
}
330
C
100
AcDbDictionary
281
     1
  3
Normal
350
F
100
AcDbDictionaryWithDefault
340
F
  0
LAYOUT
  5
1E
102
{ACAD_REACTORS
330
1A
102
}
330
1A
100
AcDbPlotSettings
  1

  2
none_device
  4

  6

 40
0.0
 41
0.0
 42
0.0
 43
0.0
 44
0.0
 45
0.0
 46
0.0
 47
0.0
 48
0.0
 49
0.0
140
0.0
141
0.0
142
1.0
143
1.0
 70
   688
 72
     0
 73
     0
 74
     5
  7

 75
    16
147
1.0
148
0.0
149
0.0
100
AcDbLayout
  1
Layout1
 70
     1
 71
     1
 10
0.0
 20
0.0
 11
420.0
 21
297.0
 12
0.0
 22
0.0
 32
0.0
 14
1.0000000000E+20
 24
1.0000000000E+20
 34
1.0000000000E+20
 15
-1.0000000000E+20
 25
-1.0000000000E+20
 35
-1.0000000000E+20
146
0.0
 13
0.0
 23
0.0
 33
0.0
 16
1.0
 26
0.0
 36
0.0
 17
0.0
 27
1.0
 37
0.0
 76
     0
330
1B
  0
LAYOUT
  5
26
102
{ACAD_REACTORS
330
1A
102
}
330
1A
100
AcDbPlotSettings
  1

  2
none_device
  4

  6

 40
0.0
 41
0.0
 42
0.0
 43
0.0
 44
0.0
 45
0.0
 46
0.0
 47
0.0
 48
0.0
 49
0.0
140
0.0
141
0.0
142
1.0
143
1.0
 70
   688
 72
     0
 73
     0
 74
     5
  7

 75
    16
147
1.0
148
0.0
149
0.0
100
AcDbLayout
  1
Layout2
 70
     1
 71
     2
 10
0.0
 20
0.0
 11
0.0
 21
0.0
 12
0.0
 22
0.0
 32
0.0
 14
0.0
 24
0.0
 34
0.0
 15
0.0
 25
0.0
 35
0.0
146
0.0
 13
0.0
 23
0.0
 33
0.0
 16
1.0
 26
0.0
 36
0.0
 17
0.0
 27
1.0
 37
0.0
 76
     0
330
23
  0
LAYOUT
  5
22
102
{ACAD_REACTORS
330
1A
102
}
330
1A
100
AcDbPlotSettings
  1

  2
none_device
  4

  6

 40
0.0
 41
0.0
 42
0.0
 43
0.0
 44
0.0
 45
0.0
 46
0.0
 47
0.0
 48
0.0
 49
0.0
140
0.0
141
0.0
142
1.0
143
1.0
 70
  1712
 72
     0
 73
     0
 74
     0
  7

 75
     0
147
1.0
148
0.0
149
0.0
100
AcDbLayout
  1
Model
 70
     1
 71
     0
 10
0.0
 20
0.0
 11
297.0
 21
210.0
 12
0.0
 22
0.0
 32
0.0
 14
0.0
 24
0.0
 34
0.0
 15
297.0
 25
210.0
 35
0.0
146
0.0
 13
0.0
 23
0.0
 33
0.0
 16
1.0
 26
0.0
 36
0.0
 17
0.0
 27
1.0
 37
0.0
 76
     0
330
1F
331
29
  0
MLINESTYLE
  5
18
102
{ACAD_REACTORS
330
17
102
}
330
17
100
AcDbMlineStyle
  2
Standard
 70
     0
  3

 62
   256
 51
90.0
 52
90.0
 71
     2
 49
0.5
 62
   256
  6
BYLAYER
 49
-0.5
 62
   256
  6
BYLAYER
  0
ACDBPLACEHOLDER
  5
F
102
{ACAD_REACTORS
330
E
102
}
330
E
  0
ENDSEC
  0
EOF
