  0
SECTION
  2
HEADER
  9
$ACADVER
  1
AC1015
  9
$ACADMAINTVER
 70
     6
  9
$DWGCODEPAGE
  3
ANSI_1252
  9
$INSBASE
 10
0.0
 20
0.0
 30
0.0
  9
$EXTMIN
 10
0.0
 20
0.0
 30
0.0
  9
$EXTMAX
 10
297.0
 20
210.0
 30
0.0
  9
$LIMMIN
 10
0.0
 20
0.0
  9
$LIMMAX
 10
297.0
 20
210.0
  9
$ORTHOMODE
 70
     0
  9
$REGENMODE
 70
     1
  9
$FILLMODE
 70
     1
  9
$QTEXTMODE
 70
     0
  9
$MIRRTEXT
 70
     1
  9
$LTSCALE
 40
1.0
  9
$ATTMODE
 70
     1
  9
$TEXTSIZE
 40
2.0
  9
$TRACEWID
 40
1.0
  9
$TEXTSTYLE
  7
Standard
  9
$CLAYER
  8
0
  9
$CELTYPE
  6
ByLayer
  9
$CECOLOR
 62
   256
  9
$CELTSCALE
 40
1.0
  9
$DISPSILH
 70
     0
  9
$DIMSCALE
 40
1.0
  9
$DIMASZ
 40
3.0
  9
$DIMEXO
 40
0.0
  9
$DIMDLI
 40
3.75
  9
$DIMRND
 40
0.0
  9
$DIMDLE
 40
0.0
  9
$DIMEXE
 40
1.0
  9
$DIMTP
 40
0.0
  9
$DIMTM
 40
0.0
  9
$DIMTXT
 40
2.0
  9
$DIMCEN
 40
2.5
  9
$DIMTSZ
 40
0.0
  9
$DIMTOL
 70
     0
  9
$DIMLIM
 70
     0
  9
$DIMTIH
 70
     1
  9
$DIMTOH
 70
     1
  9
$DIMSE1
 70
     0
  9
$DIMSE2
 70
     0
  9
$DIMTAD
 70
     1
  9
$DIMZIN
 70
     0
  9
$DIMBLK
  1

  9
$DIMASO
 70
     1
  9
$DIMSHO
 70
     1
  9
$DIMPOST
  1

  9
$DIMAPOST
  1

  9
$DIMALT
 70
     0
  9
$DIMALTD
 70
     3
  9
$DIMALTF
 40
0.0393700787
  9
$DIMLFAC
 40
1.0
  9
$DIMTOFL
 70
     1
  9
$DIMTVP
 40
0.0
  9
$DIMTIX
 70
     0
  9
$DIMSOXD
 70
     0
  9
$DIMSAH
 70
     0
  9
$DIMBLK1
  1

  9
$DIMBLK2
  1

  9
$DIMSTYLE
  2
ISO-25
  9
$DIMCLRD
 70
     0
  9
$DIMCLRE
 70
     0
  9
$DIMCLRT
 70
     0
  9
$DIMTFAC
 40
1.0
  9
$DIMGAP
 40
1.524
  9
$DIMJUST
 70
     0
  9
$DIMSD1
 70
     0
  9
$DIMSD2
 70
     0
  9
$DIMTOLJ
 70
     0
  9
$DIMTZIN
 70
     0
  9
$DIMALTZ
 70
     0
  9
$DIMALTTZ
 70
     0
  9
$DIMUPT
 70
     0
  9
$DIMDEC
 70
     2
  9
$DIMTDEC
 70
     3
  9
$DIMALTU
 70
     2
  9
$DIMALTTD
 70
     3
  9
$DIMTXSTY
  7
Standard
  9
$DIMAUNIT
 70
     0
  9
$DIMADEC
 70
     2
  9
$DIMALTRND
 40
0.0
  9
$DIMAZIN
 70
     0
  9
$DIMDSEP
 70
    44
  9
$DIMATFIT
 70
     3
  9
$DIMFRAC
 70
     0
  9
$DIMLDRBLK
  1

  9
$DIMLUNIT
 70
     2
  9
$DIMLWD
 70
    -2
  9
$DIMLWE
 70
    -2
  9
$DIMTMOVE
 70
     0
  9
$LUNITS
 70
     2
  9
$LUPREC
 70
     2
  9
$SKETCHINC
 40
1.0
  9
$FILLETRAD
 40
10.0
  9
$AUNITS
 70
     0
  9
$AUPREC
 70
     2
  9
$MENU
  1
.
  9
$ELEVATION
 40
0.0
  9
$PELEVATION
 40
0.0
  9
$THICKNESS
 40
0.0
  9
$LIMCHECK
 70
     0
  9
$CHAMFERA
 40
10.0
  9
$CHAMFERB
 40
10.0
  9
$CHAMFERC
 40
20.0
  9
$CHAMFERD
 40
0.0
  9
$SKPOLY
 70
     0
  9
$TDCREATE
 40
2456079.664874178
  9
$TDUCREATE
 40
2456079.581540845
  9
$TDUPDATE
 40
2456079.66487544
  9
$TDUUPDATE
 40
2456079.581542106
  9
$TDINDWG
 40
0.0000000116
  9
$TDUSRTIMER
 40
0.0000000116
  9
$USRTIMER
 70
     1
  9
$ANGBASE
 50
0.0
  9
$ANGDIR
 70
     0
  9
$PDMODE
 70
     0
  9
$PDSIZE
 40
-1.0
  9
$PLINEWID
 40
0.0
  9
$SPLFRAME
 70
     0
  9
$SPLINETYPE
 70
     6
  9
$SPLINESEGS
 70
     8
  9
$HANDSEED
  5
2BA
  9
$SURFTAB1
 70
     6
  9
$SURFTAB2
 70
     6
  9
$SURFTYPE
 70
     6
  9
$SURFU
 70
     6
  9
$SURFV
 70
     6
  9
$UCSBASE
  2

  9
$UCSNAME
  2

  9
$UCSORG
 10
0.0
 20
0.0
 30
0.0
  9
$UCSXDIR
 10
1.0
 20
0.0
 30
0.0
  9
$UCSYDIR
 10
0.0
 20
1.0
 30
0.0
  9
$UCSORTHOREF
  2

  9
$UCSORTHOVIEW
 70
     0
  9
$UCSORGTOP
 10
0.0
 20
0.0
 30
0.0
  9
$UCSORGBOTTOM
 10
0.0
 20
0.0
 30
0.0
  9
$UCSORGLEFT
 10
0.0
 20
0.0
 30
0.0
  9
$UCSORGRIGHT
 10
0.0
 20
0.0
 30
0.0
  9
$UCSORGFRONT
 10
0.0
 20
0.0
 30
0.0
  9
$UCSORGBACK
 10
0.0
 20
0.0
 30
0.0
  9
$PUCSBASE
  2

  9
$PUCSNAME
  2

  9
$PUCSORG
 10
0.0
 20
0.0
 30
0.0
  9
$PUCSXDIR
 10
1.0
 20
0.0
 30
0.0
  9
$PUCSYDIR
 10
0.0
 20
1.0
 30
0.0
  9
$PUCSORTHOREF
  2

  9
$PUCSORTHOVIEW
 70
     0
  9
$PUCSORGTOP
 10
0.0
 20
0.0
 30
0.0
  9
$PUCSORGBOTTOM
 10
0.0
 20
0.0
 30
0.0
  9
$PUCSORGLEFT
 10
0.0
 20
0.0
 30
0.0
  9
$PUCSORGRIGHT
 10
0.0
 20
0.0
 30
0.0
  9
$PUCSORGFRONT
 10
0.0
 20
0.0
 30
0.0
  9
$PUCSORGBACK
 10
0.0
 20
0.0
 30
0.0
  9
$USERI1
 70
     0
  9
$USERI2
 70
     0
  9
$USERI3
 70
     0
  9
$USERI4
 70
     0
  9
$USERI5
 70
     0
  9
$USERR1
 40
0.0
  9
$USERR2
 40
0.0
  9
$USERR3
 40
0.0
  9
$USERR4
 40
0.0
  9
$USERR5
 40
0.0
  9
$WORLDVIEW
 70
     1
  9
$SHADEDGE
 70
     3
  9
$SHADEDIF
 70
    70
  9
$TILEMODE
 70
     1
  9
$MAXACTVP
 70
    64
  9
$PINSBASE
 10
0.0
 20
0.0
 30
0.0
  9
$PLIMCHECK
 70
     0
  9
$PEXTMIN
 10
1.0000000000E+20
 20
1.0000000000E+20
 30
1.0000000000E+20
  9
$PEXTMAX
 10
-1.0000000000E+20
 20
-1.0000000000E+20
 30
-1.0000000000E+20
  9
$PLIMMIN
 10
0.0
 20
0.0
  9
$PLIMMAX
 10
420.0
 20
297.0
  9
$UNITMODE
 70
     0
  9
$VISRETAIN
 70
     1
  9
$PLINEGEN
 70
     0
  9
$PSLTSCALE
 70
     1
  9
$TREEDEPTH
 70
  3020
  9
$CMLSTYLE
  2
Standard
  9
$CMLJUST
 70
     0
  9
$CMLSCALE
 40
20.0
  9
$PROXYGRAPHICS
 70
     1
  9
$MEASUREMENT
 70
     1
  9
$CELWEIGHT
370
    -1
  9
$ENDCAPS
280
     0
  9
$JOINSTYLE
280
     0
  9
$LWDISPLAY
290
     1
  9
$INSUNITS
 70
     4
  9
$HYPERLINKBASE
  1

  9
$STYLESHEET
  1

  9
$XEDIT
290
     1
  9
$CEPSNTYPE
380
     0
  9
$PSTYLEMODE
290
     1
  9
$FINGERPRINTGUID
  2
{6EEA7138-FF5E-477E-BDC3-128C77C574EB}
  9
$VERSIONGUID
  2
{FAEB1C32-E019-11D5-929B-00C0DF256EC4}
  9
$EXTNAMES
290
     1
  9
$PSVPSCALE
 40
0.0
  9
$OLESTARTUP
290
     0
  0
ENDSEC
  0
SECTION
  2
CLASSES
  0
CLASS
  1
ACDBDICTIONARYWDFLT
  2
AcDbDictionaryWithDefault
  3
ObjectDBX Classes
 90
        0
280
     0
281
     0
  0
CLASS
  1
VISUALSTYLE
  2
AcDbVisualStyle
  3
ObjectDBX Classes
 90
     4095
280
     0
281
     0
  0
CLASS
  1
MATERIAL
  2
AcDbMaterial
  3
ObjectDBX Classes
 90
     1153
280
     0
281
     0
  0
CLASS
  1
ACDBPLACEHOLDER
  2
AcDbPlaceHolder
  3
ObjectDBX Classes
 90
        0
280
     0
281
     0
  0
CLASS
  1
LAYOUT
  2
AcDbLayout
  3
ObjectDBX Classes
 90
        0
280
     0
281
     0
  0
ENDSEC
  0
SECTION
  2
TABLES
  0
TABLE
  2
VPORT
  5
8
330
0
100
AcDbSymbolTable
 70
     1
  0
VPORT
  5
29
330
8
100
AcDbSymbolTableRecord
100
AcDbViewportTableRecord
  2
*Active
 70
     0
 10
0.0
 20
0.0
 11
1.0
 21
1.0
 12
148.5
 22
105.0
 13
0.0
 23
0.0
 14
10.0
 24
10.0
 15
10.0
 25
10.0
 16
0.0
 26
0.0
 36
1.0
 17
0.0
 27
0.0
 37
0.0
 40
210.0
 41
1.4142857143
 42
50.0
 43
0.0
 44
0.0
 50
0.0
 51
0.0
 71
     0
 72
  2000
 73
     1
 74
     3
 75
     0
 76
     0
 77
     0
 78
     0
281
     0
 65
     1
110
0.0
120
0.0
130
0.0
111
1.0
121
0.0
131
0.0
112
0.0
122
1.0
132
0.0
 79
     0
146
0.0
  0
ENDTAB
  0
TABLE
  2
LTYPE
  5
5
330
0
100
AcDbSymbolTable
 70
     6
  0
LTYPE
  5
14
330
5
100
AcDbSymbolTableRecord
100
AcDbLinetypeTableRecord
  2
ByBlock
 70
     0
  3

 72
    65
 73
     0
 40
0.0
  0
LTYPE
  5
15
330
5
100
AcDbSymbolTableRecord
100
AcDbLinetypeTableRecord
  2
ByLayer
 70
     0
  3

 72
    65
 73
     0
 40
0.0
  0
LTYPE
  5
16
330
5
100
AcDbSymbolTableRecord
100
AcDbLinetypeTableRecord
  2
Continuous
 70
     0
  3
Solid line
 72
    65
 73
     0
 40
0.0
  0
LTYPE
  5
3F
330
5
100
AcDbSymbolTableRecord
100
AcDbLinetypeTableRecord
  2
HIDDEN
 70
     0
  3
Hidden __ __ __ __ __ __ __ __ __ __ __ __ __ __
 72
    65
 73
     2
 40
1.905
 49
1.27
 74
     0
 49
-0.635
 74
     0
  0
LTYPE
  5
40
330
5
100
AcDbSymbolTableRecord
100
AcDbLinetypeTableRecord
  2
PHANTOM
 70
     0
  3
Phantom ______  __  __  ______  __  __  ______
 72
    65
 73
     6
 40
12.7
 49
6.35
 74
     0
 49
-1.27
 74
     0
 49
1.27
 74
     0
 49
-1.27
 74
     0
 49
1.27
 74
     0
 49
-1.27
 74
     0
  0
LTYPE
  5
41
330
5
100
AcDbSymbolTableRecord
100
AcDbLinetypeTableRecord
  2
CENTER
 70
     0
  3
Center ____ _ ____ _ ____ _ ____ _ ____ _ ____
 72
    65
 73
     4
 40
10.16
 49
6.35
 74
     0
 49
-1.27
 74
     0
 49
1.27
 74
     0
 49
-1.27
 74
     0
  0
LTYPE
  5
42
330
5
100
AcDbSymbolTableRecord
100
AcDbLinetypeTableRecord
  2
CENTERX2
 70
     0
  3
Center (2x) ________  __  ________  __  _____
 72
    65
 73
     4
 40
20.32
 49
12.7
 74
     0
 49
-2.54
 74
     0
 49
2.54
 74
     0
 49
-2.54
 74
     0
  0
LTYPE
  5
43
330
5
100
AcDbSymbolTableRecord
100
AcDbLinetypeTableRecord
  2
DOT2
 70
     0
  3
Dot (.5x) ........................................
 72
    65
 73
     2
 40
0.635
 49
0.0
 74
     0
 49
-0.635
 74
     0
  0
ENDTAB
  0
TABLE
  2
LAYER
  5
2
330
0
100
AcDbSymbolTable
 70
     5
  0
LAYER
  5
10
330
2
100
AcDbSymbolTableRecord
100
AcDbLayerTableRecord
  2
0
 70
     0
 62
     7
  6
Continuous
370
    -3
390
F
  0
LAYER
  5
44
330
2
100
AcDbSymbolTableRecord
100
AcDbLayerTableRecord
  2
FORMAT
 70
     0
 62
     7
  6
Continuous
370
    -3
390
F
  0
LAYER
  5
45
330
2
100
AcDbSymbolTableRecord
100
AcDbLayerTableRecord
  2
VERMASSUNG
 70
     0
 62
     7
  6
Continuous
370
    -3
390
F
  0
LAYER
  5
46
330
2
100
AcDbSymbolTableRecord
100
AcDbLayerTableRecord
  2
KOPF_DÜNN
 70
     0
 62
     7
  6
Continuous
370
    -3
390
F
  0
LAYER
  5
47
330
2
100
AcDbSymbolTableRecord
100
AcDbLayerTableRecord
  2
KOPF_DICK
 70
     0
 62
     7
  6
Continuous
370
    15
390
F
  0
ENDTAB
  0
TABLE
  2
STYLE
  5
3
330
0
100
AcDbSymbolTable
 70
     3
  0
STYLE
  5
11
330
3
100
AcDbSymbolTableRecord
100
AcDbTextStyleTableRecord
  2
Standard
 70
     0
 40
0.0
 41
1.0
 50
0.0
 71
     0
 42
2.0
  3
txt
  4

  0
STYLE
  5
48
330
3
100
AcDbSymbolTableRecord
100
AcDbTextStyleTableRecord
  2
SLDTEXTSTYLE0
 70
     0
 40
0.0
 41
0.7
 50
0.0
 71
     0
 42
0.2
  3
TXT
  4

  0
STYLE
  5
4C
330
3
100
AcDbSymbolTableRecord
100
AcDbTextStyleTableRecord
  2
SLDTEXTSTYLE1
 70
     0
 40
0.0
 41
0.6466666667
 50
0.0
 71
     0
 42
0.2
  3
TXT
  4

  0
ENDTAB
  0
TABLE
  2
VIEW
  5
6
330
0
100
AcDbSymbolTable
 70
     0
  0
ENDTAB
  0
TABLE
  2
UCS
  5
7
330
0
100
AcDbSymbolTable
 70
     0
  0
ENDTAB
  0
TABLE
  2
APPID
  5
9
330
0
100
AcDbSymbolTable
 70
     1
  0
APPID
  5
12
330
9
100
AcDbSymbolTableRecord
100
AcDbRegAppTableRecord
  2
ACAD
 70
     0
  0
ENDTAB
  0
TABLE
  2
DIMSTYLE
  5
A
330
0
100
AcDbSymbolTable
 70
     2
100
AcDbDimStyleTable
  0
DIMSTYLE
105
27
330
A
100
AcDbSymbolTableRecord
100
AcDbDimStyleTableRecord
  2
ISO-25
 70
     0
 41
2.5
 42
0.625
 43
3.75
 44
1.25
 73
     0
 74
     0
 77
     1
 78
     8
140
2.5
141
2.5
143
0.0393700787
147
0.625
171
     3
172
     1
178
     0
271
     2
272
     2
274
     3
278
    44
283
     0
284
     8
340
11
  0
DIMSTYLE
105
180
102
{ACAD_REACTORS
330
17F
330
2A5
330
2AF
102
}
330
A
100
AcDbSymbolTableRecord
100
AcDbDimStyleTableRecord
  2
SLDDIMSTYLE0
 70
     0
 41
3.0
 44
0.0
 45
0.000000001
 73
     0
 74
     0
 77
     1
 78
    12
 79
     3
140
2.0
147
0.5
173
     1
178
     0
271
     2
272
     3
276
     2
284
    12
340
48
  0
ENDTAB
  0
TABLE
  2
BLOCK_RECORD
  5
1
330
0
100
AcDbSymbolTable
 70
     4
  0
BLOCK_RECORD
  5
1F
330
1
100
AcDbSymbolTableRecord
100
AcDbBlockTableRecord
  2
*Model_Space
340
22
  0
BLOCK_RECORD
  5
1B
330
1
100
AcDbSymbolTableRecord
100
AcDbBlockTableRecord
  2
*Paper_Space
340
1E
  0
BLOCK_RECORD
  5
23
330
1
100
AcDbSymbolTableRecord
100
AcDbBlockTableRecord
  2
*Paper_Space0
340
26
  0
BLOCK_RECORD
  5
181
330
1
100
AcDbSymbolTableRecord
100
AcDbBlockTableRecord
  2
_D
340
0
  0
BLOCK_RECORD
  5
2A6
330
1
100
AcDbSymbolTableRecord
100
AcDbBlockTableRecord
  2
_D_1
340
0
  0
BLOCK_RECORD
  5
2B0
330
1
100
AcDbSymbolTableRecord
100
AcDbBlockTableRecord
  2
_D_2
340
0
  0
ENDTAB
  0
ENDSEC
  0
SECTION
  2
BLOCKS
  0
BLOCK
  5
20
330
1F
100
AcDbEntity
  8
0
100
AcDbBlockBegin
  2
*Model_Space
 70
     0
 10
0.0
 20
0.0
 30
0.0
  3
*Model_Space
  1

  0
ENDBLK
  5
21
330
1F
100
AcDbEntity
  8
0
100
AcDbBlockEnd
  0
BLOCK
  5
1C
330
1B
100
AcDbEntity
 67
     1
  8
0
100
AcDbBlockBegin
  2
*Paper_Space
 70
     0
 10
0.0
 20
0.0
 30
0.0
  3
*Paper_Space
  1

  0
ENDBLK
  5
1D
330
1B
100
AcDbEntity
 67
     1
  8
0
100
AcDbBlockEnd
  0
BLOCK
  5
24
330
23
100
AcDbEntity
  8
0
100
AcDbBlockBegin
  2
*Paper_Space0
 70
     0
 10
0.0
 20
0.0
 30
0.0
  3
*Paper_Space0
  1

  0
ENDBLK
  5
25
330
23
100
AcDbEntity
  8
0
100
AcDbBlockEnd
  0
BLOCK
  5
182
330
181
100
AcDbEntity
  8
0
100
AcDbBlockBegin
  2
_D
 70
     0
 10
0.0
 20
0.0
 30
0.0
  3
_D
  1

  0
SOLID
  5
184
330
181
100
AcDbEntity
  8
VERMASSUNG
100
AcDbTrace
 10
78.9784352353
 20
97.8343515706
 30
0.0
 11
78.5284352353
 21
94.8343515706
 31
0.0
 12
79.4284352353
 22
94.8343515706
 32
0.0
 13
79.4284352353
 23
94.8343515706
 33
0.0
  0
SOLID
  5
185
330
181
100
AcDbEntity
  8
VERMASSUNG
100
AcDbTrace
 10
78.9784352353
 20
34.8343515706
 30
0.0
 11
79.4284352353
 21
37.8343515706
 31
0.0
 12
78.5284352353
 22
37.8343515706
 32
0.0
 13
78.5284352353
 23
37.8343515706
 33
0.0
  0
LINE
  5
186
330
181
100
AcDbEntity
  8
VERMASSUNG
100
AcDbLine
 10
127.4784352353
 20
97.8343515706
 30
0.0
 11
77.9784352353
 21
97.8343515706
 31
0.0
  0
LINE
  5
187
330
181
100
AcDbEntity
  8
VERMASSUNG
100
AcDbLine
 10
127.4784352353
 20
34.8343515706
 30
0.0
 11
77.9784352353
 21
34.8343515706
 31
0.0
  0
LINE
  5
188
330
181
100
AcDbEntity
  8
VERMASSUNG
100
AcDbLine
 10
78.9784352353
 20
97.8343515706
 30
0.0
 11
78.9784352353
 21
34.8343515706
 31
0.0
  0
MTEXT
  5
189
330
181
100
AcDbEntity
  8
VERMASSUNG
100
AcDbMText
 10
76.2002997462
 20
59.9293514614
 30
0.1
 40
2.0
 41
0.0
 71
     1
 72
     1
  1
PSC
  7
SLDTEXTSTYLE0
 11
-7.044195017643634E-15
 21
1.0
 31
0.0
 73
     1
 44
1.0
  0
MTEXT
  5
18A
330
181
100
AcDbEntity
  8
VERMASSUNG
100
AcDbMText
 10
76.4002997557
 20
64.5293515635
 30
0.1
 40
2.0
 41
0.0
 71
     1
 72
     1
  1
%%c
  7
SLDTEXTSTYLE0
 11
-7.044195017643634E-15
 21
1.0
 31
0.0
 73
     1
 44
1.0
  0
MTEXT
  5
18B
330
181
100
AcDbEntity
  8
VERMASSUNG
100
AcDbMText
 10
76.2002997462
 20
68.1393520434
 30
0.1
 40
2.0
 41
0.0
 71
     1
 72
     1
  1
63
  7
SLDTEXTSTYLE0
 11
-7.044195017643634E-15
 21
1.0
 31
0.0
 73
     1
 44
1.0
  0
ENDBLK
  5
183
330
181
100
AcDbEntity
  8
0
100
AcDbBlockEnd
  0
BLOCK
  5
2A7
330
2A6
100
AcDbEntity
  8
0
100
AcDbBlockBegin
  2
_D_1
 70
     0
 10
0.0
 20
0.0
 30
0.0
  3
_D_1
  1

  0
SOLID
  5
2A9
330
2A6
100
AcDbEntity
  8
VERMASSUNG
100
AcDbTrace
 10
126.9784352353
 20
184.4022790004
 30
0.0
 11
129.9784352353
 21
183.9522790004
 31
0.0
 12
129.9784352353
 22
184.8522790004
 32
0.0
 13
129.9784352353
 23
184.8522790004
 33
0.0
  0
SOLID
  5
2AA
330
2A6
100
AcDbEntity
  8
VERMASSUNG
100
AcDbTrace
 10
226.9784352353
 20
184.4022790004
 30
0.0
 11
223.9784352353
 21
184.8522790004
 31
0.0
 12
223.9784352353
 22
183.9522790004
 32
0.0
 13
223.9784352353
 23
183.9522790004
 33
0.0
  0
LINE
  5
2AB
330
2A6
100
AcDbEntity
  8
VERMASSUNG
100
AcDbLine
 10
126.9784352353
 20
176.3006436314
 30
0.0
 11
126.9784352353
 21
185.4022790004
 31
0.0
  0
LINE
  5
2AC
330
2A6
100
AcDbEntity
  8
VERMASSUNG
100
AcDbLine
 10
226.9784352353
 20
158.2506635855
 30
0.0
 11
226.9784352353
 21
185.4022790004
 31
0.0
  0
LINE
  5
2AD
330
2A6
100
AcDbEntity
  8
VERMASSUNG
100
AcDbLine
 10
126.9784352353
 20
184.4022790004
 30
0.0
 11
226.9784352353
 21
184.4022790004
 31
0.0
  0
MTEXT
  5
2AE
330
2A6
100
AcDbEntity
  8
VERMASSUNG
100
AcDbMText
 10
174.1784351023
 20
186.9804143635
 30
0.1
 40
2.0
 41
0.0
 71
     1
 72
     1
  1
100
  7
SLDTEXTSTYLE0
 73
     1
 44
1.0
  0
ENDBLK
  5
2A8
330
2A6
100
AcDbEntity
  8
0
100
AcDbBlockEnd
  0
BLOCK
  5
2B1
330
2B0
100
AcDbEntity
  8
0
100
AcDbBlockBegin
  2
_D_2
 70
     0
 10
0.0
 20
0.0
 30
0.0
  3
_D_2
  1

  0
SOLID
  5
2B3
330
2B0
100
AcDbEntity
  8
VERMASSUNG
100
AcDbTrace
 10
88.9784352353
 20
192.8006436314
 30
0.0
 11
91.9784352353
 21
192.3506436314
 31
0.0
 12
91.9784352353
 22
193.2506436314
 32
0.0
 13
91.9784352353
 23
193.2506436314
 33
0.0
  0
SOLID
  5
2B4
330
2B0
100
AcDbEntity
  8
VERMASSUNG
100
AcDbTrace
 10
226.9784352353
 20
192.8006436314
 30
0.0
 11
223.9784352353
 21
193.2506436314
 31
0.0
 12
223.9784352353
 22
192.3506436314
 32
0.0
 13
223.9784352353
 23
192.3506436314
 33
0.0
  0
LINE
  5
2B5
330
2B0
100
AcDbEntity
  8
VERMASSUNG
100
AcDbLine
 10
88.9784352353
 20
165.4867594004
 30
0.0
 11
88.9784352353
 21
193.8006436314
 31
0.0
  0
LINE
  5
2B6
330
2B0
100
AcDbEntity
  8
VERMASSUNG
100
AcDbLine
 10
226.9784352353
 20
158.2506635855
 30
0.0
 11
226.9784352353
 21
193.8006436314
 31
0.0
  0
LINE
  5
2B7
330
2B0
100
AcDbEntity
  8
VERMASSUNG
100
AcDbLine
 10
88.9784352353
 20
192.8006436314
 30
0.0
 11
226.9784352353
 21
192.8006436314
 31
0.0
  0
MTEXT
  5
2B8
330
2B0
100
AcDbEntity
  8
VERMASSUNG
100
AcDbMText
 10
155.1784351023
 20
195.3787789945
 30
0.1
 40
2.0
 41
0.0
 71
     1
 72
     1
  1
138
  7
SLDTEXTSTYLE0
 73
     1
 44
1.0
  0
ENDBLK
  5
2B2
330
2B0
100
AcDbEntity
  8
0
100
AcDbBlockEnd
  0
ENDSEC
  0
SECTION
  2
ENTITIES
  0
MTEXT
  5
49
330
1F
100
AcDbEntity
  8
KOPF_DÜNN
100
AcDbMText
 10
13.8892156294
 20
23.8442973028
 30
0.0
 40
3.0
 41
0.0
 71
     1
 72
     1
  1
PS6.KDB.NNA.100
  7
SLDTEXTSTYLE0
 73
     1
 44
1.0
  0
MTEXT
  5
4A
330
1F
100
AcDbEntity
  8
VERMASSUNG
100
AcDbMText
 10
13.9329988022
 20
28.8834360957
 30
0.0
 40
3.0
 41
0.0
 71
     1
 72
     1
  1
Klemmhalter_Turning tool neutral
  7
SLDTEXTSTYLE0
 73
     1
 44
1.0
  0
MTEXT
  5
4B
330
1F
100
AcDbEntity
  8
VERMASSUNG
100
AcDbMText
 10
98.8601118557
 20
13.8365368179
 30
0.0
 40
2.0
 41
0.0
 71
     1
 72
     1
  1
Datum: 31.05.2012
  7
SLDTEXTSTYLE0
 73
     1
 44
1.0
  0
MTEXT
  5
4D
330
1F
100
AcDbEntity
  8
VERMASSUNG
100
AcDbMText
 10
13.933048693
 20
18.0482802738
 30
0.0
 40
2.0
 41
0.0
 71
     1
 72
     1
  1
PSC ø63 / DC.. 11 T3 .. / 62.5° / 55° / 62.5°
  7
SLDTEXTSTYLE1
 73
     1
 44
1.0
  0
MTEXT
  5
4E
330
1F
100
AcDbEntity
  8
VERMASSUNG
100
AcDbMText
 10
13.9808475933
 20
13.9090973692
 30
0.0
 40
2.0
 41
0.0
 71
     1
 72
     1
  1
Gewicht: 1632g
  7
SLDTEXTSTYLE0
 73
     1
 44
1.0
  0
LINE
  5
4F
330
1F
100
AcDbEntity
  8
0
  6
Continuous
 62
     7
370
    15
100
AcDbLine
 10
166.3372487203
 20
97.8343515706
 30
0.0
 11
127.4784352353
 21
97.8343515706
 31
0.0
  0
LINE
  5
50
330
1F
100
AcDbEntity
  8
0
  6
Continuous
 62
     7
370
    15
100
AcDbLine
 10
127.4784352353
 20
34.8343515706
 30
0.0
 11
166.3372487203
 21
34.8343515706
 31
0.0
  0
ARC
  5
51
330
1F
100
AcDbEntity
  8
0
  6
Continuous
 62
     7
370
    15
100
AcDbCircle
 10
127.4784352353
 20
35.3343515706
 30
0.0
 40
0.5
100
AcDbArc
 50
180.0
 51
270.0
  0
ARC
  5
52
330
1F
100
AcDbEntity
  8
0
  6
Continuous
 62
     7
370
    15
100
AcDbCircle
 10
127.4784352353
 20
97.3343515706
 30
0.0
 40
0.5
100
AcDbArc
 50
90.0
 51
180.0
  0
LWPOLYLINE
  5
53
330
1F
100
AcDbEntity
  8
0
  6
Continuous
 62
     7
370
    15
100
AcDbPolyline
 90
        3
 70
   128
 43
0.0
 10
126.7784352353
 20
43.7945312917
 10
126.9038901787
 20
43.7262291768
 10
126.9784352353
 20
43.6734914187
  0
LWPOLYLINE
  5
54
330
1F
100
AcDbEntity
  8
0
  6
Continuous
 62
     7
370
    15
100
AcDbPolyline
 90
        3
 70
   128
 43
0.0
 10
126.9784352353
 20
88.9952117226
 10
126.9038901787
 20
88.9424739644
 10
126.7784352353
 20
88.8741718495
  0
LWPOLYLINE
  5
55
330
1F
100
AcDbEntity
  8
0
  6
Continuous
 62
     7
370
    15
100
AcDbPolyline
 90
        3
 70
   128
 43
0.0
 10
160.9927651449
 20
66.0414793948
 10
160.9802318881
 20
66.438162405
 10
161.0260860561
 20
66.8669248748
  0
LWPOLYLINE
  5
56
330
1F
100
AcDbEntity
  8
0
  6
Continuous
 62
     7
370
    15
100
AcDbPolyline
 90
        3
 70
   128
 43
0.0
 10
162.9394877276
 20
63.5199976348
 10
162.8181928597
 20
63.5677945714
 10
162.1898269684
 20
63.9258498646
  0
CIRCLE
  5
57
330
1F
100
AcDbEntity
  8
0
  6
Continuous
 62
     7
370
    15
100
AcDbCircle
 10
163.9784352353
 20
66.3343515706
 30
0.0
 40
2.860000000000008
  0
CIRCLE
  5
58
330
1F
100
AcDbEntity
  8
0
  6
Continuous
 62
     7
370
    15
100
AcDbCircle
 10
163.9784352353
 20
66.3343515706
 30
0.0
 40
2.500000000000007
  0
ARC
  5
59
330
1F
100
AcDbEntity
  8
0
  6
Continuous
 62
     7
370
    15
100
AcDbCircle
 10
217.0306537478
 20
66.3343515706
 30
0.0
 40
1.675000000000033
100
AcDbArc
 50
300.3120697157
 51
358.912002843
  0
ARC
  5
5A
330
1F
100
AcDbEntity
  8
0
  6
Continuous
 62
     7
370
    15
100
AcDbCircle
 10
217.0306537478
 20
66.3343515706
 30
0.0
 40
1.674999999999996
100
AcDbArc
 50
358.912002843
 51
59.0188445777
  0
ARC
  5
5B
330
1F
100
AcDbEntity
  8
0
  6
Continuous
 62
     7
370
    15
100
AcDbCircle
 10
217.0306537478
 20
66.3343515706
 30
0.0
 40
1.675000000000019
100
AcDbArc
 50
59.0188445777
 51
117.6187777049
  0
LINE
  5
5C
330
1F
100
AcDbEntity
  8
0
  6
Continuous
 62
     7
370
    15
100
AcDbLine
 10
216.1798870569
 20
67.7772032739
 30
0.0
 11
216.254146447
 21
67.8184881587
 31
0.0
  0
ARC
  5
5D
330
1F
100
AcDbEntity
  8
0
  6
Continuous
 62
     7
370
    15
100
AcDbCircle
 10
217.0306537478
 20
66.3343515706
 30
0.0
 40
1.675000000000001
100
AcDbArc
 50
120.5254084768
 51
176.9691266431
  0
LINE
  5
5E
330
1F
100
AcDbEntity
  8
0
  6
Continuous
 62
     7
370
    15
100
AcDbLine
 10
215.3559448511
 20
66.3031247958
 30
0.0
 11
215.3579967562
 21
66.4229156075
 31
0.0
  0
ARC
  5
5F
330
1F
100
AcDbEntity
  8
0
  6
Continuous
 62
     7
370
    15
100
AcDbCircle
 10
217.0306537478
 20
66.3343515706
 30
0.0
 40
1.675000000000028
100
AcDbArc
 50
181.0682185433
 51
236.8626288773
  0
LINE
  5
60
330
1F
100
AcDbEntity
  8
0
  6
Continuous
 62
     7
370
    15
100
AcDbLine
 10
216.2176190589
 20
64.8699064215
 30
0.0
 11
216.1150179355
 21
64.9317696446
 31
0.0
  0
ARC
  5
61
330
1F
100
AcDbEntity
  8
0
  6
Continuous
 62
     7
370
    15
100
AcDbCircle
 10
217.0306537478
 20
66.3343515706
 30
0.0
 40
1.675000000000005
100
AcDbArc
 50
240.9617207776
 51
297.4054389439
  0
LINE
  5
62
330
1F
100
AcDbEntity
  8
0
  6
Continuous
 62
     7
370
    15
100
AcDbLine
 10
217.8760421474
 20
64.8883420776
 30
0.0
 11
217.8016295496
 21
64.8473339806
 31
0.0
  0
CIRCLE
  5
63
330
1F
100
AcDbEntity
  8
0
  6
Continuous
 62
     7
370
    15
100
AcDbCircle
 10
217.0306537478
 20
66.3343515706
 30
0.0
 40
1.799999999999998
  0
SPLINE
  5
64
330
1F
100
AcDbEntity
  8
0
  6
Continuous
 62
     7
370
    15
100
AcDbSpline
210
0.0
220
0.0
230
1.0
 70
     8
 71
     3
 72
    11
 73
     7
 74
     0
 42
0.00000001
 43
0.00000001
 12
1.0
 22
0.0
 32
0.0
 13
1.0
 23
0.0
 33
0.0
 40
0.0
 40
0.0
 40
0.0
 40
0.0
 40
0.266901046794961
 40
0.5546143410791063
 40
0.8439070439784252
 40
1.0
 40
1.0
 40
1.0
 40
1.0
 10
215.3559448511009
 20
66.30312479580671
 30
0.0
 10
215.3646781109712
 20
66.26936323011027
 30
0.0
 10
215.3828256275382
 20
66.19920745988239
 30
0.0
 10
215.4512853852127
 20
66.1109260763859
 30
0.0
 10
215.5301448533613
 20
66.05575112013861
 30
0.0
 10
215.5847606286723
 20
66.03869958827259
 30
0.0
 10
215.603901653182
 20
66.03272358980844
 30
0.0
  0
SPLINE
  5
65
330
1F
100
AcDbEntity
  8
0
  6
Continuous
 62
     7
370
    15
100
AcDbSpline
210
0.0
220
0.0
230
1.0
 70
     8
 71
     3
 72
    12
 73
     8
 74
     0
 42
0.00000001
 43
0.00000001
 12
1.0
 22
0.0
 32
0.0
 13
1.0
 23
0.0
 33
0.0
 40
0.0
 40
0.0
 40
0.0
 40
0.0
 40
0.2058401281338406
 40
0.4120619935508951
 40
0.6141387330969056
 40
0.8132772113524424
 40
1.0
 40
1.0
 40
1.0
 40
1.0
 10
215.603901653182
 20
66.03272358980844
 30
0.0
 10
215.665590337285
 20
66.0104977322917
 30
0.0
 10
215.7890821091833
 20
65.96600479867493
 30
0.0
 10
215.9341037268053
 20
65.826248139612
 30
0.0
 10
216.0254156527446
 20
65.65246130802275
 30
0.0
 10
216.0577306079515
 20
65.46301393921465
 30
0.0
 10
216.0306386963516
 20
65.34335973806596
 30
0.0
 10
216.0175286028604
 20
65.28545766800022
 30
0.0
  0
SPLINE
  5
66
330
1F
100
AcDbEntity
  8
0
  6
Continuous
 62
     7
370
    15
100
AcDbSpline
210
0.0
220
0.0
230
1.0
 70
     8
 71
     3
 72
    11
 73
     7
 74
     0
 42
0.00000001
 43
0.00000001
 12
1.0
 22
0.0
 32
0.0
 13
1.0
 23
0.0
 33
0.0
 40
0.0
 40
0.0
 40
0.0
 40
0.0
 40
0.2928993220619668
 40
0.5864344719079574
 40
0.8775178868032986
 40
1.0
 40
1.0
 40
1.0
 40
1.0
 10
216.0175286028604
 20
65.28545766800022
 30
0.0
 10
216.0095188924666
 20
65.24840673492533
 30
0.0
 10
215.9934820841468
 20
65.17422443836517
 30
0.0
 10
216.0182822962364
 20
65.06081414845333
 30
0.0
 10
216.0648647324763
 20
64.97995353581766
 30
0.0
 10
216.1035583751634
 20
64.94277923469537
 30
0.0
 10
216.1150179355031
 20
64.93176964456082
 30
0.0
  0
SPLINE
  5
67
330
1F
100
AcDbEntity
  8
0
  6
Continuous
 62
     7
370
    15
100
AcDbSpline
210
0.0
220
0.0
230
1.0
 70
     8
 71
     3
 72
    12
 73
     8
 74
     0
 42
0.00000001
 43
0.00000001
 12
1.0
 22
0.0
 32
0.0
 13
1.0
 23
0.0
 33
0.0
 40
0.0
 40
0.0
 40
0.0
 40
0.0
 40
0.2057904614204254
 40
0.412034420335924
 40
0.6141302471427036
 40
0.8132633242112983
 40
1.0
 40
1.0
 40
1.0
 40
1.0
 10
216.5763541234638
 20
64.9492222657815
 30
0.0
 10
216.6264320523937
 20
64.99152303445233
 30
0.0
 10
216.7266982662689
 20
65.07621778939262
 30
0.0
 10
216.9202299304823
 20
65.13194504800816
 30
0.0
 10
217.1164035185969
 20
65.12413911925334
 30
0.0
 10
217.296642587342
 20
65.05740135644513
 30
0.0
 10
217.386724765188
 20
64.97410900642167
 30
0.0
 10
217.4303188699713
 20
64.93380075098875
 30
0.0
  0
SPLINE
  5
68
330
1F
100
AcDbEntity
  8
0
  6
Continuous
 62
     7
370
    15
100
AcDbSpline
210
0.0
220
0.0
230
1.0
 70
     8
 71
     3
 72
    11
 73
     7
 74
     0
 42
0.00000001
 43
0.00000001
 12
1.0
 22
0.0
 32
0.0
 13
1.0
 23
0.0
 33
0.0
 40
0.0
 40
0.0
 40
0.0
 40
0.0
 40
0.2802371411013361
 40
0.5612869875923748
 40
0.839990605782441
 40
0.9999999999999999
 40
0.9999999999999999
 40
0.9999999999999999
 40
0.9999999999999999
 10
217.4303188699713
 20
64.93380075098875
 30
0.0
 10
217.4583802939881
 20
64.90835164067194
 30
0.0
 10
217.5145845219217
 20
64.85737961601275
 30
0.0
 10
217.6251271377124
 20
64.82219830169922
 30
0.0
 10
217.7244475577394
 20
64.8218650849067
 30
0.0
 10
217.7810025551237
 20
64.84052738288149
 30
0.0
 10
217.8016295495723
 20
64.84733398060983
 30
0.0
  0
SPLINE
  5
69
330
1F
100
AcDbEntity
  8
0
  6
Continuous
 62
     7
370
    15
100
AcDbSpline
210
0.0
220
0.0
230
1.0
 70
     8
 71
     3
 72
    11
 73
     7
 74
     0
 42
0.00000001
 43
0.00000001
 12
1.0
 22
0.0
 32
0.0
 13
1.0
 23
0.0
 33
0.0
 40
0.0
 40
0.0
 40
0.0
 40
0.0
 40
0.2657596322624685
 40
0.5530029385956076
 40
0.8418208483440511
 40
0.9999999999999999
 40
0.9999999999999999
 40
0.9999999999999999
 40
0.9999999999999999
 10
216.2176190589062
 20
64.86990642152287
 30
0.0
 10
216.2511136715686
 20
64.86054391518572
 30
0.0
 10
216.32081055921
 20
64.84106204928682
 30
0.0
 10
216.4314364223501
 20
64.85589805744281
 30
0.0
 10
216.5190469059303
 20
64.89649296533577
 30
0.0
 10
216.5613753340507
 20
64.93544003866828
 30
0.0
 10
216.5763541234638
 20
64.9492222657815
 30
0.0
  0
SPLINE
  5
6A
330
1F
100
AcDbEntity
  8
0
  6
Continuous
 62
     7
370
    15
100
AcDbSpline
210
0.0
220
0.0
230
1.0
 70
     8
 71
     3
 72
    11
 73
     7
 74
     0
 42
0.00000001
 43
0.00000001
 12
1.0
 22
0.0
 32
0.0
 13
1.0
 23
0.0
 33
0.0
 40
0.0
 40
0.0
 40
0.0
 40
0.0
 40
0.2431090893442777
 40
0.5182793655622033
 40
0.7947794085752019
 40
0.9999999999999999
 40
0.9999999999999999
 40
0.9999999999999999
 40
0.9999999999999999
 10
216.1798870568697
 20
67.77720327391184
 30
0.0
 10
216.1549745562617
 20
67.75532086799895
 30
0.0
 10
216.1018640985471
 20
67.70867020806645
 30
0.0
 10
216.0536312938254
 20
67.60996034557687
 30
0.0
 10
216.0374539973474
 20
67.50718600697716
 30
0.0
 10
216.0504700471038
 20
67.44369217104594
 30
0.0
 10
216.0560150896825
 20
67.41664279505888
 30
0.0
  0
SPLINE
  5
6B
330
1F
100
AcDbEntity
  8
0
  6
Continuous
 62
     7
370
    15
100
AcDbSpline
210
0.0
220
0.0
230
1.0
 70
     8
 71
     3
 72
    12
 73
     8
 74
     0
 42
0.00000001
 43
0.00000001
 12
1.0
 22
0.0
 32
0.0
 13
1.0
 23
0.0
 33
0.0
 40
0.0
 40
0.0
 40
0.0
 40
0.0
 40
0.205817956499897
 40
0.4120215045907652
 40
0.6140779969167665
 40
0.8132130006453913
 40
1.0
 40
1.0
 40
1.0
 40
1.0
 10
216.0560150896825
 20
67.41664279505888
 30
0.0
 10
216.0676108272156
 20
67.35211174906843
 30
0.0
 10
216.0908240264257
 20
67.22292876079102
 30
0.0
 10
216.0423136398372
 20
67.02747112365651
 30
0.0
 10
215.937483970243
 20
66.86150455148623
 30
0.0
 10
215.7895800831018
 20
66.73877617243568
 30
0.0
 10
215.6723950679043
 20
66.70240304998431
 30
0.0
 10
215.6156772928534
 20
66.68479838804339
 30
0.0
  0
SPLINE
  5
6C
330
1F
100
AcDbEntity
  8
0
  6
Continuous
 62
     7
370
    15
100
AcDbSpline
210
0.0
220
0.0
230
1.0
 70
     8
 71
     3
 72
    11
 73
     7
 74
     0
 42
0.00000001
 43
0.00000001
 12
1.0
 22
0.0
 32
0.0
 13
1.0
 23
0.0
 33
0.0
 40
0.0
 40
0.0
 40
0.0
 40
0.0
 40
0.2908641666076573
 40
0.5839560789892048
 40
0.8745988053617729
 40
1.0
 40
1.0
 40
1.0
 40
1.0
 10
215.6156772928533
 20
66.68479838804338
 30
0.0
 10
215.5797764396948
 20
66.67329101542673
 30
0.0
 10
215.5076997666301
 20
66.65018813454915
 30
0.0
 10
215.4218982667075
 20
66.5723029589252
 30
0.0
 10
215.3747896342741
 20
66.49125299017155
 30
0.0
 10
215.3618860644884
 20
66.43874286162198
 30
0.0
 10
215.3579967562099
 20
66.42291560753131
 30
0.0
  0
SPLINE
  5
6D
330
1F
100
AcDbEntity
  8
0
  6
Continuous
 62
     7
370
    15
100
AcDbSpline
210
0.0
220
0.0
230
1.0
 70
     8
 71
     3
 72
    12
 73
     8
 74
     0
 42
0.00000001
 43
0.00000001
 12
1.0
 22
0.0
 32
0.0
 13
1.0
 23
0.0
 33
0.0
 40
0.0
 40
0.0
 40
0.0
 40
0.0
 40
0.2058585741213894
 40
0.4121026961456825
 40
0.6141937841967143
 40
0.8133180967416164
 40
1.0
 40
1.0
 40
1.0
 40
1.0
 10
218.0009200302461
 20
65.249640147005
 30
0.0
 10
217.9893235309147
 20
65.31418124735974
 30
0.0
 10
217.9661088134287
 20
65.44338432564746
 30
0.0
 10
218.0146407815305
 20
65.63886700307577
 30
0.0
 10
218.1195040439402
 20
65.80484113222391
 30
0.0
 10
218.2674144764096
 20
65.92753378528188
 30
0.0
 10
218.3845694758405
 20
65.96389181828496
 30
0.0
 10
218.4412578270752
 20
65.98148455402047
 30
0.0
  0
SPLINE
  5
6E
330
1F
100
AcDbEntity
  8
0
  6
Continuous
 62
     7
370
    15
100
AcDbSpline
210
0.0
220
0.0
230
1.0
 70
     8
 71
     3
 72
    11
 73
     7
 74
     0
 42
0.00000001
 43
0.00000001
 12
1.0
 22
0.0
 32
0.0
 13
1.0
 23
0.0
 33
0.0
 40
0.0
 40
0.0
 40
0.0
 40
0.0
 40
0.2524782265335564
 40
0.5068902417933387
 40
0.7591786113116996
 40
1.0
 40
1.0
 40
1.0
 40
1.0
 10
218.4412578270752
 20
65.98148455402047
 30
0.0
 10
218.4771709190448
 20
65.99299268787458
 30
0.0
 10
218.5492721696039
 20
66.01609709902314
 30
0.0
 10
218.6348614546798
 20
66.09395411447808
 30
0.0
 10
218.6928515500579
 20
66.19245628144003
 30
0.0
 10
218.7012501280928
 20
66.26642323662014
 30
0.0
 10
218.7053517650848
 20
66.30254668493377
 30
0.0
  0
SPLINE
  5
6F
330
1F
100
AcDbEntity
  8
0
  6
Continuous
 62
     7
370
    15
100
AcDbSpline
210
0.0
220
0.0
230
1.0
 70
     8
 71
     3
 72
    11
 73
     7
 74
     0
 42
0.00000001
 43
0.00000001
 12
1.0
 22
0.0
 32
0.0
 13
1.0
 23
0.0
 33
0.0
 40
0.0
 40
0.0
 40
0.0
 40
0.0
 40
0.2423611237744009
 40
0.5166847928458174
 40
0.7923341374633168
 40
0.9999999999999999
 40
0.9999999999999999
 40
0.9999999999999999
 40
0.9999999999999999
 10
217.8760421473805
 20
64.88834207764748
 30
0.0
 10
217.9010361384128
 20
64.91013168253966
 30
0.0
 10
217.9543203239199
 20
64.9565845018474
 30
0.0
 10
218.0029170733897
 20
65.05511212498294
 30
0.0
 10
218.0195561627641
 20
65.15825136326168
 30
0.0
 10
218.0065208906798
 20
65.22217437198641
 30
0.0
 10
218.0009200302461
 20
65.249640147005
 30
0.0
  0
SPLINE
  5
70
330
1F
100
AcDbEntity
  8
0
  6
Continuous
 62
     7
370
    15
100
AcDbSpline
210
0.0
220
0.0
230
1.0
 70
     8
 71
     3
 72
    12
 73
     8
 74
     0
 42
0.00000001
 43
0.00000001
 12
1.0
 22
0.0
 32
0.0
 13
1.0
 23
0.0
 33
0.0
 40
0.0
 40
0.0
 40
0.0
 40
0.0
 40
0.0091735205189835
 40
0.2576775215524811
 40
0.5061895192299009
 40
0.7560357430220725
 40
1.0
 40
1.0
 40
1.0
 40
1.0
 10
217.8928702567879
 20
67.77039045991421
 30
0.0
 10
217.8916915233757
 20
67.7710917594607
 30
0.0
 10
217.8585817588534
 20
67.7907907538256
 30
0.0
 10
217.7860781556407
 20
67.81816019715524
 30
0.0
 10
217.6731222682067
 20
67.82081790728255
 30
0.0
 10
217.5644552143901
 20
67.78827539983801
 30
0.0
 10
217.5083161711852
 20
67.74060966248264
 30
0.0
 10
217.4805809964648
 20
67.71706067628237
 30
0.0
  0
SPLINE
  5
71
330
1F
100
AcDbEntity
  8
0
  6
Continuous
 62
     7
370
    15
100
AcDbSpline
210
0.0
220
0.0
230
1.0
 70
     8
 71
     3
 72
    12
 73
     8
 74
     0
 42
0.00000001
 43
0.00000001
 12
1.0
 22
0.0
 32
0.0
 13
1.0
 23
0.0
 33
0.0
 40
0.0
 40
0.0
 40
0.0
 40
0.0
 40
0.2057532787804341
 40
0.4119604088044759
 40
0.6140154573249518
 40
0.8131414684041709
 40
0.9999999999999999
 40
0.9999999999999999
 40
0.9999999999999999
 40
0.9999999999999999
 10
217.4805809964648
 20
67.71706067628237
 30
0.0
 10
217.4305108394655
 20
67.67476519301877
 30
0.0
 10
217.3302600805536
 20
67.59008093097864
 30
0.0
 10
217.1367598551392
 20
67.53434830797602
 30
0.0
 10
216.9406138862194
 20
67.54213025146181
 30
0.0
 10
216.7603495499952
 20
67.60884164721034
 30
0.0
 10
216.6702393802576
 20
67.69215126711013
 30
0.0
 10
216.6266162499574
 20
67.7324821910751
 30
0.0
  0
SPLINE
  5
72
330
1F
100
AcDbEntity
  8
0
  6
Continuous
 62
     7
370
    15
100
AcDbSpline
210
0.0
220
0.0
230
1.0
 70
     8
 71
     3
 72
    11
 73
     7
 74
     0
 42
0.00000001
 43
0.00000001
 12
1.0
 22
0.0
 32
0.0
 13
1.0
 23
0.0
 33
0.0
 40
0.0
 40
0.0
 40
0.0
 40
0.0
 40
0.2794069064557325
 40
0.5596240257156263
 40
0.8375007392219742
 40
1.0
 40
1.0
 40
1.0
 40
1.0
 10
216.6266162499574
 20
67.7324821910751
 30
0.0
 10
216.5985522237644
 20
67.75793336211976
 30
0.0
 10
216.5423427924546
 20
67.80890950648158
 30
0.0
 10
216.4317928038604
 20
67.84408508187848
 30
0.0
 10
216.3320449876742
 20
67.84442650378743
 30
0.0
 10
216.275143254553
 20
67.82547959181296
 30
0.0
 10
216.2541464470314
 20
67.81848815865207
 30
0.0
  0
SPLINE
  5
73
330
1F
100
AcDbEntity
  8
0
  6
Continuous
 62
     7
370
    15
100
AcDbSpline
210
0.0
220
0.0
230
1.0
 70
     8
 71
     3
 72
    16
 73
    12
 74
     0
 42
0.00000001
 43
0.00000001
 12
1.0
 22
0.0
 32
0.0
 13
1.0
 23
0.0
 33
0.0
 40
0.0
 40
0.0
 40
0.0
 40
0.0
 40
0.0091367421524573
 40
0.1314574589347949
 40
0.2573264769229498
 40
0.3796644500652246
 40
0.505514534681549
 40
0.6285196273510548
 40
0.7550277257920391
 40
0.8758931221066178
 40
1.0
 40
1.0
 40
1.0
 40
1.0
 10
218.7053517650848
 20
66.30254668493377
 30
0.0
 10
218.7053723302492
 20
66.30391931635437
 30
0.0
 10
218.705668217362
 20
66.32366843869958
 30
0.0
 10
218.7026786763232
 20
66.36242612117869
 30
0.0
 10
218.6892532638694
 20
66.41668314200285
 30
0.0
 10
218.6667897077771
 20
66.4683790327727
 30
0.0
 10
218.6363318911377
 20
66.51519576986507
 30
0.0
 10
218.5981874959159
 20
66.55671650093662
 30
0.0
 10
218.5543034486656
 20
66.59062543251834
 30
0.0
 10
218.5055582293466
 20
66.61749315736562
 30
0.0
 10
218.4706954892728
 20
66.62815691953593
 30
0.0
 10
218.4530334667466
 20
66.63355935225543
 30
0.0
  0
SPLINE
  5
74
330
1F
100
AcDbEntity
  8
0
  6
Continuous
 62
     7
370
    15
100
AcDbSpline
210
0.0
220
0.0
230
1.0
 70
     8
 71
     3
 72
    12
 73
     8
 74
     0
 42
0.00000001
 43
0.00000001
 12
1.0
 22
0.0
 32
0.0
 13
1.0
 23
0.0
 33
0.0
 40
0.0
 40
0.0
 40
0.0
 40
0.0
 40
0.2058435564095095
 40
0.4120691620552984
 40
0.6141397217726876
 40
0.8132604579561226
 40
1.0
 40
1.0
 40
1.0
 40
1.0
 10
218.4530334667466
 20
66.63355935225543
 30
0.0
 10
218.391344158498
 20
66.65578548816832
 30
0.0
 10
218.2678510455671
 20
66.70027901209059
 30
0.0
 10
218.1228296038769
 20
66.8400369665831
 30
0.0
 10
218.031520961
 20
67.01382075689618
 30
0.0
 10
217.9992047519317
 20
67.2032646379432
 30
0.0
 10
218.0262956865279
 20
67.32291817961425
 30
0.0
 10
218.0394065170682
 20
67.38082527406365
 30
0.0
  0
SPLINE
  5
75
330
1F
100
AcDbEntity
  8
0
  6
Continuous
 62
     7
370
    15
100
AcDbSpline
210
0.0
220
0.0
230
1.0
 70
     8
 71
     3
 72
    11
 73
     7
 74
     0
 42
0.00000001
 43
0.00000001
 12
1.0
 22
0.0
 32
0.0
 13
1.0
 23
0.0
 33
0.0
 40
0.0
 40
0.0
 40
0.0
 40
0.0
 40
0.2535086227483972
 40
0.5075674742604557
 40
0.7595056251924409
 40
1.0
 40
1.0
 40
1.0
 40
1.0
 10
218.0394065170682
 20
67.38082527406365
 30
0.0
 10
218.0474222608963
 20
67.41789061882234
 30
0.0
 10
218.0634711463544
 20
67.49210175695956
 30
0.0
 10
218.0385798368333
 20
67.60531684538164
 30
0.0
 10
217.9820858281794
 20
67.70468418005157
 30
0.0
 10
217.9221444491376
 20
67.74883034159312
 30
0.0
 10
217.8928702567879
 20
67.77039045991421
 30
0.0
  0
CIRCLE
  5
76
330
1F
100
AcDbEntity
  8
0
  6
Continuous
 62
     7
370
    15
100
AcDbCircle
 10
217.0306537478
 20
66.3343515706
 30
0.0
 40
2.624999999999999
  0
LINE
  5
77
330
1F
100
AcDbEntity
  8
0
  6
Continuous
 62
     7
370
    15
100
AcDbLine
 10
217.1306537478
 20
71.2525553138
 30
0.0
 11
217.3061182206
 21
71.5896194302
 31
0.0
  0
LINE
  5
78
330
1F
100
AcDbEntity
  8
0
  6
Continuous
 62
     7
370
    15
100
AcDbLine
 10
226.7538997083
 20
66.6714156872
 30
0.0
 11
217.3061182206
 21
71.5896194302
 31
0.0
  0
LINE
  5
79
330
1F
100
AcDbEntity
  8
0
  6
Continuous
 62
     7
370
    15
100
AcDbLine
 10
226.5784352353
 20
66.3343515706
 30
0.0
 11
226.7538997083
 21
66.6714156872
 31
0.0
  0
LINE
  5
7A
330
1F
100
AcDbEntity
  8
0
  6
Continuous
 62
     7
370
    15
100
AcDbLine
 10
224.5709772822
 20
66.3343515706
 30
0.0
 11
226.5784352353
 21
66.3343515706
 31
0.0
  0
LINE
  5
7B
330
1F
100
AcDbEntity
  8
0
  6
Continuous
 62
     7
370
    15
100
AcDbLine
 10
217.1306537478
 20
71.0039923227
 30
0.0
 11
217.1306537478
 21
71.2525553138
 31
0.0
  0
SPLINE
  5
7C
330
1F
100
AcDbEntity
  8
0
  6
Continuous
 62
     7
370
    15
100
AcDbSpline
210
0.0
220
0.0
230
1.0
 70
    24
 71
     3
 72
    11
 73
     7
 74
     0
 42
0.00000001
 43
0.00000001
 12
1.0
 22
0.0
 32
0.0
 13
1.0
 23
0.0
 33
0.0
 40
0.0
 40
0.0
 40
0.0
 40
0.0
 40
0.327769503750229
 40
0.6551509568909876
 40
0.99078619016098
 40
1.0
 40
1.0
 40
1.0
 40
1.0
 10
217.1306537477556
 20
71.00399232271712
 30
0.0
 10
217.1306537477556
 20
70.9296621060411
 30
0.0
 10
217.1306537477556
 20
70.7810896732064
 30
0.0
 10
217.1306537477559
 20
70.53610740997838
 30
0.0
 10
217.1306537477549
 20
70.38159448324623
 30
0.0
 10
217.1306537477556
 20
70.30947353766085
 30
0.0
 10
217.1306537477556
 20
70.30754658239937
 30
0.0
  0
LINE
  5
7D
330
1F
100
AcDbEntity
  8
0
  6
Continuous
 62
     7
370
    15
100
AcDbLine
 10
217.1306537478
 20
61.4161478274
 30
0.0
 11
216.9551892747
 21
61.0790837108
 31
0.0
  0
LINE
  5
7E
330
1F
100
AcDbEntity
  8
0
  6
Continuous
 62
     7
370
    15
100
AcDbLine
 10
207.5074077872
 20
65.997287454
 30
0.0
 11
216.9551892747
 21
61.0790837108
 31
0.0
  0
LINE
  5
7F
330
1F
100
AcDbEntity
  8
0
  6
Continuous
 62
     7
370
    15
100
AcDbLine
 10
207.6828722603
 20
66.3343515706
 30
0.0
 11
207.5074077872
 21
65.997287454
 31
0.0
  0
LINE
  5
80
330
1F
100
AcDbEntity
  8
0
  6
Continuous
 62
     7
370
    15
100
AcDbLine
 10
209.6903302134
 20
66.3343515706
 30
0.0
 11
207.6828722603
 21
66.3343515706
 31
0.0
  0
LINE
  5
81
330
1F
100
AcDbEntity
  8
0
  6
Continuous
 62
     7
370
    15
100
AcDbLine
 10
217.1306537478
 20
61.6647108185
 30
0.0
 11
217.1306537478
 21
61.4161478274
 31
0.0
  0
SPLINE
  5
82
330
1F
100
AcDbEntity
  8
0
  6
Continuous
 62
     7
370
    15
100
AcDbSpline
210
0.0
220
0.0
230
1.0
 70
    24
 71
     3
 72
    11
 73
     7
 74
     0
 42
0.00000001
 43
0.00000001
 12
1.0
 22
0.0
 32
0.0
 13
1.0
 23
0.0
 33
0.0
 40
0.0
 40
0.0
 40
0.0
 40
0.0
 40
0.0092138098389955
 40
0.3448490431109769
 40
0.6722304962507556
 40
0.9999999999999999
 40
0.9999999999999999
 40
0.9999999999999999
 40
0.9999999999999999
 10
217.1306537477556
 20
62.36115655884973
 30
0.0
 10
217.1306537477556
 20
62.35922960358825
 30
0.0
 10
217.1306537477553
 20
62.28710865800226
 30
0.0
 10
217.1306537477556
 20
62.13259573126932
 30
0.0
 10
217.1306537477555
 20
61.88761346804062
 30
0.0
 10
217.1306537477556
 20
61.73904103520611
 30
0.0
 10
217.1306537477556
 20
61.66471081853021
 30
0.0
  0
LINE
  5
83
330
1F
100
AcDbEntity
  8
0
  6
Continuous
 62
     7
370
    15
100
AcDbLine
 10
226.7708438464
 20
66.6851427661
 30
0.0
 11
217.3139720843
 21
71.6080786068
 31
0.0
  0
LINE
  5
84
330
1F
100
AcDbEntity
  8
0
  6
Continuous
 62
     7
370
    15
100
AcDbLine
 10
217.3139720843
 20
61.0606245344
 30
0.0
 11
226.7708438464
 21
65.9835603751
 31
0.0
  0
LINE
  5
85
330
1F
100
AcDbEntity
  8
0
  6
Continuous
 62
     7
370
    15
100
AcDbLine
 10
207.4904636491
 20
65.9835603751
 30
0.0
 11
216.9473354112
 21
61.0606245344
 31
0.0
  0
LINE
  5
86
330
1F
100
AcDbEntity
  8
0
  6
Continuous
 62
     7
370
    15
100
AcDbLine
 10
216.9473354112
 20
71.6080786068
 30
0.0
 11
207.4904636491
 21
66.6851427661
 31
0.0
  0
ARC
  5
87
330
1F
100
AcDbEntity
  8
0
  6
Continuous
 62
     7
370
    15
100
AcDbCircle
 10
226.5784352353
 20
66.3343515706
 30
0.0
 40
0.3800000000000082
100
AcDbArc
 50
297.5
 51
62.5
  0
ARC
  5
88
330
1F
100
AcDbEntity
  8
0
  6
Continuous
 62
     7
370
    15
100
AcDbCircle
 10
217.1306537478
 20
71.2525553138
 30
0.0
 40
0.3799999999999824
100
AcDbArc
 50
62.5
 51
117.5
  0
LINE
  5
89
330
1F
100
AcDbEntity
  8
0
  6
Continuous
 62
     7
370
    15
100
AcDbLine
 10
216.9551892747
 20
71.5896194304
 30
0.0
 11
207.5074077872
 21
66.6714156872
 31
0.0
  0
ARC
  5
8A
330
1F
100
AcDbEntity
  8
0
  6
Continuous
 62
     7
370
    15
100
AcDbCircle
 10
207.6828722603
 20
66.3343515706
 30
0.0
 40
0.3800000000000071
100
AcDbArc
 50
117.5
 51
242.5
  0
ARC
  5
8B
330
1F
100
AcDbEntity
  8
0
  6
Continuous
 62
     7
370
    15
100
AcDbCircle
 10
217.1306537478
 20
61.4161478274
 30
0.0
 40
0.3800000000000334
100
AcDbArc
 50
242.5
 51
297.5
  0
LINE
  5
8C
330
1F
100
AcDbEntity
  8
0
  6
Continuous
 62
     7
370
    15
100
AcDbLine
 10
217.3061182208
 20
61.0790837108
 30
0.0
 11
226.7538997083
 21
65.997287454
 31
0.0
  0
SPLINE
  5
8D
330
1F
100
AcDbEntity
  8
0
  6
Continuous
 62
     7
370
    15
100
AcDbSpline
210
0.0
220
0.0
230
1.0
 70
     8
 71
     3
 72
    13
 73
     9
 74
     0
 42
0.00000001
 43
0.00000001
 12
1.0
 22
0.0
 32
0.0
 13
1.0
 23
0.0
 33
0.0
 40
0.0
 40
0.0
 40
0.0
 40
0.0
 40
0.1734385751045029
 40
0.3519090391369225
 40
0.5252484949918546
 40
0.7036433105307296
 40
0.8503205800979526
 40
0.9999999999999999
 40
0.9999999999999999
 40
0.9999999999999999
 40
0.9999999999999999
 10
216.9473354112469
 20
61.06062453442201
 30
0.0
 10
216.9673700075964
 20
61.05138895202499
 30
0.0
 10
217.0080204542838
 20
61.03264983977589
 30
0.0
 10
217.0735622323421
 20
61.01807412307672
 30
0.0
 10
217.1409765820732
 20
61.0138966347167
 30
0.0
 10
217.2041158117651
 20
61.02105980784294
 30
0.0
 10
217.2626360447846
 20
61.03654225415036
 30
0.0
 10
217.2967448946983
 20
61.05254307719185
 30
0.0
 10
217.3139720842643
 20
61.06062453442198
 30
0.0
  0
SPLINE
  5
8E
330
1F
100
AcDbEntity
  8
0
  6
Continuous
 62
     7
370
    15
100
AcDbSpline
210
0.0
220
0.0
230
1.0
 70
     8
 71
     3
 72
    10
 73
     6
 74
     0
 42
0.00000001
 43
0.00000001
 12
1.0
 22
0.0
 32
0.0
 13
1.0
 23
0.0
 33
0.0
 40
0.0
 40
0.0
 40
0.0
 40
0.0
 40
0.3518022785810486
 40
0.7034245935032323
 40
0.9999999999999999
 40
0.9999999999999999
 40
0.9999999999999999
 40
0.9999999999999999
 10
217.3139720842643
 20
71.60807860682708
 30
0.0
 10
217.2723633077556
 20
71.62469874091254
 30
0.0
 10
217.1891670396134
 20
71.65793050709152
 30
0.0
 10
217.0580779870302
 20
71.65421074602132
 30
0.0
 10
216.9820988094205
 20
71.62256002837672
 30
0.0
 10
216.9473354112469
 20
71.6080786068271
 30
0.0
  0
SPLINE
  5
8F
330
1F
100
AcDbEntity
  8
0
  6
Continuous
 62
     7
370
    15
100
AcDbSpline
210
0.0
220
0.0
230
1.0
 70
     8
 71
     3
 72
    14
 73
    10
 74
     0
 42
0.00000001
 43
0.00000001
 12
1.0
 22
0.0
 32
0.0
 13
1.0
 23
0.0
 33
0.0
 40
0.0
 40
0.0
 40
0.0
 40
0.0
 40
0.1588501103508069
 40
0.3173321153185189
 40
0.4720153553660987
 40
0.6236441635915877
 40
0.7746618341644352
 40
0.9277417761107878
 40
1.0
 40
1.0
 40
1.0
 40
1.0
 10
207.49046364908
 20
66.68514276614985
 30
0.0
 10
207.451836050554
 20
66.65999438198692
 30
0.0
 10
207.374670365728
 20
66.60975589033185
 30
0.0
 10
207.2998276394817
 20
66.49178344294643
 30
0.0
 10
207.267744634143
 20
66.35991054979569
 30
0.0
 10
207.2821955453939
 20
66.22643562858214
 30
0.0
 10
207.3396926187746
 20
66.10642316525174
 30
0.0
 10
207.4163823820221
 20
66.02655328114584
 30
0.0
 10
207.4724762642666
 20
65.99399931568466
 30
0.0
 10
207.49046364908
 20
65.98356037509929
 30
0.0
  0
SPLINE
  5
90
330
1F
100
AcDbEntity
  8
0
  6
Continuous
 62
     7
370
    15
100
AcDbSpline
210
0.0
220
0.0
230
1.0
 70
     8
 71
     3
 72
    20
 73
    16
 74
     0
 42
0.00000001
 43
0.00000001
 12
1.0
 22
0.0
 32
0.0
 13
1.0
 23
0.0
 33
0.0
 40
0.0
 40
0.0
 40
0.0
 40
0.0
 40
0.078307531186053
 40
0.158891012685671
 40
0.2369785693217871
 40
0.3174398160757314
 40
0.3936615824744907
 40
0.4721830276909691
 40
0.5469240757152785
 40
0.6238523130449363
 40
0.6983189620749523
 40
0.7748908420225419
 40
0.850389460787977
 40
0.9279814901989231
 40
1.0
 40
1.0
 40
1.0
 40
1.0
 10
226.7708438464312
 20
65.98356037509926
 30
0.0
 10
226.7903968176794
 20
65.99495810892299
 30
0.0
 10
226.8300710527828
 20
66.0180848432504
 30
0.0
 10
226.8808765508603
 20
66.06454487172098
 30
0.0
 10
226.9238876502316
 20
66.11876933287864
 30
0.0
 10
226.9562144145653
 20
66.17869059862275
 30
0.0
 10
226.9778037293724
 20
66.243313496856
 30
0.0
 10
226.9877418815474
 20
66.30909099954074
 30
0.0
 10
226.986312516006
 20
66.37575751290449
 30
0.0
 10
226.9738758363135
 20
66.440104261751
 30
0.0
 10
226.9506552113898
 20
66.50191048484992
 30
0.0
 10
226.9177400416993
 20
66.55872237645829
 30
0.0
 10
226.8752628728957
 20
66.60983261482225
 30
0.0
 10
226.8262823253014
 20
66.65310214536626
 30
0.0
 10
226.7888586177423
 20
66.67473114469402
 30
0.0
 10
226.7708438464312
 20
66.68514276614981
 30
0.0
  0
LINE
  5
91
330
1F
100
AcDbEntity
  8
0
  6
Continuous
 62
     7
370
    15
100
AcDbLine
 10
222.2323729826
 20
67.2213624038
 30
0.0
 11
217.592402361
 21
69.636778225
 31
0.0
  0
LINE
  5
92
330
1F
100
AcDbEntity
  8
0
  6
Continuous
 62
     7
370
    15
100
AcDbLine
 10
212.0289345129
 20
65.4473407374
 30
0.0
 11
216.6689051345
 21
63.0319249163
 31
0.0
  0
ARC
  5
93
330
1F
100
AcDbEntity
  8
0
  6
Continuous
 62
     7
370
    15
100
AcDbCircle
 10
212.4906831261
 20
66.3343515706
 30
0.0
 40
0.9999999999999934
100
AcDbArc
 50
117.5
 51
242.5
  0
LINE
  5
94
330
1F
100
AcDbEntity
  8
0
  6
Continuous
 62
     7
370
    15
100
AcDbLine
 10
216.6689051345
 20
69.636778225
 30
0.0
 11
212.0289345129
 21
67.2213624038
 31
0.0
  0
ARC
  5
95
330
1F
100
AcDbEntity
  8
0
  6
Continuous
 62
     7
370
    15
100
AcDbCircle
 10
217.1306537478
 20
68.7497673918
 30
0.0
 40
0.9999999999999809
100
AcDbArc
 50
62.5
 51
117.5
  0
ARC
  5
96
330
1F
100
AcDbEntity
  8
0
  6
Continuous
 62
     7
370
    15
100
AcDbCircle
 10
221.7706243694
 20
66.3343515706
 30
0.0
 40
1.000000000295363
100
AcDbArc
 50
297.5
 51
62.5
  0
LINE
  5
97
330
1F
100
AcDbEntity
  8
0
  6
Continuous
 62
     7
370
    15
100
AcDbLine
 10
217.592402361
 20
63.0319249163
 30
0.0
 11
222.2323729828
 21
65.4473407372
 31
0.0
  0
ARC
  5
98
330
1F
100
AcDbEntity
  8
0
  6
Continuous
 62
     7
370
    15
100
AcDbCircle
 10
217.1306537478
 20
63.9189357495
 30
0.0
 40
1.000000000000045
100
AcDbArc
 50
242.5
 51
297.5
  0
CIRCLE
  5
99
330
1F
100
AcDbEntity
  8
0
  6
Continuous
 62
     7
370
    15
100
AcDbCircle
 10
217.1306537478
 20
66.3343515706
 30
0.0
 40
3.050000000000008
  0
LINE
  5
9A
330
1F
100
AcDbEntity
  8
0
  6
Continuous
 62
     7
370
    15
100
AcDbLine
 10
217.1306537478
 20
71.2525553138
 30
0.0
 11
216.9551892747
 21
71.5896194304
 31
0.0
  0
LINE
  5
9B
330
1F
100
AcDbEntity
  8
0
  6
Continuous
 62
     7
370
    15
100
AcDbLine
 10
207.6828722603
 20
66.3343515706
 30
0.0
 11
207.5074077872
 21
66.6714156872
 31
0.0
  0
LINE
  5
9C
330
1F
100
AcDbEntity
  8
0
  6
Continuous
 62
     7
370
    15
100
AcDbLine
 10
226.5784352353
 20
66.3343515706
 30
0.0
 11
226.7538997083
 21
65.997287454
 31
0.0
  0
LINE
  5
9D
330
1F
100
AcDbEntity
  8
0
  6
Continuous
 62
     7
370
    15
100
AcDbLine
 10
217.1306537478
 20
61.4161478274
 30
0.0
 11
217.3061182208
 21
61.0790837108
 31
0.0
  0
SPLINE
  5
9E
330
1F
100
AcDbEntity
  8
0
  6
Continuous
 62
     7
370
    15
100
AcDbSpline
210
0.0
220
0.0
230
1.0
 70
    24
 71
     3
 72
    11
 73
     7
 74
     0
 42
0.00000001
 43
0.00000001
 12
1.0
 22
0.0
 32
0.0
 13
1.0
 23
0.0
 33
0.0
 40
0.0
 40
0.0
 40
0.0
 40
0.0
 40
0.0072987238691707
 40
0.1268462096078948
 40
0.5874298328383141
 40
1.0
 40
1.0
 40
1.0
 40
1.0
 10
223.8834281425102
 20
66.33435157062453
 30
0.0
 10
223.8849281550658
 20
66.33435157062455
 30
0.0
 10
223.910997220075
 20
66.33435157062468
 30
0.0
 10
224.0344622614038
 20
66.33435157062424
 30
0.0
 10
224.2661002996108
 20
66.33435157062492
 30
0.0
 10
224.4731466810266
 20
66.33435157062411
 30
0.0
 10
224.5709772821544
 20
66.33435157062371
 30
0.0
  0
SPLINE
  5
9F
330
1F
100
AcDbEntity
  8
0
  6
Continuous
 62
     7
370
    15
100
AcDbSpline
210
0.0
220
0.0
230
1.0
 70
    24
 71
     3
 72
    13
 73
     9
 74
     0
 42
0.00000001
 43
0.00000001
 12
1.0
 22
0.0
 32
0.0
 13
1.0
 23
0.0
 33
0.0
 40
0.0
 40
0.0
 40
0.0
 40
0.0
 40
0.2028032316190664
 40
0.412949675685752
 40
0.6399829593560918
 40
0.8735763818373077
 40
0.9927255920192632
 40
1.0
 40
1.0
 40
1.0
 40
1.0
 10
209.6903302133564
 20
66.33435157062458
 30
0.0
 10
209.7377375975222
 20
66.33435157062456
 30
0.0
 10
209.8342689188433
 20
66.33435157062455
 30
0.0
 10
209.9876992651749
 20
66.33435157062458
 30
0.0
 10
210.1447504406034
 20
66.33435157062462
 30
0.0
 10
210.2742717459721
 20
66.33435157062432
 30
0.0
 10
210.3503111372025
 20
66.33435157062483
 30
0.0
 10
210.3763793873335
 20
66.33435157062456
 30
0.0
 10
210.3778793530009
 20
66.33435157062455
 30
0.0
  0
SPLINE
  5
A0
330
1F
100
AcDbEntity
  8
0
  6
Continuous
 62
     7
370
    15
100
AcDbSpline
210
0.0
220
0.0
230
1.0
 70
     8
 71
     3
 72
    12
 73
     8
 74
     0
 42
0.00000001
 43
0.00000001
 12
1.0
 22
0.0
 32
0.0
 13
1.0
 23
0.0
 33
0.0
 40
0.0
 40
0.0
 40
0.0
 40
0.0
 40
0.4999999999999982
 40
0.4999999999999982
 40
0.7499999999999991
 40
0.7499999999999991
 40
1.0
 40
1.0
 40
1.0
 40
1.0
 10
137.0731793469283
 20
76.24372089130956
 30
0.0
 10
137.1039015888474
 20
76.13116509190039
 30
0.0
 10
137.1467388033825
 20
76.0184072321608
 30
0.0
 10
137.2461658275823
 20
75.86886634636444
 30
0.0
 10
137.285918022399
 20
75.82157361465758
 30
0.0
 10
137.3839594792572
 20
75.74783732133614
 30
0.0
 10
137.4435155348447
 20
75.72241800196042
 30
0.0
 10
137.5061920488205
 20
75.72241800196043
 30
0.0
  0
LINE
  5
A1
330
1F
100
AcDbEntity
  8
0
  6
Continuous
 62
     7
370
    15
100
AcDbLine
 10
137.5061920488
 20
75.722418002
 30
0.0
 11
140.4506784217
 21
75.722418002
 31
0.0
  0
SPLINE
  5
A2
330
1F
100
AcDbEntity
  8
0
  6
Continuous
 62
     7
370
    15
100
AcDbSpline
210
0.0
220
0.0
230
1.0
 70
     8
 71
     3
 72
    12
 73
     8
 74
     0
 42
0.00000001
 43
0.00000001
 12
1.0
 22
0.0
 32
0.0
 13
1.0
 23
0.0
 33
0.0
 40
0.0
 40
0.0
 40
0.0
 40
0.0
 40
0.2500000000000023
 40
0.2500000000000023
 40
0.5000000000000047
 40
0.5000000000000047
 40
1.0
 40
1.0
 40
1.0
 40
1.0
 10
140.4506784216876
 20
75.72241800196042
 30
0.0
 10
140.513758460181
 20
75.72241800196042
 30
0.0
 10
140.5729070823624
 20
75.74778232117536
 30
0.0
 10
140.6713796324315
 20
75.82194718154828
 30
0.0
 10
140.7104162444162
 20
75.8684675221024
 30
0.0
 10
140.8103127111952
 20
76.01860986494765
 30
0.0
 10
140.8527335922619
 20
76.1303030719198
 30
0.0
 10
140.8836911235798
 20
76.24372089130955
 30
0.0
  0
ELLIPSE
  5
A3
330
1F
100
AcDbEntity
  8
0
  6
Continuous
 62
     7
370
    15
100
AcDbEllipse
 10
124.6312810459
 20
66.3343515706
 30
0.0
 11
14.75368316065605
 21
31.09325491558116
 31
0.0
210
0.0
220
0.0
230
1.0
 40
0.3419987131
 41
5.193281737408618
 42
6.124043104552324
  0
SPLINE
  5
A4
330
1F
100
AcDbEntity
  8
0
  6
Continuous
 62
     7
370
    15
100
AcDbSpline
210
0.0
220
0.0
230
1.0
 70
     8
 71
     3
 72
    12
 73
     8
 74
     0
 42
0.00000001
 43
0.00000001
 12
1.0
 22
0.0
 32
0.0
 13
1.0
 23
0.0
 33
0.0
 40
0.0
 40
0.0
 40
0.0
 40
0.0
 40
0.5000000000000037
 40
0.5000000000000037
 40
0.7500000000000018
 40
0.7500000000000018
 40
1.0
 40
1.0
 40
1.0
 40
1.0
 10
140.8836911235798
 20
96.2350940307417
 30
0.0
 10
140.8529688816607
 20
96.27239601369475
 30
0.0
 10
140.8101316671256
 20
96.30900784574115
 30
0.0
 10
140.7107046429258
 20
96.35677262902635
 30
0.0
 10
140.6709524481091
 20
96.37173014450873
 30
0.0
 10
140.5729109912509
 20
96.39492009027784
 30
0.0
 10
140.5133549356634
 20
96.40284352949755
 30
0.0
 10
140.4506784216876
 20
96.40284352949757
 30
0.0
  0
LINE
  5
A5
330
1F
100
AcDbEntity
  8
0
  6
Continuous
 62
     7
370
    15
100
AcDbLine
 10
140.4506784217
 20
96.4028435295
 30
0.0
 11
137.5061920488
 21
96.4028435295
 31
0.0
  0
SPLINE
  5
A6
330
1F
100
AcDbEntity
  8
0
  6
Continuous
 62
     7
370
    15
100
AcDbSpline
210
0.0
220
0.0
230
1.0
 70
     8
 71
     3
 72
    12
 73
     8
 74
     0
 42
0.00000001
 43
0.00000001
 12
1.0
 22
0.0
 32
0.0
 13
1.0
 23
0.0
 33
0.0
 40
0.0
 40
0.0
 40
0.0
 40
0.0
 40
0.2500000000000009
 40
0.2500000000000009
 40
0.5000000000000018
 40
0.5000000000000018
 40
1.0
 40
1.0
 40
1.0
 40
1.0
 10
137.5061920488205
 20
96.40284352949756
 30
0.0
 10
137.4431120103271
 20
96.40284352949757
 30
0.0
 10
137.3839633881457
 20
96.39493760328513
 30
0.0
 10
137.2854908380766
 20
96.37161244184888
 30
0.0
 10
137.2464542260919
 20
96.35689965201719
 30
0.0
 10
137.1465577593129
 20
96.30894385128626
 30
0.0
 10
137.1041368782462
 20
96.27268169470622
 30
0.0
 10
137.0731793469283
 20
96.2350940307417
 30
0.0
  0
ELLIPSE
  5
A7
330
1F
100
AcDbEntity
  8
0
  6
Continuous
 62
     7
370
    15
100
AcDbEllipse
 10
153.3255894246
 20
66.3343515706
 30
0.0
 11
-14.7536831606561
 21
31.09325491558116
 31
0.0
210
0.0
220
0.0
230
1.0
 40
0.3419987131
 41
0.1591422026273009
 42
1.089903569770978
  0
SPLINE
  5
A8
330
1F
100
AcDbEntity
  8
0
  6
Continuous
 62
     7
370
    15
100
AcDbSpline
210
0.0
220
0.0
230
1.0
 70
     8
 71
     3
 72
    12
 73
     8
 74
     0
 42
0.00000001
 43
0.00000001
 12
1.0
 22
0.0
 32
0.0
 13
1.0
 23
0.0
 33
0.0
 40
0.0
 40
0.0
 40
0.0
 40
0.0
 40
0.4999999999999972
 40
0.4999999999999972
 40
0.7499999999999986
 40
0.7499999999999986
 40
1.0
 40
1.0
 40
1.0
 40
1.0
 10
137.0731793469283
 20
36.43360911050728
 30
0.0
 10
137.1043245448904
 20
36.39579358758709
 30
0.0
 10
137.1465988112248
 20
36.35972672950346
 30
0.0
 10
137.2465443450501
 20
36.3117666644922
 30
0.0
 10
137.2862746497541
 20
36.29690569059454
 30
0.0
 10
137.3831626997604
 20
36.27395454446341
 30
0.0
 10
137.4432279415069
 20
36.26585961175137
 30
0.0
 10
137.5061920488205
 20
36.26585961175137
 30
0.0
  0
LINE
  5
A9
330
1F
100
AcDbEntity
  8
0
  6
Continuous
 62
     7
370
    15
100
AcDbLine
 10
137.5061920488
 20
36.2658596118
 30
0.0
 11
140.4506784217
 21
36.2658596118
 31
0.0
  0
SPLINE
  5
AA
330
1F
100
AcDbEntity
  8
0
  6
Continuous
 62
     7
370
    15
100
AcDbSpline
210
0.0
220
0.0
230
1.0
 70
     8
 71
     3
 72
    12
 73
     8
 74
     0
 42
0.00000001
 43
0.00000001
 12
1.0
 22
0.0
 32
0.0
 13
1.0
 23
0.0
 33
0.0
 40
0.0
 40
0.0
 40
0.0
 40
0.0
 40
0.2500000000000001
 40
0.2500000000000001
 40
0.5000000000000001
 40
0.5000000000000001
 40
1.0
 40
1.0
 40
1.0
 40
1.0
 10
140.4506784216876
 20
36.26585961175142
 30
0.0
 10
140.5137353765854
 20
36.26585961175142
 30
0.0
 10
140.572865526331
 20
36.27375994283098
 30
0.0
 10
140.6713130768643
 20
36.29707069083602
 30
0.0
 10
140.7103453150524
 20
36.31177581711965
 30
0.0
 10
140.8102351995093
 20
36.35970934530629
 30
0.0
 10
140.8525341731186
 20
36.39577931807105
 30
0.0
 10
140.8836911235799
 20
36.43360911050728
 30
0.0
  0
ELLIPSE
  5
AB
330
1F
100
AcDbEntity
  8
0
  6
Continuous
 62
     7
370
    15
100
AcDbEllipse
 10
124.6312810459
 20
66.3343515706
 30
0.0
 11
-14.75368316065619
 21
31.09325491558115
 31
0.0
210
0.0
220
0.0
230
1.0
 40
0.3419987131
 41
3.300734856217121
 42
4.231496223360772
  0
SPLINE
  5
AC
330
1F
100
AcDbEntity
  8
0
  6
Continuous
 62
     7
370
    15
100
AcDbSpline
210
0.0
220
0.0
230
1.0
 70
     8
 71
     3
 72
    12
 73
     8
 74
     0
 42
0.00000001
 43
0.00000001
 12
1.0
 22
0.0
 32
0.0
 13
1.0
 23
0.0
 33
0.0
 40
0.0
 40
0.0
 40
0.0
 40
0.0
 40
0.5000000000000029
 40
0.5000000000000029
 40
0.7500000000000014
 40
0.7500000000000014
 40
1.0
 40
1.0
 40
1.0
 40
1.0
 10
140.8836911235798
 20
56.42498224993914
 30
0.0
 10
140.8525459256177
 20
56.53908761580445
 30
0.0
 10
140.8102716592833
 20
56.65019394302322
 30
0.0
 10
140.710326125458
 20
56.80035155045351
 30
0.0
 10
140.6705958207539
 20
56.84734424207087
 30
0.0
 10
140.5737077707477
 20
56.92031982660936
 30
0.0
 10
140.5136425290012
 20
56.94628513928837
 30
0.0
 10
140.4506784216876
 20
56.94628513928837
 30
0.0
  0
LINE
  5
AD
330
1F
100
AcDbEntity
  8
0
  6
Continuous
 62
     7
370
    15
100
AcDbLine
 10
140.4506784217
 20
56.9462851393
 30
0.0
 11
137.5061920488
 21
56.9462851393
 31
0.0
  0
SPLINE
  5
AE
330
1F
100
AcDbEntity
  8
0
  6
Continuous
 62
     7
370
    15
100
AcDbSpline
210
0.0
220
0.0
230
1.0
 70
     8
 71
     3
 72
    12
 73
     8
 74
     0
 42
0.00000001
 43
0.00000001
 12
1.0
 22
0.0
 32
0.0
 13
1.0
 23
0.0
 33
0.0
 40
0.0
 40
0.0
 40
0.0
 40
0.0
 40
0.25
 40
0.25
 40
0.5
 40
0.5
 40
1.0
 40
1.0
 40
1.0
 40
1.0
 10
137.5061920488205
 20
56.94628513928827
 30
0.0
 10
137.4431350939227
 20
56.94628513928827
 30
0.0
 10
137.3840049441771
 20
56.92093878590758
 30
0.0
 10
137.2855573936438
 20
56.84681940376808
 30
0.0
 10
137.2465251554557
 20
56.80032288907008
 30
0.0
 10
137.1466352709988
 20
56.65024838206149
 30
0.0
 10
137.1043362973895
 20
56.53913067294665
 30
0.0
 10
137.0731793469282
 20
56.42498224993916
 30
0.0
  0
ELLIPSE
  5
AF
330
1F
100
AcDbEntity
  8
0
  6
Continuous
 62
     7
370
    15
100
AcDbEllipse
 10
153.3255894246
 20
66.3343515706
 30
0.0
 11
14.75368316065618
 21
31.09325491558116
 31
0.0
210
0.0
220
0.0
230
1.0
 40
0.3419987131
 41
2.051689083818826
 42
2.9824504509625
  0
ELLIPSE
  5
B0
330
1F
100
AcDbEntity
  8
0
  6
Continuous
 62
     7
370
    15
100
AcDbEllipse
 10
178.8980504775
 20
66.3343515706
 30
0.0
 11
0.0
 21
31.5
 31
0.0
210
0.0
220
0.0
230
1.0
 40
0.2679491924
 41
0.4310329430150168
 42
2.710559710574777
  0
ELLIPSE
  5
B1
330
1F
100
AcDbEntity
  8
0
  6
Continuous
 62
     7
370
    15
100
AcDbEllipse
 10
226.8481857198
 20
66.3343515706
 30
0.0
 11
61.06272678867776
 21
31.31365303078863
 31
0.0
210
0.0
220
0.0
230
1.0
 40
0.0560288874
 41
3.250419293298576
 42
3.681452236313524
  0
ELLIPSE
  5
B2
330
1F
100
AcDbEntity
  8
0
  6
Continuous
 62
     7
370
    15
100
AcDbEllipse
 10
226.8481857198
 20
66.3343515706
 30
0.0
 11
61.06272678867777
 21
-31.31365303078864
 31
0.0
210
0.0
220
0.0
230
1.0
 40
0.0560288874
 41
2.601733070866251
 42
3.032766013881257
  0
SPLINE
  5
B3
330
1F
100
AcDbEntity
  8
0
  6
Continuous
 62
     7
370
    15
100
AcDbSpline
210
0.0
220
0.0
230
1.0
 70
     8
 71
     3
 72
    68
 73
    64
 74
     0
 42
0.00000001
 43
0.00000001
 12
1.0
 22
0.0
 32
0.0
 13
1.0
 23
0.0
 33
0.0
 40
-0.0624999999999999
 40
-0.0624999999999999
 40
0.0
 40
0.0
 40
0.03125
 40
0.03125
 40
0.0625
 40
0.0625
 40
0.09375
 40
0.09375
 40
0.125
 40
0.125
 40
0.15625
 40
0.15625
 40
0.1875
 40
0.1875
 40
0.21875
 40
0.21875
 40
0.25
 40
0.25
 40
0.2812499999999999
 40
0.2812499999999999
 40
0.3124999999999999
 40
0.3124999999999999
 40
0.3437499999999999
 40
0.3437499999999999
 40
0.3749999999999998
 40
0.3749999999999998
 40
0.4062499999999998
 40
0.4062499999999998
 40
0.4374999999999998
 40
0.4374999999999998
 40
0.4687499999999998
 40
0.4687499999999998
 40
0.4999999999999998
 40
0.4999999999999998
 40
0.5312499999999998
 40
0.5312499999999998
 40
0.5624999999999998
 40
0.5624999999999998
 40
0.5937499999999999
 40
0.5937499999999999
 40
0.6249999999999999
 40
0.6249999999999999
 40
0.6562499999999999
 40
0.6562499999999999
 40
0.6874999999999999
 40
0.6874999999999999
 40
0.7187499999999999
 40
0.7187499999999999
 40
0.7499999999999999
 40
0.7499999999999999
 40
0.78125
 40
0.78125
 40
0.8125
 40
0.8125
 40
0.84375
 40
0.84375
 40
0.875
 40
0.875
 40
0.90625
 40
0.90625
 40
0.9375000000000001
 40
0.9375000000000001
 40
1.0
 40
1.0
 40
1.03125
 40
1.03125
 10
160.978435235254
 20
65.93772211769458
 30
0.0
 10
160.9784352352541
 20
66.53266629708955
 30
0.0
 10
160.9979059083544
 20
66.7276446778922
 30
0.0
 10
161.0741749344746
 20
67.1112084699631
 30
0.0
 10
161.131907041489
 20
67.30178968351612
 30
0.0
 10
161.2825259524675
 20
67.66504026418136
 30
0.0
 10
161.3746794167778
 20
67.83730753501851
 30
0.0
 10
161.5923799250376
 20
68.16332971421849
 30
0.0
 10
161.7190203261729
 20
68.31760533081535
 30
0.0
 10
161.995639032362
 20
68.59416802920826
 30
0.0
 10
162.1465939493694
 20
68.71831040946661
 30
0.0
 10
162.474481977598
 20
68.93762390381413
 30
0.0
 10
162.6489309468118
 20
69.03075385879889
 30
0.0
 10
163.0098625495601
 20
69.18040742130383
 30
0.0
 10
163.1990142875693
 20
69.23805414356931
 30
0.0
 10
163.5863089728271
 20
69.31516062860376
 30
0.0
 10
163.7810305173763
 20
69.33424439147844
 30
0.0
 10
164.1725687548911
 20
69.33445785804244
 30
0.0
 10
164.3714351514685
 20
69.31496263118711
 30
0.0
 10
164.7562753626945
 20
69.23839288655581
 30
0.0
 10
164.943334614041
 20
69.18173979512915
 30
0.0
 10
165.3066793311962
 20
69.0314644962963
 30
0.0
 10
165.4822225542164
 20
68.93758151431138
 30
0.0
 10
165.8072039804555
 20
68.72051738987388
 30
0.0
 10
165.958716879008
 20
68.59658656076316
 30
0.0
 10
166.2389209771183
 20
68.3166297423312
 30
0.0
 10
166.3630250770947
 20
68.16517105705297
 30
0.0
 10
166.5803333958542
 20
67.84043744718042
 30
0.0
 10
166.6743313967387
 20
67.66507224810971
 30
0.0
 10
166.8249780678107
 20
67.30175403982479
 30
0.0
 10
166.8817800979299
 20
67.11476196655644
 30
0.0
 10
166.9586641005727
 20
66.7301895274024
 30
0.0
 10
166.9783633228779
 20
66.53128182712045
 30
0.0
 10
166.9785067453491
 20
66.13961844259049
 30
0.0
 10
166.9595878863526
 20
65.94491049595949
 30
0.0
 10
166.8828958846149
 20
65.55779261207549
 30
0.0
 10
166.8253577169616
 20
65.3683214814557
 30
0.0
 10
166.6759932286105
 20
65.00718819616372
 30
0.0
 10
166.5830808430753
 20
64.83276868537511
 30
0.0
 10
166.3639807152236
 20
64.50456943424503
 30
0.0
 10
166.2399473560574
 20
64.35349107721116
 30
0.0
 10
165.9636440108675
 20
64.07665551399215
 30
0.0
 10
165.8094956693699
 20
63.94989231340459
 30
0.0
 10
165.4836314307413
 20
63.73188876093502
 30
0.0
 10
165.3114703607503
 20
63.63960811890271
 30
0.0
 10
164.9485168841036
 20
63.48872922903213
 30
0.0
 10
164.7578752008845
 20
63.43078297760313
 30
0.0
 10
164.374365695578
 20
63.35417098801047
 30
0.0
 10
164.179472643686
 20
63.33454296309083
 30
0.0
 10
163.7831511311863
 20
63.33416293653487
 30
0.0
 10
163.5877882917774
 20
63.3534752916696
 30
0.0
 10
163.2041872146688
 20
63.42939573145868
 30
0.0
 10
163.0136949226331
 20
63.48690127617652
 30
0.0
 10
162.6501288992322
 20
63.63726066970327
 30
0.0
 10
162.4777695465365
 20
63.7292794623844
 30
0.0
 10
162.1516487978682
 20
63.94662262650046
 30
0.0
 10
161.9972243146675
 20
64.07314143893733
 30
0.0
 10
161.7203547847926
 20
64.34957434112502
 30
0.0
 10
161.5961050388213
 20
64.50040394481161
 30
0.0
 10
161.3766061708655
 20
64.82791651435319
 30
0.0
 10
161.2832084011594
 20
65.0024655614553
 30
0.0
 10
161.0582471664592
 20
65.54367226936148
 30
0.0
 10
160.978435235254
 20
65.93772211769458
 30
0.0
 10
160.9784352352541
 20
66.53266629708955
 30
0.0
  0
LINE
  5
B4
330
1F
100
AcDbEntity
  8
0
  6
Continuous
 62
     7
370
    15
100
AcDbLine
 10
126.9784352353
 20
35.3343515706
 30
0.0
 11
126.9784352353
 21
97.3343515706
 31
0.0
  0
LINE
  5
B5
330
1F
100
AcDbEntity
  8
0
  6
Continuous
 62
     7
370
    15
100
AcDbLine
 10
177.7868422054
 20
40.2205719355
 30
0.0
 11
175.3715714439
 21
37.7155097476
 31
0.0
  0
LINE
  5
B6
330
1F
100
AcDbEntity
  8
0
  6
Continuous
 62
     7
370
    15
100
AcDbLine
 10
177.7868422054
 20
92.4481312057
 30
0.0
 11
175.3715714439
 21
94.9531933936
 31
0.0
  0
ELLIPSE
  5
B7
330
1F
100
AcDbEntity
  8
0
  6
Continuous
 62
     7
370
    15
100
AcDbEllipse
 10
175.1790197738
 20
66.3343515706
 30
0.0
 11
0.0
 21
2.5
 31
0.0
210
0.0
220
0.0
230
1.0
 40
0.2988584907
 41
0.0
 42
6.283185307179586
  0
SPLINE
  5
B8
330
1F
100
AcDbEntity
  8
0
  6
Continuous
 62
     7
370
    15
100
AcDbSpline
210
0.0
220
0.0
230
1.0
 70
     8
 71
     3
 72
    12
 73
     8
 74
     0
 42
0.00000001
 43
0.00000001
 12
1.0
 22
0.0
 32
0.0
 13
1.0
 23
0.0
 33
0.0
 40
0.0
 40
0.0
 40
0.0
 40
0.0
 40
0.4999999999999998
 40
0.4999999999999998
 40
0.7499999999999997
 40
0.7499999999999997
 40
1.0
 40
1.0
 40
1.0
 40
1.0
 10
126.1619229487976
 20
44.4795578681487
 30
0.0
 10
126.2183594497047
 20
44.47813998680694
 30
0.0
 10
126.2874440803935
 20
44.47657565055864
 30
0.0
 10
126.4062463521114
 20
44.4736314585842
 30
0.0
 10
126.4464316275815
 20
44.47259325548681
 30
0.0
 10
126.5198126749853
 20
44.47065936027217
 30
0.0
 10
126.553222238728
 20
44.46976447298338
 30
0.0
 10
126.5834583463844
 20
44.46898068271103
 30
0.0
  0
SPLINE
  5
B9
330
1F
100
AcDbEntity
  8
0
  6
Continuous
 62
     7
370
    15
100
AcDbSpline
210
0.0
220
0.0
230
1.0
 70
     8
 71
     3
 72
    16
 73
    12
 74
     0
 42
0.00000001
 43
0.00000001
 12
1.0
 22
0.0
 32
0.0
 13
1.0
 23
0.0
 33
0.0
 40
0.0
 40
0.0
 40
0.0
 40
0.0
 40
0.0625000000000009
 40
0.0625000000000009
 40
0.1250000000000019
 40
0.1250000000000019
 40
0.2500000000000022
 40
0.2500000000000022
 40
0.5000000000000027
 40
0.5000000000000027
 40
1.0
 40
1.0
 40
1.0
 40
1.0
 10
126.5834583463472
 20
44.46898068273528
 30
0.0
 10
126.5950387539352
 20
44.46868049162393
 30
0.0
 10
126.6083482806964
 20
44.46735274336493
 30
0.0
 10
126.6376497107826
 20
44.46065406858992
 30
0.0
 10
126.6524638106669
 20
44.45529588548423
 30
0.0
 10
126.6882922123697
 20
44.43825023631688
 30
0.0
 10
126.7024118367328
 20
44.42678769854115
 30
0.0
 10
126.7369159808212
 20
44.39522437316891
 30
0.0
 10
126.7480205315258
 20
44.37732707412364
 30
0.0
 10
126.774196708742
 20
44.32716565650939
 30
0.0
 10
126.7784352352541
 20
44.29942124431281
 30
0.0
 10
126.7784352352541
 20
44.27475708238328
 30
0.0
  0
LINE
  5
BA
330
1F
100
AcDbEntity
  8
0
  6
Continuous
 62
     7
370
    15
100
AcDbLine
 10
126.7784352353
 20
59.3124642449
 30
0.0
 11
126.7784352353
 21
43.7945312917
 31
0.0
  0
SPLINE
  5
BB
330
1F
100
AcDbEntity
  8
0
  6
Continuous
 62
     7
370
    15
100
AcDbSpline
210
0.0
220
0.0
230
1.0
 70
     8
 71
     3
 72
    16
 73
    12
 74
     0
 42
0.00000001
 43
0.00000001
 12
1.0
 22
0.0
 32
0.0
 13
1.0
 23
0.0
 33
0.0
 40
0.0
 40
0.0
 40
0.0
 40
0.0
 40
0.5000000000000064
 40
0.5000000000000064
 40
0.7500000000000062
 40
0.7500000000000062
 40
0.8750000000000046
 40
0.8750000000000046
 40
0.9375000000000023
 40
0.9375000000000023
 40
1.0
 40
1.0
 40
1.0
 40
1.0
 10
126.7784352352541
 20
59.31246424487444
 30
0.0
 10
126.7784352352541
 20
59.42615678900233
 30
0.0
 10
126.7742889601761
 20
59.54047695035184
 30
0.0
 10
126.7483233647826
 20
59.71352524084893
 30
0.0
 10
126.7368624594052
 20
59.77270074801064
 30
0.0
 10
126.7025507216308
 20
59.85582386747878
 30
0.0
 10
126.6885259857012
 20
59.88394518357946
 30
0.0
 10
126.6525030226674
 20
59.9125609975569
 30
0.0
 10
126.6377485135777
 20
59.91835404545868
 30
0.0
 10
126.6083963524308
 20
59.91676061952166
 30
0.0
 10
126.5950564779268
 20
59.91026421619786
 30
0.0
 10
126.5834583463784
 20
59.90174846999472
 30
0.0
  0
SPLINE
  5
BC
330
1F
100
AcDbEntity
  8
0
  6
Continuous
 62
     7
370
    15
100
AcDbSpline
210
0.0
220
0.0
230
1.0
 70
     8
 71
     3
 72
    12
 73
     8
 74
     0
 42
0.00000001
 43
0.00000001
 12
1.0
 22
0.0
 32
0.0
 13
1.0
 23
0.0
 33
0.0
 40
0.0
 40
0.0
 40
0.0
 40
0.0
 40
0.2500000000000006
 40
0.2500000000000006
 40
0.5000000000000008
 40
0.5000000000000008
 40
1.0
 40
1.0
 40
1.0
 40
1.0
 10
126.5834583463855
 20
59.90174846998559
 30
0.0
 10
126.5532599049448
 20
59.87957573794053
 30
0.0
 10
126.5198925496089
 20
59.8604960820633
 30
0.0
 10
126.446737273779
 20
59.8353230376206
 30
0.0
 10
126.406484574755
 20
59.82976650120377
 30
0.0
 10
126.2887558314801
 20
59.84067831219053
 30
0.0
 10
126.2182973834212
 20
59.88261406760137
 30
0.0
 10
126.1619229488029
 20
59.93182584998294
 30
0.0
  0
SPLINE
  5
BD
330
1F
100
AcDbEntity
  8
0
  6
Continuous
 62
     7
370
    15
100
AcDbSpline
210
0.0
220
0.0
230
1.0
 70
     8
 71
     3
 72
    12
 73
     8
 74
     0
 42
0.00000001
 43
0.00000001
 12
1.0
 22
0.0
 32
0.0
 13
1.0
 23
0.0
 33
0.0
 40
0.0
 40
0.0
 40
0.0
 40
0.0
 40
0.4999999999999993
 40
0.4999999999999993
 40
0.7499999999999997
 40
0.7499999999999997
 40
1.0
 40
1.0
 40
1.0
 40
1.0
 10
125.6571148916944
 20
61.1481772418635
 30
0.0
 10
125.7008652435788
 20
60.92773025688896
 30
0.0
 10
125.7537553947033
 20
60.71218526708341
 30
0.0
 10
125.865366937845
 20
60.39977119051148
 30
0.0
 10
125.9079262817485
 20
60.29769171489558
 30
0.0
 10
126.012903517086
 20
60.10325170225381
 30
0.0
 10
126.0744707601805
 20
60.00816680319015
 30
0.0
 10
126.1619229488029
 20
59.93182584998296
 30
0.0
  0
SPLINE
  5
BE
330
1F
100
AcDbEntity
  8
0
  6
Continuous
 62
     7
370
    15
100
AcDbSpline
210
0.0
220
0.0
230
1.0
 70
     8
 71
     3
 72
    12
 73
     8
 74
     0
 42
0.00000001
 43
0.00000001
 12
1.0
 22
0.0
 32
0.0
 13
1.0
 23
0.0
 33
0.0
 40
0.0
 40
0.0
 40
0.0
 40
0.0
 40
0.2500000000000007
 40
0.2500000000000007
 40
0.5000000000000014
 40
0.5000000000000014
 40
1.0
 40
1.0
 40
1.0
 40
1.0
 10
126.1619229488028
 20
72.7368772912661
 30
0.0
 10
126.0734295412349
 20
72.6596274111578
 30
0.0
 10
126.0133715004691
 20
72.56630808726857
 30
0.0
 10
125.9075232274865
 20
72.37027503429911
 30
0.0
 10
125.864989706209
 20
72.2679486760874
 30
0.0
 10
125.7538383993854
 20
71.9566042703115
 30
0.0
 10
125.7009075423376
 20
71.7411860171335
 30
0.0
 10
125.6571148916944
 20
71.52052589938562
 30
0.0
  0
SPLINE
  5
BF
330
1F
100
AcDbEntity
  8
0
  6
Continuous
 62
     7
370
    15
100
AcDbSpline
210
0.0
220
0.0
230
1.0
 70
     8
 71
     3
 72
    12
 73
     8
 74
     0
 42
0.00000001
 43
0.00000001
 12
1.0
 22
0.0
 32
0.0
 13
1.0
 23
0.0
 33
0.0
 40
0.0
 40
0.0
 40
0.0
 40
0.0
 40
0.4999999999999999
 40
0.4999999999999999
 40
0.7499999999999998
 40
0.7499999999999998
 40
1.0
 40
1.0
 40
1.0
 40
1.0
 10
126.1619229488028
 20
72.73687729126611
 30
0.0
 10
126.2182314970984
 20
72.78603155850996
 30
0.0
 10
126.2885061578166
 20
72.82798887711371
 30
0.0
 10
126.4065440721401
 20
72.83894855464615
 30
0.0
 10
126.4467203129941
 20
72.83343979639879
 30
0.0
 10
126.520677407672
 20
72.80788256760984
 30
0.0
 10
126.5532937953835
 20
72.78910251977054
 30
0.0
 10
126.5834583463792
 20
72.76695467125383
 30
0.0
  0
SPLINE
  5
C0
330
1F
100
AcDbEntity
  8
0
  6
Continuous
 62
     7
370
    15
100
AcDbSpline
210
0.0
220
0.0
230
1.0
 70
     8
 71
     3
 72
    16
 73
    12
 74
     0
 42
0.00000001
 43
0.00000001
 12
1.0
 22
0.0
 32
0.0
 13
1.0
 23
0.0
 33
0.0
 40
0.0
 40
0.0
 40
0.0
 40
0.0
 40
0.0625000000000001
 40
0.0625000000000001
 40
0.1250000000000001
 40
0.1250000000000001
 40
0.2500000000000015
 40
0.2500000000000015
 40
0.500000000000001
 40
0.500000000000001
 40
1.0
 40
1.0
 40
1.0
 40
1.0
 10
126.5834583463475
 20
72.76695467119931
 30
0.0
 10
126.5950712461868
 20
72.75842808160405
 30
0.0
 10
126.6084224306193
 20
72.7519278200713
 30
0.0
 10
126.6378222702385
 20
72.75035842295377
 30
0.0
 10
126.6526629947937
 20
72.75624181358435
 30
0.0
 10
126.6884962027623
 20
72.78478944963487
 30
0.0
 10
126.7026094105839
 20
72.81295646894067
 30
0.0
 10
126.7371007818028
 20
72.8967107273626
 30
0.0
 10
126.7481848529132
 20
72.95442414098403
 30
0.0
 10
126.7743076707092
 20
73.12801467762988
 30
0.0
 10
126.7784352352541
 20
73.24304273027184
 30
0.0
 10
126.7784352352541
 20
73.35623889637468
 30
0.0
  0
LINE
  5
C1
330
1F
100
AcDbEntity
  8
0
  6
Continuous
 62
     7
370
    15
100
AcDbLine
 10
126.7784352353
 20
88.8741718495
 30
0.0
 11
126.7784352353
 21
73.3562388964
 31
0.0
  0
SPLINE
  5
C2
330
1F
100
AcDbEntity
  8
0
  6
Continuous
 62
     7
370
    15
100
AcDbSpline
210
0.0
220
0.0
230
1.0
 70
     8
 71
     3
 72
    16
 73
    12
 74
     0
 42
0.00000001
 43
0.00000001
 12
1.0
 22
0.0
 32
0.0
 13
1.0
 23
0.0
 33
0.0
 40
0.0
 40
0.0
 40
0.0
 40
0.0
 40
0.4999999999999981
 40
0.4999999999999981
 40
0.7499999999999973
 40
0.7499999999999973
 40
0.874999999999997
 40
0.874999999999997
 40
0.9374999999999986
 40
0.9374999999999986
 40
1.0
 40
1.0
 40
1.0
 40
1.0
 10
126.7784352352541
 20
88.39394605886585
 30
0.0
 10
126.7784352352541
 20
88.3692749028229
 30
0.0
 10
126.7742695367941
 20
88.34169307143166
 30
0.0
 10
126.7480112084691
 20
88.29135020060833
 30
0.0
 10
126.7365074267315
 20
88.27306070254645
 30
0.0
 10
126.702376667385
 20
88.24190567150941
 30
0.0
 10
126.6879547807143
 20
88.23026629629766
 30
0.0
 10
126.6523878122765
 20
88.21338427036659
 30
0.0
 10
126.6374360439818
 20
88.20799516655893
 30
0.0
 10
126.6084322256221
 20
88.20137467061446
 30
0.0
 10
126.5950168716128
 20
88.20002208240801
 30
0.0
 10
126.5834583463762
 20
88.19972245853639
 30
0.0
  0
SPLINE
  5
C3
330
1F
100
AcDbEntity
  8
0
  6
Continuous
 62
     7
370
    15
100
AcDbSpline
210
0.0
220
0.0
230
1.0
 70
     8
 71
     3
 72
    12
 73
     8
 74
     0
 42
0.00000001
 43
0.00000001
 12
1.0
 22
0.0
 32
0.0
 13
1.0
 23
0.0
 33
0.0
 40
0.0
 40
0.0
 40
0.0
 40
0.0
 40
0.2499999999999999
 40
0.2499999999999999
 40
0.4999999999999998
 40
0.4999999999999998
 40
1.0
 40
1.0
 40
1.0
 40
1.0
 10
126.5834583463855
 20
88.19972245853813
 30
0.0
 10
126.5532705698358
 20
88.19893992112054
 30
0.0
 10
126.5199167657441
 20
88.19804658930204
 30
0.0
 10
126.4467905625482
 20
88.19611928049844
 30
0.0
 10
126.406555359524
 20
88.19507974928577
 30
0.0
 10
126.2888637293909
 20
88.19216186593852
 30
0.0
 10
126.2184830562309
 20
88.19056625986832
 30
0.0
 10
126.1619229488002
 20
88.18914527310044
 30
0.0
  0
SPLINE
  5
C4
330
1F
100
AcDbEntity
  8
0
  6
Continuous
 62
     7
370
    15
100
AcDbSpline
210
0.0
220
0.0
230
1.0
 70
     8
 71
     3
 72
    16
 73
    12
 74
     0
 42
0.00000001
 43
0.00000001
 12
1.0
 22
0.0
 32
0.0
 13
1.0
 23
0.0
 33
0.0
 40
0.0
 40
0.0
 40
0.0
 40
0.0
 40
0.2499999999999999
 40
0.2499999999999999
 40
0.3749999999999999
 40
0.3749999999999999
 40
0.5
 40
0.5
 40
0.75
 40
0.75
 40
1.0
 40
1.0
 40
1.0
 40
1.0
 10
125.6571148916944
 20
71.52052589938562
 30
0.0
 10
125.4958824142099
 20
70.7081161241388
 30
0.0
 10
125.3754025745703
 20
69.86803782975404
 30
0.0
 10
125.253022057257
 20
68.56674278039128
 30
0.0
 10
125.2220443968595
 20
68.1260617448065
 30
0.0
 10
125.1804306592316
 20
67.23022210387538
 30
0.0
 10
125.1701947462988
 20
66.78356397267292
 30
0.0
 10
125.1700063492427
 20
65.44825401553301
 30
0.0
 10
125.2101510518803
 20
64.5637586422255
 30
0.0
 10
125.3743048068198
 20
62.80650875419949
 30
0.0
 10
125.4958564572294
 20
61.96071780778637
 30
0.0
 10
125.6571148916944
 20
61.1481772418635
 30
0.0
  0
LINE
  5
C5
330
1F
100
AcDbEntity
  8
0
  6
Continuous
 62
     7
370
    15
100
AcDbLine
 10
124.7784352353
 20
72.8195298323
 30
0.0
 11
124.7784352353
 21
59.8491733089
 31
0.0
  0
LINE
  5
C6
330
1F
100
AcDbEntity
  8
0
  6
Continuous
 62
     7
370
    15
100
AcDbLine
 10
90.4784352353
 20
72.3886621382
 30
0.0
 11
90.4784352353
 21
60.2800410031
 31
0.0
  0
LINE
  5
C7
330
1F
100
AcDbEntity
  8
0
  6
Continuous
 62
     7
370
    15
100
AcDbLine
 10
88.9784352353
 20
71.9556494363
 30
0.0
 11
88.9784352353
 21
60.713053705
 31
0.0
  0
LINE
  5
C8
330
1F
100
AcDbEntity
  8
0
  6
Continuous
 62
     7
370
    15
100
AcDbLine
 10
90.4784352353
 20
72.3886621382
 30
0.0
 11
90.4784352353
 21
87.4927149669
 31
0.0
  0
LINE
  5
C9
330
1F
100
AcDbEntity
  8
0
  6
Continuous
 62
     7
370
    15
100
AcDbLine
 10
90.4784352353
 20
87.4927149669
 30
0.0
 11
124.7784352353
 21
88.3544503552
 31
0.0
  0
LINE
  5
CA
330
1F
100
AcDbEntity
  8
0
  6
Continuous
 62
     7
370
    15
100
AcDbLine
 10
124.7784352353
 20
72.8195298323
 30
0.0
 11
124.7784352353
 21
88.3544503552
 31
0.0
  0
ARC
  5
CB
330
1F
100
AcDbEntity
  8
0
  6
Continuous
 62
     7
370
    15
100
AcDbCircle
 10
124.9783721462
 20
88.3594734663
 30
0.0
 40
0.1999999999999917
100
AcDbArc
 50
181.4391666667
 51
271.4391666667
  0
LINE
  5
CC
330
1F
100
AcDbEntity
  8
0
  6
Continuous
 62
     7
370
    15
100
AcDbLine
 10
124.7784352353
 20
44.3142527861
 30
0.0
 11
124.7784352353
 21
59.8491733089
 31
0.0
  0
ARC
  5
CD
330
1F
100
AcDbEntity
  8
0
  6
Continuous
 62
     7
370
    15
100
AcDbCircle
 10
124.9783721462
 20
44.3092296749
 30
0.0
 40
0.1999999999999917
100
AcDbArc
 50
88.5608333333
 51
178.5608333333
  0
LINE
  5
CE
330
1F
100
AcDbEntity
  8
0
  6
Continuous
 62
     7
370
    15
100
AcDbLine
 10
90.4784352353
 20
45.1759881743
 30
0.0
 11
90.4784352353
 21
60.2800410031
 31
0.0
  0
LINE
  5
CF
330
1F
100
AcDbEntity
  8
0
  6
Continuous
 62
     7
370
    15
100
AcDbLine
 10
90.4784352353
 20
45.1759881743
 30
0.0
 11
124.7784352353
 21
44.3142527861
 31
0.0
  0
LINE
  5
D0
330
1F
100
AcDbEntity
  8
0
  6
Continuous
 62
     7
370
    15
100
AcDbLine
 10
124.9833952573
 20
88.1595365554
 30
0.0
 11
126.1619229488
 21
88.1891452731
 31
0.0
  0
LINE
  5
D1
330
1F
100
AcDbEntity
  8
0
  6
Continuous
 62
     7
370
    15
100
AcDbLine
 10
124.9833952573
 20
44.5091665859
 30
0.0
 11
126.1619229488
 21
44.4795578681
 31
0.0
  0
LINE
  5
D2
330
1F
100
AcDbEntity
  8
0
  6
Continuous
 62
     7
370
    15
100
AcDbLine
 10
88.9784352353
 20
86.6266895631
 30
0.0
 11
90.4784352353
 21
87.4927149669
 31
0.0
  0
LINE
  5
D3
330
1F
100
AcDbEntity
  8
0
  6
Continuous
 62
     7
370
    15
100
AcDbLine
 10
88.9784352353
 20
71.9556494363
 30
0.0
 11
88.9784352353
 21
86.6266895631
 31
0.0
  0
LINE
  5
D4
330
1F
100
AcDbEntity
  8
0
  6
Continuous
 62
     7
370
    15
100
AcDbLine
 10
88.9784352353
 20
46.0420135781
 30
0.0
 11
90.4784352353
 21
45.1759881743
 31
0.0
  0
LINE
  5
D5
330
1F
100
AcDbEntity
  8
0
  6
Continuous
 62
     7
370
    15
100
AcDbLine
 10
88.9784352353
 20
46.0420135781
 30
0.0
 11
88.9784352353
 21
60.713053705
 31
0.0
  0
ELLIPSE
  5
D6
330
1F
100
AcDbEntity
  8
0
  6
Continuous
 62
     7
370
    15
100
AcDbEllipse
 10
183.5823971631
 20
43.0225845772
 30
0.0
 11
5.990149005310798
 21
3.165847926406478
 31
0.0
210
0.0
220
0.0
230
1.0
 40
0.1085581124
 41
1.513485212445796
 42
2.822482151441523
  0
ELLIPSE
  5
D7
330
1F
100
AcDbEntity
  8
0
  6
Continuous
 62
     7
370
    15
100
AcDbEllipse
 10
183.5823971631
 20
89.6461185641
 30
0.0
 11
5.990149005310795
 21
-3.165847926406471
 31
0.0
210
0.0
220
0.0
230
1.0
 40
0.1085581124
 41
3.460703155738174
 42
4.769700094733797
  0
LINE
  5
D8
330
1F
100
AcDbEntity
  8
0
  6
Continuous
 62
     7
370
    15
100
AcDbLine
 10
206.9128153138
 20
66.6303278085
 30
0.0
 11
207.2930778533
 21
66.4323756599
 31
0.0
  0
LINE
  5
D9
330
1F
100
AcDbEntity
  8
0
  6
Continuous
 62
     7
370
    15
100
AcDbLine
 10
207.2772401427
 20
66.3412728255
 30
0.0
 11
206.8564868529
 21
66.3412728255
 31
0.0
  0
LINE
  5
DA
330
1F
100
AcDbEntity
  8
0
  6
Continuous
 62
     7
370
    15
100
AcDbLine
 10
206.7824154321
 20
66.3798319665
 30
0.0
 11
206.8564868529
 21
66.3412728255
 31
0.0
  0
LINE
  5
DB
330
1F
100
AcDbEntity
  8
0
  6
Continuous
 62
     7
370
    15
100
AcDbLine
 10
207.2779858607
 20
66.3343515706
 30
0.0
 11
206.843191246
 21
66.3343515706
 31
0.0
  0
LINE
  5
DC
330
1F
100
AcDbEntity
  8
0
  6
Continuous
 62
     7
370
    15
100
AcDbLine
 10
206.843191246
 20
66.3343515706
 30
0.0
 11
207.4206025544
 21
66.0337702688
 31
0.0
  0
LINE
  5
DD
330
1F
100
AcDbEntity
  8
0
  6
Continuous
 62
     7
370
    15
100
AcDbLine
 10
209.8560909173
 20
67.9166103759
 30
0.0
 11
208.0671868469
 21
68.8478548915
 31
0.0
  0
LINE
  5
DE
330
1F
100
AcDbEntity
  8
0
  6
Continuous
 62
     7
370
    15
100
AcDbLine
 10
210.1618898758
 20
68.0757992378
 30
0.0
 11
208.1975867285
 21
69.0983507335
 31
0.0
  0
LINE
  5
DF
330
1F
100
AcDbEntity
  8
0
  6
Continuous
 62
     7
370
    15
100
AcDbLine
 10
206.8564868529
 20
66.3412728255
 30
0.0
 11
206.843191246
 21
66.3343515706
 31
0.0
  0
ARC
  5
E0
330
1F
100
AcDbEntity
  8
0
  6
Continuous
 62
     7
370
    15
100
AcDbCircle
 10
207.4900010803
 20
67.73909135
 30
0.0
 40
1.532404490076669
100
AcDbArc
 50
62.5
 51
242.5
  0
LINE
  5
E1
330
1F
100
AcDbEntity
  8
0
  6
Continuous
 62
     7
370
    15
100
AcDbLine
 10
216.7925060553
 20
61.1412235956
 30
0.0
 11
183.5823971631
 21
43.8531351611
 31
0.0
  0
LINE
  5
E2
330
1F
100
AcDbEntity
  8
0
  6
Continuous
 62
     7
370
    15
100
AcDbLine
 10
216.7925060553
 20
71.5274795457
 30
0.0
 11
183.5823971631
 21
88.8155679802
 31
0.0
  0
ARC
  5
E3
330
1F
100
AcDbEntity
  8
0
  6
Continuous
 62
     7
370
    15
100
AcDbCircle
 10
207.4900010803
 20
67.73909135
 30
0.0
 40
1.250000000000011
100
AcDbArc
 50
62.5
 51
242.5
  0
SPLINE
  5
E4
330
1F
100
AcDbEntity
  8
0
  6
HIDDEN
 62
     7
370
     0
100
AcDbSpline
210
0.0
220
0.0
230
1.0
 70
     8
 71
     3
 72
    60
 73
    56
 74
     0
 42
0.00000001
 43
0.00000001
 12
1.0
 22
0.0
 32
0.0
 13
1.0
 23
0.0
 33
0.0
 40
-0.0624999999999998
 40
-0.0624999999999998
 40
0.0
 40
0.0
 40
0.0312499999999999
 40
0.0312499999999999
 40
0.0624999999999998
 40
0.0624999999999998
 40
0.0937499999999997
 40
0.0937499999999997
 40
0.1249999999999996
 40
0.1249999999999996
 40
0.1874999999999993
 40
0.1874999999999993
 40
0.249999999999999
 40
0.249999999999999
 40
0.2812499999999991
 40
0.2812499999999991
 40
0.3124999999999992
 40
0.3124999999999992
 40
0.3437499999999992
 40
0.3437499999999992
 40
0.3749999999999993
 40
0.3749999999999993
 40
0.4062499999999994
 40
0.4062499999999994
 40
0.4374999999999994
 40
0.4374999999999994
 40
0.4687499999999996
 40
0.4687499999999996
 40
0.4999999999999997
 40
0.4999999999999997
 40
0.5624999999999998
 40
0.5624999999999998
 40
0.625
 40
0.625
 40
0.65625
 40
0.65625
 40
0.6875
 40
0.6875
 40
0.71875
 40
0.71875
 40
0.75
 40
0.75
 40
0.7812500000000001
 40
0.7812500000000001
 40
0.8125000000000001
 40
0.8125000000000001
 40
0.8437500000000001
 40
0.8437500000000001
 40
0.8750000000000001
 40
0.8750000000000001
 40
0.9062500000000001
 40
0.9062500000000001
 40
0.9375000000000002
 40
0.9375000000000002
 40
1.0
 40
1.0
 40
1.03125
 40
1.03125
 10
140.978435235254
 20
66.07002104553784
 30
0.0
 10
140.978435235254
 20
66.46651683316792
 30
0.0
 10
140.9654633767653
 20
66.59646689417205
 30
0.0
 10
140.9146432070729
 20
66.85211982753214
 30
0.0
 10
140.8761758836059
 20
66.97914933408146
 30
0.0
 10
140.7757776475338
 20
67.22133746520598
 30
0.0
 10
140.7143446165607
 20
67.33619895775884
 30
0.0
 10
140.5692097850157
 20
67.55357915358299
 30
0.0
 10
140.4847546676079
 20
67.65647672078161
 30
0.0
 10
140.2080352172495
 20
67.93314375978939
 30
0.0
 10
139.9849583253315
 20
68.08214185026937
 30
0.0
 10
139.5036749631112
 20
68.28165299073406
 30
0.0
 10
139.2404445441202
 20
68.33421109373076
 30
0.0
 10
138.8490423424322
 20
68.33442137610885
 30
0.0
 10
138.7165193143234
 20
68.32143560538172
 30
0.0
 10
138.4599888610823
 20
68.2704084571679
 30
0.0
 10
138.3353020267857
 20
68.23265325801752
 30
0.0
 10
138.0931227645502
 20
68.13251492510878
 30
0.0
 10
137.9760292324001
 20
68.06990925769723
 30
0.0
 10
137.7593142290447
 20
67.92517596443228
 30
0.0
 10
137.6582954021819
 20
67.8425486171527
 30
0.0
 10
137.4715105147298
 20
67.65594356390115
 30
0.0
 10
137.3886536335336
 20
67.55482850002497
 30
0.0
 10
137.2437693684598
 20
67.33829569603512
 30
0.0
 10
137.1811318606389
 20
67.22142548843401
 30
0.0
 10
137.0806830372391
 20
66.97912761778383
 30
0.0
 10
137.0428319362218
 20
66.85446361932286
 30
0.0
 10
136.9916103709655
 20
66.598176575259
 30
0.0
 10
136.9784822443483
 20
66.46560457951341
 30
0.0
 10
136.9783416040081
 20
66.07400038673943
 30
0.0
 10
137.0306663533799
 20
65.81083505541548
 30
0.0
 10
137.2297774154371
 20
65.32932968624233
 30
0.0
 10
137.3786397518944
 20
65.10607814675824
 30
0.0
 10
137.6549607112199
 20
64.82922184786936
 30
0.0
 10
137.7577243595935
 20
64.74470840102568
 30
0.0
 10
137.9751079169729
 20
64.5992911275854
 30
0.0
 10
138.0899066849294
 20
64.53777992852702
 30
0.0
 10
138.3317834083534
 20
64.4372500802722
 30
0.0
 10
138.4589370163536
 20
64.3986050570542
 30
0.0
 10
138.7146030257862
 20
64.34754872950322
 30
0.0
 10
138.8444690635422
 20
64.33448387095758
 30
0.0
 10
139.1084215902739
 20
64.33422125015964
 30
0.0
 10
139.2388259136979
 20
64.34709825040368
 30
0.0
 10
139.4944766770773
 20
64.39768425420947
 30
0.0
 10
139.6213422261916
 20
64.4359606188313
 30
0.0
 10
139.8638626841375
 20
64.53623148631134
 30
0.0
 10
139.9787893227979
 20
64.59758751045221
 30
0.0
 10
140.1961607916299
 20
64.74243380562503
 30
0.0
 10
140.2991746042921
 20
64.82681132011966
 30
0.0
 10
140.4838751498741
 20
65.01121864030793
 30
0.0
 10
140.5667048841306
 20
65.11179170357738
 30
0.0
 10
140.7129573227281
 20
65.33001784415636
 30
0.0
 10
140.7753258035205
 20
65.44657295407762
 30
0.0
 10
140.9252819550873
 20
65.80742254811139
 30
0.0
 10
140.978435235254
 20
66.07002104553784
 30
0.0
 10
140.978435235254
 20
66.46651683316792
 30
0.0
  0
SPLINE
  5
E5
330
1F
100
AcDbEntity
  8
0
  6
HIDDEN
 62
     7
370
     0
100
AcDbSpline
210
0.0
220
0.0
230
1.0
 70
     8
 71
     3
 72
    12
 73
     8
 74
     0
 42
0.00000001
 43
0.00000001
 12
1.0
 22
0.0
 32
0.0
 13
1.0
 23
0.0
 33
0.0
 40
0.0
 40
0.0
 40
0.0
 40
0.0
 40
0.4999999999999981
 40
0.4999999999999981
 40
0.749999999999999
 40
0.749999999999999
 40
1.0
 40
1.0
 40
1.0
 40
1.0
 10
137.0731793469283
 20
56.42498224993935
 30
0.0
 10
137.1039015888474
 20
56.53753804934853
 30
0.0
 10
137.1467388033825
 20
56.65029590908811
 30
0.0
 10
137.2461658275823
 20
56.79983679488447
 30
0.0
 10
137.285918022399
 20
56.84712952659134
 30
0.0
 10
137.3839594792572
 20
56.92086581991278
 30
0.0
 10
137.4435155348447
 20
56.94628513928849
 30
0.0
 10
137.5061920488205
 20
56.94628513928849
 30
0.0
  0
LINE
  5
E6
330
1F
100
AcDbEntity
  8
0
  6
HIDDEN
 62
     7
370
     0
100
AcDbLine
 10
137.5061920488
 20
56.9462851393
 30
0.0
 11
140.4506784217
 21
56.9462851393
 31
0.0
  0
SPLINE
  5
E7
330
1F
100
AcDbEntity
  8
0
  6
HIDDEN
 62
     7
370
     0
100
AcDbSpline
210
0.0
220
0.0
230
1.0
 70
     8
 71
     3
 72
    12
 73
     8
 74
     0
 42
0.00000001
 43
0.00000001
 12
1.0
 22
0.0
 32
0.0
 13
1.0
 23
0.0
 33
0.0
 40
0.0
 40
0.0
 40
0.0
 40
0.0
 40
0.25
 40
0.25
 40
0.5
 40
0.5
 40
1.0
 40
1.0
 40
1.0
 40
1.0
 10
140.4506784216876
 20
56.9462851392885
 30
0.0
 10
140.513758460181
 20
56.9462851392885
 30
0.0
 10
140.5729070823624
 20
56.92092082007355
 30
0.0
 10
140.6713796324315
 20
56.84675595970064
 30
0.0
 10
140.7104162444162
 20
56.80023561914651
 30
0.0
 10
140.8103127111952
 20
56.65009327630126
 30
0.0
 10
140.8527335922619
 20
56.53840006932912
 30
0.0
 10
140.8836911235798
 20
56.42498224993935
 30
0.0
  0
ELLIPSE
  5
E8
330
1F
100
AcDbEntity
  8
0
  6
HIDDEN
 62
     7
370
     0
100
AcDbEllipse
 10
124.6312810459
 20
66.3343515706
 30
0.0
 11
-14.75368316065612
 21
31.09325491558116
 31
0.0
210
0.0
220
0.0
230
1.0
 40
0.3419987131
 41
3.300734856217129
 42
4.231496223360779
  0
SPLINE
  5
E9
330
1F
100
AcDbEntity
  8
0
  6
HIDDEN
 62
     7
370
     0
100
AcDbSpline
210
0.0
220
0.0
230
1.0
 70
     8
 71
     3
 72
    12
 73
     8
 74
     0
 42
0.00000001
 43
0.00000001
 12
1.0
 22
0.0
 32
0.0
 13
1.0
 23
0.0
 33
0.0
 40
0.0
 40
0.0
 40
0.0
 40
0.0
 40
0.4999999999999953
 40
0.4999999999999953
 40
0.7499999999999977
 40
0.7499999999999977
 40
1.0
 40
1.0
 40
1.0
 40
1.0
 10
140.8836911235798
 20
36.43360911050735
 30
0.0
 10
140.8529688816607
 20
36.39630712755431
 30
0.0
 10
140.8101316671256
 20
36.3596952955079
 30
0.0
 10
140.7107046429258
 20
36.3119305122227
 30
0.0
 10
140.6709524481091
 20
36.29697299674034
 30
0.0
 10
140.5729109912509
 20
36.27378305097119
 30
0.0
 10
140.5133549356634
 20
36.26585961175148
 30
0.0
 10
140.4506784216876
 20
36.26585961175148
 30
0.0
  0
LINE
  5
EA
330
1F
100
AcDbEntity
  8
0
  6
HIDDEN
 62
     7
370
     0
100
AcDbLine
 10
140.4506784217
 20
36.2658596118
 30
0.0
 11
137.5061920488
 21
36.2658596118
 31
0.0
  0
SPLINE
  5
EB
330
1F
100
AcDbEntity
  8
0
  6
HIDDEN
 62
     7
370
     0
100
AcDbSpline
210
0.0
220
0.0
230
1.0
 70
     8
 71
     3
 72
    12
 73
     8
 74
     0
 42
0.00000001
 43
0.00000001
 12
1.0
 22
0.0
 32
0.0
 13
1.0
 23
0.0
 33
0.0
 40
0.0
 40
0.0
 40
0.0
 40
0.0
 40
0.2499999999999999
 40
0.2499999999999999
 40
0.4999999999999999
 40
0.4999999999999999
 40
1.0
 40
1.0
 40
1.0
 40
1.0
 10
137.5061920488205
 20
36.26585961175149
 30
0.0
 10
137.4431120103271
 20
36.26585961175148
 30
0.0
 10
137.3839633881457
 20
36.27376553796392
 30
0.0
 10
137.2854908380766
 20
36.29709069940017
 30
0.0
 10
137.2464542260919
 20
36.31180348923186
 30
0.0
 10
137.1465577593129
 20
36.3597592899628
 30
0.0
 10
137.1041368782462
 20
36.39602144654285
 30
0.0
 10
137.0731793469282
 20
36.43360911050735
 30
0.0
  0
ELLIPSE
  5
EC
330
1F
100
AcDbEntity
  8
0
  6
HIDDEN
 62
     7
370
     0
100
AcDbEllipse
 10
153.3255894246
 20
66.3343515706
 30
0.0
 11
14.75368316065612
 21
31.09325491558116
 31
0.0
210
0.0
220
0.0
230
1.0
 40
0.3419987131
 41
2.051689083818819
 42
2.982450450962495
  0
SPLINE
  5
ED
330
1F
100
AcDbEntity
  8
0
  6
HIDDEN
 62
     7
370
     0
100
AcDbSpline
210
0.0
220
0.0
230
1.0
 70
     8
 71
     3
 72
    12
 73
     8
 74
     0
 42
0.00000001
 43
0.00000001
 12
1.0
 22
0.0
 32
0.0
 13
1.0
 23
0.0
 33
0.0
 40
0.0
 40
0.0
 40
0.0
 40
0.0
 40
0.4999999999999963
 40
0.4999999999999963
 40
0.7499999999999981
 40
0.7499999999999981
 40
1.0
 40
1.0
 40
1.0
 40
1.0
 10
137.0731793469283
 20
96.23509403074192
 30
0.0
 10
137.1039015888474
 20
96.27239601369497
 30
0.0
 10
137.1467388033825
 20
96.30900784574133
 30
0.0
 10
137.2461658275823
 20
96.35677262902654
 30
0.0
 10
137.285918022399
 20
96.37173014450892
 30
0.0
 10
137.3839594792572
 20
96.39492009027806
 30
0.0
 10
137.4435155348447
 20
96.40284352949777
 30
0.0
 10
137.5061920488205
 20
96.40284352949777
 30
0.0
  0
LINE
  5
EE
330
1F
100
AcDbEntity
  8
0
  6
HIDDEN
 62
     7
370
     0
100
AcDbLine
 10
137.5061920488
 20
96.4028435295
 30
0.0
 11
140.4506784217
 21
96.4028435295
 31
0.0
  0
SPLINE
  5
EF
330
1F
100
AcDbEntity
  8
0
  6
HIDDEN
 62
     7
370
     0
100
AcDbSpline
210
0.0
220
0.0
230
1.0
 70
     8
 71
     3
 72
    12
 73
     8
 74
     0
 42
0.00000001
 43
0.00000001
 12
1.0
 22
0.0
 32
0.0
 13
1.0
 23
0.0
 33
0.0
 40
0.0
 40
0.0
 40
0.0
 40
0.0
 40
0.2499999999999991
 40
0.2499999999999991
 40
0.4999999999999982
 40
0.4999999999999982
 40
1.0
 40
1.0
 40
1.0
 40
1.0
 10
140.4506784216876
 20
96.40284352949777
 30
0.0
 10
140.513758460181
 20
96.40284352949777
 30
0.0
 10
140.5729070823624
 20
96.39493760328533
 30
0.0
 10
140.6713796324315
 20
96.37161244184908
 30
0.0
 10
140.7104162444162
 20
96.35689965201739
 30
0.0
 10
140.8103127111952
 20
96.30894385128647
 30
0.0
 10
140.8527335922619
 20
96.27268169470639
 30
0.0
 10
140.8836911235798
 20
96.2350940307419
 30
0.0
  0
ELLIPSE
  5
F0
330
1F
100
AcDbEntity
  8
0
  6
HIDDEN
 62
     7
370
     0
100
AcDbEllipse
 10
124.6312810459
 20
66.3343515706
 30
0.0
 11
14.75368316065625
 21
31.09325491558116
 31
0.0
210
0.0
220
0.0
230
1.0
 40
0.3419987131
 41
5.193281737408638
 42
6.124043104552341
  0
SPLINE
  5
F1
330
1F
100
AcDbEntity
  8
0
  6
HIDDEN
 62
     7
370
     0
100
AcDbSpline
210
0.0
220
0.0
230
1.0
 70
     8
 71
     3
 72
    12
 73
     8
 74
     0
 42
0.00000001
 43
0.00000001
 12
1.0
 22
0.0
 32
0.0
 13
1.0
 23
0.0
 33
0.0
 40
0.0
 40
0.0
 40
0.0
 40
0.0
 40
0.5
 40
0.5
 40
0.75
 40
0.75
 40
1.0
 40
1.0
 40
1.0
 40
1.0
 10
140.8836911235798
 20
76.24372089131019
 30
0.0
 10
140.8529688816607
 20
76.131165091901
 30
0.0
 10
140.8101316671256
 20
76.01840723216141
 30
0.0
 10
140.7107046429258
 20
75.86886634636505
 30
0.0
 10
140.6709524481091
 20
75.82157361465819
 30
0.0
 10
140.5729109912509
 20
75.74783732133676
 30
0.0
 10
140.5133549356634
 20
75.72241800196106
 30
0.0
 10
140.4506784216876
 20
75.72241800196106
 30
0.0
  0
LINE
  5
F2
330
1F
100
AcDbEntity
  8
0
  6
HIDDEN
 62
     7
370
     0
100
AcDbLine
 10
140.4506784217
 20
75.722418002
 30
0.0
 11
137.5061920488
 21
75.722418002
 31
0.0
  0
SPLINE
  5
F3
330
1F
100
AcDbEntity
  8
0
  6
HIDDEN
 62
     7
370
     0
100
AcDbSpline
210
0.0
220
0.0
230
1.0
 70
     8
 71
     3
 72
    12
 73
     8
 74
     0
 42
0.00000001
 43
0.00000001
 12
1.0
 22
0.0
 32
0.0
 13
1.0
 23
0.0
 33
0.0
 40
0.0
 40
0.0
 40
0.0
 40
0.0
 40
0.2500000000000009
 40
0.2500000000000009
 40
0.5000000000000018
 40
0.5000000000000018
 40
1.0
 40
1.0
 40
1.0
 40
1.0
 10
137.5061920488205
 20
75.72241800196106
 30
0.0
 10
137.4431120103271
 20
75.72241800196106
 30
0.0
 10
137.3839633881457
 20
75.74778232117599
 30
0.0
 10
137.2854908380766
 20
75.82194718154891
 30
0.0
 10
137.2464542260919
 20
75.86846752210302
 30
0.0
 10
137.1465577593129
 20
76.01860986494827
 30
0.0
 10
137.1041368782462
 20
76.13030307192042
 30
0.0
 10
137.0731793469283
 20
76.24372089131018
 30
0.0
  0
ELLIPSE
  5
F4
330
1F
100
AcDbEntity
  8
0
  6
HIDDEN
 62
     7
370
     0
100
AcDbEllipse
 10
153.3255894246
 20
66.3343515706
 30
0.0
 11
-14.75368316065629
 21
31.09325491558115
 31
0.0
210
0.0
220
0.0
230
1.0
 40
0.3419987131
 41
0.1591422026272823
 42
1.089903569770961
  0
ELLIPSE
  5
F5
330
1F
100
AcDbEntity
  8
0
  6
HIDDEN
 62
     7
370
     0
100
AcDbEllipse
 10
226.8481857198
 20
66.3343515706
 30
0.0
 11
61.06272678867776
 21
31.31365303078863
 31
0.0
210
0.0
220
0.0
230
1.0
 40
0.0560288874
 41
1.68865610549769
 42
3.250419293298576
  0
ELLIPSE
  5
F6
330
1F
100
AcDbEntity
  8
0
  6
HIDDEN
 62
     7
370
     0
100
AcDbEllipse
 10
226.3015894488
 20
66.3343515706
 30
0.0
 11
0.0
 21
31.5
 31
0.0
210
0.0
220
0.0
230
1.0
 40
0.2659121379
 41
1.56176318780062
 42
1.579829465789173
  0
ELLIPSE
  5
F7
330
1F
100
AcDbEntity
  8
0
  6
HIDDEN
 62
     7
370
     0
100
AcDbEllipse
 10
226.8481857198
 20
66.3343515706
 30
0.0
 11
61.06272678867777
 21
-31.31365303078864
 31
0.0
210
0.0
220
0.0
230
1.0
 40
0.0560288874
 41
3.032766013881257
 42
4.594529201681901
  0
LINE
  5
F8
330
1F
100
AcDbEntity
  8
0
  6
HIDDEN
 62
     7
370
     0
100
AcDbLine
 10
126.9784352353
 20
97.3343515697
 30
0.0
 11
126.9784352353
 21
35.3343515706
 31
0.0
  0
CIRCLE
  5
F9
330
1F
100
AcDbEntity
  8
0
  6
HIDDEN
 62
     7
370
     0
100
AcDbCircle
 10
163.9784352353
 20
66.3343515706
 30
0.0
 40
2.5
  0
CIRCLE
  5
FA
330
1F
100
AcDbEntity
  8
0
  6
HIDDEN
 62
     7
370
     0
100
AcDbCircle
 10
163.9784352353
 20
66.3343515706
 30
0.0
 40
3.0
  0
LINE
  5
FB
330
1F
100
AcDbEntity
  8
0
  6
HIDDEN
 62
     7
370
     0
100
AcDbLine
 10
126.9784352353
 20
42.0843515706
 30
0.0
 11
126.9784352353
 21
90.5843515706
 31
0.0
  0
SPLINE
  5
FC
330
1F
100
AcDbEntity
  8
0
  6
HIDDEN
 62
     7
370
     0
100
AcDbSpline
210
0.0
220
0.0
230
1.0
 70
     8
 71
     3
 72
    12
 73
     8
 74
     0
 42
0.00000001
 43
0.00000001
 12
1.0
 22
0.0
 32
0.0
 13
1.0
 23
0.0
 33
0.0
 40
0.0
 40
0.0
 40
0.0
 40
0.0
 40
0.5000000000000007
 40
0.5000000000000007
 40
0.7500000000000003
 40
0.7500000000000003
 40
1.0
 40
1.0
 40
1.0
 40
1.0
 10
126.161922948807
 20
81.78661955245543
 30
0.0
 10
126.2183291274873
 20
81.7387971787956
 30
0.0
 10
126.288492028959
 20
81.69852633185704
 30
0.0
 10
126.4065027423482
 20
81.6904804633801
 30
0.0
 10
126.4467085259437
 20
81.69704306171899
 30
0.0
 10
126.5204292226768
 20
81.7244251561726
 30
0.0
 10
126.5532899444633
 20
81.74418664670296
 30
0.0
 10
126.5834583463925
 20
81.76711935789099
 30
0.0
  0
SPLINE
  5
FD
330
1F
100
AcDbEntity
  8
0
  6
HIDDEN
 62
     7
370
     0
100
AcDbSpline
210
0.0
220
0.0
230
1.0
 70
     8
 71
     3
 72
    16
 73
    12
 74
     0
 42
0.00000001
 43
0.00000001
 12
1.0
 22
0.0
 32
0.0
 13
1.0
 23
0.0
 33
0.0
 40
0.0
 40
0.0
 40
0.0
 40
0.0
 40
0.0625000000000009
 40
0.0625000000000009
 40
0.1250000000000018
 40
0.1250000000000018
 40
0.2500000000000019
 40
0.2500000000000019
 40
0.5000000000000064
 40
0.5000000000000064
 40
1.0
 40
1.0
 40
1.0
 40
1.0
 10
126.5834583463474
 20
81.76711935793908
 30
0.0
 10
126.5950712461868
 20
81.77594698092047
 30
0.0
 10
126.6084224306192
 20
81.78378136280239
 30
0.0
 10
126.6378222702384
 20
81.79209148887477
 30
0.0
 10
126.6526629947937
 20
81.79159566963975
 30
0.0
 10
126.6884962027623
 20
81.78014469867037
 30
0.0
 10
126.7026094105839
 20
81.76346419781174
 30
0.0
 10
126.7371007818028
 20
81.7113435120547
 30
0.0
 10
126.7481848529132
 20
81.6715540180297
 30
0.0
 10
126.7743076707092
 20
81.54821738593257
 30
0.0
 10
126.7784352352541
 20
81.46079597543394
 30
0.0
 10
126.7784352352541
 20
81.37205873311572
 30
0.0
  0
LINE
  5
FE
330
1F
100
AcDbEntity
  8
0
  6
HIDDEN
 62
     7
370
     0
100
AcDbLine
 10
126.7784352353
 20
51.2966444081
 30
0.0
 11
126.7784352353
 21
81.3720587331
 31
0.0
  0
SPLINE
  5
FF
330
1F
100
AcDbEntity
  8
0
  6
HIDDEN
 62
     7
370
     0
100
AcDbSpline
210
0.0
220
0.0
230
1.0
 70
     8
 71
     3
 72
    16
 73
    12
 74
     0
 42
0.00000001
 43
0.00000001
 12
1.0
 22
0.0
 32
0.0
 13
1.0
 23
0.0
 33
0.0
 40
0.0
 40
0.0
 40
0.0
 40
0.0
 40
0.5000000000000066
 40
0.5000000000000066
 40
0.7500000000000098
 40
0.7500000000000098
 40
0.8750000000000041
 40
0.8750000000000041
 40
0.9375000000000021
 40
0.9375000000000021
 40
1.0
 40
1.0
 40
1.0
 40
1.0
 10
126.7784352352541
 20
51.2966444081334
 30
0.0
 10
126.7784352352541
 20
51.20751804294466
 30
0.0
 10
126.7742889601761
 20
51.12065667533123
 30
0.0
 10
126.7483233647826
 20
50.9976744288372
 30
0.0
 10
126.7368624594051
 20
50.95690313360592
 30
0.0
 10
126.7025507216308
 20
50.90519881360616
 30
0.0
 10
126.6885259857011
 20
50.88852844701574
 30
0.0
 10
126.6525030226674
 20
50.87707622655901
 30
0.0
 10
126.6377485135777
 20
50.87662318028401
 30
0.0
 10
126.6083963524308
 20
50.88493850150016
 30
0.0
 10
126.5950564779268
 20
50.89276738657846
 30
0.0
 10
126.5834583463784
 20
50.90158378334109
 30
0.0
  0
SPLINE
  5
100
330
1F
100
AcDbEntity
  8
0
  6
HIDDEN
 62
     7
370
     0
100
AcDbSpline
210
0.0
220
0.0
230
1.0
 70
     8
 71
     3
 72
    12
 73
     8
 74
     0
 42
0.00000001
 43
0.00000001
 12
1.0
 22
0.0
 32
0.0
 13
1.0
 23
0.0
 33
0.0
 40
0.0
 40
0.0
 40
0.0
 40
0.0
 40
0.2499999999999994
 40
0.2499999999999994
 40
0.4999999999999991
 40
0.4999999999999991
 40
1.0
 40
1.0
 40
1.0
 40
1.0
 10
126.5834583463855
 20
50.90158378334996
 30
0.0
 10
126.5532665046682
 20
50.92453431244778
 30
0.0
 10
126.5199075352537
 20
50.94450378647196
 30
0.0
 10
126.4467702506731
 20
50.97160492009745
 30
0.0
 10
126.4065283780191
 20
50.97820566074289
 30
0.0
 10
126.2888226010506
 20
50.97023678623619
 30
0.0
 10
126.2184121232712
 20
50.92997632806832
 30
0.0
 10
126.1619229488029
 20
50.88208358879017
 30
0.0
  0
SPLINE
  5
101
330
1F
100
AcDbEntity
  8
0
  6
HIDDEN
 62
     7
370
     0
100
AcDbSpline
210
0.0
220
0.0
230
1.0
 70
     8
 71
     3
 72
    12
 73
     8
 74
     0
 42
0.00000001
 43
0.00000001
 12
1.0
 22
0.0
 32
0.0
 13
1.0
 23
0.0
 33
0.0
 40
0.0
 40
0.0
 40
0.0
 40
0.0
 40
0.2500000000000012
 40
0.2500000000000012
 40
0.4999999999999996
 40
0.4999999999999996
 40
1.0
 40
1.0
 40
1.0
 40
1.0
 10
126.1619229488025
 20
50.88208358879037
 30
0.0
 10
126.0737690110648
 20
50.80734478093629
 30
0.0
 10
126.0134155864361
 20
50.7163642804539
 30
0.0
 10
125.9071536283692
 20
50.5274504577013
 30
0.0
 10
125.8649214618071
 20
50.43094599816072
 30
0.0
 10
125.75385076649
 20
50.14017824399357
 30
0.0
 10
125.7009139900632
 20
49.94451142944983
 30
0.0
 10
125.6571148916944
 20
49.75044494438352
 30
0.0
  0
SPLINE
  5
102
330
1F
100
AcDbEntity
  8
0
  6
HIDDEN
 62
     7
370
     0
100
AcDbSpline
210
0.0
220
0.0
230
1.0
 70
     8
 71
     3
 72
    12
 73
     8
 74
     0
 42
0.00000001
 43
0.00000001
 12
1.0
 22
0.0
 32
0.0
 13
1.0
 23
0.0
 33
0.0
 40
0.0
 40
0.0
 40
0.0
 40
0.0
 40
0.4999999999999991
 40
0.4999999999999991
 40
0.7499999999999996
 40
0.7499999999999996
 40
1.0
 40
1.0
 40
1.0
 40
1.0
 10
125.6571148916944
 20
44.56427061562245
 30
0.0
 10
125.700861432531
 20
44.53767644498127
 30
0.0
 10
125.7537457877625
 20
44.51791621965555
 30
0.0
 10
125.8653128750987
 20
44.49746522942647
 30
0.0
 10
125.9078964716416
 20
44.49220500477003
 30
0.0
 10
126.0128131987234
 20
44.48432221084737
 30
0.0
 10
126.0743468065682
 20
44.48175808566822
 30
0.0
 10
126.1619229487944
 20
44.47955786814858
 30
0.0
  0
LINE
  5
103
330
1F
100
AcDbEntity
  8
0
  6
HIDDEN
 62
     7
370
     0
100
AcDbLine
 10
126.7784352353
 20
43.7945312917
 30
0.0
 11
126.7784352353
 21
44.2747570824
 31
0.0
  0
LINE
  5
104
330
1F
100
AcDbEntity
  8
0
  6
HIDDEN
 62
     7
370
     0
100
AcDbLine
 10
126.7784352353
 20
88.3939460589
 30
0.0
 11
126.7784352353
 21
88.8741718495
 31
0.0
  0
SPLINE
  5
105
330
1F
100
AcDbEntity
  8
0
  6
HIDDEN
 62
     7
370
     0
100
AcDbSpline
210
0.0
220
0.0
230
1.0
 70
     8
 71
     3
 72
    12
 73
     8
 74
     0
 42
0.00000001
 43
0.00000001
 12
1.0
 22
0.0
 32
0.0
 13
1.0
 23
0.0
 33
0.0
 40
0.0
 40
0.0
 40
0.0
 40
0.0
 40
0.2500000000000001
 40
0.2500000000000001
 40
0.5000000000000001
 40
0.5000000000000001
 40
1.0
 40
1.0
 40
1.0
 40
1.0
 10
126.1619229488023
 20
88.18914527310046
 30
0.0
 10
126.073238288946
 20
88.18691720575947
 30
0.0
 10
126.0133198732226
 20
88.18441542172914
 30
0.0
 10
125.9076606459018
 20
88.17648398589313
 30
0.0
 10
125.8650194077869
 20
88.17119183099629
 30
0.0
 10
125.7538300656844
 20
88.15078689050915
 30
0.0
 10
125.7009033835634
 20
88.13105219892228
 30
0.0
 10
125.6571148916944
 20
88.10443252562666
 30
0.0
  0
SPLINE
  5
106
330
1F
100
AcDbEntity
  8
0
  6
HIDDEN
 62
     7
370
     0
100
AcDbSpline
210
0.0
220
0.0
230
1.0
 70
     8
 71
     3
 72
    12
 73
     8
 74
     0
 42
0.00000001
 43
0.00000001
 12
1.0
 22
0.0
 32
0.0
 13
1.0
 23
0.0
 33
0.0
 40
0.0
 40
0.0
 40
0.0
 40
0.0
 40
0.4999999999999982
 40
0.4999999999999982
 40
0.7499999999999991
 40
0.7499999999999991
 40
1.0
 40
1.0
 40
1.0
 40
1.0
 10
125.6571148916928
 20
82.9182581968658
 30
0.0
 10
125.7008763679916
 20
82.72435840890374
 30
0.0
 10
125.7537826836446
 20
82.52850204496687
 30
0.0
 10
125.865493881292
 20
82.23635989846791
 30
0.0
 10
125.9080133248783
 20
82.13964196176998
 30
0.0
 10
126.0131366674458
 20
81.9529175253455
 30
0.0
 10
126.0747026311634
 20
81.86056681707579
 30
0.0
 10
126.1619229488062
 20
81.78661955245612
 30
0.0
  0
LINE
  5
107
330
1F
100
AcDbEntity
  8
0
  6
HIDDEN
 62
     7
370
     0
100
AcDbLine
 10
126.7784352353
 20
44.2747570824
 30
0.0
 11
126.7784352353
 21
59.3124642449
 31
0.0
  0
LINE
  5
108
330
1F
100
AcDbEntity
  8
0
  6
HIDDEN
 62
     7
370
     0
100
AcDbLine
 10
126.7784352353
 20
73.3562388964
 30
0.0
 11
126.7784352353
 21
88.3939460589
 31
0.0
  0
ARC
  5
109
330
1F
100
AcDbEntity
  8
0
  6
HIDDEN
 62
     7
370
     0
100
AcDbCircle
 10
164.1935152048
 20
68.6590946709
 30
0.0
 40
0.1751536150562087
100
AcDbArc
 50
64.7350004802
 51
104.6933421268
  0
ARC
  5
10A
330
1F
100
AcDbEntity
  8
0
  6
HIDDEN
 62
     7
370
     0
100
AcDbCircle
 10
164.1935152048
 20
64.0096084704
 30
0.0
 40
0.1751536150546783
100
AcDbArc
 50
255.3066578731
 51
295.26499952
  0
ARC
  5
10B
330
1F
100
AcDbEntity
  8
0
  6
HIDDEN
 62
     7
370
     0
100
AcDbCircle
 10
163.9784352353
 20
66.3343515706
 30
0.0
 40
2.500000000000079
100
AcDbArc
 50
276.6575341882
 51
83.3424658118
  0
ARC
  5
10C
330
1F
100
AcDbEntity
  8
0
  6
HIDDEN
 62
     7
370
     0
100
AcDbCircle
 10
163.9784352353
 20
66.3343515706
 30
0.0
 40
2.499999999999919
100
AcDbArc
 50
273.9141232049
 51
86.0858767951
  0
CIRCLE
  5
10D
330
1F
100
AcDbEntity
  8
0
  6
HIDDEN
 62
     7
370
     0
100
AcDbCircle
 10
111.4784352353
 20
66.3343515706
 30
0.0
 40
4.049999999999997
  0
SPLINE
  5
10E
330
1F
100
AcDbEntity
  8
0
  6
HIDDEN
 62
     7
370
     0
100
AcDbSpline
210
0.0
220
0.0
230
1.0
 70
     8
 71
     3
 72
     8
 73
     4
 74
     0
 42
0.00000001
 43
0.00000001
 12
1.0
 22
0.0
 32
0.0
 13
1.0
 23
0.0
 33
0.0
 40
0.0
 40
0.0
 40
0.0
 40
0.0
 40
1.0
 40
1.0
 40
1.0
 40
1.0
 10
164.1490882707686
 20
63.84018286312507
 30
0.0
 10
164.181233176092
 20
63.84238224348505
 30
0.0
 10
164.2215107242968
 20
63.84575142426613
 30
0.0
 10
164.2682717317145
 20
63.85120944716091
 30
0.0
  0
SPLINE
  5
10F
330
1F
100
AcDbEntity
  8
0
  6
HIDDEN
 62
     7
370
     0
100
AcDbSpline
210
0.0
220
0.0
230
1.0
 70
     8
 71
     3
 72
     8
 73
     4
 74
     0
 42
0.00000001
 43
0.00000001
 12
1.0
 22
0.0
 32
0.0
 13
1.0
 23
0.0
 33
0.0
 40
0.0
 40
0.0
 40
0.0
 40
0.0
 40
1.0
 40
1.0
 40
1.0
 40
1.0
 10
164.2682717317144
 20
68.81749369408823
 30
0.0
 10
164.2214370148692
 20
68.82296032047051
 30
0.0
 10
164.1812437629152
 20
68.82632017340508
 30
0.0
 10
164.1490882707686
 20
68.82852027812406
 30
0.0
  0
LINE
  5
110
330
1F
100
AcDbEntity
  8
0
  6
HIDDEN
 62
     7
370
     0
100
AcDbLine
 10
90.5086636749
 20
81.6473026135
 30
0.0
 11
90.5086636749
 21
51.0214005277
 31
0.0
  0
LINE
  5
111
330
1F
100
AcDbEntity
  8
0
  6
HIDDEN
 62
     7
370
     0
100
AcDbLine
 10
88.9784352353
 20
50.1379227262
 30
0.0
 11
88.9784352353
 21
82.5307804151
 31
0.0
  0
LINE
  5
112
330
1F
100
AcDbEntity
  8
0
  6
HIDDEN
 62
     7
370
     0
100
AcDbLine
 10
97.0086636749
 20
80.6807617321
 30
0.0
 11
97.0086636749
 21
51.9879414091
 31
0.0
  0
LINE
  5
113
330
1F
100
AcDbEntity
  8
0
  6
HIDDEN
 62
     7
370
     0
100
AcDbLine
 10
102.8086636749
 20
80.3343515706
 30
0.0
 11
102.8086636749
 21
52.3343515706
 31
0.0
  0
LINE
  5
114
330
1F
100
AcDbEntity
  8
0
  6
HIDDEN
 62
     7
370
     0
100
AcDbLine
 10
95.4086636749
 20
80.3343515706
 30
0.0
 11
95.4086636749
 21
52.3343515706
 31
0.0
  0
LINE
  5
115
330
1F
100
AcDbEntity
  8
0
  6
HIDDEN
 62
     7
370
     0
100
AcDbLine
 10
96.4086636749
 20
80.3343515706
 30
0.0
 11
96.4086636749
 21
52.3343515706
 31
0.0
  0
SPLINE
  5
116
330
1F
100
AcDbEntity
  8
0
  6
HIDDEN
 62
     7
370
     0
100
AcDbSpline
210
0.0
220
0.0
230
1.0
 70
     8
 71
     3
 72
    10
 73
     6
 74
     0
 42
0.00000001
 43
0.00000001
 12
1.0
 22
0.0
 32
0.0
 13
1.0
 23
0.0
 33
0.0
 40
0.0
 40
0.0
 40
0.0
 40
0.0
 40
0.5
 40
0.5
 40
1.0
 40
1.0
 40
1.0
 40
1.0
 10
115.4784352352541
 20
66.96878044764709
 30
0.0
 10
115.5115826533305
 20
66.75978984663907
 30
0.0
 10
115.5284414986921
 20
66.54822738061746
 30
0.0
 10
115.5284289683445
 20
66.12023861464984
 30
0.0
 10
115.5115140106041
 20
65.90848051023413
 30
0.0
 10
115.4784352352541
 20
65.69992269360203
 30
0.0
  0
LINE
  5
117
330
1F
100
AcDbEntity
  8
0
  6
HIDDEN
 62
     7
370
     0
100
AcDbLine
 10
115.9784352353
 20
79.8343515706
 30
0.0
 11
115.9784352353
 21
52.8343515706
 31
0.0
  0
SPLINE
  5
118
330
1F
100
AcDbEntity
  8
0
  6
HIDDEN
 62
     7
370
     0
100
AcDbSpline
210
0.0
220
0.0
230
1.0
 70
     8
 71
     3
 72
    10
 73
     6
 74
     0
 42
0.00000001
 43
0.00000001
 12
1.0
 22
0.0
 32
0.0
 13
1.0
 23
0.0
 33
0.0
 40
0.0
 40
0.0
 40
0.0
 40
0.0
 40
0.5
 40
0.5
 40
1.0
 40
1.0
 40
1.0
 40
1.0
 10
115.4784352352541
 20
65.69992269360203
 30
0.0
 10
115.5116241977278
 20
65.90917522718452
 30
0.0
 10
115.5283249739824
 20
66.11999198808347
 30
0.0
 10
115.5285444144271
 20
66.54452426928677
 30
0.0
 10
115.5116646990337
 20
66.7592725580594
 30
0.0
 10
115.4784352352541
 20
66.96878044764709
 30
0.0
  0
SPLINE
  5
119
330
1F
100
AcDbEntity
  8
0
  6
HIDDEN
 62
     7
370
     0
100
AcDbSpline
210
0.0
220
0.0
230
1.0
 70
     8
 71
     3
 72
    68
 73
    64
 74
     0
 42
0.00000001
 43
0.00000001
 12
1.0
 22
0.0
 32
0.0
 13
1.0
 23
0.0
 33
0.0
 40
0.0
 40
0.0
 40
0.0
 40
0.0
 40
0.0312500000000002
 40
0.0312500000000002
 40
0.0625000000000004
 40
0.0625000000000004
 40
0.0937500000000007
 40
0.0937500000000007
 40
0.1250000000000009
 40
0.1250000000000009
 40
0.1562500000000011
 40
0.1562500000000011
 40
0.1875000000000013
 40
0.1875000000000013
 40
0.2187500000000016
 40
0.2187500000000016
 40
0.2500000000000018
 40
0.2500000000000018
 40
0.2812500000000018
 40
0.2812500000000018
 40
0.3125000000000018
 40
0.3125000000000018
 40
0.3437500000000018
 40
0.3437500000000018
 40
0.3750000000000018
 40
0.3750000000000018
 40
0.4062500000000018
 40
0.4062500000000018
 40
0.4375000000000018
 40
0.4375000000000018
 40
0.4687500000000018
 40
0.4687500000000018
 40
0.5000000000000018
 40
0.5000000000000018
 40
0.5625000000000018
 40
0.5625000000000018
 40
0.5937500000000018
 40
0.5937500000000018
 40
0.6250000000000018
 40
0.6250000000000018
 40
0.6562500000000018
 40
0.6562500000000018
 40
0.6875000000000018
 40
0.6875000000000018
 40
0.7187500000000018
 40
0.7187500000000018
 40
0.7500000000000018
 40
0.7500000000000018
 40
0.7812500000000016
 40
0.7812500000000016
 40
0.8125000000000013
 40
0.8125000000000013
 40
0.8437500000000011
 40
0.8437500000000011
 40
0.8750000000000009
 40
0.8750000000000009
 40
0.9062500000000007
 40
0.9062500000000007
 40
0.9375000000000004
 40
0.9375000000000004
 40
0.9687500000000002
 40
0.9687500000000002
 40
1.0
 40
1.0
 40
1.0
 40
1.0
 10
115.4784352352541
 20
65.69992269360203
 30
0.0
 10
115.4384202829044
 20
65.44763309078644
 30
0.0
 10
115.3754784814931
 20
65.20363424041064
 30
0.0
 10
115.206091819421
 20
64.73121585134813
 30
0.0
 10
115.0983982568355
 20
64.50080246518819
 30
0.0
 10
114.8431134882976
 20
64.06609786939109
 30
0.0
 10
114.6970742578254
 20
63.86345590273977
 30
0.0
 10
114.3688528212662
 20
63.48646661198195
 30
0.0
 10
114.1846055334912
 20
63.31080865840458
 30
0.0
 10
113.7916453661829
 20
63.00055068945833
 30
0.0
 10
113.5823507692237
 20
62.86460548180842
 30
0.0
 10
113.1374653422864
 20
62.63121538640258
 30
0.0
 10
112.9006677497873
 20
62.53396877998818
 30
0.0
 10
112.4199326808681
 20
62.38729732211682
 30
0.0
 10
112.1736895876853
 20
62.33640497717441
 30
0.0
 10
111.6689728077058
 20
62.28087762693892
 30
0.0
 10
111.4127781067694
 20
62.27705273986898
 30
0.0
 10
110.9103993575693
 20
62.3164765225134
 30
0.0
 10
110.6611496583857
 20
62.35950397172464
 30
0.0
 10
110.1696218609069
 20
62.49320894117593
 30
0.0
 10
109.9343262596811
 20
62.58187878708113
 30
0.0
 10
109.4834123650189
 20
62.80091015085853
 30
0.0
 10
109.2658000145556
 20
62.9329117165421
 30
0.0
 10
108.8625928450073
 20
63.23226899754498
 30
0.0
 10
108.6769813525728
 20
63.39888792498286
 30
0.0
 10
108.3369932821704
 20
63.76599935041033
 30
0.0
 10
108.1819203513474
 20
63.96830309595104
 30
0.0
 10
107.9155772746841
 20
64.39238377554506
 30
0.0
 10
107.8025931739673
 20
64.61554338101126
 30
0.0
 10
107.6177379170364
 20
65.08489862260541
 30
0.0
 10
107.546597155533
 20
65.33110912594093
 30
0.0
 10
107.4526367442449
 20
65.82563495231209
 30
0.0
 10
107.4286274142885
 20
66.07656594740409
 30
0.0
 10
107.4280542936159
 20
66.84081132696032
 30
0.0
 10
107.5234534049345
 20
67.34303562901127
 30
0.0
 10
107.8013171971356
 20
68.05060013528364
 30
0.0
 10
107.9144791532162
 20
68.27430639902447
 30
0.0
 10
108.18061033526
 20
68.69857631034505
 30
0.0
 10
108.3354381094598
 20
68.90082827240111
 30
0.0
 10
108.6756192152476
 20
69.26853901376928
 30
0.0
 10
108.8611216721973
 20
69.43515588901863
 30
0.0
 10
109.2634154732566
 20
69.73420526781406
 30
0.0
 10
109.4814235215086
 20
69.86666197584248
 30
0.0
 10
109.9320218886589
 20
70.08586837654714
 30
0.0
 10
110.1665708875397
 20
70.17435350655077
 30
0.0
 10
110.655030881092
 20
70.30783973648943
 30
0.0
 10
110.9072962768059
 20
70.35178144898319
 30
0.0
 10
111.4094769149662
 20
70.39159044545666
 30
0.0
 10
111.6619590323179
 20
70.38824623264317
 30
0.0
 10
112.1698240753874
 20
70.33306691265265
 30
0.0
 10
112.4173695485712
 20
70.28202098418323
 30
0.0
 10
112.8983370860419
 20
70.13561059594765
 30
0.0
 10
113.1342969511471
 20
70.03896439117405
 30
0.0
 10
113.5808674006688
 20
69.80505944686101
 30
0.0
 10
113.7905122632422
 20
69.6689344330345
 30
0.0
 10
114.1834989699967
 20
69.35888016870541
 30
0.0
 10
114.3678948738117
 20
69.1832229211303
 30
0.0
 10
114.6964452916721
 20
68.80608299846588
 30
0.0
 10
114.8423873881952
 20
68.60361679319601
 30
0.0
 10
115.0972727433974
 20
68.1700404950627
 30
0.0
 10
115.2055840562057
 20
67.93874865148113
 30
0.0
 10
115.3754190336227
 20
67.4653889713479
 30
0.0
 10
115.4384143947597
 20
67.22110717452713
 30
0.0
 10
115.4784352352541
 20
66.96878044764709
 30
0.0
  0
SPLINE
  5
11A
330
1F
100
AcDbEntity
  8
0
  6
HIDDEN
 62
     7
370
     0
100
AcDbSpline
210
0.0
220
0.0
230
1.0
 70
     8
 71
     3
 72
    68
 73
    64
 74
     0
 42
0.00000001
 43
0.00000001
 12
1.0
 22
0.0
 32
0.0
 13
1.0
 23
0.0
 33
0.0
 40
0.0
 40
0.0
 40
0.0
 40
0.0
 40
0.0312500000000002
 40
0.0312500000000002
 40
0.0625000000000004
 40
0.0625000000000004
 40
0.0937500000000007
 40
0.0937500000000007
 40
0.1250000000000009
 40
0.1250000000000009
 40
0.1562500000000011
 40
0.1562500000000011
 40
0.1875000000000013
 40
0.1875000000000013
 40
0.2187500000000016
 40
0.2187500000000016
 40
0.2500000000000018
 40
0.2500000000000018
 40
0.2812500000000018
 40
0.2812500000000018
 40
0.3125000000000018
 40
0.3125000000000018
 40
0.3437500000000018
 40
0.3437500000000018
 40
0.3750000000000018
 40
0.3750000000000018
 40
0.4062500000000018
 40
0.4062500000000018
 40
0.4375000000000018
 40
0.4375000000000018
 40
0.4687500000000018
 40
0.4687500000000018
 40
0.5000000000000018
 40
0.5000000000000018
 40
0.5625000000000018
 40
0.5625000000000018
 40
0.5937500000000018
 40
0.5937500000000018
 40
0.6250000000000018
 40
0.6250000000000018
 40
0.6562500000000018
 40
0.6562500000000018
 40
0.6875000000000018
 40
0.6875000000000018
 40
0.7187500000000018
 40
0.7187500000000018
 40
0.7500000000000018
 40
0.7500000000000018
 40
0.7812500000000016
 40
0.7812500000000016
 40
0.8125000000000013
 40
0.8125000000000013
 40
0.8437500000000011
 40
0.8437500000000011
 40
0.8750000000000009
 40
0.8750000000000009
 40
0.9062500000000007
 40
0.9062500000000007
 40
0.9375000000000004
 40
0.9375000000000004
 40
0.9687500000000002
 40
0.9687500000000002
 40
1.0
 40
1.0
 40
1.0
 40
1.0
 10
115.4784352352541
 20
66.96878044764709
 30
0.0
 10
115.4384202829044
 20
67.22107005046269
 30
0.0
 10
115.3754784814931
 20
67.46506890083849
 30
0.0
 10
115.206091819421
 20
67.937487289901
 30
0.0
 10
115.0983982568355
 20
68.16790067606094
 30
0.0
 10
114.8431134882976
 20
68.60260527185804
 30
0.0
 10
114.6970742578254
 20
68.80524723850935
 30
0.0
 10
114.3688528212662
 20
69.18223652926717
 30
0.0
 10
114.1846055334912
 20
69.35789448284454
 30
0.0
 10
113.7916453661829
 20
69.6681524517908
 30
0.0
 10
113.5823507692237
 20
69.8040976594407
 30
0.0
 10
113.1374653422864
 20
70.03748775484654
 30
0.0
 10
112.9006677497873
 20
70.13473436126094
 30
0.0
 10
112.4199326808681
 20
70.2814058191323
 30
0.0
 10
112.1736895876853
 20
70.33229816407471
 30
0.0
 10
111.6689728077058
 20
70.38782551431021
 30
0.0
 10
111.4127781067694
 20
70.39165040138013
 30
0.0
 10
110.9103993575693
 20
70.35222661873573
 30
0.0
 10
110.6611496583857
 20
70.30919916952448
 30
0.0
 10
110.1696218609069
 20
70.17549420007319
 30
0.0
 10
109.9343262596811
 20
70.08682435416799
 30
0.0
 10
109.4834123650189
 20
69.86779299039058
 30
0.0
 10
109.2658000145556
 20
69.73579142470703
 30
0.0
 10
108.8625928450073
 20
69.43643414370413
 30
0.0
 10
108.6769813525728
 20
69.26981521626627
 30
0.0
 10
108.3369932821704
 20
68.9027037908388
 30
0.0
 10
108.1819203513474
 20
68.70040004529808
 30
0.0
 10
107.9155772746841
 20
68.27631936570407
 30
0.0
 10
107.8025931739673
 20
68.05315976023786
 30
0.0
 10
107.6177379170364
 20
67.5838045186437
 30
0.0
 10
107.546597155533
 20
67.3375940153082
 30
0.0
 10
107.4526367442449
 20
66.84306818893704
 30
0.0
 10
107.4286274142885
 20
66.59213719384503
 30
0.0
 10
107.4280542936159
 20
65.8278918142888
 30
0.0
 10
107.5234534049345
 20
65.32566751223786
 30
0.0
 10
107.8013171971356
 20
64.61810300596548
 30
0.0
 10
107.9144791532162
 20
64.39439674222464
 30
0.0
 10
108.18061033526
 20
63.97012683090407
 30
0.0
 10
108.3354381094598
 20
63.76787486884801
 30
0.0
 10
108.6756192152476
 20
63.40016412747984
 30
0.0
 10
108.8611216721973
 20
63.23354725223049
 30
0.0
 10
109.2634154732566
 20
62.93449787343506
 30
0.0
 10
109.4814235215086
 20
62.80204116540665
 30
0.0
 10
109.9320218886589
 20
62.58283476470199
 30
0.0
 10
110.1665708875397
 20
62.49434963469835
 30
0.0
 10
110.655030881092
 20
62.3608634047597
 30
0.0
 10
110.9072962768059
 20
62.31692169226594
 30
0.0
 10
111.4094769149662
 20
62.27711269579245
 30
0.0
 10
111.6619590323179
 20
62.28045690860596
 30
0.0
 10
112.1698240753874
 20
62.33563622859648
 30
0.0
 10
112.4173695485712
 20
62.38668215706588
 30
0.0
 10
112.8983370860419
 20
62.53309254530147
 30
0.0
 10
113.1342969511471
 20
62.62973875007508
 30
0.0
 10
113.5808674006688
 20
62.86364369438812
 30
0.0
 10
113.7905122632422
 20
62.99976870821462
 30
0.0
 10
114.1834989699967
 20
63.30982297254371
 30
0.0
 10
114.3678948738117
 20
63.48548022011882
 30
0.0
 10
114.6964452916721
 20
63.86262014278324
 30
0.0
 10
114.8423873881952
 20
64.06508634805311
 30
0.0
 10
115.0972727433974
 20
64.49866264618643
 30
0.0
 10
115.2055840562057
 20
64.72995448976798
 30
0.0
 10
115.3754190336227
 20
65.20331416990122
 30
0.0
 10
115.4384143947597
 20
65.44759596672199
 30
0.0
 10
115.4784352352541
 20
65.69992269360203
 30
0.0
  0
LINE
  5
11B
330
1F
100
AcDbEntity
  8
0
  6
HIDDEN
 62
     7
370
     0
100
AcDbLine
 10
117.2284352353
 20
75.3343515706
 30
0.0
 11
117.2284352353
 21
57.3343515706
 31
0.0
  0
LINE
  5
11C
330
1F
100
AcDbEntity
  8
0
  6
HIDDEN
 62
     7
370
     0
100
AcDbLine
 10
115.9784352353
 20
56.0843515706
 30
0.0
 11
115.9784352353
 21
76.5632918463
 31
0.0
  0
LINE
  5
11D
330
1F
100
AcDbEntity
  8
0
  6
HIDDEN
 62
     7
370
     0
100
AcDbLine
 10
153.9784352353
 20
57.3343515706
 30
0.0
 11
153.9784352353
 21
75.3343515706
 31
0.0
  0
LINE
  5
11E
330
1F
100
AcDbEntity
  8
0
  6
HIDDEN
 62
     7
370
     0
100
AcDbLine
 10
156.8325231756
 20
62.0843515706
 30
0.0
 11
156.8325231756
 21
70.5843515706
 31
0.0
  0
LINE
  5
11F
330
1F
100
AcDbEntity
  8
0
  6
HIDDEN
 62
     7
370
     0
100
AcDbLine
 10
167.9784352353
 20
62.0843515706
 30
0.0
 11
167.9784352353
 21
70.5843515706
 31
0.0
  0
SPLINE
  5
120
330
1F
100
AcDbEntity
  8
0
  6
HIDDEN
 62
     7
370
     0
100
AcDbSpline
210
0.0
220
0.0
230
1.0
 70
     8
 71
     3
 72
    64
 73
    60
 74
     0
 42
0.00000001
 43
0.00000001
 12
1.0
 22
0.0
 32
0.0
 13
1.0
 23
0.0
 33
0.0
 40
-0.03125
 40
-0.03125
 40
0.0
 40
0.0
 40
0.03125
 40
0.03125
 40
0.0625
 40
0.0625
 40
0.1250000000000004
 40
0.1250000000000004
 40
0.1562500000000007
 40
0.1562500000000007
 40
0.1875000000000009
 40
0.1875000000000009
 40
0.2187500000000011
 40
0.2187500000000011
 40
0.2500000000000014
 40
0.2500000000000014
 40
0.2812500000000017
 40
0.2812500000000017
 40
0.3125000000000019
 40
0.3125000000000019
 40
0.3437500000000022
 40
0.3437500000000022
 40
0.3750000000000024
 40
0.3750000000000024
 40
0.4062500000000027
 40
0.4062500000000027
 40
0.4375000000000028
 40
0.4375000000000028
 40
0.4687500000000031
 40
0.4687500000000031
 40
0.5000000000000033
 40
0.5000000000000033
 40
0.5312500000000036
 40
0.5312500000000036
 40
0.5625000000000038
 40
0.5625000000000038
 40
0.6250000000000037
 40
0.6250000000000037
 40
0.6562500000000032
 40
0.6562500000000032
 40
0.6875000000000028
 40
0.6875000000000028
 40
0.7187500000000023
 40
0.7187500000000023
 40
0.7500000000000019
 40
0.7500000000000019
 40
0.7812500000000014
 40
0.7812500000000014
 40
0.812500000000001
 40
0.812500000000001
 40
0.8437500000000006
 40
0.8437500000000006
 40
0.875
 40
0.875
 40
0.9375
 40
0.9375
 40
0.96875
 40
0.96875
 40
1.0
 40
1.0
 40
1.03125
 40
1.03125
 10
161.4784352352541
 20
66.50374256396474
 30
0.0
 10
161.4784352352541
 20
66.16496057728438
 30
0.0
 10
161.4954673586552
 20
65.99910846946818
 30
0.0
 10
161.5615295556605
 20
65.67398474147366
 30
0.0
 10
161.6114607052274
 20
65.51325124306493
 30
0.0
 10
161.8022888005941
 20
65.0609767672888
 30
0.0
 10
161.9871712036944
 20
64.78966488513109
 30
0.0
 10
162.3248837970886
 20
64.45257980144746
 30
0.0
 10
162.4494332752678
 20
64.3499722084177
 30
0.0
 10
162.7149176683212
 20
64.17122147632918
 30
0.0
 10
162.8553242254498
 20
64.0949742154892
 30
0.0
 10
163.1534080562405
 20
63.96886653940463
 30
0.0
 10
163.3131614768888
 20
63.9188005478649
 30
0.0
 10
163.6379018585359
 20
63.85211207040191
 30
0.0
 10
163.8046464886716
 20
63.83466679420298
 30
0.0
 10
164.1430333276078
 20
63.83404479386576
 30
0.0
 10
164.3089079503337
 20
63.85073025277009
 30
0.0
 10
164.6345639368315
 20
63.91627750375243
 30
0.0
 10
164.7942905104399
 20
63.9656351472451
 30
0.0
 10
165.0942339354486
 20
64.09126651091768
 30
0.0
 10
165.2376591213827
 20
64.16868077836668
 30
0.0
 10
165.5043239360873
 20
64.34753541191603
 30
0.0
 10
165.6272248121259
 20
64.44835086453583
 30
0.0
 10
165.8538062123495
 20
64.67348148827726
 30
0.0
 10
165.9574358173934
 20
64.79837213353667
 30
0.0
 10
166.1373340813274
 20
65.06359120466729
 30
0.0
 10
166.2148384944707
 20
65.20496587795007
 30
0.0
 10
166.3434453028677
 20
65.50746647537933
 30
0.0
 10
166.393418369864
 20
65.66714028149121
 30
0.0
 10
166.4602343545678
 20
65.99085837393726
 30
0.0
 10
166.47791201693
 20
66.15755685010136
 30
0.0
 10
166.4789355903487
 20
66.49602571671318
 30
0.0
 10
166.4624337407483
 20
66.6621866663208
 30
0.0
 10
166.3970169975711
 20
66.9887113220267
 30
0.0
 10
166.3473701333209
 20
67.14982400765138
 30
0.0
 10
166.1573169025482
 20
67.60315654667336
 30
0.0
 10
165.9727006648601
 20
67.87537589590195
 30
0.0
 10
165.6343839630257
 20
68.21405805161996
 30
0.0
 10
165.5094180077661
 20
68.31718176098985
 30
0.0
 10
165.2445707865176
 20
68.49593075709438
 30
0.0
 10
165.1040221194867
 20
68.57255669857942
 30
0.0
 10
164.8042189313922
 20
68.69963999192807
 30
0.0
 10
164.644608166007
 20
68.7496526237707
 30
0.0
 10
164.3199547397837
 20
68.81645349822999
 30
0.0
 10
164.1507585862653
 20
68.83407838566256
 30
0.0
 10
163.8141317053393
 20
68.83461832382937
 30
0.0
 10
163.6481678518566
 20
68.81806296592497
 30
0.0
 10
163.3206957574551
 20
68.75205246590212
 30
0.0
 10
163.1616905836319
 20
68.70278222137975
 30
0.0
 10
162.8612524265581
 20
68.57676949450588
 30
0.0
 10
162.7171846786416
 20
68.49882837152965
 30
0.0
 10
162.4509948035383
 20
68.319959416039
 30
0.0
 10
162.3278460312135
 20
68.21885765270629
 30
0.0
 10
161.9864116922821
 20
67.87871997869257
 30
0.0
 10
161.8044264943478
 20
67.6124180409357
 30
0.0
 10
161.6110322221627
 20
67.15462283711118
 30
0.0
 10
161.5622568736227
 20
66.99729138592298
 30
0.0
 10
161.4959380278742
 20
66.67289948344488
 30
0.0
 10
161.4784352352541
 20
66.50374256396474
 30
0.0
 10
161.4784352352541
 20
66.16496057728438
 30
0.0
  0
LINE
  5
121
330
1F
100
AcDbEntity
  8
0
  6
HIDDEN
 62
     7
370
     0
100
AcDbLine
 10
207.2930778533
 20
66.4323756599
 30
0.0
 11
207.46808477
 21
66.3412728255
 31
0.0
  0
LINE
  5
122
330
1F
100
AcDbEntity
  8
0
  6
HIDDEN
 62
     7
370
     0
100
AcDbLine
 10
207.46808477
 20
66.3412728255
 30
0.0
 11
207.2772401427
 21
66.3412728255
 31
0.0
  0
LINE
  5
123
330
1F
100
AcDbEntity
  8
0
  6
HIDDEN
 62
     7
370
     0
100
AcDbLine
 10
207.4813803768
 20
66.3343515706
 30
0.0
 11
207.2779858607
 21
66.3343515706
 31
0.0
  0
LINE
  5
124
330
1F
100
AcDbEntity
  8
0
  6
HIDDEN
 62
     7
370
     0
100
AcDbLine
 10
207.4813803768
 20
66.3343515706
 30
0.0
 11
216.8058016622
 21
61.480365084
 31
0.0
  0
LINE
  5
125
330
1F
100
AcDbEntity
  8
0
  6
HIDDEN
 62
     7
370
     0
100
AcDbLine
 10
207.4206025544
 20
66.0337702688
 30
0.0
 11
216.8058016622
 21
61.1481448504
 31
0.0
  0
LINE
  5
126
330
1F
100
AcDbEntity
  8
0
  6
HIDDEN
 62
     7
370
     0
100
AcDbLine
 10
216.8058016622
 20
61.1481448504
 30
0.0
 11
216.8058016622
 21
61.480365084
 31
0.0
  0
LINE
  5
127
330
1F
100
AcDbEntity
  8
0
  6
HIDDEN
 62
     7
370
     0
100
AcDbLine
 10
210.1751854827
 20
68.0688779829
 30
0.0
 11
210.1751854827
 21
67.7505002591
 31
0.0
  0
LINE
  5
128
330
1F
100
AcDbEntity
  8
0
  6
HIDDEN
 62
     7
370
     0
100
AcDbLine
 10
210.1751854827
 20
67.7505002591
 30
0.0
 11
209.8560909173
 21
67.9166103759
 31
0.0
  0
LINE
  5
129
330
1F
100
AcDbEntity
  8
0
  6
HIDDEN
 62
     7
370
     0
100
AcDbLine
 10
210.1751854827
 20
68.0688779829
 30
0.0
 11
210.1618898758
 21
68.0757992378
 31
0.0
  0
LINE
  5
12A
330
1F
100
AcDbEntity
  8
0
  6
HIDDEN
 62
     7
370
     0
100
AcDbLine
 10
207.4813803768
 20
66.3343515706
 30
0.0
 11
207.46808477
 21
66.3412728255
 31
0.0
  0
LINE
  5
12B
330
1F
100
AcDbEntity
  8
0
  6
HIDDEN
 62
     7
370
     0
100
AcDbLine
 10
216.8058016622
 20
71.1883380573
 30
0.0
 11
210.1884810896
 21
67.7435790042
 31
0.0
  0
LINE
  5
12C
330
1F
100
AcDbEntity
  8
0
  6
HIDDEN
 62
     7
370
     0
100
AcDbLine
 10
210.1751854827
 20
67.7505002591
 30
0.0
 11
210.1884810896
 21
67.7435790042
 31
0.0
  0
LINE
  5
12D
330
1F
100
AcDbEntity
  8
0
  6
HIDDEN
 62
     7
370
     0
100
AcDbLine
 10
216.8058016622
 20
71.5205582908
 30
0.0
 11
210.1751854827
 21
68.0688779829
 31
0.0
  0
LINE
  5
12E
330
1F
100
AcDbEntity
  8
0
  6
HIDDEN
 62
     7
370
     0
100
AcDbLine
 10
216.8058016622
 20
71.5205582908
 30
0.0
 11
216.8058016622
 21
71.1883380573
 31
0.0
  0
LINE
  5
12F
330
1F
100
AcDbEntity
  8
0
  6
HIDDEN
 62
     7
370
     0
100
AcDbLine
 10
216.8058016622
 20
61.1481448504
 30
0.0
 11
216.7925060553
 21
61.1412235956
 31
0.0
  0
LINE
  5
130
330
1F
100
AcDbEntity
  8
0
  6
HIDDEN
 62
     7
370
     0
100
AcDbLine
 10
216.8058016622
 20
71.5205582908
 30
0.0
 11
216.7925060553
 21
71.5274795457
 31
0.0
  0
LINE
  5
131
330
1F
100
AcDbEntity
  8
0
  6
HIDDEN
 62
     7
370
     0
100
AcDbLine
 10
216.6103562409
 20
61.5821075305
 30
0.0
 11
216.8058016622
 21
61.480365084
 31
0.0
  0
LINE
  5
132
330
1F
100
AcDbEntity
  8
0
  6
HIDDEN
 62
     7
370
     0
100
AcDbLine
 10
216.6103562409
 20
71.0865956107
 30
0.0
 11
216.8058016622
 21
71.1883380573
 31
0.0
  0
LINE
  5
133
330
1F
100
AcDbEntity
  8
0
  6
HIDDEN
 62
     7
370
     0
100
AcDbLine
 10
217.9256988439
 20
66.049811562
 30
0.0
 11
225.1927358339
 21
66.049811562
 31
0.0
  0
LINE
  5
134
330
1F
100
AcDbEntity
  8
0
  6
HIDDEN
 62
     7
370
     0
100
AcDbLine
 10
225.1927358339
 20
66.6188915793
 30
0.0
 11
217.9256988439
 21
66.6188915793
 31
0.0
  0
CIRCLE
  5
135
330
1F
100
AcDbEntity
  8
0
  6
HIDDEN
 62
     7
370
     0
100
AcDbCircle
 10
217.0306537478
 20
66.3343515706
 30
0.0
 40
2.100000000000009
  0
LINE
  5
136
330
1F
100
AcDbEntity
  8
0
  6
HIDDEN
 62
     7
370
     0
100
AcDbLine
 10
225.1927358339
 20
66.049811562
 30
0.0
 11
225.1927358339
 21
66.6188915793
 31
0.0
  0
LINE
  5
137
330
1F
100
AcDbEntity
  8
0
  6
HIDDEN
 62
     7
370
     0
100
AcDbLine
 10
216.6103562409
 20
71.0865956107
 30
0.0
 11
210.1884810896
 21
67.7435790042
 31
0.0
  0
LINE
  5
138
330
1F
100
AcDbEntity
  8
0
  6
HIDDEN
 62
     7
370
     0
100
AcDbLine
 10
206.9128153138
 20
66.6303278085
 30
0.0
 11
216.6103562409
 21
61.5821075305
 31
0.0
  0
ARC
  5
139
330
1F
100
AcDbEntity
  8
0
  6
HIDDEN
 62
     7
370
     0
100
AcDbCircle
 10
207.4900010803
 20
67.73909135
 30
0.0
 40
1.250000000000011
100
AcDbArc
 50
62.5
 51
242.5
  0
LINE
  5
13A
330
1F
100
AcDbEntity
  8
0
  6
HIDDEN
 62
     7
370
     0
100
AcDbLine
 10
210.1884810896
 20
67.7435790042
 30
0.0
 11
208.0671868469
 21
68.8478548915
 31
0.0
  0
LINE
  5
13B
330
1F
100
AcDbEntity
  8
0
  6
HIDDEN
 62
     7
370
     0
100
AcDbLine
 10
225.1927358339
 20
66.049811562
 30
0.0
 11
216.6103562409
 21
61.5821075305
 31
0.0
  0
LINE
  5
13C
330
1F
100
AcDbEntity
  8
0
  6
HIDDEN
 62
     7
370
     0
100
AcDbLine
 10
225.1927358339
 20
66.6188915793
 30
0.0
 11
216.6103562409
 21
71.0865956107
 31
0.0
  0
CIRCLE
  5
13D
330
1F
100
AcDbEntity
  8
0
  6
HIDDEN
 62
     7
370
     0
100
AcDbCircle
 10
217.0306537478
 20
66.3343515706
 30
0.0
 40
1.650000000000006
  0
LINE
  5
13E
330
1F
100
AcDbEntity
  8
0
  6
HIDDEN
 62
     7
370
     0
100
AcDbLine
 10
90.4784352353
 20
51.2302987419
 30
0.0
 11
90.4784352353
 21
45.1759881743
 31
0.0
  0
LINE
  5
13F
330
1F
100
AcDbEntity
  8
0
  6
HIDDEN
 62
     7
370
     0
100
AcDbLine
 10
88.9784352353
 20
51.6633114438
 30
0.0
 11
88.9784352353
 21
46.0420135781
 31
0.0
  0
SPLINE
  5
140
330
1F
100
AcDbEntity
  8
0
  6
HIDDEN
 62
     7
370
     0
100
AcDbSpline
210
0.0
220
0.0
230
1.0
 70
     8
 71
     3
 72
    16
 73
    12
 74
     0
 42
0.00000001
 43
0.00000001
 12
1.0
 22
0.0
 32
0.0
 13
1.0
 23
0.0
 33
0.0
 40
0.0
 40
0.0
 40
0.0
 40
0.0
 40
0.2500000000000001
 40
0.2500000000000001
 40
0.3749999999999999
 40
0.3749999999999999
 40
0.4999999999999998
 40
0.4999999999999998
 40
0.7499999999999999
 40
0.7499999999999999
 40
1.0
 40
1.0
 40
1.0
 40
1.0
 10
125.6571148916944
 20
49.75044494438352
 30
0.0
 10
125.4958824142099
 20
49.0360507821914
 30
0.0
 10
125.3754025745703
 20
48.38270851948272
 30
0.0
 10
125.253022057257
 20
47.49445327767883
 30
0.0
 10
125.2220443968595
 20
47.213772741327
 30
0.0
 10
125.1804306592316
 20
46.684738751487
 30
0.0
 10
125.1701947462988
 20
46.44141777290854
 30
0.0
 10
125.1700063492427
 20
45.77339508239532
 30
0.0
 10
125.2101510518803
 20
45.40971417297585
 30
0.0
 10
125.3743048068199
 20
44.84982330042754
 30
0.0
 10
125.4958564572294
 20
44.66230200831041
 30
0.0
 10
125.6571148916944
 20
44.56427061562245
 30
0.0
  0
LINE
  5
141
330
1F
100
AcDbEntity
  8
0
  6
HIDDEN
 62
     7
370
     0
100
AcDbLine
 10
124.7784352353
 20
50.7994310477
 30
0.0
 11
124.7784352353
 21
44.3142527861
 31
0.0
  0
LINE
  5
142
330
1F
100
AcDbEntity
  8
0
  6
HIDDEN
 62
     7
370
     0
100
AcDbLine
 10
124.7784352353
 20
88.3544503552
 30
0.0
 11
124.7784352353
 21
81.8692720935
 31
0.0
  0
SPLINE
  5
143
330
1F
100
AcDbEntity
  8
0
  6
HIDDEN
 62
     7
370
     0
100
AcDbSpline
210
0.0
220
0.0
230
1.0
 70
     8
 71
     3
 72
    16
 73
    12
 74
     0
 42
0.00000001
 43
0.00000001
 12
1.0
 22
0.0
 32
0.0
 13
1.0
 23
0.0
 33
0.0
 40
0.0
 40
0.0
 40
0.0
 40
0.0
 40
0.2499999999999997
 40
0.2499999999999997
 40
0.3749999999999998
 40
0.3749999999999998
 40
0.4999999999999999
 40
0.4999999999999999
 40
0.7499999999999999
 40
0.7499999999999999
 40
1.0
 40
1.0
 40
1.0
 40
1.0
 10
125.6571148916944
 20
88.10443252562666
 30
0.0
 10
125.4958824142099
 20
88.00641691257195
 30
0.0
 10
125.3754025745703
 20
87.8196808808959
 30
0.0
 10
125.253022057257
 20
87.406641073337
 30
0.0
 10
125.2220443968595
 20
87.24664057410408
 30
0.0
 10
125.1804306592316
 20
86.87983492301291
 30
0.0
 10
125.1701947462988
 20
86.6764977703889
 30
0.0
 10
125.1700063492427
 20
86.00921050376225
 30
0.0
 10
125.2101510518803
 20
85.48839603987419
 30
0.0
 10
125.3743048068199
 20
84.2910370243965
 30
0.0
 10
125.4958564572294
 20
83.63276737010052
 30
0.0
 10
125.6571148916944
 20
82.91825819686562
 30
0.0
  0
LINE
  5
144
330
1F
100
AcDbEntity
  8
0
  6
HIDDEN
 62
     7
370
     0
100
AcDbLine
 10
90.4784352353
 20
87.4927149669
 30
0.0
 11
90.4784352353
 21
81.4384043994
 31
0.0
  0
LINE
  5
145
330
1F
100
AcDbEntity
  8
0
  6
HIDDEN
 62
     7
370
     0
100
AcDbLine
 10
88.9784352353
 20
86.6266895631
 30
0.0
 11
88.9784352353
 21
81.0053916975
 31
0.0
  0
LINE
  5
146
330
1F
100
AcDbEntity
  8
0
  6
HIDDEN
 62
     7
370
     0
100
AcDbLine
 10
88.9784352353
 20
81.0053916975
 30
0.0
 11
88.9784352353
 21
69.2363389036
 31
0.0
  0
LINE
  5
147
330
1F
100
AcDbEntity
  8
0
  6
HIDDEN
 62
     7
370
     0
100
AcDbLine
 10
88.9784352353
 20
63.4323642376
 30
0.0
 11
88.9784352353
 21
51.6633114438
 31
0.0
  0
CIRCLE
  5
148
330
1F
100
AcDbEntity
  8
0
  6
HIDDEN
 62
     7
370
     0
100
AcDbCircle
 10
217.0306537478
 20
66.3343515706
 30
0.0
 40
1.649999999999991
  0
LINE
  5
149
330
1F
100
AcDbEntity
  8
0
  6
HIDDEN
 62
     7
370
     0
100
AcDbLine
 10
90.4784352353
 20
62.3691406738
 30
0.0
 11
90.4784352353
 21
51.2302987419
 31
0.0
  0
LINE
  5
14A
330
1F
100
AcDbEntity
  8
0
  6
HIDDEN
 62
     7
370
     0
100
AcDbLine
 10
90.4784352353
 20
81.4384043994
 30
0.0
 11
90.4784352353
 21
70.2995624675
 31
0.0
  0
LINE
  5
14B
330
1F
100
AcDbEntity
  8
0
  6
HIDDEN
 62
     7
370
     0
100
AcDbLine
 10
126.7784352353
 20
81.3720587331
 30
0.0
 11
126.7784352353
 21
51.2966444081
 31
0.0
  0
LINE
  5
14C
330
1F
100
AcDbEntity
  8
0
  6
HIDDEN
 62
     7
370
     0
100
AcDbLine
 10
124.7784352353
 20
81.8692720935
 30
0.0
 11
124.7784352353
 21
50.7994310477
 31
0.0
  0
SPLINE
  5
14D
330
1F
100
AcDbEntity
  8
0
  6
HIDDEN
 62
     7
370
     0
100
AcDbSpline
210
0.0
220
0.0
230
1.0
 70
     8
 71
     3
 72
     8
 73
     4
 74
     0
 42
0.00000001
 43
0.00000001
 12
1.0
 22
0.0
 32
0.0
 13
1.0
 23
0.0
 33
0.0
 40
0.0000249638557296
 40
0.0000249638557296
 40
0.0000249638557296
 40
0.0000249638557296
 40
0.0049776420541172
 40
0.0049776420541172
 40
0.0049776420541172
 40
0.0049776420541172
 10
90.47843523525407
 20
62.36914067378802
 30
0.0
 10
92.12841146976359
 20
62.32786143601982
 30
0.0
 10
93.77841278950864
 20
62.28763975478033
 30
0.0
 10
95.42843523525406
 20
62.24839051752531
 30
0.0
  0
SPLINE
  5
14E
330
1F
100
AcDbEntity
  8
0
  6
HIDDEN
 62
     7
370
     0
100
AcDbSpline
210
0.0
220
0.0
230
1.0
 70
     8
 71
     3
 72
     8
 73
     4
 74
     0
 42
0.00000001
 43
0.00000001
 12
1.0
 22
0.0
 32
0.0
 13
1.0
 23
0.0
 33
0.0
 40
0.0000249631533153
 40
0.0000249631533153
 40
0.0000249631533153
 40
0.0000249631533153
 40
0.0049776413517029
 40
0.0049776413517029
 40
0.0049776413517029
 40
0.0049776413517029
 10
95.42843523525404
 20
70.4203126237238
 30
0.0
 10
93.77841278950864
 20
70.3810633864688
 30
0.0
 10
92.12841146976358
 20
70.34084170522931
 30
0.0
 10
90.47843523525404
 20
70.2995624674611
 30
0.0
  0
SPLINE
  5
14F
330
1F
100
AcDbEntity
  8
0
  6
HIDDEN
 62
     7
370
     0
100
AcDbSpline
210
0.0
220
0.0
230
1.0
 70
     8
 71
     3
 72
     8
 73
     4
 74
     0
 42
0.00000001
 43
0.00000001
 12
1.0
 22
0.0
 32
0.0
 13
1.0
 23
0.0
 33
0.0
 40
0.0
 40
0.0
 40
0.0
 40
0.0
 40
1.0
 40
1.0
 40
1.0
 40
1.0
 10
88.97843523525181
 20
63.4323642376442
 30
0.0
 10
89.4451958466296
 20
63.01700099202117
 30
0.0
 10
89.95094339340967
 20
62.67241056271658
 30
0.0
 10
90.47843523525407
 20
62.36914067378802
 30
0.0
  0
SPLINE
  5
150
330
1F
100
AcDbEntity
  8
0
  6
HIDDEN
 62
     7
370
     0
100
AcDbSpline
210
0.0
220
0.0
230
1.0
 70
     8
 71
     3
 72
     8
 73
     4
 74
     0
 42
0.00000001
 43
0.00000001
 12
1.0
 22
0.0
 32
0.0
 13
1.0
 23
0.0
 33
0.0
 40
0.0
 40
0.0
 40
0.0
 40
0.0
 40
1.0
 40
1.0
 40
1.0
 40
1.0
 10
90.47843523525407
 20
70.2995624674611
 30
0.0
 10
89.95094339341053
 20
69.99629257853303
 30
0.0
 10
89.44519584663122
 20
69.65170214922904
 30
0.0
 10
88.97843523525405
 20
69.2363389036069
 30
0.0
  0
LINE
  5
151
330
1F
100
AcDbEntity
  8
0
  6
HIDDEN
 62
     7
370
     0
100
AcDbLine
 10
88.9784352353
 20
63.4323642376
 30
0.0
 11
88.9784352353
 21
69.2363389036
 31
0.0
  0
LINE
  5
152
330
1F
100
AcDbEntity
  8
0
  6
HIDDEN
 62
     7
370
     0
100
AcDbLine
 10
95.4284352353
 20
62.2483905175
 30
0.0
 11
95.4284352353
 21
70.4203126237
 31
0.0
  0
SPLINE
  5
153
330
1F
100
AcDbEntity
  8
0
  6
HIDDEN
 62
     7
370
     0
100
AcDbSpline
210
0.0
220
0.0
230
1.0
 70
     8
 71
     3
 72
    24
 73
    20
 74
     0
 42
0.00000001
 43
0.00000001
 12
1.0
 22
0.0
 32
0.0
 13
1.0
 23
0.0
 33
0.0
 40
0.0
 40
0.0
 40
0.0
 40
0.0
 40
0.1249999999999999
 40
0.1249999999999999
 40
0.2499999999999997
 40
0.2499999999999997
 40
0.3749999999999996
 40
0.3749999999999996
 40
0.4374999999999996
 40
0.4374999999999996
 40
0.4999999999999997
 40
0.4999999999999997
 40
0.6249999999999998
 40
0.6249999999999998
 40
0.7499999999999998
 40
0.7499999999999998
 40
0.8749999999999999
 40
0.8749999999999999
 40
1.0
 40
1.0
 40
1.0
 40
1.0
 10
95.42843523525407
 20
62.24839051752532
 30
0.0
 10
95.66623886752916
 20
62.54739761985545
 30
0.0
 10
95.89632452874045
 20
62.85173547117417
 30
0.0
 10
96.33107792735026
 20
63.47746900857017
 30
0.0
 10
96.53601071963642
 20
63.79869373589768
 30
0.0
 10
96.90111267013509
 20
64.47061950663041
 30
0.0
 10
97.06291305592661
 20
64.8259347385093
 30
0.0
 10
97.23477326050633
 20
65.37616595986175
 30
0.0
 10
97.28035845216648
 20
65.56256974484222
 30
0.0
 10
97.34283319174133
 20
65.94270424693848
 30
0.0
 10
97.3595043374898
 20
66.13837403922436
 30
0.0
 10
97.36002538066629
 20
66.71685441789877
 30
0.0
 10
97.29558307977959
 20
67.09476625686757
 30
0.0
 10
97.06573398640623
 20
67.836734281966
 30
0.0
 10
96.90721330874315
 20
68.18544974212696
 30
0.0
 10
96.54297897884298
 20
68.85854213986012
 30
0.0
 10
96.33624273877939
 20
69.18349462710175
 30
0.0
 10
95.89830479303903
 20
69.81441843756355
 30
0.0
 10
95.6670320657595
 20
70.12030817790418
 30
0.0
 10
95.42843523525416
 20
70.42031262372369
 30
0.0
  0
SPLINE
  5
154
330
1F
100
AcDbEntity
  8
0
  6
HIDDEN
 62
     7
370
     0
100
AcDbSpline
210
0.0
220
0.0
230
1.0
 70
     8
 71
     3
 72
    72
 73
    68
 74
     0
 42
0.00000001
 43
0.00000001
 12
1.0
 22
0.0
 32
0.0
 13
1.0
 23
0.0
 33
0.0
 40
-0.03125
 40
-0.03125
 40
0.0
 40
0.0
 40
0.03125
 40
0.03125
 40
0.0625
 40
0.0625
 40
0.09375
 40
0.09375
 40
0.125
 40
0.125
 40
0.15625
 40
0.15625
 40
0.1874999999999999
 40
0.1874999999999999
 40
0.2187499999999999
 40
0.2187499999999999
 40
0.2499999999999999
 40
0.2499999999999999
 40
0.2812499999999999
 40
0.2812499999999999
 40
0.3124999999999999
 40
0.3124999999999999
 40
0.3437499999999999
 40
0.3437499999999999
 40
0.3749999999999998
 40
0.3749999999999998
 40
0.3906249999999998
 40
0.3906249999999998
 40
0.4062499999999998
 40
0.4062499999999998
 40
0.4374999999999998
 40
0.4374999999999998
 40
0.4687499999999998
 40
0.4687499999999998
 40
0.4999999999999998
 40
0.4999999999999998
 40
0.5312499999999998
 40
0.5312499999999998
 40
0.5624999999999998
 40
0.5624999999999998
 40
0.5937499999999998
 40
0.5937499999999998
 40
0.6249999999999998
 40
0.6249999999999998
 40
0.6562499999999998
 40
0.6562499999999998
 40
0.6874999999999998
 40
0.6874999999999998
 40
0.7187499999999998
 40
0.7187499999999998
 40
0.7499999999999998
 40
0.7499999999999998
 40
0.7812499999999997
 40
0.7812499999999997
 40
0.8124999999999997
 40
0.8124999999999997
 40
0.8437499999999997
 40
0.8437499999999997
 40
0.8749999999999997
 40
0.8749999999999997
 40
0.9062499999999998
 40
0.9062499999999998
 40
0.9374999999999999
 40
0.9374999999999999
 40
0.96875
 40
0.96875
 40
1.0
 40
1.0
 40
1.03125
 40
1.03125
 10
108.1023815540793
 20
68.7751852204394
 30
0.0
 10
108.4768117739531
 20
69.18554102092453
 30
0.0
 10
108.6816643752187
 20
69.36919010358304
 30
0.0
 10
109.1245325720657
 20
69.69614500707836
 30
0.0
 10
109.364487989384
 20
69.8399232152582
 30
0.0
 10
109.8600989721586
 20
70.07744057070408
 30
0.0
 10
110.1173652633131
 20
70.17276013560179
 30
0.0
 10
110.6507190311501
 20
70.31684566823628
 30
0.0
 10
110.9249991710484
 20
70.36458167520587
 30
0.0
 10
111.471427705628
 20
70.4101638157397
 30
0.0
 10
111.7460040240957
 20
70.40873005566745
 30
0.0
 10
112.2979711983664
 20
70.3558167475766
 30
0.0
 10
112.5685881609381
 20
70.30484702137242
 30
0.0
 10
113.0948733320173
 20
70.15624039442885
 30
0.0
 10
113.3525048954249
 20
70.05795502367172
 30
0.0
 10
113.8484310600984
 20
69.813701664486
 30
0.0
 10
114.0814147378901
 20
69.67062153346383
 30
0.0
 10
114.5177480132151
 20
69.342762982995
 30
0.0
 10
114.7230292670734
 20
69.15576934529477
 30
0.0
 10
115.0910635649336
 20
68.74633872547177
 30
0.0
 10
115.2525785549187
 20
68.52623328448729
 30
0.0
 10
115.5297362380659
 20
68.05448320304927
 30
0.0
 10
115.6461304174996
 20
67.79946667660802
 30
0.0
 10
115.8194044541462
 20
67.27822885321103
 30
0.0
 10
115.877851008612
 20
67.01074473543014
 30
0.0
 10
115.9217157340879
 20
66.59882907609769
 30
0.0
 10
115.9288959507172
 20
66.45912177302216
 30
0.0
 10
115.9279279234218
 20
66.18299871755974
 30
0.0
 10
115.9199251340081
 20
66.04582215122895
 30
0.0
 10
115.8738524020957
 20
65.6368887099657
 30
0.0
 10
115.8129175696437
 20
65.36496246096146
 30
0.0
 10
115.6347974132352
 20
64.84178194450637
 30
0.0
 10
115.5192295018928
 20
64.593069944143
 30
0.0
 10
115.2373827179535
 20
64.12018541915103
 30
0.0
 10
115.0705127725388
 20
63.89657620191891
 30
0.0
 10
114.7011872177401
 20
63.49191881373129
 30
0.0
 10
114.4964020614426
 20
63.30750522556173
 30
0.0
 10
114.0517491139264
 20
62.97847919066736
 30
0.0
 10
113.8168999844156
 20
62.83731111467915
 30
0.0
 10
113.3234902219386
 20
62.59890158589864
 30
0.0
 10
113.0622032682339
 20
62.50111902949376
 30
0.0
 10
112.5314649877212
 20
62.35579100130364
 30
0.0
 10
112.261825286824
 20
62.30750161110868
 30
0.0
 10
111.7140739470788
 20
62.25908638732205
 30
0.0
 10
111.4341699052201
 20
62.259544572958
 30
0.0
 10
110.8870919973851
 20
62.30969642856018
 30
0.0
 10
110.6174868926977
 20
62.35886999559219
 30
0.0
 10
110.0863321360416
 20
62.50654451889923
 30
0.0
 10
109.8250373195981
 20
62.60569968326481
 30
0.0
 10
109.3327233414227
 20
62.84671245374153
 30
0.0
 10
109.0987664658441
 20
62.98920057836625
 30
0.0
 10
108.6565978453136
 20
63.32068800735119
 30
0.0
 10
108.451404314202
 20
63.50812163533957
 30
0.0
 10
108.085710097844
 20
63.91502535438999
 30
0.0
 10
107.9229394754556
 20
64.13620442905898
 30
0.0
 10
107.6419870446901
 20
64.61595175827424
 30
0.0
 10
107.5287831924166
 20
64.86596372508454
 30
0.0
 10
107.3561744682776
 20
65.38603893510495
 30
0.0
 10
107.2965681856013
 20
65.65977039973473
 30
0.0
 10
107.2386764155314
 20
66.20838804963321
 30
0.0
 10
107.2394659543914
 20
66.48272791352477
 30
0.0
 10
107.3006564300078
 20
67.03146986466372
 30
0.0
 10
107.3617851537418
 20
67.30453517852088
 30
0.0
 10
107.5378648393716
 20
67.82470042728927
 30
0.0
 10
107.6541954343616
 20
68.07701956084819
 30
0.0
 10
107.9373966641023
 20
68.55342390225518
 30
0.0
 10
108.1023815540793
 20
68.7751852204394
 30
0.0
 10
108.4768117739531
 20
69.18554102092453
 30
0.0
  0
CIRCLE
  5
155
330
1F
100
AcDbEntity
  8
0
  6
HIDDEN
 62
     7
370
     0
100
AcDbCircle
 10
111.4784352353
 20
66.3343515706
 30
0.0
 40
4.049999999999997
  0
CIRCLE
  5
156
330
1F
100
AcDbEntity
  8
0
  6
HIDDEN
 62
     7
370
     0
100
AcDbCircle
 10
138.9784352353
 20
66.3343515706
 30
0.0
 40
2.0
  0
LINE
  5
157
330
1F
100
AcDbEntity
  8
0
  6
HIDDEN
 62
     7
370
     0
100
AcDbLine
 10
126.9784352353
 20
42.0843515706
 30
0.0
 11
127.0713284541
 21
42.1772447894
 31
0.0
  0
LINE
  5
158
330
1F
100
AcDbEntity
  8
0
  6
HIDDEN
 62
     7
370
     0
100
AcDbLine
 10
127.0713284541
 20
90.4914583518
 30
0.0
 11
126.9784352353
 21
90.5843515706
 31
0.0
  0
ARC
  5
159
330
1F
100
AcDbEntity
  8
0
  6
HIDDEN
 62
     7
370
     0
100
AcDbCircle
 10
126.3642216729
 20
42.8843515706
 30
0.0
 40
1.0
100
AcDbArc
 50
315.0
 51
0.0
  0
ARC
  5
15A
330
1F
100
AcDbEntity
  8
0
  6
HIDDEN
 62
     7
370
     0
100
AcDbCircle
 10
126.3642216729
 20
42.8843515706
 30
0.0
 40
1.0
100
AcDbArc
 50
0.0
 51
52.1052014664
  0
ARC
  5
15B
330
1F
100
AcDbEntity
  8
0
  6
HIDDEN
 62
     7
370
     0
100
AcDbCircle
 10
126.3642216729
 20
89.7843515706
 30
0.0
 40
0.9999999999999779
100
AcDbArc
 50
351.8087250651
 51
45.0
  0
ARC
  5
15C
330
1F
100
AcDbEntity
  8
0
  6
HIDDEN
 62
     7
370
     0
100
AcDbCircle
 10
126.3642216729
 20
89.7843515706
 30
0.0
 40
0.9999999999999927
100
AcDbArc
 50
307.8947985336
 51
351.8087250651
  0
LINE
  5
15D
330
1F
100
AcDbEntity
  8
0
  6
HIDDEN
 62
     7
370
     0
100
AcDbLine
 10
127.3642216729
 20
42.8843515706
 30
0.0
 11
127.3642216729
 21
89.7843515706
 31
0.0
  0
LINE
  5
15E
330
1F
100
AcDbEntity
  8
0
  6
HIDDEN
 62
     7
370
     0
100
AcDbLine
 10
127.3642216729
 20
42.8843515706
 30
0.0
 11
127.3642216729
 21
89.7843515706
 31
0.0
  0
LINE
  5
15F
330
1F
100
AcDbEntity
  8
0
  6
HIDDEN
 62
     7
370
     0
100
AcDbLine
 10
175.1790197738
 20
68.8343515706
 30
0.0
 11
164.1932565265
 21
68.8343515706
 31
0.0
  0
LINE
  5
160
330
1F
100
AcDbEntity
  8
0
  6
HIDDEN
 62
     7
370
     0
100
AcDbLine
 10
164.1932565265
 20
63.8343515706
 30
0.0
 11
175.1790197738
 21
63.8343515706
 31
0.0
  0
LINE
  5
161
330
1F
100
AcDbEntity
  8
0
  6
HIDDEN
 62
     7
370
     0
100
AcDbLine
 10
88.9784352353
 20
50.1379227262
 30
0.0
 11
90.5086636749
 21
51.0214005277
 31
0.0
  0
LINE
  5
162
330
1F
100
AcDbEntity
  8
0
  6
HIDDEN
 62
     7
370
     0
100
AcDbLine
 10
90.5086636749
 20
81.6473026135
 30
0.0
 11
88.9784352353
 21
82.5307804151
 31
0.0
  0
ARC
  5
163
330
1F
100
AcDbEntity
  8
0
  6
HIDDEN
 62
     7
370
     0
100
AcDbCircle
 10
98.9784352353
 20
52.3343515706
 30
0.0
 40
2.000000000000007
100
AcDbArc
 50
189.9742217944
 51
270.0
  0
ARC
  5
164
330
1F
100
AcDbEntity
  8
0
  6
HIDDEN
 62
     7
370
     0
100
AcDbCircle
 10
98.9784352353
 20
80.3343515706
 30
0.0
 40
2.000000000000001
100
AcDbArc
 50
90.0
 51
170.0257782056
  0
LINE
  5
165
330
1F
100
AcDbEntity
  8
0
  6
HIDDEN
 62
     7
370
     0
100
AcDbLine
 10
98.9784352353
 20
50.3343515706
 30
0.0
 11
99.9802365501
 21
50.3343515706
 31
0.0
  0
LINE
  5
166
330
1F
100
AcDbEntity
  8
0
  6
HIDDEN
 62
     7
370
     0
100
AcDbLine
 10
99.9802365501
 20
82.3343515706
 30
0.0
 11
98.9784352353
 21
82.3343515706
 31
0.0
  0
ARC
  5
167
330
1F
100
AcDbEntity
  8
0
  6
HIDDEN
 62
     7
370
     0
100
AcDbCircle
 10
99.9802365501
 20
52.3343515706
 30
0.0
 40
2.000000000000001
100
AcDbArc
 50
270.0
 51
315.0
  0
ARC
  5
168
330
1F
100
AcDbEntity
  8
0
  6
HIDDEN
 62
     7
370
     0
100
AcDbCircle
 10
99.9802365501
 20
80.3343515706
 30
0.0
 40
2.0
100
AcDbArc
 50
45.0
 51
90.0
  0
LINE
  5
169
330
1F
100
AcDbEntity
  8
0
  6
HIDDEN
 62
     7
370
     0
100
AcDbLine
 10
101.3944501125
 20
50.9201380083
 30
0.0
 11
102.8086636749
 21
52.3343515706
 31
0.0
  0
LINE
  5
16A
330
1F
100
AcDbEntity
  8
0
  6
HIDDEN
 62
     7
370
     0
100
AcDbLine
 10
102.8086636749
 20
80.3343515706
 30
0.0
 11
101.3944501125
 21
81.748565133
 31
0.0
  0
LINE
  5
16B
330
1F
100
AcDbEntity
  8
0
  6
HIDDEN
 62
     7
370
     0
100
AcDbLine
 10
90.5086636749
 20
51.0214005277
 30
0.0
 11
95.4086636749
 21
52.3343515706
 31
0.0
  0
LINE
  5
16C
330
1F
100
AcDbEntity
  8
0
  6
HIDDEN
 62
     7
370
     0
100
AcDbLine
 10
95.4086636749
 20
80.3343515706
 30
0.0
 11
90.5086636749
 21
81.6473026135
 31
0.0
  0
LINE
  5
16D
330
1F
100
AcDbEntity
  8
0
  6
HIDDEN
 62
     7
370
     0
100
AcDbLine
 10
97.0086636749
 20
80.6807617321
 30
0.0
 11
96.4086636749
 21
80.3343515706
 31
0.0
  0
LINE
  5
16E
330
1F
100
AcDbEntity
  8
0
  6
HIDDEN
 62
     7
370
     0
100
AcDbLine
 10
96.4086636749
 20
52.3343515706
 30
0.0
 11
97.0086636749
 21
51.9879414091
 31
0.0
  0
ARC
  5
16F
330
1F
100
AcDbEntity
  8
0
  6
HIDDEN
 62
     7
370
     0
100
AcDbCircle
 10
115.4784352353
 20
52.8343515706
 30
0.0
 40
0.5
100
AcDbArc
 50
270.0
 51
0.0
  0
ARC
  5
170
330
1F
100
AcDbEntity
  8
0
  6
HIDDEN
 62
     7
370
     0
100
AcDbCircle
 10
115.4784352353
 20
79.8343515706
 30
0.0
 40
0.5
100
AcDbArc
 50
0.0
 51
90.0
  0
LINE
  5
171
330
1F
100
AcDbEntity
  8
0
  6
HIDDEN
 62
     7
370
     0
100
AcDbLine
 10
102.8086636749
 20
52.3343515706
 30
0.0
 11
115.4784352353
 21
52.3343515706
 31
0.0
  0
LINE
  5
172
330
1F
100
AcDbEntity
  8
0
  6
HIDDEN
 62
     7
370
     0
100
AcDbLine
 10
115.4784352353
 20
80.3343515706
 30
0.0
 11
102.8086636749
 21
80.3343515706
 31
0.0
  0
LINE
  5
173
330
1F
100
AcDbEntity
  8
0
  6
HIDDEN
 62
     7
370
     0
100
AcDbLine
 10
95.4086636749
 20
52.3343515706
 30
0.0
 11
96.4086636749
 21
52.3343515706
 31
0.0
  0
LINE
  5
174
330
1F
100
AcDbEntity
  8
0
  6
HIDDEN
 62
     7
370
     0
100
AcDbLine
 10
96.4086636749
 20
80.3343515706
 30
0.0
 11
95.4086636749
 21
80.3343515706
 31
0.0
  0
LINE
  5
175
330
1F
100
AcDbEntity
  8
0
  6
HIDDEN
 62
     7
370
     0
100
AcDbLine
 10
115.9784352353
 20
56.0843515706
 30
0.0
 11
117.2284352353
 21
57.3343515706
 31
0.0
  0
LINE
  5
176
330
1F
100
AcDbEntity
  8
0
  6
HIDDEN
 62
     7
370
     0
100
AcDbLine
 10
117.2284352353
 20
75.3343515706
 30
0.0
 11
115.9784352353
 21
76.5843515706
 31
0.0
  0
LINE
  5
177
330
1F
100
AcDbEntity
  8
0
  6
HIDDEN
 62
     7
370
     0
100
AcDbLine
 10
153.9784352353
 20
75.3343515706
 30
0.0
 11
117.2284352353
 21
75.3343515706
 31
0.0
  0
LINE
  5
178
330
1F
100
AcDbEntity
  8
0
  6
HIDDEN
 62
     7
370
     0
100
AcDbLine
 10
117.2284352353
 20
57.3343515706
 30
0.0
 11
153.9784352353
 21
57.3343515706
 31
0.0
  0
LINE
  5
179
330
1F
100
AcDbEntity
  8
0
  6
HIDDEN
 62
     7
370
     0
100
AcDbLine
 10
153.9784352353
 20
57.3343515706
 30
0.0
 11
156.8325231756
 21
62.0843515706
 31
0.0
  0
LINE
  5
17A
330
1F
100
AcDbEntity
  8
0
  6
HIDDEN
 62
     7
370
     0
100
AcDbLine
 10
156.8325231756
 20
70.5843515706
 30
0.0
 11
153.9784352353
 21
75.3343515706
 31
0.0
  0
LINE
  5
17B
330
1F
100
AcDbEntity
  8
0
  6
HIDDEN
 62
     7
370
     0
100
AcDbLine
 10
167.9784352353
 20
70.5843515706
 30
0.0
 11
156.8325231756
 21
70.5843515706
 31
0.0
  0
LINE
  5
17C
330
1F
100
AcDbEntity
  8
0
  6
HIDDEN
 62
     7
370
     0
100
AcDbLine
 10
156.8325231756
 20
62.0843515706
 30
0.0
 11
167.9784352353
 21
62.0843515706
 31
0.0
  0
LINE
  5
17D
330
1F
100
AcDbEntity
  8
0
  6
HIDDEN
 62
     7
370
     0
100
AcDbLine
 10
167.9784352353
 20
62.0843515706
 30
0.0
 11
170.5320928661
 21
66.3343515706
 31
0.0
  0
LINE
  5
17E
330
1F
100
AcDbEntity
  8
0
  6
HIDDEN
 62
     7
370
     0
100
AcDbLine
 10
170.5320928661
 20
66.3343515706
 30
0.0
 11
167.9784352353
 21
70.5843515706
 31
0.0
  0
DIMENSION
  5
17F
330
1F
100
AcDbEntity
  8
VERMASSUNG
100
AcDbDimension
  2
_D
 10
78.9784352353
 20
34.8343515706
 30
0.0
 11
78.9784352353
 21
66.3343515706
 31
0.0
 70
   160
  1
PSC%%c<>
 71
     2
 42
-1.0
  3
SLDDIMSTYLE0
100
AcDbAlignedDimension
 13
127.4784352353
 23
97.8343515706
 33
0.0
 14
127.4784352353
 24
34.8343515706
 34
0.0
 50
90.0
100
AcDbRotatedDimension
  0
LINE
  5
18C
330
1F
100
AcDbEntity
  8
VERMASSUNG
  6
CENTERX2
370
     0
100
AcDbLine
 10
84.7113367417
 20
66.3343515706
 30
0.0
 11
233.9660678081
 21
66.3343515706
 31
0.0
  0
LINE
  5
18D
330
1F
100
AcDbEntity
  8
0
  6
Continuous
 62
     7
370
    15
100
AcDbLine
 10
215.3515229583
 20
145.1321744452
 30
0.0
 11
215.3515229583
 21
145.1006436314
 31
0.0
  0
LINE
  5
18E
330
1F
100
AcDbEntity
  8
0
  6
Continuous
 62
     7
370
    15
100
AcDbLine
 10
207.2685861075
 20
145.1245996209
 30
0.0
 11
207.2903890341
 21
145.0006436314
 31
0.0
  0
SPLINE
  5
18F
330
1F
100
AcDbEntity
  8
0
  6
Continuous
 62
     7
370
    15
100
AcDbSpline
210
0.0
220
0.0
230
1.0
 70
     8
 71
     3
 72
     9
 73
     5
 74
     0
 42
0.00000001
 43
0.00000001
 12
1.0
 22
0.0
 32
0.0
 13
1.0
 23
0.0
 33
0.0
 40
0.0
 40
0.0
 40
0.0
 40
0.0
 40
0.4998119767810025
 40
1.0
 40
1.0
 40
1.0
 40
1.0
 10
226.2645037873019
 20
141.0937399920422
 30
0.0
 10
226.3904852711862
 20
141.7644558588526
 30
0.0
 10
226.6425430243748
 20
143.1063922228632
 30
0.0
 10
226.8759660074829
 20
144.4516951894481
 30
0.0
 10
226.9927213879776
 20
145.1245996209348
 30
0.0
  0
LINE
  5
190
330
1F
100
AcDbEntity
  8
0
  6
Continuous
 62
     7
370
    15
100
AcDbLine
 10
160.9784352353
 20
176.8006436314
 30
0.0
 11
127.4784352353
 21
176.8006436314
 31
0.0
  0
LINE
  5
191
330
1F
100
AcDbEntity
  8
0
  6
Continuous
 62
     7
370
    15
100
AcDbLine
 10
170.4576509159
 20
176.8006436314
 30
0.0
 11
166.9411460966
 21
176.8006436314
 31
0.0
  0
LINE
  5
192
330
1F
100
AcDbEntity
  8
0
  6
Continuous
 62
     7
370
    15
100
AcDbLine
 10
140.9784352353
 20
113.8006436314
 30
0.0
 11
217.925357106
 21
113.8006436314
 31
0.0
  0
LINE
  5
193
330
1F
100
AcDbEntity
  8
0
  6
Continuous
 62
     7
370
    15
100
AcDbLine
 10
127.4784352353
 20
113.8006436314
 30
0.0
 11
137.0030535909
 21
113.8006436314
 31
0.0
  0
ARC
  5
194
330
1F
100
AcDbEntity
  8
0
  6
Continuous
 62
     7
370
    15
100
AcDbCircle
 10
127.4784352353
 20
114.3006436314
 30
0.0
 40
0.5
100
AcDbArc
 50
180.0
 51
270.0
  0
ARC
  5
195
330
1F
100
AcDbEntity
  8
0
  6
Continuous
 62
     7
370
    15
100
AcDbCircle
 10
127.4784352353
 20
176.3006436314
 30
0.0
 40
0.5
100
AcDbArc
 50
90.0
 51
180.0
  0
LWPOLYLINE
  5
196
330
1F
100
AcDbEntity
  8
0
  6
Continuous
 62
     7
370
    15
100
AcDbPolyline
 90
        3
 70
   128
 43
0.0
 10
126.7784352353
 20
122.7608233525
 10
126.9038901787
 20
122.6925212376
 10
126.9784352353
 20
122.6397834795
  0
ARC
  5
197
330
1F
100
AcDbEntity
  8
0
  6
Continuous
 62
     7
370
    15
100
AcDbCircle
 10
126.3642216729
 20
168.7506436314
 30
0.0
 40
0.999999999999998
100
AcDbArc
 50
225.0
 51
307.8947985336
  0
LINE
  5
198
330
1F
100
AcDbEntity
  8
0
  6
Continuous
 62
     7
370
    15
100
AcDbLine
 10
115.9254567762
 20
124.9029624804
 30
0.0
 11
124.7784352353
 21
124.6805448468
 31
0.0
  0
LINE
  5
199
330
1F
100
AcDbEntity
  8
0
  6
Continuous
 62
     7
370
    15
100
AcDbLine
 10
97.3564648636
 20
125.3694801904
 30
0.0
 11
107.2607149998
 21
125.1206509532
 31
0.0
  0
ARC
  5
19A
330
1F
100
AcDbEntity
  8
0
  6
Continuous
 62
     7
370
    15
100
AcDbCircle
 10
124.9783721462
 20
124.6755217357
 30
0.0
 40
0.2000000000000201
100
AcDbArc
 50
88.5608333333
 51
178.5608333333
  0
ARC
  5
19B
330
1F
100
AcDbEntity
  8
0
  6
Continuous
 62
     7
370
    15
100
AcDbCircle
 10
126.5784352353
 20
124.6353225816
 30
0.0
 40
0.2000000000000052
100
AcDbArc
 50
0.0
 51
88.5608333333
  0
LINE
  5
19C
330
1F
100
AcDbEntity
  8
0
  6
Continuous
 62
     7
370
    15
100
AcDbLine
 10
124.9833952573
 20
124.8754586466
 30
0.0
 11
126.5834583464
 21
124.8352594925
 31
0.0
  0
ARC
  5
19D
330
1F
100
AcDbEntity
  8
0
  6
Continuous
 62
     7
370
    15
100
AcDbCircle
 10
124.9783721462
 20
168.7257655271
 30
0.0
 40
0.1999999999999902
100
AcDbArc
 50
181.4391666666
 51
271.4391666667
  0
LINE
  5
19E
330
1F
100
AcDbEntity
  8
0
  6
Continuous
 62
     7
370
    15
100
AcDbLine
 10
124.7784352353
 20
168.720742416
 30
0.0
 11
90.4784352353
 21
167.8590070277
 31
0.0
  0
LINE
  5
19F
330
1F
100
AcDbEntity
  8
0
  6
Continuous
 62
     7
370
    15
100
AcDbLine
 10
125.1841743843
 20
168.5308728867
 30
0.0
 11
124.9833952573
 21
168.5258286162
 31
0.0
  0
LINE
  5
1A0
330
1F
100
AcDbEntity
  8
0
  6
Continuous
 62
     7
370
    15
100
AcDbLine
 10
90.4784352353
 20
167.8590070277
 30
0.0
 11
88.9784352353
 21
166.9929816239
 31
0.0
  0
LINE
  5
1A1
330
1F
100
AcDbEntity
  8
0
  6
Continuous
 62
     7
370
    15
100
AcDbLine
 10
125.6571148917
 20
168.0435368502
 30
0.0
 11
125.1943697956
 21
168.5062819463
 31
0.0
  0
LINE
  5
1A2
330
1F
100
AcDbEntity
  8
0
  6
Continuous
 62
     7
370
    15
100
AcDbLine
 10
216.8058016622
 20
141.1306436314
 30
0.0
 11
217.0848230668
 21
141.1306436314
 31
0.0
  0
LINE
  5
1A3
330
1F
100
AcDbEntity
  8
0
  6
Continuous
 62
     7
370
    15
100
AcDbLine
 10
207.4904636491
 20
145.1006436314
 30
0.0
 11
216.9473354112
 21
145.1006436314
 31
0.0
  0
SPLINE
  5
1A4
330
1F
100
AcDbEntity
  8
0
  6
Continuous
 62
     7
370
    15
100
AcDbSpline
210
0.0
220
0.0
230
1.0
 70
    24
 71
     3
 72
    10
 73
     6
 74
     0
 42
0.00000001
 43
0.00000001
 12
1.0
 22
0.0
 32
0.0
 13
1.0
 23
0.0
 33
0.0
 40
0.0
 40
0.0
 40
0.0
 40
0.0
 40
0.265712295724521
 40
0.6165157621686757
 40
1.0
 40
1.0
 40
1.0
 40
1.0
 10
217.1764844286648
 20
141.1306436314025
 30
0.0
 10
217.1687372665486
 20
141.1306436314026
 30
0.0
 10
217.1507620067147
 20
141.1306436314029
 30
0.0
 10
217.1180433004777
 20
141.1306436314024
 30
0.0
 10
217.0962202360674
 20
141.1306436314024
 30
0.0
 10
217.0848230668464
 20
141.1306436314025
 30
0.0
  0
SPLINE
  5
1A5
330
1F
100
AcDbEntity
  8
0
  6
Continuous
 62
     7
370
    15
100
AcDbSpline
210
0.0
220
0.0
230
1.0
 70
    24
 71
     3
 72
    13
 73
     9
 74
     0
 42
0.00000001
 43
0.00000001
 12
1.0
 22
0.0
 32
0.0
 13
1.0
 23
0.0
 33
0.0
 40
0.0
 40
0.0
 40
0.0
 40
0.0
 40
0.1734385751044711
 40
0.3519090391369253
 40
0.5252484949918567
 40
0.7036433105307301
 40
0.8503205800978775
 40
0.9999999999999999
 40
0.9999999999999999
 40
0.9999999999999999
 40
0.9999999999999999
 10
216.9473354112469
 20
145.1006436314025
 30
0.0
 10
216.9673700075963
 20
145.1006436314025
 30
0.0
 10
217.0080204542838
 20
145.1006436314025
 30
0.0
 10
217.0735622323421
 20
145.1006436314025
 30
0.0
 10
217.1409765820731
 20
145.1006436314025
 30
0.0
 10
217.2041158117652
 20
145.1006436314025
 30
0.0
 10
217.2626360447845
 20
145.1006436314025
 30
0.0
 10
217.2967448946983
 20
145.1006436314025
 30
0.0
 10
217.3139720842643
 20
145.1006436314025
 30
0.0
  0
LINE
  5
1A6
330
1F
100
AcDbEntity
  8
0
  6
Continuous
 62
     7
370
    15
100
AcDbLine
 10
217.1764844287
 20
141.1306436314
 30
0.0
 11
226.2199131653
 21
141.1306436314
 31
0.0
  0
LINE
  5
1A7
330
1F
100
AcDbEntity
  8
0
  6
Continuous
 62
     7
370
    15
100
AcDbLine
 10
217.3139720843
 20
145.1006436314
 30
0.0
 11
226.7708438464
 21
145.1006436314
 31
0.0
  0
SPLINE
  5
1A8
330
1F
100
AcDbEntity
  8
0
  6
Continuous
 62
     7
370
    15
100
AcDbSpline
210
0.0
220
0.0
230
1.0
 70
    24
 71
     3
 72
    11
 73
     7
 74
     0
 42
0.00000001
 43
0.00000001
 12
1.0
 22
0.0
 32
0.0
 13
1.0
 23
0.0
 33
0.0
 40
0.0
 40
0.0
 40
0.0
 40
0.0
 40
0.2481111098436461
 40
0.5498162987537394
 40
0.8556415219086136
 40
1.0
 40
1.0
 40
1.0
 40
1.0
 10
207.2779281145608
 20
145.1006436314026
 30
0.0
 10
207.2794695078313
 20
145.1006436314026
 30
0.0
 10
207.2828852482365
 20
145.1006436314024
 30
0.0
 10
207.3405238864582
 20
145.1006436314025
 30
0.0
 10
207.416295491557
 20
145.1006436314025
 30
0.0
 10
207.4724551667301
 20
145.1006436314025
 30
0.0
 10
207.49046364908
 20
145.1006436314025
 30
0.0
  0
SPLINE
  5
1A9
330
1F
100
AcDbEntity
  8
0
  6
Continuous
 62
     7
370
    15
100
AcDbSpline
210
0.0
220
0.0
230
1.0
 70
    24
 71
     3
 72
    14
 73
    10
 74
     0
 42
0.00000001
 43
0.00000001
 12
1.0
 22
0.0
 32
0.0
 13
1.0
 23
0.0
 33
0.0
 40
0.0
 40
0.0
 40
0.0
 40
0.0
 40
0.1566390538116662
 40
0.3178307055438566
 40
0.4740297428609844
 40
0.6349768876522434
 40
0.7874437728639361
 40
0.9445107202742864
 40
1.0
 40
1.0
 40
1.0
 40
1.0
 10
226.7708438464312
 20
145.1006436314025
 30
0.0
 10
226.790396071556
 20
145.1006436314025
 30
0.0
 10
226.8300687927273
 20
145.1006436314025
 30
0.0
 10
226.8808857774799
 20
145.1006436314025
 30
0.0
 10
226.9238538488914
 20
145.1006436314025
 30
0.0
 10
226.9563420997407
 20
145.1006436314025
 30
0.0
 10
226.9773497672054
 20
145.1006436314024
 30
0.0
 10
226.986980039313
 20
145.1006436314028
 30
0.0
 10
226.9857269175626
 20
145.1006436314026
 30
0.0
 10
226.9853997814242
 20
145.1006436314026
 30
0.0
  0
ARC
  5
1AA
330
1F
100
AcDbEntity
  8
0
  6
Continuous
 62
     7
370
    15
100
AcDbCircle
 10
138.9784943333
 20
82.3359443763
 30
0.0
 40
31.5281947283054
100
AcDbArc
 50
86.3630915114
 51
93.5922959171
  0
SPLINE
  5
1AB
330
1F
100
AcDbEntity
  8
0
  6
Continuous
 62
     7
370
    15
100
AcDbSpline
210
0.0
220
0.0
230
1.0
 70
     8
 71
     3
 72
    12
 73
     8
 74
     0
 42
0.00000001
 43
0.00000001
 12
1.0
 22
0.0
 32
0.0
 13
1.0
 23
0.0
 33
0.0
 40
0.0
 40
0.0
 40
0.0
 40
0.0
 40
0.4999999999999981
 40
0.4999999999999981
 40
0.749999999999999
 40
0.749999999999999
 40
1.0
 40
1.0
 40
1.0
 40
1.0
 10
137.0731793469283
 20
115.3999011712852
 30
0.0
 10
137.1039015888474
 20
115.3625991883321
 30
0.0
 10
137.1467388033825
 20
115.3259873562857
 30
0.0
 10
137.2461658275823
 20
115.2782225730006
 30
0.0
 10
137.285918022399
 20
115.2632650575182
 30
0.0
 10
137.3839594792572
 20
115.240075111749
 30
0.0
 10
137.4435155348447
 20
115.2321516725293
 30
0.0
 10
137.5061920488205
 20
115.2321516725293
 30
0.0
  0
LINE
  5
1AC
330
1F
100
AcDbEntity
  8
0
  6
Continuous
 62
     7
370
    15
100
AcDbLine
 10
137.5061920488
 20
115.2321516725
 30
0.0
 11
140.4506784217
 21
115.2321516725
 31
0.0
  0
SPLINE
  5
1AD
330
1F
100
AcDbEntity
  8
0
  6
Continuous
 62
     7
370
    15
100
AcDbSpline
210
0.0
220
0.0
230
1.0
 70
     8
 71
     3
 72
    12
 73
     8
 74
     0
 42
0.00000001
 43
0.00000001
 12
1.0
 22
0.0
 32
0.0
 13
1.0
 23
0.0
 33
0.0
 40
0.0
 40
0.0
 40
0.0
 40
0.0
 40
0.25
 40
0.25
 40
0.5
 40
0.5
 40
1.0
 40
1.0
 40
1.0
 40
1.0
 10
140.4506784216876
 20
115.2321516725293
 30
0.0
 10
140.513758460181
 20
115.2321516725293
 30
0.0
 10
140.5729070823624
 20
115.2400575987417
 30
0.0
 10
140.6713796324315
 20
115.263382760178
 30
0.0
 10
140.7104162444162
 20
115.2780955500097
 30
0.0
 10
140.8103127111952
 20
115.3260513507406
 30
0.0
 10
140.8527335922619
 20
115.3623135073207
 30
0.0
 10
140.8836911235798
 20
115.3999011712852
 30
0.0
  0
ELLIPSE
  5
1AE
330
1F
100
AcDbEntity
  8
0
  6
Continuous
 62
     7
370
    15
100
AcDbEllipse
 10
124.6312810459
 20
145.3006436314
 30
0.0
 11
-14.75368316065621
 21
31.09325491558116
 31
0.0
210
0.0
220
0.0
230
1.0
 40
0.3419987131
 41
3.30073485621712
 42
4.231496223360769
  0
SPLINE
  5
1AF
330
1F
100
AcDbEntity
  8
0
  6
Continuous
 62
     7
370
    15
100
AcDbSpline
210
0.0
220
0.0
230
1.0
 70
     8
 71
     3
 72
    12
 73
     8
 74
     0
 42
0.00000001
 43
0.00000001
 12
1.0
 22
0.0
 32
0.0
 13
1.0
 23
0.0
 33
0.0
 40
0.0
 40
0.0
 40
0.0
 40
0.0
 40
0.4999999999999953
 40
0.4999999999999953
 40
0.7499999999999977
 40
0.7499999999999977
 40
1.0
 40
1.0
 40
1.0
 40
1.0
 10
140.8836911235798
 20
135.391274310717
 30
0.0
 10
140.8529688816607
 20
135.5038301101262
 30
0.0
 10
140.8101316671256
 20
135.6165879698657
 30
0.0
 10
140.7107046429258
 20
135.7661288556621
 30
0.0
 10
140.6709524481091
 20
135.813421587369
 30
0.0
 10
140.5729109912509
 20
135.8871578806904
 30
0.0
 10
140.5133549356634
 20
135.9125772000661
 30
0.0
 10
140.4506784216876
 20
135.9125772000661
 30
0.0
  0
LINE
  5
1B0
330
1F
100
AcDbEntity
  8
0
  6
Continuous
 62
     7
370
    15
100
AcDbLine
 10
140.4506784217
 20
135.9125772001
 30
0.0
 11
137.5061920488
 21
135.9125772001
 31
0.0
  0
SPLINE
  5
1B1
330
1F
100
AcDbEntity
  8
0
  6
Continuous
 62
     7
370
    15
100
AcDbSpline
210
0.0
220
0.0
230
1.0
 70
     8
 71
     3
 72
    12
 73
     8
 74
     0
 42
0.00000001
 43
0.00000001
 12
1.0
 22
0.0
 32
0.0
 13
1.0
 23
0.0
 33
0.0
 40
0.0
 40
0.0
 40
0.0
 40
0.0
 40
0.2499999999999999
 40
0.2499999999999999
 40
0.4999999999999999
 40
0.4999999999999999
 40
1.0
 40
1.0
 40
1.0
 40
1.0
 10
137.5061920488205
 20
135.9125772000661
 30
0.0
 10
137.4431120103271
 20
135.9125772000661
 30
0.0
 10
137.3839633881457
 20
135.8872128808512
 30
0.0
 10
137.2854908380766
 20
135.8130480204783
 30
0.0
 10
137.2464542260919
 20
135.7665276799241
 30
0.0
 10
137.1465577593129
 20
135.6163853370789
 30
0.0
 10
137.1041368782462
 20
135.5046921301067
 30
0.0
 10
137.0731793469282
 20
135.391274310717
 30
0.0
  0
ELLIPSE
  5
1B2
330
1F
100
AcDbEntity
  8
0
  6
Continuous
 62
     7
370
    15
100
AcDbEllipse
 10
153.3255894246
 20
145.3006436314
 30
0.0
 11
14.75368316065621
 21
31.09325491558116
 31
0.0
210
0.0
220
0.0
230
1.0
 40
0.3419987131
 41
2.051689083818829
 42
2.982450450962503
  0
SPLINE
  5
1B3
330
1F
100
AcDbEntity
  8
0
  6
Continuous
 62
     7
370
    15
100
AcDbSpline
210
0.0
220
0.0
230
1.0
 70
     8
 71
     3
 72
    12
 73
     8
 74
     0
 42
0.00000001
 43
0.00000001
 12
1.0
 22
0.0
 32
0.0
 13
1.0
 23
0.0
 33
0.0
 40
0.0
 40
0.0
 40
0.0
 40
0.0
 40
0.4999999999999972
 40
0.4999999999999972
 40
0.7499999999999986
 40
0.7499999999999986
 40
1.0
 40
1.0
 40
1.0
 40
1.0
 10
137.0731793469283
 20
155.2100129520878
 30
0.0
 10
137.1043245448904
 20
155.0959075862225
 30
0.0
 10
137.1465988112248
 20
154.9848012590037
 30
0.0
 10
137.2465443450501
 20
154.8346436515735
 30
0.0
 10
137.2862746497541
 20
154.7876509599561
 30
0.0
 10
137.3831626997604
 20
154.7146753754176
 30
0.0
 10
137.4432279415069
 20
154.6887100627386
 30
0.0
 10
137.5061920488205
 20
154.6887100627386
 30
0.0
  0
LINE
  5
1B4
330
1F
100
AcDbEntity
  8
0
  6
Continuous
 62
     7
370
    15
100
AcDbLine
 10
137.5061920488
 20
154.6887100627
 30
0.0
 11
140.4506784217
 21
154.6887100627
 31
0.0
  0
SPLINE
  5
1B5
330
1F
100
AcDbEntity
  8
0
  6
Continuous
 62
     7
370
    15
100
AcDbSpline
210
0.0
220
0.0
230
1.0
 70
     8
 71
     3
 72
    12
 73
     8
 74
     0
 42
0.00000001
 43
0.00000001
 12
1.0
 22
0.0
 32
0.0
 13
1.0
 23
0.0
 33
0.0
 40
0.0
 40
0.0
 40
0.0
 40
0.0
 40
0.2500000000000001
 40
0.2500000000000001
 40
0.5000000000000001
 40
0.5000000000000001
 40
1.0
 40
1.0
 40
1.0
 40
1.0
 10
140.4506784216876
 20
154.6887100627387
 30
0.0
 10
140.5137353765854
 20
154.6887100627387
 30
0.0
 10
140.572865526331
 20
154.7140564161194
 30
0.0
 10
140.6713130768643
 20
154.7881757982589
 30
0.0
 10
140.7103453150524
 20
154.8346723129569
 30
0.0
 10
140.8102351995093
 20
154.9847468199655
 30
0.0
 10
140.8525341731186
 20
155.0958645290803
 30
0.0
 10
140.8836911235799
 20
155.2100129520878
 30
0.0
  0
ELLIPSE
  5
1B6
330
1F
100
AcDbEntity
  8
0
  6
Continuous
 62
     7
370
    15
100
AcDbEllipse
 10
124.6312810459
 20
145.3006436314
 30
0.0
 11
14.75368316065614
 21
31.09325491558116
 31
0.0
210
0.0
220
0.0
230
1.0
 40
0.3419987131
 41
5.193281737408627
 42
6.124043104552332
  0
SPLINE
  5
1B7
330
1F
100
AcDbEntity
  8
0
  6
Continuous
 62
     7
370
    15
100
AcDbSpline
210
0.0
220
0.0
230
1.0
 70
     8
 71
     3
 72
    12
 73
     8
 74
     0
 42
0.00000001
 43
0.00000001
 12
1.0
 22
0.0
 32
0.0
 13
1.0
 23
0.0
 33
0.0
 40
0.0
 40
0.0
 40
0.0
 40
0.0
 40
0.5000000000000029
 40
0.5000000000000029
 40
0.7500000000000014
 40
0.7500000000000014
 40
1.0
 40
1.0
 40
1.0
 40
1.0
 10
140.8836911235798
 20
175.2013860915197
 30
0.0
 10
140.8525459256177
 20
175.2392016144399
 30
0.0
 10
140.8102716592833
 20
175.2752684725235
 30
0.0
 10
140.710326125458
 20
175.3232285375348
 30
0.0
 10
140.6705958207539
 20
175.3380895114325
 30
0.0
 10
140.5737077707477
 20
175.3610406575636
 30
0.0
 10
140.5136425290012
 20
175.3691355902756
 30
0.0
 10
140.4506784216876
 20
175.3691355902756
 30
0.0
  0
LINE
  5
1B8
330
1F
100
AcDbEntity
  8
0
  6
Continuous
 62
     7
370
    15
100
AcDbLine
 10
140.4506784217
 20
175.3691355903
 30
0.0
 11
137.5061920488
 21
175.3691355903
 31
0.0
  0
SPLINE
  5
1B9
330
1F
100
AcDbEntity
  8
0
  6
Continuous
 62
     7
370
    15
100
AcDbSpline
210
0.0
220
0.0
230
1.0
 70
     8
 71
     3
 72
    12
 73
     8
 74
     0
 42
0.00000001
 43
0.00000001
 12
1.0
 22
0.0
 32
0.0
 13
1.0
 23
0.0
 33
0.0
 40
0.0
 40
0.0
 40
0.0
 40
0.0
 40
0.25
 40
0.25
 40
0.5
 40
0.5
 40
1.0
 40
1.0
 40
1.0
 40
1.0
 10
137.5061920488205
 20
175.3691355902756
 30
0.0
 10
137.4431350939227
 20
175.3691355902756
 30
0.0
 10
137.3840049441771
 20
175.3612352591961
 30
0.0
 10
137.2855573936438
 20
175.337924511191
 30
0.0
 10
137.2465251554557
 20
175.3232193849074
 30
0.0
 10
137.1466352709988
 20
175.2752858567207
 30
0.0
 10
137.1043362973895
 20
175.239215883956
 30
0.0
 10
137.0731793469282
 20
175.2013860915197
 30
0.0
  0
ELLIPSE
  5
1BA
330
1F
100
AcDbEntity
  8
0
  6
Continuous
 62
     7
370
    15
100
AcDbEllipse
 10
153.3255894246
 20
145.3006436314
 30
0.0
 11
-14.75368316065615
 21
31.09325491558116
 31
0.0
210
0.0
220
0.0
230
1.0
 40
0.3419987131
 41
0.1591422026272956
 42
1.089903569770971
  0
LINE
  5
1BB
330
1F
100
AcDbEntity
  8
0
  6
Continuous
 62
     7
370
    15
100
AcDbLine
 10
175.3715714439
 20
158.4616425566
 30
0.0
 11
170.4576509159
 21
176.8006436314
 31
0.0
  0
ELLIPSE
  5
1BC
330
1F
100
AcDbEntity
  8
0
  6
Continuous
 62
     7
370
    15
100
AcDbEllipse
 10
226.8481857198
 20
145.3006436314
 30
0.0
 11
61.0164403962022
 21
5.823223729669906
 31
0.0
210
0.0
220
0.0
230
1.0
 40
0.5073561797
 41
2.524625985547066
 42
4.517422116362711
  0
LINE
  5
1BD
330
1F
100
AcDbEntity
  8
0
  6
Continuous
 62
     7
370
    15
100
AcDbLine
 10
217.925357106
 20
113.8006436314
 30
0.0
 11
217.9256988439
 21
113.8019287849
 31
0.0
  0
ARC
  5
1BE
330
1F
100
AcDbEntity
  8
0
  6
Continuous
 62
     7
370
    15
100
AcDbCircle
 10
163.9783285291
 20
208.2236170535
 30
0.0
 40
31.56584575870816
100
AcDbArc
 50
264.5466052905
 51
275.3857956481
  0
LINE
  5
1BF
330
1F
100
AcDbEntity
  8
0
  6
Continuous
 62
     7
370
    15
100
AcDbLine
 10
126.9784352353
 20
145.3006436314
 30
0.0
 11
126.9784352353
 21
176.3006436314
 31
0.0
  0
LINE
  5
1C0
330
1F
100
AcDbEntity
  8
0
  6
Continuous
 62
     7
370
    15
100
AcDbLine
 10
126.9784352353
 20
114.3006436314
 30
0.0
 11
126.9784352353
 21
145.3006436314
 31
0.0
  0
LINE
  5
1C1
330
1F
100
AcDbEntity
  8
0
  6
Continuous
 62
     7
370
    15
100
AcDbLine
 10
217.9256988439
 20
113.8019287849
 30
0.0
 11
225.1927358339
 21
141.1306436314
 31
0.0
  0
LINE
  5
1C2
330
1F
100
AcDbEntity
  8
0
  6
Continuous
 62
     7
370
    15
100
AcDbLine
 10
177.7868422054
 20
149.4477293608
 30
0.0
 11
175.3715714439
 21
158.4616425566
 31
0.0
  0
ARC
  5
1C3
330
1F
100
AcDbEntity
  8
0
  6
Continuous
 62
     7
370
    15
100
AcDbCircle
 10
183.5823971631
 20
151.0006436314
 30
0.0
 40
6.000000000000017
100
AcDbArc
 50
195.0
 51
270.0
  0
LINE
  5
1C4
330
1F
100
AcDbEntity
  8
0
  6
Continuous
 62
     7
370
    15
100
AcDbLine
 10
216.8058016622
 20
145.0006436314
 30
0.0
 11
183.5823971631
 21
145.0006436314
 31
0.0
  0
LINE
  5
1C5
330
1F
100
AcDbEntity
  8
0
  6
Continuous
 62
     7
370
    15
100
AcDbLine
 10
216.8058016622
 20
145.0006436314
 30
0.0
 11
216.8058016622
 21
142.6006436314
 31
0.0
  0
LINE
  5
1C6
330
1F
100
AcDbEntity
  8
0
  6
Continuous
 62
     7
370
    15
100
AcDbLine
 10
216.6103562409
 20
141.1306436314
 30
0.0
 11
216.8058016622
 21
142.6006436314
 31
0.0
  0
LINE
  5
1C7
330
1F
100
AcDbEntity
  8
0
  6
Continuous
 62
     7
370
    15
100
AcDbLine
 10
216.8058016622
 20
141.1306436314
 30
0.0
 11
216.6103562409
 21
141.1306436314
 31
0.0
  0
LINE
  5
1C8
330
1F
100
AcDbEntity
  8
0
  6
Continuous
 62
     7
370
    15
100
AcDbLine
 10
126.7784352353
 20
128.5104422777
 30
0.0
 11
126.7784352353
 21
122.7608233525
 31
0.0
  0
SPLINE
  5
1C9
330
1F
100
AcDbEntity
  8
0
  6
Continuous
 62
     7
370
    15
100
AcDbSpline
210
0.0
220
0.0
230
1.0
 70
     8
 71
     3
 72
    16
 73
    12
 74
     0
 42
0.00000001
 43
0.00000001
 12
1.0
 22
0.0
 32
0.0
 13
1.0
 23
0.0
 33
0.0
 40
0.0
 40
0.0
 40
0.0
 40
0.0
 40
0.5000000000000066
 40
0.5000000000000066
 40
0.7500000000000098
 40
0.7500000000000098
 40
0.8750000000000041
 40
0.8750000000000041
 40
0.9375000000000021
 40
0.9375000000000021
 40
1.0
 40
1.0
 40
1.0
 40
1.0
 10
126.7784352352541
 20
128.5104422776614
 30
0.0
 10
126.7784352352541
 20
128.5902659886418
 30
0.0
 10
126.7742889601761
 20
128.6721221065259
 30
0.0
 10
126.7483233647826
 20
128.8009372276099
 30
0.0
 10
126.7368624594051
 20
128.8457278993114
 30
0.0
 10
126.7025507216308
 20
128.9118587070428
 30
0.0
 10
126.6885259857011
 20
128.9347057652458
 30
0.0
 10
126.6525030226674
 20
128.9611365184881
 30
0.0
 10
126.6377485135777
 20
128.9675641876303
 30
0.0
 10
126.6083963524308
 20
128.9705251107855
 30
0.0
 10
126.5950564779268
 20
128.9675437192773
 30
0.0
 10
126.5834583463784
 20
128.962800731596
 30
0.0
  0
SPLINE
  5
1CA
330
1F
100
AcDbEntity
  8
0
  6
Continuous
 62
     7
370
    15
100
AcDbSpline
210
0.0
220
0.0
230
1.0
 70
     8
 71
     3
 72
    12
 73
     8
 74
     0
 42
0.00000001
 43
0.00000001
 12
1.0
 22
0.0
 32
0.0
 13
1.0
 23
0.0
 33
0.0
 40
0.0
 40
0.0
 40
0.0
 40
0.0
 40
0.2499999999999994
 40
0.2499999999999994
 40
0.4999999999999991
 40
0.4999999999999991
 40
1.0
 40
1.0
 40
1.0
 40
1.0
 10
126.5834583463855
 20
128.9628007315907
 30
0.0
 10
126.5532665046682
 20
128.9504539554961
 30
0.0
 10
126.5199075352537
 20
128.9399562690263
 30
0.0
 10
126.4467702506731
 20
128.9265352144471
 30
0.0
 10
126.4065283780191
 20
128.9239248032001
 30
0.0
 10
126.2888226010506
 20
128.9318952559423
 30
0.0
 10
126.2184121232712
 20
128.9569830135601
 30
0.0
 10
126.1619229488029
 20
128.9862726558884
 30
0.0
  0
SPLINE
  5
1CB
330
1F
100
AcDbEntity
  8
0
  6
Continuous
 62
     7
370
    15
100
AcDbSpline
210
0.0
220
0.0
230
1.0
 70
     8
 71
     3
 72
    12
 73
     8
 74
     0
 42
0.00000001
 43
0.00000001
 12
1.0
 22
0.0
 32
0.0
 13
1.0
 23
0.0
 33
0.0
 40
0.0
 40
0.0
 40
0.0
 40
0.0
 40
0.2500000000000012
 40
0.2500000000000012
 40
0.4999999999999996
 40
0.4999999999999996
 40
1.0
 40
1.0
 40
1.0
 40
1.0
 10
126.1619229488025
 20
128.9862726558883
 30
0.0
 10
126.0737690110648
 20
129.03198048098
 30
0.0
 10
126.0134155864361
 20
129.0873977192992
 30
0.0
 10
125.9071536283692
 20
129.2056904463545
 30
0.0
 10
125.8649214618071
 20
129.2674855617634
 30
0.0
 10
125.75385076649
 20
129.4589061882783
 30
0.0
 10
125.7009139900632
 20
129.5946528531638
 30
0.0
 10
125.6571148916944
 20
129.7374423869775
 30
0.0
  0
SPLINE
  5
1CC
330
1F
100
AcDbEntity
  8
0
  6
Continuous
 62
     7
370
    15
100
AcDbSpline
210
0.0
220
0.0
230
1.0
 70
     8
 71
     3
 72
    12
 73
     8
 74
     0
 42
0.00000001
 43
0.00000001
 12
1.0
 22
0.0
 32
0.0
 13
1.0
 23
0.0
 33
0.0
 40
0.0
 40
0.0
 40
0.0
 40
0.0
 40
0.4999999999999991
 40
0.4999999999999991
 40
0.7499999999999996
 40
0.7499999999999996
 40
1.0
 40
1.0
 40
1.0
 40
1.0
 10
125.6571148916944
 20
138.7201598213012
 30
0.0
 10
125.700861432531
 20
138.9593337483478
 30
0.0
 10
125.7537457877625
 20
139.1967766032636
 30
0.0
 10
125.8653128750987
 20
139.5456146396792
 30
0.0
 10
125.9078964716416
 20
139.6605235472897
 30
0.0
 10
126.0128131987234
 20
139.8804059921999
 30
0.0
 10
126.0743468065682
 20
139.9887669132142
 30
0.0
 10
126.1619229487944
 20
140.0757725008133
 30
0.0
  0
SPLINE
  5
1CD
330
1F
100
AcDbEntity
  8
0
  6
Continuous
 62
     7
370
    15
100
AcDbSpline
210
0.0
220
0.0
230
1.0
 70
     8
 71
     3
 72
    12
 73
     8
 74
     0
 42
0.00000001
 43
0.00000001
 12
1.0
 22
0.0
 32
0.0
 13
1.0
 23
0.0
 33
0.0
 40
0.0
 40
0.0
 40
0.0
 40
0.0
 40
0.4999999999999998
 40
0.4999999999999998
 40
0.7499999999999997
 40
0.7499999999999997
 40
1.0
 40
1.0
 40
1.0
 40
1.0
 10
126.1619229487976
 20
140.0757725008134
 30
0.0
 10
126.2183594497047
 20
140.1318413204553
 30
0.0
 10
126.2874440803935
 20
140.1789539992097
 30
0.0
 10
126.4062463521114
 20
140.1902744457055
 30
0.0
 10
126.4464316275815
 20
140.183273555214
 30
0.0
 10
126.5198126749853
 20
140.1530622585552
 30
0.0
 10
126.553222238728
 20
140.1304834481736
 30
0.0
 10
126.5834583463844
 20
140.1043961268194
 30
0.0
  0
SPLINE
  5
1CE
330
1F
100
AcDbEntity
  8
0
  6
Continuous
 62
     7
370
    15
100
AcDbSpline
210
0.0
220
0.0
230
1.0
 70
     8
 71
     3
 72
    16
 73
    12
 74
     0
 42
0.00000001
 43
0.00000001
 12
1.0
 22
0.0
 32
0.0
 13
1.0
 23
0.0
 33
0.0
 40
0.0
 40
0.0
 40
0.0
 40
0.0
 40
0.0625000000000009
 40
0.0625000000000009
 40
0.1250000000000019
 40
0.1250000000000019
 40
0.2500000000000022
 40
0.2500000000000022
 40
0.5000000000000027
 40
0.5000000000000027
 40
1.0
 40
1.0
 40
1.0
 40
1.0
 10
126.5834583463472
 20
140.1043961267625
 30
0.0
 10
126.5950387539352
 20
140.0944047013527
 30
0.0
 10
126.6083482806964
 20
140.0861472949711
 30
0.0
 10
126.6376497107826
 20
140.0803980101589
 30
0.0
 10
126.6524638106669
 20
140.084008308867
 30
0.0
 10
126.6882922123697
 20
140.1069287681496
 30
0.0
 10
126.7024118367328
 20
140.1327242763952
 30
0.0
 10
126.7369159808212
 20
140.2108793008142
 30
0.0
 10
126.7480205315258
 20
140.2670221435502
 30
0.0
 10
126.774196708742
 20
140.4379281990839
 30
0.0
 10
126.7784352352541
 20
140.5551432916627
 30
0.0
 10
126.7784352352541
 20
140.6727078908845
 30
0.0
  0
LINE
  5
1CF
330
1F
100
AcDbEntity
  8
0
  6
Continuous
 62
     7
370
    15
100
AcDbLine
 10
126.7784352353
 20
166.7187807257
 30
0.0
 11
126.7784352353
 21
140.6727078909
 31
0.0
  0
SPLINE
  5
1D0
330
1F
100
AcDbEntity
  8
0
  6
Continuous
 62
     7
370
    15
100
AcDbSpline
210
0.0
220
0.0
230
1.0
 70
     8
 71
     3
 72
    16
 73
    12
 74
     0
 42
0.00000001
 43
0.00000001
 12
1.0
 22
0.0
 32
0.0
 13
1.0
 23
0.0
 33
0.0
 40
0.0
 40
0.0
 40
0.0
 40
0.0
 40
0.5000000000000064
 40
0.5000000000000064
 40
0.7500000000000062
 40
0.7500000000000062
 40
0.8750000000000046
 40
0.8750000000000046
 40
0.9375000000000023
 40
0.9375000000000023
 40
1.0
 40
1.0
 40
1.0
 40
1.0
 10
126.7784352352541
 20
166.7187807256616
 30
0.0
 10
126.7784352352541
 20
166.7560545665718
 30
0.0
 10
126.7742889601761
 20
166.7903506585904
 30
0.0
 10
126.7483233647826
 20
166.8324488477267
 30
0.0
 10
126.7368624594052
 20
166.8453624892914
 30
0.0
 10
126.7025507216308
 20
166.857074340031
 30
0.0
 10
126.6885259857012
 20
166.8600877718872
 30
0.0
 10
126.6525030226674
 20
166.8567903091113
 30
0.0
 10
126.6377485135777
 20
166.8539688241235
 30
0.0
 10
126.6083963524308
 20
166.8452870831321
 30
0.0
 10
126.5950564779268
 20
166.839997765525
 30
0.0
 10
126.5834583463784
 20
166.8347340357994
 30
0.0
  0
SPLINE
  5
1D1
330
1F
100
AcDbEntity
  8
0
  6
Continuous
 62
     7
370
    15
100
AcDbSpline
210
0.0
220
0.0
230
1.0
 70
     8
 71
     3
 72
    12
 73
     8
 74
     0
 42
0.00000001
 43
0.00000001
 12
1.0
 22
0.0
 32
0.0
 13
1.0
 23
0.0
 33
0.0
 40
0.0
 40
0.0
 40
0.0
 40
0.0
 40
0.2500000000000006
 40
0.2500000000000006
 40
0.5000000000000008
 40
0.5000000000000008
 40
1.0
 40
1.0
 40
1.0
 40
1.0
 10
126.5834583463855
 20
166.8347340357944
 30
0.0
 10
126.5532599049448
 20
166.821028687375
 30
0.0
 10
126.5198925496089
 20
166.8089810819246
 30
0.0
 10
126.446737273779
 20
166.7922210936949
 30
0.0
 10
126.406484574755
 20
166.787812204154
 30
0.0
 10
126.2887558314801
 20
166.7907419692516
 30
0.0
 10
126.2182973834212
 20
166.8131087295073
 30
0.0
 10
126.1619229488029
 20
166.839885737513
 30
0.0
  0
SPLINE
  5
1D2
330
1F
100
AcDbEntity
  8
0
  6
Continuous
 62
     7
370
    15
100
AcDbSpline
210
0.0
220
0.0
230
1.0
 70
     8
 71
     3
 72
    12
 73
     8
 74
     0
 42
0.00000001
 43
0.00000001
 12
1.0
 22
0.0
 32
0.0
 13
1.0
 23
0.0
 33
0.0
 40
0.0
 40
0.0
 40
0.0
 40
0.0
 40
0.4999999999999993
 40
0.4999999999999993
 40
0.7499999999999997
 40
0.7499999999999997
 40
1.0
 40
1.0
 40
1.0
 40
1.0
 10
125.6571148916944
 20
167.4443286859288
 30
0.0
 10
125.7008652435788
 20
167.3477645381703
 30
0.0
 10
125.7537553947033
 20
167.2461402749847
 30
0.0
 10
125.865366937845
 20
167.0893858108016
 30
0.0
 10
125.9079262817485
 20
167.036519241128
 30
0.0
 10
126.012903517086
 20
166.9333631268137
 30
0.0
 10
126.0744707601805
 20
166.8814242109488
 30
0.0
 10
126.1619229488029
 20
166.839885737513
 30
0.0
  0
SPLINE
  5
1D3
330
1F
100
AcDbEntity
  8
0
  6
Continuous
 62
     7
370
    15
100
AcDbSpline
210
0.0
220
0.0
230
1.0
 70
     8
 71
     3
 72
    16
 73
    12
 74
     0
 42
0.00000001
 43
0.00000001
 12
1.0
 22
0.0
 32
0.0
 13
1.0
 23
0.0
 33
0.0
 40
0.0
 40
0.0
 40
0.0
 40
0.0
 40
0.2500000000000001
 40
0.2500000000000001
 40
0.3749999999999999
 40
0.3749999999999999
 40
0.4999999999999998
 40
0.4999999999999998
 40
0.7499999999999999
 40
0.7499999999999999
 40
1.0
 40
1.0
 40
1.0
 40
1.0
 10
125.6571148916944
 20
129.7374423869775
 30
0.0
 10
125.4958824142099
 20
130.2630767299905
 30
0.0
 10
125.3754025745703
 20
130.8559082575495
 30
0.0
 10
125.253022057257
 20
131.8456799486744
 30
0.0
 10
125.2220443968595
 20
132.1924835944986
 30
0.0
 10
125.1804306592316
 20
132.9214721937387
 30
0.0
 10
125.1701947462988
 20
133.2967471458279
 30
0.0
 10
125.1700063492427
 20
134.4529471920479
 30
0.0
 10
125.2101510518803
 20
135.2643032048476
 30
0.0
 10
125.3743048068199
 20
136.9701474506356
 30
0.0
 10
125.4958564572294
 20
137.8385172433325
 30
0.0
 10
125.6571148916944
 20
138.7201598213012
 30
0.0
  0
LINE
  5
1D4
330
1F
100
AcDbEntity
  8
0
  6
Continuous
 62
     7
370
    15
100
AcDbLine
 10
90.4784352353
 20
140.0757725008
 30
0.0
 11
90.4784352353
 21
166.2367594004
 31
0.0
  0
LINE
  5
1D5
330
1F
100
AcDbEntity
  8
0
  6
Continuous
 62
     7
370
    15
100
AcDbLine
 10
124.7784352353
 20
140.0757725008
 30
0.0
 11
124.7784352353
 21
166.983044138
 31
0.0
  0
LINE
  5
1D6
330
1F
100
AcDbEntity
  8
0
  6
Continuous
 62
     7
370
    15
100
AcDbLine
 10
90.4784352353
 20
129.589398993
 30
0.0
 11
90.4784352353
 21
140.0757725008
 31
0.0
  0
LINE
  5
1D7
330
1F
100
AcDbEntity
  8
0
  6
Continuous
 62
     7
370
    15
100
AcDbLine
 10
124.7784352353
 20
128.8431142554
 30
0.0
 11
124.7784352353
 21
140.0757725008
 31
0.0
  0
LINE
  5
1D8
330
1F
100
AcDbEntity
  8
0
  6
Continuous
 62
     7
370
    15
100
AcDbLine
 10
88.9784352353
 20
140.0757725008
 30
0.0
 11
88.9784352353
 21
165.4867594004
 31
0.0
  0
LINE
  5
1D9
330
1F
100
AcDbEntity
  8
0
  6
Continuous
 62
     7
370
    15
100
AcDbLine
 10
88.9784352353
 20
130.339398993
 30
0.0
 11
88.9784352353
 21
140.0757725008
 31
0.0
  0
SPLINE
  5
1DA
330
1F
100
AcDbEntity
  8
0
  6
Continuous
 62
     7
370
    15
100
AcDbSpline
210
0.0
220
0.0
230
1.0
 70
     8
 71
     3
 72
     8
 73
     4
 74
     0
 42
0.00000001
 43
0.00000001
 12
1.0
 22
0.0
 32
0.0
 13
1.0
 23
0.0
 33
0.0
 40
0.0000249638557296
 40
0.0000249638557296
 40
0.0000249638557296
 40
0.0000249638557296
 40
0.0049776420541172
 40
0.0049776420541172
 40
0.0049776420541172
 40
0.0049776420541172
 10
90.47843523525407
 20
125.8036540182003
 30
0.0
 10
92.12841146976359
 20
125.7673048052623
 30
0.0
 10
93.77841278950864
 20
125.7308802191302
 30
0.0
 10
95.42843523525406
 20
125.6943803409193
 30
0.0
  0
LINE
  5
1DB
330
1F
100
AcDbEntity
  8
0
  6
Continuous
 62
     7
370
    15
100
AcDbLine
 10
90.4784352353
 20
125.8036540182
 30
0.0
 11
90.4784352353
 21
129.589398993
 31
0.0
  0
LINE
  5
1DC
330
1F
100
AcDbEntity
  8
0
  6
Continuous
 62
     7
370
    15
100
AcDbLine
 10
124.7784352353
 20
124.6805448468
 30
0.0
 11
124.7784352353
 21
128.8431142554
 31
0.0
  0
SPLINE
  5
1DD
330
1F
100
AcDbEntity
  8
0
  6
Continuous
 62
     7
370
    15
100
AcDbSpline
210
0.0
220
0.0
230
1.0
 70
     8
 71
     3
 72
    16
 73
    12
 74
     0
 42
0.00000001
 43
0.00000001
 12
1.0
 22
0.0
 32
0.0
 13
1.0
 23
0.0
 33
0.0
 40
0.0
 40
0.0
 40
0.0
 40
0.0
 40
0.1606369997797334
 40
0.4028467553961154
 40
0.4842727961972547
 40
0.5661782113954101
 40
0.6483285628434943
 40
0.7216995581928638
 40
0.870407450257318
 40
0.9461457056823985
 40
1.0
 40
1.0
 40
1.0
 40
1.0
 10
95.42843523525406
 20
125.6943803409194
 30
0.0
 10
95.57938254397452
 20
125.6653509943277
 30
0.0
 10
95.95792941447878
 20
125.5925509663032
 30
0.0
 10
96.37708219693332
 20
125.5205002053981
 30
0.0
 10
96.69085441918234
 20
125.4695322450526
 30
0.0
 10
96.86580998731397
 20
125.4420766151353
 30
0.0
 10
97.01701694661
 20
125.41907266073
 30
0.0
 10
97.18393138439691
 20
125.3943540263077
 30
0.0
 10
97.29962841689367
 20
125.3778421389941
 30
0.0
 10
97.35493593147099
 20
125.3700639773183
 30
0.0
 10
97.35602256810569
 20
125.369912343784
 30
0.0
 10
97.35647413765393
 20
125.3698493299997
 30
0.0
  0
SPLINE
  5
1DE
330
1F
100
AcDbEntity
  8
0
  6
Continuous
 62
     7
370
    15
100
AcDbSpline
210
0.0
220
0.0
230
1.0
 70
     8
 71
     3
 72
    37
 73
    33
 74
     0
 42
0.00000001
 43
0.00000001
 12
1.0
 22
0.0
 32
0.0
 13
1.0
 23
0.0
 33
0.0
 40
0.0
 40
0.0
 40
0.0
 40
0.0
 40
0.0082088346175162
 40
0.0568531972136972
 40
0.0816511408279061
 40
0.1052884390662398
 40
0.1533128249123507
 40
0.1777418966329145
 40
0.202423112072454
 40
0.2525315413255844
 40
0.2779986732573959
 40
0.3043949669448031
 40
0.3579968697510286
 40
0.3852504953761502
 40
0.413171302389453
 40
0.4699154050270579
 40
0.4988002582485113
 40
0.5274352865224593
 40
0.5562691786691741
 40
0.5857349725469945
 40
0.6154215879247759
 40
0.6439014255725665
 40
0.7018804873819263
 40
0.7314650872387425
 40
0.7590241491214004
 40
0.815176045139026
 40
0.8438618849323978
 40
0.8698554391757897
 40
0.9228295070356184
 40
0.9498954013012059
 40
0.9743446826445182
 40
1.0
 40
1.0
 40
1.0
 40
1.0
 10
115.9254659346792
 20
124.9033270174
 30
0.0
 10
115.9262103404722
 20
124.903216781455
 30
0.0
 10
115.9313659869591
 20
124.9024533032979
 30
0.0
 10
115.8825217021488
 20
124.9097017172968
 30
0.0
 10
115.7820139657978
 20
124.9243068148626
 30
0.0
 10
115.6465050199028
 20
124.9436664488924
 30
0.0
 10
115.4636749860208
 20
124.9690271038218
 30
0.0
 10
115.2348759252065
 20
124.9991524978593
 30
0.0
 10
114.9727260834363
 20
125.0323368471121
 30
0.0
 10
114.6665711103831
 20
125.0685598927911
 30
0.0
 10
114.3208231654031
 20
125.1057327703321
 30
0.0
 10
113.9410414983863
 20
125.1436726593885
 30
0.0
 10
113.5233340520563
 20
125.1802691071073
 30
0.0
 10
113.0774493287235
 20
125.2129787571114
 30
0.0
 10
112.6056157908059
 20
125.2429605252444
 30
0.0
 10
112.1103988760964
 20
125.2667505008525
 30
0.0
 10
111.6073225518653
 20
125.2826362461925
 30
0.0
 10
111.2267216472694
 20
125.2904678007349
 30
0.0
 10
110.8459477869317
 20
125.2941120083261
 30
0.0
 10
110.4657199703005
 20
125.293547536774
 30
0.0
 10
110.0950372669834
 20
125.2889071365073
 30
0.0
 10
109.6181812689824
 20
125.2779160924265
 30
0.0
 10
109.1672472197981
 20
125.2605104768213
 30
0.0
 10
108.7584773213647
 20
125.2391709326851
 30
0.0
 10
108.3838725787456
 20
125.2164672197559
 30
0.0
 10
108.0566378284256
 20
125.1927029118432
 30
0.0
 10
107.7890915764396
 20
125.1708951705381
 30
0.0
 10
107.566144341294
 20
125.1515690888986
 30
0.0
 10
107.4008094804623
 20
125.1360710521705
 30
0.0
 10
107.3024259596736
 20
125.1265296416245
 30
0.0
 10
107.2515556704821
 20
125.1215059601478
 30
0.0
 10
107.2576425926585
 20
125.1221069565469
 30
0.0
 10
107.260759310968
 20
125.1224146878479
 30
0.0
  0
SPLINE
  5
1DF
330
1F
100
AcDbEntity
  8
0
  6
Continuous
 62
     7
370
    15
100
AcDbSpline
210
0.0
220
0.0
230
1.0
 70
     8
 71
     3
 72
     8
 73
     4
 74
     0
 42
0.00000001
 43
0.00000001
 12
1.0
 22
0.0
 32
0.0
 13
1.0
 23
0.0
 33
0.0
 40
0.0
 40
0.0
 40
0.0
 40
0.0
 40
1.0
 40
1.0
 40
1.0
 40
1.0
 10
88.97843523525181
 20
126.5521643177582
 30
0.0
 10
89.4451958466296
 20
126.3226348253741
 30
0.0
 10
89.95094339340967
 20
126.0707040502827
 30
0.0
 10
90.47843523525407
 20
125.8036540182003
 30
0.0
  0
LINE
  5
1E0
330
1F
100
AcDbEntity
  8
0
  6
Continuous
 62
     7
370
    15
100
AcDbLine
 10
88.9784352353
 20
126.5521643178
 30
0.0
 11
88.9784352353
 21
130.339398993
 31
0.0
  0
LINE
  5
1E1
330
1F
100
AcDbEntity
  8
0
  6
Continuous
 62
     7
370
    15
100
AcDbLine
 10
124.7784352353
 20
168.720742416
 30
0.0
 11
124.7784352353
 21
166.983044138
 31
0.0
  0
LINE
  5
1E2
330
1F
100
AcDbEntity
  8
0
  6
Continuous
 62
     7
370
    15
100
AcDbLine
 10
90.4784352353
 20
167.8590070277
 30
0.0
 11
90.4784352353
 21
166.2367594004
 31
0.0
  0
SPLINE
  5
1E3
330
1F
100
AcDbEntity
  8
0
  6
Continuous
 62
     7
370
    15
100
AcDbSpline
210
0.0
220
0.0
230
1.0
 70
     8
 71
     3
 72
    10
 73
     6
 74
     0
 42
0.00000001
 43
0.00000001
 12
1.0
 22
0.0
 32
0.0
 13
1.0
 23
0.0
 33
0.0
 40
0.0
 40
0.0
 40
0.0
 40
0.0
 40
0.1209913321306124
 40
0.5024128609468727
 40
1.0
 40
1.0
 40
1.0
 40
1.0
 10
125.1850261895479
 20
168.4969681412972
 30
0.0
 10
125.1809989205913
 20
168.5060513527454
 30
0.0
 10
125.1642758075995
 20
168.5437691145879
 30
0.0
 10
125.2826667680267
 20
168.2758252625691
 30
0.0
 10
125.5217661062029
 20
167.7448831410727
 30
0.0
 10
125.6571148916944
 20
167.4443286859288
 30
0.0
  0
LINE
  5
1E4
330
1F
100
AcDbEntity
  8
0
  6
Continuous
 62
     7
370
    15
100
AcDbLine
 10
88.9784352353
 20
166.9929816239
 30
0.0
 11
88.9784352353
 21
165.4867594004
 31
0.0
  0
SPLINE
  5
1E5
330
1F
100
AcDbEntity
  8
0
  6
HIDDEN
 62
     7
370
     0
100
AcDbSpline
210
0.0
220
0.0
230
1.0
 70
     8
 71
     3
 72
    17
 73
    13
 74
     0
 42
0.00000001
 43
0.00000001
 12
1.0
 22
0.0
 32
0.0
 13
1.0
 23
0.0
 33
0.0
 40
0.0
 40
0.0
 40
0.0
 40
0.0
 40
0.1072234106502363
 40
0.2144416097158173
 40
0.3217951603242431
 40
0.4292380196980166
 40
0.53653340490726
 40
0.6436746584774126
 40
0.750895662955314
 40
0.8583056864987275
 40
0.9657193504048532
 40
1.0
 40
1.0
 40
1.0
 40
1.0
 10
140.978435235254
 20
113.8006436314025
 30
0.0
 10
140.9563677754215
 20
113.8020846286391
 30
0.0
 10
140.9122339283434
 20
113.8049665530728
 30
0.0
 10
140.5682517424397
 20
113.8250074154644
 30
0.0
 10
140.0613052782253
 20
113.8473143114969
 30
0.0
 10
139.4277032546824
 20
113.8633869814532
 30
0.0
 10
138.7445631629786
 20
113.8657825574069
 30
0.0
 10
138.0892060295637
 20
113.8536614282092
 30
0.0
 10
137.5296380561532
 20
113.8320035812503
 30
0.0
 10
137.1485126638081
 20
113.8114514075032
 30
0.0
 10
136.9673928457329
 20
113.7999519009917
 30
0.0
 10
136.9961067304677
 20
113.8017550716306
 30
0.0
 10
137.0030535909083
 20
113.8021913196303
 30
0.0
  0
SPLINE
  5
1E6
330
1F
100
AcDbEntity
  8
0
  6
HIDDEN
 62
     7
370
     0
100
AcDbSpline
210
0.0
220
0.0
230
1.0
 70
     8
 71
     3
 72
    12
 73
     8
 74
     0
 42
0.00000001
 43
0.00000001
 12
1.0
 22
0.0
 32
0.0
 13
1.0
 23
0.0
 33
0.0
 40
0.0
 40
0.0
 40
0.0
 40
0.0
 40
0.4999999999999963
 40
0.4999999999999963
 40
0.7499999999999981
 40
0.7499999999999981
 40
1.0
 40
1.0
 40
1.0
 40
1.0
 10
137.0731793469283
 20
135.3912743107174
 30
0.0
 10
137.1039015888474
 20
135.5038301101266
 30
0.0
 10
137.1467388033825
 20
135.6165879698662
 30
0.0
 10
137.2461658275823
 20
135.7661288556625
 30
0.0
 10
137.285918022399
 20
135.8134215873694
 30
0.0
 10
137.3839594792572
 20
135.8871578806908
 30
0.0
 10
137.4435155348447
 20
135.9125772000665
 30
0.0
 10
137.5061920488205
 20
135.9125772000665
 30
0.0
  0
LINE
  5
1E7
330
1F
100
AcDbEntity
  8
0
  6
HIDDEN
 62
     7
370
     0
100
AcDbLine
 10
137.5061920488
 20
135.9125772001
 30
0.0
 11
140.4506784217
 21
135.9125772001
 31
0.0
  0
SPLINE
  5
1E8
330
1F
100
AcDbEntity
  8
0
  6
HIDDEN
 62
     7
370
     0
100
AcDbSpline
210
0.0
220
0.0
230
1.0
 70
     8
 71
     3
 72
    12
 73
     8
 74
     0
 42
0.00000001
 43
0.00000001
 12
1.0
 22
0.0
 32
0.0
 13
1.0
 23
0.0
 33
0.0
 40
0.0
 40
0.0
 40
0.0
 40
0.0
 40
0.2499999999999991
 40
0.2499999999999991
 40
0.4999999999999982
 40
0.4999999999999982
 40
1.0
 40
1.0
 40
1.0
 40
1.0
 10
140.4506784216876
 20
135.9125772000665
 30
0.0
 10
140.513758460181
 20
135.9125772000665
 30
0.0
 10
140.5729070823624
 20
135.8872128808516
 30
0.0
 10
140.6713796324315
 20
135.8130480204787
 30
0.0
 10
140.7104162444162
 20
135.7665276799245
 30
0.0
 10
140.8103127111952
 20
135.6163853370793
 30
0.0
 10
140.8527335922619
 20
135.5046921301071
 30
0.0
 10
140.8836911235798
 20
135.3912743107174
 30
0.0
  0
ELLIPSE
  5
1E9
330
1F
100
AcDbEntity
  8
0
  6
HIDDEN
 62
     7
370
     0
100
AcDbEllipse
 10
124.6312810459
 20
145.3006436314
 30
0.0
 11
-14.75368316065608
 21
31.09325491558116
 31
0.0
210
0.0
220
0.0
230
1.0
 40
0.3419987131
 41
3.300734856217134
 42
4.231496223360782
  0
SPLINE
  5
1EA
330
1F
100
AcDbEntity
  8
0
  6
HIDDEN
 62
     7
370
     0
100
AcDbSpline
210
0.0
220
0.0
230
1.0
 70
     8
 71
     3
 72
    12
 73
     8
 74
     0
 42
0.00000001
 43
0.00000001
 12
1.0
 22
0.0
 32
0.0
 13
1.0
 23
0.0
 33
0.0
 40
0.0
 40
0.0
 40
0.0
 40
0.0
 40
0.5
 40
0.5
 40
0.75
 40
0.75
 40
1.0
 40
1.0
 40
1.0
 40
1.0
 10
140.8836911235798
 20
115.3999011712853
 30
0.0
 10
140.8529688816607
 20
115.3625991883323
 30
0.0
 10
140.8101316671256
 20
115.3259873562859
 30
0.0
 10
140.7107046429258
 20
115.2782225730007
 30
0.0
 10
140.6709524481091
 20
115.2632650575183
 30
0.0
 10
140.5729109912509
 20
115.2400751117492
 30
0.0
 10
140.5133549356634
 20
115.2321516725295
 30
0.0
 10
140.4506784216876
 20
115.2321516725295
 30
0.0
  0
LINE
  5
1EB
330
1F
100
AcDbEntity
  8
0
  6
HIDDEN
 62
     7
370
     0
100
AcDbLine
 10
140.4506784217
 20
115.2321516725
 30
0.0
 11
137.5061920488
 21
115.2321516725
 31
0.0
  0
SPLINE
  5
1EC
330
1F
100
AcDbEntity
  8
0
  6
HIDDEN
 62
     7
370
     0
100
AcDbSpline
210
0.0
220
0.0
230
1.0
 70
     8
 71
     3
 72
    12
 73
     8
 74
     0
 42
0.00000001
 43
0.00000001
 12
1.0
 22
0.0
 32
0.0
 13
1.0
 23
0.0
 33
0.0
 40
0.0
 40
0.0
 40
0.0
 40
0.0
 40
0.2500000000000009
 40
0.2500000000000009
 40
0.5000000000000018
 40
0.5000000000000018
 40
1.0
 40
1.0
 40
1.0
 40
1.0
 10
137.5061920488205
 20
115.2321516725295
 30
0.0
 10
137.4431120103271
 20
115.2321516725295
 30
0.0
 10
137.3839633881457
 20
115.2400575987419
 30
0.0
 10
137.2854908380766
 20
115.2633827601781
 30
0.0
 10
137.2464542260919
 20
115.2780955500098
 30
0.0
 10
137.1465577593129
 20
115.3260513507408
 30
0.0
 10
137.1041368782462
 20
115.3623135073208
 30
0.0
 10
137.0731793469283
 20
115.3999011712853
 30
0.0
  0
ELLIPSE
  5
1ED
330
1F
100
AcDbEntity
  8
0
  6
HIDDEN
 62
     7
370
     0
100
AcDbEllipse
 10
153.3255894246
 20
145.3006436314
 30
0.0
 11
14.7536831606561
 21
31.09325491558116
 31
0.0
210
0.0
220
0.0
230
1.0
 40
0.3419987131
 41
2.051689083818816
 42
2.982450450962492
  0
SPLINE
  5
1EE
330
1F
100
AcDbEntity
  8
0
  6
HIDDEN
 62
     7
370
     0
100
AcDbSpline
210
0.0
220
0.0
230
1.0
 70
     8
 71
     3
 72
    12
 73
     8
 74
     0
 42
0.00000001
 43
0.00000001
 12
1.0
 22
0.0
 32
0.0
 13
1.0
 23
0.0
 33
0.0
 40
0.0
 40
0.0
 40
0.0
 40
0.0
 40
0.4999999999999982
 40
0.4999999999999982
 40
0.7499999999999991
 40
0.7499999999999991
 40
1.0
 40
1.0
 40
1.0
 40
1.0
 10
137.0731793469283
 20
175.2013860915199
 30
0.0
 10
137.1039015888474
 20
175.2386880744729
 30
0.0
 10
137.1467388033825
 20
175.2752999065193
 30
0.0
 10
137.2461658275823
 20
175.3230646898045
 30
0.0
 10
137.285918022399
 20
175.3380222052869
 30
0.0
 10
137.3839594792572
 20
175.361212151056
 30
0.0
 10
137.4435155348447
 20
175.3691355902757
 30
0.0
 10
137.5061920488205
 20
175.3691355902757
 30
0.0
  0
LINE
  5
1EF
330
1F
100
AcDbEntity
  8
0
  6
HIDDEN
 62
     7
370
     0
100
AcDbLine
 10
137.5061920488
 20
175.3691355903
 30
0.0
 11
140.4506784217
 21
175.3691355903
 31
0.0
  0
SPLINE
  5
1F0
330
1F
100
AcDbEntity
  8
0
  6
HIDDEN
 62
     7
370
     0
100
AcDbSpline
210
0.0
220
0.0
230
1.0
 70
     8
 71
     3
 72
    12
 73
     8
 74
     0
 42
0.00000001
 43
0.00000001
 12
1.0
 22
0.0
 32
0.0
 13
1.0
 23
0.0
 33
0.0
 40
0.0
 40
0.0
 40
0.0
 40
0.0
 40
0.2500000000000023
 40
0.2500000000000023
 40
0.5000000000000047
 40
0.5000000000000047
 40
1.0
 40
1.0
 40
1.0
 40
1.0
 10
140.4506784216876
 20
175.3691355902757
 30
0.0
 10
140.513758460181
 20
175.3691355902757
 30
0.0
 10
140.5729070823624
 20
175.3612296640633
 30
0.0
 10
140.6713796324315
 20
175.3379045026271
 30
0.0
 10
140.7104162444162
 20
175.3231917127954
 30
0.0
 10
140.8103127111952
 20
175.2752359120644
 30
0.0
 10
140.8527335922619
 20
175.2389737554844
 30
0.0
 10
140.8836911235798
 20
175.2013860915199
 30
0.0
  0
ELLIPSE
  5
1F1
330
1F
100
AcDbEntity
  8
0
  6
HIDDEN
 62
     7
370
     0
100
AcDbEllipse
 10
124.6312810459
 20
145.3006436314
 30
0.0
 11
14.75368316065628
 21
31.09325491558116
 31
0.0
210
0.0
220
0.0
230
1.0
 40
0.3419987131
 41
5.193281737408642
 42
6.124043104552345
  0
SPLINE
  5
1F2
330
1F
100
AcDbEntity
  8
0
  6
HIDDEN
 62
     7
370
     0
100
AcDbSpline
210
0.0
220
0.0
230
1.0
 70
     8
 71
     3
 72
    12
 73
     8
 74
     0
 42
0.00000001
 43
0.00000001
 12
1.0
 22
0.0
 32
0.0
 13
1.0
 23
0.0
 33
0.0
 40
0.0
 40
0.0
 40
0.0
 40
0.0
 40
0.5000000000000037
 40
0.5000000000000037
 40
0.7500000000000018
 40
0.7500000000000018
 40
1.0
 40
1.0
 40
1.0
 40
1.0
 10
140.8836911235798
 20
155.2100129520882
 30
0.0
 10
140.8529688816607
 20
155.097457152679
 30
0.0
 10
140.8101316671256
 20
154.9846992929395
 30
0.0
 10
140.7107046429258
 20
154.8351584071431
 30
0.0
 10
140.6709524481091
 20
154.7878656754362
 30
0.0
 10
140.5729109912509
 20
154.7141293821148
 30
0.0
 10
140.5133549356634
 20
154.6887100627391
 30
0.0
 10
140.4506784216876
 20
154.6887100627391
 30
0.0
  0
LINE
  5
1F3
330
1F
100
AcDbEntity
  8
0
  6
HIDDEN
 62
     7
370
     0
100
AcDbLine
 10
140.4506784217
 20
154.6887100627
 30
0.0
 11
137.5061920488
 21
154.6887100627
 31
0.0
  0
SPLINE
  5
1F4
330
1F
100
AcDbEntity
  8
0
  6
HIDDEN
 62
     7
370
     0
100
AcDbSpline
210
0.0
220
0.0
230
1.0
 70
     8
 71
     3
 72
    12
 73
     8
 74
     0
 42
0.00000001
 43
0.00000001
 12
1.0
 22
0.0
 32
0.0
 13
1.0
 23
0.0
 33
0.0
 40
0.0
 40
0.0
 40
0.0
 40
0.0
 40
0.2500000000000009
 40
0.2500000000000009
 40
0.5000000000000018
 40
0.5000000000000018
 40
1.0
 40
1.0
 40
1.0
 40
1.0
 10
137.5061920488205
 20
154.6887100627391
 30
0.0
 10
137.4431120103271
 20
154.6887100627391
 30
0.0
 10
137.3839633881457
 20
154.714074381954
 30
0.0
 10
137.2854908380766
 20
154.7882392423269
 30
0.0
 10
137.2464542260919
 20
154.8347595828811
 30
0.0
 10
137.1465577593129
 20
154.9849019257263
 30
0.0
 10
137.1041368782462
 20
155.0965951326984
 30
0.0
 10
137.0731793469283
 20
155.2100129520882
 30
0.0
  0
ELLIPSE
  5
1F5
330
1F
100
AcDbEntity
  8
0
  6
HIDDEN
 62
     7
370
     0
100
AcDbEllipse
 10
153.3255894246
 20
145.3006436314
 30
0.0
 11
-14.75368316065632
 21
31.09325491558117
 31
0.0
210
0.0
220
0.0
230
1.0
 40
0.3419987131
 41
0.1591422026272823
 42
1.089903569770959
  0
LINE
  5
1F6
330
1F
100
AcDbEntity
  8
0
  6
HIDDEN
 62
     7
370
     0
100
AcDbLine
 10
170.4576509159
 20
176.8006436314
 30
0.0
 11
175.3715714439
 21
158.4616425566
 31
0.0
  0
LINE
  5
1F7
330
1F
100
AcDbEntity
  8
0
  6
HIDDEN
 62
     7
370
     0
100
AcDbLine
 10
217.9256988439
 20
113.8019287849
 30
0.0
 11
217.925357106
 21
113.8006436314
 31
0.0
  0
ELLIPSE
  5
1F8
330
1F
100
AcDbEntity
  8
0
  6
HIDDEN
 62
     7
370
     0
100
AcDbEllipse
 10
226.8481857198
 20
145.3006436314
 30
0.0
 11
61.0164403962022
 21
5.823223729669906
 31
0.0
210
0.0
220
0.0
230
1.0
 40
0.5073561797
 41
2.524625985547066
 42
4.517422116362711
  0
SPLINE
  5
1F9
330
1F
100
AcDbEntity
  8
0
  6
HIDDEN
 62
     7
370
     0
100
AcDbSpline
210
0.0
220
0.0
230
1.0
 70
     8
 71
     3
 72
    17
 73
    13
 74
     0
 42
0.00000001
 43
0.00000001
 12
1.0
 22
0.0
 32
0.0
 13
1.0
 23
0.0
 33
0.0
 40
0.0
 40
0.0
 40
0.0
 40
0.0
 40
0.1070404310418578
 40
0.2140692208269862
 40
0.3214006267621785
 40
0.4289352334048865
 40
0.5361390417601444
 40
0.6429940049047788
 40
0.7500263616023636
 40
0.8574847810843101
 40
0.9649549246529513
 40
1.0
 40
1.0
 40
1.0
 40
1.0
 10
160.9784352352541
 20
176.8006436314025
 30
0.0
 10
161.0114511617861
 20
176.797410497539
 30
0.0
 10
161.0774794241802
 20
176.7909445814338
 30
0.0
 10
161.5920045361901
 20
176.7459488810868
 30
0.0
 10
162.350960161323
 20
176.6957141794993
 30
0.0
 10
163.3008456424099
 20
176.6593746190488
 30
0.0
 10
164.3249783107277
 20
176.6538575204472
 30
0.0
 10
165.3068282904602
 20
176.6810149289356
 30
0.0
 10
166.1460620762559
 20
176.7296515407484
 30
0.0
 10
166.7199910879981
 20
176.7760223325949
 30
0.0
 10
166.9939510399504
 20
176.8021015233399
 30
0.0
 10
166.9515682083
 20
176.7981081392525
 30
0.0
 10
166.9411460966132
 20
176.797126149769
 30
0.0
  0
LINE
  5
1FA
330
1F
100
AcDbEntity
  8
0
  6
HIDDEN
 62
     7
370
     0
100
AcDbLine
 10
126.9784352353
 20
176.3006436314
 30
0.0
 11
126.9784352353
 21
114.3006436314
 31
0.0
  0
LINE
  5
1FB
330
1F
100
AcDbEntity
  8
0
  6
HIDDEN
 62
     7
370
     0
100
AcDbLine
 10
225.1927358339
 20
141.1306436314
 30
0.0
 11
216.8058016622
 21
141.1306436314
 31
0.0
  0
LINE
  5
1FC
330
1F
100
AcDbEntity
  8
0
  6
HIDDEN
 62
     7
370
     0
100
AcDbLine
 10
126.9784352353
 20
121.0506436314
 30
0.0
 11
126.9784352353
 21
169.5506436314
 31
0.0
  0
SPLINE
  5
1FD
330
1F
100
AcDbEntity
  8
0
  6
HIDDEN
 62
     7
370
     0
100
AcDbSpline
210
0.0
220
0.0
230
1.0
 70
     8
 71
     3
 72
    12
 73
     8
 74
     0
 42
0.00000001
 43
0.00000001
 12
1.0
 22
0.0
 32
0.0
 13
1.0
 23
0.0
 33
0.0
 40
0.0
 40
0.0
 40
0.0
 40
0.0
 40
0.5000000000000007
 40
0.5000000000000007
 40
0.7500000000000003
 40
0.7500000000000003
 40
1.0
 40
1.0
 40
1.0
 40
1.0
 10
126.161922948807
 20
128.9862726558862
 30
0.0
 10
126.2183291274873
 20
128.9570260468825
 30
0.0
 10
126.288492028959
 20
128.9319391709508
 30
0.0
 10
126.4065027423482
 20
128.923915800073
 30
0.0
 10
126.4467085259437
 20
128.9265053210539
 30
0.0
 10
126.5204292226768
 20
128.9400706840588
 30
0.0
 10
126.5532899444633
 20
128.9504635410541
 30
0.0
 10
126.5834583463925
 20
128.9628007315857
 30
0.0
  0
SPLINE
  5
1FE
330
1F
100
AcDbEntity
  8
0
  6
HIDDEN
 62
     7
370
     0
100
AcDbSpline
210
0.0
220
0.0
230
1.0
 70
     8
 71
     3
 72
    16
 73
    12
 74
     0
 42
0.00000001
 43
0.00000001
 12
1.0
 22
0.0
 32
0.0
 13
1.0
 23
0.0
 33
0.0
 40
0.0
 40
0.0
 40
0.0
 40
0.0
 40
0.0625000000000009
 40
0.0625000000000009
 40
0.1250000000000018
 40
0.1250000000000018
 40
0.2500000000000019
 40
0.2500000000000019
 40
0.5000000000000064
 40
0.5000000000000064
 40
1.0
 40
1.0
 40
1.0
 40
1.0
 10
126.5834583463474
 20
128.9628007316417
 30
0.0
 10
126.5950712461868
 20
128.9675497587333
 30
0.0
 10
126.6084224306192
 20
128.9705324317364
 30
0.0
 10
126.6378222702384
 20
128.967546761908
 30
0.0
 10
126.6526629947937
 20
128.9610394689482
 30
0.0
 10
126.6884962027623
 20
128.9346867194029
 30
0.0
 10
126.7026094105839
 20
128.9117927387069
 30
0.0
 10
126.7371007818028
 20
128.8451735433677
 30
0.0
 10
126.7481848529132
 20
128.8015043086736
 30
0.0
 10
126.7743076707092
 20
128.6722676602933
 30
0.0
 10
126.7784352352541
 20
128.5899174808632
 30
0.0
 10
126.7784352352541
 20
128.5104422776614
 30
0.0
  0
LINE
  5
1FF
330
1F
100
AcDbEntity
  8
0
  6
HIDDEN
 62
     7
370
     0
100
AcDbLine
 10
126.7784352353
 20
122.7608233525
 30
0.0
 11
126.7784352353
 21
128.5104422777
 31
0.0
  0
SPLINE
  5
200
330
1F
100
AcDbEntity
  8
0
  6
HIDDEN
 62
     7
370
     0
100
AcDbSpline
210
0.0
220
0.0
230
1.0
 70
     8
 71
     3
 72
    12
 73
     8
 74
     0
 42
0.00000001
 43
0.00000001
 12
1.0
 22
0.0
 32
0.0
 13
1.0
 23
0.0
 33
0.0
 40
0.0
 40
0.0
 40
0.0
 40
0.0
 40
0.2500000000000007
 40
0.2500000000000007
 40
0.5000000000000014
 40
0.5000000000000014
 40
1.0
 40
1.0
 40
1.0
 40
1.0
 10
126.1619229488028
 20
166.839885737513
 30
0.0
 10
126.0734295412349
 20
166.8819187742776
 30
0.0
 10
126.0133715004691
 20
166.9329081344401
 30
0.0
 10
125.9075232274865
 20
167.0369104337439
 30
0.0
 10
125.864989706209
 20
167.0898855635865
 30
0.0
 10
125.7538383993854
 20
167.2460840824009
 30
0.0
 10
125.7009075423376
 20
167.347671177925
 30
0.0
 10
125.6571148916944
 20
167.4443286859288
 30
0.0
  0
SPLINE
  5
201
330
1F
100
AcDbEntity
  8
0
  6
HIDDEN
 62
     7
370
     0
100
AcDbSpline
210
0.0
220
0.0
230
1.0
 70
     8
 71
     3
 72
    12
 73
     8
 74
     0
 42
0.00000001
 43
0.00000001
 12
1.0
 22
0.0
 32
0.0
 13
1.0
 23
0.0
 33
0.0
 40
0.0
 40
0.0
 40
0.0
 40
0.0
 40
0.4999999999999999
 40
0.4999999999999999
 40
0.7499999999999998
 40
0.7499999999999998
 40
1.0
 40
1.0
 40
1.0
 40
1.0
 10
126.1619229488028
 20
166.839885737513
 30
0.0
 10
126.2182314970984
 20
166.813140024519
 30
0.0
 10
126.2885061578166
 20
166.7907556390553
 30
0.0
 10
126.4065440721401
 20
166.7878069983663
 30
0.0
 10
126.4467203129941
 20
166.7921859896157
 30
0.0
 10
126.520677407672
 20
166.8091924382745
 30
0.0
 10
126.5532937953835
 20
166.8210440683187
 30
0.0
 10
126.5834583463792
 20
166.8347340357997
 30
0.0
  0
SPLINE
  5
202
330
1F
100
AcDbEntity
  8
0
  6
HIDDEN
 62
     7
370
     0
100
AcDbSpline
210
0.0
220
0.0
230
1.0
 70
     8
 71
     3
 72
    16
 73
    12
 74
     0
 42
0.00000001
 43
0.00000001
 12
1.0
 22
0.0
 32
0.0
 13
1.0
 23
0.0
 33
0.0
 40
0.0
 40
0.0
 40
0.0
 40
0.0
 40
0.0625000000000001
 40
0.0625000000000001
 40
0.1250000000000001
 40
0.1250000000000001
 40
0.2500000000000015
 40
0.2500000000000015
 40
0.500000000000001
 40
0.500000000000001
 40
1.0
 40
1.0
 40
1.0
 40
1.0
 10
126.5834583463475
 20
166.8347340358034
 30
0.0
 10
126.5950712461868
 20
166.8400044680146
 30
0.0
 10
126.6084224306193
 20
166.8452979052457
 30
0.0
 10
126.6378222702385
 20
166.8539875204472
 30
0.0
 10
126.6526629947937
 20
166.8568117748739
 30
0.0
 10
126.6884962027623
 20
166.8600713178891
 30
0.0
 10
126.7026094105839
 20
166.8570725707456
 30
0.0
 10
126.7371007818028
 20
166.845244330487
 30
0.0
 10
126.7481848529132
 20
166.8326202352046
 30
0.0
 10
126.7743076707092
 20
166.7904259027815
 30
0.0
 10
126.7784352352541
 20
166.7558918301701
 30
0.0
 10
126.7784352352541
 20
166.7187807256616
 30
0.0
  0
LINE
  5
203
330
1F
100
AcDbEntity
  8
0
  6
HIDDEN
 62
     7
370
     0
100
AcDbLine
 10
126.7784352353
 20
140.6727078909
 30
0.0
 11
126.7784352353
 21
166.7187807257
 31
0.0
  0
SPLINE
  5
204
330
1F
100
AcDbEntity
  8
0
  6
HIDDEN
 62
     7
370
     0
100
AcDbSpline
210
0.0
220
0.0
230
1.0
 70
     8
 71
     3
 72
    16
 73
    12
 74
     0
 42
0.00000001
 43
0.00000001
 12
1.0
 22
0.0
 32
0.0
 13
1.0
 23
0.0
 33
0.0
 40
0.0
 40
0.0
 40
0.0
 40
0.0
 40
0.4999999999999981
 40
0.4999999999999981
 40
0.7499999999999973
 40
0.7499999999999973
 40
0.874999999999997
 40
0.874999999999997
 40
0.9374999999999986
 40
0.9374999999999986
 40
1.0
 40
1.0
 40
1.0
 40
1.0
 10
126.7784352352541
 20
140.6727078908845
 30
0.0
 10
126.7784352352541
 20
140.5551099534069
 30
0.0
 10
126.7742695367941
 20
140.4384755537461
 30
0.0
 10
126.7480112084691
 20
140.2669254005837
 30
0.0
 10
126.7365074267315
 20
140.209780100149
 30
0.0
 10
126.702376667385
 20
140.1327324270232
 30
0.0
 10
126.6879547807143
 20
140.1066221495153
 30
0.0
 10
126.6523878122765
 20
140.0840055375085
 30
0.0
 10
126.6374360439818
 20
140.0804232108308
 30
0.0
 10
126.6084322256221
 20
140.0861476222221
 30
0.0
 10
126.5950168716128
 20
140.0944235812137
 30
0.0
 10
126.5834583463762
 20
140.1043961268092
 30
0.0
  0
SPLINE
  5
205
330
1F
100
AcDbEntity
  8
0
  6
HIDDEN
 62
     7
370
     0
100
AcDbSpline
210
0.0
220
0.0
230
1.0
 70
     8
 71
     3
 72
    12
 73
     8
 74
     0
 42
0.00000001
 43
0.00000001
 12
1.0
 22
0.0
 32
0.0
 13
1.0
 23
0.0
 33
0.0
 40
0.0
 40
0.0
 40
0.0
 40
0.0
 40
0.2499999999999999
 40
0.2499999999999999
 40
0.4999999999999998
 40
0.4999999999999998
 40
1.0
 40
1.0
 40
1.0
 40
1.0
 10
126.5834583463855
 20
140.1043961268224
 30
0.0
 10
126.5532705698358
 20
140.1304417487249
 30
0.0
 10
126.5199167657441
 20
140.1529819813987
 30
0.0
 10
126.4467905625482
 20
140.1831629664592
 30
0.0
 10
126.406555359524
 20
140.1901877009373
 30
0.0
 10
126.2888637293909
 20
140.179318662345
 30
0.0
 10
126.2184830562309
 20
140.1319641216813
 30
0.0
 10
126.1619229488002
 20
140.0757725008075
 30
0.0
  0
SPLINE
  5
206
330
1F
100
AcDbEntity
  8
0
  6
HIDDEN
 62
     7
370
     0
100
AcDbSpline
210
0.0
220
0.0
230
1.0
 70
     8
 71
     3
 72
    12
 73
     8
 74
     0
 42
0.00000001
 43
0.00000001
 12
1.0
 22
0.0
 32
0.0
 13
1.0
 23
0.0
 33
0.0
 40
0.0
 40
0.0
 40
0.0
 40
0.0
 40
0.2500000000000001
 40
0.2500000000000001
 40
0.5000000000000001
 40
0.5000000000000001
 40
1.0
 40
1.0
 40
1.0
 40
1.0
 10
126.1619229488023
 20
140.0757725008056
 30
0.0
 10
126.073238288946
 20
139.9876656175215
 30
0.0
 10
126.0133198732226
 20
139.8814210565334
 30
0.0
 10
125.9076606459018
 20
139.6600760026902
 30
0.0
 10
125.8650194077869
 20
139.5447554632343
 30
0.0
 10
125.7538300656844
 20
139.1969228969761
 30
0.0
 10
125.7009033835634
 20
138.9595631057545
 30
0.0
 10
125.6571148916944
 20
138.7201598213011
 30
0.0
  0
SPLINE
  5
207
330
1F
100
AcDbEntity
  8
0
  6
HIDDEN
 62
     7
370
     0
100
AcDbSpline
210
0.0
220
0.0
230
1.0
 70
     8
 71
     3
 72
    12
 73
     8
 74
     0
 42
0.00000001
 43
0.00000001
 12
1.0
 22
0.0
 32
0.0
 13
1.0
 23
0.0
 33
0.0
 40
0.0
 40
0.0
 40
0.0
 40
0.0
 40
0.4999999999999982
 40
0.4999999999999982
 40
0.7499999999999991
 40
0.7499999999999991
 40
1.0
 40
1.0
 40
1.0
 40
1.0
 10
125.6571148916928
 20
129.7374423869766
 30
0.0
 10
125.7008763679916
 20
129.594775504953
 30
0.0
 10
125.7537826836446
 20
129.4588691039627
 30
0.0
 10
125.865493881292
 20
129.2665768160662
 30
0.0
 10
125.9080133248783
 20
129.2046771002661
 30
0.0
 10
126.0131366674458
 20
129.0877648454226
 30
0.0
 10
126.0747026311634
 20
129.0314963988696
 30
0.0
 10
126.1619229488062
 20
128.9862726558867
 30
0.0
  0
LINE
  5
208
330
1F
100
AcDbEntity
  8
0
  6
HIDDEN
 62
     7
370
     0
100
AcDbLine
 10
126.7784352353
 20
140.6727078909
 30
0.0
 11
126.7784352353
 21
166.7187807257
 31
0.0
  0
LINE
  5
209
330
1F
100
AcDbEntity
  8
0
  6
HIDDEN
 62
     7
370
     0
100
AcDbLine
 10
90.5086636749
 20
129.9876925885
 30
0.0
 11
90.5086636749
 21
160.6135946743
 31
0.0
  0
LINE
  5
20A
330
1F
100
AcDbEntity
  8
0
  6
HIDDEN
 62
     7
370
     0
100
AcDbLine
 10
88.9784352353
 20
129.1250027872
 30
0.0
 11
88.9784352353
 21
161.4762844756
 31
0.0
  0
LINE
  5
20B
330
1F
100
AcDbEntity
  8
0
  6
HIDDEN
 62
     7
370
     0
100
AcDbLine
 10
97.0086636749
 20
130.9542334699
 30
0.0
 11
97.0086636749
 21
159.6470537929
 31
0.0
  0
LINE
  5
20C
330
1F
100
AcDbEntity
  8
0
  6
HIDDEN
 62
     7
370
     0
100
AcDbLine
 10
124.7784352353
 20
128.8431142554
 30
0.0
 11
124.7784352353
 21
124.6805448468
 31
0.0
  0
LINE
  5
20D
330
1F
100
AcDbEntity
  8
0
  6
HIDDEN
 62
     7
370
     0
100
AcDbLine
 10
90.4784352353
 20
129.589398993
 30
0.0
 11
90.4784352353
 21
125.8036540182
 31
0.0
  0
SPLINE
  5
20E
330
1F
100
AcDbEntity
  8
0
  6
HIDDEN
 62
     7
370
     0
100
AcDbSpline
210
0.0
220
0.0
230
1.0
 70
     8
 71
     3
 72
     8
 73
     4
 74
     0
 42
0.00000001
 43
0.00000001
 12
1.0
 22
0.0
 32
0.0
 13
1.0
 23
0.0
 33
0.0
 40
0.0000249631533153
 40
0.0000249631533153
 40
0.0000249631533153
 40
0.0000249631533153
 40
0.0049776413517029
 40
0.0049776413517029
 40
0.0049776413517029
 40
0.0049776413517029
 10
95.42843523525404
 20
125.6943803409193
 30
0.0
 10
93.77841278950864
 20
125.7308802191302
 30
0.0
 10
92.12841146976358
 20
125.7673048052623
 30
0.0
 10
90.47843523525404
 20
125.8036540182003
 30
0.0
  0
SPLINE
  5
20F
330
1F
100
AcDbEntity
  8
0
  6
HIDDEN
 62
     7
370
     0
100
AcDbSpline
210
0.0
220
0.0
230
1.0
 70
     8
 71
     3
 72
    17
 73
    13
 74
     0
 42
0.00000001
 43
0.00000001
 12
1.0
 22
0.0
 32
0.0
 13
1.0
 23
0.0
 33
0.0
 40
0.0
 40
0.0
 40
0.0
 40
0.0
 40
0.0195669456285084
 40
0.1697449705887946
 40
0.2465957267655206
 40
0.2995797330400135
 40
0.406115825030723
 40
0.5684143747537842
 40
0.6775885899858499
 40
0.8385982950756671
 40
0.8390280594490339
 40
1.0
 40
1.0
 40
1.0
 40
1.0
 10
97.35647413765393
 20
125.3698493299997
 30
0.0
 10
97.3573679209837
 20
125.3697239513724
 30
0.0
 10
97.36512156981092
 20
125.3686362807766
 30
0.0
 10
97.30625913301729
 20
125.3768645336953
 30
0.0
 10
97.1978475364292
 20
125.3924408121628
 30
0.0
 10
97.08150357908252
 20
125.4094600291978
 30
0.0
 10
96.88986224556164
 20
125.4381905339283
 30
0.0
 10
96.61488525694045
 20
125.4812931794211
 30
0.0
 10
96.2610699700608
 20
125.5407431424452
 30
0.0
 10
96.02788880609691
 20
125.5806267848189
 30
0.0
 10
95.72812986198394
 20
125.6375131287409
 30
0.0
 10
95.57808278341601
 20
125.665984640382
 30
0.0
 10
95.42843523525406
 20
125.6943803409196
 30
0.0
  0
SPLINE
  5
210
330
1F
100
AcDbEntity
  8
0
  6
HIDDEN
 62
     7
370
     0
100
AcDbSpline
210
0.0
220
0.0
230
1.0
 70
     8
 71
     3
 72
    31
 73
    27
 74
     0
 42
0.00000001
 43
0.00000001
 12
1.0
 22
0.0
 32
0.0
 13
1.0
 23
0.0
 33
0.0
 40
0.0
 40
0.0
 40
0.0
 40
0.0
 40
0.0249768892277152
 40
0.0294544511886086
 40
0.0891029350219136
 40
0.1193375534430707
 40
0.1536915370278048
 40
0.2234796933894251
 40
0.2589804470144533
 40
0.2948377915707655
 40
0.3677182516454078
 40
0.4048204943654088
 40
0.4415061242623075
 40
0.4784455133927122
 40
0.5161908138252194
 40
0.5542177847567362
 40
0.5907753953440325
 40
0.6652119151138526
 40
0.7032059053902631
 40
0.7383389734893724
 40
0.8099569045753493
 40
0.8465684290328477
 40
0.8792429468383325
 40
0.945843068792534
 40
0.9798751415062359
 40
1.0
 40
1.0
 40
1.0
 40
1.0
 10
108.2895966640162
 20
125.2092095076578
 30
0.0
 10
108.3497211652038
 20
125.2132121722641
 30
0.0
 10
108.4206240774649
 20
125.2179323873475
 30
0.0
 10
108.6340816531645
 20
125.2322359360032
 30
0.0
 10
108.8914233134611
 20
125.2466439097373
 30
0.0
 10
109.2475356526859
 20
125.2632572864919
 30
0.0
 10
109.6525463790731
 20
125.2787306783442
 30
0.0
 10
110.0997852410282
 20
125.289713369138
 30
0.0
 10
110.5686118506298
 20
125.2940360761853
 30
0.0
 10
111.0564744657135
 20
125.2934697233345
 30
0.0
 10
111.5593082743295
 20
125.2847701844594
 30
0.0
 10
112.0624066514497
 20
125.2677597511086
 30
0.0
 10
112.4389256916996
 20
125.2509213881498
 30
0.0
 10
112.8115636877129
 20
125.2302499495464
 30
0.0
 10
113.17983109795
 20
125.2059001536396
 30
0.0
 10
113.5351727044578
 20
125.1786852522213
 30
0.0
 10
113.9874852606586
 20
125.1395881718148
 30
0.0
 10
114.407309251441
 20
125.0972434302474
 30
0.0
 10
114.7780928461226
 20
125.0553895862954
 30
0.0
 10
115.1102410955331
 20
125.0154728832324
 30
0.0
 10
115.3895924318404
 20
124.979028202099
 30
0.0
 10
115.6044685178884
 20
124.9495103557047
 30
0.0
 10
115.7733878251414
 20
124.9256447845855
 30
0.0
 10
115.8799329502505
 20
124.9100559650101
 30
0.0
 10
115.9256369698557
 20
124.9033023562484
 30
0.0
 10
115.9255122725332
 20
124.9033203360561
 30
0.0
 10
115.9254659346792
 20
124.9033270174
 30
0.0
  0
SPLINE
  5
211
330
1F
100
AcDbEntity
  8
0
  6
HIDDEN
 62
     7
370
     0
100
AcDbSpline
210
0.0
220
0.0
230
1.0
 70
     8
 71
     3
 72
    16
 73
    12
 74
     0
 42
0.00000001
 43
0.00000001
 12
1.0
 22
0.0
 32
0.0
 13
1.0
 23
0.0
 33
0.0
 40
0.0
 40
0.0
 40
0.0
 40
0.0
 40
0.1095500553011582
 40
0.224870297488986
 40
0.3330489907852026
 40
0.5529634579461766
 40
0.6649162531837167
 40
0.7479493318968835
 40
0.8595818392247517
 40
0.9154538969696593
 40
1.0
 40
1.0
 40
1.0
 40
1.0
 10
107.260759310968
 20
125.1224146878479
 30
0.0
 10
107.2573721778562
 20
125.1220798351832
 30
0.0
 10
107.2504195055971
 20
125.1213924925969
 30
0.0
 10
107.2982229505604
 20
125.1261180444689
 30
0.0
 10
107.387011618783
 20
125.1347321298499
 30
0.0
 10
107.5289435279023
 20
125.1481574933858
 30
0.0
 10
107.7085650392667
 20
125.1639254468188
 30
0.0
 10
107.8557625646633
 20
125.1765120906732
 30
0.0
 10
108.0057431817226
 20
125.1878703760125
 30
0.0
 10
108.1424653777756
 20
125.1988720365651
 30
0.0
 10
108.2343017621724
 20
125.2053244777366
 30
0.0
 10
108.2895966640162
 20
125.2092095076578
 30
0.0
  0
LINE
  5
212
330
1F
100
AcDbEntity
  8
0
  6
HIDDEN
 62
     7
370
     0
100
AcDbLine
 10
126.7784352353
 20
128.5104422777
 30
0.0
 11
126.7784352353
 21
124.6587417648
 31
0.0
  0
LINE
  5
213
330
1F
100
AcDbEntity
  8
0
  6
HIDDEN
 62
     7
370
     0
100
AcDbLine
 10
102.8086636749
 20
131.3006436314
 30
0.0
 11
102.8086636749
 21
159.3006436314
 31
0.0
  0
LINE
  5
214
330
1F
100
AcDbEntity
  8
0
  6
HIDDEN
 62
     7
370
     0
100
AcDbLine
 10
95.4086636749
 20
131.3006436314
 30
0.0
 11
95.4086636749
 21
159.3006436314
 31
0.0
  0
LINE
  5
215
330
1F
100
AcDbEntity
  8
0
  6
HIDDEN
 62
     7
370
     0
100
AcDbLine
 10
96.4086636749
 20
131.3006436314
 30
0.0
 11
96.4086636749
 21
159.3006436314
 31
0.0
  0
SPLINE
  5
216
330
1F
100
AcDbEntity
  8
0
  6
HIDDEN
 62
     7
370
     0
100
AcDbSpline
210
0.0
220
0.0
230
1.0
 70
    11
 71
     3
 72
    10
 73
     6
 74
     0
 42
0.00000001
 43
0.00000001
 12
1.0
 22
0.0
 32
0.0
 13
1.0
 23
0.0
 33
0.0
 40
0.0
 40
0.0
 40
0.0
 40
0.0
 40
0.5
 40
0.5
 40
1.0
 40
1.0
 40
1.0
 40
1.0
 10
115.4784352352541
 20
159.2862612437927
 30
0.0
 10
115.5116241977278
 20
159.2957535560791
 30
0.0
 10
115.5283249739824
 20
159.2981165287919
 30
0.0
 10
115.5285444144271
 20
159.2981579667824
 30
0.0
 10
115.5116646990337
 20
159.2957651397809
 30
0.0
 10
115.4784352352541
 20
159.2862612437927
 30
0.0
  0
SPLINE
  5
217
330
1F
100
AcDbEntity
  8
0
  6
HIDDEN
 62
     7
370
     0
100
AcDbSpline
210
0.0
220
0.0
230
1.0
 70
    11
 71
     3
 72
    10
 73
     6
 74
     0
 42
0.00000001
 43
0.00000001
 12
1.0
 22
0.0
 32
0.0
 13
1.0
 23
0.0
 33
0.0
 40
0.0
 40
0.0
 40
0.0
 40
0.0
 40
0.5
 40
0.5
 40
1.0
 40
1.0
 40
1.0
 40
1.0
 10
115.4784352352541
 20
131.3150260190123
 30
0.0
 10
115.5115826533305
 20
131.3055455887602
 30
0.0
 10
115.5284414986921
 20
131.3031487301008
 30
0.0
 10
115.5284289683445
 20
131.3031510962531
 30
0.0
 10
115.5115140106041
 20
131.3055652211364
 30
0.0
 10
115.4784352352541
 20
131.3150260190123
 30
0.0
  0
LINE
  5
218
330
1F
100
AcDbEntity
  8
0
  6
HIDDEN
 62
     7
370
     0
100
AcDbLine
 10
115.9784352353
 20
131.8006436314
 30
0.0
 11
115.9784352353
 21
158.8006436314
 31
0.0
  0
SPLINE
  5
219
330
1F
100
AcDbEntity
  8
0
  6
HIDDEN
 62
     7
370
     0
100
AcDbSpline
210
0.0
220
0.0
230
1.0
 70
    11
 71
     3
 72
    68
 73
    64
 74
     0
 42
0.00000001
 43
0.00000001
 12
1.0
 22
0.0
 32
0.0
 13
1.0
 23
0.0
 33
0.0
 40
0.0
 40
0.0
 40
0.0
 40
0.0
 40
0.0312500000000002
 40
0.0312500000000002
 40
0.0625000000000004
 40
0.0625000000000004
 40
0.0937500000000007
 40
0.0937500000000007
 40
0.1250000000000009
 40
0.1250000000000009
 40
0.1562500000000011
 40
0.1562500000000011
 40
0.1875000000000013
 40
0.1875000000000013
 40
0.2187500000000016
 40
0.2187500000000016
 40
0.2500000000000018
 40
0.2500000000000018
 40
0.2812500000000018
 40
0.2812500000000018
 40
0.3125000000000018
 40
0.3125000000000018
 40
0.3437500000000018
 40
0.3437500000000018
 40
0.3750000000000018
 40
0.3750000000000018
 40
0.4062500000000018
 40
0.4062500000000018
 40
0.4375000000000018
 40
0.4375000000000018
 40
0.4687500000000018
 40
0.4687500000000018
 40
0.5000000000000018
 40
0.5000000000000018
 40
0.5625000000000018
 40
0.5625000000000018
 40
0.5937500000000018
 40
0.5937500000000018
 40
0.6250000000000018
 40
0.6250000000000018
 40
0.6562500000000018
 40
0.6562500000000018
 40
0.6875000000000018
 40
0.6875000000000018
 40
0.7187500000000018
 40
0.7187500000000018
 40
0.7500000000000018
 40
0.7500000000000018
 40
0.7812500000000016
 40
0.7812500000000016
 40
0.8125000000000013
 40
0.8125000000000013
 40
0.8437500000000011
 40
0.8437500000000011
 40
0.8750000000000009
 40
0.8750000000000009
 40
0.9062500000000007
 40
0.9062500000000007
 40
0.9375000000000004
 40
0.9375000000000004
 40
0.9687500000000002
 40
0.9687500000000002
 40
1.0
 40
1.0
 40
1.0
 40
1.0
 10
115.4784352352541
 20
131.3150260190123
 30
0.0
 10
115.4384202829044
 20
131.3264706197324
 30
0.0
 10
115.3754784814931
 20
131.3443615290813
 30
0.0
 10
115.206091819421
 20
131.3907087765587
 30
0.0
 10
115.0983982568355
 20
131.4194918147874
 30
0.0
 10
114.8431134882976
 20
131.4838674797525
 30
0.0
 10
114.6970742578254
 20
131.5190785941557
 30
0.0
 10
114.3688528212662
 20
131.5920181882819
 30
0.0
 10
114.1846055334912
 20
131.6301073852266
 30
0.0
 10
113.7916453661829
 20
131.7024399013218
 30
0.0
 10
113.5823507692237
 20
131.7368891272997
 30
0.0
 10
113.1374653422864
 20
131.7987416702146
 30
0.0
 10
112.9006677497873
 20
131.8261152664342
 30
0.0
 10
112.4199326808681
 20
131.8683472241221
 30
0.0
 10
112.1736895876853
 20
131.8835924151949
 30
0.0
 10
111.6689728077058
 20
131.9002634393975
 30
0.0
 10
111.4127781067694
 20
131.9014365650695
 30
0.0
 10
110.9103993575693
 20
131.8895622467309
 30
0.0
 10
110.6611496583857
 20
131.8765818952645
 30
0.0
 10
110.1696218609069
 20
131.8377141496605
 30
0.0
 10
109.9343262596811
 20
131.8124334920103
 30
0.0
 10
109.4834123650189
 20
131.7534056660931
 30
0.0
 10
109.2658000145556
 20
131.7192634294899
 30
0.0
 10
108.8625928450073
 20
131.647777083324
 30
0.0
 10
108.6769813525728
 20
131.6105705850257
 30
0.0
 10
108.3369932821704
 20
131.5369735647764
 30
0.0
 10
108.1819203513474
 20
131.5003586395873
 30
0.0
 10
107.9155772746841
 20
131.4343242811676
 30
0.0
 10
107.8025931739673
 20
131.404550729326
 30
0.0
 10
107.6177379170364
 20
131.3545127390543
 30
0.0
 10
107.546597155533
 20
131.3344407709872
 30
0.0
 10
107.4526367442449
 20
131.3076980821859
 30
0.0
 10
107.4286274142885
 20
131.3006992260375
 30
0.0
 10
107.4280542936159
 20
131.300533430457
 30
0.0
 10
107.5234534049345
 20
131.3289729151284
 30
0.0
 10
107.8013171971356
 20
131.4042143275232
 30
0.0
 10
107.9144791532162
 20
131.4340411051608
 30
0.0
 10
108.18061033526
 20
131.5000446684192
 30
0.0
 10
108.3354381094598
 20
131.5366196168246
 30
0.0
 10
108.6756192152476
 20
131.6102928768334
 30
0.0
 10
108.8611216721973
 20
131.6474885391661
 30
0.0
 10
109.2634154732566
 20
131.7188681130346
 30
0.0
 10
109.4814235215086
 20
131.753109981674
 30
0.0
 10
109.9320218886589
 20
131.8121668291755
 30
0.0
 10
110.1665708875397
 20
131.8373893459396
 30
0.0
 10
110.655030881092
 20
131.8761800436577
 30
0.0
 10
110.9072962768059
 20
131.8894285746412
 30
0.0
 10
111.4094769149662
 20
131.9014181000973
 30
0.0
 10
111.6619590323179
 20
131.9003911004531
 30
0.0
 10
112.1698240753874
 20
131.8838218975719
 30
0.0
 10
112.4173695485712
 20
131.8685287686706
 30
0.0
 10
112.8983370860419
 20
131.8263631939629
 30
0.0
 10
113.1342969511471
 20
131.7991443410136
 30
0.0
 10
113.5808674006688
 20
131.7371327998965
 30
0.0
 10
113.7905122632422
 20
131.7026328359707
 30
0.0
 10
114.1834989699967
 20
131.630326619045
 30
0.0
 10
114.3678948738117
 20
131.5922220331969
 30
0.0
 10
114.6964452916721
 20
131.5192273604054
 30
0.0
 10
114.8423873881952
 20
131.4840425748622
 30
0.0
 10
115.0972727433974
 20
131.4197835867706
 30
0.0
 10
115.2055840562057
 20
131.3908461079816
 30
0.0
 10
115.3754190336227
 20
131.3443793915067
 30
0.0
 10
115.4384143947597
 20
131.3264723037895
 30
0.0
 10
115.4784352352541
 20
131.3150260190123
 30
0.0
  0
SPLINE
  5
21A
330
1F
100
AcDbEntity
  8
0
  6
HIDDEN
 62
     7
370
     0
100
AcDbSpline
210
0.0
220
0.0
230
1.0
 70
    11
 71
     3
 72
    68
 73
    64
 74
     0
 42
0.00000001
 43
0.00000001
 12
1.0
 22
0.0
 32
0.0
 13
1.0
 23
0.0
 33
0.0
 40
0.0
 40
0.0
 40
0.0
 40
0.0
 40
0.0312500000000002
 40
0.0312500000000002
 40
0.0625000000000004
 40
0.0625000000000004
 40
0.0937500000000007
 40
0.0937500000000007
 40
0.1250000000000009
 40
0.1250000000000009
 40
0.1562500000000011
 40
0.1562500000000011
 40
0.1875000000000013
 40
0.1875000000000013
 40
0.2187500000000016
 40
0.2187500000000016
 40
0.2500000000000018
 40
0.2500000000000018
 40
0.2812500000000018
 40
0.2812500000000018
 40
0.3125000000000018
 40
0.3125000000000018
 40
0.3437500000000018
 40
0.3437500000000018
 40
0.3750000000000018
 40
0.3750000000000018
 40
0.4062500000000018
 40
0.4062500000000018
 40
0.4375000000000018
 40
0.4375000000000018
 40
0.4687500000000018
 40
0.4687500000000018
 40
0.5000000000000018
 40
0.5000000000000018
 40
0.5625000000000018
 40
0.5625000000000018
 40
0.5937500000000018
 40
0.5937500000000018
 40
0.6250000000000018
 40
0.6250000000000018
 40
0.6562500000000018
 40
0.6562500000000018
 40
0.6875000000000018
 40
0.6875000000000018
 40
0.7187500000000018
 40
0.7187500000000018
 40
0.7500000000000018
 40
0.7500000000000018
 40
0.7812500000000016
 40
0.7812500000000016
 40
0.8125000000000013
 40
0.8125000000000013
 40
0.8437500000000011
 40
0.8437500000000011
 40
0.8750000000000009
 40
0.8750000000000009
 40
0.9062500000000007
 40
0.9062500000000007
 40
0.9375000000000004
 40
0.9375000000000004
 40
0.9687500000000002
 40
0.9687500000000002
 40
1.0
 40
1.0
 40
1.0
 40
1.0
 10
115.4784352352541
 20
159.2862612437927
 30
0.0
 10
115.4384202829044
 20
159.2748166430725
 30
0.0
 10
115.3754784814931
 20
159.2569257337237
 30
0.0
 10
115.206091819421
 20
159.2105784862463
 30
0.0
 10
115.0983982568355
 20
159.1817954480175
 30
0.0
 10
114.8431134882976
 20
159.1174197830524
 30
0.0
 10
114.6970742578254
 20
159.0822086686493
 30
0.0
 10
114.3688528212662
 20
159.009269074523
 30
0.0
 10
114.1846055334912
 20
158.9711798775784
 30
0.0
 10
113.7916453661829
 20
158.8988473614831
 30
0.0
 10
113.5823507692237
 20
158.8643981355053
 30
0.0
 10
113.1374653422864
 20
158.8025455925904
 30
0.0
 10
112.9006677497873
 20
158.7751719963708
 30
0.0
 10
112.4199326808681
 20
158.7329400386829
 30
0.0
 10
112.1736895876853
 20
158.7176948476101
 30
0.0
 10
111.6689728077058
 20
158.7010238234075
 30
0.0
 10
111.4127781067694
 20
158.6998506977355
 30
0.0
 10
110.9103993575693
 20
158.7117250160741
 30
0.0
 10
110.6611496583857
 20
158.7247053675405
 30
0.0
 10
110.1696218609069
 20
158.7635731131445
 30
0.0
 10
109.9343262596811
 20
158.7888537707947
 30
0.0
 10
109.4834123650189
 20
158.8478815967119
 30
0.0
 10
109.2658000145556
 20
158.8820238333151
 30
0.0
 10
108.8625928450073
 20
158.953510179481
 30
0.0
 10
108.6769813525728
 20
158.9907166777793
 30
0.0
 10
108.3369932821704
 20
159.0643136980285
 30
0.0
 10
108.1819203513474
 20
159.1009286232177
 30
0.0
 10
107.9155772746841
 20
159.1669629816374
 30
0.0
 10
107.8025931739673
 20
159.1967365334789
 30
0.0
 10
107.6177379170364
 20
159.2467745237506
 30
0.0
 10
107.546597155533
 20
159.2668464918178
 30
0.0
 10
107.4526367442449
 20
159.2935891806191
 30
0.0
 10
107.4286274142885
 20
159.3005880367675
 30
0.0
 10
107.4280542936159
 20
159.300753832348
 30
0.0
 10
107.5234534049345
 20
159.2723143476765
 30
0.0
 10
107.8013171971356
 20
159.1970729352817
 30
0.0
 10
107.9144791532162
 20
159.1672461576442
 30
0.0
 10
108.18061033526
 20
159.1012425943858
 30
0.0
 10
108.3354381094598
 20
159.0646676459804
 30
0.0
 10
108.6756192152476
 20
158.9909943859716
 30
0.0
 10
108.8611216721973
 20
158.9537987236388
 30
0.0
 10
109.2634154732566
 20
158.8824191497704
 30
0.0
 10
109.4814235215086
 20
158.848177281131
 30
0.0
 10
109.9320218886589
 20
158.7891204336295
 30
0.0
 10
110.1665708875397
 20
158.7638979168654
 30
0.0
 10
110.655030881092
 20
158.7251072191472
 30
0.0
 10
110.9072962768059
 20
158.7118586881638
 30
0.0
 10
111.4094769149662
 20
158.6998691627077
 30
0.0
 10
111.6619590323179
 20
158.7008961623519
 30
0.0
 10
112.1698240753874
 20
158.7174653652331
 30
0.0
 10
112.4173695485712
 20
158.7327584941343
 30
0.0
 10
112.8983370860419
 20
158.7749240688421
 30
0.0
 10
113.1342969511471
 20
158.8021429217914
 30
0.0
 10
113.5808674006688
 20
158.8641544629085
 30
0.0
 10
113.7905122632422
 20
158.8986544268343
 30
0.0
 10
114.1834989699967
 20
158.97096064376
 30
0.0
 10
114.3678948738117
 20
159.009065229608
 30
0.0
 10
114.6964452916721
 20
159.0820599023995
 30
0.0
 10
114.8423873881952
 20
159.1172446879428
 30
0.0
 10
115.0972727433974
 20
159.1815036760344
 30
0.0
 10
115.2055840562057
 20
159.2104411548234
 30
0.0
 10
115.3754190336227
 20
159.2569078712983
 30
0.0
 10
115.4384143947597
 20
159.2748149590155
 30
0.0
 10
115.4784352352541
 20
159.2862612437927
 30
0.0
  0
LINE
  5
21B
330
1F
100
AcDbEntity
  8
0
  6
HIDDEN
 62
     7
370
     0
100
AcDbLine
 10
117.2284352353
 20
136.3006436314
 30
0.0
 11
117.2284352353
 21
154.3006436314
 31
0.0
  0
LINE
  5
21C
330
1F
100
AcDbEntity
  8
0
  6
HIDDEN
 62
     7
370
     0
100
AcDbLine
 10
115.9784352353
 20
135.0559099153
 30
0.0
 11
115.9784352353
 21
155.5453773475
 31
0.0
  0
LINE
  5
21D
330
1F
100
AcDbEntity
  8
0
  6
HIDDEN
 62
     7
370
     0
100
AcDbLine
 10
153.9784352353
 20
136.3006436314
 30
0.0
 11
153.9784352353
 21
154.3006436314
 31
0.0
  0
LINE
  5
21E
330
1F
100
AcDbEntity
  8
0
  6
HIDDEN
 62
     7
370
     0
100
AcDbLine
 10
156.8325231756
 20
141.0506436314
 30
0.0
 11
156.8325231756
 21
149.5506436314
 31
0.0
  0
LINE
  5
21F
330
1F
100
AcDbEntity
  8
0
  6
HIDDEN
 62
     7
370
     0
100
AcDbLine
 10
124.7784352353
 20
166.983044138
 30
0.0
 11
124.7784352353
 21
168.720742416
 31
0.0
  0
LINE
  5
220
330
1F
100
AcDbEntity
  8
0
  6
HIDDEN
 62
     7
370
     0
100
AcDbLine
 10
90.4784352353
 20
166.2367594004
 30
0.0
 11
90.4784352353
 21
167.8590070277
 31
0.0
  0
SPLINE
  5
221
330
1F
100
AcDbEntity
  8
0
  6
HIDDEN
 62
     7
370
     0
100
AcDbSpline
210
0.0
220
0.0
230
1.0
 70
     8
 71
     3
 72
    10
 73
     6
 74
     0
 42
0.00000001
 43
0.00000001
 12
1.0
 22
0.0
 32
0.0
 13
1.0
 23
0.0
 33
0.0
 40
0.0
 40
0.0
 40
0.0
 40
0.0
 40
0.3700749405053259
 40
0.7506758864502969
 40
1.0
 40
1.0
 40
1.0
 40
1.0
 10
125.6571148916944
 20
167.4443286859288
 30
0.0
 10
125.5516744879505
 20
167.6781406904612
 30
0.0
 10
125.3377946493425
 20
168.1524149915673
 30
0.0
 10
125.1861554760169
 20
168.4945068951792
 30
0.0
 10
125.1853464154366
 20
168.4962702185406
 30
0.0
 10
125.1850261895479
 20
168.4969681412972
 30
0.0
  0
LINE
  5
222
330
1F
100
AcDbEntity
  8
0
  6
HIDDEN
 62
     7
370
     0
100
AcDbLine
 10
88.9784352353
 20
165.4867594004
 30
0.0
 11
88.9784352353
 21
166.9929816239
 31
0.0
  0
LINE
  5
223
330
1F
100
AcDbEntity
  8
0
  6
HIDDEN
 62
     7
370
     0
100
AcDbLine
 10
206.843191246
 20
145.0006436314
 30
0.0
 11
216.8058016622
 21
145.0006436314
 31
0.0
  0
LINE
  5
224
330
1F
100
AcDbEntity
  8
0
  6
HIDDEN
 62
     7
370
     0
100
AcDbLine
 10
207.4813803768
 20
142.6006436314
 30
0.0
 11
216.8058016622
 21
142.6006436314
 31
0.0
  0
LINE
  5
225
330
1F
100
AcDbEntity
  8
0
  6
HIDDEN
 62
     7
370
     0
100
AcDbLine
 10
206.9128153138
 20
141.1306436314
 30
0.0
 11
216.6103562409
 21
141.1306436314
 31
0.0
  0
LINE
  5
226
330
1F
100
AcDbEntity
  8
0
  6
HIDDEN
 62
     7
370
     0
100
AcDbLine
 10
107.4284352353
 20
125.3028876511
 30
0.0
 11
115.5284352353
 21
125.3028876511
 31
0.0
  0
SPLINE
  5
227
330
1F
100
AcDbEntity
  8
0
  6
HIDDEN
 62
     7
370
     0
100
AcDbSpline
210
0.0
220
0.0
230
1.0
 70
    11
 71
     3
 72
    64
 73
    60
 74
     0
 42
0.00000001
 43
0.00000001
 12
1.0
 22
0.0
 32
0.0
 13
1.0
 23
0.0
 33
0.0
 40
-0.03125
 40
-0.03125
 40
0.0
 40
0.0
 40
0.03125
 40
0.03125
 40
0.0625
 40
0.0625
 40
0.1250000000000004
 40
0.1250000000000004
 40
0.1562500000000007
 40
0.1562500000000007
 40
0.1875000000000009
 40
0.1875000000000009
 40
0.2187500000000011
 40
0.2187500000000011
 40
0.2500000000000014
 40
0.2500000000000014
 40
0.2812500000000017
 40
0.2812500000000017
 40
0.3125000000000019
 40
0.3125000000000019
 40
0.3437500000000022
 40
0.3437500000000022
 40
0.3750000000000024
 40
0.3750000000000024
 40
0.4062500000000027
 40
0.4062500000000027
 40
0.4375000000000028
 40
0.4375000000000028
 40
0.4687500000000031
 40
0.4687500000000031
 40
0.5000000000000033
 40
0.5000000000000033
 40
0.5312500000000036
 40
0.5312500000000036
 40
0.5625000000000038
 40
0.5625000000000038
 40
0.6250000000000037
 40
0.6250000000000037
 40
0.6562500000000032
 40
0.6562500000000032
 40
0.6875000000000028
 40
0.6875000000000028
 40
0.7187500000000023
 40
0.7187500000000023
 40
0.7500000000000019
 40
0.7500000000000019
 40
0.7812500000000014
 40
0.7812500000000014
 40
0.812500000000001
 40
0.812500000000001
 40
0.8437500000000006
 40
0.8437500000000006
 40
0.875
 40
0.875
 40
0.9375
 40
0.9375
 40
0.96875
 40
0.96875
 40
1.0
 40
1.0
 40
1.03125
 40
1.03125
 10
161.4784352352541
 20
149.5506436314025
 30
0.0
 10
161.4784352352541
 20
149.5506436314025
 30
0.0
 10
161.4954673586552
 20
149.540561793874
 30
0.0
 10
161.5615295556605
 20
149.5022159100008
 30
0.0
 10
161.6114607052274
 20
149.4734456066518
 30
0.0
 10
161.8022888005941
 20
149.3672078938334
 30
0.0
 10
161.9871712036944
 20
149.2676995162963
 30
0.0
 10
162.3248837970886
 20
149.1133470484389
 30
0.0
 10
162.4494332752678
 20
149.0603274791658
 30
0.0
 10
162.7149176683212
 20
148.9604048645212
 30
0.0
 10
162.8553242254498
 20
148.9135810005564
 30
0.0
 10
163.1534080562405
 20
148.8323015903781
 30
0.0
 10
163.3131614768888
 20
148.7976820543541
 30
0.0
 10
163.6379018585359
 20
148.7506655934615
 30
0.0
 10
163.8046464886716
 20
148.7378046934456
 30
0.0
 10
164.1430333276078
 20
148.7373522559433
 30
0.0
 10
164.3089079503337
 20
148.7496629732434
 30
0.0
 10
164.6345639368315
 20
148.7959300399839
 30
0.0
 10
164.7942905104399
 20
148.8301300607215
 30
0.0
 10
165.0942339354486
 20
148.9112753440054
 30
0.0
 10
165.2376591213827
 20
148.9589047186859
 30
0.0
 10
165.5043239360873
 20
149.0590429868017
 30
0.0
 10
165.6272248121259
 20
149.1112661172315
 30
0.0
 10
165.8538062123495
 20
149.2146381334984
 30
0.0
 10
165.9574358173934
 20
149.2658680289323
 30
0.0
 10
166.1373340813274
 20
149.358648738131
 30
0.0
 10
166.2148384944707
 20
149.4007831575144
 30
0.0
 10
166.3434453028677
 20
149.4723240141336
 30
0.0
 10
166.393418369864
 20
149.50110826883
 30
0.0
 10
166.4602343545678
 20
149.5398754602196
 30
0.0
 10
166.47791201693
 20
149.5503358568281
 30
0.0
 10
166.4789355903487
 20
149.5509379570385
 30
0.0
 10
166.4624337407483
 20
149.5411671197615
 30
0.0
 10
166.3970169975711
 20
149.503181985902
 30
0.0
 10
166.3473701333209
 20
149.4745608242022
 30
0.0
 10
166.1573169025482
 20
149.3686841971236
 30
0.0
 10
165.9727006648601
 20
149.2691919433623
 30
0.0
 10
165.6343839630257
 20
149.114383457894
 30
0.0
 10
165.5094180077661
 20
149.0611440538853
 30
0.0
 10
165.2445707865176
 20
148.9613204010638
 30
0.0
 10
165.1040221194867
 20
148.9143192081966
 30
0.0
 10
164.8042189313922
 20
148.8324454453735
 30
0.0
 10
164.644608166007
 20
148.7978554897015
 30
0.0
 10
164.3199547397837
 20
148.7507653655061
 30
0.0
 10
164.1507585862653
 20
148.737774115051
 30
0.0
 10
163.8141317053393
 20
148.7373813685981
 30
0.0
 10
163.6481678518566
 20
148.7496014028098
 30
0.0
 10
163.3206957574551
 20
148.7961914261079
 30
0.0
 10
163.1616905836319
 20
148.8303265113668
 30
0.0
 10
162.8612524265581
 20
148.9116942867112
 30
0.0
 10
162.7171846786416
 20
148.9596110015545
 30
0.0
 10
162.4509948035383
 20
149.0596812105871
 30
0.0
 10
162.3278460312135
 20
149.1120335822143
 30
0.0
 10
161.9864116922821
 20
149.26796670148
 30
0.0
 10
161.8044264943478
 20
149.3660269942925
 30
0.0
 10
161.6110322221627
 20
149.4736795762304
 30
0.0
 10
161.5622568736227
 20
149.5017968863138
 30
0.0
 10
161.4959380278742
 20
149.5402855007925
 30
0.0
 10
161.4784352352541
 20
149.5506436314025
 30
0.0
 10
161.4784352352541
 20
149.5506436314025
 30
0.0
  0
SPLINE
  5
228
330
1F
100
AcDbEntity
  8
0
  6
HIDDEN
 62
     7
370
     0
100
AcDbSpline
210
0.0
220
0.0
230
1.0
 70
    11
 71
     3
 72
    64
 73
    60
 74
     0
 42
0.00000001
 43
0.00000001
 12
1.0
 22
0.0
 32
0.0
 13
1.0
 23
0.0
 33
0.0
 40
-0.03125
 40
-0.03125
 40
0.0
 40
0.0
 40
0.03125
 40
0.03125
 40
0.0625
 40
0.0625
 40
0.1250000000000004
 40
0.1250000000000004
 40
0.1562500000000007
 40
0.1562500000000007
 40
0.1875000000000009
 40
0.1875000000000009
 40
0.2187500000000011
 40
0.2187500000000011
 40
0.2500000000000014
 40
0.2500000000000014
 40
0.2812500000000017
 40
0.2812500000000017
 40
0.3125000000000019
 40
0.3125000000000019
 40
0.3437500000000022
 40
0.3437500000000022
 40
0.3750000000000024
 40
0.3750000000000024
 40
0.4062500000000027
 40
0.4062500000000027
 40
0.4375000000000028
 40
0.4375000000000028
 40
0.4687500000000031
 40
0.4687500000000031
 40
0.5000000000000033
 40
0.5000000000000033
 40
0.5312500000000036
 40
0.5312500000000036
 40
0.5625000000000038
 40
0.5625000000000038
 40
0.6250000000000037
 40
0.6250000000000037
 40
0.6562500000000032
 40
0.6562500000000032
 40
0.6875000000000028
 40
0.6875000000000028
 40
0.7187500000000023
 40
0.7187500000000023
 40
0.7500000000000019
 40
0.7500000000000019
 40
0.7812500000000014
 40
0.7812500000000014
 40
0.812500000000001
 40
0.812500000000001
 40
0.8437500000000006
 40
0.8437500000000006
 40
0.875
 40
0.875
 40
0.9375
 40
0.9375
 40
0.96875
 40
0.96875
 40
1.0
 40
1.0
 40
1.03125
 40
1.03125
 10
161.4784352352541
 20
149.5506436314025
 30
0.0
 10
161.4784352352541
 20
149.5506436314025
 30
0.0
 10
161.4954673586552
 20
149.540561793874
 30
0.0
 10
161.5615295556605
 20
149.5022159100008
 30
0.0
 10
161.6114607052274
 20
149.4734456066518
 30
0.0
 10
161.8022888005941
 20
149.3672078938334
 30
0.0
 10
161.9871712036944
 20
149.2676995162963
 30
0.0
 10
162.3248837970886
 20
149.1133470484389
 30
0.0
 10
162.4494332752678
 20
149.0603274791658
 30
0.0
 10
162.7149176683212
 20
148.9604048645212
 30
0.0
 10
162.8553242254498
 20
148.9135810005564
 30
0.0
 10
163.1534080562405
 20
148.8323015903781
 30
0.0
 10
163.3131614768888
 20
148.7976820543541
 30
0.0
 10
163.6379018585359
 20
148.7506655934615
 30
0.0
 10
163.8046464886716
 20
148.7378046934456
 30
0.0
 10
164.1430333276078
 20
148.7373522559433
 30
0.0
 10
164.3089079503337
 20
148.7496629732434
 30
0.0
 10
164.6345639368315
 20
148.7959300399839
 30
0.0
 10
164.7942905104399
 20
148.8301300607215
 30
0.0
 10
165.0942339354486
 20
148.9112753440054
 30
0.0
 10
165.2376591213827
 20
148.9589047186859
 30
0.0
 10
165.5043239360873
 20
149.0590429868017
 30
0.0
 10
165.6272248121259
 20
149.1112661172315
 30
0.0
 10
165.8538062123495
 20
149.2146381334984
 30
0.0
 10
165.9574358173934
 20
149.2658680289323
 30
0.0
 10
166.1373340813274
 20
149.358648738131
 30
0.0
 10
166.2148384944707
 20
149.4007831575144
 30
0.0
 10
166.3434453028677
 20
149.4723240141336
 30
0.0
 10
166.393418369864
 20
149.50110826883
 30
0.0
 10
166.4602343545678
 20
149.5398754602196
 30
0.0
 10
166.47791201693
 20
149.5503358568281
 30
0.0
 10
166.4789355903487
 20
149.5509379570385
 30
0.0
 10
166.4624337407483
 20
149.5411671197615
 30
0.0
 10
166.3970169975711
 20
149.503181985902
 30
0.0
 10
166.3473701333209
 20
149.4745608242022
 30
0.0
 10
166.1573169025482
 20
149.3686841971236
 30
0.0
 10
165.9727006648601
 20
149.2691919433623
 30
0.0
 10
165.6343839630257
 20
149.114383457894
 30
0.0
 10
165.5094180077661
 20
149.0611440538853
 30
0.0
 10
165.2445707865176
 20
148.9613204010638
 30
0.0
 10
165.1040221194867
 20
148.9143192081966
 30
0.0
 10
164.8042189313922
 20
148.8324454453735
 30
0.0
 10
164.644608166007
 20
148.7978554897015
 30
0.0
 10
164.3199547397837
 20
148.7507653655061
 30
0.0
 10
164.1507585862653
 20
148.737774115051
 30
0.0
 10
163.8141317053393
 20
148.7373813685981
 30
0.0
 10
163.6481678518566
 20
148.7496014028098
 30
0.0
 10
163.3206957574551
 20
148.7961914261079
 30
0.0
 10
163.1616905836319
 20
148.8303265113668
 30
0.0
 10
162.8612524265581
 20
148.9116942867112
 30
0.0
 10
162.7171846786416
 20
148.9596110015545
 30
0.0
 10
162.4509948035383
 20
149.0596812105871
 30
0.0
 10
162.3278460312135
 20
149.1120335822143
 30
0.0
 10
161.9864116922821
 20
149.26796670148
 30
0.0
 10
161.8044264943478
 20
149.3660269942925
 30
0.0
 10
161.6110322221627
 20
149.4736795762304
 30
0.0
 10
161.5622568736227
 20
149.5017968863138
 30
0.0
 10
161.4959380278742
 20
149.5402855007925
 30
0.0
 10
161.4784352352541
 20
149.5506436314025
 30
0.0
 10
161.4784352352541
 20
149.5506436314025
 30
0.0
  0
LINE
  5
229
330
1F
100
AcDbEntity
  8
0
  6
HIDDEN
 62
     7
370
     0
100
AcDbLine
 10
167.9784352353
 20
141.0506436314
 30
0.0
 11
167.9784352353
 21
149.5506436314
 31
0.0
  0
SPLINE
  5
22A
330
1F
100
AcDbEntity
  8
0
  6
HIDDEN
 62
     7
370
     0
100
AcDbSpline
210
0.0
220
0.0
230
1.0
 70
     8
 71
     3
 72
     8
 73
     4
 74
     0
 42
0.00000001
 43
0.00000001
 12
1.0
 22
0.0
 32
0.0
 13
1.0
 23
0.0
 33
0.0
 40
0.0
 40
0.0
 40
0.0
 40
0.0
 40
1.0
 40
1.0
 40
1.0
 40
1.0
 10
90.47843523525407
 20
125.8036540182003
 30
0.0
 10
89.95094339341053
 20
126.0707040502823
 30
0.0
 10
89.44519584663122
 20
126.3226348253733
 30
0.0
 10
88.97843523525405
 20
126.5521643177571
 30
0.0
  0
LINE
  5
22B
330
1F
100
AcDbEntity
  8
0
  6
HIDDEN
 62
     7
370
     0
100
AcDbLine
 10
95.4284352353
 20
125.6943803409
 30
0.0
 11
95.4284352353
 21
127.3006436314
 31
0.0
  0
LINE
  5
22C
330
1F
100
AcDbEntity
  8
0
  6
HIDDEN
 62
     7
370
     0
100
AcDbLine
 10
88.9784352353
 20
126.5521643178
 30
0.0
 11
88.9784352353
 21
127.3006436314
 31
0.0
  0
LINE
  5
22D
330
1F
100
AcDbEntity
  8
0
  6
HIDDEN
 62
     7
370
     0
100
AcDbLine
 10
107.4284352353
 20
162.8006436314
 30
0.0
 11
115.5284352353
 21
162.8006436314
 31
0.0
  0
LINE
  5
22E
330
1F
100
AcDbEntity
  8
0
  6
HIDDEN
 62
     7
370
     0
100
AcDbLine
 10
166.9784352353
 20
169.8006436314
 30
0.0
 11
160.9784352353
 21
169.8006436314
 31
0.0
  0
LINE
  5
22F
330
1F
100
AcDbEntity
  8
0
  6
HIDDEN
 62
     7
370
     0
100
AcDbLine
 10
166.4784352353
 20
169.5002133219
 30
0.0
 11
161.4784352353
 21
169.5002133219
 31
0.0
  0
LINE
  5
230
330
1F
100
AcDbEntity
  8
0
  6
HIDDEN
 62
     7
370
     0
100
AcDbLine
 10
164.2682717317
 20
162.4038421204
 30
0.0
 11
166.4784352353
 21
164.0997602245
 31
0.0
  0
SPLINE
  5
231
330
1F
100
AcDbEntity
  8
0
  6
HIDDEN
 62
     7
370
     0
100
AcDbSpline
210
0.0
220
0.0
230
1.0
 70
     8
 71
     3
 72
     8
 73
     4
 74
     0
 42
0.00000001
 43
0.00000001
 12
1.0
 22
0.0
 32
0.0
 13
1.0
 23
0.0
 33
0.0
 40
0.0
 40
0.0
 40
0.0
 40
0.0
 40
1.0
 40
1.0
 40
1.0
 40
1.0
 10
164.2682717317144
 20
162.4038421203985
 30
0.0
 10
164.2214370148692
 20
162.257702535874
 30
0.0
 10
164.1812437629152
 20
162.1083128806604
 30
0.0
 10
164.1490882707686
 20
161.9590433887268
 30
0.0
  0
LINE
  5
232
330
1F
100
AcDbEntity
  8
0
  6
HIDDEN
 62
     7
370
     0
100
AcDbLine
 10
164.1490882708
 20
161.9590433887
 30
0.0
 11
166.4784352353
 21
158.9233793225
 31
0.0
  0
SPLINE
  5
233
330
1F
100
AcDbEntity
  8
0
  6
HIDDEN
 62
     7
370
     0
100
AcDbSpline
210
0.0
220
0.0
230
1.0
 70
     8
 71
     3
 72
     8
 73
     4
 74
     0
 42
0.00000001
 43
0.00000001
 12
1.0
 22
0.0
 32
0.0
 13
1.0
 23
0.0
 33
0.0
 40
0.0
 40
0.0
 40
0.0
 40
0.0
 40
1.0
 40
1.0
 40
1.0
 40
1.0
 10
164.1490882707686
 20
161.9590433887268
 30
0.0
 10
164.181233176092
 20
162.1082637354099
 30
0.0
 10
164.2215107242968
 20
162.2579325333173
 30
0.0
 10
164.2682717317145
 20
162.4038421203987
 30
0.0
  0
LINE
  5
234
330
1F
100
AcDbEntity
  8
0
  6
HIDDEN
 62
     7
370
     0
100
AcDbLine
 10
164.1490882708
 20
161.9590433887
 30
0.0
 11
164.2682717317
 21
162.4038421204
 31
0.0
  0
LINE
  5
235
330
1F
100
AcDbEntity
  8
0
  6
HIDDEN
 62
     7
370
     0
100
AcDbLine
 10
164.2682717317
 20
162.4038421204
 30
0.0
 11
164.1490882708
 21
161.9590433887
 31
0.0
  0
LINE
  5
236
330
1F
100
AcDbEntity
  8
0
  6
HIDDEN
 62
     7
370
     0
100
AcDbLine
 10
175.9261660006
 20
156.3918674936
 30
0.0
 11
174.431873547
 21
161.9686428518
 31
0.0
  0
LINE
  5
237
330
1F
100
AcDbEntity
  8
0
  6
HIDDEN
 62
     7
370
     0
100
AcDbLine
 10
215.3806537478
 20
140.6806436314
 30
0.0
 11
218.6806537478
 21
140.6806436314
 31
0.0
  0
LINE
  5
238
330
1F
100
AcDbEntity
  8
0
  6
HIDDEN
 62
     7
370
     0
100
AcDbLine
 10
214.9520287198
 20
141.1306436314
 30
0.0
 11
219.1092787757
 21
141.1306436314
 31
0.0
  0
LINE
  5
239
330
1F
100
AcDbEntity
  8
0
  6
HIDDEN
 62
     7
370
     0
100
AcDbLine
 10
136.9784352353
 20
114.3006436314
 30
0.0
 11
140.9784352353
 21
114.3006436314
 31
0.0
  0
LINE
  5
23A
330
1F
100
AcDbEntity
  8
0
  6
HIDDEN
 62
     7
370
     0
100
AcDbLine
 10
215.3806537478
 20
129.6306436314
 30
0.0
 11
218.6806537478
 21
129.6306436314
 31
0.0
  0
LINE
  5
23B
330
1F
100
AcDbEntity
  8
0
  6
HIDDEN
 62
     7
370
     0
100
AcDbLine
 10
207.46808477
 20
142.7006436314
 30
0.0
 11
206.8564868529
 21
145.0006436314
 31
0.0
  0
LINE
  5
23C
330
1F
100
AcDbEntity
  8
0
  6
HIDDEN
 62
     7
370
     0
100
AcDbLine
 10
207.4813803768
 20
142.6006436314
 30
0.0
 11
207.46808477
 21
142.7006436314
 31
0.0
  0
LINE
  5
23D
330
1F
100
AcDbEntity
  8
0
  6
HIDDEN
 62
     7
370
     0
100
AcDbLine
 10
207.4813803768
 20
142.6006436314
 30
0.0
 11
206.843191246
 21
145.0006436314
 31
0.0
  0
LINE
  5
23E
330
1F
100
AcDbEntity
  8
0
  6
HIDDEN
 62
     7
370
     0
100
AcDbLine
 10
206.8564868529
 20
145.0006436314
 30
0.0
 11
206.843191246
 21
145.0006436314
 31
0.0
  0
LINE
  5
23F
330
1F
100
AcDbEntity
  8
0
  6
HIDDEN
 62
     7
370
     0
100
AcDbLine
 10
206.9128153138
 20
142.7006436314
 30
0.0
 11
207.46808477
 21
142.7006436314
 31
0.0
  0
LINE
  5
240
330
1F
100
AcDbEntity
  8
0
  6
HIDDEN
 62
     7
370
     0
100
AcDbLine
 10
206.7824154321
 20
145.0006436314
 30
0.0
 11
206.8564868529
 21
145.0006436314
 31
0.0
  0
LINE
  5
241
330
1F
100
AcDbEntity
  8
0
  6
HIDDEN
 62
     7
370
     0
100
AcDbLine
 10
208.0671868469
 20
142.7006436314
 30
0.0
 11
206.2400010803
 21
142.7006436314
 31
0.0
  0
LINE
  5
242
330
1F
100
AcDbEntity
  8
0
  6
HIDDEN
 62
     7
370
     0
100
AcDbLine
 10
208.1975867285
 20
145.0006436314
 30
0.0
 11
205.9590550998
 21
145.0006436314
 31
0.0
  0
LINE
  5
243
330
1F
100
AcDbEntity
  8
0
  6
HIDDEN
 62
     7
370
     0
100
AcDbLine
 10
225.1927358339
 20
141.1306436314
 30
0.0
 11
217.9256988439
 21
113.8019287849
 31
0.0
  0
LINE
  5
244
330
1F
100
AcDbEntity
  8
0
  6
HIDDEN
 62
     7
370
     0
100
AcDbLine
 10
225.1927358339
 20
141.1306436314
 30
0.0
 11
216.6103562409
 21
141.1306436314
 31
0.0
  0
LINE
  5
245
330
1F
100
AcDbEntity
  8
0
  6
HIDDEN
 62
     7
370
     0
100
AcDbLine
 10
216.8058016622
 20
145.0006436314
 30
0.0
 11
183.5823971631
 21
145.0006436314
 31
0.0
  0
ARC
  5
246
330
1F
100
AcDbEntity
  8
0
  6
HIDDEN
 62
     7
370
     0
100
AcDbCircle
 10
183.5823971631
 20
151.0006436314
 30
0.0
 40
6.000000000000017
100
AcDbArc
 50
195.0
 51
270.0
  0
LINE
  5
247
330
1F
100
AcDbEntity
  8
0
  6
HIDDEN
 62
     7
370
     0
100
AcDbLine
 10
177.7868422054
 20
149.4477293608
 30
0.0
 11
175.3715714439
 21
158.4616425566
 31
0.0
  0
LINE
  5
248
330
1F
100
AcDbEntity
  8
0
  6
HIDDEN
 62
     7
370
     0
100
AcDbLine
 10
208.0671868469
 20
141.1306436314
 30
0.0
 11
206.2400010803
 21
141.1306436314
 31
0.0
  0
LINE
  5
249
330
1F
100
AcDbEntity
  8
0
  6
HIDDEN
 62
     7
370
     0
100
AcDbLine
 10
216.8058016622
 20
142.6006436314
 30
0.0
 11
210.1884810896
 21
142.6006436314
 31
0.0
  0
LINE
  5
24A
330
1F
100
AcDbEntity
  8
0
  6
HIDDEN
 62
     7
370
     0
100
AcDbLine
 10
210.1884810896
 20
141.1306436314
 30
0.0
 11
210.1884810896
 21
142.6006436314
 31
0.0
  0
LINE
  5
24B
330
1F
100
AcDbEntity
  8
0
  6
HIDDEN
 62
     7
370
     0
100
AcDbLine
 10
216.6103562409
 20
141.1306436314
 30
0.0
 11
216.8058016622
 21
142.6006436314
 31
0.0
  0
LINE
  5
24C
330
1F
100
AcDbEntity
  8
0
  6
HIDDEN
 62
     7
370
     0
100
AcDbLine
 10
216.6103562409
 20
141.1306436314
 30
0.0
 11
210.1884810896
 21
141.1306436314
 31
0.0
  0
LINE
  5
24D
330
1F
100
AcDbEntity
  8
0
  6
HIDDEN
 62
     7
370
     0
100
AcDbLine
 10
210.1751854827
 20
142.7006436314
 30
0.0
 11
210.1884810896
 21
142.6006436314
 31
0.0
  0
LINE
  5
24E
330
1F
100
AcDbEntity
  8
0
  6
HIDDEN
 62
     7
370
     0
100
AcDbLine
 10
210.1751854827
 20
145.0006436314
 30
0.0
 11
210.1751854827
 21
142.7006436314
 31
0.0
  0
LINE
  5
24F
330
1F
100
AcDbEntity
  8
0
  6
HIDDEN
 62
     7
370
     0
100
AcDbLine
 10
216.8058016622
 20
145.0006436314
 30
0.0
 11
216.8058016622
 21
142.6006436314
 31
0.0
  0
LINE
  5
250
330
1F
100
AcDbEntity
  8
0
  6
HIDDEN
 62
     7
370
     0
100
AcDbLine
 10
216.8058016622
 20
145.0006436314
 30
0.0
 11
210.1751854827
 21
145.0006436314
 31
0.0
  0
LINE
  5
251
330
1F
100
AcDbEntity
  8
0
  6
HIDDEN
 62
     7
370
     0
100
AcDbLine
 10
210.1751854827
 20
142.7006436314
 30
0.0
 11
208.0671868469
 21
142.7006436314
 31
0.0
  0
LINE
  5
252
330
1F
100
AcDbEntity
  8
0
  6
HIDDEN
 62
     7
370
     0
100
AcDbLine
 10
210.1884810896
 20
141.1306436314
 30
0.0
 11
208.0671868469
 21
141.1306436314
 31
0.0
  0
LINE
  5
253
330
1F
100
AcDbEntity
  8
0
  6
HIDDEN
 62
     7
370
     0
100
AcDbLine
 10
210.1751854827
 20
145.0006436314
 30
0.0
 11
208.1975867285
 21
145.0006436314
 31
0.0
  0
LINE
  5
254
330
1F
100
AcDbEntity
  8
0
  6
HIDDEN
 62
     7
370
     0
100
AcDbLine
 10
88.9784352353
 20
130.339398993
 30
0.0
 11
88.9784352353
 21
126.5521643178
 31
0.0
  0
LINE
  5
255
330
1F
100
AcDbEntity
  8
0
  6
HIDDEN
 62
     7
370
     0
100
AcDbLine
 10
88.9784352353
 20
165.4867594004
 30
0.0
 11
88.9784352353
 21
140.0757725008
 31
0.0
  0
LINE
  5
256
330
1F
100
AcDbEntity
  8
0
  6
HIDDEN
 62
     7
370
     0
100
AcDbLine
 10
90.4784352353
 20
166.2367594004
 30
0.0
 11
90.4784352353
 21
140.0757725008
 31
0.0
  0
LINE
  5
257
330
1F
100
AcDbEntity
  8
0
  6
HIDDEN
 62
     7
370
     0
100
AcDbLine
 10
126.7784352353
 20
166.7187807257
 30
0.0
 11
126.7784352353
 21
140.6727078909
 31
0.0
  0
LINE
  5
258
330
1F
100
AcDbEntity
  8
0
  6
HIDDEN
 62
     7
370
     0
100
AcDbLine
 10
124.7784352353
 20
166.983044138
 30
0.0
 11
124.7784352353
 21
140.0757725008
 31
0.0
  0
LINE
  5
259
330
1F
100
AcDbEntity
  8
0
  6
HIDDEN
 62
     7
370
     0
100
AcDbLine
 10
88.9784352353
 20
140.0757725008
 30
0.0
 11
88.9784352353
 21
130.339398993
 31
0.0
  0
LINE
  5
25A
330
1F
100
AcDbEntity
  8
0
  6
HIDDEN
 62
     7
370
     0
100
AcDbLine
 10
90.4784352353
 20
140.0757725008
 30
0.0
 11
90.4784352353
 21
129.589398993
 31
0.0
  0
LINE
  5
25B
330
1F
100
AcDbEntity
  8
0
  6
HIDDEN
 62
     7
370
     0
100
AcDbLine
 10
124.7784352353
 20
140.0757725008
 30
0.0
 11
124.7784352353
 21
128.8431142554
 31
0.0
  0
SPLINE
  5
25C
330
1F
100
AcDbEntity
  8
0
  6
HIDDEN
 62
     7
370
     0
100
AcDbSpline
210
0.0
220
0.0
230
1.0
 70
     8
 71
     3
 72
    16
 73
    12
 74
     0
 42
0.00000001
 43
0.00000001
 12
1.0
 22
0.0
 32
0.0
 13
1.0
 23
0.0
 33
0.0
 40
0.0
 40
0.0
 40
0.0
 40
0.0
 40
0.2499999999999997
 40
0.2499999999999997
 40
0.3749999999999998
 40
0.3749999999999998
 40
0.4999999999999999
 40
0.4999999999999999
 40
0.7499999999999999
 40
0.7499999999999999
 40
1.0
 40
1.0
 40
1.0
 40
1.0
 10
125.6571148916944
 20
138.7201598213011
 30
0.0
 10
125.4958824142099
 20
137.838659157021
 30
0.0
 10
125.3754025745703
 20
136.9764323963697
 30
0.0
 10
125.253022057257
 20
135.7122949463605
 30
0.0
 10
125.2220443968595
 20
135.2958166486198
 30
0.0
 10
125.1804306592316
 20
134.4731654743329
 30
0.0
 10
125.1701947462988
 20
134.0748058495657
 30
0.0
 10
125.1700063492427
 20
132.9181812061668
 30
0.0
 10
125.2101510518803
 20
132.1975462933383
 30
0.0
 10
125.3743048068199
 20
130.8597444514704
 30
0.0
 10
125.4958564572294
 20
130.263161352398
 30
0.0
 10
125.6571148916944
 20
129.7374423869776
 30
0.0
  0
LINE
  5
25D
330
1F
100
AcDbEntity
  8
0
  6
HIDDEN
 62
     7
370
     0
100
AcDbLine
 10
126.9784352353
 20
121.0506436314
 30
0.0
 11
127.0713284541
 21
121.1435368502
 31
0.0
  0
LINE
  5
25E
330
1F
100
AcDbEntity
  8
0
  6
HIDDEN
 62
     7
370
     0
100
AcDbLine
 10
127.0713284541
 20
169.4577504126
 30
0.0
 11
126.9784352353
 21
169.5506436314
 31
0.0
  0
ARC
  5
25F
330
1F
100
AcDbEntity
  8
0
  6
HIDDEN
 62
     7
370
     0
100
AcDbCircle
 10
126.3642216729
 20
121.8506436314
 30
0.0
 40
1.0
100
AcDbArc
 50
315.0
 51
0.0
  0
ARC
  5
260
330
1F
100
AcDbEntity
  8
0
  6
HIDDEN
 62
     7
370
     0
100
AcDbCircle
 10
126.3642216729
 20
121.8506436314
 30
0.0
 40
1.0
100
AcDbArc
 50
0.0
 51
52.1052014664
  0
ARC
  5
261
330
1F
100
AcDbEntity
  8
0
  6
HIDDEN
 62
     7
370
     0
100
AcDbCircle
 10
126.3642216729
 20
168.7506436314
 30
0.0
 40
0.999999999999998
100
AcDbArc
 50
343.125
 51
45.0
  0
ARC
  5
262
330
1F
100
AcDbEntity
  8
0
  6
HIDDEN
 62
     7
370
     0
100
AcDbCircle
 10
126.3642216729
 20
168.7506436314
 30
0.0
 40
0.9999999999999815
100
AcDbArc
 50
307.8947985336
 51
343.125
  0
LINE
  5
263
330
1F
100
AcDbEntity
  8
0
  6
HIDDEN
 62
     7
370
     0
100
AcDbLine
 10
127.3642216729
 20
121.8506436314
 30
0.0
 11
127.3642216729
 21
168.7506436314
 31
0.0
  0
LINE
  5
264
330
1F
100
AcDbEntity
  8
0
  6
HIDDEN
 62
     7
370
     0
100
AcDbLine
 10
127.3642216729
 20
121.8506436314
 30
0.0
 11
127.3642216729
 21
168.7506436314
 31
0.0
  0
LINE
  5
265
330
1F
100
AcDbEntity
  8
0
  6
HIDDEN
 62
     7
370
     0
100
AcDbLine
 10
88.9784352353
 20
129.1042147869
 30
0.0
 11
90.5086636749
 21
129.9876925885
 31
0.0
  0
LINE
  5
266
330
1F
100
AcDbEntity
  8
0
  6
HIDDEN
 62
     7
370
     0
100
AcDbLine
 10
90.5086636749
 20
160.6135946743
 30
0.0
 11
88.9784352353
 21
161.4970724759
 31
0.0
  0
ARC
  5
267
330
1F
100
AcDbEntity
  8
0
  6
HIDDEN
 62
     7
370
     0
100
AcDbCircle
 10
98.9784352353
 20
131.3006436314
 30
0.0
 40
2.000000000000028
100
AcDbArc
 50
189.9742217944
 51
270.0
  0
ARC
  5
268
330
1F
100
AcDbEntity
  8
0
  6
HIDDEN
 62
     7
370
     0
100
AcDbCircle
 10
98.9784352353
 20
159.3006436314
 30
0.0
 40
2.000000000000004
100
AcDbArc
 50
90.0
 51
170.0257782056
  0
LINE
  5
269
330
1F
100
AcDbEntity
  8
0
  6
HIDDEN
 62
     7
370
     0
100
AcDbLine
 10
98.9784352353
 20
129.3006436314
 30
0.0
 11
99.9802365501
 21
129.3006436314
 31
0.0
  0
LINE
  5
26A
330
1F
100
AcDbEntity
  8
0
  6
HIDDEN
 62
     7
370
     0
100
AcDbLine
 10
99.9802365501
 20
161.3006436314
 30
0.0
 11
98.9784352353
 21
161.3006436314
 31
0.0
  0
ARC
  5
26B
330
1F
100
AcDbEntity
  8
0
  6
HIDDEN
 62
     7
370
     0
100
AcDbCircle
 10
99.9802365501
 20
131.3006436314
 30
0.0
 40
2.000000000000028
100
AcDbArc
 50
270.0
 51
315.0
  0
ARC
  5
26C
330
1F
100
AcDbEntity
  8
0
  6
HIDDEN
 62
     7
370
     0
100
AcDbCircle
 10
99.9802365501
 20
159.3006436314
 30
0.0
 40
2.000000000000006
100
AcDbArc
 50
45.0
 51
90.0
  0
LINE
  5
26D
330
1F
100
AcDbEntity
  8
0
  6
HIDDEN
 62
     7
370
     0
100
AcDbLine
 10
101.3944501125
 20
129.886430069
 30
0.0
 11
102.8086636749
 21
131.3006436314
 31
0.0
  0
LINE
  5
26E
330
1F
100
AcDbEntity
  8
0
  6
HIDDEN
 62
     7
370
     0
100
AcDbLine
 10
102.8086636749
 20
159.3006436314
 30
0.0
 11
101.3944501125
 21
160.7148571938
 31
0.0
  0
LINE
  5
26F
330
1F
100
AcDbEntity
  8
0
  6
HIDDEN
 62
     7
370
     0
100
AcDbLine
 10
90.5086636749
 20
129.9876925885
 30
0.0
 11
95.4086636749
 21
131.3006436314
 31
0.0
  0
LINE
  5
270
330
1F
100
AcDbEntity
  8
0
  6
HIDDEN
 62
     7
370
     0
100
AcDbLine
 10
95.4086636749
 20
159.3006436314
 30
0.0
 11
90.5086636749
 21
160.6135946743
 31
0.0
  0
LINE
  5
271
330
1F
100
AcDbEntity
  8
0
  6
HIDDEN
 62
     7
370
     0
100
AcDbLine
 10
97.0086636749
 20
159.6470537929
 30
0.0
 11
96.4086636749
 21
159.3006436314
 31
0.0
  0
LINE
  5
272
330
1F
100
AcDbEntity
  8
0
  6
HIDDEN
 62
     7
370
     0
100
AcDbLine
 10
96.4086636749
 20
131.3006436314
 30
0.0
 11
97.0086636749
 21
130.9542334699
 31
0.0
  0
ARC
  5
273
330
1F
100
AcDbEntity
  8
0
  6
HIDDEN
 62
     7
370
     0
100
AcDbCircle
 10
115.4784352353
 20
131.8006436314
 30
0.0
 40
0.5
100
AcDbArc
 50
275.6408087552
 51
0.0
  0
ARC
  5
274
330
1F
100
AcDbEntity
  8
0
  6
HIDDEN
 62
     7
370
     0
100
AcDbCircle
 10
115.4784352353
 20
158.8006436314
 30
0.0
 40
0.5000000000000233
100
AcDbArc
 50
0.0
 51
84.9755685961
  0
LINE
  5
275
330
1F
100
AcDbEntity
  8
0
  6
HIDDEN
 62
     7
370
     0
100
AcDbLine
 10
102.8086636749
 20
131.3006436314
 30
0.0
 11
107.4312727776
 21
131.3006436314
 31
0.0
  0
LINE
  5
276
330
1F
100
AcDbEntity
  8
0
  6
HIDDEN
 62
     7
370
     0
100
AcDbLine
 10
107.4350436711
 20
159.3006436314
 30
0.0
 11
102.8086636749
 21
159.3006436314
 31
0.0
  0
LINE
  5
277
330
1F
100
AcDbEntity
  8
0
  6
HIDDEN
 62
     7
370
     0
100
AcDbLine
 10
95.4086636749
 20
131.3006436314
 30
0.0
 11
96.4086636749
 21
131.3006436314
 31
0.0
  0
LINE
  5
278
330
1F
100
AcDbEntity
  8
0
  6
HIDDEN
 62
     7
370
     0
100
AcDbLine
 10
96.4086636749
 20
159.3006436314
 30
0.0
 11
95.4086636749
 21
159.3006436314
 31
0.0
  0
LINE
  5
279
330
1F
100
AcDbEntity
  8
0
  6
HIDDEN
 62
     7
370
     0
100
AcDbLine
 10
115.9784352353
 20
135.0506436314
 30
0.0
 11
117.2284352353
 21
136.3006436314
 31
0.0
  0
LINE
  5
27A
330
1F
100
AcDbEntity
  8
0
  6
HIDDEN
 62
     7
370
     0
100
AcDbLine
 10
117.2284352353
 20
154.3006436314
 30
0.0
 11
115.9784352353
 21
155.5506436314
 31
0.0
  0
LINE
  5
27B
330
1F
100
AcDbEntity
  8
0
  6
HIDDEN
 62
     7
370
     0
100
AcDbLine
 10
153.9784352353
 20
154.3006436314
 30
0.0
 11
117.2284352353
 21
154.3006436314
 31
0.0
  0
LINE
  5
27C
330
1F
100
AcDbEntity
  8
0
  6
HIDDEN
 62
     7
370
     0
100
AcDbLine
 10
117.2284352353
 20
136.3006436314
 30
0.0
 11
153.9784352353
 21
136.3006436314
 31
0.0
  0
LINE
  5
27D
330
1F
100
AcDbEntity
  8
0
  6
HIDDEN
 62
     7
370
     0
100
AcDbLine
 10
153.9784352353
 20
136.3006436314
 30
0.0
 11
156.8325231756
 21
141.0506436314
 31
0.0
  0
LINE
  5
27E
330
1F
100
AcDbEntity
  8
0
  6
HIDDEN
 62
     7
370
     0
100
AcDbLine
 10
156.8325231756
 20
149.5506436314
 30
0.0
 11
153.9784352353
 21
154.3006436314
 31
0.0
  0
LINE
  5
27F
330
1F
100
AcDbEntity
  8
0
  6
HIDDEN
 62
     7
370
     0
100
AcDbLine
 10
115.9267310029
 20
124.9045918834
 30
0.0
 11
115.5284352353
 21
125.3028876511
 31
0.0
  0
LINE
  5
280
330
1F
100
AcDbEntity
  8
0
  6
HIDDEN
 62
     7
370
     0
100
AcDbLine
 10
107.4284352353
 20
125.3028876511
 30
0.0
 11
107.2543607698
 21
125.1288131856
 31
0.0
  0
LINE
  5
281
330
1F
100
AcDbEntity
  8
0
  6
HIDDEN
 62
     7
370
     0
100
AcDbLine
 10
161.4784352353
 20
149.5506436314
 30
0.0
 11
156.8325231756
 21
149.5506436314
 31
0.0
  0
LINE
  5
282
330
1F
100
AcDbEntity
  8
0
  6
HIDDEN
 62
     7
370
     0
100
AcDbLine
 10
167.9784352353
 20
149.5506436314
 30
0.0
 11
166.4757789904
 21
149.5506436314
 31
0.0
  0
LINE
  5
283
330
1F
100
AcDbEntity
  8
0
  6
HIDDEN
 62
     7
370
     0
100
AcDbLine
 10
156.8325231756
 20
141.0506436314
 30
0.0
 11
167.9784352353
 21
141.0506436314
 31
0.0
  0
LINE
  5
284
330
1F
100
AcDbEntity
  8
0
  6
HIDDEN
 62
     7
370
     0
100
AcDbLine
 10
167.9784352353
 20
141.0506436314
 30
0.0
 11
170.5320928661
 21
145.3006436314
 31
0.0
  0
LINE
  5
285
330
1F
100
AcDbEntity
  8
0
  6
HIDDEN
 62
     7
370
     0
100
AcDbLine
 10
170.5320928661
 20
145.3006436314
 30
0.0
 11
167.9784352353
 21
149.5506436314
 31
0.0
  0
LINE
  5
286
330
1F
100
AcDbEntity
  8
0
  6
HIDDEN
 62
     7
370
     0
100
AcDbLine
 10
95.4284352353
 20
127.3006436314
 30
0.0
 11
88.9784352353
 21
127.3006436314
 31
0.0
  0
LINE
  5
287
330
1F
100
AcDbEntity
  8
0
  6
HIDDEN
 62
     7
370
     0
100
AcDbLine
 10
97.3578521693
 20
125.3712266973
 30
0.0
 11
95.4284352353
 21
127.3006436314
 31
0.0
  0
LINE
  5
288
330
1F
100
AcDbEntity
  8
0
  6
HIDDEN
 62
     7
370
     0
100
AcDbLine
 10
115.5284352353
 20
162.8006436314
 30
0.0
 11
111.4784352353
 21
165.2341291385
 31
0.0
  0
LINE
  5
289
330
1F
100
AcDbEntity
  8
0
  6
HIDDEN
 62
     7
370
     0
100
AcDbLine
 10
111.4784352353
 20
165.2341291385
 30
0.0
 11
107.4284352353
 21
162.8006436314
 31
0.0
  0
LINE
  5
28A
330
1F
100
AcDbEntity
  8
0
  6
HIDDEN
 62
     7
370
     0
100
AcDbLine
 10
115.5284352353
 20
125.3028876511
 30
0.0
 11
115.5284352353
 21
131.3032793004
 31
0.0
  0
LINE
  5
28B
330
1F
100
AcDbEntity
  8
0
  6
HIDDEN
 62
     7
370
     0
100
AcDbLine
 10
107.4284352353
 20
131.3014635471
 30
0.0
 11
107.4284352353
 21
125.3028876511
 31
0.0
  0
LINE
  5
28C
330
1F
100
AcDbEntity
  8
0
  6
HIDDEN
 62
     7
370
     0
100
AcDbLine
 10
115.5284352353
 20
159.2969034056
 30
0.0
 11
115.5284352353
 21
162.8006436314
 31
0.0
  0
LINE
  5
28D
330
1F
100
AcDbEntity
  8
0
  6
HIDDEN
 62
     7
370
     0
100
AcDbLine
 10
107.4284352353
 20
162.8006436314
 30
0.0
 11
107.4284352353
 21
159.2987476317
 31
0.0
  0
LINE
  5
28E
330
1F
100
AcDbEntity
  8
0
  6
HIDDEN
 62
     7
370
     0
100
AcDbLine
 10
160.9784352353
 20
176.8006436314
 30
0.0
 11
160.9784352353
 21
169.8006436314
 31
0.0
  0
LINE
  5
28F
330
1F
100
AcDbEntity
  8
0
  6
HIDDEN
 62
     7
370
     0
100
AcDbLine
 10
166.9784352353
 20
169.8006436314
 30
0.0
 11
166.9784352353
 21
176.8006436314
 31
0.0
  0
LINE
  5
290
330
1F
100
AcDbEntity
  8
0
  6
HIDDEN
 62
     7
370
     0
100
AcDbLine
 10
160.9784352353
 20
169.8006436314
 30
0.0
 11
161.4784352353
 21
169.5002133219
 31
0.0
  0
LINE
  5
291
330
1F
100
AcDbEntity
  8
0
  6
HIDDEN
 62
     7
370
     0
100
AcDbLine
 10
166.4784352353
 20
169.5002133219
 30
0.0
 11
166.9784352353
 21
169.8006436314
 31
0.0
  0
LINE
  5
292
330
1F
100
AcDbEntity
  8
0
  6
HIDDEN
 62
     7
370
     0
100
AcDbLine
 10
161.4784352353
 20
169.5002133219
 30
0.0
 11
161.4784352353
 21
149.5506436314
 31
0.0
  0
LINE
  5
293
330
1F
100
AcDbEntity
  8
0
  6
HIDDEN
 62
     7
370
     0
100
AcDbLine
 10
166.4784352353
 20
164.0997602245
 30
0.0
 11
166.4784352353
 21
169.5002133219
 31
0.0
  0
LINE
  5
294
330
1F
100
AcDbEntity
  8
0
  6
HIDDEN
 62
     7
370
     0
100
AcDbLine
 10
166.4784352353
 20
149.5490885289
 30
0.0
 11
166.4784352353
 21
158.9233793225
 31
0.0
  0
LINE
  5
295
330
1F
100
AcDbEntity
  8
0
  6
HIDDEN
 62
     7
370
     0
100
AcDbLine
 10
174.431873547
 20
161.9686428518
 30
0.0
 11
166.4784352353
 21
164.0997602245
 31
0.0
  0
LINE
  5
296
330
1F
100
AcDbEntity
  8
0
  6
HIDDEN
 62
     7
370
     0
100
AcDbLine
 10
166.4784352353
 20
158.9233793225
 30
0.0
 11
175.9261660006
 21
156.3918674936
 31
0.0
  0
LINE
  5
297
330
1F
100
AcDbEntity
  8
0
  6
HIDDEN
 62
     7
370
     0
100
AcDbLine
 10
214.9306537478
 20
141.1306436314
 30
0.0
 11
215.3806537478
 21
140.6806436314
 31
0.0
  0
LINE
  5
298
330
1F
100
AcDbEntity
  8
0
  6
HIDDEN
 62
     7
370
     0
100
AcDbLine
 10
218.6806537478
 20
140.6806436314
 30
0.0
 11
219.1306537478
 21
141.1306436314
 31
0.0
  0
LINE
  5
299
330
1F
100
AcDbEntity
  8
0
  6
HIDDEN
 62
     7
370
     0
100
AcDbLine
 10
136.9784352353
 20
114.3006436314
 30
0.0
 11
136.9784352353
 21
113.8006436314
 31
0.0
  0
LINE
  5
29A
330
1F
100
AcDbEntity
  8
0
  6
HIDDEN
 62
     7
370
     0
100
AcDbLine
 10
140.9784352353
 20
113.8006436314
 30
0.0
 11
140.9784352353
 21
114.3006436314
 31
0.0
  0
LINE
  5
29B
330
1F
100
AcDbEntity
  8
0
  6
HIDDEN
 62
     7
370
     0
100
AcDbLine
 10
140.9784352353
 20
114.3006436314
 30
0.0
 11
138.9784352353
 21
115.5023648695
 31
0.0
  0
LINE
  5
29C
330
1F
100
AcDbEntity
  8
0
  6
HIDDEN
 62
     7
370
     0
100
AcDbLine
 10
138.9784352353
 20
115.5023648695
 30
0.0
 11
136.9784352353
 21
114.3006436314
 31
0.0
  0
LINE
  5
29D
330
1F
100
AcDbEntity
  8
0
  6
HIDDEN
 62
     7
370
     0
100
AcDbLine
 10
215.3806537478
 20
140.6806436314
 30
0.0
 11
215.3806537478
 21
129.6306436314
 31
0.0
  0
LINE
  5
29E
330
1F
100
AcDbEntity
  8
0
  6
HIDDEN
 62
     7
370
     0
100
AcDbLine
 10
218.6806537478
 20
129.6306436314
 30
0.0
 11
218.6806537478
 21
140.6806436314
 31
0.0
  0
LINE
  5
29F
330
1F
100
AcDbEntity
  8
0
  6
HIDDEN
 62
     7
370
     0
100
AcDbLine
 10
215.3806537478
 20
129.6306436314
 30
0.0
 11
217.0306537478
 21
128.63922361
 31
0.0
  0
LINE
  5
2A0
330
1F
100
AcDbEntity
  8
0
  6
HIDDEN
 62
     7
370
     0
100
AcDbLine
 10
217.0306537478
 20
128.63922361
 30
0.0
 11
218.6806537478
 21
129.6306436314
 31
0.0
  0
LINE
  5
2A1
330
1F
100
AcDbEntity
  8
0
  6
HIDDEN
 62
     7
370
     0
100
AcDbLine
 10
205.9575965903
 20
145.0006436314
 30
0.0
 11
206.2400010803
 21
142.7006436314
 31
0.0
  0
LINE
  5
2A2
330
1F
100
AcDbEntity
  8
0
  6
HIDDEN
 62
     7
370
     0
100
AcDbLine
 10
206.2400010803
 20
142.7006436314
 30
0.0
 11
206.2400010803
 21
141.1306436314
 31
0.0
  0
LINE
  5
2A3
330
1F
100
AcDbEntity
  8
VERMASSUNG
100
AcDbLine
 10
226.9784352353
 20
145.3006436314
 30
0.0
 11
226.9784352353
 21
158.2506635855
 31
0.0
  0
LINE
  5
2A4
330
1F
100
AcDbEntity
  8
VERMASSUNG
  6
CENTERX2
100
AcDbLine
 10
86.1849003964
 20
145.3006436314
 30
0.0
 11
226.9784352353
 21
145.3006436314
 31
0.0
  0
DIMENSION
  5
2A5
330
1F
100
AcDbEntity
  8
VERMASSUNG
100
AcDbDimension
  2
_D_1
 10
226.9784352353
 20
184.4022790004
 30
0.0
 11
176.9784352353
 21
184.4022790004
 31
0.0
 70
   160
  1
<>
 71
     2
 42
-1.0
  3
SLDDIMSTYLE0
100
AcDbAlignedDimension
 13
126.9784352353
 23
176.3006436314
 33
0.0
 14
226.9784352353
 24
158.2506635855
 34
0.0
100
AcDbRotatedDimension
  0
DIMENSION
  5
2AF
330
1F
100
AcDbEntity
  8
VERMASSUNG
100
AcDbDimension
  2
_D_2
 10
226.9784352353
 20
192.8006436314
 30
0.0
 11
157.9784352353
 21
192.8006436314
 31
0.0
 70
   160
  1
<>
 71
     2
 42
-1.0
  3
SLDDIMSTYLE0
100
AcDbAlignedDimension
 13
88.9784352353
 23
165.4867594004
 33
0.0
 14
226.9784352353
 24
158.2506635855
 34
0.0
 50
0.0
100
AcDbRotatedDimension
  0
OLE2FRAME
  5
2B9
330
1F
100
AcDbEntity
  8
0
100
AcDbOle2Frame
 70
     2
  3
Paintbrush-Bild
 10
13.8511154363
 20
38.264191557
 30
0.0
 11
51.6290888628
 21
31.9806341108
 31
0.0
 71
     2
 72
     0
 73
     1
 90
    12928
310
80552BED0767C5B32B40DDAF6807D121434000000000000000006FFBDDFB85D0
310
4940DDAF6807D121434000000000000000006FFBDDFB85D04940416F4BD60AFB
310
3F4000000000000000002BED0767C5B32B40416F4BD60AFB3F40000000000000
310
0000000000000100000000010000010000000100000000000100000000320000
310
D0CF11E0A1B11AE1000000000000000000000000000000003E000300FEFF0900
310
0600000000000000000000000100000001000000000000000010000002000000
310
01000000FEFFFFFF0000000000000000FFFFFFFFFFFFFFFFFFFFFFFFFFFFFFFF
310
FFFFFFFFFFFFFFFFFFFFFFFFFFFFFFFFFFFFFFFFFFFFFFFFFFFFFFFFFFFFFFFF
310
FFFFFFFFFFFFFFFFFFFFFFFFFFFFFFFFFFFFFFFFFFFFFFFFFFFFFFFFFFFFFFFF
310
FFFFFFFFFFFFFFFFFFFFFFFFFFFFFFFFFFFFFFFFFFFFFFFFFFFFFFFFFFFFFFFF
310
FFFFFFFFFFFFFFFFFFFFFFFFFFFFFFFFFFFFFFFFFFFFFFFFFFFFFFFFFFFFFFFF
310
FFFFFFFFFFFFFFFFFFFFFFFFFFFFFFFFFFFFFFFFFFFFFFFFFFFFFFFFFFFFFFFF
310
FFFFFFFFFFFFFFFFFFFFFFFFFFFFFFFFFFFFFFFFFFFFFFFFFFFFFFFFFFFFFFFF
310
FFFFFFFFFFFFFFFFFFFFFFFFFFFFFFFFFFFFFFFFFFFFFFFFFFFFFFFFFFFFFFFF
310
FFFFFFFFFFFFFFFFFFFFFFFFFFFFFFFFFFFFFFFFFFFFFFFFFFFFFFFFFFFFFFFF
310
FFFFFFFFFFFFFFFFFFFFFFFFFFFFFFFFFFFFFFFFFFFFFFFFFFFFFFFFFFFFFFFF
310
FFFFFFFFFFFFFFFFFFFFFFFFFFFFFFFFFFFFFFFFFFFFFFFFFFFFFFFFFFFFFFFF
310
FFFFFFFFFFFFFFFFFFFFFFFFFFFFFFFFFFFFFFFFFFFFFFFFFFFFFFFFFFFFFFFF
310
FFFFFFFFFFFFFFFFFFFFFFFFFFFFFFFFFFFFFFFFFFFFFFFFFFFFFFFFFFFFFFFF
310
FFFFFFFFFFFFFFFFFFFFFFFFFFFFFFFFFFFFFFFFFFFFFFFFFFFFFFFFFFFFFFFF
310
FDFFFFFFFEFFFFFFFEFFFFFFFEFFFFFF05000000060000000700000008000000
310
090000000A0000000B0000000C0000000D0000000E0000000F00000010000000
310
11000000120000001300000014000000150000001600000017000000FEFFFFFF
310
FFFFFFFFFFFFFFFFFFFFFFFFFFFFFFFFFFFFFFFFFFFFFFFFFFFFFFFFFFFFFFFF
310
FFFFFFFFFFFFFFFFFFFFFFFFFFFFFFFFFFFFFFFFFFFFFFFFFFFFFFFFFFFFFFFF
310
FFFFFFFFFFFFFFFFFFFFFFFFFFFFFFFFFFFFFFFFFFFFFFFFFFFFFFFFFFFFFFFF
310
FFFFFFFFFFFFFFFFFFFFFFFFFFFFFFFFFFFFFFFFFFFFFFFFFFFFFFFFFFFFFFFF
310
FFFFFFFFFFFFFFFFFFFFFFFFFFFFFFFFFFFFFFFFFFFFFFFFFFFFFFFFFFFFFFFF
310
FFFFFFFFFFFFFFFFFFFFFFFFFFFFFFFFFFFFFFFFFFFFFFFFFFFFFFFFFFFFFFFF
310
FFFFFFFFFFFFFFFFFFFFFFFFFFFFFFFFFFFFFFFFFFFFFFFFFFFFFFFFFFFFFFFF
310
FFFFFFFFFFFFFFFFFFFFFFFFFFFFFFFFFFFFFFFFFFFFFFFFFFFFFFFFFFFFFFFF
310
FFFFFFFFFFFFFFFFFFFFFFFFFFFFFFFFFFFFFFFFFFFFFFFFFFFFFFFFFFFFFFFF
310
FFFFFFFFFFFFFFFFFFFFFFFFFFFFFFFFFFFFFFFFFFFFFFFFFFFFFFFFFFFFFFFF
310
FFFFFFFFFFFFFFFFFFFFFFFFFFFFFFFFFFFFFFFFFFFFFFFFFFFFFFFFFFFFFFFF
310
FFFFFFFFFFFFFFFFFFFFFFFFFFFFFFFFFFFFFFFFFFFFFFFFFFFFFFFFFFFFFFFF
310
FFFFFFFFFFFFFFFFFFFFFFFFFFFFFFFFFFFFFFFFFFFFFFFFFFFFFFFFFFFFFFFF
310
52006F006F007400200045006E00740072007900000000000000000000000000
310
0000000000000000000000000000000000000000000000000000000000000000
310
16000500FFFFFFFFFFFFFFFF020000000A00030000000000C000000000000046
310
00000000000000000000000060A1DA4E353FCD0103000000C000000000000000
310
01004F006C006500000000000000000000000000000000000000000000000000
310
0000000000000000000000000000000000000000000000000000000000000000
310
0A000200FFFFFFFFFFFFFFFFFFFFFFFF00000000000000000000000000000000
310
0000000000000000000000000000000000000000000000001400000000000000
310
010043006F006D0070004F0062006A0000000000000000000000000000000000
310
0000000000000000000000000000000000000000000000000000000000000000
310
120002010100000003000000FFFFFFFF00000000000000000000000000000000
310
0000000000000000000000000000000000000000010000004D00000000000000
310
01004F006C006500310030004E00610074006900760065000000000000000000
310
0000000000000000000000000000000000000000000000000000000000000000
310
1A000200FFFFFFFFFFFFFFFFFFFFFFFF00000000000000000000000000000000
310
0000000000000000000000000000000000000000040000002426000000000000
310
FEFFFFFF02000000FEFFFFFFFFFFFFFFFFFFFFFFFFFFFFFFFFFFFFFFFFFFFFFF
310
FFFFFFFFFFFFFFFFFFFFFFFFFFFFFFFFFFFFFFFFFFFFFFFFFFFFFFFFFFFFFFFF
310
FFFFFFFFFFFFFFFFFFFFFFFFFFFFFFFFFFFFFFFFFFFFFFFFFFFFFFFFFFFFFFFF
310
FFFFFFFFFFFFFFFFFFFFFFFFFFFFFFFFFFFFFFFFFFFFFFFFFFFFFFFFFFFFFFFF
310
FFFFFFFFFFFFFFFFFFFFFFFFFFFFFFFFFFFFFFFFFFFFFFFFFFFFFFFFFFFFFFFF
310
FFFFFFFFFFFFFFFFFFFFFFFFFFFFFFFFFFFFFFFFFFFFFFFFFFFFFFFFFFFFFFFF
310
FFFFFFFFFFFFFFFFFFFFFFFFFFFFFFFFFFFFFFFFFFFFFFFFFFFFFFFFFFFFFFFF
310
FFFFFFFFFFFFFFFFFFFFFFFFFFFFFFFFFFFFFFFFFFFFFFFFFFFFFFFFFFFFFFFF
310
FFFFFFFFFFFFFFFFFFFFFFFFFFFFFFFFFFFFFFFFFFFFFFFFFFFFFFFFFFFFFFFF
310
FFFFFFFFFFFFFFFFFFFFFFFFFFFFFFFFFFFFFFFFFFFFFFFFFFFFFFFFFFFFFFFF
310
FFFFFFFFFFFFFFFFFFFFFFFFFFFFFFFFFFFFFFFFFFFFFFFFFFFFFFFFFFFFFFFF
310
FFFFFFFFFFFFFFFFFFFFFFFFFFFFFFFFFFFFFFFFFFFFFFFFFFFFFFFFFFFFFFFF
310
FFFFFFFFFFFFFFFFFFFFFFFFFFFFFFFFFFFFFFFFFFFFFFFFFFFFFFFFFFFFFFFF
310
FFFFFFFFFFFFFFFFFFFFFFFFFFFFFFFFFFFFFFFFFFFFFFFFFFFFFFFFFFFFFFFF
310
FFFFFFFFFFFFFFFFFFFFFFFFFFFFFFFFFFFFFFFFFFFFFFFFFFFFFFFFFFFFFFFF
310
FFFFFFFFFFFFFFFFFFFFFFFFFFFFFFFFFFFFFFFFFFFFFFFFFFFFFFFFFFFFFFFF
310
0100000200000000000000000000000000000000000000000000000000000000
310
0000000000000000000000000000000000000000000000000000000000000000
310
0100FEFF030A0000FFFFFFFF0A00030000000000C00000000000004607000000
310
5042727573680007000000504272757368000700000050427275736800F439B2
310
7100000000000000000000000000000000000000000000000000000000000000
310
0000000000000000000000000000000000000000000000000000000000000000
310
0000000000000000000000000000000000000000000000000000000000000000
310
0000000000000000000000000000000000000000000000000000000000000000
310
0000000000000000000000000000000000000000000000000000000000000000
310
0000000000000000000000000000000000000000000000000000000000000000
310
0000000000000000000000000000000000000000000000000000000000000000
310
0000000000000000000000000000000000000000000000000000000000000000
310
0000000000000000000000000000000000000000000000000000000000000000
310
0000000000000000000000000000000000000000000000000000000000000000
310
0000000000000000000000000000000000000000000000000000000000000000
310
0000000000000000000000000000000000000000000000000000000000000000
310
20260000424D0E260000000000003E00000028000000B40200006E0000000100
310
01000000000000000000130B0000130B00000200000002000000000000FFFFFF
310
FFFFFFFFFFFFFFFFFFFFFFFFFFFFFFFFFFFFFFFFFFFFFFFFFFFFFFFFFFFFFFFF
310
FFFFFFFFFFFFFFFFFFFFFFFFFFFFFFFFFFFFFFFFFFFFFFFFFFFFFFFFFFFFFFFF
310
FFFFFFFFFFFFFFFFFFFFFFFFFFFFFFFFFFFFFFFFFFFFFFFFF000FFFFFFFFFFFF
310
FFFFFFFFFFFFFFFFFFFFFFFFFFFFFFFFFFFFFFFFFFFFFFFFFFFFFFFFFFFFFFFF
310
FFFFFFFFFFFFFFFFFFFFFFFFFFFFFFFFFFFFFFFFFFFFFFFFFFFFFFFFFFFFFFFF
310
FFFFFFFFFFFFFFFFFFFFFFFFFFFFFFFFF000FFFFFFFFFFFFFFFFFFFFFFFFFFFF
310
FFFFFFFFFFFFFFFFFFFFFFFFFFFFFFFFFFFFFFFFFFFFFFFFFFFFFFFFFFFFFFFF
310
FFFFFFFFFFFFFFFFFFFFFFFFFFFFFFFFFFFFFFFFFFFFFFFFFFFFFFFFFFFFFFFF
310
FFFFFFFFFFFFFFFFF000FFFFFFFFFFFFFFFFFFFFFFFFFFFFFFFFFFFFFFFFFFFF
310
FFFFFFFFFFFFFFFFFFFFFFFFFFFFFFFFFFFFFFFFFFFFFFFFFFFFFFFFFFFFFFFF
310
FFFFFFFFFFFFFFFFFFFFFFFFFFFFFFFFFFFFFFFFFFFFFFFFFFFFFFFFFFFFFFFF
310
F000FFFFFFFFFFFFFFFFFFFFFFFFFFFFFFFFFFFFFFFFFFFFFFFFFFFFFFFFFFFF
310
FFFFFFFFFFFFFFFFFFFFFFFFFFFFFFFFFFFFFFFFFFFFFFFFFFFFFFFFFFFFFFFF
310
FFFFFFFFFFFFFFFFFFFFFFFFFFFFFFFFFFFFFFFFFFFFFFFFF000FFFFFFFFFFFF
310
FFFFFFFFFFFFFFFFFFFFFFFFFFFFFFFFFFFFFFFFFFFFFFFFFFFFFFFFFFFFFFFF
310
FFFFFFFFFFFFFFFFFFFFFFFFFFFFFFFFFFFFFFFFFFFFFFFFFFFFFFFFFFFFFFFF
310
FFFFFFFFFFFFFFFFFFFFFFFFFFFFFFFFF000FFFFFFFFFFFFFFFFFFFFFFFFFFFF
310
FFFFFFFFFFFFFFFFFFFFFFFFFFFFFFFFFFFFFFFFFFFFFFFFFFFFFFFFFFFFFFFF
310
FFFFFFFFFFFFFFFFFFFFFFFFFFFFFFFFFFFFFFFFFFFFFFFFFFFFFFFFFFFFFFFF
310
FFFFFFFFFFFFFFFFF000FFFFFFFFFFFFFFFFFFFFFFFFFFFFFFFFFFFFFFFFFFFF
310
FFFFFFFFFFFFFFFFFFFFFFFFFFFFFFFFFFFFFFFFFFFFFFFFFFFFFFFFFFFFFFFF
310
FFFFFFFFFFFFFFFFFFFFFFFFFFFFFFFFFFFFFFFFFFFFFFFFFFFFFFFFFFFFFFFF
310
F000FFFFFFFFFFFFFFFFFFFFFFFFFFFFFFFFFFFFFFFFFFFFFFFFFFFFFFFFFFFF
310
FFFFFFFFFFFFFFFFFFFFFFFFFFFFFFFFFFFFFFFFFFFFFFFFFFFFFFFFFFFFFFFF
310
FFFFFFFFFFFFFFFFFFFFFFFFFFFFFFFFFFFFFFFFFFFFFFFFF000FFFFFFFFFFFF
310
FFFFFFFFFFFFFFFFFFFFFFFFFFFFFFFFFFFFFFFFFFFFFFFFFFFFFFFFFFFFFFFF
310
FFFFFFFFFFFFFFFFFFFFFFFFFFFFFFFFFFFFFFFFFFFFFFFFFFFFFFFFFFFFFFFF
310
FFFFFFFFFFFFFFFFFFFFFFFFFFFFFFFFF000FFFFFFFFFFFFFFFFFFFFFFFFFFFF
310
FFFFFFFFFFFFFFFFFFFFFFFFFFFFFFFFFFFFFFFFFFFFFFFFFFFFFFFFFFFFFFFF
310
FFFFFFFFFFFFFFFFFFFFFFFFFFFFFFFFFFFFFFFFFFFFFFFFFFFFFFFFFFFFFFFF
310
FFFFFFFFFFFFFFFFF000FFFFFFFFFFFFFFFFFFFFFFFFFFFFFFFFFFFFFFFFFFFF
310
FFFFFFFFFFFFFFFFFFFFFFFFFFFFFFFFFFFFFFFFFFFFFFFFFFFFFFFFFFFFFFFF
310
FFFFFFFFFFFFFFFFFFFFFFFFFFFFFFFFFFFFFFFFFFFFFFFFFFFFFFFFFFFFFFFF
310
F000FFFFFFFFFFFFFFFFFFFFFFFFFFFFFFFFFFFFFFFFFFFFFFFFFFFFFFFFFFFF
310
FFFFFFFFFFFFFFFFFFFFFFFFFFFFFFFFFFFFFFFFFFFFFFFFFFFFFFFFFFFFFFFF
310
FFFFFFFFFFFFFFFFFFFFFFFFFFFFFFFFFFFFFFFFFFFFFFFFF000FFFFFFFFFFFF
310
FFFFFFFFFFFFFFFFFFFFFFFFFFFFFFFFFFFFFFFFFFFFFFFFFFFFFFFFFFFFFFFF
310
FFFFFFFFFFFFFFFFFFFFFFFFFFFFFFFFFFFFFFFFFFFFFFFFFFFFFFFFFFFFFFFF
310
FFFFFFFFFFFFFFFFFFFFFFFFFFFFFFFFF000FFFFFFFFFFFFFFFFFFFFFFFFFFFF
310
FFFFFFFFFFFFFFFFFFFFFFFFFFFFFFFFFFFFFFFFFFFFFFFFFFFFFFFFFFFFFFFF
310
FFFFFFFFFFFFFFFFFFFFFFFFFFFFFFFFFFFFFFFFFFFFFFFFFFFFFFFFFFFFFFFF
310
FFFFFFFFFFFFFFFFF000FFFFFFFFFFFFFFFFFFFFFFFFFFFFFFFFFFFFFFFFFFFF
310
FFFFFFFFFFFFFFFFFFFFFFFFFFFFFFFFFFFFFFFFFFFFFFFFFFFFFFFFFFFFFFFF
310
FFFFFFFFFFFFFFFFFFFFFFFFFFFFFFFFFFFFFFFFFFFFFFFFFFFFFFFFFFFFFFFF
310
F000FFFFFFFFFFFFFFFFFFFFFFFFFFFFFFFFFFFFFFFFFFFFFFFFFFFFFFFFFFFF
310
FFFFFFFFFFFFFFFFFFFFFFFFFFFFFFFFFFFFFFFFFFFFFFFFFFFFFFFFFFFFFFFF
310
FFFFFFFFFFFFFFFFFFFFFFFFFFFFFFFFFFFFFFFFFFFFFFFFF000FFFFFFFFFFFF
310
FFFFFFFFFFFFFFFFFFFFFFFFFFFFFFFFFFFFFFFFFFFFFFFFFFFFFFFFFFFFFFFF
310
FFFFFFFFFFFFFFFFFFFFFFFFFFFFFFFFFFFFFFFFFFFFFFFFFFFFFFFFFFFFFFFF
310
FFFFFFFFFFFFFFFFFFFFFFFFFFFFFFFFF000FFFFFFFFFFFFFFFFFFFFFFFFFFFF
310
FFFFFFFFFFFFFFFFFFFFFFFFFFFFFFFFFFFFFFFFFFFFFFFFFFFFFFFFFFFFFFFF
310
FFFFFFFFFFFFFFFFFFFFFFFFFFFFFFFFFFFFFFFFFFFFFFFFFFFFFFFFFFFFFFFF
310
FFFFFFFFFFFFFFFFF000FFFFF80003FFFFFFFFFFFFFFFFFFFFFFFFFFFFFFFFFF
310
FFFFF00007FFFFFFFFFF00007FFFFFF800000000000000007FFFFFFFFFFFFFFF
310
FFFFFFFC001FFFFFFFFFFFFFFC001FFFFFFFFFFFFFFFFFFFFFFFFFFE0007FFFF
310
F000FFFF8000007FFFFFFFF8000FFFFFC0007FFFFF80007FFFFF0000007FFFFF
310
FFF8000007FFFFF800000000000000007FFFFFF0001FFFFFFFFFFFC00001FFFF
310
FFFFFFFFC00001FFFFFFFF000000000003FFFFE000007FFFF000FFFE0000000F
310
FFFFFFF0000FFFFF80007FFFFF80007FFFFC0000001FFFFFFFC0000001FFFFF8
310
00000000000000007FFFFFF0001FFFFFFFFFFE0000003FFFFFFFFFFE0000003F
310
FFFFFF000000000003FFFF0000000FFFF000FFF800000003FFFFFFF00007FFFF
310
80007FFFFF80007FFFF000000007FFFFFF000000003FFFF80000000000000000
310
7FFFFFF0001FFFFFFFFFF80000000FFFFFFFFFF80000000FFFFFFF0000000000
310
03FFFC00000003FFF000FFE000000000FFFFFFF00007FFFF80003FFFFF80007F
310
FFC000000001FFFFFC000000001FFFF800000000000000007FFFFFF0001FFFFF
310
FFFFE000000003FFFFFFFFE000000003FFFFFF000000000003FFF000000000FF
310
F000FF80000000007FFFFFF00007FFFF80003FFFFF80007FFF8000000000FFFF
310
F80000000007FFF800000000000000007FFFFFF0001FFFFFFFFFC000000001FF
310
FFFFFFC000000001FFFFFF000000000003FFC0000000007FF000FF0000000000
310
3FFFFFE00007FFFF00003FFFFF80007FFE00000000003FFFF00000000003FFF8
310
00000000000000007FFFFFF0001FFFFFFFFF8000000000FFFFFFFF8000000000
310
FFFFFF000000000003FF80000000003FF000FE00000000001FFFFFE00003FFFF
310
00003FFFFF80007FFC00000000001FFFE00000000001FFF8000001FFFE000000
310
7FFFFFF0001FFFFFFFFE00000000003FFFFFFE00000000003FFFFF0000000000
310
03FF00000000001FF000FC00000000000FFFFFE00003FFFF00001FFFFF80007F
310
F800000000001FFFC00000000000FFF8000001FFFE0000007FFFFFF0001FFFFF
310
FFFC00000000001FFFFFFC00000000001FFFFF000000000003FE00000000000F
310
F000F8000000000007FFFFE00003FFFF00001FFFFF80007FF800000000000FFF
310
800000000000FFF8000001FFFE0000007FFFFFF0001FFFFFFFF800000000000F
310
FFFFF800000000000FFFFF000000000003FC000000000007F000F80000000000
310
03FFFFC00003FFFE00001FFFFF80007FF0000000000007FF0000000000007FF8
310
000001FFFE0000007FFFFFF0001FFFFFFFF0000000000007FFFFF00000000000
310
07FFFF000000000003F8000000000003F000F0000000000003FFFFC00001FFFE
310
00001FFFFF80007FE0000000000007FE0000000000003FF8000001FFFE000000
310
7FFFFFF0001FFFFFFFF0000000000007FFFFF0000000000007FFFF0000000000
310
03F800001F800003F000E00001FFF00001FFFFC00001FFFE00000FFFFF80007F
310
E00001FFE00003FE00001FFF00003FF8000001FFFE0000007FFFFFF0001FFFFF
310
FFE000003E000003FFFFE000003E000003FFFF000000000003F00001FFF80001
310
F000E00007FFFC0001FFFFC00001FFFE00000FFFFF80007FC0000FFFFC0003FC
310
0000FFFFC0001FF8000001FFFE0000007FFFFFF0001FFFFFFFC00003FFE00001
310
FFFFC00003FFE00001FFFF0001FFFFFFFFF00007FFFE0001F000E0000FFFFF00
310
00FFFF800001FFFC00000FFFFF80007FC0001FFFFE0001FC0001FFFFE0001FF8
310
000001FFFE0000007FFFFFF0001FFFFFFF80000FFFF80000FFFF80000FFFF800
310
00FFFF0003FFFFFFFFE0000FFFFF8000F000C0003FFFFF8000FFFF800000FFFC
310
000007FFFF80007F80003FFFFF0001FC0003FFFFF0001FF8000001FFFE000000
310
7FFFFFF0001FFFFFFF80003FFFFE0000FFFF80003FFFFE0000FFFF0003FFFFFF
310
FFE0003FFFFF8000F000C0003FFFFF8000FFFF800000FFFC000007FFFF80007F
310
80007FFFFF8001F80007FFFFF8000FF8000001FFFE0000007FFFFFF0001FFFFF
310
FF00007FFFFF00007FFF00007FFFFF00007FFF0003FFFFFFFFE0003FFFFFC000
310
F000C0007FFFFFC000FFFF000000FFFC000007FFFF80007F8000FFFFFF8000F8
310
000FFFFFF8000FF8000001FFFE0000007FFFFFF0001FFFFFFF0000FFFFFF8000
310
7FFF0000FFFFFF80007FFF0003FFFFFFFFC0007FFFFFC00070008000FFFFFFC0
310
00FFFF000000FFF8000007FFFF80007F8000FFFFFF8000F8000FFFFFF8000FF8
310
000001FFFE0000007FFFFFF0001FFFFFFE0001FFFFFFC0003FFE0001FFFFFFC0
310
003FFF0003FFFFFFFFC0007FFFFFE00070008000FFFFFFC0007FFF0000007FF8
310
000003FFFF80007F0001FFFFFF8000F8000FFFFFF8000FF8000001FFFE000000
310
7FFFFFF0001FFFFFFE0001FFFFFFC0003FFE0001FFFFFFC0003FFF0003FFFFFF
310
FFC000FFFFFFE00070008000FFFFFFC0007FFF0000007FF8000003FFFF80007F
310
0001FFFFFF8000F8001FFFFFF8000FF8000001FFFE0000007FFFFFF0001FFFFF
310
FE0003FFFFFFE0003FFE0003FFFFFFE0003FFF0003FFFFFFFFC000FFFFFFE000
310
70008000FFFFFFC0007FFE0000007FF8000003FFFF80007F0001FFFFFF8000F0
310
001FFFFFF8000FF8000001FFFE0000007FFFFFF0001FFFFFFC0003FFFFFFE000
310
1FFC0003FFFFFFE0001FFF0003FFFFFFFFC000FFFFFFC00070008000FFFFFF80
310
007FFE0000007FF0000003FFFF80007F0001FFFFFF0000F0001FFFFFF8000FF8
310
000001FFFE0000007FFFFFF0001FFFFFFC0007FFFFFFF0001FFC0007FFFFFFF0
310
001FFF0003FFFFFFFFC000FFFFFFC00070008001FFFFFF0000FFFE0000003FF0
310
000001FFFF80007F0001FFFFFF0000F8001FFFFFF0000FF8000001FFFE000000
310
7FFFFFF0001FFFFFFC0007FFFFFFF0001FFC0007FFFFFFF0001FFF0003FFFFFF
310
FFC001FFFFFF80007000FFFFFFFFFE0000FFFE0008003FF0008001FFFF80007F
310
FFFFFFFFFC0000FFFFFFFFFFE0000FF8000001FFFE0000007FFFFFF0001FFFFF
310
F8000FFFFFFFF8000FF8000FFFFFFFF8000FFF0003FFFFFFFFFFFFFFFFFF0000
310
7000FFFFFFFFFC0000FFFC0008003FF0008001FFFF80007FFFFFFFFFF80001FF
310
FFFFFFFF80000FF8000001FFFE0000007FFFFFF0001FFFFFF8000FFFFFFFF800
310
0FF8000FFFFFFFF8000FFF0003FFFFFFFFFFFFFFFFFE0000F000FFFFFFFFE000
310
00FFFC000C003FE000C001FFFF80007FFFFFFFFFC00001FFFFFFFFFE00001FF8
310
000001FFFE0000007FFFFFF0001FFFFFF8000FFFFFFFF8000FF8000FFFFFFFF8
310
000FFF0003FFFFFFFFFFFFFFFFF00000F000FFFFFFFE000001FFFC000C001FE0
310
00C000FFFF80007FFFFFFFFE000001FFFFFFFFE000001FF80FFFFFFFFFFFFFC0
310
7FFFFFF0001FFFFFF8000FFFFFFFF8000FF8000FFFFFFFF8000FFF0003FFFFFF
310
FFFFFFFFFF800000F000FFFFFFC0000001FFFC001C001FE001C000FFFF80007F
310
FFFFFF80000003FFFFFFF80000001FF80FFFFFFFFFFFFFC07FFFFFF0001FFFFF
310
F8001FFFFFFFFC000FF8001FFFFFFFFC000FFF0003FFFFFFFFFFFFFFF0000001
310
F000FFFFF800000001FFF8001C001FE001C000FFFF80007FFFFFF800000003FF
310
FFFF800000003FF80FFFFFFFFFFFFFC07FFFFFF0001FFFFFF8001FFFFFFFFC00
310
0FF8001FFFFFFFFC000FFF0003FFFFFFFFFFFFFE00000001F000FFFFC0000000
310
03FFF8001E001FC001E000FFFF80007FFFFF8000000007FFFFFC000000003FF8
310
0FFFFFFFFFFFFFC07FFFFFF0001FFFFFF8001FFFFFFFFC000FF8001FFFFFFFFC
310
000FFF0003FFFFFFFFFFFFE000000003F000FFFE0000000007FFF8001E000FC0
310
01E0007FFF80007FFFFE0000000007FFFFE0000000007FF80FFFFFFFFFFFFFC0
310
7FFFFFF0001FFFFFF0001FFFFFFFFC0007F0001FFFFFFFFC0007FF0003FFFFFF
310
FFFFFF0000000003F000FFF80000000007FFF8001E000FC003E0007FFF80007F
310
FFF0000000000FFFFF8000000000FFF80FFFFFFFFFFFFFC07FFFFFF0001FFFFF
310
F0001FFFFFFFFC0007F0001FFFFFFFFC0007FF0003FFFFFFFFFFFC0000000007
310
F000FFE0000000000FFFF0003E000FC003E0007FFF80007FFFC0000000001FFF
310
FE0000000001FFF80FFFFFFFFFFFFFC07FFFFFF0001FFFFFF0001FFFFFFFFC00
310
07F0001FFFFFFFFC0007FF0003FFFFFFFFFFF0000000000FF000FFC000000000
310
1FFFF0003F000F8003F0003FFF80007FFF80000000003FFFF80000000003FFF8
310
0FFFFFFFFFFFFFC07FFFFFF0001FFFFFF0001FFFFFFFFC0007F0001FFFFFFFFC
310
0007FF0003FFFFFFFFFFE0000000001FF000FF00000000007FFFF0003F000780
310
03F0003FFF80007FFF00000000007FFFF00000000007FFF80FFFFFFFFFFFFFC0
310
7FFFFFF0001FFFFFF0001FFFFFFFFC0007F0001FFFFFFFFC0007FF0003FFFFFF
310
FFFF80000000007FF000FE0000000000FFFFE0003F00078007F0003FFF80007F
310
FE0000000001FFFFE0000000001FFFF80FFFFFFFFFFFFFC07FFFFFF0001FFFFF
310
F0001FFFFFFFFC0007F0001FFFFFFFFC0007FF0003FFFFFFFFFF0000000000FF
310
F000FC0000000003FFFFE0007F00078007F0003FFF80007FFC0000000007FFFF
310
C0000000007FFFF80FFFFFFFFFFFFFC07FFFFFF0001FFFFFF8001FFFFFFFFC00
310
0FF8001FFFFFFFFC000FFF0003FFFFFFFFFE0000000003FFF000FC000000000F
310
FFFFE0007F80070007F8001FFF80007FF8000000001FFFFF8000000001FFFFF8
310
0FFFFFFFFFFFFFC07FFFFFF0001FFFFFF8001FFFFFFFFC000FF8001FFFFFFFFC
310
000FFF0003FFFFFFFFFC000000000FFFF000F8000000007FFFFFE0007F800700
310
07F8001FFF80007FF000000000FFFFFF800000000FFFFFF80FFFFFFFFFFFFFC0
310
7FFFFFF0001FFFFFF8000FFFFFFFF8000FF8000FFFFFFFF8000FFF0003FFFFFF
310
FFFC000000007FFFF000F800000007FFFFFFC0007F8003000FF8001FFF80007F
310
F000000007FFFFFF000000007FFFFFF80FFFFFFFFFFFFFC07FFFFFF0001FFFFF
310
F8000FFFFFFFF8000FF8000FFFFFFFF8000FFF0003FFFFFFFFF80000000FFFFF
310
F000F0000000FFFFFFFFC000FF8003000FF8001FFF80007FE0000000FFFFFFFF
310
0000000FFFFFFFF8000001FFFE0000007FFFFFF0001FFFFFF8000FFFFFFFF800
310
0FF8000FFFFFFFF8000FFF0003FFFFFFFFF8000000FFFFFFF000F000000FFFFF
310
FFFFC000FFC002000FF8000FFF80007FE000001FFFFFFFFE000001FFFFFFFFF8
310
000001FFFE0000007FFFFFF0001FFFFFF8000FFFFFFFF8000FF8000FFFFFFFF8
310
000FFF0003FFFFFFFFF000001FFFFFFFF000E00000FFFFFFFFFFC000FFC00200
310
0FFC000FFF80007FE00001FFFFFFFFFE00001FFFFFFFFFF8000001FFFE000000
310
7FFFFFF0001FFFFFFC000FFFFFFFF8001FFC000FFFFFFFF8001FFF0003FFFFFF
310
FFF00001FFFFFFFFF000E00007FFFFFFFFFF8000FFC000001FFC000FFF80007F
310
C0000FFFFFFFFFFE0000FFFFFFFFFFF8000001FFFE0000007FFFFFF0001FFFFF
310
FC0007FFFFFFF0001FFC0007FFFFFFF0001FFF0003FFFFFFFFF00007FFFFFFFF
310
F000E0001FFFFFFFFFFF8000FFC000001FFC000FFF80007FC0003FFFFFFFFFFE
310
0001FFFFFFFFFFF8000001FFFE0000007FFFFFF0001FFFFFFC0007FFFFFFF000
310
1FFC0007FFFFFFF0001FFF0003FFFFFFFFF0001FFFFFFFFFF000E0003FFFFF00
310
03FF8001FFE000001FFC0007FF80007FC0007FFFFF0007FC0003FFFFF0003FF8
310
000001FFFE0000007FFFFFF0001FFFFFFC0003FFFFFFE0001FFC0003FFFFFFE0
310
001FFF0003FFFFFFFFF0003FFFFFFFFFF000E0003FFFFF0001FF8001FFE00000
310
1FFE0007FF80007FC0007FFFFE0003FC0007FFFFE0003FF8000001FFFE000000
310
7FFFFFF0001FFFFFFE0003FFFFFFE0003FFE0003FFFFFFE0003FFF0003FFFFFF
310
FFF0003FFFFF8001F000E0003FFFFF0001FF0001FFE000001FFE0007FF80007F
310
C0007FFFFE0003FC0007FFFFE0003FF8000001FFFE0000007FFFFFF0001FFFFF
310
FE0001FFFFFFC0003FFE0001FFFFFFC0003FFF0003FFFFFFFFF0003FFFFF0001
310
F000E0003FFFFF0003FF0001FFE000003FFE0007FF80007FC0007FFFFE0003FC
310
0007FFFFE0003FF8000001FFFE0000007FFFFFF0001FFFFFFF0001FFFFFFC000
310
7FFF0001FFFFFFC0007FFF0003FFFFFFFFF0003FFFFF0001F000E0003FFFFE00
310
03FF0003FFF000003FFE0003FF80007FC0007FFFFC0003FE0007FFFFE0003FF8
310
000001FFFE0000007FFFFFF0001FFFFFFF0000FFFFFF80007FFF0000FFFFFF80
310
007FFF0003FFFFFFFFF0003FFFFF0001F000E0003FFFFE0003FF0003FFF00000
310
3FFF0003FF80007FC0007FFFFC0007FE0007FFFFC0003FF8000001FFFE000000
310
7FFFFFF0001FFFFFFF80007FFFFF0000FFFF80007FFFFF0000FFFF0003FFFFFF
310
FFF0003FFFFF0003F000E0003FFFFC0003FE0003FFF000003FFF0003FF80007F
310
E0003FFFF80007FE0003FFFFC0007FF8000001FFFE0000007FFFFFF0001FFFFF
310
FF80003FFFFE0000FFFF80003FFFFE0000FFFF0003FFFFFFFFF0001FFFFE0003
310
F000F0001FFFF80003FE0003FFF000007FFF0001FF80007FE0003FFFF00007FE
310
0001FFFF80007FF8000001FFFE0000007FFFFFF0001FFFFFFFC0000FFFF80001
310
FFFFC0000FFFF80001FFFF0003FFFFFFFFF0001FFFFC0003F000F0000FFFF000
310
07FE0007FFF800007FFF0001FF80007FE0001FFFE00007FF0000FFFE00007FF8
310
000001FFFE0000007FFFFFF0001FFFFFFFC00003FFE00001FFFFC00003FFE000
310
01FFFF0003FFFFFFFFF8000FFFF80003F000F00003FFC00007FC0007FFF80000
310
7FFF8001FF80007FF00007FF80000FFF00007FF80000FFF8000001FFFE000000
310
7F80000000000001FFE000003E000003FFFFE000003E000003FFFF0003FFFFFF
310
FFF80003FFE00007F000F800000000000FFC0007FFF800007FFF8001FF80007F
310
F000000000000FFF000000000000FFF8000001FFFE0000007F80000000000001
310
FFF0000000000007FFFFF0000000000007FFFF0003FFFFFFFFFC00007E000007
310
F000F800000000000FFC0007FFF80000FFFF8000FF80007FF800000000001FFF
310
800000000001FFF8000001FFFE0000007F80000000000001FFF800000000000F
310
FFFFF800000000000FFFFF0003FFFFFFFFFC00000000000FF000FC0000000000
310
1FFC0007FFFC0000FFFF8000FF80007FF800000000003FFFC00000000001FFF8
310
000001FFFE0000007F80000000000001FFF800000000000FFFFFF80000000000
310
0FFFFF0003FFFFFFFFFE00000000001FF000FE00000000003FF8000FFFFC0000
310
FFFF8000FF80007FFC00000000003FFFC00000000003FFF8000001FFFE000000
310
7F80000000000001FFFC00000000001FFFFFFC00000000001FFFFF0003FFFFFF
310
FFFF00000000001FF000FF00000000003FF8000FFFFC0000FFFFC000FF80007F
310
FE00000000007FFFE00000000007FFF8000001FFFE0000007F80000000000001
310
FFFE00000000003FFFFFFE00000000003FFFFF0003FFFFFFFFFF80000000003F
310
F000FF80000000007FF8000FFFFC0001FFFFC0007F80007FFF0000000000FFFF
310
F0000000000FFFF800000000000000007F80000000000001FFFF8000000000FF
310
FFFFFF8000000000FFFFFF0003FFFFFFFFFFC0000000007FF000FFC000000000
310
FFF8000FFFFE0001FFFFC0007F80007FFF8000000001FFFFF8000000001FFFF8
310
00000000000000007F80000000000001FFFFC000000001FFFFFFFFC000000001
310
FFFFFF0003FFFFFFFFFFE000000000FFF000FFE000000003FFF0001FFFFE0001
310
FFFFC0007F80007FFFC000000007FFFFFE000000003FFFF80000000000000000
310
7F80000000000001FFFFE000000003FFFFFFFFE000000003FFFFFF0003FFFFFF
310
FFFFF000000003FFF000FFF80000000FFFF0001FFFFE0001FFFFE0007F80007F
310
FFF00000000FFFFFFF00000000FFFFF800000000000000007F80000000000001
310
FFFFF80000000FFFFFFFFFF80000000FFFFFFF0003FFFFFFFFFFFC0000000FFF
310
F000FFFE0000003FFFF0001FFFFE0003FFFFE0003F80007FFFFC0000003FFFFF
310
FFC0000003FFFFF800000000000000007F80000000000001FFFFFE0000003FFF
310
FFFFFFFE0000003FFFFFFF0003FFFFFFFFFFFF0000003FFFF000FFFF800000FF
310
FFF0001FFFFF0003FFFFE0003F80007FFFFF000001FFFFFFFFF800001FFFFFF8
310
00000000000000007F80000000000001FFFFFFC00001FFFFFFFFFFFFC00001FF
310
FFFFFF0003FFFFFFFFFFFFC00000FFFFF000FFFFF8000FFFFFFFFFFFFFFFFFFF
310
FFFFFFFFFFFFFFFFFFFFF0001FFFFFFFFFFF0000FFFFFFF80000000000000000
310
7FFFFFFFFFFFFFFFFFFFFFFC001FFFFFFFFFFFFFFC001FFFFFFFFFFFFFFFFFFF
310
FFFFFFFC001FFFFFF000FFFFFFFFFFFFFFFFFFFFFFFFFFFFFFFFFFFFFFFFFFFF
310
FFFFFFFFFFFFFFFFFFFFFFFFFFFFFFFFFFFFFFFFFFFFFFFFFFFFFFFFFFFFFFFF
310
FFFFFFFFFFFFFFFFFFFFFFFFFFFFFFFFFFFFFFFFFFFFFFFFFFFFFFFFFFFFFFFF
310
F000FFFFFFFFFFFFFFFFFFFFFFFFFFFFFFFFFFFFFFFFFFFFFFFFFFFFFFFFFFFF
310
FFFFFFFFFFFFFFFFFFFFFFFFFFFFFFFFFFFFFFFFFFFFFFFFFFFFFFFFFFFFFFFF
310
FFFFFFFFFFFFFFFFFFFFFFFFFFFFFFFFFFFFFFFFFFFFFFFFF000FFFFFFFFFFFF
310
FFFFFFFFFFFFFFFFFFFFFFFFFFFFFFFFFFFFFFFFFFFFFFFFFFFFFFFFFFFFFFFF
310
FFFFFFFFFFFFFFFFFFFFFFFFFFFFFFFFFFFFFFFFFFFFFFFFFFFFFFFFFFFFFFFF
310
FFFFFFFFFFFFFFFFFFFFFFFFFFFFFFFFF000FFFFFFFFFFFFFFFFFFFFFFFFFFFF
310
FFFFFFFFFFFFFFFFFFFFFFFFFFFFFFFFFFFFFFFFFFFFFFFFFFFFFFFFFFFFFFFF
310
FFFFFFFFFFFFFFFFFFFFFFFFFFFFFFFFFFFFFFFFFFFFFFFFFFFFFFFFFFFFFFFF
310
FFFFFFFFFFFFFFFFF000FFFFFFFFFFFFFFFFFFFFFFFFFFFFFFFFFFFFFFFFFFFF
310
FFFFFFFFFFFFFFFFFFFFFFFFFFFFFFFFFFFFFFFFFFFFFFFFFFFFFFFFFFFFFFFF
310
FFFFFFFFFFFFFFFFFFFFFFFFFFFFFFFFFFFFFFFFFFFFFFFFFFFFFFFFFFFFFFFF
310
F000FFFFFFFFFFFFFFFFFFFFFFFFFFFFFFFFFFFFFFFFFFFFFFFFFFFFFFFFFFFF
310
FFFFFFFFFFFFFFFFFFFFFFFFFFFFFFFFFFFFFFFFFFFFFFFFFFFFFFFFFFFFFFFF
310
FFFFFFFFFFFFFFFFFFFFFFFFFFFFFFFFFFFFFFFFFFFFFFFFF000FFFFFFFFFFFF
310
FFFFFFFFFFFFFFFFFFFFFFFFFFFFFFFFFFFFFFFFFFFFFFFFFFFFFFFFFFFFFFFF
310
FFFFFFFFFFFFFFFFFFFFFFFFFFFFFFFFFFFFFFFFFFFFFFFFFFFFFFFFFFFFFFFF
310
FFFFFFFFFFFFFFFFFFFFFFFFFFFFFFFFF000FFFFFFFFFFFFFFFFFFFFFFFFFFFF
310
FFFFFFFFFFFFFFFFFFFFFFFFFFFFFFFFFFFFFFFFFFFFFFFFFFFFFFFFFFFFFFFF
310
FFFFFFFFFFFFFFFFFFFFFFFFFFFFFFFFFFFFFFFFFFFFFFFFFFFFFFFFFFFFFFFF
310
FFFFFFFFFFFFFFFFF000FFFFFFFFFFFFFFFFFFFFFFFFFFFFFFFFFFFFFFFFFFFF
310
FFFFFFFFFFFFFFFFFFFFFFFFFFFFFFFFFFFFFFFFFFFFFFFFFFFFFFFFFFFFFFFF
310
FFFFFFFFFFFFFFFFFFFFFFFFFFFFFFFFFFFFFFFFFFFFFFFFFFFFFFFFFFFFFFFF
310
F000FFFFFFFFFFFFFFFFFFFFFFFFFFFFFFFFFFFFFFFFFFFFFFFFFFFFFFFFFFFF
310
FFFFFFFFFFFFFFFFFFFFFFFFFFFFFFFFFFFFFFFFFFFFFFFFFFFFFFFFFFFFFFFF
310
FFFFFFFFFFFFFFFFFFFFFFFFFFFFFFFFFFFFFFFFFFFFFFFFF000FFFFFFFFFFFF
310
FFFFFFFFFFFFFFFFFFFFFFFFFFFFFFFFFFFFFFFFFFFFFFFFFFFFFFFFFFFFFFFF
310
FFFFFFFFFFFFFFFFFFFFFFFFFFFFFFFFFFFFFFFFFFFFFFFFFFFFFFFFFFFFFFFF
310
FFFFFFFFFFFFFFFFFFFFFFFFFFFFFFFFF000FFFFFFFFFFFFFFFFFFFFFFFFFFFF
310
FFFFFFFFFFFFFFFFFFFFFFFFFFFFFFFFFFFFFFFFFFFFFFFFFFFFFFFFFFFFFFFF
310
FFFFFFFFFFFFFFFFFFFFFFFFFFFFFFFFFFFFFFFFFFFFFFFFFFFFFFFFFFFFFFFF
310
FFFFFFFFFFFFFFFFF000FFFFFFFFFFFFFFFFFFFFFFFFFFFFFFFFFFFFFFFFFFFF
310
FFFFFFFFFFFFFFFFFFFFFFFFFFFFFFFFFFFFFFFFFFFFFFFFFFFFFFFFFFFFFFFF
310
FFFFFFFFFFFFFFFFFFFFFFFFFFFFFFFFFFFFFFFFFFFFFFFFFFFFFFFFFFFFFFFF
310
F000FFFFFFFFFFFFFFFFFFFFFFFFFFFFFFFFFFFFFFFFFFFFFFFFFFFFFFFFFFFF
310
FFFFFFFFFFFFFFFFFFFFFFFFFFFFFFFFFFFFFFFFFFFFFFFFFFFFFFFFFFFFFFFF
310
FFFFFFFFFFFFFFFFFFFFFFFFFFFFFFFFFFFFFFFFFFFFFFFFF000FFFFFFFFFFFF
310
FFFFFFFFFFFFFFFFFFFFFFFFFFFFFFFFFFFFFFFFFFFFFFFFFFFFFFFFFFFFFFFF
310
FFFFFFFFFFFFFFFFFFFFFFFFFFFFFFFFFFFFFFFFFFFFFFFFFFFFFFFFFFFFFFFF
310
FFFFFFFFFFFFFFFFFFFFFFFFFFFFFFFFF000FFFFFFFFFFFFFFFFFFFFFFFFFFFF
310
FFFFFFFFFFFFFFFFFFFFFFFFFFFFFFFFFFFFFFFFFFFFFFFFFFFFFFFFFFFFFFFF
310
FFFFFFFFFFFFFFFFFFFFFFFFFFFFFFFFFFFFFFFFFFFFFFFFFFFFFFFFFFFFFFFF
310
FFFFFFFFFFFFFFFFF000FFFFFFFFFFFFFFFFFFFFFFFFFFFFFFFFFFFFFFFFFFFF
310
FFFFFFFFFFFFFFFFFFFFFFFFFFFFFFFFFFFFFFFFFFFFFFFFFFFFFFFFFFFFFFFF
310
FFFFFFFFFFFFFFFFFFFFFFFFFFFFFFFFFFFFFFFFFFFFFFFFFFFFFFFFFFFFFFFF
310
F000FFFFFFFFFFFFFFFFFFFFFFFFFFFFFFFFFFFFFFFFFFFFFFFFFFFFFFFFFFFF
310
FFFFFFFFFFFFFFFFFFFFFFFFFFFFFFFFFFFFFFFFFFFFFFFFFFFFFFFFFFFFFFFF
310
FFFFFFFFFFFFFFFFFFFFFFFFFFFFFFFFFFFFFFFFFFFFFFFFF000FFFFFFFFFFFF
310
FFFFFFFFFFFFFFFFFFFFFFFFFFFFFFFFFFFFFFFFFFFFFFFFFFFFFFFFFFFFFFFF
310
FFFFFFFFFFFFFFFFFFFFFFFFFFFFFFFFFFFFFFFFFFFFFFFFFFFFFFFFFFFFFFFF
310
FFFFFFFFFFFFFFFFFFFFFFFFFFFFFFFFF000FFFFFFFFFFFFFFFFFFFFFFFFFFFF
310
FFFFFFFFFFFFFFFFFFFFFFFFFFFFFFFFFFFFFFFFFFFFFFFFFFFFFFFFFFFFFFFF
310
FFFFFFFFFFFFFFFFFFFFFFFFFFFFFFFFFFFFFFFFFFFFFFFFFFFFFFFFFFFFFFFF
310
FFFFFFFFFFFFFFFFF000FFFFFFFFFFFFFFFFFFFFFFFFFFFFFFFFFFFFFFFFFFFF
310
FFFFFFFFFFFFFFFFFFFFFFFFFFFFFFFFFFFFFFFFFFFFFFFFFFFFFFFFFFFFFFFF
310
FFFFFFFFFFFFFFFFFFFFFFFFFFFFFFFFFFFFFFFFFFFFFFFFFFFFFFFFFFFFFFFF
310
F000FFFFFFFFFFFFFFFFFFFFFFFFFFFFFFFFFFFFFFFFFFFFFFFFFFFFFFFFFFFF
310
FFFFFFFFFFFFFFFFFFFFFFFFFFFFFFFFFFFFFFFFFFFFFFFFFFFFFFFFFFFFFFFF
310
FFFFFFFFFFFFFFFFFFFFFFFFFFFFFFFFFFFFFFFFFFFFFFFFF000FFFFFFFFFFFF
310
FFFFFFFFFFFFFFFFFFFFFFFFFFFFFFFFFFFFFFFFFFFFFFFFFFFFFFFFFFFFFFFF
310
FFFFFFFFFFFFFFFFFFFFFFFFFFFFFFFFFFFFFFFFFFFFFFFFFFFFFFFFFFFFFFFF
310
FFFFFFFFFFFFFFFFFFFFFFFFFFFFFFFFF0000000000000000000000000000000
310
0000000000000000000000000000000000000000000000000000000000000000
310
0000000000000000000000000000000000000000000000000000000000000000
310
0000000000000000000000000000000000000000000000000000000000000000
310
0000000000000000000000000000000000000000000000000000000000000000
310
0000000000000000000000000000000000000000000000000000000000000000
310
0000000000000000000000000000000000000000000000000000000000000000
310
0000000000000000000000000000000000000000000000000000000000000000
310
0000000000000000000000000000000000000000000000000000000000000000
310
0000000000000000000000000000000000000000000000000000000000000000
310
0000000000000000000000000000000000000000000000000000000000000000
310
0000000000000000000000000000000000000000000000000000000000000000
310
0000000000000000000000000000000000000000000000000000000000000000
310
0000000000000000000000000000000000000000000000000000000000000000
310
0000000000000000000000000000000000000000000000000000000000000000
310
0000000000000000000000000000000000000000000000000000000000000000
  1
OLE
  0
ENDSEC
  0
SECTION
  2
OBJECTS
  0
DICTIONARY
  5
C
330
0
100
AcDbDictionary
281
     1
  3
ACAD_GROUP
350
D
  3
ACAD_LAYOUT
350
1A
  3
ACAD_MLINESTYLE
350
17
  3
ACAD_PLOTSETTINGS
350
19
  3
ACAD_PLOTSTYLENAME
350
E
  0
DICTIONARY
  5
D
102
{ACAD_REACTORS
330
C
102
}
330
C
100
AcDbDictionary
281
     1
  0
DICTIONARY
  5
1A
102
{ACAD_REACTORS
330
C
102
}
330
C
100
AcDbDictionary
281
     1
  3
Layout1
350
1E
  3
Layout2
350
26
  3
Model
350
22
  0
DICTIONARY
  5
17
102
{ACAD_REACTORS
330
C
102
}
330
C
100
AcDbDictionary
281
     1
  3
Standard
350
18
  0
DICTIONARY
  5
19
102
{ACAD_REACTORS
330
C
102
}
330
C
100
AcDbDictionary
281
     1
  0
ACDBDICTIONARYWDFLT
  5
E
102
{ACAD_REACTORS
330
C
102
}
330
C
100
AcDbDictionary
281
     1
  3
Normal
350
F
100
AcDbDictionaryWithDefault
340
F
  0
LAYOUT
  5
1E
102
{ACAD_REACTORS
330
1A
102
}
330
1A
100
AcDbPlotSettings
  1

  2
none_device
  4

  6

 40
0.0
 41
0.0
 42
0.0
 43
0.0
 44
0.0
 45
0.0
 46
0.0
 47
0.0
 48
0.0
 49
0.0
140
0.0
141
0.0
142
1.0
143
1.0
 70
   688
 72
     0
 73
     0
 74
     5
  7

 75
    16
147
1.0
148
0.0
149
0.0
100
AcDbLayout
  1
Layout1
 70
     1
 71
     1
 10
0.0
 20
0.0
 11
420.0
 21
297.0
 12
0.0
 22
0.0
 32
0.0
 14
1.0000000000E+20
 24
1.0000000000E+20
 34
1.0000000000E+20
 15
-1.0000000000E+20
 25
-1.0000000000E+20
 35
-1.0000000000E+20
146
0.0
 13
0.0
 23
0.0
 33
0.0
 16
1.0
 26
0.0
 36
0.0
 17
0.0
 27
1.0
 37
0.0
 76
     0
330
1B
  0
LAYOUT
  5
26
102
{ACAD_REACTORS
330
1A
102
}
330
1A
100
AcDbPlotSettings
  1

  2
none_device
  4

  6

 40
0.0
 41
0.0
 42
0.0
 43
0.0
 44
0.0
 45
0.0
 46
0.0
 47
0.0
 48
0.0
 49
0.0
140
0.0
141
0.0
142
1.0
143
1.0
 70
   688
 72
     0
 73
     0
 74
     5
  7

 75
    16
147
1.0
148
0.0
149
0.0
100
AcDbLayout
  1
Layout2
 70
     1
 71
     2
 10
0.0
 20
0.0
 11
0.0
 21
0.0
 12
0.0
 22
0.0
 32
0.0
 14
0.0
 24
0.0
 34
0.0
 15
0.0
 25
0.0
 35
0.0
146
0.0
 13
0.0
 23
0.0
 33
0.0
 16
1.0
 26
0.0
 36
0.0
 17
0.0
 27
1.0
 37
0.0
 76
     0
330
23
  0
LAYOUT
  5
22
102
{ACAD_REACTORS
330
1A
102
}
330
1A
100
AcDbPlotSettings
  1

  2
none_device
  4

  6

 40
0.0
 41
0.0
 42
0.0
 43
0.0
 44
0.0
 45
0.0
 46
0.0
 47
0.0
 48
0.0
 49
0.0
140
0.0
141
0.0
142
1.0
143
1.0
 70
  1712
 72
     0
 73
     0
 74
     0
  7

 75
     0
147
1.0
148
0.0
149
0.0
100
AcDbLayout
  1
Model
 70
     1
 71
     0
 10
0.0
 20
0.0
 11
297.0
 21
210.0
 12
0.0
 22
0.0
 32
0.0
 14
0.0
 24
0.0
 34
0.0
 15
297.0
 25
210.0
 35
0.0
146
0.0
 13
0.0
 23
0.0
 33
0.0
 16
1.0
 26
0.0
 36
0.0
 17
0.0
 27
1.0
 37
0.0
 76
     0
330
1F
331
29
  0
MLINESTYLE
  5
18
102
{ACAD_REACTORS
330
17
102
}
330
17
100
AcDbMlineStyle
  2
Standard
 70
     0
  3

 62
   256
 51
90.0
 52
90.0
 71
     2
 49
0.5
 62
   256
  6
BYLAYER
 49
-0.5
 62
   256
  6
BYLAYER
  0
ACDBPLACEHOLDER
  5
F
102
{ACAD_REACTORS
330
E
102
}
330
E
  0
ENDSEC
  0
EOF
