  0
SECTION
  2
HEADER
  9
$ACADVER
  1
AC1015
  9
$ACADMAINTVER
 70
     6
  9
$DWGCODEPAGE
  3
ANSI_1252
  9
$INSBASE
 10
0.0
 20
0.0
 30
0.0
  9
$EXTMIN
 10
0.0
 20
0.0
 30
0.0
  9
$EXTMAX
 10
297.0
 20
210.0
 30
0.0
  9
$LIMMIN
 10
0.0
 20
0.0
  9
$LIMMAX
 10
297.0
 20
210.0
  9
$ORTHOMODE
 70
     0
  9
$REGENMODE
 70
     1
  9
$FILLMODE
 70
     1
  9
$QTEXTMODE
 70
     0
  9
$MIRRTEXT
 70
     1
  9
$LTSCALE
 40
1.0
  9
$ATTMODE
 70
     1
  9
$TEXTSIZE
 40
2.0
  9
$TRACEWID
 40
1.0
  9
$TEXTSTYLE
  7
Standard
  9
$CLAYER
  8
0
  9
$CELTYPE
  6
ByLayer
  9
$CECOLOR
 62
   256
  9
$CELTSCALE
 40
1.0
  9
$DISPSILH
 70
     0
  9
$DIMSCALE
 40
1.0
  9
$DIMASZ
 40
3.0
  9
$DIMEXO
 40
0.0
  9
$DIMDLI
 40
3.75
  9
$DIMRND
 40
0.0
  9
$DIMDLE
 40
0.0
  9
$DIMEXE
 40
1.0
  9
$DIMTP
 40
0.0
  9
$DIMTM
 40
0.0
  9
$DIMTXT
 40
2.0
  9
$DIMCEN
 40
2.5
  9
$DIMTSZ
 40
0.0
  9
$DIMTOL
 70
     0
  9
$DIMLIM
 70
     0
  9
$DIMTIH
 70
     1
  9
$DIMTOH
 70
     1
  9
$DIMSE1
 70
     0
  9
$DIMSE2
 70
     0
  9
$DIMTAD
 70
     1
  9
$DIMZIN
 70
     0
  9
$DIMBLK
  1

  9
$DIMASO
 70
     1
  9
$DIMSHO
 70
     1
  9
$DIMPOST
  1

  9
$DIMAPOST
  1

  9
$DIMALT
 70
     0
  9
$DIMALTD
 70
     3
  9
$DIMALTF
 40
0.0393700787
  9
$DIMLFAC
 40
1.0
  9
$DIMTOFL
 70
     1
  9
$DIMTVP
 40
0.0
  9
$DIMTIX
 70
     0
  9
$DIMSOXD
 70
     0
  9
$DIMSAH
 70
     0
  9
$DIMBLK1
  1

  9
$DIMBLK2
  1

  9
$DIMSTYLE
  2
ISO-25
  9
$DIMCLRD
 70
     0
  9
$DIMCLRE
 70
     0
  9
$DIMCLRT
 70
     0
  9
$DIMTFAC
 40
1.0
  9
$DIMGAP
 40
1.524
  9
$DIMJUST
 70
     0
  9
$DIMSD1
 70
     0
  9
$DIMSD2
 70
     0
  9
$DIMTOLJ
 70
     0
  9
$DIMTZIN
 70
     0
  9
$DIMALTZ
 70
     0
  9
$DIMALTTZ
 70
     0
  9
$DIMUPT
 70
     0
  9
$DIMDEC
 70
     2
  9
$DIMTDEC
 70
     3
  9
$DIMALTU
 70
     2
  9
$DIMALTTD
 70
     3
  9
$DIMTXSTY
  7
Standard
  9
$DIMAUNIT
 70
     0
  9
$DIMADEC
 70
     2
  9
$DIMALTRND
 40
0.0
  9
$DIMAZIN
 70
     0
  9
$DIMDSEP
 70
    44
  9
$DIMATFIT
 70
     3
  9
$DIMFRAC
 70
     0
  9
$DIMLDRBLK
  1

  9
$DIMLUNIT
 70
     2
  9
$DIMLWD
 70
    -2
  9
$DIMLWE
 70
    -2
  9
$DIMTMOVE
 70
     0
  9
$LUNITS
 70
     2
  9
$LUPREC
 70
     2
  9
$SKETCHINC
 40
1.0
  9
$FILLETRAD
 40
10.0
  9
$AUNITS
 70
     0
  9
$AUPREC
 70
     2
  9
$MENU
  1
.
  9
$ELEVATION
 40
0.0
  9
$PELEVATION
 40
0.0
  9
$THICKNESS
 40
0.0
  9
$LIMCHECK
 70
     0
  9
$CHAMFERA
 40
10.0
  9
$CHAMFERB
 40
10.0
  9
$CHAMFERC
 40
20.0
  9
$CHAMFERD
 40
0.0
  9
$SKPOLY
 70
     0
  9
$TDCREATE
 40
2456079.629379306
  9
$TDUCREATE
 40
2456079.546045972
  9
$TDUPDATE
 40
2456079.629380752
  9
$TDUUPDATE
 40
2456079.546047419
  9
$TDINDWG
 40
0.0000000116
  9
$TDUSRTIMER
 40
0.0000000116
  9
$USRTIMER
 70
     1
  9
$ANGBASE
 50
0.0
  9
$ANGDIR
 70
     0
  9
$PDMODE
 70
     0
  9
$PDSIZE
 40
-1.0
  9
$PLINEWID
 40
0.0
  9
$SPLFRAME
 70
     0
  9
$SPLINETYPE
 70
     6
  9
$SPLINESEGS
 70
     8
  9
$HANDSEED
  5
1F9
  9
$SURFTAB1
 70
     6
  9
$SURFTAB2
 70
     6
  9
$SURFTYPE
 70
     6
  9
$SURFU
 70
     6
  9
$SURFV
 70
     6
  9
$UCSBASE
  2

  9
$UCSNAME
  2

  9
$UCSORG
 10
0.0
 20
0.0
 30
0.0
  9
$UCSXDIR
 10
1.0
 20
0.0
 30
0.0
  9
$UCSYDIR
 10
0.0
 20
1.0
 30
0.0
  9
$UCSORTHOREF
  2

  9
$UCSORTHOVIEW
 70
     0
  9
$UCSORGTOP
 10
0.0
 20
0.0
 30
0.0
  9
$UCSORGBOTTOM
 10
0.0
 20
0.0
 30
0.0
  9
$UCSORGLEFT
 10
0.0
 20
0.0
 30
0.0
  9
$UCSORGRIGHT
 10
0.0
 20
0.0
 30
0.0
  9
$UCSORGFRONT
 10
0.0
 20
0.0
 30
0.0
  9
$UCSORGBACK
 10
0.0
 20
0.0
 30
0.0
  9
$PUCSBASE
  2

  9
$PUCSNAME
  2

  9
$PUCSORG
 10
0.0
 20
0.0
 30
0.0
  9
$PUCSXDIR
 10
1.0
 20
0.0
 30
0.0
  9
$PUCSYDIR
 10
0.0
 20
1.0
 30
0.0
  9
$PUCSORTHOREF
  2

  9
$PUCSORTHOVIEW
 70
     0
  9
$PUCSORGTOP
 10
0.0
 20
0.0
 30
0.0
  9
$PUCSORGBOTTOM
 10
0.0
 20
0.0
 30
0.0
  9
$PUCSORGLEFT
 10
0.0
 20
0.0
 30
0.0
  9
$PUCSORGRIGHT
 10
0.0
 20
0.0
 30
0.0
  9
$PUCSORGFRONT
 10
0.0
 20
0.0
 30
0.0
  9
$PUCSORGBACK
 10
0.0
 20
0.0
 30
0.0
  9
$USERI1
 70
     0
  9
$USERI2
 70
     0
  9
$USERI3
 70
     0
  9
$USERI4
 70
     0
  9
$USERI5
 70
     0
  9
$USERR1
 40
0.0
  9
$USERR2
 40
0.0
  9
$USERR3
 40
0.0
  9
$USERR4
 40
0.0
  9
$USERR5
 40
0.0
  9
$WORLDVIEW
 70
     1
  9
$SHADEDGE
 70
     3
  9
$SHADEDIF
 70
    70
  9
$TILEMODE
 70
     1
  9
$MAXACTVP
 70
    64
  9
$PINSBASE
 10
0.0
 20
0.0
 30
0.0
  9
$PLIMCHECK
 70
     0
  9
$PEXTMIN
 10
1.0000000000E+20
 20
1.0000000000E+20
 30
1.0000000000E+20
  9
$PEXTMAX
 10
-1.0000000000E+20
 20
-1.0000000000E+20
 30
-1.0000000000E+20
  9
$PLIMMIN
 10
0.0
 20
0.0
  9
$PLIMMAX
 10
420.0
 20
297.0
  9
$UNITMODE
 70
     0
  9
$VISRETAIN
 70
     1
  9
$PLINEGEN
 70
     0
  9
$PSLTSCALE
 70
     1
  9
$TREEDEPTH
 70
  3020
  9
$CMLSTYLE
  2
Standard
  9
$CMLJUST
 70
     0
  9
$CMLSCALE
 40
20.0
  9
$PROXYGRAPHICS
 70
     1
  9
$MEASUREMENT
 70
     1
  9
$CELWEIGHT
370
    -1
  9
$ENDCAPS
280
     0
  9
$JOINSTYLE
280
     0
  9
$LWDISPLAY
290
     1
  9
$INSUNITS
 70
     4
  9
$HYPERLINKBASE
  1

  9
$STYLESHEET
  1

  9
$XEDIT
290
     1
  9
$CEPSNTYPE
380
     0
  9
$PSTYLEMODE
290
     1
  9
$FINGERPRINTGUID
  2
{D8067598-E277-4CA5-B34A-44851E8A238E}
  9
$VERSIONGUID
  2
{FAEB1C32-E019-11D5-929B-00C0DF256EC4}
  9
$EXTNAMES
290
     1
  9
$PSVPSCALE
 40
0.0
  9
$OLESTARTUP
290
     0
  0
ENDSEC
  0
SECTION
  2
CLASSES
  0
CLASS
  1
ACDBDICTIONARYWDFLT
  2
AcDbDictionaryWithDefault
  3
ObjectDBX Classes
 90
        0
280
     0
281
     0
  0
CLASS
  1
VISUALSTYLE
  2
AcDbVisualStyle
  3
ObjectDBX Classes
 90
     4095
280
     0
281
     0
  0
CLASS
  1
MATERIAL
  2
AcDbMaterial
  3
ObjectDBX Classes
 90
     1153
280
     0
281
     0
  0
CLASS
  1
ACDBPLACEHOLDER
  2
AcDbPlaceHolder
  3
ObjectDBX Classes
 90
        0
280
     0
281
     0
  0
CLASS
  1
LAYOUT
  2
AcDbLayout
  3
ObjectDBX Classes
 90
        0
280
     0
281
     0
  0
ENDSEC
  0
SECTION
  2
TABLES
  0
TABLE
  2
VPORT
  5
8
330
0
100
AcDbSymbolTable
 70
     1
  0
VPORT
  5
29
330
8
100
AcDbSymbolTableRecord
100
AcDbViewportTableRecord
  2
*Active
 70
     0
 10
0.0
 20
0.0
 11
1.0
 21
1.0
 12
148.5
 22
105.0
 13
0.0
 23
0.0
 14
10.0
 24
10.0
 15
10.0
 25
10.0
 16
0.0
 26
0.0
 36
1.0
 17
0.0
 27
0.0
 37
0.0
 40
210.0
 41
1.4142857143
 42
50.0
 43
0.0
 44
0.0
 50
0.0
 51
0.0
 71
     0
 72
  2000
 73
     1
 74
     3
 75
     0
 76
     0
 77
     0
 78
     0
281
     0
 65
     1
110
0.0
120
0.0
130
0.0
111
1.0
121
0.0
131
0.0
112
0.0
122
1.0
132
0.0
 79
     0
146
0.0
  0
ENDTAB
  0
TABLE
  2
LTYPE
  5
5
330
0
100
AcDbSymbolTable
 70
     6
  0
LTYPE
  5
14
330
5
100
AcDbSymbolTableRecord
100
AcDbLinetypeTableRecord
  2
ByBlock
 70
     0
  3

 72
    65
 73
     0
 40
0.0
  0
LTYPE
  5
15
330
5
100
AcDbSymbolTableRecord
100
AcDbLinetypeTableRecord
  2
ByLayer
 70
     0
  3

 72
    65
 73
     0
 40
0.0
  0
LTYPE
  5
16
330
5
100
AcDbSymbolTableRecord
100
AcDbLinetypeTableRecord
  2
Continuous
 70
     0
  3
Solid line
 72
    65
 73
     0
 40
0.0
  0
LTYPE
  5
3F
330
5
100
AcDbSymbolTableRecord
100
AcDbLinetypeTableRecord
  2
HIDDEN
 70
     0
  3
Hidden __ __ __ __ __ __ __ __ __ __ __ __ __ __
 72
    65
 73
     2
 40
1.905
 49
1.27
 74
     0
 49
-0.635
 74
     0
  0
LTYPE
  5
40
330
5
100
AcDbSymbolTableRecord
100
AcDbLinetypeTableRecord
  2
PHANTOM
 70
     0
  3
Phantom ______  __  __  ______  __  __  ______
 72
    65
 73
     6
 40
12.7
 49
6.35
 74
     0
 49
-1.27
 74
     0
 49
1.27
 74
     0
 49
-1.27
 74
     0
 49
1.27
 74
     0
 49
-1.27
 74
     0
  0
LTYPE
  5
41
330
5
100
AcDbSymbolTableRecord
100
AcDbLinetypeTableRecord
  2
CENTER
 70
     0
  3
Center ____ _ ____ _ ____ _ ____ _ ____ _ ____
 72
    65
 73
     4
 40
10.16
 49
6.35
 74
     0
 49
-1.27
 74
     0
 49
1.27
 74
     0
 49
-1.27
 74
     0
  0
LTYPE
  5
42
330
5
100
AcDbSymbolTableRecord
100
AcDbLinetypeTableRecord
  2
CENTERX2
 70
     0
  3
Center (2x) ________  __  ________  __  _____
 72
    65
 73
     4
 40
20.32
 49
12.7
 74
     0
 49
-2.54
 74
     0
 49
2.54
 74
     0
 49
-2.54
 74
     0
  0
LTYPE
  5
43
330
5
100
AcDbSymbolTableRecord
100
AcDbLinetypeTableRecord
  2
DOT2
 70
     0
  3
Dot (.5x) ........................................
 72
    65
 73
     2
 40
0.635
 49
0.0
 74
     0
 49
-0.635
 74
     0
  0
ENDTAB
  0
TABLE
  2
LAYER
  5
2
330
0
100
AcDbSymbolTable
 70
     5
  0
LAYER
  5
10
330
2
100
AcDbSymbolTableRecord
100
AcDbLayerTableRecord
  2
0
 70
     0
 62
     7
  6
Continuous
370
    -3
390
F
  0
LAYER
  5
44
330
2
100
AcDbSymbolTableRecord
100
AcDbLayerTableRecord
  2
FORMAT
 70
     0
 62
     7
  6
Continuous
370
    -3
390
F
  0
LAYER
  5
45
330
2
100
AcDbSymbolTableRecord
100
AcDbLayerTableRecord
  2
VERMASSUNG
 70
     0
 62
     7
  6
Continuous
370
    -3
390
F
  0
LAYER
  5
46
330
2
100
AcDbSymbolTableRecord
100
AcDbLayerTableRecord
  2
KOPF_DÜNN
 70
     0
 62
     7
  6
Continuous
370
    -3
390
F
  0
LAYER
  5
47
330
2
100
AcDbSymbolTableRecord
100
AcDbLayerTableRecord
  2
KOPF_DICK
 70
     0
 62
     7
  6
Continuous
370
    15
390
F
  0
ENDTAB
  0
TABLE
  2
STYLE
  5
3
330
0
100
AcDbSymbolTable
 70
     2
  0
STYLE
  5
11
330
3
100
AcDbSymbolTableRecord
100
AcDbTextStyleTableRecord
  2
Standard
 70
     0
 40
0.0
 41
1.0
 50
0.0
 71
     0
 42
2.0
  3
txt
  4

  0
STYLE
  5
48
330
3
100
AcDbSymbolTableRecord
100
AcDbTextStyleTableRecord
  2
SLDTEXTSTYLE0
 70
     0
 40
0.0
 41
0.7
 50
0.0
 71
     0
 42
0.2
  3
TXT
  4

  0
ENDTAB
  0
TABLE
  2
VIEW
  5
6
330
0
100
AcDbSymbolTable
 70
     0
  0
ENDTAB
  0
TABLE
  2
UCS
  5
7
330
0
100
AcDbSymbolTable
 70
     0
  0
ENDTAB
  0
TABLE
  2
APPID
  5
9
330
0
100
AcDbSymbolTable
 70
     1
  0
APPID
  5
12
330
9
100
AcDbSymbolTableRecord
100
AcDbRegAppTableRecord
  2
ACAD
 70
     0
  0
ENDTAB
  0
TABLE
  2
DIMSTYLE
  5
A
330
0
100
AcDbSymbolTable
 70
     4
100
AcDbDimStyleTable
  0
DIMSTYLE
105
27
330
A
100
AcDbSymbolTableRecord
100
AcDbDimStyleTableRecord
  2
ISO-25
 70
     0
 41
2.5
 42
0.625
 43
3.75
 44
1.25
 73
     0
 74
     0
 77
     1
 78
     8
140
2.5
141
2.5
143
0.0393700787
147
0.625
171
     3
172
     1
178
     0
271
     2
272
     2
274
     3
278
    44
283
     0
284
     8
340
11
  0
DIMSTYLE
105
18A
102
{ACAD_REACTORS
330
189
102
}
330
A
100
AcDbSymbolTableRecord
100
AcDbDimStyleTableRecord
  2
SLDDIMSTYLE0
 70
     0
 41
3.0
 44
0.0
 73
     0
 74
     0
 77
     1
 78
    12
 79
     3
140
2.0
147
0.5
173
     1
178
     0
179
     2
272
     3
276
     2
284
    12
340
48
  0
DIMSTYLE
105
193
102
{ACAD_REACTORS
330
192
330
19D
330
1A7
330
1B1
102
}
330
A
100
AcDbSymbolTableRecord
100
AcDbDimStyleTableRecord
  2
SLDDIMSTYLE1
 70
     0
 41
3.0
 44
0.0
 45
0.000000001
 73
     0
 74
     0
 77
     1
 78
    12
 79
     3
140
2.0
147
0.5
173
     1
178
     0
271
     2
272
     3
276
     2
284
    12
340
48
  0
DIMSTYLE
105
1DF
102
{ACAD_REACTORS
330
1DE
102
}
330
A
100
AcDbSymbolTableRecord
100
AcDbDimStyleTableRecord
  2
SLDDIMSTYLE2
 70
     0
 41
3.0
 44
0.0
 45
0.000000001
 73
     0
 74
     0
 77
     1
 78
    12
 79
     3
140
2.0
147
0.5
172
     1
173
     1
178
     0
271
     2
272
     3
276
     2
284
    12
289
     0
340
48
  0
ENDTAB
  0
TABLE
  2
BLOCK_RECORD
  5
1
330
0
100
AcDbSymbolTable
 70
     8
  0
BLOCK_RECORD
  5
1F
330
1
100
AcDbSymbolTableRecord
100
AcDbBlockTableRecord
  2
*Model_Space
340
22
  0
BLOCK_RECORD
  5
1B
330
1
100
AcDbSymbolTableRecord
100
AcDbBlockTableRecord
  2
*Paper_Space
340
1E
  0
BLOCK_RECORD
  5
23
330
1
100
AcDbSymbolTableRecord
100
AcDbBlockTableRecord
  2
*Paper_Space0
340
26
  0
BLOCK_RECORD
  5
18B
330
1
100
AcDbSymbolTableRecord
100
AcDbBlockTableRecord
  2
_D
340
0
  0
BLOCK_RECORD
  5
194
330
1
100
AcDbSymbolTableRecord
100
AcDbBlockTableRecord
  2
_D_1
340
0
  0
BLOCK_RECORD
  5
19E
330
1
100
AcDbSymbolTableRecord
100
AcDbBlockTableRecord
  2
_D_2
340
0
  0
BLOCK_RECORD
  5
1A8
330
1
100
AcDbSymbolTableRecord
100
AcDbBlockTableRecord
  2
_D_3
340
0
  0
BLOCK_RECORD
  5
1B2
330
1
100
AcDbSymbolTableRecord
100
AcDbBlockTableRecord
  2
_D_4
340
0
  0
BLOCK_RECORD
  5
1E0
330
1
100
AcDbSymbolTableRecord
100
AcDbBlockTableRecord
  2
_D_5
340
0
  0
BLOCK_RECORD
  5
1EC
330
1
100
AcDbSymbolTableRecord
100
AcDbBlockTableRecord
  2
SW_CENTERMARKSYMBOL_0
340
0
102
{BLKREFS
331
1F7
102
}
  0
ENDTAB
  0
ENDSEC
  0
SECTION
  2
BLOCKS
  0
BLOCK
  5
20
330
1F
100
AcDbEntity
  8
0
100
AcDbBlockBegin
  2
*Model_Space
 70
     0
 10
0.0
 20
0.0
 30
0.0
  3
*Model_Space
  1

  0
ENDBLK
  5
21
330
1F
100
AcDbEntity
  8
0
100
AcDbBlockEnd
  0
BLOCK
  5
1C
330
1B
100
AcDbEntity
 67
     1
  8
0
100
AcDbBlockBegin
  2
*Paper_Space
 70
     0
 10
0.0
 20
0.0
 30
0.0
  3
*Paper_Space
  1

  0
ENDBLK
  5
1D
330
1B
100
AcDbEntity
 67
     1
  8
0
100
AcDbBlockEnd
  0
BLOCK
  5
24
330
23
100
AcDbEntity
  8
0
100
AcDbBlockBegin
  2
*Paper_Space0
 70
     0
 10
0.0
 20
0.0
 30
0.0
  3
*Paper_Space0
  1

  0
ENDBLK
  5
25
330
23
100
AcDbEntity
  8
0
100
AcDbBlockEnd
  0
BLOCK
  5
18C
330
18B
100
AcDbEntity
  8
0
100
AcDbBlockBegin
  2
_D
 70
     0
 10
0.0
 20
0.0
 30
0.0
  3
_D
  1

  0
ARC
  5
18E
330
18B
100
AcDbEntity
  8
VERMASSUNG
100
AcDbCircle
 10
258.5570438245
 20
83.5124526003
 30
0.0
 40
9.617892108895152
100
AcDbArc
 50
0.0
 51
93.0
  0
SOLID
  5
18F
330
18B
100
AcDbEntity
  8
VERMASSUNG
100
AcDbTrace
 10
268.1749359334
 20
83.5124526003
 30
0.0
 11
268.1679962647
 21
86.546006925
 31
0.0
 12
267.2782612894
 22
86.4104647781
 32
0.0
 13
267.2782612894
 23
86.4104647781
 33
0.0
  0
SOLID
  5
190
330
18B
100
AcDbEntity
  8
VERMASSUNG
100
AcDbTrace
 10
258.053682244
 20
93.1171637223
 30
0.0
 11
260.9946511217
 21
92.3733881782
 31
0.0
 12
261.0834423821
 22
93.2689975306
 32
0.0
 13
261.0834423821
 23
93.2689975306
 33
0.0
  0
MTEXT
  5
191
330
18B
100
AcDbEntity
  8
VERMASSUNG
100
AcDbMText
 10
264.8486493221
 20
94.3553667611
 30
0.1
 40
2.0
 41
0.0
 71
     1
 72
     1
  1
93°
  7
SLDTEXTSTYLE0
 11
0.7253743710122862
 21
-0.6883545756937555
 31
0.0
 73
     1
 44
1.0
  0
ENDBLK
  5
18D
330
18B
100
AcDbEntity
  8
0
100
AcDbBlockEnd
  0
BLOCK
  5
195
330
194
100
AcDbEntity
  8
0
100
AcDbBlockBegin
  2
_D_1
 70
     0
 10
0.0
 20
0.0
 30
0.0
  3
_D_1
  1

  0
SOLID
  5
197
330
194
100
AcDbEntity
  8
VERMASSUNG
100
AcDbTrace
 10
193.5355317744
 20
76.2743084136
 30
0.0
 11
196.5355317744
 21
75.8243084136
 31
0.0
 12
196.5355317744
 22
76.7243084136
 32
0.0
 13
196.5355317744
 23
76.7243084136
 33
0.0
  0
SOLID
  5
198
330
194
100
AcDbEntity
  8
VERMASSUNG
100
AcDbTrace
 10
258.5355317744
 20
76.2743084136
 30
0.0
 11
255.5355317744
 21
76.7243084136
 31
0.0
 12
255.5355317744
 22
75.8243084136
 32
0.0
 13
255.5355317744
 23
75.8243084136
 33
0.0
  0
LINE
  5
199
330
194
100
AcDbEntity
  8
VERMASSUNG
100
AcDbLine
 10
193.5355317744
 20
97.5124526003
 30
0.0
 11
193.5355317744
 21
75.2743084136
 31
0.0
  0
LINE
  5
19A
330
194
100
AcDbEntity
  8
VERMASSUNG
100
AcDbLine
 10
258.5355317744
 20
83.5124526003
 30
0.0
 11
258.5355317744
 21
75.2743084136
 31
0.0
  0
LINE
  5
19B
330
194
100
AcDbEntity
  8
VERMASSUNG
100
AcDbLine
 10
193.5355317744
 20
76.2743084136
 30
0.0
 11
258.5355317744
 21
76.2743084136
 31
0.0
  0
MTEXT
  5
19C
330
194
100
AcDbEntity
  8
VERMASSUNG
100
AcDbMText
 10
223.7355317234
 20
78.8524437767
 30
0.1
 40
2.0
 41
0.0
 71
     1
 72
     1
  1
65
  7
SLDTEXTSTYLE0
 73
     1
 44
1.0
  0
ENDBLK
  5
196
330
194
100
AcDbEntity
  8
0
100
AcDbBlockEnd
  0
BLOCK
  5
19F
330
19E
100
AcDbEntity
  8
0
100
AcDbBlockBegin
  2
_D_2
 70
     0
 10
0.0
 20
0.0
 30
0.0
  3
_D_2
  1

  0
SOLID
  5
1A1
330
19E
100
AcDbEntity
  8
VERMASSUNG
100
AcDbTrace
 10
155.5355317744
 20
67.3000894473
 30
0.0
 11
158.5355317744
 21
66.8500894473
 31
0.0
 12
158.5355317744
 22
67.7500894473
 32
0.0
 13
158.5355317744
 23
67.7500894473
 33
0.0
  0
SOLID
  5
1A2
330
19E
100
AcDbEntity
  8
VERMASSUNG
100
AcDbTrace
 10
258.5355317744
 20
67.3000894473
 30
0.0
 11
255.5355317744
 21
67.7500894473
 31
0.0
 12
255.5355317744
 22
66.8500894473
 32
0.0
 13
255.5355317744
 23
66.8500894473
 33
0.0
  0
LINE
  5
1A3
330
19E
100
AcDbEntity
  8
VERMASSUNG
100
AcDbLine
 10
155.5355317744
 20
108.2201146078
 30
0.0
 11
155.5355317744
 21
66.3000894473
 31
0.0
  0
LINE
  5
1A4
330
19E
100
AcDbEntity
  8
VERMASSUNG
100
AcDbLine
 10
258.5355317744
 20
83.5124526003
 30
0.0
 11
258.5355317744
 21
66.3000894473
 31
0.0
  0
LINE
  5
1A5
330
19E
100
AcDbEntity
  8
VERMASSUNG
100
AcDbLine
 10
155.5355317744
 20
67.3000894473
 30
0.0
 11
258.5355317744
 21
67.3000894473
 31
0.0
  0
MTEXT
  5
1A6
330
19E
100
AcDbEntity
  8
VERMASSUNG
100
AcDbMText
 10
204.2355316414
 20
69.8782248105
 30
0.1
 40
2.0
 41
0.0
 71
     1
 72
     1
  1
103
  7
SLDTEXTSTYLE0
 73
     1
 44
1.0
  0
ENDBLK
  5
1A0
330
19E
100
AcDbEntity
  8
0
100
AcDbBlockEnd
  0
BLOCK
  5
1A9
330
1A8
100
AcDbEntity
  8
0
100
AcDbBlockBegin
  2
_D_3
 70
     0
 10
0.0
 20
0.0
 30
0.0
  3
_D_3
  1

  0
SOLID
  5
1AB
330
1A8
100
AcDbEntity
  8
VERMASSUNG
100
AcDbTrace
 10
273.3886310911
 20
83.5124526003
 30
0.0
 11
273.8386310911
 21
86.5124526003
 31
0.0
 12
272.9386310911
 22
86.5124526003
 32
0.0
 13
272.9386310911
 23
86.5124526003
 33
0.0
  0
SOLID
  5
1AC
330
1A8
100
AcDbEntity
  8
VERMASSUNG
100
AcDbTrace
 10
273.3886310911
 20
128.5124526003
 30
0.0
 11
272.9386310911
 21
125.5124526003
 31
0.0
 12
273.8386310911
 22
125.5124526003
 32
0.0
 13
273.8386310911
 23
125.5124526003
 33
0.0
  0
LINE
  5
1AD
330
1A8
100
AcDbEntity
  8
VERMASSUNG
100
AcDbLine
 10
258.5355317744
 20
83.5124526003
 30
0.0
 11
274.3886310911
 21
83.5124526003
 31
0.0
  0
LINE
  5
1AE
330
1A8
100
AcDbEntity
  8
VERMASSUNG
100
AcDbLine
 10
258.5355317744
 20
128.5124526003
 30
0.0
 11
274.3886310911
 21
128.5124526003
 31
0.0
  0
LINE
  5
1AF
330
1A8
100
AcDbEntity
  8
VERMASSUNG
100
AcDbLine
 10
273.3886310911
 20
83.5124526003
 30
0.0
 11
273.3886310911
 21
128.5124526003
 31
0.0
  0
MTEXT
  5
1B0
330
1A8
100
AcDbEntity
  8
VERMASSUNG
100
AcDbMText
 10
270.810495728
 20
103.6124524863
 30
0.1
 40
2.0
 41
0.0
 71
     1
 72
     1
  1
45
  7
SLDTEXTSTYLE0
 11
6.123233995736766E-17
 21
1.0
 31
0.0
 73
     1
 44
1.0
  0
ENDBLK
  5
1AA
330
1A8
100
AcDbEntity
  8
0
100
AcDbBlockEnd
  0
BLOCK
  5
1B3
330
1B2
100
AcDbEntity
  8
0
100
AcDbBlockBegin
  2
_D_4
 70
     0
 10
0.0
 20
0.0
 30
0.0
  3
_D_4
  1

  0
SOLID
  5
1B5
330
1B2
100
AcDbEntity
  8
VERMASSUNG
100
AcDbTrace
 10
145.5354817744
 20
160.0124526003
 30
0.0
 11
145.0854817744
 21
157.0124526003
 31
0.0
 12
145.9854817744
 22
157.0124526003
 32
0.0
 13
145.9854817744
 23
157.0124526003
 33
0.0
  0
SOLID
  5
1B6
330
1B2
100
AcDbEntity
  8
VERMASSUNG
100
AcDbTrace
 10
145.5354817744
 20
97.0124526003
 30
0.0
 11
145.9854817744
 21
100.0124526003
 31
0.0
 12
145.0854817744
 22
100.0124526003
 32
0.0
 13
145.0854817744
 23
100.0124526003
 33
0.0
  0
LINE
  5
1B7
330
1B2
100
AcDbEntity
  8
VERMASSUNG
100
AcDbLine
 10
194.0355317744
 20
160.0124526003
 30
0.0
 11
144.5354817744
 21
160.0124526003
 31
0.0
  0
LINE
  5
1B8
330
1B2
100
AcDbEntity
  8
VERMASSUNG
100
AcDbLine
 10
194.0355317744
 20
97.0124526003
 30
0.0
 11
144.5354817744
 21
97.0124526003
 31
0.0
  0
LINE
  5
1B9
330
1B2
100
AcDbEntity
  8
VERMASSUNG
100
AcDbLine
 10
145.5354817744
 20
160.0124526003
 30
0.0
 11
145.5354817744
 21
97.0124526003
 31
0.0
  0
MTEXT
  5
1BA
330
1B2
100
AcDbEntity
  8
VERMASSUNG
100
AcDbMText
 10
142.7573462854
 20
122.1074524911
 30
0.35
 40
2.0
 41
0.0
 71
     1
 72
     1
  1
PSC
  7
SLDTEXTSTYLE0
 11
-7.044195017643634E-15
 21
1.0
 31
0.0
 73
     1
 44
1.0
  0
MTEXT
  5
1BB
330
1B2
100
AcDbEntity
  8
VERMASSUNG
100
AcDbMText
 10
142.9573462949
 20
126.7074525932
 30
0.35
 40
2.0
 41
0.0
 71
     1
 72
     1
  1
%%c
  7
SLDTEXTSTYLE0
 11
-7.044195017643634E-15
 21
1.0
 31
0.0
 73
     1
 44
1.0
  0
MTEXT
  5
1BC
330
1B2
100
AcDbEntity
  8
VERMASSUNG
100
AcDbMText
 10
142.7573462854
 20
130.3174530731
 30
0.35
 40
2.0
 41
0.0
 71
     1
 72
     1
  1
63
  7
SLDTEXTSTYLE0
 11
-7.044195017643634E-15
 21
1.0
 31
0.0
 73
     1
 44
1.0
  0
ENDBLK
  5
1B4
330
1B2
100
AcDbEntity
  8
0
100
AcDbBlockEnd
  0
BLOCK
  5
1E1
330
1E0
100
AcDbEntity
  8
0
100
AcDbBlockBegin
  2
_D_5
 70
     0
 10
0.0
 20
0.0
 30
0.0
  3
_D_5
  1

  0
SOLID
  5
1E3
330
1E0
100
AcDbEntity
  8
VERMASSUNG
100
AcDbTrace
 10
104.1134521362
 20
154.5653684954
 30
0.0
 11
106.3780642227
 21
156.5837916666
 31
0.0
 12
105.6861967456
 22
157.1593951709
 32
0.0
 13
105.6861967456
 23
157.1593951709
 33
0.0
  0
SOLID
  5
1E4
330
1E0
100
AcDbEntity
  8
VERMASSUNG
100
AcDbTrace
 10
52.9486961921
 20
93.0660372048
 30
0.0
 11
50.6840841057
 21
91.0476140336
 31
0.0
 12
51.3759515828
 22
90.4720105293
 32
0.0
 13
51.3759515828
 23
90.4720105293
 33
0.0
  0
LINE
  5
1E5
330
1E0
100
AcDbEntity
  8
VERMASSUNG
100
AcDbLine
 10
104.1134521362
 20
154.5653684954
 30
0.0
 11
104.8821937774
 21
153.9258090461
 31
0.0
  0
LINE
  5
1E6
330
1E0
100
AcDbEntity
  8
VERMASSUNG
100
AcDbLine
 10
52.9486961921
 20
93.0660372048
 30
0.0
 11
53.7174378333
 21
92.4264777555
 31
0.0
  0
LINE
  5
1E7
330
1E0
100
AcDbEntity
  8
VERMASSUNG
100
AcDbLine
 10
104.1134521362
 20
154.5653684954
 30
0.0
 11
107.9508088321
 21
159.1778183422
 31
0.0
  0
LINE
  5
1E8
330
1E0
100
AcDbEntity
  8
VERMASSUNG
100
AcDbLine
 10
104.1134521362
 20
154.5653684954
 30
0.0
 11
52.9486961921
 21
93.0660372048
 31
0.0
  0
LINE
  5
1E9
330
1E0
100
AcDbEntity
  8
VERMASSUNG
100
AcDbLine
 10
52.9486961921
 20
93.0660372048
 30
0.0
 11
43.2667137985
 21
81.4284278429
 31
0.0
  0
MTEXT
  5
1EA
330
1E0
100
AcDbEntity
  8
VERMASSUNG
100
AcDbMText
 10
41.2847936989
 20
83.0772987505
 30
0.1
 40
2.0
 41
0.0
 71
     1
 72
     1
  1
%%c
  7
SLDTEXTSTYLE0
 11
0.6395594493012278
 21
0.7687416411314729
 31
0.0
 73
     1
 44
1.0
  0
MTEXT
  5
1EB
330
1E0
100
AcDbEntity
  8
VERMASSUNG
100
AcDbMText
 10
43.4398549845
 20
85.9803679819
 30
0.1
 40
2.0
 41
0.0
 71
     1
 72
     1
  1
80
  7
SLDTEXTSTYLE0
 11
0.6395594493012278
 21
0.7687416411314729
 31
0.0
 73
     1
 44
1.0
  0
ENDBLK
  5
1E2
330
1E0
100
AcDbEntity
  8
0
100
AcDbBlockEnd
  0
BLOCK
  5
1ED
330
1EC
100
AcDbEntity
  8
0
100
AcDbBlockBegin
  2
SW_CENTERMARKSYMBOL_0
 70
     0
 10
0.0
 20
0.0
 30
0.0
  3
SW_CENTERMARKSYMBOL_0
  1

  0
LINE
  5
1EF
330
1EC
100
AcDbEntity
  8
VERMASSUNG
 62
     0
100
AcDbLine
 10
0.0
 20
0.0
 30
0.0
 11
0.0
 21
2.5
 31
0.0
  0
LINE
  5
1F0
330
1EC
100
AcDbEntity
  8
VERMASSUNG
 62
     0
100
AcDbLine
 10
0.0
 20
0.0
 30
0.0
 11
-2.5
 21
0.0
 31
0.0
  0
LINE
  5
1F1
330
1EC
100
AcDbEntity
  8
VERMASSUNG
 62
     0
100
AcDbLine
 10
0.0
 20
0.0
 30
0.0
 11
0.0
 21
-2.5
 31
0.0
  0
LINE
  5
1F2
330
1EC
100
AcDbEntity
  8
VERMASSUNG
 62
     0
100
AcDbLine
 10
0.0
 20
0.0
 30
0.0
 11
2.5
 21
0.0
 31
0.0
  0
LINE
  5
1F3
330
1EC
100
AcDbEntity
  8
VERMASSUNG
 62
     0
100
AcDbLine
 10
0.0
 20
5.0
 30
0.0
 11
0.0
 21
34.0
 31
0.0
  0
LINE
  5
1F4
330
1EC
100
AcDbEntity
  8
VERMASSUNG
 62
     0
100
AcDbLine
 10
-5.0
 20
0.0
 30
0.0
 11
-34.0
 21
0.0
 31
0.0
  0
LINE
  5
1F5
330
1EC
100
AcDbEntity
  8
VERMASSUNG
 62
     0
100
AcDbLine
 10
0.0
 20
-5.0
 30
0.0
 11
0.0
 21
-34.0
 31
0.0
  0
LINE
  5
1F6
330
1EC
100
AcDbEntity
  8
VERMASSUNG
 62
     0
100
AcDbLine
 10
5.0
 20
0.0
 30
0.0
 11
34.0
 21
0.0
 31
0.0
  0
ENDBLK
  5
1EE
330
1EC
100
AcDbEntity
  8
0
100
AcDbBlockEnd
  0
ENDSEC
  0
SECTION
  2
ENTITIES
  0
MTEXT
  5
49
330
1F
100
AcDbEntity
  8
KOPF_DÜNN
100
AcDbMText
 10
13.8892156294
 20
23.8442973028
 30
0.0
 40
3.0
 41
0.0
 71
     1
 72
     1
  1
PS6.KDB.LUA.065
  7
SLDTEXTSTYLE0
 73
     1
 44
1.0
  0
MTEXT
  5
4A
330
1F
100
AcDbEntity
  8
VERMASSUNG
100
AcDbMText
 10
13.9329988022
 20
28.8834360957
 30
0.0
 40
3.0
 41
0.0
 71
     1
 72
     1
  1
Klemmhalter links_Turning tool left 93° /55°
  7
SLDTEXTSTYLE0
 73
     1
 44
1.0
  0
MTEXT
  5
4B
330
1F
100
AcDbEntity
  8
VERMASSUNG
100
AcDbMText
 10
98.8601118557
 20
13.8365368179
 30
0.0
 40
2.0
 41
0.0
 71
     1
 72
     1
  1
Datum: 31.05.2012
  7
SLDTEXTSTYLE0
 73
     1
 44
1.0
  0
MTEXT
  5
4C
330
1F
100
AcDbEntity
  8
VERMASSUNG
100
AcDbMText
 10
13.933048693
 20
18.0482802738
 30
0.0
 40
2.0
 41
0.0
 71
     1
 72
     1
  1
PSC ø63 / DC..11 T3..
  7
SLDTEXTSTYLE0
 73
     1
 44
1.0
  0
MTEXT
  5
4D
330
1F
100
AcDbEntity
  8
VERMASSUNG
100
AcDbMText
 10
13.9808475933
 20
13.9090973692
 30
0.0
 40
2.0
 41
0.0
 71
     1
 72
     1
  1
Gewicht: 1268g
  7
SLDTEXTSTYLE0
 73
     1
 44
1.0
  0
LINE
  5
4E
330
1F
100
AcDbEntity
  8
0
  6
Continuous
 62
     7
370
    15
100
AcDbLine
 10
228.0765038623
 20
160.0124526003
 30
0.0
 11
194.0355317744
 21
160.0124526003
 31
0.0
  0
LINE
  5
4F
330
1F
100
AcDbEntity
  8
0
  6
Continuous
 62
     7
370
    15
100
AcDbLine
 10
194.0355317744
 20
97.0124526003
 30
0.0
 11
230.7682047864
 21
97.0124526003
 31
0.0
  0
ARC
  5
50
330
1F
100
AcDbEntity
  8
0
  6
Continuous
 62
     7
370
    15
100
AcDbCircle
 10
194.0355317744
 20
97.5124526003
 30
0.0
 40
0.5
100
AcDbArc
 50
180.0
 51
270.0
  0
ARC
  5
51
330
1F
100
AcDbEntity
  8
0
  6
Continuous
 62
     7
370
    15
100
AcDbCircle
 10
194.0355317744
 20
159.5124526003
 30
0.0
 40
0.5
100
AcDbArc
 50
90.0
 51
180.0
  0
LWPOLYLINE
  5
52
330
1F
100
AcDbEntity
  8
0
  6
Continuous
 62
     7
370
    15
100
AcDbPolyline
 90
        3
 70
   128
 43
0.0
 10
193.3355317744
 20
105.9726323214
 10
193.4609867179
 20
105.9043302065
 10
193.5355317744
 20
105.8515924484
  0
LWPOLYLINE
  5
53
330
1F
100
AcDbEntity
  8
0
  6
Continuous
 62
     7
370
    15
100
AcDbPolyline
 90
        3
 70
   128
 43
0.0
 10
193.5355317744
 20
151.1733127522
 10
193.4609867179
 20
151.1205749941
 10
193.3355317744
 20
151.0522728792
  0
ARC
  5
54
330
1F
100
AcDbEntity
  8
0
  6
Continuous
 62
     7
370
    15
100
AcDbCircle
 10
230.7682047864
 20
96.0124526003
 30
0.0
 40
1.000000000000003
100
AcDbArc
 50
59.0494945538
 51
67.5244230154
  0
ARC
  5
55
330
1F
100
AcDbEntity
  8
0
  6
Continuous
 62
     7
370
    15
100
AcDbCircle
 10
214.5355317744
 20
114.8624526003
 30
0.0
 40
2.50000000000002
100
AcDbArc
 50
285.0514729828
 51
338.6286669097
  0
ARC
  5
56
330
1F
100
AcDbEntity
  8
0
  6
Continuous
 62
     7
370
    15
100
AcDbCircle
 10
214.5355317744
 20
114.8624526003
 30
0.0
 40
2.500000000000031
100
AcDbArc
 50
201.3713330903
 51
285.0514729828
  0
SPLINE
  5
57
330
1F
100
AcDbEntity
  8
0
  6
Continuous
 62
     7
370
    15
100
AcDbSpline
210
0.0
220
0.0
230
1.0
 70
     8
 71
     3
 72
    68
 73
    64
 74
     0
 42
0.00000001
 43
0.00000001
 12
1.0
 22
0.0
 32
0.0
 13
1.0
 23
0.0
 33
0.0
 40
-0.0625
 40
-0.0625
 40
0.0
 40
0.0
 40
0.03125
 40
0.03125
 40
0.0625
 40
0.0625
 40
0.09375
 40
0.09375
 40
0.125
 40
0.125
 40
0.15625
 40
0.15625
 40
0.1875
 40
0.1875
 40
0.21875
 40
0.21875
 40
0.25
 40
0.25
 40
0.28125
 40
0.28125
 40
0.3125
 40
0.3125
 40
0.34375
 40
0.34375
 40
0.375
 40
0.375
 40
0.40625
 40
0.40625
 40
0.4375
 40
0.4375
 40
0.46875
 40
0.46875
 40
0.5
 40
0.5
 40
0.53125
 40
0.53125
 40
0.5625
 40
0.5625
 40
0.59375
 40
0.59375
 40
0.625
 40
0.625
 40
0.65625
 40
0.65625
 40
0.6875
 40
0.6875
 40
0.71875
 40
0.71875
 40
0.75
 40
0.75
 40
0.78125
 40
0.78125
 40
0.8125
 40
0.8125
 40
0.84375
 40
0.84375
 40
0.875
 40
0.875
 40
0.90625
 40
0.90625
 40
0.9375
 40
0.9375
 40
1.0
 40
1.0
 40
1.03125
 40
1.03125
 10
214.1389021540452
 20
115.432120091381
 30
0.0
 10
214.7338465845999
 20
115.432120091381
 30
0.0
 10
214.9288248308496
 20
115.4143179281863
 30
0.0
 10
215.3123880559952
 20
115.3446893950667
 30
0.0
 10
215.5029688314574
 20
115.2920122053877
 30
0.0
 10
215.8662181182442
 20
115.1549219738669
 30
0.0
 10
216.0384848572401
 20
115.0711759415455
 30
0.0
 10
216.3645065739481
 20
114.8739941018875
 30
0.0
 10
216.5187819407247
 20
114.7595810042722
 30
0.0
 10
216.7953448619758
 20
114.510688299235
 30
0.0
 10
216.9194877522912
 20
114.3753174565034
 30
0.0
 10
217.1388025246621
 20
114.0826643298385
 30
0.0
 10
217.2319329800654
 20
113.9276147582228
 30
0.0
 10
217.3815873105916
 20
113.608450412548
 30
0.0
 10
217.4392342805834
 20
113.4419755306891
 30
0.0
 10
217.5163408424058
 20
113.102966555435
 30
0.0
 10
217.5354246237492
 20
112.9334150314326
 30
0.0
 10
217.5356380338266
 20
112.5943223993306
 30
0.0
 10
217.5161427433272
 20
112.4230359198363
 30
0.0
 10
217.4395728688501
 20
112.0933311266813
 30
0.0
 10
217.3829196276409
 20
111.933952650875
 30
0.0
 10
217.2326436768316
 20
111.6259031949565
 30
0.0
 10
217.1387600144191
 20
111.4778793252031
 30
0.0
 10
216.9216948143227
 20
111.2050440527669
 30
0.0
 10
216.797763558048
 20
111.0784725065382
 30
0.0
 10
216.5178067128957
 20
110.8452615756407
 30
0.0
 10
216.3663475619938
 20
110.7424343054622
 30
0.0
 10
216.0416145530462
 20
110.5628677590589
 30
0.0
 10
215.8662501142298
 20
110.4854789940001
 30
0.0
 10
215.50293309533
 20
110.3616681577122
 30
0.0
 10
215.3159416423395
 20
110.3151130017492
 30
0.0
 10
214.9313701439827
 20
110.2521355226451
 30
0.0
 10
214.7324622908633
 20
110.2360265201405
 30
0.0
 10
214.3407988911667
 20
110.2359091465016
 30
0.0
 10
214.1460911547799
 20
110.2513793674246
 30
0.0
 10
213.7589740911249
 20
110.3141982461673
 30
0.0
 10
213.569503088398
 20
110.3613572863036
 30
0.0
 10
213.2083705903804
 20
110.4841120235525
 30
0.0
 10
213.0339513410201
 20
110.5606010865366
 30
0.0
 10
212.7057533032162
 20
110.7416414629916
 30
0.0
 10
212.5546750657657
 20
110.8444135489841
 30
0.0
 10
212.2778389727381
 20
111.0743651323233
 30
0.0
 10
212.1510751562255
 20
111.2031250870981
 30
0.0
 10
211.9330706180686
 20
111.4766918231967
 30
0.0
 10
211.8407894385385
 20
111.6218557122212
 30
0.0
 10
211.6899097513732
 20
111.9295449616957
 30
0.0
 10
211.6319633169031
 20
112.091967631323
 30
0.0
 10
211.5553511344884
 20
112.4205191888754
 30
0.0
 10
211.5357231144731
 20
112.5883586993645
 30
0.0
 10
211.5353431912279
 20
112.9315654847891
 30
0.0
 10
211.5546555317325
 20
113.1016822386683
 30
0.0
 10
211.6305761484093
 20
113.4374379993731
 30
0.0
 10
211.6880819173754
 20
113.6050691707194
 30
0.0
 10
211.8384420639645
 20
113.9265484043703
 30
0.0
 10
211.9304613518559
 20
114.0797411565581
 30
0.0
 10
212.1478053668459
 20
114.3707947138179
 30
0.0
 10
212.2743247869775
 20
114.5092649588032
 30
0.0
 10
212.5507584064373
 20
114.7583773277843
 30
0.0
 10
212.7015879965136
 20
114.870625442821
 30
0.0
 10
213.0290995887538
 20
115.0694258514443
 30
0.0
 10
213.2036481218419
 20
115.1543020448772
 30
0.0
 10
213.7448529902135
 20
115.3590535241218
 30
0.0
 10
214.1389021540452
 20
115.432120091381
 30
0.0
 10
214.7338465845999
 20
115.432120091381
 30
0.0
  0
SPLINE
  5
58
330
1F
100
AcDbEntity
  8
0
  6
Continuous
 62
     7
370
    15
100
AcDbSpline
210
0.0
220
0.0
230
1.0
 70
     8
 71
     3
 72
    10
 73
     6
 74
     0
 42
0.00000001
 43
0.00000001
 12
1.0
 22
0.0
 32
0.0
 13
1.0
 23
0.0
 33
0.0
 40
0.0
 40
0.0
 40
0.0
 40
0.0
 40
0.5
 40
0.5
 40
1.0
 40
1.0
 40
1.0
 40
1.0
 10
228.4198684952028
 20
159.9491979593878
 30
0.0
 10
228.1718005590777
 20
159.9291402863583
 30
0.0
 10
227.9542745001604
 20
159.9025578490223
 30
0.0
 10
227.5916861553918
 20
159.83279338714
 30
0.0
 10
227.4487065972714
 20
159.7901985043152
 30
0.0
 10
227.3439387445543
 20
159.7382701228776
 30
0.0
  0
ELLIPSE
  5
59
330
1F
100
AcDbEntity
  8
0
  6
Continuous
 62
     7
370
    15
100
AcDbEllipse
 10
228.4551470167
 20
128.5124526003
 30
0.0
 11
0.0
 21
31.49999999999997
 31
0.0
210
0.0
220
0.0
230
1.0
 40
0.2679491924
 41
0.1320368298873519
 42
3.009555823702442
  0
SPLINE
  5
5A
330
1F
100
AcDbEntity
  8
0
  6
Continuous
 62
     7
370
    15
100
AcDbSpline
210
0.0
220
0.0
230
1.0
 70
     8
 71
     3
 72
    14
 73
    10
 74
     0
 42
0.00000001
 43
0.00000001
 12
1.0
 22
0.0
 32
0.0
 13
1.0
 23
0.0
 33
0.0
 40
0.0
 40
0.0
 40
0.0
 40
0.0
 40
0.25
 40
0.25
 40
0.5
 40
0.5
 40
0.75
 40
0.75
 40
1.0
 40
1.0
 40
1.0
 40
1.0
 10
227.3439387445543
 20
97.2866350777282
 30
0.0
 10
227.4609998860447
 20
97.22861350480119
 30
0.0
 10
227.6249544990527
 20
97.1825669333528
 30
0.0
 10
228.0443484819556
 20
97.10927545033199
 30
0.0
 10
228.3033598137191
 20
97.08204574303207
 30
0.0
 10
228.8909826832042
 20
97.04351091697508
 30
0.0
 10
229.2220813750743
 20
97.03166583847988
 30
0.0
 10
229.9563843622752
 20
97.01689247949982
 30
0.0
 10
230.3493517371067
 20
97.01409463681358
 30
0.0
 10
230.7682047864361
 20
97.01301641572948
 30
0.0
  0
ELLIPSE
  5
5B
330
1F
100
AcDbEntity
  8
0
  6
Continuous
 62
     7
370
    15
100
AcDbEllipse
 10
250.1330413159
 20
128.5124526003
 30
0.0
 11
-22.33599140011913
 21
31.42058670065018
 31
0.0
210
0.0
220
0.0
230
1.0
 40
0.1000778042
 41
6.148778683739065
 42
6.212162534450069
  0
SPLINE
  5
5C
330
1F
100
AcDbEntity
  8
0
  6
Continuous
 62
     7
370
    15
100
AcDbSpline
210
0.0
220
0.0
230
1.0
 70
     8
 71
     3
 72
    12
 73
     8
 74
     0
 42
0.00000001
 43
0.00000001
 12
1.0
 22
0.0
 32
0.0
 13
1.0
 23
0.0
 33
0.0
 40
0.0
 40
0.0
 40
0.0
 40
0.0
 40
0.5000000000000037
 40
0.5000000000000037
 40
0.7500000000000018
 40
0.7500000000000018
 40
1.0
 40
1.0
 40
1.0
 40
1.0
 10
203.6302758860892
 20
98.61171014018564
 30
0.0
 10
203.6614210840513
 20
98.57389461726544
 30
0.0
 10
203.7036953503858
 20
98.53782775918182
 30
0.0
 10
203.8036408842111
 20
98.48986769417056
 30
0.0
 10
203.8433711889151
 20
98.4750067202729
 30
0.0
 10
203.9402592389213
 20
98.45205557414177
 30
0.0
 10
204.0003244806679
 20
98.44396064142974
 30
0.0
 10
204.0632885879814
 20
98.44396064142973
 30
0.0
  0
LINE
  5
5D
330
1F
100
AcDbEntity
  8
0
  6
Continuous
 62
     7
370
    15
100
AcDbLine
 10
204.063288588
 20
98.4439606414
 30
0.0
 11
207.0077749608
 21
98.4439606414
 31
0.0
  0
SPLINE
  5
5E
330
1F
100
AcDbEntity
  8
0
  6
Continuous
 62
     7
370
    15
100
AcDbSpline
210
0.0
220
0.0
230
1.0
 70
     8
 71
     3
 72
    12
 73
     8
 74
     0
 42
0.00000001
 43
0.00000001
 12
1.0
 22
0.0
 32
0.0
 13
1.0
 23
0.0
 33
0.0
 40
0.0
 40
0.0
 40
0.0
 40
0.0
 40
0.2500000000000018
 40
0.2500000000000018
 40
0.5000000000000037
 40
0.5000000000000037
 40
1.0
 40
1.0
 40
1.0
 40
1.0
 10
207.0077749608486
 20
98.44396064142977
 30
0.0
 10
207.0708319157464
 20
98.44396064142978
 30
0.0
 10
207.129962065492
 20
98.45186097250932
 30
0.0
 10
207.2284096160252
 20
98.47517172051435
 30
0.0
 10
207.2674418542133
 20
98.489876846798
 30
0.0
 10
207.3673317386703
 20
98.53781037498464
 30
0.0
 10
207.4096307122796
 20
98.57388034774941
 30
0.0
 10
207.4407876627409
 20
98.61171014018564
 30
0.0
  0
ELLIPSE
  5
5F
330
1F
100
AcDbEntity
  8
0
  6
Continuous
 62
     7
370
    15
100
AcDbEllipse
 10
191.1883775851
 20
128.5124526003
 30
0.0
 11
-14.75368316065615
 21
31.09325491558116
 31
0.0
210
0.0
220
0.0
230
1.0
 40
0.3419987131
 41
3.300734856217129
 42
4.231496223360775
  0
SPLINE
  5
60
330
1F
100
AcDbEntity
  8
0
  6
Continuous
 62
     7
370
    15
100
AcDbSpline
210
0.0
220
0.0
230
1.0
 70
     8
 71
     3
 72
    12
 73
     8
 74
     0
 42
0.00000001
 43
0.00000001
 12
1.0
 22
0.0
 32
0.0
 13
1.0
 23
0.0
 33
0.0
 40
0.0
 40
0.0
 40
0.0
 40
0.0
 40
0.4999999999999953
 40
0.4999999999999953
 40
0.7499999999999977
 40
0.7499999999999977
 40
1.0
 40
1.0
 40
1.0
 40
1.0
 10
207.4407876627408
 20
118.6030832796175
 30
0.0
 10
207.4096424647787
 20
118.7171886454828
 30
0.0
 10
207.3673681984443
 20
118.8282949727016
 30
0.0
 10
207.2674226646189
 20
118.9784525801318
 30
0.0
 10
207.2276923599149
 20
119.0254452717492
 30
0.0
 10
207.1308043099087
 20
119.0984208562877
 30
0.0
 10
207.0707390681621
 20
119.1243861689667
 30
0.0
 10
207.0077749608486
 20
119.1243861689667
 30
0.0
  0
LINE
  5
61
330
1F
100
AcDbEntity
  8
0
  6
Continuous
 62
     7
370
    15
100
AcDbLine
 10
207.0077749608
 20
119.124386169
 30
0.0
 11
204.063288588
 21
119.124386169
 31
0.0
  0
SPLINE
  5
62
330
1F
100
AcDbEntity
  8
0
  6
Continuous
 62
     7
370
    15
100
AcDbSpline
210
0.0
220
0.0
230
1.0
 70
     8
 71
     3
 72
    12
 73
     8
 74
     0
 42
0.00000001
 43
0.00000001
 12
1.0
 22
0.0
 32
0.0
 13
1.0
 23
0.0
 33
0.0
 40
0.0
 40
0.0
 40
0.0
 40
0.0
 40
0.2499999999999996
 40
0.2499999999999996
 40
0.4999999999999991
 40
0.4999999999999991
 40
1.0
 40
1.0
 40
1.0
 40
1.0
 10
204.0632885879814
 20
119.1243861689666
 30
0.0
 10
204.0002316330836
 20
119.1243861689666
 30
0.0
 10
203.9411014833381
 20
119.0990398155859
 30
0.0
 10
203.8426539328048
 20
119.0249204334464
 30
0.0
 10
203.8036216946167
 20
118.9784239187484
 30
0.0
 10
203.7037318101598
 20
118.8283494117398
 30
0.0
 10
203.6614328365504
 20
118.717231702625
 30
0.0
 10
203.6302758860892
 20
118.6030832796175
 30
0.0
  0
ELLIPSE
  5
63
330
1F
100
AcDbEntity
  8
0
  6
Continuous
 62
     7
370
    15
100
AcDbEllipse
 10
219.8826859638
 20
128.5124526003
 30
0.0
 11
14.75368316065618
 21
31.09325491558116
 31
0.0
210
0.0
220
0.0
230
1.0
 40
0.3419987131
 41
2.051689083818828
 42
2.982450450962504
  0
SPLINE
  5
64
330
1F
100
AcDbEntity
  8
0
  6
Continuous
 62
     7
370
    15
100
AcDbSpline
210
0.0
220
0.0
230
1.0
 70
     8
 71
     3
 72
    12
 73
     8
 74
     0
 42
0.00000001
 43
0.00000001
 12
1.0
 22
0.0
 32
0.0
 13
1.0
 23
0.0
 33
0.0
 40
0.0
 40
0.0
 40
0.0
 40
0.0
 40
0.4999999999999971
 40
0.4999999999999971
 40
0.7499999999999986
 40
0.7499999999999986
 40
1.0
 40
1.0
 40
1.0
 40
1.0
 10
203.6302758860892
 20
138.421821920988
 30
0.0
 10
203.6609981280083
 20
138.3092661215788
 30
0.0
 10
203.7038353425435
 20
138.1965082618392
 30
0.0
 10
203.8032623667433
 20
138.0469673760428
 30
0.0
 10
203.8430145615599
 20
137.9996746443359
 30
0.0
 10
203.9410560184181
 20
137.9259383510145
 30
0.0
 10
204.0006120740056
 20
137.9005190316387
 30
0.0
 10
204.0632885879814
 20
137.9005190316387
 30
0.0
  0
LINE
  5
65
330
1F
100
AcDbEntity
  8
0
  6
Continuous
 62
     7
370
    15
100
AcDbLine
 10
204.063288588
 20
137.9005190316
 30
0.0
 11
207.0077749608
 21
137.9005190316
 31
0.0
  0
SPLINE
  5
66
330
1F
100
AcDbEntity
  8
0
  6
Continuous
 62
     7
370
    15
100
AcDbSpline
210
0.0
220
0.0
230
1.0
 70
     8
 71
     3
 72
    12
 73
     8
 74
     0
 42
0.00000001
 43
0.00000001
 12
1.0
 22
0.0
 32
0.0
 13
1.0
 23
0.0
 33
0.0
 40
0.0
 40
0.0
 40
0.0
 40
0.0
 40
0.2499999999999991
 40
0.2499999999999991
 40
0.4999999999999982
 40
0.4999999999999982
 40
1.0
 40
1.0
 40
1.0
 40
1.0
 10
207.0077749608486
 20
137.9005190316387
 30
0.0
 10
207.0708549993419
 20
137.9005190316387
 30
0.0
 10
207.1300036215233
 20
137.9258833508537
 30
0.0
 10
207.2284761715924
 20
138.0000482112266
 30
0.0
 10
207.2675127835772
 20
138.0465685517808
 30
0.0
 10
207.3674092503562
 20
138.196710894626
 30
0.0
 10
207.4098301314228
 20
138.3084041015981
 30
0.0
 10
207.4407876627408
 20
138.4218219209879
 30
0.0
  0
ELLIPSE
  5
67
330
1F
100
AcDbEntity
  8
0
  6
Continuous
 62
     7
370
    15
100
AcDbEllipse
 10
191.1883775851
 20
128.5124526003
 30
0.0
 11
14.75368316065604
 21
31.09325491558113
 31
0.0
210
0.0
220
0.0
230
1.0
 40
0.3419987131
 41
5.193281737408618
 42
6.124043104552322
  0
SPLINE
  5
68
330
1F
100
AcDbEntity
  8
0
  6
Continuous
 62
     7
370
    15
100
AcDbSpline
210
0.0
220
0.0
230
1.0
 70
     8
 71
     3
 72
    12
 73
     8
 74
     0
 42
0.00000001
 43
0.00000001
 12
1.0
 22
0.0
 32
0.0
 13
1.0
 23
0.0
 33
0.0
 40
0.0
 40
0.0
 40
0.0
 40
0.0
 40
0.499999999999999
 40
0.499999999999999
 40
0.7499999999999994
 40
0.7499999999999994
 40
1.0
 40
1.0
 40
1.0
 40
1.0
 10
207.4407876627408
 20
158.4131950604201
 30
0.0
 10
207.4100654208217
 20
158.4504970433731
 30
0.0
 10
207.3672282062866
 20
158.4871088754195
 30
0.0
 10
207.2678011820868
 20
158.5348736587047
 30
0.0
 10
207.2280489872701
 20
158.5498311741871
 30
0.0
 10
207.1300075304119
 20
158.5730211199562
 30
0.0
 10
207.0704514748244
 20
158.5809445591759
 30
0.0
 10
207.0077749608486
 20
158.5809445591759
 30
0.0
  0
LINE
  5
69
330
1F
100
AcDbEntity
  8
0
  6
Continuous
 62
     7
370
    15
100
AcDbLine
 10
207.0077749608
 20
158.5809445592
 30
0.0
 11
204.063288588
 21
158.5809445592
 31
0.0
  0
SPLINE
  5
6A
330
1F
100
AcDbEntity
  8
0
  6
Continuous
 62
     7
370
    15
100
AcDbSpline
210
0.0
220
0.0
230
1.0
 70
     8
 71
     3
 72
    12
 73
     8
 74
     0
 42
0.00000001
 43
0.00000001
 12
1.0
 22
0.0
 32
0.0
 13
1.0
 23
0.0
 33
0.0
 40
0.0
 40
0.0
 40
0.0
 40
0.0
 40
0.2499999999999977
 40
0.2499999999999977
 40
0.4999999999999953
 40
0.4999999999999953
 40
1.0
 40
1.0
 40
1.0
 40
1.0
 10
204.0632885879814
 20
158.5809445591759
 30
0.0
 10
204.0002085494881
 20
158.5809445591759
 30
0.0
 10
203.9410599273067
 20
158.5730386329635
 30
0.0
 10
203.8425873772376
 20
158.5497134715272
 30
0.0
 10
203.8035507652529
 20
158.5350006816955
 30
0.0
 10
203.7036542984739
 20
158.4870448809646
 30
0.0
 10
203.6612334174072
 20
158.4507827243846
 30
0.0
 10
203.6302758860892
 20
158.4131950604201
 30
0.0
  0
ELLIPSE
  5
6B
330
1F
100
AcDbEntity
  8
0
  6
Continuous
 62
     7
370
    15
100
AcDbEllipse
 10
219.8826859638
 20
128.5124526003
 30
0.0
 11
-14.75368316065607
 21
31.09325491558113
 31
0.0
210
0.0
220
0.0
230
1.0
 40
0.3419987131
 41
0.1591422026273005
 42
1.089903569770978
  0
LINE
  5
6C
330
1F
100
AcDbEntity
  8
0
  6
Continuous
 62
     7
370
    15
100
AcDbLine
 10
193.5355317744
 20
97.5124526003
 30
0.0
 11
193.5355317744
 21
159.5124525938
 31
0.0
  0
ELLIPSE
  5
6D
330
1F
100
AcDbEntity
  8
0
  6
Continuous
 62
     7
370
    15
100
AcDbEllipse
 10
225.1821712705
 20
110.9475936406
 30
0.0
 11
-0.3267812967788757
 21
3.437685688267721
 31
0.0
210
0.0
220
0.0
230
1.0
 40
0.2095444568
 41
0.0
 42
6.283185307179586
  0
SPLINE
  5
6E
330
1F
100
AcDbEntity
  8
0
  6
Continuous
 62
     7
370
    15
100
AcDbSpline
210
0.0
220
0.0
230
1.0
 70
     8
 71
     3
 72
    12
 73
     8
 74
     0
 42
0.00000001
 43
0.00000001
 12
1.0
 22
0.0
 32
0.0
 13
1.0
 23
0.0
 33
0.0
 40
0.0
 40
0.0
 40
0.0
 40
0.0
 40
0.5
 40
0.5
 40
0.75
 40
0.75
 40
1.0
 40
1.0
 40
1.0
 40
1.0
 10
192.7190194879585
 20
106.657658897827
 30
0.0
 10
192.7754559888657
 20
106.6562410164853
 30
0.0
 10
192.8445406195544
 20
106.654676680237
 30
0.0
 10
192.9633428912724
 20
106.6517324882625
 30
0.0
 10
193.0035281667425
 20
106.6506942851652
 30
0.0
 10
193.0769092141463
 20
106.6487603899505
 30
0.0
 10
193.1103187778889
 20
106.6478655026617
 30
0.0
 10
193.1405548855454
 20
106.6470817123894
 30
0.0
  0
SPLINE
  5
6F
330
1F
100
AcDbEntity
  8
0
  6
Continuous
 62
     7
370
    15
100
AcDbSpline
210
0.0
220
0.0
230
1.0
 70
     8
 71
     3
 72
    16
 73
    12
 74
     0
 42
0.00000001
 43
0.00000001
 12
1.0
 22
0.0
 32
0.0
 13
1.0
 23
0.0
 33
0.0
 40
0.0
 40
0.0
 40
0.0
 40
0.0
 40
0.0624999999999989
 40
0.0624999999999989
 40
0.1249999999999978
 40
0.1249999999999978
 40
0.2499999999999992
 40
0.2499999999999992
 40
0.5000000000000019
 40
0.5000000000000019
 40
1.0
 40
1.0
 40
1.0
 40
1.0
 10
193.1405548855082
 20
106.6470817124136
 30
0.0
 10
193.1521352930961
 20
106.6467815213023
 30
0.0
 10
193.1654448198574
 20
106.6454537730433
 30
0.0
 10
193.1947462499435
 20
106.6387550982683
 30
0.0
 10
193.2095603498278
 20
106.6333969151626
 30
0.0
 10
193.2453887515307
 20
106.6163512659952
 30
0.0
 10
193.2595083758937
 20
106.6048887282195
 30
0.0
 10
193.2940125199822
 20
106.5733254028473
 30
0.0
 10
193.3051170706868
 20
106.555428103802
 30
0.0
 10
193.331293247903
 20
106.5052666861878
 30
0.0
 10
193.335531774415
 20
106.4775222739912
 30
0.0
 10
193.335531774415
 20
106.4528581120616
 30
0.0
  0
LINE
  5
70
330
1F
100
AcDbEntity
  8
0
  6
Continuous
 62
     7
370
    15
100
AcDbLine
 10
193.3355317744
 20
121.4905652746
 30
0.0
 11
193.3355317744
 21
105.9726323214
 31
0.0
  0
SPLINE
  5
71
330
1F
100
AcDbEntity
  8
0
  6
Continuous
 62
     7
370
    15
100
AcDbSpline
210
0.0
220
0.0
230
1.0
 70
     8
 71
     3
 72
    16
 73
    12
 74
     0
 42
0.00000001
 43
0.00000001
 12
1.0
 22
0.0
 32
0.0
 13
1.0
 23
0.0
 33
0.0
 40
0.0
 40
0.0
 40
0.0
 40
0.0
 40
0.4999999999999978
 40
0.4999999999999978
 40
0.7500000000000001
 40
0.7500000000000001
 40
0.8750000000000006
 40
0.8750000000000006
 40
0.9375000000000002
 40
0.9375000000000002
 40
1.0
 40
1.0
 40
1.0
 40
1.0
 10
193.335531774415
 20
121.4905652745527
 30
0.0
 10
193.335531774415
 20
121.6042578186806
 30
0.0
 10
193.3313854993371
 20
121.7185779800301
 30
0.0
 10
193.3054199039435
 20
121.8916262705272
 30
0.0
 10
193.2939589985661
 20
121.9508017776889
 30
0.0
 10
193.2596472607918
 20
122.0339248971571
 30
0.0
 10
193.2456225248622
 20
122.0620462132577
 30
0.0
 10
193.2095995618284
 20
122.0906620272352
 30
0.0
 10
193.1948450527387
 20
122.096455075137
 30
0.0
 10
193.1654928915918
 20
122.0948616492
 30
0.0
 10
193.1521530170877
 20
122.0883652458761
 30
0.0
 10
193.1405548855394
 20
122.079849499673
 30
0.0
  0
SPLINE
  5
72
330
1F
100
AcDbEntity
  8
0
  6
Continuous
 62
     7
370
    15
100
AcDbSpline
210
0.0
220
0.0
230
1.0
 70
     8
 71
     3
 72
    12
 73
     8
 74
     0
 42
0.00000001
 43
0.00000001
 12
1.0
 22
0.0
 32
0.0
 13
1.0
 23
0.0
 33
0.0
 40
0.0
 40
0.0
 40
0.0
 40
0.0
 40
0.2499999999999997
 40
0.2499999999999997
 40
0.4999999999999993
 40
0.4999999999999993
 40
1.0
 40
1.0
 40
1.0
 40
1.0
 10
193.1405548855464
 20
122.0798494996639
 30
0.0
 10
193.1103564441058
 20
122.0576767676188
 30
0.0
 10
193.0769890887698
 20
122.0385971117416
 30
0.0
 10
193.0038338129399
 20
122.0134240672989
 30
0.0
 10
192.9635811139159
 20
122.0078675308821
 30
0.0
 10
192.8458523706411
 20
122.0187793418689
 30
0.0
 10
192.7753939225821
 20
122.0607150972797
 30
0.0
 10
192.7190194879639
 20
122.1099268796613
 30
0.0
  0
SPLINE
  5
73
330
1F
100
AcDbEntity
  8
0
  6
Continuous
 62
     7
370
    15
100
AcDbSpline
210
0.0
220
0.0
230
1.0
 70
     8
 71
     3
 72
    12
 73
     8
 74
     0
 42
0.00000001
 43
0.00000001
 12
1.0
 22
0.0
 32
0.0
 13
1.0
 23
0.0
 33
0.0
 40
0.0
 40
0.0
 40
0.0
 40
0.0
 40
0.5000000000000023
 40
0.5000000000000023
 40
0.7500000000000011
 40
0.7500000000000011
 40
1.0
 40
1.0
 40
1.0
 40
1.0
 10
192.2142114308554
 20
123.3262782715419
 30
0.0
 10
192.2579617827398
 20
123.1058312865673
 30
0.0
 10
192.3108519338643
 20
122.8902862967618
 30
0.0
 10
192.422463477006
 20
122.5778722201898
 30
0.0
 10
192.4650228209095
 20
122.4757927445739
 30
0.0
 10
192.5700000562469
 20
122.2813527319322
 30
0.0
 10
192.6315672993415
 20
122.1862678328685
 30
0.0
 10
192.7190194879639
 20
122.1099268796613
 30
0.0
  0
SPLINE
  5
74
330
1F
100
AcDbEntity
  8
0
  6
Continuous
 62
     7
370
    15
100
AcDbSpline
210
0.0
220
0.0
230
1.0
 70
     8
 71
     3
 72
    12
 73
     8
 74
     0
 42
0.00000001
 43
0.00000001
 12
1.0
 22
0.0
 32
0.0
 13
1.0
 23
0.0
 33
0.0
 40
0.0
 40
0.0
 40
0.0
 40
0.0
 40
0.2499999999999992
 40
0.2499999999999992
 40
0.4999999999999983
 40
0.4999999999999983
 40
1.0
 40
1.0
 40
1.0
 40
1.0
 10
192.7190194879638
 20
134.9149783209444
 30
0.0
 10
192.6305260803959
 20
134.8377284408361
 30
0.0
 10
192.57046803963
 20
134.7444091169469
 30
0.0
 10
192.4646197666475
 20
134.5483760639775
 30
0.0
 10
192.42208624537
 20
134.4460497057657
 30
0.0
 10
192.3109349385464
 20
134.1347052999898
 30
0.0
 10
192.2580040814986
 20
133.9192870468118
 30
0.0
 10
192.2142114308554
 20
133.6986269290639
 30
0.0
  0
SPLINE
  5
75
330
1F
100
AcDbEntity
  8
0
  6
Continuous
 62
     7
370
    15
100
AcDbSpline
210
0.0
220
0.0
230
1.0
 70
     8
 71
     3
 72
    12
 73
     8
 74
     0
 42
0.00000001
 43
0.00000001
 12
1.0
 22
0.0
 32
0.0
 13
1.0
 23
0.0
 33
0.0
 40
0.0
 40
0.0
 40
0.0
 40
0.0
 40
0.4999999999999997
 40
0.4999999999999997
 40
0.7499999999999998
 40
0.7499999999999998
 40
1.0
 40
1.0
 40
1.0
 40
1.0
 10
192.7190194879637
 20
134.9149783209444
 30
0.0
 10
192.7753280362594
 20
134.9641325881883
 30
0.0
 10
192.8456026969775
 20
135.0060899067921
 30
0.0
 10
192.9636406113011
 20
135.0170495843245
 30
0.0
 10
193.003816852155
 20
135.0115408260772
 30
0.0
 10
193.077773946833
 20
134.9859835972883
 30
0.0
 10
193.1103903345444
 20
134.9672035494489
 30
0.0
 10
193.1405548855402
 20
134.9450557009322
 30
0.0
  0
SPLINE
  5
76
330
1F
100
AcDbEntity
  8
0
  6
Continuous
 62
     7
370
    15
100
AcDbSpline
210
0.0
220
0.0
230
1.0
 70
     8
 71
     3
 72
    16
 73
    12
 74
     0
 42
0.00000001
 43
0.00000001
 12
1.0
 22
0.0
 32
0.0
 13
1.0
 23
0.0
 33
0.0
 40
0.0
 40
0.0
 40
0.0
 40
0.0
 40
0.0625000000000022
 40
0.0625000000000022
 40
0.1250000000000044
 40
0.1250000000000044
 40
0.2500000000000065
 40
0.2500000000000065
 40
0.5000000000000054
 40
0.5000000000000054
 40
1.0
 40
1.0
 40
1.0
 40
1.0
 10
193.1405548855084
 20
134.9450557008777
 30
0.0
 10
193.1521677853478
 20
134.9365291112825
 30
0.0
 10
193.1655189697803
 20
134.9300288497497
 30
0.0
 10
193.1949188093994
 20
134.9284594526322
 30
0.0
 10
193.2097595339547
 20
134.9343428432628
 30
0.0
 10
193.2455927419233
 20
134.9628904793133
 30
0.0
 10
193.2597059497449
 20
134.9910574986191
 30
0.0
 10
193.2941973209637
 20
135.074811757041
 30
0.0
 10
193.3052813920741
 20
135.1325251706625
 30
0.0
 10
193.3314042098701
 20
135.3061157073083
 30
0.0
 10
193.335531774415
 20
135.4211437599503
 30
0.0
 10
193.335531774415
 20
135.5343399260531
 30
0.0
  0
LINE
  5
77
330
1F
100
AcDbEntity
  8
0
  6
Continuous
 62
     7
370
    15
100
AcDbLine
 10
193.3355317744
 20
151.0522728792
 30
0.0
 11
193.3355317744
 21
135.5343399261
 31
0.0
  0
SPLINE
  5
78
330
1F
100
AcDbEntity
  8
0
  6
Continuous
 62
     7
370
    15
100
AcDbSpline
210
0.0
220
0.0
230
1.0
 70
     8
 71
     3
 72
    16
 73
    12
 74
     0
 42
0.00000001
 43
0.00000001
 12
1.0
 22
0.0
 32
0.0
 13
1.0
 23
0.0
 33
0.0
 40
0.0
 40
0.0
 40
0.0
 40
0.0
 40
0.5000000000000002
 40
0.5000000000000002
 40
0.7500000000000003
 40
0.7500000000000003
 40
0.8750000000000029
 40
0.8750000000000029
 40
0.9375000000000014
 40
0.9375000000000014
 40
1.0
 40
1.0
 40
1.0
 40
1.0
 10
193.335531774415
 20
150.5720470885442
 30
0.0
 10
193.335531774415
 20
150.5473759325013
 30
0.0
 10
193.331366075955
 20
150.51979410111
 30
0.0
 10
193.3051077476301
 20
150.4694512302867
 30
0.0
 10
193.2936039658925
 20
150.4511617322248
 30
0.0
 10
193.259473206546
 20
150.4200067011878
 30
0.0
 10
193.2450513198753
 20
150.408367325976
 30
0.0
 10
193.2094843514374
 20
150.391485300045
 30
0.0
 10
193.1945325831428
 20
150.3860961962373
 30
0.0
 10
193.165528764783
 20
150.3794757002928
 30
0.0
 10
193.1521134107738
 20
150.3781231120863
 30
0.0
 10
193.1405548855372
 20
150.3778234882147
 30
0.0
  0
SPLINE
  5
79
330
1F
100
AcDbEntity
  8
0
  6
Continuous
 62
     7
370
    15
100
AcDbSpline
210
0.0
220
0.0
230
1.0
 70
     8
 71
     3
 72
    12
 73
     8
 74
     0
 42
0.00000001
 43
0.00000001
 12
1.0
 22
0.0
 32
0.0
 13
1.0
 23
0.0
 33
0.0
 40
0.0
 40
0.0
 40
0.0
 40
0.0
 40
0.2500000000000002
 40
0.2500000000000002
 40
0.5000000000000003
 40
0.5000000000000003
 40
1.0
 40
1.0
 40
1.0
 40
1.0
 10
193.1405548855464
 20
150.3778234882165
 30
0.0
 10
193.1103671089968
 20
150.3770409507989
 30
0.0
 10
193.0770133049051
 20
150.3761476189804
 30
0.0
 10
193.0038871017091
 20
150.3742203101768
 30
0.0
 10
192.9636518986849
 20
150.3731807789641
 30
0.0
 10
192.8459602685518
 20
150.3702628956169
 30
0.0
 10
192.7755795953918
 20
150.3686672895466
 30
0.0
 10
192.7190194879612
 20
150.3672463027788
 30
0.0
  0
SPLINE
  5
7A
330
1F
100
AcDbEntity
  8
0
  6
Continuous
 62
     7
370
    15
100
AcDbSpline
210
0.0
220
0.0
230
1.0
 70
     8
 71
     3
 72
    16
 73
    12
 74
     0
 42
0.00000001
 43
0.00000001
 12
1.0
 22
0.0
 32
0.0
 13
1.0
 23
0.0
 33
0.0
 40
0.0
 40
0.0
 40
0.0
 40
0.0
 40
0.25
 40
0.25
 40
0.375
 40
0.375
 40
0.5
 40
0.5
 40
0.75
 40
0.75
 40
1.0
 40
1.0
 40
1.0
 40
1.0
 10
192.2142114308554
 20
133.6986269290639
 30
0.0
 10
192.0529789533709
 20
132.8862171538171
 30
0.0
 10
191.9324991137312
 20
132.0461388594324
 30
0.0
 10
191.8101185964179
 20
130.7448438100696
 30
0.0
 10
191.7791409360205
 20
130.3041627744848
 30
0.0
 10
191.7375271983925
 20
129.4083231335537
 30
0.0
 10
191.7272912854597
 20
128.9616650023513
 30
0.0
 10
191.7271028884036
 20
127.6263550452114
 30
0.0
 10
191.7672475910412
 20
126.7418596719039
 30
0.0
 10
191.9314013459808
 20
124.9846097838778
 30
0.0
 10
192.0529529963904
 20
124.1388188374647
 30
0.0
 10
192.2142114308554
 20
123.3262782715418
 30
0.0
  0
LINE
  5
7B
330
1F
100
AcDbEntity
  8
0
  6
Continuous
 62
     7
370
    15
100
AcDbLine
 10
191.3355317744
 20
134.997630862
 30
0.0
 11
191.3355317744
 21
122.0272743386
 31
0.0
  0
LINE
  5
7C
330
1F
100
AcDbEntity
  8
0
  6
Continuous
 62
     7
370
    15
100
AcDbLine
 10
157.0355317744
 20
134.5667631678
 30
0.0
 11
157.0355317744
 21
122.4581420328
 31
0.0
  0
LINE
  5
7D
330
1F
100
AcDbEntity
  8
0
  6
Continuous
 62
     7
370
    15
100
AcDbLine
 10
155.5355317744
 20
134.133750466
 30
0.0
 11
155.5355317744
 21
122.8911547346
 31
0.0
  0
LINE
  5
7E
330
1F
100
AcDbEntity
  8
0
  6
Continuous
 62
     7
370
    15
100
AcDbLine
 10
191.3355317744
 20
134.997630862
 30
0.0
 11
191.3355317744
 21
150.5325513849
 31
0.0
  0
ARC
  5
7F
330
1F
100
AcDbEntity
  8
0
  6
Continuous
 62
     7
370
    15
100
AcDbCircle
 10
191.5354686854
 20
150.537574496
 30
0.0
 40
0.2000000000000052
100
AcDbArc
 50
181.4391666667
 51
271.4391666667
  0
LINE
  5
80
330
1F
100
AcDbEntity
  8
0
  6
Continuous
 62
     7
370
    15
100
AcDbLine
 10
157.0355317744
 20
134.5667631678
 30
0.0
 11
157.0355317744
 21
149.6708159966
 31
0.0
  0
LINE
  5
81
330
1F
100
AcDbEntity
  8
0
  6
Continuous
 62
     7
370
    15
100
AcDbLine
 10
157.0355317744
 20
149.6708159966
 30
0.0
 11
191.3355317744
 21
150.5325513849
 31
0.0
  0
LINE
  5
82
330
1F
100
AcDbEntity
  8
0
  6
Continuous
 62
     7
370
    15
100
AcDbLine
 10
157.0355317744
 20
107.354089204
 30
0.0
 11
157.0355317744
 21
122.4581420328
 31
0.0
  0
LINE
  5
83
330
1F
100
AcDbEntity
  8
0
  6
Continuous
 62
     7
370
    15
100
AcDbLine
 10
191.3355317744
 20
106.4923538157
 30
0.0
 11
191.3355317744
 21
122.0272743386
 31
0.0
  0
LINE
  5
84
330
1F
100
AcDbEntity
  8
0
  6
Continuous
 62
     7
370
    15
100
AcDbLine
 10
157.0355317744
 20
107.354089204
 30
0.0
 11
191.3355317744
 21
106.4923538157
 31
0.0
  0
ARC
  5
85
330
1F
100
AcDbEntity
  8
0
  6
Continuous
 62
     7
370
    15
100
AcDbCircle
 10
191.5354686854
 20
106.4873307046
 30
0.0
 40
0.2000000000000063
100
AcDbArc
 50
88.5608333333
 51
178.5608333333
  0
LINE
  5
86
330
1F
100
AcDbEntity
  8
0
  6
Continuous
 62
     7
370
    15
100
AcDbLine
 10
191.5404917965
 20
150.3376375851
 30
0.0
 11
192.719019488
 21
150.3672463028
 31
0.0
  0
LINE
  5
87
330
1F
100
AcDbEntity
  8
0
  6
Continuous
 62
     7
370
    15
100
AcDbLine
 10
191.5404917965
 20
106.6872676155
 30
0.0
 11
192.719019488
 21
106.6576588978
 31
0.0
  0
LINE
  5
88
330
1F
100
AcDbEntity
  8
0
  6
Continuous
 62
     7
370
    15
100
AcDbLine
 10
155.5355317744
 20
148.8047905928
 30
0.0
 11
157.0355317744
 21
149.6708159966
 31
0.0
  0
LINE
  5
89
330
1F
100
AcDbEntity
  8
0
  6
Continuous
 62
     7
370
    15
100
AcDbLine
 10
155.5355317744
 20
134.133750466
 30
0.0
 11
155.5355317744
 21
148.8047905928
 31
0.0
  0
LINE
  5
8A
330
1F
100
AcDbEntity
  8
0
  6
Continuous
 62
     7
370
    15
100
AcDbLine
 10
155.5355317744
 20
108.2201146078
 30
0.0
 11
157.0355317744
 21
107.354089204
 31
0.0
  0
LINE
  5
8B
330
1F
100
AcDbEntity
  8
0
  6
Continuous
 62
     7
370
    15
100
AcDbLine
 10
155.5355317744
 20
108.2201146078
 30
0.0
 11
155.5355317744
 21
122.8911547346
 31
0.0
  0
SPLINE
  5
8C
330
1F
100
AcDbEntity
  8
0
  6
Continuous
 62
     7
370
    15
100
AcDbSpline
210
0.0
220
0.0
230
1.0
 70
     8
 71
     3
 72
    12
 73
     8
 74
     0
 42
0.00000001
 43
0.00000001
 12
1.0
 22
0.0
 32
0.0
 13
1.0
 23
0.0
 33
0.0
 40
0.0
 40
0.0
 40
0.0
 40
0.0
 40
0.2500000000000052
 40
0.2500000000000052
 40
0.5000000000000104
 40
0.5000000000000104
 40
1.0
 40
1.0
 40
1.0
 40
1.0
 10
230.7682047864361
 20
97.01301641572948
 30
0.0
 10
230.872779475493
 20
97.01274721717695
 30
0.0
 10
230.9761414275321
 20
96.99658201113267
 30
0.0
 10
231.1797466909553
 20
96.93010134549995
 30
0.0
 10
231.2764729289189
 20
96.88057812471213
 30
0.0
 10
231.5402903297126
 20
96.68473988095214
 30
0.0
 10
231.6751957022631
 20
96.49143768629293
 30
0.0
 10
231.7341306127251
 20
96.2715463465772
 30
0.0
  0
ELLIPSE
  5
8D
330
1F
100
AcDbEntity
  8
0
  6
Continuous
 62
     7
370
    15
100
AcDbEllipse
 10
233.1394937023
 20
154.0019433429
 30
0.0
 11
-5.969584085074786
 21
8.654613893686587
 31
0.0
210
0.0
220
0.0
230
1.0
 40
0.0697175754
 41
0.7662397972150881
 42
1.671529717018208
  0
SPLINE
  5
8E
330
1F
100
AcDbEntity
  8
0
  6
Continuous
 62
     7
370
    15
100
AcDbSpline
210
0.0
220
0.0
230
1.0
 70
     8
 71
     3
 72
     8
 73
     4
 74
     0
 42
0.00000001
 43
0.00000001
 12
1.0
 22
0.0
 32
0.0
 13
1.0
 23
0.0
 33
0.0
 40
0.0
 40
0.0
 40
0.0
 40
0.0
 40
1.0
 40
1.0
 40
1.0
 40
1.0
 10
231.734501398849
 20
96.27016291096108
 30
0.0
 10
232.1910048985734
 20
96.26644967439492
 30
0.0
 10
232.6651869571323
 20
96.2431126259374
 30
0.0
 10
233.1394937022888
 20
96.1992328958177
 30
0.0
  0
LINE
  5
8F
330
1F
100
AcDbEntity
  8
0
  6
Continuous
 62
     7
370
    15
100
AcDbLine
 10
231.7341306127
 20
96.2715463466
 30
0.0
 11
231.7345013988
 21
96.270162911
 31
0.0
  0
LINE
  5
90
330
1F
100
AcDbEntity
  8
0
  6
Continuous
 62
     7
370
    15
100
AcDbLine
 10
257.721452181
 20
94.9312011781
 30
0.0
 11
256.436703322
 21
119.4456697663
 31
0.0
  0
LINE
  5
91
330
1F
100
AcDbEntity
  8
0
  6
Continuous
 62
     7
370
    15
100
AcDbLine
 10
251.1625157031
 20
101.2653438616
 30
0.0
 11
251.2836487717
 21
98.9539872223
 31
0.0
  0
ARC
  5
92
330
1F
100
AcDbEntity
  8
0
  6
Continuous
 62
     7
370
    15
100
AcDbCircle
 10
249.6481514377
 20
101.1859793935
 30
0.0
 40
1.516442497159243
100
AcDbArc
 50
3.0
 51
183.0
  0
LINE
  5
93
330
1F
100
AcDbEntity
  8
0
  6
Continuous
 62
     7
370
    15
100
AcDbLine
 10
248.1738056251
 20
100.3430173569
 30
0.0
 11
248.1337871722
 21
101.1066149253
 31
0.0
  0
LINE
  5
94
330
1F
100
AcDbEntity
  8
0
  6
Continuous
 62
     7
370
    15
100
AcDbLine
 10
244.4658856192
 20
92.3750256738
 30
0.0
 11
248.6929318284
 21
89.7336740486
 31
0.0
  0
ELLIPSE
  5
95
330
1F
100
AcDbEntity
  8
0
  6
Continuous
 62
     7
370
    15
100
AcDbEllipse
 10
230.7620760737
 20
70.113718092
 30
0.0
 11
-1.563194018672221E-12
 21
26.19525546193007
 31
0.0
210
0.0
220
0.0
230
1.0
 40
0.9925461516
 41
5.728036697400244
 42
6.191618263581106
  0
LINE
  5
96
330
1F
100
AcDbEntity
  8
0
  6
Continuous
 62
     7
370
    15
100
AcDbLine
 10
256.436703322
 20
119.4456697663
 30
0.0
 11
233.1394937023
 21
152.7175332474
 31
0.0
  0
LINE
  5
97
330
1F
100
AcDbEntity
  8
0
  6
Continuous
 62
     7
370
    15
100
AcDbLine
 10
250.8964383561
 20
101.2513993388
 30
0.0
 11
251.0078073647
 21
99.1263520635
 31
0.0
  0
ARC
  5
98
330
1F
100
AcDbEntity
  8
0
  6
Continuous
 62
     7
370
    15
100
AcDbCircle
 10
249.6481514377
 20
101.1859793935
 30
0.0
 40
1.25000000000001
100
AcDbArc
 50
3.0
 51
183.0
  0
LINE
  5
99
330
1F
100
AcDbEntity
  8
0
  6
Continuous
 62
     7
370
    15
100
AcDbLine
 10
248.3998645192
 20
101.1205594482
 30
0.0
 11
248.4283032442
 21
100.577916249
 31
0.0
  0
LWPOLYLINE
  5
9A
330
1F
100
AcDbEntity
  8
0
  6
Continuous
 62
     7
370
    15
100
AcDbPolyline
 90
       16
 70
   128
 43
0.0
 10
217.5355317744
 20
113.2324526003
 10
217.5028571732
 20
112.8500457705
 10
217.3302025911
 20
112.2878038457
 10
217.0174115449
 20
111.7729305539
 10
216.5801686834
 20
111.331243792
 10
216.0403991898
 20
110.9848915785
 10
215.4251693601
 20
110.7512414596
 10
214.7653293871
 20
110.642009628
 10
214.0939664022
 20
110.6626734237
 10
213.4447453489
 20
110.8121966778
 10
212.8502208817
 20
111.08308167
 10
212.3402049399
 20
111.4617450956
 10
211.9402718525
 20
111.9291991893
 10
211.6704759344
 20
112.462003851
 10
211.5443458796
 20
113.03344203
 10
211.5355317744
 20
113.2324526003
  0
LWPOLYLINE
  5
9B
330
1F
100
AcDbEntity
  8
0
  6
Continuous
 62
     7
370
    15
100
AcDbPolyline
 90
       18
 70
   128
 43
0.0
 10
217.2668850085
 20
113.8969470747
 10
217.3888512296
 20
113.3316449912
 10
217.3569942602
 20
112.7572217021
 10
217.173031518
 20
112.2046445156
 10
216.8468804819
 20
111.7037030109
 10
216.3961240386
 20
111.2814030742
 10
215.8450625849
 20
110.9605110043
 10
215.2234039861
 20
110.7583261757
 10
214.5646620184
 20
110.6857484251
 10
213.9043496317
 20
110.7466904375
 10
213.2780644377
 20
110.9378668135
 10
212.7195696333
 20
111.248971185
 10
212.258973818
 20
111.663231835
 10
211.9211078313
 20
112.1583158644
 10
211.7241861162
 20
112.7075331652
 10
211.6788247732
 20
113.2812752905
 10
211.787469244
 20
113.8486116538
 10
211.8641884139
 20
114.0471240012
  0
LWPOLYLINE
  5
9C
330
1F
100
AcDbEntity
  8
0
  6
Continuous
 62
     7
370
    15
100
AcDbPolyline
 90
       26
 70
   128
 43
0.0
 10
216.9230783077
 20
113.8044932248
 10
217.0324390353
 20
113.2701122391
 10
216.9849098967
 20
112.7289666023
 10
216.7834773225
 20
112.2150584851
 10
216.4407980622
 20
111.7606786244
 10
215.9784039139
 20
111.394377378
 10
215.4253488026
 20
111.1391708003
 10
214.8163832148
 20
111.0110944592
 10
214.1897706982
 20
111.0181958623
 10
213.5848836216
 20
111.1600288022
 10
213.0397292647
 20
111.4276813938
 10
212.5885616807
 20
111.8043360403
 10
212.2597293881
 20
112.2663261451
 10
212.0738941292
 20
112.7846231708
 10
212.0427326169
 20
113.3266606091
 10
212.1682028435
 20
113.8583802543
 10
212.4424210533
 20
114.3463722056
 10
212.8481571075
 20
114.7599741339
 10
213.3599171179
 20
115.073197909
 10
213.9455453207
 20
115.2663625291
 10
214.5682445422
 20
115.3273307507
 10
215.1888883003
 20
115.2522717163
 10
215.7684792649
 20
115.045901661
 10
216.2705996042
 20
114.7211875744
 10
216.6636992507
 20
114.2985324368
 10
216.9230783077
 20
113.8044932248
  0
LINE
  5
9D
330
1F
100
AcDbEntity
  8
0
  6
Continuous
 62
     7
370
    15
100
AcDbLine
 10
257.5780879868
 20
94.5491137079
 30
0.0
 11
257.9575672097
 21
94.5690013713
 31
0.0
  0
LINE
  5
9E
330
1F
100
AcDbEntity
  8
0
  6
Continuous
 62
     7
370
    15
100
AcDbLine
 10
258.5150109976
 20
83.9323402637
 30
0.0
 11
257.9575672097
 21
94.5690013713
 31
0.0
  0
LINE
  5
9F
330
1F
100
AcDbEntity
  8
0
  6
Continuous
 62
     7
370
    15
100
AcDbLine
 10
258.1355317744
 20
83.9124526003
 30
0.0
 11
258.5150109976
 21
83.9323402637
 31
0.0
  0
LINE
  5
A0
330
1F
100
AcDbEntity
  8
0
  6
Continuous
 62
     7
370
    15
100
AcDbLine
 10
257.1166698512
 20
85.6421369111
 30
0.0
 11
258.1355317744
 21
83.9124526003
 31
0.0
  0
LINE
  5
A1
330
1F
100
AcDbEntity
  8
0
  6
Continuous
 62
     7
370
    15
100
AcDbLine
 10
257.3639188654
 20
94.4229584543
 30
0.0
 11
257.5780879868
 21
94.5491137079
 31
0.0
  0
SPLINE
  5
A2
330
1F
100
AcDbEntity
  8
0
  6
Continuous
 62
     7
370
    15
100
AcDbSpline
210
0.0
220
0.0
230
1.0
 70
    24
 71
     3
 72
    19
 73
    15
 74
     0
 42
0.00000001
 43
0.00000001
 12
1.0
 22
0.0
 32
0.0
 13
1.0
 23
0.0
 33
0.0
 40
0.0
 40
0.0
 40
0.0
 40
0.0
 40
0.080487589197137
 40
0.1615563356605293
 40
0.2444335561489739
 40
0.3279234341089876
 40
0.4084058313148557
 40
0.5719656389794261
 40
0.6551989103304294
 40
0.737745155854254
 40
0.8208227218071199
 40
0.9055448933125975
 40
0.9908235953434033
 40
1.0
 40
1.0
 40
1.0
 40
1.0
 10
257.3639188654303
 20
94.42295845434367
 30
0.0
 10
257.3487832363029
 20
94.4140428874358
 30
0.0
 10
257.3184026918723
 20
94.39614737914265
 30
0.0
 10
257.2702709500348
 20
94.36779561648173
 30
0.0
 10
257.2203760640386
 20
94.3384052825407
 30
0.0
 10
257.1696006837092
 20
94.30849629780096
 30
0.0
 10
257.1015148319743
 20
94.26839066614754
 30
0.0
 10
257.0329180897575
 20
94.22798409700209
 30
0.0
 10
256.9649680623558
 20
94.18795847199566
 30
0.0
 10
256.9144127782882
 20
94.15817913386176
 30
0.0
 10
256.8646862105635
 20
94.12888794695998
 30
0.0
 10
256.8158940715474
 20
94.10014718063184
 30
0.0
 10
256.7825913302518
 20
94.08053036683886
 30
0.0
 10
256.7655012269173
 20
94.07046352663934
 30
0.0
 10
256.7638409069057
 20
94.0694855234109
 30
0.0
  0
LINE
  5
A3
330
1F
100
AcDbEntity
  8
0
  6
Continuous
 62
     7
370
    15
100
AcDbLine
 10
249.1027524625
 20
89.5567595549
 30
0.0
 11
248.7232732393
 21
89.5368718915
 31
0.0
  0
LINE
  5
A4
330
1F
100
AcDbEntity
  8
0
  6
Continuous
 62
     7
370
    15
100
AcDbLine
 10
248.1658294517
 20
100.1735329991
 30
0.0
 11
248.7232732393
 21
89.5368718915
 31
0.0
  0
LINE
  5
A5
330
1F
100
AcDbEntity
  8
0
  6
Continuous
 62
     7
370
    15
100
AcDbLine
 10
248.5453086749
 20
100.1934206625
 30
0.0
 11
248.1658294517
 21
100.1735329991
 31
0.0
  0
LINE
  5
A6
330
1F
100
AcDbEntity
  8
0
  6
Continuous
 62
     7
370
    15
100
AcDbLine
 10
249.5641705981
 20
98.4637363518
 30
0.0
 11
248.5453086749
 21
100.1934206625
 31
0.0
  0
LINE
  5
A7
330
1F
100
AcDbEntity
  8
0
  6
Continuous
 62
     7
370
    15
100
AcDbLine
 10
249.3169215838
 20
89.6829148085
 30
0.0
 11
249.1027524625
 21
89.5567595549
 31
0.0
  0
SPLINE
  5
A8
330
1F
100
AcDbEntity
  8
0
  6
Continuous
 62
     7
370
    15
100
AcDbSpline
210
0.0
220
0.0
230
1.0
 70
    24
 71
     3
 72
    11
 73
     7
 74
     0
 42
0.00000001
 43
0.00000001
 12
1.0
 22
0.0
 32
0.0
 13
1.0
 23
0.0
 33
0.0
 40
0.0
 40
0.0
 40
0.0
 40
0.0
 40
0.0092138098390165
 40
0.3448490431109796
 40
0.6722304962507343
 40
0.9999999999999999
 40
0.9999999999999999
 40
0.9999999999999999
 40
0.9999999999999999
 10
249.9169995423737
 20
90.03638773941127
 30
0.0
 10
249.9153392215296
 20
90.03540973569235
 30
0.0
 10
249.853197711734
 20
89.99880558903429
 30
0.0
 10
249.7200648683958
 20
89.92038435114422
 30
0.0
 10
249.508981006607
 20
89.79604645431064
 30
0.0
 10
249.3809666660391
 20
89.72064024496873
 30
0.0
 10
249.3169215838492
 20
89.68291480847853
 30
0.0
  0
LINE
  5
A9
330
1F
100
AcDbEntity
  8
0
  6
Continuous
 62
     7
370
    15
100
AcDbLine
 10
258.5354384492
 20
83.9247077193
 30
0.0
 11
257.9774583117
 21
94.5716029937
 31
0.0
  0
LINE
  5
AA
330
1F
100
AcDbEntity
  8
0
  6
Continuous
 62
     7
370
    15
100
AcDbLine
 10
248.8894643145
 20
89.2183654204
 30
0.0
 11
257.9309346027
 21
83.5686277411
 31
0.0
  0
LINE
  5
AB
330
1F
100
AcDbEntity
  8
0
  6
Continuous
 62
     7
370
    15
100
AcDbLine
 10
248.145402
 20
100.1811655435
 30
0.0
 11
248.7033821376
 21
89.5342702691
 31
0.0
  0
LINE
  5
AC
330
1F
100
AcDbEntity
  8
0
  6
Continuous
 62
     7
370
    15
100
AcDbLine
 10
257.7913761348
 20
94.8875078424
 30
0.0
 11
248.7499058466
 21
100.5372455217
 31
0.0
  0
ARC
  5
AD
330
1F
100
AcDbEntity
  8
0
  6
Continuous
 62
     7
370
    15
100
AcDbCircle
 10
258.1355317744
 20
83.9124526003
 30
0.0
 40
0.3799999999999792
100
AcDbArc
 50
238.0
 51
3.0
  0
ARC
  5
AE
330
1F
100
AcDbEntity
  8
0
  6
Continuous
 62
     7
370
    15
100
AcDbCircle
 10
257.5780879868
 20
94.5491137079
 30
0.0
 40
0.3799999999999344
100
AcDbArc
 50
3.0
 51
58.0
  0
LINE
  5
AF
330
1F
100
AcDbEntity
  8
0
  6
Continuous
 62
     7
370
    15
100
AcDbLine
 10
257.7794573072
 20
94.8713719845
 30
0.0
 11
248.7466779953
 21
100.5156789391
 31
0.0
  0
ARC
  5
B0
330
1F
100
AcDbEntity
  8
0
  6
Continuous
 62
     7
370
    15
100
AcDbCircle
 10
248.5453086749
 20
100.1934206625
 30
0.0
 40
0.3800000000000309
100
AcDbArc
 50
58.0
 51
183.0
  0
ARC
  5
B1
330
1F
100
AcDbEntity
  8
0
  6
Continuous
 62
     7
370
    15
100
AcDbCircle
 10
249.1027524625
 20
89.5567595549
 30
0.0
 40
0.3800000000000032
100
AcDbArc
 50
183.0
 51
238.0
  0
LINE
  5
B2
330
1F
100
AcDbEntity
  8
0
  6
Continuous
 62
     7
370
    15
100
AcDbLine
 10
248.9013831421
 20
89.2345012783
 30
0.0
 11
257.934162454
 21
83.5901943238
 31
0.0
  0
SPLINE
  5
B3
330
1F
100
AcDbEntity
  8
0
  6
Continuous
 62
     7
370
    15
100
AcDbSpline
210
0.0
220
0.0
230
1.0
 70
     8
 71
     3
 72
    10
 73
     6
 74
     0
 42
0.00000001
 43
0.00000001
 12
1.0
 22
0.0
 32
0.0
 13
1.0
 23
0.0
 33
0.0
 40
0.0
 40
0.0
 40
0.0
 40
0.0
 40
0.3518022785811317
 40
0.7034245935032503
 40
1.0
 40
1.0
 40
1.0
 40
1.0
 10
248.7033821376264
 20
89.53427026913477
 30
0.0
 10
248.710179795762
 20
89.4899835783186
 30
0.0
 10
248.7237716347064
 20
89.40143285144266
 30
0.0
 10
248.7935094124647
 20
89.29037062256641
 30
0.0
 10
248.8593429411593
 20
89.24096870097144
 30
0.0
 10
248.889464314451
 20
89.2183654203757
 30
0.0
  0
SPLINE
  5
B4
330
1F
100
AcDbEntity
  8
0
  6
Continuous
 62
     7
370
    15
100
AcDbSpline
210
0.0
220
0.0
230
1.0
 70
     8
 71
     3
 72
    13
 73
     9
 74
     0
 42
0.00000001
 43
0.00000001
 12
1.0
 22
0.0
 32
0.0
 13
1.0
 23
0.0
 33
0.0
 40
0.0
 40
0.0
 40
0.0
 40
0.0
 40
0.1734385751046199
 40
0.3519090391368773
 40
0.5252484949917994
 40
0.7036433105306463
 40
0.850320580097993
 40
1.0
 40
1.0
 40
1.0
 40
1.0
 10
257.977458311653
 20
94.57160299368742
 30
0.0
 10
257.9752476325261
 20
94.59355279849058
 30
0.0
 10
257.9707621369153
 20
94.63808922709572
 30
0.0
 10
257.9500560327164
 20
94.70195966969037
 30
0.0
 10
257.9194401098023
 20
94.76216607485438
 30
0.0
 10
257.881222529679
 20
94.81293309116273
 30
0.0
 10
257.8381811391987
 20
94.85549789495457
 30
0.0
 10
257.8070828136274
 20
94.87676604313694
 30
0.0
 10
257.7913761348284
 20
94.8875078424465
 30
0.0
  0
SPLINE
  5
B5
330
1F
100
AcDbEntity
  8
0
  6
Continuous
 62
     7
370
    15
100
AcDbSpline
210
0.0
220
0.0
230
1.0
 70
     8
 71
     3
 72
    14
 73
    10
 74
     0
 42
0.00000001
 43
0.00000001
 12
1.0
 22
0.0
 32
0.0
 13
1.0
 23
0.0
 33
0.0
 40
0.0
 40
0.0
 40
0.0
 40
0.0
 40
0.1588501103508285
 40
0.3173321153185326
 40
0.4720153553661353
 40
0.6236441635916126
 40
0.7746618341645196
 40
0.9277417761107902
 40
1.0
 40
1.0
 40
1.0
 40
1.0
 10
248.7499058466186
 20
100.5372455217476
 30
0.0
 10
248.7086322773649
 20
100.5577644173062
 30
0.0
 10
248.6261807826249
 20
100.5987546597255
 30
0.0
 10
248.4865467270704
 20
100.6033657922859
 30
0.0
 10
248.3566378408515
 20
100.5640788929316
 30
0.0
 10
248.2489663483858
 20
100.4838839233939
 30
0.0
 10
248.1747420808626
 20
100.3734318391555
 30
0.0
 10
248.1448468565704
 20
100.2668166726051
 30
0.0
 10
248.1452672078075
 20
100.2019621616028
 30
0.0
 10
248.1454020000372
 20
100.1811655435118
 30
0.0
  0
SPLINE
  5
B6
330
1F
100
AcDbEntity
  8
0
  6
Continuous
 62
     7
370
    15
100
AcDbSpline
210
0.0
220
0.0
230
1.0
 70
     8
 71
     3
 72
    14
 73
    10
 74
     0
 42
0.00000001
 43
0.00000001
 12
1.0
 22
0.0
 32
0.0
 13
1.0
 23
0.0
 33
0.0
 40
0.0
 40
0.0
 40
0.0
 40
0.0
 40
0.1588501103507957
 40
0.3173321153184538
 40
0.4720153553660667
 40
0.6236441635915496
 40
0.7746618341644412
 40
0.9277417761107892
 40
1.0
 40
1.0
 40
1.0
 40
1.0
 10
257.9309346026608
 20
83.5686277410746
 30
0.0
 10
257.9722081719146
 20
83.54810884551597
 30
0.0
 10
258.0546596666545
 20
83.50711860309664
 30
0.0
 10
258.194293722209
 20
83.5025074705363
 30
0.0
 10
258.3242026084279
 20
83.54179436989054
 30
0.0
 10
258.4318741008936
 20
83.62198933942827
 30
0.0
 10
258.5060983684168
 20
83.73244142366667
 30
0.0
 10
258.5359935927091
 20
83.83905659021715
 30
0.0
 10
258.5355732414719
 20
83.90391110121939
 30
0.0
 10
258.5354384492422
 20
83.92470771931046
 30
0.0
  0
LINE
  5
B7
330
1F
100
AcDbEntity
  8
0
  6
Continuous
 62
     7
370
    15
100
AcDbLine
 10
249.9868275964
 20
95.9985346664
 30
0.0
 11
250.2605979838
 21
90.7746844834
 31
0.0
  0
ARC
  5
B8
330
1F
100
AcDbEntity
  8
0
  6
Continuous
 62
     7
370
    15
100
AcDbCircle
 10
250.9854571311
 20
96.0508706226
 30
0.0
 40
1.000000000000025
100
AcDbArc
 50
58.0
 51
183.0
  0
LINE
  5
B9
330
1F
100
AcDbEntity
  8
0
  6
Continuous
 62
     7
370
    15
100
AcDbLine
 10
255.951532195
 20
94.1269009193
 30
0.0
 11
251.5153763954
 21
96.8989187188
 31
0.0
  0
ARC
  5
BA
330
1F
100
AcDbEntity
  8
0
  6
Continuous
 62
     7
370
    15
100
AcDbCircle
 10
255.4216129307
 20
93.2788528232
 30
0.0
 40
0.9999999999999989
100
AcDbArc
 50
3.0
 51
58.0
  0
LINE
  5
BB
330
1F
100
AcDbEntity
  8
0
  6
Continuous
 62
     7
370
    15
100
AcDbLine
 10
256.6940128529
 20
88.1073385964
 30
0.0
 11
256.4202424655
 21
93.3311887794
 31
0.0
  0
ARC
  5
BC
330
1F
100
AcDbEntity
  8
0
  6
Continuous
 62
     7
370
    15
100
AcDbCircle
 10
255.6953833181
 20
88.0550026402
 30
0.0
 40
1.000000000295377
100
AcDbArc
 50
238.0
 51
3.0
  0
LINE
  5
BD
330
1F
100
AcDbEntity
  8
0
  6
Continuous
 62
     7
370
    15
100
AcDbLine
 10
250.7293082543
 20
89.9789723435
 30
0.0
 11
255.1654640538
 21
87.2069545438
 31
0.0
  0
ARC
  5
BE
330
1F
100
AcDbEntity
  8
0
  6
Continuous
 62
     7
370
    15
100
AcDbCircle
 10
251.2592275185
 20
90.8270204397
 30
0.0
 40
1.000000000000036
100
AcDbArc
 50
183.0
 51
238.0
  0
CIRCLE
  5
BF
330
1F
100
AcDbEntity
  8
0
  6
Continuous
 62
     7
370
    15
100
AcDbCircle
 10
253.3404202246
 20
92.0529366314
 30
0.0
 40
3.049999999999995
  0
LINE
  5
C0
330
1F
100
AcDbEntity
  8
0
  6
Continuous
 62
     7
370
    15
100
AcDbLine
 10
248.5453086749
 20
100.1934206625
 30
0.0
 11
248.7466779953
 21
100.5156789391
 31
0.0
  0
LINE
  5
C1
330
1F
100
AcDbEntity
  8
0
  6
Continuous
 62
     7
370
    15
100
AcDbLine
 10
257.5780879868
 20
94.5491137079
 30
0.0
 11
257.7794573072
 21
94.8713719845
 31
0.0
  0
LINE
  5
C2
330
1F
100
AcDbEntity
  8
0
  6
Continuous
 62
     7
370
    15
100
AcDbLine
 10
258.1355317744
 20
83.9124526003
 30
0.0
 11
257.934162454
 21
83.5901943238
 31
0.0
  0
LINE
  5
C3
330
1F
100
AcDbEntity
  8
0
  6
Continuous
 62
     7
370
    15
100
AcDbLine
 10
249.1027524625
 20
89.5567595549
 30
0.0
 11
248.9013831421
 21
89.2345012783
 31
0.0
  0
SPLINE
  5
C4
330
1F
100
AcDbEntity
  8
0
  6
Continuous
 62
     7
370
    15
100
AcDbSpline
210
0.0
220
0.0
230
1.0
 70
    24
 71
     3
 72
    13
 73
     9
 74
     0
 42
0.00000001
 43
0.00000001
 12
1.0
 22
0.0
 32
0.0
 13
1.0
 23
0.0
 33
0.0
 40
0.0
 40
0.0
 40
0.0
 40
0.0
 40
0.0072744603807005
 40
0.126424528832981
 40
0.3536587683846295
 40
0.5870519076736662
 40
0.7901352538470633
 40
1.0
 40
1.0
 40
1.0
 40
1.0
 10
256.7677122863964
 20
86.23454929900761
 30
0.0
 10
256.7684735759414
 20
86.233256885824
 30
0.0
 10
256.7817042029562
 20
86.21079573829634
 30
0.0
 10
256.8196166754354
 20
86.14643313200446
 30
0.0
 10
256.8852771967726
 20
86.0349636865354
 30
0.0
 10
256.9641365886566
 20
85.90108700532106
 30
0.0
 10
257.0427344059312
 20
85.76765438967479
 30
0.0
 10
257.091756357932
 20
85.6844316297255
 30
0.0
 10
257.1166698511864
 20
85.64213691105397
 30
0.0
  0
SPLINE
  5
C5
330
1F
100
AcDbEntity
  8
0
  6
Continuous
 62
     7
370
    15
100
AcDbSpline
210
0.0
220
0.0
230
1.0
 70
    24
 71
     3
 72
    11
 73
     7
 74
     0
 42
0.00000001
 43
0.00000001
 12
1.0
 22
0.0
 32
0.0
 13
1.0
 23
0.0
 33
0.0
 40
0.0
 40
0.0
 40
0.0
 40
0.0
 40
0.4125701671612669
 40
0.8731537903910622
 40
0.992701276130298
 40
1.0
 40
1.0
 40
1.0
 40
1.0
 10
249.5641705980927
 20
98.46373635176879
 30
0.0
 10
249.6138233812366
 20
98.37944265305352
 30
0.0
 10
249.7189073627176
 20
98.20104545326141
 30
0.0
 10
249.8364725534275
 20
98.00145936487637
 30
0.0
 10
249.8991357983879
 20
97.89507828497011
 30
0.0
 10
249.9123668489662
 20
97.87261641837333
 30
0.0
 10
249.9131281628831
 20
97.87132396381443
 30
0.0
  0
ARC
  5
C6
330
1F
100
AcDbEntity
  8
0
  6
Continuous
 62
     7
370
    15
100
AcDbCircle
 10
253.2753252696
 20
92.1634459359
 30
0.0
 40
1.675000000000031
100
AcDbArc
 50
149.07804828
 51
207.6779814073
  0
ARC
  5
C7
330
1F
100
AcDbEntity
  8
0
  6
Continuous
 62
     7
370
    15
100
AcDbCircle
 10
253.2753252696
 20
92.1634459359
 30
0.0
 40
1.675000000000031
100
AcDbArc
 50
207.6779814073
 51
267.784823142
  0
ARC
  5
C8
330
1F
100
AcDbEntity
  8
0
  6
Continuous
 62
     7
370
    15
100
AcDbCircle
 10
253.2753252696
 20
92.1634459359
 30
0.0
 40
1.674999999999992
100
AcDbArc
 50
267.784823142
 51
326.3847562692
  0
LINE
  5
C9
330
1F
100
AcDbEntity
  8
0
  6
Continuous
 62
     7
370
    15
100
AcDbLine
 10
254.7154492568
 20
91.3080700528
 30
0.0
 11
254.6702216854
 21
91.2361439413
 31
0.0
  0
ARC
  5
CA
330
1F
100
AcDbEntity
  8
0
  6
Continuous
 62
     7
370
    15
100
AcDbCircle
 10
253.2753252696
 20
92.1634459359
 30
0.0
 40
1.675000000000055
100
AcDbArc
 50
329.2913870411
 51
25.7351052074
  0
LINE
  5
CB
330
1F
100
AcDbEntity
  8
0
  6
Continuous
 62
     7
370
    15
100
AcDbLine
 10
254.7283353067
 20
92.9967447011
 30
0.0
 11
254.7841839436
 21
92.8907495189
 31
0.0
  0
ARC
  5
CC
330
1F
100
AcDbEntity
  8
0
  6
Continuous
 62
     7
370
    15
100
AcDbCircle
 10
253.2753252696
 20
92.1634459359
 30
0.0
 40
1.675000000000042
100
AcDbArc
 50
29.8341971076
 51
85.6286074416
  0
LINE
  5
CD
330
1F
100
AcDbEntity
  8
0
  6
Continuous
 62
     7
370
    15
100
AcDbLine
 10
253.2832857492
 20
93.8384270196
 30
0.0
 11
253.402995773
 21
93.8335732492
 31
0.0
  0
ARC
  5
CE
330
1F
100
AcDbEntity
  8
0
  6
Continuous
 62
     7
370
    15
100
AcDbCircle
 10
253.2753252696
 20
92.1634459359
 30
0.0
 40
1.675000000000007
100
AcDbArc
 50
89.7276993419
 51
146.1714175082
  0
LINE
  5
CF
330
1F
100
AcDbEntity
  8
0
  6
Continuous
 62
     7
370
    15
100
AcDbLine
 10
251.8383962192
 20
93.0241781266
 30
0.0
 11
251.8838912907
 21
93.0959353366
 31
0.0
  0
CIRCLE
  5
D0
330
1F
100
AcDbEntity
  8
0
  6
Continuous
 62
     7
370
    15
100
AcDbCircle
 10
253.2753252696
 20
92.1634459359
 30
0.0
 40
1.799999999999986
  0
SPLINE
  5
D1
330
1F
100
AcDbEntity
  8
0
  6
Continuous
 62
     7
370
    15
100
AcDbSpline
210
0.0
220
0.0
230
1.0
 70
     8
 71
     3
 72
    12
 73
     8
 74
     0
 42
0.00000001
 43
0.00000001
 12
1.0
 22
0.0
 32
0.0
 13
1.0
 23
0.0
 33
0.0
 40
0.0
 40
0.0
 40
0.0
 40
0.0
 40
0.2058401281338337
 40
0.4120619935510479
 40
0.6141387330969568
 40
0.8132772113524943
 40
1.0
 40
1.0
 40
1.0
 40
1.0
 10
254.3808521614635
 20
93.1144513351771
 30
0.0
 10
254.3160804967941
 20
93.10424771108272
 30
0.0
 10
254.186417046274
 20
93.08382153993769
 30
0.0
 10
253.9920366204027
 20
93.13654196641771
 30
0.0
 10
253.8283612614182
 20
93.24493987928452
 30
0.0
 10
253.7088658382352
 20
93.39545700693664
 30
0.0
 10
253.6750328268792
 20
93.5133825210091
 30
0.0
 10
253.6586606362225
 20
93.57044805914158
 30
0.0
  0
SPLINE
  5
D2
330
1F
100
AcDbEntity
  8
0
  6
Continuous
 62
     7
370
    15
100
AcDbSpline
210
0.0
220
0.0
230
1.0
 70
     8
 71
     3
 72
    11
 73
     7
 74
     0
 42
0.00000001
 43
0.00000001
 12
1.0
 22
0.0
 32
0.0
 13
1.0
 23
0.0
 33
0.0
 40
0.0
 40
0.0
 40
0.0
 40
0.0
 40
0.2928993220619746
 40
0.5864344719079606
 40
0.8775178868032595
 40
1.0
 40
1.0
 40
1.0
 40
1.0
 10
253.6586606362225
 20
93.57044805914158
 30
0.0
 10
253.6478517479972
 20
93.60678117127974
 30
0.0
 10
253.6262105075404
 20
93.679526267716
 30
0.0
 10
253.5498940230821
 20
93.76700620014336
 30
0.0
 10
253.4701473894654
 20
93.81547099632245
 30
0.0
 10
253.4183393194674
 20
93.82943704556354
 30
0.0
 10
253.4029957730087
 20
93.83357324915853
 30
0.0
  0
SPLINE
  5
D3
330
1F
100
AcDbEntity
  8
0
  6
Continuous
 62
     7
370
    15
100
AcDbSpline
210
0.0
220
0.0
230
1.0
 70
     8
 71
     3
 72
    11
 73
     7
 74
     0
 42
0.00000001
 43
0.00000001
 12
1.0
 22
0.0
 32
0.0
 13
1.0
 23
0.0
 33
0.0
 40
0.0
 40
0.0
 40
0.0
 40
0.0
 40
0.2669010467949834
 40
0.554614341079224
 40
0.8439070439786263
 40
1.0
 40
1.0
 40
1.0
 40
1.0
 10
254.7283353066633
 20
92.99674470110058
 30
0.0
 10
254.7044326078232
 20
93.02213710418489
 30
0.0
 10
254.6547633400312
 20
93.07490194371674
 30
0.0
 10
254.5522680870012
 20
93.11934363809497
 30
0.0
 10
254.4565884384898
 20
93.12975979738258
 30
0.0
 10
254.4005068907679
 20
93.11842411668327
 30
0.0
 10
254.3808521614635
 20
93.1144513351771
 30
0.0
  0
SPLINE
  5
D4
330
1F
100
AcDbEntity
  8
0
  6
Continuous
 62
     7
370
    15
100
AcDbSpline
210
0.0
220
0.0
230
1.0
 70
     8
 71
     3
 72
    12
 73
     8
 74
     0
 42
0.00000001
 43
0.00000001
 12
1.0
 22
0.0
 32
0.0
 13
1.0
 23
0.0
 33
0.0
 40
0.0
 40
0.0
 40
0.0
 40
0.0
 40
0.2057904614204084
 40
0.4120344203359964
 40
0.614130247142775
 40
0.8132633242112757
 40
1.0
 40
1.0
 40
1.0
 40
1.0
 10
253.0069906734764
 20
93.59626409751459
 30
0.0
 10
252.9834492687525
 20
93.53508439287589
 30
0.0
 10
252.9363145814481
 20
93.41259016275878
 30
0.0
 10
252.7934839696032
 20
93.27060618927578
 30
0.0
 10
252.6177631845856
 20
93.18304355506312
 30
0.0
 10
252.4276505230195
 20
93.15480835010436
 30
0.0
 10
252.3086021056106
 20
93.18447126719506
 30
0.0
 10
252.2509901638602
 20
93.19882625224038
 30
0.0
  0
SPLINE
  5
D5
330
1F
100
AcDbEntity
  8
0
  6
Continuous
 62
     7
370
    15
100
AcDbSpline
210
0.0
220
0.0
230
1.0
 70
     8
 71
     3
 72
    11
 73
     7
 74
     0
 42
0.00000001
 43
0.00000001
 12
1.0
 22
0.0
 32
0.0
 13
1.0
 23
0.0
 33
0.0
 40
0.0
 40
0.0
 40
0.0
 40
0.0
 40
0.2802371411013078
 40
0.5612869875923855
 40
0.8399906057824047
 40
1.0
 40
1.0
 40
1.0
 40
1.0
 10
252.2509901638602
 20
93.19882625224038
 30
0.0
 10
252.2141447695859
 20
93.20763066332427
 30
0.0
 10
252.1403471270691
 20
93.22526501883968
 30
0.0
 10
252.0265158715889
 20
93.20290791575175
 30
0.0
 10
251.9392919729372
 20
93.15540372254995
 30
0.0
 10
251.8986971999491
 20
93.11182834531829
 30
0.0
 10
251.8838912907316
 20
93.09593533663961
 30
0.0
  0
SPLINE
  5
D6
330
1F
100
AcDbEntity
  8
0
  6
Continuous
 62
     7
370
    15
100
AcDbSpline
210
0.0
220
0.0
230
1.0
 70
     8
 71
     3
 72
    11
 73
     7
 74
     0
 42
0.00000001
 43
0.00000001
 12
1.0
 22
0.0
 32
0.0
 13
1.0
 23
0.0
 33
0.0
 40
0.0
 40
0.0
 40
0.0
 40
0.0
 40
0.2657596322625174
 40
0.5530029385953815
 40
0.8418208483438042
 40
1.0
 40
1.0
 40
1.0
 40
1.0
 10
253.2832857491976
 20
93.8384270195853
 30
0.0
 10
253.2494190707709
 20
93.83051540188373
 30
0.0
 10
253.1789479742728
 20
93.81405260126662
 30
0.0
 10
253.089113743457
 20
93.74781062282969
 30
0.0
 10
253.031850662735
 20
93.6700643498244
 30
0.0
 10
253.0134885032428
 20
93.61555378711316
 30
0.0
 10
253.0069906734764
 20
93.59626409751459
 30
0.0
  0
SPLINE
  5
D7
330
1F
100
AcDbEntity
  8
0
  6
Continuous
 62
     7
370
    15
100
AcDbSpline
210
0.0
220
0.0
230
1.0
 70
     8
 71
     3
 72
    11
 73
     7
 74
     0
 42
0.00000001
 43
0.00000001
 12
1.0
 22
0.0
 32
0.0
 13
1.0
 23
0.0
 33
0.0
 40
0.0
 40
0.0
 40
0.0
 40
0.0
 40
0.2431090893443225
 40
0.518279365562264
 40
0.7947794085751858
 40
1.0
 40
1.0
 40
1.0
 40
1.0
 10
254.7154492568252
 20
91.30807005280994
 30
0.0
 10
254.7267568287848
 20
91.33924073120258
 30
0.0
 10
254.7508632134414
 20
91.40569287194755
 30
0.0
 10
254.7456412643911
 20
91.51543243478677
 30
0.0
 10
254.7103637334826
 20
91.61330871081391
 30
0.0
 10
254.6683986157389
 20
91.6627031805983
 30
0.0
 10
254.6505208134052
 20
91.68374600413043
 30
0.0
  0
SPLINE
  5
D8
330
1F
100
AcDbEntity
  8
0
  6
Continuous
 62
     7
370
    15
100
AcDbSpline
210
0.0
220
0.0
230
1.0
 70
     8
 71
     3
 72
    12
 73
     8
 74
     0
 42
0.00000001
 43
0.00000001
 12
1.0
 22
0.0
 32
0.0
 13
1.0
 23
0.0
 33
0.0
 40
0.0
 40
0.0
 40
0.0
 40
0.0
 40
0.205817956499905
 40
0.4120215045907521
 40
0.6140779969168172
 40
0.813213000645403
 40
1.0
 40
1.0
 40
1.0
 40
1.0
 10
254.6505208134052
 20
91.68374600413043
 30
0.0
 10
254.6093015908553
 20
91.73473318602886
 30
0.0
 10
254.5267859232144
 20
91.83680307224229
 30
0.0
 10
254.4752490542985
 20
92.03148459849358
 30
0.0
 10
254.4872733322645
 20
92.22741718752509
 30
0.0
 10
254.5578638061217
 20
92.40617624283828
 30
0.0
 10
254.6430833654705
 20
92.49445397801594
 30
0.0
 10
254.6843297977804
 20
92.53718057336918
 30
0.0
  0
SPLINE
  5
D9
330
1F
100
AcDbEntity
  8
0
  6
Continuous
 62
     7
370
    15
100
AcDbSpline
210
0.0
220
0.0
230
1.0
 70
     8
 71
     3
 72
    11
 73
     7
 74
     0
 42
0.00000001
 43
0.00000001
 12
1.0
 22
0.0
 32
0.0
 13
1.0
 23
0.0
 33
0.0
 40
0.0
 40
0.0
 40
0.0
 40
0.0
 40
0.2908641666076492
 40
0.5839560789891117
 40
0.874598805361841
 40
1.0
 40
1.0
 40
1.0
 40
1.0
 10
254.6843297977805
 20
92.5371805733692
 30
0.0
 10
254.7102624890953
 20
92.56454453512953
 30
0.0
 10
254.7623264917341
 20
92.61948204084405
 30
0.0
 10
254.8000585140447
 20
92.72904614291815
 30
0.0
 10
254.8023496519693
 20
92.82276418478696
 30
0.0
 10
254.7883912057063
 20
92.87500380089801
 30
0.0
 10
254.7841839435682
 20
92.89074951892663
 30
0.0
  0
SPLINE
  5
DA
330
1F
100
AcDbEntity
  8
0
  6
Continuous
 62
     7
370
    15
100
AcDbSpline
210
0.0
220
0.0
230
1.0
 70
     8
 71
     3
 72
    12
 73
     8
 74
     0
 42
0.00000001
 43
0.00000001
 12
1.0
 22
0.0
 32
0.0
 13
1.0
 23
0.0
 33
0.0
 40
0.0
 40
0.0
 40
0.0
 40
0.0
 40
0.2058585741214054
 40
0.4121026961456969
 40
0.6141937841967474
 40
0.8133180967416617
 40
0.9999999999999999
 40
0.9999999999999999
 40
0.9999999999999999
 40
0.9999999999999999
 10
251.9027978374311
 20
92.64737152880548
 30
0.0
 10
251.9440225662621
 20
92.59637589992853
 30
0.0
 10
252.0265492327934
 20
92.49428913360595
 30
0.0
 10
252.0780792337365
 20
92.29957527147691
 30
0.0
 10
252.0660291452268
 20
92.1036198920749
 30
0.0
 10
251.9954157412479
 20
91.92488900407231
 30
0.0
 10
251.9102152319533
 20
91.83663894077806
 30
0.0
 10
251.8689888530558
 20
91.79393695956676
 30
0.0
  0
SPLINE
  5
DB
330
1F
100
AcDbEntity
  8
0
  6
Continuous
 62
     7
370
    15
100
AcDbSpline
210
0.0
220
0.0
230
1.0
 70
     8
 71
     3
 72
    11
 73
     7
 74
     0
 42
0.00000001
 43
0.00000001
 12
1.0
 22
0.0
 32
0.0
 13
1.0
 23
0.0
 33
0.0
 40
0.0
 40
0.0
 40
0.0
 40
0.0
 40
0.252478226533592
 40
0.5068902417933232
 40
0.7591786113117419
 40
0.9999999999999999
 40
0.9999999999999999
 40
0.9999999999999999
 40
0.9999999999999999
 10
251.8689888530558
 20
91.79393695956676
 30
0.0
 10
251.8430457996228
 20
91.76656644078851
 30
0.0
 10
251.7909609889518
 20
91.7116157661422
 30
0.0
 10
251.7534014409925
 20
91.60217847390395
 30
0.0
 10
251.7499702714179
 20
91.4879254427253
 30
0.0
 10
251.7782034984662
 20
91.41904488333397
 30
0.0
 10
251.7919918383475
 20
91.38540549232582
 30
0.0
  0
SPLINE
  5
DC
330
1F
100
AcDbEntity
  8
0
  6
Continuous
 62
     7
370
    15
100
AcDbSpline
210
0.0
220
0.0
230
1.0
 70
     8
 71
     3
 72
    11
 73
     7
 74
     0
 42
0.00000001
 43
0.00000001
 12
1.0
 22
0.0
 32
0.0
 13
1.0
 23
0.0
 33
0.0
 40
0.0
 40
0.0
 40
0.0
 40
0.0
 40
0.2423611237745326
 40
0.5166847928458148
 40
0.7923341374633515
 40
1.0
 40
1.0
 40
1.0
 40
1.0
 10
251.8383962191591
 20
93.02417812656414
 30
0.0
 10
251.826972554361
 20
92.99304958095625
 30
0.0
 10
251.8026186737229
 20
92.92668726224558
 30
0.0
 10
251.8074338918693
 20
92.81693230675845
 30
0.0
 10
251.8424822204079
 20
92.71851393228201
 30
0.0
 10
251.8846707205201
 20
92.6687525032329
 30
0.0
 10
251.9027978374311
 20
92.64737152880548
 30
0.0
  0
SPLINE
  5
DD
330
1F
100
AcDbEntity
  8
0
  6
Continuous
 62
     7
370
    15
100
AcDbSpline
210
0.0
220
0.0
230
1.0
 70
     8
 71
     3
 72
    12
 73
     8
 74
     0
 42
0.00000001
 43
0.00000001
 12
1.0
 22
0.0
 32
0.0
 13
1.0
 23
0.0
 33
0.0
 40
0.0
 40
0.0
 40
0.0
 40
0.0
 40
0.0091735205189999
 40
0.257677521552503
 40
0.5061895192299215
 40
0.7560357430219075
 40
0.9999999999999999
 40
0.9999999999999999
 40
0.9999999999999999
 40
0.9999999999999999
 10
253.2105823343566
 20
90.48969764168129
 30
0.0
 10
253.2119530919847
 20
90.48965013341096
 30
0.0
 10
253.2504566771181
 20
90.48831566063971
 30
0.0
 10
253.3271838841977
 20
90.49921495423163
 30
0.0
 10
253.427479155943
 20
90.5512433541167
 30
0.0
 10
253.5070753528244
 20
90.63206407434357
 30
0.0
 10
253.5333480840546
 20
90.70086348046961
 30
0.0
 10
253.5463279773598
 20
90.73485343542134
 30
0.0
  0
SPLINE
  5
DE
330
1F
100
AcDbEntity
  8
0
  6
Continuous
 62
     7
370
    15
100
AcDbSpline
210
0.0
220
0.0
230
1.0
 70
     8
 71
     3
 72
    12
 73
     8
 74
     0
 42
0.00000001
 43
0.00000001
 12
1.0
 22
0.0
 32
0.0
 13
1.0
 23
0.0
 33
0.0
 40
0.0
 40
0.0
 40
0.0
 40
0.0
 40
0.2057532787804197
 40
0.4119604088044508
 40
0.6140154573249083
 40
0.8131414684041217
 40
0.9999999999999999
 40
0.9999999999999999
 40
0.9999999999999999
 40
0.9999999999999999
 10
253.5463279773598
 20
90.73485343542134
 30
0.0
 10
253.5698651127807
 20
90.79602476679982
 30
0.0
 10
253.6169913019113
 20
90.91850236147616
 30
0.0
 10
253.7597917732167
 20
91.06047590794576
 30
0.0
 10
253.9354768049441
 20
91.14804627619236
 30
0.0
 10
254.125598927089
 20
91.17631675387125
 30
0.0
 10
254.2446801928212
 20
91.14665216876406
 30
0.0
 10
254.302328486976
 20
91.13229128069555
 30
0.0
  0
SPLINE
  5
DF
330
1F
100
AcDbEntity
  8
0
  6
Continuous
 62
     7
370
    15
100
AcDbSpline
210
0.0
220
0.0
230
1.0
 70
     8
 71
     3
 72
    11
 73
     7
 74
     0
 42
0.00000001
 43
0.00000001
 12
1.0
 22
0.0
 32
0.0
 13
1.0
 23
0.0
 33
0.0
 40
0.0
 40
0.0
 40
0.0
 40
0.0
 40
0.2794069064556396
 40
0.5596240257154924
 40
0.8375007392219699
 40
1.0
 40
1.0
 40
1.0
 40
1.0
 10
254.302328486976
 20
91.13229128069555
 30
0.0
 10
254.3391771539895
 20
91.12348631544664
 30
0.0
 10
254.412981340285
 20
91.10585085266807
 30
0.0
 10
254.5268162969525
 20
91.12821653448589
 30
0.0
 10
254.6144187964828
 20
91.1759192123864
 30
0.0
 10
254.6551805497264
 20
91.21991094090531
 30
0.0
 10
254.6702216853852
 20
91.23614394130065
 30
0.0
  0
SPLINE
  5
E0
330
1F
100
AcDbEntity
  8
0
  6
Continuous
 62
     7
370
    15
100
AcDbSpline
210
0.0
220
0.0
230
1.0
 70
     8
 71
     3
 72
    12
 73
     8
 74
     0
 42
0.00000001
 43
0.00000001
 12
1.0
 22
0.0
 32
0.0
 13
1.0
 23
0.0
 33
0.0
 40
0.0
 40
0.0
 40
0.0
 40
0.0
 40
0.205843556409495
 40
0.4120691620553289
 40
0.6141397217726902
 40
0.8132604579561395
 40
1.0
 40
1.0
 40
1.0
 40
1.0
 10
252.1724664893727
 20
91.21666619775884
 30
0.0
 10
252.2372388351372
 20
91.22686987817286
 30
0.0
 10
252.366903745271
 20
91.24729617720998
 30
0.0
 10
252.5612846403255
 20
91.19457453050155
 30
0.0
 10
252.7249556578387
 20
91.08617770367624
 30
0.0
 10
252.8444505017205
 20
90.9356642367693
 30
0.0
 10
252.8782840521482
 20
90.81773977095673
 30
0.0
 10
252.8946580146136
 20
90.76066947379432
 30
0.0
  0
SPLINE
  5
E1
330
1F
100
AcDbEntity
  8
0
  6
Continuous
 62
     7
370
    15
100
AcDbSpline
210
0.0
220
0.0
230
1.0
 70
     8
 71
     3
 72
    11
 73
     7
 74
     0
 42
0.00000001
 43
0.00000001
 12
1.0
 22
0.0
 32
0.0
 13
1.0
 23
0.0
 33
0.0
 40
0.0
 40
0.0
 40
0.0
 40
0.0
 40
0.2535086227484046
 40
0.5075674742604551
 40
0.7595056251924359
 40
1.0
 40
1.0
 40
1.0
 40
1.0
 10
252.8946580146136
 20
90.76066947379432
 30
0.0
 10
252.9054685493567
 20
90.72432082499182
 30
0.0
 10
252.9271130826094
 20
90.65154463432246
 30
0.0
 10
253.0034154849533
 20
90.56427965318656
 30
0.0
 10
253.1007565794461
 20
90.5043617799254
 30
0.0
 10
253.1745453486145
 20
90.49450936677486
 30
0.0
 10
253.2105823343566
 20
90.48969764168127
 30
0.0
  0
SPLINE
  5
E2
330
1F
100
AcDbEntity
  8
0
  6
Continuous
 62
     7
370
    15
100
AcDbSpline
210
0.0
220
0.0
230
1.0
 70
     8
 71
     3
 72
    12
 73
     8
 74
     0
 42
0.00000001
 43
0.00000001
 12
1.0
 22
0.0
 32
0.0
 13
1.0
 23
0.0
 33
0.0
 40
0.0
 40
0.0
 40
0.0
 40
0.0
 40
0.009168177149192
 40
0.2573268097002491
 40
0.5054934687429105
 40
0.7549925359453016
 40
1.0
 40
1.0
 40
1.0
 40
1.0
 10
251.7919918383475
 20
91.38540549232582
 30
0.0
 10
251.7926343374853
 20
91.38419245047332
 30
0.0
 10
251.8106676117823
 20
91.35014553091034
 30
0.0
 10
251.858358023246
 20
91.28905774055806
 30
0.0
 10
251.9534496226187
 20
91.22803862282284
 30
0.0
 10
252.0633953694599
 20
91.1992542221991
 30
0.0
 10
252.136330271991
 20
91.2108974577443
 30
0.0
 10
252.1724664893727
 20
91.21666619775884
 30
0.0
  0
CIRCLE
  5
E3
330
1F
100
AcDbEntity
  8
0
  6
Continuous
 62
     7
370
    15
100
AcDbCircle
 10
253.2753252696
 20
92.1634459359
 30
0.0
 40
2.624999999999981
  0
ELLIPSE
  5
E4
330
1F
100
AcDbEntity
  8
0
  6
HIDDEN
 62
     7
370
     0
100
AcDbEllipse
 10
250.1330413159
 20
128.5124526003
 30
0.0
 11
-22.33599140011913
 21
31.42058670065018
 31
0.0
210
0.0
220
0.0
230
1.0
 40
0.1000778042
 41
6.212162534450069
 42
6.961481347598702
  0
SPLINE
  5
E5
330
1F
100
AcDbEntity
  8
0
  6
HIDDEN
 62
     7
370
     0
100
AcDbSpline
210
0.0
220
0.0
230
1.0
 70
     8
 71
     3
 72
    12
 73
     8
 74
     0
 42
0.00000001
 43
0.00000001
 12
1.0
 22
0.0
 32
0.0
 13
1.0
 23
0.0
 33
0.0
 40
0.0
 40
0.0
 40
0.0
 40
0.0
 40
0.4999999999999953
 40
0.4999999999999953
 40
0.7499999999999977
 40
0.7499999999999977
 40
1.0
 40
1.0
 40
1.0
 40
1.0
 10
203.6302758860892
 20
158.4131950604203
 30
0.0
 10
203.6609981280083
 20
158.4504970433733
 30
0.0
 10
203.7038353425435
 20
158.4871088754197
 30
0.0
 10
203.8032623667433
 20
158.5348736587049
 30
0.0
 10
203.8430145615599
 20
158.5498311741873
 30
0.0
 10
203.9410560184182
 20
158.5730211199564
 30
0.0
 10
204.0006120740056
 20
158.5809445591761
 30
0.0
 10
204.0632885879814
 20
158.5809445591761
 30
0.0
  0
LINE
  5
E6
330
1F
100
AcDbEntity
  8
0
  6
HIDDEN
 62
     7
370
     0
100
AcDbLine
 10
204.063288588
 20
158.5809445592
 30
0.0
 11
207.0077749608
 21
158.5809445592
 31
0.0
  0
SPLINE
  5
E7
330
1F
100
AcDbEntity
  8
0
  6
HIDDEN
 62
     7
370
     0
100
AcDbSpline
210
0.0
220
0.0
230
1.0
 70
     8
 71
     3
 72
    12
 73
     8
 74
     0
 42
0.00000001
 43
0.00000001
 12
1.0
 22
0.0
 32
0.0
 13
1.0
 23
0.0
 33
0.0
 40
0.0
 40
0.0
 40
0.0
 40
0.0
 40
0.25
 40
0.25
 40
0.5
 40
0.5
 40
1.0
 40
1.0
 40
1.0
 40
1.0
 10
207.0077749608486
 20
158.5809445591761
 30
0.0
 10
207.0708549993419
 20
158.5809445591761
 30
0.0
 10
207.1300036215233
 20
158.5730386329637
 30
0.0
 10
207.2284761715924
 20
158.5497134715274
 30
0.0
 10
207.2675127835771
 20
158.5350006816957
 30
0.0
 10
207.3674092503562
 20
158.4870448809648
 30
0.0
 10
207.4098301314228
 20
158.4507827243848
 30
0.0
 10
207.4407876627408
 20
158.4131950604203
 30
0.0
  0
ELLIPSE
  5
E8
330
1F
100
AcDbEntity
  8
0
  6
HIDDEN
 62
     7
370
     0
100
AcDbEllipse
 10
191.1883775851
 20
128.5124526003
 30
0.0
 11
14.75368316065627
 21
31.09325491558116
 31
0.0
210
0.0
220
0.0
230
1.0
 40
0.3419987131
 41
5.193281737408639
 42
6.124043104552341
  0
SPLINE
  5
E9
330
1F
100
AcDbEntity
  8
0
  6
HIDDEN
 62
     7
370
     0
100
AcDbSpline
210
0.0
220
0.0
230
1.0
 70
     8
 71
     3
 72
    12
 73
     8
 74
     0
 42
0.00000001
 43
0.00000001
 12
1.0
 22
0.0
 32
0.0
 13
1.0
 23
0.0
 33
0.0
 40
0.0
 40
0.0
 40
0.0
 40
0.0
 40
0.5
 40
0.5
 40
0.75
 40
0.75
 40
1.0
 40
1.0
 40
1.0
 40
1.0
 10
207.4407876627408
 20
138.4218219209885
 30
0.0
 10
207.4100654208217
 20
138.3092661215794
 30
0.0
 10
207.3672282062865
 20
138.1965082618398
 30
0.0
 10
207.2678011820867
 20
138.0469673760434
 30
0.0
 10
207.2280489872701
 20
137.9996746443366
 30
0.0
 10
207.1300075304119
 20
137.9259383510151
 30
0.0
 10
207.0704514748244
 20
137.9005190316394
 30
0.0
 10
207.0077749608486
 20
137.9005190316394
 30
0.0
  0
LINE
  5
EA
330
1F
100
AcDbEntity
  8
0
  6
HIDDEN
 62
     7
370
     0
100
AcDbLine
 10
207.0077749608
 20
137.9005190316
 30
0.0
 11
204.063288588
 21
137.9005190316
 31
0.0
  0
SPLINE
  5
EB
330
1F
100
AcDbEntity
  8
0
  6
HIDDEN
 62
     7
370
     0
100
AcDbSpline
210
0.0
220
0.0
230
1.0
 70
     8
 71
     3
 72
    12
 73
     8
 74
     0
 42
0.00000001
 43
0.00000001
 12
1.0
 22
0.0
 32
0.0
 13
1.0
 23
0.0
 33
0.0
 40
0.0
 40
0.0
 40
0.0
 40
0.0
 40
0.2500000000000023
 40
0.2500000000000023
 40
0.5000000000000047
 40
0.5000000000000047
 40
1.0
 40
1.0
 40
1.0
 40
1.0
 10
204.0632885879814
 20
137.9005190316394
 30
0.0
 10
204.0002085494881
 20
137.9005190316394
 30
0.0
 10
203.9410599273067
 20
137.9258833508543
 30
0.0
 10
203.8425873772376
 20
138.0000482112272
 30
0.0
 10
203.8035507652529
 20
138.0465685517814
 30
0.0
 10
203.7036542984739
 20
138.1967108946266
 30
0.0
 10
203.6612334174072
 20
138.3084041015987
 30
0.0
 10
203.6302758860893
 20
138.4218219209885
 30
0.0
  0
ELLIPSE
  5
EC
330
1F
100
AcDbEntity
  8
0
  6
HIDDEN
 62
     7
370
     0
100
AcDbEllipse
 10
219.8826859638
 20
128.5124526003
 30
0.0
 11
-14.75368316065627
 21
31.09325491558116
 31
0.0
210
0.0
220
0.0
230
1.0
 40
0.3419987131
 41
0.1591422026272837
 42
1.089903569770961
  0
SPLINE
  5
ED
330
1F
100
AcDbEntity
  8
0
  6
HIDDEN
 62
     7
370
     0
100
AcDbSpline
210
0.0
220
0.0
230
1.0
 70
     8
 71
     3
 72
    12
 73
     8
 74
     0
 42
0.00000001
 43
0.00000001
 12
1.0
 22
0.0
 32
0.0
 13
1.0
 23
0.0
 33
0.0
 40
0.0
 40
0.0
 40
0.0
 40
0.0
 40
0.5
 40
0.5
 40
0.75
 40
0.75
 40
1.0
 40
1.0
 40
1.0
 40
1.0
 10
203.6302758860892
 20
118.6030832796177
 30
0.0
 10
203.6609981280083
 20
118.7156390790269
 30
0.0
 10
203.7038353425435
 20
118.8283969387665
 30
0.0
 10
203.8032623667433
 20
118.9779378245628
 30
0.0
 10
203.8430145615599
 20
119.0252305562697
 30
0.0
 10
203.9410560184182
 20
119.0989668495911
 30
0.0
 10
204.0006120740056
 20
119.1243861689668
 30
0.0
 10
204.0632885879814
 20
119.1243861689668
 30
0.0
  0
LINE
  5
EE
330
1F
100
AcDbEntity
  8
0
  6
HIDDEN
 62
     7
370
     0
100
AcDbLine
 10
204.063288588
 20
119.124386169
 30
0.0
 11
207.0077749608
 21
119.124386169
 31
0.0
  0
SPLINE
  5
EF
330
1F
100
AcDbEntity
  8
0
  6
HIDDEN
 62
     7
370
     0
100
AcDbSpline
210
0.0
220
0.0
230
1.0
 70
     8
 71
     3
 72
    12
 73
     8
 74
     0
 42
0.00000001
 43
0.00000001
 12
1.0
 22
0.0
 32
0.0
 13
1.0
 23
0.0
 33
0.0
 40
0.0
 40
0.0
 40
0.0
 40
0.0
 40
0.25
 40
0.25
 40
0.5
 40
0.5
 40
1.0
 40
1.0
 40
1.0
 40
1.0
 10
207.0077749608486
 20
119.1243861689668
 30
0.0
 10
207.0708549993419
 20
119.1243861689668
 30
0.0
 10
207.1300036215233
 20
119.0990218497519
 30
0.0
 10
207.2284761715924
 20
119.024856989379
 30
0.0
 10
207.2675127835771
 20
118.9783366488249
 30
0.0
 10
207.3674092503562
 20
118.8281943059796
 30
0.0
 10
207.4098301314228
 20
118.7165010990075
 30
0.0
 10
207.4407876627408
 20
118.6030832796177
 30
0.0
  0
ELLIPSE
  5
F0
330
1F
100
AcDbEntity
  8
0
  6
HIDDEN
 62
     7
370
     0
100
AcDbEllipse
 10
191.1883775851
 20
128.5124526003
 30
0.0
 11
-14.75368316065607
 21
31.09325491558116
 31
0.0
210
0.0
220
0.0
230
1.0
 40
0.3419987131
 41
3.300734856217136
 42
4.23149622336078
  0
SPLINE
  5
F1
330
1F
100
AcDbEntity
  8
0
  6
HIDDEN
 62
     7
370
     0
100
AcDbSpline
210
0.0
220
0.0
230
1.0
 70
     8
 71
     3
 72
    12
 73
     8
 74
     0
 42
0.00000001
 43
0.00000001
 12
1.0
 22
0.0
 32
0.0
 13
1.0
 23
0.0
 33
0.0
 40
0.0
 40
0.0
 40
0.0
 40
0.0
 40
0.5000000000000047
 40
0.5000000000000047
 40
0.7500000000000023
 40
0.7500000000000023
 40
1.0
 40
1.0
 40
1.0
 40
1.0
 10
207.4407876627408
 20
98.6117101401857
 30
0.0
 10
207.4100654208217
 20
98.57440815723264
 30
0.0
 10
207.3672282062865
 20
98.53779632518626
 30
0.0
 10
207.2678011820868
 20
98.49003154190106
 30
0.0
 10
207.2280489872701
 20
98.4750740264187
 30
0.0
 10
207.1300075304119
 20
98.45188408064956
 30
0.0
 10
207.0704514748244
 20
98.44396064142985
 30
0.0
 10
207.0077749608486
 20
98.44396064142985
 30
0.0
  0
LINE
  5
F2
330
1F
100
AcDbEntity
  8
0
  6
HIDDEN
 62
     7
370
     0
100
AcDbLine
 10
207.0077749608
 20
98.4439606414
 30
0.0
 11
204.063288588
 21
98.4439606414
 31
0.0
  0
SPLINE
  5
F3
330
1F
100
AcDbEntity
  8
0
  6
HIDDEN
 62
     7
370
     0
100
AcDbSpline
210
0.0
220
0.0
230
1.0
 70
     8
 71
     3
 72
    12
 73
     8
 74
     0
 42
0.00000001
 43
0.00000001
 12
1.0
 22
0.0
 32
0.0
 13
1.0
 23
0.0
 33
0.0
 40
0.0
 40
0.0
 40
0.0
 40
0.0
 40
0.2500000000000009
 40
0.2500000000000009
 40
0.5000000000000019
 40
0.5000000000000019
 40
1.0
 40
1.0
 40
1.0
 40
1.0
 10
204.0632885879814
 20
98.44396064142985
 30
0.0
 10
204.0002085494881
 20
98.44396064142984
 30
0.0
 10
203.9410599273067
 20
98.45186656764227
 30
0.0
 10
203.8425873772376
 20
98.4751917290785
 30
0.0
 10
203.8035507652529
 20
98.48990451891021
 30
0.0
 10
203.7036542984739
 20
98.53786031964114
 30
0.0
 10
203.6612334174072
 20
98.57412247622119
 30
0.0
 10
203.6302758860892
 20
98.61171014018569
 30
0.0
  0
ELLIPSE
  5
F4
330
1F
100
AcDbEntity
  8
0
  6
HIDDEN
 62
     7
370
     0
100
AcDbEllipse
 10
219.8826859638
 20
128.5124526003
 30
0.0
 11
14.75368316065612
 21
31.09325491558112
 31
0.0
210
0.0
220
0.0
230
1.0
 40
0.3419987131
 41
2.051689083818821
 42
2.982450450962498
  0
SPLINE
  5
F5
330
1F
100
AcDbEntity
  8
0
  6
HIDDEN
 62
     7
370
     0
100
AcDbSpline
210
0.0
220
0.0
230
1.0
 70
     8
 71
     3
 72
    60
 73
    56
 74
     0
 42
0.00000001
 43
0.00000001
 12
1.0
 22
0.0
 32
0.0
 13
1.0
 23
0.0
 33
0.0
 40
-0.0624999999999997
 40
-0.0624999999999997
 40
0.0
 40
0.0
 40
0.0312500000000002
 40
0.0312500000000002
 40
0.0625000000000004
 40
0.0625000000000004
 40
0.0937500000000005
 40
0.0937500000000005
 40
0.1250000000000007
 40
0.1250000000000007
 40
0.187500000000001
 40
0.187500000000001
 40
0.2500000000000013
 40
0.2500000000000013
 40
0.2812500000000012
 40
0.2812500000000012
 40
0.3125000000000012
 40
0.3125000000000012
 40
0.3437500000000012
 40
0.3437500000000012
 40
0.3750000000000011
 40
0.3750000000000011
 40
0.4062500000000011
 40
0.4062500000000011
 40
0.437500000000001
 40
0.437500000000001
 40
0.468750000000001
 40
0.468750000000001
 40
0.5000000000000009
 40
0.5000000000000009
 40
0.5625000000000008
 40
0.5625000000000008
 40
0.6250000000000007
 40
0.6250000000000007
 40
0.6562500000000007
 40
0.6562500000000007
 40
0.6875000000000007
 40
0.6875000000000007
 40
0.7187500000000006
 40
0.7187500000000006
 40
0.7500000000000006
 40
0.7500000000000006
 40
0.7812500000000006
 40
0.7812500000000006
 40
0.8125000000000004
 40
0.8125000000000004
 40
0.8437500000000004
 40
0.8437500000000004
 40
0.8750000000000003
 40
0.8750000000000003
 40
0.9062500000000003
 40
0.9062500000000003
 40
0.9375000000000003
 40
0.9375000000000003
 40
1.0
 40
1.0
 40
1.03125
 40
1.03125
 10
207.535531774415
 20
128.2481220752162
 30
0.0
 10
207.535531774415
 20
128.6446178628462
 30
0.0
 10
207.5225599159262
 20
128.7745679238504
 30
0.0
 10
207.4717397462338
 20
129.0302208572105
 30
0.0
 10
207.4332724227669
 20
129.1572503637598
 30
0.0
 10
207.3328741866948
 20
129.3994384948843
 30
0.0
 10
207.2714411557216
 20
129.5142999874372
 30
0.0
 10
207.1263063241767
 20
129.7316801832613
 30
0.0
 10
207.0418512067688
 20
129.8345777504599
 30
0.0
 10
206.7651317564105
 20
130.1112447894677
 30
0.0
 10
206.5420548644925
 20
130.2602428799477
 30
0.0
 10
206.0607715022721
 20
130.4597540204124
 30
0.0
 10
205.7975410832811
 20
130.5123121234091
 30
0.0
 10
205.4061388815932
 20
130.5125224057872
 30
0.0
 10
205.2736158534843
 20
130.4995366350601
 30
0.0
 10
205.0170854002433
 20
130.4485094868462
 30
0.0
 10
204.8923985659466
 20
130.4107542876959
 30
0.0
 10
204.6502193037111
 20
130.3106159547871
 30
0.0
 10
204.5331257715611
 20
130.2480102873756
 30
0.0
 10
204.3164107682056
 20
130.1032769941106
 30
0.0
 10
204.2153919413429
 20
130.0206496468311
 30
0.0
 10
204.0286070538908
 20
129.8340445935795
 30
0.0
 10
203.9457501726946
 20
129.7329295297033
 30
0.0
 10
203.8008659076208
 20
129.5163967257135
 30
0.0
 10
203.7382283997998
 20
129.3995265181123
 30
0.0
 10
203.6377795764
 20
129.1572286474622
 30
0.0
 10
203.5999284753828
 20
129.0325646490012
 30
0.0
 10
203.5487069101265
 20
128.7762776049373
 30
0.0
 10
203.5355787835093
 20
128.6437056091918
 30
0.0
 10
203.535438143169
 20
128.2521014164178
 30
0.0
 10
203.5877628925409
 20
127.9889360850938
 30
0.0
 10
203.7868739545981
 20
127.5074307159207
 30
0.0
 10
203.9357362910554
 20
127.2841791764366
 30
0.0
 10
204.2120572503809
 20
127.0073228775477
 30
0.0
 10
204.3148208987544
 20
126.922809430704
 30
0.0
 10
204.5322044561339
 20
126.7773921572637
 30
0.0
 10
204.6470032240904
 20
126.7158809582054
 30
0.0
 10
204.8888799475144
 20
126.6153511099505
 30
0.0
 10
205.0160335555146
 20
126.5767060867325
 30
0.0
 10
205.2716995649472
 20
126.5256497591816
 30
0.0
 10
205.4015656027032
 20
126.5125849006359
 30
0.0
 10
205.6655181294348
 20
126.512322279838
 30
0.0
 10
205.7959224528589
 20
126.525199280082
 30
0.0
 10
206.0515732162382
 20
126.5757852838878
 30
0.0
 10
206.1784387653526
 20
126.6140616485097
 30
0.0
 10
206.4209592232985
 20
126.7143325159897
 30
0.0
 10
206.5358858619588
 20
126.7756885401306
 30
0.0
 10
206.7532573307908
 20
126.9205348353034
 30
0.0
 10
206.8562711434531
 20
127.004912349798
 30
0.0
 10
207.040971689035
 20
127.1893196699863
 30
0.0
 10
207.1238014232916
 20
127.2898927332557
 30
0.0
 10
207.2700538618891
 20
127.5081188738347
 30
0.0
 10
207.3324223426815
 20
127.624673983756
 30
0.0
 10
207.4823784942482
 20
127.9855235777897
 30
0.0
 10
207.535531774415
 20
128.2481220752162
 30
0.0
 10
207.535531774415
 20
128.6446178628462
 30
0.0
  0
LINE
  5
F6
330
1F
100
AcDbEntity
  8
0
  6
HIDDEN
 62
     7
370
     0
100
AcDbLine
 10
193.5355317744
 20
159.5124525938
 30
0.0
 11
193.5355317744
 21
97.5124526003
 31
0.0
  0
LWPOLYLINE
  5
F7
330
1F
100
AcDbEntity
  8
0
  6
HIDDEN
 62
     7
370
     0
100
AcDbPolyline
 90
       29
 70
   128
 43
0.0
 10
214.5355317744
 20
118.8605288117
 10
215.2030945763
 20
118.7953896167
 10
215.8371829918
 20
118.6032383832
 10
216.40600118
 20
118.2937103762
 10
216.8810262218
 20
117.8823266225
 10
217.2384383781
 20
117.3897156214
 10
217.460315511
 20
116.8405789453
 10
217.5355317744
 20
116.2624526003
 10
217.460315511
 20
115.6843262553
 10
217.2384383781
 20
115.1351895792
 10
216.8810262218
 20
114.6425785781
 10
216.40600118
 20
114.2311948244
 10
215.8371829918
 20
113.9216668174
 10
215.2030945763
 20
113.7295155839
 10
214.5355317744
 20
113.6643763889
 10
213.8679689725
 20
113.7295155839
 10
213.2338805571
 20
113.9216668174
 10
212.6650623688
 20
114.2311948244
 10
212.190037327
 20
114.6425785781
 10
211.8326251707
 20
115.1351895792
 10
211.6107480379
 20
115.6843262553
 10
211.5355317744
 20
116.2624526003
 10
211.6107480379
 20
116.8405789453
 10
211.8326251707
 20
117.3897156214
 10
212.190037327
 20
117.8823266225
 10
212.6650623688
 20
118.2937103762
 10
213.2338805571
 20
118.6032383832
 10
213.8679689725
 20
118.7953896167
 10
214.5355317744
 20
118.8605288117
  0
LINE
  5
F8
330
1F
100
AcDbEntity
  8
0
  6
HIDDEN
 62
     7
370
     0
100
AcDbLine
 10
193.5355317744
 20
104.2624526003
 30
0.0
 11
193.5355317744
 21
152.7624526003
 31
0.0
  0
SPLINE
  5
F9
330
1F
100
AcDbEntity
  8
0
  6
HIDDEN
 62
     7
370
     0
100
AcDbSpline
210
0.0
220
0.0
230
1.0
 70
     8
 71
     3
 72
    12
 73
     8
 74
     0
 42
0.00000001
 43
0.00000001
 12
1.0
 22
0.0
 32
0.0
 13
1.0
 23
0.0
 33
0.0
 40
0.0
 40
0.0
 40
0.0
 40
0.0
 40
0.4999999999999989
 40
0.4999999999999989
 40
0.7499999999999994
 40
0.7499999999999994
 40
1.0
 40
1.0
 40
1.0
 40
1.0
 10
192.7190194879679
 20
143.9647205821338
 30
0.0
 10
192.7754256666482
 20
143.916898208474
 30
0.0
 10
192.84558856812
 20
143.8766273615354
 30
0.0
 10
192.9635992815092
 20
143.8685814930584
 30
0.0
 10
193.0038050651047
 20
143.8751440913973
 30
0.0
 10
193.0775257618377
 20
143.9025261858509
 30
0.0
 10
193.1103864836242
 20
143.9222876763812
 30
0.0
 10
193.1405548855535
 20
143.9452203875693
 30
0.0
  0
SPLINE
  5
FA
330
1F
100
AcDbEntity
  8
0
  6
HIDDEN
 62
     7
370
     0
100
AcDbSpline
210
0.0
220
0.0
230
1.0
 70
     8
 71
     3
 72
    16
 73
    12
 74
     0
 42
0.00000001
 43
0.00000001
 12
1.0
 22
0.0
 32
0.0
 13
1.0
 23
0.0
 33
0.0
 40
0.0
 40
0.0
 40
0.0
 40
0.0
 40
0.0624999999999982
 40
0.0624999999999982
 40
0.1249999999999963
 40
0.1249999999999963
 40
0.2499999999999909
 40
0.2499999999999909
 40
0.4999999999999905
 40
0.4999999999999905
 40
1.0
 40
1.0
 40
1.0
 40
1.0
 10
193.1405548855084
 20
143.9452203876174
 30
0.0
 10
193.1521677853477
 20
143.9540480105987
 30
0.0
 10
193.1655189697802
 20
143.9618823924807
 30
0.0
 10
193.1949188093994
 20
143.9701925185531
 30
0.0
 10
193.2097595339546
 20
143.969696699318
 30
0.0
 10
193.2455927419233
 20
143.9582457283487
 30
0.0
 10
193.2597059497448
 20
143.94156522749
 30
0.0
 10
193.2941973209637
 20
143.889444541733
 30
0.0
 10
193.3052813920741
 20
143.849655047708
 30
0.0
 10
193.3314042098702
 20
143.7263184156108
 30
0.0
 10
193.335531774415
 20
143.6388970051122
 30
0.0
 10
193.335531774415
 20
143.550159762794
 30
0.0
  0
LINE
  5
FB
330
1F
100
AcDbEntity
  8
0
  6
HIDDEN
 62
     7
370
     0
100
AcDbLine
 10
193.3355317744
 20
113.4747454378
 30
0.0
 11
193.3355317744
 21
143.5501597628
 31
0.0
  0
SPLINE
  5
FC
330
1F
100
AcDbEntity
  8
0
  6
HIDDEN
 62
     7
370
     0
100
AcDbSpline
210
0.0
220
0.0
230
1.0
 70
     8
 71
     3
 72
    16
 73
    12
 74
     0
 42
0.00000001
 43
0.00000001
 12
1.0
 22
0.0
 32
0.0
 13
1.0
 23
0.0
 33
0.0
 40
0.0
 40
0.0
 40
0.0
 40
0.0
 40
0.4999999999999879
 40
0.4999999999999879
 40
0.7499999999999869
 40
0.7499999999999869
 40
0.8749999999999886
 40
0.8749999999999886
 40
0.9374999999999943
 40
0.9374999999999943
 40
1.0
 40
1.0
 40
1.0
 40
1.0
 10
193.335531774415
 20
113.4747454378118
 30
0.0
 10
193.335531774415
 20
113.3856190726231
 30
0.0
 10
193.3313854993371
 20
113.2987577050097
 30
0.0
 10
193.3054199039435
 20
113.1757754585156
 30
0.0
 10
193.2939589985661
 20
113.1350041632843
 30
0.0
 10
193.2596472607918
 20
113.0832998432846
 30
0.0
 10
193.2456225248621
 20
113.0666294766942
 30
0.0
 10
193.2095995618284
 20
113.0551772562374
 30
0.0
 10
193.1948450527387
 20
113.0547242099624
 30
0.0
 10
193.1654928915918
 20
113.0630395311786
 30
0.0
 10
193.1521530170877
 20
113.0708684162569
 30
0.0
 10
193.1405548855394
 20
113.0796848130195
 30
0.0
  0
SPLINE
  5
FD
330
1F
100
AcDbEntity
  8
0
  6
HIDDEN
 62
     7
370
     0
100
AcDbSpline
210
0.0
220
0.0
230
1.0
 70
     8
 71
     3
 72
    12
 73
     8
 74
     0
 42
0.00000001
 43
0.00000001
 12
1.0
 22
0.0
 32
0.0
 13
1.0
 23
0.0
 33
0.0
 40
0.0
 40
0.0
 40
0.0
 40
0.0
 40
0.2500000000000001
 40
0.2500000000000001
 40
0.5000000000000006
 40
0.5000000000000006
 40
1.0
 40
1.0
 40
1.0
 40
1.0
 10
193.1405548855464
 20
113.0796848130284
 30
0.0
 10
193.1103630438292
 20
113.1026353421262
 30
0.0
 10
193.0770040744146
 20
113.1226048161504
 30
0.0
 10
193.003866789834
 20
113.1497059497759
 30
0.0
 10
192.96362491718
 20
113.1563066904213
 30
0.0
 10
192.8459191402115
 20
113.1483378159145
 30
0.0
 10
192.7755086624321
 20
113.1080773577467
 30
0.0
 10
192.7190194879638
 20
113.0601846184685
 30
0.0
  0
SPLINE
  5
FE
330
1F
100
AcDbEntity
  8
0
  6
HIDDEN
 62
     7
370
     0
100
AcDbSpline
210
0.0
220
0.0
230
1.0
 70
     8
 71
     3
 72
    12
 73
     8
 74
     0
 42
0.00000001
 43
0.00000001
 12
1.0
 22
0.0
 32
0.0
 13
1.0
 23
0.0
 33
0.0
 40
0.0
 40
0.0
 40
0.0
 40
0.0
 40
0.2500000000000003
 40
0.2500000000000003
 40
0.5000000000000033
 40
0.5000000000000033
 40
1.0
 40
1.0
 40
1.0
 40
1.0
 10
192.7190194879635
 20
113.0601846184687
 30
0.0
 10
192.6308655502257
 20
112.9854458106146
 30
0.0
 10
192.570512125597
 20
112.8944653101322
 30
0.0
 10
192.4642501675302
 20
112.7055514873796
 30
0.0
 10
192.4220180009681
 20
112.6090470278391
 30
0.0
 10
192.3109473056509
 20
112.3182792736719
 30
0.0
 10
192.2580105292242
 20
112.1226124591282
 30
0.0
 10
192.2142114308554
 20
111.9285459740618
 30
0.0
  0
SPLINE
  5
FF
330
1F
100
AcDbEntity
  8
0
  6
HIDDEN
 62
     7
370
     0
100
AcDbSpline
210
0.0
220
0.0
230
1.0
 70
     8
 71
     3
 72
    12
 73
     8
 74
     0
 42
0.00000001
 43
0.00000001
 12
1.0
 22
0.0
 32
0.0
 13
1.0
 23
0.0
 33
0.0
 40
0.0
 40
0.0
 40
0.0
 40
0.0
 40
0.4999999999999994
 40
0.4999999999999994
 40
0.7499999999999998
 40
0.7499999999999998
 40
1.0
 40
1.0
 40
1.0
 40
1.0
 10
192.2142114308554
 20
106.7423716453008
 30
0.0
 10
192.257957971692
 20
106.7157774746596
 30
0.0
 10
192.3108423269234
 20
106.6960172493339
 30
0.0
 10
192.4224094142596
 20
106.6755662591048
 30
0.0
 10
192.4649930108026
 20
106.6703060344484
 30
0.0
 10
192.5699097378844
 20
106.6624232405257
 30
0.0
 10
192.6314433457292
 20
106.6598591153466
 30
0.0
 10
192.7190194879553
 20
106.6576588978269
 30
0.0
  0
LINE
  5
100
330
1F
100
AcDbEntity
  8
0
  6
HIDDEN
 62
     7
370
     0
100
AcDbLine
 10
193.3355317744
 20
105.9726323214
 30
0.0
 11
193.3355317744
 21
106.4528581121
 31
0.0
  0
LINE
  5
101
330
1F
100
AcDbEntity
  8
0
  6
HIDDEN
 62
     7
370
     0
100
AcDbLine
 10
193.3355317744
 20
150.5720470885
 30
0.0
 11
193.3355317744
 21
151.0522728792
 31
0.0
  0
SPLINE
  5
102
330
1F
100
AcDbEntity
  8
0
  6
HIDDEN
 62
     7
370
     0
100
AcDbSpline
210
0.0
220
0.0
230
1.0
 70
     8
 71
     3
 72
    12
 73
     8
 74
     0
 42
0.00000001
 43
0.00000001
 12
1.0
 22
0.0
 32
0.0
 13
1.0
 23
0.0
 33
0.0
 40
0.0
 40
0.0
 40
0.0
 40
0.0
 40
0.2500000000000001
 40
0.2500000000000001
 40
0.5000000000000001
 40
0.5000000000000001
 40
1.0
 40
1.0
 40
1.0
 40
1.0
 10
192.7190194879633
 20
150.3672463027788
 30
0.0
 10
192.6303348281069
 20
150.3650182354378
 30
0.0
 10
192.5704164123835
 20
150.3625164514075
 30
0.0
 10
192.4647571850628
 20
150.3545850155715
 30
0.0
 10
192.4221159469479
 20
150.3492928606746
 30
0.0
 10
192.3109266048453
 20
150.3288879201875
 30
0.0
 10
192.2579999227244
 20
150.3091532286006
 30
0.0
 10
192.2142114308554
 20
150.282533555305
 30
0.0
  0
SPLINE
  5
103
330
1F
100
AcDbEntity
  8
0
  6
HIDDEN
 62
     7
370
     0
100
AcDbSpline
210
0.0
220
0.0
230
1.0
 70
     8
 71
     3
 72
    12
 73
     8
 74
     0
 42
0.00000001
 43
0.00000001
 12
1.0
 22
0.0
 32
0.0
 13
1.0
 23
0.0
 33
0.0
 40
0.0
 40
0.0
 40
0.0
 40
0.0
 40
0.4999999999999982
 40
0.4999999999999982
 40
0.7499999999999991
 40
0.7499999999999991
 40
1.0
 40
1.0
 40
1.0
 40
1.0
 10
192.2142114308538
 20
145.0963592265442
 30
0.0
 10
192.2579729071525
 20
144.9024594385821
 30
0.0
 10
192.3108792228056
 20
144.7066030746452
 30
0.0
 10
192.4225904204529
 20
144.4144609281463
 30
0.0
 10
192.4651098640393
 20
144.3177429914483
 30
0.0
 10
192.5702332066067
 20
144.1310185550239
 30
0.0
 10
192.6317991703244
 20
144.0386678467542
 30
0.0
 10
192.7190194879671
 20
143.9647205821345
 30
0.0
  0
LWPOLYLINE
  5
104
330
1F
100
AcDbEntity
  8
0
  6
HIDDEN
 62
     7
370
     0
100
AcDbPolyline
 90
       26
 70
   128
 43
0.0
 10
214.5355317744
 20
118.5777312645
 10
215.1572564923
 20
118.5097118131
 10
215.7399159597
 20
118.3099273711
 10
216.2468995392
 20
117.9909311298
 10
216.6463515882
 20
117.5727667963
 10
216.9131730652
 20
117.0817091734
 10
217.0305985955
 20
116.5486132176
 10
216.9912499012
 20
116.0069753085
 10
216.7975994056
 20
115.4908285478
 10
216.4618148814
 20
115.0326043348
 10
216.0049949051
 20
114.661094582
 10
215.4558431561
 20
114.3996426135
 10
214.8488648583
 20
114.264676418
 10
214.2221986905
 20
114.264676418
 10
213.6152203927
 20
114.3996426135
 10
213.0660686437
 20
114.661094582
 10
212.6092486675
 20
115.0326043348
 10
212.2734641433
 20
115.4908285478
 10
212.0798136476
 20
116.0069753085
 10
212.0404649533
 20
116.5486132176
 10
212.1578904837
 20
117.0817091734
 10
212.4247119607
 20
117.5727667963
 10
212.8241640096
 20
117.9909311298
 10
213.3311475892
 20
118.3099273711
 10
213.9138070565
 20
118.5097118131
 10
214.5355317744
 20
118.5777312645
  0
SPLINE
  5
105
330
1F
100
AcDbEntity
  8
0
  6
HIDDEN
 62
     7
370
     0
100
AcDbSpline
210
0.0
220
0.0
230
1.0
 70
     8
 71
     3
 72
    62
 73
    58
 74
     0
 42
0.00000001
 43
0.00000001
 12
1.0
 22
0.0
 32
0.0
 13
1.0
 23
0.0
 33
0.0
 40
-0.0312500000000006
 40
-0.0312500000000006
 40
0.0
 40
0.0
 40
0.0312499999999998
 40
0.0312499999999998
 40
0.0624999999999996
 40
0.0624999999999996
 40
0.0937499999999993
 40
0.0937499999999993
 40
0.1249999999999991
 40
0.1249999999999991
 40
0.1874999999999982
 40
0.1874999999999982
 40
0.2187499999999977
 40
0.2187499999999977
 40
0.2499999999999973
 40
0.2499999999999973
 40
0.2812499999999969
 40
0.2812499999999969
 40
0.3124999999999966
 40
0.3124999999999966
 40
0.374999999999996
 40
0.374999999999996
 40
0.4062499999999957
 40
0.4062499999999957
 40
0.4374999999999953
 40
0.4374999999999953
 40
0.468749999999995
 40
0.468749999999995
 40
0.4999999999999947
 40
0.4999999999999947
 40
0.5624999999999947
 40
0.5624999999999947
 40
0.593749999999995
 40
0.593749999999995
 40
0.6249999999999953
 40
0.6249999999999953
 40
0.6562499999999957
 40
0.6562499999999957
 40
0.687499999999996
 40
0.687499999999996
 40
0.7187499999999963
 40
0.7187499999999963
 40
0.7499999999999967
 40
0.7499999999999967
 40
0.7812499999999969
 40
0.7812499999999969
 40
0.8124999999999971
 40
0.8124999999999971
 40
0.8749999999999978
 40
0.8749999999999978
 40
0.9062499999999983
 40
0.9062499999999983
 40
0.9374999999999989
 40
0.9374999999999989
 40
0.9687499999999994
 40
0.9687499999999994
 40
1.0
 40
1.0
 40
1.03125
 40
1.03125
 10
214.7015755933514
 20
126.3546119933164
 30
0.0
 10
214.369487955479
 20
126.3546119933164
 30
0.0
 10
214.2063912249019
 20
126.3380383492609
 30
0.0
 10
213.8857949199935
 20
126.2735497784324
 30
0.0
 10
213.726592716687
 20
126.2248057529739
 30
0.0
 10
213.4242822149729
 20
126.099228209404
 30
0.0
 10
213.2810306407285
 20
126.0228538810832
 30
0.0
 10
213.0099197996613
 20
125.8442700906538
 30
0.0
 10
212.8822378045325
 20
125.7416681661673
 30
0.0
 10
212.5382377163173
 20
125.4092312438248
 30
0.0
 10
212.352236087733
 20
125.1459749025283
 30
0.0
 10
212.1647495745513
 20
124.7314305762194
 30
0.0
 10
212.1162776297992
 20
124.5876736642415
 30
0.0
 10
212.0517156503855
 20
124.2990581967734
 30
0.0
 10
212.0356371501655
 20
124.1558487757332
 30
0.0
 10
212.0354274212519
 20
123.8718259354947
 30
0.0
 10
212.0518589686628
 20
123.7298599311167
 30
0.0
 10
212.1160276588151
 20
123.4603501428225
 30
0.0
 10
212.1634966216066
 20
123.3314321339203
 30
0.0
 10
212.3526201055608
 20
122.9612391613779
 30
0.0
 10
212.5367599979269
 20
122.7460668262673
 30
0.0
 10
212.8834955817309
 20
122.4805630123791
 30
0.0
 10
213.0088125378826
 20
122.4029516984288
 30
0.0
 10
213.2788720406826
 20
122.267687839096
 30
0.0
 10
213.4252454165637
 20
122.2097176683353
 30
0.0
 10
213.7266633196173
 20
122.1178377926909
 30
0.0
 10
213.8825154810563
 20
122.0832401368707
 30
0.0
 10
214.2048585423726
 20
122.0363785198568
 30
0.0
 10
214.3708100094421
 20
122.0245362059246
 30
0.0
 10
214.8617313769933
 20
122.0243830174553
 30
0.0
 10
215.1922143640961
 20
122.0716352902655
 30
0.0
 10
215.6441238616947
 20
122.2091081488582
 30
0.0
 10
215.7904210790739
 20
122.2669024537224
 30
0.0
 10
216.0613046416303
 20
122.4023773412712
 30
0.0
 10
216.1866611637882
 20
122.4799861470803
 30
0.0
 10
216.4174388052773
 20
122.6564642827205
 30
0.0
 10
216.5222266853474
 20
122.7553484447613
 30
0.0
 10
216.7028903095295
 20
122.9678061850588
 30
0.0
 10
216.7800788067248
 20
123.08227930689
 30
0.0
 10
216.906942211016
 20
123.3298213565833
 30
0.0
 10
216.9546035649484
 20
123.4591284021461
 30
0.0
 10
217.0188339320109
 20
123.727716563279
 30
0.0
 10
217.0354671458901
 20
123.868862106778
 30
0.0
 10
217.0355960209015
 20
124.1543504298197
 30
0.0
 10
217.0195150417726
 20
124.2976164176431
 30
0.0
 10
216.9555476293042
 20
124.5849531412873
 30
0.0
 10
216.9069835790606
 20
124.7297214610179
 30
0.0
 10
216.719252737018
 20
125.1454885407297
 30
0.0
 10
216.5333068995224
 20
125.4086164663817
 30
0.0
 10
216.189531677418
 20
125.7410605936405
 30
0.0
 10
216.0623563730504
 20
125.8433862493636
 30
0.0
 10
215.7907139637759
 20
126.0224897432257
 30
0.0
 10
215.6475547928287
 20
126.0988042911082
 30
0.0
 10
215.3464278502909
 20
126.2240945250026
 30
0.0
 10
215.1869116215994
 20
126.2731501263167
 30
0.0
 10
214.8650457293676
 20
126.3380319670476
 30
0.0
 10
214.7015755933514
 20
126.3546119933164
 30
0.0
 10
214.369487955479
 20
126.3546119933164
 30
0.0
  0
SPLINE
  5
106
330
1F
100
AcDbEntity
  8
0
  6
HIDDEN
 62
     7
370
     0
100
AcDbSpline
210
0.0
220
0.0
230
1.0
 70
     8
 71
     3
 72
    12
 73
     8
 74
     0
 42
0.00000001
 43
0.00000001
 12
1.0
 22
0.0
 32
0.0
 13
1.0
 23
0.0
 33
0.0
 40
0.0
 40
0.0
 40
0.0
 40
0.0
 40
0.4999999999999998
 40
0.4999999999999998
 40
0.7499999999999999
 40
0.7499999999999999
 40
1.0
 40
1.0
 40
1.0
 40
1.0
 10
216.4303937915316
 20
120.0921159428701
 30
0.0
 10
216.3710488705106
 20
120.362800832631
 30
0.0
 10
216.3363452453219
 20
120.6065529756409
 30
0.0
 10
216.3683965459199
 20
120.9056330638163
 30
0.0
 10
216.3924735885502
 20
120.9922427523705
 30
0.0
 10
216.4581781798465
 20
121.1391256264488
 30
0.0
 10
216.4995830105125
 20
121.2002124581773
 30
0.0
 10
216.5442414916616
 20
121.2513443693658
 30
0.0
  0
SPLINE
  5
107
330
1F
100
AcDbEntity
  8
0
  6
HIDDEN
 62
     7
370
     0
100
AcDbSpline
210
0.0
220
0.0
230
1.0
 70
     8
 71
     3
 72
    62
 73
    58
 74
     0
 42
0.00000001
 43
0.00000001
 12
1.0
 22
0.0
 32
0.0
 13
1.0
 23
0.0
 33
0.0
 40
0.0
 40
0.0
 40
0.0
 40
0.0
 40
0.0312500000000005
 40
0.0312500000000005
 40
0.0625000000000009
 40
0.0625000000000009
 40
0.0937500000000015
 40
0.0937500000000015
 40
0.125000000000002
 40
0.125000000000002
 40
0.1562500000000026
 40
0.1562500000000026
 40
0.1875000000000031
 40
0.1875000000000031
 40
0.2187500000000037
 40
0.2187500000000037
 40
0.2500000000000042
 40
0.2500000000000042
 40
0.3125000000000051
 40
0.3125000000000051
 40
0.3437500000000055
 40
0.3437500000000055
 40
0.375000000000006
 40
0.375000000000006
 40
0.4375000000000064
 40
0.4375000000000064
 40
0.4687500000000063
 40
0.4687500000000063
 40
0.4843750000000063
 40
0.4843750000000063
 40
0.5000000000000062
 40
0.5000000000000062
 40
0.5312500000000058
 40
0.5312500000000058
 40
0.5625000000000053
 40
0.5625000000000053
 40
0.6250000000000049
 40
0.6250000000000049
 40
0.6562500000000044
 40
0.6562500000000044
 40
0.687500000000004
 40
0.687500000000004
 40
0.7187500000000036
 40
0.7187500000000036
 40
0.7500000000000031
 40
0.7500000000000031
 40
0.7812500000000028
 40
0.7812500000000028
 40
0.8125000000000023
 40
0.8125000000000023
 40
0.8750000000000014
 40
0.8750000000000014
 40
0.9375000000000007
 40
0.9375000000000007
 40
0.9687500000000003
 40
0.9687500000000003
 40
1.0
 40
1.0
 40
1.0
 40
1.0
 10
216.5442414916618
 20
121.2513443693658
 30
0.0
 10
216.6373666153647
 20
121.1627701138324
 30
0.0
 10
216.713599598328
 20
121.0813011068308
 30
0.0
 10
216.8420127923397
 20
120.9186550562161
 30
0.0
 10
216.8941757619401
 20
120.8372578642897
 30
0.0
 10
216.974920883369
 20
120.6692764513555
 30
0.0
 10
217.0031216846862
 20
120.5837540748361
 30
0.0
 10
217.0356809690983
 20
120.404629272245
 30
0.0
 10
217.0398973737061
 20
120.3101782113642
 30
0.0
 10
217.0216961523533
 20
120.1137552046859
 30
0.0
 10
216.9995811925446
 20
120.0121228336245
 30
0.0
 10
216.9263786348312
 20
119.7989291852578
 30
0.0
 10
216.874761327127
 20
119.6871469712727
 30
0.0
 10
216.7441827551027
 20
119.4621582178365
 30
0.0
 10
216.6633899465115
 20
119.3459174884255
 30
0.0
 10
216.4784005453187
 20
119.1172846286793
 30
0.0
 10
216.3750554463833
 20
119.005370778282
 30
0.0
 10
216.0339755306458
 20
118.6751117122454
 30
0.0
 10
215.7761613725002
 20
118.4742923455515
 30
0.0
 10
215.3945834919528
 20
118.2144449977233
 30
0.0
 10
215.2669862962445
 20
118.1336989543161
 30
0.0
 10
215.0188776542228
 20
117.984098600842
 30
0.0
 10
214.8993331084758
 20
117.9157895164146
 30
0.0
 10
214.5564484594275
 20
117.7225650461719
 30
0.0
 10
214.3439836398599
 20
117.6108897521739
 30
0.0
 10
214.1143949502897
 20
117.4291747387754
 30
0.0
 10
214.0533586704351
 20
117.3648104900626
 30
0.0
 10
214.0042030195173
 20
117.2567954214241
 30
0.0
 10
213.9947669862979
 20
117.2182222951388
 30
0.0
 10
213.9917096499619
 20
117.1390410811742
 30
0.0
 10
213.997818585092
 20
117.0982602279311
 30
0.0
 10
214.0368460191669
 20
116.9730998308448
 30
0.0
 10
214.090361912969
 20
116.8871269309697
 30
0.0
 10
214.2265478081796
 20
116.7259068071108
 30
0.0
 10
214.3105919788914
 20
116.6487321075853
 30
0.0
 10
214.5858393236299
 20
116.4415311662714
 30
0.0
 10
214.80118858779
 20
116.3323634420449
 30
0.0
 10
215.1526684391389
 20
116.2352950922873
 30
0.0
 10
215.2726747504824
 20
116.2148279976761
 30
0.0
 10
215.5173216000669
 20
116.2020603134811
 30
0.0
 10
215.6434693598127
 20
116.2100610017659
 30
0.0
 10
215.8917661097425
 20
116.2608433606001
 30
0.0
 10
216.0136182872076
 20
116.3030854913122
 30
0.0
 10
216.2506343052769
 20
116.4281306264794
 30
0.0
 10
216.3616529086745
 20
116.5091207346519
 30
0.0
 10
216.5628417340726
 20
116.7062215424198
 30
0.0
 10
216.6542771215249
 20
116.8245824701587
 30
0.0
 10
216.8056227883593
 20
117.0828468265959
 30
0.0
 10
216.867748983791
 20
117.2257862985912
 30
0.0
 10
217.00886842836
 20
117.6721286578894
 30
0.0
 10
217.0443837045129
 20
117.9949182431216
 30
0.0
 10
217.0229749583406
 20
118.6278543463931
 30
0.0
 10
216.9666789021146
 20
118.9467174738968
 30
0.0
 10
216.8203506626744
 20
119.3988724915042
 30
0.0
 10
216.7610923755601
 20
119.5461994621463
 30
0.0
 10
216.6155931158337
 20
119.8325538073411
 30
0.0
 10
216.5312469759398
 20
119.9680726403786
 30
0.0
 10
216.4303937915315
 20
120.0921159428703
 30
0.0
  0
LINE
  5
108
330
1F
100
AcDbEntity
  8
0
  6
HIDDEN
 62
     7
370
     0
100
AcDbLine
 10
193.3355317744
 20
106.4528581121
 30
0.0
 11
193.3355317744
 21
121.4905652746
 31
0.0
  0
LINE
  5
109
330
1F
100
AcDbEntity
  8
0
  6
HIDDEN
 62
     7
370
     0
100
AcDbLine
 10
193.3355317744
 20
135.5343399261
 30
0.0
 11
193.3355317744
 21
150.5720470885
 31
0.0
  0
LWPOLYLINE
  5
10A
330
1F
100
AcDbEntity
  8
0
  6
HIDDEN
 62
     7
370
     0
100
AcDbPolyline
 90
        9
 70
   128
 43
0.0
 10
216.5442414917
 20
121.2513443694
 10
216.6335074143
 20
121.2158655725
 10
216.6940389086
 20
121.1450746015
 10
216.7247334789
 20
121.040260814
 10
216.7250320667
 20
120.9033332453
 10
216.6949292338
 20
120.7367858378
 10
216.6349732608
 20
120.5436520175
 10
216.5462561611
 20
120.3274494442
 10
216.4303937915
 20
120.0921159429
  0
CIRCLE
  5
10B
330
1F
100
AcDbEntity
  8
0
  6
HIDDEN
 62
     7
370
     0
100
AcDbCircle
 10
178.0355317744
 20
128.5124526003
 30
0.0
 40
4.050000000000011
  0
LINE
  5
10C
330
1F
100
AcDbEntity
  8
0
  6
HIDDEN
 62
     7
370
     0
100
AcDbLine
 10
157.0657602141
 20
143.8254036432
 30
0.0
 11
157.0657602141
 21
113.1995015574
 31
0.0
  0
LINE
  5
10D
330
1F
100
AcDbEntity
  8
0
  6
HIDDEN
 62
     7
370
     0
100
AcDbLine
 10
155.5355317744
 20
112.3160237558
 30
0.0
 11
155.5355317744
 21
144.6899676897
 31
0.0
  0
LINE
  5
10E
330
1F
100
AcDbEntity
  8
0
  6
HIDDEN
 62
     7
370
     0
100
AcDbLine
 10
163.5657602141
 20
142.8588627618
 30
0.0
 11
163.5657602141
 21
114.1660424388
 31
0.0
  0
LINE
  5
10F
330
1F
100
AcDbEntity
  8
0
  6
HIDDEN
 62
     7
370
     0
100
AcDbLine
 10
169.3657602141
 20
142.5124526003
 30
0.0
 11
169.3657602141
 21
114.5124526003
 31
0.0
  0
LINE
  5
110
330
1F
100
AcDbEntity
  8
0
  6
HIDDEN
 62
     7
370
     0
100
AcDbLine
 10
161.9657602141
 20
142.5124526003
 30
0.0
 11
161.9657602141
 21
114.5124526003
 31
0.0
  0
LINE
  5
111
330
1F
100
AcDbEntity
  8
0
  6
HIDDEN
 62
     7
370
     0
100
AcDbLine
 10
162.9657602141
 20
142.5124526003
 30
0.0
 11
162.9657602141
 21
114.5124526003
 31
0.0
  0
SPLINE
  5
112
330
1F
100
AcDbEntity
  8
0
  6
HIDDEN
 62
     7
370
     0
100
AcDbSpline
210
0.0
220
0.0
230
1.0
 70
     8
 71
     3
 72
    10
 73
     6
 74
     0
 42
0.00000001
 43
0.00000001
 12
1.0
 22
0.0
 32
0.0
 13
1.0
 23
0.0
 33
0.0
 40
0.0
 40
0.0
 40
0.0
 40
0.0
 40
0.5
 40
0.5
 40
1.0
 40
1.0
 40
1.0
 40
1.0
 10
182.035531774415
 20
129.1468814773255
 30
0.0
 10
182.0686791924915
 20
128.9378908763174
 30
0.0
 10
182.0855380378531
 20
128.7263284102958
 30
0.0
 10
182.0855255075055
 20
128.2983396443282
 30
0.0
 10
182.0686105497651
 20
128.0865815399125
 30
0.0
 10
182.035531774415
 20
127.8780237232804
 30
0.0
  0
LINE
  5
113
330
1F
100
AcDbEntity
  8
0
  6
HIDDEN
 62
     7
370
     0
100
AcDbLine
 10
182.5355317744
 20
142.0124526003
 30
0.0
 11
182.5355317744
 21
115.0124526003
 31
0.0
  0
SPLINE
  5
114
330
1F
100
AcDbEntity
  8
0
  6
HIDDEN
 62
     7
370
     0
100
AcDbSpline
210
0.0
220
0.0
230
1.0
 70
     8
 71
     3
 72
    10
 73
     6
 74
     0
 42
0.00000001
 43
0.00000001
 12
1.0
 22
0.0
 32
0.0
 13
1.0
 23
0.0
 33
0.0
 40
0.0
 40
0.0
 40
0.0
 40
0.0
 40
0.5
 40
0.5
 40
1.0
 40
1.0
 40
1.0
 40
1.0
 10
182.035531774415
 20
127.8780237232804
 30
0.0
 10
182.0687207368887
 20
128.0872762568629
 30
0.0
 10
182.0854215131434
 20
128.2980930177618
 30
0.0
 10
182.085640953588
 20
128.7226252989651
 30
0.0
 10
182.0687612381946
 20
128.9373735877377
 30
0.0
 10
182.035531774415
 20
129.1468814773255
 30
0.0
  0
SPLINE
  5
115
330
1F
100
AcDbEntity
  8
0
  6
HIDDEN
 62
     7
370
     0
100
AcDbSpline
210
0.0
220
0.0
230
1.0
 70
     8
 71
     3
 72
    68
 73
    64
 74
     0
 42
0.00000001
 43
0.00000001
 12
1.0
 22
0.0
 32
0.0
 13
1.0
 23
0.0
 33
0.0
 40
0.0
 40
0.0
 40
0.0
 40
0.0
 40
0.0312500000000003
 40
0.0312500000000003
 40
0.0625000000000005
 40
0.0625000000000005
 40
0.0937500000000007
 40
0.0937500000000007
 40
0.1250000000000009
 40
0.1250000000000009
 40
0.1562500000000011
 40
0.1562500000000011
 40
0.1875000000000013
 40
0.1875000000000013
 40
0.2187500000000016
 40
0.2187500000000016
 40
0.2500000000000018
 40
0.2500000000000018
 40
0.2812500000000018
 40
0.2812500000000018
 40
0.3125000000000018
 40
0.3125000000000018
 40
0.3437500000000019
 40
0.3437500000000019
 40
0.3750000000000019
 40
0.3750000000000019
 40
0.4062500000000019
 40
0.4062500000000019
 40
0.4375000000000019
 40
0.4375000000000019
 40
0.4687500000000019
 40
0.4687500000000019
 40
0.5000000000000019
 40
0.5000000000000019
 40
0.562500000000002
 40
0.562500000000002
 40
0.5937500000000019
 40
0.5937500000000019
 40
0.6250000000000018
 40
0.6250000000000018
 40
0.6562500000000018
 40
0.6562500000000018
 40
0.6875000000000017
 40
0.6875000000000017
 40
0.7187500000000016
 40
0.7187500000000016
 40
0.7500000000000014
 40
0.7500000000000014
 40
0.7812500000000013
 40
0.7812500000000013
 40
0.8125000000000011
 40
0.8125000000000011
 40
0.8437500000000009
 40
0.8437500000000009
 40
0.8750000000000008
 40
0.8750000000000008
 40
0.9062500000000006
 40
0.9062500000000006
 40
0.9375000000000003
 40
0.9375000000000003
 40
0.9687500000000002
 40
0.9687500000000002
 40
1.0
 40
1.0
 40
1.0
 40
1.0
 10
182.035531774415
 20
127.8780237232804
 30
0.0
 10
181.9955168220653
 20
127.6257341204648
 30
0.0
 10
181.932575020654
 20
127.381735270089
 30
0.0
 10
181.763188358582
 20
126.9093168810265
 30
0.0
 10
181.6554947959965
 20
126.6789034948665
 30
0.0
 10
181.4002100274586
 20
126.2441988990694
 30
0.0
 10
181.2541707969864
 20
126.0415569324181
 30
0.0
 10
180.9259493604271
 20
125.6645676416603
 30
0.0
 10
180.7417020726521
 20
125.4889096880829
 30
0.0
 10
180.3487419053438
 20
125.1786517191367
 30
0.0
 10
180.1394473083847
 20
125.0427065114868
 30
0.0
 10
179.6945618814473
 20
124.8093164160809
 30
0.0
 10
179.4577642889483
 20
124.7120698096665
 30
0.0
 10
178.977029220029
 20
124.5653983517952
 30
0.0
 10
178.7307861268462
 20
124.5145060068528
 30
0.0
 10
178.2260693468668
 20
124.4589786566173
 30
0.0
 10
177.9698746459303
 20
124.4551537695473
 30
0.0
 10
177.4674958967302
 20
124.4945775521917
 30
0.0
 10
177.2182461975466
 20
124.537605001403
 30
0.0
 10
176.7267184000679
 20
124.6713099708543
 30
0.0
 10
176.491422798842
 20
124.7599798167595
 30
0.0
 10
176.0405089041799
 20
124.9790111805369
 30
0.0
 10
175.8228965537165
 20
125.1110127462204
 30
0.0
 10
175.4196893841682
 20
125.4103700272233
 30
0.0
 10
175.2340778917338
 20
125.5769889546612
 30
0.0
 10
174.8940898213313
 20
125.9441003800887
 30
0.0
 10
174.7390168905084
 20
126.1464041256294
 30
0.0
 10
174.472673813845
 20
126.5704848052234
 30
0.0
 10
174.3596897131283
 20
126.7936444106896
 30
0.0
 10
174.1748344561974
 20
127.2629996522838
 30
0.0
 10
174.103693694694
 20
127.5092101556193
 30
0.0
 10
174.0097332834058
 20
128.0037359819904
 30
0.0
 10
173.9857239534494
 20
128.2546669770824
 30
0.0
 10
173.9851508327768
 20
129.0189123566387
 30
0.0
 10
174.0805499440955
 20
129.5211366586896
 30
0.0
 10
174.3584137362966
 20
130.228701164962
 30
0.0
 10
174.4715756923771
 20
130.4524074287028
 30
0.0
 10
174.737706874421
 20
130.8766773400234
 30
0.0
 10
174.8925346486207
 20
131.0789293020794
 30
0.0
 10
175.2327157544086
 20
131.4466400434476
 30
0.0
 10
175.4182182113583
 20
131.613256918697
 30
0.0
 10
175.8205120124176
 20
131.9123062974924
 30
0.0
 10
176.0385200606696
 20
132.0447630055208
 30
0.0
 10
176.4891184278199
 20
132.2639694062255
 30
0.0
 10
176.7236674267006
 20
132.3524545362291
 30
0.0
 10
177.212127420253
 20
132.4859407661678
 30
0.0
 10
177.4643928159668
 20
132.5298824786615
 30
0.0
 10
177.9665734541271
 20
132.569691475135
 30
0.0
 10
178.2190555714788
 20
132.5663472623215
 30
0.0
 10
178.7269206145483
 20
132.511167942331
 30
0.0
 10
178.9744660877321
 20
132.4601220138616
 30
0.0
 10
179.4554336252028
 20
132.313711625626
 30
0.0
 10
179.6913934903081
 20
132.2170654208524
 30
0.0
 10
180.1379639398297
 20
131.9831604765394
 30
0.0
 10
180.3476088024032
 20
131.8470354627129
 30
0.0
 10
180.7405955091576
 20
131.5369811983838
 30
0.0
 10
180.9249914129726
 20
131.3613239508087
 30
0.0
 10
181.253541830833
 20
130.9841840281442
 30
0.0
 10
181.3994839273562
 20
130.7817178228744
 30
0.0
 10
181.6543692825583
 20
130.348141524741
 30
0.0
 10
181.7626805953667
 20
130.1168496811595
 30
0.0
 10
181.9325155727836
 20
129.6434900010263
 30
0.0
 10
181.9955109339207
 20
129.3992082042055
 30
0.0
 10
182.035531774415
 20
129.1468814773255
 30
0.0
  0
SPLINE
  5
116
330
1F
100
AcDbEntity
  8
0
  6
HIDDEN
 62
     7
370
     0
100
AcDbSpline
210
0.0
220
0.0
230
1.0
 70
     8
 71
     3
 72
    68
 73
    64
 74
     0
 42
0.00000001
 43
0.00000001
 12
1.0
 22
0.0
 32
0.0
 13
1.0
 23
0.0
 33
0.0
 40
0.0
 40
0.0
 40
0.0
 40
0.0
 40
0.0312500000000003
 40
0.0312500000000003
 40
0.0625000000000005
 40
0.0625000000000005
 40
0.0937500000000007
 40
0.0937500000000007
 40
0.1250000000000009
 40
0.1250000000000009
 40
0.1562500000000011
 40
0.1562500000000011
 40
0.1875000000000013
 40
0.1875000000000013
 40
0.2187500000000016
 40
0.2187500000000016
 40
0.2500000000000018
 40
0.2500000000000018
 40
0.2812500000000018
 40
0.2812500000000018
 40
0.3125000000000018
 40
0.3125000000000018
 40
0.3437500000000019
 40
0.3437500000000019
 40
0.3750000000000019
 40
0.3750000000000019
 40
0.4062500000000019
 40
0.4062500000000019
 40
0.4375000000000019
 40
0.4375000000000019
 40
0.4687500000000019
 40
0.4687500000000019
 40
0.5000000000000019
 40
0.5000000000000019
 40
0.562500000000002
 40
0.562500000000002
 40
0.5937500000000019
 40
0.5937500000000019
 40
0.6250000000000018
 40
0.6250000000000018
 40
0.6562500000000018
 40
0.6562500000000018
 40
0.6875000000000017
 40
0.6875000000000017
 40
0.7187500000000016
 40
0.7187500000000016
 40
0.7500000000000014
 40
0.7500000000000014
 40
0.7812500000000013
 40
0.7812500000000013
 40
0.8125000000000011
 40
0.8125000000000011
 40
0.8437500000000009
 40
0.8437500000000009
 40
0.8750000000000008
 40
0.8750000000000008
 40
0.9062500000000006
 40
0.9062500000000006
 40
0.9375000000000003
 40
0.9375000000000003
 40
0.9687500000000002
 40
0.9687500000000002
 40
1.0
 40
1.0
 40
1.0
 40
1.0
 10
182.035531774415
 20
129.1468814773255
 30
0.0
 10
181.9955168220653
 20
129.399171080141
 30
0.0
 10
181.932575020654
 20
129.6431699305168
 30
0.0
 10
181.763188358582
 20
130.1155883195793
 30
0.0
 10
181.6554947959965
 20
130.3460017057393
 30
0.0
 10
181.4002100274586
 20
130.7807063015364
 30
0.0
 10
181.2541707969864
 20
130.9833482681877
 30
0.0
 10
180.9259493604271
 20
131.3603375589455
 30
0.0
 10
180.7417020726521
 20
131.5359955125229
 30
0.0
 10
180.3487419053438
 20
131.8462534814691
 30
0.0
 10
180.1394473083847
 20
131.9821986891191
 30
0.0
 10
179.6945618814473
 20
132.2155887845249
 30
0.0
 10
179.4577642889483
 20
132.3128353909393
 30
0.0
 10
178.977029220029
 20
132.4595068488107
 30
0.0
 10
178.7307861268462
 20
132.5103991937531
 30
0.0
 10
178.2260693468668
 20
132.5659265439886
 30
0.0
 10
177.9698746459303
 20
132.5697514310585
 30
0.0
 10
177.4674958967302
 20
132.5303276484141
 30
0.0
 10
177.2182461975466
 20
132.4873001992028
 30
0.0
 10
176.7267184000679
 20
132.3535952297515
 30
0.0
 10
176.491422798842
 20
132.2649253838464
 30
0.0
 10
176.0405089041799
 20
132.0458940200689
 30
0.0
 10
175.8228965537165
 20
131.9138924543854
 30
0.0
 10
175.4196893841682
 20
131.6145351733825
 30
0.0
 10
175.2340778917338
 20
131.4479162459446
 30
0.0
 10
174.8940898213313
 20
131.0808048205172
 30
0.0
 10
174.7390168905084
 20
130.8785010749764
 30
0.0
 10
174.472673813845
 20
130.4544203953824
 30
0.0
 10
174.3596897131283
 20
130.2312607899162
 30
0.0
 10
174.1748344561974
 20
129.7619055483221
 30
0.0
 10
174.103693694694
 20
129.5156950449866
 30
0.0
 10
174.0097332834058
 20
129.0211692186154
 30
0.0
 10
173.9857239534494
 20
128.7702382235234
 30
0.0
 10
173.9851508327768
 20
128.0059928439672
 30
0.0
 10
174.0805499440955
 20
127.5037685419162
 30
0.0
 10
174.3584137362966
 20
126.7962040356438
 30
0.0
 10
174.4715756923771
 20
126.572497771903
 30
0.0
 10
174.737706874421
 20
126.1482278605824
 30
0.0
 10
174.8925346486207
 20
125.9459758985264
 30
0.0
 10
175.2327157544086
 20
125.5782651571582
 30
0.0
 10
175.4182182113583
 20
125.4116482819088
 30
0.0
 10
175.8205120124176
 20
125.1125989031134
 30
0.0
 10
176.0385200606696
 20
124.980142195085
 30
0.0
 10
176.4891184278199
 20
124.7609357943803
 30
0.0
 10
176.7236674267006
 20
124.6724506643767
 30
0.0
 10
177.212127420253
 20
124.5389644344381
 30
0.0
 10
177.4643928159668
 20
124.4950227219443
 30
0.0
 10
177.9665734541271
 20
124.4552137254708
 30
0.0
 10
178.2190555714788
 20
124.4585579382843
 30
0.0
 10
178.7269206145483
 20
124.5137372582748
 30
0.0
 10
178.9744660877321
 20
124.5647831867442
 30
0.0
 10
179.4554336252028
 20
124.7111935749798
 30
0.0
 10
179.6913934903081
 20
124.8078397797534
 30
0.0
 10
180.1379639398297
 20
125.0417447240665
 30
0.0
 10
180.3476088024032
 20
125.177869737893
 30
0.0
 10
180.7405955091576
 20
125.4879240022221
 30
0.0
 10
180.9249914129726
 20
125.6635812497972
 30
0.0
 10
181.253541830833
 20
126.0407211724616
 30
0.0
 10
181.3994839273562
 20
126.2431873777315
 30
0.0
 10
181.6543692825583
 20
126.6767636758648
 30
0.0
 10
181.7626805953667
 20
126.9080555194463
 30
0.0
 10
181.9325155727836
 20
127.3814151995796
 30
0.0
 10
181.9955109339207
 20
127.6256969964003
 30
0.0
 10
182.035531774415
 20
127.8780237232804
 30
0.0
  0
LINE
  5
117
330
1F
100
AcDbEntity
  8
0
  6
HIDDEN
 62
     7
370
     0
100
AcDbLine
 10
183.7855317744
 20
137.5124526003
 30
0.0
 11
183.7855317744
 21
119.5124526003
 31
0.0
  0
LINE
  5
118
330
1F
100
AcDbEntity
  8
0
  6
HIDDEN
 62
     7
370
     0
100
AcDbLine
 10
182.5355317744
 20
118.2624526003
 30
0.0
 11
182.5355317744
 21
138.7624526003
 31
0.0
  0
LINE
  5
119
330
1F
100
AcDbEntity
  8
0
  6
HIDDEN
 62
     7
370
     0
100
AcDbLine
 10
220.5355317744
 20
119.5124526003
 30
0.0
 11
220.5355317744
 21
137.5124526003
 31
0.0
  0
SPLINE
  5
11A
330
1F
100
AcDbEntity
  8
0
  6
HIDDEN
 62
     7
370
     0
100
AcDbSpline
210
0.0
220
0.0
230
1.0
 70
     8
 71
     3
 72
    10
 73
     6
 74
     0
 42
0.00000001
 43
0.00000001
 12
1.0
 22
0.0
 32
0.0
 13
1.0
 23
0.0
 33
0.0
 40
0.0
 40
0.0
 40
0.0
 40
0.0
 40
0.5000000000000001
 40
0.5000000000000001
 40
1.0
 40
1.0
 40
1.0
 40
1.0
 10
231.7341306127251
 20
124.5762425746
 30
0.0
 10
231.7127649661425
 20
125.2293675113601
 30
0.0
 10
231.6861977914941
 20
125.8865883907713
 30
0.0
 10
231.6467446034018
 20
127.1993919657475
 30
0.0
 10
231.6342301902205
 20
127.8559829817852
 30
0.0
 10
231.6342301902205
 20
128.5124526003029
 30
0.0
  0
LINE
  5
11B
330
1F
100
AcDbEntity
  8
0
  6
HIDDEN
 62
     7
370
     0
100
AcDbLine
 10
231.6342301902
 20
149.8209060563
 30
0.0
 11
231.6342301902
 21
128.5124526003
 31
0.0
  0
SPLINE
  5
11C
330
1F
100
AcDbEntity
  8
0
  6
HIDDEN
 62
     7
370
     0
100
AcDbSpline
210
0.0
220
0.0
230
1.0
 70
     8
 71
     3
 72
    14
 73
    10
 74
     0
 42
0.00000001
 43
0.00000001
 12
1.0
 22
0.0
 32
0.0
 13
1.0
 23
0.0
 33
0.0
 40
0.0
 40
0.0
 40
0.0
 40
0.0
 40
0.25
 40
0.25
 40
0.5
 40
0.5
 40
0.75
 40
0.75
 40
1.0
 40
1.0
 40
1.0
 40
1.0
 10
231.7341306127251
 20
96.27159654978551
 30
0.0
 10
231.7140801058626
 20
96.34923801802611
 30
0.0
 10
231.6898387856929
 20
96.42698706311509
 30
0.0
 10
231.6539550098876
 20
96.5820447790195
 30
0.0
 10
231.6426682128028
 20
96.6593266567983
 30
0.0
 10
231.6426773588154
 20
96.81311367253339
 30
0.0
 10
231.6539706087736
 20
96.8896218407909
 30
0.0
 10
231.689847402431
 20
97.04213260162298
 30
0.0
 10
231.7140840091078
 20
97.11813376273734
 30
0.0
 10
231.7341306127251
 20
97.1942712953233
 30
0.0
  0
SPLINE
  5
11D
330
1F
100
AcDbEntity
  8
0
  6
HIDDEN
 62
     7
370
     0
100
AcDbSpline
210
0.0
220
0.0
230
1.0
 70
     8
 71
     3
 72
    12
 73
     8
 74
     0
 42
0.00000001
 43
0.00000001
 12
1.0
 22
0.0
 32
0.0
 13
1.0
 23
0.0
 33
0.0
 40
0.0
 40
0.0
 40
0.0
 40
0.0
 40
0.2500000000000007
 40
0.2500000000000007
 40
0.5000000000000013
 40
0.5000000000000013
 40
1.0
 40
1.0
 40
1.0
 40
1.0
 10
231.6342301902208
 20
149.8209060563104
 30
0.0
 10
231.5837821908062
 20
149.9409644729568
 30
0.0
 10
231.525089984291
 20
150.0711276521454
 30
0.0
 10
231.3973358031091
 20
150.3441640314512
 30
0.0
 10
231.3280059870509
 20
150.4874665924276
 30
0.0
 10
231.1085776828529
 20
150.9302340278291
 30
0.0
 10
230.947992478795
 20
151.2417702144448
 30
0.0
 10
230.7682047864365
 20
151.5752728071951
 30
0.0
  0
LINE
  5
11E
330
1F
100
AcDbEntity
  8
0
  6
HIDDEN
 62
     7
370
     0
100
AcDbLine
 10
231.7345013988
 20
96.270162911
 30
0.0
 11
231.7341306127
 21
96.2715965498
 31
0.0
  0
LINE
  5
11F
330
1F
100
AcDbEntity
  8
0
  6
HIDDEN
 62
     7
370
     0
100
AcDbLine
 10
257.7238056076
 20
94.8862951232
 30
0.0
 11
257.721452181
 21
94.9312011781
 31
0.0
  0
LINE
  5
120
330
1F
100
AcDbEntity
  8
0
  6
HIDDEN
 62
     7
370
     0
100
AcDbLine
 10
251.2860021983
 20
98.9090811674
 30
0.0
 11
257.7238056076
 21
94.8862951232
 31
0.0
  0
LINE
  5
121
330
1F
100
AcDbEntity
  8
0
  6
HIDDEN
 62
     7
370
     0
100
AcDbLine
 10
251.2836487717
 20
98.9539872223
 30
0.0
 11
251.2860021983
 21
98.9090811674
 31
0.0
  0
LINE
  5
122
330
1F
100
AcDbEntity
  8
0
  6
HIDDEN
 62
     7
370
     0
100
AcDbLine
 10
248.7310665851
 20
89.7098448079
 30
0.0
 11
248.1738056251
 21
100.3430173569
 31
0.0
  0
LINE
  5
123
330
1F
100
AcDbEntity
  8
0
  6
HIDDEN
 62
     7
370
     0
100
AcDbLine
 10
248.6929318284
 20
89.7336740486
 30
0.0
 11
248.7310665851
 21
89.7098448079
 31
0.0
  0
LINE
  5
124
330
1F
100
AcDbEntity
  8
0
  6
HIDDEN
 62
     7
370
     0
100
AcDbLine
 10
252.6081786333
 20
118.1274029978
 30
0.0
 11
256.436703322
 21
119.4456697663
 31
0.0
  0
LINE
  5
125
330
1F
100
AcDbEntity
  8
0
  6
HIDDEN
 62
     7
370
     0
100
AcDbLine
 10
251.2860021983
 20
98.9090811674
 30
0.0
 11
251.0271839105
 21
98.7566255447
 31
0.0
  0
LINE
  5
126
330
1F
100
AcDbEntity
  8
0
  6
HIDDEN
 62
     7
370
     0
100
AcDbLine
 10
257.4649873198
 20
94.7338395006
 30
0.0
 11
251.0271839105
 21
98.7566255447
 31
0.0
  0
LINE
  5
127
330
1F
100
AcDbEntity
  8
0
  6
HIDDEN
 62
     7
370
     0
100
AcDbLine
 10
257.4649873198
 20
94.7338395006
 30
0.0
 11
257.7238056076
 21
94.8862951232
 31
0.0
  0
LINE
  5
128
330
1F
100
AcDbEntity
  8
0
  6
HIDDEN
 62
     7
370
     0
100
AcDbLine
 10
251.0078073647
 20
99.1263520635
 30
0.0
 11
251.0271839105
 21
98.7566255447
 31
0.0
  0
LINE
  5
129
330
1F
100
AcDbEntity
  8
0
  6
HIDDEN
 62
     7
370
     0
100
AcDbLine
 10
248.4283032442
 20
100.577916249
 30
0.0
 11
248.9924715683
 21
89.8129433426
 31
0.0
  0
LINE
  5
12A
330
1F
100
AcDbEntity
  8
0
  6
HIDDEN
 62
     7
370
     0
100
AcDbLine
 10
248.7310665851
 20
89.7098448079
 30
0.0
 11
248.9924715683
 21
89.8129433426
 31
0.0
  0
LINE
  5
12B
330
1F
100
AcDbEntity
  8
0
  6
HIDDEN
 62
     7
370
     0
100
AcDbLine
 10
257.2743135362
 20
94.8529857042
 30
0.0
 11
257.4649873198
 21
94.7338395006
 31
0.0
  0
LINE
  5
12C
330
1F
100
AcDbEntity
  8
0
  6
HIDDEN
 62
     7
370
     0
100
AcDbLine
 10
248.9924715683
 20
89.8129433426
 30
0.0
 11
248.9824924735
 21
90.0033558145
 31
0.0
  0
LINE
  5
12D
330
1F
100
AcDbEntity
  8
0
  6
HIDDEN
 62
     7
370
     0
100
AcDbLine
 10
256.0273140048
 20
86.8460895161
 30
0.0
 11
257.3835001136
 21
84.753823615
 31
0.0
  0
LINE
  5
12E
330
1F
100
AcDbEntity
  8
0
  6
HIDDEN
 62
     7
370
     0
100
AcDbLine
 10
257.7910641503
 20
84.9927966021
 30
0.0
 11
256.3333538683
 21
87.2416896537
 31
0.0
  0
CIRCLE
  5
12F
330
1F
100
AcDbEntity
  8
0
  6
HIDDEN
 62
     7
370
     0
100
AcDbCircle
 10
253.2753252696
 20
92.1634459359
 30
0.0
 40
2.399999999999991
  0
LINE
  5
130
330
1F
100
AcDbEntity
  8
0
  6
HIDDEN
 62
     7
370
     0
100
AcDbLine
 10
257.3835001136
 20
84.753823615
 30
0.0
 11
257.7910641503
 21
84.9927966021
 31
0.0
  0
ARC
  5
131
330
1F
100
AcDbEntity
  8
0
  6
HIDDEN
 62
     7
370
     0
100
AcDbCircle
 10
249.6481514377
 20
101.1859793935
 30
0.0
 40
1.25000000000001
100
AcDbArc
 50
3.0
 51
183.0
  0
LINE
  5
132
330
1F
100
AcDbEntity
  8
0
  6
HIDDEN
 62
     7
370
     0
100
AcDbLine
 10
248.3998645192
 20
101.1205594482
 30
0.0
 11
248.9824924735
 21
90.0033558145
 31
0.0
  0
LINE
  5
133
330
1F
100
AcDbEntity
  8
0
  6
HIDDEN
 62
     7
370
     0
100
AcDbLine
 10
251.0271839105
 20
98.7566255447
 30
0.0
 11
250.8964383561
 21
101.2513993388
 31
0.0
  0
LINE
  5
134
330
1F
100
AcDbEntity
  8
0
  6
HIDDEN
 62
     7
370
     0
100
AcDbLine
 10
257.2743135362
 20
94.8529857042
 30
0.0
 11
251.0271839105
 21
98.7566255447
 31
0.0
  0
LINE
  5
135
330
1F
100
AcDbEntity
  8
0
  6
HIDDEN
 62
     7
370
     0
100
AcDbLine
 10
257.3835001136
 20
84.753823615
 30
0.0
 11
248.9824924735
 21
90.0033558145
 31
0.0
  0
LINE
  5
136
330
1F
100
AcDbEntity
  8
0
  6
HIDDEN
 62
     7
370
     0
100
AcDbLine
 10
257.2743135362
 20
94.8529857042
 30
0.0
 11
257.7910641503
 21
84.9927966021
 31
0.0
  0
CIRCLE
  5
137
330
1F
100
AcDbEntity
  8
0
  6
HIDDEN
 62
     7
370
     0
100
AcDbCircle
 10
253.2753252696
 20
92.1634459359
 30
0.0
 40
1.649999999999991
  0
LINE
  5
138
330
1F
100
AcDbEntity
  8
0
  6
HIDDEN
 62
     7
370
     0
100
AcDbLine
 10
157.0355317744
 20
113.4083997716
 30
0.0
 11
157.0355317744
 21
107.354089204
 31
0.0
  0
LINE
  5
139
330
1F
100
AcDbEntity
  8
0
  6
HIDDEN
 62
     7
370
     0
100
AcDbLine
 10
155.5355317744
 20
113.8414124735
 30
0.0
 11
155.5355317744
 21
108.2201146078
 31
0.0
  0
LINE
  5
13A
330
1F
100
AcDbEntity
  8
0
  6
HIDDEN
 62
     7
370
     0
100
AcDbLine
 10
191.3355317744
 20
112.9775320774
 30
0.0
 11
191.3355317744
 21
106.4923538157
 31
0.0
  0
SPLINE
  5
13B
330
1F
100
AcDbEntity
  8
0
  6
HIDDEN
 62
     7
370
     0
100
AcDbSpline
210
0.0
220
0.0
230
1.0
 70
     8
 71
     3
 72
    16
 73
    12
 74
     0
 42
0.00000001
 43
0.00000001
 12
1.0
 22
0.0
 32
0.0
 13
1.0
 23
0.0
 33
0.0
 40
0.0
 40
0.0
 40
0.0
 40
0.0
 40
0.2500000000000002
 40
0.2500000000000002
 40
0.3750000000000001
 40
0.3750000000000001
 40
0.5000000000000001
 40
0.5000000000000001
 40
0.75
 40
0.75
 40
1.0
 40
1.0
 40
1.0
 40
1.0
 10
192.2142114308554
 20
111.9285459740618
 30
0.0
 10
192.0529789533709
 20
111.2141518118697
 30
0.0
 10
191.9324991137312
 20
110.5608095491611
 30
0.0
 10
191.8101185964179
 20
109.6725543073572
 30
0.0
 10
191.7791409360205
 20
109.3918737710054
 30
0.0
 10
191.7375271983925
 20
108.8628397811654
 30
0.0
 10
191.7272912854597
 20
108.6195188025869
 30
0.0
 10
191.7271028884036
 20
107.9514961120737
 30
0.0
 10
191.7672475910412
 20
107.5878152026542
 30
0.0
 10
191.9314013459808
 20
107.0279243301059
 30
0.0
 10
192.0529529963904
 20
106.8404030379888
 30
0.0
 10
192.2142114308554
 20
106.7423716453008
 30
0.0
  0
LINE
  5
13C
330
1F
100
AcDbEntity
  8
0
  6
HIDDEN
 62
     7
370
     0
100
AcDbLine
 10
157.0355317744
 20
149.6708159966
 30
0.0
 11
157.0355317744
 21
143.616505429
 31
0.0
  0
LINE
  5
13D
330
1F
100
AcDbEntity
  8
0
  6
HIDDEN
 62
     7
370
     0
100
AcDbLine
 10
155.5355317744
 20
148.8047905928
 30
0.0
 11
155.5355317744
 21
143.1834927271
 31
0.0
  0
SPLINE
  5
13E
330
1F
100
AcDbEntity
  8
0
  6
HIDDEN
 62
     7
370
     0
100
AcDbSpline
210
0.0
220
0.0
230
1.0
 70
     8
 71
     3
 72
    16
 73
    12
 74
     0
 42
0.00000001
 43
0.00000001
 12
1.0
 22
0.0
 32
0.0
 13
1.0
 23
0.0
 33
0.0
 40
0.0
 40
0.0
 40
0.0
 40
0.0
 40
0.2500000000000002
 40
0.2500000000000002
 40
0.3750000000000003
 40
0.3750000000000003
 40
0.5000000000000004
 40
0.5000000000000004
 40
0.7500000000000002
 40
0.7500000000000002
 40
1.0
 40
1.0
 40
1.0
 40
1.0
 10
192.2142114308554
 20
150.282533555305
 30
0.0
 10
192.0529789533709
 20
150.1845179422503
 30
0.0
 10
191.9324991137313
 20
149.9977819105742
 30
0.0
 10
191.8101185964179
 20
149.5847421030153
 30
0.0
 10
191.7791409360205
 20
149.4247416037825
 30
0.0
 10
191.7375271983925
 20
149.0579359526913
 30
0.0
 10
191.7272912854597
 20
148.8545988000673
 30
0.0
 10
191.7271028884036
 20
148.1873115334406
 30
0.0
 10
191.7672475910412
 20
147.6664970695525
 30
0.0
 10
191.9314013459808
 20
146.4691380540748
 30
0.0
 10
192.0529529963904
 20
145.8108683997789
 30
0.0
 10
192.2142114308554
 20
145.096359226544
 30
0.0
  0
LINE
  5
13F
330
1F
100
AcDbEntity
  8
0
  6
HIDDEN
 62
     7
370
     0
100
AcDbLine
 10
191.3355317744
 20
150.5325513849
 30
0.0
 11
191.3355317744
 21
144.0473731232
 31
0.0
  0
SPLINE
  5
140
330
1F
100
AcDbEntity
  8
0
  6
HIDDEN
 62
     7
370
     0
100
AcDbSpline
210
0.0
220
0.0
230
1.0
 70
     8
 71
     3
 72
    10
 73
     6
 74
     0
 42
0.00000001
 43
0.00000001
 12
1.0
 22
0.0
 32
0.0
 13
1.0
 23
0.0
 33
0.0
 40
0.0
 40
0.0
 40
0.0
 40
0.0
 40
0.5
 40
0.5
 40
1.0
 40
1.0
 40
1.0
 40
1.0
 10
231.7341306127251
 20
97.1942712953233
 30
0.0
 10
231.8473522531457
 20
97.62429009060315
 30
0.0
 10
232.1204106480059
 20
98.04715809229347
 30
0.0
 10
232.9133894583139
 20
98.85745846678692
 30
0.0
 10
233.4311069169053
 20
99.2442423982548
 30
0.0
 10
234.027529978871
 20
99.5993163469713
 30
0.0
  0
CIRCLE
  5
141
330
1F
100
AcDbEntity
  8
0
  6
HIDDEN
 62
     7
370
     0
100
AcDbCircle
 10
253.2753252696
 20
92.1634459359
 30
0.0
 40
1.649999999999991
  0
SPLINE
  5
142
330
1F
100
AcDbEntity
  8
0
  6
HIDDEN
 62
     7
370
     0
100
AcDbSpline
210
0.0
220
0.0
230
1.0
 70
     8
 71
     3
 72
     8
 73
     4
 74
     0
 42
0.00000001
 43
0.00000001
 12
1.0
 22
0.0
 32
0.0
 13
1.0
 23
0.0
 33
0.0
 40
0.0
 40
0.0
 40
0.0
 40
0.0
 40
1.0
 40
1.0
 40
1.0
 40
1.0
 10
233.7230495705246
 20
105.0768568261402
 30
0.0
 10
233.8260782174868
 20
103.1554067783787
 30
0.0
 10
233.9275281466942
 20
101.3305803042656
 30
0.0
 10
234.027529978871
 20
99.5993163469713
 30
0.0
  0
ELLIPSE
  5
143
330
1F
100
AcDbEntity
  8
0
  6
HIDDEN
 62
     7
370
     0
100
AcDbEllipse
 10
325.6514398387
 20
122.5124526003
 30
0.0
 11
70.77969297932707
 21
39.1054101982312
 31
0.0
210
0.0
220
0.0
230
1.0
 40
0.1188519716
 41
2.862285686916141
 42
2.883682799039966
  0
ELLIPSE
  5
144
330
1F
100
AcDbEntity
  8
0
  6
HIDDEN
 62
     7
370
     0
100
AcDbEllipse
 10
195.3909862908
 20
122.5124526003
 30
0.0
 11
64.45720582267211
 21
-39.84401553442471
 31
0.0
210
0.0
220
0.0
230
1.0
 40
0.0547507893
 41
0.3814575577013131
 42
0.7398966233555442
  0
ELLIPSE
  5
145
330
1F
100
AcDbEntity
  8
0
  6
HIDDEN
 62
     7
370
     0
100
AcDbEllipse
 10
256.8046782185
 20
122.5124526003
 30
0.0
 11
-2.128352356694848
 21
39.99914874120344
 31
0.0
210
0.0
220
0.0
230
1.0
 40
0.1226111485
 41
2.015299099137281
 42
2.643872008929419
  0
SPLINE
  5
146
330
1F
100
AcDbEntity
  8
0
  6
HIDDEN
 62
     7
370
     0
100
AcDbSpline
210
0.0
220
0.0
230
1.0
 70
     8
 71
     3
 72
    14
 73
    10
 74
     0
 42
0.00000001
 43
0.00000001
 12
1.0
 22
0.0
 32
0.0
 13
1.0
 23
0.0
 33
0.0
 40
0.0
 40
0.0
 40
0.0
 40
0.0
 40
0.5000000000000014
 40
0.5000000000000014
 40
0.625000000000001
 40
0.625000000000001
 40
0.7500000000000006
 40
0.7500000000000006
 40
1.0
 40
1.0
 40
1.0
 40
1.0
 10
244.4658856191572
 20
95.46547119207861
 30
0.0
 10
243.0201199410338
 20
96.48362179410583
 30
0.0
 10
241.4175520340677
 20
97.37774248919564
 30
0.0
 10
239.2028047415941
 20
98.27377651830129
 30
0.0
 10
238.7475465999729
 20
98.44226654643255
 30
0.0
 10
237.8298871256967
 20
98.75007546429732
 30
0.0
 10
237.3661231769242
 20
98.89005257670227
 30
0.0
 10
235.960266925199
 20
99.26766235152769
 30
0.0
 10
235.0036864954043
 20
99.46312359716082
 30
0.0
 10
234.027529978871
 20
99.59931634697132
 30
0.0
  0
LINE
  5
147
330
1F
100
AcDbEntity
  8
0
  6
HIDDEN
 62
     7
370
     0
100
AcDbLine
 10
155.5355317744
 20
143.1834927271
 30
0.0
 11
155.5355317744
 21
131.4144399333
 31
0.0
  0
LINE
  5
148
330
1F
100
AcDbEntity
  8
0
  6
HIDDEN
 62
     7
370
     0
100
AcDbLine
 10
155.5355317744
 20
125.6104652673
 30
0.0
 11
155.5355317744
 21
113.8414124735
 31
0.0
  0
LINE
  5
149
330
1F
100
AcDbEntity
  8
0
  6
HIDDEN
 62
     7
370
     0
100
AcDbLine
 10
157.0355317744
 20
124.5472417035
 30
0.0
 11
157.0355317744
 21
113.4083997716
 31
0.0
  0
LINE
  5
14A
330
1F
100
AcDbEntity
  8
0
  6
HIDDEN
 62
     7
370
     0
100
AcDbLine
 10
157.0355317744
 20
143.616505429
 30
0.0
 11
157.0355317744
 21
132.4776634971
 31
0.0
  0
LINE
  5
14B
330
1F
100
AcDbEntity
  8
0
  6
HIDDEN
 62
     7
370
     0
100
AcDbLine
 10
191.3355317744
 20
144.0473731232
 30
0.0
 11
191.3355317744
 21
112.9775320774
 31
0.0
  0
LINE
  5
14C
330
1F
100
AcDbEntity
  8
0
  6
HIDDEN
 62
     7
370
     0
100
AcDbLine
 10
193.3355317744
 20
143.5501597628
 30
0.0
 11
193.3355317744
 21
113.4747454378
 31
0.0
  0
SPLINE
  5
14D
330
1F
100
AcDbEntity
  8
0
  6
HIDDEN
 62
     7
370
     0
100
AcDbSpline
210
0.0
220
0.0
230
1.0
 70
     8
 71
     3
 72
     8
 73
     4
 74
     0
 42
0.00000001
 43
0.00000001
 12
1.0
 22
0.0
 32
0.0
 13
1.0
 23
0.0
 33
0.0
 40
0.0000249638557296
 40
0.0000249638557296
 40
0.0000249638557296
 40
0.0000249638557296
 40
0.0049776420541172
 40
0.0049776420541172
 40
0.0049776420541172
 40
0.0049776420541172
 10
157.035531774415
 20
124.5472417034664
 30
0.0
 10
158.6855080089246
 20
124.5059624656982
 30
0.0
 10
160.3355093286696
 20
124.4657407844587
 30
0.0
 10
161.985531774415
 20
124.4264915472037
 30
0.0
  0
SPLINE
  5
14E
330
1F
100
AcDbEntity
  8
0
  6
HIDDEN
 62
     7
370
     0
100
AcDbSpline
210
0.0
220
0.0
230
1.0
 70
     8
 71
     3
 72
     8
 73
     4
 74
     0
 42
0.00000001
 43
0.00000001
 12
1.0
 22
0.0
 32
0.0
 13
1.0
 23
0.0
 33
0.0
 40
0.0000249631533153
 40
0.0000249631533153
 40
0.0000249631533153
 40
0.0000249631533153
 40
0.0049776413517028
 40
0.0049776413517028
 40
0.0049776413517028
 40
0.0049776413517028
 10
161.985531774415
 20
132.5984136534022
 30
0.0
 10
160.3355093286696
 20
132.5591644161472
 30
0.0
 10
158.6855080089245
 20
132.5189427349077
 30
0.0
 10
157.035531774415
 20
132.4776634971395
 30
0.0
  0
SPLINE
  5
14F
330
1F
100
AcDbEntity
  8
0
  6
HIDDEN
 62
     7
370
     0
100
AcDbSpline
210
0.0
220
0.0
230
1.0
 70
     8
 71
     3
 72
     8
 73
     4
 74
     0
 42
0.00000001
 43
0.00000001
 12
1.0
 22
0.0
 32
0.0
 13
1.0
 23
0.0
 33
0.0
 40
0.0
 40
0.0
 40
0.0
 40
0.0
 40
1.0
 40
1.0
 40
1.0
 40
1.0
 10
155.5355317744128
 20
125.6104652673226
 30
0.0
 10
156.0022923857906
 20
125.1951020216995
 30
0.0
 10
156.5080399325706
 20
124.8505115923949
 30
0.0
 10
157.035531774415
 20
124.5472417034664
 30
0.0
  0
SPLINE
  5
150
330
1F
100
AcDbEntity
  8
0
  6
HIDDEN
 62
     7
370
     0
100
AcDbSpline
210
0.0
220
0.0
230
1.0
 70
     8
 71
     3
 72
     8
 73
     4
 74
     0
 42
0.00000001
 43
0.00000001
 12
1.0
 22
0.0
 32
0.0
 13
1.0
 23
0.0
 33
0.0
 40
0.0
 40
0.0
 40
0.0
 40
0.0
 40
1.0
 40
1.0
 40
1.0
 40
1.0
 10
157.035531774415
 20
132.4776634971395
 30
0.0
 10
156.5080399325715
 20
132.1743936082114
 30
0.0
 10
156.0022923857922
 20
131.8298031789074
 30
0.0
 10
155.535531774415
 20
131.4144399332853
 30
0.0
  0
LINE
  5
151
330
1F
100
AcDbEntity
  8
0
  6
HIDDEN
 62
     7
370
     0
100
AcDbLine
 10
155.5355317744
 20
125.6104652673
 30
0.0
 11
155.5355317744
 21
131.4144399333
 31
0.0
  0
LINE
  5
152
330
1F
100
AcDbEntity
  8
0
  6
HIDDEN
 62
     7
370
     0
100
AcDbLine
 10
161.9855317744
 20
124.4264915472
 30
0.0
 11
161.9855317744
 21
132.5984136534
 31
0.0
  0
SPLINE
  5
153
330
1F
100
AcDbEntity
  8
0
  6
HIDDEN
 62
     7
370
     0
100
AcDbSpline
210
0.0
220
0.0
230
1.0
 70
     8
 71
     3
 72
    24
 73
    20
 74
     0
 42
0.00000001
 43
0.00000001
 12
1.0
 22
0.0
 32
0.0
 13
1.0
 23
0.0
 33
0.0
 40
0.0
 40
0.0
 40
0.0
 40
0.0
 40
0.125
 40
0.125
 40
0.25
 40
0.25
 40
0.375
 40
0.375
 40
0.4375
 40
0.4375
 40
0.5
 40
0.5
 40
0.625
 40
0.625
 40
0.75
 40
0.75
 40
0.875
 40
0.875
 40
1.0
 40
1.0
 40
1.0
 40
1.0
 10
161.985531774415
 20
124.4264915472037
 30
0.0
 10
162.2233354066901
 20
124.7254986495338
 30
0.0
 10
162.4534210679013
 20
125.0298365008525
 30
0.0
 10
162.8881744665111
 20
125.6555700382485
 30
0.0
 10
163.0931072587973
 20
125.976794765576
 30
0.0
 10
163.4582092092961
 20
126.6487205363088
 30
0.0
 10
163.6200095950875
 20
127.0040357681876
 30
0.0
 10
163.7918697996673
 20
127.5542669895401
 30
0.0
 10
163.8374549913274
 20
127.7406707745206
 30
0.0
 10
163.8999297309022
 20
128.1208052766168
 30
0.0
 10
163.9166008766507
 20
128.3164750689027
 30
0.0
 10
163.9171219198272
 20
128.8949554475771
 30
0.0
 10
163.8526796189405
 20
129.2728672865459
 30
0.0
 10
163.6228305255672
 20
130.0148353116443
 30
0.0
 10
163.4643098479041
 20
130.3635507718053
 30
0.0
 10
163.1000755180039
 20
131.0366431695385
 30
0.0
 10
162.8933392779403
 20
131.3615956567801
 30
0.0
 10
162.4554013321999
 20
131.9925194672419
 30
0.0
 10
162.2241286049204
 20
132.2984092075826
 30
0.0
 10
161.9855317744151
 20
132.598413653402
 30
0.0
  0
SPLINE
  5
154
330
1F
100
AcDbEntity
  8
0
  6
HIDDEN
 62
     7
370
     0
100
AcDbSpline
210
0.0
220
0.0
230
1.0
 70
     8
 71
     3
 72
    72
 73
    68
 74
     0
 42
0.00000001
 43
0.00000001
 12
1.0
 22
0.0
 32
0.0
 13
1.0
 23
0.0
 33
0.0
 40
-0.03125
 40
-0.03125
 40
0.0
 40
0.0
 40
0.03125
 40
0.03125
 40
0.0624999999999999
 40
0.0624999999999999
 40
0.0937499999999999
 40
0.0937499999999999
 40
0.1249999999999998
 40
0.1249999999999998
 40
0.1562499999999998
 40
0.1562499999999998
 40
0.1874999999999997
 40
0.1874999999999997
 40
0.2187499999999997
 40
0.2187499999999997
 40
0.2499999999999996
 40
0.2499999999999996
 40
0.2812499999999996
 40
0.2812499999999996
 40
0.3124999999999995
 40
0.3124999999999995
 40
0.3437499999999994
 40
0.3437499999999994
 40
0.3749999999999994
 40
0.3749999999999994
 40
0.3906249999999994
 40
0.3906249999999994
 40
0.4062499999999994
 40
0.4062499999999994
 40
0.4374999999999994
 40
0.4374999999999994
 40
0.4687499999999994
 40
0.4687499999999994
 40
0.4999999999999994
 40
0.4999999999999994
 40
0.5312499999999994
 40
0.5312499999999994
 40
0.5624999999999993
 40
0.5624999999999993
 40
0.5937499999999993
 40
0.5937499999999993
 40
0.6249999999999993
 40
0.6249999999999993
 40
0.6562499999999994
 40
0.6562499999999994
 40
0.6874999999999994
 40
0.6874999999999994
 40
0.7187499999999996
 40
0.7187499999999996
 40
0.7499999999999996
 40
0.7499999999999996
 40
0.7812499999999997
 40
0.7812499999999997
 40
0.8124999999999998
 40
0.8124999999999998
 40
0.8437499999999998
 40
0.8437499999999998
 40
0.8749999999999999
 40
0.8749999999999999
 40
0.9062499999999999
 40
0.9062499999999999
 40
0.9375
 40
0.9375
 40
0.96875
 40
0.96875
 40
1.0
 40
1.0
 40
1.03125
 40
1.03125
 10
174.6594780932402
 20
130.9532862501177
 30
0.0
 10
175.0339083131141
 20
131.3636420506029
 30
0.0
 10
175.2387609143797
 20
131.5472911332614
 30
0.0
 10
175.6816291112267
 20
131.8742460367567
 30
0.0
 10
175.921584528545
 20
132.0180242449365
 30
0.0
 10
176.4171955113195
 20
132.2555416003824
 30
0.0
 10
176.674461802474
 20
132.3508611652802
 30
0.0
 10
177.2078155703111
 20
132.4949466979147
 30
0.0
 10
177.4820957102094
 20
132.5426827048842
 30
0.0
 10
178.0285242447889
 20
132.5882648454181
 30
0.0
 10
178.3031005632567
 20
132.5868310853458
 30
0.0
 10
178.8550677375274
 20
132.5339177772549
 30
0.0
 10
179.1256847000991
 20
132.4829480510508
 30
0.0
 10
179.6519698711783
 20
132.3343414241072
 30
0.0
 10
179.9096014345859
 20
132.2360560533501
 30
0.0
 10
180.4055275992594
 20
131.9918026941644
 30
0.0
 10
180.638511277051
 20
131.8487225631422
 30
0.0
 10
181.074844552376
 20
131.5208640126733
 30
0.0
 10
181.2801258062343
 20
131.3338703749731
 30
0.0
 10
181.6481601040945
 20
130.9244397551501
 30
0.0
 10
181.8096750940797
 20
130.7043343141656
 30
0.0
 10
182.0868327772268
 20
130.2325842327276
 30
0.0
 10
182.2032269566606
 20
129.9775677062864
 30
0.0
 10
182.3765009933072
 20
129.4563298828894
 30
0.0
 10
182.4349475477729
 20
129.1888457651085
 30
0.0
 10
182.4788122732488
 20
128.776930105776
 30
0.0
 10
182.4859924898782
 20
128.6372228027005
 30
0.0
 10
182.4850244625827
 20
128.3610997472381
 30
0.0
 10
182.4770216731691
 20
128.2239231809073
 30
0.0
 10
182.4309489412567
 20
127.8149897396441
 30
0.0
 10
182.3700141088047
 20
127.5430634906398
 30
0.0
 10
182.1918939523961
 20
127.0198829741847
 30
0.0
 10
182.0763260410538
 20
126.7711709738213
 30
0.0
 10
181.7944792571145
 20
126.2982864488294
 30
0.0
 10
181.6276093116998
 20
126.0746772315973
 30
0.0
 10
181.258283756901
 20
125.6700198434096
 30
0.0
 10
181.0534986006035
 20
125.4856062552401
 30
0.0
 10
180.6088456530873
 20
125.1565802203457
 30
0.0
 10
180.3739965235766
 20
125.0154121443575
 30
0.0
 10
179.8805867610995
 20
124.777002615577
 30
0.0
 10
179.6192998073949
 20
124.6792200591721
 30
0.0
 10
179.0885615268822
 20
124.533892030982
 30
0.0
 10
178.818921825985
 20
124.485602640787
 30
0.0
 10
178.2711704862398
 20
124.4371874170004
 30
0.0
 10
177.9912664443811
 20
124.4376456026363
 30
0.0
 10
177.4441885365461
 20
124.4877974582385
 30
0.0
 10
177.1745834318587
 20
124.5369710252705
 30
0.0
 10
176.6434286752026
 20
124.6846455485776
 30
0.0
 10
176.3821338587591
 20
124.7838007129431
 30
0.0
 10
175.8898198805837
 20
125.0248134834199
 30
0.0
 10
175.6558630050051
 20
125.1673016080446
 30
0.0
 10
175.2136943844746
 20
125.4987890370295
 30
0.0
 10
175.008500853363
 20
125.6862226650179
 30
0.0
 10
174.642806637005
 20
126.0931263840683
 30
0.0
 10
174.4800360146166
 20
126.3143054587373
 30
0.0
 10
174.1990835838511
 20
126.7940527879526
 30
0.0
 10
174.0858797315775
 20
127.0440647547629
 30
0.0
 10
173.9132710074386
 20
127.5641399647833
 30
0.0
 10
173.8536647247622
 20
127.8378714294131
 30
0.0
 10
173.7957729546924
 20
128.3864890793116
 30
0.0
 10
173.7965624935523
 20
128.6608289432031
 30
0.0
 10
173.8577529691688
 20
129.2095708943421
 30
0.0
 10
173.9188816929028
 20
129.4826362081992
 30
0.0
 10
174.0949613785326
 20
130.0028014569676
 30
0.0
 10
174.2112919735225
 20
130.2551205905266
 30
0.0
 10
174.4944932032633
 20
130.7315249319335
 30
0.0
 10
174.6594780932402
 20
130.9532862501177
 30
0.0
 10
175.0339083131141
 20
131.3636420506029
 30
0.0
  0
CIRCLE
  5
155
330
1F
100
AcDbEntity
  8
0
  6
HIDDEN
 62
     7
370
     0
100
AcDbCircle
 10
178.0355317744
 20
128.5124526003
 30
0.0
 40
4.050000000000011
  0
ELLIPSE
  5
156
330
1F
100
AcDbEntity
  8
0
  6
HIDDEN
 62
     7
370
     0
100
AcDbEllipse
 10
250.1330413159
 20
128.5124526003
 30
0.0
 11
-22.69053094615274
 21
31.91932617208906
 31
0.0
210
0.0
220
0.0
230
1.0
 40
0.1000778042
 41
0.7710885324354281
 42
1.499773554065241
  0
CIRCLE
  5
157
330
1F
100
AcDbEntity
  8
0
  6
HIDDEN
 62
     7
370
     0
100
AcDbCircle
 10
205.5355317744
 20
128.5124526003
 30
0.0
 40
1.999999999999986
  0
LINE
  5
158
330
1F
100
AcDbEntity
  8
0
  6
HIDDEN
 62
     7
370
     0
100
AcDbLine
 10
233.7230495705
 20
105.0768568261
 30
0.0
 11
253.2921287766
 21
105.0768568261
 31
0.0
  0
SPLINE
  5
159
330
1F
100
AcDbEntity
  8
0
  6
HIDDEN
 62
     7
370
     0
100
AcDbSpline
210
0.0
220
0.0
230
1.0
 70
     8
 71
     3
 72
    10
 73
     6
 74
     0
 42
0.00000001
 43
0.00000001
 12
1.0
 22
0.0
 32
0.0
 13
1.0
 23
0.0
 33
0.0
 40
0.0
 40
0.0
 40
0.0
 40
0.0
 40
0.5
 40
0.5
 40
1.0
 40
1.0
 40
1.0
 40
1.0
 10
233.7230495705246
 20
105.0768568261402
 30
0.0
 10
233.2128625557398
 20
108.299384577453
 30
0.0
 10
232.7688940518042
 20
111.5320543935021
 30
0.0
 10
232.0824570925444
 20
118.0282558875056
 30
0.0
 10
231.8415669334288
 20
121.2920292982037
 30
0.0
 10
231.7341306127251
 20
124.5762425746
 30
0.0
  0
LINE
  5
15A
330
1F
100
AcDbEntity
  8
0
  6
HIDDEN
 62
     7
370
     0
100
AcDbLine
 10
253.2921287766
 20
105.0768568261
 30
0.0
 11
252.6081786333
 21
118.1274029978
 31
0.0
  0
LINE
  5
15B
330
1F
100
AcDbEntity
  8
0
  6
HIDDEN
 62
     7
370
     0
100
AcDbLine
 10
252.6081786333
 20
118.1274029978
 30
0.0
 11
245.3364886169
 21
128.5124526003
 31
0.0
  0
LINE
  5
15C
330
1F
100
AcDbEntity
  8
0
  6
HIDDEN
 62
     7
370
     0
100
AcDbLine
 10
211.5355317744
 20
116.2624526003
 30
0.0
 11
211.5355317744
 21
112.7624738559
 31
0.0
  0
LINE
  5
15D
330
1F
100
AcDbEntity
  8
0
  6
HIDDEN
 62
     7
370
     0
100
AcDbLine
 10
217.5355317744
 20
112.7627315398
 30
0.0
 11
217.5355317744
 21
116.2624526003
 31
0.0
  0
LINE
  5
15E
330
1F
100
AcDbEntity
  8
0
  6
HIDDEN
 62
     7
370
     0
100
AcDbLine
 10
193.5355317744
 20
104.2624526003
 30
0.0
 11
193.6284249932
 21
104.3553458191
 31
0.0
  0
LINE
  5
15F
330
1F
100
AcDbEntity
  8
0
  6
HIDDEN
 62
     7
370
     0
100
AcDbLine
 10
193.6284249932
 20
152.6695593815
 30
0.0
 11
193.5355317744
 21
152.7624526003
 31
0.0
  0
ARC
  5
160
330
1F
100
AcDbEntity
  8
0
  6
HIDDEN
 62
     7
370
     0
100
AcDbCircle
 10
192.921318212
 20
105.0624526003
 30
0.0
 40
1.000000000000008
100
AcDbArc
 50
315.0
 51
0.0
  0
ARC
  5
161
330
1F
100
AcDbEntity
  8
0
  6
HIDDEN
 62
     7
370
     0
100
AcDbCircle
 10
192.921318212
 20
105.0624526003
 30
0.0
 40
1.000000000000004
100
AcDbArc
 50
0.0
 51
52.1052014664
  0
ARC
  5
162
330
1F
100
AcDbEntity
  8
0
  6
HIDDEN
 62
     7
370
     0
100
AcDbCircle
 10
192.921318212
 20
151.9624526003
 30
0.0
 40
1.00000000000003
100
AcDbArc
 50
351.8087250651
 51
45.0
  0
ARC
  5
163
330
1F
100
AcDbEntity
  8
0
  6
HIDDEN
 62
     7
370
     0
100
AcDbCircle
 10
192.921318212
 20
151.9624526003
 30
0.0
 40
1.00000000000003
100
AcDbArc
 50
307.8947985336
 51
351.8087250651
  0
LINE
  5
164
330
1F
100
AcDbEntity
  8
0
  6
HIDDEN
 62
     7
370
     0
100
AcDbLine
 10
193.921318212
 20
105.0624526003
 30
0.0
 11
193.921318212
 21
151.9624526003
 31
0.0
  0
LINE
  5
165
330
1F
100
AcDbEntity
  8
0
  6
HIDDEN
 62
     7
370
     0
100
AcDbLine
 10
193.921318212
 20
105.0624526003
 30
0.0
 11
193.921318212
 21
151.9624526003
 31
0.0
  0
LINE
  5
166
330
1F
100
AcDbEntity
  8
0
  6
HIDDEN
 62
     7
370
     0
100
AcDbLine
 10
212.0355317744
 20
124.0136773933
 30
0.0
 11
212.0355317744
 21
116.4126677551
 31
0.0
  0
LINE
  5
167
330
1F
100
AcDbEntity
  8
0
  6
HIDDEN
 62
     7
370
     0
100
AcDbLine
 10
217.0355317744
 20
120.3128122262
 30
0.0
 11
217.0355317744
 21
124.0134127653
 31
0.0
  0
LINE
  5
168
330
1F
100
AcDbEntity
  8
0
  6
HIDDEN
 62
     7
370
     0
100
AcDbLine
 10
217.0355317744
 20
116.4126677551
 30
0.0
 11
217.0355317744
 21
118.2028688683
 31
0.0
  0
LINE
  5
169
330
1F
100
AcDbEntity
  8
0
  6
HIDDEN
 62
     7
370
     0
100
AcDbLine
 10
225.0093681302
 20
114.3268291596
 30
0.0
 11
216.6440231858
 21
121.2078275038
 31
0.0
  0
LINE
  5
16A
330
1F
100
AcDbEntity
  8
0
  6
HIDDEN
 62
     7
370
     0
100
AcDbLine
 10
214.3443788763
 20
116.6252338565
 30
0.0
 11
225.3549744108
 21
107.5683581216
 31
0.0
  0
LINE
  5
16B
330
1F
100
AcDbEntity
  8
0
  6
HIDDEN
 62
     7
370
     0
100
AcDbLine
 10
155.5355317744
 20
112.3160237558
 30
0.0
 11
157.0657602141
 21
113.1995015574
 31
0.0
  0
LINE
  5
16C
330
1F
100
AcDbEntity
  8
0
  6
HIDDEN
 62
     7
370
     0
100
AcDbLine
 10
157.0657602141
 20
143.8254036432
 30
0.0
 11
155.5355317744
 21
144.7088814448
 31
0.0
  0
ARC
  5
16D
330
1F
100
AcDbEntity
  8
0
  6
HIDDEN
 62
     7
370
     0
100
AcDbCircle
 10
165.5355317744
 20
114.5124526003
 30
0.0
 40
2.0
100
AcDbArc
 50
189.9742217944
 51
270.0
  0
ARC
  5
16E
330
1F
100
AcDbEntity
  8
0
  6
HIDDEN
 62
     7
370
     0
100
AcDbCircle
 10
165.5355317744
 20
142.5124526003
 30
0.0
 40
2.000000000000004
100
AcDbArc
 50
90.0
 51
170.0257782056
  0
LINE
  5
16F
330
1F
100
AcDbEntity
  8
0
  6
HIDDEN
 62
     7
370
     0
100
AcDbLine
 10
165.5355317744
 20
112.5124526003
 30
0.0
 11
166.5373330893
 21
112.5124526003
 31
0.0
  0
LINE
  5
170
330
1F
100
AcDbEntity
  8
0
  6
HIDDEN
 62
     7
370
     0
100
AcDbLine
 10
166.5373330893
 20
144.5124526003
 30
0.0
 11
165.5355317744
 21
144.5124526003
 31
0.0
  0
ARC
  5
171
330
1F
100
AcDbEntity
  8
0
  6
HIDDEN
 62
     7
370
     0
100
AcDbCircle
 10
166.5373330893
 20
114.5124526003
 30
0.0
 40
2.000000000000006
100
AcDbArc
 50
270.0
 51
315.0
  0
ARC
  5
172
330
1F
100
AcDbEntity
  8
0
  6
HIDDEN
 62
     7
370
     0
100
AcDbCircle
 10
166.5373330893
 20
142.5124526003
 30
0.0
 40
2.0
100
AcDbArc
 50
45.0
 51
90.0
  0
LINE
  5
173
330
1F
100
AcDbEntity
  8
0
  6
HIDDEN
 62
     7
370
     0
100
AcDbLine
 10
167.9515466517
 20
113.0982390379
 30
0.0
 11
169.3657602141
 21
114.5124526003
 31
0.0
  0
LINE
  5
174
330
1F
100
AcDbEntity
  8
0
  6
HIDDEN
 62
     7
370
     0
100
AcDbLine
 10
169.3657602141
 20
142.5124526003
 30
0.0
 11
167.9515466517
 21
143.9266661627
 31
0.0
  0
LINE
  5
175
330
1F
100
AcDbEntity
  8
0
  6
HIDDEN
 62
     7
370
     0
100
AcDbLine
 10
157.0657602141
 20
113.1995015574
 30
0.0
 11
161.9657602141
 21
114.5124526003
 31
0.0
  0
LINE
  5
176
330
1F
100
AcDbEntity
  8
0
  6
HIDDEN
 62
     7
370
     0
100
AcDbLine
 10
161.9657602141
 20
142.5124526003
 30
0.0
 11
157.0657602141
 21
143.8254036432
 31
0.0
  0
LINE
  5
177
330
1F
100
AcDbEntity
  8
0
  6
HIDDEN
 62
     7
370
     0
100
AcDbLine
 10
163.5657602141
 20
142.8588627618
 30
0.0
 11
162.9657602141
 21
142.5124526003
 31
0.0
  0
LINE
  5
178
330
1F
100
AcDbEntity
  8
0
  6
HIDDEN
 62
     7
370
     0
100
AcDbLine
 10
162.9657602141
 20
114.5124526003
 30
0.0
 11
163.5657602141
 21
114.1660424388
 31
0.0
  0
ARC
  5
179
330
1F
100
AcDbEntity
  8
0
  6
HIDDEN
 62
     7
370
     0
100
AcDbCircle
 10
182.0355317744
 20
115.0124526003
 30
0.0
 40
0.5
100
AcDbArc
 50
270.0
 51
0.0
  0
ARC
  5
17A
330
1F
100
AcDbEntity
  8
0
  6
HIDDEN
 62
     7
370
     0
100
AcDbCircle
 10
182.0355317744
 20
142.0124526003
 30
0.0
 40
0.5
100
AcDbArc
 50
0.0
 51
90.0
  0
LINE
  5
17B
330
1F
100
AcDbEntity
  8
0
  6
HIDDEN
 62
     7
370
     0
100
AcDbLine
 10
169.3657602141
 20
114.5124526003
 30
0.0
 11
182.0355317744
 21
114.5124526003
 31
0.0
  0
LINE
  5
17C
330
1F
100
AcDbEntity
  8
0
  6
HIDDEN
 62
     7
370
     0
100
AcDbLine
 10
182.0355317744
 20
142.5124526003
 30
0.0
 11
169.3657602141
 21
142.5124526003
 31
0.0
  0
LINE
  5
17D
330
1F
100
AcDbEntity
  8
0
  6
HIDDEN
 62
     7
370
     0
100
AcDbLine
 10
161.9657602141
 20
114.5124526003
 30
0.0
 11
162.9657602141
 21
114.5124526003
 31
0.0
  0
LINE
  5
17E
330
1F
100
AcDbEntity
  8
0
  6
HIDDEN
 62
     7
370
     0
100
AcDbLine
 10
162.9657602141
 20
142.5124526003
 30
0.0
 11
161.9657602141
 21
142.5124526003
 31
0.0
  0
LINE
  5
17F
330
1F
100
AcDbEntity
  8
0
  6
HIDDEN
 62
     7
370
     0
100
AcDbLine
 10
182.5355317744
 20
118.2624526003
 30
0.0
 11
183.7855317744
 21
119.5124526003
 31
0.0
  0
LINE
  5
180
330
1F
100
AcDbEntity
  8
0
  6
HIDDEN
 62
     7
370
     0
100
AcDbLine
 10
183.7855317744
 20
137.5124526003
 30
0.0
 11
182.5355317744
 21
138.7624526003
 31
0.0
  0
LINE
  5
181
330
1F
100
AcDbEntity
  8
0
  6
HIDDEN
 62
     7
370
     0
100
AcDbLine
 10
220.5355317744
 20
137.5124526003
 30
0.0
 11
183.7855317744
 21
137.5124526003
 31
0.0
  0
LINE
  5
182
330
1F
100
AcDbEntity
  8
0
  6
HIDDEN
 62
     7
370
     0
100
AcDbLine
 10
183.7855317744
 20
119.5124526003
 30
0.0
 11
220.5355317744
 21
119.5124526003
 31
0.0
  0
LINE
  5
183
330
1F
100
AcDbEntity
  8
0
  6
HIDDEN
 62
     7
370
     0
100
AcDbLine
 10
220.5355317744
 20
119.5124526003
 30
0.0
 11
225.9432773457
 21
128.5124526003
 31
0.0
  0
LINE
  5
184
330
1F
100
AcDbEntity
  8
0
  6
HIDDEN
 62
     7
370
     0
100
AcDbLine
 10
225.9432773457
 20
128.5124526003
 30
0.0
 11
220.5355317744
 21
137.5124526003
 31
0.0
  0
ARC
  5
185
330
1F
100
AcDbEntity
  8
0
  6
HIDDEN
 62
     7
370
     0
100
AcDbCircle
 10
230.7682047864
 20
96.0124526003
 30
0.0
 40
1.000000000000003
100
AcDbArc
 50
67.5244230154
 51
90.0
  0
LINE
  5
186
330
1F
100
AcDbEntity
  8
VERMASSUNG
  6
CENTERX2
100
AcDbLine
 10
153.0635445401
 20
128.5124526003
 30
0.0
 11
258.5355317744
 21
128.5124526003
 31
0.0
  0
LINE
  5
187
330
1F
100
AcDbEntity
  8
VERMASSUNG
  6
CENTERX2
100
AcDbLine
 10
258.5355317744
 20
83.5124526003
 30
0.0
 11
258.5355317744
 21
128.5124526003
 31
0.0
  0
LINE
  5
188
330
1F
100
AcDbEntity
  8
VERMASSUNG
  6
CENTERX2
100
AcDbLine
 10
258.5355317744
 20
83.5124526003
 30
0.0
 11
274.9507205749
 21
83.5124526003
 31
0.0
  0
DIMENSION
  5
189
330
1F
100
AcDbEntity
  8
VERMASSUNG
100
AcDbDimension
  2
_D
 10
258.5354384492
 20
83.9247077193
 30
0.0
 11
265.1775638662
 21
90.4890250393
 31
0.0
 70
   162
  1
<>
 71
     1
 42
-1.0
  3
SLDDIMSTYLE0
100
AcDb2LineAngularDimension
 13
258.5355317744
 23
83.5124526003
 33
0.0
 14
274.9507205749
 24
83.5124526003
 34
0.0
 15
257.9774583117
 25
94.5716029937
 35
0.0
 16
265.1775638662
 26
90.4890250393
 36
0.0
  0
DIMENSION
  5
192
330
1F
100
AcDbEntity
  8
VERMASSUNG
100
AcDbDimension
  2
_D_1
 10
258.5355317744
 20
76.2743084136
 30
0.0
 11
226.0355317744
 21
76.2743084136
 31
0.0
 70
   160
  1
<>
 71
     2
 42
-1.0
  3
SLDDIMSTYLE1
100
AcDbAlignedDimension
 13
193.5355317744
 23
97.5124526003
 33
0.0
 14
258.5355317744
 24
83.5124526003
 34
0.0
100
AcDbRotatedDimension
  0
DIMENSION
  5
19D
330
1F
100
AcDbEntity
  8
VERMASSUNG
100
AcDbDimension
  2
_D_2
 10
258.5355317744
 20
67.3000894473
 30
0.0
 11
207.0355317744
 21
67.3000894473
 31
0.0
 70
   160
  1
<>
 71
     2
 42
-1.0
  3
SLDDIMSTYLE1
100
AcDbAlignedDimension
 13
155.5355317744
 23
108.2201146078
 33
0.0
 14
258.5355317744
 24
83.5124526003
 34
0.0
100
AcDbRotatedDimension
  0
DIMENSION
  5
1A7
330
1F
100
AcDbEntity
  8
VERMASSUNG
100
AcDbDimension
  2
_D_3
 10
273.3886310911
 20
128.5124526003
 30
0.0
 11
273.3886310911
 21
106.0124526003
 31
0.0
 70
   160
  1
<>
 71
     2
 42
-1.0
  3
SLDDIMSTYLE1
100
AcDbAlignedDimension
 13
258.5355317744
 23
83.5124526003
 33
0.0
 14
258.5355317744
 24
128.5124526003
 34
0.0
 50
90.0
100
AcDbRotatedDimension
  0
DIMENSION
  5
1B1
330
1F
100
AcDbEntity
  8
VERMASSUNG
100
AcDbDimension
  2
_D_4
 10
145.5354817744
 20
97.0124526003
 30
0.0
 11
145.5354817744
 21
128.5124526003
 31
0.0
 70
   160
  1
PSC%%c<>
 71
     2
 42
-1.0
  3
SLDDIMSTYLE1
100
AcDbAlignedDimension
 13
194.0355317744
 23
160.0124526003
 33
0.0
 14
194.0355317744
 24
97.0124526003
 34
0.0
 50
90.0
100
AcDbRotatedDimension
  0
SPLINE
  5
1BD
330
1F
100
AcDbEntity
  8
0
  6
Continuous
 62
     7
370
    15
100
AcDbSpline
210
0.0
220
0.0
230
1.0
 70
     8
 71
     3
 72
     9
 73
     5
 74
     0
 42
0.00000001
 43
0.00000001
 12
1.0
 22
0.0
 32
0.0
 13
1.0
 23
0.0
 33
0.0
 40
0.0
 40
0.0
 40
0.0
 40
0.0
 40
0.5002779614873212
 40
1.0
 40
1.0
 40
1.0
 40
1.0
 10
78.49285650236753
 20
83.49860041792253
 30
0.0
 10
79.1676408774298
 20
83.60690794882417
 30
0.0
 10
80.51645978813325
 20
83.82340265624569
 30
0.0
 10
81.86201561311782
 20
84.05364844254218
 30
0.0
 10
82.53441951291171
 20
84.16870733622922
 30
0.0
  0
LINE
  5
1BE
330
1F
100
AcDbEntity
  8
0
  6
Continuous
 62
     7
370
    15
100
AcDbLine
 10
78.8310741642
 20
100.5523894415
 30
0.0
 11
78.4928565024
 21
100.6072728449
 31
0.0
  0
LINE
  5
1BF
330
1F
100
AcDbEntity
  8
0
  6
Continuous
 62
     7
370
    15
100
AcDbLine
 10
82.5010741642
 20
94.8529857042
 30
0.0
 11
82.5010741642
 21
94.6284554297
 31
0.0
  0
LINE
  5
1C0
330
1F
100
AcDbEntity
  8
0
  6
Continuous
 62
     7
370
    15
100
AcDbLine
 10
82.5010741642
 20
94.5264532654
 30
0.0
 11
82.5010741642
 21
94.5171846666
 31
0.0
  0
LINE
  5
1C1
330
1F
100
AcDbEntity
  8
0
  6
Continuous
 62
     7
370
    15
100
AcDbLine
 10
82.5010741642
 20
94.8529857042
 30
0.0
 11
81.0010741642
 21
94.7338395006
 31
0.0
  0
LINE
  5
1C2
330
1F
100
AcDbEntity
  8
0
  6
Continuous
 62
     7
370
    15
100
AcDbLine
 10
78.8310741642
 20
94.8862951232
 30
0.0
 11
78.8310741642
 21
119.4456697663
 31
0.0
  0
LINE
  5
1C3
330
1F
100
AcDbEntity
  8
0
  6
Continuous
 62
     7
370
    15
100
AcDbLine
 10
110.5310741642
 20
118.1274029978
 30
0.0
 11
78.8310741642
 21
119.4456697663
 31
0.0
  0
LINE
  5
1C4
330
1F
100
AcDbEntity
  8
0
  6
Continuous
 62
     7
370
    15
100
AcDbLine
 10
110.5310741642
 20
105.0768568261
 30
0.0
 11
110.5310741642
 21
118.1274029978
 31
0.0
  0
ARC
  5
1C5
330
1F
100
AcDbEntity
  8
0
  6
Continuous
 62
     7
370
    15
100
AcDbCircle
 10
74.5310741642
 20
122.5124526003
 30
0.0
 40
40.00000000000001
100
AcDbArc
 50
298.1434923895
 51
334.1580672368
  0
LINE
  5
1C6
330
1F
100
AcDbEntity
  8
0
  6
Continuous
 62
     7
370
    15
100
AcDbLine
 10
82.5010741642
 20
84.9927966021
 30
0.0
 11
93.3983283672
 21
87.2416896537
 31
0.0
  0
LINE
  5
1C7
330
1F
100
AcDbEntity
  8
0
  6
Continuous
 62
     7
370
    15
100
AcDbLine
 10
92.6393745909
 20
86.8460895161
 30
0.0
 11
82.5010741642
 21
84.753823615
 31
0.0
  0
ARC
  5
1C8
330
1F
100
AcDbEntity
  8
0
  6
Continuous
 62
     7
370
    15
100
AcDbCircle
 10
74.5310741642
 20
122.5124526003
 30
0.0
 40
40.00000000000001
100
AcDbArc
 50
296.917528171
 51
298.1434923895
  0
LINE
  5
1C9
330
1F
100
AcDbEntity
  8
0
  6
Continuous
 62
     7
370
    15
100
AcDbLine
 10
110.5310741642
 20
118.1274029978
 30
0.0
 11
110.5310741642
 21
128.5124526003
 31
0.0
  0
ELLIPSE
  5
1CA
330
1F
100
AcDbEntity
  8
0
  6
Continuous
 62
     7
370
    15
100
AcDbEllipse
 10
72.8310741642
 20
154.0019433429
 30
0.0
 11
-1.633816617457413
 21
8.594832069372671
 31
0.0
210
0.0
220
0.0
230
1.0
 40
0.6717140804
 41
4.436603551596943
 42
5.341893471400059
  0
ARC
  5
1CB
330
1F
100
AcDbEntity
  8
0
  6
Continuous
 62
     7
370
    15
100
AcDbCircle
 10
78.5310741642
 20
128.5124526003
 30
0.0
 40
31.50000000000001
100
AcDbArc
 50
47.0671944968
 51
93.631627135
  0
SPLINE
  5
1CC
330
1F
100
AcDbEntity
  8
0
  6
Continuous
 62
     7
370
    15
100
AcDbSpline
210
0.0
220
0.0
230
1.0
 70
     8
 71
     3
 72
    12
 73
     8
 74
     0
 42
0.00000001
 43
0.00000001
 12
1.0
 22
0.0
 32
0.0
 13
1.0
 23
0.0
 33
0.0
 40
0.0
 40
0.0
 40
0.0
 40
0.0
 40
0.2500000000000007
 40
0.2500000000000007
 40
0.5000000000000013
 40
0.5000000000000013
 40
1.0
 40
1.0
 40
1.0
 40
1.0
 10
102.4046958273015
 20
149.8209060563104
 30
0.0
 10
102.1804160259913
 20
149.9409644729568
 30
0.0
 10
101.9639336660194
 20
150.0711276521454
 30
0.0
 10
101.5407767611714
 20
150.3441640314512
 30
0.0
 10
101.3338833903455
 20
150.4874665924276
 30
0.0
 10
100.7294440111155
 20
150.9302340278291
 30
0.0
 10
100.3454696972425
 20
151.2417702144448
 30
0.0
 10
99.98698999420523
 20
151.5752728071951
 30
0.0
  0
ARC
  5
1CD
330
1F
100
AcDbEntity
  8
0
  6
Continuous
 62
     7
370
    15
100
AcDbCircle
 10
78.5310741642
 20
128.5124526003
 30
0.0
 40
32.00000000000043
100
AcDbArc
 50
0.0
 51
41.7505763338
  0
LINE
  5
1CE
330
1F
100
AcDbEntity
  8
0
  6
Continuous
 62
     7
370
    15
100
AcDbLine
 10
78.8310741642
 20
119.4456697663
 30
0.0
 11
78.8310741642
 21
152.7175332474
 31
0.0
  0
SPLINE
  5
1CF
330
1F
100
AcDbEntity
  8
0
  6
Continuous
 62
     7
370
    15
100
AcDbSpline
210
0.0
220
0.0
230
1.0
 70
     8
 71
     3
 72
     9
 73
     5
 74
     0
 42
0.00000001
 43
0.00000001
 12
1.0
 22
0.0
 32
0.0
 13
1.0
 23
0.0
 33
0.0
 40
0.0
 40
0.0
 40
0.0
 40
0.0
 40
0.651864794253622
 40
1.0
 40
1.0
 40
1.0
 40
1.0
 10
78.34260651713882
 20
97.0130164157295
 30
0.0
 10
78.39091630194348
 20
97.00589736101062
 30
0.0
 10
78.46502643218906
 20
96.99497630072074
 30
0.0
 10
78.51401835208166
 20
96.89267726518513
 30
0.0
 10
78.53107416419338
 20
96.85706336940127
 30
0.0
  0
SPLINE
  5
1D0
330
1F
100
AcDbEntity
  8
0
  6
Continuous
 62
     7
370
    15
100
AcDbSpline
210
0.0
220
0.0
230
1.0
 70
     8
 71
     3
 72
    14
 73
    10
 74
     0
 42
0.00000001
 43
0.00000001
 12
1.0
 22
0.0
 32
0.0
 13
1.0
 23
0.0
 33
0.0
 40
0.0
 40
0.0
 40
0.0
 40
0.0
 40
0.25
 40
0.25
 40
0.5
 40
0.5
 40
0.75
 40
0.75
 40
1.0
 40
1.0
 40
1.0
 40
1.0
 10
74.38398843480944
 20
97.2866350777282
 30
0.0
 10
74.82086656244356
 20
97.22861350480119
 30
0.0
 10
75.2375849710356
 20
97.1825669333528
 30
0.0
 10
76.03121979700353
 20
97.10927545033199
 30
0.0
 10
76.41074417747373
 20
97.08204574303207
 30
0.0
 10
77.09163545501758
 20
97.04351091697508
 30
0.0
 10
77.3984918359644
 20
97.03166583847988
 30
0.0
 10
77.93746608602409
 20
97.01689247949982
 30
0.0
 10
78.16239863126562
 20
97.01409463681358
 30
0.0
 10
78.34260651713882
 20
97.01301641572948
 30
0.0
  0
SPLINE
  5
1D1
330
1F
100
AcDbEntity
  8
0
  6
Continuous
 62
     7
370
    15
100
AcDbSpline
210
0.0
220
0.0
230
1.0
 70
     8
 71
     3
 72
    10
 73
     6
 74
     0
 42
0.00000001
 43
0.00000001
 12
1.0
 22
0.0
 32
0.0
 13
1.0
 23
0.0
 33
0.0
 40
0.0
 40
0.0
 40
0.0
 40
0.0
 40
0.5
 40
0.5
 40
1.0
 40
1.0
 40
1.0
 40
1.0
 10
76.5358194867015
 20
159.9491979593878
 30
0.0
 10
76.21979568952088
 20
159.9291402863583
 30
0.0
 10
75.87702680967347
 20
159.9025578490223
 30
0.0
 10
75.15188374604605
 20
159.83279338714
 30
0.0
 10
74.77498738414927
 20
159.7901985043152
 30
0.0
 10
74.38398843480944
 20
159.7382701228776
 30
0.0
  0
ELLIPSE
  5
1D2
330
1F
100
AcDbEntity
  8
0
  6
Continuous
 62
     7
370
    15
100
AcDbEllipse
 10
66.3161623876
 20
110.9475936406
 30
0.0
 11
-2.156649216541993
 21
3.149035452977273
 31
0.0
210
0.0
220
0.0
230
1.0
 40
0.6401414518
 41
0.0
 42
6.283185307179586
  0
ARC
  5
1D3
330
1F
100
AcDbEntity
  8
0
  6
Continuous
 62
     7
370
    15
100
AcDbCircle
 10
78.5310741642
 20
128.5124526003
 30
0.0
 40
31.50000000000003
100
AcDbArc
 50
97.5651530928
 51
262.4348469072
  0
LINE
  5
1D4
330
1F
100
AcDbEntity
  8
0
  6
Continuous
 62
     7
370
    15
100
AcDbLine
 10
82.5010741642
 20
84.2660493067
 30
0.0
 11
82.5010741642
 21
94.4474751632
 31
0.0
  0
LINE
  5
1D5
330
1F
100
AcDbEntity
  8
0
  6
Continuous
 62
     7
370
    15
100
AcDbLine
 10
78.5310741642
 20
83.9247077193
 30
0.0
 11
78.5310741642
 21
94.5716029937
 31
0.0
  0
SPLINE
  5
1D6
330
1F
100
AcDbEntity
  8
0
  6
Continuous
 62
     7
370
    15
100
AcDbSpline
210
0.0
220
0.0
230
1.0
 70
    24
 71
     3
 72
    14
 73
    10
 74
     0
 42
0.00000001
 43
0.00000001
 12
1.0
 22
0.0
 32
0.0
 13
1.0
 23
0.0
 33
0.0
 40
0.0
 40
0.0
 40
0.0
 40
0.0
 40
0.1583203796593474
 40
0.3168008057739729
 40
0.4713744813484897
 40
0.6221259069003597
 40
0.772126273174232
 40
0.9245922366696995
 40
1.0
 40
1.0
 40
1.0
 40
1.0
 10
82.50107416419344
 20
84.26604930670977
 30
0.0
 10
82.50107416419317
 20
84.25451775110571
 30
0.0
 10
82.50107416419262
 20
84.23144298262005
 30
0.0
 10
82.50107416419367
 20
84.2001619605427
 30
0.0
 10
82.50107416419337
 20
84.17636635689242
 30
0.0
 10
82.50107416419348
 20
84.16248178169202
 30
0.0
 10
82.50107416419343
 20
84.15958728735237
 30
0.0
 10
82.50107416419345
 20
84.16594475763262
 30
0.0
 10
82.50107416419345
 20
84.1740123228533
 30
0.0
 10
82.50107416419345
 20
84.17668203408896
 30
0.0
  0
SPLINE
  5
1D7
330
1F
100
AcDbEntity
  8
0
  6
Continuous
 62
     7
370
    15
100
AcDbSpline
210
0.0
220
0.0
230
1.0
 70
    24
 71
     3
 72
    13
 73
     9
 74
     0
 42
0.00000001
 43
0.00000001
 12
1.0
 22
0.0
 32
0.0
 13
1.0
 23
0.0
 33
0.0
 40
0.0
 40
0.0
 40
0.0
 40
0.0
 40
0.0814738225233369
 40
0.2895993377098749
 40
0.4936151303667362
 40
0.6968086404107215
 40
0.9027769261312734
 40
1.0
 40
1.0
 40
1.0
 40
1.0
 10
78.53107416419346
 20
83.51252897360487
 30
0.0
 10
78.53107416419347
 20
83.51095595926252
 30
0.0
 10
78.53107416419348
 20
83.50536466751198
 30
0.0
 10
78.5310741641931
 20
83.5437083980864
 30
0.0
 10
78.53107416419356
 20
83.62148260466546
 30
0.0
 10
78.53107416419343
 20
83.73258170325055
 30
0.0
 10
78.53107416419346
 20
83.8390419271206
 30
0.0
 10
78.53107416419346
 20
83.90390754092985
 30
0.0
 10
78.53107416419346
 20
83.92470771931046
 30
0.0
  0
SPLINE
  5
1D8
330
1F
100
AcDbEntity
  8
0
  6
Continuous
 62
     7
370
    15
100
AcDbSpline
210
0.0
220
0.0
230
1.0
 70
    24
 71
     3
 72
    10
 73
     6
 74
     0
 42
0.00000001
 43
0.00000001
 12
1.0
 22
0.0
 32
0.0
 13
1.0
 23
0.0
 33
0.0
 40
0.0
 40
0.0
 40
0.0
 40
0.0
 40
0.2657122957247786
 40
0.6165157621682666
 40
1.0
 40
1.0
 40
1.0
 40
1.0
 10
82.50107416419344
 20
94.5264532654152
 30
0.0
 10
82.50107416419331
 20
94.52145436467222
 30
0.0
 10
82.50107416419303
 20
94.50985572527485
 30
0.0
 10
82.50107416419358
 20
94.48267030662649
 30
0.0
 10
82.50107416419348
 20
94.45954988276848
 30
0.0
 10
82.50107416419344
 20
94.44747516318662
 30
0.0
  0
SPLINE
  5
1D9
330
1F
100
AcDbEntity
  8
0
  6
Continuous
 62
     7
370
    15
100
AcDbSpline
210
0.0
220
0.0
230
1.0
 70
    24
 71
     3
 72
    13
 73
     9
 74
     0
 42
0.00000001
 43
0.00000001
 12
1.0
 22
0.0
 32
0.0
 13
1.0
 23
0.0
 33
0.0
 40
0.0
 40
0.0
 40
0.0
 40
0.0
 40
0.1734385751046235
 40
0.3519090391369129
 40
0.5252484949917895
 40
0.7036433105306402
 40
0.8503205800979898
 40
1.0
 40
1.0
 40
1.0
 40
1.0
 10
78.53107416419346
 20
94.57160299368742
 30
0.0
 10
78.53107416419346
 20
94.59355279849058
 30
0.0
 10
78.53107416419347
 20
94.63808922709572
 30
0.0
 10
78.53107416419344
 20
94.70195966969037
 30
0.0
 10
78.53107416419347
 20
94.76216607485438
 30
0.0
 10
78.53107416419344
 20
94.81293309116272
 30
0.0
 10
78.53107416419346
 20
94.85549789495455
 30
0.0
 10
78.53107416419346
 20
94.87676604313691
 30
0.0
 10
78.53107416419346
 20
94.88750784244648
 30
0.0
  0
LINE
  5
1DA
330
1F
100
AcDbEntity
  8
0
  6
Continuous
 62
     7
370
    15
100
AcDbLine
 10
82.5010741642
 20
94.5264532654
 30
0.0
 11
82.5010741642
 21
94.6284554297
 31
0.0
  0
LINE
  5
1DB
330
1F
100
AcDbEntity
  8
0
  6
Continuous
 62
     7
370
    15
100
AcDbLine
 10
78.5310741642
 20
94.8875078424
 30
0.0
 11
78.5310741642
 21
100.5372455217
 31
0.0
  0
SPLINE
  5
1DC
330
1F
100
AcDbEntity
  8
0
  6
Continuous
 62
     7
370
    15
100
AcDbSpline
210
0.0
220
0.0
230
1.0
 70
    24
 71
     3
 72
     9
 73
     5
 74
     0
 42
0.00000001
 43
0.00000001
 12
1.0
 22
0.0
 32
0.0
 13
1.0
 23
0.0
 33
0.0
 40
0.0
 40
0.0
 40
0.0
 40
0.0
 40
0.618625628648268
 40
1.0
 40
1.0
 40
1.0
 40
1.0
 10
78.5310741641935
 20
100.5372455217476
 30
0.0
 10
78.5310741641935
 20
100.5592922940866
 30
0.0
 10
78.5310741641935
 20
100.5949306047515
 30
0.0
 10
78.5310741641935
 20
100.5937822444177
 30
0.0
 10
78.5310741641935
 20
100.5933442892173
 30
0.0
  0
CIRCLE
  5
1DD
330
1F
100
AcDbEntity
  8
VERMASSUNG
  6
CENTERX2
100
AcDbCircle
 10
78.5310741642
 20
123.8157028501
 30
0.0
 40
40.00000000000001
  0
DIMENSION
  5
1DE
330
1F
100
AcDbEntity
  8
VERMASSUNG
100
AcDbDimension
  2
_D_5
 10
52.9486961921
 20
93.0660372048
 30
0.0
 11
45.8921052262
 21
84.5841121455
 31
0.0
 70
   160
  1
%%c<>
 71
     2
 42
-1.0
  3
SLDDIMSTYLE2
100
AcDbAlignedDimension
 13
104.1134521362
 23
154.5653684954
 33
0.0
 14
52.9486961921
 24
93.0660372048
 34
0.0
 50
50.2410234166
100
AcDbRotatedDimension
  0
INSERT
  5
1F7
330
1F
100
AcDbEntity
  8
VERMASSUNG
100
AcDbBlockReference
  2
SW_CENTERMARKSYMBOL_0
 10
78.5310741642
 20
128.5124526003
 30
0.0
  0
OLE2FRAME
  5
1F8
330
1F
100
AcDbEntity
  8
0
100
AcDbOle2Frame
 70
     2
  3
Paintbrush-Bild
 10
13.8511154363
 20
38.264191557
 30
0.0
 11
51.6290888628
 21
31.9806341108
 31
0.0
 71
     2
 72
     0
 73
     1
 90
    12928
310
80552BED0767C5B32B40DDAF6807D121434000000000000000006FFBDDFB85D0
310
4940DDAF6807D121434000000000000000006FFBDDFB85D04940416F4BD60AFB
310
3F4000000000000000002BED0767C5B32B40416F4BD60AFB3F40000000000000
310
0000000000000100000000010000010000000100000000000100000000320000
310
D0CF11E0A1B11AE1000000000000000000000000000000003E000300FEFF0900
310
0600000000000000000000000100000001000000000000000010000002000000
310
01000000FEFFFFFF0000000000000000FFFFFFFFFFFFFFFFFFFFFFFFFFFFFFFF
310
FFFFFFFFFFFFFFFFFFFFFFFFFFFFFFFFFFFFFFFFFFFFFFFFFFFFFFFFFFFFFFFF
310
FFFFFFFFFFFFFFFFFFFFFFFFFFFFFFFFFFFFFFFFFFFFFFFFFFFFFFFFFFFFFFFF
310
FFFFFFFFFFFFFFFFFFFFFFFFFFFFFFFFFFFFFFFFFFFFFFFFFFFFFFFFFFFFFFFF
310
FFFFFFFFFFFFFFFFFFFFFFFFFFFFFFFFFFFFFFFFFFFFFFFFFFFFFFFFFFFFFFFF
310
FFFFFFFFFFFFFFFFFFFFFFFFFFFFFFFFFFFFFFFFFFFFFFFFFFFFFFFFFFFFFFFF
310
FFFFFFFFFFFFFFFFFFFFFFFFFFFFFFFFFFFFFFFFFFFFFFFFFFFFFFFFFFFFFFFF
310
FFFFFFFFFFFFFFFFFFFFFFFFFFFFFFFFFFFFFFFFFFFFFFFFFFFFFFFFFFFFFFFF
310
FFFFFFFFFFFFFFFFFFFFFFFFFFFFFFFFFFFFFFFFFFFFFFFFFFFFFFFFFFFFFFFF
310
FFFFFFFFFFFFFFFFFFFFFFFFFFFFFFFFFFFFFFFFFFFFFFFFFFFFFFFFFFFFFFFF
310
FFFFFFFFFFFFFFFFFFFFFFFFFFFFFFFFFFFFFFFFFFFFFFFFFFFFFFFFFFFFFFFF
310
FFFFFFFFFFFFFFFFFFFFFFFFFFFFFFFFFFFFFFFFFFFFFFFFFFFFFFFFFFFFFFFF
310
FFFFFFFFFFFFFFFFFFFFFFFFFFFFFFFFFFFFFFFFFFFFFFFFFFFFFFFFFFFFFFFF
310
FFFFFFFFFFFFFFFFFFFFFFFFFFFFFFFFFFFFFFFFFFFFFFFFFFFFFFFFFFFFFFFF
310
FDFFFFFFFEFFFFFFFEFFFFFFFEFFFFFF05000000060000000700000008000000
310
090000000A0000000B0000000C0000000D0000000E0000000F00000010000000
310
11000000120000001300000014000000150000001600000017000000FEFFFFFF
310
FFFFFFFFFFFFFFFFFFFFFFFFFFFFFFFFFFFFFFFFFFFFFFFFFFFFFFFFFFFFFFFF
310
FFFFFFFFFFFFFFFFFFFFFFFFFFFFFFFFFFFFFFFFFFFFFFFFFFFFFFFFFFFFFFFF
310
FFFFFFFFFFFFFFFFFFFFFFFFFFFFFFFFFFFFFFFFFFFFFFFFFFFFFFFFFFFFFFFF
310
FFFFFFFFFFFFFFFFFFFFFFFFFFFFFFFFFFFFFFFFFFFFFFFFFFFFFFFFFFFFFFFF
310
FFFFFFFFFFFFFFFFFFFFFFFFFFFFFFFFFFFFFFFFFFFFFFFFFFFFFFFFFFFFFFFF
310
FFFFFFFFFFFFFFFFFFFFFFFFFFFFFFFFFFFFFFFFFFFFFFFFFFFFFFFFFFFFFFFF
310
FFFFFFFFFFFFFFFFFFFFFFFFFFFFFFFFFFFFFFFFFFFFFFFFFFFFFFFFFFFFFFFF
310
FFFFFFFFFFFFFFFFFFFFFFFFFFFFFFFFFFFFFFFFFFFFFFFFFFFFFFFFFFFFFFFF
310
FFFFFFFFFFFFFFFFFFFFFFFFFFFFFFFFFFFFFFFFFFFFFFFFFFFFFFFFFFFFFFFF
310
FFFFFFFFFFFFFFFFFFFFFFFFFFFFFFFFFFFFFFFFFFFFFFFFFFFFFFFFFFFFFFFF
310
FFFFFFFFFFFFFFFFFFFFFFFFFFFFFFFFFFFFFFFFFFFFFFFFFFFFFFFFFFFFFFFF
310
FFFFFFFFFFFFFFFFFFFFFFFFFFFFFFFFFFFFFFFFFFFFFFFFFFFFFFFFFFFFFFFF
310
FFFFFFFFFFFFFFFFFFFFFFFFFFFFFFFFFFFFFFFFFFFFFFFFFFFFFFFFFFFFFFFF
310
52006F006F007400200045006E00740072007900000000000000000000000000
310
0000000000000000000000000000000000000000000000000000000000000000
310
16000500FFFFFFFFFFFFFFFF020000000A00030000000000C000000000000046
310
0000000000000000000000001017EF2A2E3FCD0103000000C000000000000000
310
01004F006C006500000000000000000000000000000000000000000000000000
310
0000000000000000000000000000000000000000000000000000000000000000
310
0A000200FFFFFFFFFFFFFFFFFFFFFFFF00000000000000000000000000000000
310
0000000000000000000000000000000000000000000000001400000000000000
310
010043006F006D0070004F0062006A0000000000000000000000000000000000
310
0000000000000000000000000000000000000000000000000000000000000000
310
120002010100000003000000FFFFFFFF00000000000000000000000000000000
310
0000000000000000000000000000000000000000010000004D00000000000000
310
01004F006C006500310030004E00610074006900760065000000000000000000
310
0000000000000000000000000000000000000000000000000000000000000000
310
1A000200FFFFFFFFFFFFFFFFFFFFFFFF00000000000000000000000000000000
310
0000000000000000000000000000000000000000040000002426000000000000
310
FEFFFFFF02000000FEFFFFFFFFFFFFFFFFFFFFFFFFFFFFFFFFFFFFFFFFFFFFFF
310
FFFFFFFFFFFFFFFFFFFFFFFFFFFFFFFFFFFFFFFFFFFFFFFFFFFFFFFFFFFFFFFF
310
FFFFFFFFFFFFFFFFFFFFFFFFFFFFFFFFFFFFFFFFFFFFFFFFFFFFFFFFFFFFFFFF
310
FFFFFFFFFFFFFFFFFFFFFFFFFFFFFFFFFFFFFFFFFFFFFFFFFFFFFFFFFFFFFFFF
310
FFFFFFFFFFFFFFFFFFFFFFFFFFFFFFFFFFFFFFFFFFFFFFFFFFFFFFFFFFFFFFFF
310
FFFFFFFFFFFFFFFFFFFFFFFFFFFFFFFFFFFFFFFFFFFFFFFFFFFFFFFFFFFFFFFF
310
FFFFFFFFFFFFFFFFFFFFFFFFFFFFFFFFFFFFFFFFFFFFFFFFFFFFFFFFFFFFFFFF
310
FFFFFFFFFFFFFFFFFFFFFFFFFFFFFFFFFFFFFFFFFFFFFFFFFFFFFFFFFFFFFFFF
310
FFFFFFFFFFFFFFFFFFFFFFFFFFFFFFFFFFFFFFFFFFFFFFFFFFFFFFFFFFFFFFFF
310
FFFFFFFFFFFFFFFFFFFFFFFFFFFFFFFFFFFFFFFFFFFFFFFFFFFFFFFFFFFFFFFF
310
FFFFFFFFFFFFFFFFFFFFFFFFFFFFFFFFFFFFFFFFFFFFFFFFFFFFFFFFFFFFFFFF
310
FFFFFFFFFFFFFFFFFFFFFFFFFFFFFFFFFFFFFFFFFFFFFFFFFFFFFFFFFFFFFFFF
310
FFFFFFFFFFFFFFFFFFFFFFFFFFFFFFFFFFFFFFFFFFFFFFFFFFFFFFFFFFFFFFFF
310
FFFFFFFFFFFFFFFFFFFFFFFFFFFFFFFFFFFFFFFFFFFFFFFFFFFFFFFFFFFFFFFF
310
FFFFFFFFFFFFFFFFFFFFFFFFFFFFFFFFFFFFFFFFFFFFFFFFFFFFFFFFFFFFFFFF
310
FFFFFFFFFFFFFFFFFFFFFFFFFFFFFFFFFFFFFFFFFFFFFFFFFFFFFFFFFFFFFFFF
310
0100000200000000000000000000000000000000000000000000000000000000
310
0000000000000000000000000000000000000000000000000000000000000000
310
0100FEFF030A0000FFFFFFFF0A00030000000000C00000000000004607000000
310
5042727573680007000000504272757368000700000050427275736800F439B2
310
7100000000000000000000000000000000000000000000000000000000000000
310
0000000000000000000000000000000000000000000000000000000000000000
310
0000000000000000000000000000000000000000000000000000000000000000
310
0000000000000000000000000000000000000000000000000000000000000000
310
0000000000000000000000000000000000000000000000000000000000000000
310
0000000000000000000000000000000000000000000000000000000000000000
310
0000000000000000000000000000000000000000000000000000000000000000
310
0000000000000000000000000000000000000000000000000000000000000000
310
0000000000000000000000000000000000000000000000000000000000000000
310
0000000000000000000000000000000000000000000000000000000000000000
310
0000000000000000000000000000000000000000000000000000000000000000
310
0000000000000000000000000000000000000000000000000000000000000000
310
20260000424D0E260000000000003E00000028000000B40200006E0000000100
310
01000000000000000000130B0000130B00000200000002000000000000FFFFFF
310
FFFFFFFFFFFFFFFFFFFFFFFFFFFFFFFFFFFFFFFFFFFFFFFFFFFFFFFFFFFFFFFF
310
FFFFFFFFFFFFFFFFFFFFFFFFFFFFFFFFFFFFFFFFFFFFFFFFFFFFFFFFFFFFFFFF
310
FFFFFFFFFFFFFFFFFFFFFFFFFFFFFFFFFFFFFFFFFFFFFFFFF000FFFFFFFFFFFF
310
FFFFFFFFFFFFFFFFFFFFFFFFFFFFFFFFFFFFFFFFFFFFFFFFFFFFFFFFFFFFFFFF
310
FFFFFFFFFFFFFFFFFFFFFFFFFFFFFFFFFFFFFFFFFFFFFFFFFFFFFFFFFFFFFFFF
310
FFFFFFFFFFFFFFFFFFFFFFFFFFFFFFFFF000FFFFFFFFFFFFFFFFFFFFFFFFFFFF
310
FFFFFFFFFFFFFFFFFFFFFFFFFFFFFFFFFFFFFFFFFFFFFFFFFFFFFFFFFFFFFFFF
310
FFFFFFFFFFFFFFFFFFFFFFFFFFFFFFFFFFFFFFFFFFFFFFFFFFFFFFFFFFFFFFFF
310
FFFFFFFFFFFFFFFFF000FFFFFFFFFFFFFFFFFFFFFFFFFFFFFFFFFFFFFFFFFFFF
310
FFFFFFFFFFFFFFFFFFFFFFFFFFFFFFFFFFFFFFFFFFFFFFFFFFFFFFFFFFFFFFFF
310
FFFFFFFFFFFFFFFFFFFFFFFFFFFFFFFFFFFFFFFFFFFFFFFFFFFFFFFFFFFFFFFF
310
F000FFFFFFFFFFFFFFFFFFFFFFFFFFFFFFFFFFFFFFFFFFFFFFFFFFFFFFFFFFFF
310
FFFFFFFFFFFFFFFFFFFFFFFFFFFFFFFFFFFFFFFFFFFFFFFFFFFFFFFFFFFFFFFF
310
FFFFFFFFFFFFFFFFFFFFFFFFFFFFFFFFFFFFFFFFFFFFFFFFF000FFFFFFFFFFFF
310
FFFFFFFFFFFFFFFFFFFFFFFFFFFFFFFFFFFFFFFFFFFFFFFFFFFFFFFFFFFFFFFF
310
FFFFFFFFFFFFFFFFFFFFFFFFFFFFFFFFFFFFFFFFFFFFFFFFFFFFFFFFFFFFFFFF
310
FFFFFFFFFFFFFFFFFFFFFFFFFFFFFFFFF000FFFFFFFFFFFFFFFFFFFFFFFFFFFF
310
FFFFFFFFFFFFFFFFFFFFFFFFFFFFFFFFFFFFFFFFFFFFFFFFFFFFFFFFFFFFFFFF
310
FFFFFFFFFFFFFFFFFFFFFFFFFFFFFFFFFFFFFFFFFFFFFFFFFFFFFFFFFFFFFFFF
310
FFFFFFFFFFFFFFFFF000FFFFFFFFFFFFFFFFFFFFFFFFFFFFFFFFFFFFFFFFFFFF
310
FFFFFFFFFFFFFFFFFFFFFFFFFFFFFFFFFFFFFFFFFFFFFFFFFFFFFFFFFFFFFFFF
310
FFFFFFFFFFFFFFFFFFFFFFFFFFFFFFFFFFFFFFFFFFFFFFFFFFFFFFFFFFFFFFFF
310
F000FFFFFFFFFFFFFFFFFFFFFFFFFFFFFFFFFFFFFFFFFFFFFFFFFFFFFFFFFFFF
310
FFFFFFFFFFFFFFFFFFFFFFFFFFFFFFFFFFFFFFFFFFFFFFFFFFFFFFFFFFFFFFFF
310
FFFFFFFFFFFFFFFFFFFFFFFFFFFFFFFFFFFFFFFFFFFFFFFFF000FFFFFFFFFFFF
310
FFFFFFFFFFFFFFFFFFFFFFFFFFFFFFFFFFFFFFFFFFFFFFFFFFFFFFFFFFFFFFFF
310
FFFFFFFFFFFFFFFFFFFFFFFFFFFFFFFFFFFFFFFFFFFFFFFFFFFFFFFFFFFFFFFF
310
FFFFFFFFFFFFFFFFFFFFFFFFFFFFFFFFF000FFFFFFFFFFFFFFFFFFFFFFFFFFFF
310
FFFFFFFFFFFFFFFFFFFFFFFFFFFFFFFFFFFFFFFFFFFFFFFFFFFFFFFFFFFFFFFF
310
FFFFFFFFFFFFFFFFFFFFFFFFFFFFFFFFFFFFFFFFFFFFFFFFFFFFFFFFFFFFFFFF
310
FFFFFFFFFFFFFFFFF000FFFFFFFFFFFFFFFFFFFFFFFFFFFFFFFFFFFFFFFFFFFF
310
FFFFFFFFFFFFFFFFFFFFFFFFFFFFFFFFFFFFFFFFFFFFFFFFFFFFFFFFFFFFFFFF
310
FFFFFFFFFFFFFFFFFFFFFFFFFFFFFFFFFFFFFFFFFFFFFFFFFFFFFFFFFFFFFFFF
310
F000FFFFFFFFFFFFFFFFFFFFFFFFFFFFFFFFFFFFFFFFFFFFFFFFFFFFFFFFFFFF
310
FFFFFFFFFFFFFFFFFFFFFFFFFFFFFFFFFFFFFFFFFFFFFFFFFFFFFFFFFFFFFFFF
310
FFFFFFFFFFFFFFFFFFFFFFFFFFFFFFFFFFFFFFFFFFFFFFFFF000FFFFFFFFFFFF
310
FFFFFFFFFFFFFFFFFFFFFFFFFFFFFFFFFFFFFFFFFFFFFFFFFFFFFFFFFFFFFFFF
310
FFFFFFFFFFFFFFFFFFFFFFFFFFFFFFFFFFFFFFFFFFFFFFFFFFFFFFFFFFFFFFFF
310
FFFFFFFFFFFFFFFFFFFFFFFFFFFFFFFFF000FFFFFFFFFFFFFFFFFFFFFFFFFFFF
310
FFFFFFFFFFFFFFFFFFFFFFFFFFFFFFFFFFFFFFFFFFFFFFFFFFFFFFFFFFFFFFFF
310
FFFFFFFFFFFFFFFFFFFFFFFFFFFFFFFFFFFFFFFFFFFFFFFFFFFFFFFFFFFFFFFF
310
FFFFFFFFFFFFFFFFF000FFFFFFFFFFFFFFFFFFFFFFFFFFFFFFFFFFFFFFFFFFFF
310
FFFFFFFFFFFFFFFFFFFFFFFFFFFFFFFFFFFFFFFFFFFFFFFFFFFFFFFFFFFFFFFF
310
FFFFFFFFFFFFFFFFFFFFFFFFFFFFFFFFFFFFFFFFFFFFFFFFFFFFFFFFFFFFFFFF
310
F000FFFFFFFFFFFFFFFFFFFFFFFFFFFFFFFFFFFFFFFFFFFFFFFFFFFFFFFFFFFF
310
FFFFFFFFFFFFFFFFFFFFFFFFFFFFFFFFFFFFFFFFFFFFFFFFFFFFFFFFFFFFFFFF
310
FFFFFFFFFFFFFFFFFFFFFFFFFFFFFFFFFFFFFFFFFFFFFFFFF000FFFFFFFFFFFF
310
FFFFFFFFFFFFFFFFFFFFFFFFFFFFFFFFFFFFFFFFFFFFFFFFFFFFFFFFFFFFFFFF
310
FFFFFFFFFFFFFFFFFFFFFFFFFFFFFFFFFFFFFFFFFFFFFFFFFFFFFFFFFFFFFFFF
310
FFFFFFFFFFFFFFFFFFFFFFFFFFFFFFFFF000FFFFFFFFFFFFFFFFFFFFFFFFFFFF
310
FFFFFFFFFFFFFFFFFFFFFFFFFFFFFFFFFFFFFFFFFFFFFFFFFFFFFFFFFFFFFFFF
310
FFFFFFFFFFFFFFFFFFFFFFFFFFFFFFFFFFFFFFFFFFFFFFFFFFFFFFFFFFFFFFFF
310
FFFFFFFFFFFFFFFFF000FFFFF80003FFFFFFFFFFFFFFFFFFFFFFFFFFFFFFFFFF
310
FFFFF00007FFFFFFFFFF00007FFFFFF800000000000000007FFFFFFFFFFFFFFF
310
FFFFFFFC001FFFFFFFFFFFFFFC001FFFFFFFFFFFFFFFFFFFFFFFFFFE0007FFFF
310
F000FFFF8000007FFFFFFFF8000FFFFFC0007FFFFF80007FFFFF0000007FFFFF
310
FFF8000007FFFFF800000000000000007FFFFFF0001FFFFFFFFFFFC00001FFFF
310
FFFFFFFFC00001FFFFFFFF000000000003FFFFE000007FFFF000FFFE0000000F
310
FFFFFFF0000FFFFF80007FFFFF80007FFFFC0000001FFFFFFFC0000001FFFFF8
310
00000000000000007FFFFFF0001FFFFFFFFFFE0000003FFFFFFFFFFE0000003F
310
FFFFFF000000000003FFFF0000000FFFF000FFF800000003FFFFFFF00007FFFF
310
80007FFFFF80007FFFF000000007FFFFFF000000003FFFF80000000000000000
310
7FFFFFF0001FFFFFFFFFF80000000FFFFFFFFFF80000000FFFFFFF0000000000
310
03FFFC00000003FFF000FFE000000000FFFFFFF00007FFFF80003FFFFF80007F
310
FFC000000001FFFFFC000000001FFFF800000000000000007FFFFFF0001FFFFF
310
FFFFE000000003FFFFFFFFE000000003FFFFFF000000000003FFF000000000FF
310
F000FF80000000007FFFFFF00007FFFF80003FFFFF80007FFF8000000000FFFF
310
F80000000007FFF800000000000000007FFFFFF0001FFFFFFFFFC000000001FF
310
FFFFFFC000000001FFFFFF000000000003FFC0000000007FF000FF0000000000
310
3FFFFFE00007FFFF00003FFFFF80007FFE00000000003FFFF00000000003FFF8
310
00000000000000007FFFFFF0001FFFFFFFFF8000000000FFFFFFFF8000000000
310
FFFFFF000000000003FF80000000003FF000FE00000000001FFFFFE00003FFFF
310
00003FFFFF80007FFC00000000001FFFE00000000001FFF8000001FFFE000000
310
7FFFFFF0001FFFFFFFFE00000000003FFFFFFE00000000003FFFFF0000000000
310
03FF00000000001FF000FC00000000000FFFFFE00003FFFF00001FFFFF80007F
310
F800000000001FFFC00000000000FFF8000001FFFE0000007FFFFFF0001FFFFF
310
FFFC00000000001FFFFFFC00000000001FFFFF000000000003FE00000000000F
310
F000F8000000000007FFFFE00003FFFF00001FFFFF80007FF800000000000FFF
310
800000000000FFF8000001FFFE0000007FFFFFF0001FFFFFFFF800000000000F
310
FFFFF800000000000FFFFF000000000003FC000000000007F000F80000000000
310
03FFFFC00003FFFE00001FFFFF80007FF0000000000007FF0000000000007FF8
310
000001FFFE0000007FFFFFF0001FFFFFFFF0000000000007FFFFF00000000000
310
07FFFF000000000003F8000000000003F000F0000000000003FFFFC00001FFFE
310
00001FFFFF80007FE0000000000007FE0000000000003FF8000001FFFE000000
310
7FFFFFF0001FFFFFFFF0000000000007FFFFF0000000000007FFFF0000000000
310
03F800001F800003F000E00001FFF00001FFFFC00001FFFE00000FFFFF80007F
310
E00001FFE00003FE00001FFF00003FF8000001FFFE0000007FFFFFF0001FFFFF
310
FFE000003E000003FFFFE000003E000003FFFF000000000003F00001FFF80001
310
F000E00007FFFC0001FFFFC00001FFFE00000FFFFF80007FC0000FFFFC0003FC
310
0000FFFFC0001FF8000001FFFE0000007FFFFFF0001FFFFFFFC00003FFE00001
310
FFFFC00003FFE00001FFFF0001FFFFFFFFF00007FFFE0001F000E0000FFFFF00
310
00FFFF800001FFFC00000FFFFF80007FC0001FFFFE0001FC0001FFFFE0001FF8
310
000001FFFE0000007FFFFFF0001FFFFFFF80000FFFF80000FFFF80000FFFF800
310
00FFFF0003FFFFFFFFE0000FFFFF8000F000C0003FFFFF8000FFFF800000FFFC
310
000007FFFF80007F80003FFFFF0001FC0003FFFFF0001FF8000001FFFE000000
310
7FFFFFF0001FFFFFFF80003FFFFE0000FFFF80003FFFFE0000FFFF0003FFFFFF
310
FFE0003FFFFF8000F000C0003FFFFF8000FFFF800000FFFC000007FFFF80007F
310
80007FFFFF8001F80007FFFFF8000FF8000001FFFE0000007FFFFFF0001FFFFF
310
FF00007FFFFF00007FFF00007FFFFF00007FFF0003FFFFFFFFE0003FFFFFC000
310
F000C0007FFFFFC000FFFF000000FFFC000007FFFF80007F8000FFFFFF8000F8
310
000FFFFFF8000FF8000001FFFE0000007FFFFFF0001FFFFFFF0000FFFFFF8000
310
7FFF0000FFFFFF80007FFF0003FFFFFFFFC0007FFFFFC00070008000FFFFFFC0
310
00FFFF000000FFF8000007FFFF80007F8000FFFFFF8000F8000FFFFFF8000FF8
310
000001FFFE0000007FFFFFF0001FFFFFFE0001FFFFFFC0003FFE0001FFFFFFC0
310
003FFF0003FFFFFFFFC0007FFFFFE00070008000FFFFFFC0007FFF0000007FF8
310
000003FFFF80007F0001FFFFFF8000F8000FFFFFF8000FF8000001FFFE000000
310
7FFFFFF0001FFFFFFE0001FFFFFFC0003FFE0001FFFFFFC0003FFF0003FFFFFF
310
FFC000FFFFFFE00070008000FFFFFFC0007FFF0000007FF8000003FFFF80007F
310
0001FFFFFF8000F8001FFFFFF8000FF8000001FFFE0000007FFFFFF0001FFFFF
310
FE0003FFFFFFE0003FFE0003FFFFFFE0003FFF0003FFFFFFFFC000FFFFFFE000
310
70008000FFFFFFC0007FFE0000007FF8000003FFFF80007F0001FFFFFF8000F0
310
001FFFFFF8000FF8000001FFFE0000007FFFFFF0001FFFFFFC0003FFFFFFE000
310
1FFC0003FFFFFFE0001FFF0003FFFFFFFFC000FFFFFFC00070008000FFFFFF80
310
007FFE0000007FF0000003FFFF80007F0001FFFFFF0000F0001FFFFFF8000FF8
310
000001FFFE0000007FFFFFF0001FFFFFFC0007FFFFFFF0001FFC0007FFFFFFF0
310
001FFF0003FFFFFFFFC000FFFFFFC00070008001FFFFFF0000FFFE0000003FF0
310
000001FFFF80007F0001FFFFFF0000F8001FFFFFF0000FF8000001FFFE000000
310
7FFFFFF0001FFFFFFC0007FFFFFFF0001FFC0007FFFFFFF0001FFF0003FFFFFF
310
FFC001FFFFFF80007000FFFFFFFFFE0000FFFE0008003FF0008001FFFF80007F
310
FFFFFFFFFC0000FFFFFFFFFFE0000FF8000001FFFE0000007FFFFFF0001FFFFF
310
F8000FFFFFFFF8000FF8000FFFFFFFF8000FFF0003FFFFFFFFFFFFFFFFFF0000
310
7000FFFFFFFFFC0000FFFC0008003FF0008001FFFF80007FFFFFFFFFF80001FF
310
FFFFFFFF80000FF8000001FFFE0000007FFFFFF0001FFFFFF8000FFFFFFFF800
310
0FF8000FFFFFFFF8000FFF0003FFFFFFFFFFFFFFFFFE0000F000FFFFFFFFE000
310
00FFFC000C003FE000C001FFFF80007FFFFFFFFFC00001FFFFFFFFFE00001FF8
310
000001FFFE0000007FFFFFF0001FFFFFF8000FFFFFFFF8000FF8000FFFFFFFF8
310
000FFF0003FFFFFFFFFFFFFFFFF00000F000FFFFFFFE000001FFFC000C001FE0
310
00C000FFFF80007FFFFFFFFE000001FFFFFFFFE000001FF80FFFFFFFFFFFFFC0
310
7FFFFFF0001FFFFFF8000FFFFFFFF8000FF8000FFFFFFFF8000FFF0003FFFFFF
310
FFFFFFFFFF800000F000FFFFFFC0000001FFFC001C001FE001C000FFFF80007F
310
FFFFFF80000003FFFFFFF80000001FF80FFFFFFFFFFFFFC07FFFFFF0001FFFFF
310
F8001FFFFFFFFC000FF8001FFFFFFFFC000FFF0003FFFFFFFFFFFFFFF0000001
310
F000FFFFF800000001FFF8001C001FE001C000FFFF80007FFFFFF800000003FF
310
FFFF800000003FF80FFFFFFFFFFFFFC07FFFFFF0001FFFFFF8001FFFFFFFFC00
310
0FF8001FFFFFFFFC000FFF0003FFFFFFFFFFFFFE00000001F000FFFFC0000000
310
03FFF8001E001FC001E000FFFF80007FFFFF8000000007FFFFFC000000003FF8
310
0FFFFFFFFFFFFFC07FFFFFF0001FFFFFF8001FFFFFFFFC000FF8001FFFFFFFFC
310
000FFF0003FFFFFFFFFFFFE000000003F000FFFE0000000007FFF8001E000FC0
310
01E0007FFF80007FFFFE0000000007FFFFE0000000007FF80FFFFFFFFFFFFFC0
310
7FFFFFF0001FFFFFF0001FFFFFFFFC0007F0001FFFFFFFFC0007FF0003FFFFFF
310
FFFFFF0000000003F000FFF80000000007FFF8001E000FC003E0007FFF80007F
310
FFF0000000000FFFFF8000000000FFF80FFFFFFFFFFFFFC07FFFFFF0001FFFFF
310
F0001FFFFFFFFC0007F0001FFFFFFFFC0007FF0003FFFFFFFFFFFC0000000007
310
F000FFE0000000000FFFF0003E000FC003E0007FFF80007FFFC0000000001FFF
310
FE0000000001FFF80FFFFFFFFFFFFFC07FFFFFF0001FFFFFF0001FFFFFFFFC00
310
07F0001FFFFFFFFC0007FF0003FFFFFFFFFFF0000000000FF000FFC000000000
310
1FFFF0003F000F8003F0003FFF80007FFF80000000003FFFF80000000003FFF8
310
0FFFFFFFFFFFFFC07FFFFFF0001FFFFFF0001FFFFFFFFC0007F0001FFFFFFFFC
310
0007FF0003FFFFFFFFFFE0000000001FF000FF00000000007FFFF0003F000780
310
03F0003FFF80007FFF00000000007FFFF00000000007FFF80FFFFFFFFFFFFFC0
310
7FFFFFF0001FFFFFF0001FFFFFFFFC0007F0001FFFFFFFFC0007FF0003FFFFFF
310
FFFF80000000007FF000FE0000000000FFFFE0003F00078007F0003FFF80007F
310
FE0000000001FFFFE0000000001FFFF80FFFFFFFFFFFFFC07FFFFFF0001FFFFF
310
F0001FFFFFFFFC0007F0001FFFFFFFFC0007FF0003FFFFFFFFFF0000000000FF
310
F000FC0000000003FFFFE0007F00078007F0003FFF80007FFC0000000007FFFF
310
C0000000007FFFF80FFFFFFFFFFFFFC07FFFFFF0001FFFFFF8001FFFFFFFFC00
310
0FF8001FFFFFFFFC000FFF0003FFFFFFFFFE0000000003FFF000FC000000000F
310
FFFFE0007F80070007F8001FFF80007FF8000000001FFFFF8000000001FFFFF8
310
0FFFFFFFFFFFFFC07FFFFFF0001FFFFFF8001FFFFFFFFC000FF8001FFFFFFFFC
310
000FFF0003FFFFFFFFFC000000000FFFF000F8000000007FFFFFE0007F800700
310
07F8001FFF80007FF000000000FFFFFF800000000FFFFFF80FFFFFFFFFFFFFC0
310
7FFFFFF0001FFFFFF8000FFFFFFFF8000FF8000FFFFFFFF8000FFF0003FFFFFF
310
FFFC000000007FFFF000F800000007FFFFFFC0007F8003000FF8001FFF80007F
310
F000000007FFFFFF000000007FFFFFF80FFFFFFFFFFFFFC07FFFFFF0001FFFFF
310
F8000FFFFFFFF8000FF8000FFFFFFFF8000FFF0003FFFFFFFFF80000000FFFFF
310
F000F0000000FFFFFFFFC000FF8003000FF8001FFF80007FE0000000FFFFFFFF
310
0000000FFFFFFFF8000001FFFE0000007FFFFFF0001FFFFFF8000FFFFFFFF800
310
0FF8000FFFFFFFF8000FFF0003FFFFFFFFF8000000FFFFFFF000F000000FFFFF
310
FFFFC000FFC002000FF8000FFF80007FE000001FFFFFFFFE000001FFFFFFFFF8
310
000001FFFE0000007FFFFFF0001FFFFFF8000FFFFFFFF8000FF8000FFFFFFFF8
310
000FFF0003FFFFFFFFF000001FFFFFFFF000E00000FFFFFFFFFFC000FFC00200
310
0FFC000FFF80007FE00001FFFFFFFFFE00001FFFFFFFFFF8000001FFFE000000
310
7FFFFFF0001FFFFFFC000FFFFFFFF8001FFC000FFFFFFFF8001FFF0003FFFFFF
310
FFF00001FFFFFFFFF000E00007FFFFFFFFFF8000FFC000001FFC000FFF80007F
310
C0000FFFFFFFFFFE0000FFFFFFFFFFF8000001FFFE0000007FFFFFF0001FFFFF
310
FC0007FFFFFFF0001FFC0007FFFFFFF0001FFF0003FFFFFFFFF00007FFFFFFFF
310
F000E0001FFFFFFFFFFF8000FFC000001FFC000FFF80007FC0003FFFFFFFFFFE
310
0001FFFFFFFFFFF8000001FFFE0000007FFFFFF0001FFFFFFC0007FFFFFFF000
310
1FFC0007FFFFFFF0001FFF0003FFFFFFFFF0001FFFFFFFFFF000E0003FFFFF00
310
03FF8001FFE000001FFC0007FF80007FC0007FFFFF0007FC0003FFFFF0003FF8
310
000001FFFE0000007FFFFFF0001FFFFFFC0003FFFFFFE0001FFC0003FFFFFFE0
310
001FFF0003FFFFFFFFF0003FFFFFFFFFF000E0003FFFFF0001FF8001FFE00000
310
1FFE0007FF80007FC0007FFFFE0003FC0007FFFFE0003FF8000001FFFE000000
310
7FFFFFF0001FFFFFFE0003FFFFFFE0003FFE0003FFFFFFE0003FFF0003FFFFFF
310
FFF0003FFFFF8001F000E0003FFFFF0001FF0001FFE000001FFE0007FF80007F
310
C0007FFFFE0003FC0007FFFFE0003FF8000001FFFE0000007FFFFFF0001FFFFF
310
FE0001FFFFFFC0003FFE0001FFFFFFC0003FFF0003FFFFFFFFF0003FFFFF0001
310
F000E0003FFFFF0003FF0001FFE000003FFE0007FF80007FC0007FFFFE0003FC
310
0007FFFFE0003FF8000001FFFE0000007FFFFFF0001FFFFFFF0001FFFFFFC000
310
7FFF0001FFFFFFC0007FFF0003FFFFFFFFF0003FFFFF0001F000E0003FFFFE00
310
03FF0003FFF000003FFE0003FF80007FC0007FFFFC0003FE0007FFFFE0003FF8
310
000001FFFE0000007FFFFFF0001FFFFFFF0000FFFFFF80007FFF0000FFFFFF80
310
007FFF0003FFFFFFFFF0003FFFFF0001F000E0003FFFFE0003FF0003FFF00000
310
3FFF0003FF80007FC0007FFFFC0007FE0007FFFFC0003FF8000001FFFE000000
310
7FFFFFF0001FFFFFFF80007FFFFF0000FFFF80007FFFFF0000FFFF0003FFFFFF
310
FFF0003FFFFF0003F000E0003FFFFC0003FE0003FFF000003FFF0003FF80007F
310
E0003FFFF80007FE0003FFFFC0007FF8000001FFFE0000007FFFFFF0001FFFFF
310
FF80003FFFFE0000FFFF80003FFFFE0000FFFF0003FFFFFFFFF0001FFFFE0003
310
F000F0001FFFF80003FE0003FFF000007FFF0001FF80007FE0003FFFF00007FE
310
0001FFFF80007FF8000001FFFE0000007FFFFFF0001FFFFFFFC0000FFFF80001
310
FFFFC0000FFFF80001FFFF0003FFFFFFFFF0001FFFFC0003F000F0000FFFF000
310
07FE0007FFF800007FFF0001FF80007FE0001FFFE00007FF0000FFFE00007FF8
310
000001FFFE0000007FFFFFF0001FFFFFFFC00003FFE00001FFFFC00003FFE000
310
01FFFF0003FFFFFFFFF8000FFFF80003F000F00003FFC00007FC0007FFF80000
310
7FFF8001FF80007FF00007FF80000FFF00007FF80000FFF8000001FFFE000000
310
7F80000000000001FFE000003E000003FFFFE000003E000003FFFF0003FFFFFF
310
FFF80003FFE00007F000F800000000000FFC0007FFF800007FFF8001FF80007F
310
F000000000000FFF000000000000FFF8000001FFFE0000007F80000000000001
310
FFF0000000000007FFFFF0000000000007FFFF0003FFFFFFFFFC00007E000007
310
F000F800000000000FFC0007FFF80000FFFF8000FF80007FF800000000001FFF
310
800000000001FFF8000001FFFE0000007F80000000000001FFF800000000000F
310
FFFFF800000000000FFFFF0003FFFFFFFFFC00000000000FF000FC0000000000
310
1FFC0007FFFC0000FFFF8000FF80007FF800000000003FFFC00000000001FFF8
310
000001FFFE0000007F80000000000001FFF800000000000FFFFFF80000000000
310
0FFFFF0003FFFFFFFFFE00000000001FF000FE00000000003FF8000FFFFC0000
310
FFFF8000FF80007FFC00000000003FFFC00000000003FFF8000001FFFE000000
310
7F80000000000001FFFC00000000001FFFFFFC00000000001FFFFF0003FFFFFF
310
FFFF00000000001FF000FF00000000003FF8000FFFFC0000FFFFC000FF80007F
310
FE00000000007FFFE00000000007FFF8000001FFFE0000007F80000000000001
310
FFFE00000000003FFFFFFE00000000003FFFFF0003FFFFFFFFFF80000000003F
310
F000FF80000000007FF8000FFFFC0001FFFFC0007F80007FFF0000000000FFFF
310
F0000000000FFFF800000000000000007F80000000000001FFFF8000000000FF
310
FFFFFF8000000000FFFFFF0003FFFFFFFFFFC0000000007FF000FFC000000000
310
FFF8000FFFFE0001FFFFC0007F80007FFF8000000001FFFFF8000000001FFFF8
310
00000000000000007F80000000000001FFFFC000000001FFFFFFFFC000000001
310
FFFFFF0003FFFFFFFFFFE000000000FFF000FFE000000003FFF0001FFFFE0001
310
FFFFC0007F80007FFFC000000007FFFFFE000000003FFFF80000000000000000
310
7F80000000000001FFFFE000000003FFFFFFFFE000000003FFFFFF0003FFFFFF
310
FFFFF000000003FFF000FFF80000000FFFF0001FFFFE0001FFFFE0007F80007F
310
FFF00000000FFFFFFF00000000FFFFF800000000000000007F80000000000001
310
FFFFF80000000FFFFFFFFFF80000000FFFFFFF0003FFFFFFFFFFFC0000000FFF
310
F000FFFE0000003FFFF0001FFFFE0003FFFFE0003F80007FFFFC0000003FFFFF
310
FFC0000003FFFFF800000000000000007F80000000000001FFFFFE0000003FFF
310
FFFFFFFE0000003FFFFFFF0003FFFFFFFFFFFF0000003FFFF000FFFF800000FF
310
FFF0001FFFFF0003FFFFE0003F80007FFFFF000001FFFFFFFFF800001FFFFFF8
310
00000000000000007F80000000000001FFFFFFC00001FFFFFFFFFFFFC00001FF
310
FFFFFF0003FFFFFFFFFFFFC00000FFFFF000FFFFF8000FFFFFFFFFFFFFFFFFFF
310
FFFFFFFFFFFFFFFFFFFFF0001FFFFFFFFFFF0000FFFFFFF80000000000000000
310
7FFFFFFFFFFFFFFFFFFFFFFC001FFFFFFFFFFFFFFC001FFFFFFFFFFFFFFFFFFF
310
FFFFFFFC001FFFFFF000FFFFFFFFFFFFFFFFFFFFFFFFFFFFFFFFFFFFFFFFFFFF
310
FFFFFFFFFFFFFFFFFFFFFFFFFFFFFFFFFFFFFFFFFFFFFFFFFFFFFFFFFFFFFFFF
310
FFFFFFFFFFFFFFFFFFFFFFFFFFFFFFFFFFFFFFFFFFFFFFFFFFFFFFFFFFFFFFFF
310
F000FFFFFFFFFFFFFFFFFFFFFFFFFFFFFFFFFFFFFFFFFFFFFFFFFFFFFFFFFFFF
310
FFFFFFFFFFFFFFFFFFFFFFFFFFFFFFFFFFFFFFFFFFFFFFFFFFFFFFFFFFFFFFFF
310
FFFFFFFFFFFFFFFFFFFFFFFFFFFFFFFFFFFFFFFFFFFFFFFFF000FFFFFFFFFFFF
310
FFFFFFFFFFFFFFFFFFFFFFFFFFFFFFFFFFFFFFFFFFFFFFFFFFFFFFFFFFFFFFFF
310
FFFFFFFFFFFFFFFFFFFFFFFFFFFFFFFFFFFFFFFFFFFFFFFFFFFFFFFFFFFFFFFF
310
FFFFFFFFFFFFFFFFFFFFFFFFFFFFFFFFF000FFFFFFFFFFFFFFFFFFFFFFFFFFFF
310
FFFFFFFFFFFFFFFFFFFFFFFFFFFFFFFFFFFFFFFFFFFFFFFFFFFFFFFFFFFFFFFF
310
FFFFFFFFFFFFFFFFFFFFFFFFFFFFFFFFFFFFFFFFFFFFFFFFFFFFFFFFFFFFFFFF
310
FFFFFFFFFFFFFFFFF000FFFFFFFFFFFFFFFFFFFFFFFFFFFFFFFFFFFFFFFFFFFF
310
FFFFFFFFFFFFFFFFFFFFFFFFFFFFFFFFFFFFFFFFFFFFFFFFFFFFFFFFFFFFFFFF
310
FFFFFFFFFFFFFFFFFFFFFFFFFFFFFFFFFFFFFFFFFFFFFFFFFFFFFFFFFFFFFFFF
310
F000FFFFFFFFFFFFFFFFFFFFFFFFFFFFFFFFFFFFFFFFFFFFFFFFFFFFFFFFFFFF
310
FFFFFFFFFFFFFFFFFFFFFFFFFFFFFFFFFFFFFFFFFFFFFFFFFFFFFFFFFFFFFFFF
310
FFFFFFFFFFFFFFFFFFFFFFFFFFFFFFFFFFFFFFFFFFFFFFFFF000FFFFFFFFFFFF
310
FFFFFFFFFFFFFFFFFFFFFFFFFFFFFFFFFFFFFFFFFFFFFFFFFFFFFFFFFFFFFFFF
310
FFFFFFFFFFFFFFFFFFFFFFFFFFFFFFFFFFFFFFFFFFFFFFFFFFFFFFFFFFFFFFFF
310
FFFFFFFFFFFFFFFFFFFFFFFFFFFFFFFFF000FFFFFFFFFFFFFFFFFFFFFFFFFFFF
310
FFFFFFFFFFFFFFFFFFFFFFFFFFFFFFFFFFFFFFFFFFFFFFFFFFFFFFFFFFFFFFFF
310
FFFFFFFFFFFFFFFFFFFFFFFFFFFFFFFFFFFFFFFFFFFFFFFFFFFFFFFFFFFFFFFF
310
FFFFFFFFFFFFFFFFF000FFFFFFFFFFFFFFFFFFFFFFFFFFFFFFFFFFFFFFFFFFFF
310
FFFFFFFFFFFFFFFFFFFFFFFFFFFFFFFFFFFFFFFFFFFFFFFFFFFFFFFFFFFFFFFF
310
FFFFFFFFFFFFFFFFFFFFFFFFFFFFFFFFFFFFFFFFFFFFFFFFFFFFFFFFFFFFFFFF
310
F000FFFFFFFFFFFFFFFFFFFFFFFFFFFFFFFFFFFFFFFFFFFFFFFFFFFFFFFFFFFF
310
FFFFFFFFFFFFFFFFFFFFFFFFFFFFFFFFFFFFFFFFFFFFFFFFFFFFFFFFFFFFFFFF
310
FFFFFFFFFFFFFFFFFFFFFFFFFFFFFFFFFFFFFFFFFFFFFFFFF000FFFFFFFFFFFF
310
FFFFFFFFFFFFFFFFFFFFFFFFFFFFFFFFFFFFFFFFFFFFFFFFFFFFFFFFFFFFFFFF
310
FFFFFFFFFFFFFFFFFFFFFFFFFFFFFFFFFFFFFFFFFFFFFFFFFFFFFFFFFFFFFFFF
310
FFFFFFFFFFFFFFFFFFFFFFFFFFFFFFFFF000FFFFFFFFFFFFFFFFFFFFFFFFFFFF
310
FFFFFFFFFFFFFFFFFFFFFFFFFFFFFFFFFFFFFFFFFFFFFFFFFFFFFFFFFFFFFFFF
310
FFFFFFFFFFFFFFFFFFFFFFFFFFFFFFFFFFFFFFFFFFFFFFFFFFFFFFFFFFFFFFFF
310
FFFFFFFFFFFFFFFFF000FFFFFFFFFFFFFFFFFFFFFFFFFFFFFFFFFFFFFFFFFFFF
310
FFFFFFFFFFFFFFFFFFFFFFFFFFFFFFFFFFFFFFFFFFFFFFFFFFFFFFFFFFFFFFFF
310
FFFFFFFFFFFFFFFFFFFFFFFFFFFFFFFFFFFFFFFFFFFFFFFFFFFFFFFFFFFFFFFF
310
F000FFFFFFFFFFFFFFFFFFFFFFFFFFFFFFFFFFFFFFFFFFFFFFFFFFFFFFFFFFFF
310
FFFFFFFFFFFFFFFFFFFFFFFFFFFFFFFFFFFFFFFFFFFFFFFFFFFFFFFFFFFFFFFF
310
FFFFFFFFFFFFFFFFFFFFFFFFFFFFFFFFFFFFFFFFFFFFFFFFF000FFFFFFFFFFFF
310
FFFFFFFFFFFFFFFFFFFFFFFFFFFFFFFFFFFFFFFFFFFFFFFFFFFFFFFFFFFFFFFF
310
FFFFFFFFFFFFFFFFFFFFFFFFFFFFFFFFFFFFFFFFFFFFFFFFFFFFFFFFFFFFFFFF
310
FFFFFFFFFFFFFFFFFFFFFFFFFFFFFFFFF000FFFFFFFFFFFFFFFFFFFFFFFFFFFF
310
FFFFFFFFFFFFFFFFFFFFFFFFFFFFFFFFFFFFFFFFFFFFFFFFFFFFFFFFFFFFFFFF
310
FFFFFFFFFFFFFFFFFFFFFFFFFFFFFFFFFFFFFFFFFFFFFFFFFFFFFFFFFFFFFFFF
310
FFFFFFFFFFFFFFFFF000FFFFFFFFFFFFFFFFFFFFFFFFFFFFFFFFFFFFFFFFFFFF
310
FFFFFFFFFFFFFFFFFFFFFFFFFFFFFFFFFFFFFFFFFFFFFFFFFFFFFFFFFFFFFFFF
310
FFFFFFFFFFFFFFFFFFFFFFFFFFFFFFFFFFFFFFFFFFFFFFFFFFFFFFFFFFFFFFFF
310
F000FFFFFFFFFFFFFFFFFFFFFFFFFFFFFFFFFFFFFFFFFFFFFFFFFFFFFFFFFFFF
310
FFFFFFFFFFFFFFFFFFFFFFFFFFFFFFFFFFFFFFFFFFFFFFFFFFFFFFFFFFFFFFFF
310
FFFFFFFFFFFFFFFFFFFFFFFFFFFFFFFFFFFFFFFFFFFFFFFFF000FFFFFFFFFFFF
310
FFFFFFFFFFFFFFFFFFFFFFFFFFFFFFFFFFFFFFFFFFFFFFFFFFFFFFFFFFFFFFFF
310
FFFFFFFFFFFFFFFFFFFFFFFFFFFFFFFFFFFFFFFFFFFFFFFFFFFFFFFFFFFFFFFF
310
FFFFFFFFFFFFFFFFFFFFFFFFFFFFFFFFF000FFFFFFFFFFFFFFFFFFFFFFFFFFFF
310
FFFFFFFFFFFFFFFFFFFFFFFFFFFFFFFFFFFFFFFFFFFFFFFFFFFFFFFFFFFFFFFF
310
FFFFFFFFFFFFFFFFFFFFFFFFFFFFFFFFFFFFFFFFFFFFFFFFFFFFFFFFFFFFFFFF
310
FFFFFFFFFFFFFFFFF000FFFFFFFFFFFFFFFFFFFFFFFFFFFFFFFFFFFFFFFFFFFF
310
FFFFFFFFFFFFFFFFFFFFFFFFFFFFFFFFFFFFFFFFFFFFFFFFFFFFFFFFFFFFFFFF
310
FFFFFFFFFFFFFFFFFFFFFFFFFFFFFFFFFFFFFFFFFFFFFFFFFFFFFFFFFFFFFFFF
310
F000FFFFFFFFFFFFFFFFFFFFFFFFFFFFFFFFFFFFFFFFFFFFFFFFFFFFFFFFFFFF
310
FFFFFFFFFFFFFFFFFFFFFFFFFFFFFFFFFFFFFFFFFFFFFFFFFFFFFFFFFFFFFFFF
310
FFFFFFFFFFFFFFFFFFFFFFFFFFFFFFFFFFFFFFFFFFFFFFFFF000FFFFFFFFFFFF
310
FFFFFFFFFFFFFFFFFFFFFFFFFFFFFFFFFFFFFFFFFFFFFFFFFFFFFFFFFFFFFFFF
310
FFFFFFFFFFFFFFFFFFFFFFFFFFFFFFFFFFFFFFFFFFFFFFFFFFFFFFFFFFFFFFFF
310
FFFFFFFFFFFFFFFFFFFFFFFFFFFFFFFFF0000000000000000000000000000000
310
0000000000000000000000000000000000000000000000000000000000000000
310
0000000000000000000000000000000000000000000000000000000000000000
310
0000000000000000000000000000000000000000000000000000000000000000
310
0000000000000000000000000000000000000000000000000000000000000000
310
0000000000000000000000000000000000000000000000000000000000000000
310
0000000000000000000000000000000000000000000000000000000000000000
310
0000000000000000000000000000000000000000000000000000000000000000
310
0000000000000000000000000000000000000000000000000000000000000000
310
0000000000000000000000000000000000000000000000000000000000000000
310
0000000000000000000000000000000000000000000000000000000000000000
310
0000000000000000000000000000000000000000000000000000000000000000
310
0000000000000000000000000000000000000000000000000000000000000000
310
0000000000000000000000000000000000000000000000000000000000000000
310
0000000000000000000000000000000000000000000000000000000000000000
310
0000000000000000000000000000000000000000000000000000000000000000
  1
OLE
  0
ENDSEC
  0
SECTION
  2
OBJECTS
  0
DICTIONARY
  5
C
330
0
100
AcDbDictionary
281
     1
  3
ACAD_GROUP
350
D
  3
ACAD_LAYOUT
350
1A
  3
ACAD_MLINESTYLE
350
17
  3
ACAD_PLOTSETTINGS
350
19
  3
ACAD_PLOTSTYLENAME
350
E
  0
DICTIONARY
  5
D
102
{ACAD_REACTORS
330
C
102
}
330
C
100
AcDbDictionary
281
     1
  0
DICTIONARY
  5
1A
102
{ACAD_REACTORS
330
C
102
}
330
C
100
AcDbDictionary
281
     1
  3
Layout1
350
1E
  3
Layout2
350
26
  3
Model
350
22
  0
DICTIONARY
  5
17
102
{ACAD_REACTORS
330
C
102
}
330
C
100
AcDbDictionary
281
     1
  3
Standard
350
18
  0
DICTIONARY
  5
19
102
{ACAD_REACTORS
330
C
102
}
330
C
100
AcDbDictionary
281
     1
  0
ACDBDICTIONARYWDFLT
  5
E
102
{ACAD_REACTORS
330
C
102
}
330
C
100
AcDbDictionary
281
     1
  3
Normal
350
F
100
AcDbDictionaryWithDefault
340
F
  0
LAYOUT
  5
1E
102
{ACAD_REACTORS
330
1A
102
}
330
1A
100
AcDbPlotSettings
  1

  2
none_device
  4

  6

 40
0.0
 41
0.0
 42
0.0
 43
0.0
 44
0.0
 45
0.0
 46
0.0
 47
0.0
 48
0.0
 49
0.0
140
0.0
141
0.0
142
1.0
143
1.0
 70
   688
 72
     0
 73
     0
 74
     5
  7

 75
    16
147
1.0
148
0.0
149
0.0
100
AcDbLayout
  1
Layout1
 70
     1
 71
     1
 10
0.0
 20
0.0
 11
420.0
 21
297.0
 12
0.0
 22
0.0
 32
0.0
 14
1.0000000000E+20
 24
1.0000000000E+20
 34
1.0000000000E+20
 15
-1.0000000000E+20
 25
-1.0000000000E+20
 35
-1.0000000000E+20
146
0.0
 13
0.0
 23
0.0
 33
0.0
 16
1.0
 26
0.0
 36
0.0
 17
0.0
 27
1.0
 37
0.0
 76
     0
330
1B
  0
LAYOUT
  5
26
102
{ACAD_REACTORS
330
1A
102
}
330
1A
100
AcDbPlotSettings
  1

  2
none_device
  4

  6

 40
0.0
 41
0.0
 42
0.0
 43
0.0
 44
0.0
 45
0.0
 46
0.0
 47
0.0
 48
0.0
 49
0.0
140
0.0
141
0.0
142
1.0
143
1.0
 70
   688
 72
     0
 73
     0
 74
     5
  7

 75
    16
147
1.0
148
0.0
149
0.0
100
AcDbLayout
  1
Layout2
 70
     1
 71
     2
 10
0.0
 20
0.0
 11
0.0
 21
0.0
 12
0.0
 22
0.0
 32
0.0
 14
0.0
 24
0.0
 34
0.0
 15
0.0
 25
0.0
 35
0.0
146
0.0
 13
0.0
 23
0.0
 33
0.0
 16
1.0
 26
0.0
 36
0.0
 17
0.0
 27
1.0
 37
0.0
 76
     0
330
23
  0
LAYOUT
  5
22
102
{ACAD_REACTORS
330
1A
102
}
330
1A
100
AcDbPlotSettings
  1

  2
none_device
  4

  6

 40
0.0
 41
0.0
 42
0.0
 43
0.0
 44
0.0
 45
0.0
 46
0.0
 47
0.0
 48
0.0
 49
0.0
140
0.0
141
0.0
142
1.0
143
1.0
 70
  1712
 72
     0
 73
     0
 74
     0
  7

 75
     0
147
1.0
148
0.0
149
0.0
100
AcDbLayout
  1
Model
 70
     1
 71
     0
 10
0.0
 20
0.0
 11
297.0
 21
210.0
 12
0.0
 22
0.0
 32
0.0
 14
0.0
 24
0.0
 34
0.0
 15
297.0
 25
210.0
 35
0.0
146
0.0
 13
0.0
 23
0.0
 33
0.0
 16
1.0
 26
0.0
 36
0.0
 17
0.0
 27
1.0
 37
0.0
 76
     0
330
1F
331
29
  0
MLINESTYLE
  5
18
102
{ACAD_REACTORS
330
17
102
}
330
17
100
AcDbMlineStyle
  2
Standard
 70
     0
  3

 62
   256
 51
90.0
 52
90.0
 71
     2
 49
0.5
 62
   256
  6
BYLAYER
 49
-0.5
 62
   256
  6
BYLAYER
  0
ACDBPLACEHOLDER
  5
F
102
{ACAD_REACTORS
330
E
102
}
330
E
  0
ENDSEC
  0
EOF
