  0
SECTION
  2
HEADER
  9
$ACADVER
  1
AC1015
  9
$ACADMAINTVER
 70
     6
  9
$DWGCODEPAGE
  3
ANSI_1252
  9
$INSBASE
 10
0.0
 20
0.0
 30
0.0
  9
$EXTMIN
 10
0.0
 20
0.0
 30
0.0
  9
$EXTMAX
 10
297.0
 20
210.0
 30
0.0
  9
$LIMMIN
 10
0.0
 20
0.0
  9
$LIMMAX
 10
297.0
 20
210.0
  9
$ORTHOMODE
 70
     0
  9
$REGENMODE
 70
     1
  9
$FILLMODE
 70
     1
  9
$QTEXTMODE
 70
     0
  9
$MIRRTEXT
 70
     1
  9
$LTSCALE
 40
1.0
  9
$ATTMODE
 70
     1
  9
$TEXTSIZE
 40
2.0
  9
$TRACEWID
 40
1.0
  9
$TEXTSTYLE
  7
Standard
  9
$CLAYER
  8
0
  9
$CELTYPE
  6
ByLayer
  9
$CECOLOR
 62
   256
  9
$CELTSCALE
 40
1.0
  9
$DISPSILH
 70
     0
  9
$DIMSCALE
 40
1.0
  9
$DIMASZ
 40
3.0
  9
$DIMEXO
 40
0.0
  9
$DIMDLI
 40
3.75
  9
$DIMRND
 40
0.0
  9
$DIMDLE
 40
0.0
  9
$DIMEXE
 40
1.0
  9
$DIMTP
 40
0.0
  9
$DIMTM
 40
0.0
  9
$DIMTXT
 40
2.0
  9
$DIMCEN
 40
2.5
  9
$DIMTSZ
 40
0.0
  9
$DIMTOL
 70
     0
  9
$DIMLIM
 70
     0
  9
$DIMTIH
 70
     1
  9
$DIMTOH
 70
     1
  9
$DIMSE1
 70
     0
  9
$DIMSE2
 70
     0
  9
$DIMTAD
 70
     1
  9
$DIMZIN
 70
     0
  9
$DIMBLK
  1

  9
$DIMASO
 70
     1
  9
$DIMSHO
 70
     1
  9
$DIMPOST
  1

  9
$DIMAPOST
  1

  9
$DIMALT
 70
     0
  9
$DIMALTD
 70
     3
  9
$DIMALTF
 40
0.0393700787
  9
$DIMLFAC
 40
1.0
  9
$DIMTOFL
 70
     1
  9
$DIMTVP
 40
0.0
  9
$DIMTIX
 70
     0
  9
$DIMSOXD
 70
     0
  9
$DIMSAH
 70
     0
  9
$DIMBLK1
  1

  9
$DIMBLK2
  1

  9
$DIMSTYLE
  2
ISO-25
  9
$DIMCLRD
 70
     0
  9
$DIMCLRE
 70
     0
  9
$DIMCLRT
 70
     0
  9
$DIMTFAC
 40
1.0
  9
$DIMGAP
 40
1.524
  9
$DIMJUST
 70
     0
  9
$DIMSD1
 70
     0
  9
$DIMSD2
 70
     0
  9
$DIMTOLJ
 70
     0
  9
$DIMTZIN
 70
     0
  9
$DIMALTZ
 70
     0
  9
$DIMALTTZ
 70
     0
  9
$DIMUPT
 70
     0
  9
$DIMDEC
 70
     2
  9
$DIMTDEC
 70
     3
  9
$DIMALTU
 70
     2
  9
$DIMALTTD
 70
     3
  9
$DIMTXSTY
  7
Standard
  9
$DIMAUNIT
 70
     0
  9
$DIMADEC
 70
     2
  9
$DIMALTRND
 40
0.0
  9
$DIMAZIN
 70
     0
  9
$DIMDSEP
 70
    44
  9
$DIMATFIT
 70
     3
  9
$DIMFRAC
 70
     0
  9
$DIMLDRBLK
  1

  9
$DIMLUNIT
 70
     2
  9
$DIMLWD
 70
    -2
  9
$DIMLWE
 70
    -2
  9
$DIMTMOVE
 70
     0
  9
$LUNITS
 70
     2
  9
$LUPREC
 70
     2
  9
$SKETCHINC
 40
1.0
  9
$FILLETRAD
 40
10.0
  9
$AUNITS
 70
     0
  9
$AUPREC
 70
     2
  9
$MENU
  1
.
  9
$ELEVATION
 40
0.0
  9
$PELEVATION
 40
0.0
  9
$THICKNESS
 40
0.0
  9
$LIMCHECK
 70
     0
  9
$CHAMFERA
 40
0.0
  9
$CHAMFERB
 40
0.0
  9
$CHAMFERC
 40
0.0
  9
$CHAMFERD
 40
0.0
  9
$SKPOLY
 70
     0
  9
$TDCREATE
 40
2457945.659655394
  9
$TDUCREATE
 40
2457945.57632206
  9
$TDUPDATE
 40
2457945.659657465
  9
$TDUUPDATE
 40
2457945.576324132
  9
$TDINDWG
 40
0.0000000116
  9
$TDUSRTIMER
 40
0.0000000116
  9
$USRTIMER
 70
     1
  9
$ANGBASE
 50
0.0
  9
$ANGDIR
 70
     0
  9
$PDMODE
 70
     0
  9
$PDSIZE
 40
-1.0
  9
$PLINEWID
 40
0.0
  9
$SPLFRAME
 70
     0
  9
$SPLINETYPE
 70
     6
  9
$SPLINESEGS
 70
     8
  9
$HANDSEED
  5
30E
  9
$SURFTAB1
 70
     6
  9
$SURFTAB2
 70
     6
  9
$SURFTYPE
 70
     6
  9
$SURFU
 70
     6
  9
$SURFV
 70
     6
  9
$UCSBASE
  2

  9
$UCSNAME
  2

  9
$UCSORG
 10
0.0
 20
0.0
 30
0.0
  9
$UCSXDIR
 10
1.0
 20
0.0
 30
0.0
  9
$UCSYDIR
 10
0.0
 20
1.0
 30
0.0
  9
$UCSORTHOREF
  2

  9
$UCSORTHOVIEW
 70
     0
  9
$UCSORGTOP
 10
0.0
 20
0.0
 30
0.0
  9
$UCSORGBOTTOM
 10
0.0
 20
0.0
 30
0.0
  9
$UCSORGLEFT
 10
0.0
 20
0.0
 30
0.0
  9
$UCSORGRIGHT
 10
0.0
 20
0.0
 30
0.0
  9
$UCSORGFRONT
 10
0.0
 20
0.0
 30
0.0
  9
$UCSORGBACK
 10
0.0
 20
0.0
 30
0.0
  9
$PUCSBASE
  2

  9
$PUCSNAME
  2

  9
$PUCSORG
 10
0.0
 20
0.0
 30
0.0
  9
$PUCSXDIR
 10
1.0
 20
0.0
 30
0.0
  9
$PUCSYDIR
 10
0.0
 20
1.0
 30
0.0
  9
$PUCSORTHOREF
  2

  9
$PUCSORTHOVIEW
 70
     0
  9
$PUCSORGTOP
 10
0.0
 20
0.0
 30
0.0
  9
$PUCSORGBOTTOM
 10
0.0
 20
0.0
 30
0.0
  9
$PUCSORGLEFT
 10
0.0
 20
0.0
 30
0.0
  9
$PUCSORGRIGHT
 10
0.0
 20
0.0
 30
0.0
  9
$PUCSORGFRONT
 10
0.0
 20
0.0
 30
0.0
  9
$PUCSORGBACK
 10
0.0
 20
0.0
 30
0.0
  9
$USERI1
 70
     0
  9
$USERI2
 70
     0
  9
$USERI3
 70
     0
  9
$USERI4
 70
     0
  9
$USERI5
 70
     0
  9
$USERR1
 40
0.0
  9
$USERR2
 40
0.0
  9
$USERR3
 40
0.0
  9
$USERR4
 40
0.0
  9
$USERR5
 40
0.0
  9
$WORLDVIEW
 70
     1
  9
$SHADEDGE
 70
     3
  9
$SHADEDIF
 70
    70
  9
$TILEMODE
 70
     1
  9
$MAXACTVP
 70
    64
  9
$PINSBASE
 10
0.0
 20
0.0
 30
0.0
  9
$PLIMCHECK
 70
     0
  9
$PEXTMIN
 10
1.0000000000E+20
 20
1.0000000000E+20
 30
1.0000000000E+20
  9
$PEXTMAX
 10
-1.0000000000E+20
 20
-1.0000000000E+20
 30
-1.0000000000E+20
  9
$PLIMMIN
 10
0.0
 20
0.0
  9
$PLIMMAX
 10
420.0
 20
297.0
  9
$UNITMODE
 70
     0
  9
$VISRETAIN
 70
     1
  9
$PLINEGEN
 70
     0
  9
$PSLTSCALE
 70
     1
  9
$TREEDEPTH
 70
  3020
  9
$CMLSTYLE
  2
Standard
  9
$CMLJUST
 70
     0
  9
$CMLSCALE
 40
20.0
  9
$PROXYGRAPHICS
 70
     1
  9
$MEASUREMENT
 70
     1
  9
$CELWEIGHT
370
    -1
  9
$ENDCAPS
280
     0
  9
$JOINSTYLE
280
     0
  9
$LWDISPLAY
290
     1
  9
$INSUNITS
 70
     4
  9
$HYPERLINKBASE
  1

  9
$STYLESHEET
  1

  9
$XEDIT
290
     1
  9
$CEPSNTYPE
380
     0
  9
$PSTYLEMODE
290
     1
  9
$FINGERPRINTGUID
  2
{DA7FC8CF-6E25-4593-B409-D77CB65301B6}
  9
$VERSIONGUID
  2
{FAEB1C32-E019-11D5-929B-00C0DF256EC4}
  9
$EXTNAMES
290
     1
  9
$PSVPSCALE
 40
0.0
  9
$OLESTARTUP
290
     0
  0
ENDSEC
  0
SECTION
  2
CLASSES
  0
CLASS
  1
ACDBDICTIONARYWDFLT
  2
AcDbDictionaryWithDefault
  3
ObjectDBX Classes
 90
        0
280
     0
281
     0
  0
CLASS
  1
VISUALSTYLE
  2
AcDbVisualStyle
  3
ObjectDBX Classes
 90
     4095
280
     0
281
     0
  0
CLASS
  1
MATERIAL
  2
AcDbMaterial
  3
ObjectDBX Classes
 90
     1153
280
     0
281
     0
  0
CLASS
  1
SCALE
  2
AcDbScale
  3
ObjectDBX Classes
 90
     1153
280
     0
281
     0
  0
CLASS
  1
TABLESTYLE
  2
AcDbTableStyle
  3
ObjectDBX Classes
 90
     4095
280
     0
281
     0
  0
CLASS
  1
MLEADERSTYLE
  2
AcDbMLeaderStyle
  3
ACDB_MLEADERSTYLE_CLASS
 90
     4095
280
     0
281
     0
  0
CLASS
  1
SUN
  2
AcDbSun
  3
SCENEOE
 90
     1153
280
     0
281
     0
  0
CLASS
  1
ACDBPLACEHOLDER
  2
AcDbPlaceHolder
  3
ObjectDBX Classes
 90
        0
280
     0
281
     0
  0
CLASS
  1
LAYOUT
  2
AcDbLayout
  3
ObjectDBX Classes
 90
        0
280
     0
281
     0
  0
ENDSEC
  0
SECTION
  2
TABLES
  0
TABLE
  2
VPORT
  5
8
330
0
100
AcDbSymbolTable
 70
     1
  0
VPORT
  5
29
330
8
100
AcDbSymbolTableRecord
100
AcDbViewportTableRecord
  2
*Active
 70
     0
 10
0.0
 20
0.0
 11
1.0
 21
1.0
 12
148.5
 22
105.0
 13
0.0
 23
0.0
 14
10.0
 24
10.0
 15
10.0
 25
10.0
 16
0.0
 26
0.0
 36
1.0
 17
0.0
 27
0.0
 37
0.0
 40
210.0
 41
1.4142857143
 42
50.0
 43
0.0
 44
0.0
 50
0.0
 51
0.0
 71
     0
 72
  2000
 73
     1
 74
     3
 75
     0
 76
     0
 77
     0
 78
     0
281
     0
 65
     1
110
0.0
120
0.0
130
0.0
111
1.0
121
0.0
131
0.0
112
0.0
122
1.0
132
0.0
 79
     0
146
0.0
  0
ENDTAB
  0
TABLE
  2
LTYPE
  5
5
330
0
100
AcDbSymbolTable
 70
     6
  0
LTYPE
  5
14
330
5
100
AcDbSymbolTableRecord
100
AcDbLinetypeTableRecord
  2
ByBlock
 70
     0
  3

 72
    65
 73
     0
 40
0.0
  0
LTYPE
  5
15
330
5
100
AcDbSymbolTableRecord
100
AcDbLinetypeTableRecord
  2
ByLayer
 70
     0
  3

 72
    65
 73
     0
 40
0.0
  0
LTYPE
  5
16
330
5
100
AcDbSymbolTableRecord
100
AcDbLinetypeTableRecord
  2
Continuous
 70
     0
  3
Solid line
 72
    65
 73
     0
 40
0.0
  0
LTYPE
  5
6E
330
5
100
AcDbSymbolTableRecord
100
AcDbLinetypeTableRecord
  2
HIDDEN
 70
     0
  3
Hidden __ __ __ __ __ __ __ __ __ __ __ __ __ __
 72
    65
 73
     2
 40
1.905
 49
1.27
 74
     0
 49
-0.635
 74
     0
  0
LTYPE
  5
6F
330
5
100
AcDbSymbolTableRecord
100
AcDbLinetypeTableRecord
  2
PHANTOM
 70
     0
  3
Phantom ______  __  __  ______  __  __  ______
 72
    65
 73
     6
 40
12.7
 49
6.35
 74
     0
 49
-1.27
 74
     0
 49
1.27
 74
     0
 49
-1.27
 74
     0
 49
1.27
 74
     0
 49
-1.27
 74
     0
  0
LTYPE
  5
70
330
5
100
AcDbSymbolTableRecord
100
AcDbLinetypeTableRecord
  2
CENTER
 70
     0
  3
Center ____ _ ____ _ ____ _ ____ _ ____ _ ____
 72
    65
 73
     4
 40
10.16
 49
6.35
 74
     0
 49
-1.27
 74
     0
 49
1.27
 74
     0
 49
-1.27
 74
     0
  0
LTYPE
  5
71
330
5
100
AcDbSymbolTableRecord
100
AcDbLinetypeTableRecord
  2
CENTERX2
 70
     0
  3
Center (2x) ________  __  ________  __  _____
 72
    65
 73
     4
 40
20.32
 49
12.7
 74
     0
 49
-2.54
 74
     0
 49
2.54
 74
     0
 49
-2.54
 74
     0
  0
LTYPE
  5
72
330
5
100
AcDbSymbolTableRecord
100
AcDbLinetypeTableRecord
  2
DOT2
 70
     0
  3
Dot (.5x) ........................................
 72
    65
 73
     2
 40
0.635
 49
0.0
 74
     0
 49
-0.635
 74
     0
  0
ENDTAB
  0
TABLE
  2
LAYER
  5
2
330
0
100
AcDbSymbolTable
 70
     5
  0
LAYER
  5
10
330
2
100
AcDbSymbolTableRecord
100
AcDbLayerTableRecord
  2
0
 70
     0
 62
     7
  6
Continuous
370
    -3
390
F
  0
LAYER
  5
73
330
2
100
AcDbSymbolTableRecord
100
AcDbLayerTableRecord
  2
FORMAT
 70
     0
 62
     7
  6
Continuous
370
    -3
390
F
  0
LAYER
  5
74
330
2
100
AcDbSymbolTableRecord
100
AcDbLayerTableRecord
  2
VERMASSUNG
 70
     0
 62
     7
  6
Continuous
370
    -3
390
F
  0
LAYER
  5
75
330
2
100
AcDbSymbolTableRecord
100
AcDbLayerTableRecord
  2
KOPF_DÜNN
 70
     0
 62
     7
  6
Continuous
370
    -3
390
F
  0
LAYER
  5
76
330
2
100
AcDbSymbolTableRecord
100
AcDbLayerTableRecord
  2
KOPF_DICK
 70
     0
 62
     7
  6
Continuous
370
    25
390
F
  0
ENDTAB
  0
TABLE
  2
STYLE
  5
3
330
0
100
AcDbSymbolTable
 70
     2
  0
STYLE
  5
11
330
3
100
AcDbSymbolTableRecord
100
AcDbTextStyleTableRecord
  2
Standard
 70
     0
 40
0.0
 41
1.0
 50
0.0
 71
     0
 42
2.0
  3
txt
  4

  0
STYLE
  5
77
330
3
100
AcDbSymbolTableRecord
100
AcDbTextStyleTableRecord
  2
SLDTEXTSTYLE0
 70
     0
 40
0.0
 41
0.7
 50
0.0
 71
     0
 42
2.0
  3
TXT
  4

  0
ENDTAB
  0
TABLE
  2
VIEW
  5
6
330
0
100
AcDbSymbolTable
 70
     0
  0
ENDTAB
  0
TABLE
  2
UCS
  5
7
330
0
100
AcDbSymbolTable
 70
     0
  0
ENDTAB
  0
TABLE
  2
APPID
  5
9
330
0
100
AcDbSymbolTable
 70
     1
  0
APPID
  5
12
330
9
100
AcDbSymbolTableRecord
100
AcDbRegAppTableRecord
  2
ACAD
 70
     0
  0
ENDTAB
  0
TABLE
  2
DIMSTYLE
  5
A
330
0
100
AcDbSymbolTable
 70
     5
100
AcDbDimStyleTable
  0
DIMSTYLE
105
27
330
A
100
AcDbSymbolTableRecord
100
AcDbDimStyleTableRecord
  2
ISO-25
 70
     0
 41
2.5
 42
0.625
 43
3.75
 44
1.25
 73
     0
 74
     0
 77
     1
 78
     8
140
2.5
141
2.5
143
0.0393700787
147
0.625
171
     3
172
     1
178
     0
271
     2
272
     2
274
     3
278
    44
283
     0
284
     8
340
11
  0
DIMSTYLE
105
1B1
102
{ACAD_REACTORS
330
1B0
330
1BD
102
}
330
A
100
AcDbSymbolTableRecord
100
AcDbDimStyleTableRecord
  2
SLDDIMSTYLE0
 70
     0
 41
3.0
 44
0.0
 45
0.000000001
 47
0.1
 48
0.1
 71
     1
 73
     0
 74
     0
 77
     1
 78
    12
 79
     3
140
2.0
147
0.5
173
     1
178
     0
271
     2
272
     1
276
     2
284
     8
340
77
  0
DIMSTYLE
105
1CA
102
{ACAD_REACTORS
330
1C9
330
1E8
102
}
330
A
100
AcDbSymbolTableRecord
100
AcDbDimStyleTableRecord
  2
SLDDIMSTYLE1
 70
     0
 41
3.0
 44
0.0
 45
0.000000001
 73
     0
 74
     0
 77
     1
 78
    12
 79
     3
140
2.0
147
0.5
173
     1
178
     0
271
     2
272
     3
276
     2
284
    12
340
77
  0
DIMSTYLE
105
1D5
102
{ACAD_REACTORS
330
1D4
330
1DF
102
}
330
A
100
AcDbSymbolTableRecord
100
AcDbDimStyleTableRecord
  2
SLDDIMSTYLE2
 70
     0
 41
3.0
 44
0.0
 73
     0
 74
     0
 77
     1
 78
    12
 79
     3
140
2.0
147
0.5
173
     1
178
     0
179
     2
272
     3
276
     2
284
    12
340
77
  0
DIMSTYLE
105
211
102
{ACAD_REACTORS
330
210
102
}
330
A
100
AcDbSymbolTableRecord
100
AcDbDimStyleTableRecord
  2
SLDDIMSTYLE3
 70
     0
 41
3.0
 44
0.0
 45
0.000000001
 73
     0
 74
     0
 77
     1
 78
    12
 79
     3
140
2.0
147
0.5
172
     1
173
     1
178
     0
271
     2
272
     3
276
     2
284
     8
289
     0
340
77
  0
ENDTAB
  0
TABLE
  2
BLOCK_RECORD
  5
1
330
0
100
AcDbSymbolTable
 70
     9
  0
BLOCK_RECORD
  5
1F
330
1
100
AcDbSymbolTableRecord
100
AcDbBlockTableRecord
  2
*Model_Space
340
22
  0
BLOCK_RECORD
  5
1B
330
1
100
AcDbSymbolTableRecord
100
AcDbBlockTableRecord
  2
*Paper_Space
340
1E
  0
BLOCK_RECORD
  5
23
330
1
100
AcDbSymbolTableRecord
100
AcDbBlockTableRecord
  2
*Paper_Space0
340
26
  0
BLOCK_RECORD
  5
1B2
330
1
100
AcDbSymbolTableRecord
100
AcDbBlockTableRecord
  2
_D
340
0
  0
BLOCK_RECORD
  5
1BE
330
1
100
AcDbSymbolTableRecord
100
AcDbBlockTableRecord
  2
_D_1
340
0
  0
BLOCK_RECORD
  5
1CB
330
1
100
AcDbSymbolTableRecord
100
AcDbBlockTableRecord
  2
_D_2
340
0
  0
BLOCK_RECORD
  5
1D6
330
1
100
AcDbSymbolTableRecord
100
AcDbBlockTableRecord
  2
_D_3
340
0
  0
BLOCK_RECORD
  5
1E0
330
1
100
AcDbSymbolTableRecord
100
AcDbBlockTableRecord
  2
_D_4
340
0
  0
BLOCK_RECORD
  5
1E9
330
1
100
AcDbSymbolTableRecord
100
AcDbBlockTableRecord
  2
_D_5
340
0
  0
BLOCK_RECORD
  5
212
330
1
100
AcDbSymbolTableRecord
100
AcDbBlockTableRecord
  2
_D_6
340
0
  0
BLOCK_RECORD
  5
21F
330
1
100
AcDbSymbolTableRecord
100
AcDbBlockTableRecord
  2
SW_CENTERMARKSYMBOL_0
340
0
102
{BLKREFS
331
22A
102
}
  0
ENDTAB
  0
ENDSEC
  0
SECTION
  2
BLOCKS
  0
BLOCK
  5
20
330
1F
100
AcDbEntity
  8
0
100
AcDbBlockBegin
  2
*Model_Space
 70
     0
 10
0.0
 20
0.0
 30
0.0
  3
*Model_Space
  1

  0
ENDBLK
  5
21
330
1F
100
AcDbEntity
  8
0
100
AcDbBlockEnd
  0
BLOCK
  5
1C
330
1B
100
AcDbEntity
 67
     1
  8
0
100
AcDbBlockBegin
  2
*Paper_Space
 70
     0
 10
0.0
 20
0.0
 30
0.0
  3
*Paper_Space
  1

  0
ENDBLK
  5
1D
330
1B
100
AcDbEntity
 67
     1
  8
0
100
AcDbBlockEnd
  0
BLOCK
  5
24
330
23
100
AcDbEntity
  8
0
100
AcDbBlockBegin
  2
*Paper_Space0
 70
     0
 10
0.0
 20
0.0
 30
0.0
  3
*Paper_Space0
  1

  0
ENDBLK
  5
25
330
23
100
AcDbEntity
  8
0
100
AcDbBlockEnd
  0
BLOCK
  5
1B3
330
1B2
100
AcDbEntity
  8
0
100
AcDbBlockBegin
  2
_D
 70
     0
 10
0.0
 20
0.0
 30
0.0
  3
_D
  1

  0
SOLID
  5
1B5
330
1B2
100
AcDbEntity
  8
VERMASSUNG
100
AcDbTrace
 10
185.2782303967
 20
93.3439442075
 30
0.0
 11
188.2782303967
 21
92.8939442075
 31
0.0
 12
188.2782303967
 22
93.7939442075
 32
0.0
 13
188.2782303967
 23
93.7939442075
 33
0.0
  0
SOLID
  5
1B6
330
1B2
100
AcDbEntity
  8
VERMASSUNG
100
AcDbTrace
 10
250.2782303967
 20
93.3439442075
 30
0.0
 11
247.2782303967
 21
93.7939442075
 31
0.0
 12
247.2782303967
 22
92.8939442075
 32
0.0
 13
247.2782303967
 23
92.8939442075
 33
0.0
  0
LINE
  5
1B7
330
1B2
100
AcDbEntity
  8
VERMASSUNG
100
AcDbLine
 10
185.2782303967
 20
125.7488604199
 30
0.0
 11
185.2782303967
 21
92.3439442075
 31
0.0
  0
LINE
  5
1B8
330
1B2
100
AcDbEntity
  8
VERMASSUNG
100
AcDbLine
 10
250.2782303967
 20
111.7488604199
 30
0.0
 11
250.2782303967
 21
92.3439442075
 31
0.0
  0
LINE
  5
1B9
330
1B2
100
AcDbEntity
  8
VERMASSUNG
100
AcDbLine
 10
185.2782303967
 20
93.3439442075
 30
0.0
 11
250.2782303967
 21
93.3439442075
 31
0.0
  0
MTEXT
  5
1BA
330
1B2
100
AcDbEntity
  8
VERMASSUNG
100
AcDbMText
 10
214.1282303106
 20
95.9220798034
 30
0.0
 40
2.0
 41
0.0
 71
     1
 72
     1
  1
65
  7
SLDTEXTSTYLE0
 73
     1
 44
1.0
  0
MTEXT
  5
1BB
330
1B2
100
AcDbEntity
  8
VERMASSUNG
100
AcDbMText
 10
218.1157302108
 20
95.9220798034
 30
0.0
 40
2.0
 41
0.0
 71
     1
 72
     1
  1

  7
SLDTEXTSTYLE0
 73
     1
 44
1.0
  0
MTEXT
  5
1BC
330
1B2
100
AcDbEntity
  8
VERMASSUNG
100
AcDbMText
 10
218.1282300349
 20
95.4275459698
 30
0.0
 40
1.5
 41
0.0
 71
     1
 72
     1
  1
±0.1
  7
SLDTEXTSTYLE0
 73
     1
 44
1.0
  0
ENDBLK
  5
1B4
330
1B2
100
AcDbEntity
  8
0
100
AcDbBlockEnd
  0
BLOCK
  5
1BF
330
1BE
100
AcDbEntity
  8
0
100
AcDbBlockBegin
  2
_D_1
 70
     0
 10
0.0
 20
0.0
 30
0.0
  3
_D_1
  1

  0
SOLID
  5
1C1
330
1BE
100
AcDbEntity
  8
VERMASSUNG
100
AcDbTrace
 10
268.619122505
 20
111.7488604199
 30
0.0
 11
269.069122505
 21
114.7488604199
 31
0.0
 12
268.169122505
 22
114.7488604199
 32
0.0
 13
268.169122505
 23
114.7488604199
 33
0.0
  0
SOLID
  5
1C2
330
1BE
100
AcDbEntity
  8
VERMASSUNG
100
AcDbTrace
 10
268.619122505
 20
156.7488604199
 30
0.0
 11
268.169122505
 21
153.7488604199
 31
0.0
 12
269.069122505
 22
153.7488604199
 32
0.0
 13
269.069122505
 23
153.7488604199
 33
0.0
  0
LINE
  5
1C3
330
1BE
100
AcDbEntity
  8
VERMASSUNG
100
AcDbLine
 10
250.2782303967
 20
111.7488604199
 30
0.0
 11
269.619122505
 21
111.7488604199
 31
0.0
  0
LINE
  5
1C4
330
1BE
100
AcDbEntity
  8
VERMASSUNG
100
AcDbLine
 10
250.2782303967
 20
156.7488604199
 30
0.0
 11
269.619122505
 21
156.7488604199
 31
0.0
  0
LINE
  5
1C5
330
1BE
100
AcDbEntity
  8
VERMASSUNG
100
AcDbLine
 10
268.619122505
 20
111.7488604199
 30
0.0
 11
268.619122505
 21
156.7488604199
 31
0.0
  0
MTEXT
  5
1C6
330
1BE
100
AcDbEntity
  8
VERMASSUNG
100
AcDbMText
 10
266.0409869091
 20
130.4988600381
 30
0.0
 40
2.0
 41
0.0
 71
     1
 72
     1
  1
45
  7
SLDTEXTSTYLE0
 11
6.123233995736766E-17
 21
1.0
 31
0.0
 73
     1
 44
1.0
  0
MTEXT
  5
1C7
330
1BE
100
AcDbEntity
  8
VERMASSUNG
100
AcDbMText
 10
266.0409869091
 20
134.6863600642
 30
0.0
 40
2.0
 41
0.0
 71
     1
 72
     1
  1

  7
SLDTEXTSTYLE0
 11
6.123233995736766E-17
 21
1.0
 31
0.0
 73
     1
 44
1.0
  0
MTEXT
  5
1C8
330
1BE
100
AcDbEntity
  8
VERMASSUNG
100
AcDbMText
 10
266.5355207427
 20
134.6988598883
 30
0.0
 40
1.5
 41
0.0
 71
     1
 72
     1
  1
±0.1
  7
SLDTEXTSTYLE0
 11
6.123233995736766E-17
 21
1.0
 31
0.0
 73
     1
 44
1.0
  0
ENDBLK
  5
1C0
330
1BE
100
AcDbEntity
  8
0
100
AcDbBlockEnd
  0
BLOCK
  5
1CC
330
1CB
100
AcDbEntity
  8
0
100
AcDbBlockBegin
  2
_D_2
 70
     0
 10
0.0
 20
0.0
 30
0.0
  3
_D_2
  1

  0
SOLID
  5
1CE
330
1CB
100
AcDbEntity
  8
VERMASSUNG
100
AcDbTrace
 10
147.2782303967
 20
83.601218566
 30
0.0
 11
150.2782303967
 21
83.151218566
 31
0.0
 12
150.2782303967
 22
84.051218566
 32
0.0
 13
150.2782303967
 23
84.051218566
 33
0.0
  0
SOLID
  5
1CF
330
1CB
100
AcDbEntity
  8
VERMASSUNG
100
AcDbTrace
 10
250.2782303967
 20
83.601218566
 30
0.0
 11
247.2782303967
 21
84.051218566
 31
0.0
 12
247.2782303967
 22
83.151218566
 32
0.0
 13
247.2782303967
 23
83.151218566
 33
0.0
  0
LINE
  5
1D0
330
1CB
100
AcDbEntity
  8
VERMASSUNG
100
AcDbLine
 10
147.2782303967
 20
136.4565224274
 30
0.0
 11
147.2782303967
 21
82.601218566
 31
0.0
  0
LINE
  5
1D1
330
1CB
100
AcDbEntity
  8
VERMASSUNG
100
AcDbLine
 10
250.2782303967
 20
111.7488604199
 30
0.0
 11
250.2782303967
 21
82.601218566
 31
0.0
  0
LINE
  5
1D2
330
1CB
100
AcDbEntity
  8
VERMASSUNG
100
AcDbLine
 10
147.2782303967
 20
83.601218566
 30
0.0
 11
250.2782303967
 21
83.601218566
 31
0.0
  0
MTEXT
  5
1D3
330
1CB
100
AcDbEntity
  8
VERMASSUNG
100
AcDbMText
 10
196.8782303646
 20
86.179354162
 30
0.0
 40
2.0
 41
0.0
 71
     1
 72
     1
  1
103
  7
SLDTEXTSTYLE0
 73
     1
 44
1.0
  0
ENDBLK
  5
1CD
330
1CB
100
AcDbEntity
  8
0
100
AcDbBlockEnd
  0
BLOCK
  5
1D7
330
1D6
100
AcDbEntity
  8
0
100
AcDbBlockBegin
  2
_D_3
 70
     0
 10
0.0
 20
0.0
 30
0.0
  3
_D_3
  1

  0
ARC
  5
1D9
330
1D6
100
AcDbEntity
  8
VERMASSUNG
100
AcDbCircle
 10
250.4237615623
 20
111.7488604199
 30
0.0
 40
13.53669947662229
100
AcDbArc
 50
0.0
 51
107.5
  0
SOLID
  5
1DA
330
1D6
100
AcDbEntity
  8
VERMASSUNG
100
AcDbTrace
 10
263.9604610389
 20
111.7488604199
 30
0.0
 11
264.0812939806
 21
114.7800152164
 31
0.0
 12
263.1866397788
 22
114.6820669687
 32
0.0
 13
263.1866397788
 23
114.6820669687
 33
0.0
  0
SOLID
  5
1DB
330
1D6
100
AcDbEntity
  8
VERMASSUNG
100
AcDbTrace
 10
246.3531975235
 20
124.659040168
 30
0.0
 11
249.3833388698
 21
124.8030659357
 31
0.0
 12
249.2077260669
 22
125.6857664192
 32
0.0
 13
249.2077260669
 23
125.6857664192
 33
0.0
  0
LINE
  5
1DC
330
1D6
100
AcDbEntity
  8
VERMASSUNG
100
AcDbLine
 10
261.3858373805
 20
111.7488604199
 30
0.0
 11
264.9604610389
 21
111.7488604199
 31
0.0
  0
LINE
  5
1DD
330
1D6
100
AcDbEntity
  8
VERMASSUNG
100
AcDbLine
 10
247.056353828
 20
122.4289132875
 30
0.0
 11
246.052491724
 21
125.6127571187
 31
0.0
  0
MTEXT
  5
1DE
330
1D6
100
AcDbEntity
  8
VERMASSUNG
100
AcDbMText
 10
257.1300628204
 20
126.814166046
 30
0.0
 40
2.0
 41
0.0
 71
     1
 72
     1
  1
107.5°
  7
SLDTEXTSTYLE0
 11
0.8064446042674788
 21
-0.5913096483635875
 31
0.0
 73
     1
 44
1.0
  0
ENDBLK
  5
1D8
330
1D6
100
AcDbEntity
  8
0
100
AcDbBlockEnd
  0
BLOCK
  5
1E1
330
1E0
100
AcDbEntity
  8
0
100
AcDbBlockBegin
  2
_D_4
 70
     0
 10
0.0
 20
0.0
 30
0.0
  3
_D_4
  1

  0
ARC
  5
1E3
330
1E0
100
AcDbEntity
  8
VERMASSUNG
100
AcDbCircle
 10
250.2782303967
 20
111.6033292543
 30
0.0
 40
11.04950557314049
100
AcDbArc
 50
162.5
 51
270.0
  0
SOLID
  5
1E4
330
1E0
100
AcDbEntity
  8
VERMASSUNG
100
AcDbTrace
 10
239.7401296342
 20
114.9259796618
 30
0.0
 11
238.7807903585
 21
112.0481040297
 31
0.0
 12
239.6673751576
 22
111.8932899668
 32
0.0
 13
239.6673751576
 23
111.8932899668
 33
0.0
  0
SOLID
  5
1E5
330
1E0
100
AcDbEntity
  8
VERMASSUNG
100
AcDbTrace
 10
250.2782303967
 20
100.5538236812
 30
0.0
 11
247.3640251351
 21
101.396383883
 31
0.0
 12
247.2450727403
 22
100.5042794453
 32
0.0
 13
247.2450727403
 23
100.5042794453
 33
0.0
  0
LINE
  5
1E6
330
1E0
100
AcDbEntity
  8
VERMASSUNG
100
AcDbLine
 10
250.2782303967
 20
111.7488604199
 30
0.0
 11
250.2782303967
 21
99.5538236812
 31
0.0
  0
MTEXT
  5
1E7
330
1E0
100
AcDbEntity
  8
VERMASSUNG
100
AcDbMText
 10
241.3769559547
 20
109.416682654
 30
0.0
 40
2.0
 41
0.0
 71
     1
 72
     1
  1
107.5°
  7
SLDTEXTSTYLE0
 11
0.5913096483635913
 21
-0.806444604267476
 31
0.0
 73
     1
 44
1.0
  0
ENDBLK
  5
1E2
330
1E0
100
AcDbEntity
  8
0
100
AcDbBlockEnd
  0
BLOCK
  5
1EA
330
1E9
100
AcDbEntity
  8
0
100
AcDbBlockBegin
  2
_D_5
 70
     0
 10
0.0
 20
0.0
 30
0.0
  3
_D_5
  1

  0
SOLID
  5
1EC
330
1E9
100
AcDbEntity
  8
VERMASSUNG
100
AcDbTrace
 10
137.2782303967
 20
188.2488604199
 30
0.0
 11
136.8282303967
 21
185.2488604199
 31
0.0
 12
137.7282303967
 22
185.2488604199
 32
0.0
 13
137.7282303967
 23
185.2488604199
 33
0.0
  0
SOLID
  5
1ED
330
1E9
100
AcDbEntity
  8
VERMASSUNG
100
AcDbTrace
 10
137.2782303967
 20
125.2488604199
 30
0.0
 11
137.7282303967
 21
128.2488604199
 31
0.0
 12
136.8282303967
 22
128.2488604199
 32
0.0
 13
136.8282303967
 23
128.2488604199
 33
0.0
  0
LINE
  5
1EE
330
1E9
100
AcDbEntity
  8
VERMASSUNG
100
AcDbLine
 10
185.7782303967
 20
188.2488604199
 30
0.0
 11
136.2782303967
 21
188.2488604199
 31
0.0
  0
LINE
  5
1EF
330
1E9
100
AcDbEntity
  8
VERMASSUNG
100
AcDbLine
 10
185.7782303967
 20
125.2488604199
 30
0.0
 11
136.2782303967
 21
125.2488604199
 31
0.0
  0
LINE
  5
1F0
330
1E9
100
AcDbEntity
  8
VERMASSUNG
100
AcDbLine
 10
137.2782303967
 20
188.2488604199
 30
0.0
 11
137.2782303967
 21
125.2488604199
 31
0.0
  0
MTEXT
  5
1F1
330
1E9
100
AcDbEntity
  8
VERMASSUNG
100
AcDbMText
 10
134.5000951405
 20
151.2438611102
 30
0.0
 40
2.0
 41
0.0
 71
     1
 72
     1
  1
PSC
  7
SLDTEXTSTYLE0
 11
-7.044195017643634E-15
 21
1.0
 31
0.0
 73
     1
 44
1.0
  0
MTEXT
  5
1F2
330
1E9
100
AcDbEntity
  8
VERMASSUNG
100
AcDbMText
 10
134.7000950918
 20
155.8438607466
 30
0.0
 40
2.0
 41
0.0
 71
     1
 72
     1
  1
%%c
  7
SLDTEXTSTYLE0
 11
-7.044195017643634E-15
 21
1.0
 31
0.0
 73
     1
 44
1.0
  0
MTEXT
  5
1F3
330
1E9
100
AcDbEntity
  8
VERMASSUNG
100
AcDbMText
 10
134.5000951405
 20
159.4538607609
 30
0.0
 40
2.0
 41
0.0
 71
     1
 72
     1
  1
63
  7
SLDTEXTSTYLE0
 11
-7.044195017643634E-15
 21
1.0
 31
0.0
 73
     1
 44
1.0
  0
ENDBLK
  5
1EB
330
1E9
100
AcDbEntity
  8
0
100
AcDbBlockEnd
  0
BLOCK
  5
213
330
212
100
AcDbEntity
  8
0
100
AcDbBlockBegin
  2
_D_6
 70
     0
 10
0.0
 20
0.0
 30
0.0
  3
_D_6
  1

  0
SOLID
  5
215
330
212
100
AcDbEntity
  8
VERMASSUNG
100
AcDbTrace
 10
110.4647470371
 20
179.9477048789
 30
0.0
 11
112.9042654321
 21
181.7508271709
 31
0.0
 12
112.2678693291
 22
182.387223274
 32
0.0
 13
112.2678693291
 23
182.387223274
 33
0.0
  0
SOLID
  5
216
330
212
100
AcDbEntity
  8
VERMASSUNG
100
AcDbTrace
 10
53.8962045421
 20
123.379162384
 30
0.0
 11
51.456686147
 21
121.576040092
 31
0.0
 12
52.0930822501
 22
120.9396439889
 32
0.0
 13
52.0930822501
 23
120.9396439889
 33
0.0
  0
LINE
  5
217
330
212
100
AcDbEntity
  8
VERMASSUNG
100
AcDbLine
 10
110.4647470371
 20
179.9477048789
 30
0.0
 11
111.1718538182
 21
179.2405980977
 31
0.0
  0
LINE
  5
218
330
212
100
AcDbEntity
  8
VERMASSUNG
100
AcDbLine
 10
53.8962045421
 20
123.379162384
 30
0.0
 11
54.6033113233
 21
122.6720556028
 31
0.0
  0
LINE
  5
219
330
212
100
AcDbEntity
  8
VERMASSUNG
100
AcDbLine
 10
110.4647470371
 20
179.9477048789
 30
0.0
 11
114.7073877242
 21
184.190345566
 31
0.0
  0
LINE
  5
21A
330
212
100
AcDbEntity
  8
VERMASSUNG
100
AcDbLine
 10
110.4647470371
 20
179.9477048789
 30
0.0
 11
53.8962045421
 21
123.379162384
 31
0.0
  0
LINE
  5
21B
330
212
100
AcDbEntity
  8
VERMASSUNG
100
AcDbLine
 10
53.8962045421
 20
123.379162384
 30
0.0
 11
41.294820411
 21
110.7777782529
 31
0.0
  0
MTEXT
  5
21C
330
212
100
AcDbEntity
  8
VERMASSUNG
100
AcDbMText
 10
39.4718034541
 20
112.6007952098
 30
0.0
 40
2.0
 41
0.0
 71
     1
 72
     1
  1
%%c
  7
SLDTEXTSTYLE0
 11
0.7071067811865464
 21
0.7071067811865488
 31
0.0
 73
     1
 44
1.0
  0
MTEXT
  5
21D
330
212
100
AcDbEntity
  8
VERMASSUNG
100
AcDbMText
 10
41.8830376225
 20
115.2948720218
 30
0.0
 40
2.0
 41
0.0
 71
     1
 72
     1
  1
80
  7
SLDTEXTSTYLE0
 11
0.7071067811865464
 21
0.7071067811865488
 31
0.0
 73
     1
 44
1.0
  0
MTEXT
  5
21E
330
212
100
AcDbEntity
  8
VERMASSUNG
100
AcDbMText
 10
44.7026258419
 20
118.1144602412
 30
0.0
 40
2.0
 41
0.0
 71
     1
 72
     1
  1
min.
  7
SLDTEXTSTYLE0
 11
0.7071067811865464
 21
0.7071067811865488
 31
0.0
 73
     1
 44
1.0
  0
ENDBLK
  5
214
330
212
100
AcDbEntity
  8
0
100
AcDbBlockEnd
  0
BLOCK
  5
220
330
21F
100
AcDbEntity
  8
0
100
AcDbBlockBegin
  2
SW_CENTERMARKSYMBOL_0
 70
     0
 10
0.0
 20
0.0
 30
0.0
  3
SW_CENTERMARKSYMBOL_0
  1

  0
LINE
  5
222
330
21F
100
AcDbEntity
  8
VERMASSUNG
 62
     0
100
AcDbLine
 10
0.0
 20
0.0
 30
0.0
 11
0.0
 21
2.5
 31
0.0
  0
LINE
  5
223
330
21F
100
AcDbEntity
  8
VERMASSUNG
 62
     0
100
AcDbLine
 10
0.0
 20
0.0
 30
0.0
 11
-2.5
 21
0.0
 31
0.0
  0
LINE
  5
224
330
21F
100
AcDbEntity
  8
VERMASSUNG
 62
     0
100
AcDbLine
 10
0.0
 20
0.0
 30
0.0
 11
0.0
 21
-2.5
 31
0.0
  0
LINE
  5
225
330
21F
100
AcDbEntity
  8
VERMASSUNG
 62
     0
100
AcDbLine
 10
0.0
 20
0.0
 30
0.0
 11
2.5
 21
0.0
 31
0.0
  0
LINE
  5
226
330
21F
100
AcDbEntity
  8
VERMASSUNG
 62
     0
100
AcDbLine
 10
0.0
 20
5.0
 30
0.0
 11
0.0
 21
34.0
 31
0.0
  0
LINE
  5
227
330
21F
100
AcDbEntity
  8
VERMASSUNG
 62
     0
100
AcDbLine
 10
-5.0
 20
0.0
 30
0.0
 11
-34.0
 21
0.0
 31
0.0
  0
LINE
  5
228
330
21F
100
AcDbEntity
  8
VERMASSUNG
 62
     0
100
AcDbLine
 10
0.0
 20
-5.0
 30
0.0
 11
0.0
 21
-34.0
 31
0.0
  0
LINE
  5
229
330
21F
100
AcDbEntity
  8
VERMASSUNG
 62
     0
100
AcDbLine
 10
5.0
 20
0.0
 30
0.0
 11
34.0
 21
0.0
 31
0.0
  0
ENDBLK
  5
221
330
21F
100
AcDbEntity
  8
0
100
AcDbBlockEnd
  0
ENDSEC
  0
SECTION
  2
ENTITIES
  0
MTEXT
  5
78
330
1F
100
AcDbEntity
  8
KOPF_DÜNN
100
AcDbMText
 10
13.8892156294
 20
23.8442973028
 30
0.0
 40
3.0
 41
0.0
 71
     1
 72
     1
  1
PS6.KDB.LHA.065
  7
SLDTEXTSTYLE0
 73
     1
 44
1.0
  0
MTEXT
  5
79
330
1F
100
AcDbEntity
  8
VERMASSUNG
100
AcDbMText
 10
13.9329988022
 20
28.8834360957
 30
0.0
 40
3.0
 41
0.0
 71
     1
 72
     1
  1
Klemmhalter links_Turning tool left 107.5° /55°
  7
SLDTEXTSTYLE0
 73
     1
 44
1.0
  0
MTEXT
  5
7A
330
1F
100
AcDbEntity
  8
VERMASSUNG
100
AcDbMText
 10
98.8601118557
 20
13.8365368761
 30
0.0
 40
2.0
 41
0.0
 71
     1
 72
     1
  1
Datum: 23.05.2012
  7
SLDTEXTSTYLE0
 73
     1
 44
1.0
  0
MTEXT
  5
7B
330
1F
100
AcDbEntity
  8
VERMASSUNG
100
AcDbMText
 10
13.933048693
 20
18.0482802738
 30
0.0
 40
2.0
 41
0.0
 71
     1
 72
     1
  1
PSC ø63 / DC..11 T3..
  7
SLDTEXTSTYLE0
 73
     1
 44
1.0
  0
MTEXT
  5
7C
330
1F
100
AcDbEntity
  8
VERMASSUNG
100
AcDbMText
 10
13.9808475933
 20
13.9090974274
 30
0.0
 40
2.0
 41
0.0
 71
     1
 72
     1
  1
Gewicht: 1221g
  7
SLDTEXTSTYLE0
 73
     1
 44
1.0
  0
ARC
  5
7D
330
1F
100
AcDbEntity
  8
0
  6
Continuous
 62
     7
370
    25
100
AcDbCircle
 10
206.2782303967
 20
143.1047380074
 30
0.0
 40
2.500000000000003
100
AcDbArc
 50
201.3713330904
 51
338.6286669096
  0
LINE
  5
7E
330
1F
100
AcDbEntity
  8
0
  6
Continuous
 62
     7
370
    25
100
AcDbLine
 10
222.5109034087
 20
188.2488604199
 30
0.0
 11
185.7782303967
 21
188.2488604199
 31
0.0
  0
LINE
  5
7F
330
1F
100
AcDbEntity
  8
0
  6
Continuous
 62
     7
370
    25
100
AcDbLine
 10
185.7782303967
 20
125.2488604199
 30
0.0
 11
222.5109034087
 21
125.2488604199
 31
0.0
  0
ARC
  5
80
330
1F
100
AcDbEntity
  8
0
  6
Continuous
 62
     7
370
    25
100
AcDbCircle
 10
185.7782303967
 20
125.7488604199
 30
0.0
 40
0.5
100
AcDbArc
 50
180.0
 51
270.0
  0
ARC
  5
81
330
1F
100
AcDbEntity
  8
0
  6
Continuous
 62
     7
370
    25
100
AcDbCircle
 10
185.7782303967
 20
187.7488604199
 30
0.0
 40
0.5
100
AcDbArc
 50
90.0
 51
180.0
  0
LWPOLYLINE
  5
82
330
1F
100
AcDbEntity
  8
0
  6
Continuous
 62
     7
370
    25
100
AcDbPolyline
 90
        3
 70
   128
 43
0.0
 10
185.0782303967
 20
134.2090401411
 10
185.2036853402
 20
134.1407380261
 10
185.2782303967
 20
134.088000268
  0
LWPOLYLINE
  5
83
330
1F
100
AcDbEntity
  8
0
  6
Continuous
 62
     7
370
    25
100
AcDbPolyline
 90
        3
 70
   128
 43
0.0
 10
185.2782303967
 20
179.4097205719
 10
185.2036853402
 20
179.3569828138
 10
185.0782303967
 20
179.2886806988
  0
LWPOLYLINE
  5
84
330
1F
100
AcDbEntity
  8
0
  6
Continuous
 62
     7
370
    25
100
AcDbPolyline
 90
        3
 70
   128
 43
0.0
 10
223.0153743549
 20
188.3854317521
 10
222.9572450569
 20
188.3539977863
 10
222.9350961964
 20
188.3432885129
  0
ARC
  5
85
330
1F
100
AcDbEntity
  8
0
  6
Continuous
 62
     7
370
    25
100
AcDbCircle
 10
222.5109034087
 20
124.2488604199
 30
0.0
 40
0.9999999999999939
100
AcDbArc
 50
59.0494945538
 51
67.5244230154
  0
ARC
  5
86
330
1F
100
AcDbEntity
  8
0
  6
Continuous
 62
     7
370
    25
100
AcDbCircle
 10
206.0980896143
 20
141.7084026902
 30
0.0
 40
2.84595827955415
100
AcDbArc
 50
189.3286994424
 51
276.1741911371
  0
ARC
  5
87
330
1F
100
AcDbEntity
  8
0
  6
Continuous
 62
     7
370
    25
100
AcDbCircle
 10
206.4470710093
 20
141.7471346294
 30
0.0
 40
2.868502998033477
100
AcDbArc
 50
269.1431942568
 51
348.5713349561
  0
ARC
  5
88
330
1F
100
AcDbEntity
  8
0
  6
Continuous
 62
     7
370
    25
100
AcDbCircle
 10
206.0213468981
 20
141.470742785
 30
0.0
 40
2.568465425058717
100
AcDbArc
 50
166.3846462948
 51
278.4393094152
  0
ARC
  5
89
330
1F
100
AcDbEntity
  8
0
  6
Continuous
 62
     7
370
    25
100
AcDbCircle
 10
206.5450457069
 20
141.4875092098
 30
0.0
 40
2.561626929422219
100
AcDbArc
 50
266.7159322755
 51
11.4068832927
  0
LWPOLYLINE
  5
8A
330
1F
100
AcDbEntity
  8
0
  6
Continuous
 62
     7
370
    25
100
AcDbPolyline
 90
       26
 70
   128
 43
0.0
 10
206.383185717
 20
139.2415833006
 10
205.758711771
 20
139.2869383714
 10
205.1668810908
 20
139.4653625821
 10
204.6448805748
 20
139.7656448832
 10
204.2255094352
 20
140.1689174336
 10
203.9351183029
 20
140.6498411356
 10
203.7919535209
 20
141.1781977843
 10
203.8050106588
 20
141.7207887885
 10
203.9734692888
 20
142.2435211597
 10
204.2867445354
 20
142.7135497006
 10
204.7251521629
 20
143.1013407894
 10
205.2611454077
 20
143.3825280857
 10
205.8610458429
 20
143.5394435576
 10
206.4871595179
 20
143.5622276289
 10
207.1001454078
 20
143.4494486925
 10
207.6614873548
 20
143.2081930639
 10
208.1359141798
 20
142.8536197215
 10
208.4936159007
 20
142.4080078123
 10
208.7121168027
 20
141.8993567715
 10
208.7776876707
 20
141.3596270147
 10
208.6862084457
 20
140.8227317475
 10
208.443427104
 20
140.3224060741
 10
208.0645984902
 20
139.8900872965
 10
207.5735257992
 20
139.5529395936
 10
207.0010649343
 20
139.3321471955
 10
206.383185717
 20
139.2415833006
  0
SPLINE
  5
8B
330
1F
100
AcDbEntity
  8
0
  6
Continuous
 62
     7
370
    25
100
AcDbSpline
210
0.0
220
0.0
230
1.0
 70
    11
 71
     3
 72
    68
 73
    64
 74
     0
 42
0.000000001
 43
0.00000001
 40
0.0
 40
0.0
 40
0.0
 40
0.0
 40
0.03125
 40
0.03125
 40
0.0625
 40
0.0625
 40
0.0937499999999999
 40
0.0937499999999999
 40
0.1249999999999999
 40
0.1249999999999999
 40
0.1562499999999999
 40
0.1562499999999999
 40
0.1874999999999999
 40
0.1874999999999999
 40
0.2187499999999999
 40
0.2187499999999999
 40
0.2499999999999998
 40
0.2499999999999998
 40
0.2812499999999998
 40
0.2812499999999998
 40
0.3124999999999998
 40
0.3124999999999998
 40
0.3437499999999998
 40
0.3437499999999998
 40
0.3749999999999998
 40
0.3749999999999998
 40
0.4062499999999997
 40
0.4062499999999997
 40
0.4374999999999997
 40
0.4374999999999997
 40
0.4687499999999997
 40
0.4687499999999997
 40
0.4999999999999997
 40
0.4999999999999997
 40
0.5312499999999997
 40
0.5312499999999997
 40
0.5624999999999997
 40
0.5624999999999997
 40
0.5937499999999996
 40
0.5937499999999996
 40
0.6249999999999996
 40
0.6249999999999996
 40
0.6562499999999996
 40
0.6562499999999996
 40
0.6874999999999996
 40
0.6874999999999996
 40
0.7187499999999996
 40
0.7187499999999996
 40
0.7499999999999996
 40
0.7499999999999996
 40
0.7812499999999994
 40
0.7812499999999994
 40
0.8124999999999994
 40
0.8124999999999994
 40
0.8437499999999994
 40
0.8437499999999994
 40
0.8749999999999994
 40
0.8749999999999994
 40
0.9062499999999994
 40
0.9062499999999994
 40
0.9374999999999993
 40
0.9374999999999993
 40
1.0
 40
1.0
 40
1.0
 40
1.0
 10
206.2782303966727
 20
143.6685279110114
 30
0.0
 10
206.4765452068576
 20
143.6685279110114
 30
0.0
 10
206.6715234531073
 20
143.6507257478166
 30
0.0
 10
207.0550866782529
 20
143.581097214697
 30
0.0
 10
207.2456674537151
 20
143.5284200250181
 30
0.0
 10
207.6089167405019
 20
143.3913297934972
 30
0.0
 10
207.7811834794978
 20
143.3075837611759
 30
0.0
 10
208.1072051962058
 20
143.1104019215179
 30
0.0
 10
208.2614805629824
 20
142.9959888239025
 30
0.0
 10
208.5380434842335
 20
142.7470961188653
 30
0.0
 10
208.6621863745489
 20
142.6117252761337
 30
0.0
 10
208.8815011469198
 20
142.3190721494688
 30
0.0
 10
208.9746316023231
 20
142.1640225778531
 30
0.0
 10
209.1242859328493
 20
141.8448582321783
 30
0.0
 10
209.1819329028411
 20
141.6783833503195
 30
0.0
 10
209.2590394646635
 20
141.3393743750653
 30
0.0
 10
209.2781232460069
 20
141.1698228510629
 30
0.0
 10
209.2783366560843
 20
140.8307302189609
 30
0.0
 10
209.2588413655848
 20
140.6594437394666
 30
0.0
 10
209.1822714911078
 20
140.3297389463116
 30
0.0
 10
209.1256182498987
 20
140.1703604705053
 30
0.0
 10
208.9753422990893
 20
139.8623110145868
 30
0.0
 10
208.8814586366768
 20
139.7142871448335
 30
0.0
 10
208.6643934365804
 20
139.4414518723972
 30
0.0
 10
208.5404621803057
 20
139.3148803261686
 30
0.0
 10
208.2605053351534
 20
139.081669395271
 30
0.0
 10
208.1090461842516
 20
138.9788421250925
 30
0.0
 10
207.7843131753039
 20
138.7992755786892
 30
0.0
 10
207.6089487364874
 20
138.7218868136304
 30
0.0
 10
207.2456317175877
 20
138.5980759773425
 30
0.0
 10
207.0586402645971
 20
138.5515208213795
 30
0.0
 10
206.6740687662404
 20
138.4885433422754
 30
0.0
 10
206.475160913121
 20
138.4724343397708
 30
0.0
 10
206.0834975134244
 20
138.4723169661318
 30
0.0
 10
205.8887897770376
 20
138.4877871870549
 30
0.0
 10
205.5016727133826
 20
138.5506060657976
 30
0.0
 10
205.3122017106557
 20
138.5977651059339
 30
0.0
 10
204.9510692126381
 20
138.7205198431828
 30
0.0
 10
204.7766499632778
 20
138.7970089061669
 30
0.0
 10
204.4484519254739
 20
138.9780492826219
 30
0.0
 10
204.2973736880233
 20
139.0808213686144
 30
0.0
 10
204.0205375949957
 20
139.3107729519536
 30
0.0
 10
203.8937737784832
 20
139.4395329067285
 30
0.0
 10
203.6757692403263
 20
139.713099642827
 30
0.0
 10
203.5834880607962
 20
139.8582635318515
 30
0.0
 10
203.4326083736309
 20
140.165952781326
 30
0.0
 10
203.3746619391608
 20
140.3283754509534
 30
0.0
 10
203.2980497567461
 20
140.6569270085057
 30
0.0
 10
203.2784217367307
 20
140.8247665189948
 30
0.0
 10
203.2780418134856
 20
141.1679733044194
 30
0.0
 10
203.2973541539902
 20
141.3380900582987
 30
0.0
 10
203.373274770667
 20
141.6738458190034
 30
0.0
 10
203.4307805396331
 20
141.8414769903497
 30
0.0
 10
203.5811406862222
 20
142.1629562240006
 30
0.0
 10
203.6731599741136
 20
142.3161489761884
 30
0.0
 10
203.8905039891036
 20
142.6072025334483
 30
0.0
 10
204.0170234092352
 20
142.7456727784335
 30
0.0
 10
204.293457028695
 20
142.9947851474147
 30
0.0
 10
204.4442866187713
 20
143.1070332624513
 30
0.0
 10
204.7717982110115
 20
143.3058336710746
 30
0.0
 10
204.9463467440996
 20
143.3907098645075
 30
0.0
 10
205.4875516124712
 20
143.5954613437521
 30
0.0
 10
205.8816007763029
 20
143.6685279110114
 30
0.0
 10
206.2782303966727
 20
143.6685279110114
 30
0.0
  0
ELLIPSE
  5
8C
330
1F
100
AcDbEntity
  8
0
  6
Continuous
 62
     7
370
    25
100
AcDbEllipse
 10
220.1978456389
 20
156.7488604199
 30
0.0
 11
0.0
 21
31.5
 31
0.0
210
0.0
220
0.0
230
1.0
 40
0.2679491924
 41
0.1320368298873457
 42
3.009555823702448
  0
SPLINE
  5
8D
330
1F
100
AcDbEntity
  8
0
  6
Continuous
 62
     7
370
    25
100
AcDbSpline
210
0.0
220
0.0
230
1.0
 70
     8
 71
     3
 72
    14
 73
    10
 74
     0
 42
0.000000001
 43
0.00000001
 40
0.0
 40
0.0
 40
0.0
 40
0.0
 40
0.25
 40
0.25
 40
0.5
 40
0.5
 40
0.75
 40
0.75
 40
1.0
 40
1.0
 40
1.0
 40
1.0
 10
219.0866373668121
 20
125.5230428973583
 30
0.0
 10
219.2036985083024
 20
125.4650213244313
 30
0.0
 10
219.3676531213104
 20
125.4189747529829
 30
0.0
 10
219.7870471042133
 20
125.3456832699621
 30
0.0
 10
220.0460584359767
 20
125.3184535626622
 30
0.0
 10
220.6336813054619
 20
125.2799187366052
 30
0.0
 10
220.9647799973319
 20
125.26807365811
 30
0.0
 10
221.6990829845329
 20
125.25330029913
 30
0.0
 10
222.0920503593643
 20
125.2505024564437
 30
0.0
 10
222.5109034086937
 20
125.2494242353596
 30
0.0
  0
SPLINE
  5
8E
330
1F
100
AcDbEntity
  8
0
  6
Continuous
 62
     7
370
    25
100
AcDbSpline
210
0.0
220
0.0
230
1.0
 70
     8
 71
     3
 72
    14
 73
    10
 74
     0
 42
0.000000001
 43
0.00000001
 40
0.0
 40
0.0
 40
0.0
 40
0.0
 40
0.25
 40
0.25
 40
0.5
 40
0.5
 40
0.75
 40
0.75
 40
1.0
 40
1.0
 40
1.0
 40
1.0
 10
222.5109034086937
 20
188.2482966045065
 30
0.0
 10
222.0920417818655
 20
188.2472183613419
 30
0.0
 10
221.7014731595481
 20
188.2444097267951
 30
0.0
 10
220.9748699145036
 20
188.2299080771372
 30
0.0
 10
220.636674376837
 20
188.2179360614447
 30
0.0
 10
220.0485792035132
 20
188.1794943207677
 30
0.0
 10
219.7939117502229
 20
188.1530217222874
 30
0.0
 10
219.3683670083009
 20
188.0790825171418
 30
0.0
 10
219.203705800597
 20
188.0327031298742
 30
0.0
 10
219.0866373668121
 20
187.9746779425078
 30
0.0
  0
SPLINE
  5
8F
330
1F
100
AcDbEntity
  8
0
  6
Continuous
 62
     7
370
    25
100
AcDbSpline
210
0.0
220
0.0
230
1.0
 70
     8
 71
     3
 72
    12
 73
     8
 74
     0
 42
0.000000001
 43
0.00000001
 40
0.0
 40
0.0
 40
0.0
 40
0.0
 40
0.5000000000000019
 40
0.5000000000000019
 40
0.7500000000000009
 40
0.7500000000000009
 40
1.0
 40
1.0
 40
1.0
 40
1.0
 10
195.3729745083469
 20
126.8481179598158
 30
0.0
 10
195.404119706309
 20
126.8103024368956
 30
0.0
 10
195.4463939726434
 20
126.774235578812
 30
0.0
 10
195.5463395064687
 20
126.7262755138007
 30
0.0
 10
195.5860698111728
 20
126.711414539903
 30
0.0
 10
195.682957861179
 20
126.6884633937719
 30
0.0
 10
195.7430231029256
 20
126.6803684610598
 30
0.0
 10
195.8059872102391
 20
126.6803684610598
 30
0.0
  0
LINE
  5
90
330
1F
100
AcDbEntity
  8
0
  6
Continuous
 62
     7
370
    25
100
AcDbLine
 10
195.8059872102
 20
126.6803684611
 30
0.0
 11
198.7504735831
 21
126.6803684611
 31
0.0
  0
SPLINE
  5
91
330
1F
100
AcDbEntity
  8
0
  6
Continuous
 62
     7
370
    25
100
AcDbSpline
210
0.0
220
0.0
230
1.0
 70
     8
 71
     3
 72
    12
 73
     8
 74
     0
 42
0.000000001
 43
0.00000001
 40
0.0
 40
0.0
 40
0.0
 40
0.0
 40
0.2500000000000023
 40
0.2500000000000023
 40
0.5000000000000047
 40
0.5000000000000047
 40
1.0
 40
1.0
 40
1.0
 40
1.0
 10
198.7504735831062
 20
126.6803684610599
 30
0.0
 10
198.813530538004
 20
126.6803684610599
 30
0.0
 10
198.8726606877496
 20
126.6882687921395
 30
0.0
 10
198.9711082382829
 20
126.7115795401445
 30
0.0
 10
199.010140476471
 20
126.7262846664281
 30
0.0
 10
199.110030360928
 20
126.7742181946148
 30
0.0
 10
199.1523293345373
 20
126.8102881673796
 30
0.0
 10
199.1834862849985
 20
126.8481179598158
 30
0.0
  0
ELLIPSE
  5
92
330
1F
100
AcDbEntity
  8
0
  6
Continuous
 62
     7
370
    25
100
AcDbEllipse
 10
182.9310762073
 20
156.7488604199
 30
0.0
 11
-14.75368316065618
 21
31.09325491558119
 31
0.0
210
0.0
220
0.0
230
1.0
 40
0.3419987131
 41
3.300734856217122
 42
4.231496223360773
  0
SPLINE
  5
93
330
1F
100
AcDbEntity
  8
0
  6
Continuous
 62
     7
370
    25
100
AcDbSpline
210
0.0
220
0.0
230
1.0
 70
     8
 71
     3
 72
    12
 73
     8
 74
     0
 42
0.000000001
 43
0.00000001
 40
0.0
 40
0.0
 40
0.0
 40
0.0
 40
0.4999999999999981
 40
0.4999999999999981
 40
0.749999999999999
 40
0.749999999999999
 40
1.0
 40
1.0
 40
1.0
 40
1.0
 10
199.1834862849985
 20
146.8394910992476
 30
0.0
 10
199.1523410870363
 20
146.953596465113
 30
0.0
 10
199.1100668207019
 20
147.0647027923317
 30
0.0
 10
199.0101212868766
 20
147.214860399762
 30
0.0
 10
198.9703909821726
 20
147.2618530913794
 30
0.0
 10
198.8735029321664
 20
147.3348286759178
 30
0.0
 10
198.8134376904198
 20
147.3607939885969
 30
0.0
 10
198.7504735831063
 20
147.3607939885969
 30
0.0
  0
LINE
  5
94
330
1F
100
AcDbEntity
  8
0
  6
Continuous
 62
     7
370
    25
100
AcDbLine
 10
198.7504735831
 20
147.3607939886
 30
0.0
 11
195.8059872102
 21
147.3607939886
 31
0.0
  0
SPLINE
  5
95
330
1F
100
AcDbEntity
  8
0
  6
Continuous
 62
     7
370
    25
100
AcDbSpline
210
0.0
220
0.0
230
1.0
 70
     8
 71
     3
 72
    12
 73
     8
 74
     0
 42
0.000000001
 43
0.00000001
 40
0.0
 40
0.0
 40
0.0
 40
0.0
 40
0.2499999999999991
 40
0.2499999999999991
 40
0.4999999999999982
 40
0.4999999999999982
 40
1.0
 40
1.0
 40
1.0
 40
1.0
 10
195.8059872102392
 20
147.3607939885968
 30
0.0
 10
195.7429302553413
 20
147.3607939885968
 30
0.0
 10
195.6838001055958
 20
147.335447635216
 30
0.0
 10
195.5853525550625
 20
147.2613282530766
 30
0.0
 10
195.5463203168744
 20
147.2148317383785
 30
0.0
 10
195.4464304324174
 20
147.06475723137
 30
0.0
 10
195.4041314588081
 20
146.9536395222551
 30
0.0
 10
195.3729745083469
 20
146.8394910992476
 30
0.0
  0
ELLIPSE
  5
96
330
1F
100
AcDbEntity
  8
0
  6
Continuous
 62
     7
370
    25
100
AcDbEllipse
 10
211.625384586
 20
156.7488604199
 30
0.0
 11
14.75368316065615
 21
31.09325491558118
 31
0.0
210
0.0
220
0.0
230
1.0
 40
0.3419987131
 41
2.051689083818825
 42
2.982450450962497
  0
SPLINE
  5
97
330
1F
100
AcDbEntity
  8
0
  6
Continuous
 62
     7
370
    25
100
AcDbSpline
210
0.0
220
0.0
230
1.0
 70
     8
 71
     3
 72
    12
 73
     8
 74
     0
 42
0.000000001
 43
0.00000001
 40
0.0
 40
0.0
 40
0.0
 40
0.0
 40
0.4999999999999971
 40
0.4999999999999971
 40
0.7499999999999986
 40
0.7499999999999986
 40
1.0
 40
1.0
 40
1.0
 40
1.0
 10
195.3729745083469
 20
166.6582297406181
 30
0.0
 10
195.403696750266
 20
166.5456739412089
 30
0.0
 10
195.4465339648011
 20
166.4329160814693
 30
0.0
 10
195.5459609890009
 20
166.2833751956729
 30
0.0
 10
195.5857131838176
 20
166.236082463966
 30
0.0
 10
195.6837546406758
 20
166.1623461706446
 30
0.0
 10
195.7433106962633
 20
166.1369268512689
 30
0.0
 10
195.8059872102392
 20
166.1369268512689
 30
0.0
  0
LINE
  5
98
330
1F
100
AcDbEntity
  8
0
  6
Continuous
 62
     7
370
    25
100
AcDbLine
 10
195.8059872102
 20
166.1369268513
 30
0.0
 11
198.7504735831
 21
166.1369268513
 31
0.0
  0
SPLINE
  5
99
330
1F
100
AcDbEntity
  8
0
  6
Continuous
 62
     7
370
    25
100
AcDbSpline
210
0.0
220
0.0
230
1.0
 70
     8
 71
     3
 72
    12
 73
     8
 74
     0
 42
0.000000001
 43
0.00000001
 40
0.0
 40
0.0
 40
0.0
 40
0.0
 40
0.25
 40
0.25
 40
0.5
 40
0.5
 40
1.0
 40
1.0
 40
1.0
 40
1.0
 10
198.7504735831062
 20
166.1369268512689
 30
0.0
 10
198.8135536215996
 20
166.1369268512689
 30
0.0
 10
198.872702243781
 20
166.1622911704838
 30
0.0
 10
198.9711747938501
 20
166.2364560308567
 30
0.0
 10
199.0102114058348
 20
166.2829763714109
 30
0.0
 10
199.1101078726138
 20
166.4331187142561
 30
0.0
 10
199.1525287536805
 20
166.5448119212283
 30
0.0
 10
199.1834862849985
 20
166.658229740618
 30
0.0
  0
ELLIPSE
  5
9A
330
1F
100
AcDbEntity
  8
0
  6
Continuous
 62
     7
370
    25
100
AcDbEllipse
 10
182.9310762073
 20
156.7488604199
 30
0.0
 11
14.75368316065601
 21
31.09325491558118
 31
0.0
210
0.0
220
0.0
230
1.0
 40
0.3419987131
 41
5.193281737408621
 42
6.124043104552325
  0
SPLINE
  5
9B
330
1F
100
AcDbEntity
  8
0
  6
Continuous
 62
     7
370
    25
100
AcDbSpline
210
0.0
220
0.0
230
1.0
 70
     8
 71
     3
 72
    12
 73
     8
 74
     0
 42
0.000000001
 43
0.00000001
 40
0.0
 40
0.0
 40
0.0
 40
0.0
 40
0.5000000000000019
 40
0.5000000000000019
 40
0.7500000000000009
 40
0.7500000000000009
 40
1.0
 40
1.0
 40
1.0
 40
1.0
 10
199.1834862849985
 20
186.6496028800502
 30
0.0
 10
199.1527640430794
 20
186.6869048630032
 30
0.0
 10
199.1099268285442
 20
186.7235166950496
 30
0.0
 10
199.0104998043444
 20
186.7712814783348
 30
0.0
 10
198.9707476095278
 20
186.7862389938172
 30
0.0
 10
198.8727061526696
 20
186.8094289395863
 30
0.0
 10
198.8131500970821
 20
186.817352378806
 30
0.0
 10
198.7504735831062
 20
186.817352378806
 30
0.0
  0
LINE
  5
9C
330
1F
100
AcDbEntity
  8
0
  6
Continuous
 62
     7
370
    25
100
AcDbLine
 10
198.7504735831
 20
186.8173523788
 30
0.0
 11
195.8059872102
 21
186.8173523788
 31
0.0
  0
SPLINE
  5
9D
330
1F
100
AcDbEntity
  8
0
  6
Continuous
 62
     7
370
    25
100
AcDbSpline
210
0.0
220
0.0
230
1.0
 70
     8
 71
     3
 72
    12
 73
     8
 74
     0
 42
0.000000001
 43
0.00000001
 40
0.0
 40
0.0
 40
0.0
 40
0.0
 40
0.2500000000000023
 40
0.2500000000000023
 40
0.5000000000000047
 40
0.5000000000000047
 40
1.0
 40
1.0
 40
1.0
 40
1.0
 10
195.8059872102392
 20
186.817352378806
 30
0.0
 10
195.7429071717458
 20
186.817352378806
 30
0.0
 10
195.6837585495644
 20
186.8094464525936
 30
0.0
 10
195.5852859994953
 20
186.7861212911573
 30
0.0
 10
195.5462493875106
 20
186.7714085013257
 30
0.0
 10
195.4463529207315
 20
186.7234527005947
 30
0.0
 10
195.4039320396649
 20
186.6871905440147
 30
0.0
 10
195.3729745083469
 20
186.6496028800502
 30
0.0
  0
ELLIPSE
  5
9E
330
1F
100
AcDbEntity
  8
0
  6
Continuous
 62
     7
370
    25
100
AcDbEllipse
 10
211.625384586
 20
156.7488604199
 30
0.0
 11
-14.75368316065607
 21
31.09325491558116
 31
0.0
210
0.0
220
0.0
230
1.0
 40
0.3419987131
 41
0.1591422026273034
 42
1.089903569770978
  0
LINE
  5
9F
330
1F
100
AcDbEntity
  8
0
  6
Continuous
 62
     7
370
    25
100
AcDbLine
 10
185.2782303967
 20
125.7488604199
 30
0.0
 11
185.2782303967
 21
187.7488604152
 31
0.0
  0
ELLIPSE
  5
A0
330
1F
100
AcDbEntity
  8
0
  6
Continuous
 62
     7
370
    25
100
AcDbEllipse
 10
216.9248698928
 20
139.1840014602
 30
0.0
 11
-0.3267812967788757
 21
3.437685688267721
 31
0.0
210
0.0
220
0.0
230
1.0
 40
0.2095444568
 41
0.0
 42
6.283185307179586
  0
SPLINE
  5
A1
330
1F
100
AcDbEntity
  8
0
  6
Continuous
 62
     7
370
    25
100
AcDbSpline
210
0.0
220
0.0
230
1.0
 70
     8
 71
     3
 72
    12
 73
     8
 74
     0
 42
0.000000001
 43
0.00000001
 40
0.0
 40
0.0
 40
0.0
 40
0.0
 40
0.4999999999999998
 40
0.4999999999999998
 40
0.75
 40
0.75
 40
1.0
 40
1.0
 40
1.0
 40
1.0
 10
184.4617181102162
 20
134.8940667174572
 30
0.0
 10
184.5181546111234
 20
134.8926488361154
 30
0.0
 10
184.5872392418121
 20
134.8910844998671
 30
0.0
 10
184.7060415135301
 20
134.8881403078927
 30
0.0
 10
184.7462267890002
 20
134.8871021047953
 30
0.0
 10
184.819607836404
 20
134.8851682095807
 30
0.0
 10
184.8530174001466
 20
134.8842733222918
 30
0.0
 10
184.8832535078031
 20
134.8834895320195
 30
0.0
  0
SPLINE
  5
A2
330
1F
100
AcDbEntity
  8
0
  6
Continuous
 62
     7
370
    25
100
AcDbSpline
210
0.0
220
0.0
230
1.0
 70
     8
 71
     3
 72
    16
 73
    12
 74
     0
 42
0.000000001
 43
0.00000001
 40
0.0
 40
0.0
 40
0.0
 40
0.0
 40
0.062499999999999
 40
0.062499999999999
 40
0.1249999999999981
 40
0.1249999999999981
 40
0.2499999999999944
 40
0.2499999999999944
 40
0.4999999999999951
 40
0.4999999999999951
 40
1.0
 40
1.0
 40
1.0
 40
1.0
 10
184.8832535077659
 20
134.8834895320438
 30
0.0
 10
184.8948339153538
 20
134.8831893409324
 30
0.0
 10
184.9081434421151
 20
134.8818615926734
 30
0.0
 10
184.9374448722012
 20
134.8751629178984
 30
0.0
 10
184.9522589720855
 20
134.8698047347927
 30
0.0
 10
184.9880873737883
 20
134.8527590856254
 30
0.0
 10
185.0022069981514
 20
134.8412965478496
 30
0.0
 10
185.0367111422399
 20
134.8097332224774
 30
0.0
 10
185.0478156929445
 20
134.7918359234321
 30
0.0
 10
185.0739918701607
 20
134.7416745058179
 30
0.0
 10
185.0782303966727
 20
134.7139300936213
 30
0.0
 10
185.0782303966727
 20
134.6892659316918
 30
0.0
  0
LINE
  5
A3
330
1F
100
AcDbEntity
  8
0
  6
Continuous
 62
     7
370
    25
100
AcDbLine
 10
185.0782303967
 20
149.7269730942
 30
0.0
 11
185.0782303967
 21
134.2090401411
 31
0.0
  0
SPLINE
  5
A4
330
1F
100
AcDbEntity
  8
0
  6
Continuous
 62
     7
370
    25
100
AcDbSpline
210
0.0
220
0.0
230
1.0
 70
     8
 71
     3
 72
    16
 73
    12
 74
     0
 42
0.000000001
 43
0.00000001
 40
0.0
 40
0.0
 40
0.0
 40
0.0
 40
0.5000000000000023
 40
0.5000000000000023
 40
0.7500000000000018
 40
0.7500000000000018
 40
0.8750000000000016
 40
0.8750000000000016
 40
0.9375000000000008
 40
0.9375000000000008
 40
1.0
 40
1.0
 40
1.0
 40
1.0
 10
185.0782303966727
 20
149.7269730941829
 30
0.0
 10
185.0782303966727
 20
149.8406656383108
 30
0.0
 10
185.0740841215947
 20
149.9549857996603
 30
0.0
 10
185.0481185262012
 20
150.1280340901574
 30
0.0
 10
185.0366576208238
 20
150.1872095973191
 30
0.0
 10
185.0023458830494
 20
150.2703327167873
 30
0.0
 10
184.9883211471199
 20
150.298454032888
 30
0.0
 10
184.952298184086
 20
150.3270698468654
 30
0.0
 10
184.9375436749964
 20
150.3328628947672
 30
0.0
 10
184.9081915138495
 20
150.3312694688301
 30
0.0
 10
184.8948516393454
 20
150.3247730655063
 30
0.0
 10
184.8832535077971
 20
150.3162573193032
 30
0.0
  0
SPLINE
  5
A5
330
1F
100
AcDbEntity
  8
0
  6
Continuous
 62
     7
370
    25
100
AcDbSpline
210
0.0
220
0.0
230
1.0
 70
     8
 71
     3
 72
    12
 73
     8
 74
     0
 42
0.000000001
 43
0.00000001
 40
0.0
 40
0.0
 40
0.0
 40
0.0
 40
0.2500000000000006
 40
0.2500000000000006
 40
0.5000000000000008
 40
0.5000000000000008
 40
1.0
 40
1.0
 40
1.0
 40
1.0
 10
184.8832535078041
 20
150.316257319294
 30
0.0
 10
184.8530550663635
 20
150.294084587249
 30
0.0
 10
184.8196877110275
 20
150.2750049313718
 30
0.0
 10
184.7465324351976
 20
150.2498318869291
 30
0.0
 10
184.7062797361736
 20
150.2442753505123
 30
0.0
 10
184.5885509928988
 20
150.255187161499
 30
0.0
 10
184.5180925448398
 20
150.2971229169098
 30
0.0
 10
184.4617181102215
 20
150.3463346992914
 30
0.0
  0
SPLINE
  5
A6
330
1F
100
AcDbEntity
  8
0
  6
Continuous
 62
     7
370
    25
100
AcDbSpline
210
0.0
220
0.0
230
1.0
 70
     8
 71
     3
 72
    12
 73
     8
 74
     0
 42
0.000000001
 43
0.00000001
 40
0.0
 40
0.0
 40
0.0
 40
0.0
 40
0.5000000000000016
 40
0.5000000000000016
 40
0.7500000000000008
 40
0.7500000000000008
 40
1.0
 40
1.0
 40
1.0
 40
1.0
 10
183.956910053113
 20
151.562686091172
 30
0.0
 10
184.0006604049975
 20
151.3422391061974
 30
0.0
 10
184.053550556122
 20
151.1266941163919
 30
0.0
 10
184.1651620992637
 20
150.8142800398199
 30
0.0
 10
184.2077214431672
 20
150.712200564204
 30
0.0
 10
184.3126986785046
 20
150.5177605515623
 30
0.0
 10
184.3742659215992
 20
150.4226756524986
 30
0.0
 10
184.4617181102216
 20
150.3463346992914
 30
0.0
  0
SPLINE
  5
A7
330
1F
100
AcDbEntity
  8
0
  6
Continuous
 62
     7
370
    25
100
AcDbSpline
210
0.0
220
0.0
230
1.0
 70
     8
 71
     3
 72
    12
 73
     8
 74
     0
 42
0.000000001
 43
0.00000001
 40
0.0
 40
0.0
 40
0.0
 40
0.0
 40
0.2500000000000004
 40
0.2500000000000004
 40
0.5000000000000008
 40
0.5000000000000008
 40
1.0
 40
1.0
 40
1.0
 40
1.0
 10
184.4617181102215
 20
163.1513861405746
 30
0.0
 10
184.3732247026536
 20
163.0741362604663
 30
0.0
 10
184.3131666618877
 20
162.9808169365771
 30
0.0
 10
184.2073183889052
 20
162.7847838836076
 30
0.0
 10
184.1647848676277
 20
162.6824575253959
 30
0.0
 10
184.053633560804
 20
162.37111311962
 30
0.0
 10
184.0007027037562
 20
162.155694866442
 30
0.0
 10
183.956910053113
 20
161.9350347486941
 30
0.0
  0
SPLINE
  5
A8
330
1F
100
AcDbEntity
  8
0
  6
Continuous
 62
     7
370
    25
100
AcDbSpline
210
0.0
220
0.0
230
1.0
 70
     8
 71
     3
 72
    12
 73
     8
 74
     0
 42
0.000000001
 43
0.00000001
 40
0.0
 40
0.0
 40
0.0
 40
0.0
 40
0.4999999999999996
 40
0.4999999999999996
 40
0.7499999999999997
 40
0.7499999999999997
 40
1.0
 40
1.0
 40
1.0
 40
1.0
 10
184.4617181102215
 20
163.1513861405746
 30
0.0
 10
184.5180266585171
 20
163.2005404078184
 30
0.0
 10
184.5883013192352
 20
163.2424977264222
 30
0.0
 10
184.7063392335588
 20
163.2534574039546
 30
0.0
 10
184.7465154744127
 20
163.2479486457073
 30
0.0
 10
184.8204725690907
 20
163.2223914169183
 30
0.0
 10
184.8530889568021
 20
163.203611369079
 30
0.0
 10
184.8832535077979
 20
163.1814635205623
 30
0.0
  0
SPLINE
  5
A9
330
1F
100
AcDbEntity
  8
0
  6
Continuous
 62
     7
370
    25
100
AcDbSpline
210
0.0
220
0.0
230
1.0
 70
     8
 71
     3
 72
    16
 73
    12
 74
     0
 42
0.000000001
 43
0.00000001
 40
0.0
 40
0.0
 40
0.0
 40
0.0
 40
0.0625000000000005
 40
0.0625000000000005
 40
0.1250000000000011
 40
0.1250000000000011
 40
0.2500000000000033
 40
0.2500000000000033
 40
0.5000000000000046
 40
0.5000000000000046
 40
1.0
 40
1.0
 40
1.0
 40
1.0
 10
184.8832535077661
 20
163.1814635205078
 30
0.0
 10
184.8948664076055
 20
163.1729369309125
 30
0.0
 10
184.9082175920379
 20
163.1664366693797
 30
0.0
 10
184.9376174316571
 20
163.1648672722622
 30
0.0
 10
184.9524581562124
 20
163.1707506628928
 30
0.0
 10
184.988291364181
 20
163.1992982989433
 30
0.0
 10
185.0024045720025
 20
163.2274653182491
 30
0.0
 10
185.0368959432215
 20
163.3112195766711
 30
0.0
 10
185.0479800143318
 20
163.3689329902925
 30
0.0
 10
185.0741028321278
 20
163.5425235269383
 30
0.0
 10
185.0782303966727
 20
163.6575515795803
 30
0.0
 10
185.0782303966727
 20
163.7707477456831
 30
0.0
  0
LINE
  5
AA
330
1F
100
AcDbEntity
  8
0
  6
Continuous
 62
     7
370
    25
100
AcDbLine
 10
185.0782303967
 20
179.2886806988
 30
0.0
 11
185.0782303967
 21
163.7707477457
 31
0.0
  0
SPLINE
  5
AB
330
1F
100
AcDbEntity
  8
0
  6
Continuous
 62
     7
370
    25
100
AcDbSpline
210
0.0
220
0.0
230
1.0
 70
     8
 71
     3
 72
    16
 73
    12
 74
     0
 42
0.000000001
 43
0.00000001
 40
0.0
 40
0.0
 40
0.0
 40
0.0
 40
0.4999999999999953
 40
0.4999999999999953
 40
0.749999999999995
 40
0.749999999999995
 40
0.8749999999999948
 40
0.8749999999999948
 40
0.9374999999999974
 40
0.9374999999999974
 40
1.0
 40
1.0
 40
1.0
 40
1.0
 10
185.0782303966727
 20
178.8084549081743
 30
0.0
 10
185.0782303966727
 20
178.7837837521314
 30
0.0
 10
185.0740646982127
 20
178.7562019207401
 30
0.0
 10
185.0478063698878
 20
178.7058590499168
 30
0.0
 10
185.0363025881502
 20
178.6875695518549
 30
0.0
 10
185.0021718288037
 20
178.6564145208179
 30
0.0
 10
184.987749942133
 20
178.6447751456061
 30
0.0
 10
184.9521829736951
 20
178.6278931196751
 30
0.0
 10
184.9372312054005
 20
178.6225040158674
 30
0.0
 10
184.9082273870407
 20
178.6158835199229
 30
0.0
 10
184.8948120330315
 20
178.6145309317165
 30
0.0
 10
184.8832535077948
 20
178.6142313078449
 30
0.0
  0
SPLINE
  5
AC
330
1F
100
AcDbEntity
  8
0
  6
Continuous
 62
     7
370
    25
100
AcDbSpline
210
0.0
220
0.0
230
1.0
 70
     8
 71
     3
 72
    12
 73
     8
 74
     0
 42
0.000000001
 43
0.00000001
 40
0.0
 40
0.0
 40
0.0
 40
0.0
 40
0.2500000000000001
 40
0.2500000000000001
 40
0.5000000000000002
 40
0.5000000000000002
 40
1.0
 40
1.0
 40
1.0
 40
1.0
 10
184.8832535078041
 20
178.6142313078466
 30
0.0
 10
184.8530657312545
 20
178.613448770429
 30
0.0
 10
184.8197119271628
 20
178.6125554386105
 30
0.0
 10
184.7465857239668
 20
178.6106281298069
 30
0.0
 10
184.7063505209426
 20
178.6095885985943
 30
0.0
 10
184.5886588908095
 20
178.606670715247
 30
0.0
 10
184.5182782176495
 20
178.6050751091768
 30
0.0
 10
184.4617181102189
 20
178.6036541224089
 30
0.0
  0
SPLINE
  5
AD
330
1F
100
AcDbEntity
  8
0
  6
Continuous
 62
     7
370
    25
100
AcDbSpline
210
0.0
220
0.0
230
1.0
 70
     8
 71
     3
 72
    16
 73
    12
 74
     0
 42
0.000000001
 43
0.00000001
 40
0.0
 40
0.0
 40
0.0
 40
0.0
 40
0.25
 40
0.25
 40
0.375
 40
0.375
 40
0.5
 40
0.5
 40
0.75
 40
0.75
 40
1.0
 40
1.0
 40
1.0
 40
1.0
 10
183.956910053113
 20
161.9350347486941
 30
0.0
 10
183.7956775756286
 20
161.1226249734473
 30
0.0
 10
183.6751977359889
 20
160.2825466790625
 30
0.0
 10
183.5528172186756
 20
158.9812516296998
 30
0.0
 10
183.5218395582782
 20
158.540570594115
 30
0.0
 10
183.4802258206502
 20
157.6447309531839
 30
0.0
 10
183.4699899077174
 20
157.1980728219814
 30
0.0
 10
183.4698015106613
 20
155.8627628648415
 30
0.0
 10
183.5099462132989
 20
154.978267491534
 30
0.0
 10
183.6740999682385
 20
153.221017603508
 30
0.0
 10
183.795651618648
 20
152.3752266570949
 30
0.0
 10
183.956910053113
 20
151.562686091172
 30
0.0
  0
LINE
  5
AE
330
1F
100
AcDbEntity
  8
0
  6
Continuous
 62
     7
370
    25
100
AcDbLine
 10
183.0782303967
 20
163.2340386816
 30
0.0
 11
183.0782303967
 21
150.2636821582
 31
0.0
  0
LINE
  5
AF
330
1F
100
AcDbEntity
  8
0
  6
Continuous
 62
     7
370
    25
100
AcDbLine
 10
148.7782303967
 20
162.8031709875
 30
0.0
 11
148.7782303967
 21
150.6945498524
 31
0.0
  0
LINE
  5
B0
330
1F
100
AcDbEntity
  8
0
  6
Continuous
 62
     7
370
    25
100
AcDbLine
 10
147.2782303967
 20
162.3701582856
 30
0.0
 11
147.2782303967
 21
151.1275625543
 31
0.0
  0
LINE
  5
B1
330
1F
100
AcDbEntity
  8
0
  6
Continuous
 62
     7
370
    25
100
AcDbLine
 10
183.0782303967
 20
134.7287616354
 30
0.0
 11
183.0782303967
 21
150.2636821582
 31
0.0
  0
ARC
  5
B2
330
1F
100
AcDbEntity
  8
0
  6
Continuous
 62
     7
370
    25
100
AcDbCircle
 10
183.2781673076
 20
134.7237385242
 30
0.0
 40
0.2000000000000059
100
AcDbArc
 50
88.5608333333
 51
178.5608333333
  0
LINE
  5
B3
330
1F
100
AcDbEntity
  8
0
  6
Continuous
 62
     7
370
    25
100
AcDbLine
 10
148.7782303967
 20
135.5904970236
 30
0.0
 11
148.7782303967
 21
150.6945498524
 31
0.0
  0
LINE
  5
B4
330
1F
100
AcDbEntity
  8
0
  6
Continuous
 62
     7
370
    25
100
AcDbLine
 10
148.7782303967
 20
135.5904970236
 30
0.0
 11
183.0782303967
 21
134.7287616354
 31
0.0
  0
LINE
  5
B5
330
1F
100
AcDbEntity
  8
0
  6
Continuous
 62
     7
370
    25
100
AcDbLine
 10
148.7782303967
 20
162.8031709875
 30
0.0
 11
148.7782303967
 21
177.9072238162
 31
0.0
  0
LINE
  5
B6
330
1F
100
AcDbEntity
  8
0
  6
Continuous
 62
     7
370
    25
100
AcDbLine
 10
148.7782303967
 20
177.9072238162
 30
0.0
 11
183.0782303967
 21
178.7689592045
 31
0.0
  0
LINE
  5
B7
330
1F
100
AcDbEntity
  8
0
  6
Continuous
 62
     7
370
    25
100
AcDbLine
 10
183.0782303967
 20
163.2340386816
 30
0.0
 11
183.0782303967
 21
178.7689592045
 31
0.0
  0
ARC
  5
B8
330
1F
100
AcDbEntity
  8
0
  6
Continuous
 62
     7
370
    25
100
AcDbCircle
 10
183.2781673076
 20
178.7739823156
 30
0.0
 40
0.2000000000000059
100
AcDbArc
 50
181.4391666667
 51
271.4391666667
  0
LINE
  5
B9
330
1F
100
AcDbEntity
  8
0
  6
Continuous
 62
     7
370
    25
100
AcDbLine
 10
183.2831904187
 20
178.5740454047
 30
0.0
 11
184.4617181102
 21
178.6036541224
 31
0.0
  0
LINE
  5
BA
330
1F
100
AcDbEntity
  8
0
  6
Continuous
 62
     7
370
    25
100
AcDbLine
 10
183.2831904187
 20
134.9236754352
 30
0.0
 11
184.4617181102
 21
134.8940667175
 31
0.0
  0
LINE
  5
BB
330
1F
100
AcDbEntity
  8
0
  6
Continuous
 62
     7
370
    25
100
AcDbLine
 10
147.2782303967
 20
177.0411984124
 30
0.0
 11
148.7782303967
 21
177.9072238162
 31
0.0
  0
LINE
  5
BC
330
1F
100
AcDbEntity
  8
0
  6
Continuous
 62
     7
370
    25
100
AcDbLine
 10
147.2782303967
 20
162.3701582856
 30
0.0
 11
147.2782303967
 21
177.0411984124
 31
0.0
  0
LINE
  5
BD
330
1F
100
AcDbEntity
  8
0
  6
Continuous
 62
     7
370
    25
100
AcDbLine
 10
147.2782303967
 20
136.4565224274
 30
0.0
 11
148.7782303967
 21
135.5904970236
 31
0.0
  0
LINE
  5
BE
330
1F
100
AcDbEntity
  8
0
  6
Continuous
 62
     7
370
    25
100
AcDbLine
 10
147.2782303967
 20
136.4565224274
 30
0.0
 11
147.2782303967
 21
151.1275625543
 31
0.0
  0
SPLINE
  5
BF
330
1F
100
AcDbEntity
  8
0
  6
Continuous
 62
     7
370
    25
100
AcDbSpline
210
0.0
220
0.0
230
1.0
 70
     8
 71
     3
 72
     8
 73
     4
 74
     0
 42
0.000000001
 43
0.00000001
 40
0.0
 40
0.0
 40
0.0
 40
0.0
 40
1.0
 40
1.0
 40
1.0
 40
1.0
 10
223.4768292349828
 20
124.5079541662073
 30
0.0
 10
223.8746156499197
 20
123.0237780299338
 30
0.0
 10
224.2727640037165
 20
121.5383417739271
 30
0.0
 10
224.6711239377818
 20
120.0517070174753
 30
0.0
  0
SPLINE
  5
C0
330
1F
100
AcDbEntity
  8
0
  6
Continuous
 62
     7
370
    25
100
AcDbSpline
210
0.0
220
0.0
230
1.0
 70
     8
 71
     3
 72
    12
 73
     8
 74
     0
 42
0.000000001
 43
0.00000001
 40
0.0
 40
0.0
 40
0.0
 40
0.0
 40
0.2499999999999948
 40
0.2499999999999948
 40
0.4999999999999896
 40
0.4999999999999896
 40
1.0
 40
1.0
 40
1.0
 40
1.0
 10
222.5109034086937
 20
125.2494242353596
 30
0.0
 10
222.6154780977506
 20
125.2491550368071
 30
0.0
 10
222.7188400497898
 20
125.2329898307628
 30
0.0
 10
222.922445313213
 20
125.1665091651301
 30
0.0
 10
223.0191715511766
 20
125.1169859443423
 30
0.0
 10
223.2829889519703
 20
124.9211477005823
 30
0.0
 10
223.4178943245207
 20
124.7278455059231
 30
0.0
 10
223.4768292349828
 20
124.5079541662073
 30
0.0
  0
SPLINE
  5
C1
330
1F
100
AcDbEntity
  8
0
  6
Continuous
 62
     7
370
    25
100
AcDbSpline
210
0.0
220
0.0
230
1.0
 70
     8
 71
     3
 72
    12
 73
     8
 74
     0
 42
0.000000001
 43
0.00000001
 40
0.0
 40
0.0
 40
0.0
 40
0.0
 40
0.4999999999999956
 40
0.4999999999999956
 40
0.7499999999999978
 40
0.7499999999999978
 40
1.0
 40
1.0
 40
1.0
 40
1.0
 10
223.376928812478
 20
188.7486777863425
 30
0.0
 10
223.2866680788206
 20
188.5924197504629
 30
0.0
 10
223.1531341931312
 20
188.4628115013082
 30
0.0
 10
222.9254414120322
 20
188.3346685829164
 30
0.0
 10
222.8439136611379
 20
188.3020476446808
 30
0.0
 10
222.6786455226669
 20
188.2591339047347
 30
0.0
 10
222.5951379266579
 20
188.2485134429261
 30
0.0
 10
222.5109034086937
 20
188.2482966045065
 30
0.0
  0
SPLINE
  5
C2
330
1F
100
AcDbEntity
  8
0
  6
Continuous
 62
     7
370
    25
100
AcDbSpline
210
0.0
220
0.0
230
1.0
 70
     8
 71
     3
 72
     8
 73
     4
 74
     0
 42
0.000000001
 43
0.00000001
 40
0.0
 40
0.0
 40
0.0
 40
0.0
 40
1.0
 40
1.0
 40
1.0
 40
1.0
 10
223.376928812478
 20
188.7486777863434
 30
0.0
 10
223.8688442711878
 20
188.7482470613126
 30
0.0
 10
224.3705308279996
 20
188.7474541390331
 30
0.0
 10
224.8821923245465
 20
188.7474541390331
 30
0.0
  0
SPLINE
  5
C3
330
1F
100
AcDbEntity
  8
0
  6
Continuous
 62
     7
370
    25
100
AcDbSpline
210
0.0
220
0.0
230
1.0
 70
     8
 71
     3
 72
     8
 73
     4
 74
     0
 42
0.000000001
 43
0.00000001
 40
0.0
 40
0.0
 40
0.0
 40
0.0
 40
1.0
 40
1.0
 40
1.0
 40
1.0
 10
224.8821923245465
 20
119.9851864347407
 30
0.0
 10
224.8116391634848
 20
120.007431760975
 30
0.0
 10
224.7412839767535
 20
120.0296048233137
 30
0.0
 10
224.6711239377818
 20
120.0517070174753
 30
0.0
  0
LINE
  5
C4
330
1F
100
AcDbEntity
  8
0
  6
Continuous
 62
     7
370
    25
100
AcDbLine
 10
246.8372027273
 20
122.668924459
 30
0.0
 11
226.0027223483
 21
188.747454139
 31
0.0
  0
LINE
  5
C5
330
1F
100
AcDbEntity
  8
0
  6
Continuous
 62
     7
370
    25
100
AcDbLine
 10
238.7825043565
 20
127.2031173561
 30
0.0
 11
239.4784965358
 21
124.9957121778
 31
0.0
  0
ARC
  5
C6
330
1F
100
AcDbEntity
  8
0
  6
Continuous
 62
     7
370
    25
100
AcDbCircle
 10
237.3362474421
 20
126.7471143026
 30
0.0
 40
1.516442497159219
100
AcDbArc
 50
17.5
 51
197.5
  0
LINE
  5
C7
330
1F
100
AcDbEntity
  8
0
  6
Continuous
 62
     7
370
    25
100
AcDbLine
 10
236.1199238607
 20
125.5618558854
 30
0.0
 11
235.8899905278
 21
126.2911112491
 31
0.0
  0
LINE
  5
C8
330
1F
100
AcDbEntity
  8
0
  6
Continuous
 62
     7
370
    25
100
AcDbLine
 10
224.8821923245
 20
119.9851864347
 30
0.0
 11
239.2699531936
 21
115.4487428581
 31
0.0
  0
LINE
  5
C9
330
1F
100
AcDbEntity
  8
0
  6
Continuous
 62
     7
370
    25
100
AcDbLine
 10
224.8821923245
 20
188.747454139
 30
0.0
 11
226.0027223483
 21
188.747454139
 31
0.0
  0
LINE
  5
CA
330
1F
100
AcDbEntity
  8
0
  6
Continuous
 62
     7
370
    25
100
AcDbLine
 10
238.5283936306
 20
127.122996552
 30
0.0
 11
239.1682846188
 21
125.0935216196
 31
0.0
  0
LINE
  5
CB
330
1F
100
AcDbEntity
  8
0
  6
Continuous
 62
     7
370
    25
100
AcDbLine
 10
236.1441012537
 20
126.3712320532
 30
0.0
 11
236.3075011446
 21
125.8529938085
 31
0.0
  0
ARC
  5
CC
330
1F
100
AcDbEntity
  8
0
  6
Continuous
 62
     7
370
    25
100
AcDbCircle
 10
237.3362474421
 20
126.7471143026
 30
0.0
 40
1.250000000000004
100
AcDbArc
 50
17.5
 51
197.5
  0
LINE
  5
CD
330
1F
100
AcDbEntity
  8
0
  6
Continuous
 62
     7
370
    25
100
AcDbLine
 10
246.6753352578
 20
122.307145995
 30
0.0
 11
247.0377476991
 21
122.4214141988
 31
0.0
  0
LINE
  5
CE
330
1F
100
AcDbEntity
  8
0
  6
Continuous
 62
     7
370
    25
100
AcDbLine
 10
250.240642838
 20
112.2631286237
 30
0.0
 11
247.0377476991
 21
122.4214141988
 31
0.0
  0
LINE
  5
CF
330
1F
100
AcDbEntity
  8
0
  6
Continuous
 62
     7
370
    25
100
AcDbLine
 10
249.8782303967
 20
112.1488604199
 30
0.0
 11
250.240642838
 21
112.2631286237
 31
0.0
  0
LINE
  5
D0
330
1F
100
AcDbEntity
  8
0
  6
Continuous
 62
     7
370
    25
100
AcDbLine
 10
248.4587432651
 20
113.5683475515
 30
0.0
 11
249.8782303967
 21
112.1488604199
 31
0.0
  0
LINE
  5
D1
330
1F
100
AcDbEntity
  8
0
  6
Continuous
 62
     7
370
    25
100
AcDbLine
 10
246.4995746812
 20
122.1313854184
 30
0.0
 11
246.6753352578
 21
122.307145995
 31
0.0
  0
LINE
  5
D2
330
1F
100
AcDbEntity
  8
0
  6
Continuous
 62
     7
370
    25
100
AcDbLine
 10
239.7199448216
 20
115.3517555588
 30
0.0
 11
239.3575323806
 21
115.2374873551
 31
0.0
  0
LINE
  5
D3
330
1F
100
AcDbEntity
  8
0
  6
Continuous
 62
     7
370
    25
100
AcDbLine
 10
236.1546372414
 20
125.3957729301
 30
0.0
 11
239.3575323806
 21
115.2374873551
 31
0.0
  0
LINE
  5
D4
330
1F
100
AcDbEntity
  8
0
  6
Continuous
 62
     7
370
    25
100
AcDbLine
 10
236.5170496827
 20
125.5100411339
 30
0.0
 11
236.1546372414
 21
125.3957729301
 31
0.0
  0
LINE
  5
D5
330
1F
100
AcDbEntity
  8
0
  6
Continuous
 62
     7
370
    25
100
AcDbLine
 10
237.9365368143
 20
124.0905540023
 30
0.0
 11
236.5170496827
 21
125.5100411339
 31
0.0
  0
LINE
  5
D6
330
1F
100
AcDbEntity
  8
0
  6
Continuous
 62
     7
370
    25
100
AcDbLine
 10
239.8957053982
 20
115.5275161354
 30
0.0
 11
239.7199448216
 21
115.3517555588
 31
0.0
  0
SPLINE
  5
D7
330
1F
100
AcDbEntity
  8
0
  6
Continuous
 62
     7
370
    25
100
AcDbSpline
210
0.0
220
0.0
230
1.0
 70
    24
 71
     3
 72
    11
 73
     7
 74
     0
 42
0.000000001
 43
0.00000001
 40
0.0
 40
0.0
 40
0.0
 40
0.0
 40
0.0092138098389954
 40
0.3448490431109459
 40
0.6722304962507485
 40
1.0
 40
1.0
 40
1.0
 40
1.0
 10
246.0071131754967
 20
121.6389239127148
 30
0.0
 10
246.0084757386292
 20
121.6402864758472
 30
0.0
 10
246.0594729483188
 20
121.6912836855365
 30
0.0
 10
246.1687300865923
 20
121.8005408238106
 30
0.0
 10
246.3419587061919
 20
121.9737694434099
 30
0.0
 10
246.4470152809466
 20
122.0788260181646
 30
0.0
 10
246.4995746812052
 20
122.1313854184232
 30
0.0
  0
SPLINE
  5
D8
330
1F
100
AcDbEntity
  8
0
  6
Continuous
 62
     7
370
    25
100
AcDbSpline
210
0.0
220
0.0
230
1.0
 70
    24
 71
     3
 72
    11
 73
     7
 74
     0
 42
0.000000001
 43
0.00000001
 40
0.0
 40
0.0
 40
0.0
 40
0.0
 40
0.3277695037492553
 40
0.6551509568890609
 40
0.9907861901610205
 40
1.0
 40
1.0
 40
1.0
 40
1.0
 10
239.8957053981831
 20
115.5275161354015
 30
0.0
 10
239.9482647984418
 20
115.58007553566
 30
0.0
 10
240.0533213731966
 20
115.6851321104145
 30
0.0
 10
240.2265499927957
 20
115.8583607300143
 30
0.0
 10
240.3358071310703
 20
115.9676178682873
 30
0.0
 10
240.3868043407592
 20
116.0186150779773
 30
0.0
 10
240.3881669038916
 20
116.0199776411097
 30
0.0
  0
LINE
  5
D9
330
1F
100
AcDbEntity
  8
0
  6
Continuous
 62
     7
370
    25
100
AcDbLine
 10
236.1329494159
 20
125.3980477345
 30
0.0
 11
239.3389262514
 21
115.2299882663
 31
0.0
  0
LINE
  5
DA
330
1F
100
AcDbEntity
  8
0
  6
Continuous
 62
     7
370
    25
100
AcDbLine
 10
246.7971025503
 20
122.6881645652
 30
0.0
 11
236.6290430821
 21
125.8941414007
 31
0.0
  0
LINE
  5
DB
330
1F
100
AcDbEntity
  8
0
  6
Continuous
 62
     7
370
    25
100
AcDbLine
 10
250.2623306635
 20
112.2608538193
 30
0.0
 11
247.056353828
 21
122.4289132875
 31
0.0
  0
LINE
  5
DC
330
1F
100
AcDbEntity
  8
0
  6
Continuous
 62
     7
370
    25
100
AcDbLine
 10
239.5981775291
 20
114.9707369886
 30
0.0
 11
249.7662369973
 21
111.7647601531
 31
0.0
  0
ARC
  5
DD
330
1F
100
AcDbEntity
  8
0
  6
Continuous
 62
     7
370
    25
100
AcDbCircle
 10
236.5170496827
 20
125.5100411339
 30
0.0
 40
0.3800000000000106
100
AcDbArc
 50
72.5
 51
197.5
  0
ARC
  5
DE
330
1F
100
AcDbEntity
  8
0
  6
Continuous
 62
     7
370
    25
100
AcDbCircle
 10
239.7199448216
 20
115.3517555588
 30
0.0
 40
0.3800000000000242
100
AcDbArc
 50
197.5
 51
252.5
  0
LINE
  5
DF
330
1F
100
AcDbEntity
  8
0
  6
Continuous
 62
     7
370
    25
100
AcDbLine
 10
239.6056766178
 20
114.9893431176
 30
0.0
 11
249.7639621929
 21
111.7864479786
 31
0.0
  0
ARC
  5
E0
330
1F
100
AcDbEntity
  8
0
  6
Continuous
 62
     7
370
    25
100
AcDbCircle
 10
249.8782303967
 20
112.1488604199
 30
0.0
 40
0.3800000000000157
100
AcDbArc
 50
252.5
 51
17.5
  0
ARC
  5
E1
330
1F
100
AcDbEntity
  8
0
  6
Continuous
 62
     7
370
    25
100
AcDbCircle
 10
246.6753352578
 20
122.307145995
 30
0.0
 40
0.3799999999999971
100
AcDbArc
 50
17.5
 51
72.5
  0
LINE
  5
E2
330
1F
100
AcDbEntity
  8
0
  6
Continuous
 62
     7
370
    25
100
AcDbLine
 10
246.7896034616
 20
122.6695584363
 30
0.0
 11
236.6313178865
 21
125.8724535752
 31
0.0
  0
SPLINE
  5
E3
330
1F
100
AcDbEntity
  8
0
  6
Continuous
 62
     7
370
    25
100
AcDbSpline
210
0.0
220
0.0
230
1.0
 70
     8
 71
     3
 72
    10
 73
     6
 74
     0
 42
0.000000001
 43
0.00000001
 40
0.0
 40
0.0
 40
0.0
 40
0.0
 40
0.351802278580963
 40
0.7034245935032625
 40
1.0
 40
1.0
 40
1.0
 40
1.0
 10
239.3389262514073
 20
115.2299882663478
 30
0.0
 10
239.3565958899175
 20
115.1888142088055
 30
0.0
 10
239.3919261280743
 20
115.1064871562168
 30
0.0
 10
239.4872503543724
 20
115.0164234664729
 30
0.0
 10
239.5633561831651
 20
114.9850785118321
 30
0.0
 10
239.5981775291296
 20
114.9707369886254
 30
0.0
  0
SPLINE
  5
E4
330
1F
100
AcDbEntity
  8
0
  6
Continuous
 62
     7
370
    25
100
AcDbSpline
210
0.0
220
0.0
230
1.0
 70
     8
 71
     3
 72
    10
 73
     6
 74
     0
 42
0.000000001
 43
0.00000001
 40
0.0
 40
0.0
 40
0.0
 40
0.0
 40
0.3518022785809717
 40
0.7034245935032237
 40
1.0
 40
1.0
 40
1.0
 40
1.0
 10
247.056353827981
 20
122.4289132874768
 30
0.0
 10
247.0386841894709
 20
122.470087345019
 30
0.0
 10
247.0033539513141
 20
122.5524143976077
 30
0.0
 10
246.908029725016
 20
122.6424780873516
 30
0.0
 10
246.8319238962233
 20
122.6738230419924
 30
0.0
 10
246.7971025502587
 20
122.6881645651991
 30
0.0
  0
SPLINE
  5
E5
330
1F
100
AcDbEntity
  8
0
  6
Continuous
 62
     7
370
    25
100
AcDbSpline
210
0.0
220
0.0
230
1.0
 70
     8
 71
     3
 72
    14
 73
    10
 74
     0
 42
0.000000001
 43
0.00000001
 40
0.0
 40
0.0
 40
0.0
 40
0.0
 40
0.1588501103507997
 40
0.3173321153185004
 40
0.4720153553660929
 40
0.6236441635915797
 40
0.7746618341644304
 40
0.9277417761107876
 40
1.0
 40
1.0
 40
1.0
 40
1.0
 10
236.6290430821297
 20
125.8941414007497
 30
0.0
 10
236.5839466522936
 20
125.9036726446308
 30
0.0
 10
236.4938582951523
 20
125.9227130455203
 30
0.0
 10
236.3575173783616
 20
125.8922157272322
 30
0.0
 10
236.2415830507242
 20
125.8216536208664
 30
0.0
 10
236.1574203661556
 20
125.7170542616182
 30
0.0
 10
236.1132153099936
 20
125.5915360644845
 30
0.0
 10
236.1109666249696
 20
125.4808316761807
 30
0.0
 10
236.1276118597557
 20
125.4181481819304
 30
0.0
 10
236.1329494158568
 20
125.3980477344767
 30
0.0
  0
SPLINE
  5
E6
330
1F
100
AcDbEntity
  8
0
  6
Continuous
 62
     7
370
    25
100
AcDbSpline
210
0.0
220
0.0
230
1.0
 70
     8
 71
     3
 72
    14
 73
    10
 74
     0
 42
0.000000001
 43
0.00000001
 40
0.0
 40
0.0
 40
0.0
 40
0.0
 40
0.1588501103508137
 40
0.3173321153184862
 40
0.4720153553661143
 40
0.6236441635915847
 40
0.7746618341644393
 40
0.9277417761108029
 40
0.9999999999999999
 40
0.9999999999999999
 40
0.9999999999999999
 40
0.9999999999999999
 10
249.7662369972586
 20
111.7647601530749
 30
0.0
 10
249.8113334270947
 20
111.7552289091937
 30
0.0
 10
249.901421784236
 20
111.7361885083042
 30
0.0
 10
250.0377627010267
 20
111.7666858265923
 30
0.0
 10
250.1536970286641
 20
111.8372479329581
 30
0.0
 10
250.2378597132326
 20
111.9418472922063
 30
0.0
 10
250.2820647693947
 20
112.06736548934
 30
0.0
 10
250.2843134544186
 20
112.1780698776438
 30
0.0
 10
250.2676682196326
 20
112.2407533718941
 30
0.0
 10
250.2623306635315
 20
112.2608538193478
 30
0.0
  0
LINE
  5
E7
330
1F
100
AcDbEntity
  8
0
  6
Continuous
 62
     7
370
    25
100
AcDbLine
 10
249.8782303967
 20
112.1488604199
 30
0.0
 11
249.7639621929
 21
111.7864479786
 31
0.0
  0
LINE
  5
E8
330
1F
100
AcDbEntity
  8
0
  6
Continuous
 62
     7
370
    25
100
AcDbLine
 10
239.7199448216
 20
115.3517555588
 30
0.0
 11
239.6056766178
 21
114.9893431176
 31
0.0
  0
LINE
  5
E9
330
1F
100
AcDbEntity
  8
0
  6
Continuous
 62
     7
370
    25
100
AcDbLine
 10
247.4323116815
 20
115.8492018853
 30
0.0
 11
245.859313897
 21
120.8381134829
 31
0.0
  0
ARC
  5
EA
330
1F
100
AcDbEntity
  8
0
  6
Continuous
 62
     7
370
    25
100
AcDbCircle
 10
246.4785947308
 20
115.5484960858
 30
0.0
 40
1.00000000000003
100
AcDbArc
 50
252.5
 51
17.5
  0
LINE
  5
EB
330
1F
100
AcDbEntity
  8
0
  6
Continuous
 62
     7
370
    25
100
AcDbLine
 10
241.1889773337
 20
116.1677769196
 30
0.0
 11
246.1778889313
 21
114.5947791351
 31
0.0
  0
ARC
  5
EC
330
1F
100
AcDbEntity
  8
0
  6
Continuous
 62
     7
370
    25
100
AcDbCircle
 10
241.4896831332
 20
117.1214938704
 30
0.0
 40
1.000000000000034
100
AcDbArc
 50
197.5
 51
252.5
  0
LINE
  5
ED
330
1F
100
AcDbEntity
  8
0
  6
Continuous
 62
     7
370
    25
100
AcDbLine
 10
238.9629683979
 20
121.8096996685
 30
0.0
 11
240.5359661824
 21
116.8207880709
 31
0.0
  0
ARC
  5
EE
330
1F
100
AcDbEntity
  8
0
  6
Continuous
 62
     7
370
    25
100
AcDbCircle
 10
239.9166853486
 20
122.110405468
 30
0.0
 40
1.000000000295378
100
AcDbArc
 50
72.5
 51
197.5
  0
LINE
  5
EF
330
1F
100
AcDbEntity
  8
0
  6
Continuous
 62
     7
370
    25
100
AcDbLine
 10
245.2063027457
 20
121.4911246342
 30
0.0
 11
240.2173911482
 21
123.064122419
 31
0.0
  0
ARC
  5
F0
330
1F
100
AcDbEntity
  8
0
  6
Continuous
 62
     7
370
    25
100
AcDbCircle
 10
244.9055969462
 20
120.5374076834
 30
0.0
 40
1.00000000000003
100
AcDbArc
 50
17.5
 51
72.5
  0
CIRCLE
  5
F1
330
1F
100
AcDbEntity
  8
0
  6
Continuous
 62
     7
370
    25
100
AcDbCircle
 10
243.1976400397
 20
118.8294507769
 30
0.0
 40
3.050000000000011
  0
LINE
  5
F2
330
1F
100
AcDbEntity
  8
0
  6
Continuous
 62
     7
370
    25
100
AcDbLine
 10
246.6753352578
 20
122.307145995
 30
0.0
 11
246.7896034616
 21
122.6695584363
 31
0.0
  0
LINE
  5
F3
330
1F
100
AcDbEntity
  8
0
  6
Continuous
 62
     7
370
    25
100
AcDbLine
 10
236.5170496827
 20
125.5100411339
 30
0.0
 11
236.6313178865
 21
125.8724535752
 31
0.0
  0
SPLINE
  5
F4
330
1F
100
AcDbEntity
  8
0
  6
Continuous
 62
     7
370
    25
100
AcDbSpline
210
0.0
220
0.0
230
1.0
 70
    24
 71
     3
 72
    11
 73
     7
 74
     0
 42
0.000000001
 43
0.00000001
 40
0.0
 40
0.0
 40
0.0
 40
0.0
 40
0.4125701671612977
 40
0.873153790391088
 40
0.9927012761303188
 40
1.0
 40
1.0
 40
1.0
 40
1.0
 10
248.4587432650897
 20
113.5683475515167
 30
0.0
 10
248.3895665836246
 20
113.6375242329817
 30
0.0
 10
248.2431626833049
 20
113.7839281333012
 30
0.0
 10
248.0793698557099
 20
113.9477209608973
 30
0.0
 10
247.9920668877443
 20
114.0350239288616
 30
0.0
 10
247.9736332750978
 20
114.0534575415086
 30
0.0
 10
247.9725726060479
 20
114.0545182105585
 30
0.0
  0
SPLINE
  5
F5
330
1F
100
AcDbEntity
  8
0
  6
Continuous
 62
     7
370
    25
100
AcDbSpline
210
0.0
220
0.0
230
1.0
 70
    24
 71
     3
 72
    11
 73
     7
 74
     0
 42
0.000000001
 43
0.00000001
 40
0.0
 40
0.0
 40
0.0
 40
0.0
 40
0.0072987238691231
 40
0.1268462096078728
 40
0.5874298328383155
 40
1.0
 40
1.0
 40
1.0
 40
1.0
 10
238.4227074733403
 20
123.6043833432662
 30
0.0
 10
238.4216468042904
 20
123.605444012316
 30
0.0
 10
238.4032131916428
 20
123.623877624963
 30
0.0
 10
238.3159102236808
 20
123.7111805929269
 30
0.0
 10
238.1521173960828
 20
123.8749734205229
 30
0.0
 10
238.0057134957642
 20
124.0213773208429
 30
0.0
 10
237.9365368142996
 20
124.0905540023081
 30
0.0
  0
ARC
  5
F6
330
1F
100
AcDbEntity
  8
0
  6
Continuous
 62
     7
370
    25
100
AcDbCircle
 10
243.1069491924
 20
118.9201416242
 30
0.0
 40
1.675000000000007
100
AcDbArc
 50
321.8568829838
 51
20.456816111
  0
ARC
  5
F7
330
1F
100
AcDbEntity
  8
0
  6
Continuous
 62
     7
370
    25
100
AcDbCircle
 10
243.1069491924
 20
118.9201416242
 30
0.0
 40
1.675000000000006
100
AcDbArc
 50
20.456816111
 51
80.5636578458
  0
ARC
  5
F8
330
1F
100
AcDbEntity
  8
0
  6
Continuous
 62
     7
370
    25
100
AcDbCircle
 10
243.1069491924
 20
118.9201416242
 30
0.0
 40
1.675000000000006
100
AcDbArc
 50
80.5636578458
 51
139.163590973
  0
LINE
  5
F9
330
1F
100
AcDbEntity
  8
0
  6
Continuous
 62
     7
370
    25
100
AcDbLine
 10
241.785768292
 20
119.9497561289
 30
0.0
 11
241.8396782253
 21
120.0154266536
 31
0.0
  0
ARC
  5
FA
330
1F
100
AcDbEntity
  8
0
  6
Continuous
 62
     7
370
    25
100
AcDbCircle
 10
243.1069491924
 20
118.9201416242
 30
0.0
 40
1.674999999999994
100
AcDbArc
 50
142.0702217449
 51
198.5139399112
  0
LINE
  5
FB
330
1F
100
AcDbEntity
  8
0
  6
Continuous
 62
     7
370
    25
100
AcDbLine
 10
241.5607185259
 20
118.276095255
 30
0.0
 11
241.5186364259
 21
118.3882698767
 31
0.0
  0
ARC
  5
FC
330
1F
100
AcDbEntity
  8
0
  6
Continuous
 62
     7
370
    25
100
AcDbCircle
 10
243.1069491924
 20
118.9201416242
 30
0.0
 40
1.674999999999996
100
AcDbArc
 50
202.6130318114
 51
258.4074421454
  0
LINE
  5
FD
330
1F
100
AcDbEntity
  8
0
  6
Continuous
 62
     7
370
    25
100
AcDbLine
 10
242.8885072057
 20
117.2594465593
 30
0.0
 11
242.7703567993
 21
117.2793093473
 31
0.0
  0
ARC
  5
FE
330
1F
100
AcDbEntity
  8
0
  6
Continuous
 62
     7
370
    25
100
AcDbCircle
 10
243.1069491924
 20
118.9201416242
 30
0.0
 40
1.675000000000011
100
AcDbArc
 50
262.5065340457
 51
318.950252212
  0
LINE
  5
FF
330
1F
100
AcDbEntity
  8
0
  6
Continuous
 62
     7
370
    25
100
AcDbLine
 10
244.4242872109
 20
117.885614899
 30
0.0
 11
244.37013313
 21
117.8201455606
 31
0.0
  0
CIRCLE
  5
100
330
1F
100
AcDbEntity
  8
0
  6
Continuous
 62
     7
370
    25
100
AcDbCircle
 10
243.1069491924
 20
118.9201416242
 30
0.0
 40
1.799999999999983
  0
SPLINE
  5
101
330
1F
100
AcDbEntity
  8
0
  6
Continuous
 62
     7
370
    25
100
AcDbSpline
210
0.0
220
0.0
230
1.0
 70
     8
 71
     3
 72
    11
 73
     7
 74
     0
 42
0.000000001
 43
0.00000001
 40
0.0
 40
0.0
 40
0.0
 40
0.0
 40
0.2657596322625371
 40
0.5530029385954568
 40
0.8418208483437971
 40
1.0
 40
1.0
 40
1.0
 40
1.0
 10
242.8885072057335
 20
117.2594465593043
 30
0.0
 10
242.923099753113
 20
117.2630383928362
 30
0.0
 10
242.9950812658485
 20
117.2705124192005
 30
0.0
 10
243.0925295595344
 20
117.3249368511334
 30
0.0
 10
243.1591111331401
 20
117.3948685137489
 30
0.0
 10
243.1841796124002
 20
117.4466385987006
 30
0.0
 10
243.1930506120667
 20
117.4649585135857
 30
0.0
  0
SPLINE
  5
102
330
1F
100
AcDbEntity
  8
0
  6
Continuous
 62
     7
370
    25
100
AcDbSpline
210
0.0
220
0.0
230
1.0
 70
     8
 71
     3
 72
    12
 73
     8
 74
     0
 42
0.000000001
 43
0.00000001
 40
0.0
 40
0.0
 40
0.0
 40
0.0
 40
0.2057904614204293
 40
0.4120344203360454
 40
0.6141302471427738
 40
0.8132633242113028
 40
1.0
 40
1.0
 40
1.0
 40
1.0
 10
243.1930506120667
 20
117.4649585135857
 30
0.0
 10
243.2240955657683
 20
117.5226938134093
 30
0.0
 10
243.2862538864916
 20
117.6382916435106
 30
0.0
 10
243.4457989589521
 20
117.7611956803018
 30
0.0
 10
243.6311325838462
 20
117.8259757442187
 30
0.0
 10
243.8232864927224
 20
117.8300898893768
 30
0.0
 10
243.9376620377058
 20
117.7856978963189
 30
0.0
 10
243.993012603288
 20
117.7642149654752
 30
0.0
  0
SPLINE
  5
103
330
1F
100
AcDbEntity
  8
0
  6
Continuous
 62
     7
370
    25
100
AcDbSpline
210
0.0
220
0.0
230
1.0
 70
     8
 71
     3
 72
    11
 73
     7
 74
     0
 42
0.000000001
 43
0.00000001
 40
0.0
 40
0.0
 40
0.0
 40
0.0
 40
0.280237141101266
 40
0.5612869875923809
 40
0.8399906057823703
 40
0.9999999999999999
 40
0.9999999999999999
 40
0.9999999999999999
 40
0.9999999999999999
 10
243.993012603288
 20
117.7642149654752
 30
0.0
 10
244.0284590402636
 20
117.7508489324251
 30
0.0
 10
244.0994547111186
 20
117.7240781039858
 30
0.0
 10
244.2151933767295
 20
117.7319493215078
 30
0.0
 10
244.3076967082444
 20
117.768112708053
 30
0.0
 10
244.3534469096464
 20
117.806239708545
 30
0.0
 10
244.3701331300334
 20
117.8201455606157
 30
0.0
  0
SPLINE
  5
104
330
1F
100
AcDbEntity
  8
0
  6
Continuous
 62
     7
370
    25
100
AcDbSpline
210
0.0
220
0.0
230
1.0
 70
     8
 71
     3
 72
    11
 73
     7
 74
     0
 42
0.000000001
 43
0.00000001
 40
0.0
 40
0.0
 40
0.0
 40
0.0
 40
0.2669010467950119
 40
0.554614341079255
 40
0.843907043978589
 40
1.0
 40
1.0
 40
1.0
 40
1.0
 10
241.5607185258528
 20
118.2760952549519
 30
0.0
 10
241.5812398186308
 20
118.2478996934403
 30
0.0
 10
241.6238826010734
 20
118.1893099540709
 30
0.0
 10
241.7199785877207
 20
118.1323371321013
 30
0.0
 10
241.8135900290472
 20
118.1099766856309
 30
0.0
 10
241.8706516485679
 20
118.1141730208732
 30
0.0
 10
241.8906498606521
 20
118.1156436977108
 30
0.0
  0
SPLINE
  5
105
330
1F
100
AcDbEntity
  8
0
  6
Continuous
 62
     7
370
    25
100
AcDbSpline
210
0.0
220
0.0
230
1.0
 70
     8
 71
     3
 72
    12
 73
     8
 74
     0
 42
0.000000001
 43
0.00000001
 40
0.0
 40
0.0
 40
0.0
 40
0.0
 40
0.2058401281337915
 40
0.412061993550971
 40
0.6141387330969036
 40
0.813277211352431
 40
1.0
 40
1.0
 40
1.0
 40
1.0
 10
241.8906498606521
 20
118.1156436977108
 30
0.0
 10
241.9561903708301
 20
118.1176246102073
 30
0.0
 10
242.0873929382165
 20
118.1215901088676
 30
0.0
 10
242.2736046610206
 20
118.0448542787721
 30
0.0
 10
242.4223562150018
 20
117.9167421956542
 30
0.0
 10
242.5219838802841
 20
117.7523983786463
 30
0.0
 10
242.5407253358711
 20
117.6311554103176
 30
0.0
 10
242.5497945458455
 20
117.572484517196
 30
0.0
  0
SPLINE
  5
106
330
1F
100
AcDbEntity
  8
0
  6
Continuous
 62
     7
370
    25
100
AcDbSpline
210
0.0
220
0.0
230
1.0
 70
     8
 71
     3
 72
    11
 73
     7
 74
     0
 42
0.000000001
 43
0.00000001
 40
0.0
 40
0.0
 40
0.0
 40
0.0
 40
0.2928993220619732
 40
0.586434471907879
 40
0.8775178868032983
 40
1.0
 40
1.0
 40
1.0
 40
1.0
 10
242.5497945458455
 20
117.572484517196
 30
0.0
 10
242.5559506397044
 20
117.5350809129484
 30
0.0
 10
242.5682761911114
 20
117.4601925084619
 30
0.0
 10
242.6329911560984
 20
117.3638134771101
 30
0.0
 10
242.7060132550056
 20
117.3057089582406
 30
0.0
 10
242.7556548723221
 20
117.2853414233251
 30
0.0
 10
242.7703567992923
 20
117.2793093472753
 30
0.0
  0
SPLINE
  5
107
330
1F
100
AcDbEntity
  8
0
  6
Continuous
 62
     7
370
    25
100
AcDbSpline
210
0.0
220
0.0
230
1.0
 70
     8
 71
     3
 72
    11
 73
     7
 74
     0
 42
0.000000001
 43
0.00000001
 40
0.0
 40
0.0
 40
0.0
 40
0.0
 40
0.2431090893442463
 40
0.5182793655621907
 40
0.7947794085751579
 40
0.9999999999999999
 40
0.9999999999999999
 40
0.9999999999999999
 40
0.9999999999999999
 10
241.7857682919872
 20
119.9497561288516
 30
0.0
 10
241.770632262471
 20
119.9202540444242
 30
0.0
 10
241.7383640663457
 20
119.8573591455084
 30
0.0
 10
241.7297503647353
 20
119.7478336026036
 30
0.0
 10
241.7524450659631
 20
119.646299272783
 30
0.0
 10
241.7878684596155
 20
119.5920215799924
 30
0.0
 10
241.8029593842633
 20
119.5688984264064
 30
0.0
  0
SPLINE
  5
108
330
1F
100
AcDbEntity
  8
0
  6
Continuous
 62
     7
370
    25
100
AcDbSpline
210
0.0
220
0.0
230
1.0
 70
     8
 71
     3
 72
    12
 73
     8
 74
     0
 42
0.000000001
 43
0.00000001
 40
0.0
 40
0.0
 40
0.0
 40
0.0
 40
0.2058179564999103
 40
0.4120215045907692
 40
0.6140779969167875
 40
0.8132130006453708
 40
0.9999999999999999
 40
0.9999999999999999
 40
0.9999999999999999
 40
0.9999999999999999
 10
241.8029593842633
 20
119.5688984264064
 30
0.0
 10
241.837442595452
 20
119.5131344131749
 30
0.0
 10
241.9064736207263
 20
119.4015019150957
 30
0.0
 10
241.933130303855
 20
119.2018863676907
 30
0.0
 10
241.8965727275882
 20
119.009019298644
 30
0.0
 10
241.8040721911913
 20
118.8405513028046
 30
0.0
 10
241.7084320785746
 20
118.7636858314772
 30
0.0
 10
241.6621420782355
 20
118.726482794002
 30
0.0
  0
SPLINE
  5
109
330
1F
100
AcDbEntity
  8
0
  6
Continuous
 62
     7
370
    25
100
AcDbSpline
210
0.0
220
0.0
230
1.0
 70
     8
 71
     3
 72
    11
 73
     7
 74
     0
 42
0.000000001
 43
0.00000001
 40
0.0
 40
0.0
 40
0.0
 40
0.0
 40
0.2908641666076988
 40
0.58395607898926
 40
0.8745988053617599
 40
0.9999999999999999
 40
0.9999999999999999
 40
0.9999999999999999
 40
0.9999999999999999
 10
241.6621420782355
 20
118.726482794002
 30
0.0
 10
241.6329754341117
 20
118.7025956059589
 30
0.0
 10
241.5744187568199
 20
118.6546382764934
 30
0.0
 10
241.5232138357279
 20
118.5506861046695
 30
0.0
 10
241.5091605390714
 20
118.4579993982991
 30
0.0
 10
241.5164417666928
 20
118.4044195565876
 30
0.0
 10
241.5186364259488
 20
118.3882698766624
 30
0.0
  0
SPLINE
  5
10A
330
1F
100
AcDbEntity
  8
0
  6
Continuous
 62
     7
370
    25
100
AcDbSpline
210
0.0
220
0.0
230
1.0
 70
     8
 71
     3
 72
    12
 73
     8
 74
     0
 42
0.000000001
 43
0.00000001
 40
0.0
 40
0.0
 40
0.0
 40
0.0
 40
0.2058585741213723
 40
0.4121026961456956
 40
0.6141937841967432
 40
0.8133180967416256
 40
1.0
 40
1.0
 40
1.0
 40
1.0
 10
244.4077608870925
 20
118.2675280581561
 30
0.0
 10
244.3732732750796
 20
118.3233011435054
 30
0.0
 10
244.3042334599791
 20
118.4349517703639
 30
0.0
 10
244.2775876549597
 20
118.634598533867
 30
0.0
 10
244.3141737017925
 20
118.8274849681407
 30
0.0
 10
244.4066934458143
 20
118.9959221377733
 30
0.0
 10
244.5023111811275
 20
119.0727625512878
 30
0.0
 10
244.5485781931204
 20
119.1099436905604
 30
0.0
  0
SPLINE
  5
10B
330
1F
100
AcDbEntity
  8
0
  6
Continuous
 62
     7
370
    25
100
AcDbSpline
210
0.0
220
0.0
230
1.0
 70
     8
 71
     3
 72
    11
 73
     7
 74
     0
 42
0.000000001
 43
0.00000001
 40
0.0
 40
0.0
 40
0.0
 40
0.0
 40
0.2524782265335695
 40
0.5068902417933415
 40
0.7591786113116803
 40
1.0
 40
1.0
 40
1.0
 40
1.0
 10
244.5485781931204
 20
119.1099436905605
 30
0.0
 10
244.5777559413889
 20
119.1338360810981
 30
0.0
 10
244.6363349170014
 20
119.18180385948
 30
0.0
 10
244.6873527917906
 20
119.2856519072582
 30
0.0
 10
244.7051183200773
 20
119.3985674246279
 30
0.0
 10
244.6857672962979
 20
119.4704505551267
 30
0.0
 10
244.6763167828138
 20
119.5055563201657
 30
0.0
  0
SPLINE
  5
10C
330
1F
100
AcDbEntity
  8
0
  6
Continuous
 62
     7
370
    25
100
AcDbSpline
210
0.0
220
0.0
230
1.0
 70
     8
 71
     3
 72
    11
 73
     7
 74
     0
 42
0.000000001
 43
0.00000001
 40
0.0
 40
0.0
 40
0.0
 40
0.0
 40
0.2423611237745397
 40
0.516684792845866
 40
0.7923341374633012
 40
1.0
 40
1.0
 40
1.0
 40
1.0
 10
244.4242872108848
 20
117.8856148989531
 30
0.0
 10
244.4395331163509
 20
117.915060591942
 30
0.0
 10
244.4720355547983
 20
117.9778352710872
 30
0.0
 10
244.4810546961106
 20
118.0873249585914
 30
0.0
 10
244.4586555209177
 20
118.1893682764451
 30
0.0
 10
244.4230566433663
 20
118.2440380970028
 30
0.0
 10
244.4077608870925
 20
118.2675280581561
 30
0.0
  0
SPLINE
  5
10D
330
1F
100
AcDbEntity
  8
0
  6
Continuous
 62
     7
370
    25
100
AcDbSpline
210
0.0
220
0.0
230
1.0
 70
     8
 71
     3
 72
    12
 73
     8
 74
     0
 42
0.000000001
 43
0.00000001
 40
0.0
 40
0.0
 40
0.0
 40
0.0
 40
0.009173520519017
 40
0.2576775215524945
 40
0.5061895192299061
 40
0.7560357430218813
 40
1.0
 40
1.0
 40
1.0
 40
1.0
 10
243.3815682940411
 20
120.572476139034
 30
0.0
 10
243.3802143805793
 20
120.5726955743295
 30
0.0
 10
243.3421839358327
 20
120.5788593522356
 30
0.0
 10
243.2646952651433
 20
120.5776910963475
 30
0.0
 10
243.1586555467907
 20
120.5386824554997
 30
0.0
 10
243.0695315386777
 20
120.4685079975122
 30
0.0
 10
243.0348191281218
 20
120.4035567600875
 30
0.0
 10
243.0176696592892
 20
120.3714679709768
 30
0.0
  0
SPLINE
  5
10E
330
1F
100
AcDbEntity
  8
0
  6
Continuous
 62
     7
370
    25
100
AcDbSpline
210
0.0
220
0.0
230
1.0
 70
     8
 71
     3
 72
    12
 73
     8
 74
     0
 42
0.000000001
 43
0.00000001
 40
0.0
 40
0.0
 40
0.0
 40
0.0
 40
0.2057532787804327
 40
0.4119604088044778
 40
0.6140154573248878
 40
0.8131414684040967
 40
1.0
 40
1.0
 40
1.0
 40
1.0
 10
243.0176696592892
 20
120.3714679709768
 30
0.0
 10
242.9866299935444
 20
120.3137404413494
 30
0.0
 10
242.9244821946604
 20
120.198158046524
 30
0.0
 10
242.7649683343474
 20
120.0752605653854
 30
0.0
 10
242.5796692069945
 20
120.0104683345998
 30
0.0
 10
242.3875014788067
 20
120.0063203856851
 30
0.0
 10
242.2730935557111
 20
120.0507181625543
 30
0.0
 10
242.2177076680679
 20
120.0722115190872
 30
0.0
  0
SPLINE
  5
10F
330
1F
100
AcDbEntity
  8
0
  6
Continuous
 62
     7
370
    25
100
AcDbSpline
210
0.0
220
0.0
230
1.0
 70
     8
 71
     3
 72
    11
 73
     7
 74
     0
 42
0.000000001
 43
0.00000001
 40
0.0
 40
0.0
 40
0.0
 40
0.0
 40
0.2794069064556253
 40
0.5596240257156082
 40
0.8375007392219425
 40
0.9999999999999999
 40
0.9999999999999999
 40
0.9999999999999999
 40
0.9999999999999999
 10
242.2177076680679
 20
120.0722115190872
 30
0.0
 10
242.1822580539698
 20
120.0855785132893
 30
0.0
 10
242.1112560304218
 20
120.1123512627607
 30
0.0
 10
241.9955126146363
 20
120.1044719997903
 30
0.0
 10
241.9026087357078
 20
120.0681592928836
 30
0.0
 10
241.8566405432432
 20
120.0296402328341
 30
0.0
 10
241.8396782252899
 20
120.015426653644
 30
0.0
  0
CIRCLE
  5
110
330
1F
100
AcDbEntity
  8
0
  6
Continuous
 62
     7
370
    25
100
AcDbCircle
 10
243.1069491924
 20
118.9201416242
 30
0.0
 40
2.625
  0
SPLINE
  5
111
330
1F
100
AcDbEntity
  8
0
  6
Continuous
 62
     7
370
    25
100
AcDbSpline
210
0.0
220
0.0
230
1.0
 70
     8
 71
     3
 72
    12
 73
     8
 74
     0
 42
0.000000001
 43
0.00000001
 40
0.0
 40
0.0
 40
0.0
 40
0.0
 40
0.2058435564095356
 40
0.4120691620553177
 40
0.6141397217727244
 40
0.8132604579561246
 40
1.0
 40
1.0
 40
1.0
 40
1.0
 10
244.3200704107038
 20
119.7207827868517
 30
0.0
 10
244.2545292177537
 20
119.7188019040957
 30
0.0
 10
244.1233251862546
 20
119.7148364620307
 30
0.0
 10
243.9371131513711
 20
119.7915735616524
 30
0.0
 10
243.7883657679111
 20
119.9196840216212
 30
0.0
 10
243.6887382171805
 20
120.0840241341017
 30
0.0
 10
243.6699960950315
 20
120.2052661302461
 30
0.0
 10
243.6609257255104
 20
120.2639419673664
 30
0.0
  0
SPLINE
  5
112
330
1F
100
AcDbEntity
  8
0
  6
Continuous
 62
     7
370
    25
100
AcDbSpline
210
0.0
220
0.0
230
1.0
 70
     8
 71
     3
 72
    11
 73
     7
 74
     0
 42
0.000000001
 43
0.00000001
 40
0.0
 40
0.0
 40
0.0
 40
0.0
 40
0.2535086227483273
 40
0.5075674742604802
 40
0.7595056251924256
 40
0.9999999999999999
 40
0.9999999999999999
 40
0.9999999999999999
 40
0.9999999999999999
 10
243.6609257255104
 20
120.2639419673664
 30
0.0
 10
243.6547699511478
 20
120.3013611920136
 30
0.0
 10
243.6424450415984
 20
120.3762808580077
 30
0.0
 10
243.577717027715
 20
120.4724448728719
 30
0.0
 10
243.4886796698403
 20
120.5441232455926
 30
0.0
 10
243.4167146140061
 20
120.5631727400496
 30
0.0
 10
243.3815682940411
 20
120.572476139034
 30
0.0
  0
SPLINE
  5
113
330
1F
100
AcDbEntity
  8
0
  6
Continuous
 62
     7
370
    25
100
AcDbSpline
210
0.0
220
0.0
230
1.0
 70
     8
 71
     3
 72
    12
 73
     8
 74
     0
 42
0.000000001
 43
0.00000001
 40
0.0
 40
0.0
 40
0.0
 40
0.0
 40
0.0091681771491558
 40
0.2573268097002557
 40
0.5054934687430241
 40
0.7549925359453071
 40
1.0
 40
1.0
 40
1.0
 40
1.0
 10
244.6763167828138
 20
119.5055563201657
 30
0.0
 10
244.6758318587807
 20
119.5068405025359
 30
0.0
 10
244.6622213065021
 20
119.5428841508012
 30
0.0
 10
244.622587877319
 20
119.6094820844544
 30
0.0
 10
244.5359205984405
 20
119.6819702060487
 30
0.0
 10
244.4304650954209
 20
119.7243464476305
 30
0.0
 10
244.3566451366983
 20
119.7219634588818
 30
0.0
 10
244.3200704107038
 20
119.7207827868517
 30
0.0
  0
SPLINE
  5
114
330
1F
100
AcDbEntity
  8
0
  6
HIDDEN
 62
     7
370
    18
100
AcDbSpline
210
0.0
220
0.0
230
1.0
 70
     8
 71
     3
 72
    12
 73
     8
 74
     0
 42
0.000000001
 43
0.00000001
 40
0.0
 40
0.0
 40
0.0
 40
0.0
 40
0.5000000000000019
 40
0.5000000000000019
 40
0.7500000000000009
 40
0.7500000000000009
 40
1.0
 40
1.0
 40
1.0
 40
1.0
 10
195.3729745083469
 20
186.6496028800504
 30
0.0
 10
195.403696750266
 20
186.6869048630034
 30
0.0
 10
195.4465339648011
 20
186.7235166950498
 30
0.0
 10
195.5459609890009
 20
186.771281478335
 30
0.0
 10
195.5857131838176
 20
186.7862389938174
 30
0.0
 10
195.6837546406758
 20
186.8094289395865
 30
0.0
 10
195.7433106962633
 20
186.8173523788062
 30
0.0
 10
195.8059872102392
 20
186.8173523788062
 30
0.0
  0
LINE
  5
115
330
1F
100
AcDbEntity
  8
0
  6
HIDDEN
 62
     7
370
    18
100
AcDbLine
 10
195.8059872102
 20
186.8173523788
 30
0.0
 11
198.7504735831
 21
186.8173523788
 31
0.0
  0
SPLINE
  5
116
330
1F
100
AcDbEntity
  8
0
  6
HIDDEN
 62
     7
370
    18
100
AcDbSpline
210
0.0
220
0.0
230
1.0
 70
     8
 71
     3
 72
    12
 73
     8
 74
     0
 42
0.000000001
 43
0.00000001
 40
0.0
 40
0.0
 40
0.0
 40
0.0
 40
0.2500000000000014
 40
0.2500000000000014
 40
0.5000000000000028
 40
0.5000000000000028
 40
1.0
 40
1.0
 40
1.0
 40
1.0
 10
198.7504735831062
 20
186.8173523788062
 30
0.0
 10
198.8135536215996
 20
186.8173523788062
 30
0.0
 10
198.872702243781
 20
186.8094464525938
 30
0.0
 10
198.9711747938501
 20
186.7861212911576
 30
0.0
 10
199.0102114058348
 20
186.7714085013259
 30
0.0
 10
199.1101078726138
 20
186.7234527005949
 30
0.0
 10
199.1525287536805
 20
186.6871905440149
 30
0.0
 10
199.1834862849985
 20
186.6496028800504
 30
0.0
  0
ELLIPSE
  5
117
330
1F
100
AcDbEntity
  8
0
  6
HIDDEN
 62
     7
370
    18
100
AcDbEllipse
 10
182.9310762073
 20
156.7488604199
 30
0.0
 11
14.75368316065624
 21
31.09325491558118
 31
0.0
210
0.0
220
0.0
230
1.0
 40
0.3419987131
 41
5.19328173740864
 42
6.124043104552343
  0
SPLINE
  5
118
330
1F
100
AcDbEntity
  8
0
  6
HIDDEN
 62
     7
370
    18
100
AcDbSpline
210
0.0
220
0.0
230
1.0
 70
     8
 71
     3
 72
    12
 73
     8
 74
     0
 42
0.000000001
 43
0.00000001
 40
0.0
 40
0.0
 40
0.0
 40
0.0
 40
0.4999999999999971
 40
0.4999999999999971
 40
0.7499999999999986
 40
0.7499999999999986
 40
1.0
 40
1.0
 40
1.0
 40
1.0
 10
199.1834862849985
 20
166.6582297406187
 30
0.0
 10
199.1527640430793
 20
166.5456739412095
 30
0.0
 10
199.1099268285442
 20
166.4329160814699
 30
0.0
 10
199.0104998043444
 20
166.2833751956736
 30
0.0
 10
198.9707476095278
 20
166.2360824639667
 30
0.0
 10
198.8727061526696
 20
166.1623461706452
 30
0.0
 10
198.8131500970821
 20
166.1369268512695
 30
0.0
 10
198.7504735831062
 20
166.1369268512695
 30
0.0
  0
LINE
  5
119
330
1F
100
AcDbEntity
  8
0
  6
HIDDEN
 62
     7
370
    18
100
AcDbLine
 10
198.7504735831
 20
166.1369268513
 30
0.0
 11
195.8059872102
 21
166.1369268513
 31
0.0
  0
SPLINE
  5
11A
330
1F
100
AcDbEntity
  8
0
  6
HIDDEN
 62
     7
370
    18
100
AcDbSpline
210
0.0
220
0.0
230
1.0
 70
     8
 71
     3
 72
    12
 73
     8
 74
     0
 42
0.000000001
 43
0.00000001
 40
0.0
 40
0.0
 40
0.0
 40
0.0
 40
0.2500000000000009
 40
0.2500000000000009
 40
0.5000000000000019
 40
0.5000000000000019
 40
1.0
 40
1.0
 40
1.0
 40
1.0
 10
195.8059872102392
 20
166.1369268512695
 30
0.0
 10
195.7429071717458
 20
166.1369268512695
 30
0.0
 10
195.6837585495644
 20
166.1622911704845
 30
0.0
 10
195.5852859994953
 20
166.2364560308574
 30
0.0
 10
195.5462493875106
 20
166.2829763714115
 30
0.0
 10
195.4463529207315
 20
166.4331187142568
 30
0.0
 10
195.4039320396649
 20
166.5448119212289
 30
0.0
 10
195.3729745083469
 20
166.6582297406187
 30
0.0
  0
ELLIPSE
  5
11B
330
1F
100
AcDbEntity
  8
0
  6
HIDDEN
 62
     7
370
    18
100
AcDbEllipse
 10
211.625384586
 20
156.7488604199
 30
0.0
 11
-14.75368316065626
 21
31.09325491558118
 31
0.0
210
0.0
220
0.0
230
1.0
 40
0.3419987131
 41
0.1591422026272845
 42
1.089903569770958
  0
SPLINE
  5
11C
330
1F
100
AcDbEntity
  8
0
  6
HIDDEN
 62
     7
370
    18
100
AcDbSpline
210
0.0
220
0.0
230
1.0
 70
     8
 71
     3
 72
    12
 73
     8
 74
     0
 42
0.000000001
 43
0.00000001
 40
0.0
 40
0.0
 40
0.0
 40
0.0
 40
0.4999999999999936
 40
0.4999999999999936
 40
0.7499999999999968
 40
0.7499999999999968
 40
1.0
 40
1.0
 40
1.0
 40
1.0
 10
195.3729745083469
 20
146.8394910992478
 30
0.0
 10
195.403696750266
 20
146.952046898657
 30
0.0
 10
195.4465339648011
 20
147.0648047583966
 30
0.0
 10
195.5459609890009
 20
147.2143456441929
 30
0.0
 10
195.5857131838176
 20
147.2616383758998
 30
0.0
 10
195.6837546406758
 20
147.3353746692213
 30
0.0
 10
195.7433106962633
 20
147.360793988597
 30
0.0
 10
195.8059872102392
 20
147.360793988597
 30
0.0
  0
LINE
  5
11D
330
1F
100
AcDbEntity
  8
0
  6
HIDDEN
 62
     7
370
    18
100
AcDbLine
 10
195.8059872102
 20
147.3607939886
 30
0.0
 11
198.7504735831
 21
147.3607939886
 31
0.0
  0
SPLINE
  5
11E
330
1F
100
AcDbEntity
  8
0
  6
HIDDEN
 62
     7
370
    18
100
AcDbSpline
210
0.0
220
0.0
230
1.0
 70
     8
 71
     3
 72
    12
 73
     8
 74
     0
 42
0.000000001
 43
0.00000001
 40
0.0
 40
0.0
 40
0.0
 40
0.0
 40
0.2499999999999977
 40
0.2499999999999977
 40
0.4999999999999954
 40
0.4999999999999954
 40
1.0
 40
1.0
 40
1.0
 40
1.0
 10
198.7504735831062
 20
147.360793988597
 30
0.0
 10
198.8135536215996
 20
147.360793988597
 30
0.0
 10
198.872702243781
 20
147.3354296693821
 30
0.0
 10
198.9711747938501
 20
147.2612648090091
 30
0.0
 10
199.0102114058348
 20
147.214744468455
 30
0.0
 10
199.1101078726138
 20
147.0646021256097
 30
0.0
 10
199.1525287536805
 20
146.9529089186376
 30
0.0
 10
199.1834862849985
 20
146.8394910992478
 30
0.0
  0
ELLIPSE
  5
11F
330
1F
100
AcDbEntity
  8
0
  6
HIDDEN
 62
     7
370
    18
100
AcDbEllipse
 10
182.9310762073
 20
156.7488604199
 30
0.0
 11
-14.75368316065612
 21
31.09325491558118
 31
0.0
210
0.0
220
0.0
230
1.0
 40
0.3419987131
 41
3.300734856217128
 42
4.231496223360779
  0
SPLINE
  5
120
330
1F
100
AcDbEntity
  8
0
  6
HIDDEN
 62
     7
370
    18
100
AcDbSpline
210
0.0
220
0.0
230
1.0
 70
     8
 71
     3
 72
    12
 73
     8
 74
     0
 42
0.000000001
 43
0.00000001
 40
0.0
 40
0.0
 40
0.0
 40
0.0
 40
0.5000000000000028
 40
0.5000000000000028
 40
0.7500000000000013
 40
0.7500000000000013
 40
1.0
 40
1.0
 40
1.0
 40
1.0
 10
199.1834862849985
 20
126.8481179598158
 30
0.0
 10
199.1527640430794
 20
126.8108159768628
 30
0.0
 10
199.1099268285442
 20
126.7742041448164
 30
0.0
 10
199.0104998043444
 20
126.7264393615312
 30
0.0
 10
198.9707476095278
 20
126.7114818460488
 30
0.0
 10
198.8727061526696
 20
126.6882919002797
 30
0.0
 10
198.8131500970821
 20
126.68036846106
 30
0.0
 10
198.7504735831062
 20
126.68036846106
 30
0.0
  0
LINE
  5
121
330
1F
100
AcDbEntity
  8
0
  6
HIDDEN
 62
     7
370
    18
100
AcDbLine
 10
198.7504735831
 20
126.6803684611
 30
0.0
 11
195.8059872102
 21
126.6803684611
 31
0.0
  0
SPLINE
  5
122
330
1F
100
AcDbEntity
  8
0
  6
HIDDEN
 62
     7
370
    18
100
AcDbSpline
210
0.0
220
0.0
230
1.0
 70
     8
 71
     3
 72
    12
 73
     8
 74
     0
 42
0.000000001
 43
0.00000001
 40
0.0
 40
0.0
 40
0.0
 40
0.0
 40
0.2500000000000032
 40
0.2500000000000032
 40
0.5000000000000064
 40
0.5000000000000064
 40
1.0
 40
1.0
 40
1.0
 40
1.0
 10
195.8059872102392
 20
126.68036846106
 30
0.0
 10
195.7429071717458
 20
126.68036846106
 30
0.0
 10
195.6837585495643
 20
126.6882743872724
 30
0.0
 10
195.5852859994953
 20
126.7115995487086
 30
0.0
 10
195.5462493875106
 20
126.7263123385403
 30
0.0
 10
195.4463529207315
 20
126.7742681392713
 30
0.0
 10
195.4039320396649
 20
126.8105302958513
 30
0.0
 10
195.3729745083469
 20
126.8481179598158
 30
0.0
  0
ELLIPSE
  5
123
330
1F
100
AcDbEntity
  8
0
  6
HIDDEN
 62
     7
370
    18
100
AcDbEllipse
 10
211.625384586
 20
156.7488604199
 30
0.0
 11
14.75368316065612
 21
31.09325491558118
 31
0.0
210
0.0
220
0.0
230
1.0
 40
0.3419987131
 41
2.051689083818818
 42
2.982450450962491
  0
SPLINE
  5
124
330
1F
100
AcDbEntity
  8
0
  6
HIDDEN
 62
     7
370
    18
100
AcDbSpline
210
0.0
220
0.0
230
1.0
 70
    11
 71
     3
 72
    60
 73
    56
 74
     0
 42
0.000000001
 43
0.00000001
 40
0.0
 40
0.0
 40
0.0
 40
0.0
 40
0.03125
 40
0.03125
 40
0.0625
 40
0.0625
 40
0.0937500000000001
 40
0.0937500000000001
 40
0.1250000000000001
 40
0.1250000000000001
 40
0.1875000000000001
 40
0.1875000000000001
 40
0.2500000000000001
 40
0.2500000000000001
 40
0.2812500000000001
 40
0.2812500000000001
 40
0.3125000000000001
 40
0.3125000000000001
 40
0.3437500000000001
 40
0.3437500000000001
 40
0.3750000000000001
 40
0.3750000000000001
 40
0.4062500000000001
 40
0.4062500000000001
 40
0.4375000000000001
 40
0.4375000000000001
 40
0.4687500000000001
 40
0.4687500000000001
 40
0.5000000000000001
 40
0.5000000000000001
 40
0.5625000000000001
 40
0.5625000000000001
 40
0.6250000000000001
 40
0.6250000000000001
 40
0.6562500000000001
 40
0.6562500000000001
 40
0.6875000000000001
 40
0.6875000000000001
 40
0.7187500000000001
 40
0.7187500000000001
 40
0.7500000000000002
 40
0.7500000000000002
 40
0.7812500000000002
 40
0.7812500000000002
 40
0.8125000000000002
 40
0.8125000000000002
 40
0.8437500000000002
 40
0.8437500000000002
 40
0.8750000000000002
 40
0.8750000000000002
 40
0.9062500000000002
 40
0.9062500000000002
 40
0.9375000000000002
 40
0.9375000000000002
 40
1.0
 40
1.0
 40
1.0
 40
1.0
 10
199.2782303966727
 20
156.7488604199331
 30
0.0
 10
199.2782303966727
 20
156.8810256824764
 30
0.0
 10
199.2652585381839
 20
157.0109757434805
 30
0.0
 10
199.2144383684915
 20
157.2666286768406
 30
0.0
 10
199.1759710450246
 20
157.3936581833899
 30
0.0
 10
199.0755728089525
 20
157.6358463145144
 30
0.0
 10
199.0141397779793
 20
157.7507078070673
 30
0.0
 10
198.8690049464344
 20
157.9680880028915
 30
0.0
 10
198.7845498290265
 20
158.0709855700901
 30
0.0
 10
198.5078303786682
 20
158.3476526090978
 30
0.0
 10
198.2847534867501
 20
158.4966506995779
 30
0.0
 10
197.8034701245298
 20
158.6961618400425
 30
0.0
 10
197.5402397055388
 20
158.7487199430392
 30
0.0
 10
197.1488375038509
 20
158.7489302254173
 30
0.0
 10
197.016314475742
 20
158.7359444546902
 30
0.0
 10
196.759784022501
 20
158.6849173064764
 30
0.0
 10
196.6350971882044
 20
158.647162107326
 30
0.0
 10
196.3929179259688
 20
158.5470237744173
 30
0.0
 10
196.2758243938187
 20
158.4844181070057
 30
0.0
 10
196.0591093904633
 20
158.3396848137407
 30
0.0
 10
195.9580905636006
 20
158.2570574664612
 30
0.0
 10
195.7713056761484
 20
158.0704524132096
 30
0.0
 10
195.6884487949523
 20
157.9693373493334
 30
0.0
 10
195.5435645298784
 20
157.7528045453436
 30
0.0
 10
195.4809270220575
 20
157.6359343377425
 30
0.0
 10
195.3804781986577
 20
157.3936364670923
 30
0.0
 10
195.3426270976405
 20
157.2689724686313
 30
0.0
 10
195.2914055323841
 20
157.0126854245675
 30
0.0
 10
195.2782774057669
 20
156.8801134288219
 30
0.0
 10
195.2781367654267
 20
156.4885092360479
 30
0.0
 10
195.3304615147985
 20
156.225343904724
 30
0.0
 10
195.5295725768558
 20
155.7438385355508
 30
0.0
 10
195.6784349133131
 20
155.5205869960667
 30
0.0
 10
195.9547558726385
 20
155.2437306971779
 30
0.0
 10
196.0575195210121
 20
155.1592172503342
 30
0.0
 10
196.2749030783916
 20
155.0137999768939
 30
0.0
 10
196.389701846348
 20
154.9522887778355
 30
0.0
 10
196.631578569772
 20
154.8517589295807
 30
0.0
 10
196.7587321777723
 20
154.8131139063627
 30
0.0
 10
197.0143981872048
 20
154.7620575788117
 30
0.0
 10
197.1442642249609
 20
154.748992720266
 30
0.0
 10
197.4082167516925
 20
154.7487300994681
 30
0.0
 10
197.5386210751165
 20
154.7616070997121
 30
0.0
 10
197.7942718384959
 20
154.812193103518
 30
0.0
 10
197.9211373876103
 20
154.8504694681398
 30
0.0
 10
198.1636578455562
 20
154.9507403356198
 30
0.0
 10
198.2785844842165
 20
155.0120963597607
 30
0.0
 10
198.4959559530485
 20
155.1569426549335
 30
0.0
 10
198.5989697657107
 20
155.2413201694281
 30
0.0
 10
198.7836703112927
 20
155.4257274896164
 30
0.0
 10
198.8665000455493
 20
155.5263005528859
 30
0.0
 10
199.0127524841468
 20
155.7445266934648
 30
0.0
 10
199.0751209649392
 20
155.8610818033861
 30
0.0
 10
199.2250771165059
 20
156.2219313974199
 30
0.0
 10
199.2782303966727
 20
156.4845298948463
 30
0.0
 10
199.2782303966727
 20
156.7488604199331
 30
0.0
  0
LINE
  5
125
330
1F
100
AcDbEntity
  8
0
  6
HIDDEN
 62
     7
370
    18
100
AcDbLine
 10
185.2782303967
 20
187.7488604152
 30
0.0
 11
185.2782303967
 21
125.7488604199
 31
0.0
  0
LWPOLYLINE
  5
126
330
1F
100
AcDbEntity
  8
0
  6
HIDDEN
 62
     7
370
    18
100
AcDbPolyline
 90
       29
 70
   128
 43
0.0
 10
206.2782303967
 20
147.0969366313
 10
206.9457931985
 20
147.0317974364
 10
207.579881614
 20
146.8396462028
 10
208.1486998022
 20
146.5301181958
 10
208.6237248441
 20
146.1187344422
 10
208.9811370004
 20
145.626123441
 10
209.2030141332
 20
145.076986765
 10
209.2782303967
 20
144.4988604199
 10
209.2030141332
 20
143.9207340749
 10
208.9811370004
 20
143.3715973988
 10
208.6237248441
 20
142.8789863977
 10
208.1486998022
 20
142.467602644
 10
207.579881614
 20
142.1580746371
 10
206.9457931985
 20
141.9659234035
 10
206.2782303967
 20
141.9007842086
 10
205.6106675948
 20
141.9659234035
 10
204.9765791793
 20
142.1580746371
 10
204.4077609911
 20
142.467602644
 10
203.9327359493
 20
142.8789863977
 10
203.575323793
 20
143.3715973988
 10
203.3534466601
 20
143.9207340749
 10
203.2782303967
 20
144.4988604199
 10
203.3534466601
 20
145.076986765
 10
203.575323793
 20
145.626123441
 10
203.9327359493
 20
146.1187344422
 10
204.4077609911
 20
146.5301181958
 10
204.9765791793
 20
146.8396462028
 10
205.6106675948
 20
147.0317974364
 10
206.2782303967
 20
147.0969366313
  0
LINE
  5
127
330
1F
100
AcDbEntity
  8
0
  6
HIDDEN
 62
     7
370
    18
100
AcDbLine
 10
185.2782303967
 20
132.4988604199
 30
0.0
 11
185.2782303967
 21
180.9988604199
 31
0.0
  0
SPLINE
  5
128
330
1F
100
AcDbEntity
  8
0
  6
HIDDEN
 62
     7
370
    18
100
AcDbSpline
210
0.0
220
0.0
230
1.0
 70
     8
 71
     3
 72
    12
 73
     8
 74
     0
 42
0.000000001
 43
0.00000001
 40
0.0
 40
0.0
 40
0.0
 40
0.0
 40
0.4999999999999986
 40
0.4999999999999986
 40
0.7499999999999992
 40
0.7499999999999992
 40
1.0
 40
1.0
 40
1.0
 40
1.0
 10
184.4617181102257
 20
172.2011284017639
 30
0.0
 10
184.5181242889059
 20
172.1533060281041
 30
0.0
 10
184.5882871903777
 20
172.1130351811655
 30
0.0
 10
184.7062979037669
 20
172.1049893126886
 30
0.0
 10
184.7465036873623
 20
172.1115519110274
 30
0.0
 10
184.8202243840954
 20
172.138934005481
 30
0.0
 10
184.8530851058819
 20
172.1586954960114
 30
0.0
 10
184.8832535078112
 20
172.1816282071995
 30
0.0
  0
SPLINE
  5
129
330
1F
100
AcDbEntity
  8
0
  6
HIDDEN
 62
     7
370
    18
100
AcDbSpline
210
0.0
220
0.0
230
1.0
 70
     8
 71
     3
 72
    16
 73
    12
 74
     0
 42
0.000000001
 43
0.00000001
 40
0.0
 40
0.0
 40
0.0
 40
0.0
 40
0.0624999999999965
 40
0.0624999999999965
 40
0.124999999999993
 40
0.124999999999993
 40
0.2499999999999878
 40
0.2499999999999878
 40
0.4999999999999919
 40
0.4999999999999919
 40
1.0
 40
1.0
 40
1.0
 40
1.0
 10
184.883253507766
 20
172.1816282072475
 30
0.0
 10
184.8948664076054
 20
172.1904558302289
 30
0.0
 10
184.9082175920379
 20
172.1982902121109
 30
0.0
 10
184.937617431657
 20
172.2066003381833
 30
0.0
 10
184.9524581562123
 20
172.2061045189482
 30
0.0
 10
184.9882913641809
 20
172.1946535479789
 30
0.0
 10
185.0024045720025
 20
172.1779730471202
 30
0.0
 10
185.0368959432214
 20
172.1258523613632
 30
0.0
 10
185.0479800143318
 20
172.0860628673382
 30
0.0
 10
185.0741028321278
 20
171.9627262352411
 30
0.0
 10
185.0782303966727
 20
171.8753048247424
 30
0.0
 10
185.0782303966727
 20
171.7865675824242
 30
0.0
  0
LINE
  5
12A
330
1F
100
AcDbEntity
  8
0
  6
HIDDEN
 62
     7
370
    18
100
AcDbLine
 10
185.0782303967
 20
141.7111532574
 30
0.0
 11
185.0782303967
 21
171.7865675824
 31
0.0
  0
SPLINE
  5
12B
330
1F
100
AcDbEntity
  8
0
  6
HIDDEN
 62
     7
370
    18
100
AcDbSpline
210
0.0
220
0.0
230
1.0
 70
     8
 71
     3
 72
    16
 73
    12
 74
     0
 42
0.000000001
 43
0.00000001
 40
0.0
 40
0.0
 40
0.0
 40
0.0
 40
0.5000000000000042
 40
0.5000000000000042
 40
0.7500000000000012
 40
0.7500000000000012
 40
0.8749999999999997
 40
0.8749999999999997
 40
0.9374999999999999
 40
0.9374999999999999
 40
1.0
 40
1.0
 40
1.0
 40
1.0
 10
185.0782303966727
 20
141.7111532574419
 30
0.0
 10
185.0782303966727
 20
141.6220268922531
 30
0.0
 10
185.0740841215948
 20
141.5351655246397
 30
0.0
 10
185.0481185262012
 20
141.4121832781457
 30
0.0
 10
185.0366576208238
 20
141.3714119829144
 30
0.0
 10
185.0023458830494
 20
141.3197076629146
 30
0.0
 10
184.9883211471198
 20
141.3030372963242
 30
0.0
 10
184.952298184086
 20
141.2915850758675
 30
0.0
 10
184.9375436749963
 20
141.2911320295925
 30
0.0
 10
184.9081915138495
 20
141.2994473508086
 30
0.0
 10
184.8948516393454
 20
141.3072762358869
 30
0.0
 10
184.8832535077971
 20
141.3160926326495
 30
0.0
  0
SPLINE
  5
12C
330
1F
100
AcDbEntity
  8
0
  6
HIDDEN
 62
     7
370
    18
100
AcDbSpline
210
0.0
220
0.0
230
1.0
 70
     8
 71
     3
 72
    12
 73
     8
 74
     0
 42
0.000000001
 43
0.00000001
 40
0.0
 40
0.0
 40
0.0
 40
0.0
 40
0.2500000000000004
 40
0.2500000000000004
 40
0.5000000000000006
 40
0.5000000000000006
 40
1.0
 40
1.0
 40
1.0
 40
1.0
 10
184.8832535078041
 20
141.3160926326585
 30
0.0
 10
184.8530616660869
 20
141.3390431617563
 30
0.0
 10
184.8197026966723
 20
141.3590126357805
 30
0.0
 10
184.7465654120917
 20
141.386113769406
 30
0.0
 10
184.7063235394377
 20
141.3927145100514
 30
0.0
 10
184.5886177624692
 20
141.3847456355447
 30
0.0
 10
184.5182072846898
 20
141.3444851773768
 30
0.0
 10
184.4617181102215
 20
141.2965924380986
 30
0.0
  0
SPLINE
  5
12D
330
1F
100
AcDbEntity
  8
0
  6
HIDDEN
 62
     7
370
    18
100
AcDbSpline
210
0.0
220
0.0
230
1.0
 70
     8
 71
     3
 72
    12
 73
     8
 74
     0
 42
0.000000001
 43
0.00000001
 40
0.0
 40
0.0
 40
0.0
 40
0.0
 40
0.2499999999999994
 40
0.2499999999999994
 40
0.5000000000000016
 40
0.5000000000000016
 40
1.0
 40
1.0
 40
1.0
 40
1.0
 10
184.4617181102212
 20
141.2965924380989
 30
0.0
 10
184.3735641724834
 20
141.2218536302448
 30
0.0
 10
184.3132107478547
 20
141.1308731297624
 30
0.0
 10
184.2069487897878
 20
140.9419593070098
 30
0.0
 10
184.1647166232258
 20
140.8454548474692
 30
0.0
 10
184.0536459279086
 20
140.5546870933021
 30
0.0
 10
184.0007091514818
 20
140.3590202787583
 30
0.0
 10
183.956910053113
 20
140.164953793692
 30
0.0
  0
SPLINE
  5
12E
330
1F
100
AcDbEntity
  8
0
  6
HIDDEN
 62
     7
370
    18
100
AcDbSpline
210
0.0
220
0.0
230
1.0
 70
     8
 71
     3
 72
    12
 73
     8
 74
     0
 42
0.000000001
 43
0.00000001
 40
0.0
 40
0.0
 40
0.0
 40
0.0
 40
0.5000000000000011
 40
0.5000000000000011
 40
0.7500000000000007
 40
0.7500000000000007
 40
1.0
 40
1.0
 40
1.0
 40
1.0
 10
183.956910053113
 20
134.9787794649309
 30
0.0
 10
184.0006565939496
 20
134.9521852942898
 30
0.0
 10
184.0535409491811
 20
134.932425068964
 30
0.0
 10
184.1651080365173
 20
134.9119740787349
 30
0.0
 10
184.2076916330603
 20
134.9067138540785
 30
0.0
 10
184.3126083601421
 20
134.8988310601559
 30
0.0
 10
184.3741419679868
 20
134.8962669349767
 30
0.0
 10
184.461718110213
 20
134.894066717457
 30
0.0
  0
LINE
  5
12F
330
1F
100
AcDbEntity
  8
0
  6
HIDDEN
 62
     7
370
    18
100
AcDbLine
 10
185.0782303967
 20
134.2090401411
 30
0.0
 11
185.0782303967
 21
134.6892659317
 31
0.0
  0
LINE
  5
130
330
1F
100
AcDbEntity
  8
0
  6
HIDDEN
 62
     7
370
    18
100
AcDbLine
 10
185.0782303967
 20
178.8084549082
 30
0.0
 11
185.0782303967
 21
179.2886806988
 31
0.0
  0
SPLINE
  5
131
330
1F
100
AcDbEntity
  8
0
  6
HIDDEN
 62
     7
370
    18
100
AcDbSpline
210
0.0
220
0.0
230
1.0
 70
     8
 71
     3
 72
    12
 73
     8
 74
     0
 42
0.000000001
 43
0.00000001
 40
0.0
 40
0.0
 40
0.0
 40
0.0
 40
0.25
 40
0.25
 40
0.5
 40
0.5
 40
1.0
 40
1.0
 40
1.0
 40
1.0
 10
184.461718110221
 20
178.603654122409
 30
0.0
 10
184.3730334503646
 20
178.6014260550679
 30
0.0
 10
184.3131150346412
 20
178.5989242710376
 30
0.0
 10
184.2074558073205
 20
178.5909928352016
 30
0.0
 10
184.1648145692055
 20
178.5857006803048
 30
0.0
 10
184.053625227103
 20
178.5652957398176
 30
0.0
 10
184.000698544982
 20
178.5455610482308
 30
0.0
 10
183.956910053113
 20
178.5189413749351
 30
0.0
  0
SPLINE
  5
132
330
1F
100
AcDbEntity
  8
0
  6
HIDDEN
 62
     7
370
    18
100
AcDbSpline
210
0.0
220
0.0
230
1.0
 70
     8
 71
     3
 72
    12
 73
     8
 74
     0
 42
0.000000001
 43
0.00000001
 40
0.0
 40
0.0
 40
0.0
 40
0.0
 40
0.5000000000000019
 40
0.5000000000000019
 40
0.750000000000001
 40
0.750000000000001
 40
1.0
 40
1.0
 40
1.0
 40
1.0
 10
183.9569100531115
 20
173.3327670461743
 30
0.0
 10
184.0006715294102
 20
173.1388672582122
 30
0.0
 10
184.0535778450632
 20
172.9430108942753
 30
0.0
 10
184.1652890427106
 20
172.6508687477764
 30
0.0
 10
184.207808486297
 20
172.5541508110785
 30
0.0
 10
184.3129318288644
 20
172.367426374654
 30
0.0
 10
184.3744977925821
 20
172.2750756663843
 30
0.0
 10
184.4617181102248
 20
172.2011284017646
 30
0.0
  0
LWPOLYLINE
  5
133
330
1F
100
AcDbEntity
  8
0
  6
HIDDEN
 62
     7
370
    18
100
AcDbPolyline
 90
       26
 70
   128
 43
0.0
 10
206.2782303967
 20
146.8141390842
 10
206.8999551146
 20
146.7461196327
 10
207.4826145819
 20
146.5463351908
 10
207.9895981615
 20
146.2273389495
 10
208.3890502104
 20
145.8091746159
 10
208.6558716874
 20
145.318116993
 10
208.7732972177
 20
144.7850210373
 10
208.7339485235
 20
144.2433831281
 10
208.5402980278
 20
143.7272363674
 10
208.2045135036
 20
143.2690121544
 10
207.7476935274
 20
142.8975024016
 10
207.1985417784
 20
142.6360504331
 10
206.5915634806
 20
142.5010842377
 10
205.9648973128
 20
142.5010842377
 10
205.357919015
 20
142.6360504331
 10
204.8087672659
 20
142.8975024016
 10
204.3519472897
 20
143.2690121544
 10
204.0161627655
 20
143.7272363674
 10
203.8225122699
 20
144.2433831281
 10
203.7831635756
 20
144.7850210373
 10
203.9005891059
 20
145.318116993
 10
204.1674105829
 20
145.8091746159
 10
204.5668626319
 20
146.2273389495
 10
205.0738462114
 20
146.5463351908
 10
205.6565056788
 20
146.7461196327
 10
206.2782303967
 20
146.8141390842
  0
SPLINE
  5
134
330
1F
100
AcDbEntity
  8
0
  6
HIDDEN
 62
     7
370
    18
100
AcDbSpline
210
0.0
220
0.0
230
1.0
 70
     8
 71
     3
 72
    12
 73
     8
 74
     0
 42
0.000000001
 43
0.00000001
 40
0.0
 40
0.0
 40
0.0
 40
0.0
 40
0.4999999999999984
 40
0.4999999999999984
 40
0.7499999999999992
 40
0.7499999999999992
 40
1.0
 40
1.0
 40
1.0
 40
1.0
 10
208.1730924137896
 20
148.3285237625003
 30
0.0
 10
208.1137474927687
 20
148.5992086522611
 30
0.0
 10
208.07904386758
 20
148.8429607952709
 30
0.0
 10
208.111095168178
 20
149.1420408834462
 30
0.0
 10
208.1351722108082
 20
149.2286505720004
 30
0.0
 10
208.2008768021044
 20
149.3755334460787
 30
0.0
 10
208.2422816327704
 20
149.4366202778071
 30
0.0
 10
208.2869401139194
 20
149.4877521889957
 30
0.0
  0
SPLINE
  5
135
330
1F
100
AcDbEntity
  8
0
  6
HIDDEN
 62
     7
370
    18
100
AcDbSpline
210
0.0
220
0.0
230
1.0
 70
     8
 71
     3
 72
    62
 73
    58
 74
     0
 42
0.000000001
 43
0.00000001
 40
0.0
 40
0.0
 40
0.0
 40
0.0
 40
0.0312499999999993
 40
0.0312499999999993
 40
0.0624999999999987
 40
0.0624999999999987
 40
0.093749999999998
 40
0.093749999999998
 40
0.1249999999999974
 40
0.1249999999999974
 40
0.1562499999999967
 40
0.1562499999999967
 40
0.1874999999999961
 40
0.1874999999999961
 40
0.2187499999999954
 40
0.2187499999999954
 40
0.2499999999999948
 40
0.2499999999999948
 40
0.3124999999999939
 40
0.3124999999999939
 40
0.3437499999999937
 40
0.3437499999999937
 40
0.3749999999999935
 40
0.3749999999999935
 40
0.4374999999999926
 40
0.4374999999999926
 40
0.4687499999999922
 40
0.4687499999999922
 40
0.4843749999999922
 40
0.4843749999999922
 40
0.4999999999999921
 40
0.4999999999999921
 40
0.5312499999999921
 40
0.5312499999999921
 40
0.5624999999999921
 40
0.5624999999999921
 40
0.6249999999999928
 40
0.6249999999999928
 40
0.6562499999999934
 40
0.6562499999999934
 40
0.687499999999994
 40
0.687499999999994
 40
0.7187499999999946
 40
0.7187499999999946
 40
0.7499999999999951
 40
0.7499999999999951
 40
0.7812499999999957
 40
0.7812499999999957
 40
0.8124999999999962
 40
0.8124999999999962
 40
0.8749999999999973
 40
0.8749999999999973
 40
0.9374999999999986
 40
0.9374999999999986
 40
0.9687499999999993
 40
0.9687499999999993
 40
1.0
 40
1.0
 40
1.0
 40
1.0
 10
208.2869401139195
 20
149.4877521889957
 30
0.0
 10
208.3800652376224
 20
149.3991779334624
 30
0.0
 10
208.4562982205858
 20
149.3177089264608
 30
0.0
 10
208.5847114145975
 20
149.1550628758462
 30
0.0
 10
208.6368743841978
 20
149.0736656839198
 30
0.0
 10
208.7176195056267
 20
148.9056842709856
 30
0.0
 10
208.7458203069439
 20
148.8201618944663
 30
0.0
 10
208.778379591356
 20
148.6410370918753
 30
0.0
 10
208.7825959959638
 20
148.5465860309945
 30
0.0
 10
208.764394774611
 20
148.3501630243162
 30
0.0
 10
208.7422798148023
 20
148.2485306532547
 30
0.0
 10
208.6690772570889
 20
148.0353370048881
 30
0.0
 10
208.6174599493846
 20
147.923554790903
 30
0.0
 10
208.4868813773603
 20
147.6985660374668
 30
0.0
 10
208.406088568769
 20
147.5823253080558
 30
0.0
 10
208.2210991675763
 20
147.3536924483096
 30
0.0
 10
208.1177540686408
 20
147.2417785979123
 30
0.0
 10
207.7766741529032
 20
146.9115195318757
 30
0.0
 10
207.5188599947576
 20
146.7107001651819
 30
0.0
 10
207.13728211421
 20
146.4508528173537
 30
0.0
 10
207.0096849185017
 20
146.3701067739465
 30
0.0
 10
206.7615762764799
 20
146.2205064204725
 30
0.0
 10
206.6420317307329
 20
146.1521973360451
 30
0.0
 10
206.2991470816845
 20
145.9589728658025
 30
0.0
 10
206.0866822621167
 20
145.8472975718046
 30
0.0
 10
205.8570935725464
 20
145.6655825584062
 30
0.0
 10
205.7960572926917
 20
145.6012183096934
 30
0.0
 10
205.7469016417738
 20
145.493203241055
 30
0.0
 10
205.7374656085545
 20
145.4546301147696
 30
0.0
 10
205.7344082722184
 20
145.3754489008051
 30
0.0
 10
205.7405172073485
 20
145.3346680475619
 30
0.0
 10
205.7795446414234
 20
145.2095076504756
 30
0.0
 10
205.8330605352255
 20
145.1235347506004
 30
0.0
 10
205.9692464304361
 20
144.9623146267415
 30
0.0
 10
206.053290601148
 20
144.885139927216
 30
0.0
 10
206.3285379458866
 20
144.677938985902
 30
0.0
 10
206.5438872100468
 20
144.5687712616754
 30
0.0
 10
206.8953670613957
 20
144.4717029119177
 30
0.0
 10
207.0153733727392
 20
144.4512358173064
 30
0.0
 10
207.2600202223238
 20
144.4384681331114
 30
0.0
 10
207.3861679820696
 20
144.4464688213962
 30
0.0
 10
207.6344647319995
 20
144.4972511802303
 30
0.0
 10
207.7563169094646
 20
144.5394933109423
 30
0.0
 10
207.9933329275341
 20
144.6645384461094
 30
0.0
 10
208.1043515309317
 20
144.7455285542819
 30
0.0
 10
208.3055403563299
 20
144.9426293620498
 30
0.0
 10
208.3969757437822
 20
145.0609902897887
 30
0.0
 10
208.5483214106167
 20
145.3192546462258
 30
0.0
 10
208.6104476060485
 20
145.4621941182211
 30
0.0
 10
208.7515670506176
 20
145.9085364775194
 30
0.0
 10
208.7870823267705
 20
146.2313260627516
 30
0.0
 10
208.7656735805984
 20
146.8642621660232
 30
0.0
 10
208.7093775243725
 20
147.1831252935269
 30
0.0
 10
208.5630492849323
 20
147.6352803111344
 30
0.0
 10
208.503790997818
 20
147.7826072817765
 30
0.0
 10
208.3582917380918
 20
148.0689616269715
 30
0.0
 10
208.2739455981978
 20
148.2044804600092
 30
0.0
 10
208.1730924137895
 20
148.3285237625009
 30
0.0
  0
SPLINE
  5
136
330
1F
100
AcDbEntity
  8
0
  6
HIDDEN
 62
     7
370
    18
100
AcDbSpline
210
0.0
220
0.0
230
1.0
 70
    11
 71
     3
 72
    62
 73
    58
 74
     0
 42
0.000000001
 43
0.00000001
 40
0.0
 40
0.0
 40
0.0
 40
0.0
 40
0.0312499999999999
 40
0.0312499999999999
 40
0.0624999999999998
 40
0.0624999999999998
 40
0.0937499999999996
 40
0.0937499999999996
 40
0.1249999999999995
 40
0.1249999999999995
 40
0.1874999999999996
 40
0.1874999999999996
 40
0.2187499999999997
 40
0.2187499999999997
 40
0.2499999999999998
 40
0.2499999999999998
 40
0.2812499999999998
 40
0.2812499999999998
 40
0.3124999999999997
 40
0.3124999999999997
 40
0.3749999999999998
 40
0.3749999999999998
 40
0.4062499999999998
 40
0.4062499999999998
 40
0.4374999999999998
 40
0.4374999999999998
 40
0.4687499999999998
 40
0.4687499999999998
 40
0.4999999999999998
 40
0.4999999999999998
 40
0.5625000000000004
 40
0.5625000000000004
 40
0.5937500000000004
 40
0.5937500000000004
 40
0.6250000000000003
 40
0.6250000000000003
 40
0.6562500000000003
 40
0.6562500000000003
 40
0.6875000000000003
 40
0.6875000000000003
 40
0.7187500000000003
 40
0.7187500000000003
 40
0.7500000000000003
 40
0.7500000000000003
 40
0.7812500000000002
 40
0.7812500000000002
 40
0.8125000000000001
 40
0.8125000000000001
 40
0.8749999999999997
 40
0.8749999999999997
 40
0.9062499999999998
 40
0.9062499999999998
 40
0.9374999999999999
 40
0.9374999999999999
 40
0.96875
 40
0.96875
 40
1.0
 40
1.0
 40
1.0
 40
1.0
 10
206.2782303966729
 20
154.5910198129465
 30
0.0
 10
206.1121865777367
 20
154.5910198129465
 30
0.0
 10
205.9490898471596
 20
154.5744461688911
 30
0.0
 10
205.6284935422511
 20
154.5099575980626
 30
0.0
 10
205.4692913389447
 20
154.4612135726041
 30
0.0
 10
205.1669808372306
 20
154.3356360290342
 30
0.0
 10
205.0237292629862
 20
154.2592617007134
 30
0.0
 10
204.752618421919
 20
154.080677910284
 30
0.0
 10
204.6249364267902
 20
153.9780759857975
 30
0.0
 10
204.280936338575
 20
153.645639063455
 30
0.0
 10
204.0949347099906
 20
153.3823827221585
 30
0.0
 10
203.907448196809
 20
152.9678383958496
 30
0.0
 10
203.8589762520569
 20
152.8240814838717
 30
0.0
 10
203.7944142726432
 20
152.5354660164036
 30
0.0
 10
203.7783357724232
 20
152.3922565953633
 30
0.0
 10
203.7781260435096
 20
152.1082337551249
 30
0.0
 10
203.7945575909205
 20
151.9662677507469
 30
0.0
 10
203.8587262810728
 20
151.6967579624527
 30
0.0
 10
203.9061952438643
 20
151.5678399535505
 30
0.0
 10
204.0953187278185
 20
151.197646981008
 30
0.0
 10
204.2794586201846
 20
150.9824746458975
 30
0.0
 10
204.6261942039885
 20
150.7169708320093
 30
0.0
 10
204.7515111601403
 20
150.639359518059
 30
0.0
 10
205.0215706629402
 20
150.5040956587262
 30
0.0
 10
205.1679440388214
 20
150.4461254879655
 30
0.0
 10
205.469361941875
 20
150.354245612321
 30
0.0
 10
205.625214103314
 20
150.3196479565009
 30
0.0
 10
205.9475571646303
 20
150.272786339487
 30
0.0
 10
206.1135086316998
 20
150.2609440255548
 30
0.0
 10
206.604429999251
 20
150.2607908370854
 30
0.0
 10
206.9349129863537
 20
150.3080431098957
 30
0.0
 10
207.3868224839523
 20
150.4455159684884
 30
0.0
 10
207.5331197013316
 20
150.5033102733526
 30
0.0
 10
207.8040032638879
 20
150.6387851609014
 30
0.0
 10
207.9293597860458
 20
150.7163939667105
 30
0.0
 10
208.160137427535
 20
150.8928721023507
 30
0.0
 10
208.2649253076051
 20
150.9917562643915
 30
0.0
 10
208.4455889317872
 20
151.2042140046889
 30
0.0
 10
208.5227774289825
 20
151.3186871265202
 30
0.0
 10
208.6496408332737
 20
151.5662291762134
 30
0.0
 10
208.6973021872061
 20
151.6955362217763
 30
0.0
 10
208.7615325542686
 20
151.9641243829092
 30
0.0
 10
208.7781657681477
 20
152.1052699264082
 30
0.0
 10
208.7782946431591
 20
152.3907582494499
 30
0.0
 10
208.7622136640303
 20
152.5340242372733
 30
0.0
 10
208.698246251562
 20
152.8213609609175
 30
0.0
 10
208.6496822013183
 20
152.9661292806481
 30
0.0
 10
208.4619513592757
 20
153.3818963603599
 30
0.0
 10
208.2760055217801
 20
153.6450242860119
 30
0.0
 10
207.9322302996757
 20
153.9774684132707
 30
0.0
 10
207.8050549953081
 20
154.0797940689938
 30
0.0
 10
207.5334125860335
 20
154.2588975628559
 30
0.0
 10
207.3902534150864
 20
154.3352121107384
 30
0.0
 10
207.0891264725486
 20
154.4605023446328
 30
0.0
 10
206.929610243857
 20
154.5095579459469
 30
0.0
 10
206.6077443516252
 20
154.5744397866778
 30
0.0
 10
206.444274215609
 20
154.5910198129465
 30
0.0
 10
206.2782303966729
 20
154.5910198129465
 30
0.0
  0
LINE
  5
137
330
1F
100
AcDbEntity
  8
0
  6
HIDDEN
 62
     7
370
    18
100
AcDbLine
 10
185.0782303967
 20
134.6892659317
 30
0.0
 11
185.0782303967
 21
149.7269730942
 31
0.0
  0
LINE
  5
138
330
1F
100
AcDbEntity
  8
0
  6
HIDDEN
 62
     7
370
    18
100
AcDbLine
 10
185.0782303967
 20
163.7707477457
 30
0.0
 11
185.0782303967
 21
178.8084549082
 31
0.0
  0
LWPOLYLINE
  5
139
330
1F
100
AcDbEntity
  8
0
  6
HIDDEN
 62
     7
370
    18
100
AcDbPolyline
 90
        9
 70
   128
 43
0.0
 10
208.2869401139
 20
149.487752189
 10
208.3762060366
 20
149.4522733921
 10
208.4367375309
 20
149.3814824211
 10
208.4674321011
 20
149.2766686336
 10
208.467730689
 20
149.1397410649
 10
208.4376278561
 20
148.9731936574
 10
208.3776718831
 20
148.7800598371
 10
208.2889547834
 20
148.5638572639
 10
208.1730924138
 20
148.3285237625
  0
CIRCLE
  5
13A
330
1F
100
AcDbEntity
  8
0
  6
HIDDEN
 62
     7
370
    18
100
AcDbCircle
 10
169.7782303967
 20
156.7488604199
 30
0.0
 40
4.050000000000011
  0
LINE
  5
13B
330
1F
100
AcDbEntity
  8
0
  6
HIDDEN
 62
     7
370
    18
100
AcDbLine
 10
148.8084588363
 20
172.0618114628
 30
0.0
 11
148.8084588363
 21
141.435909377
 31
0.0
  0
LINE
  5
13C
330
1F
100
AcDbEntity
  8
0
  6
HIDDEN
 62
     7
370
    18
100
AcDbLine
 10
147.2782303967
 20
140.5524315755
 30
0.0
 11
147.2782303967
 21
172.9452892644
 31
0.0
  0
LINE
  5
13D
330
1F
100
AcDbEntity
  8
0
  6
HIDDEN
 62
     7
370
    18
100
AcDbLine
 10
155.3084588363
 20
171.0952705814
 30
0.0
 11
155.3084588363
 21
142.4024502584
 31
0.0
  0
LINE
  5
13E
330
1F
100
AcDbEntity
  8
0
  6
HIDDEN
 62
     7
370
    18
100
AcDbLine
 10
161.1084588363
 20
170.7488604199
 30
0.0
 11
161.1084588363
 21
142.7488604199
 31
0.0
  0
LINE
  5
13F
330
1F
100
AcDbEntity
  8
0
  6
HIDDEN
 62
     7
370
    18
100
AcDbLine
 10
153.7084588363
 20
170.7488604199
 30
0.0
 11
153.7084588363
 21
142.7488604199
 31
0.0
  0
LINE
  5
140
330
1F
100
AcDbEntity
  8
0
  6
HIDDEN
 62
     7
370
    18
100
AcDbLine
 10
154.7084588363
 20
170.7488604199
 30
0.0
 11
154.7084588363
 21
142.7488604199
 31
0.0
  0
SPLINE
  5
141
330
1F
100
AcDbEntity
  8
0
  6
HIDDEN
 62
     7
370
    18
100
AcDbSpline
210
0.0
220
0.0
230
1.0
 70
     8
 71
     3
 72
    10
 73
     6
 74
     0
 42
0.000000001
 43
0.00000001
 40
0.0
 40
0.0
 40
0.0
 40
0.0
 40
0.5
 40
0.5
 40
1.0
 40
1.0
 40
1.0
 40
1.0
 10
173.7782303966727
 20
157.3832892969556
 30
0.0
 10
173.8113778147491
 20
157.1742986959475
 30
0.0
 10
173.8282366601108
 20
156.9627362299259
 30
0.0
 10
173.8282241297631
 20
156.5347474639583
 30
0.0
 10
173.8113091720228
 20
156.3229893595426
 30
0.0
 10
173.7782303966727
 20
156.1144315429105
 30
0.0
  0
LINE
  5
142
330
1F
100
AcDbEntity
  8
0
  6
HIDDEN
 62
     7
370
    18
100
AcDbLine
 10
174.2782303967
 20
170.2488604199
 30
0.0
 11
174.2782303967
 21
143.2488604199
 31
0.0
  0
SPLINE
  5
143
330
1F
100
AcDbEntity
  8
0
  6
HIDDEN
 62
     7
370
    18
100
AcDbSpline
210
0.0
220
0.0
230
1.0
 70
     8
 71
     3
 72
    10
 73
     6
 74
     0
 42
0.000000001
 43
0.00000001
 40
0.0
 40
0.0
 40
0.0
 40
0.0
 40
0.5
 40
0.5
 40
1.0
 40
1.0
 40
1.0
 40
1.0
 10
173.7782303966727
 20
156.1144315429105
 30
0.0
 10
173.8114193591464
 20
156.323684076493
 30
0.0
 10
173.8281201354011
 20
156.534500837392
 30
0.0
 10
173.8283395758457
 20
156.9590331185952
 30
0.0
 10
173.8114598604523
 20
157.1737814073679
 30
0.0
 10
173.7782303966727
 20
157.3832892969556
 30
0.0
  0
SPLINE
  5
144
330
1F
100
AcDbEntity
  8
0
  6
HIDDEN
 62
     7
370
    18
100
AcDbSpline
210
0.0
220
0.0
230
1.0
 70
     8
 71
     3
 72
    68
 73
    64
 74
     0
 42
0.000000001
 43
0.00000001
 40
0.0
 40
0.0
 40
0.0
 40
0.0
 40
0.0312500000000003
 40
0.0312500000000003
 40
0.0625000000000006
 40
0.0625000000000006
 40
0.093750000000001
 40
0.093750000000001
 40
0.1250000000000013
 40
0.1250000000000013
 40
0.1562500000000016
 40
0.1562500000000016
 40
0.1875000000000019
 40
0.1875000000000019
 40
0.2187500000000022
 40
0.2187500000000022
 40
0.2500000000000026
 40
0.2500000000000026
 40
0.2812500000000024
 40
0.2812500000000024
 40
0.3125000000000023
 40
0.3125000000000023
 40
0.3437500000000022
 40
0.3437500000000022
 40
0.3750000000000021
 40
0.3750000000000021
 40
0.4062500000000019
 40
0.4062500000000019
 40
0.4375000000000018
 40
0.4375000000000018
 40
0.4687500000000017
 40
0.4687500000000017
 40
0.5000000000000017
 40
0.5000000000000017
 40
0.5625000000000016
 40
0.5625000000000016
 40
0.5937500000000014
 40
0.5937500000000014
 40
0.6250000000000012
 40
0.6250000000000012
 40
0.6562500000000011
 40
0.6562500000000011
 40
0.687500000000001
 40
0.687500000000001
 40
0.7187500000000009
 40
0.7187500000000009
 40
0.7500000000000008
 40
0.7500000000000008
 40
0.7812500000000007
 40
0.7812500000000007
 40
0.8125000000000006
 40
0.8125000000000006
 40
0.8437500000000004
 40
0.8437500000000004
 40
0.8750000000000002
 40
0.8750000000000002
 40
0.9062500000000001
 40
0.9062500000000001
 40
0.9375
 40
0.9375
 40
0.96875
 40
0.96875
 40
1.0
 40
1.0
 40
1.0
 40
1.0
 10
173.7782303966727
 20
156.1144315429105
 30
0.0
 10
173.738215444323
 20
155.8621419400949
 30
0.0
 10
173.6752736429117
 20
155.6181430897191
 30
0.0
 10
173.5058869808396
 20
155.1457247006566
 30
0.0
 10
173.3981934182542
 20
154.9153113144967
 30
0.0
 10
173.1429086497163
 20
154.4806067186996
 30
0.0
 10
172.9968694192441
 20
154.2779647520482
 30
0.0
 10
172.6686479826848
 20
153.9009754612904
 30
0.0
 10
172.4844006949098
 20
153.7253175077131
 30
0.0
 10
172.0914405276015
 20
153.4150595387668
 30
0.0
 10
171.8821459306424
 20
153.2791143311169
 30
0.0
 10
171.437260503705
 20
153.045724235711
 30
0.0
 10
171.200462911206
 20
152.9484776292967
 30
0.0
 10
170.7197278422867
 20
152.8018061714253
 30
0.0
 10
170.4734847491039
 20
152.7509138264829
 30
0.0
 10
169.9687679691245
 20
152.6953864762474
 30
0.0
 10
169.712573268188
 20
152.6915615891775
 30
0.0
 10
169.2101945189879
 20
152.7309853718219
 30
0.0
 10
168.9609448198043
 20
152.7740128210331
 30
0.0
 10
168.4694170223255
 20
152.9077177904844
 30
0.0
 10
168.2341214210997
 20
152.9963876363896
 30
0.0
 10
167.7832075264376
 20
153.215419000167
 30
0.0
 10
167.5655951759742
 20
153.3474205658505
 30
0.0
 10
167.1623880064259
 20
153.6467778468535
 30
0.0
 10
166.9767765139915
 20
153.8133967742913
 30
0.0
 10
166.636788443589
 20
154.1805081997188
 30
0.0
 10
166.4817155127661
 20
154.3828119452595
 30
0.0
 10
166.2153724361027
 20
154.8068926248535
 30
0.0
 10
166.1023883353859
 20
155.0300522303197
 30
0.0
 10
165.9175330784551
 20
155.4994074719139
 30
0.0
 10
165.8463923169516
 20
155.7456179752494
 30
0.0
 10
165.7524319056635
 20
156.2401438016205
 30
0.0
 10
165.7284225757071
 20
156.4910747967126
 30
0.0
 10
165.7278494550345
 20
157.2553201762688
 30
0.0
 10
165.8232485663531
 20
157.7575444783197
 30
0.0
 10
166.1011123585543
 20
158.4651089845921
 30
0.0
 10
166.2142743146348
 20
158.688815248333
 30
0.0
 10
166.4804054966787
 20
159.1130851596535
 30
0.0
 10
166.6352332708784
 20
159.3153371217096
 30
0.0
 10
166.9754143766662
 20
159.6830478630778
 30
0.0
 10
167.1609168336159
 20
159.8496647383271
 30
0.0
 10
167.5632106346753
 20
160.1487141171225
 30
0.0
 10
167.7812186829273
 20
160.281170825151
 30
0.0
 10
168.2318170500776
 20
160.5003772258556
 30
0.0
 10
168.4663660489583
 20
160.5888623558592
 30
0.0
 10
168.9548260425107
 20
160.7223485857979
 30
0.0
 10
169.2070914382246
 20
160.7662902982916
 30
0.0
 10
169.7092720763848
 20
160.8060992947651
 30
0.0
 10
169.9617541937365
 20
160.8027550819516
 30
0.0
 10
170.469619236806
 20
160.7475757619611
 30
0.0
 10
170.7171647099898
 20
160.6965298334917
 30
0.0
 10
171.1981322474605
 20
160.5501194452561
 30
0.0
 10
171.4340921125658
 20
160.4534732404825
 30
0.0
 10
171.8806625620874
 20
160.2195682961695
 30
0.0
 10
172.0903074246609
 20
160.083443282343
 30
0.0
 10
172.4832941314153
 20
159.7733890180139
 30
0.0
 10
172.6676900352303
 20
159.5977317704388
 30
0.0
 10
172.9962404530907
 20
159.2205918477744
 30
0.0
 10
173.1421825496139
 20
159.0181256425045
 30
0.0
 10
173.3970679048161
 20
158.5845493443711
 30
0.0
 10
173.5053792176244
 20
158.3532575007896
 30
0.0
 10
173.6752141950413
 20
157.8798978206564
 30
0.0
 10
173.7382095561784
 20
157.6356160238356
 30
0.0
 10
173.7782303966727
 20
157.3832892969556
 30
0.0
  0
SPLINE
  5
145
330
1F
100
AcDbEntity
  8
0
  6
HIDDEN
 62
     7
370
    18
100
AcDbSpline
210
0.0
220
0.0
230
1.0
 70
     8
 71
     3
 72
    68
 73
    64
 74
     0
 42
0.000000001
 43
0.00000001
 40
0.0
 40
0.0
 40
0.0
 40
0.0
 40
0.0312500000000003
 40
0.0312500000000003
 40
0.0625000000000006
 40
0.0625000000000006
 40
0.093750000000001
 40
0.093750000000001
 40
0.1250000000000013
 40
0.1250000000000013
 40
0.1562500000000016
 40
0.1562500000000016
 40
0.1875000000000019
 40
0.1875000000000019
 40
0.2187500000000022
 40
0.2187500000000022
 40
0.2500000000000026
 40
0.2500000000000026
 40
0.2812500000000024
 40
0.2812500000000024
 40
0.3125000000000023
 40
0.3125000000000023
 40
0.3437500000000022
 40
0.3437500000000022
 40
0.3750000000000021
 40
0.3750000000000021
 40
0.4062500000000019
 40
0.4062500000000019
 40
0.4375000000000018
 40
0.4375000000000018
 40
0.4687500000000017
 40
0.4687500000000017
 40
0.5000000000000017
 40
0.5000000000000017
 40
0.5625000000000016
 40
0.5625000000000016
 40
0.5937500000000014
 40
0.5937500000000014
 40
0.6250000000000012
 40
0.6250000000000012
 40
0.6562500000000011
 40
0.6562500000000011
 40
0.687500000000001
 40
0.687500000000001
 40
0.7187500000000009
 40
0.7187500000000009
 40
0.7500000000000008
 40
0.7500000000000008
 40
0.7812500000000007
 40
0.7812500000000007
 40
0.8125000000000006
 40
0.8125000000000006
 40
0.8437500000000004
 40
0.8437500000000004
 40
0.8750000000000002
 40
0.8750000000000002
 40
0.9062500000000001
 40
0.9062500000000001
 40
0.9375
 40
0.9375
 40
0.96875
 40
0.96875
 40
1.0
 40
1.0
 40
1.0
 40
1.0
 10
173.7782303966727
 20
157.3832892969556
 30
0.0
 10
173.738215444323
 20
157.6355788997711
 30
0.0
 10
173.6752736429117
 20
157.879577750147
 30
0.0
 10
173.5058869808396
 20
158.3519961392095
 30
0.0
 10
173.3981934182542
 20
158.5824095253694
 30
0.0
 10
173.1429086497163
 20
159.0171141211665
 30
0.0
 10
172.9968694192441
 20
159.2197560878178
 30
0.0
 10
172.6686479826848
 20
159.5967453785756
 30
0.0
 10
172.4844006949098
 20
159.772403332153
 30
0.0
 10
172.0914405276015
 20
160.0826613010993
 30
0.0
 10
171.8821459306424
 20
160.2186065087492
 30
0.0
 10
171.437260503705
 20
160.451996604155
 30
0.0
 10
171.200462911206
 20
160.5492432105694
 30
0.0
 10
170.7197278422867
 20
160.6959146684408
 30
0.0
 10
170.4734847491039
 20
160.7468070133832
 30
0.0
 10
169.9687679691245
 20
160.8023343636187
 30
0.0
 10
169.712573268188
 20
160.8061592506886
 30
0.0
 10
169.2101945189879
 20
160.7667354680442
 30
0.0
 10
168.9609448198043
 20
160.723708018833
 30
0.0
 10
168.4694170223255
 20
160.5900030493817
 30
0.0
 10
168.2341214210997
 20
160.5013332034765
 30
0.0
 10
167.7832075264376
 20
160.2823018396991
 30
0.0
 10
167.5655951759742
 20
160.1503002740155
 30
0.0
 10
167.1623880064259
 20
159.8509429930126
 30
0.0
 10
166.9767765139915
 20
159.6843240655747
 30
0.0
 10
166.636788443589
 20
159.3172126401473
 30
0.0
 10
166.4817155127661
 20
159.1149088946065
 30
0.0
 10
166.2153724361027
 20
158.6908282150125
 30
0.0
 10
166.1023883353859
 20
158.4676686095463
 30
0.0
 10
165.9175330784551
 20
157.9983133679522
 30
0.0
 10
165.8463923169516
 20
157.7521028646167
 30
0.0
 10
165.7524319056635
 20
157.2575770382455
 30
0.0
 10
165.7284225757071
 20
157.0066460431535
 30
0.0
 10
165.7278494550345
 20
156.2424006635973
 30
0.0
 10
165.8232485663531
 20
155.7401763615463
 30
0.0
 10
166.1011123585543
 20
155.032611855274
 30
0.0
 10
166.2142743146348
 20
154.8089055915331
 30
0.0
 10
166.4804054966787
 20
154.3846356802125
 30
0.0
 10
166.6352332708784
 20
154.1823837181565
 30
0.0
 10
166.9754143766662
 20
153.8146729767883
 30
0.0
 10
167.1609168336159
 20
153.6480561015389
 30
0.0
 10
167.5632106346753
 20
153.3490067227436
 30
0.0
 10
167.7812186829273
 20
153.2165500147151
 30
0.0
 10
168.2318170500776
 20
152.9973436140105
 30
0.0
 10
168.4663660489583
 20
152.9088584840068
 30
0.0
 10
168.9548260425107
 20
152.7753722540682
 30
0.0
 10
169.2070914382246
 20
152.7314305415744
 30
0.0
 10
169.7092720763848
 20
152.6916215451009
 30
0.0
 10
169.9617541937365
 20
152.6949657579144
 30
0.0
 10
170.469619236806
 20
152.750145077905
 30
0.0
 10
170.7171647099898
 20
152.8011910063744
 30
0.0
 10
171.1981322474605
 20
152.9476013946099
 30
0.0
 10
171.4340921125658
 20
153.0442475993836
 30
0.0
 10
171.8806625620874
 20
153.2781525436966
 30
0.0
 10
172.0903074246609
 20
153.4142775575231
 30
0.0
 10
172.4832941314153
 20
153.7243318218522
 30
0.0
 10
172.6676900352303
 20
153.8999890694273
 30
0.0
 10
172.9962404530907
 20
154.2771289920917
 30
0.0
 10
173.1421825496139
 20
154.4795951973616
 30
0.0
 10
173.3970679048161
 20
154.9131714954949
 30
0.0
 10
173.5053792176244
 20
155.1444633390765
 30
0.0
 10
173.6752141950413
 20
155.6178230192097
 30
0.0
 10
173.7382095561784
 20
155.8621048160305
 30
0.0
 10
173.7782303966727
 20
156.1144315429105
 30
0.0
  0
LINE
  5
146
330
1F
100
AcDbEntity
  8
0
  6
HIDDEN
 62
     7
370
    18
100
AcDbLine
 10
175.5282303967
 20
165.7488604199
 30
0.0
 11
175.5282303967
 21
147.7488604199
 31
0.0
  0
LINE
  5
147
330
1F
100
AcDbEntity
  8
0
  6
HIDDEN
 62
     7
370
    18
100
AcDbLine
 10
174.2782303967
 20
146.4988604199
 30
0.0
 11
174.2782303967
 21
166.9988604199
 31
0.0
  0
LINE
  5
148
330
1F
100
AcDbEntity
  8
0
  6
HIDDEN
 62
     7
370
    18
100
AcDbLine
 10
212.2782303967
 20
147.7488604199
 30
0.0
 11
212.2782303967
 21
165.7488604199
 31
0.0
  0
SPLINE
  5
149
330
1F
100
AcDbEntity
  8
0
  6
HIDDEN
 62
     7
370
    18
100
AcDbSpline
210
0.0
220
0.0
230
1.0
 70
     8
 71
     3
 72
    10
 73
     6
 74
     0
 42
0.000000001
 43
0.00000001
 40
0.0
 40
0.0
 40
0.0
 40
0.0
 40
0.5000000000000001
 40
0.5000000000000001
 40
1.0
 40
1.0
 40
1.0
 40
1.0
 10
223.4768292349828
 20
152.8126503942303
 30
0.0
 10
223.4554635884002
 20
153.4657753309904
 30
0.0
 10
223.4288964137517
 20
154.1229962104016
 30
0.0
 10
223.3894432256594
 20
155.4357997853777
 30
0.0
 10
223.3769288124782
 20
156.0923908014153
 30
0.0
 10
223.3769288124782
 20
156.748860419933
 30
0.0
  0
LINE
  5
14A
330
1F
100
AcDbEntity
  8
0
  6
HIDDEN
 62
     7
370
    18
100
AcDbLine
 10
223.3769288125
 20
188.7486777863
 30
0.0
 11
223.3769288125
 21
156.7488604199
 31
0.0
  0
SPLINE
  5
14B
330
1F
100
AcDbEntity
  8
0
  6
HIDDEN
 62
     7
370
    18
100
AcDbSpline
210
0.0
220
0.0
230
1.0
 70
     8
 71
     3
 72
    18
 73
    14
 74
     0
 42
0.000000001
 43
0.00000001
 40
0.0
 40
0.0
 40
0.0
 40
0.0
 40
0.2499999999999999
 40
0.2499999999999999
 40
0.3749999999999999
 40
0.3749999999999999
 40
0.4999999999999999
 40
0.4999999999999999
 40
0.6249999999999999
 40
0.6249999999999999
 40
0.7499999999999998
 40
0.7499999999999998
 40
1.0
 40
1.0
 40
1.0
 40
1.0
 10
224.9505534495198
 20
136.7389186452289
 30
0.0
 10
224.8959270809794
 20
134.2035490215592
 30
0.0
 10
224.8518466670966
 20
131.9185784819699
 30
0.0
 10
224.7977421667503
 20
128.8628165573294
 30
0.0
 10
224.7817170485761
 20
127.9062839789643
 30
0.0
 10
224.7532493564404
 20
126.1271927380923
 30
0.0
 10
224.7410745881772
 20
125.3217777236424
 30
0.0
 10
224.7200695249953
 20
123.8747544144498
 30
0.0
 10
224.7112402955434
 20
123.2331547311893
 30
0.0
 10
224.6963759001863
 20
122.1159137535137
 30
0.0
 10
224.6903337660338
 20
121.6396979960752
 30
0.0
 10
224.6759248158297
 20
120.4769073899855
 30
0.0
 10
224.6714046076059
 20
120.0758815981502
 30
0.0
 10
224.6711239377818
 20
120.0517070174753
 30
0.0
  0
LINE
  5
14C
330
1F
100
AcDbEntity
  8
0
  6
HIDDEN
 62
     7
370
    18
100
AcDbLine
 10
246.8484152863
 20
122.6333627652
 30
0.0
 11
246.8372027273
 21
122.668924459
 31
0.0
  0
LINE
  5
14D
330
1F
100
AcDbEntity
  8
0
  6
HIDDEN
 62
     7
370
    18
100
AcDbLine
 10
239.4920185784
 20
124.9528257377
 30
0.0
 11
246.8484152863
 21
122.6333627652
 31
0.0
  0
LINE
  5
14E
330
1F
100
AcDbEntity
  8
0
  6
HIDDEN
 62
     7
370
    18
100
AcDbLine
 10
239.4784965358
 20
124.9957121778
 30
0.0
 11
239.4920185784
 21
124.9528257377
 31
0.0
  0
LINE
  5
14F
330
1F
100
AcDbEntity
  8
0
  6
HIDDEN
 62
     7
370
    18
100
AcDbLine
 10
239.3128396337
 20
115.4352208154
 30
0.0
 11
236.1199238607
 21
125.5618558854
 31
0.0
  0
LINE
  5
150
330
1F
100
AcDbEntity
  8
0
  6
HIDDEN
 62
     7
370
    18
100
AcDbLine
 10
239.2699531936
 20
115.4487428581
 30
0.0
 11
239.3128396337
 21
115.4352208154
 31
0.0
  0
LINE
  5
151
330
1F
100
AcDbEntity
  8
0
  6
HIDDEN
 62
     7
370
    18
100
AcDbLine
 10
239.4920185784
 20
124.9528257377
 30
0.0
 11
239.2796161032
 21
124.7404232625
 31
0.0
  0
LINE
  5
152
330
1F
100
AcDbEntity
  8
0
  6
HIDDEN
 62
     7
370
    18
100
AcDbLine
 10
246.636012811
 20
122.42096029
 30
0.0
 11
246.8484152863
 21
122.6333627652
 31
0.0
  0
LINE
  5
153
330
1F
100
AcDbEntity
  8
0
  6
HIDDEN
 62
     7
370
    18
100
AcDbLine
 10
246.636012811
 20
122.42096029
 30
0.0
 11
239.2796161032
 21
124.7404232625
 31
0.0
  0
LINE
  5
154
330
1F
100
AcDbEntity
  8
0
  6
HIDDEN
 62
     7
370
    18
100
AcDbLine
 10
239.1682846188
 20
125.0935216196
 30
0.0
 11
239.2796161032
 21
124.7404232625
 31
0.0
  0
ELLIPSE
  5
155
330
1F
100
AcDbEntity
  8
0
  6
HIDDEN
 62
     7
370
    18
100
AcDbEllipse
 10
236.1304631502
 20
156.7488604199
 30
0.0
 11
-10.23661381869806
 21
31.97760188319239
 31
0.0
210
0.0
220
0.0
230
1.0
 40
0.1169400867
 41
6.255143260803167
 42
7.816564450263391
  0
LINE
  5
156
330
1F
100
AcDbEntity
  8
0
  6
HIDDEN
 62
     7
370
    18
100
AcDbLine
 10
236.3075011446
 20
125.8529938085
 30
0.0
 11
239.5954427523
 21
115.4249752951
 31
0.0
  0
ELLIPSE
  5
157
330
1F
100
AcDbEntity
  8
0
  6
HIDDEN
 62
     7
370
    18
100
AcDbEllipse
 10
224.586606231
 20
162.0183697658
 30
0.0
 11
-15.05252186075978
 21
46.58147084515283
 31
0.0
210
0.0
220
0.0
230
1.0
 40
0.1000778042
 41
3.078069951174404
 42
3.132359191117384
  0
LINE
  5
158
330
1F
100
AcDbEntity
  8
0
  6
HIDDEN
 62
     7
370
    18
100
AcDbLine
 10
246.4215806104
 20
122.4885705031
 30
0.0
 11
246.636012811
 21
122.42096029
 31
0.0
  0
LINE
  5
159
330
1F
100
AcDbEntity
  8
0
  6
HIDDEN
 62
     7
370
    18
100
AcDbLine
 10
239.5954427523
 20
115.4249752951
 30
0.0
 11
239.5509639048
 21
115.5660441767
 31
0.0
  0
SPLINE
  5
15A
330
1F
100
AcDbEntity
  8
0
  6
HIDDEN
 62
     7
370
    18
100
AcDbSpline
210
0.0
220
0.0
230
1.0
 70
     8
 71
     3
 72
    29
 73
    25
 74
     0
 42
0.000000001
 43
0.00000001
 40
0.0
 40
0.0
 40
0.0
 40
0.0
 40
0.01445249695017
 40
0.028928085542506
 40
0.0434301320473565
 40
0.0579619843483366
 40
0.0871122666421369
 40
0.1164080124803344
 40
0.1753832827713527
 40
0.2349371575333909
 40
0.2951049736833067
 40
0.3559143900544886
 40
0.4173852947380721
 40
0.4795298232350012
 40
0.5423524724785067
 40
0.605850296413136
 40
0.670013172290968
 40
0.7348241259083969
 40
0.8002597026406986
 40
0.8662903722079492
 40
0.8995144990466869
 40
0.9328854470792849
 40
0.9663688265432316
 40
1.0
 40
1.0
 40
1.0
 40
1.0
 10
249.4239359272936
 20
112.9663167415402
 30
0.0
 10
249.3927781718146
 20
112.9948141141732
 30
0.0
 10
249.3304128781969
 20
113.0518543914419
 30
0.0
 10
249.2340052075388
 20
113.147194024632
 30
0.0
 10
249.1354212780577
 20
113.2497658367146
 30
0.0
 10
249.0006891091813
 20
113.3972248988428
 30
0.0
 10
248.8264240963291
 20
113.60103628823
 30
0.0
 10
248.5350627338027
 20
113.96886651397
 30
0.0
 10
248.1481002215666
 20
114.5062036960817
 30
0.0
 10
247.6502523221712
 20
115.2705790505265
 30
0.0
 10
247.1191435618498
 20
116.153970897108
 30
0.0
 10
246.556243093119
 20
117.1539292799742
 30
0.0
 10
245.9630935196418
 20
118.2676994302692
 30
0.0
 10
245.3413221399727
 20
119.4922154472186
 30
0.0
 10
244.6926324380119
 20
120.8241124020245
 30
0.0
 10
244.0188003810369
 20
122.259735422
 30
0.0
 10
243.3216706733866
 20
123.7951452383678
 30
0.0
 10
242.6031467873779
 20
125.4261469983446
 30
0.0
 10
241.8652052873263
 20
127.1482324027201
 30
0.0
 10
241.2370767581629
 20
128.6521562011704
 30
0.0
 10
240.7268585599443
 20
129.8959104412641
 30
0.0
 10
240.3397933378697
 20
130.8506764211854
 30
0.0
 10
239.9494448021743
 20
131.8236865558808
 30
0.0
 10
239.6874180511134
 20
132.4859429103458
 30
0.0
 10
239.5561161690067
 20
132.817800270048
 30
0.0
  0
SPLINE
  5
15B
330
1F
100
AcDbEntity
  8
0
  6
HIDDEN
 62
     7
370
    18
100
AcDbSpline
210
0.0
220
0.0
230
1.0
 70
     8
 71
     3
 72
    28
 73
    24
 74
     0
 42
0.000000001
 43
0.00000001
 40
0.0
 40
0.0
 40
0.0
 40
0.0
 40
0.017025449917712
 40
0.0338726649805409
 40
0.0505417830509974
 40
0.0670329464595155
 40
0.1006116793650518
 40
0.1335500353738501
 40
0.1995096539855917
 40
0.2648830010955904
 40
0.3296423422796587
 40
0.3937658152074789
 40
0.4572378078218989
 40
0.5200493021994507
 40
0.5821981730013063
 40
0.6436894321832868
 40
0.7647094482779396
 40
0.8245876294612091
 40
0.8833895402974987
 40
0.9127756517567883
 40
0.9419316810876459
 40
0.971063732172444
 40
1.0
 40
1.0
 40
1.0
 40
1.0
 10
239.3383375583073
 20
132.2024666553387
 30
0.0
 10
239.4037027079985
 20
132.0357452720516
 30
0.0
 10
239.5337487172138
 20
131.7040478667865
 30
0.0
 10
239.7273129580214
 20
131.2137606035026
 30
0.0
 10
239.9184568062639
 20
130.7320804056916
 30
0.0
 10
240.1729782573619
 20
130.0942986460456
 30
0.0
 10
240.4884229073826
 20
129.3105147466214
 30
0.0
 10
240.9891566591336
 20
128.0808055763538
 30
0.0
 10
241.6046327631256
 20
126.5963674000455
 30
0.0
 10
242.328744241239
 20
124.89436959781
 30
0.0
 10
243.0337983545137
 20
123.2826625929933
 30
0.0
 10
243.7178990111847
 20
121.7655903934202
 30
0.0
 10
244.3792207145664
 20
120.3472080489926
 30
0.0
 10
245.0159833627523
 20
119.031335834806
 30
0.0
 10
245.6265144959908
 20
117.8214550949745
 30
0.0
 10
246.3990641323979
 20
116.3620722791782
 30
0.0
 10
247.1188527019838
 20
115.1147123556998
 30
0.0
 10
247.7750174314316
 20
114.1020714761898
 30
0.0
 10
248.1561580017463
 20
113.5702412695805
 30
0.0
 10
248.4427237079772
 20
113.2064775794966
 30
0.0
 10
248.6487207903723
 20
112.9645414844462
 30
0.0
 10
248.8461082091704
 20
112.7512565172752
 30
0.0
 10
248.9703834148403
 20
112.6346789175633
 30
0.0
 10
249.0323115144124
 20
112.5765866443385
 30
0.0
  0
CIRCLE
  5
15C
330
1F
100
AcDbEntity
  8
0
  6
HIDDEN
 62
     7
370
    18
100
AcDbCircle
 10
243.1069491924
 20
118.9201416242
 30
0.0
 40
2.399999999999991
  0
LINE
  5
15D
330
1F
100
AcDbEntity
  8
0
  6
HIDDEN
 62
     7
370
    18
100
AcDbLine
 10
249.032313539
 20
112.5765943821
 30
0.0
 11
249.4239356127
 21
112.9663170577
 31
0.0
  0
LINE
  5
15E
330
1F
100
AcDbEntity
  8
0
  6
HIDDEN
 62
     7
370
    18
100
AcDbLine
 10
236.1441012537
 20
126.3712320532
 30
0.0
 11
239.5509639048
 21
115.5660441767
 31
0.0
  0
ARC
  5
15F
330
1F
100
AcDbEntity
  8
0
  6
HIDDEN
 62
     7
370
    18
100
AcDbCircle
 10
237.3362474421
 20
126.7471143026
 30
0.0
 40
1.250000000000022
100
AcDbArc
 50
17.5
 51
197.5
  0
LINE
  5
160
330
1F
100
AcDbEntity
  8
0
  6
HIDDEN
 62
     7
370
    18
100
AcDbLine
 10
239.2796161032
 20
124.7404232625
 30
0.0
 11
238.5283936306
 21
127.122996552
 31
0.0
  0
LINE
  5
161
330
1F
100
AcDbEntity
  8
0
  6
HIDDEN
 62
     7
370
    18
100
AcDbLine
 10
246.4215806104
 20
122.4885705031
 30
0.0
 11
239.2796161032
 21
124.7404232625
 31
0.0
  0
LINE
  5
162
330
1F
100
AcDbEntity
  8
0
  6
HIDDEN
 62
     7
370
    18
100
AcDbLine
 10
249.4239355913
 20
112.9663170509
 30
0.0
 11
246.4215806104
 21
122.4885705031
 31
0.0
  0
LINE
  5
163
330
1F
100
AcDbEntity
  8
0
  6
HIDDEN
 62
     7
370
    18
100
AcDbLine
 10
239.5509639048
 20
115.5660441767
 30
0.0
 11
249.0323111695
 21
112.5765868672
 31
0.0
  0
CIRCLE
  5
164
330
1F
100
AcDbEntity
  8
0
  6
HIDDEN
 62
     7
370
    18
100
AcDbCircle
 10
243.1069491924
 20
118.9201416242
 30
0.0
 40
1.649999999999991
  0
LINE
  5
165
330
1F
100
AcDbEntity
  8
0
  6
HIDDEN
 62
     7
370
    18
100
AcDbLine
 10
148.7782303967
 20
141.6448075912
 30
0.0
 11
148.7782303967
 21
135.5904970236
 31
0.0
  0
LINE
  5
166
330
1F
100
AcDbEntity
  8
0
  6
HIDDEN
 62
     7
370
    18
100
AcDbLine
 10
183.0782303967
 20
141.2139398971
 30
0.0
 11
183.0782303967
 21
134.7287616354
 31
0.0
  0
LINE
  5
167
330
1F
100
AcDbEntity
  8
0
  6
HIDDEN
 62
     7
370
    18
100
AcDbLine
 10
183.0782303967
 20
178.7689592045
 30
0.0
 11
183.0782303967
 21
172.2837809428
 31
0.0
  0
LINE
  5
168
330
1F
100
AcDbEntity
  8
0
  6
HIDDEN
 62
     7
370
    18
100
AcDbLine
 10
148.7782303967
 20
177.9072238162
 30
0.0
 11
148.7782303967
 21
171.8529132487
 31
0.0
  0
LINE
  5
169
330
1F
100
AcDbEntity
  8
0
  6
HIDDEN
 62
     7
370
    18
100
AcDbLine
 10
147.2782303967
 20
177.0411984124
 30
0.0
 11
147.2782303967
 21
171.4199005468
 31
0.0
  0
SPLINE
  5
16A
330
1F
100
AcDbEntity
  8
0
  6
HIDDEN
 62
     7
370
    18
100
AcDbSpline
210
0.0
220
0.0
230
1.0
 70
     8
 71
     3
 72
    16
 73
    12
 74
     0
 42
0.000000001
 43
0.00000001
 40
0.0
 40
0.0
 40
0.0
 40
0.0
 40
0.2500000000000007
 40
0.2500000000000007
 40
0.3750000000000009
 40
0.3750000000000009
 40
0.5000000000000011
 40
0.5000000000000011
 40
0.7500000000000006
 40
0.7500000000000006
 40
1.0
 40
1.0
 40
1.0
 40
1.0
 10
183.956910053113
 20
140.164953793692
 30
0.0
 10
183.7956775756286
 20
139.4505596314999
 30
0.0
 10
183.6751977359889
 20
138.7972173687912
 30
0.0
 10
183.5528172186756
 20
137.9089621269873
 30
0.0
 10
183.5218395582782
 20
137.6282815906355
 30
0.0
 10
183.4802258206502
 20
137.0992476007955
 30
0.0
 10
183.4699899077174
 20
136.855926622217
 30
0.0
 10
183.4698015106613
 20
136.1879039317038
 30
0.0
 10
183.5099462132989
 20
135.8242230222843
 30
0.0
 10
183.6740999682385
 20
135.264332149736
 30
0.0
 10
183.7956516186481
 20
135.0768108576189
 30
0.0
 10
183.956910053113
 20
134.9787794649309
 30
0.0
  0
SPLINE
  5
16B
330
1F
100
AcDbEntity
  8
0
  6
HIDDEN
 62
     7
370
    18
100
AcDbSpline
210
0.0
220
0.0
230
1.0
 70
     8
 71
     3
 72
    16
 73
    12
 74
     0
 42
0.000000001
 43
0.00000001
 40
0.0
 40
0.0
 40
0.0
 40
0.0
 40
0.2500000000000003
 40
0.2500000000000003
 40
0.3750000000000003
 40
0.3750000000000003
 40
0.5000000000000002
 40
0.5000000000000002
 40
0.7500000000000001
 40
0.7500000000000001
 40
1.0
 40
1.0
 40
1.0
 40
1.0
 10
183.956910053113
 20
178.5189413749351
 30
0.0
 10
183.7956775756286
 20
178.4209257618804
 30
0.0
 10
183.6751977359889
 20
178.2341897302043
 30
0.0
 10
183.5528172186756
 20
177.8211499226455
 30
0.0
 10
183.5218395582782
 20
177.6611494234126
 30
0.0
 10
183.4802258206502
 20
177.2943437723214
 30
0.0
 10
183.4699899077174
 20
177.0910066196974
 30
0.0
 10
183.4698015106613
 20
176.4237193530707
 30
0.0
 10
183.5099462132989
 20
175.9029048891827
 30
0.0
 10
183.6740999682385
 20
174.705545873705
 30
0.0
 10
183.7956516186481
 20
174.047276219409
 30
0.0
 10
183.956910053113
 20
173.3327670461741
 30
0.0
  0
LINE
  5
16C
330
1F
100
AcDbEntity
  8
0
  6
HIDDEN
 62
     7
370
    18
100
AcDbLine
 10
147.2782303967
 20
142.0778202931
 30
0.0
 11
147.2782303967
 21
136.4565224274
 31
0.0
  0
CIRCLE
  5
16D
330
1F
100
AcDbEntity
  8
0
  6
HIDDEN
 62
     7
370
    18
100
AcDbCircle
 10
243.1069491924
 20
118.9201416242
 30
0.0
 40
1.649999999999991
  0
LINE
  5
16E
330
1F
100
AcDbEntity
  8
0
  6
HIDDEN
 62
     7
370
    18
100
AcDbLine
 10
147.2782303967
 20
171.4199005468
 30
0.0
 11
147.2782303967
 21
159.6508477529
 31
0.0
  0
LINE
  5
16F
330
1F
100
AcDbEntity
  8
0
  6
HIDDEN
 62
     7
370
    18
100
AcDbLine
 10
147.2782303967
 20
153.846873087
 30
0.0
 11
147.2782303967
 21
142.0778202931
 31
0.0
  0
LINE
  5
170
330
1F
100
AcDbEntity
  8
0
  6
HIDDEN
 62
     7
370
    18
100
AcDbLine
 10
148.7782303967
 20
152.7836495231
 30
0.0
 11
148.7782303967
 21
141.6448075912
 31
0.0
  0
LINE
  5
171
330
1F
100
AcDbEntity
  8
0
  6
HIDDEN
 62
     7
370
    18
100
AcDbLine
 10
148.7782303967
 20
171.8529132487
 30
0.0
 11
148.7782303967
 21
160.7140713168
 31
0.0
  0
LINE
  5
172
330
1F
100
AcDbEntity
  8
0
  6
HIDDEN
 62
     7
370
    18
100
AcDbLine
 10
185.0782303967
 20
171.7865675824
 30
0.0
 11
185.0782303967
 21
141.7111532574
 31
0.0
  0
LINE
  5
173
330
1F
100
AcDbEntity
  8
0
  6
HIDDEN
 62
     7
370
    18
100
AcDbLine
 10
183.0782303967
 20
172.2837809428
 30
0.0
 11
183.0782303967
 21
141.2139398971
 31
0.0
  0
SPLINE
  5
174
330
1F
100
AcDbEntity
  8
0
  6
HIDDEN
 62
     7
370
    18
100
AcDbSpline
210
0.0
220
0.0
230
1.0
 70
     8
 71
     3
 72
    24
 73
    20
 74
     0
 42
0.000000001
 43
0.00000001
 40
0.0
 40
0.0
 40
0.0
 40
0.0
 40
0.125
 40
0.125
 40
0.25
 40
0.25
 40
0.3750000000000001
 40
0.3750000000000001
 40
0.4375000000000001
 40
0.4375000000000001
 40
0.5
 40
0.5
 40
0.625
 40
0.625
 40
0.75
 40
0.75
 40
0.875
 40
0.875
 40
1.0
 40
1.0
 40
1.0
 40
1.0
 10
153.7282303966727
 20
152.6628993668338
 30
0.0
 10
153.9660340289478
 20
152.9619064691639
 30
0.0
 10
154.1961196901591
 20
153.2662443204826
 30
0.0
 10
154.6308730887689
 20
153.8919778578786
 30
0.0
 10
154.8358058810551
 20
154.2132025852061
 30
0.0
 10
155.2009078315538
 20
154.8851283559389
 30
0.0
 10
155.3627082173453
 20
155.2404435878178
 30
0.0
 10
155.534568421925
 20
155.7906748091702
 30
0.0
 10
155.5801536135851
 20
155.9770785941507
 30
0.0
 10
155.64262835316
 20
156.3572130962469
 30
0.0
 10
155.6592994989084
 20
156.5528828885328
 30
0.0
 10
155.6598205420849
 20
157.1313632672073
 30
0.0
 10
155.5953782411982
 20
157.509275106176
 30
0.0
 10
155.3655291478249
 20
158.2512431312745
 30
0.0
 10
155.2070084701618
 20
158.5999585914354
 30
0.0
 10
154.8427741402616
 20
159.2730509891686
 30
0.0
 10
154.636037900198
 20
159.5980034764102
 30
0.0
 10
154.1980999544577
 20
160.228927286872
 30
0.0
 10
153.9668272271781
 20
160.5348170272127
 30
0.0
 10
153.7282303966728
 20
160.8348214730322
 30
0.0
  0
LINE
  5
175
330
1F
100
AcDbEntity
  8
0
  6
HIDDEN
 62
     7
370
    18
100
AcDbLine
 10
153.7282303967
 20
152.6628993668
 30
0.0
 11
153.7282303967
 21
160.834821473
 31
0.0
  0
SPLINE
  5
176
330
1F
100
AcDbEntity
  8
0
  6
HIDDEN
 62
     7
370
    18
100
AcDbSpline
210
0.0
220
0.0
230
1.0
 70
     8
 71
     3
 72
     8
 73
     4
 74
     0
 42
0.000000001
 43
0.00000001
 40
0.0000249638557296
 40
0.0000249638557296
 40
0.0000249638557296
 40
0.0000249638557296
 40
0.0049776420541172
 40
0.0049776420541172
 40
0.0049776420541172
 40
0.0049776420541172
 10
148.7782303966727
 20
152.7836495230965
 30
0.0
 10
150.4282066311822
 20
152.7423702853283
 30
0.0
 10
152.0782079509273
 20
152.7021486040888
 30
0.0
 10
153.7282303966727
 20
152.6628993668338
 30
0.0
  0
SPLINE
  5
177
330
1F
100
AcDbEntity
  8
0
  6
HIDDEN
 62
     7
370
    18
100
AcDbSpline
210
0.0
220
0.0
230
1.0
 70
     8
 71
     3
 72
     8
 73
     4
 74
     0
 42
0.000000001
 43
0.00000001
 40
0.0000249631533153
 40
0.0000249631533153
 40
0.0000249631533153
 40
0.0000249631533153
 40
0.0049776413517029
 40
0.0049776413517029
 40
0.0049776413517029
 40
0.0049776413517029
 10
153.7282303966727
 20
160.8348214730323
 30
0.0
 10
152.0782079509272
 20
160.7955722357773
 30
0.0
 10
150.4282066311822
 20
160.7553505545378
 30
0.0
 10
148.7782303966727
 20
160.7140713167696
 30
0.0
  0
SPLINE
  5
178
330
1F
100
AcDbEntity
  8
0
  6
HIDDEN
 62
     7
370
    18
100
AcDbSpline
210
0.0
220
0.0
230
1.0
 70
     8
 71
     3
 72
     8
 73
     4
 74
     0
 42
0.000000001
 43
0.00000001
 40
0.0
 40
0.0
 40
0.0
 40
0.0
 40
1.0
 40
1.0
 40
1.0
 40
1.0
 10
147.2782303966704
 20
153.8468730869527
 30
0.0
 10
147.7449910080483
 20
153.4315098413296
 30
0.0
 10
148.2507385548283
 20
153.0869194120251
 30
0.0
 10
148.7782303966727
 20
152.7836495230965
 30
0.0
  0
SPLINE
  5
179
330
1F
100
AcDbEntity
  8
0
  6
HIDDEN
 62
     7
370
    18
100
AcDbSpline
210
0.0
220
0.0
230
1.0
 70
     8
 71
     3
 72
     8
 73
     4
 74
     0
 42
0.000000001
 43
0.00000001
 40
0.0
 40
0.0
 40
0.0
 40
0.0
 40
1.0
 40
1.0
 40
1.0
 40
1.0
 10
148.7782303966727
 20
160.7140713167696
 30
0.0
 10
148.2507385548292
 20
160.4108014278415
 30
0.0
 10
147.7449910080499
 20
160.0662109985375
 30
0.0
 10
147.2782303966727
 20
159.6508477529154
 30
0.0
  0
LINE
  5
17A
330
1F
100
AcDbEntity
  8
0
  6
HIDDEN
 62
     7
370
    18
100
AcDbLine
 10
147.2782303967
 20
153.846873087
 30
0.0
 11
147.2782303967
 21
159.6508477529
 31
0.0
  0
SPLINE
  5
17B
330
1F
100
AcDbEntity
  8
0
  6
HIDDEN
 62
     7
370
    18
100
AcDbSpline
210
0.0
220
0.0
230
1.0
 70
    11
 71
     3
 72
    72
 73
    68
 74
     0
 42
0.000000001
 43
0.00000001
 40
0.0
 40
0.0
 40
0.0
 40
0.0
 40
0.0312499999999999
 40
0.0312499999999999
 40
0.0624999999999998
 40
0.0624999999999998
 40
0.0937499999999997
 40
0.0937499999999997
 40
0.1249999999999996
 40
0.1249999999999996
 40
0.1562499999999997
 40
0.1562499999999997
 40
0.1874999999999998
 40
0.1874999999999998
 40
0.2187499999999998
 40
0.2187499999999998
 40
0.2499999999999999
 40
0.2499999999999999
 40
0.2812499999999999
 40
0.2812499999999999
 40
0.3125
 40
0.3125
 40
0.3437500000000001
 40
0.3437500000000001
 40
0.3750000000000002
 40
0.3750000000000002
 40
0.3906250000000002
 40
0.3906250000000002
 40
0.4062500000000003
 40
0.4062500000000003
 40
0.4375000000000004
 40
0.4375000000000004
 40
0.4687500000000006
 40
0.4687500000000006
 40
0.5000000000000007
 40
0.5000000000000007
 40
0.5312500000000008
 40
0.5312500000000008
 40
0.5625000000000009
 40
0.5625000000000009
 40
0.593750000000001
 40
0.593750000000001
 40
0.6250000000000011
 40
0.6250000000000011
 40
0.6562500000000011
 40
0.6562500000000011
 40
0.687500000000001
 40
0.687500000000001
 40
0.7187500000000009
 40
0.7187500000000009
 40
0.7500000000000008
 40
0.7500000000000008
 40
0.7812500000000007
 40
0.7812500000000007
 40
0.8125000000000006
 40
0.8125000000000006
 40
0.8437500000000004
 40
0.8437500000000004
 40
0.8750000000000003
 40
0.8750000000000003
 40
0.9062500000000003
 40
0.9062500000000003
 40
0.9375000000000002
 40
0.9375000000000002
 40
0.9687500000000001
 40
0.9687500000000001
 40
1.0
 40
1.0
 40
1.0
 40
1.0
 10
166.5893918254348
 20
159.3948719699904
 30
0.0
 10
166.7766069353718
 20
159.600049870233
 30
0.0
 10
166.9814595366374
 20
159.7836989528915
 30
0.0
 10
167.4243277334844
 20
160.1106538563868
 30
0.0
 10
167.6642831508027
 20
160.2544320645667
 30
0.0
 10
168.1598941335772
 20
160.4919494200126
 30
0.0
 10
168.4171604247317
 20
160.5872689849103
 30
0.0
 10
168.9505141925687
 20
160.7313545175448
 30
0.0
 10
169.224794332467
 20
160.7790905245144
 30
0.0
 10
169.7712228670466
 20
160.8246726650482
 30
0.0
 10
170.0457991855144
 20
160.8232389049759
 30
0.0
 10
170.5977663597851
 20
160.7703255968851
 30
0.0
 10
170.8683833223568
 20
160.7193558706809
 30
0.0
 10
171.394668493436
 20
160.5707492437373
 30
0.0
 10
171.6523000568436
 20
160.4724638729802
 30
0.0
 10
172.1482262215171
 20
160.2282105137945
 30
0.0
 10
172.3812098993087
 20
160.0851303827723
 30
0.0
 10
172.8175431746338
 20
159.7572718323035
 30
0.0
 10
173.022824428492
 20
159.5702781946032
 30
0.0
 10
173.3908587263522
 20
159.1608475747802
 30
0.0
 10
173.5523737163374
 20
158.9407421337958
 30
0.0
 10
173.8295313994846
 20
158.4689920523577
 30
0.0
 10
173.9459255789182
 20
158.2139755259165
 30
0.0
 10
174.1191996155648
 20
157.6927377025195
 30
0.0
 10
174.1776461700306
 20
157.4252535847386
 30
0.0
 10
174.2215108955065
 20
157.0133379254061
 30
0.0
 10
174.2286911121359
 20
156.8736306223306
 30
0.0
 10
174.2277230848404
 20
156.5975075668682
 30
0.0
 10
174.2197202954268
 20
156.4603310005375
 30
0.0
 10
174.1736475635144
 20
156.0513975592742
 30
0.0
 10
174.1127127310623
 20
155.7794713102699
 30
0.0
 10
173.9345925746538
 20
155.2562907938148
 30
0.0
 10
173.8190246633114
 20
155.0075787934515
 30
0.0
 10
173.5371778793721
 20
154.5346942684595
 30
0.0
 10
173.3703079339575
 20
154.3110850512274
 30
0.0
 10
173.0009823791587
 20
153.9064276630398
 30
0.0
 10
172.7961972228612
 20
153.7220140748702
 30
0.0
 10
172.351544275345
 20
153.3929880399758
 30
0.0
 10
172.1166951458342
 20
153.2518199639876
 30
0.0
 10
171.6232853833572
 20
153.0134104352071
 30
0.0
 10
171.3619984296525
 20
152.9156278788022
 30
0.0
 10
170.8312601491399
 20
152.7702998506121
 30
0.0
 10
170.5616204482426
 20
152.7220104604172
 30
0.0
 10
170.0138691084974
 20
152.6735952366305
 30
0.0
 10
169.7339650666388
 20
152.6740534222664
 30
0.0
 10
169.1868871588038
 20
152.7242052778686
 30
0.0
 10
168.9172820541164
 20
152.7733788449007
 30
0.0
 10
168.3861272974603
 20
152.9210533682077
 30
0.0
 10
168.1248324810167
 20
153.0202085325733
 30
0.0
 10
167.6325185028414
 20
153.26122130305
 30
0.0
 10
167.3985616272628
 20
153.4037094276747
 30
0.0
 10
166.9563930067323
 20
153.7351968566597
 30
0.0
 10
166.7511994756206
 20
153.922630484648
 30
0.0
 10
166.3855052592626
 20
154.3295342036985
 30
0.0
 10
166.2227346368743
 20
154.5507132783675
 30
0.0
 10
165.9417822061087
 20
155.0304606075827
 30
0.0
 10
165.8285783538352
 20
155.280472574393
 30
0.0
 10
165.6559696296962
 20
155.8005477844134
 30
0.0
 10
165.5963633470199
 20
156.0742792490432
 30
0.0
 10
165.53847157695
 20
156.6228968989417
 30
0.0
 10
165.53926111581
 20
156.8972367628333
 30
0.0
 10
165.6004515914264
 20
157.4459787139722
 30
0.0
 10
165.6615803151604
 20
157.7190440278293
 30
0.0
 10
165.8376600007903
 20
158.2392092765977
 30
0.0
 10
165.9539905957802
 20
158.4915284101567
 30
0.0
 10
166.2371918255209
 20
158.9679327515636
 30
0.0
 10
166.4021767154979
 20
159.1896940697479
 30
0.0
 10
166.5893918254348
 20
159.3948719699904
 30
0.0
  0
CIRCLE
  5
17C
330
1F
100
AcDbEntity
  8
0
  6
HIDDEN
 62
     7
370
    18
100
AcDbCircle
 10
169.7782303967
 20
156.7488604199
 30
0.0
 40
4.05000000000004
  0
CIRCLE
  5
17D
330
1F
100
AcDbEntity
  8
0
  6
HIDDEN
 62
     7
370
    18
100
AcDbCircle
 10
197.2782303967
 20
156.7488604199
 30
0.0
 40
2.0
  0
SPLINE
  5
17E
330
1F
100
AcDbEntity
  8
0
  6
HIDDEN
 62
     7
370
    18
100
AcDbSpline
210
0.0
220
0.0
230
1.0
 70
     8
 71
     3
 72
     9
 73
     5
 74
     0
 42
0.000000001
 43
0.00000001
 40
0.0
 40
0.0
 40
0.0
 40
0.0
 40
0.4987536893917395
 40
1.0
 40
1.0
 40
1.0
 40
1.0
 10
239.5561098112169
 20
132.8178024785267
 30
0.0
 10
239.5203448397704
 20
132.7153474600225
 30
0.0
 10
239.4486361542866
 20
132.5099253835878
 30
0.0
 10
239.3751600043616
 20
132.305128842178
 30
0.0
 10
239.338330355294
 20
132.202475331371
 30
0.0
  0
LINE
  5
17F
330
1F
100
AcDbEntity
  8
0
  6
HIDDEN
 62
     7
370
    18
100
AcDbLine
 10
232.010681127
 20
156.7488604199
 30
0.0
 11
239.5561142694
 21
132.8178038842
 31
0.0
  0
LINE
  5
180
330
1F
100
AcDbEntity
  8
0
  6
HIDDEN
 62
     7
370
    18
100
AcDbLine
 10
224.9505534495
 20
136.7389186452
 30
0.0
 11
239.3383343067
 21
132.2024687663
 31
0.0
  0
SPLINE
  5
181
330
1F
100
AcDbEntity
  8
0
  6
HIDDEN
 62
     7
370
    18
100
AcDbSpline
210
0.0
220
0.0
230
1.0
 70
     8
 71
     3
 72
     8
 73
     4
 74
     0
 42
0.000000001
 43
0.00000001
 40
0.0
 40
0.0
 40
0.0
 40
0.0
 40
1.0
 40
1.0
 40
1.0
 40
1.0
 10
224.9505534495197
 20
136.7389186452289
 30
0.0
 10
224.195137745869
 20
142.0563681425631
 30
0.0
 10
223.653677536787
 20
147.4065871849805
 30
0.0
 10
223.4768292349828
 20
152.8126503942303
 30
0.0
  0
LINE
  5
182
330
1F
100
AcDbEntity
  8
0
  6
HIDDEN
 62
     7
370
    18
100
AcDbLine
 10
203.2782303967
 20
144.4988604199
 30
0.0
 11
203.2782303967
 21
140.9989430145
 31
0.0
  0
LINE
  5
183
330
1F
100
AcDbEntity
  8
0
  6
HIDDEN
 62
     7
370
    18
100
AcDbLine
 10
209.2782303967
 20
141.0006512541
 30
0.0
 11
209.2782303967
 21
144.4988604199
 31
0.0
  0
LINE
  5
184
330
1F
100
AcDbEntity
  8
0
  6
HIDDEN
 62
     7
370
    18
100
AcDbLine
 10
185.2782303967
 20
132.4988604199
 30
0.0
 11
185.3711236155
 21
132.5917536387
 31
0.0
  0
LINE
  5
185
330
1F
100
AcDbEntity
  8
0
  6
HIDDEN
 62
     7
370
    18
100
AcDbLine
 10
185.3711236155
 20
180.9059672011
 30
0.0
 11
185.2782303967
 21
180.9988604199
 31
0.0
  0
ARC
  5
186
330
1F
100
AcDbEntity
  8
0
  6
HIDDEN
 62
     7
370
    18
100
AcDbCircle
 10
184.6640168343
 20
133.2988604199
 30
0.0
 40
1.000000000000028
100
AcDbArc
 50
315.0
 51
0.0
  0
ARC
  5
187
330
1F
100
AcDbEntity
  8
0
  6
HIDDEN
 62
     7
370
    18
100
AcDbCircle
 10
184.6640168343
 20
133.2988604199
 30
0.0
 40
1.0
100
AcDbArc
 50
0.0
 51
52.1052014664
  0
ARC
  5
188
330
1F
100
AcDbEntity
  8
0
  6
HIDDEN
 62
     7
370
    18
100
AcDbCircle
 10
184.6640168343
 20
180.1988604199
 30
0.0
 40
1.000000000000028
100
AcDbArc
 50
351.8087250651
 51
45.0
  0
ARC
  5
189
330
1F
100
AcDbEntity
  8
0
  6
HIDDEN
 62
     7
370
    18
100
AcDbCircle
 10
184.6640168343
 20
180.1988604199
 30
0.0
 40
1.000000000000002
100
AcDbArc
 50
307.8947985336
 51
351.8087250651
  0
LINE
  5
18A
330
1F
100
AcDbEntity
  8
0
  6
HIDDEN
 62
     7
370
    18
100
AcDbLine
 10
185.6640168343
 20
133.2988604199
 30
0.0
 11
185.6640168343
 21
180.1988604199
 31
0.0
  0
LINE
  5
18B
330
1F
100
AcDbEntity
  8
0
  6
HIDDEN
 62
     7
370
    18
100
AcDbLine
 10
185.6640168343
 20
133.2988604199
 30
0.0
 11
185.6640168343
 21
180.1988604199
 31
0.0
  0
LINE
  5
18C
330
1F
100
AcDbEntity
  8
0
  6
HIDDEN
 62
     7
370
    18
100
AcDbLine
 10
203.7782303967
 20
152.2528257798
 30
0.0
 11
203.7782303967
 21
144.6490755747
 31
0.0
  0
LINE
  5
18D
330
1F
100
AcDbEntity
  8
0
  6
HIDDEN
 62
     7
370
    18
100
AcDbLine
 10
208.7782303967
 20
148.5492200458
 30
0.0
 11
208.7782303967
 21
152.251186157
 31
0.0
  0
LINE
  5
18E
330
1F
100
AcDbEntity
  8
0
  6
HIDDEN
 62
     7
370
    18
100
AcDbLine
 10
208.7782303967
 20
144.6490755747
 30
0.0
 11
208.7782303967
 21
146.440261543
 31
0.0
  0
LINE
  5
18F
330
1F
100
AcDbEntity
  8
0
  6
HIDDEN
 62
     7
370
    18
100
AcDbLine
 10
216.7520667525
 20
142.5632369792
 30
0.0
 11
208.3867218081
 21
149.4442353234
 31
0.0
  0
LINE
  5
190
330
1F
100
AcDbEntity
  8
0
  6
HIDDEN
 62
     7
370
    18
100
AcDbLine
 10
206.0879774227
 20
144.8609014346
 30
0.0
 11
217.0976730331
 21
135.8047659412
 31
0.0
  0
LINE
  5
191
330
1F
100
AcDbEntity
  8
0
  6
HIDDEN
 62
     7
370
    18
100
AcDbLine
 10
147.2782303967
 20
140.5524315755
 30
0.0
 11
148.8084588363
 21
141.435909377
 31
0.0
  0
LINE
  5
192
330
1F
100
AcDbEntity
  8
0
  6
HIDDEN
 62
     7
370
    18
100
AcDbLine
 10
148.8084588363
 20
172.0618114628
 30
0.0
 11
147.2782303967
 21
172.9452892644
 31
0.0
  0
ARC
  5
193
330
1F
100
AcDbEntity
  8
0
  6
HIDDEN
 62
     7
370
    18
100
AcDbCircle
 10
158.2800317116
 20
142.7488604199
 30
0.0
 40
2.000000000000016
100
AcDbArc
 50
270.0
 51
315.0
  0
ARC
  5
194
330
1F
100
AcDbEntity
  8
0
  6
HIDDEN
 62
     7
370
    18
100
AcDbCircle
 10
158.2800317116
 20
170.7488604199
 30
0.0
 40
2.000000000000028
100
AcDbArc
 50
45.0
 51
90.0
  0
LINE
  5
195
330
1F
100
AcDbEntity
  8
0
  6
HIDDEN
 62
     7
370
    18
100
AcDbLine
 10
157.2782303967
 20
140.7488604199
 30
0.0
 11
158.2800317116
 21
140.7488604199
 31
0.0
  0
LINE
  5
196
330
1F
100
AcDbEntity
  8
0
  6
HIDDEN
 62
     7
370
    18
100
AcDbLine
 10
158.2800317116
 20
172.7488604199
 30
0.0
 11
157.2782303967
 21
172.7488604199
 31
0.0
  0
ARC
  5
197
330
1F
100
AcDbEntity
  8
0
  6
HIDDEN
 62
     7
370
    18
100
AcDbCircle
 10
157.2782303967
 20
142.7488604199
 30
0.0
 40
2.000000000000032
100
AcDbArc
 50
189.9742217944
 51
270.0
  0
ARC
  5
198
330
1F
100
AcDbEntity
  8
0
  6
HIDDEN
 62
     7
370
    18
100
AcDbCircle
 10
157.2782303967
 20
170.7488604199
 30
0.0
 40
2.000000000000032
100
AcDbArc
 50
90.0
 51
170.0257782056
  0
LINE
  5
199
330
1F
100
AcDbEntity
  8
0
  6
HIDDEN
 62
     7
370
    18
100
AcDbLine
 10
159.6942452739
 20
141.3346468576
 30
0.0
 11
161.1084588363
 21
142.7488604199
 31
0.0
  0
LINE
  5
19A
330
1F
100
AcDbEntity
  8
0
  6
HIDDEN
 62
     7
370
    18
100
AcDbLine
 10
161.1084588363
 20
170.7488604199
 30
0.0
 11
159.6942452739
 21
172.1630739823
 31
0.0
  0
LINE
  5
19B
330
1F
100
AcDbEntity
  8
0
  6
HIDDEN
 62
     7
370
    18
100
AcDbLine
 10
148.8084588363
 20
141.435909377
 30
0.0
 11
153.7084588363
 21
142.7488604199
 31
0.0
  0
LINE
  5
19C
330
1F
100
AcDbEntity
  8
0
  6
HIDDEN
 62
     7
370
    18
100
AcDbLine
 10
153.7084588363
 20
170.7488604199
 30
0.0
 11
148.8084588363
 21
172.0618114628
 31
0.0
  0
LINE
  5
19D
330
1F
100
AcDbEntity
  8
0
  6
HIDDEN
 62
     7
370
    18
100
AcDbLine
 10
155.3084588363
 20
171.0952705814
 30
0.0
 11
154.7084588363
 21
170.7488604199
 31
0.0
  0
LINE
  5
19E
330
1F
100
AcDbEntity
  8
0
  6
HIDDEN
 62
     7
370
    18
100
AcDbLine
 10
154.7084588363
 20
142.7488604199
 30
0.0
 11
155.3084588363
 21
142.4024502584
 31
0.0
  0
ARC
  5
19F
330
1F
100
AcDbEntity
  8
0
  6
HIDDEN
 62
     7
370
    18
100
AcDbCircle
 10
173.7782303967
 20
143.2488604199
 30
0.0
 40
0.5
100
AcDbArc
 50
270.0
 51
0.0
  0
ARC
  5
1A0
330
1F
100
AcDbEntity
  8
0
  6
HIDDEN
 62
     7
370
    18
100
AcDbCircle
 10
173.7782303967
 20
170.2488604199
 30
0.0
 40
0.5
100
AcDbArc
 50
0.0
 51
90.0
  0
LINE
  5
1A1
330
1F
100
AcDbEntity
  8
0
  6
HIDDEN
 62
     7
370
    18
100
AcDbLine
 10
161.1084588363
 20
142.7488604199
 30
0.0
 11
173.7782303967
 21
142.7488604199
 31
0.0
  0
LINE
  5
1A2
330
1F
100
AcDbEntity
  8
0
  6
HIDDEN
 62
     7
370
    18
100
AcDbLine
 10
173.7782303967
 20
170.7488604199
 30
0.0
 11
161.1084588363
 21
170.7488604199
 31
0.0
  0
LINE
  5
1A3
330
1F
100
AcDbEntity
  8
0
  6
HIDDEN
 62
     7
370
    18
100
AcDbLine
 10
153.7084588363
 20
142.7488604199
 30
0.0
 11
154.7084588363
 21
142.7488604199
 31
0.0
  0
LINE
  5
1A4
330
1F
100
AcDbEntity
  8
0
  6
HIDDEN
 62
     7
370
    18
100
AcDbLine
 10
154.7084588363
 20
170.7488604199
 30
0.0
 11
153.7084588363
 21
170.7488604199
 31
0.0
  0
LINE
  5
1A5
330
1F
100
AcDbEntity
  8
0
  6
HIDDEN
 62
     7
370
    18
100
AcDbLine
 10
174.2782303967
 20
146.4988604199
 30
0.0
 11
175.5282303967
 21
147.7488604199
 31
0.0
  0
LINE
  5
1A6
330
1F
100
AcDbEntity
  8
0
  6
HIDDEN
 62
     7
370
    18
100
AcDbLine
 10
175.5282303967
 20
165.7488604199
 30
0.0
 11
174.2782303967
 21
166.9988604199
 31
0.0
  0
LINE
  5
1A7
330
1F
100
AcDbEntity
  8
0
  6
HIDDEN
 62
     7
370
    18
100
AcDbLine
 10
212.2782303967
 20
165.7488604199
 30
0.0
 11
175.5282303967
 21
165.7488604199
 31
0.0
  0
LINE
  5
1A8
330
1F
100
AcDbEntity
  8
0
  6
HIDDEN
 62
     7
370
    18
100
AcDbLine
 10
175.5282303967
 20
147.7488604199
 30
0.0
 11
212.2782303967
 21
147.7488604199
 31
0.0
  0
LINE
  5
1A9
330
1F
100
AcDbEntity
  8
0
  6
HIDDEN
 62
     7
370
    18
100
AcDbLine
 10
212.2782303967
 20
147.7488604199
 30
0.0
 11
217.6859759679
 21
156.7488604199
 31
0.0
  0
LINE
  5
1AA
330
1F
100
AcDbEntity
  8
0
  6
HIDDEN
 62
     7
370
    18
100
AcDbLine
 10
217.6859759679
 20
156.7488604199
 30
0.0
 11
212.2782303967
 21
165.7488604199
 31
0.0
  0
ARC
  5
1AB
330
1F
100
AcDbEntity
  8
0
  6
HIDDEN
 62
     7
370
    18
100
AcDbCircle
 10
222.5109034087
 20
189.2488604199
 30
0.0
 40
1.0
100
AcDbArc
 50
270.0
 51
295.0995802003
  0
ARC
  5
1AC
330
1F
100
AcDbEntity
  8
0
  6
HIDDEN
 62
     7
370
    18
100
AcDbCircle
 10
222.5109034087
 20
124.2488604199
 30
0.0
 40
1.0
100
AcDbArc
 50
67.5244230154
 51
90.0
  0
LINE
  5
1AD
330
1F
100
AcDbEntity
  8
VERMASSUNG
  6
CENTERX2
100
AcDbLine
 10
144.3603761769
 20
156.7488604199
 30
0.0
 11
250.2782303967
 21
156.7488604199
 31
0.0
  0
LINE
  5
1AE
330
1F
100
AcDbEntity
  8
VERMASSUNG
  6
CENTERX2
100
AcDbLine
 10
250.2782303967
 20
111.7488604199
 30
0.0
 11
250.2782303967
 21
156.7488604199
 31
0.0
  0
LINE
  5
1AF
330
1F
100
AcDbEntity
  8
VERMASSUNG
  6
CENTERX2
100
AcDbLine
 10
250.2782303967
 20
111.7488604199
 30
0.0
 11
261.3858373805
 21
111.7488604199
 31
0.0
  0
DIMENSION
  5
1B0
330
1F
100
AcDbEntity
  8
VERMASSUNG
100
AcDbDimension
  2
_D
 10
250.2782303967
 20
93.3439442075
 30
0.0
 11
217.7782303967
 21
93.3439442075
 31
0.0
 70
   160
  1
<>
 71
     2
 42
-1.0
  3
SLDDIMSTYLE0
100
AcDbAlignedDimension
 13
185.2782303967
 23
125.7488604199
 33
0.0
 14
250.2782303967
 24
111.7488604199
 34
0.0
100
AcDbRotatedDimension
  0
DIMENSION
  5
1BD
330
1F
100
AcDbEntity
  8
VERMASSUNG
100
AcDbDimension
  2
_D_1
 10
268.619122505
 20
156.7488604199
 30
0.0
 11
268.619122505
 21
134.2488604199
 31
0.0
 70
   160
  1
<>
 71
     2
 42
-1.0
  3
SLDDIMSTYLE0
100
AcDbAlignedDimension
 13
250.2782303967
 23
111.7488604199
 33
0.0
 14
250.2782303967
 24
156.7488604199
 34
0.0
 50
90.0
100
AcDbRotatedDimension
  0
DIMENSION
  5
1C9
330
1F
100
AcDbEntity
  8
VERMASSUNG
100
AcDbDimension
  2
_D_2
 10
250.2782303967
 20
83.601218566
 30
0.0
 11
198.7782303967
 21
83.601218566
 31
0.0
 70
   160
  1
<>
 71
     2
 42
-1.0
  3
SLDDIMSTYLE1
100
AcDbAlignedDimension
 13
147.2782303967
 23
136.4565224274
 33
0.0
 14
250.2782303967
 24
111.7488604199
 34
0.0
100
AcDbRotatedDimension
  0
DIMENSION
  5
1D4
330
1F
100
AcDbEntity
  8
VERMASSUNG
100
AcDbDimension
  2
_D_3
 10
250.2623306635
 20
112.2608538193
 30
0.0
 11
258.4281425698
 21
122.6654586724
 31
0.0
 70
   162
  1
<>
 71
     1
 42
-1.0
  3
SLDDIMSTYLE2
100
AcDb2LineAngularDimension
 13
261.3858373805
 23
111.7488604199
 33
0.0
 14
250.2782303967
 24
111.7488604199
 34
0.0
 15
247.056353828
 25
122.4289132875
 35
0.0
 16
258.4281425698
 26
122.6654586724
 36
0.0
  0
DIMENSION
  5
1DF
330
1F
100
AcDbEntity
  8
VERMASSUNG
100
AcDbDimension
  2
_D_4
 10
250.2782303967
 20
156.7488604199
 30
0.0
 11
241.3674162474
 21
105.0696499993
 31
0.0
 70
   162
  1
<>
 71
     1
 42
-1.0
  3
SLDDIMSTYLE2
100
AcDb2LineAngularDimension
 13
239.5981775291
 23
114.9707369886
 33
0.0
 14
249.7662369973
 24
111.7647601531
 34
0.0
 15
250.2782303967
 25
111.7488604199
 35
0.0
 16
241.3674162474
 26
105.0696499993
 36
0.0
  0
DIMENSION
  5
1E8
330
1F
100
AcDbEntity
  8
VERMASSUNG
100
AcDbDimension
  2
_D_5
 10
137.2782303967
 20
125.2488604199
 30
0.0
 11
137.2782303967
 21
156.7488604199
 31
0.0
 70
   160
  1
PSC%%c<>
 71
     2
 42
-1.0
  3
SLDDIMSTYLE1
100
AcDbAlignedDimension
 13
185.7782303967
 23
188.2488604199
 33
0.0
 14
185.7782303967
 24
125.2488604199
 34
0.0
 50
90.0
100
AcDbRotatedDimension
  0
SPLINE
  5
1F4
330
1F
100
AcDbEntity
  8
0
  6
Continuous
 62
     7
370
    25
100
AcDbSpline
210
0.0
220
0.0
230
1.0
 70
     8
 71
     3
 72
    10
 73
     6
 74
     0
 42
0.000000001
 43
0.00000001
 40
0.0
 40
0.0
 40
0.0
 40
0.0
 40
0.3326244720041129
 40
0.667845302764954
 40
1.0
 40
1.0
 40
1.0
 40
1.0
 10
82.1325070384754
 20
111.7381977340698
 30
0.0
 10
82.57964441946542
 20
111.8106876007218
 30
0.0
 10
83.47740939083265
 20
111.956233166416
 30
0.0
 10
84.84177163889335
 20
112.1147517480439
 30
0.0
 10
85.7362120199347
 20
112.2660726795458
 30
0.0
 10
86.18137753994073
 20
112.3413855372696
 30
0.0
  0
LINE
  5
1F5
330
1F
100
AcDbEntity
  8
0
  6
Continuous
 62
     7
370
    25
100
AcDbLine
 10
82.4804757896
 20
125.8669777775
 30
0.0
 11
82.1325070385
 21
125.9207038198
 31
0.0
  0
LINE
  5
1F6
330
1F
100
AcDbEntity
  8
0
  6
Continuous
 62
     7
370
    25
100
AcDbLine
 10
82.1802707691
 20
117.2594172485
 30
0.0
 11
82.1804757894
 21
117.2594172485
 31
0.0
  0
SPLINE
  5
1F7
330
1F
100
AcDbEntity
  8
0
  6
Continuous
 62
     7
370
    25
100
AcDbSpline
210
0.0
220
0.0
230
1.0
 70
     8
 71
     3
 72
    29
 73
    25
 74
     0
 42
0.000000001
 43
0.00000001
 40
0.0
 40
0.0
 40
0.0
 40
0.0
 40
0.01445249695017
 40
0.028928085542506
 40
0.0434301320473565
 40
0.0579619843483366
 40
0.0871122666421369
 40
0.1164080124803344
 40
0.1753832827713527
 40
0.2349371575333909
 40
0.2951049736833067
 40
0.3559143900544886
 40
0.4173852947380721
 40
0.4795298232350012
 40
0.5423524724785067
 40
0.605850296413136
 40
0.670013172290968
 40
0.7348241259083969
 40
0.8002597026406986
 40
0.8662903722079492
 40
0.8995144990466869
 40
0.9328854470792849
 40
0.9663688265432316
 40
1.0
 40
1.0
 40
1.0
 40
1.0
 10
86.15047393711411
 20
112.9663167415402
 30
0.0
 10
86.32269717243501
 20
112.9948141141732
 30
0.0
 10
86.66741881471924
 20
113.0518543914419
 30
0.0
 10
87.1827641366438
 20
113.1471940246321
 30
0.0
 10
87.69730135039508
 20
113.2497658367146
 30
0.0
 10
88.38268522503064
 20
113.3972248988428
 30
0.0
 10
89.23712676975126
 20
113.6010362882301
 30
0.0
 10
90.5994119535852
 20
113.96886651397
 30
0.0
 10
92.28913824122043
 20
114.5062036960817
 30
0.0
 10
94.28412748634065
 20
115.2705790505265
 30
0.0
 10
96.24598958151184
 20
116.153970897108
 30
0.0
 10
98.16931309943105
 20
117.1539292799742
 30
0.0
 10
100.04886259123
 20
118.2676994302693
 30
0.0
 10
101.8795067271465
 20
119.4922154472187
 30
0.0
 10
103.6562547505086
 20
120.8241124020246
 30
0.0
 10
105.3742629848906
 20
122.259735422
 30
0.0
 10
107.0288503464022
 20
123.7951452383678
 30
0.0
 10
108.615505215261
 20
125.4261469983446
 30
0.0
 10
110.1299158834678
 20
127.1482324027201
 30
0.0
 10
111.3256543071389
 20
128.6521562011705
 30
0.0
 10
112.2427047102115
 20
129.8959104412641
 30
0.0
 10
112.9109238690595
 20
130.8506764211854
 30
0.0
 10
113.5599649547384
 20
131.8236865558808
 30
0.0
 10
113.9733314815792
 20
132.4859429103458
 30
0.0
 10
114.1804698854038
 20
132.817800270048
 30
0.0
  0
SPLINE
  5
1F8
330
1F
100
AcDbEntity
  8
0
  6
Continuous
 62
     7
370
    25
100
AcDbSpline
210
0.0
220
0.0
230
1.0
 70
    24
 71
     3
 72
     9
 73
     5
 74
     0
 42
0.000000001
 43
0.00000001
 40
0.0
 40
0.0
 40
0.0
 40
0.0
 40
0.4987536893917395
 40
1.0
 40
1.0
 40
1.0
 40
1.0
 10
114.180475789588
 20
132.8178024785268
 30
0.0
 10
114.180475789588
 20
132.7153474600225
 30
0.0
 10
114.180475789588
 20
132.5099253835879
 30
0.0
 10
114.180475789588
 20
132.305128842178
 30
0.0
 10
114.180475789588
 20
132.202475331371
 30
0.0
  0
SPLINE
  5
1F9
330
1F
100
AcDbEntity
  8
0
  6
Continuous
 62
     7
370
    25
100
AcDbSpline
210
0.0
220
0.0
230
1.0
 70
     8
 71
     3
 72
    28
 73
    24
 74
     0
 42
0.000000001
 43
0.00000001
 40
0.0
 40
0.0
 40
0.0
 40
0.0
 40
0.017025449917712
 40
0.0338726649805409
 40
0.0505417830509974
 40
0.0670329464595155
 40
0.1006116793650518
 40
0.1335500353738501
 40
0.1995096539855917
 40
0.2648830010955904
 40
0.3296423422796587
 40
0.3937658152074789
 40
0.4572378078218989
 40
0.5200493021994507
 40
0.5821981730013063
 40
0.6436894321832868
 40
0.7647094482779396
 40
0.8245876294612091
 40
0.8833895402974987
 40
0.9127756517567883
 40
0.9419316810876459
 40
0.971063732172444
 40
1.0
 40
1.0
 40
1.0
 40
1.0
 10
114.1804750129735
 20
132.2024666553387
 30
0.0
 10
114.0751387160848
 20
132.0357452720516
 30
0.0
 10
113.8655688596614
 20
131.7040478667865
 30
0.0
 10
113.5453228374186
 20
131.2137606035026
 30
0.0
 10
113.223075184376
 20
130.7320804056916
 30
0.0
 10
112.785207605747
 20
130.0942986460456
 30
0.0
 10
112.2262650383579
 20
129.3105147466214
 30
0.0
 10
111.3038844078066
 20
128.0808055763538
 30
0.0
 10
110.1042578193477
 20
126.5963674000456
 30
0.0
 10
108.5847475481027
 20
124.89436959781
 30
0.0
 10
106.9945189403274
 20
123.2826625929933
 30
0.0
 10
105.3378321087919
 20
121.7655903934202
 30
0.0
 10
103.619089511629
 20
120.3472080489927
 30
0.0
 10
101.8429105868867
 20
119.031335834806
 30
0.0
 10
100.0139026571174
 20
117.8214550949745
 30
0.0
 10
97.52536680790422
 20
116.3620722791782
 30
0.0
 10
94.93349678311564
 20
115.1147123556999
 30
0.0
 10
92.26762037347635
 20
114.1020714761898
 30
0.0
 10
90.58219572099159
 20
113.5702412695805
 30
0.0
 10
89.22702405904045
 20
113.2064775794967
 30
0.0
 10
88.20529539249054
 20
112.9645414844462
 30
0.0
 10
87.1811031561404
 20
112.7512565172752
 30
0.0
 10
86.49324445603065
 20
112.6346789175633
 30
0.0
 10
86.15047469884286
 20
112.5765866443385
 30
0.0
  0
LINE
  5
1FA
330
1F
100
AcDbEntity
  8
0
  6
Continuous
 62
     7
370
    25
100
AcDbLine
 10
86.1504757896
 20
122.4885705031
 30
0.0
 11
84.6504757896
 21
122.42096029
 31
0.0
  0
LINE
  5
1FB
330
1F
100
AcDbEntity
  8
0
  6
Continuous
 62
     7
370
    25
100
AcDbLine
 10
84.6504757896
 20
122.42096029
 30
0.0
 11
82.4804757896
 21
122.6333627652
 31
0.0
  0
LINE
  5
1FC
330
1F
100
AcDbEntity
  8
0
  6
Continuous
 62
     7
370
    25
100
AcDbLine
 10
82.4804757896
 20
122.6333627652
 30
0.0
 11
82.4804757896
 21
188.747454139
 31
0.0
  0
ARC
  5
1FD
330
1F
100
AcDbEntity
  8
0
  6
Continuous
 62
     7
370
    25
100
AcDbCircle
 10
82.1804757896
 20
156.7488604199
 30
0.0
 40
32.00000000000051
100
AcDbArc
 50
0.0
 51
89.4628441984
  0
LINE
  5
1FE
330
1F
100
AcDbEntity
  8
0
  6
Continuous
 62
     7
370
    25
100
AcDbLine
 10
114.1804757896
 20
156.7488604199
 30
0.0
 11
114.1804757896
 21
132.8178038842
 31
0.0
  0
LINE
  5
1FF
330
1F
100
AcDbEntity
  8
0
  6
Continuous
 62
     7
370
    25
100
AcDbLine
 10
86.1504757896
 20
122.2490903516
 30
0.0
 11
86.1504757896
 21
122.4885705031
 31
0.0
  0
SPLINE
  5
200
330
1F
100
AcDbEntity
  8
0
  6
Continuous
 62
     7
370
    25
100
AcDbSpline
210
0.0
220
0.0
230
1.0
 70
     8
 71
     3
 72
     9
 73
     5
 74
     0
 42
0.000000001
 43
0.00000001
 40
0.0
 40
0.0
 40
0.0
 40
0.0
 40
0.6518647942524176
 40
1.0
 40
1.0
 40
1.0
 40
1.0
 10
81.99200814253264
 20
125.2494242353596
 30
0.0
 10
82.0403179273373
 20
125.2423051806408
 30
0.0
 10
82.11442805758303
 20
125.2313841203508
 30
0.0
 10
82.1634199774757
 20
125.129085084815
 30
0.0
 10
82.1804757895875
 20
125.0934711890309
 30
0.0
  0
SPLINE
  5
201
330
1F
100
AcDbEntity
  8
0
  6
Continuous
 62
     7
370
    25
100
AcDbSpline
210
0.0
220
0.0
230
1.0
 70
     8
 71
     3
 72
    14
 73
    10
 74
     0
 42
0.000000001
 43
0.00000001
 40
0.0
 40
0.0
 40
0.0
 40
0.0
 40
0.25
 40
0.25
 40
0.5
 40
0.5
 40
0.75
 40
0.75
 40
1.0
 40
1.0
 40
1.0
 40
1.0
 10
78.03339006020329
 20
125.5230428973584
 30
0.0
 10
78.47026818783739
 20
125.4650213244313
 30
0.0
 10
78.88698659642945
 20
125.418974752983
 30
0.0
 10
79.68062142239738
 20
125.3456832699622
 30
0.0
 10
80.06014580286757
 20
125.3184535626622
 30
0.0
 10
80.74103708041142
 20
125.2799187366052
 30
0.0
 10
81.04789346135823
 20
125.26807365811
 30
0.0
 10
81.58686771141792
 20
125.25330029913
 30
0.0
 10
81.81180025665944
 20
125.2505024564437
 30
0.0
 10
81.99200814253264
 20
125.2494242353596
 30
0.0
  0
SPLINE
  5
202
330
1F
100
AcDbEntity
  8
0
  6
Continuous
 62
     7
370
    25
100
AcDbSpline
210
0.0
220
0.0
230
1.0
 70
     8
 71
     3
 72
    14
 73
    10
 74
     0
 42
0.000000001
 43
0.00000001
 40
0.0
 40
0.0
 40
0.0
 40
0.0
 40
0.25
 40
0.25
 40
0.5
 40
0.5
 40
0.75
 40
0.75
 40
1.0
 40
1.0
 40
1.0
 40
1.0
 10
81.99200814253264
 20
188.2482966045065
 30
0.0
 10
81.8117965662651
 20
188.247218361342
 30
0.0
 10
81.5878957219438
 20
188.2444097267951
 30
0.0
 10
81.0560133925358
 20
188.2299080771373
 30
0.0
 10
80.74401909030968
 20
188.2179360614447
 30
0.0
 10
80.0635482585212
 20
188.1794943207677
 30
0.0
 10
79.69228747656923
 20
188.1530217222875
 30
0.0
 10
78.88963827842046
 20
188.0790825171418
 30
0.0
 10
78.47029540305132
 20
188.0327031298742
 30
0.0
 10
78.03339006020329
 20
187.9746779425078
 30
0.0
  0
SPLINE
  5
203
330
1F
100
AcDbEntity
  8
0
  6
Continuous
 62
     7
370
    25
100
AcDbSpline
210
0.0
220
0.0
230
1.0
 70
     8
 71
     3
 72
    12
 73
     8
 74
     0
 42
0.000000001
 43
0.00000001
 40
0.0
 40
0.0
 40
0.0
 40
0.0
 40
0.4999999999999956
 40
0.4999999999999956
 40
0.7499999999999978
 40
0.7499999999999978
 40
1.0
 40
1.0
 40
1.0
 40
1.0
 10
82.28858923194078
 20
188.7486777863426
 30
0.0
 10
82.26519674997645
 20
188.5924197504629
 30
0.0
 10
82.22816321578648
 20
188.4628115013082
 30
0.0
 10
82.15299851401576
 20
188.3346685829164
 30
0.0
 10
82.124341799295
 20
188.3020476446808
 30
0.0
 10
82.0618900312618
 20
188.2591339047347
 30
0.0
 10
82.02824931213657
 20
188.2485134429261
 30
0.0
 10
81.99200814253264
 20
188.2482966045065
 30
0.0
  0
SPLINE
  5
204
330
1F
100
AcDbEntity
  8
0
  6
Continuous
 62
     7
370
    25
100
AcDbSpline
210
0.0
220
0.0
230
1.0
 70
     8
 71
     3
 72
     8
 73
     4
 74
     0
 42
0.000000001
 43
0.00000001
 40
0.0
 40
0.0
 40
0.0
 40
0.0
 40
1.0
 40
1.0
 40
1.0
 40
1.0
 10
82.2885892319406
 20
188.7486777863434
 30
0.0
 10
82.41607682294027
 20
188.7482470613126
 30
0.0
 10
82.48047578958814
 20
188.7474541390332
 30
0.0
 10
82.48047578958813
 20
188.7474541390332
 30
0.0
  0
ELLIPSE
  5
205
330
1F
100
AcDbEntity
  8
0
  6
Continuous
 62
     7
370
    25
100
AcDbEllipse
 10
69.965564013
 20
139.1840014602
 30
0.0
 11
-2.156649216541979
 21
3.149035452977273
 31
0.0
210
0.0
220
0.0
230
1.0
 40
0.6401414518
 41
0.0
 42
6.283185307179586
  0
ARC
  5
206
330
1F
100
AcDbEntity
  8
0
  6
Continuous
 62
     7
370
    25
100
AcDbCircle
 10
82.1804757896
 20
156.7488604199
 30
0.0
 40
31.5
100
AcDbArc
 50
97.5651530928
 51
262.4348469072
  0
LINE
  5
207
330
1F
100
AcDbEntity
  8
0
  6
Continuous
 62
     7
370
    25
100
AcDbLine
 10
86.1504757896
 20
112.4646274304
 30
0.0
 11
86.1504757896
 21
122.1881516045
 31
0.0
  0
LINE
  5
208
330
1F
100
AcDbEntity
  8
0
  6
Continuous
 62
     7
370
    25
100
AcDbLine
 10
82.1804757896
 20
112.2608538193
 30
0.0
 11
82.1804757896
 21
122.4289132875
 31
0.0
  0
SPLINE
  5
209
330
1F
100
AcDbEntity
  8
0
  6
Continuous
 62
     7
370
    25
100
AcDbSpline
210
0.0
220
0.0
230
1.0
 70
    24
 71
     3
 72
    14
 73
    10
 74
     0
 42
0.000000001
 43
0.00000001
 40
0.0
 40
0.0
 40
0.0
 40
0.0
 40
0.1583203796596171
 40
0.3168008057739541
 40
0.4713744813487981
 40
0.622125906900547
 40
0.772126273174429
 40
0.92459223666997
 40
1.0
 40
1.0
 40
1.0
 40
1.0
 10
86.15047578958749
 20
112.4646274304367
 30
0.0
 10
86.1504757895872
 20
112.4533386426152
 30
0.0
 10
86.15047578958664
 20
112.4307496551092
 30
0.0
 10
86.1504757895877
 20
112.3965019761307
 30
0.0
 10
86.15047578958743
 20
112.3673680848986
 30
0.0
 10
86.1504757895875
 20
112.3462671321958
 30
0.0
 10
86.15047578958747
 20
112.3351699395343
 30
0.0
 10
86.15047578958749
 20
112.3345151441536
 30
0.0
 10
86.15047578958749
 20
112.3387265489272
 30
0.0
 10
86.15047578958749
 20
112.3401201831073
 30
0.0
  0
SPLINE
  5
20A
330
1F
100
AcDbEntity
  8
0
  6
Continuous
 62
     7
370
    25
100
AcDbSpline
210
0.0
220
0.0
230
1.0
 70
    24
 71
     3
 72
    13
 73
     9
 74
     0
 42
0.000000001
 43
0.00000001
 40
0.0
 40
0.0
 40
0.0
 40
0.0
 40
0.1669820828722415
 40
0.3557325914729819
 40
0.5407559635091395
 40
0.7250336016007104
 40
0.9118277034701597
 40
1.0
 40
1.0
 40
1.0
 40
1.0
 10
82.18047578958748
 20
111.7498777122304
 30
0.0
 10
82.1804757895875
 20
111.7552986173918
 30
0.0
 10
82.18047578958755
 20
111.7668471177339
 30
0.0
 10
82.18047578958713
 20
111.838108756512
 30
0.0
 10
82.18047578958758
 20
111.9416193910603
 30
0.0
 10
82.18047578958745
 20
112.067428579304
 30
0.0
 10
82.18047578958748
 20
112.1780632829976
 30
0.0
 10
82.18047578958748
 20
112.2407517706737
 30
0.0
 10
82.18047578958748
 20
112.2608538193478
 30
0.0
  0
SPLINE
  5
20B
330
1F
100
AcDbEntity
  8
0
  6
Continuous
 62
     7
370
    25
100
AcDbSpline
210
0.0
220
0.0
230
1.0
 70
    24
 71
     3
 72
    10
 73
     6
 74
     0
 42
0.000000001
 43
0.00000001
 40
0.0
 40
0.0
 40
0.0
 40
0.0
 40
0.2657122957245908
 40
0.6165157621681908
 40
1.0
 40
1.0
 40
1.0
 40
1.0
 10
86.15047578958752
 20
122.2529659750032
 30
0.0
 10
86.15047578958738
 20
122.2498233118113
 30
0.0
 10
86.15047578958708
 20
122.2425315852928
 30
0.0
 10
86.15047578958763
 20
122.2207974960487
 30
0.0
 10
86.15047578958755
 20
122.1993517289251
 30
0.0
 10
86.15047578958752
 20
122.1881516044886
 30
0.0
  0
SPLINE
  5
20C
330
1F
100
AcDbEntity
  8
0
  6
Continuous
 62
     7
370
    25
100
AcDbSpline
210
0.0
220
0.0
230
1.0
 70
    24
 71
     3
 72
    10
 73
     6
 74
     0
 42
0.000000001
 43
0.00000001
 40
0.0
 40
0.0
 40
0.0
 40
0.0
 40
0.3518022785810137
 40
0.7034245935032243
 40
1.0
 40
1.0
 40
1.0
 40
1.0
 10
82.1804757895875
 20
122.4289132874768
 30
0.0
 10
82.1804757895875
 20
122.4700873450191
 30
0.0
 10
82.1804757895875
 20
122.5524143976077
 30
0.0
 10
82.1804757895875
 20
122.6424780873516
 30
0.0
 10
82.1804757895875
 20
122.6738230419924
 30
0.0
 10
82.1804757895875
 20
122.6881645651991
 30
0.0
  0
LINE
  5
20D
330
1F
100
AcDbEntity
  8
0
  6
Continuous
 62
     7
370
    25
100
AcDbLine
 10
82.1804757896
 20
122.6881645652
 30
0.0
 11
82.1804757896
 21
125.8941414007
 31
0.0
  0
LINE
  5
20E
330
1F
100
AcDbEntity
  8
0
  6
Continuous
 62
     7
370
    25
100
AcDbLine
 10
82.1804757895
 20
122.4289132875
 30
0.0
 11
82.1804757895
 21
122.6881645652
 31
0.0
  0
CIRCLE
  5
20F
330
1F
100
AcDbEntity
  8
VERMASSUNG
  6
CENTERX2
100
AcDbCircle
 10
82.1804757896
 20
151.6634336315
 30
0.0
 40
40.0
  0
DIMENSION
  5
210
330
1F
100
AcDbEntity
  8
VERMASSUNG
100
AcDbDimension
  2
_D_6
 10
53.8962045421
 20
123.379162384
 30
0.0
 11
45.5409965312
 21
115.0239543731
 31
0.0
 70
   160
  1
%%c<> min. 
 71
     2
 42
-1.0
  3
SLDDIMSTYLE3
100
AcDbAlignedDimension
 13
110.4647470371
 23
179.9477048789
 33
0.0
 14
53.8962045421
 24
123.379162384
 34
0.0
 50
45.0
100
AcDbRotatedDimension
  0
INSERT
  5
22A
330
1F
100
AcDbEntity
  8
VERMASSUNG
100
AcDbBlockReference
  2
SW_CENTERMARKSYMBOL_0
 10
82.1804757896
 20
156.7488604199
 30
0.0
  0
ARC
  5
22B
330
1F
100
AcDbEntity
  8
0
  6
Continuous
 62
     7
370
    25
100
AcDbCircle
 10
164.8953084072
 20
55.0541344984
 30
0.0
 40
1.250000000000007
100
AcDbArc
 50
143.2028107528
 51
187.2277565647
  0
ARC
  5
22C
330
1F
100
AcDbEntity
  8
0
  6
Continuous
 62
     7
370
    25
100
AcDbCircle
 10
164.8953084072
 20
55.0541344984
 30
0.0
 40
1.250000000000002
100
AcDbArc
 50
62.973586428
 51
143.2028107528
  0
LINE
  5
22D
330
1F
100
AcDbEntity
  8
0
  6
Continuous
 62
     7
370
    25
100
AcDbLine
 10
165.6825475882
 20
29.3851780855
 30
0.0
 11
170.3793839723
 21
24.1765773349
 31
0.0
  0
LINE
  5
22E
330
1F
100
AcDbEntity
  8
0
  6
Continuous
 62
     7
370
    25
100
AcDbLine
 10
173.0541881074
 20
64.4513663524
 30
0.0
 11
170.3457496601
 21
66.0149145869
 31
0.0
  0
LINE
  5
22F
330
1F
100
AcDbEntity
  8
0
  6
Continuous
 62
     7
370
    25
100
AcDbLine
 10
180.4046499733
 20
60.2080350391
 30
0.0
 11
175.7690391965
 21
62.8841161785
 31
0.0
  0
LINE
  5
230
330
1F
100
AcDbEntity
  8
0
  6
Continuous
 62
     7
370
    25
100
AcDbLine
 10
160.0203191575
 20
35.6035770135
 30
0.0
 11
163.6409703708
 21
33.5134195583
 31
0.0
  0
LINE
  5
231
330
1F
100
AcDbEntity
  8
0
  6
Continuous
 62
     7
370
    25
100
AcDbLine
 10
154.5970296211
 20
38.7343754219
 30
0.0
 11
157.3054680684
 21
37.1708271874
 31
0.0
  0
SPLINE
  5
232
330
1F
100
AcDbEntity
  8
0
  6
Continuous
 62
     7
370
    25
100
AcDbSpline
210
0.0
220
0.0
230
1.0
 70
     8
 71
     3
 72
    32
 73
    28
 74
     0
 42
0.000000001
 43
0.00000001
 40
0.0
 40
0.0
 40
0.0
 40
0.0
 40
0.0279882600938113
 40
0.0690850818790162
 40
0.1102786587949085
 40
0.1515364050204361
 40
0.1928301130267118
 40
0.2341388714317983
 40
0.2754465189795266
 40
0.3167457449075356
 40
0.3580336133067448
 40
0.399309486626831
 40
0.4405741372157044
 40
0.4818291633561455
 40
0.5230766258721948
 40
0.5643188334365872
 40
0.6055582231763195
 40
0.6467972992483331
 40
0.6880381534818221
 40
0.7292829544641104
 40
0.7705342764444271
 40
0.8117946709856949
 40
0.8530666000253222
 40
0.8943523063899682
 40
0.9356535809674738
 40
0.9769713680408203
 40
1.0
 40
1.0
 40
1.0
 40
1.0
 10
166.8442439816906
 20
66.74500280298092
 30
0.0
 10
166.6527917674738
 20
66.73101473091089
 30
0.0
 10
166.1802189154725
 20
66.69648714323489
 30
0.0
 10
165.3980285419708
 20
66.53171270236028
 30
0.0
 10
164.5078374834477
 20
66.26668525356098
 30
0.0
 10
163.6031196795084
 20
65.90538632223043
 30
0.0
 10
162.6913642002942
 20
65.45494857900877
 30
0.0
 10
161.7784354179548
 20
64.91731805685971
 30
0.0
 10
160.8705423198542
 20
64.29660269801496
 30
0.0
 10
159.9736584459803
 20
63.597011744371
 30
0.0
 10
159.0936407329845
 20
62.82332827354714
 30
0.0
 10
158.2362007251544
 20
61.98074859090111
 30
0.0
 10
157.4068990349539
 20
61.07489606738729
 30
0.0
 10
156.6111156884245
 20
60.11178045198451
 30
0.0
 10
155.8540210592562
 20
59.09776697855202
 30
0.0
 10
155.1405444855474
 20
58.03953828926389
 30
0.0
 10
154.4753432778409
 20
56.94405382917607
 30
0.0
 10
153.8627747505666
 20
55.81850987143866
 30
0.0
 10
153.3068676195908
 20
54.67029359457059
 30
0.0
 10
152.8112907379854
 20
53.50692928333567
 30
0.0
 10
152.3793402141601
 20
52.3360304311331
 30
0.0
 10
152.0138807145948
 20
51.16522610370568
 30
0.0
 10
151.7174854608078
 20
50.00220492340901
 30
0.0
 10
151.4918523141963
 20
48.85433341933339
 30
0.0
 10
151.3399342888674
 20
47.72985942713775
 30
0.0
 10
151.2700579217294
 20
46.79516416574909
 30
0.0
 10
151.2635600311945
 20
46.24454175664599
 30
0.0
 10
151.2612345322486
 20
46.04748213781464
 30
0.0
  0
SPLINE
  5
233
330
1F
100
AcDbEntity
  8
0
  6
Continuous
 62
     7
370
    25
100
AcDbSpline
210
0.0
220
0.0
230
1.0
 70
     8
 71
     3
 72
    13
 73
     9
 74
     0
 42
0.000000001
 43
0.00000001
 40
0.0
 40
0.0
 40
0.0
 40
0.0
 40
0.1056590365004232
 40
0.3063305396703918
 40
0.5070729592705183
 40
0.7077505164183494
 40
0.9082507321468811
 40
1.0
 40
1.0
 40
1.0
 40
1.0
 10
151.2612345322486
 20
46.04748213781464
 30
0.0
 10
151.2633140055002
 20
45.86360813230113
 30
0.0
 10
151.2693428903405
 20
45.33051389629524
 30
0.0
 10
151.3367787584919
 20
44.48203456701049
 30
0.0
 10
151.4866573325817
 20
43.52306515580668
 30
0.0
 10
151.7155338959947
 20
42.62673748251822
 30
0.0
 10
151.9503277191053
 20
41.93232350482068
 30
0.0
 10
152.1344939376036
 20
41.56512368499158
 30
0.0
 10
152.1923113732527
 20
41.44984438932876
 30
0.0
  0
LINE
  5
234
330
1F
100
AcDbEntity
  8
0
  6
Continuous
 62
     7
370
    25
100
AcDbLine
 10
143.1101295027
 20
50.7347378939
 30
0.0
 11
151.2680879616
 21
45.684458093
 31
0.0
  0
LINE
  5
235
330
1F
100
AcDbEntity
  8
0
  6
Continuous
 62
     7
370
    25
100
AcDbLine
 10
161.6239063184
 20
64.797248816
 30
0.0
 11
153.6063844987
 21
69.1024346273
 31
0.0
  0
LINE
  5
236
330
1F
100
AcDbEntity
  8
0
  6
Continuous
 62
     7
370
    25
100
AcDbLine
 10
150.9170149343
 20
69.6926911597
 30
0.0
 11
150.2774644818
 21
69.6054800942
 31
0.0
  0
LINE
  5
237
330
1F
100
AcDbEntity
  8
0
  6
Continuous
 62
     7
370
    25
100
AcDbLine
 10
141.9468784361
 20
52.4707799474
 30
0.0
 11
142.1911827289
 21
51.8733303982
 31
0.0
  0
LINE
  5
238
330
1F
100
AcDbEntity
  8
0
  6
Continuous
 62
     7
370
    25
100
AcDbLine
 10
171.76735219
 20
31.283159807
 30
0.0
 11
172.026407101
 21
32.9197795763
 31
0.0
  0
LINE
  5
239
330
1F
100
AcDbEntity
  8
0
  6
Continuous
 62
     7
370
    25
100
AcDbLine
 10
166.7049544134
 20
32.9197795763
 30
0.0
 11
166.9640093245
 21
31.283159807
 31
0.0
  0
LINE
  5
23A
330
1F
100
AcDbEntity
  8
0
  6
Continuous
 62
     7
370
    25
100
AcDbLine
 10
168.0531807572
 20
32.8403649617
 30
0.0
 11
168.0531807572
 21
32.544548611
 31
0.0
  0
LINE
  5
23B
330
1F
100
AcDbEntity
  8
0
  6
Continuous
 62
     7
370
    25
100
AcDbLine
 10
170.6781807572
 20
32.544548611
 30
0.0
 11
170.6781807572
 21
32.8403649617
 31
0.0
  0
LINE
  5
23C
330
1F
100
AcDbEntity
  8
0
  6
Continuous
 62
     7
370
    25
100
AcDbLine
 10
168.7649569457
 20
32.6337878964
 30
0.0
 11
168.7649569457
 21
32.8705157327
 31
0.0
  0
LINE
  5
23D
330
1F
100
AcDbEntity
  8
0
  6
Continuous
 62
     7
370
    25
100
AcDbLine
 10
169.963917364
 20
32.9695766559
 30
0.0
 11
169.963917364
 21
32.6836050317
 31
0.0
  0
LWPOLYLINE
  5
23E
330
1F
100
AcDbEntity
  8
0
  6
Continuous
 62
     7
370
    25
100
AcDbPolyline
 90
       13
 70
   128
 43
0.0
 10
163.0918019129
 20
55.0115724227
 10
162.9906375556
 20
55.1968450474
 10
162.917148096
 20
55.5357127276
 10
162.9572296676
 20
55.9019941016
 10
163.1076350998
 20
56.2660152306
 10
163.356179439
 20
56.5982852877
 10
163.682727101
 20
56.871885729
 10
164.0608231363
 20
57.0646510739
 10
164.4598364527
 20
57.1609646206
 10
164.8474413643
 20
57.1530236183
 10
165.1922364264
 20
57.0414713997
 10
165.4662883936
 20
56.8353452623
 10
165.4812564776
 20
56.8188398173
  0
LWPOLYLINE
  5
23F
330
1F
100
AcDbEntity
  8
0
  6
Continuous
 62
     7
370
    25
100
AcDbPolyline
 90
       15
 70
   128
 43
0.0
 10
163.4617978661
 20
54.7964085616
 10
163.2005349906
 20
54.9929154793
 10
163.0278798301
 20
55.2636630445
 10
162.9578198786
 20
55.5867168997
 10
162.9960309768
 20
55.9359051428
 10
163.1394174889
 20
56.2829386191
 10
163.3763630923
 20
56.5997027403
 10
163.6876718634
 20
56.860535161
 10
164.048123417
 20
57.0443047898
 10
164.428516112
 20
57.1361237043
 10
164.7980327944
 20
57.1285532821
 10
165.1267374203
 20
57.0222068337
 10
165.3880002957
 20
56.8256999161
 10
165.5606554563
 20
56.5549523509
 10
165.5673904907
 20
56.5379951349
  0
LWPOLYLINE
  5
240
330
1F
100
AcDbEntity
  8
0
  6
Continuous
 62
     7
370
    25
100
AcDbPolyline
 90
       15
 70
   128
 43
0.0
 10
163.5665842716
 20
54.9364937675
 10
163.319374891
 20
55.129291658
 10
163.1675948056
 20
55.3984429531
 10
163.1261013074
 20
55.7176012488
 10
163.1989560693
 20
56.0555251074
 10
163.3790275595
 20
56.3791361872
 10
163.648689126
 20
56.656757181
 10
163.9815444157
 20
56.8612126115
 10
164.3450112338
 20
56.9724889568
 10
164.7035109157
 20
56.9796937128
 10
165.0219510148
 20
56.8821216278
 10
165.2691603953
 20
56.6893237373
 10
165.4209404808
 20
56.4201724422
 10
165.4624339789
 20
56.1010141465
 10
165.3903504846
 20
55.7651129319
  0
ARC
  5
241
330
1F
100
AcDbEntity
  8
0
  6
Continuous
 62
     7
370
    25
100
AcDbCircle
 10
164.0490475303
 20
55.967138538
 30
0.0
 40
1.137980421080612
100
AcDbArc
 50
244.9148650832
 51
280.9086803093
  0
SPLINE
  5
242
330
1F
100
AcDbEntity
  8
0
  6
Continuous
 62
     7
370
    25
100
AcDbSpline
210
0.0
220
0.0
230
1.0
 70
     8
 71
     3
 72
    13
 73
     9
 74
     0
 42
0.000000001
 43
0.00000001
 40
0.0
 40
0.0
 40
0.0
 40
0.0
 40
0.1317100454231374
 40
0.280253732481448
 40
0.4322956359588508
 40
0.5855747972393693
 40
0.7911951462260777
 40
1.0
 40
1.0
 40
1.0
 40
1.0
 10
165.6876038843337
 20
29.38952381359554
 30
0.0
 10
165.4887163295424
 20
29.62203829488526
 30
0.0
 10
165.0655217326892
 20
30.11678454622915
 30
0.0
 10
164.5245525756601
 20
31.01725372877972
 30
0.0
 10
164.0474721947765
 20
32.05976392723448
 30
0.0
 10
163.6348307600866
 20
33.35353629386402
 30
0.0
 10
163.3224451677535
 20
34.92105104045079
 30
0.0
 10
163.2727430364512
 20
36.18750525718719
 30
0.0
 10
163.247701011522
 20
36.82559817667055
 30
0.0
  0
SPLINE
  5
243
330
1F
100
AcDbEntity
  8
0
  6
Continuous
 62
     7
370
    25
100
AcDbSpline
210
0.0
220
0.0
230
1.0
 70
     8
 71
     3
 72
     8
 73
     4
 74
     0
 42
0.000000001
 43
0.00000001
 40
0.0
 40
0.0
 40
0.0
 40
0.0
 40
1.0
 40
1.0
 40
1.0
 40
1.0
 10
163.2988063777396
 20
36.76742553659793
 30
0.0
 10
163.2817269789442
 20
36.78636589604626
 30
0.0
 10
163.2646920254992
 20
36.80575899383182
 30
0.0
 10
163.247701011522
 20
36.82559817667055
 30
0.0
  0
LINE
  5
244
330
1F
100
AcDbEntity
  8
0
  6
Continuous
 62
     7
370
    25
100
AcDbLine
 10
163.2988063777
 20
36.7674255366
 30
0.0
 11
166.7270846736
 21
32.9656041733
 31
0.0
  0
SPLINE
  5
245
330
1F
100
AcDbEntity
  8
0
  6
Continuous
 62
     7
370
    25
100
AcDbSpline
210
0.0
220
0.0
230
1.0
 70
     8
 71
     3
 72
    28
 73
    24
 74
     0
 42
0.000000001
 43
0.00000001
 40
0.0
 40
0.0
 40
0.0
 40
0.0
 40
0.017025449917712
 40
0.0338726649805409
 40
0.0505417830509974
 40
0.0670329464595155
 40
0.1006116793650518
 40
0.1335500353738501
 40
0.1995096539855917
 40
0.2648830010955904
 40
0.3296423422796587
 40
0.3937658152074789
 40
0.4572378078218989
 40
0.5200493021994507
 40
0.5821981730013063
 40
0.6436894321832868
 40
0.7647094482779396
 40
0.8245876294612091
 40
0.8833895402974987
 40
0.9127756517567883
 40
0.9419316810876459
 40
0.971063732172444
 40
1.0
 40
1.0
 40
1.0
 40
1.0
 10
172.7292863858651
 20
23.36829709577203
 30
0.0
 10
172.6934515458195
 20
23.36393345642119
 30
0.0
 10
172.6221570110282
 20
23.35525185948596
 30
0.0
 10
172.5172495803646
 20
23.34642335418297
 30
0.0
 10
172.4145294688841
 20
23.34066278204797
 30
0.0
 10
172.2790264873171
 20
23.33731026125982
 30
0.0
 10
172.1134435577426
 20
23.34115519401808
 30
0.0
 10
171.8557118268669
 20
23.36454899884151
 30
0.0
 10
171.5484873399026
 20
23.42572426994916
 30
0.0
 10
171.2027523143944
 20
23.55092152106341
 30
0.0
 10
170.8822021104985
 20
23.72730915781047
 30
0.0
 10
170.5877021972377
 20
23.95442151920131
 30
0.0
 10
170.3200408407112
 20
24.23166144335077
 30
0.0
 10
170.0799393510674
 20
24.55828599871535
 30
0.0
 10
169.8680372655057
 20
24.93346605366678
 30
0.0
 10
169.6252050661607
 20
25.49391965527366
 30
0.0
 10
169.4386804252121
 20
26.15060448572088
 30
0.0
 10
169.3126470736919
 20
26.89839632062576
 30
0.0
 10
169.2593702418528
 20
27.40016614064737
 30
0.0
 10
169.2320766329146
 20
27.82070907656743
 30
0.0
 10
169.2193702731357
 20
28.14642658411795
 30
0.0
 10
169.2137496410063
 20
28.48075489741447
 30
0.0
 10
169.2164711556922
 20
28.71242870212238
 30
0.0
 10
169.217827325103
 20
28.82787504855055
 30
0.0
  0
SPLINE
  5
246
330
1F
100
AcDbEntity
  8
0
  6
Continuous
 62
     7
370
    25
100
AcDbSpline
210
0.0
220
0.0
230
1.0
 70
     8
 71
     3
 72
    14
 73
    10
 74
     0
 42
0.000000001
 43
0.00000001
 40
0.0
 40
0.0
 40
0.0
 40
0.0
 40
0.1116492397992514
 40
0.2308283845827631
 40
0.352473102363323
 40
0.4767746019881633
 40
0.6466757583351836
 40
0.8212543802671413
 40
1.0
 40
1.0
 40
1.0
 40
1.0
 10
169.4956687098129
 20
28.76674125893738
 30
0.0
 10
169.4987610503944
 20
28.33436158484728
 30
0.0
 10
169.5051542867683
 20
27.44044146612464
 30
0.0
 10
169.6699127511881
 20
26.31092467785357
 30
0.0
 10
169.9482931260831
 20
25.32918841015326
 30
0.0
 10
170.3930878931121
 20
24.44947986380253
 30
0.0
 10
171.0471853820025
 20
23.77177986843967
 30
0.0
 10
171.9371830704583
 20
23.37655706576627
 30
0.0
 10
172.6587816114218
 20
23.42495606875317
 30
0.0
 10
173.023836037903
 20
23.44944097174931
 30
0.0
  0
SPLINE
  5
247
330
1F
100
AcDbEntity
  8
0
  6
Continuous
 62
     7
370
    25
100
AcDbSpline
210
0.0
220
0.0
230
1.0
 70
     8
 71
     3
 72
     9
 73
     5
 74
     0
 42
0.000000001
 43
0.00000001
 40
0.0
 40
0.0
 40
0.0
 40
0.0
 40
0.4987536893917395
 40
1.0
 40
1.0
 40
1.0
 40
1.0
 10
173.0238345709
 20
23.44944030963843
 30
0.0
 10
172.9749664248052
 20
23.43582873578947
 30
0.0
 10
172.8769859042912
 20
23.40853756153157
 30
0.0
 10
172.7786016507603
 20
23.3817348033176
 30
0.0
 10
172.7292869066559
 20
23.36830001964871
 30
0.0
  0
LINE
  5
248
330
1F
100
AcDbEntity
  8
0
  6
Continuous
 62
     7
370
    25
100
AcDbLine
 10
172.0013107049
 20
32.824573043
 30
0.0
 11
188.0061064586
 21
50.5732413716
 31
0.0
  0
ELLIPSE
  5
249
330
1F
100
AcDbEntity
  8
0
  6
Continuous
 62
     7
370
    25
100
AcDbEllipse
 10
180.2735922546
 20
42.0976521873
 30
0.0
 11
6.333626159208364
 21
14.80506453839449
 31
0.0
210
0.0
220
0.0
230
1.0
 40
0.3169207875
 41
3.888935278308001
 42
5.450356467768337
  0
LINE
  5
24A
330
1F
100
AcDbEntity
  8
0
  6
Continuous
 62
     7
370
    25
100
AcDbLine
 10
178.8170293518
 20
29.8738550628
 30
0.0
 11
173.0238366441
 21
23.4494396866
 31
0.0
  0
LINE
  5
24B
330
1F
100
AcDbEntity
  8
0
  6
Continuous
 62
     7
370
    25
100
AcDbLine
 10
187.6099392695
 20
50.8019438219
 30
0.0
 11
188.0061064586
 21
50.5732413716
 31
0.0
  0
LINE
  5
24C
330
1F
100
AcDbEntity
  8
0
  6
Continuous
 62
     7
370
    25
100
AcDbLine
 10
170.7652327773
 20
35.4035380004
 30
0.0
 11
170.2860910352
 21
34.8721892726
 31
0.0
  0
LWPOLYLINE
  5
24D
330
1F
100
AcDbEntity
  8
0
  6
Continuous
 62
     7
370
    25
100
AcDbPolyline
 90
        9
 70
   128
 43
0.0
 10
169.4201318544
 20
35.8077636427
 10
169.6053070918
 20
35.9409575212
 10
169.8646807891
 20
36.0231039941
 10
170.1587656519
 20
36.0416970058
 10
170.4427899259
 20
35.9939059387
 10
170.67351349
 20
35.8870065495
 10
170.815810773
 20
35.7372733013
 10
170.8480183036
 20
35.5675017236
 10
170.7652327773
 20
35.4035380004
  0
LINE
  5
24E
330
1F
100
AcDbEntity
  8
0
  6
Continuous
 62
     7
370
    25
100
AcDbLine
 10
169.3774610143
 20
35.7604434144
 30
0.0
 11
169.4201318544
 21
35.8077636427
 31
0.0
  0
SPLINE
  5
24F
330
1F
100
AcDbEntity
  8
0
  6
Continuous
 62
     7
370
    25
100
AcDbSpline
210
0.0
220
0.0
230
1.0
 70
    11
 71
     3
 72
    68
 73
    64
 74
     0
 42
0.000000001
 43
0.00000001
 40
0.0
 40
0.0
 40
0.0
 40
0.0
 40
0.03125
 40
0.03125
 40
0.0625
 40
0.0625
 40
0.0937499999999999
 40
0.0937499999999999
 40
0.1249999999999999
 40
0.1249999999999999
 40
0.1562499999999999
 40
0.1562499999999999
 40
0.1874999999999999
 40
0.1874999999999999
 40
0.2187499999999999
 40
0.2187499999999999
 40
0.2499999999999998
 40
0.2499999999999998
 40
0.2812499999999998
 40
0.2812499999999998
 40
0.3124999999999998
 40
0.3124999999999998
 40
0.3437499999999998
 40
0.3437499999999998
 40
0.3749999999999998
 40
0.3749999999999998
 40
0.4062499999999997
 40
0.4062499999999997
 40
0.4374999999999997
 40
0.4374999999999997
 40
0.4687499999999997
 40
0.4687499999999997
 40
0.4999999999999997
 40
0.4999999999999997
 40
0.5312499999999997
 40
0.5312499999999997
 40
0.5624999999999997
 40
0.5624999999999997
 40
0.5937499999999996
 40
0.5937499999999996
 40
0.6249999999999996
 40
0.6249999999999996
 40
0.6562499999999996
 40
0.6562499999999996
 40
0.6874999999999996
 40
0.6874999999999996
 40
0.7187499999999996
 40
0.7187499999999996
 40
0.7499999999999996
 40
0.7499999999999996
 40
0.7812499999999994
 40
0.7812499999999994
 40
0.8124999999999994
 40
0.8124999999999994
 40
0.8437499999999994
 40
0.8437499999999994
 40
0.8749999999999994
 40
0.8749999999999994
 40
0.9062499999999994
 40
0.9062499999999994
 40
0.9374999999999993
 40
0.9374999999999993
 40
1.0
 40
1.0
 40
1.0
 40
1.0
 10
165.0946382391855
 20
57.22014633671463
 30
0.0
 10
165.1647531127312
 20
57.17966988178225
 30
0.0
 10
165.2273943176273
 20
57.13293107147155
 30
0.0
 10
165.3383869924179
 20
57.02739454614812
 30
0.0
 10
165.3871432727466
 20
56.96785502834653
 30
0.0
 10
165.4671025735493
 20
56.83969156539753
 30
0.0
 10
165.4983993695318
 20
56.77141279896721
 30
0.0
 10
165.5439511449064
 20
56.62630144375203
 30
0.0
 10
165.5580445853251
 20
56.54896168797119
 30
0.0
 10
165.567827484086
 20
56.39184847916037
 30
0.0
 10
165.5638578034398
 20
56.31134715847728
 30
0.0
 10
165.5379287796187
 20
56.14606694740455
 30
0.0
 10
165.5160370661392
 20
56.06261030064967
 30
0.0
 10
165.4561062255439
 20
55.89790256682873
 30
0.0
 10
165.4176297483121
 20
55.81542998465574
 30
0.0
 10
165.3250332620388
 20
55.65398633908377
 30
0.0
 10
165.2718348814468
 20
55.5763847687959
 30
0.0
 10
165.1520229834983
 20
55.42721206966246
 30
0.0
 10
165.0845714418537
 20
55.35497299593567
 30
0.0
 10
164.9409316556002
 20
55.22221893783192
 30
0.0
 10
164.8645529095737
 20
55.16121440319799
 30
0.0
 10
164.70251040803
 20
55.05016160328098
 30
0.0
 10
164.6169831798227
 20
55.00044691905627
 30
0.0
 10
164.4437772067056
 20
54.91663711672255
 30
0.0
 10
164.3552110915274
 20
54.88188625329044
 30
0.0
 10
164.1737788843618
 20
54.82754374431872
 30
0.0
 10
164.083875058007
 20
54.80884735828477
 30
0.0
 10
163.905578240338
 20
54.7880154692347
 30
0.0
 10
163.8162164881246
 20
54.78598491425959
 30
0.0
 10
163.6439907832705
 20
54.79941230260744
 30
0.0
 10
163.5614195878134
 20
54.81461589967184
 30
0.0
 10
163.4031871293756
 20
54.86200934011215
 30
0.0
 10
163.327167191035
 20
54.89462508216928
 30
0.0
 10
163.188651770253
 20
54.97450628310873
 30
0.0
 10
163.1252817389393
 20
55.02191234826046
 30
0.0
 10
163.0106250161003
 20
55.13194504522733
 30
0.0
 10
162.9603101392044
 20
55.19387558808803
 30
0.0
 10
162.8760308736426
 20
55.32779425572988
 30
0.0
 10
162.8414073242078
 20
55.40078279337009
 30
0.0
 10
162.7893792340862
 20
55.55560063378013
 30
0.0
 10
162.7723004304517
 20
55.63601504866389
 30
0.0
 10
162.755724253085
 20
55.80245495049944
 30
0.0
 10
162.7564299945358
 20
55.88942448901564
 30
0.0
 10
162.7760741980069
 20
56.06238572206894
 30
0.0
 10
162.7947710592524
 20
56.14877380801136
 30
0.0
 10
162.8502116116842
 20
56.32115508890242
 30
0.0
 10
162.8871495388605
 20
56.40694357843401
 30
0.0
 10
162.9762235591644
 20
56.57045654242392
 30
0.0
 10
163.0286242341462
 20
56.64917057365138
 30
0.0
 10
163.1498318336562
 20
56.8002133727954
 30
0.0
 10
163.2168051322527
 20
56.87021687014364
 30
0.0
 10
163.3623547113031
 20
56.9990480261644
 30
0.0
 10
163.4419526398983
 20
57.05853047441016
 30
0.0
 10
163.6087730525976
 20
57.16299115266971
 30
0.0
 10
163.6954686007819
 20
57.20788610395649
 30
0.0
 10
163.8752142862202
 20
57.28340448932347
 30
0.0
 10
163.9689022807945
 20
57.31401921981945
 30
0.0
 10
164.1547108469204
 20
57.35835941962524
 30
0.0
 10
164.2477228615526
 20
57.37256373027611
 30
0.0
 10
164.4338022539678
 20
57.38494151118621
 30
0.0
 10
164.5255227456331
 20
57.38288211122939
 30
0.0
 10
164.7892581415674
 20
57.3531113684336
 30
0.0
 10
164.954408492094
 20
57.30109924657941
 30
0.0
 10
165.0946382391855
 20
57.22014633671463
 30
0.0
  0
ARC
  5
250
330
1F
100
AcDbEntity
  8
0
  6
Continuous
 62
     7
370
    25
100
AcDbCircle
 10
167.4920382491
 20
60.9261802199
 30
0.0
 40
5.83428541262506
100
AcDbArc
 50
60.7167269856
 51
95.4705675382
  0
ARC
  5
251
330
1F
100
AcDbEntity
  8
0
  6
Continuous
 62
     7
370
    25
100
AcDbCircle
 10
157.6497276109
 20
43.8182563049
 30
0.0
 40
5.929992398730209
100
AcDbArc
 50
204.3377341809
 51
239.0166121969
  0
ELLIPSE
  5
252
330
1F
100
AcDbEntity
  8
0
  6
Continuous
 62
     7
370
    25
100
AcDbEllipse
 10
174.6405613125
 20
45.349531732
 30
0.0
 11
3.475918560926203
 21
15.75183195312314
 31
0.0
210
0.0
220
0.0
230
1.0
 40
0.6979108556
 41
5.412461905590197
 42
8.289980899405279
  0
SPLINE
  5
253
330
1F
100
AcDbEntity
  8
0
  6
Continuous
 62
     7
370
    25
100
AcDbSpline
210
0.0
220
0.0
230
1.0
 70
     8
 71
     3
 72
    14
 73
    10
 74
     0
 42
0.000000001
 43
0.00000001
 40
0.0
 40
0.0
 40
0.0
 40
0.0
 40
0.25
 40
0.25
 40
0.5
 40
0.5
 40
0.75
 40
0.75
 40
1.0
 40
1.0
 40
1.0
 40
1.0
 10
163.2076962010403
 20
40.89621128714653
 30
0.0
 10
163.228569840685
 20
40.68211213955721
 30
0.0
 10
163.2702566285566
 20
40.46911667809682
 30
0.0
 10
163.3926223408828
 20
40.04454096278917
 30
0.0
 10
163.474569520089
 20
39.83117001335243
 30
0.0
 10
163.6687014595773
 20
39.42538219958642
 30
0.0
 10
163.7815746570451
 20
39.23010630136481
 30
0.0
 10
164.0359667967349
 20
38.857171064151
 30
0.0
 10
164.1739125577311
 20
38.68456127910581
 30
0.0
 10
164.3216182647617
 20
38.52527890849285
 30
0.0
  0
SPLINE
  5
254
330
1F
100
AcDbEntity
  8
0
  6
Continuous
 62
     7
370
    25
100
AcDbSpline
210
0.0
220
0.0
230
1.0
 70
     8
 71
     3
 72
    14
 73
    10
 74
     0
 42
0.000000001
 43
0.00000001
 40
0.0
 40
0.0
 40
0.0
 40
0.0
 40
0.25
 40
0.25
 40
0.5
 40
0.5
 40
0.75
 40
0.75
 40
1.0
 40
1.0
 40
1.0
 40
1.0
 10
186.5950831944265
 20
51.38347651795658
 30
0.0
 10
186.4466120295453
 20
51.54232200720689
 30
0.0
 10
186.3075321665987
 20
51.71287669567292
 30
0.0
 10
186.0455120182913
 20
52.07536988994307
 30
0.0
 10
185.9217090925255
 20
52.26933081276654
 30
0.0
 10
185.7001948422487
 20
52.6593322957691
 30
0.0
 10
185.6007968237136
 20
52.85748211856309
 30
0.0
 10
185.424202580681
 20
53.25694343561751
 30
0.0
 10
185.3495884627759
 20
53.45229028099505
 30
0.0
 10
185.2876835193466
 20
53.64271664900934
 30
0.0
  0
SPLINE
  5
255
330
1F
100
AcDbEntity
  8
0
  6
Continuous
 62
     7
370
    25
100
AcDbSpline
210
0.0
220
0.0
230
1.0
 70
     8
 71
     3
 72
    12
 73
     8
 74
     0
 42
0.000000001
 43
0.00000001
 40
0.0
 40
0.0
 40
0.0
 40
0.0
 40
0.5000000000000019
 40
0.5000000000000019
 40
0.7500000000000009
 40
0.7500000000000009
 40
1.0
 40
1.0
 40
1.0
 40
1.0
 10
155.2921350751666
 20
48.35923833523583
 30
0.0
 10
155.2897767591613
 20
48.29857746821238
 30
0.0
 10
155.2919714093952
 20
48.2372264605299
 30
0.0
 10
155.310351048156
 20
48.14573372052039
 30
0.0
 10
155.3191436843844
 20
48.11540580456612
 30
0.0
 10
155.3452843274393
 20
48.06115261008246
 30
0.0
 10
155.3636586064086
 20
48.03664011150175
 30
0.0
 10
155.385919780035
 20
48.02378900951064
 30
0.0
  0
LINE
  5
256
330
1F
100
AcDbEntity
  8
0
  6
Continuous
 62
     7
370
    25
100
AcDbLine
 10
155.38591978
 20
48.0237890095
 30
0.0
 11
156.4269529207
 21
47.4228133695
 31
0.0
  0
SPLINE
  5
257
330
1F
100
AcDbEntity
  8
0
  6
Continuous
 62
     7
370
    25
100
AcDbSpline
210
0.0
220
0.0
230
1.0
 70
     8
 71
     3
 72
    12
 73
     8
 74
     0
 42
0.000000001
 43
0.00000001
 40
0.0
 40
0.0
 40
0.0
 40
0.0
 40
0.2500000000000023
 40
0.2500000000000023
 40
0.5000000000000047
 40
0.5000000000000047
 40
1.0
 40
1.0
 40
1.0
 40
1.0
 10
156.4269529207179
 20
47.42281336952065
 30
0.0
 10
156.4492469209225
 20
47.4099433171493
 30
0.0
 10
156.4729457746914
 20
47.40983537325166
 30
0.0
 10
156.5159938339724
 20
47.42476054971586
 30
0.0
 10
156.534992861383
 20
47.43877848777255
 30
0.0
 10
156.5872563301322
 20
47.48944506999066
 30
0.0
 10
156.61496393684
 20
47.53353979049391
 30
0.0
 10
156.6393544336974
 20
47.58150515407224
 30
0.0
  0
ELLIPSE
  5
258
330
1F
100
AcDbEntity
  8
0
  6
Continuous
 62
     7
370
    25
100
AcDbEllipse
 10
161.4647686234
 20
52.9557549484
 30
0.0
 11
7.874888476696781
 21
13.63996451050155
 31
0.0
210
0.0
220
0.0
230
1.0
 40
0.1059897947
 41
1.10533848546366
 42
2.03609985260735
  0
SPLINE
  5
259
330
1F
100
AcDbEntity
  8
0
  6
Continuous
 62
     7
370
    25
100
AcDbSpline
210
0.0
220
0.0
230
1.0
 70
     8
 71
     3
 72
    12
 73
     8
 74
     0
 42
0.000000001
 43
0.00000001
 40
0.0
 40
0.0
 40
0.0
 40
0.0
 40
0.4999999999999981
 40
0.4999999999999981
 40
0.749999999999999
 40
0.749999999999999
 40
1.0
 40
1.0
 40
1.0
 40
1.0
 10
163.7073721897588
 20
59.8236709804403
 30
0.0
 10
163.7367030384052
 20
59.86875587397276
 30
0.0
 10
163.7610388469123
 20
59.9147861949569
 30
0.0
 10
163.7787914957841
 20
59.98541342849644
 30
0.0
 10
163.7813591373011
 20
60.00918106376194
 30
0.0
 10
163.7729048040575
 20
60.05322084979625
 30
0.0
 10
163.7608486585167
 20
60.07408478188508
 30
0.0
 10
163.7385874848903
 20
60.08693588387619
 30
0.0
  0
LINE
  5
25A
330
1F
100
AcDbEntity
  8
0
  6
Continuous
 62
     7
370
    25
100
AcDbLine
 10
163.7385874849
 20
60.0869358839
 30
0.0
 11
162.6975543442
 21
60.6879115239
 31
0.0
  0
SPLINE
  5
25B
330
1F
100
AcDbEntity
  8
0
  6
Continuous
 62
     7
370
    25
100
AcDbSpline
210
0.0
220
0.0
230
1.0
 70
     8
 71
     3
 72
    12
 73
     8
 74
     0
 42
0.000000001
 43
0.00000001
 40
0.0
 40
0.0
 40
0.0
 40
0.0
 40
0.2499999999999991
 40
0.2499999999999991
 40
0.4999999999999982
 40
0.4999999999999982
 40
1.0
 40
1.0
 40
1.0
 40
1.0
 10
162.6975543442074
 20
60.68791152386619
 30
0.0
 10
162.6752603440028
 20
60.70078157623755
 30
0.0
 10
162.6453933898971
 20
60.70445144621072
 30
0.0
 10
162.5843817657463
 20
60.6998997861655
 30
0.0
 10
162.5541427851703
 20
60.69237264431533
 30
0.0
 10
162.46576702704
 20
60.66256002006933
 30
0.0
 10
162.4115260386893
 20
60.63378767416828
 30
0.0
 10
162.360152831228
 20
60.6014041616039
 30
0.0
  0
ELLIPSE
  5
25C
330
1F
100
AcDbEntity
  8
0
  6
Continuous
 62
     7
370
    25
100
AcDbEllipse
 10
171.6097386415
 20
47.0991884175
 30
0.0
 11
14.3023836060471
 21
-8.263902107297774
 31
0.0
210
0.0
220
0.0
230
1.0
 40
0.9534948969
 41
2.676532761479944
 42
3.607294128623635
  0
SPLINE
  5
25D
330
1F
100
AcDbEntity
  8
0
  6
Continuous
 62
     7
370
    25
100
AcDbSpline
210
0.0
220
0.0
230
1.0
 70
     8
 71
     3
 72
    12
 73
     8
 74
     0
 42
0.000000001
 43
0.00000001
 40
0.0
 40
0.0
 40
0.0
 40
0.0
 40
0.4999999999999971
 40
0.4999999999999971
 40
0.7499999999999986
 40
0.7499999999999986
 40
1.0
 40
1.0
 40
1.0
 40
1.0
 10
169.3671350751665
 20
64.64644890983118
 30
0.0
 10
169.3382025434516
 20
64.63243486675728
 30
0.0
 10
169.3134818622671
 20
64.61562512408977
 30
0.0
 10
169.2957639365839
 20
64.58431121622529
 30
0.0
 10
169.2930979541995
 20
64.57265188111649
 30
0.0
 10
169.3016911271768
 20
64.54705946252011
 30
0.0
 10
169.3137602860083
 20
64.53295072191052
 30
0.0
 10
169.335919780035
 20
64.52015831830285
 30
0.0
  0
LINE
  5
25E
330
1F
100
AcDbEntity
  8
0
  6
Continuous
 62
     7
370
    25
100
AcDbLine
 10
169.33591978
 20
64.5201583183
 30
0.0
 11
170.3769529207
 21
63.9191826783
 31
0.0
  0
SPLINE
  5
25F
330
1F
100
AcDbEntity
  8
0
  6
Continuous
 62
     7
370
    25
100
AcDbSpline
210
0.0
220
0.0
230
1.0
 70
     8
 71
     3
 72
    12
 73
     8
 74
     0
 42
0.000000001
 43
0.00000001
 40
0.0
 40
0.0
 40
0.0
 40
0.0
 40
0.25
 40
0.25
 40
0.5
 40
0.5
 40
1.0
 40
1.0
 40
1.0
 40
1.0
 10
170.3769529207178
 20
63.91918267831283
 30
0.0
 10
170.3992550822059
 20
63.9063079145328
 30
0.0
 10
170.4291349191856
 20
63.89618471408018
 30
0.0
 10
170.4901714609906
 20
63.88170049219003
 30
0.0
 10
170.5204204116496
 20
63.87722113969056
 30
0.0
 10
170.6088224805721
 20
63.86789749066035
 30
0.0
 10
170.6633100389364
 20
63.86723134747157
 30
0.0
 10
170.7143544336972
 20
63.8687157286676
 30
0.0
  0
ELLIPSE
  5
260
330
1F
100
AcDbEntity
  8
0
  6
Continuous
 62
     7
370
    25
100
AcDbEllipse
 10
161.4647686234
 20
52.9557549484
 30
0.0
 11
15.90471575942229
 21
8.322204981098992
 31
0.0
210
0.0
220
0.0
230
1.0
 40
0.4445305117
 41
0.2747775750656694
 42
0.7400769945754169
  0
ELLIPSE
  5
261
330
1F
100
AcDbEntity
  8
0
  6
Continuous
 62
     7
370
    25
100
AcDbEllipse
 10
171.6097386415
 20
47.0991884175
 30
0.0
 11
-0.7461041289971889
 21
17.93477386060238
 31
0.0
210
0.0
220
0.0
230
1.0
 40
0.4444802122
 41
5.846123912132789
 42
6.473758866427518
  0
ELLIPSE
  5
262
330
1F
100
AcDbEntity
  8
0
  6
Continuous
 62
     7
370
    25
100
AcDbEllipse
 10
161.4647686234
 20
52.9557549484
 30
0.0
 11
-0.746104128997132
 21
17.93477386060238
 31
0.0
210
0.0
220
0.0
230
1.0
 40
0.4444802122
 41
2.401404845694036
 42
2.866866793327973
  0
SPLINE
  5
263
330
1F
100
AcDbEntity
  8
0
  6
Continuous
 62
     7
370
    25
100
AcDbSpline
210
0.0
220
0.0
230
1.0
 70
     8
 71
     3
 72
    12
 73
     8
 74
     0
 42
0.000000001
 43
0.00000001
 40
0.0
 40
0.0
 40
0.0
 40
0.0
 40
0.5000000000000028
 40
0.5000000000000028
 40
0.7500000000000013
 40
0.7500000000000013
 40
1.0
 40
1.0
 40
1.0
 40
1.0
 10
156.6393544336974
 20
39.49010068368406
 30
0.0
 10
156.6153042383513
 20
39.53471094711162
 30
0.0
 10
156.587214758553
 20
39.58201725747151
 30
0.0
 10
156.5351745959491
 20
39.65361474376004
 30
0.0
 10
156.5158317923745
 20
39.6779836108668
 30
0.0
 10
156.4729700189293
 20
39.72336530248268
 30
0.0
 10
156.4491124147447
 20
39.74428158003232
 30
0.0
 10
156.426952920718
 20
39.75707398363998
 30
0.0
  0
LINE
  5
264
330
1F
100
AcDbEntity
  8
0
  6
Continuous
 62
     7
370
    25
100
AcDbLine
 10
156.4269529207
 20
39.7570739836
 30
0.0
 11
155.38591978
 21
40.3580496236
 31
0.0
  0
SPLINE
  5
265
330
1F
100
AcDbEntity
  8
0
  6
Continuous
 62
     7
370
    25
100
AcDbSpline
210
0.0
220
0.0
230
1.0
 70
     8
 71
     3
 72
    12
 73
     8
 74
     0
 42
0.000000001
 43
0.00000001
 40
0.0
 40
0.0
 40
0.0
 40
0.0
 40
0.2500000000000032
 40
0.2500000000000032
 40
0.5000000000000064
 40
0.5000000000000064
 40
1.0
 40
1.0
 40
1.0
 40
1.0
 10
155.3859197800351
 20
40.35804962363002
 30
0.0
 10
155.363617618547
 20
40.37092438741003
 30
0.0
 10
155.345500589644
 20
40.37425485581852
 30
0.0
 10
155.3189319755987
 20
40.36883469808597
 30
0.0
 10
155.3103322058043
 20
40.36081218167546
 30
0.0
 10
155.2919684072133
 20
40.32969045404946
 30
0.0
 10
155.2897909692894
 20
40.30014879064727
 30
0.0
 10
155.2921350751666
 20
40.26783386484762
 30
0.0
  0
ELLIPSE
  5
266
330
1F
100
AcDbEntity
  8
0
  6
Continuous
 62
     7
370
    25
100
AcDbEllipse
 10
171.6097386415
 20
47.0991884175
 30
0.0
 11
15.90471575942232
 21
8.322204981098963
 31
0.0
210
0.0
220
0.0
230
1.0
 40
0.4445305117
 41
2.950908281021531
 42
3.578705763440483
  0
ELLIPSE
  5
267
330
1F
100
AcDbEntity
  8
0
  6
Continuous
 62
     7
370
    25
100
AcDbEllipse
 10
167.2732741996
 20
47.4195163744
 30
0.0
 11
0.7849570700369952
 21
1.725973029687431
 31
0.0
210
0.0
220
0.0
230
1.0
 40
0.4747191434
 41
0.0
 42
6.283185307179586
  0
ARC
  5
268
330
1F
100
AcDbEntity
  8
0
  6
Continuous
 62
     7
370
    25
100
AcDbCircle
 10
170.1005945119
 20
34.0998153922
 30
0.0
 40
0.980681935247948
100
AcDbArc
 50
70.7230666551
 51
90.1368283738
  0
SPLINE
  5
269
330
1F
100
AcDbEntity
  8
0
  6
Continuous
 62
     7
370
    25
100
AcDbSpline
210
0.0
220
0.0
230
1.0
 70
     8
 71
     3
 72
    12
 73
     8
 74
     0
 42
0.000000001
 43
0.00000001
 40
0.0
 40
0.0
 40
0.0
 40
0.0
 40
0.2499999999999948
 40
0.2499999999999948
 40
0.4999999999999896
 40
0.4999999999999896
 40
1.0
 40
1.0
 40
1.0
 40
1.0
 10
164.3216182647617
 20
38.52527890849285
 30
0.0
 10
164.358495824587
 20
38.48551101279349
 30
0.0
 10
164.3893245297822
 20
38.44439897786059
 30
0.0
 10
164.4378053962648
 20
38.35886092825437
 30
0.0
 10
164.4544941830335
 20
38.31585855308528
 30
0.0
 10
164.4785284444924
 20
38.18868328740122
 30
0.0
 10
164.457882050036
 20
38.10821902179959
 30
0.0
 10
164.4009753587356
 20
38.04551292533054
 30
0.0
  0
SPLINE
  5
26A
330
1F
100
AcDbEntity
  8
0
  6
Continuous
 62
     7
370
    25
100
AcDbSpline
210
0.0
220
0.0
230
1.0
 70
     8
 71
     3
 72
    12
 73
     8
 74
     0
 42
0.000000001
 43
0.00000001
 40
0.0
 40
0.0
 40
0.0
 40
0.0
 40
0.4999999999999956
 40
0.4999999999999956
 40
0.7499999999999978
 40
0.7499999999999978
 40
1.0
 40
1.0
 40
1.0
 40
1.0
 10
187.0781808757016
 20
51.18776250897903
 30
0.0
 10
186.9910233288869
 20
51.18384278386345
 30
0.0
 10
186.8979885349048
 20
51.19976371027844
 30
0.0
 10
186.7721816168557
 20
51.25076956244421
 30
0.0
 10
186.731823960782
 20
51.27245123064075
 30
0.0
 10
186.6582205518076
 20
51.32292122019572
 30
0.0
 10
186.6249412578162
 20
51.35153214215138
 30
0.0
 10
186.5950831944265
 20
51.38347651795658
 30
0.0
  0
SPLINE
  5
26B
330
1F
100
AcDbEntity
  8
0
  6
Continuous
 62
     7
370
    25
100
AcDbSpline
210
0.0
220
0.0
230
1.0
 70
     8
 71
     3
 72
     8
 73
     4
 74
     0
 42
0.000000001
 43
0.00000001
 40
0.0
 40
0.0
 40
0.0
 40
0.0
 40
1.0
 40
1.0
 40
1.0
 40
1.0
 10
187.0781808757019
 20
51.18776250897928
 30
0.0
 10
187.2519469697189
 20
51.03522424389147
 30
0.0
 10
187.4290396125344
 20
50.9063749709472
 30
0.0
 10
187.6099392694746
 20
50.80194382187516
 30
0.0
  0
SPLINE
  5
26C
330
1F
100
AcDbEntity
  8
0
  6
Continuous
 62
     7
370
    25
100
AcDbSpline
210
0.0
220
0.0
230
1.0
 70
     8
 71
     3
 72
     8
 73
     4
 74
     0
 42
0.000000001
 43
0.00000001
 40
0.0
 40
0.0
 40
0.0
 40
0.0
 40
1.0
 40
1.0
 40
1.0
 40
1.0
 10
164.4009753587356
 20
38.04551292533051
 30
0.0
 10
164.0168785892514
 20
37.62227255534359
 30
0.0
 10
163.632464264874
 20
37.21605426919896
 30
0.0
 10
163.247701011522
 20
36.82559817667055
 30
0.0
  0
LWPOLYLINE
  5
26D
330
1F
100
AcDbEntity
  8
0
  6
Continuous
 62
     7
370
    25
100
AcDbPolyline
 90
       12
 70
   128
 43
0.0
 10
141.9093030705
 20
53.4747949039
 10
141.9576637443
 20
54.6750462911
 10
142.1023078037
 20
55.9202640612
 10
142.3419253298
 20
57.1991713293
 10
142.6743463092
 20
58.5001861131
 10
143.096560286
 20
59.8115262214
 10
143.6047436251
 20
61.1213159549
 10
144.1942941394
 20
62.4176936551
 10
144.8598727682
 20
63.6889191247
 10
145.5954519284
 20
64.9234799491
 10
146.3943701012
 20
66.1101957542
 10
147.2493921598
 20
67.238319458
  0
LINE
  5
26E
330
1F
100
AcDbEntity
  8
0
  6
Continuous
 62
     7
370
    25
100
AcDbLine
 10
155.38591978
 20
40.3580496236
 30
0.0
 11
156.4285874737
 21
39.7559347028
 31
0.0
  0
LWPOLYLINE
  5
26F
330
1F
100
AcDbEntity
  8
0
  6
Continuous
 62
     7
370
    25
100
AcDbPolyline
 90
        9
 70
   128
 43
0.0
 10
151.5304362175
 20
69.7097135874
 10
151.0281988228
 20
69.7057852995
 10
150.4979299238
 20
69.6075272875
 10
149.9487025683
 20
69.4166207732
 10
149.3899141887
 20
69.13633222
 10
148.8311258091
 20
68.7714574428
 10
148.2818984536
 20
68.3282395502
 10
147.7516295546
 20
67.8142621231
 10
147.2493921598
 20
67.238319458
  0
ARC
  5
270
330
1F
100
AcDbEntity
  8
0
  6
Continuous
 62
     7
370
    25
100
AcDbCircle
 10
144.9802341248
 20
53.1874676385
 30
0.0
 40
3.084343446773474
100
AcDbArc
 50
174.6547638622
 51
232.6759834224
  0
ARC
  5
271
330
1F
100
AcDbEntity
  8
0
  6
Continuous
 62
     7
370
    25
100
AcDbCircle
 10
151.0994412301
 20
64.3844874285
 30
0.0
 40
5.342638891244567
100
AcDbArc
 50
62.0154699427
 51
85.3728752634
  0
LWPOLYLINE
  5
272
330
1F
100
AcDbEntity
  8
0
  6
Continuous
 62
     7
370
    25
100
AcDbPolyline
 90
       12
 70
   128
 43
0.0
 10
141.6851592025
 20
53.957705487
 10
141.7321334413
 20
55.1235472954
 10
141.8726307518
 20
56.3330663615
 10
142.1053787686
 20
57.5753090934
 10
142.4282696895
 20
58.8390255486
 10
142.8383793645
 20
60.1127713151
 10
143.3319937767
 20
61.385011154
 10
143.9046426777
 20
62.6442234644
 10
144.5511400702
 20
63.8790046246
 10
145.2656311739
 20
65.0781722652
 10
146.0416454466
 20
66.2308665383
 10
146.8721551829
 20
67.326648466
  0
ARC
  5
273
330
1F
100
AcDbEntity
  8
0
  6
Continuous
 62
     7
370
    25
100
AcDbCircle
 10
151.6515145274
 20
63.8684753321
 30
0.0
 40
5.899257340448133
100
AcDbArc
 50
103.4689958683
 51
144.1118487458
  0
ARC
  5
274
330
1F
100
AcDbEntity
  8
0
  6
Continuous
 62
     7
370
    25
100
AcDbCircle
 10
145.5961968592
 20
53.8796057588
 30
0.0
 40
3.911817367877636
100
AcDbArc
 50
178.8560094402
 51
201.1091694604
  0
SPLINE
  5
275
330
1F
100
AcDbEntity
  8
0
  6
Continuous
 62
     7
370
    25
100
AcDbSpline
210
0.0
220
0.0
230
1.0
 70
     8
 71
     3
 72
    14
 73
    10
 74
     0
 42
0.000000001
 43
0.00000001
 40
0.0
 40
0.0
 40
0.0
 40
0.0
 40
0.1588501103508143
 40
0.3173321153184889
 40
0.4720153553661039
 40
0.6236441635915848
 40
0.7746618341644347
 40
0.927741776110799
 40
1.0
 40
1.0
 40
1.0
 40
1.0
 10
169.1902851594464
 20
30.1332170021927
 30
0.0
 10
169.2028593515279
 20
30.1220673832045
 30
0.0
 10
169.2279785973554
 20
30.09979398238214
 30
0.0
 10
169.2869648210481
 20
30.07819108928159
 30
0.0
 10
169.3529012676235
 20
30.06893052690737
 30
0.0
 10
169.4196387282303
 20
30.07310169365398
 30
0.0
 10
169.4796449598955
 20
30.08969787062579
 30
0.0
 10
169.5195799019484
 20
30.11183389960857
 30
0.0
 10
169.535856884679
 20
30.12802505408001
 30
0.0
 10
169.5410763549717
 20
30.13321700219269
 30
0.0
  0
SPLINE
  5
276
330
1F
100
AcDbEntity
  8
0
  6
Continuous
 62
     7
370
    25
100
AcDbSpline
210
0.0
220
0.0
230
1.0
 70
     8
 71
     3
 72
    14
 73
    10
 74
     0
 42
0.000000001
 43
0.00000001
 40
0.0
 40
0.0
 40
0.0
 40
0.0
 40
0.1583203796596192
 40
0.3168008057739582
 40
0.4713744813488042
 40
0.6221259069006049
 40
0.7721262731744888
 40
0.9245922366700314
 40
0.9999999999999999
 40
0.9999999999999999
 40
0.9999999999999999
 40
0.9999999999999999
 10
169.4097007166558
 20
28.67140624680083
 30
0.0
 10
169.4065600752661
 20
28.66861117150823
 30
0.0
 10
169.4002756176046
 20
28.66301819537466
 30
0.0
 10
169.385518496564
 20
28.65755725855215
 30
0.0
 10
169.3689904643629
 20
28.65520611588154
 30
0.0
 10
169.3522892127684
 20
28.65623404872657
 30
0.0
 10
169.3372821273408
 20
28.66036753568451
 30
0.0
 10
169.3271782830669
 20
28.66593307069843
 30
0.0
 10
169.3230326626454
 20
28.67004539893641
 30
0.0
 10
169.3216607977623
 20
28.67140624680083
 30
0.0
  0
SPLINE
  5
277
330
1F
100
AcDbEntity
  8
0
  6
Continuous
 62
     7
370
    25
100
AcDbSpline
210
0.0
220
0.0
230
1.0
 70
     8
 71
     3
 72
    10
 73
     6
 74
     0
 42
0.000000001
 43
0.00000001
 40
0.0
 40
0.0
 40
0.0
 40
0.0
 40
0.3518022785809819
 40
0.7034245935032412
 40
0.9999999999999999
 40
0.9999999999999999
 40
0.9999999999999999
 40
0.9999999999999999
 10
166.7288172391078
 20
32.96871235679296
 30
0.0
 10
166.7205071720651
 20
32.95670223909624
 30
0.0
 10
166.7038912889756
 20
32.93268814745134
 30
0.0
 10
166.7057511695107
 20
32.89485009782869
 30
0.0
 10
166.721576528333
 20
32.87291917502448
 30
0.0
 10
166.7288172391078
 20
32.86288493372651
 30
0.0
  0
LINE
  5
278
330
1F
100
AcDbEntity
  8
0
  6
Continuous
 62
     7
370
    25
100
AcDbLine
 10
169.1902851594
 20
35.6983802883
 30
0.0
 11
166.7288172391
 21
32.9687123568
 31
0.0
  0
SPLINE
  5
279
330
1F
100
AcDbEntity
  8
0
  6
Continuous
 62
     7
370
    25
100
AcDbSpline
210
0.0
220
0.0
230
1.0
 70
     8
 71
     3
 72
    14
 73
    10
 74
     0
 42
0.000000001
 43
0.00000001
 40
0.0
 40
0.0
 40
0.0
 40
0.0
 40
0.1588501103508001
 40
0.3173321153185005
 40
0.4720153553660933
 40
0.6236441635915787
 40
0.7746618341644297
 40
0.9277417761107875
 40
1.0
 40
1.0
 40
1.0
 40
1.0
 10
169.5410763549718
 20
35.69838028832678
 30
0.0
 10
169.5285021628903
 20
35.70952990731498
 30
0.0
 10
169.5033829170628
 20
35.73180330813736
 30
0.0
 10
169.4443966933701
 20
35.75340620123783
 30
0.0
 10
169.3784602467947
 20
35.76266676361239
 30
0.0
 10
169.3117227861879
 20
35.75849559686542
 30
0.0
 10
169.2517165545227
 20
35.74189941989371
 30
0.0
 10
169.2117816124697
 20
35.71976339091092
 30
0.0
 10
169.1955046297391
 20
35.70357223643946
 30
0.0
 10
169.1902851594465
 20
35.69838028832678
 30
0.0
  0
LINE
  5
27A
330
1F
100
AcDbEntity
  8
0
  6
Continuous
 62
     7
370
    25
100
AcDbLine
 10
172.0025442753
 20
32.9687123568
 30
0.0
 11
169.541076355
 21
35.6983802883
 31
0.0
  0
SPLINE
  5
27B
330
1F
100
AcDbEntity
  8
0
  6
Continuous
 62
     7
370
    25
100
AcDbSpline
210
0.0
220
0.0
230
1.0
 70
     8
 71
     3
 72
    10
 73
     6
 74
     0
 42
0.000000001
 43
0.00000001
 40
0.0
 40
0.0
 40
0.0
 40
0.0
 40
0.3518022785809866
 40
0.7034245935032248
 40
1.0
 40
1.0
 40
1.0
 40
1.0
 10
172.0025442753104
 20
32.86288493372651
 30
0.0
 10
172.0108543423531
 20
32.87489505142323
 30
0.0
 10
172.0274702254426
 20
32.89890914306813
 30
0.0
 10
172.0256103449075
 20
32.93674719269079
 30
0.0
 10
172.0097849860852
 20
32.958678115495
 30
0.0
 10
172.0025442753104
 20
32.96871235679297
 30
0.0
  0
LINE
  5
27C
330
1F
100
AcDbEntity
  8
0
  6
Continuous
 62
     7
370
    25
100
AcDbLine
 10
169.541076355
 20
30.1332170022
 30
0.0
 11
172.0025442753
 21
32.8628849337
 31
0.0
  0
LINE
  5
27D
330
1F
100
AcDbEntity
  8
0
  6
Continuous
 62
     7
370
    25
100
AcDbLine
 10
166.7288172391
 20
32.8628849337
 30
0.0
 11
169.1902851594
 21
30.1332170022
 31
0.0
  0
ARC
  5
27E
330
1F
100
AcDbEntity
  8
0
  6
Continuous
 62
     7
370
    25
100
AcDbCircle
 10
169.3656807572
 20
35.4930719368
 30
0.0
 40
0.2618592009096551
100
AcDbArc
 50
49.939360373
 51
130.060639627
  0
LINE
  5
27F
330
1F
100
AcDbEntity
  8
0
  6
Continuous
 62
     7
370
    25
100
AcDbLine
 10
169.1971486989
 20
35.693489467
 30
0.0
 11
166.7380468274
 21
32.9664453873
 31
0.0
  0
ARC
  5
280
330
1F
100
AcDbEntity
  8
0
  6
Continuous
 62
     7
370
    25
100
AcDbCircle
 10
166.7882653838
 20
32.9157986452
 30
0.0
 40
0.0713231791976336
100
AcDbArc
 50
134.7567737594
 51
225.2432260924
  0
LINE
  5
281
330
1F
100
AcDbEntity
  8
0
  6
Continuous
 62
     7
370
    25
100
AcDbLine
 10
166.7380468273
 20
32.8651519032
 30
0.0
 11
169.1971486989
 21
30.1381078236
 31
0.0
  0
ARC
  5
282
330
1F
100
AcDbEntity
  8
0
  6
Continuous
 62
     7
370
    25
100
AcDbCircle
 10
169.3656807572
 20
30.3385253539
 30
0.0
 40
0.2618592009096661
100
AcDbArc
 50
229.939360373
 51
310.060639627
  0
LINE
  5
283
330
1F
100
AcDbEntity
  8
0
  6
Continuous
 62
     7
370
    25
100
AcDbLine
 10
169.5342128155
 20
30.1381078236
 30
0.0
 11
171.9933146871
 21
32.8651519032
 31
0.0
  0
ARC
  5
284
330
1F
100
AcDbEntity
  8
0
  6
Continuous
 62
     7
370
    25
100
AcDbCircle
 10
171.9430961308
 20
32.9157986453
 30
0.0
 40
0.071323179110024
100
AcDbArc
 50
314.7567737004
 51
45.2432262996
  0
LINE
  5
285
330
1F
100
AcDbEntity
  8
0
  6
Continuous
 62
     7
370
    25
100
AcDbLine
 10
171.9933146871
 20
32.9664453874
 30
0.0
 11
169.5342128155
 21
35.693489467
 31
0.0
  0
LINE
  5
286
330
1F
100
AcDbEntity
  8
0
  6
Continuous
 62
     7
370
    25
100
AcDbLine
 10
169.3656807572
 20
30.0991828548
 30
0.0
 11
169.5342128155
 21
30.1381078236
 31
0.0
  0
LINE
  5
287
330
1F
100
AcDbEntity
  8
0
  6
Continuous
 62
     7
370
    25
100
AcDbLine
 10
169.3656807572
 20
30.0991828548
 30
0.0
 11
169.1971486989
 21
30.1381078236
 31
0.0
  0
LINE
  5
288
330
1F
100
AcDbEntity
  8
0
  6
Continuous
 62
     7
370
    25
100
AcDbLine
 10
171.8247826288
 20
32.8262269344
 30
0.0
 11
171.9933146871
 21
32.8651519032
 31
0.0
  0
LINE
  5
289
330
1F
100
AcDbEntity
  8
0
  6
Continuous
 62
     7
370
    25
100
AcDbLine
 10
169.3656807572
 20
30.4601293522
 30
0.0
 11
169.3656807572
 21
30.0991828548
 31
0.0
  0
LINE
  5
28A
330
1F
100
AcDbEntity
  8
0
  6
Continuous
 62
     7
370
    25
100
AcDbLine
 10
171.7005011333
 20
32.7742569408
 30
0.0
 11
171.8247826288
 21
32.8262269344
 31
0.0
  0
LINE
  5
28B
330
1F
100
AcDbEntity
  8
0
  6
Continuous
 62
     7
370
    25
100
AcDbLine
 10
169.4097007167
 20
28.6714062468
 30
0.0
 11
171.7635562288
 21
31.2817363892
 31
0.0
  0
LINE
  5
28C
330
1F
100
AcDbEntity
  8
0
  6
Continuous
 62
     7
370
    25
100
AcDbLine
 10
166.9678052856
 20
31.2817363892
 30
0.0
 11
169.3216607978
 21
28.6714062468
 31
0.0
  0
LINE
  5
28D
330
1F
100
AcDbEntity
  8
0
  6
Continuous
 62
     7
370
    25
100
AcDbLine
 10
166.9065788856
 20
32.8262269344
 30
0.0
 11
166.7380468273
 21
32.8651519032
 31
0.0
  0
LINE
  5
28E
330
1F
100
AcDbEntity
  8
0
  6
Continuous
 62
     7
370
    25
100
AcDbLine
 10
167.0308603812
 20
32.7742569408
 30
0.0
 11
166.9065788856
 21
32.8262269344
 31
0.0
  0
SPLINE
  5
28F
330
1F
100
AcDbEntity
  8
0
  6
Continuous
 62
     7
370
    25
100
AcDbSpline
210
0.0
220
0.0
230
1.0
 70
    24
 71
     3
 72
    11
 73
     7
 74
     0
 42
0.000000001
 43
0.00000001
 40
0.0
 40
0.0
 40
0.0
 40
0.0
 40
0.4125701671612985
 40
0.8731537903910697
 40
0.9927012761303068
 40
1.0
 40
1.0
 40
1.0
 40
1.0
 10
169.3656807572091
 20
30.46012935218433
 30
0.0
 10
169.365680757209
 20
30.48270607858047
 30
0.0
 10
169.365680757209
 20
30.53048693089715
 30
0.0
 10
169.3656807572093
 20
30.62820219359248
 30
0.0
 10
169.3656807572089
 20
30.68991368164327
 30
0.0
 10
169.3656807572091
 20
30.70356191316034
 30
0.0
 10
169.3656807572091
 20
30.7043472316453
 30
0.0
  0
ARC
  5
290
330
1F
100
AcDbEntity
  8
0
  6
Continuous
 62
     7
370
    25
100
AcDbCircle
 10
169.3656807572
 20
31.9706332862
 30
0.0
 40
0.6891031602887396
100
AcDbArc
 50
229.939360373
 51
310.060639627
  0
LINE
  5
291
330
1F
100
AcDbEntity
  8
0
  6
Continuous
 62
     7
370
    25
100
AcDbLine
 10
169.8091861738
 20
31.4432187329
 30
0.0
 11
171.0168940844
 21
32.7825177451
 31
0.0
  0
LINE
  5
292
330
1F
100
AcDbEntity
  8
0
  6
Continuous
 62
     7
370
    25
100
AcDbLine
 10
167.71446743
 20
32.7825177451
 30
0.0
 11
168.9221753406
 21
31.4432187329
 31
0.0
  0
ARC
  5
293
330
1F
100
AcDbEntity
  8
0
  6
Continuous
 62
     7
370
    25
100
AcDbCircle
 10
167.8466215255
 20
32.9157986453
 30
0.0
 40
0.1876925766054818
100
AcDbArc
 50
134.7567737004
 51
225.2432262996
  0
LINE
  5
294
330
1F
100
AcDbEntity
  8
0
  6
Continuous
 62
     7
370
    25
100
AcDbLine
 10
168.9221753406
 20
34.3883785577
 30
0.0
 11
167.71446743
 21
33.0490795456
 31
0.0
  0
ARC
  5
295
330
1F
100
AcDbEntity
  8
0
  6
Continuous
 62
     7
370
    25
100
AcDbCircle
 10
169.3656807573
 20
33.8609640047
 30
0.0
 40
0.689103160169496
100
AcDbArc
 50
49.9393603556
 51
130.0606396405
  0
LINE
  5
296
330
1F
100
AcDbEntity
  8
0
  6
Continuous
 62
     7
370
    25
100
AcDbLine
 10
171.0168940844
 20
33.0490795456
 30
0.0
 11
169.8091861739
 21
34.3883785577
 31
0.0
  0
ARC
  5
297
330
1F
100
AcDbEntity
  8
0
  6
Continuous
 62
     7
370
    25
100
AcDbCircle
 10
170.8847399889
 20
32.9157986453
 30
0.0
 40
0.1876925766054618
100
AcDbArc
 50
314.7567737004
 51
45.2432262996
  0
LWPOLYLINE
  5
298
330
1F
100
AcDbEntity
  8
0
  6
Continuous
 62
     7
370
    25
100
AcDbPolyline
 90
       23
 70
   128
 43
0.0
 10
170.7183722778
 20
33.322305391
 10
170.4651921001
 20
33.5258417657
 10
170.1229360525
 20
33.6799560749
 10
169.7193316844
 20
33.7721628937
 10
169.2870766214
 20
33.7949921741
 10
168.861189598
 20
33.7465944235
 10
168.4761734481
 20
33.63089054
 10
168.1632198902
 20
33.4572541639
 10
167.9476825604
 20
33.2397522819
 10
167.8470230114
 20
32.9960056029
 10
167.8693960812
 20
32.7457610332
 10
168.0129892366
 20
32.5092918995
 10
168.2661694143
 20
32.3057555248
 10
168.6084254619
 20
32.1516412157
 10
169.01202983
 20
32.0594343968
 10
169.444284893
 20
32.0366051164
 10
169.8701719164
 20
32.085002867
 10
170.2551880664
 20
32.2007067505
 10
170.5681416242
 20
32.3743431266
 10
170.783678954
 20
32.5918450086
 10
170.884338503
 20
32.8355916876
 10
170.8619654333
 20
33.0858362574
 10
170.7183722778
 20
33.322305391
  0
LINE
  5
299
330
1F
100
AcDbEntity
  8
0
  6
Continuous
 62
     7
370
    25
100
AcDbLine
 10
170.7183722778
 20
32.9146359031
 30
0.0
 11
170.6567708626
 21
32.9766618321
 31
0.0
  0
LWPOLYLINE
  5
29A
330
1F
100
AcDbEntity
  8
0
  6
Continuous
 62
     7
370
    25
100
AcDbPolyline
 90
        3
 70
   128
 43
0.0
 10
168.0745906518
 20
32.9766618321
 10
167.9476825604
 20
32.832082794
 10
167.8821201161
 20
32.7119639013
  0
LINE
  5
29B
330
1F
100
AcDbEntity
  8
0
  6
Continuous
 62
     7
370
    25
100
AcDbLine
 10
170.8492413983
 20
32.7119639013
 30
0.0
 11
170.7183722778
 21
32.9146359031
 31
0.0
  0
SPLINE
  5
29C
330
1F
100
AcDbEntity
  8
0
  6
Continuous
 62
     7
370
    25
100
AcDbSpline
210
0.0
220
0.0
230
1.0
 70
     8
 71
     3
 72
    11
 73
     7
 74
     0
 42
0.000000001
 43
0.00000001
 40
0.0
 40
0.0
 40
0.0
 40
0.0
 40
0.0092138098389955
 40
0.3448490431109523
 40
0.6722304962507482
 40
0.9999999999999999
 40
0.9999999999999999
 40
0.9999999999999999
 40
0.9999999999999999
 10
171.3522782630965
 20
32.78432170736472
 30
0.0
 10
171.3532417407272
 20
32.78387044290093
 30
0.0
 10
171.3893022135202
 20
32.76698078257051
 30
0.0
 10
171.4665586768867
 20
32.74383294211805
 30
0.0
 10
171.5890498085011
 20
32.73870158424703
 30
0.0
 10
171.6633360249183
 20
32.76240047624896
 30
0.0
 10
171.7005011332563
 20
32.77425694076173
 30
0.0
  0
SPLINE
  5
29D
330
1F
100
AcDbEntity
  8
0
  6
Continuous
 62
     7
370
    25
100
AcDbSpline
210
0.0
220
0.0
230
1.0
 70
     8
 71
     3
 72
    11
 73
     7
 74
     0
 42
0.000000001
 43
0.00000001
 40
0.0
 40
0.0
 40
0.0
 40
0.0
 40
0.3277695037492534
 40
0.6551509568890571
 40
0.9907861901610148
 40
1.0
 40
1.0
 40
1.0
 40
1.0
 10
167.0308603811619
 20
32.77425694076179
 30
0.0
 10
167.0680254894999
 20
32.76240047624897
 30
0.0
 10
167.1423117059171
 20
32.73870158424698
 30
0.0
 10
167.2648028375315
 20
32.74383294211815
 30
0.0
 10
167.3420593008979
 20
32.76698078257031
 30
0.0
 10
167.3781197736909
 20
32.78387044290093
 30
0.0
 10
167.3790832513217
 20
32.78432170736473
 30
0.0
  0
LINE
  5
29E
330
1F
100
AcDbEntity
  8
0
  6
Continuous
 62
     7
370
    25
100
AcDbLine
 10
169.3656807572
 20
35.553271014
 30
0.0
 11
169.5342128155
 21
35.693489467
 31
0.0
  0
LINE
  5
29F
330
1F
100
AcDbEntity
  8
0
  6
Continuous
 62
     7
370
    25
100
AcDbLine
 10
171.8247826288
 20
32.8262269344
 30
0.0
 11
171.9933146871
 21
32.9664453874
 31
0.0
  0
LINE
  5
2A0
330
1F
100
AcDbEntity
  8
0
  6
Continuous
 62
     7
370
    25
100
AcDbLine
 10
169.3656807572
 20
34.7553367025
 30
0.0
 11
169.3656807572
 21
35.553271014
 31
0.0
  0
SPLINE
  5
2A1
330
1F
100
AcDbEntity
  8
0
  6
Continuous
 62
     7
370
    25
100
AcDbSpline
210
0.0
220
0.0
230
1.0
 70
     8
 71
     3
 72
    10
 73
     6
 74
     0
 42
0.000000001
 43
0.00000001
 40
0.0
 40
0.0
 40
0.0
 40
0.0
 40
0.3434585170711249
 40
0.7969054982861817
 40
1.0
 40
1.0
 40
1.0
 40
1.0
 10
166.9678052855984
 20
31.28173638920381
 30
0.0
 10
166.9661844705552
 20
31.28396865933227
 30
0.0
 10
166.9624237939218
 20
31.28914805728169
 30
0.0
 10
166.9611265960127
 20
31.29652202382677
 30
0.0
 10
166.9638358633252
 20
31.30090894089095
 30
0.0
 10
166.964673947908
 20
31.30226598954419
 30
0.0
  0
LINE
  5
2A2
330
1F
100
AcDbEntity
  8
0
  6
Continuous
 62
     7
370
    25
100
AcDbLine
 10
166.9065788856
 20
32.8262269344
 30
0.0
 11
166.7380468274
 21
32.9664453873
 31
0.0
  0
LINE
  5
2A3
330
1F
100
AcDbEntity
  8
0
  6
Continuous
 62
     7
370
    25
100
AcDbLine
 10
169.3656807572
 20
35.553271014
 30
0.0
 11
169.1971486989
 21
35.693489467
 31
0.0
  0
SPLINE
  5
2A4
330
1F
100
AcDbEntity
  8
0
  6
Continuous
 62
     7
370
    25
100
AcDbSpline
210
0.0
220
0.0
230
1.0
 70
    24
 71
     3
 72
    11
 73
     7
 74
     0
 42
0.000000001
 43
0.00000001
 40
0.0
 40
0.0
 40
0.0
 40
0.0
 40
0.0072987238691231
 40
0.1268462096078843
 40
0.5874298328383111
 40
0.9999999999999999
 40
0.9999999999999999
 40
0.9999999999999999
 40
0.9999999999999999
 10
169.3656807572091
 20
34.60264091222278
 30
0.0
 10
169.3656807572091
 20
34.60272153255417
 30
0.0
 10
169.3656807572089
 20
34.60412265193307
 30
0.0
 10
169.3656807572094
 20
34.61368601511249
 30
0.0
 10
169.3656807572089
 20
34.64969254552663
 30
0.0
 10
169.3656807572093
 20
34.72143702503304
 30
0.0
 10
169.3656807572095
 20
34.75533670253383
 30
0.0
  0
LWPOLYLINE
  5
2A5
330
1F
100
AcDbEntity
  8
0
  6
Continuous
 62
     7
370
    25
100
AcDbPolyline
 90
       22
 70
   128
 43
0.0
 10
168.8204958675
 20
32.1511333107
 10
169.1966291141
 20
32.0889860741
 10
169.5877833411
 20
32.093602149
 10
169.9592027788
 20
32.164571377
 10
170.2778851802
 20
32.2955878306
 10
170.5155142156
 20
32.4750101231
 10
170.6509755021
 20
32.6868957963
 10
170.6722327102
 20
32.9124178783
 10
170.5773970436
 20
33.1315377425
 10
170.3748950673
 20
33.3247856273
 10
170.0827199708
 20
33.4749906101
 10
169.7268327934
 20
33.5688063191
 10
169.3388556728
 20
33.5978968167
 10
168.9532620786
 20
33.5596772846
 10
168.6043136939
 20
33.457543696
 10
168.3230161139
 20
33.3005710684
 10
168.1343638632
 20
33.1027071087
 10
168.0551195221
 20
32.8815328979
 10
168.0923242979
 20
32.6567007353
 10
168.2426723833
 20
32.4481879452
 10
168.4928046909
 20
32.2745218041
 10
168.8204958675
 20
32.1511333107
  0
LWPOLYLINE
  5
2A6
330
1F
100
AcDbEntity
  8
0
  6
Continuous
 62
     7
370
    25
100
AcDbPolyline
 90
       18
 70
   128
 43
0.0
 10
168.99183969
 20
32.4802030277
 10
169.3128269759
 20
32.4341567754
 10
169.6409524578
 20
32.4581587329
 10
169.9319009712
 20
32.5489673028
 10
170.1463783072
 20
32.6943182844
 10
170.2554181131
 20
32.8745812224
 10
170.2442939588
 20
33.0654106081
 10
170.1145082231
 20
33.2410338755
 10
169.8835891888
 20
33.3777321292
 10
169.5827237509
 20
33.4570435125
 10
169.252545454
 20
33.4682565838
 10
168.9376467068
 20
33.4098569555
 10
168.6805563299
 20
33.289731821
 10
168.5159958033
 20
33.1241047455
 10
168.4661899379
 20
32.9353445832
 10
168.537865292
 20
32.74894444
 10
168.7213417118
 20
32.5900786881
 10
168.99183969
 20
32.4802030277
  0
LINE
  5
2A7
330
1F
100
AcDbEntity
  8
0
  6
Continuous
 62
     7
370
    25
100
AcDbLine
 10
170.669893848
 20
32.4595392687
 30
0.0
 11
170.6781807572
 21
32.544548611
 31
0.0
  0
LINE
  5
2A8
330
1F
100
AcDbEntity
  8
0
  6
Continuous
 62
     7
370
    25
100
AcDbLine
 10
168.0531807572
 20
32.544548611
 30
0.0
 11
168.0614676664
 21
32.4595392687
 31
0.0
  0
ARC
  5
2A9
330
1F
100
AcDbEntity
  8
0
  6
Continuous
 62
     7
370
    25
100
AcDbCircle
 10
169.4603730737
 20
33.4094148626
 30
0.0
 40
0.9366311853153291
100
AcDbArc
 50
270.3240048167
 51
315.4202563921
  0
ARC
  5
2AA
330
1F
100
AcDbEntity
  8
0
  6
Continuous
 62
     7
370
    25
100
AcDbCircle
 10
169.8727887701
 20
32.9571669499
 30
0.0
 40
0.3270783563691061
100
AcDbArc
 50
321.1491449792
 51
57.8246986393
  0
ARC
  5
2AB
330
1F
100
AcDbEntity
  8
0
  6
Continuous
 62
     7
370
    25
100
AcDbCircle
 10
169.3949488056
 20
32.2972265058
 30
0.0
 40
1.141354805301653
100
AcDbArc
 50
55.1617053824
 51
94.5264164186
  0
LINE
  5
2AC
330
1F
100
AcDbEntity
  8
0
  6
Continuous
 62
     7
370
    25
100
AcDbLine
 10
169.2625964694
 20
33.4326211264
 30
0.0
 11
169.3048745458
 21
33.435021487
 31
0.0
  0
ARC
  5
2AD
330
1F
100
AcDbEntity
  8
0
  6
Continuous
 62
     7
370
    25
100
AcDbCircle
 10
169.2760940784
 20
32.4764096442
 30
0.0
 40
0.9563067417113825
100
AcDbArc
 50
90.8087171995
 51
133.6433620925
  0
LINE
  5
2AE
330
1F
100
AcDbEntity
  8
0
  6
Continuous
 62
     7
370
    25
100
AcDbLine
 10
168.5913008849
 20
33.1369566616
 30
0.0
 11
168.6160823336
 21
33.1684407713
 31
0.0
  0
ARC
  5
2AF
330
1F
100
AcDbEntity
  8
0
  6
Continuous
 62
     7
370
    25
100
AcDbCircle
 10
168.8526505699
 20
32.9491746236
 30
0.0
 40
0.3218163321901105
100
AcDbArc
 50
144.3024234824
 51
234.6714201361
  0
LINE
  5
2B0
330
1F
100
AcDbEntity
  8
0
  6
Continuous
 62
     7
370
    25
100
AcDbLine
 10
168.7013054812
 20
32.6584522389
 30
0.0
 11
168.6665555605
 21
32.6866210117
 31
0.0
  0
ARC
  5
2B1
330
1F
100
AcDbEntity
  8
0
  6
Continuous
 62
     7
370
    25
100
AcDbCircle
 10
169.3390103879
 20
33.6273123755
 30
0.0
 40
1.159895474759215
100
AcDbArc
 50
236.6470394541
 51
274.1711412643
  0
LINE
  5
2B2
330
1F
100
AcDbEntity
  8
0
  6
Continuous
 62
     7
370
    25
100
AcDbLine
 10
169.4656696488
 20
32.4727986533
 30
0.0
 11
169.4233763834
 21
32.4704891863
 31
0.0
  0
SPLINE
  5
2B3
330
1F
100
AcDbEntity
  8
0
  6
Continuous
 62
     7
370
    25
100
AcDbSpline
210
0.0
220
0.0
230
1.0
 70
     8
 71
     3
 72
    12
 73
     8
 74
     0
 42
0.000000001
 43
0.00000001
 40
0.0
 40
0.0
 40
0.0
 40
0.0
 40
0.2058585741213752
 40
0.4121026961456969
 40
0.6141937841967441
 40
0.813318096741626
 40
1.0
 40
1.0
 40
1.0
 40
1.0
 10
169.5948534033668
 20
32.53830786183855
 30
0.0
 10
169.6023789546352
 20
32.55273884401255
 30
0.0
 10
169.6174441516082
 20
32.58162783582316
 30
0.0
 10
169.678609227056
 20
32.62137959196559
 30
0.0
 10
169.759740000799
 20
32.65373023671368
 30
0.0
 10
169.8520022024203
 20
32.67597819357651
 30
0.0
 10
169.9129753656738
 20
32.67964147046246
 30
0.0
 10
169.9424787424925
 20
32.68141403781161
 30
0.0
  0
SPLINE
  5
2B4
330
1F
100
AcDbEntity
  8
0
  6
Continuous
 62
     7
370
    25
100
AcDbSpline
210
0.0
220
0.0
230
1.0
 70
     8
 71
     3
 72
    11
 73
     7
 74
     0
 42
0.000000001
 43
0.00000001
 40
0.0
 40
0.0
 40
0.0
 40
0.0
 40
0.2524782265335694
 40
0.5068902417933414
 40
0.7591786113116955
 40
1.0
 40
1.0
 40
1.0
 40
1.0
 10
169.9424787424925
 20
32.68141403781161
 30
0.0
 10
169.9612418700066
 20
32.68265330041141
 30
0.0
 10
169.9989118361381
 20
32.68514131740788
 30
0.0
 10
170.0536652081491
 20
32.70098181803684
 30
0.0
 10
170.0998679349272
 20
32.72368188121904
 30
0.0
 10
170.1184408393729
 20
32.74270289178033
 30
0.0
 10
170.1275113405466
 20
32.75199223578821
 30
0.0
  0
SPLINE
  5
2B5
330
1F
100
AcDbEntity
  8
0
  6
Continuous
 62
     7
370
    25
100
AcDbSpline
210
0.0
220
0.0
230
1.0
 70
     8
 71
     3
 72
    11
 73
     7
 74
     0
 42
0.000000001
 43
0.00000001
 40
0.0
 40
0.0
 40
0.0
 40
0.0
 40
0.2423611237745327
 40
0.5166847928458609
 40
0.7923341374633144
 40
1.0
 40
1.0
 40
1.0
 40
1.0
 10
169.4656696488291
 20
32.47279865328483
 30
0.0
 10
169.481470514994
 20
32.47529240082925
 30
0.0
 10
169.5151560629647
 20
32.48060877093567
 30
0.0
 10
169.5570552612081
 20
32.49741167403329
 30
0.0
 10
169.5852137178867
 20
32.51778576622524
 30
0.0
 10
169.5919563144484
 20
32.53214019839084
 30
0.0
 10
169.5948534033668
 20
32.53830786183855
 30
0.0
  0
SPLINE
  5
2B6
330
1F
100
AcDbEntity
  8
0
  6
Continuous
 62
     7
370
    25
100
AcDbSpline
210
0.0
220
0.0
230
1.0
 70
     8
 71
     3
 72
    11
 73
     7
 74
     0
 42
0.000000001
 43
0.00000001
 40
0.0
 40
0.0
 40
0.0
 40
0.0
 40
0.2657596322625179
 40
0.5530029385954546
 40
0.8418208483437963
 40
1.0
 40
1.0
 40
1.0
 40
1.0
 10
168.7013054812375
 20
32.65845223886603
 30
0.0
 10
168.7148056985764
 20
32.65158895865082
 30
0.0
 10
168.7428974738266
 20
32.63730757928896
 30
0.0
 10
168.7965925909078
 20
32.62438427462615
 30
0.0
 10
168.8448573084347
 20
32.62012521219302
 30
0.0
 10
168.8720238433401
 20
32.62195205113263
 30
0.0
 10
168.8816372833731
 20
32.62259851586054
 30
0.0
  0
SPLINE
  5
2B7
330
1F
100
AcDbEntity
  8
0
  6
Continuous
 62
     7
370
    25
100
AcDbSpline
210
0.0
220
0.0
230
1.0
 70
     8
 71
     3
 72
    12
 73
     8
 74
     0
 42
0.000000001
 43
0.00000001
 40
0.0
 40
0.0
 40
0.0
 40
0.0
 40
0.2057904614204297
 40
0.4120344203360463
 40
0.6141302471427751
 40
0.8132633242113045
 40
1.0
 40
1.0
 40
1.0
 40
1.0
 10
168.8816372833731
 20
32.62259851586054
 30
0.0
 10
168.9130258430247
 20
32.62405720931994
 30
0.0
 10
168.9758721328475
 20
32.62697781074065
 30
0.0
 10
169.0757329730936
 20
32.61306730697904
 30
0.0
 10
169.1641615158065
 20
32.58890882229457
 30
0.0
 10
169.2335527517754
 20
32.55727734623589
 30
0.0
 10
169.2582956738444
 20
32.53236715123938
 30
0.0
 10
169.2702696909376
 20
32.52031218457652
 30
0.0
  0
SPLINE
  5
2B8
330
1F
100
AcDbEntity
  8
0
  6
Continuous
 62
     7
370
    25
100
AcDbSpline
210
0.0
220
0.0
230
1.0
 70
     8
 71
     3
 72
    11
 73
     7
 74
     0
 42
0.000000001
 43
0.00000001
 40
0.0
 40
0.0
 40
0.0
 40
0.0
 40
0.2802371411012733
 40
0.5612869875923907
 40
0.8399906057823826
 40
1.0
 40
1.0
 40
1.0
 40
1.0
 10
169.2702696909376
 20
32.52031218457653
 30
0.0
 10
169.2780762926112
 20
32.51267675474332
 30
0.0
 10
169.2937121355956
 20
32.49738375184868
 30
0.0
 10
169.3374148288881
 20
32.48042848113472
 30
0.0
 10
169.3829053833148
 20
32.47175084567569
 30
0.0
 10
169.4125604524379
 20
32.47082636650848
 30
0.0
 10
169.4233763833806
 20
32.47048918628512
 30
0.0
  0
SPLINE
  5
2B9
330
1F
100
AcDbEntity
  8
0
  6
Continuous
 62
     7
370
    25
100
AcDbSpline
210
0.0
220
0.0
230
1.0
 70
     8
 71
     3
 72
    11
 73
     7
 74
     0
 42
0.000000001
 43
0.00000001
 40
0.0
 40
0.0
 40
0.0
 40
0.0
 40
0.2928993220619774
 40
0.5864344719078873
 40
0.8775178868032967
 40
1.0
 40
1.0
 40
1.0
 40
1.0
 10
168.6922281032943
 20
32.77587489054422
 30
0.0
 10
168.6811804400488
 20
32.76931457127431
 30
0.0
 10
168.6590611312173
 20
32.75617969155007
 30
0.0
 10
168.6478661931941
 20
32.72837132551357
 30
0.0
 10
168.6531403541958
 20
32.7042537299526
 30
0.0
 10
168.6634903052853
 20
32.69064993084659
 30
0.0
 10
168.6665555604741
 20
32.6866210117302
 30
0.0
  0
LINE
  5
2BA
330
1F
100
AcDbEntity
  8
0
  6
Continuous
 62
     7
370
    25
100
AcDbLine
 10
168.7649569457
 20
32.638241566
 30
0.0
 11
168.7863955672
 21
32.6366023507
 31
0.0
  0
ARC
  5
2BB
330
1F
100
AcDbEntity
  8
0
  6
Continuous
 62
     7
370
    25
100
AcDbCircle
 10
168.8649985082
 20
32.9393314741
 30
0.0
 40
0.3127672369141269
100
AcDbArc
 50
255.4446889834
 51
329.3318700469
  0
LWPOLYLINE
  5
2BC
330
1F
100
AcDbEntity
  8
0
  6
Continuous
 62
     7
370
    25
100
AcDbPolyline
 90
        9
 70
   128
 43
0.0
 10
169.1340209063
 20
32.7797999919
 10
169.1506511626
 20
32.8105705737
 10
169.1838770829
 20
32.8364759723
 10
169.2300065358
 20
32.8546375277
 10
169.2839135233
 20
32.863037091
 10
169.3396077922
 20
32.8607412859
 10
169.3909004826
 20
32.8480052267
 10
169.4320918474
 20
32.8262441703
 10
169.4586046188
 20
32.797876249
  0
ARC
  5
2BD
330
1F
100
AcDbEntity
  8
0
  6
Continuous
 62
     7
370
    25
100
AcDbCircle
 10
169.7335465234
 20
33.0533862593
 30
0.0
 40
0.3753377362803982
100
AcDbArc
 50
222.9020381034
 51
287.6319799376
  0
ARC
  5
2BE
330
1F
100
AcDbEntity
  8
0
  6
Continuous
 62
     7
370
    25
100
AcDbCircle
 10
169.9107884609
 20
32.4205706256
 30
0.0
 40
0.2823555049034613
100
AcDbArc
 50
79.1543925058
 51
103.0073445602
  0
SPLINE
  5
2BF
330
1F
100
AcDbEntity
  8
0
  6
Continuous
 62
     7
370
    25
100
AcDbSpline
210
0.0
220
0.0
230
1.0
 70
     8
 71
     3
 72
    12
 73
     8
 74
     0
 42
0.000000001
 43
0.00000001
 40
0.0
 40
0.0
 40
0.0
 40
0.0
 40
0.0091681771491557
 40
0.2573268097002608
 40
0.5054934687430147
 40
0.7549925359453094
 40
1.0
 40
1.0
 40
1.0
 40
1.0
 10
170.1275113405466
 20
32.75199223578822
 30
0.0
 10
170.1277939210416
 20
32.75235299500296
 30
0.0
 10
170.1357252181893
 20
32.7624785648181
 30
0.0
 10
170.1452586101703
 20
32.78336765940993
 30
0.0
 10
170.1402455210367
 20
32.81257788525123
 30
0.0
 10
170.1179436342793
 20
32.83768827386742
 30
0.0
 10
170.0910018238276
 20
32.84771718182042
 30
0.0
 10
170.0776532748428
 20
32.85268608950817
 30
0.0
  0
SPLINE
  5
2C0
330
1F
100
AcDbEntity
  8
0
  6
Continuous
 62
     7
370
    25
100
AcDbSpline
210
0.0
220
0.0
230
1.0
 70
     8
 71
     3
 72
    11
 73
     7
 74
     0
 42
0.000000001
 43
0.00000001
 40
0.0
 40
0.0
 40
0.0
 40
0.0
 40
0.266901046795016
 40
0.5546143410792485
 40
0.8439070439786042
 40
1.0
 40
1.0
 40
1.0
 40
1.0
 10
168.5913008848628
 20
33.13695666162647
 30
0.0
 10
168.5885876211317
 20
33.12647557154247
 30
0.0
 10
168.5829495204406
 20
33.10469610330684
 30
0.0
 10
168.5967816479632
 20
33.06930414053284
 30
0.0
 10
168.6219726787777
 20
33.04070326581834
 30
0.0
 10
168.6436306363849
 20
33.02631141566516
 30
0.0
 10
168.6512210348555
 20
33.02126754775421
 30
0.0
  0
SPLINE
  5
2C1
330
1F
100
AcDbEntity
  8
0
  6
Continuous
 62
     7
370
    25
100
AcDbSpline
210
0.0
220
0.0
230
1.0
 70
     8
 71
     3
 72
    12
 73
     8
 74
     0
 42
0.000000001
 43
0.00000001
 40
0.0
 40
0.0
 40
0.0
 40
0.0
 40
0.2058401281337912
 40
0.4120619935509742
 40
0.6141387330969063
 40
0.8132772113524331
 40
1.0
 40
1.0
 40
1.0
 40
1.0
 10
168.6512210348555
 20
33.02126754775421
 30
0.0
 10
168.6750934627798
 20
33.00430941803612
 30
0.0
 10
168.7228825908305
 20
32.97036170919097
 30
0.0
 10
168.7615881638859
 20
32.9102878905669
 30
0.0
 10
168.7688853187896
 20
32.85425308355867
 30
0.0
 10
168.7460047039209
 20
32.80714254115185
 30
0.0
 10
168.7097649465501
 20
32.78607144222833
 30
0.0
 10
168.6922281032943
 20
32.77587489054422
 30
0.0
  0
SPLINE
  5
2C2
330
1F
100
AcDbEntity
  8
0
  6
Continuous
 62
     7
370
    25
100
AcDbSpline
210
0.0
220
0.0
230
1.0
 70
     8
 71
     3
 72
    12
 73
     8
 74
     0
 42
0.000000001
 43
0.00000001
 40
0.0
 40
0.0
 40
0.0
 40
0.0
 40
0.2058435564095297
 40
0.4120691620553134
 40
0.6141397217727215
 40
0.8132604579561231
 40
0.9999999999999999
 40
0.9999999999999999
 40
0.9999999999999999
 40
0.9999999999999999
 10
170.0776532748428
 20
32.85268608950817
 30
0.0
 10
170.053780616037
 20
32.86167076942986
 30
0.0
 10
170.0059909903538
 20
32.8796568049961
 30
0.0
 10
169.9672857558069
 20
32.92691086984513
 30
0.0
 10
169.9599895015352
 20
32.98389262129123
 30
0.0
 10
169.9828688471559
 20
33.04454399686564
 30
0.0
 10
170.0191080251423
 20
33.08061968662597
 30
0.0
 10
170.036646206404
 20
33.09807874671817
 30
0.0
  0
SPLINE
  5
2C3
330
1F
100
AcDbEntity
  8
0
  6
Continuous
 62
     7
370
    25
100
AcDbSpline
210
0.0
220
0.0
230
1.0
 70
     8
 71
     3
 72
    11
 73
     7
 74
     0
 42
0.000000001
 43
0.00000001
 40
0.0
 40
0.0
 40
0.0
 40
0.0
 40
0.2535086227483405
 40
0.5075674742604789
 40
0.7595056251924319
 40
0.9999999999999999
 40
0.9999999999999999
 40
0.9999999999999999
 40
0.9999999999999999
 10
170.036646206404
 20
33.09807874671817
 30
0.0
 10
170.0476995052537
 20
33.10930508152637
 30
0.0
 10
170.0698300936282
 20
33.13178211738428
 30
0.0
 10
170.0809443983616
 20
33.16968743294217
 30
0.0
 10
170.0748070703031
 20
33.2057697177579
 30
0.0
 10
170.0560985941631
 20
33.22474592149855
 30
0.0
 10
170.0469617418275
 20
33.2340135267364
 30
0.0
  0
SPLINE
  5
2C4
330
1F
100
AcDbEntity
  8
0
  6
Continuous
 62
     7
370
    25
100
AcDbSpline
210
0.0
220
0.0
230
1.0
 70
     8
 71
     3
 72
    11
 73
     7
 74
     0
 42
0.000000001
 43
0.00000001
 40
0.0
 40
0.0
 40
0.0
 40
0.0
 40
0.2908641666076811
 40
0.5839560789892497
 40
0.8745988053617568
 40
1.0
 40
1.0
 40
1.0
 40
1.0
 10
168.7863955672058
 20
33.19253971617843
 30
0.0
 10
168.7676382049593
 20
33.19593781985125
 30
0.0
 10
168.7299798167246
 20
33.20276005347296
 30
0.0
 10
168.6751235004496
 20
33.1970765493224
 30
0.0
 10
168.6373852104674
 20
33.18370398184982
 30
0.0
 10
168.6210161784761
 20
33.17197580152871
 30
0.0
 10
168.6160823336027
 20
33.16844077133376
 30
0.0
  0
SPLINE
  5
2C5
330
1F
100
AcDbEntity
  8
0
  6
Continuous
 62
     7
370
    25
100
AcDbSpline
210
0.0
220
0.0
230
1.0
 70
     8
 71
     3
 72
    11
 73
     7
 74
     0
 42
0.000000001
 43
0.00000001
 40
0.0
 40
0.0
 40
0.0
 40
0.0
 40
0.2431090893442638
 40
0.5182793655622008
 40
0.7947794085751624
 40
1.0
 40
1.0
 40
1.0
 40
1.0
 10
169.2625964694024
 20
33.43262112644047
 30
0.0
 10
169.2468145128679
 20
33.42928452324307
 30
0.0
 10
169.2131692779568
 20
33.42217128616527
 30
0.0
 10
169.1714007474964
 20
33.39787171268059
 30
0.0
 10
169.1435267294942
 20
33.36751157228161
 30
0.0
 10
169.1368607281067
 20
33.3451657254526
 30
0.0
 10
169.1340209063316
 20
33.33564604210441
 30
0.0
  0
SPLINE
  5
2C6
330
1F
100
AcDbEntity
  8
0
  6
Continuous
 62
     7
370
    25
100
AcDbSpline
210
0.0
220
0.0
230
1.0
 70
     8
 71
     3
 72
    12
 73
     8
 74
     0
 42
0.000000001
 43
0.00000001
 40
0.0
 40
0.0
 40
0.0
 40
0.0
 40
0.2058179564999074
 40
0.4120215045907608
 40
0.6140779969167867
 40
0.8132130006453704
 40
1.0
 40
1.0
 40
1.0
 40
1.0
 10
169.1340209063316
 20
33.33564604210441
 30
0.0
 10
169.1264970066148
 20
33.31324435842889
 30
0.0
 10
169.1114351114603
 20
33.26839902243235
 30
0.0
 10
169.0502849185623
 20
33.21583119294724
 30
0.0
 10
168.969171057326
 20
33.18442650894437
 30
0.0
 10
168.8769047479157
 20
33.17570976900743
 30
0.0
 10
168.8159148138161
 20
33.18705068890981
 30
0.0
 10
168.7863955672058
 20
33.19253971617844
 30
0.0
  0
SPLINE
  5
2C7
330
1F
100
AcDbEntity
  8
0
  6
Continuous
 62
     7
370
    25
100
AcDbSpline
210
0.0
220
0.0
230
1.0
 70
     8
 71
     3
 72
    12
 73
     8
 74
     0
 42
0.000000001
 43
0.00000001
 40
0.0
 40
0.0
 40
0.0
 40
0.0
 40
0.0091735205190169
 40
0.2576775215524912
 40
0.5061895192299143
 40
0.7560357430218841
 40
1.0
 40
1.0
 40
1.0
 40
1.0
 10
170.0469617418275
 20
33.2340135267364
 30
0.0
 10
170.0465606432253
 20
33.23433433193274
 30
0.0
 10
170.035294075117
 20
33.24334551664893
 30
0.0
 10
170.0074846520318
 20
33.25812977858774
 30
0.0
 10
169.9562023128365
 20
33.26853733437921
 30
0.0
 10
169.8998818000304
 20
33.26735195805809
 30
0.0
 10
169.864645379368
 20
33.25664496640536
 30
0.0
 10
169.8472370263252
 20
33.25135523812953
 30
0.0
  0
SPLINE
  5
2C8
330
1F
100
AcDbEntity
  8
0
  6
Continuous
 62
     7
370
    25
100
AcDbSpline
210
0.0
220
0.0
230
1.0
 70
     8
 71
     3
 72
    12
 73
     8
 74
     0
 42
0.000000001
 43
0.00000001
 40
0.0
 40
0.0
 40
0.0
 40
0.0
 40
0.2057532787804328
 40
0.411960408804478
 40
0.6140154573248948
 40
0.8131414684040967
 40
1.0
 40
1.0
 40
1.0
 40
1.0
 10
169.8472370263252
 20
33.25135523812953
 30
0.0
 10
169.8158530834279
 20
33.24192607395458
 30
0.0
 10
169.7530159708312
 20
33.22304694672403
 30
0.0
 10
169.653168483519
 20
33.22412953092994
 30
0.0
 10
169.564747835891
 20
33.24922183705323
 30
0.0
 10
169.4953397626248
 20
33.29438866916935
 30
0.0
 10
169.4705874380505
 20
33.33431367221061
 30
0.0
 10
169.4586046187607
 20
33.35364171936644
 30
0.0
  0
SPLINE
  5
2C9
330
1F
100
AcDbEntity
  8
0
  6
Continuous
 62
     7
370
    25
100
AcDbSpline
210
0.0
220
0.0
230
1.0
 70
     8
 71
     3
 72
    11
 73
     7
 74
     0
 42
0.000000001
 43
0.00000001
 40
0.0
 40
0.0
 40
0.0
 40
0.0
 40
0.2794069064556253
 40
0.5596240257156082
 40
0.8375007392219425
 40
0.9999999999999999
 40
0.9999999999999999
 40
0.9999999999999999
 40
0.9999999999999999
 10
169.4586046187607
 20
33.35364171936644
 30
0.0
 10
169.4507972336233
 20
33.36593741499338
 30
0.0
 10
169.43515982381
 20
33.39056446080629
 30
0.0
 10
169.3914526065816
 20
33.41766078085882
 30
0.0
 10
169.3457676445387
 20
33.43206481150877
 30
0.0
 10
169.3158968899504
 20
33.43422454337416
 30
0.0
 10
169.3048745458106
 20
33.43502148701347
 30
0.0
  0
LINE
  5
2CA
330
1F
100
AcDbEntity
  8
0
  6
Continuous
 62
     7
370
    18
100
AcDbLine
 10
187.6099392695
 20
50.8019438219
 30
0.0
 11
163.2988063777
 21
36.7674255366
 31
0.0
  0
LWPOLYLINE
  5
2CB
330
1F
100
AcDbEntity
  8
0
  6
Continuous
 62
     7
370
    18
100
AcDbPolyline
 90
       25
 70
   128
 43
0.0
 10
151.334457837
 20
45.9454311238
 10
151.3756848103
 20
47.0747827722
 10
151.4990605001
 20
48.2433727462
 10
151.703671476
 20
49.4425492146
 10
151.9880028699
 20
50.6634338945
 10
152.3499495916
 20
51.8969877826
 10
152.7868319143
 20
53.1340780777
 10
153.295415314
 20
54.3655457961
 10
153.8719344173
 20
55.5822735815
 10
154.5121208784
 20
56.7752532072
 10
155.2112349806
 20
57.9356522695
 10
155.9641007279
 20
59.0548795795
 10
156.7651441656
 20
60.12464877
 10
157.6084346483
 20
61.137039644
 10
158.4877287485
 20
62.0845568139
 10
159.39651648
 20
62.9601851939
 10
160.3280694967
 20
63.7574419379
 10
161.2754909059
 20
64.4704244359
 10
162.2317663308
 20
65.0938540149
 10
163.1898158429
 20
65.6231150205
 10
164.1425463788
 20
66.0542889893
 10
165.0829042548
 20
66.3841836602
 10
166.0039273904
 20
66.6103566083
 10
166.8987968524
 20
66.7311333283
 10
166.935830083
 20
66.7338922265
  0
ARC
  5
2CC
330
1F
100
AcDbEntity
  8
0
  6
Continuous
 62
     7
370
    18
100
AcDbCircle
 10
162.0104619785
 20
45.6995659885
 30
0.0
 40
10.6788348659442
100
AcDbArc
 50
178.6807287863
 51
203.8924032009
  0
LINE
  5
2CD
330
1F
100
AcDbEntity
  8
0
  6
Continuous
 62
     7
370
    18
100
AcDbLine
 10
164.3216182648
 20
38.5252789085
 30
0.0
 11
164.3288884485
 21
37.9815915617
 31
0.0
  0
LINE
  5
2CE
330
1F
100
AcDbEntity
  8
0
  6
Continuous
 62
     7
370
    18
100
AcDbLine
 10
185.2876835193
 20
53.642716649
 30
0.0
 11
163.207696201
 21
40.8962112871
 31
0.0
  0
LINE
  5
2CF
330
1F
100
AcDbEntity
  8
0
  6
Continuous
 62
     7
370
    18
100
AcDbLine
 10
169.4270719579
 20
35.7536459474
 30
0.0
 11
169.4201318544
 21
35.8077636427
 31
0.0
  0
LINE
  5
2D0
330
1F
100
AcDbEntity
  8
0
  6
Continuous
 62
     7
370
    18
100
AcDbLine
 10
163.7385874849
 20
60.0869358839
 30
0.0
 11
162.3851114952
 21
57.7426467098
 31
0.0
  0
LINE
  5
2D1
330
1F
100
AcDbEntity
  8
0
  6
Continuous
 62
     7
370
    18
100
AcDbLine
 10
157.7805192663
 20
49.7672590446
 30
0.0
 11
156.4269529207
 21
47.4228133695
 31
0.0
  0
LINE
  5
2D2
330
1F
100
AcDbEntity
  8
0
  6
Continuous
 62
     7
370
    18
100
AcDbLine
 10
162.6975543442
 20
60.6879115239
 30
0.0
 11
155.38591978
 21
48.0237890095
 31
0.0
  0
LINE
  5
2D3
330
1F
100
AcDbEntity
  8
0
  6
Continuous
 62
     7
370
    18
100
AcDbLine
 10
162.3601528312
 20
60.6014041616
 30
0.0
 11
155.2921350752
 21
48.3592383352
 31
0.0
  0
LINE
  5
2D4
330
1F
100
AcDbEntity
  8
0
  6
Continuous
 62
     7
370
    18
100
AcDbLine
 10
147.2493921598
 20
67.238319458
 30
0.0
 11
157.6628207345
 21
61.3387869911
 31
0.0
  0
LINE
  5
2D5
330
1F
100
AcDbEntity
  8
0
  6
Continuous
 62
     7
370
    18
100
AcDbLine
 10
141.9093030705
 20
53.4747949039
 30
0.0
 11
151.3526412766
 21
47.7422900867
 31
0.0
  0
LINE
  5
2D6
330
1F
100
AcDbEntity
  8
0
  6
Continuous
 62
     7
370
    18
100
AcDbLine
 10
155.2921350752
 20
40.2678338648
 30
0.0
 11
156.6395523647
 21
39.4897335558
 31
0.0
  0
LINE
  5
2D7
330
1F
100
AcDbEntity
  8
0
  6
Continuous
 62
     7
370
    18
100
AcDbLine
 10
170.7139297601
 20
63.8687081396
 30
0.0
 11
169.3671350752
 21
64.6464489098
 31
0.0
  0
LINE
  5
2D8
330
1F
100
AcDbEntity
  8
0
  6
Continuous
 62
     7
370
    18
100
AcDbLine
 10
151.5304362175
 20
69.7097135874
 30
0.0
 11
161.1988464518
 21
64.5066487708
 31
0.0
  0
LINE
  5
2D9
330
1F
100
AcDbEntity
  8
0
  6
Continuous
 62
     7
370
    18
100
AcDbLine
 10
146.8721551829
 20
67.326648466
 30
0.0
 11
147.2493921598
 21
67.238319458
 31
0.0
  0
LINE
  5
2DA
330
1F
100
AcDbEntity
  8
0
  6
Continuous
 62
     7
370
    18
100
AcDbLine
 10
141.6851592025
 20
53.957705487
 30
0.0
 11
141.9093030705
 21
53.4747949039
 31
0.0
  0
SPLINE
  5
2DB
330
1F
100
AcDbEntity
  8
0
  6
Continuous
 62
     7
370
    18
100
AcDbSpline
210
0.0
220
0.0
230
1.0
 70
     8
 71
     3
 72
     9
 73
     5
 74
     0
 42
0.000000001
 43
0.00000001
 40
0.0
 40
0.0
 40
0.0
 40
0.0
 40
0.5598168244978372
 40
1.0
 40
1.0
 40
1.0
 40
1.0
 10
169.3216607977623
 20
28.67140624680082
 30
0.0
 10
169.2978203343528
 20
28.94335362525095
 30
0.0
 10
169.2552341483609
 20
29.42913284186179
 30
0.0
 10
169.2101364205029
 20
29.91801798668745
 30
0.0
 10
169.1902851594464
 20
30.13321700219265
 30
0.0
  0
SPLINE
  5
2DC
330
1F
100
AcDbEntity
  8
0
  6
Continuous
 62
     7
370
    18
100
AcDbSpline
210
0.0
220
0.0
230
1.0
 70
     8
 71
     3
 72
     9
 73
     5
 74
     0
 42
0.000000001
 43
0.00000001
 40
0.0
 40
0.0
 40
0.0
 40
0.0
 40
0.561190516270616
 40
1.0
 40
1.0
 40
1.0
 40
1.0
 10
169.5410763549717
 20
30.13321700219266
 30
0.0
 10
169.5120234669953
 20
29.85421338520065
 30
0.0
 10
169.46025336908
 20
29.35704957201627
 30
0.0
 10
169.4251183126352
 20
28.88051439973046
 30
0.0
 10
169.4097007166558
 20
28.67140624680083
 30
0.0
  0
SPLINE
  5
2DD
330
1F
100
AcDbEntity
  8
0
  6
Continuous
 62
     7
370
    18
100
AcDbSpline
210
0.0
220
0.0
230
1.0
 70
     8
 71
     3
 72
    12
 73
     8
 74
     0
 42
0.000000001
 43
0.00000001
 40
0.0
 40
0.0
 40
0.0
 40
0.0
 40
0.1776135614865609
 40
0.3594034355668766
 40
0.6163707149574341
 40
0.8805652976813987
 40
1.0
 40
1.0
 40
1.0
 40
1.0
 10
170.3192174028757
 20
31.18387393469191
 30
0.0
 10
170.2791388725865
 20
31.14190005042827
 30
0.0
 10
170.1980394263628
 20
31.05696532989125
 30
0.0
 10
170.0207119447369
 20
30.90517048931142
 30
0.0
 10
169.7891317701435
 20
30.73186867652045
 30
0.0
 10
169.5563534308394
 20
30.57745291497891
 30
0.0
 10
169.4109492212365
 20
30.48798367121605
 30
0.0
 10
169.3656807572091
 20
30.46012935218432
 30
0.0
  0
LINE
  5
2DE
330
1F
100
AcDbEntity
  8
0
  6
Continuous
 62
     7
370
    18
100
AcDbLine
 10
171.5269253135
 20
32.5231729469
 30
0.0
 11
170.3192174029
 21
31.1838739347
 31
0.0
  0
SPLINE
  5
2DF
330
1F
100
AcDbEntity
  8
0
  6
Continuous
 62
     7
370
    18
100
AcDbSpline
210
0.0
220
0.0
230
1.0
 70
     8
 71
     3
 72
     9
 73
     5
 74
     0
 42
0.000000001
 43
0.00000001
 40
0.0
 40
0.0
 40
0.0
 40
0.0
 40
0.0176202506649077
 40
1.0
 40
1.0
 40
1.0
 40
1.0
 10
171.7005011332563
 20
32.77425694076173
 30
0.0
 10
171.6998943160912
 20
32.7729241974683
 30
0.0
 10
171.6654556933633
 20
32.69728717511393
 30
0.0
 10
171.5955748443718
 20
32.60945625960895
 30
0.0
 10
171.5269253134562
 20
32.52317294685128
 30
0.0
  0
SPLINE
  5
2E0
330
1F
100
AcDbEntity
  8
0
  6
Continuous
 62
     7
370
    18
100
AcDbSpline
210
0.0
220
0.0
230
1.0
 70
     8
 71
     3
 72
     9
 73
     5
 74
     0
 42
0.000000001
 43
0.00000001
 40
0.0
 40
0.0
 40
0.0
 40
0.0
 40
0.5600391368329042
 40
1.0
 40
1.0
 40
1.0
 40
1.0
 10
171.7635562288198
 20
31.28173638920382
 30
0.0
 10
171.807660626008
 20
31.57635759805951
 30
0.0
 10
171.8864129743485
 20
32.10243013385013
 30
0.0
 10
171.9670619030329
 20
32.63053809798176
 30
0.0
 10
172.0025442753104
 20
32.86288493372652
 30
0.0
  0
SPLINE
  5
2E1
330
1F
100
AcDbEntity
  8
0
  6
Continuous
 62
     7
370
    18
100
AcDbSpline
210
0.0
220
0.0
230
1.0
 70
     8
 71
     3
 72
     9
 73
     5
 74
     0
 42
0.000000001
 43
0.00000001
 40
0.0
 40
0.0
 40
0.0
 40
0.0
 40
0.5600479806130763
 40
1.0
 40
1.0
 40
1.0
 40
1.0
 10
166.7288172391078
 20
32.86288493372651
 30
0.0
 10
166.772806215534
 20
32.56838363945884
 30
0.0
 10
166.8513512294415
 20
32.04253352578596
 30
0.0
 10
166.9322247964695
 20
31.51418457641884
 30
0.0
 10
166.9678052855984
 20
31.28173638920381
 30
0.0
  0
LINE
  5
2E2
330
1F
100
AcDbEntity
  8
0
  6
Continuous
 62
     7
370
    18
100
AcDbLine
 10
167.204436201
 20
32.5231729469
 30
0.0
 11
167.0308603812
 21
32.7742569408
 31
0.0
  0
LINE
  5
2E3
330
1F
100
AcDbEntity
  8
0
  6
Continuous
 62
     7
370
    18
100
AcDbLine
 10
168.4121441115
 20
31.1838739347
 30
0.0
 11
167.204436201
 21
32.5231729469
 31
0.0
  0
SPLINE
  5
2E4
330
1F
100
AcDbEntity
  8
0
  6
Continuous
 62
     7
370
    18
100
AcDbSpline
210
0.0
220
0.0
230
1.0
 70
     8
 71
     3
 72
    11
 73
     7
 74
     0
 42
0.000000001
 43
0.00000001
 40
0.0
 40
0.0
 40
0.0
 40
0.0
 40
0.1195576238157075
 40
0.3773398568180628
 40
0.6412489841008271
 40
1.0
 40
1.0
 40
1.0
 40
1.0
 10
169.3656807572091
 20
30.46012935218433
 30
0.0
 10
169.3203861270532
 20
30.48798883879197
 30
0.0
 10
169.1774302141457
 20
30.5759171059492
 30
0.0
 10
168.9456684029085
 20
30.73000917144742
 30
0.0
 10
168.6497883835513
 20
30.94793547872952
 30
0.0
 10
168.4990140469584
 20
31.09762755366906
 30
0.0
 10
168.4121441115425
 20
31.18387393469191
 30
0.0
  0
ARC
  5
2E5
330
1F
100
AcDbEntity
  8
0
  6
Continuous
 62
     7
370
    18
100
AcDbCircle
 10
168.4703047159
 20
31.5535199631
 30
0.0
 40
0.374193589216848
100
AcDbArc
 50
261.0583116158
 51
312.3945172226
  0
SPLINE
  5
2E6
330
1F
100
AcDbEntity
  8
0
  6
Continuous
 62
     7
370
    18
100
AcDbSpline
210
0.0
220
0.0
230
1.0
 70
     8
 71
     3
 72
    11
 73
     7
 74
     0
 42
0.000000001
 43
0.00000001
 40
0.0
 40
0.0
 40
0.0
 40
0.0
 40
0.1982812789114827
 40
0.4004055637724054
 40
0.6966424366148176
 40
1.0
 40
1.0
 40
1.0
 40
1.0
 10
168.7225979031548
 20
31.27717056486451
 30
0.0
 10
168.7548402556331
 20
31.2423385957146
 30
0.0
 10
168.819949868564
 20
31.17199955855818
 30
0.0
 10
168.9579975753346
 20
31.03785647929615
 30
0.0
 10
169.1371283114752
 20
30.87896752934773
 30
0.0
 10
169.2888958195011
 20
30.76301301681568
 30
0.0
 10
169.3656807572091
 20
30.70434723164504
 30
0.0
  0
SPLINE
  5
2E7
330
1F
100
AcDbEntity
  8
0
  6
Continuous
 62
     7
370
    18
100
AcDbSpline
210
0.0
220
0.0
230
1.0
 70
     8
 71
     3
 72
    11
 73
     7
 74
     0
 42
0.000000001
 43
0.00000001
 40
0.0
 40
0.0
 40
0.0
 40
0.0
 40
0.296752481090665
 40
0.5995928021026204
 40
0.7979787469333752
 40
1.0
 40
1.0
 40
1.0
 40
1.0
 10
169.3656807572091
 20
30.70434723164504
 30
0.0
 10
169.4408148981289
 20
30.76171711319483
 30
0.0
 10
169.5926245474438
 20
30.87763381221723
 30
0.0
 10
169.7712232687506
 20
31.03584547158825
 30
0.0
 10
169.9107100198943
 20
31.17128525446709
 30
0.0
 10
169.9758818485173
 20
31.24166247580662
 30
0.0
 10
170.0087636112633
 20
31.27717056486451
 30
0.0
  0
SPLINE
  5
2E8
330
1F
100
AcDbEntity
  8
0
  6
Continuous
 62
     7
370
    18
100
AcDbSpline
210
0.0
220
0.0
230
1.0
 70
     8
 71
     3
 72
    10
 73
     6
 74
     0
 42
0.000000001
 43
0.00000001
 40
0.0
 40
0.0
 40
0.0
 40
0.0
 40
0.2765306019330223
 40
0.5626682704062385
 40
1.0
 40
1.0
 40
1.0
 40
1.0
 10
170.3192174028756
 20
31.18387393469192
 30
0.0
 10
170.2921211042259
 20
31.18036944885971
 30
0.0
 10
170.2369871429607
 20
31.17323872637153
 30
0.0
 10
170.1262119350965
 20
31.19744371521905
 30
0.0
 10
170.0530122576299
 20
31.24713348080277
 30
0.0
 10
170.0087636112633
 20
31.27717056486451
 30
0.0
  0
LINE
  5
2E9
330
1F
100
AcDbEntity
  8
0
  6
Continuous
 62
     7
370
    18
100
AcDbLine
 10
170.0087636113
 20
31.2771705649
 30
0.0
 11
169.8091861738
 21
31.4432187329
 31
0.0
  0
LINE
  5
2EA
330
1F
100
AcDbEntity
  8
0
  6
Continuous
 62
     7
370
    18
100
AcDbLine
 10
168.7225979032
 20
31.2771705649
 30
0.0
 11
168.9221753406
 21
31.4432187329
 31
0.0
  0
LINE
  5
2EB
330
1F
100
AcDbEntity
  8
0
  6
Continuous
 62
     7
370
    18
100
AcDbLine
 10
170.0087636113
 20
31.2771705649
 30
0.0
 11
171.2164715218
 21
32.616469577
 31
0.0
  0
ARC
  5
2EC
330
1F
100
AcDbEntity
  8
0
  6
Continuous
 62
     7
370
    18
100
AcDbCircle
 10
171.4687647091
 20
32.8928189752
 30
0.0
 40
0.3741935892166838
100
AcDbArc
 50
227.6054827774
 51
278.9416883843
  0
SPLINE
  5
2ED
330
1F
100
AcDbEntity
  8
0
  6
Continuous
 62
     7
370
    18
100
AcDbSpline
210
0.0
220
0.0
230
1.0
 70
     8
 71
     3
 72
    10
 73
     6
 74
     0
 42
0.000000001
 43
0.00000001
 40
0.0
 40
0.0
 40
0.0
 40
0.0
 40
0.2765306019330265
 40
0.5626682704062606
 40
1.0
 40
1.0
 40
1.0
 40
1.0
 10
167.2044362009619
 20
32.52317294685128
 30
0.0
 10
167.2315324996117
 20
32.51966846101907
 30
0.0
 10
167.2866664608769
 20
32.51253773853088
 30
0.0
 10
167.3974416687411
 20
32.5367427273784
 30
0.0
 10
167.4706413462077
 20
32.58643249296212
 30
0.0
 10
167.5148899925743
 20
32.61646957702387
 30
0.0
  0
LINE
  5
2EE
330
1F
100
AcDbEntity
  8
0
  6
Continuous
 62
     7
370
    18
100
AcDbLine
 10
167.5148899926
 20
32.616469577
 30
0.0
 11
168.7225979032
 21
31.2771705649
 31
0.0
  0
LINE
  5
2EF
330
1F
100
AcDbEntity
  8
0
  6
Continuous
 62
     7
370
    18
100
AcDbLine
 10
171.2164715218
 20
32.616469577
 30
0.0
 11
171.0168940844
 21
32.7825177451
 31
0.0
  0
LINE
  5
2F0
330
1F
100
AcDbEntity
  8
0
  6
Continuous
 62
     7
370
    18
100
AcDbLine
 10
167.5148899926
 20
32.616469577
 30
0.0
 11
167.71446743
 21
32.7825177451
 31
0.0
  0
LINE
  5
2F1
330
1F
100
AcDbEntity
  8
0
  6
Continuous
 62
     7
370
    18
100
AcDbLine
 10
171.2164715218
 20
32.616469577
 30
0.0
 11
171.3522782631
 21
32.7843217074
 31
0.0
  0
LINE
  5
2F2
330
1F
100
AcDbEntity
  8
0
  6
Continuous
 62
     7
370
    18
100
AcDbLine
 10
167.3790832513
 20
32.7843217074
 30
0.0
 11
167.5148899926
 21
32.616469577
 31
0.0
  0
LINE
  5
2F3
330
1F
100
AcDbEntity
  8
0
  6
Continuous
 62
     7
370
    18
100
AcDbLine
 10
171.2164715218
 20
33.0029841877
 30
0.0
 11
171.0168940844
 21
33.0490795456
 31
0.0
  0
LINE
  5
2F4
330
1F
100
AcDbEntity
  8
0
  6
Continuous
 62
     7
370
    18
100
AcDbLine
 10
171.3522782631
 20
32.7843217074
 30
0.0
 11
171.2164715218
 21
33.0029841877
 31
0.0
  0
LINE
  5
2F5
330
1F
100
AcDbEntity
  8
0
  6
Continuous
 62
     7
370
    18
100
AcDbLine
 10
167.5148899926
 20
33.0029841877
 30
0.0
 11
167.3790832513
 21
32.7843217074
 31
0.0
  0
LINE
  5
2F6
330
1F
100
AcDbEntity
  8
0
  6
Continuous
 62
     7
370
    18
100
AcDbLine
 10
167.5148899926
 20
33.0029841877
 30
0.0
 11
167.71446743
 21
33.0490795456
 31
0.0
  0
LINE
  5
2F7
330
1F
100
AcDbEntity
  8
0
  6
Continuous
 62
     7
370
    18
100
AcDbLine
 10
171.5269253135
 20
33.0962808179
 30
0.0
 11
171.7005011333
 21
32.7742569408
 31
0.0
  0
LINE
  5
2F8
330
1F
100
AcDbEntity
  8
0
  6
Continuous
 62
     7
370
    18
100
AcDbLine
 10
170.3192174029
 20
34.4355798301
 30
0.0
 11
171.5269253135
 21
33.0962808179
 31
0.0
  0
SPLINE
  5
2F9
330
1F
100
AcDbEntity
  8
0
  6
Continuous
 62
     7
370
    18
100
AcDbSpline
210
0.0
220
0.0
230
1.0
 70
     8
 71
     3
 72
    10
 73
     6
 74
     0
 42
0.000000001
 43
0.00000001
 40
0.0
 40
0.0
 40
0.0
 40
0.0
 40
0.1197558718860243
 40
0.6406541103101765
 40
1.0
 40
1.0
 40
1.0
 40
1.0
 10
169.36568075721
 20
34.75533670253383
 30
0.0
 10
169.4108425652963
 20
34.75446118076386
 30
0.0
 10
169.652443227743
 20
34.74977743029911
 30
0.0
 10
170.0178648918638
 20
34.68894435029242
 30
0.0
 10
170.2318580464558
 20
34.50902790373004
 30
0.0
 10
170.3192174028757
 20
34.43557983007084
 30
0.0
  0
SPLINE
  5
2FA
330
1F
100
AcDbEntity
  8
0
  6
Continuous
 62
     7
370
    18
100
AcDbSpline
210
0.0
220
0.0
230
1.0
 70
     8
 71
     3
 72
     9
 73
     5
 74
     0
 42
0.000000001
 43
0.00000001
 40
0.0
 40
0.0
 40
0.0
 40
0.0
 40
0.0176202506645234
 40
1.0
 40
1.0
 40
1.0
 40
1.0
 10
167.030860381162
 20
32.77425694076187
 30
0.0
 10
167.031467198327
 20
32.7763884947659
 30
0.0
 10
167.0659058210549
 20
32.89736032681416
 30
0.0
 10
167.1357866700463
 20
32.99770461814584
 30
0.0
 10
167.2044362009619
 20
33.09628081791148
 30
0.0
  0
SPLINE
  5
2FB
330
1F
100
AcDbEntity
  8
0
  6
Continuous
 62
     7
370
    18
100
AcDbSpline
210
0.0
220
0.0
230
1.0
 70
     8
 71
     3
 72
    10
 73
     6
 74
     0
 42
0.000000001
 43
0.00000001
 40
0.0
 40
0.0
 40
0.0
 40
0.0
 40
0.2765306019330207
 40
0.5626682704062508
 40
1.0
 40
1.0
 40
1.0
 40
1.0
 10
167.5148899925743
 20
33.0029841877389
 30
0.0
 10
167.4877936939246
 20
32.99947970190668
 30
0.0
 10
167.4326597326593
 20
32.9923489794185
 30
0.0
 10
167.3218845247952
 20
33.01655396826602
 30
0.0
 10
167.2486848473286
 20
33.06624373384974
 30
0.0
 10
167.2044362009619
 20
33.09628081791148
 30
0.0
  0
ARC
  5
2FC
330
1F
100
AcDbEntity
  8
0
  6
Continuous
 62
     7
370
    18
100
AcDbCircle
 10
171.2746321262
 20
33.3726302161
 30
0.0
 40
0.3741935892168026
100
AcDbArc
 50
261.0583116157
 51
312.3945172226
  0
SPLINE
  5
2FD
330
1F
100
AcDbEntity
  8
0
  6
Continuous
 62
     7
370
    18
100
AcDbSpline
210
0.0
220
0.0
230
1.0
 70
     8
 71
     3
 72
    10
 73
     6
 74
     0
 42
0.000000001
 43
0.00000001
 40
0.0
 40
0.0
 40
0.0
 40
0.0
 40
0.3593458896895593
 40
0.8802441281133349
 40
1.0
 40
1.0
 40
1.0
 40
1.0
 10
168.4121441115425
 20
34.43557983007084
 30
0.0
 10
168.4995034679624
 20
34.50902790373004
 30
0.0
 10
168.7134966225544
 20
34.68894435029241
 30
0.0
 10
169.0789182866754
 20
34.74977743029913
 30
0.0
 10
169.3205189491225
 20
34.75446118076389
 30
0.0
 10
169.3656807572091
 20
34.75533670253387
 30
0.0
  0
LINE
  5
2FE
330
1F
100
AcDbEntity
  8
0
  6
Continuous
 62
     7
370
    18
100
AcDbLine
 10
167.204436201
 20
33.0962808179
 30
0.0
 11
168.4121441115
 21
34.4355798301
 31
0.0
  0
LINE
  5
2FF
330
1F
100
AcDbEntity
  8
0
  6
Continuous
 62
     7
370
    18
100
AcDbLine
 10
168.7225979032
 20
34.3422831999
 30
0.0
 11
167.5148899926
 21
33.0029841877
 31
0.0
  0
LINE
  5
300
330
1F
100
AcDbEntity
  8
0
  6
Continuous
 62
     7
370
    18
100
AcDbLine
 10
168.7225979032
 20
34.3422831999
 30
0.0
 11
168.9221753406
 21
34.3883785577
 31
0.0
  0
LINE
  5
301
330
1F
100
AcDbEntity
  8
0
  6
Continuous
 62
     7
370
    18
100
AcDbLine
 10
170.0087636113
 20
34.3422831999
 30
0.0
 11
169.8091861739
 21
34.3883785577
 31
0.0
  0
LINE
  5
302
330
1F
100
AcDbEntity
  8
0
  6
Continuous
 62
     7
370
    18
100
AcDbLine
 10
171.2164715218
 20
33.0029841877
 30
0.0
 11
170.0087636113
 21
34.3422831999
 31
0.0
  0
ARC
  5
303
330
1F
100
AcDbEntity
  8
0
  6
Continuous
 62
     7
370
    18
100
AcDbCircle
 10
168.6644372988
 20
34.7119292283
 30
0.0
 40
0.3741935892168968
100
AcDbArc
 50
227.6054827774
 51
278.9416883842
  0
SPLINE
  5
304
330
1F
100
AcDbEntity
  8
0
  6
Continuous
 62
     7
370
    18
100
AcDbSpline
210
0.0
220
0.0
230
1.0
 70
     8
 71
     3
 72
    10
 73
     6
 74
     0
 42
0.000000001
 43
0.00000001
 40
0.0
 40
0.0
 40
0.0
 40
0.0
 40
0.2765306019330229
 40
0.5626682704062649
 40
1.0
 40
1.0
 40
1.0
 40
1.0
 10
170.0087636112633
 20
34.34228319989825
 30
0.0
 10
170.035859909913
 20
34.33877871406604
 30
0.0
 10
170.0909938711783
 20
34.33164799157786
 30
0.0
 10
170.2017690790425
 20
34.35585298042539
 30
0.0
 10
170.2749687565091
 20
34.40554274600911
 30
0.0
 10
170.3192174028757
 20
34.43557983007084
 30
0.0
  0
SPLINE
  5
305
330
1F
100
AcDbEntity
  8
0
  6
Continuous
 62
     7
370
    18
100
AcDbSpline
210
0.0
220
0.0
230
1.0
 70
     8
 71
     3
 72
     9
 73
     5
 74
     0
 42
0.000000001
 43
0.00000001
 40
0.0
 40
0.0
 40
0.0
 40
0.0
 40
0.5994983664328247
 40
1.0
 40
1.0
 40
1.0
 40
1.0
 10
169.3656807572091
 20
34.60264091222278
 30
0.0
 10
169.2145971948664
 20
34.58351549907462
 30
0.0
 10
168.9625805576207
 20
34.55161313833601
 30
0.0
 10
168.7912257739389
 20
34.40214530950915
 30
0.0
 10
168.7225979031549
 20
34.34228319989825
 30
0.0
  0
SPLINE
  5
306
330
1F
100
AcDbEntity
  8
0
  6
Continuous
 62
     7
370
    18
100
AcDbSpline
210
0.0
220
0.0
230
1.0
 70
     8
 71
     3
 72
     9
 73
     5
 74
     0
 42
0.000000001
 43
0.00000001
 40
0.0
 40
0.0
 40
0.0
 40
0.0
 40
0.4005016335671812
 40
1.0
 40
1.0
 40
1.0
 40
1.0
 10
170.0087636112633
 20
34.34228319989825
 30
0.0
 10
169.9401357404792
 20
34.40214530950915
 30
0.0
 10
169.7687809567975
 20
34.55161313833602
 30
0.0
 10
169.5167643195518
 20
34.58351549907462
 30
0.0
 10
169.3656807572091
 20
34.60264091222278
 30
0.0
  0
LINE
  5
307
330
1F
100
AcDbEntity
  8
0
  6
Continuous
 62
     7
370
    18
100
AcDbLine
 10
168.6922281033
 20
32.6658104887
 30
0.0
 11
168.6922281033
 21
32.7758748905
 31
0.0
  0
LINE
  5
308
330
1F
100
AcDbEntity
  8
0
  6
Continuous
 62
     7
370
    18
100
AcDbLine
 10
170.0776532748
 20
32.7150229357
 30
0.0
 11
170.0776532748
 21
32.8526860895
 31
0.0
  0
LINE
  5
309
330
1F
100
AcDbEntity
  8
0
  6
Continuous
 62
     7
370
    18
100
AcDbLine
 10
168.7863955672
 20
32.6366023507
 30
0.0
 11
168.7863955672
 21
33.1925397162
 31
0.0
  0
LINE
  5
30A
330
1F
100
AcDbEntity
  8
0
  6
Continuous
 62
     7
370
    18
100
AcDbLine
 10
169.8472370263
 20
32.695681233
 30
0.0
 11
169.8472370263
 21
33.2513552381
 31
0.0
  0
LINE
  5
30B
330
1F
100
AcDbEntity
  8
0
  6
Continuous
 62
     7
370
    18
100
AcDbLine
 10
169.1340209063
 20
32.7797999919
 30
0.0
 11
169.1340209063
 21
33.3356460421
 31
0.0
  0
LINE
  5
30C
330
1F
100
AcDbEntity
  8
0
  6
Continuous
 62
     7
370
    18
100
AcDbLine
 10
169.4586046188
 20
32.797876249
 30
0.0
 11
169.4586046188
 21
33.3536417194
 31
0.0
  0
OLE2FRAME
  5
30D
330
1F
100
AcDbEntity
  8
0
100
AcDbOle2Frame
 70
     2
  3
Paintbrush-Bild
 10
13.8511154363
 20
38.264191557
 30
0.0
 11
51.6290888628
 21
31.9806341108
 31
0.0
 71
     2
 72
     0
 73
     1
 90
    12928
310
80552BED0767C5B32B40DDAF6807D121434000000000000000006FFBDDFB85D0
310
4940DDAF6807D121434000000000000000006FFBDDFB85D04940416F4BD60AFB
310
3F4000000000000000002BED0767C5B32B40416F4BD60AFB3F40000000000000
310
0000000000000100000000010000010000000100000000000100000000320000
310
D0CF11E0A1B11AE1000000000000000000000000000000003E000300FEFF0900
310
0600000000000000000000000100000001000000000000000010000002000000
310
01000000FEFFFFFF0000000000000000FFFFFFFFFFFFFFFFFFFFFFFFFFFFFFFF
310
FFFFFFFFFFFFFFFFFFFFFFFFFFFFFFFFFFFFFFFFFFFFFFFFFFFFFFFFFFFFFFFF
310
FFFFFFFFFFFFFFFFFFFFFFFFFFFFFFFFFFFFFFFFFFFFFFFFFFFFFFFFFFFFFFFF
310
FFFFFFFFFFFFFFFFFFFFFFFFFFFFFFFFFFFFFFFFFFFFFFFFFFFFFFFFFFFFFFFF
310
FFFFFFFFFFFFFFFFFFFFFFFFFFFFFFFFFFFFFFFFFFFFFFFFFFFFFFFFFFFFFFFF
310
FFFFFFFFFFFFFFFFFFFFFFFFFFFFFFFFFFFFFFFFFFFFFFFFFFFFFFFFFFFFFFFF
310
FFFFFFFFFFFFFFFFFFFFFFFFFFFFFFFFFFFFFFFFFFFFFFFFFFFFFFFFFFFFFFFF
310
FFFFFFFFFFFFFFFFFFFFFFFFFFFFFFFFFFFFFFFFFFFFFFFFFFFFFFFFFFFFFFFF
310
FFFFFFFFFFFFFFFFFFFFFFFFFFFFFFFFFFFFFFFFFFFFFFFFFFFFFFFFFFFFFFFF
310
FFFFFFFFFFFFFFFFFFFFFFFFFFFFFFFFFFFFFFFFFFFFFFFFFFFFFFFFFFFFFFFF
310
FFFFFFFFFFFFFFFFFFFFFFFFFFFFFFFFFFFFFFFFFFFFFFFFFFFFFFFFFFFFFFFF
310
FFFFFFFFFFFFFFFFFFFFFFFFFFFFFFFFFFFFFFFFFFFFFFFFFFFFFFFFFFFFFFFF
310
FFFFFFFFFFFFFFFFFFFFFFFFFFFFFFFFFFFFFFFFFFFFFFFFFFFFFFFFFFFFFFFF
310
FFFFFFFFFFFFFFFFFFFFFFFFFFFFFFFFFFFFFFFFFFFFFFFFFFFFFFFFFFFFFFFF
310
FDFFFFFFFEFFFFFFFEFFFFFFFEFFFFFF05000000060000000700000008000000
310
090000000A0000000B0000000C0000000D0000000E0000000F00000010000000
310
11000000120000001300000014000000150000001600000017000000FEFFFFFF
310
FFFFFFFFFFFFFFFFFFFFFFFFFFFFFFFFFFFFFFFFFFFFFFFFFFFFFFFFFFFFFFFF
310
FFFFFFFFFFFFFFFFFFFFFFFFFFFFFFFFFFFFFFFFFFFFFFFFFFFFFFFFFFFFFFFF
310
FFFFFFFFFFFFFFFFFFFFFFFFFFFFFFFFFFFFFFFFFFFFFFFFFFFFFFFFFFFFFFFF
310
FFFFFFFFFFFFFFFFFFFFFFFFFFFFFFFFFFFFFFFFFFFFFFFFFFFFFFFFFFFFFFFF
310
FFFFFFFFFFFFFFFFFFFFFFFFFFFFFFFFFFFFFFFFFFFFFFFFFFFFFFFFFFFFFFFF
310
FFFFFFFFFFFFFFFFFFFFFFFFFFFFFFFFFFFFFFFFFFFFFFFFFFFFFFFFFFFFFFFF
310
FFFFFFFFFFFFFFFFFFFFFFFFFFFFFFFFFFFFFFFFFFFFFFFFFFFFFFFFFFFFFFFF
310
FFFFFFFFFFFFFFFFFFFFFFFFFFFFFFFFFFFFFFFFFFFFFFFFFFFFFFFFFFFFFFFF
310
FFFFFFFFFFFFFFFFFFFFFFFFFFFFFFFFFFFFFFFFFFFFFFFFFFFFFFFFFFFFFFFF
310
FFFFFFFFFFFFFFFFFFFFFFFFFFFFFFFFFFFFFFFFFFFFFFFFFFFFFFFFFFFFFFFF
310
FFFFFFFFFFFFFFFFFFFFFFFFFFFFFFFFFFFFFFFFFFFFFFFFFFFFFFFFFFFFFFFF
310
FFFFFFFFFFFFFFFFFFFFFFFFFFFFFFFFFFFFFFFFFFFFFFFFFFFFFFFFFFFFFFFF
310
FFFFFFFFFFFFFFFFFFFFFFFFFFFFFFFFFFFFFFFFFFFFFFFFFFFFFFFFFFFFFFFF
310
52006F006F007400200045006E00740072007900000000000000000000000000
310
0000000000000000000000000000000000000000000000000000000000000000
310
16000500FFFFFFFFFFFFFFFF020000000A00030000000000C000000000000046
310
0000000000000000000000004052F46883F9D20103000000C000000000000000
310
01004F006C006500000000000000000000000000000000000000000000000000
310
0000000000000000000000000000000000000000000000000000000000000000
310
0A000200FFFFFFFFFFFFFFFFFFFFFFFF00000000000000000000000000000000
310
0000000000000000000000000000000000000000000000001400000000000000
310
010043006F006D0070004F0062006A0000000000000000000000000000000000
310
0000000000000000000000000000000000000000000000000000000000000000
310
120002010100000003000000FFFFFFFF00000000000000000000000000000000
310
0000000000000000000000000000000000000000010000004D00000000000000
310
01004F006C006500310030004E00610074006900760065000000000000000000
310
0000000000000000000000000000000000000000000000000000000000000000
310
1A000200FFFFFFFFFFFFFFFFFFFFFFFF00000000000000000000000000000000
310
0000000000000000000000000000000000000000040000002426000000000000
310
FEFFFFFF02000000FEFFFFFFFFFFFFFFFFFFFFFFFFFFFFFFFFFFFFFFFFFFFFFF
310
FFFFFFFFFFFFFFFFFFFFFFFFFFFFFFFFFFFFFFFFFFFFFFFFFFFFFFFFFFFFFFFF
310
FFFFFFFFFFFFFFFFFFFFFFFFFFFFFFFFFFFFFFFFFFFFFFFFFFFFFFFFFFFFFFFF
310
FFFFFFFFFFFFFFFFFFFFFFFFFFFFFFFFFFFFFFFFFFFFFFFFFFFFFFFFFFFFFFFF
310
FFFFFFFFFFFFFFFFFFFFFFFFFFFFFFFFFFFFFFFFFFFFFFFFFFFFFFFFFFFFFFFF
310
FFFFFFFFFFFFFFFFFFFFFFFFFFFFFFFFFFFFFFFFFFFFFFFFFFFFFFFFFFFFFFFF
310
FFFFFFFFFFFFFFFFFFFFFFFFFFFFFFFFFFFFFFFFFFFFFFFFFFFFFFFFFFFFFFFF
310
FFFFFFFFFFFFFFFFFFFFFFFFFFFFFFFFFFFFFFFFFFFFFFFFFFFFFFFFFFFFFFFF
310
FFFFFFFFFFFFFFFFFFFFFFFFFFFFFFFFFFFFFFFFFFFFFFFFFFFFFFFFFFFFFFFF
310
FFFFFFFFFFFFFFFFFFFFFFFFFFFFFFFFFFFFFFFFFFFFFFFFFFFFFFFFFFFFFFFF
310
FFFFFFFFFFFFFFFFFFFFFFFFFFFFFFFFFFFFFFFFFFFFFFFFFFFFFFFFFFFFFFFF
310
FFFFFFFFFFFFFFFFFFFFFFFFFFFFFFFFFFFFFFFFFFFFFFFFFFFFFFFFFFFFFFFF
310
FFFFFFFFFFFFFFFFFFFFFFFFFFFFFFFFFFFFFFFFFFFFFFFFFFFFFFFFFFFFFFFF
310
FFFFFFFFFFFFFFFFFFFFFFFFFFFFFFFFFFFFFFFFFFFFFFFFFFFFFFFFFFFFFFFF
310
FFFFFFFFFFFFFFFFFFFFFFFFFFFFFFFFFFFFFFFFFFFFFFFFFFFFFFFFFFFFFFFF
310
FFFFFFFFFFFFFFFFFFFFFFFFFFFFFFFFFFFFFFFFFFFFFFFFFFFFFFFFFFFFFFFF
310
0100000200000000000000000000000000000000000000000000000000000000
310
0000000000000000000000000000000000000000000000000000000000000000
310
0100FEFF030A0000FFFFFFFF0A00030000000000C00000000000004607000000
310
5042727573680007000000504272757368000700000050427275736800F439B2
310
7100000000000000000000000000000000000000000000000000000000000000
310
0000000000000000000000000000000000000000000000000000000000000000
310
0000000000000000000000000000000000000000000000000000000000000000
310
0000000000000000000000000000000000000000000000000000000000000000
310
0000000000000000000000000000000000000000000000000000000000000000
310
0000000000000000000000000000000000000000000000000000000000000000
310
0000000000000000000000000000000000000000000000000000000000000000
310
0000000000000000000000000000000000000000000000000000000000000000
310
0000000000000000000000000000000000000000000000000000000000000000
310
0000000000000000000000000000000000000000000000000000000000000000
310
0000000000000000000000000000000000000000000000000000000000000000
310
0000000000000000000000000000000000000000000000000000000000000000
310
20260000424D0E260000000000003E00000028000000B40200006E0000000100
310
01000000000000000000130B0000130B00000200000002000000000000FFFFFF
310
FFFFFFFFFFFFFFFFFFFFFFFFFFFFFFFFFFFFFFFFFFFFFFFFFFFFFFFFFFFFFFFF
310
FFFFFFFFFFFFFFFFFFFFFFFFFFFFFFFFFFFFFFFFFFFFFFFFFFFFFFFFFFFFFFFF
310
FFFFFFFFFFFFFFFFFFFFFFFFFFFFFFFFFFFFFFFFFFFFFFFFF000FFFFFFFFFFFF
310
FFFFFFFFFFFFFFFFFFFFFFFFFFFFFFFFFFFFFFFFFFFFFFFFFFFFFFFFFFFFFFFF
310
FFFFFFFFFFFFFFFFFFFFFFFFFFFFFFFFFFFFFFFFFFFFFFFFFFFFFFFFFFFFFFFF
310
FFFFFFFFFFFFFFFFFFFFFFFFFFFFFFFFF000FFFFFFFFFFFFFFFFFFFFFFFFFFFF
310
FFFFFFFFFFFFFFFFFFFFFFFFFFFFFFFFFFFFFFFFFFFFFFFFFFFFFFFFFFFFFFFF
310
FFFFFFFFFFFFFFFFFFFFFFFFFFFFFFFFFFFFFFFFFFFFFFFFFFFFFFFFFFFFFFFF
310
FFFFFFFFFFFFFFFFF000FFFFFFFFFFFFFFFFFFFFFFFFFFFFFFFFFFFFFFFFFFFF
310
FFFFFFFFFFFFFFFFFFFFFFFFFFFFFFFFFFFFFFFFFFFFFFFFFFFFFFFFFFFFFFFF
310
FFFFFFFFFFFFFFFFFFFFFFFFFFFFFFFFFFFFFFFFFFFFFFFFFFFFFFFFFFFFFFFF
310
F000FFFFFFFFFFFFFFFFFFFFFFFFFFFFFFFFFFFFFFFFFFFFFFFFFFFFFFFFFFFF
310
FFFFFFFFFFFFFFFFFFFFFFFFFFFFFFFFFFFFFFFFFFFFFFFFFFFFFFFFFFFFFFFF
310
FFFFFFFFFFFFFFFFFFFFFFFFFFFFFFFFFFFFFFFFFFFFFFFFF000FFFFFFFFFFFF
310
FFFFFFFFFFFFFFFFFFFFFFFFFFFFFFFFFFFFFFFFFFFFFFFFFFFFFFFFFFFFFFFF
310
FFFFFFFFFFFFFFFFFFFFFFFFFFFFFFFFFFFFFFFFFFFFFFFFFFFFFFFFFFFFFFFF
310
FFFFFFFFFFFFFFFFFFFFFFFFFFFFFFFFF000FFFFFFFFFFFFFFFFFFFFFFFFFFFF
310
FFFFFFFFFFFFFFFFFFFFFFFFFFFFFFFFFFFFFFFFFFFFFFFFFFFFFFFFFFFFFFFF
310
FFFFFFFFFFFFFFFFFFFFFFFFFFFFFFFFFFFFFFFFFFFFFFFFFFFFFFFFFFFFFFFF
310
FFFFFFFFFFFFFFFFF000FFFFFFFFFFFFFFFFFFFFFFFFFFFFFFFFFFFFFFFFFFFF
310
FFFFFFFFFFFFFFFFFFFFFFFFFFFFFFFFFFFFFFFFFFFFFFFFFFFFFFFFFFFFFFFF
310
FFFFFFFFFFFFFFFFFFFFFFFFFFFFFFFFFFFFFFFFFFFFFFFFFFFFFFFFFFFFFFFF
310
F000FFFFFFFFFFFFFFFFFFFFFFFFFFFFFFFFFFFFFFFFFFFFFFFFFFFFFFFFFFFF
310
FFFFFFFFFFFFFFFFFFFFFFFFFFFFFFFFFFFFFFFFFFFFFFFFFFFFFFFFFFFFFFFF
310
FFFFFFFFFFFFFFFFFFFFFFFFFFFFFFFFFFFFFFFFFFFFFFFFF000FFFFFFFFFFFF
310
FFFFFFFFFFFFFFFFFFFFFFFFFFFFFFFFFFFFFFFFFFFFFFFFFFFFFFFFFFFFFFFF
310
FFFFFFFFFFFFFFFFFFFFFFFFFFFFFFFFFFFFFFFFFFFFFFFFFFFFFFFFFFFFFFFF
310
FFFFFFFFFFFFFFFFFFFFFFFFFFFFFFFFF000FFFFFFFFFFFFFFFFFFFFFFFFFFFF
310
FFFFFFFFFFFFFFFFFFFFFFFFFFFFFFFFFFFFFFFFFFFFFFFFFFFFFFFFFFFFFFFF
310
FFFFFFFFFFFFFFFFFFFFFFFFFFFFFFFFFFFFFFFFFFFFFFFFFFFFFFFFFFFFFFFF
310
FFFFFFFFFFFFFFFFF000FFFFFFFFFFFFFFFFFFFFFFFFFFFFFFFFFFFFFFFFFFFF
310
FFFFFFFFFFFFFFFFFFFFFFFFFFFFFFFFFFFFFFFFFFFFFFFFFFFFFFFFFFFFFFFF
310
FFFFFFFFFFFFFFFFFFFFFFFFFFFFFFFFFFFFFFFFFFFFFFFFFFFFFFFFFFFFFFFF
310
F000FFFFFFFFFFFFFFFFFFFFFFFFFFFFFFFFFFFFFFFFFFFFFFFFFFFFFFFFFFFF
310
FFFFFFFFFFFFFFFFFFFFFFFFFFFFFFFFFFFFFFFFFFFFFFFFFFFFFFFFFFFFFFFF
310
FFFFFFFFFFFFFFFFFFFFFFFFFFFFFFFFFFFFFFFFFFFFFFFFF000FFFFFFFFFFFF
310
FFFFFFFFFFFFFFFFFFFFFFFFFFFFFFFFFFFFFFFFFFFFFFFFFFFFFFFFFFFFFFFF
310
FFFFFFFFFFFFFFFFFFFFFFFFFFFFFFFFFFFFFFFFFFFFFFFFFFFFFFFFFFFFFFFF
310
FFFFFFFFFFFFFFFFFFFFFFFFFFFFFFFFF000FFFFFFFFFFFFFFFFFFFFFFFFFFFF
310
FFFFFFFFFFFFFFFFFFFFFFFFFFFFFFFFFFFFFFFFFFFFFFFFFFFFFFFFFFFFFFFF
310
FFFFFFFFFFFFFFFFFFFFFFFFFFFFFFFFFFFFFFFFFFFFFFFFFFFFFFFFFFFFFFFF
310
FFFFFFFFFFFFFFFFF000FFFFFFFFFFFFFFFFFFFFFFFFFFFFFFFFFFFFFFFFFFFF
310
FFFFFFFFFFFFFFFFFFFFFFFFFFFFFFFFFFFFFFFFFFFFFFFFFFFFFFFFFFFFFFFF
310
FFFFFFFFFFFFFFFFFFFFFFFFFFFFFFFFFFFFFFFFFFFFFFFFFFFFFFFFFFFFFFFF
310
F000FFFFFFFFFFFFFFFFFFFFFFFFFFFFFFFFFFFFFFFFFFFFFFFFFFFFFFFFFFFF
310
FFFFFFFFFFFFFFFFFFFFFFFFFFFFFFFFFFFFFFFFFFFFFFFFFFFFFFFFFFFFFFFF
310
FFFFFFFFFFFFFFFFFFFFFFFFFFFFFFFFFFFFFFFFFFFFFFFFF000FFFFFFFFFFFF
310
FFFFFFFFFFFFFFFFFFFFFFFFFFFFFFFFFFFFFFFFFFFFFFFFFFFFFFFFFFFFFFFF
310
FFFFFFFFFFFFFFFFFFFFFFFFFFFFFFFFFFFFFFFFFFFFFFFFFFFFFFFFFFFFFFFF
310
FFFFFFFFFFFFFFFFFFFFFFFFFFFFFFFFF000FFFFFFFFFFFFFFFFFFFFFFFFFFFF
310
FFFFFFFFFFFFFFFFFFFFFFFFFFFFFFFFFFFFFFFFFFFFFFFFFFFFFFFFFFFFFFFF
310
FFFFFFFFFFFFFFFFFFFFFFFFFFFFFFFFFFFFFFFFFFFFFFFFFFFFFFFFFFFFFFFF
310
FFFFFFFFFFFFFFFFF000FFFFF80003FFFFFFFFFFFFFFFFFFFFFFFFFFFFFFFFFF
310
FFFFF00007FFFFFFFFFF00007FFFFFF800000000000000007FFFFFFFFFFFFFFF
310
FFFFFFFC001FFFFFFFFFFFFFFC001FFFFFFFFFFFFFFFFFFFFFFFFFFE0007FFFF
310
F000FFFF8000007FFFFFFFF8000FFFFFC0007FFFFF80007FFFFF0000007FFFFF
310
FFF8000007FFFFF800000000000000007FFFFFF0001FFFFFFFFFFFC00001FFFF
310
FFFFFFFFC00001FFFFFFFF000000000003FFFFE000007FFFF000FFFE0000000F
310
FFFFFFF0000FFFFF80007FFFFF80007FFFFC0000001FFFFFFFC0000001FFFFF8
310
00000000000000007FFFFFF0001FFFFFFFFFFE0000003FFFFFFFFFFE0000003F
310
FFFFFF000000000003FFFF0000000FFFF000FFF800000003FFFFFFF00007FFFF
310
80007FFFFF80007FFFF000000007FFFFFF000000003FFFF80000000000000000
310
7FFFFFF0001FFFFFFFFFF80000000FFFFFFFFFF80000000FFFFFFF0000000000
310
03FFFC00000003FFF000FFE000000000FFFFFFF00007FFFF80003FFFFF80007F
310
FFC000000001FFFFFC000000001FFFF800000000000000007FFFFFF0001FFFFF
310
FFFFE000000003FFFFFFFFE000000003FFFFFF000000000003FFF000000000FF
310
F000FF80000000007FFFFFF00007FFFF80003FFFFF80007FFF8000000000FFFF
310
F80000000007FFF800000000000000007FFFFFF0001FFFFFFFFFC000000001FF
310
FFFFFFC000000001FFFFFF000000000003FFC0000000007FF000FF0000000000
310
3FFFFFE00007FFFF00003FFFFF80007FFE00000000003FFFF00000000003FFF8
310
00000000000000007FFFFFF0001FFFFFFFFF8000000000FFFFFFFF8000000000
310
FFFFFF000000000003FF80000000003FF000FE00000000001FFFFFE00003FFFF
310
00003FFFFF80007FFC00000000001FFFE00000000001FFF8000001FFFE000000
310
7FFFFFF0001FFFFFFFFE00000000003FFFFFFE00000000003FFFFF0000000000
310
03FF00000000001FF000FC00000000000FFFFFE00003FFFF00001FFFFF80007F
310
F800000000001FFFC00000000000FFF8000001FFFE0000007FFFFFF0001FFFFF
310
FFFC00000000001FFFFFFC00000000001FFFFF000000000003FE00000000000F
310
F000F8000000000007FFFFE00003FFFF00001FFFFF80007FF800000000000FFF
310
800000000000FFF8000001FFFE0000007FFFFFF0001FFFFFFFF800000000000F
310
FFFFF800000000000FFFFF000000000003FC000000000007F000F80000000000
310
03FFFFC00003FFFE00001FFFFF80007FF0000000000007FF0000000000007FF8
310
000001FFFE0000007FFFFFF0001FFFFFFFF0000000000007FFFFF00000000000
310
07FFFF000000000003F8000000000003F000F0000000000003FFFFC00001FFFE
310
00001FFFFF80007FE0000000000007FE0000000000003FF8000001FFFE000000
310
7FFFFFF0001FFFFFFFF0000000000007FFFFF0000000000007FFFF0000000000
310
03F800001F800003F000E00001FFF00001FFFFC00001FFFE00000FFFFF80007F
310
E00001FFE00003FE00001FFF00003FF8000001FFFE0000007FFFFFF0001FFFFF
310
FFE000003E000003FFFFE000003E000003FFFF000000000003F00001FFF80001
310
F000E00007FFFC0001FFFFC00001FFFE00000FFFFF80007FC0000FFFFC0003FC
310
0000FFFFC0001FF8000001FFFE0000007FFFFFF0001FFFFFFFC00003FFE00001
310
FFFFC00003FFE00001FFFF0001FFFFFFFFF00007FFFE0001F000E0000FFFFF00
310
00FFFF800001FFFC00000FFFFF80007FC0001FFFFE0001FC0001FFFFE0001FF8
310
000001FFFE0000007FFFFFF0001FFFFFFF80000FFFF80000FFFF80000FFFF800
310
00FFFF0003FFFFFFFFE0000FFFFF8000F000C0003FFFFF8000FFFF800000FFFC
310
000007FFFF80007F80003FFFFF0001FC0003FFFFF0001FF8000001FFFE000000
310
7FFFFFF0001FFFFFFF80003FFFFE0000FFFF80003FFFFE0000FFFF0003FFFFFF
310
FFE0003FFFFF8000F000C0003FFFFF8000FFFF800000FFFC000007FFFF80007F
310
80007FFFFF8001F80007FFFFF8000FF8000001FFFE0000007FFFFFF0001FFFFF
310
FF00007FFFFF00007FFF00007FFFFF00007FFF0003FFFFFFFFE0003FFFFFC000
310
F000C0007FFFFFC000FFFF000000FFFC000007FFFF80007F8000FFFFFF8000F8
310
000FFFFFF8000FF8000001FFFE0000007FFFFFF0001FFFFFFF0000FFFFFF8000
310
7FFF0000FFFFFF80007FFF0003FFFFFFFFC0007FFFFFC00070008000FFFFFFC0
310
00FFFF000000FFF8000007FFFF80007F8000FFFFFF8000F8000FFFFFF8000FF8
310
000001FFFE0000007FFFFFF0001FFFFFFE0001FFFFFFC0003FFE0001FFFFFFC0
310
003FFF0003FFFFFFFFC0007FFFFFE00070008000FFFFFFC0007FFF0000007FF8
310
000003FFFF80007F0001FFFFFF8000F8000FFFFFF8000FF8000001FFFE000000
310
7FFFFFF0001FFFFFFE0001FFFFFFC0003FFE0001FFFFFFC0003FFF0003FFFFFF
310
FFC000FFFFFFE00070008000FFFFFFC0007FFF0000007FF8000003FFFF80007F
310
0001FFFFFF8000F8001FFFFFF8000FF8000001FFFE0000007FFFFFF0001FFFFF
310
FE0003FFFFFFE0003FFE0003FFFFFFE0003FFF0003FFFFFFFFC000FFFFFFE000
310
70008000FFFFFFC0007FFE0000007FF8000003FFFF80007F0001FFFFFF8000F0
310
001FFFFFF8000FF8000001FFFE0000007FFFFFF0001FFFFFFC0003FFFFFFE000
310
1FFC0003FFFFFFE0001FFF0003FFFFFFFFC000FFFFFFC00070008000FFFFFF80
310
007FFE0000007FF0000003FFFF80007F0001FFFFFF0000F0001FFFFFF8000FF8
310
000001FFFE0000007FFFFFF0001FFFFFFC0007FFFFFFF0001FFC0007FFFFFFF0
310
001FFF0003FFFFFFFFC000FFFFFFC00070008001FFFFFF0000FFFE0000003FF0
310
000001FFFF80007F0001FFFFFF0000F8001FFFFFF0000FF8000001FFFE000000
310
7FFFFFF0001FFFFFFC0007FFFFFFF0001FFC0007FFFFFFF0001FFF0003FFFFFF
310
FFC001FFFFFF80007000FFFFFFFFFE0000FFFE0008003FF0008001FFFF80007F
310
FFFFFFFFFC0000FFFFFFFFFFE0000FF8000001FFFE0000007FFFFFF0001FFFFF
310
F8000FFFFFFFF8000FF8000FFFFFFFF8000FFF0003FFFFFFFFFFFFFFFFFF0000
310
7000FFFFFFFFFC0000FFFC0008003FF0008001FFFF80007FFFFFFFFFF80001FF
310
FFFFFFFF80000FF8000001FFFE0000007FFFFFF0001FFFFFF8000FFFFFFFF800
310
0FF8000FFFFFFFF8000FFF0003FFFFFFFFFFFFFFFFFE0000F000FFFFFFFFE000
310
00FFFC000C003FE000C001FFFF80007FFFFFFFFFC00001FFFFFFFFFE00001FF8
310
000001FFFE0000007FFFFFF0001FFFFFF8000FFFFFFFF8000FF8000FFFFFFFF8
310
000FFF0003FFFFFFFFFFFFFFFFF00000F000FFFFFFFE000001FFFC000C001FE0
310
00C000FFFF80007FFFFFFFFE000001FFFFFFFFE000001FF80FFFFFFFFFFFFFC0
310
7FFFFFF0001FFFFFF8000FFFFFFFF8000FF8000FFFFFFFF8000FFF0003FFFFFF
310
FFFFFFFFFF800000F000FFFFFFC0000001FFFC001C001FE001C000FFFF80007F
310
FFFFFF80000003FFFFFFF80000001FF80FFFFFFFFFFFFFC07FFFFFF0001FFFFF
310
F8001FFFFFFFFC000FF8001FFFFFFFFC000FFF0003FFFFFFFFFFFFFFF0000001
310
F000FFFFF800000001FFF8001C001FE001C000FFFF80007FFFFFF800000003FF
310
FFFF800000003FF80FFFFFFFFFFFFFC07FFFFFF0001FFFFFF8001FFFFFFFFC00
310
0FF8001FFFFFFFFC000FFF0003FFFFFFFFFFFFFE00000001F000FFFFC0000000
310
03FFF8001E001FC001E000FFFF80007FFFFF8000000007FFFFFC000000003FF8
310
0FFFFFFFFFFFFFC07FFFFFF0001FFFFFF8001FFFFFFFFC000FF8001FFFFFFFFC
310
000FFF0003FFFFFFFFFFFFE000000003F000FFFE0000000007FFF8001E000FC0
310
01E0007FFF80007FFFFE0000000007FFFFE0000000007FF80FFFFFFFFFFFFFC0
310
7FFFFFF0001FFFFFF0001FFFFFFFFC0007F0001FFFFFFFFC0007FF0003FFFFFF
310
FFFFFF0000000003F000FFF80000000007FFF8001E000FC003E0007FFF80007F
310
FFF0000000000FFFFF8000000000FFF80FFFFFFFFFFFFFC07FFFFFF0001FFFFF
310
F0001FFFFFFFFC0007F0001FFFFFFFFC0007FF0003FFFFFFFFFFFC0000000007
310
F000FFE0000000000FFFF0003E000FC003E0007FFF80007FFFC0000000001FFF
310
FE0000000001FFF80FFFFFFFFFFFFFC07FFFFFF0001FFFFFF0001FFFFFFFFC00
310
07F0001FFFFFFFFC0007FF0003FFFFFFFFFFF0000000000FF000FFC000000000
310
1FFFF0003F000F8003F0003FFF80007FFF80000000003FFFF80000000003FFF8
310
0FFFFFFFFFFFFFC07FFFFFF0001FFFFFF0001FFFFFFFFC0007F0001FFFFFFFFC
310
0007FF0003FFFFFFFFFFE0000000001FF000FF00000000007FFFF0003F000780
310
03F0003FFF80007FFF00000000007FFFF00000000007FFF80FFFFFFFFFFFFFC0
310
7FFFFFF0001FFFFFF0001FFFFFFFFC0007F0001FFFFFFFFC0007FF0003FFFFFF
310
FFFF80000000007FF000FE0000000000FFFFE0003F00078007F0003FFF80007F
310
FE0000000001FFFFE0000000001FFFF80FFFFFFFFFFFFFC07FFFFFF0001FFFFF
310
F0001FFFFFFFFC0007F0001FFFFFFFFC0007FF0003FFFFFFFFFF0000000000FF
310
F000FC0000000003FFFFE0007F00078007F0003FFF80007FFC0000000007FFFF
310
C0000000007FFFF80FFFFFFFFFFFFFC07FFFFFF0001FFFFFF8001FFFFFFFFC00
310
0FF8001FFFFFFFFC000FFF0003FFFFFFFFFE0000000003FFF000FC000000000F
310
FFFFE0007F80070007F8001FFF80007FF8000000001FFFFF8000000001FFFFF8
310
0FFFFFFFFFFFFFC07FFFFFF0001FFFFFF8001FFFFFFFFC000FF8001FFFFFFFFC
310
000FFF0003FFFFFFFFFC000000000FFFF000F8000000007FFFFFE0007F800700
310
07F8001FFF80007FF000000000FFFFFF800000000FFFFFF80FFFFFFFFFFFFFC0
310
7FFFFFF0001FFFFFF8000FFFFFFFF8000FF8000FFFFFFFF8000FFF0003FFFFFF
310
FFFC000000007FFFF000F800000007FFFFFFC0007F8003000FF8001FFF80007F
310
F000000007FFFFFF000000007FFFFFF80FFFFFFFFFFFFFC07FFFFFF0001FFFFF
310
F8000FFFFFFFF8000FF8000FFFFFFFF8000FFF0003FFFFFFFFF80000000FFFFF
310
F000F0000000FFFFFFFFC000FF8003000FF8001FFF80007FE0000000FFFFFFFF
310
0000000FFFFFFFF8000001FFFE0000007FFFFFF0001FFFFFF8000FFFFFFFF800
310
0FF8000FFFFFFFF8000FFF0003FFFFFFFFF8000000FFFFFFF000F000000FFFFF
310
FFFFC000FFC002000FF8000FFF80007FE000001FFFFFFFFE000001FFFFFFFFF8
310
000001FFFE0000007FFFFFF0001FFFFFF8000FFFFFFFF8000FF8000FFFFFFFF8
310
000FFF0003FFFFFFFFF000001FFFFFFFF000E00000FFFFFFFFFFC000FFC00200
310
0FFC000FFF80007FE00001FFFFFFFFFE00001FFFFFFFFFF8000001FFFE000000
310
7FFFFFF0001FFFFFFC000FFFFFFFF8001FFC000FFFFFFFF8001FFF0003FFFFFF
310
FFF00001FFFFFFFFF000E00007FFFFFFFFFF8000FFC000001FFC000FFF80007F
310
C0000FFFFFFFFFFE0000FFFFFFFFFFF8000001FFFE0000007FFFFFF0001FFFFF
310
FC0007FFFFFFF0001FFC0007FFFFFFF0001FFF0003FFFFFFFFF00007FFFFFFFF
310
F000E0001FFFFFFFFFFF8000FFC000001FFC000FFF80007FC0003FFFFFFFFFFE
310
0001FFFFFFFFFFF8000001FFFE0000007FFFFFF0001FFFFFFC0007FFFFFFF000
310
1FFC0007FFFFFFF0001FFF0003FFFFFFFFF0001FFFFFFFFFF000E0003FFFFF00
310
03FF8001FFE000001FFC0007FF80007FC0007FFFFF0007FC0003FFFFF0003FF8
310
000001FFFE0000007FFFFFF0001FFFFFFC0003FFFFFFE0001FFC0003FFFFFFE0
310
001FFF0003FFFFFFFFF0003FFFFFFFFFF000E0003FFFFF0001FF8001FFE00000
310
1FFE0007FF80007FC0007FFFFE0003FC0007FFFFE0003FF8000001FFFE000000
310
7FFFFFF0001FFFFFFE0003FFFFFFE0003FFE0003FFFFFFE0003FFF0003FFFFFF
310
FFF0003FFFFF8001F000E0003FFFFF0001FF0001FFE000001FFE0007FF80007F
310
C0007FFFFE0003FC0007FFFFE0003FF8000001FFFE0000007FFFFFF0001FFFFF
310
FE0001FFFFFFC0003FFE0001FFFFFFC0003FFF0003FFFFFFFFF0003FFFFF0001
310
F000E0003FFFFF0003FF0001FFE000003FFE0007FF80007FC0007FFFFE0003FC
310
0007FFFFE0003FF8000001FFFE0000007FFFFFF0001FFFFFFF0001FFFFFFC000
310
7FFF0001FFFFFFC0007FFF0003FFFFFFFFF0003FFFFF0001F000E0003FFFFE00
310
03FF0003FFF000003FFE0003FF80007FC0007FFFFC0003FE0007FFFFE0003FF8
310
000001FFFE0000007FFFFFF0001FFFFFFF0000FFFFFF80007FFF0000FFFFFF80
310
007FFF0003FFFFFFFFF0003FFFFF0001F000E0003FFFFE0003FF0003FFF00000
310
3FFF0003FF80007FC0007FFFFC0007FE0007FFFFC0003FF8000001FFFE000000
310
7FFFFFF0001FFFFFFF80007FFFFF0000FFFF80007FFFFF0000FFFF0003FFFFFF
310
FFF0003FFFFF0003F000E0003FFFFC0003FE0003FFF000003FFF0003FF80007F
310
E0003FFFF80007FE0003FFFFC0007FF8000001FFFE0000007FFFFFF0001FFFFF
310
FF80003FFFFE0000FFFF80003FFFFE0000FFFF0003FFFFFFFFF0001FFFFE0003
310
F000F0001FFFF80003FE0003FFF000007FFF0001FF80007FE0003FFFF00007FE
310
0001FFFF80007FF8000001FFFE0000007FFFFFF0001FFFFFFFC0000FFFF80001
310
FFFFC0000FFFF80001FFFF0003FFFFFFFFF0001FFFFC0003F000F0000FFFF000
310
07FE0007FFF800007FFF0001FF80007FE0001FFFE00007FF0000FFFE00007FF8
310
000001FFFE0000007FFFFFF0001FFFFFFFC00003FFE00001FFFFC00003FFE000
310
01FFFF0003FFFFFFFFF8000FFFF80003F000F00003FFC00007FC0007FFF80000
310
7FFF8001FF80007FF00007FF80000FFF00007FF80000FFF8000001FFFE000000
310
7F80000000000001FFE000003E000003FFFFE000003E000003FFFF0003FFFFFF
310
FFF80003FFE00007F000F800000000000FFC0007FFF800007FFF8001FF80007F
310
F000000000000FFF000000000000FFF8000001FFFE0000007F80000000000001
310
FFF0000000000007FFFFF0000000000007FFFF0003FFFFFFFFFC00007E000007
310
F000F800000000000FFC0007FFF80000FFFF8000FF80007FF800000000001FFF
310
800000000001FFF8000001FFFE0000007F80000000000001FFF800000000000F
310
FFFFF800000000000FFFFF0003FFFFFFFFFC00000000000FF000FC0000000000
310
1FFC0007FFFC0000FFFF8000FF80007FF800000000003FFFC00000000001FFF8
310
000001FFFE0000007F80000000000001FFF800000000000FFFFFF80000000000
310
0FFFFF0003FFFFFFFFFE00000000001FF000FE00000000003FF8000FFFFC0000
310
FFFF8000FF80007FFC00000000003FFFC00000000003FFF8000001FFFE000000
310
7F80000000000001FFFC00000000001FFFFFFC00000000001FFFFF0003FFFFFF
310
FFFF00000000001FF000FF00000000003FF8000FFFFC0000FFFFC000FF80007F
310
FE00000000007FFFE00000000007FFF8000001FFFE0000007F80000000000001
310
FFFE00000000003FFFFFFE00000000003FFFFF0003FFFFFFFFFF80000000003F
310
F000FF80000000007FF8000FFFFC0001FFFFC0007F80007FFF0000000000FFFF
310
F0000000000FFFF800000000000000007F80000000000001FFFF8000000000FF
310
FFFFFF8000000000FFFFFF0003FFFFFFFFFFC0000000007FF000FFC000000000
310
FFF8000FFFFE0001FFFFC0007F80007FFF8000000001FFFFF8000000001FFFF8
310
00000000000000007F80000000000001FFFFC000000001FFFFFFFFC000000001
310
FFFFFF0003FFFFFFFFFFE000000000FFF000FFE000000003FFF0001FFFFE0001
310
FFFFC0007F80007FFFC000000007FFFFFE000000003FFFF80000000000000000
310
7F80000000000001FFFFE000000003FFFFFFFFE000000003FFFFFF0003FFFFFF
310
FFFFF000000003FFF000FFF80000000FFFF0001FFFFE0001FFFFE0007F80007F
310
FFF00000000FFFFFFF00000000FFFFF800000000000000007F80000000000001
310
FFFFF80000000FFFFFFFFFF80000000FFFFFFF0003FFFFFFFFFFFC0000000FFF
310
F000FFFE0000003FFFF0001FFFFE0003FFFFE0003F80007FFFFC0000003FFFFF
310
FFC0000003FFFFF800000000000000007F80000000000001FFFFFE0000003FFF
310
FFFFFFFE0000003FFFFFFF0003FFFFFFFFFFFF0000003FFFF000FFFF800000FF
310
FFF0001FFFFF0003FFFFE0003F80007FFFFF000001FFFFFFFFF800001FFFFFF8
310
00000000000000007F80000000000001FFFFFFC00001FFFFFFFFFFFFC00001FF
310
FFFFFF0003FFFFFFFFFFFFC00000FFFFF000FFFFF8000FFFFFFFFFFFFFFFFFFF
310
FFFFFFFFFFFFFFFFFFFFF0001FFFFFFFFFFF0000FFFFFFF80000000000000000
310
7FFFFFFFFFFFFFFFFFFFFFFC001FFFFFFFFFFFFFFC001FFFFFFFFFFFFFFFFFFF
310
FFFFFFFC001FFFFFF000FFFFFFFFFFFFFFFFFFFFFFFFFFFFFFFFFFFFFFFFFFFF
310
FFFFFFFFFFFFFFFFFFFFFFFFFFFFFFFFFFFFFFFFFFFFFFFFFFFFFFFFFFFFFFFF
310
FFFFFFFFFFFFFFFFFFFFFFFFFFFFFFFFFFFFFFFFFFFFFFFFFFFFFFFFFFFFFFFF
310
F000FFFFFFFFFFFFFFFFFFFFFFFFFFFFFFFFFFFFFFFFFFFFFFFFFFFFFFFFFFFF
310
FFFFFFFFFFFFFFFFFFFFFFFFFFFFFFFFFFFFFFFFFFFFFFFFFFFFFFFFFFFFFFFF
310
FFFFFFFFFFFFFFFFFFFFFFFFFFFFFFFFFFFFFFFFFFFFFFFFF000FFFFFFFFFFFF
310
FFFFFFFFFFFFFFFFFFFFFFFFFFFFFFFFFFFFFFFFFFFFFFFFFFFFFFFFFFFFFFFF
310
FFFFFFFFFFFFFFFFFFFFFFFFFFFFFFFFFFFFFFFFFFFFFFFFFFFFFFFFFFFFFFFF
310
FFFFFFFFFFFFFFFFFFFFFFFFFFFFFFFFF000FFFFFFFFFFFFFFFFFFFFFFFFFFFF
310
FFFFFFFFFFFFFFFFFFFFFFFFFFFFFFFFFFFFFFFFFFFFFFFFFFFFFFFFFFFFFFFF
310
FFFFFFFFFFFFFFFFFFFFFFFFFFFFFFFFFFFFFFFFFFFFFFFFFFFFFFFFFFFFFFFF
310
FFFFFFFFFFFFFFFFF000FFFFFFFFFFFFFFFFFFFFFFFFFFFFFFFFFFFFFFFFFFFF
310
FFFFFFFFFFFFFFFFFFFFFFFFFFFFFFFFFFFFFFFFFFFFFFFFFFFFFFFFFFFFFFFF
310
FFFFFFFFFFFFFFFFFFFFFFFFFFFFFFFFFFFFFFFFFFFFFFFFFFFFFFFFFFFFFFFF
310
F000FFFFFFFFFFFFFFFFFFFFFFFFFFFFFFFFFFFFFFFFFFFFFFFFFFFFFFFFFFFF
310
FFFFFFFFFFFFFFFFFFFFFFFFFFFFFFFFFFFFFFFFFFFFFFFFFFFFFFFFFFFFFFFF
310
FFFFFFFFFFFFFFFFFFFFFFFFFFFFFFFFFFFFFFFFFFFFFFFFF000FFFFFFFFFFFF
310
FFFFFFFFFFFFFFFFFFFFFFFFFFFFFFFFFFFFFFFFFFFFFFFFFFFFFFFFFFFFFFFF
310
FFFFFFFFFFFFFFFFFFFFFFFFFFFFFFFFFFFFFFFFFFFFFFFFFFFFFFFFFFFFFFFF
310
FFFFFFFFFFFFFFFFFFFFFFFFFFFFFFFFF000FFFFFFFFFFFFFFFFFFFFFFFFFFFF
310
FFFFFFFFFFFFFFFFFFFFFFFFFFFFFFFFFFFFFFFFFFFFFFFFFFFFFFFFFFFFFFFF
310
FFFFFFFFFFFFFFFFFFFFFFFFFFFFFFFFFFFFFFFFFFFFFFFFFFFFFFFFFFFFFFFF
310
FFFFFFFFFFFFFFFFF000FFFFFFFFFFFFFFFFFFFFFFFFFFFFFFFFFFFFFFFFFFFF
310
FFFFFFFFFFFFFFFFFFFFFFFFFFFFFFFFFFFFFFFFFFFFFFFFFFFFFFFFFFFFFFFF
310
FFFFFFFFFFFFFFFFFFFFFFFFFFFFFFFFFFFFFFFFFFFFFFFFFFFFFFFFFFFFFFFF
310
F000FFFFFFFFFFFFFFFFFFFFFFFFFFFFFFFFFFFFFFFFFFFFFFFFFFFFFFFFFFFF
310
FFFFFFFFFFFFFFFFFFFFFFFFFFFFFFFFFFFFFFFFFFFFFFFFFFFFFFFFFFFFFFFF
310
FFFFFFFFFFFFFFFFFFFFFFFFFFFFFFFFFFFFFFFFFFFFFFFFF000FFFFFFFFFFFF
310
FFFFFFFFFFFFFFFFFFFFFFFFFFFFFFFFFFFFFFFFFFFFFFFFFFFFFFFFFFFFFFFF
310
FFFFFFFFFFFFFFFFFFFFFFFFFFFFFFFFFFFFFFFFFFFFFFFFFFFFFFFFFFFFFFFF
310
FFFFFFFFFFFFFFFFFFFFFFFFFFFFFFFFF000FFFFFFFFFFFFFFFFFFFFFFFFFFFF
310
FFFFFFFFFFFFFFFFFFFFFFFFFFFFFFFFFFFFFFFFFFFFFFFFFFFFFFFFFFFFFFFF
310
FFFFFFFFFFFFFFFFFFFFFFFFFFFFFFFFFFFFFFFFFFFFFFFFFFFFFFFFFFFFFFFF
310
FFFFFFFFFFFFFFFFF000FFFFFFFFFFFFFFFFFFFFFFFFFFFFFFFFFFFFFFFFFFFF
310
FFFFFFFFFFFFFFFFFFFFFFFFFFFFFFFFFFFFFFFFFFFFFFFFFFFFFFFFFFFFFFFF
310
FFFFFFFFFFFFFFFFFFFFFFFFFFFFFFFFFFFFFFFFFFFFFFFFFFFFFFFFFFFFFFFF
310
F000FFFFFFFFFFFFFFFFFFFFFFFFFFFFFFFFFFFFFFFFFFFFFFFFFFFFFFFFFFFF
310
FFFFFFFFFFFFFFFFFFFFFFFFFFFFFFFFFFFFFFFFFFFFFFFFFFFFFFFFFFFFFFFF
310
FFFFFFFFFFFFFFFFFFFFFFFFFFFFFFFFFFFFFFFFFFFFFFFFF000FFFFFFFFFFFF
310
FFFFFFFFFFFFFFFFFFFFFFFFFFFFFFFFFFFFFFFFFFFFFFFFFFFFFFFFFFFFFFFF
310
FFFFFFFFFFFFFFFFFFFFFFFFFFFFFFFFFFFFFFFFFFFFFFFFFFFFFFFFFFFFFFFF
310
FFFFFFFFFFFFFFFFFFFFFFFFFFFFFFFFF000FFFFFFFFFFFFFFFFFFFFFFFFFFFF
310
FFFFFFFFFFFFFFFFFFFFFFFFFFFFFFFFFFFFFFFFFFFFFFFFFFFFFFFFFFFFFFFF
310
FFFFFFFFFFFFFFFFFFFFFFFFFFFFFFFFFFFFFFFFFFFFFFFFFFFFFFFFFFFFFFFF
310
FFFFFFFFFFFFFFFFF000FFFFFFFFFFFFFFFFFFFFFFFFFFFFFFFFFFFFFFFFFFFF
310
FFFFFFFFFFFFFFFFFFFFFFFFFFFFFFFFFFFFFFFFFFFFFFFFFFFFFFFFFFFFFFFF
310
FFFFFFFFFFFFFFFFFFFFFFFFFFFFFFFFFFFFFFFFFFFFFFFFFFFFFFFFFFFFFFFF
310
F000FFFFFFFFFFFFFFFFFFFFFFFFFFFFFFFFFFFFFFFFFFFFFFFFFFFFFFFFFFFF
310
FFFFFFFFFFFFFFFFFFFFFFFFFFFFFFFFFFFFFFFFFFFFFFFFFFFFFFFFFFFFFFFF
310
FFFFFFFFFFFFFFFFFFFFFFFFFFFFFFFFFFFFFFFFFFFFFFFFF000FFFFFFFFFFFF
310
FFFFFFFFFFFFFFFFFFFFFFFFFFFFFFFFFFFFFFFFFFFFFFFFFFFFFFFFFFFFFFFF
310
FFFFFFFFFFFFFFFFFFFFFFFFFFFFFFFFFFFFFFFFFFFFFFFFFFFFFFFFFFFFFFFF
310
FFFFFFFFFFFFFFFFFFFFFFFFFFFFFFFFF000FFFFFFFFFFFFFFFFFFFFFFFFFFFF
310
FFFFFFFFFFFFFFFFFFFFFFFFFFFFFFFFFFFFFFFFFFFFFFFFFFFFFFFFFFFFFFFF
310
FFFFFFFFFFFFFFFFFFFFFFFFFFFFFFFFFFFFFFFFFFFFFFFFFFFFFFFFFFFFFFFF
310
FFFFFFFFFFFFFFFFF000FFFFFFFFFFFFFFFFFFFFFFFFFFFFFFFFFFFFFFFFFFFF
310
FFFFFFFFFFFFFFFFFFFFFFFFFFFFFFFFFFFFFFFFFFFFFFFFFFFFFFFFFFFFFFFF
310
FFFFFFFFFFFFFFFFFFFFFFFFFFFFFFFFFFFFFFFFFFFFFFFFFFFFFFFFFFFFFFFF
310
F000FFFFFFFFFFFFFFFFFFFFFFFFFFFFFFFFFFFFFFFFFFFFFFFFFFFFFFFFFFFF
310
FFFFFFFFFFFFFFFFFFFFFFFFFFFFFFFFFFFFFFFFFFFFFFFFFFFFFFFFFFFFFFFF
310
FFFFFFFFFFFFFFFFFFFFFFFFFFFFFFFFFFFFFFFFFFFFFFFFF000FFFFFFFFFFFF
310
FFFFFFFFFFFFFFFFFFFFFFFFFFFFFFFFFFFFFFFFFFFFFFFFFFFFFFFFFFFFFFFF
310
FFFFFFFFFFFFFFFFFFFFFFFFFFFFFFFFFFFFFFFFFFFFFFFFFFFFFFFFFFFFFFFF
310
FFFFFFFFFFFFFFFFFFFFFFFFFFFFFFFFF0000000000000000000000000000000
310
0000000000000000000000000000000000000000000000000000000000000000
310
0000000000000000000000000000000000000000000000000000000000000000
310
0000000000000000000000000000000000000000000000000000000000000000
310
0000000000000000000000000000000000000000000000000000000000000000
310
0000000000000000000000000000000000000000000000000000000000000000
310
0000000000000000000000000000000000000000000000000000000000000000
310
0000000000000000000000000000000000000000000000000000000000000000
310
0000000000000000000000000000000000000000000000000000000000000000
310
0000000000000000000000000000000000000000000000000000000000000000
310
0000000000000000000000000000000000000000000000000000000000000000
310
0000000000000000000000000000000000000000000000000000000000000000
310
0000000000000000000000000000000000000000000000000000000000000000
310
0000000000000000000000000000000000000000000000000000000000000000
310
0000000000000000000000000000000000000000000000000000000000000000
310
0000000000000000000000000000000000000000000000000000000000000000
  1
OLE
  0
ENDSEC
  0
SECTION
  2
OBJECTS
  0
DICTIONARY
  5
C
330
0
100
AcDbDictionary
281
     1
  3
ACAD_GROUP
350
D
  3
ACAD_LAYOUT
350
1A
  3
ACAD_MLINESTYLE
350
17
  3
ACAD_PLOTSETTINGS
350
19
  3
ACAD_PLOTSTYLENAME
350
E
  3
ACAD_SCALELIST
350
47
  0
DICTIONARY
  5
D
102
{ACAD_REACTORS
330
C
102
}
330
C
100
AcDbDictionary
281
     1
  0
DICTIONARY
  5
1A
102
{ACAD_REACTORS
330
C
102
}
330
C
100
AcDbDictionary
281
     1
  3
Layout1
350
1E
  3
Layout2
350
26
  3
Model
350
22
  0
DICTIONARY
  5
17
102
{ACAD_REACTORS
330
C
102
}
330
C
100
AcDbDictionary
281
     1
  3
Standard
350
18
  0
DICTIONARY
  5
19
102
{ACAD_REACTORS
330
C
102
}
330
C
100
AcDbDictionary
281
     1
  0
ACDBDICTIONARYWDFLT
  5
E
102
{ACAD_REACTORS
330
C
102
}
330
C
100
AcDbDictionary
281
     1
  3
Normal
350
F
100
AcDbDictionaryWithDefault
340
F
  0
DICTIONARY
  5
47
102
{ACAD_REACTORS
330
C
102
}
330
C
100
AcDbDictionary
281
     1
  3
A0
350
48
  3
A1
350
49
  3
A2
350
4A
  3
A3
350
4B
  3
A4
350
4C
  3
A5
350
4D
  3
A6
350
4E
  3
A7
350
4F
  3
A8
350
50
  3
A9
350
51
  3
B0
350
52
  3
B1
350
53
  3
B2
350
54
  3
B3
350
55
  3
B4
350
56
  3
B5
350
57
  3
B6
350
58
  3
B7
350
59
  3
B8
350
5A
  3
B9
350
5B
  3
C0
350
5C
  3
C1
350
5D
  3
C2
350
5E
  3
C3
350
5F
  3
C4
350
60
  3
C5
350
61
  3
C6
350
62
  3
C7
350
63
  3
C8
350
64
  3
C9
350
65
  3
D0
350
66
  3
D1
350
67
  3
D2
350
68
  0
LAYOUT
  5
1E
102
{ACAD_REACTORS
330
1A
102
}
330
1A
100
AcDbPlotSettings
  1

  2
none_device
  4

  6

 40
0.0
 41
0.0
 42
0.0
 43
0.0
 44
0.0
 45
0.0
 46
0.0
 47
0.0
 48
0.0
 49
0.0
140
0.0
141
0.0
142
1.0
143
1.0
 70
   688
 72
     1
 73
     0
 74
     5
  7

 75
    16
147
1.0
148
0.0
149
0.0
100
AcDbLayout
  1
Layout1
 70
     1
 71
     1
 10
0.0
 20
0.0
 11
420.0
 21
297.0
 12
0.0
 22
0.0
 32
0.0
 14
1.0000000000E+20
 24
1.0000000000E+20
 34
1.0000000000E+20
 15
-1.0000000000E+20
 25
-1.0000000000E+20
 35
-1.0000000000E+20
146
0.0
 13
0.0
 23
0.0
 33
0.0
 16
1.0
 26
0.0
 36
0.0
 17
0.0
 27
1.0
 37
0.0
 76
     0
330
1B
  0
LAYOUT
  5
26
102
{ACAD_REACTORS
330
1A
102
}
330
1A
100
AcDbPlotSettings
  1

  2
none_device
  4

  6

 40
0.0
 41
0.0
 42
0.0
 43
0.0
 44
0.0
 45
0.0
 46
0.0
 47
0.0
 48
0.0
 49
0.0
140
0.0
141
0.0
142
1.0
143
1.0
 70
   688
 72
     1
 73
     0
 74
     5
  7

 75
    16
147
1.0
148
0.0
149
0.0
100
AcDbLayout
  1
Layout2
 70
     1
 71
     2
 10
0.0
 20
0.0
 11
0.0
 21
0.0
 12
0.0
 22
0.0
 32
0.0
 14
0.0
 24
0.0
 34
0.0
 15
0.0
 25
0.0
 35
0.0
146
0.0
 13
0.0
 23
0.0
 33
0.0
 16
1.0
 26
0.0
 36
0.0
 17
0.0
 27
1.0
 37
0.0
 76
     0
330
23
  0
LAYOUT
  5
22
102
{ACAD_REACTORS
330
1A
102
}
330
1A
100
AcDbPlotSettings
  1

  2
none_device
  4
Letter_(8.50_x_11.00_Inches)
  6

 40
6.35
 41
6.35
 42
6.35000508
 43
6.35000508
 44
215.9
 45
279.4
 46
0.0
 47
0.0
 48
0.0
 49
0.0
140
0.0
141
0.0
142
1.0
143
1.0
 70
  1712
 72
     1
 73
     0
 74
     0
  7

 75
     0
147
1.0
148
0.0
149
0.0
100
AcDbLayout
  1
Model
 70
     1
 71
     0
 10
0.0
 20
0.0
 11
297.0
 21
210.0
 12
0.0
 22
0.0
 32
0.0
 14
0.0
 24
0.0
 34
0.0
 15
297.0
 25
210.0
 35
0.0
146
0.0
 13
0.0
 23
0.0
 33
0.0
 16
1.0
 26
0.0
 36
0.0
 17
0.0
 27
1.0
 37
0.0
 76
     0
330
1F
331
29
  0
MLINESTYLE
  5
18
102
{ACAD_REACTORS
330
17
102
}
330
17
100
AcDbMlineStyle
  2
Standard
 70
     0
  3

 62
   256
 51
90.0
 52
90.0
 71
     2
 49
0.5
 62
   256
  6
BYLAYER
 49
-0.5
 62
   256
  6
BYLAYER
  0
ACDBPLACEHOLDER
  5
F
102
{ACAD_REACTORS
330
E
102
}
330
E
  0
SCALE
  5
48
102
{ACAD_REACTORS
330
47
102
}
330
47
100
AcDbScale
 70
     0
300
1:1
140
1.0
141
1.0
290
     1
  0
SCALE
  5
49
102
{ACAD_REACTORS
330
47
102
}
330
47
100
AcDbScale
 70
     0
300
1:2
140
1.0
141
2.0
290
     0
  0
SCALE
  5
4A
102
{ACAD_REACTORS
330
47
102
}
330
47
100
AcDbScale
 70
     0
300
1:4
140
1.0
141
4.0
290
     0
  0
SCALE
  5
4B
102
{ACAD_REACTORS
330
47
102
}
330
47
100
AcDbScale
 70
     0
300
1:5
140
1.0
141
5.0
290
     0
  0
SCALE
  5
4C
102
{ACAD_REACTORS
330
47
102
}
330
47
100
AcDbScale
 70
     0
300
1:8
140
1.0
141
8.0
290
     0
  0
SCALE
  5
4D
102
{ACAD_REACTORS
330
47
102
}
330
47
100
AcDbScale
 70
     0
300
1:10
140
1.0
141
10.0
290
     0
  0
SCALE
  5
4E
102
{ACAD_REACTORS
330
47
102
}
330
47
100
AcDbScale
 70
     0
300
1:16
140
1.0
141
16.0
290
     0
  0
SCALE
  5
4F
102
{ACAD_REACTORS
330
47
102
}
330
47
100
AcDbScale
 70
     0
300
1:20
140
1.0
141
20.0
290
     0
  0
SCALE
  5
50
102
{ACAD_REACTORS
330
47
102
}
330
47
100
AcDbScale
 70
     0
300
1:30
140
1.0
141
30.0
290
     0
  0
SCALE
  5
51
102
{ACAD_REACTORS
330
47
102
}
330
47
100
AcDbScale
 70
     0
300
1:40
140
1.0
141
40.0
290
     0
  0
SCALE
  5
52
102
{ACAD_REACTORS
330
47
102
}
330
47
100
AcDbScale
 70
     0
300
1:50
140
1.0
141
50.0
290
     0
  0
SCALE
  5
53
102
{ACAD_REACTORS
330
47
102
}
330
47
100
AcDbScale
 70
     0
300
1:100
140
1.0
141
100.0
290
     0
  0
SCALE
  5
54
102
{ACAD_REACTORS
330
47
102
}
330
47
100
AcDbScale
 70
     0
300
2:1
140
2.0
141
1.0
290
     0
  0
SCALE
  5
55
102
{ACAD_REACTORS
330
47
102
}
330
47
100
AcDbScale
 70
     0
300
4:1
140
4.0
141
1.0
290
     0
  0
SCALE
  5
56
102
{ACAD_REACTORS
330
47
102
}
330
47
100
AcDbScale
 70
     0
300
8:1
140
8.0
141
1.0
290
     0
  0
SCALE
  5
57
102
{ACAD_REACTORS
330
47
102
}
330
47
100
AcDbScale
 70
     0
300
10:1
140
10.0
141
1.0
290
     0
  0
SCALE
  5
58
102
{ACAD_REACTORS
330
47
102
}
330
47
100
AcDbScale
 70
     0
300
100:1
140
100.0
141
1.0
290
     0
  0
SCALE
  5
59
102
{ACAD_REACTORS
330
47
102
}
330
47
100
AcDbScale
 70
     0
300
1/128" = 1'-0"
140
0.0078125
141
12.0
290
     0
  0
SCALE
  5
5A
102
{ACAD_REACTORS
330
47
102
}
330
47
100
AcDbScale
 70
     0
300
1/64" = 1'-0"
140
0.015625
141
12.0
290
     0
  0
SCALE
  5
5B
102
{ACAD_REACTORS
330
47
102
}
330
47
100
AcDbScale
 70
     0
300
1/32" = 1'-0"
140
0.03125
141
12.0
290
     0
  0
SCALE
  5
5C
102
{ACAD_REACTORS
330
47
102
}
330
47
100
AcDbScale
 70
     0
300
1/16" = 1'-0"
140
0.0625
141
12.0
290
     0
  0
SCALE
  5
5D
102
{ACAD_REACTORS
330
47
102
}
330
47
100
AcDbScale
 70
     0
300
3/32" = 1'-0"
140
0.09375
141
12.0
290
     0
  0
SCALE
  5
5E
102
{ACAD_REACTORS
330
47
102
}
330
47
100
AcDbScale
 70
     0
300
1/8" = 1'-0"
140
0.125
141
12.0
290
     0
  0
SCALE
  5
5F
102
{ACAD_REACTORS
330
47
102
}
330
47
100
AcDbScale
 70
     0
300
3/16" = 1'-0"
140
0.1875
141
12.0
290
     0
  0
SCALE
  5
60
102
{ACAD_REACTORS
330
47
102
}
330
47
100
AcDbScale
 70
     0
300
1/4" = 1'-0"
140
0.25
141
12.0
290
     0
  0
SCALE
  5
61
102
{ACAD_REACTORS
330
47
102
}
330
47
100
AcDbScale
 70
     0
300
3/8" = 1'-0"
140
0.375
141
12.0
290
     0
  0
SCALE
  5
62
102
{ACAD_REACTORS
330
47
102
}
330
47
100
AcDbScale
 70
     0
300
1/2" = 1'-0"
140
0.5
141
12.0
290
     0
  0
SCALE
  5
63
102
{ACAD_REACTORS
330
47
102
}
330
47
100
AcDbScale
 70
     0
300
3/4" = 1'-0"
140
0.75
141
12.0
290
     0
  0
SCALE
  5
64
102
{ACAD_REACTORS
330
47
102
}
330
47
100
AcDbScale
 70
     0
300
1" = 1'-0"
140
1.0
141
12.0
290
     0
  0
SCALE
  5
65
102
{ACAD_REACTORS
330
47
102
}
330
47
100
AcDbScale
 70
     0
300
1-1/2" = 1'-0"
140
1.5
141
12.0
290
     0
  0
SCALE
  5
66
102
{ACAD_REACTORS
330
47
102
}
330
47
100
AcDbScale
 70
     0
300
3" = 1'-0"
140
3.0
141
12.0
290
     0
  0
SCALE
  5
67
102
{ACAD_REACTORS
330
47
102
}
330
47
100
AcDbScale
 70
     0
300
6" = 1'-0"
140
6.0
141
12.0
290
     0
  0
SCALE
  5
68
102
{ACAD_REACTORS
330
47
102
}
330
47
100
AcDbScale
 70
     0
300
1'-0" = 1'-0"
140
12.0
141
12.0
290
     0
  0
ENDSEC
  0
EOF
