  0
SECTION
  2
HEADER
  9
$ACADVER
  1
AC1015
  9
$ACADMAINTVER
 70
     6
  9
$DWGCODEPAGE
  3
ANSI_1252
  9
$INSBASE
 10
0.0
 20
0.0
 30
0.0
  9
$EXTMIN
 10
0.0
 20
0.0
 30
0.0
  9
$EXTMAX
 10
297.0
 20
210.0
 30
0.0
  9
$LIMMIN
 10
0.0
 20
0.0
  9
$LIMMAX
 10
297.0
 20
210.0
  9
$ORTHOMODE
 70
     0
  9
$REGENMODE
 70
     1
  9
$FILLMODE
 70
     1
  9
$QTEXTMODE
 70
     0
  9
$MIRRTEXT
 70
     1
  9
$LTSCALE
 40
1.0
  9
$ATTMODE
 70
     1
  9
$TEXTSIZE
 40
2.0
  9
$TRACEWID
 40
1.0
  9
$TEXTSTYLE
  7
Standard
  9
$CLAYER
  8
0
  9
$CELTYPE
  6
ByLayer
  9
$CECOLOR
 62
   256
  9
$CELTSCALE
 40
1.0
  9
$DISPSILH
 70
     0
  9
$DIMSCALE
 40
1.0
  9
$DIMASZ
 40
3.0
  9
$DIMEXO
 40
0.0
  9
$DIMDLI
 40
3.75
  9
$DIMRND
 40
0.0
  9
$DIMDLE
 40
0.0
  9
$DIMEXE
 40
1.0
  9
$DIMTP
 40
0.0
  9
$DIMTM
 40
0.0
  9
$DIMTXT
 40
2.0
  9
$DIMCEN
 40
2.5
  9
$DIMTSZ
 40
0.0
  9
$DIMTOL
 70
     0
  9
$DIMLIM
 70
     0
  9
$DIMTIH
 70
     1
  9
$DIMTOH
 70
     1
  9
$DIMSE1
 70
     0
  9
$DIMSE2
 70
     0
  9
$DIMTAD
 70
     1
  9
$DIMZIN
 70
     0
  9
$DIMBLK
  1

  9
$DIMASO
 70
     1
  9
$DIMSHO
 70
     1
  9
$DIMPOST
  1

  9
$DIMAPOST
  1

  9
$DIMALT
 70
     0
  9
$DIMALTD
 70
     3
  9
$DIMALTF
 40
0.0393700787
  9
$DIMLFAC
 40
2.0
  9
$DIMTOFL
 70
     1
  9
$DIMTVP
 40
0.0
  9
$DIMTIX
 70
     0
  9
$DIMSOXD
 70
     0
  9
$DIMSAH
 70
     0
  9
$DIMBLK1
  1

  9
$DIMBLK2
  1

  9
$DIMSTYLE
  2
ISO-25
  9
$DIMCLRD
 70
     0
  9
$DIMCLRE
 70
     0
  9
$DIMCLRT
 70
     0
  9
$DIMTFAC
 40
1.0
  9
$DIMGAP
 40
1.524
  9
$DIMJUST
 70
     0
  9
$DIMSD1
 70
     0
  9
$DIMSD2
 70
     0
  9
$DIMTOLJ
 70
     0
  9
$DIMTZIN
 70
     0
  9
$DIMALTZ
 70
     0
  9
$DIMALTTZ
 70
     0
  9
$DIMUPT
 70
     0
  9
$DIMDEC
 70
     2
  9
$DIMTDEC
 70
     3
  9
$DIMALTU
 70
     2
  9
$DIMALTTD
 70
     3
  9
$DIMTXSTY
  7
Standard
  9
$DIMAUNIT
 70
     0
  9
$DIMADEC
 70
     2
  9
$DIMALTRND
 40
0.0
  9
$DIMAZIN
 70
     0
  9
$DIMDSEP
 70
    44
  9
$DIMATFIT
 70
     3
  9
$DIMFRAC
 70
     0
  9
$DIMLDRBLK
  1

  9
$DIMLUNIT
 70
     2
  9
$DIMLWD
 70
    -2
  9
$DIMLWE
 70
    -2
  9
$DIMTMOVE
 70
     0
  9
$LUNITS
 70
     2
  9
$LUPREC
 70
     2
  9
$SKETCHINC
 40
1.0
  9
$FILLETRAD
 40
10.0
  9
$AUNITS
 70
     0
  9
$AUPREC
 70
     2
  9
$MENU
  1
.
  9
$ELEVATION
 40
0.0
  9
$PELEVATION
 40
0.0
  9
$THICKNESS
 40
0.0
  9
$LIMCHECK
 70
     0
  9
$CHAMFERA
 40
0.0
  9
$CHAMFERB
 40
0.0
  9
$CHAMFERC
 40
0.0
  9
$CHAMFERD
 40
0.0
  9
$SKPOLY
 70
     0
  9
$TDCREATE
 40
2457780.387943171
  9
$TDUCREATE
 40
2457780.346276504
  9
$TDUPDATE
 40
2457780.387944421
  9
$TDUUPDATE
 40
2457780.346277755
  9
$TDINDWG
 40
0.0000000116
  9
$TDUSRTIMER
 40
0.0000000116
  9
$USRTIMER
 70
     1
  9
$ANGBASE
 50
0.0
  9
$ANGDIR
 70
     0
  9
$PDMODE
 70
     0
  9
$PDSIZE
 40
-1.0
  9
$PLINEWID
 40
0.0
  9
$SPLFRAME
 70
     0
  9
$SPLINETYPE
 70
     6
  9
$SPLINESEGS
 70
     8
  9
$HANDSEED
  5
38B
  9
$SURFTAB1
 70
     6
  9
$SURFTAB2
 70
     6
  9
$SURFTYPE
 70
     6
  9
$SURFU
 70
     6
  9
$SURFV
 70
     6
  9
$UCSBASE
  2

  9
$UCSNAME
  2

  9
$UCSORG
 10
0.0
 20
0.0
 30
0.0
  9
$UCSXDIR
 10
1.0
 20
0.0
 30
0.0
  9
$UCSYDIR
 10
0.0
 20
1.0
 30
0.0
  9
$UCSORTHOREF
  2

  9
$UCSORTHOVIEW
 70
     0
  9
$UCSORGTOP
 10
0.0
 20
0.0
 30
0.0
  9
$UCSORGBOTTOM
 10
0.0
 20
0.0
 30
0.0
  9
$UCSORGLEFT
 10
0.0
 20
0.0
 30
0.0
  9
$UCSORGRIGHT
 10
0.0
 20
0.0
 30
0.0
  9
$UCSORGFRONT
 10
0.0
 20
0.0
 30
0.0
  9
$UCSORGBACK
 10
0.0
 20
0.0
 30
0.0
  9
$PUCSBASE
  2

  9
$PUCSNAME
  2

  9
$PUCSORG
 10
0.0
 20
0.0
 30
0.0
  9
$PUCSXDIR
 10
1.0
 20
0.0
 30
0.0
  9
$PUCSYDIR
 10
0.0
 20
1.0
 30
0.0
  9
$PUCSORTHOREF
  2

  9
$PUCSORTHOVIEW
 70
     0
  9
$PUCSORGTOP
 10
0.0
 20
0.0
 30
0.0
  9
$PUCSORGBOTTOM
 10
0.0
 20
0.0
 30
0.0
  9
$PUCSORGLEFT
 10
0.0
 20
0.0
 30
0.0
  9
$PUCSORGRIGHT
 10
0.0
 20
0.0
 30
0.0
  9
$PUCSORGFRONT
 10
0.0
 20
0.0
 30
0.0
  9
$PUCSORGBACK
 10
0.0
 20
0.0
 30
0.0
  9
$USERI1
 70
     0
  9
$USERI2
 70
     0
  9
$USERI3
 70
     0
  9
$USERI4
 70
     0
  9
$USERI5
 70
     0
  9
$USERR1
 40
0.0
  9
$USERR2
 40
0.0
  9
$USERR3
 40
0.0
  9
$USERR4
 40
0.0
  9
$USERR5
 40
0.0
  9
$WORLDVIEW
 70
     1
  9
$SHADEDGE
 70
     3
  9
$SHADEDIF
 70
    70
  9
$TILEMODE
 70
     1
  9
$MAXACTVP
 70
    64
  9
$PINSBASE
 10
0.0
 20
0.0
 30
0.0
  9
$PLIMCHECK
 70
     0
  9
$PEXTMIN
 10
1.0000000000E+20
 20
1.0000000000E+20
 30
1.0000000000E+20
  9
$PEXTMAX
 10
-1.0000000000E+20
 20
-1.0000000000E+20
 30
-1.0000000000E+20
  9
$PLIMMIN
 10
0.0
 20
0.0
  9
$PLIMMAX
 10
420.0
 20
297.0
  9
$UNITMODE
 70
     0
  9
$VISRETAIN
 70
     1
  9
$PLINEGEN
 70
     0
  9
$PSLTSCALE
 70
     1
  9
$TREEDEPTH
 70
  3020
  9
$CMLSTYLE
  2
Standard
  9
$CMLJUST
 70
     0
  9
$CMLSCALE
 40
20.0
  9
$PROXYGRAPHICS
 70
     1
  9
$MEASUREMENT
 70
     1
  9
$CELWEIGHT
370
    -1
  9
$ENDCAPS
280
     0
  9
$JOINSTYLE
280
     0
  9
$LWDISPLAY
290
     1
  9
$INSUNITS
 70
     4
  9
$HYPERLINKBASE
  1

  9
$STYLESHEET
  1

  9
$XEDIT
290
     1
  9
$CEPSNTYPE
380
     0
  9
$PSTYLEMODE
290
     1
  9
$FINGERPRINTGUID
  2
{7B3E6286-5D89-4C0E-BA79-9B037897ABF5}
  9
$VERSIONGUID
  2
{FAEB1C32-E019-11D5-929B-00C0DF256EC4}
  9
$EXTNAMES
290
     1
  9
$PSVPSCALE
 40
0.0
  9
$OLESTARTUP
290
     0
  0
ENDSEC
  0
SECTION
  2
CLASSES
  0
CLASS
  1
ACDBDICTIONARYWDFLT
  2
AcDbDictionaryWithDefault
  3
ObjectDBX Classes
 90
        0
280
     0
281
     0
  0
CLASS
  1
VISUALSTYLE
  2
AcDbVisualStyle
  3
ObjectDBX Classes
 90
     4095
280
     0
281
     0
  0
CLASS
  1
MATERIAL
  2
AcDbMaterial
  3
ObjectDBX Classes
 90
     1153
280
     0
281
     0
  0
CLASS
  1
SCALE
  2
AcDbScale
  3
ObjectDBX Classes
 90
     1153
280
     0
281
     0
  0
CLASS
  1
TABLESTYLE
  2
AcDbTableStyle
  3
ObjectDBX Classes
 90
     4095
280
     0
281
     0
  0
CLASS
  1
MLEADERSTYLE
  2
AcDbMLeaderStyle
  3
ACDB_MLEADERSTYLE_CLASS
 90
     4095
280
     0
281
     0
  0
CLASS
  1
SUN
  2
AcDbSun
  3
SCENEOE
 90
     1153
280
     0
281
     0
  0
CLASS
  1
ACDBPLACEHOLDER
  2
AcDbPlaceHolder
  3
ObjectDBX Classes
 90
        0
280
     0
281
     0
  0
CLASS
  1
LAYOUT
  2
AcDbLayout
  3
ObjectDBX Classes
 90
        0
280
     0
281
     0
  0
ENDSEC
  0
SECTION
  2
TABLES
  0
TABLE
  2
VPORT
  5
8
330
0
100
AcDbSymbolTable
 70
     1
  0
VPORT
  5
29
330
8
100
AcDbSymbolTableRecord
100
AcDbViewportTableRecord
  2
*Active
 70
     0
 10
0.0
 20
0.0
 11
1.0
 21
1.0
 12
148.5
 22
105.0
 13
0.0
 23
0.0
 14
10.0
 24
10.0
 15
10.0
 25
10.0
 16
0.0
 26
0.0
 36
1.0
 17
0.0
 27
0.0
 37
0.0
 40
210.0
 41
1.4142857143
 42
50.0
 43
0.0
 44
0.0
 50
0.0
 51
0.0
 71
     0
 72
  2000
 73
     1
 74
     3
 75
     0
 76
     0
 77
     0
 78
     0
281
     0
 65
     1
110
0.0
120
0.0
130
0.0
111
1.0
121
0.0
131
0.0
112
0.0
122
1.0
132
0.0
 79
     0
146
0.0
  0
ENDTAB
  0
TABLE
  2
LTYPE
  5
5
330
0
100
AcDbSymbolTable
 70
     6
  0
LTYPE
  5
14
330
5
100
AcDbSymbolTableRecord
100
AcDbLinetypeTableRecord
  2
ByBlock
 70
     0
  3

 72
    65
 73
     0
 40
0.0
  0
LTYPE
  5
15
330
5
100
AcDbSymbolTableRecord
100
AcDbLinetypeTableRecord
  2
ByLayer
 70
     0
  3

 72
    65
 73
     0
 40
0.0
  0
LTYPE
  5
16
330
5
100
AcDbSymbolTableRecord
100
AcDbLinetypeTableRecord
  2
Continuous
 70
     0
  3
Solid line
 72
    65
 73
     0
 40
0.0
  0
LTYPE
  5
6E
330
5
100
AcDbSymbolTableRecord
100
AcDbLinetypeTableRecord
  2
HIDDEN
 70
     0
  3
Hidden __ __ __ __ __ __ __ __ __ __ __ __ __ __
 72
    65
 73
     2
 40
1.905
 49
1.27
 74
     0
 49
-0.635
 74
     0
  0
LTYPE
  5
6F
330
5
100
AcDbSymbolTableRecord
100
AcDbLinetypeTableRecord
  2
PHANTOM
 70
     0
  3
Phantom ______  __  __  ______  __  __  ______
 72
    65
 73
     6
 40
12.7
 49
6.35
 74
     0
 49
-1.27
 74
     0
 49
1.27
 74
     0
 49
-1.27
 74
     0
 49
1.27
 74
     0
 49
-1.27
 74
     0
  0
LTYPE
  5
70
330
5
100
AcDbSymbolTableRecord
100
AcDbLinetypeTableRecord
  2
CENTER
 70
     0
  3
Center ____ _ ____ _ ____ _ ____ _ ____ _ ____
 72
    65
 73
     4
 40
10.16
 49
6.35
 74
     0
 49
-1.27
 74
     0
 49
1.27
 74
     0
 49
-1.27
 74
     0
  0
LTYPE
  5
71
330
5
100
AcDbSymbolTableRecord
100
AcDbLinetypeTableRecord
  2
CENTERX2
 70
     0
  3
Center (2x) ________  __  ________  __  _____
 72
    65
 73
     4
 40
20.32
 49
12.7
 74
     0
 49
-2.54
 74
     0
 49
2.54
 74
     0
 49
-2.54
 74
     0
  0
LTYPE
  5
72
330
5
100
AcDbSymbolTableRecord
100
AcDbLinetypeTableRecord
  2
DOT2
 70
     0
  3
Dot (.5x) ........................................
 72
    65
 73
     2
 40
0.635
 49
0.0
 74
     0
 49
-0.635
 74
     0
  0
ENDTAB
  0
TABLE
  2
LAYER
  5
2
330
0
100
AcDbSymbolTable
 70
     5
  0
LAYER
  5
10
330
2
100
AcDbSymbolTableRecord
100
AcDbLayerTableRecord
  2
0
 70
     0
 62
     7
  6
Continuous
370
    -3
390
F
  0
LAYER
  5
73
330
2
100
AcDbSymbolTableRecord
100
AcDbLayerTableRecord
  2
FORMAT
 70
     0
 62
     7
  6
Continuous
370
    -3
390
F
  0
LAYER
  5
74
330
2
100
AcDbSymbolTableRecord
100
AcDbLayerTableRecord
  2
VERMASSUNG
 70
     0
 62
     7
  6
Continuous
370
    -3
390
F
  0
LAYER
  5
75
330
2
100
AcDbSymbolTableRecord
100
AcDbLayerTableRecord
  2
KOPF_DÜNN
 70
     0
 62
     7
  6
Continuous
370
    -3
390
F
  0
LAYER
  5
76
330
2
100
AcDbSymbolTableRecord
100
AcDbLayerTableRecord
  2
KOPF_DICK
 70
     0
 62
     7
  6
Continuous
370
    15
390
F
  0
ENDTAB
  0
TABLE
  2
STYLE
  5
3
330
0
100
AcDbSymbolTable
 70
     2
  0
STYLE
  5
11
330
3
100
AcDbSymbolTableRecord
100
AcDbTextStyleTableRecord
  2
Standard
 70
     0
 40
0.0
 41
1.0
 50
0.0
 71
     0
 42
2.0
  3
txt
  4

  0
STYLE
  5
77
330
3
100
AcDbSymbolTableRecord
100
AcDbTextStyleTableRecord
  2
SLDTEXTSTYLE0
 70
     0
 40
0.0
 41
0.7
 50
0.0
 71
     0
 42
2.0
  3
TXT
  4

  0
ENDTAB
  0
TABLE
  2
VIEW
  5
6
330
0
100
AcDbSymbolTable
 70
     0
  0
ENDTAB
  0
TABLE
  2
UCS
  5
7
330
0
100
AcDbSymbolTable
 70
     0
  0
ENDTAB
  0
TABLE
  2
APPID
  5
9
330
0
100
AcDbSymbolTable
 70
     1
  0
APPID
  5
12
330
9
100
AcDbSymbolTableRecord
100
AcDbRegAppTableRecord
  2
ACAD
 70
     0
  0
ENDTAB
  0
TABLE
  2
DIMSTYLE
  5
A
330
0
100
AcDbSymbolTable
 70
     5
100
AcDbDimStyleTable
  0
DIMSTYLE
105
27
330
A
100
AcDbSymbolTableRecord
100
AcDbDimStyleTableRecord
  2
ISO-25
 70
     0
 41
2.5
 42
0.625
 43
3.75
 44
1.25
 73
     0
 74
     0
 77
     1
 78
     8
140
2.5
141
2.5
143
0.0393700787
147
0.625
171
     3
172
     1
178
     0
271
     2
272
     2
274
     3
278
    44
283
     0
284
     8
340
11
  0
DIMSTYLE
105
223
102
{ACAD_REACTORS
330
222
102
}
330
A
100
AcDbSymbolTableRecord
100
AcDbDimStyleTableRecord
  2
SLDDIMSTYLE0
 70
     0
 41
3.0
 44
0.0
 73
     0
 74
     0
 77
     1
 78
    12
 79
     3
140
2.0
147
0.5
173
     1
178
     0
179
     2
272
     3
276
     2
284
    12
340
77
  0
DIMSTYLE
105
22E
102
{ACAD_REACTORS
330
22D
330
238
330
242
330
24E
102
}
330
A
100
AcDbSymbolTableRecord
100
AcDbDimStyleTableRecord
  2
SLDDIMSTYLE1
 70
     0
 41
3.0
 44
0.0
 45
0.000000001
 73
     0
 74
     0
 77
     1
 78
    12
 79
     3
140
2.0
147
0.5
173
     1
178
     0
271
     2
272
     3
276
     2
284
    12
340
77
  0
DIMSTYLE
105
25B
102
{ACAD_REACTORS
330
25A
102
}
330
A
100
AcDbSymbolTableRecord
100
AcDbDimStyleTableRecord
  2
SLDDIMSTYLE2
 70
     0
 41
3.0
 44
0.0
 45
0.000000001
 73
     0
 74
     0
 77
     1
 78
     8
 79
     2
140
2.0
141
0.0
147
0.5
173
     1
178
     0
271
     2
272
     3
276
     2
284
    12
340
77
  0
DIMSTYLE
105
28C
102
{ACAD_REACTORS
330
28B
102
}
330
A
100
AcDbSymbolTableRecord
100
AcDbDimStyleTableRecord
  2
SLDDIMSTYLE3
 70
     0
 41
3.0
 44
0.0
 45
0.000000001
 73
     0
 74
     0
 77
     1
 78
    12
 79
     3
140
2.0
147
0.5
172
     1
173
     1
178
     0
271
     2
272
     3
276
     2
284
    12
289
     0
340
77
  0
ENDTAB
  0
TABLE
  2
BLOCK_RECORD
  5
1
330
0
100
AcDbSymbolTable
 70
     9
  0
BLOCK_RECORD
  5
1F
330
1
100
AcDbSymbolTableRecord
100
AcDbBlockTableRecord
  2
*Model_Space
340
22
  0
BLOCK_RECORD
  5
1B
330
1
100
AcDbSymbolTableRecord
100
AcDbBlockTableRecord
  2
*Paper_Space
340
1E
  0
BLOCK_RECORD
  5
23
330
1
100
AcDbSymbolTableRecord
100
AcDbBlockTableRecord
  2
*Paper_Space0
340
26
  0
BLOCK_RECORD
  5
224
330
1
100
AcDbSymbolTableRecord
100
AcDbBlockTableRecord
  2
_D
340
0
  0
BLOCK_RECORD
  5
22F
330
1
100
AcDbSymbolTableRecord
100
AcDbBlockTableRecord
  2
_D_1
340
0
  0
BLOCK_RECORD
  5
239
330
1
100
AcDbSymbolTableRecord
100
AcDbBlockTableRecord
  2
_D_2
340
0
  0
BLOCK_RECORD
  5
243
330
1
100
AcDbSymbolTableRecord
100
AcDbBlockTableRecord
  2
_D_3
340
0
  0
BLOCK_RECORD
  5
24F
330
1
100
AcDbSymbolTableRecord
100
AcDbBlockTableRecord
  2
_D_4
340
0
  0
BLOCK_RECORD
  5
25C
330
1
100
AcDbSymbolTableRecord
100
AcDbBlockTableRecord
  2
_D_5
340
0
  0
BLOCK_RECORD
  5
28D
330
1
100
AcDbSymbolTableRecord
100
AcDbBlockTableRecord
  2
_D_6
340
0
  0
BLOCK_RECORD
  5
29A
330
1
100
AcDbSymbolTableRecord
100
AcDbBlockTableRecord
  2
SW_CENTERMARKSYMBOL_0
340
0
102
{BLKREFS
331
2A5
102
}
  0
ENDTAB
  0
ENDSEC
  0
SECTION
  2
BLOCKS
  0
BLOCK
  5
20
330
1F
100
AcDbEntity
  8
0
100
AcDbBlockBegin
  2
*Model_Space
 70
     0
 10
0.0
 20
0.0
 30
0.0
  3
*Model_Space
  1

  0
ENDBLK
  5
21
330
1F
100
AcDbEntity
  8
0
100
AcDbBlockEnd
  0
BLOCK
  5
1C
330
1B
100
AcDbEntity
 67
     1
  8
0
100
AcDbBlockBegin
  2
*Paper_Space
 70
     0
 10
0.0
 20
0.0
 30
0.0
  3
*Paper_Space
  1

  0
ENDBLK
  5
1D
330
1B
100
AcDbEntity
 67
     1
  8
0
100
AcDbBlockEnd
  0
BLOCK
  5
24
330
23
100
AcDbEntity
  8
0
100
AcDbBlockBegin
  2
*Paper_Space0
 70
     0
 10
0.0
 20
0.0
 30
0.0
  3
*Paper_Space0
  1

  0
ENDBLK
  5
25
330
23
100
AcDbEntity
  8
0
100
AcDbBlockEnd
  0
BLOCK
  5
225
330
224
100
AcDbEntity
  8
0
100
AcDbBlockBegin
  2
_D
 70
     0
 10
0.0
 20
0.0
 30
0.0
  3
_D
  1

  0
ARC
  5
227
330
224
100
AcDbEntity
  8
VERMASSUNG
100
AcDbCircle
 10
258.2759518523
 20
168.7114598774
 30
0.0
 40
14.09149271899108
100
AcDbArc
 50
267.0
 51
0.0
  0
SOLID
  5
228
330
224
100
AcDbEntity
  8
VERMASSUNG
100
AcDbTrace
 10
257.538460106
 20
154.6392790594
 30
0.0
 11
260.5579471019
 21
154.3473916129
 31
0.0
 12
260.5106994923
 22
155.2461505702
 32
0.0
 13
260.5106994923
 23
155.2461505702
 33
0.0
  0
SOLID
  5
229
330
224
100
AcDbEntity
  8
VERMASSUNG
100
AcDbTrace
 10
272.3674445713
 20
168.7114598774
 30
0.0
 11
271.6058497664
 21
165.7750550427
 31
0.0
 12
272.500904257
 22
165.6808347748
 32
0.0
 13
272.500904257
 23
165.6808347748
 33
0.0
  0
LINE
  5
22A
330
224
100
AcDbEntity
  8
VERMASSUNG
100
AcDbLine
 10
257.8988108977
 20
161.5151817713
 30
0.0
 11
257.4861241497
 21
153.6406495247
 31
0.0
  0
LINE
  5
22B
330
224
100
AcDbEntity
  8
VERMASSUNG
100
AcDbLine
 10
258.2594466639
 20
168.7114598774
 30
0.0
 11
273.3674445713
 21
168.7114598774
 31
0.0
  0
MTEXT
  5
22C
330
224
100
AcDbEntity
  8
VERMASSUNG
100
AcDbMText
 10
264.7504752675
 20
158.9832566395
 30
0.0
 40
2.0
 41
0.0
 71
     1
 72
     1
  1
93°
  7
SLDTEXTSTYLE0
 11
0.7253743710122865
 21
0.6883545756937552
 31
0.0
 73
     1
 44
1.0
  0
ENDBLK
  5
226
330
224
100
AcDbEntity
  8
0
100
AcDbBlockEnd
  0
BLOCK
  5
230
330
22F
100
AcDbEntity
  8
0
100
AcDbBlockBegin
  2
_D_1
 70
     0
 10
0.0
 20
0.0
 30
0.0
  3
_D_1
  1

  0
SOLID
  5
232
330
22F
100
AcDbEntity
  8
VERMASSUNG
100
AcDbTrace
 10
273.8795188936
 20
168.7114598774
 30
0.0
 11
273.4295188936
 21
165.7114598774
 31
0.0
 12
274.3295188936
 22
165.7114598774
 32
0.0
 13
274.3295188936
 23
165.7114598774
 33
0.0
  0
SOLID
  5
233
330
22F
100
AcDbEntity
  8
VERMASSUNG
100
AcDbTrace
 10
273.8795188936
 20
123.7114598774
 30
0.0
 11
274.3295188936
 21
126.7114598774
 31
0.0
 12
273.4295188936
 22
126.7114598774
 32
0.0
 13
273.4295188936
 23
126.7114598774
 33
0.0
  0
LINE
  5
234
330
22F
100
AcDbEntity
  8
VERMASSUNG
100
AcDbLine
 10
258.2594466639
 20
168.7114598774
 30
0.0
 11
274.8795188936
 21
168.7114598774
 31
0.0
  0
LINE
  5
235
330
22F
100
AcDbEntity
  8
VERMASSUNG
100
AcDbLine
 10
257.7519698487
 20
123.7114598774
 30
0.0
 11
274.8795188936
 21
123.7114598774
 31
0.0
  0
LINE
  5
236
330
22F
100
AcDbEntity
  8
VERMASSUNG
100
AcDbLine
 10
273.8795188936
 20
168.7114598774
 30
0.0
 11
273.8795188936
 21
123.7114598774
 31
0.0
  0
MTEXT
  5
237
330
22F
100
AcDbEntity
  8
VERMASSUNG
100
AcDbMText
 10
271.3013832977
 20
144.7114598643
 30
0.0
 40
2.0
 41
0.0
 71
     1
 72
     1
  1
45
  7
SLDTEXTSTYLE0
 11
-7.044195017643634E-15
 21
1.0
 31
0.0
 73
     1
 44
1.0
  0
ENDBLK
  5
231
330
22F
100
AcDbEntity
  8
0
100
AcDbBlockEnd
  0
BLOCK
  5
23A
330
239
100
AcDbEntity
  8
0
100
AcDbBlockBegin
  2
_D_2
 70
     0
 10
0.0
 20
0.0
 30
0.0
  3
_D_2
  1

  0
SOLID
  5
23C
330
239
100
AcDbEntity
  8
VERMASSUNG
100
AcDbTrace
 10
193.2594466639
 20
177.4876665617
 30
0.0
 11
196.2594466639
 21
177.0376665617
 31
0.0
 12
196.2594466639
 22
177.9376665617
 32
0.0
 13
196.2594466639
 23
177.9376665617
 33
0.0
  0
SOLID
  5
23D
330
239
100
AcDbEntity
  8
VERMASSUNG
100
AcDbTrace
 10
258.2594466639
 20
177.4876665617
 30
0.0
 11
255.2594466639
 21
177.9376665617
 31
0.0
 12
255.2594466639
 22
177.0376665617
 32
0.0
 13
255.2594466639
 23
177.0376665617
 33
0.0
  0
LINE
  5
23E
330
239
100
AcDbEntity
  8
VERMASSUNG
100
AcDbLine
 10
193.2594466639
 20
154.7114598774
 30
0.0
 11
193.2594466639
 21
178.4876665617
 31
0.0
  0
LINE
  5
23F
330
239
100
AcDbEntity
  8
VERMASSUNG
100
AcDbLine
 10
258.2594466639
 20
168.7114598774
 30
0.0
 11
258.2594466639
 21
178.4876665617
 31
0.0
  0
LINE
  5
240
330
239
100
AcDbEntity
  8
VERMASSUNG
100
AcDbLine
 10
193.2594466639
 20
177.4876665617
 30
0.0
 11
258.2594466639
 21
177.4876665617
 31
0.0
  0
MTEXT
  5
241
330
239
100
AcDbEntity
  8
VERMASSUNG
100
AcDbMText
 10
224.3594467139
 20
180.0658021577
 30
0.0
 40
2.0
 41
0.0
 71
     1
 72
     1
  1
65
  7
SLDTEXTSTYLE0
 73
     1
 44
1.0
  0
ENDBLK
  5
23B
330
239
100
AcDbEntity
  8
0
100
AcDbBlockEnd
  0
BLOCK
  5
244
330
243
100
AcDbEntity
  8
0
100
AcDbBlockBegin
  2
_D_3
 70
     0
 10
0.0
 20
0.0
 30
0.0
  3
_D_3
  1

  0
ARC
  5
246
330
243
100
AcDbEntity
  8
VERMASSUNG
100
AcDbCircle
 10
208.6594467251
 20
185.806421733
 30
0.0
 40
4.24852922888762
100
AcDbArc
 50
153.4349488229
 51
206.5650511771
  0
ARC
  5
247
330
243
100
AcDbEntity
  8
VERMASSUNG
100
AcDbCircle
 10
204.859446661
 20
185.806421733
 30
0.0
 40
4.24852922888762
100
AcDbArc
 50
333.4349488229
 51
26.5650511771
  0
SOLID
  5
248
330
243
100
AcDbEntity
  8
VERMASSUNG
100
AcDbTrace
 10
155.2594466639
 20
183.9064214682
 30
0.0
 11
158.2594466639
 21
183.4564214682
 31
0.0
 12
158.2594466639
 22
184.3564214682
 32
0.0
 13
158.2594466639
 23
184.3564214682
 33
0.0
  0
SOLID
  5
249
330
243
100
AcDbEntity
  8
VERMASSUNG
100
AcDbTrace
 10
258.2594466639
 20
183.9064214682
 30
0.0
 11
255.2594466639
 21
184.3564214682
 31
0.0
 12
255.2594466639
 22
183.4564214682
 32
0.0
 13
255.2594466639
 23
183.4564214682
 33
0.0
  0
LINE
  5
24A
330
243
100
AcDbEntity
  8
VERMASSUNG
100
AcDbLine
 10
155.2594466639
 20
144.0037978699
 30
0.0
 11
155.2594466639
 21
184.9064214682
 31
0.0
  0
LINE
  5
24B
330
243
100
AcDbEntity
  8
VERMASSUNG
100
AcDbLine
 10
258.2594466639
 20
168.7114598774
 30
0.0
 11
258.2594466639
 21
184.9064214682
 31
0.0
  0
LINE
  5
24C
330
243
100
AcDbEntity
  8
VERMASSUNG
100
AcDbLine
 10
155.2594466639
 20
183.9064214682
 30
0.0
 11
258.2594466639
 21
183.9064214682
 31
0.0
  0
MTEXT
  5
24D
330
243
100
AcDbEntity
  8
VERMASSUNG
100
AcDbMText
 10
204.859446661
 20
186.484557297
 30
0.0
 40
2.0
 41
0.0
 71
     1
 72
     1
  1
103
  7
SLDTEXTSTYLE0
 73
     1
 44
1.0
  0
ENDBLK
  5
245
330
243
100
AcDbEntity
  8
0
100
AcDbBlockEnd
  0
BLOCK
  5
250
330
24F
100
AcDbEntity
  8
0
100
AcDbBlockBegin
  2
_D_4
 70
     0
 10
0.0
 20
0.0
 30
0.0
  3
_D_4
  1

  0
SOLID
  5
252
330
24F
100
AcDbEntity
  8
VERMASSUNG
100
AcDbTrace
 10
145.2594466639
 20
155.2114598774
 30
0.0
 11
144.8094466639
 21
152.2114598774
 31
0.0
 12
145.7094466639
 22
152.2114598774
 32
0.0
 13
145.7094466639
 23
152.2114598774
 33
0.0
  0
SOLID
  5
253
330
24F
100
AcDbEntity
  8
VERMASSUNG
100
AcDbTrace
 10
145.2594466639
 20
92.2114598774
 30
0.0
 11
145.7094466639
 21
95.2114598774
 31
0.0
 12
144.8094466639
 22
95.2114598774
 32
0.0
 13
144.8094466639
 23
95.2114598774
 33
0.0
  0
LINE
  5
254
330
24F
100
AcDbEntity
  8
VERMASSUNG
100
AcDbLine
 10
193.7594466639
 20
155.2114598774
 30
0.0
 11
144.2594466639
 21
155.2114598774
 31
0.0
  0
LINE
  5
255
330
24F
100
AcDbEntity
  8
VERMASSUNG
100
AcDbLine
 10
193.7594466639
 20
92.2114598774
 30
0.0
 11
144.2594466639
 21
92.2114598774
 31
0.0
  0
LINE
  5
256
330
24F
100
AcDbEntity
  8
VERMASSUNG
100
AcDbLine
 10
145.2594466639
 20
155.2114598774
 30
0.0
 11
145.2594466639
 21
92.2114598774
 31
0.0
  0
MTEXT
  5
257
330
24F
100
AcDbEntity
  8
VERMASSUNG
100
AcDbMText
 10
142.4813114077
 20
117.6064606555
 30
0.0
 40
2.0
 41
0.0
 71
     1
 72
     1
  1
PSC
  7
SLDTEXTSTYLE0
 11
-7.044195017643634E-15
 21
1.0
 31
0.0
 73
     1
 44
1.0
  0
MTEXT
  5
258
330
24F
100
AcDbEntity
  8
VERMASSUNG
100
AcDbMText
 10
142.681311359
 20
123.4064605818
 30
0.0
 40
2.0
 41
0.0
 71
     1
 72
     1
  1
%%c
  7
SLDTEXTSTYLE0
 11
-7.044195017643634E-15
 21
1.0
 31
0.0
 73
     1
 44
1.0
  0
MTEXT
  5
259
330
24F
100
AcDbEntity
  8
VERMASSUNG
100
AcDbMText
 10
142.4813114077
 20
127.0164601304
 30
0.0
 40
2.0
 41
0.0
 71
     1
 72
     1
  1
63
  7
SLDTEXTSTYLE0
 11
-7.044195017643634E-15
 21
1.0
 31
0.0
 73
     1
 44
1.0
  0
ENDBLK
  5
251
330
24F
100
AcDbEntity
  8
0
100
AcDbBlockEnd
  0
BLOCK
  5
25D
330
25C
100
AcDbEntity
  8
0
100
AcDbBlockBegin
  2
_D_5
 70
     0
 10
0.0
 20
0.0
 30
0.0
  3
_D_5
  1

  0
SOLID
  5
25F
330
25C
100
AcDbEntity
  8
VERMASSUNG
100
AcDbTrace
 10
258.1367935465
 20
168.5849725222
 30
0.0
 11
260.5763119416
 21
170.3880948142
 31
0.0
 12
259.9399158386
 22
171.0244909173
 32
0.0
 13
259.9399158386
 23
171.0244909173
 33
0.0
  0
LINE
  5
260
330
25C
100
AcDbEntity
  8
VERMASSUNG
100
AcDbLine
 10
258.1367935465
 20
168.5849725222
 30
0.0
 11
267.0860710801
 21
177.5342500557
 31
0.0
  0
LINE
  5
261
330
25C
100
AcDbEntity
  8
VERMASSUNG
100
AcDbLine
 10
258.1367935465
 20
168.5849725222
 30
0.0
 11
257.8539508341
 21
168.3021298097
 31
0.0
  0
MTEXT
  5
262
330
25C
100
AcDbEntity
  8
VERMASSUNG
100
AcDbMText
 10
261.6070889936
 20
175.6593215979
 30
0.0
 40
2.0
 41
0.0
 71
     1
 72
     1
  1
R0.4
  7
SLDTEXTSTYLE0
 11
0.7071067811865432
 21
0.7071067811865518
 31
0.0
 73
     1
 44
1.0
  0
ENDBLK
  5
25E
330
25C
100
AcDbEntity
  8
0
100
AcDbBlockEnd
  0
BLOCK
  5
28E
330
28D
100
AcDbEntity
  8
0
100
AcDbBlockBegin
  2
_D_6
 70
     0
 10
0.0
 20
0.0
 30
0.0
  3
_D_6
  1

  0
SOLID
  5
290
330
28D
100
AcDbEntity
  8
VERMASSUNG
100
AcDbTrace
 10
56.7064218922
 20
99.0036450973
 30
0.0
 11
54.2669034971
 21
97.2005228053
 31
0.0
 12
54.9032996002
 22
96.5641267022
 32
0.0
 13
54.9032996002
 23
96.5641267022
 33
0.0
  0
SOLID
  5
291
330
28D
100
AcDbEntity
  8
VERMASSUNG
100
AcDbTrace
 10
113.2749643871
 20
155.5721875922
 30
0.0
 11
115.7144827822
 21
157.3753098843
 31
0.0
 12
115.0780866791
 22
158.0117059873
 32
0.0
 13
115.0780866791
 23
158.0117059873
 33
0.0
  0
LINE
  5
292
330
28D
100
AcDbEntity
  8
VERMASSUNG
100
AcDbLine
 10
55.2922084273
 20
100.4178585622
 30
0.0
 11
57.4135286734
 21
98.2965383161
 31
0.0
  0
LINE
  5
293
330
28D
100
AcDbEntity
  8
VERMASSUNG
100
AcDbLine
 10
111.8607509222
 20
156.9864010572
 30
0.0
 11
113.9820711683
 21
154.8650808111
 31
0.0
  0
LINE
  5
294
330
28D
100
AcDbEntity
  8
VERMASSUNG
100
AcDbLine
 10
56.7064218922
 20
99.0036450973
 30
0.0
 11
52.4637812051
 21
94.7610044102
 31
0.0
  0
LINE
  5
295
330
28D
100
AcDbEntity
  8
VERMASSUNG
100
AcDbLine
 10
56.7064218922
 20
99.0036450973
 30
0.0
 11
113.2749643871
 21
155.5721875922
 31
0.0
  0
LINE
  5
296
330
28D
100
AcDbEntity
  8
VERMASSUNG
100
AcDbLine
 10
113.2749643871
 20
155.5721875922
 30
0.0
 11
125.8316356613
 21
168.1288588664
 31
0.0
  0
MTEXT
  5
297
330
28D
100
AcDbEntity
  8
VERMASSUNG
100
AcDbMText
 10
115.3748458007
 20
161.6009455633
 30
0.0
 40
2.0
 41
0.0
 71
     1
 72
     1
  1
min.
  7
SLDTEXTSTYLE0
 11
0.7071067811865466
 21
0.7071067811865485
 31
0.0
 73
     1
 44
1.0
  0
MTEXT
  5
298
330
28D
100
AcDbEntity
  8
VERMASSUNG
100
AcDbMText
 10
119.476064956
 20
165.419322075
 30
0.0
 40
2.0
 41
0.0
 71
     1
 72
     1
  1
%%c
  7
SLDTEXTSTYLE0
 11
0.7071067811865466
 21
0.7071067811865485
 31
0.0
 73
     1
 44
1.0
  0
MTEXT
  5
299
330
28D
100
AcDbEntity
  8
VERMASSUNG
100
AcDbMText
 10
121.8872991244
 20
168.113398887
 30
0.0
 40
2.0
 41
0.0
 71
     1
 72
     1
  1
80
  7
SLDTEXTSTYLE0
 11
0.7071067811865466
 21
0.7071067811865485
 31
0.0
 73
     1
 44
1.0
  0
ENDBLK
  5
28F
330
28D
100
AcDbEntity
  8
0
100
AcDbBlockEnd
  0
BLOCK
  5
29B
330
29A
100
AcDbEntity
  8
0
100
AcDbBlockBegin
  2
SW_CENTERMARKSYMBOL_0
 70
     0
 10
0.0
 20
0.0
 30
0.0
  3
SW_CENTERMARKSYMBOL_0
  1

  0
LINE
  5
29D
330
29A
100
AcDbEntity
  8
VERMASSUNG
 62
     0
100
AcDbLine
 10
0.0
 20
0.0
 30
0.0
 11
0.0
 21
2.5
 31
0.0
  0
LINE
  5
29E
330
29A
100
AcDbEntity
  8
VERMASSUNG
 62
     0
100
AcDbLine
 10
0.0
 20
0.0
 30
0.0
 11
-2.5
 21
0.0
 31
0.0
  0
LINE
  5
29F
330
29A
100
AcDbEntity
  8
VERMASSUNG
 62
     0
100
AcDbLine
 10
0.0
 20
0.0
 30
0.0
 11
0.0
 21
-2.5
 31
0.0
  0
LINE
  5
2A0
330
29A
100
AcDbEntity
  8
VERMASSUNG
 62
     0
100
AcDbLine
 10
0.0
 20
0.0
 30
0.0
 11
2.5
 21
0.0
 31
0.0
  0
LINE
  5
2A1
330
29A
100
AcDbEntity
  8
VERMASSUNG
 62
     0
100
AcDbLine
 10
0.0
 20
5.0
 30
0.0
 11
0.0
 21
34.0
 31
0.0
  0
LINE
  5
2A2
330
29A
100
AcDbEntity
  8
VERMASSUNG
 62
     0
100
AcDbLine
 10
-5.0
 20
0.0
 30
0.0
 11
-34.0
 21
0.0
 31
0.0
  0
LINE
  5
2A3
330
29A
100
AcDbEntity
  8
VERMASSUNG
 62
     0
100
AcDbLine
 10
0.0
 20
-5.0
 30
0.0
 11
0.0
 21
-34.0
 31
0.0
  0
LINE
  5
2A4
330
29A
100
AcDbEntity
  8
VERMASSUNG
 62
     0
100
AcDbLine
 10
5.0
 20
0.0
 30
0.0
 11
34.0
 21
0.0
 31
0.0
  0
ENDBLK
  5
29C
330
29A
100
AcDbEntity
  8
0
100
AcDbBlockEnd
  0
ENDSEC
  0
SECTION
  2
ENTITIES
  0
MTEXT
  5
78
330
1F
100
AcDbEntity
  8
KOPF_DÜNN
100
AcDbMText
 10
13.8892156294
 20
23.8442973028
 30
0.0
 40
3.0
 41
0.0
 71
     1
 72
     1
  1
PS6.KDA.RUA.065
  7
SLDTEXTSTYLE0
 73
     1
 44
1.0
  0
MTEXT
  5
79
330
1F
100
AcDbEntity
  8
VERMASSUNG
100
AcDbMText
 10
13.9329988022
 20
28.8834360957
 30
0.0
 40
3.0
 41
0.0
 71
     1
 72
     1
  1
Klemmhalter rechts
  7
SLDTEXTSTYLE0
 73
     1
 44
1.0
  0
MTEXT
  5
7A
330
1F
100
AcDbEntity
  8
VERMASSUNG
100
AcDbMText
 10
98.8601118557
 20
13.8365368761
 30
0.0
 40
2.0
 41
0.0
 71
     1
 72
     1
  1
Datum: 26.01.2017
  7
SLDTEXTSTYLE0
 73
     1
 44
1.0
  0
MTEXT
  5
7B
330
1F
100
AcDbEntity
  8
VERMASSUNG
100
AcDbMText
 10
13.933048693
 20
18.0482802738
 30
0.0
 40
2.0
 41
0.0
 71
     1
 72
     1
  1
für DC.. 07 02..
  7
SLDTEXTSTYLE0
 73
     1
 44
1.0
  0
MTEXT
  5
7C
330
1F
100
AcDbEntity
  8
VERMASSUNG
100
AcDbMText
 10
13.9808475933
 20
13.9090974274
 30
0.0
 40
2.0
 41
0.0
 71
     1
 72
     1
  1
Gewicht: 159g
  7
SLDTEXTSTYLE0
 73
     1
 44
1.0
  0
ARC
  5
7D
330
1F
100
AcDbEntity
  8
0
  6
Continuous
 62
     7
370
    15
100
AcDbCircle
 10
212.2594466639
 20
139.7180796879
 30
0.0
 40
2.499999999999995
100
AcDbArc
 50
60.1624335217
 51
154.6081678764
  0
ARC
  5
7E
330
1F
100
AcDbEntity
  8
0
  6
Continuous
 62
     7
370
    15
100
AcDbCircle
 10
212.2594466639
 20
139.7180796879
 30
0.0
 40
2.500000000000005
100
AcDbArc
 50
25.3918321235
 51
60.1624335217
  0
LINE
  5
7F
330
1F
100
AcDbEntity
  8
0
  6
Continuous
 62
     7
370
    15
100
AcDbLine
 10
193.7594466639
 20
92.2114598774
 30
0.0
 11
225.2565682456
 21
92.2114598774
 31
0.0
  0
LINE
  5
80
330
1F
100
AcDbEntity
  8
0
  6
Continuous
 62
     7
370
    15
100
AcDbLine
 10
227.9941341282
 20
155.2114598774
 30
0.0
 11
193.7594466639
 21
155.2114598774
 31
0.0
  0
ARC
  5
81
330
1F
100
AcDbEntity
  8
0
  6
Continuous
 62
     7
370
    15
100
AcDbCircle
 10
193.7594466639
 20
92.7114598774
 30
0.0
 40
0.5
100
AcDbArc
 50
180.0
 51
270.0
  0
ARC
  5
82
330
1F
100
AcDbEntity
  8
0
  6
Continuous
 62
     7
370
    15
100
AcDbCircle
 10
193.7594466639
 20
154.7114598774
 30
0.0
 40
0.5
100
AcDbArc
 50
90.0
 51
180.0
  0
LWPOLYLINE
  5
83
330
1F
100
AcDbEntity
  8
0
  6
Continuous
 62
     7
370
    15
100
AcDbPolyline
 90
        3
 70
   128
 43
0.0
 10
193.0594466639
 20
101.1716395985
 10
193.1849016074
 20
101.1033374836
 10
193.2594466639
 20
101.0505997254
  0
LWPOLYLINE
  5
84
330
1F
100
AcDbEntity
  8
0
  6
Continuous
 62
     7
370
    15
100
AcDbPolyline
 90
        3
 70
   128
 43
0.0
 10
193.2594466639
 20
146.3723200293
 10
193.1849016074
 20
146.3195822712
 10
193.0594466639
 20
146.2512801563
  0
LWPOLYLINE
  5
85
330
1F
100
AcDbEntity
  8
0
  6
Continuous
 62
     7
370
    15
100
AcDbPolyline
 90
       18
 70
   128
 43
0.0
 10
209.2732162367
 20
141.3527582852
 10
209.2652729165
 20
141.4348569727
 10
209.2987587274
 20
141.9844684889
 10
209.4807057941
 20
142.5141963542
 10
209.8019905311
 20
142.9974778016
 10
210.24650238
 20
143.4100790813
 10
210.7919516606
 20
143.7313106422
 10
211.4109872684
 20
143.9450645925
 10
212.0725681732
 20
144.0406224166
 10
212.7435199458
 20
144.0131924462
 10
213.3901982628
 20
143.8641501345
 10
213.980175973
 20
143.6009690854
 10
214.4838691305
 20
143.2368462957
 10
214.8760204571
 20
142.7900404024
 10
215.1369658479
 20
142.2829561188
 10
215.2536204114
 20
141.7410207682
 10
215.2201346005
 20
141.191409252
 10
215.2109732873
 20
141.147961493
  0
LWPOLYLINE
  5
86
330
1F
100
AcDbEntity
  8
0
  6
Continuous
 62
     7
370
    15
100
AcDbPolyline
 90
       29
 70
   128
 43
0.0
 10
210.619018056
 20
139.7491507666
 10
210.1388305792
 20
140.0962811595
 10
209.7649796478
 20
140.5222361111
 10
209.5162117085
 20
141.0056564615
 10
209.4050010247
 20
141.5223014957
 10
209.4369241644
 20
142.0462644745
 10
209.610380368
 20
142.5512717061
 10
209.9166718173
 20
143.0120000193
 10
210.3404397799
 20
143.4053465725
 10
210.8604347608
 20
143.7115873272
 10
211.4505820402
 20
143.9153660932
 10
212.0812891694
 20
144.0064645522
 10
212.7209298593
 20
143.9803146471
 10
213.3374298549
 20
143.8382276433
 10
213.8998752719
 20
143.5873283765
 10
214.3800627487
 20
143.2401979836
 10
214.7539136801
 20
142.814243032
 10
215.0026816193
 20
142.3308226816
 10
215.1138923031
 20
141.8141776474
 10
215.0819691635
 20
141.2902146686
 10
214.9085129598
 20
140.785207437
 10
214.6022215106
 20
140.3244791238
 10
214.178453548
 20
139.9311325705
 10
213.6584585671
 20
139.6248918158
 10
213.0683112877
 20
139.4211130499
 10
212.4376041584
 20
139.3300145909
 10
211.7979634685
 20
139.356164496
 10
211.181463473
 20
139.4982514998
 10
210.619018056
 20
139.7491507666
  0
LWPOLYLINE
  5
87
330
1F
100
AcDbEntity
  8
0
  6
Continuous
 62
     7
370
    15
100
AcDbPolyline
 90
       27
 70
   128
 43
0.0
 10
210.8255055731
 20
139.9907143924
 10
210.377083506
 20
140.32056418
 10
210.0380575436
 20
140.7287359628
 10
209.8281306424
 20
141.1915082804
 10
209.7595029909
 20
141.6819864878
 10
209.8361629788
 20
142.1716657743
 10
210.0536554062
 20
142.6320877599
 10
210.3993404037
 20
143.0364943922
 10
210.8531280159
 20
143.3613830277
 10
211.3886457561
 20
143.5878723198
 10
211.9747712799
 20
143.7027995342
 10
212.5774411023
 20
143.699485519
 10
213.1616302437
 20
143.5781228725
 10
213.6933877548
 20
143.3457647507
 10
214.1418098219
 20
143.0159149631
 10
214.4808357843
 20
142.6077431803
 10
214.6907626855
 20
142.1449708627
 10
214.759390337
 20
141.6544926553
 10
214.6827303491
 20
141.1648133687
 10
214.4652379217
 20
140.7043913832
 10
214.1195529242
 20
140.2999847509
 10
213.665765312
 20
139.9750961154
 10
213.1302475717
 20
139.7486068232
 10
212.544122048
 20
139.6336796088
 10
211.9414522256
 20
139.6369936241
 10
211.3572630842
 20
139.7583562706
 10
210.8255055731
 20
139.9907143924
  0
CIRCLE
  5
88
330
1F
100
AcDbEntity
  8
0
  6
Continuous
 62
     7
370
    15
100
AcDbCircle
 10
254.7511858219
 20
163.0346800806
 30
0.0
 40
1.10000000000002
  0
CIRCLE
  5
89
330
1F
100
AcDbEntity
  8
0
  6
Continuous
 62
     7
370
    15
100
AcDbCircle
 10
254.7511858219
 20
163.0346800806
 30
0.0
 40
1.050000000000005
  0
CIRCLE
  5
8A
330
1F
100
AcDbEntity
  8
0
  6
Continuous
 62
     7
370
    15
100
AcDbCircle
 10
254.7511858219
 20
163.0346800806
 30
0.0
 40
1.700000000000034
  0
SPLINE
  5
8B
330
1F
100
AcDbEntity
  8
0
  6
Continuous
 62
     7
370
    15
100
AcDbSpline
210
0.0
220
0.0
230
1.0
 70
     8
 71
     3
 72
    36
 73
    32
 74
     0
 42
0.000000001
 43
0.00000001
 40
0.0
 40
0.0
 40
0.0
 40
0.0
 40
0.0305204424260165
 40
0.0612484985057599
 40
0.0926338995824151
 40
0.1242477666358868
 40
0.1548926817438947
 40
0.1857526380316221
 40
0.2172946054365613
 40
0.2490738671938939
 40
0.2794616697738647
 40
0.3100635746820669
 40
0.3413437288990273
 40
0.3728594466845133
 40
0.402960067417828
 40
0.4641943327648614
 40
0.4954028666769109
 40
0.5253464197791484
 40
0.5862515732990771
 40
0.6172854305480919
 40
0.6472343179351239
 40
0.7081408181650101
 40
0.7391686581358141
 40
0.7692817899962001
 40
0.8305148847562334
 40
0.8617040445835803
 40
0.8921041626867254
 40
0.9227119830885174
 40
0.9539710493860927
 40
0.9854535600251852
 40
1.0
 40
1.0
 40
1.0
 40
1.0
 10
255.273429857946
 20
163.7604592527822
 30
0.0
 10
255.274231565667
 20
163.7660812685021
 30
0.0
 10
255.2758404346823
 20
163.7773635433987
 30
0.0
 10
255.2764721532539
 20
163.7946295421033
 30
0.0
 10
255.2757409349769
 20
163.8120990681073
 30
0.0
 10
255.2734908197589
 20
163.8294494554931
 30
0.0
 10
255.269806183248
 20
163.846467982452
 30
0.0
 10
255.2647076398958
 20
163.8631245722385
 30
0.0
 10
255.258126804458
 20
163.8795033189029
 30
0.0
 10
255.2501887512498
 20
163.8951909888245
 30
0.0
 10
255.2410343797727
 20
163.9100111286183
 30
0.0
 10
255.2307244805617
 20
163.9239545299017
 30
0.0
 10
255.2191236854569
 20
163.9371460968614
 30
0.0
 10
255.2064908875108
 20
163.9492368645089
 30
0.0
 10
255.1884973304167
 20
163.9637632732077
 30
0.0
 10
255.1687729679965
 20
163.9759628720817
 30
0.0
 10
255.1477834624837
 20
163.9855120494072
 30
0.0
 10
255.1261305211836
 20
163.9932524116471
 30
0.0
 10
255.103615974682
 20
163.9982536467437
 30
0.0
 10
255.0807693052926
 20
164.0003720385737
 30
0.0
 10
255.0578399680282
 20
164.0005815557861
 30
0.0
 10
255.0349810202748
 20
163.9979314165285
 30
0.0
 10
255.0127350683632
 20
163.9924597489857
 30
0.0
 10
254.9909854084774
 20
163.9851444884358
 30
0.0
 10
254.9702240746776
 20
163.9751338073023
 30
0.0
 10
254.9509587598527
 20
163.9626454048419
 30
0.0
 10
254.9373427814258
 20
163.9521034207042
 30
0.0
 10
254.9246469989772
 20
163.9404772113143
 30
0.0
 10
254.912860876395
 20
163.9276826579953
 30
0.0
 10
254.9039966191463
 20
163.9163383266566
 30
0.0
 10
254.899235855973
 20
163.9092306962133
 30
0.0
 10
254.8977313212224
 20
163.9069844855518
 30
0.0
  0
SPLINE
  5
8C
330
1F
100
AcDbEntity
  8
0
  6
Continuous
 62
     7
370
    15
100
AcDbSpline
210
0.0
220
0.0
230
1.0
 70
     8
 71
     3
 72
    17
 73
    13
 74
     0
 42
0.000000001
 43
0.00000001
 40
0.0
 40
0.0
 40
0.0
 40
0.0
 40
0.103235005558645
 40
0.2093935952668336
 40
0.3128207560576129
 40
0.4193652973796428
 40
0.520732698220854
 40
0.6251162760668182
 40
0.725328530436851
 40
0.8283483241298771
 40
0.9133718309532652
 40
1.0
 40
1.0
 40
1.0
 40
1.0
 10
254.8977313212224
 20
163.9069844855518
 30
0.0
 10
254.8848944923431
 20
163.8919798906259
 30
0.0
 10
254.8588572994711
 20
163.8615457751816
 30
0.0
 10
254.810901167261
 20
163.8248753724371
 30
0.0
 10
254.7572805533204
 20
163.7958220746805
 30
0.0
 10
254.7000986433958
 20
163.7765364968692
 30
0.0
 10
254.6403141035244
 20
163.7669618735387
 30
0.0
 10
254.581003397622
 20
163.7673785746978
 30
0.0
 10
254.5223848706057
 20
163.777480928733
 30
0.0
 10
254.4699636881821
 20
163.7957914023258
 30
0.0
 10
254.4230632668383
 20
163.8200078066901
 30
0.0
 10
254.3969455676945
 20
163.8398383205361
 30
0.0
 10
254.3837646392528
 20
163.8498462688828
 30
0.0
  0
SPLINE
  5
8D
330
1F
100
AcDbEntity
  8
0
  6
Continuous
 62
     7
370
    15
100
AcDbSpline
210
0.0
220
0.0
230
1.0
 70
     8
 71
     3
 72
    36
 73
    32
 74
     0
 42
0.000000001
 43
0.00000001
 40
0.0
 40
0.0
 40
0.0
 40
0.0
 40
0.0302745503373272
 40
0.0607516906788261
 40
0.0918697138385514
 40
0.1232103354661144
 40
0.1538581112772653
 40
0.1847209479457543
 40
0.2162658623702045
 40
0.2480480966261673
 40
0.2784386250882565
 40
0.3090432822875501
 40
0.3403262842936023
 40
0.3718448884069404
 40
0.4019473961807613
 40
0.4631855739482096
 40
0.4943961559736379
 40
0.5243403386228398
 40
0.5852468542799631
 40
0.6162814639472924
 40
0.6462296104150234
 40
0.7071346761470236
 40
0.7381618355959144
 40
0.7682730204124548
 40
0.8295022034281858
 40
0.8606894020663278
 40
0.8910867962693018
 40
0.921691876225959
 40
0.9529481475845425
 40
0.9844278429628421
 40
1.0
 40
1.0
 40
1.0
 40
1.0
 10
254.3837646392528
 20
163.8498462688828
 30
0.0
 10
254.3793333981711
 20
163.8533241527898
 30
0.0
 10
254.370441263209
 20
163.8603031937659
 30
0.0
 10
254.355935170419
 20
163.8694223258381
 30
0.0
 10
254.3405856209648
 20
163.8774812582769
 30
0.0
 10
254.3245447844664
 20
163.8842081448308
 30
0.0
 10
254.3080271999454
 20
163.8895575695615
 30
0.0
 10
254.2910630050924
 20
163.8935183990314
 30
0.0
 10
254.2735941996262
 20
163.8960578576107
 30
0.0
 10
254.256040978345
 20
163.8970764413325
 30
0.0
 10
254.2386267137681
 20
163.8966073210665
 30
0.0
 10
254.2213899161473
 20
163.894698430026
 30
0.0
 10
254.2041545502312
 20
163.8912954571267
 30
0.0
 10
254.1873526133485
 20
163.8864469523652
 30
0.0
 10
254.1657513514121
 20
163.8781867918723
 30
0.0
 10
254.1452924855288
 20
163.8672608421369
 30
0.0
 10
254.1264899325555
 20
163.8539091952836
 30
0.0
 10
254.1089184562138
 20
163.8390752782999
 30
0.0
 10
254.093282661808
 20
163.8221202045002
 30
0.0
 10
254.0799728860777
 20
163.8034296346586
 30
0.0
 10
254.0682723806868
 20
163.7837089329681
 30
0.0
 10
254.0590799017916
 20
163.7626125773647
 30
0.0
 10
254.0526350727455
 20
163.7406288823791
 30
0.0
 10
254.0480336833095
 20
163.7181485294124
 30
0.0
 10
254.046259270326
 20
163.6951687994673
 30
0.0
 10
254.0473785994929
 20
163.6722379322911
 30
0.0
 10
254.0496530547726
 20
163.6551695865014
 30
0.0
 10
254.0533269115162
 20
163.6383522123604
 30
0.0
 10
254.0584685327007
 20
163.6217347755762
 30
0.0
 10
254.0638928773446
 20
163.6081932481602
 30
0.0
 10
254.06774568271
 20
163.6003426286406
 30
0.0
 10
254.0690207970169
 20
163.5977444083002
 30
0.0
  0
SPLINE
  5
8E
330
1F
100
AcDbEntity
  8
0
  6
Continuous
 62
     7
370
    15
100
AcDbSpline
210
0.0
220
0.0
230
1.0
 70
     8
 71
     3
 72
    12
 73
     8
 74
     0
 42
0.000000001
 43
0.00000001
 40
0.0
 40
0.0
 40
0.0
 40
0.0
 40
0.2093652529604592
 40
0.4192619297278981
 40
0.6249525996333233
 40
0.8281706892237624
 40
1.0
 40
1.0
 40
1.0
 40
1.0
 10
254.0690207970169
 20
163.5977444083002
 30
0.0
 10
254.0805442436499
 20
163.5592130817732
 30
0.0
 10
254.1036203864392
 20
163.482052626128
 30
0.0
 10
254.0876468142409
 20
163.3595099850612
 30
0.0
 10
254.0353320332241
 20
163.2509158120611
 30
0.0
 10
253.9562785797511
 20
163.1684097095037
 30
0.0
 10
253.8912936717317
 20
163.137999598183
 30
0.0
 10
253.8615206031945
 20
163.1240670966812
 30
0.0
  0
SPLINE
  5
8F
330
1F
100
AcDbEntity
  8
0
  6
Continuous
 62
     7
370
    15
100
AcDbSpline
210
0.0
220
0.0
230
1.0
 70
     8
 71
     3
 72
    36
 73
    32
 74
     0
 42
0.000000001
 43
0.00000001
 40
0.0
 40
0.0
 40
0.0
 40
0.0
 40
0.0305552803132964
 40
0.0613188927631335
 40
0.0927422065862642
 40
0.1243948267667576
 40
0.155039336352746
 40
0.1858988843248071
 40
0.21744043394841
 40
0.2492192743033626
 40
0.2796066909134967
 40
0.3102082061069097
 40
0.3414879570637905
 40
0.3730032661219013
 40
0.4031036201857808
 40
0.4643373326001832
 40
0.4955455770268923
 40
0.5254890418975129
 40
0.5863940043818029
 40
0.6174277560196844
 40
0.6473767494352769
 40
0.7082834550562342
 40
0.739311392544382
 40
0.7694248012183064
 40
0.8306584521566045
 40
0.8618478908581568
 40
0.8922483955287698
 40
0.9228566048515386
 40
0.95411606782749
 40
0.985598978040034
 40
1.0
 40
1.0
 40
1.0
 40
1.0
 10
253.8615206031945
 20
163.1240670966812
 30
0.0
 10
253.8562449758136
 20
163.1219478246949
 30
0.0
 10
253.8456577507477
 20
163.1176948310934
 30
0.0
 10
253.8303723560085
 20
163.109597155235
 30
0.0
 10
253.8155934207618
 20
163.1002143081347
 30
0.0
 10
253.8016848671999
 20
163.0895768860878
 30
0.0
 10
253.788788073769
 20
163.0778666537628
 30
0.0
 10
253.776917499642
 20
163.0651182562486
 30
0.0
 10
253.766029133384
 20
163.0512254909405
 30
0.0
 10
253.7564181756318
 20
163.0365034034429
 30
0.0
 10
253.7481669052144
 20
163.0211622736743
 30
0.0
 10
253.741252878298
 20
163.0052593424083
 30
0.0
 10
253.7356356792259
 20
162.9886149144489
 30
0.0
 10
253.7314879056859
 20
162.9716277216766
 30
0.0
 10
253.7279134714184
 20
162.9487804121335
 30
0.0
 10
253.7272196051827
 20
162.9255987250241
 30
0.0
 10
253.7294535039877
 20
162.9026477369715
 30
0.0
 10
253.7335854543858
 20
162.8800272909593
 30
0.0
 10
253.740520095787
 20
162.8580313162919
 30
0.0
 10
253.7501169426099
 20
162.8371901494554
 30
0.0
 10
253.761407932201
 20
162.8172324283067
 30
0.0
 10
253.775139690398
 20
162.7987664292241
 30
0.0
 10
253.7910077181471
 20
162.7822428810393
 30
0.0
 10
253.8082237175763
 20
162.7670714209798
 30
0.0
 10
253.8272790302941
 20
162.7541043057891
 30
0.0
 10
253.8477311390632
 20
162.7436722025906
 30
0.0
 10
253.8636714053439
 20
162.7371576029743
 30
0.0
 10
253.8800900459804
 20
162.7319822592921
 30
0.0
 10
253.8970651406551
 20
162.7281789954759
 30
0.0
 10
253.9112958029011
 20
162.7261841398825
 30
0.0
 10
253.9198047117598
 20
162.7256177645465
 30
0.0
 10
253.9224752976824
 20
162.7254400033288
 30
0.0
  0
SPLINE
  5
90
330
1F
100
AcDbEntity
  8
0
  6
Continuous
 62
     7
370
    15
100
AcDbSpline
210
0.0
220
0.0
230
1.0
 70
     8
 71
     3
 72
    12
 73
     8
 74
     0
 42
0.000000001
 43
0.00000001
 40
0.0
 40
0.0
 40
0.0
 40
0.0
 40
0.2092378396811425
 40
0.4191378956981174
 40
0.624831618152968
 40
0.8280490456278772
 40
1.0
 40
1.0
 40
1.0
 40
1.0
 10
253.9224752976824
 20
162.7254400033288
 30
0.0
 10
253.9615823266155
 20
162.7161619149047
 30
0.0
 10
254.0399201542237
 20
162.6975763738567
 30
0.0
 10
254.138054334698
 20
162.6225069666579
 30
0.0
 10
254.2059626972172
 20
162.5229162217727
 30
0.0
 10
254.2379174299902
 20
162.4131829102059
 30
0.0
 10
254.2317626888345
 20
162.3416750922744
 30
0.0
 10
254.2289417858297
 20
162.308900908379
 30
0.0
  0
SPLINE
  5
91
330
1F
100
AcDbEntity
  8
0
  6
Continuous
 62
     7
370
    15
100
AcDbSpline
210
0.0
220
0.0
230
1.0
 70
     8
 71
     3
 72
    24
 73
    20
 74
     0
 42
0.000000001
 43
0.00000001
 40
0.0
 40
0.0
 40
0.0
 40
0.0
 40
0.0612369402141677
 40
0.1242205885042711
 40
0.185712211084753
 40
0.249015831569439
 40
0.3099921968029719
 40
0.3727705654763884
 40
0.4331697888115345
 40
0.4953395100521245
 40
0.5554223820326889
 40
0.6172480905960904
 40
0.6773404655452605
 40
0.7391579377831413
 40
0.7995789024427485
 40
0.8617205355964257
 40
0.9227168289669916
 40
0.9854439750383549
 40
1.0
 40
1.0
 40
1.0
 40
1.0
 10
254.2289417858297
 20
162.308900908379
 30
0.0
 10
254.2276041384023
 20
162.297570484253
 30
0.0
 10
254.2248906888072
 20
162.2745864496488
 30
0.0
 10
254.2282002204366
 20
162.2398775954863
 30
0.0
 10
254.2370072767149
 20
162.2058010250675
 30
0.0
 10
254.2514495679492
 20
162.1739633544369
 30
0.0
 10
254.2711968262592
 20
162.144783053693
 30
0.0
 10
254.295256169451
 20
162.1196930509182
 30
0.0
 10
254.3233823002312
 20
162.0988556903466
 30
0.0
 10
254.354173612352
 20
162.0832322565149
 30
0.0
 10
254.3873809558455
 20
162.0728919598216
 30
0.0
 10
254.4214503494324
 20
162.0682741263015
 30
0.0
 10
254.4560880369862
 20
162.0693932282475
 30
0.0
 10
254.4897605061813
 20
162.0761861804043
 30
0.0
 10
254.522120926307
 20
162.0885909485484
 30
0.0
 10
254.5517939760892
 20
162.1060894956711
 30
0.0
 10
254.5783587661491
 20
162.1285275207933
 30
0.0
 10
254.5951423146571
 20
162.1482085581865
 30
0.0
 10
254.6031349387298
 20
162.1601302627155
 30
0.0
 10
254.6046403225534
 20
162.1623756756093
 30
0.0
  0
SPLINE
  5
92
330
1F
100
AcDbEntity
  8
0
  6
Continuous
 62
     7
370
    15
100
AcDbSpline
210
0.0
220
0.0
230
1.0
 70
     8
 71
     3
 72
    17
 73
    13
 74
     0
 42
0.000000001
 43
0.00000001
 40
0.0
 40
0.0
 40
0.0
 40
0.0
 40
0.1032350055586316
 40
0.2093935952667812
 40
0.3128207560576068
 40
0.4193652973796786
 40
0.5207326982208688
 40
0.6251162760668167
 40
0.72532853043684
 40
0.8283483241298794
 40
0.9133718309533193
 40
1.0
 40
1.0
 40
1.0
 40
1.0
 10
254.6046403225534
 20
162.1623756756093
 30
0.0
 10
254.6174771514327
 20
162.1773802705352
 30
0.0
 10
254.6435143443045
 20
162.2078143859796
 30
0.0
 10
254.6914704765146
 20
162.2444847887241
 30
0.0
 10
254.7450910904553
 20
162.2735380864807
 30
0.0
 10
254.8022730003798
 20
162.2928236642921
 30
0.0
 10
254.8620575402513
 20
162.3023982876224
 30
0.0
 10
254.9213682461536
 20
162.3019815864635
 30
0.0
 10
254.97998677317
 20
162.2918792324282
 30
0.0
 10
255.0324079555936
 20
162.2735687588356
 30
0.0
 10
255.0793083769373
 20
162.249352354471
 30
0.0
 10
255.1054260760812
 20
162.2295218406251
 30
0.0
 10
255.118607004523
 20
162.2195138922785
 30
0.0
  0
SPLINE
  5
93
330
1F
100
AcDbEntity
  8
0
  6
Continuous
 62
     7
370
    15
100
AcDbSpline
210
0.0
220
0.0
230
1.0
 70
     8
 71
     3
 72
    24
 73
    20
 74
     0
 42
0.000000001
 43
0.00000001
 40
0.0
 40
0.0
 40
0.0
 40
0.0
 40
0.0607408974427844
 40
0.1231848648887711
 40
0.1846820622107087
 40
0.2479914296037415
 40
0.3089731060987169
 40
0.3717570342214923
 40
0.4321598907729258
 40
0.4943334938608109
 40
0.5544174778744684
 40
0.6162444863974305
 40
0.6763352225521523
 40
0.738151145111431
 40
0.7985680471698172
 40
0.8607055893138197
 40
0.9216962550761532
 40
0.9844176239578063
 40
1.0
 40
1.0
 40
1.0
 40
1.0
 10
255.118607004523
 20
162.2195138922785
 30
0.0
 10
255.1276735886894
 20
162.2127422331381
 30
0.0
 10
255.146060968405
 20
162.1990090492143
 30
0.0
 10
255.1775623060036
 20
162.1845351684007
 30
0.0
 10
255.2113545301121
 20
162.1750555112365
 30
0.0
 10
255.2461400873007
 20
162.1715461763696
 30
0.0
 10
255.281293784359
 20
162.1739594665864
 30
0.0
 10
255.3150770657951
 20
162.1821568621937
 30
0.0
 10
255.3472263617435
 20
162.1960077675065
 30
0.0
 10
255.3762057364285
 20
162.2147828806537
 30
0.0
 10
255.4018304642454
 20
162.2383015246089
 30
0.0
 10
255.4229396122888
 20
162.2654401393151
 30
0.0
 10
255.4393735203954
 20
162.2959521742975
 30
0.0
 10
255.4504163378579
 20
162.3284793866681
 30
0.0
 10
255.4559476729589
 20
162.3626910147388
 30
0.0
 10
255.4557254320601
 20
162.397137633887
 30
0.0
 10
255.4496691165192
 20
162.4313769398335
 30
0.0
 10
255.4410256789043
 20
162.4559586492153
 30
0.0
 10
255.4346246465421
 20
162.4690171272684
 30
0.0
 10
255.4333508467588
 20
162.471615752861
 30
0.0
  0
SPLINE
  5
94
330
1F
100
AcDbEntity
  8
0
  6
Continuous
 62
     7
370
    15
100
AcDbSpline
210
0.0
220
0.0
230
1.0
 70
     8
 71
     3
 72
    12
 73
     8
 74
     0
 42
0.000000001
 43
0.00000001
 40
0.0
 40
0.0
 40
0.0
 40
0.0
 40
0.2093652529605368
 40
0.4192619297278652
 40
0.6249525996334087
 40
0.8281706892237529
 40
1.0
 40
1.0
 40
1.0
 40
1.0
 10
255.4333508467588
 20
162.471615752861
 30
0.0
 10
255.4218274001258
 20
162.5101470793881
 30
0.0
 10
255.3987512573365
 20
162.5873075350333
 30
0.0
 10
255.4147248295346
 20
162.7098501761001
 30
0.0
 10
255.4670396105514
 20
162.8184443491002
 30
0.0
 10
255.5460930640247
 20
162.9009504516573
 30
0.0
 10
255.611077972044
 20
162.9313605629782
 30
0.0
 10
255.6408510405812
 20
162.9452930644801
 30
0.0
  0
SPLINE
  5
95
330
1F
100
AcDbEntity
  8
0
  6
Continuous
 62
     7
370
    15
100
AcDbSpline
210
0.0
220
0.0
230
1.0
 70
     8
 71
     3
 72
    36
 73
    32
 74
     0
 42
0.000000001
 43
0.00000001
 40
0.0
 40
0.0
 40
0.0
 40
0.0
 40
0.0305618606332832
 40
0.0613320982691248
 40
0.0927621793500313
 40
0.1244216161712263
 40
0.1550727252935092
 40
0.1859389191119925
 40
0.2174872614564423
 40
0.2492729456346191
 40
0.3413415696266517
 40
0.372863665754375
 40
0.4030807908759118
 40
0.4335111837543376
 40
0.4642725029641395
 40
0.4954874683318746
 40
0.5255459637200365
 40
0.5558149641033725
 40
0.5864096559657704
 40
0.6174500909661153
 40
0.6475130272036566
 40
0.6777848365438358
 40
0.708378958661406
 40
0.7394135782599436
 40
0.7696407025381051
 40
0.8000765061068673
 40
0.8308337451731901
 40
0.8620299007657399
 40
0.9541061863618275
 40
0.9855958766666446
 40
1.0
 40
1.0
 40
1.0
 40
1.0
 10
255.6408510405812
 20
162.9452930644801
 30
0.0
 10
255.646126668029
 20
162.9474123367352
 30
0.0
 10
255.6567138932293
 20
162.9516653308762
 30
0.0
 10
255.6719992869481
 20
162.9597630026386
 30
0.0
 10
255.686778226168
 20
162.9691458656869
 30
0.0
 10
255.7006867648726
 20
162.9797832281004
 30
0.0
 10
255.7135836122518
 20
162.9914936769549
 30
0.0
 10
255.7254539835843
 20
163.004241260529
 30
0.0
 10
255.7363431261887
 20
163.0181371417946
 30
0.0
 10
255.7522734736928
 20
163.0425273988676
 30
0.0
 10
255.7640316219972
 20
163.0696479684678
 30
0.0
 10
255.7708874813989
 20
163.0977495050402
 30
0.0
 10
255.7735672696965
 20
163.1148955510728
 30
0.0
 10
255.7748032969009
 20
163.1320659239059
 30
0.0
 10
255.7745949813282
 20
163.1494731115251
 30
0.0
 10
255.7729167691895
 20
163.1667328656304
 30
0.0
 10
255.7698136552163
 20
163.1836975293103
 30
0.0
 10
255.7653510531672
 20
163.2002329734773
 30
0.0
 10
255.7594651976711
 20
163.2165086263309
 30
0.0
 10
255.7522467704035
 20
163.2321886688314
 30
0.0
 10
255.743778805539
 20
163.2471480772563
 30
0.0
 10
255.7341594893655
 20
163.2612798825058
 30
0.0
 10
255.7232919164852
 20
163.2746949873335
 30
0.0
 10
255.7113504434825
 20
163.2871322419424
 30
0.0
 10
255.6984472550041
 20
163.2984973289299
 30
0.0
 10
255.6847052757123
 20
163.3087165643272
 30
0.0
 10
255.6700175743476
 20
163.3178419900101
 30
0.0
 10
255.6443860290356
 20
163.3309293688958
 30
0.0
 10
255.6165068212957
 20
163.339626661493
 30
0.0
 10
255.5910766437509
 20
163.3431750715419
 30
0.0
 10
255.582567123809
 20
163.3437421697392
 30
0.0
 10
255.5798963460933
 20
163.3439201578323
 30
0.0
  0
SPLINE
  5
96
330
1F
100
AcDbEntity
  8
0
  6
Continuous
 62
     7
370
    15
100
AcDbSpline
210
0.0
220
0.0
230
1.0
 70
     8
 71
     3
 72
    12
 73
     8
 74
     0
 42
0.000000001
 43
0.00000001
 40
0.0
 40
0.0
 40
0.0
 40
0.0
 40
0.2092378396813721
 40
0.4191378956981758
 40
0.6248316181529648
 40
0.8280490456278646
 40
1.0
 40
1.0
 40
1.0
 40
1.0
 10
255.5798963460933
 20
163.3439201578323
 30
0.0
 10
255.5407893171602
 20
163.3531982462565
 30
0.0
 10
255.462451489552
 20
163.3717837873045
 30
0.0
 10
255.3643173090778
 20
163.4468531945035
 30
0.0
 10
255.2964089465584
 20
163.5464439393885
 30
0.0
 10
255.2644542137856
 20
163.6561772509554
 30
0.0
 10
255.2706089549413
 20
163.7276850688868
 30
0.0
 10
255.273429857946
 20
163.7604592527822
 30
0.0
  0
LINE
  5
97
330
1F
100
AcDbEntity
  8
0
  6
Continuous
 62
     7
370
    15
100
AcDbLine
 10
251.9549490138
 20
157.6234964334
 30
0.0
 11
257.7007284042
 21
161.2138578773
 31
0.0
  0
LINE
  5
98
330
1F
100
AcDbEntity
  8
0
  6
Continuous
 62
     7
370
    15
100
AcDbLine
 10
251.7535796934
 20
157.9457547099
 30
0.0
 11
251.9549490138
 21
157.6234964334
 31
0.0
  0
LINE
  5
99
330
1F
100
AcDbEntity
  8
0
  6
Continuous
 62
     7
370
    15
100
AcDbLine
 10
251.9070400168
 20
158.2062786412
 30
0.0
 11
251.7535796934
 21
157.9457547099
 31
0.0
  0
LINE
  5
9A
330
1F
100
AcDbEntity
  8
0
  6
Continuous
 62
     7
370
    15
100
AcDbLine
 10
251.9070400168
 20
158.2062786412
 30
0.0
 11
252.8437594425
 21
158.7916059017
 31
0.0
  0
SPLINE
  5
9B
330
1F
100
AcDbEntity
  8
0
  6
Continuous
 62
     7
370
    15
100
AcDbSpline
210
0.0
220
0.0
230
1.0
 70
    24
 71
     3
 72
    19
 73
    15
 74
     0
 42
0.000000001
 43
0.00000001
 40
0.0
 40
0.0
 40
0.0
 40
0.0
 40
0.0528323629122815
 40
0.1438514401368507
 40
0.2355072488459554
 40
0.3291346307662929
 40
0.4234263480964537
 40
0.5086666816021745
 40
0.594384504377446
 40
0.6915214616597615
 40
0.789335591196254
 40
0.8892464978646079
 40
0.9898656549639057
 40
1.0
 40
1.0
 40
1.0
 40
1.0
 10
257.5757572283534
 20
161.4911142074943
 30
0.0
 10
257.5665702903423
 20
161.496525727546
 30
0.0
 10
257.5415561855304
 20
161.5112601613257
 30
0.0
 10
257.4995364886134
 20
161.5360116543864
 30
0.0
 10
257.4494012952503
 20
161.5655435401841
 30
0.0
 10
257.398066364032
 20
161.5957821255867
 30
0.0
 10
257.3476972359118
 20
161.6254518094869
 30
0.0
 10
257.2989141035228
 20
161.6541872705064
 30
0.0
 10
257.2500012954121
 20
161.6829991163629
 30
0.0
 10
257.1995261140431
 20
161.7127312704014
 30
0.0
 10
257.1476792218622
 20
161.7432714238575
 30
0.0
 10
257.0967934100079
 20
161.7732454577367
 30
0.0
 10
257.0621936284744
 20
161.7936262866183
 30
0.0
 10
257.0444994043886
 20
161.8040489811353
 30
0.0
 10
257.0428803190453
 20
161.805002695288
 30
0.0
  0
SPLINE
  5
9C
330
1F
100
AcDbEntity
  8
0
  6
Continuous
 62
     7
370
    15
100
AcDbSpline
210
0.0
220
0.0
230
1.0
 70
     8
 71
     3
 72
    10
 73
     6
 74
     0
 42
0.000000001
 43
0.00000001
 40
0.0
 40
0.0
 40
0.0
 40
0.0
 40
0.4697950497325149
 40
0.9502426255240197
 40
1.0
 40
1.0
 40
1.0
 40
1.0
 10
257.5757572283534
 20
161.4911142074943
 30
0.0
 10
257.5796462075068
 20
161.4758601842929
 30
0.0
 10
257.5875123477809
 20
161.445006255404
 30
0.0
 10
257.5889632644798
 20
161.411855014376
 30
0.0
 10
257.5889331969472
 20
161.3944093236797
 30
0.0
 10
257.5889303752431
 20
161.392772123264
 30
0.0
  0
LINE
  5
9D
330
1F
100
AcDbEntity
  8
0
  6
Continuous
 62
     7
370
    15
100
AcDbLine
 10
257.6525815137
 20
168.6243880862
 30
0.0
 11
251.9068021234
 21
165.0340266421
 31
0.0
  0
LINE
  5
9E
330
1F
100
AcDbEntity
  8
0
  6
Continuous
 62
     7
370
    15
100
AcDbLine
 10
257.8539508341
 20
168.3021298097
 30
0.0
 11
257.6525815137
 21
168.6243880862
 31
0.0
  0
LINE
  5
9F
330
1F
100
AcDbEntity
  8
0
  6
Continuous
 62
     7
370
    15
100
AcDbLine
 10
257.7004905107
 20
168.0416058784
 30
0.0
 11
257.8539508341
 21
168.3021298097
 31
0.0
  0
LINE
  5
A0
330
1F
100
AcDbEntity
  8
0
  6
Continuous
 62
     7
370
    15
100
AcDbLine
 10
257.7004905107
 20
168.0416058784
 30
0.0
 11
256.763771085
 21
167.4562786179
 31
0.0
  0
SPLINE
  5
A1
330
1F
100
AcDbEntity
  8
0
  6
Continuous
 62
     7
370
    15
100
AcDbSpline
210
0.0
220
0.0
230
1.0
 70
    24
 71
     3
 72
    19
 73
    15
 74
     0
 42
0.000000001
 43
0.00000001
 40
0.0
 40
0.0
 40
0.0
 40
0.0
 40
0.0528323629123469
 40
0.143851440136847
 40
0.2355072488458677
 40
0.3291346307661868
 40
0.4234263480962511
 40
0.5086666816021082
 40
0.5943845043776084
 40
0.6915214616598709
 40
0.7893355911963349
 40
0.8892464978646247
 40
0.9898656549638816
 40
0.9999999999999999
 40
0.9999999999999999
 40
0.9999999999999999
 40
0.9999999999999999
 10
252.0317732990918
 20
164.7567703121416
 30
0.0
 10
252.0409602371029
 20
164.75135879209
 30
0.0
 10
252.0659743419149
 20
164.7366243583104
 30
0.0
 10
252.1079940388319
 20
164.7118728652498
 30
0.0
 10
252.1581292321949
 20
164.682340979452
 30
0.0
 10
252.2094641634132
 20
164.6521023940496
 30
0.0
 10
252.2598332915333
 20
164.6224327101489
 30
0.0
 10
252.3086164239225
 20
164.5936972491298
 30
0.0
 10
252.3575292320331
 20
164.5648854032731
 30
0.0
 10
252.4080044134022
 20
164.5351532492347
 30
0.0
 10
252.4598513055832
 20
164.5046130957786
 30
0.0
 10
252.5107371174373
 20
164.4746390618994
 30
0.0
 10
252.5453368989708
 20
164.4542582330179
 30
0.0
 10
252.5630311230566
 20
164.4438355385007
 30
0.0
 10
252.5646502083999
 20
164.442881824348
 30
0.0
  0
SPLINE
  5
A2
330
1F
100
AcDbEntity
  8
0
  6
Continuous
 62
     7
370
    15
100
AcDbSpline
210
0.0
220
0.0
230
1.0
 70
     8
 71
     3
 72
    10
 73
     6
 74
     0
 42
0.000000001
 43
0.00000001
 40
0.0
 40
0.0
 40
0.0
 40
0.0
 40
0.4697950497354754
 40
0.9502426255240563
 40
1.0
 40
1.0
 40
1.0
 40
1.0
 10
252.0317732990918
 20
164.7567703121416
 30
0.0
 10
252.0278843199384
 20
164.7720243353432
 30
0.0
 10
252.0200181796644
 20
164.8028782642321
 30
0.0
 10
252.0185672629657
 20
164.8360295052602
 30
0.0
 10
252.018597330498
 20
164.8534751959563
 30
0.0
 10
252.0186001522021
 20
164.855112396372
 30
0.0
  0
LINE
  5
A3
330
1F
100
AcDbEntity
  8
0
  6
Continuous
 62
     7
370
    15
100
AcDbLine
 10
257.8539508341
 20
168.3021298097
 30
0.0
 11
258.2334300573
 21
168.2822421463
 31
0.0
  0
LINE
  5
A4
330
1F
100
AcDbEntity
  8
0
  6
Continuous
 62
     7
370
    15
100
AcDbLine
 10
257.878838307
 20
161.5162284905
 30
0.0
 11
258.2334300573
 21
168.2822421463
 31
0.0
  0
LINE
  5
A5
330
1F
100
AcDbEntity
  8
0
  6
Continuous
 62
     7
370
    15
100
AcDbLine
 10
257.6426823426
 20
166.9385603217
 30
0.0
 11
257.7004905107
 21
168.0416058784
 31
0.0
  0
SPLINE
  5
A6
330
1F
100
AcDbEntity
  8
0
  6
Continuous
 62
     7
370
    15
100
AcDbSpline
210
0.0
220
0.0
230
1.0
 70
     8
 71
     3
 72
     9
 73
     5
 74
     0
 42
0.000000001
 43
0.00000001
 40
0.0
 40
0.0
 40
0.0
 40
0.0
 40
0.0498711162380207
 40
0.9999999999999999
 40
0.9999999999999999
 40
0.9999999999999999
 40
0.9999999999999999
 10
257.6681556216035
 20
161.5272699021295
 30
0.0
 10
257.666726315763
 20
161.5264704964758
 30
0.0
 10
257.6380663227981
 20
161.5104410647315
 30
0.0
 10
257.6061150528264
 20
161.5005305109225
 30
0.0
 10
257.5757572283534
 20
161.4911142074943
 30
0.0
  0
SPLINE
  5
A7
330
1F
100
AcDbEntity
  8
0
  6
Continuous
 62
     7
370
    15
100
AcDbSpline
210
0.0
220
0.0
230
1.0
 70
     8
 71
     3
 72
     9
 73
     5
 74
     0
 42
0.000000001
 43
0.00000001
 40
0.0
 40
0.0
 40
0.0
 40
0.0
 40
0.0498711162383749
 40
1.0
 40
1.0
 40
1.0
 40
1.0
 10
251.9393749058416
 20
164.7206146175064
 30
0.0
 10
251.9408042116822
 20
164.7214140231602
 30
0.0
 10
251.9694642046469
 20
164.737443454905
 30
0.0
 10
252.0014154746187
 20
164.7473540087138
 30
0.0
 10
252.0317732990918
 20
164.7567703121416
 30
0.0
  0
LINE
  5
A8
330
1F
100
AcDbEntity
  8
0
  6
Continuous
 62
     7
370
    15
100
AcDbLine
 10
251.7535796934
 20
157.9457547099
 30
0.0
 11
251.3741004702
 21
157.9656423733
 31
0.0
  0
LINE
  5
A9
330
1F
100
AcDbEntity
  8
0
  6
Continuous
 62
     7
370
    15
100
AcDbLine
 10
251.7286922205
 20
164.7316560292
 30
0.0
 11
251.3741004702
 21
157.9656423733
 31
0.0
  0
LINE
  5
AA
330
1F
100
AcDbEntity
  8
0
  6
Continuous
 62
     7
370
    15
100
AcDbLine
 10
251.9648481848
 20
159.3093241979
 30
0.0
 11
251.9070400168
 21
158.2062786412
 31
0.0
  0
SPLINE
  5
AB
330
1F
100
AcDbEntity
  8
0
  6
Continuous
 62
     7
370
    15
100
AcDbSpline
210
0.0
220
0.0
230
1.0
 70
     8
 71
     3
 72
    14
 73
    10
 74
     0
 42
0.000000001
 43
0.00000001
 40
0.0
 40
0.0
 40
0.0
 40
0.0
 40
0.2717201334719124
 40
0.385432475590556
 40
0.452361144164625
 40
0.5196941782138064
 40
0.595324479100423
 40
0.7174676973996217
 40
1.0
 40
1.0
 40
1.0
 40
1.0
 10
252.523183543575
 20
159.5718914414947
 30
0.0
 10
252.4578293586987
 20
159.618738791261
 30
0.0
 10
252.3651250568673
 20
159.6851913200618
 30
0.0
 10
252.2360366886303
 20
159.7259560650248
 30
0.0
 10
252.1618926953602
 20
159.7230902558294
 30
0.0
 10
252.1039000089517
 20
159.6977512904489
 30
0.0
 10
252.0479980643256
 20
159.6414396406126
 30
0.0
 10
251.9846753999058
 20
159.5123993694275
 30
0.0
 10
251.972999763636
 20
159.3928146557316
 30
0.0
 10
251.9648481848295
 20
159.3093241978923
 30
0.0
  0
SPLINE
  5
AC
330
1F
100
AcDbEntity
  8
0
  6
Continuous
 62
     7
370
    15
100
AcDbSpline
210
0.0
220
0.0
230
1.0
 70
     8
 71
     3
 72
    23
 73
    19
 74
     0
 42
0.000000001
 43
0.00000001
 40
0.0
 40
0.0
 40
0.0
 40
0.0
 40
0.0867272337393726
 40
0.1302300208838273
 40
0.1734987419775799
 40
0.2624987680859854
 40
0.3588014698863831
 40
0.406874952075248
 40
0.4562557196888603
 40
0.5198393858483336
 40
0.5835494162988757
 40
0.6263464880711446
 40
0.6703180817640775
 40
0.7400716418711057
 40
0.7753703535269756
 40
0.8097105939611249
 40
0.8832390054177635
 40
0.9999999999999999
 40
0.9999999999999999
 40
0.9999999999999999
 40
0.9999999999999999
 10
256.7637710849637
 20
167.4562786179395
 30
0.0
 10
256.7423104688947
 20
167.4423688583562
 30
0.0
 10
256.7100851071675
 20
167.4214818981371
 30
0.0
 10
256.6692372642752
 20
167.3906759998239
 30
0.0
 10
256.6291165208827
 20
167.3578769399056
 30
0.0
 10
256.580141842169
 20
167.3114538847989
 30
0.0
 10
256.5370866217714
 20
167.2571726203604
 30
0.0
 10
256.5103106274074
 20
167.2065095398487
 30
0.0
 10
256.4953807184127
 20
167.1611631583882
 30
0.0
 10
256.4925173105355
 20
167.1081086989868
 30
0.0
 10
256.5081988094235
 20
167.0593788734186
 30
0.0
 10
256.5320457314533
 20
167.0217586233784
 30
0.0
 10
256.5625495261854
 20
166.9869543112966
 30
0.0
 10
256.5962206619729
 20
166.95847013473
 30
0.0
 10
256.6297165277964
 20
166.9346694965305
 30
0.0
 10
256.6652182773264
 20
166.911834943018
 30
0.0
 10
256.7228286256659
 20
166.8790741192685
 30
0.0
 10
256.7736358164333
 20
166.8552628846764
 30
0.0
 10
256.8048109525033
 20
166.8406523843281
 30
0.0
  0
SPLINE
  5
AD
330
1F
100
AcDbEntity
  8
0
  6
Continuous
 62
     7
370
    15
100
AcDbSpline
210
0.0
220
0.0
230
1.0
 70
     8
 71
     3
 72
    14
 73
    10
 74
     0
 42
0.000000001
 43
0.00000001
 40
0.0
 40
0.0
 40
0.0
 40
0.0
 40
0.271720133472088
 40
0.3854324755906254
 40
0.4523611441646863
 40
0.5196941782138589
 40
0.5953244791004575
 40
0.7174676973996864
 40
1.0
 40
1.0
 40
1.0
 40
1.0
 10
257.0843469838703
 20
166.6759930781415
 30
0.0
 10
257.1497011687465
 20
166.629145728375
 30
0.0
 10
257.2424054705779
 20
166.5626931995742
 30
0.0
 10
257.371493838815
 20
166.5219284546113
 30
0.0
 10
257.4456378320851
 20
166.5247942638065
 30
0.0
 10
257.5036305184935
 20
166.5501332291872
 30
0.0
 10
257.5595324631195
 20
166.6064448790234
 30
0.0
 10
257.6228551275394
 20
166.7354851502086
 30
0.0
 10
257.6345307638093
 20
166.8550698639044
 30
0.0
 10
257.6426823426157
 20
166.9385603217436
 30
0.0
  0
SPLINE
  5
AE
330
1F
100
AcDbEntity
  8
0
  6
Continuous
 62
     7
370
    15
100
AcDbSpline
210
0.0
220
0.0
230
1.0
 70
     8
 71
     3
 72
    15
 73
    11
 74
     0
 42
0.000000001
 43
0.00000001
 40
0.0
 40
0.0
 40
0.0
 40
0.0
 40
0.2623380033287676
 40
0.3588352750210301
 40
0.4561280779211677
 40
0.5198402084624449
 40
0.5836789586010314
 40
0.6703563782494744
 40
0.8830031016095858
 40
1.0
 40
1.0
 40
1.0
 40
1.0
 10
252.8437594424815
 20
158.7916059016965
 30
0.0
 10
252.9079497905423
 20
158.8356937211829
 30
0.0
 10
252.9957516374261
 20
158.8959986126959
 30
0.0
 10
253.0793453753895
 20
159.0019989213835
 30
0.0
 10
253.1113620284707
 20
159.0724033257554
 30
0.0
 10
253.1150117867147
 20
159.139772135839
 30
0.0
 10
253.0953229270224
 20
159.2010342556574
 30
0.0
 10
253.0278220189427
 20
159.2861532328231
 30
0.0
 10
252.9212743256806
 20
159.351192833511
 30
0.0
 10
252.8337748363891
 20
159.3925527137092
 30
0.0
 10
252.8027195749419
 20
159.4072321353079
 30
0.0
  0
ARC
  5
AF
330
1F
100
AcDbEntity
  8
0
  6
Continuous
 62
     7
370
    15
100
AcDbCircle
 10
253.4298077996
 20
160.7914253455
 30
0.0
 40
1.000000000000027
100
AcDbArc
 50
177.0
 51
302.0
  0
ARC
  5
B0
330
1F
100
AcDbEntity
  8
0
  6
Continuous
 62
     7
370
    15
100
AcDbCircle
 10
253.4298077996
 20
160.7914253455
 30
0.0
 40
1.519615242270748
100
AcDbArc
 50
233.3721989764
 51
245.6278010236
  0
ARC
  5
B1
330
1F
100
AcDbEntity
  8
0
  6
Continuous
 62
     7
370
    15
100
AcDbCircle
 10
256.1777227278
 20
165.4564591742
 30
0.0
 40
1.000000000295248
100
AcDbArc
 50
357.0
 51
122.0
  0
ARC
  5
B2
330
1F
100
AcDbEntity
  8
0
  6
Continuous
 62
     7
370
    15
100
AcDbCircle
 10
256.1777227278
 20
165.4564591742
 30
0.0
 40
1.519615242270656
100
AcDbArc
 50
53.3721989764
 51
65.6278010236
  0
ARC
  5
B3
330
1F
100
AcDbEntity
  8
0
  6
Continuous
 62
     7
370
    15
100
AcDbCircle
 10
256.0179967142
 20
162.4087052751
 30
0.0
 40
0.9999999999999973
100
AcDbArc
 50
302.0
 51
357.0
  0
ARC
  5
B4
330
1F
100
AcDbEntity
  8
0
  6
Continuous
 62
     7
370
    15
100
AcDbCircle
 10
253.5895338133
 20
163.8391792445
 30
0.0
 40
0.9999999999999759
100
AcDbArc
 50
122.0
 51
177.0
  0
LINE
  5
B5
330
1F
100
AcDbEntity
  8
0
  6
Continuous
 62
     7
370
    15
100
AcDbLine
 10
251.9655473991
 20
157.6065354715
 30
0.0
 11
257.7113267895
 21
161.1968969154
 31
0.0
  0
ARC
  5
B6
330
1F
100
AcDbEntity
  8
0
  6
Continuous
 62
     7
370
    15
100
AcDbCircle
 10
251.7535796934
 20
157.9457547099
 30
0.0
 40
0.4000000000000064
100
AcDbArc
 50
177.0
 51
302.0
  0
LINE
  5
B7
330
1F
100
AcDbEntity
  8
0
  6
Continuous
 62
     7
370
    15
100
AcDbLine
 10
251.7087196298
 20
164.7327027483
 30
0.0
 11
251.3541278795
 21
157.9666890924
 31
0.0
  0
ARC
  5
B8
330
1F
100
AcDbEntity
  8
0
  6
Continuous
 62
     7
370
    15
100
AcDbCircle
 10
252.1081714437
 20
164.7117683658
 30
0.0
 40
0.4000000000000318
100
AcDbArc
 50
122.0
 51
177.0
  0
LINE
  5
B9
330
1F
100
AcDbEntity
  8
0
  6
Continuous
 62
     7
370
    15
100
AcDbLine
 10
257.6419831284
 20
168.6413490482
 30
0.0
 11
251.896203738
 21
165.0509876043
 31
0.0
  0
ARC
  5
BA
330
1F
100
AcDbEntity
  8
0
  6
Continuous
 62
     7
370
    15
100
AcDbCircle
 10
257.8539508341
 20
168.3021298097
 30
0.0
 40
0.4000000000000639
100
AcDbArc
 50
357.0
 51
122.0
  0
LINE
  5
BB
330
1F
100
AcDbEntity
  8
0
  6
Continuous
 62
     7
370
    15
100
AcDbLine
 10
257.8988108977
 20
161.5151817713
 30
0.0
 11
258.253402648
 21
168.2811954272
 31
0.0
  0
ARC
  5
BC
330
1F
100
AcDbEntity
  8
0
  6
Continuous
 62
     7
370
    15
100
AcDbCircle
 10
257.4993590838
 20
161.5361161538
 30
0.0
 40
0.4000000000000333
100
AcDbArc
 50
302.0
 51
357.0
  0
ARC
  5
BD
330
1F
100
AcDbEntity
  8
0
  6
Continuous
 62
     7
370
    15
100
AcDbCircle
 10
257.8539508341
 20
168.3021298097
 30
0.0
 40
0.3800000000000248
100
AcDbArc
 50
357.0
 51
122.0
  0
ARC
  5
BE
330
1F
100
AcDbEntity
  8
0
  6
Continuous
 62
     7
370
    15
100
AcDbCircle
 10
252.1081714437
 20
164.7117683658
 30
0.0
 40
0.3800000000000622
100
AcDbArc
 50
122.0
 51
177.0
  0
ARC
  5
BF
330
1F
100
AcDbEntity
  8
0
  6
Continuous
 62
     7
370
    15
100
AcDbCircle
 10
251.7535796934
 20
157.9457547099
 30
0.0
 40
0.380000000000052
100
AcDbArc
 50
177.0
 51
302.0
  0
ARC
  5
C0
330
1F
100
AcDbEntity
  8
0
  6
Continuous
 62
     7
370
    15
100
AcDbCircle
 10
257.4993590838
 20
161.5361161538
 30
0.0
 40
0.3800000000000068
100
AcDbArc
 50
302.0
 51
357.0
  0
LINE
  5
C1
330
1F
100
AcDbEntity
  8
0
  6
Continuous
 62
     7
370
    15
100
AcDbLine
 10
253.9597270638
 20
159.9433772493
 30
0.0
 11
256.5479159784
 21
161.560657179
 31
0.0
  0
LINE
  5
C2
330
1F
100
AcDbEntity
  8
0
  6
Continuous
 62
     7
370
    15
100
AcDbLine
 10
252.5909042785
 20
163.8915152007
 30
0.0
 11
252.4311782648
 21
160.8437613017
 31
0.0
  0
LINE
  5
C3
330
1F
100
AcDbEntity
  8
0
  6
Continuous
 62
     7
370
    15
100
AcDbLine
 10
255.6478034636
 20
166.3045072703
 30
0.0
 11
253.059614549
 21
164.6872273407
 31
0.0
  0
LINE
  5
C4
330
1F
100
AcDbEntity
  8
0
  6
Continuous
 62
     7
370
    15
100
AcDbLine
 10
257.0166262489
 20
162.3563693189
 30
0.0
 11
257.1763522629
 21
165.4041232179
 31
0.0
  0
CIRCLE
  5
C5
330
1F
100
AcDbEntity
  8
0
  6
Continuous
 62
     7
370
    15
100
AcDbCircle
 10
254.8037652637
 20
163.1239422598
 30
0.0
 40
1.924999999999956
  0
ELLIPSE
  5
C6
330
1F
100
AcDbEntity
  8
0
  6
Continuous
 62
     7
370
    15
100
AcDbEllipse
 10
225.1790619062
 20
123.7114598774
 30
0.0
 11
0.0
 21
31.49999999999998
 31
0.0
210
0.0
220
0.0
230
1.0
 40
0.2679491924
 41
0.1320368298873559
 42
3.009555823702438
  0
ELLIPSE
  5
C7
330
1F
100
AcDbEntity
  8
0
  6
Continuous
 62
     7
370
    15
100
AcDbEllipse
 10
221.4076291965
 20
142.516314957
 30
0.0
 11
0.3132574444648242
 21
3.231926583941629
 31
0.0
210
0.0
220
0.0
230
1.0
 40
0.2273683009
 41
0.0
 42
6.283185307179586
  0
SPLINE
  5
C8
330
1F
100
AcDbEntity
  8
0
  6
Continuous
 62
     7
370
    15
100
AcDbSpline
210
0.0
220
0.0
230
1.0
 70
    11
 71
     3
 72
    68
 73
    64
 74
     0
 42
0.000000001
 43
0.00000001
 40
0.0
 40
0.0
 40
0.0
 40
0.0
 40
0.0312500000000002
 40
0.0312500000000002
 40
0.0625000000000004
 40
0.0625000000000004
 40
0.0937500000000004
 40
0.0937500000000004
 40
0.1250000000000004
 40
0.1250000000000004
 40
0.1562500000000004
 40
0.1562500000000004
 40
0.1875000000000004
 40
0.1875000000000004
 40
0.2187500000000004
 40
0.2187500000000004
 40
0.2500000000000003
 40
0.2500000000000003
 40
0.2812500000000003
 40
0.2812500000000003
 40
0.3125000000000004
 40
0.3125000000000004
 40
0.3437500000000004
 40
0.3437500000000004
 40
0.3750000000000004
 40
0.3750000000000004
 40
0.4062500000000004
 40
0.4062500000000004
 40
0.4375000000000004
 40
0.4375000000000004
 40
0.4687500000000005
 40
0.4687500000000005
 40
0.5000000000000004
 40
0.5000000000000004
 40
0.5312500000000006
 40
0.5312500000000006
 40
0.5625000000000004
 40
0.5625000000000004
 40
0.5937500000000004
 40
0.5937500000000004
 40
0.6250000000000004
 40
0.6250000000000004
 40
0.6562500000000003
 40
0.6562500000000003
 40
0.6875000000000003
 40
0.6875000000000003
 40
0.7187500000000003
 40
0.7187500000000003
 40
0.7500000000000002
 40
0.7500000000000002
 40
0.7812500000000002
 40
0.7812500000000002
 40
0.8125000000000002
 40
0.8125000000000002
 40
0.8437500000000002
 40
0.8437500000000002
 40
0.8750000000000001
 40
0.8750000000000001
 40
0.9062500000000001
 40
0.9062500000000001
 40
0.9375000000000001
 40
0.9375000000000001
 40
1.0
 40
1.0
 40
1.0
 40
1.0
 10
212.2594466639385
 20
139.2395353473697
 30
0.0
 10
212.4577614741235
 20
139.2395353473697
 30
0.0
 10
212.6527397203731
 20
139.2565631858809
 30
0.0
 10
213.0363029455188
 20
139.3231432179772
 30
0.0
 10
213.226883720981
 20
139.3735086662643
 30
0.0
 10
213.5901330077678
 20
139.5045176521693
 30
0.0
 10
213.7623997467637
 20
139.5845238379814
 30
0.0
 10
214.0884214634717
 20
139.7727740091534
 30
0.0
 10
214.2426968302483
 20
139.8819485532336
 30
0.0
 10
214.5192597514994
 20
140.1192488366941
 30
0.0
 10
214.6434026418148
 20
140.2482267083021
 30
0.0
 10
214.8627174141857
 20
140.5267897656864
 30
0.0
 10
214.955847869589
 20
140.6742467743464
 30
0.0
 10
215.1055022001152
 20
140.9774623317376
 30
0.0
 10
215.163149170107
 20
141.1354630139158
 30
0.0
 10
215.2402557319294
 20
141.4568481716889
 30
0.0
 10
215.2593395132728
 20
141.6174074534781
 30
0.0
 10
215.2595529233502
 20
141.9381488462779
 30
0.0
 10
215.2400576328507
 20
142.0999759161132
 30
0.0
 10
215.1634877583737
 20
142.4111156278141
 30
0.0
 10
215.1068345171645
 20
142.5613404643758
 30
0.0
 10
214.9565585663552
 20
142.851384959547
 30
0.0
 10
214.8626749039427
 20
142.9905916166131
 30
0.0
 10
214.6456097038463
 20
143.2469272722676
 30
0.0
 10
214.5216784475716
 20
143.3657137559541
 30
0.0
 10
214.2417216024193
 20
143.5843996963717
 30
0.0
 10
214.0902624515174
 20
143.6807255273293
 30
0.0
 10
213.7655294425698
 20
143.8488366528249
 30
0.0
 10
213.5901650037533
 20
143.9212285790218
 30
0.0
 10
213.2268479848536
 20
144.0369992231668
 30
0.0
 10
213.039856531863
 20
144.0805038983908
 30
0.0
 10
212.6552850335063
 20
144.1393469638996
 30
0.0
 10
212.4563771803869
 20
144.1543926395166
 30
0.0
 10
212.0647137806903
 20
144.1545022790955
 30
0.0
 10
211.8700060443034
 20
144.1400533425886
 30
0.0
 10
211.4828889806485
 20
144.0813587331862
 30
0.0
 10
211.2934179779216
 20
144.0372896453722
 30
0.0
 10
210.932285479904
 20
143.9225070372061
 30
0.0
 10
210.7578662305437
 20
143.8509580320006
 30
0.0
 10
210.4296681927398
 20
143.6814684702614
 30
0.0
 10
210.2785899552892
 20
143.5851935142461
 30
0.0
 10
210.0017538622616
 20
143.3695666738798
 30
0.0
 10
209.8749900457491
 20
143.2487291858404
 30
0.0
 10
209.6569855075922
 20
142.9917082968508
 30
0.0
 10
209.5647043280621
 20
142.8551928739335
 30
0.0
 10
209.4138246408968
 20
142.5654934503353
 30
0.0
 10
209.3558782064267
 20
142.4124009357719
 30
0.0
 10
209.279266024012
 20
142.1023523293671
 30
0.0
 10
209.2596380039966
 20
141.943786910427
 30
0.0
 10
209.2592580807515
 20
141.6191597284799
 30
0.0
 10
209.2785704212561
 20
141.4580636868331
 30
0.0
 10
209.3544910379329
 20
141.1397666556184
 30
0.0
 10
209.4119968068989
 20
140.9806731681595
 30
0.0
 10
209.5623569534881
 20
140.675261265387
 30
0.0
 10
209.6543762413795
 20
140.529570055427
 30
0.0
 10
209.8717202563695
 20
140.252533789497
 30
0.0
 10
209.9982396765011
 20
140.1206052546549
 30
0.0
 10
210.2746732959609
 20
139.8830967897074
 30
0.0
 10
210.4255028860372
 20
139.7759891107528
 30
0.0
 10
210.7530144782773
 20
139.5861955989523
 30
0.0
 10
210.9275630113655
 20
139.5051098481746
 30
0.0
 10
211.4687678797371
 20
139.3094417246553
 30
0.0
 10
211.8628170435688
 20
139.2395353473697
 30
0.0
 10
212.2594466639386
 20
139.2395353473697
 30
0.0
  0
SPLINE
  5
C9
330
1F
100
AcDbEntity
  8
0
  6
Continuous
 62
     7
370
    15
100
AcDbSpline
210
0.0
220
0.0
230
1.0
 70
     8
 71
     3
 72
    12
 73
     8
 74
     0
 42
0.000000001
 43
0.00000001
 40
0.0
 40
0.0
 40
0.0
 40
0.0
 40
0.2499999999999987
 40
0.2499999999999987
 40
0.4999999999999973
 40
0.4999999999999973
 40
1.0
 40
1.0
 40
1.0
 40
1.0
 10
203.787203477505
 20
93.6429679185023
 30
0.0
 10
203.7241465226072
 20
93.6429679185023
 30
0.0
 10
203.6650163728617
 20
93.65086824958183
 30
0.0
 10
203.5665688223283
 20
93.67417899758689
 30
0.0
 10
203.5275365841403
 20
93.68888412387054
 30
0.0
 10
203.4276466996833
 20
93.73681765205717
 30
0.0
 10
203.385347726074
 20
93.77288762482195
 30
0.0
 10
203.3541907756127
 20
93.81071741725815
 30
0.0
  0
LINE
  5
CA
330
1F
100
AcDbEntity
  8
0
  6
Continuous
 62
     7
370
    15
100
AcDbLine
 10
206.7316898504
 20
93.6429679185
 30
0.0
 11
203.7872034775
 21
93.6429679185
 31
0.0
  0
SPLINE
  5
CB
330
1F
100
AcDbEntity
  8
0
  6
Continuous
 62
     7
370
    15
100
AcDbSpline
210
0.0
220
0.0
230
1.0
 70
     8
 71
     3
 72
    12
 73
     8
 74
     0
 42
0.000000001
 43
0.00000001
 40
0.0
 40
0.0
 40
0.0
 40
0.0
 40
0.5
 40
0.5
 40
0.75
 40
0.75
 40
1.0
 40
1.0
 40
1.0
 40
1.0
 10
207.1647025522643
 20
93.81071741725816
 30
0.0
 10
207.1335573543022
 20
93.77290189433798
 30
0.0
 10
207.0912830879678
 20
93.73683503625435
 30
0.0
 10
206.9913375541425
 20
93.6888749712431
 30
0.0
 10
206.9516072494385
 20
93.67401399734543
 30
0.0
 10
206.8547191994323
 20
93.65106285121429
 30
0.0
 10
206.7946539576857
 20
93.64296791850224
 30
0.0
 10
206.7316898503722
 20
93.64296791850224
 30
0.0
  0
ELLIPSE
  5
CC
330
1F
100
AcDbEntity
  8
0
  6
Continuous
 62
     7
370
    15
100
AcDbEllipse
 10
190.9122924746
 20
123.7114598774
 30
0.0
 11
-14.75368316065621
 21
31.09325491558114
 31
0.0
210
0.0
220
0.0
230
1.0
 40
0.3419987131
 41
3.300734856217118
 42
4.231496223360772
  0
SPLINE
  5
CD
330
1F
100
AcDbEntity
  8
0
  6
Continuous
 62
     7
370
    15
100
AcDbSpline
210
0.0
220
0.0
230
1.0
 70
     8
 71
     3
 72
    12
 73
     8
 74
     0
 42
0.000000001
 43
0.00000001
 40
0.0
 40
0.0
 40
0.0
 40
0.0
 40
0.25
 40
0.25
 40
0.5
 40
0.5
 40
1.0
 40
1.0
 40
1.0
 40
1.0
 10
206.7316898503721
 20
114.3233934460392
 30
0.0
 10
206.7947468052699
 20
114.3233934460392
 30
0.0
 10
206.8538769550155
 20
114.2980470926585
 30
0.0
 10
206.9523245055488
 20
114.223927710519
 30
0.0
 10
206.9913567437369
 20
114.177431195821
 30
0.0
 10
207.0912466281939
 20
114.0273566888124
 30
0.0
 10
207.1335456018032
 20
113.9162389796976
 30
0.0
 10
207.1647025522644
 20
113.8020905566901
 30
0.0
  0
LINE
  5
CE
330
1F
100
AcDbEntity
  8
0
  6
Continuous
 62
     7
370
    15
100
AcDbLine
 10
203.7872034775
 20
114.323393446
 30
0.0
 11
206.7316898504
 21
114.323393446
 31
0.0
  0
SPLINE
  5
CF
330
1F
100
AcDbEntity
  8
0
  6
Continuous
 62
     7
370
    15
100
AcDbSpline
210
0.0
220
0.0
230
1.0
 70
     8
 71
     3
 72
    12
 73
     8
 74
     0
 42
0.000000001
 43
0.00000001
 40
0.0
 40
0.0
 40
0.0
 40
0.0
 40
0.5000000000000029
 40
0.5000000000000029
 40
0.7500000000000014
 40
0.7500000000000014
 40
1.0
 40
1.0
 40
1.0
 40
1.0
 10
203.3541907756128
 20
113.80209055669
 30
0.0
 10
203.3853359735749
 20
113.9161959225553
 30
0.0
 10
203.4276102399093
 20
114.0273022497741
 30
0.0
 10
203.5275557737346
 20
114.1774598572044
 30
0.0
 10
203.5672860784387
 20
114.2244525488218
 30
0.0
 10
203.6641741284449
 20
114.2974281333603
 30
0.0
 10
203.7242393701915
 20
114.3233934460393
 30
0.0
 10
203.787203477505
 20
114.3233934460393
 30
0.0
  0
ELLIPSE
  5
D0
330
1F
100
AcDbEntity
  8
0
  6
Continuous
 62
     7
370
    15
100
AcDbEllipse
 10
219.6066008533
 20
123.7114598774
 30
0.0
 11
14.75368316065618
 21
31.09325491558114
 31
0.0
210
0.0
220
0.0
230
1.0
 40
0.3419987131
 41
2.051689083818825
 42
2.982450450962501
  0
SPLINE
  5
D1
330
1F
100
AcDbEntity
  8
0
  6
Continuous
 62
     7
370
    15
100
AcDbSpline
210
0.0
220
0.0
230
1.0
 70
     8
 71
     3
 72
    12
 73
     8
 74
     0
 42
0.000000001
 43
0.00000001
 40
0.0
 40
0.0
 40
0.0
 40
0.0
 40
0.2500000000000023
 40
0.2500000000000023
 40
0.5000000000000046
 40
0.5000000000000046
 40
1.0
 40
1.0
 40
1.0
 40
1.0
 10
203.787203477505
 20
133.0995263087117
 30
0.0
 10
203.7241234390117
 20
133.0995263087117
 30
0.0
 10
203.6649748168303
 20
133.1248906279267
 30
0.0
 10
203.5665022667612
 20
133.1990554882996
 30
0.0
 10
203.5274656547765
 20
133.2455758288537
 30
0.0
 10
203.4275691879974
 20
133.3957181716989
 30
0.0
 10
203.3851483069308
 20
133.5074113786711
 30
0.0
 10
203.3541907756128
 20
133.6208291980609
 30
0.0
  0
LINE
  5
D2
330
1F
100
AcDbEntity
  8
0
  6
Continuous
 62
     7
370
    15
100
AcDbLine
 10
206.7316898504
 20
133.0995263087
 30
0.0
 11
203.7872034775
 21
133.0995263087
 31
0.0
  0
SPLINE
  5
D3
330
1F
100
AcDbEntity
  8
0
  6
Continuous
 62
     7
370
    15
100
AcDbSpline
210
0.0
220
0.0
230
1.0
 70
     8
 71
     3
 72
    12
 73
     8
 74
     0
 42
0.000000001
 43
0.00000001
 40
0.0
 40
0.0
 40
0.0
 40
0.0
 40
0.5000000000000019
 40
0.5000000000000019
 40
0.7500000000000009
 40
0.7500000000000009
 40
1.0
 40
1.0
 40
1.0
 40
1.0
 10
207.1647025522643
 20
133.6208291980608
 30
0.0
 10
207.1339803103452
 20
133.5082733986517
 30
0.0
 10
207.0911430958101
 20
133.3955155389121
 30
0.0
 10
206.9917160716103
 20
133.2459746531158
 30
0.0
 10
206.9519638767937
 20
133.1986819214089
 30
0.0
 10
206.8539224199354
 20
133.1249456280874
 30
0.0
 10
206.794366364348
 20
133.0995263087117
 30
0.0
 10
206.7316898503721
 20
133.0995263087117
 30
0.0
  0
ELLIPSE
  5
D4
330
1F
100
AcDbEntity
  8
0
  6
Continuous
 62
     7
370
    15
100
AcDbEllipse
 10
190.9122924746
 20
123.7114598774
 30
0.0
 11
14.75368316065618
 21
31.09325491558114
 31
0.0
210
0.0
220
0.0
230
1.0
 40
0.3419987131
 41
5.193281737408632
 42
6.12404310455234
  0
SPLINE
  5
D5
330
1F
100
AcDbEntity
  8
0
  6
Continuous
 62
     7
370
    15
100
AcDbSpline
210
0.0
220
0.0
230
1.0
 70
     8
 71
     3
 72
    12
 73
     8
 74
     0
 42
0.000000001
 43
0.00000001
 40
0.0
 40
0.0
 40
0.0
 40
0.0
 40
0.2499999999999991
 40
0.2499999999999991
 40
0.4999999999999982
 40
0.4999999999999982
 40
1.0
 40
1.0
 40
1.0
 40
1.0
 10
206.7316898503721
 20
153.7799518362486
 30
0.0
 10
206.7947698888655
 20
153.7799518362486
 30
0.0
 10
206.8539185110469
 20
153.7720459100362
 30
0.0
 10
206.952391061116
 20
153.7487207485999
 30
0.0
 10
206.9914276731007
 20
153.7340079587682
 30
0.0
 10
207.0913241398797
 20
153.6860521580373
 30
0.0
 10
207.1337450209463
 20
153.6497900014572
 30
0.0
 10
207.1647025522643
 20
153.6122023374927
 30
0.0
  0
LINE
  5
D6
330
1F
100
AcDbEntity
  8
0
  6
Continuous
 62
     7
370
    15
100
AcDbLine
 10
203.7872034775
 20
153.7799518362
 30
0.0
 11
206.7316898504
 21
153.7799518362
 31
0.0
  0
SPLINE
  5
D7
330
1F
100
AcDbEntity
  8
0
  6
Continuous
 62
     7
370
    15
100
AcDbSpline
210
0.0
220
0.0
230
1.0
 70
     8
 71
     3
 72
    12
 73
     8
 74
     0
 42
0.000000001
 43
0.00000001
 40
0.0
 40
0.0
 40
0.0
 40
0.0
 40
0.5000000000000019
 40
0.5000000000000019
 40
0.7500000000000009
 40
0.7500000000000009
 40
1.0
 40
1.0
 40
1.0
 40
1.0
 10
203.3541907756128
 20
153.6122023374927
 30
0.0
 10
203.3849130175319
 20
153.6495043204458
 30
0.0
 10
203.4277502320671
 20
153.6861161524922
 30
0.0
 10
203.5271772562669
 20
153.7338809357774
 30
0.0
 10
203.5669294510835
 20
153.7488384512597
 30
0.0
 10
203.6649709079417
 20
153.7720283970289
 30
0.0
 10
203.7245269635292
 20
153.7799518362486
 30
0.0
 10
203.787203477505
 20
153.7799518362486
 30
0.0
  0
ELLIPSE
  5
D8
330
1F
100
AcDbEntity
  8
0
  6
Continuous
 62
     7
370
    15
100
AcDbEllipse
 10
219.6066008533
 20
123.7114598774
 30
0.0
 11
-14.75368316065621
 21
31.09325491558114
 31
0.0
210
0.0
220
0.0
230
1.0
 40
0.3419987131
 41
0.1591422026272898
 42
1.089903569770966
  0
LINE
  5
D9
330
1F
100
AcDbEntity
  8
0
  6
Continuous
 62
     7
370
    15
100
AcDbLine
 10
229.8634085918
 20
155.2100312736
 30
0.0
 11
230.492119676
 21
155.2100312736
 31
0.0
  0
SPLINE
  5
DA
330
1F
100
AcDbEntity
  8
0
  6
Continuous
 62
     7
370
    15
100
AcDbSpline
210
0.0
220
0.0
230
1.0
 70
     8
 71
     3
 72
    18
 73
    14
 74
     0
 42
0.000000001
 43
0.00000001
 40
0.0
 40
0.0
 40
0.0
 40
0.0
 40
0.25
 40
0.25
 40
0.5
 40
0.5
 40
0.625
 40
0.625
 40
0.75
 40
0.75
 40
0.875
 40
0.875
 40
1.0
 40
1.0
 40
1.0
 40
1.0
 10
224.0678536340779
 20
154.9372773999502
 30
0.0
 10
224.2376495015071
 20
155.0214370380617
 30
0.0
 10
224.5047777686864
 20
155.0805126275656
 30
0.0
 10
225.2360952288917
 20
155.1634163088301
 30
0.0
 10
225.6819697926549
 20
155.1852322342577
 30
0.0
 10
226.4664726428293
 20
155.2033339276239
 30
0.0
 10
226.7428803834896
 20
155.2067695868342
 30
0.0
 10
227.3177915487139
 20
155.2107878086066
 30
0.0
 10
227.6173337068824
 20
155.2113850185091
 30
0.0
 10
228.2413704649377
 20
155.2115217031408
 30
0.0
 10
228.5614141465538
 20
155.2110669233
 30
0.0
 10
229.2062432858448
 20
155.2103233482164
 30
0.0
 10
229.5327209323176
 20
155.2100312735515
 30
0.0
 10
229.8634085918124
 20
155.2100312735515
 30
0.0
  0
SPLINE
  5
DB
330
1F
100
AcDbEntity
  8
0
  6
Continuous
 62
     7
370
    15
100
AcDbSpline
210
0.0
220
0.0
230
1.0
 70
     8
 71
     3
 72
    12
 73
     8
 74
     0
 42
0.000000001
 43
0.00000001
 40
0.0
 40
0.0
 40
0.0
 40
0.0
 40
0.2500000000000006
 40
0.2500000000000006
 40
0.5000000000000011
 40
0.5000000000000011
 40
1.0
 40
1.0
 40
1.0
 40
1.0
 10
225.4937758550227
 20
92.25152673920456
 30
0.0
 10
225.3252240936405
 20
92.2605699117843
 30
0.0
 10
225.1679836820142
 20
92.27164422710435
 30
0.0
 10
224.876389807943
 20
92.2989639773548
 30
0.0
 10
224.7413452883991
 20
92.3153508571008
 30
0.0
 10
224.3805393176022
 20
92.3728009029063
 30
0.0
 10
224.1960159649903
 20
92.42211845664929
 30
0.0
 10
224.0678536340779
 20
92.48564235480075
 30
0.0
  0
ELLIPSE
  5
DC
330
1F
100
AcDbEntity
  8
0
  6
Continuous
 62
     7
370
    15
100
AcDbEllipse
 10
251.8607849721
 20
123.7114598774
 30
0.0
 11
26.80628067500373
 21
31.43673864350305
 31
0.0
210
0.0
220
0.0
230
1.0
 40
0.074436305
 41
3.204979869988365
 42
3.255422582202733
  0
LINE
  5
DD
330
1F
100
AcDbEntity
  8
0
  6
Continuous
 62
     7
370
    15
100
AcDbLine
 10
193.2594466639
 20
92.7114598774
 30
0.0
 11
193.2594466639
 21
154.7114598741
 31
0.0
  0
SPLINE
  5
DE
330
1F
100
AcDbEntity
  8
0
  6
Continuous
 62
     7
370
    15
100
AcDbSpline
210
0.0
220
0.0
230
1.0
 70
     8
 71
     3
 72
    12
 73
     8
 74
     0
 42
0.000000001
 43
0.00000001
 40
0.0
 40
0.0
 40
0.0
 40
0.0
 40
0.5
 40
0.5
 40
0.75
 40
0.75
 40
1.0
 40
1.0
 40
1.0
 40
1.0
 10
192.4429343774821
 20
101.8566661748996
 30
0.0
 10
192.4993708783893
 20
101.8552482935578
 30
0.0
 10
192.568455509078
 20
101.8536839573095
 30
0.0
 10
192.687257780796
 20
101.8507397653351
 30
0.0
 10
192.7274430562661
 20
101.8497015622377
 30
0.0
 10
192.8008241036699
 20
101.847767667023
 30
0.0
 10
192.8342336674125
 20
101.8468727797343
 30
0.0
 10
192.864469775069
 20
101.8460889894619
 30
0.0
  0
SPLINE
  5
DF
330
1F
100
AcDbEntity
  8
0
  6
Continuous
 62
     7
370
    15
100
AcDbSpline
210
0.0
220
0.0
230
1.0
 70
     8
 71
     3
 72
    16
 73
    12
 74
     0
 42
0.000000001
 43
0.00000001
 40
0.0
 40
0.0
 40
0.0
 40
0.0
 40
0.0625000000000036
 40
0.0625000000000036
 40
0.1250000000000073
 40
0.1250000000000073
 40
0.2500000000000075
 40
0.2500000000000075
 40
0.5000000000000061
 40
0.5000000000000061
 40
1.0
 40
1.0
 40
1.0
 40
1.0
 10
192.8644697750318
 20
101.8460889894862
 30
0.0
 10
192.8760501826197
 20
101.8457887983748
 30
0.0
 10
192.889359709381
 20
101.8444610501158
 30
0.0
 10
192.9186611394671
 20
101.8377623753408
 30
0.0
 10
192.9334752393514
 20
101.8324041922351
 30
0.0
 10
192.9693036410542
 20
101.8153585430678
 30
0.0
 10
192.9834232654173
 20
101.803896005292
 30
0.0
 10
193.0179274095058
 20
101.7723326799198
 30
0.0
 10
193.0290319602104
 20
101.7544353808745
 30
0.0
 10
193.0552081374266
 20
101.7042739632603
 30
0.0
 10
193.0594466639386
 20
101.6765295510637
 30
0.0
 10
193.0594466639386
 20
101.6518653891342
 30
0.0
  0
LINE
  5
E0
330
1F
100
AcDbEntity
  8
0
  6
Continuous
 62
     7
370
    15
100
AcDbLine
 10
193.0594466639
 20
116.6895725516
 30
0.0
 11
193.0594466639
 21
101.1716395985
 31
0.0
  0
SPLINE
  5
E1
330
1F
100
AcDbEntity
  8
0
  6
Continuous
 62
     7
370
    15
100
AcDbSpline
210
0.0
220
0.0
230
1.0
 70
     8
 71
     3
 72
    16
 73
    12
 74
     0
 42
0.000000001
 43
0.00000001
 40
0.0
 40
0.0
 40
0.0
 40
0.0
 40
0.4999999999999972
 40
0.4999999999999972
 40
0.7499999999999976
 40
0.7499999999999976
 40
0.8749999999999987
 40
0.8749999999999987
 40
0.9374999999999993
 40
0.9374999999999993
 40
1.0
 40
1.0
 40
1.0
 40
1.0
 10
193.0594466639386
 20
116.6895725516253
 30
0.0
 10
193.0594466639386
 20
116.8032650957532
 30
0.0
 10
193.0553003888606
 20
116.9175852571027
 30
0.0
 10
193.0293347934671
 20
117.0906335475998
 30
0.0
 10
193.0178738880897
 20
117.1498090547615
 30
0.0
 10
192.9835621503154
 20
117.2329321742297
 30
0.0
 10
192.9695374143858
 20
117.2610534903304
 30
0.0
 10
192.9335144513519
 20
117.2896693043078
 30
0.0
 10
192.9187599422623
 20
117.2954623522096
 30
0.0
 10
192.8894077811154
 20
117.2938689262726
 30
0.0
 10
192.8760679066113
 20
117.2873725229488
 30
0.0
 10
192.8644697750629
 20
117.2788567767456
 30
0.0
  0
SPLINE
  5
E2
330
1F
100
AcDbEntity
  8
0
  6
Continuous
 62
     7
370
    15
100
AcDbSpline
210
0.0
220
0.0
230
1.0
 70
     8
 71
     3
 72
    12
 73
     8
 74
     0
 42
0.000000001
 43
0.00000001
 40
0.0
 40
0.0
 40
0.0
 40
0.0
 40
0.25
 40
0.25
 40
0.5
 40
0.5
 40
1.0
 40
1.0
 40
1.0
 40
1.0
 10
192.86446977507
 20
117.2788567767365
 30
0.0
 10
192.8342713336294
 20
117.2566840446914
 30
0.0
 10
192.8009039782934
 20
117.2376043888142
 30
0.0
 10
192.7277487024635
 20
117.2124313443715
 30
0.0
 10
192.6874960034395
 20
117.2068748079547
 30
0.0
 10
192.5697672601647
 20
117.2177866189415
 30
0.0
 10
192.4993088121057
 20
117.2597223743523
 30
0.0
 10
192.4429343774875
 20
117.3089341567338
 30
0.0
  0
SPLINE
  5
E3
330
1F
100
AcDbEntity
  8
0
  6
Continuous
 62
     7
370
    15
100
AcDbSpline
210
0.0
220
0.0
230
1.0
 70
     8
 71
     3
 72
    12
 73
     8
 74
     0
 42
0.000000001
 43
0.00000001
 40
0.0
 40
0.0
 40
0.0
 40
0.0
 40
0.4999999999999984
 40
0.4999999999999984
 40
0.7499999999999992
 40
0.7499999999999992
 40
1.0
 40
1.0
 40
1.0
 40
1.0
 10
191.9381263203789
 20
118.5252855486144
 30
0.0
 10
191.9818766509647
 20
118.3048386709587
 30
0.0
 10
192.0347667703451
 20
118.0892938539204
 30
0.0
 10
192.1463780909592
 20
117.7768802028104
 30
0.0
 10
192.1889375441423
 20
117.674800429639
 30
0.0
 10
192.2939144673389
 20
117.4803607951748
 30
0.0
 10
192.3554816081738
 20
117.3852756168526
 30
0.0
 10
192.4429343774875
 20
117.3089341567339
 30
0.0
  0
SPLINE
  5
E4
330
1F
100
AcDbEntity
  8
0
  6
Continuous
 62
     7
370
    15
100
AcDbSpline
210
0.0
220
0.0
230
1.0
 70
     8
 71
     3
 72
    12
 73
     8
 74
     0
 42
0.000000001
 43
0.00000001
 40
0.0
 40
0.0
 40
0.0
 40
0.0
 40
0.2500000000000007
 40
0.2500000000000007
 40
0.5000000000000014
 40
0.5000000000000014
 40
1.0
 40
1.0
 40
1.0
 40
1.0
 10
192.4429343774874
 20
130.113985598017
 30
0.0
 10
192.3544400870699
 20
130.0367349472295
 30
0.0
 10
192.2943827279082
 20
129.9434159382363
 30
0.0
 10
192.1885353887134
 20
129.7473847808051
 30
0.0
 10
192.1460012847893
 20
129.6450573741092
 30
0.0
 10
192.0348497917353
 20
129.3337125324862
 30
0.0
 10
191.9819189526576
 20
129.1182942313503
 30
0.0
 10
191.9381263203789
 20
128.8976342061365
 30
0.0
  0
SPLINE
  5
E5
330
1F
100
AcDbEntity
  8
0
  6
Continuous
 62
     7
370
    15
100
AcDbSpline
210
0.0
220
0.0
230
1.0
 70
     8
 71
     3
 72
    12
 73
     8
 74
     0
 42
0.000000001
 43
0.00000001
 40
0.0
 40
0.0
 40
0.0
 40
0.0
 40
0.4999999999999999
 40
0.4999999999999999
 40
0.7499999999999999
 40
0.7499999999999999
 40
1.0
 40
1.0
 40
1.0
 40
1.0
 10
192.4429343774874
 20
130.113985598017
 30
0.0
 10
192.499242925783
 20
130.1631398652609
 30
0.0
 10
192.5695175865011
 20
130.2050971838646
 30
0.0
 10
192.6875555008247
 20
130.216056861397
 30
0.0
 10
192.7277317416786
 20
130.2105481031497
 30
0.0
 10
192.8016888363565
 20
130.1849908743607
 30
0.0
 10
192.834305224068
 20
130.1662108265214
 30
0.0
 10
192.8644697750638
 20
130.1440629780047
 30
0.0
  0
SPLINE
  5
E6
330
1F
100
AcDbEntity
  8
0
  6
Continuous
 62
     7
370
    15
100
AcDbSpline
210
0.0
220
0.0
230
1.0
 70
     8
 71
     3
 72
    16
 73
    12
 74
     0
 42
0.000000001
 43
0.00000001
 40
0.0
 40
0.0
 40
0.0
 40
0.0
 40
0.0624999999999997
 40
0.0624999999999997
 40
0.1249999999999994
 40
0.1249999999999994
 40
0.25
 40
0.25
 40
0.5000000000000011
 40
0.5000000000000011
 40
1.0
 40
1.0
 40
1.0
 40
1.0
 10
192.864469775032
 20
130.1440629779502
 30
0.0
 10
192.8760826748714
 20
130.1355363883549
 30
0.0
 10
192.8894338593038
 20
130.1290361268221
 30
0.0
 10
192.918833698923
 20
130.1274667297046
 30
0.0
 10
192.9336744234783
 20
130.1333501203352
 30
0.0
 10
192.9695076314468
 20
130.1618977563857
 30
0.0
 10
192.9836208392684
 20
130.1900647756915
 30
0.0
 10
193.0181122104873
 20
130.2738190341135
 30
0.0
 10
193.0291962815977
 20
130.3315324477349
 30
0.0
 10
193.0553190993937
 20
130.5051229843808
 30
0.0
 10
193.0594466639386
 20
130.6201510370227
 30
0.0
 10
193.0594466639386
 20
130.7333472031255
 30
0.0
  0
LINE
  5
E7
330
1F
100
AcDbEntity
  8
0
  6
Continuous
 62
     7
370
    15
100
AcDbLine
 10
193.0594466639
 20
146.2512801563
 30
0.0
 11
193.0594466639
 21
130.7333472031
 31
0.0
  0
SPLINE
  5
E8
330
1F
100
AcDbEntity
  8
0
  6
Continuous
 62
     7
370
    15
100
AcDbSpline
210
0.0
220
0.0
230
1.0
 70
     8
 71
     3
 72
    16
 73
    12
 74
     0
 42
0.000000001
 43
0.00000001
 40
0.0
 40
0.0
 40
0.0
 40
0.0
 40
0.500000000000002
 40
0.500000000000002
 40
0.750000000000003
 40
0.750000000000003
 40
0.8750000000000051
 40
0.8750000000000051
 40
0.9375000000000026
 40
0.9375000000000026
 40
1.0
 40
1.0
 40
1.0
 40
1.0
 10
193.0594466639386
 20
145.7710543656167
 30
0.0
 10
193.0594466639386
 20
145.7463832095738
 30
0.0
 10
193.0552809654786
 20
145.7188013781825
 30
0.0
 10
193.0290226371536
 20
145.6684585073592
 30
0.0
 10
193.0175188554161
 20
145.6501690092973
 30
0.0
 10
192.9833880960695
 20
145.6190139782603
 30
0.0
 10
192.9689662093988
 20
145.6073746030485
 30
0.0
 10
192.933399240961
 20
145.5904925771175
 30
0.0
 10
192.9184474726663
 20
145.5851034733098
 30
0.0
 10
192.8894436543066
 20
145.5784829773653
 30
0.0
 10
192.8760283002973
 20
145.5771303891589
 30
0.0
 10
192.8644697750608
 20
145.5768307652873
 30
0.0
  0
SPLINE
  5
E9
330
1F
100
AcDbEntity
  8
0
  6
Continuous
 62
     7
370
    15
100
AcDbSpline
210
0.0
220
0.0
230
1.0
 70
     8
 71
     3
 72
    12
 73
     8
 74
     0
 42
0.000000001
 43
0.00000001
 40
0.0
 40
0.0
 40
0.0
 40
0.0
 40
0.2500000000000004
 40
0.2500000000000004
 40
0.5000000000000004
 40
0.5000000000000004
 40
1.0
 40
1.0
 40
1.0
 40
1.0
 10
192.86446977507
 20
145.576830765289
 30
0.0
 10
192.8342819985204
 20
145.5760482278715
 30
0.0
 10
192.8009281944287
 20
145.5751548960529
 30
0.0
 10
192.7278019912327
 20
145.5732275872493
 30
0.0
 10
192.6875667882085
 20
145.5721880560367
 30
0.0
 10
192.5698751580755
 20
145.5692701726894
 30
0.0
 10
192.4994944849154
 20
145.5676745666192
 30
0.0
 10
192.4429343774848
 20
145.5662535798513
 30
0.0
  0
SPLINE
  5
EA
330
1F
100
AcDbEntity
  8
0
  6
Continuous
 62
     7
370
    15
100
AcDbSpline
210
0.0
220
0.0
230
1.0
 70
     8
 71
     3
 72
    16
 73
    12
 74
     0
 42
0.000000001
 43
0.00000001
 40
0.0
 40
0.0
 40
0.0
 40
0.0
 40
0.2500000000000001
 40
0.2500000000000001
 40
0.375
 40
0.375
 40
0.5
 40
0.5
 40
0.75
 40
0.75
 40
1.0
 40
1.0
 40
1.0
 40
1.0
 10
191.9381263203789
 20
128.8976342061365
 30
0.0
 10
191.7768938428945
 20
128.0852244308897
 30
0.0
 10
191.6564140032548
 20
127.245146136505
 30
0.0
 10
191.5340334859415
 20
125.9438510871422
 30
0.0
 10
191.5030558255441
 20
125.5031700515574
 30
0.0
 10
191.4614420879161
 20
124.6073304106263
 30
0.0
 10
191.4512061749833
 20
124.1606722794238
 30
0.0
 10
191.4510177779272
 20
122.8253623222839
 30
0.0
 10
191.4911624805648
 20
121.9408669489764
 30
0.0
 10
191.6553162355044
 20
120.1836170609504
 30
0.0
 10
191.7768678859139
 20
119.3378261145372
 30
0.0
 10
191.9381263203789
 20
118.5252855486144
 30
0.0
  0
LINE
  5
EB
330
1F
100
AcDbEntity
  8
0
  6
Continuous
 62
     7
370
    15
100
AcDbLine
 10
191.0594466639
 20
130.1966381391
 30
0.0
 11
191.0594466639
 21
117.2262816157
 31
0.0
  0
LINE
  5
EC
330
1F
100
AcDbEntity
  8
0
  6
Continuous
 62
     7
370
    15
100
AcDbLine
 10
156.7594466639
 20
129.7657704449
 30
0.0
 11
156.7594466639
 21
117.6571493098
 31
0.0
  0
LINE
  5
ED
330
1F
100
AcDbEntity
  8
0
  6
Continuous
 62
     7
370
    15
100
AcDbLine
 10
155.2594466639
 20
129.332757743
 30
0.0
 11
155.2594466639
 21
118.0901620117
 31
0.0
  0
LINE
  5
EE
330
1F
100
AcDbEntity
  8
0
  6
Continuous
 62
     7
370
    15
100
AcDbLine
 10
156.7594466639
 20
129.7657704449
 30
0.0
 11
156.7594466639
 21
144.8698232737
 31
0.0
  0
LINE
  5
EF
330
1F
100
AcDbEntity
  8
0
  6
Continuous
 62
     7
370
    15
100
AcDbLine
 10
156.7594466639
 20
144.8698232737
 30
0.0
 11
191.0594466639
 21
145.7315586619
 31
0.0
  0
LINE
  5
F0
330
1F
100
AcDbEntity
  8
0
  6
Continuous
 62
     7
370
    15
100
AcDbLine
 10
191.0594466639
 20
130.1966381391
 30
0.0
 11
191.0594466639
 21
145.7315586619
 31
0.0
  0
ARC
  5
F1
330
1F
100
AcDbEntity
  8
0
  6
Continuous
 62
     7
370
    15
100
AcDbCircle
 10
191.2593835749
 20
145.7365817731
 30
0.0
 40
0.2000000000000052
100
AcDbArc
 50
181.4391666667
 51
271.4391666667
  0
LINE
  5
F2
330
1F
100
AcDbEntity
  8
0
  6
Continuous
 62
     7
370
    15
100
AcDbLine
 10
191.0594466639
 20
101.6913610928
 30
0.0
 11
191.0594466639
 21
117.2262816157
 31
0.0
  0
ARC
  5
F3
330
1F
100
AcDbEntity
  8
0
  6
Continuous
 62
     7
370
    15
100
AcDbCircle
 10
191.2593835749
 20
101.6863379817
 30
0.0
 40
0.2000000000000059
100
AcDbArc
 50
88.5608333333
 51
178.5608333333
  0
LINE
  5
F4
330
1F
100
AcDbEntity
  8
0
  6
Continuous
 62
     7
370
    15
100
AcDbLine
 10
156.7594466639
 20
102.5530964811
 30
0.0
 11
156.7594466639
 21
117.6571493098
 31
0.0
  0
LINE
  5
F5
330
1F
100
AcDbEntity
  8
0
  6
Continuous
 62
     7
370
    15
100
AcDbLine
 10
156.7594466639
 20
102.5530964811
 30
0.0
 11
191.0594466639
 21
101.6913610928
 31
0.0
  0
LINE
  5
F6
330
1F
100
AcDbEntity
  8
0
  6
Continuous
 62
     7
370
    15
100
AcDbLine
 10
191.264406686
 20
145.5366448621
 30
0.0
 11
192.4429343775
 21
145.5662535799
 31
0.0
  0
LINE
  5
F7
330
1F
100
AcDbEntity
  8
0
  6
Continuous
 62
     7
370
    15
100
AcDbLine
 10
191.264406686
 20
101.8862748926
 30
0.0
 11
192.4429343775
 21
101.8566661749
 31
0.0
  0
LINE
  5
F8
330
1F
100
AcDbEntity
  8
0
  6
Continuous
 62
     7
370
    15
100
AcDbLine
 10
155.2594466639
 20
103.4191218849
 30
0.0
 11
156.7594466639
 21
102.5530964811
 31
0.0
  0
LINE
  5
F9
330
1F
100
AcDbEntity
  8
0
  6
Continuous
 62
     7
370
    15
100
AcDbLine
 10
155.2594466639
 20
103.4191218849
 30
0.0
 11
155.2594466639
 21
118.0901620117
 31
0.0
  0
LINE
  5
FA
330
1F
100
AcDbEntity
  8
0
  6
Continuous
 62
     7
370
    15
100
AcDbLine
 10
155.2594466639
 20
144.0037978699
 30
0.0
 11
156.7594466639
 21
144.8698232737
 31
0.0
  0
LINE
  5
FB
330
1F
100
AcDbEntity
  8
0
  6
Continuous
 62
     7
370
    15
100
AcDbLine
 10
155.2594466639
 20
129.332757743
 30
0.0
 11
155.2594466639
 21
144.0037978699
 31
0.0
  0
ELLIPSE
  5
FC
330
1F
100
AcDbEntity
  8
0
  6
Continuous
 62
     7
370
    15
100
AcDbEllipse
 10
229.8634085918
 20
96.8019067875
 30
0.0
 11
5.98318167428144
 21
7.152284239630632
 31
0.0
210
0.0
220
0.0
230
1.0
 40
0.0627671899
 41
1.495904874879012
 42
2.311702047472009
  0
LINE
  5
FD
330
1F
100
AcDbEntity
  8
0
  6
Continuous
 62
     7
370
    15
100
AcDbLine
 10
249.7422108602
 20
159.7282361781
 30
0.0
 11
251.5041465468
 21
160.8292157886
 31
0.0
  0
ARC
  5
FE
330
1F
100
AcDbEntity
  8
0
  6
Continuous
 62
     7
370
    15
100
AcDbCircle
 10
250.521366453
 20
158.4813265794
 30
0.0
 40
1.470328869684856
100
AcDbArc
 50
122.0
 51
302.0
  0
LINE
  5
FF
330
1F
100
AcDbEntity
  8
0
  6
Continuous
 62
     7
370
    15
100
AcDbLine
 10
251.8038399016
 20
157.5489248831
 30
0.0
 11
251.3005220458
 21
157.2344169807
 31
0.0
  0
LINE
  5
100
330
1F
100
AcDbEntity
  8
0
  6
Continuous
 62
     7
370
    15
100
AcDbLine
 10
256.0469788186
 20
128.7134909257
 30
0.0
 11
257.7508377395
 21
161.2250558933
 31
0.0
  0
SPLINE
  5
101
330
1F
100
AcDbEntity
  8
0
  6
Continuous
 62
     7
370
    15
100
AcDbSpline
210
0.0
220
0.0
230
1.0
 70
     8
 71
     3
 72
    10
 73
     6
 74
     0
 42
0.000000001
 43
0.00000001
 40
0.0
 40
0.0
 40
0.0
 40
0.0
 40
0.5
 40
0.5
 40
1.0
 40
1.0
 40
1.0
 40
1.0
 10
230.4921196759596
 20
155.2100312735515
 30
0.0
 10
230.694254981697
 20
155.2100312735515
 30
0.0
 10
230.8938544936466
 20
155.2725761880467
 30
0.0
 10
231.2242569037956
 20
155.4999786043691
 30
0.0
 10
231.3549239324366
 20
155.6663879977926
 30
0.0
 10
231.4262904541982
 20
155.8532336325419
 30
0.0
  0
LINE
  5
102
330
1F
100
AcDbEntity
  8
0
  6
Continuous
 62
     7
370
    15
100
AcDbLine
 10
235.4282400373
 20
155.8532336325
 30
0.0
 11
231.4262904542
 21
155.8532336325
 31
0.0
  0
ELLIPSE
  5
103
330
1F
100
AcDbEntity
  8
0
  6
Continuous
 62
     7
370
    15
100
AcDbEllipse
 10
235.3810691535
 20
162.8910799898
 30
0.0
 11
-3.737292057904313
 21
5.980917525375078
 31
-4.579669976578772E-16
210
-3.441094189562440E-17
220
5.506901849239229E-17
230
1.0
 40
0.9925461516
 41
2.586444043810505
 42
3.141592653589816
  0
LINE
  5
104
330
1F
100
AcDbEntity
  8
0
  6
Continuous
 62
     7
370
    15
100
AcDbLine
 10
251.7141927381
 20
164.7809115473
 30
0.0
 11
239.1183612114
 21
156.9101624645
 31
0.0
  0
LINE
  5
105
330
1F
100
AcDbEntity
  8
0
  6
Continuous
 62
     7
370
    15
100
AcDbLine
 10
229.8634085918
 20
97.7115459851
 30
0.0
 11
256.0469788186
 21
128.7134909257
 31
0.0
  0
ARC
  5
106
330
1F
100
AcDbEntity
  8
0
  6
Continuous
 62
     7
370
    15
100
AcDbCircle
 10
250.521366453
 20
158.4813265794
 30
0.0
 40
1.350000000000033
100
AcDbArc
 50
122.0
 51
302.0
  0
LINE
  5
107
330
1F
100
AcDbEntity
  8
0
  6
Continuous
 62
     7
370
    15
100
AcDbLine
 10
249.8059754463
 20
159.6261915092
 30
0.0
 11
251.4964586865
 21
160.6825226759
 31
0.0
  0
LINE
  5
108
330
1F
100
AcDbEntity
  8
0
  6
Continuous
 62
     7
370
    15
100
AcDbLine
 10
251.2367574597
 20
157.3364616496
 30
0.0
 11
251.6127080593
 21
157.5713816571
 31
0.0
  0
SPLINE
  5
109
330
1F
100
AcDbEntity
  8
0
  6
Continuous
 62
     7
370
     0
100
AcDbSpline
210
0.0
220
0.0
230
1.0
 70
     8
 71
     3
 72
     9
 73
     5
 74
     0
 42
0.000000001
 43
0.00000001
 40
0.0
 40
0.0
 40
0.0
 40
0.0
 40
0.4786014440788696
 40
1.0
 40
1.0
 40
1.0
 40
1.0
 10
254.384987273384
 20
159.2628186521384
 30
0.0
 10
254.1499334056662
 20
159.1397303614114
 30
0.0
 10
253.6588068730871
 20
158.8825470782228
 30
0.0
 10
253.1230843778648
 20
158.8227723557003
 30
0.0
 10
252.8437594424815
 20
158.7916059016965
 30
0.0
  0
LINE
  5
10A
330
1F
100
AcDbEntity
  8
0
  6
Continuous
 62
     7
370
     0
100
AcDbLine
 10
256.973176188
 20
160.8800985818
 30
0.0
 11
254.3849872734
 21
159.2628186521
 31
0.0
  0
SPLINE
  5
10B
330
1F
100
AcDbEntity
  8
0
  6
Continuous
 62
     7
370
     0
100
AcDbSpline
210
0.0
220
0.0
230
1.0
 70
     8
 71
     3
 72
    11
 73
     7
 74
     0
 42
0.000000001
 43
0.00000001
 40
0.0
 40
0.0
 40
0.0
 40
0.0
 40
0.2464649890304159
 40
0.4942179115554817
 40
0.7463015345659305
 40
1.0
 40
1.0
 40
1.0
 40
1.0
 10
257.5889303752431
 20
161.392772123264
 30
0.0
 10
257.5435738800589
 20
161.3453237759613
 30
0.0
 10
257.4526238736761
 20
161.250179134108
 30
0.0
 10
257.3031471804128
 20
161.1173510745167
 30
0.0
 10
257.1442288891865
 20
160.9918511276534
 30
0.0
 10
257.0303149884126
 20
160.9174286348931
 30
0.0
 10
256.9731761879722
 20
160.880098581816
 30
0.0
  0
LINE
  5
10C
330
1F
100
AcDbEntity
  8
0
  6
Continuous
 62
     7
370
     0
100
AcDbLine
 10
257.5889303752
 20
161.3927721233
 30
0.0
 11
257.7007284042
 21
161.2138578773
 31
0.0
  0
SPLINE
  5
10D
330
1F
100
AcDbEntity
  8
0
  6
Continuous
 62
     7
370
     0
100
AcDbSpline
210
0.0
220
0.0
230
1.0
 70
     8
 71
     3
 72
     9
 73
     5
 74
     0
 42
0.000000001
 43
0.00000001
 40
0.0
 40
0.0
 40
0.0
 40
0.0
 40
0.496156006995262
 40
1.0
 40
1.0
 40
1.0
 40
1.0
 10
256.6022327030089
 20
161.4737322491255
 30
0.0
 10
256.679112500854
 20
161.52409508254
 30
0.0
 10
256.8340633565551
 20
161.6256011264142
 30
0.0
 10
256.9729188252483
 20
161.7448964587148
 30
0.0
 10
257.0428803190453
 20
161.805002695288
 30
0.0
  0
SPLINE
  5
10E
330
1F
100
AcDbEntity
  8
0
  6
Continuous
 62
     7
370
     0
100
AcDbSpline
210
0.0
220
0.0
230
1.0
 70
    24
 71
     3
 72
    10
 73
     6
 74
     0
 42
0.000000001
 43
0.00000001
 40
0.0
 40
0.0
 40
0.0
 40
0.0
 40
0.276530601933029
 40
0.5626682704062609
 40
1.0
 40
1.0
 40
1.0
 40
1.0
 10
256.6022327030089
 20
161.4737322491255
 30
0.0
 10
256.6346085209963
 20
161.4219201096944
 30
0.0
 10
256.70048493895
 20
161.3164958033935
 30
0.0
 10
256.8328439010979
 20
161.1046771860404
 30
0.0
 10
256.9203060104077
 20
160.9647085525292
 30
0.0
 10
256.9731761879722
 20
160.880098581816
 30
0.0
  0
SPLINE
  5
10F
330
1F
100
AcDbEntity
  8
0
  6
Continuous
 62
     7
370
     0
100
AcDbSpline
210
0.0
220
0.0
230
1.0
 70
     8
 71
     3
 72
    15
 73
    11
 74
     0
 42
0.000000001
 43
0.00000001
 40
0.0
 40
0.0
 40
0.0
 40
0.0
 40
0.1179757660687581
 40
0.2366542416881447
 40
0.3574243076617937
 40
0.4788571684765731
 40
0.6077248094665554
 40
0.7372164666894555
 40
0.8683764242453456
 40
1.0
 40
1.0
 40
1.0
 40
1.0
 10
255.2225432540613
 20
166.9850658674976
 30
0.0
 10
255.2782752223882
 20
167.0184053016052
 30
0.0
 10
255.3900711203229
 20
167.0852827524577
 30
0.0
 10
255.5667378199145
 20
167.1715552463689
 30
0.0
 10
255.7494815244412
 20
167.2473021823925
 30
0.0
 10
255.9413353037807
 20
167.3123945253173
 30
0.0
 10
256.1404618351855
 20
167.3662661279606
 30
0.0
 10
256.3464255775681
 20
167.4083942692426
 30
0.0
 10
256.5546467494581
 20
167.4393461218943
 30
0.0
 10
256.6939810325435
 20
167.45062781798
 30
0.0
 10
256.7637710849637
 20
167.4562786179395
 30
0.0
  0
LINE
  5
110
330
1F
100
AcDbEntity
  8
0
  6
Continuous
 62
     7
370
     0
100
AcDbLine
 10
252.6343543395
 20
165.3677859378
 30
0.0
 11
255.2225432541
 21
166.9850658675
 31
0.0
  0
SPLINE
  5
111
330
1F
100
AcDbEntity
  8
0
  6
Continuous
 62
     7
370
     0
100
AcDbSpline
210
0.0
220
0.0
230
1.0
 70
     8
 71
     3
 72
     9
 73
     5
 74
     0
 42
0.000000001
 43
0.00000001
 40
0.0
 40
0.0
 40
0.0
 40
0.0
 40
0.4942531065474178
 40
1.0
 40
1.0
 40
1.0
 40
1.0
 10
252.0186001522021
 20
164.855112396372
 30
0.0
 10
252.1110549069488
 20
164.9494285367406
 30
0.0
 10
252.2981144388403
 20
165.1402541261383
 30
0.0
 10
252.5214188348811
 20
165.291363062621
 30
0.0
 10
252.6343543394731
 20
165.36778593782
 30
0.0
  0
LINE
  5
112
330
1F
100
AcDbEntity
  8
0
  6
Continuous
 62
     7
370
     0
100
AcDbLine
 10
252.0186001522
 20
164.8551123964
 30
0.0
 11
251.9068021234
 21
165.0340266421
 31
0.0
  0
SPLINE
  5
113
330
1F
100
AcDbEntity
  8
0
  6
Continuous
 62
     7
370
     0
100
AcDbSpline
210
0.0
220
0.0
230
1.0
 70
     8
 71
     3
 72
     9
 73
     5
 74
     0
 42
0.000000001
 43
0.00000001
 40
0.0
 40
0.0
 40
0.0
 40
0.0
 40
0.4961560069953092
 40
1.0
 40
1.0
 40
1.0
 40
1.0
 10
253.0052978244363
 20
164.7741522705105
 30
0.0
 10
252.9284180265911
 20
164.7237894370959
 30
0.0
 10
252.7734671708901
 20
164.6222833932218
 30
0.0
 10
252.6346117021969
 20
164.5029880609212
 30
0.0
 10
252.5646502083999
 20
164.442881824348
 30
0.0
  0
SPLINE
  5
114
330
1F
100
AcDbEntity
  8
0
  6
Continuous
 62
     7
370
     0
100
AcDbSpline
210
0.0
220
0.0
230
1.0
 70
    24
 71
     3
 72
    10
 73
     6
 74
     0
 42
0.000000001
 43
0.00000001
 40
0.0
 40
0.0
 40
0.0
 40
0.0
 40
0.2765306019329852
 40
0.5626682704062097
 40
1.0
 40
1.0
 40
1.0
 40
1.0
 10
253.0052978244363
 20
164.7741522705105
 30
0.0
 10
252.9729220064489
 20
164.8259644099416
 30
0.0
 10
252.9070455884952
 20
164.9313887162424
 30
0.0
 10
252.7746866263474
 20
165.1432073335956
 30
0.0
 10
252.6872245170376
 20
165.2831759671068
 30
0.0
 10
252.6343543394731
 20
165.36778593782
 30
0.0
  0
LINE
  5
115
330
1F
100
AcDbEntity
  8
0
  6
Continuous
 62
     7
370
     0
100
AcDbLine
 10
257.6681556216
 20
161.5272699021
 30
0.0
 11
257.878838307
 21
161.5162284905
 31
0.0
  0
SPLINE
  5
116
330
1F
100
AcDbEntity
  8
0
  6
Continuous
 62
     7
370
     0
100
AcDbSpline
210
0.0
220
0.0
230
1.0
 70
     8
 71
     3
 72
    11
 73
     7
 74
     0
 42
0.000000001
 43
0.00000001
 40
0.0
 40
0.0
 40
0.0
 40
0.0
 40
0.2462280334913534
 40
0.4939813092515721
 40
0.7462729988775316
 40
1.0
 40
1.0
 40
1.0
 40
1.0
 10
257.818026450587
 20
162.31436971401
 30
0.0
 10
257.8132625178492
 20
162.2483004992073
 30
0.0
 10
257.8037051425269
 20
162.1157528084885
 30
0.0
 10
257.7718441999301
 20
161.9177480346291
 30
0.0
 10
257.7282039292839
 20
161.7205068886507
 30
0.0
 10
257.6882095385829
 20
161.5918039187361
 30
0.0
 10
257.6681556216035
 20
161.5272699021295
 30
0.0
  0
LINE
  5
117
330
1F
100
AcDbEntity
  8
0
  6
Continuous
 62
     7
370
     0
100
AcDbLine
 10
257.9777524642
 20
165.362123613
 30
0.0
 11
257.8180264506
 21
162.314369714
 31
0.0
  0
SPLINE
  5
118
330
1F
100
AcDbEntity
  8
0
  6
Continuous
 62
     7
370
     0
100
AcDbSpline
210
0.0
220
0.0
230
1.0
 70
     8
 71
     3
 72
    11
 73
     7
 74
     0
 42
0.000000001
 43
0.00000001
 40
0.0
 40
0.0
 40
0.0
 40
0.0
 40
0.2586137574851948
 40
0.5211921383154017
 40
0.7579426054341539
 40
1.0
 40
1.0
 40
1.0
 40
1.0
 10
257.6426823426157
 20
166.9385603217436
 30
0.0
 10
257.6979027484626
 20
166.8122341214292
 30
0.0
 10
257.8091901048734
 20
166.5576451037859
 30
0.0
 10
257.9186079639545
 20
166.1609734785806
 30
0.0
 10
257.9827459779707
 20
165.7592790915012
 30
0.0
 10
257.9794292227068
 20
165.4954833769127
 30
0.0
 10
257.9777524642367
 20
165.3621236130477
 30
0.0
  0
SPLINE
  5
119
330
1F
100
AcDbEntity
  8
0
  6
Continuous
 62
     7
370
     0
100
AcDbSpline
210
0.0
220
0.0
230
1.0
 70
     8
 71
     3
 72
     9
 73
     5
 74
     0
 42
0.000000001
 43
0.00000001
 40
0.0
 40
0.0
 40
0.0
 40
0.0
 40
0.4963503755535442
 40
1.0
 40
1.0
 40
1.0
 40
1.0
 10
257.0428803190453
 20
161.805002695288
 30
0.0
 10
257.0612828254192
 20
161.8939750119343
 30
0.0
 10
257.0983584624695
 20
162.0732280578237
 30
0.0
 10
257.1120766275619
 20
162.2579631324317
 30
0.0
 10
257.1189857762587
 20
162.3510048833802
 30
0.0
  0
SPLINE
  5
11A
330
1F
100
AcDbEntity
  8
0
  6
Continuous
 62
     7
370
     0
100
AcDbSpline
210
0.0
220
0.0
230
1.0
 70
    24
 71
     3
 72
    10
 73
     6
 74
     0
 42
0.000000001
 43
0.00000001
 40
0.0
 40
0.0
 40
0.0
 40
0.0
 40
0.276530601932981
 40
0.562668270406219
 40
1.0
 40
1.0
 40
1.0
 40
1.0
 10
257.818026450587
 20
162.31436971401
 30
0.0
 10
257.7570144243479
 20
162.3175672188148
 30
0.0
 10
257.6328707272743
 20
162.3240733142904
 30
0.0
 10
257.3834410920231
 20
162.3371453675613
 30
0.0
 10
257.2186192947724
 20
162.3457833119327
 30
0.0
 10
257.1189857762587
 20
162.3510048833802
 30
0.0
  0
LINE
  5
11B
330
1F
100
AcDbEntity
  8
0
  6
Continuous
 62
     7
370
     0
100
AcDbLine
 10
251.7895040769
 20
163.9335148056
 30
0.0
 11
251.9393749058
 21
164.7206146175
 31
0.0
  0
SPLINE
  5
11C
330
1F
100
AcDbEntity
  8
0
  6
Continuous
 62
     7
370
     0
100
AcDbSpline
210
0.0
220
0.0
230
1.0
 70
     8
 71
     3
 72
     9
 73
     5
 74
     0
 42
0.000000001
 43
0.00000001
 40
0.0
 40
0.0
 40
0.0
 40
0.0
 40
0.4963503755535391
 40
1.0
 40
1.0
 40
1.0
 40
1.0
 10
252.5646502083999
 20
164.4428818243481
 30
0.0
 10
252.5462477020261
 20
164.3539095077017
 30
0.0
 10
252.5091720649756
 20
164.1746564618123
 30
0.0
 10
252.4954538998833
 20
163.9899213872042
 30
0.0
 10
252.4885447511865
 20
163.8968796362558
 30
0.0
  0
SPLINE
  5
11D
330
1F
100
AcDbEntity
  8
0
  6
Continuous
 62
     7
370
     0
100
AcDbSpline
210
0.0
220
0.0
230
1.0
 70
    24
 71
     3
 72
    10
 73
     6
 74
     0
 42
0.000000001
 43
0.00000001
 40
0.0
 40
0.0
 40
0.0
 40
0.0
 40
0.2765306019330105
 40
0.5626682704062416
 40
1.0
 40
1.0
 40
1.0
 40
1.0
 10
251.7895040768583
 20
163.9335148056259
 30
0.0
 10
251.8505161030974
 20
163.9303173008211
 30
0.0
 10
251.974659800171
 20
163.9238112053455
 30
0.0
 10
252.2240894354221
 20
163.9107391520746
 30
0.0
 10
252.3889112326728
 20
163.9021012077032
 30
0.0
 10
252.4885447511865
 20
163.8968796362558
 30
0.0
  0
LINE
  5
11E
330
1F
100
AcDbEntity
  8
0
  6
Continuous
 62
     7
370
     0
100
AcDbLine
 10
251.9393749058
 20
164.7206146175
 30
0.0
 11
251.7286922205
 21
164.7316560292
 31
0.0
  0
LINE
  5
11F
330
1F
100
AcDbEntity
  8
0
  6
Continuous
 62
     7
370
     0
100
AcDbLine
 10
251.6297780632
 20
160.8857609066
 30
0.0
 11
251.7895040769
 21
163.9335148056
 31
0.0
  0
SPLINE
  5
120
330
1F
100
AcDbEntity
  8
0
  6
Continuous
 62
     7
370
     0
100
AcDbSpline
210
0.0
220
0.0
230
1.0
 70
     8
 71
     3
 72
    11
 73
     7
 74
     0
 42
0.000000001
 43
0.00000001
 40
0.0
 40
0.0
 40
0.0
 40
0.0
 40
0.2586137574851891
 40
0.5211921383154229
 40
0.7579426054341982
 40
0.9999999999999999
 40
0.9999999999999999
 40
0.9999999999999999
 40
0.9999999999999999
 10
251.9648481848295
 20
159.3093241978923
 30
0.0
 10
251.9096277789827
 20
159.4356503982068
 30
0.0
 10
251.798340422572
 20
159.6902394158502
 30
0.0
 10
251.6889225634908
 20
160.0869110410555
 30
0.0
 10
251.6247845494745
 20
160.4886054281349
 30
0.0
 10
251.6281013047384
 20
160.7524011427234
 30
0.0
 10
251.6297780632085
 20
160.8857609065883
 30
0.0
  0
LINE
  5
121
330
1F
100
AcDbEntity
  8
0
  6
Continuous
 62
     7
370
     0
100
AcDbLine
 10
251.6297780632
 20
160.8857609066
 30
0.0
 11
252.3288187375
 21
160.8491257372
 31
0.0
  0
SPLINE
  5
122
330
1F
100
AcDbEntity
  8
0
  6
Continuous
 62
     7
370
     0
100
AcDbSpline
210
0.0
220
0.0
230
1.0
 70
     8
 71
     3
 72
    11
 73
     7
 74
     0
 42
0.000000001
 43
0.00000001
 40
0.0
 40
0.0
 40
0.0
 40
0.0
 40
0.22783485172793
 40
0.4598960591652803
 40
0.7279384164918375
 40
0.9999999999999999
 40
0.9999999999999999
 40
0.9999999999999999
 40
0.9999999999999999
 10
252.3288187375367
 20
160.8491257372182
 30
0.0
 10
252.326250513396
 20
160.7482231430068
 30
0.0
 10
252.3210664243403
 20
160.5445462029537
 30
0.0
 10
252.3519264108315
 20
160.2265703140989
 30
0.0
 10
252.4144459683189
 20
159.8983752328709
 30
0.0
 10
252.4867583124806
 20
159.681257937128
 30
0.0
 10
252.5231835435749
 20
159.5718914414946
 30
0.0
  0
SPLINE
  5
123
330
1F
100
AcDbEntity
  8
0
  6
Continuous
 62
     7
370
     0
100
AcDbSpline
210
0.0
220
0.0
230
1.0
 70
     8
 71
     3
 72
    15
 73
    11
 74
     0
 42
0.000000001
 43
0.00000001
 40
0.0
 40
0.0
 40
0.0
 40
0.0
 40
0.0669508354801548
 40
0.2010690565670072
 40
0.3360460860314383
 40
0.4719723002095295
 40
0.5401258667985612
 40
0.7109322546988684
 40
0.8258853757801857
 40
1.0
 40
1.0
 40
1.0
 40
1.0
 10
256.8048109525033
 20
166.8406523843281
 30
0.0
 10
256.7769206281484
 20
166.8360190243875
 30
0.0
 10
256.6931594448088
 20
166.8221039581257
 30
0.0
 10
256.5533894125003
 20
166.7926952223148
 30
0.0
 10
256.3857057722814
 20
166.7486956744334
 30
0.0
 10
256.2463923135981
 20
166.703830791834
 30
0.0
 10
256.0937026198814
 20
166.6475151283898
 30
0.0
 10
255.9512635092454
 20
166.5865780022379
 30
0.0
 10
255.7696458353512
 20
166.4966381273256
 30
0.0
 10
255.659706605924
 20
166.430980101133
 30
0.0
 10
255.5934867390246
 20
166.3914322001881
 30
0.0
  0
LINE
  5
124
330
1F
100
AcDbEntity
  8
0
  6
Continuous
 62
     7
370
     0
100
AcDbLine
 10
255.593486739
 20
166.3914322002
 30
0.0
 11
255.2225432541
 21
166.9850658675
 31
0.0
  0
LINE
  5
125
330
1F
100
AcDbEntity
  8
0
  6
Continuous
 62
     7
370
     0
100
AcDbLine
 10
257.9777524642
 20
165.362123613
 30
0.0
 11
257.2787117899
 21
165.3987587824
 31
0.0
  0
SPLINE
  5
126
330
1F
100
AcDbEntity
  8
0
  6
Continuous
 62
     7
370
     0
100
AcDbSpline
210
0.0
220
0.0
230
1.0
 70
     8
 71
     3
 72
    11
 73
     7
 74
     0
 42
0.000000001
 43
0.00000001
 40
0.0
 40
0.0
 40
0.0
 40
0.0
 40
0.2278348517278956
 40
0.4598960591652174
 40
0.7279384164917633
 40
1.0
 40
1.0
 40
1.0
 40
1.0
 10
257.2787117899086
 20
165.3987587824178
 30
0.0
 10
257.2812800140493
 20
165.4996613766292
 30
0.0
 10
257.2864641031049
 20
165.7033383166823
 30
0.0
 10
257.2556041166136
 20
166.0213142055371
 30
0.0
 10
257.1930845591266
 20
166.3495092867651
 30
0.0
 10
257.1207722149646
 20
166.5666265825081
 30
0.0
 10
257.0843469838703
 20
166.6759930781414
 30
0.0
  0
SPLINE
  5
127
330
1F
100
AcDbEntity
  8
0
  6
Continuous
 62
     7
370
     0
100
AcDbSpline
210
0.0
220
0.0
230
1.0
 70
     8
 71
     3
 72
    11
 73
     7
 74
     0
 42
0.000000001
 43
0.00000001
 40
0.0
 40
0.0
 40
0.0
 40
0.0
 40
0.2682640541652476
 40
0.5401038416738919
 40
0.7680640022137817
 40
1.0
 40
1.0
 40
1.0
 40
1.0
 10
252.802719574942
 20
159.4072321353079
 30
0.0
 10
252.9144481856562
 20
159.4280606401221
 30
0.0
 10
253.1393946551317
 20
159.4699952761338
 30
0.0
 10
253.4551326676678
 20
159.5736291114508
 30
0.0
 10
253.7497660646253
 20
159.701194339564
 30
0.0
 10
253.9254449613503
 20
159.8044022460876
 30
0.0
 10
254.0140437884207
 20
159.8564523194478
 30
0.0
  0
LINE
  5
128
330
1F
100
AcDbEntity
  8
0
  6
Continuous
 62
     7
370
     0
100
AcDbLine
 10
254.0140437884
 20
159.8564523194
 30
0.0
 11
254.3849872734
 21
159.2628186521
 31
0.0
  0
LINE
  5
129
330
1F
100
AcDbEntity
  8
0
  6
Continuous
 62
     7
370
     0
100
AcDbLine
 10
254.0140437884
 20
159.8564523194
 30
0.0
 11
253.9597270638
 21
159.9433772493
 31
0.0
  0
LINE
  5
12A
330
1F
100
AcDbEntity
  8
0
  6
Continuous
 62
     7
370
     0
100
AcDbLine
 10
252.3288187375
 20
160.8491257372
 30
0.0
 11
252.4311782648
 21
160.8437613017
 31
0.0
  0
LINE
  5
12B
330
1F
100
AcDbEntity
  8
0
  6
Continuous
 62
     7
370
     0
100
AcDbLine
 10
257.2787117899
 20
165.3987587824
 30
0.0
 11
257.1763522629
 21
165.4041232179
 31
0.0
  0
LINE
  5
12C
330
1F
100
AcDbEntity
  8
0
  6
Continuous
 62
     7
370
     0
100
AcDbLine
 10
255.593486739
 20
166.3914322002
 30
0.0
 11
255.6478034636
 21
166.3045072703
 31
0.0
  0
LINE
  5
12D
330
1F
100
AcDbEntity
  8
0
  6
Continuous
 62
     7
370
     0
100
AcDbLine
 10
257.1189857763
 20
162.3510048834
 30
0.0
 11
257.0166262489
 21
162.3563693189
 31
0.0
  0
LINE
  5
12E
330
1F
100
AcDbEntity
  8
0
  6
Continuous
 62
     7
370
     0
100
AcDbLine
 10
256.602232703
 20
161.4737322491
 30
0.0
 11
256.5479159784
 21
161.560657179
 31
0.0
  0
LINE
  5
12F
330
1F
100
AcDbEntity
  8
0
  6
Continuous
 62
     7
370
     0
100
AcDbLine
 10
252.4885447512
 20
163.8968796363
 30
0.0
 11
252.5909042785
 21
163.8915152007
 31
0.0
  0
LINE
  5
130
330
1F
100
AcDbEntity
  8
0
  6
Continuous
 62
     7
370
     0
100
AcDbLine
 10
253.0052978244
 20
164.7741522705
 30
0.0
 11
253.059614549
 21
164.6872273407
 31
0.0
  0
LINE
  5
131
330
1F
100
AcDbEntity
  8
0
  6
Continuous
 62
     7
370
     0
100
AcDbLine
 10
254.0140437884
 20
159.8564523194
 30
0.0
 11
256.602232703
 21
161.4737322491
 31
0.0
  0
LINE
  5
132
330
1F
100
AcDbEntity
  8
0
  6
Continuous
 62
     7
370
     0
100
AcDbLine
 10
252.4885447512
 20
163.8968796363
 30
0.0
 11
252.3288187375
 21
160.8491257372
 31
0.0
  0
LINE
  5
133
330
1F
100
AcDbEntity
  8
0
  6
Continuous
 62
     7
370
     0
100
AcDbLine
 10
255.593486739
 20
166.3914322002
 30
0.0
 11
253.0052978244
 21
164.7741522705
 31
0.0
  0
LINE
  5
134
330
1F
100
AcDbEntity
  8
0
  6
Continuous
 62
     7
370
     0
100
AcDbLine
 10
257.1189857763
 20
162.3510048834
 30
0.0
 11
257.2787117899
 21
165.3987587824
 31
0.0
  0
CIRCLE
  5
135
330
1F
100
AcDbEntity
  8
0
  6
Continuous
 62
     7
370
     0
100
AcDbCircle
 10
254.8037652637
 20
163.1239422598
 30
0.0
 40
1.859374999999976
  0
LINE
  5
136
330
1F
100
AcDbEntity
  8
0
  6
Continuous
 62
     7
370
     0
100
AcDbLine
 10
224.0678536341
 20
92.4856423548
 30
0.0
 11
224.0678536341
 21
154.9372774
 31
0.0
  0
LINE
  5
137
330
1F
100
AcDbEntity
  8
0
  6
Continuous
 62
     7
370
     0
100
AcDbLine
 10
193.7594466639
 20
92.2114598774
 30
0.0
 11
193.7594466639
 21
155.2114598774
 31
0.0
  0
LINE
  5
138
330
1F
100
AcDbEntity
  8
0
  6
Continuous
 62
     7
370
     0
100
AcDbLine
 10
203.3541907756
 20
113.8020905567
 30
0.0
 11
203.3541907756
 21
93.8107174173
 31
0.0
  0
LINE
  5
139
330
1F
100
AcDbEntity
  8
0
  6
Continuous
 62
     7
370
     0
100
AcDbLine
 10
203.7872034775
 20
114.323393446
 30
0.0
 11
203.7872034775
 21
93.6429679185
 31
0.0
  0
LINE
  5
13A
330
1F
100
AcDbEntity
  8
0
  6
Continuous
 62
     7
370
     0
100
AcDbLine
 10
203.7872034775
 20
153.7799518362
 30
0.0
 11
203.7872034775
 21
133.0995263087
 31
0.0
  0
LINE
  5
13B
330
1F
100
AcDbEntity
  8
0
  6
Continuous
 62
     7
370
     0
100
AcDbLine
 10
203.3541907756
 20
153.6122023375
 30
0.0
 11
203.3541907756
 21
133.6208291981
 31
0.0
  0
LINE
  5
13C
330
1F
100
AcDbEntity
  8
0
  6
Continuous
 62
     7
370
     0
100
AcDbLine
 10
206.7316898504
 20
114.323393446
 30
0.0
 11
206.7316898504
 21
93.6429679185
 31
0.0
  0
LINE
  5
13D
330
1F
100
AcDbEntity
  8
0
  6
Continuous
 62
     7
370
     0
100
AcDbLine
 10
207.1647025523
 20
113.8020905567
 30
0.0
 11
207.1647025523
 21
93.8107174173
 31
0.0
  0
LINE
  5
13E
330
1F
100
AcDbEntity
  8
0
  6
Continuous
 62
     7
370
     0
100
AcDbLine
 10
207.1647025523
 20
153.6122023375
 30
0.0
 11
207.1647025523
 21
133.6208291981
 31
0.0
  0
LINE
  5
13F
330
1F
100
AcDbEntity
  8
0
  6
Continuous
 62
     7
370
     0
100
AcDbLine
 10
206.7316898504
 20
153.7799518362
 30
0.0
 11
206.7316898504
 21
133.0995263087
 31
0.0
  0
LINE
  5
140
330
1F
100
AcDbEntity
  8
0
  6
Continuous
 62
     7
370
     0
100
AcDbLine
 10
191.9381263204
 20
118.5252855486
 30
0.0
 11
191.9381263204
 21
128.8976342061
 31
0.0
  0
LINE
  5
141
330
1F
100
AcDbEntity
  8
0
  6
Continuous
 62
     7
370
     0
100
AcDbLine
 10
191.264406686
 20
117.3237385156
 30
0.0
 11
192.4429343775
 21
117.3089341567
 31
0.0
  0
LINE
  5
142
330
1F
100
AcDbEntity
  8
0
  6
Continuous
 62
     7
370
     0
100
AcDbLine
 10
191.264406686
 20
130.0991812392
 30
0.0
 11
191.264406686
 21
117.3237385156
 31
0.0
  0
LINE
  5
143
330
1F
100
AcDbEntity
  8
0
  6
Continuous
 62
     7
370
     0
100
AcDbLine
 10
191.264406686
 20
130.0991812392
 30
0.0
 11
192.4429343775
 21
130.113985598
 31
0.0
  0
LINE
  5
144
330
1F
100
AcDbEntity
  8
0
  6
Continuous
 62
     7
370
     0
100
AcDbLine
 10
156.7594466639
 20
117.6571493098
 30
0.0
 11
191.0594466639
 21
117.2262816157
 31
0.0
  0
LINE
  5
145
330
1F
100
AcDbEntity
  8
0
  6
Continuous
 62
     7
370
     0
100
AcDbLine
 10
156.7594466639
 20
129.7657704449
 30
0.0
 11
191.0594466639
 21
130.1966381391
 31
0.0
  0
LWPOLYLINE
  5
146
330
1F
100
AcDbEntity
  8
0
  6
Continuous
 62
     7
370
     0
100
AcDbPolyline
 90
        9
 70
   128
 43
0.0
 10
191.0594466639
 20
117.2262816157
 10
191.064268356
 20
117.245736235
 10
191.0765882165
 20
117.2643467066
 10
191.0959328001
 20
117.2813978404
 10
191.1215587053
 20
117.2962343709
 10
191.1524811429
 20
117.3082861385
 10
191.1875117811
 20
117.3170900007
 10
191.225304412
 20
117.3223076299
 10
191.264406686
 20
117.3237385156
  0
LWPOLYLINE
  5
147
330
1F
100
AcDbEntity
  8
0
  6
Continuous
 62
     7
370
     0
100
AcDbPolyline
 90
        9
 70
   128
 43
0.0
 10
191.0594466639
 20
130.1966381391
 10
191.064268356
 20
130.1771835197
 10
191.0765882165
 20
130.1585730482
 10
191.0959328001
 20
130.1415219144
 10
191.1215587053
 20
130.1266853839
 10
191.1524811429
 20
130.1146336162
 10
191.1875117811
 20
130.105829754
 10
191.225304412
 20
130.1006121248
 10
191.264406686
 20
130.0991812392
  0
LINE
  5
148
330
1F
100
AcDbEntity
  8
0
  6
Continuous
 62
     7
370
     0
100
AcDbLine
 10
155.2594466639
 20
118.0901620117
 30
0.0
 11
156.7594466639
 21
117.6571493098
 31
0.0
  0
LINE
  5
149
330
1F
100
AcDbEntity
  8
0
  6
Continuous
 62
     7
370
     0
100
AcDbLine
 10
155.2594466639
 20
129.332757743
 30
0.0
 11
156.7594466639
 21
129.7657704449
 31
0.0
  0
LINE
  5
14A
330
1F
100
AcDbEntity
  8
0
  6
Continuous
 62
     7
370
     0
100
AcDbLine
 10
191.264406686
 20
130.0991812392
 30
0.0
 11
191.264406686
 21
145.5366448621
 31
0.0
  0
LINE
  5
14B
330
1F
100
AcDbEntity
  8
0
  6
Continuous
 62
     7
370
     0
100
AcDbLine
 10
191.264406686
 20
101.8862748926
 30
0.0
 11
191.264406686
 21
117.3237385156
 31
0.0
  0
LINE
  5
14C
330
1F
100
AcDbEntity
  8
0
  6
Continuous
 62
     7
370
     0
100
AcDbLine
 10
192.8644697751
 20
101.8460889895
 30
0.0
 11
192.8644697751
 21
117.2788567767
 31
0.0
  0
LINE
  5
14D
330
1F
100
AcDbEntity
  8
0
  6
Continuous
 62
     7
370
     0
100
AcDbLine
 10
192.8644697751
 20
130.144062978
 30
0.0
 11
192.8644697751
 21
145.5768307653
 31
0.0
  0
LINE
  5
14E
330
1F
100
AcDbEntity
  8
0
  6
Continuous
 62
     7
370
     0
100
AcDbLine
 10
229.8634085918
 20
97.7115459851
 30
0.0
 11
229.8634085918
 21
155.2100312736
 31
0.0
  0
LINE
  5
14F
330
1F
100
AcDbEntity
  8
0
  6
Continuous
 62
     7
370
     0
100
AcDbLine
 10
249.8059754463
 20
159.6261915092
 30
0.0
 11
249.7422108602
 21
159.7282361781
 31
0.0
  0
LINE
  5
150
330
1F
100
AcDbEntity
  8
0
  6
Continuous
 62
     7
370
     0
100
AcDbLine
 10
251.2367574597
 20
157.3364616496
 30
0.0
 11
251.3005220458
 21
157.2344169807
 31
0.0
  0
ARC
  5
151
330
1F
100
AcDbEntity
  8
0
  6
HIDDEN
 62
     7
370
     0
100
AcDbCircle
 10
211.659758879
 20
141.7122100514
 30
0.0
 40
2.413460452497901
100
AcDbArc
 50
188.5652861354
 51
242.3224233167
  0
ARC
  5
152
330
1F
100
AcDbEntity
  8
0
  6
HIDDEN
 62
     7
370
     0
100
AcDbCircle
 10
212.2373046987
 20
142.2550478532
 30
0.0
 40
3.173065565601974
100
AcDbArc
 50
237.6347716305
 51
339.5798781257
  0
LWPOLYLINE
  5
153
330
1F
100
AcDbEntity
  8
0
  6
HIDDEN
 62
     7
370
     0
100
AcDbPolyline
 90
       29
 70
   128
 43
0.0
 10
210.5387173549
 20
139.2594416155
 10
210.0350241974
 20
139.6235644052
 10
209.6428728707
 20
140.0703702985
 10
209.38192748
 20
140.5774545821
 10
209.2652729165
 20
141.1193899327
 10
209.2987587274
 20
141.6690014489
 10
209.4807057941
 20
142.1987293142
 10
209.8019905311
 20
142.6820107616
 10
210.24650238
 20
143.0946120413
 10
210.7919516606
 20
143.4158436022
 10
211.4109872684
 20
143.6295975525
 10
212.0725681732
 20
143.7251553766
 10
212.7435199458
 20
143.6977254062
 10
213.3901982628
 20
143.5486830945
 10
213.980175973
 20
143.2855020454
 10
214.4838691305
 20
142.9213792557
 10
214.8760204571
 20
142.4745733624
 10
215.1369658479
 20
141.9674890788
 10
215.2536204114
 20
141.4255537282
 10
215.2201346005
 20
140.875942212
 10
215.0381875338
 20
140.3462143467
 10
214.7169027968
 20
139.8629328993
 10
214.2723909479
 20
139.4503316196
 10
213.7269416673
 20
139.1291000587
 10
213.1079060594
 20
138.9153461084
 10
212.4463251547
 20
138.8197882843
 10
211.775373382
 20
138.8472182547
 10
211.1286950651
 20
138.9962605664
 10
210.5387173549
 20
139.2594416155
  0
LWPOLYLINE
  5
154
330
1F
100
AcDbEntity
  8
0
  6
HIDDEN
 62
     7
370
     0
100
AcDbPolyline
 90
       27
 70
   128
 43
0.0
 10
210.8255055731
 20
137.2050691182
 10
210.377083506
 20
137.5349189058
 10
210.0380575436
 20
137.9430906886
 10
209.8281306424
 20
138.4058630062
 10
209.7595029909
 20
138.8963412136
 10
209.8361629788
 20
139.3860205001
 10
210.0536554062
 20
139.8464424857
 10
210.3993404037
 20
140.250849118
 10
210.8531280159
 20
140.5757377535
 10
211.3886457561
 20
140.8022270456
 10
211.9747712799
 20
140.9171542601
 10
212.5774411023
 20
140.9138402448
 10
213.1616302437
 20
140.7924775983
 10
213.6933877548
 20
140.5601194765
 10
214.1418098219
 20
140.2302696889
 10
214.4808357843
 20
139.8220979061
 10
214.6907626855
 20
139.3593255885
 10
214.759390337
 20
138.8688473811
 10
214.6827303491
 20
138.3791680946
 10
214.4652379217
 20
137.918746109
 10
214.1195529242
 20
137.5143394767
 10
213.665765312
 20
137.1894508412
 10
213.1302475717
 20
136.9629615491
 10
212.544122048
 20
136.8480343346
 10
211.9414522256
 20
136.8513483499
 10
211.3572630842
 20
136.9727109964
 10
210.8255055731
 20
137.2050691182
  0
LWPOLYLINE
  5
155
330
1F
100
AcDbEntity
  8
0
  6
HIDDEN
 62
     7
370
     0
100
AcDbPolyline
 90
       28
 70
   128
 43
0.0
 10
210.6534326422
 20
139.1009693567
 10
210.1677764645
 20
139.4550046587
 10
209.7948827686
 20
139.8912419407
 10
209.5548543503
 20
140.3861635376
 10
209.4606312037
 20
140.9130880982
 10
209.517292923
 20
141.4436089831
 10
209.7217848602
 20
141.9491256739
 10
210.0630828022
 20
142.402385635
 10
210.5227872884
 20
142.7789535047
 10
211.0761155311
 20
143.0585284115
 10
211.6932374614
 20
143.2260384
 10
212.3408838764
 20
143.2724529632
 10
212.9841399902
 20
143.19526988
 10
213.5883276992
 20
142.9986501104
 10
214.1208750877
 20
142.6931934772
 10
214.5530723879
 20
142.2953672264
 10
214.8616197318
 20
141.8266182743
 10
215.029883252
 20
141.3122169981
 10
215.0487918186
 20
140.7798949038
 10
214.9173260659
 20
140.2583496133
 10
214.6425733468
 20
139.7756977682
 10
214.2393456513
 20
139.3579592544
 10
213.7293810889
 20
139.0276544633
 10
213.1401719812
 20
138.8025902117
 10
212.5034827436
 20
138.6948997717
 10
211.8536374579
 20
138.7103887627
 10
211.2256694515
 20
138.8482221692
 10
210.6534326422
 20
139.1009693567
  0
LWPOLYLINE
  5
156
330
1F
100
AcDbEntity
  8
0
  6
HIDDEN
 62
     7
370
     0
100
AcDbPolyline
 90
       29
 70
   128
 43
0.0
 10
210.5387173549
 20
138.8636738744
 10
210.0350241974
 20
139.2277966641
 10
209.6428728707
 20
139.6746025574
 10
209.38192748
 20
140.181686841
 10
209.2652729165
 20
140.7236221917
 10
209.2987587274
 20
141.2732337078
 10
209.4807057941
 20
141.8029615732
 10
209.8019905311
 20
142.2862430206
 10
210.24650238
 20
142.6988443002
 10
210.7919516606
 20
143.0200758611
 10
211.4109872684
 20
143.2338298114
 10
212.0725681732
 20
143.3293876355
 10
212.7435199458
 20
143.3019576651
 10
213.3901982628
 20
143.1529153534
 10
213.980175973
 20
142.8897343044
 10
214.4838691305
 20
142.5256115146
 10
214.8760204571
 20
142.0788056213
 10
215.1369658479
 20
141.5717213377
 10
215.2536204114
 20
141.0297859871
 10
215.2201346005
 20
140.4801744709
 10
215.0381875338
 20
139.9504466056
 10
214.7169027968
 20
139.4671651582
 10
214.2723909479
 20
139.0545638785
 10
213.7269416673
 20
138.7333323176
 10
213.1079060594
 20
138.5195783673
 10
212.4463251547
 20
138.4240205432
 10
211.775373382
 20
138.4514505136
 10
211.1286950651
 20
138.6004928253
 10
210.5387173549
 20
138.8636738744
  0
LWPOLYLINE
  5
157
330
1F
100
AcDbEntity
  8
0
  6
HIDDEN
 62
     7
370
     0
100
AcDbPolyline
 90
       28
 70
   128
 43
0.0
 10
210.6534326422
 20
138.7052016156
 10
210.1677764645
 20
139.0592369177
 10
209.7948827686
 20
139.4954741996
 10
209.5548543503
 20
139.9903957965
 10
209.4606312037
 20
140.5173203572
 10
209.517292923
 20
141.047841242
 10
209.7217848602
 20
141.5533579328
 10
210.0630828022
 20
142.006617894
 10
210.5227872884
 20
142.3831857636
 10
211.0761155311
 20
142.6627606705
 10
211.6932374614
 20
142.8302706589
 10
212.3408838764
 20
142.8766852221
 10
212.9841399902
 20
142.7995021389
 10
213.5883276992
 20
142.6028823694
 10
214.1208750877
 20
142.2974257361
 10
214.5530723879
 20
141.8995994853
 10
214.8616197318
 20
141.4308505332
 10
215.029883252
 20
140.916449257
 10
215.0487918186
 20
140.3841271627
 10
214.9173260659
 20
139.8625818722
 10
214.6425733468
 20
139.3799300271
 10
214.2393456513
 20
138.9621915133
 10
213.7293810889
 20
138.6318867222
 10
213.1401719812
 20
138.4068224706
 10
212.5034827436
 20
138.2991320306
 10
211.8536374579
 20
138.3146210216
 10
211.2256694515
 20
138.4524544281
 10
210.6534326422
 20
138.7052016156
  0
LWPOLYLINE
  5
158
330
1F
100
AcDbEntity
  8
0
  6
HIDDEN
 62
     7
370
     0
100
AcDbPolyline
 90
       29
 70
   128
 43
0.0
 10
210.5387173549
 20
138.4679061333
 10
210.0350241974
 20
138.832028923
 10
209.6428728707
 20
139.2788348163
 10
209.38192748
 20
139.7859191
 10
209.2652729165
 20
140.3278544506
 10
209.2987587274
 20
140.8774659667
 10
209.4807057941
 20
141.4071938321
 10
209.8019905311
 20
141.8904752795
 10
210.24650238
 20
142.3030765591
 10
210.7919516606
 20
142.62430812
 10
211.4109872684
 20
142.8380620703
 10
212.0725681732
 20
142.9336198944
 10
212.7435199458
 20
142.906189924
 10
213.3901982628
 20
142.7571476124
 10
213.980175973
 20
142.4939665633
 10
214.4838691305
 20
142.1298437735
 10
214.8760204571
 20
141.6830378803
 10
215.1369658479
 20
141.1759535966
 10
215.2536204114
 20
140.634018246
 10
215.2201346005
 20
140.0844067298
 10
215.0381875338
 20
139.5546788645
 10
214.7169027968
 20
139.0713974171
 10
214.2723909479
 20
138.6587961375
 10
213.7269416673
 20
138.3375645766
 10
213.1079060594
 20
138.1238106263
 10
212.4463251547
 20
138.0282528021
 10
211.775373382
 20
138.0556827725
 10
211.1286950651
 20
138.2047250842
 10
210.5387173549
 20
138.4679061333
  0
LWPOLYLINE
  5
159
330
1F
100
AcDbEntity
  8
0
  6
HIDDEN
 62
     7
370
     0
100
AcDbPolyline
 90
       28
 70
   128
 43
0.0
 10
210.6534326422
 20
138.3094338745
 10
210.1677764645
 20
138.6634691766
 10
209.7948827686
 20
139.0997064585
 10
209.5548543503
 20
139.5946280555
 10
209.4606312037
 20
140.1215526161
 10
209.517292923
 20
140.6520735009
 10
209.7217848602
 20
141.1575901917
 10
210.0630828022
 20
141.6108501529
 10
210.5227872884
 20
141.9874180225
 10
211.0761155311
 20
142.2669929294
 10
211.6932374614
 20
142.4345029178
 10
212.3408838764
 20
142.480917481
 10
212.9841399902
 20
142.4037343978
 10
213.5883276992
 20
142.2071146283
 10
214.1208750877
 20
141.901657995
 10
214.5530723879
 20
141.5038317443
 10
214.8616197318
 20
141.0350827921
 10
215.029883252
 20
140.5206815159
 10
215.0487918186
 20
139.9883594216
 10
214.9173260659
 20
139.4668141311
 10
214.6425733468
 20
138.984162286
 10
214.2393456513
 20
138.5664237722
 10
213.7293810889
 20
138.2361189811
 10
213.1401719812
 20
138.0110547295
 10
212.5034827436
 20
137.9033642895
 10
211.8536374579
 20
137.9188532805
 10
211.2256694515
 20
138.0566866871
 10
210.6534326422
 20
138.3094338745
  0
LWPOLYLINE
  5
15A
330
1F
100
AcDbEntity
  8
0
  6
HIDDEN
 62
     7
370
     0
100
AcDbPolyline
 90
       29
 70
   128
 43
0.0
 10
210.5387173549
 20
138.0721383922
 10
210.0350241974
 20
138.436261182
 10
209.6428728707
 20
138.8830670752
 10
209.38192748
 20
139.3901513589
 10
209.2652729165
 20
139.9320867095
 10
209.2987587274
 20
140.4816982257
 10
209.4807057941
 20
141.011426091
 10
209.8019905311
 20
141.4947075384
 10
210.24650238
 20
141.907308818
 10
210.7919516606
 20
142.2285403789
 10
211.4109872684
 20
142.4422943292
 10
212.0725681732
 20
142.5378521534
 10
212.7435199458
 20
142.510422183
 10
213.3901982628
 20
142.3613798713
 10
213.980175973
 20
142.0981988222
 10
214.4838691305
 20
141.7340760325
 10
214.8760204571
 20
141.2872701392
 10
215.1369658479
 20
140.7801858555
 10
215.2536204114
 20
140.2382505049
 10
215.2201346005
 20
139.6886389888
 10
215.0381875338
 20
139.1589111234
 10
214.7169027968
 20
138.675629676
 10
214.2723909479
 20
138.2630283964
 10
213.7269416673
 20
137.9417968355
 10
213.1079060594
 20
137.7280428852
 10
212.4463251547
 20
137.6324850611
 10
211.775373382
 20
137.6599150315
 10
211.1286950651
 20
137.8089573431
 10
210.5387173549
 20
138.0721383922
  0
LWPOLYLINE
  5
15B
330
1F
100
AcDbEntity
  8
0
  6
HIDDEN
 62
     7
370
     0
100
AcDbPolyline
 90
       28
 70
   128
 43
0.0
 10
210.6534326422
 20
137.9136661334
 10
210.1677764645
 20
138.2677014355
 10
209.7948827686
 20
138.7039387174
 10
209.5548543503
 20
139.1988603144
 10
209.4606312037
 20
139.725784875
 10
209.517292923
 20
140.2563057598
 10
209.7217848602
 20
140.7618224506
 10
210.0630828022
 20
141.2150824118
 10
210.5227872884
 20
141.5916502815
 10
211.0761155311
 20
141.8712251883
 10
211.6932374614
 20
142.0387351767
 10
212.3408838764
 20
142.0851497399
 10
212.9841399902
 20
142.0079666567
 10
213.5883276992
 20
141.8113468872
 10
214.1208750877
 20
141.505890254
 10
214.5530723879
 20
141.1080640032
 10
214.8616197318
 20
140.639315051
 10
215.029883252
 20
140.1249137748
 10
215.0487918186
 20
139.5925916805
 10
214.9173260659
 20
139.07104639
 10
214.6425733468
 20
138.5883945449
 10
214.2393456513
 20
138.1706560311
 10
213.7293810889
 20
137.84035124
 10
213.1401719812
 20
137.6152869885
 10
212.5034827436
 20
137.5075965484
 10
211.8536374579
 20
137.5230855394
 10
211.2256694515
 20
137.660918946
 10
210.6534326422
 20
137.9136661334
  0
LWPOLYLINE
  5
15C
330
1F
100
AcDbEntity
  8
0
  6
HIDDEN
 62
     7
370
     0
100
AcDbPolyline
 90
       29
 70
   128
 43
0.0
 10
210.5387173549
 20
137.6763706511
 10
210.0350241974
 20
138.0404934409
 10
209.6428728707
 20
138.4872993342
 10
209.38192748
 20
138.9943836178
 10
209.2652729165
 20
139.5363189684
 10
209.2987587274
 20
140.0859304846
 10
209.4807057941
 20
140.6156583499
 10
209.8019905311
 20
141.0989397973
 10
210.24650238
 20
141.511541077
 10
210.7919516606
 20
141.8327726379
 10
211.4109872684
 20
142.0465265882
 10
212.0725681732
 20
142.1420844123
 10
212.7435199458
 20
142.1146544419
 10
213.3901982628
 20
141.9656121302
 10
213.980175973
 20
141.7024310811
 10
214.4838691305
 20
141.3383082914
 10
214.8760204571
 20
140.8915023981
 10
215.1369658479
 20
140.3844181145
 10
215.2536204114
 20
139.8424827638
 10
215.2201346005
 20
139.2928712477
 10
215.0381875338
 20
138.7631433823
 10
214.7169027968
 20
138.2798619349
 10
214.2723909479
 20
137.8672606553
 10
213.7269416673
 20
137.5460290944
 10
213.1079060594
 20
137.3322751441
 10
212.4463251547
 20
137.23671732
 10
211.775373382
 20
137.2641472904
 10
211.1286950651
 20
137.4131896021
 10
210.5387173549
 20
137.6763706511
  0
LWPOLYLINE
  5
15D
330
1F
100
AcDbEntity
  8
0
  6
HIDDEN
 62
     7
370
     0
100
AcDbPolyline
 90
       29
 70
   128
 43
0.0
 10
210.5387173549
 20
136.0990354512
 10
210.0350241974
 20
136.4631582409
 10
209.6428728707
 20
136.9099641342
 10
209.38192748
 20
137.4170484178
 10
209.2652729165
 20
137.9589837684
 10
209.2987587274
 20
138.5085952846
 10
209.4807057941
 20
139.03832315
 10
209.8019905311
 20
139.5216045973
 10
210.24650238
 20
139.934205877
 10
210.7919516606
 20
140.2554374379
 10
211.4109872684
 20
140.4691913882
 10
212.0725681732
 20
140.5647492123
 10
212.7435199458
 20
140.5373192419
 10
213.3901982628
 20
140.3882769302
 10
213.980175973
 20
140.1250958812
 10
214.4838691305
 20
139.7609730914
 10
214.8760204571
 20
139.3141671981
 10
215.1369658479
 20
138.8070829145
 10
215.2536204114
 20
138.2651475639
 10
215.2201346005
 20
137.7155360477
 10
215.0381875338
 20
137.1858081824
 10
214.7169027968
 20
136.702526735
 10
214.2723909479
 20
136.2899254553
 10
213.7269416673
 20
135.9686938944
 10
213.1079060594
 20
135.7549399441
 10
212.4463251547
 20
135.65938212
 10
211.775373382
 20
135.6868120904
 10
211.1286950651
 20
135.8358544021
 10
210.5387173549
 20
136.0990354512
  0
LWPOLYLINE
  5
15E
330
1F
100
AcDbEntity
  8
0
  6
HIDDEN
 62
     7
370
     0
100
AcDbPolyline
 90
       27
 70
   128
 43
0.0
 10
210.8367564138
 20
136.2756295812
 10
210.3918527098
 20
136.6028913355
 10
210.0554867779
 20
137.0078605629
 10
209.8472069835
 20
137.467001924
 10
209.7791177912
 20
137.9536317918
 10
209.8551762974
 20
138.4394690073
 10
210.0709622581
 20
138.8962784773
 10
210.4139349777
 20
139.297512096
 10
210.8641621283
 20
139.6198516237
 10
211.3954781445
 20
139.844563859
 10
211.9770048706
 20
139.9585893433
 10
212.5749460871
 20
139.9553013301
 10
213.1545516239
 20
139.8348909067
 10
213.6821369141
 20
139.6043558893
 10
214.1270406181
 20
139.2770941351
 10
214.46340655
 20
138.8721249076
 10
214.6716863444
 20
138.4129835465
 10
214.7397755366
 20
137.9263536787
 10
214.6637170305
 20
137.4405164632
 10
214.4479310697
 20
136.9837069932
 10
214.1049583502
 20
136.5824733746
 10
213.6547311996
 20
136.2601338468
 10
213.1234151834
 20
136.0354216115
 10
212.5418884573
 20
135.9213961272
 10
211.9439472408
 20
135.9246841404
 10
211.364341704
 20
136.0450945638
 10
210.8367564138
 20
136.2756295812
  0
CIRCLE
  5
15F
330
1F
100
AcDbEntity
  8
0
  6
HIDDEN
 62
     7
370
     0
100
AcDbCircle
 10
254.7511858219
 20
163.0346800806
 30
0.0
 40
1.250000000000053
  0
ARC
  5
160
330
1F
100
AcDbEntity
  8
0
  6
HIDDEN
 62
     7
370
     0
100
AcDbCircle
 10
254.7511858219
 20
163.0346800806
 30
0.0
 40
0.77500000000002
100
AcDbArc
 50
217.2190990517
 51
269.7597301943
  0
ARC
  5
161
330
1F
100
AcDbEntity
  8
0
  6
HIDDEN
 62
     7
370
     0
100
AcDbCircle
 10
254.7511858219
 20
163.0346800806
 30
0.0
 40
0.7750000000000212
100
AcDbArc
 50
286.4123410138
 51
88.5821864125
  0
ARC
  5
162
330
1F
100
AcDbEntity
  8
0
  6
HIDDEN
 62
     7
370
     0
100
AcDbCircle
 10
254.7511858219
 20
163.0346800806
 30
0.0
 40
0.7750000000000214
100
AcDbArc
 50
104.8591092218
 51
217.2190990517
  0
CIRCLE
  5
163
330
1F
100
AcDbEntity
  8
0
  6
HIDDEN
 62
     7
370
     0
100
AcDbCircle
 10
254.8037652637
 20
163.1239422598
 30
0.0
 40
1.400000000000001
  0
ARC
  5
164
330
1F
100
AcDbEntity
  8
0
  6
HIDDEN
 62
     7
370
     0
100
AcDbCircle
 10
257.8539508341
 20
168.3021298097
 30
0.0
 40
0.1077727450512171
100
AcDbArc
 50
357.0
 51
122.0000000001
  0
ARC
  5
165
330
1F
100
AcDbEntity
  8
0
  6
HIDDEN
 62
     7
370
     0
100
AcDbCircle
 10
252.1081714437
 20
164.7117683658
 30
0.0
 40
0.1077727450511352
100
AcDbArc
 50
122.0
 51
177.0
  0
ARC
  5
166
330
1F
100
AcDbEntity
  8
0
  6
HIDDEN
 62
     7
370
     0
100
AcDbCircle
 10
257.4993590838
 20
161.5361161538
 30
0.0
 40
0.1077727450511636
100
AcDbArc
 50
302.0
 51
357.0
  0
LINE
  5
167
330
1F
100
AcDbEntity
  8
0
  6
HIDDEN
 62
     7
370
     0
100
AcDbLine
 10
257.60698413
 20
161.5304757642
 30
0.0
 11
257.9615758803
 21
168.29648942
 31
0.0
  0
LINE
  5
168
330
1F
100
AcDbEntity
  8
0
  6
HIDDEN
 62
     7
370
     0
100
AcDbLine
 10
257.7968399803
 20
168.393526281
 30
0.0
 11
252.0510605899
 21
164.8031648371
 31
0.0
  0
ARC
  5
169
330
1F
100
AcDbEntity
  8
0
  6
HIDDEN
 62
     7
370
     0
100
AcDbCircle
 10
251.7535796934
 20
157.9457547099
 30
0.0
 40
0.1077727450510062
100
AcDbArc
 50
177.0
 51
302.0
  0
LINE
  5
16A
330
1F
100
AcDbEntity
  8
0
  6
HIDDEN
 62
     7
370
     0
100
AcDbLine
 10
252.0005463974
 20
164.7174087555
 30
0.0
 11
251.6459546471
 21
157.9513950996
 31
0.0
  0
LINE
  5
16B
330
1F
100
AcDbEntity
  8
0
  6
HIDDEN
 62
     7
370
     0
100
AcDbLine
 10
251.8106905471
 20
157.8543582387
 30
0.0
 11
257.5564699375
 21
161.4447196826
 31
0.0
  0
ELLIPSE
  5
16C
330
1F
100
AcDbEntity
  8
0
  6
HIDDEN
 62
     7
370
     0
100
AcDbEllipse
 10
251.8607849721
 20
123.7114598774
 30
0.0
 11
26.80628067500373
 21
31.43673864350305
 31
0.0
210
0.0
220
0.0
230
1.0
 40
0.074436305
 41
2.401299859898854
 42
3.204979869988365
  0
LWPOLYLINE
  5
16D
330
1F
100
AcDbEntity
  8
0
  6
HIDDEN
 62
     7
370
     0
100
AcDbPolyline
 90
       29
 70
   128
 43
0.0
 10
212.2594466639
 20
135.5934146533
 10
212.9270094658
 20
135.6550282093
 10
213.5610978813
 20
135.8367793162
 10
214.1299160695
 20
136.1295542147
 10
214.6049411113
 20
136.5186719488
 10
214.9623532676
 20
136.9846205305
 10
215.1842304005
 20
137.5040353523
 10
215.2594466639
 20
138.0508707862
 10
215.1842304005
 20
138.59770622
 10
214.9623532676
 20
139.1171210418
 10
214.6049411113
 20
139.5830696235
 10
214.1299160695
 20
139.9721873576
 10
213.5610978813
 20
140.2649622561
 10
212.9270094658
 20
140.446713363
 10
212.2594466639
 20
140.508326919
 10
211.5918838621
 20
140.446713363
 10
210.9577954466
 20
140.2649622561
 10
210.3889772584
 20
139.9721873576
 10
209.9139522165
 20
139.5830696235
 10
209.5565400602
 20
139.1171210418
 10
209.3346629274
 20
138.59770622
 10
209.2594466639
 20
138.0508707862
 10
209.3346629274
 20
137.5040353523
 10
209.5565400602
 20
136.9846205305
 10
209.9139522165
 20
136.5186719488
 10
210.3889772584
 20
136.1295542147
 10
210.9577954466
 20
135.8367793162
 10
211.5918838621
 20
135.6550282093
 10
212.2594466639
 20
135.5934146533
  0
SPLINE
  5
16E
330
1F
100
AcDbEntity
  8
0
  6
HIDDEN
 62
     7
370
     0
100
AcDbSpline
210
0.0
220
0.0
230
1.0
 70
     8
 71
     3
 72
    12
 73
     8
 74
     0
 42
0.000000001
 43
0.00000001
 40
0.0
 40
0.0
 40
0.0
 40
0.0
 40
0.4999999999999996
 40
0.4999999999999996
 40
0.7499999999999998
 40
0.7499999999999998
 40
1.0
 40
1.0
 40
1.0
 40
1.0
 10
192.4429343774916
 20
139.1637278592063
 30
0.0
 10
192.4993405561718
 20
139.1159054855465
 30
0.0
 10
192.5695034576436
 20
139.0756346386079
 30
0.0
 10
192.6875141710328
 20
139.067588770131
 30
0.0
 10
192.7277199546283
 20
139.0741513684698
 30
0.0
 10
192.8014406513613
 20
139.1015334629235
 30
0.0
 10
192.8343013731478
 20
139.1212949534538
 30
0.0
 10
192.8644697750771
 20
139.1442276646419
 30
0.0
  0
SPLINE
  5
16F
330
1F
100
AcDbEntity
  8
0
  6
HIDDEN
 62
     7
370
     0
100
AcDbSpline
210
0.0
220
0.0
230
1.0
 70
     8
 71
     3
 72
    15
 73
    11
 74
     0
 42
0.000000001
 43
0.00000001
 40
0.0
 40
0.0
 40
0.0
 40
0.0
 40
0.0553675422503171
 40
0.1006717814597286
 40
0.1462862983564923
 40
0.1860924718123572
 40
0.2537940797885962
 40
0.387778687669972
 40
0.8499098928667885
 40
0.9999999999999999
 40
0.9999999999999999
 40
0.9999999999999999
 40
0.9999999999999999
 10
192.8644697750633
 20
139.14422766466
 30
0.0
 10
192.8714149587839
 20
139.1490796138456
 30
0.0
 10
192.8840430074438
 20
139.1579016483483
 30
0.0
 10
192.9060595950907
 20
139.1665072087521
 30
0.0
 10
192.9263513804369
 20
139.1689384998508
 30
0.0
 10
192.9474291354075
 20
139.1655078505947
 30
0.0
 10
192.9737427699561
 20
139.1516916175753
 30
0.0
 10
193.0195476895544
 20
139.0946459566646
 30
0.0
 10
193.0422759967938
 20
139.0156598959564
 30
0.0
 10
193.0459750574677
 20
138.9451942303019
 30
0.0
 10
193.0468819066767
 20
138.9279191059404
 30
0.0
  0
SPLINE
  5
170
330
1F
100
AcDbEntity
  8
0
  6
HIDDEN
 62
     7
370
     0
100
AcDbSpline
210
0.0
220
0.0
230
1.0
 70
     8
 71
     3
 72
    16
 73
    12
 74
     0
 42
0.000000001
 43
0.00000001
 40
0.0
 40
0.0
 40
0.0
 40
0.0
 40
0.0779977204736164
 40
0.4884875783135665
 40
0.6290687100492022
 40
0.7704706300120212
 40
0.8320665606110224
 40
0.8712813063180553
 40
0.9107847812205099
 40
0.9455720719211332
 40
1.0
 40
1.0
 40
1.0
 40
1.0
 10
193.0537111507571
 20
108.5434131711308
 30
0.0
 10
193.0533344047808
 20
108.5330537998676
 30
0.0
 10
193.0509749033943
 20
108.468174670702
 30
0.0
 10
193.0361536042607
 20
108.3892908050842
 30
0.0
 10
193.0038608348738
 20
108.3101340319067
 30
0.0
 10
192.9786640996248
 20
108.2749348704695
 30
0.0
 10
192.949615799618
 20
108.2580733225554
 30
0.0
 10
192.927748819655
 20
108.2539168188482
 30
0.0
 10
192.9075999687846
 20
108.2561453183974
 30
0.0
 10
192.8852824433686
 20
108.2642896082781
 30
0.0
 10
192.8723559181786
 20
108.2732348353504
 30
0.0
 10
192.8644697750633
 20
108.2786920900924
 30
0.0
  0
SPLINE
  5
171
330
1F
100
AcDbEntity
  8
0
  6
HIDDEN
 62
     7
370
     0
100
AcDbSpline
210
0.0
220
0.0
230
1.0
 70
     8
 71
     3
 72
    12
 73
     8
 74
     0
 42
0.000000001
 43
0.00000001
 40
0.0
 40
0.0
 40
0.0
 40
0.0
 40
0.2500000000000004
 40
0.2500000000000004
 40
0.5000000000000008
 40
0.5000000000000008
 40
1.0
 40
1.0
 40
1.0
 40
1.0
 10
192.86446977507
 20
108.2786920901008
 30
0.0
 10
192.8342779333528
 20
108.3016426191987
 30
0.0
 10
192.8009189639382
 20
108.3216120932228
 30
0.0
 10
192.7277816793576
 20
108.3487132268483
 30
0.0
 10
192.6875398067036
 20
108.3553139674937
 30
0.0
 10
192.5698340297351
 20
108.347345092987
 30
0.0
 10
192.4994235519557
 20
108.3070846348192
 30
0.0
 10
192.4429343774874
 20
108.2591918955411
 30
0.0
  0
SPLINE
  5
172
330
1F
100
AcDbEntity
  8
0
  6
HIDDEN
 62
     7
370
     0
100
AcDbSpline
210
0.0
220
0.0
230
1.0
 70
     8
 71
     3
 72
    12
 73
     8
 74
     0
 42
0.000000001
 43
0.00000001
 40
0.0
 40
0.0
 40
0.0
 40
0.0
 40
0.249999999999998
 40
0.249999999999998
 40
0.4999999999999987
 40
0.4999999999999987
 40
1.0
 40
1.0
 40
1.0
 40
1.0
 10
192.4429343774871
 20
108.2591918955413
 30
0.0
 10
192.3547804397493
 20
108.1844530876872
 30
0.0
 10
192.2944270151206
 20
108.0934725872048
 30
0.0
 10
192.1881650570538
 20
107.9045587644522
 30
0.0
 10
192.1459328904917
 20
107.8080543049116
 30
0.0
 10
192.0348621951745
 20
107.5172865507445
 30
0.0
 10
191.9819254187477
 20
107.3216197362007
 30
0.0
 10
191.9381263203789
 20
107.1275532511344
 30
0.0
  0
SPLINE
  5
173
330
1F
100
AcDbEntity
  8
0
  6
HIDDEN
 62
     7
370
     0
100
AcDbSpline
210
0.0
220
0.0
230
1.0
 70
     8
 71
     3
 72
    12
 73
     8
 74
     0
 42
0.000000001
 43
0.00000001
 40
0.0
 40
0.0
 40
0.0
 40
0.0
 40
0.5000000000000012
 40
0.5000000000000012
 40
0.7500000000000007
 40
0.7500000000000007
 40
1.0
 40
1.0
 40
1.0
 40
1.0
 10
191.9381263203789
 20
101.9413789223733
 30
0.0
 10
191.9818728612155
 20
101.9147847517322
 30
0.0
 10
192.034757216447
 20
101.8950245264064
 30
0.0
 10
192.1463243037832
 20
101.8745735361774
 30
0.0
 10
192.1889079003262
 20
101.8693133115209
 30
0.0
 10
192.293824627408
 20
101.8614305175983
 30
0.0
 10
192.3553582352528
 20
101.8588663924191
 30
0.0
 10
192.4429343774789
 20
101.8566661748995
 30
0.0
  0
SPLINE
  5
174
330
1F
100
AcDbEntity
  8
0
  6
HIDDEN
 62
     7
370
     0
100
AcDbSpline
210
0.0
220
0.0
230
1.0
 70
     8
 71
     3
 72
    12
 73
     8
 74
     0
 42
0.000000001
 43
0.00000001
 40
0.0
 40
0.0
 40
0.0
 40
0.0
 40
0.25
 40
0.25
 40
0.5
 40
0.5
 40
1.0
 40
1.0
 40
1.0
 40
1.0
 10
192.4429343774869
 20
145.5662535798514
 30
0.0
 10
192.3542497176305
 20
145.5640255125103
 30
0.0
 10
192.2943313019071
 20
145.56152372848
 30
0.0
 10
192.1886720745864
 20
145.553592292644
 30
0.0
 10
192.1460308364714
 20
145.5483001377472
 30
0.0
 10
192.0348414943689
 20
145.52789519726
 30
0.0
 10
191.9819148122479
 20
145.5081605056732
 30
0.0
 10
191.9381263203789
 20
145.4815408323776
 30
0.0
  0
SPLINE
  5
175
330
1F
100
AcDbEntity
  8
0
  6
HIDDEN
 62
     7
370
     0
100
AcDbSpline
210
0.0
220
0.0
230
1.0
 70
     8
 71
     3
 72
    12
 73
     8
 74
     0
 42
0.000000001
 43
0.00000001
 40
0.0
 40
0.0
 40
0.0
 40
0.0
 40
0.5000000000000006
 40
0.5000000000000006
 40
0.7499999999999989
 40
0.7499999999999989
 40
1.0
 40
1.0
 40
1.0
 40
1.0
 10
191.9381263203774
 20
140.2953665036167
 30
0.0
 10
191.9818877966761
 20
140.1014667156546
 30
0.0
 10
192.0347941123291
 20
139.9056103517177
 30
0.0
 10
192.1465053099765
 20
139.6134682052188
 30
0.0
 10
192.1890247535629
 20
139.5167502685209
 30
0.0
 10
192.2941480961303
 20
139.3300258320964
 30
0.0
 10
192.355714059848
 20
139.2376751238267
 30
0.0
 10
192.4429343774907
 20
139.163727859207
 30
0.0
  0
LWPOLYLINE
  5
176
330
1F
100
AcDbEntity
  8
0
  6
HIDDEN
 62
     7
370
     0
100
AcDbPolyline
 90
       27
 70
   128
 43
0.0
 10
212.2594466639
 20
135.8986083005
 10
212.8577358247
 20
135.9581159746
 10
213.421254594
 20
136.1331806273
 10
213.9172533095
 20
136.4136281374
 10
214.3169063287
 20
136.7831599148
 10
214.5969872707
 20
137.2203001159
 10
214.7412188492
 20
137.6996437411
 10
214.7412188492
 20
138.1933330813
 10
214.5969872707
 20
138.6726767065
 10
214.3169063287
 20
139.1098169076
 10
213.9172533095
 20
139.479348685
 10
213.421254594
 20
139.7597961951
 10
212.8577358247
 20
139.9348608478
 10
212.2594466639
 20
139.9943685219
 10
211.6611575032
 20
139.9348608478
 10
211.0976387338
 20
139.7597961951
 10
210.6016400183
 20
139.479348685
 10
210.2019869992
 20
139.1098169076
 10
209.9219060572
 20
138.6726767065
 10
209.7776744787
 20
138.1933330813
 10
209.7776744787
 20
137.6996437411
 10
209.9219060572
 20
137.2203001159
 10
210.2019869992
 20
136.7831599148
 10
210.6016400183
 20
136.4136281374
 10
211.0976387338
 20
136.1331806273
 10
211.6611575032
 20
135.9581159746
 10
212.2594466639
 20
135.8986083005
  0
SPLINE
  5
177
330
1F
100
AcDbEntity
  8
0
  6
HIDDEN
 62
     7
370
     0
100
AcDbSpline
210
0.0
220
0.0
230
1.0
 70
    11
 71
     3
 72
    62
 73
    58
 74
     0
 42
0.000000001
 43
0.00000001
 40
0.0
 40
0.0
 40
0.0
 40
0.0
 40
0.0312500000000006
 40
0.0312500000000006
 40
0.0625000000000012
 40
0.0625000000000012
 40
0.0937500000000019
 40
0.0937500000000019
 40
0.1250000000000025
 40
0.1250000000000025
 40
0.1875000000000034
 40
0.1875000000000034
 40
0.2187500000000038
 40
0.2187500000000038
 40
0.2500000000000042
 40
0.2500000000000042
 40
0.2812500000000046
 40
0.2812500000000046
 40
0.3125000000000049
 40
0.3125000000000049
 40
0.3750000000000056
 40
0.3750000000000056
 40
0.4062500000000058
 40
0.4062500000000058
 40
0.4375000000000061
 40
0.4375000000000061
 40
0.4687500000000063
 40
0.4687500000000063
 40
0.5000000000000064
 40
0.5000000000000064
 40
0.5625000000000063
 40
0.5625000000000063
 40
0.593750000000006
 40
0.593750000000006
 40
0.6250000000000056
 40
0.6250000000000056
 40
0.6562500000000052
 40
0.6562500000000052
 40
0.6875000000000048
 40
0.6875000000000048
 40
0.7187500000000044
 40
0.7187500000000044
 40
0.750000000000004
 40
0.750000000000004
 40
0.7812500000000037
 40
0.7812500000000037
 40
0.8125000000000033
 40
0.8125000000000033
 40
0.8750000000000024
 40
0.8750000000000024
 40
0.9062500000000018
 40
0.9062500000000018
 40
0.9375000000000012
 40
0.9375000000000012
 40
0.9687500000000006
 40
0.9687500000000006
 40
1.0
 40
1.0
 40
1.0
 40
1.0
 10
212.2594466639386
 20
126.6226116422516
 30
0.0
 10
212.0934028450024
 20
126.6226116422516
 30
0.0
 10
211.9303061144254
 20
126.6387695482239
 30
0.0
 10
211.6097098095169
 20
126.7015912623376
 30
0.0
 10
211.4505076062104
 20
126.7490616301281
 30
0.0
 10
211.1481971044963
 20
126.8712002104019
 30
0.0
 10
211.0049455302519
 20
126.9454220648782
 30
0.0
 10
210.7338346891847
 20
127.1186711531757
 30
0.0
 10
210.6061526940559
 20
127.2180736174972
 30
0.0
 10
210.2621526058407
 20
127.5394532778055
 30
0.0
 10
210.0761509772564
 20
127.7930636914057
 30
0.0
 10
209.8886644640747
 20
128.1900380081493
 30
0.0
 10
209.8401925193226
 20
128.3273314541594
 30
0.0
 10
209.7756305399089
 20
128.6020981810734
 30
0.0
 10
209.759552039689
 20
128.7380099573395
 30
0.0
 10
209.7593423107753
 20
129.006666011435
 30
0.0
 10
209.7757738581862
 20
129.1404848481843
 30
0.0
 10
209.8399425483385
 20
129.3936457805464
 30
0.0
 10
209.88741151113
 20
129.5142949607965
 30
0.0
 10
210.0765349950842
 20
129.8595403778302
 30
0.0
 10
210.2606748874503
 20
130.0585036569435
 30
0.0
 10
210.6074104712543
 20
130.3026475333826
 30
0.0
 10
210.7327274274061
 20
130.3737494162927
 30
0.0
 10
211.002786930206
 20
130.4973729252494
 30
0.0
 10
211.1491603060871
 20
130.5501805983667
 30
0.0
 10
211.4505782091407
 20
130.6337413161657
 30
0.0
 10
211.6064303705797
 20
130.6651248584606
 30
0.0
 10
211.928773431896
 20
130.7076076173502
 30
0.0
 10
212.0947248989655
 20
130.7183254715447
 30
0.0
 10
212.5856462665167
 20
130.718464189687
 30
0.0
 10
212.9161292536195
 20
130.6757592317162
 30
0.0
 10
213.3680387512181
 20
130.5507355417983
 30
0.0
 10
213.5143359685974
 20
130.4980895576696
 30
0.0
 10
213.7852195311537
 20
130.3742754999216
 30
0.0
 10
213.9105760533116
 20
130.3031762880123
 30
0.0
 10
214.1413536948008
 20
130.1408993087578
 30
0.0
 10
214.2461415748708
 20
130.0496985548545
 30
0.0
 10
214.4268051990529
 20
129.8529870873724
 30
0.0
 10
214.5039936962482
 20
129.746652661613
 30
0.0
 10
214.6308571005395
 20
129.5158016626404
 30
0.0
 10
214.6785184544718
 20
129.394789660087
 30
0.0
 10
214.7427488215344
 20
129.1425018981091
 30
0.0
 10
214.7593820354135
 20
129.0094646999117
 30
0.0
 10
214.7595109104249
 20
128.7394319475656
 30
0.0
 10
214.743429931296
 20
128.6034666681811
 30
0.0
 10
214.6794625188277
 20
128.3299254887735
 30
0.0
 10
214.630898468584
 20
128.1916723888748
 30
0.0
 10
214.4431676265415
 20
127.7935339980864
 30
0.0
 10
214.2572217890458
 20
127.5400460650669
 30
0.0
 10
213.9134465669414
 20
127.218661749197
 30
0.0
 10
213.7862712625738
 20
127.1195279746192
 30
0.0
 10
213.5146288532993
 20
126.9457759383321
 30
0.0
 10
213.3714696823521
 20
126.8716121350672
 30
0.0
 10
213.0703427398143
 20
126.7497537620796
 30
0.0
 10
212.9108265111228
 20
126.7019805143025
 30
0.0
 10
212.588960618891
 20
126.6387758352507
 30
0.0
 10
212.4254904828747
 20
126.6226116422516
 30
0.0
 10
212.2594466639385
 20
126.6226116422516
 30
0.0
  0
ELLIPSE
  5
178
330
1F
100
AcDbEntity
  8
0
  6
HIDDEN
 62
     7
370
     0
100
AcDbEllipse
 10
212.2594466639
 20
136.0135700813
 30
0.0
 11
1.594374680795596
 21
3.089448956362617
 31
0.0
210
0.0
220
0.0
230
1.0
 40
0.6232855309
 41
4.508726209116145
 42
7.650318862705935
  0
ELLIPSE
  5
179
330
1F
100
AcDbEntity
  8
0
  6
HIDDEN
 62
     7
370
     0
100
AcDbEllipse
 10
212.2594466639
 20
136.0135700813
 30
0.0
 11
2.448330812311383
 21
-1.263512267882504
 31
0.0
210
0.0
220
0.0
230
1.0
 40
0.4001895252
 41
5.591611907155493
 42
8.733204560745278
  0
CIRCLE
  5
17A
330
1F
100
AcDbEntity
  8
0
  6
HIDDEN
 62
     7
370
     0
100
AcDbCircle
 10
177.7594466639
 20
123.7114598774
 30
0.0
 40
4.049999999999997
  0
LINE
  5
17B
330
1F
100
AcDbEntity
  8
0
  6
HIDDEN
 62
     7
370
     0
100
AcDbLine
 10
156.7896751036
 20
108.3985088345
 30
0.0
 11
156.7896751036
 21
139.0244109203
 31
0.0
  0
LINE
  5
17C
330
1F
100
AcDbEntity
  8
0
  6
HIDDEN
 62
     7
370
     0
100
AcDbLine
 10
163.2896751036
 20
109.3650497159
 30
0.0
 11
163.2896751036
 21
138.0578700389
 31
0.0
  0
LINE
  5
17D
330
1F
100
AcDbEntity
  8
0
  6
HIDDEN
 62
     7
370
     0
100
AcDbLine
 10
169.0896751036
 20
109.7114598774
 30
0.0
 11
169.0896751036
 21
137.7114598774
 31
0.0
  0
LINE
  5
17E
330
1F
100
AcDbEntity
  8
0
  6
HIDDEN
 62
     7
370
     0
100
AcDbLine
 10
161.6896751036
 20
109.7114598774
 30
0.0
 11
161.6896751036
 21
137.7114598774
 31
0.0
  0
LINE
  5
17F
330
1F
100
AcDbEntity
  8
0
  6
HIDDEN
 62
     7
370
     0
100
AcDbLine
 10
162.6896751036
 20
109.7114598774
 30
0.0
 11
162.6896751036
 21
137.7114598774
 31
0.0
  0
LINE
  5
180
330
1F
100
AcDbEntity
  8
0
  6
HIDDEN
 62
     7
370
     0
100
AcDbLine
 10
182.2594466639
 20
110.2114598774
 30
0.0
 11
182.2594466639
 21
137.2114598446
 31
0.0
  0
SPLINE
  5
181
330
1F
100
AcDbEntity
  8
0
  6
HIDDEN
 62
     7
370
     0
100
AcDbSpline
210
0.0
220
0.0
230
1.0
 70
     8
 71
     3
 72
    10
 73
     6
 74
     0
 42
0.000000001
 43
0.00000001
 40
0.0
 40
0.0
 40
0.0
 40
0.0
 40
0.2941861588286692
 40
0.8929033354570393
 40
1.0
 40
1.0
 40
1.0
 40
1.0
 10
181.7594466639386
 20
124.345888754398
 30
0.0
 10
181.7391256188753
 20
124.4547595657901
 30
0.0
 10
181.6774479077647
 20
124.7852003690319
 30
0.0
 10
181.5618500732914
 20
125.1466390853758
 30
0.0
 10
181.4454100237056
 20
125.3840359932045
 30
0.0
 10
181.4277419925585
 20
125.420057413469
 30
0.0
  0
SPLINE
  5
182
330
1F
100
AcDbEntity
  8
0
  6
HIDDEN
 62
     7
370
     0
100
AcDbSpline
210
0.0
220
0.0
230
1.0
 70
     8
 71
     3
 72
     9
 73
     5
 74
     0
 42
0.000000001
 43
0.00000001
 40
0.0
 40
0.0
 40
0.0
 40
0.0
 40
0.4296444304958976
 40
1.0
 40
1.0
 40
1.0
 40
1.0
 10
181.6202852053543
 20
122.5278428776281
 30
0.0
 10
181.6474941192798
 20
122.6044469241599
 30
0.0
 10
181.7108230303379
 20
122.7827433038975
 30
0.0
 10
181.7417864850771
 20
122.9701452542394
 30
0.0
 10
181.7594466639386
 20
123.0770310003529
 30
0.0
  0
LINE
  5
183
330
1F
100
AcDbEntity
  8
0
  6
HIDDEN
 62
     7
370
     0
100
AcDbLine
 10
183.5094466639
 20
114.7114598774
 30
0.0
 11
183.5094466639
 21
132.7114598774
 31
0.0
  0
LINE
  5
184
330
1F
100
AcDbEntity
  8
0
  6
HIDDEN
 62
     7
370
     0
100
AcDbLine
 10
220.2594466639
 20
114.7114598774
 30
0.0
 11
220.2594466639
 21
132.7114598774
 31
0.0
  0
LINE
  5
185
330
1F
100
AcDbEntity
  8
0
  6
HIDDEN
 62
     7
370
     0
100
AcDbLine
 10
251.5041465468
 20
160.8292157886
 30
0.0
 11
251.5422813035
 21
160.8530450294
 31
0.0
  0
LINE
  5
186
330
1F
100
AcDbEntity
  8
0
  6
HIDDEN
 62
     7
370
     0
100
AcDbLine
 10
257.7530031652
 20
161.266374676
 30
0.0
 11
251.8038399016
 21
157.5489248831
 31
0.0
  0
LINE
  5
187
330
1F
100
AcDbEntity
  8
0
  6
HIDDEN
 62
     7
370
     0
100
AcDbLine
 10
257.7508377395
 20
161.2250558933
 30
0.0
 11
257.7530031652
 21
161.266374676
 31
0.0
  0
LINE
  5
188
330
1F
100
AcDbEntity
  8
0
  6
HIDDEN
 62
     7
370
     0
100
AcDbLine
 10
251.7492811405
 20
164.8028372146
 30
0.0
 11
251.7141927381
 21
164.7809115473
 31
0.0
  0
LINE
  5
189
330
1F
100
AcDbEntity
  8
0
  6
HIDDEN
 62
     7
370
     0
100
AcDbLine
 10
251.5422813035
 20
160.8530450294
 30
0.0
 11
251.7492811405
 21
164.8028372146
 31
0.0
  0
LINE
  5
18A
330
1F
100
AcDbEntity
  8
0
  6
HIDDEN
 62
     7
370
     0
100
AcDbLine
 10
256.0469788186
 20
128.7134909257
 30
0.0
 11
252.1600424595
 21
128.9171966285
 31
0.0
  0
LINE
  5
18B
330
1F
100
AcDbEntity
  8
0
  6
HIDDEN
 62
     7
370
     0
100
AcDbLine
 10
251.5422813035
 20
160.8530450294
 30
0.0
 11
251.6591669819
 21
160.784194103
 31
0.0
  0
LINE
  5
18C
330
1F
100
AcDbEntity
  8
0
  6
HIDDEN
 62
     7
370
     0
100
AcDbLine
 10
251.4964586865
 20
160.6825226759
 30
0.0
 11
251.6591669819
 21
160.784194103
 31
0.0
  0
LINE
  5
18D
330
1F
100
AcDbEntity
  8
0
  6
HIDDEN
 62
     7
370
     0
100
AcDbLine
 10
251.6127080593
 20
157.5713816571
 30
0.0
 11
257.6361174868
 21
161.3352256024
 31
0.0
  0
LINE
  5
18E
330
1F
100
AcDbEntity
  8
0
  6
HIDDEN
 62
     7
370
     0
100
AcDbLine
 10
257.7530031652
 20
161.266374676
 30
0.0
 11
257.6361174868
 21
161.3352256024
 31
0.0
  0
SPLINE
  5
18F
330
1F
100
AcDbEntity
  8
0
  6
HIDDEN
 62
     7
370
     0
100
AcDbSpline
210
0.0
220
0.0
230
1.0
 70
     8
 71
     3
 72
    10
 73
     6
 74
     0
 42
0.000000001
 43
0.00000001
 40
0.0
 40
0.0
 40
0.0
 40
0.0
 40
0.5
 40
0.5
 40
1.0
 40
1.0
 40
1.0
 40
1.0
 10
231.3581450797441
 20
103.153718545707
 30
0.0
 10
231.2625763002035
 20
102.9865731304395
 30
0.0
 10
231.1344185094717
 20
102.7843593358079
 30
0.0
 10
230.8431921095114
 20
102.3458005741024
 30
0.0
 10
230.6805663800359
 20
102.1098234421812
 30
0.0
 10
230.4921196759596
 20
101.8485030944646
 30
0.0
  0
LINE
  5
190
330
1F
100
AcDbEntity
  8
0
  6
HIDDEN
 62
     7
370
     0
100
AcDbLine
 10
251.8661668189
 20
164.7339862883
 30
0.0
 11
251.7492811405
 21
164.8028372146
 31
0.0
  0
LINE
  5
191
330
1F
100
AcDbEntity
  8
0
  6
HIDDEN
 62
     7
370
     0
100
AcDbLine
 10
251.8661668189
 20
164.7339862883
 30
0.0
 11
251.6591669819
 21
160.784194103
 31
0.0
  0
SPLINE
  5
192
330
1F
100
AcDbEntity
  8
0
  6
HIDDEN
 62
     7
370
     0
100
AcDbSpline
210
0.0
220
0.0
230
1.0
 70
     8
 71
     3
 72
    12
 73
     8
 74
     0
 42
0.000000001
 43
0.00000001
 40
0.0
 40
0.0
 40
0.0
 40
0.0
 40
0.25
 40
0.25
 40
0.5000000000000001
 40
0.5000000000000001
 40
1.0
 40
1.0
 40
1.0
 40
1.0
 10
231.4262904541982
 20
155.8532336325419
 30
0.0
 10
231.4053827950644
 20
155.7931052912147
 30
0.0
 10
231.3851878581533
 20
155.7329747800414
 30
0.0
 10
231.3600249456466
 20
155.6126673999948
 30
0.0
 10
231.3552820971744
 20
155.5525088244575
 30
0.0
 10
231.3694208301606
 20
155.3721124878362
 30
0.0
 10
231.4200756439311
 20
155.2519261420256
 30
0.0
 10
231.4580455022487
 20
155.1317158352454
 30
0.0
  0
CIRCLE
  5
193
330
1F
100
AcDbEntity
  8
0
  6
HIDDEN
 62
     7
370
     0
100
AcDbCircle
 10
254.7511858219
 20
163.0346800806
 30
0.0
 40
1.5
  0
LINE
  5
194
330
1F
100
AcDbEntity
  8
0
  6
HIDDEN
 62
     7
370
     0
100
AcDbLine
 10
257.8402892398
 20
167.8117473677
 30
0.0
 11
257.4316759586
 21
168.0524389847
 31
0.0
  0
LINE
  5
195
330
1F
100
AcDbEntity
  8
0
  6
HIDDEN
 62
     7
370
     0
100
AcDbLine
 10
251.857537588
 20
164.5693307536
 30
0.0
 11
257.4316759586
 21
168.0524389847
 31
0.0
  0
LINE
  5
196
330
1F
100
AcDbEntity
  8
0
  6
HIDDEN
 62
     7
370
     0
100
AcDbLine
 10
257.8402892398
 20
167.8117473677
 30
0.0
 11
257.4962900455
 21
161.2478517197
 31
0.0
  0
LINE
  5
197
330
1F
100
AcDbEntity
  8
0
  6
HIDDEN
 62
     7
370
     0
100
AcDbLine
 10
257.4316759586
 20
168.0524389847
 30
0.0
 11
255.8930045333
 21
165.4402932533
 31
0.0
  0
LINE
  5
198
330
1F
100
AcDbEntity
  8
0
  6
HIDDEN
 62
     7
370
     0
100
AcDbLine
 10
256.1784129664
 20
164.9904413094
 30
0.0
 11
257.8402892398
 21
167.8117473677
 31
0.0
  0
LWPOLYLINE
  5
199
330
1F
100
AcDbEntity
  8
0
  6
HIDDEN
 62
     7
370
     0
100
AcDbPolyline
 90
        3
 70
   128
 43
0.0
 10
254.7511858219
 20
162.0096800806
 10
255.1434363401
 20
162.0877035598
 10
255.283128381
 20
162.1585167888
  0
ARC
  5
19A
330
1F
100
AcDbEntity
  8
0
  6
HIDDEN
 62
     7
370
     0
100
AcDbCircle
 10
254.7511858219
 20
163.0346800806
 30
0.0
 40
1.024999999999996
100
AcDbArc
 50
312.0914912848
 51
3.3259579252
  0
ARC
  5
19B
330
1F
100
AcDbEntity
  8
0
  6
HIDDEN
 62
     7
370
     0
100
AcDbCircle
 10
254.7511858219
 20
163.0346800806
 30
0.0
 40
1.025000000000017
100
AcDbArc
 50
13.4485780029
 51
61.0206075023
  0
ARC
  5
19C
330
1F
100
AcDbEntity
  8
0
  6
HIDDEN
 62
     7
370
     0
100
AcDbCircle
 10
254.7511858219
 20
163.0346800806
 30
0.0
 40
1.025000000000023
100
AcDbArc
 50
70.3330906355
 51
121.8182303019
  0
ARC
  5
19D
330
1F
100
AcDbEntity
  8
0
  6
HIDDEN
 62
     7
370
     0
100
AcDbCircle
 10
254.7511858219
 20
163.0346800806
 30
0.0
 40
1.024999999999992
100
AcDbArc
 50
132.8776883617
 51
182.4468651277
  0
ARC
  5
19E
330
1F
100
AcDbEntity
  8
0
  6
HIDDEN
 62
     7
370
     0
100
AcDbCircle
 10
254.7511858219
 20
163.0346800806
 30
0.0
 40
1.025000000000013
100
AcDbArc
 50
193.1490889072
 51
241.1266646981
  0
LINE
  5
19F
330
1F
100
AcDbEntity
  8
0
  6
HIDDEN
 62
     7
370
     0
100
AcDbLine
 10
254.4285221616
 20
162.0617910004
 30
0.0
 11
254.7511858219
 21
162.0096800806
 31
0.0
  0
SPLINE
  5
1A0
330
1F
100
AcDbEntity
  8
0
  6
HIDDEN
 62
     7
370
     0
100
AcDbSpline
210
0.0
220
0.0
230
1.0
 70
     8
 71
     3
 72
    16
 73
    12
 74
     0
 42
0.000000001
 43
0.00000001
 40
0.0
 40
0.0
 40
0.0
 40
0.0
 40
0.2500000000000001
 40
0.2500000000000001
 40
0.3750000000000004
 40
0.3750000000000004
 40
0.5000000000000007
 40
0.5000000000000007
 40
0.7500000000000003
 40
0.7500000000000003
 40
1.0
 40
1.0
 40
1.0
 40
1.0
 10
191.9381263203789
 20
145.4815408323776
 30
0.0
 10
191.7768938428945
 20
145.3835252193228
 30
0.0
 10
191.6564140032548
 20
145.1967891876468
 30
0.0
 10
191.5340334859415
 20
144.7837493800879
 30
0.0
 10
191.5030558255441
 20
144.623748880855
 30
0.0
 10
191.4614420879161
 20
144.2569432297638
 30
0.0
 10
191.4512061749833
 20
144.0536060771398
 30
0.0
 10
191.4510177779272
 20
143.3863188105131
 30
0.0
 10
191.4911624805648
 20
142.8655043466251
 30
0.0
 10
191.6553162355044
 20
141.6681453311474
 30
0.0
 10
191.7768678859139
 20
141.0098756768514
 30
0.0
 10
191.9381263203789
 20
140.2953665036165
 30
0.0
  0
SPLINE
  5
1A1
330
1F
100
AcDbEntity
  8
0
  6
HIDDEN
 62
     7
370
     0
100
AcDbSpline
210
0.0
220
0.0
230
1.0
 70
     8
 71
     3
 72
    16
 73
    12
 74
     0
 42
0.000000001
 43
0.00000001
 40
0.0
 40
0.0
 40
0.0
 40
0.0
 40
0.2500000000000002
 40
0.2500000000000002
 40
0.3750000000000003
 40
0.3750000000000003
 40
0.5000000000000004
 40
0.5000000000000004
 40
0.7500000000000002
 40
0.7500000000000002
 40
1.0
 40
1.0
 40
1.0
 40
1.0
 10
191.9381263203789
 20
107.1275532511344
 30
0.0
 10
191.7768938428945
 20
106.4131590889423
 30
0.0
 10
191.6564140032548
 20
105.7598168262336
 30
0.0
 10
191.5340334859415
 20
104.8715615844297
 30
0.0
 10
191.5030558255441
 20
104.5908810480779
 30
0.0
 10
191.4614420879161
 20
104.0618470582379
 30
0.0
 10
191.4512061749833
 20
103.8185260796594
 30
0.0
 10
191.4510177779272
 20
103.1505033891462
 30
0.0
 10
191.4911624805648
 20
102.7868224797268
 30
0.0
 10
191.6553162355044
 20
102.2269316071784
 30
0.0
 10
191.7768678859139
 20
102.0394103150613
 30
0.0
 10
191.9381263203789
 20
101.9413789223733
 30
0.0
  0
SPLINE
  5
1A2
330
1F
100
AcDbEntity
  8
0
  6
HIDDEN
 62
     7
370
     0
100
AcDbSpline
210
0.0
220
0.0
230
1.0
 70
     8
 71
     3
 72
    12
 73
     8
 74
     0
 42
0.000000001
 43
0.00000001
 40
0.0
 40
0.0
 40
0.0
 40
0.0
 40
0.5
 40
0.5
 40
0.75
 40
0.75
 40
1.0
 40
1.0
 40
1.0
 40
1.0
 10
231.4580455022487
 20
155.1317158352454
 30
0.0
 10
231.5712380221687
 20
154.7733550683707
 30
0.0
 10
231.834183870426
 20
154.4141896234915
 30
0.0
 10
232.4051360888145
 20
153.8744928790516
 30
0.0
 10
232.6239406018438
 20
153.6949019420414
 30
0.0
 10
233.106569771837
 20
153.3369211255532
 30
0.0
 10
233.3704998001884
 20
153.1584023300239
 30
0.0
 10
233.652194338373
 20
152.9802539879312
 30
0.0
  0
SPLINE
  5
1A3
330
1F
100
AcDbEntity
  8
0
  6
HIDDEN
 62
     7
370
     0
100
AcDbSpline
210
0.0
220
0.0
230
1.0
 70
     8
 71
     3
 72
    12
 73
     8
 74
     0
 42
0.000000001
 43
0.00000001
 40
0.0
 40
0.0
 40
0.0
 40
0.0
 40
0.4999999999999999
 40
0.4999999999999999
 40
0.7499999999999999
 40
0.7499999999999999
 40
1.0
 40
1.0
 40
1.0
 40
1.0
 10
232.9303576053383
 20
143.7114598773754
 30
0.0
 10
233.0615344069534
 20
145.3571415761069
 30
0.0
 10
233.186843947154
 20
146.9517549774279
 30
0.0
 10
233.3670522392104
 20
149.2692220539207
 30
0.0
 10
233.4258230598898
 20
150.0292488465432
 30
0.0
 10
233.5408775046062
 20
151.5241047424606
 30
0.0
 10
233.5972713706996
 20
152.2603821575341
 30
0.0
 10
233.652194338373
 20
152.9802539879312
 30
0.0
  0
ELLIPSE
  5
1A4
330
1F
100
AcDbEntity
  8
0
  6
HIDDEN
 62
     7
370
     0
100
AcDbEllipse
 10
315.678545317
 20
134.7206322967
 30
0.0
 11
60.25765048512773
 21
-33.11195152140263
 31
0.0
210
0.0
220
0.0
230
1.0
 40
0.1281167984
 41
3.355419699016993
 42
3.385353610352665
  0
SPLINE
  5
1A5
330
1F
100
AcDbEntity
  8
0
  6
HIDDEN
 62
     7
370
     0
100
AcDbSpline
210
0.0
220
0.0
230
1.0
 70
     8
 71
     3
 72
    12
 73
     8
 74
     0
 42
0.000000001
 43
0.00000001
 40
0.0
 40
0.0
 40
0.0
 40
0.0
 40
0.2499999999999991
 40
0.2499999999999991
 40
0.4999999999999982
 40
0.4999999999999982
 40
1.0
 40
1.0
 40
1.0
 40
1.0
 10
237.2234769658333
 20
152.9802539879312
 30
0.0
 10
237.5578993159747
 20
152.9802539879312
 30
0.0
 10
237.8870024409263
 20
153.0058122626589
 30
0.0
 10
238.5349515916107
 20
153.1059612973007
 30
0.0
 10
238.8552604595835
 20
153.1810362780033
 30
0.0
 10
239.7908347186151
 20
153.4782865249013
 30
0.0
 10
240.3544558008099
 20
153.7615340101471
 30
0.0
 10
240.8644472948293
 20
154.1158406145292
 30
0.0
  0
ELLIPSE
  5
1A6
330
1F
100
AcDbEntity
  8
0
  6
HIDDEN
 62
     7
370
     0
100
AcDbEllipse
 10
203.3551996519
 20
134.7206322967
 30
0.0
 11
54.93561949849143
 21
33.81563477288853
 31
0.0
210
0.0
220
0.0
230
1.0
 40
0.0643650922
 41
5.423625848023025
 42
5.944487692967341
  0
LINE
  5
1A7
330
1F
100
AcDbEntity
  8
0
  6
HIDDEN
 62
     7
370
     0
100
AcDbLine
 10
233.6521943384
 20
152.9802539879
 30
0.0
 11
237.2234769658
 21
152.9802539879
 31
0.0
  0
ELLIPSE
  5
1A8
330
1F
100
AcDbEntity
  8
0
  6
HIDDEN
 62
     7
370
     0
100
AcDbEllipse
 10
256.4957828237
 20
134.7206322967
 30
0.0
 11
1.809099503190452
 21
33.99927643002292
 31
0.0
210
0.0
220
0.0
230
1.0
 40
0.1226111485
 41
0.479342074443904
 42
1.309701199271841
  0
LINE
  5
1A9
330
1F
100
AcDbEntity
  8
0
  6
HIDDEN
 62
     7
370
     0
100
AcDbLine
 10
193.0594466639
 20
130.7333472031
 30
0.0
 11
193.0594466639
 21
116.6895725516
 31
0.0
  0
SPLINE
  5
1AA
330
1F
100
AcDbEntity
  8
0
  6
HIDDEN
 62
     7
370
     0
100
AcDbSpline
210
0.0
220
0.0
230
1.0
 70
     8
 71
     3
 72
    24
 73
    20
 74
     0
 42
0.000000001
 43
0.00000001
 40
0.0
 40
0.0
 40
0.0
 40
0.0
 40
0.125
 40
0.125
 40
0.25
 40
0.25
 40
0.375
 40
0.375
 40
0.4375
 40
0.4375
 40
0.5
 40
0.5
 40
0.625
 40
0.625
 40
0.75
 40
0.75
 40
0.875
 40
0.875
 40
1.0
 40
1.0
 40
1.0
 40
1.0
 10
161.7094466639386
 20
119.6254988242762
 30
0.0
 10
161.9472502962137
 20
119.9245059266063
 30
0.0
 10
162.177335957425
 20
120.2288437779251
 30
0.0
 10
162.6120893560348
 20
120.8545773153211
 30
0.0
 10
162.8170221483209
 20
121.1758020426486
 30
0.0
 10
163.1821240988197
 20
121.8477278133813
 30
0.0
 10
163.3439244846112
 20
122.2030430452602
 30
0.0
 10
163.5157846891909
 20
122.7532742666126
 30
0.0
 10
163.561369880851
 20
122.9396780515931
 30
0.0
 10
163.6238446204259
 20
123.3198125536894
 30
0.0
 10
163.6405157661743
 20
123.5154823459752
 30
0.0
 10
163.6410368093508
 20
124.0939627246497
 30
0.0
 10
163.5765945084641
 20
124.4718745636185
 30
0.0
 10
163.3467454150908
 20
125.2138425887169
 30
0.0
 10
163.1882247374277
 20
125.5625580488778
 30
0.0
 10
162.8239904075275
 20
126.235650446611
 30
0.0
 10
162.6172541674639
 20
126.5606029338526
 30
0.0
 10
162.1793162217236
 20
127.1915267443144
 30
0.0
 10
161.948043494444
 20
127.4974164846551
 30
0.0
 10
161.7094466639387
 20
127.7974209304746
 30
0.0
  0
LINE
  5
1AB
330
1F
100
AcDbEntity
  8
0
  6
HIDDEN
 62
     7
370
     0
100
AcDbLine
 10
161.7094466639
 20
119.6254988243
 30
0.0
 11
161.7094466639
 21
127.7974209305
 31
0.0
  0
SPLINE
  5
1AC
330
1F
100
AcDbEntity
  8
0
  6
HIDDEN
 62
     7
370
     0
100
AcDbSpline
210
0.0
220
0.0
230
1.0
 70
     8
 71
     3
 72
     8
 73
     4
 74
     0
 42
0.000000001
 43
0.00000001
 40
0.0000249638557296
 40
0.0000249638557296
 40
0.0000249638557296
 40
0.0000249638557296
 40
0.0049776420541172
 40
0.0049776420541172
 40
0.0049776420541172
 40
0.0049776420541172
 10
156.7594466639386
 20
119.7462489805389
 30
0.0
 10
158.4094228984481
 20
119.7049697427707
 30
0.0
 10
160.0594242181932
 20
119.6647480615312
 30
0.0
 10
161.7094466639386
 20
119.6254988242762
 30
0.0
  0
SPLINE
  5
1AD
330
1F
100
AcDbEntity
  8
0
  6
HIDDEN
 62
     7
370
     0
100
AcDbSpline
210
0.0
220
0.0
230
1.0
 70
     8
 71
     3
 72
     8
 73
     4
 74
     0
 42
0.000000001
 43
0.00000001
 40
0.0000249631533153
 40
0.0000249631533153
 40
0.0000249631533153
 40
0.0000249631533153
 40
0.0049776413517029
 40
0.0049776413517029
 40
0.0049776413517029
 40
0.0049776413517029
 10
161.7094466639386
 20
127.7974209304747
 30
0.0
 10
160.0594242181932
 20
127.7581716932197
 30
0.0
 10
158.4094228984481
 20
127.7179500119802
 30
0.0
 10
156.7594466639386
 20
127.676670774212
 30
0.0
  0
SPLINE
  5
1AE
330
1F
100
AcDbEntity
  8
0
  6
HIDDEN
 62
     7
370
     0
100
AcDbSpline
210
0.0
220
0.0
230
1.0
 70
     8
 71
     3
 72
     8
 73
     4
 74
     0
 42
0.000000001
 43
0.00000001
 40
0.0
 40
0.0
 40
0.0
 40
0.0
 40
1.0
 40
1.0
 40
1.0
 40
1.0
 10
155.2594466639364
 20
120.8094725443951
 30
0.0
 10
155.7262072753142
 20
120.3941092987721
 30
0.0
 10
156.2319548220942
 20
120.0495188694675
 30
0.0
 10
156.7594466639386
 20
119.7462489805389
 30
0.0
  0
SPLINE
  5
1AF
330
1F
100
AcDbEntity
  8
0
  6
HIDDEN
 62
     7
370
     0
100
AcDbSpline
210
0.0
220
0.0
230
1.0
 70
     8
 71
     3
 72
     8
 73
     4
 74
     0
 42
0.000000001
 43
0.00000001
 40
0.0
 40
0.0
 40
0.0
 40
0.0
 40
1.0
 40
1.0
 40
1.0
 40
1.0
 10
156.7594466639386
 20
127.676670774212
 30
0.0
 10
156.2319548220951
 20
127.3734008852839
 30
0.0
 10
155.7262072753158
 20
127.0288104559799
 30
0.0
 10
155.2594466639386
 20
126.6134472103578
 30
0.0
  0
SPLINE
  5
1B0
330
1F
100
AcDbEntity
  8
0
  6
HIDDEN
 62
     7
370
     0
100
AcDbSpline
210
0.0
220
0.0
230
1.0
 70
     8
 71
     3
 72
     9
 73
     5
 74
     0
 42
0.000000001
 43
0.00000001
 40
0.0
 40
0.0
 40
0.0
 40
0.0
 40
0.8219253371481392
 40
1.0
 40
1.0
 40
1.0
 40
1.0
 10
174.5706080927008
 20
126.3574714274328
 30
0.0
 10
174.8606782503735
 20
126.6599626632787
 30
0.0
 10
175.2135937094336
 20
127.0279902956855
 30
0.0
 10
175.6819832405517
 20
127.2016633228368
 30
0.0
 10
175.7653915483889
 20
127.2325900885933
 30
0.0
  0
SPLINE
  5
1B1
330
1F
100
AcDbEntity
  8
0
  6
HIDDEN
 62
     7
370
     0
100
AcDbSpline
210
0.0
220
0.0
230
1.0
 70
     8
 71
     3
 72
    18
 73
    14
 74
     0
 42
0.000000001
 43
0.00000001
 40
0.0
 40
0.0
 40
0.0
 40
0.0
 40
0.018232711804485
 40
0.1442292917648184
 40
0.2698971060280963
 40
0.329594148366701
 40
0.3912833980117513
 40
0.5036975477547184
 40
0.6090089431268112
 40
0.7130087229813366
 40
0.8215371206775309
 40
0.9376285483422897
 40
1.0
 40
1.0
 40
1.0
 40
1.0
 10
178.1228555383801
 20
127.7422588063252
 30
0.0
 10
178.1967234706409
 20
127.7479615814755
 30
0.0
 10
178.7810534193813
 20
127.7930732044663
 30
0.0
 10
179.8549144670789
 20
127.3937021073757
 30
0.0
 10
180.906805167036
 20
126.6871749116179
 30
0.0
 10
181.5451583837646
 20
125.9086862187109
 30
0.0
 10
182.0085432760145
 20
125.0792425815523
 30
0.0
 10
182.2813896044855
 20
123.9514002252143
 30
0.0
 10
182.1268458095061
 20
122.6314652700014
 30
0.0
 10
181.5597653289666
 20
121.4474366778963
 30
0.0
 10
180.619290641625
 20
120.4925913731981
 30
0.0
 10
179.5867946953669
 20
119.8831601424412
 30
0.0
 10
178.864623135333
 20
119.7961072451484
 30
0.0
 10
178.6122295355198
 20
119.7656829037067
 30
0.0
  0
SPLINE
  5
1B2
330
1F
100
AcDbEntity
  8
0
  6
HIDDEN
 62
     7
370
     0
100
AcDbSpline
210
0.0
220
0.0
230
1.0
 70
     8
 71
     3
 72
    13
 73
     9
 74
     0
 42
0.000000001
 43
0.00000001
 40
0.0
 40
0.0
 40
0.0
 40
0.0
 40
0.0578531435235554
 40
0.2744086547729883
 40
0.4786974627857918
 40
0.6706845611597062
 40
0.8574929594314862
 40
1.0
 40
1.0
 40
1.0
 40
1.0
 10
175.3818583382231
 20
120.436884697429
 30
0.0
 10
175.2641327585802
 20
120.4968863150298
 30
0.0
 10
174.7057375535036
 20
120.7814855980981
 30
0.0
 10
174.0203642580309
 20
121.6951033927074
 30
0.0
 10
173.5057181960871
 20
123.0058561818788
 30
0.0
 10
173.5121382438291
 20
124.3628409320432
 30
0.0
 10
173.9005986469653
 20
125.5130305307683
 30
0.0
 10
174.3682415937914
 20
126.1024204742238
 30
0.0
 10
174.5706080927007
 20
126.3574714274329
 30
0.0
  0
LINE
  5
1B3
330
1F
100
AcDbEntity
  8
0
  6
HIDDEN
 62
     7
370
     0
100
AcDbLine
 10
231.3581450797
 20
103.1537185457
 30
0.0
 11
231.3581450797
 21
125.5410352735
 31
0.0
  0
ELLIPSE
  5
1B4
330
1F
100
AcDbEntity
  8
0
  6
HIDDEN
 62
     7
370
     0
100
AcDbEllipse
 10
251.8607849721
 20
123.7114598774
 30
0.0
 11
27.23177719365469
 21
31.9357344949873
 31
0.0
210
0.0
220
0.0
230
1.0
 40
0.074436305
 41
1.576978116749029
 42
2.331847747820681
  0
CIRCLE
  5
1B5
330
1F
100
AcDbEntity
  8
0
  6
HIDDEN
 62
     7
370
     0
100
AcDbCircle
 10
205.2594466639
 20
123.7114598774
 30
0.0
 40
2.0
  0
LINE
  5
1B6
330
1F
100
AcDbEntity
  8
0
  6
HIDDEN
 62
     7
370
     0
100
AcDbLine
 10
231.3581450797
 20
125.5410352735
 30
0.0
 11
249.3153122661
 21
125.5410352735
 31
0.0
  0
SPLINE
  5
1B7
330
1F
100
AcDbEntity
  8
0
  6
HIDDEN
 62
     7
370
     0
100
AcDbSpline
210
0.0
220
0.0
230
1.0
 70
     8
 71
     3
 72
     8
 73
     4
 74
     0
 42
0.000000001
 43
0.00000001
 40
0.000000211306661
 40
0.000000211306661
 40
0.000000211306661
 40
0.000000211306661
 40
0.0001989852347825
 40
0.0001989852347825
 40
0.0001989852347825
 40
0.0001989852347825
 10
231.358145079744
 20
125.5410352735213
 30
0.0
 10
231.3703497796076
 20
125.6037410222857
 30
0.0
 10
231.3815614040291
 20
125.6666829562839
 30
0.0
 10
231.3918669276173
 20
125.7298047159886
 30
0.0
  0
ELLIPSE
  5
1B8
330
1F
100
AcDbEntity
  8
0
  6
HIDDEN
 62
     7
370
     0
100
AcDbEllipse
 10
261.2600103758
 20
134.7206322967
 30
0.0
 11
28.93376326825808
 21
33.93171790092407
 31
0.0
210
0.0
220
0.0
230
1.0
 40
0.074436305
 41
1.901802710170216
 42
1.907564265253824
  0
LINE
  5
1B9
330
1F
100
AcDbEntity
  8
0
  6
HIDDEN
 62
     7
370
     0
100
AcDbLine
 10
231.3918669276
 20
125.729804716
 30
0.0
 11
249.4680403886
 21
125.729804716
 31
0.0
  0
LINE
  5
1BA
330
1F
100
AcDbEntity
  8
0
  6
HIDDEN
 62
     7
370
     0
100
AcDbLine
 10
232.9303576053
 20
143.7114598774
 30
0.0
 11
252.9353769425
 21
143.7114598774
 31
0.0
  0
SPLINE
  5
1BB
330
1F
100
AcDbEntity
  8
0
  6
HIDDEN
 62
     7
370
     0
100
AcDbSpline
210
0.0
220
0.0
230
1.0
 70
     8
 71
     3
 72
    10
 73
     6
 74
     0
 42
0.000000001
 43
0.00000001
 40
0.0
 40
0.0
 40
0.0
 40
0.0
 40
0.5
 40
0.5
 40
1.0
 40
1.0
 40
1.0
 40
1.0
 10
231.4580455022487
 20
127.6476699030784
 30
0.0
 10
231.5459295601529
 20
130.3341914431142
 30
0.0
 10
231.7231878230569
 20
133.0154792664243
 30
0.0
 10
232.2261972951162
 20
138.3693592271201
 30
0.0
 10
232.5512589930546
 20
141.0419917419994
 30
0.0
 10
232.9303576053383
 20
143.7114598773754
 30
0.0
  0
SPLINE
  5
1BC
330
1F
100
AcDbEntity
  8
0
  6
HIDDEN
 62
     7
370
     0
100
AcDbSpline
210
0.0
220
0.0
230
1.0
 70
     8
 71
     3
 72
    10
 73
     6
 74
     0
 42
0.000000001
 43
0.00000001
 40
0.0
 40
0.0
 40
0.0
 40
0.0
 40
0.5
 40
0.5
 40
1.0
 40
1.0
 40
1.0
 40
1.0
 10
231.3918669276174
 20
125.7298047159886
 30
0.0
 10
231.4016273796542
 20
126.0494815488705
 30
0.0
 10
231.4128861656693
 20
126.3691198583308
 30
0.0
 10
231.4358691320604
 20
127.0083845115726
 30
0.0
 10
231.4475885142814
 20
127.3280109787187
 30
0.0
 10
231.4580455022487
 20
127.6476699030784
 30
0.0
  0
LINE
  5
1BD
330
1F
100
AcDbEntity
  8
0
  6
HIDDEN
 62
     7
370
     0
100
AcDbLine
 10
252.9353769425
 20
143.7114598774
 30
0.0
 11
252.1600424595
 21
128.9171966285
 31
0.0
  0
LINE
  5
1BE
330
1F
100
AcDbEntity
  8
0
  6
HIDDEN
 62
     7
370
     0
100
AcDbLine
 10
252.1600424595
 20
128.9171966285
 30
0.0
 11
249.4680403886
 21
125.729804716
 31
0.0
  0
LINE
  5
1BF
330
1F
100
AcDbEntity
  8
0
  6
HIDDEN
 62
     7
370
     0
100
AcDbLine
 10
215.2594466639
 20
141.2724718305
 30
0.0
 11
215.2594466639
 21
141.5879388704
 31
0.0
  0
LINE
  5
1C0
330
1F
100
AcDbEntity
  8
0
  6
HIDDEN
 62
     7
370
     0
100
AcDbLine
 10
209.2594466639
 20
141.5879388704
 30
0.0
 11
209.2594466639
 21
141.2724718305
 31
0.0
  0
LINE
  5
1C1
330
1F
100
AcDbEntity
  8
0
  6
HIDDEN
 62
     7
370
     0
100
AcDbLine
 10
214.7594466639
 20
138.8825942973
 30
0.0
 11
214.7594466639
 21
141.6682395715
 31
0.0
  0
LINE
  5
1C2
330
1F
100
AcDbEntity
  8
0
  6
HIDDEN
 62
     7
370
     0
100
AcDbLine
 10
209.7594466639
 20
141.6682395715
 30
0.0
 11
209.7594466639
 21
138.8825942973
 31
0.0
  0
LINE
  5
1C3
330
1F
100
AcDbEntity
  8
0
  6
HIDDEN
 62
     7
370
     0
100
AcDbLine
 10
209.7735035
 20
139.8968605111
 30
0.0
 11
209.9392330443
 21
139.6958936593
 31
0.0
  0
LINE
  5
1C4
330
1F
100
AcDbEntity
  8
0
  6
HIDDEN
 62
     7
370
     0
100
AcDbLine
 10
214.5796602836
 20
139.6958936593
 30
0.0
 11
214.7453898279
 21
139.8968605111
 31
0.0
  0
LINE
  5
1C5
330
1F
100
AcDbEntity
  8
0
  6
HIDDEN
 62
     7
370
     0
100
AcDbLine
 10
209.7735035
 20
139.50109277
 30
0.0
 11
209.9392330443
 21
139.3001259182
 31
0.0
  0
LINE
  5
1C6
330
1F
100
AcDbEntity
  8
0
  6
HIDDEN
 62
     7
370
     0
100
AcDbLine
 10
214.5796602836
 20
139.3001259182
 30
0.0
 11
214.7453898279
 21
139.50109277
 31
0.0
  0
LINE
  5
1C7
330
1F
100
AcDbEntity
  8
0
  6
HIDDEN
 62
     7
370
     0
100
AcDbLine
 10
209.7735035
 20
139.1053250289
 30
0.0
 11
209.9392330443
 21
138.9043581771
 31
0.0
  0
LINE
  5
1C8
330
1F
100
AcDbEntity
  8
0
  6
HIDDEN
 62
     7
370
     0
100
AcDbLine
 10
214.5796602836
 20
138.9043581771
 30
0.0
 11
214.7453898279
 21
139.1053250289
 31
0.0
  0
LINE
  5
1C9
330
1F
100
AcDbEntity
  8
0
  6
HIDDEN
 62
     7
370
     0
100
AcDbLine
 10
209.7735035
 20
138.7095572878
 30
0.0
 11
209.9392330443
 21
138.508590436
 31
0.0
  0
LINE
  5
1CA
330
1F
100
AcDbEntity
  8
0
  6
HIDDEN
 62
     7
370
     0
100
AcDbLine
 10
214.5796602836
 20
138.508590436
 30
0.0
 11
214.7453898279
 21
138.7095572878
 31
0.0
  0
LINE
  5
1CB
330
1F
100
AcDbEntity
  8
0
  6
HIDDEN
 62
     7
370
     0
100
AcDbLine
 10
215.2594466639
 20
138.1120656662
 30
0.0
 11
215.2594466639
 21
139.6894008661
 31
0.0
  0
LINE
  5
1CC
330
1F
100
AcDbEntity
  8
0
  6
HIDDEN
 62
     7
370
     0
100
AcDbLine
 10
209.2594466639
 20
139.6894008661
 30
0.0
 11
209.2594466639
 21
138.1120656662
 31
0.0
  0
ARC
  5
1CD
330
1F
100
AcDbEntity
  8
0
  6
HIDDEN
 62
     7
370
     0
100
AcDbCircle
 10
212.2594466639
 20
139.7180796879
 30
0.0
 40
2.500000000000005
100
AcDbArc
 50
154.6081678764
 51
25.3918321235
  0
CIRCLE
  5
1CE
330
1F
100
AcDbEntity
  8
0
  6
HIDDEN
 62
     7
370
     0
100
AcDbCircle
 10
254.7511858219
 20
163.0346800806
 30
0.0
 40
1.170828554429926
  0
LINE
  5
1CF
330
1F
100
AcDbEntity
  8
0
  6
HIDDEN
 62
     7
370
     0
100
AcDbLine
 10
209.2594466639
 20
141.7790932391
 30
0.0
 11
209.2594466639
 21
138.0508707862
 31
0.0
  0
LINE
  5
1D0
330
1F
100
AcDbEntity
  8
0
  6
HIDDEN
 62
     7
370
     0
100
AcDbLine
 10
215.2594466639
 20
138.0508707862
 30
0.0
 11
215.2594466639
 21
141.7789878378
 31
0.0
  0
LINE
  5
1D1
330
1F
100
AcDbEntity
  8
0
  6
HIDDEN
 62
     7
370
     0
100
AcDbLine
 10
193.2594466639
 20
99.4614598774
 30
0.0
 11
193.3523398828
 21
99.5543530962
 31
0.0
  0
LINE
  5
1D2
330
1F
100
AcDbEntity
  8
0
  6
HIDDEN
 62
     7
370
     0
100
AcDbLine
 10
193.3523398828
 20
147.8685666586
 30
0.0
 11
193.2594466639
 21
147.9614598774
 31
0.0
  0
ARC
  5
1D3
330
1F
100
AcDbEntity
  8
0
  6
HIDDEN
 62
     7
370
     0
100
AcDbCircle
 10
192.6452331016
 20
100.2614598774
 30
0.0
 40
1.0
100
AcDbArc
 50
315.0
 51
0.0
  0
ARC
  5
1D4
330
1F
100
AcDbEntity
  8
0
  6
HIDDEN
 62
     7
370
     0
100
AcDbCircle
 10
192.6452331016
 20
100.2614598774
 30
0.0
 40
1.0
100
AcDbArc
 50
0.0
 51
52.1052014664
  0
ARC
  5
1D5
330
1F
100
AcDbEntity
  8
0
  6
HIDDEN
 62
     7
370
     0
100
AcDbCircle
 10
192.6452331016
 20
147.1614598774
 30
0.0
 40
1.000000000000008
100
AcDbArc
 50
351.8087250651
 51
45.0
  0
ARC
  5
1D6
330
1F
100
AcDbEntity
  8
0
  6
HIDDEN
 62
     7
370
     0
100
AcDbCircle
 10
192.6452331016
 20
147.1614598774
 30
0.0
 40
0.9999999999999815
100
AcDbArc
 50
307.8947985336
 51
351.8087250651
  0
LINE
  5
1D7
330
1F
100
AcDbEntity
  8
0
  6
HIDDEN
 62
     7
370
     0
100
AcDbLine
 10
193.6452331016
 20
100.2614598774
 30
0.0
 11
193.6452331016
 21
147.1614598774
 31
0.0
  0
LINE
  5
1D8
330
1F
100
AcDbEntity
  8
0
  6
HIDDEN
 62
     7
370
     0
100
AcDbLine
 10
209.7594466639
 20
137.9464884112
 30
0.0
 11
209.7594466639
 21
128.8722427798
 31
0.0
  0
LINE
  5
1D9
330
1F
100
AcDbEntity
  8
0
  6
HIDDEN
 62
     7
370
     0
100
AcDbLine
 10
214.7594466639
 20
137.2184357321
 30
0.0
 11
214.7594466639
 21
137.9464884112
 31
0.0
  0
LINE
  5
1DA
330
1F
100
AcDbEntity
  8
0
  6
HIDDEN
 62
     7
370
     0
100
AcDbLine
 10
214.7594466639
 20
128.8725463485
 30
0.0
 11
214.7594466639
 21
134.9743430785
 31
0.0
  0
LINE
  5
1DB
330
1F
100
AcDbEntity
  8
0
  6
HIDDEN
 62
     7
370
     0
100
AcDbLine
 10
221.5727609013
 20
145.7009309447
 30
0.0
 11
211.7930711621
 21
138.7492957853
 31
0.0
  0
LINE
  5
1DC
330
1F
100
AcDbEntity
  8
0
  6
HIDDEN
 62
     7
370
     0
100
AcDbLine
 10
214.5549056771
 20
134.5780002703
 30
0.0
 11
221.2424974916
 21
139.3316989693
 31
0.0
  0
LINE
  5
1DD
330
1F
100
AcDbEntity
  8
0
  6
HIDDEN
 62
     7
370
     0
100
AcDbLine
 10
155.2594466639
 20
107.5150310329
 30
0.0
 11
156.7896751036
 21
108.3985088345
 31
0.0
  0
LINE
  5
1DE
330
1F
100
AcDbEntity
  8
0
  6
HIDDEN
 62
     7
370
     0
100
AcDbLine
 10
156.7896751036
 20
139.0244109203
 30
0.0
 11
155.2594466639
 21
139.9078887218
 31
0.0
  0
ARC
  5
1DF
330
1F
100
AcDbEntity
  8
0
  6
HIDDEN
 62
     7
370
     0
100
AcDbCircle
 10
166.2612479788
 20
109.7114598774
 30
0.0
 40
2.000000000000014
100
AcDbArc
 50
270.0
 51
315.0
  0
ARC
  5
1E0
330
1F
100
AcDbEntity
  8
0
  6
HIDDEN
 62
     7
370
     0
100
AcDbCircle
 10
166.2612479788
 20
137.7114598774
 30
0.0
 40
2.000000000000028
100
AcDbArc
 50
45.0
 51
90.0
  0
LINE
  5
1E1
330
1F
100
AcDbEntity
  8
0
  6
HIDDEN
 62
     7
370
     0
100
AcDbLine
 10
165.2594466639
 20
107.7114598774
 30
0.0
 11
166.2612479788
 21
107.7114598774
 31
0.0
  0
LINE
  5
1E2
330
1F
100
AcDbEntity
  8
0
  6
HIDDEN
 62
     7
370
     0
100
AcDbLine
 10
166.2612479788
 20
139.7114598774
 30
0.0
 11
165.2594466639
 21
139.7114598774
 31
0.0
  0
ARC
  5
1E3
330
1F
100
AcDbEntity
  8
0
  6
HIDDEN
 62
     7
370
     0
100
AcDbCircle
 10
165.2594466639
 20
109.7114598774
 30
0.0
 40
2.000000000000029
100
AcDbArc
 50
189.9742217944
 51
270.0
  0
ARC
  5
1E4
330
1F
100
AcDbEntity
  8
0
  6
HIDDEN
 62
     7
370
     0
100
AcDbCircle
 10
165.2594466639
 20
137.7114598774
 30
0.0
 40
2.000000000000036
100
AcDbArc
 50
90.0
 51
170.0257782056
  0
LINE
  5
1E5
330
1F
100
AcDbEntity
  8
0
  6
HIDDEN
 62
     7
370
     0
100
AcDbLine
 10
167.6754615412
 20
108.297246315
 30
0.0
 11
169.0896751036
 21
109.7114598774
 31
0.0
  0
LINE
  5
1E6
330
1F
100
AcDbEntity
  8
0
  6
HIDDEN
 62
     7
370
     0
100
AcDbLine
 10
169.0896751036
 20
137.7114598774
 30
0.0
 11
167.6754615412
 21
139.1256734397
 31
0.0
  0
LINE
  5
1E7
330
1F
100
AcDbEntity
  8
0
  6
HIDDEN
 62
     7
370
     0
100
AcDbLine
 10
156.7896751036
 20
108.3985088345
 30
0.0
 11
161.6896751036
 21
109.7114598774
 31
0.0
  0
LINE
  5
1E8
330
1F
100
AcDbEntity
  8
0
  6
HIDDEN
 62
     7
370
     0
100
AcDbLine
 10
161.6896751036
 20
137.7114598774
 30
0.0
 11
156.7896751036
 21
139.0244109203
 31
0.0
  0
LINE
  5
1E9
330
1F
100
AcDbEntity
  8
0
  6
HIDDEN
 62
     7
370
     0
100
AcDbLine
 10
163.2896751036
 20
138.0578700389
 30
0.0
 11
162.6896751036
 21
137.7114598774
 31
0.0
  0
LINE
  5
1EA
330
1F
100
AcDbEntity
  8
0
  6
HIDDEN
 62
     7
370
     0
100
AcDbLine
 10
162.6896751036
 20
109.7114598774
 30
0.0
 11
163.2896751036
 21
109.3650497159
 31
0.0
  0
ARC
  5
1EB
330
1F
100
AcDbEntity
  8
0
  6
HIDDEN
 62
     7
370
     0
100
AcDbCircle
 10
181.7594466639
 20
110.2114598774
 30
0.0
 40
0.5000000000000284
100
AcDbArc
 50
270.0
 51
0.0
  0
ARC
  5
1EC
330
1F
100
AcDbEntity
  8
0
  6
HIDDEN
 62
     7
370
     0
100
AcDbCircle
 10
181.7594466639
 20
137.2114598774
 30
0.0
 40
0.5000000000000284
100
AcDbArc
 50
0.0
 51
90.0
  0
LINE
  5
1ED
330
1F
100
AcDbEntity
  8
0
  6
HIDDEN
 62
     7
370
     0
100
AcDbLine
 10
169.0896751036
 20
109.7114598774
 30
0.0
 11
181.7594466639
 21
109.7114598774
 31
0.0
  0
LINE
  5
1EE
330
1F
100
AcDbEntity
  8
0
  6
HIDDEN
 62
     7
370
     0
100
AcDbLine
 10
181.7594466639
 20
137.7114598774
 30
0.0
 11
169.0896751036
 21
137.7114598774
 31
0.0
  0
LINE
  5
1EF
330
1F
100
AcDbEntity
  8
0
  6
HIDDEN
 62
     7
370
     0
100
AcDbLine
 10
161.6896751036
 20
109.7114598774
 30
0.0
 11
162.6896751036
 21
109.7114598774
 31
0.0
  0
LINE
  5
1F0
330
1F
100
AcDbEntity
  8
0
  6
HIDDEN
 62
     7
370
     0
100
AcDbLine
 10
162.6896751036
 20
137.7114598774
 30
0.0
 11
161.6896751036
 21
137.7114598774
 31
0.0
  0
LINE
  5
1F1
330
1F
100
AcDbEntity
  8
0
  6
HIDDEN
 62
     7
370
     0
100
AcDbLine
 10
182.2594466639
 20
113.4614598774
 30
0.0
 11
183.5094466639
 21
114.7114598774
 31
0.0
  0
LINE
  5
1F2
330
1F
100
AcDbEntity
  8
0
  6
HIDDEN
 62
     7
370
     0
100
AcDbLine
 10
183.5094466639
 20
132.7114598774
 30
0.0
 11
182.2594466639
 21
133.9614598774
 31
0.0
  0
LINE
  5
1F3
330
1F
100
AcDbEntity
  8
0
  6
HIDDEN
 62
     7
370
     0
100
AcDbLine
 10
183.5094466639
 20
114.7114598774
 30
0.0
 11
220.2594466639
 21
114.7114598774
 31
0.0
  0
LINE
  5
1F4
330
1F
100
AcDbEntity
  8
0
  6
HIDDEN
 62
     7
370
     0
100
AcDbLine
 10
220.2594466639
 20
132.7114598774
 30
0.0
 11
183.5094466639
 21
132.7114598774
 31
0.0
  0
LINE
  5
1F5
330
1F
100
AcDbEntity
  8
0
  6
HIDDEN
 62
     7
370
     0
100
AcDbLine
 10
220.2594466639
 20
114.7114598774
 30
0.0
 11
223.5351787723
 21
123.7114598774
 31
0.0
  0
LINE
  5
1F6
330
1F
100
AcDbEntity
  8
0
  6
HIDDEN
 62
     7
370
     0
100
AcDbLine
 10
223.5351787723
 20
123.7114598774
 30
0.0
 11
220.2594466639
 21
132.7114598774
 31
0.0
  0
CIRCLE
  5
1F7
330
1F
100
AcDbEntity
  8
0
  6
HIDDEN
 62
     7
370
     0
100
AcDbCircle
 10
254.7511858219
 20
163.0346800806
 30
0.0
 40
1.211020933294627
  0
LINE
  5
1F8
330
1F
100
AcDbEntity
  8
0
  6
HIDDEN
 62
     7
370
     0
100
AcDbLine
 10
251.3741004702
 20
157.9656423733
 30
0.0
 11
251.3541278795
 21
157.9666890924
 31
0.0
  0
LINE
  5
1F9
330
1F
100
AcDbEntity
  8
0
  6
HIDDEN
 62
     7
370
     0
100
AcDbLine
 10
251.9549490138
 20
157.6234964334
 30
0.0
 11
251.9655473991
 21
157.6065354715
 31
0.0
  0
LINE
  5
1FA
330
1F
100
AcDbEntity
  8
0
  6
HIDDEN
 62
     7
370
     0
100
AcDbLine
 10
257.60698413
 20
161.5304757642
 30
0.0
 11
257.8988108977
 21
161.5151817713
 31
0.0
  0
LINE
  5
1FB
330
1F
100
AcDbEntity
  8
0
  6
HIDDEN
 62
     7
370
     0
100
AcDbLine
 10
257.5564699375
 20
161.4447196826
 30
0.0
 11
257.7113267895
 21
161.1968969154
 31
0.0
  0
LINE
  5
1FC
330
1F
100
AcDbEntity
  8
0
  6
HIDDEN
 62
     7
370
     0
100
AcDbLine
 10
252.0510605899
 20
164.8031648371
 30
0.0
 11
251.896203738
 21
165.0509876043
 31
0.0
  0
LINE
  5
1FD
330
1F
100
AcDbEntity
  8
0
  6
HIDDEN
 62
     7
370
     0
100
AcDbLine
 10
252.0005463974
 20
164.7174087555
 30
0.0
 11
251.7087196298
 21
164.7327027483
 31
0.0
  0
LINE
  5
1FE
330
1F
100
AcDbEntity
  8
0
  6
HIDDEN
 62
     7
370
     0
100
AcDbLine
 10
258.2334300573
 20
168.2822421463
 30
0.0
 11
258.253402648
 21
168.2811954272
 31
0.0
  0
LINE
  5
1FF
330
1F
100
AcDbEntity
  8
0
  6
HIDDEN
 62
     7
370
     0
100
AcDbLine
 10
257.6525815137
 20
168.6243880862
 30
0.0
 11
257.6419831284
 21
168.6413490482
 31
0.0
  0
LINE
  5
200
330
1F
100
AcDbEntity
  8
0
  6
HIDDEN
 62
     7
370
     0
100
AcDbLine
 10
230.492119676
 20
155.2100312736
 30
0.0
 11
230.492119676
 21
101.8485030945
 31
0.0
  0
LINE
  5
201
330
1F
100
AcDbEntity
  8
0
  6
HIDDEN
 62
     7
370
     0
100
AcDbLine
 10
193.3523398828
 20
147.8685666586
 30
0.0
 11
193.3523398828
 21
99.5543530962
 31
0.0
  0
LINE
  5
202
330
1F
100
AcDbEntity
  8
0
  6
HIDDEN
 62
     7
370
     0
100
AcDbLine
 10
191.9381263204
 20
107.1275532511
 30
0.0
 11
191.9381263204
 21
101.9413789224
 31
0.0
  0
LINE
  5
203
330
1F
100
AcDbEntity
  8
0
  6
HIDDEN
 62
     7
370
     0
100
AcDbLine
 10
191.9381263204
 20
145.4815408324
 30
0.0
 11
191.9381263204
 21
140.2953665036
 31
0.0
  0
LINE
  5
204
330
1F
100
AcDbEntity
  8
0
  6
HIDDEN
 62
     7
370
     0
100
AcDbLine
 10
166.2612479788
 20
139.7114598774
 30
0.0
 11
166.2612479788
 21
107.7114598774
 31
0.0
  0
LINE
  5
205
330
1F
100
AcDbEntity
  8
0
  6
HIDDEN
 62
     7
370
     0
100
AcDbLine
 10
167.6754615412
 20
139.1256734397
 30
0.0
 11
167.6754615412
 21
108.297246315
 31
0.0
  0
LINE
  5
206
330
1F
100
AcDbEntity
  8
0
  6
HIDDEN
 62
     7
370
     0
100
AcDbLine
 10
165.2594466639
 20
139.7114598774
 30
0.0
 11
165.2594466639
 21
107.7114598774
 31
0.0
  0
LINE
  5
207
330
1F
100
AcDbEntity
  8
0
  6
HIDDEN
 62
     7
370
     0
100
AcDbLine
 10
181.7594466639
 20
123.0770310004
 30
0.0
 11
181.7594466639
 21
109.7114598774
 31
0.0
  0
LINE
  5
208
330
1F
100
AcDbEntity
  8
0
  6
HIDDEN
 62
     7
370
     0
100
AcDbLine
 10
181.7594466639
 20
124.3458887544
 30
0.0
 11
181.7594466639
 21
137.7114598774
 31
0.0
  0
LINE
  5
209
330
1F
100
AcDbEntity
  8
0
  6
HIDDEN
 62
     7
370
     0
100
AcDbLine
 10
240.8644472948
 20
154.1158406145
 30
0.0
 11
239.1183612114
 21
156.9101624645
 31
0.0
  0
LINE
  5
20A
330
1F
100
AcDbEntity
  8
0
  6
HIDDEN
 62
     7
370
     0
100
AcDbLine
 10
237.2234769658
 20
152.9802539879
 30
0.0
 11
235.4282400373
 21
155.8532336325
 31
0.0
  0
LWPOLYLINE
  5
20B
330
1F
100
AcDbEntity
  8
0
  6
HIDDEN
 62
     7
370
     0
100
AcDbPolyline
 90
        9
 70
   128
 43
0.0
 10
191.0594466639
 20
139.2463804003
 10
191.064268356
 20
139.2269257809
 10
191.0765882165
 20
139.2083153094
 10
191.0959328001
 20
139.1912641756
 10
191.1215587053
 20
139.1764276451
 10
191.1524811429
 20
139.1643758774
 10
191.1875117811
 20
139.1555720152
 10
191.225304412
 20
139.150354386
 10
191.264406686
 20
139.1489235003
  0
LINE
  5
20C
330
1F
100
AcDbEntity
  8
0
  6
HIDDEN
 62
     7
370
     0
100
AcDbLine
 10
191.264406686
 20
145.5366448621
 30
0.0
 11
191.264406686
 21
139.1489235003
 31
0.0
  0
LINE
  5
20D
330
1F
100
AcDbEntity
  8
0
  6
HIDDEN
 62
     7
370
     0
100
AcDbLine
 10
156.7594466639
 20
138.8155127061
 30
0.0
 11
191.0594466639
 21
139.2463804003
 31
0.0
  0
LINE
  5
20E
330
1F
100
AcDbEntity
  8
0
  6
HIDDEN
 62
     7
370
     0
100
AcDbLine
 10
155.2594466639
 20
138.3825000042
 30
0.0
 11
156.7594466639
 21
138.8155127061
 31
0.0
  0
LINE
  5
20F
330
1F
100
AcDbEntity
  8
0
  6
HIDDEN
 62
     7
370
     0
100
AcDbLine
 10
191.264406686
 20
139.1489235003
 30
0.0
 11
192.4429343775
 21
139.1637278592
 31
0.0
  0
LINE
  5
210
330
1F
100
AcDbEntity
  8
0
  6
HIDDEN
 62
     7
370
     0
100
AcDbLine
 10
191.264406686
 20
108.2739962544
 30
0.0
 11
192.4429343775
 21
108.2591918955
 31
0.0
  0
LINE
  5
211
330
1F
100
AcDbEntity
  8
0
  6
HIDDEN
 62
     7
370
     0
100
AcDbLine
 10
191.264406686
 20
108.2739962544
 30
0.0
 11
191.264406686
 21
101.8862748926
 31
0.0
  0
LINE
  5
212
330
1F
100
AcDbEntity
  8
0
  6
HIDDEN
 62
     7
370
     0
100
AcDbLine
 10
156.7594466639
 20
108.6074070486
 30
0.0
 11
191.0594466639
 21
108.1765393545
 31
0.0
  0
LWPOLYLINE
  5
213
330
1F
100
AcDbEntity
  8
0
  6
HIDDEN
 62
     7
370
     0
100
AcDbPolyline
 90
        9
 70
   128
 43
0.0
 10
191.0594466639
 20
108.1765393545
 10
191.064268356
 20
108.1959939738
 10
191.0765882165
 20
108.2146044454
 10
191.0959328001
 20
108.2316555792
 10
191.1215587053
 20
108.2464921097
 10
191.1524811429
 20
108.2585438774
 10
191.1875117811
 20
108.2673477395
 10
191.225304412
 20
108.2725653687
 10
191.264406686
 20
108.2739962544
  0
LINE
  5
214
330
1F
100
AcDbEntity
  8
0
  6
HIDDEN
 62
     7
370
     0
100
AcDbLine
 10
155.2594466639
 20
109.0404197505
 30
0.0
 11
156.7594466639
 21
108.6074070486
 31
0.0
  0
LINE
  5
215
330
1F
100
AcDbEntity
  8
0
  6
HIDDEN
 62
     7
370
     0
100
AcDbLine
 10
231.4580455022
 20
155.1317158352
 30
0.0
 11
231.4580455022
 21
127.6476699031
 31
0.0
  0
LINE
  5
216
330
1F
100
AcDbEntity
  8
0
  6
HIDDEN
 62
     7
370
     0
100
AcDbLine
 10
203.7872034775
 20
93.6429679185
 30
0.0
 11
203.7872034775
 21
114.323393446
 31
0.0
  0
LINE
  5
217
330
1F
100
AcDbEntity
  8
0
  6
HIDDEN
 62
     7
370
     0
100
AcDbLine
 10
206.7316898504
 20
93.6429679185
 30
0.0
 11
206.7316898504
 21
114.323393446
 31
0.0
  0
LINE
  5
218
330
1F
100
AcDbEntity
  8
0
  6
HIDDEN
 62
     7
370
     0
100
AcDbLine
 10
206.7316898504
 20
133.0995263087
 30
0.0
 11
206.7316898504
 21
153.7799518362
 31
0.0
  0
LINE
  5
219
330
1F
100
AcDbEntity
  8
0
  6
HIDDEN
 62
     7
370
     0
100
AcDbLine
 10
203.7872034775
 20
133.0995263087
 30
0.0
 11
203.7872034775
 21
153.7799518362
 31
0.0
  0
LINE
  5
21A
330
1F
100
AcDbEntity
  8
0
  6
HIDDEN
 62
     7
370
     0
100
AcDbLine
 10
203.3541907756
 20
93.8107174173
 30
0.0
 11
203.3541907756
 21
113.8020905567
 31
0.0
  0
LINE
  5
21B
330
1F
100
AcDbEntity
  8
0
  6
HIDDEN
 62
     7
370
     0
100
AcDbLine
 10
207.1647025523
 20
93.8107174173
 30
0.0
 11
207.1647025523
 21
113.8020905567
 31
0.0
  0
LINE
  5
21C
330
1F
100
AcDbEntity
  8
0
  6
HIDDEN
 62
     7
370
     0
100
AcDbLine
 10
207.1647025523
 20
133.6208291981
 30
0.0
 11
207.1647025523
 21
153.6122023375
 31
0.0
  0
LINE
  5
21D
330
1F
100
AcDbEntity
  8
0
  6
HIDDEN
 62
     7
370
     0
100
AcDbLine
 10
203.3541907756
 20
133.6208291981
 30
0.0
 11
203.3541907756
 21
153.6122023375
 31
0.0
  0
LINE
  5
21E
330
1F
100
AcDbEntity
  8
0
  6
HIDDEN
 62
     7
370
     0
100
AcDbLine
 10
192.8644697751
 20
139.1442276647
 30
0.0
 11
192.8644697751
 21
108.2786920901
 31
0.0
  0
LINE
  5
21F
330
1F
100
AcDbEntity
  8
0
  6
HIDDEN
 62
     7
370
     0
100
AcDbLine
 10
191.264406686
 20
139.1489235003
 30
0.0
 11
191.264406686
 21
108.2739962544
 31
0.0
  0
LINE
  5
220
330
1F
100
AcDbEntity
  8
VERMASSUNG
  6
CENTERX2
100
AcDbLine
 10
226.6789369864
 20
168.7114598774
 30
0.0
 11
258.2594466639
 21
168.7114598774
 31
0.0
  0
LINE
  5
221
330
1F
100
AcDbEntity
  8
VERMASSUNG
370
     0
100
AcDbLine
 10
258.2594466639
 20
168.7114598774
 30
0.0
 11
258.2594466639
 21
142.8304713904
 31
0.0
  0
DIMENSION
  5
222
330
1F
100
AcDbEntity
  8
VERMASSUNG
100
AcDbDimension
  2
_D
 10
258.2594466639
 20
168.7114598774
 30
0.0
 11
267.9758953438
 21
158.4898522097
 31
0.0
 70
   162
  1
<>
 71
     1
 42
-1.0
  3
SLDDIMSTYLE0
100
AcDb2LineAngularDimension
 13
257.8988108977
 23
161.5151817713
 33
0.0
 14
258.253402648
 24
168.2811954272
 34
0.0
 15
226.6789369864
 25
168.7114598774
 35
0.0
 16
267.9758953438
 26
158.4898522097
 36
0.0
  0
DIMENSION
  5
22D
330
1F
100
AcDbEntity
  8
VERMASSUNG
100
AcDbDimension
  2
_D_1
 10
273.8795188936
 20
123.7114598774
 30
0.0
 11
273.8795188936
 21
146.2114598774
 31
0.0
 70
   160
  1
<>
 71
     2
 42
-1.0
  3
SLDDIMSTYLE1
100
AcDbAlignedDimension
 13
258.2594466639
 23
168.7114598774
 33
0.0
 14
257.7519698487
 24
123.7114598774
 34
0.0
 50
90.0
100
AcDbRotatedDimension
  0
DIMENSION
  5
238
330
1F
100
AcDbEntity
  8
VERMASSUNG
100
AcDbDimension
  2
_D_2
 10
258.2594466639
 20
177.4876665617
 30
0.0
 11
225.7594466639
 21
177.4876665617
 31
0.0
 70
   160
  1
<>
 71
     2
 42
-1.0
  3
SLDDIMSTYLE1
100
AcDbAlignedDimension
 13
193.2594466639
 23
154.7114598774
 33
0.0
 14
258.2594466639
 24
168.7114598774
 34
0.0
100
AcDbRotatedDimension
  0
DIMENSION
  5
242
330
1F
100
AcDbEntity
  8
VERMASSUNG
100
AcDbDimension
  2
_D_3
 10
258.2594466639
 20
183.9064214682
 30
0.0
 11
206.7594466639
 21
183.9064214682
 31
0.0
 70
   160
  1
(<>)
 71
     2
 42
-1.0
  3
SLDDIMSTYLE1
100
AcDbAlignedDimension
 13
155.2594466639
 23
144.0037978699
 33
0.0
 14
258.2594466639
 24
168.7114598774
 34
0.0
100
AcDbRotatedDimension
  0
DIMENSION
  5
24E
330
1F
100
AcDbEntity
  8
VERMASSUNG
100
AcDbDimension
  2
_D_4
 10
145.2594466639
 20
92.2114598774
 30
0.0
 11
145.2594466639
 21
123.7114598774
 31
0.0
 70
   160
  1
PSC %%c<>
 71
     2
 42
-1.0
  3
SLDDIMSTYLE1
100
AcDbAlignedDimension
 13
193.7594466639
 23
155.2114598774
 33
0.0
 14
193.7594466639
 24
92.2114598774
 34
0.0
 50
90.0
100
AcDbRotatedDimension
  0
DIMENSION
  5
25A
330
1F
100
AcDbEntity
  8
VERMASSUNG
100
AcDbDimension
  2
_D_5
 10
257.8539508341
 20
168.3021298097
 30
0.0
 11
265.3649521475
 21
175.8131311232
 31
0.0
 70
   164
  1
<>
 71
     1
 42
-1.0
  3
SLDDIMSTYLE2
100
AcDbRadialDimension
 15
258.1367935465
 25
168.5849725222
 35
0.0
 40
0.0
  0
LINE
  5
263
330
1F
100
AcDbEntity
  8
VERMASSUNG
  6
CENTERX2
370
     0
100
AcDbLine
 10
153.5442171634
 20
123.7114598774
 30
0.0
 11
257.7519698487
 21
123.7114598774
 31
0.0
  0
LINE
  5
264
330
1F
100
AcDbEntity
  8
0
  6
Continuous
 62
     7
370
    15
100
AcDbLine
 10
85.9564796747
 20
168.4099025547
 30
0.0
 11
83.5764796747
 21
168.7021298097
 31
0.0
  0
LINE
  5
265
330
1F
100
AcDbEntity
  8
0
  6
Continuous
 62
     7
370
    15
100
AcDbLine
 10
83.5764796747
 20
157.5457547099
 30
0.0
 11
83.8764796747
 21
157.5825900782
 31
0.0
  0
LINE
  5
266
330
1F
100
AcDbEntity
  8
0
  6
Continuous
 62
     7
370
    15
100
AcDbLine
 10
85.9564796747
 20
168.29648942
 30
0.0
 11
85.9564796747
 21
168.4099025547
 31
0.0
  0
LINE
  5
267
330
1F
100
AcDbEntity
  8
0
  6
Continuous
 62
     7
370
    15
100
AcDbLine
 10
83.5764796747
 20
168.2811954272
 30
0.0
 11
83.5764796747
 21
168.7021298097
 31
0.0
  0
LINE
  5
268
330
1F
100
AcDbEntity
  8
0
  6
Continuous
 62
     7
370
    15
100
AcDbLine
 10
85.9564796747
 20
161.5304757642
 30
0.0
 11
85.9564796747
 21
168.29648942
 31
0.0
  0
LINE
  5
269
330
1F
100
AcDbEntity
  8
0
  6
Continuous
 62
     7
370
    15
100
AcDbLine
 10
83.5764796747
 20
161.5151817713
 30
0.0
 11
83.5764796747
 21
168.2811954272
 31
0.0
  0
LINE
  5
26A
330
1F
100
AcDbEntity
  8
0
  6
Continuous
 62
     7
370
    15
100
AcDbLine
 10
85.9564796747
 20
161.4447196826
 30
0.0
 11
85.9564796747
 21
161.5304757642
 31
0.0
  0
LINE
  5
26B
330
1F
100
AcDbEntity
  8
0
  6
Continuous
 62
     7
370
    15
100
AcDbLine
 10
83.5764796747
 20
161.1968969154
 30
0.0
 11
83.5764796747
 21
161.5151817713
 31
0.0
  0
LINE
  5
26C
330
1F
100
AcDbEntity
  8
0
  6
Continuous
 62
     7
370
    15
100
AcDbLine
 10
85.9564796747
 20
161.4125072544
 30
0.0
 11
85.9564796747
 21
161.4447196826
 31
0.0
  0
LINE
  5
26D
330
1F
100
AcDbEntity
  8
0
  6
Continuous
 62
     7
370
    15
100
AcDbLine
 10
83.5764796747
 20
157.6065354715
 30
0.0
 11
83.5764796747
 21
161.1968969154
 31
0.0
  0
LINE
  5
26E
330
1F
100
AcDbEntity
  8
0
  6
Continuous
 62
     7
370
    15
100
AcDbLine
 10
83.5764796747
 20
157.5457547099
 30
0.0
 11
83.5764796747
 21
157.6065354715
 31
0.0
  0
LINE
  5
26F
330
1F
100
AcDbEntity
  8
0
  6
Continuous
 62
     7
370
    15
100
AcDbLine
 10
115.5764796747
 20
143.7114598774
 30
0.0
 11
115.5764796747
 21
128.9171966285
 31
0.0
  0
LINE
  5
270
330
1F
100
AcDbEntity
  8
0
  6
Continuous
 62
     7
370
    15
100
AcDbLine
 10
83.8764796747
 20
128.7134909257
 30
0.0
 11
115.5764796747
 21
128.9171966285
 31
0.0
  0
LINE
  5
271
330
1F
100
AcDbEntity
  8
0
  6
Continuous
 62
     7
370
    15
100
AcDbLine
 10
83.8764796747
 20
128.7134909257
 30
0.0
 11
83.8764796747
 21
161.266374676
 31
0.0
  0
LINE
  5
272
330
1F
100
AcDbEntity
  8
0
  6
Continuous
 62
     7
370
    15
100
AcDbLine
 10
83.8764796747
 20
161.266374676
 30
0.0
 11
84.8564796747
 21
161.3352256024
 31
0.0
  0
LINE
  5
273
330
1F
100
AcDbEntity
  8
0
  6
Continuous
 62
     7
370
    15
100
AcDbLine
 10
84.8564796747
 20
161.3352256024
 30
0.0
 11
85.9564796747
 21
161.2478517197
 31
0.0
  0
LINE
  5
274
330
1F
100
AcDbEntity
  8
0
  6
Continuous
 62
     7
370
    15
100
AcDbLine
 10
85.9564796747
 20
161.4125072544
 30
0.0
 11
85.9564796747
 21
161.2478517197
 31
0.0
  0
LINE
  5
275
330
1F
100
AcDbEntity
  8
0
  6
Continuous
 62
     7
370
    15
100
AcDbLine
 10
98.2702670779
 20
164.9904413094
 30
0.0
 11
85.9564796747
 21
167.8117473677
 31
0.0
  0
ARC
  5
276
330
1F
100
AcDbEntity
  8
0
  6
Continuous
 62
     7
370
    15
100
AcDbCircle
 10
82.7867706273
 20
134.7206322967
 30
0.0
 40
34.00000000000004
100
AcDbArc
 50
15.3334487846
 51
62.9095221174
  0
LINE
  5
277
330
1F
100
AcDbEntity
  8
0
  6
Continuous
 62
     7
370
    15
100
AcDbLine
 10
85.9564796747
 20
168.0524389847
 30
0.0
 11
97.3573722179
 21
165.4402932533
 31
0.0
  0
ARC
  5
278
330
1F
100
AcDbEntity
  8
0
  6
Continuous
 62
     7
370
    15
100
AcDbCircle
 10
82.7867706273
 20
134.7206322967
 30
0.0
 40
34.00000000000004
100
AcDbArc
 50
62.9095221174
 51
64.6246089013
  0
ARC
  5
279
330
1F
100
AcDbEntity
  8
0
  6
Continuous
 62
     7
370
    15
100
AcDbCircle
 10
82.7867706273
 20
134.7206322967
 30
0.0
 40
34.00000000000001
100
AcDbArc
 50
344.3364384257
 51
344.6665512154
  0
ARC
  5
27A
330
1F
100
AcDbEntity
  8
0
  6
Continuous
 62
     7
370
    15
100
AcDbCircle
 10
83.5764796747
 20
123.7114598774
 30
0.0
 40
32.00000000000004
100
AcDbArc
 50
320.0267855575
 51
3.2776295005
  0
SPLINE
  5
27B
330
1F
100
AcDbEntity
  8
0
  6
Continuous
 62
     7
370
    15
100
AcDbSpline
210
0.0
220
0.0
230
1.0
 70
     8
 71
     3
 72
    10
 73
     6
 74
     0
 42
0.000000001
 43
0.00000001
 40
0.0
 40
0.0
 40
0.0
 40
0.0
 40
0.5
 40
0.5
 40
1.0
 40
1.0
 40
1.0
 40
1.0
 10
108.0995151993185
 20
103.153718545707
 30
0.0
 10
107.7433973108906
 20
102.9865731304395
 30
0.0
 10
107.410482604093
 20
102.7843593358079
 30
0.0
 10
106.7921711540112
 20
102.3458005741024
 30
0.0
 10
106.5057418392208
 20
102.1098234421812
 30
0.0
 10
106.2538058113932
 20
101.8485030944646
 30
0.0
  0
ARC
  5
27C
330
1F
100
AcDbEntity
  8
0
  6
Continuous
 62
     7
370
    15
100
AcDbCircle
 10
83.5764796747
 20
123.7114598774
 30
0.0
 40
31.5
100
AcDbArc
 50
267.1098454829
 51
316.0474726572
  0
ELLIPSE
  5
27D
330
1F
100
AcDbEntity
  8
0
  6
Continuous
 62
     7
370
    15
100
AcDbEllipse
 10
77.8764796747
 20
96.8019067875
 30
0.0
 11
2.221115263391368
 21
6.936178368516123
 31
0.0
210
0.0
220
0.0
230
1.0
 40
0.8035759649
 41
4.275800912756649
 42
5.091598085349638
  0
LINE
  5
27E
330
1F
100
AcDbEntity
  8
0
  6
Continuous
 62
     7
370
    15
100
AcDbLine
 10
115.5764796747
 20
128.9171966285
 30
0.0
 11
115.5764796747
 21
125.729804716
 31
0.0
  0
LINE
  5
27F
330
1F
100
AcDbEntity
  8
0
  6
Continuous
 62
     7
370
    15
100
AcDbLine
 10
83.8764796747
 20
97.7115459851
 30
0.0
 11
83.8764796747
 21
128.7134909257
 31
0.0
  0
SPLINE
  5
280
330
1F
100
AcDbEntity
  8
0
  6
Continuous
 62
     7
370
    15
100
AcDbSpline
210
0.0
220
0.0
230
1.0
 70
     8
 71
     3
 72
    18
 73
    14
 74
     0
 42
0.000000001
 43
0.00000001
 40
0.0
 40
0.0
 40
0.0
 40
0.0
 40
0.25
 40
0.25
 40
0.5
 40
0.5
 40
0.625
 40
0.625
 40
0.75
 40
0.75
 40
0.875
 40
0.875
 40
1.0
 40
1.0
 40
1.0
 40
1.0
 10
79.42939394534544
 20
154.9372773999502
 30
0.0
 10
80.06308074950647
 20
155.0214370380617
 30
0.0
 10
80.65494758678845
 20
155.0805126275656
 30
0.0
 10
81.75240269747312
 20
155.1634163088301
 30
0.0
 10
82.2297517183777
 20
155.1852322342577
 30
0.0
 10
82.83326070053546
 20
155.2033339276239
 30
0.0
 10
83.01152038273334
 20
155.2067695868342
 30
0.0
 10
83.31947271548218
 20
155.2107878086066
 30
0.0
 10
83.44996976003631
 20
155.2113850185091
 30
0.0
 10
83.66246588579946
 20
155.2115217031408
 30
0.0
 10
83.74262051057869
 20
155.2110669233
 30
0.0
 10
83.84932921260791
 20
155.2103233482164
 30
0.0
 10
83.87647967473033
 20
155.2100312735515
 30
0.0
 10
83.87647967473033
 20
155.2100312735515
 30
0.0
  0
SPLINE
  5
281
330
1F
100
AcDbEntity
  8
0
  6
Continuous
 62
     7
370
    15
100
AcDbSpline
210
0.0
220
0.0
230
1.0
 70
     8
 71
     3
 72
    12
 73
     8
 74
     0
 42
0.000000001
 43
0.00000001
 40
0.0
 40
0.0
 40
0.0
 40
0.0
 40
0.2500000000000006
 40
0.2500000000000006
 40
0.5000000000000011
 40
0.5000000000000011
 40
1.0
 40
1.0
 40
1.0
 40
1.0
 10
81.98820799084947
 20
92.25152673920456
 30
0.0
 10
81.80908397346442
 20
92.2605699117843
 30
0.0
 10
81.61999399000564
 20
92.27164422710435
 30
0.0
 10
81.22170883901171
 20
92.2989639773548
 30
0.0
 10
81.01106098662108
 20
92.3153508571008
 30
0.0
 10
80.3629781086794
 20
92.3728009029063
 30
0.0
 10
79.90770227592692
 20
92.42211845664929
 30
0.0
 10
79.42939394534544
 20
92.48564235480075
 30
0.0
  0
ELLIPSE
  5
282
330
1F
100
AcDbEntity
  8
0
  6
Continuous
 62
     7
370
    15
100
AcDbEllipse
 10
69.5013011846
 20
142.516314957
 30
0.0
 11
2.290756383504828
 21
2.84408857245009
 31
0.0
210
0.0
220
0.0
230
1.0
 40
0.670845739
 41
0.0
 42
6.283185307179586
  0
ARC
  5
283
330
1F
100
AcDbEntity
  8
0
  6
Continuous
 62
     7
370
    15
100
AcDbCircle
 10
83.5764796747
 20
123.7114598774
 30
0.0
 40
31.50000000000004
100
AcDbArc
 50
97.5651530928
 51
262.4348469072
  0
LINE
  5
284
330
1F
100
AcDbEntity
  8
0
  6
Continuous
 62
     7
370
     0
100
AcDbLine
 10
85.9564796747
 20
168.29648942
 30
0.0
 11
83.5764796747
 21
168.2811954272
 31
0.0
  0
LINE
  5
285
330
1F
100
AcDbEntity
  8
0
  6
Continuous
 62
     7
370
     0
100
AcDbLine
 10
85.9564796747
 20
161.5304757642
 30
0.0
 11
83.5764796747
 21
161.5151817713
 31
0.0
  0
LINE
  5
286
330
1F
100
AcDbEntity
  8
0
  6
Continuous
 62
     7
370
     0
100
AcDbLine
 10
85.9564796747
 20
161.4447196826
 30
0.0
 11
84.8839688269
 21
161.333042117
 31
0.0
  0
LINE
  5
287
330
1F
100
AcDbEntity
  8
0
  6
Continuous
 62
     7
370
     0
100
AcDbLine
 10
83.8764796747
 20
161.2281350793
 30
0.0
 11
83.5764796747
 21
161.1968969154
 31
0.0
  0
LINE
  5
288
330
1F
100
AcDbEntity
  8
0
  6
Continuous
 62
     7
370
     0
100
AcDbLine
 10
83.8764796747
 20
157.6377736354
 30
0.0
 11
83.5764796747
 21
157.6065354715
 31
0.0
  0
LINE
  5
289
330
1F
100
AcDbEntity
  8
0
  6
Continuous
 62
     7
370
     0
100
AcDbLine
 10
79.4293939453
 20
92.4856423548
 30
0.0
 11
79.4293939453
 21
154.9372774
 31
0.0
  0
CIRCLE
  5
28A
330
1F
100
AcDbEntity
  8
VERMASSUNG
  6
CENTERX2
100
AcDbCircle
 10
83.5764796747
 20
128.7021298097
 30
0.0
 40
40.00000000000001
  0
DIMENSION
  5
28B
330
1F
100
AcDbEntity
  8
VERMASSUNG
100
AcDbDimension
  2
_D_6
 10
111.8607509222
 20
156.9864010572
 30
0.0
 11
120.1712464055
 21
165.2968965404
 31
0.0
 70
   160
  1
min. %%c<>
 71
     2
 42
-1.0
  3
SLDDIMSTYLE3
100
AcDbAlignedDimension
 13
55.2922084273
 23
100.4178585622
 33
0.0
 14
111.8607509222
 24
156.9864010572
 34
0.0
 50
45.0
100
AcDbRotatedDimension
  0
INSERT
  5
2A5
330
1F
100
AcDbEntity
  8
VERMASSUNG
100
AcDbBlockReference
  2
SW_CENTERMARKSYMBOL_0
 10
83.5764796747
 20
123.7114598774
 30
0.0
  0
LINE
  5
2A6
330
1F
100
AcDbEntity
  8
0
  6
Continuous
 62
     7
370
    15
100
AcDbLine
 10
225.5389534183
 20
53.3717937629
 30
0.0
 11
225.498817514
 21
53.3570060085
 31
0.0
  0
LINE
  5
2A7
330
1F
100
AcDbEntity
  8
0
  6
Continuous
 62
     7
370
    15
100
AcDbLine
 10
248.5453722415
 20
37.8918237342
 30
0.0
 11
248.5453722415
 21
37.7944383451
 31
0.0
  0
LINE
  5
2A8
330
1F
100
AcDbEntity
  8
0
  6
Continuous
 62
     7
370
    15
100
AcDbLine
 10
250.2453722415
 20
37.6820981441
 30
0.0
 11
250.2453722415
 21
37.8918237342
 31
0.0
  0
LINE
  5
2A9
330
1F
100
AcDbEntity
  8
0
  6
Continuous
 62
     7
370
    15
100
AcDbLine
 10
248.7617488015
 20
37.2321712378
 30
0.0
 11
248.8426013748
 21
37.1277819675
 31
0.0
  0
LINE
  5
2AA
330
1F
100
AcDbEntity
  8
0
  6
Continuous
 62
     7
370
    15
100
AcDbLine
 10
249.9481431082
 20
37.1277819675
 30
0.0
 11
250.0517870862
 21
37.261597365
 31
0.0
  0
LINE
  5
2AB
330
1F
100
AcDbEntity
  8
0
  6
Continuous
 62
     7
370
    15
100
AcDbLine
 10
249.7610781981
 20
37.9188024897
 30
0.0
 11
249.7610781981
 21
37.7810199062
 31
0.0
  0
LINE
  5
2AC
330
1F
100
AcDbEntity
  8
0
  6
Continuous
 62
     7
370
    15
100
AcDbLine
 10
249.0296662849
 20
37.8239189276
 30
0.0
 11
249.0296662849
 21
38.0051118946
 31
0.0
  0
LINE
  5
2AD
330
1F
100
AcDbEntity
  8
0
  6
Continuous
 62
     7
370
    15
100
AcDbLine
 10
246.3371065943
 20
37.5468209067
 30
0.0
 11
246.3669112623
 21
37.349362377
 31
0.0
  0
LINE
  5
2AE
330
1F
100
AcDbEntity
  8
0
  6
Continuous
 62
     7
370
    15
100
AcDbLine
 10
252.4083729995
 20
37.4511185733
 30
0.0
 11
252.5539350608
 21
38.4154799457
 31
0.0
  0
LINE
  5
2AF
330
1F
100
AcDbEntity
  8
0
  6
Continuous
 62
     7
370
    15
100
AcDbLine
 10
211.477607749
 20
25.6352066777
 30
0.0
 11
218.937304498
 21
21.3288154086
 31
0.0
  0
LINE
  5
2B0
330
1F
100
AcDbEntity
  8
0
  6
Continuous
 62
     7
370
    15
100
AcDbLine
 10
206.0543182126
 20
28.7660050861
 30
0.0
 11
208.7627566599
 21
27.2024568516
 31
0.0
  0
LINE
  5
2B1
330
1F
100
AcDbEntity
  8
0
  6
Continuous
 62
     7
370
    15
100
AcDbLine
 10
224.5114766989
 20
54.4829960166
 30
0.0
 11
221.8030382516
 21
56.0465442511
 31
0.0
  0
LINE
  5
2B2
330
1F
100
AcDbEntity
  8
0
  6
Continuous
 62
     7
370
    15
100
AcDbLine
 10
230.801278393
 20
50.8519707871
 30
0.0
 11
227.226327788
 21
52.9157458427
 31
0.0
  0
SPLINE
  5
2B3
330
1F
100
AcDbEntity
  8
0
  6
Continuous
 62
     7
370
    15
100
AcDbSpline
210
0.0
220
0.0
230
1.0
 70
     8
 71
     3
 72
    33
 73
    29
 74
     0
 42
0.000000001
 43
0.00000001
 40
0.0
 40
0.0
 40
0.0
 40
0.0
 40
0.0122712875556923
 40
0.0528947138161036
 40
0.0936266310456667
 40
0.1344354764354115
 40
0.175291267953118
 40
0.2161702947101425
 40
0.2570549793007226
 40
0.2979338912482973
 40
0.3388026828832217
 40
0.3796597696849704
 40
0.4205053099460125
 40
0.4613405104198445
 40
0.50216718112557
 40
0.5429874641159508
 40
0.5838036768859237
 40
0.6246182278423172
 40
0.6654335742843023
 40
0.7062513963980467
 40
0.7470741793134238
 40
0.787904424834166
 40
0.8287445905234905
 40
0.8695970043037173
 40
0.910463705111511
 40
0.9513461649495416
 40
0.9900926281169271
 40
1.0
 40
1.0
 40
1.0
 40
1.0
 10
218.3460616692223
 20
56.78012077524909
 30
0.0
 10
218.2629471614754
 20
56.77741091885017
 30
0.0
 10
217.9046866218794
 20
56.76573023106145
 30
0.0
 10
217.2440916959511
 20
56.64975120024775
 30
0.0
 10
216.3699158451616
 20
56.43127039227329
 30
0.0
 10
215.4776888086903
 20
56.11382332063693
 30
0.0
 10
214.576004802099
 20
55.70836546034483
 30
0.0
 10
213.6702468180341
 20
55.2153417794229
 30
0.0
 10
212.766614442832
 20
54.6388111956192
 30
0.0
 10
211.8709675446835
 20
53.98255894136094
 30
0.0
 10
210.9890992584076
 20
53.25106057523378
 30
0.0
 10
210.1266462708375
 20
52.44916697917694
 30
0.0
 10
209.2891130630967
 20
51.58216396999394
 30
0.0
 10
208.4818425362224
 20
50.65572458695934
 30
0.0
 10
207.7099901242734
 20
49.67588377283825
 30
0.0
 10
206.9784939187651
 20
48.64900297472499
 30
0.0
 10
206.2920447086046
 20
47.58173304900577
 30
0.0
 10
205.6550565018199
 20
46.48097355428895
 30
0.0
 10
205.0716422368563
 20
45.35383682780505
 30
0.0
 10
204.5455828893257
 20
44.20759620646526
 30
0.0
 10
204.0803021574871
 20
43.0496372786378
 30
0.0
 10
203.67885027857
 20
41.88740576312037
 30
0.0
 10
203.343868323015
 20
40.72835313648487
 30
0.0
 10
203.0776605911309
 20
39.57994218793684
 30
0.0
 10
202.8818666247742
 20
38.44940806761253
 30
0.0
 10
202.7608071076582
 20
37.3638330562372
 30
0.0
 10
202.7211939541932
 20
36.57948615213033
 30
0.0
 10
202.7189749742357
 20
36.1637650225644
 30
0.0
 10
202.7185231237368
 20
36.07911180199115
 30
0.0
  0
SPLINE
  5
2B4
330
1F
100
AcDbEntity
  8
0
  6
Continuous
 62
     7
370
    15
100
AcDbSpline
210
0.0
220
0.0
230
1.0
 70
     8
 71
     3
 72
    13
 73
     9
 74
     0
 42
0.000000001
 43
0.00000001
 40
0.0
 40
0.0
 40
0.0
 40
0.0
 40
0.1013044663370645
 40
0.2937026016018897
 40
0.4861681273474249
 40
0.6785731460814513
 40
0.8708122829583483
 40
1.0
 40
1.0
 40
1.0
 40
1.0
 10
202.7185231237368
 20
36.07911180199115
 30
0.0
 10
202.7205706855255
 20
35.89672324016263
 30
0.0
 10
202.7265069906659
 20
35.36794107439682
 30
0.0
 10
202.7927867201028
 20
34.5259647933599
 30
0.0
 10
202.9405057529933
 20
33.57419308957878
 30
0.0
 10
203.1647103197738
 20
32.68267050487125
 30
0.0
 10
203.419167138235
 20
31.93526646724522
 30
0.0
 10
203.6284820370242
 20
31.51716810979401
 30
0.0
 10
203.7126097742923
 20
31.34912623140236
 30
0.0
  0
LINE
  5
2B5
330
1F
100
AcDbEntity
  8
0
  6
Continuous
 62
     7
370
    15
100
AcDbLine
 10
194.5674180942
 20
40.7663675581
 30
0.0
 11
202.7253196187
 21
35.7161230031
 31
0.0
  0
LINE
  5
2B6
330
1F
100
AcDbEntity
  8
0
  6
Continuous
 62
     7
370
    15
100
AcDbLine
 10
213.0841763832
 20
54.8272775121
 30
0.0
 11
205.0636730902
 21
59.1340642915
 31
0.0
  0
LINE
  5
2B7
330
1F
100
AcDbEntity
  8
0
  6
Continuous
 62
     7
370
    15
100
AcDbLine
 10
202.3743035258
 20
59.7243208238
 30
0.0
 11
201.7347530733
 21
59.6371097584
 31
0.0
  0
LINE
  5
2B8
330
1F
100
AcDbEntity
  8
0
  6
Continuous
 62
     7
370
    15
100
AcDbLine
 10
193.4041670276
 20
42.5024096116
 30
0.0
 11
193.6484713204
 21
41.9049600624
 31
0.0
  0
ARC
  5
2B9
330
1F
100
AcDbEntity
  8
0
  6
Continuous
 62
     7
370
    15
100
AcDbCircle
 10
224.9750276919
 20
48.6619528846
 30
0.0
 40
4.743481139753842
100
AcDbArc
 50
48.4538831969
 51
83.1722797069
  0
LWPOLYLINE
  5
2BA
330
1F
100
AcDbEntity
  8
0
  6
Continuous
 62
     7
370
    15
100
AcDbPolyline
 90
       13
 70
   128
 43
0.0
 10
225.7180268536
 20
53.1953168639
 10
225.6764604578
 20
53.2737593076
 10
225.7466453328
 20
53.3024470492
 10
225.921711294
 20
53.2785719327
 10
226.1845216654
 20
53.2044710209
 10
226.5093507367
 20
53.0873978272
 10
226.8644019752
 20
52.9388122916
 10
227.2149204918
 20
52.7732590016
 10
227.5265950921
 20
52.6069434667
 10
227.7689168945
 20
52.4561458102
 10
227.9181657526
 20
52.3356271573
 10
227.9597321484
 20
52.2571847137
 10
227.9381852529
 20
52.2362255477
  0
ARC
  5
2BB
330
1F
100
AcDbEntity
  8
0
  6
Continuous
 62
     7
370
    15
100
AcDbCircle
 10
228.0347814891
 20
56.1181483932
 30
0.0
 40
3.729650947398262
100
AcDbArc
 50
231.5982312912
 51
245.630063378
  0
LWPOLYLINE
  5
2BC
330
1F
100
AcDbEntity
  8
0
  6
Continuous
 62
     7
370
    15
100
AcDbPolyline
 90
        3
 70
   128
 43
0.0
 10
248.5531981702
 20
37.9582565675
 10
248.5684975157
 20
37.7781432098
 10
248.5872738173
 20
37.7396594791
  0
LWPOLYLINE
  5
2BD
330
1F
100
AcDbEntity
  8
0
  6
Continuous
 62
     7
370
    15
100
AcDbPolyline
 90
       13
 70
   128
 43
0.0
 10
249.9353830874
 20
37.5128800638
 10
250.0508225649
 20
37.5794023267
 10
250.2020612616
 20
37.737187304
 10
250.2443521361
 20
37.9158567881
 10
250.1719835715
 20
38.0912804752
 10
249.9947293434
 20
38.2397664241
 10
249.7365286175
 20
38.3412607847
 10
249.4322528327
 20
38.3820561813
 10
249.1229961197
 20
38.3566429694
 10
248.8505253112
 20
38.2684533441
 10
248.6516390997
 20
38.129397803
 10
248.5531981702
 20
37.9582565675
 10
248.5531981702
 20
37.9582565675
  0
LWPOLYLINE
  5
2BE
330
1F
100
AcDbEntity
  8
0
  6
Continuous
 62
     7
370
    15
100
AcDbPolyline
 90
       17
 70
   128
 43
0.0
 10
248.8504360777
 20
38.0266719581
 10
248.8634215304
 20
37.9030133986
 10
248.9573916567
 20
37.7916365123
 10
249.1180403568
 20
37.7094974208
 10
249.3209103223
 20
37.6691010559
 10
249.5351164399
 20
37.6765973982
 10
249.7280477702
 20
37.7308451975
 10
249.8703322669
 20
37.823585718
 10
249.9403084053
 20
37.9407000562
 10
249.9273229526
 20
38.0643586158
 10
249.8333528262
 20
38.175735502
 10
249.6727041262
 20
38.2578745936
 10
249.4698341607
 20
38.2982709584
 10
249.255628043
 20
38.2907746161
 10
249.0626967128
 20
38.2365268169
 10
248.9204122161
 20
38.1437862964
 10
248.8504360777
 20
38.0266719581
  0
LWPOLYLINE
  5
2BF
330
1F
100
AcDbEntity
  8
0
  6
Continuous
 62
     7
370
    15
100
AcDbPolyline
 90
       17
 70
   128
 43
0.0
 10
248.8752059033
 20
38.0247180513
 10
248.8876011082
 20
37.9066803353
 10
248.9772998651
 20
37.8003660348
 10
249.1306463516
 20
37.7219605383
 10
249.324294955
 20
37.6834003719
 10
249.5287644309
 20
37.6905559714
 10
249.7129261552
 20
37.7423379615
 10
249.8487431748
 20
37.8308630038
 10
249.9155385796
 20
37.942653963
 10
249.9031433748
 20
38.060691679
 10
249.8134446178
 20
38.1670059795
 10
249.6600981314
 20
38.245411476
 10
249.466449528
 20
38.2839716424
 10
249.2619800521
 20
38.276816043
 10
249.0778183277
 20
38.2250340528
 10
248.9420013082
 20
38.1365090105
 10
248.8752059033
 20
38.0247180513
  0
SPLINE
  5
2C0
330
1F
100
AcDbEntity
  8
0
  6
Continuous
 62
     7
370
    15
100
AcDbSpline
210
0.0
220
0.0
230
1.0
 70
     8
 71
     3
 72
    16
 73
    12
 74
     0
 42
0.000000001
 43
0.00000001
 40
0.0
 40
0.0
 40
0.0
 40
0.0
 40
0.124219458969793
 40
0.2489993218720237
 40
0.3727377574600952
 40
0.4952944629267902
 40
0.6171957750165936
 40
0.7391031181773609
 40
0.8616668233222695
 40
0.9853929371716844
 40
1.0
 40
1.0
 40
1.0
 40
1.0
 10
249.8366150783103
 20
38.01400803998849
 30
0.0
 10
249.8453707076852
 20
38.01984719604014
 30
0.0
 10
249.8629214666002
 20
38.03155185092452
 30
0.0
 10
249.8777605664149
 20
38.05345199557878
 30
0.0
 10
249.8815609214692
 20
38.07564047128815
 30
0.0
 10
249.873415192438
 20
38.09603655563357
 30
0.0
 10
249.8545924183038
 20
38.11232883884423
 30
0.0
 10
249.8271859072021
 20
38.1228089571823
 30
0.0
 10
249.7942143893286
 20
38.12622856951612
 30
0.0
 10
249.7694733526136
 20
38.12333981767006
 30
0.0
 10
249.7569160475118
 20
38.12023099570538
 30
0.0
 10
249.7555900796639
 20
38.11990272479559
 30
0.0
  0
SPLINE
  5
2C1
330
1F
100
AcDbEntity
  8
0
  6
Continuous
 62
     7
370
    15
100
AcDbSpline
210
0.0
220
0.0
230
1.0
 70
     8
 71
     3
 72
    12
 73
     8
 74
     0
 42
0.000000001
 43
0.00000001
 40
0.0
 40
0.0
 40
0.0
 40
0.0
 40
0.2093653562127677
 40
0.4192620302417629
 40
0.6249526976743243
 40
0.8281707878026249
 40
1.0
 40
1.0
 40
1.0
 40
1.0
 10
249.7555900796639
 20
38.11990272479559
 30
0.0
 10
249.7354896240778
 20
38.11718411336306
 30
0.0
 10
249.6952377028896
 20
38.11173999133035
 30
0.0
 10
249.6381212790187
 20
38.12176991308916
 30
0.0
 10
249.5924443584236
 20
38.14514934840987
 30
0.0
 10
249.5628272537136
 20
38.17767499077297
 30
0.0
 10
249.5565499669145
 20
38.20247320115892
 30
0.0
 10
249.5536740063657
 20
38.21383458658445
 30
0.0
  0
SPLINE
  5
2C2
330
1F
100
AcDbEntity
  8
0
  6
Continuous
 62
     7
370
    15
100
AcDbSpline
210
0.0
220
0.0
230
1.0
 70
     8
 71
     3
 72
    16
 73
    12
 74
     0
 42
0.000000001
 43
0.00000001
 40
0.0
 40
0.0
 40
0.0
 40
0.0
 40
0.1231896672980215
 40
0.2479795154962225
 40
0.3717274745392306
 40
0.4942903479747578
 40
0.6161927293768351
 40
0.7380955470920852
 40
0.8606497678263955
 40
0.9843631542991449
 40
1.0
 40
1.0
 40
1.0
 40
1.0
 10
249.5536740063657
 20
38.21383458658445
 30
0.0
 10
249.5514626366644
 20
38.22177957260331
 30
0.0
 10
249.5470111725186
 20
38.23777274659911
 30
0.0
 10
249.5264135312051
 20
38.2576947558586
 30
0.0
 10
249.498025882217
 20
38.27172703123269
 30
0.0
 10
249.4643108213711
 20
38.27822765424953
 30
0.0
 10
249.4293727551166
 20
38.27666983290488
 30
0.0
 10
249.3968969899832
 20
38.26726532280336
 30
0.0
 10
249.370452794632
 20
38.25095254228056
 30
0.0
 10
249.357908962971
 20
38.23564152917105
 30
0.0
 10
249.3537324440531
 20
38.22690773756023
 30
0.0
 10
249.353263786191
 20
38.22592769648191
 30
0.0
  0
SPLINE
  5
2C3
330
1F
100
AcDbEntity
  8
0
  6
Continuous
 62
     7
370
    15
100
AcDbSpline
210
0.0
220
0.0
230
1.0
 70
     8
 71
     3
 72
    12
 73
     8
 74
     0
 42
0.000000001
 43
0.00000001
 40
0.0
 40
0.0
 40
0.0
 40
0.0
 40
0.2093652529604774
 40
0.4192619297279045
 40
0.6249525996333323
 40
0.8281706892237656
 40
1.0
 40
1.0
 40
1.0
 40
1.0
 10
249.353263786191
 20
38.22592769648191
 30
0.0
 10
249.3437150586817
 20
38.21332709900978
 30
0.0
 10
249.3245933664936
 20
38.1880939204513
 30
0.0
 10
249.2756204896417
 20
38.16276456624243
 30
0.0
 10
249.2187305833722
 20
38.1519587553423
 30
0.0
 10
249.1616106545549
 20
38.15557518297926
 30
0.0
 10
249.1278834220215
 20
38.16704000378936
 30
0.0
 10
249.1124311695464
 20
38.17229265253734
 30
0.0
  0
SPLINE
  5
2C4
330
1F
100
AcDbEntity
  8
0
  6
Continuous
 62
     7
370
    15
100
AcDbSpline
210
0.0
220
0.0
230
1.0
 70
     8
 71
     3
 72
    16
 73
    12
 74
     0
 42
0.000000001
 43
0.00000001
 40
0.0
 40
0.0
 40
0.0
 40
0.0
 40
0.1243654221088905
 40
0.2491438717989905
 40
0.3728809614208994
 40
0.4954367981748691
 40
0.6173379650704963
 40
0.7392459561098577
 40
0.8618110113605563
 40
0.9855389335649428
 40
1.0
 40
1.0
 40
1.0
 40
1.0
 10
249.1124311695464
 20
38.17229265253734
 30
0.0
 10
249.1014228299672
 20
38.17589645965334
 30
0.0
 10
249.0793695912267
 20
38.18311604241894
 30
0.0
 10
249.0437788732846
 20
38.18427023255882
 30
0.0
 10
249.0115410509996
 20
38.17800957608755
 30
0.0
 10
248.9859549479652
 20
38.16466050310967
 30
0.0
 10
248.9698570958639
 20
38.14601864207337
 30
0.0
 10
248.9648375394317
 20
38.12406011569984
 30
0.0
 10
248.9714381140007
 20
38.10109854785524
 30
0.0
 10
248.9837512029919
 20
38.08579177033018
 30
0.0
 10
248.9921654247503
 20
38.07855603065887
 30
0.0
 10
248.9930459480181
 20
38.07779883203455
 30
0.0
  0
SPLINE
  5
2C5
330
1F
100
AcDbEntity
  8
0
  6
Continuous
 62
     7
370
    15
100
AcDbSpline
210
0.0
220
0.0
230
1.0
 70
     8
 71
     3
 72
    12
 73
     8
 74
     0
 42
0.000000001
 43
0.00000001
 40
0.0
 40
0.0
 40
0.0
 40
0.0
 40
0.2092378396811998
 40
0.4191378956981637
 40
0.6248316181529822
 40
0.8280490456279304
 40
1.0
 40
1.0
 40
1.0
 40
1.0
 10
248.9930459480181
 20
38.07779883203455
 30
0.0
 10
249.0035920710728
 20
38.06554039676414
 30
0.0
 10
249.0247176945819
 20
38.04098472953102
 30
0.0
 10
249.0328723233767
 20
38.00205340587868
 30
0.0
 10
249.0216709096691
 20
37.96854479890037
 30
0.0
 10
248.9941720294211
 20
37.94394610445205
 30
0.0
 10
248.9667141683336
 20
37.93501675934796
 30
0.0
 10
248.9541294046716
 20
37.93092417189428
 30
0.0
  0
SPLINE
  5
2C6
330
1F
100
AcDbEntity
  8
0
  6
Continuous
 62
     7
370
    15
100
AcDbSpline
210
0.0
220
0.0
230
1.0
 70
     8
 71
     3
 72
    16
 73
    12
 74
     0
 42
0.000000001
 43
0.00000001
 40
0.0
 40
0.0
 40
0.0
 40
0.0
 40
0.1242194589697842
 40
0.2489993218720104
 40
0.3727377574601274
 40
0.4952944629267831
 40
0.617195775016643
 40
0.7391031181773681
 40
0.8616668233223043
 40
0.9853929371717634
 40
1.0
 40
1.0
 40
1.0
 40
1.0
 10
248.9541294046716
 20
37.93092417189428
 30
0.0
 10
248.9453737752966
 20
37.92794171083865
 30
0.0
 10
248.9278230163816
 20
37.9219633336462
 30
0.0
 10
248.912983916567
 20
37.90632292037141
 30
0.0
 10
248.9091835615126
 20
37.88805760812887
 30
0.0
 10
248.9173292905438
 20
37.86889977315528
 30
0.0
 10
248.936152064678
 20
37.85116715840297
 30
0.0
 10
248.9635585757797
 20
37.83666816774976
 30
0.0
 10
248.9965300936533
 20
37.82689143201451
 30
0.0
 10
249.0212711303683
 20
37.82392309150151
 30
0.0
 10
249.0338284354701
 20
37.82367155633994
 30
0.0
 10
249.035154403318
 20
37.82364499590089
 30
0.0
  0
SPLINE
  5
2C7
330
1F
100
AcDbEntity
  8
0
  6
Continuous
 62
     7
370
    15
100
AcDbSpline
210
0.0
220
0.0
230
1.0
 70
     8
 71
     3
 72
    12
 73
     8
 74
     0
 42
0.000000001
 43
0.00000001
 40
0.0
 40
0.0
 40
0.0
 40
0.0
 40
0.2093653562126779
 40
0.4192620302416663
 40
0.624952697674246
 40
0.828170787802533
 40
1.0
 40
1.0
 40
1.0
 40
1.0
 10
249.035154403318
 20
37.82364499590089
 30
0.0
 10
249.055254858904
 20
37.82159497157089
 30
0.0
 10
249.0955067800923
 20
37.817489720453
 30
0.0
 10
249.1526232039631
 20
37.80030301922673
 30
0.0
 10
249.1983001245582
 20
37.77828544243452
 30
0.0
 10
249.2279172292683
 20
37.75440204232101
 30
0.0
 10
249.2341945160674
 20
37.73841989917805
 30
0.0
 10
249.2370704766161
 20
37.73109762529831
 30
0.0
  0
SPLINE
  5
2C8
330
1F
100
AcDbEntity
  8
0
  6
Continuous
 62
     7
370
    15
100
AcDbSpline
210
0.0
220
0.0
230
1.0
 70
     8
 71
     3
 72
    16
 73
    12
 74
     0
 42
0.000000001
 43
0.00000001
 40
0.0
 40
0.0
 40
0.0
 40
0.0
 40
0.1231896672978601
 40
0.2479795154960493
 40
0.3717274745390656
 40
0.4942903479748788
 40
0.6161927293767123
 40
0.7380955470920486
 40
0.8606497678262384
 40
0.9843631542992017
 40
1.0
 40
1.0
 40
1.0
 40
1.0
 10
249.2370704766161
 20
37.73109762529831
 30
0.0
 10
249.2392818463175
 20
37.7259864339083
 30
0.0
 10
249.2437333104633
 20
37.71569765894603
 30
0.0
 10
249.2643309517768
 20
37.7020374149849
 30
0.0
 10
249.2927186007649
 20
37.69194956400144
 30
0.0
 10
249.3264336616108
 20
37.68670948073475
 30
0.0
 10
249.3613717278653
 20
37.68684879096385
 30
0.0
 10
249.3938474929986
 20
37.6922549683206
 30
0.0
 10
249.4202916883499
 20
37.70222830813969
 30
0.0
 10
249.4328355200109
 20
37.71166986731576
 30
0.0
 10
249.4370120389288
 20
37.7170197052293
 30
0.0
 10
249.4374806967908
 20
37.71762002421459
 30
0.0
  0
SPLINE
  5
2C9
330
1F
100
AcDbEntity
  8
0
  6
Continuous
 62
     7
370
    15
100
AcDbSpline
210
0.0
220
0.0
230
1.0
 70
     8
 71
     3
 72
    12
 73
     8
 74
     0
 42
0.000000001
 43
0.00000001
 40
0.0
 40
0.0
 40
0.0
 40
0.0
 40
0.2093652529605487
 40
0.419261929727872
 40
0.6249525996333541
 40
0.8281706892237727
 40
1.0
 40
1.0
 40
1.0
 40
1.0
 10
249.4374806967908
 20
37.71762002421459
 30
0.0
 10
249.4470294243001
 20
37.72545198816409
 30
0.0
 10
249.4661511164882
 20
37.74113579563735
 30
0.0
 10
249.5151239933402
 20
37.75930836757531
 30
0.0
 10
249.5720138996097
 20
37.771476032747
 30
0.0
 10
249.6291338284269
 20
37.77650184574377
 30
0.0
 10
249.6628610609604
 20
37.7738530943092
 30
0.0
 10
249.6783133134355
 20
37.77263955934541
 30
0.0
  0
SPLINE
  5
2CA
330
1F
100
AcDbEntity
  8
0
  6
Continuous
 62
     7
370
    15
100
AcDbSpline
210
0.0
220
0.0
230
1.0
 70
     8
 71
     3
 72
    16
 73
    12
 74
     0
 42
0.000000001
 43
0.00000001
 40
0.0
 40
0.0
 40
0.0
 40
0.0
 40
0.1243654221088743
 40
0.2491438717990269
 40
0.3728809614207889
 40
0.4954367981749577
 40
0.6173379650704633
 40
0.7392459561098789
 40
0.8618110113606683
 40
0.985538933564893
 40
1.0
 40
1.0
 40
1.0
 40
1.0
 10
249.6783133134355
 20
37.77263955934541
 30
0.0
 10
249.6893216530146
 20
37.77189569217572
 30
0.0
 10
249.7113748917552
 20
37.77040548739355
 30
0.0
 10
249.7469656096972
 20
37.77551072935309
 30
0.0
 10
249.7792034319823
 20
37.78569153424367
 30
0.0
 10
249.8047895350166
 20
37.8002756965633
 30
0.0
 10
249.820887387118
 20
37.81747413337589
 30
0.0
 10
249.8259069435502
 20
37.83541087687853
 30
0.0
 10
249.8193063689811
 20
37.85201281698221
 30
0.0
 10
249.80699327999
 20
37.86146426260833
 30
0.0
 10
249.7985790582315
 20
37.86534299125181
 30
0.0
 10
249.7976985349638
 20
37.86574888866194
 30
0.0
  0
SPLINE
  5
2CB
330
1F
100
AcDbEntity
  8
0
  6
Continuous
 62
     7
370
    15
100
AcDbSpline
210
0.0
220
0.0
230
1.0
 70
     8
 71
     3
 72
    12
 73
     8
 74
     0
 42
0.000000001
 43
0.00000001
 40
0.0
 40
0.0
 40
0.0
 40
0.0
 40
0.2092378396813246
 40
0.4191378956981351
 40
0.6248316181529567
 40
0.8280490456278826
 40
1.0
 40
1.0
 40
1.0
 40
1.0
 10
249.7976985349638
 20
37.86574888866194
 30
0.0
 10
249.787152411909
 20
37.87324145454254
 30
0.0
 10
249.7660267884
 20
37.88825029950748
 30
0.0
 10
249.7578721596052
 20
37.92002138284172
 30
0.0
 10
249.7690735733127
 20
37.95488659086741
 30
0.0
 10
249.7965724535609
 20
37.98812553079271
 30
0.0
 10
249.8240303146483
 20
38.00587357669477
 30
0.0
 10
249.8366150783103
 20
38.01400803998849
 30
0.0
  0
LINE
  5
2CC
330
1F
100
AcDbEntity
  8
0
  6
Continuous
 62
     7
370
    15
100
AcDbLine
 10
249.797698535
 20
37.7975795504
 30
0.0
 11
249.797698535
 21
37.8657488887
 31
0.0
  0
LWPOLYLINE
  5
2CD
330
1F
100
AcDbEntity
  8
0
  6
Continuous
 62
     7
370
    15
100
AcDbPolyline
 90
        3
 70
   128
 43
0.0
 10
249.0617406516
 20
37.8212362079
 10
249.0786127499
 20
37.8211951727
 10
249.1124311695
 20
37.8160691884
  0
ARC
  5
2CE
330
1F
100
AcDbEntity
  8
0
  6
Continuous
 62
     7
370
    15
100
AcDbCircle
 10
249.1871426008
 20
38.0458423361
 30
0.0
 40
0.2416143567382893
100
AcDbArc
 50
251.9879093013
 51
313.4362316454
  0
LWPOLYLINE
  5
2CF
330
1F
100
AcDbEntity
  8
0
  6
Continuous
 62
     7
370
    15
100
AcDbPolyline
 90
        9
 70
   128
 43
0.0
 10
249.3532637862
 20
37.8703964779
 10
249.3696251802
 20
37.8882348973
 10
249.3953812132
 20
37.9018857255
 10
249.4275638847
 20
37.9097759074
 10
249.4624646197
 20
37.9109962166
 10
249.4960616266
 20
37.9054060306
 10
249.5244833493
 20
37.8936495353
 10
249.5444546062
 20
37.8770814922
 10
249.5536740064
 20
37.8576111225
  0
ARC
  5
2D0
330
1F
100
AcDbEntity
  8
0
  6
Continuous
 62
     7
370
    15
100
AcDbCircle
 10
249.684706946
 20
37.909633764
 30
0.0
 40
0.1409822205295208
100
AcDbArc
 50
201.6540463067
 51
266.4402686119
  0
LINE
  5
2D1
330
1F
100
AcDbEntity
  8
0
  6
Continuous
 62
     7
370
    15
100
AcDbLine
 10
250.0203722415
 20
37.1263181547
 30
0.0
 11
250.0061944564
 21
37.2027324314
 31
0.0
  0
LINE
  5
2D2
330
1F
100
AcDbEntity
  8
0
  6
Continuous
 62
     7
370
    15
100
AcDbLine
 10
248.7845500266
 20
37.2027324314
 30
0.0
 11
248.7761266008
 21
37.1751658263
 31
0.0
  0
LINE
  5
2D3
330
1F
100
AcDbEntity
  8
0
  6
Continuous
 62
     7
370
    15
100
AcDbLine
 10
249.7555900797
 20
37.7792720998
 30
0.0
 11
249.7555900797
 21
38.1199027248
 31
0.0
  0
LINE
  5
2D4
330
1F
100
AcDbEntity
  8
0
  6
Continuous
 62
     7
370
    15
100
AcDbLine
 10
249.5536740064
 20
37.8576111225
 30
0.0
 11
249.5536740064
 21
38.2138345866
 31
0.0
  0
LINE
  5
2D5
330
1F
100
AcDbEntity
  8
0
  6
Continuous
 62
     7
370
    15
100
AcDbLine
 10
249.3532637862
 20
37.8703964779
 30
0.0
 11
249.3532637862
 21
38.2259276965
 31
0.0
  0
LINE
  5
2D6
330
1F
100
AcDbEntity
  8
0
  6
Continuous
 62
     7
370
    15
100
AcDbLine
 10
246.491361401
 20
37.4443451357
 30
0.0
 11
249.792185648
 21
37.0044199617
 31
0.0
  0
LWPOLYLINE
  5
2D7
330
1F
100
AcDbEntity
  8
0
  6
Continuous
 62
     7
370
    15
100
AcDbPolyline
 90
        9
 70
   128
 43
0.0
 10
246.4025254906
 20
37.6426451839
 10
246.3674392831
 20
37.6186662123
 10
246.3448373397
 20
37.5901179416
 10
246.3363901637
 20
37.5591103666
 10
246.3427220838
 20
37.5279352488
 10
246.3633651093
 20
37.4988967326
 10
246.3967935199
 20
37.4741410467
 10
246.4405366309
 20
37.4554978772
 10
246.491361401
 20
37.4443451357
  0
LINE
  5
2D8
330
1F
100
AcDbEntity
  8
0
  6
Continuous
 62
     7
370
    15
100
AcDbLine
 10
248.920039675
 20
38.951229397
 30
0.0
 11
246.4025254906
 21
37.6426451839
 31
0.0
  0
ARC
  5
2D9
330
1F
100
AcDbEntity
  8
0
  6
Continuous
 62
     7
370
    15
100
AcDbCircle
 10
249.05337999
 20
38.6703171686
 30
0.0
 40
0.3109522787338738
100
AcDbArc
 50
81.5904697446
 51
115.3922405405
  0
LINE
  5
2DA
330
1F
100
AcDbEntity
  8
0
  6
Continuous
 62
     7
370
    15
100
AcDbLine
 10
252.3996802541
 20
38.5380009209
 30
0.0
 11
249.0988560071
 21
38.9779260948
 31
0.0
  0
LWPOLYLINE
  5
2DB
330
1F
100
AcDbEntity
  8
0
  6
Continuous
 62
     7
370
    15
100
AcDbPolyline
 90
        9
 70
   128
 43
0.0
 10
252.4885161645
 20
38.3397008726
 10
252.523602372
 20
38.3636798442
 10
252.5462043154
 20
38.3922281149
 10
252.5546514914
 20
38.4232356899
 10
252.5483195713
 20
38.4544108077
 10
252.5276765458
 20
38.4834493239
 10
252.4942481352
 20
38.5082050098
 10
252.4505050242
 20
38.5268481793
 10
252.3996802541
 20
38.5380009209
  0
LINE
  5
2DC
330
1F
100
AcDbEntity
  8
0
  6
Continuous
 62
     7
370
    15
100
AcDbLine
 10
249.9710019801
 20
37.0311166596
 30
0.0
 11
252.4885161645
 21
38.3397008726
 31
0.0
  0
ARC
  5
2DD
330
1F
100
AcDbEntity
  8
0
  6
Continuous
 62
     7
370
    15
100
AcDbCircle
 10
249.8376616651
 20
37.3120288879
 30
0.0
 40
0.3109522787337867
100
AcDbArc
 50
261.5904697446
 51
295.3922405405
  0
LWPOLYLINE
  5
2DE
330
1F
100
AcDbEntity
  8
0
  6
Continuous
 62
     7
370
    15
100
AcDbPolyline
 90
        9
 70
   128
 43
0.0
 10
252.4818248585
 20
38.3439909564
 10
252.5151567556
 20
38.3667709794
 10
252.5366286018
 20
38.3938918366
 10
252.544653419
 20
38.4233490329
 10
252.5386380949
 20
38.4529653948
 10
252.5190272207
 20
38.4805519852
 10
252.4872702306
 20
38.5040698868
 10
252.4457142752
 20
38.5217808978
 10
252.3974307436
 20
38.5323760023
  0
LINE
  5
2DF
330
1F
100
AcDbEntity
  8
0
  6
Continuous
 62
     7
370
    15
100
AcDbLine
 10
252.3974307436
 20
38.5323760023
 30
0.0
 11
249.0966064965
 21
38.9723011761
 31
0.0
  0
ARC
  5
2E0
330
1F
100
AcDbEntity
  8
0
  6
Continuous
 62
     7
370
    15
100
AcDbCircle
 10
249.0534042803
 20
38.6800726942
 30
0.0
 40
0.2954046666803207
100
AcDbArc
 50
81.5904698125
 51
115.3922403752
  0
LINE
  5
2E1
330
1F
100
AcDbEntity
  8
0
  6
Continuous
 62
     7
370
    15
100
AcDbLine
 10
248.926730981
 20
38.9469393133
 30
0.0
 11
246.4092167966
 21
37.6383551003
 31
0.0
  0
LWPOLYLINE
  5
2E2
330
1F
100
AcDbEntity
  8
0
  6
Continuous
 62
     7
370
    15
100
AcDbPolyline
 90
        9
 70
   128
 43
0.0
 10
246.4092167966
 20
37.6383551003
 10
246.3758848995
 20
37.6155750772
 10
246.3544130533
 20
37.58845422
 10
246.3463882361
 20
37.5589970238
 10
246.3524035602
 20
37.5293806619
 10
246.3720144344
 20
37.5017940714
 10
246.4037714245
 20
37.4782761699
 10
246.4453273799
 20
37.4605651589
 10
246.4936109115
 20
37.4499700544
  0
LINE
  5
2E3
330
1F
100
AcDbEntity
  8
0
  6
Continuous
 62
     7
370
    15
100
AcDbLine
 10
246.4936109115
 20
37.4499700544
 30
0.0
 11
249.7944351585
 21
37.0100448804
 31
0.0
  0
ARC
  5
2E4
330
1F
100
AcDbEntity
  8
0
  6
Continuous
 62
     7
370
    15
100
AcDbCircle
 10
249.8376373748
 20
37.3022733603
 30
0.0
 40
0.2954046647970036
100
AcDbArc
 50
261.5904697446
 51
295.3922405405
  0
LINE
  5
2E5
330
1F
100
AcDbEntity
  8
0
  6
Continuous
 62
     7
370
    15
100
AcDbLine
 10
249.964310674
 20
37.0354067434
 30
0.0
 11
252.4818248585
 21
38.3439909564
 31
0.0
  0
LINE
  5
2E6
330
1F
100
AcDbEntity
  8
0
  6
Continuous
 62
     7
370
    15
100
AcDbLine
 10
246.5363516118
 20
37.4672717979
 30
0.0
 11
246.4936109115
 21
37.4499700544
 31
0.0
  0
LINE
  5
2E7
330
1F
100
AcDbEntity
  8
0
  6
Continuous
 62
     7
370
    15
100
AcDbLine
 10
246.6827171487
 20
37.4562142865
 30
0.0
 11
246.5363516118
 21
37.4672717979
 31
0.0
  0
LINE
  5
2E8
330
1F
100
AcDbEntity
  8
0
  6
Continuous
 62
     7
370
    15
100
AcDbLine
 10
246.6827171487
 20
37.4562142865
 30
0.0
 11
247.2208419153
 21
37.384494433
 31
0.0
  0
LINE
  5
2E9
330
1F
100
AcDbEntity
  8
0
  6
Continuous
 62
     7
370
    15
100
AcDbLine
 10
249.7413304126
 20
36.1260825903
 30
0.0
 11
249.8250540625
 21
36.1149241224
 31
0.0
  0
LINE
  5
2EA
330
1F
100
AcDbEntity
  8
0
  6
Continuous
 62
     7
370
    15
100
AcDbLine
 10
248.0226087167
 20
37.5142831679
 30
0.0
 11
249.5094664856
 21
37.3161186751
 31
0.0
  0
LWPOLYLINE
  5
2EB
330
1F
100
AcDbEntity
  8
0
  6
Continuous
 62
     7
370
    15
100
AcDbPolyline
 90
        9
 70
   128
 43
0.0
 10
247.8005189407
 20
38.0100332886
 10
247.7128034221
 20
37.9500858596
 10
247.6562985635
 20
37.8787151827
 10
247.6351806236
 20
37.8011962453
 10
247.6510104237
 20
37.7232584508
 10
247.7026179875
 20
37.6506621602
 10
247.786189014
 20
37.5887729456
 10
247.8955467915
 20
37.5421650218
 10
248.0226087167
 20
37.5142831679
  0
LINE
  5
2EC
330
1F
100
AcDbEntity
  8
0
  6
Continuous
 62
     7
370
    15
100
AcDbLine
 10
248.9345343391
 20
38.5994856368
 30
0.0
 11
247.8005189407
 21
38.0100332886
 31
0.0
  0
ARC
  5
2ED
330
1F
100
AcDbEntity
  8
0
  6
Continuous
 62
     7
370
    15
100
AcDbCircle
 10
249.2678851265
 20
37.8972050659
 30
0.0
 40
0.7773806968333593
100
AcDbArc
 50
81.5904697446
 51
115.3922405406
  0
LINE
  5
2EE
330
1F
100
AcDbEntity
  8
0
  6
Continuous
 62
     7
370
    15
100
AcDbLine
 10
250.8684329384
 20
38.4680628887
 30
0.0
 11
249.3815751695
 21
38.6662273815
 31
0.0
  0
LWPOLYLINE
  5
2EF
330
1F
100
AcDbEntity
  8
0
  6
Continuous
 62
     7
370
    15
100
AcDbPolyline
 90
        9
 70
   128
 43
0.0
 10
251.0905227145
 20
37.9723127679
 10
251.1782382332
 20
38.0322601969
 10
251.2347430917
 20
38.1036308738
 10
251.2558610316
 20
38.1811498113
 10
251.2400312315
 20
38.2590876059
 10
251.1884236678
 20
38.3316838965
 10
251.1048526412
 20
38.3935731111
 10
250.9954948636
 20
38.4401810349
 10
250.8684329384
 20
38.4680628887
  0
LINE
  5
2F0
330
1F
100
AcDbEntity
  8
0
  6
Continuous
 62
     7
370
    15
100
AcDbLine
 10
249.956507316
 20
37.3828604198
 30
0.0
 11
251.0905227145
 21
37.9723127679
 31
0.0
  0
ARC
  5
2F1
330
1F
100
AcDbEntity
  8
0
  6
Continuous
 62
     7
370
    15
100
AcDbCircle
 10
249.6231565286
 20
38.0851409908
 30
0.0
 40
0.777380696833657
100
AcDbArc
 50
261.5904697446
 51
295.3922405405
  0
LWPOLYLINE
  5
2F2
330
1F
100
AcDbEntity
  8
0
  6
Continuous
 62
     7
370
    15
100
AcDbPolyline
 90
       19
 70
   128
 43
0.0
 10
250.0895590362
 20
37.5782524663
 10
250.2953578857
 20
37.73031612
 10
250.3986538437
 20
37.9138429668
 10
250.3869878933
 20
38.1066969601
 10
250.2617671201
 20
38.2856170624
 10
250.0380949975
 20
38.4290228686
 10
249.7429496846
 20
38.5196175221
 10
249.411930062
 20
38.5464739706
 10
249.0849619814
 20
38.5063529301
 10
248.8014826189
 20
38.4040935902
 10
248.5956837694
 20
38.2520299365
 10
248.4923878114
 20
38.0685030898
 10
248.5040537618
 20
37.8756490964
 10
248.629274535
 20
37.6967289941
 10
248.8529466575
 20
37.5533231879
 10
249.1480919705
 20
37.4627285344
 10
249.4791115931
 20
37.4358720859
 10
249.8060796737
 20
37.4759931264
 10
250.0895590362
 20
37.5782524663
  0
SPLINE
  5
2F3
330
1F
100
AcDbEntity
  8
0
  6
Continuous
 62
     7
370
    15
100
AcDbSpline
210
0.0
220
0.0
230
1.0
 70
     8
 71
     3
 72
    12
 73
     8
 74
     0
 42
0.000000001
 43
0.00000001
 40
0.0
 40
0.0
 40
0.0
 40
0.0
 40
0.0530156033971219
 40
0.4232722080772036
 40
0.5947040840145902
 40
0.9898305056312587
 40
1.0
 40
1.0
 40
1.0
 40
1.0
 10
249.8482760911859
 20
37.02346878325376
 30
0.0
 10
249.846941364465
 20
37.02492955938669
 30
0.0
 10
249.8362850163307
 20
37.03659227563762
 30
0.0
 10
249.8201451059726
 20
37.06595655835617
 30
0.0
 10
249.7952833838597
 20
37.13014934512576
 30
0.0
 10
249.7804619740091
 20
37.18087450964914
 30
0.0
 10
249.7710872191943
 20
37.21934034295894
 30
0.0
 10
249.7708519922588
 20
37.22030550954416
 30
0.0
  0
SPLINE
  5
2F4
330
1F
100
AcDbEntity
  8
0
  6
Continuous
 62
     7
370
    15
100
AcDbSpline
210
0.0
220
0.0
230
1.0
 70
     8
 71
     3
 72
     9
 73
     5
 74
     0
 42
0.000000001
 43
0.00000001
 40
0.0
 40
0.0
 40
0.0
 40
0.0
 40
0.9501288837635501
 40
1.0
 40
1.0
 40
1.0
 40
1.0
 10
249.8482760911852
 20
37.02346878325453
 30
0.0
 10
249.8395664500516
 20
37.02168052516808
 30
0.0
 10
249.8303996503864
 20
37.01979840357698
 30
0.0
 10
249.8187455286744
 20
37.01965763797878
 30
0.0
 10
249.8181643246159
 20
37.01965061784126
 30
0.0
  0
ARC
  5
2F5
330
1F
100
AcDbEntity
  8
0
  6
Continuous
 62
     7
370
    15
100
AcDbCircle
 10
249.8373067505
 20
36.1978037684
 30
0.0
 40
0.0837804516478326
100
AcDbArc
 50
261.5904697446
 51
295.3922405404
  0
SPLINE
  5
2F6
330
1F
100
AcDbEntity
  8
0
  6
Continuous
 62
     7
370
    15
100
AcDbSpline
210
0.0
220
0.0
230
1.0
 70
     8
 71
     3
 72
     9
 73
     5
 74
     0
 42
0.000000001
 43
0.00000001
 40
0.0
 40
0.0
 40
0.0
 40
0.0
 40
0.0498711162381611
 40
1.0
 40
1.0
 40
1.0
 40
1.0
 10
249.8937268248324
 20
37.0309318538158
 30
0.0
 10
249.8929388563269
 20
37.03073446093443
 30
0.0
 10
249.8771387586974
 20
37.02677640071317
 30
0.0
 10
249.8623383689632
 20
37.02508029873399
 30
0.0
 10
249.8482760911859
 20
37.02346878325377
 30
0.0
  0
LINE
  5
2F7
330
1F
100
AcDbEntity
  8
0
  6
Continuous
 62
     7
370
    15
100
AcDbLine
 10
252.2083245064
 20
38.2811695266
 30
0.0
 11
252.3546900433
 21
38.3359308369
 31
0.0
  0
LINE
  5
2F8
330
1F
100
AcDbEntity
  8
0
  6
Continuous
 62
     7
370
    15
100
AcDbLine
 10
252.3546900433
 20
38.3359308369
 30
0.0
 11
252.4818248585
 21
38.3439909564
 31
0.0
  0
LINE
  5
2F9
330
1F
100
AcDbEntity
  8
0
  6
Continuous
 62
     7
370
    15
100
AcDbLine
 10
251.797900736
 20
38.0678344559
 30
0.0
 11
252.2083245064
 21
38.2811695266
 31
0.0
  0
LINE
  5
2FA
330
1F
100
AcDbEntity
  8
0
  6
Continuous
 62
     7
370
    15
100
AcDbLine
 10
249.87323288
 20
36.1221170635
 30
0.0
 11
252.3907470644
 21
37.4307012765
 31
0.0
  0
SPLINE
  5
2FB
330
1F
100
AcDbEntity
  8
0
  6
Continuous
 62
     7
370
    15
100
AcDbSpline
210
0.0
220
0.0
230
1.0
 70
     8
 71
     3
 72
    15
 73
    11
 74
     0
 42
0.000000001
 43
0.00000001
 40
0.0
 40
0.0
 40
0.0
 40
0.0
 40
0.262338003328789
 40
0.3588352750210408
 40
0.4561280779211714
 40
0.5198402084624488
 40
0.5836789586010354
 40
0.6703563782494832
 40
0.8830031016095958
 40
1.0
 40
1.0
 40
1.0
 40
1.0
 10
247.2208419152615
 20
37.38449443298093
 30
0.0
 10
247.259124028525
 20
37.38039146613187
 30
0.0
 10
247.3114876680549
 20
37.37477928177808
 30
0.0
 10
247.3785192860847
 20
37.37935250830241
 30
0.0
 10
247.4147305982154
 20
37.38718752618951
 30
0.0
 10
247.4398394538427
 20
37.40019271388937
 30
0.0
 10
247.4545378209183
 20
37.41671497297254
 30
0.0
 10
247.4607667489794
 20
37.44786500105747
 30
0.0
 10
247.4460914221127
 20
37.48288631572408
 30
0.0
 10
247.4297786068771
 20
37.50918677435804
 30
0.0
 10
247.4239888731749
 20
37.5185213159156
 30
0.0
  0
LWPOLYLINE
  5
2FC
330
1F
100
AcDbEntity
  8
0
  6
Continuous
 62
     7
370
    15
100
AcDbPolyline
 90
        3
 70
   128
 43
0.0
 10
250.3707618182
 20
37.8380716261
 10
250.2617671201
 20
37.979414258
 10
250.2172362391
 20
38.0170293945
  0
LINE
  5
2FD
330
1F
100
AcDbEntity
  8
0
  6
Continuous
 62
     7
370
    15
100
AcDbLine
 10
248.5453722415
 20
37.881704907
 30
0.0
 11
248.5202798369
 21
37.8380716261
 31
0.0
  0
ARC
  5
2FE
330
1F
100
AcDbEntity
  8
0
  6
Continuous
 62
     7
370
    15
100
AcDbCircle
 10
247.6769795332
 20
37.6862860277
 30
0.0
 40
0.3035609866305071
100
AcDbArc
 50
194.7141535409
 51
213.5493970474
  0
LINE
  5
2FF
330
1F
100
AcDbEntity
  8
0
  6
Continuous
 62
     7
370
    15
100
AcDbLine
 10
247.0931409191
 20
37.6695493572
 30
0.0
 11
246.6827171487
 21
37.4562142865
 31
0.0
  0
SPLINE
  5
300
330
1F
100
AcDbEntity
  8
0
  6
Continuous
 62
     7
370
    15
100
AcDbSpline
210
0.0
220
0.0
230
1.0
 70
     8
 71
     3
 72
    14
 73
    10
 74
     0
 42
0.000000001
 43
0.00000001
 40
0.0
 40
0.0
 40
0.0
 40
0.0
 40
0.2717201334719422
 40
0.3854324755905671
 40
0.4523611441646297
 40
0.5196941782138126
 40
0.5953244791004375
 40
0.7174676973996369
 40
0.9999999999999999
 40
0.9999999999999999
 40
0.9999999999999999
 40
0.9999999999999999
 10
247.3833738174872
 20
37.60918248511878
 30
0.0
 10
247.3768306631849
 20
37.63208304587907
 30
0.0
 10
247.3675492598209
 20
37.66456727777409
 30
0.0
 10
247.3363221433428
 20
37.6992346426328
 30
0.0
 10
247.3090950665722
 20
37.71378266455146
 30
0.0
 10
247.2796328785385
 20
37.72044735523355
 30
0.0
 10
247.2399593817457
 20
37.72036373356926
 30
0.0
 10
247.1719488136381
 20
37.70695063675609
 30
0.0
 10
247.1255412718572
 20
37.68492617521863
 30
0.0
 10
247.0931409190803
 20
37.6695493572241
 30
0.0
  0
LINE
  5
301
330
1F
100
AcDbEntity
  8
0
  6
Continuous
 62
     7
370
    15
100
AcDbLine
 10
246.5363516118
 20
37.4672717979
 30
0.0
 11
246.4092167966
 21
37.6383551003
 31
0.0
  0
LINE
  5
302
330
1F
100
AcDbEntity
  8
0
  6
Continuous
 62
     7
370
    15
100
AcDbLine
 10
252.3546900433
 20
38.3359308369
 30
0.0
 11
252.3974307436
 21
38.5323760023
 31
0.0
  0
LINE
  5
303
330
1F
100
AcDbEntity
  8
0
  6
Continuous
 62
     7
370
    15
100
AcDbLine
 10
252.2083245064
 20
38.2811695266
 30
0.0
 11
251.6701997398
 21
38.3528893801
 31
0.0
  0
SPLINE
  5
304
330
1F
100
AcDbEntity
  8
0
  6
Continuous
 62
     7
370
    15
100
AcDbSpline
210
0.0
220
0.0
230
1.0
 70
     8
 71
     3
 72
    14
 73
    10
 74
     0
 42
0.000000001
 43
0.00000001
 40
0.0
 40
0.0
 40
0.0
 40
0.0
 40
0.2717201334720682
 40
0.3854324755906215
 40
0.4523611441646828
 40
0.5196941782138559
 40
0.5953244791004549
 40
0.7174676973996846
 40
1.0
 40
1.0
 40
1.0
 40
1.0
 10
251.5076678376093
 20
38.12820132796004
 30
0.0
 10
251.5142109919116
 20
38.10530076719974
 30
0.0
 10
251.5234923952756
 20
38.0728165353047
 30
0.0
 10
251.5547195117537
 20
38.038149170446
 30
0.0
 10
251.5819465885242
 20
38.02360114852732
 30
0.0
 10
251.611408776558
 20
38.01693645784526
 30
0.0
 10
251.6510822733508
 20
38.01702007950954
 30
0.0
 10
251.7190928414584
 20
38.03043317632272
 30
0.0
 10
251.7655003832392
 20
38.05245763786018
 30
0.0
 10
251.7979007360162
 20
38.06783445585469
 30
0.0
  0
ARC
  5
305
330
1F
100
AcDbEntity
  8
0
  6
Continuous
 62
     7
370
    15
100
AcDbCircle
 10
251.2140621219
 20
38.0510977854
 30
0.0
 40
0.3035609866301618
100
AcDbArc
 50
14.7141535409
 51
33.5493970474
  0
SPLINE
  5
306
330
1F
100
AcDbEntity
  8
0
  6
Continuous
 62
     7
370
    15
100
AcDbSpline
210
0.0
220
0.0
230
1.0
 70
     8
 71
     3
 72
    15
 73
    11
 74
     0
 42
0.000000001
 43
0.00000001
 40
0.0
 40
0.0
 40
0.0
 40
0.0
 40
0.2623380033286847
 40
0.3588352750209747
 40
0.4561280779211363
 40
0.5198402084624185
 40
0.5836789586010387
 40
0.670356378249557
 40
0.8830031016095873
 40
1.0
 40
1.0
 40
1.0
 40
1.0
 10
251.6701997398349
 20
38.35288938009788
 30
0.0
 10
251.6319176265714
 20
38.3569923469469
 30
0.0
 10
251.5795539870416
 20
38.36260453130064
 30
0.0
 10
251.5125223690118
 20
38.35803130477639
 30
0.0
 10
251.4763110568811
 20
38.3501962868893
 30
0.0
 10
251.4512022012538
 20
38.33719109918943
 30
0.0
 10
251.4365038341782
 20
38.32066884010626
 30
0.0
 10
251.4302749061171
 20
38.28951881202133
 30
0.0
 10
251.4449502329838
 20
38.25449749735471
 30
0.0
 10
251.4612630482194
 20
38.22819703872077
 30
0.0
 10
251.4670527819216
 20
38.21886249716321
 30
0.0
  0
ARC
  5
307
330
1F
100
AcDbEntity
  8
0
  6
Continuous
 62
     7
370
    15
100
AcDbCircle
 10
252.3796613194
 20
37.4580881742
 30
0.0
 40
0.0295454888265247
100
AcDbArc
 50
292.037255341
 51
346.3556783797
  0
SPLINE
  5
308
330
1F
100
AcDbEntity
  8
0
  6
Continuous
 62
     7
370
    15
100
AcDbSpline
210
0.0
220
0.0
230
1.0
 70
     8
 71
     3
 72
     9
 73
     5
 74
     0
 42
0.000000001
 43
0.00000001
 40
0.0
 40
0.0
 40
0.0
 40
0.0
 40
0.0498711162382829
 40
1.0
 40
1.0
 40
1.0
 40
1.0
 10
248.9973148302641
 20
38.85195574798614
 30
0.0
 10
248.9981027987695
 20
38.85150122729371
 30
0.0
 10
249.0139028963992
 20
38.842387320754
 30
0.0
 10
249.0287032861333
 20
38.83169410904191
 30
0.0
 10
249.0427655639105
 20
38.82153417973409
 30
0.0
  0
SPLINE
  5
309
330
1F
100
AcDbEntity
  8
0
  6
Continuous
 62
     7
370
    15
100
AcDbSpline
210
0.0
220
0.0
230
1.0
 70
     8
 71
     3
 72
    12
 73
     8
 74
     0
 42
0.000000001
 43
0.00000001
 40
0.0
 40
0.0
 40
0.0
 40
0.0
 40
0.0530156033972036
 40
0.4232722080770764
 40
0.5947040840147034
 40
0.9898305056312193
 40
1.0
 40
1.0
 40
1.0
 40
1.0
 10
249.0427655639105
 20
38.82153417973409
 30
0.0
 10
249.0441002906315
 20
38.81703618599518
 30
0.0
 10
249.0547566387659
 20
38.78112457469992
 30
0.0
 10
249.0708965491238
 20
38.73843364936231
 30
0.0
 10
249.0957582712368
 20
38.69163346778593
 30
0.0
 10
249.1105796810876
 20
38.67618975362375
 30
0.0
 10
249.1199544359021
 20
38.67280281986984
 30
0.0
 10
249.1201896628377
 20
38.67271783652217
 30
0.0
  0
SPLINE
  5
30A
330
1F
100
AcDbEntity
  8
0
  6
Continuous
 62
     7
370
    15
100
AcDbSpline
210
0.0
220
0.0
230
1.0
 70
     8
 71
     3
 72
     9
 73
     5
 74
     0
 42
0.000000001
 43
0.00000001
 40
0.0
 40
0.0
 40
0.0
 40
0.0
 40
0.9501288837633839
 40
1.0
 40
1.0
 40
1.0
 40
1.0
 10
249.0427655639112
 20
38.82153417973191
 30
0.0
 10
249.051475205045
 20
38.8350938826068
 30
0.0
 10
249.0606420047104
 20
38.84936531788954
 30
0.0
 10
249.072296126422
 20
38.86257805024935
 30
0.0
 10
249.0728773304806
 20
38.86323698396068
 30
0.0
  0
SPLINE
  5
30B
330
1F
100
AcDbEntity
  8
0
  6
Continuous
 62
     7
370
    15
100
AcDbSpline
210
0.0
220
0.0
230
1.0
 70
    11
 71
     3
 72
    68
 73
    64
 74
     0
 42
0.000000001
 43
0.00000001
 40
0.0
 40
0.0
 40
0.0
 40
0.0
 40
0.0312500000000002
 40
0.0312500000000002
 40
0.0625000000000004
 40
0.0625000000000004
 40
0.0937500000000004
 40
0.0937500000000004
 40
0.1250000000000004
 40
0.1250000000000004
 40
0.1562500000000004
 40
0.1562500000000004
 40
0.1875000000000004
 40
0.1875000000000004
 40
0.2187500000000004
 40
0.2187500000000004
 40
0.2500000000000003
 40
0.2500000000000003
 40
0.2812500000000003
 40
0.2812500000000003
 40
0.3125000000000004
 40
0.3125000000000004
 40
0.3437500000000004
 40
0.3437500000000004
 40
0.3750000000000004
 40
0.3750000000000004
 40
0.4062500000000004
 40
0.4062500000000004
 40
0.4375000000000004
 40
0.4375000000000004
 40
0.4687500000000005
 40
0.4687500000000005
 40
0.5000000000000004
 40
0.5000000000000004
 40
0.5312500000000006
 40
0.5312500000000006
 40
0.5625000000000004
 40
0.5625000000000004
 40
0.5937500000000004
 40
0.5937500000000004
 40
0.6250000000000004
 40
0.6250000000000004
 40
0.6562500000000003
 40
0.6562500000000003
 40
0.6875000000000003
 40
0.6875000000000003
 40
0.7187500000000003
 40
0.7187500000000003
 40
0.7500000000000002
 40
0.7500000000000002
 40
0.7812500000000002
 40
0.7812500000000002
 40
0.8125000000000002
 40
0.8125000000000002
 40
0.8437500000000002
 40
0.8437500000000002
 40
0.8750000000000001
 40
0.8750000000000001
 40
0.9062500000000001
 40
0.9062500000000001
 40
0.9375000000000001
 40
0.9375000000000001
 40
1.0
 40
1.0
 40
1.0
 40
1.0
 10
225.9594196899086
 20
52.98905579838515
 30
0.0
 10
226.0295345634543
 20
52.94857934345277
 30
0.0
 10
226.1044900335479
 20
52.90832854594259
 30
0.0
 10
226.2636397083985
 20
52.82816448319113
 30
0.0
 10
226.3488270627558
 20
52.78781939322131
 30
0.0
 10
226.5235737508947
 20
52.70959652944771
 30
0.0
 10
226.6127656988155
 20
52.67182096242396
 30
0.0
 10
226.7945882684622
 20
52.59850655517097
 30
0.0
 10
226.8877318776971
 20
52.56281593548871
 30
0.0
 10
227.069409956024
 20
52.4962690826471
 30
0.0
 10
227.1589016596316
 20
52.46500973033721
 30
0.0
 10
227.3349280544428
 20
52.40613370337216
 30
0.0
 10
227.4199885680966
 20
52.37902694088222
 30
0.0
 10
227.5801022524674
 20
52.33025399259434
 30
0.0
 10
227.6563452110656
 20
52.3082236013437
 30
0.0
 10
227.7972333096519
 20
52.26979590118165
 30
0.0
 10
227.860746723719
 20
52.25368623524843
 30
0.0
 10
227.9742213825035
 20
52.22742514651173
 30
0.0
 10
228.0245432656768
 20
52.21723731786759
 30
0.0
 10
228.1074762269582
 20
52.203857567746
 30
0.0
 10
228.1405587817583
 20
52.20052487219763
 30
0.0
 10
228.1899744245158
 20
52.20088295429435
 30
0.0
 10
228.2059985229474
 20
52.20467258369111
 30
0.0
 10
228.2198827256601
 20
52.21943491994397
 30
0.0
 10
228.2180637738677
 20
52.23038850557408
 30
0.0
 10
228.196401237754
 20
52.26022378994193
 30
0.0
 10
228.176908665553
 20
52.27862495791751
 30
0.0
 10
228.1215344676175
 20
52.32255726855909
 30
0.0
 10
228.0851281866429
 20
52.34842734506673
 30
0.0
 10
227.9976073265193
 20
52.4064831467275
 30
0.0
 10
227.9468770897346
 20
52.43846277907576
 30
0.0
 10
227.8317146978887
 20
52.50854853114704
 30
0.0
 10
227.7667096016308
 20
52.54696765938129
 30
0.0
 10
227.6282744421416
 20
52.62689114756137
 30
0.0
 10
227.5543263912749
 20
52.6687239750766
 30
0.0
 10
227.3967081626994
 20
52.75612155783417
 30
0.0
 10
227.3141392718491
 20
52.80105843911228
 30
0.0
 10
227.1458778724233
 20
52.89072946787454
 30
0.0
 10
227.0589149620433
 20
52.93614198385703
 30
0.0
 10
226.8829558237686
 20
53.02566431423008
 30
0.0
 10
226.7955032635447
 20
53.06900093143356
 30
0.0
 10
226.6213913237018
 20
53.15244001859632
 30
0.0
 10
226.5338510429621
 20
53.19291540481147
 30
0.0
 10
226.3659041925765
 20
53.26704060183909
 30
0.0
 10
226.285012378025
 20
53.30095843535498
 30
0.0
 10
226.1292441395899
 20
53.36206021099311
 30
0.0
 10
226.0546306036119
 20
53.38907561831016
 30
0.0
 10
225.9179253707153
 20
53.43363234241344
 30
0.0
 10
225.8549244761911
 20
53.45154478717596
 30
0.0
 10
225.7400171121835
 20
53.4781857741832
 30
0.0
 10
225.6898890039138
 20
53.48649209232312
 30
0.0
 10
225.6041960007541
 20
53.49348854612274
 30
0.0
 10
225.5682793184383
 20
53.49210984981622
 30
0.0
 10
225.5134602443223
 20
53.47979540552475
 30
0.0
 10
225.4944843542952
 20
53.46901528137903
 30
0.0
 10
225.4733799565833
 20
53.43871185037538
 30
0.0
 10
225.4714675457373
 20
53.41895762712903
 30
0.0
 10
225.4852296660944
 20
53.37265177339177
 30
0.0
 10
225.5006876960148
 20
53.34599524196449
 30
0.0
 10
225.5493783903002
 20
53.28598708527949
 30
0.0
 10
225.5824224738803
 20
53.25301286575038
 30
0.0
 10
225.7045881615974
 20
53.14865333796816
 30
0.0
 10
225.8191899428171
 20
53.07000870824992
 30
0.0
 10
225.9594196899086
 20
52.98905579838515
 30
0.0
  0
ARC
  5
30C
330
1F
100
AcDbEntity
  8
0
  6
Continuous
 62
     7
370
    15
100
AcDbCircle
 10
218.9529552857
 20
50.9667273465
 30
0.0
 40
5.824732843427938
100
AcDbArc
 50
60.704952478
 51
95.0871168393
  0
ARC
  5
30D
330
1F
100
AcDbEntity
  8
0
  6
Continuous
 62
     7
370
    15
100
AcDbCircle
 10
209.0856718342
 20
33.824443402
 30
0.0
 40
5.897194500292819
100
AcDbArc
 50
205.5980982225
 51
239.0671469675
  0
SPLINE
  5
30E
330
1F
100
AcDbEntity
  8
0
  6
Continuous
 62
     7
370
    15
100
AcDbSpline
210
0.0
220
0.0
230
1.0
 70
     8
 71
     3
 72
    12
 73
     8
 74
     0
 42
0.000000001
 43
0.00000001
 40
0.0
 40
0.0
 40
0.0
 40
0.0
 40
0.2499999999999987
 40
0.2499999999999987
 40
0.4999999999999973
 40
0.4999999999999973
 40
1.0
 40
1.0
 40
1.0
 40
1.0
 10
206.8432083715233
 20
38.05541867368719
 30
0.0
 10
206.8209143713187
 20
38.06828872605853
 30
0.0
 10
206.8028018952299
 20
38.09231794911369
 30
0.0
 10
206.7762370239377
 20
38.14742981500012
 30
0.0
 10
206.7676360910405
 20
38.17738087099648
 30
0.0
 10
206.7492667451183
 20
38.26882290919443
 30
0.0
 10
206.7470644607497
 20
38.3301842422859
 30
0.0
 10
206.7494236666548
 20
38.39086799941234
 30
0.0
  0
LINE
  5
30F
330
1F
100
AcDbEntity
  8
0
  6
Continuous
 62
     7
370
    15
100
AcDbLine
 10
207.8842415122
 20
37.4544430337
 30
0.0
 11
206.8432083715
 21
38.0554186737
 31
0.0
  0
SPLINE
  5
310
330
1F
100
AcDbEntity
  8
0
  6
Continuous
 62
     7
370
    15
100
AcDbSpline
210
0.0
220
0.0
230
1.0
 70
     8
 71
     3
 72
    12
 73
     8
 74
     0
 42
0.000000001
 43
0.00000001
 40
0.0
 40
0.0
 40
0.0
 40
0.0
 40
0.5
 40
0.5
 40
0.75
 40
0.75
 40
1.0
 40
1.0
 40
1.0
 40
1.0
 10
208.0966430251856
 20
37.61313481824876
 30
0.0
 10
208.0722617284999
 20
37.5651875473556
 30
0.0
 10
208.044563958339
 20
37.52109306665151
 30
0.0
 10
207.9922714323826
 20
37.47039849891971
 30
0.0
 10
207.9729705007362
 20
37.45628865448823
 30
0.0
 10
207.9306009466158
 20
37.44158555498645
 30
0.0
 10
207.9065026858325
 20
37.44159193170597
 30
0.0
 10
207.8842415122062
 20
37.45444303369708
 30
0.0
  0
ELLIPSE
  5
311
330
1F
100
AcDbEntity
  8
0
  6
Continuous
 62
     7
370
    15
100
AcDbEllipse
 10
212.9220572149
 20
42.9873846126
 30
0.0
 11
7.874888476696754
 21
13.63996451050156
 31
0.0
210
0.0
220
0.0
230
1.0
 40
0.1059897947
 41
1.105338485463662
 42
2.036099852607344
  0
SPLINE
  5
312
330
1F
100
AcDbEntity
  8
0
  6
Continuous
 62
     7
370
    15
100
AcDbSpline
210
0.0
220
0.0
230
1.0
 70
     8
 71
     3
 72
    12
 73
     8
 74
     0
 42
0.000000001
 43
0.00000001
 40
0.0
 40
0.0
 40
0.0
 40
0.0
 40
0.25
 40
0.25
 40
0.5
 40
0.5
 40
1.0
 40
1.0
 40
1.0
 40
1.0
 10
215.1958760763785
 20
50.11856554805268
 30
0.0
 10
215.2181700765832
 20
50.10569549568133
 30
0.0
 10
215.2301144523351
 20
50.08522819870172
 30
0.0
 10
215.2387157587576
 20
50.04048984923426
 30
0.0
 10
215.2360767384892
 20
50.01702958944443
 30
0.0
 10
215.2183337950304
 20
49.94644150921857
 30
0.0
 10
215.1940026977561
 20
49.90040255072931
 30
0.0
 10
215.1646607812471
 20
49.85530064461682
 30
0.0
  0
LINE
  5
313
330
1F
100
AcDbEntity
  8
0
  6
Continuous
 62
     7
370
    15
100
AcDbLine
 10
214.1548429357
 20
50.719541188
 30
0.0
 11
215.1958760764
 21
50.1185655481
 31
0.0
  0
SPLINE
  5
314
330
1F
100
AcDbEntity
  8
0
  6
Continuous
 62
     7
370
    15
100
AcDbSpline
210
0.0
220
0.0
230
1.0
 70
     8
 71
     3
 72
    12
 73
     8
 74
     0
 42
0.000000001
 43
0.00000001
 40
0.0
 40
0.0
 40
0.0
 40
0.0
 40
0.5000000000000029
 40
0.5000000000000029
 40
0.7500000000000014
 40
0.7500000000000014
 40
1.0
 40
1.0
 40
1.0
 40
1.0
 10
213.8174414227163
 20
50.63303382578039
 30
0.0
 10
213.868795252043
 20
50.66540512318256
 30
0.0
 10
213.923023480945
 20
50.6941789171883
 30
0.0
 10
214.0114482945339
 20
50.72400797845012
 30
0.0
 10
214.0421095039258
 20
50.73155754219284
 30
0.0
 10
214.1021653678576
 20
50.73604723324527
 30
0.0
 10
214.1325817620693
 20
50.73239229003386
 30
0.0
 10
214.1548429356957
 20
50.71954118804275
 30
0.0
  0
ELLIPSE
  5
315
330
1F
100
AcDbEntity
  8
0
  6
Continuous
 62
     7
370
    15
100
AcDbEllipse
 10
223.067027233
 20
37.1308180817
 30
0.0
 11
14.30238360604707
 21
-8.263902107297781
 31
0.0
210
0.0
220
0.0
230
1.0
 40
0.9534948969
 41
2.676532761479944
 42
3.607294128623636
  0
ELLIPSE
  5
316
330
1F
100
AcDbEntity
  8
0
  6
Continuous
 62
     7
370
    15
100
AcDbEllipse
 10
212.9220572149
 20
42.9873846126
 30
0.0
 11
-0.7461041289971034
 21
17.93477386060237
 31
0.0
210
0.0
220
0.0
230
1.0
 40
0.4444802122
 41
2.401404845694024
 42
2.866866793327973
  0
SPLINE
  5
317
330
1F
100
AcDbEntity
  8
0
  6
Continuous
 62
     7
370
    15
100
AcDbSpline
210
0.0
220
0.0
230
1.0
 70
     8
 71
     3
 72
    12
 73
     8
 74
     0
 42
0.000000001
 43
0.00000001
 40
0.0
 40
0.0
 40
0.0
 40
0.0
 40
0.2499999999999977
 40
0.2499999999999977
 40
0.4999999999999953
 40
0.4999999999999953
 40
1.0
 40
1.0
 40
1.0
 40
1.0
 10
207.8842415122062
 20
29.78870364781663
 30
0.0
 10
207.9065436736942
 20
29.77582888403661
 30
0.0
 10
207.9302510366336
 20
29.75501464496908
 30
0.0
 10
207.9733130305028
 20
29.7093975929024
 30
0.0
 10
207.9923163137574
 20
29.6854401731507
 30
0.0
 10
208.0445899842424
 20
29.61354030261427
 30
0.0
 10
208.0724086389846
 20
29.56668226350535
 30
0.0
 10
208.0966430251856
 20
29.52173034786071
 30
0.0
  0
LINE
  5
318
330
1F
100
AcDbEntity
  8
0
  6
Continuous
 62
     7
370
    15
100
AcDbLine
 10
206.8432083715
 20
30.3896792878
 30
0.0
 11
207.8842415122
 21
29.7887036478
 31
0.0
  0
SPLINE
  5
319
330
1F
100
AcDbEntity
  8
0
  6
Continuous
 62
     7
370
    15
100
AcDbSpline
210
0.0
220
0.0
230
1.0
 70
     8
 71
     3
 72
    12
 73
     8
 74
     0
 42
0.000000001
 43
0.00000001
 40
0.0
 40
0.0
 40
0.0
 40
0.0
 40
0.4999999999999953
 40
0.4999999999999953
 40
0.7499999999999977
 40
0.7499999999999977
 40
1.0
 40
1.0
 40
1.0
 40
1.0
 10
206.7494236666548
 20
30.29946352902429
 30
0.0
 10
206.747097376903
 20
30.33153284869378
 30
0.0
 10
206.7492983819897
 20
30.36135283433648
 30
0.0
 10
206.7675637424307
 20
30.39236380607946
 30
0.0
 10
206.776329985378
 20
30.40050566603067
 30
0.0
 10
206.8027939909146
 20
30.40586643730958
 30
0.0
 10
206.8210488774966
 20
30.40247169141431
 30
0.0
 10
206.8432083715233
 20
30.38967928780666
 30
0.0
  0
ELLIPSE
  5
31A
330
1F
100
AcDbEntity
  8
0
  6
Continuous
 62
     7
370
    15
100
AcDbEllipse
 10
223.067027233
 20
37.1308180817
 30
0.0
 11
15.90471575942237
 21
8.322204981098935
 31
0.0
210
0.0
220
0.0
230
1.0
 40
0.4445305117
 41
2.950908281021519
 42
3.578705763440487
  0
SPLINE
  5
31B
330
1F
100
AcDbEntity
  8
0
  6
Continuous
 62
     7
370
    15
100
AcDbSpline
210
0.0
220
0.0
230
1.0
 70
     8
 71
     3
 72
    12
 73
     8
 74
     0
 42
0.000000001
 43
0.00000001
 40
0.0
 40
0.0
 40
0.0
 40
0.0
 40
0.2500000000000023
 40
0.2500000000000023
 40
0.5000000000000046
 40
0.5000000000000046
 40
1.0
 40
1.0
 40
1.0
 40
1.0
 10
220.7932083715234
 20
54.5517879824794
 30
0.0
 10
220.7709062100353
 20
54.56466274625942
 30
0.0
 10
220.7589616551727
 20
54.57868425328282
 30
0.0
 10
220.7503675890631
 20
54.60439692572678
 30
0.0
 10
220.7530134866731
 20
54.61585247656852
 30
0.0
 10
220.7707780865196
 20
54.64730697044872
 30
0.0
 10
220.7952695522178
 20
54.66395720296669
 30
0.0
 10
220.8244236666549
 20
54.67807857400772
 30
0.0
  0
LINE
  5
31C
330
1F
100
AcDbEntity
  8
0
  6
Continuous
 62
     7
370
    15
100
AcDbLine
 10
221.8342415122
 20
53.9508123425
 30
0.0
 11
220.7932083715
 21
54.5517879825
 31
0.0
  0
SPLINE
  5
31D
330
1F
100
AcDbEntity
  8
0
  6
Continuous
 62
     7
370
    15
100
AcDbSpline
210
0.0
220
0.0
230
1.0
 70
     8
 71
     3
 72
    12
 73
     8
 74
     0
 42
0.000000001
 43
0.00000001
 40
0.0
 40
0.0
 40
0.0
 40
0.0
 40
0.5000000000000019
 40
0.5000000000000019
 40
0.7500000000000009
 40
0.7500000000000009
 40
1.0
 40
1.0
 40
1.0
 40
1.0
 10
222.1716430251856
 20
53.90034539284415
 30
0.0
 10
222.1209865878765
 20
53.89887229352831
 30
0.0
 10
222.065975421807
 20
53.89954887557801
 30
0.0
 10
221.9779519730789
 20
53.90882148225909
 30
0.0
 10
221.9471769441726
 20
53.9133891543058
 30
0.0
 10
221.8864443381681
 20
53.92781765604641
 30
0.0
 10
221.856401006233
 20
53.93801993888171
 30
0.0
 10
221.8342415122062
 20
53.95081234248937
 30
0.0
  0
ELLIPSE
  5
31E
330
1F
100
AcDbEntity
  8
0
  6
Continuous
 62
     7
370
    15
100
AcDbEllipse
 10
212.9220572149
 20
42.9873846126
 30
0.0
 11
15.90471575942235
 21
8.322204981098956
 31
0.0
210
0.0
220
0.0
230
1.0
 40
0.4445305117
 41
0.2747775750656731
 42
0.7400769945754239
  0
ELLIPSE
  5
31F
330
1F
100
AcDbEntity
  8
0
  6
Continuous
 62
     7
370
    15
100
AcDbEllipse
 10
223.067027233
 20
37.1308180817
 30
0.0
 11
-0.746104128997132
 21
17.93477386060238
 31
0.0
210
0.0
220
0.0
230
1.0
 40
0.4444802122
 41
5.846123912132796
 42
6.473758866427494
  0
LINE
  5
320
330
1F
100
AcDbEntity
  8
0
  6
Continuous
 62
     7
370
    15
100
AcDbLine
 10
237.8297831015
 20
41.3438239998
 30
0.0
 11
238.052066037
 21
41.2155027925
 31
0.0
  0
SPLINE
  5
321
330
1F
100
AcDbEntity
  8
0
  6
Continuous
 62
     7
370
    15
100
AcDbSpline
210
0.0
220
0.0
230
1.0
 70
     8
 71
     3
 72
    18
 73
    14
 74
     0
 42
0.000000001
 43
0.00000001
 40
0.0
 40
0.0
 40
0.0
 40
0.0
 40
0.25
 40
0.25
 40
0.5
 40
0.5
 40
0.625
 40
0.625
 40
0.75
 40
0.75
 40
0.875
 40
0.875
 40
1.0
 40
1.0
 40
1.0
 40
1.0
 10
235.684311939055
 20
44.28665239705297
 30
0.0
 10
235.7740987690988
 20
44.01045830020729
 30
0.0
 10
235.8894292486538
 20
43.72635261285089
 30
0.0
 10
236.1772998939131
 20
43.14595160207138
 30
0.0
 10
236.3426534521148
 20
42.8645128954738
 30
0.0
 10
236.6264170097891
 20
42.46169400800595
 30
0.0
 10
236.7253565926485
 20
42.33320169979255
 30
0.0
 10
236.9300390403353
 20
42.090953468386
 30
0.0
 10
237.0361543315673
 20
41.97666011684335
 30
0.0
 10
237.2568329685476
 20
41.7625649670893
 30
0.0
 10
237.3698247083662
 20
41.66442581995245
 30
0.0
 10
237.5975433434239
 20
41.48909711466062
 30
0.0
 10
237.7128673582992
 20
41.41131802170965
 30
0.0
 10
237.8297831015409
 20
41.34382399978686
 30
0.0
  0
ELLIPSE
  5
322
330
1F
100
AcDbEntity
  8
0
  6
Continuous
 62
     7
370
    15
100
AcDbEllipse
 10
225.0371897322
 20
35.9934674801
 30
0.0
 11
3.475918560926374
 21
15.75183195312307
 31
0.0
210
0.0
220
0.0
230
1.0
 40
0.6979108556
 41
5.412461905590212
 42
8.289980899405279
  0
SPLINE
  5
323
330
1F
100
AcDbEntity
  8
0
  6
Continuous
 62
     7
370
    15
100
AcDbSpline
210
0.0
220
0.0
230
1.0
 70
     8
 71
     3
 72
    12
 73
     8
 74
     0
 42
0.000000001
 43
0.00000001
 40
0.0
 40
0.0
 40
0.0
 40
0.0
 40
0.2500000000000006
 40
0.2500000000000006
 40
0.5000000000000011
 40
0.5000000000000011
 40
1.0
 40
1.0
 40
1.0
 40
1.0
 10
214.0256918870012
 20
30.15664189717874
 30
0.0
 10
213.9692970846013
 20
30.26602041864693
 30
0.0
 10
213.9176195656625
 20
30.37757364005795
 30
0.0
 10
213.8241845531396
 20
30.605272597802
 30
0.0
 10
213.7822327422692
 20
30.72218133769975
 30
0.0
 10
213.674980226432
 20
31.07214129855483
 30
0.0
 10
213.627177757814
 20
31.30574435081469
 30
0.0
 10
213.6043246207487
 20
31.54014703519016
 30
0.0
  0
ELLIPSE
  5
324
330
1F
100
AcDbEntity
  8
0
  6
Continuous
 62
     7
370
    15
100
AcDbEllipse
 10
234.470603389
 20
30.547673693
 30
0.0
 11
20.53273831789753
 21
2.733122024826355
 31
0.0
210
0.0
220
0.0
230
1.0
 40
0.5730077609
 41
2.945719006539391
 42
3.799841728843105
  0
ELLIPSE
  5
325
330
1F
100
AcDbEntity
  8
0
  6
Continuous
 62
     7
370
    15
100
AcDbEllipse
 10
241.6860616359
 20
31.1986819771
 30
0.0
 11
22.16232072407985
 21
2.950036471241145
 31
0.0
210
0.0
220
0.0
230
1.0
 40
0.5730077609
 41
4.293577323488124
 42
4.299338878571731
  0
ELLIPSE
  5
326
330
1F
100
AcDbEntity
  8
0
  6
Continuous
 62
     7
370
    15
100
AcDbEllipse
 10
234.470603389
 20
30.547673693
 30
0.0
 11
20.858654799134
 21
2.776504914109321
 31
0.0
210
0.0
220
0.0
230
1.0
 40
0.5730077609
 41
3.869293840921285
 42
4.624163471992917
  0
SPLINE
  5
327
330
1F
100
AcDbEntity
  8
0
  6
Continuous
 62
     7
370
    15
100
AcDbSpline
210
0.0
220
0.0
230
1.0
 70
     8
 71
     3
 72
    10
 73
     6
 74
     0
 42
0.000000001
 43
0.00000001
 40
0.0
 40
0.0
 40
0.0
 40
0.0
 40
0.5
 40
0.5
 40
1.0
 40
1.0
 40
1.0
 40
1.0
 10
219.9535663881794
 20
20.52439770890039
 30
0.0
 10
219.860682893848
 20
20.65518116726624
 30
0.0
 10
219.7438788996871
 20
20.77598540917661
 30
0.0
 10
219.4858608813755
 20
20.99835284208494
 30
0.0
 10
219.3449334882285
 20
21.10032228471579
 30
0.0
 10
219.18591682209
 20
21.18830665061711
 30
0.0
  0
ELLIPSE
  5
328
330
1F
100
AcDbEntity
  8
0
  6
Continuous
 62
     7
370
    15
100
AcDbEllipse
 10
217.1793926513
 20
31.8722297787
 30
0.0
 11
4.643954371549797
 21
0.089485057363774
 31
0.0
210
0.0
220
0.0
230
1.0
 40
0.4895377978
 41
3.956464119730155
 42
4.772261292323142
  0
LINE
  5
329
330
1F
100
AcDbEntity
  8
0
  6
Continuous
 62
     7
370
    15
100
AcDbLine
 10
217.5009986738
 20
29.608266548
 30
0.0
 11
237.7191314541
 21
30.5917065986
 31
0.0
  0
LINE
  5
32A
330
1F
100
AcDbEntity
  8
0
  6
Continuous
 62
     7
370
    15
100
AcDbLine
 10
237.7191314541
 20
30.5917065986
 30
0.0
 11
236.4169127672
 21
18.4844430707
 31
0.0
  0
LINE
  5
32B
330
1F
100
AcDbEntity
  8
0
  6
Continuous
 62
     7
370
    15
100
AcDbLine
 10
236.4169127672
 20
18.4844430707
 30
0.0
 11
234.3382330897
 21
18.3833329994
 31
0.0
  0
ELLIPSE
  5
32C
330
1F
100
AcDbEntity
  8
0
  6
Continuous
 62
     7
370
    15
100
AcDbEllipse
 10
230.3523071833
 20
46.3478124375
 30
0.0
 11
-0.8894610168520387
 21
1.003735321797414
 31
0.0
210
0.0
220
0.0
230
1.0
 40
0.9103544645
 41
0.0
 42
6.283185307179586
  0
LINE
  5
32D
330
1F
100
AcDbEntity
  8
0
  6
Continuous
 62
     7
370
    15
100
AcDbLine
 10
246.4554277079
 20
38.2086949272
 30
0.0
 11
247.2800742944
 21
38.0987881991
 31
0.0
  0
LWPOLYLINE
  5
32E
330
1F
100
AcDbEntity
  8
0
  6
Continuous
 62
     7
370
    15
100
AcDbPolyline
 90
        9
 70
   128
 43
0.0
 10
246.1246756784
 20
37.3816468985
 10
245.8631395329
 20
37.4496591515
 10
245.6665968938
 20
37.5702724381
 10
245.5649695963
 20
37.7251244788
 10
245.5737294751
 20
37.890640454
 10
245.6915429182
 20
38.0416220571
 10
245.9004738967
 20
38.1550837076
 10
246.1687145632
 20
38.2137518976
 10
246.4554277079
 20
38.2086949272
  0
LINE
  5
32F
330
1F
100
AcDbEntity
  8
0
  6
Continuous
 62
     7
370
    15
100
AcDbLine
 10
249.8314845698
 20
36.8876131589
 30
0.0
 11
246.1246756784
 21
37.3816468985
 31
0.0
  0
LINE
  5
330
330
1F
100
AcDbEntity
  8
0
  6
Continuous
 62
     7
370
    15
100
AcDbLine
 10
237.7191314541
 20
30.5917065986
 30
0.0
 11
249.8314845698
 21
36.8876131589
 31
0.0
  0
SPLINE
  5
331
330
1F
100
AcDbEntity
  8
0
  6
Continuous
 62
     7
370
    15
100
AcDbSpline
210
0.0
220
0.0
230
1.0
 70
     8
 71
     3
 72
    10
 73
     6
 74
     0
 42
0.000000001
 43
0.00000001
 40
0.0
 40
0.0
 40
0.0
 40
0.0
 40
0.5
 40
0.5
 40
1.0
 40
1.0
 40
1.0
 40
1.0
 10
238.0520660370448
 20
41.21550279251419
 30
0.0
 10
238.1235316597468
 20
41.17424656669174
 30
0.0
 10
238.2162137105415
 20
41.14627344541068
 30
0.0
 10
238.4134274982298
 20
41.12525093779124
 30
0.0
 10
238.518459874516
 20
41.13254602692726
 30
0.0
 10
238.6097516579428
 20
41.15611554807457
 30
0.0
  0
LINE
  5
332
330
1F
100
AcDbEntity
  8
0
  6
Continuous
 62
     7
370
    15
100
AcDbLine
 10
240.024654502
 20
40.3393095224
 30
0.0
 11
238.6097516579
 21
41.1561155481
 31
0.0
  0
ELLIPSE
  5
333
330
1F
100
AcDbEntity
  8
0
  6
Continuous
 62
     7
370
    15
100
AcDbEllipse
 10
242.4962315182
 20
41.7853759094
 30
0.0
 11
3.501329908956365
 21
0.01007821097868344
 31
0.0
210
0.0
220
0.0
230
1.0
 40
0.5811764754
 41
3.927029295244077
 42
4.482177905023359
  0
LINE
  5
334
330
1F
100
AcDbEntity
  8
0
  6
Continuous
 62
     7
370
    15
100
AcDbLine
 10
248.7497222078
 20
38.8626997076
 30
0.0
 11
241.702990127
 21
39.8018696253
 31
0.0
  0
LINE
  5
335
330
1F
100
AcDbEntity
  8
0
  6
Continuous
 62
     7
370
    15
100
AcDbLine
 10
241.9215968355
 20
21.3457348615
 30
0.0
 11
236.4169127672
 21
18.4844430707
 31
0.0
  0
LINE
  5
336
330
1F
100
AcDbEntity
  8
0
  6
Continuous
 62
     7
370
    15
100
AcDbLine
 10
249.8314845698
 20
36.8876131589
 30
0.0
 11
249.8145017203
 21
36.5254173788
 31
0.0
  0
LINE
  5
337
330
1F
100
AcDbEntity
  8
0
  6
Continuous
 62
     7
370
    15
100
AcDbLine
 10
249.8145017203
 20
36.5254173788
 30
0.0
 11
249.7341739219
 21
36.08702581
 31
0.0
  0
LINE
  5
338
330
1F
100
AcDbEntity
  8
0
  6
Continuous
 62
     7
370
    15
100
AcDbLine
 10
249.7954393383
 20
36.118871095
 30
0.0
 11
249.7341739219
 21
36.08702581
 31
0.0
  0
LINE
  5
339
330
1F
100
AcDbEntity
  8
0
  6
Continuous
 62
     7
370
    15
100
AcDbLine
 10
250.5914392512
 20
32.0925223377
 30
0.0
 11
252.163207162
 21
37.3124278121
 31
0.0
  0
ELLIPSE
  5
33A
330
1F
100
AcDbEntity
  8
0
  6
Continuous
 62
     7
370
    15
100
AcDbEllipse
 10
240.0016528313
 20
32.1710704822
 30
0.0
 11
10.55151930760479
 21
13.48341787715944
 31
0.0
210
0.0
220
0.0
230
1.0
 40
0.5290874986
 41
4.269198499331186
 42
5.099557624159115
  0
ARC
  5
33B
330
1F
100
AcDbEntity
  8
0
  6
Continuous
 62
     7
370
    15
100
AcDbCircle
 10
216.5251256652
 20
42.4388887868
 30
0.0
 40
23.1831259717194
100
AcDbArc
 50
140.2279276209
 51
177.3607126388
  0
LINE
  5
33C
330
1F
100
AcDbEntity
  8
0
  6
Continuous
 62
     7
370
    15
100
AcDbLine
 10
206.8432083715
 20
30.3896792878
 30
0.0
 11
207.8857560777
 21
29.7876336568
 31
0.0
  0
LWPOLYLINE
  5
33D
330
1F
100
AcDbEntity
  8
0
  6
Continuous
 62
     7
370
    15
100
AcDbPolyline
 90
        9
 70
   128
 43
0.0
 10
202.987724809
 20
59.7413432516
 10
202.4854874143
 20
59.7374149637
 10
201.9552185152
 20
59.6391569516
 10
201.4059911598
 20
59.4482504374
 10
200.8472027802
 20
59.1679618842
 10
200.2884144006
 20
58.803087107
 10
199.7391870451
 20
58.3598692143
 10
199.2089181461
 20
57.8458917873
 10
198.7066807513
 20
57.2699491221
  0
ARC
  5
33E
330
1F
100
AcDbEntity
  8
0
  6
Continuous
 62
     7
370
    15
100
AcDbCircle
 10
246.2630153463
 20
36.9465238124
 30
0.0
 40
0.8473208534391867
100
AcDbArc
 50
77.812563106
 51
133.6338289967
  0
LINE
  5
33F
330
1F
100
AcDbEntity
  8
0
  6
Continuous
 62
     7
370
    15
100
AcDbLine
 10
246.4418936548
 20
37.7747479242
 30
0.0
 11
246.6128394202
 21
37.7519647222
 31
0.0
  0
ARC
  5
340
330
1F
100
AcDbEntity
  8
0
  6
Continuous
 62
     7
370
    15
100
AcDbCircle
 10
196.4375227163
 20
43.2190973026
 30
0.0
 40
3.084343446773446
100
AcDbArc
 50
174.6547638622
 51
232.6759834224
  0
ARC
  5
341
330
1F
100
AcDbEntity
  8
0
  6
Continuous
 62
     7
370
    15
100
AcDbCircle
 10
202.5525024015
 20
54.4016658998
 30
0.0
 40
5.357384881182553
100
AcDbArc
 50
62.0480659028
 51
85.3402793033
  0
LWPOLYLINE
  5
342
330
1F
100
AcDbEntity
  8
0
  6
Continuous
 62
     7
370
    15
100
AcDbPolyline
 90
       12
 70
   128
 43
0.0
 10
193.142447794
 20
43.9893351512
 10
193.1894220328
 20
45.1551769595
 10
193.3299193433
 20
46.3646960256
 10
193.5626673601
 20
47.6069387576
 10
193.885558281
 20
48.8706552127
 10
194.2956679559
 20
50.1444009792
 10
194.7892823682
 20
51.4166408182
 10
195.3619312691
 20
52.6758531286
 10
196.0084286617
 20
53.9106342888
 10
196.7229197654
 20
55.1098019294
 10
197.4989340381
 20
56.2624962024
 10
198.3294437744
 20
57.3582781302
  0
ARC
  5
343
330
1F
100
AcDbEntity
  8
0
  6
Continuous
 62
     7
370
    15
100
AcDbCircle
 10
203.1088031189
 20
53.9001049963
 30
0.0
 40
5.899257340447974
100
AcDbArc
 50
103.4689958683
 51
144.1118487458
  0
ARC
  5
344
330
1F
100
AcDbEntity
  8
0
  6
Continuous
 62
     7
370
    15
100
AcDbCircle
 10
197.0534854507
 20
43.911235423
 30
0.0
 40
3.911817367876589
100
AcDbArc
 50
178.8560094402
 51
201.1091694604
  0
LINE
  5
345
330
1F
100
AcDbEntity
  8
0
  6
Continuous
 62
     7
370
     0
100
AcDbLine
 10
248.9541294047
 20
37.8429329067
 30
0.0
 11
248.9541294047
 21
37.9309241719
 31
0.0
  0
LINE
  5
346
330
1F
100
AcDbEntity
  8
0
  6
Continuous
 62
     7
370
     0
100
AcDbLine
 10
249.1124311695
 20
37.8160691884
 30
0.0
 11
249.1124311695
 21
38.1722926525
 31
0.0
  0
SPLINE
  5
347
330
1F
100
AcDbEntity
  8
0
  6
Continuous
 62
     7
370
     0
100
AcDbSpline
210
0.0
220
0.0
230
1.0
 70
     8
 71
     3
 72
     9
 73
     5
 74
     0
 42
0.000000001
 43
0.00000001
 40
0.0
 40
0.0
 40
0.0
 40
0.0
 40
0.4786014440788797
 40
1.0
 40
1.0
 40
1.0
 40
1.0
 10
247.9323471061633
 20
37.26442251644936
 30
0.0
 10
247.8057247317308
 20
37.28251941844866
 30
0.0
 10
247.5411572591519
 20
37.32033146900385
 30
0.0
 10
247.3306171987294
 20
37.36250514119997
 30
0.0
 10
247.2208419152615
 20
37.38449443298093
 30
0.0
  0
LINE
  5
348
330
1F
100
AcDbEntity
  8
0
  6
Continuous
 62
     7
370
     0
100
AcDbLine
 10
249.4192048751
 20
37.0662580237
 30
0.0
 11
247.9323471062
 21
37.2644225164
 31
0.0
  0
SPLINE
  5
349
330
1F
100
AcDbEntity
  8
0
  6
Continuous
 62
     7
370
     0
100
AcDbSpline
210
0.0
220
0.0
230
1.0
 70
     8
 71
     3
 72
     9
 73
     5
 74
     0
 42
0.000000001
 43
0.00000001
 40
0.0
 40
0.0
 40
0.0
 40
0.0
 40
0.494253106547407
 40
1.0
 40
1.0
 40
1.0
 40
1.0
 10
249.8181643246159
 20
37.01965061784126
 30
0.0
 10
249.7521308413838
 20
37.02657576566766
 30
0.0
 10
249.6185282754972
 20
37.04058710466516
 30
0.0
 10
249.4861531723002
 20
37.05763573290088
 30
0.0
 10
249.4192048750879
 20
37.06625802366872
 30
0.0
  0
LINE
  5
34A
330
1F
100
AcDbEntity
  8
0
  6
Continuous
 62
     7
370
     0
100
AcDbLine
 10
249.8181643246
 20
37.0196506178
 30
0.0
 11
249.7944351585
 21
37.0100448804
 31
0.0
  0
LINE
  5
34B
330
1F
100
AcDbEntity
  8
0
  6
Continuous
 62
     7
370
     0
100
AcDbLine
 10
249.8250540625
 20
36.1149241224
 30
0.0
 11
249.8106603047
 21
36.5044527283
 31
0.0
  0
LINE
  5
34C
330
1F
100
AcDbEntity
  8
0
  6
Continuous
 62
     7
370
     0
100
AcDbLine
 10
249.7963287254
 20
36.8922986374
 30
0.0
 11
249.792185648
 21
37.0044199617
 31
0.0
  0
LINE
  5
34D
330
1F
100
AcDbEntity
  8
0
  6
Continuous
 62
     7
370
     0
100
AcDbLine
 10
246.4955044784
 20
37.3322238114
 30
0.0
 11
246.491361401
 21
37.4443451357
 31
0.0
  0
LINE
  5
34E
330
1F
100
AcDbEntity
  8
0
  6
Continuous
 62
     7
370
     0
100
AcDbLine
 10
248.0110799752
 20
37.4612946693
 30
0.0
 11
249.4979377441
 21
37.2631301766
 31
0.0
  0
SPLINE
  5
34F
330
1F
100
AcDbEntity
  8
0
  6
Continuous
 62
     7
370
     0
100
AcDbSpline
210
0.0
220
0.0
230
1.0
 70
     8
 71
     3
 72
    10
 73
     6
 74
     0
 42
0.000000001
 43
0.00000001
 40
0.0
 40
0.0
 40
0.0
 40
0.0
 40
0.2765306019330265
 40
0.5626682704062559
 40
1.0
 40
1.0
 40
1.0
 40
1.0
 10
249.4979377441082
 20
37.26313017656732
 30
0.0
 10
249.4910659667611
 20
37.23429986055572
 30
0.0
 10
249.4770836767452
 20
37.17563762233648
 30
0.0
 10
249.448990446232
 20
37.09630544034301
 30
0.0
 10
249.4304265865723
 20
37.07757838543515
 30
0.0
 10
249.4192048750879
 20
37.06625802366872
 30
0.0
  0
ARC
  5
350
330
1F
100
AcDbEntity
  8
0
  6
Continuous
 62
     7
370
     0
100
AcDbCircle
 10
247.6489298867
 20
37.4919458344
 30
0.0
 40
0.3634448795596511
100
AcDbArc
 50
321.24299811
 51
355.1622076222
  0
LINE
  5
351
330
1F
100
AcDbEntity
  8
0
  6
Continuous
 62
     7
370
     0
100
AcDbLine
 10
249.4979377441
 20
37.2631301766
 30
0.0
 11
249.7708519923
 21
37.2203055095
 31
0.0
  0
LINE
  5
352
330
1F
100
AcDbEntity
  8
0
  6
Continuous
 62
     7
370
     0
100
AcDbLine
 10
249.4979377441
 20
37.2631301766
 30
0.0
 11
249.5094664856
 21
37.3161186751
 31
0.0
  0
LINE
  5
353
330
1F
100
AcDbEntity
  8
0
  6
Continuous
 62
     7
370
     0
100
AcDbLine
 10
248.0110799752
 20
37.4612946693
 30
0.0
 11
248.0226087167
 21
37.5142831679
 31
0.0
  0
LINE
  5
354
330
1F
100
AcDbEntity
  8
0
  6
Continuous
 62
     7
370
     0
100
AcDbLine
 10
249.87323288
 20
36.1221170635
 30
0.0
 11
249.9710019801
 21
37.0311166596
 31
0.0
  0
LINE
  5
355
330
1F
100
AcDbEntity
  8
0
  6
Continuous
 62
     7
370
     0
100
AcDbLine
 10
249.8937268248
 20
37.0309318538
 30
0.0
 11
249.964310674
 21
37.0354067434
 31
0.0
  0
SPLINE
  5
356
330
1F
100
AcDbEntity
  8
0
  6
Continuous
 62
     7
370
     0
100
AcDbSpline
210
0.0
220
0.0
230
1.0
 70
     8
 71
     3
 72
     9
 73
     5
 74
     0
 42
0.000000001
 43
0.00000001
 40
0.0
 40
0.0
 40
0.0
 40
0.0
 40
0.4939636402607987
 40
1.0
 40
1.0
 40
1.0
 40
1.0
 10
250.2249959717962
 20
37.18656001846926
 30
0.0
 10
250.1739594097025
 20
37.16075446533769
 30
0.0
 10
250.0706389263028
 20
37.10851265839429
 30
0.0
 10
249.9531702474582
 20
37.05699942361959
 30
0.0
 10
249.8937268248324
 20
37.0309318538158
 30
0.0
  0
LINE
  5
357
330
1F
100
AcDbEntity
  8
0
  6
Continuous
 62
     7
370
     0
100
AcDbLine
 10
249.7708519923
 20
37.2203055095
 30
0.0
 11
249.9908002596
 21
37.3367129501
 31
0.0
  0
SPLINE
  5
358
330
1F
100
AcDbEntity
  8
0
  6
Continuous
 62
     7
370
     0
100
AcDbSpline
210
0.0
220
0.0
230
1.0
 70
     8
 71
     3
 72
    10
 73
     6
 74
     0
 42
0.000000001
 43
0.00000001
 40
0.0
 40
0.0
 40
0.0
 40
0.0
 40
0.2765306019329939
 40
0.5626682704062081
 40
1.0
 40
1.0
 40
1.0
 40
1.0
 10
250.2249959717962
 20
37.18656001846926
 30
0.0
 10
250.2045554517175
 20
37.18801793079637
 30
0.0
 10
250.1629642788114
 20
37.19098440539903
 30
0.0
 10
250.0793992543098
 20
37.23547669232774
 30
0.0
 10
250.0241799235684
 20
37.29857219828283
 30
0.0
 10
249.9908002595706
 20
37.33671295008609
 30
0.0
  0
LINE
  5
359
330
1F
100
AcDbEntity
  8
0
  6
Continuous
 62
     7
370
     0
100
AcDbLine
 10
251.3590113702
 20
37.7760123667
 30
0.0
 11
250.2249959718
 21
37.1865600185
 31
0.0
  0
SPLINE
  5
35A
330
1F
100
AcDbEntity
  8
0
  6
Continuous
 62
     7
370
     0
100
AcDbSpline
210
0.0
220
0.0
230
1.0
 70
     8
 71
     3
 72
    11
 73
     7
 74
     0
 42
0.000000001
 43
0.00000001
 40
0.0
 40
0.0
 40
0.0
 40
0.0
 40
0.2586137574851948
 40
0.5211921383154017
 40
0.7579426054341539
 40
1.0
 40
1.0
 40
1.0
 40
1.0
 10
251.7979007360162
 20
38.06783445585469
 30
0.0
 10
251.7727610412913
 20
38.04533727349162
 30
0.0
 10
251.7220962530849
 20
37.99999802048396
 30
0.0
 10
251.620536710111
 20
37.92735370645699
 30
0.0
 10
251.5011925098982
 20
37.85232939458999
 30
0.0
 10
251.4067539905122
 20
37.80163865504899
 30
0.0
 10
251.3590113701867
 20
37.77601236666948
 30
0.0
  0
LINE
  5
35B
330
1F
100
AcDbEntity
  8
0
  6
Continuous
 62
     7
370
     0
100
AcDbLine
 10
252.3907470644
 20
37.4307012765
 30
0.0
 11
252.4885161645
 21
38.3397008726
 31
0.0
  0
SPLINE
  5
35C
330
1F
100
AcDbEntity
  8
0
  6
Continuous
 62
     7
370
     0
100
AcDbSpline
210
0.0
220
0.0
230
1.0
 70
     8
 71
     3
 72
     9
 73
     5
 74
     0
 42
0.000000001
 43
0.00000001
 40
0.0
 40
0.0
 40
0.0
 40
0.0
 40
0.5402242170821263
 40
1.0
 40
1.0
 40
1.0
 40
1.0
 10
247.4239888731749
 20
37.5185213159156
 30
0.0
 10
247.520407489292
 20
37.51055912762766
 30
0.0
 10
247.6988863746666
 20
37.49582045424692
 30
0.0
 10
247.9127504517189
 20
37.4721690241417
 30
0.0
 10
248.0110799751836
 20
37.46129466934795
 30
0.0
  0
LINE
  5
35D
330
1F
100
AcDbEntity
  8
0
  6
Continuous
 62
     7
370
     0
100
AcDbLine
 10
249.9908002596
 20
37.3367129501
 30
0.0
 11
249.956507316
 21
37.3828604198
 31
0.0
  0
LINE
  5
35E
330
1F
100
AcDbEntity
  8
0
  6
Continuous
 62
     7
370
     0
100
AcDbLine
 10
249.9908002596
 20
37.3367129501
 30
0.0
 11
251.124815658
 21
37.9261652983
 31
0.0
  0
ARC
  5
35F
330
1F
100
AcDbEntity
  8
0
  6
Continuous
 62
     7
370
     0
100
AcDbCircle
 10
251.3917432569
 20
38.0847804625
 30
0.0
 40
0.310498169693918
100
AcDbArc
 50
210.7198578535
 51
263.948788989
  0
LINE
  5
360
330
1F
100
AcDbEntity
  8
0
  6
Continuous
 62
     7
370
     0
100
AcDbLine
 10
250.3355268757
 20
37.7796181628
 30
0.0
 11
250.2453022249
 21
37.8981217874
 31
0.0
  0
LINE
  5
361
330
1F
100
AcDbEntity
  8
0
  6
Continuous
 62
     7
370
     0
100
AcDbLine
 10
251.124815658
 20
37.9261652983
 30
0.0
 11
251.0905227145
 21
37.9723127679
 31
0.0
  0
SPLINE
  5
362
330
1F
100
AcDbEntity
  8
0
  6
Continuous
 62
     7
370
     0
100
AcDbSpline
210
0.0
220
0.0
230
1.0
 70
     8
 71
     3
 72
     9
 73
     5
 74
     0
 42
0.000000001
 43
0.00000001
 40
0.0
 40
0.0
 40
0.0
 40
0.0
 40
0.4597757829179104
 40
1.0
 40
1.0
 40
1.0
 40
1.0
 10
247.7662259971354
 20
38.00785917745972
 30
0.0
 10
247.693781840495
 20
37.96095206225875
 30
0.0
 10
247.5362177422283
 20
37.85893034440471
 30
0.0
 10
247.4369828885972
 20
37.69678001816256
 30
0.0
 10
247.3833738174872
 20
37.60918248511878
 30
0.0
  0
LINE
  5
363
330
1F
100
AcDbEntity
  8
0
  6
Continuous
 62
     7
370
     0
100
AcDbLine
 10
247.7662259971
 20
38.0078591775
 30
0.0
 11
247.8005189407
 21
38.0100332886
 31
0.0
  0
LINE
  5
364
330
1F
100
AcDbEntity
  8
0
  6
Continuous
 62
     7
370
     0
100
AcDbLine
 10
248.9973148303
 20
38.851955748
 30
0.0
 11
248.926730981
 21
38.9469393133
 31
0.0
  0
LINE
  5
365
330
1F
100
AcDbEntity
  8
0
  6
Continuous
 62
     7
370
     0
100
AcDbLine
 10
248.6660456833
 20
38.7474644573
 30
0.0
 11
248.9973148303
 21
38.851955748
 31
0.0
  0
LINE
  5
366
330
1F
100
AcDbEntity
  8
0
  6
Continuous
 62
     7
370
     0
100
AcDbLine
 10
247.5320302849
 20
38.1580121091
 30
0.0
 11
248.6660456833
 21
38.7474644573
 31
0.0
  0
SPLINE
  5
367
330
1F
100
AcDbEntity
  8
0
  6
Continuous
 62
     7
370
     0
100
AcDbSpline
210
0.0
220
0.0
230
1.0
 70
     8
 71
     3
 72
     9
 73
     5
 74
     0
 42
0.000000001
 43
0.00000001
 40
0.0
 40
0.0
 40
0.0
 40
0.0
 40
0.5213985559211242
 40
1.0
 40
1.0
 40
1.0
 40
1.0
 10
247.0931409190803
 20
37.6695493572241
 30
0.0
 10
247.1466166715977
 20
37.7732322137419
 30
0.0
 10
247.2491788131882
 20
37.9720874950624
 30
0.0
 10
247.4404754420765
 20
38.09783105818326
 30
0.0
 10
247.5320302849098
 20
38.15801210907653
 30
0.0
  0
ARC
  5
368
330
1F
100
AcDbEntity
  8
0
  6
Continuous
 62
     7
370
     0
100
AcDbCircle
 10
247.7989578839
 20
38.3166272732
 30
0.0
 40
0.3104981696938313
100
AcDbArc
 50
210.7198578535
 51
263.948788989
  0
SPLINE
  5
369
330
1F
100
AcDbEntity
  8
0
  6
Continuous
 62
     7
370
     0
100
AcDbSpline
210
0.0
220
0.0
230
1.0
 70
     8
 71
     3
 72
    11
 73
     7
 74
     0
 42
0.000000001
 43
0.00000001
 40
0.0
 40
0.0
 40
0.0
 40
0.0
 40
0.2366219245935523
 40
0.4788076536363169
 40
0.7371705410155257
 40
1.0
 40
1.0
 40
1.0
 40
1.0
 10
250.9586945489332
 20
38.66960195929662
 30
0.0
 10
251.0215860986523
 20
38.65851719364035
 30
0.0
 10
251.1488479971695
 20
38.63608702093297
 30
0.0
 10
251.33219420932
 20
38.56691734823917
 30
0.0
 10
251.5091304007206
 20
38.47388102444685
 30
0.0
 10
251.6162040894976
 20
38.39344969131494
 30
0.0
 10
251.6701997398349
 20
38.35288938009788
 30
0.0
  0
LINE
  5
36A
330
1F
100
AcDbEntity
  8
0
  6
Continuous
 62
     7
370
     0
100
AcDbLine
 10
249.47183678
 20
38.8677664521
 30
0.0
 11
250.9586945489
 21
38.6696019593
 31
0.0
  0
LINE
  5
36B
330
1F
100
AcDbEntity
  8
0
  6
Continuous
 62
     7
370
     0
100
AcDbLine
 10
249.0728773305
 20
38.863236984
 30
0.0
 11
249.47183678
 21
38.8677664521
 31
0.0
  0
LINE
  5
36C
330
1F
100
AcDbEntity
  8
0
  6
Continuous
 62
     7
370
     0
100
AcDbLine
 10
249.0728773305
 20
38.863236984
 30
0.0
 11
249.0966064965
 21
38.9723011761
 31
0.0
  0
SPLINE
  5
36D
330
1F
100
AcDbEntity
  8
0
  6
Continuous
 62
     7
370
     0
100
AcDbSpline
210
0.0
220
0.0
230
1.0
 70
     8
 71
     3
 72
    11
 73
     7
 74
     0
 42
0.000000001
 43
0.00000001
 40
0.0
 40
0.0
 40
0.0
 40
0.0
 40
0.2278348517278961
 40
0.4598960591652183
 40
0.7279384164917686
 40
1.0
 40
1.0
 40
1.0
 40
1.0
 10
251.1248156579611
 20
37.92616529828629
 30
0.0
 10
251.1613981166169
 20
37.94497236378116
 30
0.0
 10
251.2352416416211
 20
37.98293536742153
 30
0.0
 10
251.336752442395
 20
38.03367323286967
 30
0.0
 10
251.4306829246112
 20
38.08225295080292
 30
0.0
 10
251.4818792062174
 20
38.11280940614815
 30
0.0
 10
251.5076678376093
 20
38.12820132796003
 30
0.0
  0
LINE
  5
36E
330
1F
100
AcDbEntity
  8
0
  6
Continuous
 62
     7
370
     0
100
AcDbLine
 10
250.8799616799
 20
38.4727298064
 30
0.0
 11
250.8684329384
 21
38.4680628887
 31
0.0
  0
SPLINE
  5
36F
330
1F
100
AcDbEntity
  8
0
  6
Continuous
 62
     7
370
     0
100
AcDbSpline
210
0.0
220
0.0
230
1.0
 70
     8
 71
     3
 72
    11
 73
     7
 74
     0
 42
0.000000001
 43
0.00000001
 40
0.0
 40
0.0
 40
0.0
 40
0.0
 40
0.2682640541652663
 40
0.5401038416739342
 40
0.7680640022137316
 40
1.0
 40
1.0
 40
1.0
 40
1.0
 10
251.4670527819216
 20
38.2188624971632
 30
0.0
 10
251.4201867642792
 20
38.25158507555849
 30
0.0
 10
251.325830044549
 20
38.31746639669098
 30
0.0
 10
251.1775597058212
 20
38.39183275333776
 30
0.0
 10
251.0282899504235
 20
38.44658004906132
 30
0.0
 10
250.9296885755433
 20
38.46396312793972
 30
0.0
 10
250.8799616799128
 20
38.47272980639804
 30
0.0
  0
LINE
  5
370
330
1F
100
AcDbEntity
  8
0
  6
Continuous
 62
     7
370
     0
100
AcDbLine
 10
248.9002413955
 20
38.5973115257
 30
0.0
 11
247.7662259971
 21
38.0078591775
 31
0.0
  0
LINE
  5
371
330
1F
100
AcDbEntity
  8
0
  6
Continuous
 62
     7
370
     0
100
AcDbLine
 10
248.9002413955
 20
38.5973115257
 30
0.0
 11
248.9345343391
 21
38.5994856368
 31
0.0
  0
SPLINE
  5
372
330
1F
100
AcDbEntity
  8
0
  6
Continuous
 62
     7
370
     0
100
AcDbSpline
210
0.0
220
0.0
230
1.0
 70
     8
 71
     3
 72
    10
 73
     6
 74
     0
 42
0.000000001
 43
0.00000001
 40
0.0
 40
0.0
 40
0.0
 40
0.0
 40
0.2765306019330085
 40
0.5626682704062371
 40
1.0
 40
1.0
 40
1.0
 40
1.0
 10
248.6660456833002
 20
38.74746445727673
 30
0.0
 10
248.6864862033789
 20
38.72271177860356
 30
0.0
 10
248.7280773762851
 20
38.67234647798368
 30
0.0
 10
248.8116424007867
 20
38.60968451097409
 30
0.0
 10
248.8668617315281
 20
38.60197304686173
 30
0.0
 10
248.9002413955258
 20
38.5973115256599
 30
0.0
  0
LINE
  5
373
330
1F
100
AcDbEntity
  8
0
  6
Continuous
 62
     7
370
     0
100
AcDbLine
 10
249.393103911
 20
38.6708942992
 30
0.0
 11
249.3815751695
 21
38.6662273815
 31
0.0
  0
LINE
  5
374
330
1F
100
AcDbEntity
  8
0
  6
Continuous
 62
     7
370
     0
100
AcDbLine
 10
250.8799616799
 20
38.4727298064
 30
0.0
 11
249.393103911
 21
38.6708942992
 31
0.0
  0
SPLINE
  5
375
330
1F
100
AcDbEntity
  8
0
  6
Continuous
 62
     7
370
     0
100
AcDbSpline
210
0.0
220
0.0
230
1.0
 70
     8
 71
     3
 72
    10
 73
     6
 74
     0
 42
0.000000001
 43
0.00000001
 40
0.0
 40
0.0
 40
0.0
 40
0.0
 40
0.2765306019330068
 40
0.5626682704062324
 40
1.0
 40
1.0
 40
1.0
 40
1.0
 10
249.3931039109882
 20
38.67089429917869
 30
0.0
 10
249.3999756883353
 20
38.67642984884422
 30
0.0
 10
249.4139579783513
 20
38.68769326104625
 30
0.0
 10
249.4420512088645
 20
38.74885576295883
 30
0.0
 10
249.4606150685242
 20
38.82296685970942
 30
0.0
 10
249.4718367800086
 20
38.86776645207728
 30
0.0
  0
ARC
  5
376
330
1F
100
AcDbEntity
  8
0
  6
Continuous
 62
     7
370
     0
100
AcDbCircle
 10
250.5965444605
 20
38.7002531244
 30
0.0
 40
0.3634448795593649
100
AcDbArc
 50
321.24299811
 51
355.1622076222
  0
LINE
  5
377
330
1F
100
AcDbEntity
  8
0
  6
Continuous
 62
     7
370
     0
100
AcDbLine
 10
249.1201896628
 20
38.6727178365
 30
0.0
 11
248.9002413955
 21
38.5973115257
 31
0.0
  0
LINE
  5
378
330
1F
100
AcDbEntity
  8
0
  6
Continuous
 62
     7
370
     0
100
AcDbLine
 10
249.393103911
 20
38.6708942992
 30
0.0
 11
249.1201896628
 21
38.6727178365
 31
0.0
  0
LWPOLYLINE
  5
379
330
1F
100
AcDbEntity
  8
0
  6
Continuous
 62
     7
370
     0
100
AcDbPolyline
 90
       25
 70
   128
 43
0.0
 10
202.7917464284
 20
35.977060788
 10
202.8329734017
 20
37.1064124363
 10
202.9563490916
 20
38.2750024104
 10
203.1609600675
 20
39.4741788788
 10
203.4452914614
 20
40.6950635586
 10
203.8072381831
 20
41.9286174468
 10
204.2441205058
 20
43.1657077419
 10
204.7527039055
 20
44.3971754603
 10
205.3292230088
 20
45.6139032457
 10
205.9694094699
 20
46.8068828714
 10
206.6685235721
 20
47.9672819336
 10
207.4213893194
 20
49.0865092437
 10
208.2224327571
 20
50.1562784341
 10
209.0657232398
 20
51.1686693082
 10
209.9450173399
 20
52.1161864781
 10
210.8538050715
 20
52.9918148581
 10
211.7853580882
 20
53.7890716021
 10
212.7327794973
 20
54.5020541001
 10
213.6890549223
 20
55.1254836791
 10
214.6471044344
 20
55.6547446847
 10
215.5998349703
 20
56.0859186535
 10
216.5401928463
 20
56.4158133243
 10
217.4612159819
 20
56.6419862725
 10
218.3560854438
 20
56.7627629925
 10
218.4364742951
 20
56.7685167329
  0
ARC
  5
37A
330
1F
100
AcDbEntity
  8
0
  6
Continuous
 62
     7
370
     0
100
AcDbCircle
 10
213.3817715077
 20
35.7234352046
 30
0.0
 40
10.59306174419613
100
AcDbArc
 50
178.628058196
 51
204.821613612
  0
LINE
  5
37B
330
1F
100
AcDbEntity
  8
0
  6
Continuous
 62
     7
370
     0
100
AcDbLine
 10
213.6043246207
 20
31.5401470352
 30
0.0
 11
235.6843119391
 21
44.2866523971
 31
0.0
  0
LINE
  5
37C
330
1F
100
AcDbEntity
  8
0
  6
Continuous
 62
     7
370
     0
100
AcDbLine
 10
217.5009986738
 20
29.608266548
 30
0.0
 11
237.8297831015
 21
41.3438239998
 31
0.0
  0
LINE
  5
37D
330
1F
100
AcDbEntity
  8
0
  6
Continuous
 62
     7
370
     0
100
AcDbLine
 10
215.1958760764
 20
50.1185655481
 30
0.0
 11
213.8424000867
 21
47.7742763739
 31
0.0
  0
LINE
  5
37E
330
1F
100
AcDbEntity
  8
0
  6
Continuous
 62
     7
370
     0
100
AcDbLine
 10
209.2378078578
 20
39.7988887088
 30
0.0
 11
207.8842415122
 21
37.4544430337
 31
0.0
  0
LINE
  5
37F
330
1F
100
AcDbEntity
  8
0
  6
Continuous
 62
     7
370
     0
100
AcDbLine
 10
214.1548429357
 20
50.719541188
 30
0.0
 11
206.8432083715
 21
38.0554186737
 31
0.0
  0
LINE
  5
380
330
1F
100
AcDbEntity
  8
0
  6
Continuous
 62
     7
370
     0
100
AcDbLine
 10
213.8174414227
 20
50.6330338258
 30
0.0
 11
206.7494236667
 21
38.3908679994
 31
0.0
  0
LINE
  5
381
330
1F
100
AcDbEntity
  8
0
  6
Continuous
 62
     7
370
     0
100
AcDbLine
 10
198.7066807513
 20
57.2699491221
 30
0.0
 11
209.1188789802
 21
51.3711136846
 31
0.0
  0
LINE
  5
382
330
1F
100
AcDbEntity
  8
0
  6
Continuous
 62
     7
370
     0
100
AcDbLine
 10
193.366591662
 20
43.5064245681
 30
0.0
 11
202.8174059371
 21
37.7693814615
 31
0.0
  0
LINE
  5
383
330
1F
100
AcDbEntity
  8
0
  6
Continuous
 62
     7
370
     0
100
AcDbLine
 10
222.171210082
 20
53.9003425793
 30
0.0
 11
220.8244236667
 21
54.678078574
 31
0.0
  0
LINE
  5
384
330
1F
100
AcDbEntity
  8
0
  6
Continuous
 62
     7
370
     0
100
AcDbLine
 10
206.7494236667
 20
30.299463529
 30
0.0
 11
208.0968409562
 21
29.52136322
 31
0.0
  0
LINE
  5
385
330
1F
100
AcDbEntity
  8
0
  6
Continuous
 62
     7
370
     0
100
AcDbLine
 10
202.987724809
 20
59.7413432516
 30
0.0
 11
212.6519436592
 21
54.5405340326
 31
0.0
  0
LINE
  5
386
330
1F
100
AcDbEntity
  8
0
  6
Continuous
 62
     7
370
     0
100
AcDbLine
 10
246.4418936548
 20
37.7747479242
 30
0.0
 11
246.4554277079
 21
38.2086949272
 31
0.0
  0
LINE
  5
387
330
1F
100
AcDbEntity
  8
0
  6
Continuous
 62
     7
370
     0
100
AcDbLine
 10
246.4418936548
 20
37.7747479242
 30
0.0
 11
246.4418936548
 21
37.6631084483
 31
0.0
  0
LINE
  5
388
330
1F
100
AcDbEntity
  8
0
  6
Continuous
 62
     7
370
     0
100
AcDbLine
 10
198.3294437744
 20
57.3582781302
 30
0.0
 11
198.7066807513
 21
57.2699491221
 31
0.0
  0
LINE
  5
389
330
1F
100
AcDbEntity
  8
0
  6
Continuous
 62
     7
370
     0
100
AcDbLine
 10
193.142447794
 20
43.9893351512
 30
0.0
 11
193.366591662
 21
43.5064245681
 31
0.0
  0
OLE2FRAME
  5
38A
330
1F
100
AcDbEntity
  8
0
100
AcDbOle2Frame
 70
     2
  3
Paintbrush-Bild
 10
13.8511154363
 20
38.264191557
 30
0.0
 11
51.6290888628
 21
31.9806341108
 31
0.0
 71
     2
 72
     0
 73
     1
 90
    12928
310
80552BED0767C5B32B40DDAF6807D121434000000000000000006FFBDDFB85D0
310
4940DDAF6807D121434000000000000000006FFBDDFB85D04940416F4BD60AFB
310
3F4000000000000000002BED0767C5B32B40416F4BD60AFB3F40000000000000
310
0000000000000100000000010000010000000100000000000100000000320000
310
D0CF11E0A1B11AE1000000000000000000000000000000003E000300FEFF0900
310
0600000000000000000000000100000001000000000000000010000002000000
310
01000000FEFFFFFF0000000000000000FFFFFFFFFFFFFFFFFFFFFFFFFFFFFFFF
310
FFFFFFFFFFFFFFFFFFFFFFFFFFFFFFFFFFFFFFFFFFFFFFFFFFFFFFFFFFFFFFFF
310
FFFFFFFFFFFFFFFFFFFFFFFFFFFFFFFFFFFFFFFFFFFFFFFFFFFFFFFFFFFFFFFF
310
FFFFFFFFFFFFFFFFFFFFFFFFFFFFFFFFFFFFFFFFFFFFFFFFFFFFFFFFFFFFFFFF
310
FFFFFFFFFFFFFFFFFFFFFFFFFFFFFFFFFFFFFFFFFFFFFFFFFFFFFFFFFFFFFFFF
310
FFFFFFFFFFFFFFFFFFFFFFFFFFFFFFFFFFFFFFFFFFFFFFFFFFFFFFFFFFFFFFFF
310
FFFFFFFFFFFFFFFFFFFFFFFFFFFFFFFFFFFFFFFFFFFFFFFFFFFFFFFFFFFFFFFF
310
FFFFFFFFFFFFFFFFFFFFFFFFFFFFFFFFFFFFFFFFFFFFFFFFFFFFFFFFFFFFFFFF
310
FFFFFFFFFFFFFFFFFFFFFFFFFFFFFFFFFFFFFFFFFFFFFFFFFFFFFFFFFFFFFFFF
310
FFFFFFFFFFFFFFFFFFFFFFFFFFFFFFFFFFFFFFFFFFFFFFFFFFFFFFFFFFFFFFFF
310
FFFFFFFFFFFFFFFFFFFFFFFFFFFFFFFFFFFFFFFFFFFFFFFFFFFFFFFFFFFFFFFF
310
FFFFFFFFFFFFFFFFFFFFFFFFFFFFFFFFFFFFFFFFFFFFFFFFFFFFFFFFFFFFFFFF
310
FFFFFFFFFFFFFFFFFFFFFFFFFFFFFFFFFFFFFFFFFFFFFFFFFFFFFFFFFFFFFFFF
310
FFFFFFFFFFFFFFFFFFFFFFFFFFFFFFFFFFFFFFFFFFFFFFFFFFFFFFFFFFFFFFFF
310
FDFFFFFFFEFFFFFFFEFFFFFFFEFFFFFF05000000060000000700000008000000
310
090000000A0000000B0000000C0000000D0000000E0000000F00000010000000
310
11000000120000001300000014000000150000001600000017000000FEFFFFFF
310
FFFFFFFFFFFFFFFFFFFFFFFFFFFFFFFFFFFFFFFFFFFFFFFFFFFFFFFFFFFFFFFF
310
FFFFFFFFFFFFFFFFFFFFFFFFFFFFFFFFFFFFFFFFFFFFFFFFFFFFFFFFFFFFFFFF
310
FFFFFFFFFFFFFFFFFFFFFFFFFFFFFFFFFFFFFFFFFFFFFFFFFFFFFFFFFFFFFFFF
310
FFFFFFFFFFFFFFFFFFFFFFFFFFFFFFFFFFFFFFFFFFFFFFFFFFFFFFFFFFFFFFFF
310
FFFFFFFFFFFFFFFFFFFFFFFFFFFFFFFFFFFFFFFFFFFFFFFFFFFFFFFFFFFFFFFF
310
FFFFFFFFFFFFFFFFFFFFFFFFFFFFFFFFFFFFFFFFFFFFFFFFFFFFFFFFFFFFFFFF
310
FFFFFFFFFFFFFFFFFFFFFFFFFFFFFFFFFFFFFFFFFFFFFFFFFFFFFFFFFFFFFFFF
310
FFFFFFFFFFFFFFFFFFFFFFFFFFFFFFFFFFFFFFFFFFFFFFFFFFFFFFFFFFFFFFFF
310
FFFFFFFFFFFFFFFFFFFFFFFFFFFFFFFFFFFFFFFFFFFFFFFFFFFFFFFFFFFFFFFF
310
FFFFFFFFFFFFFFFFFFFFFFFFFFFFFFFFFFFFFFFFFFFFFFFFFFFFFFFFFFFFFFFF
310
FFFFFFFFFFFFFFFFFFFFFFFFFFFFFFFFFFFFFFFFFFFFFFFFFFFFFFFFFFFFFFFF
310
FFFFFFFFFFFFFFFFFFFFFFFFFFFFFFFFFFFFFFFFFFFFFFFFFFFFFFFFFFFFFFFF
310
FFFFFFFFFFFFFFFFFFFFFFFFFFFFFFFFFFFFFFFFFFFFFFFFFFFFFFFFFFFFFFFF
310
52006F006F007400200045006E00740072007900000000000000000000000000
310
0000000000000000000000000000000000000000000000000000000000000000
310
16000500FFFFFFFFFFFFFFFF020000000A00030000000000C000000000000046
310
000000000000000000000000D096C5CBAC77D20103000000C000000000000000
310
01004F006C006500000000000000000000000000000000000000000000000000
310
0000000000000000000000000000000000000000000000000000000000000000
310
0A000200FFFFFFFFFFFFFFFFFFFFFFFF00000000000000000000000000000000
310
0000000000000000000000000000000000000000000000001400000000000000
310
010043006F006D0070004F0062006A0000000000000000000000000000000000
310
0000000000000000000000000000000000000000000000000000000000000000
310
120002010100000003000000FFFFFFFF00000000000000000000000000000000
310
0000000000000000000000000000000000000000010000004D00000000000000
310
01004F006C006500310030004E00610074006900760065000000000000000000
310
0000000000000000000000000000000000000000000000000000000000000000
310
1A000200FFFFFFFFFFFFFFFFFFFFFFFF00000000000000000000000000000000
310
0000000000000000000000000000000000000000040000002426000000000000
310
FEFFFFFF02000000FEFFFFFFFFFFFFFFFFFFFFFFFFFFFFFFFFFFFFFFFFFFFFFF
310
FFFFFFFFFFFFFFFFFFFFFFFFFFFFFFFFFFFFFFFFFFFFFFFFFFFFFFFFFFFFFFFF
310
FFFFFFFFFFFFFFFFFFFFFFFFFFFFFFFFFFFFFFFFFFFFFFFFFFFFFFFFFFFFFFFF
310
FFFFFFFFFFFFFFFFFFFFFFFFFFFFFFFFFFFFFFFFFFFFFFFFFFFFFFFFFFFFFFFF
310
FFFFFFFFFFFFFFFFFFFFFFFFFFFFFFFFFFFFFFFFFFFFFFFFFFFFFFFFFFFFFFFF
310
FFFFFFFFFFFFFFFFFFFFFFFFFFFFFFFFFFFFFFFFFFFFFFFFFFFFFFFFFFFFFFFF
310
FFFFFFFFFFFFFFFFFFFFFFFFFFFFFFFFFFFFFFFFFFFFFFFFFFFFFFFFFFFFFFFF
310
FFFFFFFFFFFFFFFFFFFFFFFFFFFFFFFFFFFFFFFFFFFFFFFFFFFFFFFFFFFFFFFF
310
FFFFFFFFFFFFFFFFFFFFFFFFFFFFFFFFFFFFFFFFFFFFFFFFFFFFFFFFFFFFFFFF
310
FFFFFFFFFFFFFFFFFFFFFFFFFFFFFFFFFFFFFFFFFFFFFFFFFFFFFFFFFFFFFFFF
310
FFFFFFFFFFFFFFFFFFFFFFFFFFFFFFFFFFFFFFFFFFFFFFFFFFFFFFFFFFFFFFFF
310
FFFFFFFFFFFFFFFFFFFFFFFFFFFFFFFFFFFFFFFFFFFFFFFFFFFFFFFFFFFFFFFF
310
FFFFFFFFFFFFFFFFFFFFFFFFFFFFFFFFFFFFFFFFFFFFFFFFFFFFFFFFFFFFFFFF
310
FFFFFFFFFFFFFFFFFFFFFFFFFFFFFFFFFFFFFFFFFFFFFFFFFFFFFFFFFFFFFFFF
310
FFFFFFFFFFFFFFFFFFFFFFFFFFFFFFFFFFFFFFFFFFFFFFFFFFFFFFFFFFFFFFFF
310
FFFFFFFFFFFFFFFFFFFFFFFFFFFFFFFFFFFFFFFFFFFFFFFFFFFFFFFFFFFFFFFF
310
0100000200000000000000000000000000000000000000000000000000000000
310
0000000000000000000000000000000000000000000000000000000000000000
310
0100FEFF030A0000FFFFFFFF0A00030000000000C00000000000004607000000
310
5042727573680007000000504272757368000700000050427275736800F439B2
310
7100000000000000000000000000000000000000000000000000000000000000
310
0000000000000000000000000000000000000000000000000000000000000000
310
0000000000000000000000000000000000000000000000000000000000000000
310
0000000000000000000000000000000000000000000000000000000000000000
310
0000000000000000000000000000000000000000000000000000000000000000
310
0000000000000000000000000000000000000000000000000000000000000000
310
0000000000000000000000000000000000000000000000000000000000000000
310
0000000000000000000000000000000000000000000000000000000000000000
310
0000000000000000000000000000000000000000000000000000000000000000
310
0000000000000000000000000000000000000000000000000000000000000000
310
0000000000000000000000000000000000000000000000000000000000000000
310
0000000000000000000000000000000000000000000000000000000000000000
310
20260000424D0E260000000000003E00000028000000B40200006E0000000100
310
01000000000000000000130B0000130B00000200000002000000000000FFFFFF
310
FFFFFFFFFFFFFFFFFFFFFFFFFFFFFFFFFFFFFFFFFFFFFFFFFFFFFFFFFFFFFFFF
310
FFFFFFFFFFFFFFFFFFFFFFFFFFFFFFFFFFFFFFFFFFFFFFFFFFFFFFFFFFFFFFFF
310
FFFFFFFFFFFFFFFFFFFFFFFFFFFFFFFFFFFFFFFFFFFFFFFFF000FFFFFFFFFFFF
310
FFFFFFFFFFFFFFFFFFFFFFFFFFFFFFFFFFFFFFFFFFFFFFFFFFFFFFFFFFFFFFFF
310
FFFFFFFFFFFFFFFFFFFFFFFFFFFFFFFFFFFFFFFFFFFFFFFFFFFFFFFFFFFFFFFF
310
FFFFFFFFFFFFFFFFFFFFFFFFFFFFFFFFF000FFFFFFFFFFFFFFFFFFFFFFFFFFFF
310
FFFFFFFFFFFFFFFFFFFFFFFFFFFFFFFFFFFFFFFFFFFFFFFFFFFFFFFFFFFFFFFF
310
FFFFFFFFFFFFFFFFFFFFFFFFFFFFFFFFFFFFFFFFFFFFFFFFFFFFFFFFFFFFFFFF
310
FFFFFFFFFFFFFFFFF000FFFFFFFFFFFFFFFFFFFFFFFFFFFFFFFFFFFFFFFFFFFF
310
FFFFFFFFFFFFFFFFFFFFFFFFFFFFFFFFFFFFFFFFFFFFFFFFFFFFFFFFFFFFFFFF
310
FFFFFFFFFFFFFFFFFFFFFFFFFFFFFFFFFFFFFFFFFFFFFFFFFFFFFFFFFFFFFFFF
310
F000FFFFFFFFFFFFFFFFFFFFFFFFFFFFFFFFFFFFFFFFFFFFFFFFFFFFFFFFFFFF
310
FFFFFFFFFFFFFFFFFFFFFFFFFFFFFFFFFFFFFFFFFFFFFFFFFFFFFFFFFFFFFFFF
310
FFFFFFFFFFFFFFFFFFFFFFFFFFFFFFFFFFFFFFFFFFFFFFFFF000FFFFFFFFFFFF
310
FFFFFFFFFFFFFFFFFFFFFFFFFFFFFFFFFFFFFFFFFFFFFFFFFFFFFFFFFFFFFFFF
310
FFFFFFFFFFFFFFFFFFFFFFFFFFFFFFFFFFFFFFFFFFFFFFFFFFFFFFFFFFFFFFFF
310
FFFFFFFFFFFFFFFFFFFFFFFFFFFFFFFFF000FFFFFFFFFFFFFFFFFFFFFFFFFFFF
310
FFFFFFFFFFFFFFFFFFFFFFFFFFFFFFFFFFFFFFFFFFFFFFFFFFFFFFFFFFFFFFFF
310
FFFFFFFFFFFFFFFFFFFFFFFFFFFFFFFFFFFFFFFFFFFFFFFFFFFFFFFFFFFFFFFF
310
FFFFFFFFFFFFFFFFF000FFFFFFFFFFFFFFFFFFFFFFFFFFFFFFFFFFFFFFFFFFFF
310
FFFFFFFFFFFFFFFFFFFFFFFFFFFFFFFFFFFFFFFFFFFFFFFFFFFFFFFFFFFFFFFF
310
FFFFFFFFFFFFFFFFFFFFFFFFFFFFFFFFFFFFFFFFFFFFFFFFFFFFFFFFFFFFFFFF
310
F000FFFFFFFFFFFFFFFFFFFFFFFFFFFFFFFFFFFFFFFFFFFFFFFFFFFFFFFFFFFF
310
FFFFFFFFFFFFFFFFFFFFFFFFFFFFFFFFFFFFFFFFFFFFFFFFFFFFFFFFFFFFFFFF
310
FFFFFFFFFFFFFFFFFFFFFFFFFFFFFFFFFFFFFFFFFFFFFFFFF000FFFFFFFFFFFF
310
FFFFFFFFFFFFFFFFFFFFFFFFFFFFFFFFFFFFFFFFFFFFFFFFFFFFFFFFFFFFFFFF
310
FFFFFFFFFFFFFFFFFFFFFFFFFFFFFFFFFFFFFFFFFFFFFFFFFFFFFFFFFFFFFFFF
310
FFFFFFFFFFFFFFFFFFFFFFFFFFFFFFFFF000FFFFFFFFFFFFFFFFFFFFFFFFFFFF
310
FFFFFFFFFFFFFFFFFFFFFFFFFFFFFFFFFFFFFFFFFFFFFFFFFFFFFFFFFFFFFFFF
310
FFFFFFFFFFFFFFFFFFFFFFFFFFFFFFFFFFFFFFFFFFFFFFFFFFFFFFFFFFFFFFFF
310
FFFFFFFFFFFFFFFFF000FFFFFFFFFFFFFFFFFFFFFFFFFFFFFFFFFFFFFFFFFFFF
310
FFFFFFFFFFFFFFFFFFFFFFFFFFFFFFFFFFFFFFFFFFFFFFFFFFFFFFFFFFFFFFFF
310
FFFFFFFFFFFFFFFFFFFFFFFFFFFFFFFFFFFFFFFFFFFFFFFFFFFFFFFFFFFFFFFF
310
F000FFFFFFFFFFFFFFFFFFFFFFFFFFFFFFFFFFFFFFFFFFFFFFFFFFFFFFFFFFFF
310
FFFFFFFFFFFFFFFFFFFFFFFFFFFFFFFFFFFFFFFFFFFFFFFFFFFFFFFFFFFFFFFF
310
FFFFFFFFFFFFFFFFFFFFFFFFFFFFFFFFFFFFFFFFFFFFFFFFF000FFFFFFFFFFFF
310
FFFFFFFFFFFFFFFFFFFFFFFFFFFFFFFFFFFFFFFFFFFFFFFFFFFFFFFFFFFFFFFF
310
FFFFFFFFFFFFFFFFFFFFFFFFFFFFFFFFFFFFFFFFFFFFFFFFFFFFFFFFFFFFFFFF
310
FFFFFFFFFFFFFFFFFFFFFFFFFFFFFFFFF000FFFFFFFFFFFFFFFFFFFFFFFFFFFF
310
FFFFFFFFFFFFFFFFFFFFFFFFFFFFFFFFFFFFFFFFFFFFFFFFFFFFFFFFFFFFFFFF
310
FFFFFFFFFFFFFFFFFFFFFFFFFFFFFFFFFFFFFFFFFFFFFFFFFFFFFFFFFFFFFFFF
310
FFFFFFFFFFFFFFFFF000FFFFFFFFFFFFFFFFFFFFFFFFFFFFFFFFFFFFFFFFFFFF
310
FFFFFFFFFFFFFFFFFFFFFFFFFFFFFFFFFFFFFFFFFFFFFFFFFFFFFFFFFFFFFFFF
310
FFFFFFFFFFFFFFFFFFFFFFFFFFFFFFFFFFFFFFFFFFFFFFFFFFFFFFFFFFFFFFFF
310
F000FFFFFFFFFFFFFFFFFFFFFFFFFFFFFFFFFFFFFFFFFFFFFFFFFFFFFFFFFFFF
310
FFFFFFFFFFFFFFFFFFFFFFFFFFFFFFFFFFFFFFFFFFFFFFFFFFFFFFFFFFFFFFFF
310
FFFFFFFFFFFFFFFFFFFFFFFFFFFFFFFFFFFFFFFFFFFFFFFFF000FFFFFFFFFFFF
310
FFFFFFFFFFFFFFFFFFFFFFFFFFFFFFFFFFFFFFFFFFFFFFFFFFFFFFFFFFFFFFFF
310
FFFFFFFFFFFFFFFFFFFFFFFFFFFFFFFFFFFFFFFFFFFFFFFFFFFFFFFFFFFFFFFF
310
FFFFFFFFFFFFFFFFFFFFFFFFFFFFFFFFF000FFFFFFFFFFFFFFFFFFFFFFFFFFFF
310
FFFFFFFFFFFFFFFFFFFFFFFFFFFFFFFFFFFFFFFFFFFFFFFFFFFFFFFFFFFFFFFF
310
FFFFFFFFFFFFFFFFFFFFFFFFFFFFFFFFFFFFFFFFFFFFFFFFFFFFFFFFFFFFFFFF
310
FFFFFFFFFFFFFFFFF000FFFFF80003FFFFFFFFFFFFFFFFFFFFFFFFFFFFFFFFFF
310
FFFFF00007FFFFFFFFFF00007FFFFFF800000000000000007FFFFFFFFFFFFFFF
310
FFFFFFFC001FFFFFFFFFFFFFFC001FFFFFFFFFFFFFFFFFFFFFFFFFFE0007FFFF
310
F000FFFF8000007FFFFFFFF8000FFFFFC0007FFFFF80007FFFFF0000007FFFFF
310
FFF8000007FFFFF800000000000000007FFFFFF0001FFFFFFFFFFFC00001FFFF
310
FFFFFFFFC00001FFFFFFFF000000000003FFFFE000007FFFF000FFFE0000000F
310
FFFFFFF0000FFFFF80007FFFFF80007FFFFC0000001FFFFFFFC0000001FFFFF8
310
00000000000000007FFFFFF0001FFFFFFFFFFE0000003FFFFFFFFFFE0000003F
310
FFFFFF000000000003FFFF0000000FFFF000FFF800000003FFFFFFF00007FFFF
310
80007FFFFF80007FFFF000000007FFFFFF000000003FFFF80000000000000000
310
7FFFFFF0001FFFFFFFFFF80000000FFFFFFFFFF80000000FFFFFFF0000000000
310
03FFFC00000003FFF000FFE000000000FFFFFFF00007FFFF80003FFFFF80007F
310
FFC000000001FFFFFC000000001FFFF800000000000000007FFFFFF0001FFFFF
310
FFFFE000000003FFFFFFFFE000000003FFFFFF000000000003FFF000000000FF
310
F000FF80000000007FFFFFF00007FFFF80003FFFFF80007FFF8000000000FFFF
310
F80000000007FFF800000000000000007FFFFFF0001FFFFFFFFFC000000001FF
310
FFFFFFC000000001FFFFFF000000000003FFC0000000007FF000FF0000000000
310
3FFFFFE00007FFFF00003FFFFF80007FFE00000000003FFFF00000000003FFF8
310
00000000000000007FFFFFF0001FFFFFFFFF8000000000FFFFFFFF8000000000
310
FFFFFF000000000003FF80000000003FF000FE00000000001FFFFFE00003FFFF
310
00003FFFFF80007FFC00000000001FFFE00000000001FFF8000001FFFE000000
310
7FFFFFF0001FFFFFFFFE00000000003FFFFFFE00000000003FFFFF0000000000
310
03FF00000000001FF000FC00000000000FFFFFE00003FFFF00001FFFFF80007F
310
F800000000001FFFC00000000000FFF8000001FFFE0000007FFFFFF0001FFFFF
310
FFFC00000000001FFFFFFC00000000001FFFFF000000000003FE00000000000F
310
F000F8000000000007FFFFE00003FFFF00001FFFFF80007FF800000000000FFF
310
800000000000FFF8000001FFFE0000007FFFFFF0001FFFFFFFF800000000000F
310
FFFFF800000000000FFFFF000000000003FC000000000007F000F80000000000
310
03FFFFC00003FFFE00001FFFFF80007FF0000000000007FF0000000000007FF8
310
000001FFFE0000007FFFFFF0001FFFFFFFF0000000000007FFFFF00000000000
310
07FFFF000000000003F8000000000003F000F0000000000003FFFFC00001FFFE
310
00001FFFFF80007FE0000000000007FE0000000000003FF8000001FFFE000000
310
7FFFFFF0001FFFFFFFF0000000000007FFFFF0000000000007FFFF0000000000
310
03F800001F800003F000E00001FFF00001FFFFC00001FFFE00000FFFFF80007F
310
E00001FFE00003FE00001FFF00003FF8000001FFFE0000007FFFFFF0001FFFFF
310
FFE000003E000003FFFFE000003E000003FFFF000000000003F00001FFF80001
310
F000E00007FFFC0001FFFFC00001FFFE00000FFFFF80007FC0000FFFFC0003FC
310
0000FFFFC0001FF8000001FFFE0000007FFFFFF0001FFFFFFFC00003FFE00001
310
FFFFC00003FFE00001FFFF0001FFFFFFFFF00007FFFE0001F000E0000FFFFF00
310
00FFFF800001FFFC00000FFFFF80007FC0001FFFFE0001FC0001FFFFE0001FF8
310
000001FFFE0000007FFFFFF0001FFFFFFF80000FFFF80000FFFF80000FFFF800
310
00FFFF0003FFFFFFFFE0000FFFFF8000F000C0003FFFFF8000FFFF800000FFFC
310
000007FFFF80007F80003FFFFF0001FC0003FFFFF0001FF8000001FFFE000000
310
7FFFFFF0001FFFFFFF80003FFFFE0000FFFF80003FFFFE0000FFFF0003FFFFFF
310
FFE0003FFFFF8000F000C0003FFFFF8000FFFF800000FFFC000007FFFF80007F
310
80007FFFFF8001F80007FFFFF8000FF8000001FFFE0000007FFFFFF0001FFFFF
310
FF00007FFFFF00007FFF00007FFFFF00007FFF0003FFFFFFFFE0003FFFFFC000
310
F000C0007FFFFFC000FFFF000000FFFC000007FFFF80007F8000FFFFFF8000F8
310
000FFFFFF8000FF8000001FFFE0000007FFFFFF0001FFFFFFF0000FFFFFF8000
310
7FFF0000FFFFFF80007FFF0003FFFFFFFFC0007FFFFFC00070008000FFFFFFC0
310
00FFFF000000FFF8000007FFFF80007F8000FFFFFF8000F8000FFFFFF8000FF8
310
000001FFFE0000007FFFFFF0001FFFFFFE0001FFFFFFC0003FFE0001FFFFFFC0
310
003FFF0003FFFFFFFFC0007FFFFFE00070008000FFFFFFC0007FFF0000007FF8
310
000003FFFF80007F0001FFFFFF8000F8000FFFFFF8000FF8000001FFFE000000
310
7FFFFFF0001FFFFFFE0001FFFFFFC0003FFE0001FFFFFFC0003FFF0003FFFFFF
310
FFC000FFFFFFE00070008000FFFFFFC0007FFF0000007FF8000003FFFF80007F
310
0001FFFFFF8000F8001FFFFFF8000FF8000001FFFE0000007FFFFFF0001FFFFF
310
FE0003FFFFFFE0003FFE0003FFFFFFE0003FFF0003FFFFFFFFC000FFFFFFE000
310
70008000FFFFFFC0007FFE0000007FF8000003FFFF80007F0001FFFFFF8000F0
310
001FFFFFF8000FF8000001FFFE0000007FFFFFF0001FFFFFFC0003FFFFFFE000
310
1FFC0003FFFFFFE0001FFF0003FFFFFFFFC000FFFFFFC00070008000FFFFFF80
310
007FFE0000007FF0000003FFFF80007F0001FFFFFF0000F0001FFFFFF8000FF8
310
000001FFFE0000007FFFFFF0001FFFFFFC0007FFFFFFF0001FFC0007FFFFFFF0
310
001FFF0003FFFFFFFFC000FFFFFFC00070008001FFFFFF0000FFFE0000003FF0
310
000001FFFF80007F0001FFFFFF0000F8001FFFFFF0000FF8000001FFFE000000
310
7FFFFFF0001FFFFFFC0007FFFFFFF0001FFC0007FFFFFFF0001FFF0003FFFFFF
310
FFC001FFFFFF80007000FFFFFFFFFE0000FFFE0008003FF0008001FFFF80007F
310
FFFFFFFFFC0000FFFFFFFFFFE0000FF8000001FFFE0000007FFFFFF0001FFFFF
310
F8000FFFFFFFF8000FF8000FFFFFFFF8000FFF0003FFFFFFFFFFFFFFFFFF0000
310
7000FFFFFFFFFC0000FFFC0008003FF0008001FFFF80007FFFFFFFFFF80001FF
310
FFFFFFFF80000FF8000001FFFE0000007FFFFFF0001FFFFFF8000FFFFFFFF800
310
0FF8000FFFFFFFF8000FFF0003FFFFFFFFFFFFFFFFFE0000F000FFFFFFFFE000
310
00FFFC000C003FE000C001FFFF80007FFFFFFFFFC00001FFFFFFFFFE00001FF8
310
000001FFFE0000007FFFFFF0001FFFFFF8000FFFFFFFF8000FF8000FFFFFFFF8
310
000FFF0003FFFFFFFFFFFFFFFFF00000F000FFFFFFFE000001FFFC000C001FE0
310
00C000FFFF80007FFFFFFFFE000001FFFFFFFFE000001FF80FFFFFFFFFFFFFC0
310
7FFFFFF0001FFFFFF8000FFFFFFFF8000FF8000FFFFFFFF8000FFF0003FFFFFF
310
FFFFFFFFFF800000F000FFFFFFC0000001FFFC001C001FE001C000FFFF80007F
310
FFFFFF80000003FFFFFFF80000001FF80FFFFFFFFFFFFFC07FFFFFF0001FFFFF
310
F8001FFFFFFFFC000FF8001FFFFFFFFC000FFF0003FFFFFFFFFFFFFFF0000001
310
F000FFFFF800000001FFF8001C001FE001C000FFFF80007FFFFFF800000003FF
310
FFFF800000003FF80FFFFFFFFFFFFFC07FFFFFF0001FFFFFF8001FFFFFFFFC00
310
0FF8001FFFFFFFFC000FFF0003FFFFFFFFFFFFFE00000001F000FFFFC0000000
310
03FFF8001E001FC001E000FFFF80007FFFFF8000000007FFFFFC000000003FF8
310
0FFFFFFFFFFFFFC07FFFFFF0001FFFFFF8001FFFFFFFFC000FF8001FFFFFFFFC
310
000FFF0003FFFFFFFFFFFFE000000003F000FFFE0000000007FFF8001E000FC0
310
01E0007FFF80007FFFFE0000000007FFFFE0000000007FF80FFFFFFFFFFFFFC0
310
7FFFFFF0001FFFFFF0001FFFFFFFFC0007F0001FFFFFFFFC0007FF0003FFFFFF
310
FFFFFF0000000003F000FFF80000000007FFF8001E000FC003E0007FFF80007F
310
FFF0000000000FFFFF8000000000FFF80FFFFFFFFFFFFFC07FFFFFF0001FFFFF
310
F0001FFFFFFFFC0007F0001FFFFFFFFC0007FF0003FFFFFFFFFFFC0000000007
310
F000FFE0000000000FFFF0003E000FC003E0007FFF80007FFFC0000000001FFF
310
FE0000000001FFF80FFFFFFFFFFFFFC07FFFFFF0001FFFFFF0001FFFFFFFFC00
310
07F0001FFFFFFFFC0007FF0003FFFFFFFFFFF0000000000FF000FFC000000000
310
1FFFF0003F000F8003F0003FFF80007FFF80000000003FFFF80000000003FFF8
310
0FFFFFFFFFFFFFC07FFFFFF0001FFFFFF0001FFFFFFFFC0007F0001FFFFFFFFC
310
0007FF0003FFFFFFFFFFE0000000001FF000FF00000000007FFFF0003F000780
310
03F0003FFF80007FFF00000000007FFFF00000000007FFF80FFFFFFFFFFFFFC0
310
7FFFFFF0001FFFFFF0001FFFFFFFFC0007F0001FFFFFFFFC0007FF0003FFFFFF
310
FFFF80000000007FF000FE0000000000FFFFE0003F00078007F0003FFF80007F
310
FE0000000001FFFFE0000000001FFFF80FFFFFFFFFFFFFC07FFFFFF0001FFFFF
310
F0001FFFFFFFFC0007F0001FFFFFFFFC0007FF0003FFFFFFFFFF0000000000FF
310
F000FC0000000003FFFFE0007F00078007F0003FFF80007FFC0000000007FFFF
310
C0000000007FFFF80FFFFFFFFFFFFFC07FFFFFF0001FFFFFF8001FFFFFFFFC00
310
0FF8001FFFFFFFFC000FFF0003FFFFFFFFFE0000000003FFF000FC000000000F
310
FFFFE0007F80070007F8001FFF80007FF8000000001FFFFF8000000001FFFFF8
310
0FFFFFFFFFFFFFC07FFFFFF0001FFFFFF8001FFFFFFFFC000FF8001FFFFFFFFC
310
000FFF0003FFFFFFFFFC000000000FFFF000F8000000007FFFFFE0007F800700
310
07F8001FFF80007FF000000000FFFFFF800000000FFFFFF80FFFFFFFFFFFFFC0
310
7FFFFFF0001FFFFFF8000FFFFFFFF8000FF8000FFFFFFFF8000FFF0003FFFFFF
310
FFFC000000007FFFF000F800000007FFFFFFC0007F8003000FF8001FFF80007F
310
F000000007FFFFFF000000007FFFFFF80FFFFFFFFFFFFFC07FFFFFF0001FFFFF
310
F8000FFFFFFFF8000FF8000FFFFFFFF8000FFF0003FFFFFFFFF80000000FFFFF
310
F000F0000000FFFFFFFFC000FF8003000FF8001FFF80007FE0000000FFFFFFFF
310
0000000FFFFFFFF8000001FFFE0000007FFFFFF0001FFFFFF8000FFFFFFFF800
310
0FF8000FFFFFFFF8000FFF0003FFFFFFFFF8000000FFFFFFF000F000000FFFFF
310
FFFFC000FFC002000FF8000FFF80007FE000001FFFFFFFFE000001FFFFFFFFF8
310
000001FFFE0000007FFFFFF0001FFFFFF8000FFFFFFFF8000FF8000FFFFFFFF8
310
000FFF0003FFFFFFFFF000001FFFFFFFF000E00000FFFFFFFFFFC000FFC00200
310
0FFC000FFF80007FE00001FFFFFFFFFE00001FFFFFFFFFF8000001FFFE000000
310
7FFFFFF0001FFFFFFC000FFFFFFFF8001FFC000FFFFFFFF8001FFF0003FFFFFF
310
FFF00001FFFFFFFFF000E00007FFFFFFFFFF8000FFC000001FFC000FFF80007F
310
C0000FFFFFFFFFFE0000FFFFFFFFFFF8000001FFFE0000007FFFFFF0001FFFFF
310
FC0007FFFFFFF0001FFC0007FFFFFFF0001FFF0003FFFFFFFFF00007FFFFFFFF
310
F000E0001FFFFFFFFFFF8000FFC000001FFC000FFF80007FC0003FFFFFFFFFFE
310
0001FFFFFFFFFFF8000001FFFE0000007FFFFFF0001FFFFFFC0007FFFFFFF000
310
1FFC0007FFFFFFF0001FFF0003FFFFFFFFF0001FFFFFFFFFF000E0003FFFFF00
310
03FF8001FFE000001FFC0007FF80007FC0007FFFFF0007FC0003FFFFF0003FF8
310
000001FFFE0000007FFFFFF0001FFFFFFC0003FFFFFFE0001FFC0003FFFFFFE0
310
001FFF0003FFFFFFFFF0003FFFFFFFFFF000E0003FFFFF0001FF8001FFE00000
310
1FFE0007FF80007FC0007FFFFE0003FC0007FFFFE0003FF8000001FFFE000000
310
7FFFFFF0001FFFFFFE0003FFFFFFE0003FFE0003FFFFFFE0003FFF0003FFFFFF
310
FFF0003FFFFF8001F000E0003FFFFF0001FF0001FFE000001FFE0007FF80007F
310
C0007FFFFE0003FC0007FFFFE0003FF8000001FFFE0000007FFFFFF0001FFFFF
310
FE0001FFFFFFC0003FFE0001FFFFFFC0003FFF0003FFFFFFFFF0003FFFFF0001
310
F000E0003FFFFF0003FF0001FFE000003FFE0007FF80007FC0007FFFFE0003FC
310
0007FFFFE0003FF8000001FFFE0000007FFFFFF0001FFFFFFF0001FFFFFFC000
310
7FFF0001FFFFFFC0007FFF0003FFFFFFFFF0003FFFFF0001F000E0003FFFFE00
310
03FF0003FFF000003FFE0003FF80007FC0007FFFFC0003FE0007FFFFE0003FF8
310
000001FFFE0000007FFFFFF0001FFFFFFF0000FFFFFF80007FFF0000FFFFFF80
310
007FFF0003FFFFFFFFF0003FFFFF0001F000E0003FFFFE0003FF0003FFF00000
310
3FFF0003FF80007FC0007FFFFC0007FE0007FFFFC0003FF8000001FFFE000000
310
7FFFFFF0001FFFFFFF80007FFFFF0000FFFF80007FFFFF0000FFFF0003FFFFFF
310
FFF0003FFFFF0003F000E0003FFFFC0003FE0003FFF000003FFF0003FF80007F
310
E0003FFFF80007FE0003FFFFC0007FF8000001FFFE0000007FFFFFF0001FFFFF
310
FF80003FFFFE0000FFFF80003FFFFE0000FFFF0003FFFFFFFFF0001FFFFE0003
310
F000F0001FFFF80003FE0003FFF000007FFF0001FF80007FE0003FFFF00007FE
310
0001FFFF80007FF8000001FFFE0000007FFFFFF0001FFFFFFFC0000FFFF80001
310
FFFFC0000FFFF80001FFFF0003FFFFFFFFF0001FFFFC0003F000F0000FFFF000
310
07FE0007FFF800007FFF0001FF80007FE0001FFFE00007FF0000FFFE00007FF8
310
000001FFFE0000007FFFFFF0001FFFFFFFC00003FFE00001FFFFC00003FFE000
310
01FFFF0003FFFFFFFFF8000FFFF80003F000F00003FFC00007FC0007FFF80000
310
7FFF8001FF80007FF00007FF80000FFF00007FF80000FFF8000001FFFE000000
310
7F80000000000001FFE000003E000003FFFFE000003E000003FFFF0003FFFFFF
310
FFF80003FFE00007F000F800000000000FFC0007FFF800007FFF8001FF80007F
310
F000000000000FFF000000000000FFF8000001FFFE0000007F80000000000001
310
FFF0000000000007FFFFF0000000000007FFFF0003FFFFFFFFFC00007E000007
310
F000F800000000000FFC0007FFF80000FFFF8000FF80007FF800000000001FFF
310
800000000001FFF8000001FFFE0000007F80000000000001FFF800000000000F
310
FFFFF800000000000FFFFF0003FFFFFFFFFC00000000000FF000FC0000000000
310
1FFC0007FFFC0000FFFF8000FF80007FF800000000003FFFC00000000001FFF8
310
000001FFFE0000007F80000000000001FFF800000000000FFFFFF80000000000
310
0FFFFF0003FFFFFFFFFE00000000001FF000FE00000000003FF8000FFFFC0000
310
FFFF8000FF80007FFC00000000003FFFC00000000003FFF8000001FFFE000000
310
7F80000000000001FFFC00000000001FFFFFFC00000000001FFFFF0003FFFFFF
310
FFFF00000000001FF000FF00000000003FF8000FFFFC0000FFFFC000FF80007F
310
FE00000000007FFFE00000000007FFF8000001FFFE0000007F80000000000001
310
FFFE00000000003FFFFFFE00000000003FFFFF0003FFFFFFFFFF80000000003F
310
F000FF80000000007FF8000FFFFC0001FFFFC0007F80007FFF0000000000FFFF
310
F0000000000FFFF800000000000000007F80000000000001FFFF8000000000FF
310
FFFFFF8000000000FFFFFF0003FFFFFFFFFFC0000000007FF000FFC000000000
310
FFF8000FFFFE0001FFFFC0007F80007FFF8000000001FFFFF8000000001FFFF8
310
00000000000000007F80000000000001FFFFC000000001FFFFFFFFC000000001
310
FFFFFF0003FFFFFFFFFFE000000000FFF000FFE000000003FFF0001FFFFE0001
310
FFFFC0007F80007FFFC000000007FFFFFE000000003FFFF80000000000000000
310
7F80000000000001FFFFE000000003FFFFFFFFE000000003FFFFFF0003FFFFFF
310
FFFFF000000003FFF000FFF80000000FFFF0001FFFFE0001FFFFE0007F80007F
310
FFF00000000FFFFFFF00000000FFFFF800000000000000007F80000000000001
310
FFFFF80000000FFFFFFFFFF80000000FFFFFFF0003FFFFFFFFFFFC0000000FFF
310
F000FFFE0000003FFFF0001FFFFE0003FFFFE0003F80007FFFFC0000003FFFFF
310
FFC0000003FFFFF800000000000000007F80000000000001FFFFFE0000003FFF
310
FFFFFFFE0000003FFFFFFF0003FFFFFFFFFFFF0000003FFFF000FFFF800000FF
310
FFF0001FFFFF0003FFFFE0003F80007FFFFF000001FFFFFFFFF800001FFFFFF8
310
00000000000000007F80000000000001FFFFFFC00001FFFFFFFFFFFFC00001FF
310
FFFFFF0003FFFFFFFFFFFFC00000FFFFF000FFFFF8000FFFFFFFFFFFFFFFFFFF
310
FFFFFFFFFFFFFFFFFFFFF0001FFFFFFFFFFF0000FFFFFFF80000000000000000
310
7FFFFFFFFFFFFFFFFFFFFFFC001FFFFFFFFFFFFFFC001FFFFFFFFFFFFFFFFFFF
310
FFFFFFFC001FFFFFF000FFFFFFFFFFFFFFFFFFFFFFFFFFFFFFFFFFFFFFFFFFFF
310
FFFFFFFFFFFFFFFFFFFFFFFFFFFFFFFFFFFFFFFFFFFFFFFFFFFFFFFFFFFFFFFF
310
FFFFFFFFFFFFFFFFFFFFFFFFFFFFFFFFFFFFFFFFFFFFFFFFFFFFFFFFFFFFFFFF
310
F000FFFFFFFFFFFFFFFFFFFFFFFFFFFFFFFFFFFFFFFFFFFFFFFFFFFFFFFFFFFF
310
FFFFFFFFFFFFFFFFFFFFFFFFFFFFFFFFFFFFFFFFFFFFFFFFFFFFFFFFFFFFFFFF
310
FFFFFFFFFFFFFFFFFFFFFFFFFFFFFFFFFFFFFFFFFFFFFFFFF000FFFFFFFFFFFF
310
FFFFFFFFFFFFFFFFFFFFFFFFFFFFFFFFFFFFFFFFFFFFFFFFFFFFFFFFFFFFFFFF
310
FFFFFFFFFFFFFFFFFFFFFFFFFFFFFFFFFFFFFFFFFFFFFFFFFFFFFFFFFFFFFFFF
310
FFFFFFFFFFFFFFFFFFFFFFFFFFFFFFFFF000FFFFFFFFFFFFFFFFFFFFFFFFFFFF
310
FFFFFFFFFFFFFFFFFFFFFFFFFFFFFFFFFFFFFFFFFFFFFFFFFFFFFFFFFFFFFFFF
310
FFFFFFFFFFFFFFFFFFFFFFFFFFFFFFFFFFFFFFFFFFFFFFFFFFFFFFFFFFFFFFFF
310
FFFFFFFFFFFFFFFFF000FFFFFFFFFFFFFFFFFFFFFFFFFFFFFFFFFFFFFFFFFFFF
310
FFFFFFFFFFFFFFFFFFFFFFFFFFFFFFFFFFFFFFFFFFFFFFFFFFFFFFFFFFFFFFFF
310
FFFFFFFFFFFFFFFFFFFFFFFFFFFFFFFFFFFFFFFFFFFFFFFFFFFFFFFFFFFFFFFF
310
F000FFFFFFFFFFFFFFFFFFFFFFFFFFFFFFFFFFFFFFFFFFFFFFFFFFFFFFFFFFFF
310
FFFFFFFFFFFFFFFFFFFFFFFFFFFFFFFFFFFFFFFFFFFFFFFFFFFFFFFFFFFFFFFF
310
FFFFFFFFFFFFFFFFFFFFFFFFFFFFFFFFFFFFFFFFFFFFFFFFF000FFFFFFFFFFFF
310
FFFFFFFFFFFFFFFFFFFFFFFFFFFFFFFFFFFFFFFFFFFFFFFFFFFFFFFFFFFFFFFF
310
FFFFFFFFFFFFFFFFFFFFFFFFFFFFFFFFFFFFFFFFFFFFFFFFFFFFFFFFFFFFFFFF
310
FFFFFFFFFFFFFFFFFFFFFFFFFFFFFFFFF000FFFFFFFFFFFFFFFFFFFFFFFFFFFF
310
FFFFFFFFFFFFFFFFFFFFFFFFFFFFFFFFFFFFFFFFFFFFFFFFFFFFFFFFFFFFFFFF
310
FFFFFFFFFFFFFFFFFFFFFFFFFFFFFFFFFFFFFFFFFFFFFFFFFFFFFFFFFFFFFFFF
310
FFFFFFFFFFFFFFFFF000FFFFFFFFFFFFFFFFFFFFFFFFFFFFFFFFFFFFFFFFFFFF
310
FFFFFFFFFFFFFFFFFFFFFFFFFFFFFFFFFFFFFFFFFFFFFFFFFFFFFFFFFFFFFFFF
310
FFFFFFFFFFFFFFFFFFFFFFFFFFFFFFFFFFFFFFFFFFFFFFFFFFFFFFFFFFFFFFFF
310
F000FFFFFFFFFFFFFFFFFFFFFFFFFFFFFFFFFFFFFFFFFFFFFFFFFFFFFFFFFFFF
310
FFFFFFFFFFFFFFFFFFFFFFFFFFFFFFFFFFFFFFFFFFFFFFFFFFFFFFFFFFFFFFFF
310
FFFFFFFFFFFFFFFFFFFFFFFFFFFFFFFFFFFFFFFFFFFFFFFFF000FFFFFFFFFFFF
310
FFFFFFFFFFFFFFFFFFFFFFFFFFFFFFFFFFFFFFFFFFFFFFFFFFFFFFFFFFFFFFFF
310
FFFFFFFFFFFFFFFFFFFFFFFFFFFFFFFFFFFFFFFFFFFFFFFFFFFFFFFFFFFFFFFF
310
FFFFFFFFFFFFFFFFFFFFFFFFFFFFFFFFF000FFFFFFFFFFFFFFFFFFFFFFFFFFFF
310
FFFFFFFFFFFFFFFFFFFFFFFFFFFFFFFFFFFFFFFFFFFFFFFFFFFFFFFFFFFFFFFF
310
FFFFFFFFFFFFFFFFFFFFFFFFFFFFFFFFFFFFFFFFFFFFFFFFFFFFFFFFFFFFFFFF
310
FFFFFFFFFFFFFFFFF000FFFFFFFFFFFFFFFFFFFFFFFFFFFFFFFFFFFFFFFFFFFF
310
FFFFFFFFFFFFFFFFFFFFFFFFFFFFFFFFFFFFFFFFFFFFFFFFFFFFFFFFFFFFFFFF
310
FFFFFFFFFFFFFFFFFFFFFFFFFFFFFFFFFFFFFFFFFFFFFFFFFFFFFFFFFFFFFFFF
310
F000FFFFFFFFFFFFFFFFFFFFFFFFFFFFFFFFFFFFFFFFFFFFFFFFFFFFFFFFFFFF
310
FFFFFFFFFFFFFFFFFFFFFFFFFFFFFFFFFFFFFFFFFFFFFFFFFFFFFFFFFFFFFFFF
310
FFFFFFFFFFFFFFFFFFFFFFFFFFFFFFFFFFFFFFFFFFFFFFFFF000FFFFFFFFFFFF
310
FFFFFFFFFFFFFFFFFFFFFFFFFFFFFFFFFFFFFFFFFFFFFFFFFFFFFFFFFFFFFFFF
310
FFFFFFFFFFFFFFFFFFFFFFFFFFFFFFFFFFFFFFFFFFFFFFFFFFFFFFFFFFFFFFFF
310
FFFFFFFFFFFFFFFFFFFFFFFFFFFFFFFFF000FFFFFFFFFFFFFFFFFFFFFFFFFFFF
310
FFFFFFFFFFFFFFFFFFFFFFFFFFFFFFFFFFFFFFFFFFFFFFFFFFFFFFFFFFFFFFFF
310
FFFFFFFFFFFFFFFFFFFFFFFFFFFFFFFFFFFFFFFFFFFFFFFFFFFFFFFFFFFFFFFF
310
FFFFFFFFFFFFFFFFF000FFFFFFFFFFFFFFFFFFFFFFFFFFFFFFFFFFFFFFFFFFFF
310
FFFFFFFFFFFFFFFFFFFFFFFFFFFFFFFFFFFFFFFFFFFFFFFFFFFFFFFFFFFFFFFF
310
FFFFFFFFFFFFFFFFFFFFFFFFFFFFFFFFFFFFFFFFFFFFFFFFFFFFFFFFFFFFFFFF
310
F000FFFFFFFFFFFFFFFFFFFFFFFFFFFFFFFFFFFFFFFFFFFFFFFFFFFFFFFFFFFF
310
FFFFFFFFFFFFFFFFFFFFFFFFFFFFFFFFFFFFFFFFFFFFFFFFFFFFFFFFFFFFFFFF
310
FFFFFFFFFFFFFFFFFFFFFFFFFFFFFFFFFFFFFFFFFFFFFFFFF000FFFFFFFFFFFF
310
FFFFFFFFFFFFFFFFFFFFFFFFFFFFFFFFFFFFFFFFFFFFFFFFFFFFFFFFFFFFFFFF
310
FFFFFFFFFFFFFFFFFFFFFFFFFFFFFFFFFFFFFFFFFFFFFFFFFFFFFFFFFFFFFFFF
310
FFFFFFFFFFFFFFFFFFFFFFFFFFFFFFFFF000FFFFFFFFFFFFFFFFFFFFFFFFFFFF
310
FFFFFFFFFFFFFFFFFFFFFFFFFFFFFFFFFFFFFFFFFFFFFFFFFFFFFFFFFFFFFFFF
310
FFFFFFFFFFFFFFFFFFFFFFFFFFFFFFFFFFFFFFFFFFFFFFFFFFFFFFFFFFFFFFFF
310
FFFFFFFFFFFFFFFFF000FFFFFFFFFFFFFFFFFFFFFFFFFFFFFFFFFFFFFFFFFFFF
310
FFFFFFFFFFFFFFFFFFFFFFFFFFFFFFFFFFFFFFFFFFFFFFFFFFFFFFFFFFFFFFFF
310
FFFFFFFFFFFFFFFFFFFFFFFFFFFFFFFFFFFFFFFFFFFFFFFFFFFFFFFFFFFFFFFF
310
F000FFFFFFFFFFFFFFFFFFFFFFFFFFFFFFFFFFFFFFFFFFFFFFFFFFFFFFFFFFFF
310
FFFFFFFFFFFFFFFFFFFFFFFFFFFFFFFFFFFFFFFFFFFFFFFFFFFFFFFFFFFFFFFF
310
FFFFFFFFFFFFFFFFFFFFFFFFFFFFFFFFFFFFFFFFFFFFFFFFF000FFFFFFFFFFFF
310
FFFFFFFFFFFFFFFFFFFFFFFFFFFFFFFFFFFFFFFFFFFFFFFFFFFFFFFFFFFFFFFF
310
FFFFFFFFFFFFFFFFFFFFFFFFFFFFFFFFFFFFFFFFFFFFFFFFFFFFFFFFFFFFFFFF
310
FFFFFFFFFFFFFFFFFFFFFFFFFFFFFFFFF0000000000000000000000000000000
310
0000000000000000000000000000000000000000000000000000000000000000
310
0000000000000000000000000000000000000000000000000000000000000000
310
0000000000000000000000000000000000000000000000000000000000000000
310
0000000000000000000000000000000000000000000000000000000000000000
310
0000000000000000000000000000000000000000000000000000000000000000
310
0000000000000000000000000000000000000000000000000000000000000000
310
0000000000000000000000000000000000000000000000000000000000000000
310
0000000000000000000000000000000000000000000000000000000000000000
310
0000000000000000000000000000000000000000000000000000000000000000
310
0000000000000000000000000000000000000000000000000000000000000000
310
0000000000000000000000000000000000000000000000000000000000000000
310
0000000000000000000000000000000000000000000000000000000000000000
310
0000000000000000000000000000000000000000000000000000000000000000
310
0000000000000000000000000000000000000000000000000000000000000000
310
0000000000000000000000000000000000000000000000000000000000000000
  1
OLE
  0
ENDSEC
  0
SECTION
  2
OBJECTS
  0
DICTIONARY
  5
C
330
0
100
AcDbDictionary
281
     1
  3
ACAD_GROUP
350
D
  3
ACAD_LAYOUT
350
1A
  3
ACAD_MLINESTYLE
350
17
  3
ACAD_PLOTSETTINGS
350
19
  3
ACAD_PLOTSTYLENAME
350
E
  3
ACAD_SCALELIST
350
47
  0
DICTIONARY
  5
D
102
{ACAD_REACTORS
330
C
102
}
330
C
100
AcDbDictionary
281
     1
  0
DICTIONARY
  5
1A
102
{ACAD_REACTORS
330
C
102
}
330
C
100
AcDbDictionary
281
     1
  3
Layout1
350
1E
  3
Layout2
350
26
  3
Model
350
22
  0
DICTIONARY
  5
17
102
{ACAD_REACTORS
330
C
102
}
330
C
100
AcDbDictionary
281
     1
  3
Standard
350
18
  0
DICTIONARY
  5
19
102
{ACAD_REACTORS
330
C
102
}
330
C
100
AcDbDictionary
281
     1
  0
ACDBDICTIONARYWDFLT
  5
E
102
{ACAD_REACTORS
330
C
102
}
330
C
100
AcDbDictionary
281
     1
  3
Normal
350
F
100
AcDbDictionaryWithDefault
340
F
  0
DICTIONARY
  5
47
102
{ACAD_REACTORS
330
C
102
}
330
C
100
AcDbDictionary
281
     1
  3
A0
350
48
  3
A1
350
49
  3
A2
350
4A
  3
A3
350
4B
  3
A4
350
4C
  3
A5
350
4D
  3
A6
350
4E
  3
A7
350
4F
  3
A8
350
50
  3
A9
350
51
  3
B0
350
52
  3
B1
350
53
  3
B2
350
54
  3
B3
350
55
  3
B4
350
56
  3
B5
350
57
  3
B6
350
58
  3
B7
350
59
  3
B8
350
5A
  3
B9
350
5B
  3
C0
350
5C
  3
C1
350
5D
  3
C2
350
5E
  3
C3
350
5F
  3
C4
350
60
  3
C5
350
61
  3
C6
350
62
  3
C7
350
63
  3
C8
350
64
  3
C9
350
65
  3
D0
350
66
  3
D1
350
67
  3
D2
350
68
  0
LAYOUT
  5
1E
102
{ACAD_REACTORS
330
1A
102
}
330
1A
100
AcDbPlotSettings
  1

  2
none_device
  4

  6

 40
0.0
 41
0.0
 42
0.0
 43
0.0
 44
0.0
 45
0.0
 46
0.0
 47
0.0
 48
0.0
 49
0.0
140
0.0
141
0.0
142
1.0
143
1.0
 70
   688
 72
     1
 73
     0
 74
     5
  7

 75
    16
147
1.0
148
0.0
149
0.0
100
AcDbLayout
  1
Layout1
 70
     1
 71
     1
 10
0.0
 20
0.0
 11
420.0
 21
297.0
 12
0.0
 22
0.0
 32
0.0
 14
1.0000000000E+20
 24
1.0000000000E+20
 34
1.0000000000E+20
 15
-1.0000000000E+20
 25
-1.0000000000E+20
 35
-1.0000000000E+20
146
0.0
 13
0.0
 23
0.0
 33
0.0
 16
1.0
 26
0.0
 36
0.0
 17
0.0
 27
1.0
 37
0.0
 76
     0
330
1B
  0
LAYOUT
  5
26
102
{ACAD_REACTORS
330
1A
102
}
330
1A
100
AcDbPlotSettings
  1

  2
none_device
  4

  6

 40
0.0
 41
0.0
 42
0.0
 43
0.0
 44
0.0
 45
0.0
 46
0.0
 47
0.0
 48
0.0
 49
0.0
140
0.0
141
0.0
142
1.0
143
1.0
 70
   688
 72
     1
 73
     0
 74
     5
  7

 75
    16
147
1.0
148
0.0
149
0.0
100
AcDbLayout
  1
Layout2
 70
     1
 71
     2
 10
0.0
 20
0.0
 11
0.0
 21
0.0
 12
0.0
 22
0.0
 32
0.0
 14
0.0
 24
0.0
 34
0.0
 15
0.0
 25
0.0
 35
0.0
146
0.0
 13
0.0
 23
0.0
 33
0.0
 16
1.0
 26
0.0
 36
0.0
 17
0.0
 27
1.0
 37
0.0
 76
     0
330
23
  0
LAYOUT
  5
22
102
{ACAD_REACTORS
330
1A
102
}
330
1A
100
AcDbPlotSettings
  1

  2
none_device
  4
Letter_(8.50_x_11.00_Inches)
  6

 40
6.35
 41
6.35
 42
6.35000508
 43
6.35000508
 44
215.9
 45
279.4
 46
0.0
 47
0.0
 48
0.0
 49
0.0
140
0.0
141
0.0
142
1.0
143
1.0
 70
  1712
 72
     1
 73
     0
 74
     0
  7

 75
     0
147
1.0
148
0.0
149
0.0
100
AcDbLayout
  1
Model
 70
     1
 71
     0
 10
0.0
 20
0.0
 11
297.0
 21
210.0
 12
0.0
 22
0.0
 32
0.0
 14
0.0
 24
0.0
 34
0.0
 15
297.0
 25
210.0
 35
0.0
146
0.0
 13
0.0
 23
0.0
 33
0.0
 16
1.0
 26
0.0
 36
0.0
 17
0.0
 27
1.0
 37
0.0
 76
     0
330
1F
331
29
  0
MLINESTYLE
  5
18
102
{ACAD_REACTORS
330
17
102
}
330
17
100
AcDbMlineStyle
  2
Standard
 70
     0
  3

 62
   256
 51
90.0
 52
90.0
 71
     2
 49
0.5
 62
   256
  6
BYLAYER
 49
-0.5
 62
   256
  6
BYLAYER
  0
ACDBPLACEHOLDER
  5
F
102
{ACAD_REACTORS
330
E
102
}
330
E
  0
SCALE
  5
48
102
{ACAD_REACTORS
330
47
102
}
330
47
100
AcDbScale
 70
     0
300
1:1
140
1.0
141
1.0
290
     1
  0
SCALE
  5
49
102
{ACAD_REACTORS
330
47
102
}
330
47
100
AcDbScale
 70
     0
300
1:2
140
1.0
141
2.0
290
     0
  0
SCALE
  5
4A
102
{ACAD_REACTORS
330
47
102
}
330
47
100
AcDbScale
 70
     0
300
1:4
140
1.0
141
4.0
290
     0
  0
SCALE
  5
4B
102
{ACAD_REACTORS
330
47
102
}
330
47
100
AcDbScale
 70
     0
300
1:5
140
1.0
141
5.0
290
     0
  0
SCALE
  5
4C
102
{ACAD_REACTORS
330
47
102
}
330
47
100
AcDbScale
 70
     0
300
1:8
140
1.0
141
8.0
290
     0
  0
SCALE
  5
4D
102
{ACAD_REACTORS
330
47
102
}
330
47
100
AcDbScale
 70
     0
300
1:10
140
1.0
141
10.0
290
     0
  0
SCALE
  5
4E
102
{ACAD_REACTORS
330
47
102
}
330
47
100
AcDbScale
 70
     0
300
1:16
140
1.0
141
16.0
290
     0
  0
SCALE
  5
4F
102
{ACAD_REACTORS
330
47
102
}
330
47
100
AcDbScale
 70
     0
300
1:20
140
1.0
141
20.0
290
     0
  0
SCALE
  5
50
102
{ACAD_REACTORS
330
47
102
}
330
47
100
AcDbScale
 70
     0
300
1:30
140
1.0
141
30.0
290
     0
  0
SCALE
  5
51
102
{ACAD_REACTORS
330
47
102
}
330
47
100
AcDbScale
 70
     0
300
1:40
140
1.0
141
40.0
290
     0
  0
SCALE
  5
52
102
{ACAD_REACTORS
330
47
102
}
330
47
100
AcDbScale
 70
     0
300
1:50
140
1.0
141
50.0
290
     0
  0
SCALE
  5
53
102
{ACAD_REACTORS
330
47
102
}
330
47
100
AcDbScale
 70
     0
300
1:100
140
1.0
141
100.0
290
     0
  0
SCALE
  5
54
102
{ACAD_REACTORS
330
47
102
}
330
47
100
AcDbScale
 70
     0
300
2:1
140
2.0
141
1.0
290
     0
  0
SCALE
  5
55
102
{ACAD_REACTORS
330
47
102
}
330
47
100
AcDbScale
 70
     0
300
4:1
140
4.0
141
1.0
290
     0
  0
SCALE
  5
56
102
{ACAD_REACTORS
330
47
102
}
330
47
100
AcDbScale
 70
     0
300
8:1
140
8.0
141
1.0
290
     0
  0
SCALE
  5
57
102
{ACAD_REACTORS
330
47
102
}
330
47
100
AcDbScale
 70
     0
300
10:1
140
10.0
141
1.0
290
     0
  0
SCALE
  5
58
102
{ACAD_REACTORS
330
47
102
}
330
47
100
AcDbScale
 70
     0
300
100:1
140
100.0
141
1.0
290
     0
  0
SCALE
  5
59
102
{ACAD_REACTORS
330
47
102
}
330
47
100
AcDbScale
 70
     0
300
1/128" = 1'-0"
140
0.0078125
141
12.0
290
     0
  0
SCALE
  5
5A
102
{ACAD_REACTORS
330
47
102
}
330
47
100
AcDbScale
 70
     0
300
1/64" = 1'-0"
140
0.015625
141
12.0
290
     0
  0
SCALE
  5
5B
102
{ACAD_REACTORS
330
47
102
}
330
47
100
AcDbScale
 70
     0
300
1/32" = 1'-0"
140
0.03125
141
12.0
290
     0
  0
SCALE
  5
5C
102
{ACAD_REACTORS
330
47
102
}
330
47
100
AcDbScale
 70
     0
300
1/16" = 1'-0"
140
0.0625
141
12.0
290
     0
  0
SCALE
  5
5D
102
{ACAD_REACTORS
330
47
102
}
330
47
100
AcDbScale
 70
     0
300
3/32" = 1'-0"
140
0.09375
141
12.0
290
     0
  0
SCALE
  5
5E
102
{ACAD_REACTORS
330
47
102
}
330
47
100
AcDbScale
 70
     0
300
1/8" = 1'-0"
140
0.125
141
12.0
290
     0
  0
SCALE
  5
5F
102
{ACAD_REACTORS
330
47
102
}
330
47
100
AcDbScale
 70
     0
300
3/16" = 1'-0"
140
0.1875
141
12.0
290
     0
  0
SCALE
  5
60
102
{ACAD_REACTORS
330
47
102
}
330
47
100
AcDbScale
 70
     0
300
1/4" = 1'-0"
140
0.25
141
12.0
290
     0
  0
SCALE
  5
61
102
{ACAD_REACTORS
330
47
102
}
330
47
100
AcDbScale
 70
     0
300
3/8" = 1'-0"
140
0.375
141
12.0
290
     0
  0
SCALE
  5
62
102
{ACAD_REACTORS
330
47
102
}
330
47
100
AcDbScale
 70
     0
300
1/2" = 1'-0"
140
0.5
141
12.0
290
     0
  0
SCALE
  5
63
102
{ACAD_REACTORS
330
47
102
}
330
47
100
AcDbScale
 70
     0
300
3/4" = 1'-0"
140
0.75
141
12.0
290
     0
  0
SCALE
  5
64
102
{ACAD_REACTORS
330
47
102
}
330
47
100
AcDbScale
 70
     0
300
1" = 1'-0"
140
1.0
141
12.0
290
     0
  0
SCALE
  5
65
102
{ACAD_REACTORS
330
47
102
}
330
47
100
AcDbScale
 70
     0
300
1-1/2" = 1'-0"
140
1.5
141
12.0
290
     0
  0
SCALE
  5
66
102
{ACAD_REACTORS
330
47
102
}
330
47
100
AcDbScale
 70
     0
300
3" = 1'-0"
140
3.0
141
12.0
290
     0
  0
SCALE
  5
67
102
{ACAD_REACTORS
330
47
102
}
330
47
100
AcDbScale
 70
     0
300
6" = 1'-0"
140
6.0
141
12.0
290
     0
  0
SCALE
  5
68
102
{ACAD_REACTORS
330
47
102
}
330
47
100
AcDbScale
 70
     0
300
1'-0" = 1'-0"
140
12.0
141
12.0
290
     0
  0
ENDSEC
  0
EOF
