  0
SECTION
  2
HEADER
  9
$ACADVER
  1
AC1015
  9
$ACADMAINTVER
 70
     6
  9
$DWGCODEPAGE
  3
ANSI_1252
  9
$INSBASE
 10
0.0
 20
0.0
 30
0.0
  9
$EXTMIN
 10
0.0
 20
0.0
 30
0.0
  9
$EXTMAX
 10
297.0
 20
210.0
 30
0.0
  9
$LIMMIN
 10
0.0
 20
0.0
  9
$LIMMAX
 10
297.0
 20
210.0
  9
$ORTHOMODE
 70
     0
  9
$REGENMODE
 70
     1
  9
$FILLMODE
 70
     1
  9
$QTEXTMODE
 70
     0
  9
$MIRRTEXT
 70
     1
  9
$LTSCALE
 40
1.0
  9
$ATTMODE
 70
     1
  9
$TEXTSIZE
 40
2.0
  9
$TRACEWID
 40
1.0
  9
$TEXTSTYLE
  7
Standard
  9
$CLAYER
  8
0
  9
$CELTYPE
  6
ByLayer
  9
$CECOLOR
 62
   256
  9
$CELTSCALE
 40
1.0
  9
$DISPSILH
 70
     0
  9
$DIMSCALE
 40
1.0
  9
$DIMASZ
 40
3.0
  9
$DIMEXO
 40
0.0
  9
$DIMDLI
 40
3.75
  9
$DIMRND
 40
0.0
  9
$DIMDLE
 40
0.0
  9
$DIMEXE
 40
1.0
  9
$DIMTP
 40
0.0
  9
$DIMTM
 40
0.0
  9
$DIMTXT
 40
2.0
  9
$DIMCEN
 40
2.5
  9
$DIMTSZ
 40
0.0
  9
$DIMTOL
 70
     0
  9
$DIMLIM
 70
     0
  9
$DIMTIH
 70
     1
  9
$DIMTOH
 70
     1
  9
$DIMSE1
 70
     0
  9
$DIMSE2
 70
     0
  9
$DIMTAD
 70
     1
  9
$DIMZIN
 70
     0
  9
$DIMBLK
  1

  9
$DIMASO
 70
     1
  9
$DIMSHO
 70
     1
  9
$DIMPOST
  1

  9
$DIMAPOST
  1

  9
$DIMALT
 70
     0
  9
$DIMALTD
 70
     3
  9
$DIMALTF
 40
0.0393700787
  9
$DIMLFAC
 40
2.0
  9
$DIMTOFL
 70
     1
  9
$DIMTVP
 40
0.0
  9
$DIMTIX
 70
     0
  9
$DIMSOXD
 70
     0
  9
$DIMSAH
 70
     0
  9
$DIMBLK1
  1

  9
$DIMBLK2
  1

  9
$DIMSTYLE
  2
ISO-25
  9
$DIMCLRD
 70
     0
  9
$DIMCLRE
 70
     0
  9
$DIMCLRT
 70
     0
  9
$DIMTFAC
 40
1.0
  9
$DIMGAP
 40
1.524
  9
$DIMJUST
 70
     0
  9
$DIMSD1
 70
     0
  9
$DIMSD2
 70
     0
  9
$DIMTOLJ
 70
     0
  9
$DIMTZIN
 70
     0
  9
$DIMALTZ
 70
     0
  9
$DIMALTTZ
 70
     0
  9
$DIMUPT
 70
     0
  9
$DIMDEC
 70
     2
  9
$DIMTDEC
 70
     3
  9
$DIMALTU
 70
     2
  9
$DIMALTTD
 70
     3
  9
$DIMTXSTY
  7
Standard
  9
$DIMAUNIT
 70
     0
  9
$DIMADEC
 70
     2
  9
$DIMALTRND
 40
0.0
  9
$DIMAZIN
 70
     0
  9
$DIMDSEP
 70
    44
  9
$DIMATFIT
 70
     3
  9
$DIMFRAC
 70
     0
  9
$DIMLDRBLK
  1

  9
$DIMLUNIT
 70
     2
  9
$DIMLWD
 70
    -2
  9
$DIMLWE
 70
    -2
  9
$DIMTMOVE
 70
     0
  9
$LUNITS
 70
     2
  9
$LUPREC
 70
     2
  9
$SKETCHINC
 40
1.0
  9
$FILLETRAD
 40
10.0
  9
$AUNITS
 70
     0
  9
$AUPREC
 70
     2
  9
$MENU
  1
.
  9
$ELEVATION
 40
0.0
  9
$PELEVATION
 40
0.0
  9
$THICKNESS
 40
0.0
  9
$LIMCHECK
 70
     0
  9
$CHAMFERA
 40
0.0
  9
$CHAMFERB
 40
0.0
  9
$CHAMFERC
 40
0.0
  9
$CHAMFERD
 40
0.0
  9
$SKPOLY
 70
     0
  9
$TDCREATE
 40
2457548.856342257
  9
$TDUCREATE
 40
2457548.773008924
  9
$TDUPDATE
 40
2457548.856343669
  9
$TDUUPDATE
 40
2457548.773010336
  9
$TDINDWG
 40
0.0000000116
  9
$TDUSRTIMER
 40
0.0000000116
  9
$USRTIMER
 70
     1
  9
$ANGBASE
 50
0.0
  9
$ANGDIR
 70
     0
  9
$PDMODE
 70
     0
  9
$PDSIZE
 40
-1.0
  9
$PLINEWID
 40
0.0
  9
$SPLFRAME
 70
     0
  9
$SPLINETYPE
 70
     6
  9
$SPLINESEGS
 70
     8
  9
$HANDSEED
  5
35D
  9
$SURFTAB1
 70
     6
  9
$SURFTAB2
 70
     6
  9
$SURFTYPE
 70
     6
  9
$SURFU
 70
     6
  9
$SURFV
 70
     6
  9
$UCSBASE
  2

  9
$UCSNAME
  2

  9
$UCSORG
 10
0.0
 20
0.0
 30
0.0
  9
$UCSXDIR
 10
1.0
 20
0.0
 30
0.0
  9
$UCSYDIR
 10
0.0
 20
1.0
 30
0.0
  9
$UCSORTHOREF
  2

  9
$UCSORTHOVIEW
 70
     0
  9
$UCSORGTOP
 10
0.0
 20
0.0
 30
0.0
  9
$UCSORGBOTTOM
 10
0.0
 20
0.0
 30
0.0
  9
$UCSORGLEFT
 10
0.0
 20
0.0
 30
0.0
  9
$UCSORGRIGHT
 10
0.0
 20
0.0
 30
0.0
  9
$UCSORGFRONT
 10
0.0
 20
0.0
 30
0.0
  9
$UCSORGBACK
 10
0.0
 20
0.0
 30
0.0
  9
$PUCSBASE
  2

  9
$PUCSNAME
  2

  9
$PUCSORG
 10
0.0
 20
0.0
 30
0.0
  9
$PUCSXDIR
 10
1.0
 20
0.0
 30
0.0
  9
$PUCSYDIR
 10
0.0
 20
1.0
 30
0.0
  9
$PUCSORTHOREF
  2

  9
$PUCSORTHOVIEW
 70
     0
  9
$PUCSORGTOP
 10
0.0
 20
0.0
 30
0.0
  9
$PUCSORGBOTTOM
 10
0.0
 20
0.0
 30
0.0
  9
$PUCSORGLEFT
 10
0.0
 20
0.0
 30
0.0
  9
$PUCSORGRIGHT
 10
0.0
 20
0.0
 30
0.0
  9
$PUCSORGFRONT
 10
0.0
 20
0.0
 30
0.0
  9
$PUCSORGBACK
 10
0.0
 20
0.0
 30
0.0
  9
$USERI1
 70
     0
  9
$USERI2
 70
     0
  9
$USERI3
 70
     0
  9
$USERI4
 70
     0
  9
$USERI5
 70
     0
  9
$USERR1
 40
0.0
  9
$USERR2
 40
0.0
  9
$USERR3
 40
0.0
  9
$USERR4
 40
0.0
  9
$USERR5
 40
0.0
  9
$WORLDVIEW
 70
     1
  9
$SHADEDGE
 70
     3
  9
$SHADEDIF
 70
    70
  9
$TILEMODE
 70
     1
  9
$MAXACTVP
 70
    64
  9
$PINSBASE
 10
0.0
 20
0.0
 30
0.0
  9
$PLIMCHECK
 70
     0
  9
$PEXTMIN
 10
1.0000000000E+20
 20
1.0000000000E+20
 30
1.0000000000E+20
  9
$PEXTMAX
 10
-1.0000000000E+20
 20
-1.0000000000E+20
 30
-1.0000000000E+20
  9
$PLIMMIN
 10
0.0
 20
0.0
  9
$PLIMMAX
 10
420.0
 20
297.0
  9
$UNITMODE
 70
     0
  9
$VISRETAIN
 70
     1
  9
$PLINEGEN
 70
     0
  9
$PSLTSCALE
 70
     1
  9
$TREEDEPTH
 70
  3020
  9
$CMLSTYLE
  2
Standard
  9
$CMLJUST
 70
     0
  9
$CMLSCALE
 40
20.0
  9
$PROXYGRAPHICS
 70
     1
  9
$MEASUREMENT
 70
     1
  9
$CELWEIGHT
370
    -1
  9
$ENDCAPS
280
     0
  9
$JOINSTYLE
280
     0
  9
$LWDISPLAY
290
     1
  9
$INSUNITS
 70
     4
  9
$HYPERLINKBASE
  1

  9
$STYLESHEET
  1

  9
$XEDIT
290
     1
  9
$CEPSNTYPE
380
     0
  9
$PSTYLEMODE
290
     1
  9
$FINGERPRINTGUID
  2
{709F39B3-77C6-41A3-87FA-C7FC10084BA8}
  9
$VERSIONGUID
  2
{FAEB1C32-E019-11D5-929B-00C0DF256EC4}
  9
$EXTNAMES
290
     1
  9
$PSVPSCALE
 40
0.0
  9
$OLESTARTUP
290
     0
  0
ENDSEC
  0
SECTION
  2
CLASSES
  0
CLASS
  1
ACDBDICTIONARYWDFLT
  2
AcDbDictionaryWithDefault
  3
ObjectDBX Classes
 90
        0
280
     0
281
     0
  0
CLASS
  1
VISUALSTYLE
  2
AcDbVisualStyle
  3
ObjectDBX Classes
 90
     4095
280
     0
281
     0
  0
CLASS
  1
MATERIAL
  2
AcDbMaterial
  3
ObjectDBX Classes
 90
     1153
280
     0
281
     0
  0
CLASS
  1
SCALE
  2
AcDbScale
  3
ObjectDBX Classes
 90
     1153
280
     0
281
     0
  0
CLASS
  1
TABLESTYLE
  2
AcDbTableStyle
  3
ObjectDBX Classes
 90
     4095
280
     0
281
     0
  0
CLASS
  1
MLEADERSTYLE
  2
AcDbMLeaderStyle
  3
ACDB_MLEADERSTYLE_CLASS
 90
     4095
280
     0
281
     0
  0
CLASS
  1
SUN
  2
AcDbSun
  3
SCENEOE
 90
     1153
280
     0
281
     0
  0
CLASS
  1
ACDBPLACEHOLDER
  2
AcDbPlaceHolder
  3
ObjectDBX Classes
 90
        0
280
     0
281
     0
  0
CLASS
  1
LAYOUT
  2
AcDbLayout
  3
ObjectDBX Classes
 90
        0
280
     0
281
     0
  0
ENDSEC
  0
SECTION
  2
TABLES
  0
TABLE
  2
VPORT
  5
8
330
0
100
AcDbSymbolTable
 70
     1
  0
VPORT
  5
29
330
8
100
AcDbSymbolTableRecord
100
AcDbViewportTableRecord
  2
*Active
 70
     0
 10
0.0
 20
0.0
 11
1.0
 21
1.0
 12
148.5
 22
105.0
 13
0.0
 23
0.0
 14
10.0
 24
10.0
 15
10.0
 25
10.0
 16
0.0
 26
0.0
 36
1.0
 17
0.0
 27
0.0
 37
0.0
 40
210.0
 41
1.4142857143
 42
50.0
 43
0.0
 44
0.0
 50
0.0
 51
0.0
 71
     0
 72
  2000
 73
     1
 74
     3
 75
     0
 76
     0
 77
     0
 78
     0
281
     0
 65
     1
110
0.0
120
0.0
130
0.0
111
1.0
121
0.0
131
0.0
112
0.0
122
1.0
132
0.0
 79
     0
146
0.0
  0
ENDTAB
  0
TABLE
  2
LTYPE
  5
5
330
0
100
AcDbSymbolTable
 70
     6
  0
LTYPE
  5
14
330
5
100
AcDbSymbolTableRecord
100
AcDbLinetypeTableRecord
  2
ByBlock
 70
     0
  3

 72
    65
 73
     0
 40
0.0
  0
LTYPE
  5
15
330
5
100
AcDbSymbolTableRecord
100
AcDbLinetypeTableRecord
  2
ByLayer
 70
     0
  3

 72
    65
 73
     0
 40
0.0
  0
LTYPE
  5
16
330
5
100
AcDbSymbolTableRecord
100
AcDbLinetypeTableRecord
  2
Continuous
 70
     0
  3
Solid line
 72
    65
 73
     0
 40
0.0
  0
LTYPE
  5
6E
330
5
100
AcDbSymbolTableRecord
100
AcDbLinetypeTableRecord
  2
HIDDEN
 70
     0
  3
Hidden __ __ __ __ __ __ __ __ __ __ __ __ __ __
 72
    65
 73
     2
 40
1.905
 49
1.27
 74
     0
 49
-0.635
 74
     0
  0
LTYPE
  5
6F
330
5
100
AcDbSymbolTableRecord
100
AcDbLinetypeTableRecord
  2
PHANTOM
 70
     0
  3
Phantom ______  __  __  ______  __  __  ______
 72
    65
 73
     6
 40
12.7
 49
6.35
 74
     0
 49
-1.27
 74
     0
 49
1.27
 74
     0
 49
-1.27
 74
     0
 49
1.27
 74
     0
 49
-1.27
 74
     0
  0
LTYPE
  5
70
330
5
100
AcDbSymbolTableRecord
100
AcDbLinetypeTableRecord
  2
CENTER
 70
     0
  3
Center ____ _ ____ _ ____ _ ____ _ ____ _ ____
 72
    65
 73
     4
 40
10.16
 49
6.35
 74
     0
 49
-1.27
 74
     0
 49
1.27
 74
     0
 49
-1.27
 74
     0
  0
LTYPE
  5
71
330
5
100
AcDbSymbolTableRecord
100
AcDbLinetypeTableRecord
  2
CENTERX2
 70
     0
  3
Center (2x) ________  __  ________  __  _____
 72
    65
 73
     4
 40
20.32
 49
12.7
 74
     0
 49
-2.54
 74
     0
 49
2.54
 74
     0
 49
-2.54
 74
     0
  0
LTYPE
  5
72
330
5
100
AcDbSymbolTableRecord
100
AcDbLinetypeTableRecord
  2
DOT2
 70
     0
  3
Dot (.5x) ........................................
 72
    65
 73
     2
 40
0.635
 49
0.0
 74
     0
 49
-0.635
 74
     0
  0
ENDTAB
  0
TABLE
  2
LAYER
  5
2
330
0
100
AcDbSymbolTable
 70
     5
  0
LAYER
  5
10
330
2
100
AcDbSymbolTableRecord
100
AcDbLayerTableRecord
  2
0
 70
     0
 62
     7
  6
Continuous
370
    -3
390
F
  0
LAYER
  5
73
330
2
100
AcDbSymbolTableRecord
100
AcDbLayerTableRecord
  2
FORMAT
 70
     0
 62
     7
  6
Continuous
370
    -3
390
F
  0
LAYER
  5
74
330
2
100
AcDbSymbolTableRecord
100
AcDbLayerTableRecord
  2
VERMASSUNG
 70
     0
 62
     7
  6
Continuous
370
    -3
390
F
  0
LAYER
  5
75
330
2
100
AcDbSymbolTableRecord
100
AcDbLayerTableRecord
  2
KOPF_DÜNN
 70
     0
 62
     7
  6
Continuous
370
    -3
390
F
  0
LAYER
  5
76
330
2
100
AcDbSymbolTableRecord
100
AcDbLayerTableRecord
  2
KOPF_DICK
 70
     0
 62
     7
  6
Continuous
370
    15
390
F
  0
ENDTAB
  0
TABLE
  2
STYLE
  5
3
330
0
100
AcDbSymbolTable
 70
     2
  0
STYLE
  5
11
330
3
100
AcDbSymbolTableRecord
100
AcDbTextStyleTableRecord
  2
Standard
 70
     0
 40
0.0
 41
1.0
 50
0.0
 71
     0
 42
2.0
  3
txt
  4

  0
STYLE
  5
77
330
3
100
AcDbSymbolTableRecord
100
AcDbTextStyleTableRecord
  2
SLDTEXTSTYLE0
 70
     0
 40
0.0
 41
0.7
 50
0.0
 71
     0
 42
2.0
  3
TXT
  4

  0
ENDTAB
  0
TABLE
  2
VIEW
  5
6
330
0
100
AcDbSymbolTable
 70
     0
  0
ENDTAB
  0
TABLE
  2
UCS
  5
7
330
0
100
AcDbSymbolTable
 70
     0
  0
ENDTAB
  0
TABLE
  2
APPID
  5
9
330
0
100
AcDbSymbolTable
 70
     1
  0
APPID
  5
12
330
9
100
AcDbSymbolTableRecord
100
AcDbRegAppTableRecord
  2
ACAD
 70
     0
  0
ENDTAB
  0
TABLE
  2
DIMSTYLE
  5
A
330
0
100
AcDbSymbolTable
 70
     5
100
AcDbDimStyleTable
  0
DIMSTYLE
105
27
330
A
100
AcDbSymbolTableRecord
100
AcDbDimStyleTableRecord
  2
ISO-25
 70
     0
 41
2.5
 42
0.625
 43
3.75
 44
1.25
 73
     0
 74
     0
 77
     1
 78
     8
140
2.5
141
2.5
143
0.0393700787
147
0.625
171
     3
172
     1
178
     0
271
     2
272
     2
274
     3
278
    44
283
     0
284
     8
340
11
  0
DIMSTYLE
105
1E8
102
{ACAD_REACTORS
330
1E7
330
1F2
330
1FC
330
211
102
}
330
A
100
AcDbSymbolTableRecord
100
AcDbDimStyleTableRecord
  2
SLDDIMSTYLE0
 70
     0
 41
3.0
 44
0.0
 45
0.000000001
 73
     0
 74
     0
 77
     1
 78
    12
 79
     3
140
2.0
147
0.5
173
     1
178
     0
271
     2
272
     3
276
     2
284
    12
340
77
  0
DIMSTYLE
105
207
102
{ACAD_REACTORS
330
206
102
}
330
A
100
AcDbSymbolTableRecord
100
AcDbDimStyleTableRecord
  2
SLDDIMSTYLE1
 70
     0
 41
3.0
 44
0.0
 73
     0
 74
     0
 77
     1
 78
    12
 79
     3
140
2.0
147
0.5
173
     1
178
     0
179
     2
272
     3
276
     2
284
    12
340
77
  0
DIMSTYLE
105
21E
102
{ACAD_REACTORS
330
21D
102
}
330
A
100
AcDbSymbolTableRecord
100
AcDbDimStyleTableRecord
  2
SLDDIMSTYLE2
 70
     0
 41
3.0
 44
0.0
 45
0.000000001
 73
     0
 74
     0
 77
     1
 78
     8
 79
     2
140
2.0
141
0.0
147
0.5
173
     1
178
     0
271
     2
272
     3
276
     2
284
    12
340
77
  0
DIMSTYLE
105
253
102
{ACAD_REACTORS
330
252
102
}
330
A
100
AcDbSymbolTableRecord
100
AcDbDimStyleTableRecord
  2
SLDDIMSTYLE3
 70
     0
 41
3.0
 44
0.0
 45
0.000000001
 73
     0
 74
     0
 77
     1
 78
    12
 79
     3
140
2.0
147
0.5
172
     1
173
     1
178
     0
271
     2
272
     3
276
     2
284
    12
289
     0
340
77
  0
ENDTAB
  0
TABLE
  2
BLOCK_RECORD
  5
1
330
0
100
AcDbSymbolTable
 70
     9
  0
BLOCK_RECORD
  5
1F
330
1
100
AcDbSymbolTableRecord
100
AcDbBlockTableRecord
  2
*Model_Space
340
22
  0
BLOCK_RECORD
  5
1B
330
1
100
AcDbSymbolTableRecord
100
AcDbBlockTableRecord
  2
*Paper_Space
340
1E
  0
BLOCK_RECORD
  5
23
330
1
100
AcDbSymbolTableRecord
100
AcDbBlockTableRecord
  2
*Paper_Space0
340
26
  0
BLOCK_RECORD
  5
1E9
330
1
100
AcDbSymbolTableRecord
100
AcDbBlockTableRecord
  2
_D
340
0
  0
BLOCK_RECORD
  5
1F3
330
1
100
AcDbSymbolTableRecord
100
AcDbBlockTableRecord
  2
_D_1
340
0
  0
BLOCK_RECORD
  5
1FD
330
1
100
AcDbSymbolTableRecord
100
AcDbBlockTableRecord
  2
_D_2
340
0
  0
BLOCK_RECORD
  5
208
330
1
100
AcDbSymbolTableRecord
100
AcDbBlockTableRecord
  2
_D_3
340
0
  0
BLOCK_RECORD
  5
212
330
1
100
AcDbSymbolTableRecord
100
AcDbBlockTableRecord
  2
_D_4
340
0
  0
BLOCK_RECORD
  5
21F
330
1
100
AcDbSymbolTableRecord
100
AcDbBlockTableRecord
  2
_D_5
340
0
  0
BLOCK_RECORD
  5
254
330
1
100
AcDbSymbolTableRecord
100
AcDbBlockTableRecord
  2
_D_6
340
0
  0
BLOCK_RECORD
  5
261
330
1
100
AcDbSymbolTableRecord
100
AcDbBlockTableRecord
  2
SW_CENTERMARKSYMBOL_0
340
0
102
{BLKREFS
331
26C
102
}
  0
ENDTAB
  0
ENDSEC
  0
SECTION
  2
BLOCKS
  0
BLOCK
  5
20
330
1F
100
AcDbEntity
  8
0
100
AcDbBlockBegin
  2
*Model_Space
 70
     0
 10
0.0
 20
0.0
 30
0.0
  3
*Model_Space
  1

  0
ENDBLK
  5
21
330
1F
100
AcDbEntity
  8
0
100
AcDbBlockEnd
  0
BLOCK
  5
1C
330
1B
100
AcDbEntity
 67
     1
  8
0
100
AcDbBlockBegin
  2
*Paper_Space
 70
     0
 10
0.0
 20
0.0
 30
0.0
  3
*Paper_Space
  1

  0
ENDBLK
  5
1D
330
1B
100
AcDbEntity
 67
     1
  8
0
100
AcDbBlockEnd
  0
BLOCK
  5
24
330
23
100
AcDbEntity
  8
0
100
AcDbBlockBegin
  2
*Paper_Space0
 70
     0
 10
0.0
 20
0.0
 30
0.0
  3
*Paper_Space0
  1

  0
ENDBLK
  5
25
330
23
100
AcDbEntity
  8
0
100
AcDbBlockEnd
  0
BLOCK
  5
1EA
330
1E9
100
AcDbEntity
  8
0
100
AcDbBlockBegin
  2
_D
 70
     0
 10
0.0
 20
0.0
 30
0.0
  3
_D
  1

  0
SOLID
  5
1EC
330
1E9
100
AcDbEntity
  8
VERMASSUNG
100
AcDbTrace
 10
256.7351790512
 20
176.4052227427
 30
0.0
 11
253.7351790512
 21
176.8552227427
 31
0.0
 12
253.7351790512
 22
175.9552227427
 32
0.0
 13
253.7351790512
 23
175.9552227427
 33
0.0
  0
SOLID
  5
1ED
330
1E9
100
AcDbEntity
  8
VERMASSUNG
100
AcDbTrace
 10
191.7351790512
 20
176.4052227427
 30
0.0
 11
194.7351790512
 21
175.9552227427
 31
0.0
 12
194.7351790512
 22
176.8552227427
 32
0.0
 13
194.7351790512
 23
176.8552227427
 33
0.0
  0
LINE
  5
1EE
330
1E9
100
AcDbEntity
  8
VERMASSUNG
100
AcDbLine
 10
256.7351790512
 20
137.55786529
 30
0.0
 11
256.7351790512
 21
177.4052227427
 31
0.0
  0
LINE
  5
1EF
330
1E9
100
AcDbEntity
  8
VERMASSUNG
100
AcDbLine
 10
191.7351790512
 20
168.55786529
 30
0.0
 11
191.7351790512
 21
177.4052227427
 31
0.0
  0
LINE
  5
1F0
330
1E9
100
AcDbEntity
  8
VERMASSUNG
100
AcDbLine
 10
256.7351790512
 20
176.4052227427
 30
0.0
 11
191.7351790512
 21
176.4052227427
 31
0.0
  0
MTEXT
  5
1F1
330
1E9
100
AcDbEntity
  8
VERMASSUNG
100
AcDbMText
 10
222.8351791011
 20
178.9833583387
 30
0.0
 40
2.0
 41
0.0
 71
     1
 72
     1
  1
65
  7
SLDTEXTSTYLE0
 73
     1
 44
1.0
  0
ENDBLK
  5
1EB
330
1E9
100
AcDbEntity
  8
0
100
AcDbBlockEnd
  0
BLOCK
  5
1F4
330
1F3
100
AcDbEntity
  8
0
100
AcDbBlockBegin
  2
_D_1
 70
     0
 10
0.0
 20
0.0
 30
0.0
  3
_D_1
  1

  0
SOLID
  5
1F6
330
1F3
100
AcDbEntity
  8
VERMASSUNG
100
AcDbTrace
 10
256.7351790512
 20
181.1044551188
 30
0.0
 11
253.7351790512
 21
181.5544551188
 31
0.0
 12
253.7351790512
 22
180.6544551188
 32
0.0
 13
253.7351790512
 23
180.6544551188
 33
0.0
  0
SOLID
  5
1F7
330
1F3
100
AcDbEntity
  8
VERMASSUNG
100
AcDbTrace
 10
153.7351790512
 20
181.1044551188
 30
0.0
 11
156.7351790512
 21
180.6544551188
 31
0.0
 12
156.7351790512
 22
181.5544551188
 32
0.0
 13
156.7351790512
 23
181.5544551188
 33
0.0
  0
LINE
  5
1F8
330
1F3
100
AcDbEntity
  8
VERMASSUNG
100
AcDbLine
 10
256.7351790512
 20
137.55786529
 30
0.0
 11
256.7351790512
 21
182.1044551188
 31
0.0
  0
LINE
  5
1F9
330
1F3
100
AcDbEntity
  8
VERMASSUNG
100
AcDbLine
 10
153.7351790512
 20
157.8502032825
 30
0.0
 11
153.7351790512
 21
182.1044551188
 31
0.0
  0
LINE
  5
1FA
330
1F3
100
AcDbEntity
  8
VERMASSUNG
100
AcDbLine
 10
256.7351790512
 20
181.1044551188
 30
0.0
 11
153.7351790512
 21
181.1044551188
 31
0.0
  0
MTEXT
  5
1FB
330
1F3
100
AcDbEntity
  8
VERMASSUNG
100
AcDbMText
 10
203.3351790192
 20
183.6825907148
 30
0.0
 40
2.0
 41
0.0
 71
     1
 72
     1
  1
103
  7
SLDTEXTSTYLE0
 73
     1
 44
1.0
  0
ENDBLK
  5
1F5
330
1F3
100
AcDbEntity
  8
0
100
AcDbBlockEnd
  0
BLOCK
  5
1FE
330
1FD
100
AcDbEntity
  8
0
100
AcDbBlockBegin
  2
_D_2
 70
     0
 10
0.0
 20
0.0
 30
0.0
  3
_D_2
  1

  0
SOLID
  5
200
330
1FD
100
AcDbEntity
  8
VERMASSUNG
100
AcDbTrace
 10
273.8740230638
 20
137.55786529
 30
0.0
 11
273.4240230638
 21
134.55786529
 31
0.0
 12
274.3240230638
 22
134.55786529
 32
0.0
 13
274.3240230638
 23
134.55786529
 33
0.0
  0
SOLID
  5
201
330
1FD
100
AcDbEntity
  8
VERMASSUNG
100
AcDbTrace
 10
273.8740230638
 20
92.55786529
 30
0.0
 11
274.3240230638
 21
95.55786529
 31
0.0
 12
273.4240230638
 22
95.55786529
 32
0.0
 13
273.4240230638
 23
95.55786529
 33
0.0
  0
LINE
  5
202
330
1FD
100
AcDbEntity
  8
VERMASSUNG
100
AcDbLine
 10
264.2582728648
 20
137.55786529
 30
0.0
 11
274.8740230638
 21
137.55786529
 31
0.0
  0
LINE
  5
203
330
1FD
100
AcDbEntity
  8
VERMASSUNG
100
AcDbLine
 10
256.7351790512
 20
92.55786529
 30
0.0
 11
274.8740230638
 21
92.55786529
 31
0.0
  0
LINE
  5
204
330
1FD
100
AcDbEntity
  8
VERMASSUNG
100
AcDbLine
 10
273.8740230638
 20
137.55786529
 30
0.0
 11
273.8740230638
 21
92.55786529
 31
0.0
  0
MTEXT
  5
205
330
1FD
100
AcDbEntity
  8
VERMASSUNG
100
AcDbMText
 10
271.2958874678
 20
113.5578652769
 30
0.0
 40
2.0
 41
0.0
 71
     1
 72
     1
  1
45
  7
SLDTEXTSTYLE0
 11
-7.044195017643634E-15
 21
1.0
 31
0.0
 73
     1
 44
1.0
  0
ENDBLK
  5
1FF
330
1FD
100
AcDbEntity
  8
0
100
AcDbBlockEnd
  0
BLOCK
  5
209
330
208
100
AcDbEntity
  8
0
100
AcDbBlockBegin
  2
_D_3
 70
     0
 10
0.0
 20
0.0
 30
0.0
  3
_D_3
  1

  0
ARC
  5
20B
330
208
100
AcDbEntity
  8
VERMASSUNG
100
AcDbCircle
 10
256.7516842396
 20
92.55786529
 30
0.0
 40
10.43899947624385
100
AcDbArc
 50
0.0
 51
93.0
  0
SOLID
  5
20C
330
208
100
AcDbEntity
  8
VERMASSUNG
100
AcDbTrace
 10
267.1906837158
 20
92.55786529
 30
0.0
 11
267.2178903791
 21
95.5913055477
 31
0.0
 12
266.3266860982
 22
95.4657869046
 32
0.0
 13
266.3266860982
 23
95.4657869046
 33
0.0
  0
SOLID
  5
20D
330
208
100
AcDbEntity
  8
VERMASSUNG
100
AcDbTrace
 10
256.2053492198
 20
102.9825584802
 30
0.0
 11
259.1545037704
 21
102.2719337997
 31
0.0
 12
259.2332083664
 22
103.1684858543
 32
0.0
 13
259.2332083664
 23
103.1684858543
 33
0.0
  0
LINE
  5
20E
330
208
100
AcDbEntity
  8
VERMASSUNG
100
AcDbLine
 10
256.7351790512
 20
92.55786529
 30
0.0
 11
268.1906837158
 21
92.55786529
 31
0.0
  0
LINE
  5
20F
330
208
100
AcDbEntity
  8
VERMASSUNG
100
AcDbLine
 10
256.3745432849
 20
99.754143396
 30
0.0
 11
256.1530132635
 21
103.981188015
 31
0.0
  0
MTEXT
  5
210
330
208
100
AcDbEntity
  8
VERMASSUNG
100
AcDbMText
 10
264.2613400869
 20
103.3768705119
 30
0.0
 40
2.0
 41
0.0
 71
     1
 72
     1
  1
93°
  7
SLDTEXTSTYLE0
 11
0.7253743710122853
 21
-0.6883545756937565
 31
0.0
 73
     1
 44
1.0
  0
ENDBLK
  5
20A
330
208
100
AcDbEntity
  8
0
100
AcDbBlockEnd
  0
BLOCK
  5
213
330
212
100
AcDbEntity
  8
0
100
AcDbBlockBegin
  2
_D_4
 70
     0
 10
0.0
 20
0.0
 30
0.0
  3
_D_4
  1

  0
SOLID
  5
215
330
212
100
AcDbEntity
  8
VERMASSUNG
100
AcDbTrace
 10
143.7351790512
 20
106.05786529
 30
0.0
 11
144.1851790512
 21
109.05786529
 31
0.0
 12
143.2851790512
 22
109.05786529
 32
0.0
 13
143.2851790512
 23
109.05786529
 33
0.0
  0
SOLID
  5
216
330
212
100
AcDbEntity
  8
VERMASSUNG
100
AcDbTrace
 10
143.7351790512
 20
169.05786529
 30
0.0
 11
143.2851790512
 21
166.05786529
 31
0.0
 12
144.1851790512
 22
166.05786529
 32
0.0
 13
144.1851790512
 23
166.05786529
 33
0.0
  0
LINE
  5
217
330
212
100
AcDbEntity
  8
VERMASSUNG
100
AcDbLine
 10
192.2351790512
 20
106.05786529
 30
0.0
 11
142.7351790512
 21
106.05786529
 31
0.0
  0
LINE
  5
218
330
212
100
AcDbEntity
  8
VERMASSUNG
100
AcDbLine
 10
192.2351790512
 20
169.05786529
 30
0.0
 11
142.7351790512
 21
169.05786529
 31
0.0
  0
LINE
  5
219
330
212
100
AcDbEntity
  8
VERMASSUNG
100
AcDbLine
 10
143.7351790512
 20
106.05786529
 30
0.0
 11
143.7351790512
 21
169.05786529
 31
0.0
  0
MTEXT
  5
21A
330
212
100
AcDbEntity
  8
VERMASSUNG
100
AcDbMText
 10
140.957043795
 20
131.4528660681
 30
0.0
 40
2.0
 41
0.0
 71
     1
 72
     1
  1
PSC
  7
SLDTEXTSTYLE0
 11
6.123233995736766E-17
 21
1.0
 31
0.0
 73
     1
 44
1.0
  0
MTEXT
  5
21B
330
212
100
AcDbEntity
  8
VERMASSUNG
100
AcDbMText
 10
141.1570437463
 20
137.2528659943
 30
0.0
 40
2.0
 41
0.0
 71
     1
 72
     1
  1
%%c
  7
SLDTEXTSTYLE0
 11
6.123233995736766E-17
 21
1.0
 31
0.0
 73
     1
 44
1.0
  0
MTEXT
  5
21C
330
212
100
AcDbEntity
  8
VERMASSUNG
100
AcDbMText
 10
140.957043795
 20
140.862865543
 30
0.0
 40
2.0
 41
0.0
 71
     1
 72
     1
  1
63
  7
SLDTEXTSTYLE0
 11
6.123233995736766E-17
 21
1.0
 31
0.0
 73
     1
 44
1.0
  0
ENDBLK
  5
214
330
212
100
AcDbEntity
  8
0
100
AcDbBlockEnd
  0
BLOCK
  5
220
330
21F
100
AcDbEntity
  8
0
100
AcDbBlockBegin
  2
_D_5
 70
     0
 10
0.0
 20
0.0
 30
0.0
  3
_D_5
  1

  0
SOLID
  5
222
330
21F
100
AcDbEntity
  8
VERMASSUNG
100
AcDbTrace
 10
256.6383460804
 20
92.7127798718
 30
0.0
 11
258.6671001019
 21
90.4574180117
 31
0.0
 12
259.239534945
 22
91.1519094446
 32
0.0
 13
259.239534945
 23
91.1519094446
 33
0.0
  0
LINE
  5
223
330
21F
100
AcDbEntity
  8
VERMASSUNG
100
AcDbLine
 10
256.6383460804
 20
92.7127798718
 30
0.0
 11
264.289632314
 21
86.4062041144
 31
0.0
  0
LINE
  5
224
330
21F
100
AcDbEntity
  8
VERMASSUNG
100
AcDbLine
 10
256.6383460804
 20
92.7127798718
 30
0.0
 11
256.3296832213
 21
92.9671953577
 31
0.0
  0
MTEXT
  5
225
330
21F
100
AcDbEntity
  8
VERMASSUNG
100
AcDbMText
 10
261.8835761966
 20
91.6627231548
 30
0.0
 40
2.0
 41
0.0
 71
     1
 72
     1
  1
R0.4
  7
SLDTEXTSTYLE0
 11
0.7716571476931433
 21
-0.6360387145560263
 31
0.0
 73
     1
 44
1.0
  0
ENDBLK
  5
221
330
21F
100
AcDbEntity
  8
0
100
AcDbBlockEnd
  0
BLOCK
  5
255
330
254
100
AcDbEntity
  8
0
100
AcDbBlockBegin
  2
_D_6
 70
     0
 10
0.0
 20
0.0
 30
0.0
  3
_D_6
  1

  0
SOLID
  5
257
330
254
100
AcDbEntity
  8
VERMASSUNG
100
AcDbTrace
 10
54.687062951
 20
104.2735940425
 30
0.0
 11
52.2475445559
 21
102.4704717505
 31
0.0
 12
52.883940659
 22
101.8340756474
 32
0.0
 13
52.883940659
 23
101.8340756474
 33
0.0
  0
SOLID
  5
258
330
254
100
AcDbEntity
  8
VERMASSUNG
100
AcDbTrace
 10
111.2556054459
 20
160.8421365374
 30
0.0
 11
113.695123841
 21
162.6452588295
 31
0.0
 12
113.0587277379
 22
163.2816549325
 32
0.0
 13
113.0587277379
 23
163.2816549325
 33
0.0
  0
LINE
  5
259
330
254
100
AcDbEntity
  8
VERMASSUNG
100
AcDbLine
 10
54.687062951
 20
104.2735940425
 30
0.0
 11
53.9799561698
 21
104.9807008237
 31
0.0
  0
LINE
  5
25A
330
254
100
AcDbEntity
  8
VERMASSUNG
100
AcDbLine
 10
111.2556054459
 20
160.8421365374
 30
0.0
 11
111.9627122271
 21
160.1350297562
 31
0.0
  0
LINE
  5
25B
330
254
100
AcDbEntity
  8
VERMASSUNG
100
AcDbLine
 10
54.687062951
 20
104.2735940425
 30
0.0
 11
50.4444222639
 21
100.0309533554
 31
0.0
  0
LINE
  5
25C
330
254
100
AcDbEntity
  8
VERMASSUNG
100
AcDbLine
 10
54.687062951
 20
104.2735940425
 30
0.0
 11
111.2556054459
 21
160.8421365374
 31
0.0
  0
LINE
  5
25D
330
254
100
AcDbEntity
  8
VERMASSUNG
100
AcDbLine
 10
111.2556054459
 20
160.8421365374
 30
0.0
 11
123.8122767201
 21
173.3988078116
 31
0.0
  0
MTEXT
  5
25E
330
254
100
AcDbEntity
  8
VERMASSUNG
100
AcDbMText
 10
113.3554868595
 20
166.8708945085
 30
0.0
 40
2.0
 41
0.0
 71
     1
 72
     1
  1
min.
  7
SLDTEXTSTYLE0
 11
0.7071067811865466
 21
0.7071067811865485
 31
0.0
 73
     1
 44
1.0
  0
MTEXT
  5
25F
330
254
100
AcDbEntity
  8
VERMASSUNG
100
AcDbMText
 10
117.4567060148
 20
170.6892710202
 30
0.0
 40
2.0
 41
0.0
 71
     1
 72
     1
  1
%%c
  7
SLDTEXTSTYLE0
 11
0.7071067811865466
 21
0.7071067811865485
 31
0.0
 73
     1
 44
1.0
  0
MTEXT
  5
260
330
254
100
AcDbEntity
  8
VERMASSUNG
100
AcDbMText
 10
119.8679401832
 20
173.3833478322
 30
0.0
 40
2.0
 41
0.0
 71
     1
 72
     1
  1
80
  7
SLDTEXTSTYLE0
 11
0.7071067811865466
 21
0.7071067811865485
 31
0.0
 73
     1
 44
1.0
  0
ENDBLK
  5
256
330
254
100
AcDbEntity
  8
0
100
AcDbBlockEnd
  0
BLOCK
  5
262
330
261
100
AcDbEntity
  8
0
100
AcDbBlockBegin
  2
SW_CENTERMARKSYMBOL_0
 70
     0
 10
0.0
 20
0.0
 30
0.0
  3
SW_CENTERMARKSYMBOL_0
  1

  0
LINE
  5
264
330
261
100
AcDbEntity
  8
VERMASSUNG
 62
     0
100
AcDbLine
 10
0.0
 20
0.0
 30
0.0
 11
0.0
 21
2.5
 31
0.0
  0
LINE
  5
265
330
261
100
AcDbEntity
  8
VERMASSUNG
 62
     0
100
AcDbLine
 10
0.0
 20
0.0
 30
0.0
 11
-2.5
 21
0.0
 31
0.0
  0
LINE
  5
266
330
261
100
AcDbEntity
  8
VERMASSUNG
 62
     0
100
AcDbLine
 10
0.0
 20
0.0
 30
0.0
 11
0.0
 21
-2.5
 31
0.0
  0
LINE
  5
267
330
261
100
AcDbEntity
  8
VERMASSUNG
 62
     0
100
AcDbLine
 10
0.0
 20
0.0
 30
0.0
 11
2.5
 21
0.0
 31
0.0
  0
LINE
  5
268
330
261
100
AcDbEntity
  8
VERMASSUNG
 62
     0
100
AcDbLine
 10
0.0
 20
5.0
 30
0.0
 11
0.0
 21
34.5
 31
0.0
  0
LINE
  5
269
330
261
100
AcDbEntity
  8
VERMASSUNG
 62
     0
100
AcDbLine
 10
-5.0
 20
0.0
 30
0.0
 11
-34.5
 21
0.0
 31
0.0
  0
LINE
  5
26A
330
261
100
AcDbEntity
  8
VERMASSUNG
 62
     0
100
AcDbLine
 10
0.0
 20
-5.0
 30
0.0
 11
0.0
 21
-34.5
 31
0.0
  0
LINE
  5
26B
330
261
100
AcDbEntity
  8
VERMASSUNG
 62
     0
100
AcDbLine
 10
5.0
 20
0.0
 30
0.0
 11
34.5
 21
0.0
 31
0.0
  0
ENDBLK
  5
263
330
261
100
AcDbEntity
  8
0
100
AcDbBlockEnd
  0
ENDSEC
  0
SECTION
  2
ENTITIES
  0
MTEXT
  5
78
330
1F
100
AcDbEntity
  8
KOPF_DÜNN
100
AcDbMText
 10
13.8892156294
 20
23.8442973028
 30
0.0
 40
3.0
 41
0.0
 71
     1
 72
     1
  1
PS6.KDA.LUA.065
  7
SLDTEXTSTYLE0
 73
     1
 44
1.0
  0
MTEXT
  5
79
330
1F
100
AcDbEntity
  8
VERMASSUNG
100
AcDbMText
 10
13.9329988022
 20
28.8834360957
 30
0.0
 40
3.0
 41
0.0
 71
     1
 72
     1
  1
Klemmhalter links
  7
SLDTEXTSTYLE0
 73
     1
 44
1.0
  0
MTEXT
  5
7A
330
1F
100
AcDbEntity
  8
VERMASSUNG
100
AcDbMText
 10
98.8601118557
 20
13.8365368761
 30
0.0
 40
2.0
 41
0.0
 71
     1
 72
     1
  1
Datum: 08.06.2016
  7
SLDTEXTSTYLE0
 73
     1
 44
1.0
  0
MTEXT
  5
7B
330
1F
100
AcDbEntity
  8
VERMASSUNG
100
AcDbMText
 10
13.933048693
 20
18.0482802738
 30
0.0
 40
2.0
 41
0.0
 71
     1
 72
     1
  1
für DC.. 07 02..
  7
SLDTEXTSTYLE0
 73
     1
 44
1.0
  0
MTEXT
  5
7C
330
1F
100
AcDbEntity
  8
VERMASSUNG
100
AcDbMText
 10
13.9808475933
 20
13.9090974274
 30
0.0
 40
2.0
 41
0.0
 71
     1
 72
     1
  1
Gewicht: 165g
  7
SLDTEXTSTYLE0
 73
     1
 44
1.0
  0
LINE
  5
7D
330
1F
100
AcDbEntity
  8
0
  6
Continuous
 62
     7
370
    15
100
AcDbLine
 10
192.2351790512
 20
106.05786529
 30
0.0
 11
226.4780454205
 21
106.05786529
 31
0.0
  0
LINE
  5
7E
330
1F
100
AcDbEntity
  8
0
  6
Continuous
 62
     7
370
    15
100
AcDbLine
 10
226.0929072439
 20
169.05786529
 30
0.0
 11
192.2351790512
 21
169.05786529
 31
0.0
  0
ARC
  5
7F
330
1F
100
AcDbEntity
  8
0
  6
Continuous
 62
     7
370
    15
100
AcDbCircle
 10
192.2351790512
 20
106.55786529
 30
0.0
 40
0.5
100
AcDbArc
 50
180.0
 51
270.0
  0
ARC
  5
80
330
1F
100
AcDbEntity
  8
0
  6
Continuous
 62
     7
370
    15
100
AcDbCircle
 10
192.2351790512
 20
168.55786529
 30
0.0
 40
0.5000000000000284
100
AcDbArc
 50
90.0
 51
180.0
  0
LWPOLYLINE
  5
81
330
1F
100
AcDbEntity
  8
0
  6
Continuous
 62
     7
370
    15
100
AcDbPolyline
 90
        3
 70
   128
 43
0.0
 10
191.5351790512
 20
115.0180450111
 10
191.6606339947
 20
114.9497428961
 10
191.7351790512
 20
114.897005138
  0
LWPOLYLINE
  5
82
330
1F
100
AcDbEntity
  8
0
  6
Continuous
 62
     7
370
    15
100
AcDbPolyline
 90
        3
 70
   128
 43
0.0
 10
191.7351790512
 20
160.2187254419
 10
191.6606339947
 20
160.1659876838
 10
191.5351790512
 20
160.0976855688
  0
CIRCLE
  5
83
330
1F
100
AcDbEntity
  8
0
  6
Continuous
 62
     7
370
    15
100
AcDbCircle
 10
206.7351790512
 20
137.55786529
 30
0.0
 40
2.360000000000035
  0
CIRCLE
  5
84
330
1F
100
AcDbEntity
  8
0
  6
Continuous
 62
     7
370
    15
100
AcDbCircle
 10
206.7351790512
 20
137.55786529
 30
0.0
 40
2.000000000000015
  0
CIRCLE
  5
85
330
1F
100
AcDbEntity
  8
0
  6
Continuous
 62
     7
370
    15
100
AcDbCircle
 10
206.7351790512
 20
137.55786529
 30
0.0
 40
2.499999999999995
  0
CIRCLE
  5
86
330
1F
100
AcDbEntity
  8
0
  6
Continuous
 62
     7
370
    15
100
AcDbCircle
 10
253.2269182092
 20
98.2346450868
 30
0.0
 40
1.700000000000025
  0
CIRCLE
  5
87
330
1F
100
AcDbEntity
  8
0
  6
Continuous
 62
     7
370
    15
100
AcDbCircle
 10
253.2269182092
 20
98.2346450868
 30
0.0
 40
1.10000000000002
  0
CIRCLE
  5
88
330
1F
100
AcDbEntity
  8
0
  6
Continuous
 62
     7
370
    15
100
AcDbCircle
 10
253.2269182092
 20
98.2346450868
 30
0.0
 40
1.049999999999997
  0
SPLINE
  5
89
330
1F
100
AcDbEntity
  8
0
  6
Continuous
 62
     7
370
    15
100
AcDbSpline
210
0.0
220
0.0
230
1.0
 70
     8
 71
     3
 72
    16
 73
    12
 74
     0
 42
0.000000001
 43
0.00000001
 40
0.0
 40
0.0
 40
0.0
 40
0.0
 40
0.1242194589697992
 40
0.248999321871991
 40
0.372737757460159
 40
0.4952944629268274
 40
0.6171957750165825
 40
0.7391031181773361
 40
0.8616668233222936
 40
0.9853929371716338
 40
0.9999999999999999
 40
0.9999999999999999
 40
0.9999999999999999
 40
0.9999999999999999
 10
253.7491622452128
 20
98.96042425896653
 30
0.0
 10
253.7507391739248
 20
98.98361198987294
 30
0.0
 10
253.7539001455082
 20
99.0300920608645
 30
0.0
 10
253.7289032136176
 20
99.0970603051778
 30
0.0
 10
253.6847267890073
 20
99.15198575710724
 30
0.0
 10
253.6247582791882
 20
99.18891466598394
 30
0.0
 10
253.5564625217286
 20
99.20397157851929
 30
0.0
 10
253.4871075112239
 20
99.19580926962931
 30
0.0
 10
253.4243148324631
 20
99.1653444128925
 30
0.0
 10
253.3892282364189
 20
99.13045278959758
 30
0.0
 10
253.3749693518089
 20
99.10919425184406
 30
0.0
 10
253.3734637084891
 20
99.10694949173616
 30
0.0
  0
SPLINE
  5
8A
330
1F
100
AcDbEntity
  8
0
  6
Continuous
 62
     7
370
    15
100
AcDbSpline
210
0.0
220
0.0
230
1.0
 70
     8
 71
     3
 72
    12
 73
     8
 74
     0
 42
0.000000001
 43
0.00000001
 40
0.0
 40
0.0
 40
0.0
 40
0.0
 40
0.2093653562127007
 40
0.4192620302417134
 40
0.6249526976742893
 40
0.8281707878026235
 40
1.0
 40
1.0
 40
1.0
 40
1.0
 10
253.3734637084891
 20
99.10694949173616
 30
0.0
 10
253.3458563089479
 20
99.07770421747794
 30
0.0
 10
253.2905714490706
 20
99.01913945164334
 30
0.0
 10
253.1764595962439
 20
98.97170166192537
 30
0.0
 10
253.0562568928867
 20
98.96271052409644
 30
0.0
 10
252.9452778097568
 20
98.98991978490812
 30
0.0
 10
252.886449444504
 20
99.03099330190851
 30
0.0
 10
252.8594970265195
 20
99.04981127506704
 30
0.0
  0
SPLINE
  5
8B
330
1F
100
AcDbEntity
  8
0
  6
Continuous
 62
     7
370
    15
100
AcDbSpline
210
0.0
220
0.0
230
1.0
 70
     8
 71
     3
 72
    16
 73
    12
 74
     0
 42
0.000000001
 43
0.00000001
 40
0.0
 40
0.0
 40
0.0
 40
0.0
 40
0.1231896672979871
 40
0.2479795154961696
 40
0.3717274745391966
 40
0.4942903479747959
 40
0.6161927293768302
 40
0.7380955470920919
 40
0.8606497678263921
 40
0.9843631542991568
 40
1.0
 40
1.0
 40
1.0
 40
1.0
 10
252.8594970265195
 20
99.04981127506704
 30
0.0
 10
252.8403774583847
 20
99.0626761451558
 30
0.0
 10
252.801889967132
 20
99.08857299447365
 30
0.0
 10
252.7316263540611
 20
99.10057768014764
 30
0.0
 10
252.6619359536287
 20
99.08997568417432
 30
0.0
 10
252.5998747293135
 20
99.05667631588072
 30
0.0
 10
252.5525436206043
 20
99.00518765030935
 30
0.0
 10
252.5247572322558
 20
98.94111870365765
 30
0.0
 10
252.5195567722639
 20
98.87152368422608
 30
0.0
 10
252.5321359864782
 20
98.82346515629365
 30
0.0
 10
252.5434802189632
 20
98.80030794441424
 30
0.0
 10
252.5447531842837
 20
98.79770941448449
 30
0.0
  0
SPLINE
  5
8C
330
1F
100
AcDbEntity
  8
0
  6
Continuous
 62
     7
370
    15
100
AcDbSpline
210
0.0
220
0.0
230
1.0
 70
     8
 71
     3
 72
    12
 73
     8
 74
     0
 42
0.000000001
 43
0.00000001
 40
0.0
 40
0.0
 40
0.0
 40
0.0
 40
0.209365252960547
 40
0.4192619297279001
 40
0.6249525996332875
 40
0.8281706892237763
 40
1.0
 40
1.0
 40
1.0
 40
1.0
 10
252.5447531842837
 20
98.79770941448449
 30
0.0
 10
252.5562766309166
 20
98.75917808795745
 30
0.0
 10
252.579352773706
 20
98.68201763231224
 30
0.0
 10
252.5633792015077
 20
98.55947499124545
 30
0.0
 10
252.511064420491
 20
98.45088081824538
 30
0.0
 10
252.432010967018
 20
98.36837471568799
 30
0.0
 10
252.3670260589986
 20
98.33796460436729
 30
0.0
 10
252.3372529904613
 20
98.32403210286547
 30
0.0
  0
SPLINE
  5
8D
330
1F
100
AcDbEntity
  8
0
  6
Continuous
 62
     7
370
    15
100
AcDbSpline
210
0.0
220
0.0
230
1.0
 70
     8
 71
     3
 72
    16
 73
    12
 74
     0
 42
0.000000001
 43
0.00000001
 40
0.0
 40
0.0
 40
0.0
 40
0.0
 40
0.124365422108891
 40
0.2491438717989901
 40
0.372880961420928
 40
0.4954367981748734
 40
0.6173379650704373
 40
0.7392459561098554
 40
0.8618110113606122
 40
0.9855389335649883
 40
1.0
 40
1.0
 40
1.0
 40
1.0
 10
252.3372529904613
 20
98.32403210286547
 30
0.0
 10
252.3163594785306
 20
98.31378932853208
 30
0.0
 10
252.2745030656336
 20
98.29326976278693
 30
0.0
 10
252.2290097444538
 20
98.2380973319501
 30
0.0
 10
252.2035573565166
 20
98.17236738889358
 30
0.0
 10
252.2015879365134
 20
98.10196838105806
 30
0.0
 10
252.22272211338
 20
98.03530260265758
 30
0.0
 10
252.2644902105921
 20
97.97933705587855
 30
0.0
 10
252.3222852869121
 20
97.94021122370852
 30
0.0
 10
252.3700244170501
 20
97.92729876846238
 30
0.0
 10
252.395537786735
 20
97.92558441183289
 30
0.0
 10
252.3982076849491
 20
97.92540500951323
 30
0.0
  0
SPLINE
  5
8E
330
1F
100
AcDbEntity
  8
0
  6
Continuous
 62
     7
370
    15
100
AcDbSpline
210
0.0
220
0.0
230
1.0
 70
     8
 71
     3
 72
    12
 73
     8
 74
     0
 42
0.000000001
 43
0.00000001
 40
0.0
 40
0.0
 40
0.0
 40
0.0
 40
0.2092378396812542
 40
0.4191378956982035
 40
0.6248316181529624
 40
0.828049045627878
 40
1.0
 40
1.0
 40
1.0
 40
1.0
 10
252.3982076849491
 20
97.92540500951321
 30
0.0
 10
252.4373147138823
 20
97.91612692108906
 30
0.0
 10
252.5156525414905
 20
97.897541380041
 30
0.0
 10
252.6137867219648
 20
97.82247197284214
 30
0.0
 10
252.6816950844841
 20
97.72288122795699
 30
0.0
 10
252.713649817257
 20
97.61314791639019
 30
0.0
 10
252.7074950761013
 20
97.5416400984587
 30
0.0
 10
252.7046741730964
 20
97.50886591456332
 30
0.0
  0
SPLINE
  5
8F
330
1F
100
AcDbEntity
  8
0
  6
Continuous
 62
     7
370
    15
100
AcDbSpline
210
0.0
220
0.0
230
1.0
 70
     8
 71
     3
 72
    16
 73
    12
 74
     0
 42
0.000000001
 43
0.00000001
 40
0.0
 40
0.0
 40
0.0
 40
0.0
 40
0.1242194589697022
 40
0.2489993218720102
 40
0.3727377574601078
 40
0.4952944629267881
 40
0.6171957750166194
 40
0.7391031181773083
 40
0.8616668233222747
 40
0.9853929371716077
 40
1.0
 40
1.0
 40
1.0
 40
1.0
 10
252.7046741730964
 20
97.50886591456332
 30
0.0
 10
252.7030972443845
 20
97.48567818365692
 30
0.0
 10
252.699936272801
 20
97.43919811266535
 30
0.0
 10
252.7249332046918
 20
97.37222986835208
 30
0.0
 10
252.7691096293019
 20
97.31730441642259
 30
0.0
 10
252.8290781391212
 20
97.28037550754593
 30
0.0
 10
252.8973738965807
 20
97.26531859501053
 30
0.0
 10
252.9667289070854
 20
97.2734809039006
 30
0.0
 10
253.0295215858462
 20
97.30394576063728
 30
0.0
 10
253.0646081818903
 20
97.3388373839322
 30
0.0
 10
253.0788670665004
 20
97.36009592168575
 30
0.0
 10
253.0803727098202
 20
97.36234068179364
 30
0.0
  0
SPLINE
  5
90
330
1F
100
AcDbEntity
  8
0
  6
Continuous
 62
     7
370
    15
100
AcDbSpline
210
0.0
220
0.0
230
1.0
 70
     8
 71
     3
 72
    12
 73
     8
 74
     0
 42
0.000000001
 43
0.00000001
 40
0.0
 40
0.0
 40
0.0
 40
0.0
 40
0.2093653562126494
 40
0.4192620302416865
 40
0.6249526976742658
 40
0.8281707878025655
 40
1.0
 40
1.0
 40
1.0
 40
1.0
 10
253.0803727098202
 20
97.36234068179364
 30
0.0
 10
253.1079801093614
 20
97.39158595605188
 30
0.0
 10
253.1632649692386
 20
97.45015072188653
 30
0.0
 10
253.2773768220653
 20
97.49758851160448
 30
0.0
 10
253.3975795254225
 20
97.50657964943335
 30
0.0
 10
253.5085586085525
 20
97.47937038862176
 30
0.0
 10
253.5673869738052
 20
97.43829687162135
 30
0.0
 10
253.5943393917898
 20
97.41947889846278
 30
0.0
  0
SPLINE
  5
91
330
1F
100
AcDbEntity
  8
0
  6
Continuous
 62
     7
370
    15
100
AcDbSpline
210
0.0
220
0.0
230
1.0
 70
     8
 71
     3
 72
    16
 73
    12
 74
     0
 42
0.000000001
 43
0.00000001
 40
0.0
 40
0.0
 40
0.0
 40
0.0
 40
0.1231896672978877
 40
0.2479795154960718
 40
0.3717274745390918
 40
0.4942903479747967
 40
0.6161927293766852
 40
0.7380955470920948
 40
0.86064976782634
 40
0.9843631542991528
 40
1.0
 40
1.0
 40
1.0
 40
1.0
 10
253.5943393917898
 20
97.41947889846278
 30
0.0
 10
253.6134589599245
 20
97.40661402837402
 30
0.0
 10
253.6519464511772
 20
97.38071717905625
 30
0.0
 10
253.7222100642481
 20
97.36871249338228
 30
0.0
 10
253.7919004646805
 20
97.37931448935544
 30
0.0
 10
253.8539616889958
 20
97.41261385764915
 30
0.0
 10
253.9012927977051
 20
97.4641025232204
 30
0.0
 10
253.9290791860534
 20
97.52817146987218
 30
0.0
 10
253.9342796460455
 20
97.59776648930377
 30
0.0
 10
253.9217004318311
 20
97.64582501723618
 30
0.0
 10
253.9103561993461
 20
97.6689822291156
 30
0.0
 10
253.9090832340256
 20
97.67158075904536
 30
0.0
  0
SPLINE
  5
92
330
1F
100
AcDbEntity
  8
0
  6
Continuous
 62
     7
370
    15
100
AcDbSpline
210
0.0
220
0.0
230
1.0
 70
     8
 71
     3
 72
    12
 73
     8
 74
     0
 42
0.000000001
 43
0.00000001
 40
0.0
 40
0.0
 40
0.0
 40
0.0
 40
0.2093652529604859
 40
0.4192619297278535
 40
0.6249525996332471
 40
0.8281706892237107
 40
1.0
 40
1.0
 40
1.0
 40
1.0
 10
253.9090832340256
 20
97.67158075904536
 30
0.0
 10
253.8975597873927
 20
97.7101120855724
 30
0.0
 10
253.8744836446033
 20
97.78727254121759
 30
0.0
 10
253.8904572168015
 20
97.90981518228433
 30
0.0
 10
253.9427719978182
 20
98.01840935528445
 30
0.0
 10
254.0218254512914
 20
98.10091545784175
 30
0.0
 10
254.0868103593107
 20
98.13132556916251
 30
0.0
 10
254.116583427848
 20
98.14525807066438
 30
0.0
  0
SPLINE
  5
93
330
1F
100
AcDbEntity
  8
0
  6
Continuous
 62
     7
370
    15
100
AcDbSpline
210
0.0
220
0.0
230
1.0
 70
     8
 71
     3
 72
    16
 73
    12
 74
     0
 42
0.000000001
 43
0.00000001
 40
0.0
 40
0.0
 40
0.0
 40
0.0
 40
0.1243654221088977
 40
0.2491438717990193
 40
0.3728809614208922
 40
0.4954367981749336
 40
0.6173379650704816
 40
0.7392459561098723
 40
0.8618110113606493
 40
0.9855389335649799
 40
1.0
 40
1.0
 40
1.0
 40
1.0
 10
254.116583427848
 20
98.14525807066438
 30
0.0
 10
254.1374769397787
 20
98.15550084499775
 30
0.0
 10
254.1793333526757
 20
98.17602041074288
 30
0.0
 10
254.2248266738554
 20
98.23119284157973
 30
0.0
 10
254.2502790617928
 20
98.29692278463625
 30
0.0
 10
254.2522484817958
 20
98.36732179247177
 30
0.0
 10
254.2311143049293
 20
98.43398757087226
 30
0.0
 10
254.1893462077172
 20
98.4899531176513
 30
0.0
 10
254.1315511313971
 20
98.52907894982133
 30
0.0
 10
254.0838120012592
 20
98.54199140506753
 30
0.0
 10
254.0582986315744
 20
98.54370576169694
 30
0.0
 10
254.0556287333601
 20
98.54388516401657
 30
0.0
  0
SPLINE
  5
94
330
1F
100
AcDbEntity
  8
0
  6
Continuous
 62
     7
370
    15
100
AcDbSpline
210
0.0
220
0.0
230
1.0
 70
     8
 71
     3
 72
    12
 73
     8
 74
     0
 42
0.000000001
 43
0.00000001
 40
0.0
 40
0.0
 40
0.0
 40
0.0
 40
0.2092378396813306
 40
0.4191378956981516
 40
0.6248316181529374
 40
0.828049045627885
 40
0.9999999999999999
 40
0.9999999999999999
 40
0.9999999999999999
 40
0.9999999999999999
 10
254.0556287333601
 20
98.54388516401657
 30
0.0
 10
254.016521704427
 20
98.55316325244077
 30
0.0
 10
253.9381838768188
 20
98.57174879348884
 30
0.0
 10
253.8400496963446
 20
98.64681820068778
 30
0.0
 10
253.7721413338252
 20
98.74640894557282
 30
0.0
 10
253.7401866010523
 20
98.85614225713965
 30
0.0
 10
253.7463413422081
 20
98.92765007507116
 30
0.0
 10
253.7491622452128
 20
98.96042425896653
 30
0.0
  0
LINE
  5
95
330
1F
100
AcDbEntity
  8
0
  6
Continuous
 62
     7
370
    15
100
AcDbLine
 10
256.176222898
 20
93.2277192889
 30
0.0
 11
256.3296832213
 21
92.9671953577
 31
0.0
  0
LINE
  5
96
330
1F
100
AcDbEntity
  8
0
  6
Continuous
 62
     7
370
    15
100
AcDbLine
 10
256.3296832213
 20
92.9671953577
 30
0.0
 11
256.1283139009
 21
92.6449370811
 31
0.0
  0
LINE
  5
97
330
1F
100
AcDbEntity
  8
0
  6
Continuous
 62
     7
370
    15
100
AcDbLine
 10
250.3825345105
 20
96.235298525
 30
0.0
 11
256.1283139009
 21
92.6449370811
 31
0.0
  0
LINE
  5
98
330
1F
100
AcDbEntity
  8
0
  6
Continuous
 62
     7
370
    15
100
AcDbLine
 10
255.2395034722
 20
93.8130465494
 30
0.0
 11
256.176222898
 21
93.2277192889
 31
0.0
  0
SPLINE
  5
99
330
1F
100
AcDbEntity
  8
0
  6
Continuous
 62
     7
370
    15
100
AcDbSpline
210
0.0
220
0.0
230
1.0
 70
     8
 71
     3
 72
     9
 73
     5
 74
     0
 42
0.000000001
 43
0.00000001
 40
0.0
 40
0.0
 40
0.0
 40
0.0
 40
0.0498711162383531
 40
1.0
 40
1.0
 40
1.0
 40
1.0
 10
250.4943325394686
 20
96.41421277097301
 30
0.0
 10
250.4943263047516
 20
96.4158504295801
 30
0.0
 10
250.494201288159
 20
96.4486882469504
 30
0.0
 10
250.5010236055505
 20
96.48143818916436
 30
0.0
 10
250.5075056863584
 20
96.51255485520338
 30
0.0
  0
SPLINE
  5
9A
330
1F
100
AcDbEntity
  8
0
  6
Continuous
 62
     7
370
    15
100
AcDbSpline
210
0.0
220
0.0
230
1.0
 70
    24
 71
     3
 72
    12
 73
     8
 74
     0
 42
0.000000001
 43
0.00000001
 40
0.0
 40
0.0
 40
0.0
 40
0.0
 40
0.0530156033970867
 40
0.4232722080771277
 40
0.5947040840146863
 40
0.9898305056312635
 40
0.9999999999999999
 40
0.9999999999999999
 40
0.9999999999999999
 40
0.9999999999999999
 10
250.5075056863583
 20
96.51255485520339
 30
0.0
 10
250.5166920386657
 20
96.51796603024914
 30
0.0
 10
250.5900351183662
 20
96.56116840583567
 30
0.0
 10
250.7011192080397
 20
96.62660193526145
 30
0.0
 10
250.8722317921469
 20
96.72739495017666
 30
0.0
 10
250.9742412075913
 20
96.7874830879717
 30
0.0
 10
251.0387636294257
 20
96.82548969900104
 30
0.0
 10
251.0403825956665
 20
96.82644334299692
 30
0.0
  0
LINE
  5
9B
330
1F
100
AcDbEntity
  8
0
  6
Continuous
 62
     7
370
    15
100
AcDbLine
 10
256.7091624445
 20
92.987083021
 30
0.0
 11
256.3545706939
 21
99.7530966769
 31
0.0
  0
LINE
  5
9C
330
1F
100
AcDbEntity
  8
0
  6
Continuous
 62
     7
370
    15
100
AcDbLine
 10
256.3296832213
 20
92.9671953577
 30
0.0
 11
256.7091624445
 21
92.987083021
 31
0.0
  0
LINE
  5
9D
330
1F
100
AcDbEntity
  8
0
  6
Continuous
 62
     7
370
    15
100
AcDbLine
 10
256.176222898
 20
93.2277192889
 30
0.0
 11
256.1184147299
 21
94.3307648456
 31
0.0
  0
SPLINE
  5
9E
330
1F
100
AcDbEntity
  8
0
  6
Continuous
 62
     7
370
    15
100
AcDbSpline
210
0.0
220
0.0
230
1.0
 70
    24
 71
     3
 72
    12
 73
     8
 74
     0
 42
0.000000001
 43
0.00000001
 40
0.0
 40
0.0
 40
0.0
 40
0.0
 40
0.0530156033971106
 40
0.4232722080771296
 40
0.5947040840146995
 40
0.9898305056312605
 40
1.0
 40
1.0
 40
1.0
 40
1.0
 10
256.05148961562
 20
99.77821095985054
 30
0.0
 10
256.0423032633126
 20
99.77279978480477
 30
0.0
 10
255.9689601836121
 20
99.72959740921827
 30
0.0
 10
255.8578760939386
 20
99.66416387979248
 30
0.0
 10
255.6867635098313
 20
99.56337086487727
 30
0.0
 10
255.5847540943873
 20
99.50328272708214
 30
0.0
 10
255.5202316725526
 20
99.46527611605288
 30
0.0
 10
255.5186127063118
 20
99.46432247205699
 30
0.0
  0
SPLINE
  5
9F
330
1F
100
AcDbEntity
  8
0
  6
Continuous
 62
     7
370
    15
100
AcDbSpline
210
0.0
220
0.0
230
1.0
 70
     8
 71
     3
 72
     9
 73
     5
 74
     0
 42
0.000000001
 43
0.00000001
 40
0.0
 40
0.0
 40
0.0
 40
0.0
 40
0.9501288837633737
 40
1.0
 40
1.0
 40
1.0
 40
1.0
 10
256.0514896156157
 20
99.77821095984795
 30
0.0
 10
256.0818474400903
 20
99.7687946564216
 30
0.0
 10
256.1137987100638
 20
99.75888410261437
 30
0.0
 10
256.1424587030295
 20
99.7428546708691
 30
0.0
 10
256.1438880088701
 20
99.74205526521531
 30
0.0
  0
SPLINE
  5
A0
330
1F
100
AcDbEntity
  8
0
  6
Continuous
 62
     7
370
    15
100
AcDbSpline
210
0.0
220
0.0
230
1.0
 70
     8
 71
     3
 72
     9
 73
     5
 74
     0
 42
0.000000001
 43
0.00000001
 40
0.0
 40
0.0
 40
0.0
 40
0.0
 40
0.0498711162384052
 40
1.0
 40
1.0
 40
1.0
 40
1.0
 10
256.0646627625097
 20
99.87655304408091
 30
0.0
 10
256.0646689972267
 20
99.87491538547383
 30
0.0
 10
256.0647940138197
 20
99.8420775681034
 30
0.0
 10
256.057971696428
 20
99.80932762588948
 30
0.0
 10
256.05148961562
 20
99.77821095985054
 30
0.0
  0
LINE
  5
A1
330
1F
100
AcDbEntity
  8
0
  6
Continuous
 62
     7
370
    15
100
AcDbLine
 10
250.382772404
 20
103.0630465261
 30
0.0
 11
250.2293120806
 21
103.3235704574
 31
0.0
  0
LINE
  5
A2
330
1F
100
AcDbEntity
  8
0
  6
Continuous
 62
     7
370
    15
100
AcDbLine
 10
250.2293120806
 20
103.3235704574
 30
0.0
 11
250.4306814011
 21
103.6458287339
 31
0.0
  0
LINE
  5
A3
330
1F
100
AcDbEntity
  8
0
  6
Continuous
 62
     7
370
    15
100
AcDbLine
 10
256.1764607914
 20
100.0554672901
 30
0.0
 11
250.4306814011
 21
103.6458287339
 31
0.0
  0
LINE
  5
A4
330
1F
100
AcDbEntity
  8
0
  6
Continuous
 62
     7
370
    15
100
AcDbLine
 10
251.3194918297
 20
102.4777192656
 30
0.0
 11
250.382772404
 21
103.0630465261
 31
0.0
  0
SPLINE
  5
A5
330
1F
100
AcDbEntity
  8
0
  6
Continuous
 62
     7
370
    15
100
AcDbSpline
210
0.0
220
0.0
230
1.0
 70
     8
 71
     3
 72
     9
 73
     5
 74
     0
 42
0.000000001
 43
0.00000001
 40
0.0
 40
0.0
 40
0.0
 40
0.0
 40
0.9501288837634738
 40
1.0
 40
1.0
 40
1.0
 40
1.0
 10
250.5075056863633
 20
96.51255485520633
 30
0.0
 10
250.4771478618882
 20
96.52197115863214
 30
0.0
 10
250.4451965919143
 20
96.53188171243885
 30
0.0
 10
250.4165365989487
 20
96.5479111441848
 30
0.0
 10
250.4151072931082
 20
96.5487105498386
 30
0.0
  0
LINE
  5
A6
330
1F
100
AcDbEntity
  8
0
  6
Continuous
 62
     7
370
    15
100
AcDbLine
 10
249.8498328574
 20
103.303682794
 30
0.0
 11
250.2044246077
 21
96.5376691382
 31
0.0
  0
LINE
  5
A7
330
1F
100
AcDbEntity
  8
0
  6
Continuous
 62
     7
370
    15
100
AcDbLine
 10
250.2293120806
 20
103.3235704574
 30
0.0
 11
249.8498328574
 21
103.303682794
 31
0.0
  0
LINE
  5
A8
330
1F
100
AcDbEntity
  8
0
  6
Continuous
 62
     7
370
    15
100
AcDbLine
 10
250.382772404
 20
103.0630465261
 30
0.0
 11
250.4405805721
 21
101.9600009695
 31
0.0
  0
SPLINE
  5
A9
330
1F
100
AcDbEntity
  8
0
  6
Continuous
 62
     7
370
    15
100
AcDbSpline
210
0.0
220
0.0
230
1.0
 70
     8
 71
     3
 72
    15
 73
    11
 74
     0
 42
0.000000001
 43
0.00000001
 40
0.0
 40
0.0
 40
0.0
 40
0.0
 40
0.2623380033287679
 40
0.3588352750209827
 40
0.4561280779211468
 40
0.5198402084624167
 40
0.5836789586010298
 40
0.6703563782495384
 40
0.8830031016096078
 40
1.0
 40
1.0
 40
1.0
 40
1.0
 10
256.1184147298822
 20
94.3307648456013
 30
0.0
 10
256.1109747523814
 20
94.408281188046
 30
0.0
 10
256.1007980858718
 20
94.51431080520717
 30
0.0
 10
256.0486151752879
 20
94.63881350522435
 30
0.0
 10
256.0025600771767
 20
94.70094863351301
 30
0.0
 10
255.9454074261393
 20
94.73680183123257
 30
0.0
 10
255.8822810202544
 20
94.74928203157923
 30
0.0
 10
255.7751091957614
 20
94.73151090611829
 30
0.0
 10
255.6665689325467
 20
94.66985401795168
 30
0.0
 10
255.5879741720653
 20
94.61337690806492
 30
0.0
 10
255.5600793711369
 20
94.59333208920354
 30
0.0
  0
SPLINE
  5
AA
330
1F
100
AcDbEntity
  8
0
  6
Continuous
 62
     7
370
    15
100
AcDbSpline
210
0.0
220
0.0
230
1.0
 70
     8
 71
     3
 72
    15
 73
    11
 74
     0
 42
0.000000001
 43
0.00000001
 40
0.0
 40
0.0
 40
0.0
 40
0.0
 40
0.2623380033287961
 40
0.3588352750209991
 40
0.4561280779211493
 40
0.5198402084624238
 40
0.5836789586010173
 40
0.6703563782495381
 40
0.8830031016096076
 40
0.9999999999999999
 40
0.9999999999999999
 40
0.9999999999999999
 40
0.9999999999999999
 10
250.4405805720961
 20
101.9600009694526
 30
0.0
 10
250.4480205495969
 20
101.8824846270079
 30
0.0
 10
250.4581972161065
 20
101.7764550098467
 30
0.0
 10
250.5103801266904
 20
101.6519523098295
 30
0.0
 10
250.5564352248016
 20
101.5898171815409
 30
0.0
 10
250.6135878758389
 20
101.5539639838213
 30
0.0
 10
250.6767142817239
 20
101.5414837834747
 30
0.0
 10
250.7838861062169
 20
101.5592549089356
 30
0.0
 10
250.8924263694316
 20
101.6209117971023
 30
0.0
 10
250.971021129913
 20
101.677388906989
 30
0.0
 10
250.9989159308415
 20
101.6974337258504
 30
0.0
  0
SPLINE
  5
AB
330
1F
100
AcDbEntity
  8
0
  6
Continuous
 62
     7
370
    15
100
AcDbSpline
210
0.0
220
0.0
230
1.0
 70
     8
 71
     3
 72
    14
 73
    10
 74
     0
 42
0.000000001
 43
0.00000001
 40
0.0
 40
0.0
 40
0.0
 40
0.0
 40
0.2717201334720047
 40
0.3854324755905835
 40
0.4523611441646554
 40
0.5196941782138286
 40
0.5953244791004363
 40
0.7174676973996689
 40
1.0
 40
1.0
 40
1.0
 40
1.0
 10
251.2784519622085
 20
101.862093032037
 30
0.0
 10
251.3511099150927
 20
101.896541044224
 30
0.0
 10
251.4541745437373
 20
101.94540522829
 30
0.0
 10
251.5524114758215
 20
102.0385453185877
 30
0.0
 10
251.5858507038434
 20
102.1047824881354
 30
0.0
 10
251.5918041576376
 20
102.1677886087218
 30
0.0
 10
251.5696546794945
 20
102.2439819807317
 30
0.0
 10
251.4874929521917
 20
102.3619251958117
 30
0.0
 10
251.3885622657069
 20
102.4301127570208
 30
0.0
 10
251.3194918297481
 20
102.4777192656485
 30
0.0
  0
SPLINE
  5
AC
330
1F
100
AcDbEntity
  8
0
  6
Continuous
 62
     7
370
    15
100
AcDbSpline
210
0.0
220
0.0
230
1.0
 70
     8
 71
     3
 72
    14
 73
    10
 74
     0
 42
0.000000001
 43
0.00000001
 40
0.0
 40
0.0
 40
0.0
 40
0.0
 40
0.271720133472004
 40
0.3854324755905857
 40
0.4523611441646559
 40
0.5196941782138301
 40
0.5953244791004322
 40
0.7174676973996897
 40
1.0
 40
1.0
 40
1.0
 40
1.0
 10
255.2805433397698
 20
94.42867278301686
 30
0.0
 10
255.2078853868856
 20
94.39422477082985
 30
0.0
 10
255.104820758241
 20
94.34536058676386
 30
0.0
 10
255.0065838261567
 20
94.25222049646624
 30
0.0
 10
254.9731445981349
 20
94.18598332691855
 30
0.0
 10
254.9671911443407
 20
94.1229772063321
 30
0.0
 10
254.9893406224838
 20
94.0467838343222
 30
0.0
 10
255.0715023497866
 20
93.92884061924227
 30
0.0
 10
255.1704330362714
 20
93.86065305803314
 30
0.0
 10
255.2395034722302
 20
93.81304654940544
 30
0.0
  0
ARC
  5
AD
330
1F
100
AcDbEntity
  8
0
  6
Continuous
 62
     7
370
    15
100
AcDbCircle
 10
251.9055401869
 20
100.4778998219
 30
0.0
 40
1.000000000000024
100
AcDbArc
 50
58.0
 51
183.0
  0
ARC
  5
AE
330
1F
100
AcDbEntity
  8
0
  6
Continuous
 62
     7
370
    15
100
AcDbCircle
 10
251.9055401869
 20
100.4778998219
 30
0.0
 40
1.51961524227068
100
AcDbArc
 50
114.3721989764
 51
126.6278010236
  0
ARC
  5
AF
330
1F
100
AcDbEntity
  8
0
  6
Continuous
 62
     7
370
    15
100
AcDbCircle
 10
254.6534551151
 20
95.8128659932
 30
0.0
 40
1.000000000295398
100
AcDbArc
 50
238.0
 51
3.0
  0
ARC
  5
B0
330
1F
100
AcDbEntity
  8
0
  6
Continuous
 62
     7
370
    15
100
AcDbCircle
 10
254.6534551151
 20
95.8128659932
 30
0.0
 40
1.519615242270654
100
AcDbArc
 50
294.3721989764
 51
306.6278010236
  0
ARC
  5
B1
330
1F
100
AcDbEntity
  8
0
  6
Continuous
 62
     7
370
    15
100
AcDbCircle
 10
252.0652662005
 20
97.4301459228
 30
0.0
 40
1.000000000000024
100
AcDbArc
 50
183.0
 51
238.0
  0
ARC
  5
B2
330
1F
100
AcDbEntity
  8
0
  6
Continuous
 62
     7
370
    15
100
AcDbCircle
 10
254.4937291015
 20
98.8606198922
 30
0.0
 40
0.9999999999999759
100
AcDbArc
 50
3.0
 51
58.0
  0
LINE
  5
B3
330
1F
100
AcDbEntity
  8
0
  6
Continuous
 62
     7
370
    15
100
AcDbLine
 10
249.8298602667
 20
103.3026360749
 30
0.0
 11
250.184452017
 21
96.536622419
 31
0.0
  0
ARC
  5
B4
330
1F
100
AcDbEntity
  8
0
  6
Continuous
 62
     7
370
    15
100
AcDbCircle
 10
250.2293120806
 20
103.3235704574
 30
0.0
 40
0.4000000000000277
100
AcDbArc
 50
58.0
 51
183.0
  0
LINE
  5
B5
330
1F
100
AcDbEntity
  8
0
  6
Continuous
 62
     7
370
    15
100
AcDbLine
 10
256.1870591767
 20
100.072428252
 30
0.0
 11
250.4412797863
 21
103.6627896959
 31
0.0
  0
ARC
  5
B6
330
1F
100
AcDbEntity
  8
0
  6
Continuous
 62
     7
370
    15
100
AcDbCircle
 10
255.975091471
 20
99.7332090135
 30
0.0
 40
0.4000000000000042
100
AcDbArc
 50
3.0
 51
58.0
  0
LINE
  5
B7
330
1F
100
AcDbEntity
  8
0
  6
Continuous
 62
     7
370
    15
100
AcDbLine
 10
256.7291350352
 20
92.9881297402
 30
0.0
 11
256.3745432849
 21
99.754143396
 31
0.0
  0
ARC
  5
B8
330
1F
100
AcDbEntity
  8
0
  6
Continuous
 62
     7
370
    15
100
AcDbCircle
 10
256.3296832213
 20
92.9671953577
 30
0.0
 40
0.4000000000000326
100
AcDbArc
 50
238.0
 51
3.0
  0
LINE
  5
B9
330
1F
100
AcDbEntity
  8
0
  6
Continuous
 62
     7
370
    15
100
AcDbLine
 10
250.3719361253
 20
96.2183375631
 30
0.0
 11
256.1177155156
 21
92.6279761192
 31
0.0
  0
ARC
  5
BA
330
1F
100
AcDbEntity
  8
0
  6
Continuous
 62
     7
370
    15
100
AcDbCircle
 10
250.5839038309
 20
96.5575568015
 30
0.0
 40
0.4000000000000006
100
AcDbArc
 50
183.0
 51
238.0
  0
ARC
  5
BB
330
1F
100
AcDbEntity
  8
0
  6
Continuous
 62
     7
370
    15
100
AcDbCircle
 10
256.3296832213
 20
92.9671953577
 30
0.0
 40
0.3800000000000331
100
AcDbArc
 50
238.0
 51
3.0
  0
ARC
  5
BC
330
1F
100
AcDbEntity
  8
0
  6
Continuous
 62
     7
370
    15
100
AcDbCircle
 10
255.975091471
 20
99.7332090135
 30
0.0
 40
0.3799999999999736
100
AcDbArc
 50
3.0
 51
58.0
  0
ARC
  5
BD
330
1F
100
AcDbEntity
  8
0
  6
Continuous
 62
     7
370
    15
100
AcDbCircle
 10
250.2293120806
 20
103.3235704574
 30
0.0
 40
0.3800000000000158
100
AcDbArc
 50
58.0
 51
183.0
  0
ARC
  5
BE
330
1F
100
AcDbEntity
  8
0
  6
Continuous
 62
     7
370
    15
100
AcDbCircle
 10
250.5839038309
 20
96.5575568015
 30
0.0
 40
0.3800000000000054
100
AcDbArc
 50
183.0
 51
238.0
  0
LINE
  5
BF
330
1F
100
AcDbEntity
  8
0
  6
Continuous
 62
     7
370
    15
100
AcDbLine
 10
250.9069106521
 20
100.4255638656
 30
0.0
 11
251.0666366658
 21
97.3778099666
 31
0.0
  0
LINE
  5
C0
330
1F
100
AcDbEntity
  8
0
  6
Continuous
 62
     7
370
    15
100
AcDbLine
 10
255.0236483657
 20
99.7086679884
 30
0.0
 11
252.4354594511
 21
101.325947918
 31
0.0
  0
LINE
  5
C1
330
1F
100
AcDbEntity
  8
0
  6
Continuous
 62
     7
370
    15
100
AcDbLine
 10
255.6520846499
 20
95.8652019494
 30
0.0
 11
255.4923586362
 21
98.9129558484
 31
0.0
  0
LINE
  5
C2
330
1F
100
AcDbEntity
  8
0
  6
Continuous
 62
     7
370
    15
100
AcDbLine
 10
251.5353469363
 20
96.5820978267
 30
0.0
 11
254.1235358507
 21
94.9648178968
 31
0.0
  0
CIRCLE
  5
C3
330
1F
100
AcDbEntity
  8
0
  6
Continuous
 62
     7
370
    15
100
AcDbCircle
 10
253.279497651
 20
98.1453829075
 30
0.0
 40
1.925000000000018
  0
ELLIPSE
  5
C4
330
1F
100
AcDbEntity
  8
0
  6
Continuous
 62
     7
370
    15
100
AcDbEllipse
 10
223.6547942935
 20
137.55786529
 30
0.0
 11
0.0
 21
31.50000000000003
 31
0.0
210
0.0
220
0.0
230
1.0
 40
0.2679491924
 41
0.1320368298873595
 42
3.009555823702434
  0
ELLIPSE
  5
C5
330
1F
100
AcDbEntity
  8
0
  6
Continuous
 62
     7
370
    15
100
AcDbEllipse
 10
219.2660374213
 20
126.2800927569
 30
0.0
 11
-0.3127738332302954
 21
2.907097857499849
 31
0.0
210
0.0
220
0.0
230
1.0
 40
0.2008773511
 41
0.0
 42
6.283185307179586
  0
SPLINE
  5
C6
330
1F
100
AcDbEntity
  8
0
  6
Continuous
 62
     7
370
    15
100
AcDbSpline
210
0.0
220
0.0
230
1.0
 70
    11
 71
     3
 72
    66
 73
    62
 74
     0
 42
0.000000001
 43
0.00000001
 40
0.0
 40
0.0
 40
0.0
 40
0.0
 40
0.0312499999999995
 40
0.0312499999999995
 40
0.0624999999999993
 40
0.0624999999999993
 40
0.0937499999999991
 40
0.0937499999999991
 40
0.1249999999999989
 40
0.1249999999999989
 40
0.1562499999999988
 40
0.1562499999999988
 40
0.1874999999999986
 40
0.1874999999999986
 40
0.2187499999999984
 40
0.2187499999999984
 40
0.2499999999999982
 40
0.2499999999999982
 40
0.2812499999999981
 40
0.2812499999999981
 40
0.3124999999999978
 40
0.3124999999999978
 40
0.3437499999999977
 40
0.3437499999999977
 40
0.3749999999999975
 40
0.3749999999999975
 40
0.4062499999999973
 40
0.4062499999999973
 40
0.437499999999997
 40
0.437499999999997
 40
0.4687499999999968
 40
0.4687499999999968
 40
0.4999999999999969
 40
0.4999999999999969
 40
0.531249999999997
 40
0.531249999999997
 40
0.5624999999999972
 40
0.5624999999999972
 40
0.6249999999999972
 40
0.6249999999999972
 40
0.6562499999999974
 40
0.6562499999999974
 40
0.6874999999999976
 40
0.6874999999999976
 40
0.7187499999999978
 40
0.7187499999999978
 40
0.749999999999998
 40
0.749999999999998
 40
0.7812499999999982
 40
0.7812499999999982
 40
0.8124999999999986
 40
0.8124999999999986
 40
0.8437499999999988
 40
0.8437499999999988
 40
0.874999999999999
 40
0.874999999999999
 40
0.9062499999999993
 40
0.9062499999999993
 40
0.9374999999999996
 40
0.9374999999999996
 40
1.0
 40
1.0
 40
1.0
 40
1.0
 10
206.7351790512054
 20
135.0578652899699
 30
0.0
 10
206.9004106982204
 20
135.0578652899699
 30
0.0
 10
207.0628681772052
 20
135.0740849444383
 30
0.0
 10
207.3824657107967
 20
135.1376246101071
 30
0.0
 10
207.541266282051
 20
135.185720363981
 30
0.0
 10
207.8439890244328
 20
135.3112258847919
 30
0.0
 10
207.9875563021597
 20
135.3880184116632
 30
0.0
 10
208.2592633242039
 20
135.5694359141048
 30
0.0
 10
208.3878587483411
 20
135.6749887776448
 30
0.0
 10
208.6183755431069
 20
135.9055502126073
 30
0.0
 10
208.7218385873588
 20
136.0313657152234
 30
0.0
 10
208.9045999535959
 20
136.3046175041902
 30
0.0
 10
208.9822263049193
 20
136.4500362796666
 30
0.0
 10
209.1069286465975
 20
136.7508272900901
 30
0.0
 10
209.154950405876
 20
136.9084212558339
 30
0.0
 10
209.2191941211662
 20
137.2311542638824
 30
0.0
 10
209.2350904845696
 20
137.3934036197515
 30
0.0
 10
209.2352668868232
 20
137.7196232258858
 30
0.0
 10
209.2190284239508
 20
137.885307810822
 30
0.0
 10
209.1552335784778
 20
138.2059874975649
 30
0.0
 10
209.108031931296
 20
138.3618570168881
 30
0.0
 10
208.9828333806501
 20
138.6646098417233
 30
0.0
 10
208.9045854199423
 20
138.8109410142485
 30
0.0
 10
208.7236819072877
 20
139.0818007068578
 30
0.0
 10
208.6204014330939
 20
139.2080684032694
 30
0.0
 10
208.387126781542
 20
139.4415591187417
 30
0.0
 10
208.2608125616487
 20
139.5450625951263
 30
0.0
 10
207.9901716758641
 20
139.7261605304436
 30
0.0
 10
207.8440612923469
 20
139.8044730490522
 30
0.0
 10
207.5412378621308
 20
139.9300236829145
 30
0.0
 10
207.3854097127175
 20
139.9773469301232
 30
0.0
 10
207.0649984666049
 20
140.0413931181681
 30
0.0
 10
206.8992643187831
 20
140.0578059964807
 30
0.0
 10
206.5729055737828
 20
140.0579242552008
 30
0.0
 10
206.4106836004279
 20
140.0421604097088
 30
0.0
 10
206.0881962040195
 20
139.9782852400986
 30
0.0
 10
205.9302421476072
 20
139.9303303284261
 30
0.0
 10
205.4788296001933
 20
139.743646881718
 30
0.0
 10
205.1998268335531
 20
139.5575998723214
 30
0.0
 10
204.8537683946452
 20
139.2122096161027
 30
0.0
 10
204.7481279171524
 20
139.0837526607906
 30
0.0
 10
204.5664022257838
 20
138.8121027313204
 30
0.0
 10
204.4895079519028
 20
138.6686182463323
 30
0.0
 10
204.3638139641921
 20
138.3662206823595
 30
0.0
 10
204.3155151306302
 20
138.2073103888601
 30
0.0
 10
204.2516844298428
 20
137.8877241850586
 30
0.0
 10
204.2353418453971
 20
137.7253566105522
 30
0.0
 10
204.2350186536554
 20
137.3952695196176
 30
0.0
 10
204.2511137854104
 20
137.2323542689713
 30
0.0
 10
204.3143616532044
 20
136.9127445299131
 30
0.0
 10
204.3622418980731
 20
136.754087731324
 30
0.0
 10
204.4875627801491
 20
136.451018329193
 30
0.0
 10
204.5642520103158
 20
136.3073717592662
 30
0.0
 10
204.745337167827
 20
136.0356341753388
 30
0.0
 10
204.8507931302347
 20
135.9069008863044
 30
0.0
 10
205.0812347856373
 20
135.6760942816594
 30
0.0
 10
205.2069393210321
 20
135.5725557505706
 30
0.0
 10
205.4797853260906
 20
135.3896961925394
 30
0.0
 10
205.6253750557792
 20
135.3117925052366
 30
0.0
 10
206.0764090759382
 20
135.1243383084017
 30
0.0
 10
206.4047157571753
 20
135.0578652899699
 30
0.0
 10
206.7351790512054
 20
135.0578652899699
 30
0.0
  0
SPLINE
  5
C7
330
1F
100
AcDbEntity
  8
0
  6
Continuous
 62
     7
370
    15
100
AcDbSpline
210
0.0
220
0.0
230
1.0
 70
     8
 71
     3
 72
    12
 73
     8
 74
     0
 42
0.000000001
 43
0.00000001
 40
0.0
 40
0.0
 40
0.0
 40
0.0
 40
0.2500000000000001
 40
0.2500000000000001
 40
0.5000000000000001
 40
0.5000000000000001
 40
1.0
 40
1.0
 40
1.0
 40
1.0
 10
202.2629358647718
 20
107.4893733310968
 30
0.0
 10
202.199878909874
 20
107.4893733310968
 30
0.0
 10
202.1407487601284
 20
107.4972736621763
 30
0.0
 10
202.0423012095952
 20
107.5205844101813
 30
0.0
 10
202.0032689714071
 20
107.535289536465
 30
0.0
 10
201.9033790869501
 20
107.5832230646516
 30
0.0
 10
201.8610801133408
 20
107.6192930374164
 30
0.0
 10
201.8299231628795
 20
107.6571228298526
 30
0.0
  0
LINE
  5
C8
330
1F
100
AcDbEntity
  8
0
  6
Continuous
 62
     7
370
    15
100
AcDbLine
 10
205.2074222376
 20
107.4893733311
 30
0.0
 11
202.2629358648
 21
107.4893733311
 31
0.0
  0
SPLINE
  5
C9
330
1F
100
AcDbEntity
  8
0
  6
Continuous
 62
     7
370
    15
100
AcDbSpline
210
0.0
220
0.0
230
1.0
 70
     8
 71
     3
 72
    12
 73
     8
 74
     0
 42
0.000000001
 43
0.00000001
 40
0.0
 40
0.0
 40
0.0
 40
0.0
 40
0.5000000000000019
 40
0.5000000000000019
 40
0.7500000000000009
 40
0.7500000000000009
 40
1.0
 40
1.0
 40
1.0
 40
1.0
 10
205.6404349395312
 20
107.6571228298526
 30
0.0
 10
205.6092897415691
 20
107.6193073069324
 30
0.0
 10
205.5670154752346
 20
107.5832404488488
 30
0.0
 10
205.4670699414093
 20
107.5352803838375
 30
0.0
 10
205.4273396367053
 20
107.5204194099399
 30
0.0
 10
205.330451586699
 20
107.4974682638088
 30
0.0
 10
205.2703863449525
 20
107.4893733310967
 30
0.0
 10
205.207422237639
 20
107.4893733310967
 30
0.0
  0
ELLIPSE
  5
CA
330
1F
100
AcDbEntity
  8
0
  6
Continuous
 62
     7
370
    15
100
AcDbEllipse
 10
189.3880248618
 20
137.55786529
 30
0.0
 11
-14.75368316065618
 21
31.09325491558116
 31
0.0
210
0.0
220
0.0
230
1.0
 40
0.3419987131
 41
3.300734856217123
 42
4.231496223360773
  0
SPLINE
  5
CB
330
1F
100
AcDbEntity
  8
0
  6
Continuous
 62
     7
370
    15
100
AcDbSpline
210
0.0
220
0.0
230
1.0
 70
     8
 71
     3
 72
    12
 73
     8
 74
     0
 42
0.000000001
 43
0.00000001
 40
0.0
 40
0.0
 40
0.0
 40
0.0
 40
0.2500000000000009
 40
0.2500000000000009
 40
0.5000000000000018
 40
0.5000000000000018
 40
1.0
 40
1.0
 40
1.0
 40
1.0
 10
205.2074222376389
 20
128.1697988586336
 30
0.0
 10
205.2704791925368
 20
128.1697988586336
 30
0.0
 10
205.3296093422823
 20
128.1444525052529
 30
0.0
 10
205.4280568928156
 20
128.0703331231134
 30
0.0
 10
205.4670891310037
 20
128.0238366084154
 30
0.0
 10
205.5669790154606
 20
127.8737621014069
 30
0.0
 10
205.60927798907
 20
127.762644392292
 30
0.0
 10
205.6404349395312
 20
127.6484959692845
 30
0.0
  0
LINE
  5
CC
330
1F
100
AcDbEntity
  8
0
  6
Continuous
 62
     7
370
    15
100
AcDbLine
 10
202.2629358648
 20
128.1697988586
 30
0.0
 11
205.2074222376
 21
128.1697988586
 31
0.0
  0
SPLINE
  5
CD
330
1F
100
AcDbEntity
  8
0
  6
Continuous
 62
     7
370
    15
100
AcDbSpline
210
0.0
220
0.0
230
1.0
 70
     8
 71
     3
 72
    12
 73
     8
 74
     0
 42
0.000000001
 43
0.00000001
 40
0.0
 40
0.0
 40
0.0
 40
0.0
 40
0.5000000000000019
 40
0.5000000000000019
 40
0.7500000000000009
 40
0.7500000000000009
 40
1.0
 40
1.0
 40
1.0
 40
1.0
 10
201.8299231628796
 20
127.6484959692845
 30
0.0
 10
201.8610683608417
 20
127.7626013351498
 30
0.0
 10
201.9033426271761
 20
127.8737076623686
 30
0.0
 10
202.0032881610014
 20
128.0238652697989
 30
0.0
 10
202.0430184657055
 20
128.0708579614162
 30
0.0
 10
202.1399065157117
 20
128.1438335459547
 30
0.0
 10
202.1999717574583
 20
128.1697988586337
 30
0.0
 10
202.2629358647718
 20
128.1697988586337
 30
0.0
  0
ELLIPSE
  5
CE
330
1F
100
AcDbEntity
  8
0
  6
Continuous
 62
     7
370
    15
100
AcDbEllipse
 10
218.0823332406
 20
137.55786529
 30
0.0
 11
14.75368316065621
 21
31.09325491558116
 31
0.0
210
0.0
220
0.0
230
1.0
 40
0.3419987131
 41
2.051689083818825
 42
2.982450450962504
  0
SPLINE
  5
CF
330
1F
100
AcDbEntity
  8
0
  6
Continuous
 62
     7
370
    15
100
AcDbSpline
210
0.0
220
0.0
230
1.0
 70
     8
 71
     3
 72
    12
 73
     8
 74
     0
 42
0.000000001
 43
0.00000001
 40
0.0
 40
0.0
 40
0.0
 40
0.0
 40
0.2499999999999982
 40
0.2499999999999982
 40
0.4999999999999964
 40
0.4999999999999964
 40
1.0
 40
1.0
 40
1.0
 40
1.0
 10
202.2629358647718
 20
146.9459317213062
 30
0.0
 10
202.1998558262785
 20
146.9459317213062
 30
0.0
 10
202.1407072040971
 20
146.9712960405211
 30
0.0
 10
202.042234654028
 20
147.0454609008941
 30
0.0
 10
202.0031980420433
 20
147.0919812414482
 30
0.0
 10
201.9033015752642
 20
147.2421235842934
 30
0.0
 10
201.8608806941976
 20
147.3538167912656
 30
0.0
 10
201.8299231628796
 20
147.4672346106553
 30
0.0
  0
LINE
  5
D0
330
1F
100
AcDbEntity
  8
0
  6
Continuous
 62
     7
370
    15
100
AcDbLine
 10
205.2074222376
 20
146.9459317213
 30
0.0
 11
202.2629358648
 21
146.9459317213
 31
0.0
  0
SPLINE
  5
D1
330
1F
100
AcDbEntity
  8
0
  6
Continuous
 62
     7
370
    15
100
AcDbSpline
210
0.0
220
0.0
230
1.0
 70
     8
 71
     3
 72
    12
 73
     8
 74
     0
 42
0.000000001
 43
0.00000001
 40
0.0
 40
0.0
 40
0.0
 40
0.0
 40
0.4999999999999971
 40
0.4999999999999971
 40
0.7499999999999986
 40
0.7499999999999986
 40
1.0
 40
1.0
 40
1.0
 40
1.0
 10
205.6404349395312
 20
147.4672346106553
 30
0.0
 10
205.6097126976121
 20
147.3546788112461
 30
0.0
 10
205.5668754830769
 20
147.2419209515065
 30
0.0
 10
205.4674484588771
 20
147.0923800657102
 30
0.0
 10
205.4276962640605
 20
147.0450873340033
 30
0.0
 10
205.3296548072022
 20
146.9713510406819
 30
0.0
 10
205.2700987516148
 20
146.9459317213062
 30
0.0
 10
205.2074222376389
 20
146.9459317213062
 30
0.0
  0
ELLIPSE
  5
D2
330
1F
100
AcDbEntity
  8
0
  6
Continuous
 62
     7
370
    15
100
AcDbEllipse
 10
189.3880248618
 20
137.55786529
 30
0.0
 11
14.75368316065615
 21
31.09325491558116
 31
0.0
210
0.0
220
0.0
230
1.0
 40
0.3419987131
 41
5.193281737408631
 42
6.124043104552334
  0
SPLINE
  5
D3
330
1F
100
AcDbEntity
  8
0
  6
Continuous
 62
     7
370
    15
100
AcDbSpline
210
0.0
220
0.0
230
1.0
 70
     8
 71
     3
 72
    12
 73
     8
 74
     0
 42
0.000000001
 43
0.00000001
 40
0.0
 40
0.0
 40
0.0
 40
0.0
 40
0.2499999999999999
 40
0.2499999999999999
 40
0.4999999999999999
 40
0.4999999999999999
 40
1.0
 40
1.0
 40
1.0
 40
1.0
 10
205.2074222376389
 20
167.626357248843
 30
0.0
 10
205.2705022761323
 20
167.626357248843
 30
0.0
 10
205.3296508983137
 20
167.6184513226306
 30
0.0
 10
205.4281234483828
 20
167.5951261611944
 30
0.0
 10
205.4671600603675
 20
167.5804133713627
 30
0.0
 10
205.5670565271465
 20
167.5324575706317
 30
0.0
 10
205.6094774082132
 20
167.4961954140517
 30
0.0
 10
205.6404349395312
 20
167.4586077500872
 30
0.0
  0
LINE
  5
D4
330
1F
100
AcDbEntity
  8
0
  6
Continuous
 62
     7
370
    15
100
AcDbLine
 10
202.2629358648
 20
167.6263572488
 30
0.0
 11
205.2074222376
 21
167.6263572488
 31
0.0
  0
SPLINE
  5
D5
330
1F
100
AcDbEntity
  8
0
  6
Continuous
 62
     7
370
    15
100
AcDbSpline
210
0.0
220
0.0
230
1.0
 70
     8
 71
     3
 72
    12
 73
     8
 74
     0
 42
0.000000001
 43
0.00000001
 40
0.0
 40
0.0
 40
0.0
 40
0.0
 40
0.4999999999999981
 40
0.4999999999999981
 40
0.749999999999999
 40
0.749999999999999
 40
1.0
 40
1.0
 40
1.0
 40
1.0
 10
201.8299231628796
 20
167.4586077500872
 30
0.0
 10
201.8606454047987
 20
167.4959097330402
 30
0.0
 10
201.9034826193338
 20
167.5325215650866
 30
0.0
 10
202.0029096435336
 20
167.5802863483718
 30
0.0
 10
202.0426618383503
 20
167.5952438638542
 30
0.0
 10
202.1407032952085
 20
167.6184338096234
 30
0.0
 10
202.200259350796
 20
167.626357248843
 30
0.0
 10
202.2629358647718
 20
167.626357248843
 30
0.0
  0
ELLIPSE
  5
D6
330
1F
100
AcDbEntity
  8
0
  6
Continuous
 62
     7
370
    15
100
AcDbEllipse
 10
218.0823332406
 20
137.55786529
 30
0.0
 11
-14.75368316065615
 21
31.09325491558116
 31
0.0
210
0.0
220
0.0
230
1.0
 40
0.3419987131
 41
0.1591422026272916
 42
1.089903569770966
  0
SPLINE
  5
D7
330
1F
100
AcDbEntity
  8
0
  6
Continuous
 62
     7
370
    15
100
AcDbSpline
210
0.0
220
0.0
230
1.0
 70
     8
 71
     3
 72
    18
 73
    14
 74
     0
 42
0.000000001
 43
0.00000001
 40
0.0
 40
0.0
 40
0.0
 40
0.0
 40
0.2500000000000018
 40
0.2500000000000018
 40
0.3750000000000011
 40
0.3750000000000011
 40
0.5000000000000004
 40
0.5000000000000004
 40
0.6249999999999998
 40
0.6249999999999998
 40
0.7499999999999991
 40
0.7499999999999991
 40
1.0
 40
1.0
 40
1.0
 40
1.0
 10
226.0931544254655
 20
169.0575707104622
 30
0.0
 10
225.6622587800042
 20
169.0568184399006
 30
0.0
 10
225.2573844831515
 20
169.0545257770308
 30
0.0
 10
224.6889416849175
 20
169.0443466579741
 30
0.0
 10
224.5051555014893
 20
169.0397642334478
 30
0.0
 10
224.1598123285995
 20
169.0276198706175
 30
0.0
 10
223.9972603939923
 20
169.0200551434774
 30
0.0
 10
223.6920095399877
 20
169.0011235369066
 30
0.0
 10
223.5493106563008
 20
168.9897586647663
 30
0.0
 10
223.2841698209329
 20
168.9622816440393
 30
0.0
 10
223.1615414200826
 20
168.9460816987053
 30
0.0
 10
222.8334061978979
 20
168.8902666774555
 30
0.0
 10
222.6636997214071
 20
168.8432173918164
 30
0.0
 10
222.5435860213447
 20
168.7836828125446
 30
0.0
  0
SPLINE
  5
D8
330
1F
100
AcDbEntity
  8
0
  6
Continuous
 62
     7
370
    15
100
AcDbSpline
210
0.0
220
0.0
230
1.0
 70
     8
 71
     3
 72
    18
 73
    14
 74
     0
 42
0.000000001
 43
0.00000001
 40
0.0
 40
0.0
 40
0.0
 40
0.0
 40
0.25
 40
0.25
 40
0.5
 40
0.5
 40
0.625
 40
0.625
 40
0.75
 40
0.75
 40
0.875
 40
0.875
 40
1.0
 40
1.0
 40
1.0
 40
1.0
 10
222.5435860213447
 20
106.3320477673952
 30
0.0
 10
222.7133818887739
 20
106.2478881292837
 30
0.0
 10
222.9805101559532
 20
106.1888125397798
 30
0.0
 10
223.7118276161584
 20
106.1059088585152
 30
0.0
 10
224.1577021799217
 20
106.0840929330877
 30
0.0
 10
224.9422050300961
 20
106.0659912397214
 30
0.0
 10
225.2186127707564
 20
106.0625555805112
 30
0.0
 10
225.7935239359807
 20
106.0585373587388
 30
0.0
 10
226.0930660941492
 20
106.0579401488363
 30
0.0
 10
226.7171028522045
 20
106.0578034642045
 30
0.0
 10
227.0371465338206
 20
106.0582582440453
 30
0.0
 10
227.6819756731116
 20
106.059001819129
 30
0.0
 10
228.0084533195844
 20
106.0592938937938
 30
0.0
 10
228.3391409790792
 20
106.0592938937939
 30
0.0
  0
LINE
  5
D9
330
1F
100
AcDbEntity
  8
0
  6
Continuous
 62
     7
370
    15
100
AcDbLine
 10
228.3391409791
 20
106.0592938938
 30
0.0
 11
228.9678520632
 21
106.0592938938
 31
0.0
  0
LINE
  5
DA
330
1F
100
AcDbEntity
  8
0
  6
Continuous
 62
     7
370
    15
100
AcDbLine
 10
226.0929072439
 20
169.05786529
 30
0.0
 11
226.0931544255
 21
169.0575707105
 31
0.0
  0
LINE
  5
DB
330
1F
100
AcDbEntity
  8
0
  6
Continuous
 62
     7
370
    15
100
AcDbLine
 10
191.7351790512
 20
106.55786529
 30
0.0
 11
191.7351790512
 21
168.5578652851
 31
0.0
  0
SPLINE
  5
DC
330
1F
100
AcDbEntity
  8
0
  6
Continuous
 62
     7
370
    15
100
AcDbSpline
210
0.0
220
0.0
230
1.0
 70
     8
 71
     3
 72
    12
 73
     8
 74
     0
 42
0.000000001
 43
0.00000001
 40
0.0
 40
0.0
 40
0.0
 40
0.0
 40
0.4999999999999998
 40
0.4999999999999998
 40
0.7500000000000001
 40
0.7500000000000001
 40
1.0
 40
1.0
 40
1.0
 40
1.0
 10
190.9186667647489
 20
115.703071587494
 30
0.0
 10
190.9751032656561
 20
115.7016537061523
 30
0.0
 10
191.0441878963448
 20
115.700089369904
 30
0.0
 10
191.1629901680628
 20
115.6971451779295
 30
0.0
 10
191.2031754435328
 20
115.6961069748321
 30
0.0
 10
191.2765564909367
 20
115.6941730796175
 30
0.0
 10
191.3099660546793
 20
115.6932781923287
 30
0.0
 10
191.3402021623358
 20
115.6924944020564
 30
0.0
  0
SPLINE
  5
DD
330
1F
100
AcDbEntity
  8
0
  6
Continuous
 62
     7
370
    15
100
AcDbSpline
210
0.0
220
0.0
230
1.0
 70
     8
 71
     3
 72
    16
 73
    12
 74
     0
 42
0.000000001
 43
0.00000001
 40
0.0
 40
0.0
 40
0.0
 40
0.0
 40
0.0624999999999974
 40
0.0624999999999974
 40
0.1249999999999948
 40
0.1249999999999948
 40
0.2499999999999968
 40
0.2499999999999968
 40
0.499999999999999
 40
0.499999999999999
 40
1.0
 40
1.0
 40
1.0
 40
1.0
 10
191.3402021622985
 20
115.6924944020806
 30
0.0
 10
191.3517825698865
 20
115.6921942109693
 30
0.0
 10
191.3650920966478
 20
115.6908664627103
 30
0.0
 10
191.3943935267339
 20
115.6841677879353
 30
0.0
 10
191.4092076266182
 20
115.6788096048296
 30
0.0
 10
191.445036028321
 20
115.6617639556622
 30
0.0
 10
191.4591556526841
 20
115.6503014178865
 30
0.0
 10
191.4936597967726
 20
115.6187380925142
 30
0.0
 10
191.5047643474772
 20
115.600840793469
 30
0.0
 10
191.5309405246934
 20
115.5506793758547
 30
0.0
 10
191.5351790512054
 20
115.5229349636582
 30
0.0
 10
191.5351790512054
 20
115.4982708017286
 30
0.0
  0
LINE
  5
DE
330
1F
100
AcDbEntity
  8
0
  6
Continuous
 62
     7
370
    15
100
AcDbLine
 10
191.5351790512
 20
130.5359779642
 30
0.0
 11
191.5351790512
 21
115.0180450111
 31
0.0
  0
SPLINE
  5
DF
330
1F
100
AcDbEntity
  8
0
  6
Continuous
 62
     7
370
    15
100
AcDbSpline
210
0.0
220
0.0
230
1.0
 70
     8
 71
     3
 72
    16
 73
    12
 74
     0
 42
0.000000001
 43
0.00000001
 40
0.0
 40
0.0
 40
0.0
 40
0.0
 40
0.4999999999999973
 40
0.4999999999999973
 40
0.7499999999999977
 40
0.7499999999999977
 40
0.8749999999999988
 40
0.8749999999999988
 40
0.9374999999999993
 40
0.9374999999999993
 40
1.0
 40
1.0
 40
1.0
 40
1.0
 10
191.5351790512054
 20
130.5359779642198
 30
0.0
 10
191.5351790512054
 20
130.6496705083477
 30
0.0
 10
191.5310327761274
 20
130.7639906696972
 30
0.0
 10
191.5050671807339
 20
130.9370389601943
 30
0.0
 10
191.4936062753565
 20
130.996214467356
 30
0.0
 10
191.4592945375821
 20
131.0793375868242
 30
0.0
 10
191.4452698016526
 20
131.1074589029249
 30
0.0
 10
191.4092468386187
 20
131.1360747169023
 30
0.0
 10
191.394492329529
 20
131.1418677648041
 30
0.0
 10
191.3651401683822
 20
131.140274338867
 30
0.0
 10
191.3518002938781
 20
131.1337779355432
 30
0.0
 10
191.3402021623297
 20
131.1252621893401
 30
0.0
  0
SPLINE
  5
E0
330
1F
100
AcDbEntity
  8
0
  6
Continuous
 62
     7
370
    15
100
AcDbSpline
210
0.0
220
0.0
230
1.0
 70
     8
 71
     3
 72
    12
 73
     8
 74
     0
 42
0.000000001
 43
0.00000001
 40
0.0
 40
0.0
 40
0.0
 40
0.0
 40
0.2500000000000003
 40
0.2500000000000003
 40
0.5000000000000002
 40
0.5000000000000002
 40
1.0
 40
1.0
 40
1.0
 40
1.0
 10
191.3402021623368
 20
131.1252621893309
 30
0.0
 10
191.3100037208962
 20
131.1030894572859
 30
0.0
 10
191.2766363655602
 20
131.0840098014086
 30
0.0
 10
191.2034810897303
 20
131.0588367569659
 30
0.0
 10
191.1632283907063
 20
131.0532802205492
 30
0.0
 10
191.0454996474315
 20
131.0641920315359
 30
0.0
 10
190.9750411993725
 20
131.1061277869467
 30
0.0
 10
190.9186667647543
 20
131.1553395693282
 30
0.0
  0
SPLINE
  5
E1
330
1F
100
AcDbEntity
  8
0
  6
Continuous
 62
     7
370
    15
100
AcDbSpline
210
0.0
220
0.0
230
1.0
 70
     8
 71
     3
 72
    12
 73
     8
 74
     0
 42
0.000000001
 43
0.00000001
 40
0.0
 40
0.0
 40
0.0
 40
0.0
 40
0.4999999999999984
 40
0.4999999999999984
 40
0.7499999999999992
 40
0.7499999999999992
 40
1.0
 40
1.0
 40
1.0
 40
1.0
 10
190.4138587076457
 20
132.3716909612088
 30
0.0
 10
190.4576090382315
 20
132.1512440835531
 30
0.0
 10
190.5104991576119
 20
131.9356992665149
 30
0.0
 10
190.622110478226
 20
131.6232856154049
 30
0.0
 10
190.6646699314091
 20
131.5212058422335
 30
0.0
 10
190.7696468546057
 20
131.3267662077693
 30
0.0
 10
190.8312139954406
 20
131.2316810294471
 30
0.0
 10
190.9186667647543
 20
131.1553395693283
 30
0.0
  0
SPLINE
  5
E2
330
1F
100
AcDbEntity
  8
0
  6
Continuous
 62
     7
370
    15
100
AcDbSpline
210
0.0
220
0.0
230
1.0
 70
     8
 71
     3
 72
    12
 73
     8
 74
     0
 42
0.000000001
 43
0.00000001
 40
0.0
 40
0.0
 40
0.0
 40
0.0
 40
0.2500000000000007
 40
0.2500000000000007
 40
0.5000000000000014
 40
0.5000000000000014
 40
1.0
 40
1.0
 40
1.0
 40
1.0
 10
190.9186667647542
 20
143.9603910106115
 30
0.0
 10
190.8301724743367
 20
143.883140359824
 30
0.0
 10
190.7701151151749
 20
143.7898213508307
 30
0.0
 10
190.6642677759802
 20
143.5937901933995
 30
0.0
 10
190.6217336720561
 20
143.4914627867037
 30
0.0
 10
190.5105821790021
 20
143.1801179450807
 30
0.0
 10
190.4576513399244
 20
142.9646996439448
 30
0.0
 10
190.4138587076457
 20
142.744039618731
 30
0.0
  0
SPLINE
  5
E3
330
1F
100
AcDbEntity
  8
0
  6
Continuous
 62
     7
370
    15
100
AcDbSpline
210
0.0
220
0.0
230
1.0
 70
     8
 71
     3
 72
    12
 73
     8
 74
     0
 42
0.000000001
 43
0.00000001
 40
0.0
 40
0.0
 40
0.0
 40
0.0
 40
0.5
 40
0.5
 40
0.75
 40
0.75
 40
1.0
 40
1.0
 40
1.0
 40
1.0
 10
190.9186667647542
 20
143.9603910106115
 30
0.0
 10
190.9749753130498
 20
144.0095452778554
 30
0.0
 10
191.0452499737679
 20
144.0515025964591
 30
0.0
 10
191.1632878880915
 20
144.0624622739915
 30
0.0
 10
191.2034641289454
 20
144.0569535157442
 30
0.0
 10
191.2774212236233
 20
144.0313962869552
 30
0.0
 10
191.3100376113348
 20
144.0126162391159
 30
0.0
 10
191.3402021623305
 20
143.9904683905992
 30
0.0
  0
SPLINE
  5
E4
330
1F
100
AcDbEntity
  8
0
  6
Continuous
 62
     7
370
    15
100
AcDbSpline
210
0.0
220
0.0
230
1.0
 70
     8
 71
     3
 72
    16
 73
    12
 74
     0
 42
0.000000001
 43
0.00000001
 40
0.0
 40
0.0
 40
0.0
 40
0.0
 40
0.0624999999999988
 40
0.0624999999999988
 40
0.1249999999999976
 40
0.1249999999999976
 40
0.2499999999999984
 40
0.2499999999999984
 40
0.5000000000000001
 40
0.5000000000000001
 40
1.0
 40
1.0
 40
1.0
 40
1.0
 10
191.3402021622988
 20
143.9904683905446
 30
0.0
 10
191.3518150621381
 20
143.9819418009494
 30
0.0
 10
191.3651662465706
 20
143.9754415394166
 30
0.0
 10
191.3945660861898
 20
143.9738721422991
 30
0.0
 10
191.4094068107451
 20
143.9797555329297
 30
0.0
 10
191.4452400187137
 20
144.0083031689802
 30
0.0
 10
191.4593532265352
 20
144.036470188286
 30
0.0
 10
191.4938445977541
 20
144.1202244467079
 30
0.0
 10
191.5049286688645
 20
144.1779378603294
 30
0.0
 10
191.5310514866605
 20
144.3515283969752
 30
0.0
 10
191.5351790512054
 20
144.4665564496172
 30
0.0
 10
191.5351790512054
 20
144.57975261572
 30
0.0
  0
LINE
  5
E5
330
1F
100
AcDbEntity
  8
0
  6
Continuous
 62
     7
370
    15
100
AcDbLine
 10
191.5351790512
 20
160.0976855688
 30
0.0
 11
191.5351790512
 21
144.5797526157
 31
0.0
  0
SPLINE
  5
E6
330
1F
100
AcDbEntity
  8
0
  6
Continuous
 62
     7
370
    15
100
AcDbSpline
210
0.0
220
0.0
230
1.0
 70
     8
 71
     3
 72
    16
 73
    12
 74
     0
 42
0.000000001
 43
0.00000001
 40
0.0
 40
0.0
 40
0.0
 40
0.0
 40
0.499999999999999
 40
0.499999999999999
 40
0.7500000000000022
 40
0.7500000000000022
 40
0.8750000000000038
 40
0.8750000000000038
 40
0.9375000000000019
 40
0.9375000000000019
 40
1.0
 40
1.0
 40
1.0
 40
1.0
 10
191.5351790512054
 20
159.6174597782112
 30
0.0
 10
191.5351790512054
 20
159.5927886221683
 30
0.0
 10
191.5310133527454
 20
159.565206790777
 30
0.0
 10
191.5047550244204
 20
159.5148639199537
 30
0.0
 10
191.4932512426828
 20
159.4965744218918
 30
0.0
 10
191.4591204833364
 20
159.4654193908547
 30
0.0
 10
191.4446985966656
 20
159.453780015643
 30
0.0
 10
191.4091316282278
 20
159.436897989712
 30
0.0
 10
191.3941798599331
 20
159.4315088859043
 30
0.0
 10
191.3651760415734
 20
159.4248883899598
 30
0.0
 10
191.3517606875641
 20
159.4235358017534
 30
0.0
 10
191.3402021623276
 20
159.4232361778817
 30
0.0
  0
SPLINE
  5
E7
330
1F
100
AcDbEntity
  8
0
  6
Continuous
 62
     7
370
    15
100
AcDbSpline
210
0.0
220
0.0
230
1.0
 70
     8
 71
     3
 72
    12
 73
     8
 74
     0
 42
0.000000001
 43
0.00000001
 40
0.0
 40
0.0
 40
0.0
 40
0.0
 40
0.2500000000000001
 40
0.2500000000000001
 40
0.4999999999999999
 40
0.4999999999999999
 40
1.0
 40
1.0
 40
1.0
 40
1.0
 10
191.3402021623368
 20
159.4232361778835
 30
0.0
 10
191.3100143857872
 20
159.4224536404659
 30
0.0
 10
191.2766605816955
 20
159.4215603086474
 30
0.0
 10
191.2035343784995
 20
159.4196329998438
 30
0.0
 10
191.1632991754753
 20
159.4185934686311
 30
0.0
 10
191.0456075453422
 20
159.4156755852839
 30
0.0
 10
190.9752268721822
 20
159.4140799792137
 30
0.0
 10
190.9186667647516
 20
159.4126589924458
 30
0.0
  0
SPLINE
  5
E8
330
1F
100
AcDbEntity
  8
0
  6
Continuous
 62
     7
370
    15
100
AcDbSpline
210
0.0
220
0.0
230
1.0
 70
     8
 71
     3
 72
    16
 73
    12
 74
     0
 42
0.000000001
 43
0.00000001
 40
0.0
 40
0.0
 40
0.0
 40
0.0
 40
0.2499999999999998
 40
0.2499999999999998
 40
0.3749999999999998
 40
0.3749999999999998
 40
0.4999999999999999
 40
0.4999999999999999
 40
0.75
 40
0.75
 40
1.0
 40
1.0
 40
1.0
 40
1.0
 10
190.4138587076457
 20
142.744039618731
 30
0.0
 10
190.2526262301613
 20
141.9316298434842
 30
0.0
 10
190.1321463905216
 20
141.0915515490994
 30
0.0
 10
190.0097658732083
 20
139.7902564997366
 30
0.0
 10
189.9787882128109
 20
139.3495754641519
 30
0.0
 10
189.9371744751829
 20
138.4537358232207
 30
0.0
 10
189.9269385622501
 20
138.0070776920182
 30
0.0
 10
189.926750165194
 20
136.6717677348784
 30
0.0
 10
189.9668948678316
 20
135.7872723615708
 30
0.0
 10
190.1310486227711
 20
134.0300224735448
 30
0.0
 10
190.2526002731807
 20
133.1842315271317
 30
0.0
 10
190.4138587076457
 20
132.3716909612088
 30
0.0
  0
LINE
  5
E9
330
1F
100
AcDbEntity
  8
0
  6
Continuous
 62
     7
370
    15
100
AcDbLine
 10
189.5351790512
 20
144.0430435517
 30
0.0
 11
189.5351790512
 21
131.0726870283
 31
0.0
  0
LINE
  5
EA
330
1F
100
AcDbEntity
  8
0
  6
Continuous
 62
     7
370
    15
100
AcDbLine
 10
155.2351790512
 20
143.6121758575
 30
0.0
 11
155.2351790512
 21
131.5035547224
 31
0.0
  0
LINE
  5
EB
330
1F
100
AcDbEntity
  8
0
  6
Continuous
 62
     7
370
    15
100
AcDbLine
 10
153.7351790512
 20
143.1791631556
 30
0.0
 11
153.7351790512
 21
131.9365674243
 31
0.0
  0
LINE
  5
EC
330
1F
100
AcDbEntity
  8
0
  6
Continuous
 62
     7
370
    15
100
AcDbLine
 10
189.5351790512
 20
144.0430435517
 30
0.0
 11
189.5351790512
 21
159.5779640745
 31
0.0
  0
ARC
  5
ED
330
1F
100
AcDbEntity
  8
0
  6
Continuous
 62
     7
370
    15
100
AcDbCircle
 10
189.7351159621
 20
159.5829871857
 30
0.0
 40
0.2000000000000059
100
AcDbArc
 50
181.4391666667
 51
271.4391666667
  0
LINE
  5
EE
330
1F
100
AcDbEntity
  8
0
  6
Continuous
 62
     7
370
    15
100
AcDbLine
 10
155.2351790512
 20
116.3995018937
 30
0.0
 11
155.2351790512
 21
131.5035547224
 31
0.0
  0
LINE
  5
EF
330
1F
100
AcDbEntity
  8
0
  6
Continuous
 62
     7
370
    15
100
AcDbLine
 10
189.5351790512
 20
115.5377665054
 30
0.0
 11
189.5351790512
 21
131.0726870283
 31
0.0
  0
LINE
  5
F0
330
1F
100
AcDbEntity
  8
0
  6
Continuous
 62
     7
370
    15
100
AcDbLine
 10
155.2351790512
 20
116.3995018937
 30
0.0
 11
189.5351790512
 21
115.5377665054
 31
0.0
  0
LINE
  5
F1
330
1F
100
AcDbEntity
  8
0
  6
Continuous
 62
     7
370
    15
100
AcDbLine
 10
155.2351790512
 20
143.6121758575
 30
0.0
 11
155.2351790512
 21
158.7162286863
 31
0.0
  0
LINE
  5
F2
330
1F
100
AcDbEntity
  8
0
  6
Continuous
 62
     7
370
    15
100
AcDbLine
 10
155.2351790512
 20
158.7162286863
 30
0.0
 11
189.5351790512
 21
159.5779640745
 31
0.0
  0
ARC
  5
F3
330
1F
100
AcDbEntity
  8
0
  6
Continuous
 62
     7
370
    15
100
AcDbCircle
 10
189.7351159621
 20
115.5327433943
 30
0.0
 40
0.2000000000000059
100
AcDbArc
 50
88.5608333333
 51
178.5608333333
  0
LINE
  5
F4
330
1F
100
AcDbEntity
  8
0
  6
Continuous
 62
     7
370
    15
100
AcDbLine
 10
189.7401390733
 20
159.3830502747
 30
0.0
 11
190.9186667648
 21
159.4126589924
 31
0.0
  0
LINE
  5
F5
330
1F
100
AcDbEntity
  8
0
  6
Continuous
 62
     7
370
    15
100
AcDbLine
 10
189.7401390733
 20
115.7326803052
 30
0.0
 11
190.9186667648
 21
115.7030715875
 31
0.0
  0
LINE
  5
F6
330
1F
100
AcDbEntity
  8
0
  6
Continuous
 62
     7
370
    15
100
AcDbLine
 10
153.7351790512
 20
117.2655272975
 30
0.0
 11
155.2351790512
 21
116.3995018937
 31
0.0
  0
LINE
  5
F7
330
1F
100
AcDbEntity
  8
0
  6
Continuous
 62
     7
370
    15
100
AcDbLine
 10
153.7351790512
 20
117.2655272975
 30
0.0
 11
153.7351790512
 21
131.9365674243
 31
0.0
  0
LINE
  5
F8
330
1F
100
AcDbEntity
  8
0
  6
Continuous
 62
     7
370
    15
100
AcDbLine
 10
153.7351790512
 20
157.8502032825
 30
0.0
 11
155.2351790512
 21
158.7162286863
 31
0.0
  0
LINE
  5
F9
330
1F
100
AcDbEntity
  8
0
  6
Continuous
 62
     7
370
    15
100
AcDbLine
 10
153.7351790512
 20
143.1791631556
 30
0.0
 11
153.7351790512
 21
157.8502032825
 31
0.0
  0
LINE
  5
FA
330
1F
100
AcDbEntity
  8
0
  6
Continuous
 62
     7
370
    15
100
AcDbLine
 10
228.3391409791
 20
166.3809081663
 30
0.0
 11
226.0931544255
 21
169.0575707105
 31
0.0
  0
LINE
  5
FB
330
1F
100
AcDbEntity
  8
0
  6
Continuous
 62
     7
370
    15
100
AcDbLine
 10
256.0582392433
 20
100.1529238803
 30
0.0
 11
254.2027448883
 21
135.55786529
 31
0.0
  0
LINE
  5
FC
330
1F
100
AcDbEntity
  8
0
  6
Continuous
 62
     7
370
    15
100
AcDbLine
 10
251.8368959881
 20
102.7907119044
 30
0.0
 11
251.7648069257
 21
104.1662531573
 31
0.0
  0
ARC
  5
FD
330
1F
100
AcDbEntity
  8
0
  6
Continuous
 62
     7
370
    15
100
AcDbCircle
 10
250.795807858
 20
104.1154700681
 30
0.0
 40
0.9703288696848592
100
AcDbArc
 50
3.0
 51
183.0
  0
LINE
  5
FE
330
1F
100
AcDbEntity
  8
0
  6
Continuous
 62
     7
370
    15
100
AcDbLine
 10
249.8268087903
 20
104.0646869788
 30
0.0
 11
249.8578702612
 21
103.4719988064
 31
0.0
  0
LINE
  5
FF
330
1F
100
AcDbEntity
  8
0
  6
Continuous
 62
     7
370
    15
100
AcDbLine
 10
250.1765020972
 20
96.6883159265
 30
0.0
 11
237.6844731431
 21
104.4942019631
 31
0.0
  0
ARC
  5
100
330
1F
100
AcDbEntity
  8
0
  6
Continuous
 62
     7
370
    15
100
AcDbCircle
 10
233.9750382935
 20
98.55786529
 30
0.0
 40
7.000000000000015
100
AcDbArc
 50
58.0
 51
90.0
  0
LINE
  5
101
330
1F
100
AcDbEntity
  8
0
  6
Continuous
 62
     7
370
    15
100
AcDbLine
 10
233.9750382935
 20
105.55786529
 30
0.0
 11
229.8346878272
 21
105.55786529
 31
0.0
  0
SPLINE
  5
102
330
1F
100
AcDbEntity
  8
0
  6
Continuous
 62
     7
370
    15
100
AcDbSpline
210
0.0
220
0.0
230
1.0
 70
     8
 71
     3
 72
    12
 73
     8
 74
     0
 42
0.000000001
 43
0.00000001
 40
0.0
 40
0.0
 40
0.0
 40
0.0
 40
0.4999999999999915
 40
0.4999999999999915
 40
0.7499999999999957
 40
0.7499999999999957
 40
1.0
 40
1.0
 40
1.0
 40
1.0
 10
228.9678520632264
 20
106.0592938937939
 30
0.0
 10
229.1437129274592
 20
106.0592938937939
 30
0.0
 10
229.3166811443041
 20
106.0128851116716
 30
0.0
 10
229.5452924897403
 20
105.8804545332989
 30
0.0
 10
229.6141500309001
 20
105.8273517825408
 30
0.0
 10
229.7375277313764
 20
105.7036608989528
 30
0.0
 10
229.7913399000854
 20
105.6332316225654
 30
0.0
 10
229.8346878271691
 20
105.5578652899699
 30
0.0
  0
LINE
  5
103
330
1F
100
AcDbEntity
  8
0
  6
Continuous
 62
     7
370
    15
100
AcDbLine
 10
254.2027448883
 20
135.55786529
 30
0.0
 11
228.3391409791
 21
166.3809081663
 31
0.0
  0
LINE
  5
104
330
1F
100
AcDbEntity
  8
0
  6
Continuous
 62
     7
370
    15
100
AcDbLine
 10
251.6446429626
 20
104.1599556309
 30
0.0
 11
251.7123224494
 21
102.8685540907
 31
0.0
  0
LINE
  5
105
330
1F
100
AcDbEntity
  8
0
  6
Continuous
 62
     7
370
    15
100
AcDbLine
 10
255.4850835659
 20
100.3257466218
 30
0.0
 11
252.787806175
 21
102.011192597
 31
0.0
  0
ARC
  5
106
330
1F
100
AcDbEntity
  8
0
  6
Continuous
 62
     7
370
    15
100
AcDbCircle
 10
250.795807858
 20
104.1154700681
 30
0.0
 40
0.8500000000000347
100
AcDbArc
 50
3.0
 51
183.0
  0
LINE
  5
107
330
1F
100
AcDbEntity
  8
0
  6
Continuous
 62
     7
370
    15
100
AcDbLine
 10
249.9469727535
 20
104.0709845053
 30
0.0
 11
249.9701739542
 21
103.6282792224
 31
0.0
  0
LINE
  5
108
330
1F
100
AcDbEntity
  8
0
  6
Continuous
 62
     7
370
     0
100
AcDbLine
 10
250.4943325395
 20
96.414212771
 30
0.0
 11
250.3825345105
 21
96.235298525
 31
0.0
  0
LINE
  5
109
330
1F
100
AcDbEntity
  8
0
  6
Continuous
 62
     7
370
     0
100
AcDbLine
 10
251.1100867267
 20
95.9015392295
 30
0.0
 11
250.4943325395
 21
96.414212771
 31
0.0
  0
LINE
  5
10A
330
1F
100
AcDbEntity
  8
0
  6
Continuous
 62
     7
370
     0
100
AcDbLine
 10
253.6982756413
 20
94.2842592998
 30
0.0
 11
251.1100867267
 21
95.9015392295
 31
0.0
  0
SPLINE
  5
10B
330
1F
100
AcDbEntity
  8
0
  6
Continuous
 62
     7
370
     0
100
AcDbSpline
210
0.0
220
0.0
230
1.0
 70
     8
 71
     3
 72
     9
 73
     5
 74
     0
 42
0.000000001
 43
0.00000001
 40
0.0
 40
0.0
 40
0.0
 40
0.0
 40
0.5213985559210982
 40
1.0
 40
1.0
 40
1.0
 40
1.0
 10
255.2395034722302
 20
93.81304654940544
 30
0.0
 10
254.9601785368469
 20
93.84421300340927
 30
0.0
 10
254.4244560416247
 20
93.90398772593176
 30
0.0
 10
253.9333295090456
 20
94.16117100912035
 30
0.0
 10
253.6982756413278
 20
94.28425929984735
 30
0.0
  0
LINE
  5
10C
330
1F
100
AcDbEntity
  8
0
  6
Continuous
 62
     7
370
     0
100
AcDbLine
 10
251.0403825957
 20
96.826443343
 30
0.0
 11
251.4810302117
 21
96.4951728968
 31
0.0
  0
SPLINE
  5
10D
330
1F
100
AcDbEntity
  8
0
  6
Continuous
 62
     7
370
     0
100
AcDbSpline
210
0.0
220
0.0
230
1.0
 70
    24
 71
     3
 72
    10
 73
     6
 74
     0
 42
0.000000001
 43
0.00000001
 40
0.0
 40
0.0
 40
0.0
 40
0.0
 40
0.2765306019330283
 40
0.5626682704062612
 40
1.0
 40
1.0
 40
1.0
 40
1.0
 10
251.1100867267395
 20
95.90153922952501
 30
0.0
 10
251.1424625447269
 20
95.95335136895613
 30
0.0
 10
251.2083389626806
 20
96.058775675257
 30
0.0
 10
251.3406979248284
 20
96.27059429261016
 30
0.0
 10
251.4281600341382
 20
96.41056292612133
 30
0.0
 10
251.4810302117028
 20
96.49517289683449
 30
0.0
  0
SPLINE
  5
10E
330
1F
100
AcDbEntity
  8
0
  6
Continuous
 62
     7
370
     0
100
AcDbSpline
210
0.0
220
0.0
230
1.0
 70
     8
 71
     3
 72
     9
 73
     5
 74
     0
 42
0.000000001
 43
0.00000001
 40
0.0
 40
0.0
 40
0.0
 40
0.0
 40
0.4786014440788978
 40
1.0
 40
1.0
 40
1.0
 40
1.0
 10
256.4534848515033
 20
95.90720155429719
 30
0.0
 10
256.4471839199455
 20
95.64194442186773
 30
0.0
 10
256.4340186200164
 20
95.08771054791866
 30
0.0
 10
256.2265753508573
 20
94.59017773551298
 30
0.0
 10
256.1184147298822
 20
94.3307648456013
 30
0.0
  0
LINE
  5
10F
330
1F
100
AcDbEntity
  8
0
  6
Continuous
 62
     7
370
     0
100
AcDbLine
 10
256.2937588379
 20
98.9549554533
 30
0.0
 11
256.4534848515
 21
95.9072015543
 31
0.0
  0
LINE
  5
110
330
1F
100
AcDbEntity
  8
0
  6
Continuous
 62
     7
370
     0
100
AcDbLine
 10
256.1438880089
 20
99.7420552652
 30
0.0
 11
256.2937588379
 21
98.9549554533
 31
0.0
  0
LINE
  5
111
330
1F
100
AcDbEntity
  8
0
  6
Continuous
 62
     7
370
     0
100
AcDbLine
 10
256.1438880089
 20
99.7420552652
 30
0.0
 11
256.3545706939
 21
99.7530966769
 31
0.0
  0
LINE
  5
112
330
1F
100
AcDbEntity
  8
0
  6
Continuous
 62
     7
370
     0
100
AcDbLine
 10
255.5947181635
 20
98.918320284
 30
0.0
 11
255.5186127063
 21
99.4643224721
 31
0.0
  0
SPLINE
  5
113
330
1F
100
AcDbEntity
  8
0
  6
Continuous
 62
     7
370
     0
100
AcDbSpline
210
0.0
220
0.0
230
1.0
 70
    24
 71
     3
 72
    10
 73
     6
 74
     0
 42
0.000000001
 43
0.00000001
 40
0.0
 40
0.0
 40
0.0
 40
0.0
 40
0.2765306019330247
 40
0.5626682704062527
 40
1.0
 40
1.0
 40
1.0
 40
1.0
 10
255.5947181635253
 20
98.9183202839648
 30
0.0
 10
255.6557301897644
 20
98.92151778876955
 30
0.0
 10
255.779873886838
 20
98.92802388424515
 30
0.0
 10
256.0293035220892
 20
98.94109593751601
 30
0.0
 10
256.1941253193398
 20
98.94973388188738
 30
0.0
 10
256.2937588378535
 20
98.95495545333485
 30
0.0
  0
LINE
  5
114
330
1F
100
AcDbEntity
  8
0
  6
Continuous
 62
     7
370
     0
100
AcDbLine
 10
255.4489085752
 20
100.3892265855
 30
0.0
 11
256.0646627625
 21
99.8765530441
 31
0.0
  0
LINE
  5
115
330
1F
100
AcDbEntity
  8
0
  6
Continuous
 62
     7
370
     0
100
AcDbLine
 10
255.5186127063
 20
99.4643224721
 30
0.0
 11
255.0779650903
 21
99.7955929182
 31
0.0
  0
SPLINE
  5
116
330
1F
100
AcDbEntity
  8
0
  6
Continuous
 62
     7
370
     0
100
AcDbSpline
210
0.0
220
0.0
230
1.0
 70
    24
 71
     3
 72
    10
 73
     6
 74
     0
 42
0.000000001
 43
0.00000001
 40
0.0
 40
0.0
 40
0.0
 40
0.0
 40
0.2765306019330178
 40
0.5626682704062578
 40
1.0
 40
1.0
 40
1.0
 40
1.0
 10
255.4489085752387
 20
100.3892265855289
 30
0.0
 10
255.4165327572514
 20
100.3374144460978
 30
0.0
 10
255.3506563392976
 20
100.2319901397969
 30
0.0
 10
255.2182973771498
 20
100.0201715224438
 30
0.0
 10
255.1308352678401
 20
99.88020288893257
 30
0.0
 10
255.0779650902755
 20
99.79559291821941
 30
0.0
  0
LINE
  5
117
330
1F
100
AcDbEntity
  8
0
  6
Continuous
 62
     7
370
     0
100
AcDbLine
 10
256.0646627625
 20
99.8765530441
 30
0.0
 11
256.1764607914
 21
100.0554672901
 31
0.0
  0
LINE
  5
118
330
1F
100
AcDbEntity
  8
0
  6
Continuous
 62
     7
370
     0
100
AcDbLine
 10
252.8607196607
 20
102.0065065152
 30
0.0
 11
255.4489085752
 21
100.3892265855
 31
0.0
  0
SPLINE
  5
119
330
1F
100
AcDbEntity
  8
0
  6
Continuous
 62
     7
370
     0
100
AcDbSpline
210
0.0
220
0.0
230
1.0
 70
     8
 71
     3
 72
     9
 73
     5
 74
     0
 42
0.000000001
 43
0.00000001
 40
0.0
 40
0.0
 40
0.0
 40
0.0
 40
0.5213985559211064
 40
1.0
 40
1.0
 40
1.0
 40
1.0
 10
251.3194918297481
 20
102.4777192656485
 30
0.0
 10
251.5988167651314
 20
102.4465528116447
 30
0.0
 10
252.1345392603536
 20
102.3867780891222
 30
0.0
 10
252.6256657929327
 20
102.1295948059336
 30
0.0
 10
252.8607196606505
 20
102.0065065152066
 30
0.0
  0
LINE
  5
11A
330
1F
100
AcDbEntity
  8
0
  6
Continuous
 62
     7
370
     0
100
AcDbLine
 10
250.9642771385
 20
97.3724455311
 30
0.0
 11
251.0403825957
 21
96.826443343
 31
0.0
  0
LINE
  5
11B
330
1F
100
AcDbEntity
  8
0
  6
Continuous
 62
     7
370
     0
100
AcDbLine
 10
250.4151072931
 20
96.5487105498
 30
0.0
 11
250.2652364641
 21
97.3358103617
 31
0.0
  0
SPLINE
  5
11C
330
1F
100
AcDbEntity
  8
0
  6
Continuous
 62
     7
370
     0
100
AcDbSpline
210
0.0
220
0.0
230
1.0
 70
    24
 71
     3
 72
    10
 73
     6
 74
     0
 42
0.000000001
 43
0.00000001
 40
0.0
 40
0.0
 40
0.0
 40
0.0
 40
0.2765306019330255
 40
0.562668270406263
 40
1.0
 40
1.0
 40
1.0
 40
1.0
 10
250.964277138453
 20
97.37244553108913
 30
0.0
 10
250.9032651122139
 20
97.36924802628438
 30
0.0
 10
250.7791214151403
 20
97.36274193080877
 30
0.0
 10
250.5296917798891
 20
97.34966987753788
 30
0.0
 10
250.3648699826385
 20
97.34103193316653
 30
0.0
 10
250.2652364641248
 20
97.33581036171907
 30
0.0
  0
SPLINE
  5
11D
330
1F
100
AcDbEntity
  8
0
  6
Continuous
 62
     7
370
     0
100
AcDbSpline
210
0.0
220
0.0
230
1.0
 70
     8
 71
     3
 72
     9
 73
     5
 74
     0
 42
0.000000001
 43
0.00000001
 40
0.0
 40
0.0
 40
0.0
 40
0.0
 40
0.4786014440788834
 40
1.0
 40
1.0
 40
1.0
 40
1.0
 10
250.105510450475
 20
100.3835642607567
 30
0.0
 10
250.1118113820328
 20
100.6488213931862
 30
0.0
 10
250.1249766819619
 20
101.2030552671353
 30
0.0
 10
250.332419951121
 20
101.7005880795409
 30
0.0
 10
250.4405805720961
 20
101.9600009694526
 30
0.0
  0
LINE
  5
11E
330
1F
100
AcDbEntity
  8
0
  6
Continuous
 62
     7
370
     0
100
AcDbLine
 10
250.2652364641
 20
97.3358103617
 30
0.0
 11
250.1055104505
 21
100.3835642608
 31
0.0
  0
LINE
  5
11F
330
1F
100
AcDbEntity
  8
0
  6
Continuous
 62
     7
370
     0
100
AcDbLine
 10
250.4151072931
 20
96.5487105498
 30
0.0
 11
250.2044246077
 21
96.5376691382
 31
0.0
  0
SPLINE
  5
120
330
1F
100
AcDbEntity
  8
0
  6
Continuous
 62
     7
370
     0
100
AcDbSpline
210
0.0
220
0.0
230
1.0
 70
     8
 71
     3
 72
     9
 73
     5
 74
     0
 42
0.000000001
 43
0.00000001
 40
0.0
 40
0.0
 40
0.0
 40
0.0
 40
0.5402242170821295
 40
1.0
 40
1.0
 40
1.0
 40
1.0
 10
255.5600793711368
 20
94.59333208920359
 30
0.0
 10
255.628749257133
 20
94.81363132605999
 30
0.0
 10
255.7558629329453
 20
95.22142355360263
 30
0.0
 10
255.7548910331598
 20
95.666110223241
 30
0.0
 10
255.7544441771751
 20
95.87056638492713
 30
0.0
  0
LINE
  5
121
330
1F
100
AcDbEntity
  8
0
  6
Continuous
 62
     7
370
     0
100
AcDbLine
 10
255.7544441772
 20
95.8705663849
 30
0.0
 11
256.4534848515
 21
95.9072015543
 31
0.0
  0
SPLINE
  5
122
330
1F
100
AcDbEntity
  8
0
  6
Continuous
 62
     7
370
     0
100
AcDbSpline
210
0.0
220
0.0
230
1.0
 70
     8
 71
     3
 72
     9
 73
     5
 74
     0
 42
0.000000001
 43
0.00000001
 40
0.0
 40
0.0
 40
0.0
 40
0.0
 40
0.5402242170821289
 40
1.0
 40
1.0
 40
1.0
 40
1.0
 10
250.9989159308415
 20
101.6974337258503
 30
0.0
 10
250.9302460448453
 20
101.4771344889939
 30
0.0
 10
250.8031323690331
 20
101.0693422614513
 30
0.0
 10
250.8041042688184
 20
100.6246555918129
 30
0.0
 10
250.8045511248032
 20
100.4201994301268
 30
0.0
  0
LINE
  5
123
330
1F
100
AcDbEntity
  8
0
  6
Continuous
 62
     7
370
     0
100
AcDbLine
 10
250.8045511248
 20
100.4201994301
 30
0.0
 11
250.1055104505
 21
100.3835642608
 31
0.0
  0
LINE
  5
124
330
1F
100
AcDbEntity
  8
0
  6
Continuous
 62
     7
370
     0
100
AcDbLine
 10
252.8607196607
 20
102.0065065152
 30
0.0
 11
252.4897761757
 21
101.4128728479
 31
0.0
  0
SPLINE
  5
125
330
1F
100
AcDbEntity
  8
0
  6
Continuous
 62
     7
370
     0
100
AcDbSpline
210
0.0
220
0.0
230
1.0
 70
     8
 71
     3
 72
     9
 73
     5
 74
     0
 42
0.000000001
 43
0.00000001
 40
0.0
 40
0.0
 40
0.0
 40
0.0
 40
0.4597757829178663
 40
0.9999999999999999
 40
0.9999999999999999
 40
0.9999999999999999
 40
0.9999999999999999
 10
252.4897761756872
 20
101.4128728478971
 30
0.0
 10
252.3111714275107
 20
101.5123859910517
 30
0.0
 10
251.9227108891087
 20
101.7288244091934
 30
0.0
 10
251.504421837583
 20
101.8153498782554
 30
0.0
 10
251.2784519622085
 20
101.862093032037
 30
0.0
  0
LINE
  5
126
330
1F
100
AcDbEntity
  8
0
  6
Continuous
 62
     7
370
     0
100
AcDbLine
 10
253.6982756413
 20
94.2842592998
 30
0.0
 11
254.0692191263
 21
94.8778929672
 31
0.0
  0
SPLINE
  5
127
330
1F
100
AcDbEntity
  8
0
  6
Continuous
 62
     7
370
     0
100
AcDbSpline
210
0.0
220
0.0
230
1.0
 70
     8
 71
     3
 72
     9
 73
     5
 74
     0
 42
0.000000001
 43
0.00000001
 40
0.0
 40
0.0
 40
0.0
 40
0.0
 40
0.4597757829178675
 40
1.0
 40
1.0
 40
1.0
 40
1.0
 10
254.069219126291
 20
94.87789296715684
 30
0.0
 10
254.2478238744675
 20
94.77837982400226
 30
0.0
 10
254.6362844128696
 20
94.56194140586058
 30
0.0
 10
255.0545734643952
 20
94.47541593679857
 30
0.0
 10
255.2805433397698
 20
94.42867278301686
 30
0.0
  0
LINE
  5
128
330
1F
100
AcDbEntity
  8
0
  6
Continuous
 62
     7
370
     0
100
AcDbLine
 10
250.8045511248
 20
100.4201994301
 30
0.0
 11
250.9069106521
 21
100.4255638656
 31
0.0
  0
LINE
  5
129
330
1F
100
AcDbEntity
  8
0
  6
Continuous
 62
     7
370
     0
100
AcDbLine
 10
252.4897761757
 20
101.4128728479
 30
0.0
 11
252.4354594511
 21
101.325947918
 31
0.0
  0
LINE
  5
12A
330
1F
100
AcDbEntity
  8
0
  6
Continuous
 62
     7
370
     0
100
AcDbLine
 10
254.0692191263
 20
94.8778929672
 30
0.0
 11
254.1235358507
 21
94.9648178968
 31
0.0
  0
LINE
  5
12B
330
1F
100
AcDbEntity
  8
0
  6
Continuous
 62
     7
370
     0
100
AcDbLine
 10
255.7544441772
 20
95.8705663849
 30
0.0
 11
255.6520846499
 21
95.8652019494
 31
0.0
  0
LINE
  5
12C
330
1F
100
AcDbEntity
  8
0
  6
Continuous
 62
     7
370
     0
100
AcDbLine
 10
251.4810302117
 20
96.4951728968
 30
0.0
 11
251.5353469363
 21
96.5820978267
 31
0.0
  0
LINE
  5
12D
330
1F
100
AcDbEntity
  8
0
  6
Continuous
 62
     7
370
     0
100
AcDbLine
 10
250.9642771385
 20
97.3724455311
 30
0.0
 11
251.0666366658
 21
97.3778099666
 31
0.0
  0
LINE
  5
12E
330
1F
100
AcDbEntity
  8
0
  6
Continuous
 62
     7
370
     0
100
AcDbLine
 10
255.0779650903
 20
99.7955929182
 30
0.0
 11
255.0236483657
 21
99.7086679884
 31
0.0
  0
LINE
  5
12F
330
1F
100
AcDbEntity
  8
0
  6
Continuous
 62
     7
370
     0
100
AcDbLine
 10
255.5947181635
 20
98.918320284
 30
0.0
 11
255.4923586362
 21
98.9129558484
 31
0.0
  0
LINE
  5
130
330
1F
100
AcDbEntity
  8
0
  6
Continuous
 62
     7
370
     0
100
AcDbLine
 10
255.7544441772
 20
95.8705663849
 30
0.0
 11
255.5947181635
 21
98.918320284
 31
0.0
  0
LINE
  5
131
330
1F
100
AcDbEntity
  8
0
  6
Continuous
 62
     7
370
     0
100
AcDbLine
 10
251.4810302117
 20
96.4951728968
 30
0.0
 11
254.0692191263
 21
94.8778929672
 31
0.0
  0
LINE
  5
132
330
1F
100
AcDbEntity
  8
0
  6
Continuous
 62
     7
370
     0
100
AcDbLine
 10
250.8045511248
 20
100.4201994301
 30
0.0
 11
250.9642771385
 21
97.3724455311
 31
0.0
  0
LINE
  5
133
330
1F
100
AcDbEntity
  8
0
  6
Continuous
 62
     7
370
     0
100
AcDbLine
 10
255.0779650903
 20
99.7955929182
 30
0.0
 11
252.4897761757
 21
101.4128728479
 31
0.0
  0
CIRCLE
  5
134
330
1F
100
AcDbEntity
  8
0
  6
Continuous
 62
     7
370
     0
100
AcDbCircle
 10
253.279497651
 20
98.1453829075
 30
0.0
 40
1.859375000000018
  0
LINE
  5
135
330
1F
100
AcDbEntity
  8
0
  6
Continuous
 62
     7
370
     0
100
AcDbLine
 10
222.5435860213
 20
168.7836828125
 30
0.0
 11
222.5435860213
 21
106.3320477674
 31
0.0
  0
LINE
  5
136
330
1F
100
AcDbEntity
  8
0
  6
Continuous
 62
     7
370
     0
100
AcDbLine
 10
192.2351790512
 20
106.05786529
 30
0.0
 11
192.2351790512
 21
169.05786529
 31
0.0
  0
LINE
  5
137
330
1F
100
AcDbEntity
  8
0
  6
Continuous
 62
     7
370
     0
100
AcDbLine
 10
201.8299231629
 20
127.6484959693
 30
0.0
 11
201.8299231629
 21
107.6571228299
 31
0.0
  0
LINE
  5
138
330
1F
100
AcDbEntity
  8
0
  6
Continuous
 62
     7
370
     0
100
AcDbLine
 10
202.2629358648
 20
128.1697988586
 30
0.0
 11
202.2629358648
 21
107.4893733311
 31
0.0
  0
LINE
  5
139
330
1F
100
AcDbEntity
  8
0
  6
Continuous
 62
     7
370
     0
100
AcDbLine
 10
202.2629358648
 20
167.6263572488
 30
0.0
 11
202.2629358648
 21
146.9459317213
 31
0.0
  0
LINE
  5
13A
330
1F
100
AcDbEntity
  8
0
  6
Continuous
 62
     7
370
     0
100
AcDbLine
 10
201.8299231629
 20
167.4586077501
 30
0.0
 11
201.8299231629
 21
147.4672346107
 31
0.0
  0
LINE
  5
13B
330
1F
100
AcDbEntity
  8
0
  6
Continuous
 62
     7
370
     0
100
AcDbLine
 10
205.2074222376
 20
128.1697988586
 30
0.0
 11
205.2074222376
 21
107.4893733311
 31
0.0
  0
LINE
  5
13C
330
1F
100
AcDbEntity
  8
0
  6
Continuous
 62
     7
370
     0
100
AcDbLine
 10
205.6404349395
 20
127.6484959693
 30
0.0
 11
205.6404349395
 21
107.6571228299
 31
0.0
  0
LINE
  5
13D
330
1F
100
AcDbEntity
  8
0
  6
Continuous
 62
     7
370
     0
100
AcDbLine
 10
205.6404349395
 20
167.4586077501
 30
0.0
 11
205.6404349395
 21
147.4672346107
 31
0.0
  0
LINE
  5
13E
330
1F
100
AcDbEntity
  8
0
  6
Continuous
 62
     7
370
     0
100
AcDbLine
 10
205.2074222376
 20
167.6263572488
 30
0.0
 11
205.2074222376
 21
146.9459317213
 31
0.0
  0
LINE
  5
13F
330
1F
100
AcDbEntity
  8
0
  6
Continuous
 62
     7
370
     0
100
AcDbLine
 10
190.4138587076
 20
132.3716909612
 30
0.0
 11
190.4138587076
 21
142.7440396187
 31
0.0
  0
LINE
  5
140
330
1F
100
AcDbEntity
  8
0
  6
Continuous
 62
     7
370
     0
100
AcDbLine
 10
189.7401390733
 20
131.1701439282
 30
0.0
 11
190.9186667648
 21
131.1553395693
 31
0.0
  0
LINE
  5
141
330
1F
100
AcDbEntity
  8
0
  6
Continuous
 62
     7
370
     0
100
AcDbLine
 10
189.7401390733
 20
143.9455866518
 30
0.0
 11
189.7401390733
 21
131.1701439282
 31
0.0
  0
LINE
  5
142
330
1F
100
AcDbEntity
  8
0
  6
Continuous
 62
     7
370
     0
100
AcDbLine
 10
189.7401390733
 20
143.9455866518
 30
0.0
 11
190.9186667648
 21
143.9603910106
 31
0.0
  0
LINE
  5
143
330
1F
100
AcDbEntity
  8
0
  6
Continuous
 62
     7
370
     0
100
AcDbLine
 10
155.2351790512
 20
131.5035547224
 30
0.0
 11
189.5351790512
 21
131.0726870283
 31
0.0
  0
LINE
  5
144
330
1F
100
AcDbEntity
  8
0
  6
Continuous
 62
     7
370
     0
100
AcDbLine
 10
155.2351790512
 20
143.6121758575
 30
0.0
 11
189.5351790512
 21
144.0430435517
 31
0.0
  0
LWPOLYLINE
  5
145
330
1F
100
AcDbEntity
  8
0
  6
Continuous
 62
     7
370
     0
100
AcDbPolyline
 90
        9
 70
   128
 43
0.0
 10
189.5351790512
 20
131.0726870283
 10
189.5400007433
 20
131.0921416476
 10
189.5523206037
 20
131.1107521192
 10
189.5716651873
 20
131.1278032529
 10
189.5972910925
 20
131.1426397835
 10
189.6282135302
 20
131.1546915511
 10
189.6632441684
 20
131.1634954133
 10
189.7010367993
 20
131.1687130425
 10
189.7401390733
 20
131.1701439282
  0
LWPOLYLINE
  5
146
330
1F
100
AcDbEntity
  8
0
  6
Continuous
 62
     7
370
     0
100
AcDbPolyline
 90
        9
 70
   128
 43
0.0
 10
189.5351790512
 20
144.0430435517
 10
189.5400007433
 20
144.0235889323
 10
189.5523206037
 20
144.0049784608
 10
189.5716651873
 20
143.987927327
 10
189.5972910925
 20
143.9730907965
 10
189.6282135302
 20
143.9610390288
 10
189.6632441684
 20
143.9522351666
 10
189.7010367993
 20
143.9470175374
 10
189.7401390733
 20
143.9455866518
  0
LINE
  5
147
330
1F
100
AcDbEntity
  8
0
  6
Continuous
 62
     7
370
     0
100
AcDbLine
 10
153.7351790512
 20
131.9365674243
 30
0.0
 11
155.2351790512
 21
131.5035547224
 31
0.0
  0
LINE
  5
148
330
1F
100
AcDbEntity
  8
0
  6
Continuous
 62
     7
370
     0
100
AcDbLine
 10
153.7351790512
 20
143.1791631556
 30
0.0
 11
155.2351790512
 21
143.6121758575
 31
0.0
  0
LINE
  5
149
330
1F
100
AcDbEntity
  8
0
  6
Continuous
 62
     7
370
     0
100
AcDbLine
 10
189.7401390733
 20
143.9455866518
 30
0.0
 11
189.7401390733
 21
159.3830502747
 31
0.0
  0
LINE
  5
14A
330
1F
100
AcDbEntity
  8
0
  6
Continuous
 62
     7
370
     0
100
AcDbLine
 10
189.7401390733
 20
115.7326803052
 30
0.0
 11
189.7401390733
 21
131.1701439282
 31
0.0
  0
LINE
  5
14B
330
1F
100
AcDbEntity
  8
0
  6
Continuous
 62
     7
370
     0
100
AcDbLine
 10
191.3402021623
 20
115.6924944021
 30
0.0
 11
191.3402021623
 21
131.1252621893
 31
0.0
  0
LINE
  5
14C
330
1F
100
AcDbEntity
  8
0
  6
Continuous
 62
     7
370
     0
100
AcDbLine
 10
191.3402021623
 20
143.9904683906
 30
0.0
 11
191.3402021623
 21
159.4232361779
 31
0.0
  0
LINE
  5
14D
330
1F
100
AcDbEntity
  8
0
  6
Continuous
 62
     7
370
     0
100
AcDbLine
 10
228.3391409791
 20
166.3809081663
 30
0.0
 11
228.3391409791
 21
106.0592938938
 31
0.0
  0
LINE
  5
14E
330
1F
100
AcDbEntity
  8
0
  6
Continuous
 62
     7
370
     0
100
AcDbLine
 10
251.6446429626
 20
104.1599556309
 30
0.0
 11
251.7648069257
 21
104.1662531573
 31
0.0
  0
LINE
  5
14F
330
1F
100
AcDbEntity
  8
0
  6
Continuous
 62
     7
370
     0
100
AcDbLine
 10
249.9469727535
 20
104.0709845053
 30
0.0
 11
249.8268087903
 21
104.0646869788
 31
0.0
  0
CIRCLE
  5
150
330
1F
100
AcDbEntity
  8
0
  6
HIDDEN
 62
     7
370
     0
100
AcDbCircle
 10
206.7351790512
 20
137.55786529
 30
0.0
 40
2.299999999999997
  0
CIRCLE
  5
151
330
1F
100
AcDbEntity
  8
0
  6
HIDDEN
 62
     7
370
     0
100
AcDbCircle
 10
206.7351790512
 20
137.55786529
 30
0.0
 40
1.98038475772936
  0
CIRCLE
  5
152
330
1F
100
AcDbEntity
  8
0
  6
HIDDEN
 62
     7
370
     0
100
AcDbCircle
 10
253.2269182092
 20
98.2346450868
 30
0.0
 40
1.249999999999991
  0
ARC
  5
153
330
1F
100
AcDbEntity
  8
0
  6
HIDDEN
 62
     7
370
     0
100
AcDbCircle
 10
253.2269182092
 20
98.2346450868
 30
0.0
 40
0.775000000000021
100
AcDbArc
 50
217.2190990517
 51
270.8969256239
  0
ARC
  5
154
330
1F
100
AcDbEntity
  8
0
  6
HIDDEN
 62
     7
370
     0
100
AcDbCircle
 10
253.2269182092
 20
98.2346450868
 30
0.0
 40
0.7750000000000076
100
AcDbArc
 50
285.8436850403
 51
89.6566959982
  0
ARC
  5
155
330
1F
100
AcDbEntity
  8
0
  6
HIDDEN
 62
     7
370
     0
100
AcDbCircle
 10
253.2269182092
 20
98.2346450868
 30
0.0
 40
0.7750000000000087
100
AcDbArc
 50
104.441237792
 51
217.2190990517
  0
CIRCLE
  5
156
330
1F
100
AcDbEntity
  8
0
  6
HIDDEN
 62
     7
370
     0
100
AcDbCircle
 10
253.279497651
 20
98.1453829075
 30
0.0
 40
1.400000000000004
  0
ARC
  5
157
330
1F
100
AcDbEntity
  8
0
  6
HIDDEN
 62
     7
370
     0
100
AcDbCircle
 10
250.2293120806
 20
103.3235704574
 30
0.0
 40
0.1077727450510785
100
AcDbArc
 50
58.0
 51
183.0
  0
LINE
  5
158
330
1F
100
AcDbEntity
  8
0
  6
HIDDEN
 62
     7
370
     0
100
AcDbLine
 10
256.0322023248
 20
99.8246054848
 30
0.0
 11
250.2864229344
 21
103.4149669287
 31
0.0
  0
ARC
  5
159
330
1F
100
AcDbEntity
  8
0
  6
HIDDEN
 62
     7
370
     0
100
AcDbCircle
 10
255.975091471
 20
99.7332090135
 30
0.0
 40
0.1077727450511056
100
AcDbArc
 50
3.0
 51
58.0
  0
LINE
  5
15A
330
1F
100
AcDbEntity
  8
0
  6
HIDDEN
 62
     7
370
     0
100
AcDbLine
 10
250.1216870344
 20
103.3179300677
 30
0.0
 11
250.4762787847
 21
96.5519164119
 31
0.0
  0
ARC
  5
15B
330
1F
100
AcDbEntity
  8
0
  6
HIDDEN
 62
     7
370
     0
100
AcDbCircle
 10
250.5839038309
 20
96.5575568015
 30
0.0
 40
0.1077727450511061
100
AcDbArc
 50
183.0
 51
238.0
  0
LINE
  5
15C
330
1F
100
AcDbEntity
  8
0
  6
HIDDEN
 62
     7
370
     0
100
AcDbLine
 10
256.4373082676
 20
92.9728357473
 30
0.0
 11
256.0827165173
 21
99.7388494032
 31
0.0
  0
LINE
  5
15D
330
1F
100
AcDbEntity
  8
0
  6
HIDDEN
 62
     7
370
     0
100
AcDbLine
 10
250.5267929772
 20
96.4661603303
 30
0.0
 11
256.2725723676
 21
92.8757988864
 31
0.0
  0
ARC
  5
15E
330
1F
100
AcDbEntity
  8
0
  6
HIDDEN
 62
     7
370
     0
100
AcDbCircle
 10
256.3296832213
 20
92.9671953577
 30
0.0
 40
0.1077727450511046
100
AcDbArc
 50
238.0
 51
3.0
  0
SPLINE
  5
15F
330
1F
100
AcDbEntity
  8
0
  6
HIDDEN
 62
     7
370
     0
100
AcDbSpline
210
0.0
220
0.0
230
1.0
 70
     8
 71
     3
 72
    12
 73
     8
 74
     0
 42
0.000000001
 43
0.00000001
 40
0.0
 40
0.0
 40
0.0
 40
0.0
 40
0.5
 40
0.5
 40
0.75
 40
0.75
 40
1.0
 40
1.0
 40
1.0
 40
1.0
 10
190.9186667647583
 20
153.0101332718008
 30
0.0
 10
190.9750729434386
 20
152.962310898141
 30
0.0
 10
191.0452358449104
 20
152.9220400512024
 30
0.0
 10
191.1632465582996
 20
152.9139941827255
 30
0.0
 10
191.203452341895
 20
152.9205567810643
 30
0.0
 10
191.2771730386281
 20
152.9479388755179
 30
0.0
 10
191.3100337604146
 20
152.9677003660483
 30
0.0
 10
191.3402021623439
 20
152.9906330772363
 30
0.0
  0
SPLINE
  5
160
330
1F
100
AcDbEntity
  8
0
  6
HIDDEN
 62
     7
370
     0
100
AcDbSpline
210
0.0
220
0.0
230
1.0
 70
     8
 71
     3
 72
    15
 73
    11
 74
     0
 42
0.000000001
 43
0.00000001
 40
0.0
 40
0.0
 40
0.0
 40
0.0
 40
0.046866112388131
 40
0.0852140953426184
 40
0.1238247142815827
 40
0.1575188340330059
 40
0.2148251734389823
 40
0.3282370648836059
 40
0.7194101623438292
 40
1.0
 40
1.0
 40
1.0
 40
1.0
 10
191.3402021623301
 20
152.9906330772545
 30
0.0
 10
191.347147338633
 20
152.9954850236305
 30
0.0
 10
191.3597753738057
 20
153.0043070530247
 30
0.0
 10
191.3817920487578
 20
153.0129126464967
 30
0.0
 10
191.4020835286876
 20
153.015343821914
 30
0.0
 10
191.4231625137486
 20
153.0119136385748
 30
0.0
 10
191.4494655214532
 20
152.998093380464
 30
0.0
 10
191.4954374895562
 20
152.9411109919131
 30
0.0
 10
191.5216192448145
 20
152.8421392101758
 30
0.0
 10
191.5254063266198
 20
152.7504131128832
 30
0.0
 10
191.526988159456
 20
152.712099878552
 30
0.0
  0
SPLINE
  5
161
330
1F
100
AcDbEntity
  8
0
  6
HIDDEN
 62
     7
370
     0
100
AcDbSpline
210
0.0
220
0.0
230
1.0
 70
     8
 71
     3
 72
    15
 73
    11
 74
     0
 42
0.000000001
 43
0.00000001
 40
0.0
 40
0.0
 40
0.0
 40
0.0
 40
0.4734206200012151
 40
0.6181426678936588
 40
0.7637096809080622
 40
0.8271199629855357
 40
0.8674898066212721
 40
0.9081568841740516
 40
0.9439688590007373
 40
1.0
 40
1.0
 40
1.0
 40
1.0
 10
191.5191776555971
 20
122.3828802543342
 30
0.0
 10
191.5175749060545
 20
122.3212566042986
 30
0.0
 10
191.5154822048996
 20
122.2407949475202
 30
0.0
 10
191.4794109429927
 20
122.1566164695696
 30
0.0
 10
191.4544164386618
 20
122.1213318521135
 30
0.0
 10
191.4253461278344
 20
122.1044796052357
 30
0.0
 10
191.4034816563498
 20
122.1003220415294
 30
0.0
 10
191.3833322533945
 20
122.1025507743712
 30
0.0
 10
191.3610148715279
 20
122.1106950035928
 30
0.0
 10
191.3480883209399
 20
122.1196402413974
 30
0.0
 10
191.3402021623301
 20
122.1250975026869
 30
0.0
  0
SPLINE
  5
162
330
1F
100
AcDbEntity
  8
0
  6
HIDDEN
 62
     7
370
     0
100
AcDbSpline
210
0.0
220
0.0
230
1.0
 70
     8
 71
     3
 72
    12
 73
     8
 74
     0
 42
0.000000001
 43
0.00000001
 40
0.0
 40
0.0
 40
0.0
 40
0.0
 40
0.2500000000000006
 40
0.2500000000000006
 40
0.5000000000000009
 40
0.5000000000000009
 40
1.0
 40
1.0
 40
1.0
 40
1.0
 10
191.3402021623368
 20
122.1250975026953
 30
0.0
 10
191.3100103206196
 20
122.1480480317931
 30
0.0
 10
191.276651351205
 20
122.1680175058173
 30
0.0
 10
191.2035140666244
 20
122.1951186394428
 30
0.0
 10
191.1632721939704
 20
122.2017193800882
 30
0.0
 10
191.0455664170019
 20
122.1937505055815
 30
0.0
 10
190.9751559392225
 20
122.1534900474137
 30
0.0
 10
190.9186667647542
 20
122.1055973081355
 30
0.0
  0
SPLINE
  5
163
330
1F
100
AcDbEntity
  8
0
  6
HIDDEN
 62
     7
370
     0
100
AcDbSpline
210
0.0
220
0.0
230
1.0
 70
     8
 71
     3
 72
    12
 73
     8
 74
     0
 42
0.000000001
 43
0.00000001
 40
0.0
 40
0.0
 40
0.0
 40
0.0
 40
0.2500000000000029
 40
0.2500000000000029
 40
0.5000000000000032
 40
0.5000000000000032
 40
1.0
 40
1.0
 40
1.0
 40
1.0
 10
190.9186667647539
 20
122.1055973081357
 30
0.0
 10
190.8305128270161
 20
122.0308585002816
 30
0.0
 10
190.7701594023874
 20
121.9398779997993
 30
0.0
 10
190.6638974443206
 20
121.7509641770466
 30
0.0
 10
190.6216652777585
 20
121.6544597175061
 30
0.0
 10
190.5105945824413
 20
121.3636919633389
 30
0.0
 10
190.4576578060145
 20
121.1680251487952
 30
0.0
 10
190.4138587076457
 20
120.9739586637289
 30
0.0
  0
SPLINE
  5
164
330
1F
100
AcDbEntity
  8
0
  6
HIDDEN
 62
     7
370
     0
100
AcDbSpline
210
0.0
220
0.0
230
1.0
 70
     8
 71
     3
 72
    12
 73
     8
 74
     0
 42
0.000000001
 43
0.00000001
 40
0.0
 40
0.0
 40
0.0
 40
0.0
 40
0.4999999999999991
 40
0.4999999999999991
 40
0.7499999999999996
 40
0.7499999999999996
 40
1.0
 40
1.0
 40
1.0
 40
1.0
 10
190.4138587076457
 20
115.7877843349678
 30
0.0
 10
190.4576052484823
 20
115.7611901643266
 30
0.0
 10
190.5104896037138
 20
115.7414299390009
 30
0.0
 10
190.62205669105
 20
115.7209789487718
 30
0.0
 10
190.664640287593
 20
115.7157187241154
 30
0.0
 10
190.7695570146748
 20
115.7078359301927
 30
0.0
 10
190.8310906225196
 20
115.7052718050136
 30
0.0
 10
190.9186667647457
 20
115.7030715874939
 30
0.0
  0
SPLINE
  5
165
330
1F
100
AcDbEntity
  8
0
  6
HIDDEN
 62
     7
370
     0
100
AcDbSpline
210
0.0
220
0.0
230
1.0
 70
     8
 71
     3
 72
    12
 73
     8
 74
     0
 42
0.000000001
 43
0.00000001
 40
0.0
 40
0.0
 40
0.0
 40
0.0
 40
0.2500000000000004
 40
0.2500000000000004
 40
0.5000000000000009
 40
0.5000000000000009
 40
1.0
 40
1.0
 40
1.0
 40
1.0
 10
190.9186667647537
 20
159.4126589924458
 30
0.0
 10
190.8299821048973
 20
159.4104309251048
 30
0.0
 10
190.7700636891739
 20
159.4079291410745
 30
0.0
 10
190.6644044618532
 20
159.3999977052385
 30
0.0
 10
190.6217632237382
 20
159.3947055503416
 30
0.0
 10
190.5105738816357
 20
159.3743006098545
 30
0.0
 10
190.4576471995147
 20
159.3545659182676
 30
0.0
 10
190.4138587076457
 20
159.327946244972
 30
0.0
  0
SPLINE
  5
166
330
1F
100
AcDbEntity
  8
0
  6
HIDDEN
 62
     7
370
     0
100
AcDbSpline
210
0.0
220
0.0
230
1.0
 70
     8
 71
     3
 72
    12
 73
     8
 74
     0
 42
0.000000001
 43
0.00000001
 40
0.0
 40
0.0
 40
0.0
 40
0.0
 40
0.4999999999999982
 40
0.4999999999999982
 40
0.7499999999999991
 40
0.7499999999999991
 40
1.0
 40
1.0
 40
1.0
 40
1.0
 10
190.4138587076442
 20
154.1417719162112
 30
0.0
 10
190.4576201839429
 20
153.9478721282491
 30
0.0
 10
190.5105264995959
 20
153.7520157643122
 30
0.0
 10
190.6222376972433
 20
153.4598736178132
 30
0.0
 10
190.6647571408297
 20
153.3631556811153
 30
0.0
 10
190.7698804833971
 20
153.1764312446909
 30
0.0
 10
190.8314464471148
 20
153.0840805364211
 30
0.0
 10
190.9186667647575
 20
153.0101332718015
 30
0.0
  0
CIRCLE
  5
167
330
1F
100
AcDbEntity
  8
0
  6
HIDDEN
 62
     7
370
     0
100
AcDbCircle
 10
176.2351790512
 20
137.55786529
 30
0.0
 40
4.050000000000011
  0
LINE
  5
168
330
1F
100
AcDbEntity
  8
0
  6
HIDDEN
 62
     7
370
     0
100
AcDbLine
 10
155.2654074908
 20
122.2449142471
 30
0.0
 11
155.2654074908
 21
152.8708163329
 31
0.0
  0
LINE
  5
169
330
1F
100
AcDbEntity
  8
0
  6
HIDDEN
 62
     7
370
     0
100
AcDbLine
 10
161.7654074908
 20
123.2114551285
 30
0.0
 11
161.7654074908
 21
151.9042754515
 31
0.0
  0
LINE
  5
16A
330
1F
100
AcDbEntity
  8
0
  6
HIDDEN
 62
     7
370
     0
100
AcDbLine
 10
167.5654074908
 20
123.55786529
 30
0.0
 11
167.5654074908
 21
151.55786529
 31
0.0
  0
LINE
  5
16B
330
1F
100
AcDbEntity
  8
0
  6
HIDDEN
 62
     7
370
     0
100
AcDbLine
 10
160.1654074908
 20
123.55786529
 30
0.0
 11
160.1654074908
 21
151.55786529
 31
0.0
  0
LINE
  5
16C
330
1F
100
AcDbEntity
  8
0
  6
HIDDEN
 62
     7
370
     0
100
AcDbLine
 10
161.1654074908
 20
123.55786529
 30
0.0
 11
161.1654074908
 21
151.55786529
 31
0.0
  0
LINE
  5
16D
330
1F
100
AcDbEntity
  8
0
  6
HIDDEN
 62
     7
370
     0
100
AcDbLine
 10
180.7351790512
 20
124.05786529
 30
0.0
 11
180.7351790512
 21
151.0578652722
 31
0.0
  0
LINE
  5
16E
330
1F
100
AcDbEntity
  8
0
  6
HIDDEN
 62
     7
370
     0
100
AcDbLine
 10
180.2351790512
 20
138.192294167
 30
0.0
 11
180.0117621991
 21
138.8573406712
 31
0.0
  0
LINE
  5
16F
330
1F
100
AcDbEntity
  8
0
  6
HIDDEN
 62
     7
370
     0
100
AcDbLine
 10
176.3601484979
 20
141.5838022182
 30
0.0
 11
175.3364966826
 21
141.4856314413
 31
0.0
  0
LINE
  5
170
330
1F
100
AcDbEntity
  8
0
  6
HIDDEN
 62
     7
370
     0
100
AcDbLine
 10
180.1050199445
 20
136.5231903719
 30
0.0
 11
180.2351790512
 21
136.9234364129
 31
0.0
  0
LINE
  5
171
330
1F
100
AcDbEntity
  8
0
  6
HIDDEN
 62
     7
370
     0
100
AcDbLine
 10
181.9851790512
 20
128.55786529
 30
0.0
 11
181.9851790512
 21
146.55786529
 31
0.0
  0
LINE
  5
172
330
1F
100
AcDbEntity
  8
0
  6
HIDDEN
 62
     7
370
     0
100
AcDbLine
 10
218.7351790512
 20
128.55786529
 30
0.0
 11
218.7351790512
 21
146.55786529
 31
0.0
  0
LINE
  5
173
330
1F
100
AcDbEntity
  8
0
  6
HIDDEN
 62
     7
370
     0
100
AcDbLine
 10
256.0605926699
 20
100.1080178254
 30
0.0
 11
256.0582392433
 21
100.1529238803
 31
0.0
  0
LINE
  5
174
330
1F
100
AcDbEntity
  8
0
  6
HIDDEN
 62
     7
370
     0
100
AcDbLine
 10
256.0605926699
 20
100.1080178254
 30
0.0
 11
251.8392494147
 21
102.7458058495
 31
0.0
  0
LINE
  5
175
330
1F
100
AcDbEntity
  8
0
  6
HIDDEN
 62
     7
370
     0
100
AcDbLine
 10
251.8392494147
 20
102.7458058495
 30
0.0
 11
251.8368959881
 21
102.7907119044
 31
0.0
  0
LINE
  5
176
330
1F
100
AcDbEntity
  8
0
  6
HIDDEN
 62
     7
370
     0
100
AcDbLine
 10
249.8578702612
 20
103.4719988064
 30
0.0
 11
250.2146368539
 21
96.6644866858
 31
0.0
  0
LINE
  5
177
330
1F
100
AcDbEntity
  8
0
  6
HIDDEN
 62
     7
370
     0
100
AcDbLine
 10
250.2146368539
 20
96.6644866858
 30
0.0
 11
250.1765020972
 21
96.6883159265
 31
0.0
  0
LINE
  5
178
330
1F
100
AcDbEntity
  8
0
  6
HIDDEN
 62
     7
370
     0
100
AcDbLine
 10
251.8392494147
 20
102.7458058495
 30
0.0
 11
251.7223637363
 21
102.6769549231
 31
0.0
  0
LINE
  5
179
330
1F
100
AcDbEntity
  8
0
  6
HIDDEN
 62
     7
370
     0
100
AcDbLine
 10
251.7123224494
 20
102.8685540907
 30
0.0
 11
251.7223637363
 21
102.6769549231
 31
0.0
  0
LINE
  5
17A
330
1F
100
AcDbEntity
  8
0
  6
HIDDEN
 62
     7
370
     0
100
AcDbLine
 10
256.0682805302
 20
99.9613247127
 30
0.0
 11
255.4850835659
 21
100.3257466218
 31
0.0
  0
LINE
  5
17B
330
1F
100
AcDbEntity
  8
0
  6
HIDDEN
 62
     7
370
     0
100
AcDbLine
 10
252.787806175
 20
102.011192597
 30
0.0
 11
251.7223637363
 21
102.6769549231
 31
0.0
  0
LINE
  5
17C
330
1F
100
AcDbEntity
  8
0
  6
HIDDEN
 62
     7
370
     0
100
AcDbLine
 10
256.0605926699
 20
100.1080178254
 30
0.0
 11
256.0682805302
 21
99.9613247127
 31
0.0
  0
LINE
  5
17D
330
1F
100
AcDbEntity
  8
0
  6
HIDDEN
 62
     7
370
     0
100
AcDbLine
 10
249.9701739542
 20
103.6282792224
 30
0.0
 11
250.3392103926
 21
96.5866444994
 31
0.0
  0
LINE
  5
17E
330
1F
100
AcDbEntity
  8
0
  6
HIDDEN
 62
     7
370
     0
100
AcDbLine
 10
250.2146368539
 20
96.6644866858
 30
0.0
 11
250.3392103926
 21
96.5866444994
 31
0.0
  0
CIRCLE
  5
17F
330
1F
100
AcDbEntity
  8
0
  6
HIDDEN
 62
     7
370
     0
100
AcDbCircle
 10
253.2269182092
 20
98.2346450868
 30
0.0
 40
1.5
  0
LINE
  5
180
330
1F
100
AcDbEntity
  8
0
  6
HIDDEN
 62
     7
370
     0
100
AcDbLine
 10
256.0210716003
 20
93.0362235689
 30
0.0
 11
256.4189276702
 21
93.2705787042
 31
0.0
  0
LINE
  5
181
330
1F
100
AcDbEntity
  8
0
  6
HIDDEN
 62
     7
370
     0
100
AcDbLine
 10
256.0210716003
 20
93.0362235689
 30
0.0
 11
250.3392103926
 21
96.5866444994
 31
0.0
  0
LINE
  5
182
330
1F
100
AcDbEntity
  8
0
  6
HIDDEN
 62
     7
370
     0
100
AcDbLine
 10
256.4189276702
 20
93.2705787042
 30
0.0
 11
256.0682805302
 21
99.9613247127
 31
0.0
  0
ARC
  5
183
330
1F
100
AcDbEntity
  8
0
  6
HIDDEN
 62
     7
370
     0
100
AcDbCircle
 10
253.2269182092
 20
98.2346450868
 30
0.0
 40
1.025000000000021
100
AcDbArc
 50
270.0
 51
3.3876036742
  0
ARC
  5
184
330
1F
100
AcDbEntity
  8
0
  6
HIDDEN
 62
     7
370
     0
100
AcDbCircle
 10
253.2269182092
 20
98.2346450868
 30
0.0
 40
1.025000000000032
100
AcDbArc
 50
13.0968723799
 51
61.4138598742
  0
ARC
  5
185
330
1F
100
AcDbEntity
  8
0
  6
HIDDEN
 62
     7
370
     0
100
AcDbCircle
 10
253.2269182092
 20
98.2346450868
 30
0.0
 40
1.025000000000013
100
AcDbArc
 50
69.9979217283
 51
182.9513920318
  0
ARC
  5
186
330
1F
100
AcDbEntity
  8
0
  6
HIDDEN
 62
     7
370
     0
100
AcDbCircle
 10
253.2269182092
 20
98.2346450868
 30
0.0
 40
1.025000000000006
100
AcDbArc
 50
192.7918041598
 51
270.0
  0
SPLINE
  5
187
330
1F
100
AcDbEntity
  8
0
  6
HIDDEN
 62
     7
370
     0
100
AcDbSpline
210
0.0
220
0.0
230
1.0
 70
     8
 71
     3
 72
    12
 73
     8
 74
     0
 42
0.000000001
 43
0.00000001
 40
0.0
 40
0.0
 40
0.0
 40
0.0
 40
0.5000000000000004
 40
0.5000000000000004
 40
0.7500000000000001
 40
0.7500000000000001
 40
1.0
 40
1.0
 40
1.0
 40
1.0
 10
232.3353417038149
 20
105.5578652899699
 30
0.0
 10
232.2002798487767
 20
107.343855110353
 30
0.0
 10
232.0558713747539
 20
109.2404300047854
 30
0.0
 10
231.8238478906748
 20
112.2452158683401
 30
0.0
 10
231.7439213882252
 20
113.2736647880247
 30
0.0
 10
231.5784336588237
 20
115.3856920139029
 30
0.0
 10
231.4932479578812
 20
116.4644229542246
 30
0.0
 10
231.406089992605
 20
117.5578652899699
 30
0.0
  0
SPLINE
  5
188
330
1F
100
AcDbEntity
  8
0
  6
HIDDEN
 62
     7
370
     0
100
AcDbSpline
210
0.0
220
0.0
230
1.0
 70
     8
 71
     3
 72
    16
 73
    12
 74
     0
 42
0.000000001
 43
0.00000001
 40
0.0
 40
0.0
 40
0.0
 40
0.0
 40
0.2500000000000001
 40
0.2500000000000001
 40
0.3749999999999999
 40
0.3749999999999999
 40
0.4999999999999998
 40
0.4999999999999998
 40
0.7499999999999999
 40
0.7499999999999999
 40
1.0
 40
1.0
 40
1.0
 40
1.0
 10
190.4138587076457
 20
159.327946244972
 30
0.0
 10
190.2526262301613
 20
159.2299306319173
 30
0.0
 10
190.1321463905216
 20
159.0431946002412
 30
0.0
 10
190.0097658732083
 20
158.6301547926823
 30
0.0
 10
189.9787882128109
 20
158.4701542934494
 30
0.0
 10
189.9371744751829
 20
158.1033486423582
 30
0.0
 10
189.9269385622501
 20
157.9000114897343
 30
0.0
 10
189.926750165194
 20
157.2327242231076
 30
0.0
 10
189.9668948678316
 20
156.7119097592195
 30
0.0
 10
190.1310486227712
 20
155.5145507437418
 30
0.0
 10
190.2526002731807
 20
154.8562810894458
 30
0.0
 10
190.4138587076457
 20
154.141771916211
 30
0.0
  0
SPLINE
  5
189
330
1F
100
AcDbEntity
  8
0
  6
HIDDEN
 62
     7
370
     0
100
AcDbSpline
210
0.0
220
0.0
230
1.0
 70
     8
 71
     3
 72
    16
 73
    12
 74
     0
 42
0.000000001
 43
0.00000001
 40
0.0
 40
0.0
 40
0.0
 40
0.0
 40
0.2499999999999999
 40
0.2499999999999999
 40
0.3750000000000001
 40
0.3750000000000001
 40
0.5000000000000003
 40
0.5000000000000003
 40
0.7500000000000001
 40
0.7500000000000001
 40
1.0
 40
1.0
 40
1.0
 40
1.0
 10
190.4138587076457
 20
120.9739586637289
 30
0.0
 10
190.2526262301613
 20
120.2595645015368
 30
0.0
 10
190.1321463905216
 20
119.6062222388281
 30
0.0
 10
190.0097658732083
 20
118.7179669970242
 30
0.0
 10
189.9787882128108
 20
118.4372864606724
 30
0.0
 10
189.9371744751829
 20
117.9082524708324
 30
0.0
 10
189.9269385622501
 20
117.6649314922539
 30
0.0
 10
189.926750165194
 20
116.9969088017407
 30
0.0
 10
189.9668948678316
 20
116.6332278923212
 30
0.0
 10
190.1310486227712
 20
116.0733370197729
 30
0.0
 10
190.2526002731807
 20
115.8858157276558
 30
0.0
 10
190.4138587076457
 20
115.7877843349678
 30
0.0
  0
LINE
  5
18A
330
1F
100
AcDbEntity
  8
0
  6
HIDDEN
 62
     7
370
     0
100
AcDbLine
 10
191.5351790512
 20
144.5797526157
 30
0.0
 11
191.5351790512
 21
130.5201456237
 31
0.0
  0
LINE
  5
18B
330
1F
100
AcDbEntity
  8
0
  6
HIDDEN
 62
     7
370
     0
100
AcDbLine
 10
229.833877467
 20
137.55786529
 30
0.0
 11
229.833877467
 21
164.5995505868
 31
0.0
  0
SPLINE
  5
18C
330
1F
100
AcDbEntity
  8
0
  6
HIDDEN
 62
     7
370
     0
100
AcDbSpline
210
0.0
220
0.0
230
1.0
 70
     8
 71
     3
 72
     8
 73
     4
 74
     0
 42
0.000000001
 43
0.00000001
 40
0.0000249638557296
 40
0.0000249638557296
 40
0.0000249638557296
 40
0.0000249638557296
 40
0.0049776420541172
 40
0.0049776420541172
 40
0.0049776420541172
 40
0.0049776420541172
 10
155.2351790512054
 20
133.5926543931334
 30
0.0
 10
156.8851552857149
 20
133.5513751553652
 30
0.0
 10
158.53515660546
 20
133.5111534741257
 30
0.0
 10
160.1851790512054
 20
133.4719042368707
 30
0.0
  0
SPLINE
  5
18D
330
1F
100
AcDbEntity
  8
0
  6
HIDDEN
 62
     7
370
     0
100
AcDbSpline
210
0.0
220
0.0
230
1.0
 70
     8
 71
     3
 72
     8
 73
     4
 74
     0
 42
0.000000001
 43
0.00000001
 40
0.0000249631533153
 40
0.0000249631533153
 40
0.0000249631533153
 40
0.0000249631533153
 40
0.0049776413517029
 40
0.0049776413517029
 40
0.0049776413517029
 40
0.0049776413517029
 10
160.1851790512054
 20
141.6438263430692
 30
0.0
 10
158.5351566054599
 20
141.6045771058141
 30
0.0
 10
156.8851552857149
 20
141.5643554245746
 30
0.0
 10
155.2351790512054
 20
141.5230761868065
 30
0.0
  0
SPLINE
  5
18E
330
1F
100
AcDbEntity
  8
0
  6
HIDDEN
 62
     7
370
     0
100
AcDbSpline
210
0.0
220
0.0
230
1.0
 70
     8
 71
     3
 72
     8
 73
     4
 74
     0
 42
0.000000001
 43
0.00000001
 40
0.0
 40
0.0
 40
0.0
 40
0.0
 40
1.0
 40
1.0
 40
1.0
 40
1.0
 10
153.7351790512031
 20
134.6558779569895
 30
0.0
 10
154.2019396625809
 20
134.2405147113665
 30
0.0
 10
154.707687209361
 20
133.8959242820619
 30
0.0
 10
155.2351790512054
 20
133.5926543931334
 30
0.0
  0
SPLINE
  5
18F
330
1F
100
AcDbEntity
  8
0
  6
HIDDEN
 62
     7
370
     0
100
AcDbSpline
210
0.0
220
0.0
230
1.0
 70
     8
 71
     3
 72
     8
 73
     4
 74
     0
 42
0.000000001
 43
0.00000001
 40
0.0
 40
0.0
 40
0.0
 40
0.0
 40
1.0
 40
1.0
 40
1.0
 40
1.0
 10
155.2351790512054
 20
141.5230761868065
 30
0.0
 10
154.7076872093618
 20
141.2198062978784
 30
0.0
 10
154.2019396625826
 20
140.8752158685744
 30
0.0
 10
153.7351790512054
 20
140.4598526229523
 30
0.0
  0
LINE
  5
190
330
1F
100
AcDbEntity
  8
0
  6
HIDDEN
 62
     7
370
     0
100
AcDbLine
 10
160.1851790512
 20
133.4719042369
 30
0.0
 11
160.1851790512
 21
141.6438263431
 31
0.0
  0
SPLINE
  5
191
330
1F
100
AcDbEntity
  8
0
  6
HIDDEN
 62
     7
370
     0
100
AcDbSpline
210
0.0
220
0.0
230
1.0
 70
     8
 71
     3
 72
    24
 73
    20
 74
     0
 42
0.000000001
 43
0.00000001
 40
0.0
 40
0.0
 40
0.0
 40
0.0
 40
0.1249999999999999
 40
0.1249999999999999
 40
0.2499999999999999
 40
0.2499999999999999
 40
0.3749999999999999
 40
0.3749999999999999
 40
0.4374999999999999
 40
0.4374999999999999
 40
0.4999999999999999
 40
0.4999999999999999
 40
0.6249999999999999
 40
0.6249999999999999
 40
0.75
 40
0.75
 40
0.875
 40
0.875
 40
1.0
 40
1.0
 40
1.0
 40
1.0
 10
160.1851790512054
 20
133.4719042368707
 30
0.0
 10
160.4229826834805
 20
133.7709113392008
 30
0.0
 10
160.6530683446917
 20
134.0752491905195
 30
0.0
 10
161.0878217433016
 20
134.7009827279155
 30
0.0
 10
161.2927545355878
 20
135.022207455243
 30
0.0
 10
161.6578564860864
 20
135.6941332259757
 30
0.0
 10
161.819656871878
 20
136.0494484578546
 30
0.0
 10
161.9915170764577
 20
136.5996796792071
 30
0.0
 10
162.0371022681178
 20
136.7860834641876
 30
0.0
 10
162.0995770076927
 20
137.1662179662838
 30
0.0
 10
162.1162481534411
 20
137.3618877585697
 30
0.0
 10
162.1167691966176
 20
137.9403681372441
 30
0.0
 10
162.0523268957309
 20
138.3182799762129
 30
0.0
 10
161.8224778023576
 20
139.0602480013114
 30
0.0
 10
161.6639571246945
 20
139.4089634614723
 30
0.0
 10
161.2997227947943
 20
140.0820558592055
 30
0.0
 10
161.0929865547307
 20
140.4070083464471
 30
0.0
 10
160.6550486089904
 20
141.0379321569089
 30
0.0
 10
160.4237758817108
 20
141.3438218972495
 30
0.0
 10
160.1851790512055
 20
141.643826343069
 30
0.0
  0
SPLINE
  5
192
330
1F
100
AcDbEntity
  8
0
  6
HIDDEN
 62
     7
370
     0
100
AcDbSpline
210
0.0
220
0.0
230
1.0
 70
     8
 71
     3
 72
     9
 73
     5
 74
     0
 42
0.000000001
 43
0.00000001
 40
0.0
 40
0.0
 40
0.0
 40
0.0
 40
0.5373381360145836
 40
0.9999999999999999
 40
0.9999999999999999
 40
0.9999999999999999
 40
0.9999999999999999
 10
173.0463404799675
 20
140.2038768400273
 30
0.0
 10
173.3454141291463
 20
140.4912142841484
 30
0.0
 10
173.9019978315371
 20
141.0259566090694
 30
0.0
 10
174.6352134519825
 20
141.2634094550864
 30
0.0
 10
174.974444357641
 20
141.3732698314332
 30
0.0
  0
SPLINE
  5
193
330
1F
100
AcDbEntity
  8
0
  6
HIDDEN
 62
     7
370
     0
100
AcDbSpline
210
0.0
220
0.0
230
1.0
 70
     8
 71
     3
 72
    17
 73
    13
 74
     0
 42
0.000000001
 43
0.00000001
 40
0.0
 40
0.0
 40
0.0
 40
0.0
 40
0.0207454267600039
 40
0.1433563279330457
 40
0.2656472977364943
 40
0.3832836958021108
 40
0.4926771429014346
 40
0.5951586951342639
 40
0.6963638765270906
 40
0.8019759863842464
 40
0.9149478985498167
 40
1.0
 40
1.0
 40
1.0
 40
1.0
 10
176.5611137457039
 20
141.5864681199288
 30
0.0
 10
176.6474900826716
 20
141.5933633955693
 30
0.0
 10
177.2443731755692
 20
141.6410115547202
 30
0.0
 10
178.3311048927274
 20
141.2414892282135
 30
0.0
 10
179.5878106633176
 20
140.3939507508023
 30
0.0
 10
180.4275698091485
 20
139.160782609683
 30
0.0
 10
180.7568368487434
 20
137.7987971854919
 30
0.0
 10
180.6027202404002
 20
136.4773653091008
 30
0.0
 10
180.0351992776635
 20
135.2949260145812
 30
0.0
 10
179.0961557242788
 20
134.334871002152
 30
0.0
 10
177.968428153615
 20
133.6911797485312
 30
0.0
 10
177.1426941415174
 20
133.6002200991512
 30
0.0
 10
176.7880380991241
 20
133.5611525679681
 30
0.0
  0
SPLINE
  5
194
330
1F
100
AcDbEntity
  8
0
  6
HIDDEN
 62
     7
370
     0
100
AcDbSpline
210
0.0
220
0.0
230
1.0
 70
     8
 71
     3
 72
    13
 73
     9
 74
     0
 42
0.000000001
 43
0.00000001
 40
0.0
 40
0.0
 40
0.0
 40
0.0
 40
0.0710142487275136
 40
0.2845446372516953
 40
0.485979679446818
 40
0.6752848579245586
 40
0.8594836789677599
 40
1.0
 40
1.0
 40
1.0
 40
1.0
 10
173.9422757114879
 20
134.2366074405697
 30
0.0
 10
173.7951818275072
 20
134.3105229663066
 30
0.0
 10
173.2057962237838
 20
134.6066926341544
 30
0.0
 10
172.4946760830619
 20
135.5394564457313
 30
0.0
 10
171.9817973846281
 20
136.8527626361708
 30
0.0
 10
171.9877824997825
 20
138.2091190167813
 30
0.0
 10
172.3763469001184
 20
139.3594588656274
 30
0.0
 10
172.8439787731157
 20
139.9488328101511
 30
0.0
 10
173.0463404799675
 20
140.2038768400273
 30
0.0
  0
CIRCLE
  5
195
330
1F
100
AcDbEntity
  8
0
  6
HIDDEN
 62
     7
370
     0
100
AcDbCircle
 10
203.7351790512
 20
137.55786529
 30
0.0
 40
2.0
  0
LINE
  5
196
330
1F
100
AcDbEntity
  8
0
  6
HIDDEN
 62
     7
370
     0
100
AcDbLine
 10
231.4060899926
 20
117.55786529
 30
0.0
 11
255.1460849154
 21
117.55786529
 31
0.0
  0
SPLINE
  5
197
330
1F
100
AcDbEntity
  8
0
  6
HIDDEN
 62
     7
370
     0
100
AcDbSpline
210
0.0
220
0.0
230
1.0
 70
     8
 71
     3
 72
    10
 73
     6
 74
     0
 42
0.000000001
 43
0.00000001
 40
0.0
 40
0.0
 40
0.0
 40
0.0
 40
0.5
 40
0.5
 40
1.0
 40
1.0
 40
1.0
 40
1.0
 10
231.406089992605
 20
117.5578652899699
 30
0.0
 10
231.0271563087988
 20
120.2261720617828
 30
0.0
 10
230.7021393765551
 20
122.8981089467221
 30
0.0
 10
230.1990699409182
 20
128.2518775542313
 30
0.0
 10
230.0217070264835
 20
130.9337557055243
 30
0.0
 10
229.9337778895155
 20
133.621655264267
 30
0.0
  0
SPLINE
  5
198
330
1F
100
AcDbEntity
  8
0
  6
HIDDEN
 62
     7
370
     0
100
AcDbSpline
210
0.0
220
0.0
230
1.0
 70
     8
 71
     3
 72
    10
 73
     6
 74
     0
 42
0.000000001
 43
0.00000001
 40
0.0
 40
0.0
 40
0.0
 40
0.0
 40
0.4999999999999999
 40
0.4999999999999999
 40
1.0
 40
1.0
 40
1.0
 40
1.0
 10
229.9337778895155
 20
133.621655264267
 30
0.0
 10
229.9123183970482
 20
134.2776489692303
 30
0.0
 10
229.8857891447574
 20
134.9335991393087
 30
0.0
 10
229.8463753898377
 20
136.2456166492383
 30
0.0
 10
229.8338774670108
 20
136.9016873087157
 30
0.0
 10
229.8338774670108
 20
137.5578652899699
 30
0.0
  0
CIRCLE
  5
199
330
1F
100
AcDbEntity
  8
0
  6
HIDDEN
 62
     7
370
     0
100
AcDbCircle
 10
253.2269182092
 20
98.2346450868
 30
0.0
 40
1.170828554429918
  0
LINE
  5
19A
330
1F
100
AcDbEntity
  8
0
  6
HIDDEN
 62
     7
370
     0
100
AcDbLine
 10
191.7351790512
 20
113.30786529
 30
0.0
 11
191.82807227
 21
113.4007585088
 31
0.0
  0
LINE
  5
19B
330
1F
100
AcDbEntity
  8
0
  6
HIDDEN
 62
     7
370
     0
100
AcDbLine
 10
191.82807227
 20
161.7149720712
 30
0.0
 11
191.7351790512
 21
161.80786529
 31
0.0
  0
ARC
  5
19C
330
1F
100
AcDbEntity
  8
0
  6
HIDDEN
 62
     7
370
     0
100
AcDbCircle
 10
191.1209654888
 20
114.10786529
 30
0.0
 40
1.0
100
AcDbArc
 50
315.0
 51
0.0
  0
ARC
  5
19D
330
1F
100
AcDbEntity
  8
0
  6
HIDDEN
 62
     7
370
     0
100
AcDbCircle
 10
191.1209654888
 20
114.10786529
 30
0.0
 40
1.00000000000001
100
AcDbArc
 50
0.0
 51
52.1052014664
  0
ARC
  5
19E
330
1F
100
AcDbEntity
  8
0
  6
HIDDEN
 62
     7
370
     0
100
AcDbCircle
 10
191.1209654888
 20
161.00786529
 30
0.0
 40
1.000000000000008
100
AcDbArc
 50
351.8087250651
 51
45.0
  0
ARC
  5
19F
330
1F
100
AcDbEntity
  8
0
  6
HIDDEN
 62
     7
370
     0
100
AcDbCircle
 10
191.1209654888
 20
161.00786529
 30
0.0
 40
1.000000000000002
100
AcDbArc
 50
307.8947985336
 51
351.8087250651
  0
LINE
  5
1A0
330
1F
100
AcDbEntity
  8
0
  6
HIDDEN
 62
     7
370
     0
100
AcDbLine
 10
192.1209654888
 20
114.10786529
 30
0.0
 11
192.1209654888
 21
161.00786529
 31
0.0
  0
LINE
  5
1A1
330
1F
100
AcDbEntity
  8
0
  6
HIDDEN
 62
     7
370
     0
100
AcDbLine
 10
219.0885350382
 20
129.130569711
 30
0.0
 11
208.0731085145
 21
139.0444535825
 31
0.0
  0
LINE
  5
1A2
330
1F
100
AcDbEntity
  8
0
  6
HIDDEN
 62
     7
370
     0
100
AcDbLine
 10
205.397249588
 20
136.0712769975
 30
0.0
 11
219.4435398043
 21
123.4296158027
 31
0.0
  0
LINE
  5
1A3
330
1F
100
AcDbEntity
  8
0
  6
HIDDEN
 62
     7
370
     0
100
AcDbLine
 10
153.7351790512
 20
121.3614364455
 30
0.0
 11
155.2654074908
 21
122.2449142471
 31
0.0
  0
LINE
  5
1A4
330
1F
100
AcDbEntity
  8
0
  6
HIDDEN
 62
     7
370
     0
100
AcDbLine
 10
155.2654074908
 20
152.8708163329
 30
0.0
 11
153.7351790512
 21
153.7542941344
 31
0.0
  0
ARC
  5
1A5
330
1F
100
AcDbEntity
  8
0
  6
HIDDEN
 62
     7
370
     0
100
AcDbCircle
 10
164.7369803661
 20
123.55786529
 30
0.0
 40
2.000000000000014
100
AcDbArc
 50
270.0
 51
315.0
  0
ARC
  5
1A6
330
1F
100
AcDbEntity
  8
0
  6
HIDDEN
 62
     7
370
     0
100
AcDbCircle
 10
164.7369803661
 20
151.55786529
 30
0.0
 40
2.000000000000028
100
AcDbArc
 50
45.0
 51
90.0
  0
LINE
  5
1A7
330
1F
100
AcDbEntity
  8
0
  6
HIDDEN
 62
     7
370
     0
100
AcDbLine
 10
163.7351790512
 20
121.55786529
 30
0.0
 11
164.7369803661
 21
121.55786529
 31
0.0
  0
LINE
  5
1A8
330
1F
100
AcDbEntity
  8
0
  6
HIDDEN
 62
     7
370
     0
100
AcDbLine
 10
164.7369803661
 20
153.55786529
 30
0.0
 11
163.7351790512
 21
153.55786529
 31
0.0
  0
ARC
  5
1A9
330
1F
100
AcDbEntity
  8
0
  6
HIDDEN
 62
     7
370
     0
100
AcDbCircle
 10
163.7351790512
 20
123.55786529
 30
0.0
 40
2.0
100
AcDbArc
 50
189.9742217944
 51
270.0
  0
ARC
  5
1AA
330
1F
100
AcDbEntity
  8
0
  6
HIDDEN
 62
     7
370
     0
100
AcDbCircle
 10
163.7351790512
 20
151.55786529
 30
0.0
 40
2.000000000000004
100
AcDbArc
 50
90.0
 51
170.0257782056
  0
LINE
  5
1AB
330
1F
100
AcDbEntity
  8
0
  6
HIDDEN
 62
     7
370
     0
100
AcDbLine
 10
166.1511939285
 20
122.1436517276
 30
0.0
 11
167.5654074908
 21
123.55786529
 31
0.0
  0
LINE
  5
1AC
330
1F
100
AcDbEntity
  8
0
  6
HIDDEN
 62
     7
370
     0
100
AcDbLine
 10
167.5654074908
 20
151.55786529
 30
0.0
 11
166.1511939285
 21
152.9720788523
 31
0.0
  0
LINE
  5
1AD
330
1F
100
AcDbEntity
  8
0
  6
HIDDEN
 62
     7
370
     0
100
AcDbLine
 10
155.2654074908
 20
122.2449142471
 30
0.0
 11
160.1654074908
 21
123.55786529
 31
0.0
  0
LINE
  5
1AE
330
1F
100
AcDbEntity
  8
0
  6
HIDDEN
 62
     7
370
     0
100
AcDbLine
 10
160.1654074908
 20
151.55786529
 30
0.0
 11
155.2654074908
 21
152.8708163329
 31
0.0
  0
LINE
  5
1AF
330
1F
100
AcDbEntity
  8
0
  6
HIDDEN
 62
     7
370
     0
100
AcDbLine
 10
161.7654074908
 20
151.9042754515
 30
0.0
 11
161.1654074908
 21
151.55786529
 31
0.0
  0
LINE
  5
1B0
330
1F
100
AcDbEntity
  8
0
  6
HIDDEN
 62
     7
370
     0
100
AcDbLine
 10
161.1654074908
 20
123.55786529
 30
0.0
 11
161.7654074908
 21
123.2114551285
 31
0.0
  0
ARC
  5
1B1
330
1F
100
AcDbEntity
  8
0
  6
HIDDEN
 62
     7
370
     0
100
AcDbCircle
 10
180.2351790512
 20
124.05786529
 30
0.0
 40
0.5
100
AcDbArc
 50
270.0
 51
0.0
  0
ARC
  5
1B2
330
1F
100
AcDbEntity
  8
0
  6
HIDDEN
 62
     7
370
     0
100
AcDbCircle
 10
180.2351790512
 20
151.05786529
 30
0.0
 40
0.5000000000000284
100
AcDbArc
 50
0.0
 51
90.0
  0
LINE
  5
1B3
330
1F
100
AcDbEntity
  8
0
  6
HIDDEN
 62
     7
370
     0
100
AcDbLine
 10
167.5654074908
 20
123.55786529
 30
0.0
 11
180.2351790512
 21
123.55786529
 31
0.0
  0
LINE
  5
1B4
330
1F
100
AcDbEntity
  8
0
  6
HIDDEN
 62
     7
370
     0
100
AcDbLine
 10
180.2351790512
 20
151.55786529
 30
0.0
 11
167.5654074908
 21
151.55786529
 31
0.0
  0
LINE
  5
1B5
330
1F
100
AcDbEntity
  8
0
  6
HIDDEN
 62
     7
370
     0
100
AcDbLine
 10
160.1654074908
 20
123.55786529
 30
0.0
 11
161.1654074908
 21
123.55786529
 31
0.0
  0
LINE
  5
1B6
330
1F
100
AcDbEntity
  8
0
  6
HIDDEN
 62
     7
370
     0
100
AcDbLine
 10
161.1654074908
 20
151.55786529
 30
0.0
 11
160.1654074908
 21
151.55786529
 31
0.0
  0
LINE
  5
1B7
330
1F
100
AcDbEntity
  8
0
  6
HIDDEN
 62
     7
370
     0
100
AcDbLine
 10
180.7351790512
 20
127.30786529
 30
0.0
 11
181.9851790512
 21
128.55786529
 31
0.0
  0
LINE
  5
1B8
330
1F
100
AcDbEntity
  8
0
  6
HIDDEN
 62
     7
370
     0
100
AcDbLine
 10
181.9851790512
 20
146.55786529
 30
0.0
 11
180.7351790512
 21
147.80786529
 31
0.0
  0
LINE
  5
1B9
330
1F
100
AcDbEntity
  8
0
  6
HIDDEN
 62
     7
370
     0
100
AcDbLine
 10
218.7351790512
 20
128.55786529
 30
0.0
 11
222.0109111596
 21
137.55786529
 31
0.0
  0
LINE
  5
1BA
330
1F
100
AcDbEntity
  8
0
  6
HIDDEN
 62
     7
370
     0
100
AcDbLine
 10
222.0109111596
 20
137.55786529
 30
0.0
 11
218.7351790512
 21
146.55786529
 31
0.0
  0
LINE
  5
1BB
330
1F
100
AcDbEntity
  8
0
  6
HIDDEN
 62
     7
370
     0
100
AcDbLine
 10
181.9851790512
 20
128.55786529
 30
0.0
 11
218.7351790512
 21
128.55786529
 31
0.0
  0
LINE
  5
1BC
330
1F
100
AcDbEntity
  8
0
  6
HIDDEN
 62
     7
370
     0
100
AcDbLine
 10
218.7351790512
 20
146.55786529
 30
0.0
 11
181.9851790512
 21
146.55786529
 31
0.0
  0
CIRCLE
  5
1BD
330
1F
100
AcDbEntity
  8
0
  6
HIDDEN
 62
     7
370
     0
100
AcDbCircle
 10
253.2269182092
 20
98.2346450868
 30
0.0
 40
1.211020933294604
  0
LINE
  5
1BE
330
1F
100
AcDbEntity
  8
0
  6
HIDDEN
 62
     7
370
     0
100
AcDbLine
 10
256.1283139009
 20
92.6449370811
 30
0.0
 11
256.1177155156
 21
92.6279761192
 31
0.0
  0
LINE
  5
1BF
330
1F
100
AcDbEntity
  8
0
  6
HIDDEN
 62
     7
370
     0
100
AcDbLine
 10
256.7091624445
 20
92.987083021
 30
0.0
 11
256.7291350352
 21
92.9881297402
 31
0.0
  0
LINE
  5
1C0
330
1F
100
AcDbEntity
  8
0
  6
HIDDEN
 62
     7
370
     0
100
AcDbLine
 10
250.5267929772
 20
96.4661603303
 30
0.0
 11
250.3719361253
 21
96.2183375631
 31
0.0
  0
LINE
  5
1C1
330
1F
100
AcDbEntity
  8
0
  6
HIDDEN
 62
     7
370
     0
100
AcDbLine
 10
250.4762787847
 20
96.5519164119
 30
0.0
 11
250.184452017
 21
96.536622419
 31
0.0
  0
LINE
  5
1C2
330
1F
100
AcDbEntity
  8
0
  6
HIDDEN
 62
     7
370
     0
100
AcDbLine
 10
256.0827165173
 20
99.7388494032
 30
0.0
 11
256.3745432849
 21
99.754143396
 31
0.0
  0
LINE
  5
1C3
330
1F
100
AcDbEntity
  8
0
  6
HIDDEN
 62
     7
370
     0
100
AcDbLine
 10
256.0322023248
 20
99.8246054848
 30
0.0
 11
256.1870591767
 21
100.072428252
 31
0.0
  0
LINE
  5
1C4
330
1F
100
AcDbEntity
  8
0
  6
HIDDEN
 62
     7
370
     0
100
AcDbLine
 10
250.4306814011
 20
103.6458287339
 30
0.0
 11
250.4412797863
 21
103.6627896959
 31
0.0
  0
LINE
  5
1C5
330
1F
100
AcDbEntity
  8
0
  6
HIDDEN
 62
     7
370
     0
100
AcDbLine
 10
249.8498328574
 20
103.303682794
 30
0.0
 11
249.8298602667
 21
103.3026360749
 31
0.0
  0
LINE
  5
1C6
330
1F
100
AcDbEntity
  8
0
  6
HIDDEN
 62
     7
370
     0
100
AcDbLine
 10
228.9678520632
 20
165.631639473
 30
0.0
 11
228.9678520632
 21
106.0592938938
 31
0.0
  0
LINE
  5
1C7
330
1F
100
AcDbEntity
  8
0
  6
HIDDEN
 62
     7
370
     0
100
AcDbLine
 10
191.82807227
 20
161.7149720712
 30
0.0
 11
191.82807227
 21
113.4007585088
 31
0.0
  0
LINE
  5
1C8
330
1F
100
AcDbEntity
  8
0
  6
HIDDEN
 62
     7
370
     0
100
AcDbLine
 10
190.4138587076
 20
120.9739586637
 30
0.0
 11
190.4138587076
 21
115.787784335
 31
0.0
  0
LINE
  5
1C9
330
1F
100
AcDbEntity
  8
0
  6
HIDDEN
 62
     7
370
     0
100
AcDbLine
 10
190.4138587076
 20
159.327946245
 30
0.0
 11
190.4138587076
 21
154.1417719162
 31
0.0
  0
LINE
  5
1CA
330
1F
100
AcDbEntity
  8
0
  6
HIDDEN
 62
     7
370
     0
100
AcDbLine
 10
164.7369803661
 20
153.55786529
 30
0.0
 11
164.7369803661
 21
121.55786529
 31
0.0
  0
LINE
  5
1CB
330
1F
100
AcDbEntity
  8
0
  6
HIDDEN
 62
     7
370
     0
100
AcDbLine
 10
166.1511939285
 20
152.9720788523
 30
0.0
 11
166.1511939285
 21
122.1436517276
 31
0.0
  0
LINE
  5
1CC
330
1F
100
AcDbEntity
  8
0
  6
HIDDEN
 62
     7
370
     0
100
AcDbLine
 10
163.7351790512
 20
153.55786529
 30
0.0
 11
163.7351790512
 21
121.55786529
 31
0.0
  0
LINE
  5
1CD
330
1F
100
AcDbEntity
  8
0
  6
HIDDEN
 62
     7
370
     0
100
AcDbLine
 10
180.2351790512
 20
136.9234364129
 30
0.0
 11
180.2351790512
 21
123.55786529
 31
0.0
  0
LINE
  5
1CE
330
1F
100
AcDbEntity
  8
0
  6
HIDDEN
 62
     7
370
     0
100
AcDbLine
 10
180.2351790512
 20
138.192294167
 30
0.0
 11
180.2351790512
 21
151.538500799
 31
0.0
  0
LINE
  5
1CF
330
1F
100
AcDbEntity
  8
0
  6
HIDDEN
 62
     7
370
     0
100
AcDbLine
 10
229.9337778895
 20
133.6216552643
 30
0.0
 11
229.9337778895
 21
105.55786529
 31
0.0
  0
LWPOLYLINE
  5
1D0
330
1F
100
AcDbEntity
  8
0
  6
HIDDEN
 62
     7
370
     0
100
AcDbPolyline
 90
        9
 70
   128
 43
0.0
 10
189.5351790512
 20
153.0927858128
 10
189.5400007433
 20
153.0733311935
 10
189.5523206037
 20
153.054720722
 10
189.5716651873
 20
153.0376695882
 10
189.5972910925
 20
153.0228330577
 10
189.6282135302
 20
153.01078129
 10
189.6632441684
 20
153.0019774278
 10
189.7010367993
 20
152.9967597986
 10
189.7401390733
 20
152.9953289129
  0
LINE
  5
1D1
330
1F
100
AcDbEntity
  8
0
  6
HIDDEN
 62
     7
370
     0
100
AcDbLine
 10
189.7401390733
 20
159.3830502747
 30
0.0
 11
189.7401390733
 21
152.9953289129
 31
0.0
  0
LINE
  5
1D2
330
1F
100
AcDbEntity
  8
0
  6
HIDDEN
 62
     7
370
     0
100
AcDbLine
 10
155.2351790512
 20
152.6619181187
 30
0.0
 11
189.5351790512
 21
153.0927858128
 31
0.0
  0
LINE
  5
1D3
330
1F
100
AcDbEntity
  8
0
  6
HIDDEN
 62
     7
370
     0
100
AcDbLine
 10
153.7351790512
 20
152.2289054168
 30
0.0
 11
155.2351790512
 21
152.6619181187
 31
0.0
  0
LINE
  5
1D4
330
1F
100
AcDbEntity
  8
0
  6
HIDDEN
 62
     7
370
     0
100
AcDbLine
 10
153.7351790512
 20
122.8868251631
 30
0.0
 11
155.2351790512
 21
122.4538124612
 31
0.0
  0
LINE
  5
1D5
330
1F
100
AcDbEntity
  8
0
  6
HIDDEN
 62
     7
370
     0
100
AcDbLine
 10
189.7401390733
 20
152.9953289129
 30
0.0
 11
190.9186667648
 21
153.0101332718
 31
0.0
  0
LINE
  5
1D6
330
1F
100
AcDbEntity
  8
0
  6
HIDDEN
 62
     7
370
     0
100
AcDbLine
 10
189.7401390733
 20
122.120401667
 30
0.0
 11
189.7401390733
 21
115.7326803052
 31
0.0
  0
LWPOLYLINE
  5
1D7
330
1F
100
AcDbEntity
  8
0
  6
HIDDEN
 62
     7
370
     0
100
AcDbPolyline
 90
        9
 70
   128
 43
0.0
 10
189.5351790512
 20
122.0229447671
 10
189.5400007433
 20
122.0423993864
 10
189.5523206037
 20
122.061009858
 10
189.5716651873
 20
122.0780609918
 10
189.5972910925
 20
122.0928975223
 10
189.6282135302
 20
122.1049492899
 10
189.6632441684
 20
122.1137531521
 10
189.7010367993
 20
122.1189707813
 10
189.7401390733
 20
122.120401667
  0
LINE
  5
1D8
330
1F
100
AcDbEntity
  8
0
  6
HIDDEN
 62
     7
370
     0
100
AcDbLine
 10
155.2351790512
 20
122.4538124612
 30
0.0
 11
189.5351790512
 21
122.0229447671
 31
0.0
  0
LINE
  5
1D9
330
1F
100
AcDbEntity
  8
0
  6
HIDDEN
 62
     7
370
     0
100
AcDbLine
 10
189.7401390733
 20
122.120401667
 30
0.0
 11
190.9186667648
 21
122.1055973081
 31
0.0
  0
LINE
  5
1DA
330
1F
100
AcDbEntity
  8
0
  6
HIDDEN
 62
     7
370
     0
100
AcDbLine
 10
202.2629358648
 20
107.4893733311
 30
0.0
 11
202.2629358648
 21
128.1697988586
 31
0.0
  0
LINE
  5
1DB
330
1F
100
AcDbEntity
  8
0
  6
HIDDEN
 62
     7
370
     0
100
AcDbLine
 10
205.2074222376
 20
107.4893733311
 30
0.0
 11
205.2074222376
 21
128.1697988586
 31
0.0
  0
LINE
  5
1DC
330
1F
100
AcDbEntity
  8
0
  6
HIDDEN
 62
     7
370
     0
100
AcDbLine
 10
205.2074222376
 20
146.9459317213
 30
0.0
 11
205.2074222376
 21
167.6263572488
 31
0.0
  0
LINE
  5
1DD
330
1F
100
AcDbEntity
  8
0
  6
HIDDEN
 62
     7
370
     0
100
AcDbLine
 10
202.2629358648
 20
146.9459317213
 30
0.0
 11
202.2629358648
 21
167.6263572488
 31
0.0
  0
LINE
  5
1DE
330
1F
100
AcDbEntity
  8
0
  6
HIDDEN
 62
     7
370
     0
100
AcDbLine
 10
201.8299231629
 20
107.6571228299
 30
0.0
 11
201.8299231629
 21
127.6484959693
 31
0.0
  0
LINE
  5
1DF
330
1F
100
AcDbEntity
  8
0
  6
HIDDEN
 62
     7
370
     0
100
AcDbLine
 10
205.6404349395
 20
107.6571228299
 30
0.0
 11
205.6404349395
 21
127.6484959693
 31
0.0
  0
LINE
  5
1E0
330
1F
100
AcDbEntity
  8
0
  6
HIDDEN
 62
     7
370
     0
100
AcDbLine
 10
205.6404349395
 20
147.4672346107
 30
0.0
 11
205.6404349395
 21
167.4586077501
 31
0.0
  0
LINE
  5
1E1
330
1F
100
AcDbEntity
  8
0
  6
HIDDEN
 62
     7
370
     0
100
AcDbLine
 10
201.8299231629
 20
147.4672346107
 30
0.0
 11
201.8299231629
 21
167.4586077501
 31
0.0
  0
LINE
  5
1E2
330
1F
100
AcDbEntity
  8
0
  6
HIDDEN
 62
     7
370
     0
100
AcDbLine
 10
191.3402021623
 20
152.9906330773
 30
0.0
 11
191.3402021623
 21
122.1250975027
 31
0.0
  0
LINE
  5
1E3
330
1F
100
AcDbEntity
  8
0
  6
HIDDEN
 62
     7
370
     0
100
AcDbLine
 10
189.7401390733
 20
152.9953289129
 30
0.0
 11
189.7401390733
 21
122.120401667
 31
0.0
  0
LINE
  5
1E4
330
1F
100
AcDbEntity
  8
0
  6
HIDDEN
 62
     7
370
     0
100
AcDbLine
 10
229.833877467
 20
137.55786529
 30
0.0
 11
252.524545626
 21
137.55786529
 31
0.0
  0
LINE
  5
1E5
330
1F
100
AcDbEntity
  8
VERMASSUNG
  6
CENTERX2
100
AcDbLine
 10
239.3379179709
 20
92.55786529
 30
0.0
 11
256.7351790512
 21
92.55786529
 31
0.0
  0
LINE
  5
1E6
330
1F
100
AcDbEntity
  8
VERMASSUNG
  6
CENTERX2
100
AcDbLine
 10
256.7351790512
 20
92.55786529
 30
0.0
 11
256.7351790512
 21
137.55786529
 31
0.0
  0
DIMENSION
  5
1E7
330
1F
100
AcDbEntity
  8
VERMASSUNG
100
AcDbDimension
  2
_D
 10
191.7351790512
 20
176.4052227427
 30
0.0
 11
224.2351790512
 21
176.4052227427
 31
0.0
 70
   160
  1
<>
 71
     2
 42
-1.0
  3
SLDDIMSTYLE0
100
AcDbAlignedDimension
 13
256.7351790512
 23
137.55786529
 33
0.0
 14
191.7351790512
 24
168.55786529
 34
0.0
100
AcDbRotatedDimension
  0
DIMENSION
  5
1F2
330
1F
100
AcDbEntity
  8
VERMASSUNG
100
AcDbDimension
  2
_D_1
 10
153.7351790512
 20
181.1044551188
 30
0.0
 11
205.2351790512
 21
181.1044551188
 31
0.0
 70
   160
  1
<>
 71
     2
 42
-1.0
  3
SLDDIMSTYLE0
100
AcDbAlignedDimension
 13
256.7351790512
 23
137.55786529
 33
0.0
 14
153.7351790512
 24
157.8502032825
 34
0.0
100
AcDbRotatedDimension
  0
DIMENSION
  5
1FC
330
1F
100
AcDbEntity
  8
VERMASSUNG
100
AcDbDimension
  2
_D_2
 10
273.8740230638
 20
92.55786529
 30
0.0
 11
273.8740230638
 21
115.05786529
 31
0.0
 70
   160
  1
<>
 71
     2
 42
-1.0
  3
SLDDIMSTYLE0
100
AcDbAlignedDimension
 13
264.2582728648
 23
137.55786529
 33
0.0
 14
256.7351790512
 24
92.55786529
 34
0.0
 50
90.0
100
AcDbRotatedDimension
  0
DIMENSION
  5
206
330
1F
100
AcDbEntity
  8
VERMASSUNG
100
AcDbDimension
  2
_D_3
 10
256.7291350352
 20
92.9881297402
 30
0.0
 11
263.9374172947
 21
100.130047969
 31
0.0
 70
   162
  1
<>
 71
     1
 42
-1.0
  3
SLDDIMSTYLE1
100
AcDb2LineAngularDimension
 13
256.7351790512
 23
92.55786529
 33
0.0
 14
239.3379179709
 24
92.55786529
 34
0.0
 15
256.3745432849
 25
99.754143396
 35
0.0
 16
263.9374172947
 26
100.130047969
 36
0.0
  0
DIMENSION
  5
211
330
1F
100
AcDbEntity
  8
VERMASSUNG
100
AcDbDimension
  2
_D_4
 10
143.7351790512
 20
169.05786529
 30
0.0
 11
143.7351790512
 21
137.55786529
 31
0.0
 70
   160
  1
PSC %%c<>
 71
     2
 42
-1.0
  3
SLDDIMSTYLE0
100
AcDbAlignedDimension
 13
192.2351790512
 23
106.05786529
 33
0.0
 14
192.2351790512
 24
169.05786529
 34
0.0
 50
90.0
100
AcDbRotatedDimension
  0
DIMENSION
  5
21D
330
1F
100
AcDbEntity
  8
VERMASSUNG
100
AcDbDimension
  2
_D_5
 10
256.3296832213
 20
92.9671953577
 30
0.0
 11
262.4516884171
 21
87.9211483536
 31
0.0
 70
   164
  1
<>
 71
     1
 42
-1.0
  3
SLDDIMSTYLE2
100
AcDbRadialDimension
 15
256.6383460804
 25
92.7127798718
 35
0.0
 40
0.0
  0
LINE
  5
226
330
1F
100
AcDbEntity
  8
VERMASSUNG
  6
CENTERX2
370
     0
100
AcDbLine
 10
228.3391409791
 20
152.2471702797
 30
0.0
 11
228.3391409791
 21
110.1792553105
 31
0.0
  0
LINE
  5
227
330
1F
100
AcDbEntity
  8
VERMASSUNG
  6
CENTERX2
370
     0
100
AcDbLine
 10
264.2582728648
 20
137.55786529
 30
0.0
 11
147.0944028983
 21
137.55786529
 31
0.0
  0
LINE
  5
228
330
1F
100
AcDbEntity
  8
VERMASSUNG
  6
CENTERX2
370
     0
100
AcDbLine
 10
205.2074222376
 20
123.6325780847
 30
0.0
 11
205.2074222376
 21
107.159846073
 31
0.0
  0
LINE
  5
229
330
1F
100
AcDbEntity
  8
VERMASSUNG
  6
CENTERX2
370
     0
100
AcDbLine
 10
202.2629358648
 20
123.6346419983
 30
0.0
 11
202.2629358648
 21
107.1619099866
 31
0.0
  0
LINE
  5
22A
330
1F
100
AcDbEntity
  8
VERMASSUNG
  6
CENTERX2
370
     0
100
AcDbLine
 10
205.2074222376
 20
163.7987121188
 30
0.0
 11
205.2074222376
 21
147.3309164694
 31
0.0
  0
LINE
  5
22B
330
1F
100
AcDbEntity
  8
VERMASSUNG
  6
CENTERX2
370
     0
100
AcDbLine
 10
202.2629358648
 20
163.7925473988
 30
0.0
 11
202.2629358648
 21
147.3247517495
 31
0.0
  0
LINE
  5
22C
330
1F
100
AcDbEntity
  8
0
  6
CENTERX2
 62
     7
100
AcDbLine
 10
82.9713341984
 20
137.55786529
 30
0.0
 11
82.9713341984
 21
92.55786529
 31
0.0
  0
POINT
  5
22D
330
1F
100
AcDbEntity
  8
0
  6
Continuous
 62
     7
100
AcDbPoint
 10
82.9713341984
 20
92.55786529
 30
0.0
  0
LINE
  5
22E
330
1F
100
AcDbEntity
  8
0
  6
Continuous
 62
     7
370
    15
100
AcDbLine
 10
82.9713341984
 20
92.5671953577
 30
0.0
 11
85.3513341984
 21
92.8594226126
 31
0.0
  0
LINE
  5
22F
330
1F
100
AcDbEntity
  8
0
  6
Continuous
 62
     7
370
    15
100
AcDbLine
 10
83.2713341984
 20
103.6867350891
 30
0.0
 11
82.9713341984
 21
103.7235704574
 31
0.0
  0
LINE
  5
230
330
1F
100
AcDbEntity
  8
0
  6
Continuous
 62
     7
370
    15
100
AcDbLine
 10
85.3513341984
 20
92.9728357473
 30
0.0
 11
85.3513341984
 21
99.7388494032
 31
0.0
  0
LINE
  5
231
330
1F
100
AcDbEntity
  8
0
  6
Continuous
 62
     7
370
    15
100
AcDbLine
 10
82.9713341984
 20
92.9881297402
 30
0.0
 11
82.9713341984
 21
99.754143396
 31
0.0
  0
LINE
  5
232
330
1F
100
AcDbEntity
  8
0
  6
Continuous
 62
     7
370
    15
100
AcDbLine
 10
85.3513341984
 20
92.8594226126
 30
0.0
 11
85.3513341984
 21
92.9728357473
 31
0.0
  0
LINE
  5
233
330
1F
100
AcDbEntity
  8
0
  6
Continuous
 62
     7
370
    15
100
AcDbLine
 10
82.9713341984
 20
92.5671953577
 30
0.0
 11
82.9713341984
 21
92.9881297402
 31
0.0
  0
LINE
  5
234
330
1F
100
AcDbEntity
  8
0
  6
Continuous
 62
     7
370
    15
100
AcDbLine
 10
85.3513341984
 20
99.7388494032
 30
0.0
 11
85.3513341984
 21
99.7629601878
 31
0.0
  0
LINE
  5
235
330
1F
100
AcDbEntity
  8
0
  6
Continuous
 62
     7
370
    15
100
AcDbLine
 10
82.9713341984
 20
99.754143396
 30
0.0
 11
82.9713341984
 21
100.072428252
 31
0.0
  0
LINE
  5
236
330
1F
100
AcDbEntity
  8
0
  6
Continuous
 62
     7
370
    15
100
AcDbLine
 10
82.9713341984
 20
100.072428252
 30
0.0
 11
82.9713341984
 21
103.6627896959
 31
0.0
  0
LINE
  5
237
330
1F
100
AcDbEntity
  8
0
  6
Continuous
 62
     7
370
    15
100
AcDbLine
 10
82.9713341984
 20
103.6627896959
 30
0.0
 11
82.9713341984
 21
103.7235704574
 31
0.0
  0
LINE
  5
238
330
1F
100
AcDbEntity
  8
0
  6
Continuous
 62
     7
370
    15
100
AcDbLine
 10
84.2513341986
 20
99.9613247127
 30
0.0
 11
85.3513341984
 21
99.9613247127
 31
0.0
  0
LINE
  5
239
330
1F
100
AcDbEntity
  8
0
  6
Continuous
 62
     7
370
    15
100
AcDbLine
 10
83.2713341984
 20
100.1080178254
 30
0.0
 11
84.2513341986
 21
99.9613247127
 31
0.0
  0
LINE
  5
23A
330
1F
100
AcDbEntity
  8
0
  6
Continuous
 62
     7
370
    15
100
AcDbLine
 10
83.2713341984
 20
100.1080178254
 30
0.0
 11
83.2713341984
 21
135.55786529
 31
0.0
  0
LINE
  5
23B
330
1F
100
AcDbEntity
  8
0
  6
Continuous
 62
     7
370
    15
100
AcDbLine
 10
114.9713341984
 20
135.55786529
 30
0.0
 11
83.2713341984
 21
135.55786529
 31
0.0
  0
LINE
  5
23C
330
1F
100
AcDbEntity
  8
0
  6
Continuous
 62
     7
370
    15
100
AcDbLine
 10
114.9713341984
 20
117.55786529
 30
0.0
 11
114.9713341984
 21
135.55786529
 31
0.0
  0
LINE
  5
23D
330
1F
100
AcDbEntity
  8
0
  6
Continuous
 62
     7
370
    15
100
AcDbLine
 10
85.3513341984
 20
93.2705787042
 30
0.0
 11
89.150636381
 21
93.2705787042
 31
0.0
  0
LINE
  5
23E
330
1F
100
AcDbEntity
  8
0
  6
Continuous
 62
     7
370
    15
100
AcDbLine
 10
85.3513341984
 20
99.7629601878
 30
0.0
 11
85.3513341984
 21
99.9613247127
 31
0.0
  0
ARC
  5
23F
330
1F
100
AcDbEntity
  8
0
  6
Continuous
 62
     7
370
    15
100
AcDbCircle
 10
82.181625151
 20
126.5486928707
 30
0.0
 40
34.00000000000001
100
AcDbArc
 50
281.8277966528
 51
344.6665512154
  0
LINE
  5
240
330
1F
100
AcDbEntity
  8
0
  6
Continuous
 62
     7
370
    15
100
AcDbLine
 10
87.9187325494
 20
93.0362235689
 30
0.0
 11
85.3513341984
 21
93.0362235689
 31
0.0
  0
ARC
  5
241
330
1F
100
AcDbEntity
  8
0
  6
Continuous
 62
     7
370
    15
100
AcDbCircle
 10
82.181625151
 20
126.5486928707
 30
0.0
 40
34.00000000000001
100
AcDbArc
 50
279.7144781462
 51
281.8277966528
  0
ELLIPSE
  5
242
330
1F
100
AcDbEntity
  8
0
  6
Continuous
 62
     7
370
    15
100
AcDbEllipse
 10
77.2713341984
 20
166.3809081663
 30
0.0
 11
0.0
 21
7.150521555565348
 31
0.0
210
0.0
220
0.0
230
1.0
 40
0.8390996312
 41
4.712388980384701
 42
5.096064296094179
  0
ARC
  5
243
330
1F
100
AcDbEntity
  8
0
  6
Continuous
 62
     7
370
    15
100
AcDbCircle
 10
82.9713341984
 20
137.55786529
 30
0.0
 40
31.50000000000002
100
AcDbArc
 50
63.0283343931
 51
90.2477901039
  0
SPLINE
  5
244
330
1F
100
AcDbEntity
  8
0
  6
Continuous
 62
     7
370
    15
100
AcDbSpline
210
0.0
220
0.0
230
1.0
 70
     8
 71
     3
 72
    10
 73
     6
 74
     0
 42
0.000000001
 43
0.00000001
 40
0.0
 40
0.0
 40
0.0
 40
0.0
 40
0.4999999999999992
 40
0.4999999999999992
 40
1.0
 40
1.0
 40
1.0
 40
1.0
 10
100.0811926521843
 20
164.5995505868003
 30
0.0
 10
99.58191508743103
 20
164.7156980904623
 30
0.0
 10
99.09811067771943
 20
164.8692196892665
 30
0.0
 10
98.15372029603208
 20
165.2165401390927
 30
0.0
 10
97.6952215282695
 20
165.4092143306252
 30
0.0
 10
97.25815340769802
 20
165.6316394730379
 30
0.0
  0
ARC
  5
245
330
1F
100
AcDbEntity
  8
0
  6
Continuous
 62
     7
370
    15
100
AcDbCircle
 10
82.9713341984
 20
137.55786529
 30
0.0
 40
32.00000000000036
100
AcDbArc
 50
0.0
 51
57.6775789918
  0
LINE
  5
246
330
1F
100
AcDbEntity
  8
0
  6
Continuous
 62
     7
370
    15
100
AcDbLine
 10
114.9713341984
 20
135.55786529
 30
0.0
 11
114.9713341984
 21
137.55786529
 31
0.0
  0
LINE
  5
247
330
1F
100
AcDbEntity
  8
0
  6
Continuous
 62
     7
370
    15
100
AcDbLine
 10
83.2713341984
 20
135.55786529
 30
0.0
 11
83.2713341984
 21
166.3809081663
 31
0.0
  0
SPLINE
  5
248
330
1F
100
AcDbEntity
  8
0
  6
Continuous
 62
     7
370
    15
100
AcDbSpline
210
0.0
220
0.0
230
1.0
 70
     8
 71
     3
 72
    18
 73
    14
 74
     0
 42
0.000000001
 43
0.00000001
 40
0.0
 40
0.0
 40
0.0
 40
0.0
 40
0.2500000000000018
 40
0.2500000000000018
 40
0.3750000000000011
 40
0.3750000000000011
 40
0.5000000000000004
 40
0.5000000000000004
 40
0.6249999999999998
 40
0.6249999999999998
 40
0.7499999999999991
 40
0.7499999999999991
 40
1.0
 40
1.0
 40
1.0
 40
1.0
 10
82.83510489833158
 20
169.0575707104622
 30
0.0
 10
82.66116066555875
 20
169.0568184399006
 30
0.0
 10
82.44027847752729
 20
169.0545257770308
 30
0.0
 10
82.03891714245027
 20
169.0443466579741
 30
0.0
 10
81.89241271162861
 20
169.0397642334478
 30
0.0
 10
81.58260121623235
 20
169.0276198706175
 30
0.0
 10
81.41876124076589
 20
169.0200551434774
 30
0.0
 10
81.07360292571035
 20
169.0011235369066
 30
0.0
 10
80.89228444164381
 20
168.9897586647663
 30
0.0
 10
80.51186220712549
 20
168.9622816440393
 30
0.0
 10
80.31205434036865
 20
168.9460816987053
 30
0.0
 10
79.70052114446156
 20
168.8902666774555
 30
0.0
 10
79.27251890037157
 20
168.8432173918164
 30
0.0
 10
78.82424846905381
 20
168.7836828125446
 30
0.0
  0
SPLINE
  5
249
330
1F
100
AcDbEntity
  8
0
  6
Continuous
 62
     7
370
    15
100
AcDbSpline
210
0.0
220
0.0
230
1.0
 70
     8
 71
     3
 72
    18
 73
    14
 74
     0
 42
0.000000001
 43
0.00000001
 40
0.0
 40
0.0
 40
0.0
 40
0.0
 40
0.25
 40
0.25
 40
0.5
 40
0.5
 40
0.625
 40
0.625
 40
0.75
 40
0.75
 40
0.875
 40
0.875
 40
1.0
 40
1.0
 40
1.0
 40
1.0
 10
78.82424846905381
 20
106.3320477673952
 30
0.0
 10
79.45793527321483
 20
106.2478881292837
 30
0.0
 10
80.04980211049683
 20
106.1888125397798
 30
0.0
 10
81.14725722118149
 20
106.1059088585152
 30
0.0
 10
81.62460624208606
 20
106.0840929330877
 30
0.0
 10
82.22811522424384
 20
106.0659912397214
 30
0.0
 10
82.4063749064417
 20
106.0625555805112
 30
0.0
 10
82.71432723919055
 20
106.0585373587388
 30
0.0
 10
82.84482428374467
 20
106.0579401488363
 30
0.0
 10
83.05732040950784
 20
106.0578034642045
 30
0.0
 10
83.13747503428708
 20
106.0582582440453
 30
0.0
 10
83.24418373631629
 20
106.059001819129
 30
0.0
 10
83.27133419843871
 20
106.0592938937938
 30
0.0
 10
83.27133419843871
 20
106.0592938937939
 30
0.0
  0
ELLIPSE
  5
24A
330
1F
100
AcDbEntity
  8
0
  6
Continuous
 62
     7
370
    15
100
AcDbEllipse
 10
66.5922705694
 20
126.2800927569
 30
0.0
 11
-1.885170229408899
 21
2.681541922056084
 31
0.0
210
0.0
220
0.0
230
1.0
 40
0.5964974147
 41
0.0
 42
6.283185307179586
  0
ARC
  5
24B
330
1F
100
AcDbEntity
  8
0
  6
Continuous
 62
     7
370
    15
100
AcDbCircle
 10
82.9713341984
 20
137.55786529
 30
0.0
 40
31.50000000000003
100
AcDbArc
 50
97.5651530928
 51
262.4348469072
  0
LINE
  5
24C
330
1F
100
AcDbEntity
  8
0
  6
Continuous
 62
     7
370
     0
100
AcDbLine
 10
85.3513341984
 20
99.7388494032
 30
0.0
 11
82.9713341984
 21
99.754143396
 31
0.0
  0
LINE
  5
24D
330
1F
100
AcDbEntity
  8
0
  6
Continuous
 62
     7
370
     0
100
AcDbLine
 10
85.3513341984
 20
92.9728357473
 30
0.0
 11
82.9713341984
 21
92.9881297402
 31
0.0
  0
LINE
  5
24E
330
1F
100
AcDbEntity
  8
0
  6
Continuous
 62
     7
370
     0
100
AcDbLine
 10
85.3513341984
 20
99.8246054848
 30
0.0
 11
82.9713341984
 21
100.072428252
 31
0.0
  0
LINE
  5
24F
330
1F
100
AcDbEntity
  8
0
  6
Continuous
 62
     7
370
     0
100
AcDbLine
 10
83.2713341984
 20
103.6315515319
 30
0.0
 11
82.9713341984
 21
103.6627896959
 31
0.0
  0
LINE
  5
250
330
1F
100
AcDbEntity
  8
0
  6
Continuous
 62
     7
370
     0
100
AcDbLine
 10
78.8242484691
 20
168.7836828125
 30
0.0
 11
78.8242484691
 21
106.3320477674
 31
0.0
  0
CIRCLE
  5
251
330
1F
100
AcDbEntity
  8
VERMASSUNG
  6
CENTERX2
100
AcDbCircle
 10
82.9713341984
 20
132.55786529
 30
0.0
 40
39.99999999999999
  0
DIMENSION
  5
252
330
1F
100
AcDbEntity
  8
VERMASSUNG
100
AcDbDimension
  2
_D_6
 10
111.2556054459
 20
160.8421365374
 30
0.0
 11
119.5661009292
 21
169.1526320207
 31
0.0
 70
   160
  1
min. %%c<>
 71
     2
 42
-1.0
  3
SLDDIMSTYLE3
100
AcDbAlignedDimension
 13
54.687062951
 23
104.2735940425
 33
0.0
 14
111.2556054459
 24
160.8421365374
 34
0.0
 50
45.0
100
AcDbRotatedDimension
  0
INSERT
  5
26C
330
1F
100
AcDbEntity
  8
VERMASSUNG
100
AcDbBlockReference
  2
SW_CENTERMARKSYMBOL_0
 10
82.9713341984
 20
137.55786529
 30
0.0
  0
LINE
  5
26D
330
1F
100
AcDbEntity
  8
0
  6
Continuous
 62
     7
370
    15
100
AcDbLine
 10
223.0855498905
 20
19.2183954151
 30
0.0
 11
228.4147752233
 21
16.1418991156
 31
0.0
  0
LINE
  5
26E
330
1F
100
AcDbEntity
  8
0
  6
Continuous
 62
     7
370
    15
100
AcDbLine
 10
215.8341411403
 20
29.0194552144
 30
0.0
 11
220.5109556486
 21
26.319587667
 31
0.0
  0
LINE
  5
26F
330
1F
100
AcDbEntity
  8
0
  6
Continuous
 62
     7
370
    15
100
AcDbLine
 10
210.4108515944
 20
32.1502536283
 30
0.0
 11
213.1192900891
 21
30.5867053664
 31
0.0
  0
LINE
  5
270
330
1F
100
AcDbEntity
  8
0
  6
Continuous
 62
     7
370
    15
100
AcDbLine
 10
228.8680105784
 20
57.8672444868
 30
0.0
 11
226.1595720837
 21
59.4307927488
 31
0.0
  0
LINE
  5
271
330
1F
100
AcDbEntity
  8
0
  6
Continuous
 62
     7
370
    15
100
AcDbLine
 10
235.1578119795
 20
54.2362194265
 30
0.0
 11
231.5828616296
 21
56.2999943348
 31
0.0
  0
SPLINE
  5
272
330
1F
100
AcDbEntity
  8
0
  6
Continuous
 62
     7
370
    15
100
AcDbSpline
210
0.0
220
0.0
230
1.0
 70
     8
 71
     3
 72
    32
 73
    28
 74
     0
 42
0.000000001
 43
0.00000001
 40
0.0
 40
0.0
 40
0.0
 40
0.0
 40
0.0257928613020515
 40
0.0668418750498955
 40
0.1079891768185364
 40
0.1492022329136298
 40
0.1904525582079958
 40
0.2317188831915295
 40
0.2729848580711363
 40
0.3142426895655667
 40
0.3554892813116491
 40
0.3967239054986411
 40
0.4379472301434726
 40
0.4791608491800061
 40
0.5203667868394501
 40
0.5615673115533228
 40
0.6027648499417418
 40
0.6439619043586648
 40
0.6851606124535786
 40
0.726363095134244
 40
0.7675719064422304
 40
0.8087895887128476
 40
0.8500186121973689
 40
0.8912612169164491
 40
0.9325192600957608
 40
0.9737937470252079
 40
1.0
 40
1.0
 40
1.0
 40
1.0
 10
222.6580915315372
 20
60.16013154976233
 30
0.0
 10
222.4819133938438
 20
60.14814956641489
 30
0.0
 10
222.0253499700218
 20
60.11709840755431
 30
0.0
 10
221.2600944519298
 20
59.95929939549571
 30
0.0
 10
220.3718059648758
 20
59.70000250034959
 30
0.0
 10
219.4685701706967
 20
59.34413897398777
 30
0.0
 10
218.5579875910701
 20
58.89925354619087
 30
0.0
 10
217.6458708516587
 20
58.36712598720031
 30
0.0
 10
216.7384264717218
 20
57.75184749790455
 30
0.0
 10
215.8416141655599
 20
57.05758319926703
 30
0.0
 10
214.9612834026135
 20
56.28907235867221
 30
0.0
 10
214.1031366054349
 20
55.45147103207967
 30
0.0
 10
213.2727277438113
 20
54.55035986164718
 30
0.0
 10
212.4754333077915
 20
53.59170627282698
 30
0.0
 10
211.7164218160127
 20
52.58183550262381
 30
0.0
 10
211.0006250312183
 20
51.52739016105702
 30
0.0
 10
210.3327050407207
 20
50.43529205688299
 30
0.0
 10
209.7170272420886
 20
49.31270084917396
 30
0.0
 10
209.1576301486973
 20
48.16697056130052
 30
0.0
 10
208.6581986310026
 20
47.00559406257788
 30
0.0
 10
208.2220463856197
 20
45.83615845820274
 30
0.0
 10
207.8520560673494
 20
44.6662677976173
 30
0.0
 10
207.5508313469953
 20
43.50359396843892
 30
0.0
 10
207.3200672071085
 20
42.3554727491563
 30
0.0
 10
207.1628480423661
 20
41.23018952120627
 30
0.0
 10
207.0857301721028
 20
40.26575993583223
 30
0.0
 10
207.0780426937831
 20
39.68780885666524
 30
0.0
 10
207.0750572493159
 20
39.46336063322849
 30
0.0
  0
SPLINE
  5
273
330
1F
100
AcDbEntity
  8
0
  6
Continuous
 62
     7
370
    15
100
AcDbSpline
210
0.0
220
0.0
230
1.0
 70
     8
 71
     3
 72
    13
 73
     9
 74
     0
 42
0.000000001
 43
0.00000001
 40
0.0
 40
0.0
 40
0.0
 40
0.0
 40
0.1051174665655629
 40
0.3047600322592682
 40
0.5044730677796371
 40
0.7041217571014718
 40
0.9035945728996236
 40
1.0
 40
1.0
 40
1.0
 40
1.0
 10
207.0750572493159
 20
39.46336063322849
 30
0.0
 10
207.0771324349637
 20
39.27966985835496
 30
0.0
 10
207.0831488817602
 20
38.74710749450397
 30
0.0
 10
207.1504417364781
 20
37.89943059781157
 30
0.0
 10
207.3000562883361
 20
36.94135303099387
 30
0.0
 10
207.5283393433844
 20
36.0456018938632
 30
0.0
 10
207.7655384733434
 20
35.34484322797822
 30
0.0
 10
207.9527564322762
 20
34.97152803445695
 30
0.0
 10
208.0137572923427
 20
34.84989147773717
 30
0.0
  0
LINE
  5
274
330
1F
100
AcDbEntity
  8
0
  6
Continuous
 62
     7
370
    15
100
AcDbLine
 10
198.9239516292
 20
44.1506157452
 30
0.0
 11
207.0819035295
 21
39.1003407465
 31
0.0
  0
LINE
  5
275
330
1F
100
AcDbEntity
  8
0
  6
Continuous
 62
     7
370
    15
100
AcDbLine
 10
217.4389736058
 20
58.2124583561
 30
0.0
 11
209.4202067336
 21
62.5183127438
 31
0.0
  0
LINE
  5
276
330
1F
100
AcDbEntity
  8
0
  6
Continuous
 62
     7
370
    15
100
AcDbLine
 10
206.7308372389
 20
63.1085693743
 30
0.0
 11
206.0912871302
 21
63.0213583793
 31
0.0
  0
LINE
  5
277
330
1F
100
AcDbEntity
  8
0
  6
Continuous
 62
     7
370
    15
100
AcDbLine
 10
197.7607012444
 20
45.8866579688
 30
0.0
 11
198.0050047933
 21
45.2892084579
 31
0.0
  0
LINE
  5
278
330
1F
100
AcDbEntity
  8
0
  6
Continuous
 62
     7
370
    15
100
AcDbLine
 10
227.5013226242
 20
24.0866045083
 30
0.0
 11
227.6468846681
 21
25.0509659913
 31
0.0
  0
LINE
  5
279
330
1F
100
AcDbEntity
  8
0
  6
Continuous
 62
     7
370
    15
100
AcDbLine
 10
224.2195582649
 20
25.5031610653
 30
0.0
 11
224.3651203088
 21
24.5387995823
 31
0.0
  0
LINE
  5
27A
330
1F
100
AcDbEntity
  8
0
  6
Continuous
 62
     7
370
    15
100
AcDbLine
 10
224.2957632244
 20
56.0656528099
 30
0.0
 11
224.2462575526
 21
56.0942419704
 31
0.0
  0
LINE
  5
27B
330
1F
100
AcDbEntity
  8
0
  6
Continuous
 62
     7
370
    15
100
AcDbLine
 10
222.5772145168
 20
56.0942418688
 30
0.0
 11
222.527708951
 21
56.0656528646
 31
0.0
  0
ARC
  5
27C
330
1F
100
AcDbEntity
  8
0
  6
Continuous
 62
     7
370
    15
100
AcDbCircle
 10
223.4117359942
 20
54.6327898559
 30
0.0
 40
1.000000000000003
100
AcDbArc
 50
67.1255393623
 51
141.5944277087
  0
LWPOLYLINE
  5
27D
330
1F
100
AcDbEntity
  8
0
  6
Continuous
 62
     7
370
    15
100
AcDbPolyline
 90
        3
 70
   128
 43
0.0
 10
224.1953689785
 20
55.25401415
 10
224.0921303554
 20
55.3656361187
 10
223.8004493448
 20
55.5541485791
  0
LINE
  5
27E
330
1F
100
AcDbEntity
  8
0
  6
Continuous
 62
     7
370
    15
100
AcDbLine
 10
225.0961903234
 20
25.2241739685
 30
0.0
 11
225.0961903234
 21
25.0127766857
 31
0.0
  0
LINE
  5
27F
330
1F
100
AcDbEntity
  8
0
  6
Continuous
 62
     7
370
    15
100
AcDbLine
 10
226.7961900436
 20
25.0410171642
 30
0.0
 11
226.7961900436
 21
25.2241747288
 31
0.0
  0
LINE
  5
280
330
1F
100
AcDbEntity
  8
0
  6
Continuous
 62
     7
370
    15
100
AcDbLine
 10
226.3118964124
 20
25.2511528475
 30
0.0
 11
226.3118964124
 21
25.1133702693
 31
0.0
  0
LINE
  5
281
330
1F
100
AcDbEntity
  8
0
  6
Continuous
 62
     7
370
    15
100
AcDbLine
 10
225.5804839546
 20
25.156269803
 30
0.0
 11
225.5804839546
 21
25.3374627637
 31
0.0
  0
LINE
  5
282
330
1F
100
AcDbEntity
  8
0
  6
Continuous
 62
     7
370
    15
100
AcDbLine
 10
227.5612370036
 20
24.48354896
 30
0.0
 11
227.5612370036
 21
24.1168432024
 31
0.0
  0
LINE
  5
283
330
1F
100
AcDbEntity
  8
0
  6
Continuous
 62
     7
370
    15
100
AcDbLine
 10
227.6418691931
 20
25.0177426154
 30
0.0
 11
239.4869486557
 21
32.6121317712
 31
0.0
  0
LINE
  5
284
330
1F
100
AcDbEntity
  8
0
  6
Continuous
 62
     7
370
    15
100
AcDbLine
 10
239.4869486557
 20
19.6699592881
 30
0.0
 11
239.4869486557
 21
32.6121317712
 31
0.0
  0
LINE
  5
285
330
1F
100
AcDbEntity
  8
0
  6
Continuous
 62
     7
370
    15
100
AcDbLine
 10
233.4565089998
 20
15.8035852148
 30
0.0
 11
239.4869486557
 21
19.6699592881
 31
0.0
  0
ELLIPSE
  5
286
330
1F
100
AcDbEntity
  8
0
  6
Continuous
 62
     7
370
    15
100
AcDbEllipse
 10
236.4686550905
 20
31.1218708356
 30
0.0
 11
7.861746147695385
 21
15.08543277462312
 31
0.0
210
0.0
220
0.0
230
1.0
 40
0.5464088388
 41
2.538970802775696
 42
3.63571396774609
  0
LINE
  5
287
330
1F
100
AcDbEntity
  8
0
  6
Continuous
 62
     7
370
    15
100
AcDbLine
 10
225.3196739877
 20
22.6784849097
 30
0.0
 11
225.3196739877
 21
21.1285384374
 31
0.0
  0
LINE
  5
288
330
1F
100
AcDbEntity
  8
0
  6
Continuous
 62
     7
370
    15
100
AcDbLine
 10
227.494779326
 20
24.0742353085
 30
0.0
 11
227.5612370036
 21
24.1168432024
 31
0.0
  0
LINE
  5
289
330
1F
100
AcDbEntity
  8
0
  6
Continuous
 62
     7
370
    15
100
AcDbLine
 10
224.2820093577
 20
25.5980274899
 30
0.0
 11
222.664193358
 21
29.6433876691
 31
0.0
  0
LINE
  5
28A
330
1F
100
AcDbEntity
  8
0
  6
Continuous
 62
     7
370
    15
100
AcDbLine
 10
224.3425756961
 20
24.6881639839
 30
0.0
 11
224.3425756961
 21
24.597379924
 31
0.0
  0
LINE
  5
28B
330
1F
100
AcDbEntity
  8
0
  6
Continuous
 62
     7
370
    15
100
AcDbLine
 10
224.3645855707
 20
24.5423427634
 30
0.0
 11
224.3425756961
 21
24.597379924
 31
0.0
  0
LINE
  5
28C
330
1F
100
AcDbEntity
  8
0
  6
Continuous
 62
     7
370
    15
100
AcDbLine
 10
225.0961521279
 20
21.6648603037
 30
0.0
 11
225.0961521279
 21
22.7094952495
 31
0.0
  0
ELLIPSE
  5
28D
330
1F
100
AcDbEntity
  8
0
  6
Continuous
 62
     7
370
    15
100
AcDbEllipse
 10
217.9831210892
 20
41.7933424659
 30
0.0
 11
-5.92113339893811
 21
22.74101357242755
 31
0.0
210
0.0
220
0.0
230
1.0
 40
0.1814040712
 41
2.885135197332382
 42
3.580557475039544
  0
LINE
  5
28E
330
1F
100
AcDbEntity
  8
0
  6
Continuous
 62
     7
370
    15
100
AcDbLine
 10
224.3550682854
 20
24.6053900986
 30
0.0
 11
224.3425756961
 21
24.597379924
 31
0.0
  0
LINE
  5
28F
330
1F
100
AcDbEntity
  8
0
  6
Continuous
 62
     7
370
    15
100
AcDbLine
 10
227.5612370036
 20
24.1168432024
 30
0.0
 11
227.5210526177
 21
24.2173250829
 31
0.0
  0
ELLIPSE
  5
290
330
1F
100
AcDbEntity
  8
0
  6
Continuous
 62
     7
370
    15
100
AcDbEllipse
 10
257.0592719227
 20
19.2351607542
 30
0.0
 11
32.33551998749209
 21
-5.875809384430861
 31
0.0
210
0.0
220
0.0
230
1.0
 40
0.4167542825
 41
3.386728000851112
 42
3.423612366934588
  0
SPLINE
  5
291
330
1F
100
AcDbEntity
  8
0
  6
Continuous
 62
     7
370
    15
100
AcDbSpline
210
0.0
220
0.0
230
1.0
 70
     8
 71
     3
 72
    12
 73
     8
 74
     0
 42
0.000000001
 43
0.00000001
 40
0.0
 40
0.0
 40
0.0
 40
0.0
 40
0.4999999999999915
 40
0.4999999999999915
 40
0.7499999999999957
 40
0.7499999999999957
 40
1.0
 40
1.0
 40
1.0
 40
1.0
 10
220.1357462036185
 20
31.74190671795485
 30
0.0
 10
220.1979224084407
 20
31.70601315892692
 30
0.0
 10
220.2426679256984
 20
31.66123786855088
 30
0.0
 10
220.2766729620036
 20
31.58754847972446
 30
0.0
 10
220.2822431215682
 20
31.56265613681395
 30
0.0
 10
220.2821323946172
 20
31.51222893776229
 30
0.0
 10
220.2762573598557
 20
31.48687100686197
 30
0.0
 10
220.2649371440256
 20
31.46264118571419
 30
0.0
  0
LINE
  5
292
330
1F
100
AcDbEntity
  8
0
  6
Continuous
 62
     7
370
    15
100
AcDbLine
 10
219.9134634849
 20
31.8702283662
 30
0.0
 11
220.135747281
 21
31.7419066621
 31
0.0
  0
LINE
  5
293
330
1F
100
AcDbEntity
  8
0
  6
Continuous
 62
     7
370
    15
100
AcDbLine
 10
239.4869486557
 20
32.6121317712
 30
0.0
 11
241.2403740338
 21
44.1819917628
 31
0.0
  0
LINE
  5
294
330
1F
100
AcDbEntity
  8
0
  6
Continuous
 62
     7
370
    15
100
AcDbLine
 10
227.1045429727
 20
26.4321600051
 30
0.0
 11
227.5263960478
 21
26.7026279026
 31
0.0
  0
LWPOLYLINE
  5
295
330
1F
100
AcDbEntity
  8
0
  6
Continuous
 62
     7
370
    15
100
AcDbPolyline
 90
        9
 70
   128
 43
0.0
 10
227.5263960478
 20
26.7026279026
 10
227.6231849683
 20
26.7965457738
 10
227.6503486122
 20
26.9046964365
 10
227.6037513199
 20
27.0106155033
 10
227.4904869329
 20
27.0981776983
 10
227.3277987806
 20
27.1540527528
 10
227.1404560389
 20
27.1697339906
 10
226.9569789536
 20
27.1428339464
 10
226.8053003483
 20
27.0774478075
  0
LINE
  5
296
330
1F
100
AcDbEntity
  8
0
  6
Continuous
 62
     7
370
    15
100
AcDbLine
 10
226.8053003483
 20
27.0774478075
 30
0.0
 11
226.787318132
 21
27.0659187827
 31
0.0
  0
ARC
  5
297
330
1F
100
AcDbEntity
  8
0
  6
Continuous
 62
     7
370
    15
100
AcDbCircle
 10
220.7721507052
 20
28.762850282
 30
0.0
 40
2.086904763046567
100
AcDbArc
 50
24.95678909
 51
62.7165878922
  0
LINE
  5
298
330
1F
100
AcDbEntity
  8
0
  6
Continuous
 62
     7
370
    15
100
AcDbLine
 10
221.7287717142
 20
30.6175868496
 30
0.0
 11
220.2649365913
 21
31.4626408785
 31
0.0
  0
LINE
  5
299
330
1F
100
AcDbEntity
  8
0
  6
Continuous
 62
     7
370
    15
100
AcDbLine
 10
221.7287717142
 20
20.142603136
 30
0.0
 11
221.1490510325
 21
20.4772687619
 31
0.0
  0
SPLINE
  5
29A
330
1F
100
AcDbEntity
  8
0
  6
Continuous
 62
     7
370
    15
100
AcDbSpline
210
0.0
220
0.0
230
1.0
 70
     8
 71
     3
 72
    10
 73
     6
 74
     0
 42
0.000000001
 43
0.00000001
 40
0.0
 40
0.0
 40
0.0
 40
0.0
 40
0.5
 40
0.5
 40
1.0
 40
1.0
 40
1.0
 40
1.0
 10
222.6641935822355
 20
19.52362629594908
 30
0.0
 10
222.5946275657047
 20
19.58352904814876
 30
0.0
 10
222.484367582622
 20
19.66746606947678
 30
0.0
 10
222.1670947359531
 20
19.88072710609656
 30
0.0
 10
221.9691413229727
 20
20.00384107461628
 30
0.0
 10
221.7287720896401
 20
20.14260327938266
 30
0.0
  0
SPLINE
  5
29B
330
1F
100
AcDbEntity
  8
0
  6
Continuous
 62
     7
370
    15
100
AcDbSpline
210
0.0
220
0.0
230
1.0
 70
    11
 71
     3
 72
    66
 73
    62
 74
     0
 42
0.000000001
 43
0.00000001
 40
0.0
 40
0.0
 40
0.0
 40
0.0
 40
0.0312499999999995
 40
0.0312499999999995
 40
0.0624999999999993
 40
0.0624999999999993
 40
0.0937499999999991
 40
0.0937499999999991
 40
0.1249999999999989
 40
0.1249999999999989
 40
0.1562499999999988
 40
0.1562499999999988
 40
0.1874999999999986
 40
0.1874999999999986
 40
0.2187499999999984
 40
0.2187499999999984
 40
0.2499999999999982
 40
0.2499999999999982
 40
0.2812499999999981
 40
0.2812499999999981
 40
0.3124999999999978
 40
0.3124999999999978
 40
0.3437499999999977
 40
0.3437499999999977
 40
0.3749999999999975
 40
0.3749999999999975
 40
0.4062499999999973
 40
0.4062499999999973
 40
0.437499999999997
 40
0.437499999999997
 40
0.4687499999999968
 40
0.4687499999999968
 40
0.4999999999999969
 40
0.4999999999999969
 40
0.531249999999997
 40
0.531249999999997
 40
0.5624999999999972
 40
0.5624999999999972
 40
0.6249999999999972
 40
0.6249999999999972
 40
0.6562499999999974
 40
0.6562499999999974
 40
0.6874999999999976
 40
0.6874999999999976
 40
0.7187499999999978
 40
0.7187499999999978
 40
0.749999999999998
 40
0.749999999999998
 40
0.7812499999999982
 40
0.7812499999999982
 40
0.8124999999999986
 40
0.8124999999999986
 40
0.8437499999999988
 40
0.8437499999999988
 40
0.874999999999999
 40
0.874999999999999
 40
0.9062499999999993
 40
0.9062499999999993
 40
0.9374999999999996
 40
0.9374999999999996
 40
1.0
 40
1.0
 40
1.0
 40
1.0
 10
222.5278525177461
 20
55.14073950695709
 30
0.0
 10
222.5862707267816
 20
55.10701539271886
 30
0.0
 10
222.6494426331354
 20
55.07770005545731
 30
0.0
 10
222.7849020889963
 20
55.02746358858247
 30
0.0
 10
222.8580509862467
 20
55.00638569055793
 30
0.0
 10
223.0094525406463
 20
54.97398205814127
 30
0.0
 10
223.0873614967125
 20
54.96258445410194
 30
0.0
 10
223.2475652087054
 20
54.94905563714343
 30
0.0
 10
223.3303491297153
 20
54.9470386119766
 30
0.0
 10
223.4933649011645
 20
54.95233816326773
 30
0.0
 10
223.5744271088
 20
54.95953032000856
 30
0.0
 10
223.7356521059774
 20
54.98292678362775
 30
0.0
 10
223.8145104668128
 20
54.99901547178622
 30
0.0
 10
223.9649450841233
 20
55.03868984610798
 30
0.0
 10
224.0376412208642
 20
55.06256369905741
 30
0.0
 10
224.1744581534813
 20
55.11736372781321
 30
0.0
 10
224.2374421765498
 20
55.14775475178936
 30
0.0
 10
224.3528405919914
 20
55.21430654676046
 30
0.0
 10
224.405677775158
 20
55.25090637032913
 30
0.0
 10
224.4965002817811
 20
55.32735078017733
 30
0.0
 10
224.5349201764252
 20
55.36731283176657
 30
0.0
 10
224.5976950920792
 20
55.45090801516532
 30
0.0
 10
224.6217661424597
 20
55.49447614301403
 30
0.0
 10
224.6535704548875
 20
55.58180269495186
 30
0.0
 10
224.6616976652429
 20
55.62602280915051
 30
0.0
 10
224.6617740553745
 20
55.71593488027825
 30
0.0
 10
224.6537092396651
 20
55.76020451973847
 30
0.0
 10
224.6220510259237
 20
55.84751779095259
 30
0.0
 10
224.5980808609102
 20
55.89104910877433
 30
0.0
 10
224.5354054626994
 20
55.97471302302752
 30
0.0
 10
224.497043186629
 20
56.01468383457934
 30
0.0
 10
224.4064044511195
 20
56.0911111905145
 30
0.0
 10
224.3536114099969
 20
56.12774933627537
 30
0.0
 10
224.2382679799236
 20
56.1943801108225
 30
0.0
 10
224.1753404901928
 20
56.22478997239428
 30
0.0
 10
224.0387406949787
 20
56.27960970041406
 30
0.0
 10
223.9659408811587
 20
56.30357319987402
 30
0.0
 10
223.7403398789129
 20
56.36320988526531
 30
0.0
 10
223.5759199538005
 20
56.38748411918779
 30
0.0
 10
223.3314559232171
 20
56.39555423738722
 30
0.0
 10
223.2486899821198
 20
56.39358179761743
 30
0.0
 10
223.0883974941599
 20
56.3801270453134
 30
0.0
 10
223.0104818367469
 20
56.36876498566617
 30
0.0
 10
222.8591286171649
 20
56.33646201592714
 30
0.0
 10
222.7858691277305
 20
56.31540487421456
 30
0.0
 10
222.6503107811023
 20
56.26523311238066
 30
0.0
 10
222.5871271984714
 20
56.23596346177163
 30
0.0
 10
222.4703095227443
 20
56.16866845338716
 30
0.0
 10
222.418400771903
 20
56.13160574348164
 30
0.0
 10
222.3277631630987
 20
56.05145309369357
 30
0.0
 10
222.2885977369326
 20
56.007791773367
 30
0.0
 10
222.2257541449942
 20
55.91660218538248
 30
0.0
 10
222.2020811504969
 20
55.8694061320779
 30
0.0
 10
222.170030677772
 20
55.77209661410213
 30
0.0
 10
222.1618009000191
 20
55.72161418646849
 30
0.0
 10
222.1616718709771
 20
55.62218010663302
 30
0.0
 10
222.1695087369554
 20
55.57275927824959
 30
0.0
 10
222.2013237504094
 20
55.47481616923651
 30
0.0
 10
222.2252543801907
 20
55.42693763660977
 30
0.0
 10
222.3184439204188
 20
55.29099693091747
 30
0.0
 10
222.4110160996752
 20
55.20818773543356
 30
0.0
 10
222.5278525177461
 20
55.14073950695709
 30
0.0
  0
ARC
  5
29C
330
1F
100
AcDbEntity
  8
0
  6
Continuous
 62
     7
370
    15
100
AcDbCircle
 10
223.3058748546
 20
54.3420877824
 30
0.0
 40
5.834252832176776
100
AcDbArc
 50
60.7167072363
 51
95.4687388075
  0
ARC
  5
29D
330
1F
100
AcDbEntity
  8
0
  6
Continuous
 62
     7
370
    15
100
AcDbCircle
 10
213.4609629098
 20
37.2310465489
 30
0.0
 40
5.926013477748298
100
AcDbArc
 50
204.4889256181
 51
239.0226835256
  0
SPLINE
  5
29E
330
1F
100
AcDbEntity
  8
0
  6
Continuous
 62
     7
370
    15
100
AcDbSpline
210
0.0
220
0.0
230
1.0
 70
     8
 71
     3
 72
    12
 73
     8
 74
     0
 42
0.000000001
 43
0.00000001
 40
0.0
 40
0.0
 40
0.0
 40
0.0
 40
0.2500000000000001
 40
0.2500000000000001
 40
0.5000000000000001
 40
0.5000000000000001
 40
1.0
 40
1.0
 40
1.0
 40
1.0
 10
211.1997419700218
 20
41.43966719846026
 30
0.0
 10
211.1774479698173
 20
41.45253725083161
 30
0.0
 10
211.1593354937284
 20
41.47656647388677
 30
0.0
 10
211.1327706224362
 20
41.53167833977321
 30
0.0
 10
211.124169689539
 20
41.56162939576956
 30
0.0
 10
211.1058003436168
 20
41.65307143396751
 30
0.0
 10
211.1035980592482
 20
41.71443276705897
 30
0.0
 10
211.1059572651533
 20
41.77511652418542
 30
0.0
  0
LINE
  5
29F
330
1F
100
AcDbEntity
  8
0
  6
Continuous
 62
     7
370
    15
100
AcDbLine
 10
212.2407749225
 20
40.8386916014
 30
0.0
 11
211.1997418374
 21
41.4396672093
 31
0.0
  0
SPLINE
  5
2A0
330
1F
100
AcDbEntity
  8
0
  6
Continuous
 62
     7
370
    15
100
AcDbSpline
210
0.0
220
0.0
230
1.0
 70
     8
 71
     3
 72
    12
 73
     8
 74
     0
 42
0.000000001
 43
0.00000001
 40
0.0
 40
0.0
 40
0.0
 40
0.0
 40
0.5000000000000019
 40
0.5000000000000019
 40
0.7500000000000009
 40
0.7500000000000009
 40
1.0
 40
1.0
 40
1.0
 40
1.0
 10
212.4531766236841
 20
40.99738334302184
 30
0.0
 10
212.4287953269984
 20
40.94943607212868
 30
0.0
 10
212.4010975568375
 20
40.90534159142459
 30
0.0
 10
212.3488050308811
 20
40.85464702369278
 30
0.0
 10
212.3295040992346
 20
40.84053717926131
 30
0.0
 10
212.2871345451143
 20
40.82583407975952
 30
0.0
 10
212.2630362843311
 20
40.82584045647905
 30
0.0
 10
212.2407751107047
 20
40.83869155847017
 30
0.0
  0
ELLIPSE
  5
2A1
330
1F
100
AcDbEntity
  8
0
  6
Continuous
 62
     7
370
    15
100
AcDbEllipse
 10
217.2785908134
 20
46.3716331373
 30
0.0
 11
7.874888476696724
 21
13.63996451050156
 31
0.0
210
0.0
220
0.0
230
1.0
 40
0.1059897947
 41
1.105338485463661
 42
2.036099852607343
  0
SPLINE
  5
2A2
330
1F
100
AcDbEntity
  8
0
  6
Continuous
 62
     7
370
    15
100
AcDbSpline
210
0.0
220
0.0
230
1.0
 70
     8
 71
     3
 72
    12
 73
     8
 74
     0
 42
0.000000001
 43
0.00000001
 40
0.0
 40
0.0
 40
0.0
 40
0.0
 40
0.2500000000000009
 40
0.2500000000000009
 40
0.5000000000000018
 40
0.5000000000000018
 40
1.0
 40
1.0
 40
1.0
 40
1.0
 10
219.5524096748771
 20
53.50281407282576
 30
0.0
 10
219.5747036750817
 20
53.4899440204544
 30
0.0
 10
219.5866480508336
 20
53.46947672347479
 30
0.0
 10
219.5952493572561
 20
53.42473837400734
 30
0.0
 10
219.5926103369877
 20
53.4012781142175
 30
0.0
 10
219.5748673935289
 20
53.33069003399164
 30
0.0
 10
219.5505362962546
 20
53.2846510755024
 30
0.0
 10
219.5211943797456
 20
53.2395491693899
 30
0.0
  0
LINE
  5
2A3
330
1F
100
AcDbEntity
  8
0
  6
Continuous
 62
     7
370
    15
100
AcDbLine
 10
218.5113764585
 20
54.1037898223
 30
0.0
 11
219.5524095436
 21
53.5028142144
 31
0.0
  0
SPLINE
  5
2A4
330
1F
100
AcDbEntity
  8
0
  6
Continuous
 62
     7
370
    15
100
AcDbSpline
210
0.0
220
0.0
230
1.0
 70
     8
 71
     3
 72
    12
 73
     8
 74
     0
 42
0.000000001
 43
0.00000001
 40
0.0
 40
0.0
 40
0.0
 40
0.0
 40
0.5000000000000019
 40
0.5000000000000019
 40
0.7500000000000009
 40
0.7500000000000009
 40
1.0
 40
1.0
 40
1.0
 40
1.0
 10
218.1739750212148
 20
54.01728235055347
 30
0.0
 10
218.2253288505416
 20
54.04965364795564
 30
0.0
 10
218.2795570794435
 20
54.07842744196137
 30
0.0
 10
218.3679818930324
 20
54.10825650322321
 30
0.0
 10
218.3986431024243
 20
54.11580606696592
 30
0.0
 10
218.4586989663561
 20
54.12029575801834
 30
0.0
 10
218.4891153605678
 20
54.11664081480694
 30
0.0
 10
218.5113765341942
 20
54.10378971281582
 30
0.0
  0
ELLIPSE
  5
2A5
330
1F
100
AcDbEntity
  8
0
  6
Continuous
 62
     7
370
    15
100
AcDbEllipse
 10
227.4235608315
 20
40.5150666065
 30
0.0
 11
14.30238360604707
 21
-8.263902107297788
 31
0.0
210
0.0
220
0.0
230
1.0
 40
0.9534948969
 41
2.676532761479946
 42
3.607294128623637
  0
ELLIPSE
  5
2A6
330
1F
100
AcDbEntity
  8
0
  6
Continuous
 62
     7
370
    15
100
AcDbEllipse
 10
217.2785908134
 20
46.3716331373
 30
0.0
 11
-0.7461041289971034
 21
17.93477386060237
 31
0.0
210
0.0
220
0.0
230
1.0
 40
0.4444802122
 41
2.401404845694021
 42
2.866866793327973
  0
SPLINE
  5
2A7
330
1F
100
AcDbEntity
  8
0
  6
Continuous
 62
     7
370
    15
100
AcDbSpline
210
0.0
220
0.0
230
1.0
 70
     8
 71
     3
 72
    12
 73
     8
 74
     0
 42
0.000000001
 43
0.00000001
 40
0.0
 40
0.0
 40
0.0
 40
0.0
 40
0.2499999999999977
 40
0.2499999999999977
 40
0.4999999999999953
 40
0.4999999999999953
 40
1.0
 40
1.0
 40
1.0
 40
1.0
 10
212.2407751107046
 20
33.17295217258971
 30
0.0
 10
212.2630772721927
 20
33.16007740880969
 30
0.0
 10
212.2867846351321
 20
33.13926316974216
 30
0.0
 10
212.3298466290013
 20
33.09364611767548
 30
0.0
 10
212.3488499122559
 20
33.06968869792377
 30
0.0
 10
212.4011235827409
 20
32.99778882738735
 30
0.0
 10
212.4289422374831
 20
32.95093078827843
 30
0.0
 10
212.4531766236841
 20
32.90597887263379
 30
0.0
  0
LINE
  5
2A8
330
1F
100
AcDbEntity
  8
0
  6
Continuous
 62
     7
370
    15
100
AcDbLine
 10
211.1997418374
 20
33.7739274993
 30
0.0
 11
212.2407749225
 21
33.1729518914
 31
0.0
  0
SPLINE
  5
2A9
330
1F
100
AcDbEntity
  8
0
  6
Continuous
 62
     7
370
    15
100
AcDbSpline
210
0.0
220
0.0
230
1.0
 70
     8
 71
     3
 72
    12
 73
     8
 74
     0
 42
0.000000001
 43
0.00000001
 40
0.0
 40
0.0
 40
0.0
 40
0.0
 40
0.4999999999999953
 40
0.4999999999999953
 40
0.7499999999999977
 40
0.7499999999999977
 40
1.0
 40
1.0
 40
1.0
 40
1.0
 10
211.1059572651533
 20
33.68371205379736
 30
0.0
 10
211.1036309754016
 20
33.71578137346685
 30
0.0
 10
211.1058319804882
 20
33.74560135910956
 30
0.0
 10
211.1240973409292
 20
33.77661233085254
 30
0.0
 10
211.1328635838765
 20
33.78475419080375
 30
0.0
 10
211.1593275894131
 20
33.79011496208265
 30
0.0
 10
211.1775824759951
 20
33.78672021618739
 30
0.0
 10
211.1997419700218
 20
33.77392781257974
 30
0.0
  0
ELLIPSE
  5
2AA
330
1F
100
AcDbEntity
  8
0
  6
Continuous
 62
     7
370
    15
100
AcDbEllipse
 10
227.4235608315
 20
40.5150666065
 30
0.0
 11
15.90471575942237
 21
8.322204981098926
 31
0.0
210
0.0
220
0.0
230
1.0
 40
0.4445305117
 41
2.950908281021521
 42
3.578705763440485
  0
SPLINE
  5
2AB
330
1F
100
AcDbEntity
  8
0
  6
Continuous
 62
     7
370
    15
100
AcDbSpline
210
0.0
220
0.0
230
1.0
 70
     8
 71
     3
 72
    12
 73
     8
 74
     0
 42
0.000000001
 43
0.00000001
 40
0.0
 40
0.0
 40
0.0
 40
0.0
 40
0.2499999999999982
 40
0.2499999999999982
 40
0.4999999999999964
 40
0.4999999999999964
 40
1.0
 40
1.0
 40
1.0
 40
1.0
 10
225.1497419700219
 20
57.93603650725248
 30
0.0
 10
225.1274398085338
 20
57.94891127103249
 30
0.0
 10
225.1154952536712
 20
57.96293277805589
 30
0.0
 10
225.1069011875616
 20
57.98864545049985
 30
0.0
 10
225.1095470851716
 20
58.0001010013416
 30
0.0
 10
225.1273116850182
 20
58.03155549522182
 30
0.0
 10
225.1518031507163
 20
58.04820572773977
 30
0.0
 10
225.1809572651534
 20
58.0623270987808
 30
0.0
  0
LINE
  5
2AC
330
1F
100
AcDbEntity
  8
0
  6
Continuous
 62
     7
370
    15
100
AcDbLine
 10
226.1907752601
 20
57.3350611708
 30
0.0
 11
225.149742175
 21
57.9360367788
 31
0.0
  0
SPLINE
  5
2AD
330
1F
100
AcDbEntity
  8
0
  6
Continuous
 62
     7
370
    15
100
AcDbSpline
210
0.0
220
0.0
230
1.0
 70
     8
 71
     3
 72
    12
 73
     8
 74
     0
 42
0.000000001
 43
0.00000001
 40
0.0
 40
0.0
 40
0.0
 40
0.0
 40
0.4999999999999971
 40
0.4999999999999971
 40
0.7499999999999986
 40
0.7499999999999986
 40
1.0
 40
1.0
 40
1.0
 40
1.0
 10
226.5281766236841
 20
57.28459391761722
 30
0.0
 10
226.477520186375
 20
57.28312081830138
 30
0.0
 10
226.4225090203055
 20
57.28379740035108
 30
0.0
 10
226.3344855715775
 20
57.29307000703216
 30
0.0
 10
226.3037105426711
 20
57.29763767907887
 30
0.0
 10
226.2429779366666
 20
57.31206618081948
 30
0.0
 10
226.2129346047315
 20
57.32226846365479
 30
0.0
 10
226.1907751107047
 20
57.33506086726245
 30
0.0
  0
ELLIPSE
  5
2AE
330
1F
100
AcDbEntity
  8
0
  6
Continuous
 62
     7
370
    15
100
AcDbEllipse
 10
217.2785908134
 20
46.3716331373
 30
0.0
 11
15.90471575942235
 21
8.322204981098949
 31
0.0
210
0.0
220
0.0
230
1.0
 40
0.4445305117
 41
0.2747775750656742
 42
0.7400769945754234
  0
ELLIPSE
  5
2AF
330
1F
100
AcDbEntity
  8
0
  6
Continuous
 62
     7
370
    15
100
AcDbEllipse
 10
227.4235608315
 20
40.5150666065
 30
0.0
 11
-0.7461041289971889
 21
17.93477386060237
 31
0.0
210
0.0
220
0.0
230
1.0
 40
0.4444802122
 41
5.846123912132795
 42
6.473758866427491
  0
SPLINE
  5
2B0
330
1F
100
AcDbEntity
  8
0
  6
Continuous
 62
     7
370
    15
100
AcDbSpline
210
0.0
220
0.0
230
1.0
 70
     8
 71
     3
 72
    18
 73
    14
 74
     0
 42
0.000000001
 43
0.00000001
 40
0.0
 40
0.0
 40
0.0
 40
0.0
 40
0.2500000000000018
 40
0.2500000000000018
 40
0.3750000000000011
 40
0.3750000000000011
 40
0.5000000000000004
 40
0.5000000000000004
 40
0.6249999999999998
 40
0.6249999999999998
 40
0.7499999999999991
 40
0.7499999999999991
 40
1.0
 40
1.0
 40
1.0
 40
1.0
 10
241.3926414769244
 20
45.36481390501528
 30
0.0
 10
241.240030892672
 20
45.5236233226696
 30
0.0
 10
241.0960756335245
 20
45.69597071115637
 30
0.0
 10
240.8915018927948
 20
45.97377741541213
 30
0.0
 10
240.8249035327712
 20
46.07016668946527
 30
0.0
 10
240.6985126024225
 20
46.26466010730203
 30
0.0
 10
240.6383672798654
 20
46.3631843239466
 30
0.0
 10
240.5237514717581
 20
46.56254058839289
 30
0.0
 10
240.4692817085178
 20
46.66337309758388
 30
0.0
 10
240.3658256733474
 20
46.86719590424028
 30
0.0
 10
240.3167424408435
 20
46.97049380671473
 30
0.0
 10
240.180995530458
 20
47.27574581811938
 30
0.0
 10
240.1043607958264
 20
47.47552104945463
 30
0.0
 10
240.0408455375536
 20
47.67090092182605
 30
0.0
  0
ELLIPSE
  5
2B1
330
1F
100
AcDbEntity
  8
0
  6
Continuous
 62
     7
370
    15
100
AcDbEllipse
 10
229.3937233307
 20
39.3777160049
 30
0.0
 11
3.475918560926374
 21
15.75183195312307
 31
0.0
210
0.0
220
0.0
230
1.0
 40
0.6979108556
 41
5.412461905590212
 42
8.28998089940528
  0
SPLINE
  5
2B2
330
1F
100
AcDbEntity
  8
0
  6
Continuous
 62
     7
370
    15
100
AcDbSpline
210
0.0
220
0.0
230
1.0
 70
     8
 71
     3
 72
    18
 73
    14
 74
     0
 42
0.000000001
 43
0.00000001
 40
0.0
 40
0.0
 40
0.0
 40
0.0
 40
0.25
 40
0.25
 40
0.5
 40
0.5
 40
0.625
 40
0.625
 40
0.75
 40
0.75
 40
0.875
 40
0.875
 40
1.0
 40
1.0
 40
1.0
 40
1.0
 10
217.9608582192472
 20
34.92439555996324
 30
0.0
 10
217.9911351984801
 20
34.61384715749642
 30
0.0
 10
218.0646929280942
 20
34.30562657489916
 30
0.0
 10
218.2939418181461
 20
33.69138394517748
 30
0.0
 10
218.4438691875401
 20
33.40103988933691
 30
0.0
 10
218.7148329150842
 20
32.99083181721809
 30
0.0
 10
218.8113431200182
 20
32.86093705898035
 30
0.0
 10
219.0131842558414
 20
32.61704857314874
 30
0.0
 10
219.1188772559016
 20
32.50251143810166
 30
0.0
 10
219.3394592422518
 20
32.28836049312654
 30
0.0
 10
219.4527725599798
 20
32.19040698896526
 30
0.0
 10
219.6810169820215
 20
32.01538181403844
 30
0.0
 10
219.7965475248729
 20
31.93772194715031
 30
0.0
 10
219.9134632681147
 20
31.87022792522752
 30
0.0
  0
ELLIPSE
  5
2B3
330
1F
100
AcDbEntity
  8
0
  6
Continuous
 62
     7
370
    15
100
AcDbEllipse
 10
239.6007217999
 20
33.4853412113
 30
0.0
 11
1.219717898138896
 21
17.46970699452195
 31
0.0
210
0.0
220
0.0
230
1.0
 40
0.0751446216
 41
4.990321820520945
 42
5.465390943274945
  0
ELLIPSE
  5
2B4
330
1F
100
AcDbEntity
  8
0
  6
Continuous
 62
     7
370
    15
100
AcDbEllipse
 10
223.8547687406
 20
44.6587408947
 30
0.0
 11
0.6826910696961476
 21
1.478709975734063
 31
0.0
210
0.0
220
0.0
230
1.0
 40
0.4421870194
 41
0.0
 42
6.283185307179586
  0
ARC
  5
2B5
330
1F
100
AcDbEntity
  8
0
  6
Continuous
 62
     7
370
    15
100
AcDbCircle
 10
227.1658664439
 20
26.092293491
 30
0.0
 40
0.6453847082629222
100
AcDbArc
 50
62.3092928748
 51
105.6366511677
  0
SPLINE
  5
2B6
330
1F
100
AcDbEntity
  8
0
  6
Continuous
 62
     7
370
    15
100
AcDbSpline
210
0.0
220
0.0
230
1.0
 70
     8
 71
     3
 72
     8
 73
     4
 74
     0
 42
0.000000001
 43
0.00000001
 40
0.0
 40
0.0
 40
0.0
 40
0.0
 40
1.0
 40
1.0
 40
1.0
 40
1.0
 10
221.1490518008139
 20
20.4772686785687
 30
0.0
 10
220.71489212581
 20
23.69802763145379
 30
0.0
 10
220.385852626876
 20
26.87666279663642
 30
0.0
 10
220.2999707715422
 20
29.95785975975177
 30
0.0
  0
SPLINE
  5
2B7
330
1F
100
AcDbEntity
  8
0
  6
Continuous
 62
     7
370
    15
100
AcDbSpline
210
0.0
220
0.0
230
1.0
 70
     8
 71
     3
 72
    10
 73
     6
 74
     0
 42
0.000000001
 43
0.00000001
 40
0.0
 40
0.0
 40
0.0
 40
0.0
 40
0.5
 40
0.5
 40
1.0
 40
1.0
 40
1.0
 40
1.0
 10
220.2999707715422
 20
29.95785975975176
 30
0.0
 10
220.2929039738321
 20
30.21139638350915
 30
0.0
 10
220.2843809573303
 20
30.46253467433577
 30
0.0
 10
220.2709198260693
 20
30.96469467205103
 30
0.0
 10
220.2660915553535
 20
31.21475040702649
 30
0.0
 10
220.2649371440256
 20
31.46264118571419
 30
0.0
  0
ELLIPSE
  5
2B8
330
1F
100
AcDbEntity
  8
0
  6
Continuous
 62
     7
370
    15
100
AcDbEllipse
 10
241.2403745202
 20
46.6316141635
 30
0.0
 11
0.3021547106267235
 21
3.633765482612112
 31
0.0
210
0.0
220
0.0
230
1.0
 40
0.074944996
 41
3.97885519974579
 42
4.362530515455195
  0
SPLINE
  5
2B9
330
1F
100
AcDbEntity
  8
0
  6
Continuous
 62
     7
370
    15
100
AcDbSpline
210
0.0
220
0.0
230
1.0
 70
     8
 71
     3
 72
    10
 73
     6
 74
     0
 42
0.000000001
 43
0.00000001
 40
0.0
 40
0.0
 40
0.0
 40
0.0
 40
0.4999999999999992
 40
0.4999999999999992
 40
1.0
 40
1.0
 40
1.0
 40
1.0
 10
241.1390386614795
 20
36.65036655011682
 30
0.0
 10
241.145645929531
 20
36.89780439157906
 30
0.0
 10
241.1543792929094
 20
37.15295389026728
 30
0.0
 10
241.1741372665152
 20
37.668892115709
 30
0.0
 10
241.1850978983833
 20
37.92840654210655
 30
0.0
 10
241.1977509687547
 20
38.19033890434098
 30
0.0
  0
ELLIPSE
  5
2BA
330
1F
100
AcDbEntity
  8
0
  6
Continuous
 62
     7
370
    15
100
AcDbEllipse
 10
239.6007217999
 20
33.4853412113
 30
0.0
 11
1.23907849969666
 21
17.74700393094292
 31
0.0
210
0.0
220
0.0
230
1.0
 40
0.0751446216
 41
3.890269863312777
 42
4.896933521298526
  0
LINE
  5
2BB
330
1F
100
AcDbEntity
  8
0
  6
Continuous
 62
     7
370
    15
100
AcDbLine
 10
239.4869486557
 20
19.6699592881
 30
0.0
 11
239.6007213567
 21
20.4206878564
 31
0.0
  0
LWPOLYLINE
  5
2BC
330
1F
100
AcDbEntity
  8
0
  6
Continuous
 62
     7
370
    15
100
AcDbPolyline
 90
       12
 70
   128
 43
0.0
 10
197.7231253534
 20
46.8906729875
 10
197.7714862279
 20
48.0909244265
 10
197.9161302607
 20
49.3361421747
 10
198.1557476068
 20
50.6150493083
 10
198.4881683621
 20
51.9160639434
 10
198.9103829781
 20
53.2274043683
 10
199.4185659699
 20
54.5371939375
 10
200.0081164161
 20
55.8335717626
 10
200.6736951673
 20
57.1047973681
 10
201.4092742361
 20
58.3393577211
 10
202.2081924451
 20
59.5260738819
 10
203.0632145302
 20
60.6541978616
  0
LINE
  5
2BD
330
1F
100
AcDbEntity
  8
0
  6
Continuous
 62
     7
370
    15
100
AcDbLine
 10
211.1997418374
 20
33.7739274993
 30
0.0
 11
212.2422895749
 21
33.1718822304
 31
0.0
  0
LWPOLYLINE
  5
2BE
330
1F
100
AcDbEntity
  8
0
  6
Continuous
 62
     7
370
    15
100
AcDbPolyline
 90
        9
 70
   128
 43
0.0
 10
207.3442586065
 20
63.1255920018
 10
206.8420212838
 20
63.1216636184
 10
206.3117522733
 20
63.0234054379
 10
205.76252496
 20
62.8324987293
 10
205.2037365683
 20
62.5522102008
 10
204.6449481766
 20
62.1873353849
 10
204.0957208634
 20
61.7441177354
 10
203.5654518529
 20
61.2301403481
 10
203.0632145302
 20
60.6541978616
  0
ARC
  5
2BF
330
1F
100
AcDbEntity
  8
0
  6
Continuous
 62
     7
370
    15
100
AcDbCircle
 10
200.7940607896
 20
46.6033473278
 30
0.0
 40
3.084347660107863
100
AcDbArc
 50
174.6548011447
 51
232.6759370834
  0
ARC
  5
2C0
330
1F
100
AcDbEntity
  8
0
  6
Continuous
 62
     7
370
    15
100
AcDbCircle
 10
206.9132598859
 20
57.8003560314
 30
0.0
 40
5.342648971873931
100
AcDbArc
 50
62.0154839217
 51
85.3728438476
  0
LWPOLYLINE
  5
2C1
330
1F
100
AcDbEntity
  8
0
  6
Continuous
 62
     7
370
    15
100
AcDbPolyline
 90
       12
 70
   128
 43
0.0
 10
197.4989818275
 20
47.3735834884
 10
197.5459558073
 20
48.5394250622
 10
197.6864536439
 20
49.7489444573
 10
197.9192017123
 20
50.9911872301
 10
198.2420920114
 20
52.2549033855
 10
198.6522019209
 20
53.5286491818
 10
199.145816591
 20
54.8008892208
 10
199.7184651632
 20
56.0601011982
 10
200.3649625872
 20
57.2948826496
 10
201.0794537439
 20
58.4940499966
 10
201.8554681041
 20
59.6467446264
 10
202.6859778455
 20
60.7425261381
  0
ARC
  5
2C2
330
1F
100
AcDbEntity
  8
0
  6
Continuous
 62
     7
370
    15
100
AcDbCircle
 10
207.4653367776
 20
57.2843551724
 30
0.0
 40
5.899255735221609
100
AcDbArc
 50
103.4689956258
 51
144.1118634589
  0
ARC
  5
2C3
330
1F
100
AcDbEntity
  8
0
  6
Continuous
 62
     7
370
    15
100
AcDbCircle
 10
201.4100151017
 20
47.2954834576
 30
0.0
 40
3.911812992293253
100
AcDbArc
 50
178.8560037274
 51
201.1091891358
  0
LINE
  5
2C4
330
1F
100
AcDbEntity
  8
0
  6
Continuous
 62
     7
370
    15
100
AcDbLine
 10
226.536953998
 20
27.0437704487
 30
0.0
 11
224.2701739958
 21
25.5904404141
 31
0.0
  0
ARC
  5
2C5
330
1F
100
AcDbEntity
  8
0
  6
Continuous
 62
     7
370
    15
100
AcDbCircle
 10
226.6801026835
 20
26.8265440944
 30
0.0
 40
0.2601515619574916
100
AcDbArc
 50
39.6329881377
 51
123.384241803
  0
LINE
  5
2C6
330
1F
100
AcDbEntity
  8
0
  6
Continuous
 62
     7
370
    15
100
AcDbLine
 10
227.6425132496
 20
25.0869612143
 30
0.0
 11
226.8804573988
 21
26.992486323
 31
0.0
  0
ARC
  5
2C7
330
1F
100
AcDbEntity
  8
0
  6
Continuous
 62
     7
370
    15
100
AcDbCircle
 10
227.5602659515
 20
25.0618334826
 30
0.0
 40
0.0860001218296826
100
AcDbArc
 50
294.748677496
 51
16.988665181
  0
LINE
  5
2C8
330
1F
100
AcDbEntity
  8
0
  6
Continuous
 62
     7
370
    15
100
AcDbLine
 10
225.3294876179
 20
23.5304029536
 30
0.0
 11
227.5962689372
 21
24.9837322279
 31
0.0
  0
ARC
  5
2C9
330
1F
100
AcDbEntity
  8
0
  6
Continuous
 62
     7
370
    15
100
AcDbCircle
 10
225.1863384872
 20
23.7476236403
 30
0.0
 40
0.2601470744836902
100
AcDbArc
 50
219.6324033421
 51
303.385010548
  0
LINE
  5
2CA
330
1F
100
AcDbEntity
  8
0
  6
Continuous
 62
     7
370
    15
100
AcDbLine
 10
224.2239296834
 20
25.4872114277
 30
0.0
 11
224.9859855342
 21
23.581686319
 31
0.0
  0
ARC
  5
2CB
330
1F
100
AcDbEntity
  8
0
  6
Continuous
 62
     7
370
    15
100
AcDbCircle
 10
224.3061704815
 20
25.5123420713
 30
0.0
 40
0.085994756343611
100
AcDbArc
 50
114.7455566701
 51
196.9917860068
  0
ARC
  5
2CC
330
1F
100
AcDbEntity
  8
0
  6
Continuous
 62
     7
370
    15
100
AcDbCircle
 10
225.1860636375
 20
23.7406261164
 30
0.0
 40
0.2471398948597368
100
AcDbArc
 50
219.6323464957
 51
303.3849764329
  0
LINE
  5
2CD
330
1F
100
AcDbEntity
  8
0
  6
Continuous
 62
     7
370
    15
100
AcDbLine
 10
225.3220552846
 20
23.5342662377
 30
0.0
 11
227.5888366039
 21
24.987595512
 31
0.0
  0
ARC
  5
2CE
330
1F
100
AcDbEntity
  8
0
  6
Continuous
 62
     7
370
    15
100
AcDbCircle
 10
227.5546440993
 20
25.0617866681
 30
0.0
 40
0.0816912175346804
100
AcDbArc
 50
294.7435752569
 51
16.994460271
  0
LINE
  5
2CF
330
1F
100
AcDbEntity
  8
0
  6
Continuous
 62
     7
370
    15
100
AcDbLine
 10
227.632768108
 20
25.0856633152
 30
0.0
 11
226.8707135743
 21
26.9911876635
 31
0.0
  0
ARC
  5
2D0
330
1F
100
AcDbEntity
  8
0
  6
Continuous
 62
     7
370
    15
100
AcDbCircle
 10
226.6803774138
 20
26.8335435038
 30
0.0
 40
0.2471427423037421
100
AcDbArc
 50
39.632938302
 51
123.3843846266
  0
LINE
  5
2D1
330
1F
100
AcDbEntity
  8
0
  6
Continuous
 62
     7
370
    15
100
AcDbLine
 10
226.5443863313
 20
27.0399071648
 30
0.0
 11
224.2776063291
 21
25.5865771301
 31
0.0
  0
ARC
  5
2D2
330
1F
100
AcDbEntity
  8
0
  6
Continuous
 62
     7
370
    15
100
AcDbCircle
 10
224.3117989227
 20
25.51238507
 30
0.0
 40
0.0816920757580483
100
AcDbArc
 50
114.7433665583
 51
196.9930556733
  0
LINE
  5
2D3
330
1F
100
AcDbEntity
  8
0
  6
Continuous
 62
     7
370
    15
100
AcDbLine
 10
224.2336735079
 20
25.4885100873
 30
0.0
 11
224.9957280417
 21
23.582985739
 31
0.0
  0
ARC
  5
2D4
330
1F
100
AcDbEntity
  8
0
  6
Continuous
 62
     7
370
    15
100
AcDbCircle
 10
225.1823354367
 20
22.6736892357
 30
0.0
 40
0.0700948621756546
100
AcDbArc
 50
219.6332051483
 51
303.3832167826
  0
LINE
  5
2D5
330
1F
100
AcDbEntity
  8
0
  6
Continuous
 62
     7
370
    15
100
AcDbLine
 10
225.1808593908
 20
23.5180862792
 30
0.0
 11
225.3220552846
 21
23.5342662377
 31
0.0
  0
LINE
  5
2D6
330
1F
100
AcDbEntity
  8
0
  6
Continuous
 62
     7
370
    15
100
AcDbLine
 10
225.1808593908
 20
23.5180862792
 30
0.0
 11
224.9957280417
 21
23.582985739
 31
0.0
  0
LINE
  5
2D7
330
1F
100
AcDbEntity
  8
0
  6
Continuous
 62
     7
370
    15
100
AcDbLine
 10
225.218709895
 20
23.5696733683
 30
0.0
 11
225.1808593908
 21
23.5180862792
 31
0.0
  0
LINE
  5
2D8
330
1F
100
AcDbEntity
  8
0
  6
Continuous
 62
     7
370
    15
100
AcDbLine
 10
225.218709895
 20
23.5696733683
 30
0.0
 11
225.5882600482
 21
23.80660498
 31
0.0
  0
LINE
  5
2D9
330
1F
100
AcDbEntity
  8
0
  6
Continuous
 62
     7
370
    15
100
AcDbLine
 10
225.2209041653
 20
22.6151593897
 30
0.0
 11
227.4876828504
 21
24.0684901847
 31
0.0
  0
LINE
  5
2DA
330
1F
100
AcDbEntity
  8
0
  6
Continuous
 62
     7
370
    15
100
AcDbLine
 10
225.0944754735
 20
23.8803259583
 30
0.0
 11
225.218709895
 21
23.5696733683
 31
0.0
  0
LINE
  5
2DB
330
1F
100
AcDbEntity
  8
0
  6
Continuous
 62
     7
370
    15
100
AcDbLine
 10
224.3662977864
 20
24.5345021445
 30
0.0
 11
225.1283523201
 21
22.6289777962
 31
0.0
  0
SPLINE
  5
2DC
330
1F
100
AcDbEntity
  8
0
  6
Continuous
 62
     7
370
    15
100
AcDbSpline
210
0.0
220
0.0
230
1.0
 70
     8
 71
     3
 72
    14
 73
    10
 74
     0
 42
0.000000001
 43
0.00000001
 40
0.0
 40
0.0
 40
0.0
 40
0.0
 40
0.2717187511290384
 40
0.3854353548130167
 40
0.452361239025459
 40
0.5196961707365616
 40
0.5953266198181154
 40
0.7174669674329053
 40
1.0
 40
1.0
 40
1.0
 40
1.0
 10
225.3266413885635
 20
23.99760069269153
 30
0.0
 10
225.2887738095614
 20
24.00539888505253
 30
0.0
 10
225.2350583273287
 20
24.01646068710731
 30
0.0
 10
225.1673966006649
 20
24.01750153063288
 30
0.0
 10
225.1321550653094
 20
24.01080734460788
 30
0.0
 10
225.1077756084962
 20
23.99916196816172
 30
0.0
 10
225.0886676389339
 20
23.97909049263193
 30
0.0
 10
225.0760171961877
 20
23.93824876361115
 30
0.0
 10
225.086886672011
 20
23.90413991805578
 30
0.0
 10
225.0944754735413
 20
23.88032595834391
 30
0.0
  0
ARC
  5
2DD
330
1F
100
AcDbEntity
  8
0
  6
Continuous
 62
     7
370
    15
100
AcDbCircle
 10
225.5866765137
 20
25.2016165528
 30
0.0
 40
1.231776139463883
100
AcDbArc
 50
257.8128353864
 51
265.2039352531
  0
SPLINE
  5
2DE
330
1F
100
AcDbEntity
  8
0
  6
Continuous
 62
     7
370
    15
100
AcDbSpline
210
0.0
220
0.0
230
1.0
 70
     8
 71
     3
 72
    15
 73
    11
 74
     0
 42
0.000000001
 43
0.00000001
 40
0.0
 40
0.0
 40
0.0
 40
0.0
 40
0.2623360827067065
 40
0.3588332137681045
 40
0.4561304050259171
 40
0.5198415401571862
 40
0.5836769790995391
 40
0.6703566288330227
 40
0.88300482621745
 40
1.0
 40
1.0
 40
1.0
 40
1.0
 10
225.5882600481608
 20
23.80660498004465
 30
0.0
 10
225.6130348571586
 20
23.82394488659125
 30
0.0
 10
225.6469227777277
 20
23.847663066448
 30
0.0
 10
225.6724927727469
 20
23.8837247555198
 30
0.0
 10
225.6781780204164
 20
23.90580713134147
 30
0.0
 10
225.670645016935
 20
23.92478939507591
 30
0.0
 10
225.6527402781225
 20
23.9402209150151
 30
0.0
 10
225.6085672315998
 20
23.95846893201744
 30
0.0
 10
225.5483922796018
 20
23.96803662243641
 30
0.0
 10
225.5006373574084
 20
23.97255109719148
 30
0.0
 10
225.4836884486492
 20
23.97415334921505
 30
0.0
  0
ARC
  5
2DF
330
1F
100
AcDbEntity
  8
0
  6
Continuous
 62
     7
370
    15
100
AcDbCircle
 10
225.6080198341
 20
24.880509316
 30
0.0
 40
0.6503762120455054
100
AcDbArc
 50
219.6328357166
 51
303.3844310229
  0
LINE
  5
2E0
330
1F
100
AcDbEntity
  8
0
  6
Continuous
 62
     7
370
    15
100
AcDbLine
 10
225.9005510735
 20
26.2367257817
 30
0.0
 11
224.8794791309
 21
25.5820728801
 31
0.0
  0
ARC
  5
2E1
330
1F
100
AcDbEntity
  8
0
  6
Continuous
 62
     7
370
    15
100
AcDbCircle
 10
226.2584228076
 20
25.6936640602
 30
0.0
 40
0.6503754387897814
100
AcDbArc
 50
39.6328951348
 51
123.3844451753
  0
LINE
  5
2E2
330
1F
100
AcDbEntity
  8
0
  6
Continuous
 62
     7
370
    15
100
AcDbLine
 10
227.1025765588
 20
25.2501703272
 30
0.0
 11
226.7593075999
 21
26.1085166078
 31
0.0
  0
ARC
  5
2E3
330
1F
100
AcDbEntity
  8
0
  6
Continuous
 62
     7
370
    15
100
AcDbCircle
 10
226.8969750667
 20
25.1873456197
 30
0.0
 40
0.2149858540504511
100
AcDbArc
 50
294.7449566472
 51
16.9913405016
  0
LINE
  5
2E4
330
1F
100
AcDbEntity
  8
0
  6
Continuous
 62
     7
370
    15
100
AcDbLine
 10
225.9658918596
 20
24.3374468604
 30
0.0
 11
226.9869638021
 21
24.9920997621
 31
0.0
  0
LINE
  5
2E5
330
1F
100
AcDbEntity
  8
0
  6
Continuous
 62
     7
370
    15
100
AcDbLine
 10
224.7638650571
 20
25.3240015546
 30
0.0
 11
225.1071340161
 21
24.4656567946
 31
0.0
  0
ARC
  5
2E6
330
1F
100
AcDbEntity
  8
0
  6
Continuous
 62
     7
370
    15
100
AcDbCircle
 10
224.9694653511
 20
25.3868269148
 30
0.0
 40
0.214984898963076
100
AcDbArc
 50
114.7443358589
 51
196.9916001822
  0
LWPOLYLINE
  5
2E7
330
1F
100
AcDbEntity
  8
0
  6
Continuous
 62
     7
370
    15
100
AcDbPolyline
 90
       19
 70
   128
 43
0.0
 10
224.9953895498
 20
25.1620941427
 10
225.1259999991
 20
24.9844636744
 10
225.3539736198
 20
24.8433332943
 10
225.6518135444
 20
24.7557262393
 10
225.9835935359
 20
24.7322089446
 10
226.3092991129
 20
24.7756182362
 10
226.589642827
 20
24.8807176573
 10
226.7908136862
 20
25.0348315913
 10
226.8885456425
 20
25.2193712629
 10
226.8710507491
 20
25.4120784993
 10
226.7404416168
 20
25.589709728
 10
226.5124679961
 20
25.730840108
 10
226.2146280715
 20
25.818447163
 10
225.88284808
 20
25.8419644577
 10
225.5571425031
 20
25.7985551661
 10
225.2767974718
 20
25.6934549847
 10
225.0756266126
 20
25.5393410507
 10
224.9778946564
 20
25.3548013791
 10
224.9953895498
 20
25.1620941427
  0
LINE
  5
2E8
330
1F
100
AcDbEntity
  8
0
  6
Continuous
 62
     7
370
    15
100
AcDbLine
 10
226.8584620122
 20
25.1339854363
 30
0.0
 11
226.7961755556
 21
25.2269696108
 31
0.0
  0
LWPOLYLINE
  5
2E9
330
1F
100
AcDbEntity
  8
0
  6
Continuous
 62
     7
370
    15
100
AcDbPolyline
 90
        3
 70
   128
 43
0.0
 10
225.0981093221
 20
25.2571360728
 10
225.0756266126
 20
25.2331382436
 10
225.0079796037
 20
25.1339846759
  0
SPLINE
  5
2EA
330
1F
100
AcDbEntity
  8
0
  6
Continuous
 62
     7
370
    15
100
AcDbSpline
210
0.0
220
0.0
230
1.0
 70
     8
 71
     3
 72
    12
 73
     8
 74
     0
 42
0.000000001
 43
0.00000001
 40
0.0
 40
0.0
 40
0.0
 40
0.0
 40
0.0530167041581171
 40
0.4232686677419825
 40
0.5946992929338895
 40
0.9898339118030376
 40
1.0
 40
1.0
 40
1.0
 40
1.0
 10
227.490559372789
 20
24.98590909859193
 30
0.0
 10
227.4853982602302
 20
24.98516099237014
 30
0.0
 10
227.444193563116
 20
24.97918834792051
 30
0.0
 10
227.381785834935
 20
24.98184159822969
 30
0.0
 10
227.2856534170805
 20
25.00489077374944
 30
0.0
 10
227.2283434651806
 20
25.03109252944931
 30
0.0
 10
227.192092986907
 20
25.05403875755023
 30
0.0
 10
227.1911837223711
 20
25.05461431385842
 30
0.0
  0
SPLINE
  5
2EB
330
1F
100
AcDbEntity
  8
0
  6
Continuous
 62
     7
370
    15
100
AcDbSpline
210
0.0
220
0.0
230
1.0
 70
     8
 71
     3
 72
     9
 73
     5
 74
     0
 42
0.000000001
 43
0.00000001
 40
0.0
 40
0.0
 40
0.0
 40
0.0
 40
0.9501192207835794
 40
1.0
 40
1.0
 40
1.0
 40
1.0
 10
227.490559372789
 20
24.98590909859193
 30
0.0
 10
227.4979579517341
 20
24.98367663827821
 30
0.0
 10
227.5057449523371
 20
24.98132697492555
 30
0.0
 10
227.5102227440988
 20
24.97874181878816
 30
0.0
 10
227.5104460998411
 20
24.97861286918564
 30
0.0
  0
ARC
  5
2EC
330
1F
100
AcDbEntity
  8
0
  6
Continuous
 62
     7
370
    15
100
AcDbCircle
 10
227.474714568
 20
24.0924474974
 30
0.0
 40
0.0272420480026335
100
AcDbArc
 50
298.4270330412
 51
347.6147313254
  0
SPLINE
  5
2ED
330
1F
100
AcDbEntity
  8
0
  6
Continuous
 62
     7
370
    15
100
AcDbSpline
210
0.0
220
0.0
230
1.0
 70
     8
 71
     3
 72
     9
 73
     5
 74
     0
 42
0.000000001
 43
0.00000001
 40
0.0
 40
0.0
 40
0.0
 40
0.0
 40
0.049877897519119
 40
1.0
 40
1.0
 40
1.0
 40
1.0
 10
227.5299864324819
 20
25.02223505577142
 30
0.0
 10
227.5294093585645
 20
25.02157361441958
 30
0.0
 10
227.5178396263568
 20
25.008312402846
 30
0.0
 10
227.5038506286766
 20
24.99682424821939
 30
0.0
 10
227.490559372789
 20
24.98590909859193
 30
0.0
  0
LINE
  5
2EE
330
1F
100
AcDbEntity
  8
0
  6
Continuous
 62
     7
370
    15
100
AcDbLine
 10
226.6477304039
 20
26.7595385392
 30
0.0
 11
226.6855822251
 21
26.8769421829
 31
0.0
  0
LINE
  5
2EF
330
1F
100
AcDbEntity
  8
0
  6
Continuous
 62
     7
370
    15
100
AcDbLine
 10
226.6855822251
 20
26.8769421829
 30
0.0
 11
226.8707135743
 21
26.9911876635
 31
0.0
  0
LINE
  5
2F0
330
1F
100
AcDbEntity
  8
0
  6
Continuous
 62
     7
370
    15
100
AcDbLine
 10
226.7719661424
 20
26.4488851888
 30
0.0
 11
226.6477304039
 21
26.7595385392
 31
0.0
  0
SPLINE
  5
2F1
330
1F
100
AcDbEntity
  8
0
  6
Continuous
 62
     7
370
    15
100
AcDbSpline
210
0.0
220
0.0
230
1.0
 70
     8
 71
     3
 72
     9
 73
     5
 74
     0
 42
0.000000001
 43
0.00000001
 40
0.0
 40
0.0
 40
0.0
 40
0.0
 40
0.0498794193143693
 40
0.9999999999999999
 40
0.9999999999999999
 40
0.9999999999999999
 40
0.9999999999999999
 10
224.3364551834497
 20
25.45247989435554
 30
0.0
 10
224.3370322573525
 20
25.45248942190761
 30
0.0
 10
224.3486016362812
 20
25.45268043359555
 30
0.0
 10
224.3625901506544
 20
25.45177793467712
 30
0.0
 10
224.3758809260536
 20
25.45092045188069
 30
0.0
  0
SPLINE
  5
2F2
330
1F
100
AcDbEntity
  8
0
  6
Continuous
 62
     7
370
    15
100
AcDbSpline
210
0.0
220
0.0
230
1.0
 70
     8
 71
     3
 72
    12
 73
     8
 74
     0
 42
0.000000001
 43
0.00000001
 40
0.0
 40
0.0
 40
0.0
 40
0.0
 40
0.0530164507985454
 40
0.4232716224382165
 40
0.5947043699909166
 40
0.9898296012967663
 40
1.0
 40
1.0
 40
1.0
 40
1.0
 10
224.3758809260536
 20
25.4509204518807
 30
0.0
 10
224.3810420418654
 20
25.44863134460029
 30
0.0
 10
224.4222472495012
 20
25.43035561814337
 30
0.0
 10
224.4846550242964
 20
25.41437376093983
 30
0.0
 10
224.5807892572685
 20
25.40871931716562
 30
0.0
 10
224.6380960280044
 20
25.41780114881447
 30
0.0
 10
224.6743481898468
 20
25.42993048523891
 30
0.0
 10
224.6752578935606
 20
25.4302348561186
 30
0.0
  0
SPLINE
  5
2F3
330
1F
100
AcDbEntity
  8
0
  6
Continuous
 62
     7
370
    15
100
AcDbSpline
210
0.0
220
0.0
230
1.0
 70
     8
 71
     3
 72
     9
 73
     5
 74
     0
 42
0.000000001
 43
0.00000001
 40
0.0
 40
0.0
 40
0.0
 40
0.0
 40
0.9501037087220284
 40
1.0
 40
1.0
 40
1.0
 40
1.0
 10
224.3758809260536
 20
25.4509204518807
 30
0.0
 10
224.3684783701745
 20
25.46492518059311
 30
0.0
 10
224.3606870566462
 20
25.47966539114472
 30
0.0
 10
224.356219735916
 20
25.49532020352365
 30
0.0
 10
224.3559968331796
 20
25.49610132060202
 30
0.0
  0
LWPOLYLINE
  5
2F4
330
1F
100
AcDbEntity
  8
0
  6
Continuous
 62
     7
370
    15
100
AcDbPolyline
 90
        3
 70
   128
 43
0.0
 10
224.3651203088
 20
24.5387995823
 10
224.3652243588
 20
24.5381814264
 10
224.3662977864
 20
24.5345021445
  0
LINE
  5
2F5
330
1F
100
AcDbEntity
  8
0
  6
Continuous
 62
     7
370
    15
100
AcDbLine
 10
226.6855822251
 20
26.8769421829
 30
0.0
 11
226.5443863313
 21
27.0399071648
 31
0.0
  0
LINE
  5
2F6
330
1F
100
AcDbEntity
  8
0
  6
Continuous
 62
     7
370
    15
100
AcDbLine
 10
226.6477304039
 20
26.7595385392
 30
0.0
 11
226.2781828849
 21
26.5226054068
 31
0.0
  0
ARC
  5
2F7
330
1F
100
AcDbEntity
  8
0
  6
Continuous
 62
     7
370
    15
100
AcDbCircle
 10
226.2797651022
 20
25.1275945943
 30
0.0
 40
1.231776139463833
100
AcDbArc
 50
77.8128353864
 51
85.2039352531
  0
SPLINE
  5
2F8
330
1F
100
AcDbEntity
  8
0
  6
Continuous
 62
     7
370
    15
100
AcDbSpline
210
0.0
220
0.0
230
1.0
 70
     8
 71
     3
 72
    14
 73
    10
 74
     0
 42
0.000000001
 43
0.00000001
 40
0.0
 40
0.0
 40
0.0
 40
0.0
 40
0.2717179827756777
 40
0.3854312351100588
 40
0.4523607367476258
 40
0.519691685679766
 40
0.5953219208971331
 40
0.7174677663663765
 40
1.0
 40
1.0
 40
1.0
 40
1.0
 10
226.5398002273681
 20
26.33161045444745
 30
0.0
 10
226.5776676815501
 20
26.32381266010867
 30
0.0
 10
226.6313825644839
 20
26.31275150960097
 30
0.0
 10
226.6990450475401
 20
26.31170841321717
 30
0.0
 10
226.7342850373061
 20
26.31840398870017
 30
0.0
 10
226.7586668844305
 20
26.33004748475217
 30
0.0
 10
226.7777741529617
 20
26.35011978939474
 30
0.0
 10
226.7904241612576
 20
26.3909617917757
 30
0.0
 10
226.779554773123
 20
26.42507118828283
 30
0.0
 10
226.7719661423904
 20
26.44888518879508
 30
0.0
  0
SPLINE
  5
2F9
330
1F
100
AcDbEntity
  8
0
  6
Continuous
 62
     7
370
    15
100
AcDbSpline
210
0.0
220
0.0
230
1.0
 70
     8
 71
     3
 72
    15
 73
    11
 74
     0
 42
0.000000001
 43
0.00000001
 40
0.0
 40
0.0
 40
0.0
 40
0.0
 40
0.2623398557737504
 40
0.3588368439111604
 40
0.4561279590957786
 40
0.5198412012396947
 40
0.5836806783227986
 40
0.6703565578112046
 40
0.8830025802076009
 40
1.0
 40
1.0
 40
1.0
 40
1.0
 10
226.2781828848599
 20
26.52260540675503
 30
0.0
 10
226.2534076341606
 20
26.50526528667093
 30
0.0
 10
226.2195192539837
 20
26.48154691591225
 30
0.0
 10
226.1939489402332
 20
26.4454853080724
 30
0.0
 10
226.1882645292052
 20
26.42340344191654
 30
0.0
 10
226.1957948053594
 20
26.404420772159
 30
0.0
 10
226.2137005822506
 20
26.38898903118891
 30
0.0
 10
226.2578756774279
 20
26.37074322254937
 30
0.0
 10
226.3180482409561
 20
26.36117291576642
 30
0.0
 10
226.3658037341418
 20
26.35665965093425
 30
0.0
 10
226.3827531672824
 20
26.35505779792393
 30
0.0
  0
LINE
  5
2FA
330
1F
100
AcDbEntity
  8
0
  6
Continuous
 62
     7
370
    15
100
AcDbLine
 10
222.4025198849
 20
55.9812602853
 30
0.0
 11
222.527708951
 21
56.0656528646
 31
0.0
  0
LWPOLYLINE
  5
2FB
330
1F
100
AcDbEntity
  8
0
  6
Continuous
 62
     7
370
    15
100
AcDbPolyline
 90
       11
 70
   128
 43
0.0
 10
222.4590359276
 20
56.0145753347
 10
222.7208170522
 20
56.1648570458
 10
223.0502302964
 20
56.261083723
 10
223.41503008
 20
56.2938363127
 10
223.7795075471
 20
56.2599084998
 10
224.1079848556
 20
56.1626215175
 10
224.3683087343
 20
56.0114983307
 10
224.5349963098
 20
55.8213321957
 10
224.5917311128
 20
55.6107379059
 10
224.5329603783
 20
55.4003294477
 10
224.3835244978
 20
55.2262328761
  0
LWPOLYLINE
  5
2FC
330
1F
100
AcDbEntity
  8
0
  6
Continuous
 62
     7
370
    15
100
AcDbPolyline
 90
        7
 70
   128
 43
0.0
 10
222.9497886353
 20
54.9858089249
 10
222.7154872251
 20
55.0626572738
 10
222.4551633463
 20
55.2137804607
 10
222.2884757709
 20
55.4039465956
 10
222.2317406386
 20
55.6145410756
 10
222.2905117024
 20
55.8249493437
 10
222.4590359276
 20
56.0145753347
  0
LWPOLYLINE
  5
2FD
330
1F
100
AcDbEntity
  8
0
  6
Continuous
 62
     7
370
    15
100
AcDbPolyline
 90
       19
 70
   128
 43
0.0
 10
222.6043629534
 20
55.9532631414
 10
222.8548595885
 20
56.0921319694
 10
223.1725236168
 20
56.173166996
 10
223.5190402703
 20
56.1865940654
 10
223.8526144663
 20
56.1307937143
 10
224.1330121811
 20
56.0124963235
 10
224.3264132029
 20
55.8459704207
 10
224.409490774
 20
55.6513012475
 10
224.3722244812
 20
55.451968842
 10
224.2191091273
 20
55.27201565
 10
223.9686124921
 20
55.133146822
 10
223.6509484639
 20
55.0521117954
 10
223.3044314811
 20
55.0386849161
 10
222.9708572851
 20
55.0944852672
 10
222.6904598996
 20
55.2127824678
 10
222.4970585485
 20
55.3793085608
 10
222.4139809774
 20
55.573977734
 10
222.4512475995
 20
55.7733099494
 10
222.6043629534
 20
55.9532631414
  0
LWPOLYLINE
  5
2FE
330
1F
100
AcDbEntity
  8
0
  6
Continuous
 62
     7
370
    15
100
AcDbPolyline
 90
       17
 70
   128
 43
0.0
 10
225.1040151493
 20
25.2906070945
 10
225.1240849517
 20
25.0994988517
 10
225.2693111379
 20
24.9273709589
 10
225.5175863687
 20
24.8004285102
 10
225.8311141405
 20
24.7379970499
 10
226.1621591964
 20
24.7495831003
 10
226.4603257591
 20
24.833420393
 10
226.6802203557
 20
24.976746633
 10
226.7883652177
 20
25.1577416027
 10
226.7682954153
 20
25.3488498456
 10
226.6230692291
 20
25.5209777384
 10
226.3747939984
 20
25.647920187
 10
226.0612675436
 20
25.710350887
 10
225.7302211707
 20
25.698765597
 10
225.432054608
 20
25.6149283042
 10
225.2121600113
 20
25.4716020643
 10
225.1040151493
 20
25.2906070945
  0
LWPOLYLINE
  5
2FF
330
1F
100
AcDbEntity
  8
0
  6
Continuous
 62
     7
370
    15
100
AcDbPolyline
 90
       17
 70
   128
 43
0.0
 10
225.4012544813
 20
25.359022783
 10
225.4142396619
 20
25.2353634795
 10
225.5082100119
 20
25.1239866971
 10
225.6688593105
 20
25.0418480024
 10
225.8717278974
 20
25.0014511751
 10
226.0859339866
 20
25.0089481206
 10
226.2788664541
 20
25.0631952887
 10
226.4211502634
 20
25.1559361547
 10
226.4911258857
 20
25.2730504574
 10
226.4781407051
 20
25.3967097609
 10
226.3841703551
 20
25.5080865433
 10
226.2235210565
 20
25.590225238
 10
226.0206511525
 20
25.6306213049
 10
225.8064463804
 20
25.6231251197
 10
225.61351523
 20
25.5688771914
 10
225.4712301036
 20
25.4761370857
 10
225.4012544813
 20
25.359022783
  0
LWPOLYLINE
  5
300
330
1F
100
AcDbEntity
  8
0
  6
Continuous
 62
     7
370
    15
100
AcDbPolyline
 90
       17
 70
   128
 43
0.0
 10
225.4260236574
 20
25.3570687109
 10
225.4384187821
 20
25.2390313563
 10
225.5281178124
 20
25.1327161527
 10
225.6814638524
 20
25.0543114842
 10
225.8751141333
 20
25.0157508764
 10
226.0795829834
 20
25.0229064296
 10
226.2637449551
 20
25.0746878173
 10
226.3995605402
 20
25.1632141225
 10
226.4663567097
 20
25.2750045294
 10
226.4539615849
 20
25.3930418841
 10
226.3642625546
 20
25.4993570877
 10
226.2109165146
 20
25.5777617561
 10
226.0172675508
 20
25.6163216036
 10
225.8127973836
 20
25.6091668108
 10
225.628636729
 20
25.5573846628
 10
225.4928185097
 20
25.4688598782
 10
225.4260236574
 20
25.3570687109
  0
SPLINE
  5
301
330
1F
100
AcDbEntity
  8
0
  6
Continuous
 62
     7
370
    15
100
AcDbSpline
210
0.0
220
0.0
230
1.0
 70
     8
 71
     3
 72
    16
 73
    12
 74
     0
 42
0.000000001
 43
0.00000001
 40
0.0
 40
0.0
 40
0.0
 40
0.0
 40
0.1242209401015098
 40
0.2489986714422916
 40
0.3727411712483201
 40
0.4953011250602732
 40
0.6172016092910795
 40
0.7391030802989603
 40
0.8616674767261518
 40
0.9853936490704788
 40
1.0
 40
1.0
 40
1.0
 40
1.0
 10
226.3874327845562
 20
25.34635823684237
 30
0.0
 10
226.3961883823449
 20
25.35219750247117
 30
0.0
 10
226.4137388228365
 20
25.36390220686787
 30
0.0
 10
226.4285792986682
 20
25.38580236471482
 30
0.0
 10
226.4323787633729
 20
25.40799113453814
 30
0.0
 10
226.4242337275576
 20
25.42838768499638
 30
0.0
 10
226.405409691776
 20
25.44467960321175
 30
0.0
 10
226.3780034113925
 20
25.45515855714037
 30
0.0
 10
226.3450323888845
 20
25.45858013062451
 30
0.0
 10
226.3202921027398
 20
25.45568792479288
 30
0.0
 10
226.3077340869954
 20
25.45258140933613
 30
0.0
 10
226.306408102472
 20
25.45225339641584
 30
0.0
  0
SPLINE
  5
302
330
1F
100
AcDbEntity
  8
0
  6
Continuous
 62
     7
370
    15
100
AcDbSpline
210
0.0
220
0.0
230
1.0
 70
     8
 71
     3
 72
    12
 73
     8
 74
     0
 42
0.000000001
 43
0.00000001
 40
0.0
 40
0.0
 40
0.0
 40
0.0
 40
0.209366299466357
 40
0.4192647079971841
 40
0.6249529996754379
 40
0.828169337374137
 40
1.0
 40
1.0
 40
1.0
 40
1.0
 10
226.306408102472
 20
25.45225339641584
 30
0.0
 10
226.2863074625145
 20
25.44953453751829
 30
0.0
 10
226.24605509638
 20
25.4440899096834
 30
0.0
 10
226.1889385940414
 20
25.45412028385442
 30
0.0
 10
226.1432616962783
 20
25.47749970776312
 30
0.0
 10
226.1136457313396
 20
25.51002570291201
 30
0.0
 10
226.1073679737271
 20
25.53482383562313
 30
0.0
 10
226.1044917708794
 20
25.54618529051264
 30
0.0
  0
SPLINE
  5
303
330
1F
100
AcDbEntity
  8
0
  6
Continuous
 62
     7
370
    15
100
AcDbSpline
210
0.0
220
0.0
230
1.0
 70
     8
 71
     3
 72
    16
 73
    12
 74
     0
 42
0.000000001
 43
0.00000001
 40
0.0
 40
0.0
 40
0.0
 40
0.0
 40
0.1231860004463612
 40
0.2479784755970612
 40
0.3717290324627029
 40
0.4942897103556655
 40
0.6161892509962527
 40
0.7380926189386612
 40
0.8606469111640425
 40
0.9843600840760108
 40
1.0
 40
1.0
 40
1.0
 40
1.0
 10
226.1044917708794
 20
25.54618529051264
 30
0.0
 10
226.1022805670612
 20
25.55413009137221
 30
0.0
 10
226.0978293230067
 20
25.57012330163102
 30
0.0
 10
226.0772319285046
 20
25.59004532097423
 30
0.0
 10
226.0488440531236
 20
25.60407795536623
 30
0.0
 10
226.0151288112713
 20
25.61057713330005
 30
0.0
 10
225.9801911711973
 20
25.6090210009318
 30
0.0
 10
225.9477160452841
 20
25.59961539501615
 30
0.0
 10
225.9212717038314
 20
25.58330359509687
 30
0.0
 10
225.9087248472102
 20
25.56799254155666
 30
0.0
 10
225.904550666923
 20
25.55925840278529
 30
0.0
 10
225.9040821891211
 20
25.55827815041201
 30
0.0
  0
SPLINE
  5
304
330
1F
100
AcDbEntity
  8
0
  6
Continuous
 62
     7
370
    15
100
AcDbSpline
210
0.0
220
0.0
230
1.0
 70
     8
 71
     3
 72
    12
 73
     8
 74
     0
 42
0.000000001
 43
0.00000001
 40
0.0
 40
0.0
 40
0.0
 40
0.0
 40
0.2093674637625461
 40
0.4192613675072501
 40
0.6249525996911311
 40
0.8281676036659855
 40
1.0
 40
1.0
 40
1.0
 40
1.0
 10
225.9040821891211
 20
25.55827815041201
 30
0.0
 10
225.8945334553125
 20
25.54567729676384
 30
0.0
 10
225.8754119780658
 20
25.52044390549403
 30
0.0
 10
225.8264372796885
 20
25.49511590930773
 30
0.0
 10
225.7695488907569
 20
25.48430808348193
 30
0.0
 10
225.7124284027804
 20
25.48792610578941
 30
0.0
 10
225.6787010817747
 20
25.49939073635564
 30
0.0
 10
225.6632485112848
 20
25.50464339226434
 30
0.0
  0
SPLINE
  5
305
330
1F
100
AcDbEntity
  8
0
  6
Continuous
 62
     7
370
    15
100
AcDbSpline
210
0.0
220
0.0
230
1.0
 70
     8
 71
     3
 72
    16
 73
    12
 74
     0
 42
0.000000001
 43
0.00000001
 40
0.0
 40
0.0
 40
0.0
 40
0.0
 40
0.1243650694337463
 40
0.2491430402710028
 40
0.3728794769366143
 40
0.4954352710517301
 40
0.6173373151398809
 40
0.7392438822447471
 40
0.8618089885099997
 40
0.985535181023778
 40
1.0
 40
1.0
 40
1.0
 40
1.0
 10
225.6632485112848
 20
25.50464339226434
 30
0.0
 10
225.6522401432835
 20
25.50824706736486
 30
0.0
 10
225.6301868586695
 20
25.51546638203883
 30
0.0
 10
225.5945964155307
 20
25.51662077186
 30
0.0
 10
225.56235825468
 20
25.51036050042827
 30
0.0
 10
225.5367731170219
 20
25.49701067076459
 30
0.0
 10
225.5206761437854
 20
25.47836882706981
 30
0.0
 10
225.5156542947227
 20
25.45641052253093
 30
0.0
 10
225.5222552876251
 20
25.43344894458054
 30
0.0
 10
225.5345705772622
 20
25.41814268304904
 30
0.0
 10
225.5429830552691
 20
25.41090629859795
 30
0.0
 10
225.5438636116106
 20
25.41014884708211
 30
0.0
  0
SPLINE
  5
306
330
1F
100
AcDbEntity
  8
0
  6
Continuous
 62
     7
370
    15
100
AcDbSpline
210
0.0
220
0.0
230
1.0
 70
     8
 71
     3
 72
    12
 73
     8
 74
     0
 42
0.000000001
 43
0.00000001
 40
0.0
 40
0.0
 40
0.0
 40
0.0
 40
0.2092367422731977
 40
0.4191385590085578
 40
0.6248323483213387
 40
0.8280518172397782
 40
1.0
 40
1.0
 40
1.0
 40
1.0
 10
225.5438636116106
 20
25.41014884708211
 30
0.0
 10
225.554409507025
 20
25.39789049443321
 30
0.0
 10
225.5755348187623
 20
25.37333482505477
 30
0.0
 10
225.5836910867089
 20
25.33440382281913
 30
0.0
 10
225.5724893979244
 20
25.3008950832324
 30
0.0
 10
225.5449899105387
 20
25.27629668397653
 30
0.0
 10
225.5175321305788
 20
25.26736760716991
 30
0.0
 10
225.5049475824559
 20
25.26327520068509
 30
0.0
  0
SPLINE
  5
307
330
1F
100
AcDbEntity
  8
0
  6
Continuous
 62
     7
370
    15
100
AcDbSpline
210
0.0
220
0.0
230
1.0
 70
     8
 71
     3
 72
    16
 73
    12
 74
     0
 42
0.000000001
 43
0.00000001
 40
0.0
 40
0.0
 40
0.0
 40
0.0
 40
0.1242209855470782
 40
0.2490009693747858
 40
0.3727393526131129
 40
0.4952993512629714
 40
0.6171998800904196
 40
0.7391079588120709
 40
0.8616664733409665
 40
0.9853973263605393
 40
1.0
 40
1.0
 40
1.0
 40
1.0
 10
225.5049475824559
 20
25.26327520068509
 30
0.0
 10
225.4961917725349
 20
25.26029266660529
 30
0.0
 10
225.4786407512773
 20
25.25431417694998
 30
0.0
 10
225.4638036458304
 20
25.23867324314254
 30
0.0
 10
225.460000986631
 20
25.22040803515183
 30
0.0
 10
225.4681468035335
 20
25.20124979685668
 30
0.0
 10
225.4869710576968
 20
25.18351753949658
 30
0.0
 10
225.5143772259089
 20
25.16901886876619
 30
0.0
 10
225.547348669178
 20
25.15924209863857
 30
0.0
 10
225.5720896624506
 20
25.1562736328935
 30
0.0
 10
225.5846467241697
 20
25.15602210203228
 30
0.0
 10
225.5859722645401
 20
25.15599555009534
 30
0.0
  0
SPLINE
  5
308
330
1F
100
AcDbEntity
  8
0
  6
Continuous
 62
     7
370
    15
100
AcDbSpline
210
0.0
220
0.0
230
1.0
 70
     8
 71
     3
 72
    12
 73
     8
 74
     0
 42
0.000000001
 43
0.00000001
 40
0.0
 40
0.0
 40
0.0
 40
0.0
 40
0.209362773656398
 40
0.4192619902289988
 40
0.6249515558643796
 40
0.8281686758810158
 40
1.0
 40
1.0
 40
1.0
 40
1.0
 10
225.5859722645401
 20
25.15599555009534
 30
0.0
 10
225.6060724915734
 20
25.15394544287802
 30
0.0
 10
225.6463244477491
 20
25.14983997552532
 30
0.0
 10
225.7034400494068
 20
25.13265289955617
 30
0.0
 10
225.7491190780978
 20
25.11063658277639
 30
0.0
 10
225.778734547365
 20
25.08675261422196
 30
0.0
 10
225.7850123655385
 20
25.07077048309405
 30
0.0
 10
225.7878885961326
 20
25.06344814701481
 30
0.0
  0
SPLINE
  5
309
330
1F
100
AcDbEntity
  8
0
  6
Continuous
 62
     7
370
    15
100
AcDbSpline
210
0.0
220
0.0
230
1.0
 70
     8
 71
     3
 72
    16
 73
    12
 74
     0
 42
0.000000001
 43
0.00000001
 40
0.0
 40
0.0
 40
0.0
 40
0.0
 40
0.1231915179801179
 40
0.2479773530476661
 40
0.3717277436737881
 40
0.4942882569256474
 40
0.6161876338132656
 40
0.7380934701285875
 40
0.8606470983631238
 40
0.984360105085792
 40
1.0
 40
1.0
 40
1.0
 40
1.0
 10
225.7878885961326
 20
25.06344814701481
 30
0.0
 10
225.7901002785776
 20
25.05833689191299
 30
0.0
 10
225.7945522665675
 20
25.04804823298837
 30
0.0
 10
225.8151487031797
 20
25.03438787020052
 30
0.0
 10
225.8435363504536
 20
25.02429983787319
 30
0.0
 10
225.8772516356194
 20
25.01906113271864
 30
0.0
 10
225.9121890930665
 20
25.01919922723592
 30
0.0
 10
225.9446660742179
 20
25.02460462495587
 30
0.0
 10
225.9711081564041
 20
25.03457914496713
 30
0.0
 10
225.9836555322951
 20
25.04401943644102
 30
0.0
 10
225.9878297013497
 20
25.04937026083739
 30
0.0
 10
225.988298177891
 20
25.04997079609916
 30
0.0
  0
SPLINE
  5
30A
330
1F
100
AcDbEntity
  8
0
  6
Continuous
 62
     7
370
    15
100
AcDbSpline
210
0.0
220
0.0
230
1.0
 70
     8
 71
     3
 72
    12
 73
     8
 74
     0
 42
0.000000001
 43
0.00000001
 40
0.0
 40
0.0
 40
0.0
 40
0.0
 40
0.2093677216050792
 40
0.4192618838406433
 40
0.6249475535884023
 40
0.8281673920490535
 40
1.0
 40
1.0
 40
1.0
 40
1.0
 10
225.988298177891
 20
25.04997079609916
 30
0.0
 10
225.9978469220041
 20
25.05780300628646
 30
0.0
 10
226.0169684198861
 20
25.07348712021094
 30
0.0
 10
226.0659425084849
 20
25.09165829829442
 30
0.0
 10
226.1228312387222
 20
25.10382683494126
 30
0.0
 10
226.1799515287928
 20
25.10885259592851
 30
0.0
 10
226.2136792779513
 20
25.10620366803244
 30
0.0
 10
226.2291318557273
 20
25.10499004526311
 30
0.0
  0
SPLINE
  5
30B
330
1F
100
AcDbEntity
  8
0
  6
Continuous
 62
     7
370
    15
100
AcDbSpline
210
0.0
220
0.0
230
1.0
 70
     8
 71
     3
 72
    16
 73
    12
 74
     0
 42
0.000000001
 43
0.00000001
 40
0.0
 40
0.0
 40
0.0
 40
0.0
 40
0.1243646150990139
 40
0.2491421300931124
 40
0.3728781147205343
 40
0.4954336485736196
 40
0.6173352473250465
 40
0.7392453187840028
 40
0.8618099772902099
 40
0.985535717803223
 40
1.0
 40
1.0
 40
1.0
 40
1.0
 10
226.2291318557273
 20
25.10499004526311
 30
0.0
 10
226.2401402137023
 20
25.10424631597582
 30
0.0
 10
226.2621934782305
 20
25.10275638816397
 30
0.0
 10
226.2977840719755
 20
25.10786133455213
 30
0.0
 10
226.3300216828261
 20
25.11804213487884
 30
0.0
 10
226.3556089177862
 20
25.13262571951379
 30
0.0
 10
226.3717059772375
 20
25.14982461126958
 30
0.0
 10
226.3767260221827
 20
25.16776164634065
 30
0.0
 10
226.3701236130021
 20
25.18436320717422
 30
0.0
 10
226.3578136442221
 20
25.19381564513131
 30
0.0
 10
226.3493964607918
 20
25.19769345103899
 30
0.0
 10
226.3485154383124
 20
25.19809933908976
 30
0.0
  0
SPLINE
  5
30C
330
1F
100
AcDbEntity
  8
0
  6
Continuous
 62
     7
370
    15
100
AcDbSpline
210
0.0
220
0.0
230
1.0
 70
     8
 71
     3
 72
    12
 73
     8
 74
     0
 42
0.000000001
 43
0.00000001
 40
0.0
 40
0.0
 40
0.0
 40
0.0
 40
0.2092382539211248
 40
0.4191396694015669
 40
0.6248330655036275
 40
0.8280521459413352
 40
0.9999999999999999
 40
0.9999999999999999
 40
0.9999999999999999
 40
0.9999999999999999
 10
226.3485154383124
 20
25.19809933908976
 30
0.0
 10
226.337970104693
 20
25.20559210996797
 30
0.0
 10
226.3168460149811
 20
25.22060139937823
 30
0.0
 10
226.308689164359
 20
25.25237216738397
 30
0.0
 10
226.3198909994996
 20
25.28723759688326
 30
0.0
 10
226.3473904502511
 20
25.32047599983799
 30
0.0
 10
226.3748482344777
 20
25.3382239381463
 30
0.0
 10
226.3874327845562
 20
25.34635823684237
 30
0.0
  0
LINE
  5
30D
330
1F
100
AcDbEntity
  8
0
  6
Continuous
 62
     7
370
    15
100
AcDbLine
 10
226.3485154383
 20
25.1299300026
 30
0.0
 11
226.3485154383
 21
25.1980993391
 31
0.0
  0
LWPOLYLINE
  5
30E
330
1F
100
AcDbEntity
  8
0
  6
Continuous
 62
     7
370
    15
100
AcDbPolyline
 90
        3
 70
   128
 43
0.0
 10
225.6125590234
 20
25.1535872006
 10
225.6294309337
 20
25.1535461422
 10
225.6632485113
 20
25.1484199347
  0
ARC
  5
30F
330
1F
100
AcDbEntity
  8
0
  6
Continuous
 62
     7
370
    15
100
AcDbCircle
 10
225.7379606771
 20
25.3781939942
 30
0.0
 40
0.2416154510480676
100
AcDbArc
 50
251.9878105128
 51
313.4360926079
  0
LWPOLYLINE
  5
310
330
1F
100
AcDbEntity
  8
0
  6
Continuous
 62
     7
370
    15
100
AcDbPolyline
 90
        9
 70
   128
 43
0.0
 10
225.9040821891
 20
25.2027469383
 10
225.9204430689
 20
25.2205860191
 10
225.9461987446
 20
25.2342363906
 10
225.9783818147
 20
25.2421264316
 10
226.0132833565
 20
25.2433467762
 10
226.0468796631
 20
25.2377567616
 10
226.075301127
 20
25.2259996349
 10
226.0952734649
 20
25.2094318415
 10
226.1044917709
 20
25.1899618329
  0
ARC
  5
311
330
1F
100
AcDbEntity
  8
0
  6
Continuous
 62
     7
370
    15
100
AcDbCircle
 10
226.2355280654
 20
25.2419880458
 30
0.0
 40
0.1409866564450822
100
AcDbArc
 50
201.6548921563
 51
266.439168169
  0
LINE
  5
312
330
1F
100
AcDbEntity
  8
0
  6
Continuous
 62
     7
370
    15
100
AcDbLine
 10
226.3064081025
 20
25.1116227655
 30
0.0
 11
226.3064081025
 21
25.4522533964
 31
0.0
  0
LINE
  5
313
330
1F
100
AcDbEntity
  8
0
  6
Continuous
 62
     7
370
    15
100
AcDbLine
 10
226.1044917709
 20
25.1899618329
 30
0.0
 11
226.1044917709
 21
25.5461852905
 31
0.0
  0
LINE
  5
314
330
1F
100
AcDbEntity
  8
0
  6
Continuous
 62
     7
370
    15
100
AcDbLine
 10
225.9040821891
 20
25.2027469383
 30
0.0
 11
225.9040821891
 21
25.5582781504
 31
0.0
  0
LINE
  5
315
330
1F
100
AcDbEntity
  8
0
  6
Continuous
 62
     7
370
     0
100
AcDbLine
 10
222.664193358
 20
19.523626058
 30
0.0
 11
222.664193358
 21
29.6433876691
 31
0.0
  0
LINE
  5
316
330
1F
100
AcDbEntity
  8
0
  6
Continuous
 62
     7
370
     0
100
AcDbLine
 10
241.2403740338
 20
44.1819917628
 30
0.0
 11
219.9134634849
 21
31.8702283662
 31
0.0
  0
LWPOLYLINE
  5
317
330
1F
100
AcDbEntity
  8
0
  6
Continuous
 62
     7
370
     0
100
AcDbPolyline
 90
       25
 70
   128
 43
0.0
 10
207.1482798562
 20
39.3613092045
 10
207.1895073766
 20
40.4906611711
 10
207.3128823974
 20
41.6592508281
 10
207.5174934932
 20
42.8584274253
 10
207.8018253528
 20
44.0793121302
 10
208.1637719511
 20
45.3128660884
 10
208.600654329
 20
46.549956392
 10
209.1092377158
 20
47.7814239493
 10
209.685756554
 20
48.9981515436
 10
210.3259428168
 20
50.1911311322
 10
211.0250569592
 20
51.351530003
 10
211.7779228214
 20
52.4707576923
 10
212.5789664827
 20
53.5405271988
 10
213.4222567621
 20
54.5529179072
 10
214.3015509868
 20
55.5004347108
 10
215.2103387858
 20
56.3760637107
 10
216.1418916453
 20
57.1733198356
 10
217.0893131225
 20
57.8863024453
 10
218.0455885248
 20
58.5097316151
 10
219.0036380461
 20
59.0389932591
 10
219.9563686268
 20
59.4701675477
 10
220.896726391
 20
59.80006146
 10
221.8177496177
 20
60.0262348011
 10
222.7126190785
 20
60.1470117703
 10
222.7498551607
 20
60.1497851066
  0
ARC
  5
318
330
1F
100
AcDbEntity
  8
0
  6
Continuous
 62
     7
370
     0
100
AcDbCircle
 10
217.8139361471
 20
39.1145124626
 30
0.0
 40
10.66851127136826
100
AcDbArc
 50
178.6744473667
 51
204.0036853342
  0
LWPOLYLINE
  5
319
330
1F
100
AcDbEntity
  8
0
  6
Continuous
 62
     7
370
     0
100
AcDbPolyline
 90
        3
 70
   128
 43
0.0
 10
220.2657762356
 20
29.976197561
 10
220.1858546155
 20
30.668624964
 10
220.135747281
 20
31.7419066621
  0
LINE
  5
31A
330
1F
100
AcDbEntity
  8
0
  6
Continuous
 62
     7
370
     0
100
AcDbLine
 10
226.8073444704
 20
27.0581090998
 30
0.0
 11
226.8053003483
 21
27.0774478075
 31
0.0
  0
LINE
  5
31B
330
1F
100
AcDbEntity
  8
0
  6
Continuous
 62
     7
370
     0
100
AcDbLine
 10
240.0408457492
 20
47.6709007396
 30
0.0
 11
217.9608586038
 21
34.9243954776
 31
0.0
  0
LINE
  5
31C
330
1F
100
AcDbEntity
  8
0
  6
Continuous
 62
     7
370
     0
100
AcDbLine
 10
221.7287717142
 20
20.142603136
 30
0.0
 11
221.7287717142
 21
30.6175868496
 31
0.0
  0
LINE
  5
31D
330
1F
100
AcDbEntity
  8
0
  6
Continuous
 62
     7
370
     0
100
AcDbLine
 10
219.5524095436
 20
53.5028142144
 30
0.0
 11
218.1989336387
 21
51.1585248069
 31
0.0
  0
LINE
  5
31E
330
1F
100
AcDbEntity
  8
0
  6
Continuous
 62
     7
370
     0
100
AcDbLine
 10
213.5943413773
 20
43.1831370854
 30
0.0
 11
212.2407749225
 21
40.8386916014
 31
0.0
  0
LINE
  5
31F
330
1F
100
AcDbEntity
  8
0
  6
Continuous
 62
     7
370
     0
100
AcDbLine
 10
218.5113764585
 20
54.1037898223
 30
0.0
 11
211.1997418374
 21
41.4396672093
 31
0.0
  0
LINE
  5
320
330
1F
100
AcDbEntity
  8
0
  6
Continuous
 62
     7
370
     0
100
AcDbLine
 10
218.1739751311
 20
54.0172824928
 30
0.0
 11
211.1059571969
 21
41.7751163579
 31
0.0
  0
LINE
  5
321
330
1F
100
AcDbEntity
  8
0
  6
Continuous
 62
     7
370
     0
100
AcDbLine
 10
203.0632145302
 20
60.6541978616
 30
0.0
 11
213.4758048476
 21
54.7551396797
 31
0.0
  0
LINE
  5
322
330
1F
100
AcDbEntity
  8
0
  6
Continuous
 62
     7
370
     0
100
AcDbLine
 10
197.7231253534
 20
46.8906729875
 30
0.0
 11
207.1684339729
 21
41.1569719691
 31
0.0
  0
LINE
  5
323
330
1F
100
AcDbEntity
  8
0
  6
Continuous
 62
     7
370
     0
100
AcDbLine
 10
226.5277435945
 20
57.2845907594
 30
0.0
 11
225.1809571847
 21
58.0623271311
 31
0.0
  0
LINE
  5
324
330
1F
100
AcDbEntity
  8
0
  6
Continuous
 62
     7
370
     0
100
AcDbLine
 10
211.1059571969
 20
33.6837121073
 30
0.0
 11
212.4533748217
 21
32.905611985
 31
0.0
  0
LINE
  5
325
330
1F
100
AcDbEntity
  8
0
  6
Continuous
 62
     7
370
     0
100
AcDbLine
 10
207.3442586065
 20
63.1255920018
 30
0.0
 11
217.0119364683
 21
57.9229208102
 31
0.0
  0
LINE
  5
326
330
1F
100
AcDbEntity
  8
0
  6
Continuous
 62
     7
370
     0
100
AcDbLine
 10
202.6859778455
 20
60.7425261381
 30
0.0
 11
203.0632145302
 21
60.6541978616
 31
0.0
  0
LINE
  5
327
330
1F
100
AcDbEntity
  8
0
  6
Continuous
 62
     7
370
     0
100
AcDbLine
 10
197.4989818275
 20
47.3735834884
 30
0.0
 11
197.7231253534
 21
46.8906729875
 31
0.0
  0
LINE
  5
328
330
1F
100
AcDbEntity
  8
0
  6
Continuous
 62
     7
370
     0
100
AcDbLine
 10
225.2209041653
 20
22.6151593897
 30
0.0
 11
225.3294876179
 21
23.5304029536
 31
0.0
  0
LINE
  5
329
330
1F
100
AcDbEntity
  8
0
  6
Continuous
 62
     7
370
     0
100
AcDbLine
 10
225.1283523201
 20
22.6289777962
 30
0.0
 11
224.9859855342
 21
23.581686319
 31
0.0
  0
SPLINE
  5
32A
330
1F
100
AcDbEntity
  8
0
  6
Continuous
 62
     7
370
     0
100
AcDbSpline
210
0.0
220
0.0
230
1.0
 70
     8
 71
     3
 72
     9
 73
     5
 74
     0
 42
0.000000001
 43
0.00000001
 40
0.0
 40
0.0
 40
0.0
 40
0.0
 40
0.4786025875796298
 40
1.0
 40
1.0
 40
1.0
 40
1.0
 10
226.2640781785879
 20
24.15829090331761
 30
0.0
 10
226.1680677430041
 20
24.10068197594623
 30
0.0
 10
225.9674619834963
 20
23.98031294981389
 30
0.0
 10
225.7182161702461
 20
23.86613635903549
 30
0.0
 10
225.5882600481608
 20
23.80660498004465
 30
0.0
  0
LWPOLYLINE
  5
32B
330
1F
100
AcDbEntity
  8
0
  6
Continuous
 62
     7
370
     0
100
AcDbPolyline
 90
        3
 70
   128
 43
0.0
 10
227.2851501211
 20
24.812943805
 10
226.7133490957
 20
24.4463386058
 10
226.2640781786
 20
24.1582909033
  0
LINE
  5
32C
330
1F
100
AcDbEntity
  8
0
  6
Continuous
 62
     7
370
     0
100
AcDbLine
 10
227.5104460998
 20
24.9786128692
 30
0.0
 11
227.2851501211
 21
24.812943805
 31
0.0
  0
LINE
  5
32D
330
1F
100
AcDbEntity
  8
0
  6
Continuous
 62
     7
370
     0
100
AcDbLine
 10
227.5104460998
 20
24.9786128692
 30
0.0
 11
227.5888366039
 21
24.987595512
 31
0.0
  0
LINE
  5
32E
330
1F
100
AcDbEntity
  8
0
  6
Continuous
 62
     7
370
     0
100
AcDbLine
 10
227.4876828504
 20
24.0684901847
 30
0.0
 11
227.5962689372
 21
24.9837322279
 31
0.0
  0
LINE
  5
32F
330
1F
100
AcDbEntity
  8
0
  6
Continuous
 62
     7
370
     0
100
AcDbLine
 10
224.3364551834
 20
25.4524798944
 30
0.0
 11
224.2336735079
 21
25.4885100873
 31
0.0
  0
LINE
  5
330
330
1F
100
AcDbEntity
  8
0
  6
Continuous
 62
     7
370
     0
100
AcDbLine
 10
224.3728990365
 20
25.2477339519
 30
0.0
 11
224.3364551834
 21
25.4524798944
 31
0.0
  0
LWPOLYLINE
  5
331
330
1F
100
AcDbEntity
  8
0
  6
Continuous
 62
     7
370
     0
100
AcDbPolyline
 90
        3
 70
   128
 43
0.0
 10
224.7161679955
 20
24.3893891919
 10
224.5239388536
 20
24.8700620142
 10
224.3728990365
 20
25.2477339519
  0
SPLINE
  5
332
330
1F
100
AcDbEntity
  8
0
  6
Continuous
 62
     7
370
     0
100
AcDbSpline
210
0.0
220
0.0
230
1.0
 70
     8
 71
     3
 72
     9
 73
     5
 74
     0
 42
0.000000001
 43
0.00000001
 40
0.0
 40
0.0
 40
0.0
 40
0.0
 40
0.5213990520141888
 40
1.0
 40
1.0
 40
1.0
 40
1.0
 10
225.0944754735413
 20
23.88032595834391
 30
0.0
 10
225.0067376142899
 20
23.97235809598129
 30
0.0
 10
224.8384637002649
 20
24.14886807865552
 30
0.0
 10
224.7557532806983
 20
24.31153611534333
 30
0.0
 10
224.7161679954855
 20
24.38938919190911
 30
0.0
  0
LINE
  5
333
330
1F
100
AcDbEntity
  8
0
  6
Continuous
 62
     7
370
     0
100
AcDbLine
 10
224.3662977864
 20
24.5345021445
 30
0.0
 11
224.2239296834
 21
25.4872114277
 31
0.0
  0
SPLINE
  5
334
330
1F
100
AcDbEntity
  8
0
  6
Continuous
 62
     7
370
     0
100
AcDbSpline
210
0.0
220
0.0
230
1.0
 70
     8
 71
     3
 72
     9
 73
     5
 74
     0
 42
0.000000001
 43
0.00000001
 40
0.0
 40
0.0
 40
0.0
 40
0.0
 40
0.5402249778496685
 40
0.9999999999999999
 40
0.9999999999999999
 40
0.9999999999999999
 40
0.9999999999999999
 10
225.4836884486492
 20
23.97415334921505
 30
0.0
 10
225.585854663132
 20
24.03371957953641
 30
0.0
 10
225.7749725652502
 20
24.14398147553104
 30
0.0
 10
225.9318489584012
 20
24.24640027201212
 30
0.0
 10
226.003976805537
 20
24.29348987643281
 30
0.0
  0
ARC
  5
335
330
1F
100
AcDbEntity
  8
0
  6
Continuous
 62
     7
370
     0
100
AcDbCircle
 10
226.2698125728
 20
24.4871193411
 30
0.0
 40
0.3288784346177241
100
AcDbArc
 50
216.0688472573
 51
269.0009279888
  0
ARC
  5
336
330
1F
100
AcDbEntity
  8
0
  6
Continuous
 62
     7
370
     0
100
AcDbCircle
 10
224.8379260809
 20
24.7779387305
 30
0.0
 40
0.4071802737273621
100
AcDbArc
 50
252.6008001567
 51
302.582241523
  0
SPLINE
  5
337
330
1F
100
AcDbEntity
  8
0
  6
Continuous
 62
     7
370
     0
100
AcDbSpline
210
0.0
220
0.0
230
1.0
 70
     8
 71
     3
 72
     9
 73
     5
 74
     0
 42
0.000000001
 43
0.00000001
 40
0.0
 40
0.0
 40
0.0
 40
0.0
 40
0.4597753925495401
 40
1.0
 40
1.0
 40
1.0
 40
1.0
 10
225.0571965860333
 20
24.43484075486186
 30
0.0
 10
225.0851599433114
 20
24.3728081252861
 30
0.0
 10
225.1459795472555
 20
24.23788870467125
 30
0.0
 10
225.2632753237507
 20
24.08188028173255
 30
0.0
 10
225.3266413885635
 20
23.99760069269153
 30
0.0
  0
LINE
  5
338
330
1F
100
AcDbEntity
  8
0
  6
Continuous
 62
     7
370
     0
100
AcDbLine
 10
225.057196586
 20
24.4348407549
 30
0.0
 11
225.1071340161
 21
24.4656567946
 31
0.0
  0
LINE
  5
339
330
1F
100
AcDbEntity
  8
0
  6
Continuous
 62
     7
370
     0
100
AcDbLine
 10
226.0039768055
 20
24.2934898764
 30
0.0
 11
225.9658918596
 21
24.3374468604
 31
0.0
  0
LWPOLYLINE
  5
33A
330
1F
100
AcDbEntity
  8
0
  6
Continuous
 62
     7
370
     0
100
AcDbPolyline
 90
        3
 70
   128
 43
0.0
 10
226.0039768055
 20
24.2934898764
 10
226.5757778309
 20
24.6600950756
 10
227.0250487481
 20
24.9481427781
  0
SPLINE
  5
33B
330
1F
100
AcDbEntity
  8
0
  6
Continuous
 62
     7
370
     0
100
AcDbSpline
210
0.0
220
0.0
230
1.0
 70
     8
 71
     3
 72
    10
 73
     6
 74
     0
 42
0.000000001
 43
0.00000001
 40
0.0
 40
0.0
 40
0.0
 40
0.0
 40
0.2765302321481294
 40
0.5626645394981784
 40
1.0
 40
1.0
 40
1.0
 40
1.0
 10
227.0250487480752
 20
24.94814277806689
 30
0.0
 10
227.0477502508983
 20
24.92469526578707
 30
0.0
 10
227.0939416945342
 20
24.87698589384313
 30
0.0
 10
227.1867508608555
 20
24.81966023374429
 30
0.0
 10
227.2480780225928
 20
24.81547423159622
 30
0.0
 10
227.2851501211261
 20
24.81294380495169
 30
0.0
  0
LINE
  5
33C
330
1F
100
AcDbEntity
  8
0
  6
Continuous
 62
     7
370
     0
100
AcDbLine
 10
227.0250487481
 20
24.9481427781
 30
0.0
 11
226.9869638021
 21
24.9920997621
 31
0.0
  0
SPLINE
  5
33D
330
1F
100
AcDbEntity
  8
0
  6
Continuous
 62
     7
370
     0
100
AcDbSpline
210
0.0
220
0.0
230
1.0
 70
     8
 71
     3
 72
    10
 73
     6
 74
     0
 42
0.000000001
 43
0.00000001
 40
0.0
 40
0.0
 40
0.0
 40
0.0
 40
0.2765317949245547
 40
0.5626673747363442
 40
1.0
 40
1.0
 40
1.0
 40
1.0
 10
224.3728990365215
 20
25.24773395189893
 30
0.0
 10
224.4026641189444
 20
25.24005360983937
 30
0.0
 10
224.4632280074127
 20
25.22442619200515
 30
0.0
 10
224.5849131828996
 20
25.2315589137803
 30
0.0
 10
224.6653221546928
 20
25.26996717057633
 30
0.0
 10
224.7139289441583
 20
25.29318475451238
 30
0.0
  0
LWPOLYLINE
  5
33E
330
1F
100
AcDbEntity
  8
0
  6
Continuous
 62
     7
370
     0
100
AcDbPolyline
 90
        3
 70
   128
 43
0.0
 10
224.7139289442
 20
25.2931847545
 10
224.9061594031
 20
24.8125126926
 10
225.057196586
 20
24.4348407549
  0
LINE
  5
33F
330
1F
100
AcDbEntity
  8
0
  6
Continuous
 62
     7
370
     0
100
AcDbLine
 10
224.7139289442
 20
25.2931847545
 30
0.0
 11
224.7638650571
 21
25.3240015546
 31
0.0
  0
LINE
  5
340
330
1F
100
AcDbEntity
  8
0
  6
Continuous
 62
     7
370
     0
100
AcDbLine
 10
226.8232272469
 20
25.0755311766
 30
0.0
 11
226.7961900436
 21
25.1200520842
 31
0.0
  0
LINE
  5
341
330
1F
100
AcDbEntity
  8
0
  6
Continuous
 62
     7
370
     0
100
AcDbLine
 10
225.0961903234
 20
25.1539746223
 30
0.0
 11
225.043214369
 21
25.0755319369
 31
0.0
  0
LINE
  5
342
330
1F
100
AcDbEntity
  8
0
  6
Continuous
 62
     7
370
     0
100
AcDbLine
 10
227.0250487481
 20
24.9481427781
 30
0.0
 11
227.1911837224
 21
25.0546143139
 31
0.0
  0
LINE
  5
343
330
1F
100
AcDbEntity
  8
0
  6
Continuous
 62
     7
370
     0
100
AcDbLine
 10
227.1525126718
 20
25.2326655476
 30
0.0
 11
227.1025765588
 21
25.2501703272
 31
0.0
  0
LINE
  5
344
330
1F
100
AcDbEntity
  8
0
  6
Continuous
 62
     7
370
     0
100
AcDbLine
 10
227.1911837224
 20
25.0546143139
 30
0.0
 11
227.1525126718
 21
25.2326655476
 31
0.0
  0
LINE
  5
345
330
1F
100
AcDbEntity
  8
0
  6
Continuous
 62
     7
370
     0
100
AcDbLine
 10
227.5299864325
 20
25.0222350558
 30
0.0
 11
227.632768108
 21
25.0856633152
 31
0.0
  0
LINE
  5
346
330
1F
100
AcDbEntity
  8
0
  6
Continuous
 62
     7
370
     0
100
AcDbLine
 10
227.4935425794
 20
25.2781178709
 30
0.0
 11
227.5299864325
 21
25.0222350558
 31
0.0
  0
SPLINE
  5
347
330
1F
100
AcDbEntity
  8
0
  6
Continuous
 62
     7
370
     0
100
AcDbSpline
210
0.0
220
0.0
230
1.0
 70
     8
 71
     3
 72
    10
 73
     6
 74
     0
 42
0.000000001
 43
0.00000001
 40
0.0
 40
0.0
 40
0.0
 40
0.0
 40
0.2765313174319989
 40
0.5626707226346876
 40
1.0
 40
1.0
 40
1.0
 40
1.0
 10
227.4935425794102
 20
25.27811787085164
 30
0.0
 10
227.463777477264
 20
25.26250349442371
 30
0.0
 10
227.4032130837284
 20
25.23073221965533
 30
0.0
 10
227.2815279543335
 20
25.20542878442629
 30
0.0
 10
227.201119028985
 20
25.22240412882007
 30
0.0
 10
227.1525126717733
 20
25.23266554755958
 30
0.0
  0
LWPOLYLINE
  5
348
330
1F
100
AcDbEntity
  8
0
  6
Continuous
 62
     7
370
     0
100
AcDbPolyline
 90
        3
 70
   128
 43
0.0
 10
227.1502736204
 20
26.1364626308
 10
227.3425027623
 20
25.6557898086
 10
227.4935425794
 20
25.2781178709
  0
SPLINE
  5
349
330
1F
100
AcDbEntity
  8
0
  6
Continuous
 62
     7
370
     0
100
AcDbSpline
210
0.0
220
0.0
230
1.0
 70
     8
 71
     3
 72
     9
 73
     5
 74
     0
 42
0.000000001
 43
0.00000001
 40
0.0
 40
0.0
 40
0.0
 40
0.0
 40
0.5213997233775365
 40
1.0
 40
1.0
 40
1.0
 40
1.0
 10
226.7719661423904
 20
26.44888518879508
 30
0.0
 10
226.8597032982115
 20
26.41417343373358
 30
0.0
 10
227.0279756464451
 20
26.3475992613565
 30
0.0
 10
227.1106876382759
 20
26.20480432627281
 30
0.0
 10
227.1502736204461
 20
26.13646263084147
 30
0.0
  0
LINE
  5
34A
330
1F
100
AcDbEntity
  8
0
  6
Continuous
 62
     7
370
     0
100
AcDbLine
 10
226.8092437128
 20
26.0910103075
 30
0.0
 11
226.7593075999
 21
26.1085166078
 31
0.0
  0
LWPOLYLINE
  5
34B
330
1F
100
AcDbEntity
  8
0
  6
Continuous
 62
     7
370
     0
100
AcDbPolyline
 90
        3
 70
   128
 43
0.0
 10
227.1525126718
 20
25.2326655476
 10
226.9602822128
 20
25.7133391302
 10
226.8092437128
 20
26.0910103075
  0
LINE
  5
34C
330
1F
100
AcDbEntity
  8
0
  6
Continuous
 62
     7
370
     0
100
AcDbLine
 10
224.6752578936
 20
25.4302348561
 30
0.0
 11
224.7139289442
 21
25.2931847545
 31
0.0
  0
ARC
  5
34D
330
1F
100
AcDbEntity
  8
0
  6
Continuous
 62
     7
370
     0
100
AcDbCircle
 10
226.9310009796
 20
26.479566603
 30
0.0
 40
0.4071864766148021
100
AcDbArc
 50
252.6011943843
 51
302.5820403682
  0
LINE
  5
34E
330
1F
100
AcDbEntity
  8
0
  6
Continuous
 62
     7
370
     0
100
AcDbLine
 10
224.8413928679
 20
25.5777090447
 30
0.0
 11
224.6752578936
 21
25.4302348561
 31
0.0
  0
LINE
  5
34F
330
1F
100
AcDbEntity
  8
0
  6
Continuous
 62
     7
370
     0
100
AcDbLine
 10
224.8413928679
 20
25.5777090447
 30
0.0
 11
224.8794791309
 21
25.5820728801
 31
0.0
  0
LINE
  5
350
330
1F
100
AcDbEntity
  8
0
  6
Continuous
 62
     7
370
     0
100
AcDbLine
 10
224.3559968332
 20
25.4961013206
 30
0.0
 11
224.5812914948
 21
25.7129064971
 31
0.0
  0
SPLINE
  5
351
330
1F
100
AcDbEntity
  8
0
  6
Continuous
 62
     7
370
     0
100
AcDbSpline
210
0.0
220
0.0
230
1.0
 70
     8
 71
     3
 72
    10
 73
     6
 74
     0
 42
0.000000001
 43
0.00000001
 40
0.0
 40
0.0
 40
0.0
 40
0.0
 40
0.2765317660177024
 40
0.5626671367505592
 40
0.9999999999999999
 40
0.9999999999999999
 40
0.9999999999999999
 40
0.9999999999999999
 10
224.8413928678564
 20
25.57770904468368
 30
0.0
 10
224.8186906818543
 20
25.57786136442988
 30
0.0
 10
224.7724978911318
 20
25.57817129379785
 30
0.0
 10
224.6796921684264
 20
25.61732888485145
 30
0.0
 10
224.6183640375891
 20
25.67689754525441
 30
0.0
 10
224.5812914948056
 20
25.71290649712028
 30
0.0
  0
LINE
  5
352
330
1F
100
AcDbEntity
  8
0
  6
Continuous
 62
     7
370
     0
100
AcDbLine
 10
224.3559968332
 20
25.4961013206
 30
0.0
 11
224.2776063291
 21
25.5865771301
 31
0.0
  0
SPLINE
  5
353
330
1F
100
AcDbEntity
  8
0
  6
Continuous
 62
     7
370
     0
100
AcDbSpline
210
0.0
220
0.0
230
1.0
 70
     8
 71
     3
 72
     9
 73
     5
 74
     0
 42
0.000000001
 43
0.00000001
 40
0.0
 40
0.0
 40
0.0
 40
0.0
 40
0.478599974624104
 40
0.9999999999999999
 40
0.9999999999999999
 40
0.9999999999999999
 40
0.9999999999999999
 10
225.6023647544328
 20
26.36756015909366
 30
0.0
 10
225.698374218008
 20
26.4156581381958
 30
0.0
 10
225.8989790417977
 20
26.51615538360396
 30
0.0
 10
226.1482256809047
 20
26.52039491498525
 30
0.0
 10
226.2781828848599
 20
26.52260540675503
 30
0.0
  0
LWPOLYLINE
  5
354
330
1F
100
AcDbEntity
  8
0
  6
Continuous
 62
     7
370
     0
100
AcDbPolyline
 90
        3
 70
   128
 43
0.0
 10
224.5812914948
 20
25.7129064971
 10
225.1530912031
 20
26.0795124566
 10
225.6023647544
 20
26.3675601591
  0
LWPOLYLINE
  5
355
330
1F
100
AcDbEntity
  8
0
  6
Continuous
 62
     7
370
     0
100
AcDbPolyline
 90
        3
 70
   128
 43
0.0
 10
225.8624648104
 20
26.2323619463
 10
225.290663785
 20
25.8657567472
 10
224.8413928679
 20
25.5777090447
  0
LINE
  5
356
330
1F
100
AcDbEntity
  8
0
  6
Continuous
 62
     7
370
     0
100
AcDbLine
 10
225.8624648104
 20
26.2323619463
 30
0.0
 11
225.9005510735
 21
26.2367257817
 31
0.0
  0
ARC
  5
357
330
1F
100
AcDbEntity
  8
0
  6
Continuous
 62
     7
370
     0
100
AcDbCircle
 10
225.8681938306
 20
26.5611785445
 30
0.0
 40
0.3288665032131045
100
AcDbArc
 50
216.0679733598
 51
269.0018281518
  0
SPLINE
  5
358
330
1F
100
AcDbEntity
  8
0
  6
Continuous
 62
     7
370
     0
100
AcDbSpline
210
0.0
220
0.0
230
1.0
 70
     8
 71
     3
 72
     9
 73
     5
 74
     0
 42
0.000000001
 43
0.00000001
 40
0.0
 40
0.0
 40
0.0
 40
0.0
 40
0.5402249778496685
 40
0.9999999999999999
 40
0.9999999999999999
 40
0.9999999999999999
 40
0.9999999999999999
 10
226.3827531672824
 20
26.35505779792393
 30
0.0
 10
226.2805869527996
 20
26.35272826500213
 30
0.0
 10
226.0914690506814
 20
26.34841611170061
 30
0.0
 10
225.9345926575305
 20
26.26891470660608
 30
0.0
 10
225.8624648103946
 20
26.23236194631776
 30
0.0
  0
SPLINE
  5
359
330
1F
100
AcDbEntity
  8
0
  6
Continuous
 62
     7
370
     0
100
AcDbSpline
210
0.0
220
0.0
230
1.0
 70
     8
 71
     3
 72
     9
 73
     5
 74
     0
 42
0.000000001
 43
0.00000001
 40
0.0
 40
0.0
 40
0.0
 40
0.0
 40
0.459776068628135
 40
1.0
 40
1.0
 40
1.0
 40
1.0
 10
226.8092437128093
 20
26.09101030754941
 30
0.0
 10
226.7812809321604
 20
26.14250641256732
 30
0.0
 10
226.7204626718009
 20
26.25450899063009
 30
0.0
 10
226.6031664522364
 20
26.30456759720472
 30
0.0
 10
226.5398002273681
 20
26.33161045444745
 30
0.0
  0
LINE
  5
35A
330
1F
100
AcDbEntity
  8
0
  6
Continuous
 62
     7
370
     0
100
AcDbLine
 10
225.5049475825
 20
25.175283937
 30
0.0
 11
225.5049475825
 21
25.2632752007
 31
0.0
  0
LINE
  5
35B
330
1F
100
AcDbEntity
  8
0
  6
Continuous
 62
     7
370
     0
100
AcDbLine
 10
225.6632485113
 20
25.1484199347
 30
0.0
 11
225.6632485113
 21
25.5046433923
 31
0.0
  0
OLE2FRAME
  5
35C
330
1F
100
AcDbEntity
  8
0
100
AcDbOle2Frame
 70
     2
  3
Paintbrush-Bild
 10
13.8511154363
 20
38.264191557
 30
0.0
 11
51.6290888628
 21
31.9806341108
 31
0.0
 71
     2
 72
     0
 73
     1
 90
    12928
310
80552BED0767C5B32B40DDAF6807D121434000000000000000006FFBDDFB85D0
310
4940DDAF6807D121434000000000000000006FFBDDFB85D04940416F4BD60AFB
310
3F4000000000000000002BED0767C5B32B40416F4BD60AFB3F40000000000000
310
0000000000000100000000010000010000000100000000000100000000320000
310
D0CF11E0A1B11AE1000000000000000000000000000000003E000300FEFF0900
310
0600000000000000000000000100000001000000000000000010000002000000
310
01000000FEFFFFFF0000000000000000FFFFFFFFFFFFFFFFFFFFFFFFFFFFFFFF
310
FFFFFFFFFFFFFFFFFFFFFFFFFFFFFFFFFFFFFFFFFFFFFFFFFFFFFFFFFFFFFFFF
310
FFFFFFFFFFFFFFFFFFFFFFFFFFFFFFFFFFFFFFFFFFFFFFFFFFFFFFFFFFFFFFFF
310
FFFFFFFFFFFFFFFFFFFFFFFFFFFFFFFFFFFFFFFFFFFFFFFFFFFFFFFFFFFFFFFF
310
FFFFFFFFFFFFFFFFFFFFFFFFFFFFFFFFFFFFFFFFFFFFFFFFFFFFFFFFFFFFFFFF
310
FFFFFFFFFFFFFFFFFFFFFFFFFFFFFFFFFFFFFFFFFFFFFFFFFFFFFFFFFFFFFFFF
310
FFFFFFFFFFFFFFFFFFFFFFFFFFFFFFFFFFFFFFFFFFFFFFFFFFFFFFFFFFFFFFFF
310
FFFFFFFFFFFFFFFFFFFFFFFFFFFFFFFFFFFFFFFFFFFFFFFFFFFFFFFFFFFFFFFF
310
FFFFFFFFFFFFFFFFFFFFFFFFFFFFFFFFFFFFFFFFFFFFFFFFFFFFFFFFFFFFFFFF
310
FFFFFFFFFFFFFFFFFFFFFFFFFFFFFFFFFFFFFFFFFFFFFFFFFFFFFFFFFFFFFFFF
310
FFFFFFFFFFFFFFFFFFFFFFFFFFFFFFFFFFFFFFFFFFFFFFFFFFFFFFFFFFFFFFFF
310
FFFFFFFFFFFFFFFFFFFFFFFFFFFFFFFFFFFFFFFFFFFFFFFFFFFFFFFFFFFFFFFF
310
FFFFFFFFFFFFFFFFFFFFFFFFFFFFFFFFFFFFFFFFFFFFFFFFFFFFFFFFFFFFFFFF
310
FFFFFFFFFFFFFFFFFFFFFFFFFFFFFFFFFFFFFFFFFFFFFFFFFFFFFFFFFFFFFFFF
310
FDFFFFFFFEFFFFFFFEFFFFFFFEFFFFFF05000000060000000700000008000000
310
090000000A0000000B0000000C0000000D0000000E0000000F00000010000000
310
11000000120000001300000014000000150000001600000017000000FEFFFFFF
310
FFFFFFFFFFFFFFFFFFFFFFFFFFFFFFFFFFFFFFFFFFFFFFFFFFFFFFFFFFFFFFFF
310
FFFFFFFFFFFFFFFFFFFFFFFFFFFFFFFFFFFFFFFFFFFFFFFFFFFFFFFFFFFFFFFF
310
FFFFFFFFFFFFFFFFFFFFFFFFFFFFFFFFFFFFFFFFFFFFFFFFFFFFFFFFFFFFFFFF
310
FFFFFFFFFFFFFFFFFFFFFFFFFFFFFFFFFFFFFFFFFFFFFFFFFFFFFFFFFFFFFFFF
310
FFFFFFFFFFFFFFFFFFFFFFFFFFFFFFFFFFFFFFFFFFFFFFFFFFFFFFFFFFFFFFFF
310
FFFFFFFFFFFFFFFFFFFFFFFFFFFFFFFFFFFFFFFFFFFFFFFFFFFFFFFFFFFFFFFF
310
FFFFFFFFFFFFFFFFFFFFFFFFFFFFFFFFFFFFFFFFFFFFFFFFFFFFFFFFFFFFFFFF
310
FFFFFFFFFFFFFFFFFFFFFFFFFFFFFFFFFFFFFFFFFFFFFFFFFFFFFFFFFFFFFFFF
310
FFFFFFFFFFFFFFFFFFFFFFFFFFFFFFFFFFFFFFFFFFFFFFFFFFFFFFFFFFFFFFFF
310
FFFFFFFFFFFFFFFFFFFFFFFFFFFFFFFFFFFFFFFFFFFFFFFFFFFFFFFFFFFFFFFF
310
FFFFFFFFFFFFFFFFFFFFFFFFFFFFFFFFFFFFFFFFFFFFFFFFFFFFFFFFFFFFFFFF
310
FFFFFFFFFFFFFFFFFFFFFFFFFFFFFFFFFFFFFFFFFFFFFFFFFFFFFFFFFFFFFFFF
310
FFFFFFFFFFFFFFFFFFFFFFFFFFFFFFFFFFFFFFFFFFFFFFFFFFFFFFFFFFFFFFFF
310
52006F006F007400200045006E00740072007900000000000000000000000000
310
0000000000000000000000000000000000000000000000000000000000000000
310
16000500FFFFFFFFFFFFFFFF020000000A00030000000000C000000000000046
310
000000000000000000000000B06CFC33B4C1D10103000000C000000000000000
310
01004F006C006500000000000000000000000000000000000000000000000000
310
0000000000000000000000000000000000000000000000000000000000000000
310
0A000200FFFFFFFFFFFFFFFFFFFFFFFF00000000000000000000000000000000
310
0000000000000000000000000000000000000000000000001400000000000000
310
010043006F006D0070004F0062006A0000000000000000000000000000000000
310
0000000000000000000000000000000000000000000000000000000000000000
310
120002010100000003000000FFFFFFFF00000000000000000000000000000000
310
0000000000000000000000000000000000000000010000004D00000000000000
310
01004F006C006500310030004E00610074006900760065000000000000000000
310
0000000000000000000000000000000000000000000000000000000000000000
310
1A000200FFFFFFFFFFFFFFFFFFFFFFFF00000000000000000000000000000000
310
0000000000000000000000000000000000000000040000002426000000000000
310
FEFFFFFF02000000FEFFFFFFFFFFFFFFFFFFFFFFFFFFFFFFFFFFFFFFFFFFFFFF
310
FFFFFFFFFFFFFFFFFFFFFFFFFFFFFFFFFFFFFFFFFFFFFFFFFFFFFFFFFFFFFFFF
310
FFFFFFFFFFFFFFFFFFFFFFFFFFFFFFFFFFFFFFFFFFFFFFFFFFFFFFFFFFFFFFFF
310
FFFFFFFFFFFFFFFFFFFFFFFFFFFFFFFFFFFFFFFFFFFFFFFFFFFFFFFFFFFFFFFF
310
FFFFFFFFFFFFFFFFFFFFFFFFFFFFFFFFFFFFFFFFFFFFFFFFFFFFFFFFFFFFFFFF
310
FFFFFFFFFFFFFFFFFFFFFFFFFFFFFFFFFFFFFFFFFFFFFFFFFFFFFFFFFFFFFFFF
310
FFFFFFFFFFFFFFFFFFFFFFFFFFFFFFFFFFFFFFFFFFFFFFFFFFFFFFFFFFFFFFFF
310
FFFFFFFFFFFFFFFFFFFFFFFFFFFFFFFFFFFFFFFFFFFFFFFFFFFFFFFFFFFFFFFF
310
FFFFFFFFFFFFFFFFFFFFFFFFFFFFFFFFFFFFFFFFFFFFFFFFFFFFFFFFFFFFFFFF
310
FFFFFFFFFFFFFFFFFFFFFFFFFFFFFFFFFFFFFFFFFFFFFFFFFFFFFFFFFFFFFFFF
310
FFFFFFFFFFFFFFFFFFFFFFFFFFFFFFFFFFFFFFFFFFFFFFFFFFFFFFFFFFFFFFFF
310
FFFFFFFFFFFFFFFFFFFFFFFFFFFFFFFFFFFFFFFFFFFFFFFFFFFFFFFFFFFFFFFF
310
FFFFFFFFFFFFFFFFFFFFFFFFFFFFFFFFFFFFFFFFFFFFFFFFFFFFFFFFFFFFFFFF
310
FFFFFFFFFFFFFFFFFFFFFFFFFFFFFFFFFFFFFFFFFFFFFFFFFFFFFFFFFFFFFFFF
310
FFFFFFFFFFFFFFFFFFFFFFFFFFFFFFFFFFFFFFFFFFFFFFFFFFFFFFFFFFFFFFFF
310
FFFFFFFFFFFFFFFFFFFFFFFFFFFFFFFFFFFFFFFFFFFFFFFFFFFFFFFFFFFFFFFF
310
0100000200000000000000000000000000000000000000000000000000000000
310
0000000000000000000000000000000000000000000000000000000000000000
310
0100FEFF030A0000FFFFFFFF0A00030000000000C00000000000004607000000
310
5042727573680007000000504272757368000700000050427275736800F439B2
310
7100000000000000000000000000000000000000000000000000000000000000
310
0000000000000000000000000000000000000000000000000000000000000000
310
0000000000000000000000000000000000000000000000000000000000000000
310
0000000000000000000000000000000000000000000000000000000000000000
310
0000000000000000000000000000000000000000000000000000000000000000
310
0000000000000000000000000000000000000000000000000000000000000000
310
0000000000000000000000000000000000000000000000000000000000000000
310
0000000000000000000000000000000000000000000000000000000000000000
310
0000000000000000000000000000000000000000000000000000000000000000
310
0000000000000000000000000000000000000000000000000000000000000000
310
0000000000000000000000000000000000000000000000000000000000000000
310
0000000000000000000000000000000000000000000000000000000000000000
310
20260000424D0E260000000000003E00000028000000B40200006E0000000100
310
01000000000000000000130B0000130B00000200000002000000000000FFFFFF
310
FFFFFFFFFFFFFFFFFFFFFFFFFFFFFFFFFFFFFFFFFFFFFFFFFFFFFFFFFFFFFFFF
310
FFFFFFFFFFFFFFFFFFFFFFFFFFFFFFFFFFFFFFFFFFFFFFFFFFFFFFFFFFFFFFFF
310
FFFFFFFFFFFFFFFFFFFFFFFFFFFFFFFFFFFFFFFFFFFFFFFFF000FFFFFFFFFFFF
310
FFFFFFFFFFFFFFFFFFFFFFFFFFFFFFFFFFFFFFFFFFFFFFFFFFFFFFFFFFFFFFFF
310
FFFFFFFFFFFFFFFFFFFFFFFFFFFFFFFFFFFFFFFFFFFFFFFFFFFFFFFFFFFFFFFF
310
FFFFFFFFFFFFFFFFFFFFFFFFFFFFFFFFF000FFFFFFFFFFFFFFFFFFFFFFFFFFFF
310
FFFFFFFFFFFFFFFFFFFFFFFFFFFFFFFFFFFFFFFFFFFFFFFFFFFFFFFFFFFFFFFF
310
FFFFFFFFFFFFFFFFFFFFFFFFFFFFFFFFFFFFFFFFFFFFFFFFFFFFFFFFFFFFFFFF
310
FFFFFFFFFFFFFFFFF000FFFFFFFFFFFFFFFFFFFFFFFFFFFFFFFFFFFFFFFFFFFF
310
FFFFFFFFFFFFFFFFFFFFFFFFFFFFFFFFFFFFFFFFFFFFFFFFFFFFFFFFFFFFFFFF
310
FFFFFFFFFFFFFFFFFFFFFFFFFFFFFFFFFFFFFFFFFFFFFFFFFFFFFFFFFFFFFFFF
310
F000FFFFFFFFFFFFFFFFFFFFFFFFFFFFFFFFFFFFFFFFFFFFFFFFFFFFFFFFFFFF
310
FFFFFFFFFFFFFFFFFFFFFFFFFFFFFFFFFFFFFFFFFFFFFFFFFFFFFFFFFFFFFFFF
310
FFFFFFFFFFFFFFFFFFFFFFFFFFFFFFFFFFFFFFFFFFFFFFFFF000FFFFFFFFFFFF
310
FFFFFFFFFFFFFFFFFFFFFFFFFFFFFFFFFFFFFFFFFFFFFFFFFFFFFFFFFFFFFFFF
310
FFFFFFFFFFFFFFFFFFFFFFFFFFFFFFFFFFFFFFFFFFFFFFFFFFFFFFFFFFFFFFFF
310
FFFFFFFFFFFFFFFFFFFFFFFFFFFFFFFFF000FFFFFFFFFFFFFFFFFFFFFFFFFFFF
310
FFFFFFFFFFFFFFFFFFFFFFFFFFFFFFFFFFFFFFFFFFFFFFFFFFFFFFFFFFFFFFFF
310
FFFFFFFFFFFFFFFFFFFFFFFFFFFFFFFFFFFFFFFFFFFFFFFFFFFFFFFFFFFFFFFF
310
FFFFFFFFFFFFFFFFF000FFFFFFFFFFFFFFFFFFFFFFFFFFFFFFFFFFFFFFFFFFFF
310
FFFFFFFFFFFFFFFFFFFFFFFFFFFFFFFFFFFFFFFFFFFFFFFFFFFFFFFFFFFFFFFF
310
FFFFFFFFFFFFFFFFFFFFFFFFFFFFFFFFFFFFFFFFFFFFFFFFFFFFFFFFFFFFFFFF
310
F000FFFFFFFFFFFFFFFFFFFFFFFFFFFFFFFFFFFFFFFFFFFFFFFFFFFFFFFFFFFF
310
FFFFFFFFFFFFFFFFFFFFFFFFFFFFFFFFFFFFFFFFFFFFFFFFFFFFFFFFFFFFFFFF
310
FFFFFFFFFFFFFFFFFFFFFFFFFFFFFFFFFFFFFFFFFFFFFFFFF000FFFFFFFFFFFF
310
FFFFFFFFFFFFFFFFFFFFFFFFFFFFFFFFFFFFFFFFFFFFFFFFFFFFFFFFFFFFFFFF
310
FFFFFFFFFFFFFFFFFFFFFFFFFFFFFFFFFFFFFFFFFFFFFFFFFFFFFFFFFFFFFFFF
310
FFFFFFFFFFFFFFFFFFFFFFFFFFFFFFFFF000FFFFFFFFFFFFFFFFFFFFFFFFFFFF
310
FFFFFFFFFFFFFFFFFFFFFFFFFFFFFFFFFFFFFFFFFFFFFFFFFFFFFFFFFFFFFFFF
310
FFFFFFFFFFFFFFFFFFFFFFFFFFFFFFFFFFFFFFFFFFFFFFFFFFFFFFFFFFFFFFFF
310
FFFFFFFFFFFFFFFFF000FFFFFFFFFFFFFFFFFFFFFFFFFFFFFFFFFFFFFFFFFFFF
310
FFFFFFFFFFFFFFFFFFFFFFFFFFFFFFFFFFFFFFFFFFFFFFFFFFFFFFFFFFFFFFFF
310
FFFFFFFFFFFFFFFFFFFFFFFFFFFFFFFFFFFFFFFFFFFFFFFFFFFFFFFFFFFFFFFF
310
F000FFFFFFFFFFFFFFFFFFFFFFFFFFFFFFFFFFFFFFFFFFFFFFFFFFFFFFFFFFFF
310
FFFFFFFFFFFFFFFFFFFFFFFFFFFFFFFFFFFFFFFFFFFFFFFFFFFFFFFFFFFFFFFF
310
FFFFFFFFFFFFFFFFFFFFFFFFFFFFFFFFFFFFFFFFFFFFFFFFF000FFFFFFFFFFFF
310
FFFFFFFFFFFFFFFFFFFFFFFFFFFFFFFFFFFFFFFFFFFFFFFFFFFFFFFFFFFFFFFF
310
FFFFFFFFFFFFFFFFFFFFFFFFFFFFFFFFFFFFFFFFFFFFFFFFFFFFFFFFFFFFFFFF
310
FFFFFFFFFFFFFFFFFFFFFFFFFFFFFFFFF000FFFFFFFFFFFFFFFFFFFFFFFFFFFF
310
FFFFFFFFFFFFFFFFFFFFFFFFFFFFFFFFFFFFFFFFFFFFFFFFFFFFFFFFFFFFFFFF
310
FFFFFFFFFFFFFFFFFFFFFFFFFFFFFFFFFFFFFFFFFFFFFFFFFFFFFFFFFFFFFFFF
310
FFFFFFFFFFFFFFFFF000FFFFFFFFFFFFFFFFFFFFFFFFFFFFFFFFFFFFFFFFFFFF
310
FFFFFFFFFFFFFFFFFFFFFFFFFFFFFFFFFFFFFFFFFFFFFFFFFFFFFFFFFFFFFFFF
310
FFFFFFFFFFFFFFFFFFFFFFFFFFFFFFFFFFFFFFFFFFFFFFFFFFFFFFFFFFFFFFFF
310
F000FFFFFFFFFFFFFFFFFFFFFFFFFFFFFFFFFFFFFFFFFFFFFFFFFFFFFFFFFFFF
310
FFFFFFFFFFFFFFFFFFFFFFFFFFFFFFFFFFFFFFFFFFFFFFFFFFFFFFFFFFFFFFFF
310
FFFFFFFFFFFFFFFFFFFFFFFFFFFFFFFFFFFFFFFFFFFFFFFFF000FFFFFFFFFFFF
310
FFFFFFFFFFFFFFFFFFFFFFFFFFFFFFFFFFFFFFFFFFFFFFFFFFFFFFFFFFFFFFFF
310
FFFFFFFFFFFFFFFFFFFFFFFFFFFFFFFFFFFFFFFFFFFFFFFFFFFFFFFFFFFFFFFF
310
FFFFFFFFFFFFFFFFFFFFFFFFFFFFFFFFF000FFFFFFFFFFFFFFFFFFFFFFFFFFFF
310
FFFFFFFFFFFFFFFFFFFFFFFFFFFFFFFFFFFFFFFFFFFFFFFFFFFFFFFFFFFFFFFF
310
FFFFFFFFFFFFFFFFFFFFFFFFFFFFFFFFFFFFFFFFFFFFFFFFFFFFFFFFFFFFFFFF
310
FFFFFFFFFFFFFFFFF000FFFFF80003FFFFFFFFFFFFFFFFFFFFFFFFFFFFFFFFFF
310
FFFFF00007FFFFFFFFFF00007FFFFFF800000000000000007FFFFFFFFFFFFFFF
310
FFFFFFFC001FFFFFFFFFFFFFFC001FFFFFFFFFFFFFFFFFFFFFFFFFFE0007FFFF
310
F000FFFF8000007FFFFFFFF8000FFFFFC0007FFFFF80007FFFFF0000007FFFFF
310
FFF8000007FFFFF800000000000000007FFFFFF0001FFFFFFFFFFFC00001FFFF
310
FFFFFFFFC00001FFFFFFFF000000000003FFFFE000007FFFF000FFFE0000000F
310
FFFFFFF0000FFFFF80007FFFFF80007FFFFC0000001FFFFFFFC0000001FFFFF8
310
00000000000000007FFFFFF0001FFFFFFFFFFE0000003FFFFFFFFFFE0000003F
310
FFFFFF000000000003FFFF0000000FFFF000FFF800000003FFFFFFF00007FFFF
310
80007FFFFF80007FFFF000000007FFFFFF000000003FFFF80000000000000000
310
7FFFFFF0001FFFFFFFFFF80000000FFFFFFFFFF80000000FFFFFFF0000000000
310
03FFFC00000003FFF000FFE000000000FFFFFFF00007FFFF80003FFFFF80007F
310
FFC000000001FFFFFC000000001FFFF800000000000000007FFFFFF0001FFFFF
310
FFFFE000000003FFFFFFFFE000000003FFFFFF000000000003FFF000000000FF
310
F000FF80000000007FFFFFF00007FFFF80003FFFFF80007FFF8000000000FFFF
310
F80000000007FFF800000000000000007FFFFFF0001FFFFFFFFFC000000001FF
310
FFFFFFC000000001FFFFFF000000000003FFC0000000007FF000FF0000000000
310
3FFFFFE00007FFFF00003FFFFF80007FFE00000000003FFFF00000000003FFF8
310
00000000000000007FFFFFF0001FFFFFFFFF8000000000FFFFFFFF8000000000
310
FFFFFF000000000003FF80000000003FF000FE00000000001FFFFFE00003FFFF
310
00003FFFFF80007FFC00000000001FFFE00000000001FFF8000001FFFE000000
310
7FFFFFF0001FFFFFFFFE00000000003FFFFFFE00000000003FFFFF0000000000
310
03FF00000000001FF000FC00000000000FFFFFE00003FFFF00001FFFFF80007F
310
F800000000001FFFC00000000000FFF8000001FFFE0000007FFFFFF0001FFFFF
310
FFFC00000000001FFFFFFC00000000001FFFFF000000000003FE00000000000F
310
F000F8000000000007FFFFE00003FFFF00001FFFFF80007FF800000000000FFF
310
800000000000FFF8000001FFFE0000007FFFFFF0001FFFFFFFF800000000000F
310
FFFFF800000000000FFFFF000000000003FC000000000007F000F80000000000
310
03FFFFC00003FFFE00001FFFFF80007FF0000000000007FF0000000000007FF8
310
000001FFFE0000007FFFFFF0001FFFFFFFF0000000000007FFFFF00000000000
310
07FFFF000000000003F8000000000003F000F0000000000003FFFFC00001FFFE
310
00001FFFFF80007FE0000000000007FE0000000000003FF8000001FFFE000000
310
7FFFFFF0001FFFFFFFF0000000000007FFFFF0000000000007FFFF0000000000
310
03F800001F800003F000E00001FFF00001FFFFC00001FFFE00000FFFFF80007F
310
E00001FFE00003FE00001FFF00003FF8000001FFFE0000007FFFFFF0001FFFFF
310
FFE000003E000003FFFFE000003E000003FFFF000000000003F00001FFF80001
310
F000E00007FFFC0001FFFFC00001FFFE00000FFFFF80007FC0000FFFFC0003FC
310
0000FFFFC0001FF8000001FFFE0000007FFFFFF0001FFFFFFFC00003FFE00001
310
FFFFC00003FFE00001FFFF0001FFFFFFFFF00007FFFE0001F000E0000FFFFF00
310
00FFFF800001FFFC00000FFFFF80007FC0001FFFFE0001FC0001FFFFE0001FF8
310
000001FFFE0000007FFFFFF0001FFFFFFF80000FFFF80000FFFF80000FFFF800
310
00FFFF0003FFFFFFFFE0000FFFFF8000F000C0003FFFFF8000FFFF800000FFFC
310
000007FFFF80007F80003FFFFF0001FC0003FFFFF0001FF8000001FFFE000000
310
7FFFFFF0001FFFFFFF80003FFFFE0000FFFF80003FFFFE0000FFFF0003FFFFFF
310
FFE0003FFFFF8000F000C0003FFFFF8000FFFF800000FFFC000007FFFF80007F
310
80007FFFFF8001F80007FFFFF8000FF8000001FFFE0000007FFFFFF0001FFFFF
310
FF00007FFFFF00007FFF00007FFFFF00007FFF0003FFFFFFFFE0003FFFFFC000
310
F000C0007FFFFFC000FFFF000000FFFC000007FFFF80007F8000FFFFFF8000F8
310
000FFFFFF8000FF8000001FFFE0000007FFFFFF0001FFFFFFF0000FFFFFF8000
310
7FFF0000FFFFFF80007FFF0003FFFFFFFFC0007FFFFFC00070008000FFFFFFC0
310
00FFFF000000FFF8000007FFFF80007F8000FFFFFF8000F8000FFFFFF8000FF8
310
000001FFFE0000007FFFFFF0001FFFFFFE0001FFFFFFC0003FFE0001FFFFFFC0
310
003FFF0003FFFFFFFFC0007FFFFFE00070008000FFFFFFC0007FFF0000007FF8
310
000003FFFF80007F0001FFFFFF8000F8000FFFFFF8000FF8000001FFFE000000
310
7FFFFFF0001FFFFFFE0001FFFFFFC0003FFE0001FFFFFFC0003FFF0003FFFFFF
310
FFC000FFFFFFE00070008000FFFFFFC0007FFF0000007FF8000003FFFF80007F
310
0001FFFFFF8000F8001FFFFFF8000FF8000001FFFE0000007FFFFFF0001FFFFF
310
FE0003FFFFFFE0003FFE0003FFFFFFE0003FFF0003FFFFFFFFC000FFFFFFE000
310
70008000FFFFFFC0007FFE0000007FF8000003FFFF80007F0001FFFFFF8000F0
310
001FFFFFF8000FF8000001FFFE0000007FFFFFF0001FFFFFFC0003FFFFFFE000
310
1FFC0003FFFFFFE0001FFF0003FFFFFFFFC000FFFFFFC00070008000FFFFFF80
310
007FFE0000007FF0000003FFFF80007F0001FFFFFF0000F0001FFFFFF8000FF8
310
000001FFFE0000007FFFFFF0001FFFFFFC0007FFFFFFF0001FFC0007FFFFFFF0
310
001FFF0003FFFFFFFFC000FFFFFFC00070008001FFFFFF0000FFFE0000003FF0
310
000001FFFF80007F0001FFFFFF0000F8001FFFFFF0000FF8000001FFFE000000
310
7FFFFFF0001FFFFFFC0007FFFFFFF0001FFC0007FFFFFFF0001FFF0003FFFFFF
310
FFC001FFFFFF80007000FFFFFFFFFE0000FFFE0008003FF0008001FFFF80007F
310
FFFFFFFFFC0000FFFFFFFFFFE0000FF8000001FFFE0000007FFFFFF0001FFFFF
310
F8000FFFFFFFF8000FF8000FFFFFFFF8000FFF0003FFFFFFFFFFFFFFFFFF0000
310
7000FFFFFFFFFC0000FFFC0008003FF0008001FFFF80007FFFFFFFFFF80001FF
310
FFFFFFFF80000FF8000001FFFE0000007FFFFFF0001FFFFFF8000FFFFFFFF800
310
0FF8000FFFFFFFF8000FFF0003FFFFFFFFFFFFFFFFFE0000F000FFFFFFFFE000
310
00FFFC000C003FE000C001FFFF80007FFFFFFFFFC00001FFFFFFFFFE00001FF8
310
000001FFFE0000007FFFFFF0001FFFFFF8000FFFFFFFF8000FF8000FFFFFFFF8
310
000FFF0003FFFFFFFFFFFFFFFFF00000F000FFFFFFFE000001FFFC000C001FE0
310
00C000FFFF80007FFFFFFFFE000001FFFFFFFFE000001FF80FFFFFFFFFFFFFC0
310
7FFFFFF0001FFFFFF8000FFFFFFFF8000FF8000FFFFFFFF8000FFF0003FFFFFF
310
FFFFFFFFFF800000F000FFFFFFC0000001FFFC001C001FE001C000FFFF80007F
310
FFFFFF80000003FFFFFFF80000001FF80FFFFFFFFFFFFFC07FFFFFF0001FFFFF
310
F8001FFFFFFFFC000FF8001FFFFFFFFC000FFF0003FFFFFFFFFFFFFFF0000001
310
F000FFFFF800000001FFF8001C001FE001C000FFFF80007FFFFFF800000003FF
310
FFFF800000003FF80FFFFFFFFFFFFFC07FFFFFF0001FFFFFF8001FFFFFFFFC00
310
0FF8001FFFFFFFFC000FFF0003FFFFFFFFFFFFFE00000001F000FFFFC0000000
310
03FFF8001E001FC001E000FFFF80007FFFFF8000000007FFFFFC000000003FF8
310
0FFFFFFFFFFFFFC07FFFFFF0001FFFFFF8001FFFFFFFFC000FF8001FFFFFFFFC
310
000FFF0003FFFFFFFFFFFFE000000003F000FFFE0000000007FFF8001E000FC0
310
01E0007FFF80007FFFFE0000000007FFFFE0000000007FF80FFFFFFFFFFFFFC0
310
7FFFFFF0001FFFFFF0001FFFFFFFFC0007F0001FFFFFFFFC0007FF0003FFFFFF
310
FFFFFF0000000003F000FFF80000000007FFF8001E000FC003E0007FFF80007F
310
FFF0000000000FFFFF8000000000FFF80FFFFFFFFFFFFFC07FFFFFF0001FFFFF
310
F0001FFFFFFFFC0007F0001FFFFFFFFC0007FF0003FFFFFFFFFFFC0000000007
310
F000FFE0000000000FFFF0003E000FC003E0007FFF80007FFFC0000000001FFF
310
FE0000000001FFF80FFFFFFFFFFFFFC07FFFFFF0001FFFFFF0001FFFFFFFFC00
310
07F0001FFFFFFFFC0007FF0003FFFFFFFFFFF0000000000FF000FFC000000000
310
1FFFF0003F000F8003F0003FFF80007FFF80000000003FFFF80000000003FFF8
310
0FFFFFFFFFFFFFC07FFFFFF0001FFFFFF0001FFFFFFFFC0007F0001FFFFFFFFC
310
0007FF0003FFFFFFFFFFE0000000001FF000FF00000000007FFFF0003F000780
310
03F0003FFF80007FFF00000000007FFFF00000000007FFF80FFFFFFFFFFFFFC0
310
7FFFFFF0001FFFFFF0001FFFFFFFFC0007F0001FFFFFFFFC0007FF0003FFFFFF
310
FFFF80000000007FF000FE0000000000FFFFE0003F00078007F0003FFF80007F
310
FE0000000001FFFFE0000000001FFFF80FFFFFFFFFFFFFC07FFFFFF0001FFFFF
310
F0001FFFFFFFFC0007F0001FFFFFFFFC0007FF0003FFFFFFFFFF0000000000FF
310
F000FC0000000003FFFFE0007F00078007F0003FFF80007FFC0000000007FFFF
310
C0000000007FFFF80FFFFFFFFFFFFFC07FFFFFF0001FFFFFF8001FFFFFFFFC00
310
0FF8001FFFFFFFFC000FFF0003FFFFFFFFFE0000000003FFF000FC000000000F
310
FFFFE0007F80070007F8001FFF80007FF8000000001FFFFF8000000001FFFFF8
310
0FFFFFFFFFFFFFC07FFFFFF0001FFFFFF8001FFFFFFFFC000FF8001FFFFFFFFC
310
000FFF0003FFFFFFFFFC000000000FFFF000F8000000007FFFFFE0007F800700
310
07F8001FFF80007FF000000000FFFFFF800000000FFFFFF80FFFFFFFFFFFFFC0
310
7FFFFFF0001FFFFFF8000FFFFFFFF8000FF8000FFFFFFFF8000FFF0003FFFFFF
310
FFFC000000007FFFF000F800000007FFFFFFC0007F8003000FF8001FFF80007F
310
F000000007FFFFFF000000007FFFFFF80FFFFFFFFFFFFFC07FFFFFF0001FFFFF
310
F8000FFFFFFFF8000FF8000FFFFFFFF8000FFF0003FFFFFFFFF80000000FFFFF
310
F000F0000000FFFFFFFFC000FF8003000FF8001FFF80007FE0000000FFFFFFFF
310
0000000FFFFFFFF8000001FFFE0000007FFFFFF0001FFFFFF8000FFFFFFFF800
310
0FF8000FFFFFFFF8000FFF0003FFFFFFFFF8000000FFFFFFF000F000000FFFFF
310
FFFFC000FFC002000FF8000FFF80007FE000001FFFFFFFFE000001FFFFFFFFF8
310
000001FFFE0000007FFFFFF0001FFFFFF8000FFFFFFFF8000FF8000FFFFFFFF8
310
000FFF0003FFFFFFFFF000001FFFFFFFF000E00000FFFFFFFFFFC000FFC00200
310
0FFC000FFF80007FE00001FFFFFFFFFE00001FFFFFFFFFF8000001FFFE000000
310
7FFFFFF0001FFFFFFC000FFFFFFFF8001FFC000FFFFFFFF8001FFF0003FFFFFF
310
FFF00001FFFFFFFFF000E00007FFFFFFFFFF8000FFC000001FFC000FFF80007F
310
C0000FFFFFFFFFFE0000FFFFFFFFFFF8000001FFFE0000007FFFFFF0001FFFFF
310
FC0007FFFFFFF0001FFC0007FFFFFFF0001FFF0003FFFFFFFFF00007FFFFFFFF
310
F000E0001FFFFFFFFFFF8000FFC000001FFC000FFF80007FC0003FFFFFFFFFFE
310
0001FFFFFFFFFFF8000001FFFE0000007FFFFFF0001FFFFFFC0007FFFFFFF000
310
1FFC0007FFFFFFF0001FFF0003FFFFFFFFF0001FFFFFFFFFF000E0003FFFFF00
310
03FF8001FFE000001FFC0007FF80007FC0007FFFFF0007FC0003FFFFF0003FF8
310
000001FFFE0000007FFFFFF0001FFFFFFC0003FFFFFFE0001FFC0003FFFFFFE0
310
001FFF0003FFFFFFFFF0003FFFFFFFFFF000E0003FFFFF0001FF8001FFE00000
310
1FFE0007FF80007FC0007FFFFE0003FC0007FFFFE0003FF8000001FFFE000000
310
7FFFFFF0001FFFFFFE0003FFFFFFE0003FFE0003FFFFFFE0003FFF0003FFFFFF
310
FFF0003FFFFF8001F000E0003FFFFF0001FF0001FFE000001FFE0007FF80007F
310
C0007FFFFE0003FC0007FFFFE0003FF8000001FFFE0000007FFFFFF0001FFFFF
310
FE0001FFFFFFC0003FFE0001FFFFFFC0003FFF0003FFFFFFFFF0003FFFFF0001
310
F000E0003FFFFF0003FF0001FFE000003FFE0007FF80007FC0007FFFFE0003FC
310
0007FFFFE0003FF8000001FFFE0000007FFFFFF0001FFFFFFF0001FFFFFFC000
310
7FFF0001FFFFFFC0007FFF0003FFFFFFFFF0003FFFFF0001F000E0003FFFFE00
310
03FF0003FFF000003FFE0003FF80007FC0007FFFFC0003FE0007FFFFE0003FF8
310
000001FFFE0000007FFFFFF0001FFFFFFF0000FFFFFF80007FFF0000FFFFFF80
310
007FFF0003FFFFFFFFF0003FFFFF0001F000E0003FFFFE0003FF0003FFF00000
310
3FFF0003FF80007FC0007FFFFC0007FE0007FFFFC0003FF8000001FFFE000000
310
7FFFFFF0001FFFFFFF80007FFFFF0000FFFF80007FFFFF0000FFFF0003FFFFFF
310
FFF0003FFFFF0003F000E0003FFFFC0003FE0003FFF000003FFF0003FF80007F
310
E0003FFFF80007FE0003FFFFC0007FF8000001FFFE0000007FFFFFF0001FFFFF
310
FF80003FFFFE0000FFFF80003FFFFE0000FFFF0003FFFFFFFFF0001FFFFE0003
310
F000F0001FFFF80003FE0003FFF000007FFF0001FF80007FE0003FFFF00007FE
310
0001FFFF80007FF8000001FFFE0000007FFFFFF0001FFFFFFFC0000FFFF80001
310
FFFFC0000FFFF80001FFFF0003FFFFFFFFF0001FFFFC0003F000F0000FFFF000
310
07FE0007FFF800007FFF0001FF80007FE0001FFFE00007FF0000FFFE00007FF8
310
000001FFFE0000007FFFFFF0001FFFFFFFC00003FFE00001FFFFC00003FFE000
310
01FFFF0003FFFFFFFFF8000FFFF80003F000F00003FFC00007FC0007FFF80000
310
7FFF8001FF80007FF00007FF80000FFF00007FF80000FFF8000001FFFE000000
310
7F80000000000001FFE000003E000003FFFFE000003E000003FFFF0003FFFFFF
310
FFF80003FFE00007F000F800000000000FFC0007FFF800007FFF8001FF80007F
310
F000000000000FFF000000000000FFF8000001FFFE0000007F80000000000001
310
FFF0000000000007FFFFF0000000000007FFFF0003FFFFFFFFFC00007E000007
310
F000F800000000000FFC0007FFF80000FFFF8000FF80007FF800000000001FFF
310
800000000001FFF8000001FFFE0000007F80000000000001FFF800000000000F
310
FFFFF800000000000FFFFF0003FFFFFFFFFC00000000000FF000FC0000000000
310
1FFC0007FFFC0000FFFF8000FF80007FF800000000003FFFC00000000001FFF8
310
000001FFFE0000007F80000000000001FFF800000000000FFFFFF80000000000
310
0FFFFF0003FFFFFFFFFE00000000001FF000FE00000000003FF8000FFFFC0000
310
FFFF8000FF80007FFC00000000003FFFC00000000003FFF8000001FFFE000000
310
7F80000000000001FFFC00000000001FFFFFFC00000000001FFFFF0003FFFFFF
310
FFFF00000000001FF000FF00000000003FF8000FFFFC0000FFFFC000FF80007F
310
FE00000000007FFFE00000000007FFF8000001FFFE0000007F80000000000001
310
FFFE00000000003FFFFFFE00000000003FFFFF0003FFFFFFFFFF80000000003F
310
F000FF80000000007FF8000FFFFC0001FFFFC0007F80007FFF0000000000FFFF
310
F0000000000FFFF800000000000000007F80000000000001FFFF8000000000FF
310
FFFFFF8000000000FFFFFF0003FFFFFFFFFFC0000000007FF000FFC000000000
310
FFF8000FFFFE0001FFFFC0007F80007FFF8000000001FFFFF8000000001FFFF8
310
00000000000000007F80000000000001FFFFC000000001FFFFFFFFC000000001
310
FFFFFF0003FFFFFFFFFFE000000000FFF000FFE000000003FFF0001FFFFE0001
310
FFFFC0007F80007FFFC000000007FFFFFE000000003FFFF80000000000000000
310
7F80000000000001FFFFE000000003FFFFFFFFE000000003FFFFFF0003FFFFFF
310
FFFFF000000003FFF000FFF80000000FFFF0001FFFFE0001FFFFE0007F80007F
310
FFF00000000FFFFFFF00000000FFFFF800000000000000007F80000000000001
310
FFFFF80000000FFFFFFFFFF80000000FFFFFFF0003FFFFFFFFFFFC0000000FFF
310
F000FFFE0000003FFFF0001FFFFE0003FFFFE0003F80007FFFFC0000003FFFFF
310
FFC0000003FFFFF800000000000000007F80000000000001FFFFFE0000003FFF
310
FFFFFFFE0000003FFFFFFF0003FFFFFFFFFFFF0000003FFFF000FFFF800000FF
310
FFF0001FFFFF0003FFFFE0003F80007FFFFF000001FFFFFFFFF800001FFFFFF8
310
00000000000000007F80000000000001FFFFFFC00001FFFFFFFFFFFFC00001FF
310
FFFFFF0003FFFFFFFFFFFFC00000FFFFF000FFFFF8000FFFFFFFFFFFFFFFFFFF
310
FFFFFFFFFFFFFFFFFFFFF0001FFFFFFFFFFF0000FFFFFFF80000000000000000
310
7FFFFFFFFFFFFFFFFFFFFFFC001FFFFFFFFFFFFFFC001FFFFFFFFFFFFFFFFFFF
310
FFFFFFFC001FFFFFF000FFFFFFFFFFFFFFFFFFFFFFFFFFFFFFFFFFFFFFFFFFFF
310
FFFFFFFFFFFFFFFFFFFFFFFFFFFFFFFFFFFFFFFFFFFFFFFFFFFFFFFFFFFFFFFF
310
FFFFFFFFFFFFFFFFFFFFFFFFFFFFFFFFFFFFFFFFFFFFFFFFFFFFFFFFFFFFFFFF
310
F000FFFFFFFFFFFFFFFFFFFFFFFFFFFFFFFFFFFFFFFFFFFFFFFFFFFFFFFFFFFF
310
FFFFFFFFFFFFFFFFFFFFFFFFFFFFFFFFFFFFFFFFFFFFFFFFFFFFFFFFFFFFFFFF
310
FFFFFFFFFFFFFFFFFFFFFFFFFFFFFFFFFFFFFFFFFFFFFFFFF000FFFFFFFFFFFF
310
FFFFFFFFFFFFFFFFFFFFFFFFFFFFFFFFFFFFFFFFFFFFFFFFFFFFFFFFFFFFFFFF
310
FFFFFFFFFFFFFFFFFFFFFFFFFFFFFFFFFFFFFFFFFFFFFFFFFFFFFFFFFFFFFFFF
310
FFFFFFFFFFFFFFFFFFFFFFFFFFFFFFFFF000FFFFFFFFFFFFFFFFFFFFFFFFFFFF
310
FFFFFFFFFFFFFFFFFFFFFFFFFFFFFFFFFFFFFFFFFFFFFFFFFFFFFFFFFFFFFFFF
310
FFFFFFFFFFFFFFFFFFFFFFFFFFFFFFFFFFFFFFFFFFFFFFFFFFFFFFFFFFFFFFFF
310
FFFFFFFFFFFFFFFFF000FFFFFFFFFFFFFFFFFFFFFFFFFFFFFFFFFFFFFFFFFFFF
310
FFFFFFFFFFFFFFFFFFFFFFFFFFFFFFFFFFFFFFFFFFFFFFFFFFFFFFFFFFFFFFFF
310
FFFFFFFFFFFFFFFFFFFFFFFFFFFFFFFFFFFFFFFFFFFFFFFFFFFFFFFFFFFFFFFF
310
F000FFFFFFFFFFFFFFFFFFFFFFFFFFFFFFFFFFFFFFFFFFFFFFFFFFFFFFFFFFFF
310
FFFFFFFFFFFFFFFFFFFFFFFFFFFFFFFFFFFFFFFFFFFFFFFFFFFFFFFFFFFFFFFF
310
FFFFFFFFFFFFFFFFFFFFFFFFFFFFFFFFFFFFFFFFFFFFFFFFF000FFFFFFFFFFFF
310
FFFFFFFFFFFFFFFFFFFFFFFFFFFFFFFFFFFFFFFFFFFFFFFFFFFFFFFFFFFFFFFF
310
FFFFFFFFFFFFFFFFFFFFFFFFFFFFFFFFFFFFFFFFFFFFFFFFFFFFFFFFFFFFFFFF
310
FFFFFFFFFFFFFFFFFFFFFFFFFFFFFFFFF000FFFFFFFFFFFFFFFFFFFFFFFFFFFF
310
FFFFFFFFFFFFFFFFFFFFFFFFFFFFFFFFFFFFFFFFFFFFFFFFFFFFFFFFFFFFFFFF
310
FFFFFFFFFFFFFFFFFFFFFFFFFFFFFFFFFFFFFFFFFFFFFFFFFFFFFFFFFFFFFFFF
310
FFFFFFFFFFFFFFFFF000FFFFFFFFFFFFFFFFFFFFFFFFFFFFFFFFFFFFFFFFFFFF
310
FFFFFFFFFFFFFFFFFFFFFFFFFFFFFFFFFFFFFFFFFFFFFFFFFFFFFFFFFFFFFFFF
310
FFFFFFFFFFFFFFFFFFFFFFFFFFFFFFFFFFFFFFFFFFFFFFFFFFFFFFFFFFFFFFFF
310
F000FFFFFFFFFFFFFFFFFFFFFFFFFFFFFFFFFFFFFFFFFFFFFFFFFFFFFFFFFFFF
310
FFFFFFFFFFFFFFFFFFFFFFFFFFFFFFFFFFFFFFFFFFFFFFFFFFFFFFFFFFFFFFFF
310
FFFFFFFFFFFFFFFFFFFFFFFFFFFFFFFFFFFFFFFFFFFFFFFFF000FFFFFFFFFFFF
310
FFFFFFFFFFFFFFFFFFFFFFFFFFFFFFFFFFFFFFFFFFFFFFFFFFFFFFFFFFFFFFFF
310
FFFFFFFFFFFFFFFFFFFFFFFFFFFFFFFFFFFFFFFFFFFFFFFFFFFFFFFFFFFFFFFF
310
FFFFFFFFFFFFFFFFFFFFFFFFFFFFFFFFF000FFFFFFFFFFFFFFFFFFFFFFFFFFFF
310
FFFFFFFFFFFFFFFFFFFFFFFFFFFFFFFFFFFFFFFFFFFFFFFFFFFFFFFFFFFFFFFF
310
FFFFFFFFFFFFFFFFFFFFFFFFFFFFFFFFFFFFFFFFFFFFFFFFFFFFFFFFFFFFFFFF
310
FFFFFFFFFFFFFFFFF000FFFFFFFFFFFFFFFFFFFFFFFFFFFFFFFFFFFFFFFFFFFF
310
FFFFFFFFFFFFFFFFFFFFFFFFFFFFFFFFFFFFFFFFFFFFFFFFFFFFFFFFFFFFFFFF
310
FFFFFFFFFFFFFFFFFFFFFFFFFFFFFFFFFFFFFFFFFFFFFFFFFFFFFFFFFFFFFFFF
310
F000FFFFFFFFFFFFFFFFFFFFFFFFFFFFFFFFFFFFFFFFFFFFFFFFFFFFFFFFFFFF
310
FFFFFFFFFFFFFFFFFFFFFFFFFFFFFFFFFFFFFFFFFFFFFFFFFFFFFFFFFFFFFFFF
310
FFFFFFFFFFFFFFFFFFFFFFFFFFFFFFFFFFFFFFFFFFFFFFFFF000FFFFFFFFFFFF
310
FFFFFFFFFFFFFFFFFFFFFFFFFFFFFFFFFFFFFFFFFFFFFFFFFFFFFFFFFFFFFFFF
310
FFFFFFFFFFFFFFFFFFFFFFFFFFFFFFFFFFFFFFFFFFFFFFFFFFFFFFFFFFFFFFFF
310
FFFFFFFFFFFFFFFFFFFFFFFFFFFFFFFFF000FFFFFFFFFFFFFFFFFFFFFFFFFFFF
310
FFFFFFFFFFFFFFFFFFFFFFFFFFFFFFFFFFFFFFFFFFFFFFFFFFFFFFFFFFFFFFFF
310
FFFFFFFFFFFFFFFFFFFFFFFFFFFFFFFFFFFFFFFFFFFFFFFFFFFFFFFFFFFFFFFF
310
FFFFFFFFFFFFFFFFF000FFFFFFFFFFFFFFFFFFFFFFFFFFFFFFFFFFFFFFFFFFFF
310
FFFFFFFFFFFFFFFFFFFFFFFFFFFFFFFFFFFFFFFFFFFFFFFFFFFFFFFFFFFFFFFF
310
FFFFFFFFFFFFFFFFFFFFFFFFFFFFFFFFFFFFFFFFFFFFFFFFFFFFFFFFFFFFFFFF
310
F000FFFFFFFFFFFFFFFFFFFFFFFFFFFFFFFFFFFFFFFFFFFFFFFFFFFFFFFFFFFF
310
FFFFFFFFFFFFFFFFFFFFFFFFFFFFFFFFFFFFFFFFFFFFFFFFFFFFFFFFFFFFFFFF
310
FFFFFFFFFFFFFFFFFFFFFFFFFFFFFFFFFFFFFFFFFFFFFFFFF000FFFFFFFFFFFF
310
FFFFFFFFFFFFFFFFFFFFFFFFFFFFFFFFFFFFFFFFFFFFFFFFFFFFFFFFFFFFFFFF
310
FFFFFFFFFFFFFFFFFFFFFFFFFFFFFFFFFFFFFFFFFFFFFFFFFFFFFFFFFFFFFFFF
310
FFFFFFFFFFFFFFFFFFFFFFFFFFFFFFFFF000FFFFFFFFFFFFFFFFFFFFFFFFFFFF
310
FFFFFFFFFFFFFFFFFFFFFFFFFFFFFFFFFFFFFFFFFFFFFFFFFFFFFFFFFFFFFFFF
310
FFFFFFFFFFFFFFFFFFFFFFFFFFFFFFFFFFFFFFFFFFFFFFFFFFFFFFFFFFFFFFFF
310
FFFFFFFFFFFFFFFFF000FFFFFFFFFFFFFFFFFFFFFFFFFFFFFFFFFFFFFFFFFFFF
310
FFFFFFFFFFFFFFFFFFFFFFFFFFFFFFFFFFFFFFFFFFFFFFFFFFFFFFFFFFFFFFFF
310
FFFFFFFFFFFFFFFFFFFFFFFFFFFFFFFFFFFFFFFFFFFFFFFFFFFFFFFFFFFFFFFF
310
F000FFFFFFFFFFFFFFFFFFFFFFFFFFFFFFFFFFFFFFFFFFFFFFFFFFFFFFFFFFFF
310
FFFFFFFFFFFFFFFFFFFFFFFFFFFFFFFFFFFFFFFFFFFFFFFFFFFFFFFFFFFFFFFF
310
FFFFFFFFFFFFFFFFFFFFFFFFFFFFFFFFFFFFFFFFFFFFFFFFF000FFFFFFFFFFFF
310
FFFFFFFFFFFFFFFFFFFFFFFFFFFFFFFFFFFFFFFFFFFFFFFFFFFFFFFFFFFFFFFF
310
FFFFFFFFFFFFFFFFFFFFFFFFFFFFFFFFFFFFFFFFFFFFFFFFFFFFFFFFFFFFFFFF
310
FFFFFFFFFFFFFFFFFFFFFFFFFFFFFFFFF0000000000000000000000000000000
310
0000000000000000000000000000000000000000000000000000000000000000
310
0000000000000000000000000000000000000000000000000000000000000000
310
0000000000000000000000000000000000000000000000000000000000000000
310
0000000000000000000000000000000000000000000000000000000000000000
310
0000000000000000000000000000000000000000000000000000000000000000
310
0000000000000000000000000000000000000000000000000000000000000000
310
0000000000000000000000000000000000000000000000000000000000000000
310
0000000000000000000000000000000000000000000000000000000000000000
310
0000000000000000000000000000000000000000000000000000000000000000
310
0000000000000000000000000000000000000000000000000000000000000000
310
0000000000000000000000000000000000000000000000000000000000000000
310
0000000000000000000000000000000000000000000000000000000000000000
310
0000000000000000000000000000000000000000000000000000000000000000
310
0000000000000000000000000000000000000000000000000000000000000000
310
0000000000000000000000000000000000000000000000000000000000000000
  1
OLE
  0
ENDSEC
  0
SECTION
  2
OBJECTS
  0
DICTIONARY
  5
C
330
0
100
AcDbDictionary
281
     1
  3
ACAD_GROUP
350
D
  3
ACAD_LAYOUT
350
1A
  3
ACAD_MLINESTYLE
350
17
  3
ACAD_PLOTSETTINGS
350
19
  3
ACAD_PLOTSTYLENAME
350
E
  3
ACAD_SCALELIST
350
47
  0
DICTIONARY
  5
D
102
{ACAD_REACTORS
330
C
102
}
330
C
100
AcDbDictionary
281
     1
  0
DICTIONARY
  5
1A
102
{ACAD_REACTORS
330
C
102
}
330
C
100
AcDbDictionary
281
     1
  3
Layout1
350
1E
  3
Layout2
350
26
  3
Model
350
22
  0
DICTIONARY
  5
17
102
{ACAD_REACTORS
330
C
102
}
330
C
100
AcDbDictionary
281
     1
  3
Standard
350
18
  0
DICTIONARY
  5
19
102
{ACAD_REACTORS
330
C
102
}
330
C
100
AcDbDictionary
281
     1
  0
ACDBDICTIONARYWDFLT
  5
E
102
{ACAD_REACTORS
330
C
102
}
330
C
100
AcDbDictionary
281
     1
  3
Normal
350
F
100
AcDbDictionaryWithDefault
340
F
  0
DICTIONARY
  5
47
102
{ACAD_REACTORS
330
C
102
}
330
C
100
AcDbDictionary
281
     1
  3
A0
350
48
  3
A1
350
49
  3
A2
350
4A
  3
A3
350
4B
  3
A4
350
4C
  3
A5
350
4D
  3
A6
350
4E
  3
A7
350
4F
  3
A8
350
50
  3
A9
350
51
  3
B0
350
52
  3
B1
350
53
  3
B2
350
54
  3
B3
350
55
  3
B4
350
56
  3
B5
350
57
  3
B6
350
58
  3
B7
350
59
  3
B8
350
5A
  3
B9
350
5B
  3
C0
350
5C
  3
C1
350
5D
  3
C2
350
5E
  3
C3
350
5F
  3
C4
350
60
  3
C5
350
61
  3
C6
350
62
  3
C7
350
63
  3
C8
350
64
  3
C9
350
65
  3
D0
350
66
  3
D1
350
67
  3
D2
350
68
  0
LAYOUT
  5
1E
102
{ACAD_REACTORS
330
1A
102
}
330
1A
100
AcDbPlotSettings
  1

  2
none_device
  4

  6

 40
0.0
 41
0.0
 42
0.0
 43
0.0
 44
0.0
 45
0.0
 46
0.0
 47
0.0
 48
0.0
 49
0.0
140
0.0
141
0.0
142
1.0
143
1.0
 70
   688
 72
     1
 73
     0
 74
     5
  7

 75
    16
147
1.0
148
0.0
149
0.0
100
AcDbLayout
  1
Layout1
 70
     1
 71
     1
 10
0.0
 20
0.0
 11
420.0
 21
297.0
 12
0.0
 22
0.0
 32
0.0
 14
1.0000000000E+20
 24
1.0000000000E+20
 34
1.0000000000E+20
 15
-1.0000000000E+20
 25
-1.0000000000E+20
 35
-1.0000000000E+20
146
0.0
 13
0.0
 23
0.0
 33
0.0
 16
1.0
 26
0.0
 36
0.0
 17
0.0
 27
1.0
 37
0.0
 76
     0
330
1B
  0
LAYOUT
  5
26
102
{ACAD_REACTORS
330
1A
102
}
330
1A
100
AcDbPlotSettings
  1

  2
none_device
  4

  6

 40
0.0
 41
0.0
 42
0.0
 43
0.0
 44
0.0
 45
0.0
 46
0.0
 47
0.0
 48
0.0
 49
0.0
140
0.0
141
0.0
142
1.0
143
1.0
 70
   688
 72
     1
 73
     0
 74
     5
  7

 75
    16
147
1.0
148
0.0
149
0.0
100
AcDbLayout
  1
Layout2
 70
     1
 71
     2
 10
0.0
 20
0.0
 11
0.0
 21
0.0
 12
0.0
 22
0.0
 32
0.0
 14
0.0
 24
0.0
 34
0.0
 15
0.0
 25
0.0
 35
0.0
146
0.0
 13
0.0
 23
0.0
 33
0.0
 16
1.0
 26
0.0
 36
0.0
 17
0.0
 27
1.0
 37
0.0
 76
     0
330
23
  0
LAYOUT
  5
22
102
{ACAD_REACTORS
330
1A
102
}
330
1A
100
AcDbPlotSettings
  1

  2
none_device
  4
Letter_(8.50_x_11.00_Inches)
  6

 40
6.35
 41
6.35
 42
6.35000508
 43
6.35000508
 44
215.9
 45
279.4
 46
0.0
 47
0.0
 48
0.0
 49
0.0
140
0.0
141
0.0
142
1.0
143
1.0
 70
  1712
 72
     1
 73
     0
 74
     0
  7

 75
     0
147
1.0
148
0.0
149
0.0
100
AcDbLayout
  1
Model
 70
     1
 71
     0
 10
0.0
 20
0.0
 11
297.0
 21
210.0
 12
0.0
 22
0.0
 32
0.0
 14
0.0
 24
0.0
 34
0.0
 15
297.0
 25
210.0
 35
0.0
146
0.0
 13
0.0
 23
0.0
 33
0.0
 16
1.0
 26
0.0
 36
0.0
 17
0.0
 27
1.0
 37
0.0
 76
     0
330
1F
331
29
  0
MLINESTYLE
  5
18
102
{ACAD_REACTORS
330
17
102
}
330
17
100
AcDbMlineStyle
  2
Standard
 70
     0
  3

 62
   256
 51
90.0
 52
90.0
 71
     2
 49
0.5
 62
   256
  6
BYLAYER
 49
-0.5
 62
   256
  6
BYLAYER
  0
ACDBPLACEHOLDER
  5
F
102
{ACAD_REACTORS
330
E
102
}
330
E
  0
SCALE
  5
48
102
{ACAD_REACTORS
330
47
102
}
330
47
100
AcDbScale
 70
     0
300
1:1
140
1.0
141
1.0
290
     1
  0
SCALE
  5
49
102
{ACAD_REACTORS
330
47
102
}
330
47
100
AcDbScale
 70
     0
300
1:2
140
1.0
141
2.0
290
     0
  0
SCALE
  5
4A
102
{ACAD_REACTORS
330
47
102
}
330
47
100
AcDbScale
 70
     0
300
1:4
140
1.0
141
4.0
290
     0
  0
SCALE
  5
4B
102
{ACAD_REACTORS
330
47
102
}
330
47
100
AcDbScale
 70
     0
300
1:5
140
1.0
141
5.0
290
     0
  0
SCALE
  5
4C
102
{ACAD_REACTORS
330
47
102
}
330
47
100
AcDbScale
 70
     0
300
1:8
140
1.0
141
8.0
290
     0
  0
SCALE
  5
4D
102
{ACAD_REACTORS
330
47
102
}
330
47
100
AcDbScale
 70
     0
300
1:10
140
1.0
141
10.0
290
     0
  0
SCALE
  5
4E
102
{ACAD_REACTORS
330
47
102
}
330
47
100
AcDbScale
 70
     0
300
1:16
140
1.0
141
16.0
290
     0
  0
SCALE
  5
4F
102
{ACAD_REACTORS
330
47
102
}
330
47
100
AcDbScale
 70
     0
300
1:20
140
1.0
141
20.0
290
     0
  0
SCALE
  5
50
102
{ACAD_REACTORS
330
47
102
}
330
47
100
AcDbScale
 70
     0
300
1:30
140
1.0
141
30.0
290
     0
  0
SCALE
  5
51
102
{ACAD_REACTORS
330
47
102
}
330
47
100
AcDbScale
 70
     0
300
1:40
140
1.0
141
40.0
290
     0
  0
SCALE
  5
52
102
{ACAD_REACTORS
330
47
102
}
330
47
100
AcDbScale
 70
     0
300
1:50
140
1.0
141
50.0
290
     0
  0
SCALE
  5
53
102
{ACAD_REACTORS
330
47
102
}
330
47
100
AcDbScale
 70
     0
300
1:100
140
1.0
141
100.0
290
     0
  0
SCALE
  5
54
102
{ACAD_REACTORS
330
47
102
}
330
47
100
AcDbScale
 70
     0
300
2:1
140
2.0
141
1.0
290
     0
  0
SCALE
  5
55
102
{ACAD_REACTORS
330
47
102
}
330
47
100
AcDbScale
 70
     0
300
4:1
140
4.0
141
1.0
290
     0
  0
SCALE
  5
56
102
{ACAD_REACTORS
330
47
102
}
330
47
100
AcDbScale
 70
     0
300
8:1
140
8.0
141
1.0
290
     0
  0
SCALE
  5
57
102
{ACAD_REACTORS
330
47
102
}
330
47
100
AcDbScale
 70
     0
300
10:1
140
10.0
141
1.0
290
     0
  0
SCALE
  5
58
102
{ACAD_REACTORS
330
47
102
}
330
47
100
AcDbScale
 70
     0
300
100:1
140
100.0
141
1.0
290
     0
  0
SCALE
  5
59
102
{ACAD_REACTORS
330
47
102
}
330
47
100
AcDbScale
 70
     0
300
1/128" = 1'-0"
140
0.0078125
141
12.0
290
     0
  0
SCALE
  5
5A
102
{ACAD_REACTORS
330
47
102
}
330
47
100
AcDbScale
 70
     0
300
1/64" = 1'-0"
140
0.015625
141
12.0
290
     0
  0
SCALE
  5
5B
102
{ACAD_REACTORS
330
47
102
}
330
47
100
AcDbScale
 70
     0
300
1/32" = 1'-0"
140
0.03125
141
12.0
290
     0
  0
SCALE
  5
5C
102
{ACAD_REACTORS
330
47
102
}
330
47
100
AcDbScale
 70
     0
300
1/16" = 1'-0"
140
0.0625
141
12.0
290
     0
  0
SCALE
  5
5D
102
{ACAD_REACTORS
330
47
102
}
330
47
100
AcDbScale
 70
     0
300
3/32" = 1'-0"
140
0.09375
141
12.0
290
     0
  0
SCALE
  5
5E
102
{ACAD_REACTORS
330
47
102
}
330
47
100
AcDbScale
 70
     0
300
1/8" = 1'-0"
140
0.125
141
12.0
290
     0
  0
SCALE
  5
5F
102
{ACAD_REACTORS
330
47
102
}
330
47
100
AcDbScale
 70
     0
300
3/16" = 1'-0"
140
0.1875
141
12.0
290
     0
  0
SCALE
  5
60
102
{ACAD_REACTORS
330
47
102
}
330
47
100
AcDbScale
 70
     0
300
1/4" = 1'-0"
140
0.25
141
12.0
290
     0
  0
SCALE
  5
61
102
{ACAD_REACTORS
330
47
102
}
330
47
100
AcDbScale
 70
     0
300
3/8" = 1'-0"
140
0.375
141
12.0
290
     0
  0
SCALE
  5
62
102
{ACAD_REACTORS
330
47
102
}
330
47
100
AcDbScale
 70
     0
300
1/2" = 1'-0"
140
0.5
141
12.0
290
     0
  0
SCALE
  5
63
102
{ACAD_REACTORS
330
47
102
}
330
47
100
AcDbScale
 70
     0
300
3/4" = 1'-0"
140
0.75
141
12.0
290
     0
  0
SCALE
  5
64
102
{ACAD_REACTORS
330
47
102
}
330
47
100
AcDbScale
 70
     0
300
1" = 1'-0"
140
1.0
141
12.0
290
     0
  0
SCALE
  5
65
102
{ACAD_REACTORS
330
47
102
}
330
47
100
AcDbScale
 70
     0
300
1-1/2" = 1'-0"
140
1.5
141
12.0
290
     0
  0
SCALE
  5
66
102
{ACAD_REACTORS
330
47
102
}
330
47
100
AcDbScale
 70
     0
300
3" = 1'-0"
140
3.0
141
12.0
290
     0
  0
SCALE
  5
67
102
{ACAD_REACTORS
330
47
102
}
330
47
100
AcDbScale
 70
     0
300
6" = 1'-0"
140
6.0
141
12.0
290
     0
  0
SCALE
  5
68
102
{ACAD_REACTORS
330
47
102
}
330
47
100
AcDbScale
 70
     0
300
1'-0" = 1'-0"
140
12.0
141
12.0
290
     0
  0
ENDSEC
  0
EOF
