  0
SECTION
  2
HEADER
  9
$ACADVER
  1
AC1015
  9
$ACADMAINTVER
 70
     6
  9
$DWGCODEPAGE
  3
ANSI_1252
  9
$INSBASE
 10
0.0
 20
0.0
 30
0.0
  9
$EXTMIN
 10
0.0
 20
0.0
 30
0.0
  9
$EXTMAX
 10
297.0
 20
210.0
 30
0.0
  9
$LIMMIN
 10
0.0
 20
0.0
  9
$LIMMAX
 10
297.0
 20
210.0
  9
$ORTHOMODE
 70
     0
  9
$REGENMODE
 70
     1
  9
$FILLMODE
 70
     1
  9
$QTEXTMODE
 70
     0
  9
$MIRRTEXT
 70
     1
  9
$LTSCALE
 40
1.0
  9
$ATTMODE
 70
     1
  9
$TEXTSIZE
 40
2.0
  9
$TRACEWID
 40
1.0
  9
$TEXTSTYLE
  7
Standard
  9
$CLAYER
  8
0
  9
$CELTYPE
  6
ByLayer
  9
$CECOLOR
 62
   256
  9
$CELTSCALE
 40
1.0
  9
$DISPSILH
 70
     0
  9
$DIMSCALE
 40
1.0
  9
$DIMASZ
 40
3.0
  9
$DIMEXO
 40
0.0
  9
$DIMDLI
 40
3.75
  9
$DIMRND
 40
0.0
  9
$DIMDLE
 40
0.0
  9
$DIMEXE
 40
1.0
  9
$DIMTP
 40
0.0
  9
$DIMTM
 40
0.0
  9
$DIMTXT
 40
2.0
  9
$DIMCEN
 40
2.5
  9
$DIMTSZ
 40
0.0
  9
$DIMTOL
 70
     0
  9
$DIMLIM
 70
     0
  9
$DIMTIH
 70
     1
  9
$DIMTOH
 70
     1
  9
$DIMSE1
 70
     0
  9
$DIMSE2
 70
     0
  9
$DIMTAD
 70
     1
  9
$DIMZIN
 70
     0
  9
$DIMBLK
  1

  9
$DIMASO
 70
     1
  9
$DIMSHO
 70
     1
  9
$DIMPOST
  1

  9
$DIMAPOST
  1

  9
$DIMALT
 70
     0
  9
$DIMALTD
 70
     3
  9
$DIMALTF
 40
0.0393700787
  9
$DIMLFAC
 40
1.0
  9
$DIMTOFL
 70
     1
  9
$DIMTVP
 40
0.0
  9
$DIMTIX
 70
     0
  9
$DIMSOXD
 70
     0
  9
$DIMSAH
 70
     0
  9
$DIMBLK1
  1

  9
$DIMBLK2
  1

  9
$DIMSTYLE
  2
ISO-25
  9
$DIMCLRD
 70
     0
  9
$DIMCLRE
 70
     0
  9
$DIMCLRT
 70
     0
  9
$DIMTFAC
 40
1.0
  9
$DIMGAP
 40
1.524
  9
$DIMJUST
 70
     0
  9
$DIMSD1
 70
     0
  9
$DIMSD2
 70
     0
  9
$DIMTOLJ
 70
     0
  9
$DIMTZIN
 70
     0
  9
$DIMALTZ
 70
     0
  9
$DIMALTTZ
 70
     0
  9
$DIMUPT
 70
     0
  9
$DIMDEC
 70
     2
  9
$DIMTDEC
 70
     3
  9
$DIMALTU
 70
     2
  9
$DIMALTTD
 70
     3
  9
$DIMTXSTY
  7
Standard
  9
$DIMAUNIT
 70
     0
  9
$DIMADEC
 70
     2
  9
$DIMALTRND
 40
0.0
  9
$DIMAZIN
 70
     0
  9
$DIMDSEP
 70
    44
  9
$DIMATFIT
 70
     3
  9
$DIMFRAC
 70
     0
  9
$DIMLDRBLK
  1

  9
$DIMLUNIT
 70
     2
  9
$DIMLWD
 70
    -2
  9
$DIMLWE
 70
    -2
  9
$DIMTMOVE
 70
     0
  9
$LUNITS
 70
     2
  9
$LUPREC
 70
     2
  9
$SKETCHINC
 40
1.0
  9
$FILLETRAD
 40
10.0
  9
$AUNITS
 70
     0
  9
$AUPREC
 70
     2
  9
$MENU
  1
.
  9
$ELEVATION
 40
0.0
  9
$PELEVATION
 40
0.0
  9
$THICKNESS
 40
0.0
  9
$LIMCHECK
 70
     0
  9
$CHAMFERA
 40
0.0
  9
$CHAMFERB
 40
0.0
  9
$CHAMFERC
 40
0.0
  9
$CHAMFERD
 40
0.0
  9
$SKPOLY
 70
     0
  9
$TDCREATE
 40
2458135.335839213
  9
$TDUCREATE
 40
2458135.294172546
  9
$TDUPDATE
 40
2458135.335841007
  9
$TDUUPDATE
 40
2458135.29417434
  9
$TDINDWG
 40
0.0000000116
  9
$TDUSRTIMER
 40
0.0000000116
  9
$USRTIMER
 70
     1
  9
$ANGBASE
 50
0.0
  9
$ANGDIR
 70
     0
  9
$PDMODE
 70
     0
  9
$PDSIZE
 40
-1.0
  9
$PLINEWID
 40
0.0
  9
$SPLFRAME
 70
     0
  9
$SPLINETYPE
 70
     6
  9
$SPLINESEGS
 70
     8
  9
$HANDSEED
  5
297
  9
$SURFTAB1
 70
     6
  9
$SURFTAB2
 70
     6
  9
$SURFTYPE
 70
     6
  9
$SURFU
 70
     6
  9
$SURFV
 70
     6
  9
$UCSBASE
  2

  9
$UCSNAME
  2

  9
$UCSORG
 10
0.0
 20
0.0
 30
0.0
  9
$UCSXDIR
 10
1.0
 20
0.0
 30
0.0
  9
$UCSYDIR
 10
0.0
 20
1.0
 30
0.0
  9
$UCSORTHOREF
  2

  9
$UCSORTHOVIEW
 70
     0
  9
$UCSORGTOP
 10
0.0
 20
0.0
 30
0.0
  9
$UCSORGBOTTOM
 10
0.0
 20
0.0
 30
0.0
  9
$UCSORGLEFT
 10
0.0
 20
0.0
 30
0.0
  9
$UCSORGRIGHT
 10
0.0
 20
0.0
 30
0.0
  9
$UCSORGFRONT
 10
0.0
 20
0.0
 30
0.0
  9
$UCSORGBACK
 10
0.0
 20
0.0
 30
0.0
  9
$PUCSBASE
  2

  9
$PUCSNAME
  2

  9
$PUCSORG
 10
0.0
 20
0.0
 30
0.0
  9
$PUCSXDIR
 10
1.0
 20
0.0
 30
0.0
  9
$PUCSYDIR
 10
0.0
 20
1.0
 30
0.0
  9
$PUCSORTHOREF
  2

  9
$PUCSORTHOVIEW
 70
     0
  9
$PUCSORGTOP
 10
0.0
 20
0.0
 30
0.0
  9
$PUCSORGBOTTOM
 10
0.0
 20
0.0
 30
0.0
  9
$PUCSORGLEFT
 10
0.0
 20
0.0
 30
0.0
  9
$PUCSORGRIGHT
 10
0.0
 20
0.0
 30
0.0
  9
$PUCSORGFRONT
 10
0.0
 20
0.0
 30
0.0
  9
$PUCSORGBACK
 10
0.0
 20
0.0
 30
0.0
  9
$USERI1
 70
     0
  9
$USERI2
 70
     0
  9
$USERI3
 70
     0
  9
$USERI4
 70
     0
  9
$USERI5
 70
     0
  9
$USERR1
 40
0.0
  9
$USERR2
 40
0.0
  9
$USERR3
 40
0.0
  9
$USERR4
 40
0.0
  9
$USERR5
 40
0.0
  9
$WORLDVIEW
 70
     1
  9
$SHADEDGE
 70
     3
  9
$SHADEDIF
 70
    70
  9
$TILEMODE
 70
     1
  9
$MAXACTVP
 70
    64
  9
$PINSBASE
 10
0.0
 20
0.0
 30
0.0
  9
$PLIMCHECK
 70
     0
  9
$PEXTMIN
 10
1.0000000000E+20
 20
1.0000000000E+20
 30
1.0000000000E+20
  9
$PEXTMAX
 10
-1.0000000000E+20
 20
-1.0000000000E+20
 30
-1.0000000000E+20
  9
$PLIMMIN
 10
0.0
 20
0.0
  9
$PLIMMAX
 10
420.0
 20
297.0
  9
$UNITMODE
 70
     0
  9
$VISRETAIN
 70
     1
  9
$PLINEGEN
 70
     0
  9
$PSLTSCALE
 70
     1
  9
$TREEDEPTH
 70
  3020
  9
$CMLSTYLE
  2
Standard
  9
$CMLJUST
 70
     0
  9
$CMLSCALE
 40
20.0
  9
$PROXYGRAPHICS
 70
     1
  9
$MEASUREMENT
 70
     1
  9
$CELWEIGHT
370
    -1
  9
$ENDCAPS
280
     0
  9
$JOINSTYLE
280
     0
  9
$LWDISPLAY
290
     1
  9
$INSUNITS
 70
     4
  9
$HYPERLINKBASE
  1

  9
$STYLESHEET
  1

  9
$XEDIT
290
     1
  9
$CEPSNTYPE
380
     0
  9
$PSTYLEMODE
290
     1
  9
$FINGERPRINTGUID
  2
{103B2231-42FE-48E1-8192-0B202576137B}
  9
$VERSIONGUID
  2
{FAEB1C32-E019-11D5-929B-00C0DF256EC4}
  9
$EXTNAMES
290
     1
  9
$PSVPSCALE
 40
0.0
  9
$OLESTARTUP
290
     0
  0
ENDSEC
  0
SECTION
  2
CLASSES
  0
CLASS
  1
ACDBDICTIONARYWDFLT
  2
AcDbDictionaryWithDefault
  3
ObjectDBX Classes
 90
        0
280
     0
281
     0
  0
CLASS
  1
VISUALSTYLE
  2
AcDbVisualStyle
  3
ObjectDBX Classes
 90
     4095
280
     0
281
     0
  0
CLASS
  1
MATERIAL
  2
AcDbMaterial
  3
ObjectDBX Classes
 90
     1153
280
     0
281
     0
  0
CLASS
  1
SCALE
  2
AcDbScale
  3
ObjectDBX Classes
 90
     1153
280
     0
281
     0
  0
CLASS
  1
TABLESTYLE
  2
AcDbTableStyle
  3
ObjectDBX Classes
 90
     4095
280
     0
281
     0
  0
CLASS
  1
MLEADERSTYLE
  2
AcDbMLeaderStyle
  3
ACDB_MLEADERSTYLE_CLASS
 90
     4095
280
     0
281
     0
  0
CLASS
  1
SUN
  2
AcDbSun
  3
SCENEOE
 90
     1153
280
     0
281
     0
  0
CLASS
  1
ACDBPLACEHOLDER
  2
AcDbPlaceHolder
  3
ObjectDBX Classes
 90
        0
280
     0
281
     0
  0
CLASS
  1
LAYOUT
  2
AcDbLayout
  3
ObjectDBX Classes
 90
        0
280
     0
281
     0
  0
ENDSEC
  0
SECTION
  2
TABLES
  0
TABLE
  2
VPORT
  5
8
330
0
100
AcDbSymbolTable
 70
     1
  0
VPORT
  5
29
330
8
100
AcDbSymbolTableRecord
100
AcDbViewportTableRecord
  2
*Active
 70
     0
 10
0.0
 20
0.0
 11
1.0
 21
1.0
 12
148.5
 22
105.0
 13
0.0
 23
0.0
 14
10.0
 24
10.0
 15
10.0
 25
10.0
 16
0.0
 26
0.0
 36
1.0
 17
0.0
 27
0.0
 37
0.0
 40
210.0
 41
1.4142857143
 42
50.0
 43
0.0
 44
0.0
 50
0.0
 51
0.0
 71
     0
 72
  2000
 73
     1
 74
     3
 75
     0
 76
     0
 77
     0
 78
     0
281
     0
 65
     1
110
0.0
120
0.0
130
0.0
111
1.0
121
0.0
131
0.0
112
0.0
122
1.0
132
0.0
 79
     0
146
0.0
  0
ENDTAB
  0
TABLE
  2
LTYPE
  5
5
330
0
100
AcDbSymbolTable
 70
     6
  0
LTYPE
  5
14
330
5
100
AcDbSymbolTableRecord
100
AcDbLinetypeTableRecord
  2
ByBlock
 70
     0
  3

 72
    65
 73
     0
 40
0.0
  0
LTYPE
  5
15
330
5
100
AcDbSymbolTableRecord
100
AcDbLinetypeTableRecord
  2
ByLayer
 70
     0
  3

 72
    65
 73
     0
 40
0.0
  0
LTYPE
  5
16
330
5
100
AcDbSymbolTableRecord
100
AcDbLinetypeTableRecord
  2
Continuous
 70
     0
  3
Solid line
 72
    65
 73
     0
 40
0.0
  0
LTYPE
  5
6E
330
5
100
AcDbSymbolTableRecord
100
AcDbLinetypeTableRecord
  2
HIDDEN
 70
     0
  3
Hidden __ __ __ __ __ __ __ __ __ __ __ __ __ __
 72
    65
 73
     2
 40
1.905
 49
1.27
 74
     0
 49
-0.635
 74
     0
  0
LTYPE
  5
6F
330
5
100
AcDbSymbolTableRecord
100
AcDbLinetypeTableRecord
  2
PHANTOM
 70
     0
  3
Phantom ______  __  __  ______  __  __  ______
 72
    65
 73
     6
 40
12.7
 49
6.35
 74
     0
 49
-1.27
 74
     0
 49
1.27
 74
     0
 49
-1.27
 74
     0
 49
1.27
 74
     0
 49
-1.27
 74
     0
  0
LTYPE
  5
70
330
5
100
AcDbSymbolTableRecord
100
AcDbLinetypeTableRecord
  2
CENTER
 70
     0
  3
Center ____ _ ____ _ ____ _ ____ _ ____ _ ____
 72
    65
 73
     4
 40
10.16
 49
6.35
 74
     0
 49
-1.27
 74
     0
 49
1.27
 74
     0
 49
-1.27
 74
     0
  0
LTYPE
  5
71
330
5
100
AcDbSymbolTableRecord
100
AcDbLinetypeTableRecord
  2
CENTERX2
 70
     0
  3
Center (2x) ________  __  ________  __  _____
 72
    65
 73
     4
 40
20.32
 49
12.7
 74
     0
 49
-2.54
 74
     0
 49
2.54
 74
     0
 49
-2.54
 74
     0
  0
LTYPE
  5
72
330
5
100
AcDbSymbolTableRecord
100
AcDbLinetypeTableRecord
  2
DOT2
 70
     0
  3
Dot (.5x) ........................................
 72
    65
 73
     2
 40
0.635
 49
0.0
 74
     0
 49
-0.635
 74
     0
  0
ENDTAB
  0
TABLE
  2
LAYER
  5
2
330
0
100
AcDbSymbolTable
 70
     5
  0
LAYER
  5
10
330
2
100
AcDbSymbolTableRecord
100
AcDbLayerTableRecord
  2
0
 70
     0
 62
     7
  6
Continuous
370
    -3
390
F
  0
LAYER
  5
73
330
2
100
AcDbSymbolTableRecord
100
AcDbLayerTableRecord
  2
FORMAT
 70
     0
 62
     7
  6
Continuous
370
    -3
390
F
  0
LAYER
  5
74
330
2
100
AcDbSymbolTableRecord
100
AcDbLayerTableRecord
  2
VERMASSUNG
 70
     0
 62
     7
  6
Continuous
370
    -3
390
F
  0
LAYER
  5
75
330
2
100
AcDbSymbolTableRecord
100
AcDbLayerTableRecord
  2
KOPF_DÜNN
 70
     0
 62
     7
  6
Continuous
370
    -3
390
F
  0
LAYER
  5
76
330
2
100
AcDbSymbolTableRecord
100
AcDbLayerTableRecord
  2
KOPF_DICK
 70
     0
 62
     7
  6
Continuous
370
    25
390
F
  0
ENDTAB
  0
TABLE
  2
STYLE
  5
3
330
0
100
AcDbSymbolTable
 70
     2
  0
STYLE
  5
11
330
3
100
AcDbSymbolTableRecord
100
AcDbTextStyleTableRecord
  2
Standard
 70
     0
 40
0.0
 41
1.0
 50
0.0
 71
     0
 42
2.0
  3
txt
  4

  0
STYLE
  5
77
330
3
100
AcDbSymbolTableRecord
100
AcDbTextStyleTableRecord
  2
SLDTEXTSTYLE0
 70
     0
 40
0.0
 41
0.7
 50
0.0
 71
     0
 42
2.0
  3
TXT
  4

  0
ENDTAB
  0
TABLE
  2
VIEW
  5
6
330
0
100
AcDbSymbolTable
 70
     0
  0
ENDTAB
  0
TABLE
  2
UCS
  5
7
330
0
100
AcDbSymbolTable
 70
     0
  0
ENDTAB
  0
TABLE
  2
APPID
  5
9
330
0
100
AcDbSymbolTable
 70
     1
  0
APPID
  5
12
330
9
100
AcDbSymbolTableRecord
100
AcDbRegAppTableRecord
  2
ACAD
 70
     0
  0
ENDTAB
  0
TABLE
  2
DIMSTYLE
  5
A
330
0
100
AcDbSymbolTable
 70
     3
100
AcDbDimStyleTable
  0
DIMSTYLE
105
27
330
A
100
AcDbSymbolTableRecord
100
AcDbDimStyleTableRecord
  2
ISO-25
 70
     0
 41
2.5
 42
0.625
 43
3.75
 44
1.25
 73
     0
 74
     0
 77
     1
 78
     8
140
2.5
141
2.5
143
0.0393700787
147
0.625
171
     3
172
     1
178
     0
271
     2
272
     2
274
     3
278
    44
283
     0
284
     8
340
11
  0
DIMSTYLE
105
199
102
{ACAD_REACTORS
330
198
330
1A5
330
1AF
330
1BA
330
1C5
330
1CF
330
1D9
102
}
330
A
100
AcDbSymbolTableRecord
100
AcDbDimStyleTableRecord
  2
SLDDIMSTYLE0
 70
     0
 41
3.0
 44
0.0
 45
0.000000001
 73
     0
 74
     0
 77
     1
 78
    12
 79
     3
140
2.0
147
0.5
173
     1
178
     0
271
     2
272
     3
276
     2
284
    12
340
77
  0
DIMSTYLE
105
1E6
102
{ACAD_REACTORS
330
1E5
102
}
330
A
100
AcDbSymbolTableRecord
100
AcDbDimStyleTableRecord
  2
SLDDIMSTYLE1
 70
     0
 41
3.0
 44
0.0
 45
0.000000001
 73
     0
 74
     0
 77
     1
 78
    12
 79
     3
140
2.0
141
0.0
147
0.5
173
     1
178
     0
271
     2
272
     3
276
     2
279
     1
284
    12
340
77
  0
ENDTAB
  0
TABLE
  2
BLOCK_RECORD
  5
1
330
0
100
AcDbSymbolTable
 70
    12
  0
BLOCK_RECORD
  5
1F
330
1
100
AcDbSymbolTableRecord
100
AcDbBlockTableRecord
  2
*Model_Space
340
22
  0
BLOCK_RECORD
  5
1B
330
1
100
AcDbSymbolTableRecord
100
AcDbBlockTableRecord
  2
*Paper_Space
340
1E
  0
BLOCK_RECORD
  5
23
330
1
100
AcDbSymbolTableRecord
100
AcDbBlockTableRecord
  2
*Paper_Space0
340
26
  0
BLOCK_RECORD
  5
19A
330
1
100
AcDbSymbolTableRecord
100
AcDbBlockTableRecord
  2
_D
340
0
  0
BLOCK_RECORD
  5
1A6
330
1
100
AcDbSymbolTableRecord
100
AcDbBlockTableRecord
  2
_D_1
340
0
  0
BLOCK_RECORD
  5
1B0
330
1
100
AcDbSymbolTableRecord
100
AcDbBlockTableRecord
  2
_D_2
340
0
  0
BLOCK_RECORD
  5
1BB
330
1
100
AcDbSymbolTableRecord
100
AcDbBlockTableRecord
  2
_D_3
340
0
  0
BLOCK_RECORD
  5
1C6
330
1
100
AcDbSymbolTableRecord
100
AcDbBlockTableRecord
  2
_D_4
340
0
  0
BLOCK_RECORD
  5
1D0
330
1
100
AcDbSymbolTableRecord
100
AcDbBlockTableRecord
  2
_D_5
340
0
  0
BLOCK_RECORD
  5
1DA
330
1
100
AcDbSymbolTableRecord
100
AcDbBlockTableRecord
  2
_D_6
340
0
  0
BLOCK_RECORD
  5
1E7
330
1
100
AcDbSymbolTableRecord
100
AcDbBlockTableRecord
  2
_D_7
340
0
  0
BLOCK_RECORD
  5
1ED
330
1
100
AcDbSymbolTableRecord
100
AcDbBlockTableRecord
  2
SW_CENTERMARKSYMBOL_0
340
0
102
{BLKREFS
331
1F8
102
}
  0
BLOCK_RECORD
  5
1F9
330
1
100
AcDbSymbolTableRecord
100
AcDbBlockTableRecord
  2
SW_CENTERMARKSYMBOL_1
340
0
102
{BLKREFS
331
204
102
}
  0
BLOCK_RECORD
  5
223
330
1
100
AcDbSymbolTableRecord
100
AcDbBlockTableRecord
  2
SW_CENTERMARKSYMBOL_2
340
0
102
{BLKREFS
331
22E
102
}
  0
ENDTAB
  0
ENDSEC
  0
SECTION
  2
BLOCKS
  0
BLOCK
  5
20
330
1F
100
AcDbEntity
  8
0
100
AcDbBlockBegin
  2
*Model_Space
 70
     0
 10
0.0
 20
0.0
 30
0.0
  3
*Model_Space
  1

  0
ENDBLK
  5
21
330
1F
100
AcDbEntity
  8
0
100
AcDbBlockEnd
  0
BLOCK
  5
1C
330
1B
100
AcDbEntity
 67
     1
  8
0
100
AcDbBlockBegin
  2
*Paper_Space
 70
     0
 10
0.0
 20
0.0
 30
0.0
  3
*Paper_Space
  1

  0
ENDBLK
  5
1D
330
1B
100
AcDbEntity
 67
     1
  8
0
100
AcDbBlockEnd
  0
BLOCK
  5
24
330
23
100
AcDbEntity
  8
0
100
AcDbBlockBegin
  2
*Paper_Space0
 70
     0
 10
0.0
 20
0.0
 30
0.0
  3
*Paper_Space0
  1

  0
ENDBLK
  5
25
330
23
100
AcDbEntity
  8
0
100
AcDbBlockEnd
  0
BLOCK
  5
19B
330
19A
100
AcDbEntity
  8
0
100
AcDbBlockBegin
  2
_D
 70
     0
 10
0.0
 20
0.0
 30
0.0
  3
_D
  1

  0
SOLID
  5
19D
330
19A
100
AcDbEntity
  8
VERMASSUNG
100
AcDbTrace
 10
130.4232709915
 20
158.7976420279
 30
0.0
 11
129.9732709915
 21
155.7976420279
 31
0.0
 12
130.8732709915
 22
155.7976420279
 32
0.0
 13
130.8732709915
 23
155.7976420279
 33
0.0
  0
SOLID
  5
19E
330
19A
100
AcDbEntity
  8
VERMASSUNG
100
AcDbTrace
 10
130.4232709915
 20
95.7976420279
 30
0.0
 11
130.8732709915
 21
98.7976420279
 31
0.0
 12
129.9732709915
 22
98.7976420279
 32
0.0
 13
129.9732709915
 23
98.7976420279
 33
0.0
  0
LINE
  5
19F
330
19A
100
AcDbEntity
  8
VERMASSUNG
100
AcDbLine
 10
178.9232709915
 20
158.7976420279
 30
0.0
 11
129.4232709915
 21
158.7976420279
 31
0.0
  0
LINE
  5
1A0
330
19A
100
AcDbEntity
  8
VERMASSUNG
100
AcDbLine
 10
178.9232709915
 20
95.7976420279
 30
0.0
 11
129.4232709915
 21
95.7976420279
 31
0.0
  0
LINE
  5
1A1
330
19A
100
AcDbEntity
  8
VERMASSUNG
100
AcDbLine
 10
130.4232709915
 20
158.7976420279
 30
0.0
 11
130.4232709915
 21
95.7976420279
 31
0.0
  0
MTEXT
  5
1A2
330
19A
100
AcDbEntity
  8
VERMASSUNG
100
AcDbMText
 10
127.6451357353
 20
121.1948502684
 30
0.0
 40
2.0
 41
0.0
 71
     1
 72
     1
  1
PSC
  7
SLDTEXTSTYLE0
 11
-7.044195017643634E-15
 21
1.0
 31
0.0
 73
     1
 44
1.0
  0
MTEXT
  5
1A3
330
19A
100
AcDbEntity
  8
VERMASSUNG
100
AcDbMText
 10
127.8451356865
 20
126.9948501947
 30
0.0
 40
2.0
 41
0.0
 71
     1
 72
     1
  1
%%c
  7
SLDTEXTSTYLE0
 11
-7.044195017643634E-15
 21
1.0
 31
0.0
 73
     1
 44
1.0
  0
MTEXT
  5
1A4
330
19A
100
AcDbEntity
  8
VERMASSUNG
100
AcDbMText
 10
127.8451353955
 20
130.6024761036
 30
0.0
 40
2.0
 41
0.0
 71
     1
 72
     1
  1
63
  7
SLDTEXTSTYLE0
 11
-7.044195017643634E-15
 21
1.0
 31
0.0
 73
     1
 44
1.0
  0
ENDBLK
  5
19C
330
19A
100
AcDbEntity
  8
0
100
AcDbBlockEnd
  0
BLOCK
  5
1A7
330
1A6
100
AcDbEntity
  8
0
100
AcDbBlockBegin
  2
_D_1
 70
     0
 10
0.0
 20
0.0
 30
0.0
  3
_D_1
  1

  0
SOLID
  5
1A9
330
1A6
100
AcDbEntity
  8
VERMASSUNG
100
AcDbTrace
 10
200.4232709915
 20
168.7976420279
 30
0.0
 11
203.4232709915
 21
168.3476420279
 31
0.0
 12
203.4232709915
 22
169.2476420279
 32
0.0
 13
203.4232709915
 23
169.2476420279
 33
0.0
  0
SOLID
  5
1AA
330
1A6
100
AcDbEntity
  8
VERMASSUNG
100
AcDbTrace
 10
250.4232709915
 20
168.7976420279
 30
0.0
 11
247.4232709915
 21
169.2476420279
 31
0.0
 12
247.4232709915
 22
168.3476420279
 32
0.0
 13
247.4232709915
 23
168.3476420279
 33
0.0
  0
LINE
  5
1AB
330
1A6
100
AcDbEntity
  8
VERMASSUNG
100
AcDbLine
 10
200.4232709915
 20
157.7976420279
 30
0.0
 11
200.4232709915
 21
169.7976420279
 31
0.0
  0
LINE
  5
1AC
330
1A6
100
AcDbEntity
  8
VERMASSUNG
100
AcDbLine
 10
250.4232709915
 20
148.2976420279
 30
0.0
 11
250.4232709915
 21
169.7976420279
 31
0.0
  0
LINE
  5
1AD
330
1A6
100
AcDbEntity
  8
VERMASSUNG
100
AcDbLine
 10
200.4232709915
 20
168.7976420279
 30
0.0
 11
250.4232709915
 21
168.7976420279
 31
0.0
  0
MTEXT
  5
1AE
330
1A6
100
AcDbEntity
  8
VERMASSUNG
100
AcDbMText
 10
224.0232710414
 20
171.3757776239
 30
0.0
 40
2.0
 41
0.0
 71
     1
 72
     1
  1
50
  7
SLDTEXTSTYLE0
 73
     1
 44
1.0
  0
ENDBLK
  5
1A8
330
1A6
100
AcDbEntity
  8
0
100
AcDbBlockEnd
  0
BLOCK
  5
1B1
330
1B0
100
AcDbEntity
  8
0
100
AcDbBlockBegin
  2
_D_2
 70
     0
 10
0.0
 20
0.0
 30
0.0
  3
_D_2
  1

  0
SOLID
  5
1B3
330
1B0
100
AcDbEntity
  8
VERMASSUNG
100
AcDbTrace
 10
261.6978157402
 20
139.7976420279
 30
0.0
 11
261.2478157402
 21
136.7976420279
 31
0.0
 12
262.1478157402
 22
136.7976420279
 32
0.0
 13
262.1478157402
 23
136.7976420279
 33
0.0
  0
SOLID
  5
1B4
330
1B0
100
AcDbEntity
  8
VERMASSUNG
100
AcDbTrace
 10
261.6978157402
 20
114.7976420279
 30
0.0
 11
262.1478157402
 21
117.7976420279
 31
0.0
 12
261.2478157402
 22
117.7976420279
 32
0.0
 13
261.2478157402
 23
117.7976420279
 33
0.0
  0
LINE
  5
1B5
330
1B0
100
AcDbEntity
  8
VERMASSUNG
100
AcDbLine
 10
249.2232709915
 20
139.7976420279
 30
0.0
 11
262.6978157402
 21
139.7976420279
 31
0.0
  0
LINE
  5
1B6
330
1B0
100
AcDbEntity
  8
VERMASSUNG
100
AcDbLine
 10
249.2232709915
 20
114.7976420279
 30
0.0
 11
262.6978157402
 21
114.7976420279
 31
0.0
  0
LINE
  5
1B7
330
1B0
100
AcDbEntity
  8
VERMASSUNG
100
AcDbLine
 10
261.6978157402
 20
139.7976420279
 30
0.0
 11
261.6978157402
 21
114.7976420279
 31
0.0
  0
MTEXT
  5
1B8
330
1B0
100
AcDbEntity
  8
VERMASSUNG
100
AcDbMText
 10
259.1196804352
 20
124.0926420707
 30
0.0
 40
2.0
 41
0.0
 71
     1
 72
     1
  1
%%c
  7
SLDTEXTSTYLE0
 11
-7.044195017643634E-15
 21
1.0
 31
0.0
 73
     1
 44
1.0
  0
MTEXT
  5
1B9
330
1B0
100
AcDbEntity
  8
VERMASSUNG
100
AcDbMText
 10
258.919680484
 20
127.702642085
 30
0.0
 40
2.0
 41
0.0
 71
     1
 72
     1
  1
25
  7
SLDTEXTSTYLE0
 11
-7.044195017643634E-15
 21
1.0
 31
0.0
 73
     1
 44
1.0
  0
ENDBLK
  5
1B2
330
1B0
100
AcDbEntity
  8
0
100
AcDbBlockEnd
  0
BLOCK
  5
1BC
330
1BB
100
AcDbEntity
  8
0
100
AcDbBlockBegin
  2
_D_3
 70
     0
 10
0.0
 20
0.0
 30
0.0
  3
_D_3
  1

  0
SOLID
  5
1BE
330
1BB
100
AcDbEntity
  8
VERMASSUNG
100
AcDbTrace
 10
272.4232709915
 20
104.7976420279
 30
0.0
 11
272.8732709915
 21
107.7976420279
 31
0.0
 12
271.9732709915
 22
107.7976420279
 32
0.0
 13
271.9732709915
 23
107.7976420279
 33
0.0
  0
SOLID
  5
1BF
330
1BB
100
AcDbEntity
  8
VERMASSUNG
100
AcDbTrace
 10
272.4232709915
 20
149.7976420279
 30
0.0
 11
271.9732709915
 21
146.7976420279
 31
0.0
 12
272.8732709915
 22
146.7976420279
 32
0.0
 13
272.8732709915
 23
146.7976420279
 33
0.0
  0
LINE
  5
1C0
330
1BB
100
AcDbEntity
  8
VERMASSUNG
100
AcDbLine
 10
248.9232709915
 20
104.7976420279
 30
0.0
 11
273.4232709915
 21
104.7976420279
 31
0.0
  0
LINE
  5
1C1
330
1BB
100
AcDbEntity
  8
VERMASSUNG
100
AcDbLine
 10
248.9232709915
 20
149.7976420279
 30
0.0
 11
273.4232709915
 21
149.7976420279
 31
0.0
  0
LINE
  5
1C2
330
1BB
100
AcDbEntity
  8
VERMASSUNG
100
AcDbLine
 10
272.4232709915
 20
104.7976420279
 30
0.0
 11
272.4232709915
 21
149.7976420279
 31
0.0
  0
MTEXT
  5
1C3
330
1BB
100
AcDbEntity
  8
VERMASSUNG
100
AcDbMText
 10
269.8451356865
 20
123.9926420077
 30
0.0
 40
2.0
 41
0.0
 71
     1
 72
     1
  1
%%c
  7
SLDTEXTSTYLE0
 11
6.123233995736766E-17
 21
1.0
 31
0.0
 73
     1
 44
1.0
  0
MTEXT
  5
1C4
330
1BB
100
AcDbEntity
  8
VERMASSUNG
100
AcDbMText
 10
269.6451357353
 20
127.602642022
 30
0.0
 40
2.0
 41
0.0
 71
     1
 72
     1
  1
45
  7
SLDTEXTSTYLE0
 11
6.123233995736766E-17
 21
1.0
 31
0.0
 73
     1
 44
1.0
  0
ENDBLK
  5
1BD
330
1BB
100
AcDbEntity
  8
0
100
AcDbBlockEnd
  0
BLOCK
  5
1C7
330
1C6
100
AcDbEntity
  8
0
100
AcDbBlockBegin
  2
_D_4
 70
     0
 10
0.0
 20
0.0
 30
0.0
  3
_D_4
  1

  0
SOLID
  5
1C9
330
1C6
100
AcDbEntity
  8
VERMASSUNG
100
AcDbTrace
 10
250.4232709915
 20
85.7976420279
 30
0.0
 11
247.4232709915
 21
86.2476420279
 31
0.0
 12
247.4232709915
 22
85.3476420279
 32
0.0
 13
247.4232709915
 23
85.3476420279
 33
0.0
  0
SOLID
  5
1CA
330
1C6
100
AcDbEntity
  8
VERMASSUNG
100
AcDbTrace
 10
191.4232709915
 20
85.7976420279
 30
0.0
 11
194.4232709915
 21
85.3476420279
 31
0.0
 12
194.4232709915
 22
86.2476420279
 32
0.0
 13
194.4232709915
 23
86.2476420279
 33
0.0
  0
LINE
  5
1CB
330
1C6
100
AcDbEntity
  8
VERMASSUNG
100
AcDbLine
 10
250.4232709915
 20
106.2976420279
 30
0.0
 11
250.4232709915
 21
84.7976420279
 31
0.0
  0
LINE
  5
1CC
330
1C6
100
AcDbEntity
  8
VERMASSUNG
100
AcDbLine
 10
191.4232709915
 20
114.8976420279
 30
0.0
 11
191.4232709915
 21
84.7976420279
 31
0.0
  0
LINE
  5
1CD
330
1C6
100
AcDbEntity
  8
VERMASSUNG
100
AcDbLine
 10
250.4232709915
 20
85.7976420279
 30
0.0
 11
191.4232709915
 21
85.7976420279
 31
0.0
  0
MTEXT
  5
1CE
330
1C6
100
AcDbEntity
  8
VERMASSUNG
100
AcDbMText
 10
219.5232710414
 20
88.3757776239
 30
0.0
 40
2.0
 41
0.0
 71
     1
 72
     1
  1
59
  7
SLDTEXTSTYLE0
 73
     1
 44
1.0
  0
ENDBLK
  5
1C8
330
1C6
100
AcDbEntity
  8
0
100
AcDbBlockEnd
  0
BLOCK
  5
1D1
330
1D0
100
AcDbEntity
  8
0
100
AcDbBlockBegin
  2
_D_5
 70
     0
 10
0.0
 20
0.0
 30
0.0
  3
_D_5
  1

  0
SOLID
  5
1D3
330
1D0
100
AcDbEntity
  8
VERMASSUNG
100
AcDbTrace
 10
178.4232709915
 20
178.2287305122
 30
0.0
 11
181.4232709915
 21
177.7787305122
 31
0.0
 12
181.4232709915
 22
178.6787305122
 32
0.0
 13
181.4232709915
 23
178.6787305122
 33
0.0
  0
SOLID
  5
1D4
330
1D0
100
AcDbEntity
  8
VERMASSUNG
100
AcDbTrace
 10
250.4232709915
 20
178.2287305122
 30
0.0
 11
247.4232709915
 21
178.6787305122
 31
0.0
 12
247.4232709915
 22
177.7787305122
 32
0.0
 13
247.4232709915
 23
177.7787305122
 33
0.0
  0
LINE
  5
1D5
330
1D0
100
AcDbEntity
  8
VERMASSUNG
100
AcDbLine
 10
178.4232709915
 20
158.2976420279
 30
0.0
 11
178.4232709915
 21
179.2287305122
 31
0.0
  0
LINE
  5
1D6
330
1D0
100
AcDbEntity
  8
VERMASSUNG
100
AcDbLine
 10
250.4232709915
 20
148.2976420279
 30
0.0
 11
250.4232709915
 21
179.2287305122
 31
0.0
  0
LINE
  5
1D7
330
1D0
100
AcDbEntity
  8
VERMASSUNG
100
AcDbLine
 10
178.4232709915
 20
178.2287305122
 30
0.0
 11
250.4232709915
 21
178.2287305122
 31
0.0
  0
MTEXT
  5
1D8
330
1D0
100
AcDbEntity
  8
VERMASSUNG
100
AcDbMText
 10
213.0232710414
 20
180.8068661082
 30
0.0
 40
2.0
 41
0.0
 71
     1
 72
     1
  1
72
  7
SLDTEXTSTYLE0
 73
     1
 44
1.0
  0
ENDBLK
  5
1D2
330
1D0
100
AcDbEntity
  8
0
100
AcDbBlockEnd
  0
BLOCK
  5
1DB
330
1DA
100
AcDbEntity
  8
0
100
AcDbBlockBegin
  2
_D_6
 70
     0
 10
0.0
 20
0.0
 30
0.0
  3
_D_6
  1

  0
ARC
  5
1DD
330
1DA
100
AcDbEntity
  8
VERMASSUNG
100
AcDbCircle
 10
197.5232709457
 20
188.6976422928
 30
0.0
 40
4.24852922888762
100
AcDbArc
 50
153.4349488229
 51
206.5650511771
  0
ARC
  5
1DE
330
1DA
100
AcDbEntity
  8
VERMASSUNG
100
AcDbCircle
 10
193.3232708626
 20
188.6976422928
 30
0.0
 40
4.24852922888762
100
AcDbArc
 50
333.4349488229
 51
26.5650511771
  0
SOLID
  5
1DF
330
1DA
100
AcDbEntity
  8
VERMASSUNG
100
AcDbTrace
 10
140.4232709915
 20
186.7976420279
 30
0.0
 11
143.4232709915
 21
186.3476420279
 31
0.0
 12
143.4232709915
 22
187.2476420279
 32
0.0
 13
143.4232709915
 23
187.2476420279
 33
0.0
  0
SOLID
  5
1E0
330
1DA
100
AcDbEntity
  8
VERMASSUNG
100
AcDbTrace
 10
250.4232709915
 20
186.7976420279
 30
0.0
 11
247.4232709915
 21
187.2476420279
 31
0.0
 12
247.4232709915
 22
186.3476420279
 32
0.0
 13
247.4232709915
 23
186.3476420279
 33
0.0
  0
LINE
  5
1E1
330
1DA
100
AcDbEntity
  8
VERMASSUNG
100
AcDbLine
 10
140.4232709915
 20
147.5899800204
 30
0.0
 11
140.4232709915
 21
187.7976420279
 31
0.0
  0
LINE
  5
1E2
330
1DA
100
AcDbEntity
  8
VERMASSUNG
100
AcDbLine
 10
250.4232709915
 20
148.2976420279
 30
0.0
 11
250.4232709915
 21
187.7976420279
 31
0.0
  0
LINE
  5
1E3
330
1DA
100
AcDbEntity
  8
VERMASSUNG
100
AcDbLine
 10
140.4232709915
 20
186.7976420279
 30
0.0
 11
250.4232709915
 21
186.7976420279
 31
0.0
  0
MTEXT
  5
1E4
330
1DA
100
AcDbEntity
  8
VERMASSUNG
100
AcDbMText
 10
193.7232708816
 20
189.3757778567
 30
0.0
 40
2.0
 41
0.0
 71
     1
 72
     1
  1
110
  7
SLDTEXTSTYLE0
 73
     1
 44
1.0
  0
ENDBLK
  5
1DC
330
1DA
100
AcDbEntity
  8
0
100
AcDbBlockEnd
  0
BLOCK
  5
1E8
330
1E7
100
AcDbEntity
  8
0
100
AcDbBlockBegin
  2
_D_7
 70
     0
 10
0.0
 20
0.0
 30
0.0
  3
_D_7
  1

  0
SOLID
  5
1EA
330
1E7
100
AcDbEntity
  8
VERMASSUNG
100
AcDbTrace
 10
201.3019506479
 20
150.6763216843
 30
0.0
 11
203.7875055196
 21
152.4154355333
 31
0.0
 12
203.1678633447
 22
153.0681556685
 32
0.0
 13
203.1678633447
 23
153.0681556685
 33
0.0
  0
LINE
  5
1EB
330
1E7
100
AcDbEntity
  8
VERMASSUNG
100
AcDbLine
 10
201.3019506479
 20
150.6763216843
 30
0.0
 11
207.0011789274
 21
156.0867296309
 31
0.0
  0
MTEXT
  5
1EC
330
1E7
100
AcDbEntity
  8
VERMASSUNG
100
AcDbMText
 10
203.0568414027
 20
155.7884264316
 30
0.0
 40
2.0
 41
0.0
 71
     1
 72
     1
  1
R3
  7
SLDTEXTSTYLE0
 11
0.7071067811865517
 21
0.7071067811865435
 31
0.0
 73
     1
 44
1.0
  0
ENDBLK
  5
1E9
330
1E7
100
AcDbEntity
  8
0
100
AcDbBlockEnd
  0
BLOCK
  5
1EE
330
1ED
100
AcDbEntity
  8
0
100
AcDbBlockBegin
  2
SW_CENTERMARKSYMBOL_0
 70
     0
 10
0.0
 20
0.0
 30
0.0
  3
SW_CENTERMARKSYMBOL_0
  1

  0
LINE
  5
1F0
330
1ED
100
AcDbEntity
  8
VERMASSUNG
 62
     0
100
AcDbLine
 10
0.0
 20
0.0
 30
0.0
 11
0.0
 21
2.5
 31
0.0
  0
LINE
  5
1F1
330
1ED
100
AcDbEntity
  8
VERMASSUNG
 62
     0
100
AcDbLine
 10
0.0
 20
0.0
 30
0.0
 11
-2.5
 21
0.0
 31
0.0
  0
LINE
  5
1F2
330
1ED
100
AcDbEntity
  8
VERMASSUNG
 62
     0
100
AcDbLine
 10
0.0
 20
0.0
 30
0.0
 11
0.0
 21
-2.5
 31
0.0
  0
LINE
  5
1F3
330
1ED
100
AcDbEntity
  8
VERMASSUNG
 62
     0
100
AcDbLine
 10
0.0
 20
0.0
 30
0.0
 11
2.5
 21
0.0
 31
0.0
  0
LINE
  5
1F4
330
1ED
100
AcDbEntity
  8
VERMASSUNG
 62
     0
100
AcDbLine
 10
0.0
 20
5.0
 30
0.0
 11
0.0
 21
8.5
 31
0.0
  0
LINE
  5
1F5
330
1ED
100
AcDbEntity
  8
VERMASSUNG
 62
     0
100
AcDbLine
 10
-5.0
 20
0.0
 30
0.0
 11
-8.5
 21
0.0
 31
0.0
  0
LINE
  5
1F6
330
1ED
100
AcDbEntity
  8
VERMASSUNG
 62
     0
100
AcDbLine
 10
0.0
 20
-5.0
 30
0.0
 11
0.0
 21
-8.5
 31
0.0
  0
LINE
  5
1F7
330
1ED
100
AcDbEntity
  8
VERMASSUNG
 62
     0
100
AcDbLine
 10
5.0
 20
0.0
 30
0.0
 11
8.5
 21
0.0
 31
0.0
  0
ENDBLK
  5
1EF
330
1ED
100
AcDbEntity
  8
0
100
AcDbBlockEnd
  0
BLOCK
  5
1FA
330
1F9
100
AcDbEntity
  8
0
100
AcDbBlockBegin
  2
SW_CENTERMARKSYMBOL_1
 70
     0
 10
0.0
 20
0.0
 30
0.0
  3
SW_CENTERMARKSYMBOL_1
  1

  0
LINE
  5
1FC
330
1F9
100
AcDbEntity
  8
VERMASSUNG
 62
     0
100
AcDbLine
 10
0.0
 20
0.0
 30
0.0
 11
0.0
 21
2.5
 31
0.0
  0
LINE
  5
1FD
330
1F9
100
AcDbEntity
  8
VERMASSUNG
 62
     0
100
AcDbLine
 10
0.0
 20
0.0
 30
0.0
 11
-2.5
 21
0.0
 31
0.0
  0
LINE
  5
1FE
330
1F9
100
AcDbEntity
  8
VERMASSUNG
 62
     0
100
AcDbLine
 10
0.0
 20
0.0
 30
0.0
 11
0.0
 21
-2.5
 31
0.0
  0
LINE
  5
1FF
330
1F9
100
AcDbEntity
  8
VERMASSUNG
 62
     0
100
AcDbLine
 10
0.0
 20
0.0
 30
0.0
 11
2.5
 21
0.0
 31
0.0
  0
LINE
  5
200
330
1F9
100
AcDbEntity
  8
VERMASSUNG
 62
     0
100
AcDbLine
 10
0.0
 20
5.0
 30
0.0
 11
0.0
 21
8.5
 31
0.0
  0
LINE
  5
201
330
1F9
100
AcDbEntity
  8
VERMASSUNG
 62
     0
100
AcDbLine
 10
-5.0
 20
0.0
 30
0.0
 11
-8.5
 21
0.0
 31
0.0
  0
LINE
  5
202
330
1F9
100
AcDbEntity
  8
VERMASSUNG
 62
     0
100
AcDbLine
 10
0.0
 20
-5.0
 30
0.0
 11
0.0
 21
-8.5
 31
0.0
  0
LINE
  5
203
330
1F9
100
AcDbEntity
  8
VERMASSUNG
 62
     0
100
AcDbLine
 10
5.0
 20
0.0
 30
0.0
 11
8.5
 21
0.0
 31
0.0
  0
ENDBLK
  5
1FB
330
1F9
100
AcDbEntity
  8
0
100
AcDbBlockEnd
  0
BLOCK
  5
224
330
223
100
AcDbEntity
  8
0
100
AcDbBlockBegin
  2
SW_CENTERMARKSYMBOL_2
 70
     0
 10
0.0
 20
0.0
 30
0.0
  3
SW_CENTERMARKSYMBOL_2
  1

  0
LINE
  5
226
330
223
100
AcDbEntity
  8
VERMASSUNG
 62
     0
100
AcDbLine
 10
0.0
 20
0.0
 30
0.0
 11
0.0
 21
2.5
 31
0.0
  0
LINE
  5
227
330
223
100
AcDbEntity
  8
VERMASSUNG
 62
     0
100
AcDbLine
 10
0.0
 20
0.0
 30
0.0
 11
-2.5
 21
0.0
 31
0.0
  0
LINE
  5
228
330
223
100
AcDbEntity
  8
VERMASSUNG
 62
     0
100
AcDbLine
 10
0.0
 20
0.0
 30
0.0
 11
0.0
 21
-2.5
 31
0.0
  0
LINE
  5
229
330
223
100
AcDbEntity
  8
VERMASSUNG
 62
     0
100
AcDbLine
 10
0.0
 20
0.0
 30
0.0
 11
2.5
 21
0.0
 31
0.0
  0
LINE
  5
22A
330
223
100
AcDbEntity
  8
VERMASSUNG
 62
     0
100
AcDbLine
 10
0.0
 20
5.0
 30
0.0
 11
0.0
 21
34.0
 31
0.0
  0
LINE
  5
22B
330
223
100
AcDbEntity
  8
VERMASSUNG
 62
     0
100
AcDbLine
 10
-5.0
 20
0.0
 30
0.0
 11
-34.0
 21
0.0
 31
0.0
  0
LINE
  5
22C
330
223
100
AcDbEntity
  8
VERMASSUNG
 62
     0
100
AcDbLine
 10
0.0
 20
-5.0
 30
0.0
 11
0.0
 21
-34.0
 31
0.0
  0
LINE
  5
22D
330
223
100
AcDbEntity
  8
VERMASSUNG
 62
     0
100
AcDbLine
 10
5.0
 20
0.0
 30
0.0
 11
34.0
 21
0.0
 31
0.0
  0
ENDBLK
  5
225
330
223
100
AcDbEntity
  8
0
100
AcDbBlockEnd
  0
ENDSEC
  0
SECTION
  2
ENTITIES
  0
MTEXT
  5
78
330
1F
100
AcDbEntity
  8
KOPF_DÜNN
100
AcDbMText
 10
13.8892156294
 20
23.8442973028
 30
0.0
 40
3.0
 41
0.0
 71
     1
 72
     1
  1
PS6.K25.K01.072
  7
SLDTEXTSTYLE0
 73
     1
 44
1.0
  0
MTEXT
  5
79
330
1F
100
AcDbEntity
  8
VERMASSUNG
100
AcDbMText
 10
13.9329988022
 20
28.8834360957
 30
0.0
 40
3.0
 41
0.0
 71
     1
 72
     1
  1
Werkzeughalter / Toolholder
  7
SLDTEXTSTYLE0
 73
     1
 44
1.0
  0
MTEXT
  5
7A
330
1F
100
AcDbEntity
  8
VERMASSUNG
100
AcDbMText
 10
98.8601118557
 20
13.8365368761
 30
0.0
 40
2.0
 41
0.0
 71
     1
 72
     1
  1
Datum: 29.11.2017
  7
SLDTEXTSTYLE0
 73
     1
 44
1.0
  0
MTEXT
  5
7B
330
1F
100
AcDbEntity
  8
VERMASSUNG
100
AcDbMText
 10
13.933048693
 20
18.0482802738
 30
0.0
 40
2.0
 41
0.0
 71
     1
 72
     1
  1
für Wendeplattenbohrer Schaft-Ø25 / for indexable insert drills shaft-Ø25
  7
SLDTEXTSTYLE0
 73
     1
 44
1.0
  0
MTEXT
  5
7C
330
1F
100
AcDbEntity
  8
VERMASSUNG
100
AcDbMText
 10
13.9808475933
 20
13.9090974274
 30
0.0
 40
2.0
 41
0.0
 71
     1
 72
     1
  1
Gewicht: 1158g
  7
SLDTEXTSTYLE0
 73
     1
 44
1.0
  0
LINE
  5
7D
330
1F
100
AcDbEntity
  8
0
  6
Continuous
 62
     7
370
    25
100
AcDbLine
 10
178.9232709915
 20
95.7976420279
 30
0.0
 11
199.4232709915
 21
95.7976420279
 31
0.0
  0
LINE
  5
7E
330
1F
100
AcDbEntity
  8
0
  6
Continuous
 62
     7
370
    25
100
AcDbLine
 10
199.4232709915
 20
158.7976420279
 30
0.0
 11
178.9232709915
 21
158.7976420279
 31
0.0
  0
ARC
  5
7F
330
1F
100
AcDbEntity
  8
0
  6
Continuous
 62
     7
370
    25
100
AcDbCircle
 10
199.4232709915
 20
96.7976420279
 30
0.0
 40
1.0
100
AcDbArc
 50
270.0
 51
0.0
  0
ARC
  5
80
330
1F
100
AcDbEntity
  8
0
  6
Continuous
 62
     7
370
    25
100
AcDbCircle
 10
199.4232709915
 20
157.7976420279
 30
0.0
 40
1.0
100
AcDbArc
 50
0.0
 51
90.0
  0
ARC
  5
81
330
1F
100
AcDbEntity
  8
0
  6
Continuous
 62
     7
370
    25
100
AcDbCircle
 10
178.9232709915
 20
96.2976420279
 30
0.0
 40
0.5
100
AcDbArc
 50
180.0
 51
270.0
  0
ARC
  5
82
330
1F
100
AcDbEntity
  8
0
  6
Continuous
 62
     7
370
    25
100
AcDbCircle
 10
178.9232709915
 20
158.2976420279
 30
0.0
 40
0.5
100
AcDbArc
 50
90.0
 51
180.0
  0
ARC
  5
83
330
1F
100
AcDbEntity
  8
0
  6
Continuous
 62
     7
370
    25
100
AcDbCircle
 10
203.4232709915
 20
101.7976420279
 30
0.0
 40
3.0
100
AcDbArc
 50
90.0
 51
180.0
  0
ARC
  5
84
330
1F
100
AcDbEntity
  8
0
  6
Continuous
 62
     7
370
    25
100
AcDbCircle
 10
203.4232709915
 20
152.7976420279
 30
0.0
 40
3.0
100
AcDbArc
 50
180.0
 51
270.0
  0
LWPOLYLINE
  5
85
330
1F
100
AcDbEntity
  8
0
  6
Continuous
 62
     7
370
    25
100
AcDbPolyline
 90
        3
 70
   128
 43
0.0
 10
178.2232709915
 20
104.757821749
 10
178.348725935
 20
104.6895196341
 10
178.4232709915
 20
104.636781876
  0
LWPOLYLINE
  5
86
330
1F
100
AcDbEntity
  8
0
  6
Continuous
 62
     7
370
    25
100
AcDbPolyline
 90
        3
 70
   128
 43
0.0
 10
178.4232709915
 20
149.9585021798
 10
178.348725935
 20
149.9057644217
 10
178.2232709915
 20
149.8374623068
  0
LINE
  5
87
330
1F
100
AcDbEntity
  8
0
  6
Continuous
 62
     7
370
    25
100
AcDbLine
 10
248.9232709915
 20
104.7976420279
 30
0.0
 11
250.4232709915
 21
106.2976420279
 31
0.0
  0
LINE
  5
88
330
1F
100
AcDbEntity
  8
0
  6
Continuous
 62
     7
370
    25
100
AcDbLine
 10
250.4232709915
 20
148.2976420279
 30
0.0
 11
248.9232709915
 21
149.7976420279
 31
0.0
  0
LINE
  5
89
330
1F
100
AcDbEntity
  8
0
  6
Continuous
 62
     7
370
    25
100
AcDbLine
 10
203.4232709915
 20
104.7976420279
 30
0.0
 11
248.9232709915
 21
104.7976420279
 31
0.0
  0
LINE
  5
8A
330
1F
100
AcDbEntity
  8
0
  6
Continuous
 62
     7
370
    25
100
AcDbLine
 10
248.9232709915
 20
149.7976420279
 30
0.0
 11
203.4232709915
 21
149.7976420279
 31
0.0
  0
CIRCLE
  5
8B
330
1F
100
AcDbEntity
  8
0
  6
Continuous
 62
     7
370
    25
100
AcDbCircle
 10
233.4232709915
 20
127.2976420279
 30
0.0
 40
5.000000000000023
  0
CIRCLE
  5
8C
330
1F
100
AcDbEntity
  8
0
  6
Continuous
 62
     7
370
    25
100
AcDbCircle
 10
233.4232709915
 20
127.2976420279
 30
0.0
 40
5.999999999999987
  0
CIRCLE
  5
8D
330
1F
100
AcDbEntity
  8
0
  6
Continuous
 62
     7
370
    25
100
AcDbCircle
 10
233.4232709915
 20
127.2976420279
 30
0.0
 40
4.000000000000001
  0
SPLINE
  5
8E
330
1F
100
AcDbEntity
  8
0
  6
Continuous
 62
     7
370
    25
100
AcDbSpline
210
0.0
220
0.0
230
1.0
 70
    24
 71
     3
 72
    11
 73
     7
 74
     0
 42
0.000000001
 43
0.00000001
 40
0.0
 40
0.0
 40
0.0
 40
0.0
 40
0.2164553779443411
 40
0.4403112895790618
 40
0.7519005688038694
 40
1.0
 40
1.0
 40
1.0
 40
1.0
 10
235.2128013488323
 20
130.2637136892082
 30
0.0
 10
235.3274670544366
 20
130.0559629518861
 30
0.0
 10
235.560718846028
 20
129.6333585521711
 30
0.0
 10
235.9935718735332
 20
128.8491176569329
 30
0.0
 10
236.4578843902742
 20
128.0078786204444
 30
0.0
 10
236.7550165192175
 20
127.4695361531418
 30
0.0
 10
236.8867295782954
 20
127.2308991082279
 30
0.0
  0
SPLINE
  5
8F
330
1F
100
AcDbEntity
  8
0
  6
Continuous
 62
     7
370
    25
100
AcDbSpline
210
0.0
220
0.0
230
1.0
 70
    24
 71
     3
 72
    12
 73
     8
 74
     0
 42
0.000000001
 43
0.00000001
 40
0.0
 40
0.0
 40
0.0
 40
0.0
 40
0.1861377802533125
 40
0.5280437118986417
 40
0.7067704987460172
 40
0.8920530907708557
 40
1.0
 40
1.0
 40
1.0
 40
1.0
 10
231.749342762004
 20
130.3304566088713
 30
0.0
 10
231.9524665657923
 20
130.3265422916135
 30
0.0
 10
232.5286969644863
 20
130.3154379869876
 30
0.0
 10
233.3911649759503
 20
130.2988177122656
 30
0.0
 10
234.236494985205
 20
130.2825276971024
 30
0.0
 10
234.7772146683097
 20
130.2721077052172
 30
0.0
 10
235.0955954647496
 20
130.2659723167359
 30
0.0
 10
235.2128013488323
 20
130.2637136892082
 30
0.0
  0
SPLINE
  5
90
330
1F
100
AcDbEntity
  8
0
  6
Continuous
 62
     7
370
    25
100
AcDbSpline
210
0.0
220
0.0
230
1.0
 70
    24
 71
     3
 72
    11
 73
     7
 74
     0
 42
0.000000001
 43
0.00000001
 40
0.0
 40
0.0
 40
0.0
 40
0.0
 40
0.2164553779443412
 40
0.4403112895790396
 40
0.751900568803863
 40
1.0
 40
1.0
 40
1.0
 40
1.0
 10
229.9598124046388
 20
127.3643849475542
 30
0.0
 10
230.0823969680125
 20
127.5675637302114
 30
0.0
 10
230.3317572181211
 20
127.9808679070653
 30
0.0
 10
230.7945032423314
 20
128.7478500726089
 30
0.0
 10
231.290881360215
 20
129.570576025646
 30
0.0
 10
231.6085335483635
 20
130.0970712312427
 30
0.0
 10
231.749342762004
 20
130.3304566088713
 30
0.0
  0
SPLINE
  5
91
330
1F
100
AcDbEntity
  8
0
  6
Continuous
 62
     7
370
    25
100
AcDbSpline
210
0.0
220
0.0
230
1.0
 70
    24
 71
     3
 72
    11
 73
     7
 74
     0
 42
0.000000001
 43
0.00000001
 40
0.0
 40
0.0
 40
0.0
 40
0.0
 40
0.2164553779443388
 40
0.4403112895790624
 40
0.7519005688038779
 40
1.0
 40
1.0
 40
1.0
 40
1.0
 10
231.6337406341019
 20
124.3315703665739
 30
0.0
 10
231.5190749284976
 20
124.5393211038959
 30
0.0
 10
231.2858231369062
 20
124.961925503611
 30
0.0
 10
230.852970109401
 20
125.7461663988492
 30
0.0
 10
230.3886575926599
 20
126.5874054353376
 30
0.0
 10
230.0915254637167
 20
127.1257479026403
 30
0.0
 10
229.9598124046388
 20
127.3643849475542
 30
0.0
  0
SPLINE
  5
92
330
1F
100
AcDbEntity
  8
0
  6
Continuous
 62
     7
370
    25
100
AcDbSpline
210
0.0
220
0.0
230
1.0
 70
    24
 71
     3
 72
    12
 73
     8
 74
     0
 42
0.000000001
 43
0.00000001
 40
0.0
 40
0.0
 40
0.0
 40
0.0
 40
0.1079478804766334
 40
0.2872214144351727
 40
0.4719515370514533
 40
0.8138605449802273
 40
1.0
 40
1.0
 40
1.0
 40
1.0
 10
235.0971992209302
 20
124.2648274469108
 30
0.0
 10
234.9799901886169
 20
124.2670861351068
 30
0.0
 10
234.6681272423786
 20
124.2730959207141
 30
0.0
 10
234.1280936924218
 20
124.283502690403
 30
0.0
 10
233.2828469435568
 20
124.2997911010887
 30
0.0
 10
232.4131009502634
 20
124.316551626876
 30
0.0
 10
231.8368660313041
 20
124.3276560186101
 30
0.0
 10
231.6337406341019
 20
124.3315703665739
 30
0.0
  0
SPLINE
  5
93
330
1F
100
AcDbEntity
  8
0
  6
Continuous
 62
     7
370
    25
100
AcDbSpline
210
0.0
220
0.0
230
1.0
 70
    24
 71
     3
 72
    11
 73
     7
 74
     0
 42
0.000000001
 43
0.00000001
 40
0.0
 40
0.0
 40
0.0
 40
0.0
 40
0.2164553779443555
 40
0.4403112895790562
 40
0.7519005688038662
 40
1.0
 40
1.0
 40
1.0
 40
1.0
 10
236.8867295782954
 20
127.2308991082279
 30
0.0
 10
236.7641450149217
 20
127.0277203255707
 30
0.0
 10
236.514784764813
 20
126.6144161487168
 30
0.0
 10
236.0520387406027
 20
125.8474339831732
 30
0.0
 10
235.5556606227192
 20
125.024708030136
 30
0.0
 10
235.2380084345707
 20
124.4982128245393
 30
0.0
 10
235.0971992209302
 20
124.2648274469108
 30
0.0
  0
ARC
  5
94
330
1F
100
AcDbEntity
  8
0
  6
Continuous
 62
     7
370
    25
100
AcDbCircle
 10
233.4232709915
 20
127.2976420279
 30
0.0
 40
3.000000000000023
100
AcDbArc
 50
208.8960126842
 51
268.8960126842
  0
ARC
  5
95
330
1F
100
AcDbEntity
  8
0
  6
Continuous
 62
     7
370
    25
100
AcDbCircle
 10
233.4232709915
 20
127.2976420279
 30
0.0
 40
3.000000000000056
100
AcDbArc
 50
148.8960126842
 51
208.8960126842
  0
ARC
  5
96
330
1F
100
AcDbEntity
  8
0
  6
Continuous
 62
     7
370
    25
100
AcDbCircle
 10
233.4232709915
 20
127.2976420279
 30
0.0
 40
3.000000000000022
100
AcDbArc
 50
268.8960126842
 51
328.8960126842
  0
ARC
  5
97
330
1F
100
AcDbEntity
  8
0
  6
Continuous
 62
     7
370
    25
100
AcDbCircle
 10
233.4232709915
 20
127.2976420279
 30
0.0
 40
3.000000000000056
100
AcDbArc
 50
88.8960126842
 51
148.8960126842
  0
ARC
  5
98
330
1F
100
AcDbEntity
  8
0
  6
Continuous
 62
     7
370
    25
100
AcDbCircle
 10
233.4232709915
 20
127.2976420279
 30
0.0
 40
3.000000000000007
100
AcDbArc
 50
28.8960126842
 51
88.8960126842
  0
ARC
  5
99
330
1F
100
AcDbEntity
  8
0
  6
Continuous
 62
     7
370
    25
100
AcDbCircle
 10
233.4232709915
 20
127.2976420279
 30
0.0
 40
2.999999999999995
100
AcDbArc
 50
328.8960126842
 51
28.8960126842
  0
CIRCLE
  5
9A
330
1F
100
AcDbEntity
  8
0
  6
Continuous
 62
     7
370
    25
100
AcDbCircle
 10
210.4232709915
 20
127.2976420279
 30
0.0
 40
5.03599999999997
  0
CIRCLE
  5
9B
330
1F
100
AcDbEntity
  8
0
  6
Continuous
 62
     7
370
    25
100
AcDbCircle
 10
210.4232709915
 20
127.2976420279
 30
0.0
 40
5.99999999999999
  0
CIRCLE
  5
9C
330
1F
100
AcDbEntity
  8
0
  6
Continuous
 62
     7
370
    25
100
AcDbCircle
 10
210.4232709915
 20
127.2976420279
 30
0.0
 40
3.99999999999999
  0
SPLINE
  5
9D
330
1F
100
AcDbEntity
  8
0
  6
Continuous
 62
     7
370
    25
100
AcDbSpline
210
0.0
220
0.0
230
1.0
 70
    24
 71
     3
 72
    12
 73
     8
 74
     0
 42
0.000000001
 43
0.00000001
 40
0.0
 40
0.0
 40
0.0
 40
0.0
 40
0.186147900377728
 40
0.5280724211055566
 40
0.7098023923067966
 40
0.8920472218057051
 40
1.0
 40
1.0
 40
1.0
 40
1.0
 10
213.886745532821
 20
127.3635518252871
 30
0.0
 10
213.7818386503846
 20
127.5375251888849
 30
0.0
 10
213.4842342654499
 20
128.0310603570848
 30
0.0
 10
213.0368098529322
 20
128.7730510462915
 30
0.0
 10
212.6005089473698
 20
129.4965949579837
 30
0.0
 10
212.3211617543591
 20
129.9598531318139
 30
0.0
 10
212.1584551497976
 20
130.2296792349041
 30
0.0
 10
212.0979287032407
 20
130.3300538647622
 30
0.0
  0
SPLINE
  5
9E
330
1F
100
AcDbEntity
  8
0
  6
Continuous
 62
     7
370
    25
100
AcDbSpline
210
0.0
220
0.0
230
1.0
 70
    24
 71
     3
 72
    11
 73
     7
 74
     0
 42
0.000000001
 43
0.00000001
 40
0.0
 40
0.0
 40
0.0
 40
0.0
 40
0.2164553779443504
 40
0.4403112895790638
 40
0.7519005688038934
 40
1.0
 40
1.0
 40
1.0
 40
1.0
 10
212.0979287032407
 20
130.3300538647622
 30
0.0
 10
211.8606773413622
 20
130.3255389797799
 30
0.0
 10
211.3780630764954
 20
130.3163548474763
 30
0.0
 10
210.482459899176
 20
130.2993115508505
 30
0.0
 10
209.5217648391012
 20
130.2810295580098
 30
0.0
 10
208.9069776899871
 20
130.2693301804177
 30
0.0
 10
208.6344541618867
 20
130.2641440673661
 30
0.0
  0
SPLINE
  5
9F
330
1F
100
AcDbEntity
  8
0
  6
Continuous
 62
     7
370
    25
100
AcDbSpline
210
0.0
220
0.0
230
1.0
 70
    24
 71
     3
 72
    11
 73
     7
 74
     0
 42
0.000000001
 43
0.00000001
 40
0.0
 40
0.0
 40
0.0
 40
0.0
 40
0.216455377944345
 40
0.4403112895790624
 40
0.7519005688038897
 40
0.9999999999999999
 40
0.9999999999999999
 40
0.9999999999999999
 40
0.9999999999999999
 10
206.9597964501131
 20
127.2317322304948
 30
0.0
 10
207.0745121259625
 20
127.4394553794551
 30
0.0
 10
207.3078655665092
 20
127.8620036592103
 30
0.0
 10
207.7409072273267
 20
128.646140410792
 30
0.0
 10
208.2054220871322
 20
129.4872677345273
 30
0.0
 10
208.5026837034861
 20
130.0255387123764
 30
0.0
 10
208.6344541618867
 20
130.2641440673661
 30
0.0
  0
SPLINE
  5
A0
330
1F
100
AcDbEntity
  8
0
  6
Continuous
 62
     7
370
    25
100
AcDbSpline
210
0.0
220
0.0
230
1.0
 70
    24
 71
     3
 72
    12
 73
     8
 74
     0
 42
0.000000001
 43
0.00000001
 40
0.0
 40
0.0
 40
0.0
 40
0.0
 40
0.1861479003777088
 40
0.5280724211055676
 40
0.709802392306803
 40
0.8920472218057056
 40
1.0
 40
1.0
 40
1.0
 40
1.0
 10
208.7486132796934
 20
124.2652301910197
 30
0.0
 10
208.643706397257
 20
124.4392035546175
 30
0.0
 10
208.3461020123223
 20
124.9327387228174
 30
0.0
 10
207.8986775998046
 20
125.674729412024
 30
0.0
 10
207.4623766942422
 20
126.3982733237163
 30
0.0
 10
207.1830295012314
 20
126.8615314975465
 30
0.0
 10
207.0203228966699
 20
127.1313576006366
 30
0.0
 10
206.9597964501131
 20
127.2317322304948
 30
0.0
  0
SPLINE
  5
A1
330
1F
100
AcDbEntity
  8
0
  6
Continuous
 62
     7
370
    25
100
AcDbSpline
210
0.0
220
0.0
230
1.0
 70
    24
 71
     3
 72
    11
 73
     7
 74
     0
 42
0.000000001
 43
0.00000001
 40
0.0
 40
0.0
 40
0.0
 40
0.0
 40
0.2164553779443467
 40
0.4403112895790623
 40
0.7519005688038919
 40
1.0
 40
1.0
 40
1.0
 40
1.0
 10
208.7486132796934
 20
124.2652301910197
 30
0.0
 10
208.9858646415719
 20
124.269745076002
 30
0.0
 10
209.4684789064387
 20
124.2789292083055
 30
0.0
 10
210.3640820837581
 20
124.2959725049314
 30
0.0
 10
211.3247771438329
 20
124.3142544977721
 30
0.0
 10
211.939564292947
 20
124.3259538753642
 30
0.0
 10
212.2120878210474
 20
124.3311399884158
 30
0.0
  0
SPLINE
  5
A2
330
1F
100
AcDbEntity
  8
0
  6
Continuous
 62
     7
370
    25
100
AcDbSpline
210
0.0
220
0.0
230
1.0
 70
    24
 71
     3
 72
    11
 73
     7
 74
     0
 42
0.000000001
 43
0.00000001
 40
0.0
 40
0.0
 40
0.0
 40
0.0
 40
0.2164553779443473
 40
0.4403112895790653
 40
0.7519005688038897
 40
1.0
 40
1.0
 40
1.0
 40
1.0
 10
213.886745532821
 20
127.3635518252871
 30
0.0
 10
213.7720298569717
 20
127.1558286763268
 30
0.0
 10
213.5386764164249
 20
126.7332803965716
 30
0.0
 10
213.1056347556074
 20
125.9491436449899
 30
0.0
 10
212.6411198958018
 20
125.1080163212546
 30
0.0
 10
212.343858279448
 20
124.5697453434055
 30
0.0
 10
212.2120878210474
 20
124.3311399884158
 30
0.0
  0
ARC
  5
A3
330
1F
100
AcDbEntity
  8
0
  6
Continuous
 62
     7
370
    25
100
AcDbCircle
 10
210.4232709915
 20
127.2976420279
 30
0.0
 40
3.00000000000002
100
AcDbArc
 50
331.0902050579
 51
31.0902050579
  0
ARC
  5
A4
330
1F
100
AcDbEntity
  8
0
  6
Continuous
 62
     7
370
    25
100
AcDbCircle
 10
210.4232709915
 20
127.2976420279
 30
0.0
 40
3.00000000000001
100
AcDbArc
 50
91.0902050579
 51
151.0902050579
  0
ARC
  5
A5
330
1F
100
AcDbEntity
  8
0
  6
Continuous
 62
     7
370
    25
100
AcDbCircle
 10
210.4232709915
 20
127.2976420279
 30
0.0
 40
3.000000000000002
100
AcDbArc
 50
211.0902050579
 51
271.0902050579
  0
ARC
  5
A6
330
1F
100
AcDbEntity
  8
0
  6
Continuous
 62
     7
370
    25
100
AcDbCircle
 10
210.4232709915
 20
127.2976420279
 30
0.0
 40
3.000000000000002
100
AcDbArc
 50
271.0902050579
 51
331.0902050579
  0
ARC
  5
A7
330
1F
100
AcDbEntity
  8
0
  6
Continuous
 62
     7
370
    25
100
AcDbCircle
 10
210.4232709915
 20
127.2976420279
 30
0.0
 40
3.00000000000002
100
AcDbArc
 50
31.0902050579
 51
91.0902050579
  0
ARC
  5
A8
330
1F
100
AcDbEntity
  8
0
  6
Continuous
 62
     7
370
    25
100
AcDbCircle
 10
210.4232709915
 20
127.2976420279
 30
0.0
 40
3.00000000000001
100
AcDbArc
 50
151.0902050579
 51
211.0902050579
  0
SPLINE
  5
A9
330
1F
100
AcDbEntity
  8
0
  6
Continuous
 62
     7
370
    25
100
AcDbSpline
210
0.0
220
0.0
230
1.0
 70
     8
 71
     3
 72
    12
 73
     8
 74
     0
 42
0.000000001
 43
0.00000001
 40
0.0
 40
0.0
 40
0.0
 40
0.0
 40
0.2500000000000014
 40
0.2500000000000014
 40
0.5000000000000028
 40
0.5000000000000028
 40
1.0
 40
1.0
 40
1.0
 40
1.0
 10
188.9510278050335
 20
136.6857084592268
 30
0.0
 10
188.8879477665402
 20
136.6857084592268
 30
0.0
 10
188.8287991443588
 20
136.7110727784417
 30
0.0
 10
188.7303265942897
 20
136.7852376388146
 30
0.0
 10
188.6912899823049
 20
136.8317579793688
 30
0.0
 10
188.5913935155259
 20
136.981900322214
 30
0.0
 10
188.5489726344593
 20
137.0935935291862
 30
0.0
 10
188.5180151031413
 20
137.2070113485759
 30
0.0
  0
LINE
  5
AA
330
1F
100
AcDbEntity
  8
0
  6
Continuous
 62
     7
370
    25
100
AcDbLine
 10
191.8955141779
 20
136.6857084592
 30
0.0
 11
188.951027805
 21
136.6857084592
 31
0.0
  0
SPLINE
  5
AB
330
1F
100
AcDbEntity
  8
0
  6
Continuous
 62
     7
370
    25
100
AcDbSpline
210
0.0
220
0.0
230
1.0
 70
     8
 71
     3
 72
    12
 73
     8
 74
     0
 42
0.000000001
 43
0.00000001
 40
0.0
 40
0.0
 40
0.0
 40
0.0
 40
0.4999999999999963
 40
0.4999999999999963
 40
0.7499999999999981
 40
0.7499999999999981
 40
1.0
 40
1.0
 40
1.0
 40
1.0
 10
192.3285268797929
 20
137.2070113485759
 30
0.0
 10
192.2978046378738
 20
137.0944555491668
 30
0.0
 10
192.2549674233386
 20
136.9816976894271
 30
0.0
 10
192.1555403991388
 20
136.8321568036308
 30
0.0
 10
192.1157882043222
 20
136.7848640719239
 30
0.0
 10
192.0177467474639
 20
136.7111277786025
 30
0.0
 10
191.9581906918765
 20
136.6857084592268
 30
0.0
 10
191.8955141779006
 20
136.6857084592268
 30
0.0
  0
ELLIPSE
  5
AC
330
1F
100
AcDbEntity
  8
0
  6
Continuous
 62
     7
370
    25
100
AcDbEllipse
 10
176.0761168021
 20
127.2976420279
 30
0.0
 11
14.75368316065615
 21
31.09325491558116
 31
0.0
210
0.0
220
0.0
230
1.0
 40
0.3419987131
 41
5.19328173740862
 42
6.124043104552323
  0
SPLINE
  5
AD
330
1F
100
AcDbEntity
  8
0
  6
Continuous
 62
     7
370
    25
100
AcDbSpline
210
0.0
220
0.0
230
1.0
 70
     8
 71
     3
 72
    12
 73
     8
 74
     0
 42
0.000000001
 43
0.00000001
 40
0.0
 40
0.0
 40
0.0
 40
0.0
 40
0.2499999999999991
 40
0.2499999999999991
 40
0.4999999999999982
 40
0.4999999999999982
 40
1.0
 40
1.0
 40
1.0
 40
1.0
 10
191.8955141779006
 20
157.3661339867639
 30
0.0
 10
191.958594216394
 20
157.366133986764
 30
0.0
 10
192.0177428385754
 20
157.3582280605515
 30
0.0
 10
192.1162153886445
 20
157.3349028991153
 30
0.0
 10
192.1552520006292
 20
157.3201901092835
 30
0.0
 10
192.2551484674082
 20
157.2722343085526
 30
0.0
 10
192.2975693484749
 20
157.2359721519726
 30
0.0
 10
192.3285268797929
 20
157.1983844880081
 30
0.0
  0
LINE
  5
AE
330
1F
100
AcDbEntity
  8
0
  6
Continuous
 62
     7
370
    25
100
AcDbLine
 10
188.951027805
 20
157.3661339868
 30
0.0
 11
191.8955141779
 21
157.3661339868
 31
0.0
  0
SPLINE
  5
AF
330
1F
100
AcDbEntity
  8
0
  6
Continuous
 62
     7
370
    25
100
AcDbSpline
210
0.0
220
0.0
230
1.0
 70
     8
 71
     3
 72
    12
 73
     8
 74
     0
 42
0.000000001
 43
0.00000001
 40
0.0
 40
0.0
 40
0.0
 40
0.0
 40
0.4999999999999971
 40
0.4999999999999971
 40
0.7499999999999986
 40
0.7499999999999986
 40
1.0
 40
1.0
 40
1.0
 40
1.0
 10
188.5180151031413
 20
157.1983844880081
 30
0.0
 10
188.5487373450604
 20
157.2356864709612
 30
0.0
 10
188.5915745595956
 20
157.2722983030075
 30
0.0
 10
188.6910015837954
 20
157.3200630862927
 30
0.0
 10
188.730753778612
 20
157.3350206017751
 30
0.0
 10
188.8287952354702
 20
157.3582105475442
 30
0.0
 10
188.8883512910577
 20
157.3661339867639
 30
0.0
 10
188.9510278050335
 20
157.3661339867639
 30
0.0
  0
ELLIPSE
  5
B0
330
1F
100
AcDbEntity
  8
0
  6
Continuous
 62
     7
370
    25
100
AcDbEllipse
 10
204.7704251808
 20
127.2976420279
 30
0.0
 11
-14.7536831606561
 21
31.09325491558116
 31
0.0
210
0.0
220
0.0
230
1.0
 40
0.3419987131
 41
0.1591422026272981
 42
1.089903569770978
  0
SPLINE
  5
B1
330
1F
100
AcDbEntity
  8
0
  6
Continuous
 62
     7
370
    25
100
AcDbSpline
210
0.0
220
0.0
230
1.0
 70
     8
 71
     3
 72
    12
 73
     8
 74
     0
 42
0.000000001
 43
0.00000001
 40
0.0
 40
0.0
 40
0.0
 40
0.0
 40
0.2500000000000001
 40
0.2500000000000001
 40
0.5000000000000001
 40
0.5000000000000001
 40
1.0
 40
1.0
 40
1.0
 40
1.0
 10
188.9510278050335
 20
97.22915006901778
 30
0.0
 10
188.8879708501357
 20
97.22915006901778
 30
0.0
 10
188.8288407003902
 20
97.23705040009733
 30
0.0
 10
188.7303931498568
 20
97.26036114810236
 30
0.0
 10
188.6913609116688
 20
97.275066274386
 30
0.0
 10
188.5914710272118
 20
97.32299980257265
 30
0.0
 10
188.5491720536025
 20
97.35906977533742
 30
0.0
 10
188.5180151031413
 20
97.39689956777363
 30
0.0
  0
LINE
  5
B2
330
1F
100
AcDbEntity
  8
0
  6
Continuous
 62
     7
370
    25
100
AcDbLine
 10
191.8955141779
 20
97.229150069
 30
0.0
 11
188.951027805
 21
97.229150069
 31
0.0
  0
SPLINE
  5
B3
330
1F
100
AcDbEntity
  8
0
  6
Continuous
 62
     7
370
    25
100
AcDbSpline
210
0.0
220
0.0
230
1.0
 70
     8
 71
     3
 72
    12
 73
     8
 74
     0
 42
0.000000001
 43
0.00000001
 40
0.0
 40
0.0
 40
0.0
 40
0.0
 40
0.5000000000000019
 40
0.5000000000000019
 40
0.7500000000000009
 40
0.7500000000000009
 40
1.0
 40
1.0
 40
1.0
 40
1.0
 10
192.3285268797929
 20
97.39689956777364
 30
0.0
 10
192.2973816818308
 20
97.35908404485345
 30
0.0
 10
192.2551074154963
 20
97.32301718676983
 30
0.0
 10
192.155161881671
 20
97.27505712175858
 30
0.0
 10
192.115431576967
 20
97.26019614786091
 30
0.0
 10
192.0185435269608
 20
97.23724500172979
 30
0.0
 10
191.9584782852142
 20
97.22915006901772
 30
0.0
 10
191.8955141779007
 20
97.22915006901772
 30
0.0
  0
ELLIPSE
  5
B4
330
1F
100
AcDbEntity
  8
0
  6
Continuous
 62
     7
370
    25
100
AcDbEllipse
 10
176.0761168021
 20
127.2976420279
 30
0.0
 11
-14.75368316065627
 21
31.09325491558116
 31
0.0
210
0.0
220
0.0
230
1.0
 40
0.3419987131
 41
3.300734856217124
 42
4.231496223360772
  0
SPLINE
  5
B5
330
1F
100
AcDbEntity
  8
0
  6
Continuous
 62
     7
370
    25
100
AcDbSpline
210
0.0
220
0.0
230
1.0
 70
     8
 71
     3
 72
    12
 73
     8
 74
     0
 42
0.000000001
 43
0.00000001
 40
0.0
 40
0.0
 40
0.0
 40
0.0
 40
0.2500000000000009
 40
0.2500000000000009
 40
0.5000000000000018
 40
0.5000000000000018
 40
1.0
 40
1.0
 40
1.0
 40
1.0
 10
191.8955141779006
 20
117.9095755965547
 30
0.0
 10
191.9585711327984
 20
117.9095755965546
 30
0.0
 10
192.017701282544
 20
117.884229243174
 30
0.0
 10
192.1161488330773
 20
117.8101098610345
 30
0.0
 10
192.1551810712654
 20
117.7636133463365
 30
0.0
 10
192.2550709557223
 20
117.6135388393279
 30
0.0
 10
192.2973699293317
 20
117.502421130213
 30
0.0
 10
192.3285268797929
 20
117.3882727072055
 30
0.0
  0
LINE
  5
B6
330
1F
100
AcDbEntity
  8
0
  6
Continuous
 62
     7
370
    25
100
AcDbLine
 10
188.951027805
 20
117.9095755966
 30
0.0
 11
191.8955141779
 21
117.9095755966
 31
0.0
  0
SPLINE
  5
B7
330
1F
100
AcDbEntity
  8
0
  6
Continuous
 62
     7
370
    25
100
AcDbSpline
210
0.0
220
0.0
230
1.0
 70
     8
 71
     3
 72
    12
 73
     8
 74
     0
 42
0.000000001
 43
0.00000001
 40
0.0
 40
0.0
 40
0.0
 40
0.0
 40
0.5000000000000019
 40
0.5000000000000019
 40
0.7500000000000009
 40
0.7500000000000009
 40
1.0
 40
1.0
 40
1.0
 40
1.0
 10
188.5180151031413
 20
117.3882727072055
 30
0.0
 10
188.5491603011034
 20
117.5023780730708
 30
0.0
 10
188.5914345674379
 20
117.6134844002896
 30
0.0
 10
188.6913801012631
 20
117.7636420077199
 30
0.0
 10
188.7311104059672
 20
117.8106346993372
 30
0.0
 10
188.8279984559734
 20
117.8836102838757
 30
0.0
 10
188.88806369772
 20
117.9095755965547
 30
0.0
 10
188.9510278050335
 20
117.9095755965547
 30
0.0
  0
ELLIPSE
  5
B8
330
1F
100
AcDbEntity
  8
0
  6
Continuous
 62
     7
370
    25
100
AcDbEllipse
 10
204.7704251808
 20
127.2976420279
 30
0.0
 11
14.75368316065621
 21
31.09325491558116
 31
0.0
210
0.0
220
0.0
230
1.0
 40
0.3419987131
 41
2.051689083818827
 42
2.982450450962506
  0
LINE
  5
B9
330
1F
100
AcDbEntity
  8
0
  6
Continuous
 62
     7
370
    25
100
AcDbLine
 10
200.4232709915
 20
96.7976420279
 30
0.0
 11
200.4232709915
 21
157.7976420265
 31
0.0
  0
LINE
  5
BA
330
1F
100
AcDbEntity
  8
0
  6
Continuous
 62
     7
370
    25
100
AcDbLine
 10
178.4232709915
 20
96.2976420279
 30
0.0
 11
178.4232709915
 21
158.297642022
 31
0.0
  0
LINE
  5
BB
330
1F
100
AcDbEntity
  8
0
  6
Continuous
 62
     7
370
    25
100
AcDbLine
 10
188.5180151031
 20
117.3882727072
 30
0.0
 11
188.5180151031
 21
97.3968995678
 31
0.0
  0
LINE
  5
BC
330
1F
100
AcDbEntity
  8
0
  6
Continuous
 62
     7
370
    25
100
AcDbLine
 10
188.951027805
 20
117.9095755966
 30
0.0
 11
188.951027805
 21
97.229150069
 31
0.0
  0
LINE
  5
BD
330
1F
100
AcDbEntity
  8
0
  6
Continuous
 62
     7
370
    25
100
AcDbLine
 10
188.951027805
 20
157.3661339868
 30
0.0
 11
188.951027805
 21
136.6857084592
 31
0.0
  0
LINE
  5
BE
330
1F
100
AcDbEntity
  8
0
  6
Continuous
 62
     7
370
    25
100
AcDbLine
 10
188.5180151031
 20
157.198384488
 30
0.0
 11
188.5180151031
 21
137.2070113486
 31
0.0
  0
LINE
  5
BF
330
1F
100
AcDbEntity
  8
0
  6
Continuous
 62
     7
370
    25
100
AcDbLine
 10
191.8955141779
 20
117.9095755966
 30
0.0
 11
191.8955141779
 21
97.229150069
 31
0.0
  0
LINE
  5
C0
330
1F
100
AcDbEntity
  8
0
  6
Continuous
 62
     7
370
    25
100
AcDbLine
 10
192.3285268798
 20
117.3882727072
 30
0.0
 11
192.3285268798
 21
97.3968995678
 31
0.0
  0
LINE
  5
C1
330
1F
100
AcDbEntity
  8
0
  6
Continuous
 62
     7
370
    25
100
AcDbLine
 10
192.3285268798
 20
157.198384488
 30
0.0
 11
192.3285268798
 21
137.2070113486
 31
0.0
  0
LINE
  5
C2
330
1F
100
AcDbEntity
  8
0
  6
Continuous
 62
     7
370
    25
100
AcDbLine
 10
191.8955141779
 20
157.3661339868
 30
0.0
 11
191.8955141779
 21
136.6857084592
 31
0.0
  0
SPLINE
  5
C3
330
1F
100
AcDbEntity
  8
0
  6
Continuous
 62
     7
370
    25
100
AcDbSpline
210
0.0
220
0.0
230
1.0
 70
     8
 71
     3
 72
    12
 73
     8
 74
     0
 42
0.000000001
 43
0.00000001
 40
0.0
 40
0.0
 40
0.0
 40
0.0
 40
0.5000000000000006
 40
0.5000000000000006
 40
0.7500000000000004
 40
0.7500000000000004
 40
1.0
 40
1.0
 40
1.0
 40
1.0
 10
177.6067587050106
 20
105.4428483254151
 30
0.0
 10
177.6631952059178
 20
105.4414304440733
 30
0.0
 10
177.7322798366065
 20
105.439866107825
 30
0.0
 10
177.8510821083244
 20
105.4369219158506
 30
0.0
 10
177.8912673837945
 20
105.4358837127532
 30
0.0
 10
177.9646484311984
 20
105.4339498175385
 30
0.0
 10
177.998057994941
 20
105.4330549302497
 30
0.0
 10
178.0282941025975
 20
105.4322711399774
 30
0.0
  0
SPLINE
  5
C4
330
1F
100
AcDbEntity
  8
0
  6
Continuous
 62
     7
370
    25
100
AcDbSpline
210
0.0
220
0.0
230
1.0
 70
     8
 71
     3
 72
    16
 73
    12
 74
     0
 42
0.000000001
 43
0.00000001
 40
0.0
 40
0.0
 40
0.0
 40
0.0
 40
0.0624999999999962
 40
0.0624999999999962
 40
0.1249999999999924
 40
0.1249999999999924
 40
0.24999999999999
 40
0.24999999999999
 40
0.4999999999999933
 40
0.4999999999999933
 40
1.0
 40
1.0
 40
1.0
 40
1.0
 10
178.0282941025602
 20
105.4322711400016
 30
0.0
 10
178.0398745101482
 20
105.4319709488903
 30
0.0
 10
178.0531840369094
 20
105.4306432006313
 30
0.0
 10
178.0824854669956
 20
105.4239445258563
 30
0.0
 10
178.0972995668799
 20
105.4185863427506
 30
0.0
 10
178.1331279685828
 20
105.4015406935832
 30
0.0
 10
178.1472475929457
 20
105.3900781558075
 30
0.0
 10
178.1817517370343
 20
105.3585148304353
 30
0.0
 10
178.1928562877389
 20
105.34061753139
 30
0.0
 10
178.2190324649551
 20
105.2904561137757
 30
0.0
 10
178.2232709914671
 20
105.2627117015792
 30
0.0
 10
178.2232709914671
 20
105.2380475396496
 30
0.0
  0
LINE
  5
C5
330
1F
100
AcDbEntity
  8
0
  6
Continuous
 62
     7
370
    25
100
AcDbLine
 10
178.2232709915
 20
120.2757547021
 30
0.0
 11
178.2232709915
 21
104.757821749
 31
0.0
  0
SPLINE
  5
C6
330
1F
100
AcDbEntity
  8
0
  6
Continuous
 62
     7
370
    25
100
AcDbSpline
210
0.0
220
0.0
230
1.0
 70
     8
 71
     3
 72
    16
 73
    12
 74
     0
 42
0.000000001
 43
0.00000001
 40
0.0
 40
0.0
 40
0.0
 40
0.0
 40
0.5000000000000004
 40
0.5000000000000004
 40
0.7500000000000024
 40
0.7500000000000024
 40
0.8750000000000017
 40
0.8750000000000017
 40
0.9375000000000009
 40
0.9375000000000009
 40
1.0
 40
1.0
 40
1.0
 40
1.0
 10
178.2232709914671
 20
120.2757547021408
 30
0.0
 10
178.2232709914671
 20
120.3894472462687
 30
0.0
 10
178.2191247163891
 20
120.5037674076182
 30
0.0
 10
178.1931591209956
 20
120.6768156981153
 30
0.0
 10
178.1816982156182
 20
120.735991205277
 30
0.0
 10
178.1473864778438
 20
120.8191143247452
 30
0.0
 10
178.1333617419143
 20
120.8472356408459
 30
0.0
 10
178.0973387788804
 20
120.8758514548233
 30
0.0
 10
178.0825842697908
 20
120.8816445027251
 30
0.0
 10
178.0532321086439
 20
120.880051076788
 30
0.0
 10
178.0398922341398
 20
120.8735546734643
 30
0.0
 10
178.0282941025914
 20
120.8650389272611
 30
0.0
  0
SPLINE
  5
C7
330
1F
100
AcDbEntity
  8
0
  6
Continuous
 62
     7
370
    25
100
AcDbSpline
210
0.0
220
0.0
230
1.0
 70
     8
 71
     3
 72
    12
 73
     8
 74
     0
 42
0.000000001
 43
0.00000001
 40
0.0
 40
0.0
 40
0.0
 40
0.0
 40
0.2499999999999998
 40
0.2499999999999998
 40
0.4999999999999997
 40
0.4999999999999997
 40
1.0
 40
1.0
 40
1.0
 40
1.0
 10
178.0282941025985
 20
120.8650389272519
 30
0.0
 10
177.9980956611579
 20
120.8428661952069
 30
0.0
 10
177.9647283058219
 20
120.8237865393297
 30
0.0
 10
177.891573029992
 20
120.798613494887
 30
0.0
 10
177.851320330968
 20
120.7930569584702
 30
0.0
 10
177.7335915876932
 20
120.8039687694569
 30
0.0
 10
177.6631331396342
 20
120.8459045248677
 30
0.0
 10
177.606758705016
 20
120.8951163072493
 30
0.0
  0
SPLINE
  5
C8
330
1F
100
AcDbEntity
  8
0
  6
Continuous
 62
     7
370
    25
100
AcDbSpline
210
0.0
220
0.0
230
1.0
 70
     8
 71
     3
 72
    12
 73
     8
 74
     0
 42
0.000000001
 43
0.00000001
 40
0.0
 40
0.0
 40
0.0
 40
0.0
 40
0.4999999999999984
 40
0.4999999999999984
 40
0.7499999999999992
 40
0.7499999999999992
 40
1.0
 40
1.0
 40
1.0
 40
1.0
 10
177.1019506479074
 20
122.1114676991299
 30
0.0
 10
177.1457009784932
 20
121.8910208214742
 30
0.0
 10
177.1985910978736
 20
121.6754760044359
 30
0.0
 10
177.3102024184877
 20
121.3630623533259
 30
0.0
 10
177.3527618716708
 20
121.2609825801545
 30
0.0
 10
177.4577387948674
 20
121.0665429456903
 30
0.0
 10
177.5193059357022
 20
120.9714577673681
 30
0.0
 10
177.606758705016
 20
120.8951163072493
 30
0.0
  0
LINE
  5
C9
330
1F
100
AcDbEntity
  8
0
  6
Continuous
 62
     7
370
    25
100
AcDbLine
 10
177.1019506479
 20
122.1114676991
 30
0.0
 11
177.1019506479
 21
132.4838163567
 31
0.0
  0
SPLINE
  5
CA
330
1F
100
AcDbEntity
  8
0
  6
Continuous
 62
     7
370
    25
100
AcDbSpline
210
0.0
220
0.0
230
1.0
 70
     8
 71
     3
 72
    12
 73
     8
 74
     0
 42
0.000000001
 43
0.00000001
 40
0.0
 40
0.0
 40
0.0
 40
0.0
 40
0.2500000000000004
 40
0.2500000000000004
 40
0.5000000000000008
 40
0.5000000000000008
 40
1.0
 40
1.0
 40
1.0
 40
1.0
 10
177.6067587050159
 20
133.7001677485325
 30
0.0
 10
177.5182644145984
 20
133.622917097745
 30
0.0
 10
177.4582070554366
 20
133.5295980887517
 30
0.0
 10
177.3523597162419
 20
133.3335669313205
 30
0.0
 10
177.3098256123178
 20
133.2312395246246
 30
0.0
 10
177.1986741192638
 20
132.9198946830017
 30
0.0
 10
177.1457432801861
 20
132.7044763818658
 30
0.0
 10
177.1019506479074
 20
132.483816356652
 30
0.0
  0
SPLINE
  5
CB
330
1F
100
AcDbEntity
  8
0
  6
Continuous
 62
     7
370
    25
100
AcDbSpline
210
0.0
220
0.0
230
1.0
 70
     8
 71
     3
 72
    12
 73
     8
 74
     0
 42
0.000000001
 43
0.00000001
 40
0.0
 40
0.0
 40
0.0
 40
0.0
 40
0.4999999999999998
 40
0.4999999999999998
 40
0.7499999999999999
 40
0.7499999999999999
 40
1.0
 40
1.0
 40
1.0
 40
1.0
 10
177.6067587050159
 20
133.7001677485325
 30
0.0
 10
177.6630672533115
 20
133.7493220157763
 30
0.0
 10
177.7333419140296
 20
133.7912793343801
 30
0.0
 10
177.8513798283532
 20
133.8022390119125
 30
0.0
 10
177.8915560692071
 20
133.7967302536651
 30
0.0
 10
177.9655131638851
 20
133.7711730248762
 30
0.0
 10
177.9981295515965
 20
133.7523929770369
 30
0.0
 10
178.0282941025922
 20
133.7302451285202
 30
0.0
  0
SPLINE
  5
CC
330
1F
100
AcDbEntity
  8
0
  6
Continuous
 62
     7
370
    25
100
AcDbSpline
210
0.0
220
0.0
230
1.0
 70
     8
 71
     3
 72
    16
 73
    12
 74
     0
 42
0.000000001
 43
0.00000001
 40
0.0
 40
0.0
 40
0.0
 40
0.0
 40
0.0624999999999987
 40
0.0624999999999987
 40
0.1249999999999973
 40
0.1249999999999973
 40
0.2499999999999977
 40
0.2499999999999977
 40
0.4999999999999984
 40
0.4999999999999984
 40
1.0
 40
1.0
 40
1.0
 40
1.0
 10
178.0282941025605
 20
133.7302451284656
 30
0.0
 10
178.0399070023998
 20
133.7217185388704
 30
0.0
 10
178.0532581868324
 20
133.7152182773376
 30
0.0
 10
178.0826580264515
 20
133.7136488802201
 30
0.0
 10
178.0974987510068
 20
133.7195322708507
 30
0.0
 10
178.1333319589754
 20
133.7480799069012
 30
0.0
 10
178.147445166797
 20
133.7762469262071
 30
0.0
 10
178.1819365380158
 20
133.860001184629
 30
0.0
 10
178.1930206091262
 20
133.9177145982504
 30
0.0
 10
178.2191434269222
 20
134.0913051348963
 30
0.0
 10
178.2232709914671
 20
134.2063331875382
 30
0.0
 10
178.2232709914671
 20
134.319529353641
 30
0.0
  0
LINE
  5
CD
330
1F
100
AcDbEntity
  8
0
  6
Continuous
 62
     7
370
    25
100
AcDbLine
 10
178.2232709915
 20
149.8374623068
 30
0.0
 11
178.2232709915
 21
134.3195293536
 31
0.0
  0
SPLINE
  5
CE
330
1F
100
AcDbEntity
  8
0
  6
Continuous
 62
     7
370
    25
100
AcDbSpline
210
0.0
220
0.0
230
1.0
 70
     8
 71
     3
 72
    16
 73
    12
 74
     0
 42
0.000000001
 43
0.00000001
 40
0.0
 40
0.0
 40
0.0
 40
0.0
 40
0.5000000000000026
 40
0.5000000000000026
 40
0.7500000000000041
 40
0.7500000000000041
 40
0.8750000000000048
 40
0.8750000000000048
 40
0.9375000000000024
 40
0.9375000000000024
 40
1.0
 40
1.0
 40
1.0
 40
1.0
 10
178.2232709914671
 20
149.3572365161322
 30
0.0
 10
178.2232709914671
 20
149.3325653600893
 30
0.0
 10
178.2191052930071
 20
149.304983528698
 30
0.0
 10
178.1928469646822
 20
149.2546406578747
 30
0.0
 10
178.1813431829446
 20
149.2363511598128
 30
0.0
 10
178.147212423598
 20
149.2051961287758
 30
0.0
 10
178.1327905369273
 20
149.193556753564
 30
0.0
 10
178.0972235684895
 20
149.176674727633
 30
0.0
 10
178.0822718001948
 20
149.1712856238253
 30
0.0
 10
178.0532679818351
 20
149.1646651278808
 30
0.0
 10
178.0398526278258
 20
149.1633125396744
 30
0.0
 10
178.0282941025893
 20
149.1630129158027
 30
0.0
  0
SPLINE
  5
CF
330
1F
100
AcDbEntity
  8
0
  6
Continuous
 62
     7
370
    25
100
AcDbSpline
210
0.0
220
0.0
230
1.0
 70
     8
 71
     3
 72
    12
 73
     8
 74
     0
 42
0.000000001
 43
0.00000001
 40
0.0
 40
0.0
 40
0.0
 40
0.0
 40
0.2500000000000001
 40
0.2500000000000001
 40
0.5000000000000002
 40
0.5000000000000002
 40
1.0
 40
1.0
 40
1.0
 40
1.0
 10
178.0282941025985
 20
149.1630129158045
 30
0.0
 10
177.9981063260489
 20
149.1622303783869
 30
0.0
 10
177.9647525219572
 20
149.1613370465684
 30
0.0
 10
177.8916263187612
 20
149.1594097377648
 30
0.0
 10
177.851391115737
 20
149.1583702065521
 30
0.0
 10
177.7336994856039
 20
149.1554523232049
 30
0.0
 10
177.6633188124439
 20
149.1538567171347
 30
0.0
 10
177.6067587050133
 20
149.1524357303668
 30
0.0
  0
SPLINE
  5
D0
330
1F
100
AcDbEntity
  8
0
  6
Continuous
 62
     7
370
    25
100
AcDbSpline
210
0.0
220
0.0
230
1.0
 70
     8
 71
     3
 72
    16
 73
    12
 74
     0
 42
0.000000001
 43
0.00000001
 40
0.0
 40
0.0
 40
0.0
 40
0.0
 40
0.2500000000000001
 40
0.2500000000000001
 40
0.3750000000000001
 40
0.3750000000000001
 40
0.5000000000000001
 40
0.5000000000000001
 40
0.7500000000000001
 40
0.7500000000000001
 40
1.0
 40
1.0
 40
1.0
 40
1.0
 10
177.1019506479074
 20
132.483816356652
 30
0.0
 10
176.940718170423
 20
131.6714065814051
 30
0.0
 10
176.8202383307833
 20
130.8313282870204
 30
0.0
 10
176.69785781347
 20
129.5300332376576
 30
0.0
 10
176.6668801530726
 20
129.0893522020729
 30
0.0
 10
176.6252664154446
 20
128.1935125611417
 30
0.0
 10
176.6150305025118
 20
127.7468544299393
 30
0.0
 10
176.6148421054557
 20
126.4115444727994
 30
0.0
 10
176.6549868080933
 20
125.5270490994919
 30
0.0
 10
176.8191405630329
 20
123.7697992114659
 30
0.0
 10
176.9406922134424
 20
122.9240082650527
 30
0.0
 10
177.1019506479074
 20
122.1114676991299
 30
0.0
  0
LINE
  5
D1
330
1F
100
AcDbEntity
  8
0
  6
Continuous
 62
     7
370
    25
100
AcDbLine
 10
176.4282310135
 20
120.9099206661
 30
0.0
 11
177.606758705
 21
120.8951163072
 31
0.0
  0
LINE
  5
D2
330
1F
100
AcDbEntity
  8
0
  6
Continuous
 62
     7
370
    25
100
AcDbLine
 10
176.4282310135
 20
133.6853633897
 30
0.0
 11
176.4282310135
 21
120.9099206661
 31
0.0
  0
LINE
  5
D3
330
1F
100
AcDbEntity
  8
0
  6
Continuous
 62
     7
370
    25
100
AcDbLine
 10
176.4282310135
 20
133.6853633897
 30
0.0
 11
177.606758705
 21
133.7001677485
 31
0.0
  0
LWPOLYLINE
  5
D4
330
1F
100
AcDbEntity
  8
0
  6
Continuous
 62
     7
370
    25
100
AcDbPolyline
 90
        9
 70
   128
 43
0.0
 10
176.2232709915
 20
120.8124637662
 10
176.2280926835
 20
120.8319183855
 10
176.240412544
 20
120.8505288571
 10
176.2597571276
 20
120.8675799909
 10
176.2853830328
 20
120.8824165214
 10
176.3163054705
 20
120.8944682891
 10
176.3513361086
 20
120.9032721512
 10
176.3891287395
 20
120.9084897805
 10
176.4282310135
 20
120.9099206661
  0
LINE
  5
D5
330
1F
100
AcDbEntity
  8
0
  6
Continuous
 62
     7
370
    25
100
AcDbLine
 10
176.2232709915
 20
133.7828202896
 30
0.0
 11
176.2232709915
 21
120.8124637662
 31
0.0
  0
LWPOLYLINE
  5
D6
330
1F
100
AcDbEntity
  8
0
  6
Continuous
 62
     7
370
    25
100
AcDbPolyline
 90
        9
 70
   128
 43
0.0
 10
176.2232709915
 20
133.7828202896
 10
176.2280926835
 20
133.7633656702
 10
176.240412544
 20
133.7447551987
 10
176.2597571276
 20
133.7277040649
 10
176.2853830328
 20
133.7128675344
 10
176.3163054705
 20
133.7008157667
 10
176.3513361086
 20
133.6920119045
 10
176.3891287395
 20
133.6867942753
 10
176.4282310135
 20
133.6853633897
  0
LINE
  5
D7
330
1F
100
AcDbEntity
  8
0
  6
Continuous
 62
     7
370
    25
100
AcDbLine
 10
141.9232709915
 20
121.2433314603
 30
0.0
 11
176.2232709915
 21
120.8124637662
 31
0.0
  0
LINE
  5
D8
330
1F
100
AcDbEntity
  8
0
  6
Continuous
 62
     7
370
    25
100
AcDbLine
 10
141.9232709915
 20
133.3519525954
 30
0.0
 11
141.9232709915
 21
121.2433314603
 31
0.0
  0
LINE
  5
D9
330
1F
100
AcDbEntity
  8
0
  6
Continuous
 62
     7
370
    25
100
AcDbLine
 10
141.9232709915
 20
133.3519525954
 30
0.0
 11
176.2232709915
 21
133.7828202896
 31
0.0
  0
LINE
  5
DA
330
1F
100
AcDbEntity
  8
0
  6
Continuous
 62
     7
370
    25
100
AcDbLine
 10
140.4232709915
 20
121.6763441622
 30
0.0
 11
141.9232709915
 21
121.2433314603
 31
0.0
  0
LINE
  5
DB
330
1F
100
AcDbEntity
  8
0
  6
Continuous
 62
     7
370
    25
100
AcDbLine
 10
140.4232709915
 20
132.9189398935
 30
0.0
 11
140.4232709915
 21
121.6763441622
 31
0.0
  0
LINE
  5
DC
330
1F
100
AcDbEntity
  8
0
  6
Continuous
 62
     7
370
    25
100
AcDbLine
 10
140.4232709915
 20
132.9189398935
 30
0.0
 11
141.9232709915
 21
133.3519525954
 31
0.0
  0
LINE
  5
DD
330
1F
100
AcDbEntity
  8
0
  6
Continuous
 62
     7
370
    25
100
AcDbLine
 10
250.4232709915
 20
106.2976420279
 30
0.0
 11
250.4232709915
 21
148.2976420279
 31
0.0
  0
LINE
  5
DE
330
1F
100
AcDbEntity
  8
0
  6
Continuous
 62
     7
370
    25
100
AcDbLine
 10
248.9232709915
 20
104.7976420279
 30
0.0
 11
248.9232709915
 21
149.7976420279
 31
0.0
  0
SPLINE
  5
DF
330
1F
100
AcDbEntity
  8
0
  6
Continuous
 62
     7
370
    25
100
AcDbSpline
210
0.0
220
0.0
230
1.0
 70
    11
 71
     3
 72
    90
 73
    86
 74
     0
 42
0.000000001
 43
0.00000001
 40
0.0
 40
0.0
 40
0.0
 40
0.0
 40
0.0312499999999994
 40
0.0312499999999994
 40
0.0624999999999988
 40
0.0624999999999988
 40
0.0937499999999983
 40
0.0937499999999983
 40
0.109374999999998
 40
0.109374999999998
 40
0.1249999999999979
 40
0.1249999999999979
 40
0.1562499999999973
 40
0.1562499999999973
 40
0.1874999999999967
 40
0.1874999999999967
 40
0.2031249999999963
 40
0.2031249999999963
 40
0.2187499999999958
 40
0.2187499999999958
 40
0.249999999999995
 40
0.249999999999995
 40
0.2656249999999948
 40
0.2656249999999948
 40
0.2812499999999947
 40
0.2812499999999947
 40
0.3124999999999943
 40
0.3124999999999943
 40
0.3281249999999942
 40
0.3281249999999942
 40
0.343749999999994
 40
0.343749999999994
 40
0.3749999999999936
 40
0.3749999999999936
 40
0.3906249999999934
 40
0.3906249999999934
 40
0.4062499999999932
 40
0.4062499999999932
 40
0.437499999999993
 40
0.437499999999993
 40
0.4687499999999929
 40
0.4687499999999929
 40
0.4999999999999928
 40
0.4999999999999928
 40
0.5312499999999927
 40
0.5312499999999927
 40
0.5624999999999926
 40
0.5624999999999926
 40
0.5781249999999925
 40
0.5781249999999925
 40
0.5937499999999925
 40
0.5937499999999925
 40
0.6249999999999926
 40
0.6249999999999926
 40
0.6406249999999928
 40
0.6406249999999928
 40
0.6562499999999929
 40
0.6562499999999929
 40
0.6874999999999936
 40
0.6874999999999936
 40
0.7187499999999942
 40
0.7187499999999942
 40
0.7499999999999949
 40
0.7499999999999949
 40
0.7812499999999956
 40
0.7812499999999956
 40
0.8124999999999962
 40
0.8124999999999962
 40
0.8437499999999969
 40
0.8437499999999969
 40
0.8593749999999971
 40
0.8593749999999971
 40
0.8749999999999973
 40
0.8749999999999973
 40
0.906249999999998
 40
0.906249999999998
 40
0.9218749999999983
 40
0.9218749999999983
 40
0.9374999999999986
 40
0.9374999999999986
 40
0.9687499999999992
 40
0.9687499999999992
 40
0.9843749999999997
 40
0.9843749999999997
 40
1.0
 40
1.0
 40
1.0
 40
1.0
 10
203.4232709914671
 20
127.2976420278909
 30
0.0
 10
203.4232709914671
 20
126.8678865502328
 30
0.0
 10
203.4767902228801
 20
126.4302737958094
 30
0.0
 10
203.6828226951754
 20
125.593238898266
 30
0.0
 10
203.8348808013243
 20
125.1885436746062
 30
0.0
 10
204.228662364886
 20
124.4166482790722
 30
0.0
 10
204.464901985405
 20
124.0590475566906
 30
0.0
 10
204.8726022763727
 20
123.5605004555492
 30
0.0
 10
205.0182586381016
 20
123.3999593860273
 30
0.0
 10
205.3230131825445
 20
123.0958254573545
 30
0.0
 10
205.4819663158319
 20
122.9521772796983
 30
0.0
 10
205.97753470762
 20
122.544952522917
 30
0.0
 10
206.3340110106543
 20
122.3041498881834
 30
0.0
 10
207.0903349626441
 20
121.886533305239
 30
0.0
 10
207.4825722304985
 20
121.7136124655504
 30
0.0
 10
208.0909270551957
 20
121.5043530575476
 30
0.0
 10
208.2970696463699
 20
121.4430191802164
 30
0.0
 10
208.7161556279752
 20
121.3372930058618
 30
0.0
 10
208.9297356100302
 20
121.2928695365641
 30
0.0
 10
209.5693832782148
 20
121.1873411598003
 30
0.0
 10
209.9976754989619
 20
121.1527035924982
 30
0.0
 10
210.6428505905814
 20
121.1530733415374
 30
0.0
 10
210.8583676734572
 20
121.1619717088196
 30
0.0
 10
211.2903420102884
 20
121.1977721928043
 30
0.0
 10
211.5068489870359
 20
121.2247958612396
 30
0.0
 10
212.1453725416681
 20
121.3315086357778
 30
0.0
 10
212.5606840091768
 20
121.436847036319
 30
0.0
 10
213.1681694567836
 20
121.6464952962103
 30
0.0
 10
213.3680691728518
 20
121.7250384186718
 30
0.0
 10
213.7624870374184
 20
121.9002262209319
 30
0.0
 10
213.956730312512
 20
121.996883318417
 30
0.0
 10
214.5193459908297
 20
122.3086875395687
 30
0.0
 10
214.8718774955399
 20
122.5471330002559
 30
0.0
 10
215.3656866177827
 20
122.9531799127502
 30
0.0
 10
215.524417798552
 20
123.0966485873502
 30
0.0
 10
215.8293473744676
 20
123.4010857181451
 30
0.0
 10
215.974757347522
 20
123.5614763392695
 30
0.0
 10
216.3808507082434
 20
124.0581303671698
 30
0.0
 10
216.6152468144605
 20
124.4130565927195
 30
0.0
 10
217.0055908721376
 20
125.1751100718618
 30
0.0
 10
217.161551376588
 20
125.5871107068799
 30
0.0
 10
217.3680495866646
 20
126.4207291396546
 30
0.0
 10
217.4221099189474
 20
126.8470601782725
 30
0.0
 10
217.4243954874206
 20
127.7202752516373
 30
0.0
 10
217.372154809561
 20
128.1504509568795
 30
0.0
 10
217.1681042258476
 20
128.9888712225245
 30
0.0
 10
217.0139126427005
 20
129.4007412810622
 30
0.0
 10
216.7217413625558
 20
129.9758113144136
 30
0.0
 10
216.6139306686083
 20
130.1616867967044
 30
0.0
 10
216.3781050486033
 20
130.5222398694572
 30
0.0
 10
216.2493604248381
 20
130.6977154689164
 30
0.0
 10
215.8403465504224
 20
131.198687666345
 30
0.0
 10
215.5368977776364
 20
131.5009078308754
 30
0.0
 10
215.0389840685312
 20
131.9109467212929
 30
0.0
 10
214.8649903053644
 20
132.0408586661806
 30
0.0
 10
214.5080760762291
 20
132.2825327396607
 30
0.0
 10
214.3249704436017
 20
132.3945809169599
 30
0.0
 10
213.7622569702995
 20
132.7056430396233
 30
0.0
 10
213.3693694237596
 20
132.8797996505157
 30
0.0
 10
212.547886626913
 20
133.1623991054925
 30
0.0
 10
212.1292908357849
 20
133.2672791508664
 30
0.0
 10
211.2807139375089
 20
133.4074360047776
 30
0.0
 10
210.8484907755932
 20
133.4428865400252
 30
0.0
 10
209.9778356749658
 20
133.4417710285467
 30
0.0
 10
209.5483910987193
 20
133.4054918045609
 30
0.0
 10
208.7008734326778
 20
133.2636001981901
 30
0.0
 10
208.2806187167165
 20
133.1572407766662
 30
0.0
 10
207.4617155605364
 20
132.8733921122582
 30
0.0
 10
207.0704184097253
 20
132.6988903244841
 30
0.0
 10
206.5104275188301
 20
132.3879418768942
 30
0.0
 10
206.3282859895703
 20
132.2760375694039
 30
0.0
 10
205.9733952763688
 20
132.0349168444543
 30
0.0
 10
205.7997597209392
 20
131.9049289844785
 30
0.0
 10
205.3019327304876
 20
131.4937199102536
 30
0.0
 10
204.9996814594718
 20
131.1915028638984
 30
0.0
 10
204.5934176667056
 20
130.6926981242208
 30
0.0
 10
204.4652239760356
 20
130.5176857810942
 30
0.0
 10
204.2297470217169
 20
130.1569400366812
 30
0.0
 10
204.1225996373278
 20
129.9717106806065
 30
0.0
 10
203.8331324049384
 20
129.4012637777406
 30
0.0
 10
203.6823603312782
 20
129.0014814094918
 30
0.0
 10
203.5271082966775
 20
128.3687678798374
 30
0.0
 10
203.4879643150671
 20
128.1543230560004
 30
0.0
 10
203.4362086398794
 20
127.7268313881169
 30
0.0
 10
203.4232709914671
 20
127.51251976672
 30
0.0
 10
203.4232709914671
 20
127.2976420278909
 30
0.0
  0
SPLINE
  5
E0
330
1F
100
AcDbEntity
  8
0
  6
Continuous
 62
     7
370
    25
100
AcDbSpline
210
0.0
220
0.0
230
1.0
 70
    11
 71
     3
 72
    84
 73
    80
 74
     0
 42
0.000000001
 43
0.00000001
 40
0.0
 40
0.0
 40
0.0
 40
0.0
 40
0.0312500000000007
 40
0.0312500000000007
 40
0.0625000000000015
 40
0.0625000000000015
 40
0.0937500000000022
 40
0.0937500000000022
 40
0.1093750000000026
 40
0.1093750000000026
 40
0.1250000000000029
 40
0.1250000000000029
 40
0.1406250000000032
 40
0.1406250000000032
 40
0.1562500000000036
 40
0.1562500000000036
 40
0.1875000000000042
 40
0.1875000000000042
 40
0.2187500000000048
 40
0.2187500000000048
 40
0.2500000000000053
 40
0.2500000000000053
 40
0.2812500000000059
 40
0.2812500000000059
 40
0.3125000000000064
 40
0.3125000000000064
 40
0.343750000000007
 40
0.343750000000007
 40
0.3750000000000075
 40
0.3750000000000075
 40
0.3906250000000076
 40
0.3906250000000076
 40
0.4062500000000077
 40
0.4062500000000077
 40
0.4375000000000077
 40
0.4375000000000077
 40
0.4531250000000077
 40
0.4531250000000077
 40
0.4687500000000078
 40
0.4687500000000078
 40
0.5000000000000073
 40
0.5000000000000073
 40
0.515625000000007
 40
0.515625000000007
 40
0.5312500000000067
 40
0.5312500000000067
 40
0.5625000000000058
 40
0.5625000000000058
 40
0.5781250000000054
 40
0.5781250000000054
 40
0.5937500000000053
 40
0.5937500000000053
 40
0.6250000000000048
 40
0.6250000000000048
 40
0.6406250000000047
 40
0.6406250000000047
 40
0.6562500000000044
 40
0.6562500000000044
 40
0.6875000000000039
 40
0.6875000000000039
 40
0.7187500000000034
 40
0.7187500000000034
 40
0.7500000000000029
 40
0.7500000000000029
 40
0.7812500000000024
 40
0.7812500000000024
 40
0.812500000000002
 40
0.812500000000002
 40
0.8281250000000018
 40
0.8281250000000018
 40
0.8437500000000016
 40
0.8437500000000016
 40
0.8750000000000012
 40
0.8750000000000012
 40
0.9062500000000008
 40
0.9062500000000008
 40
0.9375000000000004
 40
0.9375000000000004
 40
1.0
 40
1.0
 40
1.0
 40
1.0
 10
228.7686586327079
 20
131.8763839201016
 30
0.0
 10
228.4287475761858
 20
131.6098407039859
 30
0.0
 10
228.1185377035326
 20
131.3152271805344
 30
0.0
 10
227.5599863871247
 20
130.6664162594465
 30
0.0
 10
227.3102599080004
 20
130.308205676967
 30
0.0
 10
226.9014824677843
 20
129.5581339415529
 30
0.0
 10
226.7391196091166
 20
129.163728692706
 30
0.0
 10
226.5648787529414
 20
128.5398566464271
 30
0.0
 10
226.5184960042943
 20
128.325507394183
 30
0.0
 10
226.4528151201048
 20
127.898624365622
 30
0.0
 10
226.4329862531971
 20
127.6846142102122
 30
0.0
 10
226.4191235779821
 20
127.2554652366037
 30
0.0
 10
226.4250888301902
 20
127.0403264592058
 30
0.0
 10
226.4634240642245
 20
126.6088939860008
 30
0.0
 10
226.4961239664447
 20
126.3919958779923
 30
0.0
 10
226.6309837996409
 20
125.757851769444
 30
0.0
 10
226.7696791184857
 20
125.3509011606892
 30
0.0
 10
227.1402531011856
 20
124.5669439911489
 30
0.0
 10
227.3673912858363
 20
124.2007113067898
 30
0.0
 10
227.8916672433816
 20
123.5222529921984
 30
0.0
 10
228.1922312075175
 20
123.2071603641642
 30
0.0
 10
228.8395255581529
 20
122.6471006954665
 30
0.0
 10
229.1882082361485
 20
122.3988939285064
 30
0.0
 10
229.934298163504
 20
121.9632130198457
 30
0.0
 10
230.3240880254895
 20
121.7804749735261
 30
0.0
 10
231.1280213924256
 20
121.4833724126539
 30
0.0
 10
231.5459396279306
 20
121.367918404834
 30
0.0
 10
232.3977949329722
 20
121.207834981467
 30
0.0
 10
232.8256009530839
 20
121.1638927240816
 30
0.0
 10
233.4700390795023
 20
121.1501618255598
 30
0.0
 10
233.685309308429
 20
121.1543376755297
 30
0.0
 10
234.1167817127684
 20
121.180527175989
 30
0.0
 10
234.3339970902528
 20
121.202725316775
 30
0.0
 10
234.9767339931383
 20
121.2955440167735
 30
0.0
 10
235.3947706812492
 20
121.391861566011
 30
0.0
 10
236.0064223862968
 20
121.5876189970754
 30
0.0
 10
236.207723841379
 20
121.6614721272602
 30
0.0
 10
236.6050108363962
 20
121.8270187536081
 30
0.0
 10
236.8018821701979
 20
121.9192348271081
 30
0.0
 10
237.3736586519431
 20
122.2186265775199
 30
0.0
 10
237.7321930137565
 20
122.4488646739761
 30
0.0
 10
238.2354049176055
 20
122.841924929781
 30
0.0
 10
238.3973373352132
 20
122.9809511233607
 30
0.0
 10
238.7089257690337
 20
123.2761014853414
 30
0.0
 10
238.8591852255474
 20
123.4330736028313
 30
0.0
 10
239.2800311701722
 20
123.9200659676936
 30
0.0
 10
239.5242573434664
 20
124.2685014112173
 30
0.0
 10
239.8327983465497
 20
124.8295500731286
 30
0.0
 10
239.9259393401204
 20
125.0230127839602
 30
0.0
 10
240.0911602014184
 20
125.4240089359895
 30
0.0
 10
240.1623972271101
 20
125.6299975806578
 30
0.0
 10
240.3372450236191
 20
126.2513483712749
 30
0.0
 10
240.4045957367827
 20
126.6751004933769
 30
0.0
 10
240.4276059856336
 20
127.3258782152949
 30
0.0
 10
240.4218909765639
 20
127.5455939780667
 30
0.0
 10
240.3843461642128
 20
127.9768127247283
 30
0.0
 10
240.3526506432515
 20
128.1900123263293
 30
0.0
 10
240.2198397682566
 20
128.8225901633087
 30
0.0
 10
240.0785853570456
 20
129.2392894535246
 30
0.0
 10
239.7115513688723
 20
130.0186293506758
 30
0.0
 10
239.4850591755354
 20
130.3862148702091
 30
0.0
 10
238.9565424775194
 20
131.0715745410377
 30
0.0
 10
238.6608781995207
 20
131.3817653095655
 30
0.0
 10
238.0124407845162
 20
131.9441536889799
 30
0.0
 10
237.6573619463346
 20
132.1968179986022
 30
0.0
 10
236.9166993690105
 20
132.6296081663112
 30
0.0
 10
236.5284867549101
 20
132.81244512109
 30
0.0
 10
235.9195804386708
 20
133.0376744548661
 30
0.0
 10
235.7121730132023
 20
133.1043931719611
 30
0.0
 10
235.2959894779283
 20
133.2191872456453
 30
0.0
 10
235.0862805824159
 20
133.2676327991646
 30
0.0
 10
234.452397281454
 20
133.3867808859103
 30
0.0
 10
234.0235031592101
 20
133.4315136448254
 30
0.0
 10
233.152698894467
 20
133.4497125572384
 30
0.0
 10
232.7203438540737
 20
133.4227484702545
 30
0.0
 10
231.8697605413905
 20
133.2995506593907
 30
0.0
 10
231.4501469929858
 20
133.2033695812829
 30
0.0
 10
230.2091809366445
 20
132.8047881638521
 30
0.0
 10
229.4484807457521
 20
132.409470352333
 30
0.0
 10
228.7686586327079
 20
131.8763839201016
 30
0.0
  0
LINE
  5
E1
330
1F
100
AcDbEntity
  8
0
  6
Continuous
 62
     7
370
    25
100
AcDbLine
 10
141.9232709915
 20
133.3519525954
 30
0.0
 11
141.9232709915
 21
148.4560054242
 31
0.0
  0
LINE
  5
E2
330
1F
100
AcDbEntity
  8
0
  6
Continuous
 62
     7
370
    25
100
AcDbLine
 10
141.9232709915
 20
148.4560054242
 30
0.0
 11
176.2232709915
 21
149.3177408125
 31
0.0
  0
LINE
  5
E3
330
1F
100
AcDbEntity
  8
0
  6
Continuous
 62
     7
370
    25
100
AcDbLine
 10
176.2232709915
 20
133.7828202896
 30
0.0
 11
176.2232709915
 21
149.3177408125
 31
0.0
  0
ARC
  5
E4
330
1F
100
AcDbEntity
  8
0
  6
Continuous
 62
     7
370
    25
100
AcDbCircle
 10
176.4232079024
 20
149.3227639236
 30
0.0
 40
0.1999999999999775
100
AcDbArc
 50
181.4391666667
 51
271.4391666667
  0
LINE
  5
E5
330
1F
100
AcDbEntity
  8
0
  6
Continuous
 62
     7
370
    25
100
AcDbLine
 10
176.4282310135
 20
133.6853633897
 30
0.0
 11
176.4282310135
 21
149.1228270126
 31
0.0
  0
LINE
  5
E6
330
1F
100
AcDbEntity
  8
0
  6
Continuous
 62
     7
370
    25
100
AcDbLine
 10
141.9232709915
 20
106.1392786316
 30
0.0
 11
141.9232709915
 21
121.2433314603
 31
0.0
  0
LINE
  5
E7
330
1F
100
AcDbEntity
  8
0
  6
Continuous
 62
     7
370
    25
100
AcDbLine
 10
176.2232709915
 20
105.2775432433
 30
0.0
 11
176.2232709915
 21
120.8124637662
 31
0.0
  0
LINE
  5
E8
330
1F
100
AcDbEntity
  8
0
  6
Continuous
 62
     7
370
    25
100
AcDbLine
 10
141.9232709915
 20
106.1392786316
 30
0.0
 11
176.2232709915
 21
105.2775432433
 31
0.0
  0
LINE
  5
E9
330
1F
100
AcDbEntity
  8
0
  6
Continuous
 62
     7
370
    25
100
AcDbLine
 10
176.4282310135
 20
105.4724570431
 30
0.0
 11
176.4282310135
 21
120.9099206661
 31
0.0
  0
ARC
  5
EA
330
1F
100
AcDbEntity
  8
0
  6
Continuous
 62
     7
370
    25
100
AcDbCircle
 10
176.4232079024
 20
105.2725201322
 30
0.0
 40
0.1999999999999917
100
AcDbArc
 50
88.5608333333
 51
178.5608333333
  0
LINE
  5
EB
330
1F
100
AcDbEntity
  8
0
  6
Continuous
 62
     7
370
    25
100
AcDbLine
 10
178.0282941026
 20
105.43227114
 30
0.0
 11
178.0282941026
 21
120.8650389273
 31
0.0
  0
LINE
  5
EC
330
1F
100
AcDbEntity
  8
0
  6
Continuous
 62
     7
370
    25
100
AcDbLine
 10
178.0282941026
 20
133.7302451285
 30
0.0
 11
178.0282941026
 21
149.1630129158
 31
0.0
  0
LINE
  5
ED
330
1F
100
AcDbEntity
  8
0
  6
Continuous
 62
     7
370
    25
100
AcDbLine
 10
176.4282310135
 20
149.1228270126
 30
0.0
 11
177.606758705
 21
149.1524357304
 31
0.0
  0
LINE
  5
EE
330
1F
100
AcDbEntity
  8
0
  6
Continuous
 62
     7
370
    25
100
AcDbLine
 10
176.4282310135
 20
105.4724570431
 30
0.0
 11
177.606758705
 21
105.4428483254
 31
0.0
  0
LINE
  5
EF
330
1F
100
AcDbEntity
  8
0
  6
Continuous
 62
     7
370
    25
100
AcDbLine
 10
140.4232709915
 20
147.5899800204
 30
0.0
 11
141.9232709915
 21
148.4560054242
 31
0.0
  0
LINE
  5
F0
330
1F
100
AcDbEntity
  8
0
  6
Continuous
 62
     7
370
    25
100
AcDbLine
 10
140.4232709915
 20
132.9189398935
 30
0.0
 11
140.4232709915
 21
147.5899800204
 31
0.0
  0
LINE
  5
F1
330
1F
100
AcDbEntity
  8
0
  6
Continuous
 62
     7
370
    25
100
AcDbLine
 10
140.4232709915
 20
107.0053040354
 30
0.0
 11
141.9232709915
 21
106.1392786316
 31
0.0
  0
LINE
  5
F2
330
1F
100
AcDbEntity
  8
0
  6
Continuous
 62
     7
370
    25
100
AcDbLine
 10
140.4232709915
 20
107.0053040354
 30
0.0
 11
140.4232709915
 21
121.6763441622
 31
0.0
  0
LINE
  5
F3
330
1F
100
AcDbEntity
  8
0
  6
Continuous
 62
     7
370
    25
100
AcDbLine
 10
178.9232709915
 20
95.7976420279
 30
0.0
 11
178.9232709915
 21
158.7976420279
 31
0.0
  0
LINE
  5
F4
330
1F
100
AcDbEntity
  8
0
  6
Continuous
 62
     7
370
    25
100
AcDbLine
 10
199.4232709915
 20
95.7976420279
 30
0.0
 11
199.4232709915
 21
158.7976420279
 31
0.0
  0
LINE
  5
F5
330
1F
100
AcDbEntity
  8
0
  6
Continuous
 62
     7
370
    25
100
AcDbLine
 10
203.4232709915
 20
127.2976420279
 30
0.0
 11
203.4232709915
 21
104.7976420279
 31
0.0
  0
LINE
  5
F6
330
1F
100
AcDbEntity
  8
0
  6
Continuous
 62
     7
370
    25
100
AcDbLine
 10
203.4232709915
 20
149.7976420279
 30
0.0
 11
203.4232709915
 21
127.2976420279
 31
0.0
  0
SPLINE
  5
F7
330
1F
100
AcDbEntity
  8
0
  6
HIDDEN
 62
     7
370
    18
100
AcDbSpline
210
0.0
220
0.0
230
1.0
 70
    11
 71
     3
 72
    60
 73
    56
 74
     0
 42
0.000000001
 43
0.00000001
 40
0.0
 40
0.0
 40
0.0
 40
0.0
 40
0.0312499999999998
 40
0.0312499999999998
 40
0.0624999999999997
 40
0.0624999999999997
 40
0.0937499999999995
 40
0.0937499999999995
 40
0.1249999999999994
 40
0.1249999999999994
 40
0.1874999999999989
 40
0.1874999999999989
 40
0.2499999999999984
 40
0.2499999999999984
 40
0.2812499999999983
 40
0.2812499999999983
 40
0.3124999999999983
 40
0.3124999999999983
 40
0.3437499999999983
 40
0.3437499999999983
 40
0.3749999999999982
 40
0.3749999999999982
 40
0.4062499999999982
 40
0.4062499999999982
 40
0.4374999999999981
 40
0.4374999999999981
 40
0.4687499999999981
 40
0.4687499999999981
 40
0.499999999999998
 40
0.499999999999998
 40
0.5624999999999979
 40
0.5624999999999979
 40
0.6249999999999978
 40
0.6249999999999978
 40
0.656249999999998
 40
0.656249999999998
 40
0.6874999999999982
 40
0.6874999999999982
 40
0.7187499999999983
 40
0.7187499999999983
 40
0.7499999999999986
 40
0.7499999999999986
 40
0.7812499999999988
 40
0.7812499999999988
 40
0.8124999999999989
 40
0.8124999999999989
 40
0.8437499999999991
 40
0.8437499999999991
 40
0.8749999999999992
 40
0.8749999999999992
 40
0.9062499999999994
 40
0.9062499999999994
 40
0.9374999999999997
 40
0.9374999999999997
 40
1.0
 40
1.0
 40
1.0
 40
1.0
 10
188.4232709914671
 20
127.2976420278909
 30
0.0
 10
188.4232709914671
 20
127.4298072904343
 30
0.0
 10
188.4362428499559
 20
127.5597573514384
 30
0.0
 10
188.4870630196483
 20
127.8154102847985
 30
0.0
 10
188.5255303431152
 20
127.9424397913478
 30
0.0
 10
188.6259285791873
 20
128.1846279224723
 30
0.0
 10
188.6873616101605
 20
128.2994894150252
 30
0.0
 10
188.8324964417054
 20
128.5168696108493
 30
0.0
 10
188.9169515591133
 20
128.619767178048
 30
0.0
 10
189.1936710094716
 20
128.8964342170558
 30
0.0
 10
189.4167479013896
 20
129.0454323075357
 30
0.0
 10
189.89803126361
 20
129.2449434480004
 30
0.0
 10
190.161261682601
 20
129.2975015509971
 30
0.0
 10
190.5526638842889
 20
129.2977118333752
 30
0.0
 10
190.6851869123978
 20
129.2847260626481
 30
0.0
 10
190.9417173656388
 20
129.2336989144343
 30
0.0
 10
191.0664041999354
 20
129.1959437152839
 30
0.0
 10
191.308583462171
 20
129.0958053823751
 30
0.0
 10
191.425676994321
 20
129.0331997149636
 30
0.0
 10
191.6423919976765
 20
128.8884664216987
 30
0.0
 10
191.7434108245392
 20
128.8058390744191
 30
0.0
 10
191.9301957119914
 20
128.6192340211675
 30
0.0
 10
192.0130525931876
 20
128.5181189572913
 30
0.0
 10
192.1579368582614
 20
128.3015861533015
 30
0.0
 10
192.2205743660823
 20
128.1847159457004
 30
0.0
 10
192.3210231894821
 20
127.9424180750502
 30
0.0
 10
192.3588742904993
 20
127.8177540765892
 30
0.0
 10
192.4100958557556
 20
127.5614670325254
 30
0.0
 10
192.4232239823729
 20
127.4288950367798
 30
0.0
 10
192.4233646227131
 20
127.0372908440058
 30
0.0
 10
192.3710398733413
 20
126.7741255126818
 30
0.0
 10
192.171928811284
 20
126.2926201435087
 30
0.0
 10
192.0230664748267
 20
126.0693686040246
 30
0.0
 10
191.7467455155013
 20
125.7925123051357
 30
0.0
 10
191.6439818671277
 20
125.707998858292
 30
0.0
 10
191.4265983097482
 20
125.5625815848518
 30
0.0
 10
191.3117995417917
 20
125.5010703857934
 30
0.0
 10
191.0699228183677
 20
125.4005405375386
 30
0.0
 10
190.9427692103675
 20
125.3618955143206
 30
0.0
 10
190.6871032009349
 20
125.3108391867696
 30
0.0
 10
190.5572371631789
 20
125.297774328224
 30
0.0
 10
190.2932846364473
 20
125.297511707426
 30
0.0
 10
190.1628803130232
 20
125.3103887076701
 30
0.0
 10
189.9072295496439
 20
125.3609747114758
 30
0.0
 10
189.7803640005295
 20
125.3992510760977
 30
0.0
 10
189.5378435425836
 20
125.4995219435777
 30
0.0
 10
189.4229169039233
 20
125.5608779677186
 30
0.0
 10
189.2055454350913
 20
125.7057242628914
 30
0.0
 10
189.102531622429
 20
125.790101777386
 30
0.0
 10
188.9178310768471
 20
125.9745090975743
 30
0.0
 10
188.8350013425905
 20
126.0750821608437
 30
0.0
 10
188.688748903993
 20
126.2933083014227
 30
0.0
 10
188.6263804232006
 20
126.409863411344
 30
0.0
 10
188.4764242716339
 20
126.7707130053778
 30
0.0
 10
188.4232709914671
 20
127.0333115028042
 30
0.0
 10
188.4232709914671
 20
127.2976420278909
 30
0.0
  0
SPLINE
  5
F8
330
1F
100
AcDbEntity
  8
0
  6
HIDDEN
 62
     7
370
    18
100
AcDbSpline
210
0.0
220
0.0
230
1.0
 70
     8
 71
     3
 72
    12
 73
     8
 74
     0
 42
0.000000001
 43
0.00000001
 40
0.0
 40
0.0
 40
0.0
 40
0.0
 40
0.2500000000000001
 40
0.2500000000000001
 40
0.5000000000000001
 40
0.5000000000000001
 40
1.0
 40
1.0
 40
1.0
 40
1.0
 10
188.9510278050335
 20
117.9095755965549
 30
0.0
 10
188.8879477665402
 20
117.9095755965549
 30
0.0
 10
188.8287991443587
 20
117.8842112773399
 30
0.0
 10
188.7303265942897
 20
117.810046416967
 30
0.0
 10
188.6912899823049
 20
117.7635260764129
 30
0.0
 10
188.5913935155259
 20
117.6133837335676
 30
0.0
 10
188.5489726344593
 20
117.5016905265955
 30
0.0
 10
188.5180151031413
 20
117.3882727072057
 30
0.0
  0
LINE
  5
F9
330
1F
100
AcDbEntity
  8
0
  6
HIDDEN
 62
     7
370
    18
100
AcDbLine
 10
191.8955141779
 20
117.9095755966
 30
0.0
 11
188.951027805
 21
117.9095755966
 31
0.0
  0
SPLINE
  5
FA
330
1F
100
AcDbEntity
  8
0
  6
HIDDEN
 62
     7
370
    18
100
AcDbSpline
210
0.0
220
0.0
230
1.0
 70
     8
 71
     3
 72
    12
 73
     8
 74
     0
 42
0.000000001
 43
0.00000001
 40
0.0
 40
0.0
 40
0.0
 40
0.0
 40
0.4999999999999981
 40
0.4999999999999981
 40
0.749999999999999
 40
0.749999999999999
 40
1.0
 40
1.0
 40
1.0
 40
1.0
 10
192.3285268797929
 20
117.3882727072057
 30
0.0
 10
192.2978046378738
 20
117.5008285066149
 30
0.0
 10
192.2549674233386
 20
117.6135863663545
 30
0.0
 10
192.1555403991388
 20
117.7631272521509
 30
0.0
 10
192.1157882043221
 20
117.8104199838577
 30
0.0
 10
192.0177467474639
 20
117.8841562771792
 30
0.0
 10
191.9581906918765
 20
117.9095755965549
 30
0.0
 10
191.8955141779006
 20
117.9095755965549
 30
0.0
  0
ELLIPSE
  5
FB
330
1F
100
AcDbEntity
  8
0
  6
HIDDEN
 62
     7
370
    18
100
AcDbEllipse
 10
176.0761168021
 20
127.2976420279
 30
0.0
 11
-14.75368316065618
 21
31.09325491558116
 31
0.0
210
0.0
220
0.0
230
1.0
 40
0.3419987131
 41
3.300734856217132
 42
4.23149622336078
  0
SPLINE
  5
FC
330
1F
100
AcDbEntity
  8
0
  6
HIDDEN
 62
     7
370
    18
100
AcDbSpline
210
0.0
220
0.0
230
1.0
 70
     8
 71
     3
 72
    12
 73
     8
 74
     0
 42
0.000000001
 43
0.00000001
 40
0.0
 40
0.0
 40
0.0
 40
0.0
 40
0.2499999999999982
 40
0.2499999999999982
 40
0.4999999999999963
 40
0.4999999999999963
 40
1.0
 40
1.0
 40
1.0
 40
1.0
 10
191.8955141779006
 20
97.22915006901783
 30
0.0
 10
191.958594216394
 20
97.22915006901783
 30
0.0
 10
192.0177428385754
 20
97.23705599523028
 30
0.0
 10
192.1162153886445
 20
97.26038115666653
 30
0.0
 10
192.1552520006292
 20
97.27509394649823
 30
0.0
 10
192.2551484674083
 20
97.32304974722915
 30
0.0
 10
192.2975693484749
 20
97.35931190380921
 30
0.0
 10
192.3285268797929
 20
97.39689956777372
 30
0.0
  0
LINE
  5
FD
330
1F
100
AcDbEntity
  8
0
  6
HIDDEN
 62
     7
370
    18
100
AcDbLine
 10
188.951027805
 20
97.229150069
 30
0.0
 11
191.8955141779
 21
97.229150069
 31
0.0
  0
SPLINE
  5
FE
330
1F
100
AcDbEntity
  8
0
  6
HIDDEN
 62
     7
370
    18
100
AcDbSpline
210
0.0
220
0.0
230
1.0
 70
     8
 71
     3
 72
    12
 73
     8
 74
     0
 42
0.000000001
 43
0.00000001
 40
0.0
 40
0.0
 40
0.0
 40
0.0
 40
0.4999999999999971
 40
0.4999999999999971
 40
0.7499999999999986
 40
0.7499999999999986
 40
1.0
 40
1.0
 40
1.0
 40
1.0
 10
188.5180151031413
 20
97.39689956777372
 30
0.0
 10
188.5487373450604
 20
97.35959758482066
 30
0.0
 10
188.5915745595956
 20
97.32298575277427
 30
0.0
 10
188.6910015837954
 20
97.27522096948907
 30
0.0
 10
188.730753778612
 20
97.26026345400669
 30
0.0
 10
188.8287952354702
 20
97.23707350823756
 30
0.0
 10
188.8883512910577
 20
97.22915006901785
 30
0.0
 10
188.9510278050335
 20
97.22915006901785
 30
0.0
  0
ELLIPSE
  5
FF
330
1F
100
AcDbEntity
  8
0
  6
HIDDEN
 62
     7
370
    18
100
AcDbEllipse
 10
204.7704251808
 20
127.2976420279
 30
0.0
 11
14.75368316065615
 21
31.09325491558116
 31
0.0
210
0.0
220
0.0
230
1.0
 40
0.3419987131
 41
2.051689083818822
 42
2.982450450962497
  0
SPLINE
  5
100
330
1F
100
AcDbEntity
  8
0
  6
HIDDEN
 62
     7
370
    18
100
AcDbSpline
210
0.0
220
0.0
230
1.0
 70
     8
 71
     3
 72
    12
 73
     8
 74
     0
 42
0.000000001
 43
0.00000001
 40
0.0
 40
0.0
 40
0.0
 40
0.0
 40
0.2500000000000009
 40
0.2500000000000009
 40
0.5000000000000019
 40
0.5000000000000019
 40
1.0
 40
1.0
 40
1.0
 40
1.0
 10
188.9510278050335
 20
157.3661339867641
 30
0.0
 10
188.8879477665402
 20
157.3661339867641
 30
0.0
 10
188.8287991443588
 20
157.3582280605517
 30
0.0
 10
188.7303265942897
 20
157.3349028991154
 30
0.0
 10
188.691289982305
 20
157.3201901092838
 30
0.0
 10
188.5913935155259
 20
157.2722343085528
 30
0.0
 10
188.5489726344593
 20
157.2359721519728
 30
0.0
 10
188.5180151031413
 20
157.1983844880083
 30
0.0
  0
LINE
  5
101
330
1F
100
AcDbEntity
  8
0
  6
HIDDEN
 62
     7
370
    18
100
AcDbLine
 10
191.8955141779
 20
157.3661339868
 30
0.0
 11
188.951027805
 21
157.3661339868
 31
0.0
  0
SPLINE
  5
102
330
1F
100
AcDbEntity
  8
0
  6
HIDDEN
 62
     7
370
    18
100
AcDbSpline
210
0.0
220
0.0
230
1.0
 70
     8
 71
     3
 72
    12
 73
     8
 74
     0
 42
0.000000001
 43
0.00000001
 40
0.0
 40
0.0
 40
0.0
 40
0.0
 40
0.5000000000000037
 40
0.5000000000000037
 40
0.7500000000000018
 40
0.7500000000000018
 40
1.0
 40
1.0
 40
1.0
 40
1.0
 10
192.3285268797929
 20
157.1983844880083
 30
0.0
 10
192.2978046378738
 20
157.2356864709613
 30
0.0
 10
192.2549674233386
 20
157.2722983030077
 30
0.0
 10
192.1555403991388
 20
157.3200630862929
 30
0.0
 10
192.1157882043222
 20
157.3350206017753
 30
0.0
 10
192.0177467474639
 20
157.3582105475444
 30
0.0
 10
191.9581906918764
 20
157.3661339867641
 30
0.0
 10
191.8955141779006
 20
157.3661339867641
 30
0.0
  0
ELLIPSE
  5
103
330
1F
100
AcDbEntity
  8
0
  6
HIDDEN
 62
     7
370
    18
100
AcDbEllipse
 10
176.0761168021
 20
127.2976420279
 30
0.0
 11
14.75368316065638
 21
31.09325491558116
 31
0.0
210
0.0
220
0.0
230
1.0
 40
0.3419987131
 41
5.193281737408638
 42
6.124043104552343
  0
SPLINE
  5
104
330
1F
100
AcDbEntity
  8
0
  6
HIDDEN
 62
     7
370
    18
100
AcDbSpline
210
0.0
220
0.0
230
1.0
 70
     8
 71
     3
 72
    12
 73
     8
 74
     0
 42
0.000000001
 43
0.00000001
 40
0.0
 40
0.0
 40
0.0
 40
0.0
 40
0.2500000000000009
 40
0.2500000000000009
 40
0.5000000000000018
 40
0.5000000000000018
 40
1.0
 40
1.0
 40
1.0
 40
1.0
 10
191.8955141779006
 20
136.6857084592274
 30
0.0
 10
191.958594216394
 20
136.6857084592274
 30
0.0
 10
192.0177428385754
 20
136.7110727784423
 30
0.0
 10
192.1162153886445
 20
136.7852376388153
 30
0.0
 10
192.1552520006292
 20
136.8317579793694
 30
0.0
 10
192.2551484674083
 20
136.9819003222146
 30
0.0
 10
192.2975693484749
 20
137.0935935291868
 30
0.0
 10
192.3285268797929
 20
137.2070113485765
 30
0.0
  0
LINE
  5
105
330
1F
100
AcDbEntity
  8
0
  6
HIDDEN
 62
     7
370
    18
100
AcDbLine
 10
188.951027805
 20
136.6857084592
 30
0.0
 11
191.8955141779
 21
136.6857084592
 31
0.0
  0
SPLINE
  5
106
330
1F
100
AcDbEntity
  8
0
  6
HIDDEN
 62
     7
370
    18
100
AcDbSpline
210
0.0
220
0.0
230
1.0
 70
     8
 71
     3
 72
    12
 73
     8
 74
     0
 42
0.000000001
 43
0.00000001
 40
0.0
 40
0.0
 40
0.0
 40
0.0
 40
0.4999999999999971
 40
0.4999999999999971
 40
0.7499999999999986
 40
0.7499999999999986
 40
1.0
 40
1.0
 40
1.0
 40
1.0
 10
188.5180151031413
 20
137.2070113485765
 30
0.0
 10
188.5487373450604
 20
137.0944555491673
 30
0.0
 10
188.5915745595956
 20
136.9816976894278
 30
0.0
 10
188.6910015837954
 20
136.8321568036314
 30
0.0
 10
188.730753778612
 20
136.7848640719245
 30
0.0
 10
188.8287952354702
 20
136.7111277786031
 30
0.0
 10
188.8883512910577
 20
136.6857084592274
 30
0.0
 10
188.9510278050335
 20
136.6857084592274
 30
0.0
  0
ELLIPSE
  5
107
330
1F
100
AcDbEntity
  8
0
  6
HIDDEN
 62
     7
370
    18
100
AcDbEllipse
 10
204.7704251808
 20
127.2976420279
 30
0.0
 11
-14.75368316065629
 21
31.09325491558115
 31
0.0
210
0.0
220
0.0
230
1.0
 40
0.3419987131
 41
0.1591422026272801
 42
1.08990356977096
  0
LINE
  5
108
330
1F
100
AcDbEntity
  8
0
  6
HIDDEN
 62
     7
370
    18
100
AcDbLine
 10
200.4232709915
 20
96.7976420279
 30
0.0
 11
200.4232709915
 21
157.7976420279
 31
0.0
  0
LINE
  5
109
330
1F
100
AcDbEntity
  8
0
  6
HIDDEN
 62
     7
370
    18
100
AcDbLine
 10
178.4232709915
 20
96.2976420279
 30
0.0
 11
178.4232709915
 21
158.2976420279
 31
0.0
  0
LINE
  5
10A
330
1F
100
AcDbEntity
  8
0
  6
HIDDEN
 62
     7
370
    18
100
AcDbLine
 10
200.4232709915
 20
101.7976420279
 30
0.0
 11
200.4232709915
 21
152.7976420279
 31
0.0
  0
LINE
  5
10B
330
1F
100
AcDbEntity
  8
0
  6
HIDDEN
 62
     7
370
    18
100
AcDbLine
 10
178.5161642103
 20
103.1405352467
 30
0.0
 11
178.5161642103
 21
151.4547488091
 31
0.0
  0
LINE
  5
10C
330
1F
100
AcDbEntity
  8
0
  6
HIDDEN
 62
     7
370
    18
100
AcDbLine
 10
178.4232709915
 20
103.0476420279
 30
0.0
 11
178.4232709915
 21
151.5476420279
 31
0.0
  0
SPLINE
  5
10D
330
1F
100
AcDbEntity
  8
0
  6
HIDDEN
 62
     7
370
    18
100
AcDbSpline
210
0.0
220
0.0
230
1.0
 70
     8
 71
     3
 72
    12
 73
     8
 74
     0
 42
0.000000001
 43
0.00000001
 40
0.0
 40
0.0
 40
0.0
 40
0.0
 40
0.5000000000000002
 40
0.5000000000000002
 40
0.75
 40
0.75
 40
1.0
 40
1.0
 40
1.0
 40
1.0
 10
177.6067587050117
 20
142.7499100097289
 30
0.0
 10
177.6631648836924
 20
142.7020876360669
 30
0.0
 10
177.7333277851644
 20
142.6618167891257
 30
0.0
 10
177.8513384985563
 20
142.653770920646
 30
0.0
 10
177.891544282153
 20
142.6603335189843
 30
0.0
 10
177.9652649788881
 20
142.687715613438
 30
0.0
 10
177.9981257006756
 20
142.7074771039688
 30
0.0
 10
178.0282941026056
 20
142.7304098151574
 30
0.0
  0
SPLINE
  5
10E
330
1F
100
AcDbEntity
  8
0
  6
HIDDEN
 62
     7
370
    18
100
AcDbSpline
210
0.0
220
0.0
230
1.0
 70
     8
 71
     3
 72
    16
 73
    12
 74
     0
 42
0.000000001
 43
0.00000001
 40
0.0
 40
0.0
 40
0.0
 40
0.0
 40
0.0625000000000036
 40
0.0625000000000036
 40
0.1250000000000071
 40
0.1250000000000071
 40
0.2500000000000061
 40
0.2500000000000061
 40
0.500000000000004
 40
0.500000000000004
 40
1.0
 40
1.0
 40
1.0
 40
1.0
 10
178.0282941025604
 20
142.7304098152055
 30
0.0
 10
178.0399070023998
 20
142.7392374381868
 30
0.0
 10
178.0532581868323
 20
142.7470718200688
 30
0.0
 10
178.0826580264514
 20
142.7553819461411
 30
0.0
 10
178.0974987510067
 20
142.7548861269061
 30
0.0
 10
178.1333319589753
 20
142.7434351559368
 30
0.0
 10
178.1474451667969
 20
142.7267546550781
 30
0.0
 10
178.1819365380158
 20
142.6746339693211
 30
0.0
 10
178.1930206091262
 20
142.6348444752961
 30
0.0
 10
178.2191434269222
 20
142.511507843199
 30
0.0
 10
178.2232709914671
 20
142.4240864327003
 30
0.0
 10
178.2232709914671
 20
142.3353491903821
 30
0.0
  0
LINE
  5
10F
330
1F
100
AcDbEntity
  8
0
  6
HIDDEN
 62
     7
370
    18
100
AcDbLine
 10
178.2232709915
 20
112.2599348654
 30
0.0
 11
178.2232709915
 21
142.3353491904
 31
0.0
  0
SPLINE
  5
110
330
1F
100
AcDbEntity
  8
0
  6
HIDDEN
 62
     7
370
    18
100
AcDbSpline
210
0.0
220
0.0
230
1.0
 70
     8
 71
     3
 72
    16
 73
    12
 74
     0
 42
0.000000001
 43
0.00000001
 40
0.0
 40
0.0
 40
0.0
 40
0.0
 40
0.4999999999999973
 40
0.4999999999999973
 40
0.7499999999999933
 40
0.7499999999999933
 40
0.8749999999999966
 40
0.8749999999999966
 40
0.9374999999999982
 40
0.9374999999999982
 40
1.0
 40
1.0
 40
1.0
 40
1.0
 10
178.2232709914671
 20
112.2599348653998
 30
0.0
 10
178.2232709914671
 20
112.170808500211
 30
0.0
 10
178.2191247163892
 20
112.0839471325976
 30
0.0
 10
178.1931591209956
 20
111.9609648861036
 30
0.0
 10
178.1816982156182
 20
111.9201935908723
 30
0.0
 10
178.1473864778438
 20
111.8684892708725
 30
0.0
 10
178.1333617419142
 20
111.8518189042821
 30
0.0
 10
178.0973387788804
 20
111.8403666838254
 30
0.0
 10
178.0825842697907
 20
111.8399136375503
 30
0.0
 10
178.0532321086439
 20
111.8482289587665
 30
0.0
 10
178.0398922341398
 20
111.8560578438448
 30
0.0
 10
178.0282941025914
 20
111.8648742406074
 30
0.0
  0
SPLINE
  5
111
330
1F
100
AcDbEntity
  8
0
  6
HIDDEN
 62
     7
370
    18
100
AcDbSpline
210
0.0
220
0.0
230
1.0
 70
     8
 71
     3
 72
    12
 73
     8
 74
     0
 42
0.000000001
 43
0.00000001
 40
0.0
 40
0.0
 40
0.0
 40
0.0
 40
0.2500000000000004
 40
0.2500000000000004
 40
0.5000000000000008
 40
0.5000000000000008
 40
1.0
 40
1.0
 40
1.0
 40
1.0
 10
178.0282941025985
 20
111.8648742406163
 30
0.0
 10
177.9981022608813
 20
111.8878247697141
 30
0.0
 10
177.9647432914667
 20
111.9077942437383
 30
0.0
 10
177.8916060068861
 20
111.9348953773638
 30
0.0
 10
177.8513641342321
 20
111.9414961180092
 30
0.0
 10
177.7336583572636
 20
111.9335272435025
 30
0.0
 10
177.6632478794842
 20
111.8932667853347
 30
0.0
 10
177.6067587050159
 20
111.8453740460565
 30
0.0
  0
SPLINE
  5
112
330
1F
100
AcDbEntity
  8
0
  6
HIDDEN
 62
     7
370
    18
100
AcDbSpline
210
0.0
220
0.0
230
1.0
 70
     8
 71
     3
 72
    12
 73
     8
 74
     0
 42
0.000000001
 43
0.00000001
 40
0.0
 40
0.0
 40
0.0
 40
0.0
 40
0.2499999999999977
 40
0.2499999999999977
 40
0.4999999999999953
 40
0.4999999999999953
 40
1.0
 40
1.0
 40
1.0
 40
1.0
 10
177.6067587050156
 20
111.8453740460567
 30
0.0
 10
177.5186047672778
 20
111.7706352382026
 30
0.0
 10
177.4582513426491
 20
111.6796547377203
 30
0.0
 10
177.3519893845823
 20
111.4907409149677
 30
0.0
 10
177.3097572180202
 20
111.3942364554271
 30
0.0
 10
177.198686522703
 20
111.1034687012599
 30
0.0
 10
177.1457497462762
 20
110.9078018867162
 30
0.0
 10
177.1019506479074
 20
110.7137354016499
 30
0.0
  0
LINE
  5
113
330
1F
100
AcDbEntity
  8
0
  6
HIDDEN
 62
     7
370
    18
100
AcDbLine
 10
177.1019506479
 20
110.7137354016
 30
0.0
 11
177.1019506479
 21
105.5275610729
 31
0.0
  0
SPLINE
  5
114
330
1F
100
AcDbEntity
  8
0
  6
HIDDEN
 62
     7
370
    18
100
AcDbSpline
210
0.0
220
0.0
230
1.0
 70
     8
 71
     3
 72
    12
 73
     8
 74
     0
 42
0.000000001
 43
0.00000001
 40
0.0
 40
0.0
 40
0.0
 40
0.0
 40
0.4999999999999991
 40
0.4999999999999991
 40
0.7499999999999996
 40
0.7499999999999996
 40
1.0
 40
1.0
 40
1.0
 40
1.0
 10
177.1019506479074
 20
105.5275610728888
 30
0.0
 10
177.145697188744
 20
105.5009669022476
 30
0.0
 10
177.1985815439755
 20
105.4812066769219
 30
0.0
 10
177.3101486313117
 20
105.4607556866928
 30
0.0
 10
177.3527322278547
 20
105.4554954620364
 30
0.0
 10
177.4576489549364
 20
105.4476126681137
 30
0.0
 10
177.5191825627813
 20
105.4450485429346
 30
0.0
 10
177.6067587050074
 20
105.442848325415
 30
0.0
  0
LINE
  5
115
330
1F
100
AcDbEntity
  8
0
  6
HIDDEN
 62
     7
370
    18
100
AcDbLine
 10
178.2232709915
 20
104.757821749
 30
0.0
 11
178.2232709915
 21
105.2380475396
 31
0.0
  0
LINE
  5
116
330
1F
100
AcDbEntity
  8
0
  6
HIDDEN
 62
     7
370
    18
100
AcDbLine
 10
178.2232709915
 20
149.3572365161
 30
0.0
 11
178.2232709915
 21
149.8374623068
 31
0.0
  0
SPLINE
  5
117
330
1F
100
AcDbEntity
  8
0
  6
HIDDEN
 62
     7
370
    18
100
AcDbSpline
210
0.0
220
0.0
230
1.0
 70
     8
 71
     3
 72
    12
 73
     8
 74
     0
 42
0.000000001
 43
0.00000001
 40
0.0
 40
0.0
 40
0.0
 40
0.0
 40
0.2499999999999997
 40
0.2499999999999997
 40
0.4999999999999992
 40
0.4999999999999992
 40
1.0
 40
1.0
 40
1.0
 40
1.0
 10
177.6067587050154
 20
149.1524357303668
 30
0.0
 10
177.518074045159
 20
149.1502076630258
 30
0.0
 10
177.4581556294356
 20
149.1477058789955
 30
0.0
 10
177.3524964021149
 20
149.1397744431595
 30
0.0
 10
177.3098551639999
 20
149.1344822882627
 30
0.0
 10
177.1986658218974
 20
149.1140773477755
 30
0.0
 10
177.1457391397764
 20
149.0943426561886
 30
0.0
 10
177.1019506479074
 20
149.067722982893
 30
0.0
  0
LINE
  5
118
330
1F
100
AcDbEntity
  8
0
  6
HIDDEN
 62
     7
370
    18
100
AcDbLine
 10
177.1019506479
 20
149.0677229829
 30
0.0
 11
177.1019506479
 21
143.8815486541
 31
0.0
  0
SPLINE
  5
119
330
1F
100
AcDbEntity
  8
0
  6
HIDDEN
 62
     7
370
    18
100
AcDbSpline
210
0.0
220
0.0
230
1.0
 70
     8
 71
     3
 72
    12
 73
     8
 74
     0
 42
0.000000001
 43
0.00000001
 40
0.0
 40
0.0
 40
0.0
 40
0.0
 40
0.4999999999999989
 40
0.4999999999999989
 40
0.7499999999999994
 40
0.7499999999999994
 40
1.0
 40
1.0
 40
1.0
 40
1.0
 10
177.1019506479059
 20
143.8815486541322
 30
0.0
 10
177.1457121242043
 20
143.6876488661713
 30
0.0
 10
177.198618439857
 20
143.4917925022358
 30
0.0
 10
177.3103296375032
 20
143.1996503557386
 30
0.0
 10
177.3528490810891
 20
143.1029324190413
 30
0.0
 10
177.457972423655
 20
142.9162079826177
 30
0.0
 10
177.5195383873719
 20
142.8238572743485
 30
0.0
 10
177.6067587050125
 20
142.7499100097282
 30
0.0
  0
LINE
  5
11A
330
1F
100
AcDbEntity
  8
0
  6
HIDDEN
 62
     7
370
    18
100
AcDbLine
 10
250.4232709915
 20
148.2976420279
 30
0.0
 11
250.4232709915
 21
106.2976420279
 31
0.0
  0
LINE
  5
11B
330
1F
100
AcDbEntity
  8
0
  6
HIDDEN
 62
     7
370
    18
100
AcDbLine
 10
248.9232709915
 20
149.7976420279
 30
0.0
 11
248.9232709915
 21
104.7976420279
 31
0.0
  0
CIRCLE
  5
11C
330
1F
100
AcDbEntity
  8
0
  6
HIDDEN
 62
     7
370
    18
100
AcDbCircle
 10
233.4232709915
 20
127.2976420279
 30
0.0
 40
5.0
  0
CIRCLE
  5
11D
330
1F
100
AcDbEntity
  8
0
  6
HIDDEN
 62
     7
370
    18
100
AcDbCircle
 10
210.4232709915
 20
127.2976420279
 30
0.0
 40
5.0
  0
LINE
  5
11E
330
1F
100
AcDbEntity
  8
0
  6
HIDDEN
 62
     7
370
    18
100
AcDbLine
 10
178.2232709915
 20
105.2380475396
 30
0.0
 11
178.2232709915
 21
120.2757547021
 31
0.0
  0
LINE
  5
11F
330
1F
100
AcDbEntity
  8
0
  6
HIDDEN
 62
     7
370
    18
100
AcDbLine
 10
178.2232709915
 20
134.3195293536
 30
0.0
 11
178.2232709915
 21
149.3572365161
 31
0.0
  0
CIRCLE
  5
120
330
1F
100
AcDbEntity
  8
0
  6
HIDDEN
 62
     7
370
    18
100
AcDbCircle
 10
162.9232709915
 20
127.2976420279
 30
0.0
 40
4.049999999999983
  0
LINE
  5
121
330
1F
100
AcDbEntity
  8
0
  6
HIDDEN
 62
     7
370
    18
100
AcDbLine
 10
141.9534994311
 20
142.6105930708
 30
0.0
 11
141.9534994311
 21
111.984690985
 31
0.0
  0
LINE
  5
122
330
1F
100
AcDbEntity
  8
0
  6
HIDDEN
 62
     7
370
    18
100
AcDbLine
 10
140.4232709915
 20
111.1012131834
 30
0.0
 11
140.4232709915
 21
143.4762692395
 31
0.0
  0
LINE
  5
123
330
1F
100
AcDbEntity
  8
0
  6
HIDDEN
 62
     7
370
    18
100
AcDbLine
 10
150.4232709915
 20
111.2976420279
 30
0.0
 11
150.4232709915
 21
143.2976420279
 31
0.0
  0
LINE
  5
124
330
1F
100
AcDbEntity
  8
0
  6
HIDDEN
 62
     7
370
    18
100
AcDbLine
 10
151.4250723064
 20
111.2976420279
 30
0.0
 11
151.4250723064
 21
143.2976420279
 31
0.0
  0
LINE
  5
125
330
1F
100
AcDbEntity
  8
0
  6
HIDDEN
 62
     7
370
    18
100
AcDbLine
 10
152.8392858687
 20
111.8834284655
 30
0.0
 11
152.8392858687
 21
142.6938552853
 31
0.0
  0
LINE
  5
126
330
1F
100
AcDbEntity
  8
0
  6
HIDDEN
 62
     7
370
    18
100
AcDbLine
 10
148.4534994311
 20
141.6440521894
 30
0.0
 11
148.4534994311
 21
112.9512318664
 31
0.0
  0
LINE
  5
127
330
1F
100
AcDbEntity
  8
0
  6
HIDDEN
 62
     7
370
    18
100
AcDbLine
 10
154.2534994311
 20
141.2976420279
 30
0.0
 11
154.2534994311
 21
113.2976420279
 31
0.0
  0
LINE
  5
128
330
1F
100
AcDbEntity
  8
0
  6
HIDDEN
 62
     7
370
    18
100
AcDbLine
 10
146.8534994311
 20
141.2976420279
 30
0.0
 11
146.8534994311
 21
113.2976420279
 31
0.0
  0
LINE
  5
129
330
1F
100
AcDbEntity
  8
0
  6
HIDDEN
 62
     7
370
    18
100
AcDbLine
 10
147.8534994311
 20
141.2976420279
 30
0.0
 11
147.8534994311
 21
113.2976420279
 31
0.0
  0
LINE
  5
12A
330
1F
100
AcDbEntity
  8
0
  6
HIDDEN
 62
     7
370
    18
100
AcDbLine
 10
166.9232709915
 20
126.6632131509
 30
0.0
 11
166.9232709915
 21
113.2976420279
 31
0.0
  0
SPLINE
  5
12B
330
1F
100
AcDbEntity
  8
0
  6
HIDDEN
 62
     7
370
    18
100
AcDbSpline
210
0.0
220
0.0
230
1.0
 70
     8
 71
     3
 72
    10
 73
     6
 74
     0
 42
0.000000001
 43
0.00000001
 40
0.0
 40
0.0
 40
0.0
 40
0.0
 40
0.5
 40
0.5
 40
1.0
 40
1.0
 40
1.0
 40
1.0
 10
166.9232709914671
 20
127.9320709049134
 30
0.0
 10
166.9564184095435
 20
127.7230803039054
 30
0.0
 10
166.9732772549052
 20
127.5115178378838
 30
0.0
 10
166.9732647245575
 20
127.0835290719162
 30
0.0
 10
166.9563497668171
 20
126.8717709675006
 30
0.0
 10
166.9232709914671
 20
126.6632131508685
 30
0.0
  0
LINE
  5
12C
330
1F
100
AcDbEntity
  8
0
  6
HIDDEN
 62
     7
370
    18
100
AcDbLine
 10
166.9232709915
 20
127.9320709049
 30
0.0
 11
166.9232709915
 21
141.2976420279
 31
0.0
  0
LINE
  5
12D
330
1F
100
AcDbEntity
  8
0
  6
HIDDEN
 62
     7
370
    18
100
AcDbLine
 10
167.4232709915
 20
140.7976420088
 30
0.0
 11
167.4232709915
 21
113.7976420279
 31
0.0
  0
SPLINE
  5
12E
330
1F
100
AcDbEntity
  8
0
  6
HIDDEN
 62
     7
370
    18
100
AcDbSpline
210
0.0
220
0.0
230
1.0
 70
     8
 71
     3
 72
    10
 73
     6
 74
     0
 42
0.000000001
 43
0.00000001
 40
0.0
 40
0.0
 40
0.0
 40
0.0
 40
0.5
 40
0.5
 40
1.0
 40
1.0
 40
1.0
 40
1.0
 10
166.9232709914671
 20
126.6632131508685
 30
0.0
 10
166.9564599539408
 20
126.8724656844509
 30
0.0
 10
166.9731607301954
 20
127.0832824453499
 30
0.0
 10
166.9733801706401
 20
127.5078147265531
 30
0.0
 10
166.9565004552467
 20
127.7225630153257
 30
0.0
 10
166.9232709914671
 20
127.9320709049134
 30
0.0
  0
SPLINE
  5
12F
330
1F
100
AcDbEntity
  8
0
  6
HIDDEN
 62
     7
370
    18
100
AcDbSpline
210
0.0
220
0.0
230
1.0
 70
     8
 71
     3
 72
    68
 73
    64
 74
     0
 42
0.000000001
 43
0.00000001
 40
0.0
 40
0.0
 40
0.0
 40
0.0
 40
0.03125
 40
0.03125
 40
0.0625000000000001
 40
0.0625000000000001
 40
0.0937500000000001
 40
0.0937500000000001
 40
0.1250000000000001
 40
0.1250000000000001
 40
0.1562500000000002
 40
0.1562500000000002
 40
0.1875000000000002
 40
0.1875000000000002
 40
0.2187500000000002
 40
0.2187500000000002
 40
0.2500000000000002
 40
0.2500000000000002
 40
0.2812500000000002
 40
0.2812500000000002
 40
0.3125000000000002
 40
0.3125000000000002
 40
0.3437500000000002
 40
0.3437500000000002
 40
0.3750000000000002
 40
0.3750000000000002
 40
0.4062500000000002
 40
0.4062500000000002
 40
0.4375000000000002
 40
0.4375000000000002
 40
0.4687500000000002
 40
0.4687500000000002
 40
0.5000000000000001
 40
0.5000000000000001
 40
0.5625000000000002
 40
0.5625000000000002
 40
0.5937500000000001
 40
0.5937500000000001
 40
0.6250000000000001
 40
0.6250000000000001
 40
0.65625
 40
0.65625
 40
0.6875
 40
0.6875
 40
0.7187499999999999
 40
0.7187499999999999
 40
0.7499999999999998
 40
0.7499999999999998
 40
0.7812499999999998
 40
0.7812499999999998
 40
0.8124999999999997
 40
0.8124999999999997
 40
0.8437499999999998
 40
0.8437499999999998
 40
0.8749999999999998
 40
0.8749999999999998
 40
0.9062499999999999
 40
0.9062499999999999
 40
0.9374999999999999
 40
0.9374999999999999
 40
0.96875
 40
0.96875
 40
1.0
 40
1.0
 40
1.0
 40
1.0
 10
166.9232709914671
 20
126.6632131508685
 30
0.0
 10
166.8832560391174
 20
126.4109235480529
 30
0.0
 10
166.8203142377061
 20
126.166924697677
 30
0.0
 10
166.6509275756341
 20
125.6945063086145
 30
0.0
 10
166.5432340130486
 20
125.4640929224546
 30
0.0
 10
166.2879492445107
 20
125.0293883266575
 30
0.0
 10
166.1419100140384
 20
124.8267463600062
 30
0.0
 10
165.8136885774792
 20
124.4497570692483
 30
0.0
 10
165.6294412897042
 20
124.274099115671
 30
0.0
 10
165.2364811223959
 20
123.9638411467247
 30
0.0
 10
165.0271865254368
 20
123.8278959390748
 30
0.0
 10
164.5823010984994
 20
123.594505843669
 30
0.0
 10
164.3455035060004
 20
123.4972592372546
 30
0.0
 10
163.8647684370811
 20
123.3505877793832
 30
0.0
 10
163.6185253438983
 20
123.2996954344408
 30
0.0
 10
163.1138085639189
 20
123.2441680842053
 30
0.0
 10
162.8576138629824
 20
123.2403431971353
 30
0.0
 10
162.3552351137823
 20
123.2797669797798
 30
0.0
 10
162.1059854145987
 20
123.322794428991
 30
0.0
 10
161.61445761712
 20
123.4564993984423
 30
0.0
 10
161.3791620158941
 20
123.5451692443475
 30
0.0
 10
160.928248121232
 20
123.7642006081249
 30
0.0
 10
160.7106357707686
 20
123.8962021738084
 30
0.0
 10
160.3074286012203
 20
124.1955594548113
 30
0.0
 10
160.1218171087859
 20
124.3621783822492
 30
0.0
 10
159.7818290383833
 20
124.7292898076767
 30
0.0
 10
159.6267561075605
 20
124.9315935532174
 30
0.0
 10
159.3604130308971
 20
125.3556742328114
 30
0.0
 10
159.2474289301803
 20
125.5788338382776
 30
0.0
 10
159.0625736732494
 20
126.0481890798718
 30
0.0
 10
158.991432911746
 20
126.2943995832073
 30
0.0
 10
158.8974725004579
 20
126.7889254095785
 30
0.0
 10
158.8734631705015
 20
127.0398564046705
 30
0.0
 10
158.8728900498289
 20
127.8041017842267
 30
0.0
 10
158.9682891611475
 20
128.3063260862776
 30
0.0
 10
159.2461529533487
 20
129.01389059255
 30
0.0
 10
159.3593149094292
 20
129.2375968562908
 30
0.0
 10
159.6254460914731
 20
129.6618667676114
 30
0.0
 10
159.7802738656728
 20
129.8641187296675
 30
0.0
 10
160.1204549714606
 20
130.2318294710357
 30
0.0
 10
160.3059574284104
 20
130.398446346285
 30
0.0
 10
160.7082512294697
 20
130.6974957250804
 30
0.0
 10
160.9262592777217
 20
130.8299524331088
 30
0.0
 10
161.376857644872
 20
131.0491588338135
 30
0.0
 10
161.6114066437528
 20
131.1376439638172
 30
0.0
 10
162.0998666373051
 20
131.2711301937558
 30
0.0
 10
162.352132033019
 20
131.3150719062496
 30
0.0
 10
162.8543126711792
 20
131.354880902723
 30
0.0
 10
163.1067947885309
 20
131.3515366899096
 30
0.0
 10
163.6146598316004
 20
131.296357369919
 30
0.0
 10
163.8622053047842
 20
131.2453114414496
 30
0.0
 10
164.3431728422549
 20
131.098901053214
 30
0.0
 10
164.5791327073602
 20
131.0022548484404
 30
0.0
 10
165.0257031568818
 20
130.7683499041274
 30
0.0
 10
165.2353480194553
 20
130.6322248903008
 30
0.0
 10
165.6283347262097
 20
130.3221706259717
 30
0.0
 10
165.8127306300248
 20
130.1465133783966
 30
0.0
 10
166.1412810478851
 20
129.7693734557322
 30
0.0
 10
166.2872231444083
 20
129.5669072504623
 30
0.0
 10
166.5421084996105
 20
129.133330952329
 30
0.0
 10
166.6504198124188
 20
128.9020391087475
 30
0.0
 10
166.8202547898357
 20
128.4286794286142
 30
0.0
 10
166.8832501509728
 20
128.1843976317934
 30
0.0
 10
166.9232709914671
 20
127.9320709049134
 30
0.0
  0
SPLINE
  5
130
330
1F
100
AcDbEntity
  8
0
  6
HIDDEN
 62
     7
370
    18
100
AcDbSpline
210
0.0
220
0.0
230
1.0
 70
     8
 71
     3
 72
    68
 73
    64
 74
     0
 42
0.000000001
 43
0.00000001
 40
0.0
 40
0.0
 40
0.0
 40
0.0
 40
0.03125
 40
0.03125
 40
0.0625000000000001
 40
0.0625000000000001
 40
0.0937500000000001
 40
0.0937500000000001
 40
0.1250000000000001
 40
0.1250000000000001
 40
0.1562500000000002
 40
0.1562500000000002
 40
0.1875000000000002
 40
0.1875000000000002
 40
0.2187500000000002
 40
0.2187500000000002
 40
0.2500000000000002
 40
0.2500000000000002
 40
0.2812500000000002
 40
0.2812500000000002
 40
0.3125000000000002
 40
0.3125000000000002
 40
0.3437500000000002
 40
0.3437500000000002
 40
0.3750000000000002
 40
0.3750000000000002
 40
0.4062500000000002
 40
0.4062500000000002
 40
0.4375000000000002
 40
0.4375000000000002
 40
0.4687500000000002
 40
0.4687500000000002
 40
0.5000000000000001
 40
0.5000000000000001
 40
0.5625000000000002
 40
0.5625000000000002
 40
0.5937500000000001
 40
0.5937500000000001
 40
0.6250000000000001
 40
0.6250000000000001
 40
0.65625
 40
0.65625
 40
0.6875
 40
0.6875
 40
0.7187499999999999
 40
0.7187499999999999
 40
0.7499999999999998
 40
0.7499999999999998
 40
0.7812499999999998
 40
0.7812499999999998
 40
0.8124999999999997
 40
0.8124999999999997
 40
0.8437499999999998
 40
0.8437499999999998
 40
0.8749999999999998
 40
0.8749999999999998
 40
0.9062499999999999
 40
0.9062499999999999
 40
0.9374999999999999
 40
0.9374999999999999
 40
0.96875
 40
0.96875
 40
1.0
 40
1.0
 40
1.0
 40
1.0
 10
166.9232709914671
 20
127.9320709049134
 30
0.0
 10
166.8832560391174
 20
128.184360507729
 30
0.0
 10
166.8203142377061
 20
128.4283593581048
 30
0.0
 10
166.6509275756341
 20
128.9007777471673
 30
0.0
 10
166.5432340130486
 20
129.1311911333272
 30
0.0
 10
166.2879492445107
 20
129.5658957291243
 30
0.0
 10
166.1419100140384
 20
129.7685376957757
 30
0.0
 10
165.8136885774792
 20
130.1455269865335
 30
0.0
 10
165.6294412897042
 20
130.3211849401109
 30
0.0
 10
165.2364811223959
 20
130.6314429090571
 30
0.0
 10
165.0271865254368
 20
130.7673881167071
 30
0.0
 10
164.5823010984994
 20
131.0007782121129
 30
0.0
 10
164.3455035060004
 20
131.0980248185273
 30
0.0
 10
163.8647684370811
 20
131.2446962763987
 30
0.0
 10
163.6185253438983
 20
131.2955886213411
 30
0.0
 10
163.1138085639189
 20
131.3511159715765
 30
0.0
 10
162.8576138629824
 20
131.3549408586465
 30
0.0
 10
162.3552351137823
 20
131.3155170760021
 30
0.0
 10
162.1059854145987
 20
131.2724896267909
 30
0.0
 10
161.61445761712
 20
131.1387846573396
 30
0.0
 10
161.3791620158941
 20
131.0501148114344
 30
0.0
 10
160.928248121232
 20
130.831083447657
 30
0.0
 10
160.7106357707686
 20
130.6990818819734
 30
0.0
 10
160.3074286012203
 20
130.3997246009705
 30
0.0
 10
160.1218171087859
 20
130.2331056735326
 30
0.0
 10
159.7818290383833
 20
129.8659942481052
 30
0.0
 10
159.6267561075605
 20
129.6636905025645
 30
0.0
 10
159.3604130308971
 20
129.2396098229704
 30
0.0
 10
159.2474289301803
 20
129.0164502175042
 30
0.0
 10
159.0625736732494
 20
128.5470949759101
 30
0.0
 10
158.991432911746
 20
128.3008844725746
 30
0.0
 10
158.8974725004579
 20
127.8063586462034
 30
0.0
 10
158.8734631705015
 20
127.5554276511114
 30
0.0
 10
158.8728900498289
 20
126.7911822715552
 30
0.0
 10
158.9682891611475
 20
126.2889579695042
 30
0.0
 10
159.2461529533487
 20
125.5813934632318
 30
0.0
 10
159.3593149094292
 20
125.357687199491
 30
0.0
 10
159.6254460914731
 20
124.9334172881704
 30
0.0
 10
159.7802738656728
 20
124.7311653261144
 30
0.0
 10
160.1204549714606
 20
124.3634545847462
 30
0.0
 10
160.3059574284104
 20
124.1968377094968
 30
0.0
 10
160.7082512294697
 20
123.8977883307014
 30
0.0
 10
160.9262592777217
 20
123.765331622673
 30
0.0
 10
161.376857644872
 20
123.5461252219683
 30
0.0
 10
161.6114066437528
 20
123.4576400919647
 30
0.0
 10
162.0998666373051
 20
123.3241538620261
 30
0.0
 10
162.352132033019
 20
123.2802121495323
 30
0.0
 10
162.8543126711792
 20
123.2404031530588
 30
0.0
 10
163.1067947885309
 20
123.2437473658723
 30
0.0
 10
163.6146598316004
 20
123.2989266858628
 30
0.0
 10
163.8622053047842
 20
123.3499726143323
 30
0.0
 10
164.3431728422549
 20
123.4963830025679
 30
0.0
 10
164.5791327073602
 20
123.5930292073415
 30
0.0
 10
165.0257031568818
 20
123.8269341516545
 30
0.0
 10
165.2353480194553
 20
123.963059165481
 30
0.0
 10
165.6283347262097
 20
124.2731134298101
 30
0.0
 10
165.8127306300248
 20
124.4487706773852
 30
0.0
 10
166.1412810478851
 20
124.8259106000497
 30
0.0
 10
166.2872231444083
 20
125.0283768053195
 30
0.0
 10
166.5421084996105
 20
125.4619531034529
 30
0.0
 10
166.6504198124188
 20
125.6932449470344
 30
0.0
 10
166.8202547898357
 20
126.1666046271676
 30
0.0
 10
166.8832501509728
 20
126.4108864239884
 30
0.0
 10
166.9232709914671
 20
126.6632131508685
 30
0.0
  0
LINE
  5
131
330
1F
100
AcDbEntity
  8
0
  6
HIDDEN
 62
     7
370
    18
100
AcDbLine
 10
249.2232709915
 20
114.7976420279
 30
0.0
 11
249.2232709915
 21
139.7799257239
 31
0.0
  0
LINE
  5
132
330
1F
100
AcDbEntity
  8
0
  6
HIDDEN
 62
     7
370
    18
100
AcDbLine
 10
250.4232709915
 20
113.5976420279
 30
0.0
 11
250.4232709915
 21
140.9794770593
 31
0.0
  0
LINE
  5
133
330
1F
100
AcDbEntity
  8
0
  6
HIDDEN
 62
     7
370
    18
100
AcDbLine
 10
191.8232709915
 20
114.4976420279
 30
0.0
 11
191.8232709915
 21
140.0795005326
 31
0.0
  0
LINE
  5
134
330
1F
100
AcDbEntity
  8
0
  6
HIDDEN
 62
     7
370
    18
100
AcDbLine
 10
196.5284969733
 20
114.4976420279
 30
0.0
 11
196.5284969733
 21
140.0795005326
 31
0.0
  0
LINE
  5
135
330
1F
100
AcDbEntity
  8
0
  6
HIDDEN
 62
     7
370
    18
100
AcDbLine
 10
191.4232709915
 20
139.6976420279
 30
0.0
 11
191.4232709915
 21
114.8976420279
 31
0.0
  0
LINE
  5
136
330
1F
100
AcDbEntity
  8
0
  6
HIDDEN
 62
     7
370
    18
100
AcDbLine
 10
196.6653050307
 20
114.5217649796
 30
0.0
 11
196.6653050307
 21
140.0554117704
 31
0.0
  0
LINE
  5
137
330
1F
100
AcDbEntity
  8
0
  6
HIDDEN
 62
     7
370
    18
100
AcDbLine
 10
197.4232709915
 20
139.7976420279
 30
0.0
 11
197.4232709915
 21
114.7976420279
 31
0.0
  0
SPLINE
  5
138
330
1F
100
AcDbEntity
  8
0
  6
HIDDEN
 62
     7
370
    18
100
AcDbSpline
210
0.0
220
0.0
230
1.0
 70
    11
 71
     3
 72
    76
 73
    72
 74
     0
 42
0.000000001
 43
0.00000001
 40
0.0
 40
0.0
 40
0.0
 40
0.0
 40
0.0312499999999997
 40
0.0312499999999997
 40
0.0624999999999993
 40
0.0624999999999993
 40
0.093749999999999
 40
0.093749999999999
 40
0.1249999999999986
 40
0.1249999999999986
 40
0.1562499999999983
 40
0.1562499999999983
 40
0.1874999999999979
 40
0.1874999999999979
 40
0.2031249999999978
 40
0.2031249999999978
 40
0.2187499999999976
 40
0.2187499999999976
 40
0.2499999999999971
 40
0.2499999999999971
 40
0.2812499999999966
 40
0.2812499999999966
 40
0.3124999999999962
 40
0.3124999999999962
 40
0.3437499999999957
 40
0.3437499999999957
 40
0.3749999999999952
 40
0.3749999999999952
 40
0.4062499999999948
 40
0.4062499999999948
 40
0.4374999999999943
 40
0.4374999999999943
 40
0.4687499999999938
 40
0.4687499999999938
 40
0.4999999999999934
 40
0.4999999999999934
 40
0.5156249999999934
 40
0.5156249999999934
 40
0.5312499999999936
 40
0.5312499999999936
 40
0.5624999999999943
 40
0.5624999999999943
 40
0.5937499999999951
 40
0.5937499999999951
 40
0.6249999999999958
 40
0.6249999999999958
 40
0.6562499999999966
 40
0.6562499999999966
 40
0.6718749999999969
 40
0.6718749999999969
 40
0.6874999999999971
 40
0.6874999999999971
 40
0.7187499999999973
 40
0.7187499999999973
 40
0.7499999999999976
 40
0.7499999999999976
 40
0.7812499999999978
 40
0.7812499999999978
 40
0.8124999999999981
 40
0.8124999999999981
 40
0.8437499999999984
 40
0.8437499999999984
 40
0.8749999999999987
 40
0.8749999999999987
 40
0.906249999999999
 40
0.906249999999999
 40
0.9374999999999993
 40
0.9374999999999993
 40
0.9687499999999997
 40
0.9687499999999997
 40
1.0
 40
1.0
 40
1.0
 40
1.0
 10
233.4232709914671
 20
122.2976420278909
 30
0.0
 10
233.0892338859044
 20
122.2976420278909
 30
0.0
 10
232.761564571861
 20
122.3307718442706
 30
0.0
 10
232.1181662623394
 20
122.4598371069901
 30
0.0
 10
231.7990793245266
 20
122.5575098839511
 30
0.0
 10
231.1957576977044
 20
122.8093198648682
 30
0.0
 10
230.9101664479265
 20
122.9628805607019
 30
0.0
 10
230.3696137701385
 20
123.3251076984208
 30
0.0
 10
230.1168108771512
 20
123.5331692771031
 30
0.0
 10
229.6607517495241
 20
123.9889591278545
 30
0.0
 10
229.4541961329995
 20
124.2392904670769
 30
0.0
 10
229.0894604516304
 20
124.7826558039815
 30
0.0
 10
228.9358551555272
 20
125.0685242071962
 30
0.0
 10
228.7475687155893
 20
125.5188011094422
 30
0.0
 10
228.691882012168
 20
125.6724973697114
 30
0.0
 10
228.5951728508194
 20
125.9874492261566
 30
0.0
 10
228.5541358422094
 20
126.1492744730835
 30
0.0
 10
228.4564610726715
 20
126.6345433917607
 30
0.0
 10
228.4236837085076
 20
126.9613409502237
 30
0.0
 10
228.422865945437
 20
127.6215568166981
 30
0.0
 10
228.4559815807495
 20
127.9564724190746
 30
0.0
 10
228.5849643713088
 20
128.6010263240622
 30
0.0
 10
228.6805427186783
 20
128.9149473547236
 30
0.0
 10
228.9345736214433
 20
129.5249147794984
 30
0.0
 10
229.0889282160475
 20
129.8113098516153
 30
0.0
 10
229.4497301644783
 20
130.3498586845377
 30
0.0
 10
229.658707699787
 20
130.6041128100456
 30
0.0
 10
230.1162454174303
 20
131.0617179653521
 30
0.0
 10
230.365007780036
 20
131.2665846625921
 30
0.0
 10
230.9041468494164
 20
131.6288650728147
 30
0.0
 10
231.194904574063
 20
131.7854068958317
 30
0.0
 10
231.794683698388
 20
132.0361390289408
 30
0.0
 10
232.1066593620985
 20
132.132578009676
 30
0.0
 10
232.7570266584296
 20
132.2641489109269
 30
0.0
 10
233.0872380719633
 20
132.2971634219762
 30
0.0
 10
233.5804896859959
 20
132.297873558062
 30
0.0
 10
233.7450684084176
 20
132.2900208351761
 30
0.0
 10
234.0745546057661
 20
132.2578062778661
 30
0.0
 10
234.2402232248778
 20
132.233217112019
 30
0.0
 10
234.726419789115
 20
132.1361389703465
 30
0.0
 10
235.039351165556
 20
132.0405817203639
 30
0.0
 10
235.6440391149975
 20
131.7893433756022
 30
0.0
 10
235.9350130679948
 20
131.6330670715088
 30
0.0
 10
236.4729975032191
 20
131.273057323347
 30
0.0
 10
236.7241486672349
 20
131.0673336109654
 30
0.0
 10
237.1858761553762
 20
130.6065951013583
 30
0.0
 10
237.3910825155726
 20
130.3572366743167
 30
0.0
 10
237.6619624911172
 20
129.9546434004178
 30
0.0
 10
237.7460493917779
 20
129.8156503773281
 30
0.0
 10
237.9014442417432
 20
129.5276069349107
 30
0.0
 10
237.9727628622958
 20
129.3782505769131
 30
0.0
 10
238.1623214481933
 20
128.9251043582101
 30
0.0
 10
238.2583439387016
 20
128.6130340130845
 30
0.0
 10
238.3889933805826
 20
127.9683041142115
 30
0.0
 10
238.4228816031766
 20
127.6331079437449
 30
0.0
 10
238.4236535240639
 20
126.9738856733295
 30
0.0
 10
238.3917657435769
 20
126.6461347007907
 30
0.0
 10
238.2618669205021
 20
125.9944185879031
 30
0.0
 10
238.1652348462251
 20
125.678884574215
 30
0.0
 10
237.9144614115116
 20
125.0759747475441
 30
0.0
 10
237.7578786493803
 20
124.7842797919469
 30
0.0
 10
237.3956907314018
 20
124.243841987468
 30
0.0
 10
237.1906734564769
 20
123.9943297696576
 30
0.0
 10
236.7323456170202
 20
123.5352998941561
 30
0.0
 10
236.4788064232242
 20
123.3267334547025
 30
0.0
 10
235.9422799065645
 20
122.9664752385599
 30
0.0
 10
235.6569911564281
 20
122.8122169915205
 30
0.0
 10
235.0491275980706
 20
122.5579021798596
 30
0.0
 10
234.7342758636124
 20
122.4614112622812
 30
0.0
 10
234.0904090836888
 20
122.3314776569779
 30
0.0
 10
233.7573080970298
 20
122.2976420278909
 30
0.0
 10
233.4232709914671
 20
122.2976420278909
 30
0.0
  0
SPLINE
  5
139
330
1F
100
AcDbEntity
  8
0
  6
HIDDEN
 62
     7
370
    18
100
AcDbSpline
210
0.0
220
0.0
230
1.0
 70
    11
 71
     3
 72
    76
 73
    72
 74
     0
 42
0.000000001
 43
0.00000001
 40
0.0
 40
0.0
 40
0.0
 40
0.0
 40
0.0312499999999996
 40
0.0312499999999996
 40
0.0624999999999994
 40
0.0624999999999994
 40
0.0937499999999993
 40
0.0937499999999993
 40
0.1249999999999992
 40
0.1249999999999992
 40
0.1562499999999991
 40
0.1562499999999991
 40
0.1874999999999989
 40
0.1874999999999989
 40
0.2031249999999988
 40
0.2031249999999988
 40
0.2187499999999987
 40
0.2187499999999987
 40
0.2499999999999985
 40
0.2499999999999985
 40
0.2812499999999983
 40
0.2812499999999983
 40
0.3124999999999981
 40
0.3124999999999981
 40
0.3437499999999978
 40
0.3437499999999978
 40
0.3749999999999975
 40
0.3749999999999975
 40
0.4062499999999972
 40
0.4062499999999972
 40
0.4374999999999969
 40
0.4374999999999969
 40
0.4687499999999967
 40
0.4687499999999967
 40
0.4999999999999968
 40
0.4999999999999968
 40
0.5156249999999968
 40
0.5156249999999968
 40
0.5312499999999968
 40
0.5312499999999968
 40
0.5624999999999976
 40
0.5624999999999976
 40
0.5937499999999983
 40
0.5937499999999983
 40
0.6249999999999991
 40
0.6249999999999991
 40
0.6562499999999998
 40
0.6562499999999998
 40
0.6718749999999999
 40
0.6718749999999999
 40
0.6875
 40
0.6875
 40
0.71875
 40
0.71875
 40
0.75
 40
0.75
 40
0.78125
 40
0.78125
 40
0.8125
 40
0.8125
 40
0.84375
 40
0.84375
 40
0.875
 40
0.875
 40
0.90625
 40
0.90625
 40
0.9375
 40
0.9375
 40
0.96875
 40
0.96875
 40
1.0
 40
1.0
 40
1.0
 40
1.0
 10
210.4232709914671
 20
122.2976420278909
 30
0.0
 10
210.0892338859044
 20
122.2976420278909
 30
0.0
 10
209.761564571861
 20
122.3307718442706
 30
0.0
 10
209.1181662623394
 20
122.4598371069901
 30
0.0
 10
208.7990793245266
 20
122.5575098839511
 30
0.0
 10
208.1957576977044
 20
122.8093198648682
 30
0.0
 10
207.9101664479265
 20
122.9628805607019
 30
0.0
 10
207.3696137701385
 20
123.3251076984208
 30
0.0
 10
207.1168108771513
 20
123.5331692771031
 30
0.0
 10
206.6607517495241
 20
123.9889591278545
 30
0.0
 10
206.4541961329995
 20
124.2392904670769
 30
0.0
 10
206.0894604516304
 20
124.7826558039815
 30
0.0
 10
205.9358551555272
 20
125.0685242071962
 30
0.0
 10
205.7475687155893
 20
125.5188011094422
 30
0.0
 10
205.691882012168
 20
125.6724973697114
 30
0.0
 10
205.5951728508194
 20
125.9874492261566
 30
0.0
 10
205.5541358422093
 20
126.1492744730835
 30
0.0
 10
205.4564610726715
 20
126.6345433917607
 30
0.0
 10
205.4236837085076
 20
126.9613409502237
 30
0.0
 10
205.4228659454371
 20
127.6215568166981
 30
0.0
 10
205.4559815807495
 20
127.9564724190746
 30
0.0
 10
205.5849643713087
 20
128.6010263240622
 30
0.0
 10
205.6805427186783
 20
128.9149473547236
 30
0.0
 10
205.9345736214433
 20
129.5249147794984
 30
0.0
 10
206.0889282160475
 20
129.8113098516153
 30
0.0
 10
206.4497301644783
 20
130.3498586845377
 30
0.0
 10
206.658707699787
 20
130.6041128100456
 30
0.0
 10
207.1162454174303
 20
131.0617179653521
 30
0.0
 10
207.365007780036
 20
131.266584662592
 30
0.0
 10
207.9041468494164
 20
131.6288650728146
 30
0.0
 10
208.194904574063
 20
131.7854068958317
 30
0.0
 10
208.794683698388
 20
132.0361390289408
 30
0.0
 10
209.1066593620985
 20
132.132578009676
 30
0.0
 10
209.7570266584296
 20
132.2641489109269
 30
0.0
 10
210.0872380719632
 20
132.2971634219762
 30
0.0
 10
210.580489685996
 20
132.297873558062
 30
0.0
 10
210.7450684084176
 20
132.2900208351761
 30
0.0
 10
211.0745546057661
 20
132.2578062778661
 30
0.0
 10
211.2402232248778
 20
132.233217112019
 30
0.0
 10
211.726419789115
 20
132.1361389703465
 30
0.0
 10
212.0393511655561
 20
132.0405817203639
 30
0.0
 10
212.6440391149975
 20
131.7893433756022
 30
0.0
 10
212.9350130679948
 20
131.6330670715088
 30
0.0
 10
213.472997503219
 20
131.273057323347
 30
0.0
 10
213.7241486672349
 20
131.0673336109654
 30
0.0
 10
214.1858761553763
 20
130.6065951013583
 30
0.0
 10
214.3910825155726
 20
130.3572366743167
 30
0.0
 10
214.6619624911171
 20
129.9546434004178
 30
0.0
 10
214.7460493917779
 20
129.8156503773281
 30
0.0
 10
214.9014442417432
 20
129.5276069349107
 30
0.0
 10
214.9727628622959
 20
129.3782505769131
 30
0.0
 10
215.1623214481933
 20
128.9251043582102
 30
0.0
 10
215.2583439387017
 20
128.6130340130845
 30
0.0
 10
215.3889933805826
 20
127.9683041142115
 30
0.0
 10
215.4228816031766
 20
127.6331079437449
 30
0.0
 10
215.4236535240639
 20
126.9738856733295
 30
0.0
 10
215.3917657435769
 20
126.6461347007907
 30
0.0
 10
215.2618669205021
 20
125.9944185879031
 30
0.0
 10
215.1652348462252
 20
125.678884574215
 30
0.0
 10
214.9144614115116
 20
125.0759747475441
 30
0.0
 10
214.7578786493803
 20
124.7842797919469
 30
0.0
 10
214.3956907314018
 20
124.243841987468
 30
0.0
 10
214.1906734564768
 20
123.9943297696576
 30
0.0
 10
213.7323456170202
 20
123.5352998941561
 30
0.0
 10
213.4788064232241
 20
123.3267334547025
 30
0.0
 10
212.9422799065645
 20
122.9664752385599
 30
0.0
 10
212.6569911564281
 20
122.8122169915205
 30
0.0
 10
212.0491275980706
 20
122.5579021798596
 30
0.0
 10
211.7342758636124
 20
122.4614112622812
 30
0.0
 10
211.0904090836888
 20
122.3314776569779
 30
0.0
 10
210.7573080970297
 20
122.2976420278909
 30
0.0
 10
210.4232709914671
 20
122.2976420278909
 30
0.0
  0
LINE
  5
13A
330
1F
100
AcDbEntity
  8
0
  6
HIDDEN
 62
     7
370
    18
100
AcDbLine
 10
168.6732709915
 20
136.2976420279
 30
0.0
 11
168.6732709915
 21
118.2976420279
 31
0.0
  0
LINE
  5
13B
330
1F
100
AcDbEntity
  8
0
  6
HIDDEN
 62
     7
370
    18
100
AcDbLine
 10
167.4232709915
 20
117.0476420279
 30
0.0
 11
167.4232709915
 21
137.5296402785
 31
0.0
  0
LINE
  5
13C
330
1F
100
AcDbEntity
  8
0
  6
HIDDEN
 62
     7
370
    18
100
AcDbLine
 10
191.4232709915
 20
118.2976420279
 30
0.0
 11
191.4232709915
 21
136.2976420279
 31
0.0
  0
LINE
  5
13D
330
1F
100
AcDbEntity
  8
0
  6
HIDDEN
 62
     7
370
    18
100
AcDbLine
 10
141.9232709915
 20
112.1935891992
 30
0.0
 11
141.9232709915
 21
106.1392786316
 31
0.0
  0
LINE
  5
13E
330
1F
100
AcDbEntity
  8
0
  6
HIDDEN
 62
     7
370
    18
100
AcDbLine
 10
140.4232709915
 20
112.626601901
 30
0.0
 11
141.9232709915
 21
112.1935891992
 31
0.0
  0
LINE
  5
13F
330
1F
100
AcDbEntity
  8
0
  6
HIDDEN
 62
     7
370
    18
100
AcDbLine
 10
140.4232709915
 20
112.626601901
 30
0.0
 11
140.4232709915
 21
107.0053040354
 31
0.0
  0
LINE
  5
140
330
1F
100
AcDbEntity
  8
0
  6
HIDDEN
 62
     7
370
    18
100
AcDbLine
 10
176.2232709915
 20
111.762721505
 30
0.0
 11
176.2232709915
 21
105.2775432433
 31
0.0
  0
LINE
  5
141
330
1F
100
AcDbEntity
  8
0
  6
HIDDEN
 62
     7
370
    18
100
AcDbLine
 10
176.4282310135
 20
111.8601784049
 30
0.0
 11
176.4282310135
 21
105.4724570431
 31
0.0
  0
LWPOLYLINE
  5
142
330
1F
100
AcDbEntity
  8
0
  6
HIDDEN
 62
     7
370
    18
100
AcDbPolyline
 90
        9
 70
   128
 43
0.0
 10
176.2232709915
 20
111.762721505
 10
176.2280926835
 20
111.7821761243
 10
176.240412544
 20
111.8007865959
 10
176.2597571276
 20
111.8178377297
 10
176.2853830328
 20
111.8326742602
 10
176.3163054705
 20
111.8447260279
 10
176.3513361086
 20
111.8535298901
 10
176.3891287395
 20
111.8587475193
 10
176.4282310135
 20
111.8601784049
  0
LINE
  5
143
330
1F
100
AcDbEntity
  8
0
  6
HIDDEN
 62
     7
370
    18
100
AcDbLine
 10
176.4282310135
 20
111.8601784049
 30
0.0
 11
177.606758705
 21
111.8453740461
 31
0.0
  0
SPLINE
  5
144
330
1F
100
AcDbEntity
  8
0
  6
HIDDEN
 62
     7
370
    18
100
AcDbSpline
210
0.0
220
0.0
230
1.0
 70
     8
 71
     3
 72
    16
 73
    12
 74
     0
 42
0.000000001
 43
0.00000001
 40
0.0
 40
0.0
 40
0.0
 40
0.0
 40
0.25
 40
0.25
 40
0.3750000000000002
 40
0.3750000000000002
 40
0.5000000000000003
 40
0.5000000000000003
 40
0.7500000000000002
 40
0.7500000000000002
 40
1.0
 40
1.0
 40
1.0
 40
1.0
 10
177.1019506479074
 20
110.7137354016499
 30
0.0
 10
176.940718170423
 20
109.9993412394578
 30
0.0
 10
176.8202383307833
 20
109.3459989767491
 30
0.0
 10
176.69785781347
 20
108.4577437349452
 30
0.0
 10
176.6668801530726
 20
108.1770631985934
 30
0.0
 10
176.6252664154446
 20
107.6480292087534
 30
0.0
 10
176.6150305025118
 20
107.4047082301749
 30
0.0
 10
176.6148421054557
 20
106.7366855396617
 30
0.0
 10
176.6549868080933
 20
106.3730046302422
 30
0.0
 10
176.8191405630329
 20
105.8131137576939
 30
0.0
 10
176.9406922134424
 20
105.6255924655768
 30
0.0
 10
177.1019506479074
 20
105.5275610728888
 30
0.0
  0
LINE
  5
145
330
1F
100
AcDbEntity
  8
0
  6
HIDDEN
 62
     7
370
    18
100
AcDbLine
 10
141.9232709915
 20
112.1935891992
 30
0.0
 11
176.2232709915
 21
111.762721505
 31
0.0
  0
LINE
  5
146
330
1F
100
AcDbEntity
  8
0
  6
HIDDEN
 62
     7
370
    18
100
AcDbLine
 10
140.4232709915
 20
141.9686821547
 30
0.0
 11
141.9232709915
 21
142.4016948566
 31
0.0
  0
LINE
  5
147
330
1F
100
AcDbEntity
  8
0
  6
HIDDEN
 62
     7
370
    18
100
AcDbLine
 10
141.9232709915
 20
148.4560054242
 30
0.0
 11
141.9232709915
 21
142.4016948566
 31
0.0
  0
LINE
  5
148
330
1F
100
AcDbEntity
  8
0
  6
HIDDEN
 62
     7
370
    18
100
AcDbLine
 10
140.4232709915
 20
147.5899800204
 30
0.0
 11
140.4232709915
 21
141.9686821547
 31
0.0
  0
LINE
  5
149
330
1F
100
AcDbEntity
  8
0
  6
HIDDEN
 62
     7
370
    18
100
AcDbLine
 10
141.9232709915
 20
142.4016948566
 30
0.0
 11
176.2232709915
 21
142.8325625508
 31
0.0
  0
LINE
  5
14A
330
1F
100
AcDbEntity
  8
0
  6
HIDDEN
 62
     7
370
    18
100
AcDbLine
 10
176.2232709915
 20
149.3177408125
 30
0.0
 11
176.2232709915
 21
142.8325625508
 31
0.0
  0
LWPOLYLINE
  5
14B
330
1F
100
AcDbEntity
  8
0
  6
HIDDEN
 62
     7
370
    18
100
AcDbPolyline
 90
        9
 70
   128
 43
0.0
 10
176.2232709915
 20
142.8325625508
 10
176.2280926835
 20
142.8131079314
 10
176.240412544
 20
142.7944974599
 10
176.2597571276
 20
142.7774463261
 10
176.2853830328
 20
142.7626097956
 10
176.3163054705
 20
142.7505580279
 10
176.3513361086
 20
142.7417541657
 10
176.3891287395
 20
142.7365365365
 10
176.4282310135
 20
142.7351056509
  0
LINE
  5
14C
330
1F
100
AcDbEntity
  8
0
  6
HIDDEN
 62
     7
370
    18
100
AcDbLine
 10
176.4282310135
 20
149.1228270126
 30
0.0
 11
176.4282310135
 21
142.7351056509
 31
0.0
  0
LINE
  5
14D
330
1F
100
AcDbEntity
  8
0
  6
HIDDEN
 62
     7
370
    18
100
AcDbLine
 10
176.4282310135
 20
142.7351056509
 30
0.0
 11
177.606758705
 21
142.7499100097
 31
0.0
  0
SPLINE
  5
14E
330
1F
100
AcDbEntity
  8
0
  6
HIDDEN
 62
     7
370
    18
100
AcDbSpline
210
0.0
220
0.0
230
1.0
 70
     8
 71
     3
 72
    16
 73
    12
 74
     0
 42
0.000000001
 43
0.00000001
 40
0.0
 40
0.0
 40
0.0
 40
0.0
 40
0.2499999999999997
 40
0.2499999999999997
 40
0.3749999999999997
 40
0.3749999999999997
 40
0.4999999999999998
 40
0.4999999999999998
 40
0.7499999999999999
 40
0.7499999999999999
 40
1.0
 40
1.0
 40
1.0
 40
1.0
 10
177.1019506479074
 20
149.067722982893
 30
0.0
 10
176.940718170423
 20
148.9697073698383
 30
0.0
 10
176.8202383307833
 20
148.7829713381623
 30
0.0
 10
176.69785781347
 20
148.3699315306033
 30
0.0
 10
176.6668801530726
 20
148.2099310313704
 30
0.0
 10
176.6252664154446
 20
147.8431253802793
 30
0.0
 10
176.6150305025118
 20
147.6397882276553
 30
0.0
 10
176.6148421054557
 20
146.9725009610286
 30
0.0
 10
176.6549868080933
 20
146.4516864971406
 30
0.0
 10
176.8191405630329
 20
145.2543274816629
 30
0.0
 10
176.9406922134424
 20
144.5960578273669
 30
0.0
 10
177.1019506479074
 20
143.881548654132
 30
0.0
  0
LINE
  5
14F
330
1F
100
AcDbEntity
  8
0
  6
HIDDEN
 62
     7
370
    18
100
AcDbLine
 10
191.8955141779
 20
136.6857084592
 30
0.0
 11
191.8955141779
 21
157.3661339868
 31
0.0
  0
LINE
  5
150
330
1F
100
AcDbEntity
  8
0
  6
HIDDEN
 62
     7
370
    18
100
AcDbLine
 10
188.951027805
 20
136.6857084592
 30
0.0
 11
188.951027805
 21
157.3661339868
 31
0.0
  0
LINE
  5
151
330
1F
100
AcDbEntity
  8
0
  6
HIDDEN
 62
     7
370
    18
100
AcDbLine
 10
188.951027805
 20
97.229150069
 30
0.0
 11
188.951027805
 21
117.9095755966
 31
0.0
  0
LINE
  5
152
330
1F
100
AcDbEntity
  8
0
  6
HIDDEN
 62
     7
370
    18
100
AcDbLine
 10
191.8955141779
 20
97.229150069
 30
0.0
 11
191.8955141779
 21
117.9095755966
 31
0.0
  0
LINE
  5
153
330
1F
100
AcDbEntity
  8
0
  6
HIDDEN
 62
     7
370
    18
100
AcDbLine
 10
188.5180151031
 20
137.2070113486
 30
0.0
 11
188.5180151031
 21
157.198384488
 31
0.0
  0
LINE
  5
154
330
1F
100
AcDbEntity
  8
0
  6
HIDDEN
 62
     7
370
    18
100
AcDbLine
 10
192.3285268798
 20
137.2070113486
 30
0.0
 11
192.3285268798
 21
157.198384488
 31
0.0
  0
LINE
  5
155
330
1F
100
AcDbEntity
  8
0
  6
HIDDEN
 62
     7
370
    18
100
AcDbLine
 10
192.3285268798
 20
97.3968995678
 30
0.0
 11
192.3285268798
 21
117.3882727072
 31
0.0
  0
LINE
  5
156
330
1F
100
AcDbEntity
  8
0
  6
HIDDEN
 62
     7
370
    18
100
AcDbLine
 10
188.5180151031
 20
97.3968995678
 30
0.0
 11
188.5180151031
 21
117.3882727072
 31
0.0
  0
LINE
  5
157
330
1F
100
AcDbEntity
  8
0
  6
HIDDEN
 62
     7
370
    18
100
AcDbLine
 10
140.4232709915
 20
141.9686821547
 30
0.0
 11
140.4232709915
 21
130.1996293609
 31
0.0
  0
LINE
  5
158
330
1F
100
AcDbEntity
  8
0
  6
HIDDEN
 62
     7
370
    18
100
AcDbLine
 10
140.4232709915
 20
124.3956546949
 30
0.0
 11
140.4232709915
 21
112.626601901
 31
0.0
  0
LINE
  5
159
330
1F
100
AcDbEntity
  8
0
  6
HIDDEN
 62
     7
370
    18
100
AcDbLine
 10
141.9232709915
 20
123.3324311311
 30
0.0
 11
141.9232709915
 21
112.1935891992
 31
0.0
  0
LINE
  5
15A
330
1F
100
AcDbEntity
  8
0
  6
HIDDEN
 62
     7
370
    18
100
AcDbLine
 10
141.9232709915
 20
142.4016948566
 30
0.0
 11
141.9232709915
 21
131.2628529247
 31
0.0
  0
LINE
  5
15B
330
1F
100
AcDbEntity
  8
0
  6
HIDDEN
 62
     7
370
    18
100
AcDbLine
 10
178.2232709915
 20
142.3353491904
 30
0.0
 11
178.2232709915
 21
112.2599348654
 31
0.0
  0
LINE
  5
15C
330
1F
100
AcDbEntity
  8
0
  6
HIDDEN
 62
     7
370
    18
100
AcDbLine
 10
178.0282941026
 20
142.7304098152
 30
0.0
 11
178.0282941026
 21
111.8648742406
 31
0.0
  0
LINE
  5
15D
330
1F
100
AcDbEntity
  8
0
  6
HIDDEN
 62
     7
370
    18
100
AcDbLine
 10
176.4282310135
 20
142.7351056509
 30
0.0
 11
176.4282310135
 21
111.8601784049
 31
0.0
  0
LINE
  5
15E
330
1F
100
AcDbEntity
  8
0
  6
HIDDEN
 62
     7
370
    18
100
AcDbLine
 10
176.2232709915
 20
142.8325625508
 30
0.0
 11
176.2232709915
 21
111.762721505
 31
0.0
  0
SPLINE
  5
15F
330
1F
100
AcDbEntity
  8
0
  6
HIDDEN
 62
     7
370
    18
100
AcDbSpline
210
0.0
220
0.0
230
1.0
 70
     8
 71
     3
 72
    24
 73
    20
 74
     0
 42
0.000000001
 43
0.00000001
 40
0.0
 40
0.0
 40
0.0
 40
0.0
 40
0.1249999999999999
 40
0.1249999999999999
 40
0.2499999999999998
 40
0.2499999999999998
 40
0.3749999999999997
 40
0.3749999999999997
 40
0.4374999999999997
 40
0.4374999999999997
 40
0.4999999999999998
 40
0.4999999999999998
 40
0.6249999999999999
 40
0.6249999999999999
 40
0.75
 40
0.75
 40
0.875
 40
0.875
 40
1.0
 40
1.0
 40
1.0
 40
1.0
 10
146.8732709914671
 20
123.2116809747917
 30
0.0
 10
147.1110746237422
 20
123.5106880771218
 30
0.0
 10
147.3411602849535
 20
123.8150259284405
 30
0.0
 10
147.7759136835633
 20
124.4407594658365
 30
0.0
 10
147.9808464758494
 20
124.7619841931641
 30
0.0
 10
148.3459484263481
 20
125.4339099638968
 30
0.0
 10
148.5077488121397
 20
125.7892251957757
 30
0.0
 10
148.6796090167194
 20
126.3394564171281
 30
0.0
 10
148.7251942083795
 20
126.5258602021086
 30
0.0
 10
148.7876689479544
 20
126.9059947042049
 30
0.0
 10
148.8043400937028
 20
127.1016644964907
 30
0.0
 10
148.8048611368793
 20
127.6801448751652
 30
0.0
 10
148.7404188359926
 20
128.058056714134
 30
0.0
 10
148.5105697426193
 20
128.8000247392324
 30
0.0
 10
148.3520490649562
 20
129.1487401993933
 30
0.0
 10
147.987814735056
 20
129.8218325971265
 30
0.0
 10
147.7810784949924
 20
130.1467850843681
 30
0.0
 10
147.3431405492521
 20
130.7777088948299
 30
0.0
 10
147.1118678219725
 20
131.0835986351705
 30
0.0
 10
146.8732709914672
 20
131.38360308099
 30
0.0
  0
LINE
  5
160
330
1F
100
AcDbEntity
  8
0
  6
HIDDEN
 62
     7
370
    18
100
AcDbLine
 10
146.8732709915
 20
123.2116809748
 30
0.0
 11
146.8732709915
 21
131.383603081
 31
0.0
  0
SPLINE
  5
161
330
1F
100
AcDbEntity
  8
0
  6
HIDDEN
 62
     7
370
    18
100
AcDbSpline
210
0.0
220
0.0
230
1.0
 70
     8
 71
     3
 72
     8
 73
     4
 74
     0
 42
0.000000001
 43
0.00000001
 40
0.0000249638557296
 40
0.0000249638557296
 40
0.0000249638557296
 40
0.0000249638557296
 40
0.0049776420541172
 40
0.0049776420541172
 40
0.0049776420541172
 40
0.0049776420541172
 10
141.9232709914671
 20
123.3324311310544
 30
0.0
 10
143.5732472259766
 20
123.2911518932862
 30
0.0
 10
145.2232485457217
 20
123.2509302120467
 30
0.0
 10
146.8732709914671
 20
123.2116809747917
 30
0.0
  0
SPLINE
  5
162
330
1F
100
AcDbEntity
  8
0
  6
HIDDEN
 62
     7
370
    18
100
AcDbSpline
210
0.0
220
0.0
230
1.0
 70
     8
 71
     3
 72
     8
 73
     4
 74
     0
 42
0.000000001
 43
0.00000001
 40
0.0000249631533153
 40
0.0000249631533153
 40
0.0000249631533153
 40
0.0000249631533153
 40
0.0049776413517029
 40
0.0049776413517029
 40
0.0049776413517029
 40
0.0049776413517029
 10
146.8732709914671
 20
131.3836030809902
 30
0.0
 10
145.2232485457217
 20
131.3443538437351
 30
0.0
 10
143.5732472259766
 20
131.3041321624957
 30
0.0
 10
141.9232709914671
 20
131.2628529247275
 30
0.0
  0
SPLINE
  5
163
330
1F
100
AcDbEntity
  8
0
  6
HIDDEN
 62
     7
370
    18
100
AcDbSpline
210
0.0
220
0.0
230
1.0
 70
     8
 71
     3
 72
     8
 73
     4
 74
     0
 42
0.000000001
 43
0.00000001
 40
0.0
 40
0.0
 40
0.0
 40
0.0
 40
1.0
 40
1.0
 40
1.0
 40
1.0
 10
140.4232709914648
 20
124.3956546949106
 30
0.0
 10
140.8900316028426
 20
123.9802914492875
 30
0.0
 10
141.3957791496227
 20
123.6357010199829
 30
0.0
 10
141.9232709914671
 20
123.3324311310544
 30
0.0
  0
SPLINE
  5
164
330
1F
100
AcDbEntity
  8
0
  6
HIDDEN
 62
     7
370
    18
100
AcDbSpline
210
0.0
220
0.0
230
1.0
 70
     8
 71
     3
 72
     8
 73
     4
 74
     0
 42
0.000000001
 43
0.00000001
 40
0.0
 40
0.0
 40
0.0
 40
0.0
 40
1.0
 40
1.0
 40
1.0
 40
1.0
 10
141.9232709914671
 20
131.2628529247275
 30
0.0
 10
141.3957791496236
 20
130.9595830357994
 30
0.0
 10
140.8900316028442
 20
130.6149926064954
 30
0.0
 10
140.4232709914671
 20
130.1996293608733
 30
0.0
  0
LINE
  5
165
330
1F
100
AcDbEntity
  8
0
  6
HIDDEN
 62
     7
370
    18
100
AcDbLine
 10
140.4232709915
 20
124.3956546949
 30
0.0
 11
140.4232709915
 21
130.1996293609
 31
0.0
  0
SPLINE
  5
166
330
1F
100
AcDbEntity
  8
0
  6
HIDDEN
 62
     7
370
    18
100
AcDbSpline
210
0.0
220
0.0
230
1.0
 70
    11
 71
     3
 72
    72
 73
    68
 74
     0
 42
0.000000001
 43
0.00000001
 40
0.0
 40
0.0
 40
0.0
 40
0.0
 40
0.0312499999999998
 40
0.0312499999999998
 40
0.0624999999999996
 40
0.0624999999999996
 40
0.0937499999999994
 40
0.0937499999999994
 40
0.1249999999999993
 40
0.1249999999999993
 40
0.1562499999999993
 40
0.1562499999999993
 40
0.1874999999999993
 40
0.1874999999999993
 40
0.2187499999999993
 40
0.2187499999999993
 40
0.2499999999999992
 40
0.2499999999999992
 40
0.2812499999999992
 40
0.2812499999999992
 40
0.3124999999999992
 40
0.3124999999999992
 40
0.3437499999999992
 40
0.3437499999999992
 40
0.3749999999999992
 40
0.3749999999999992
 40
0.3906249999999993
 40
0.3906249999999993
 40
0.4062499999999993
 40
0.4062499999999993
 40
0.4374999999999993
 40
0.4374999999999993
 40
0.4687499999999994
 40
0.4687499999999994
 40
0.4999999999999994
 40
0.4999999999999994
 40
0.5312499999999994
 40
0.5312499999999994
 40
0.5624999999999996
 40
0.5624999999999996
 40
0.5937499999999996
 40
0.5937499999999996
 40
0.6249999999999996
 40
0.6249999999999996
 40
0.6562499999999997
 40
0.6562499999999997
 40
0.6874999999999997
 40
0.6874999999999997
 40
0.7187499999999997
 40
0.7187499999999997
 40
0.7499999999999997
 40
0.7499999999999997
 40
0.7812499999999998
 40
0.7812499999999998
 40
0.8124999999999998
 40
0.8124999999999998
 40
0.8437499999999998
 40
0.8437499999999998
 40
0.8749999999999999
 40
0.8749999999999999
 40
0.9062499999999999
 40
0.9062499999999999
 40
0.9374999999999999
 40
0.9374999999999999
 40
0.96875
 40
0.96875
 40
1.0
 40
1.0
 40
1.0
 40
1.0
 10
159.7344324202292
 20
129.9436535779483
 30
0.0
 10
159.9216475301662
 20
130.1488314781909
 30
0.0
 10
160.1265001314318
 20
130.3324805608494
 30
0.0
 10
160.5693683282787
 20
130.6594354643447
 30
0.0
 10
160.809323745597
 20
130.8032136725246
 30
0.0
 10
161.3049347283716
 20
131.0407310279705
 30
0.0
 10
161.5622010195261
 20
131.1360505928682
 30
0.0
 10
162.0955547873631
 20
131.2801361255027
 30
0.0
 10
162.3698349272614
 20
131.3278721324723
 30
0.0
 10
162.916263461841
 20
131.3734542730061
 30
0.0
 10
163.1908397803087
 20
131.3720205129338
 30
0.0
 10
163.7428069545795
 20
131.319107204843
 30
0.0
 10
164.0134239171512
 20
131.2681374786388
 30
0.0
 10
164.5397090882304
 20
131.1195308516952
 30
0.0
 10
164.7973406516379
 20
131.0212454809381
 30
0.0
 10
165.2932668163114
 20
130.7769921217524
 30
0.0
 10
165.5262504941031
 20
130.6339119907302
 30
0.0
 10
165.9625837694281
 20
130.3060534402614
 30
0.0
 10
166.1678650232864
 20
130.1190598025612
 30
0.0
 10
166.5358993211466
 20
129.7096291827382
 30
0.0
 10
166.6974143111318
 20
129.4895237417537
 30
0.0
 10
166.9745719942789
 20
129.0177736603156
 30
0.0
 10
167.0909661737126
 20
128.7627571338744
 30
0.0
 10
167.2642402103592
 20
128.2415193104774
 30
0.0
 10
167.322686764825
 20
127.9740351926965
 30
0.0
 10
167.3665514903009
 20
127.5621195333641
 30
0.0
 10
167.3737317069303
 20
127.4224122302885
 30
0.0
 10
167.3727636796348
 20
127.1462891748261
 30
0.0
 10
167.3647608902211
 20
127.0091126084953
 30
0.0
 10
167.3186881583088
 20
126.6001791672321
 30
0.0
 10
167.2577533258567
 20
126.3282529182278
 30
0.0
 10
167.0796331694482
 20
125.8050724017727
 30
0.0
 10
166.9640652581058
 20
125.5563604014093
 30
0.0
 10
166.6822184741665
 20
125.0834758764174
 30
0.0
 10
166.5153485287519
 20
124.8598666591853
 30
0.0
 10
166.1460229739531
 20
124.4552092709976
 30
0.0
 10
165.9412378176556
 20
124.2707956828281
 30
0.0
 10
165.4965848701394
 20
123.9417696479337
 30
0.0
 10
165.2617357406286
 20
123.8006015719455
 30
0.0
 10
164.7683259781516
 20
123.562192043165
 30
0.0
 10
164.5070390244469
 20
123.4644094867601
 30
0.0
 10
163.9763007439342
 20
123.31908145857
 30
0.0
 10
163.706661043037
 20
123.270792068375
 30
0.0
 10
163.1589097032918
 20
123.2223768445884
 30
0.0
 10
162.8790056614332
 20
123.2228350302243
 30
0.0
 10
162.3319277535982
 20
123.2729868858265
 30
0.0
 10
162.0623226489107
 20
123.3221604528585
 30
0.0
 10
161.5311678922547
 20
123.4698349761656
 30
0.0
 10
161.2698730758111
 20
123.5689901405312
 30
0.0
 10
160.7775590976358
 20
123.8100029110079
 30
0.0
 10
160.5436022220571
 20
123.9524910356326
 30
0.0
 10
160.1014336015266
 20
124.2839784646175
 30
0.0
 10
159.896240070415
 20
124.4714120926059
 30
0.0
 10
159.530545854057
 20
124.8783158116563
 30
0.0
 10
159.3677752316686
 20
125.0994948863253
 30
0.0
 10
159.0868228009031
 20
125.5792422155406
 30
0.0
 10
158.9736189486296
 20
125.8292541823509
 30
0.0
 10
158.8010102244907
 20
126.3493293923713
 30
0.0
 10
158.7414039418142
 20
126.6230608570011
 30
0.0
 10
158.6835121717444
 20
127.1716785068996
 30
0.0
 10
158.6843017106044
 20
127.4460183707911
 30
0.0
 10
158.7454921862208
 20
127.9947603219301
 30
0.0
 10
158.8066209099548
 20
128.2678256357873
 30
0.0
 10
158.9827005955846
 20
128.7879908845557
 30
0.0
 10
159.0990311905746
 20
129.0403100181146
 30
0.0
 10
159.3822324203153
 20
129.5167143595216
 30
0.0
 10
159.5472173102923
 20
129.7384756777058
 30
0.0
 10
159.7344324202292
 20
129.9436535779483
 30
0.0
  0
CIRCLE
  5
167
330
1F
100
AcDbEntity
  8
0
  6
HIDDEN
 62
     7
370
    18
100
AcDbCircle
 10
162.9232709915
 20
127.2976420279
 30
0.0
 40
4.049999999999983
  0
CIRCLE
  5
168
330
1F
100
AcDbEntity
  8
0
  6
HIDDEN
 62
     7
370
    18
100
AcDbCircle
 10
190.4232709915
 20
127.2976420279
 30
0.0
 40
2.0
  0
LINE
  5
169
330
1F
100
AcDbEntity
  8
0
  6
HIDDEN
 62
     7
370
    18
100
AcDbLine
 10
178.4232709915
 20
103.0476420279
 30
0.0
 11
178.5161642103
 21
103.1405352467
 31
0.0
  0
LINE
  5
16A
330
1F
100
AcDbEntity
  8
0
  6
HIDDEN
 62
     7
370
    18
100
AcDbLine
 10
178.5161642103
 20
151.4547488091
 30
0.0
 11
178.4232709915
 21
151.5476420279
 31
0.0
  0
ARC
  5
16B
330
1F
100
AcDbEntity
  8
0
  6
HIDDEN
 62
     7
370
    18
100
AcDbCircle
 10
177.8090574291
 20
103.8476420279
 30
0.0
 40
1.000000000000018
100
AcDbArc
 50
315.0
 51
0.0
  0
ARC
  5
16C
330
1F
100
AcDbEntity
  8
0
  6
HIDDEN
 62
     7
370
    18
100
AcDbCircle
 10
177.8090574291
 20
103.8476420279
 30
0.0
 40
1.000000000000016
100
AcDbArc
 50
0.0
 51
52.1052014664
  0
ARC
  5
16D
330
1F
100
AcDbEntity
  8
0
  6
HIDDEN
 62
     7
370
    18
100
AcDbCircle
 10
177.8090574291
 20
150.7476420279
 30
0.0
 40
1.000000000000028
100
AcDbArc
 50
351.8087250651
 51
45.0
  0
ARC
  5
16E
330
1F
100
AcDbEntity
  8
0
  6
HIDDEN
 62
     7
370
    18
100
AcDbCircle
 10
177.8090574291
 20
150.7476420279
 30
0.0
 40
1.000000000000016
100
AcDbArc
 50
307.8947985336
 51
351.8087250651
  0
LINE
  5
16F
330
1F
100
AcDbEntity
  8
0
  6
HIDDEN
 62
     7
370
    18
100
AcDbLine
 10
178.8090574291
 20
103.8476420279
 30
0.0
 11
178.8090574291
 21
150.7476420279
 31
0.0
  0
LINE
  5
170
330
1F
100
AcDbEntity
  8
0
  6
HIDDEN
 62
     7
370
    18
100
AcDbLine
 10
178.8090574291
 20
103.8476420279
 30
0.0
 11
178.8090574291
 21
150.7476420279
 31
0.0
  0
LINE
  5
171
330
1F
100
AcDbEntity
  8
0
  6
HIDDEN
 62
     7
370
    18
100
AcDbLine
 10
140.4232709915
 20
111.1012131834
 30
0.0
 11
141.9534994311
 21
111.984690985
 31
0.0
  0
LINE
  5
172
330
1F
100
AcDbEntity
  8
0
  6
HIDDEN
 62
     7
370
    18
100
AcDbLine
 10
141.9534994311
 20
142.6105930708
 30
0.0
 11
140.4232709915
 21
143.4940708724
 31
0.0
  0
LINE
  5
173
330
1F
100
AcDbEntity
  8
0
  6
HIDDEN
 62
     7
370
    18
100
AcDbLine
 10
150.4232709915
 20
111.2976420279
 30
0.0
 11
151.4250723064
 21
111.2976420279
 31
0.0
  0
LINE
  5
174
330
1F
100
AcDbEntity
  8
0
  6
HIDDEN
 62
     7
370
    18
100
AcDbLine
 10
151.4250723064
 20
143.2976420279
 30
0.0
 11
150.4232709915
 21
143.2976420279
 31
0.0
  0
ARC
  5
175
330
1F
100
AcDbEntity
  8
0
  6
HIDDEN
 62
     7
370
    18
100
AcDbCircle
 10
151.4250723064
 20
113.2976420279
 30
0.0
 40
2.000000000000026
100
AcDbArc
 50
270.0
 51
315.0
  0
ARC
  5
176
330
1F
100
AcDbEntity
  8
0
  6
HIDDEN
 62
     7
370
    18
100
AcDbCircle
 10
151.4250723064
 20
141.2976420279
 30
0.0
 40
2.000000000000036
100
AcDbArc
 50
45.0
 51
90.0
  0
ARC
  5
177
330
1F
100
AcDbEntity
  8
0
  6
HIDDEN
 62
     7
370
    18
100
AcDbCircle
 10
150.4232709915
 20
113.2976420279
 30
0.0
 40
2.000000000000014
100
AcDbArc
 50
189.9742217944
 51
270.0
  0
ARC
  5
178
330
1F
100
AcDbEntity
  8
0
  6
HIDDEN
 62
     7
370
    18
100
AcDbCircle
 10
150.4232709915
 20
141.2976420279
 30
0.0
 40
2.0
100
AcDbArc
 50
90.0
 51
170.0257782056
  0
LINE
  5
179
330
1F
100
AcDbEntity
  8
0
  6
HIDDEN
 62
     7
370
    18
100
AcDbLine
 10
152.8392858687
 20
111.8834284655
 30
0.0
 11
154.2534994311
 21
113.2976420279
 31
0.0
  0
LINE
  5
17A
330
1F
100
AcDbEntity
  8
0
  6
HIDDEN
 62
     7
370
    18
100
AcDbLine
 10
154.2534994311
 20
141.2976420279
 30
0.0
 11
152.8392858687
 21
142.7118555903
 31
0.0
  0
LINE
  5
17B
330
1F
100
AcDbEntity
  8
0
  6
HIDDEN
 62
     7
370
    18
100
AcDbLine
 10
141.9534994311
 20
111.984690985
 30
0.0
 11
146.8534994311
 21
113.2976420279
 31
0.0
  0
LINE
  5
17C
330
1F
100
AcDbEntity
  8
0
  6
HIDDEN
 62
     7
370
    18
100
AcDbLine
 10
146.8534994311
 20
141.2976420279
 30
0.0
 11
141.9534994311
 21
142.6105930708
 31
0.0
  0
LINE
  5
17D
330
1F
100
AcDbEntity
  8
0
  6
HIDDEN
 62
     7
370
    18
100
AcDbLine
 10
148.4534994311
 20
141.6440521894
 30
0.0
 11
147.8534994311
 21
141.2976420279
 31
0.0
  0
LINE
  5
17E
330
1F
100
AcDbEntity
  8
0
  6
HIDDEN
 62
     7
370
    18
100
AcDbLine
 10
147.8534994311
 20
113.2976420279
 30
0.0
 11
148.4534994311
 21
112.9512318664
 31
0.0
  0
ARC
  5
17F
330
1F
100
AcDbEntity
  8
0
  6
HIDDEN
 62
     7
370
    18
100
AcDbCircle
 10
166.9232709915
 20
113.7976420279
 30
0.0
 40
0.5
100
AcDbArc
 50
270.0
 51
0.0
  0
ARC
  5
180
330
1F
100
AcDbEntity
  8
0
  6
HIDDEN
 62
     7
370
    18
100
AcDbCircle
 10
166.9232709915
 20
140.7976420279
 30
0.0
 40
0.5
100
AcDbArc
 50
0.0
 51
90.0
  0
LINE
  5
181
330
1F
100
AcDbEntity
  8
0
  6
HIDDEN
 62
     7
370
    18
100
AcDbLine
 10
154.2534994311
 20
113.2976420279
 30
0.0
 11
166.9232709915
 21
113.2976420279
 31
0.0
  0
LINE
  5
182
330
1F
100
AcDbEntity
  8
0
  6
HIDDEN
 62
     7
370
    18
100
AcDbLine
 10
166.9232709915
 20
141.2976420279
 30
0.0
 11
154.2534994311
 21
141.2976420279
 31
0.0
  0
LINE
  5
183
330
1F
100
AcDbEntity
  8
0
  6
HIDDEN
 62
     7
370
    18
100
AcDbLine
 10
146.8534994311
 20
113.2976420279
 30
0.0
 11
147.8534994311
 21
113.2976420279
 31
0.0
  0
LINE
  5
184
330
1F
100
AcDbEntity
  8
0
  6
HIDDEN
 62
     7
370
    18
100
AcDbLine
 10
147.8534994311
 20
141.2976420279
 30
0.0
 11
146.8534994311
 21
141.2976420279
 31
0.0
  0
ARC
  5
185
330
1F
100
AcDbEntity
  8
0
  6
HIDDEN
 62
     7
370
    18
100
AcDbCircle
 10
249.2232709915
 20
113.5976420279
 30
0.0
 40
1.200000000000003
100
AcDbArc
 50
0.0
 51
90.0
  0
ARC
  5
186
330
1F
100
AcDbEntity
  8
0
  6
HIDDEN
 62
     7
370
    18
100
AcDbCircle
 10
249.2232709915
 20
140.9976420279
 30
0.0
 40
1.200000000000017
100
AcDbArc
 50
270.0
 51
0.0
  0
LINE
  5
187
330
1F
100
AcDbEntity
  8
0
  6
HIDDEN
 62
     7
370
    18
100
AcDbLine
 10
191.8232709915
 20
114.4976420279
 30
0.0
 11
196.5284969733
 21
114.4976420279
 31
0.0
  0
LINE
  5
188
330
1F
100
AcDbEntity
  8
0
  6
HIDDEN
 62
     7
370
    18
100
AcDbLine
 10
196.5284969733
 20
140.0976420279
 30
0.0
 11
191.8232709915
 21
140.0976420279
 31
0.0
  0
ARC
  5
189
330
1F
100
AcDbEntity
  8
0
  6
HIDDEN
 62
     7
370
    18
100
AcDbCircle
 10
191.8232709915
 20
114.8976420279
 30
0.0
 40
0.4000000000000199
100
AcDbArc
 50
180.0
 51
270.0
  0
ARC
  5
18A
330
1F
100
AcDbEntity
  8
0
  6
HIDDEN
 62
     7
370
    18
100
AcDbCircle
 10
191.8232709915
 20
139.6976420279
 30
0.0
 40
0.4000000000000057
100
AcDbArc
 50
90.0
 51
180.0
  0
ARC
  5
18B
330
1F
100
AcDbEntity
  8
0
  6
HIDDEN
 62
     7
370
    18
100
AcDbCircle
 10
196.5284969733
 20
114.8976420279
 30
0.0
 40
0.4000000000000199
100
AcDbArc
 50
270.0
 51
290.0
  0
ARC
  5
18C
330
1F
100
AcDbEntity
  8
0
  6
HIDDEN
 62
     7
370
    18
100
AcDbCircle
 10
196.5284969733
 20
139.6976420279
 30
0.0
 40
0.4000000000000057
100
AcDbArc
 50
70.0
 51
90.0
  0
LINE
  5
18D
330
1F
100
AcDbEntity
  8
0
  6
HIDDEN
 62
     7
370
    18
100
AcDbLine
 10
196.6653050307
 20
114.5217649796
 30
0.0
 11
197.4232709915
 21
114.7976420279
 31
0.0
  0
LINE
  5
18E
330
1F
100
AcDbEntity
  8
0
  6
HIDDEN
 62
     7
370
    18
100
AcDbLine
 10
197.4232709915
 20
139.7976420279
 30
0.0
 11
196.6653050307
 21
140.0735190762
 31
0.0
  0
LINE
  5
18F
330
1F
100
AcDbEntity
  8
0
  6
HIDDEN
 62
     7
370
    18
100
AcDbLine
 10
197.4232709915
 20
114.7976420279
 30
0.0
 11
249.2232709915
 21
114.7976420279
 31
0.0
  0
LINE
  5
190
330
1F
100
AcDbEntity
  8
0
  6
HIDDEN
 62
     7
370
    18
100
AcDbLine
 10
249.2232709915
 20
139.7976420279
 30
0.0
 11
197.4232709915
 21
139.7976420279
 31
0.0
  0
LINE
  5
191
330
1F
100
AcDbEntity
  8
0
  6
HIDDEN
 62
     7
370
    18
100
AcDbLine
 10
167.4232709915
 20
117.0476420279
 30
0.0
 11
168.6732709915
 21
118.2976420279
 31
0.0
  0
LINE
  5
192
330
1F
100
AcDbEntity
  8
0
  6
HIDDEN
 62
     7
370
    18
100
AcDbLine
 10
168.6732709915
 20
136.2976420279
 30
0.0
 11
167.4232709915
 21
137.5476420279
 31
0.0
  0
LINE
  5
193
330
1F
100
AcDbEntity
  8
0
  6
HIDDEN
 62
     7
370
    18
100
AcDbLine
 10
168.6732709915
 20
118.2976420279
 30
0.0
 11
191.4232709915
 21
118.2976420279
 31
0.0
  0
LINE
  5
194
330
1F
100
AcDbEntity
  8
0
  6
HIDDEN
 62
     7
370
    18
100
AcDbLine
 10
191.4232709915
 20
136.2976420279
 30
0.0
 11
168.6732709915
 21
136.2976420279
 31
0.0
  0
LINE
  5
195
330
1F
100
AcDbEntity
  8
0
  6
HIDDEN
 62
     7
370
    18
100
AcDbLine
 10
178.9232709915
 20
158.7976420279
 30
0.0
 11
178.9232709915
 21
95.7976420279
 31
0.0
  0
LINE
  5
196
330
1F
100
AcDbEntity
  8
0
  6
HIDDEN
 62
     7
370
    18
100
AcDbLine
 10
199.4232709915
 20
158.7976420279
 30
0.0
 11
199.4232709915
 21
95.7976420279
 31
0.0
  0
LINE
  5
197
330
1F
100
AcDbEntity
  8
0
  6
HIDDEN
 62
     7
370
    18
100
AcDbLine
 10
203.4232709915
 20
104.7976420279
 30
0.0
 11
203.4232709915
 21
149.7976420279
 31
0.0
  0
DIMENSION
  5
198
330
1F
100
AcDbEntity
  8
VERMASSUNG
100
AcDbDimension
  2
_D
 10
130.4232709915
 20
95.7976420279
 30
0.0
 11
130.4232709915
 21
127.2976420279
 31
0.0
 70
   160
  1
PSC %%c<>
 71
     2
 42
-1.0
  3
SLDDIMSTYLE0
100
AcDbAlignedDimension
 13
178.9232709915
 23
158.7976420279
 33
0.0
 14
178.9232709915
 24
95.7976420279
 34
0.0
 50
90.0
100
AcDbRotatedDimension
  0
DIMENSION
  5
1A5
330
1F
100
AcDbEntity
  8
VERMASSUNG
100
AcDbDimension
  2
_D_1
 10
250.4232709915
 20
168.7976420279
 30
0.0
 11
225.4232709915
 21
168.7976420279
 31
0.0
 70
   160
  1
<>
 71
     2
 42
-1.0
  3
SLDDIMSTYLE0
100
AcDbAlignedDimension
 13
200.4232709915
 23
157.7976420279
 33
0.0
 14
250.4232709915
 24
148.2976420279
 34
0.0
100
AcDbRotatedDimension
  0
DIMENSION
  5
1AF
330
1F
100
AcDbEntity
  8
VERMASSUNG
100
AcDbDimension
  2
_D_2
 10
261.6978157402
 20
114.7976420279
 30
0.0
 11
261.6978157402
 21
127.2976420279
 31
0.0
 70
   160
  1
%%c<>
 71
     2
 42
-1.0
  3
SLDDIMSTYLE0
100
AcDbAlignedDimension
 13
249.2232709915
 23
139.7976420279
 33
0.0
 14
249.2232709915
 24
114.7976420279
 34
0.0
 50
90.0
100
AcDbRotatedDimension
  0
DIMENSION
  5
1BA
330
1F
100
AcDbEntity
  8
VERMASSUNG
100
AcDbDimension
  2
_D_3
 10
272.4232709915
 20
149.7976420279
 30
0.0
 11
272.4232709915
 21
127.2976420279
 31
0.0
 70
   160
  1
%%c<>
 71
     2
 42
-1.0
  3
SLDDIMSTYLE0
100
AcDbAlignedDimension
 13
248.9232709915
 23
104.7976420279
 33
0.0
 14
248.9232709915
 24
149.7976420279
 34
0.0
 50
90.0
100
AcDbRotatedDimension
  0
DIMENSION
  5
1C5
330
1F
100
AcDbEntity
  8
VERMASSUNG
100
AcDbDimension
  2
_D_4
 10
191.4232709915
 20
85.7976420279
 30
0.0
 11
220.9232709915
 21
85.7976420279
 31
0.0
 70
   160
  1
<>
 71
     2
 42
-1.0
  3
SLDDIMSTYLE0
100
AcDbAlignedDimension
 13
250.4232709915
 23
106.2976420279
 33
0.0
 14
191.4232709915
 24
114.8976420279
 34
0.0
100
AcDbRotatedDimension
  0
DIMENSION
  5
1CF
330
1F
100
AcDbEntity
  8
VERMASSUNG
100
AcDbDimension
  2
_D_5
 10
250.4232709915
 20
178.2287305122
 30
0.0
 11
214.4232709915
 21
178.2287305122
 31
0.0
 70
   160
  1
<>
 71
     2
 42
-1.0
  3
SLDDIMSTYLE0
100
AcDbAlignedDimension
 13
178.4232709915
 23
158.2976420279
 33
0.0
 14
250.4232709915
 24
148.2976420279
 34
0.0
100
AcDbRotatedDimension
  0
DIMENSION
  5
1D9
330
1F
100
AcDbEntity
  8
VERMASSUNG
100
AcDbDimension
  2
_D_6
 10
250.4232709915
 20
186.7976420279
 30
0.0
 11
195.4232709915
 21
186.7976420279
 31
0.0
 70
   160
  1
(<>)
 71
     2
 42
-1.0
  3
SLDDIMSTYLE0
100
AcDbAlignedDimension
 13
140.4232709915
 23
147.5899800204
 33
0.0
 14
250.4232709915
 24
148.2976420279
 34
0.0
100
AcDbRotatedDimension
  0
DIMENSION
  5
1E5
330
1F
100
AcDbEntity
  8
VERMASSUNG
100
AcDbDimension
  2
_D_7
 10
203.4232709915
 20
152.7976420279
 30
0.0
 11
206.0818861937
 21
155.4562572301
 31
0.0
 70
   164
  1
<>
 71
     1
 42
-1.0
  3
SLDDIMSTYLE1
100
AcDbRadialDimension
 15
201.3019506479
 25
150.6763216843
 35
0.0
 40
0.0
  0
INSERT
  5
1F8
330
1F
100
AcDbEntity
  8
VERMASSUNG
100
AcDbBlockReference
  2
SW_CENTERMARKSYMBOL_0
 10
233.4232709915
 20
127.2976420279
 30
0.0
  0
INSERT
  5
204
330
1F
100
AcDbEntity
  8
VERMASSUNG
100
AcDbBlockReference
  2
SW_CENTERMARKSYMBOL_1
 10
210.4232709915
 20
127.2976420279
 30
0.0
  0
LINE
  5
205
330
1F
100
AcDbEntity
  8
VERMASSUNG
  6
CENTERX2
370
    18
100
AcDbLine
 10
137.3606579913
 20
127.2976420279
 30
0.0
 11
252.4037565875
 21
127.2976420279
 31
0.0
  0
LINE
  5
206
330
1F
100
AcDbEntity
  8
0
  6
Continuous
 62
     7
370
    25
100
AcDbLine
 10
58.7412426949
 20
123.4157006427
 30
0.0
 11
62.1231840801
 21
126.7976420279
 31
0.0
  0
LINE
  5
207
330
1F
100
AcDbEntity
  8
0
  6
Continuous
 62
     7
370
    25
100
AcDbLine
 10
62.1231840801
 20
127.7976420279
 30
0.0
 11
58.7412426949
 21
131.1795834131
 31
0.0
  0
LINE
  5
208
330
1F
100
AcDbEntity
  8
0
  6
Continuous
 62
     7
370
    25
100
AcDbLine
 10
48.8692787833
 20
133.0437367311
 30
0.0
 11
48.1231840801
 21
132.2976420279
 31
0.0
  0
LINE
  5
209
330
1F
100
AcDbEntity
  8
0
  6
Continuous
 62
     7
370
    25
100
AcDbLine
 10
48.1231840801
 20
122.2976420279
 30
0.0
 11
48.8692787833
 21
121.5515473247
 31
0.0
  0
LINE
  5
20A
330
1F
100
AcDbEntity
  8
0
  6
Continuous
 62
     7
370
    25
100
AcDbLine
 10
59.230211233
 20
122.1546691808
 30
0.0
 11
60.1231840801
 21
123.0476420279
 31
0.0
  0
LINE
  5
20B
330
1F
100
AcDbEntity
  8
0
  6
Continuous
 62
     7
370
    25
100
AcDbLine
 10
60.1231840801
 20
131.5476420279
 30
0.0
 11
59.230211233
 21
132.440614875
 31
0.0
  0
LINE
  5
20C
330
1F
100
AcDbEntity
  8
0
  6
Continuous
 62
     7
370
    25
100
AcDbLine
 10
48.9379356379
 20
133.2976420279
 30
0.0
 11
48.6797497396
 21
133.2976420279
 31
0.0
  0
LINE
  5
20D
330
1F
100
AcDbEntity
  8
0
  6
Continuous
 62
     7
370
    25
100
AcDbLine
 10
48.6797497396
 20
121.2976420279
 30
0.0
 11
48.9379356379
 21
121.2976420279
 31
0.0
  0
LINE
  5
20E
330
1F
100
AcDbEntity
  8
0
  6
Continuous
 62
     7
370
    25
100
AcDbLine
 10
48.6797497396
 20
133.2976420279
 30
0.0
 11
48.1231840801
 21
132.3336420279
 31
0.0
  0
LINE
  5
20F
330
1F
100
AcDbEntity
  8
0
  6
Continuous
 62
     7
370
    25
100
AcDbLine
 10
48.1231840801
 20
122.2616420279
 30
0.0
 11
48.6797497396
 21
121.2976420279
 31
0.0
  0
LINE
  5
210
330
1F
100
AcDbEntity
  8
0
  6
Continuous
 62
     7
370
    25
100
AcDbLine
 10
62.1231840801
 20
126.7976420279
 30
0.0
 11
62.1231840801
 21
127.7976420279
 31
0.0
  0
LINE
  5
211
330
1F
100
AcDbEntity
  8
0
  6
Continuous
 62
     7
370
    25
100
AcDbLine
 10
48.1231840801
 20
122.2976420279
 30
0.0
 11
48.1231840801
 21
132.2976420279
 31
0.0
  0
LINE
  5
212
330
1F
100
AcDbEntity
  8
0
  6
Continuous
 62
     7
370
    25
100
AcDbLine
 10
60.1231840801
 20
131.5476420279
 30
0.0
 11
60.1231840801
 21
129.7976420279
 31
0.0
  0
LINE
  5
213
330
1F
100
AcDbEntity
  8
0
  6
Continuous
 62
     7
370
    25
100
AcDbLine
 10
60.1231840801
 20
124.7976420279
 30
0.0
 11
60.1231840801
 21
123.0476420279
 31
0.0
  0
LINE
  5
214
330
1F
100
AcDbEntity
  8
0
  6
Continuous
 62
     7
370
    25
100
AcDbLine
 10
48.6797497396
 20
133.2976420279
 30
0.0
 11
48.6797497396
 21
132.8542076874
 31
0.0
  0
LINE
  5
215
330
1F
100
AcDbEntity
  8
0
  6
Continuous
 62
     7
370
    25
100
AcDbLine
 10
48.6797497396
 20
121.7410763684
 30
0.0
 11
48.6797497396
 21
121.2976420279
 31
0.0
  0
LINE
  5
216
330
1F
100
AcDbEntity
  8
0
  6
Continuous
 62
     7
370
    25
100
AcDbLine
 10
48.1231840801
 20
132.3336420279
 30
0.0
 11
48.1231840801
 21
132.2976420279
 31
0.0
  0
LINE
  5
217
330
1F
100
AcDbEntity
  8
0
  6
Continuous
 62
     7
370
    25
100
AcDbLine
 10
48.1231840801
 20
122.2976420279
 30
0.0
 11
48.1231840801
 21
122.2616420279
 31
0.0
  0
CIRCLE
  5
218
330
1F
100
AcDbEntity
  8
0
  6
Continuous
 62
     7
370
    25
100
AcDbCircle
 10
70.6231840801
 20
127.2976420279
 30
0.0
 40
21.0
  0
CIRCLE
  5
219
330
1F
100
AcDbEntity
  8
0
  6
Continuous
 62
     7
370
    25
100
AcDbCircle
 10
70.6231840801
 20
127.2976420279
 30
0.0
 40
22.50000000000001
  0
CIRCLE
  5
21A
330
1F
100
AcDbEntity
  8
0
  6
Continuous
 62
     7
370
    25
100
AcDbCircle
 10
70.6231840801
 20
127.2976420279
 30
0.0
 40
13.7
  0
CIRCLE
  5
21B
330
1F
100
AcDbEntity
  8
0
  6
Continuous
 62
     7
370
    25
100
AcDbCircle
 10
70.6231840801
 20
127.2976420279
 30
0.0
 40
12.5
  0
CIRCLE
  5
21C
330
1F
100
AcDbEntity
  8
0
  6
Continuous
 62
     7
370
    25
100
AcDbCircle
 10
70.6231840801
 20
127.2976420279
 30
0.0
 40
25.5
  0
CIRCLE
  5
21D
330
1F
100
AcDbEntity
  8
0
  6
Continuous
 62
     7
370
    25
100
AcDbCircle
 10
70.6231840801
 20
127.2976420279
 30
0.0
 40
30.5
  0
CIRCLE
  5
21E
330
1F
100
AcDbEntity
  8
0
  6
Continuous
 62
     7
370
    25
100
AcDbCircle
 10
70.6231840801
 20
127.2976420279
 30
0.0
 40
31.5
  0
ARC
  5
21F
330
1F
100
AcDbEntity
  8
0
  6
Continuous
 62
     7
370
    25
100
AcDbCircle
 10
70.6231840801
 20
127.2976420279
 30
0.0
 40
9.000000000000007
100
AcDbArc
 50
186.057558731
 51
270.0
  0
ARC
  5
220
330
1F
100
AcDbEntity
  8
0
  6
Continuous
 62
     7
370
    25
100
AcDbCircle
 10
70.6231840801
 20
127.2976420279
 30
0.0
 40
9.000000000000004
100
AcDbArc
 50
270.0
 51
173.942441269
  0
ARC
  5
221
330
1F
100
AcDbEntity
  8
0
  6
Continuous
 62
     7
370
    25
100
AcDbCircle
 10
70.6231840801
 20
127.2976420279
 30
0.0
 40
12.4
100
AcDbArc
 50
204.1204446579
 51
270.0
  0
ARC
  5
222
330
1F
100
AcDbEntity
  8
0
  6
Continuous
 62
     7
370
    25
100
AcDbCircle
 10
70.6231840801
 20
127.2976420279
 30
0.0
 40
12.40000000000001
100
AcDbArc
 50
270.0
 51
155.8795553421
  0
INSERT
  5
22E
330
1F
100
AcDbEntity
  8
VERMASSUNG
100
AcDbBlockReference
  2
SW_CENTERMARKSYMBOL_2
 10
70.6231840801
 20
127.2976420279
 30
0.0
  0
LINE
  5
22F
330
1F
100
AcDbEntity
  8
0
  6
Continuous
 62
     7
370
    25
100
AcDbLine
 10
209.6116949284
 20
48.6023814178
 30
0.0
 11
209.2580840894
 21
48.8065829654
 31
0.0
  0
LINE
  5
230
330
1F
100
AcDbEntity
  8
0
  6
Continuous
 62
     7
370
    25
100
AcDbLine
 10
205.7219756998
 20
48.8065829654
 30
0.0
 11
205.3683648609
 21
48.6023814178
 31
0.0
  0
LINE
  5
231
330
1F
100
AcDbEntity
  8
0
  6
Continuous
 62
     7
370
    25
100
AcDbLine
 10
202.358301911
 20
52.0723149108
 30
0.0
 11
202.358301911
 21
52.253356029
 31
0.0
  0
LINE
  5
232
330
1F
100
AcDbEntity
  8
0
  6
Continuous
 62
     7
370
    25
100
AcDbLine
 10
196.358301911
 20
52.253356029
 30
0.0
 11
196.358301911
 21
52.0723149108
 31
0.0
  0
LINE
  5
233
330
1F
100
AcDbEntity
  8
0
  6
Continuous
 62
     7
370
    25
100
AcDbLine
 10
212.9714003521
 20
26.2512354715
 30
0.0
 11
213.5016442444
 21
26.5574382719
 31
0.0
  0
LINE
  5
234
330
1F
100
AcDbEntity
  8
0
  6
Continuous
 62
     7
370
    25
100
AcDbLine
 10
220.9250587372
 20
39.4165626518
 30
0.0
 11
220.9250587372
 21
40.0288687357
 31
0.0
  0
LINE
  5
235
330
1F
100
AcDbEntity
  8
0
  6
Continuous
 62
     7
370
    25
100
AcDbLine
 10
191.2588853057
 20
34.9801656769
 30
0.0
 11
207.3455645777
 21
25.6935234049
 31
0.0
  0
LINE
  5
236
330
1F
100
AcDbEntity
  8
0
  6
Continuous
 62
     7
370
    25
100
AcDbLine
 10
218.5946503199
 20
45.1796228085
 30
0.0
 11
202.5079710479
 21
54.4662650805
 31
0.0
  0
SPLINE
  5
237
330
1F
100
AcDbEntity
  8
0
  6
Continuous
 62
     7
370
    25
100
AcDbSpline
210
0.0
220
0.0
230
1.0
 70
     8
 71
     3
 72
    14
 73
    10
 74
     0
 42
0.000000001
 43
0.00000001
 40
0.0
 40
0.0
 40
0.0
 40
0.0
 40
0.1373749105170014
 40
0.318471836031924
 40
0.4916845660279948
 40
0.6582576732335067
 40
0.8214220087962631
 40
0.9740155595448523
 40
1.0
 40
1.0
 40
1.0
 40
1.0
 10
209.8921860051464
 20
30.00879646071116
 30
0.0
 10
209.8067434665012
 20
30.06546664220574
 30
0.0
 10
209.6086647776402
 20
30.19684330102152
 30
0.0
 10
209.3552211855985
 20
30.50263794521414
 30
0.0
 10
209.1284820878849
 20
30.90733482667282
 30
0.0
 10
208.9639480238218
 20
31.38283038581453
 30
0.0
 10
208.8634393189199
 20
31.90806260339987
 30
0.0
 10
208.8338936899745
 20
32.3203826873414
 30
0.0
 10
208.8326700619338
 20
32.54627559828548
 30
0.0
 10
208.8324920148534
 20
32.5791447153256
 30
0.0
  0
SPLINE
  5
238
330
1F
100
AcDbEntity
  8
0
  6
Continuous
 62
     7
370
    25
100
AcDbSpline
210
0.0
220
0.0
230
1.0
 70
     8
 71
     3
 72
    27
 73
    23
 74
     0
 42
0.000000001
 43
0.00000001
 40
0.0
 40
0.0
 40
0.0
 40
0.0
 40
0.0267647034581632
 40
0.0780815816284543
 40
0.1295397319227867
 40
0.1811358494675796
 40
0.2328591324058133
 40
0.2846802199556447
 40
0.336561956273176
 40
0.388464187657851
 40
0.4403381385372401
 40
0.492135718464598
 40
0.5438155209246678
 40
0.5953389416113152
 40
0.6466761808598361
 40
0.6978192614987374
 40
0.7488076987446095
 40
0.7997552756334031
 40
0.8508666508452107
 40
0.9026176702598415
 40
0.95579691614234
 40
1.0
 40
1.0
 40
1.0
 40
1.0
 10
208.8324920148534
 20
32.5791447153256
 30
0.0
 10
208.8342633767823
 20
32.68746655018366
 30
0.0
 10
208.8394310313115
 20
33.0034775309829
 30
0.0
 10
208.8977532901906
 20
33.55990011100818
 30
0.0
 10
209.0297539177098
 20
34.24970392274011
 30
0.0
 10
209.2275302680975
 20
34.95960601885581
 30
0.0
 10
209.4875781380595
 20
35.67689518073627
 30
0.0
 10
209.8065202772558
 20
36.38983876246268
 30
0.0
 10
210.1793754954038
 20
37.08646014698351
 30
0.0
 10
210.6001258172265
 20
37.75513744790288
 30
0.0
 10
211.0616885057088
 20
38.38474029391067
 30
0.0
 10
211.5560758114406
 20
38.9649062535706
 30
0.0
 10
212.0745320273791
 20
39.48627511989452
 30
0.0
 10
212.6076662170648
 20
39.94070111784059
 30
0.0
 10
213.1455976478154
 20
40.32148652622094
 30
0.0
 10
213.6781818871139
 20
40.62364289259923
 30
0.0
 10
214.1953786799671
 20
40.84423213287896
 30
0.0
 10
214.6874761839907
 20
40.9822357142735
 30
0.0
 10
215.146901811101
 20
41.0398371426697
 30
0.0
 10
215.5672780850907
 20
41.01725783512717
 30
0.0
 10
215.9271875753329
 20
40.93327182691593
 30
0.0
 10
216.1261165674681
 20
40.82132487931174
 30
0.0
 10
216.2164129789889
 20
40.77051072929334
 30
0.0
  0
SPLINE
  5
239
330
1F
100
AcDbEntity
  8
0
  6
Continuous
 62
     7
370
    25
100
AcDbSpline
210
0.0
220
0.0
230
1.0
 70
     8
 71
     3
 72
    16
 73
    12
 74
     0
 42
0.000000001
 43
0.00000001
 40
0.0
 40
0.0
 40
0.0
 40
0.0
 40
0.0687366702198193
 40
0.1973916077801174
 40
0.3267961232947955
 40
0.4570184847878168
 40
0.5879817776133256
 40
0.7195230874667825
 40
0.8514559924401156
 40
0.9836141218044674
 40
1.0
 40
1.0
 40
1.0
 40
1.0
 10
189.0430861996011
 20
31.32519134373839
 30
0.0
 10
189.1740140840761
 20
31.28971830623781
 30
0.0
 10
189.5500006649961
 20
31.18785012026532
 30
0.0
 10
190.2114733272081
 20
31.1188851802916
 30
0.0
 10
191.0193447752521
 20
31.11178876265795
 30
0.0
 10
191.8576930366281
 20
31.20059166780004
 30
0.0
 10
192.7190292457192
 20
31.38020588478751
 30
0.0
 10
193.5984359392853
 20
31.64859480561491
 30
0.0
 10
194.4894297356817
 20
32.0139204306108
 30
0.0
 10
195.1248189812484
 20
32.31212105352094
 30
0.0
 10
195.4603453249815
 20
32.51136891211885
 30
0.0
 10
195.4973572104834
 20
32.53334792827263
 30
0.0
  0
SPLINE
  5
23A
330
1F
100
AcDbEntity
  8
0
  6
Continuous
 62
     7
370
    25
100
AcDbSpline
210
0.0
220
0.0
230
1.0
 70
     8
 71
     3
 72
    15
 73
    11
 74
     0
 42
0.000000001
 43
0.00000001
 40
0.0
 40
0.0
 40
0.0
 40
0.0
 40
0.113982582010038
 40
0.2463648597930626
 40
0.3787044770736069
 40
0.5108799938515313
 40
0.6427228303987411
 40
0.7740299425039378
 40
0.9046026999313582
 40
0.9999999999999999
 40
0.9999999999999999
 40
0.9999999999999999
 40
0.9999999999999999
 10
206.7460157284394
 20
52.01969396311875
 30
0.0
 10
206.7374091524271
 20
52.31291046166275
 30
0.0
 10
206.7188066795302
 20
52.94667607987312
 30
0.0
 10
206.6019537635127
 20
53.867304363405
 30
0.0
 10
206.4142235077988
 20
54.78509266452571
 30
0.0
 10
206.1527390959821
 20
55.64372858093093
 30
0.0
 10
205.8221071175078
 20
56.43933080590459
 30
0.0
 10
205.421216571514
 20
57.16209962173465
 30
0.0
 10
205.0035652416753
 20
57.76207567874004
 30
0.0
 10
204.692509203198
 20
58.08420040261622
 30
0.0
 10
204.5611913349388
 20
58.22019111432225
 30
0.0
  0
LINE
  5
23B
330
1F
100
AcDbEntity
  8
0
  6
Continuous
 62
     7
370
    25
100
AcDbLine
 10
185.7702996241
 20
32.9526470727
 30
0.0
 11
187.5948545949
 21
31.899353908
 31
0.0
  0
LINE
  5
23C
330
1F
100
AcDbEntity
  8
0
  6
Continuous
 62
     7
370
    25
100
AcDbLine
 10
180.3470100878
 20
36.0834454811
 30
0.0
 11
183.055448535
 21
34.5198972466
 31
0.0
  0
LINE
  5
23D
330
1F
100
AcDbEntity
  8
0
  6
Continuous
 62
     7
370
    25
100
AcDbLine
 10
198.804168574
 20
61.8004364116
 30
0.0
 11
196.0957301268
 21
63.3639846461
 31
0.0
  0
LINE
  5
23E
330
1F
100
AcDbEntity
  8
0
  6
Continuous
 62
     7
370
    25
100
AcDbLine
 10
203.3435746339
 20
59.179893073
 30
0.0
 11
201.5190196632
 21
60.2331862377
 31
0.0
  0
SPLINE
  5
23F
330
1F
100
AcDbEntity
  8
0
  6
Continuous
 62
     7
370
    25
100
AcDbSpline
210
0.0
220
0.0
230
1.0
 70
     8
 71
     3
 72
    33
 73
    29
 74
     0
 42
0.000000001
 43
0.00000001
 40
0.0
 40
0.0
 40
0.0
 40
0.0
 40
0.030215694287703
 40
0.0697084793582905
 40
0.1093010253930663
 40
0.1489633610133486
 40
0.1886677815257876
 40
0.2283926437854727
 40
0.2681217428750164
 40
0.3078449600142094
 40
0.3475583575269086
 40
0.3872605128236927
 40
0.4269515981986676
 40
0.4666327521063458
 40
0.5063056735200512
 40
0.5459723728270339
 40
0.5856350265987008
 40
0.6252958982217789
 40
0.6649572978631372
 40
0.7046208780853048
 40
0.7442889026352187
 40
0.7839637270652996
 40
0.8236476727028887
 40
0.8633429558305227
 40
0.9030515553773101
 40
0.9427749818930774
 40
0.9825138951410031
 40
1.0
 40
1.0
 40
1.0
 40
1.0
 10
192.9004322346044
 20
64.11201446054868
 30
0.0
 10
192.6926614935927
 20
64.10372848398211
 30
0.0
 10
192.2133283936095
 20
64.08461249674203
 30
0.0
 10
191.432712062148
 20
63.94708825865087
 30
0.0
 10
190.5694043014861
 20
63.71869646417628
 30
0.0
 10
189.6903070108168
 20
63.39840606295796
 30
0.0
 10
188.8022978871842
 20
62.99207261772985
 30
0.0
 10
187.910860806693
 20
62.50142425463276
 30
0.0
 10
187.0218017720566
 20
61.93003056656588
 30
0.0
 10
186.1407242156794
 20
61.28161382170889
 30
0.0
 10
185.2731359259336
 20
60.56042925328249
 30
0.0
 10
184.4244086065735
 20
59.77111444349878
 30
0.0
 10
183.5997878089118
 20
58.91870676760956
 30
0.0
 10
182.8043684964281
 20
58.00860919820757
 30
0.0
 10
182.043070358602
 20
57.04656436109966
 30
0.0
 10
181.320610402848
 20
56.03862265117931
 30
0.0
 10
180.6414751908976
 20
54.99110792513611
 30
0.0
 10
180.0098935656726
 20
53.9105801339262
 30
0.0
 10
179.4298138048744
 20
52.80380179110555
 30
0.0
 10
178.9048757955258
 20
51.67769161179505
 30
0.0
 10
178.4383860000831
 20
50.5392785037283
 30
0.0
 10
178.0333055439728
 20
49.39565588100443
 30
0.0
 10
177.6922038322258
 20
48.25392297882642
 30
0.0
 10
177.4173721361211
 20
47.12121740145749
 30
0.0
 10
177.2103448889511
 20
46.004393599642
 30
0.0
 10
177.0736465176183
 20
44.91102984026345
 30
0.0
 10
177.0172053528375
 20
44.04451507571196
 30
0.0
 10
177.012617038542
 20
43.54820761845203
 30
0.0
 10
177.0112149988827
 20
43.39655219697651
 30
0.0
  0
SPLINE
  5
240
330
1F
100
AcDbEntity
  8
0
  6
Continuous
 62
     7
370
    25
100
AcDbSpline
210
0.0
220
0.0
230
1.0
 70
     8
 71
     3
 72
    13
 73
     9
 74
     0
 42
0.000000001
 43
0.00000001
 40
0.0
 40
0.0
 40
0.0
 40
0.0
 40
0.0960908250467517
 40
0.2785817251035682
 40
0.4611354412292917
 40
0.6436347702800886
 40
0.8259841769327614
 40
1.0
 40
1.0
 40
1.0
 40
1.0
 10
177.0112149988827
 20
43.39655219697651
 30
0.0
 10
177.0131999634341
 20
43.21702953653026
 30
0.0
 10
177.0189546736132
 20
42.69656639743277
 30
0.0
 10
177.0830937531984
 20
41.8672237146188
 30
0.0
 10
177.2264260025326
 20
40.92911461525022
 30
0.0
 10
177.4427144015796
 20
40.0479656452471
 30
0.0
 10
177.7186680747793
 20
39.23415506248771
 30
0.0
 10
177.9573314745664
 20
38.75092115172927
 30
0.0
 10
178.0738726084549
 20
38.51495439711429
 30
0.0
  0
LINE
  5
241
330
1F
100
AcDbEntity
  8
0
  6
Continuous
 62
     7
370
    25
100
AcDbLine
 10
168.8601099693
 20
48.083807953
 30
0.0
 11
177.0179016587
 21
43.0336313928
 31
0.0
  0
LINE
  5
242
330
1F
100
AcDbEntity
  8
0
  6
Continuous
 62
     7
370
    25
100
AcDbLine
 10
187.3770308468
 20
62.1446306016
 30
0.0
 11
179.3563649653
 21
66.4515046865
 31
0.0
  0
LINE
  5
243
330
1F
100
AcDbEntity
  8
0
  6
Continuous
 62
     7
370
    25
100
AcDbLine
 10
176.666995401
 20
67.0417612188
 30
0.0
 11
176.0274449484
 21
66.9545501534
 31
0.0
  0
LINE
  5
244
330
1F
100
AcDbEntity
  8
0
  6
Continuous
 62
     7
370
    25
100
AcDbLine
 10
167.6968589028
 20
49.8198500065
 30
0.0
 11
167.9411631955
 21
49.2224004574
 31
0.0
  0
LWPOLYLINE
  5
245
330
1F
100
AcDbEntity
  8
0
  6
Continuous
 62
     7
370
    25
100
AcDbPolyline
 90
       30
 70
   128
 43
0.0
 10
205.7566506892
 20
48.8262215706
 10
205.409907225
 20
48.5867953468
 10
205.1604279849
 20
48.3099359827
 10
205.019878341
 20
48.0085891145
 10
204.9948302383
 20
47.6968453868
 10
205.0864548984
 20
47.3892815899
 10
205.2904680538
 20
47.100279065
 10
205.5973302764
 20
46.843351249
 10
205.9926930294
 20
46.630511801
 10
206.4580695902
 20
46.4717128572
 10
206.9716994678
 20
46.3743796795
 10
207.5095659001
 20
46.3430634592
 10
208.0465188505
 20
46.379228508
 10
208.5574509958
 20
46.4811837883
 10
209.0184717168
 20
46.6441619847
 10
209.4080241969
 20
46.8605424176
 10
209.7078933951
 20
47.1202073787
 10
209.904057761
 20
47.4110152229
 10
209.9873448669
 20
47.7193680986
 10
209.9538603003
 20
48.0308477681
 10
209.8051697622
 20
48.3308897882
 10
209.548225857
 20
48.6054645275
 10
209.1950429962
 20
48.8417331765
 10
208.7621356177
 20
49.0286480755
 10
208.2697459894
 20
49.1574692918
 10
207.7408977031
 20
49.2221732884
 10
207.2003191169
 20
49.2197345783
 10
206.6732870847
 20
49.1502671929
 10
206.1844450386
 20
49.01701935
 10
205.7566506892
 20
48.8262215706
  0
LWPOLYLINE
  5
246
330
1F
100
AcDbEntity
  8
0
  6
Continuous
 62
     7
370
    25
100
AcDbPolyline
 90
       11
 70
   128
 43
0.0
 10
205.3683648609
 20
48.6023814178
 10
205.0281966361
 20
48.3677056179
 10
204.7410252956
 20
48.0714284404
 10
204.5594966602
 20
47.7485019774
 10
204.4905867735
 20
47.4113361118
 10
204.5369438038
 20
47.0728879386
 10
204.6967862765
 20
46.7461638313
 10
204.963971535
 20
46.4437196142
 10
205.3282317996
 20
46.177178049
 10
205.7755687526
 20
45.9567821785
 10
205.9470975094
 20
45.8927157315
  0
LWPOLYLINE
  5
247
330
1F
100
AcDbEntity
  8
0
  6
Continuous
 62
     7
370
    25
100
AcDbPolyline
 90
       10
 70
   128
 43
0.0
 10
209.5986264712
 20
46.1460546211
 10
209.9518631531
 20
46.3882309177
 10
210.2390344936
 20
46.6845080951
 10
210.4205631291
 20
47.0074345582
 10
210.4894730158
 20
47.3446004238
 10
210.4431159854
 20
47.683048597
 10
210.2832735127
 20
48.0097727043
 10
210.0160882542
 20
48.3122169213
 10
209.6518279896
 20
48.5787584866
 10
209.6116949284
 20
48.6023814178
  0
LWPOLYLINE
  5
248
330
1F
100
AcDbEntity
  8
0
  6
Continuous
 62
     7
370
    25
100
AcDbPolyline
 90
       27
 70
   128
 43
0.0
 10
206.1033265303
 20
48.6182249912
 10
205.7987201784
 20
48.402470375
 10
205.5924065995
 20
48.1509026122
 10
205.496375989
 20
47.8781419068
 10
205.5162092968
 20
47.6000401196
 10
205.6507538832
 20
47.3327595155
 10
205.8921905059
 20
47.0918334717
 10
206.226487746
 20
46.8912637343
 10
206.634217463
 20
46.7427066872
 10
207.0916838877
 20
46.6547959261
 10
207.5723007344
 20
46.6326405048
 10
208.048136299
 20
46.677528016
 10
208.4915367479
 20
46.7868497606
 10
208.8767332589
 20
46.9542523562
 10
209.1813396108
 20
47.1700069725
 10
209.3876531897
 20
47.4215747353
 10
209.4836838002
 20
47.6943354407
 10
209.4638504924
 20
47.9724372279
 10
209.329305906
 20
48.239717832
 10
209.0878692833
 20
48.4806438757
 10
208.7535720432
 20
48.6812136132
 10
208.3458423262
 20
48.8297706603
 10
207.8883759015
 20
48.9176814214
 10
207.4077590548
 20
48.9398368426
 10
206.9319234902
 20
48.8949493315
 10
206.4885230413
 20
48.7856275869
 10
206.1033265303
 20
48.6182249912
  0
SPLINE
  5
249
330
1F
100
AcDbEntity
  8
0
  6
Continuous
 62
     7
370
    25
100
AcDbSpline
210
0.0
220
0.0
230
1.0
 70
     8
 71
     3
 72
    11
 73
     7
 74
     0
 42
0.000000001
 43
0.00000001
 40
0.0
 40
0.0
 40
0.0
 40
0.0
 40
0.2835311412784041
 40
0.5767561131431851
 40
0.9849014999094217
 40
1.0
 40
1.0
 40
1.0
 40
1.0
 10
209.1713891126249
 20
47.80758168871112
 30
0.0
 10
209.1384454118015
 20
47.6970745767234
 30
0.0
 10
209.071431676542
 20
47.47228215322684
 30
0.0
 10
208.9477852753392
 20
47.15467003859072
 30
0.0
 10
208.852738014138
 20
46.97965585990415
 30
0.0
 10
208.8027319623242
 20
46.93909813154363
 30
0.0
 10
208.8009480821519
 20
46.93765130411306
 30
0.0
  0
SPLINE
  5
24A
330
1F
100
AcDbEntity
  8
0
  6
Continuous
 62
     7
370
    25
100
AcDbSpline
210
0.0
220
0.0
230
1.0
 70
     8
 71
     3
 72
    12
 73
     8
 74
     0
 42
0.000000001
 43
0.00000001
 40
0.0
 40
0.0
 40
0.0
 40
0.0
 40
0.186137780253309
 40
0.528043711898642
 40
0.7067704987460136
 40
0.8920530907708523
 40
1.0
 40
1.0
 40
1.0
 40
1.0
 10
207.9704687716174
 20
48.52810297527821
 30
0.0
 10
208.0408999610186
 20
48.44734353057801
 30
0.0
 10
208.2407022076891
 20
48.21824164222235
 30
0.0
 10
208.5397545429399
 20
47.97621228855215
 30
0.0
 10
208.8328644437884
 20
47.85115195215382
 30
0.0
 10
209.0203536976495
 20
47.81323078917088
 30
0.0
 10
209.1307491203305
 20
47.80910172557925
 30
0.0
 10
209.1713891126249
 20
47.80758168871112
 30
0.0
  0
SPLINE
  5
24B
330
1F
100
AcDbEntity
  8
0
  6
Continuous
 62
     7
370
    25
100
AcDbSpline
210
0.0
220
0.0
230
1.0
 70
     8
 71
     3
 72
    11
 73
     7
 74
     0
 42
0.000000001
 43
0.00000001
 40
0.0
 40
0.0
 40
0.0
 40
0.0
 40
0.2164553779443411
 40
0.4403112895790375
 40
0.7519005688038627
 40
1.0
 40
1.0
 40
1.0
 40
1.0
 10
206.2891095536
 20
48.287968509168
 30
0.0
 10
206.4042842891203
 20
48.26005603748218
 30
0.0
 10
206.6385715440984
 20
48.20327677646294
 30
0.0
 10
207.073346115094
 20
48.19015636385772
 30
0.0
 10
207.5397198319134
 20
48.3021136232886
 30
0.0
 10
207.8381710051326
 20
48.45869389782781
 30
0.0
 10
207.9704687716174
 20
48.52810297527821
 30
0.0
  0
SPLINE
  5
24C
330
1F
100
AcDbEntity
  8
0
  6
Continuous
 62
     7
370
    25
100
AcDbSpline
210
0.0
220
0.0
230
1.0
 70
     8
 71
     3
 72
    11
 73
     7
 74
     0
 42
0.000000001
 43
0.00000001
 40
0.0
 40
0.0
 40
0.0
 40
0.0
 40
0.216455377944339
 40
0.4403112895790644
 40
0.751900568803878
 40
1.0
 40
1.0
 40
1.0
 40
1.0
 10
205.8086706765902
 20
47.32731275649071
 30
0.0
 10
205.8415812051675
 20
47.34875669105514
 30
0.0
 10
205.9085274617873
 20
47.39237772080908
 30
0.0
 10
206.0327618338376
 20
47.5655734326248
 30
0.0
 10
206.1660254828988
 20
47.87738815669672
 30
0.0
 10
206.251306215872
 20
48.1618652072496
 30
0.0
 10
206.2891095536
 20
48.287968509168
 30
0.0
  0
SPLINE
  5
24D
330
1F
100
AcDbEntity
  8
0
  6
Continuous
 62
     7
370
    25
100
AcDbSpline
210
0.0
220
0.0
230
1.0
 70
     8
 71
     3
 72
     9
 73
     5
 74
     0
 42
0.000000001
 43
0.00000001
 40
0.0
 40
0.0
 40
0.0
 40
0.0
 40
0.5365728886916635
 40
1.0
 40
1.0
 40
1.0
 40
1.0
 10
206.2891095536
 20
46.88026052537128
 30
0.0
 10
206.198748401425
 20
46.94490192779885
 30
0.0
 10
206.0303441564855
 20
47.06537279725555
 30
0.0
 10
205.8788685700471
 20
47.24436357664666
 30
0.0
 10
205.8086706765902
 20
47.32731275649071
 30
0.0
  0
LINE
  5
24E
330
1F
100
AcDbEntity
  8
0
  6
Continuous
 62
     7
370
    25
100
AcDbLine
 10
206.2891095536
 20
46.8629770494
 30
0.0
 11
206.2891095536
 21
48.2879685092
 31
0.0
  0
LINE
  5
24F
330
1F
100
AcDbEntity
  8
0
  6
Continuous
 62
     7
370
    25
100
AcDbLine
 10
207.9704687716
 20
46.6654708219
 30
0.0
 11
207.9704687716
 21
48.5281029753
 31
0.0
  0
LWPOLYLINE
  5
250
330
1F
100
AcDbEntity
  8
0
  6
Continuous
 62
     7
370
    25
100
AcDbPolyline
 90
       31
 70
   128
 43
0.0
 10
199.9636139698
 20
53.8915692297
 10
200.4585560236
 20
53.7880833481
 10
200.905411693
 20
53.6274535285
 10
201.2846512412
 20
53.4167000648
 10
201.5797000799
 20
53.1650338946
 10
201.7776631592
 20
52.8834540372
 10
201.8698885426
 20
52.5842668835
 10
201.8523455383
 20
52.2805483479
 10
201.7258008597
 20
51.9855723876
 10
201.4957851165
 20
51.7122308677
 10
201.1723511004
 20
51.4724701242
 10
200.76963443
 20
51.2767688521
 10
200.3052357562
 20
51.133680136
 10
199.7994515295
 20
51.0494576395
 10
199.2743869475
 20
51.0277822898
 10
198.7529898521
 20
51.0696014037
 10
198.2580477984
 20
51.1730872853
 10
197.8111921289
 20
51.3337171049
 10
197.4319525808
 20
51.5444705686
 10
197.136903742
 20
51.7961367388
 10
196.9389406627
 20
52.0777165962
 10
196.8467152793
 20
52.3769037499
 10
196.8642582836
 20
52.6806222856
 10
196.9908029623
 20
52.9755982458
 10
197.2208187054
 20
53.2489397657
 10
197.5442527215
 20
53.4887005092
 10
197.9469693919
 20
53.6844017813
 10
198.4113680657
 20
53.8274904974
 10
198.9171522925
 20
53.9117129939
 10
199.4422168744
 20
53.9333883436
 10
199.9636139698
 20
53.8915692297
  0
LWPOLYLINE
  5
251
330
1F
100
AcDbEntity
  8
0
  6
Continuous
 62
     7
370
    25
100
AcDbPolyline
 90
       33
 70
   128
 43
0.0
 10
200.0794838714
 20
53.9344329706
 10
200.633734691
 20
53.8209096954
 10
201.1389713442
 20
53.647146212
 10
201.5757778696
 20
53.4198201534
 10
201.9273680375
 20
53.1476675328
 10
202.1802304349
 20
52.8411470225
 10
202.3246477017
 20
52.512038034
 10
202.3550699634
 20
52.1729880412
 10
202.2703281093
 20
51.837026545
 10
202.0736787216
 20
51.5170643574
 10
201.7726789258
 20
51.2253974459
 10
201.3788959753
 20
50.9732344062
 10
200.9074627281
 20
50.7702657226
 10
200.3764960995
 20
50.6242913677
 10
199.8064008392
 20
50.5409210542
 10
199.2190853884
 20
50.5233586564
 10
198.6371199505
 20
50.5722790874
 10
198.0828691309
 20
50.6858023625
 10
197.5776324777
 20
50.859565846
 10
197.1408259523
 20
51.0868919045
 10
196.7892357844
 20
51.3590445252
 10
196.536373387
 20
51.6655650354
 10
196.3919561202
 20
51.9946740239
 10
196.3615338586
 20
52.3337240168
 10
196.4462757126
 20
52.6696855129
 10
196.6429251004
 20
52.9896477005
 10
196.9439248962
 20
53.2813146121
 10
197.3377078466
 20
53.5334776517
 10
197.8091410938
 20
53.7364463354
 10
198.3401077225
 20
53.8824206903
 10
198.9102029827
 20
53.9657910038
 10
199.4975184335
 20
53.9833534016
 10
200.0794838714
 20
53.9344329706
  0
LWPOLYLINE
  5
252
330
1F
100
AcDbEntity
  8
0
  6
Continuous
 62
     7
370
    25
100
AcDbPolyline
 90
       27
 70
   128
 43
0.0
 10
199.8390898846
 20
53.6013032778
 10
200.2897147159
 20
53.5023144726
 10
200.6862092206
 20
53.3439464828
 10
201.0055305792
 20
53.1354030802
 10
201.229120995
 20
52.8888040493
 10
201.3439862058
 20
52.6184808295
 10
201.343450663
 20
52.3401436237
 10
201.2275454905
 20
52.0699683787
 10
201.0030066756
 20
51.8236566975
 10
200.682883598
 20
51.6155233199
 10
200.2857806474
 20
51.4576642011
 10
199.834776004
 20
51.3592535394
 10
199.3560804181
 20
51.3260106048
 10
198.8775139373
 20
51.3598673557
 10
198.426889106
 20
51.4588561608
 10
198.0303946013
 20
51.6172241506
 10
197.7110732428
 20
51.8257675533
 10
197.4874828269
 20
52.0723665841
 10
197.3726176162
 20
52.3426898039
 10
197.3731531589
 20
52.6210270097
 10
197.4890583314
 20
52.8912022548
 10
197.7135971463
 20
53.1375139359
 10
198.0337202239
 20
53.3456473135
 10
198.4308231745
 20
53.5035064323
 10
198.881827818
 20
53.601917094
 10
199.3605234038
 20
53.6351600287
 10
199.8390898846
 20
53.6013032778
  0
SPLINE
  5
253
330
1F
100
AcDbEntity
  8
0
  6
Continuous
 62
     7
370
    25
100
AcDbSpline
210
0.0
220
0.0
230
1.0
 70
     8
 71
     3
 72
    11
 73
     7
 74
     0
 42
0.000000001
 43
0.00000001
 40
0.0
 40
0.0
 40
0.0
 40
0.0
 40
0.1864191569163914
 40
0.5288419333956336
 40
0.8918899119628718
 40
1.0
 40
1.0
 40
1.0
 40
1.0
 10
200.6061277106342
 20
51.56834401122902
 30
0.0
 10
200.6305522804674
 20
51.58677235362172
 30
0.0
 10
200.6998409573752
 20
51.63905067298245
 30
0.0
 10
200.8303006917215
 20
51.86437064868024
 30
0.0
 10
200.9470840401471
 20
52.240742110907
 30
0.0
 10
201.008426832355
 20
52.48326571735529
 30
0.0
 10
201.022502309644
 20
52.53891423597914
 30
0.0
  0
SPLINE
  5
254
330
1F
100
AcDbEntity
  8
0
  6
Continuous
 62
     7
370
    25
100
AcDbSpline
210
0.0
220
0.0
230
1.0
 70
     8
 71
     3
 72
    11
 73
     7
 74
     0
 42
0.000000001
 43
0.00000001
 40
0.0
 40
0.0
 40
0.0
 40
0.0
 40
0.2164553779443503
 40
0.4403112895790638
 40
0.7519005688038934
 40
1.0
 40
1.0
 40
1.0
 40
1.0
 10
201.022502309644
 20
52.53891423597914
 30
0.0
 10
200.9370250333354
 20
52.5420543076098
 30
0.0
 10
200.7631480425274
 20
52.5484418088223
 30
0.0
 10
200.4404787872511
 20
52.65254203612361
 30
0.0
 10
200.0943581308798
 20
52.89023945877512
 30
0.0
 10
199.8728616952018
 20
53.12728588713168
 30
0.0
 10
199.7746765099721
 20
53.23236409033164
 30
0.0
  0
SPLINE
  5
255
330
1F
100
AcDbEntity
  8
0
  6
Continuous
 62
     7
370
    25
100
AcDbSpline
210
0.0
220
0.0
230
1.0
 70
     8
 71
     3
 72
    11
 73
     7
 74
     0
 42
0.000000001
 43
0.00000001
 40
0.0
 40
0.0
 40
0.0
 40
0.0
 40
0.216455377944345
 40
0.4403112895790627
 40
0.7519005688038901
 40
1.0
 40
1.0
 40
1.0
 40
1.0
 10
198.1104761112903
 20
52.95524371993402
 30
0.0
 10
198.2244754510607
 20
52.9298648185279
 30
0.0
 10
198.4563717281695
 20
52.8782393199501
 30
0.0
 10
198.8867092828301
 20
52.87468291395161
 30
0.0
 10
199.3483235037226
 20
52.99689928605019
 30
0.0
 10
199.6437288853542
 20
53.16004477664131
 30
0.0
 10
199.7746765099721
 20
53.23236409033164
 30
0.0
  0
SPLINE
  5
256
330
1F
100
AcDbEntity
  8
0
  6
Continuous
 62
     7
370
    25
100
AcDbSpline
210
0.0
220
0.0
230
1.0
 70
     8
 71
     3
 72
    11
 73
     7
 74
     0
 42
0.000000001
 43
0.00000001
 40
0.0
 40
0.0
 40
0.0
 40
0.0
 40
0.1864191569163721
 40
0.5288419333956446
 40
0.8918899119628729
 40
1.0
 40
1.0
 40
1.0
 40
1.0
 10
197.6941015122805
 20
51.98467349518391
 30
0.0
 10
197.7185260821138
 20
52.00310183757659
 30
0.0
 10
197.7878147590215
 20
52.05538015693731
 30
0.0
 10
197.9182744933678
 20
52.28070013263513
 30
0.0
 10
198.0350578417934
 20
52.65707159486189
 30
0.0
 10
198.0964006340013
 20
52.89959520131018
 30
0.0
 10
198.1104761112903
 20
52.95524371993402
 30
0.0
  0
SPLINE
  5
257
330
1F
100
AcDbEntity
  8
0
  6
Continuous
 62
     7
370
    25
100
AcDbSpline
210
0.0
220
0.0
230
1.0
 70
     8
 71
     3
 72
     9
 73
     5
 74
     0
 42
0.000000001
 43
0.00000001
 40
0.0
 40
0.0
 40
0.0
 40
0.0
 40
0.6384800675598054
 40
1.0
 40
1.0
 40
1.0
 40
1.0
 10
197.6941015122805
 20
51.98467349518391
 30
0.0
 10
197.779094563677
 20
51.89044617574167
 30
0.0
 10
197.9122123471677
 20
51.74286550058862
 30
0.0
 10
198.0578317827696
 20
51.63509530771844
 30
0.0
 10
198.1104761112903
 20
51.59613423487294
 30
0.0
  0
LINE
  5
258
330
1F
100
AcDbEntity
  8
0
  6
Continuous
 62
     7
370
    25
100
AcDbLine
 10
198.1104761113
 20
51.5961342349
 30
0.0
 11
198.1104761113
 21
52.9552437199
 31
0.0
  0
LINE
  5
259
330
1F
100
AcDbEntity
  8
0
  6
Continuous
 62
     7
370
    25
100
AcDbLine
 10
199.77467651
 20
51.3513078204
 30
0.0
 11
199.77467651
 21
53.2323640903
 31
0.0
  0
LWPOLYLINE
  5
25A
330
1F
100
AcDbEntity
  8
0
  6
Continuous
 62
     7
370
    25
100
AcDbPolyline
 90
       62
 70
   128
 43
0.0
 10
206.0758163322
 20
30.8442774777
 10
206.1151677481
 20
31.7485487416
 10
206.232804861
 20
32.6886686828
 10
206.4274806882
 20
33.6546717962
 10
206.6971316175
 20
34.6363182083
 10
207.038899282
 20
35.6232022229
 10
207.4491608594
 20
36.6048626242
 10
207.9235674749
 20
37.5708935675
 10
208.4570903005
 20
38.5110548845
 10
209.0440738613
 20
39.4153806315
 10
209.6782959857
 20
40.2742847304
 10
210.3530337614
 20
41.0786625843
 10
211.0611348001
 20
41.8199875877
 10
211.7950930545
 20
42.4904015112
 10
212.5471283847
 20
43.0827978005
 10
213.3092690291
 20
43.5908969074
 10
214.0734361071
 20
44.009312855
 10
214.8315292578
 20
44.3336103303
 10
215.575512505
 20
44.5603516993
 10
216.2974994413
 20
44.687133447
 10
216.9898368256
 20
44.7126116555
 10
217.6451857094
 20
44.6365162493
 10
218.2565992314
 20
44.4596538588
 10
218.8175962562
 20
44.1838992692
 10
219.3222300759
 20
43.8121755477
 10
219.7651514463
 20
43.3484230584
 10
220.1416652907
 20
42.797557693
 10
220.4477804688
 20
42.1654187613
 10
220.6802520835
 20
41.4587070934
 10
220.8366158779
 20
40.6849140086
 10
220.9152143568
 20
39.8522419063
 10
220.9152143568
 20
38.9695173178
 10
220.8366158779
 20
38.0460973433
 10
220.6802520835
 20
37.0917704644
 10
220.4477804688
 20
36.1166527833
 10
220.1416652907
 20
35.13108079
 10
219.7651514463
 20
34.1455017929
 10
219.3222300759
 20
33.1703631745
 10
218.8175962562
 20
32.2160016467
 10
218.2565992314
 20
31.2925336792
 10
217.6451857094
 20
30.4097482621
 10
216.9898368256
 20
29.5770031405
 10
216.2974994413
 20
28.8031256198
 10
215.575512505
 20
28.0963189943
 10
214.8315292578
 20
27.46407559
 10
214.0734361071
 20
26.9130973443
 10
213.3092690291
 20
26.4492247637
 10
212.5471283847
 20
26.0773750129
 10
211.7950930545
 20
25.8014897917
 10
211.0611348001
 20
25.6244935523
 10
210.3530337614
 20
25.5482624986
 10
209.6782959857
 20
25.573604699
 10
209.0440738613
 20
25.7002515196
 10
208.4570903005
 20
25.9268604728
 10
207.9235674749
 20
26.2510294473
 10
207.4491608594
 20
26.6693221712
 10
207.038899282
 20
27.1773046376
 10
206.6971316175
 20
27.7695921061
 10
206.4274806882
 20
28.4399061822
 10
206.232804861
 20
29.1811413697
 10
206.1151677481
 20
29.9854403915
 10
206.0758163322
 20
30.8442774777
  0
LWPOLYLINE
  5
25B
330
1F
100
AcDbEntity
  8
0
  6
Continuous
 62
     7
370
    25
100
AcDbPolyline
 90
       33
 70
   128
 43
0.0
 10
205.0151561605
 20
30.8442774777
 10
205.0546861004
 20
31.7817362421
 10
205.1728830538
 20
32.7555184173
 10
205.3685723263
 20
33.7559461185
 10
205.63980907
 20
34.7730766457
 10
205.9838976123
 20
35.7968012989
 10
206.3974182466
 20
36.8169458425
 10
206.8762612191
 20
37.8233716216
 10
207.4156675732
 20
38.8060763248
 10
208.0102764462
 20
39.7552933912
 10
208.6541783481
 20
40.6615890752
 10
209.3409738923
 20
41.515956203
 10
210.0638373963
 20
42.3099036903
 10
210.8155847178
 20
43.0355409303
 10
211.5887446542
 20
43.6856562141
 10
212.3756331945
 20
44.2537884039
 10
213.1684298872
 20
44.7342911468
 10
213.9592555623
 20
45.1223889907
 10
214.7402506391
 20
45.4142248447
 10
215.5036532375
 20
45.6068983131
 10
216.2418763197
 20
45.6984945204
 10
216.947583093
 20
45.6881031423
 10
217.6137599263
 20
45.575827453
 10
218.2337860551
 20
45.3627832988
 10
218.801499381
 20
45.0510880082
 10
219.3112577141
 20
44.6438393489
 10
219.757994847
 20
44.1450847412
 10
220.1372709053
 20
43.5597810324
 10
220.4453164732
 20
42.8937452338
 10
220.6790700554
 20
42.1535967082
 10
220.8362085038
 20
41.3466913844
 10
220.915170106
 20
40.4810486499
 10
220.9250587372
 20
40.0288687357
  0
LWPOLYLINE
  5
25C
330
1F
100
AcDbEntity
  8
0
  6
Continuous
 62
     7
370
    25
100
AcDbPolyline
 90
       17
 70
   128
 43
0.0
 10
212.9714003521
 20
26.2512354715
 10
212.3756331945
 20
25.9329924452
 10
211.5887446542
 20
25.5926024647
 10
210.8155847178
 20
25.3500462871
 10
210.0638373963
 20
25.2077345445
 10
209.3409738923
 20
25.1670815951
 10
208.6541783481
 20
25.2284914661
 10
208.0102764462
 20
25.3913538386
 10
207.4156675732
 20
25.6540501132
 10
206.8762612191
 20
26.0139694963
 10
206.3974182466
 20
26.4675349473
 10
205.9838976123
 20
27.0102387291
 10
205.63980907
 20
27.6366872077
 10
205.3685723263
 20
28.3406544565
 10
205.1728830538
 20
29.1151441329
 10
205.0546861004
 20
29.9524590104
 10
205.0151561605
 20
30.8442774777
  0
SPLINE
  5
25D
330
1F
100
AcDbEntity
  8
0
  6
Continuous
 62
     7
370
    25
100
AcDbSpline
210
0.0
220
0.0
230
1.0
 70
     8
 71
     3
 72
    36
 73
    32
 74
     0
 42
0.000000001
 43
0.00000001
 40
0.0
 40
0.0
 40
0.0
 40
0.0
 40
0.0248133548041677
 40
0.0539282754135422
 40
0.0838288958149718
 40
0.1141896285940304
 40
0.1452530986078543
 40
0.1793998283863289
 40
0.2143234875832296
 40
0.252942704611632
 40
0.2925299972575436
 40
0.334023673058663
 40
0.3766775519143516
 40
0.4188992866861661
 40
0.4623609390701634
 40
0.5042293470250891
 40
0.5474640144115288
 40
0.586663493172469
 40
0.6273850863931799
 40
0.6610941871542019
 40
0.6960778333020304
 40
0.7256968804635039
 40
0.7561917507780599
 40
0.785698323434023
 40
0.8159170455778513
 40
0.8484365746276537
 40
0.8816892304107513
 40
0.9186867848388437
 40
0.9565704306722728
 40
0.997269777209919
 40
1.0
 40
1.0
 40
1.0
 40
1.0
 10
196.8834281768093
 20
53.90929951240309
 30
0.0
 10
196.7996818696673
 20
53.85588436755488
 30
0.0
 10
196.6176712567508
 20
53.73979419492957
 30
0.0
 10
196.3959409956013
 20
53.51649020163745
 30
0.0
 10
196.2192935252269
 20
53.25088788267583
 30
0.0
 10
196.1067200456132
 20
52.95695806882368
 30
0.0
 10
196.0584535514949
 20
52.63695606461245
 30
0.0
 10
196.081950811846
 20
52.29826748372243
 30
0.0
 10
196.1860004749487
 20
51.94212535760575
 30
0.0
 10
196.377080100153
 20
51.58844110080883
 30
0.0
 10
196.6632453434981
 20
51.24972573060647
 30
0.0
 10
197.0400238412914
 20
50.94887730190401
 30
0.0
 10
197.4996047368194
 20
50.70360142266729
 30
0.0
 10
198.02995218229
 20
50.52464237796119
 30
0.0
 10
198.6072404725179
 20
50.42013814476217
 30
0.0
 10
199.2239576600598
 20
50.38856868212963
 30
0.0
 10
199.838570962427
 20
50.42734979997449
 30
0.0
 10
200.4456453632016
 20
50.52890310424296
 30
0.0
 10
200.9852807478831
 20
50.67507746732034
 30
0.0
 10
201.4628044947577
 20
50.85638579561527
 30
0.0
 10
201.8405602603291
 20
51.0470315584682
 30
0.0
 10
202.1442556090133
 20
51.24931777958044
 30
0.0
 10
202.3692977066528
 20
51.45050242434275
 30
0.0
 10
202.5303866972006
 20
51.65876501776886
 30
0.0
 10
202.628213195774
 20
51.87410639131995
 30
0.0
 10
202.659181203715
 20
52.09831365209698
 30
0.0
 10
202.6165002047539
 20
52.33654787987385
 30
0.0
 10
202.4942833994695
 20
52.58456188733945
 30
0.0
 10
202.2728014789257
 20
52.84373466653742
 30
0.0
 10
202.0818391398237
 20
53.02501652532678
 30
0.0
 10
201.9427927525241
 20
53.11611323845301
 30
0.0
 10
201.9340515280229
 20
53.12184008138811
 30
0.0
  0
SPLINE
  5
25E
330
1F
100
AcDbEntity
  8
0
  6
Continuous
 62
     7
370
    25
100
AcDbSpline
210
0.0
220
0.0
230
1.0
 70
     8
 71
     3
 72
    15
 73
    11
 74
     0
 42
0.000000001
 43
0.00000001
 40
0.0
 40
0.0
 40
0.0
 40
0.0
 40
0.062614543378594
 40
0.2117641967651926
 40
0.3655131624107212
 40
0.4793306998365599
 40
0.595615541568013
 40
0.7250933251056282
 40
0.8595404977488976
 40
1.0
 40
1.0
 40
1.0
 40
1.0
 10
200.762504926896
 20
53.75140854522503
 30
0.0
 10
200.6887642493311
 20
53.78311431110269
 30
0.0
 10
200.4393711449365
 20
53.89034412835631
 30
0.0
 10
199.9568003896828
 20
54.03942181741921
 30
0.0
 10
199.3887650083723
 20
54.17155162762027
 30
0.0
 10
198.8531200349188
 20
54.24416608206747
 30
0.0
 10
198.3525963125332
 20
54.26785913560008
 30
0.0
 10
197.8389495199774
 20
54.23260872921691
 30
0.0
 10
197.3231839090023
 20
54.12506582947987
 30
0.0
 10
197.0321352084709
 20
53.98226267398604
 30
0.0
 10
196.8834281768093
 20
53.90929951240309
 30
0.0
  0
SPLINE
  5
25F
330
1F
100
AcDbEntity
  8
0
  6
Continuous
 62
     7
370
    25
100
AcDbSpline
210
0.0
220
0.0
230
1.0
 70
    11
 71
     3
 72
    84
 73
    80
 74
     0
 42
0.000000001
 43
0.00000001
 40
0.0
 40
0.0
 40
0.0
 40
0.0
 40
0.0312500000000007
 40
0.0312500000000007
 40
0.0625000000000015
 40
0.0625000000000015
 40
0.0937500000000022
 40
0.0937500000000022
 40
0.1093750000000026
 40
0.1093750000000026
 40
0.1250000000000029
 40
0.1250000000000029
 40
0.1406250000000032
 40
0.1406250000000032
 40
0.1562500000000036
 40
0.1562500000000036
 40
0.1875000000000042
 40
0.1875000000000042
 40
0.2187500000000048
 40
0.2187500000000048
 40
0.2500000000000053
 40
0.2500000000000053
 40
0.2812500000000059
 40
0.2812500000000059
 40
0.3125000000000064
 40
0.3125000000000064
 40
0.343750000000007
 40
0.343750000000007
 40
0.3750000000000075
 40
0.3750000000000075
 40
0.3906250000000076
 40
0.3906250000000076
 40
0.4062500000000077
 40
0.4062500000000077
 40
0.4375000000000077
 40
0.4375000000000077
 40
0.4531250000000077
 40
0.4531250000000077
 40
0.4687500000000078
 40
0.4687500000000078
 40
0.5000000000000073
 40
0.5000000000000073
 40
0.515625000000007
 40
0.515625000000007
 40
0.5312500000000067
 40
0.5312500000000067
 40
0.5625000000000058
 40
0.5625000000000058
 40
0.5781250000000054
 40
0.5781250000000054
 40
0.5937500000000053
 40
0.5937500000000053
 40
0.6250000000000048
 40
0.6250000000000048
 40
0.6406250000000047
 40
0.6406250000000047
 40
0.6562500000000044
 40
0.6562500000000044
 40
0.6875000000000039
 40
0.6875000000000039
 40
0.7187500000000034
 40
0.7187500000000034
 40
0.7500000000000029
 40
0.7500000000000029
 40
0.7812500000000024
 40
0.7812500000000024
 40
0.812500000000002
 40
0.812500000000002
 40
0.8281250000000018
 40
0.8281250000000018
 40
0.8437500000000016
 40
0.8437500000000016
 40
0.8750000000000012
 40
0.8750000000000012
 40
0.9062500000000008
 40
0.9062500000000008
 40
0.9375000000000004
 40
0.9375000000000004
 40
1.0
 40
1.0
 40
1.0
 40
1.0
 10
207.4632056339134
 20
49.4785665491578
 30
0.0
 10
207.2487916695825
 20
49.51615954291749
 30
0.0
 10
207.0349543071796
 20
49.54231175214677
 30
0.0
 10
206.6080872944387
 20
49.56796685422904
 30
0.0
 10
206.3931490850413
 20
49.56708275181062
 30
0.0
 10
205.9834340298111
 20
49.53354289919176
 30
0.0
 10
205.7865867776251
 20
49.50129278493654
 30
0.0
 10
205.5044112548862
 20
49.42597284555157
 30
0.0
 10
205.4122285719349
 20
49.39613059527937
 30
0.0
 10
205.2380809304981
 20
49.32872112221479
 30
0.0
 10
205.1554063513047
 20
49.29101086412683
 30
0.0
 10
204.9987780807908
 20
49.20759259886357
 30
0.0
 10
204.9248240717376
 20
49.16188487005029
 30
0.0
 10
204.785843209996
 20
49.06230038311997
 30
0.0
 10
204.7207193097983
 20
49.00820154272215
 30
0.0
 10
204.5441956613777
 20
48.83837703340779
 30
0.0
 10
204.4493530940855
 20
48.71388270371964
 30
0.0
 10
204.3032000667638
 20
48.44479066319519
 30
0.0
 10
204.254022734779
 20
48.30381342021256
 30
0.0
 10
204.1995110396757
 20
48.01552871451594
 30
0.0
 10
204.1943743812937
 20
47.86670088224172
 30
0.0
 10
204.22521649887
 20
47.57499984444315
 30
0.0
 10
204.2607400978896
 20
47.43087745239956
 30
0.0
 10
204.3704862589199
 20
47.1481377406945
 30
0.0
 10
204.4436901303771
 20
47.01249842888831
 30
0.0
 10
204.6228818803181
 20
46.75621370429214
 30
0.0
 10
204.7298191335493
 20
46.6344517286789
 30
0.0
 10
204.9743974278324
 20
46.40979784855347
 30
0.0
 10
205.1101137626702
 20
46.30838530045861
 30
0.0
 10
205.3331024415647
 20
46.17246070904085
 30
0.0
 10
205.410688346811
 20
46.1298615068074
 30
0.0
 10
205.572496264998
 20
46.05017017055054
 30
0.0
 10
205.6571417261364
 20
46.01293009645355
 30
0.0
 10
205.9171999035059
 20
45.91129622689748
 30
0.0
 10
206.0990515880864
 20
45.8565557287471
 30
0.0
 10
206.3845138257548
 20
45.79289626755266
 30
0.0
 10
206.4817956623132
 20
45.77476572756054
 30
0.0
 10
206.6807873974868
 20
45.74468148702367
 30
0.0
 10
206.7829952305161
 20
45.73270407510336
 30
0.0
 10
207.0909997127724
 20
45.70660952257299
 30
0.0
 10
207.2991622116815
 20
45.70195909699951
 30
0.0
 10
207.6160422726215
 20
45.7128922090786
 30
0.0
 10
207.7224472100351
 20
45.71954118927639
 30
0.0
 10
207.9369617684951
 20
45.73890775830031
 30
0.0
 10
208.0455845331813
 20
45.75172696897475
 30
0.0
 10
208.3665538456109
 20
45.79839503697463
 30
0.0
 10
208.5760913697114
 20
45.84043141382856
 30
0.0
 10
208.8835377441951
 20
45.91918905671854
 30
0.0
 10
208.9848674556432
 20
45.948082147535
 30
0.0
 10
209.1850554005166
 20
46.01136072446219
 30
0.0
 10
209.2830694762319
 20
46.04552543659315
 30
0.0
 10
209.5645681862959
 20
46.15315931082422
 30
0.0
 10
209.738199258834
 20
46.23246562622671
 30
0.0
 10
209.9764192804403
 20
46.36282247854098
 30
0.0
 10
210.0520799725012
 20
46.40827779132971
 30
0.0
 10
210.1912647267649
 20
46.50032542509059
 30
0.0
 10
210.2554361098815
 20
46.54724984999778
 30
0.0
 10
210.4321304137977
 20
46.6907887363748
 30
0.0
 10
210.5295148846914
 20
46.79129951346029
 30
0.0
 10
210.6752870367722
 20
46.99213025686008
 30
0.0
 10
210.725171060639
 20
47.09354211551273
 30
0.0
 10
210.7806234254677
 20
47.29812035525521
 30
0.0
 10
210.7857593154476
 20
47.39896795421935
 30
0.0
 10
210.7553363871575
 20
47.60069020493169
 30
0.0
 10
210.7191273833393
 20
47.70203704762146
 30
0.0
 10
210.6102780490498
 20
47.90028750166368
 30
0.0
 10
210.5376667883513
 20
47.99806437052825
 30
0.0
 10
210.4020164903088
 20
48.14439058424122
 30
0.0
 10
210.3522755204452
 20
48.19308541259021
 30
0.0
 10
210.2457182544111
 20
48.2888068525419
 30
0.0
 10
210.188703053071
 20
48.33606009905735
 30
0.0
 10
210.0067166728271
 20
48.47627260687334
 30
0.0
 10
209.8708951202873
 20
48.56772317948413
 30
0.0
 10
209.5694536071329
 20
48.74706185136533
 30
0.0
 10
209.4070597722844
 20
48.83296258044705
 30
0.0
 10
209.0627761543586
 20
48.99549895725411
 30
0.0
 10
208.8804152153054
 20
49.0724262715361
 30
0.0
 10
208.3007476469146
 20
49.28755640476925
 30
0.0
 10
207.8920335625752
 20
49.40338056163841
 30
0.0
 10
207.4632056339134
 20
49.47856654915779
 30
0.0
  0
LINE
  5
260
330
1F
100
AcDbEntity
  8
0
  6
Continuous
 62
     7
370
    25
100
AcDbLine
 10
209.9514274265
 20
29.9625371084
 30
0.0
 11
209.8728376831
 21
30.0102473831
 31
0.0
  0
ARC
  5
261
330
1F
100
AcDbEntity
  8
0
  6
Continuous
 62
     7
370
    25
100
AcDbCircle
 10
200.6679760244
 20
54.5451291495
 30
0.0
 40
5.350344251709851
100
AcDbArc
 50
44.3018194433
 51
75.7226241206
  0
ARC
  5
262
330
1F
100
AcDbEntity
  8
0
  6
Continuous
 62
     7
370
    25
100
AcDbCircle
 10
190.2680207422
 20
36.5299046738
 30
0.0
 40
5.345671789144073
100
AcDbArc
 50
224.227454785
 51
255.7934637949
  0
ELLIPSE
  5
263
330
1F
100
AcDbEntity
  8
0
  6
Continuous
 62
     7
370
    25
100
AcDbEllipse
 10
187.2147490901
 20
50.3048250076
 30
0.0
 11
-0.7461041289971889
 21
17.93477386060239
 31
0.0
210
0.0
220
0.0
230
1.0
 40
0.4444802122
 41
2.401404845694033
 42
2.866866793327969
  0
SPLINE
  5
264
330
1F
100
AcDbEntity
  8
0
  6
Continuous
 62
     7
370
    25
100
AcDbSpline
210
0.0
220
0.0
230
1.0
 70
     8
 71
     3
 72
    12
 73
     8
 74
     0
 42
0.000000001
 43
0.00000001
 40
0.0
 40
0.0
 40
0.0
 40
0.0
 40
0.2499999999999982
 40
0.2499999999999982
 40
0.4999999999999963
 40
0.4999999999999963
 40
1.0
 40
1.0
 40
1.0
 40
1.0
 10
182.176933387352
 20
37.10614404280185
 30
0.0
 10
182.1992355488401
 20
37.09326927902184
 30
0.0
 10
182.2229429117795
 20
37.07245503995431
 30
0.0
 10
182.2660049056487
 20
37.02683798788762
 30
0.0
 10
182.2850081889032
 20
37.00288056813592
 30
0.0
 10
182.3372818593883
 20
36.93098069759949
 30
0.0
 10
182.3651005141304
 20
36.88412265849058
 30
0.0
 10
182.3893349003314
 20
36.83917074284594
 30
0.0
  0
LINE
  5
265
330
1F
100
AcDbEntity
  8
0
  6
Continuous
 62
     7
370
    25
100
AcDbLine
 10
181.1359002467
 20
37.7071196828
 30
0.0
 11
182.1769333874
 21
37.1061440428
 31
0.0
  0
SPLINE
  5
266
330
1F
100
AcDbEntity
  8
0
  6
Continuous
 62
     7
370
    25
100
AcDbSpline
210
0.0
220
0.0
230
1.0
 70
     8
 71
     3
 72
    12
 73
     8
 74
     0
 42
0.000000001
 43
0.00000001
 40
0.0
 40
0.0
 40
0.0
 40
0.0
 40
0.4999999999999971
 40
0.4999999999999971
 40
0.7499999999999986
 40
0.7499999999999986
 40
1.0
 40
1.0
 40
1.0
 40
1.0
 10
181.0421155418007
 20
37.61690392400951
 30
0.0
 10
181.0397892520489
 20
37.648973243679
 30
0.0
 10
181.0419902571356
 20
37.6787932293217
 30
0.0
 10
181.0602556175766
 20
37.70980420106469
 30
0.0
 10
181.0690218605238
 20
37.71794606101589
 30
0.0
 10
181.0954858660604
 20
37.72330683229481
 30
0.0
 10
181.1137407526425
 20
37.71991208639955
 30
0.0
 10
181.1359002466692
 20
37.70711968279189
 30
0.0
  0
ELLIPSE
  5
267
330
1F
100
AcDbEntity
  8
0
  6
Continuous
 62
     7
370
    25
100
AcDbEllipse
 10
197.3597191081
 20
44.4482584767
 30
0.0
 11
15.90471575942232
 21
8.322204981098963
 31
0.0
210
0.0
220
0.0
230
1.0
 40
0.4445305117
 41
2.950908281021531
 42
3.578705763440481
  0
SPLINE
  5
268
330
1F
100
AcDbEntity
  8
0
  6
Continuous
 62
     7
370
    25
100
AcDbSpline
210
0.0
220
0.0
230
1.0
 70
     8
 71
     3
 72
    12
 73
     8
 74
     0
 42
0.000000001
 43
0.00000001
 40
0.0
 40
0.0
 40
0.0
 40
0.0
 40
0.2500000000000014
 40
0.2500000000000014
 40
0.5000000000000028
 40
0.5000000000000028
 40
1.0
 40
1.0
 40
1.0
 40
1.0
 10
195.085900246669
 20
61.86922837746474
 30
0.0
 10
195.063598085181
 20
61.88210314124476
 30
0.0
 10
195.0516535303183
 20
61.89612464826814
 30
0.0
 10
195.0430594642088
 20
61.92183732071211
 30
0.0
 10
195.0457053618188
 20
61.93329287155387
 30
0.0
 10
195.0634699616653
 20
61.96474736543407
 30
0.0
 10
195.0879614273635
 20
61.98139759795203
 30
0.0
 10
195.1171155418006
 20
61.99551896899306
 30
0.0
  0
LINE
  5
269
330
1F
100
AcDbEntity
  8
0
  6
Continuous
 62
     7
370
    25
100
AcDbLine
 10
196.1269333874
 20
61.2682527375
 30
0.0
 11
195.0859002467
 21
61.8692283775
 31
0.0
  0
SPLINE
  5
26A
330
1F
100
AcDbEntity
  8
0
  6
Continuous
 62
     7
370
    25
100
AcDbSpline
210
0.0
220
0.0
230
1.0
 70
     8
 71
     3
 72
    12
 73
     8
 74
     0
 42
0.000000001
 43
0.00000001
 40
0.0
 40
0.0
 40
0.0
 40
0.0
 40
0.4999999999999963
 40
0.4999999999999963
 40
0.7499999999999981
 40
0.7499999999999981
 40
1.0
 40
1.0
 40
1.0
 40
1.0
 10
196.4643349003313
 20
61.21778578782948
 30
0.0
 10
196.4136784630221
 20
61.21631268851364
 30
0.0
 10
196.3586672969527
 20
61.21698927056333
 30
0.0
 10
196.2706438482246
 20
61.2262618772444
 30
0.0
 10
196.2398688193183
 20
61.23082954929113
 30
0.0
 10
196.1791362133138
 20
61.24525805103174
 30
0.0
 10
196.1490928813786
 20
61.25546033386704
 30
0.0
 10
196.1269333873519
 20
61.2682527374747
 30
0.0
  0
ELLIPSE
  5
26B
330
1F
100
AcDbEntity
  8
0
  6
Continuous
 62
     7
370
    25
100
AcDbEllipse
 10
187.2147490901
 20
50.3048250076
 30
0.0
 11
15.90471575942235
 21
8.32220498109897
 31
0.0
210
0.0
220
0.0
230
1.0
 40
0.4445305117
 41
0.2747775750656731
 42
0.740076994575437
  0
ELLIPSE
  5
26C
330
1F
100
AcDbEntity
  8
0
  6
Continuous
 62
     7
370
    25
100
AcDbEllipse
 10
197.3597191081
 20
44.4482584767
 30
0.0
 11
-0.7461041289972173
 21
17.9347738606024
 31
0.0
210
0.0
220
0.0
230
1.0
 40
0.4444802122
 41
5.846123912132792
 42
6.473758866427505
  0
SPLINE
  5
26D
330
1F
100
AcDbEntity
  8
0
  6
Continuous
 62
     7
370
    25
100
AcDbSpline
210
0.0
220
0.0
230
1.0
 70
     8
 71
     3
 72
    12
 73
     8
 74
     0
 42
0.000000001
 43
0.00000001
 40
0.0
 40
0.0
 40
0.0
 40
0.0
 40
0.2500000000000001
 40
0.2500000000000001
 40
0.5000000000000001
 40
0.5000000000000001
 40
1.0
 40
1.0
 40
1.0
 40
1.0
 10
181.1359002466691
 20
45.37285906867255
 30
0.0
 10
181.1136062464645
 20
45.3857291210439
 30
0.0
 10
181.0954937703757
 20
45.40975834409905
 30
0.0
 10
181.0689288990835
 20
45.46487020998549
 30
0.0
 10
181.0603279661863
 20
45.49482126598185
 30
0.0
 10
181.0419586202641
 20
45.58626330417981
 30
0.0
 10
181.0397563358955
 20
45.64762463727127
 30
0.0
 10
181.0421155418006
 20
45.7083083943977
 30
0.0
  0
LINE
  5
26E
330
1F
100
AcDbEntity
  8
0
  6
Continuous
 62
     7
370
    25
100
AcDbLine
 10
182.1769333874
 20
44.7718834287
 30
0.0
 11
181.1359002467
 21
45.3728590687
 31
0.0
  0
SPLINE
  5
26F
330
1F
100
AcDbEntity
  8
0
  6
Continuous
 62
     7
370
    25
100
AcDbSpline
210
0.0
220
0.0
230
1.0
 70
     8
 71
     3
 72
    12
 73
     8
 74
     0
 42
0.000000001
 43
0.00000001
 40
0.0
 40
0.0
 40
0.0
 40
0.0
 40
0.5000000000000019
 40
0.5000000000000019
 40
0.7500000000000009
 40
0.7500000000000009
 40
1.0
 40
1.0
 40
1.0
 40
1.0
 10
182.3893349003314
 20
44.93057521323413
 30
0.0
 10
182.3649536036457
 20
44.88262794234097
 30
0.0
 10
182.3372558334848
 20
44.83853346163688
 30
0.0
 10
182.2849633075284
 20
44.78783889390508
 30
0.0
 10
182.265662375882
 20
44.7737290494736
 30
0.0
 10
182.2232928217616
 20
44.75902594997181
 30
0.0
 10
182.1991945609784
 20
44.75903232669135
 30
0.0
 10
182.176933387352
 20
44.77188342868246
 30
0.0
  0
ELLIPSE
  5
270
330
1F
100
AcDbEntity
  8
0
  6
Continuous
 62
     7
370
    25
100
AcDbEllipse
 10
187.2147490901
 20
50.3048250076
 30
0.0
 11
7.874888476696754
 21
13.63996451050156
 31
0.0
210
0.0
220
0.0
230
1.0
 40
0.1059897947
 41
1.105338485463662
 42
2.036099852607344
  0
SPLINE
  5
271
330
1F
100
AcDbEntity
  8
0
  6
Continuous
 62
     7
370
    25
100
AcDbSpline
210
0.0
220
0.0
230
1.0
 70
     8
 71
     3
 72
    12
 73
     8
 74
     0
 42
0.000000001
 43
0.00000001
 40
0.0
 40
0.0
 40
0.0
 40
0.0
 40
0.2500000000000009
 40
0.2500000000000009
 40
0.5000000000000018
 40
0.5000000000000018
 40
1.0
 40
1.0
 40
1.0
 40
1.0
 10
189.4885679515243
 20
57.43600594303804
 30
0.0
 10
189.510861951729
 20
57.42313589066669
 30
0.0
 10
189.5228063274809
 20
57.40266859368707
 30
0.0
 10
189.5314076339035
 20
57.35793024421962
 30
0.0
 10
189.528768613635
 20
57.33446998442979
 30
0.0
 10
189.5110256701763
 20
57.26388190420393
 30
0.0
 10
189.4866945729019
 20
57.21784294571468
 30
0.0
 10
189.4573526563929
 20
57.17274103960218
 30
0.0
  0
LINE
  5
272
330
1F
100
AcDbEntity
  8
0
  6
Continuous
 62
     7
370
    25
100
AcDbLine
 10
188.4475348108
 20
58.036981583
 30
0.0
 11
189.4885679515
 21
57.436005943
 31
0.0
  0
SPLINE
  5
273
330
1F
100
AcDbEntity
  8
0
  6
Continuous
 62
     7
370
    25
100
AcDbSpline
210
0.0
220
0.0
230
1.0
 70
     8
 71
     3
 72
    12
 73
     8
 74
     0
 42
0.000000001
 43
0.00000001
 40
0.0
 40
0.0
 40
0.0
 40
0.0
 40
0.5000000000000019
 40
0.5000000000000019
 40
0.7500000000000009
 40
0.7500000000000009
 40
1.0
 40
1.0
 40
1.0
 40
1.0
 10
188.1101332978621
 20
57.95047422076577
 30
0.0
 10
188.1614871271889
 20
57.98284551816792
 30
0.0
 10
188.2157153560908
 20
58.01161931217366
 30
0.0
 10
188.3041401696798
 20
58.04144837343549
 30
0.0
 10
188.3348013790716
 20
58.0489979371782
 30
0.0
 10
188.3948572430034
 20
58.05348762823063
 30
0.0
 10
188.4252736372152
 20
58.04983268501923
 30
0.0
 10
188.4475348108415
 20
58.03698158302812
 30
0.0
  0
ELLIPSE
  5
274
330
1F
100
AcDbEntity
  8
0
  6
Continuous
 62
     7
370
    25
100
AcDbEllipse
 10
197.3597191081
 20
44.4482584767
 30
0.0
 11
14.30238360604707
 21
-8.263902107297815
 31
0.0
210
0.0
220
0.0
230
1.0
 40
0.9534948969
 41
2.676532761479947
 42
3.607294128623639
  0
ARC
  5
275
330
1F
100
AcDbEntity
  8
0
  6
Continuous
 62
     7
370
    25
100
AcDbCircle
 10
193.2763316486
 20
58.3766811134
 30
0.0
 40
5.729066617380767
100
AcDbArc
 50
60.5198641356
 51
92.8876920622
  0
ARC
  5
276
330
1F
100
AcDbEntity
  8
0
  6
Continuous
 62
     7
370
    25
100
AcDbCircle
 10
183.3227707884
 20
41.083927266
 30
0.0
 40
5.818932017821486
100
AcDbArc
 50
206.9099653105
 51
239.2433431989
  0
ARC
  5
277
330
1F
100
AcDbEntity
  8
0
  6
Continuous
 62
     7
370
    25
100
AcDbCircle
 10
190.8178175403
 20
49.7563291817
 30
0.0
 40
23.1831259717194
100
AcDbArc
 50
140.2279276209
 51
177.3607126388
  0
LINE
  5
278
330
1F
100
AcDbEntity
  8
0
  6
Continuous
 62
     7
370
    25
100
AcDbLine
 10
181.1359002467
 20
37.7071196828
 30
0.0
 11
182.1784479528
 21
37.1050740518
 31
0.0
  0
LWPOLYLINE
  5
279
330
1F
100
AcDbEntity
  8
0
  6
Continuous
 62
     7
370
    25
100
AcDbPolyline
 90
        9
 70
   128
 43
0.0
 10
177.2804166842
 20
67.0587836465
 10
176.7781792894
 20
67.0548553586
 10
176.2479103904
 20
66.9565973466
 10
175.6986830349
 20
66.7656908323
 10
175.1398946553
 20
66.4854022792
 10
174.5811062757
 20
66.120527502
 10
174.0318789203
 20
65.6773096093
 10
173.5016100212
 20
65.1633321823
 10
172.9993726265
 20
64.5873895171
  0
ARC
  5
27A
330
1F
100
AcDbEntity
  8
0
  6
Continuous
 62
     7
370
    25
100
AcDbCircle
 10
170.7302145914
 20
50.5365376976
 30
0.0
 40
3.084343446773474
100
AcDbArc
 50
174.6547638622
 51
232.6759834224
  0
ARC
  5
27B
330
1F
100
AcDbEntity
  8
0
  6
Continuous
 62
     7
370
    25
100
AcDbCircle
 10
176.8451942767
 20
61.7191062948
 30
0.0
 40
5.357384881182808
100
AcDbArc
 50
62.0480659028
 51
85.3402793033
  0
ARC
  5
27C
330
1F
100
AcDbEntity
  8
0
  6
Continuous
 62
     7
370
    25
100
AcDbCircle
 10
189.9297499232
 20
50.2698445673
 30
0.0
 40
22.51849720425174
100
AcDbArc
 50
140.2279276209
 51
177.3607126388
  0
ARC
  5
27D
330
1F
100
AcDbEntity
  8
0
  6
Continuous
 62
     7
370
    25
100
AcDbCircle
 10
177.4014949941
 20
61.2175453913
 30
0.0
 40
5.899257340447997
100
AcDbArc
 50
103.4689958683
 51
144.1118487458
  0
ARC
  5
27E
330
1F
100
AcDbEntity
  8
0
  6
Continuous
 62
     7
370
    25
100
AcDbCircle
 10
171.3461773258
 20
51.2286758179
 30
0.0
 40
3.911817367876787
100
AcDbArc
 50
178.8560094402
 51
201.1091694604
  0
LWPOLYLINE
  5
27F
330
1F
100
AcDbEntity
  8
0
  6
Continuous
 62
     7
370
    18
100
AcDbPolyline
 90
       25
 70
   128
 43
0.0
 10
196.8834281768
 20
53.9092995124
 10
196.0913708073
 20
53.4064068101
 10
195.3071852597
 20
52.8172166503
 10
194.5386651224
 20
52.1475846695
 10
193.7934482937
 20
51.4041659711
 10
193.0789410734
 20
50.5943489841
 10
192.4022445552
 20
49.7261820337
 10
191.770084053
 20
48.808293353
 10
191.188742262
 20
47.8498053321
 10
190.6639968181
 20
46.8602438555
 10
190.2010628772
 20
45.8494436299
 10
189.8045412848
 20
44.8274504419
 10
189.4783728507
 20
43.804421319
 10
189.2257991833
 20
42.7905235842
 10
189.0493304732
 20
41.7958338088
 10
188.9507205457
 20
40.8302376667
 10
188.9309494305
 20
39.903331686
 10
188.9902136219
 20
39.0243278749
 10
189.1279241258
 20
38.2019621681
 10
189.3427123132
 20
37.4444076056
 10
189.6324435226
 20
36.7591931048
 10
189.9942382752
 20
36.1531286354
 10
190.4245008922
 20
35.6322375383
 10
190.9189552303
 20
35.2016966633
 10
191.2588853057
 20
34.9801656769
  0
LWPOLYLINE
  5
280
330
1F
100
AcDbEntity
  8
0
  6
Continuous
 62
     7
370
    18
100
AcDbPolyline
 90
        9
 70
   128
 43
0.0
 10
202.5079710479
 20
54.4662650805
 10
201.9967723006
 20
54.7120348137
 10
201.3646117985
 20
54.9000465145
 10
200.6879152802
 20
54.9869162953
 10
199.9734080599
 20
54.9717808052
 10
199.2281912312
 20
54.8547904676
 10
198.4596710939
 20
54.6371079849
 10
197.6754855464
 20
54.3208967835
 10
196.8834281768
 20
53.9092995124
  0
LWPOLYLINE
  5
281
330
1F
100
AcDbEntity
  8
0
  6
Continuous
 62
     7
370
    18
100
AcDbPolyline
 90
       50
 70
   128
 43
0.0
 10
208.6567560836
 20
32.3342222818
 10
208.6965226413
 20
33.0724349387
 10
208.8151693488
 20
33.8444396544
 10
209.0107480304
 20
34.637560133
 10
209.2800472895
 20
35.438773358
 10
209.6186452398
 20
36.2349234305
 10
210.0209821122
 20
37.0129375882
 10
210.4804515465
 20
37.7600408602
 10
210.9895090672
 20
38.4639658315
 10
211.5397959639
 20
39.1131540735
 10
212.122276541
 20
39.6969459331
 10
212.7273864835
 20
40.2057555642
 10
213.3451899029
 20
40.6312283268
 10
213.9655424842
 20
40.9663779697
 10
214.578258055
 20
41.2057013452
 10
215.1732758427
 20
41.3452687701
 10
215.7408256716
 20
41.382788551
 10
216.2715883892
 20
41.3176446142
 10
216.7568488864
 20
41.1509066214
 10
217.1886391993
 20
40.8853124057
 10
217.5598693428
 20
40.525223017
 10
217.8644437282
 20
40.0765511129
 10
218.0973612526
 20
39.5466638737
 10
218.2547974166
 20
38.9442620333
 10
218.3341671228
 20
38.2792370132
 10
218.3341671228
 20
37.5625085059
 10
218.2547974166
 20
36.8058451736
 10
218.0973612526
 20
36.0216714073
 10
217.8644437282
 20
35.2228633186
 10
217.5598693428
 20
34.4225373143
 10
217.1886391993
 20
33.6338347251
 10
216.7568488864
 20
32.8697060259
 10
216.2715883892
 20
32.1426981886
 10
215.7408256716
 20
31.464748662
 10
215.1732758427
 20
30.8469893585
 10
214.578258055
 20
30.2995638687
 10
213.9655424842
 20
29.8314609041
 10
213.3451899029
 20
29.4503667025
 10
212.7273864835
 20
29.16253882
 10
212.122276541
 20
28.9727033826
 10
211.5397959639
 20
28.8839774828
 10
210.9895090672
 20
28.8978179976
 10
210.4804515465
 20
29.0139976659
 10
210.0209821122
 20
29.230608821
 10
209.6186452398
 20
29.5440947136
 10
209.2800472895
 20
29.949307914
 10
209.0107480304
 20
30.4395948327
 10
208.8151693488
 20
31.006904972
 10
208.6965226413
 20
31.6419231152
 10
208.6567560836
 20
32.3342222818
  0
LWPOLYLINE
  5
282
330
1F
100
AcDbEntity
  8
0
  6
Continuous
 62
     7
370
    18
100
AcDbPolyline
 90
       26
 70
   128
 43
0.0
 10
216.224776691
 20
40.7741635356
 10
216.3538436734
 20
40.6907706593
 10
216.7197248285
 20
40.3669630526
 10
217.0205867233
 20
39.9540798589
 10
217.2510604701
 20
39.4594889885
 10
217.4070332593
 20
38.8920164272
 10
217.485721753
 20
38.2617887364
 10
217.485721753
 20
37.5800523441
 10
217.4070332593
 20
36.8589728523
 10
217.2510604701
 20
36.1114179418
 10
217.0205867233
 20
35.3507277475
 10
216.7197248285
 20
34.590476804
 10
216.3538436734
 20
33.8442318074
 10
215.9294724157
 20
33.1253095174
 10
215.4541839707
 20
32.4465391192
 10
214.9364598719
 20
31.8200332867
 10
214.3855389181
 20
31.2569720313
 10
213.8112523068
 20
30.7674031945
 10
213.2238481962
 20
30.3600631437
 10
212.6338088265
 20
30.0422208718
 10
212.0516634643
 20
29.8195482817
 10
211.4878005073
 20
29.696018971
 10
210.9522821034
 20
29.6738373232
 10
210.4546645912
 20
29.7533991703
 10
210.003827967
 20
29.9332847292
 10
209.9514274265
 20
29.9625371084
  0
LWPOLYLINE
  5
283
330
1F
100
AcDbEntity
  8
0
  6
Continuous
 62
     7
370
    18
100
AcDbPolyline
 90
       37
 70
   128
 43
0.0
 10
185.0393895919
 20
39.1104096099
 10
185.0793077724
 20
40.203908825
 10
185.1987667737
 20
41.3354007046
 10
185.3968821631
 20
42.4965080788
 10
185.6721871635
 20
43.6786345148
 10
186.0226435131
 20
44.8730279621
 10
186.4456565557
 20
46.0708455494
 10
186.9380944507
 20
47.2632190545
 10
187.4963113602
 20
48.441320561
 10
188.1161744416
 20
49.5964278177
 10
188.7930944454
 20
50.7199888144
 10
189.5220596927
 20
51.8036850987
 10
190.29767318
 20
52.8394933625
 10
191.1141925363
 20
53.8197448438
 10
191.965572538
 20
54.7371821035
 10
192.8455098654
 20
55.5850127571
 10
193.7474897704
 20
56.3569597632
 10
194.6648343094
 20
57.0473078962
 10
195.5907517844
 20
57.65094606
 10
196.5183870263
 20
58.1634051289
 10
197.4408721483
 20
58.5808910352
 10
198.3513773934
 20
58.9003128594
 10
199.2431616992
 20
59.1193057139
 10
200.1096226068
 20
59.2362482524
 10
200.9443451428
 20
59.2502746731
 10
201.7411493136
 20
59.1612811294
 10
202.4941358598
 20
58.9699264984
 10
203.1977299325
 20
58.6776275027
 10
203.8467223673
 20
58.2865482219
 10
204.4363082514
 20
57.7995840702
 10
204.9621224972
 20
57.2203403596
 10
205.4202721598
 20
56.5531056081
 10
205.8073652596
 20
55.8028197883
 10
206.1205358946
 20
54.9750377539
 10
206.357465459
 20
54.0758881134
 10
206.5163998092
 20
53.1120278562
 10
206.595544262
 20
52.1065592917
  0
LWPOLYLINE
  5
284
330
1F
100
AcDbEntity
  8
0
  6
Continuous
 62
     7
370
    18
100
AcDbPolyline
 90
       19
 70
   128
 43
0.0
 10
195.3464585198
 20
32.6204598882
 10
194.6648343094
 20
32.2868132412
 10
193.7474897704
 20
31.9180179139
 10
192.8455098654
 20
31.6485610886
 10
191.965572538
 20
31.4804377292
 10
191.1141925363
 20
31.4148925623
 10
190.29767318
 20
31.4524108614
 10
189.5220596927
 20
31.5927148541
 10
188.7930944454
 20
31.8347657788
 10
188.1161744416
 20
32.176771575
 10
187.4963113602
 20
32.6162001516
 10
186.9380944507
 20
33.149798133
 10
186.4456565557
 20
33.7736149466
 10
186.0226435131
 20
34.4830320709
 10
185.6721871635
 20
35.2727972296
 10
185.3968821631
 20
36.137063278
 10
185.1987667737
 20
37.0694314925
 10
185.0793077724
 20
38.062998945
 10
185.0393895919
 20
39.1104096099
  0
LWPOLYLINE
  5
285
330
1F
100
AcDbEntity
  8
0
  6
Continuous
 62
     7
370
    18
100
AcDbPolyline
 90
       28
 70
   128
 43
0.0
 10
184.3322828107
 20
39.1104096099
 10
184.3713415981
 20
40.2090981605
 10
184.4882439909
 20
41.3451765162
 10
184.6821700027
 20
42.5106759038
 10
184.9517593821
 20
43.6974211825
 10
185.2951211531
 20
44.8970881867
 10
185.7098468797
 20
46.1012621143
 10
186.1930275588
 20
47.3014965506
 10
186.7412740252
 20
48.4893727133
 10
187.3507407238
 20
49.6565585045
 10
188.0171526837
 20
50.7948669547
 10
188.7358355036
 20
51.8963136478
 10
189.5017481402
 20
52.9531727268
 10
190.3095182664
 20
53.9580310845
 10
191.1534799553
 20
54.9038403615
 10
192.0277134219
 20
55.7839663854
 10
192.9260865467
 20
56.5922357044
 10
193.8422978877
 20
57.32297889
 10
194.7699208805
 20
57.9710703038
 10
195.7024489165
 20
58.5319640502
 10
196.6333409814
 20
59.0017258626
 10
197.5560675363
 20
59.3770606993
 10
198.4641563173
 20
59.6553358562
 10
199.3512377341
 20
59.834599433
 10
200.211089548
 20
59.9135940245
 10
201.0376805163
 20
59.8917655404
 10
201.8252126972
 20
59.7692670917
 10
201.9874584629
 20
59.73021832
  0
ARC
  5
286
330
1F
100
AcDbEntity
  8
0
  6
Continuous
 62
     7
370
    18
100
AcDbCircle
 10
193.1198973541
 20
38.5367553105
 30
0.0
 40
8.806318675729058
100
AcDbArc
 50
176.265038642
 51
220.6392342336
  0
LWPOLYLINE
  5
287
330
1F
100
AcDbEntity
  8
0
  6
Continuous
 62
     7
370
    18
100
AcDbPolyline
 90
       26
 70
   128
 43
0.0
 10
177.0844383036
 20
43.294501183
 10
177.123497091
 20
44.3931897336
 10
177.2403994837
 20
45.5292680893
 10
177.4343254956
 20
46.6947674769
 10
177.7039148749
 20
47.8815127556
 10
178.0472766459
 20
49.0811797597
 10
178.4620023725
 20
50.2853536874
 10
178.9451830516
 20
51.4855881237
 10
179.493429518
 20
52.6734642864
 10
180.1028962167
 20
53.8406500776
 10
180.7693081765
 20
54.9789585278
 10
181.4879909965
 20
56.0804052209
 10
182.253903633
 20
57.1372642999
 10
183.0616737592
 20
58.1421226576
 10
183.9056354481
 20
59.0879319346
 10
184.7798689147
 20
59.9680579585
 10
185.6782420395
 20
60.7763272775
 10
186.5944533805
 20
61.5070704631
 10
187.5220763734
 20
62.1551618769
 10
188.4546044093
 20
62.7160556233
 10
189.3854964742
 20
63.1858174357
 10
190.3082230291
 20
63.5611522724
 10
191.2163118101
 20
63.8394274293
 10
192.103393227
 20
64.0186910061
 10
192.9632450409
 20
64.0976855976
 10
192.987710439
 20
64.0984729747
  0
ARC
  5
288
330
1F
100
AcDbEntity
  8
0
  6
Continuous
 62
     7
370
    18
100
AcDbCircle
 10
187.2962650581
 20
42.9711133488
 30
0.0
 40
10.21694598964935
100
AcDbArc
 50
178.1861650914
 51
206.262104461
  0
LWPOLYLINE
  5
289
330
1F
100
AcDbEntity
  8
0
  6
Continuous
 62
     7
370
    18
100
AcDbPolyline
 90
       32
 70
   128
 43
0.0
 10
186.8071565449
 20
40.1309197497
 10
186.8467713037
 20
41.1286806113
 10
186.9652674443
 20
42.1634113415
 10
187.1616036183
 20
43.2260186896
 10
187.4340544164
 20
44.3071644239
 10
187.7802255311
 20
45.3973473968
 10
188.1970747982
 20
46.4869870412
 10
188.6809389315
 20
47.5665075647
 10
189.2275657154
 20
48.626422102
 10
189.8321513742
 20
49.6574160863
 10
190.4893827873
 20
50.6504291052
 10
191.1934841815
 20
51.5967345246
 10
191.9382678884
 20
52.4880161785
 10
192.717188722
 20
53.3164414517
 10
193.523401498
 20
54.074730113
 10
194.3498211895
 20
54.7562182945
 10
195.1891851906
 20
55.3549170535
 10
196.0341171403
 20
55.8655650038
 10
196.8771917461
 20
56.2836745528
 10
197.7110000382
 20
56.6055713388
 10
198.5282144793
 20
56.8284265213
 10
199.3216533596
 20
56.9502816408
 10
200.0843439095
 20
56.9700658303
 10
200.8095835771
 20
56.8876052256
 10
201.4909989302
 20
56.7036244934
 10
202.1226016661
 20
56.419740463
 10
202.6988412373
 20
56.0384479175
 10
203.2146536296
 20
55.5630976694
 10
203.6655058654
 20
54.9978671139
 10
204.0474358388
 20
54.3477235174
 10
204.3570871355
 20
53.6183803652
 10
204.4475546584
 20
53.3465672956
  0
LWPOLYLINE
  5
28A
330
1F
100
AcDbEntity
  8
0
  6
Continuous
 62
     7
370
    18
100
AcDbPolyline
 90
       15
 70
   128
 43
0.0
 10
193.1984689162
 20
33.860467892
 10
192.717188722
 20
33.7689759554
 10
191.9382678884
 20
33.6980783767
 10
191.1934841815
 20
33.7294510663
 10
190.4893827873
 20
33.8628183199
 10
189.8321513742
 20
34.0970081012
 10
189.2275657154
 20
34.429962342
 10
188.6809389315
 20
34.8587550285
 10
188.1970747982
 20
35.3796179151
 10
187.7802255311
 20
35.98797364
 10
187.4340544164
 20
36.6784759514
 10
187.1616036183
 20
37.4450566899
 10
186.9652674443
 20
38.2809791166
 10
186.8467713037
 20
39.1788971151
 10
186.8071565449
 20
40.1309197497
  0
LINE
  5
28B
330
1F
100
AcDbEntity
  8
0
  6
Continuous
 62
     7
370
    18
100
AcDbLine
 10
189.4885679515
 20
57.436005943
 30
0.0
 11
188.1350919618
 21
55.0917167689
 31
0.0
  0
LINE
  5
28C
330
1F
100
AcDbEntity
  8
0
  6
Continuous
 62
     7
370
    18
100
AcDbLine
 10
183.5304997329
 20
47.1163291038
 30
0.0
 11
182.1769333874
 21
44.7718834287
 31
0.0
  0
LINE
  5
28D
330
1F
100
AcDbEntity
  8
0
  6
Continuous
 62
     7
370
    18
100
AcDbLine
 10
188.4475348108
 20
58.036981583
 30
0.0
 11
181.1359002467
 21
45.3728590687
 31
0.0
  0
LINE
  5
28E
330
1F
100
AcDbEntity
  8
0
  6
Continuous
 62
     7
370
    18
100
AcDbLine
 10
188.1101332979
 20
57.9504742208
 30
0.0
 11
181.0421155418
 21
45.7083083944
 31
0.0
  0
LINE
  5
28F
330
1F
100
AcDbEntity
  8
0
  6
Continuous
 62
     7
370
    18
100
AcDbLine
 10
172.9993726265
 20
64.5873895171
 30
0.0
 11
183.411790513
 21
58.6884296366
 31
0.0
  0
LINE
  5
290
330
1F
100
AcDbEntity
  8
0
  6
Continuous
 62
     7
370
    18
100
AcDbLine
 10
167.6592835372
 20
50.8238649631
 30
0.0
 11
177.1066154365
 21
45.0889358055
 31
0.0
  0
LINE
  5
291
330
1F
100
AcDbEntity
  8
0
  6
Continuous
 62
     7
370
    18
100
AcDbLine
 10
196.4639019572
 20
61.2177829743
 30
0.0
 11
195.1171155418
 21
61.995518969
 31
0.0
  0
LINE
  5
292
330
1F
100
AcDbEntity
  8
0
  6
Continuous
 62
     7
370
    18
100
AcDbLine
 10
181.0421155418
 20
37.616903924
 30
0.0
 11
182.3895328314
 21
36.838803615
 31
0.0
  0
LINE
  5
293
330
1F
100
AcDbEntity
  8
0
  6
Continuous
 62
     7
370
    18
100
AcDbLine
 10
177.2804166842
 20
67.0587836465
 30
0.0
 11
186.9434936514
 21
61.858588933
 31
0.0
  0
LINE
  5
294
330
1F
100
AcDbEntity
  8
0
  6
Continuous
 62
     7
370
    18
100
AcDbLine
 10
172.6221356495
 20
64.6757185252
 30
0.0
 11
172.9993726265
 21
64.5873895171
 31
0.0
  0
LINE
  5
295
330
1F
100
AcDbEntity
  8
0
  6
Continuous
 62
     7
370
    18
100
AcDbLine
 10
167.4351396691
 20
51.3067755462
 30
0.0
 11
167.6592835372
 21
50.8238649631
 31
0.0
  0
OLE2FRAME
  5
296
330
1F
100
AcDbEntity
  8
0
100
AcDbOle2Frame
 70
     2
  3
Paintbrush-Bild
 10
13.8511154363
 20
38.264191557
 30
0.0
 11
51.6290888628
 21
31.9806341108
 31
0.0
 71
     2
 72
     0
 73
     1
 90
    12928
310
80552BED0767C5B32B40DDAF6807D121434000000000000000006FFBDDFB85D0
310
4940DDAF6807D121434000000000000000006FFBDDFB85D04940416F4BD60AFB
310
3F4000000000000000002BED0767C5B32B40416F4BD60AFB3F40000000000000
310
0000000000000100000000010000010000000100000000000100000000320000
310
D0CF11E0A1B11AE1000000000000000000000000000000003E000300FEFF0900
310
0600000000000000000000000100000001000000000000000010000002000000
310
01000000FEFFFFFF0000000000000000FFFFFFFFFFFFFFFFFFFFFFFFFFFFFFFF
310
FFFFFFFFFFFFFFFFFFFFFFFFFFFFFFFFFFFFFFFFFFFFFFFFFFFFFFFFFFFFFFFF
310
FFFFFFFFFFFFFFFFFFFFFFFFFFFFFFFFFFFFFFFFFFFFFFFFFFFFFFFFFFFFFFFF
310
FFFFFFFFFFFFFFFFFFFFFFFFFFFFFFFFFFFFFFFFFFFFFFFFFFFFFFFFFFFFFFFF
310
FFFFFFFFFFFFFFFFFFFFFFFFFFFFFFFFFFFFFFFFFFFFFFFFFFFFFFFFFFFFFFFF
310
FFFFFFFFFFFFFFFFFFFFFFFFFFFFFFFFFFFFFFFFFFFFFFFFFFFFFFFFFFFFFFFF
310
FFFFFFFFFFFFFFFFFFFFFFFFFFFFFFFFFFFFFFFFFFFFFFFFFFFFFFFFFFFFFFFF
310
FFFFFFFFFFFFFFFFFFFFFFFFFFFFFFFFFFFFFFFFFFFFFFFFFFFFFFFFFFFFFFFF
310
FFFFFFFFFFFFFFFFFFFFFFFFFFFFFFFFFFFFFFFFFFFFFFFFFFFFFFFFFFFFFFFF
310
FFFFFFFFFFFFFFFFFFFFFFFFFFFFFFFFFFFFFFFFFFFFFFFFFFFFFFFFFFFFFFFF
310
FFFFFFFFFFFFFFFFFFFFFFFFFFFFFFFFFFFFFFFFFFFFFFFFFFFFFFFFFFFFFFFF
310
FFFFFFFFFFFFFFFFFFFFFFFFFFFFFFFFFFFFFFFFFFFFFFFFFFFFFFFFFFFFFFFF
310
FFFFFFFFFFFFFFFFFFFFFFFFFFFFFFFFFFFFFFFFFFFFFFFFFFFFFFFFFFFFFFFF
310
FFFFFFFFFFFFFFFFFFFFFFFFFFFFFFFFFFFFFFFFFFFFFFFFFFFFFFFFFFFFFFFF
310
FDFFFFFFFEFFFFFFFEFFFFFFFEFFFFFF05000000060000000700000008000000
310
090000000A0000000B0000000C0000000D0000000E0000000F00000010000000
310
11000000120000001300000014000000150000001600000017000000FEFFFFFF
310
FFFFFFFFFFFFFFFFFFFFFFFFFFFFFFFFFFFFFFFFFFFFFFFFFFFFFFFFFFFFFFFF
310
FFFFFFFFFFFFFFFFFFFFFFFFFFFFFFFFFFFFFFFFFFFFFFFFFFFFFFFFFFFFFFFF
310
FFFFFFFFFFFFFFFFFFFFFFFFFFFFFFFFFFFFFFFFFFFFFFFFFFFFFFFFFFFFFFFF
310
FFFFFFFFFFFFFFFFFFFFFFFFFFFFFFFFFFFFFFFFFFFFFFFFFFFFFFFFFFFFFFFF
310
FFFFFFFFFFFFFFFFFFFFFFFFFFFFFFFFFFFFFFFFFFFFFFFFFFFFFFFFFFFFFFFF
310
FFFFFFFFFFFFFFFFFFFFFFFFFFFFFFFFFFFFFFFFFFFFFFFFFFFFFFFFFFFFFFFF
310
FFFFFFFFFFFFFFFFFFFFFFFFFFFFFFFFFFFFFFFFFFFFFFFFFFFFFFFFFFFFFFFF
310
FFFFFFFFFFFFFFFFFFFFFFFFFFFFFFFFFFFFFFFFFFFFFFFFFFFFFFFFFFFFFFFF
310
FFFFFFFFFFFFFFFFFFFFFFFFFFFFFFFFFFFFFFFFFFFFFFFFFFFFFFFFFFFFFFFF
310
FFFFFFFFFFFFFFFFFFFFFFFFFFFFFFFFFFFFFFFFFFFFFFFFFFFFFFFFFFFFFFFF
310
FFFFFFFFFFFFFFFFFFFFFFFFFFFFFFFFFFFFFFFFFFFFFFFFFFFFFFFFFFFFFFFF
310
FFFFFFFFFFFFFFFFFFFFFFFFFFFFFFFFFFFFFFFFFFFFFFFFFFFFFFFFFFFFFFFF
310
FFFFFFFFFFFFFFFFFFFFFFFFFFFFFFFFFFFFFFFFFFFFFFFFFFFFFFFFFFFFFFFF
310
52006F006F007400200045006E00740072007900000000000000000000000000
310
0000000000000000000000000000000000000000000000000000000000000000
310
16000500FFFFFFFFFFFFFFFF020000000A00030000000000C000000000000046
310
00000000000000000000000060972C21988ED30103000000C000000000000000
310
01004F006C006500000000000000000000000000000000000000000000000000
310
0000000000000000000000000000000000000000000000000000000000000000
310
0A000200FFFFFFFFFFFFFFFFFFFFFFFF00000000000000000000000000000000
310
0000000000000000000000000000000000000000000000001400000000000000
310
010043006F006D0070004F0062006A0000000000000000000000000000000000
310
0000000000000000000000000000000000000000000000000000000000000000
310
120002010100000003000000FFFFFFFF00000000000000000000000000000000
310
0000000000000000000000000000000000000000010000004D00000000000000
310
01004F006C006500310030004E00610074006900760065000000000000000000
310
0000000000000000000000000000000000000000000000000000000000000000
310
1A000200FFFFFFFFFFFFFFFFFFFFFFFF00000000000000000000000000000000
310
0000000000000000000000000000000000000000040000002426000000000000
310
FEFFFFFF02000000FEFFFFFFFFFFFFFFFFFFFFFFFFFFFFFFFFFFFFFFFFFFFFFF
310
FFFFFFFFFFFFFFFFFFFFFFFFFFFFFFFFFFFFFFFFFFFFFFFFFFFFFFFFFFFFFFFF
310
FFFFFFFFFFFFFFFFFFFFFFFFFFFFFFFFFFFFFFFFFFFFFFFFFFFFFFFFFFFFFFFF
310
FFFFFFFFFFFFFFFFFFFFFFFFFFFFFFFFFFFFFFFFFFFFFFFFFFFFFFFFFFFFFFFF
310
FFFFFFFFFFFFFFFFFFFFFFFFFFFFFFFFFFFFFFFFFFFFFFFFFFFFFFFFFFFFFFFF
310
FFFFFFFFFFFFFFFFFFFFFFFFFFFFFFFFFFFFFFFFFFFFFFFFFFFFFFFFFFFFFFFF
310
FFFFFFFFFFFFFFFFFFFFFFFFFFFFFFFFFFFFFFFFFFFFFFFFFFFFFFFFFFFFFFFF
310
FFFFFFFFFFFFFFFFFFFFFFFFFFFFFFFFFFFFFFFFFFFFFFFFFFFFFFFFFFFFFFFF
310
FFFFFFFFFFFFFFFFFFFFFFFFFFFFFFFFFFFFFFFFFFFFFFFFFFFFFFFFFFFFFFFF
310
FFFFFFFFFFFFFFFFFFFFFFFFFFFFFFFFFFFFFFFFFFFFFFFFFFFFFFFFFFFFFFFF
310
FFFFFFFFFFFFFFFFFFFFFFFFFFFFFFFFFFFFFFFFFFFFFFFFFFFFFFFFFFFFFFFF
310
FFFFFFFFFFFFFFFFFFFFFFFFFFFFFFFFFFFFFFFFFFFFFFFFFFFFFFFFFFFFFFFF
310
FFFFFFFFFFFFFFFFFFFFFFFFFFFFFFFFFFFFFFFFFFFFFFFFFFFFFFFFFFFFFFFF
310
FFFFFFFFFFFFFFFFFFFFFFFFFFFFFFFFFFFFFFFFFFFFFFFFFFFFFFFFFFFFFFFF
310
FFFFFFFFFFFFFFFFFFFFFFFFFFFFFFFFFFFFFFFFFFFFFFFFFFFFFFFFFFFFFFFF
310
FFFFFFFFFFFFFFFFFFFFFFFFFFFFFFFFFFFFFFFFFFFFFFFFFFFFFFFFFFFFFFFF
310
0100000200000000000000000000000000000000000000000000000000000000
310
0000000000000000000000000000000000000000000000000000000000000000
310
0100FEFF030A0000FFFFFFFF0A00030000000000C00000000000004607000000
310
5042727573680007000000504272757368000700000050427275736800F439B2
310
7100000000000000000000000000000000000000000000000000000000000000
310
0000000000000000000000000000000000000000000000000000000000000000
310
0000000000000000000000000000000000000000000000000000000000000000
310
0000000000000000000000000000000000000000000000000000000000000000
310
0000000000000000000000000000000000000000000000000000000000000000
310
0000000000000000000000000000000000000000000000000000000000000000
310
0000000000000000000000000000000000000000000000000000000000000000
310
0000000000000000000000000000000000000000000000000000000000000000
310
0000000000000000000000000000000000000000000000000000000000000000
310
0000000000000000000000000000000000000000000000000000000000000000
310
0000000000000000000000000000000000000000000000000000000000000000
310
0000000000000000000000000000000000000000000000000000000000000000
310
20260000424D0E260000000000003E00000028000000B40200006E0000000100
310
01000000000000000000130B0000130B00000200000002000000000000FFFFFF
310
FFFFFFFFFFFFFFFFFFFFFFFFFFFFFFFFFFFFFFFFFFFFFFFFFFFFFFFFFFFFFFFF
310
FFFFFFFFFFFFFFFFFFFFFFFFFFFFFFFFFFFFFFFFFFFFFFFFFFFFFFFFFFFFFFFF
310
FFFFFFFFFFFFFFFFFFFFFFFFFFFFFFFFFFFFFFFFFFFFFFFFF000FFFFFFFFFFFF
310
FFFFFFFFFFFFFFFFFFFFFFFFFFFFFFFFFFFFFFFFFFFFFFFFFFFFFFFFFFFFFFFF
310
FFFFFFFFFFFFFFFFFFFFFFFFFFFFFFFFFFFFFFFFFFFFFFFFFFFFFFFFFFFFFFFF
310
FFFFFFFFFFFFFFFFFFFFFFFFFFFFFFFFF000FFFFFFFFFFFFFFFFFFFFFFFFFFFF
310
FFFFFFFFFFFFFFFFFFFFFFFFFFFFFFFFFFFFFFFFFFFFFFFFFFFFFFFFFFFFFFFF
310
FFFFFFFFFFFFFFFFFFFFFFFFFFFFFFFFFFFFFFFFFFFFFFFFFFFFFFFFFFFFFFFF
310
FFFFFFFFFFFFFFFFF000FFFFFFFFFFFFFFFFFFFFFFFFFFFFFFFFFFFFFFFFFFFF
310
FFFFFFFFFFFFFFFFFFFFFFFFFFFFFFFFFFFFFFFFFFFFFFFFFFFFFFFFFFFFFFFF
310
FFFFFFFFFFFFFFFFFFFFFFFFFFFFFFFFFFFFFFFFFFFFFFFFFFFFFFFFFFFFFFFF
310
F000FFFFFFFFFFFFFFFFFFFFFFFFFFFFFFFFFFFFFFFFFFFFFFFFFFFFFFFFFFFF
310
FFFFFFFFFFFFFFFFFFFFFFFFFFFFFFFFFFFFFFFFFFFFFFFFFFFFFFFFFFFFFFFF
310
FFFFFFFFFFFFFFFFFFFFFFFFFFFFFFFFFFFFFFFFFFFFFFFFF000FFFFFFFFFFFF
310
FFFFFFFFFFFFFFFFFFFFFFFFFFFFFFFFFFFFFFFFFFFFFFFFFFFFFFFFFFFFFFFF
310
FFFFFFFFFFFFFFFFFFFFFFFFFFFFFFFFFFFFFFFFFFFFFFFFFFFFFFFFFFFFFFFF
310
FFFFFFFFFFFFFFFFFFFFFFFFFFFFFFFFF000FFFFFFFFFFFFFFFFFFFFFFFFFFFF
310
FFFFFFFFFFFFFFFFFFFFFFFFFFFFFFFFFFFFFFFFFFFFFFFFFFFFFFFFFFFFFFFF
310
FFFFFFFFFFFFFFFFFFFFFFFFFFFFFFFFFFFFFFFFFFFFFFFFFFFFFFFFFFFFFFFF
310
FFFFFFFFFFFFFFFFF000FFFFFFFFFFFFFFFFFFFFFFFFFFFFFFFFFFFFFFFFFFFF
310
FFFFFFFFFFFFFFFFFFFFFFFFFFFFFFFFFFFFFFFFFFFFFFFFFFFFFFFFFFFFFFFF
310
FFFFFFFFFFFFFFFFFFFFFFFFFFFFFFFFFFFFFFFFFFFFFFFFFFFFFFFFFFFFFFFF
310
F000FFFFFFFFFFFFFFFFFFFFFFFFFFFFFFFFFFFFFFFFFFFFFFFFFFFFFFFFFFFF
310
FFFFFFFFFFFFFFFFFFFFFFFFFFFFFFFFFFFFFFFFFFFFFFFFFFFFFFFFFFFFFFFF
310
FFFFFFFFFFFFFFFFFFFFFFFFFFFFFFFFFFFFFFFFFFFFFFFFF000FFFFFFFFFFFF
310
FFFFFFFFFFFFFFFFFFFFFFFFFFFFFFFFFFFFFFFFFFFFFFFFFFFFFFFFFFFFFFFF
310
FFFFFFFFFFFFFFFFFFFFFFFFFFFFFFFFFFFFFFFFFFFFFFFFFFFFFFFFFFFFFFFF
310
FFFFFFFFFFFFFFFFFFFFFFFFFFFFFFFFF000FFFFFFFFFFFFFFFFFFFFFFFFFFFF
310
FFFFFFFFFFFFFFFFFFFFFFFFFFFFFFFFFFFFFFFFFFFFFFFFFFFFFFFFFFFFFFFF
310
FFFFFFFFFFFFFFFFFFFFFFFFFFFFFFFFFFFFFFFFFFFFFFFFFFFFFFFFFFFFFFFF
310
FFFFFFFFFFFFFFFFF000FFFFFFFFFFFFFFFFFFFFFFFFFFFFFFFFFFFFFFFFFFFF
310
FFFFFFFFFFFFFFFFFFFFFFFFFFFFFFFFFFFFFFFFFFFFFFFFFFFFFFFFFFFFFFFF
310
FFFFFFFFFFFFFFFFFFFFFFFFFFFFFFFFFFFFFFFFFFFFFFFFFFFFFFFFFFFFFFFF
310
F000FFFFFFFFFFFFFFFFFFFFFFFFFFFFFFFFFFFFFFFFFFFFFFFFFFFFFFFFFFFF
310
FFFFFFFFFFFFFFFFFFFFFFFFFFFFFFFFFFFFFFFFFFFFFFFFFFFFFFFFFFFFFFFF
310
FFFFFFFFFFFFFFFFFFFFFFFFFFFFFFFFFFFFFFFFFFFFFFFFF000FFFFFFFFFFFF
310
FFFFFFFFFFFFFFFFFFFFFFFFFFFFFFFFFFFFFFFFFFFFFFFFFFFFFFFFFFFFFFFF
310
FFFFFFFFFFFFFFFFFFFFFFFFFFFFFFFFFFFFFFFFFFFFFFFFFFFFFFFFFFFFFFFF
310
FFFFFFFFFFFFFFFFFFFFFFFFFFFFFFFFF000FFFFFFFFFFFFFFFFFFFFFFFFFFFF
310
FFFFFFFFFFFFFFFFFFFFFFFFFFFFFFFFFFFFFFFFFFFFFFFFFFFFFFFFFFFFFFFF
310
FFFFFFFFFFFFFFFFFFFFFFFFFFFFFFFFFFFFFFFFFFFFFFFFFFFFFFFFFFFFFFFF
310
FFFFFFFFFFFFFFFFF000FFFFFFFFFFFFFFFFFFFFFFFFFFFFFFFFFFFFFFFFFFFF
310
FFFFFFFFFFFFFFFFFFFFFFFFFFFFFFFFFFFFFFFFFFFFFFFFFFFFFFFFFFFFFFFF
310
FFFFFFFFFFFFFFFFFFFFFFFFFFFFFFFFFFFFFFFFFFFFFFFFFFFFFFFFFFFFFFFF
310
F000FFFFFFFFFFFFFFFFFFFFFFFFFFFFFFFFFFFFFFFFFFFFFFFFFFFFFFFFFFFF
310
FFFFFFFFFFFFFFFFFFFFFFFFFFFFFFFFFFFFFFFFFFFFFFFFFFFFFFFFFFFFFFFF
310
FFFFFFFFFFFFFFFFFFFFFFFFFFFFFFFFFFFFFFFFFFFFFFFFF000FFFFFFFFFFFF
310
FFFFFFFFFFFFFFFFFFFFFFFFFFFFFFFFFFFFFFFFFFFFFFFFFFFFFFFFFFFFFFFF
310
FFFFFFFFFFFFFFFFFFFFFFFFFFFFFFFFFFFFFFFFFFFFFFFFFFFFFFFFFFFFFFFF
310
FFFFFFFFFFFFFFFFFFFFFFFFFFFFFFFFF000FFFFFFFFFFFFFFFFFFFFFFFFFFFF
310
FFFFFFFFFFFFFFFFFFFFFFFFFFFFFFFFFFFFFFFFFFFFFFFFFFFFFFFFFFFFFFFF
310
FFFFFFFFFFFFFFFFFFFFFFFFFFFFFFFFFFFFFFFFFFFFFFFFFFFFFFFFFFFFFFFF
310
FFFFFFFFFFFFFFFFF000FFFFF80003FFFFFFFFFFFFFFFFFFFFFFFFFFFFFFFFFF
310
FFFFF00007FFFFFFFFFF00007FFFFFF800000000000000007FFFFFFFFFFFFFFF
310
FFFFFFFC001FFFFFFFFFFFFFFC001FFFFFFFFFFFFFFFFFFFFFFFFFFE0007FFFF
310
F000FFFF8000007FFFFFFFF8000FFFFFC0007FFFFF80007FFFFF0000007FFFFF
310
FFF8000007FFFFF800000000000000007FFFFFF0001FFFFFFFFFFFC00001FFFF
310
FFFFFFFFC00001FFFFFFFF000000000003FFFFE000007FFFF000FFFE0000000F
310
FFFFFFF0000FFFFF80007FFFFF80007FFFFC0000001FFFFFFFC0000001FFFFF8
310
00000000000000007FFFFFF0001FFFFFFFFFFE0000003FFFFFFFFFFE0000003F
310
FFFFFF000000000003FFFF0000000FFFF000FFF800000003FFFFFFF00007FFFF
310
80007FFFFF80007FFFF000000007FFFFFF000000003FFFF80000000000000000
310
7FFFFFF0001FFFFFFFFFF80000000FFFFFFFFFF80000000FFFFFFF0000000000
310
03FFFC00000003FFF000FFE000000000FFFFFFF00007FFFF80003FFFFF80007F
310
FFC000000001FFFFFC000000001FFFF800000000000000007FFFFFF0001FFFFF
310
FFFFE000000003FFFFFFFFE000000003FFFFFF000000000003FFF000000000FF
310
F000FF80000000007FFFFFF00007FFFF80003FFFFF80007FFF8000000000FFFF
310
F80000000007FFF800000000000000007FFFFFF0001FFFFFFFFFC000000001FF
310
FFFFFFC000000001FFFFFF000000000003FFC0000000007FF000FF0000000000
310
3FFFFFE00007FFFF00003FFFFF80007FFE00000000003FFFF00000000003FFF8
310
00000000000000007FFFFFF0001FFFFFFFFF8000000000FFFFFFFF8000000000
310
FFFFFF000000000003FF80000000003FF000FE00000000001FFFFFE00003FFFF
310
00003FFFFF80007FFC00000000001FFFE00000000001FFF8000001FFFE000000
310
7FFFFFF0001FFFFFFFFE00000000003FFFFFFE00000000003FFFFF0000000000
310
03FF00000000001FF000FC00000000000FFFFFE00003FFFF00001FFFFF80007F
310
F800000000001FFFC00000000000FFF8000001FFFE0000007FFFFFF0001FFFFF
310
FFFC00000000001FFFFFFC00000000001FFFFF000000000003FE00000000000F
310
F000F8000000000007FFFFE00003FFFF00001FFFFF80007FF800000000000FFF
310
800000000000FFF8000001FFFE0000007FFFFFF0001FFFFFFFF800000000000F
310
FFFFF800000000000FFFFF000000000003FC000000000007F000F80000000000
310
03FFFFC00003FFFE00001FFFFF80007FF0000000000007FF0000000000007FF8
310
000001FFFE0000007FFFFFF0001FFFFFFFF0000000000007FFFFF00000000000
310
07FFFF000000000003F8000000000003F000F0000000000003FFFFC00001FFFE
310
00001FFFFF80007FE0000000000007FE0000000000003FF8000001FFFE000000
310
7FFFFFF0001FFFFFFFF0000000000007FFFFF0000000000007FFFF0000000000
310
03F800001F800003F000E00001FFF00001FFFFC00001FFFE00000FFFFF80007F
310
E00001FFE00003FE00001FFF00003FF8000001FFFE0000007FFFFFF0001FFFFF
310
FFE000003E000003FFFFE000003E000003FFFF000000000003F00001FFF80001
310
F000E00007FFFC0001FFFFC00001FFFE00000FFFFF80007FC0000FFFFC0003FC
310
0000FFFFC0001FF8000001FFFE0000007FFFFFF0001FFFFFFFC00003FFE00001
310
FFFFC00003FFE00001FFFF0001FFFFFFFFF00007FFFE0001F000E0000FFFFF00
310
00FFFF800001FFFC00000FFFFF80007FC0001FFFFE0001FC0001FFFFE0001FF8
310
000001FFFE0000007FFFFFF0001FFFFFFF80000FFFF80000FFFF80000FFFF800
310
00FFFF0003FFFFFFFFE0000FFFFF8000F000C0003FFFFF8000FFFF800000FFFC
310
000007FFFF80007F80003FFFFF0001FC0003FFFFF0001FF8000001FFFE000000
310
7FFFFFF0001FFFFFFF80003FFFFE0000FFFF80003FFFFE0000FFFF0003FFFFFF
310
FFE0003FFFFF8000F000C0003FFFFF8000FFFF800000FFFC000007FFFF80007F
310
80007FFFFF8001F80007FFFFF8000FF8000001FFFE0000007FFFFFF0001FFFFF
310
FF00007FFFFF00007FFF00007FFFFF00007FFF0003FFFFFFFFE0003FFFFFC000
310
F000C0007FFFFFC000FFFF000000FFFC000007FFFF80007F8000FFFFFF8000F8
310
000FFFFFF8000FF8000001FFFE0000007FFFFFF0001FFFFFFF0000FFFFFF8000
310
7FFF0000FFFFFF80007FFF0003FFFFFFFFC0007FFFFFC00070008000FFFFFFC0
310
00FFFF000000FFF8000007FFFF80007F8000FFFFFF8000F8000FFFFFF8000FF8
310
000001FFFE0000007FFFFFF0001FFFFFFE0001FFFFFFC0003FFE0001FFFFFFC0
310
003FFF0003FFFFFFFFC0007FFFFFE00070008000FFFFFFC0007FFF0000007FF8
310
000003FFFF80007F0001FFFFFF8000F8000FFFFFF8000FF8000001FFFE000000
310
7FFFFFF0001FFFFFFE0001FFFFFFC0003FFE0001FFFFFFC0003FFF0003FFFFFF
310
FFC000FFFFFFE00070008000FFFFFFC0007FFF0000007FF8000003FFFF80007F
310
0001FFFFFF8000F8001FFFFFF8000FF8000001FFFE0000007FFFFFF0001FFFFF
310
FE0003FFFFFFE0003FFE0003FFFFFFE0003FFF0003FFFFFFFFC000FFFFFFE000
310
70008000FFFFFFC0007FFE0000007FF8000003FFFF80007F0001FFFFFF8000F0
310
001FFFFFF8000FF8000001FFFE0000007FFFFFF0001FFFFFFC0003FFFFFFE000
310
1FFC0003FFFFFFE0001FFF0003FFFFFFFFC000FFFFFFC00070008000FFFFFF80
310
007FFE0000007FF0000003FFFF80007F0001FFFFFF0000F0001FFFFFF8000FF8
310
000001FFFE0000007FFFFFF0001FFFFFFC0007FFFFFFF0001FFC0007FFFFFFF0
310
001FFF0003FFFFFFFFC000FFFFFFC00070008001FFFFFF0000FFFE0000003FF0
310
000001FFFF80007F0001FFFFFF0000F8001FFFFFF0000FF8000001FFFE000000
310
7FFFFFF0001FFFFFFC0007FFFFFFF0001FFC0007FFFFFFF0001FFF0003FFFFFF
310
FFC001FFFFFF80007000FFFFFFFFFE0000FFFE0008003FF0008001FFFF80007F
310
FFFFFFFFFC0000FFFFFFFFFFE0000FF8000001FFFE0000007FFFFFF0001FFFFF
310
F8000FFFFFFFF8000FF8000FFFFFFFF8000FFF0003FFFFFFFFFFFFFFFFFF0000
310
7000FFFFFFFFFC0000FFFC0008003FF0008001FFFF80007FFFFFFFFFF80001FF
310
FFFFFFFF80000FF8000001FFFE0000007FFFFFF0001FFFFFF8000FFFFFFFF800
310
0FF8000FFFFFFFF8000FFF0003FFFFFFFFFFFFFFFFFE0000F000FFFFFFFFE000
310
00FFFC000C003FE000C001FFFF80007FFFFFFFFFC00001FFFFFFFFFE00001FF8
310
000001FFFE0000007FFFFFF0001FFFFFF8000FFFFFFFF8000FF8000FFFFFFFF8
310
000FFF0003FFFFFFFFFFFFFFFFF00000F000FFFFFFFE000001FFFC000C001FE0
310
00C000FFFF80007FFFFFFFFE000001FFFFFFFFE000001FF80FFFFFFFFFFFFFC0
310
7FFFFFF0001FFFFFF8000FFFFFFFF8000FF8000FFFFFFFF8000FFF0003FFFFFF
310
FFFFFFFFFF800000F000FFFFFFC0000001FFFC001C001FE001C000FFFF80007F
310
FFFFFF80000003FFFFFFF80000001FF80FFFFFFFFFFFFFC07FFFFFF0001FFFFF
310
F8001FFFFFFFFC000FF8001FFFFFFFFC000FFF0003FFFFFFFFFFFFFFF0000001
310
F000FFFFF800000001FFF8001C001FE001C000FFFF80007FFFFFF800000003FF
310
FFFF800000003FF80FFFFFFFFFFFFFC07FFFFFF0001FFFFFF8001FFFFFFFFC00
310
0FF8001FFFFFFFFC000FFF0003FFFFFFFFFFFFFE00000001F000FFFFC0000000
310
03FFF8001E001FC001E000FFFF80007FFFFF8000000007FFFFFC000000003FF8
310
0FFFFFFFFFFFFFC07FFFFFF0001FFFFFF8001FFFFFFFFC000FF8001FFFFFFFFC
310
000FFF0003FFFFFFFFFFFFE000000003F000FFFE0000000007FFF8001E000FC0
310
01E0007FFF80007FFFFE0000000007FFFFE0000000007FF80FFFFFFFFFFFFFC0
310
7FFFFFF0001FFFFFF0001FFFFFFFFC0007F0001FFFFFFFFC0007FF0003FFFFFF
310
FFFFFF0000000003F000FFF80000000007FFF8001E000FC003E0007FFF80007F
310
FFF0000000000FFFFF8000000000FFF80FFFFFFFFFFFFFC07FFFFFF0001FFFFF
310
F0001FFFFFFFFC0007F0001FFFFFFFFC0007FF0003FFFFFFFFFFFC0000000007
310
F000FFE0000000000FFFF0003E000FC003E0007FFF80007FFFC0000000001FFF
310
FE0000000001FFF80FFFFFFFFFFFFFC07FFFFFF0001FFFFFF0001FFFFFFFFC00
310
07F0001FFFFFFFFC0007FF0003FFFFFFFFFFF0000000000FF000FFC000000000
310
1FFFF0003F000F8003F0003FFF80007FFF80000000003FFFF80000000003FFF8
310
0FFFFFFFFFFFFFC07FFFFFF0001FFFFFF0001FFFFFFFFC0007F0001FFFFFFFFC
310
0007FF0003FFFFFFFFFFE0000000001FF000FF00000000007FFFF0003F000780
310
03F0003FFF80007FFF00000000007FFFF00000000007FFF80FFFFFFFFFFFFFC0
310
7FFFFFF0001FFFFFF0001FFFFFFFFC0007F0001FFFFFFFFC0007FF0003FFFFFF
310
FFFF80000000007FF000FE0000000000FFFFE0003F00078007F0003FFF80007F
310
FE0000000001FFFFE0000000001FFFF80FFFFFFFFFFFFFC07FFFFFF0001FFFFF
310
F0001FFFFFFFFC0007F0001FFFFFFFFC0007FF0003FFFFFFFFFF0000000000FF
310
F000FC0000000003FFFFE0007F00078007F0003FFF80007FFC0000000007FFFF
310
C0000000007FFFF80FFFFFFFFFFFFFC07FFFFFF0001FFFFFF8001FFFFFFFFC00
310
0FF8001FFFFFFFFC000FFF0003FFFFFFFFFE0000000003FFF000FC000000000F
310
FFFFE0007F80070007F8001FFF80007FF8000000001FFFFF8000000001FFFFF8
310
0FFFFFFFFFFFFFC07FFFFFF0001FFFFFF8001FFFFFFFFC000FF8001FFFFFFFFC
310
000FFF0003FFFFFFFFFC000000000FFFF000F8000000007FFFFFE0007F800700
310
07F8001FFF80007FF000000000FFFFFF800000000FFFFFF80FFFFFFFFFFFFFC0
310
7FFFFFF0001FFFFFF8000FFFFFFFF8000FF8000FFFFFFFF8000FFF0003FFFFFF
310
FFFC000000007FFFF000F800000007FFFFFFC0007F8003000FF8001FFF80007F
310
F000000007FFFFFF000000007FFFFFF80FFFFFFFFFFFFFC07FFFFFF0001FFFFF
310
F8000FFFFFFFF8000FF8000FFFFFFFF8000FFF0003FFFFFFFFF80000000FFFFF
310
F000F0000000FFFFFFFFC000FF8003000FF8001FFF80007FE0000000FFFFFFFF
310
0000000FFFFFFFF8000001FFFE0000007FFFFFF0001FFFFFF8000FFFFFFFF800
310
0FF8000FFFFFFFF8000FFF0003FFFFFFFFF8000000FFFFFFF000F000000FFFFF
310
FFFFC000FFC002000FF8000FFF80007FE000001FFFFFFFFE000001FFFFFFFFF8
310
000001FFFE0000007FFFFFF0001FFFFFF8000FFFFFFFF8000FF8000FFFFFFFF8
310
000FFF0003FFFFFFFFF000001FFFFFFFF000E00000FFFFFFFFFFC000FFC00200
310
0FFC000FFF80007FE00001FFFFFFFFFE00001FFFFFFFFFF8000001FFFE000000
310
7FFFFFF0001FFFFFFC000FFFFFFFF8001FFC000FFFFFFFF8001FFF0003FFFFFF
310
FFF00001FFFFFFFFF000E00007FFFFFFFFFF8000FFC000001FFC000FFF80007F
310
C0000FFFFFFFFFFE0000FFFFFFFFFFF8000001FFFE0000007FFFFFF0001FFFFF
310
FC0007FFFFFFF0001FFC0007FFFFFFF0001FFF0003FFFFFFFFF00007FFFFFFFF
310
F000E0001FFFFFFFFFFF8000FFC000001FFC000FFF80007FC0003FFFFFFFFFFE
310
0001FFFFFFFFFFF8000001FFFE0000007FFFFFF0001FFFFFFC0007FFFFFFF000
310
1FFC0007FFFFFFF0001FFF0003FFFFFFFFF0001FFFFFFFFFF000E0003FFFFF00
310
03FF8001FFE000001FFC0007FF80007FC0007FFFFF0007FC0003FFFFF0003FF8
310
000001FFFE0000007FFFFFF0001FFFFFFC0003FFFFFFE0001FFC0003FFFFFFE0
310
001FFF0003FFFFFFFFF0003FFFFFFFFFF000E0003FFFFF0001FF8001FFE00000
310
1FFE0007FF80007FC0007FFFFE0003FC0007FFFFE0003FF8000001FFFE000000
310
7FFFFFF0001FFFFFFE0003FFFFFFE0003FFE0003FFFFFFE0003FFF0003FFFFFF
310
FFF0003FFFFF8001F000E0003FFFFF0001FF0001FFE000001FFE0007FF80007F
310
C0007FFFFE0003FC0007FFFFE0003FF8000001FFFE0000007FFFFFF0001FFFFF
310
FE0001FFFFFFC0003FFE0001FFFFFFC0003FFF0003FFFFFFFFF0003FFFFF0001
310
F000E0003FFFFF0003FF0001FFE000003FFE0007FF80007FC0007FFFFE0003FC
310
0007FFFFE0003FF8000001FFFE0000007FFFFFF0001FFFFFFF0001FFFFFFC000
310
7FFF0001FFFFFFC0007FFF0003FFFFFFFFF0003FFFFF0001F000E0003FFFFE00
310
03FF0003FFF000003FFE0003FF80007FC0007FFFFC0003FE0007FFFFE0003FF8
310
000001FFFE0000007FFFFFF0001FFFFFFF0000FFFFFF80007FFF0000FFFFFF80
310
007FFF0003FFFFFFFFF0003FFFFF0001F000E0003FFFFE0003FF0003FFF00000
310
3FFF0003FF80007FC0007FFFFC0007FE0007FFFFC0003FF8000001FFFE000000
310
7FFFFFF0001FFFFFFF80007FFFFF0000FFFF80007FFFFF0000FFFF0003FFFFFF
310
FFF0003FFFFF0003F000E0003FFFFC0003FE0003FFF000003FFF0003FF80007F
310
E0003FFFF80007FE0003FFFFC0007FF8000001FFFE0000007FFFFFF0001FFFFF
310
FF80003FFFFE0000FFFF80003FFFFE0000FFFF0003FFFFFFFFF0001FFFFE0003
310
F000F0001FFFF80003FE0003FFF000007FFF0001FF80007FE0003FFFF00007FE
310
0001FFFF80007FF8000001FFFE0000007FFFFFF0001FFFFFFFC0000FFFF80001
310
FFFFC0000FFFF80001FFFF0003FFFFFFFFF0001FFFFC0003F000F0000FFFF000
310
07FE0007FFF800007FFF0001FF80007FE0001FFFE00007FF0000FFFE00007FF8
310
000001FFFE0000007FFFFFF0001FFFFFFFC00003FFE00001FFFFC00003FFE000
310
01FFFF0003FFFFFFFFF8000FFFF80003F000F00003FFC00007FC0007FFF80000
310
7FFF8001FF80007FF00007FF80000FFF00007FF80000FFF8000001FFFE000000
310
7F80000000000001FFE000003E000003FFFFE000003E000003FFFF0003FFFFFF
310
FFF80003FFE00007F000F800000000000FFC0007FFF800007FFF8001FF80007F
310
F000000000000FFF000000000000FFF8000001FFFE0000007F80000000000001
310
FFF0000000000007FFFFF0000000000007FFFF0003FFFFFFFFFC00007E000007
310
F000F800000000000FFC0007FFF80000FFFF8000FF80007FF800000000001FFF
310
800000000001FFF8000001FFFE0000007F80000000000001FFF800000000000F
310
FFFFF800000000000FFFFF0003FFFFFFFFFC00000000000FF000FC0000000000
310
1FFC0007FFFC0000FFFF8000FF80007FF800000000003FFFC00000000001FFF8
310
000001FFFE0000007F80000000000001FFF800000000000FFFFFF80000000000
310
0FFFFF0003FFFFFFFFFE00000000001FF000FE00000000003FF8000FFFFC0000
310
FFFF8000FF80007FFC00000000003FFFC00000000003FFF8000001FFFE000000
310
7F80000000000001FFFC00000000001FFFFFFC00000000001FFFFF0003FFFFFF
310
FFFF00000000001FF000FF00000000003FF8000FFFFC0000FFFFC000FF80007F
310
FE00000000007FFFE00000000007FFF8000001FFFE0000007F80000000000001
310
FFFE00000000003FFFFFFE00000000003FFFFF0003FFFFFFFFFF80000000003F
310
F000FF80000000007FF8000FFFFC0001FFFFC0007F80007FFF0000000000FFFF
310
F0000000000FFFF800000000000000007F80000000000001FFFF8000000000FF
310
FFFFFF8000000000FFFFFF0003FFFFFFFFFFC0000000007FF000FFC000000000
310
FFF8000FFFFE0001FFFFC0007F80007FFF8000000001FFFFF8000000001FFFF8
310
00000000000000007F80000000000001FFFFC000000001FFFFFFFFC000000001
310
FFFFFF0003FFFFFFFFFFE000000000FFF000FFE000000003FFF0001FFFFE0001
310
FFFFC0007F80007FFFC000000007FFFFFE000000003FFFF80000000000000000
310
7F80000000000001FFFFE000000003FFFFFFFFE000000003FFFFFF0003FFFFFF
310
FFFFF000000003FFF000FFF80000000FFFF0001FFFFE0001FFFFE0007F80007F
310
FFF00000000FFFFFFF00000000FFFFF800000000000000007F80000000000001
310
FFFFF80000000FFFFFFFFFF80000000FFFFFFF0003FFFFFFFFFFFC0000000FFF
310
F000FFFE0000003FFFF0001FFFFE0003FFFFE0003F80007FFFFC0000003FFFFF
310
FFC0000003FFFFF800000000000000007F80000000000001FFFFFE0000003FFF
310
FFFFFFFE0000003FFFFFFF0003FFFFFFFFFFFF0000003FFFF000FFFF800000FF
310
FFF0001FFFFF0003FFFFE0003F80007FFFFF000001FFFFFFFFF800001FFFFFF8
310
00000000000000007F80000000000001FFFFFFC00001FFFFFFFFFFFFC00001FF
310
FFFFFF0003FFFFFFFFFFFFC00000FFFFF000FFFFF8000FFFFFFFFFFFFFFFFFFF
310
FFFFFFFFFFFFFFFFFFFFF0001FFFFFFFFFFF0000FFFFFFF80000000000000000
310
7FFFFFFFFFFFFFFFFFFFFFFC001FFFFFFFFFFFFFFC001FFFFFFFFFFFFFFFFFFF
310
FFFFFFFC001FFFFFF000FFFFFFFFFFFFFFFFFFFFFFFFFFFFFFFFFFFFFFFFFFFF
310
FFFFFFFFFFFFFFFFFFFFFFFFFFFFFFFFFFFFFFFFFFFFFFFFFFFFFFFFFFFFFFFF
310
FFFFFFFFFFFFFFFFFFFFFFFFFFFFFFFFFFFFFFFFFFFFFFFFFFFFFFFFFFFFFFFF
310
F000FFFFFFFFFFFFFFFFFFFFFFFFFFFFFFFFFFFFFFFFFFFFFFFFFFFFFFFFFFFF
310
FFFFFFFFFFFFFFFFFFFFFFFFFFFFFFFFFFFFFFFFFFFFFFFFFFFFFFFFFFFFFFFF
310
FFFFFFFFFFFFFFFFFFFFFFFFFFFFFFFFFFFFFFFFFFFFFFFFF000FFFFFFFFFFFF
310
FFFFFFFFFFFFFFFFFFFFFFFFFFFFFFFFFFFFFFFFFFFFFFFFFFFFFFFFFFFFFFFF
310
FFFFFFFFFFFFFFFFFFFFFFFFFFFFFFFFFFFFFFFFFFFFFFFFFFFFFFFFFFFFFFFF
310
FFFFFFFFFFFFFFFFFFFFFFFFFFFFFFFFF000FFFFFFFFFFFFFFFFFFFFFFFFFFFF
310
FFFFFFFFFFFFFFFFFFFFFFFFFFFFFFFFFFFFFFFFFFFFFFFFFFFFFFFFFFFFFFFF
310
FFFFFFFFFFFFFFFFFFFFFFFFFFFFFFFFFFFFFFFFFFFFFFFFFFFFFFFFFFFFFFFF
310
FFFFFFFFFFFFFFFFF000FFFFFFFFFFFFFFFFFFFFFFFFFFFFFFFFFFFFFFFFFFFF
310
FFFFFFFFFFFFFFFFFFFFFFFFFFFFFFFFFFFFFFFFFFFFFFFFFFFFFFFFFFFFFFFF
310
FFFFFFFFFFFFFFFFFFFFFFFFFFFFFFFFFFFFFFFFFFFFFFFFFFFFFFFFFFFFFFFF
310
F000FFFFFFFFFFFFFFFFFFFFFFFFFFFFFFFFFFFFFFFFFFFFFFFFFFFFFFFFFFFF
310
FFFFFFFFFFFFFFFFFFFFFFFFFFFFFFFFFFFFFFFFFFFFFFFFFFFFFFFFFFFFFFFF
310
FFFFFFFFFFFFFFFFFFFFFFFFFFFFFFFFFFFFFFFFFFFFFFFFF000FFFFFFFFFFFF
310
FFFFFFFFFFFFFFFFFFFFFFFFFFFFFFFFFFFFFFFFFFFFFFFFFFFFFFFFFFFFFFFF
310
FFFFFFFFFFFFFFFFFFFFFFFFFFFFFFFFFFFFFFFFFFFFFFFFFFFFFFFFFFFFFFFF
310
FFFFFFFFFFFFFFFFFFFFFFFFFFFFFFFFF000FFFFFFFFFFFFFFFFFFFFFFFFFFFF
310
FFFFFFFFFFFFFFFFFFFFFFFFFFFFFFFFFFFFFFFFFFFFFFFFFFFFFFFFFFFFFFFF
310
FFFFFFFFFFFFFFFFFFFFFFFFFFFFFFFFFFFFFFFFFFFFFFFFFFFFFFFFFFFFFFFF
310
FFFFFFFFFFFFFFFFF000FFFFFFFFFFFFFFFFFFFFFFFFFFFFFFFFFFFFFFFFFFFF
310
FFFFFFFFFFFFFFFFFFFFFFFFFFFFFFFFFFFFFFFFFFFFFFFFFFFFFFFFFFFFFFFF
310
FFFFFFFFFFFFFFFFFFFFFFFFFFFFFFFFFFFFFFFFFFFFFFFFFFFFFFFFFFFFFFFF
310
F000FFFFFFFFFFFFFFFFFFFFFFFFFFFFFFFFFFFFFFFFFFFFFFFFFFFFFFFFFFFF
310
FFFFFFFFFFFFFFFFFFFFFFFFFFFFFFFFFFFFFFFFFFFFFFFFFFFFFFFFFFFFFFFF
310
FFFFFFFFFFFFFFFFFFFFFFFFFFFFFFFFFFFFFFFFFFFFFFFFF000FFFFFFFFFFFF
310
FFFFFFFFFFFFFFFFFFFFFFFFFFFFFFFFFFFFFFFFFFFFFFFFFFFFFFFFFFFFFFFF
310
FFFFFFFFFFFFFFFFFFFFFFFFFFFFFFFFFFFFFFFFFFFFFFFFFFFFFFFFFFFFFFFF
310
FFFFFFFFFFFFFFFFFFFFFFFFFFFFFFFFF000FFFFFFFFFFFFFFFFFFFFFFFFFFFF
310
FFFFFFFFFFFFFFFFFFFFFFFFFFFFFFFFFFFFFFFFFFFFFFFFFFFFFFFFFFFFFFFF
310
FFFFFFFFFFFFFFFFFFFFFFFFFFFFFFFFFFFFFFFFFFFFFFFFFFFFFFFFFFFFFFFF
310
FFFFFFFFFFFFFFFFF000FFFFFFFFFFFFFFFFFFFFFFFFFFFFFFFFFFFFFFFFFFFF
310
FFFFFFFFFFFFFFFFFFFFFFFFFFFFFFFFFFFFFFFFFFFFFFFFFFFFFFFFFFFFFFFF
310
FFFFFFFFFFFFFFFFFFFFFFFFFFFFFFFFFFFFFFFFFFFFFFFFFFFFFFFFFFFFFFFF
310
F000FFFFFFFFFFFFFFFFFFFFFFFFFFFFFFFFFFFFFFFFFFFFFFFFFFFFFFFFFFFF
310
FFFFFFFFFFFFFFFFFFFFFFFFFFFFFFFFFFFFFFFFFFFFFFFFFFFFFFFFFFFFFFFF
310
FFFFFFFFFFFFFFFFFFFFFFFFFFFFFFFFFFFFFFFFFFFFFFFFF000FFFFFFFFFFFF
310
FFFFFFFFFFFFFFFFFFFFFFFFFFFFFFFFFFFFFFFFFFFFFFFFFFFFFFFFFFFFFFFF
310
FFFFFFFFFFFFFFFFFFFFFFFFFFFFFFFFFFFFFFFFFFFFFFFFFFFFFFFFFFFFFFFF
310
FFFFFFFFFFFFFFFFFFFFFFFFFFFFFFFFF000FFFFFFFFFFFFFFFFFFFFFFFFFFFF
310
FFFFFFFFFFFFFFFFFFFFFFFFFFFFFFFFFFFFFFFFFFFFFFFFFFFFFFFFFFFFFFFF
310
FFFFFFFFFFFFFFFFFFFFFFFFFFFFFFFFFFFFFFFFFFFFFFFFFFFFFFFFFFFFFFFF
310
FFFFFFFFFFFFFFFFF000FFFFFFFFFFFFFFFFFFFFFFFFFFFFFFFFFFFFFFFFFFFF
310
FFFFFFFFFFFFFFFFFFFFFFFFFFFFFFFFFFFFFFFFFFFFFFFFFFFFFFFFFFFFFFFF
310
FFFFFFFFFFFFFFFFFFFFFFFFFFFFFFFFFFFFFFFFFFFFFFFFFFFFFFFFFFFFFFFF
310
F000FFFFFFFFFFFFFFFFFFFFFFFFFFFFFFFFFFFFFFFFFFFFFFFFFFFFFFFFFFFF
310
FFFFFFFFFFFFFFFFFFFFFFFFFFFFFFFFFFFFFFFFFFFFFFFFFFFFFFFFFFFFFFFF
310
FFFFFFFFFFFFFFFFFFFFFFFFFFFFFFFFFFFFFFFFFFFFFFFFF000FFFFFFFFFFFF
310
FFFFFFFFFFFFFFFFFFFFFFFFFFFFFFFFFFFFFFFFFFFFFFFFFFFFFFFFFFFFFFFF
310
FFFFFFFFFFFFFFFFFFFFFFFFFFFFFFFFFFFFFFFFFFFFFFFFFFFFFFFFFFFFFFFF
310
FFFFFFFFFFFFFFFFFFFFFFFFFFFFFFFFF000FFFFFFFFFFFFFFFFFFFFFFFFFFFF
310
FFFFFFFFFFFFFFFFFFFFFFFFFFFFFFFFFFFFFFFFFFFFFFFFFFFFFFFFFFFFFFFF
310
FFFFFFFFFFFFFFFFFFFFFFFFFFFFFFFFFFFFFFFFFFFFFFFFFFFFFFFFFFFFFFFF
310
FFFFFFFFFFFFFFFFF000FFFFFFFFFFFFFFFFFFFFFFFFFFFFFFFFFFFFFFFFFFFF
310
FFFFFFFFFFFFFFFFFFFFFFFFFFFFFFFFFFFFFFFFFFFFFFFFFFFFFFFFFFFFFFFF
310
FFFFFFFFFFFFFFFFFFFFFFFFFFFFFFFFFFFFFFFFFFFFFFFFFFFFFFFFFFFFFFFF
310
F000FFFFFFFFFFFFFFFFFFFFFFFFFFFFFFFFFFFFFFFFFFFFFFFFFFFFFFFFFFFF
310
FFFFFFFFFFFFFFFFFFFFFFFFFFFFFFFFFFFFFFFFFFFFFFFFFFFFFFFFFFFFFFFF
310
FFFFFFFFFFFFFFFFFFFFFFFFFFFFFFFFFFFFFFFFFFFFFFFFF000FFFFFFFFFFFF
310
FFFFFFFFFFFFFFFFFFFFFFFFFFFFFFFFFFFFFFFFFFFFFFFFFFFFFFFFFFFFFFFF
310
FFFFFFFFFFFFFFFFFFFFFFFFFFFFFFFFFFFFFFFFFFFFFFFFFFFFFFFFFFFFFFFF
310
FFFFFFFFFFFFFFFFFFFFFFFFFFFFFFFFF0000000000000000000000000000000
310
0000000000000000000000000000000000000000000000000000000000000000
310
0000000000000000000000000000000000000000000000000000000000000000
310
0000000000000000000000000000000000000000000000000000000000000000
310
0000000000000000000000000000000000000000000000000000000000000000
310
0000000000000000000000000000000000000000000000000000000000000000
310
0000000000000000000000000000000000000000000000000000000000000000
310
0000000000000000000000000000000000000000000000000000000000000000
310
0000000000000000000000000000000000000000000000000000000000000000
310
0000000000000000000000000000000000000000000000000000000000000000
310
0000000000000000000000000000000000000000000000000000000000000000
310
0000000000000000000000000000000000000000000000000000000000000000
310
0000000000000000000000000000000000000000000000000000000000000000
310
0000000000000000000000000000000000000000000000000000000000000000
310
0000000000000000000000000000000000000000000000000000000000000000
310
0000000000000000000000000000000000000000000000000000000000000000
  1
OLE
  0
ENDSEC
  0
SECTION
  2
OBJECTS
  0
DICTIONARY
  5
C
330
0
100
AcDbDictionary
281
     1
  3
ACAD_GROUP
350
D
  3
ACAD_LAYOUT
350
1A
  3
ACAD_MLINESTYLE
350
17
  3
ACAD_PLOTSETTINGS
350
19
  3
ACAD_PLOTSTYLENAME
350
E
  3
ACAD_SCALELIST
350
47
  0
DICTIONARY
  5
D
102
{ACAD_REACTORS
330
C
102
}
330
C
100
AcDbDictionary
281
     1
  0
DICTIONARY
  5
1A
102
{ACAD_REACTORS
330
C
102
}
330
C
100
AcDbDictionary
281
     1
  3
Layout1
350
1E
  3
Layout2
350
26
  3
Model
350
22
  0
DICTIONARY
  5
17
102
{ACAD_REACTORS
330
C
102
}
330
C
100
AcDbDictionary
281
     1
  3
Standard
350
18
  0
DICTIONARY
  5
19
102
{ACAD_REACTORS
330
C
102
}
330
C
100
AcDbDictionary
281
     1
  0
ACDBDICTIONARYWDFLT
  5
E
102
{ACAD_REACTORS
330
C
102
}
330
C
100
AcDbDictionary
281
     1
  3
Normal
350
F
100
AcDbDictionaryWithDefault
340
F
  0
DICTIONARY
  5
47
102
{ACAD_REACTORS
330
C
102
}
330
C
100
AcDbDictionary
281
     1
  3
A0
350
48
  3
A1
350
49
  3
A2
350
4A
  3
A3
350
4B
  3
A4
350
4C
  3
A5
350
4D
  3
A6
350
4E
  3
A7
350
4F
  3
A8
350
50
  3
A9
350
51
  3
B0
350
52
  3
B1
350
53
  3
B2
350
54
  3
B3
350
55
  3
B4
350
56
  3
B5
350
57
  3
B6
350
58
  3
B7
350
59
  3
B8
350
5A
  3
B9
350
5B
  3
C0
350
5C
  3
C1
350
5D
  3
C2
350
5E
  3
C3
350
5F
  3
C4
350
60
  3
C5
350
61
  3
C6
350
62
  3
C7
350
63
  3
C8
350
64
  3
C9
350
65
  3
D0
350
66
  3
D1
350
67
  3
D2
350
68
  0
LAYOUT
  5
1E
102
{ACAD_REACTORS
330
1A
102
}
330
1A
100
AcDbPlotSettings
  1

  2
none_device
  4

  6

 40
0.0
 41
0.0
 42
0.0
 43
0.0
 44
0.0
 45
0.0
 46
0.0
 47
0.0
 48
0.0
 49
0.0
140
0.0
141
0.0
142
1.0
143
1.0
 70
   688
 72
     1
 73
     0
 74
     5
  7

 75
    16
147
1.0
148
0.0
149
0.0
100
AcDbLayout
  1
Layout1
 70
     1
 71
     1
 10
0.0
 20
0.0
 11
420.0
 21
297.0
 12
0.0
 22
0.0
 32
0.0
 14
1.0000000000E+20
 24
1.0000000000E+20
 34
1.0000000000E+20
 15
-1.0000000000E+20
 25
-1.0000000000E+20
 35
-1.0000000000E+20
146
0.0
 13
0.0
 23
0.0
 33
0.0
 16
1.0
 26
0.0
 36
0.0
 17
0.0
 27
1.0
 37
0.0
 76
     0
330
1B
  0
LAYOUT
  5
26
102
{ACAD_REACTORS
330
1A
102
}
330
1A
100
AcDbPlotSettings
  1

  2
none_device
  4

  6

 40
0.0
 41
0.0
 42
0.0
 43
0.0
 44
0.0
 45
0.0
 46
0.0
 47
0.0
 48
0.0
 49
0.0
140
0.0
141
0.0
142
1.0
143
1.0
 70
   688
 72
     1
 73
     0
 74
     5
  7

 75
    16
147
1.0
148
0.0
149
0.0
100
AcDbLayout
  1
Layout2
 70
     1
 71
     2
 10
0.0
 20
0.0
 11
0.0
 21
0.0
 12
0.0
 22
0.0
 32
0.0
 14
0.0
 24
0.0
 34
0.0
 15
0.0
 25
0.0
 35
0.0
146
0.0
 13
0.0
 23
0.0
 33
0.0
 16
1.0
 26
0.0
 36
0.0
 17
0.0
 27
1.0
 37
0.0
 76
     0
330
23
  0
LAYOUT
  5
22
102
{ACAD_REACTORS
330
1A
102
}
330
1A
100
AcDbPlotSettings
  1

  2
none_device
  4
Letter_(8.50_x_11.00_Inches)
  6

 40
6.35
 41
6.35
 42
6.35000508
 43
6.35000508
 44
215.9
 45
279.4
 46
0.0
 47
0.0
 48
0.0
 49
0.0
140
0.0
141
0.0
142
1.0
143
1.0
 70
  1712
 72
     1
 73
     0
 74
     0
  7

 75
     0
147
1.0
148
0.0
149
0.0
100
AcDbLayout
  1
Model
 70
     1
 71
     0
 10
0.0
 20
0.0
 11
297.0
 21
210.0
 12
0.0
 22
0.0
 32
0.0
 14
0.0
 24
0.0
 34
0.0
 15
297.0
 25
210.0
 35
0.0
146
0.0
 13
0.0
 23
0.0
 33
0.0
 16
1.0
 26
0.0
 36
0.0
 17
0.0
 27
1.0
 37
0.0
 76
     0
330
1F
331
29
  0
MLINESTYLE
  5
18
102
{ACAD_REACTORS
330
17
102
}
330
17
100
AcDbMlineStyle
  2
Standard
 70
     0
  3

 62
   256
 51
90.0
 52
90.0
 71
     2
 49
0.5
 62
   256
  6
BYLAYER
 49
-0.5
 62
   256
  6
BYLAYER
  0
ACDBPLACEHOLDER
  5
F
102
{ACAD_REACTORS
330
E
102
}
330
E
  0
SCALE
  5
48
102
{ACAD_REACTORS
330
47
102
}
330
47
100
AcDbScale
 70
     0
300
1:1
140
1.0
141
1.0
290
     1
  0
SCALE
  5
49
102
{ACAD_REACTORS
330
47
102
}
330
47
100
AcDbScale
 70
     0
300
1:2
140
1.0
141
2.0
290
     0
  0
SCALE
  5
4A
102
{ACAD_REACTORS
330
47
102
}
330
47
100
AcDbScale
 70
     0
300
1:4
140
1.0
141
4.0
290
     0
  0
SCALE
  5
4B
102
{ACAD_REACTORS
330
47
102
}
330
47
100
AcDbScale
 70
     0
300
1:5
140
1.0
141
5.0
290
     0
  0
SCALE
  5
4C
102
{ACAD_REACTORS
330
47
102
}
330
47
100
AcDbScale
 70
     0
300
1:8
140
1.0
141
8.0
290
     0
  0
SCALE
  5
4D
102
{ACAD_REACTORS
330
47
102
}
330
47
100
AcDbScale
 70
     0
300
1:10
140
1.0
141
10.0
290
     0
  0
SCALE
  5
4E
102
{ACAD_REACTORS
330
47
102
}
330
47
100
AcDbScale
 70
     0
300
1:16
140
1.0
141
16.0
290
     0
  0
SCALE
  5
4F
102
{ACAD_REACTORS
330
47
102
}
330
47
100
AcDbScale
 70
     0
300
1:20
140
1.0
141
20.0
290
     0
  0
SCALE
  5
50
102
{ACAD_REACTORS
330
47
102
}
330
47
100
AcDbScale
 70
     0
300
1:30
140
1.0
141
30.0
290
     0
  0
SCALE
  5
51
102
{ACAD_REACTORS
330
47
102
}
330
47
100
AcDbScale
 70
     0
300
1:40
140
1.0
141
40.0
290
     0
  0
SCALE
  5
52
102
{ACAD_REACTORS
330
47
102
}
330
47
100
AcDbScale
 70
     0
300
1:50
140
1.0
141
50.0
290
     0
  0
SCALE
  5
53
102
{ACAD_REACTORS
330
47
102
}
330
47
100
AcDbScale
 70
     0
300
1:100
140
1.0
141
100.0
290
     0
  0
SCALE
  5
54
102
{ACAD_REACTORS
330
47
102
}
330
47
100
AcDbScale
 70
     0
300
2:1
140
2.0
141
1.0
290
     0
  0
SCALE
  5
55
102
{ACAD_REACTORS
330
47
102
}
330
47
100
AcDbScale
 70
     0
300
4:1
140
4.0
141
1.0
290
     0
  0
SCALE
  5
56
102
{ACAD_REACTORS
330
47
102
}
330
47
100
AcDbScale
 70
     0
300
8:1
140
8.0
141
1.0
290
     0
  0
SCALE
  5
57
102
{ACAD_REACTORS
330
47
102
}
330
47
100
AcDbScale
 70
     0
300
10:1
140
10.0
141
1.0
290
     0
  0
SCALE
  5
58
102
{ACAD_REACTORS
330
47
102
}
330
47
100
AcDbScale
 70
     0
300
100:1
140
100.0
141
1.0
290
     0
  0
SCALE
  5
59
102
{ACAD_REACTORS
330
47
102
}
330
47
100
AcDbScale
 70
     0
300
1/128" = 1'-0"
140
0.0078125
141
12.0
290
     0
  0
SCALE
  5
5A
102
{ACAD_REACTORS
330
47
102
}
330
47
100
AcDbScale
 70
     0
300
1/64" = 1'-0"
140
0.015625
141
12.0
290
     0
  0
SCALE
  5
5B
102
{ACAD_REACTORS
330
47
102
}
330
47
100
AcDbScale
 70
     0
300
1/32" = 1'-0"
140
0.03125
141
12.0
290
     0
  0
SCALE
  5
5C
102
{ACAD_REACTORS
330
47
102
}
330
47
100
AcDbScale
 70
     0
300
1/16" = 1'-0"
140
0.0625
141
12.0
290
     0
  0
SCALE
  5
5D
102
{ACAD_REACTORS
330
47
102
}
330
47
100
AcDbScale
 70
     0
300
3/32" = 1'-0"
140
0.09375
141
12.0
290
     0
  0
SCALE
  5
5E
102
{ACAD_REACTORS
330
47
102
}
330
47
100
AcDbScale
 70
     0
300
1/8" = 1'-0"
140
0.125
141
12.0
290
     0
  0
SCALE
  5
5F
102
{ACAD_REACTORS
330
47
102
}
330
47
100
AcDbScale
 70
     0
300
3/16" = 1'-0"
140
0.1875
141
12.0
290
     0
  0
SCALE
  5
60
102
{ACAD_REACTORS
330
47
102
}
330
47
100
AcDbScale
 70
     0
300
1/4" = 1'-0"
140
0.25
141
12.0
290
     0
  0
SCALE
  5
61
102
{ACAD_REACTORS
330
47
102
}
330
47
100
AcDbScale
 70
     0
300
3/8" = 1'-0"
140
0.375
141
12.0
290
     0
  0
SCALE
  5
62
102
{ACAD_REACTORS
330
47
102
}
330
47
100
AcDbScale
 70
     0
300
1/2" = 1'-0"
140
0.5
141
12.0
290
     0
  0
SCALE
  5
63
102
{ACAD_REACTORS
330
47
102
}
330
47
100
AcDbScale
 70
     0
300
3/4" = 1'-0"
140
0.75
141
12.0
290
     0
  0
SCALE
  5
64
102
{ACAD_REACTORS
330
47
102
}
330
47
100
AcDbScale
 70
     0
300
1" = 1'-0"
140
1.0
141
12.0
290
     0
  0
SCALE
  5
65
102
{ACAD_REACTORS
330
47
102
}
330
47
100
AcDbScale
 70
     0
300
1-1/2" = 1'-0"
140
1.5
141
12.0
290
     0
  0
SCALE
  5
66
102
{ACAD_REACTORS
330
47
102
}
330
47
100
AcDbScale
 70
     0
300
3" = 1'-0"
140
3.0
141
12.0
290
     0
  0
SCALE
  5
67
102
{ACAD_REACTORS
330
47
102
}
330
47
100
AcDbScale
 70
     0
300
6" = 1'-0"
140
6.0
141
12.0
290
     0
  0
SCALE
  5
68
102
{ACAD_REACTORS
330
47
102
}
330
47
100
AcDbScale
 70
     0
300
1'-0" = 1'-0"
140
12.0
141
12.0
290
     0
  0
ENDSEC
  0
EOF
