  0
SECTION
  2
HEADER
  9
$ACADVER
  1
AC1015
  9
$ACADMAINTVER
 70
     6
  9
$DWGCODEPAGE
  3
ANSI_1252
  9
$INSBASE
 10
0.0
 20
0.0
 30
0.0
  9
$EXTMIN
 10
0.0
 20
0.0
 30
0.0
  9
$EXTMAX
 10
297.0
 20
210.0
 30
0.0
  9
$LIMMIN
 10
0.0
 20
0.0
  9
$LIMMAX
 10
297.0
 20
210.0
  9
$ORTHOMODE
 70
     0
  9
$REGENMODE
 70
     1
  9
$FILLMODE
 70
     1
  9
$QTEXTMODE
 70
     0
  9
$MIRRTEXT
 70
     1
  9
$LTSCALE
 40
1.0
  9
$ATTMODE
 70
     1
  9
$TEXTSIZE
 40
2.0
  9
$TRACEWID
 40
1.0
  9
$TEXTSTYLE
  7
Standard
  9
$CLAYER
  8
0
  9
$CELTYPE
  6
ByLayer
  9
$CECOLOR
 62
   256
  9
$CELTSCALE
 40
1.0
  9
$DISPSILH
 70
     0
  9
$DIMSCALE
 40
1.0
  9
$DIMASZ
 40
3.0
  9
$DIMEXO
 40
0.0
  9
$DIMDLI
 40
3.75
  9
$DIMRND
 40
0.0
  9
$DIMDLE
 40
0.0
  9
$DIMEXE
 40
1.0
  9
$DIMTP
 40
0.0
  9
$DIMTM
 40
0.0
  9
$DIMTXT
 40
2.0
  9
$DIMCEN
 40
2.5
  9
$DIMTSZ
 40
0.0
  9
$DIMTOL
 70
     0
  9
$DIMLIM
 70
     0
  9
$DIMTIH
 70
     1
  9
$DIMTOH
 70
     1
  9
$DIMSE1
 70
     0
  9
$DIMSE2
 70
     0
  9
$DIMTAD
 70
     1
  9
$DIMZIN
 70
     0
  9
$DIMBLK
  1

  9
$DIMASO
 70
     1
  9
$DIMSHO
 70
     1
  9
$DIMPOST
  1

  9
$DIMAPOST
  1

  9
$DIMALT
 70
     0
  9
$DIMALTD
 70
     3
  9
$DIMALTF
 40
0.0393700787
  9
$DIMLFAC
 40
1.0
  9
$DIMTOFL
 70
     1
  9
$DIMTVP
 40
0.0
  9
$DIMTIX
 70
     0
  9
$DIMSOXD
 70
     0
  9
$DIMSAH
 70
     0
  9
$DIMBLK1
  1

  9
$DIMBLK2
  1

  9
$DIMSTYLE
  2
ISO-25
  9
$DIMCLRD
 70
     0
  9
$DIMCLRE
 70
     0
  9
$DIMCLRT
 70
     0
  9
$DIMTFAC
 40
1.0
  9
$DIMGAP
 40
1.524
  9
$DIMJUST
 70
     0
  9
$DIMSD1
 70
     0
  9
$DIMSD2
 70
     0
  9
$DIMTOLJ
 70
     0
  9
$DIMTZIN
 70
     0
  9
$DIMALTZ
 70
     0
  9
$DIMALTTZ
 70
     0
  9
$DIMUPT
 70
     0
  9
$DIMDEC
 70
     2
  9
$DIMTDEC
 70
     3
  9
$DIMALTU
 70
     2
  9
$DIMALTTD
 70
     3
  9
$DIMTXSTY
  7
Standard
  9
$DIMAUNIT
 70
     0
  9
$DIMADEC
 70
     2
  9
$DIMALTRND
 40
0.0
  9
$DIMAZIN
 70
     0
  9
$DIMDSEP
 70
    44
  9
$DIMATFIT
 70
     3
  9
$DIMFRAC
 70
     0
  9
$DIMLDRBLK
  1

  9
$DIMLUNIT
 70
     2
  9
$DIMLWD
 70
    -2
  9
$DIMLWE
 70
    -2
  9
$DIMTMOVE
 70
     0
  9
$LUNITS
 70
     2
  9
$LUPREC
 70
     2
  9
$SKETCHINC
 40
1.0
  9
$FILLETRAD
 40
10.0
  9
$AUNITS
 70
     0
  9
$AUPREC
 70
     2
  9
$MENU
  1
.
  9
$ELEVATION
 40
0.0
  9
$PELEVATION
 40
0.0
  9
$THICKNESS
 40
0.0
  9
$LIMCHECK
 70
     0
  9
$CHAMFERA
 40
10.0
  9
$CHAMFERB
 40
10.0
  9
$CHAMFERC
 40
20.0
  9
$CHAMFERD
 40
0.0
  9
$SKPOLY
 70
     0
  9
$TDCREATE
 40
2456086.366591389
  9
$TDUCREATE
 40
2456086.283258055
  9
$TDUPDATE
 40
2456086.366592836
  9
$TDUUPDATE
 40
2456086.283259502
  9
$TDINDWG
 40
0.0000000116
  9
$TDUSRTIMER
 40
0.0000000116
  9
$USRTIMER
 70
     1
  9
$ANGBASE
 50
0.0
  9
$ANGDIR
 70
     0
  9
$PDMODE
 70
     0
  9
$PDSIZE
 40
-1.0
  9
$PLINEWID
 40
0.0
  9
$SPLFRAME
 70
     0
  9
$SPLINETYPE
 70
     6
  9
$SPLINESEGS
 70
     8
  9
$HANDSEED
  5
233
  9
$SURFTAB1
 70
     6
  9
$SURFTAB2
 70
     6
  9
$SURFTYPE
 70
     6
  9
$SURFU
 70
     6
  9
$SURFV
 70
     6
  9
$UCSBASE
  2

  9
$UCSNAME
  2

  9
$UCSORG
 10
0.0
 20
0.0
 30
0.0
  9
$UCSXDIR
 10
1.0
 20
0.0
 30
0.0
  9
$UCSYDIR
 10
0.0
 20
1.0
 30
0.0
  9
$UCSORTHOREF
  2

  9
$UCSORTHOVIEW
 70
     0
  9
$UCSORGTOP
 10
0.0
 20
0.0
 30
0.0
  9
$UCSORGBOTTOM
 10
0.0
 20
0.0
 30
0.0
  9
$UCSORGLEFT
 10
0.0
 20
0.0
 30
0.0
  9
$UCSORGRIGHT
 10
0.0
 20
0.0
 30
0.0
  9
$UCSORGFRONT
 10
0.0
 20
0.0
 30
0.0
  9
$UCSORGBACK
 10
0.0
 20
0.0
 30
0.0
  9
$PUCSBASE
  2

  9
$PUCSNAME
  2

  9
$PUCSORG
 10
0.0
 20
0.0
 30
0.0
  9
$PUCSXDIR
 10
1.0
 20
0.0
 30
0.0
  9
$PUCSYDIR
 10
0.0
 20
1.0
 30
0.0
  9
$PUCSORTHOREF
  2

  9
$PUCSORTHOVIEW
 70
     0
  9
$PUCSORGTOP
 10
0.0
 20
0.0
 30
0.0
  9
$PUCSORGBOTTOM
 10
0.0
 20
0.0
 30
0.0
  9
$PUCSORGLEFT
 10
0.0
 20
0.0
 30
0.0
  9
$PUCSORGRIGHT
 10
0.0
 20
0.0
 30
0.0
  9
$PUCSORGFRONT
 10
0.0
 20
0.0
 30
0.0
  9
$PUCSORGBACK
 10
0.0
 20
0.0
 30
0.0
  9
$USERI1
 70
     0
  9
$USERI2
 70
     0
  9
$USERI3
 70
     0
  9
$USERI4
 70
     0
  9
$USERI5
 70
     0
  9
$USERR1
 40
0.0
  9
$USERR2
 40
0.0
  9
$USERR3
 40
0.0
  9
$USERR4
 40
0.0
  9
$USERR5
 40
0.0
  9
$WORLDVIEW
 70
     1
  9
$SHADEDGE
 70
     3
  9
$SHADEDIF
 70
    70
  9
$TILEMODE
 70
     1
  9
$MAXACTVP
 70
    64
  9
$PINSBASE
 10
0.0
 20
0.0
 30
0.0
  9
$PLIMCHECK
 70
     0
  9
$PEXTMIN
 10
1.0000000000E+20
 20
1.0000000000E+20
 30
1.0000000000E+20
  9
$PEXTMAX
 10
-1.0000000000E+20
 20
-1.0000000000E+20
 30
-1.0000000000E+20
  9
$PLIMMIN
 10
0.0
 20
0.0
  9
$PLIMMAX
 10
420.0
 20
297.0
  9
$UNITMODE
 70
     0
  9
$VISRETAIN
 70
     1
  9
$PLINEGEN
 70
     0
  9
$PSLTSCALE
 70
     1
  9
$TREEDEPTH
 70
  3020
  9
$CMLSTYLE
  2
Standard
  9
$CMLJUST
 70
     0
  9
$CMLSCALE
 40
20.0
  9
$PROXYGRAPHICS
 70
     1
  9
$MEASUREMENT
 70
     1
  9
$CELWEIGHT
370
    -1
  9
$ENDCAPS
280
     0
  9
$JOINSTYLE
280
     0
  9
$LWDISPLAY
290
     1
  9
$INSUNITS
 70
     4
  9
$HYPERLINKBASE
  1

  9
$STYLESHEET
  1

  9
$XEDIT
290
     1
  9
$CEPSNTYPE
380
     0
  9
$PSTYLEMODE
290
     1
  9
$FINGERPRINTGUID
  2
{5E348008-C6E6-4724-89B1-E71097BB05E2}
  9
$VERSIONGUID
  2
{FAEB1C32-E019-11D5-929B-00C0DF256EC4}
  9
$EXTNAMES
290
     1
  9
$PSVPSCALE
 40
0.0
  9
$OLESTARTUP
290
     0
  0
ENDSEC
  0
SECTION
  2
CLASSES
  0
CLASS
  1
ACDBDICTIONARYWDFLT
  2
AcDbDictionaryWithDefault
  3
ObjectDBX Classes
 90
        0
280
     0
281
     0
  0
CLASS
  1
VISUALSTYLE
  2
AcDbVisualStyle
  3
ObjectDBX Classes
 90
     4095
280
     0
281
     0
  0
CLASS
  1
MATERIAL
  2
AcDbMaterial
  3
ObjectDBX Classes
 90
     1153
280
     0
281
     0
  0
CLASS
  1
ACDBPLACEHOLDER
  2
AcDbPlaceHolder
  3
ObjectDBX Classes
 90
        0
280
     0
281
     0
  0
CLASS
  1
LAYOUT
  2
AcDbLayout
  3
ObjectDBX Classes
 90
        0
280
     0
281
     0
  0
ENDSEC
  0
SECTION
  2
TABLES
  0
TABLE
  2
VPORT
  5
8
330
0
100
AcDbSymbolTable
 70
     1
  0
VPORT
  5
29
330
8
100
AcDbSymbolTableRecord
100
AcDbViewportTableRecord
  2
*Active
 70
     0
 10
0.0
 20
0.0
 11
1.0
 21
1.0
 12
148.5
 22
105.0
 13
0.0
 23
0.0
 14
10.0
 24
10.0
 15
10.0
 25
10.0
 16
0.0
 26
0.0
 36
1.0
 17
0.0
 27
0.0
 37
0.0
 40
210.0
 41
1.4142857143
 42
50.0
 43
0.0
 44
0.0
 50
0.0
 51
0.0
 71
     0
 72
  2000
 73
     1
 74
     3
 75
     0
 76
     0
 77
     0
 78
     0
281
     0
 65
     1
110
0.0
120
0.0
130
0.0
111
1.0
121
0.0
131
0.0
112
0.0
122
1.0
132
0.0
 79
     0
146
0.0
  0
ENDTAB
  0
TABLE
  2
LTYPE
  5
5
330
0
100
AcDbSymbolTable
 70
     6
  0
LTYPE
  5
14
330
5
100
AcDbSymbolTableRecord
100
AcDbLinetypeTableRecord
  2
ByBlock
 70
     0
  3

 72
    65
 73
     0
 40
0.0
  0
LTYPE
  5
15
330
5
100
AcDbSymbolTableRecord
100
AcDbLinetypeTableRecord
  2
ByLayer
 70
     0
  3

 72
    65
 73
     0
 40
0.0
  0
LTYPE
  5
16
330
5
100
AcDbSymbolTableRecord
100
AcDbLinetypeTableRecord
  2
Continuous
 70
     0
  3
Solid line
 72
    65
 73
     0
 40
0.0
  0
LTYPE
  5
3F
330
5
100
AcDbSymbolTableRecord
100
AcDbLinetypeTableRecord
  2
HIDDEN
 70
     0
  3
Hidden __ __ __ __ __ __ __ __ __ __ __ __ __ __
 72
    65
 73
     2
 40
1.905
 49
1.27
 74
     0
 49
-0.635
 74
     0
  0
LTYPE
  5
40
330
5
100
AcDbSymbolTableRecord
100
AcDbLinetypeTableRecord
  2
PHANTOM
 70
     0
  3
Phantom ______  __  __  ______  __  __  ______
 72
    65
 73
     6
 40
12.7
 49
6.35
 74
     0
 49
-1.27
 74
     0
 49
1.27
 74
     0
 49
-1.27
 74
     0
 49
1.27
 74
     0
 49
-1.27
 74
     0
  0
LTYPE
  5
41
330
5
100
AcDbSymbolTableRecord
100
AcDbLinetypeTableRecord
  2
CENTER
 70
     0
  3
Center ____ _ ____ _ ____ _ ____ _ ____ _ ____
 72
    65
 73
     4
 40
10.16
 49
6.35
 74
     0
 49
-1.27
 74
     0
 49
1.27
 74
     0
 49
-1.27
 74
     0
  0
LTYPE
  5
42
330
5
100
AcDbSymbolTableRecord
100
AcDbLinetypeTableRecord
  2
CENTERX2
 70
     0
  3
Center (2x) ________  __  ________  __  _____
 72
    65
 73
     4
 40
20.32
 49
12.7
 74
     0
 49
-2.54
 74
     0
 49
2.54
 74
     0
 49
-2.54
 74
     0
  0
LTYPE
  5
43
330
5
100
AcDbSymbolTableRecord
100
AcDbLinetypeTableRecord
  2
DOT2
 70
     0
  3
Dot (.5x) ........................................
 72
    65
 73
     2
 40
0.635
 49
0.0
 74
     0
 49
-0.635
 74
     0
  0
ENDTAB
  0
TABLE
  2
LAYER
  5
2
330
0
100
AcDbSymbolTable
 70
     5
  0
LAYER
  5
10
330
2
100
AcDbSymbolTableRecord
100
AcDbLayerTableRecord
  2
0
 70
     0
 62
     7
  6
Continuous
370
    -3
390
F
  0
LAYER
  5
44
330
2
100
AcDbSymbolTableRecord
100
AcDbLayerTableRecord
  2
FORMAT
 70
     0
 62
     7
  6
Continuous
370
    -3
390
F
  0
LAYER
  5
45
330
2
100
AcDbSymbolTableRecord
100
AcDbLayerTableRecord
  2
VERMASSUNG
 70
     0
 62
     7
  6
Continuous
370
    -3
390
F
  0
LAYER
  5
46
330
2
100
AcDbSymbolTableRecord
100
AcDbLayerTableRecord
  2
KOPF_DÜNN
 70
     0
 62
     7
  6
Continuous
370
    -3
390
F
  0
LAYER
  5
47
330
2
100
AcDbSymbolTableRecord
100
AcDbLayerTableRecord
  2
KOPF_DICK
 70
     0
 62
     7
  6
Continuous
370
    15
390
F
  0
ENDTAB
  0
TABLE
  2
STYLE
  5
3
330
0
100
AcDbSymbolTable
 70
     2
  0
STYLE
  5
11
330
3
100
AcDbSymbolTableRecord
100
AcDbTextStyleTableRecord
  2
Standard
 70
     0
 40
0.0
 41
1.0
 50
0.0
 71
     0
 42
2.0
  3
txt
  4

  0
STYLE
  5
48
330
3
100
AcDbSymbolTableRecord
100
AcDbTextStyleTableRecord
  2
SLDTEXTSTYLE0
 70
     0
 40
0.0
 41
0.7
 50
0.0
 71
     0
 42
0.2
  3
TXT
  4

  0
ENDTAB
  0
TABLE
  2
VIEW
  5
6
330
0
100
AcDbSymbolTable
 70
     0
  0
ENDTAB
  0
TABLE
  2
UCS
  5
7
330
0
100
AcDbSymbolTable
 70
     0
  0
ENDTAB
  0
TABLE
  2
APPID
  5
9
330
0
100
AcDbSymbolTable
 70
     1
  0
APPID
  5
12
330
9
100
AcDbSymbolTableRecord
100
AcDbRegAppTableRecord
  2
ACAD
 70
     0
  0
ENDTAB
  0
TABLE
  2
DIMSTYLE
  5
A
330
0
100
AcDbSymbolTable
 70
     5
100
AcDbDimStyleTable
  0
DIMSTYLE
105
27
330
A
100
AcDbSymbolTableRecord
100
AcDbDimStyleTableRecord
  2
ISO-25
 70
     0
 41
2.5
 42
0.625
 43
3.75
 44
1.25
 73
     0
 74
     0
 77
     1
 78
     8
140
2.5
141
2.5
143
0.0393700787
147
0.625
171
     3
172
     1
178
     0
271
     2
272
     2
274
     3
278
    44
283
     0
284
     8
340
11
  0
DIMSTYLE
105
1B3
102
{ACAD_REACTORS
330
1B2
330
1C6
330
1D0
330
1DA
330
1E3
102
}
330
A
100
AcDbSymbolTableRecord
100
AcDbDimStyleTableRecord
  2
SLDDIMSTYLE0
 70
     0
 41
3.0
 44
0.0
 45
0.000000001
 73
     0
 74
     0
 77
     1
 78
    12
 79
     3
140
2.0
147
0.5
173
     1
178
     0
271
     2
272
     3
276
     2
284
    12
340
48
  0
DIMSTYLE
105
1BE
102
{ACAD_REACTORS
330
1BD
102
}
330
A
100
AcDbSymbolTableRecord
100
AcDbDimStyleTableRecord
  2
SLDDIMSTYLE1
 70
     0
 41
3.0
 44
0.0
 73
     0
 74
     0
 77
     1
 78
    12
 79
     3
140
2.0
147
0.5
173
     1
178
     0
179
     1
272
     3
276
     2
284
    12
340
48
  0
DIMSTYLE
105
20B
102
{ACAD_REACTORS
330
20A
102
}
330
A
100
AcDbSymbolTableRecord
100
AcDbDimStyleTableRecord
  2
SLDDIMSTYLE2
 70
     0
 41
3.0
 44
0.0
 45
0.000000001
 73
     0
 74
     0
 77
     1
 78
    12
 79
     3
140
2.0
147
0.5
172
     1
173
     1
178
     0
271
     2
272
     3
276
     2
284
    12
289
     0
340
48
  0
DIMSTYLE
105
21A
102
{ACAD_REACTORS
330
219
102
}
330
A
100
AcDbSymbolTableRecord
100
AcDbDimStyleTableRecord
  2
SLDDIMSTYLE3
 70
     0
 41
3.0
 44
0.0
 73
     0
 74
     0
 77
     1
 78
    12
 79
     3
140
2.0
147
0.5
173
     1
178
     0
179
     2
272
     3
276
     2
284
    12
340
48
  0
ENDTAB
  0
TABLE
  2
BLOCK_RECORD
  5
1
330
0
100
AcDbSymbolTable
 70
    10
  0
BLOCK_RECORD
  5
1F
330
1
100
AcDbSymbolTableRecord
100
AcDbBlockTableRecord
  2
*Model_Space
340
22
  0
BLOCK_RECORD
  5
1B
330
1
100
AcDbSymbolTableRecord
100
AcDbBlockTableRecord
  2
*Paper_Space
340
1E
  0
BLOCK_RECORD
  5
23
330
1
100
AcDbSymbolTableRecord
100
AcDbBlockTableRecord
  2
*Paper_Space0
340
26
  0
BLOCK_RECORD
  5
1B4
330
1
100
AcDbSymbolTableRecord
100
AcDbBlockTableRecord
  2
_D
340
0
  0
BLOCK_RECORD
  5
1BF
330
1
100
AcDbSymbolTableRecord
100
AcDbBlockTableRecord
  2
_D_1
340
0
  0
BLOCK_RECORD
  5
1C7
330
1
100
AcDbSymbolTableRecord
100
AcDbBlockTableRecord
  2
_D_2
340
0
  0
BLOCK_RECORD
  5
1D1
330
1
100
AcDbSymbolTableRecord
100
AcDbBlockTableRecord
  2
_D_3
340
0
  0
BLOCK_RECORD
  5
1DB
330
1
100
AcDbSymbolTableRecord
100
AcDbBlockTableRecord
  2
_D_4
340
0
  0
BLOCK_RECORD
  5
1E4
330
1
100
AcDbSymbolTableRecord
100
AcDbBlockTableRecord
  2
_D_5
340
0
  0
BLOCK_RECORD
  5
20C
330
1
100
AcDbSymbolTableRecord
100
AcDbBlockTableRecord
  2
_D_6
340
0
  0
BLOCK_RECORD
  5
21B
330
1
100
AcDbSymbolTableRecord
100
AcDbBlockTableRecord
  2
_D_7
340
0
  0
BLOCK_RECORD
  5
226
330
1
100
AcDbSymbolTableRecord
100
AcDbBlockTableRecord
  2
SW_CENTERMARKSYMBOL_0
340
0
102
{BLKREFS
331
231
102
}
  0
ENDTAB
  0
ENDSEC
  0
SECTION
  2
BLOCKS
  0
BLOCK
  5
20
330
1F
100
AcDbEntity
  8
0
100
AcDbBlockBegin
  2
*Model_Space
 70
     0
 10
0.0
 20
0.0
 30
0.0
  3
*Model_Space
  1

  0
ENDBLK
  5
21
330
1F
100
AcDbEntity
  8
0
100
AcDbBlockEnd
  0
BLOCK
  5
1C
330
1B
100
AcDbEntity
 67
     1
  8
0
100
AcDbBlockBegin
  2
*Paper_Space
 70
     0
 10
0.0
 20
0.0
 30
0.0
  3
*Paper_Space
  1

  0
ENDBLK
  5
1D
330
1B
100
AcDbEntity
 67
     1
  8
0
100
AcDbBlockEnd
  0
BLOCK
  5
24
330
23
100
AcDbEntity
  8
0
100
AcDbBlockBegin
  2
*Paper_Space0
 70
     0
 10
0.0
 20
0.0
 30
0.0
  3
*Paper_Space0
  1

  0
ENDBLK
  5
25
330
23
100
AcDbEntity
  8
0
100
AcDbBlockEnd
  0
BLOCK
  5
1B5
330
1B4
100
AcDbEntity
  8
0
100
AcDbBlockBegin
  2
_D
 70
     0
 10
0.0
 20
0.0
 30
0.0
  3
_D
  1

  0
SOLID
  5
1B7
330
1B4
100
AcDbEntity
  8
VERMASSUNG
100
AcDbTrace
 10
284.2468102497
 20
112.4556260782
 30
0.0
 11
284.6968102497
 21
115.4556260782
 31
0.0
 12
283.7968102497
 22
115.4556260782
 32
0.0
 13
283.7968102497
 23
115.4556260782
 33
0.0
  0
SOLID
  5
1B8
330
1B4
100
AcDbEntity
  8
VERMASSUNG
100
AcDbTrace
 10
284.2468102497
 20
134.4556260782
 30
0.0
 11
283.7968102497
 21
131.4556260782
 31
0.0
 12
284.6968102497
 22
131.4556260782
 32
0.0
 13
284.6968102497
 23
131.4556260782
 33
0.0
  0
LINE
  5
1B9
330
1B4
100
AcDbEntity
  8
VERMASSUNG
100
AcDbLine
 10
269.376973211
 20
112.4556260782
 30
0.0
 11
285.2468102497
 21
112.4556260782
 31
0.0
  0
LINE
  5
1BA
330
1B4
100
AcDbEntity
  8
VERMASSUNG
100
AcDbLine
 10
269.376973211
 20
134.4556260782
 30
0.0
 11
285.2468102497
 21
134.4556260782
 31
0.0
  0
LINE
  5
1BB
330
1B4
100
AcDbEntity
  8
VERMASSUNG
100
AcDbLine
 10
284.2468102497
 20
112.4556260782
 30
0.0
 11
284.2468102497
 21
134.4556260782
 31
0.0
  0
MTEXT
  5
1BC
330
1B4
100
AcDbEntity
  8
VERMASSUNG
100
AcDbMText
 10
281.6686748866
 20
121.1556260272
 30
0.1
 40
2.0
 41
0.0
 71
     1
 72
     1
  1
22
  7
SLDTEXTSTYLE0
 11
6.123233995736766E-17
 21
1.0
 31
0.0
 73
     1
 44
1.0
  0
ENDBLK
  5
1B6
330
1B4
100
AcDbEntity
  8
0
100
AcDbBlockEnd
  0
BLOCK
  5
1C0
330
1BF
100
AcDbEntity
  8
0
100
AcDbBlockBegin
  2
_D_1
 70
     0
 10
0.0
 20
0.0
 30
0.0
  3
_D_1
  1

  0
ARC
  5
1C2
330
1BF
100
AcDbEntity
  8
VERMASSUNG
100
AcDbCircle
 10
269.5225043766
 20
134.4556260782
 30
0.0
 40
9.527277687744744
100
AcDbArc
 50
252.4598841946
 51
0.0
  0
SOLID
  5
1C3
330
1BF
100
AcDbEntity
  8
VERMASSUNG
100
AcDbTrace
 10
266.6512356076
 20
125.3713079533
 30
0.0
 11
269.5470630773
 21
124.4676026551
 31
0.0
 12
269.6847641563
 22
125.3570060578
 32
0.0
 13
269.6847641563
 23
125.3570060578
 33
0.0
  0
SOLID
  5
1C4
330
1BF
100
AcDbEntity
  8
VERMASSUNG
100
AcDbTrace
 10
279.0497820644
 20
134.4556260782
 30
0.0
 11
278.1491939746
 21
131.5588276571
 31
0.0
 12
279.0387450654
 22
131.4220838938
 32
0.0
 13
279.0387450654
 23
131.4220838938
 33
0.0
  0
MTEXT
  5
1C5
330
1BF
100
AcDbEntity
  8
VERMASSUNG
100
AcDbMText
 10
270.0803703286
 20
126.249569509
 30
0.1
 40
2.0
 41
0.0
 71
     1
 72
     1
  1
107.5°
  7
SLDTEXTSTYLE0
 11
0.8066515584257101
 21
0.5910272948767876
 31
0.0
 73
     1
 44
1.0
  0
ENDBLK
  5
1C1
330
1BF
100
AcDbEntity
  8
0
100
AcDbBlockEnd
  0
BLOCK
  5
1C8
330
1C7
100
AcDbEntity
  8
0
100
AcDbBlockBegin
  2
_D_2
 70
     0
 10
0.0
 20
0.0
 30
0.0
  3
_D_2
  1

  0
SOLID
  5
1CA
330
1C7
100
AcDbEntity
  8
VERMASSUNG
100
AcDbTrace
 10
144.376973211
 20
153.9556260782
 30
0.0
 11
147.376973211
 21
153.5056260782
 31
0.0
 12
147.376973211
 22
154.4056260782
 32
0.0
 13
147.376973211
 23
154.4056260782
 33
0.0
  0
SOLID
  5
1CB
330
1C7
100
AcDbEntity
  8
VERMASSUNG
100
AcDbTrace
 10
269.376973211
 20
153.9556260782
 30
0.0
 11
266.376973211
 21
154.4056260782
 31
0.0
 12
266.376973211
 22
153.5056260782
 32
0.0
 13
266.376973211
 23
153.5056260782
 33
0.0
  0
LINE
  5
1CC
330
1C7
100
AcDbEntity
  8
VERMASSUNG
100
AcDbLine
 10
144.376973211
 20
143.4556260782
 30
0.0
 11
144.376973211
 21
154.9556260782
 31
0.0
  0
LINE
  5
1CD
330
1C7
100
AcDbEntity
  8
VERMASSUNG
100
AcDbLine
 10
269.376973211
 20
134.4556260782
 30
0.0
 11
269.376973211
 21
154.9556260782
 31
0.0
  0
LINE
  5
1CE
330
1C7
100
AcDbEntity
  8
VERMASSUNG
100
AcDbLine
 10
144.376973211
 20
153.9556260782
 30
0.0
 11
269.376973211
 21
153.9556260782
 31
0.0
  0
MTEXT
  5
1CF
330
1C7
100
AcDbEntity
  8
VERMASSUNG
100
AcDbMText
 10
204.076973078
 20
156.5337614414
 30
0.1
 40
2.0
 41
0.0
 71
     1
 72
     1
  1
125
  7
SLDTEXTSTYLE0
 73
     1
 44
1.0
  0
ENDBLK
  5
1C9
330
1C7
100
AcDbEntity
  8
0
100
AcDbBlockEnd
  0
BLOCK
  5
1D2
330
1D1
100
AcDbEntity
  8
0
100
AcDbBlockBegin
  2
_D_3
 70
     0
 10
0.0
 20
0.0
 30
0.0
  3
_D_3
  1

  0
SOLID
  5
1D4
330
1D1
100
AcDbEntity
  8
VERMASSUNG
100
AcDbTrace
 10
269.376973211
 20
162.1952076354
 30
0.0
 11
266.376973211
 21
162.6452076354
 31
0.0
 12
266.376973211
 22
161.7452076354
 32
0.0
 13
266.376973211
 23
161.7452076354
 33
0.0
  0
SOLID
  5
1D5
330
1D1
100
AcDbEntity
  8
VERMASSUNG
100
AcDbTrace
 10
106.376973211
 20
162.1952076354
 30
0.0
 11
109.376973211
 21
161.7452076354
 31
0.0
 12
109.376973211
 22
162.6452076354
 32
0.0
 13
109.376973211
 23
162.6452076354
 33
0.0
  0
LINE
  5
1D6
330
1D1
100
AcDbEntity
  8
VERMASSUNG
100
AcDbLine
 10
269.376973211
 20
134.4556260782
 30
0.0
 11
269.376973211
 21
163.1952076354
 31
0.0
  0
LINE
  5
1D7
330
1D1
100
AcDbEntity
  8
VERMASSUNG
100
AcDbLine
 10
106.376973211
 20
132.7479640707
 30
0.0
 11
106.376973211
 21
163.1952076354
 31
0.0
  0
LINE
  5
1D8
330
1D1
100
AcDbEntity
  8
VERMASSUNG
100
AcDbLine
 10
269.376973211
 20
162.1952076354
 30
0.0
 11
106.376973211
 21
162.1952076354
 31
0.0
  0
MTEXT
  5
1D9
330
1D1
100
AcDbEntity
  8
VERMASSUNG
100
AcDbMText
 10
185.076973078
 20
164.7733429986
 30
0.1
 40
2.0
 41
0.0
 71
     1
 72
     1
  1
163
  7
SLDTEXTSTYLE0
 73
     1
 44
1.0
  0
ENDBLK
  5
1D3
330
1D1
100
AcDbEntity
  8
0
100
AcDbBlockEnd
  0
BLOCK
  5
1DC
330
1DB
100
AcDbEntity
  8
0
100
AcDbBlockBegin
  2
_D_4
 70
     0
 10
0.0
 20
0.0
 30
0.0
  3
_D_4
  1

  0
SOLID
  5
1DE
330
1DB
100
AcDbEntity
  8
VERMASSUNG
100
AcDbTrace
 10
187.876973211
 20
96.4556260782
 30
0.0
 11
188.326973211
 21
99.4556260782
 31
0.0
 12
187.426973211
 22
99.4556260782
 32
0.0
 13
187.426973211
 23
99.4556260782
 33
0.0
  0
SOLID
  5
1DF
330
1DB
100
AcDbEntity
  8
VERMASSUNG
100
AcDbTrace
 10
187.876973211
 20
128.4556260782
 30
0.0
 11
187.426973211
 21
125.4556260782
 31
0.0
 12
188.326973211
 22
125.4556260782
 32
0.0
 13
188.326973211
 23
125.4556260782
 33
0.0
  0
LINE
  5
1E0
330
1DB
100
AcDbEntity
  8
VERMASSUNG
100
AcDbLine
 10
187.876973211
 20
96.4556260782
 30
0.0
 11
187.876973211
 21
128.4556260782
 31
0.0
  0
MTEXT
  5
1E1
330
1DB
100
AcDbEntity
  8
VERMASSUNG
100
AcDbMText
 10
185.2988377315
 20
116.9694591658
 30
0.1
 40
2.0
 41
0.0
 71
     1
 72
     1
  1
%%c
  7
SLDTEXTSTYLE0
 11
6.123233995736766E-17
 21
1.0
 31
0.0
 73
     1
 44
1.0
  0
MTEXT
  5
1E2
330
1DB
100
AcDbEntity
  8
VERMASSUNG
100
AcDbMText
 10
185.098837722
 20
120.5794591801
 30
0.1
 40
2.0
 41
0.0
 71
     1
 72
     1
  1
32
  7
SLDTEXTSTYLE0
 11
6.123233995736766E-17
 21
1.0
 31
0.0
 73
     1
 44
1.0
  0
ENDBLK
  5
1DD
330
1DB
100
AcDbEntity
  8
0
100
AcDbBlockEnd
  0
BLOCK
  5
1E5
330
1E4
100
AcDbEntity
  8
0
100
AcDbBlockBegin
  2
_D_5
 70
     0
 10
0.0
 20
0.0
 30
0.0
  3
_D_5
  1

  0
SOLID
  5
1E7
330
1E4
100
AcDbEntity
  8
VERMASSUNG
100
AcDbTrace
 10
99.1133749839
 20
143.9556260782
 30
0.0
 11
98.6633749839
 21
140.9556260782
 31
0.0
 12
99.5633749839
 22
140.9556260782
 32
0.0
 13
99.5633749839
 23
140.9556260782
 33
0.0
  0
SOLID
  5
1E8
330
1E4
100
AcDbEntity
  8
VERMASSUNG
100
AcDbTrace
 10
99.1133749839
 20
80.9556260782
 30
0.0
 11
99.5633749839
 21
83.9556260782
 31
0.0
 12
98.6633749839
 22
83.9556260782
 32
0.0
 13
98.6633749839
 23
83.9556260782
 33
0.0
  0
LINE
  5
1E9
330
1E4
100
AcDbEntity
  8
VERMASSUNG
100
AcDbLine
 10
144.876973211
 20
143.9556260782
 30
0.0
 11
98.1133749839
 21
143.9556260782
 31
0.0
  0
LINE
  5
1EA
330
1E4
100
AcDbEntity
  8
VERMASSUNG
100
AcDbLine
 10
144.876973211
 20
80.9556260782
 30
0.0
 11
98.1133749839
 21
80.9556260782
 31
0.0
  0
LINE
  5
1EB
330
1E4
100
AcDbEntity
  8
VERMASSUNG
100
AcDbLine
 10
99.1133749839
 20
143.9556260782
 30
0.0
 11
99.1133749839
 21
80.9556260782
 31
0.0
  0
MTEXT
  5
1EC
330
1E4
100
AcDbEntity
  8
VERMASSUNG
100
AcDbMText
 10
96.3352394949
 20
106.050625969
 30
0.1
 40
2.0
 41
0.0
 71
     1
 72
     1
  1
PSC
  7
SLDTEXTSTYLE0
 11
-7.044195017643634E-15
 21
1.0
 31
0.0
 73
     1
 44
1.0
  0
MTEXT
  5
1ED
330
1E4
100
AcDbEntity
  8
VERMASSUNG
100
AcDbMText
 10
96.5352395044
 20
110.6506260711
 30
0.1
 40
2.0
 41
0.0
 71
     1
 72
     1
  1
%%c
  7
SLDTEXTSTYLE0
 11
-7.044195017643634E-15
 21
1.0
 31
0.0
 73
     1
 44
1.0
  0
MTEXT
  5
1EE
330
1E4
100
AcDbEntity
  8
VERMASSUNG
100
AcDbMText
 10
96.3352394949
 20
114.2606265511
 30
0.1
 40
2.0
 41
0.0
 71
     1
 72
     1
  1
63
  7
SLDTEXTSTYLE0
 11
-7.044195017643634E-15
 21
1.0
 31
0.0
 73
     1
 44
1.0
  0
ENDBLK
  5
1E6
330
1E4
100
AcDbEntity
  8
0
100
AcDbBlockEnd
  0
BLOCK
  5
20D
330
20C
100
AcDbEntity
  8
0
100
AcDbBlockBegin
  2
_D_6
 70
     0
 10
0.0
 20
0.0
 30
0.0
  3
_D_6
  1

  0
SOLID
  5
20F
330
20C
100
AcDbEntity
  8
VERMASSUNG
100
AcDbTrace
 10
61.5879779385
 20
98.6315079858
 30
0.0
 11
63.1027990903
 21
96.0032353823
 31
0.0
 12
63.8072634709
 22
96.5633513849
 32
0.0
 13
63.8072634709
 23
96.5633513849
 33
0.0
  0
SOLID
  5
210
330
20C
100
AcDbEntity
  8
VERMASSUNG
100
AcDbTrace
 10
36.6939333778
 20
129.9410360149
 30
0.0
 11
35.1791122261
 21
132.5693086184
 31
0.0
 12
34.4746478454
 22
132.0091926158
 32
0.0
 13
34.4746478454
 23
132.0091926158
 33
0.0
  0
LINE
  5
211
330
20C
100
AcDbEntity
  8
VERMASSUNG
100
AcDbLine
 10
61.5879779385
 20
98.6315079858
 30
0.0
 11
62.3707161393
 21
99.2538590998
 31
0.0
  0
LINE
  5
212
330
20C
100
AcDbEntity
  8
VERMASSUNG
100
AcDbLine
 10
36.6939333778
 20
129.9410360149
 30
0.0
 11
37.4766715785
 21
130.563387129
 31
0.0
  0
LINE
  5
213
330
20C
100
AcDbEntity
  8
VERMASSUNG
100
AcDbLine
 10
61.5879779385
 20
98.6315079858
 30
0.0
 11
65.3220846227
 21
93.9350787814
 31
0.0
  0
LINE
  5
214
330
20C
100
AcDbEntity
  8
VERMASSUNG
100
AcDbLine
 10
61.5879779385
 20
98.6315079858
 30
0.0
 11
36.6939333778
 21
129.9410360149
 31
0.0
  0
LINE
  5
215
330
20C
100
AcDbEntity
  8
VERMASSUNG
100
AcDbLine
 10
36.6939333778
 20
129.9410360149
 30
0.0
 11
20.1413293606
 21
150.7594377081
 31
0.0
  0
MTEXT
  5
216
330
20C
100
AcDbEntity
  8
VERMASSUNG
100
AcDbMText
 10
22.1593344871
 20
152.3639431959
 30
0.1
 40
2.0
 41
0.0
 71
     1
 72
     1
  1
%%c
  7
SLDTEXTSTYLE0
 11
0.6223511140181399
 21
-0.7827382007289412
 31
0.0
 73
     1
 44
1.0
  0
MTEXT
  5
217
330
20C
100
AcDbEntity
  8
VERMASSUNG
100
AcDbMText
 10
24.5625696652
 20
149.6627285088
 30
0.1
 40
2.0
 41
0.0
 71
     1
 72
     1
  1
40
  7
SLDTEXTSTYLE0
 11
0.6223511140181399
 21
-0.7827382007289412
 31
0.0
 73
     1
 44
1.0
  0
MTEXT
  5
218
330
20C
100
AcDbEntity
  8
VERMASSUNG
100
AcDbMText
 10
28.2888971023
 20
144.9760833534
 30
0.1
 40
2.0
 41
0.0
 71
     1
 72
     1
  1
min.
  7
SLDTEXTSTYLE0
 11
0.6223511140181399
 21
-0.7827382007289412
 31
0.0
 73
     1
 44
1.0
  0
ENDBLK
  5
20E
330
20C
100
AcDbEntity
  8
0
100
AcDbBlockEnd
  0
BLOCK
  5
21C
330
21B
100
AcDbEntity
  8
0
100
AcDbBlockBegin
  2
_D_7
 70
     0
 10
0.0
 20
0.0
 30
0.0
  3
_D_7
  1

  0
ARC
  5
21E
330
21B
100
AcDbEntity
  8
VERMASSUNG
100
AcDbCircle
 10
49.1527980489
 20
130.1549499704
 30
0.0
 40
57.615768542897
100
AcDbArc
 50
266.0
 51
270.0
  0
ARC
  5
21F
330
21B
100
AcDbEntity
  8
VERMASSUNG
100
AcDbCircle
 10
49.1527980489
 20
130.1549499704
 30
0.0
 40
57.615768542897
100
AcDbArc
 50
256.8278412602
 51
266.0
  0
ARC
  5
220
330
21B
100
AcDbEntity
  8
VERMASSUNG
100
AcDbCircle
 10
49.1527980489
 20
130.1549499704
 30
0.0
 40
57.61576854289699
100
AcDbArc
 50
270.0
 51
275.9592750972
  0
SOLID
  5
221
330
21B
100
AcDbEntity
  8
VERMASSUNG
100
AcDbTrace
 10
45.1337252033
 20
72.6795305439
 30
0.0
 11
42.1905430266
 21
73.4144990292
 31
0.0
 12
42.1044331511
 22
72.5186278949
 32
0.0
 13
42.1044331511
 23
72.5186278949
 33
0.0
  0
SOLID
  5
222
330
21B
100
AcDbEntity
  8
VERMASSUNG
100
AcDbTrace
 10
49.1527980489
 20
72.5391814275
 30
0.0
 11
52.1634868965
 21
72.1673579977
 31
0.0
 12
52.1400795917
 22
73.0670535563
 32
0.0
 13
52.1400795917
 23
73.0670535563
 33
0.0
  0
LINE
  5
223
330
21B
100
AcDbEntity
  8
VERMASSUNG
100
AcDbLine
 10
46.7734080632
 20
96.1280878898
 30
0.0
 11
45.0639687296
 21
71.6819664936
 31
0.0
  0
LINE
  5
224
330
21B
100
AcDbEntity
  8
VERMASSUNG
100
AcDbLine
 10
49.1527980489
 20
78.4556260782
 30
0.0
 11
49.1527980489
 21
71.5391814275
 31
0.0
  0
MTEXT
  5
225
330
21B
100
AcDbEntity
  8
VERMASSUNG
100
AcDbMText
 10
36.4998901245
 20
76.5421251304
 30
-43.473820927
 40
2.0
 41
0.0
 71
     1
 72
     1
  1
4°
  7
SLDTEXTSTYLE0
 11
0.9820044057921495
 21
-0.188858007521014
 31
0.0
 73
     1
 44
1.0
  0
ENDBLK
  5
21D
330
21B
100
AcDbEntity
  8
0
100
AcDbBlockEnd
  0
BLOCK
  5
227
330
226
100
AcDbEntity
  8
0
100
AcDbBlockBegin
  2
SW_CENTERMARKSYMBOL_0
 70
     0
 10
0.0
 20
0.0
 30
0.0
  3
SW_CENTERMARKSYMBOL_0
  1

  0
LINE
  5
229
330
226
100
AcDbEntity
  8
VERMASSUNG
 62
     0
100
AcDbLine
 10
0.0
 20
0.0
 30
0.0
 11
0.0
 21
2.5
 31
0.0
  0
LINE
  5
22A
330
226
100
AcDbEntity
  8
VERMASSUNG
 62
     0
100
AcDbLine
 10
0.0
 20
0.0
 30
0.0
 11
-2.5
 21
0.0
 31
0.0
  0
LINE
  5
22B
330
226
100
AcDbEntity
  8
VERMASSUNG
 62
     0
100
AcDbLine
 10
0.0
 20
0.0
 30
0.0
 11
0.0
 21
-2.5
 31
0.0
  0
LINE
  5
22C
330
226
100
AcDbEntity
  8
VERMASSUNG
 62
     0
100
AcDbLine
 10
0.0
 20
0.0
 30
0.0
 11
2.5
 21
0.0
 31
0.0
  0
LINE
  5
22D
330
226
100
AcDbEntity
  8
VERMASSUNG
 62
     0
100
AcDbLine
 10
0.0
 20
5.0
 30
0.0
 11
0.0
 21
34.0
 31
0.0
  0
LINE
  5
22E
330
226
100
AcDbEntity
  8
VERMASSUNG
 62
     0
100
AcDbLine
 10
-5.0
 20
0.0
 30
0.0
 11
-34.0
 21
0.0
 31
0.0
  0
LINE
  5
22F
330
226
100
AcDbEntity
  8
VERMASSUNG
 62
     0
100
AcDbLine
 10
0.0
 20
-5.0
 30
0.0
 11
0.0
 21
-34.0
 31
0.0
  0
LINE
  5
230
330
226
100
AcDbEntity
  8
VERMASSUNG
 62
     0
100
AcDbLine
 10
5.0
 20
0.0
 30
0.0
 11
34.0
 21
0.0
 31
0.0
  0
ENDBLK
  5
228
330
226
100
AcDbEntity
  8
0
100
AcDbBlockEnd
  0
ENDSEC
  0
SECTION
  2
ENTITIES
  0
MTEXT
  5
49
330
1F
100
AcDbEntity
  8
KOPF_DÜNN
100
AcDbMText
 10
13.8892156294
 20
23.8442973028
 30
0.0
 40
3.0
 41
0.0
 71
     1
 72
     1
  1
PS6.BDB.RQB.125
  7
SLDTEXTSTYLE0
 73
     1
 44
1.0
  0
MTEXT
  5
4A
330
1F
100
AcDbEntity
  8
VERMASSUNG
100
AcDbMText
 10
13.9329988022
 20
28.8834360957
 30
0.0
 40
3.0
 41
0.0
 71
     1
 72
     1
  1
Bohrstange rechts_Boring bar right
  7
SLDTEXTSTYLE0
 73
     1
 44
1.0
  0
MTEXT
  5
4B
330
1F
100
AcDbEntity
  8
VERMASSUNG
100
AcDbMText
 10
98.8601118557
 20
13.8365368179
 30
0.0
 40
2.0
 41
0.0
 71
     1
 72
     1
  1
Datum: 07.06.2012
  7
SLDTEXTSTYLE0
 73
     1
 44
1.0
  0
MTEXT
  5
4C
330
1F
100
AcDbEntity
  8
VERMASSUNG
100
AcDbMText
 10
13.933048693
 20
18.0482802738
 30
0.0
 40
2.0
 41
0.0
 71
     1
 72
     1
  1
PSC ø63 / Wp.: DC..11 T3..
  7
SLDTEXTSTYLE0
 73
     1
 44
1.0
  0
MTEXT
  5
4D
330
1F
100
AcDbEntity
  8
VERMASSUNG
100
AcDbMText
 10
13.9808475933
 20
13.9090973692
 30
0.0
 40
2.0
 41
0.0
 71
     1
 72
     1
  1
Gewicht: 1257g
  7
SLDTEXTSTYLE0
 73
     1
 44
1.0
  0
LINE
  5
4E
330
1F
100
AcDbEntity
  8
0
  6
Continuous
 62
     7
370
    15
100
AcDbLine
 10
263.0314507408
 20
126.1971251785
 30
0.0
 11
263.0314507408
 21
126.10303583
 31
0.0
  0
LINE
  5
4F
330
1F
100
AcDbEntity
  8
0
  6
Continuous
 62
     7
370
    15
100
AcDbLine
 10
261.127350767
 20
126.5314528022
 30
0.0
 11
261.127350767
 21
126.6242633777
 31
0.0
  0
LINE
  5
50
330
1F
100
AcDbEntity
  8
0
  6
Continuous
 62
     7
370
    15
100
AcDbLine
 10
263.2794013904
 20
127.9677348193
 30
0.0
 11
263.2794013904
 21
127.8749847345
 31
0.0
  0
LINE
  5
51
330
1F
100
AcDbEntity
  8
0
  6
Continuous
 62
     7
370
    15
100
AcDbLine
 10
261.3753014165
 20
128.3034017067
 30
0.0
 11
261.3753014165
 21
128.3975071849
 31
0.0
  0
LINE
  5
52
330
1F
100
AcDbEntity
  8
0
  6
Continuous
 62
     7
370
    15
100
AcDbLine
 10
259.5806920068
 20
127.2826000221
 30
0.0
 11
259.5806920068
 21
127.2320572809
 31
0.0
  0
LINE
  5
53
330
1F
100
AcDbEntity
  8
0
  6
Continuous
 62
     7
370
    15
100
AcDbLine
 10
264.8306920068
 20
127.2320572809
 30
0.0
 11
264.8306920068
 21
127.2826000221
 31
0.0
  0
ARC
  5
54
330
1F
100
AcDbEntity
  8
0
  6
Continuous
 62
     7
370
    15
100
AcDbCircle
 10
165.376973211
 20
81.9556260782
 30
0.0
 40
1.000000000000028
100
AcDbArc
 50
270.0
 51
0.0
  0
ARC
  5
55
330
1F
100
AcDbEntity
  8
0
  6
Continuous
 62
     7
370
    15
100
AcDbCircle
 10
165.376973211
 20
142.9556260782
 30
0.0
 40
1.000000000000028
100
AcDbArc
 50
0.0
 51
90.0
  0
LINE
  5
56
330
1F
100
AcDbEntity
  8
0
  6
Continuous
 62
     7
370
    15
100
AcDbLine
 10
144.876973211
 20
80.9556260782
 30
0.0
 11
165.376973211
 21
80.9556260782
 31
0.0
  0
LINE
  5
57
330
1F
100
AcDbEntity
  8
0
  6
Continuous
 62
     7
370
    15
100
AcDbLine
 10
165.376973211
 20
143.9556260782
 30
0.0
 11
144.876973211
 21
143.9556260782
 31
0.0
  0
ARC
  5
58
330
1F
100
AcDbEntity
  8
0
  6
Continuous
 62
     7
370
    15
100
AcDbCircle
 10
144.876973211
 20
81.4556260782
 30
0.0
 40
0.5000000000000142
100
AcDbArc
 50
180.0
 51
270.0
  0
ARC
  5
59
330
1F
100
AcDbEntity
  8
0
  6
Continuous
 62
     7
370
    15
100
AcDbCircle
 10
144.876973211
 20
143.4556260782
 30
0.0
 40
0.5000000000000284
100
AcDbArc
 50
90.0
 51
180.0
  0
LWPOLYLINE
  5
5A
330
1F
100
AcDbEntity
  8
0
  6
Continuous
 62
     7
370
    15
100
AcDbPolyline
 90
        3
 70
   128
 43
0.0
 10
144.176973211
 20
89.9158057994
 10
144.3024281545
 20
89.8475036844
 10
144.376973211
 20
89.7947659263
  0
LWPOLYLINE
  5
5B
330
1F
100
AcDbEntity
  8
0
  6
Continuous
 62
     7
370
    15
100
AcDbPolyline
 90
        3
 70
   128
 43
0.0
 10
144.376973211
 20
135.1164862302
 10
144.3024281545
 20
135.0637484721
 10
144.176973211
 20
134.9954463571
  0
ARC
  5
5C
330
1F
100
AcDbEntity
  8
0
  6
Continuous
 62
     7
370
    15
100
AcDbCircle
 10
170.376973211
 20
92.4556260782
 30
0.0
 40
4.0
100
AcDbArc
 50
90.0
 51
180.0
  0
ARC
  5
5D
330
1F
100
AcDbEntity
  8
0
  6
Continuous
 62
     7
370
    15
100
AcDbCircle
 10
170.376973211
 20
132.4556260782
 30
0.0
 40
3.999999999999972
100
AcDbArc
 50
180.0
 51
270.0
  0
LINE
  5
5E
330
1F
100
AcDbEntity
  8
0
  6
Continuous
 62
     7
370
    15
100
AcDbLine
 10
242.9627596486
 20
128.4556260782
 30
0.0
 11
170.376973211
 21
128.4556260782
 31
0.0
  0
LINE
  5
5F
330
1F
100
AcDbEntity
  8
0
  6
Continuous
 62
     7
370
    15
100
AcDbLine
 10
170.376973211
 20
96.4556260782
 30
0.0
 11
242.9627596486
 21
96.4556260782
 31
0.0
  0
ARC
  5
60
330
1F
100
AcDbEntity
  8
0
  6
Continuous
 62
     7
370
    15
100
AcDbCircle
 10
242.9627596486
 20
95.4556260782
 30
0.0
 40
1.000000000000018
100
AcDbArc
 50
45.0
 51
90.0
  0
LINE
  5
61
330
1F
100
AcDbEntity
  8
0
  6
Continuous
 62
     7
370
    15
100
AcDbLine
 10
244.1865399964
 20
129.2651928636
 30
0.0
 11
243.6698664298
 21
128.7485192971
 31
0.0
  0
LINE
  5
62
330
1F
100
AcDbEntity
  8
0
  6
Continuous
 62
     7
370
    15
100
AcDbLine
 10
243.6698664298
 20
96.1627328594
 30
0.0
 11
243.876973211
 21
95.9556260782
 31
0.0
  0
LINE
  5
63
330
1F
100
AcDbEntity
  8
0
  6
Continuous
 62
     7
370
    15
100
AcDbLine
 10
243.876973211
 20
95.9556260782
 30
0.0
 11
256.9624622675
 21
95.9556260782
 31
0.0
  0
CIRCLE
  5
64
330
1F
100
AcDbEntity
  8
0
  6
Continuous
 62
     7
370
    15
100
AcDbCircle
 10
262.2034845742
 20
127.286997888
 30
0.0
 40
2.622778036732563
  0
CIRCLE
  5
65
330
1F
100
AcDbEntity
  8
0
  6
Continuous
 62
     7
370
    15
100
AcDbCircle
 10
262.2040431998
 20
127.304823973
 30
0.0
 40
1.798452254628347
  0
ARC
  5
66
330
1F
100
AcDbEntity
  8
0
  6
Continuous
 62
     7
370
    15
100
AcDbCircle
 10
262.2093612519
 20
127.3033294733
 30
0.0
 40
1.671499009027258
100
AcDbArc
 50
293.3149799654
 51
351.9503208343
  0
ARC
  5
67
330
1F
100
AcDbEntity
  8
0
  6
Continuous
 62
     7
370
    15
100
AcDbCircle
 10
262.2116115675
 20
127.3015623764
 30
0.0
 40
1.669024032652811
100
AcDbArc
 50
351.9995680764
 51
52.2046175961
  0
ARC
  5
68
330
1F
100
AcDbEntity
  8
0
  6
Continuous
 62
     7
370
    15
100
AcDbCircle
 10
262.2056539053
 20
127.2945158352
 30
0.0
 40
1.678243399579441
100
AcDbArc
 50
52.1913252363
 51
110.6635337803
  0
LINE
  5
69
330
1F
100
AcDbEntity
  8
0
  6
Continuous
 62
     7
370
    15
100
AcDbLine
 10
261.5347482695
 20
128.8328258109
 30
0.0
 11
261.6134363753
 21
128.8647958438
 31
0.0
  0
ARC
  5
6A
330
1F
100
AcDbEntity
  8
0
  6
Continuous
 62
     7
370
    15
100
AcDbCircle
 10
262.2021267695
 20
127.3001740948
 30
0.0
 40
1.671650485315093
100
AcDbArc
 50
113.5302556193
 51
170.0044536116
  0
LINE
  5
6B
330
1F
100
AcDbEntity
  8
0
  6
Continuous
 62
     7
370
    15
100
AcDbLine
 10
260.5393966583
 20
127.4719410185
 30
0.0
 11
260.5558498527
 21
127.5903251907
 31
0.0
  0
ARC
  5
6C
330
1F
100
AcDbEntity
  8
0
  6
Continuous
 62
     7
370
    15
100
AcDbCircle
 10
262.1996950803
 20
127.3020896383
 30
0.0
 40
1.668963852616781
100
AcDbArc
 50
174.1588638666
 51
230.0453218058
  0
LINE
  5
6D
330
1F
100
AcDbEntity
  8
0
  6
Continuous
 62
     7
370
    15
100
AcDbLine
 10
261.2223279594
 20
125.9491595165
 30
0.0
 11
261.127917443
 21
126.0227409612
 31
0.0
  0
ARC
  5
6E
330
1F
100
AcDbEntity
  8
0
  6
Continuous
 62
     7
370
    15
100
AcDbCircle
 10
262.2057267078
 20
127.3092038096
 30
0.0
 40
1.678330592438005
100
AcDbArc
 50
234.1306715136
 51
290.4496812146
  0
LINE
  5
6F
330
1F
100
AcDbEntity
  8
0
  6
Continuous
 62
     7
370
    15
100
AcDbLine
 10
262.8709165178
 20
125.768320168
 30
0.0
 11
262.7921096278
 21
125.7366426347
 31
0.0
  0
SPLINE
  5
70
330
1F
100
AcDbEntity
  8
0
  6
Continuous
 62
     7
370
    15
100
AcDbSpline
210
0.0
220
0.0
230
1.0
 70
     8
 71
     3
 72
    11
 73
     7
 74
     0
 42
0.00000001
 43
0.00000001
 12
1.0
 22
0.0
 32
0.0
 13
1.0
 23
0.0
 33
0.0
 40
0.0
 40
0.0
 40
0.0
 40
0.0
 40
0.2657596322624977
 40
0.5530029385954068
 40
0.8418208483438309
 40
1.0
 40
1.0
 40
1.0
 40
1.0
 10
261.2223279594373
 20
125.9491595164685
 30
0.0
 10
261.2544524093441
 20
125.935775037263
 30
0.0
 10
261.3212982092423
 20
125.9079240944045
 30
0.0
 10
261.4329054970651
 20
125.9086278777218
 30
0.0
 10
261.5247646274349
 20
125.9374672728164
 30
0.0
 10
261.5714724970719
 20
125.9703364807707
 30
0.0
 10
261.5880010424087
 20
125.9819679295626
 30
0.0
  0
SPLINE
  5
71
330
1F
100
AcDbEntity
  8
0
  6
Continuous
 62
     7
370
    15
100
AcDbSpline
210
0.0
220
0.0
230
1.0
 70
     8
 71
     3
 72
    12
 73
     8
 74
     0
 42
0.00000001
 43
0.00000001
 12
1.0
 22
0.0
 32
0.0
 13
1.0
 23
0.0
 33
0.0
 40
0.0
 40
0.0
 40
0.0
 40
0.0
 40
0.2057904614204229
 40
0.412034420336011
 40
0.6141302471428015
 40
0.8132633242112959
 40
1.0
 40
1.0
 40
1.0
 40
1.0
 10
261.5880010424087
 20
125.9819679295626
 30
0.0
 10
261.642805690489
 20
126.0171655001212
 30
0.0
 10
261.7525357588686
 20
126.087638205621
 30
0.0
 10
261.9513673507572
 20
126.1184929274816
 30
0.0
 10
262.1451757762079
 20
126.0872879735237
 30
0.0
 10
262.3160733516829
 20
126.0007115631936
 30
0.0
 10
262.3954770241463
 20
125.9086919891808
 30
0.0
 10
262.4339034043729
 20
125.8641603065821
 30
0.0
  0
SPLINE
  5
72
330
1F
100
AcDbEntity
  8
0
  6
Continuous
 62
     7
370
    15
100
AcDbSpline
210
0.0
220
0.0
230
1.0
 70
     8
 71
     3
 72
    11
 73
     7
 74
     0
 42
0.00000001
 43
0.00000001
 12
1.0
 22
0.0
 32
0.0
 13
1.0
 23
0.0
 33
0.0
 40
0.0
 40
0.0
 40
0.0
 40
0.0
 40
0.280237141101319
 40
0.5612869875923715
 40
0.8399906057824523
 40
1.0
 40
1.0
 40
1.0
 40
1.0
 10
262.4339034043729
 20
125.8641603065821
 30
0.0
 10
262.4586982139507
 20
125.8359865163767
 30
0.0
 10
262.5083597396184
 20
125.7795572301965
 30
0.0
 10
262.6138650600479
 20
125.732310524154
 30
0.0
 10
262.7124235335259
 20
125.7205390249361
 30
0.0
 10
262.7708134084977
 20
125.7323389226356
 30
0.0
 10
262.7921096277993
 20
125.7366426346964
 30
0.0
  0
SPLINE
  5
73
330
1F
100
AcDbEntity
  8
0
  6
Continuous
 62
     7
370
    15
100
AcDbSpline
210
0.0
220
0.0
230
1.0
 70
     8
 71
     3
 72
    12
 73
     8
 74
     0
 42
0.00000001
 43
0.00000001
 12
1.0
 22
0.0
 32
0.0
 13
1.0
 23
0.0
 33
0.0
 40
0.0
 40
0.0
 40
0.0
 40
0.0
 40
0.2058585741213959
 40
0.4121026961457014
 40
0.6141937841967369
 40
0.8133180967416385
 40
0.9999999999999999
 40
0.9999999999999999
 40
0.9999999999999999
 40
0.9999999999999999
 10
263.0383671540873
 20
126.1084250719747
 30
0.0
 10
263.034622122676
 20
126.1730512339322
 30
0.0
 10
263.027125045868
 20
126.3024245947355
 30
0.0
 10
263.0988296163366
 20
126.4890879884957
 30
0.0
 10
263.2229048732929
 20
126.6409422557158
 30
0.0
 10
263.3845057391212
 20
126.745843421411
 30
0.0
 10
263.505184774419
 20
126.7690653511338
 30
0.0
 10
263.5635783177835
 20
126.7803018575984
 30
0.0
  0
SPLINE
  5
74
330
1F
100
AcDbEntity
  8
0
  6
Continuous
 62
     7
370
    15
100
AcDbSpline
210
0.0
220
0.0
230
1.0
 70
     8
 71
     3
 72
    11
 73
     7
 74
     0
 42
0.00000001
 43
0.00000001
 12
1.0
 22
0.0
 32
0.0
 13
1.0
 23
0.0
 33
0.0
 40
0.0
 40
0.0
 40
0.0
 40
0.0
 40
0.25247822653356
 40
0.5068902417933248
 40
0.7591786113117033
 40
0.9999999999999999
 40
0.9999999999999999
 40
0.9999999999999999
 40
0.9999999999999999
 10
263.5635783177835
 20
126.7803018575984
 30
0.0
 10
263.6006153430475
 20
126.7877831490655
 30
0.0
 10
263.6749730686587
 20
126.8028030329294
 30
0.0
 10
263.769309991469
 20
126.870494943373
 30
0.0
 10
263.8387328480712
 20
126.9616415768001
 30
0.0
 10
263.8559719255486
 20
127.0339521502388
 30
0.0
 10
263.8643910219237
 20
127.069266666779
 30
0.0
  0
SPLINE
  5
75
330
1F
100
AcDbEntity
  8
0
  6
Continuous
 62
     7
370
    15
100
AcDbSpline
210
0.0
220
0.0
230
1.0
 70
     8
 71
     3
 72
    11
 73
     7
 74
     0
 42
0.00000001
 43
0.00000001
 12
1.0
 22
0.0
 32
0.0
 13
1.0
 23
0.0
 33
0.0
 40
0.0
 40
0.0
 40
0.0
 40
0.0
 40
0.2423611237745332
 40
0.5166847928458196
 40
0.7923341374633389
 40
1.0
 40
1.0
 40
1.0
 40
1.0
 10
262.8709165177829
 20
125.7683201680412
 30
0.0
 10
262.8983511221257
 20
125.7868290417575
 30
0.0
 10
262.9568384019373
 20
125.8262877364236
 30
0.0
 10
263.0169392455524
 20
125.9173941446825
 30
0.0
 10
263.0458696764024
 20
126.0166782741995
 30
0.0
 10
263.0406219449002
 20
126.0808517002418
 30
0.0
 10
263.0383671540873
 20
126.1084250719747
 30
0.0
  0
LINE
  5
76
330
1F
100
AcDbEntity
  8
0
  6
Continuous
 62
     7
370
    15
100
AcDbLine
 10
261.0486199306
 20
126.2081051394
 30
0.0
 11
261.0737011653
 21
126.287047822
 31
0.0
  0
SPLINE
  5
77
330
1F
100
AcDbEntity
  8
0
  6
Continuous
 62
     7
370
    15
100
AcDbSpline
210
0.0
220
0.0
230
1.0
 70
     8
 71
     3
 72
    11
 73
     7
 74
     0
 42
0.00000001
 43
0.00000001
 12
1.0
 22
0.0
 32
0.0
 13
1.0
 23
0.0
 33
0.0
 40
0.0
 40
0.0
 40
0.0
 40
0.0
 40
0.2928993220619594
 40
0.5864344719079496
 40
0.8775178868032907
 40
1.0
 40
1.0
 40
1.0
 40
1.0
 10
261.0737011652552
 20
126.3820413265195
 30
0.0
 10
261.0612907807831
 20
126.3467090033829
 30
0.0
 10
261.0364430712945
 20
126.2759676574691
 30
0.0
 10
261.0474146996593
 20
126.1615450290935
 30
0.0
 10
261.0839274269617
 20
126.0763273668401
 30
0.0
 10
261.117866116032
 20
126.0349849777438
 30
0.0
 10
261.1279174430263
 20
126.022740961168
 30
0.0
  0
SPLINE
  5
78
330
1F
100
AcDbEntity
  8
0
  6
Continuous
 62
     7
370
    15
100
AcDbSpline
210
0.0
220
0.0
230
1.0
 70
     8
 71
     3
 72
    11
 73
     7
 74
     0
 42
0.00000001
 43
0.00000001
 12
1.0
 22
0.0
 32
0.0
 13
1.0
 23
0.0
 33
0.0
 40
0.0
 40
0.0
 40
0.0
 40
0.0
 40
0.2669010467950347
 40
0.55461434107925
 40
0.8439070439786285
 40
1.0
 40
1.0
 40
1.0
 40
1.0
 10
260.5393966582969
 20
127.4719410185084
 30
0.0
 10
260.5440034170251
 20
127.4373661265753
 30
0.0
 10
260.5535761575114
 20
127.3655202828156
 30
0.0
 10
260.6109141539737
 20
127.269166178309
 30
0.0
 10
260.6825604640365
 20
127.2042159769563
 30
0.0
 10
260.7347272369072
 20
127.180157471805
 30
0.0
 10
260.7530099669871
 20
127.1717257607444
 30
0.0
  0
SPLINE
  5
79
330
1F
100
AcDbEntity
  8
0
  6
Continuous
 62
     7
370
    15
100
AcDbSpline
210
0.0
220
0.0
230
1.0
 70
     8
 71
     3
 72
    12
 73
     8
 74
     0
 42
0.00000001
 43
0.00000001
 12
1.0
 22
0.0
 32
0.0
 13
1.0
 23
0.0
 33
0.0
 40
0.0
 40
0.0
 40
0.0
 40
0.0
 40
0.205840128133816
 40
0.4120619935510064
 40
0.6141387330969498
 40
0.8132772113524616
 40
0.9999999999999999
 40
0.9999999999999999
 40
0.9999999999999999
 40
0.9999999999999999
 10
260.7530099669871
 20
127.1717257607444
 30
0.0
 10
260.8115755406021
 20
127.141628402013
 30
0.0
 10
260.9288152996132
 20
127.0813778680092
 30
0.0
 10
261.0559639339644
 20
126.9244703532088
 30
0.0
 10
261.1256978758845
 20
126.7414856117366
 30
0.0
 10
261.134978963696
 20
126.5511499104006
 30
0.0
 10
261.0936841900986
 20
126.4371885595946
 30
0.0
 10
261.0737011652552
 20
126.3820413265195
 30
0.0
  0
ARC
  5
7A
330
1F
100
AcDbEntity
  8
0
  6
Continuous
 62
     7
370
    15
100
AcDbCircle
 10
260.5437682469
 20
126.5314648015
 30
0.0
 40
0.5835825201536975
100
AcDbArc
 50
335.2397859019
 51
359.9988219146
  0
ARC
  5
7B
330
1F
100
AcDbEntity
  8
0
  6
Continuous
 62
     7
370
    15
100
AcDbCircle
 10
260.8736256775
 20
127.3878957755
 30
0.0
 40
0.3345702481821741
100
AcDbArc
 50
95.2221613512
 51
172.4997993097
  0
SPLINE
  5
7C
330
1F
100
AcDbEntity
  8
0
  6
Continuous
 62
     7
370
    15
100
AcDbSpline
210
0.0
220
0.0
230
1.0
 70
     8
 71
     3
 72
    11
 73
     7
 74
     0
 42
0.00000001
 43
0.00000001
 12
1.0
 22
0.0
 32
0.0
 13
1.0
 23
0.0
 33
0.0
 40
0.0
 40
0.0
 40
0.0
 40
0.0
 40
0.2908641666076601
 40
0.5839560789891982
 40
0.8745988053617735
 40
1.0
 40
1.0
 40
1.0
 40
1.0
 10
260.843173839548
 20
127.8160639429953
 30
0.0
 10
260.8061490557563
 20
127.8093744754058
 30
0.0
 10
260.7318159131742
 20
127.7959443052008
 30
0.0
 10
260.6372649289322
 20
127.7299825016785
 30
0.0
 10
260.5807447319082
 20
127.6558303917041
 30
0.0
 10
260.5616156219544
 20
127.6054964984208
 30
0.0
 10
260.5558498527184
 20
127.590325190706
 30
0.0
  0
ARC
  5
7D
330
1F
100
AcDbEntity
  8
0
  6
Continuous
 62
     7
370
    15
100
AcDbCircle
 10
263.5334141023
 20
127.0178436156
 30
0.0
 40
0.3342701703911004
100
AcDbArc
 50
9.367134338
 51
68.9014893222
  0
SPLINE
  5
7E
330
1F
100
AcDbEntity
  8
0
  6
Continuous
 62
     7
370
    15
100
AcDbSpline
210
0.0
220
0.0
230
1.0
 70
     8
 71
     3
 72
    12
 73
     8
 74
     0
 42
0.00000001
 43
0.00000001
 12
1.0
 22
0.0
 32
0.0
 13
1.0
 23
0.0
 33
0.0
 40
0.0
 40
0.0
 40
0.0
 40
0.0
 40
0.0091681771491524
 40
0.257326809700259
 40
0.5054934687429379
 40
0.7549925359452958
 40
1.0
 40
1.0
 40
1.0
 40
1.0
 10
263.8643910219237
 20
127.069266666779
 30
0.0
 10
263.8645765962062
 20
127.0706233866192
 30
0.0
 10
263.8697851820917
 20
127.1087029723928
 30
0.0
 10
263.8666740688859
 20
127.1858153788776
 30
0.0
 10
263.8250185529362
 20
127.2900266848014
 30
0.0
 10
263.7524966736906
 20
127.3764539255249
 30
0.0
 10
263.6864604156683
 20
127.4086755447748
 30
0.0
 10
263.6537421903444
 20
127.4246400199054
 30
0.0
  0
SPLINE
  5
7F
330
1F
100
AcDbEntity
  8
0
  6
Continuous
 62
     7
370
    15
100
AcDbSpline
210
0.0
220
0.0
230
1.0
 70
     8
 71
     3
 72
    11
 73
     7
 74
     0
 42
0.00000001
 43
0.00000001
 12
1.0
 22
0.0
 32
0.0
 13
1.0
 23
0.0
 33
0.0
 40
0.0
 40
0.0
 40
0.0
 40
0.0
 40
0.2431090893442952
 40
0.5182793655622272
 40
0.7947794085752025
 40
1.0
 40
1.0
 40
1.0
 40
1.0
 10
261.534748269524
 20
128.8328258108747
 30
0.0
 10
261.5073833952245
 20
128.8140770410656
 30
0.0
 10
261.4490447714862
 20
128.7741069167566
 30
0.0
 10
261.3892832959644
 20
128.6815108613142
 30
0.0
 10
261.3608552155526
 20
128.5808190127247
 30
0.0
 10
261.3661355131493
 20
128.5156877148518
 30
0.0
 10
261.3683850032442
 20
128.4879407542398
 30
0.0
  0
SPLINE
  5
80
330
1F
100
AcDbEntity
  8
0
  6
Continuous
 62
     7
370
    15
100
AcDbSpline
210
0.0
220
0.0
230
1.0
 70
     8
 71
     3
 72
    12
 73
     8
 74
     0
 42
0.00000001
 43
0.00000001
 12
1.0
 22
0.0
 32
0.0
 13
1.0
 23
0.0
 33
0.0
 40
0.0
 40
0.0
 40
0.0
 40
0.0
 40
0.2058179564998889
 40
0.4120215045907283
 40
0.6140779969167697
 40
0.8132130006453849
 40
0.9999999999999999
 40
0.9999999999999999
 40
0.9999999999999999
 40
0.9999999999999999
 10
261.3683850032442
 20
128.4879407542398
 30
0.0
 10
261.3721304883845
 20
128.4219623086859
 30
0.0
 10
261.3796284756793
 20
128.2898818096374
 30
0.0
 10
261.3079483433428
 20
128.1010501782827
 30
0.0
 10
261.1839073444972
 20
127.9493613049411
 30
0.0
 10
261.0223086769891
 20
127.8467376419085
 30
0.0
 10
260.9015980281378
 20
127.8260680605397
 30
0.0
 10
260.843173839548
 20
127.8160639429953
 30
0.0
  0
SPLINE
  5
81
330
1F
100
AcDbEntity
  8
0
  6
Continuous
 62
     7
370
    15
100
AcDbSpline
210
0.0
220
0.0
230
1.0
 70
     8
 71
     3
 72
    12
 73
     8
 74
     0
 42
0.00000001
 43
0.00000001
 12
1.0
 22
0.0
 32
0.0
 13
1.0
 23
0.0
 33
0.0
 40
0.0
 40
0.0
 40
0.0
 40
0.0
 40
0.2058435564095122
 40
0.4120691620553105
 40
0.6141397217727069
 40
0.8132604579561342
 40
1.0
 40
1.0
 40
1.0
 40
1.0
 10
263.6537421903444
 20
127.4246400199054
 30
0.0
 10
263.5951760306235
 20
127.4533753726572
 30
0.0
 10
263.4779350113664
 20
127.5108994114775
 30
0.0
 10
263.3507867075669
 20
127.6656177688399
 30
0.0
 10
263.2810556588464
 20
127.8487610999139
 30
0.0
 10
263.2717729065526
 20
128.0414071975769
 30
0.0
 10
263.3130666308822
 20
128.157931685294
 30
0.0
 10
263.3330509920764
 20
128.2143244541303
 30
0.0
  0
SPLINE
  5
82
330
1F
100
AcDbEntity
  8
0
  6
Continuous
 62
     7
370
    15
100
AcDbSpline
210
0.0
220
0.0
230
1.0
 70
     8
 71
     3
 72
    11
 73
     7
 74
     0
 42
0.00000001
 43
0.00000001
 12
1.0
 22
0.0
 32
0.0
 13
1.0
 23
0.0
 33
0.0
 40
0.0
 40
0.0
 40
0.0
 40
0.0
 40
0.2535086227484052
 40
0.5075674742604697
 40
0.7595056251924558
 40
1.0
 40
1.0
 40
1.0
 40
1.0
 10
263.3330509920764
 20
128.2143244541303
 30
0.0
 10
263.345469100504
 20
128.2504670199205
 30
0.0
 10
263.3703322702902
 20
128.3228305972717
 30
0.0
 10
263.3592467150904
 20
128.4388030441867
 30
0.0
 10
263.315121639079
 20
128.5445504919359
 30
0.0
 10
263.2609286661597
 20
128.5955334461329
 30
0.0
 10
263.2344618824686
 20
128.6204325197207
 30
0.0
  0
ARC
  5
83
330
1F
100
AcDbEntity
  8
0
  6
Continuous
 62
     7
370
    15
100
AcDbCircle
 10
263.8642663737
 20
127.8753670467
 30
0.0
 40
0.584865108281962
100
AcDbArc
 50
180.0374528729
 51
248.902665908
  0
ARC
  5
84
330
1F
100
AcDbEntity
  8
0
  6
Continuous
 62
     7
370
    15
100
AcDbCircle
 10
260.789998342
 20
128.3039601199
 30
0.0
 40
0.5853033408468756
100
AcDbArc
 50
275.2125765697
 51
359.945336511
  0
SPLINE
  5
85
330
1F
100
AcDbEntity
  8
0
  6
Continuous
 62
     7
370
    15
100
AcDbSpline
210
0.0
220
0.0
230
1.0
 70
     8
 71
     3
 72
    16
 73
    12
 74
     0
 42
0.00000001
 43
0.00000001
 12
1.0
 22
0.0
 32
0.0
 13
1.0
 23
0.0
 33
0.0
 40
0.0
 40
0.0
 40
0.0
 40
0.0
 40
0.0091421480600362
 40
0.1316341845767094
 40
0.2576794931139783
 40
0.3801887899892447
 40
0.5062151177445767
 40
0.6293924506885735
 40
0.7560776951956292
 40
0.8764433632865577
 40
1.0
 40
1.0
 40
1.0
 40
1.0
 10
263.2344618824686
 20
128.6204325197207
 30
0.0
 10
263.233376048395
 20
128.6212685536316
 30
0.0
 10
263.2177415517838
 20
128.633306276211
 30
0.0
 10
263.1849192980578
 20
128.6540445959494
 30
0.0
 10
263.1334340189064
 20
128.6756050680977
 30
0.0
 10
263.0785846073052
 20
128.6883250126644
 30
0.0
 10
263.0228523445084
 20
128.6916606903097
 30
0.0
 10
262.9667556158739
 20
128.6856080361777
 30
0.0
 10
262.9134103295822
 20
128.6703809833113
 30
0.0
 10
262.862879252607
 20
128.647082701342
 30
0.0
 10
262.8335882216538
 20
128.6253874196787
 30
0.0
 10
262.8187511149229
 20
128.6143978710311
 30
0.0
  0
SPLINE
  5
86
330
1F
100
AcDbEntity
  8
0
  6
Continuous
 62
     7
370
    15
100
AcDbSpline
210
0.0
220
0.0
230
1.0
 70
     8
 71
     3
 72
    12
 73
     8
 74
     0
 42
0.00000001
 43
0.00000001
 12
1.0
 22
0.0
 32
0.0
 13
1.0
 23
0.0
 33
0.0
 40
0.0
 40
0.0
 40
0.0
 40
0.0
 40
0.20575327878041
 40
0.411960408804433
 40
0.6140154573248908
 40
0.8131414684041078
 40
1.0
 40
1.0
 40
1.0
 40
1.0
 10
262.8187511149229
 20
128.6143978710311
 30
0.0
 10
262.7639548183593
 20
128.5778426923293
 30
0.0
 10
262.6542413553848
 20
128.5046517013948
 30
0.0
 10
262.4554403282266
 20
128.4715969934249
 30
0.0
 10
262.2616564347362
 20
128.502936057356
 30
0.0
 10
262.0907306022834
 20
128.5918027171168
 30
0.0
 10
262.0113012197091
 20
128.6864068311461
 30
0.0
 10
261.9728487529587
 20
128.7322055196323
 30
0.0
  0
SPLINE
  5
87
330
1F
100
AcDbEntity
  8
0
  6
Continuous
 62
     7
370
    15
100
AcDbSpline
210
0.0
220
0.0
230
1.0
 70
     8
 71
     3
 72
    11
 73
     7
 74
     0
 42
0.00000001
 43
0.00000001
 12
1.0
 22
0.0
 32
0.0
 13
1.0
 23
0.0
 33
0.0
 40
0.0
 40
0.0
 40
0.0
 40
0.0
 40
0.279406906455589
 40
0.5596240257155599
 40
0.8375007392219617
 40
1.0
 40
1.0
 40
1.0
 40
1.0
 10
261.9728487529587
 20
128.7322055196323
 30
0.0
 10
261.9480516081148
 20
128.761177764764
 30
0.0
 10
261.8983854126732
 20
128.8192062675678
 30
0.0
 10
261.7928720823757
 20
128.8681809749056
 30
0.0
 10
261.6938903064317
 20
128.8809815518048
 30
0.0
 10
261.6351219639282
 20
128.8691585467546
 30
0.0
 10
261.6134363753138
 20
128.8647958437622
 30
0.0
  0
ARC
  5
88
330
1F
100
AcDbEntity
  8
0
  6
Continuous
 62
     7
370
    15
100
AcDbCircle
 10
261.6994826737
 20
128.4431169233
 30
0.0
 40
0.3352849365802412
100
AcDbArc
 50
35.3805231252
 51
162.4614702427
  0
ARC
  5
89
330
1F
100
AcDbEntity
  8
0
  6
Continuous
 62
     7
370
    15
100
AcDbCircle
 10
263.028725944
 20
128.2583590417
 30
0.0
 40
0.3350539876415046
100
AcDbArc
 50
7.0215894552
 51
128.8063028464
  0
ARC
  5
8A
330
1F
100
AcDbEntity
  8
0
  6
Continuous
 62
     7
370
    15
100
AcDbCircle
 10
262.2088106355
 20
127.2348008181
 30
0.0
 40
2.621882806677121
100
AcDbArc
 50
261.9215979433
 51
359.940045705
  0
ARC
  5
8B
330
1F
100
AcDbEntity
  8
0
  6
Continuous
 62
     7
370
    15
100
AcDbCircle
 10
262.201004606
 20
127.2343125053
 30
0.0
 40
2.620313569755964
100
AcDbArc
 50
180.0493127463
 51
262.089090576
  0
ARC
  5
8C
330
1F
100
AcDbEntity
  8
0
  6
Continuous
 62
     7
370
    15
100
AcDbCircle
 10
262.4513709057
 20
128.9774252573
 30
0.0
 40
0.5871148448147263
100
AcDbArc
 50
215.4086710857
 51
308.7363927877
  0
LINE
  5
8D
330
1F
100
AcDbEntity
  8
0
  6
Continuous
 62
     7
370
    15
100
AcDbLine
 10
265.7740780721
 20
123.907755867
 30
0.0
 11
265.8883462758
 21
123.5615303337
 31
0.0
  0
LINE
  5
8E
330
1F
100
AcDbEntity
  8
0
  6
Continuous
 62
     7
370
    15
100
AcDbLine
 10
255.7300607009
 20
120.3664372861
 30
0.0
 11
265.8883462758
 21
123.5615303337
 31
0.0
  0
LINE
  5
8F
330
1F
100
AcDbEntity
  8
0
  6
Continuous
 62
     7
370
    15
100
AcDbLine
 10
255.6157924971
 20
120.7126628197
 30
0.0
 11
255.7300607009
 21
120.3664372861
 31
0.0
  0
LINE
  5
90
330
1F
100
AcDbEntity
  8
0
  6
Continuous
 62
     7
370
    15
100
AcDbLine
 10
257.0352796286
 20
122.0913606083
 30
0.0
 11
255.6157924971
 21
120.7126628197
 31
0.0
  0
LINE
  5
91
330
1F
100
AcDbEntity
  8
0
  6
Continuous
 62
     7
370
    15
100
AcDbLine
 10
265.5983174955
 20
124.0742087839
 30
0.0
 11
265.7740780721
 21
123.907755867
 31
0.0
  0
SPLINE
  5
92
330
1F
100
AcDbEntity
  8
0
  6
Continuous
 62
     7
370
    15
100
AcDbSpline
210
0.0
220
0.0
230
1.0
 70
     8
 71
     3
 72
    13
 73
     9
 74
     0
 42
0.00000001
 43
0.00000001
 12
1.0
 22
0.0
 32
0.0
 13
1.0
 23
0.0
 33
0.0
 40
0.0
 40
0.0
 40
0.0
 40
0.0
 40
0.1734385751044845
 40
0.3519090391368626
 40
0.5252484949918436
 40
0.7036433105307042
 40
0.8503205800979856
 40
1.0
 40
1.0
 40
1.0
 40
1.0
 10
265.8958453645957
 20
123.542969528067
 30
0.0
 10
265.9165425064739
 20
123.5505869830143
 30
0.0
 10
265.9585372663297
 20
123.5660428944201
 30
0.0
 10
266.0151888901643
 20
123.6019935541705
 30
0.0
 10
266.0658119643562
 20
123.6465998436542
 30
0.0
 10
266.1053930135379
 20
123.6961900551783
 30
0.0
 10
266.1358253243692
 20
123.7483903836743
 30
0.0
 10
266.1486296329645
 20
123.7837369604859
 30
0.0
 10
266.1550966423181
 20
123.8015892827067
 30
0.0
  0
LINE
  5
93
330
1F
100
AcDbEntity
  8
0
  6
Continuous
 62
     7
370
    15
100
AcDbLine
 10
255.7277858965
 20
120.344802291
 30
0.0
 11
265.8958453646
 21
123.5429695281
 31
0.0
  0
SPLINE
  5
94
330
1F
100
AcDbEntity
  8
0
  6
Continuous
 62
     7
370
    15
100
AcDbSpline
210
0.0
220
0.0
230
1.0
 70
     8
 71
     3
 72
    14
 73
    10
 74
     0
 42
0.00000001
 43
0.00000001
 12
1.0
 22
0.0
 32
0.0
 13
1.0
 23
0.0
 33
0.0
 40
0.0
 40
0.0
 40
0.0
 40
0.0
 40
0.1588501103508092
 40
0.3173321153185009
 40
0.4720153553660929
 40
0.6236441635915788
 40
0.7746618341644448
 40
0.9277417761107937
 40
1.0
 40
1.0
 40
1.0
 40
1.0
 10
255.2316922301939
 20
120.8396874979915
 30
0.0
 10
255.2221609863127
 20
120.7947009207919
 30
0.0
 10
255.2031205854232
 20
120.7048320143608
 30
0.0
 10
255.2336179037113
 20
120.568823217191
 30
0.0
 10
255.3041800100771
 20
120.4531712997489
 30
0.0
 10
255.4087793693254
 20
120.3692136312498
 30
0.0
 10
255.534297566459
 20
120.325116256383
 30
0.0
 10
255.6450019547629
 20
120.3228730490427
 30
0.0
 10
255.7076854490131
 20
120.3394777368734
 30
0.0
 10
255.7277858964668
 20
120.3448022909561
 30
0.0
  0
LINE
  5
95
330
1F
100
AcDbEntity
  8
0
  6
Continuous
 62
     7
370
    15
100
AcDbLine
 10
258.4376690657
 20
130.9829780843
 30
0.0
 11
255.2316922302
 21
120.839687498
 31
0.0
  0
SPLINE
  5
96
330
1F
100
AcDbEntity
  8
0
  6
Continuous
 62
     7
370
    15
100
AcDbSpline
210
0.0
220
0.0
230
1.0
 70
     8
 71
     3
 72
    10
 73
     6
 74
     0
 42
0.00000001
 43
0.00000001
 12
1.0
 22
0.0
 32
0.0
 13
1.0
 23
0.0
 33
0.0
 40
0.0
 40
0.0
 40
0.0
 40
0.0
 40
0.3518022785810643
 40
0.703424593503185
 40
1.0
 40
1.0
 40
1.0
 40
1.0
 10
258.6969203434668
 20
131.2415978389407
 30
0.0
 10
258.6557462859245
 20
131.2239712427819
 30
0.0
 10
258.5734192333359
 20
131.1887270673096
 30
0.0
 10
258.483355543592
 20
131.0936350460358
 30
0.0
 10
258.4520105889511
 20
131.0177146072169
 30
0.0
 10
258.4376690657445
 20
130.982978084301
 30
0.0
  0
LINE
  5
97
330
1F
100
AcDbEntity
  8
0
  6
Continuous
 62
     7
370
    15
100
AcDbLine
 10
268.8649798116
 20
134.4397650761
 30
0.0
 11
258.6969203435
 21
131.2415978389
 31
0.0
  0
SPLINE
  5
98
330
1F
100
AcDbEntity
  8
0
  6
Continuous
 62
     7
370
    15
100
AcDbSpline
210
0.0
220
0.0
230
1.0
 70
     8
 71
     3
 72
    20
 73
    16
 74
     0
 42
0.00000001
 43
0.00000001
 12
1.0
 22
0.0
 32
0.0
 13
1.0
 23
0.0
 33
0.0
 40
0.0
 40
0.0
 40
0.0
 40
0.0
 40
0.0783075311860434
 40
0.1588910126856452
 40
0.2369785693217726
 40
0.3174398160757296
 40
0.3936615824744973
 40
0.4721830276909717
 40
0.5469240757152892
 40
0.6238523130449414
 40
0.6983189620749501
 40
0.7748908420225389
 40
0.8503894607879664
 40
0.9279814901989103
 40
1.0
 40
1.0
 40
1.0
 40
1.0
 10
269.3610734778687
 20
133.9448798690162
 30
0.0
 10
269.3668401015537
 20
133.9667120105904
 30
0.0
 10
269.378540951564
 20
134.011010828741
 30
0.0
 10
269.3816136625907
 20
134.0796204045473
 30
0.0
 10
269.3736846184315
 20
134.1482088427941
 30
0.0
 10
269.3541723593607
 20
134.2132791553418
 30
0.0
 10
269.3237430207014
 20
134.2740918972859
 30
0.0
 10
269.2842586372989
 20
134.327500531837
 30
0.0
 10
269.2361075795542
 20
134.3735177919882
 30
0.0
 10
269.1818134965516
 20
134.4101343400205
 30
0.0
 10
269.1216904357318
 20
134.4373520153571
 30
0.0
 10
269.0582438222315
 20
134.4542083879296
 30
0.0
 10
268.9920675319896
 20
134.4602980196981
 30
0.0
 10
268.9268368761731
 20
134.4562695579074
 30
0.0
 10
268.8850803066859
 20
134.4451282186252
 30
0.0
 10
268.8649798115958
 20
134.4397650760517
 30
0.0
  0
LINE
  5
99
330
1F
100
AcDbEntity
  8
0
  6
Continuous
 62
     7
370
    15
100
AcDbLine
 10
266.1550966423
 20
123.8015892827
 30
0.0
 11
269.3610734779
 21
133.944879869
 31
0.0
  0
ARC
  5
9A
330
1F
100
AcDbEntity
  8
0
  6
Continuous
 62
     7
370
    15
100
AcDbCircle
 10
255.6154906317
 20
120.7282695113
 30
0.0
 40
0.379537692426566
100
AcDbArc
 50
162.5699396795
 51
287.56980009
  0
ARC
  5
9B
330
1F
100
AcDbEntity
  8
0
  6
Continuous
 62
     7
370
    15
100
AcDbCircle
 10
265.7746579491
 20
123.9236412515
 30
0.0
 40
0.3795383411493926
100
AcDbArc
 50
287.4301999786
 51
342.430060169
  0
LINE
  5
9C
330
1F
100
AcDbEntity
  8
0
  6
Continuous
 62
     7
370
    15
100
AcDbLine
 10
266.1364905134
 20
123.809070104
 30
0.0
 11
269.3393856523
 21
133.9426106059
 31
0.0
  0
ARC
  5
9D
330
1F
100
AcDbEntity
  8
0
  6
Continuous
 62
     7
370
    15
100
AcDbCircle
 10
268.9772750763
 20
134.0562978557
 30
0.0
 40
0.3795376924265747
100
AcDbArc
 50
342.5699396795
 51
107.56980009
  0
LINE
  5
9E
330
1F
100
AcDbEntity
  8
0
  6
Continuous
 62
     7
370
    15
100
AcDbLine
 10
268.8627050072
 20
134.4181300809
 30
0.0
 11
258.7044194321
 21
131.2230370336
 31
0.0
  0
ARC
  5
9F
330
1F
100
AcDbEntity
  8
0
  6
Continuous
 62
     7
370
    15
100
AcDbCircle
 10
258.818107758
 20
130.8609261169
 30
0.0
 40
0.3795383398848367
100
AcDbArc
 50
107.4301999098
 51
162.4300603206
  0
LINE
  5
A0
330
1F
100
AcDbEntity
  8
0
  6
Continuous
 62
     7
370
    15
100
AcDbLine
 10
258.4562751947
 20
130.975497263
 30
0.0
 11
255.2533800558
 21
120.8419567611
 31
0.0
  0
LINE
  5
A1
330
1F
100
AcDbEntity
  8
0
  6
Continuous
 62
     7
370
    15
100
AcDbLine
 10
255.6157924971
 20
120.7126628197
 30
0.0
 11
255.2533800558
 21
120.8419567611
 31
0.0
  0
LINE
  5
A2
330
1F
100
AcDbEntity
  8
0
  6
Continuous
 62
     7
370
    15
100
AcDbLine
 10
258.818687636
 20
130.8462033217
 30
0.0
 11
258.4562751947
 21
130.975497263
 31
0.0
  0
LINE
  5
A3
330
1F
100
AcDbEntity
  8
0
  6
Continuous
 62
     7
370
    15
100
AcDbLine
 10
258.9944482125
 20
130.6619913733
 30
0.0
 11
258.818687636
 21
130.8462033217
 31
0.0
  0
SPLINE
  5
A4
330
1F
100
AcDbEntity
  8
0
  6
Continuous
 62
     7
370
    15
100
AcDbSpline
210
0.0
220
0.0
230
1.0
 70
     8
 71
     3
 72
    11
 73
     7
 74
     0
 42
0.00000001
 43
0.00000001
 12
1.0
 22
0.0
 32
0.0
 13
1.0
 23
0.0
 33
0.0
 40
0.0
 40
0.0
 40
0.0
 40
0.0
 40
0.0072987238691106
 40
0.1268462096078923
 40
0.5874298328382855
 40
0.9999999999999999
 40
0.9999999999999999
 40
0.9999999999999999
 40
0.9999999999999999
 10
257.5214502876773
 20
122.5841656440035
 30
0.0
 10
257.5203896186275
 20
122.5830473568515
 30
0.0
 10
257.5019560059803
 20
122.5636123858847
 30
0.0
 10
257.4146530380171
 20
122.4720671080741
 30
0.0
 10
257.2508602104205
 20
122.3034015405085
 30
0.0
 10
257.1044563101007
 20
122.1594014675656
 30
0.0
 10
257.0352796286355
 20
122.0913606083044
 30
0.0
  0
LINE
  5
A5
330
1F
100
AcDbEntity
  8
0
  6
Continuous
 62
     7
370
    15
100
AcDbLine
 10
259.3161339625
 20
123.167927489
 30
0.0
 11
264.3050455601
 21
124.73709353
 31
0.0
  0
LINE
  5
A6
330
1F
100
AcDbEntity
  8
0
  6
Continuous
 62
     7
370
    15
100
AcDbLine
 10
265.2766317456
 20
131.6166398781
 30
0.0
 11
260.287720148
 21
130.0474738371
 31
0.0
  0
ARC
  5
A7
330
1F
100
AcDbEntity
  8
0
  6
Continuous
 62
     7
370
    15
100
AcDbCircle
 10
265.5781319276
 20
130.6644498116
 30
0.0
 40
0.9987834011226782
100
AcDbArc
 50
342.5699396795
 51
107.56980009
  0
LINE
  5
A8
330
1F
100
AcDbEntity
  8
0
  6
Continuous
 62
     7
370
    15
100
AcDbLine
 10
264.9580567113
 20
125.3885139789
 30
0.0
 11
266.5310544959
 21
130.3652728386
 31
0.0
  0
ARC
  5
A9
330
1F
100
AcDbEntity
  8
0
  6
Continuous
 62
     7
370
    15
100
AcDbCircle
 10
264.0058657551
 20
125.690016995
 30
0.0
 40
0.9987851049600407
100
AcDbArc
 50
287.4301999098
 51
342.4300603206
  0
ARC
  5
AA
330
1F
100
AcDbEntity
  8
0
  6
Continuous
 62
     7
370
    15
100
AcDbCircle
 10
259.0146337801
 20
124.1201175553
 30
0.0
 40
0.9987834011075025
100
AcDbArc
 50
162.5699396668
 51
287.5698001121
  0
LINE
  5
AB
330
1F
100
AcDbEntity
  8
0
  6
Continuous
 62
     7
370
    15
100
AcDbLine
 10
259.6347089968
 20
129.3960533882
 30
0.0
 11
258.0617112119
 21
124.4192945285
 31
0.0
  0
ARC
  5
AC
330
1F
100
AcDbEntity
  8
0
  6
Continuous
 62
     7
370
    15
100
AcDbCircle
 10
260.586899953
 20
129.094550372
 30
0.0
 40
0.9987851049598181
100
AcDbArc
 50
107.4301999098
 51
162.4300603206
  0
CIRCLE
  5
AD
330
1F
100
AcDbEntity
  8
0
  6
Continuous
 62
     7
370
    15
100
AcDbCircle
 10
262.2913260976
 20
127.3884474418
 30
0.0
 40
3.045660573278613
  0
SPLINE
  5
AE
330
1F
100
AcDbEntity
  8
0
  6
Continuous
 62
     7
370
    15
100
AcDbSpline
210
0.0
220
0.0
230
1.0
 70
     8
 71
     3
 72
    11
 73
     7
 74
     0
 42
0.00000001
 43
0.00000001
 12
1.0
 22
0.0
 32
0.0
 13
1.0
 23
0.0
 33
0.0
 40
0.0
 40
0.0
 40
0.0
 40
0.0
 40
0.3277695037502215
 40
0.655150956890983
 40
0.9907861901609815
 40
1.0
 40
1.0
 40
1.0
 40
1.0
 10
265.598317495541
 20
124.0742087839168
 30
0.0
 10
265.5457580952823
 20
124.1246143742428
 30
0.0
 10
265.4407015205276
 20
124.2253658790561
 30
0.0
 10
265.2674729009284
 20
124.3990492586107
 30
0.0
 10
265.1582157626557
 20
124.5119952575446
 30
0.0
 10
265.1072185529663
 20
124.5657539828133
 30
0.0
 10
265.1058559898338
 20
124.5671903291849
 30
0.0
  0
LINE
  5
AF
330
1F
100
AcDbEntity
  8
0
  6
Continuous
 62
     7
370
    15
100
AcDbLine
 10
265.7740780721
 20
123.907755867
 30
0.0
 11
266.1364905134
 21
123.809070104
 31
0.0
  0
LWPOLYLINE
  5
B0
330
1F
100
AcDbEntity
  8
0
  6
Continuous
 62
     7
370
    15
100
AcDbPolyline
 90
        3
 70
   128
 43
0.0
 10
259.3875461542
 20
128.2375484323
 10
259.2508460095
 20
127.4871684748
 10
259.246382854
 20
127.3226298817
  0
ARC
  5
B1
330
1F
100
AcDbEntity
  8
0
  6
Continuous
 62
     7
370
    15
100
AcDbCircle
 10
262.2957010317
 20
127.3159523282
 30
0.0
 40
3.050689130440044
100
AcDbArc
 50
0.1254129546
 51
162.4165588095
  0
LINE
  5
B2
330
1F
100
AcDbEntity
  8
0
  6
Continuous
 62
     7
370
    15
100
AcDbLine
 10
268.976973211
 20
134.041296369
 30
0.0
 11
269.3393856523
 21
133.9426106059
 31
0.0
  0
LINE
  5
B3
330
1F
100
AcDbEntity
  8
0
  6
Continuous
 62
     7
370
    15
100
AcDbLine
 10
267.5574860794
 20
132.587935493
 30
0.0
 11
268.976973211
 21
134.041296369
 31
0.0
  0
LINE
  5
B4
330
1F
100
AcDbEntity
  8
0
  6
Continuous
 62
     7
370
    15
100
AcDbLine
 10
258.818687636
 20
130.8462033217
 30
0.0
 11
258.7044194321
 21
131.2230370336
 31
0.0
  0
LINE
  5
B5
330
1F
100
AcDbEntity
  8
0
  6
Continuous
 62
     7
370
    15
100
AcDbLine
 10
268.976973211
 20
134.041296369
 30
0.0
 11
268.8627050072
 21
134.4181300809
 31
0.0
  0
SPLINE
  5
B6
330
1F
100
AcDbEntity
  8
0
  6
Continuous
 62
     7
370
    15
100
AcDbSpline
210
0.0
220
0.0
230
1.0
 70
     8
 71
     3
 72
    11
 73
     7
 74
     0
 42
0.00000001
 43
0.00000001
 12
1.0
 22
0.0
 32
0.0
 13
1.0
 23
0.0
 33
0.0
 40
0.0
 40
0.0
 40
0.0
 40
0.0
 40
0.0092138098389979
 40
0.3448490431109659
 40
0.6722304962507393
 40
0.9999999999999999
 40
0.9999999999999999
 40
0.9999999999999999
 40
0.9999999999999999
 10
259.4869097182287
 20
130.1724491300796
 30
0.0
 10
259.4855471550963
 20
130.1737312717023
 30
0.0
 10
259.434549945407
 20
130.2217185125327
 30
0.0
 10
259.325292807133
 20
130.3267545003506
 30
0.0
 10
259.1520641875335
 20
130.4986844075727
 30
0.0
 10
259.0470076127789
 20
130.6075342271969
 30
0.0
 10
258.9944482125204
 20
130.6619913732734
 30
0.0
  0
SPLINE
  5
B7
330
1F
100
AcDbEntity
  8
0
  6
Continuous
 62
     7
370
    15
100
AcDbSpline
210
0.0
220
0.0
230
1.0
 70
     8
 71
     3
 72
    11
 73
     7
 74
     0
 42
0.00000001
 43
0.00000001
 12
1.0
 22
0.0
 32
0.0
 13
1.0
 23
0.0
 33
0.0
 40
0.0
 40
0.0
 40
0.0
 40
0.0
 40
0.4125701671612986
 40
0.8731537903910427
 40
0.9927012761302811
 40
1.0
 40
1.0
 40
1.0
 40
1.0
 10
267.5574860794268
 20
132.5879354930246
 30
0.0
 10
267.4883093979618
 20
132.5179600111945
 30
0.0
 10
267.3419054976424
 20
132.369865548585
 30
0.0
 10
267.1781126700463
 20
132.2117434431497
 30
0.0
 10
267.0908097020819
 20
132.1291081163163
 30
0.0
 10
267.072376089435
 20
132.1117656686972
 30
0.0
 10
267.0713154203851
 20
132.1107677852225
 30
0.0
  0
LINE
  5
B8
330
1F
100
AcDbEntity
  8
0
  6
Continuous
 62
     7
370
    15
100
AcDbLine
 10
166.376973211
 20
81.9556260782
 30
0.0
 11
166.376973211
 21
142.9556260782
 31
0.0
  0
SPLINE
  5
B9
330
1F
100
AcDbEntity
  8
0
  6
Continuous
 62
     7
370
    15
100
AcDbSpline
210
0.0
220
0.0
230
1.0
 70
     8
 71
     3
 72
    12
 73
     8
 74
     0
 42
0.00000001
 43
0.00000001
 12
1.0
 22
0.0
 32
0.0
 13
1.0
 23
0.0
 33
0.0
 40
0.0
 40
0.0
 40
0.0
 40
0.0
 40
0.2499999999999977
 40
0.2499999999999977
 40
0.4999999999999954
 40
0.4999999999999954
 40
1.0
 40
1.0
 40
1.0
 40
1.0
 10
154.9047300245765
 20
121.8436925095778
 30
0.0
 10
154.8416499860831
 20
121.8436925095778
 30
0.0
 10
154.7825013639017
 20
121.8690568287928
 30
0.0
 10
154.6840288138326
 20
121.9432216891657
 30
0.0
 10
154.6449922018479
 20
121.9897420297198
 30
0.0
 10
154.5450957350689
 20
122.139884372565
 30
0.0
 10
154.5026748540022
 20
122.2515775795372
 30
0.0
 10
154.4717173226842
 20
122.3649953989269
 30
0.0
  0
LINE
  5
BA
330
1F
100
AcDbEntity
  8
0
  6
Continuous
 62
     7
370
    15
100
AcDbLine
 10
157.8492163974
 20
121.8436925096
 30
0.0
 11
154.9047300246
 21
121.8436925096
 31
0.0
  0
SPLINE
  5
BB
330
1F
100
AcDbEntity
  8
0
  6
Continuous
 62
     7
370
    15
100
AcDbSpline
210
0.0
220
0.0
230
1.0
 70
     8
 71
     3
 72
    12
 73
     8
 74
     0
 42
0.00000001
 43
0.00000001
 12
1.0
 22
0.0
 32
0.0
 13
1.0
 23
0.0
 33
0.0
 40
0.0
 40
0.0
 40
0.0
 40
0.0
 40
0.4999999999999971
 40
0.4999999999999971
 40
0.7499999999999986
 40
0.7499999999999986
 40
1.0
 40
1.0
 40
1.0
 40
1.0
 10
158.2822290993358
 20
122.3649953989269
 30
0.0
 10
158.2515068574167
 20
122.2524395995177
 30
0.0
 10
158.2086696428815
 20
122.1396817397782
 30
0.0
 10
158.1092426186817
 20
121.9901408539818
 30
0.0
 10
158.069490423865
 20
121.942848122275
 30
0.0
 10
157.9714489670068
 20
121.8691118289535
 30
0.0
 10
157.9118929114194
 20
121.8436925095778
 30
0.0
 10
157.8492163974435
 20
121.8436925095778
 30
0.0
  0
ELLIPSE
  5
BC
330
1F
100
AcDbEntity
  8
0
  6
Continuous
 62
     7
370
    15
100
AcDbEllipse
 10
142.0298190216
 20
112.4556260782
 30
0.0
 11
14.75368316065607
 21
31.09325491558117
 31
0.0
210
0.0
220
0.0
230
1.0
 40
0.3419987131
 41
5.19328173740862
 42
6.124043104552327
  0
SPLINE
  5
BD
330
1F
100
AcDbEntity
  8
0
  6
Continuous
 62
     7
370
    15
100
AcDbSpline
210
0.0
220
0.0
230
1.0
 70
     8
 71
     3
 72
    12
 73
     8
 74
     0
 42
0.00000001
 43
0.00000001
 12
1.0
 22
0.0
 32
0.0
 13
1.0
 23
0.0
 33
0.0
 40
0.0
 40
0.0
 40
0.0
 40
0.0
 40
0.2500000000000009
 40
0.2500000000000009
 40
0.5000000000000019
 40
0.5000000000000019
 40
1.0
 40
1.0
 40
1.0
 40
1.0
 10
157.8492163974436
 20
142.524118037115
 30
0.0
 10
157.9122964359369
 20
142.524118037115
 30
0.0
 10
157.9714450581183
 20
142.5162121109025
 30
0.0
 10
158.0699176081874
 20
142.4928869494663
 30
0.0
 10
158.1089542201721
 20
142.4781741596345
 30
0.0
 10
158.2088506869512
 20
142.4302183589036
 30
0.0
 10
158.2512715680178
 20
142.3939562023236
 30
0.0
 10
158.2822290993358
 20
142.3563685383591
 30
0.0
  0
LINE
  5
BE
330
1F
100
AcDbEntity
  8
0
  6
Continuous
 62
     7
370
    15
100
AcDbLine
 10
154.9047300246
 20
142.5241180371
 30
0.0
 11
157.8492163974
 21
142.5241180371
 31
0.0
  0
SPLINE
  5
BF
330
1F
100
AcDbEntity
  8
0
  6
Continuous
 62
     7
370
    15
100
AcDbSpline
210
0.0
220
0.0
230
1.0
 70
     8
 71
     3
 72
    12
 73
     8
 74
     0
 42
0.00000001
 43
0.00000001
 12
1.0
 22
0.0
 32
0.0
 13
1.0
 23
0.0
 33
0.0
 40
0.0
 40
0.0
 40
0.0
 40
0.0
 40
0.5000000000000047
 40
0.5000000000000047
 40
0.7500000000000023
 40
0.7500000000000023
 40
1.0
 40
1.0
 40
1.0
 40
1.0
 10
154.4717173226842
 20
142.3563685383591
 30
0.0
 10
154.5024395646033
 20
142.3936705213121
 30
0.0
 10
154.5452767791385
 20
142.4302823533585
 30
0.0
 10
154.6447038033383
 20
142.4780471366437
 30
0.0
 10
154.684455998155
 20
142.4930046521261
 30
0.0
 10
154.7824974550132
 20
142.5161945978952
 30
0.0
 10
154.8420535106006
 20
142.524118037115
 30
0.0
 10
154.9047300245765
 20
142.524118037115
 30
0.0
  0
ELLIPSE
  5
C0
330
1F
100
AcDbEntity
  8
0
  6
Continuous
 62
     7
370
    15
100
AcDbEllipse
 10
170.7241274004
 20
112.4556260782
 30
0.0
 11
-14.75368316065607
 21
31.09325491558117
 31
0.0
210
0.0
220
0.0
230
1.0
 40
0.3419987131
 41
0.1591422026273012
 42
1.08990356977098
  0
SPLINE
  5
C1
330
1F
100
AcDbEntity
  8
0
  6
Continuous
 62
     7
370
    15
100
AcDbSpline
210
0.0
220
0.0
230
1.0
 70
     8
 71
     3
 72
    12
 73
     8
 74
     0
 42
0.00000001
 43
0.00000001
 12
1.0
 22
0.0
 32
0.0
 13
1.0
 23
0.0
 33
0.0
 40
0.0
 40
0.0
 40
0.0
 40
0.0
 40
0.2500000000000023
 40
0.2500000000000023
 40
0.5000000000000047
 40
0.5000000000000047
 40
1.0
 40
1.0
 40
1.0
 40
1.0
 10
154.9047300245765
 20
82.38713411936877
 30
0.0
 10
154.8416730696786
 20
82.38713411936877
 30
0.0
 10
154.7825429199331
 20
82.39503445044834
 30
0.0
 10
154.6840953693998
 20
82.41834519845338
 30
0.0
 10
154.6450631312117
 20
82.43305032473701
 30
0.0
 10
154.5451732467547
 20
82.48098385292366
 30
0.0
 10
154.5028742731454
 20
82.5170538256884
 30
0.0
 10
154.4717173226842
 20
82.55488361812462
 30
0.0
  0
LINE
  5
C2
330
1F
100
AcDbEntity
  8
0
  6
Continuous
 62
     7
370
    15
100
AcDbLine
 10
157.8492163974
 20
82.3871341194
 30
0.0
 11
154.9047300246
 21
82.3871341194
 31
0.0
  0
SPLINE
  5
C3
330
1F
100
AcDbEntity
  8
0
  6
Continuous
 62
     7
370
    15
100
AcDbSpline
210
0.0
220
0.0
230
1.0
 70
     8
 71
     3
 72
    12
 73
     8
 74
     0
 42
0.00000001
 43
0.00000001
 12
1.0
 22
0.0
 32
0.0
 13
1.0
 23
0.0
 33
0.0
 40
0.0
 40
0.0
 40
0.0
 40
0.0
 40
0.5000000000000009
 40
0.5000000000000009
 40
0.7500000000000004
 40
0.7500000000000004
 40
1.0
 40
1.0
 40
1.0
 40
1.0
 10
158.2822290993358
 20
82.55488361812462
 30
0.0
 10
158.2510839013736
 20
82.51706809520442
 30
0.0
 10
158.2088096350392
 20
82.48100123712082
 30
0.0
 10
158.108864101214
 20
82.43304117210955
 30
0.0
 10
158.0691337965099
 20
82.41818019821191
 30
0.0
 10
157.9722457465037
 20
82.39522905208077
 30
0.0
 10
157.9121805047571
 20
82.38713411936871
 30
0.0
 10
157.8492163974436
 20
82.38713411936871
 30
0.0
  0
ELLIPSE
  5
C4
330
1F
100
AcDbEntity
  8
0
  6
Continuous
 62
     7
370
    15
100
AcDbEllipse
 10
142.0298190216
 20
112.4556260782
 30
0.0
 11
-14.75368316065618
 21
31.09325491558117
 31
0.0
210
0.0
220
0.0
230
1.0
 40
0.3419987131
 41
3.300734856217121
 42
4.231496223360772
  0
SPLINE
  5
C5
330
1F
100
AcDbEntity
  8
0
  6
Continuous
 62
     7
370
    15
100
AcDbSpline
210
0.0
220
0.0
230
1.0
 70
     8
 71
     3
 72
    12
 73
     8
 74
     0
 42
0.00000001
 43
0.00000001
 12
1.0
 22
0.0
 32
0.0
 13
1.0
 23
0.0
 33
0.0
 40
0.0
 40
0.0
 40
0.0
 40
0.0
 40
0.2500000000000009
 40
0.2500000000000009
 40
0.5000000000000018
 40
0.5000000000000018
 40
1.0
 40
1.0
 40
1.0
 40
1.0
 10
157.8492163974435
 20
103.0675596469057
 30
0.0
 10
157.9122733523413
 20
103.0675596469057
 30
0.0
 10
157.9714035020869
 20
103.0422132935249
 30
0.0
 10
158.0698510526202
 20
102.9680939113855
 30
0.0
 10
158.1088832908083
 20
102.9215973966874
 30
0.0
 10
158.2087731752653
 20
102.7715228896789
 30
0.0
 10
158.2510721488746
 20
102.660405180564
 30
0.0
 10
158.2822290993358
 20
102.5462567575565
 30
0.0
  0
LINE
  5
C6
330
1F
100
AcDbEntity
  8
0
  6
Continuous
 62
     7
370
    15
100
AcDbLine
 10
154.9047300246
 20
103.0675596469
 30
0.0
 11
157.8492163974
 21
103.0675596469
 31
0.0
  0
SPLINE
  5
C7
330
1F
100
AcDbEntity
  8
0
  6
Continuous
 62
     7
370
    15
100
AcDbSpline
210
0.0
220
0.0
230
1.0
 70
     8
 71
     3
 72
    12
 73
     8
 74
     0
 42
0.00000001
 43
0.00000001
 12
1.0
 22
0.0
 32
0.0
 13
1.0
 23
0.0
 33
0.0
 40
0.0
 40
0.0
 40
0.0
 40
0.0
 40
0.4999999999999964
 40
0.4999999999999964
 40
0.7499999999999982
 40
0.7499999999999982
 40
1.0
 40
1.0
 40
1.0
 40
1.0
 10
154.4717173226842
 20
102.5462567575565
 30
0.0
 10
154.5028625206463
 20
102.6603621234218
 30
0.0
 10
154.5451367869807
 20
102.7714684506406
 30
0.0
 10
154.6450823208061
 20
102.9216260580709
 30
0.0
 10
154.6848126255101
 20
102.9686187496882
 30
0.0
 10
154.7817006755163
 20
103.0415943342267
 30
0.0
 10
154.8417659172629
 20
103.0675596469057
 30
0.0
 10
154.9047300245764
 20
103.0675596469057
 30
0.0
  0
ELLIPSE
  5
C8
330
1F
100
AcDbEntity
  8
0
  6
Continuous
 62
     7
370
    15
100
AcDbEllipse
 10
170.7241274004
 20
112.4556260782
 30
0.0
 11
14.75368316065615
 21
31.09325491558117
 31
0.0
210
0.0
220
0.0
230
1.0
 40
0.3419987131
 41
2.051689083818824
 42
2.982450450962496
  0
LINE
  5
C9
330
1F
100
AcDbEntity
  8
0
  6
Continuous
 62
     7
370
    15
100
AcDbLine
 10
144.376973211
 20
81.4556260782
 30
0.0
 11
144.376973211
 21
143.4556260665
 31
0.0
  0
SPLINE
  5
CA
330
1F
100
AcDbEntity
  8
0
  6
Continuous
 62
     7
370
    15
100
AcDbSpline
210
0.0
220
0.0
230
1.0
 70
     8
 71
     3
 72
    12
 73
     8
 74
     0
 42
0.00000001
 43
0.00000001
 12
1.0
 22
0.0
 32
0.0
 13
1.0
 23
0.0
 33
0.0
 40
0.0
 40
0.0
 40
0.0
 40
0.0
 40
0.5000000000000002
 40
0.5000000000000002
 40
0.7500000000000002
 40
0.7500000000000002
 40
1.0
 40
1.0
 40
1.0
 40
1.0
 10
143.5604609245535
 20
90.60083237576606
 30
0.0
 10
143.6168974254607
 20
90.59941449442431
 30
0.0
 10
143.6859820561494
 20
90.597850158176
 30
0.0
 10
143.8047843278674
 20
90.59490596620157
 30
0.0
 10
143.8449696033375
 20
90.59386776310419
 30
0.0
 10
143.9183506507413
 20
90.59193386788955
 30
0.0
 10
143.9517602144839
 20
90.59103898060076
 30
0.0
 10
143.9819963221404
 20
90.5902551903284
 30
0.0
  0
SPLINE
  5
CB
330
1F
100
AcDbEntity
  8
0
  6
Continuous
 62
     7
370
    15
100
AcDbSpline
210
0.0
220
0.0
230
1.0
 70
     8
 71
     3
 72
    16
 73
    12
 74
     0
 42
0.00000001
 43
0.00000001
 12
1.0
 22
0.0
 32
0.0
 13
1.0
 23
0.0
 33
0.0
 40
0.0
 40
0.0
 40
0.0
 40
0.0
 40
0.0625000000000028
 40
0.0625000000000028
 40
0.1250000000000056
 40
0.1250000000000056
 40
0.2500000000000061
 40
0.2500000000000061
 40
0.500000000000004
 40
0.500000000000004
 40
1.0
 40
1.0
 40
1.0
 40
1.0
 10
143.9819963221032
 20
90.59025519035265
 30
0.0
 10
143.9935767296911
 20
90.5899549992413
 30
0.0
 10
144.0068862564524
 20
90.5886272509823
 30
0.0
 10
144.0361876865385
 20
90.58192857620728
 30
0.0
 10
144.0510017864228
 20
90.5765703931016
 30
0.0
 10
144.0868301881256
 20
90.55952474393425
 30
0.0
 10
144.1009498124887
 20
90.54806220615852
 30
0.0
 10
144.1354539565772
 20
90.51649888078627
 30
0.0
 10
144.1465585072818
 20
90.498601581741
 30
0.0
 10
144.172734684498
 20
90.44844016412677
 30
0.0
 10
144.17697321101
 20
90.4206957519302
 30
0.0
 10
144.17697321101
 20
90.39603159000065
 30
0.0
  0
LINE
  5
CC
330
1F
100
AcDbEntity
  8
0
  6
Continuous
 62
     7
370
    15
100
AcDbLine
 10
144.176973211
 20
105.4337387525
 30
0.0
 11
144.176973211
 21
89.9158057994
 31
0.0
  0
SPLINE
  5
CD
330
1F
100
AcDbEntity
  8
0
  6
Continuous
 62
     7
370
    15
100
AcDbSpline
210
0.0
220
0.0
230
1.0
 70
     8
 71
     3
 72
    16
 73
    12
 74
     0
 42
0.00000001
 43
0.00000001
 12
1.0
 22
0.0
 32
0.0
 13
1.0
 23
0.0
 33
0.0
 40
0.0
 40
0.0
 40
0.0
 40
0.0
 40
0.5000000000000007
 40
0.5000000000000007
 40
0.750000000000001
 40
0.750000000000001
 40
0.8750000000000021
 40
0.8750000000000021
 40
0.937500000000001
 40
0.937500000000001
 40
1.0
 40
1.0
 40
1.0
 40
1.0
 10
144.17697321101
 20
105.4337387524918
 30
0.0
 10
144.17697321101
 20
105.5474312966197
 30
0.0
 10
144.172826935932
 20
105.6617514579692
 30
0.0
 10
144.1468613405385
 20
105.8347997484663
 30
0.0
 10
144.1354004351611
 20
105.893975255628
 30
0.0
 10
144.1010886973868
 20
105.9770983750961
 30
0.0
 10
144.0870639614572
 20
106.0052196911968
 30
0.0
 10
144.0510409984233
 20
106.0338355051743
 30
0.0
 10
144.0362864893337
 20
106.0396285530761
 30
0.0
 10
144.0069343281868
 20
106.038035127139
 30
0.0
 10
143.9935944536827
 20
106.0315387238152
 30
0.0
 10
143.9819963221343
 20
106.0230229776121
 30
0.0
  0
SPLINE
  5
CE
330
1F
100
AcDbEntity
  8
0
  6
Continuous
 62
     7
370
    15
100
AcDbSpline
210
0.0
220
0.0
230
1.0
 70
     8
 71
     3
 72
    12
 73
     8
 74
     0
 42
0.00000001
 43
0.00000001
 12
1.0
 22
0.0
 32
0.0
 13
1.0
 23
0.0
 33
0.0
 40
0.0
 40
0.0
 40
0.0
 40
0.0
 40
0.2500000000000001
 40
0.2500000000000001
 40
0.5000000000000001
 40
0.5000000000000001
 40
1.0
 40
1.0
 40
1.0
 40
1.0
 10
143.9819963221414
 20
106.0230229776029
 30
0.0
 10
143.9517978807008
 20
106.0008502455579
 30
0.0
 10
143.9184305253648
 20
105.9817705896807
 30
0.0
 10
143.8452752495349
 20
105.956597545238
 30
0.0
 10
143.8050225505109
 20
105.9510410088212
 30
0.0
 10
143.6872938072361
 20
105.9619528198079
 30
0.0
 10
143.6168353591771
 20
106.0038885752188
 30
0.0
 10
143.5604609245589
 20
106.0531003576003
 30
0.0
  0
SPLINE
  5
CF
330
1F
100
AcDbEntity
  8
0
  6
Continuous
 62
     7
370
    15
100
AcDbSpline
210
0.0
220
0.0
230
1.0
 70
     8
 71
     3
 72
    12
 73
     8
 74
     0
 42
0.00000001
 43
0.00000001
 12
1.0
 22
0.0
 32
0.0
 13
1.0
 23
0.0
 33
0.0
 40
0.0
 40
0.0
 40
0.0
 40
0.0
 40
0.5000000000000016
 40
0.5000000000000016
 40
0.7500000000000008
 40
0.7500000000000008
 40
1.0
 40
1.0
 40
1.0
 40
1.0
 10
143.0556528674503
 20
107.2694517494809
 30
0.0
 10
143.0994032193348
 20
107.0490047645063
 30
0.0
 10
143.1522933704593
 20
106.8334597747008
 30
0.0
 10
143.263904913601
 20
106.5210456981289
 30
0.0
 10
143.3064642575045
 20
106.4189662225129
 30
0.0
 10
143.4114414928419
 20
106.2245262098712
 30
0.0
 10
143.4730087359365
 20
106.1294413108075
 30
0.0
 10
143.5604609245589
 20
106.0531003576003
 30
0.0
  0
SPLINE
  5
D0
330
1F
100
AcDbEntity
  8
0
  6
Continuous
 62
     7
370
    15
100
AcDbSpline
210
0.0
220
0.0
230
1.0
 70
     8
 71
     3
 72
    12
 73
     8
 74
     0
 42
0.00000001
 43
0.00000001
 12
1.0
 22
0.0
 32
0.0
 13
1.0
 23
0.0
 33
0.0
 40
0.0
 40
0.0
 40
0.0
 40
0.0
 40
0.2499999999999988
 40
0.2499999999999988
 40
0.4999999999999977
 40
0.4999999999999977
 40
1.0
 40
1.0
 40
1.0
 40
1.0
 10
143.5604609245588
 20
118.8581517988835
 30
0.0
 10
143.4719675169909
 20
118.7809019187752
 30
0.0
 10
143.411909476225
 20
118.687582594886
 30
0.0
 10
143.3060612032424
 20
118.4915495419165
 30
0.0
 10
143.2635276819649
 20
118.3892231837048
 30
0.0
 10
143.1523763751413
 20
118.0778787779289
 30
0.0
 10
143.0994455180935
 20
117.8624605247509
 30
0.0
 10
143.0556528674503
 20
117.641800407003
 30
0.0
  0
SPLINE
  5
D1
330
1F
100
AcDbEntity
  8
0
  6
Continuous
 62
     7
370
    15
100
AcDbSpline
210
0.0
220
0.0
230
1.0
 70
     8
 71
     3
 72
    12
 73
     8
 74
     0
 42
0.00000001
 43
0.00000001
 12
1.0
 22
0.0
 32
0.0
 13
1.0
 23
0.0
 33
0.0
 40
0.0
 40
0.0
 40
0.0
 40
0.0
 40
0.5000000000000002
 40
0.5000000000000002
 40
0.7500000000000002
 40
0.7500000000000002
 40
1.0
 40
1.0
 40
1.0
 40
1.0
 10
143.5604609245588
 20
118.8581517988835
 30
0.0
 10
143.6167694728544
 20
118.9073060661273
 30
0.0
 10
143.6870441335725
 20
118.9492633847311
 30
0.0
 10
143.8050820478961
 20
118.9602230622635
 30
0.0
 10
143.84525828875
 20
118.9547143040161
 30
0.0
 10
143.9192153834279
 20
118.9291570752272
 30
0.0
 10
143.9518317711394
 20
118.9103770273879
 30
0.0
 10
143.9819963221352
 20
118.8882291788712
 30
0.0
  0
SPLINE
  5
D2
330
1F
100
AcDbEntity
  8
0
  6
Continuous
 62
     7
370
    15
100
AcDbSpline
210
0.0
220
0.0
230
1.0
 70
     8
 71
     3
 72
    16
 73
    12
 74
     0
 42
0.00000001
 43
0.00000001
 12
1.0
 22
0.0
 32
0.0
 13
1.0
 23
0.0
 33
0.0
 40
0.0
 40
0.0
 40
0.0
 40
0.0
 40
0.0625
 40
0.0625
 40
0.125
 40
0.125
 40
0.2499999999999999
 40
0.2499999999999999
 40
0.4999999999999999
 40
0.4999999999999999
 40
1.0
 40
1.0
 40
1.0
 40
1.0
 10
143.9819963221034
 20
118.8882291788167
 30
0.0
 10
143.9936092219428
 20
118.8797025892214
 30
0.0
 10
144.0069604063752
 20
118.8732023276886
 30
0.0
 10
144.0363602459944
 20
118.8716329305711
 30
0.0
 10
144.0512009705497
 20
118.8775163212017
 30
0.0
 10
144.0870341785183
 20
118.9060639572523
 30
0.0
 10
144.1011473863399
 20
118.9342309765581
 30
0.0
 10
144.1356387575588
 20
119.01798523498
 30
0.0
 10
144.1467228286691
 20
119.0756986486014
 30
0.0
 10
144.1728456464651
 20
119.2492891852473
 30
0.0
 10
144.17697321101
 20
119.3643172378892
 30
0.0
 10
144.17697321101
 20
119.477513403992
 30
0.0
  0
LINE
  5
D3
330
1F
100
AcDbEntity
  8
0
  6
Continuous
 62
     7
370
    15
100
AcDbLine
 10
144.176973211
 20
134.9954463571
 30
0.0
 11
144.176973211
 21
119.477513404
 31
0.0
  0
SPLINE
  5
D4
330
1F
100
AcDbEntity
  8
0
  6
Continuous
 62
     7
370
    15
100
AcDbSpline
210
0.0
220
0.0
230
1.0
 70
     8
 71
     3
 72
    16
 73
    12
 74
     0
 42
0.00000001
 43
0.00000001
 12
1.0
 22
0.0
 32
0.0
 13
1.0
 23
0.0
 33
0.0
 40
0.0
 40
0.0
 40
0.0
 40
0.0
 40
0.4999999999999989
 40
0.4999999999999989
 40
0.7500000000000021
 40
0.7500000000000021
 40
0.8750000000000037
 40
0.8750000000000037
 40
0.9375000000000019
 40
0.9375000000000019
 40
1.0
 40
1.0
 40
1.0
 40
1.0
 10
144.17697321101
 20
134.5152205664832
 30
0.0
 10
144.17697321101
 20
134.4905494104403
 30
0.0
 10
144.17280751255
 20
134.462967579049
 30
0.0
 10
144.1465491842251
 20
134.4126247082257
 30
0.0
 10
144.1350454024875
 20
134.3943352101638
 30
0.0
 10
144.100914643141
 20
134.3631801791268
 30
0.0
 10
144.0864927564702
 20
134.351540803915
 30
0.0
 10
144.0509257880324
 20
134.334658777984
 30
0.0
 10
144.0359740197378
 20
134.3292696741763
 30
0.0
 10
144.006970201378
 20
134.3226491782318
 30
0.0
 10
143.9935548473688
 20
134.3212965900254
 30
0.0
 10
143.9819963221321
 20
134.3209969661538
 30
0.0
  0
SPLINE
  5
D5
330
1F
100
AcDbEntity
  8
0
  6
Continuous
 62
     7
370
    15
100
AcDbSpline
210
0.0
220
0.0
230
1.0
 70
     8
 71
     3
 72
    12
 73
     8
 74
     0
 42
0.00000001
 43
0.00000001
 12
1.0
 22
0.0
 32
0.0
 13
1.0
 23
0.0
 33
0.0
 40
0.0
 40
0.0
 40
0.0
 40
0.0
 40
0.25
 40
0.25
 40
0.5
 40
0.5
 40
1.0
 40
1.0
 40
1.0
 40
1.0
 10
143.9819963221414
 20
134.3209969661555
 30
0.0
 10
143.9518085455917
 20
134.3202144287379
 30
0.0
 10
143.9184547415001
 20
134.3193210969194
 30
0.0
 10
143.8453285383041
 20
134.3173937881158
 30
0.0
 10
143.8050933352799
 20
134.3163542569031
 30
0.0
 10
143.6874017051468
 20
134.3134363735559
 30
0.0
 10
143.6170210319868
 20
134.3118407674857
 30
0.0
 10
143.5604609245562
 20
134.3104197807178
 30
0.0
  0
SPLINE
  5
D6
330
1F
100
AcDbEntity
  8
0
  6
Continuous
 62
     7
370
    15
100
AcDbSpline
210
0.0
220
0.0
230
1.0
 70
     8
 71
     3
 72
    16
 73
    12
 74
     0
 42
0.00000001
 43
0.00000001
 12
1.0
 22
0.0
 32
0.0
 13
1.0
 23
0.0
 33
0.0
 40
0.0
 40
0.0
 40
0.0
 40
0.0
 40
0.2500000000000001
 40
0.2500000000000001
 40
0.3750000000000001
 40
0.3750000000000001
 40
0.5000000000000001
 40
0.5000000000000001
 40
0.7500000000000001
 40
0.7500000000000001
 40
1.0
 40
1.0
 40
1.0
 40
1.0
 10
143.0556528674503
 20
117.641800407003
 30
0.0
 10
142.8944203899659
 20
116.8293906317562
 30
0.0
 10
142.7739405503262
 20
115.9893123373714
 30
0.0
 10
142.6515600330129
 20
114.6880172880087
 30
0.0
 10
142.6205823726155
 20
114.2473362524239
 30
0.0
 10
142.5789686349875
 20
113.3514966114927
 30
0.0
 10
142.5687327220547
 20
112.9048384802903
 30
0.0
 10
142.5685443249986
 20
111.5695285231504
 30
0.0
 10
142.6086890276362
 20
110.6850331498429
 30
0.0
 10
142.7728427825758
 20
108.9277832618168
 30
0.0
 10
142.8943944329853
 20
108.0819923154037
 30
0.0
 10
143.0556528674503
 20
107.2694517494809
 30
0.0
  0
LINE
  5
D7
330
1F
100
AcDbEntity
  8
0
  6
Continuous
 62
     7
370
    15
100
AcDbLine
 10
142.176973211
 20
118.9408043399
 30
0.0
 11
142.176973211
 21
105.9704478166
 31
0.0
  0
LINE
  5
D8
330
1F
100
AcDbEntity
  8
0
  6
Continuous
 62
     7
370
    15
100
AcDbLine
 10
107.876973211
 20
118.5099366458
 30
0.0
 11
107.876973211
 21
106.4013155107
 31
0.0
  0
LINE
  5
D9
330
1F
100
AcDbEntity
  8
0
  6
Continuous
 62
     7
370
    15
100
AcDbLine
 10
106.376973211
 20
118.0769239439
 30
0.0
 11
106.376973211
 21
106.8343282126
 31
0.0
  0
LINE
  5
DA
330
1F
100
AcDbEntity
  8
0
  6
Continuous
 62
     7
370
    15
100
AcDbLine
 10
142.176973211
 20
118.9408043399
 30
0.0
 11
142.176973211
 21
134.4757248628
 31
0.0
  0
ARC
  5
DB
330
1F
100
AcDbEntity
  8
0
  6
Continuous
 62
     7
370
    15
100
AcDbCircle
 10
142.3769101219
 20
134.4807479739
 30
0.0
 40
0.1999999999999782
100
AcDbArc
 50
181.4391666667
 51
271.4391666667
  0
LINE
  5
DC
330
1F
100
AcDbEntity
  8
0
  6
Continuous
 62
     7
370
    15
100
AcDbLine
 10
107.876973211
 20
118.5099366458
 30
0.0
 11
107.876973211
 21
133.6139894745
 31
0.0
  0
LINE
  5
DD
330
1F
100
AcDbEntity
  8
0
  6
Continuous
 62
     7
370
    15
100
AcDbLine
 10
107.876973211
 20
133.6139894745
 30
0.0
 11
142.176973211
 21
134.4757248628
 31
0.0
  0
LINE
  5
DE
330
1F
100
AcDbEntity
  8
0
  6
Continuous
 62
     7
370
    15
100
AcDbLine
 10
142.176973211
 20
90.4355272937
 30
0.0
 11
142.176973211
 21
105.9704478166
 31
0.0
  0
ARC
  5
DF
330
1F
100
AcDbEntity
  8
0
  6
Continuous
 62
     7
370
    15
100
AcDbCircle
 10
142.3769101219
 20
90.4305041826
 30
0.0
 40
0.1999999999999924
100
AcDbArc
 50
88.5608333333
 51
178.5608333333
  0
LINE
  5
E0
330
1F
100
AcDbEntity
  8
0
  6
Continuous
 62
     7
370
    15
100
AcDbLine
 10
107.876973211
 20
91.297262682
 30
0.0
 11
107.876973211
 21
106.4013155107
 31
0.0
  0
LINE
  5
E1
330
1F
100
AcDbEntity
  8
0
  6
Continuous
 62
     7
370
    15
100
AcDbLine
 10
107.876973211
 20
91.297262682
 30
0.0
 11
142.176973211
 21
90.4355272937
 31
0.0
  0
LINE
  5
E2
330
1F
100
AcDbEntity
  8
0
  6
Continuous
 62
     7
370
    15
100
AcDbLine
 10
142.3819332331
 20
134.280811063
 30
0.0
 11
143.5604609246
 21
134.3104197807
 31
0.0
  0
LINE
  5
E3
330
1F
100
AcDbEntity
  8
0
  6
Continuous
 62
     7
370
    15
100
AcDbLine
 10
142.3819332331
 20
90.6304410935
 30
0.0
 11
143.5604609246
 21
90.6008323758
 31
0.0
  0
LINE
  5
E4
330
1F
100
AcDbEntity
  8
0
  6
Continuous
 62
     7
370
    15
100
AcDbLine
 10
106.376973211
 20
132.7479640707
 30
0.0
 11
107.876973211
 21
133.6139894745
 31
0.0
  0
LINE
  5
E5
330
1F
100
AcDbEntity
  8
0
  6
Continuous
 62
     7
370
    15
100
AcDbLine
 10
106.376973211
 20
118.0769239439
 30
0.0
 11
106.376973211
 21
132.7479640707
 31
0.0
  0
LINE
  5
E6
330
1F
100
AcDbEntity
  8
0
  6
Continuous
 62
     7
370
    15
100
AcDbLine
 10
106.376973211
 20
92.1632880857
 30
0.0
 11
107.876973211
 21
91.297262682
 31
0.0
  0
LINE
  5
E7
330
1F
100
AcDbEntity
  8
0
  6
Continuous
 62
     7
370
    15
100
AcDbLine
 10
106.376973211
 20
92.1632880857
 30
0.0
 11
106.376973211
 21
106.8343282126
 31
0.0
  0
ELLIPSE
  5
E8
330
1F
100
AcDbEntity
  8
0
  6
Continuous
 62
     7
370
    15
100
AcDbEllipse
 10
236.707794651
 20
112.4556260782
 30
0.0
 11
-0.3220561513869882
 21
15.99976859320064
 31
0.0
210
0.0
220
0.0
230
1.0
 40
0.2671959542
 41
0.1426643238695704
 42
2.84854542511913
  0
ELLIPSE
  5
E9
330
1F
100
AcDbEntity
  8
0
  6
Continuous
 62
     7
370
    15
100
AcDbEllipse
 10
234.351612436
 20
118.6982672449
 30
0.0
 11
0.09033694274967274
 21
2.324516216905351
 31
0.0
210
0.0
220
0.0
230
1.0
 40
0.2588465783
 41
0.0
 42
6.283185307179586
  0
LINE
  5
EA
330
1F
100
AcDbEntity
  8
0
  6
Continuous
 62
     7
370
    15
100
AcDbLine
 10
238.6789541749
 20
128.4551845877
 30
0.0
 11
242.9627596486
 21
128.4551845877
 31
0.0
  0
SPLINE
  5
EB
330
1F
100
AcDbEntity
  8
0
  6
Continuous
 62
     7
370
    15
100
AcDbSpline
210
0.0
220
0.0
230
1.0
 70
     8
 71
     3
 72
    14
 73
    10
 74
     0
 42
0.00000001
 43
0.00000001
 12
1.0
 22
0.0
 32
0.0
 13
1.0
 23
0.0
 33
0.0
 40
0.0
 40
0.0
 40
0.0
 40
0.0
 40
0.25
 40
0.25
 40
0.5
 40
0.5
 40
0.75
 40
0.75
 40
1.0
 40
1.0
 40
1.0
 40
1.0
 10
235.7811766960797
 20
128.2806131639375
 30
0.0
 10
235.8652093557533
 20
128.3279918994654
 30
0.0
 10
235.9973075720214
 20
128.362625357559
 30
0.0
 10
236.3605908453967
 20
128.4135569012142
 30
0.0
 10
236.5828797453848
 20
128.4286217806149
 30
0.0
 10
237.1055801582528
 20
128.4476402461163
 30
0.0
 10
237.3951499973892
 20
128.4512754651929
 30
0.0
 10
238.0210662021327
 20
128.4550472646395
 30
0.0
 10
238.3468759081442
 20
128.4551845876726
 30
0.0
 10
238.6789541749469
 20
128.4551845876726
 30
0.0
  0
SPLINE
  5
EC
330
1F
100
AcDbEntity
  8
0
  6
Continuous
 62
     7
370
    15
100
AcDbSpline
210
0.0
220
0.0
230
1.0
 70
     8
 71
     3
 72
    14
 73
    10
 74
     0
 42
0.00000001
 43
0.00000001
 12
1.0
 22
0.0
 32
0.0
 13
1.0
 23
0.0
 33
0.0
 40
0.0
 40
0.0
 40
0.0
 40
0.0
 40
0.2500000000000001
 40
0.2500000000000001
 40
0.5000000000000001
 40
0.5000000000000001
 40
0.7500000000000002
 40
0.7500000000000002
 40
1.0
 40
1.0
 40
1.0
 40
1.0
 10
238.6789541749469
 20
96.62831617225032
 30
0.0
 10
238.3468786007267
 20
96.62831617225032
 30
0.0
 10
238.0239575954678
 20
96.63593193667982
 30
0.0
 10
237.3963824719198
 20
96.66956974056343
 30
0.0
 10
237.1076844004457
 20
96.69484800718493
 30
0.0
 10
236.5844509236681
 20
96.77015493012327
 30
0.0
 10
236.3616115227601
 20
96.81869595736438
 30
0.0
 10
235.9986432011664
 20
96.9456658785363
 30
0.0
 10
235.865211733848
 20
97.021966065181
 30
0.0
 10
235.7811766960797
 20
97.11310061490508
 30
0.0
  0
LINE
  5
ED
330
1F
100
AcDbEntity
  8
0
  6
Continuous
 62
     7
370
    15
100
AcDbLine
 10
242.9627596486
 20
96.6283161723
 30
0.0
 11
238.6789541749
 21
96.6283161723
 31
0.0
  0
SPLINE
  5
EE
330
1F
100
AcDbEntity
  8
0
  6
Continuous
 62
     7
370
    15
100
AcDbSpline
210
0.0
220
0.0
230
1.0
 70
     8
 71
     3
 72
    10
 73
     6
 74
     0
 42
0.00000001
 43
0.00000001
 12
1.0
 22
0.0
 32
0.0
 13
1.0
 23
0.0
 33
0.0
 40
0.0
 40
0.0
 40
0.0
 40
0.0
 40
0.5
 40
0.5
 40
1.0
 40
1.0
 40
1.0
 40
1.0
 10
242.9627596486369
 20
128.4551845876725
 30
0.0
 10
243.0948221393245
 20
128.4551845876725
 30
0.0
 10
243.2244205639356
 20
128.4811948909121
 30
0.0
 10
243.4664077809406
 20
128.5814724295176
 30
0.0
 10
243.5766203123673
 20
128.6549351452962
 30
0.0
 10
243.6698664298237
 20
128.7482223471169
 30
0.0
  0
SPLINE
  5
EF
330
1F
100
AcDbEntity
  8
0
  6
Continuous
 62
     7
370
    15
100
AcDbSpline
210
0.0
220
0.0
230
1.0
 70
     8
 71
     3
 72
    10
 73
     6
 74
     0
 42
0.00000001
 43
0.00000001
 12
1.0
 22
0.0
 32
0.0
 13
1.0
 23
0.0
 33
0.0
 40
0.0
 40
0.0
 40
0.0
 40
0.0
 40
0.5
 40
0.5
 40
1.0
 40
1.0
 40
1.0
 40
1.0
 10
243.6698664298235
 20
96.33527841280568
 30
0.0
 10
243.5766214701579
 20
96.42856445632535
 30
0.0
 10
243.4667254206036
 20
96.50184605748522
 30
0.0
 10
243.2247618311148
 20
96.60221495856473
 30
0.0
 10
243.0948287580066
 20
96.62831617225052
 30
0.0
 10
242.9627596486369
 20
96.62831617225052
 30
0.0
  0
LINE
  5
F0
330
1F
100
AcDbEntity
  8
0
  6
Continuous
 62
     7
370
    15
100
AcDbLine
 10
243.6698664298
 20
128.7485192971
 30
0.0
 11
243.6698664298
 21
128.7482223471
 31
0.0
  0
LINE
  5
F1
330
1F
100
AcDbEntity
  8
0
  6
Continuous
 62
     7
370
    15
100
AcDbLine
 10
243.876973211
 20
96.1280878898
 30
0.0
 11
243.6698664298
 21
96.3352784128
 31
0.0
  0
LINE
  5
F2
330
1F
100
AcDbEntity
  8
0
  6
Continuous
 62
     7
370
    15
100
AcDbLine
 10
243.6698664298
 20
128.7482223471
 30
0.0
 11
244.1978525571
 21
129.2763932355
 31
0.0
  0
LINE
  5
F3
330
1F
100
AcDbEntity
  8
0
  6
Continuous
 62
     7
370
    15
100
AcDbLine
 10
248.9937315459
 20
129.2763932355
 30
0.0
 11
244.1978525571
 21
129.2763932355
 31
0.0
  0
ELLIPSE
  5
F4
330
1F
100
AcDbEntity
  8
0
  6
Continuous
 62
     7
370
    15
100
AcDbEllipse
 10
248.9937315459
 20
155.4078383717
 30
0.0
 11
0.0
 21
26.13144513619378
 31
0.0
210
0.0
220
0.0
230
1.0
 40
0.9949698482
 41
3.141592653589793
 42
3.444886158282741
  0
LINE
  5
F5
330
1F
100
AcDbEntity
  8
0
  6
Continuous
 62
     7
370
    15
100
AcDbLine
 10
258.44565532
 20
130.9995824675
 30
0.0
 11
256.7590216344
 21
130.4690843316
 31
0.0
  0
LINE
  5
F6
330
1F
100
AcDbEntity
  8
0
  6
Continuous
 62
     7
370
    15
100
AcDbLine
 10
256.122776961
 20
123.6589628156
 30
0.0
 11
253.9227162748
 21
122.9669761068
 31
0.0
  0
ARC
  5
F7
330
1F
100
AcDbEntity
  8
0
  6
Continuous
 62
     7
370
    15
100
AcDbCircle
 10
254.3763997799
 20
121.5235090649
 30
0.0
 40
1.513084870018564
100
AcDbArc
 50
107.4479988746
 51
287.6322327363
  0
LINE
  5
F8
330
1F
100
AcDbEntity
  8
0
  6
Continuous
 62
     7
370
    15
100
AcDbLine
 10
254.8347223818
 20
120.0815082964
 30
0.0
 11
255.6282636897
 21
120.3311014287
 31
0.0
  0
LINE
  5
F9
330
1F
100
AcDbEntity
  8
0
  6
Continuous
 62
     7
370
    15
100
AcDbLine
 10
265.9471581006
 20
123.5767108915
 30
0.0
 11
257.2715070619
 21
96.1280878898
 31
0.0
  0
LINE
  5
FA
330
1F
100
AcDbEntity
  8
0
  6
Continuous
 62
     7
370
    15
100
AcDbLine
 10
243.876973211
 20
96.1280878898
 30
0.0
 11
257.2715070619
 21
96.1280878898
 31
0.0
  0
LINE
  5
FB
330
1F
100
AcDbEntity
  8
0
  6
Continuous
 62
     7
370
    15
100
AcDbLine
 10
243.876973211
 20
95.9556260782
 30
0.0
 11
243.876973211
 21
96.1280878898
 31
0.0
  0
ELLIPSE
  5
FC
330
1F
100
AcDbEntity
  8
0
  6
Continuous
 62
     7
370
    15
100
AcDbEllipse
 10
262.3004004946
 20
112.4556260782
 30
0.0
 11
5.390524936199313
 21
16.49183944377621
 31
0.0
210
0.0
220
0.0
230
1.0
 40
0.0962569477
 41
3.173044837569632
 42
3.31775482418493
  0
ARC
  5
FD
330
1F
100
AcDbEntity
  8
0
  6
Continuous
 62
     7
370
    15
100
AcDbCircle
 10
254.37680733
 20
121.3722663307
 30
0.0
 40
1.247232315809057
100
AcDbArc
 50
107.4479988746
 51
287.6322327363
  0
LINE
  5
FE
330
1F
100
AcDbEntity
  8
0
  6
Continuous
 62
     7
370
    15
100
AcDbLine
 10
254.7546015777
 20
120.1836284733
 30
0.0
 11
255.399184674
 21
120.3863696696
 31
0.0
  0
LINE
  5
FF
330
1F
100
AcDbEntity
  8
0
  6
Continuous
 62
     7
370
    15
100
AcDbLine
 10
254.002837079
 20
122.5621128338
 30
0.0
 11
255.9718423595
 21
123.1814255156
 31
0.0
  0
ARC
  5
100
330
1F
100
AcDbEntity
  8
0
  6
Continuous
 62
     7
370
    15
100
AcDbCircle
 10
254.3757725146
 20
121.2674632665
 30
0.0
 40
1.247083075977306
100
AcDbArc
 50
107.4003237679
 51
177.5601000508
  0
LINE
  5
101
330
1F
100
AcDbEntity
  8
0
  6
Continuous
 62
     7
370
    15
100
AcDbLine
 10
255.9351198989
 20
123.0652404624
 30
0.0
 11
254.002837079
 21
122.4574781232
 31
0.0
  0
LINE
  5
102
330
1F
100
AcDbEntity
  8
0
  6
HIDDEN
 62
     7
370
     0
100
AcDbLine
 10
166.376973211
 20
81.9556260782
 30
0.0
 11
166.376973211
 21
142.9556260687
 31
0.0
  0
SPLINE
  5
103
330
1F
100
AcDbEntity
  8
0
  6
HIDDEN
 62
     7
370
     0
100
AcDbSpline
210
0.0
220
0.0
230
1.0
 70
     8
 71
     3
 72
    60
 73
    56
 74
     0
 42
0.00000001
 43
0.00000001
 12
1.0
 22
0.0
 32
0.0
 13
1.0
 23
0.0
 33
0.0
 40
-0.0625000000000004
 40
-0.0625000000000004
 40
0.0
 40
0.0
 40
0.0312499999999999
 40
0.0312499999999999
 40
0.0624999999999998
 40
0.0624999999999998
 40
0.0937499999999996
 40
0.0937499999999996
 40
0.1249999999999995
 40
0.1249999999999995
 40
0.1874999999999994
 40
0.1874999999999994
 40
0.2499999999999993
 40
0.2499999999999993
 40
0.2812499999999992
 40
0.2812499999999992
 40
0.3124999999999992
 40
0.3124999999999992
 40
0.3437499999999991
 40
0.3437499999999991
 40
0.374999999999999
 40
0.374999999999999
 40
0.4062499999999989
 40
0.4062499999999989
 40
0.4374999999999989
 40
0.4374999999999989
 40
0.4687499999999988
 40
0.4687499999999988
 40
0.4999999999999988
 40
0.4999999999999988
 40
0.5624999999999987
 40
0.5624999999999987
 40
0.6249999999999986
 40
0.6249999999999986
 40
0.6562499999999987
 40
0.6562499999999987
 40
0.6874999999999988
 40
0.6874999999999988
 40
0.7187499999999989
 40
0.7187499999999989
 40
0.7499999999999989
 40
0.7499999999999989
 40
0.781249999999999
 40
0.781249999999999
 40
0.8124999999999991
 40
0.8124999999999991
 40
0.8437499999999992
 40
0.8437499999999992
 40
0.8749999999999993
 40
0.8749999999999993
 40
0.9062499999999994
 40
0.9062499999999994
 40
0.9374999999999996
 40
0.9374999999999996
 40
1.0
 40
1.0
 40
1.03125
 40
1.03125
 10
154.37697321101
 20
112.1912955531552
 30
0.0
 10
154.37697321101
 20
112.5877913407853
 30
0.0
 10
154.3899450694988
 20
112.7177414017894
 30
0.0
 10
154.4407652391912
 20
112.9733943351495
 30
0.0
 10
154.4792325626581
 20
113.1004238416988
 30
0.0
 10
154.5796307987302
 20
113.3426119728233
 30
0.0
 10
154.6410638297034
 20
113.4574734653762
 30
0.0
 10
154.7861986612483
 20
113.6748536612003
 30
0.0
 10
154.8706537786562
 20
113.777751228399
 30
0.0
 10
155.1473732290145
 20
114.0544182674067
 30
0.0
 10
155.3704501209326
 20
114.2034163578867
 30
0.0
 10
155.8517334831529
 20
114.4029274983514
 30
0.0
 10
156.1149639021439
 20
114.4554856013481
 30
0.0
 10
156.5063661038318
 20
114.4556958837262
 30
0.0
 10
156.6388891319407
 20
114.4427101129991
 30
0.0
 10
156.8954195851817
 20
114.3916829647853
 30
0.0
 10
157.0201064194783
 20
114.3539277656349
 30
0.0
 10
157.2622856817138
 20
114.2537894327261
 30
0.0
 10
157.3793792138639
 20
114.1911837653146
 30
0.0
 10
157.5960942172194
 20
114.0464504720496
 30
0.0
 10
157.6971130440821
 20
113.9638231247701
 30
0.0
 10
157.8838979315342
 20
113.7772180715185
 30
0.0
 10
157.9667548127304
 20
113.6761030076423
 30
0.0
 10
158.1116390778043
 20
113.4595702036525
 30
0.0
 10
158.1742765856252
 20
113.3426999960514
 30
0.0
 10
158.274725409025
 20
113.1004021254012
 30
0.0
 10
158.3125765100422
 20
112.9757381269402
 30
0.0
 10
158.3637980752985
 20
112.7194510828764
 30
0.0
 10
158.3769262019158
 20
112.5868790871308
 30
0.0
 10
158.377066842256
 20
112.1952748943568
 30
0.0
 10
158.3247420928842
 20
111.9321095630328
 30
0.0
 10
158.1256310308269
 20
111.4506041938597
 30
0.0
 10
157.9767686943696
 20
111.2273526543756
 30
0.0
 10
157.7004477350442
 20
110.9504963554867
 30
0.0
 10
157.5976840866706
 20
110.865982908643
 30
0.0
 10
157.3803005292911
 20
110.7205656352028
 30
0.0
 10
157.2655017613347
 20
110.6590544361444
 30
0.0
 10
157.0236250379106
 20
110.5585245878896
 30
0.0
 10
156.8964714299104
 20
110.5198795646716
 30
0.0
 10
156.6408054204778
 20
110.4688232371206
 30
0.0
 10
156.5109393827218
 20
110.455758378575
 30
0.0
 10
156.2469868559902
 20
110.455495757777
 30
0.0
 10
156.1165825325661
 20
110.4683727580211
 30
0.0
 10
155.8609317691868
 20
110.5189587618269
 30
0.0
 10
155.7340662200724
 20
110.5572351264487
 30
0.0
 10
155.4915457621265
 20
110.6575059939287
 30
0.0
 10
155.3766191234662
 20
110.7188620180696
 30
0.0
 10
155.1592476546342
 20
110.8637083132424
 30
0.0
 10
155.056233841972
 20
110.948085827737
 30
0.0
 10
154.87153329639
 20
111.1324931479253
 30
0.0
 10
154.7887035621334
 20
111.2330662111948
 30
0.0
 10
154.6424511235359
 20
111.4512923517737
 30
0.0
 10
154.5800826427435
 20
111.567847461695
 30
0.0
 10
154.4301264911768
 20
111.9286970557288
 30
0.0
 10
154.37697321101
 20
112.1912955531552
 30
0.0
 10
154.37697321101
 20
112.5877913407853
 30
0.0
  0
SPLINE
  5
104
330
1F
100
AcDbEntity
  8
0
  6
HIDDEN
 62
     7
370
     0
100
AcDbSpline
210
0.0
220
0.0
230
1.0
 70
     8
 71
     3
 72
    12
 73
     8
 74
     0
 42
0.00000001
 43
0.00000001
 12
1.0
 22
0.0
 32
0.0
 13
1.0
 23
0.0
 33
0.0
 40
0.0
 40
0.0
 40
0.0
 40
0.0
 40
0.2500000000000005
 40
0.2500000000000005
 40
0.500000000000001
 40
0.500000000000001
 40
1.0
 40
1.0
 40
1.0
 40
1.0
 10
154.9047300245764
 20
103.0675596469059
 30
0.0
 10
154.841649986083
 20
103.0675596469058
 30
0.0
 10
154.7825013639016
 20
103.0421953276909
 30
0.0
 10
154.6840288138326
 20
102.968030467318
 30
0.0
 10
154.6449922018479
 20
102.9215101267639
 30
0.0
 10
154.5450957350689
 20
102.7713677839186
 30
0.0
 10
154.5026748540022
 20
102.6596745769465
 30
0.0
 10
154.4717173226842
 20
102.5462567575567
 30
0.0
  0
LINE
  5
105
330
1F
100
AcDbEntity
  8
0
  6
HIDDEN
 62
     7
370
     0
100
AcDbLine
 10
157.8492163974
 20
103.0675596469
 30
0.0
 11
154.9047300246
 21
103.0675596469
 31
0.0
  0
SPLINE
  5
106
330
1F
100
AcDbEntity
  8
0
  6
HIDDEN
 62
     7
370
     0
100
AcDbSpline
210
0.0
220
0.0
230
1.0
 70
     8
 71
     3
 72
    12
 73
     8
 74
     0
 42
0.00000001
 43
0.00000001
 12
1.0
 22
0.0
 32
0.0
 13
1.0
 23
0.0
 33
0.0
 40
0.0
 40
0.0
 40
0.0
 40
0.0
 40
0.5000000000000029
 40
0.5000000000000029
 40
0.7500000000000014
 40
0.7500000000000014
 40
1.0
 40
1.0
 40
1.0
 40
1.0
 10
158.2822290993358
 20
102.5462567575567
 30
0.0
 10
158.2515068574167
 20
102.6588125569659
 30
0.0
 10
158.2086696428815
 20
102.7715704167055
 30
0.0
 10
158.1092426186817
 20
102.9211113025019
 30
0.0
 10
158.069490423865
 20
102.9684040342087
 30
0.0
 10
157.9714489670068
 20
103.0421403275302
 30
0.0
 10
157.9118929114194
 20
103.0675596469059
 30
0.0
 10
157.8492163974435
 20
103.0675596469059
 30
0.0
  0
ELLIPSE
  5
107
330
1F
100
AcDbEntity
  8
0
  6
HIDDEN
 62
     7
370
     0
100
AcDbEllipse
 10
142.0298190216
 20
112.4556260782
 30
0.0
 11
-14.75368316065612
 21
31.09325491558117
 31
0.0
210
0.0
220
0.0
230
1.0
 40
0.3419987131
 41
3.300734856217129
 42
4.231496223360779
  0
SPLINE
  5
108
330
1F
100
AcDbEntity
  8
0
  6
HIDDEN
 62
     7
370
     0
100
AcDbSpline
210
0.0
220
0.0
230
1.0
 70
     8
 71
     3
 72
    12
 73
     8
 74
     0
 42
0.00000001
 43
0.00000001
 12
1.0
 22
0.0
 32
0.0
 13
1.0
 23
0.0
 33
0.0
 40
0.0
 40
0.0
 40
0.0
 40
0.0
 40
0.2499999999999977
 40
0.2499999999999977
 40
0.4999999999999953
 40
0.4999999999999953
 40
1.0
 40
1.0
 40
1.0
 40
1.0
 10
157.8492163974435
 20
82.38713411936882
 30
0.0
 10
157.9122964359369
 20
82.38713411936882
 30
0.0
 10
157.9714450581183
 20
82.39504004558131
 30
0.0
 10
158.0699176081874
 20
82.41836520701754
 30
0.0
 10
158.1089542201721
 20
82.43307799684924
 30
0.0
 10
158.2088506869512
 20
82.48103379758017
 30
0.0
 10
158.2512715680178
 20
82.51729595416022
 30
0.0
 10
158.2822290993358
 20
82.55488361812472
 30
0.0
  0
LINE
  5
109
330
1F
100
AcDbEntity
  8
0
  6
HIDDEN
 62
     7
370
     0
100
AcDbLine
 10
154.9047300246
 20
82.3871341194
 30
0.0
 11
157.8492163974
 21
82.3871341194
 31
0.0
  0
SPLINE
  5
10A
330
1F
100
AcDbEntity
  8
0
  6
HIDDEN
 62
     7
370
     0
100
AcDbSpline
210
0.0
220
0.0
230
1.0
 70
     8
 71
     3
 72
    12
 73
     8
 74
     0
 42
0.00000001
 43
0.00000001
 12
1.0
 22
0.0
 32
0.0
 13
1.0
 23
0.0
 33
0.0
 40
0.0
 40
0.0
 40
0.0
 40
0.0
 40
0.5000000000000047
 40
0.5000000000000047
 40
0.7500000000000023
 40
0.7500000000000023
 40
1.0
 40
1.0
 40
1.0
 40
1.0
 10
154.4717173226842
 20
82.55488361812472
 30
0.0
 10
154.5024395646033
 20
82.51758163517167
 30
0.0
 10
154.5452767791384
 20
82.48096980312528
 30
0.0
 10
154.6447038033383
 20
82.43320501984007
 30
0.0
 10
154.6844559981549
 20
82.41824750435771
 30
0.0
 10
154.7824974550132
 20
82.39505755858859
 30
0.0
 10
154.8420535106006
 20
82.38713411936882
 30
0.0
 10
154.9047300245765
 20
82.38713411936882
 30
0.0
  0
ELLIPSE
  5
10B
330
1F
100
AcDbEntity
  8
0
  6
HIDDEN
 62
     7
370
     0
100
AcDbEllipse
 10
170.7241274004
 20
112.4556260782
 30
0.0
 11
14.75368316065609
 21
31.09325491558116
 31
0.0
210
0.0
220
0.0
230
1.0
 40
0.3419987131
 41
2.051689083818818
 42
2.98245045096249
  0
SPLINE
  5
10C
330
1F
100
AcDbEntity
  8
0
  6
HIDDEN
 62
     7
370
     0
100
AcDbSpline
210
0.0
220
0.0
230
1.0
 70
     8
 71
     3
 72
    12
 73
     8
 74
     0
 42
0.00000001
 43
0.00000001
 12
1.0
 22
0.0
 32
0.0
 13
1.0
 23
0.0
 33
0.0
 40
0.0
 40
0.0
 40
0.0
 40
0.0
 40
0.2500000000000001
 40
0.2500000000000001
 40
0.5000000000000001
 40
0.5000000000000001
 40
1.0
 40
1.0
 40
1.0
 40
1.0
 10
154.9047300245765
 20
142.5241180371152
 30
0.0
 10
154.8416499860831
 20
142.5241180371152
 30
0.0
 10
154.7825013639016
 20
142.5162121109027
 30
0.0
 10
154.6840288138326
 20
142.4928869494665
 30
0.0
 10
154.6449922018479
 20
142.4781741596348
 30
0.0
 10
154.5450957350689
 20
142.4302183589039
 30
0.0
 10
154.5026748540022
 20
142.3939562023238
 30
0.0
 10
154.4717173226842
 20
142.3563685383593
 30
0.0
  0
LINE
  5
10D
330
1F
100
AcDbEntity
  8
0
  6
HIDDEN
 62
     7
370
     0
100
AcDbLine
 10
157.8492163974
 20
142.5241180371
 30
0.0
 11
154.9047300246
 21
142.5241180371
 31
0.0
  0
SPLINE
  5
10E
330
1F
100
AcDbEntity
  8
0
  6
HIDDEN
 62
     7
370
     0
100
AcDbSpline
210
0.0
220
0.0
230
1.0
 70
     8
 71
     3
 72
    12
 73
     8
 74
     0
 42
0.00000001
 43
0.00000001
 12
1.0
 22
0.0
 32
0.0
 13
1.0
 23
0.0
 33
0.0
 40
0.0
 40
0.0
 40
0.0
 40
0.0
 40
0.4999999999999981
 40
0.4999999999999981
 40
0.749999999999999
 40
0.749999999999999
 40
1.0
 40
1.0
 40
1.0
 40
1.0
 10
158.2822290993358
 20
142.3563685383593
 30
0.0
 10
158.2515068574167
 20
142.3936705213123
 30
0.0
 10
158.2086696428815
 20
142.4302823533587
 30
0.0
 10
158.1092426186817
 20
142.4780471366439
 30
0.0
 10
158.0694904238651
 20
142.4930046521263
 30
0.0
 10
157.9714489670068
 20
142.5161945978954
 30
0.0
 10
157.9118929114194
 20
142.5241180371152
 30
0.0
 10
157.8492163974435
 20
142.5241180371152
 30
0.0
  0
ELLIPSE
  5
10F
330
1F
100
AcDbEntity
  8
0
  6
HIDDEN
 62
     7
370
     0
100
AcDbEllipse
 10
142.0298190216
 20
112.4556260782
 30
0.0
 11
14.75368316065624
 21
31.09325491558117
 31
0.0
210
0.0
220
0.0
230
1.0
 40
0.3419987131
 41
5.193281737408639
 42
6.124043104552344
  0
SPLINE
  5
110
330
1F
100
AcDbEntity
  8
0
  6
HIDDEN
 62
     7
370
     0
100
AcDbSpline
210
0.0
220
0.0
230
1.0
 70
     8
 71
     3
 72
    12
 73
     8
 74
     0
 42
0.00000001
 43
0.00000001
 12
1.0
 22
0.0
 32
0.0
 13
1.0
 23
0.0
 33
0.0
 40
0.0
 40
0.0
 40
0.0
 40
0.0
 40
0.2499999999999991
 40
0.2499999999999991
 40
0.4999999999999982
 40
0.4999999999999982
 40
1.0
 40
1.0
 40
1.0
 40
1.0
 10
157.8492163974435
 20
121.8436925095784
 30
0.0
 10
157.9122964359369
 20
121.8436925095784
 30
0.0
 10
157.9714450581183
 20
121.8690568287934
 30
0.0
 10
158.0699176081874
 20
121.9432216891663
 30
0.0
 10
158.1089542201721
 20
121.9897420297204
 30
0.0
 10
158.2088506869512
 20
122.1398843725656
 30
0.0
 10
158.2512715680178
 20
122.2515775795378
 30
0.0
 10
158.2822290993358
 20
122.3649953989275
 30
0.0
  0
LINE
  5
111
330
1F
100
AcDbEntity
  8
0
  6
HIDDEN
 62
     7
370
     0
100
AcDbLine
 10
154.9047300246
 20
121.8436925096
 30
0.0
 11
157.8492163974
 21
121.8436925096
 31
0.0
  0
SPLINE
  5
112
330
1F
100
AcDbEntity
  8
0
  6
HIDDEN
 62
     7
370
     0
100
AcDbSpline
210
0.0
220
0.0
230
1.0
 70
     8
 71
     3
 72
    12
 73
     8
 74
     0
 42
0.00000001
 43
0.00000001
 12
1.0
 22
0.0
 32
0.0
 13
1.0
 23
0.0
 33
0.0
 40
0.0
 40
0.0
 40
0.0
 40
0.0
 40
0.5000000000000047
 40
0.5000000000000047
 40
0.7500000000000023
 40
0.7500000000000023
 40
1.0
 40
1.0
 40
1.0
 40
1.0
 10
154.4717173226842
 20
122.3649953989275
 30
0.0
 10
154.5024395646033
 20
122.2524395995184
 30
0.0
 10
154.5452767791384
 20
122.1396817397788
 30
0.0
 10
154.6447038033382
 20
121.9901408539824
 30
0.0
 10
154.6844559981549
 20
121.9428481222756
 30
0.0
 10
154.7824974550131
 20
121.8691118289541
 30
0.0
 10
154.8420535106006
 20
121.8436925095784
 30
0.0
 10
154.9047300245765
 20
121.8436925095784
 30
0.0
  0
ELLIPSE
  5
113
330
1F
100
AcDbEntity
  8
0
  6
HIDDEN
 62
     7
370
     0
100
AcDbEllipse
 10
170.7241274004
 20
112.4556260782
 30
0.0
 11
-14.75368316065624
 21
31.09325491558117
 31
0.0
210
0.0
220
0.0
230
1.0
 40
0.3419987131
 41
0.1591422026272834
 42
1.089903569770962
  0
LINE
  5
114
330
1F
100
AcDbEntity
  8
0
  6
HIDDEN
 62
     7
370
     0
100
AcDbLine
 10
144.376973211
 20
143.4556260665
 30
0.0
 11
144.376973211
 21
81.4556260782
 31
0.0
  0
LINE
  5
115
330
1F
100
AcDbEntity
  8
0
  6
HIDDEN
 62
     7
370
     0
100
AcDbLine
 10
144.376973211
 20
88.2056260782
 30
0.0
 11
144.376973211
 21
136.6818908214
 31
0.0
  0
SPLINE
  5
116
330
1F
100
AcDbEntity
  8
0
  6
HIDDEN
 62
     7
370
     0
100
AcDbSpline
210
0.0
220
0.0
230
1.0
 70
     8
 71
     3
 72
    12
 73
     8
 74
     0
 42
0.00000001
 43
0.00000001
 12
1.0
 22
0.0
 32
0.0
 13
1.0
 23
0.0
 33
0.0
 40
0.0
 40
0.0
 40
0.0
 40
0.0
 40
0.4999999999999993
 40
0.4999999999999993
 40
0.7499999999999997
 40
0.7499999999999997
 40
1.0
 40
1.0
 40
1.0
 40
1.0
 10
143.560460924563
 20
127.9078940600728
 30
0.0
 10
143.6168671032432
 20
127.860071686413
 30
0.0
 10
143.687030004715
 20
127.8198008394744
 30
0.0
 10
143.8050407181042
 20
127.8117549709975
 30
0.0
 10
143.8452465016997
 20
127.8183175693363
 30
0.0
 10
143.9189671984327
 20
127.84569966379
 30
0.0
 10
143.9518279202192
 20
127.8654611543203
 30
0.0
 10
143.9819963221485
 20
127.8883938655083
 30
0.0
  0
SPLINE
  5
117
330
1F
100
AcDbEntity
  8
0
  6
HIDDEN
 62
     7
370
     0
100
AcDbSpline
210
0.0
220
0.0
230
1.0
 70
     8
 71
     3
 72
    16
 73
    12
 74
     0
 42
0.00000001
 43
0.00000001
 12
1.0
 22
0.0
 32
0.0
 13
1.0
 23
0.0
 33
0.0
 40
0.0
 40
0.0
 40
0.0
 40
0.0
 40
0.0624999999999996
 40
0.0624999999999996
 40
0.1249999999999992
 40
0.1249999999999992
 40
0.2499999999999987
 40
0.2499999999999987
 40
0.4999999999999973
 40
0.4999999999999973
 40
1.0
 40
1.0
 40
1.0
 40
1.0
 10
143.9819963221034
 20
127.8883938655565
 30
0.0
 10
143.9936092219427
 20
127.8972214885379
 30
0.0
 10
144.0069604063752
 20
127.9050558704198
 30
0.0
 10
144.0363602459944
 20
127.9133659964921
 30
0.0
 10
144.0512009705496
 20
127.9128701772571
 30
0.0
 10
144.0870341785183
 20
127.9014192062878
 30
0.0
 10
144.1011473863398
 20
127.8847387054291
 30
0.0
 10
144.1356387575588
 20
127.8326180196721
 30
0.0
 10
144.1467228286691
 20
127.7928285256471
 30
0.0
 10
144.1728456464651
 20
127.6694918935499
 30
0.0
 10
144.17697321101
 20
127.5820704830513
 30
0.0
 10
144.17697321101
 20
127.4933332407331
 30
0.0
  0
LINE
  5
118
330
1F
100
AcDbEntity
  8
0
  6
HIDDEN
 62
     7
370
     0
100
AcDbLine
 10
144.176973211
 20
97.4179189158
 30
0.0
 11
144.176973211
 21
127.4933332407
 31
0.0
  0
SPLINE
  5
119
330
1F
100
AcDbEntity
  8
0
  6
HIDDEN
 62
     7
370
     0
100
AcDbSpline
210
0.0
220
0.0
230
1.0
 70
     8
 71
     3
 72
    16
 73
    12
 74
     0
 42
0.00000001
 43
0.00000001
 12
1.0
 22
0.0
 32
0.0
 13
1.0
 23
0.0
 33
0.0
 40
0.0
 40
0.0
 40
0.0
 40
0.0
 40
0.4999999999999896
 40
0.4999999999999896
 40
0.7499999999999868
 40
0.7499999999999868
 40
0.8749999999999926
 40
0.8749999999999926
 40
0.9374999999999963
 40
0.9374999999999963
 40
1.0
 40
1.0
 40
1.0
 40
1.0
 10
144.17697321101
 20
97.41791891575077
 30
0.0
 10
144.17697321101
 20
97.32879255056203
 30
0.0
 10
144.1728269359321
 20
97.2419311829486
 30
0.0
 10
144.1468613405385
 20
97.11894893645456
 30
0.0
 10
144.1354004351611
 20
97.07817764122329
 30
0.0
 10
144.1010886973867
 20
97.02647332122352
 30
0.0
 10
144.0870639614571
 20
97.0098029546331
 30
0.0
 10
144.0510409984233
 20
96.99835073417637
 30
0.0
 10
144.0362864893336
 20
96.99789768790136
 30
0.0
 10
144.0069343281868
 20
97.00621300911752
 30
0.0
 10
143.9935944536827
 20
97.01404189419581
 30
0.0
 10
143.9819963221343
 20
97.02285829095844
 30
0.0
  0
SPLINE
  5
11A
330
1F
100
AcDbEntity
  8
0
  6
HIDDEN
 62
     7
370
     0
100
AcDbSpline
210
0.0
220
0.0
230
1.0
 70
     8
 71
     3
 72
    12
 73
     8
 74
     0
 42
0.00000001
 43
0.00000001
 12
1.0
 22
0.0
 32
0.0
 13
1.0
 23
0.0
 33
0.0
 40
0.0
 40
0.0
 40
0.0
 40
0.0
 40
0.2499999999999999
 40
0.2499999999999999
 40
0.4999999999999994
 40
0.4999999999999994
 40
1.0
 40
1.0
 40
1.0
 40
1.0
 10
143.9819963221414
 20
97.02285829096732
 30
0.0
 10
143.9518044804242
 20
97.04580882006515
 30
0.0
 10
143.9184455110096
 20
97.06577829408933
 30
0.0
 10
143.845308226429
 20
97.09287942771483
 30
0.0
 10
143.805066353775
 20
97.09948016836024
 30
0.0
 10
143.6873605768065
 20
97.09151129385353
 30
0.0
 10
143.6169500990272
 20
97.05125083568568
 30
0.0
 10
143.5604609245588
 20
97.00335809640754
 30
0.0
  0
SPLINE
  5
11B
330
1F
100
AcDbEntity
  8
0
  6
HIDDEN
 62
     7
370
     0
100
AcDbSpline
210
0.0
220
0.0
230
1.0
 70
     8
 71
     3
 72
    12
 73
     8
 74
     0
 42
0.00000001
 43
0.00000001
 12
1.0
 22
0.0
 32
0.0
 13
1.0
 23
0.0
 33
0.0
 40
0.0
 40
0.0
 40
0.0
 40
0.0
 40
0.2499999999999978
 40
0.2499999999999978
 40
0.4999999999999954
 40
0.4999999999999954
 40
1.0
 40
1.0
 40
1.0
 40
1.0
 10
143.5604609245584
 20
97.00335809640774
 30
0.0
 10
143.4723069868207
 20
96.92861928855365
 30
0.0
 10
143.411953562192
 20
96.83763878807126
 30
0.0
 10
143.3056916041251
 20
96.64872496531866
 30
0.0
 10
143.2634594375631
 20
96.55222050577808
 30
0.0
 10
143.1523887422459
 20
96.26145275161092
 30
0.0
 10
143.0994519658191
 20
96.06578593706719
 30
0.0
 10
143.0556528674503
 20
95.87171945200086
 30
0.0
  0
SPLINE
  5
11C
330
1F
100
AcDbEntity
  8
0
  6
HIDDEN
 62
     7
370
     0
100
AcDbSpline
210
0.0
220
0.0
230
1.0
 70
     8
 71
     3
 72
    12
 73
     8
 74
     0
 42
0.00000001
 43
0.00000001
 12
1.0
 22
0.0
 32
0.0
 13
1.0
 23
0.0
 33
0.0
 40
0.0
 40
0.0
 40
0.0
 40
0.0
 40
0.5000000000000009
 40
0.5000000000000009
 40
0.7500000000000004
 40
0.7500000000000004
 40
1.0
 40
1.0
 40
1.0
 40
1.0
 10
143.0556528674503
 20
90.68554512323982
 30
0.0
 10
143.0993994082869
 20
90.65895095259864
 30
0.0
 10
143.1522837635184
 20
90.6391907272729
 30
0.0
 10
143.2638508508546
 20
90.61873973704385
 30
0.0
 10
143.3064344473975
 20
90.6134795123874
 30
0.0
 10
143.4113511744794
 20
90.60559671846474
 30
0.0
 10
143.4728847823241
 20
90.60303259328559
 30
0.0
 10
143.5604609245503
 20
90.60083237576593
 30
0.0
  0
LINE
  5
11D
330
1F
100
AcDbEntity
  8
0
  6
HIDDEN
 62
     7
370
     0
100
AcDbLine
 10
144.176973211
 20
89.9158057994
 30
0.0
 11
144.176973211
 21
90.39603159
 31
0.0
  0
LINE
  5
11E
330
1F
100
AcDbEntity
  8
0
  6
HIDDEN
 62
     7
370
     0
100
AcDbLine
 10
144.176973211
 20
134.5152205665
 30
0.0
 11
144.176973211
 21
134.9954463571
 31
0.0
  0
SPLINE
  5
11F
330
1F
100
AcDbEntity
  8
0
  6
HIDDEN
 62
     7
370
     0
100
AcDbSpline
210
0.0
220
0.0
230
1.0
 70
     8
 71
     3
 72
    12
 73
     8
 74
     0
 42
0.00000001
 43
0.00000001
 12
1.0
 22
0.0
 32
0.0
 13
1.0
 23
0.0
 33
0.0
 40
0.0
 40
0.0
 40
0.0
 40
0.0
 40
0.2499999999999999
 40
0.2499999999999999
 40
0.4999999999999999
 40
0.4999999999999999
 40
1.0
 40
1.0
 40
1.0
 40
1.0
 10
143.5604609245583
 20
134.3104197807178
 30
0.0
 10
143.4717762647019
 20
134.3081917133768
 30
0.0
 10
143.4118578489785
 20
134.3056899293465
 30
0.0
 10
143.3061986216578
 20
134.2977584935105
 30
0.0
 10
143.2635573835428
 20
134.2924663386137
 30
0.0
 10
143.1523680414403
 20
134.2720613981265
 30
0.0
 10
143.0994413593193
 20
134.2523267065396
 30
0.0
 10
143.0556528674503
 20
134.225707033244
 30
0.0
  0
SPLINE
  5
120
330
1F
100
AcDbEntity
  8
0
  6
HIDDEN
 62
     7
370
     0
100
AcDbSpline
210
0.0
220
0.0
230
1.0
 70
     8
 71
     3
 72
    12
 73
     8
 74
     0
 42
0.00000001
 43
0.00000001
 12
1.0
 22
0.0
 32
0.0
 13
1.0
 23
0.0
 33
0.0
 40
0.0
 40
0.0
 40
0.0
 40
0.0
 40
0.4999999999999971
 40
0.4999999999999971
 40
0.7499999999999986
 40
0.7499999999999986
 40
1.0
 40
1.0
 40
1.0
 40
1.0
 10
143.0556528674488
 20
129.0395327044832
 30
0.0
 10
143.0994143437475
 20
128.8456329165211
 30
0.0
 10
143.1523206594005
 20
128.6497765525842
 30
0.0
 10
143.2640318570479
 20
128.3576344060853
 30
0.0
 10
143.3065513006343
 20
128.2609164693874
 30
0.0
 10
143.4116746432017
 20
128.0741920329629
 30
0.0
 10
143.4732406069194
 20
127.9818413246932
 30
0.0
 10
143.5604609245621
 20
127.9078940600735
 30
0.0
  0
LINE
  5
121
330
1F
100
AcDbEntity
  8
0
  6
HIDDEN
 62
     7
370
     0
100
AcDbLine
 10
144.176973211
 20
90.39603159
 30
0.0
 11
144.176973211
 21
105.4337387525
 31
0.0
  0
LINE
  5
122
330
1F
100
AcDbEntity
  8
0
  6
HIDDEN
 62
     7
370
     0
100
AcDbLine
 10
144.176973211
 20
119.477513404
 30
0.0
 11
144.176973211
 21
134.5152205665
 31
0.0
  0
LINE
  5
123
330
1F
100
AcDbEntity
  8
0
  6
HIDDEN
 62
     7
370
     0
100
AcDbLine
 10
166.376973211
 20
92.4556260782
 30
0.0
 11
166.376973211
 21
132.4322706149
 31
0.0
  0
CIRCLE
  5
124
330
1F
100
AcDbEntity
  8
0
  6
HIDDEN
 62
     7
370
     0
100
AcDbCircle
 10
128.876973211
 20
112.4556260782
 30
0.0
 40
4.049999999999997
  0
LINE
  5
125
330
1F
100
AcDbEntity
  8
0
  6
HIDDEN
 62
     7
370
     0
100
AcDbLine
 10
107.9072016507
 20
127.7685771212
 30
0.0
 11
107.9072016507
 21
97.1426750353
 31
0.0
  0
LINE
  5
126
330
1F
100
AcDbEntity
  8
0
  6
HIDDEN
 62
     7
370
     0
100
AcDbLine
 10
106.376973211
 20
96.2591972338
 30
0.0
 11
106.376973211
 21
128.6520549227
 31
0.0
  0
SPLINE
  5
127
330
1F
100
AcDbEntity
  8
0
  6
HIDDEN
 62
     7
370
     0
100
AcDbSpline
210
0.0
220
0.0
230
1.0
 70
     8
 71
     3
 72
    66
 73
    62
 74
     0
 42
0.00000001
 43
0.00000001
 12
1.0
 22
0.0
 32
0.0
 13
1.0
 23
0.0
 33
0.0
 40
-0.0312499999999999
 40
-0.0312499999999999
 40
0.0
 40
0.0
 40
0.0312500000000002
 40
0.0312500000000002
 40
0.0625000000000004
 40
0.0625000000000004
 40
0.0937500000000006
 40
0.0937500000000006
 40
0.1250000000000007
 40
0.1250000000000007
 40
0.1562500000000009
 40
0.1562500000000009
 40
0.1875000000000011
 40
0.1875000000000011
 40
0.2187500000000013
 40
0.2187500000000013
 40
0.2500000000000015
 40
0.2500000000000015
 40
0.2812500000000017
 40
0.2812500000000017
 40
0.3125000000000019
 40
0.3125000000000019
 40
0.3437500000000021
 40
0.3437500000000021
 40
0.3750000000000022
 40
0.3750000000000022
 40
0.4062500000000024
 40
0.4062500000000024
 40
0.4375000000000026
 40
0.4375000000000026
 40
0.4687500000000028
 40
0.4687500000000028
 40
0.500000000000003
 40
0.500000000000003
 40
0.5625000000000007
 40
0.5625000000000007
 40
0.5937500000000008
 40
0.5937500000000008
 40
0.6250000000000009
 40
0.6250000000000009
 40
0.6562500000000008
 40
0.6562500000000008
 40
0.6875000000000008
 40
0.6875000000000008
 40
0.7187500000000008
 40
0.7187500000000008
 40
0.7500000000000007
 40
0.7500000000000007
 40
0.7812500000000007
 40
0.7812500000000007
 40
0.8125000000000007
 40
0.8125000000000007
 40
0.8437500000000007
 40
0.8437500000000007
 40
0.8750000000000006
 40
0.8750000000000006
 40
0.9375000000000003
 40
0.9375000000000003
 40
0.9687500000000001
 40
0.9687500000000001
 40
1.0
 40
1.0
 40
1.03125
 40
1.03125
 10
227.2115394632887
 20
105.1944407027817
 30
0.0
 10
227.5424069587313
 20
105.1944407027817
 30
0.0
 10
227.7050247064587
 20
105.2091012890683
 30
0.0
 10
228.0248745651938
 20
105.2665913418985
 30
0.0
 10
228.1837830570504
 20
105.3101367080197
 30
0.0
 10
228.486406106376
 20
105.4238993116381
 30
0.0
 10
228.6298961599018
 20
105.4935936451683
 30
0.0
 10
228.901456135252
 20
105.6587776661515
 30
0.0
 10
229.0298336918117
 20
105.7550187721724
 30
0.0
 10
229.2600408083096
 20
105.966098587924
 30
0.0
 10
229.3634354522216
 20
106.0817041654192
 30
0.0
 10
229.5462054193373
 20
106.334153704843
 30
0.0
 10
229.6237136435128
 20
106.4688178185892
 30
0.0
 10
229.7484812173135
 20
106.7492309320887
 30
0.0
 10
229.7966169970415
 20
106.8970611849962
 30
0.0
 10
229.8609386319337
 20
107.2010325655249
 30
0.0
 10
229.8768799127729
 20
107.3546821531069
 30
0.0
 10
229.8770657004336
 20
107.6653214513525
 30
0.0
 10
229.8607776886466
 20
107.8239201553508
 30
0.0
 10
229.7968937942175
 20
108.1320647903957
 30
0.0
 10
229.7496293614495
 20
108.2826095166995
 30
0.0
 10
229.6242212506244
 20
108.5763739575993
 30
0.0
 10
229.5460544478647
 20
108.7186394765905
 30
0.0
 10
229.3652468143487
 20
108.983280914717
 30
0.0
 10
229.2617103370229
 20
109.1075363431444
 30
0.0
 10
229.0288771305828
 20
109.3371134354395
 30
0.0
 10
228.9029067957903
 20
109.439256944914
 30
0.0
 10
228.6324515803475
 20
109.6187698985392
 30
0.0
 10
228.4861903279627
 20
109.6967703757091
 30
0.0
 10
228.1837482371649
 20
109.8217575639556
 30
0.0
 10
228.0279287565413
 20
109.8690852710232
 30
0.0
 10
227.707077995341
 20
109.9332217812628
 30
0.0
 10
227.5412172397462
 20
109.9496598354346
 30
0.0
 10
227.0513912063062
 20
109.9498496189269
 30
0.0
 10
226.7219489502796
 20
109.884166948884
 30
0.0
 10
226.2704910367429
 20
109.6980506726014
 30
0.0
 10
226.1247716584038
 20
109.6207487776674
 30
0.0
 10
225.8519486235216
 20
109.4400533870447
 30
0.0
 10
225.7262034019765
 20
109.3379491259802
 30
0.0
 10
225.4955374532481
 20
109.1110687174477
 30
0.0
 10
225.3899667463454
 20
108.9849363034166
 30
0.0
 10
225.2085813587443
 20
108.7198456394717
 30
0.0
 10
225.1316359588951
 20
108.580142887471
 30
0.0
 10
225.0056761926221
 20
108.2864821115868
 30
0.0
 10
224.957464075837
 20
108.133406100868
 30
0.0
 10
224.8935451271777
 20
107.8263711117759
 30
0.0
 10
224.8771112398284
 20
107.6704724275656
 30
0.0
 10
224.8768369052214
 20
107.356183769897
 30
0.0
 10
224.8929205111516
 20
107.2023573762284
 30
0.0
 10
224.9563063975046
 20
106.9009992611689
 30
0.0
 10
225.0044324196983
 20
106.7518987131675
 30
0.0
 10
225.129638184668
 20
106.4698120167619
 30
0.0
 10
225.206298895426
 20
106.3365805977242
 30
0.0
 10
225.3876452941126
 20
106.0852375628297
 30
0.0
 10
225.4928823217537
 20
105.9671769092957
 30
0.0
 10
225.8378268775162
 20
105.6504748102123
 30
0.0
 10
226.1162224047753
 20
105.4810652676569
 30
0.0
 10
226.5671387486511
 20
105.3111340169359
 30
0.0
 10
226.7250869299508
 20
105.2674580793645
 30
0.0
 10
227.0480875101678
 20
105.2091029743876
 30
0.0
 10
227.2115394632887
 20
105.1944407027817
 30
0.0
 10
227.5424069587313
 20
105.1944407027817
 30
0.0
  0
LINE
  5
128
330
1F
100
AcDbEntity
  8
0
  6
HIDDEN
 62
     7
370
     0
100
AcDbLine
 10
114.4072016507
 20
126.8020362398
 30
0.0
 11
114.4072016507
 21
98.1092159167
 31
0.0
  0
LINE
  5
129
330
1F
100
AcDbEntity
  8
0
  6
HIDDEN
 62
     7
370
     0
100
AcDbLine
 10
120.2072016507
 20
126.4556260782
 30
0.0
 11
120.2072016507
 21
98.4556260782
 31
0.0
  0
LINE
  5
12A
330
1F
100
AcDbEntity
  8
0
  6
HIDDEN
 62
     7
370
     0
100
AcDbLine
 10
112.8072016507
 20
126.4556260782
 30
0.0
 11
112.8072016507
 21
98.4556260782
 31
0.0
  0
LINE
  5
12B
330
1F
100
AcDbEntity
  8
0
  6
HIDDEN
 62
     7
370
     0
100
AcDbLine
 10
113.8072016507
 20
126.4556260782
 30
0.0
 11
113.8072016507
 21
98.4556260782
 31
0.0
  0
SPLINE
  5
12C
330
1F
100
AcDbEntity
  8
0
  6
HIDDEN
 62
     7
370
     0
100
AcDbSpline
210
0.0
220
0.0
230
1.0
 70
     8
 71
     3
 72
    10
 73
     6
 74
     0
 42
0.00000001
 43
0.00000001
 12
1.0
 22
0.0
 32
0.0
 13
1.0
 23
0.0
 33
0.0
 40
0.0
 40
0.0
 40
0.0
 40
0.0
 40
0.5
 40
0.5
 40
1.0
 40
1.0
 40
1.0
 40
1.0
 10
132.87697321101
 20
113.0900549552644
 30
0.0
 10
132.9101206290864
 20
112.8810643542564
 30
0.0
 10
132.9269794744481
 20
112.6695018882348
 30
0.0
 10
132.9269669441004
 20
112.2415131222672
 30
0.0
 10
132.91005198636
 20
112.0297550178515
 30
0.0
 10
132.87697321101
 20
111.8211972012194
 30
0.0
  0
LINE
  5
12D
330
1F
100
AcDbEntity
  8
0
  6
HIDDEN
 62
     7
370
     0
100
AcDbLine
 10
133.376973211
 20
125.9556260525
 30
0.0
 11
133.376973211
 21
98.9556260782
 31
0.0
  0
SPLINE
  5
12E
330
1F
100
AcDbEntity
  8
0
  6
HIDDEN
 62
     7
370
     0
100
AcDbSpline
210
0.0
220
0.0
230
1.0
 70
     8
 71
     3
 72
    10
 73
     6
 74
     0
 42
0.00000001
 43
0.00000001
 12
1.0
 22
0.0
 32
0.0
 13
1.0
 23
0.0
 33
0.0
 40
0.0
 40
0.0
 40
0.0
 40
0.0
 40
0.5
 40
0.5
 40
1.0
 40
1.0
 40
1.0
 40
1.0
 10
132.87697321101
 20
111.8211972012194
 30
0.0
 10
132.9101621734837
 20
112.0304497348019
 30
0.0
 10
132.9268629497384
 20
112.2412664957008
 30
0.0
 10
132.927082390183
 20
112.6657987769041
 30
0.0
 10
132.9102026747896
 20
112.8805470656767
 30
0.0
 10
132.87697321101
 20
113.0900549552644
 30
0.0
  0
SPLINE
  5
12F
330
1F
100
AcDbEntity
  8
0
  6
HIDDEN
 62
     7
370
     0
100
AcDbSpline
210
0.0
220
0.0
230
1.0
 70
     8
 71
     3
 72
    68
 73
    64
 74
     0
 42
0.00000001
 43
0.00000001
 12
1.0
 22
0.0
 32
0.0
 13
1.0
 23
0.0
 33
0.0
 40
0.0
 40
0.0
 40
0.0
 40
0.0
 40
0.0312499999999998
 40
0.0312499999999998
 40
0.0624999999999997
 40
0.0624999999999997
 40
0.0937499999999995
 40
0.0937499999999995
 40
0.1249999999999993
 40
0.1249999999999993
 40
0.1562499999999992
 40
0.1562499999999992
 40
0.187499999999999
 40
0.187499999999999
 40
0.2187499999999988
 40
0.2187499999999988
 40
0.2499999999999986
 40
0.2499999999999986
 40
0.2812499999999986
 40
0.2812499999999986
 40
0.3124999999999986
 40
0.3124999999999986
 40
0.3437499999999987
 40
0.3437499999999987
 40
0.3749999999999987
 40
0.3749999999999987
 40
0.4062499999999987
 40
0.4062499999999987
 40
0.4374999999999987
 40
0.4374999999999987
 40
0.4687499999999988
 40
0.4687499999999988
 40
0.4999999999999989
 40
0.4999999999999989
 40
0.562499999999999
 40
0.562499999999999
 40
0.5937499999999991
 40
0.5937499999999991
 40
0.6249999999999991
 40
0.6249999999999991
 40
0.6562499999999992
 40
0.6562499999999992
 40
0.6874999999999993
 40
0.6874999999999993
 40
0.7187499999999993
 40
0.7187499999999993
 40
0.7499999999999994
 40
0.7499999999999994
 40
0.7812499999999996
 40
0.7812499999999996
 40
0.8124999999999996
 40
0.8124999999999996
 40
0.8437499999999997
 40
0.8437499999999997
 40
0.8749999999999997
 40
0.8749999999999997
 40
0.9062499999999998
 40
0.9062499999999998
 40
0.9374999999999999
 40
0.9374999999999999
 40
0.9687499999999999
 40
0.9687499999999999
 40
1.0
 40
1.0
 40
1.0
 40
1.0
 10
132.87697321101
 20
111.8211972012194
 30
0.0
 10
132.8369582586603
 20
111.5689075984039
 30
0.0
 10
132.774016457249
 20
111.324908748028
 30
0.0
 10
132.6046297951769
 20
110.8524903589655
 30
0.0
 10
132.4969362325915
 20
110.6220769728056
 30
0.0
 10
132.2416514640536
 20
110.1873723770085
 30
0.0
 10
132.0956122335814
 20
109.9847304103572
 30
0.0
 10
131.7673907970221
 20
109.6077411195993
 30
0.0
 10
131.5831435092471
 20
109.432083166022
 30
0.0
 10
131.1901833419388
 20
109.1218251970757
 30
0.0
 10
130.9808887449796
 20
108.9858799894258
 30
0.0
 10
130.5360033180423
 20
108.75248989402
 30
0.0
 10
130.2992057255433
 20
108.6552432876056
 30
0.0
 10
129.818470656624
 20
108.5085718297342
 30
0.0
 10
129.5722275634412
 20
108.4576794847918
 30
0.0
 10
129.0675107834618
 20
108.4021521345563
 30
0.0
 10
128.8113160825253
 20
108.3983272474863
 30
0.0
 10
128.3089373333252
 20
108.4377510301308
 30
0.0
 10
128.0596876341416
 20
108.480778479342
 30
0.0
 10
127.5681598366629
 20
108.6144834487933
 30
0.0
 10
127.332864235437
 20
108.7031532946985
 30
0.0
 10
126.8819503407749
 20
108.9221846584759
 30
0.0
 10
126.6643379903115
 20
109.0541862241595
 30
0.0
 10
126.2611308207632
 20
109.3535435051623
 30
0.0
 10
126.0755193283288
 20
109.5201624326002
 30
0.0
 10
125.7355312579263
 20
109.8872738580277
 30
0.0
 10
125.5804583271033
 20
110.0895776035684
 30
0.0
 10
125.31411525044
 20
110.5136582831624
 30
0.0
 10
125.2011311497232
 20
110.7368178886286
 30
0.0
 10
125.0162758927924
 20
111.2061731302228
 30
0.0
 10
124.9451351312889
 20
111.4523836335583
 30
0.0
 10
124.8511747200008
 20
111.9469094599295
 30
0.0
 10
124.8271653900444
 20
112.1978404550215
 30
0.0
 10
124.8265922693718
 20
112.9620858345777
 30
0.0
 10
124.9219913806904
 20
113.4643101366287
 30
0.0
 10
125.1998551728916
 20
114.171874642901
 30
0.0
 10
125.3130171289721
 20
114.3955809066419
 30
0.0
 10
125.579148311016
 20
114.8198508179624
 30
0.0
 10
125.7339760852157
 20
115.0221027800185
 30
0.0
 10
126.0741571910035
 20
115.3898135213867
 30
0.0
 10
126.2596596479533
 20
115.556430396636
 30
0.0
 10
126.6619534490126
 20
115.8554797754314
 30
0.0
 10
126.8799614972646
 20
115.9879364834598
 30
0.0
 10
127.3305598644149
 20
116.2071428841645
 30
0.0
 10
127.5651088632956
 20
116.2956280141681
 30
0.0
 10
128.053568856848
 20
116.4291142441068
 30
0.0
 10
128.3058342525619
 20
116.4730559566006
 30
0.0
 10
128.8080148907221
 20
116.512864953074
 30
0.0
 10
129.0604970080738
 20
116.5095207402605
 30
0.0
 10
129.5683620511433
 20
116.45434142027
 30
0.0
 10
129.8159075243271
 20
116.4032954918006
 30
0.0
 10
130.2968750617978
 20
116.256885103565
 30
0.0
 10
130.5328349269031
 20
116.1602388987914
 30
0.0
 10
130.9794053764247
 20
115.9263339544784
 30
0.0
 10
131.1890502389982
 20
115.7902089406519
 30
0.0
 10
131.5820369457526
 20
115.4801546763228
 30
0.0
 10
131.7664328495676
 20
115.3044974287476
 30
0.0
 10
132.094983267428
 20
114.9273575060832
 30
0.0
 10
132.2409253639512
 20
114.7248913008134
 30
0.0
 10
132.4958107191533
 20
114.29131500268
 30
0.0
 10
132.6041220319617
 20
114.0600231590985
 30
0.0
 10
132.7739570093786
 20
113.5866634789652
 30
0.0
 10
132.8369523705157
 20
113.3423816821445
 30
0.0
 10
132.87697321101
 20
113.0900549552644
 30
0.0
  0
SPLINE
  5
130
330
1F
100
AcDbEntity
  8
0
  6
HIDDEN
 62
     7
370
     0
100
AcDbSpline
210
0.0
220
0.0
230
1.0
 70
     8
 71
     3
 72
    68
 73
    64
 74
     0
 42
0.00000001
 43
0.00000001
 12
1.0
 22
0.0
 32
0.0
 13
1.0
 23
0.0
 33
0.0
 40
0.0
 40
0.0
 40
0.0
 40
0.0
 40
0.0312499999999998
 40
0.0312499999999998
 40
0.0624999999999997
 40
0.0624999999999997
 40
0.0937499999999995
 40
0.0937499999999995
 40
0.1249999999999993
 40
0.1249999999999993
 40
0.1562499999999992
 40
0.1562499999999992
 40
0.187499999999999
 40
0.187499999999999
 40
0.2187499999999988
 40
0.2187499999999988
 40
0.2499999999999987
 40
0.2499999999999987
 40
0.2812499999999987
 40
0.2812499999999987
 40
0.3124999999999988
 40
0.3124999999999988
 40
0.3437499999999988
 40
0.3437499999999988
 40
0.3749999999999989
 40
0.3749999999999989
 40
0.4062499999999989
 40
0.4062499999999989
 40
0.437499999999999
 40
0.437499999999999
 40
0.4687499999999991
 40
0.4687499999999991
 40
0.4999999999999991
 40
0.4999999999999991
 40
0.5624999999999992
 40
0.5624999999999992
 40
0.5937499999999992
 40
0.5937499999999992
 40
0.6249999999999993
 40
0.6249999999999993
 40
0.6562499999999993
 40
0.6562499999999993
 40
0.6874999999999994
 40
0.6874999999999994
 40
0.7187499999999994
 40
0.7187499999999994
 40
0.7499999999999996
 40
0.7499999999999996
 40
0.7812499999999996
 40
0.7812499999999996
 40
0.8124999999999997
 40
0.8124999999999997
 40
0.8437499999999997
 40
0.8437499999999997
 40
0.8749999999999998
 40
0.8749999999999998
 40
0.9062499999999998
 40
0.9062499999999998
 40
0.9374999999999999
 40
0.9374999999999999
 40
0.9687499999999999
 40
0.9687499999999999
 40
1.0
 40
1.0
 40
1.0
 40
1.0
 10
132.87697321101
 20
113.0900549552644
 30
0.0
 10
132.8369582586603
 20
113.34234455808
 30
0.0
 10
132.774016457249
 20
113.5863434084558
 30
0.0
 10
132.6046297951769
 20
114.0587617975183
 30
0.0
 10
132.4969362325915
 20
114.2891751836783
 30
0.0
 10
132.2416514640536
 20
114.7238797794754
 30
0.0
 10
132.0956122335814
 20
114.9265217461267
 30
0.0
 10
131.7673907970221
 20
115.3035110368845
 30
0.0
 10
131.5831435092471
 20
115.4791689904619
 30
0.0
 10
131.1901833419388
 20
115.7894269594081
 30
0.0
 10
130.9808887449797
 20
115.925372167058
 30
0.0
 10
130.5360033180423
 20
116.1587622624639
 30
0.0
 10
130.2992057255433
 20
116.2560088688783
 30
0.0
 10
129.818470656624
 20
116.4026803267497
 30
0.0
 10
129.5722275634412
 20
116.4535726716921
 30
0.0
 10
129.0675107834618
 20
116.5091000219276
 30
0.0
 10
128.8113160825253
 20
116.5129249089975
 30
0.0
 10
128.3089373333252
 20
116.4735011263531
 30
0.0
 10
128.0596876341416
 20
116.4304736771418
 30
0.0
 10
127.5681598366629
 20
116.2967687076906
 30
0.0
 10
127.332864235437
 20
116.2080988617854
 30
0.0
 10
126.8819503407749
 20
115.989067498008
 30
0.0
 10
126.6643379903115
 20
115.8570659323244
 30
0.0
 10
126.2611308207632
 20
115.5577086513215
 30
0.0
 10
126.0755193283288
 20
115.3910897238837
 30
0.0
 10
125.7355312579263
 20
115.0239782984562
 30
0.0
 10
125.5804583271033
 20
114.8216745529155
 30
0.0
 10
125.31411525044
 20
114.3975938733214
 30
0.0
 10
125.2011311497232
 20
114.1744342678552
 30
0.0
 10
125.0162758927924
 20
113.7050790262611
 30
0.0
 10
124.9451351312889
 20
113.4588685229256
 30
0.0
 10
124.8511747200008
 20
112.9643426965544
 30
0.0
 10
124.8271653900444
 20
112.7134117014624
 30
0.0
 10
124.8265922693718
 20
111.9491663219062
 30
0.0
 10
124.9219913806904
 20
111.4469420198552
 30
0.0
 10
125.1998551728916
 20
110.7393775135828
 30
0.0
 10
125.3130171289721
 20
110.515671249842
 30
0.0
 10
125.579148311016
 20
110.0914013385214
 30
0.0
 10
125.7339760852157
 20
109.8891493764654
 30
0.0
 10
126.0741571910035
 20
109.5214386350972
 30
0.0
 10
126.2596596479533
 20
109.3548217598478
 30
0.0
 10
126.6619534490126
 20
109.0557723810524
 30
0.0
 10
126.8799614972646
 20
108.923315673024
 30
0.0
 10
127.3305598644149
 20
108.7041092723193
 30
0.0
 10
127.5651088632956
 20
108.6156241423157
 30
0.0
 10
128.053568856848
 20
108.4821379123771
 30
0.0
 10
128.3058342525619
 20
108.4381961998833
 30
0.0
 10
128.8080148907221
 20
108.3983872034098
 30
0.0
 10
129.0604970080738
 20
108.4017314162233
 30
0.0
 10
129.5683620511433
 20
108.4569107362139
 30
0.0
 10
129.8159075243271
 20
108.5079566646833
 30
0.0
 10
130.2968750617979
 20
108.6543670529189
 30
0.0
 10
130.5328349269031
 20
108.7510132576925
 30
0.0
 10
130.9794053764247
 20
108.9849182020055
 30
0.0
 10
131.1890502389982
 20
109.121043215832
 30
0.0
 10
131.5820369457527
 20
109.4310974801611
 30
0.0
 10
131.7664328495676
 20
109.6067547277362
 30
0.0
 10
132.094983267428
 20
109.9838946504006
 30
0.0
 10
132.2409253639512
 20
110.1863608556705
 30
0.0
 10
132.4958107191533
 20
110.6199371538038
 30
0.0
 10
132.6041220319617
 20
110.8512289973854
 30
0.0
 10
132.7739570093786
 20
111.3245886775186
 30
0.0
 10
132.8369523705157
 20
111.5688704743394
 30
0.0
 10
132.87697321101
 20
111.8211972012194
 30
0.0
  0
SPLINE
  5
131
330
1F
100
AcDbEntity
  8
0
  6
HIDDEN
 62
     7
370
     0
100
AcDbSpline
210
0.0
220
0.0
230
1.0
 70
     8
 71
     3
 72
    62
 73
    58
 74
     0
 42
0.00000001
 43
0.00000001
 12
1.0
 22
0.0
 32
0.0
 13
1.0
 23
0.0
 33
0.0
 40
-0.03125
 40
-0.03125
 40
0.0
 40
0.0
 40
0.031250000000001
 40
0.031250000000001
 40
0.062500000000002
 40
0.062500000000002
 40
0.1250000000000012
 40
0.1250000000000012
 40
0.1875000000000005
 40
0.1875000000000005
 40
0.2187499999999995
 40
0.2187499999999995
 40
0.2499999999999985
 40
0.2499999999999985
 40
0.2812499999999975
 40
0.2812499999999975
 40
0.3124999999999966
 40
0.3124999999999966
 40
0.3437499999999957
 40
0.3437499999999957
 40
0.3749999999999948
 40
0.3749999999999948
 40
0.4374999999999931
 40
0.4374999999999931
 40
0.4687499999999937
 40
0.4687499999999937
 40
0.4999999999999943
 40
0.4999999999999943
 40
0.5312499999999949
 40
0.5312499999999949
 40
0.5624999999999954
 40
0.5624999999999954
 40
0.593749999999996
 40
0.593749999999996
 40
0.6249999999999966
 40
0.6249999999999966
 40
0.6562499999999972
 40
0.6562499999999972
 40
0.6874999999999978
 40
0.6874999999999978
 40
0.7187499999999983
 40
0.7187499999999983
 40
0.7499999999999989
 40
0.7499999999999989
 40
0.7812499999999994
 40
0.7812499999999994
 40
0.8125
 40
0.8125
 40
0.8749999999999999
 40
0.8749999999999999
 40
0.90625
 40
0.90625
 40
0.9375
 40
0.9375
 40
0.96875
 40
0.96875
 40
1.0
 40
1.0
 40
1.031250000000001
 40
1.031250000000001
 10
227.2357749870302
 20
111.600203234857
 30
0.0
 10
227.5181714349899
 20
111.600203234857
 30
0.0
 10
227.6564493120036
 20
111.6161072968748
 30
0.0
 10
227.9276153832115
 20
111.6774591550717
 30
0.0
 10
228.061818710671
 20
111.7237229679036
 30
0.0
 10
228.4408818904612
 20
111.8998206353631
 30
0.0
 10
228.6698888121549
 20
112.069578488368
 30
0.0
 10
229.0509194311578
 20
112.4751008858334
 30
0.0
 10
229.2065425080794
 20
112.7150906778437
 30
0.0
 10
229.365612984648
 20
113.0974272498815
 30
0.0
 10
229.4073401297914
 20
113.2315600373361
 30
0.0
 10
229.4626108309334
 20
113.4987469079259
 30
0.0
 10
229.4766907624232
 20
113.6320478543455
 30
0.0
 10
229.4772473287444
 20
113.8978915610919
 30
0.0
 10
229.4632580513238
 20
114.0301067108037
 30
0.0
 10
229.4087765320881
 20
114.2804146850793
 30
0.0
 10
229.3679260739333
 20
114.4012365971517
 30
0.0
 10
229.2613121070738
 20
114.6285964566798
 30
0.0
 10
229.1965599648008
 20
114.7336121046158
 30
0.0
 10
229.0450014228482
 20
114.9284369295947
 30
0.0
 10
228.9576632996752
 20
115.0183218835365
 30
0.0
 10
228.6718868787136
 20
115.2573571355196
 30
0.0
 10
228.4423505302479
 20
115.381997037033
 30
0.0
 10
228.0660323942535
 20
115.5075667093285
 30
0.0
 10
227.9336994858929
 20
115.5398859005952
 30
0.0
 10
227.6596668269021
 20
115.58348908582
 30
0.0
 10
227.5216416672799
 20
115.5943455629257
 30
0.0
 10
227.2435702860612
 20
115.5949239280161
 30
0.0
 10
227.1018573473908
 20
115.5842254729337
 30
0.0
 10
226.8294350917105
 20
115.5417892121455
 30
0.0
 10
226.6976069472134
 20
115.5103135861274
 30
0.0
 10
226.4422080516089
 20
115.4260395022564
 30
0.0
 10
226.3220420484195
 20
115.3743073123822
 30
0.0
 10
226.0968706358632
 20
115.2520355785933
 30
0.0
 10
225.9907195745288
 20
115.1805489813664
 30
0.0
 10
225.7992722858266
 20
115.0212152946464
 30
0.0
 10
225.7133382719072
 20
114.9332976869596
 30
0.0
 10
225.5609259538671
 20
114.7389087223636
 30
0.0
 10
225.4947424635796
 20
114.6321131150249
 30
0.0
 10
225.3885607650286
 20
114.4075911616848
 30
0.0
 10
225.3475807018127
 20
114.2887979018477
 30
0.0
 10
225.2915005610154
 20
114.0363793007496
 30
0.0
 10
225.2772763855742
 20
113.9054449995475
 30
0.0
 10
225.2766797017026
 20
113.6410195728175
 30
0.0
 10
225.290448269201
 20
113.5048376222269
 30
0.0
 10
225.3452983361431
 20
113.2361518508283
 30
0.0
 10
225.3857948494196
 20
113.1045632927867
 30
0.0
 10
225.5452573205957
 20
112.7182499006469
 30
0.0
 10
225.6999257449099
 20
112.478767831312
 30
0.0
 10
225.9882337762545
 20
112.1713804891413
 30
0.0
 10
226.0922585916024
 20
112.0789177669633
 30
0.0
 10
226.3166778497811
 20
111.9142987908406
 30
0.0
 10
226.4386086376416
 20
111.8415755487991
 30
0.0
 10
226.6910657890676
 20
111.7241391600933
 30
0.0
 10
226.8219523189848
 20
111.6787599390085
 30
0.0
 10
227.0938932366976
 20
111.616621559728
 30
0.0
 10
227.2357749870302
 20
111.600203234857
 30
0.0
 10
227.5181714349899
 20
111.600203234857
 30
0.0
  0
SPLINE
  5
132
330
1F
100
AcDbEntity
  8
0
  6
HIDDEN
 62
     7
370
     0
100
AcDbSpline
210
0.0
220
0.0
230
1.0
 70
     8
 71
     3
 72
    10
 73
     6
 74
     0
 42
0.00000001
 43
0.00000001
 12
1.0
 22
0.0
 32
0.0
 13
1.0
 23
0.0
 33
0.0
 40
0.0
 40
0.0
 40
0.0
 40
0.0
 40
0.5
 40
0.5
 40
1.0
 40
1.0
 40
1.0
 40
1.0
 10
228.4844908319356
 20
113.7645447339334
 30
0.0
 10
228.455224872198
 20
113.8283152398626
 30
0.0
 10
228.4463476735748
 20
113.9043812904421
 30
0.0
 10
228.4823100620828
 20
114.0864677826515
 30
0.0
 10
228.5274756550322
 20
114.1932198365621
 30
0.0
 10
228.588184603802
 20
114.3124448412389
 30
0.0
  0
SPLINE
  5
133
330
1F
100
AcDbEntity
  8
0
  6
HIDDEN
 62
     7
370
     0
100
AcDbSpline
210
0.0
220
0.0
230
1.0
 70
     8
 71
     3
 72
    62
 73
    58
 74
     0
 42
0.00000001
 43
0.00000001
 12
1.0
 22
0.0
 32
0.0
 13
1.0
 23
0.0
 33
0.0
 40
0.0
 40
0.0
 40
0.0
 40
0.0
 40
0.0312499999999991
 40
0.0312499999999991
 40
0.0624999999999983
 40
0.0624999999999983
 40
0.1249999999999982
 40
0.1249999999999982
 40
0.1562499999999984
 40
0.1562499999999984
 40
0.1874999999999986
 40
0.1874999999999986
 40
0.2187499999999989
 40
0.2187499999999989
 40
0.2499999999999991
 40
0.2499999999999991
 40
0.3124999999999982
 40
0.3124999999999982
 40
0.3437499999999977
 40
0.3437499999999977
 40
0.3749999999999972
 40
0.3749999999999972
 40
0.4062499999999968
 40
0.4062499999999968
 40
0.4374999999999963
 40
0.4374999999999963
 40
0.4687499999999958
 40
0.4687499999999958
 40
0.4843749999999957
 40
0.4843749999999957
 40
0.4999999999999954
 40
0.4999999999999954
 40
0.5312499999999952
 40
0.5312499999999952
 40
0.5624999999999951
 40
0.5624999999999951
 40
0.5937499999999949
 40
0.5937499999999949
 40
0.6249999999999947
 40
0.6249999999999947
 40
0.6562499999999947
 40
0.6562499999999947
 40
0.6874999999999946
 40
0.6874999999999946
 40
0.7499999999999944
 40
0.7499999999999944
 40
0.7812499999999951
 40
0.7812499999999951
 40
0.8124999999999957
 40
0.8124999999999957
 40
0.874999999999997
 40
0.874999999999997
 40
0.9374999999999983
 40
0.9374999999999983
 40
0.9687499999999992
 40
0.9687499999999992
 40
1.0
 40
1.0
 40
1.0
 40
1.0
 10
228.5881846038017
 20
114.3124448412377
 30
0.0
 10
228.7026794495593
 20
114.4016240722298
 30
0.0
 10
228.7988289816284
 20
114.5008185821363
 30
0.0
 10
228.9728316395714
 20
114.7132912460595
 30
0.0
 10
229.0505290245511
 20
114.8277911287066
 30
0.0
 10
229.255414797492
 20
115.1855115208781
 30
0.0
 10
229.3562146145564
 20
115.4424669783219
 30
0.0
 10
229.4476457801201
 20
115.8582857768382
 30
0.0
 10
229.4670175383437
 20
115.9985647216411
 30
0.0
 10
229.4810860378791
 20
116.2830003476848
 30
0.0
 10
229.475359698114
 20
116.4285161722649
 30
0.0
 10
229.4357188643617
 20
116.7095078844291
 30
0.0
 10
229.4013751638058
 20
116.8483479806088
 30
0.0
 10
229.304512404458
 20
117.1083620269277
 30
0.0
 10
229.2430730617645
 20
117.2280307944059
 30
0.0
 10
229.0202752642548
 20
117.5558457152657
 30
0.0
 10
228.8271344150021
 20
117.7186152387392
 30
0.0
 10
228.5192200655422
 20
117.8743762029039
 30
0.0
 10
228.4121067568102
 20
117.912639492293
 30
0.0
 10
228.1993728649744
 20
117.963290120606
 30
0.0
 10
228.0934201742916
 20
117.9760919820651
 30
0.0
 10
227.8839896273259
 20
117.9805485771235
 30
0.0
 10
227.7796613021964
 20
117.9719542419035
 30
0.0
 10
227.5822161687551
 20
117.9363718096545
 30
0.0
 10
227.4885437327482
 20
117.9095317403469
 30
0.0
 10
227.3212247654725
 20
117.8407490781714
 30
0.0
 10
227.2452822705801
 20
117.7974694737865
 30
0.0
 10
227.1780708862302
 20
117.7287699635216
 30
0.0
 10
227.1637113956348
 20
117.7050525719074
 30
0.0
 10
227.1569144270919
 20
117.6597553572694
 30
0.0
 10
227.1641641110324
 20
117.6385124189385
 30
0.0
 10
227.2121429552352
 20
117.5775043737043
 30
0.0
 10
227.2759385315888
 20
117.5418518553566
 30
0.0
 10
227.4250318295912
 20
117.4671673460617
 30
0.0
 10
227.5107228873303
 20
117.4283618573377
 30
0.0
 10
227.6905160252431
 20
117.3416045098526
 30
0.0
 10
227.7853562017227
 20
117.2936571685536
 30
0.0
 10
227.9815978257693
 20
117.1842371673075
 30
0.0
 10
228.0833627905777
 20
117.1225415182283
 30
0.0
 10
228.2864252133677
 20
116.9853785673914
 30
0.0
 10
228.3884242290317
 20
116.9096360569627
 30
0.0
 10
228.5922623123017
 20
116.739493855429
 30
0.0
 10
228.6937052967877
 20
116.6451814137779
 30
0.0
 10
228.9819831901209
 20
116.339664298646
 30
0.0
 10
229.1586695654784
 20
116.0963764529089
 30
0.0
 10
229.3413441991785
 20
115.7190841440607
 30
0.0
 10
229.3882038758487
 20
115.5936430213271
 30
0.0
 10
229.4537397777336
 20
115.3453866270037
 30
0.0
 10
229.4712613499915
 20
115.227452258342
 30
0.0
 10
229.4848668149993
 20
114.8885266133206
 30
0.0
 10
229.4419326428919
 20
114.6936832004009
 30
0.0
 10
229.2862866904434
 20
114.358119479978
 30
0.0
 10
229.1765441605556
 20
114.2206812570512
 30
0.0
 10
228.9620788399885
 20
114.0380654416981
 30
0.0
 10
228.8830049852893
 20
113.9821227965099
 30
0.0
 10
228.7037694313404
 20
113.8737892833039
 30
0.0
 10
228.602475180096
 20
113.8208727714442
 30
0.0
 10
228.4844908319352
 20
113.7645447339337
 30
0.0
  0
LWPOLYLINE
  5
134
330
1F
100
AcDbEntity
  8
0
  6
HIDDEN
 62
     7
370
     0
100
AcDbPolyline
 90
       22
 70
   128
 43
0.0
 10
227.376973211
 20
114.4756283209
 10
227.9959590773
 20
114.5643591433
 10
228.5599453329
 20
114.8226674874
 10
229.0188193242
 20
115.2276015234
 10
229.3318080832
 20
115.7431810851
 10
229.4711011851
 20
116.3235946659
 10
229.4243218266
 20
116.917269972
 10
229.195626559
 20
117.4714563472
 10
228.8053359603
 20
117.9369119
 10
228.2881290632
 20
118.272278862
 10
227.68996197
 20
118.4477584068
 10
227.063984452
 20
118.4477584068
 10
226.4658173589
 20
118.272278862
 10
225.9486104617
 20
117.9369119
 10
225.5583198631
 20
117.4714563472
 10
225.3296245954
 20
116.917269972
 10
225.2828452369
 20
116.3235946659
 10
225.4221383389
 20
115.7431810851
 10
225.7351270978
 20
115.2276015234
 10
226.1940010891
 20
114.8226674874
 10
226.7579873447
 20
114.5643591433
 10
227.376973211
 20
114.4756283209
  0
LWPOLYLINE
  5
135
330
1F
100
AcDbEntity
  8
0
  6
HIDDEN
 62
     7
370
     0
100
AcDbPolyline
 90
        9
 70
   128
 43
0.0
 10
228.5881846038
 20
114.3124448412
 10
228.6052156688
 20
114.1904210949
 10
228.6136335218
 20
114.0820647053
 10
228.6133613574
 20
113.9883643277
 10
228.6044016587
 20
113.9101748944
 10
228.5868361752
 20
113.8482098141
 10
228.560825176
 20
113.8030344627
 10
228.5266059885
 20
113.7750610252
 10
228.4844908319
 20
113.7645447339
  0
LINE
  5
136
330
1F
100
AcDbEntity
  8
0
  6
HIDDEN
 62
     7
370
     0
100
AcDbLine
 10
134.626973211
 20
121.4556260782
 30
0.0
 11
134.626973211
 21
103.4556260782
 31
0.0
  0
LINE
  5
137
330
1F
100
AcDbEntity
  8
0
  6
HIDDEN
 62
     7
370
     0
100
AcDbLine
 10
133.376973211
 20
102.2056260782
 30
0.0
 11
133.376973211
 21
122.7056260782
 31
0.0
  0
LINE
  5
138
330
1F
100
AcDbEntity
  8
0
  6
HIDDEN
 62
     7
370
     0
100
AcDbLine
 10
160.376973211
 20
121.4556260782
 30
0.0
 11
160.376973211
 21
103.4556260782
 31
0.0
  0
LINE
  5
139
330
1F
100
AcDbEntity
  8
0
  6
HIDDEN
 62
     7
370
     0
100
AcDbLine
 10
163.2310611514
 20
116.7056260782
 30
0.0
 11
163.2310611514
 21
108.2056260782
 31
0.0
  0
SPLINE
  5
13A
330
1F
100
AcDbEntity
  8
0
  6
HIDDEN
 62
     7
370
     0
100
AcDbSpline
210
0.0
220
0.0
230
1.0
 70
     8
 71
     3
 72
    62
 73
    58
 74
     0
 42
0.00000001
 43
0.00000001
 12
1.0
 22
0.0
 32
0.0
 13
1.0
 23
0.0
 33
0.0
 40
-0.0312499999999993
 40
-0.0312499999999993
 40
0.0
 40
0.0
 40
0.0312500000000019
 40
0.0312500000000019
 40
0.0625000000000038
 40
0.0625000000000038
 40
0.1250000000000048
 40
0.1250000000000048
 40
0.1875000000000058
 40
0.1875000000000058
 40
0.2187500000000057
 40
0.2187500000000057
 40
0.2500000000000056
 40
0.2500000000000056
 40
0.2812500000000055
 40
0.2812500000000055
 40
0.3125000000000054
 40
0.3125000000000054
 40
0.3437500000000053
 40
0.3437500000000053
 40
0.3750000000000052
 40
0.3750000000000052
 40
0.437500000000005
 40
0.437500000000005
 40
0.4687500000000049
 40
0.4687500000000049
 40
0.5000000000000048
 40
0.5000000000000048
 40
0.5312500000000047
 40
0.5312500000000047
 40
0.5625000000000046
 40
0.5625000000000046
 40
0.5937500000000044
 40
0.5937500000000044
 40
0.6250000000000043
 40
0.6250000000000043
 40
0.6562500000000042
 40
0.6562500000000042
 40
0.6875000000000041
 40
0.6875000000000041
 40
0.718750000000004
 40
0.718750000000004
 40
0.7500000000000039
 40
0.7500000000000039
 40
0.7812500000000039
 40
0.7812500000000039
 40
0.8125000000000039
 40
0.8125000000000039
 40
0.8750000000000027
 40
0.8750000000000027
 40
0.906250000000002
 40
0.906250000000002
 40
0.9375000000000013
 40
0.9375000000000013
 40
0.9687500000000007
 40
0.9687500000000007
 40
1.0
 40
1.0
 40
1.031250000000002
 40
1.031250000000002
 10
227.5181714349899
 20
109.3166115531872
 30
0.0
 10
227.2357749870301
 20
109.3166115531872
 30
0.0
 10
227.0974971100163
 20
109.3275070577087
 30
0.0
 10
226.8263310388085
 20
109.3701508597275
 30
0.0
 10
226.692127711349
 20
109.4024904730624
 30
0.0
 10
226.3130645315588
 20
109.5283511337937
 30
0.0
 10
226.084057609865
 20
109.6526884049299
 30
0.0
 10
225.7030269908622
 20
109.9704737764027
 30
0.0
 10
225.5474039139407
 20
110.1675459188212
 30
0.0
 10
225.388333437372
 20
110.5042622381456
 30
0.0
 10
225.3466062922286
 20
110.6259543257446
 30
0.0
 10
225.2913355910866
 20
110.8765195580366
 30
0.0
 10
225.2772556595967
 20
111.0054896566034
 30
0.0
 10
225.2766990932756
 20
111.2711633985464
 30
0.0
 10
225.2906883706962
 20
111.4076814962833
 30
0.0
 10
225.3451698899319
 20
111.6743801062038
 30
0.0
 10
225.3860203480868
 20
111.8073953946564
 30
0.0
 10
225.4926343149462
 20
112.0653565108719
 30
0.0
 10
225.5573864572192
 20
112.1884899448721
 30
0.0
 10
225.7089449991718
 20
112.4232926145524
 30
0.0
 10
225.7962831223448
 20
112.5351424223728
 30
0.0
 10
226.0820595433064
 20
112.8400576356156
 30
0.0
 10
226.3115958917722
 20
113.0102030998429
 30
0.0
 10
226.6879140277665
 20
113.1858394047456
 30
0.0
 10
226.8202469361271
 20
113.2320515014472
 30
0.0
 10
227.094279595118
 20
113.2947696712207
 30
0.0
 10
227.2323047547401
 20
113.310620233048
 30
0.0
 10
227.5103761359588
 20
113.3114605875506
 30
0.0
 10
227.6520890746292
 20
113.2958414476018
 30
0.0
 10
227.9245113303095
 20
113.234777386189
 30
0.0
 10
228.0563394748065
 20
113.1897236051964
 30
0.0
 10
228.3117383704111
 20
113.0717662920976
 30
0.0
 10
228.4319043736005
 20
113.000392591703
 30
0.0
 10
228.6570757861568
 20
112.8361915693119
 30
0.0
 10
228.7632268474911
 20
112.7421479119347
 30
0.0
 10
228.9546741361933
 20
112.5387683212961
 30
0.0
 10
229.0406081501129
 20
112.4292738315931
 30
0.0
 10
229.1930204681529
 20
112.1947566477955
 30
0.0
 10
229.2592039584404
 20
112.0694636120063
 30
0.0
 10
229.3653856569915
 20
111.8144931598147
 30
0.0
 10
229.4063657202072
 20
111.6834834260179
 30
0.0
 10
229.4624458610046
 20
111.4142033261571
 30
0.0
 10
229.4766700364459
 20
111.278893131104
 30
0.0
 10
229.4772667203174
 20
111.0142854884751
 30
0.0
 10
229.463498152819
 20
110.8823400028726
 30
0.0
 10
229.4086480858768
 20
110.6301560852122
 30
0.0
 10
229.3681515726004
 20
110.5106550211878
 30
0.0
 10
229.2086891014242
 20
110.1701189261392
 30
0.0
 10
229.0540206771101
 20
109.9733902371966
 30
0.0
 10
228.7657126457655
 20
109.732443772035
 30
0.0
 10
228.6616878304177
 20
109.6621320236545
 30
0.0
 10
228.4372685722389
 20
109.5394645159367
 30
0.0
 10
228.3153377843784
 20
109.4867258453156
 30
0.0
 10
228.0628806329523
 20
109.4027842767502
 30
0.0
 10
227.9319941030352
 20
109.3710591762834
 30
0.0
 10
227.6600531853223
 20
109.3278604450991
 30
0.0
 10
227.5181714349899
 20
109.3166115531872
 30
0.0
 10
227.2357749870301
 20
109.3166115531872
 30
0.0
  0
LINE
  5
13B
330
1F
100
AcDbEntity
  8
0
  6
HIDDEN
 62
     7
370
     0
100
AcDbLine
 10
230.376973211
 20
108.2056260782
 30
0.0
 11
230.376973211
 21
116.7056260782
 31
0.0
  0
LINE
  5
13C
330
1F
100
AcDbEntity
  8
0
  6
HIDDEN
 62
     7
370
     0
100
AcDbLine
 10
258.4928458695
 20
131.0144253459
 30
0.0
 11
258.44565532
 21
130.9995824675
 31
0.0
  0
LINE
  5
13D
330
1F
100
AcDbEntity
  8
0
  6
HIDDEN
 62
     7
370
     0
100
AcDbLine
 10
258.4928458695
 20
131.0144253459
 30
0.0
 11
256.1730078932
 21
123.6747619878
 31
0.0
  0
LINE
  5
13E
330
1F
100
AcDbEntity
  8
0
  6
HIDDEN
 62
     7
370
     0
100
AcDbLine
 10
256.1730078932
 20
123.6747619878
 30
0.0
 11
256.122776961
 21
123.6589628156
 31
0.0
  0
LINE
  5
13F
330
1F
100
AcDbEntity
  8
0
  6
HIDDEN
 62
     7
370
     0
100
AcDbLine
 10
255.6282636897
 20
120.3311014287
 30
0.0
 11
265.9471581006
 21
123.5767108915
 31
0.0
  0
SPLINE
  5
140
330
1F
100
AcDbEntity
  8
0
  6
HIDDEN
 62
     7
370
     0
100
AcDbSpline
210
0.0
220
0.0
230
1.0
 70
     8
 71
     3
 72
     8
 73
     4
 74
     0
 42
0.00000001
 43
0.00000001
 12
1.0
 22
0.0
 32
0.0
 13
1.0
 23
0.0
 33
0.0
 40
0.0
 40
0.0
 40
0.0
 40
0.0
 40
1.0
 40
1.0
 40
1.0
 40
1.0
 10
243.9450147367909
 20
113.9556260782419
 30
0.0
 10
243.9000191736813
 20
113.4586338395246
 30
0.0
 10
243.87697321101
 20
112.9550598976592
 30
0.0
 10
243.87697321101
 20
112.4556260782419
 30
0.0
  0
SPLINE
  5
141
330
1F
100
AcDbEntity
  8
0
  6
HIDDEN
 62
     7
370
     0
100
AcDbSpline
210
0.0
220
0.0
230
1.0
 70
     8
 71
     3
 72
    16
 73
    12
 74
     0
 42
0.00000001
 43
0.00000001
 12
1.0
 22
0.0
 32
0.0
 13
1.0
 23
0.0
 33
0.0
 40
0.0
 40
0.0
 40
0.0
 40
0.0
 40
0.2500000000000001
 40
0.2500000000000001
 40
0.5000000000000001
 40
0.5000000000000001
 40
0.7500000000000003
 40
0.7500000000000003
 40
0.8750000000000002
 40
0.8750000000000002
 40
1.0
 40
1.0
 40
1.0
 40
1.0
 10
246.4626294644097
 20
126.8221769284396
 30
0.0
 10
246.1774105596767
 20
125.8974723934005
 30
0.0
 10
245.9036361335291
 20
124.9232111499499
 30
0.0
 10
245.3846903261609
 20
122.8692381156892
 30
0.0
 10
245.1462075616411
 20
121.8158185811737
 30
0.0
 10
244.7150116331451
 20
119.6565430283182
 30
0.0
 10
244.5222853406307
 20
118.5506948446806
 30
0.0
 10
244.2729473231143
 20
116.8501250087542
 30
0.0
 10
244.1962894334516
 20
116.2745101585475
 30
0.0
 10
244.058658531564
 20
115.1179572321946
 30
0.0
 10
243.9977197192127
 20
114.5377716364955
 30
0.0
 10
243.9450147367909
 20
113.9556260782419
 30
0.0
  0
SPLINE
  5
142
330
1F
100
AcDbEntity
  8
0
  6
HIDDEN
 62
     7
370
     0
100
AcDbSpline
210
0.0
220
0.0
230
1.0
 70
     8
 71
     3
 72
    16
 73
    12
 74
     0
 42
0.00000001
 43
0.00000001
 12
1.0
 22
0.0
 32
0.0
 13
1.0
 23
0.0
 33
0.0
 40
0.0
 40
0.0
 40
0.0
 40
0.0
 40
0.2500000000000001
 40
0.2500000000000001
 40
0.3750000000000002
 40
0.3750000000000002
 40
0.5000000000000003
 40
0.5000000000000003
 40
0.7500000000000002
 40
0.7500000000000002
 40
1.0
 40
1.0
 40
1.0
 40
1.0
 10
244.1978525571124
 20
129.2763932354574
 30
0.0
 10
243.9873031608285
 20
129.0697256183072
 30
0.0
 10
243.8748755959745
 20
128.8599313961473
 30
0.0
 10
243.8780667790571
 20
128.5397647018956
 30
0.0
 10
243.9079066869687
 20
128.4330044132689
 30
0.0
 10
244.0211298015073
 20
128.2224482159797
 30
0.0
 10
244.1044722009111
 20
128.1181697845403
 30
0.0
 10
244.4271127088314
 20
127.8080500479295
 30
0.0
 10
244.7395602228255
 20
127.604608108337
 30
0.0
 10
245.5119420607668
 20
127.2046318564403
 30
0.0
 10
245.9647642645867
 20
127.0111913013367
 30
0.0
 10
246.4626294644097
 20
126.8221769284396
 30
0.0
  0
LINE
  5
143
330
1F
100
AcDbEntity
  8
0
  6
HIDDEN
 62
     7
370
     0
100
AcDbLine
 10
243.876973211
 20
112.4556260782
 30
0.0
 11
243.876973211
 21
95.9556260782
 31
0.0
  0
ELLIPSE
  5
144
330
1F
100
AcDbEntity
  8
0
  6
HIDDEN
 62
     7
370
     0
100
AcDbEllipse
 10
262.3004004946
 20
112.4556260782
 30
0.0
 11
5.390524936199313
 21
16.49183944377621
 31
0.0
210
0.0
220
0.0
230
1.0
 40
0.0962569477
 41
1.602248510774582
 42
3.173044837569632
  0
LINE
  5
145
330
1F
100
AcDbEntity
  8
0
  6
HIDDEN
 62
     7
370
     0
100
AcDbLine
 10
255.399184674
 20
120.3863696696
 30
0.0
 11
265.7347556254
 21
123.637224417
 31
0.0
  0
LINE
  5
146
330
1F
100
AcDbEntity
  8
0
  6
HIDDEN
 62
     7
370
     0
100
AcDbLine
 10
265.9471581006
 20
123.5767108915
 30
0.0
 11
265.7347556254
 21
123.637224417
 31
0.0
  0
LINE
  5
147
330
1F
100
AcDbEntity
  8
0
  6
HIDDEN
 62
     7
370
     0
100
AcDbLine
 10
256.1730078932
 20
123.6747619878
 30
0.0
 11
256.3854103685
 21
123.3115053662
 31
0.0
  0
LINE
  5
148
330
1F
100
AcDbEntity
  8
0
  6
HIDDEN
 62
     7
370
     0
100
AcDbLine
 10
255.9718423595
 20
123.1814255156
 30
0.0
 11
256.3854103685
 21
123.3115053662
 31
0.0
  0
LINE
  5
149
330
1F
100
AcDbEntity
  8
0
  6
HIDDEN
 62
     7
370
     0
100
AcDbLine
 10
258.709775264
 20
130.6654913035
 30
0.0
 11
256.3854103685
 21
123.3115053662
 31
0.0
  0
LINE
  5
14A
330
1F
100
AcDbEntity
  8
0
  6
HIDDEN
 62
     7
370
     0
100
AcDbLine
 10
258.4928458695
 20
131.0144253459
 30
0.0
 11
258.709775264
 21
130.6654913035
 31
0.0
  0
ARC
  5
14B
330
1F
100
AcDbEntity
  8
0
  6
HIDDEN
 62
     7
370
     0
100
AcDbCircle
 10
254.3781627901
 20
121.2702872667
 30
0.0
 40
1.249354382633049
100
AcDbArc
 50
177.6941589158
 51
287.5361006491
  0
LINE
  5
14C
330
1F
100
AcDbEntity
  8
0
  6
HIDDEN
 62
     7
370
     0
100
AcDbLine
 10
265.7347556254
 20
123.637224417
 30
0.0
 11
265.5203234247
 21
123.4651441883
 31
0.0
  0
LINE
  5
14D
330
1F
100
AcDbEntity
  8
0
  6
HIDDEN
 62
     7
370
     0
100
AcDbLine
 10
256.3854103685
 20
123.3115053662
 30
0.0
 11
256.3854103685
 21
123.2068706556
 31
0.0
  0
LINE
  5
14E
330
1F
100
AcDbEntity
  8
0
  6
HIDDEN
 62
     7
370
     0
100
AcDbLine
 10
256.3854103685
 20
123.2068706556
 30
0.0
 11
255.9351198989
 21
123.0652404624
 31
0.0
  0
LINE
  5
14F
330
1F
100
AcDbEntity
  8
0
  6
HIDDEN
 62
     7
370
     0
100
AcDbLine
 10
258.6452942577
 20
130.3568471386
 30
0.0
 11
256.3854103685
 21
123.2068706556
 31
0.0
  0
LINE
  5
150
330
1F
100
AcDbEntity
  8
0
  6
HIDDEN
 62
     7
370
     0
100
AcDbLine
 10
258.709775264
 20
130.6654913035
 30
0.0
 11
258.6452942577
 21
130.3568471386
 31
0.0
  0
LWPOLYLINE
  5
151
330
1F
100
AcDbEntity
  8
0
  6
HIDDEN
 62
     7
370
     0
100
AcDbPolyline
 90
       22
 70
   128
 43
0.0
 10
227.376973211
 20
107.4425079073
 10
227.9959590773
 20
107.5312387297
 10
228.5599453329
 20
107.7895470738
 10
229.0188193242
 20
108.1944811098
 10
229.3318080832
 20
108.7100606715
 10
229.4711011851
 20
109.2904742523
 10
229.4243218266
 20
109.8841495584
 10
229.195626559
 20
110.4383359336
 10
228.8053359603
 20
110.9037914864
 10
228.2881290632
 20
111.2391584484
 10
227.68996197
 20
111.4146379932
 10
227.063984452
 20
111.4146379932
 10
226.4658173589
 20
111.2391584484
 10
225.9486104617
 20
110.9037914864
 10
225.5583198631
 20
110.4383359336
 10
225.3296245954
 20
109.8841495584
 10
225.2828452369
 20
109.2904742523
 10
225.4221383389
 20
108.7100606715
 10
225.7351270978
 20
108.1944811098
 10
226.1940010891
 20
107.7895470738
 10
226.7579873447
 20
107.5312387297
 10
227.376973211
 20
107.4425079073
  0
LINE
  5
152
330
1F
100
AcDbEntity
  8
0
  6
HIDDEN
 62
     7
370
     0
100
AcDbLine
 10
268.5437568728
 20
133.0308914176
 30
0.0
 11
268.2085998759
 21
133.3648007017
 31
0.0
  0
CIRCLE
  5
153
330
1F
100
AcDbEntity
  8
0
  6
HIDDEN
 62
     7
370
     0
100
AcDbCircle
 10
262.2046733258
 20
127.0292479015
 30
0.0
 40
2.398521284627527
  0
LINE
  5
154
330
1F
100
AcDbEntity
  8
0
  6
HIDDEN
 62
     7
370
     0
100
AcDbLine
 10
254.7546015777
 20
120.0789937627
 30
0.0
 11
265.5203234247
 21
123.4651441883
 31
0.0
  0
LINE
  5
155
330
1F
100
AcDbEntity
  8
0
  6
HIDDEN
 62
     7
370
     0
100
AcDbLine
 10
268.2085998759
 20
133.3648007017
 30
0.0
 11
258.6452942577
 21
130.3568471386
 31
0.0
  0
LINE
  5
156
330
1F
100
AcDbEntity
  8
0
  6
HIDDEN
 62
     7
370
     0
100
AcDbLine
 10
268.5437568728
 20
133.0308914176
 30
0.0
 11
265.5203234247
 21
123.4651441883
 31
0.0
  0
CIRCLE
  5
157
330
1F
100
AcDbEntity
  8
0
  6
HIDDEN
 62
     7
370
     0
100
AcDbCircle
 10
262.2031080098
 20
126.9749409242
 30
0.0
 40
1.647802559318092
  0
LINE
  5
158
330
1F
100
AcDbEntity
  8
0
  6
HIDDEN
 62
     7
370
     0
100
AcDbLine
 10
268.2085998759
 20
133.3648007017
 30
0.0
 11
267.6238555558
 21
132.5763249305
 31
0.0
  0
LINE
  5
159
330
1F
100
AcDbEntity
  8
0
  6
HIDDEN
 62
     7
370
     0
100
AcDbLine
 10
267.8260606342
 20
132.0631417949
 30
0.0
 11
268.5437568728
 21
133.0308914176
 31
0.0
  0
SPLINE
  5
15A
330
1F
100
AcDbEntity
  8
0
  6
HIDDEN
 62
     7
370
     0
100
AcDbSpline
210
0.0
220
0.0
230
1.0
 70
     8
 71
     3
 72
    32
 73
    28
 74
     0
 42
0.00000001
 43
0.00000001
 12
1.0
 22
0.0
 32
0.0
 13
1.0
 23
0.0
 33
0.0
 40
0.0
 40
0.0
 40
0.0
 40
0.0
 40
0.1249999999999999
 40
0.1249999999999999
 40
0.2499999999999999
 40
0.2499999999999999
 40
0.3124999999999999
 40
0.3124999999999999
 40
0.3749999999999998
 40
0.3749999999999998
 40
0.4374999999999998
 40
0.4374999999999998
 40
0.4999999999999996
 40
0.4999999999999996
 40
0.5624999999999993
 40
0.5624999999999993
 40
0.6249999999999993
 40
0.6249999999999993
 40
0.6874999999999992
 40
0.6874999999999992
 40
0.7499999999999992
 40
0.7499999999999992
 40
0.8124999999999992
 40
0.8124999999999992
 40
0.8749999999999992
 40
0.8749999999999992
 40
1.0
 40
1.0
 40
1.0
 40
1.0
 10
263.8527004177587
 20
126.2631218587815
 30
0.0
 10
263.8653058589557
 20
126.482391020815
 30
0.0
 10
263.8389990736983
 20
126.6954759148366
 30
0.0
 10
263.7111593445432
 20
127.1100086100526
 30
0.0
 10
263.6113945311982
 20
127.304377191855
 30
0.0
 10
263.4036319465301
 20
127.5674982625749
 30
0.0
 10
263.3235332591859
 20
127.6511530911596
 30
0.0
 10
263.1461635852458
 20
127.8008610861128
 30
0.0
 10
263.0477574452037
 20
127.8682315558961
 30
0.0
 10
262.8306907309849
 20
127.9823261027833
 30
0.0
 10
262.7151740654059
 20
128.0275543463633
 30
0.0
 10
262.4676625995873
 20
128.0906343479004
 30
0.0
 10
262.3391270153924
 20
128.1071836416588
 30
0.0
 10
262.0812806757853
 20
128.1079312382002
 30
0.0
 10
261.9505780819538
 20
128.0917233127844
 30
0.0
 10
261.7042366498865
 20
128.0302198716312
 30
0.0
 10
261.5856259288543
 20
127.9843946983942
 30
0.0
 10
261.3693354288016
 20
127.8717311578008
 30
0.0
 10
261.2691149087096
 20
127.8037167821207
 30
0.0
 10
261.0910821810401
 20
127.6542950344085
 30
0.0
 10
261.0122262905371
 20
127.5725279853927
 30
0.0
 10
260.8721127313215
 20
127.3963218111643
 30
0.0
 10
260.811615819669
 20
127.3024917279315
 30
0.0
 10
260.7105824435887
 20
127.1094683146009
 30
0.0
 10
260.6694605278962
 20
127.009516739092
 30
0.0
 10
260.5731544475767
 20
126.6994076786483
 30
0.0
 10
260.5460658078562
 20
126.4826057901166
 30
0.0
 10
260.5586835958044
 20
126.2631218587815
 30
0.0
  0
ARC
  5
15B
330
1F
100
AcDbEntity
  8
0
  6
HIDDEN
 62
     7
370
     0
100
AcDbCircle
 10
262.2056920068
 20
126.3657309761
 30
0.0
 40
1.650201604893138
100
AcDbArc
 50
183.5649367611
 51
356.4350632389
  0
SPLINE
  5
15C
330
1F
100
AcDbEntity
  8
0
  6
HIDDEN
 62
     7
370
     0
100
AcDbSpline
210
0.0
220
0.0
230
1.0
 70
     8
 71
     3
 72
    16
 73
    12
 74
     0
 42
0.00000001
 43
0.00000001
 12
1.0
 22
0.0
 32
0.0
 13
1.0
 23
0.0
 33
0.0
 40
0.0
 40
0.0
 40
0.0
 40
0.0
 40
0.2499999999999995
 40
0.2499999999999995
 40
0.3749999999999996
 40
0.3749999999999996
 40
0.4999999999999997
 40
0.4999999999999997
 40
0.7499999999999998
 40
0.7499999999999998
 40
1.0
 40
1.0
 40
1.0
 40
1.0
 10
143.0556528674503
 20
95.87171945200086
 30
0.0
 10
142.8944203899659
 20
95.15732528980875
 30
0.0
 10
142.7739405503262
 20
94.50398302710006
 30
0.0
 10
142.6515600330129
 20
93.61572778529619
 30
0.0
 10
142.6205823726155
 20
93.33504724894433
 30
0.0
 10
142.5789686349875
 20
92.80601325910438
 30
0.0
 10
142.5687327220547
 20
92.56269228052591
 30
0.0
 10
142.5685443249986
 20
91.89466959001268
 30
0.0
 10
142.6086890276362
 20
91.53098868059321
 30
0.0
 10
142.7728427825758
 20
90.9710978080449
 30
0.0
 10
142.8943944329853
 20
90.78357651592776
 30
0.0
 10
143.0556528674503
 20
90.68554512323982
 30
0.0
  0
LINE
  5
15D
330
1F
100
AcDbEntity
  8
0
  6
HIDDEN
 62
     7
370
     0
100
AcDbLine
 10
142.176973211
 20
96.9207055554
 30
0.0
 11
142.176973211
 21
90.4355272937
 31
0.0
  0
LINE
  5
15E
330
1F
100
AcDbEntity
  8
0
  6
HIDDEN
 62
     7
370
     0
100
AcDbLine
 10
107.876973211
 20
97.3515732495
 30
0.0
 11
107.876973211
 21
91.297262682
 31
0.0
  0
LINE
  5
15F
330
1F
100
AcDbEntity
  8
0
  6
HIDDEN
 62
     7
370
     0
100
AcDbLine
 10
106.376973211
 20
97.7845859514
 30
0.0
 11
106.376973211
 21
92.1632880857
 31
0.0
  0
LINE
  5
160
330
1F
100
AcDbEntity
  8
0
  6
HIDDEN
 62
     7
370
     0
100
AcDbLine
 10
142.176973211
 20
134.4757248628
 30
0.0
 11
142.176973211
 21
127.9905466011
 31
0.0
  0
LINE
  5
161
330
1F
100
AcDbEntity
  8
0
  6
HIDDEN
 62
     7
370
     0
100
AcDbLine
 10
107.876973211
 20
133.6139894745
 30
0.0
 11
107.876973211
 21
127.559678907
 31
0.0
  0
LINE
  5
162
330
1F
100
AcDbEntity
  8
0
  6
HIDDEN
 62
     7
370
     0
100
AcDbLine
 10
106.376973211
 20
132.7479640707
 30
0.0
 11
106.376973211
 21
127.1266662051
 31
0.0
  0
SPLINE
  5
163
330
1F
100
AcDbEntity
  8
0
  6
HIDDEN
 62
     7
370
     0
100
AcDbSpline
210
0.0
220
0.0
230
1.0
 70
     8
 71
     3
 72
    16
 73
    12
 74
     0
 42
0.00000001
 43
0.00000001
 12
1.0
 22
0.0
 32
0.0
 13
1.0
 23
0.0
 33
0.0
 40
0.0
 40
0.0
 40
0.0
 40
0.0
 40
0.2500000000000002
 40
0.2500000000000002
 40
0.3750000000000003
 40
0.3750000000000003
 40
0.5000000000000004
 40
0.5000000000000004
 40
0.7500000000000002
 40
0.7500000000000002
 40
1.0
 40
1.0
 40
1.0
 40
1.0
 10
143.0556528674503
 20
134.225707033244
 30
0.0
 10
142.8944203899659
 20
134.1276914201893
 30
0.0
 10
142.7739405503262
 20
133.9409553885133
 30
0.0
 10
142.6515600330129
 20
133.5279155809544
 30
0.0
 10
142.6205823726155
 20
133.3679150817214
 30
0.0
 10
142.5789686349875
 20
133.0011094306303
 30
0.0
 10
142.5687327220547
 20
132.7977722780063
 30
0.0
 10
142.5685443249986
 20
132.1304850113796
 30
0.0
 10
142.6086890276362
 20
131.6096705474916
 30
0.0
 10
142.7728427825758
 20
130.4123115320139
 30
0.0
 10
142.8943944329853
 20
129.7540418777179
 30
0.0
 10
143.0556528674503
 20
129.039532704483
 30
0.0
  0
ELLIPSE
  5
164
330
1F
100
AcDbEntity
  8
0
  6
HIDDEN
 62
     7
370
     0
100
AcDbEllipse
 10
291.6393216569
 20
113.9556260782
 30
0.0
 11
24.06101560154354
 21
-22.41887999910567
 31
0.0
210
0.0
220
0.0
230
1.0
 40
0.2135193148
 41
3.543656488796578
 42
3.580728829908114
  0
ELLIPSE
  5
165
330
1F
100
AcDbEntity
  8
0
  6
HIDDEN
 62
     7
370
     0
100
AcDbEllipse
 10
200.9846567693
 20
113.9556260782
 30
0.0
 11
73.48411303275292
 21
22.64800636057891
 31
0.0
210
0.0
220
0.0
230
1.0
 40
0.054548757
 41
5.557188037262486
 42
5.83102755496062
  0
LINE
  5
166
330
1F
100
AcDbEntity
  8
0
  6
HIDDEN
 62
     7
370
     0
100
AcDbLine
 10
248.9937315459
 20
126.8221769284
 30
0.0
 11
246.4626294644
 21
126.8221769284
 31
0.0
  0
SPLINE
  5
167
330
1F
100
AcDbEntity
  8
0
  6
HIDDEN
 62
     7
370
     0
100
AcDbSpline
210
0.0
220
0.0
230
1.0
 70
     8
 71
     3
 72
    12
 73
     8
 74
     0
 42
0.00000001
 43
0.00000001
 12
1.0
 22
0.0
 32
0.0
 13
1.0
 23
0.0
 33
0.0
 40
0.0
 40
0.0
 40
0.0
 40
0.0
 40
0.5
 40
0.5
 40
0.75
 40
0.75
 40
1.0
 40
1.0
 40
1.0
 40
1.0
 10
256.7590216344439
 20
128.23151225023
 30
0.0
 10
255.5436416521687
 20
127.7735746703909
 30
0.0
 10
254.2850470912301
 20
127.4230856753495
 30
0.0
 10
252.3375576802788
 20
127.0659251071696
 30
0.0
 10
251.6783581679876
 20
126.9750757123687
 30
0.0
 10
250.3394629594466
 20
126.8528374596018
 30
0.0
 10
249.6674606559098
 20
126.8221769284396
 30
0.0
 10
248.9937315459045
 20
126.8221769284396
 30
0.0
  0
ELLIPSE
  5
168
330
1F
100
AcDbEntity
  8
0
  6
HIDDEN
 62
     7
370
     0
100
AcDbEllipse
 10
263.477497996
 20
113.9556260782
 30
0.0
 11
7.51406506258087
 21
22.98862467920323
 31
0.0
210
0.0
220
0.0
230
1.0
 40
0.0962569477
 41
0.695858001323326
 42
1.602248510774582
  0
LWPOLYLINE
  5
169
330
1F
100
AcDbEntity
  8
0
  6
HIDDEN
 62
     7
370
     0
100
AcDbPolyline
 90
       23
 70
   128
 43
0.0
 10
227.376973211
 20
106.9878148438
 10
228.0813046031
 20
107.0841260223
 10
228.7285752546
 20
107.3652569989
 10
229.2663471469
 20
107.8084322138
 10
229.6510531994
 20
108.3777482468
 10
229.8515268157
 20
109.0270824987
 10
229.8515268157
 20
109.7038297703
 10
229.6510531994
 20
110.3531640222
 10
229.2663471469
 20
110.9224800552
 10
228.7285752546
 20
111.3656552701
 10
228.0813046031
 20
111.6467862467
 10
227.376973211
 20
111.7430974252
 10
226.6726418189
 20
111.6467862467
 10
226.0253711674
 20
111.3656552701
 10
225.4875992751
 20
110.9224800552
 10
225.1028932226
 20
110.3531640222
 10
224.9024196063
 20
109.7038297703
 10
224.9024196063
 20
109.0270824987
 10
225.1028932226
 20
108.3777482468
 10
225.4875992751
 20
107.8084322138
 10
226.0253711674
 20
107.3652569989
 10
226.6726418189
 20
107.0841260223
 10
227.376973211
 20
106.9878148438
  0
SPLINE
  5
16A
330
1F
100
AcDbEntity
  8
0
  6
HIDDEN
 62
     7
370
     0
100
AcDbSpline
210
0.0
220
0.0
230
1.0
 70
     8
 71
     3
 72
    20
 73
    16
 74
     0
 42
0.00000001
 43
0.00000001
 12
1.0
 22
0.0
 32
0.0
 13
1.0
 23
0.0
 33
0.0
 40
0.0
 40
0.0
 40
0.0
 40
0.0
 40
0.2499999999999997
 40
0.2499999999999997
 40
0.3749999999999997
 40
0.3749999999999997
 40
0.4999999999999998
 40
0.4999999999999998
 40
0.6249999999999998
 40
0.6249999999999998
 40
0.7499999999999999
 40
0.7499999999999999
 40
0.8749999999999999
 40
0.8749999999999999
 40
1.0
 40
1.0
 40
1.0
 40
1.0
 10
260.5586835958043
 20
126.2631218587815
 30
0.0
 10
260.787884292125
 20
126.0763752417839
 30
0.0
 10
261.0322004177303
 20
125.8968399639425
 30
0.0
 10
261.4403916060697
 20
125.6862599423823
 30
0.0
 10
261.5854039690539
 20
125.6256125227396
 30
0.0
 10
261.8889645163963
 20
125.5408505680516
 30
0.0
 10
262.0475665273237
 20
125.5171820710651
 30
0.0
 10
262.3675067313141
 20
125.5175387540513
 30
0.0
 10
262.5245138541037
 20
125.5411804957183
 30
0.0
 10
262.8297124114819
 20
125.6269144803133
 30
0.0
 10
262.9721816918835
 20
125.6867882538878
 30
0.0
 10
263.2444168275397
 20
125.8274017125536
 30
0.0
 10
263.3742793112473
 20
125.9084753820747
 30
0.0
 10
263.6208025507817
 20
126.0795019374484
 30
0.0
 10
263.738397389013
 20
126.1699907982154
 30
0.0
 10
263.8527004177587
 20
126.2631218587815
 30
0.0
  0
LINE
  5
16B
330
1F
100
AcDbEntity
  8
0
  6
HIDDEN
 62
     7
370
     0
100
AcDbLine
 10
106.376973211
 20
127.1266662051
 30
0.0
 11
106.376973211
 21
115.3576134112
 31
0.0
  0
LINE
  5
16C
330
1F
100
AcDbEntity
  8
0
  6
HIDDEN
 62
     7
370
     0
100
AcDbLine
 10
106.376973211
 20
109.5536387453
 30
0.0
 11
106.376973211
 21
97.7845859514
 31
0.0
  0
LINE
  5
16D
330
1F
100
AcDbEntity
  8
0
  6
HIDDEN
 62
     7
370
     0
100
AcDbLine
 10
107.876973211
 20
108.4904151814
 30
0.0
 11
107.876973211
 21
97.3515732495
 31
0.0
  0
LINE
  5
16E
330
1F
100
AcDbEntity
  8
0
  6
HIDDEN
 62
     7
370
     0
100
AcDbLine
 10
107.876973211
 20
127.559678907
 30
0.0
 11
107.876973211
 21
116.4208369751
 31
0.0
  0
LINE
  5
16F
330
1F
100
AcDbEntity
  8
0
  6
HIDDEN
 62
     7
370
     0
100
AcDbLine
 10
144.176973211
 20
127.4933332407
 30
0.0
 11
144.176973211
 21
97.4179189158
 31
0.0
  0
LINE
  5
170
330
1F
100
AcDbEntity
  8
0
  6
HIDDEN
 62
     7
370
     0
100
AcDbLine
 10
142.176973211
 20
127.9905466011
 30
0.0
 11
142.176973211
 21
96.9207055554
 31
0.0
  0
LINE
  5
171
330
1F
100
AcDbEntity
  8
0
  6
HIDDEN
 62
     7
370
     0
100
AcDbLine
 10
261.0294827702
 20
113.9556260782
 30
0.0
 11
260.5442156587
 21
112.4556260782
 31
0.0
  0
SPLINE
  5
172
330
1F
100
AcDbEntity
  8
0
  6
HIDDEN
 62
     7
370
     0
100
AcDbSpline
210
0.0
220
0.0
230
1.0
 70
     8
 71
     3
 72
     8
 73
     4
 74
     0
 42
0.00000001
 43
0.00000001
 12
1.0
 22
0.0
 32
0.0
 13
1.0
 23
0.0
 33
0.0
 40
0.0000249638557296
 40
0.0000249638557296
 40
0.0000249638557296
 40
0.0000249638557296
 40
0.0049776420541172
 40
0.0049776420541172
 40
0.0049776420541172
 40
0.0049776420541172
 10
107.87697321101
 20
108.4904151814054
 30
0.0
 10
109.5269494455195
 20
108.4491359436372
 30
0.0
 10
111.1769507652646
 20
108.4089142623977
 30
0.0
 10
112.82697321101
 20
108.3696650251427
 30
0.0
  0
SPLINE
  5
173
330
1F
100
AcDbEntity
  8
0
  6
HIDDEN
 62
     7
370
     0
100
AcDbSpline
210
0.0
220
0.0
230
1.0
 70
     8
 71
     3
 72
     8
 73
     4
 74
     0
 42
0.00000001
 43
0.00000001
 12
1.0
 22
0.0
 32
0.0
 13
1.0
 23
0.0
 33
0.0
 40
0.0000249631533153
 40
0.0000249631533153
 40
0.0000249631533153
 40
0.0000249631533153
 40
0.0049776413517029
 40
0.0049776413517029
 40
0.0049776413517029
 40
0.0049776413517029
 10
112.82697321101
 20
116.5415871313412
 30
0.0
 10
111.1769507652645
 20
116.5023378940862
 30
0.0
 10
109.5269494455195
 20
116.4621162128467
 30
0.0
 10
107.87697321101
 20
116.4208369750784
 30
0.0
  0
SPLINE
  5
174
330
1F
100
AcDbEntity
  8
0
  6
HIDDEN
 62
     7
370
     0
100
AcDbSpline
210
0.0
220
0.0
230
1.0
 70
     8
 71
     3
 72
     8
 73
     4
 74
     0
 42
0.00000001
 43
0.00000001
 12
1.0
 22
0.0
 32
0.0
 13
1.0
 23
0.0
 33
0.0
 40
0.0
 40
0.0
 40
0.0
 40
0.0
 40
1.0
 40
1.0
 40
1.0
 40
1.0
 10
106.3769732110078
 20
109.5536387452616
 30
0.0
 10
106.8437338223856
 20
109.1382754996386
 30
0.0
 10
107.3494813691656
 20
108.793685070334
 30
0.0
 10
107.87697321101
 20
108.4904151814054
 30
0.0
  0
SPLINE
  5
175
330
1F
100
AcDbEntity
  8
0
  6
HIDDEN
 62
     7
370
     0
100
AcDbSpline
210
0.0
220
0.0
230
1.0
 70
     8
 71
     3
 72
     8
 73
     4
 74
     0
 42
0.00000001
 43
0.00000001
 12
1.0
 22
0.0
 32
0.0
 13
1.0
 23
0.0
 33
0.0
 40
0.0
 40
0.0
 40
0.0
 40
0.0
 40
1.0
 40
1.0
 40
1.0
 40
1.0
 10
107.87697321101
 20
116.4208369750785
 30
0.0
 10
107.3494813691665
 20
116.1175670861504
 30
0.0
 10
106.8437338223872
 20
115.7729766568464
 30
0.0
 10
106.37697321101
 20
115.3576134112243
 30
0.0
  0
LINE
  5
176
330
1F
100
AcDbEntity
  8
0
  6
HIDDEN
 62
     7
370
     0
100
AcDbLine
 10
106.376973211
 20
109.5536387453
 30
0.0
 11
106.376973211
 21
115.3576134112
 31
0.0
  0
LINE
  5
177
330
1F
100
AcDbEntity
  8
0
  6
HIDDEN
 62
     7
370
     0
100
AcDbLine
 10
112.826973211
 20
108.3696650251
 30
0.0
 11
112.826973211
 21
116.5415871313
 31
0.0
  0
SPLINE
  5
178
330
1F
100
AcDbEntity
  8
0
  6
HIDDEN
 62
     7
370
     0
100
AcDbSpline
210
0.0
220
0.0
230
1.0
 70
     8
 71
     3
 72
    24
 73
    20
 74
     0
 42
0.00000001
 43
0.00000001
 12
1.0
 22
0.0
 32
0.0
 13
1.0
 23
0.0
 33
0.0
 40
0.0
 40
0.0
 40
0.0
 40
0.0
 40
0.1249999999999998
 40
0.1249999999999998
 40
0.2499999999999996
 40
0.2499999999999996
 40
0.3749999999999993
 40
0.3749999999999993
 40
0.4374999999999994
 40
0.4374999999999994
 40
0.4999999999999994
 40
0.4999999999999994
 40
0.6249999999999996
 40
0.6249999999999996
 40
0.7499999999999997
 40
0.7499999999999997
 40
0.8749999999999998
 40
0.8749999999999998
 40
1.0
 40
1.0
 40
1.0
 40
1.0
 10
112.82697321101
 20
108.3696650251427
 30
0.0
 10
113.0647768432851
 20
108.6686721274728
 30
0.0
 10
113.2948625044964
 20
108.9730099787916
 30
0.0
 10
113.7296159031062
 20
109.5987435161875
 30
0.0
 10
113.9345486953924
 20
109.9199682435151
 30
0.0
 10
114.299650645891
 20
110.5918940142478
 30
0.0
 10
114.4614510316825
 20
110.9472092461267
 30
0.0
 10
114.6333112362623
 20
111.4974404674791
 30
0.0
 10
114.6788964279224
 20
111.6838442524596
 30
0.0
 10
114.7413711674972
 20
112.0639787545559
 30
0.0
 10
114.7580423132457
 20
112.2596485468417
 30
0.0
 10
114.7585633564222
 20
112.8381289255161
 30
0.0
 10
114.6941210555355
 20
113.2160407644849
 30
0.0
 10
114.4642719621622
 20
113.9580087895834
 30
0.0
 10
114.3057512844991
 20
114.3067242497443
 30
0.0
 10
113.9415169545989
 20
114.9798166474775
 30
0.0
 10
113.7347807145353
 20
115.3047691347191
 30
0.0
 10
113.296842768795
 20
115.9356929451809
 30
0.0
 10
113.0655700415154
 20
116.2415826855215
 30
0.0
 10
112.8269732110101
 20
116.541587131341
 30
0.0
  0
SPLINE
  5
179
330
1F
100
AcDbEntity
  8
0
  6
HIDDEN
 62
     7
370
     0
100
AcDbSpline
210
0.0
220
0.0
230
1.0
 70
     8
 71
     3
 72
    72
 73
    68
 74
     0
 42
0.00000001
 43
0.00000001
 12
1.0
 22
0.0
 32
0.0
 13
1.0
 23
0.0
 33
0.0
 40
-0.03125
 40
-0.03125
 40
0.0
 40
0.0
 40
0.03125
 40
0.03125
 40
0.0624999999999999
 40
0.0624999999999999
 40
0.0937499999999999
 40
0.0937499999999999
 40
0.1249999999999999
 40
0.1249999999999999
 40
0.1562499999999998
 40
0.1562499999999998
 40
0.1874999999999998
 40
0.1874999999999998
 40
0.2187499999999998
 40
0.2187499999999998
 40
0.2499999999999997
 40
0.2499999999999997
 40
0.2812499999999997
 40
0.2812499999999997
 40
0.3124999999999997
 40
0.3124999999999997
 40
0.3437499999999996
 40
0.3437499999999996
 40
0.3749999999999996
 40
0.3749999999999996
 40
0.3906249999999996
 40
0.3906249999999996
 40
0.4062499999999996
 40
0.4062499999999996
 40
0.4374999999999996
 40
0.4374999999999996
 40
0.4687499999999996
 40
0.4687499999999996
 40
0.4999999999999996
 40
0.4999999999999996
 40
0.5312499999999996
 40
0.5312499999999996
 40
0.5624999999999994
 40
0.5624999999999994
 40
0.5937499999999994
 40
0.5937499999999994
 40
0.6249999999999994
 40
0.6249999999999994
 40
0.6562499999999993
 40
0.6562499999999993
 40
0.6874999999999993
 40
0.6874999999999993
 40
0.7187499999999994
 40
0.7187499999999994
 40
0.7499999999999994
 40
0.7499999999999994
 40
0.7812499999999996
 40
0.7812499999999996
 40
0.8124999999999997
 40
0.8124999999999997
 40
0.8437499999999998
 40
0.8437499999999998
 40
0.8749999999999998
 40
0.8749999999999998
 40
0.9062499999999999
 40
0.9062499999999999
 40
0.9375
 40
0.9375
 40
0.96875
 40
0.96875
 40
1.0
 40
1.0
 40
1.03125
 40
1.03125
 10
125.5009195298352
 20
114.8964597280568
 30
0.0
 10
125.875349749709
 20
115.3068155285419
 30
0.0
 10
126.0802023509747
 20
115.4904646112004
 30
0.0
 10
126.5230705478216
 20
115.8174195146957
 30
0.0
 10
126.7630259651399
 20
115.9611977228756
 30
0.0
 10
127.2586369479145
 20
116.1987150783215
 30
0.0
 10
127.515903239069
 20
116.2940346432192
 30
0.0
 10
128.049257006906
 20
116.4381201758537
 30
0.0
 10
128.3235371468043
 20
116.4858561828232
 30
0.0
 10
128.8699656813839
 20
116.5314383233571
 30
0.0
 10
129.1445419998517
 20
116.5300045632848
 30
0.0
 10
129.6965091741224
 20
116.477091255194
 30
0.0
 10
129.967126136694
 20
116.4261215289898
 30
0.0
 10
130.4934113077732
 20
116.2775149020462
 30
0.0
 10
130.7510428711809
 20
116.1792295312891
 30
0.0
 10
131.2469690358544
 20
115.9349761721034
 30
0.0
 10
131.479952713646
 20
115.7918960410812
 30
0.0
 10
131.916285988971
 20
115.4640374906124
 30
0.0
 10
132.1215672428293
 20
115.2770438529122
 30
0.0
 10
132.4896015406895
 20
114.8676132330892
 30
0.0
 10
132.6511165306747
 20
114.6475077921047
 30
0.0
 10
132.9282742138218
 20
114.1757577106667
 30
0.0
 10
133.0446683932555
 20
113.9207411842254
 30
0.0
 10
133.2179424299021
 20
113.3995033608284
 30
0.0
 10
133.2763889843679
 20
113.1320192430475
 30
0.0
 10
133.3202537098438
 20
112.720103583715
 30
0.0
 10
133.3274339264732
 20
112.5803962806395
 30
0.0
 10
133.3264658991777
 20
112.3042732251771
 30
0.0
 10
133.3184631097641
 20
112.1670966588463
 30
0.0
 10
133.2723903778517
 20
111.7581632175831
 30
0.0
 10
133.2114555453996
 20
111.4862369685788
 30
0.0
 10
133.0333353889911
 20
110.9630564521238
 30
0.0
 10
132.9177674776487
 20
110.7143444517604
 30
0.0
 10
132.6359206937094
 20
110.2414599267684
 30
0.0
 10
132.4690507482948
 20
110.0178507095363
 30
0.0
 10
132.099725193496
 20
109.6131933213487
 30
0.0
 10
131.8949400371986
 20
109.4287797331791
 30
0.0
 10
131.4502870896823
 20
109.0997536982847
 30
0.0
 10
131.2154379601715
 20
108.9585856222965
 30
0.0
 10
130.7220281976945
 20
108.720176093516
 30
0.0
 10
130.4607412439898
 20
108.6223935371111
 30
0.0
 10
129.9300029634772
 20
108.477065508921
 30
0.0
 10
129.6603632625799
 20
108.428776118726
 30
0.0
 10
129.1126119228347
 20
108.3803608949394
 30
0.0
 10
128.8327078809761
 20
108.3808190805753
 30
0.0
 10
128.2856299731411
 20
108.4309709361775
 30
0.0
 10
128.0160248684537
 20
108.4801445032096
 30
0.0
 10
127.4848701117976
 20
108.6278190265166
 30
0.0
 10
127.2235752953541
 20
108.7269741908822
 30
0.0
 10
126.7312613171786
 20
108.9679869613589
 30
0.0
 10
126.4973044416
 20
109.1104750859836
 30
0.0
 10
126.0551358210696
 20
109.4419625149686
 30
0.0
 10
125.8499422899579
 20
109.6293961429569
 30
0.0
 10
125.4842480735999
 20
110.0362998620074
 30
0.0
 10
125.3214774512116
 20
110.2574789366763
 30
0.0
 10
125.040525020446
 20
110.7372262658916
 30
0.0
 10
124.9273211681725
 20
110.9872382327019
 30
0.0
 10
124.7547124440336
 20
111.5073134427223
 30
0.0
 10
124.6951061613572
 20
111.7810449073521
 30
0.0
 10
124.6372143912874
 20
112.3296625572506
 30
0.0
 10
124.6380039301473
 20
112.6040024211421
 30
0.0
 10
124.6991944057637
 20
113.1527443722811
 30
0.0
 10
124.7603231294977
 20
113.4258096861382
 30
0.0
 10
124.9364028151276
 20
113.9459749349066
 30
0.0
 10
125.0527334101175
 20
114.1982940684655
 30
0.0
 10
125.3359346398582
 20
114.6746984098725
 30
0.0
 10
125.5009195298352
 20
114.8964597280568
 30
0.0
 10
125.875349749709
 20
115.3068155285419
 30
0.0
  0
CIRCLE
  5
17A
330
1F
100
AcDbEntity
  8
0
  6
HIDDEN
 62
     7
370
     0
100
AcDbCircle
 10
128.876973211
 20
112.4556260782
 30
0.0
 40
4.050000000000011
  0
CIRCLE
  5
17B
330
1F
100
AcDbEntity
  8
0
  6
HIDDEN
 62
     7
370
     0
100
AcDbCircle
 10
156.376973211
 20
112.4556260782
 30
0.0
 40
1.999999999999986
  0
LINE
  5
17C
330
1F
100
AcDbEntity
  8
0
  6
HIDDEN
 62
     7
370
     0
100
AcDbLine
 10
144.376973211
 20
88.2056260782
 30
0.0
 11
144.4698664298
 21
88.2985192971
 31
0.0
  0
LINE
  5
17D
330
1F
100
AcDbEntity
  8
0
  6
HIDDEN
 62
     7
370
     0
100
AcDbLine
 10
144.4698664298
 20
136.6127328594
 30
0.0
 11
144.376973211
 21
136.7056260782
 31
0.0
  0
ARC
  5
17E
330
1F
100
AcDbEntity
  8
0
  6
HIDDEN
 62
     7
370
     0
100
AcDbCircle
 10
143.7627596486
 20
89.0056260782
 30
0.0
 40
1.0
100
AcDbArc
 50
315.0
 51
0.0
  0
ARC
  5
17F
330
1F
100
AcDbEntity
  8
0
  6
HIDDEN
 62
     7
370
     0
100
AcDbCircle
 10
143.7627596486
 20
89.0056260782
 30
0.0
 40
1.00000000000001
100
AcDbArc
 50
0.0
 51
52.1052014664
  0
ARC
  5
180
330
1F
100
AcDbEntity
  8
0
  6
HIDDEN
 62
     7
370
     0
100
AcDbCircle
 10
143.7627596486
 20
135.9056260782
 30
0.0
 40
1.000000000000028
100
AcDbArc
 50
351.8087250651
 51
45.0
  0
ARC
  5
181
330
1F
100
AcDbEntity
  8
0
  6
HIDDEN
 62
     7
370
     0
100
AcDbCircle
 10
143.7627596486
 20
135.9056260782
 30
0.0
 40
0.9999999999999989
100
AcDbArc
 50
307.8947985336
 51
351.8087250651
  0
LINE
  5
182
330
1F
100
AcDbEntity
  8
0
  6
HIDDEN
 62
     7
370
     0
100
AcDbLine
 10
144.7627596486
 20
89.0056260782
 30
0.0
 11
144.7627596486
 21
135.9056260782
 31
0.0
  0
LINE
  5
183
330
1F
100
AcDbEntity
  8
0
  6
HIDDEN
 62
     7
370
     0
100
AcDbLine
 10
144.7627596486
 20
89.0056260782
 30
0.0
 11
144.7627596486
 21
135.9056260782
 31
0.0
  0
LINE
  5
184
330
1F
100
AcDbEntity
  8
0
  6
HIDDEN
 62
     7
370
     0
100
AcDbLine
 10
106.376973211
 20
96.2591972338
 30
0.0
 11
107.9072016507
 21
97.1426750353
 31
0.0
  0
LINE
  5
185
330
1F
100
AcDbEntity
  8
0
  6
HIDDEN
 62
     7
370
     0
100
AcDbLine
 10
107.9072016507
 20
127.7685771212
 30
0.0
 11
106.376973211
 21
128.6520549227
 31
0.0
  0
ARC
  5
186
330
1F
100
AcDbEntity
  8
0
  6
HIDDEN
 62
     7
370
     0
100
AcDbCircle
 10
117.3787745259
 20
98.4556260782
 30
0.0
 40
2.000000000000016
100
AcDbArc
 50
270.0
 51
315.0
  0
ARC
  5
187
330
1F
100
AcDbEntity
  8
0
  6
HIDDEN
 62
     7
370
     0
100
AcDbCircle
 10
117.3787745259
 20
126.4556260782
 30
0.0
 40
2.000000000000026
100
AcDbArc
 50
45.0
 51
90.0
  0
LINE
  5
188
330
1F
100
AcDbEntity
  8
0
  6
HIDDEN
 62
     7
370
     0
100
AcDbLine
 10
116.376973211
 20
96.4556260782
 30
0.0
 11
117.3787745259
 21
96.4556260782
 31
0.0
  0
LINE
  5
189
330
1F
100
AcDbEntity
  8
0
  6
HIDDEN
 62
     7
370
     0
100
AcDbLine
 10
117.3787745259
 20
128.4556260782
 30
0.0
 11
116.376973211
 21
128.4556260782
 31
0.0
  0
ARC
  5
18A
330
1F
100
AcDbEntity
  8
0
  6
HIDDEN
 62
     7
370
     0
100
AcDbCircle
 10
116.376973211
 20
98.4556260782
 30
0.0
 40
2.000000000000006
100
AcDbArc
 50
189.9742217944
 51
270.0
  0
ARC
  5
18B
330
1F
100
AcDbEntity
  8
0
  6
HIDDEN
 62
     7
370
     0
100
AcDbCircle
 10
116.376973211
 20
126.4556260782
 30
0.0
 40
2.000000000000006
100
AcDbArc
 50
90.0
 51
170.0257782056
  0
LINE
  5
18C
330
1F
100
AcDbEntity
  8
0
  6
HIDDEN
 62
     7
370
     0
100
AcDbLine
 10
118.7929880883
 20
97.0414125159
 30
0.0
 11
120.2072016507
 21
98.4556260782
 31
0.0
  0
LINE
  5
18D
330
1F
100
AcDbEntity
  8
0
  6
HIDDEN
 62
     7
370
     0
100
AcDbLine
 10
120.2072016507
 20
126.4556260782
 30
0.0
 11
118.7929880883
 21
127.8698396406
 31
0.0
  0
LINE
  5
18E
330
1F
100
AcDbEntity
  8
0
  6
HIDDEN
 62
     7
370
     0
100
AcDbLine
 10
107.9072016507
 20
97.1426750353
 30
0.0
 11
112.8072016507
 21
98.4556260782
 31
0.0
  0
LINE
  5
18F
330
1F
100
AcDbEntity
  8
0
  6
HIDDEN
 62
     7
370
     0
100
AcDbLine
 10
112.8072016507
 20
126.4556260782
 30
0.0
 11
107.9072016507
 21
127.7685771212
 31
0.0
  0
LINE
  5
190
330
1F
100
AcDbEntity
  8
0
  6
HIDDEN
 62
     7
370
     0
100
AcDbLine
 10
114.4072016507
 20
126.8020362398
 30
0.0
 11
113.8072016507
 21
126.4556260782
 31
0.0
  0
LINE
  5
191
330
1F
100
AcDbEntity
  8
0
  6
HIDDEN
 62
     7
370
     0
100
AcDbLine
 10
113.8072016507
 20
98.4556260782
 30
0.0
 11
114.4072016507
 21
98.1092159167
 31
0.0
  0
ARC
  5
192
330
1F
100
AcDbEntity
  8
0
  6
HIDDEN
 62
     7
370
     0
100
AcDbCircle
 10
132.876973211
 20
98.9556260782
 30
0.0
 40
0.5000000000000142
100
AcDbArc
 50
270.0
 51
0.0
  0
ARC
  5
193
330
1F
100
AcDbEntity
  8
0
  6
HIDDEN
 62
     7
370
     0
100
AcDbCircle
 10
132.876973211
 20
125.9556260782
 30
0.0
 40
0.5
100
AcDbArc
 50
0.0
 51
90.0
  0
LINE
  5
194
330
1F
100
AcDbEntity
  8
0
  6
HIDDEN
 62
     7
370
     0
100
AcDbLine
 10
120.2072016507
 20
98.4556260782
 30
0.0
 11
132.876973211
 21
98.4556260782
 31
0.0
  0
LINE
  5
195
330
1F
100
AcDbEntity
  8
0
  6
HIDDEN
 62
     7
370
     0
100
AcDbLine
 10
132.876973211
 20
126.4556260782
 30
0.0
 11
120.2072016507
 21
126.4556260782
 31
0.0
  0
LINE
  5
196
330
1F
100
AcDbEntity
  8
0
  6
HIDDEN
 62
     7
370
     0
100
AcDbLine
 10
112.8072016507
 20
98.4556260782
 30
0.0
 11
113.8072016507
 21
98.4556260782
 31
0.0
  0
LINE
  5
197
330
1F
100
AcDbEntity
  8
0
  6
HIDDEN
 62
     7
370
     0
100
AcDbLine
 10
113.8072016507
 20
126.4556260782
 30
0.0
 11
112.8072016507
 21
126.4556260782
 31
0.0
  0
LINE
  5
198
330
1F
100
AcDbEntity
  8
0
  6
HIDDEN
 62
     7
370
     0
100
AcDbLine
 10
225.276973211
 20
116.4728470051
 30
0.0
 11
225.276973211
 21
113.7687766595
 31
0.0
  0
LINE
  5
199
330
1F
100
AcDbEntity
  8
0
  6
HIDDEN
 62
     7
370
     0
100
AcDbLine
 10
229.476973211
 20
116.2579554975
 30
0.0
 11
229.476973211
 21
116.4728470051
 31
0.0
  0
LINE
  5
19A
330
1F
100
AcDbEntity
  8
0
  6
HIDDEN
 62
     7
370
     0
100
AcDbLine
 10
229.476973211
 20
113.7687056859
 30
0.0
 11
229.476973211
 21
115.0564447435
 31
0.0
  0
LINE
  5
19B
330
1F
100
AcDbEntity
  8
0
  6
HIDDEN
 62
     7
370
     0
100
AcDbLine
 10
234.3643690359
 20
121.0067362972
 30
0.0
 11
227.3732333965
 21
117.8615343497
 31
0.0
  0
LINE
  5
19C
330
1F
100
AcDbEntity
  8
0
  6
HIDDEN
 62
     7
370
     0
100
AcDbLine
 10
228.5227911103
 20
113.7732421642
 30
0.0
 11
234.3388558362
 21
116.3897981926
 31
0.0
  0
LINE
  5
19D
330
1F
100
AcDbEntity
  8
0
  6
HIDDEN
 62
     7
370
     0
100
AcDbLine
 10
133.376973211
 20
102.2056260782
 30
0.0
 11
134.626973211
 21
103.4556260782
 31
0.0
  0
LINE
  5
19E
330
1F
100
AcDbEntity
  8
0
  6
HIDDEN
 62
     7
370
     0
100
AcDbLine
 10
134.626973211
 20
121.4556260782
 30
0.0
 11
133.376973211
 21
122.7056260782
 31
0.0
  0
LINE
  5
19F
330
1F
100
AcDbEntity
  8
0
  6
HIDDEN
 62
     7
370
     0
100
AcDbLine
 10
160.376973211
 20
103.4556260782
 30
0.0
 11
163.2310611514
 21
108.2056260782
 31
0.0
  0
LINE
  5
1A0
330
1F
100
AcDbEntity
  8
0
  6
HIDDEN
 62
     7
370
     0
100
AcDbLine
 10
163.2310611514
 20
116.7056260782
 30
0.0
 11
160.376973211
 21
121.4556260782
 31
0.0
  0
LINE
  5
1A1
330
1F
100
AcDbEntity
  8
0
  6
HIDDEN
 62
     7
370
     0
100
AcDbLine
 10
134.626973211
 20
103.4556260782
 30
0.0
 11
160.376973211
 21
103.4556260782
 31
0.0
  0
LINE
  5
1A2
330
1F
100
AcDbEntity
  8
0
  6
HIDDEN
 62
     7
370
     0
100
AcDbLine
 10
160.376973211
 20
121.4556260782
 30
0.0
 11
134.626973211
 21
121.4556260782
 31
0.0
  0
LINE
  5
1A3
330
1F
100
AcDbEntity
  8
0
  6
HIDDEN
 62
     7
370
     0
100
AcDbLine
 10
230.376973211
 20
116.7056260782
 30
0.0
 11
163.2310611514
 21
116.7056260782
 31
0.0
  0
LINE
  5
1A4
330
1F
100
AcDbEntity
  8
0
  6
HIDDEN
 62
     7
370
     0
100
AcDbLine
 10
163.2310611514
 20
108.2056260782
 30
0.0
 11
230.376973211
 21
108.2056260782
 31
0.0
  0
LINE
  5
1A5
330
1F
100
AcDbEntity
  8
0
  6
HIDDEN
 62
     7
370
     0
100
AcDbLine
 10
230.376973211
 20
108.2056260782
 30
0.0
 11
232.9306308419
 21
112.4556260782
 31
0.0
  0
LINE
  5
1A6
330
1F
100
AcDbEntity
  8
0
  6
HIDDEN
 62
     7
370
     0
100
AcDbLine
 10
232.9306308419
 20
112.4556260782
 30
0.0
 11
230.376973211
 21
116.7056260782
 31
0.0
  0
ARC
  5
1A7
330
1F
100
AcDbEntity
  8
0
  6
HIDDEN
 62
     7
370
     0
100
AcDbCircle
 10
242.9627596486
 20
129.4556260782
 30
0.0
 40
1.000000000000016
100
AcDbArc
 50
270.0
 51
290.335377491
  0
LINE
  5
1A8
330
1F
100
AcDbEntity
  8
0
  6
HIDDEN
 62
     7
370
     0
100
AcDbLine
 10
253.1287193283
 20
121.3728706536
 30
0.0
 11
253.1287193283
 21
121.268235943
 31
0.0
  0
LINE
  5
1A9
330
1F
100
AcDbEntity
  8
0
  6
HIDDEN
 62
     7
370
     0
100
AcDbLine
 10
225.276973211
 20
111.1425464706
 30
0.0
 11
225.276973211
 21
109.4397265915
 31
0.0
  0
LINE
  5
1AA
330
1F
100
AcDbEntity
  8
0
  6
HIDDEN
 62
     7
370
     0
100
AcDbLine
 10
229.476973211
 20
109.4397265915
 30
0.0
 11
229.476973211
 21
111.1445838373
 31
0.0
  0
LINE
  5
1AB
330
1F
100
AcDbEntity
  8
0
  6
HIDDEN
 62
     7
370
     0
100
AcDbLine
 10
260.5556920068
 20
126.9725631985
 30
0.0
 11
260.5556920068
 21
126.367331604
 31
0.0
  0
LINE
  5
1AC
330
1F
100
AcDbEntity
  8
0
  6
HIDDEN
 62
     7
370
     0
100
AcDbLine
 10
263.8556920068
 20
126.3673416999
 30
0.0
 11
263.8556920068
 21
126.9725631985
 31
0.0
  0
LINE
  5
1AD
330
1F
100
AcDbEntity
  8
0
  6
HIDDEN
 62
     7
370
     0
100
AcDbLine
 10
224.876973211
 20
109.3654561345
 30
0.0
 11
224.876973211
 21
107.5113916286
 31
0.0
  0
LINE
  5
1AE
330
1F
100
AcDbEntity
  8
0
  6
HIDDEN
 62
     7
370
     0
100
AcDbLine
 10
229.876973211
 20
107.5115646472
 30
0.0
 11
229.876973211
 21
109.3654561345
 31
0.0
  0
LINE
  5
1AF
330
1F
100
AcDbEntity
  8
VERMASSUNG
  6
CENTERX2
100
AcDbLine
 10
102.0407407262
 20
112.4556260782
 30
0.0
 11
269.376973211
 21
112.4556260782
 31
0.0
  0
LINE
  5
1B0
330
1F
100
AcDbEntity
  8
VERMASSUNG
  6
CENTERX2
100
AcDbLine
 10
269.376973211
 20
112.4556260782
 30
0.0
 11
269.376973211
 21
134.4556260782
 31
0.0
  0
LINE
  5
1B1
330
1F
100
AcDbEntity
  8
VERMASSUNG
  6
CENTERX2
100
AcDbLine
 10
269.376973211
 20
134.4556260782
 30
0.0
 11
279.1661570484
 21
134.4556260782
 31
0.0
  0
DIMENSION
  5
1B2
330
1F
100
AcDbEntity
  8
VERMASSUNG
100
AcDbDimension
  2
_D
 10
284.2468102497
 20
134.4556260782
 30
0.0
 11
284.2468102497
 21
123.4556260782
 31
0.0
 70
   160
  1
<>
 71
     2
 42
-1.0
  3
SLDDIMSTYLE0
100
AcDbAlignedDimension
 13
269.376973211
 23
112.4556260782
 33
0.0
 14
269.376973211
 24
134.4556260782
 34
0.0
 50
90.0
100
AcDbRotatedDimension
  0
DIMENSION
  5
1BD
330
1F
100
AcDbEntity
  8
VERMASSUNG
100
AcDbDimension
  2
_D_1
 10
279.1661570484
 20
134.4556260782
 30
0.0
 11
275.1533855359
 21
126.7704326839
 31
0.0
 70
   162
  1
<>
 71
     1
 42
-1.0
  3
SLDDIMSTYLE1
100
AcDb2LineAngularDimension
 13
269.3610734779
 23
133.944879869
 33
0.0
 14
266.1550966423
 24
123.8015892827
 34
0.0
 15
269.376973211
 25
134.4556260782
 35
0.0
 16
275.1533855359
 26
126.7704326839
 36
0.0
  0
DIMENSION
  5
1C6
330
1F
100
AcDbEntity
  8
VERMASSUNG
100
AcDbDimension
  2
_D_2
 10
269.376973211
 20
153.9556260782
 30
0.0
 11
206.876973211
 21
153.9556260782
 31
0.0
 70
   160
  1
<>
 71
     2
 42
-1.0
  3
SLDDIMSTYLE0
100
AcDbAlignedDimension
 13
144.376973211
 23
143.4556260782
 33
0.0
 14
269.376973211
 24
134.4556260782
 34
0.0
100
AcDbRotatedDimension
  0
DIMENSION
  5
1D0
330
1F
100
AcDbEntity
  8
VERMASSUNG
100
AcDbDimension
  2
_D_3
 10
106.376973211
 20
162.1952076354
 30
0.0
 11
187.876973211
 21
162.1952076354
 31
0.0
 70
   160
  1
<>
 71
     2
 42
-1.0
  3
SLDDIMSTYLE0
100
AcDbAlignedDimension
 13
269.376973211
 23
134.4556260782
 33
0.0
 14
106.376973211
 24
132.7479640707
 34
0.0
100
AcDbRotatedDimension
  0
DIMENSION
  5
1DA
330
1F
100
AcDbEntity
  8
VERMASSUNG
100
AcDbDimension
  2
_D_4
 10
187.876973211
 20
128.4556260782
 30
0.0
 11
187.876973211
 21
121.0744589912
 31
0.0
 70
   160
  1
%%c<>
 71
     2
 42
-1.0
  3
SLDDIMSTYLE0
100
AcDbAlignedDimension
 13
170.376973211
 23
96.4556260782
 33
0.0
 14
170.376973211
 24
128.4556260782
 34
0.0
 50
90.0
100
AcDbRotatedDimension
  0
DIMENSION
  5
1E3
330
1F
100
AcDbEntity
  8
VERMASSUNG
100
AcDbDimension
  2
_D_5
 10
99.1133749839
 20
80.9556260782
 30
0.0
 11
99.1133749839
 21
112.4556260782
 31
0.0
 70
   160
  1
PSC%%c<>
 71
     2
 42
-1.0
  3
SLDDIMSTYLE0
100
AcDbAlignedDimension
 13
144.876973211
 23
143.9556260782
 33
0.0
 14
144.876973211
 24
80.9556260782
 34
0.0
 50
90.0
100
AcDbRotatedDimension
  0
SPLINE
  5
1EF
330
1F
100
AcDbEntity
  8
0
  6
Continuous
 62
     7
370
    15
100
AcDbSpline
210
0.0
220
0.0
230
1.0
 70
     8
 71
     3
 72
    14
 73
    10
 74
     0
 42
0.00000001
 43
0.00000001
 12
1.0
 22
0.0
 32
0.0
 13
1.0
 23
0.0
 33
0.0
 40
0.0
 40
0.0
 40
0.0
 40
0.0
 40
0.1588496346985167
 40
0.3173316248491931
 40
0.4720169663455823
 40
0.6236402910640718
 40
0.7746571544582685
 40
0.9277352132707353
 40
1.0
 40
1.0
 40
1.0
 40
1.0
 10
49.11708319608032
 20
133.9448793458878
 30
0.0
 10
49.12022896102371
 20
133.9898658736696
 30
0.0
 10
49.12651321029362
 20
134.0797348115769
 30
0.0
 10
49.13602396679665
 20
134.2157453083406
 30
0.0
 10
49.14411081156938
 20
134.3313941937514
 30
0.0
 10
49.14998204353201
 20
134.4153543591283
 30
0.0
 10
49.1530655168521
 20
134.4594497841692
 30
0.0
 10
49.1532223088915
 20
134.4616939322824
 30
0.0
 10
49.15206127078444
 20
134.4450901668755
 30
0.0
 10
49.15168893958843
 20
134.439765535587
 30
0.0
  0
SPLINE
  5
1F0
330
1F
100
AcDbEntity
  8
0
  6
Continuous
 62
     7
370
    15
100
AcDbSpline
210
0.0
220
0.0
230
1.0
 70
     8
 71
     3
 72
    10
 73
     6
 74
     0
 42
0.00000001
 43
0.00000001
 12
1.0
 22
0.0
 32
0.0
 13
1.0
 23
0.0
 33
0.0
 40
0.0
 40
0.0
 40
0.0
 40
0.0
 40
0.2789471457226
 40
0.5613893721587673
 40
1.0
 40
1.0
 40
1.0
 40
1.0
 10
49.15168893958843
 20
134.439765535587
 30
0.0
 10
49.51438616345142
 20
134.3553477543015
 30
0.0
 10
50.24432504223334
 20
134.1854544753719
 30
0.0
 10
51.56374392119007
 20
133.9401174871131
 30
0.0
 10
52.50147116308823
 20
133.7217220324263
 30
0.0
 10
53.07188307099886
 20
133.5888738411604
 30
0.0
  0
SPLINE
  5
1F1
330
1F
100
AcDbEntity
  8
0
  6
Continuous
 62
     7
370
    15
100
AcDbSpline
210
0.0
220
0.0
230
1.0
 70
     8
 71
     3
 72
    14
 73
    10
 74
     0
 42
0.00000001
 43
0.00000001
 12
1.0
 22
0.0
 32
0.0
 13
1.0
 23
0.0
 33
0.0
 40
0.0
 40
0.0
 40
0.0
 40
0.0
 40
0.15832305320538
 40
0.3168013198087192
 40
0.4713931962785675
 40
0.6221175613512769
 40
0.7721230505790805
 40
0.9245841568439377
 40
1.0
 40
1.0
 40
1.0
 40
1.0
 10
53.07188307099886
 20
133.5888738411604
 30
0.0
 10
53.07205094189425
 20
133.5912739194385
 30
0.0
 10
53.07238684825872
 20
133.5960764289324
 30
0.0
 10
53.07186434283548
 20
133.5886008649937
 30
0.0
 10
53.07063541371456
 20
133.5710333409338
 30
0.0
 10
53.06881224141343
 20
133.5449529783363
 30
0.0
 10
53.06662532253019
 20
133.5136861945638
 30
0.0
 10
53.06467758958765
 20
133.4858279384256
 30
0.0
 10
53.06356592692519
 20
133.4699302687714
 30
0.0
 10
53.06319802232928
 20
133.4646689373194
 30
0.0
  0
LINE
  5
1F2
330
1F
100
AcDbEntity
  8
0
  6
Continuous
 62
     7
370
    15
100
AcDbLine
 10
52.3849192837
 20
123.7648316327
 30
0.0
 11
53.0631980223
 21
133.4646689373
 31
0.0
  0
LINE
  5
1F3
330
1F
100
AcDbEntity
  8
0
  6
Continuous
 62
     7
370
    15
100
AcDbLine
 10
48.4077952283
 20
123.801589072
 30
0.0
 11
49.1170831961
 21
133.9448793459
 31
0.0
  0
SPLINE
  5
1F4
330
1F
100
AcDbEntity
  8
0
  6
Continuous
 62
     7
370
    15
100
AcDbSpline
210
0.0
220
0.0
230
1.0
 70
     8
 71
     3
 72
    10
 73
     6
 74
     0
 42
0.00000001
 43
0.00000001
 12
1.0
 22
0.0
 32
0.0
 13
1.0
 23
0.0
 33
0.0
 40
0.0
 40
0.0
 40
0.0
 40
0.0
 40
0.2657172314664418
 40
0.6165237520330511
 40
1.0
 40
1.0
 40
1.0
 40
1.0
 10
52.38491928369648
 20
123.7648316326677
 30
0.0
 10
52.38437422519711
 20
123.7570369752045
 30
0.0
 10
52.38310956686367
 20
123.7389516164249
 30
0.0
 10
52.38139786685673
 20
123.7144749995806
 30
0.0
 10
52.38074099443197
 20
123.7050806989633
 30
0.0
 10
52.38039794542737
 20
123.700174562925
 30
0.0
  0
SPLINE
  5
1F5
330
1F
100
AcDbEntity
  8
0
  6
Continuous
 62
     7
370
    15
100
AcDbSpline
210
0.0
220
0.0
230
1.0
 70
     8
 71
     3
 72
    10
 73
     6
 74
     0
 42
0.00000001
 43
0.00000001
 12
1.0
 22
0.0
 32
0.0
 13
1.0
 23
0.0
 33
0.0
 40
0.0
 40
0.0
 40
0.0
 40
0.0
 40
0.3518049947670181
 40
0.7034264592363386
 40
1.0
 40
1.0
 40
1.0
 40
1.0
 10
48.38971074835307
 20
123.542969174975
 30
0.0
 10
48.39094333154875
 20
123.5605959546854
 30
0.0
 10
48.39340785492374
 20
123.5958403185343
 30
0.0
 10
48.40005729068444
 20
123.6909315915018
 30
0.0
 10
48.40536620210401
 20
123.766852436329
 30
0.0
 10
48.40779522831462
 20
123.8015890720426
 30
0.0
  0
LINE
  5
1F6
330
1F
100
AcDbEntity
  8
0
  6
Continuous
 62
     7
370
    15
100
AcDbLine
 10
48.1660730734
 20
120.3448018658
 30
0.0
 11
48.4685352717
 21
120.3695368621
 31
0.0
  0
LINE
  5
1F7
330
1F
100
AcDbEntity
  8
0
  6
Continuous
 62
     7
370
    15
100
AcDbLine
 10
52.3789211007
 20
123.6790540296
 30
0.0
 11
52.3803979454
 21
123.7001745629
 31
0.0
  0
LINE
  5
1F8
330
1F
100
AcDbEntity
  8
0
  6
Continuous
 62
     7
370
    15
100
AcDbLine
 10
48.1660730734
 20
120.3448018658
 30
0.0
 11
48.3897107484
 21
123.542969175
 31
0.0
  0
LINE
  5
1F9
330
1F
100
AcDbEntity
  8
0
  6
Continuous
 62
     7
370
    15
100
AcDbLine
 10
65.6527979595
 20
113.9556260913
 30
0.0
 11
65.6527979595
 21
112.4556260782
 31
0.0
  0
ARC
  5
1FA
330
1F
100
AcDbEntity
  8
0
  6
Continuous
 62
     7
370
    15
100
AcDbCircle
 10
49.1527980489
 20
112.4556260782
 30
0.0
 40
16.50000000000001
100
AcDbArc
 50
261.7087285136
 51
0.0
  0
LINE
  5
1FB
330
1F
100
AcDbEntity
  8
0
  6
Continuous
 62
     7
370
    15
100
AcDbLine
 10
48.6928027536
 20
123.5767109919
 30
0.0
 11
46.7734081035
 21
96.128088482
 31
0.0
  0
LINE
  5
1FC
330
1F
100
AcDbEntity
  8
0
  6
Continuous
 62
     7
370
    15
100
AcDbLine
 10
48.6928027536
 20
123.5767109919
 30
0.0
 11
50.8723331446
 21
123.6372246075
 31
0.0
  0
LINE
  5
1FD
330
1F
100
AcDbEntity
  8
0
  6
Continuous
 62
     7
370
    15
100
AcDbLine
 10
50.8723331446
 20
123.6372246075
 30
0.0
 11
52.3639631288
 21
123.4651441353
 31
0.0
  0
LINE
  5
1FE
330
1F
100
AcDbEntity
  8
0
  6
Continuous
 62
     7
370
    15
100
AcDbLine
 10
52.3789211007
 20
123.6790540296
 30
0.0
 11
52.3639631288
 21
123.4651441353
 31
0.0
  0
LINE
  5
1FF
330
1F
100
AcDbEntity
  8
0
  6
Continuous
 62
     7
370
    15
100
AcDbLine
 10
56.8344015924
 20
132.0631420839
 30
0.0
 11
53.0328653117
 21
133.030890547
 31
0.0
  0
ARC
  5
200
330
1F
100
AcDbEntity
  8
0
  6
Continuous
 62
     7
370
    15
100
AcDbCircle
 10
42.6527980489
 20
113.9556260782
 30
0.0
 40
23.00000000000003
100
AcDbArc
 50
0.0
 51
51.9323507823
  0
LINE
  5
201
330
1F
100
AcDbEntity
  8
0
  6
Continuous
 62
     7
370
    15
100
AcDbLine
 10
53.0562145
 20
133.364801355
 30
0.0
 11
56.153522834
 21
132.5763250369
 31
0.0
  0
ARC
  5
202
330
1F
100
AcDbEntity
  8
0
  6
Continuous
 62
     7
370
    15
100
AcDbCircle
 10
42.6527980489
 20
113.9556260782
 30
0.0
 40
23.00000000000002
100
AcDbArc
 50
51.9323507823
 51
54.0564394646
  0
SPLINE
  5
203
330
1F
100
AcDbEntity
  8
0
  6
Continuous
 62
     7
370
    15
100
AcDbSpline
210
0.0
220
0.0
230
1.0
 70
     8
 71
     3
 72
    10
 73
     6
 74
     0
 42
0.00000001
 43
0.00000001
 12
1.0
 22
0.0
 32
0.0
 13
1.0
 23
0.0
 33
0.0
 40
0.0
 40
0.0
 40
0.0
 40
0.0
 40
0.3780958890419397
 40
0.7563592205615268
 40
1.0
 40
1.0
 40
1.0
 40
1.0
 10
46.79275912397451
 20
128.2806126999794
 30
0.0
 10
47.1059157901587
 20
128.3214990077851
 30
0.0
 10
47.7323678062039
 20
128.4032897301914
 30
0.0
 10
48.41693006869506
 20
128.4411809876237
 30
0.0
 10
48.6438483292604
 20
128.4465243555432
 30
0.0
 10
48.73274714967146
 20
128.4486177045046
 30
0.0
  0
SPLINE
  5
204
330
1F
100
AcDbEntity
  8
0
  6
Continuous
 62
     7
370
    15
100
AcDbSpline
210
0.0
220
0.0
230
1.0
 70
     8
 71
     3
 72
    14
 73
    10
 74
     0
 42
0.00000001
 43
0.00000001
 12
1.0
 22
0.0
 32
0.0
 13
1.0
 23
0.0
 33
0.0
 40
0.0
 40
0.0
 40
0.0
 40
0.0
 40
0.2500000000000001
 40
0.2500000000000001
 40
0.5000000000000001
 40
0.5000000000000001
 40
0.7500000000000002
 40
0.7500000000000002
 40
1.0
 40
1.0
 40
1.0
 40
1.0
 10
46.80838743223598
 20
96.62831617225032
 30
0.0
 10
46.80838743223597
 20
96.62831617225032
 30
0.0
 10
46.75512657796331
 20
96.63593193667982
 30
0.0
 10
46.54282170442045
 20
96.66956974056343
 30
0.0
 10
46.38888825144011
 20
96.69484800718493
 30
0.0
 10
45.98936358061822
 20
96.77015493012327
 30
0.0
 10
45.752353036478
 20
96.81869595736438
 30
0.0
 10
45.21354120385663
 20
96.9456658785363
 30
0.0
 10
44.92133045056718
 20
97.021966065181
 30
0.0
 10
44.61331433304349
 20
97.11310061490508
 30
0.0
  0
ELLIPSE
  5
205
330
1F
100
AcDbEntity
  8
0
  6
Continuous
 62
     7
370
    15
100
AcDbEllipse
 10
40.7744617392
 20
118.6982672449
 30
0.0
 11
1.760196824718157
 21
1.835933670849741
 31
0.0
210
0.0
220
0.0
230
1.0
 40
0.8100956337
 41
0.0
 42
6.283185307179586
  0
ARC
  5
206
330
1F
100
AcDbEntity
  8
0
  6
Continuous
 62
     7
370
    15
100
AcDbCircle
 10
49.1527980489
 20
112.4556260782
 30
0.0
 40
16.00000000000001
100
AcDbArc
 50
98.4822165171
 51
253.5177834829
  0
SPLINE
  5
207
330
1F
100
AcDbEntity
  8
0
  6
Continuous
 62
     7
370
    15
100
AcDbSpline
210
0.0
220
0.0
230
1.0
 70
     8
 71
     3
 72
    15
 73
    11
 74
     0
 42
0.00000001
 43
0.00000001
 12
1.0
 22
0.0
 32
0.0
 13
1.0
 23
0.0
 33
0.0
 40
0.0
 40
0.0
 40
0.0
 40
0.0
 40
0.1117486975720189
 40
0.318662860253382
 40
0.3922104521706946
 40
0.4663946820101789
 40
0.5691535191993443
 40
0.8001624274259985
 40
0.9922997377765506
 40
1.0
 40
1.0
 40
1.0
 40
1.0
 10
38.52643448092885
 20
117.9336673247753
 30
0.0
 10
38.62963246302229
 20
117.9531673246063
 30
0.0
 10
38.92391208203153
 20
118.0087735719817
 30
0.0
 10
39.32604338512495
 20
117.8586635995945
 30
0.0
 10
39.77622789925189
 20
117.6966795817936
 30
0.0
 10
40.11977472791564
 20
117.5894547132293
 30
0.0
 10
40.61395936067607
 20
117.4517535923252
 30
0.0
 10
41.10553803774371
 20
117.2146160524466
 30
0.0
 10
41.45539242026347
 20
116.9379018570613
 30
0.0
 10
41.51586269083897
 20
116.7388584466628
 30
0.0
 10
41.51819276788182
 20
116.7311887855767
 30
0.0
  0
CIRCLE
  5
208
330
1F
100
AcDbEntity
  8
0
  6
Continuous
 62
     7
370
    15
100
AcDbCircle
 10
49.1527980489
 20
112.4556260782
 30
0.0
 40
31.50000000000003
  0
CIRCLE
  5
209
330
1F
100
AcDbEntity
  8
VERMASSUNG
  6
CENTERX2
100
AcDbCircle
 10
49.1409556582
 20
114.2862720004
 30
0.0
 40
19.99999999999999
  0
DIMENSION
  5
20A
330
1F
100
AcDbEntity
  8
VERMASSUNG
100
AcDbDimension
  2
_D_6
 10
36.6939333778
 20
129.9410360149
 30
0.0
 11
24.5008989276
 21
145.2763565953
 31
0.0
 70
   160
  1
%%c<> min. 
 71
     2
 42
-1.0
  3
SLDDIMSTYLE2
100
AcDbAlignedDimension
 13
61.5879779385
 23
98.6315079858
 33
0.0
 14
36.6939333778
 24
129.9410360149
 34
0.0
 50
-51.5119707129
100
AcDbRotatedDimension
  0
DIMENSION
  5
219
330
1F
100
AcDbEntity
  8
VERMASSUNG
100
AcDbDimension
  2
_D_7
 10
49.1527980489
 20
146.4556260782
 30
0.0
 11
38.2715988001
 21
73.5760114182
 31
0.0
 70
   162
  1
<>
 71
     1
 42
-1.0
  3
SLDDIMSTYLE3
100
AcDb2LineAngularDimension
 13
46.7734080632
 23
96.1280878898
 33
0.0
 14
48.6928027619
 24
123.5767108915
 34
0.0
 15
49.1527980489
 25
78.4556260782
 35
0.0
 16
47.1420367247
 26
72.574279397
 36
0.0
  0
INSERT
  5
231
330
1F
100
AcDbEntity
  8
VERMASSUNG
100
AcDbBlockReference
  2
SW_CENTERMARKSYMBOL_0
 10
49.1527980489
 20
112.4556260782
 30
0.0
  0
OLE2FRAME
  5
232
330
1F
100
AcDbEntity
  8
0
100
AcDbOle2Frame
 70
     2
  3
Paintbrush-Bild
 10
13.8511154363
 20
38.264191557
 30
0.0
 11
51.6290888628
 21
31.9806341108
 31
0.0
 71
     2
 72
     0
 73
     1
 90
    12928
310
80552BED0767C5B32B40DDAF6807D121434000000000000000006FFBDDFB85D0
310
4940DDAF6807D121434000000000000000006FFBDDFB85D04940416F4BD60AFB
310
3F4000000000000000002BED0767C5B32B40416F4BD60AFB3F40000000000000
310
0000000000000100000000010000010000000100000000000100000000320000
310
D0CF11E0A1B11AE1000000000000000000000000000000003E000300FEFF0900
310
0600000000000000000000000100000001000000000000000010000002000000
310
01000000FEFFFFFF0000000000000000FFFFFFFFFFFFFFFFFFFFFFFFFFFFFFFF
310
FFFFFFFFFFFFFFFFFFFFFFFFFFFFFFFFFFFFFFFFFFFFFFFFFFFFFFFFFFFFFFFF
310
FFFFFFFFFFFFFFFFFFFFFFFFFFFFFFFFFFFFFFFFFFFFFFFFFFFFFFFFFFFFFFFF
310
FFFFFFFFFFFFFFFFFFFFFFFFFFFFFFFFFFFFFFFFFFFFFFFFFFFFFFFFFFFFFFFF
310
FFFFFFFFFFFFFFFFFFFFFFFFFFFFFFFFFFFFFFFFFFFFFFFFFFFFFFFFFFFFFFFF
310
FFFFFFFFFFFFFFFFFFFFFFFFFFFFFFFFFFFFFFFFFFFFFFFFFFFFFFFFFFFFFFFF
310
FFFFFFFFFFFFFFFFFFFFFFFFFFFFFFFFFFFFFFFFFFFFFFFFFFFFFFFFFFFFFFFF
310
FFFFFFFFFFFFFFFFFFFFFFFFFFFFFFFFFFFFFFFFFFFFFFFFFFFFFFFFFFFFFFFF
310
FFFFFFFFFFFFFFFFFFFFFFFFFFFFFFFFFFFFFFFFFFFFFFFFFFFFFFFFFFFFFFFF
310
FFFFFFFFFFFFFFFFFFFFFFFFFFFFFFFFFFFFFFFFFFFFFFFFFFFFFFFFFFFFFFFF
310
FFFFFFFFFFFFFFFFFFFFFFFFFFFFFFFFFFFFFFFFFFFFFFFFFFFFFFFFFFFFFFFF
310
FFFFFFFFFFFFFFFFFFFFFFFFFFFFFFFFFFFFFFFFFFFFFFFFFFFFFFFFFFFFFFFF
310
FFFFFFFFFFFFFFFFFFFFFFFFFFFFFFFFFFFFFFFFFFFFFFFFFFFFFFFFFFFFFFFF
310
FFFFFFFFFFFFFFFFFFFFFFFFFFFFFFFFFFFFFFFFFFFFFFFFFFFFFFFFFFFFFFFF
310
FDFFFFFFFEFFFFFFFEFFFFFFFEFFFFFF05000000060000000700000008000000
310
090000000A0000000B0000000C0000000D0000000E0000000F00000010000000
310
11000000120000001300000014000000150000001600000017000000FEFFFFFF
310
FFFFFFFFFFFFFFFFFFFFFFFFFFFFFFFFFFFFFFFFFFFFFFFFFFFFFFFFFFFFFFFF
310
FFFFFFFFFFFFFFFFFFFFFFFFFFFFFFFFFFFFFFFFFFFFFFFFFFFFFFFFFFFFFFFF
310
FFFFFFFFFFFFFFFFFFFFFFFFFFFFFFFFFFFFFFFFFFFFFFFFFFFFFFFFFFFFFFFF
310
FFFFFFFFFFFFFFFFFFFFFFFFFFFFFFFFFFFFFFFFFFFFFFFFFFFFFFFFFFFFFFFF
310
FFFFFFFFFFFFFFFFFFFFFFFFFFFFFFFFFFFFFFFFFFFFFFFFFFFFFFFFFFFFFFFF
310
FFFFFFFFFFFFFFFFFFFFFFFFFFFFFFFFFFFFFFFFFFFFFFFFFFFFFFFFFFFFFFFF
310
FFFFFFFFFFFFFFFFFFFFFFFFFFFFFFFFFFFFFFFFFFFFFFFFFFFFFFFFFFFFFFFF
310
FFFFFFFFFFFFFFFFFFFFFFFFFFFFFFFFFFFFFFFFFFFFFFFFFFFFFFFFFFFFFFFF
310
FFFFFFFFFFFFFFFFFFFFFFFFFFFFFFFFFFFFFFFFFFFFFFFFFFFFFFFFFFFFFFFF
310
FFFFFFFFFFFFFFFFFFFFFFFFFFFFFFFFFFFFFFFFFFFFFFFFFFFFFFFFFFFFFFFF
310
FFFFFFFFFFFFFFFFFFFFFFFFFFFFFFFFFFFFFFFFFFFFFFFFFFFFFFFFFFFFFFFF
310
FFFFFFFFFFFFFFFFFFFFFFFFFFFFFFFFFFFFFFFFFFFFFFFFFFFFFFFFFFFFFFFF
310
FFFFFFFFFFFFFFFFFFFFFFFFFFFFFFFFFFFFFFFFFFFFFFFFFFFFFFFFFFFFFFFF
310
52006F006F007400200045006E00740072007900000000000000000000000000
310
0000000000000000000000000000000000000000000000000000000000000000
310
16000500FFFFFFFFFFFFFFFF020000000A00030000000000C000000000000046
310
0000000000000000000000005034AA767944CD0103000000C000000000000000
310
01004F006C006500000000000000000000000000000000000000000000000000
310
0000000000000000000000000000000000000000000000000000000000000000
310
0A000200FFFFFFFFFFFFFFFFFFFFFFFF00000000000000000000000000000000
310
0000000000000000000000000000000000000000000000001400000000000000
310
010043006F006D0070004F0062006A0000000000000000000000000000000000
310
0000000000000000000000000000000000000000000000000000000000000000
310
120002010100000003000000FFFFFFFF00000000000000000000000000000000
310
0000000000000000000000000000000000000000010000004D00000000000000
310
01004F006C006500310030004E00610074006900760065000000000000000000
310
0000000000000000000000000000000000000000000000000000000000000000
310
1A000200FFFFFFFFFFFFFFFFFFFFFFFF00000000000000000000000000000000
310
0000000000000000000000000000000000000000040000002426000000000000
310
FEFFFFFF02000000FEFFFFFFFFFFFFFFFFFFFFFFFFFFFFFFFFFFFFFFFFFFFFFF
310
FFFFFFFFFFFFFFFFFFFFFFFFFFFFFFFFFFFFFFFFFFFFFFFFFFFFFFFFFFFFFFFF
310
FFFFFFFFFFFFFFFFFFFFFFFFFFFFFFFFFFFFFFFFFFFFFFFFFFFFFFFFFFFFFFFF
310
FFFFFFFFFFFFFFFFFFFFFFFFFFFFFFFFFFFFFFFFFFFFFFFFFFFFFFFFFFFFFFFF
310
FFFFFFFFFFFFFFFFFFFFFFFFFFFFFFFFFFFFFFFFFFFFFFFFFFFFFFFFFFFFFFFF
310
FFFFFFFFFFFFFFFFFFFFFFFFFFFFFFFFFFFFFFFFFFFFFFFFFFFFFFFFFFFFFFFF
310
FFFFFFFFFFFFFFFFFFFFFFFFFFFFFFFFFFFFFFFFFFFFFFFFFFFFFFFFFFFFFFFF
310
FFFFFFFFFFFFFFFFFFFFFFFFFFFFFFFFFFFFFFFFFFFFFFFFFFFFFFFFFFFFFFFF
310
FFFFFFFFFFFFFFFFFFFFFFFFFFFFFFFFFFFFFFFFFFFFFFFFFFFFFFFFFFFFFFFF
310
FFFFFFFFFFFFFFFFFFFFFFFFFFFFFFFFFFFFFFFFFFFFFFFFFFFFFFFFFFFFFFFF
310
FFFFFFFFFFFFFFFFFFFFFFFFFFFFFFFFFFFFFFFFFFFFFFFFFFFFFFFFFFFFFFFF
310
FFFFFFFFFFFFFFFFFFFFFFFFFFFFFFFFFFFFFFFFFFFFFFFFFFFFFFFFFFFFFFFF
310
FFFFFFFFFFFFFFFFFFFFFFFFFFFFFFFFFFFFFFFFFFFFFFFFFFFFFFFFFFFFFFFF
310
FFFFFFFFFFFFFFFFFFFFFFFFFFFFFFFFFFFFFFFFFFFFFFFFFFFFFFFFFFFFFFFF
310
FFFFFFFFFFFFFFFFFFFFFFFFFFFFFFFFFFFFFFFFFFFFFFFFFFFFFFFFFFFFFFFF
310
FFFFFFFFFFFFFFFFFFFFFFFFFFFFFFFFFFFFFFFFFFFFFFFFFFFFFFFFFFFFFFFF
310
0100000200000000000000000000000000000000000000000000000000000000
310
0000000000000000000000000000000000000000000000000000000000000000
310
0100FEFF030A0000FFFFFFFF0A00030000000000C00000000000004607000000
310
5042727573680007000000504272757368000700000050427275736800F439B2
310
7100000000000000000000000000000000000000000000000000000000000000
310
0000000000000000000000000000000000000000000000000000000000000000
310
0000000000000000000000000000000000000000000000000000000000000000
310
0000000000000000000000000000000000000000000000000000000000000000
310
0000000000000000000000000000000000000000000000000000000000000000
310
0000000000000000000000000000000000000000000000000000000000000000
310
0000000000000000000000000000000000000000000000000000000000000000
310
0000000000000000000000000000000000000000000000000000000000000000
310
0000000000000000000000000000000000000000000000000000000000000000
310
0000000000000000000000000000000000000000000000000000000000000000
310
0000000000000000000000000000000000000000000000000000000000000000
310
0000000000000000000000000000000000000000000000000000000000000000
310
20260000424D0E260000000000003E00000028000000B40200006E0000000100
310
01000000000000000000130B0000130B00000200000002000000000000FFFFFF
310
FFFFFFFFFFFFFFFFFFFFFFFFFFFFFFFFFFFFFFFFFFFFFFFFFFFFFFFFFFFFFFFF
310
FFFFFFFFFFFFFFFFFFFFFFFFFFFFFFFFFFFFFFFFFFFFFFFFFFFFFFFFFFFFFFFF
310
FFFFFFFFFFFFFFFFFFFFFFFFFFFFFFFFFFFFFFFFFFFFFFFFF000FFFFFFFFFFFF
310
FFFFFFFFFFFFFFFFFFFFFFFFFFFFFFFFFFFFFFFFFFFFFFFFFFFFFFFFFFFFFFFF
310
FFFFFFFFFFFFFFFFFFFFFFFFFFFFFFFFFFFFFFFFFFFFFFFFFFFFFFFFFFFFFFFF
310
FFFFFFFFFFFFFFFFFFFFFFFFFFFFFFFFF000FFFFFFFFFFFFFFFFFFFFFFFFFFFF
310
FFFFFFFFFFFFFFFFFFFFFFFFFFFFFFFFFFFFFFFFFFFFFFFFFFFFFFFFFFFFFFFF
310
FFFFFFFFFFFFFFFFFFFFFFFFFFFFFFFFFFFFFFFFFFFFFFFFFFFFFFFFFFFFFFFF
310
FFFFFFFFFFFFFFFFF000FFFFFFFFFFFFFFFFFFFFFFFFFFFFFFFFFFFFFFFFFFFF
310
FFFFFFFFFFFFFFFFFFFFFFFFFFFFFFFFFFFFFFFFFFFFFFFFFFFFFFFFFFFFFFFF
310
FFFFFFFFFFFFFFFFFFFFFFFFFFFFFFFFFFFFFFFFFFFFFFFFFFFFFFFFFFFFFFFF
310
F000FFFFFFFFFFFFFFFFFFFFFFFFFFFFFFFFFFFFFFFFFFFFFFFFFFFFFFFFFFFF
310
FFFFFFFFFFFFFFFFFFFFFFFFFFFFFFFFFFFFFFFFFFFFFFFFFFFFFFFFFFFFFFFF
310
FFFFFFFFFFFFFFFFFFFFFFFFFFFFFFFFFFFFFFFFFFFFFFFFF000FFFFFFFFFFFF
310
FFFFFFFFFFFFFFFFFFFFFFFFFFFFFFFFFFFFFFFFFFFFFFFFFFFFFFFFFFFFFFFF
310
FFFFFFFFFFFFFFFFFFFFFFFFFFFFFFFFFFFFFFFFFFFFFFFFFFFFFFFFFFFFFFFF
310
FFFFFFFFFFFFFFFFFFFFFFFFFFFFFFFFF000FFFFFFFFFFFFFFFFFFFFFFFFFFFF
310
FFFFFFFFFFFFFFFFFFFFFFFFFFFFFFFFFFFFFFFFFFFFFFFFFFFFFFFFFFFFFFFF
310
FFFFFFFFFFFFFFFFFFFFFFFFFFFFFFFFFFFFFFFFFFFFFFFFFFFFFFFFFFFFFFFF
310
FFFFFFFFFFFFFFFFF000FFFFFFFFFFFFFFFFFFFFFFFFFFFFFFFFFFFFFFFFFFFF
310
FFFFFFFFFFFFFFFFFFFFFFFFFFFFFFFFFFFFFFFFFFFFFFFFFFFFFFFFFFFFFFFF
310
FFFFFFFFFFFFFFFFFFFFFFFFFFFFFFFFFFFFFFFFFFFFFFFFFFFFFFFFFFFFFFFF
310
F000FFFFFFFFFFFFFFFFFFFFFFFFFFFFFFFFFFFFFFFFFFFFFFFFFFFFFFFFFFFF
310
FFFFFFFFFFFFFFFFFFFFFFFFFFFFFFFFFFFFFFFFFFFFFFFFFFFFFFFFFFFFFFFF
310
FFFFFFFFFFFFFFFFFFFFFFFFFFFFFFFFFFFFFFFFFFFFFFFFF000FFFFFFFFFFFF
310
FFFFFFFFFFFFFFFFFFFFFFFFFFFFFFFFFFFFFFFFFFFFFFFFFFFFFFFFFFFFFFFF
310
FFFFFFFFFFFFFFFFFFFFFFFFFFFFFFFFFFFFFFFFFFFFFFFFFFFFFFFFFFFFFFFF
310
FFFFFFFFFFFFFFFFFFFFFFFFFFFFFFFFF000FFFFFFFFFFFFFFFFFFFFFFFFFFFF
310
FFFFFFFFFFFFFFFFFFFFFFFFFFFFFFFFFFFFFFFFFFFFFFFFFFFFFFFFFFFFFFFF
310
FFFFFFFFFFFFFFFFFFFFFFFFFFFFFFFFFFFFFFFFFFFFFFFFFFFFFFFFFFFFFFFF
310
FFFFFFFFFFFFFFFFF000FFFFFFFFFFFFFFFFFFFFFFFFFFFFFFFFFFFFFFFFFFFF
310
FFFFFFFFFFFFFFFFFFFFFFFFFFFFFFFFFFFFFFFFFFFFFFFFFFFFFFFFFFFFFFFF
310
FFFFFFFFFFFFFFFFFFFFFFFFFFFFFFFFFFFFFFFFFFFFFFFFFFFFFFFFFFFFFFFF
310
F000FFFFFFFFFFFFFFFFFFFFFFFFFFFFFFFFFFFFFFFFFFFFFFFFFFFFFFFFFFFF
310
FFFFFFFFFFFFFFFFFFFFFFFFFFFFFFFFFFFFFFFFFFFFFFFFFFFFFFFFFFFFFFFF
310
FFFFFFFFFFFFFFFFFFFFFFFFFFFFFFFFFFFFFFFFFFFFFFFFF000FFFFFFFFFFFF
310
FFFFFFFFFFFFFFFFFFFFFFFFFFFFFFFFFFFFFFFFFFFFFFFFFFFFFFFFFFFFFFFF
310
FFFFFFFFFFFFFFFFFFFFFFFFFFFFFFFFFFFFFFFFFFFFFFFFFFFFFFFFFFFFFFFF
310
FFFFFFFFFFFFFFFFFFFFFFFFFFFFFFFFF000FFFFFFFFFFFFFFFFFFFFFFFFFFFF
310
FFFFFFFFFFFFFFFFFFFFFFFFFFFFFFFFFFFFFFFFFFFFFFFFFFFFFFFFFFFFFFFF
310
FFFFFFFFFFFFFFFFFFFFFFFFFFFFFFFFFFFFFFFFFFFFFFFFFFFFFFFFFFFFFFFF
310
FFFFFFFFFFFFFFFFF000FFFFFFFFFFFFFFFFFFFFFFFFFFFFFFFFFFFFFFFFFFFF
310
FFFFFFFFFFFFFFFFFFFFFFFFFFFFFFFFFFFFFFFFFFFFFFFFFFFFFFFFFFFFFFFF
310
FFFFFFFFFFFFFFFFFFFFFFFFFFFFFFFFFFFFFFFFFFFFFFFFFFFFFFFFFFFFFFFF
310
F000FFFFFFFFFFFFFFFFFFFFFFFFFFFFFFFFFFFFFFFFFFFFFFFFFFFFFFFFFFFF
310
FFFFFFFFFFFFFFFFFFFFFFFFFFFFFFFFFFFFFFFFFFFFFFFFFFFFFFFFFFFFFFFF
310
FFFFFFFFFFFFFFFFFFFFFFFFFFFFFFFFFFFFFFFFFFFFFFFFF000FFFFFFFFFFFF
310
FFFFFFFFFFFFFFFFFFFFFFFFFFFFFFFFFFFFFFFFFFFFFFFFFFFFFFFFFFFFFFFF
310
FFFFFFFFFFFFFFFFFFFFFFFFFFFFFFFFFFFFFFFFFFFFFFFFFFFFFFFFFFFFFFFF
310
FFFFFFFFFFFFFFFFFFFFFFFFFFFFFFFFF000FFFFFFFFFFFFFFFFFFFFFFFFFFFF
310
FFFFFFFFFFFFFFFFFFFFFFFFFFFFFFFFFFFFFFFFFFFFFFFFFFFFFFFFFFFFFFFF
310
FFFFFFFFFFFFFFFFFFFFFFFFFFFFFFFFFFFFFFFFFFFFFFFFFFFFFFFFFFFFFFFF
310
FFFFFFFFFFFFFFFFF000FFFFF80003FFFFFFFFFFFFFFFFFFFFFFFFFFFFFFFFFF
310
FFFFF00007FFFFFFFFFF00007FFFFFF800000000000000007FFFFFFFFFFFFFFF
310
FFFFFFFC001FFFFFFFFFFFFFFC001FFFFFFFFFFFFFFFFFFFFFFFFFFE0007FFFF
310
F000FFFF8000007FFFFFFFF8000FFFFFC0007FFFFF80007FFFFF0000007FFFFF
310
FFF8000007FFFFF800000000000000007FFFFFF0001FFFFFFFFFFFC00001FFFF
310
FFFFFFFFC00001FFFFFFFF000000000003FFFFE000007FFFF000FFFE0000000F
310
FFFFFFF0000FFFFF80007FFFFF80007FFFFC0000001FFFFFFFC0000001FFFFF8
310
00000000000000007FFFFFF0001FFFFFFFFFFE0000003FFFFFFFFFFE0000003F
310
FFFFFF000000000003FFFF0000000FFFF000FFF800000003FFFFFFF00007FFFF
310
80007FFFFF80007FFFF000000007FFFFFF000000003FFFF80000000000000000
310
7FFFFFF0001FFFFFFFFFF80000000FFFFFFFFFF80000000FFFFFFF0000000000
310
03FFFC00000003FFF000FFE000000000FFFFFFF00007FFFF80003FFFFF80007F
310
FFC000000001FFFFFC000000001FFFF800000000000000007FFFFFF0001FFFFF
310
FFFFE000000003FFFFFFFFE000000003FFFFFF000000000003FFF000000000FF
310
F000FF80000000007FFFFFF00007FFFF80003FFFFF80007FFF8000000000FFFF
310
F80000000007FFF800000000000000007FFFFFF0001FFFFFFFFFC000000001FF
310
FFFFFFC000000001FFFFFF000000000003FFC0000000007FF000FF0000000000
310
3FFFFFE00007FFFF00003FFFFF80007FFE00000000003FFFF00000000003FFF8
310
00000000000000007FFFFFF0001FFFFFFFFF8000000000FFFFFFFF8000000000
310
FFFFFF000000000003FF80000000003FF000FE00000000001FFFFFE00003FFFF
310
00003FFFFF80007FFC00000000001FFFE00000000001FFF8000001FFFE000000
310
7FFFFFF0001FFFFFFFFE00000000003FFFFFFE00000000003FFFFF0000000000
310
03FF00000000001FF000FC00000000000FFFFFE00003FFFF00001FFFFF80007F
310
F800000000001FFFC00000000000FFF8000001FFFE0000007FFFFFF0001FFFFF
310
FFFC00000000001FFFFFFC00000000001FFFFF000000000003FE00000000000F
310
F000F8000000000007FFFFE00003FFFF00001FFFFF80007FF800000000000FFF
310
800000000000FFF8000001FFFE0000007FFFFFF0001FFFFFFFF800000000000F
310
FFFFF800000000000FFFFF000000000003FC000000000007F000F80000000000
310
03FFFFC00003FFFE00001FFFFF80007FF0000000000007FF0000000000007FF8
310
000001FFFE0000007FFFFFF0001FFFFFFFF0000000000007FFFFF00000000000
310
07FFFF000000000003F8000000000003F000F0000000000003FFFFC00001FFFE
310
00001FFFFF80007FE0000000000007FE0000000000003FF8000001FFFE000000
310
7FFFFFF0001FFFFFFFF0000000000007FFFFF0000000000007FFFF0000000000
310
03F800001F800003F000E00001FFF00001FFFFC00001FFFE00000FFFFF80007F
310
E00001FFE00003FE00001FFF00003FF8000001FFFE0000007FFFFFF0001FFFFF
310
FFE000003E000003FFFFE000003E000003FFFF000000000003F00001FFF80001
310
F000E00007FFFC0001FFFFC00001FFFE00000FFFFF80007FC0000FFFFC0003FC
310
0000FFFFC0001FF8000001FFFE0000007FFFFFF0001FFFFFFFC00003FFE00001
310
FFFFC00003FFE00001FFFF0001FFFFFFFFF00007FFFE0001F000E0000FFFFF00
310
00FFFF800001FFFC00000FFFFF80007FC0001FFFFE0001FC0001FFFFE0001FF8
310
000001FFFE0000007FFFFFF0001FFFFFFF80000FFFF80000FFFF80000FFFF800
310
00FFFF0003FFFFFFFFE0000FFFFF8000F000C0003FFFFF8000FFFF800000FFFC
310
000007FFFF80007F80003FFFFF0001FC0003FFFFF0001FF8000001FFFE000000
310
7FFFFFF0001FFFFFFF80003FFFFE0000FFFF80003FFFFE0000FFFF0003FFFFFF
310
FFE0003FFFFF8000F000C0003FFFFF8000FFFF800000FFFC000007FFFF80007F
310
80007FFFFF8001F80007FFFFF8000FF8000001FFFE0000007FFFFFF0001FFFFF
310
FF00007FFFFF00007FFF00007FFFFF00007FFF0003FFFFFFFFE0003FFFFFC000
310
F000C0007FFFFFC000FFFF000000FFFC000007FFFF80007F8000FFFFFF8000F8
310
000FFFFFF8000FF8000001FFFE0000007FFFFFF0001FFFFFFF0000FFFFFF8000
310
7FFF0000FFFFFF80007FFF0003FFFFFFFFC0007FFFFFC00070008000FFFFFFC0
310
00FFFF000000FFF8000007FFFF80007F8000FFFFFF8000F8000FFFFFF8000FF8
310
000001FFFE0000007FFFFFF0001FFFFFFE0001FFFFFFC0003FFE0001FFFFFFC0
310
003FFF0003FFFFFFFFC0007FFFFFE00070008000FFFFFFC0007FFF0000007FF8
310
000003FFFF80007F0001FFFFFF8000F8000FFFFFF8000FF8000001FFFE000000
310
7FFFFFF0001FFFFFFE0001FFFFFFC0003FFE0001FFFFFFC0003FFF0003FFFFFF
310
FFC000FFFFFFE00070008000FFFFFFC0007FFF0000007FF8000003FFFF80007F
310
0001FFFFFF8000F8001FFFFFF8000FF8000001FFFE0000007FFFFFF0001FFFFF
310
FE0003FFFFFFE0003FFE0003FFFFFFE0003FFF0003FFFFFFFFC000FFFFFFE000
310
70008000FFFFFFC0007FFE0000007FF8000003FFFF80007F0001FFFFFF8000F0
310
001FFFFFF8000FF8000001FFFE0000007FFFFFF0001FFFFFFC0003FFFFFFE000
310
1FFC0003FFFFFFE0001FFF0003FFFFFFFFC000FFFFFFC00070008000FFFFFF80
310
007FFE0000007FF0000003FFFF80007F0001FFFFFF0000F0001FFFFFF8000FF8
310
000001FFFE0000007FFFFFF0001FFFFFFC0007FFFFFFF0001FFC0007FFFFFFF0
310
001FFF0003FFFFFFFFC000FFFFFFC00070008001FFFFFF0000FFFE0000003FF0
310
000001FFFF80007F0001FFFFFF0000F8001FFFFFF0000FF8000001FFFE000000
310
7FFFFFF0001FFFFFFC0007FFFFFFF0001FFC0007FFFFFFF0001FFF0003FFFFFF
310
FFC001FFFFFF80007000FFFFFFFFFE0000FFFE0008003FF0008001FFFF80007F
310
FFFFFFFFFC0000FFFFFFFFFFE0000FF8000001FFFE0000007FFFFFF0001FFFFF
310
F8000FFFFFFFF8000FF8000FFFFFFFF8000FFF0003FFFFFFFFFFFFFFFFFF0000
310
7000FFFFFFFFFC0000FFFC0008003FF0008001FFFF80007FFFFFFFFFF80001FF
310
FFFFFFFF80000FF8000001FFFE0000007FFFFFF0001FFFFFF8000FFFFFFFF800
310
0FF8000FFFFFFFF8000FFF0003FFFFFFFFFFFFFFFFFE0000F000FFFFFFFFE000
310
00FFFC000C003FE000C001FFFF80007FFFFFFFFFC00001FFFFFFFFFE00001FF8
310
000001FFFE0000007FFFFFF0001FFFFFF8000FFFFFFFF8000FF8000FFFFFFFF8
310
000FFF0003FFFFFFFFFFFFFFFFF00000F000FFFFFFFE000001FFFC000C001FE0
310
00C000FFFF80007FFFFFFFFE000001FFFFFFFFE000001FF80FFFFFFFFFFFFFC0
310
7FFFFFF0001FFFFFF8000FFFFFFFF8000FF8000FFFFFFFF8000FFF0003FFFFFF
310
FFFFFFFFFF800000F000FFFFFFC0000001FFFC001C001FE001C000FFFF80007F
310
FFFFFF80000003FFFFFFF80000001FF80FFFFFFFFFFFFFC07FFFFFF0001FFFFF
310
F8001FFFFFFFFC000FF8001FFFFFFFFC000FFF0003FFFFFFFFFFFFFFF0000001
310
F000FFFFF800000001FFF8001C001FE001C000FFFF80007FFFFFF800000003FF
310
FFFF800000003FF80FFFFFFFFFFFFFC07FFFFFF0001FFFFFF8001FFFFFFFFC00
310
0FF8001FFFFFFFFC000FFF0003FFFFFFFFFFFFFE00000001F000FFFFC0000000
310
03FFF8001E001FC001E000FFFF80007FFFFF8000000007FFFFFC000000003FF8
310
0FFFFFFFFFFFFFC07FFFFFF0001FFFFFF8001FFFFFFFFC000FF8001FFFFFFFFC
310
000FFF0003FFFFFFFFFFFFE000000003F000FFFE0000000007FFF8001E000FC0
310
01E0007FFF80007FFFFE0000000007FFFFE0000000007FF80FFFFFFFFFFFFFC0
310
7FFFFFF0001FFFFFF0001FFFFFFFFC0007F0001FFFFFFFFC0007FF0003FFFFFF
310
FFFFFF0000000003F000FFF80000000007FFF8001E000FC003E0007FFF80007F
310
FFF0000000000FFFFF8000000000FFF80FFFFFFFFFFFFFC07FFFFFF0001FFFFF
310
F0001FFFFFFFFC0007F0001FFFFFFFFC0007FF0003FFFFFFFFFFFC0000000007
310
F000FFE0000000000FFFF0003E000FC003E0007FFF80007FFFC0000000001FFF
310
FE0000000001FFF80FFFFFFFFFFFFFC07FFFFFF0001FFFFFF0001FFFFFFFFC00
310
07F0001FFFFFFFFC0007FF0003FFFFFFFFFFF0000000000FF000FFC000000000
310
1FFFF0003F000F8003F0003FFF80007FFF80000000003FFFF80000000003FFF8
310
0FFFFFFFFFFFFFC07FFFFFF0001FFFFFF0001FFFFFFFFC0007F0001FFFFFFFFC
310
0007FF0003FFFFFFFFFFE0000000001FF000FF00000000007FFFF0003F000780
310
03F0003FFF80007FFF00000000007FFFF00000000007FFF80FFFFFFFFFFFFFC0
310
7FFFFFF0001FFFFFF0001FFFFFFFFC0007F0001FFFFFFFFC0007FF0003FFFFFF
310
FFFF80000000007FF000FE0000000000FFFFE0003F00078007F0003FFF80007F
310
FE0000000001FFFFE0000000001FFFF80FFFFFFFFFFFFFC07FFFFFF0001FFFFF
310
F0001FFFFFFFFC0007F0001FFFFFFFFC0007FF0003FFFFFFFFFF0000000000FF
310
F000FC0000000003FFFFE0007F00078007F0003FFF80007FFC0000000007FFFF
310
C0000000007FFFF80FFFFFFFFFFFFFC07FFFFFF0001FFFFFF8001FFFFFFFFC00
310
0FF8001FFFFFFFFC000FFF0003FFFFFFFFFE0000000003FFF000FC000000000F
310
FFFFE0007F80070007F8001FFF80007FF8000000001FFFFF8000000001FFFFF8
310
0FFFFFFFFFFFFFC07FFFFFF0001FFFFFF8001FFFFFFFFC000FF8001FFFFFFFFC
310
000FFF0003FFFFFFFFFC000000000FFFF000F8000000007FFFFFE0007F800700
310
07F8001FFF80007FF000000000FFFFFF800000000FFFFFF80FFFFFFFFFFFFFC0
310
7FFFFFF0001FFFFFF8000FFFFFFFF8000FF8000FFFFFFFF8000FFF0003FFFFFF
310
FFFC000000007FFFF000F800000007FFFFFFC0007F8003000FF8001FFF80007F
310
F000000007FFFFFF000000007FFFFFF80FFFFFFFFFFFFFC07FFFFFF0001FFFFF
310
F8000FFFFFFFF8000FF8000FFFFFFFF8000FFF0003FFFFFFFFF80000000FFFFF
310
F000F0000000FFFFFFFFC000FF8003000FF8001FFF80007FE0000000FFFFFFFF
310
0000000FFFFFFFF8000001FFFE0000007FFFFFF0001FFFFFF8000FFFFFFFF800
310
0FF8000FFFFFFFF8000FFF0003FFFFFFFFF8000000FFFFFFF000F000000FFFFF
310
FFFFC000FFC002000FF8000FFF80007FE000001FFFFFFFFE000001FFFFFFFFF8
310
000001FFFE0000007FFFFFF0001FFFFFF8000FFFFFFFF8000FF8000FFFFFFFF8
310
000FFF0003FFFFFFFFF000001FFFFFFFF000E00000FFFFFFFFFFC000FFC00200
310
0FFC000FFF80007FE00001FFFFFFFFFE00001FFFFFFFFFF8000001FFFE000000
310
7FFFFFF0001FFFFFFC000FFFFFFFF8001FFC000FFFFFFFF8001FFF0003FFFFFF
310
FFF00001FFFFFFFFF000E00007FFFFFFFFFF8000FFC000001FFC000FFF80007F
310
C0000FFFFFFFFFFE0000FFFFFFFFFFF8000001FFFE0000007FFFFFF0001FFFFF
310
FC0007FFFFFFF0001FFC0007FFFFFFF0001FFF0003FFFFFFFFF00007FFFFFFFF
310
F000E0001FFFFFFFFFFF8000FFC000001FFC000FFF80007FC0003FFFFFFFFFFE
310
0001FFFFFFFFFFF8000001FFFE0000007FFFFFF0001FFFFFFC0007FFFFFFF000
310
1FFC0007FFFFFFF0001FFF0003FFFFFFFFF0001FFFFFFFFFF000E0003FFFFF00
310
03FF8001FFE000001FFC0007FF80007FC0007FFFFF0007FC0003FFFFF0003FF8
310
000001FFFE0000007FFFFFF0001FFFFFFC0003FFFFFFE0001FFC0003FFFFFFE0
310
001FFF0003FFFFFFFFF0003FFFFFFFFFF000E0003FFFFF0001FF8001FFE00000
310
1FFE0007FF80007FC0007FFFFE0003FC0007FFFFE0003FF8000001FFFE000000
310
7FFFFFF0001FFFFFFE0003FFFFFFE0003FFE0003FFFFFFE0003FFF0003FFFFFF
310
FFF0003FFFFF8001F000E0003FFFFF0001FF0001FFE000001FFE0007FF80007F
310
C0007FFFFE0003FC0007FFFFE0003FF8000001FFFE0000007FFFFFF0001FFFFF
310
FE0001FFFFFFC0003FFE0001FFFFFFC0003FFF0003FFFFFFFFF0003FFFFF0001
310
F000E0003FFFFF0003FF0001FFE000003FFE0007FF80007FC0007FFFFE0003FC
310
0007FFFFE0003FF8000001FFFE0000007FFFFFF0001FFFFFFF0001FFFFFFC000
310
7FFF0001FFFFFFC0007FFF0003FFFFFFFFF0003FFFFF0001F000E0003FFFFE00
310
03FF0003FFF000003FFE0003FF80007FC0007FFFFC0003FE0007FFFFE0003FF8
310
000001FFFE0000007FFFFFF0001FFFFFFF0000FFFFFF80007FFF0000FFFFFF80
310
007FFF0003FFFFFFFFF0003FFFFF0001F000E0003FFFFE0003FF0003FFF00000
310
3FFF0003FF80007FC0007FFFFC0007FE0007FFFFC0003FF8000001FFFE000000
310
7FFFFFF0001FFFFFFF80007FFFFF0000FFFF80007FFFFF0000FFFF0003FFFFFF
310
FFF0003FFFFF0003F000E0003FFFFC0003FE0003FFF000003FFF0003FF80007F
310
E0003FFFF80007FE0003FFFFC0007FF8000001FFFE0000007FFFFFF0001FFFFF
310
FF80003FFFFE0000FFFF80003FFFFE0000FFFF0003FFFFFFFFF0001FFFFE0003
310
F000F0001FFFF80003FE0003FFF000007FFF0001FF80007FE0003FFFF00007FE
310
0001FFFF80007FF8000001FFFE0000007FFFFFF0001FFFFFFFC0000FFFF80001
310
FFFFC0000FFFF80001FFFF0003FFFFFFFFF0001FFFFC0003F000F0000FFFF000
310
07FE0007FFF800007FFF0001FF80007FE0001FFFE00007FF0000FFFE00007FF8
310
000001FFFE0000007FFFFFF0001FFFFFFFC00003FFE00001FFFFC00003FFE000
310
01FFFF0003FFFFFFFFF8000FFFF80003F000F00003FFC00007FC0007FFF80000
310
7FFF8001FF80007FF00007FF80000FFF00007FF80000FFF8000001FFFE000000
310
7F80000000000001FFE000003E000003FFFFE000003E000003FFFF0003FFFFFF
310
FFF80003FFE00007F000F800000000000FFC0007FFF800007FFF8001FF80007F
310
F000000000000FFF000000000000FFF8000001FFFE0000007F80000000000001
310
FFF0000000000007FFFFF0000000000007FFFF0003FFFFFFFFFC00007E000007
310
F000F800000000000FFC0007FFF80000FFFF8000FF80007FF800000000001FFF
310
800000000001FFF8000001FFFE0000007F80000000000001FFF800000000000F
310
FFFFF800000000000FFFFF0003FFFFFFFFFC00000000000FF000FC0000000000
310
1FFC0007FFFC0000FFFF8000FF80007FF800000000003FFFC00000000001FFF8
310
000001FFFE0000007F80000000000001FFF800000000000FFFFFF80000000000
310
0FFFFF0003FFFFFFFFFE00000000001FF000FE00000000003FF8000FFFFC0000
310
FFFF8000FF80007FFC00000000003FFFC00000000003FFF8000001FFFE000000
310
7F80000000000001FFFC00000000001FFFFFFC00000000001FFFFF0003FFFFFF
310
FFFF00000000001FF000FF00000000003FF8000FFFFC0000FFFFC000FF80007F
310
FE00000000007FFFE00000000007FFF8000001FFFE0000007F80000000000001
310
FFFE00000000003FFFFFFE00000000003FFFFF0003FFFFFFFFFF80000000003F
310
F000FF80000000007FF8000FFFFC0001FFFFC0007F80007FFF0000000000FFFF
310
F0000000000FFFF800000000000000007F80000000000001FFFF8000000000FF
310
FFFFFF8000000000FFFFFF0003FFFFFFFFFFC0000000007FF000FFC000000000
310
FFF8000FFFFE0001FFFFC0007F80007FFF8000000001FFFFF8000000001FFFF8
310
00000000000000007F80000000000001FFFFC000000001FFFFFFFFC000000001
310
FFFFFF0003FFFFFFFFFFE000000000FFF000FFE000000003FFF0001FFFFE0001
310
FFFFC0007F80007FFFC000000007FFFFFE000000003FFFF80000000000000000
310
7F80000000000001FFFFE000000003FFFFFFFFE000000003FFFFFF0003FFFFFF
310
FFFFF000000003FFF000FFF80000000FFFF0001FFFFE0001FFFFE0007F80007F
310
FFF00000000FFFFFFF00000000FFFFF800000000000000007F80000000000001
310
FFFFF80000000FFFFFFFFFF80000000FFFFFFF0003FFFFFFFFFFFC0000000FFF
310
F000FFFE0000003FFFF0001FFFFE0003FFFFE0003F80007FFFFC0000003FFFFF
310
FFC0000003FFFFF800000000000000007F80000000000001FFFFFE0000003FFF
310
FFFFFFFE0000003FFFFFFF0003FFFFFFFFFFFF0000003FFFF000FFFF800000FF
310
FFF0001FFFFF0003FFFFE0003F80007FFFFF000001FFFFFFFFF800001FFFFFF8
310
00000000000000007F80000000000001FFFFFFC00001FFFFFFFFFFFFC00001FF
310
FFFFFF0003FFFFFFFFFFFFC00000FFFFF000FFFFF8000FFFFFFFFFFFFFFFFFFF
310
FFFFFFFFFFFFFFFFFFFFF0001FFFFFFFFFFF0000FFFFFFF80000000000000000
310
7FFFFFFFFFFFFFFFFFFFFFFC001FFFFFFFFFFFFFFC001FFFFFFFFFFFFFFFFFFF
310
FFFFFFFC001FFFFFF000FFFFFFFFFFFFFFFFFFFFFFFFFFFFFFFFFFFFFFFFFFFF
310
FFFFFFFFFFFFFFFFFFFFFFFFFFFFFFFFFFFFFFFFFFFFFFFFFFFFFFFFFFFFFFFF
310
FFFFFFFFFFFFFFFFFFFFFFFFFFFFFFFFFFFFFFFFFFFFFFFFFFFFFFFFFFFFFFFF
310
F000FFFFFFFFFFFFFFFFFFFFFFFFFFFFFFFFFFFFFFFFFFFFFFFFFFFFFFFFFFFF
310
FFFFFFFFFFFFFFFFFFFFFFFFFFFFFFFFFFFFFFFFFFFFFFFFFFFFFFFFFFFFFFFF
310
FFFFFFFFFFFFFFFFFFFFFFFFFFFFFFFFFFFFFFFFFFFFFFFFF000FFFFFFFFFFFF
310
FFFFFFFFFFFFFFFFFFFFFFFFFFFFFFFFFFFFFFFFFFFFFFFFFFFFFFFFFFFFFFFF
310
FFFFFFFFFFFFFFFFFFFFFFFFFFFFFFFFFFFFFFFFFFFFFFFFFFFFFFFFFFFFFFFF
310
FFFFFFFFFFFFFFFFFFFFFFFFFFFFFFFFF000FFFFFFFFFFFFFFFFFFFFFFFFFFFF
310
FFFFFFFFFFFFFFFFFFFFFFFFFFFFFFFFFFFFFFFFFFFFFFFFFFFFFFFFFFFFFFFF
310
FFFFFFFFFFFFFFFFFFFFFFFFFFFFFFFFFFFFFFFFFFFFFFFFFFFFFFFFFFFFFFFF
310
FFFFFFFFFFFFFFFFF000FFFFFFFFFFFFFFFFFFFFFFFFFFFFFFFFFFFFFFFFFFFF
310
FFFFFFFFFFFFFFFFFFFFFFFFFFFFFFFFFFFFFFFFFFFFFFFFFFFFFFFFFFFFFFFF
310
FFFFFFFFFFFFFFFFFFFFFFFFFFFFFFFFFFFFFFFFFFFFFFFFFFFFFFFFFFFFFFFF
310
F000FFFFFFFFFFFFFFFFFFFFFFFFFFFFFFFFFFFFFFFFFFFFFFFFFFFFFFFFFFFF
310
FFFFFFFFFFFFFFFFFFFFFFFFFFFFFFFFFFFFFFFFFFFFFFFFFFFFFFFFFFFFFFFF
310
FFFFFFFFFFFFFFFFFFFFFFFFFFFFFFFFFFFFFFFFFFFFFFFFF000FFFFFFFFFFFF
310
FFFFFFFFFFFFFFFFFFFFFFFFFFFFFFFFFFFFFFFFFFFFFFFFFFFFFFFFFFFFFFFF
310
FFFFFFFFFFFFFFFFFFFFFFFFFFFFFFFFFFFFFFFFFFFFFFFFFFFFFFFFFFFFFFFF
310
FFFFFFFFFFFFFFFFFFFFFFFFFFFFFFFFF000FFFFFFFFFFFFFFFFFFFFFFFFFFFF
310
FFFFFFFFFFFFFFFFFFFFFFFFFFFFFFFFFFFFFFFFFFFFFFFFFFFFFFFFFFFFFFFF
310
FFFFFFFFFFFFFFFFFFFFFFFFFFFFFFFFFFFFFFFFFFFFFFFFFFFFFFFFFFFFFFFF
310
FFFFFFFFFFFFFFFFF000FFFFFFFFFFFFFFFFFFFFFFFFFFFFFFFFFFFFFFFFFFFF
310
FFFFFFFFFFFFFFFFFFFFFFFFFFFFFFFFFFFFFFFFFFFFFFFFFFFFFFFFFFFFFFFF
310
FFFFFFFFFFFFFFFFFFFFFFFFFFFFFFFFFFFFFFFFFFFFFFFFFFFFFFFFFFFFFFFF
310
F000FFFFFFFFFFFFFFFFFFFFFFFFFFFFFFFFFFFFFFFFFFFFFFFFFFFFFFFFFFFF
310
FFFFFFFFFFFFFFFFFFFFFFFFFFFFFFFFFFFFFFFFFFFFFFFFFFFFFFFFFFFFFFFF
310
FFFFFFFFFFFFFFFFFFFFFFFFFFFFFFFFFFFFFFFFFFFFFFFFF000FFFFFFFFFFFF
310
FFFFFFFFFFFFFFFFFFFFFFFFFFFFFFFFFFFFFFFFFFFFFFFFFFFFFFFFFFFFFFFF
310
FFFFFFFFFFFFFFFFFFFFFFFFFFFFFFFFFFFFFFFFFFFFFFFFFFFFFFFFFFFFFFFF
310
FFFFFFFFFFFFFFFFFFFFFFFFFFFFFFFFF000FFFFFFFFFFFFFFFFFFFFFFFFFFFF
310
FFFFFFFFFFFFFFFFFFFFFFFFFFFFFFFFFFFFFFFFFFFFFFFFFFFFFFFFFFFFFFFF
310
FFFFFFFFFFFFFFFFFFFFFFFFFFFFFFFFFFFFFFFFFFFFFFFFFFFFFFFFFFFFFFFF
310
FFFFFFFFFFFFFFFFF000FFFFFFFFFFFFFFFFFFFFFFFFFFFFFFFFFFFFFFFFFFFF
310
FFFFFFFFFFFFFFFFFFFFFFFFFFFFFFFFFFFFFFFFFFFFFFFFFFFFFFFFFFFFFFFF
310
FFFFFFFFFFFFFFFFFFFFFFFFFFFFFFFFFFFFFFFFFFFFFFFFFFFFFFFFFFFFFFFF
310
F000FFFFFFFFFFFFFFFFFFFFFFFFFFFFFFFFFFFFFFFFFFFFFFFFFFFFFFFFFFFF
310
FFFFFFFFFFFFFFFFFFFFFFFFFFFFFFFFFFFFFFFFFFFFFFFFFFFFFFFFFFFFFFFF
310
FFFFFFFFFFFFFFFFFFFFFFFFFFFFFFFFFFFFFFFFFFFFFFFFF000FFFFFFFFFFFF
310
FFFFFFFFFFFFFFFFFFFFFFFFFFFFFFFFFFFFFFFFFFFFFFFFFFFFFFFFFFFFFFFF
310
FFFFFFFFFFFFFFFFFFFFFFFFFFFFFFFFFFFFFFFFFFFFFFFFFFFFFFFFFFFFFFFF
310
FFFFFFFFFFFFFFFFFFFFFFFFFFFFFFFFF000FFFFFFFFFFFFFFFFFFFFFFFFFFFF
310
FFFFFFFFFFFFFFFFFFFFFFFFFFFFFFFFFFFFFFFFFFFFFFFFFFFFFFFFFFFFFFFF
310
FFFFFFFFFFFFFFFFFFFFFFFFFFFFFFFFFFFFFFFFFFFFFFFFFFFFFFFFFFFFFFFF
310
FFFFFFFFFFFFFFFFF000FFFFFFFFFFFFFFFFFFFFFFFFFFFFFFFFFFFFFFFFFFFF
310
FFFFFFFFFFFFFFFFFFFFFFFFFFFFFFFFFFFFFFFFFFFFFFFFFFFFFFFFFFFFFFFF
310
FFFFFFFFFFFFFFFFFFFFFFFFFFFFFFFFFFFFFFFFFFFFFFFFFFFFFFFFFFFFFFFF
310
F000FFFFFFFFFFFFFFFFFFFFFFFFFFFFFFFFFFFFFFFFFFFFFFFFFFFFFFFFFFFF
310
FFFFFFFFFFFFFFFFFFFFFFFFFFFFFFFFFFFFFFFFFFFFFFFFFFFFFFFFFFFFFFFF
310
FFFFFFFFFFFFFFFFFFFFFFFFFFFFFFFFFFFFFFFFFFFFFFFFF000FFFFFFFFFFFF
310
FFFFFFFFFFFFFFFFFFFFFFFFFFFFFFFFFFFFFFFFFFFFFFFFFFFFFFFFFFFFFFFF
310
FFFFFFFFFFFFFFFFFFFFFFFFFFFFFFFFFFFFFFFFFFFFFFFFFFFFFFFFFFFFFFFF
310
FFFFFFFFFFFFFFFFFFFFFFFFFFFFFFFFF000FFFFFFFFFFFFFFFFFFFFFFFFFFFF
310
FFFFFFFFFFFFFFFFFFFFFFFFFFFFFFFFFFFFFFFFFFFFFFFFFFFFFFFFFFFFFFFF
310
FFFFFFFFFFFFFFFFFFFFFFFFFFFFFFFFFFFFFFFFFFFFFFFFFFFFFFFFFFFFFFFF
310
FFFFFFFFFFFFFFFFF000FFFFFFFFFFFFFFFFFFFFFFFFFFFFFFFFFFFFFFFFFFFF
310
FFFFFFFFFFFFFFFFFFFFFFFFFFFFFFFFFFFFFFFFFFFFFFFFFFFFFFFFFFFFFFFF
310
FFFFFFFFFFFFFFFFFFFFFFFFFFFFFFFFFFFFFFFFFFFFFFFFFFFFFFFFFFFFFFFF
310
F000FFFFFFFFFFFFFFFFFFFFFFFFFFFFFFFFFFFFFFFFFFFFFFFFFFFFFFFFFFFF
310
FFFFFFFFFFFFFFFFFFFFFFFFFFFFFFFFFFFFFFFFFFFFFFFFFFFFFFFFFFFFFFFF
310
FFFFFFFFFFFFFFFFFFFFFFFFFFFFFFFFFFFFFFFFFFFFFFFFF000FFFFFFFFFFFF
310
FFFFFFFFFFFFFFFFFFFFFFFFFFFFFFFFFFFFFFFFFFFFFFFFFFFFFFFFFFFFFFFF
310
FFFFFFFFFFFFFFFFFFFFFFFFFFFFFFFFFFFFFFFFFFFFFFFFFFFFFFFFFFFFFFFF
310
FFFFFFFFFFFFFFFFFFFFFFFFFFFFFFFFF0000000000000000000000000000000
310
0000000000000000000000000000000000000000000000000000000000000000
310
0000000000000000000000000000000000000000000000000000000000000000
310
0000000000000000000000000000000000000000000000000000000000000000
310
0000000000000000000000000000000000000000000000000000000000000000
310
0000000000000000000000000000000000000000000000000000000000000000
310
0000000000000000000000000000000000000000000000000000000000000000
310
0000000000000000000000000000000000000000000000000000000000000000
310
0000000000000000000000000000000000000000000000000000000000000000
310
0000000000000000000000000000000000000000000000000000000000000000
310
0000000000000000000000000000000000000000000000000000000000000000
310
0000000000000000000000000000000000000000000000000000000000000000
310
0000000000000000000000000000000000000000000000000000000000000000
310
0000000000000000000000000000000000000000000000000000000000000000
310
0000000000000000000000000000000000000000000000000000000000000000
310
0000000000000000000000000000000000000000000000000000000000000000
  1
OLE
  0
ENDSEC
  0
SECTION
  2
OBJECTS
  0
DICTIONARY
  5
C
330
0
100
AcDbDictionary
281
     1
  3
ACAD_GROUP
350
D
  3
ACAD_LAYOUT
350
1A
  3
ACAD_MLINESTYLE
350
17
  3
ACAD_PLOTSETTINGS
350
19
  3
ACAD_PLOTSTYLENAME
350
E
  0
DICTIONARY
  5
D
102
{ACAD_REACTORS
330
C
102
}
330
C
100
AcDbDictionary
281
     1
  0
DICTIONARY
  5
1A
102
{ACAD_REACTORS
330
C
102
}
330
C
100
AcDbDictionary
281
     1
  3
Layout1
350
1E
  3
Layout2
350
26
  3
Model
350
22
  0
DICTIONARY
  5
17
102
{ACAD_REACTORS
330
C
102
}
330
C
100
AcDbDictionary
281
     1
  3
Standard
350
18
  0
DICTIONARY
  5
19
102
{ACAD_REACTORS
330
C
102
}
330
C
100
AcDbDictionary
281
     1
  0
ACDBDICTIONARYWDFLT
  5
E
102
{ACAD_REACTORS
330
C
102
}
330
C
100
AcDbDictionary
281
     1
  3
Normal
350
F
100
AcDbDictionaryWithDefault
340
F
  0
LAYOUT
  5
1E
102
{ACAD_REACTORS
330
1A
102
}
330
1A
100
AcDbPlotSettings
  1

  2
none_device
  4

  6

 40
0.0
 41
0.0
 42
0.0
 43
0.0
 44
0.0
 45
0.0
 46
0.0
 47
0.0
 48
0.0
 49
0.0
140
0.0
141
0.0
142
1.0
143
1.0
 70
   688
 72
     0
 73
     0
 74
     5
  7

 75
    16
147
1.0
148
0.0
149
0.0
100
AcDbLayout
  1
Layout1
 70
     1
 71
     1
 10
0.0
 20
0.0
 11
420.0
 21
297.0
 12
0.0
 22
0.0
 32
0.0
 14
1.0000000000E+20
 24
1.0000000000E+20
 34
1.0000000000E+20
 15
-1.0000000000E+20
 25
-1.0000000000E+20
 35
-1.0000000000E+20
146
0.0
 13
0.0
 23
0.0
 33
0.0
 16
1.0
 26
0.0
 36
0.0
 17
0.0
 27
1.0
 37
0.0
 76
     0
330
1B
  0
LAYOUT
  5
26
102
{ACAD_REACTORS
330
1A
102
}
330
1A
100
AcDbPlotSettings
  1

  2
none_device
  4

  6

 40
0.0
 41
0.0
 42
0.0
 43
0.0
 44
0.0
 45
0.0
 46
0.0
 47
0.0
 48
0.0
 49
0.0
140
0.0
141
0.0
142
1.0
143
1.0
 70
   688
 72
     0
 73
     0
 74
     5
  7

 75
    16
147
1.0
148
0.0
149
0.0
100
AcDbLayout
  1
Layout2
 70
     1
 71
     2
 10
0.0
 20
0.0
 11
0.0
 21
0.0
 12
0.0
 22
0.0
 32
0.0
 14
0.0
 24
0.0
 34
0.0
 15
0.0
 25
0.0
 35
0.0
146
0.0
 13
0.0
 23
0.0
 33
0.0
 16
1.0
 26
0.0
 36
0.0
 17
0.0
 27
1.0
 37
0.0
 76
     0
330
23
  0
LAYOUT
  5
22
102
{ACAD_REACTORS
330
1A
102
}
330
1A
100
AcDbPlotSettings
  1

  2
none_device
  4

  6

 40
0.0
 41
0.0
 42
0.0
 43
0.0
 44
0.0
 45
0.0
 46
0.0
 47
0.0
 48
0.0
 49
0.0
140
0.0
141
0.0
142
1.0
143
1.0
 70
  1712
 72
     0
 73
     0
 74
     0
  7

 75
     0
147
1.0
148
0.0
149
0.0
100
AcDbLayout
  1
Model
 70
     1
 71
     0
 10
0.0
 20
0.0
 11
297.0
 21
210.0
 12
0.0
 22
0.0
 32
0.0
 14
0.0
 24
0.0
 34
0.0
 15
297.0
 25
210.0
 35
0.0
146
0.0
 13
0.0
 23
0.0
 33
0.0
 16
1.0
 26
0.0
 36
0.0
 17
0.0
 27
1.0
 37
0.0
 76
     0
330
1F
331
29
  0
MLINESTYLE
  5
18
102
{ACAD_REACTORS
330
17
102
}
330
17
100
AcDbMlineStyle
  2
Standard
 70
     0
  3

 62
   256
 51
90.0
 52
90.0
 71
     2
 49
0.5
 62
   256
  6
BYLAYER
 49
-0.5
 62
   256
  6
BYLAYER
  0
ACDBPLACEHOLDER
  5
F
102
{ACAD_REACTORS
330
E
102
}
330
E
  0
ENDSEC
  0
EOF
