  0
SECTION
  2
HEADER
  9
$ACADVER
  1
AC1015
  9
$ACADMAINTVER
 70
     6
  9
$DWGCODEPAGE
  3
ANSI_1252
  9
$INSBASE
 10
0.0
 20
0.0
 30
0.0
  9
$EXTMIN
 10
0.0
 20
0.0
 30
0.0
  9
$EXTMAX
 10
297.0
 20
210.0
 30
0.0
  9
$LIMMIN
 10
0.0
 20
0.0
  9
$LIMMAX
 10
297.0
 20
210.0
  9
$ORTHOMODE
 70
     0
  9
$REGENMODE
 70
     1
  9
$FILLMODE
 70
     1
  9
$QTEXTMODE
 70
     0
  9
$MIRRTEXT
 70
     1
  9
$LTSCALE
 40
1.0
  9
$ATTMODE
 70
     1
  9
$TEXTSIZE
 40
2.0
  9
$TRACEWID
 40
1.0
  9
$TEXTSTYLE
  7
Standard
  9
$CLAYER
  8
0
  9
$CELTYPE
  6
ByLayer
  9
$CECOLOR
 62
   256
  9
$CELTSCALE
 40
1.0
  9
$DISPSILH
 70
     0
  9
$DIMSCALE
 40
1.0
  9
$DIMASZ
 40
3.0
  9
$DIMEXO
 40
0.0
  9
$DIMDLI
 40
3.75
  9
$DIMRND
 40
0.0
  9
$DIMDLE
 40
0.0
  9
$DIMEXE
 40
1.0
  9
$DIMTP
 40
0.0
  9
$DIMTM
 40
0.0
  9
$DIMTXT
 40
2.0
  9
$DIMCEN
 40
2.5
  9
$DIMTSZ
 40
0.0
  9
$DIMTOL
 70
     0
  9
$DIMLIM
 70
     0
  9
$DIMTIH
 70
     1
  9
$DIMTOH
 70
     1
  9
$DIMSE1
 70
     0
  9
$DIMSE2
 70
     0
  9
$DIMTAD
 70
     1
  9
$DIMZIN
 70
     0
  9
$DIMBLK
  1

  9
$DIMASO
 70
     1
  9
$DIMSHO
 70
     1
  9
$DIMPOST
  1

  9
$DIMAPOST
  1

  9
$DIMALT
 70
     0
  9
$DIMALTD
 70
     3
  9
$DIMALTF
 40
0.0393700787
  9
$DIMLFAC
 40
1.0
  9
$DIMTOFL
 70
     1
  9
$DIMTVP
 40
0.0
  9
$DIMTIX
 70
     0
  9
$DIMSOXD
 70
     0
  9
$DIMSAH
 70
     0
  9
$DIMBLK1
  1

  9
$DIMBLK2
  1

  9
$DIMSTYLE
  2
ISO-25
  9
$DIMCLRD
 70
     0
  9
$DIMCLRE
 70
     0
  9
$DIMCLRT
 70
     0
  9
$DIMTFAC
 40
1.0
  9
$DIMGAP
 40
1.524
  9
$DIMJUST
 70
     0
  9
$DIMSD1
 70
     0
  9
$DIMSD2
 70
     0
  9
$DIMTOLJ
 70
     0
  9
$DIMTZIN
 70
     0
  9
$DIMALTZ
 70
     0
  9
$DIMALTTZ
 70
     0
  9
$DIMUPT
 70
     0
  9
$DIMDEC
 70
     2
  9
$DIMTDEC
 70
     3
  9
$DIMALTU
 70
     2
  9
$DIMALTTD
 70
     3
  9
$DIMTXSTY
  7
Standard
  9
$DIMAUNIT
 70
     0
  9
$DIMADEC
 70
     2
  9
$DIMALTRND
 40
0.0
  9
$DIMAZIN
 70
     0
  9
$DIMDSEP
 70
    44
  9
$DIMATFIT
 70
     3
  9
$DIMFRAC
 70
     0
  9
$DIMLDRBLK
  1

  9
$DIMLUNIT
 70
     2
  9
$DIMLWD
 70
    -2
  9
$DIMLWE
 70
    -2
  9
$DIMTMOVE
 70
     0
  9
$LUNITS
 70
     2
  9
$LUPREC
 70
     2
  9
$SKETCHINC
 40
1.0
  9
$FILLETRAD
 40
10.0
  9
$AUNITS
 70
     0
  9
$AUPREC
 70
     2
  9
$MENU
  1
.
  9
$ELEVATION
 40
0.0
  9
$PELEVATION
 40
0.0
  9
$THICKNESS
 40
0.0
  9
$LIMCHECK
 70
     0
  9
$CHAMFERA
 40
10.0
  9
$CHAMFERB
 40
10.0
  9
$CHAMFERC
 40
20.0
  9
$CHAMFERD
 40
0.0
  9
$SKPOLY
 70
     0
  9
$TDCREATE
 40
2456086.685819143
  9
$TDUCREATE
 40
2456086.60248581
  9
$TDUPDATE
 40
2456086.685820776
  9
$TDUUPDATE
 40
2456086.602487442
  9
$TDINDWG
 40
0.0000000116
  9
$TDUSRTIMER
 40
0.0000000116
  9
$USRTIMER
 70
     1
  9
$ANGBASE
 50
0.0
  9
$ANGDIR
 70
     0
  9
$PDMODE
 70
     0
  9
$PDSIZE
 40
-1.0
  9
$PLINEWID
 40
0.0
  9
$SPLFRAME
 70
     0
  9
$SPLINETYPE
 70
     6
  9
$SPLINESEGS
 70
     8
  9
$HANDSEED
  5
230
  9
$SURFTAB1
 70
     6
  9
$SURFTAB2
 70
     6
  9
$SURFTYPE
 70
     6
  9
$SURFU
 70
     6
  9
$SURFV
 70
     6
  9
$UCSBASE
  2

  9
$UCSNAME
  2

  9
$UCSORG
 10
0.0
 20
0.0
 30
0.0
  9
$UCSXDIR
 10
1.0
 20
0.0
 30
0.0
  9
$UCSYDIR
 10
0.0
 20
1.0
 30
0.0
  9
$UCSORTHOREF
  2

  9
$UCSORTHOVIEW
 70
     0
  9
$UCSORGTOP
 10
0.0
 20
0.0
 30
0.0
  9
$UCSORGBOTTOM
 10
0.0
 20
0.0
 30
0.0
  9
$UCSORGLEFT
 10
0.0
 20
0.0
 30
0.0
  9
$UCSORGRIGHT
 10
0.0
 20
0.0
 30
0.0
  9
$UCSORGFRONT
 10
0.0
 20
0.0
 30
0.0
  9
$UCSORGBACK
 10
0.0
 20
0.0
 30
0.0
  9
$PUCSBASE
  2

  9
$PUCSNAME
  2

  9
$PUCSORG
 10
0.0
 20
0.0
 30
0.0
  9
$PUCSXDIR
 10
1.0
 20
0.0
 30
0.0
  9
$PUCSYDIR
 10
0.0
 20
1.0
 30
0.0
  9
$PUCSORTHOREF
  2

  9
$PUCSORTHOVIEW
 70
     0
  9
$PUCSORGTOP
 10
0.0
 20
0.0
 30
0.0
  9
$PUCSORGBOTTOM
 10
0.0
 20
0.0
 30
0.0
  9
$PUCSORGLEFT
 10
0.0
 20
0.0
 30
0.0
  9
$PUCSORGRIGHT
 10
0.0
 20
0.0
 30
0.0
  9
$PUCSORGFRONT
 10
0.0
 20
0.0
 30
0.0
  9
$PUCSORGBACK
 10
0.0
 20
0.0
 30
0.0
  9
$USERI1
 70
     0
  9
$USERI2
 70
     0
  9
$USERI3
 70
     0
  9
$USERI4
 70
     0
  9
$USERI5
 70
     0
  9
$USERR1
 40
0.0
  9
$USERR2
 40
0.0
  9
$USERR3
 40
0.0
  9
$USERR4
 40
0.0
  9
$USERR5
 40
0.0
  9
$WORLDVIEW
 70
     1
  9
$SHADEDGE
 70
     3
  9
$SHADEDIF
 70
    70
  9
$TILEMODE
 70
     1
  9
$MAXACTVP
 70
    64
  9
$PINSBASE
 10
0.0
 20
0.0
 30
0.0
  9
$PLIMCHECK
 70
     0
  9
$PEXTMIN
 10
1.0000000000E+20
 20
1.0000000000E+20
 30
1.0000000000E+20
  9
$PEXTMAX
 10
-1.0000000000E+20
 20
-1.0000000000E+20
 30
-1.0000000000E+20
  9
$PLIMMIN
 10
0.0
 20
0.0
  9
$PLIMMAX
 10
420.0
 20
297.0
  9
$UNITMODE
 70
     0
  9
$VISRETAIN
 70
     1
  9
$PLINEGEN
 70
     0
  9
$PSLTSCALE
 70
     1
  9
$TREEDEPTH
 70
  3020
  9
$CMLSTYLE
  2
Standard
  9
$CMLJUST
 70
     0
  9
$CMLSCALE
 40
20.0
  9
$PROXYGRAPHICS
 70
     1
  9
$MEASUREMENT
 70
     1
  9
$CELWEIGHT
370
    -1
  9
$ENDCAPS
280
     0
  9
$JOINSTYLE
280
     0
  9
$LWDISPLAY
290
     1
  9
$INSUNITS
 70
     4
  9
$HYPERLINKBASE
  1

  9
$STYLESHEET
  1

  9
$XEDIT
290
     1
  9
$CEPSNTYPE
380
     0
  9
$PSTYLEMODE
290
     1
  9
$FINGERPRINTGUID
  2
{61ABBBBA-41A8-451D-8CDC-D64DA78F26DF}
  9
$VERSIONGUID
  2
{FAEB1C32-E019-11D5-929B-00C0DF256EC4}
  9
$EXTNAMES
290
     1
  9
$PSVPSCALE
 40
0.0
  9
$OLESTARTUP
290
     0
  0
ENDSEC
  0
SECTION
  2
CLASSES
  0
CLASS
  1
ACDBDICTIONARYWDFLT
  2
AcDbDictionaryWithDefault
  3
ObjectDBX Classes
 90
        0
280
     0
281
     0
  0
CLASS
  1
VISUALSTYLE
  2
AcDbVisualStyle
  3
ObjectDBX Classes
 90
     4095
280
     0
281
     0
  0
CLASS
  1
MATERIAL
  2
AcDbMaterial
  3
ObjectDBX Classes
 90
     1153
280
     0
281
     0
  0
CLASS
  1
ACDBPLACEHOLDER
  2
AcDbPlaceHolder
  3
ObjectDBX Classes
 90
        0
280
     0
281
     0
  0
CLASS
  1
LAYOUT
  2
AcDbLayout
  3
ObjectDBX Classes
 90
        0
280
     0
281
     0
  0
ENDSEC
  0
SECTION
  2
TABLES
  0
TABLE
  2
VPORT
  5
8
330
0
100
AcDbSymbolTable
 70
     1
  0
VPORT
  5
29
330
8
100
AcDbSymbolTableRecord
100
AcDbViewportTableRecord
  2
*Active
 70
     0
 10
0.0
 20
0.0
 11
1.0
 21
1.0
 12
148.5
 22
105.0
 13
0.0
 23
0.0
 14
10.0
 24
10.0
 15
10.0
 25
10.0
 16
0.0
 26
0.0
 36
1.0
 17
0.0
 27
0.0
 37
0.0
 40
210.0
 41
1.4142857143
 42
50.0
 43
0.0
 44
0.0
 50
0.0
 51
0.0
 71
     0
 72
  2000
 73
     1
 74
     3
 75
     0
 76
     0
 77
     0
 78
     0
281
     0
 65
     1
110
0.0
120
0.0
130
0.0
111
1.0
121
0.0
131
0.0
112
0.0
122
1.0
132
0.0
 79
     0
146
0.0
  0
ENDTAB
  0
TABLE
  2
LTYPE
  5
5
330
0
100
AcDbSymbolTable
 70
     6
  0
LTYPE
  5
14
330
5
100
AcDbSymbolTableRecord
100
AcDbLinetypeTableRecord
  2
ByBlock
 70
     0
  3

 72
    65
 73
     0
 40
0.0
  0
LTYPE
  5
15
330
5
100
AcDbSymbolTableRecord
100
AcDbLinetypeTableRecord
  2
ByLayer
 70
     0
  3

 72
    65
 73
     0
 40
0.0
  0
LTYPE
  5
16
330
5
100
AcDbSymbolTableRecord
100
AcDbLinetypeTableRecord
  2
Continuous
 70
     0
  3
Solid line
 72
    65
 73
     0
 40
0.0
  0
LTYPE
  5
3F
330
5
100
AcDbSymbolTableRecord
100
AcDbLinetypeTableRecord
  2
HIDDEN
 70
     0
  3
Hidden __ __ __ __ __ __ __ __ __ __ __ __ __ __
 72
    65
 73
     2
 40
1.905
 49
1.27
 74
     0
 49
-0.635
 74
     0
  0
LTYPE
  5
40
330
5
100
AcDbSymbolTableRecord
100
AcDbLinetypeTableRecord
  2
PHANTOM
 70
     0
  3
Phantom ______  __  __  ______  __  __  ______
 72
    65
 73
     6
 40
12.7
 49
6.35
 74
     0
 49
-1.27
 74
     0
 49
1.27
 74
     0
 49
-1.27
 74
     0
 49
1.27
 74
     0
 49
-1.27
 74
     0
  0
LTYPE
  5
41
330
5
100
AcDbSymbolTableRecord
100
AcDbLinetypeTableRecord
  2
CENTER
 70
     0
  3
Center ____ _ ____ _ ____ _ ____ _ ____ _ ____
 72
    65
 73
     4
 40
10.16
 49
6.35
 74
     0
 49
-1.27
 74
     0
 49
1.27
 74
     0
 49
-1.27
 74
     0
  0
LTYPE
  5
42
330
5
100
AcDbSymbolTableRecord
100
AcDbLinetypeTableRecord
  2
CENTERX2
 70
     0
  3
Center (2x) ________  __  ________  __  _____
 72
    65
 73
     4
 40
20.32
 49
12.7
 74
     0
 49
-2.54
 74
     0
 49
2.54
 74
     0
 49
-2.54
 74
     0
  0
LTYPE
  5
43
330
5
100
AcDbSymbolTableRecord
100
AcDbLinetypeTableRecord
  2
DOT2
 70
     0
  3
Dot (.5x) ........................................
 72
    65
 73
     2
 40
0.635
 49
0.0
 74
     0
 49
-0.635
 74
     0
  0
ENDTAB
  0
TABLE
  2
LAYER
  5
2
330
0
100
AcDbSymbolTable
 70
     5
  0
LAYER
  5
10
330
2
100
AcDbSymbolTableRecord
100
AcDbLayerTableRecord
  2
0
 70
     0
 62
     7
  6
Continuous
370
    -3
390
F
  0
LAYER
  5
44
330
2
100
AcDbSymbolTableRecord
100
AcDbLayerTableRecord
  2
FORMAT
 70
     0
 62
     7
  6
Continuous
370
    -3
390
F
  0
LAYER
  5
45
330
2
100
AcDbSymbolTableRecord
100
AcDbLayerTableRecord
  2
VERMASSUNG
 70
     0
 62
     7
  6
Continuous
370
    -3
390
F
  0
LAYER
  5
46
330
2
100
AcDbSymbolTableRecord
100
AcDbLayerTableRecord
  2
KOPF_DÜNN
 70
     0
 62
     7
  6
Continuous
370
    -3
390
F
  0
LAYER
  5
47
330
2
100
AcDbSymbolTableRecord
100
AcDbLayerTableRecord
  2
KOPF_DICK
 70
     0
 62
     7
  6
Continuous
370
    15
390
F
  0
ENDTAB
  0
TABLE
  2
STYLE
  5
3
330
0
100
AcDbSymbolTable
 70
     2
  0
STYLE
  5
11
330
3
100
AcDbSymbolTableRecord
100
AcDbTextStyleTableRecord
  2
Standard
 70
     0
 40
0.0
 41
1.0
 50
0.0
 71
     0
 42
2.0
  3
txt
  4

  0
STYLE
  5
48
330
3
100
AcDbSymbolTableRecord
100
AcDbTextStyleTableRecord
  2
SLDTEXTSTYLE0
 70
     0
 40
0.0
 41
0.7
 50
0.0
 71
     0
 42
0.2
  3
TXT
  4

  0
ENDTAB
  0
TABLE
  2
VIEW
  5
6
330
0
100
AcDbSymbolTable
 70
     0
  0
ENDTAB
  0
TABLE
  2
UCS
  5
7
330
0
100
AcDbSymbolTable
 70
     0
  0
ENDTAB
  0
TABLE
  2
APPID
  5
9
330
0
100
AcDbSymbolTable
 70
     1
  0
APPID
  5
12
330
9
100
AcDbSymbolTableRecord
100
AcDbRegAppTableRecord
  2
ACAD
 70
     0
  0
ENDTAB
  0
TABLE
  2
DIMSTYLE
  5
A
330
0
100
AcDbSymbolTable
 70
     5
100
AcDbDimStyleTable
  0
DIMSTYLE
105
27
330
A
100
AcDbSymbolTableRecord
100
AcDbDimStyleTableRecord
  2
ISO-25
 70
     0
 41
2.5
 42
0.625
 43
3.75
 44
1.25
 73
     0
 74
     0
 77
     1
 78
     8
140
2.5
141
2.5
143
0.0393700787
147
0.625
171
     3
172
     1
178
     0
271
     2
272
     2
274
     3
278
    44
283
     0
284
     8
340
11
  0
DIMSTYLE
105
1AA
102
{ACAD_REACTORS
330
1A9
102
}
330
A
100
AcDbSymbolTableRecord
100
AcDbDimStyleTableRecord
  2
SLDDIMSTYLE0
 70
     0
 41
3.0
 44
0.0
 73
     0
 74
     0
 77
     1
 78
    12
 79
     3
140
2.0
147
0.5
173
     1
178
     0
179
     1
272
     3
276
     2
284
    12
340
48
  0
DIMSTYLE
105
1B4
102
{ACAD_REACTORS
330
1B3
330
1BE
330
1C8
330
1D2
330
1DE
102
}
330
A
100
AcDbSymbolTableRecord
100
AcDbDimStyleTableRecord
  2
SLDDIMSTYLE1
 70
     0
 41
3.0
 44
0.0
 45
0.000000001
 73
     0
 74
     0
 77
     1
 78
    12
 79
     3
140
2.0
147
0.5
173
     1
178
     0
271
     2
272
     3
276
     2
284
    12
340
48
  0
DIMSTYLE
105
208
102
{ACAD_REACTORS
330
207
102
}
330
A
100
AcDbSymbolTableRecord
100
AcDbDimStyleTableRecord
  2
SLDDIMSTYLE2
 70
     0
 41
3.0
 44
0.0
 45
0.000000001
 73
     0
 74
     0
 77
     1
 78
    12
 79
     3
140
2.0
147
0.5
172
     1
173
     1
178
     0
271
     2
272
     3
276
     2
284
    12
289
     0
340
48
  0
DIMSTYLE
105
217
102
{ACAD_REACTORS
330
216
102
}
330
A
100
AcDbSymbolTableRecord
100
AcDbDimStyleTableRecord
  2
SLDDIMSTYLE3
 70
     0
 41
3.0
 44
0.0
 73
     0
 74
     0
 77
     1
 78
    12
 79
     3
140
2.0
147
0.5
173
     1
178
     0
179
     2
272
     3
276
     2
284
    12
340
48
  0
ENDTAB
  0
TABLE
  2
BLOCK_RECORD
  5
1
330
0
100
AcDbSymbolTable
 70
    10
  0
BLOCK_RECORD
  5
1F
330
1
100
AcDbSymbolTableRecord
100
AcDbBlockTableRecord
  2
*Model_Space
340
22
  0
BLOCK_RECORD
  5
1B
330
1
100
AcDbSymbolTableRecord
100
AcDbBlockTableRecord
  2
*Paper_Space
340
1E
  0
BLOCK_RECORD
  5
23
330
1
100
AcDbSymbolTableRecord
100
AcDbBlockTableRecord
  2
*Paper_Space0
340
26
  0
BLOCK_RECORD
  5
1AB
330
1
100
AcDbSymbolTableRecord
100
AcDbBlockTableRecord
  2
_D
340
0
  0
BLOCK_RECORD
  5
1B5
330
1
100
AcDbSymbolTableRecord
100
AcDbBlockTableRecord
  2
_D_1
340
0
  0
BLOCK_RECORD
  5
1BF
330
1
100
AcDbSymbolTableRecord
100
AcDbBlockTableRecord
  2
_D_2
340
0
  0
BLOCK_RECORD
  5
1C9
330
1
100
AcDbSymbolTableRecord
100
AcDbBlockTableRecord
  2
_D_3
340
0
  0
BLOCK_RECORD
  5
1D3
330
1
100
AcDbSymbolTableRecord
100
AcDbBlockTableRecord
  2
_D_4
340
0
  0
BLOCK_RECORD
  5
1DF
330
1
100
AcDbSymbolTableRecord
100
AcDbBlockTableRecord
  2
_D_5
340
0
  0
BLOCK_RECORD
  5
209
330
1
100
AcDbSymbolTableRecord
100
AcDbBlockTableRecord
  2
_D_6
340
0
  0
BLOCK_RECORD
  5
218
330
1
100
AcDbSymbolTableRecord
100
AcDbBlockTableRecord
  2
_D_7
340
0
  0
BLOCK_RECORD
  5
223
330
1
100
AcDbSymbolTableRecord
100
AcDbBlockTableRecord
  2
SW_CENTERMARKSYMBOL_0
340
0
102
{BLKREFS
331
22E
102
}
  0
ENDTAB
  0
ENDSEC
  0
SECTION
  2
BLOCKS
  0
BLOCK
  5
20
330
1F
100
AcDbEntity
  8
0
100
AcDbBlockBegin
  2
*Model_Space
 70
     0
 10
0.0
 20
0.0
 30
0.0
  3
*Model_Space
  1

  0
ENDBLK
  5
21
330
1F
100
AcDbEntity
  8
0
100
AcDbBlockEnd
  0
BLOCK
  5
1C
330
1B
100
AcDbEntity
 67
     1
  8
0
100
AcDbBlockBegin
  2
*Paper_Space
 70
     0
 10
0.0
 20
0.0
 30
0.0
  3
*Paper_Space
  1

  0
ENDBLK
  5
1D
330
1B
100
AcDbEntity
 67
     1
  8
0
100
AcDbBlockEnd
  0
BLOCK
  5
24
330
23
100
AcDbEntity
  8
0
100
AcDbBlockBegin
  2
*Paper_Space0
 70
     0
 10
0.0
 20
0.0
 30
0.0
  3
*Paper_Space0
  1

  0
ENDBLK
  5
25
330
23
100
AcDbEntity
  8
0
100
AcDbBlockEnd
  0
BLOCK
  5
1AC
330
1AB
100
AcDbEntity
  8
0
100
AcDbBlockBegin
  2
_D
 70
     0
 10
0.0
 20
0.0
 30
0.0
  3
_D
  1

  0
ARC
  5
1AE
330
1AB
100
AcDbEntity
  8
VERMASSUNG
100
AcDbCircle
 10
259.2955034825
 20
110.7492330596
 30
0.0
 40
9.780558595713842
100
AcDbArc
 50
0.0
 51
107.5401158054
  0
SOLID
  5
1AF
330
1AB
100
AcDbEntity
  8
VERMASSUNG
100
AcDbTrace
 10
269.0760620782
 20
110.7492330596
 30
0.0
 11
269.0763038786
 21
113.7827953124
 31
0.0
 12
268.1862505223
 22
113.649359849
 32
0.0
 13
268.1862505223
 23
113.649359849
 33
0.0
  0
SOLID
  5
1B0
330
1AB
100
AcDbEntity
  8
VERMASSUNG
100
AcDbTrace
 10
256.3479025665
 20
120.0750560948
 30
0.0
 11
259.3813569736
 21
120.1006365637
 31
0.0
 12
259.2403500406
 22
120.9895218459
 32
0.0
 13
259.2403500406
 23
120.9895218459
 33
0.0
  0
LINE
  5
1B1
330
1AB
100
AcDbEntity
  8
VERMASSUNG
100
AcDbLine
 10
265.1994472558
 20
110.7492330596
 30
0.0
 11
270.0760620782
 21
110.7492330596
 31
0.0
  0
MTEXT
  5
1B2
330
1AB
100
AcDbEntity
  8
VERMASSUNG
100
AcDbMText
 10
263.0505621034
 20
123.3189128849
 30
0.1
 40
2.0
 41
0.0
 71
     1
 72
     1
  1
107.5°
  7
SLDTEXTSTYLE0
 11
0.8066515584256998
 21
-0.5910272948768016
 31
0.0
 73
     1
 44
1.0
  0
ENDBLK
  5
1AD
330
1AB
100
AcDbEntity
  8
0
100
AcDbBlockEnd
  0
BLOCK
  5
1B6
330
1B5
100
AcDbEntity
  8
0
100
AcDbBlockBegin
  2
_D_1
 70
     0
 10
0.0
 20
0.0
 30
0.0
  3
_D_1
  1

  0
SOLID
  5
1B8
330
1B5
100
AcDbEntity
  8
VERMASSUNG
100
AcDbTrace
 10
41.1499723169
 20
191.2492330596
 30
0.0
 11
44.1499723169
 21
190.7992330596
 31
0.0
 12
44.1499723169
 22
191.6992330596
 32
0.0
 13
44.1499723169
 23
191.6992330596
 33
0.0
  0
SOLID
  5
1B9
330
1B5
100
AcDbEntity
  8
VERMASSUNG
100
AcDbTrace
 10
259.1499723169
 20
191.2492330596
 30
0.0
 11
256.1499723169
 21
191.6992330596
 31
0.0
 12
256.1499723169
 22
190.7992330596
 32
0.0
 13
256.1499723169
 23
190.7992330596
 33
0.0
  0
LINE
  5
1BA
330
1B5
100
AcDbEntity
  8
VERMASSUNG
100
AcDbLine
 10
41.1499723169
 20
158.0415710521
 30
0.0
 11
41.1499723169
 21
192.2492330596
 31
0.0
  0
LINE
  5
1BB
330
1B5
100
AcDbEntity
  8
VERMASSUNG
100
AcDbLine
 10
259.1499723169
 20
137.7492330596
 30
0.0
 11
259.1499723169
 21
192.2492330596
 31
0.0
  0
LINE
  5
1BC
330
1B5
100
AcDbEntity
  8
VERMASSUNG
100
AcDbLine
 10
41.1499723169
 20
191.2492330596
 30
0.0
 11
259.1499723169
 21
191.2492330596
 31
0.0
  0
MTEXT
  5
1BD
330
1B5
100
AcDbEntity
  8
VERMASSUNG
100
AcDbMText
 10
147.3499721839
 20
193.8273684227
 30
0.1
 40
2.0
 41
0.0
 71
     1
 72
     1
  1
218
  7
SLDTEXTSTYLE0
 73
     1
 44
1.0
  0
ENDBLK
  5
1B7
330
1B5
100
AcDbEntity
  8
0
100
AcDbBlockEnd
  0
BLOCK
  5
1C0
330
1BF
100
AcDbEntity
  8
0
100
AcDbBlockBegin
  2
_D_2
 70
     0
 10
0.0
 20
0.0
 30
0.0
  3
_D_2
  1

  0
SOLID
  5
1C2
330
1BF
100
AcDbEntity
  8
VERMASSUNG
100
AcDbTrace
 10
79.1499723169
 20
181.8741253749
 30
0.0
 11
82.1499723169
 21
181.4241253749
 31
0.0
 12
82.1499723169
 22
182.3241253749
 32
0.0
 13
82.1499723169
 23
182.3241253749
 33
0.0
  0
SOLID
  5
1C3
330
1BF
100
AcDbEntity
  8
VERMASSUNG
100
AcDbTrace
 10
259.1499723169
 20
181.8741253749
 30
0.0
 11
256.1499723169
 21
182.3241253749
 31
0.0
 12
256.1499723169
 22
181.4241253749
 32
0.0
 13
256.1499723169
 23
181.4241253749
 33
0.0
  0
LINE
  5
1C4
330
1BF
100
AcDbEntity
  8
VERMASSUNG
100
AcDbLine
 10
79.1499723169
 20
168.7492330596
 30
0.0
 11
79.1499723169
 21
182.8741253749
 31
0.0
  0
LINE
  5
1C5
330
1BF
100
AcDbEntity
  8
VERMASSUNG
100
AcDbLine
 10
259.1499723169
 20
137.7492330596
 30
0.0
 11
259.1499723169
 21
182.8741253749
 31
0.0
  0
LINE
  5
1C6
330
1BF
100
AcDbEntity
  8
VERMASSUNG
100
AcDbLine
 10
79.1499723169
 20
181.8741253749
 30
0.0
 11
259.1499723169
 21
181.8741253749
 31
0.0
  0
MTEXT
  5
1C7
330
1BF
100
AcDbEntity
  8
VERMASSUNG
100
AcDbMText
 10
166.3499721839
 20
184.452260738
 30
0.1
 40
2.0
 41
0.0
 71
     1
 72
     1
  1
180
  7
SLDTEXTSTYLE0
 73
     1
 44
1.0
  0
ENDBLK
  5
1C1
330
1BF
100
AcDbEntity
  8
0
100
AcDbBlockEnd
  0
BLOCK
  5
1CA
330
1C9
100
AcDbEntity
  8
0
100
AcDbBlockBegin
  2
_D_3
 70
     0
 10
0.0
 20
0.0
 30
0.0
  3
_D_3
  1

  0
SOLID
  5
1CC
330
1C9
100
AcDbEntity
  8
VERMASSUNG
100
AcDbTrace
 10
279.7693516323
 20
137.7492330596
 30
0.0
 11
279.3193516323
 21
134.7492330596
 31
0.0
 12
280.2193516323
 22
134.7492330596
 32
0.0
 13
280.2193516323
 23
134.7492330596
 33
0.0
  0
SOLID
  5
1CD
330
1C9
100
AcDbEntity
  8
VERMASSUNG
100
AcDbTrace
 10
279.7693516323
 20
110.7492330596
 30
0.0
 11
280.2193516323
 21
113.7492330596
 31
0.0
 12
279.3193516323
 22
113.7492330596
 32
0.0
 13
279.3193516323
 23
113.7492330596
 33
0.0
  0
LINE
  5
1CE
330
1C9
100
AcDbEntity
  8
VERMASSUNG
100
AcDbLine
 10
259.1499723169
 20
137.7492330596
 30
0.0
 11
280.7693516323
 21
137.7492330596
 31
0.0
  0
LINE
  5
1CF
330
1C9
100
AcDbEntity
  8
VERMASSUNG
100
AcDbLine
 10
265.1994472558
 20
110.7492330596
 30
0.0
 11
280.7693516323
 21
110.7492330596
 31
0.0
  0
LINE
  5
1D0
330
1C9
100
AcDbEntity
  8
VERMASSUNG
100
AcDbLine
 10
279.7693516323
 20
137.7492330596
 30
0.0
 11
279.7693516323
 21
110.7492330596
 31
0.0
  0
MTEXT
  5
1D1
330
1C9
100
AcDbEntity
  8
VERMASSUNG
100
AcDbMText
 10
277.1912162692
 20
121.9492330085
 30
0.1
 40
2.0
 41
0.0
 71
     1
 72
     1
  1
27
  7
SLDTEXTSTYLE0
 11
-7.044195017643634E-15
 21
1.0
 31
0.0
 73
     1
 44
1.0
  0
ENDBLK
  5
1CB
330
1C9
100
AcDbEntity
  8
0
100
AcDbBlockEnd
  0
BLOCK
  5
1D4
330
1D3
100
AcDbEntity
  8
0
100
AcDbBlockBegin
  2
_D_4
 70
     0
 10
0.0
 20
0.0
 30
0.0
  3
_D_4
  1

  0
SOLID
  5
1D6
330
1D3
100
AcDbEntity
  8
VERMASSUNG
100
AcDbTrace
 10
31.1499723169
 20
169.2492330596
 30
0.0
 11
30.6999723169
 21
166.2492330596
 31
0.0
 12
31.5999723169
 22
166.2492330596
 32
0.0
 13
31.5999723169
 23
166.2492330596
 33
0.0
  0
SOLID
  5
1D7
330
1D3
100
AcDbEntity
  8
VERMASSUNG
100
AcDbTrace
 10
31.1499723169
 20
106.2492330596
 30
0.0
 11
31.5999723169
 21
109.2492330596
 31
0.0
 12
30.6999723169
 22
109.2492330596
 32
0.0
 13
30.6999723169
 23
109.2492330596
 33
0.0
  0
LINE
  5
1D8
330
1D3
100
AcDbEntity
  8
VERMASSUNG
100
AcDbLine
 10
79.6499723169
 20
169.2492330596
 30
0.0
 11
30.1499723169
 21
169.2492330596
 31
0.0
  0
LINE
  5
1D9
330
1D3
100
AcDbEntity
  8
VERMASSUNG
100
AcDbLine
 10
79.6499723169
 20
106.2492330596
 30
0.0
 11
30.1499723169
 21
106.2492330596
 31
0.0
  0
LINE
  5
1DA
330
1D3
100
AcDbEntity
  8
VERMASSUNG
100
AcDbLine
 10
31.1499723169
 20
169.2492330596
 30
0.0
 11
31.1499723169
 21
106.2492330596
 31
0.0
  0
MTEXT
  5
1DB
330
1D3
100
AcDbEntity
  8
VERMASSUNG
100
AcDbMText
 10
28.3718368279
 20
131.3442329503
 30
0.1
 40
2.0
 41
0.0
 71
     1
 72
     1
  1
PSC
  7
SLDTEXTSTYLE0
 11
-7.044195017643634E-15
 21
1.0
 31
0.0
 73
     1
 44
1.0
  0
MTEXT
  5
1DC
330
1D3
100
AcDbEntity
  8
VERMASSUNG
100
AcDbMText
 10
28.5718368374
 20
135.9442330524
 30
0.1
 40
2.0
 41
0.0
 71
     1
 72
     1
  1
%%c
  7
SLDTEXTSTYLE0
 11
-7.044195017643634E-15
 21
1.0
 31
0.0
 73
     1
 44
1.0
  0
MTEXT
  5
1DD
330
1D3
100
AcDbEntity
  8
VERMASSUNG
100
AcDbMText
 10
28.3718368279
 20
139.5542335324
 30
0.1
 40
2.0
 41
0.0
 71
     1
 72
     1
  1
63
  7
SLDTEXTSTYLE0
 11
-7.044195017643634E-15
 21
1.0
 31
0.0
 73
     1
 44
1.0
  0
ENDBLK
  5
1D5
330
1D3
100
AcDbEntity
  8
0
100
AcDbBlockEnd
  0
BLOCK
  5
1E0
330
1DF
100
AcDbEntity
  8
0
100
AcDbBlockBegin
  2
_D_5
 70
     0
 10
0.0
 20
0.0
 30
0.0
  3
_D_5
  1

  0
SOLID
  5
1E2
330
1DF
100
AcDbEntity
  8
VERMASSUNG
100
AcDbTrace
 10
134.3673372772
 20
117.7492330596
 30
0.0
 11
134.8173372772
 21
120.7492330596
 31
0.0
 12
133.9173372772
 22
120.7492330596
 32
0.0
 13
133.9173372772
 23
120.7492330596
 33
0.0
  0
SOLID
  5
1E3
330
1DF
100
AcDbEntity
  8
VERMASSUNG
100
AcDbTrace
 10
134.3673372772
 20
157.7492330596
 30
0.0
 11
133.9173372772
 21
154.7492330596
 31
0.0
 12
134.8173372772
 22
154.7492330596
 32
0.0
 13
134.8173372772
 23
154.7492330596
 33
0.0
  0
LINE
  5
1E4
330
1DF
100
AcDbEntity
  8
VERMASSUNG
100
AcDbLine
 10
134.3673372772
 20
117.7492330596
 30
0.0
 11
134.3673372772
 21
157.7492330596
 31
0.0
  0
MTEXT
  5
1E5
330
1DF
100
AcDbEntity
  8
VERMASSUNG
100
AcDbMText
 10
131.7892017976
 20
124.3252982839
 30
0.1
 40
2.0
 41
0.0
 71
     1
 72
     1
  1
%%c
  7
SLDTEXTSTYLE0
 11
6.123233995736766E-17
 21
1.0
 31
0.0
 73
     1
 44
1.0
  0
MTEXT
  5
1E6
330
1DF
100
AcDbEntity
  8
VERMASSUNG
100
AcDbMText
 10
131.5892017881
 20
127.9352982982
 30
0.1
 40
2.0
 41
0.0
 71
     1
 72
     1
  1
40
  7
SLDTEXTSTYLE0
 11
6.123233995736766E-17
 21
1.0
 31
0.0
 73
     1
 44
1.0
  0
ENDBLK
  5
1E1
330
1DF
100
AcDbEntity
  8
0
100
AcDbBlockEnd
  0
BLOCK
  5
20A
330
209
100
AcDbEntity
  8
0
100
AcDbBlockBegin
  2
_D_6
 70
     0
 10
0.0
 20
0.0
 30
0.0
  3
_D_6
  1

  0
SOLID
  5
20C
330
209
100
AcDbEntity
  8
VERMASSUNG
100
AcDbTrace
 10
184.7862193587
 20
80.1586300175
 30
0.0
 11
186.9996978863
 21
82.2330004781
 31
0.0
 12
186.2936659333
 22
82.7911392435
 32
0.0
 13
186.2936659333
 23
82.7911392435
 33
0.0
  0
SOLID
  5
20D
330
209
100
AcDbEntity
  8
VERMASSUNG
100
AcDbTrace
 10
153.7785101733
 20
40.9346326298
 30
0.0
 11
151.5650316457
 21
38.8602621692
 31
0.0
 12
152.2710635987
 22
38.3021234038
 32
0.0
 13
152.2710635987
 23
38.3021234038
 33
0.0
  0
LINE
  5
20E
330
209
100
AcDbEntity
  8
VERMASSUNG
100
AcDbLine
 10
184.7862193587
 20
80.1586300175
 30
0.0
 11
184.0017394109
 21
80.7787842012
 31
0.0
  0
LINE
  5
20F
330
209
100
AcDbEntity
  8
VERMASSUNG
100
AcDbLine
 10
153.7785101733
 20
40.9346326298
 30
0.0
 11
154.5629901211
 21
40.3144784461
 31
0.0
  0
LINE
  5
210
330
209
100
AcDbEntity
  8
VERMASSUNG
100
AcDbLine
 10
184.7862193587
 20
80.1586300175
 30
0.0
 11
188.5071444609
 21
84.8655097041
 31
0.0
  0
LINE
  5
211
330
209
100
AcDbEntity
  8
VERMASSUNG
100
AcDbLine
 10
184.7862193587
 20
80.1586300175
 30
0.0
 11
153.7785101733
 21
40.9346326298
 31
0.0
  0
LINE
  5
212
330
209
100
AcDbEntity
  8
VERMASSUNG
100
AcDbLine
 10
153.7785101733
 20
40.9346326298
 30
0.0
 11
140.6843849375
 21
24.3708829192
 31
0.0
  0
MTEXT
  5
213
330
209
100
AcDbEntity
  8
VERMASSUNG
100
AcDbMText
 10
138.6618893512
 20
25.969724423
 30
0.1
 40
2.0
 41
0.0
 71
     1
 72
     1
  1
%%c
  7
SLDTEXTSTYLE0
 11
0.6201541837074491
 21
0.7844799477552931
 31
0.0
 73
     1
 44
1.0
  0
MTEXT
  5
214
330
209
100
AcDbEntity
  8
VERMASSUNG
100
AcDbMText
 10
140.7437499662
 20
28.9257278882
 30
0.1
 40
2.0
 41
0.0
 71
     1
 72
     1
  1
50
  7
SLDTEXTSTYLE0
 11
0.6201541837074491
 21
0.7844799477552931
 31
0.0
 73
     1
 44
1.0
  0
MTEXT
  5
215
330
209
100
AcDbEntity
  8
VERMASSUNG
100
AcDbMText
 10
144.3328926565
 20
33.4659060312
 30
0.1
 40
2.0
 41
0.0
 71
     1
 72
     1
  1
min.
  7
SLDTEXTSTYLE0
 11
0.6201541837074491
 21
0.7844799477552931
 31
0.0
 73
     1
 44
1.0
  0
ENDBLK
  5
20B
330
209
100
AcDbEntity
  8
0
100
AcDbBlockEnd
  0
BLOCK
  5
219
330
218
100
AcDbEntity
  8
0
100
AcDbBlockBegin
  2
_D_7
 70
     0
 10
0.0
 20
0.0
 30
0.0
  3
_D_7
  1

  0
ARC
  5
21B
330
218
100
AcDbEntity
  8
VERMASSUNG
100
AcDbCircle
 10
169.282364766
 20
39.8473074315
 30
0.0
 40
61.38150039515589
100
AcDbArc
 50
90.0
 51
94.0
  0
ARC
  5
21C
330
218
100
AcDbEntity
  8
VERMASSUNG
100
AcDbCircle
 10
169.282364766
 20
39.8473074315
 30
0.0
 40
61.3815003951559
100
AcDbArc
 50
84.4054990767
 51
90.0
  0
ARC
  5
21D
330
218
100
AcDbEntity
  8
VERMASSUNG
100
AcDbCircle
 10
169.282364766
 20
39.8473074315
 30
0.0
 40
61.38150039515589
100
AcDbArc
 50
94.0
 51
104.4082436665
  0
SOLID
  5
21E
330
218
100
AcDbEntity
  8
VERMASSUNG
100
AcDbTrace
 10
169.282364766
 20
101.2288078267
 30
0.0
 11
172.2704834965
 21
100.7056955516
 31
0.0
 12
172.2924574228
 22
101.6054272597
 32
0.0
 13
172.2924574228
 23
101.6054272597
 33
0.0
  0
SOLID
  5
21F
330
218
100
AcDbEntity
  8
VERMASSUNG
100
AcDbTrace
 10
165.0006077453
 20
101.0792855767
 30
0.0
 11
161.9715758793
 21
101.2450141344
 31
0.0
 12
162.0562583895
 22
100.3490069511
 32
0.0
 13
162.0562583895
 23
100.3490069511
 33
0.0
  0
LINE
  5
220
330
218
100
AcDbEntity
  8
VERMASSUNG
100
AcDbLine
 10
169.282364766
 20
96.5466313237
 30
0.0
 11
169.282364766
 21
102.2288078267
 31
0.0
  0
LINE
  5
221
330
218
100
AcDbEntity
  8
VERMASSUNG
100
AcDbLine
 10
166.2770615392
 20
82.8251458776
 30
0.0
 11
164.9308512716
 21
102.076849627
 31
0.0
  0
MTEXT
  5
222
330
218
100
AcDbEntity
  8
VERMASSUNG
100
AcDbMText
 10
153.4505684301
 20
101.8592355691
 30
-72.3032932109
 40
2.0
 41
0.0
 71
     1
 72
     1
  1
4°
  7
SLDTEXTSTYLE0
 11
0.9771853794290589
 21
0.2123881687620245
 31
0.0
 73
     1
 44
1.0
  0
ENDBLK
  5
21A
330
218
100
AcDbEntity
  8
0
100
AcDbBlockEnd
  0
BLOCK
  5
224
330
223
100
AcDbEntity
  8
0
100
AcDbBlockBegin
  2
SW_CENTERMARKSYMBOL_0
 70
     0
 10
0.0
 20
0.0
 30
0.0
  3
SW_CENTERMARKSYMBOL_0
  1

  0
LINE
  5
226
330
223
100
AcDbEntity
  8
VERMASSUNG
 62
     0
100
AcDbLine
 10
0.0
 20
0.0
 30
0.0
 11
0.0
 21
2.5
 31
0.0
  0
LINE
  5
227
330
223
100
AcDbEntity
  8
VERMASSUNG
 62
     0
100
AcDbLine
 10
0.0
 20
0.0
 30
0.0
 11
-2.5
 21
0.0
 31
0.0
  0
LINE
  5
228
330
223
100
AcDbEntity
  8
VERMASSUNG
 62
     0
100
AcDbLine
 10
0.0
 20
0.0
 30
0.0
 11
0.0
 21
-2.5
 31
0.0
  0
LINE
  5
229
330
223
100
AcDbEntity
  8
VERMASSUNG
 62
     0
100
AcDbLine
 10
0.0
 20
0.0
 30
0.0
 11
2.5
 21
0.0
 31
0.0
  0
LINE
  5
22A
330
223
100
AcDbEntity
  8
VERMASSUNG
 62
     0
100
AcDbLine
 10
0.0
 20
5.0
 30
0.0
 11
0.0
 21
34.0
 31
0.0
  0
LINE
  5
22B
330
223
100
AcDbEntity
  8
VERMASSUNG
 62
     0
100
AcDbLine
 10
-5.0
 20
0.0
 30
0.0
 11
-34.0
 21
0.0
 31
0.0
  0
LINE
  5
22C
330
223
100
AcDbEntity
  8
VERMASSUNG
 62
     0
100
AcDbLine
 10
0.0
 20
-5.0
 30
0.0
 11
0.0
 21
-34.0
 31
0.0
  0
LINE
  5
22D
330
223
100
AcDbEntity
  8
VERMASSUNG
 62
     0
100
AcDbLine
 10
5.0
 20
0.0
 30
0.0
 11
34.0
 21
0.0
 31
0.0
  0
ENDBLK
  5
225
330
223
100
AcDbEntity
  8
0
100
AcDbBlockEnd
  0
ENDSEC
  0
SECTION
  2
ENTITIES
  0
MTEXT
  5
49
330
1F
100
AcDbEntity
  8
KOPF_DÜNN
100
AcDbMText
 10
13.8892156294
 20
23.8442973028
 30
0.0
 40
3.0
 41
0.0
 71
     1
 72
     1
  1
PS6.BDB.LQC.180
  7
SLDTEXTSTYLE0
 73
     1
 44
1.0
  0
MTEXT
  5
4A
330
1F
100
AcDbEntity
  8
VERMASSUNG
100
AcDbMText
 10
13.9329988022
 20
28.8834360957
 30
0.0
 40
3.0
 41
0.0
 71
     1
 72
     1
  1
Bohrstange links_Boring bar left
  7
SLDTEXTSTYLE0
 73
     1
 44
1.0
  0
MTEXT
  5
4B
330
1F
100
AcDbEntity
  8
VERMASSUNG
100
AcDbMText
 10
98.8601118557
 20
13.8365368179
 30
0.0
 40
2.0
 41
0.0
 71
     1
 72
     1
  1
Datum: 07.06.2012
  7
SLDTEXTSTYLE0
 73
     1
 44
1.0
  0
MTEXT
  5
4C
330
1F
100
AcDbEntity
  8
VERMASSUNG
100
AcDbMText
 10
13.933048693
 20
18.0482802738
 30
0.0
 40
2.0
 41
0.0
 71
     1
 72
     1
  1
PSC 63
  7
SLDTEXTSTYLE0
 73
     1
 44
1.0
  0
MTEXT
  5
4D
330
1F
100
AcDbEntity
  8
VERMASSUNG
100
AcDbMText
 10
13.9808475933
 20
13.9090973692
 30
0.0
 40
2.0
 41
0.0
 71
     1
 72
     1
  1
Gewicht: 2064g
  7
SLDTEXTSTYLE0
 73
     1
 44
1.0
  0
LINE
  5
4E
330
1F
100
AcDbEntity
  8
0
  6
Continuous
 62
     7
370
    15
100
AcDbLine
 10
79.6499723407
 20
106.2492325529
 30
0.0
 11
100.1499720338
 21
106.2492325529
 31
0.0
  0
LINE
  5
4F
330
1F
100
AcDbEntity
  8
0
  6
Continuous
 62
     7
370
    15
100
AcDbLine
 10
100.1499720338
 20
169.2492335662
 30
0.0
 11
79.6499723407
 21
169.2492335662
 31
0.0
  0
ARC
  5
50
330
1F
100
AcDbEntity
  8
0
  6
Continuous
 62
     7
370
    15
100
AcDbCircle
 10
100.1499723169
 20
107.2492330596
 30
0.0
 40
1.000000000000014
100
AcDbArc
 50
270.0
 51
0.0
  0
ARC
  5
51
330
1F
100
AcDbEntity
  8
0
  6
Continuous
 62
     7
370
    15
100
AcDbCircle
 10
100.1499723169
 20
168.2492330596
 30
0.0
 40
1.000000000000057
100
AcDbArc
 50
0.0
 51
90.0
  0
ARC
  5
52
330
1F
100
AcDbEntity
  8
0
  6
Continuous
 62
     7
370
    15
100
AcDbCircle
 10
79.6499723169
 20
106.7492330596
 30
0.0
 40
0.5000000000000142
100
AcDbArc
 50
180.0
 51
270.0
  0
ARC
  5
53
330
1F
100
AcDbEntity
  8
0
  6
Continuous
 62
     7
370
    15
100
AcDbCircle
 10
79.6499723169
 20
168.7492330596
 30
0.0
 40
0.5000000000000284
100
AcDbArc
 50
90.0
 51
180.0
  0
LWPOLYLINE
  5
54
330
1F
100
AcDbEntity
  8
0
  6
Continuous
 62
     7
370
    15
100
AcDbPolyline
 90
        3
 70
   128
 43
0.0
 10
78.949972322
 20
115.2094125375
 10
79.0754272571
 20
115.1411112025
 10
79.1499723169
 20
115.0883722678
  0
LWPOLYLINE
  5
55
330
1F
100
AcDbEntity
  8
0
  6
Continuous
 62
     7
370
    15
100
AcDbPolyline
 90
        3
 70
   128
 43
0.0
 10
79.1499723169
 20
160.4100938514
 10
79.0754272571
 20
160.3573549166
 10
78.949972322
 20
160.2890535816
  0
ARC
  5
56
330
1F
100
AcDbEntity
  8
0
  6
Continuous
 62
     7
370
    15
100
AcDbCircle
 10
105.1499723169
 20
113.7492330596
 30
0.0
 40
4.000000000000014
100
AcDbArc
 50
90.0
 51
180.0
  0
ARC
  5
57
330
1F
100
AcDbEntity
  8
0
  6
Continuous
 62
     7
370
    15
100
AcDbCircle
 10
105.1499723169
 20
161.7492330596
 30
0.0
 40
4.000000000000014
100
AcDbArc
 50
180.0
 51
270.0
  0
LINE
  5
58
330
1F
100
AcDbEntity
  8
0
  6
Continuous
 62
     7
370
    15
100
AcDbLine
 10
233.1499714824
 20
157.7492326125
 30
0.0
 11
105.1499728533
 21
157.7492326125
 31
0.0
  0
LINE
  5
59
330
1F
100
AcDbEntity
  8
0
  6
Continuous
 62
     7
370
    15
100
AcDbLine
 10
105.1499728533
 20
117.7492335066
 30
0.0
 11
233.1499714824
 21
117.7492335066
 31
0.0
  0
LINE
  5
5A
330
1F
100
AcDbEntity
  8
0
  6
Continuous
 62
     7
370
    15
100
AcDbLine
 10
243.8238520595
 20
158.2492336258
 30
0.0
 11
233.6499650451
 21
158.2492336258
 31
0.0
  0
LINE
  5
5B
330
1F
100
AcDbEntity
  8
0
  6
Continuous
 62
     7
370
    15
100
AcDbLine
 10
233.6499650451
 20
158.2492336258
 30
0.0
 11
233.1499714824
 21
157.7492326125
 31
0.0
  0
LINE
  5
5C
330
1F
100
AcDbEntity
  8
0
  6
Continuous
 62
     7
370
    15
100
AcDbLine
 10
233.1499714824
 20
117.7492335066
 30
0.0
 11
234.0373505327
 21
116.8618600443
 31
0.0
  0
LINE
  5
5D
330
1F
100
AcDbEntity
  8
0
  6
Continuous
 62
     7
370
    15
100
AcDbLine
 10
251.1482943269
 20
119.0058465674
 30
0.0
 11
251.1482943269
 21
119.0999511257
 31
0.0
  0
LINE
  5
5E
330
1F
100
AcDbEntity
  8
0
  6
Continuous
 62
     7
370
    15
100
AcDbLine
 10
253.0523945066
 20
118.6715352908
 30
0.0
 11
253.0523945066
 21
118.5787848756
 31
0.0
  0
LINE
  5
5F
330
1F
100
AcDbEntity
  8
0
  6
Continuous
 62
     7
370
    15
100
AcDbLine
 10
250.9003539058
 20
117.2351918742
 30
0.0
 11
250.9003539058
 21
117.328001894
 31
0.0
  0
LINE
  5
60
330
1F
100
AcDbEntity
  8
0
  6
Continuous
 62
     7
370
    15
100
AcDbLine
 10
252.8044540855
 20
116.8995860591
 30
0.0
 11
252.8044540855
 21
116.8054964021
 31
0.0
  0
LINE
  5
61
330
1F
100
AcDbEntity
  8
0
  6
Continuous
 62
     7
370
    15
100
AcDbLine
 10
254.6036947939
 20
117.9222583398
 30
0.0
 11
254.6036947939
 21
117.9728012159
 31
0.0
  0
LINE
  5
62
330
1F
100
AcDbEntity
  8
0
  6
Continuous
 62
     7
370
    15
100
AcDbLine
 10
249.3536878797
 20
117.9728012159
 30
0.0
 11
249.3536878797
 21
117.9222583398
 31
0.0
  0
SPLINE
  5
63
330
1F
100
AcDbEntity
  8
0
  6
Continuous
 62
     7
370
    15
100
AcDbSpline
210
0.0
220
0.0
230
1.0
 70
     8
 71
     3
 72
    12
 73
     8
 74
     0
 42
0.00000001
 43
0.00000001
 12
1.0
 22
0.0
 32
0.0
 13
1.0
 23
0.0
 33
0.0
 40
0.0
 40
0.0
 40
0.0
 40
0.0
 40
0.2499999999999991
 40
0.2499999999999991
 40
0.4999999999999982
 40
0.4999999999999982
 40
1.0
 40
1.0
 40
1.0
 40
1.0
 10
89.67772913047182
 20
147.1372994909081
 30
0.0
 10
89.61464909197846
 20
147.1372994909081
 30
0.0
 10
89.55550046979704
 20
147.162663810123
 30
0.0
 10
89.45702791972796
 20
147.236828670496
 30
0.0
 10
89.41799130774325
 20
147.2833490110501
 30
0.0
 10
89.31809484096422
 20
147.4334913538953
 30
0.0
 10
89.27567395989755
 20
147.5451845608675
 30
0.0
 10
89.2447164285796
 20
147.6586023802572
 30
0.0
  0
LINE
  5
64
330
1F
100
AcDbEntity
  8
0
  6
Continuous
 62
     7
370
    15
100
AcDbLine
 10
92.6222155291
 20
147.1372998878
 30
0.0
 11
89.6777293134
 21
147.1372998878
 31
0.0
  0
SPLINE
  5
65
330
1F
100
AcDbEntity
  8
0
  6
Continuous
 62
     7
370
    15
100
AcDbSpline
210
0.0
220
0.0
230
1.0
 70
     8
 71
     3
 72
    12
 73
     8
 74
     0
 42
0.00000001
 43
0.00000001
 12
1.0
 22
0.0
 32
0.0
 13
1.0
 23
0.0
 33
0.0
 40
0.0
 40
0.0
 40
0.0
 40
0.0
 40
0.4999999999999981
 40
0.4999999999999981
 40
0.749999999999999
 40
0.749999999999999
 40
1.0
 40
1.0
 40
1.0
 40
1.0
 10
93.05522820523113
 20
147.6586023802572
 30
0.0
 10
93.02450596331205
 20
147.546046580848
 30
0.0
 10
92.98166874877688
 20
147.4332887211085
 30
0.0
 10
92.88224172457709
 20
147.2837478353121
 30
0.0
 10
92.84248952976041
 20
147.2364551036052
 30
0.0
 10
92.7444480729022
 20
147.1627188102838
 30
0.0
 10
92.68489201731475
 20
147.1372994909081
 30
0.0
 10
92.62221550333894
 20
147.1372994909081
 30
0.0
  0
ELLIPSE
  5
66
330
1F
100
AcDbEntity
  8
0
  6
Continuous
 62
     7
370
    15
100
AcDbEllipse
 10
76.8028181275
 20
137.7492330596
 30
0.0
 11
14.75368316065604
 21
31.09325491558116
 31
0.0
210
0.0
220
0.0
230
1.0
 40
0.3419987131
 41
5.193281737408618
 42
6.124043104552324
  0
SPLINE
  5
67
330
1F
100
AcDbEntity
  8
0
  6
Continuous
 62
     7
370
    15
100
AcDbSpline
210
0.0
220
0.0
230
1.0
 70
     8
 71
     3
 72
    12
 73
     8
 74
     0
 42
0.00000001
 43
0.00000001
 12
1.0
 22
0.0
 32
0.0
 13
1.0
 23
0.0
 33
0.0
 40
0.0
 40
0.0
 40
0.0
 40
0.0
 40
0.2499999999999996
 40
0.2499999999999996
 40
0.4999999999999991
 40
0.4999999999999991
 40
1.0
 40
1.0
 40
1.0
 40
1.0
 10
92.62221550333892
 20
167.8177250184453
 30
0.0
 10
92.68529554183229
 20
167.8177250184453
 30
0.0
 10
92.7444441640137
 20
167.8098190922328
 30
0.0
 10
92.84291671408278
 20
167.7864939307966
 30
0.0
 10
92.88195332606749
 20
167.7717811409649
 30
0.0
 10
92.98184979284653
 20
167.723825340234
 30
0.0
 10
93.02427067391315
 20
167.6875631836539
 30
0.0
 10
93.05522820523113
 20
167.6499755196894
 30
0.0
  0
LINE
  5
68
330
1F
100
AcDbEntity
  8
0
  6
Continuous
 62
     7
370
    15
100
AcDbLine
 10
89.6777293134
 20
167.8177255764
 30
0.0
 11
92.6222155291
 21
167.8177255764
 31
0.0
  0
SPLINE
  5
69
330
1F
100
AcDbEntity
  8
0
  6
Continuous
 62
     7
370
    15
100
AcDbSpline
210
0.0
220
0.0
230
1.0
 70
     8
 71
     3
 72
    12
 73
     8
 74
     0
 42
0.00000001
 43
0.00000001
 12
1.0
 22
0.0
 32
0.0
 13
1.0
 23
0.0
 33
0.0
 40
0.0
 40
0.0
 40
0.0
 40
0.0
 40
0.5000000000000047
 40
0.5000000000000047
 40
0.7500000000000023
 40
0.7500000000000023
 40
1.0
 40
1.0
 40
1.0
 40
1.0
 10
89.2447164285796
 20
167.6499755196894
 30
0.0
 10
89.2754386704987
 20
167.6872775026424
 30
0.0
 10
89.31827588503383
 20
167.7238893346888
 30
0.0
 10
89.41770290923364
 20
167.771654117974
 30
0.0
 10
89.45745510405028
 20
167.7866116334564
 30
0.0
 10
89.5554965609085
 20
167.8098015792256
 30
0.0
 10
89.61505261649597
 20
167.8177250184453
 30
0.0
 10
89.67772913047182
 20
167.8177250184453
 30
0.0
  0
ELLIPSE
  5
6A
330
1F
100
AcDbEntity
  8
0
  6
Continuous
 62
     7
370
    15
100
AcDbEllipse
 10
105.4971265063
 20
137.7492330596
 30
0.0
 11
-14.75368316065607
 21
31.09325491558113
 31
0.0
210
0.0
220
0.0
230
1.0
 40
0.3419987131
 41
0.1591422026273002
 42
1.08990356977098
  0
SPLINE
  5
6B
330
1F
100
AcDbEntity
  8
0
  6
Continuous
 62
     7
370
    15
100
AcDbSpline
210
0.0
220
0.0
230
1.0
 70
     8
 71
     3
 72
    12
 73
     8
 74
     0
 42
0.00000001
 43
0.00000001
 12
1.0
 22
0.0
 32
0.0
 13
1.0
 23
0.0
 33
0.0
 40
0.0
 40
0.0
 40
0.0
 40
0.0
 40
0.2500000000000014
 40
0.2500000000000014
 40
0.5000000000000028
 40
0.5000000000000028
 40
1.0
 40
1.0
 40
1.0
 40
1.0
 10
89.67772913047182
 20
107.6807411006991
 30
0.0
 10
89.61467217557401
 20
107.6807411006991
 30
0.0
 10
89.55554202582844
 20
107.6886414317786
 30
0.0
 10
89.45709447529515
 20
107.7119521797837
 30
0.0
 10
89.41806223710707
 20
107.7266573060673
 30
0.0
 10
89.31817235265012
 20
107.774590834254
 30
0.0
 10
89.27587337904077
 20
107.8106608070187
 30
0.0
 10
89.24471642857954
 20
107.8484905994549
 30
0.0
  0
LINE
  5
6C
330
1F
100
AcDbEntity
  8
0
  6
Continuous
 62
     7
370
    15
100
AcDbLine
 10
92.6222155291
 20
107.6807405427
 30
0.0
 11
89.6777293134
 21
107.6807405427
 31
0.0
  0
SPLINE
  5
6D
330
1F
100
AcDbEntity
  8
0
  6
Continuous
 62
     7
370
    15
100
AcDbSpline
210
0.0
220
0.0
230
1.0
 70
     8
 71
     3
 72
    12
 73
     8
 74
     0
 42
0.00000001
 43
0.00000001
 12
1.0
 22
0.0
 32
0.0
 13
1.0
 23
0.0
 33
0.0
 40
0.0
 40
0.0
 40
0.0
 40
0.0
 40
0.5000000000000009
 40
0.5000000000000009
 40
0.7500000000000004
 40
0.7500000000000004
 40
1.0
 40
1.0
 40
1.0
 40
1.0
 10
93.05522820523115
 20
107.8484905994549
 30
0.0
 10
93.02408300726906
 20
107.8106750765348
 30
0.0
 10
92.98180874093462
 20
107.7746082184511
 30
0.0
 10
92.88186320710932
 20
107.7266481534399
 30
0.0
 10
92.84213290240525
 20
107.7117871795422
 30
0.0
 10
92.74524485239907
 20
107.6888360334111
 30
0.0
 10
92.6851796106525
 20
107.6807411006991
 30
0.0
 10
92.62221550333896
 20
107.6807411006991
 30
0.0
  0
ELLIPSE
  5
6E
330
1F
100
AcDbEntity
  8
0
  6
Continuous
 62
     7
370
    15
100
AcDbEllipse
 10
76.8028181275
 20
137.7492330596
 30
0.0
 11
-14.75368316065617
 21
31.09325491558113
 31
0.0
210
0.0
220
0.0
230
1.0
 40
0.3419987131
 41
3.30073485621712
 42
4.231496223360772
  0
SPLINE
  5
6F
330
1F
100
AcDbEntity
  8
0
  6
Continuous
 62
     7
370
    15
100
AcDbSpline
210
0.0
220
0.0
230
1.0
 70
     8
 71
     3
 72
    12
 73
     8
 74
     0
 42
0.00000001
 43
0.00000001
 12
1.0
 22
0.0
 32
0.0
 13
1.0
 23
0.0
 33
0.0
 40
0.0
 40
0.0
 40
0.0
 40
0.0
 40
0.2499999999999991
 40
0.2499999999999991
 40
0.4999999999999982
 40
0.4999999999999982
 40
1.0
 40
1.0
 40
1.0
 40
1.0
 10
92.62221550333894
 20
128.361166628236
 30
0.0
 10
92.68527245823674
 20
128.361166628236
 30
0.0
 10
92.74440260798232
 20
128.3358202748553
 30
0.0
 10
92.84285015851562
 20
128.2617008927158
 30
0.0
 10
92.8818823967037
 20
128.2152043780178
 30
0.0
 10
92.98177228116067
 20
128.0651298710092
 30
0.0
 10
93.02407125476994
 20
127.9540121618943
 30
0.0
 10
93.05522820523122
 20
127.8398637388869
 30
0.0
  0
LINE
  5
70
330
1F
100
AcDbEntity
  8
0
  6
Continuous
 62
     7
370
    15
100
AcDbLine
 10
89.6777293134
 20
128.3611662313
 30
0.0
 11
92.6222155291
 21
128.3611662313
 31
0.0
  0
SPLINE
  5
71
330
1F
100
AcDbEntity
  8
0
  6
Continuous
 62
     7
370
    15
100
AcDbSpline
210
0.0
220
0.0
230
1.0
 70
     8
 71
     3
 72
    12
 73
     8
 74
     0
 42
0.00000001
 43
0.00000001
 12
1.0
 22
0.0
 32
0.0
 13
1.0
 23
0.0
 33
0.0
 40
0.0
 40
0.0
 40
0.0
 40
0.0
 40
0.5000000000000037
 40
0.5000000000000037
 40
0.7500000000000018
 40
0.7500000000000018
 40
1.0
 40
1.0
 40
1.0
 40
1.0
 10
89.2447164285796
 20
127.8398637388868
 30
0.0
 10
89.27586162654171
 20
127.9539691047521
 30
0.0
 10
89.31813589287613
 20
128.0650754319709
 30
0.0
 10
89.41808142670143
 20
128.2152330394012
 30
0.0
 10
89.45781173140549
 20
128.2622257310186
 30
0.0
 10
89.5546997814117
 20
128.3352013155571
 30
0.0
 10
89.61476502315826
 20
128.3611666282361
 30
0.0
 10
89.6777291304718
 20
128.3611666282361
 30
0.0
  0
ELLIPSE
  5
72
330
1F
100
AcDbEntity
  8
0
  6
Continuous
 62
     7
370
    15
100
AcDbEllipse
 10
105.4971265063
 20
137.7492330596
 30
0.0
 11
14.75368316065621
 21
31.09325491558113
 31
0.0
210
0.0
220
0.0
230
1.0
 40
0.3419987131
 41
2.051689083818829
 42
2.982450450962506
  0
LINE
  5
73
330
1F
100
AcDbEntity
  8
0
  6
Continuous
 62
     7
370
    15
100
AcDbLine
 10
101.1499721977
 20
168.2492334023
 30
0.0
 11
101.1499721977
 21
107.2492327168
 31
0.0
  0
LINE
  5
74
330
1F
100
AcDbEntity
  8
0
  6
Continuous
 62
     7
370
    15
100
AcDbLine
 10
79.1499723169
 20
106.7492335662
 30
0.0
 11
79.1499723169
 21
168.7492325529
 31
0.0
  0
SPLINE
  5
75
330
1F
100
AcDbEntity
  8
0
  6
Continuous
 62
     7
370
    15
100
AcDbSpline
210
0.0
220
0.0
230
1.0
 70
     8
 71
     3
 72
    12
 73
     8
 74
     0
 42
0.00000001
 43
0.00000001
 12
1.0
 22
0.0
 32
0.0
 13
1.0
 23
0.0
 33
0.0
 40
0.0
 40
0.0
 40
0.0
 40
0.0
 40
0.5000000000000002
 40
0.5000000000000002
 40
0.7500000000000003
 40
0.7500000000000003
 40
1.0
 40
1.0
 40
1.0
 40
1.0
 10
78.3334600304489
 20
115.8944393570964
 30
0.0
 10
78.38989653135609
 20
115.8930214757546
 30
0.0
 10
78.45898116204482
 20
115.8914571395064
 30
0.0
 10
78.57778343376275
 20
115.8885129475319
 30
0.0
 10
78.61796870923281
 20
115.8874747444345
 30
0.0
 10
78.69134975663663
 20
115.8855408492199
 30
0.0
 10
78.72475932037926
 20
115.8846459619311
 30
0.0
 10
78.75499542803571
 20
115.8838621716587
 30
0.0
  0
SPLINE
  5
76
330
1F
100
AcDbEntity
  8
0
  6
Continuous
 62
     7
370
    15
100
AcDbSpline
210
0.0
220
0.0
230
1.0
 70
     8
 71
     3
 72
    16
 73
    12
 74
     0
 42
0.00000001
 43
0.00000001
 12
1.0
 22
0.0
 32
0.0
 13
1.0
 23
0.0
 33
0.0
 40
0.0
 40
0.0
 40
0.0
 40
0.0
 40
0.0624999999999995
 40
0.0624999999999995
 40
0.1249999999999991
 40
0.1249999999999991
 40
0.2499999999999981
 40
0.2499999999999981
 40
0.4999999999999962
 40
0.4999999999999962
 40
1.0
 40
1.0
 40
1.0
 40
1.0
 10
78.75499542799851
 20
115.883862171683
 30
0.0
 10
78.76657583558645
 20
115.8835619805716
 30
0.0
 10
78.77988536234773
 20
115.8822342323126
 30
0.0
 10
78.8091867924339
 20
115.8755355575376
 30
0.0
 10
78.82400089231824
 20
115.8701773744319
 30
0.0
 10
78.85982929402108
 20
115.8531317252646
 30
0.0
 10
78.87394891838412
 20
115.8416691874888
 30
0.0
 10
78.9084530624726
 20
115.8101058621166
 30
0.0
 10
78.91955761317719
 20
115.7922085630713
 30
0.0
 10
78.94573379039338
 20
115.7420471454571
 30
0.0
 10
78.9499723169054
 20
115.7143027332605
 30
0.0
 10
78.9499723169054
 20
115.689638571331
 30
0.0
  0
LINE
  5
77
330
1F
100
AcDbEntity
  8
0
  6
Continuous
 62
     7
370
    15
100
AcDbLine
 10
78.949972322
 20
130.7273458317
 30
0.0
 11
78.949972322
 21
115.2094125375
 31
0.0
  0
SPLINE
  5
78
330
1F
100
AcDbEntity
  8
0
  6
Continuous
 62
     7
370
    15
100
AcDbSpline
210
0.0
220
0.0
230
1.0
 70
     8
 71
     3
 72
    16
 73
    12
 74
     0
 42
0.00000001
 43
0.00000001
 12
1.0
 22
0.0
 32
0.0
 13
1.0
 23
0.0
 33
0.0
 40
0.0
 40
0.0
 40
0.0
 40
0.0
 40
0.4999999999999968
 40
0.4999999999999968
 40
0.7499999999999984
 40
0.7499999999999984
 40
0.8749999999999987
 40
0.8749999999999987
 40
0.9374999999999993
 40
0.9374999999999993
 40
1.0
 40
1.0
 40
1.0
 40
1.0
 10
78.9499723169054
 20
130.7273457338221
 30
0.0
 10
78.9499723169054
 20
130.84103827795
 30
0.0
 10
78.94582604182744
 20
130.9553584392995
 30
0.0
 10
78.91986044643394
 20
131.1284067297966
 30
0.0
 10
78.90839954105654
 20
131.1875822369583
 30
0.0
 10
78.87408780328217
 20
131.2707053564264
 30
0.0
 10
78.8600630673526
 20
131.2988266725272
 30
0.0
 10
78.82404010431875
 20
131.3274424865046
 30
0.0
 10
78.80928559522908
 20
131.3332355344064
 30
0.0
 10
78.77993343408217
 20
131.3316421084694
 30
0.0
 10
78.76659355957806
 20
131.3251457051456
 30
0.0
 10
78.75499542802972
 20
131.3166299589425
 30
0.0
  0
SPLINE
  5
79
330
1F
100
AcDbEntity
  8
0
  6
Continuous
 62
     7
370
    15
100
AcDbSpline
210
0.0
220
0.0
230
1.0
 70
     8
 71
     3
 72
    12
 73
     8
 74
     0
 42
0.00000001
 43
0.00000001
 12
1.0
 22
0.0
 32
0.0
 13
1.0
 23
0.0
 33
0.0
 40
0.0
 40
0.0
 40
0.0
 40
0.0
 40
0.2500000000000003
 40
0.2500000000000003
 40
0.5000000000000007
 40
0.5000000000000007
 40
1.0
 40
1.0
 40
1.0
 40
1.0
 10
78.75499542803678
 20
131.3166299589333
 30
0.0
 10
78.72479698659615
 20
131.2944572268883
 30
0.0
 10
78.69142963126018
 20
131.275377571011
 30
0.0
 10
78.61827435543027
 20
131.2502045265683
 30
0.0
 10
78.57802165640632
 20
131.2446479901515
 30
0.0
 10
78.46029291313145
 20
131.2555598011383
 30
0.0
 10
78.38983446507254
 20
131.2974955565491
 30
0.0
 10
78.33346003045426
 20
131.3467073389306
 30
0.0
  0
SPLINE
  5
7A
330
1F
100
AcDbEntity
  8
0
  6
Continuous
 62
     7
370
    15
100
AcDbSpline
210
0.0
220
0.0
230
1.0
 70
     8
 71
     3
 72
    12
 73
     8
 74
     0
 42
0.00000001
 43
0.00000001
 12
1.0
 22
0.0
 32
0.0
 13
1.0
 23
0.0
 33
0.0
 40
0.0
 40
0.0
 40
0.0
 40
0.0
 40
0.4999999999999993
 40
0.4999999999999993
 40
0.7499999999999997
 40
0.7499999999999997
 40
1.0
 40
1.0
 40
1.0
 40
1.0
 10
77.82865197334571
 20
132.5630587308112
 30
0.0
 10
77.87240232523017
 20
132.3426117458367
 30
0.0
 10
77.92529247635466
 20
132.1270667560311
 30
0.0
 10
78.03690401949632
 20
131.8146526794592
 30
0.0
 10
78.07946336339987
 20
131.7125732038433
 30
0.0
 10
78.1844405987373
 20
131.5181331912015
 30
0.0
 10
78.24600784183187
 20
131.4230482921378
 30
0.0
 10
78.33346003045425
 20
131.3467073389307
 30
0.0
  0
SPLINE
  5
7B
330
1F
100
AcDbEntity
  8
0
  6
Continuous
 62
     7
370
    15
100
AcDbSpline
210
0.0
220
0.0
230
1.0
 70
     8
 71
     3
 72
    12
 73
     8
 74
     0
 42
0.00000001
 43
0.00000001
 12
1.0
 22
0.0
 32
0.0
 13
1.0
 23
0.0
 33
0.0
 40
0.0
 40
0.0
 40
0.0
 40
0.0
 40
0.2500000000000012
 40
0.2500000000000012
 40
0.5000000000000023
 40
0.5000000000000023
 40
1.0
 40
1.0
 40
1.0
 40
1.0
 10
78.33346003045413
 20
144.1517587802138
 30
0.0
 10
78.24496662288625
 20
144.0745089001055
 30
0.0
 10
78.18490858212037
 20
143.9811895762163
 30
0.0
 10
78.07906030913782
 20
143.7851565232468
 30
0.0
 10
78.03652678786034
 20
143.6828301650351
 30
0.0
 10
77.9253754810367
 20
143.3714857592592
 30
0.0
 10
77.87244462398891
 20
143.1560675060812
 30
0.0
 10
77.82865197334573
 20
142.9354073883333
 30
0.0
  0
SPLINE
  5
7C
330
1F
100
AcDbEntity
  8
0
  6
Continuous
 62
     7
370
    15
100
AcDbSpline
210
0.0
220
0.0
230
1.0
 70
     8
 71
     3
 72
    12
 73
     8
 74
     0
 42
0.00000001
 43
0.00000001
 12
1.0
 22
0.0
 32
0.0
 13
1.0
 23
0.0
 33
0.0
 40
0.0
 40
0.0
 40
0.0
 40
0.0
 40
0.4999999999999996
 40
0.4999999999999996
 40
0.7499999999999996
 40
0.7499999999999996
 40
1.0
 40
1.0
 40
1.0
 40
1.0
 10
78.33346003045415
 20
144.1517587802138
 30
0.0
 10
78.38976857874978
 20
144.2009130474576
 30
0.0
 10
78.46004323946788
 20
144.2428703660614
 30
0.0
 10
78.57808115379146
 20
144.2538300435938
 30
0.0
 10
78.61825739464541
 20
144.2483212853465
 30
0.0
 10
78.69221448932335
 20
144.2227640565575
 30
0.0
 10
78.72483087703478
 20
144.2039840087182
 30
0.0
 10
78.75499542803053
 20
144.1818361602015
 30
0.0
  0
SPLINE
  5
7D
330
1F
100
AcDbEntity
  8
0
  6
Continuous
 62
     7
370
    15
100
AcDbSpline
210
0.0
220
0.0
230
1.0
 70
     8
 71
     3
 72
    16
 73
    12
 74
     0
 42
0.00000001
 43
0.00000001
 12
1.0
 22
0.0
 32
0.0
 13
1.0
 23
0.0
 33
0.0
 40
0.0
 40
0.0
 40
0.0
 40
0.0
 40
0.0624999999999984
 40
0.0624999999999984
 40
0.1249999999999967
 40
0.1249999999999967
 40
0.2499999999999955
 40
0.2499999999999955
 40
0.4999999999999982
 40
0.4999999999999982
 40
1.0
 40
1.0
 40
1.0
 40
1.0
 10
78.75499542799878
 20
144.181836160147
 30
0.0
 10
78.76660832783814
 20
144.1733095705517
 30
0.0
 10
78.77995951227064
 20
144.166809309019
 30
0.0
 10
78.80935935188981
 20
144.1652399119014
 30
0.0
 10
78.82420007644511
 20
144.1711233025321
 30
0.0
 10
78.86003328441367
 20
144.1996709385826
 30
0.0
 10
78.87414649223525
 20
144.2278379578884
 30
0.0
 10
78.90863786345413
 20
144.3115922163103
 30
0.0
 10
78.91972193456452
 20
144.3693056299318
 30
0.0
 10
78.94584475236051
 20
144.5428961665776
 30
0.0
 10
78.94997231690539
 20
144.6579242192196
 30
0.0
 10
78.94997231690539
 20
144.7711203853223
 30
0.0
  0
LINE
  5
7E
330
1F
100
AcDbEntity
  8
0
  6
Continuous
 62
     7
370
    15
100
AcDbLine
 10
78.949972322
 20
160.2890535816
 30
0.0
 11
78.949972322
 21
144.7711202875
 31
0.0
  0
SPLINE
  5
7F
330
1F
100
AcDbEntity
  8
0
  6
Continuous
 62
     7
370
    15
100
AcDbSpline
210
0.0
220
0.0
230
1.0
 70
     8
 71
     3
 72
    16
 73
    12
 74
     0
 42
0.00000001
 43
0.00000001
 12
1.0
 22
0.0
 32
0.0
 13
1.0
 23
0.0
 33
0.0
 40
0.0
 40
0.0
 40
0.0
 40
0.0
 40
0.5000000000000006
 40
0.5000000000000006
 40
0.7500000000000047
 40
0.7500000000000047
 40
0.8750000000000051
 40
0.8750000000000051
 40
0.9375000000000026
 40
0.9375000000000026
 40
1.0
 40
1.0
 40
1.0
 40
1.0
 10
78.94997231690539
 20
159.8088275478135
 30
0.0
 10
78.94997231690539
 20
159.7841563917706
 30
0.0
 10
78.9458066184454
 20
159.7565745603794
 30
0.0
 10
78.91954829012045
 20
159.706231689556
 30
0.0
 10
78.90804450838286
 20
159.6879421914941
 30
0.0
 10
78.87391374903633
 20
159.6567871604571
 30
0.0
 10
78.85949186236563
 20
159.6451477852453
 30
0.0
 10
78.82392489392778
 20
159.6282657593143
 30
0.0
 10
78.80897312563312
 20
159.6228766555066
 30
0.0
 10
78.77996930727336
 20
159.6162561595621
 30
0.0
 10
78.76655395326412
 20
159.6149035713557
 30
0.0
 10
78.75499542802754
 20
159.6146039474841
 30
0.0
  0
SPLINE
  5
80
330
1F
100
AcDbEntity
  8
0
  6
Continuous
 62
     7
370
    15
100
AcDbSpline
210
0.0
220
0.0
230
1.0
 70
     8
 71
     3
 72
    12
 73
     8
 74
     0
 42
0.00000001
 43
0.00000001
 12
1.0
 22
0.0
 32
0.0
 13
1.0
 23
0.0
 33
0.0
 40
0.0
 40
0.0
 40
0.0
 40
0.0
 40
0.2500000000000001
 40
0.2500000000000001
 40
0.5000000000000004
 40
0.5000000000000004
 40
1.0
 40
1.0
 40
1.0
 40
1.0
 10
78.75499542803679
 20
159.6146039474858
 30
0.0
 10
78.72480765148714
 20
159.6138214100683
 30
0.0
 10
78.69145384739544
 20
159.6129280782497
 30
0.0
 10
78.61832764419948
 20
159.6110007694461
 30
0.0
 10
78.5780924411753
 20
159.6099612382335
 30
0.0
 10
78.46040081104223
 20
159.6070433548862
 30
0.0
 10
78.39002013788219
 20
159.605447748816
 30
0.0
 10
78.33346003045158
 20
159.6040267620481
 30
0.0
  0
SPLINE
  5
81
330
1F
100
AcDbEntity
  8
0
  6
Continuous
 62
     7
370
    15
100
AcDbSpline
210
0.0
220
0.0
230
1.0
 70
     8
 71
     3
 72
    16
 73
    12
 74
     0
 42
0.00000001
 43
0.00000001
 12
1.0
 22
0.0
 32
0.0
 13
1.0
 23
0.0
 33
0.0
 40
0.0
 40
0.0
 40
0.0
 40
0.0
 40
0.2499999999999999
 40
0.2499999999999999
 40
0.3749999999999999
 40
0.3749999999999999
 40
0.4999999999999999
 40
0.4999999999999999
 40
0.7499999999999999
 40
0.7499999999999999
 40
1.0
 40
1.0
 40
1.0
 40
1.0
 10
77.82865197334571
 20
142.9354073883333
 30
0.0
 10
77.66741949586124
 20
142.1229976130865
 30
0.0
 10
77.54693965622161
 20
141.2829193187018
 30
0.0
 10
77.4245591389083
 20
139.981624269339
 30
0.0
 10
77.39358147851084
 20
139.5409432337542
 30
0.0
 10
77.35196774088288
 20
138.6451035928231
 30
0.0
 10
77.34173182795008
 20
138.1984454616206
 30
0.0
 10
77.34154343089396
 20
136.8631355044807
 30
0.0
 10
77.38168813353158
 20
135.9786401311732
 30
0.0
 10
77.54584188847114
 20
134.2213902431472
 30
0.0
 10
77.6673935388807
 20
133.3755992967341
 30
0.0
 10
77.82865197334571
 20
132.5630587308112
 30
0.0
  0
LINE
  5
82
330
1F
100
AcDbEntity
  8
0
  6
Continuous
 62
     7
370
    15
100
AcDbLine
 10
76.9499723288
 20
144.2344111949
 30
0.0
 11
76.9499723288
 21
131.2640549242
 31
0.0
  0
LINE
  5
83
330
1F
100
AcDbEntity
  8
0
  6
Continuous
 62
     7
370
    15
100
AcDbLine
 10
42.6499728533
 20
143.8035436533
 30
0.0
 11
42.6499728533
 21
131.6949224658
 31
0.0
  0
LINE
  5
84
330
1F
100
AcDbEntity
  8
0
  6
Continuous
 62
     7
370
    15
100
AcDbLine
 10
41.1499735388
 20
143.3705308102
 30
0.0
 11
41.1499735388
 21
132.127935309
 31
0.0
  0
LINE
  5
85
330
1F
100
AcDbEntity
  8
0
  6
Continuous
 62
     7
370
    15
100
AcDbLine
 10
76.9499723288
 20
115.729133375
 30
0.0
 11
76.9499723288
 21
131.2640549242
 31
0.0
  0
ARC
  5
86
330
1F
100
AcDbEntity
  8
0
  6
Continuous
 62
     7
370
    15
100
AcDbCircle
 10
77.1499092278
 20
115.7241111639
 30
0.0
 40
0.199999999999992
100
AcDbArc
 50
88.5608333333
 51
178.5608333333
  0
LINE
  5
87
330
1F
100
AcDbEntity
  8
0
  6
Continuous
 62
     7
370
    15
100
AcDbLine
 10
42.6499728533
 20
116.5908693895
 30
0.0
 11
42.6499728533
 21
131.6949224658
 31
0.0
  0
LINE
  5
88
330
1F
100
AcDbEntity
  8
0
  6
Continuous
 62
     7
370
    15
100
AcDbLine
 10
42.6499728533
 20
116.5908693895
 30
0.0
 11
76.9499723288
 21
115.729133375
 31
0.0
  0
LINE
  5
89
330
1F
100
AcDbEntity
  8
0
  6
Continuous
 62
     7
370
    15
100
AcDbLine
 10
76.9499723288
 20
144.2344111949
 30
0.0
 11
76.9499723288
 21
159.7693327442
 31
0.0
  0
ARC
  5
8A
330
1F
100
AcDbEntity
  8
0
  6
Continuous
 62
     7
370
    15
100
AcDbCircle
 10
77.1499092278
 20
159.7743549553
 30
0.0
 40
0.2000000000000066
100
AcDbArc
 50
181.4391666667
 51
271.4391666667
  0
LINE
  5
8B
330
1F
100
AcDbEntity
  8
0
  6
Continuous
 62
     7
370
    15
100
AcDbLine
 10
42.6499728533
 20
143.8035436533
 30
0.0
 11
42.6499728533
 21
158.9075967297
 31
0.0
  0
LINE
  5
8C
330
1F
100
AcDbEntity
  8
0
  6
Continuous
 62
     7
370
    15
100
AcDbLine
 10
42.6499728533
 20
158.9075967297
 30
0.0
 11
76.9499723288
 21
159.7693327442
 31
0.0
  0
LINE
  5
8D
330
1F
100
AcDbEntity
  8
0
  6
Continuous
 62
     7
370
    15
100
AcDbLine
 10
77.1549324459
 20
159.5744181052
 30
0.0
 11
78.3334600461
 21
159.6040267125
 31
0.0
  0
LINE
  5
8E
330
1F
100
AcDbEntity
  8
0
  6
Continuous
 62
     7
370
    15
100
AcDbLine
 10
77.1549324459
 20
115.924048014
 30
0.0
 11
78.3334600461
 21
115.8944394067
 31
0.0
  0
LINE
  5
8F
330
1F
100
AcDbEntity
  8
0
  6
Continuous
 62
     7
370
    15
100
AcDbLine
 10
41.1499735388
 20
158.0415710434
 30
0.0
 11
42.6499728533
 21
158.9075967297
 31
0.0
  0
LINE
  5
90
330
1F
100
AcDbEntity
  8
0
  6
Continuous
 62
     7
370
    15
100
AcDbLine
 10
41.1499735388
 20
143.3705308102
 30
0.0
 11
41.1499735388
 21
158.0415710434
 31
0.0
  0
LINE
  5
91
330
1F
100
AcDbEntity
  8
0
  6
Continuous
 62
     7
370
    15
100
AcDbLine
 10
41.1499735388
 20
117.4568950757
 30
0.0
 11
42.6499728533
 21
116.5908693895
 31
0.0
  0
LINE
  5
92
330
1F
100
AcDbEntity
  8
0
  6
Continuous
 62
     7
370
    15
100
AcDbLine
 10
41.1499735388
 20
117.4568950757
 30
0.0
 11
41.1499735388
 21
132.127935309
 31
0.0
  0
LINE
  5
93
330
1F
100
AcDbEntity
  8
0
  6
Continuous
 62
     7
370
    15
100
AcDbLine
 10
228.4519482824
 20
157.5274325535
 30
0.0
 11
233.1499714824
 21
157.5274325535
 31
0.0
  0
SPLINE
  5
94
330
1F
100
AcDbEntity
  8
0
  6
Continuous
 62
     7
370
    15
100
AcDbSpline
210
0.0
220
0.0
230
1.0
 70
     8
 71
     3
 72
    14
 73
    10
 74
     0
 42
0.00000001
 43
0.00000001
 12
1.0
 22
0.0
 32
0.0
 13
1.0
 23
0.0
 33
0.0
 40
0.0
 40
0.0
 40
0.0
 40
0.0
 40
0.2500000000000001
 40
0.2500000000000001
 40
0.5000000000000002
 40
0.5000000000000002
 40
0.7500000000000001
 40
0.7500000000000001
 40
1.0
 40
1.0
 40
1.0
 40
1.0
 10
225.5541758019752
 20
157.0701762805403
 30
0.0
 10
225.6385529761296
 20
157.153050871803
 30
0.0
 10
225.771180988114
 20
157.2228365502883
 30
0.0
 10
226.1349762303463
 20
157.3417579644576
 30
0.0
 10
226.3574755123929
 20
157.387979636641
 30
0.0
 10
226.8798118399122
 20
157.4608101814397
 30
0.0
 10
227.1693619364764
 20
157.4859889794023
 30
0.0
 10
227.7943315932917
 20
157.5195424037957
 30
0.0
 10
228.1202168644979
 20
157.5274334793256
 30
0.0
 10
228.4519532808423
 20
157.5274334793256
 30
0.0
  0
ELLIPSE
  5
95
330
1F
100
AcDbEntity
  8
0
  6
Continuous
 62
     7
370
    15
100
AcDbEllipse
 10
226.574249711
 20
137.7492330596
 30
0.0
 11
0.4025701892336997
 21
19.99971074150076
 31
0.0
210
0.0
220
0.0
230
1.0
 40
0.2671959542
 41
0.2667084576674581
 42
3.02526710052341
  0
SPLINE
  5
96
330
1F
100
AcDbEntity
  8
0
  6
Continuous
 62
     7
370
    15
100
AcDbSpline
210
0.0
220
0.0
230
1.0
 70
     8
 71
     3
 72
    14
 73
    10
 74
     0
 42
0.00000001
 43
0.00000001
 12
1.0
 22
0.0
 32
0.0
 13
1.0
 23
0.0
 33
0.0
 40
0.0
 40
0.0
 40
0.0
 40
0.0
 40
0.25
 40
0.25
 40
0.5
 40
0.5
 40
0.75
 40
0.75
 40
1.0
 40
1.0
 40
1.0
 40
1.0
 10
228.4519532808423
 20
117.7501243800878
 30
0.0
 10
228.1202216255985
 20
117.7501243800878
 30
0.0
 10
227.797631444785
 20
117.7504159713799
 30
0.0
 10
227.1706791968595
 20
117.7541670009976
 30
0.0
 10
226.882145048709
 20
117.7575899264369
 30
0.0
 10
226.359130461307
 20
117.7741216213004
 30
0.0
 10
226.1361006936502
 20
117.7869857609145
 30
0.0
 10
225.7726035214009
 20
117.8293456283591
 30
0.0
 10
225.6385544084592
 20
117.8582259209824
 30
0.0
 10
225.5541758019751
 20
117.8971685599534
 30
0.0
  0
LINE
  5
97
330
1F
100
AcDbEntity
  8
0
  6
Continuous
 62
     7
370
    15
100
AcDbLine
 10
233.1499714824
 20
117.750123851
 30
0.0
 11
228.4519482824
 21
117.750123851
 31
0.0
  0
LINE
  5
98
330
1F
100
AcDbEntity
  8
0
  6
Continuous
 62
     7
370
    15
100
AcDbLine
 10
233.1499714824
 20
117.750123851
 30
0.0
 11
233.1499714824
 21
117.7492335066
 31
0.0
  0
LINE
  5
99
330
1F
100
AcDbEntity
  8
0
  6
Continuous
 62
     7
370
    15
100
AcDbLine
 10
233.1499714824
 20
157.7492326125
 30
0.0
 11
233.1499714824
 21
157.5274325535
 31
0.0
  0
ELLIPSE
  5
9A
330
1F
100
AcDbEntity
  8
0
  6
Continuous
 62
     7
370
    15
100
AcDbEllipse
 10
223.9426709613
 20
127.980596194
 30
0.0
 11
-0.1064029529044319
 21
2.367670791413374
 31
0.0
210
0.0
220
0.0
230
1.0
 40
0.2553617877
 41
0.0
 42
6.283185307179586
  0
LINE
  5
9B
330
1F
100
AcDbEntity
  8
0
  6
Continuous
 62
     7
370
    15
100
AcDbLine
 10
234.0583909723
 20
116.8411921337
 30
0.0
 11
233.1499714824
 21
117.750123851
 31
0.0
  0
LINE
  5
9C
330
1F
100
AcDbEntity
  8
0
  6
Continuous
 62
     7
370
    15
100
AcDbLine
 10
233.1499714824
 20
157.5274325535
 30
0.0
 11
233.6499650451
 21
158.0277483538
 31
0.0
  0
LINE
  5
9D
330
1F
100
AcDbEntity
  8
0
  6
Continuous
 62
     7
370
    15
100
AcDbLine
 10
233.6499650451
 20
158.0277483538
 30
0.0
 11
244.2153800699
 21
158.0277483538
 31
0.0
  0
LINE
  5
9E
330
1F
100
AcDbEntity
  8
0
  6
Continuous
 62
     7
370
    15
100
AcDbLine
 10
244.2153800699
 20
158.0277483538
 30
0.0
 11
255.7201642963
 21
121.6281473264
 31
0.0
  0
LINE
  5
9F
330
1F
100
AcDbEntity
  8
0
  6
Continuous
 62
     7
370
    15
100
AcDbLine
 10
248.3575899574
 20
123.9615061879
 30
0.0
 11
247.6542402479
 21
126.1867710948
 31
0.0
  0
ARC
  5
A0
330
1F
100
AcDbEntity
  8
0
  6
Continuous
 62
     7
370
    15
100
AcDbCircle
 10
246.208717762
 20
125.7295512101
 30
0.0
 40
1.516108597733309
100
AcDbArc
 50
17.5522034336
 51
197.3677895879
  0
LINE
  5
A1
330
1F
100
AcDbEntity
  8
0
  6
Continuous
 62
     7
370
    15
100
AcDbLine
 10
244.7617311451
 20
125.276986286
 30
0.0
 11
244.9918944809
 21
124.5488009974
 31
0.0
  0
LINE
  5
A2
330
1F
100
AcDbEntity
  8
0
  6
Continuous
 62
     7
370
    15
100
AcDbLine
 10
248.2193220827
 20
114.2050686851
 30
0.0
 11
243.6301518652
 21
115.6485013291
 31
0.0
  0
ELLIPSE
  5
A3
330
1F
100
AcDbEntity
  8
0
  6
Continuous
 62
     7
370
    15
100
AcDbEllipse
 10
235.8648614035
 20
90.7097478391
 30
0.0
 11
-2.842170943040401E-14
 21
26.13144513619372
 31
0.0
210
0.0
220
0.0
230
1.0
 40
0.9949698482
 41
5.979891802486657
 42
6.283185307179586
  0
LINE
  5
A4
330
1F
100
AcDbEntity
  8
0
  6
Continuous
 62
     7
370
    15
100
AcDbLine
 10
235.8648587438
 20
116.8411921337
 30
0.0
 11
234.0583909723
 21
116.8411921337
 31
0.0
  0
ELLIPSE
  5
A5
330
1F
100
AcDbEntity
  8
0
  6
Continuous
 62
     7
370
    15
100
AcDbEllipse
 10
250.455842562
 20
137.7492330596
 30
0.0
 11
-6.697318860126217
 21
20.48986112711594
 31
0.0
210
0.0
220
0.0
230
1.0
 40
0.0962569477
 41
6.104602709247356
 42
6.251733123200048
  0
LINE
  5
A6
330
1F
100
AcDbEntity
  8
0
  6
Continuous
 62
     7
370
    15
100
AcDbLine
 10
233.6499650451
 20
158.2492336258
 30
0.0
 11
233.6499650451
 21
158.0277483538
 31
0.0
  0
LINE
  5
A7
330
1F
100
AcDbEntity
  8
0
  6
Continuous
 62
     7
370
    15
100
AcDbLine
 10
234.0583909723
 20
116.8411921337
 30
0.0
 11
234.040986416
 21
116.8655015156
 31
0.0
  0
ARC
  5
A8
330
1F
100
AcDbEntity
  8
0
  6
Continuous
 62
     7
370
    15
100
AcDbCircle
 10
246.2085889484
 20
125.8813327994
 30
0.0
 40
1.249725544967437
100
AcDbArc
 50
17.55216457
 51
197.3678081895
  0
LINE
  5
A9
330
1F
100
AcDbEntity
  8
0
  6
Continuous
 62
     7
370
    15
100
AcDbLine
 10
247.4001307461
 20
126.2582175061
 30
0.0
 11
248.1005002233
 21
124.0423673391
 31
0.0
  0
LINE
  5
AA
330
1F
100
AcDbEntity
  8
0
  6
Continuous
 62
     7
370
    15
100
AcDbLine
 10
245.0158406469
 20
125.5082839727
 30
0.0
 11
245.2248741361
 21
124.8469592631
 31
0.0
  0
LINE
  5
AB
330
1F
100
AcDbEntity
  8
0
  6
Continuous
 62
     7
370
    15
100
AcDbLine
 10
244.9590970251
 20
125.9355682507
 30
0.0
 11
245.0158406469
 21
125.6129189953
 31
0.0
  0
LINE
  5
AC
330
1F
100
AcDbEntity
  8
0
  6
Continuous
 62
     7
370
    15
100
AcDbLine
 10
245.0158406469
 20
125.6129189953
 30
0.0
 11
245.2551234934
 21
124.855857119
 31
0.0
  0
CIRCLE
  5
AD
330
1F
100
AcDbEntity
  8
0
  6
Continuous
 62
     7
370
    15
100
AcDbCircle
 10
251.976278222
 20
117.9264528999
 30
0.0
 40
2.622547574925068
  0
CIRCLE
  5
AE
330
1F
100
AcDbEntity
  8
0
  6
Continuous
 62
     7
370
    15
100
AcDbCircle
 10
251.9769537108
 20
117.9060286851
 30
0.0
 40
1.798414643393244
  0
ARC
  5
AF
330
1F
100
AcDbEntity
  8
0
  6
Continuous
 62
     7
370
    15
100
AcDbCircle
 10
251.9823874586
 20
117.9045364346
 30
0.0
 40
1.671463036192709
100
AcDbArc
 50
293.3142516385
 51
351.9509775102
  0
ARC
  5
B0
330
1F
100
AcDbEntity
  8
0
  6
Continuous
 62
     7
370
    15
100
AcDbCircle
 10
251.9846221654
 20
117.9028088001
 30
0.0
 40
1.669009025684998
100
AcDbArc
 50
351.9989598272
 51
52.2044341683
  0
ARC
  5
B1
330
1F
100
AcDbEntity
  8
0
  6
Continuous
 62
     7
370
    15
100
AcDbCircle
 10
251.9786516662
 20
117.8957298312
 30
0.0
 40
1.678261883098839
100
AcDbArc
 50
52.1914751235
 51
110.6634545961
  0
LINE
  5
B2
330
1F
100
AcDbEntity
  8
0
  6
Continuous
 62
     7
370
    15
100
AcDbLine
 10
251.3077516529
 20
119.4340575114
 30
0.0
 11
251.386429784
 21
119.4660279527
 31
0.0
  0
ARC
  5
B3
330
1F
100
AcDbEntity
  8
0
  6
Continuous
 62
     7
370
    15
100
AcDbCircle
 10
251.9751183265
 20
117.9014101966
 30
0.0
 40
1.671641728541607
100
AcDbArc
 50
113.5299442013
 51
170.0045252976
  0
LINE
  5
B4
330
1F
100
AcDbEntity
  8
0
  6
Continuous
 62
     7
370
    15
100
AcDbLine
 10
250.3123987886
 20
118.0731735751
 30
0.0
 11
250.3288496706
 21
118.1915577128
 31
0.0
  0
ARC
  5
B5
330
1F
100
AcDbEntity
  8
0
  6
Continuous
 62
     7
370
    15
100
AcDbCircle
 10
251.972654605
 20
117.903304261
 30
0.0
 40
1.668923293545254
100
AcDbArc
 50
174.158102516
 51
230.046089254
  0
LINE
  5
B6
330
1F
100
AcDbEntity
  8
0
  6
Continuous
 62
     7
370
    15
100
AcDbLine
 10
250.9953339073
 20
116.5503903851
 30
0.0
 11
250.90092015
 21
116.6239723191
 31
0.0
  0
ARC
  5
B7
330
1F
100
AcDbEntity
  8
0
  6
Continuous
 62
     7
370
    15
100
AcDbCircle
 10
251.978729925
 20
117.9104272032
 30
0.0
 40
1.678322935039015
100
AcDbArc
 50
234.1305975353
 51
290.4497345872
  0
LINE
  5
B8
330
1F
100
AcDbEntity
  8
0
  6
Continuous
 62
     7
370
    15
100
AcDbLine
 10
252.6439089748
 20
116.3695517555
 30
0.0
 11
252.5651116344
 21
116.3378737494
 31
0.0
  0
SPLINE
  5
B9
330
1F
100
AcDbEntity
  8
0
  6
Continuous
 62
     7
370
    15
100
AcDbSpline
210
0.0
220
0.0
230
1.0
 70
     8
 71
     3
 72
    11
 73
     7
 74
     0
 42
0.00000001
 43
0.00000001
 12
1.0
 22
0.0
 32
0.0
 13
1.0
 23
0.0
 33
0.0
 40
0.0
 40
0.0
 40
0.0
 40
0.0
 40
0.243126017005251
 40
0.5182867387299425
 40
0.794779727277051
 40
1.0
 40
1.0
 40
1.0
 40
1.0
 10
251.307751652881
 20
119.4340575113764
 30
0.0
 10
251.2803824167916
 20
119.4154477761587
 30
0.0
 10
251.2220377267045
 20
119.3757762548076
 30
0.0
 10
251.1622825903487
 20
119.284438301511
 30
0.0
 10
251.133854273859
 20
119.1854591096765
 30
0.0
 10
251.1391318335334
 20
119.1217072596704
 30
0.0
 10
251.1413801881517
 20
119.0945475920906
 30
0.0
  0
SPLINE
  5
BA
330
1F
100
AcDbEntity
  8
0
  6
Continuous
 62
     7
370
    15
100
AcDbSpline
210
0.0
220
0.0
230
1.0
 70
     8
 71
     3
 72
    12
 73
     8
 74
     0
 42
0.00000001
 43
0.00000001
 12
1.0
 22
0.0
 32
0.0
 13
1.0
 23
0.0
 33
0.0
 40
0.0
 40
0.0
 40
0.0
 40
0.0
 40
0.2058174884413394
 40
0.4120224758692048
 40
0.6140749413086258
 40
0.813213919718094
 40
1.0
 40
1.0
 40
1.0
 40
1.0
 10
251.1413801881517
 20
119.0945475920906
 30
0.0
 10
251.1451250908075
 20
119.0299302719386
 30
0.0
 10
251.1526219467636
 20
118.9005739745963
 30
0.0
 10
251.0809392884722
 20
118.7139288405428
 30
0.0
 10
250.956908906294
 20
118.5620618738929
 30
0.0
 10
250.7953077078668
 20
118.4571228636838
 30
0.0
 10
250.6745972209008
 20
118.4338871712514
 30
0.0
 10
250.6161738607133
 20
118.422641195344
 30
0.0
  0
SPLINE
  5
BB
330
1F
100
AcDbEntity
  8
0
  6
Continuous
 62
     7
370
    15
100
AcDbSpline
210
0.0
220
0.0
230
1.0
 70
     8
 71
     3
 72
    11
 73
     7
 74
     0
 42
0.00000001
 43
0.00000001
 12
1.0
 22
0.0
 32
0.0
 13
1.0
 23
0.0
 33
0.0
 40
0.0
 40
0.0
 40
0.0
 40
0.0
 40
0.2908779923183838
 40
0.5839669326104688
 40
0.8746079644515644
 40
1.0
 40
1.0
 40
1.0
 40
1.0
 10
250.6161738607133
 20
118.422641195344
 30
0.0
 10
250.579146678739
 20
118.4151591414491
 30
0.0
 10
250.5048108731717
 20
118.4001381629702
 30
0.0
 10
250.4102587513529
 20
118.3324379941892
 30
0.0
 10
250.3537374520668
 20
118.2573721213597
 30
0.0
 10
250.3346135879922
 20
118.2068000845143
 30
0.0
 10
250.3288496705736
 20
118.1915577128401
 30
0.0
  0
SPLINE
  5
BC
330
1F
100
AcDbEntity
  8
0
  6
Continuous
 62
     7
370
    15
100
AcDbSpline
210
0.0
220
0.0
230
1.0
 70
     8
 71
     3
 72
    12
 73
     8
 74
     0
 42
0.00000001
 43
0.00000001
 12
1.0
 22
0.0
 32
0.0
 13
1.0
 23
0.0
 33
0.0
 40
0.0
 40
0.0
 40
0.0
 40
0.0
 40
0.0091740230635094
 40
0.2576859040593229
 40
0.5062009132607419
 40
0.7560391452086347
 40
1.0
 40
1.0
 40
1.0
 40
1.0
 10
253.0074675056184
 20
119.2216638102999
 30
0.0
 10
253.0063816060673
 20
119.2224998445261
 30
0.0
 10
252.9758801558715
 20
119.2459829155734
 30
0.0
 10
252.9071972929091
 20
119.2819303173664
 30
0.0
 10
252.7953802971372
 20
119.2986800429463
 30
0.0
 10
252.6835874570576
 20
119.2803632196822
 30
0.0
 10
252.6221218975918
 20
119.2406729629561
 30
0.0
 10
252.5917549106325
 20
119.2210640385619
 30
0.0
  0
SPLINE
  5
BD
330
1F
100
AcDbEntity
  8
0
  6
Continuous
 62
     7
370
    15
100
AcDbSpline
210
0.0
220
0.0
230
1.0
 70
     8
 71
     3
 72
    12
 73
     8
 74
     0
 42
0.00000001
 43
0.00000001
 12
1.0
 22
0.0
 32
0.0
 13
1.0
 23
0.0
 33
0.0
 40
0.0
 40
0.0
 40
0.0
 40
0.0
 40
0.2057495797124013
 40
0.4119648207191752
 40
0.6140127290219684
 40
0.813140370031561
 40
1.0
 40
1.0
 40
1.0
 40
1.0
 10
252.5917549106325
 20
119.2210640385619
 30
0.0
 10
252.5369593853727
 20
119.185869891661
 30
0.0
 10
252.4272443192646
 20
119.115401944953
 30
0.0
 10
252.2284420324169
 20
119.0845328664338
 30
0.0
 10
252.034656742348
 20
119.1157029315194
 30
0.0
 10
251.8637304503468
 20
119.202247350145
 30
0.0
 10
251.7842991441846
 20
119.2942848427022
 30
0.0
 10
251.7458457919801
 20
119.3388409539929
 30
0.0
  0
SPLINE
  5
BE
330
1F
100
AcDbEntity
  8
0
  6
Continuous
 62
     7
370
    15
100
AcDbSpline
210
0.0
220
0.0
230
1.0
 70
     8
 71
     3
 72
    11
 73
     7
 74
     0
 42
0.00000001
 43
0.00000001
 12
1.0
 22
0.0
 32
0.0
 13
1.0
 23
0.0
 33
0.0
 40
0.0
 40
0.0
 40
0.0
 40
0.0
 40
0.2794047981667112
 40
0.559610367335615
 40
0.8374884341349188
 40
1.0
 40
1.0
 40
1.0
 40
1.0
 10
251.7458457919801
 20
119.3388409539929
 30
0.0
 10
251.7210481012227
 20
119.3670156475838
 30
0.0
 10
251.6713816498057
 20
119.4234457831197
 30
0.0
 10
251.5658712011129
 20
119.4706876854605
 30
0.0
 10
251.4668879512558
 20
119.4825126176098
 30
0.0
 10
251.4081172226259
 20
119.4704713817753
 30
0.0
 10
251.3864297839845
 20
119.4660279527178
 30
0.0
  0
LINE
  5
BF
330
1F
100
AcDbEntity
  8
0
  6
Continuous
 62
     7
370
    15
100
AcDbLine
 10
253.1311322424
 20
118.9948923513
 30
0.0
 11
253.1060535881
 21
118.9159385487
 31
0.0
  0
SPLINE
  5
C0
330
1F
100
AcDbEntity
  8
0
  6
Continuous
 62
     7
370
    15
100
AcDbSpline
210
0.0
220
0.0
230
1.0
 70
     8
 71
     3
 72
    11
 73
     7
 74
     0
 42
0.00000001
 43
0.00000001
 12
1.0
 22
0.0
 32
0.0
 13
1.0
 23
0.0
 33
0.0
 40
0.0
 40
0.0
 40
0.0
 40
0.0
 40
0.2535102117547663
 40
0.5075665464666774
 40
0.75950495131492
 40
1.0
 40
1.0
 40
1.0
 40
1.0
 10
253.1060535880769
 20
118.82100511341
 30
0.0
 10
253.118472730491
 20
118.8563506061696
 30
0.0
 10
253.1433377691874
 20
118.927117734519
 30
0.0
 10
253.132251228145
 20
119.0413584125305
 30
0.0
 10
253.0881287712325
 20
119.1459860425844
 30
0.0
 10
253.0339348007804
 20
119.1968317449947
 30
0.0
 10
253.0074675056185
 20
119.2216638102999
 30
0.0
  0
SPLINE
  5
C1
330
1F
100
AcDbEntity
  8
0
  6
Continuous
 62
     7
370
    15
100
AcDbSpline
210
0.0
220
0.0
230
1.0
 70
     8
 71
     3
 72
    12
 73
     8
 74
     0
 42
0.00000001
 43
0.00000001
 12
1.0
 22
0.0
 32
0.0
 13
1.0
 23
0.0
 33
0.0
 40
0.0
 40
0.0
 40
0.0
 40
0.0
 40
0.0091722906528071
 40
0.2573291340695295
 40
0.5054942144464245
 40
0.7549852576041165
 40
1.0
 40
1.0
 40
1.0
 40
1.0
 10
253.6373842927659
 20
117.670497633504
 30
0.0
 10
253.6375709686192
 20
117.6718549439983
 30
0.0
 10
253.6428081702624
 20
117.7099343668391
 30
0.0
 10
253.6396684424222
 20
117.7873245258227
 30
0.0
 10
253.5980177845463
 20
117.8926476357286
 30
0.0
 10
253.5255003043464
 20
117.9808116592734
 30
0.0
 10
253.4594618252334
 20
118.0145857539673
 30
0.0
 10
253.4267414781297
 20
118.0313199385872
 30
0.0
  0
SPLINE
  5
C2
330
1F
100
AcDbEntity
  8
0
  6
Continuous
 62
     7
370
    15
100
AcDbSpline
210
0.0
220
0.0
230
1.0
 70
     8
 71
     3
 72
    12
 73
     8
 74
     0
 42
0.00000001
 43
0.00000001
 12
1.0
 22
0.0
 32
0.0
 13
1.0
 23
0.0
 33
0.0
 40
0.0
 40
0.0
 40
0.0
 40
0.0
 40
0.2058398629105768
 40
0.4120689561017312
 40
0.6141376601600883
 40
0.8132579621627403
 40
1.0
 40
1.0
 40
1.0
 40
1.0
 10
253.4267414781297
 20
118.0313199385872
 30
0.0
 10
253.3681769700007
 20
118.0614184645893
 30
0.0
 10
253.250937211928
 20
118.1216724310197
 30
0.0
 10
253.1237854000282
 20
118.2785797675128
 30
0.0
 10
253.0540572676598
 20
118.461562234736
 30
0.0
 10
253.0447665567248
 20
118.651893670372
 30
0.0
 10
253.0860662013683
 20
118.7658532201908
 30
0.0
 10
253.1060535880769
 20
118.82100511341
 30
0.0
  0
ARC
  5
C3
330
1F
100
AcDbEntity
  8
0
  6
Continuous
 62
     7
370
    15
100
AcDbCircle
 10
250.6462531519
 20
118.1850490028
 30
0.0
 40
0.3341524340034374
100
AcDbArc
 50
180.030552853
 51
248.9087466179
  0
SPLINE
  5
C4
330
1F
100
AcDbEntity
  8
0
  6
Continuous
 62
     7
370
    15
100
AcDbSpline
210
0.0
220
0.0
230
1.0
 70
     8
 71
     3
 72
    11
 73
     7
 74
     0
 42
0.00000001
 43
0.00000001
 12
1.0
 22
0.0
 32
0.0
 13
1.0
 23
0.0
 33
0.0
 40
0.0
 40
0.0
 40
0.0
 40
0.0
 40
0.2669015243403396
 40
0.5546228221543147
 40
0.8439275086853396
 40
0.9999999999999999
 40
0.9999999999999999
 40
0.9999999999999999
 40
0.9999999999999999
 10
250.3123987886156
 20
118.0731735750905
 30
0.0
 10
250.3170032121992
 20
118.0387821274025
 30
0.0
 10
250.3265712294996
 20
117.9673165116785
 30
0.0
 10
250.3839169130193
 20
117.8723815315431
 30
0.0
 10
250.4555635954687
 20
117.8091190710811
 30
0.0
 10
250.5077273209947
 20
117.7862891459843
 30
0.0
 10
250.5260069343294
 20
117.77828890829
 30
0.0
  0
ARC
  5
C5
330
1F
100
AcDbEntity
  8
0
  6
Continuous
 62
     7
370
    15
100
AcDbCircle
 10
253.6367346837
 20
118.6713346699
 30
0.0
 40
0.5843402114928521
100
AcDbArc
 50
155.2538696584
 51
179.9803287029
  0
SPLINE
  5
C6
330
1F
100
AcDbEntity
  8
0
  6
Continuous
 62
     7
370
    15
100
AcDbSpline
210
0.0
220
0.0
230
1.0
 70
     8
 71
     3
 72
    12
 73
     8
 74
     0
 42
0.00000001
 43
0.00000001
 12
1.0
 22
0.0
 32
0.0
 13
1.0
 23
0.0
 33
0.0
 40
0.0
 40
0.0
 40
0.0
 40
0.0
 40
0.2058380785558978
 40
0.4120616963958674
 40
0.6141381330949711
 40
0.8132758887067473
 40
0.9999999999999999
 40
0.9999999999999999
 40
0.9999999999999999
 40
0.9999999999999999
 10
250.5260069343294
 20
117.77828890829
 30
0.0
 10
250.5845711173654
 20
117.749552571717
 30
0.0
 10
250.7018091754505
 20
117.6920260747756
 30
0.0
 10
250.8289674684965
 20
117.537313502766
 30
0.0
 10
250.8986906011528
 20
117.3541622767719
 30
0.0
 10
250.9079849878145
 20
117.1615140298816
 30
0.0
 10
250.8666819559811
 20
117.0449909358451
 30
0.0
 10
250.8466948243822
 20
116.9886037334671
 30
0.0
  0
SPLINE
  5
C7
330
1F
100
AcDbEntity
  8
0
  6
Continuous
 62
     7
370
    15
100
AcDbSpline
210
0.0
220
0.0
230
1.0
 70
     8
 71
     3
 72
    11
 73
     7
 74
     0
 42
0.00000001
 43
0.00000001
 12
1.0
 22
0.0
 32
0.0
 13
1.0
 23
0.0
 33
0.0
 40
0.0
 40
0.0
 40
0.0
 40
0.0
 40
0.2928872590898647
 40
0.5864194383204202
 40
0.8775079395281715
 40
1.0
 40
1.0
 40
1.0
 40
1.0
 10
250.8466948243822
 20
116.9886037334671
 30
0.0
 10
250.8342911265263
 20
116.9524753009871
 30
0.0
 10
250.8094564186174
 20
116.8801388833902
 30
0.0
 10
250.8204022219307
 20
116.7639841221908
 30
0.0
 10
250.8569209654467
 20
116.6778590771574
 30
0.0
 10
250.8908663801074
 20
116.6362853896332
 30
0.0
 10
250.9009201499666
 20
116.6239723190537
 30
0.0
  0
ARC
  5
C8
330
1F
100
AcDbEntity
  8
0
  6
Continuous
 62
     7
370
    15
100
AcDbCircle
 10
253.3060958668
 20
117.8151140213
 30
0.0
 40
0.334594685349542
100
AcDbArc
 50
275.2263953366
 51
353.9061987722
  0
SPLINE
  5
C9
330
1F
100
AcDbEntity
  8
0
  6
Continuous
 62
     7
370
    15
100
AcDbSpline
210
0.0
220
0.0
230
1.0
 70
     8
 71
     3
 72
    11
 73
     7
 74
     0
 42
0.00000001
 43
0.00000001
 12
1.0
 22
0.0
 32
0.0
 13
1.0
 23
0.0
 33
0.0
 40
0.0
 40
0.0
 40
0.0
 40
0.0
 40
0.252473402631993
 40
0.5068912398971969
 40
0.7591781902989098
 40
1.0
 40
1.0
 40
1.0
 40
1.0
 10
253.3365745517457
 20
117.3869676515332
 30
0.0
 10
253.3736101984665
 20
117.3936578531912
 30
0.0
 10
253.4479667235143
 20
117.4070897813795
 30
0.0
 10
253.5423057484631
 20
117.4730489713967
 30
0.0
 10
253.6117269396084
 20
117.5630767091468
 30
0.0
 10
253.6289654443438
 20
117.6352500195364
 30
0.0
 10
253.6373842927659
 20
117.670497633504
 30
0.0
  0
SPLINE
  5
CA
330
1F
100
AcDbEntity
  8
0
  6
Continuous
 62
     7
370
    15
100
AcDbSpline
210
0.0
220
0.0
230
1.0
 70
     8
 71
     3
 72
    12
 73
     8
 74
     0
 42
0.00000001
 43
0.00000001
 12
1.0
 22
0.0
 32
0.0
 13
1.0
 23
0.0
 33
0.0
 40
0.0
 40
0.0
 40
0.0
 40
0.0
 40
0.2058605037720383
 40
0.4121067984077675
 40
0.6141948256237161
 40
0.81332254548015
 40
1.0
 40
1.0
 40
1.0
 40
1.0
 10
252.8113682243074
 20
116.7150593921414
 30
0.0
 10
252.8076209788732
 20
116.7810502779776
 30
0.0
 10
252.800119465516
 20
116.9131557192241
 30
0.0
 10
252.8718357655109
 20
117.1020131440045
 30
0.0
 10
252.9959014413562
 20
117.25372106015
 30
0.0
 10
253.1575053225727
 20
117.3563088638211
 30
0.0
 10
253.2781829321619
 20
117.37697030985
 30
0.0
 10
253.3365745517457
 20
117.3869676515332
 30
0.0
  0
SPLINE
  5
CB
330
1F
100
AcDbEntity
  8
0
  6
Continuous
 62
     7
370
    15
100
AcDbSpline
210
0.0
220
0.0
230
1.0
 70
     8
 71
     3
 72
    11
 73
     7
 74
     0
 42
0.00000001
 43
0.00000001
 12
1.0
 22
0.0
 32
0.0
 13
1.0
 23
0.0
 33
0.0
 40
0.0
 40
0.0
 40
0.0
 40
0.0
 40
0.2423770194092945
 40
0.5166893151869557
 40
0.7923364475409915
 40
1.0
 40
1.0
 40
1.0
 40
1.0
 10
252.6439089748109
 20
116.3695517554751
 30
0.0
 10
252.6713472945165
 20
116.3881982168843
 30
0.0
 10
252.7298391707392
 20
116.4279479728622
 30
0.0
 10
252.7899339355059
 20
116.5203261763136
 30
0.0
 10
252.8188655106667
 20
116.6213241934975
 30
0.0
 10
252.8136214387331
 20
116.6868884658017
 30
0.0
 10
252.8113682243074
 20
116.7150593921414
 30
0.0
  0
ARC
  5
CC
330
1F
100
AcDbEntity
  8
0
  6
Continuous
 62
     7
370
    15
100
AcDbCircle
 10
250.3154793493
 20
117.3276112275
 30
0.0
 40
0.5848746870328424
100
AcDbArc
 50
0.0382706673
 51
68.902670761
  0
ARC
  5
CD
330
1F
100
AcDbEntity
  8
0
  6
Continuous
 62
     7
370
    15
100
AcDbCircle
 10
251.1510182454
 20
116.9446211172
 30
0.0
 40
0.3350492084891226
100
AcDbArc
 50
187.0286837556
 51
308.8070538876
  0
SPLINE
  5
CE
330
1F
100
AcDbEntity
  8
0
  6
Continuous
 62
     7
370
    15
100
AcDbSpline
210
0.0
220
0.0
230
1.0
 70
     8
 71
     3
 72
    11
 73
     7
 74
     0
 42
0.00000001
 43
0.00000001
 12
1.0
 22
0.0
 32
0.0
 13
1.0
 23
0.0
 33
0.0
 40
0.0
 40
0.0
 40
0.0
 40
0.0
 40
0.2657386455650952
 40
0.5529907891975007
 40
0.8418177411328874
 40
0.9999999999999999
 40
0.9999999999999999
 40
0.9999999999999999
 40
0.9999999999999999
 10
250.9953339072908
 20
116.5503903850785
 30
0.0
 10
251.0274544242208
 20
116.5371896967427
 30
0.0
 10
251.0942958501971
 20
116.5097196272493
 30
0.0
 10
251.205899666684
 20
116.5118379842587
 30
0.0
 10
251.2977581738409
 20
116.5423674550846
 30
0.0
 10
251.344465332607
 20
116.5764751767878
 30
0.0
 10
251.3609935018266
 20
116.5885448083153
 30
0.0
  0
ARC
  5
CF
330
1F
100
AcDbEntity
  8
0
  6
Continuous
 62
     7
370
    15
100
AcDbCircle
 10
253.3897511059
 20
116.899033774
 30
0.0
 40
0.5852972809989634
100
AcDbArc
 50
95.2127345568
 51
179.9459358291
  0
SPLINE
  5
D0
330
1F
100
AcDbEntity
  8
0
  6
Continuous
 62
     7
370
    15
100
AcDbSpline
210
0.0
220
0.0
230
1.0
 70
     8
 71
     3
 72
    12
 73
     8
 74
     0
 42
0.00000001
 43
0.00000001
 12
1.0
 22
0.0
 32
0.0
 13
1.0
 23
0.0
 33
0.0
 40
0.0
 40
0.0
 40
0.0
 40
0.0
 40
0.2057902451829973
 40
0.4120431179361919
 40
0.6141269310058475
 40
0.8132643042995772
 40
0.9999999999999999
 40
0.9999999999999999
 40
0.9999999999999999
 40
0.9999999999999999
 10
251.3609935018266
 20
116.5885448083153
 30
0.0
 10
251.4157987553034
 20
116.6251050183048
 30
0.0
 10
251.5255324674226
 20
116.6983076276075
 30
0.0
 10
251.7243648925625
 20
116.731359315196
 30
0.0
 10
251.9181738952163
 20
116.7000001813579
 30
0.0
 10
252.089072027161
 20
116.6111218050271
 30
0.0
 10
252.1684764223928
 20
116.5165392590321
 30
0.0
 10
252.206902620479
 20
116.4707678928843
 30
0.0
  0
SPLINE
  5
D1
330
1F
100
AcDbEntity
  8
0
  6
Continuous
 62
     7
370
    15
100
AcDbSpline
210
0.0
220
0.0
230
1.0
 70
     8
 71
     3
 72
    11
 73
     7
 74
     0
 42
0.00000001
 43
0.00000001
 12
1.0
 22
0.0
 32
0.0
 13
1.0
 23
0.0
 33
0.0
 40
0.0
 40
0.0
 40
0.0
 40
0.0
 40
0.280223944505462
 40
0.5612824628638389
 40
0.8399754206969143
 40
1.0
 40
1.0
 40
1.0
 40
1.0
 10
252.206902620479
 20
116.4707678928843
 30
0.0
 10
252.2316949019298
 20
116.4417982173508
 30
0.0
 10
252.2813533021685
 20
116.3837725876691
 30
0.0
 10
252.3868612288299
 20
116.3348012102751
 30
0.0
 10
252.4854216014549
 20
116.3220656446108
 30
0.0
 10
252.5438130425042
 20
116.3336487496224
 30
0.0
 10
252.5651116344179
 20
116.3378737494221
 30
0.0
  0
ARC
  5
D2
330
1F
100
AcDbEntity
  8
0
  6
Continuous
 62
     7
370
    15
100
AcDbCircle
 10
252.4802679441
 20
116.7598735265
 30
0.0
 40
0.3352864106364352
100
AcDbArc
 50
215.3811008527
 51
342.4617148355
  0
ARC
  5
D3
330
1F
100
AcDbEntity
  8
0
  6
Continuous
 62
     7
370
    15
100
AcDbCircle
 10
251.9786913368
 20
117.9682233033
 30
0.0
 40
2.625007448924804
100
AcDbArc
 50
0.0999217004
 51
179.9000782996
  0
ARC
  5
D4
330
1F
100
AcDbEntity
  8
0
  6
Continuous
 62
     7
370
    15
100
AcDbCircle
 10
251.7283775437
 20
116.2255608626
 30
0.0
 40
0.5871176452138546
100
AcDbArc
 50
35.408563016
 51
128.7366530499
  0
LINE
  5
D5
330
1F
100
AcDbEntity
  8
0
  6
Continuous
 62
     7
370
    15
100
AcDbLine
 10
245.0263757679
 20
124.3629024923
 30
0.0
 11
248.2292760584
 21
114.2293613031
 31
0.0
  0
LINE
  5
D6
330
1F
100
AcDbEntity
  8
0
  6
Continuous
 62
     7
370
    15
100
AcDbLine
 10
246.8082715246
 20
123.1134987995
 30
0.0
 11
245.3887869093
 21
124.4921961427
 31
0.0
  0
LINE
  5
D7
330
1F
100
AcDbEntity
  8
0
  6
Continuous
 62
     7
370
    15
100
AcDbLine
 10
248.767446396
 20
114.5428668335
 30
0.0
 11
248.5916871998
 21
114.3586549535
 31
0.0
  0
SPLINE
  5
D8
330
1F
100
AcDbEntity
  8
0
  6
Continuous
 62
     7
370
    15
100
AcDbSpline
210
0.0
220
0.0
230
1.0
 70
     8
 71
     3
 72
    10
 73
     6
 74
     0
 42
0.00000001
 43
0.00000001
 12
1.0
 22
0.0
 32
0.0
 13
1.0
 23
0.0
 33
0.0
 40
0.0
 40
0.0
 40
0.0
 40
0.0
 40
0.3518062238627132
 40
0.7034350000300167
 40
0.9999999999999999
 40
0.9999999999999999
 40
0.9999999999999999
 40
0.9999999999999999
 10
248.2106645080293
 20
114.2218809202185
 30
0.0
 10
248.2283348419564
 20
114.1808072102737
 30
0.0
 10
248.2636665970633
 20
114.0986805075706
 30
0.0
 10
248.3589913083517
 20
114.00883842219
 30
0.0
 10
248.4350953788769
 20
113.977568659517
 30
0.0
 10
248.4699149104799
 20
113.9632619544735
 30
0.0
  0
LINE
  5
D9
330
1F
100
AcDbEntity
  8
0
  6
Continuous
 62
     7
370
    15
100
AcDbLine
 10
245.0046945783
 20
124.3651711941
 30
0.0
 11
248.210664508
 21
114.2218809202
 31
0.0
  0
LINE
  5
DA
330
1F
100
AcDbEntity
  8
0
  6
Continuous
 62
     7
370
    15
100
AcDbLine
 10
255.6688446972
 20
121.6618891433
 30
0.0
 11
245.5007840368
 21
124.8600564524
 31
0.0
  0
SPLINE
  5
DB
330
1F
100
AcDbEntity
  8
0
  6
Continuous
 62
     7
370
    15
100
AcDbSpline
210
0.0
220
0.0
230
1.0
 70
     8
 71
     3
 72
    10
 73
     6
 74
     0
 42
0.00000001
 43
0.00000001
 12
1.0
 22
0.0
 32
0.0
 13
1.0
 23
0.0
 33
0.0
 40
0.0
 40
0.0
 40
0.0
 40
0.0
 40
0.3518062201375187
 40
0.7034350023212061
 40
1.0
 40
1.0
 40
1.0
 40
1.0
 10
255.9280950996126
 20
121.4032701775303
 30
0.0
 10
255.9104247653505
 20
121.4443438877313
 30
0.0
 10
255.8750930090847
 20
121.5264705920836
 30
0.0
 10
255.7797683009215
 20
121.616312674404
 30
0.0
 10
255.7036642289552
 20
121.6475824380016
 30
0.0
 10
255.6688446971621
 20
121.6618891432753
 30
0.0
  0
LINE
  5
DC
330
1F
100
AcDbEntity
  8
0
  6
Continuous
 62
     7
370
    15
100
AcDbLine
 10
259.1340799305
 20
111.2599789724
 30
0.0
 11
255.9280950996
 21
121.4032701775
 31
0.0
  0
SPLINE
  5
DD
330
1F
100
AcDbEntity
  8
0
  6
Continuous
 62
     7
370
    15
100
AcDbSpline
210
0.0
220
0.0
230
1.0
 70
     8
 71
     3
 72
    14
 73
    10
 74
     0
 42
0.00000001
 43
0.00000001
 12
1.0
 22
0.0
 32
0.0
 13
1.0
 23
0.0
 33
0.0
 40
0.0
 40
0.0
 40
0.0
 40
0.0
 40
0.1588577027097098
 40
0.3173274731510662
 40
0.4720250400773675
 40
0.6236468238969946
 40
0.7746643277079129
 40
0.9277443433306383
 40
0.9999999999999999
 40
0.9999999999999999
 40
0.9999999999999999
 40
0.9999999999999999
 10
258.6379755708421
 20
110.7650946453085
 30
0.0
 10
258.6830744391336
 20
110.7555858484887
 30
0.0
 10
258.7731620437811
 20
110.7365914754363
 30
0.0
 10
258.909502311239
 20
110.767020861899
 30
0.0
 10
259.0254447712248
 20
110.8373972473577
 30
0.0
 10
259.1095991024097
 20
110.9417530059393
 30
0.0
 10
259.1538012358002
 20
111.0669627817708
 30
0.0
 10
259.156053302496
 20
111.177395803115
 30
0.0
 10
259.1394151007866
 20
111.2399276451124
 30
0.0
 10
259.1340799304689
 20
111.2599789723626
 30
0.0
  0
LINE
  5
DE
330
1F
100
AcDbEntity
  8
0
  6
Continuous
 62
     7
370
    15
100
AcDbLine
 10
248.4699149105
 20
113.9632619545
 30
0.0
 11
258.6379755708
 21
110.7650946453
 31
0.0
  0
ARC
  5
DF
330
1F
100
AcDbEntity
  8
0
  6
Continuous
 62
     7
370
    15
100
AcDbCircle
 10
245.3884939924
 20
124.4765837769
 30
0.0
 40
0.3795432030810371
100
AcDbArc
 50
72.4304866055
 51
197.4288553175
  0
ARC
  5
E0
330
1F
100
AcDbEntity
  8
0
  6
Continuous
 62
     7
370
    15
100
AcDbCircle
 10
248.591130262
 20
114.3439560812
 30
0.0
 40
0.3795661047557705
100
AcDbArc
 50
197.5723544354
 51
252.5684515174
  0
LINE
  5
E1
330
1F
100
AcDbEntity
  8
0
  6
Continuous
 62
     7
370
    15
100
AcDbLine
 10
248.4774250957
 20
113.9818213507
 30
0.0
 11
258.6357105943
 21
110.7867292687
 31
0.0
  0
ARC
  5
E2
330
1F
100
AcDbEntity
  8
0
  6
Continuous
 62
     7
370
    15
100
AcDbCircle
 10
258.7502797022
 20
111.148556567
 30
0.0
 40
0.3795327051648994
100
AcDbArc
 50
252.4301137361
 51
17.4309070467
  0
LINE
  5
E3
330
1F
100
AcDbEntity
  8
0
  6
Continuous
 62
     7
370
    15
100
AcDbLine
 10
259.1123838398
 20
111.2622476742
 30
0.0
 11
255.9094835493
 21
121.3957897946
 31
0.0
  0
ARC
  5
E4
330
1F
100
AcDbEntity
  8
0
  6
Continuous
 62
     7
370
    15
100
AcDbCircle
 10
255.5476960001
 20
121.2812659517
 30
0.0
 40
0.3794811475797439
100
AcDbArc
 50
17.5651824474
 51
72.5726139737
  0
LINE
  5
E5
330
1F
100
AcDbEntity
  8
0
  6
Continuous
 62
     7
370
    15
100
AcDbLine
 10
255.6613494131
 20
121.6433278844
 30
0.0
 11
245.5030639145
 21
124.838421829
 31
0.0
  0
SPLINE
  5
E6
330
1F
100
AcDbEntity
  8
0
  6
Continuous
 62
     7
370
    15
100
AcDbSpline
210
0.0
220
0.0
230
1.0
 70
     8
 71
     3
 72
    14
 73
    10
 74
     0
 42
0.00000001
 43
0.00000001
 12
1.0
 22
0.0
 32
0.0
 13
1.0
 23
0.0
 33
0.0
 40
0.0
 40
0.0
 40
0.0
 40
0.0
 40
0.158840468316664
 40
0.3173270454589772
 40
0.4720097763317522
 40
0.6236431297018276
 40
0.7746595089028435
 40
0.9277394171153287
 40
1.0
 40
1.0
 40
1.0
 40
1.0
 10
245.5007840367998
 20
124.8600564524403
 30
0.0
 10
245.4556904500731
 20
124.8695640692287
 30
0.0
 10
245.3656037436009
 20
124.8885581201578
 30
0.0
 10
245.2292629354494
 20
124.8581376369939
 30
0.0
 10
245.113328974354
 20
124.7877438774476
 30
0.0
 10
245.0291580057276
 20
124.6834032527443
 30
0.0
 10
244.9849619496746
 20
124.5581879408673
 30
0.0
 10
244.9826977900281
 20
124.4477519517165
 30
0.0
 10
244.9993535332791
 20
124.3852226461744
 30
0.0
 10
245.0046945783342
 20
124.3651711940637
 30
0.0
  0
LINE
  5
E7
330
1F
100
AcDbEntity
  8
0
  6
Continuous
 62
     7
370
    15
100
AcDbLine
 10
255.3713132116
 20
121.1306497082
 30
0.0
 11
255.5470724079
 21
121.2971031293
 31
0.0
  0
SPLINE
  5
E8
330
1F
100
AcDbEntity
  8
0
  6
Continuous
 62
     7
370
    15
100
AcDbSpline
210
0.0
220
0.0
230
1.0
 70
     8
 71
     3
 72
    11
 73
     7
 74
     0
 42
0.00000001
 43
0.00000001
 12
1.0
 22
0.0
 32
0.0
 13
1.0
 23
0.0
 33
0.0
 40
0.0
 40
0.0
 40
0.0
 40
0.0
 40
0.0073038350263625
 40
0.1268484521576847
 40
0.5874202945025574
 40
1.0
 40
1.0
 40
1.0
 40
1.0
 10
247.2944517108645
 20
122.6206931844225
 30
0.0
 10
247.2933891903891
 20
122.6218116262771
 30
0.0
 10
247.2749359973486
 20
122.6412360269601
 30
0.0
 10
247.1876836556642
 20
122.7328098175584
 30
0.0
 10
247.0238550194032
 20
122.9014581715931
 30
0.0
 10
246.8774503475917
 20
123.0454568509226
 30
0.0
 10
246.8082715245928
 20
123.11349879949
 30
0.0
  0
ARC
  5
E9
330
1F
100
AcDbEntity
  8
0
  6
Continuous
 62
     7
370
    15
100
AcDbCircle
 10
248.7876296515
 20
121.0847426069
 30
0.0
 40
0.9987825472315018
100
AcDbArc
 50
72.430014085
 51
197.4301203054
  0
LINE
  5
EA
330
1F
100
AcDbEntity
  8
0
  6
Continuous
 62
     7
370
    15
100
AcDbLine
 10
257.330488083
 20
112.6169234142
 30
0.0
 11
258.7499726984
 21
111.1635628715
 31
0.0
  0
LINE
  5
EB
330
1F
100
AcDbEntity
  8
0
  6
Continuous
 62
     7
370
    15
100
AcDbLine
 10
254.0780414316
 20
120.4677659646
 30
0.0
 11
249.0891326639
 21
122.0369308814
 31
0.0
  0
LINE
  5
EC
330
1F
100
AcDbEntity
  8
0
  6
Continuous
 62
     7
370
    15
100
AcDbLine
 10
256.3040513965
 20
114.8395862058
 30
0.0
 11
254.7310550186
 21
119.8163449392
 31
0.0
  0
ARC
  5
ED
330
1F
100
AcDbEntity
  8
0
  6
Continuous
 62
     7
370
    15
100
AcDbCircle
 10
255.351127797
 20
114.5404092379
 30
0.0
 40
0.9987843834312288
100
AcDbArc
 50
252.4301773581
 51
17.4300423161
  0
LINE
  5
EE
330
1F
100
AcDbEntity
  8
0
  6
Continuous
 62
     7
370
    15
100
AcDbLine
 10
250.0607181761
 20
115.1573851332
 30
0.0
 11
255.0496269438
 21
113.5882183537
 31
0.0
  0
ARC
  5
EF
330
1F
100
AcDbEntity
  8
0
  6
Continuous
 62
     7
370
    15
100
AcDbCircle
 10
250.3599155958
 20
116.1103295495
 30
0.0
 40
0.9988103707013575
100
AcDbArc
 50
197.5707067343
 51
252.5691960438
  0
LINE
  5
F0
330
1F
100
AcDbEntity
  8
0
  6
Continuous
 62
     7
370
    15
100
AcDbLine
 10
247.8347082111
 20
120.785564892
 30
0.0
 11
249.4077045891
 21
115.8088061586
 31
0.0
  0
ARC
  5
F1
330
1F
100
AcDbEntity
  8
0
  6
Continuous
 62
     7
370
    15
100
AcDbCircle
 10
253.7788368147
 20
119.5148143335
 30
0.0
 40
0.9988194100501924
100
AcDbArc
 50
17.5709766543
 51
72.5689261239
  0
CIRCLE
  5
F2
330
1F
100
AcDbEntity
  8
0
  6
Continuous
 62
     7
370
    15
100
AcDbCircle
 10
252.0731410203
 20
117.807104542
 30
0.0
 40
3.047329897977834
  0
SPLINE
  5
F3
330
1F
100
AcDbEntity
  8
0
  6
Continuous
 62
     7
370
    15
100
AcDbSpline
210
0.0
220
0.0
230
1.0
 70
     8
 71
     3
 72
    11
 73
     7
 74
     0
 42
0.00000001
 43
0.00000001
 12
1.0
 22
0.0
 32
0.0
 13
1.0
 23
0.0
 33
0.0
 40
0.0
 40
0.0
 40
0.0
 40
0.0
 40
0.0092067735200085
 40
0.3448482950373785
 40
0.6722280202355078
 40
1.0
 40
1.0
 40
1.0
 40
1.0
 10
254.8788596364702
 20
120.6376690044871
 30
0.0
 10
254.8802193820222
 20
120.6391053694555
 30
0.0
 10
254.9311499207473
 20
120.6929057599345
 30
0.0
 10
255.0404993644143
 20
120.8057904924913
 30
0.0
 10
255.2136906094465
 20
120.9794980996752
 30
0.0
 10
255.3187513767767
 20
121.0802457320404
 30
0.0
 10
255.3713132116044
 20
121.1306497081986
 30
0.0
  0
ARC
  5
F4
330
1F
100
AcDbEntity
  8
0
  6
Continuous
 62
     7
370
    15
100
AcDbCircle
 10
252.0693798038
 20
117.8879541686
 30
0.0
 40
3.050004846788898
100
AcDbArc
 50
180.1075294759
 51
359.8924705241
  0
SPLINE
  5
F5
330
1F
100
AcDbEntity
  8
0
  6
Continuous
 62
     7
370
    15
100
AcDbSpline
210
0.0
220
0.0
230
1.0
 70
     8
 71
     3
 72
    11
 73
     7
 74
     0
 42
0.00000001
 43
0.00000001
 12
1.0
 22
0.0
 32
0.0
 13
1.0
 23
0.0
 33
0.0
 40
0.0
 40
0.0
 40
0.0
 40
0.0
 40
0.3277684839023765
 40
0.655145017555321
 40
0.9907811413112295
 40
1.0
 40
1.0
 40
1.0
 40
1.0
 10
248.7674463960375
 20
114.5428668334952
 30
0.0
 10
248.8200041258171
 20
114.5973252872983
 30
0.0
 10
248.9250567360903
 20
114.7061770727052
 30
0.0
 10
249.098309721697
 20
114.8780930330597
 30
0.0
 10
249.2074978535675
 20
114.9831727261078
 30
0.0
 10
249.2585501143849
 20
115.0311271494587
 30
0.0
 10
249.2599148723329
 20
115.0324090942612
 30
0.0
  0
SPLINE
  5
F6
330
1F
100
AcDbEntity
  8
0
  6
Continuous
 62
     7
370
    15
100
AcDbSpline
210
0.0
220
0.0
230
1.0
 70
     8
 71
     3
 72
    11
 73
     7
 74
     0
 42
0.00000001
 43
0.00000001
 12
1.0
 22
0.0
 32
0.0
 13
1.0
 23
0.0
 33
0.0
 40
0.0
 40
0.0
 40
0.0
 40
0.0
 40
0.4125648493609276
 40
0.8731518448262598
 40
0.9926952609869734
 40
1.0
 40
1.0
 40
1.0
 40
1.0
 10
257.3304880830492
 20
112.6169234141579
 30
0.0
 10
257.261315264332
 20
112.6869000674675
 30
0.0
 10
257.1149179782611
 20
112.8349985882861
 30
0.0
 10
256.9510822884526
 20
112.9931074668947
 30
0.0
 10
256.8638212049653
 20
113.0757556521604
 30
0.0
 10
256.8453704129793
 20
113.093093686778
 30
0.0
 10
256.8443078967775
 20
113.0940921231976
 30
0.0
  0
SPLINE
  5
F7
330
1F
100
AcDbEntity
  8
0
  6
HIDDEN
 62
     7
370
     0
100
AcDbSpline
210
0.0
220
0.0
230
1.0
 70
     8
 71
     3
 72
    60
 73
    56
 74
     0
 42
0.00000001
 43
0.00000001
 12
1.0
 22
0.0
 32
0.0
 13
1.0
 23
0.0
 33
0.0
 40
-0.0625000000000003
 40
-0.0625000000000003
 40
0.0
 40
0.0
 40
0.0312499999999997
 40
0.0312499999999997
 40
0.0624999999999994
 40
0.0624999999999994
 40
0.0937499999999991
 40
0.0937499999999991
 40
0.1249999999999988
 40
0.1249999999999988
 40
0.1874999999999984
 40
0.1874999999999984
 40
0.249999999999998
 40
0.249999999999998
 40
0.281249999999998
 40
0.281249999999998
 40
0.3124999999999981
 40
0.3124999999999981
 40
0.3437499999999981
 40
0.3437499999999981
 40
0.3749999999999981
 40
0.3749999999999981
 40
0.4062499999999981
 40
0.4062499999999981
 40
0.4374999999999982
 40
0.4374999999999982
 40
0.4687499999999982
 40
0.4687499999999982
 40
0.4999999999999982
 40
0.4999999999999982
 40
0.5624999999999982
 40
0.5624999999999982
 40
0.6249999999999983
 40
0.6249999999999983
 40
0.6562499999999984
 40
0.6562499999999984
 40
0.6874999999999986
 40
0.6874999999999986
 40
0.7187499999999988
 40
0.7187499999999988
 40
0.7499999999999989
 40
0.7499999999999989
 40
0.781249999999999
 40
0.781249999999999
 40
0.8124999999999991
 40
0.8124999999999991
 40
0.8437499999999993
 40
0.8437499999999993
 40
0.8749999999999994
 40
0.8749999999999994
 40
0.9062499999999996
 40
0.9062499999999996
 40
0.9374999999999997
 40
0.9374999999999997
 40
1.0
 40
1.0
 40
1.03125
 40
1.03125
 10
89.14997231690539
 20
137.4849025344855
 30
0.0
 10
89.14997231690539
 20
137.8813983221156
 30
0.0
 10
89.16294417539419
 20
138.0113483831197
 30
0.0
 10
89.21376434508657
 20
138.2670013164798
 30
0.0
 10
89.2522316685535
 20
138.3940308230291
 30
0.0
 10
89.35262990462562
 20
138.6362189541537
 30
0.0
 10
89.41406293559878
 20
138.7510804467065
 30
0.0
 10
89.55919776714371
 20
138.9684606425307
 30
0.0
 10
89.64365288455159
 20
139.0713582097293
 30
0.0
 10
89.92037233490989
 20
139.3480252487371
 30
0.0
 10
90.14344922682794
 20
139.4970233392171
 30
0.0
 10
90.62473258904825
 20
139.6965344796818
 30
0.0
 10
90.88796300803926
 20
139.7490925826785
 30
0.0
 10
91.27936520972717
 20
139.7493028650565
 30
0.0
 10
91.41188823783605
 20
139.7363170943294
 30
0.0
 10
91.66841869107711
 20
139.6852899461156
 30
0.0
 10
91.79310552537372
 20
139.6475347469652
 30
0.0
 10
92.03528478760924
 20
139.5473964140565
 30
0.0
 10
92.15237831975932
 20
139.4847907466449
 30
0.0
 10
92.36909332311474
 20
139.34005745338
 30
0.0
 10
92.4701121499775
 20
139.2574301061004
 30
0.0
 10
92.65689703742963
 20
139.0708250528488
 30
0.0
 10
92.73975391862581
 20
138.9697099889727
 30
0.0
 10
92.88463818369964
 20
138.7531771849828
 30
0.0
 10
92.94727569152057
 20
138.6363069773817
 30
0.0
 10
93.04772451492035
 20
138.3940091067315
 30
0.0
 10
93.0855756159376
 20
138.2693451082706
 30
0.0
 10
93.13679718119393
 20
138.0130580642067
 30
0.0
 10
93.14992530781115
 20
137.8804860684611
 30
0.0
 10
93.1500659481514
 20
137.4888818756871
 30
0.0
 10
93.09774119877954
 20
137.2257165443632
 30
0.0
 10
92.89863013672229
 20
136.74421117519
 30
0.0
 10
92.74976780026503
 20
136.5209596357059
 30
0.0
 10
92.47344684093953
 20
136.2441033368171
 30
0.0
 10
92.37068319256598
 20
136.1595898899734
 30
0.0
 10
92.15329963518651
 20
136.0141726165331
 30
0.0
 10
92.03850086723006
 20
135.9526614174747
 30
0.0
 10
91.79662414380604
 20
135.8521315692199
 30
0.0
 10
91.66947053580581
 20
135.8134865460019
 30
0.0
 10
91.41380452637323
 20
135.7624302184509
 30
0.0
 10
91.28393848861721
 20
135.7493653599053
 30
0.0
 10
91.01998596188555
 20
135.7491027391073
 30
0.0
 10
90.88958163846151
 20
135.7619797393514
 30
0.0
 10
90.63393087508217
 20
135.8125657431572
 30
0.0
 10
90.50706532596782
 20
135.850842107779
 30
0.0
 10
90.2645448680219
 20
135.9511129752591
 30
0.0
 10
90.14961822936158
 20
136.0124689993999
 30
0.0
 10
89.93224676052958
 20
136.1573152945727
 30
0.0
 10
89.82923294786735
 20
136.2416928090674
 30
0.0
 10
89.64453240228536
 20
136.4261001292556
 30
0.0
 10
89.5617026680288
 20
136.5266731925251
 30
0.0
 10
89.4154502294313
 20
136.7448993331041
 30
0.0
 10
89.3530817486389
 20
136.8614544430253
 30
0.0
 10
89.20312559707216
 20
137.2223040370591
 30
0.0
 10
89.14997231690539
 20
137.4849025344855
 30
0.0
 10
89.14997231690539
 20
137.8813983221156
 30
0.0
  0
SPLINE
  5
F8
330
1F
100
AcDbEntity
  8
0
  6
HIDDEN
 62
     7
370
     0
100
AcDbSpline
210
0.0
220
0.0
230
1.0
 70
     8
 71
     3
 72
    12
 73
     8
 74
     0
 42
0.00000001
 43
0.00000001
 12
1.0
 22
0.0
 32
0.0
 13
1.0
 23
0.0
 33
0.0
 40
0.0
 40
0.0
 40
0.0
 40
0.0
 40
0.2500000000000009
 40
0.2500000000000009
 40
0.5000000000000018
 40
0.5000000000000018
 40
1.0
 40
1.0
 40
1.0
 40
1.0
 10
89.67772913047182
 20
128.3611666282362
 30
0.0
 10
89.61464909197846
 20
128.3611666282362
 30
0.0
 10
89.55550046979708
 20
128.3358023090212
 30
0.0
 10
89.457027919728
 20
128.2616374486483
 30
0.0
 10
89.4179913077433
 20
128.2151171080942
 30
0.0
 10
89.31809484096426
 20
128.0649747652489
 30
0.0
 10
89.27567395989757
 20
127.9532815582768
 30
0.0
 10
89.24471642857962
 20
127.839863738887
 30
0.0
  0
LINE
  5
F9
330
1F
100
AcDbEntity
  8
0
  6
HIDDEN
 62
     7
370
     0
100
AcDbLine
 10
92.6222155291
 20
128.3611662313
 30
0.0
 11
89.6777293134
 21
128.3611662313
 31
0.0
  0
SPLINE
  5
FA
330
1F
100
AcDbEntity
  8
0
  6
HIDDEN
 62
     7
370
     0
100
AcDbSpline
210
0.0
220
0.0
230
1.0
 70
     8
 71
     3
 72
    12
 73
     8
 74
     0
 42
0.00000001
 43
0.00000001
 12
1.0
 22
0.0
 32
0.0
 13
1.0
 23
0.0
 33
0.0
 40
0.0
 40
0.0
 40
0.0
 40
0.0
 40
0.4999999999999991
 40
0.4999999999999991
 40
0.7499999999999996
 40
0.7499999999999996
 40
1.0
 40
1.0
 40
1.0
 40
1.0
 10
93.05522820523115
 20
127.8398637388871
 30
0.0
 10
93.02450596331205
 20
127.9524195382963
 30
0.0
 10
92.98166874877687
 20
128.0651773980358
 30
0.0
 10
92.88224172457707
 20
128.2147182838322
 30
0.0
 10
92.8424895297604
 20
128.262011015539
 30
0.0
 10
92.74444807290219
 20
128.3357473088605
 30
0.0
 10
92.68489201731475
 20
128.3611666282362
 30
0.0
 10
92.62221550333894
 20
128.3611666282362
 30
0.0
  0
ELLIPSE
  5
FB
330
1F
100
AcDbEntity
  8
0
  6
HIDDEN
 62
     7
370
     0
100
AcDbEllipse
 10
76.8028181275
 20
137.7492330596
 30
0.0
 11
-14.75368316065612
 21
31.09325491558112
 31
0.0
210
0.0
220
0.0
230
1.0
 40
0.3419987131
 41
3.300734856217129
 42
4.231496223360779
  0
SPLINE
  5
FC
330
1F
100
AcDbEntity
  8
0
  6
HIDDEN
 62
     7
370
     0
100
AcDbSpline
210
0.0
220
0.0
230
1.0
 70
     8
 71
     3
 72
    12
 73
     8
 74
     0
 42
0.00000001
 43
0.00000001
 12
1.0
 22
0.0
 32
0.0
 13
1.0
 23
0.0
 33
0.0
 40
0.0
 40
0.0
 40
0.0
 40
0.0
 40
0.2500000000000014
 40
0.2500000000000014
 40
0.5000000000000028
 40
0.5000000000000028
 40
1.0
 40
1.0
 40
1.0
 40
1.0
 10
92.62221550333894
 20
107.6807411006992
 30
0.0
 10
92.6852955418323
 20
107.6807411006992
 30
0.0
 10
92.7444441640137
 20
107.6886470269116
 30
0.0
 10
92.84291671408279
 20
107.7119721883479
 30
0.0
 10
92.88195332606749
 20
107.7266849781796
 30
0.0
 10
92.98184979284655
 20
107.7746407789105
 30
0.0
 10
93.02427067391316
 20
107.8109029354905
 30
0.0
 10
93.05522820523115
 20
107.848490599455
 30
0.0
  0
LINE
  5
FD
330
1F
100
AcDbEntity
  8
0
  6
HIDDEN
 62
     7
370
     0
100
AcDbLine
 10
89.6777293134
 20
107.6807405427
 30
0.0
 11
92.6222155291
 21
107.6807405427
 31
0.0
  0
SPLINE
  5
FE
330
1F
100
AcDbEntity
  8
0
  6
HIDDEN
 62
     7
370
     0
100
AcDbSpline
210
0.0
220
0.0
230
1.0
 70
     8
 71
     3
 72
    12
 73
     8
 74
     0
 42
0.00000001
 43
0.00000001
 12
1.0
 22
0.0
 32
0.0
 13
1.0
 23
0.0
 33
0.0
 40
0.0
 40
0.0
 40
0.0
 40
0.0
 40
0.4999999999999981
 40
0.4999999999999981
 40
0.749999999999999
 40
0.749999999999999
 40
1.0
 40
1.0
 40
1.0
 40
1.0
 10
89.24471642857962
 20
107.848490599455
 30
0.0
 10
89.27543867049873
 20
107.811188616502
 30
0.0
 10
89.31827588503386
 20
107.7745767844556
 30
0.0
 10
89.41770290923368
 20
107.7268120011704
 30
0.0
 10
89.45745510405031
 20
107.711854485688
 30
0.0
 10
89.55549656090852
 20
107.6886645399189
 30
0.0
 10
89.61505261649599
 20
107.6807411006992
 30
0.0
 10
89.67772913047183
 20
107.6807411006992
 30
0.0
  0
ELLIPSE
  5
FF
330
1F
100
AcDbEntity
  8
0
  6
HIDDEN
 62
     7
370
     0
100
AcDbEllipse
 10
105.4971265063
 20
137.7492330596
 30
0.0
 11
14.75368316065614
 21
31.09325491558113
 31
0.0
210
0.0
220
0.0
230
1.0
 40
0.3419987131
 41
2.051689083818821
 42
2.982450450962499
  0
SPLINE
  5
100
330
1F
100
AcDbEntity
  8
0
  6
HIDDEN
 62
     7
370
     0
100
AcDbSpline
210
0.0
220
0.0
230
1.0
 70
     8
 71
     3
 72
    12
 73
     8
 74
     0
 42
0.00000001
 43
0.00000001
 12
1.0
 22
0.0
 32
0.0
 13
1.0
 23
0.0
 33
0.0
 40
0.0
 40
0.0
 40
0.0
 40
0.0
 40
0.2499999999999986
 40
0.2499999999999986
 40
0.4999999999999971
 40
0.4999999999999971
 40
1.0
 40
1.0
 40
1.0
 40
1.0
 10
89.67772913047183
 20
167.8177250184455
 30
0.0
 10
89.61464909197846
 20
167.8177250184455
 30
0.0
 10
89.5555004697971
 20
167.809819092233
 30
0.0
 10
89.457027919728
 20
167.7864939307968
 30
0.0
 10
89.41799130774329
 20
167.7717811409651
 30
0.0
 10
89.31809484096426
 20
167.7238253402342
 30
0.0
 10
89.27567395989757
 20
167.6875631836541
 30
0.0
 10
89.24471642857962
 20
167.6499755196896
 30
0.0
  0
LINE
  5
101
330
1F
100
AcDbEntity
  8
0
  6
HIDDEN
 62
     7
370
     0
100
AcDbLine
 10
92.6222155291
 20
167.8177255764
 30
0.0
 11
89.6777293134
 21
167.8177255764
 31
0.0
  0
SPLINE
  5
102
330
1F
100
AcDbEntity
  8
0
  6
HIDDEN
 62
     7
370
     0
100
AcDbSpline
210
0.0
220
0.0
230
1.0
 70
     8
 71
     3
 72
    12
 73
     8
 74
     0
 42
0.00000001
 43
0.00000001
 12
1.0
 22
0.0
 32
0.0
 13
1.0
 23
0.0
 33
0.0
 40
0.0
 40
0.0
 40
0.0
 40
0.0
 40
0.500000000000001
 40
0.500000000000001
 40
0.7500000000000004
 40
0.7500000000000004
 40
1.0
 40
1.0
 40
1.0
 40
1.0
 10
93.05522820523113
 20
167.6499755196896
 30
0.0
 10
93.02450596331205
 20
167.6872775026427
 30
0.0
 10
92.98166874877685
 20
167.723889334689
 30
0.0
 10
92.88224172457706
 20
167.7716541179743
 30
0.0
 10
92.8424895297604
 20
167.7866116334566
 30
0.0
 10
92.74444807290216
 20
167.8098015792257
 30
0.0
 10
92.68489201731475
 20
167.8177250184455
 30
0.0
 10
92.62221550333894
 20
167.8177250184455
 30
0.0
  0
ELLIPSE
  5
103
330
1F
100
AcDbEntity
  8
0
  6
HIDDEN
 62
     7
370
     0
100
AcDbEllipse
 10
76.8028181275
 20
137.7492330596
 30
0.0
 11
14.75368316065625
 21
31.09325491558116
 31
0.0
210
0.0
220
0.0
230
1.0
 40
0.3419987131
 41
5.193281737408638
 42
6.12404310455234
  0
SPLINE
  5
104
330
1F
100
AcDbEntity
  8
0
  6
HIDDEN
 62
     7
370
     0
100
AcDbSpline
210
0.0
220
0.0
230
1.0
 70
     8
 71
     3
 72
    12
 73
     8
 74
     0
 42
0.00000001
 43
0.00000001
 12
1.0
 22
0.0
 32
0.0
 13
1.0
 23
0.0
 33
0.0
 40
0.0
 40
0.0
 40
0.0
 40
0.0
 40
0.2500000000000014
 40
0.2500000000000014
 40
0.5000000000000028
 40
0.5000000000000028
 40
1.0
 40
1.0
 40
1.0
 40
1.0
 10
92.62221550333894
 20
147.1372994909087
 30
0.0
 10
92.6852955418323
 20
147.1372994909087
 30
0.0
 10
92.74444416401367
 20
147.1626638101237
 30
0.0
 10
92.84291671408276
 20
147.2368286704966
 30
0.0
 10
92.88195332606747
 20
147.2833490110507
 30
0.0
 10
92.98184979284655
 20
147.433491353896
 30
0.0
 10
93.02427067391315
 20
147.5451845608681
 30
0.0
 10
93.05522820523115
 20
147.6586023802579
 30
0.0
  0
LINE
  5
105
330
1F
100
AcDbEntity
  8
0
  6
HIDDEN
 62
     7
370
     0
100
AcDbLine
 10
89.6777293134
 20
147.1372998878
 30
0.0
 11
92.6222155291
 21
147.1372998878
 31
0.0
  0
SPLINE
  5
106
330
1F
100
AcDbEntity
  8
0
  6
HIDDEN
 62
     7
370
     0
100
AcDbSpline
210
0.0
220
0.0
230
1.0
 70
     8
 71
     3
 72
    12
 73
     8
 74
     0
 42
0.00000001
 43
0.00000001
 12
1.0
 22
0.0
 32
0.0
 13
1.0
 23
0.0
 33
0.0
 40
0.0
 40
0.0
 40
0.0
 40
0.0
 40
0.5000000000000018
 40
0.5000000000000018
 40
0.7500000000000009
 40
0.7500000000000009
 40
1.0
 40
1.0
 40
1.0
 40
1.0
 10
89.24471642857961
 20
147.6586023802579
 30
0.0
 10
89.27543867049873
 20
147.5460465808487
 30
0.0
 10
89.31827588503384
 20
147.4332887211091
 30
0.0
 10
89.41770290923365
 20
147.2837478353128
 30
0.0
 10
89.4574551040503
 20
147.2364551036059
 30
0.0
 10
89.55549656090852
 20
147.1627188102845
 30
0.0
 10
89.61505261649599
 20
147.1372994909088
 30
0.0
 10
89.67772913047182
 20
147.1372994909088
 30
0.0
  0
ELLIPSE
  5
107
330
1F
100
AcDbEntity
  8
0
  6
HIDDEN
 62
     7
370
     0
100
AcDbEllipse
 10
105.4971265063
 20
137.7492330596
 30
0.0
 11
-14.75368316065627
 21
31.09325491558116
 31
0.0
210
0.0
220
0.0
230
1.0
 40
0.3419987131
 41
0.1591422026272814
 42
1.089903569770961
  0
LINE
  5
108
330
1F
100
AcDbEntity
  8
0
  6
HIDDEN
 62
     7
370
     0
100
AcDbLine
 10
101.1499721977
 20
107.2492327168
 30
0.0
 11
101.1499721977
 21
168.2492334023
 31
0.0
  0
LINE
  5
109
330
1F
100
AcDbEntity
  8
0
  6
HIDDEN
 62
     7
370
     0
100
AcDbLine
 10
79.1499723169
 20
168.7492325529
 30
0.0
 11
79.1499723169
 21
106.7492335662
 31
0.0
  0
LINE
  5
10A
330
1F
100
AcDbEntity
  8
0
  6
HIDDEN
 62
     7
370
     0
100
AcDbLine
 10
79.1499723169
 20
113.4992323443
 30
0.0
 11
79.1499723169
 21
161.9690887257
 31
0.0
  0
SPLINE
  5
10B
330
1F
100
AcDbEntity
  8
0
  6
HIDDEN
 62
     7
370
     0
100
AcDbSpline
210
0.0
220
0.0
230
1.0
 70
     8
 71
     3
 72
    12
 73
     8
 74
     0
 42
0.00000001
 43
0.00000001
 12
1.0
 22
0.0
 32
0.0
 13
1.0
 23
0.0
 33
0.0
 40
0.0
 40
0.0
 40
0.0
 40
0.0
 40
0.5
 40
0.5
 40
0.75
 40
0.75
 40
1.0
 40
1.0
 40
1.0
 40
1.0
 10
78.33346003045834
 20
153.2015010414031
 30
0.0
 10
78.38986620913859
 20
153.1536786677433
 30
0.0
 10
78.46002911061038
 20
153.1134078208048
 30
0.0
 10
78.57803982399955
 20
153.1053619523278
 30
0.0
 10
78.61824560759501
 20
153.1119245506667
 30
0.0
 10
78.69196630432808
 20
153.1393066451203
 30
0.0
 10
78.7248270261146
 20
153.1590681356506
 30
0.0
 10
78.75499542804386
 20
153.1820008468387
 30
0.0
  0
SPLINE
  5
10C
330
1F
100
AcDbEntity
  8
0
  6
HIDDEN
 62
     7
370
     0
100
AcDbSpline
210
0.0
220
0.0
230
1.0
 70
     8
 71
     3
 72
    16
 73
    12
 74
     0
 42
0.00000001
 43
0.00000001
 12
1.0
 22
0.0
 32
0.0
 13
1.0
 23
0.0
 33
0.0
 40
0.0
 40
0.0
 40
0.0
 40
0.0
 40
0.0624999999999999
 40
0.0624999999999999
 40
0.1249999999999998
 40
0.1249999999999998
 40
0.2500000000000016
 40
0.2500000000000016
 40
0.500000000000001
 40
0.500000000000001
 40
1.0
 40
1.0
 40
1.0
 40
1.0
 10
78.75499542799871
 20
153.1820008468868
 30
0.0
 10
78.76660832783807
 20
153.1908284698682
 30
0.0
 10
78.77995951227054
 20
153.1986628517501
 30
0.0
 10
78.80935935188971
 20
153.2069729778225
 30
0.0
 10
78.82420007644498
 20
153.2064771585875
 30
0.0
 10
78.86003328441362
 20
153.1950261876181
 30
0.0
 10
78.8741464922352
 20
153.1783456867595
 30
0.0
 10
78.9086378634541
 20
153.1262250010024
 30
0.0
 10
78.91972193456449
 20
153.0864355069774
 30
0.0
 10
78.9458447523605
 20
152.9630988748803
 30
0.0
 10
78.94997231690537
 20
152.8756774643817
 30
0.0
 10
78.94997231690537
 20
152.7869402220634
 30
0.0
  0
LINE
  5
10D
330
1F
100
AcDbEntity
  8
0
  6
HIDDEN
 62
     7
370
     0
100
AcDbLine
 10
78.949972322
 20
122.7115260064
 30
0.0
 11
78.949972322
 21
152.7869401127
 31
0.0
  0
SPLINE
  5
10E
330
1F
100
AcDbEntity
  8
0
  6
HIDDEN
 62
     7
370
     0
100
AcDbSpline
210
0.0
220
0.0
230
1.0
 70
     8
 71
     3
 72
    16
 73
    12
 74
     0
 42
0.00000001
 43
0.00000001
 12
1.0
 22
0.0
 32
0.0
 13
1.0
 23
0.0
 33
0.0
 40
0.0
 40
0.0
 40
0.0
 40
0.0
 40
0.5000000000000061
 40
0.5000000000000061
 40
0.750000000000004
 40
0.750000000000004
 40
0.875000000000003
 40
0.875000000000003
 40
0.9375000000000016
 40
0.9375000000000016
 40
1.0
 40
1.0
 40
1.0
 40
1.0
 10
78.94997231690537
 20
122.7115258970811
 30
0.0
 10
78.94997231690537
 20
122.6223995318923
 30
0.0
 10
78.94582604182743
 20
122.5355381642789
 30
0.0
 10
78.91986044643389
 20
122.4125559177849
 30
0.0
 10
78.90839954105643
 20
122.3717846225536
 30
0.0
 10
78.8740878032821
 20
122.3200803025538
 30
0.0
 10
78.86006306735241
 20
122.3034099359634
 30
0.0
 10
78.82404010431867
 20
122.2919577155067
 30
0.0
 10
78.80928559522894
 20
122.2915046692317
 30
0.0
 10
78.77993343408212
 20
122.2998199904479
 30
0.0
 10
78.76659355957806
 20
122.3076488755261
 30
0.0
 10
78.75499542802972
 20
122.3164652722888
 30
0.0
  0
SPLINE
  5
10F
330
1F
100
AcDbEntity
  8
0
  6
HIDDEN
 62
     7
370
     0
100
AcDbSpline
210
0.0
220
0.0
230
1.0
 70
     8
 71
     3
 72
    12
 73
     8
 74
     0
 42
0.00000001
 43
0.00000001
 12
1.0
 22
0.0
 32
0.0
 13
1.0
 23
0.0
 33
0.0
 40
0.0
 40
0.0
 40
0.0
 40
0.0
 40
0.2499999999999997
 40
0.2499999999999997
 40
0.4999999999999993
 40
0.4999999999999993
 40
1.0
 40
1.0
 40
1.0
 40
1.0
 10
78.75499542803678
 20
122.3164652722977
 30
0.0
 10
78.72480358631957
 20
122.3394158013955
 30
0.0
 10
78.69144461690497
 20
122.3593852754197
 30
0.0
 10
78.61830733232438
 20
122.3864864090452
 30
0.0
 10
78.5780654596704
 20
122.3930871496905
 30
0.0
 10
78.4603596827019
 20
122.3851182751838
 30
0.0
 10
78.38994920492252
 20
122.344857817016
 30
0.0
 10
78.3334600304542
 20
122.2969650777379
 30
0.0
  0
SPLINE
  5
110
330
1F
100
AcDbEntity
  8
0
  6
HIDDEN
 62
     7
370
     0
100
AcDbSpline
210
0.0
220
0.0
230
1.0
 70
     8
 71
     3
 72
    12
 73
     8
 74
     0
 42
0.00000001
 43
0.00000001
 12
1.0
 22
0.0
 32
0.0
 13
1.0
 23
0.0
 33
0.0
 40
0.0
 40
0.0
 40
0.0
 40
0.0
 40
0.2499999999999975
 40
0.2499999999999975
 40
0.4999999999999977
 40
0.4999999999999977
 40
1.0
 40
1.0
 40
1.0
 40
1.0
 10
78.33346003045382
 20
122.2969650777381
 30
0.0
 10
78.24530609271609
 20
122.222226269884
 30
0.0
 10
78.18495266808736
 20
122.1312457694016
 30
0.0
 10
78.07869071002054
 20
121.942331946649
 30
0.0
 10
78.03645854345845
 20
121.8458274871084
 30
0.0
 10
77.92538784814128
 20
121.5550597329413
 30
0.0
 10
77.87245107171451
 20
121.3593929183975
 30
0.0
 10
77.82865197334571
 20
121.1653264333312
 30
0.0
  0
SPLINE
  5
111
330
1F
100
AcDbEntity
  8
0
  6
HIDDEN
 62
     7
370
     0
100
AcDbSpline
210
0.0
220
0.0
230
1.0
 70
     8
 71
     3
 72
    12
 73
     8
 74
     0
 42
0.00000001
 43
0.00000001
 12
1.0
 22
0.0
 32
0.0
 13
1.0
 23
0.0
 33
0.0
 40
0.0
 40
0.0
 40
0.0
 40
0.0
 40
0.5000000000000001
 40
0.5000000000000001
 40
0.75
 40
0.75
 40
1.0
 40
1.0
 40
1.0
 40
1.0
 10
77.82865197334571
 20
115.9791521045701
 30
0.0
 10
77.87239851418231
 20
115.952557933929
 30
0.0
 10
77.9252828694138
 20
115.9327977086032
 30
0.0
 10
78.03684995674998
 20
115.9123467183742
 30
0.0
 10
78.07943355329296
 20
115.9070864937177
 30
0.0
 10
78.18435028037474
 20
115.8992036997951
 30
0.0
 10
78.24588388821954
 20
115.8966395746159
 30
0.0
 10
78.33346003044568
 20
115.8944393570963
 30
0.0
  0
LINE
  5
112
330
1F
100
AcDbEntity
  8
0
  6
HIDDEN
 62
     7
370
     0
100
AcDbLine
 10
78.949972322
 20
115.2094125375
 30
0.0
 11
78.949972322
 21
115.6896378472
 31
0.0
  0
LINE
  5
113
330
1F
100
AcDbEntity
  8
0
  6
HIDDEN
 62
     7
370
     0
100
AcDbLine
 10
78.949972322
 20
159.8088282719
 30
0.0
 11
78.949972322
 21
160.2890535816
 31
0.0
  0
SPLINE
  5
114
330
1F
100
AcDbEntity
  8
0
  6
HIDDEN
 62
     7
370
     0
100
AcDbSpline
210
0.0
220
0.0
230
1.0
 70
     8
 71
     3
 72
    12
 73
     8
 74
     0
 42
0.00000001
 43
0.00000001
 12
1.0
 22
0.0
 32
0.0
 13
1.0
 23
0.0
 33
0.0
 40
0.0
 40
0.0
 40
0.0
 40
0.0
 40
0.2500000000000001
 40
0.2500000000000001
 40
0.5000000000000001
 40
0.5000000000000001
 40
1.0
 40
1.0
 40
1.0
 40
1.0
 10
78.33346003045362
 20
159.6040267620482
 30
0.0
 10
78.24477537059727
 20
159.6017986947072
 30
0.0
 10
78.18485695487387
 20
159.5992969106768
 30
0.0
 10
78.07919772755314
 20
159.5913654748408
 30
0.0
 10
78.03655648943818
 20
159.586073319944
 30
0.0
 10
77.92536714733565
 20
159.5656683794568
 30
0.0
 10
77.87244046521468
 20
159.54593368787
 30
0.0
 10
77.82865197334571
 20
159.5193140145744
 30
0.0
  0
SPLINE
  5
115
330
1F
100
AcDbEntity
  8
0
  6
HIDDEN
 62
     7
370
     0
100
AcDbSpline
210
0.0
220
0.0
230
1.0
 70
     8
 71
     3
 72
    12
 73
     8
 74
     0
 42
0.00000001
 43
0.00000001
 12
1.0
 22
0.0
 32
0.0
 13
1.0
 23
0.0
 33
0.0
 40
0.0
 40
0.0
 40
0.0
 40
0.0
 40
0.4999999999999984
 40
0.4999999999999984
 40
0.7500000000000006
 40
0.7500000000000006
 40
1.0
 40
1.0
 40
1.0
 40
1.0
 10
77.82865197334414
 20
154.3331396858135
 30
0.0
 10
77.87241344964288
 20
154.1392398978514
 30
0.0
 10
77.9253197652959
 20
153.9433835339145
 30
0.0
 10
78.03703096294329
 20
153.6512413874156
 30
0.0
 10
78.07955040652965
 20
153.5545234507177
 30
0.0
 10
78.18467374909707
 20
153.3677990142932
 30
0.0
 10
78.24623971281476
 20
153.2754483060235
 30
0.0
 10
78.33346003045749
 20
153.2015010414038
 30
0.0
  0
LINE
  5
116
330
1F
100
AcDbEntity
  8
0
  6
HIDDEN
 62
     7
370
     0
100
AcDbLine
 10
101.1499721977
 20
113.749232851
 30
0.0
 11
101.1499721977
 21
161.7193992808
 31
0.0
  0
LINE
  5
117
330
1F
100
AcDbEntity
  8
0
  6
HIDDEN
 62
     7
370
     0
100
AcDbLine
 10
78.949972322
 20
115.6896378472
 30
0.0
 11
78.949972322
 21
130.7273458317
 31
0.0
  0
LINE
  5
118
330
1F
100
AcDbEntity
  8
0
  6
HIDDEN
 62
     7
370
     0
100
AcDbLine
 10
78.949972322
 20
144.7711202875
 30
0.0
 11
78.949972322
 21
159.8088282719
 31
0.0
  0
SPLINE
  5
119
330
1F
100
AcDbEntity
  8
0
  6
HIDDEN
 62
     7
370
     0
100
AcDbSpline
210
0.0
220
0.0
230
1.0
 70
     8
 71
     3
 72
    68
 73
    64
 74
     0
 42
0.00000001
 43
0.00000001
 12
1.0
 22
0.0
 32
0.0
 13
1.0
 23
0.0
 33
0.0
 40
-0.0624999999999952
 40
-0.0624999999999952
 40
0.0
 40
0.0
 40
0.0312500000000002
 40
0.0312500000000002
 40
0.0625000000000003
 40
0.0625000000000003
 40
0.0937500000000004
 40
0.0937500000000004
 40
0.1250000000000006
 40
0.1250000000000006
 40
0.1562500000000007
 40
0.1562500000000007
 40
0.1875000000000009
 40
0.1875000000000009
 40
0.218750000000001
 40
0.218750000000001
 40
0.2500000000000011
 40
0.2500000000000011
 40
0.2812500000000013
 40
0.2812500000000013
 40
0.3125000000000014
 40
0.3125000000000014
 40
0.3437500000000016
 40
0.3437500000000016
 40
0.3750000000000018
 40
0.3750000000000018
 40
0.4062500000000019
 40
0.4062500000000019
 40
0.4375000000000021
 40
0.4375000000000021
 40
0.4687500000000023
 40
0.4687500000000023
 40
0.5000000000000024
 40
0.5000000000000024
 40
0.5312500000000026
 40
0.5312500000000026
 40
0.5625000000000028
 40
0.5625000000000028
 40
0.5937500000000029
 40
0.5937500000000029
 40
0.6250000000000031
 40
0.6250000000000031
 40
0.6562500000000032
 40
0.6562500000000032
 40
0.6875000000000034
 40
0.6875000000000034
 40
0.7187500000000036
 40
0.7187500000000036
 40
0.7500000000000038
 40
0.7500000000000038
 40
0.7812500000000039
 40
0.7812500000000039
 40
0.8125000000000041
 40
0.8125000000000041
 40
0.8437500000000042
 40
0.8437500000000042
 40
0.8750000000000044
 40
0.8750000000000044
 40
0.9062500000000046
 40
0.9062500000000046
 40
0.9375000000000048
 40
0.9375000000000048
 40
1.0
 40
1.0
 40
1.03125
 40
1.03125
 10
216.8193018042289
 20
145.5057369666034
 30
0.0
 10
217.3153075732437
 20
145.5057369666034
 30
0.0
 10
217.4778473156664
 20
145.5208334568269
 30
0.0
 10
217.7975745253637
 20
145.5798403952647
 30
0.0
 10
217.9564311019491
 20
145.6244760600744
 30
0.0
 10
218.259103000178
 20
145.7404910550921
 30
0.0
 10
218.4026308157741
 20
145.8113196835164
 30
0.0
 10
218.6742625947214
 20
145.9779084005087
 30
0.0
 10
218.8027472270445
 20
146.0744533512357
 30
0.0
 10
219.0331039830049
 20
146.284211713977
 30
0.0
 10
219.1365314829679
 20
146.3981939318354
 30
0.0
 10
219.3192965595231
 20
146.6443228284835
 30
0.0
 10
219.3968629352445
 20
146.7744738857766
 30
0.0
 10
219.5215981282407
 20
147.042136780598
 30
0.0
 10
219.5696784715835
 20
147.1816304372022
 30
0.0
 10
219.6339619803948
 20
147.4651045756407
 30
0.0
 10
219.6498813079512
 20
147.6066761747748
 30
0.0
 10
219.6500625551375
 20
147.8893856467984
 30
0.0
 10
219.6337985258569
 20
148.0319554084982
 30
0.0
 10
219.5699583080578
 20
148.3058188474199
 30
0.0
 10
219.5227247634707
 20
148.4379783026536
 30
0.0
 10
219.3974195972424
 20
148.6930287418064
 30
0.0
 10
219.3192118196172
 20
148.8152456350017
 30
0.0
 10
219.138359937119
 20
149.0402768224852
 30
0.0
 10
219.0349877734592
 20
149.1446109505989
 30
0.0
 10
218.8018512375821
 20
149.3363208765851
 30
0.0
 10
218.6757612005977
 20
149.4207155382948
 30
0.0
 10
218.4052190642746
 20
149.5680711549911
 30
0.0
 10
218.2590241036875
 20
149.6315381809144
 30
0.0
 10
217.9563987547378
 20
149.7329381276784
 30
0.0
 10
217.8005762561887
 20
149.7710609827857
 30
0.0
 10
217.4799430839102
 20
149.8226360063667
 30
0.0
 10
217.3141379033022
 20
149.8358146286077
 30
0.0
 10
216.9876840871923
 20
149.8359130594176
 30
0.0
 10
216.8253444849038
 20
149.8232588991004
 30
0.0
 10
216.5024824972492
 20
149.7717923214584
 30
0.0
 10
216.3447417868238
 20
149.7332113143179
 30
0.0
 10
216.0437894541515
 20
149.6326252764921
 30
0.0
 10
215.8982699762117
 20
149.5698254971317
 30
0.0
 10
215.625066720321
 20
149.421369985411
 30
0.0
 10
215.4992360723898
 20
149.3369969137717
 30
0.0
 10
215.2685562488138
 20
149.1478289815986
 30
0.0
 10
215.1629387708748
 20
149.041778344754
 30
0.0
 10
214.981394383551
 20
148.8162501213227
 30
0.0
 10
214.9044759265575
 20
148.6963386457734
 30
0.0
 10
214.7786481314328
 20
148.441528885644
 30
0.0
 10
214.7303878621472
 20
148.3069700826454
 30
0.0
 10
214.6665130933489
 20
148.0340941523536
 30
0.0
 10
214.6501229328832
 20
147.8943527036797
 30
0.0
 10
214.6498237479226
 20
147.6080315090794
 30
0.0
 10
214.6659131168375
 20
147.4662405470763
 30
0.0
 10
214.7292285237521
 20
147.1853911656257
 30
0.0
 10
214.7772421912428
 20
147.0448367201535
 30
0.0
 10
214.9024977302527
 20
146.7754011627698
 30
0.0
 10
214.9791681779011
 20
146.6467398125402
 30
0.0
 10
215.160377962116
 20
146.4018678148391
 30
0.0
 10
215.2657410082032
 20
146.2853511920661
 30
0.0
 10
215.4959226265174
 20
146.0754773936751
 30
0.0
 10
215.6215879663933
 20
145.9807098744459
 30
0.0
 10
215.8947162008387
 20
145.812629178385
 30
0.0
 10
216.0398359355584
 20
145.7410189962258
 30
0.0
 10
216.4907861858114
 20
145.5677439853933
 30
0.0
 10
216.8193018042289
 20
145.5057369666034
 30
0.0
 10
217.3153075732437
 20
145.5057369666034
 30
0.0
  0
LINE
  5
11A
330
1F
100
AcDbEntity
  8
0
  6
HIDDEN
 62
     7
370
     0
100
AcDbLine
 10
233.1499714824
 20
117.7492335066
 30
0.0
 11
233.1499714824
 21
157.7492326125
 31
0.0
  0
CIRCLE
  5
11B
330
1F
100
AcDbEntity
  8
0
  6
HIDDEN
 62
     7
370
     0
100
AcDbCircle
 10
63.6499723169
 20
137.7492330596
 30
0.0
 40
4.049999999999983
  0
LINE
  5
11C
330
1F
100
AcDbEntity
  8
0
  6
HIDDEN
 62
     7
370
     0
100
AcDbLine
 10
42.6801998588
 20
153.0621841177
 30
0.0
 11
42.6801998588
 21
122.4362820014
 31
0.0
  0
LINE
  5
11D
330
1F
100
AcDbEntity
  8
0
  6
HIDDEN
 62
     7
370
     0
100
AcDbLine
 10
41.1499735388
 20
121.5528033301
 30
0.0
 11
41.1499735388
 21
153.9149421826
 31
0.0
  0
LINE
  5
11E
330
1F
100
AcDbEntity
  8
0
  6
HIDDEN
 62
     7
370
     0
100
AcDbLine
 10
49.1801999929
 20
152.0956435799
 30
0.0
 11
49.1801999929
 21
123.4028225392
 31
0.0
  0
LINE
  5
11F
330
1F
100
AcDbEntity
  8
0
  6
HIDDEN
 62
     7
370
     0
100
AcDbLine
 10
54.9802013162
 20
151.7492334917
 30
0.0
 11
54.9802013162
 21
123.7492326274
 31
0.0
  0
LINE
  5
120
330
1F
100
AcDbEntity
  8
0
  6
HIDDEN
 62
     7
370
     0
100
AcDbLine
 10
47.5802008483
 20
151.7492334917
 30
0.0
 11
47.5802008483
 21
123.7492326274
 31
0.0
  0
LINE
  5
121
330
1F
100
AcDbEntity
  8
0
  6
HIDDEN
 62
     7
370
     0
100
AcDbLine
 10
48.5802010122
 20
151.7492334917
 30
0.0
 11
48.5802010122
 21
123.7492326274
 31
0.0
  0
SPLINE
  5
122
330
1F
100
AcDbEntity
  8
0
  6
HIDDEN
 62
     7
370
     0
100
AcDbSpline
210
0.0
220
0.0
230
1.0
 70
     8
 71
     3
 72
    10
 73
     6
 74
     0
 42
0.00000001
 43
0.00000001
 12
1.0
 22
0.0
 32
0.0
 13
1.0
 23
0.0
 33
0.0
 40
0.0
 40
0.0
 40
0.0
 40
0.0
 40
0.5
 40
0.5
 40
1.0
 40
1.0
 40
1.0
 40
1.0
 10
67.64997231690539
 20
138.3836619365947
 30
0.0
 10
67.68311973498183
 20
138.1746713355867
 30
0.0
 10
67.69997858034347
 20
137.9631088695651
 30
0.0
 10
67.6999660499958
 20
137.5351201035975
 30
0.0
 10
67.68305109225543
 20
137.3233619991819
 30
0.0
 10
67.64997231690538
 20
137.1148041825498
 30
0.0
  0
LINE
  5
123
330
1F
100
AcDbEntity
  8
0
  6
HIDDEN
 62
     7
370
     0
100
AcDbLine
 10
68.1499723765
 20
151.2492324784
 30
0.0
 11
68.1499723765
 21
124.2492327094
 31
0.0
  0
SPLINE
  5
124
330
1F
100
AcDbEntity
  8
0
  6
HIDDEN
 62
     7
370
     0
100
AcDbSpline
210
0.0
220
0.0
230
1.0
 70
     8
 71
     3
 72
    10
 73
     6
 74
     0
 42
0.00000001
 43
0.00000001
 12
1.0
 22
0.0
 32
0.0
 13
1.0
 23
0.0
 33
0.0
 40
0.0
 40
0.0
 40
0.0
 40
0.0
 40
0.5
 40
0.5
 40
1.0
 40
1.0
 40
1.0
 40
1.0
 10
67.64997231690538
 20
137.1148041825498
 30
0.0
 10
67.68316127937909
 20
137.3240567161322
 30
0.0
 10
67.69986205563374
 20
137.5348734770312
 30
0.0
 10
67.7000814960784
 20
137.9594057582345
 30
0.0
 10
67.683201780685
 20
138.1741540470071
 30
0.0
 10
67.64997231690539
 20
138.3836619365947
 30
0.0
  0
SPLINE
  5
125
330
1F
100
AcDbEntity
  8
0
  6
HIDDEN
 62
     7
370
     0
100
AcDbSpline
210
0.0
220
0.0
230
1.0
 70
     8
 71
     3
 72
    14
 73
    10
 74
     0
 42
0.00000001
 43
0.00000001
 12
1.0
 22
0.0
 32
0.0
 13
1.0
 23
0.0
 33
0.0
 40
0.0
 40
0.0
 40
0.0
 40
0.0
 40
0.25
 40
0.25
 40
0.5
 40
0.5
 40
0.75
 40
0.75
 40
1.0
 40
1.0
 40
1.0
 40
1.0
 10
219.1499723169054
 20
135.0939623183973
 30
0.0
 10
219.1818375696253
 20
135.1993963446415
 30
0.0
 10
219.2068047987061
 20
135.303611096485
 30
0.0
 10
219.2410135371811
 20
135.5098303163824
 30
0.0
 10
219.2499602723694
 20
135.6118180971344
 30
0.0
 10
219.2499843364006
 20
135.8026787698105
 30
0.0
 10
219.2411515399663
 20
135.8939545500543
 30
0.0
 10
219.2068814289811
 20
136.0609966211596
 30
0.0
 10
219.1818531970837
 20
136.1360255730728
 30
0.0
 10
219.1499723169054
 20
136.203015969038
 30
0.0
  0
SPLINE
  5
126
330
1F
100
AcDbEntity
  8
0
  6
HIDDEN
 62
     7
370
     0
100
AcDbSpline
210
0.0
220
0.0
230
1.0
 70
     8
 71
     3
 72
    50
 73
    46
 74
     0
 42
0.00000001
 43
0.00000001
 12
1.0
 22
0.0
 32
0.0
 13
1.0
 23
0.0
 33
0.0
 40
0.0
 40
0.0
 40
0.0
 40
0.0
 40
0.0624999999999977
 40
0.0624999999999977
 40
0.1249999999999954
 40
0.1249999999999954
 40
0.1562499999999942
 40
0.1562499999999942
 40
0.1874999999999931
 40
0.1874999999999931
 40
0.218749999999992
 40
0.218749999999992
 40
0.2499999999999908
 40
0.2499999999999908
 40
0.2812499999999896
 40
0.2812499999999896
 40
0.3124999999999885
 40
0.3124999999999885
 40
0.3749999999999921
 40
0.3749999999999921
 40
0.4374999999999956
 40
0.4374999999999956
 40
0.4999999999999992
 40
0.4999999999999992
 40
0.5312500000000009
 40
0.5312500000000009
 40
0.5625000000000024
 40
0.5625000000000024
 40
0.5937500000000041
 40
0.5937500000000041
 40
0.6250000000000057
 40
0.6250000000000057
 40
0.6875000000000049
 40
0.6875000000000049
 40
0.7500000000000039
 40
0.7500000000000039
 40
0.8125000000000029
 40
0.8125000000000029
 40
0.8437500000000024
 40
0.8437500000000024
 40
0.8750000000000019
 40
0.8750000000000019
 40
0.937500000000001
 40
0.937500000000001
 40
1.0
 40
1.0
 40
1.0
 40
1.0
 10
219.1499723169054
 20
136.2030159690381
 30
0.0
 10
219.0731088995534
 20
136.4292265303349
 30
0.0
 10
218.9571645065065
 20
136.6443155129806
 30
0.0
 10
218.6543261503259
 20
137.042430699121
 30
0.0
 10
218.4727533826646
 20
137.217952765648
 30
0.0
 10
218.1601851529097
 20
137.4325603156458
 30
0.0
 10
218.0512085731345
 20
137.4945336663392
 30
0.0
 10
217.8231649255748
 20
137.5981486414311
 30
0.0
 10
217.7028392412821
 20
137.6400795556426
 30
0.0
 10
217.4565129140224
 20
137.6989012622123
 30
0.0
 10
217.3322908080674
 20
137.7156166749998
 30
0.0
 10
217.0817123269199
 20
137.7234456129989
 30
0.0
 10
216.9538042948096
 20
137.714186723547
 30
0.0
 10
216.7049376643947
 20
137.6701364406485
 30
0.0
 10
216.5839491820842
 20
137.6357795278424
 30
0.0
 10
216.3484023839722
 20
137.5440967750542
 30
0.0
 10
216.2340918923515
 20
137.4865764771293
 30
0.0
 10
215.9127047886035
 20
137.2884433867616
 30
0.0
 10
215.7200747356895
 20
137.1180868344498
 30
0.0
 10
215.4020168252548
 20
136.7365132996838
 30
0.0
 10
215.27270766047
 20
136.5200917990431
 30
0.0
 10
215.0981039326745
 20
136.078719348875
 30
0.0
 10
215.0506848031872
 20
135.8468746305358
 30
0.0
 10
215.0496284727402
 20
135.5205694241944
 30
0.0
 10
215.060724457907
 20
135.4130872556766
 30
0.0
 10
215.1053069789159
 20
135.2089025253885
 30
0.0
 10
215.1383610576032
 20
135.1127042712334
 30
0.0
 10
215.2252200135486
 20
134.930949188863
 30
0.0
 10
215.2795067792264
 20
134.8451382587451
 30
0.0
 10
215.4046939449654
 20
134.6892048780728
 30
0.0
 10
215.4759033510288
 20
134.6181812659598
 30
0.0
 10
215.7157151189417
 20
134.4234942043595
 30
0.0
 10
215.9044840546936
 20
134.322545449214
 30
0.0
 10
216.3357002743757
 20
134.1702834022642
 30
0.0
 10
216.5693486374109
 20
134.1217751392117
 30
0.0
 10
217.0697997775849
 20
134.0750128635638
 30
0.0
 10
217.3243849763254
 20
134.0782716026374
 30
0.0
 10
217.6956576946271
 20
134.1231567220583
 30
0.0
 10
217.8148765140406
 20
134.1445140170295
 30
0.0
 10
218.0450842648787
 20
134.2004959992623
 30
0.0
 10
218.1567197200228
 20
134.2354976438299
 30
0.0
 10
218.4689737198589
 20
134.3591031425073
 30
0.0
 10
218.6537022387944
 20
134.4688798588097
 30
0.0
 10
218.9542165108312
 20
134.7401547204122
 30
0.0
 10
219.0730055981044
 20
134.9040855785694
 30
0.0
 10
219.1499723169054
 20
135.0939623183973
 30
0.0
  0
SPLINE
  5
127
330
1F
100
AcDbEntity
  8
0
  6
HIDDEN
 62
     7
370
     0
100
AcDbSpline
210
0.0
220
0.0
230
1.0
 70
     8
 71
     3
 72
    10
 73
     6
 74
     0
 42
0.00000001
 43
0.00000001
 12
1.0
 22
0.0
 32
0.0
 13
1.0
 23
0.0
 33
0.0
 40
0.0
 40
0.0
 40
0.0
 40
0.0
 40
0.5
 40
0.5
 40
1.0
 40
1.0
 40
1.0
 40
1.0
 10
216.6322242247587
 20
130.0531007625252
 30
0.0
 10
216.572821819832
 20
129.9329774101589
 30
0.0
 10
216.53680058962
 20
129.8078017932824
 30
0.0
 10
216.5266513352763
 20
129.5346584945625
 30
0.0
 10
216.5533598527285
 20
129.3878679347833
 30
0.0
 10
216.6045232258819
 20
129.2396232966819
 30
0.0
  0
SPLINE
  5
128
330
1F
100
AcDbEntity
  8
0
  6
HIDDEN
 62
     7
370
     0
100
AcDbSpline
210
0.0
220
0.0
230
1.0
 70
     8
 71
     3
 72
    68
 73
    64
 74
     0
 42
0.00000001
 43
0.00000001
 12
1.0
 22
0.0
 32
0.0
 13
1.0
 23
0.0
 33
0.0
 40
0.0
 40
0.0
 40
0.0
 40
0.0
 40
0.0312500000000004
 40
0.0312500000000004
 40
0.0625000000000008
 40
0.0625000000000008
 40
0.0937500000000012
 40
0.0937500000000012
 40
0.1250000000000016
 40
0.1250000000000016
 40
0.1562500000000021
 40
0.1562500000000021
 40
0.1875000000000024
 40
0.1875000000000024
 40
0.2187500000000029
 40
0.2187500000000029
 40
0.2500000000000033
 40
0.2500000000000033
 40
0.2812500000000037
 40
0.2812500000000037
 40
0.3125000000000041
 40
0.3125000000000041
 40
0.3437500000000045
 40
0.3437500000000045
 40
0.3750000000000049
 40
0.3750000000000049
 40
0.4375000000000056
 40
0.4375000000000056
 40
0.4687500000000059
 40
0.4687500000000059
 40
0.4843750000000053
 40
0.4843750000000053
 40
0.5000000000000047
 40
0.5000000000000047
 40
0.515625000000004
 40
0.515625000000004
 40
0.5312500000000033
 40
0.5312500000000033
 40
0.562500000000002
 40
0.562500000000002
 40
0.5937500000000008
 40
0.5937500000000008
 40
0.6249999999999996
 40
0.6249999999999996
 40
0.6874999999999973
 40
0.6874999999999973
 40
0.7187499999999961
 40
0.7187499999999961
 40
0.7499999999999948
 40
0.7499999999999948
 40
0.7812499999999936
 40
0.7812499999999936
 40
0.8124999999999923
 40
0.8124999999999923
 40
0.8437499999999911
 40
0.8437499999999911
 40
0.8749999999999898
 40
0.8749999999999898
 40
0.9374999999999925
 40
0.9374999999999925
 40
0.9687499999999962
 40
0.9687499999999962
 40
1.0
 40
1.0
 40
1.0
 40
1.0
 10
216.6045232258827
 20
129.2396232966787
 30
0.0
 10
216.721681408557
 20
129.1764763753702
 30
0.0
 10
216.8339716433128
 20
129.1196526523126
 30
0.0
 10
217.0581215077425
 20
129.0202255622569
 30
0.0
 10
217.1696654367786
 20
128.9775974125605
 30
0.0
 10
217.3948961547717
 20
128.9088376872585
 30
0.0
 10
217.5093743429055
 20
128.8826241488033
 30
0.0
 10
217.7360742634491
 20
128.8512892661005
 30
0.0
 10
217.8486424335906
 20
128.8458793762817
 30
0.0
 10
218.0728525806716
 20
128.8594352235547
 30
0.0
 10
218.1855355681011
 20
128.8788448146647
 30
0.0
 10
218.4012126966875
 20
128.9462953639961
 30
0.0
 10
218.5053183159949
 20
128.9942873695275
 30
0.0
 10
218.7025774404265
 20
129.1241829951187
 30
0.0
 10
218.7918311277591
 20
129.2034736765312
 30
0.0
 10
218.9507895419075
 20
129.3925366884587
 30
0.0
 10
219.020510713268
 20
129.5037348401391
 30
0.0
 10
219.1304803552756
 20
129.7426596399891
 30
0.0
 10
219.1725681645339
 20
129.8737613128909
 30
0.0
 10
219.229383446501
 20
130.1430547793881
 30
0.0
 10
219.244704363668
 20
130.2824279447564
 30
0.0
 10
219.2529337330966
 20
130.5627927601823
 30
0.0
 10
219.2459790605102
 20
130.701605184859
 30
0.0
 10
219.2147855170956
 20
130.9770249009522
 30
0.0
 10
219.1901857295316
 20
131.1147055888292
 30
0.0
 10
219.0970170278304
 20
131.5149457241072
 30
0.0
 10
219.0088576473001
 20
131.7657827589407
 30
0.0
 10
218.8633957974651
 20
132.1221165771495
 30
0.0
 10
218.8128654147488
 20
132.2364956080669
 30
0.0
 10
218.746940706249
 20
132.3973149188135
 30
0.0
 10
218.7268446442301
 20
132.4489190304213
 30
0.0
 10
218.6960875738442
 20
132.5444395190162
 30
0.0
 10
218.6854762375701
 20
132.5891283118601
 30
0.0
 10
218.6804145659596
 20
132.6634724957696
 30
0.0
 10
218.6860657370868
 20
132.6938557936473
 30
0.0
 10
218.7101115125041
 20
132.7386964286908
 30
0.0
 10
218.7280068530349
 20
132.753805185625
 30
0.0
 10
218.7904863411365
 20
132.7841669302899
 30
0.0
 10
218.8407929610169
 20
132.7847539483117
 30
0.0
 10
218.9387279625152
 20
132.7668134054103
 30
0.0
 10
218.9873364677254
 20
132.7472743166059
 30
0.0
 10
219.0748675517145
 20
132.6924205068808
 30
0.0
 10
219.1139660788848
 20
132.6571297651386
 30
0.0
 10
219.2121204170326
 20
132.5288636975127
 30
0.0
 10
219.2526880573774
 20
132.4112272574869
 30
0.0
 10
219.2483993607763
 20
132.1909793302387
 30
0.0
 10
219.2359946039034
 20
132.1088958495962
 30
0.0
 10
219.1856066341979
 20
131.9329227794768
 30
0.0
 10
219.1480692770721
 20
131.8394417150771
 30
0.0
 10
219.0438134731768
 20
131.6401301480565
 30
0.0
 10
218.979466593801
 20
131.5389340358456
 30
0.0
 10
218.8266167215135
 20
131.3344164624058
 30
0.0
 10
218.73760516884
 20
131.2310051593283
 30
0.0
 10
218.546518377985
 20
131.0346387942746
 30
0.0
 10
218.4421031790909
 20
130.9391582349847
 30
0.0
 10
218.2274794176906
 20
130.7623503018535
 30
0.0
 10
218.1159257868804
 20
130.6797092714639
 30
0.0
 10
217.776284842691
 20
130.4521172958026
 30
0.0
 10
217.5490152054057
 20
130.3297498478371
 30
0.0
 10
217.2046751278225
 20
130.1870450940607
 30
0.0
 10
217.0912006651117
 20
130.1472415184356
 30
0.0
 10
216.863771473283
 20
130.0849800257072
 30
0.0
 10
216.75009549127
 20
130.0621264567634
 30
0.0
 10
216.6322242247565
 20
130.0531007625285
 30
0.0
  0
LWPOLYLINE
  5
129
330
1F
100
AcDbEntity
  8
0
  6
HIDDEN
 62
     7
370
     0
100
AcDbPolyline
 90
       19
 70
   128
 43
0.0
 10
217.1499688598
 20
128.4305795655
 10
217.8682197305
 20
128.5402576998
 10
218.4998203489
 20
128.8560635969
 10
218.9686257812
 20
129.3399061635
 10
219.2180712196
 20
129.9334268644
 10
219.2180712196
 20
130.5650391243
 10
218.9686257812
 20
131.1585598253
 10
218.4998203489
 20
131.6424023919
 10
217.8682197305
 20
131.958208289
 10
217.1499688598
 20
132.0678864233
 10
216.4317328903
 20
131.958208289
 10
215.8001173708
 20
131.6424023919
 10
215.3313119384
 20
131.1585598253
 10
215.0818814012
 20
130.5650391243
 10
215.0818814012
 20
129.9334268644
 10
215.3313119384
 20
129.3399061635
 10
215.8001173708
 20
128.8560635969
 10
216.4317328903
 20
128.5402576998
 10
217.1499688598
 20
128.4305795655
  0
SPLINE
  5
12A
330
1F
100
AcDbEntity
  8
0
  6
HIDDEN
 62
     7
370
     0
100
AcDbSpline
210
0.0
220
0.0
230
1.0
 70
     8
 71
     3
 72
    68
 73
    64
 74
     0
 42
0.00000001
 43
0.00000001
 12
1.0
 22
0.0
 32
0.0
 13
1.0
 23
0.0
 33
0.0
 40
0.0
 40
0.0
 40
0.0
 40
0.0
 40
0.0312499999999999
 40
0.0312499999999999
 40
0.0624999999999998
 40
0.0624999999999998
 40
0.0937499999999997
 40
0.0937499999999997
 40
0.1249999999999995
 40
0.1249999999999995
 40
0.1562499999999994
 40
0.1562499999999994
 40
0.1874999999999993
 40
0.1874999999999993
 40
0.2187499999999991
 40
0.2187499999999991
 40
0.249999999999999
 40
0.249999999999999
 40
0.2812499999999988
 40
0.2812499999999988
 40
0.3124999999999987
 40
0.3124999999999987
 40
0.3437499999999986
 40
0.3437499999999986
 40
0.3749999999999986
 40
0.3749999999999986
 40
0.4062499999999984
 40
0.4062499999999984
 40
0.4374999999999983
 40
0.4374999999999983
 40
0.4687499999999982
 40
0.4687499999999982
 40
0.4999999999999981
 40
0.4999999999999981
 40
0.5624999999999979
 40
0.5624999999999979
 40
0.5937499999999978
 40
0.5937499999999978
 40
0.6249999999999977
 40
0.6249999999999977
 40
0.6562499999999976
 40
0.6562499999999976
 40
0.6874999999999974
 40
0.6874999999999974
 40
0.7187499999999973
 40
0.7187499999999973
 40
0.7499999999999973
 40
0.7499999999999973
 40
0.7812499999999977
 40
0.7812499999999977
 40
0.812499999999998
 40
0.812499999999998
 40
0.8437499999999983
 40
0.8437499999999983
 40
0.8749999999999987
 40
0.8749999999999987
 40
0.906249999999999
 40
0.906249999999999
 40
0.9374999999999993
 40
0.9374999999999993
 40
0.9687499999999997
 40
0.9687499999999997
 40
1.0
 40
1.0
 40
1.0
 40
1.0
 10
67.64997231690538
 20
137.1148041825498
 30
0.0
 10
67.60995736455568
 20
136.8625145797342
 30
0.0
 10
67.5470155631444
 20
136.6185157293584
 30
0.0
 10
67.37762890107234
 20
136.1460973402959
 30
0.0
 10
67.26993533848685
 20
135.9156839541359
 30
0.0
 10
67.01465056994897
 20
135.4809793583388
 30
0.0
 10
66.86861133947673
 20
135.2783373916875
 30
0.0
 10
66.5403899029175
 20
134.9013481009297
 30
0.0
 10
66.3561426151425
 20
134.7256901473523
 30
0.0
 10
65.96318244783421
 20
134.415432178406
 30
0.0
 10
65.75388785087505
 20
134.2794869707562
 30
0.0
 10
65.3090024239377
 20
134.0460968753503
 30
0.0
 10
65.07220483143867
 20
133.9488502689359
 30
0.0
 10
64.5914697625194
 20
133.8021788110645
 30
0.0
 10
64.34522666933661
 20
133.7512864661221
 30
0.0
 10
63.84050988935717
 20
133.6957591158866
 30
0.0
 10
63.58431518842068
 20
133.6919342288167
 30
0.0
 10
63.08193643922058
 20
133.7313580114611
 30
0.0
 10
62.83268674003699
 20
133.7743854606724
 30
0.0
 10
62.34115894255822
 20
133.9080904301237
 30
0.0
 10
62.10586334133237
 20
133.9967602760288
 30
0.0
 10
61.65494944667024
 20
134.2157916398062
 30
0.0
 10
61.43733709620688
 20
134.3477932054898
 30
0.0
 10
61.03412992665859
 20
134.6471504864927
 30
0.0
 10
60.84851843422416
 20
134.8137694139305
 30
0.0
 10
60.50853036382166
 20
135.1808808393581
 30
0.0
 10
60.35345743299874
 20
135.3831845848988
 30
0.0
 10
60.08711435633541
 20
135.8072652644928
 30
0.0
 10
59.97413025561861
 20
136.030424869959
 30
0.0
 10
59.78927499868773
 20
136.4997801115532
 30
0.0
 10
59.71813423718434
 20
136.7459906148886
 30
0.0
 10
59.62417382589617
 20
137.2405164412598
 30
0.0
 10
59.60016449593977
 20
137.4914474363518
 30
0.0
 10
59.59959137526722
 20
138.255692815908
 30
0.0
 10
59.69499048658583
 20
138.757917117959
 30
0.0
 10
59.97285427878695
 20
139.4654816242314
 30
0.0
 10
60.08601623486751
 20
139.6891878879722
 30
0.0
 10
60.35214741691138
 20
140.1134577992928
 30
0.0
 10
60.50697519111109
 20
140.3157097613488
 30
0.0
 10
60.84715629689892
 20
140.683420502717
 30
0.0
 10
61.03265875384865
 20
140.8500373779664
 30
0.0
 10
61.43495255490798
 20
141.1490867567618
 30
0.0
 10
61.65296060315999
 20
141.2815434647902
 30
0.0
 10
62.10355897031028
 20
141.5007498654948
 30
0.0
 10
62.33810796919104
 20
141.5892349954985
 30
0.0
 10
62.82656796274337
 20
141.7227212254371
 30
0.0
 10
63.07883335845725
 20
141.7666629379309
 30
0.0
 10
63.58101399661753
 20
141.8064719344044
 30
0.0
 10
63.83349611396923
 20
141.8031277215909
 30
0.0
 10
64.34136115703872
 20
141.7479484016004
 30
0.0
 10
64.58890663022252
 20
141.6969024731309
 30
0.0
 10
65.06987416769323
 20
141.5504920848954
 30
0.0
 10
65.30583403279849
 20
141.4538458801217
 30
0.0
 10
65.75240448232012
 20
141.2199409358087
 30
0.0
 10
65.96204934489357
 20
141.0838159219822
 30
0.0
 10
66.35503605164804
 20
140.7737616576531
 30
0.0
 10
66.53943195546304
 20
140.598104410078
 30
0.0
 10
66.86798237332341
 20
140.2209644874136
 30
0.0
 10
67.0139244698466
 20
140.0184982821437
 30
0.0
 10
67.26880982504875
 20
139.5849219840104
 30
0.0
 10
67.37712113785707
 20
139.3536301404288
 30
0.0
 10
67.54695611527401
 20
138.8802704602956
 30
0.0
 10
67.60995147641108
 20
138.6359886634748
 30
0.0
 10
67.64997231690539
 20
138.3836619365947
 30
0.0
  0
SPLINE
  5
12B
330
1F
100
AcDbEntity
  8
0
  6
HIDDEN
 62
     7
370
     0
100
AcDbSpline
210
0.0
220
0.0
230
1.0
 70
     8
 71
     3
 72
    68
 73
    64
 74
     0
 42
0.00000001
 43
0.00000001
 12
1.0
 22
0.0
 32
0.0
 13
1.0
 23
0.0
 33
0.0
 40
0.0
 40
0.0
 40
0.0
 40
0.0
 40
0.03125
 40
0.03125
 40
0.0625
 40
0.0625
 40
0.09375
 40
0.09375
 40
0.125
 40
0.125
 40
0.15625
 40
0.15625
 40
0.1875
 40
0.1875
 40
0.2187500000000001
 40
0.2187500000000001
 40
0.2500000000000001
 40
0.2500000000000001
 40
0.2812500000000002
 40
0.2812500000000002
 40
0.3125000000000002
 40
0.3125000000000002
 40
0.3437500000000002
 40
0.3437500000000002
 40
0.3750000000000003
 40
0.3750000000000003
 40
0.4062500000000003
 40
0.4062500000000003
 40
0.4375000000000003
 40
0.4375000000000003
 40
0.4687500000000003
 40
0.4687500000000003
 40
0.5000000000000003
 40
0.5000000000000003
 40
0.5625000000000003
 40
0.5625000000000003
 40
0.5937500000000003
 40
0.5937500000000003
 40
0.6250000000000002
 40
0.6250000000000002
 40
0.6562500000000002
 40
0.6562500000000002
 40
0.6875000000000002
 40
0.6875000000000002
 40
0.7187500000000002
 40
0.7187500000000002
 40
0.7500000000000002
 40
0.7500000000000002
 40
0.7812500000000002
 40
0.7812500000000002
 40
0.8125000000000002
 40
0.8125000000000002
 40
0.8437500000000002
 40
0.8437500000000002
 40
0.8750000000000001
 40
0.8750000000000001
 40
0.9062500000000001
 40
0.9062500000000001
 40
0.9375000000000001
 40
0.9375000000000001
 40
0.9687500000000001
 40
0.9687500000000001
 40
1.0
 40
1.0
 40
1.0
 40
1.0
 10
67.64997231690538
 20
138.3836619365947
 30
0.0
 10
67.60995736455568
 20
138.6359515394103
 30
0.0
 10
67.5470155631444
 20
138.8799503897862
 30
0.0
 10
67.37762890107236
 20
139.3523687788486
 30
0.0
 10
67.26993533848685
 20
139.5827821650086
 30
0.0
 10
67.01465056994897
 20
140.0174867608057
 30
0.0
 10
66.86861133947674
 20
140.2201287274571
 30
0.0
 10
66.5403899029175
 20
140.5971180182148
 30
0.0
 10
66.35614261514252
 20
140.7727759717922
 30
0.0
 10
65.96318244783423
 20
141.0830339407385
 30
0.0
 10
65.75388785087506
 20
141.2189791483884
 30
0.0
 10
65.30900242393771
 20
141.4523692437942
 30
0.0
 10
65.07220483143868
 20
141.5496158502087
 30
0.0
 10
64.59146976251941
 20
141.69628730808
 30
0.0
 10
64.34522666933663
 20
141.7471796530224
 30
0.0
 10
63.84050988935719
 20
141.8027070032579
 30
0.0
 10
63.5843151884207
 20
141.8065318903278
 30
0.0
 10
63.08193643922058
 20
141.7671081076834
 30
0.0
 10
62.832686740037
 20
141.7240806584722
 30
0.0
 10
62.34115894255823
 20
141.5903756890209
 30
0.0
 10
62.10586334133239
 20
141.5017058431157
 30
0.0
 10
61.65494944667026
 20
141.2826744793383
 30
0.0
 10
61.43733709620688
 20
141.1506729136547
 30
0.0
 10
61.0341299266586
 20
140.8513156326518
 30
0.0
 10
60.84851843422415
 20
140.684696705214
 30
0.0
 10
60.50853036382166
 20
140.3175852797865
 30
0.0
 10
60.35345743299876
 20
140.1152815342458
 30
0.0
 10
60.08711435633541
 20
139.6912008546518
 30
0.0
 10
59.97413025561863
 20
139.4680412491856
 30
0.0
 10
59.78927499868773
 20
138.9986860075914
 30
0.0
 10
59.71813423718434
 20
138.7524755042559
 30
0.0
 10
59.62417382589617
 20
138.2579496778847
 30
0.0
 10
59.60016449593977
 20
138.0070186827928
 30
0.0
 10
59.59959137526722
 20
137.2427733032365
 30
0.0
 10
59.69499048658582
 20
136.7405490011855
 30
0.0
 10
59.97285427878695
 20
136.0329844949132
 30
0.0
 10
60.08601623486749
 20
135.8092782311724
 30
0.0
 10
60.35214741691136
 20
135.3850083198518
 30
0.0
 10
60.50697519111107
 20
135.1827563577957
 30
0.0
 10
60.84715629689891
 20
134.8150456164275
 30
0.0
 10
61.03265875384864
 20
134.6484287411782
 30
0.0
 10
61.43495255490798
 20
134.3493793623828
 30
0.0
 10
61.65296060315998
 20
134.2169226543544
 30
0.0
 10
62.10355897031028
 20
133.9977162536497
 30
0.0
 10
62.33810796919104
 20
133.9092311236461
 30
0.0
 10
62.82656796274337
 20
133.7757448937074
 30
0.0
 10
63.07883335845724
 20
133.7318031812136
 30
0.0
 10
63.58101399661751
 20
133.6919941847401
 30
0.0
 10
63.83349611396921
 20
133.6953383975537
 30
0.0
 10
64.34136115703872
 20
133.7505177175442
 30
0.0
 10
64.58890663022251
 20
133.8015636460136
 30
0.0
 10
65.06987416769323
 20
133.9479740342492
 30
0.0
 10
65.30583403279849
 20
134.0446202390228
 30
0.0
 10
65.7524044823201
 20
134.2785251833358
 30
0.0
 10
65.96204934489357
 20
134.4146501971623
 30
0.0
 10
66.35503605164803
 20
134.7247044614914
 30
0.0
 10
66.53943195546303
 20
134.9003617090665
 30
0.0
 10
66.86798237332341
 20
135.277501631731
 30
0.0
 10
67.01392446984659
 20
135.4799678370008
 30
0.0
 10
67.26880982504875
 20
135.9135441351342
 30
0.0
 10
67.37712113785707
 20
136.1448359787157
 30
0.0
 10
67.546956115274
 20
136.6181956588489
 30
0.0
 10
67.60995147641108
 20
136.8624774556697
 30
0.0
 10
67.64997231690539
 20
137.1148041825498
 30
0.0
  0
ARC
  5
12C
330
1F
100
AcDbEntity
  8
0
  6
HIDDEN
 62
     7
370
     0
100
AcDbCircle
 10
217.5721552556
 20
129.613883163
 30
0.0
 40
1.037485144731348
100
AcDbArc
 50
154.9538300467
 51
201.1455044608
  0
LINE
  5
12D
330
1F
100
AcDbEntity
  8
0
  6
HIDDEN
 62
     7
370
     0
100
AcDbLine
 10
69.3999721157
 20
146.7492326721
 30
0.0
 11
69.3999721157
 21
128.749233447
 31
0.0
  0
LINE
  5
12E
330
1F
100
AcDbEntity
  8
0
  6
HIDDEN
 62
     7
370
     0
100
AcDbLine
 10
68.1499723765
 20
127.4992327765
 30
0.0
 11
68.1499723765
 21
147.9691572115
 31
0.0
  0
LINE
  5
12F
330
1F
100
AcDbEntity
  8
0
  6
HIDDEN
 62
     7
370
     0
100
AcDbLine
 10
95.1499730769
 20
146.7492326721
 30
0.0
 11
95.1499730769
 21
128.749233447
 31
0.0
  0
LINE
  5
130
330
1F
100
AcDbEntity
  8
0
  6
HIDDEN
 62
     7
370
     0
100
AcDbLine
 10
98.0040595355
 20
141.9992332905
 30
0.0
 11
98.0040595355
 21
133.4992328286
 31
0.0
  0
LINE
  5
131
330
1F
100
AcDbEntity
  8
0
  6
HIDDEN
 62
     7
370
     0
100
AcDbLine
 10
219.149972913
 20
136.2030159309
 30
0.0
 11
219.149972913
 21
141.9992332905
 31
0.0
  0
SPLINE
  5
132
330
1F
100
AcDbEntity
  8
0
  6
HIDDEN
 62
     7
370
     0
100
AcDbSpline
210
0.0
220
0.0
230
1.0
 70
     8
 71
     3
 72
    50
 73
    46
 74
     0
 42
0.00000001
 43
0.00000001
 12
1.0
 22
0.0
 32
0.0
 13
1.0
 23
0.0
 33
0.0
 40
0.0
 40
0.0
 40
0.0
 40
0.0
 40
0.0624999999999909
 40
0.0624999999999909
 40
0.1249999999999819
 40
0.1249999999999819
 40
0.1562499999999802
 40
0.1562499999999802
 40
0.1874999999999785
 40
0.1874999999999785
 40
0.2187499999999768
 40
0.2187499999999768
 40
0.2499999999999751
 40
0.2499999999999751
 40
0.2812499999999734
 40
0.2812499999999734
 40
0.3124999999999716
 40
0.3124999999999716
 40
0.3749999999999741
 40
0.3749999999999741
 40
0.4374999999999766
 40
0.4374999999999766
 40
0.4999999999999791
 40
0.4999999999999791
 40
0.5312499999999805
 40
0.5312499999999805
 40
0.5624999999999818
 40
0.5624999999999818
 40
0.5937499999999831
 40
0.5937499999999831
 40
0.6249999999999845
 40
0.6249999999999845
 40
0.6874999999999871
 40
0.6874999999999871
 40
0.7499999999999897
 40
0.7499999999999897
 40
0.8124999999999922
 40
0.8124999999999922
 40
0.8437499999999934
 40
0.8437499999999934
 40
0.8749999999999947
 40
0.8749999999999947
 40
0.9374999999999973
 40
0.9374999999999973
 40
1.0
 40
1.0
 40
1.0
 40
1.0
 10
219.1499723169054
 20
139.2954501501065
 30
0.0
 10
219.0731088995533
 20
139.0692395888097
 30
0.0
 10
218.9571645065065
 20
138.8541506061639
 30
0.0
 10
218.6543261503259
 20
138.4560354200235
 30
0.0
 10
218.4727533826646
 20
138.2805133534965
 30
0.0
 10
218.1601851529096
 20
138.0659058034987
 30
0.0
 10
218.0512085731345
 20
138.0039324528053
 30
0.0
 10
217.8231649255748
 20
137.9003174777134
 30
0.0
 10
217.7028392412821
 20
137.8583865635019
 30
0.0
 10
217.4565129140223
 20
137.7995648569322
 30
0.0
 10
217.3322908080673
 20
137.7828494441448
 30
0.0
 10
217.0817123269199
 20
137.7750205061457
 30
0.0
 10
216.9538042948096
 20
137.7842793955975
 30
0.0
 10
216.7049376643947
 20
137.828329678496
 30
0.0
 10
216.5839491820842
 20
137.8626865913021
 30
0.0
 10
216.3484023839721
 20
137.9543693440903
 30
0.0
 10
216.2340918923515
 20
138.0118896420153
 30
0.0
 10
215.9127047886034
 20
138.210022732383
 30
0.0
 10
215.7200747356895
 20
138.3803792846947
 30
0.0
 10
215.4020168252548
 20
138.7619528194607
 30
0.0
 10
215.2727076604699
 20
138.9783743201014
 30
0.0
 10
215.0981039326744
 20
139.4197467702696
 30
0.0
 10
215.0506848031872
 20
139.6515914886088
 30
0.0
 10
215.0496284727402
 20
139.9778966949501
 30
0.0
 10
215.060724457907
 20
140.085378863468
 30
0.0
 10
215.1053069789159
 20
140.289563593756
 30
0.0
 10
215.1383610576032
 20
140.3857618479112
 30
0.0
 10
215.2252200135486
 20
140.5675169302815
 30
0.0
 10
215.2795067792264
 20
140.6533278603994
 30
0.0
 10
215.4046939449655
 20
140.8092612410717
 30
0.0
 10
215.4759033510287
 20
140.8802848531847
 30
0.0
 10
215.7157151189417
 20
141.0749719147851
 30
0.0
 10
215.9044840546936
 20
141.1759206699305
 30
0.0
 10
216.3357002743758
 20
141.3281827168803
 30
0.0
 10
216.5693486374108
 20
141.3766909799328
 30
0.0
 10
217.0697997775848
 20
141.4234532555807
 30
0.0
 10
217.3243849763253
 20
141.4201945165071
 30
0.0
 10
217.6956576946271
 20
141.3753093970863
 30
0.0
 10
217.8148765140406
 20
141.3539521021151
 30
0.0
 10
218.0450842648788
 20
141.2979701198823
 30
0.0
 10
218.1567197200228
 20
141.2629684753146
 30
0.0
 10
218.468973719859
 20
141.1393629766372
 30
0.0
 10
218.6537022387944
 20
141.0295862603348
 30
0.0
 10
218.9542165108312
 20
140.7583113987323
 30
0.0
 10
219.0730055981044
 20
140.5943805405751
 30
0.0
 10
219.1499723169054
 20
140.4045038007472
 30
0.0
  0
LINE
  5
133
330
1F
100
AcDbEntity
  8
0
  6
HIDDEN
 62
     7
370
     0
100
AcDbLine
 10
219.149972913
 20
139.2954501882
 30
0.0
 11
219.149972913
 21
133.4992328286
 31
0.0
  0
SPLINE
  5
134
330
1F
100
AcDbEntity
  8
0
  6
HIDDEN
 62
     7
370
     0
100
AcDbSpline
210
0.0
220
0.0
230
1.0
 70
     8
 71
     3
 72
    14
 73
    10
 74
     0
 42
0.00000001
 43
0.00000001
 12
1.0
 22
0.0
 32
0.0
 13
1.0
 23
0.0
 33
0.0
 40
0.0
 40
0.0
 40
0.0
 40
0.0
 40
0.2500000000000004
 40
0.2500000000000004
 40
0.5000000000000009
 40
0.5000000000000009
 40
0.7500000000000004
 40
0.7500000000000004
 40
1.0
 40
1.0
 40
1.0
 40
1.0
 10
219.1499723169054
 20
140.4045038007472
 30
0.0
 10
219.1818375696253
 20
140.299069774503
 30
0.0
 10
219.2068047987061
 20
140.1948550226595
 30
0.0
 10
219.2410135371811
 20
139.9886358027621
 30
0.0
 10
219.2499602723694
 20
139.8866480220101
 30
0.0
 10
219.2499843364007
 20
139.695787349334
 30
0.0
 10
219.2411515399663
 20
139.6045115690902
 30
0.0
 10
219.2068814289811
 20
139.4374694979849
 30
0.0
 10
219.1818531970837
 20
139.3624405460717
 30
0.0
 10
219.1499723169054
 20
139.2954501501065
 30
0.0
  0
LINE
  5
135
330
1F
100
AcDbEntity
  8
0
  6
HIDDEN
 62
     7
370
     0
100
AcDbLine
 10
255.7201642963
 20
121.6281473264
 30
0.0
 11
248.3637590381
 21
123.9419614524
 31
0.0
  0
LINE
  5
136
330
1F
100
AcDbEntity
  8
0
  6
HIDDEN
 62
     7
370
     0
100
AcDbLine
 10
248.3637590381
 20
123.9419614524
 30
0.0
 11
248.3575899574
 21
123.9615061879
 31
0.0
  0
LINE
  5
137
330
1F
100
AcDbEntity
  8
0
  6
HIDDEN
 62
     7
370
     0
100
AcDbLine
 10
244.9918944809
 20
124.5488009974
 30
0.0
 11
248.2658435079
 21
114.1904338822
 31
0.0
  0
LINE
  5
138
330
1F
100
AcDbEntity
  8
0
  6
HIDDEN
 62
     7
370
     0
100
AcDbLine
 10
248.2658435079
 20
114.1904338822
 30
0.0
 11
248.2193220827
 21
114.2050686851
 31
0.0
  0
ELLIPSE
  5
139
330
1F
100
AcDbEntity
  8
0
  6
HIDDEN
 62
     7
370
     0
100
AcDbEllipse
 10
250.455842562
 20
137.7492330596
 30
0.0
 11
-6.697318860126217
 21
20.48986112711594
 31
0.0
210
0.0
220
0.0
230
1.0
 40
0.0962569477
 41
6.251733123200048
 42
7.822529449994799
  0
LINE
  5
13A
330
1F
100
AcDbEntity
  8
0
  6
HIDDEN
 62
     7
370
     0
100
AcDbLine
 10
233.6499650451
 20
137.7492330596
 30
0.0
 11
233.6499650451
 21
158.2492336258
 31
0.0
  0
SPLINE
  5
13B
330
1F
100
AcDbEntity
  8
0
  6
HIDDEN
 62
     7
370
     0
100
AcDbSpline
210
0.0
220
0.0
230
1.0
 70
     8
 71
     3
 72
     8
 73
     4
 74
     0
 42
0.00000001
 43
0.00000001
 12
1.0
 22
0.0
 32
0.0
 13
1.0
 23
0.0
 33
0.0
 40
0.0
 40
0.0
 40
0.0
 40
0.0
 40
1.0
 40
1.0
 40
1.0
 40
1.0
 10
235.8648614035143
 20
119.4926489152493
 30
0.0
 10
236.2369940891371
 20
119.6575086473326
 30
0.0
 10
236.6470413915335
 20
119.8104001486336
 30
0.0
 10
237.0888459502692
 20
119.9472193776838
 30
0.0
  0
SPLINE
  5
13C
330
1F
100
AcDbEntity
  8
0
  6
HIDDEN
 62
     7
370
     0
100
AcDbSpline
210
0.0
220
0.0
230
1.0
 70
     8
 71
     3
 72
    16
 73
    12
 74
     0
 42
0.00000001
 43
0.00000001
 12
1.0
 22
0.0
 32
0.0
 13
1.0
 23
0.0
 33
0.0
 40
0.0
 40
0.0
 40
0.0
 40
0.0
 40
0.2500000000000004
 40
0.2500000000000004
 40
0.5000000000000007
 40
0.5000000000000007
 40
0.6250000000000004
 40
0.6250000000000004
 40
0.7500000000000001
 40
0.7500000000000001
 40
1.0
 40
1.0
 40
1.0
 40
1.0
 10
233.9466066599908
 20
134.2492330595722
 30
0.0
 10
234.16382381808
 20
132.9585513996226
 30
0.0
 10
234.3957641180494
 20
131.6877841440989
 30
0.0
 10
234.88459237339
 20
129.1833618428523
 30
0.0
 10
235.1414992704906
 20
127.9497186695616
 30
0.0
 10
235.5441659663164
 20
126.1272305147685
 30
0.0
 10
235.6816277671696
 20
125.5231125760141
 30
0.0
 10
235.957714125589
 20
124.3437619131177
 30
0.0
 10
236.0968385485656
 20
123.7661829371312
 30
0.0
 10
236.517143958022
 20
122.0688806749988
 30
0.0
 10
236.8012192038894
 20
120.9843876903302
 30
0.0
 10
237.0888459502691
 20
119.9472193776839
 30
0.0
  0
SPLINE
  5
13D
330
1F
100
AcDbEntity
  8
0
  6
HIDDEN
 62
     7
370
     0
100
AcDbSpline
210
0.0
220
0.0
230
1.0
 70
     8
 71
     3
 72
    10
 73
     6
 74
     0
 42
0.00000001
 43
0.00000001
 12
1.0
 22
0.0
 32
0.0
 13
1.0
 23
0.0
 33
0.0
 40
0.0
 40
0.0
 40
0.0
 40
0.0
 40
0.5
 40
0.5
 40
1.0
 40
1.0
 40
1.0
 40
1.0
 10
233.9466066599908
 20
134.2492330595723
 30
0.0
 10
233.8499964048453
 20
134.8232811024449
 30
0.0
 10
233.7756777192556
 20
135.4022044796632
 30
0.0
 10
233.6755710231778
 20
136.5706652586772
 30
0.0
 10
233.6499723169054
 20
137.1622453884968
 30
0.0
 10
233.6499723169054
 20
137.7492330595723
 30
0.0
  0
SPLINE
  5
13E
330
1F
100
AcDbEntity
  8
0
  6
HIDDEN
 62
     7
370
     0
100
AcDbSpline
210
0.0
220
0.0
230
1.0
 70
     8
 71
     3
 72
    12
 73
     8
 74
     0
 42
0.00000001
 43
0.00000001
 12
1.0
 22
0.0
 32
0.0
 13
1.0
 23
0.0
 33
0.0
 40
0.0
 40
0.0
 40
0.0
 40
0.0
 40
0.1741438889817119
 40
0.360182773530793
 40
0.6141164614543757
 40
0.8743574000027855
 40
1.0
 40
1.0
 40
1.0
 40
1.0
 10
234.0409864160265
 20
116.8655015155545
 30
0.0
 10
233.9097492426379
 20
117.0198663279042
 30
0.0
 10
233.6383106674583
 20
117.3391399272982
 30
0.0
 10
233.6229175636209
 20
117.892201565675
 30
0.0
 10
234.0802005500841
 20
118.516607319965
 30
0.0
 10
234.9467911935211
 20
119.0685573964329
 30
0.0
 10
235.6393602105154
 20
119.3884822427526
 30
0.0
 10
235.864858743831
 20
119.4926488771906
 30
0.0
  0
LINE
  5
13F
330
1F
100
AcDbEntity
  8
0
  6
HIDDEN
 62
     7
370
     0
100
AcDbLine
 10
248.3637590381
 20
123.9419614524
 30
0.0
 11
248.1513578865
 21
123.8814478367
 31
0.0
  0
LINE
  5
140
330
1F
100
AcDbEntity
  8
0
  6
HIDDEN
 62
     7
370
     0
100
AcDbLine
 10
248.1005002233
 20
124.0423673391
 30
0.0
 11
248.1513578865
 21
123.8814478367
 31
0.0
  0
LINE
  5
141
330
1F
100
AcDbEntity
  8
0
  6
HIDDEN
 62
     7
370
     0
100
AcDbLine
 10
245.2248741361
 20
124.8469592631
 30
0.0
 11
248.4827746126
 21
114.5393669233
 31
0.0
  0
LINE
  5
142
330
1F
100
AcDbEntity
  8
0
  6
HIDDEN
 62
     7
370
     0
100
AcDbLine
 10
248.2658435079
 20
114.1904338822
 30
0.0
 11
248.4827746126
 21
114.5393669233
 31
0.0
  0
LINE
  5
143
330
1F
100
AcDbEntity
  8
0
  6
HIDDEN
 62
     7
370
     0
100
AcDbLine
 10
255.5077482435
 20
121.5676355734
 30
0.0
 11
248.1513578865
 21
123.8814478367
 31
0.0
  0
LINE
  5
144
330
1F
100
AcDbEntity
  8
0
  6
HIDDEN
 62
     7
370
     0
100
AcDbLine
 10
255.5077482435
 20
121.5676355734
 30
0.0
 11
255.7201642963
 21
121.6281473264
 31
0.0
  0
ARC
  5
145
330
1F
100
AcDbEntity
  8
0
  6
HIDDEN
 62
     7
370
     0
100
AcDbCircle
 10
246.2082954191
 20
125.985354742
 30
0.0
 40
1.250190114478193
100
AcDbArc
 50
17.5748561099
 51
182.2823011523
  0
LINE
  5
146
330
1F
100
AcDbEntity
  8
0
  6
HIDDEN
 62
     7
370
     0
100
AcDbLine
 10
245.2551234934
 20
124.855857119
 30
0.0
 11
248.4182972881
 21
114.8480128124
 31
0.0
  0
LINE
  5
147
330
1F
100
AcDbEntity
  8
0
  6
HIDDEN
 62
     7
370
     0
100
AcDbLine
 10
248.4827746126
 20
114.5393669233
 30
0.0
 11
248.4182972881
 21
114.8480128124
 31
0.0
  0
LINE
  5
148
330
1F
100
AcDbEntity
  8
0
  6
HIDDEN
 62
     7
370
     0
100
AcDbLine
 10
248.1513578865
 20
123.8814478367
 30
0.0
 11
248.1513578865
 21
123.986081928
 31
0.0
  0
LINE
  5
149
330
1F
100
AcDbEntity
  8
0
  6
HIDDEN
 62
     7
370
     0
100
AcDbLine
 10
255.2933205339
 20
121.7397141829
 30
0.0
 11
255.5077482435
 21
121.5676355734
 31
0.0
  0
LWPOLYLINE
  5
14A
330
1F
100
AcDbEntity
  8
0
  6
HIDDEN
 62
     7
370
     0
100
AcDbPolyline
 90
       19
 70
   128
 43
0.0
 10
217.1499688598
 20
142.8104078024
 10
217.8682197305
 20
142.9200859368
 10
218.4998203489
 20
143.2358918339
 10
218.9686257812
 20
143.7197344005
 10
219.2180712196
 20
144.3132551014
 10
219.2180712196
 20
144.9448668957
 10
218.9686257812
 20
145.5383875966
 10
218.4998203489
 20
146.0222301632
 10
217.8682197305
 20
146.3380360603
 10
217.1499688598
 20
146.4477141946
 10
216.4317328903
 20
146.3380360603
 10
215.8001173708
 20
146.0222301632
 10
215.3313119384
 20
145.5383875966
 10
215.0818814012
 20
144.9448668957
 10
215.0818814012
 20
144.3132551014
 10
215.3313119384
 20
143.7197344005
 10
215.8001173708
 20
143.2358918339
 10
216.4317328903
 20
142.9200859368
 10
217.1499688598
 20
142.8104078024
  0
CIRCLE
  5
14B
330
1F
100
AcDbEntity
  8
0
  6
HIDDEN
 62
     7
370
     0
100
AcDbCircle
 10
251.9774689738
 20
118.1840653172
 30
0.0
 40
2.398240785994782
  0
LINE
  5
14C
330
1F
100
AcDbEntity
  8
0
  6
HIDDEN
 62
     7
370
     0
100
AcDbLine
 10
257.9815943214
 20
111.8400588259
 30
0.0
 11
258.316751239
 21
112.1739677712
 31
0.0
  0
LINE
  5
14D
330
1F
100
AcDbEntity
  8
0
  6
HIDDEN
 62
     7
370
     0
100
AcDbLine
 10
255.2933205339
 20
121.7397141829
 30
0.0
 11
248.1513578865
 21
123.986081928
 31
0.0
  0
LINE
  5
14E
330
1F
100
AcDbEntity
  8
0
  6
HIDDEN
 62
     7
370
     0
100
AcDbLine
 10
248.1513578865
 20
123.986081928
 30
0.0
 11
247.4001307461
 21
126.3628515974
 31
0.0
  0
LINE
  5
14F
330
1F
100
AcDbEntity
  8
0
  6
HIDDEN
 62
     7
370
     0
100
AcDbLine
 10
257.9815943214
 20
111.8400588259
 30
0.0
 11
248.4182972881
 21
114.8480128124
 31
0.0
  0
LINE
  5
150
330
1F
100
AcDbEntity
  8
0
  6
HIDDEN
 62
     7
370
     0
100
AcDbLine
 10
255.2933205339
 20
121.7397141829
 30
0.0
 11
258.316751239
 21
112.1739677712
 31
0.0
  0
CIRCLE
  5
151
330
1F
100
AcDbEntity
  8
0
  6
HIDDEN
 62
     7
370
     0
100
AcDbCircle
 10
251.9776736068
 20
118.2348811665
 30
0.0
 40
1.648566258620309
  0
LINE
  5
152
330
1F
100
AcDbEntity
  8
0
  6
HIDDEN
 62
     7
370
     0
100
AcDbLine
 10
257.0541609499
 20
113.09061829
 30
0.0
 11
257.9815943214
 21
111.8400588259
 31
0.0
  0
LINE
  5
153
330
1F
100
AcDbEntity
  8
0
  6
HIDDEN
 62
     7
370
     0
100
AcDbLine
 10
258.316751239
 20
112.1739677712
 30
0.0
 11
257.2258223268
 21
113.6449899152
 31
0.0
  0
CIRCLE
  5
154
330
1F
100
AcDbEntity
  8
0
  6
HIDDEN
 62
     7
370
     0
100
AcDbCircle
 10
251.9776782845
 20
118.8452504213
 30
0.0
 40
1.648567184176302
  0
LINE
  5
155
330
1F
100
AcDbEntity
  8
0
  6
HIDDEN
 62
     7
370
     0
100
AcDbLine
 10
42.6499728533
 20
158.9075967297
 30
0.0
 11
42.6499728533
 21
152.8532856703
 31
0.0
  0
LINE
  5
156
330
1F
100
AcDbEntity
  8
0
  6
HIDDEN
 62
     7
370
     0
100
AcDbLine
 10
41.1499735388
 20
158.0415710434
 30
0.0
 11
41.1499735388
 21
152.4202728271
 31
0.0
  0
LINE
  5
157
330
1F
100
AcDbEntity
  8
0
  6
HIDDEN
 62
     7
370
     0
100
AcDbLine
 10
76.9499723288
 20
159.7693327442
 30
0.0
 11
76.9499723288
 21
153.2841536775
 31
0.0
  0
SPLINE
  5
158
330
1F
100
AcDbEntity
  8
0
  6
HIDDEN
 62
     7
370
     0
100
AcDbSpline
210
0.0
220
0.0
230
1.0
 70
     8
 71
     3
 72
    16
 73
    12
 74
     0
 42
0.00000001
 43
0.00000001
 12
1.0
 22
0.0
 32
0.0
 13
1.0
 23
0.0
 33
0.0
 40
0.0
 40
0.0
 40
0.0
 40
0.0
 40
0.2500000000000005
 40
0.2500000000000005
 40
0.3750000000000004
 40
0.3750000000000004
 40
0.5000000000000003
 40
0.5000000000000003
 40
0.7500000000000001
 40
0.7500000000000001
 40
1.0
 40
1.0
 40
1.0
 40
1.0
 10
77.8286519733457
 20
121.1653264333312
 30
0.0
 10
77.66741949586124
 20
120.4509322711391
 30
0.0
 10
77.54693965622161
 20
119.7975900084304
 30
0.0
 10
77.4245591389083
 20
118.9093347666265
 30
0.0
 10
77.39358147851082
 20
118.6286542302747
 30
0.0
 10
77.35196774088287
 20
118.0996202404347
 30
0.0
 10
77.34173182795007
 20
117.8562992618562
 30
0.0
 10
77.34154343089396
 20
117.188276571343
 30
0.0
 10
77.38168813353158
 20
116.8245956619236
 30
0.0
 10
77.54584188847114
 20
116.2647047893752
 30
0.0
 10
77.6673935388807
 20
116.0771834972581
 30
0.0
 10
77.82865197334571
 20
115.9791521045701
 30
0.0
  0
LINE
  5
159
330
1F
100
AcDbEntity
  8
0
  6
HIDDEN
 62
     7
370
     0
100
AcDbLine
 10
76.9499723288
 20
122.2143124416
 30
0.0
 11
76.9499723288
 21
115.729133375
 31
0.0
  0
LINE
  5
15A
330
1F
100
AcDbEntity
  8
0
  6
HIDDEN
 62
     7
370
     0
100
AcDbLine
 10
42.6499728533
 20
122.6451804489
 30
0.0
 11
42.6499728533
 21
116.5908693895
 31
0.0
  0
LINE
  5
15B
330
1F
100
AcDbEntity
  8
0
  6
HIDDEN
 62
     7
370
     0
100
AcDbLine
 10
41.1499735388
 20
123.078193292
 30
0.0
 11
41.1499735388
 21
117.4568950757
 31
0.0
  0
SPLINE
  5
15C
330
1F
100
AcDbEntity
  8
0
  6
HIDDEN
 62
     7
370
     0
100
AcDbSpline
210
0.0
220
0.0
230
1.0
 70
     8
 71
     3
 72
    16
 73
    12
 74
     0
 42
0.00000001
 43
0.00000001
 12
1.0
 22
0.0
 32
0.0
 13
1.0
 23
0.0
 33
0.0
 40
0.0
 40
0.0
 40
0.0
 40
0.0
 40
0.2500000000000006
 40
0.2500000000000006
 40
0.3750000000000006
 40
0.3750000000000006
 40
0.5000000000000007
 40
0.5000000000000007
 40
0.7500000000000003
 40
0.7500000000000003
 40
1.0
 40
1.0
 40
1.0
 40
1.0
 10
77.8286519733457
 20
159.5193140145744
 30
0.0
 10
77.66741949586124
 20
159.4212984015197
 30
0.0
 10
77.54693965622161
 20
159.2345623698436
 30
0.0
 10
77.4245591389083
 20
158.8215225622847
 30
0.0
 10
77.39358147851082
 20
158.6615220630518
 30
0.0
 10
77.35196774088287
 20
158.2947164119606
 30
0.0
 10
77.34173182795007
 20
158.0913792593366
 30
0.0
 10
77.34154343089396
 20
157.4240919927099
 30
0.0
 10
77.38168813353157
 20
156.9032775288219
 30
0.0
 10
77.54584188847113
 20
155.7059185133442
 30
0.0
 10
77.6673935388807
 20
155.0476488590482
 30
0.0
 10
77.82865197334571
 20
154.3331396858133
 30
0.0
  0
ELLIPSE
  5
15D
330
1F
100
AcDbEntity
  8
0
  6
HIDDEN
 62
     7
370
     0
100
AcDbEllipse
 10
283.4588743765
 20
134.2492330596
 30
0.0
 11
26.15327782776688
 21
24.36834782511482
 31
0.0
210
0.0
220
0.0
230
1.0
 40
0.2135193148
 41
2.764800518179873
 42
2.805150525736821
  0
ELLIPSE
  5
15E
330
1F
100
AcDbEntity
  8
0
  6
HIDDEN
 62
     7
370
     0
100
AcDbEllipse
 10
182.5669703647
 20
134.2492330596
 30
0.0
 11
79.87403590516479
 21
-24.61739821802053
 31
0.0
210
0.0
220
0.0
230
1.0
 40
0.054548757
 41
0.3865360448654194
 42
0.7175191278459241
  0
SPLINE
  5
15F
330
1F
100
AcDbEntity
  8
0
  6
HIDDEN
 62
     7
370
     0
100
AcDbSpline
210
0.0
220
0.0
230
1.0
 70
     8
 71
     3
 72
    12
 73
     8
 74
     0
 42
0.00000001
 43
0.00000001
 12
1.0
 22
0.0
 32
0.0
 13
1.0
 23
0.0
 33
0.0
 40
0.0
 40
0.0
 40
0.0
 40
0.0
 40
0.5000000000000059
 40
0.5000000000000059
 40
0.7500000000000029
 40
0.7500000000000029
 40
1.0
 40
1.0
 40
1.0
 40
1.0
 10
237.0888459502692
 20
119.9472193776838
 30
0.0
 10
238.2190505164693
 20
119.8844468939802
 30
0.0
 10
239.3317483026879
 20
119.7359304277802
 30
0.0
 10
240.9740888708827
 20
119.3884236638466
 30
0.0
 10
241.5186852618334
 20
119.251209521918
 30
0.0
 10
242.5905728016002
 20
118.9370022858586
 30
0.0
 10
243.115804554782
 20
118.7607604331212
 30
0.0
 10
243.6301514920539
 20
118.5663417995707
 30
0.0
  0
ELLIPSE
  5
160
330
1F
100
AcDbEntity
  8
0
  6
HIDDEN
 62
     7
370
     0
100
AcDbEllipse
 10
252.0670919896
 20
134.2492330596
 30
0.0
 11
-8.167462024544193
 21
24.98763552087314
 31
0.0
210
0.0
220
0.0
230
1.0
 40
0.0962569477
 41
1.539344142815212
 42
2.508078693174823
  0
LWPOLYLINE
  5
161
330
1F
100
AcDbEntity
  8
0
  6
HIDDEN
 62
     7
370
     0
100
AcDbPolyline
 90
       21
 70
   128
 43
0.0
 10
217.1499688598
 20
142.5841695256
 10
217.9225195619
 20
142.6901354082
 10
218.6194319698
 20
142.997659985
 10
219.1725183698
 20
143.4766405821
 10
219.5276130411
 20
144.0801916271
 10
219.6499664757
 20
144.7492332756
 10
219.5276130411
 20
145.4182744585
 10
219.1725183698
 20
146.0218250379
 10
218.6194319698
 20
146.5008061007
 10
217.9225195619
 20
146.8083306774
 10
217.1499688598
 20
146.91429656
 10
216.3774330589
 20
146.8083306774
 10
215.6805057499
 20
146.5008061007
 10
215.127434251
 20
146.0218250379
 10
214.7723246786
 20
145.4182744585
 10
214.649971244
 20
144.7492332756
 10
214.7723246786
 20
144.0801916271
 10
215.127434251
 20
143.4766405821
 10
215.6805057499
 20
142.997659985
 10
216.3774330589
 20
142.6901354082
 10
217.1499688598
 20
142.5841695256
  0
LINE
  5
162
330
1F
100
AcDbEntity
  8
0
  6
HIDDEN
 62
     7
370
     0
100
AcDbLine
 10
41.1499735388
 20
152.4202728271
 30
0.0
 11
41.1499735388
 21
140.6512204651
 31
0.0
  0
LINE
  5
163
330
1F
100
AcDbEntity
  8
0
  6
HIDDEN
 62
     7
370
     0
100
AcDbLine
 10
41.1499735388
 20
134.8472456541
 30
0.0
 11
41.1499735388
 21
123.078193292
 31
0.0
  0
LINE
  5
164
330
1F
100
AcDbEntity
  8
0
  6
HIDDEN
 62
     7
370
     0
100
AcDbLine
 10
42.6499728533
 20
133.7840219587
 30
0.0
 11
42.6499728533
 21
122.6451804489
 31
0.0
  0
LINE
  5
165
330
1F
100
AcDbEntity
  8
0
  6
HIDDEN
 62
     7
370
     0
100
AcDbLine
 10
42.6499728533
 20
152.8532856703
 30
0.0
 11
42.6499728533
 21
141.7144441604
 31
0.0
  0
LINE
  5
166
330
1F
100
AcDbEntity
  8
0
  6
HIDDEN
 62
     7
370
     0
100
AcDbLine
 10
78.949972322
 20
152.7869401127
 30
0.0
 11
78.949972322
 21
122.7115260064
 31
0.0
  0
LINE
  5
167
330
1F
100
AcDbEntity
  8
0
  6
HIDDEN
 62
     7
370
     0
100
AcDbLine
 10
76.9499723288
 20
153.2841536775
 30
0.0
 11
76.9499723288
 21
122.2143124416
 31
0.0
  0
SPLINE
  5
168
330
1F
100
AcDbEntity
  8
0
  6
HIDDEN
 62
     7
370
     0
100
AcDbSpline
210
0.0
220
0.0
230
1.0
 70
     8
 71
     3
 72
     8
 73
     4
 74
     0
 42
0.00000001
 43
0.00000001
 12
1.0
 22
0.0
 32
0.0
 13
1.0
 23
0.0
 33
0.0
 40
0.0000249638557296
 40
0.0000249638557296
 40
0.0000249638557296
 40
0.0000249638557296
 40
0.0049776420541172
 40
0.0049776420541172
 40
0.0049776420541172
 40
0.0049776420541172
 10
42.64997231690538
 20
133.7840221627358
 30
0.0
 10
44.29994855141492
 20
133.7427429249676
 30
0.0
 10
45.94994987115997
 20
133.7025212437281
 30
0.0
 10
47.59997231690538
 20
133.6632720064731
 30
0.0
  0
SPLINE
  5
169
330
1F
100
AcDbEntity
  8
0
  6
HIDDEN
 62
     7
370
     0
100
AcDbSpline
210
0.0
220
0.0
230
1.0
 70
     8
 71
     3
 72
     8
 73
     4
 74
     0
 42
0.00000001
 43
0.00000001
 12
1.0
 22
0.0
 32
0.0
 13
1.0
 23
0.0
 33
0.0
 40
0.0000249631533153
 40
0.0000249631533153
 40
0.0000249631533153
 40
0.0000249631533153
 40
0.0049776413517029
 40
0.0049776413517029
 40
0.0049776413517029
 40
0.0049776413517029
 10
47.59997231690538
 20
141.8351941126715
 30
0.0
 10
45.94994987115995
 20
141.7959448754164
 30
0.0
 10
44.29994855141492
 20
141.755723194177
 30
0.0
 10
42.64997231690537
 20
141.7144439564088
 30
0.0
  0
SPLINE
  5
16A
330
1F
100
AcDbEntity
  8
0
  6
HIDDEN
 62
     7
370
     0
100
AcDbSpline
210
0.0
220
0.0
230
1.0
 70
     8
 71
     3
 72
     8
 73
     4
 74
     0
 42
0.00000001
 43
0.00000001
 12
1.0
 22
0.0
 32
0.0
 13
1.0
 23
0.0
 33
0.0
 40
0.0
 40
0.0
 40
0.0
 40
0.0
 40
1.0
 40
1.0
 40
1.0
 40
1.0
 10
41.14997231690315
 20
134.8472457265919
 30
0.0
 10
41.61673292828094
 20
134.4318824809689
 30
0.0
 10
42.12248047506102
 20
134.0872920516643
 30
0.0
 10
42.6499723169054
 20
133.7840221627357
 30
0.0
  0
SPLINE
  5
16B
330
1F
100
AcDbEntity
  8
0
  6
HIDDEN
 62
     7
370
     0
100
AcDbSpline
210
0.0
220
0.0
230
1.0
 70
     8
 71
     3
 72
     8
 73
     4
 74
     0
 42
0.00000001
 43
0.00000001
 12
1.0
 22
0.0
 32
0.0
 13
1.0
 23
0.0
 33
0.0
 40
0.0
 40
0.0
 40
0.0
 40
0.0
 40
1.0
 40
1.0
 40
1.0
 40
1.0
 10
42.64997231690538
 20
141.7144439564088
 30
0.0
 10
42.12248047506187
 20
141.4111740674807
 30
0.0
 10
41.61673292828257
 20
141.0665836381767
 30
0.0
 10
41.1499723169054
 20
140.6512203925546
 30
0.0
  0
LINE
  5
16C
330
1F
100
AcDbEntity
  8
0
  6
HIDDEN
 62
     7
370
     0
100
AcDbLine
 10
41.1499735388
 20
134.8472456541
 30
0.0
 11
41.1499735388
 21
140.6512204651
 31
0.0
  0
LINE
  5
16D
330
1F
100
AcDbEntity
  8
0
  6
HIDDEN
 62
     7
370
     0
100
AcDbLine
 10
47.5999709639
 20
133.6632717959
 30
0.0
 11
47.5999709639
 21
141.8351943232
 31
0.0
  0
SPLINE
  5
16E
330
1F
100
AcDbEntity
  8
0
  6
HIDDEN
 62
     7
370
     0
100
AcDbSpline
210
0.0
220
0.0
230
1.0
 70
     8
 71
     3
 72
    24
 73
    20
 74
     0
 42
0.00000001
 43
0.00000001
 12
1.0
 22
0.0
 32
0.0
 13
1.0
 23
0.0
 33
0.0
 40
0.0
 40
0.0
 40
0.0
 40
0.0
 40
0.125
 40
0.125
 40
0.25
 40
0.25
 40
0.375
 40
0.375
 40
0.4375
 40
0.4375
 40
0.5
 40
0.5
 40
0.625
 40
0.625
 40
0.75
 40
0.75
 40
0.875
 40
0.875
 40
1.0
 40
1.0
 40
1.0
 40
1.0
 10
47.59997231690538
 20
133.663272006473
 30
0.0
 10
47.83777594918048
 20
133.9622791088032
 30
0.0
 10
48.06786161039175
 20
134.2666169601219
 30
0.0
 10
48.50261500900157
 20
134.8923504975179
 30
0.0
 10
48.70754780128775
 20
135.2135752248454
 30
0.0
 10
49.07264975178645
 20
135.8855009955781
 30
0.0
 10
49.23445013757796
 20
136.240816227457
 30
0.0
 10
49.40631034215767
 20
136.7910474488094
 30
0.0
 10
49.45189553381782
 20
136.9774512337899
 30
0.0
 10
49.51437027339267
 20
137.3575857358862
 30
0.0
 10
49.53104141914113
 20
137.5532555281721
 30
0.0
 10
49.5315624623176
 20
138.1317359068465
 30
0.0
 10
49.46712016143091
 20
138.5096477458152
 30
0.0
 10
49.23727106805759
 20
139.2516157709137
 30
0.0
 10
49.07875039039448
 20
139.6003312310746
 30
0.0
 10
48.71451606049432
 20
140.2734236288078
 30
0.0
 10
48.50777982043074
 20
140.5983761160495
 30
0.0
 10
48.06984187469036
 20
141.2292999265112
 30
0.0
 10
47.83856914741082
 20
141.5351896668519
 30
0.0
 10
47.59997231690549
 20
141.8351941126714
 30
0.0
  0
SPLINE
  5
16F
330
1F
100
AcDbEntity
  8
0
  6
HIDDEN
 62
     7
370
     0
100
AcDbSpline
210
0.0
220
0.0
230
1.0
 70
     8
 71
     3
 72
    72
 73
    68
 74
     0
 42
0.00000001
 43
0.00000001
 12
1.0
 22
0.0
 32
0.0
 13
1.0
 23
0.0
 33
0.0
 40
-0.0312499999999999
 40
-0.0312499999999999
 40
0.0
 40
0.0
 40
0.0312500000000001
 40
0.0312500000000001
 40
0.0625000000000003
 40
0.0625000000000003
 40
0.0937500000000004
 40
0.0937500000000004
 40
0.1250000000000006
 40
0.1250000000000006
 40
0.1562500000000005
 40
0.1562500000000005
 40
0.1875000000000004
 40
0.1875000000000004
 40
0.2187500000000004
 40
0.2187500000000004
 40
0.2500000000000003
 40
0.2500000000000003
 40
0.2812500000000002
 40
0.2812500000000002
 40
0.3125000000000001
 40
0.3125000000000001
 40
0.3437500000000001
 40
0.3437500000000001
 40
0.3750000000000001
 40
0.3750000000000001
 40
0.3906250000000001
 40
0.3906250000000001
 40
0.40625
 40
0.40625
 40
0.4375
 40
0.4375
 40
0.4687499999999999
 40
0.4687499999999999
 40
0.4999999999999999
 40
0.4999999999999999
 40
0.5312499999999999
 40
0.5312499999999999
 40
0.5624999999999998
 40
0.5624999999999998
 40
0.5937499999999998
 40
0.5937499999999998
 40
0.6249999999999998
 40
0.6249999999999998
 40
0.6562499999999998
 40
0.6562499999999998
 40
0.6874999999999998
 40
0.6874999999999998
 40
0.7187499999999999
 40
0.7187499999999999
 40
0.7499999999999999
 40
0.7499999999999999
 40
0.7812499999999999
 40
0.7812499999999999
 40
0.8124999999999999
 40
0.8124999999999999
 40
0.84375
 40
0.84375
 40
0.875
 40
0.875
 40
0.90625
 40
0.90625
 40
0.9375
 40
0.9375
 40
0.9687500000000001
 40
0.9687500000000001
 40
1.0
 40
1.0
 40
1.03125
 40
1.03125
 10
60.27391863573057
 20
140.1900667093871
 30
0.0
 10
60.64834885560445
 20
140.6004225098723
 30
0.0
 10
60.85320145687005
 20
140.7840715925308
 30
0.0
 10
61.29606965371703
 20
141.1110264960261
 30
0.0
 10
61.53602507103534
 20
141.2548047042059
 30
0.0
 10
62.03163605380989
 20
141.4923220596518
 30
0.0
 10
62.28890234496437
 20
141.5876416245495
 30
0.0
 10
62.82225611280143
 20
141.731727157184
 30
0.0
 10
63.09653625269971
 20
141.7794631641536
 30
0.0
 10
63.64296478727928
 20
141.8250453046874
 30
0.0
 10
63.91754110574706
 20
141.8236115446151
 30
0.0
 10
64.46950828001776
 20
141.7706982365243
 30
0.0
 10
64.74012524258946
 20
141.7197285103201
 30
0.0
 10
65.26641041366865
 20
141.5711218833765
 30
0.0
 10
65.52404197707625
 20
141.4728365126194
 30
0.0
 10
66.01996814174976
 20
141.2285831534337
 30
0.0
 10
66.2529518195414
 20
141.0855030224115
 30
0.0
 10
66.6892850948664
 20
140.7576444719427
 30
0.0
 10
66.89456634872471
 20
140.5706508342425
 30
0.0
 10
67.26260064658489
 20
140.1612202144194
 30
0.0
 10
67.42411563657005
 20
139.941114773435
 30
0.0
 10
67.70127331971719
 20
139.469364691997
 30
0.0
 10
67.81766749915089
 20
139.2143481655557
 30
0.0
 10
67.99094153579752
 20
138.6931103421587
 30
0.0
 10
68.04938809026328
 20
138.4256262243778
 30
0.0
 10
68.09325281573916
 20
138.0137105650454
 30
0.0
 10
68.10043303236853
 20
137.8740032619698
 30
0.0
 10
68.09946500507309
 20
137.5978802065074
 30
0.0
 10
68.09146221565943
 20
137.4607036401767
 30
0.0
 10
68.04538948374703
 20
137.0517701989134
 30
0.0
 10
67.98445465129501
 20
136.7798439499092
 30
0.0
 10
67.80633449488647
 20
136.256663433454
 30
0.0
 10
67.6907665835441
 20
136.0079514330907
 30
0.0
 10
67.40891979960482
 20
135.5350669080987
 30
0.0
 10
67.24204985419014
 20
135.3114576908666
 30
0.0
 10
66.87272429939138
 20
134.906800302679
 30
0.0
 10
66.66793914309388
 20
134.7223867145094
 30
0.0
 10
66.22328619557767
 20
134.3933606796151
 30
0.0
 10
65.9884370660669
 20
134.2521926036268
 30
0.0
 10
65.49502730358988
 20
134.0137830748463
 30
0.0
 10
65.23374034988521
 20
133.9160005184415
 30
0.0
 10
64.70300206937254
 20
133.7706724902513
 30
0.0
 10
64.4333623684753
 20
133.7223831000564
 30
0.0
 10
63.88561102873008
 20
133.6739678762697
 30
0.0
 10
63.60570698687146
 20
133.6744260619057
 30
0.0
 10
63.05862907903646
 20
133.7245779175079
 30
0.0
 10
62.78902397434901
 20
133.7737514845399
 30
0.0
 10
62.25786921769296
 20
133.9214260078469
 30
0.0
 10
61.9965744012494
 20
134.0205811722125
 30
0.0
 10
61.50426042307402
 20
134.2615939426892
 30
0.0
 10
61.27030354749541
 20
134.4040820673139
 30
0.0
 10
60.82813492696493
 20
134.7355694962989
 30
0.0
 10
60.62294139585328
 20
134.9230031242872
 30
0.0
 10
60.25724717949529
 20
135.3299068433377
 30
0.0
 10
60.09447655710694
 20
135.5510859180067
 30
0.0
 10
59.81352412634139
 20
136.0308332472219
 30
0.0
 10
59.70032027406788
 20
136.2808452140322
 30
0.0
 10
59.52771154992895
 20
136.8009204240526
 30
0.0
 10
59.46810526725258
 20
137.0746518886824
 30
0.0
 10
59.4102134971827
 20
137.6232695385809
 30
0.0
 10
59.41100303604269
 20
137.8976094024725
 30
0.0
 10
59.47219351165909
 20
138.4463513536114
 30
0.0
 10
59.53332223539312
 20
138.7194166674686
 30
0.0
 10
59.70940192102293
 20
139.239581916237
 30
0.0
 10
59.82573251601288
 20
139.4919010497959
 30
0.0
 10
60.10893374575362
 20
139.9683053912029
 30
0.0
 10
60.27391863573057
 20
140.1900667093871
 30
0.0
 10
60.64834885560445
 20
140.6004225098723
 30
0.0
  0
CIRCLE
  5
170
330
1F
100
AcDbEntity
  8
0
  6
HIDDEN
 62
     7
370
     0
100
AcDbCircle
 10
63.6499723169
 20
137.7492330596
 30
0.0
 40
4.049999999999983
  0
LINE
  5
171
330
1F
100
AcDbEntity
  8
0
  6
HIDDEN
 62
     7
370
     0
100
AcDbLine
 10
249.4061995718
 20
134.2492329515
 30
0.0
 11
248.2739199373
 21
137.7492330596
 31
0.0
  0
CIRCLE
  5
172
330
1F
100
AcDbEntity
  8
0
  6
HIDDEN
 62
     7
370
     0
100
AcDbCircle
 10
91.1499723169
 20
137.7492330596
 30
0.0
 40
2.000000000000028
  0
LINE
  5
173
330
1F
100
AcDbEntity
  8
0
  6
HIDDEN
 62
     7
370
     0
100
AcDbLine
 10
79.1499723169
 20
113.4992323443
 30
0.0
 11
79.2428655373
 21
113.5921261832
 31
0.0
  0
LINE
  5
174
330
1F
100
AcDbEntity
  8
0
  6
HIDDEN
 62
     7
370
     0
100
AcDbLine
 10
79.2428655373
 20
161.9063399359
 30
0.0
 11
79.1499723169
 21
161.9992337748
 31
0.0
  0
ARC
  5
175
330
1F
100
AcDbEntity
  8
0
  6
HIDDEN
 62
     7
370
     0
100
AcDbCircle
 10
78.5357587545
 20
114.2992330596
 30
0.0
 40
1.0
100
AcDbArc
 50
315.0
 51
0.0
  0
ARC
  5
176
330
1F
100
AcDbEntity
  8
0
  6
HIDDEN
 62
     7
370
     0
100
AcDbCircle
 10
78.5357587545
 20
114.2992330596
 30
0.0
 40
1.00000000000001
100
AcDbArc
 50
0.0
 51
52.1052014664
  0
ARC
  5
177
330
1F
100
AcDbEntity
  8
0
  6
HIDDEN
 62
     7
370
     0
100
AcDbCircle
 10
78.5357587545
 20
161.1992330596
 30
0.0
 40
1.000000000000018
100
AcDbArc
 50
351.8087250651
 51
45.0
  0
ARC
  5
178
330
1F
100
AcDbEntity
  8
0
  6
HIDDEN
 62
     7
370
     0
100
AcDbCircle
 10
78.5357587545
 20
161.1992330596
 30
0.0
 40
0.9999999999999989
100
AcDbArc
 50
307.8947985336
 51
351.8087250651
  0
LINE
  5
179
330
1F
100
AcDbEntity
  8
0
  6
HIDDEN
 62
     7
370
     0
100
AcDbLine
 10
79.5357587527
 20
114.299232848
 30
0.0
 11
79.5357587527
 21
161.1992332712
 31
0.0
  0
LINE
  5
17A
330
1F
100
AcDbEntity
  8
0
  6
HIDDEN
 62
     7
370
     0
100
AcDbLine
 10
79.5357587527
 20
114.299232848
 30
0.0
 11
79.5357587527
 21
161.1992332712
 31
0.0
  0
LINE
  5
17B
330
1F
100
AcDbEntity
  8
0
  6
HIDDEN
 62
     7
370
     0
100
AcDbLine
 10
41.1499735388
 20
121.5528033301
 30
0.0
 11
42.6801998588
 21
122.4362820014
 31
0.0
  0
LINE
  5
17C
330
1F
100
AcDbEntity
  8
0
  6
HIDDEN
 62
     7
370
     0
100
AcDbLine
 10
42.6801998588
 20
153.0621841177
 30
0.0
 11
41.1499735388
 21
153.945662789
 31
0.0
  0
ARC
  5
17D
330
1F
100
AcDbEntity
  8
0
  6
HIDDEN
 62
     7
370
     0
100
AcDbCircle
 10
52.1517736318
 20
123.7492330596
 30
0.0
 40
2.000000000000036
100
AcDbArc
 50
270.0
 51
315.0
  0
ARC
  5
17E
330
1F
100
AcDbEntity
  8
0
  6
HIDDEN
 62
     7
370
     0
100
AcDbCircle
 10
52.1517736318
 20
151.7492330596
 30
0.0
 40
2.000000000000006
100
AcDbArc
 50
45.0
 51
90.0
  0
LINE
  5
17F
330
1F
100
AcDbEntity
  8
0
  6
HIDDEN
 62
     7
370
     0
100
AcDbLine
 10
51.1499714526
 20
121.7492322996
 30
0.0
 11
52.1517727944
 21
121.7492322996
 31
0.0
  0
LINE
  5
180
330
1F
100
AcDbEntity
  8
0
  6
HIDDEN
 62
     7
370
     0
100
AcDbLine
 10
52.1517727944
 20
153.7492338195
 30
0.0
 11
51.1499714526
 21
153.7492338195
 31
0.0
  0
ARC
  5
181
330
1F
100
AcDbEntity
  8
0
  6
HIDDEN
 62
     7
370
     0
100
AcDbCircle
 10
51.1499723169
 20
123.7492330596
 30
0.0
 40
2.000000000000006
100
AcDbArc
 50
189.9742217944
 51
270.0
  0
ARC
  5
182
330
1F
100
AcDbEntity
  8
0
  6
HIDDEN
 62
     7
370
     0
100
AcDbCircle
 10
51.1499723169
 20
151.7492330596
 30
0.0
 40
2.000000000000006
100
AcDbArc
 50
90.0
 51
170.0257782056
  0
LINE
  5
183
330
1F
100
AcDbEntity
  8
0
  6
HIDDEN
 62
     7
370
     0
100
AcDbLine
 10
53.5659879866
 20
122.3350192979
 30
0.0
 11
54.9802013162
 21
123.7492326274
 31
0.0
  0
LINE
  5
184
330
1F
100
AcDbEntity
  8
0
  6
HIDDEN
 62
     7
370
     0
100
AcDbLine
 10
54.9802013162
 20
151.7492334917
 30
0.0
 11
53.5659879866
 21
153.1634468213
 31
0.0
  0
LINE
  5
185
330
1F
100
AcDbEntity
  8
0
  6
HIDDEN
 62
     7
370
     0
100
AcDbLine
 10
42.6801998588
 20
122.4362820014
 30
0.0
 11
47.5802008483
 21
123.7492326274
 31
0.0
  0
LINE
  5
186
330
1F
100
AcDbEntity
  8
0
  6
HIDDEN
 62
     7
370
     0
100
AcDbLine
 10
47.5802008483
 20
151.7492334917
 30
0.0
 11
42.6801998588
 21
153.0621841177
 31
0.0
  0
LINE
  5
187
330
1F
100
AcDbEntity
  8
0
  6
HIDDEN
 62
     7
370
     0
100
AcDbLine
 10
49.1801999929
 20
152.0956435799
 30
0.0
 11
48.5802010122
 21
151.7492334917
 31
0.0
  0
LINE
  5
188
330
1F
100
AcDbEntity
  8
0
  6
HIDDEN
 62
     7
370
     0
100
AcDbLine
 10
48.5802010122
 20
123.7492326274
 30
0.0
 11
49.1801999929
 21
123.4028225392
 31
0.0
  0
ARC
  5
189
330
1F
100
AcDbEntity
  8
0
  6
HIDDEN
 62
     7
370
     0
100
AcDbCircle
 10
67.6499723169
 20
124.2492330596
 30
0.0
 40
0.5000000000000142
100
AcDbArc
 50
270.0
 51
360.0
  0
ARC
  5
18A
330
1F
100
AcDbEntity
  8
0
  6
HIDDEN
 62
     7
370
     0
100
AcDbCircle
 10
67.6499723169
 20
151.2492330596
 30
0.0
 40
0.5
100
AcDbArc
 50
0.0
 51
90.0
  0
LINE
  5
18B
330
1F
100
AcDbEntity
  8
0
  6
HIDDEN
 62
     7
370
     0
100
AcDbLine
 10
219.2499746057
 20
132.2696020454
 30
0.0
 11
219.2499746057
 21
135.6996137276
 31
0.0
  0
LINE
  5
18C
330
1F
100
AcDbEntity
  8
0
  6
HIDDEN
 62
     7
370
     0
100
AcDbLine
 10
219.2499746057
 20
130.2492332272
 30
0.0
 11
219.2499746057
 21
130.5088547617
 31
0.0
  0
LINE
  5
18D
330
1F
100
AcDbEntity
  8
0
  6
HIDDEN
 62
     7
370
     0
100
AcDbLine
 10
215.0499780151
 20
135.6308083143
 30
0.0
 11
215.0499780151
 21
130.2492332272
 31
0.0
  0
LINE
  5
18E
330
1F
100
AcDbEntity
  8
0
  6
HIDDEN
 62
     7
370
     0
100
AcDbLine
 10
47.5802008483
 20
123.7492326274
 30
0.0
 11
48.5802010122
 21
123.7492326274
 31
0.0
  0
LINE
  5
18F
330
1F
100
AcDbEntity
  8
0
  6
HIDDEN
 62
     7
370
     0
100
AcDbLine
 10
48.5802010122
 20
151.7492334917
 30
0.0
 11
47.5802008483
 21
151.7492334917
 31
0.0
  0
LINE
  5
190
330
1F
100
AcDbEntity
  8
0
  6
HIDDEN
 62
     7
370
     0
100
AcDbLine
 10
54.9802013162
 20
123.7492326274
 30
0.0
 11
67.6499722946
 21
123.7492326274
 31
0.0
  0
LINE
  5
191
330
1F
100
AcDbEntity
  8
0
  6
HIDDEN
 62
     7
370
     0
100
AcDbLine
 10
67.6499722946
 20
151.7492334917
 30
0.0
 11
54.9802013162
 21
151.7492334917
 31
0.0
  0
LINE
  5
192
330
1F
100
AcDbEntity
  8
0
  6
HIDDEN
 62
     7
370
     0
100
AcDbLine
 10
223.9208329889
 20
130.3293064795
 30
0.0
 11
218.9915586683
 21
132.7418263629
 31
0.0
  0
LINE
  5
193
330
1F
100
AcDbEntity
  8
0
  6
HIDDEN
 62
     7
370
     0
100
AcDbLine
 10
216.7724330398
 20
129.1518693417
 30
0.0
 11
223.9645082924
 21
125.6318853795
 31
0.0
  0
LINE
  5
194
330
1F
100
AcDbEntity
  8
0
  6
HIDDEN
 62
     7
370
     0
100
AcDbLine
 10
216.5318686935
 20
129.5982652902
 30
0.0
 11
216.5376503441
 21
129.4509319216
 31
0.0
  0
LINE
  5
195
330
1F
100
AcDbEntity
  8
0
  6
HIDDEN
 62
     7
370
     0
100
AcDbLine
 10
68.1499723765
 20
127.4992327765
 30
0.0
 11
69.3999721157
 21
128.749233447
 31
0.0
  0
LINE
  5
196
330
1F
100
AcDbEntity
  8
0
  6
HIDDEN
 62
     7
370
     0
100
AcDbLine
 10
69.3999721157
 20
146.7492326721
 30
0.0
 11
68.1499723765
 21
147.9992333427
 31
0.0
  0
LINE
  5
197
330
1F
100
AcDbEntity
  8
0
  6
HIDDEN
 62
     7
370
     0
100
AcDbLine
 10
69.3999721157
 20
128.749233447
 30
0.0
 11
95.1499730769
 21
128.749233447
 31
0.0
  0
LINE
  5
198
330
1F
100
AcDbEntity
  8
0
  6
HIDDEN
 62
     7
370
     0
100
AcDbLine
 10
95.1499730769
 20
146.7492326721
 30
0.0
 11
69.3999721157
 21
146.7492326721
 31
0.0
  0
LINE
  5
199
330
1F
100
AcDbEntity
  8
0
  6
HIDDEN
 62
     7
370
     0
100
AcDbLine
 10
95.1499730769
 20
128.749233447
 30
0.0
 11
98.0040595355
 21
133.4992328286
 31
0.0
  0
LINE
  5
19A
330
1F
100
AcDbEntity
  8
0
  6
HIDDEN
 62
     7
370
     0
100
AcDbLine
 10
98.0040595355
 20
141.9992332905
 30
0.0
 11
95.1499730769
 21
146.7492326721
 31
0.0
  0
LINE
  5
19B
330
1F
100
AcDbEntity
  8
0
  6
HIDDEN
 62
     7
370
     0
100
AcDbLine
 10
219.149972913
 20
141.9992332905
 30
0.0
 11
98.0040595355
 21
141.9992332905
 31
0.0
  0
LINE
  5
19C
330
1F
100
AcDbEntity
  8
0
  6
HIDDEN
 62
     7
370
     0
100
AcDbLine
 10
98.0040595355
 20
133.4992328286
 30
0.0
 11
219.149972913
 21
133.4992328286
 31
0.0
  0
LINE
  5
19D
330
1F
100
AcDbEntity
  8
0
  6
HIDDEN
 62
     7
370
     0
100
AcDbLine
 10
219.149972913
 20
133.4992328286
 30
0.0
 11
221.7036296102
 21
137.7492330596
 31
0.0
  0
LINE
  5
19E
330
1F
100
AcDbEntity
  8
0
  6
HIDDEN
 62
     7
370
     0
100
AcDbLine
 10
221.7036296102
 20
137.7492330596
 30
0.0
 11
219.149972913
 21
141.9992332905
 31
0.0
  0
LINE
  5
19F
330
1F
100
AcDbEntity
  8
0
  6
HIDDEN
 62
     7
370
     0
100
AcDbLine
 10
244.9579943392
 20
125.9878852963
 30
0.0
 11
244.9579943392
 21
125.8832502738
 31
0.0
  0
LINE
  5
1A0
330
1F
100
AcDbEntity
  8
0
  6
HIDDEN
 62
     7
370
     0
100
AcDbLine
 10
219.2499746057
 20
139.7988523915
 30
0.0
 11
219.2499746057
 21
144.6290609985
 31
0.0
  0
LINE
  5
1A1
330
1F
100
AcDbEntity
  8
0
  6
HIDDEN
 62
     7
370
     0
100
AcDbLine
 10
215.0499780151
 20
144.6290609985
 30
0.0
 11
215.0499780151
 21
139.8676578048
 31
0.0
  0
LINE
  5
1A2
330
1F
100
AcDbEntity
  8
0
  6
HIDDEN
 62
     7
370
     0
100
AcDbLine
 10
253.6286969158
 20
118.2322956249
 30
0.0
 11
253.6286969158
 21
118.8426658139
 31
0.0
  0
LINE
  5
1A3
330
1F
100
AcDbEntity
  8
0
  6
HIDDEN
 62
     7
370
     0
100
AcDbLine
 10
250.3286857578
 20
118.8426658139
 30
0.0
 11
250.3286857578
 21
118.2322956249
 31
0.0
  0
LINE
  5
1A4
330
1F
100
AcDbEntity
  8
0
  6
HIDDEN
 62
     7
370
     0
100
AcDbLine
 10
219.6499664757
 20
144.7492332756
 30
0.0
 11
219.6499664757
 21
147.7472900972
 31
0.0
  0
LINE
  5
1A5
330
1F
100
AcDbEntity
  8
0
  6
HIDDEN
 62
     7
370
     0
100
AcDbLine
 10
214.649971244
 20
147.7491955832
 30
0.0
 11
214.649971244
 21
144.7492332756
 31
0.0
  0
LINE
  5
1A6
330
1F
100
AcDbEntity
  8
VERMASSUNG
  6
CENTERX2
100
AcDbLine
 10
38.0788952609
 20
137.7492330596
 30
0.0
 11
259.1499723169
 21
137.7492330596
 31
0.0
  0
LINE
  5
1A7
330
1F
100
AcDbEntity
  8
VERMASSUNG
  6
CENTERX2
100
AcDbLine
 10
259.1499723169
 20
137.7492330596
 30
0.0
 11
259.1499723169
 21
110.7492330596
 31
0.0
  0
LINE
  5
1A8
330
1F
100
AcDbEntity
  8
VERMASSUNG
100
AcDbLine
 10
259.1499723169
 20
110.7492330596
 30
0.0
 11
265.1994472558
 21
110.7492330596
 31
0.0
  0
DIMENSION
  5
1A9
330
1F
100
AcDbEntity
  8
VERMASSUNG
100
AcDbDimension
  2
_D
 10
255.9280957482
 20
121.4032698551
 30
0.0
 11
265.0760805717
 21
118.6387358931
 31
0.0
 70
   162
  1
<>
 71
     1
 42
-1.0
  3
SLDDIMSTYLE0
100
AcDb2LineAngularDimension
 13
265.1994472558
 23
110.7492330596
 33
0.0
 14
259.1499723169
 24
110.7492330596
 34
0.0
 15
259.1340725838
 25
111.2599792688
 35
0.0
 16
265.0760805717
 26
118.6387358931
 36
0.0
  0
DIMENSION
  5
1B3
330
1F
100
AcDbEntity
  8
VERMASSUNG
100
AcDbDimension
  2
_D_1
 10
259.1499723169
 20
191.2492330596
 30
0.0
 11
150.1499723169
 21
191.2492330596
 31
0.0
 70
   160
  1
<>
 71
     2
 42
-1.0
  3
SLDDIMSTYLE1
100
AcDbAlignedDimension
 13
41.1499723169
 23
158.0415710521
 33
0.0
 14
259.1499723169
 24
137.7492330596
 34
0.0
 50
0.0
100
AcDbRotatedDimension
  0
DIMENSION
  5
1BE
330
1F
100
AcDbEntity
  8
VERMASSUNG
100
AcDbDimension
  2
_D_2
 10
259.1499723169
 20
181.8741253749
 30
0.0
 11
169.1499723169
 21
181.8741253749
 31
0.0
 70
   160
  1
<>
 71
     2
 42
-1.0
  3
SLDDIMSTYLE1
100
AcDbAlignedDimension
 13
79.1499723169
 23
168.7492330596
 33
0.0
 14
259.1499723169
 24
137.7492330596
 34
0.0
100
AcDbRotatedDimension
  0
DIMENSION
  5
1C8
330
1F
100
AcDbEntity
  8
VERMASSUNG
100
AcDbDimension
  2
_D_3
 10
279.7693516323
 20
110.7492330596
 30
0.0
 11
279.7693516323
 21
124.2492330596
 31
0.0
 70
   160
  1
<>
 71
     2
 42
-1.0
  3
SLDDIMSTYLE1
100
AcDbAlignedDimension
 13
259.1499723169
 23
137.7492330596
 33
0.0
 14
265.1994472558
 24
110.7492330596
 34
0.0
 50
90.0
100
AcDbRotatedDimension
  0
DIMENSION
  5
1D2
330
1F
100
AcDbEntity
  8
VERMASSUNG
100
AcDbDimension
  2
_D_4
 10
31.1499723169
 20
106.2492330596
 30
0.0
 11
31.1499723169
 21
137.7492330596
 31
0.0
 70
   160
  1
PSC%%c<>
 71
     2
 42
-1.0
  3
SLDDIMSTYLE1
100
AcDbAlignedDimension
 13
79.6499723169
 23
169.2492330596
 33
0.0
 14
79.6499723169
 24
106.2492330596
 34
0.0
 50
90.0
100
AcDbRotatedDimension
  0
DIMENSION
  5
1DE
330
1F
100
AcDbEntity
  8
VERMASSUNG
100
AcDbDimension
  2
_D_5
 10
134.3673372772
 20
157.7492330596
 30
0.0
 11
134.3673372772
 21
128.530298405
 31
0.0
 70
   160
  1
%%c<>
 71
     2
 42
-1.0
  3
SLDDIMSTYLE1
100
AcDbAlignedDimension
 13
105.1499723169
 23
117.7492330596
 33
0.0
 14
105.1499723169
 24
157.7492330596
 34
0.0
 50
90.0
100
AcDbRotatedDimension
  0
LINE
  5
1E7
330
1F
100
AcDbEntity
  8
0
  6
Continuous
 62
     7
370
    15
100
AcDbLine
 10
172.4935298459
 20
46.537112447
 30
0.0
 11
171.0018998616
 21
46.3650338375
 31
0.0
  0
LINE
  5
1E8
330
1F
100
AcDbEntity
  8
0
  6
Continuous
 62
     7
370
    15
100
AcDbLine
 10
171.0018998616
 20
46.3650338375
 30
0.0
 11
168.8223694706
 21
46.4255455905
 31
0.0
  0
LINE
  5
1E9
330
1F
100
AcDbEntity
  8
0
  6
Continuous
 62
     7
370
    15
100
AcDbLine
 10
166.2770615564
 20
82.8251466179
 30
0.0
 11
168.8223694706
 21
46.4255455905
 31
0.0
  0
ARC
  5
1EA
330
1F
100
AcDbEntity
  8
0
  6
Continuous
 62
     7
370
    15
100
AcDbCircle
 10
169.282364766
 20
62.5466313237
 30
0.0
 40
20.5
100
AcDbArc
 50
0.0
 51
98.4299517575
  0
LINE
  5
1EB
330
1F
100
AcDbEntity
  8
0
  6
Continuous
 62
     7
370
    15
100
AcDbLine
 10
189.7823653322
 20
59.0466312156
 30
0.0
 11
189.7823653322
 21
62.5466313237
 31
0.0
  0
ARC
  5
1EC
330
1F
100
AcDbEntity
  8
0
  6
Continuous
 62
     7
370
    15
100
AcDbCircle
 10
164.782364766
 20
59.0466313237
 30
0.0
 40
25.00000000000004
100
AcDbArc
 50
304.4955987959
 51
0.0
  0
LINE
  5
1ED
330
1F
100
AcDbEntity
  8
0
  6
Continuous
 62
     7
370
    15
100
AcDbLine
 10
173.1624320288
 20
36.9713660353
 30
0.0
 11
178.9409379613
 21
38.4423881793
 31
0.0
  0
LINE
  5
1EE
330
1F
100
AcDbEntity
  8
0
  6
Continuous
 62
     7
370
    15
100
AcDbLine
 10
172.4935298459
 20
46.537112447
 30
0.0
 11
172.5084878177
 21
46.3232025528
 31
0.0
  0
LINE
  5
1EF
330
1F
100
AcDbEntity
  8
0
  6
Continuous
 62
     7
370
    15
100
AcDbLine
 10
172.5099646625
 20
46.3020820194
 30
0.0
 11
172.5102349789
 21
46.2982170307
 31
0.0
  0
ARC
  5
1F0
330
1F
100
AcDbEntity
  8
0
  6
Continuous
 62
     7
370
    15
100
AcDbCircle
 10
164.782364766
 20
59.0466313237
 30
0.0
 40
25.00000000000002
100
AcDbArc
 50
302.1837136596
 51
304.4955987959
  0
LINE
  5
1F1
330
1F
100
AcDbEntity
  8
0
  6
Continuous
 62
     7
370
    15
100
AcDbLine
 10
178.0982577381
 20
37.8880165541
 30
0.0
 11
173.1857812171
 21
36.63745709
 31
0.0
  0
SPLINE
  5
1F2
330
1F
100
AcDbEntity
  8
0
  6
Continuous
 62
     7
370
    15
100
AcDbSpline
210
0.0
220
0.0
230
1.0
 70
     8
 71
     3
 72
    14
 73
    10
 74
     0
 42
0.00000001
 43
0.00000001
 12
1.0
 22
0.0
 32
0.0
 13
1.0
 23
0.0
 33
0.0
 40
0.0
 40
0.0
 40
0.0
 40
0.0
 40
0.2500000000000001
 40
0.2500000000000001
 40
0.5000000000000002
 40
0.5000000000000002
 40
0.7500000000000001
 40
0.7500000000000001
 40
1.0
 40
1.0
 40
1.0
 40
1.0
 10
164.1150489200228
 20
81.8675745446249
 30
0.0
 10
164.4249226184718
 20
81.95044913588764
 30
0.0
 10
164.7155956577657
 20
82.02023481437293
 30
0.0
 10
165.256252391388
 20
82.13915622854223
 30
0.0
 10
165.4928015113688
 20
82.18537790072568
 30
0.0
 10
165.8919541495912
 20
82.25820844552433
 30
0.0
 10
166.0463245544265
 20
82.28338724348691
 30
0.0
 10
166.2580699848023
 20
82.31694066788032
 30
0.0
 10
166.3120469116207
 20
82.32483174341021
 30
0.0
 10
166.3120469116207
 20
82.32483174341021
 30
0.0
  0
SPLINE
  5
1F3
330
1F
100
AcDbEntity
  8
0
  6
Continuous
 62
     7
370
    15
100
AcDbSpline
210
0.0
220
0.0
230
1.0
 70
     8
 71
     3
 72
    10
 73
     6
 74
     0
 42
0.00000001
 43
0.00000001
 12
1.0
 22
0.0
 32
0.0
 13
1.0
 23
0.0
 33
0.0
 40
0.0
 40
0.0
 40
0.0
 40
0.0
 40
0.275377301663213
 40
0.6537822288340408
 40
1.0
 40
1.0
 40
1.0
 40
1.0
 10
168.7923751793641
 20
42.55380854245173
 30
0.0
 10
168.6865867961082
 20
42.55631184607248
 30
0.0
 10
168.4354311468514
 20
42.56225502080304
 30
0.0
 10
167.740421739286
 20
42.59810141946343
 30
0.0
 10
167.1407905309192
 20
42.66337816917387
 30
0.0
 10
166.8542924941357
 20
42.69456677373397
 30
0.0
  0
ELLIPSE
  5
1F4
330
1F
100
AcDbEntity
  8
0
  6
Continuous
 62
     7
370
    15
100
AcDbEllipse
 10
160.120286467
 20
52.7779944581
 30
0.0
 11
-1.776310460398093
 21
1.907117469001939
 31
0.0
210
0.0
220
0.0
230
1.0
 40
0.7900595085
 41
0.0
 42
6.283185307179586
  0
ARC
  5
1F5
330
1F
100
AcDbEntity
  8
0
  6
Continuous
 62
     7
370
    15
100
AcDbCircle
 10
169.282364766
 20
62.5466313237
 30
0.0
 40
20.0
100
AcDbArc
 50
104.9731161125
 51
263.0268838875
  0
ARC
  5
1F6
330
1F
100
AcDbEntity
  8
0
  6
Continuous
 62
     7
370
    15
100
AcDbCircle
 10
158.2053636604
 20
56.3782740387
 30
0.0
 40
2.374136534592633
100
AcDbArc
 50
279.5472759246
 51
319.9461279524
  0
SPLINE
  5
1F7
330
1F
100
AcDbEntity
  8
0
  6
Continuous
 62
     7
370
    15
100
AcDbSpline
210
0.0
220
0.0
230
1.0
 70
     8
 71
     3
 72
     9
 73
     5
 74
     0
 42
0.00000001
 43
0.00000001
 12
1.0
 22
0.0
 32
0.0
 13
1.0
 23
0.0
 33
0.0
 40
0.0
 40
0.0
 40
0.0
 40
0.0
 40
0.7313508996231585
 40
1.0
 40
1.0
 40
1.0
 40
1.0
 10
158.5991411608483
 20
54.03702147539603
 30
0.0
 10
158.4433065377692
 20
53.88176002550581
 30
0.0
 10
158.2302287618899
 20
53.66946596807013
 30
0.0
 10
157.9388604885582
 20
53.67850994575002
 30
0.0
 10
157.8605846640493
 20
53.68093960221755
 30
0.0
  0
SPLINE
  5
1F8
330
1F
100
AcDbEntity
  8
0
  6
Continuous
 62
     7
370
    15
100
AcDbSpline
210
0.0
220
0.0
230
1.0
 70
     8
 71
     3
 72
    10
 73
     6
 74
     0
 42
0.00000001
 43
0.00000001
 12
1.0
 22
0.0
 32
0.0
 13
1.0
 23
0.0
 33
0.0
 40
0.0
 40
0.0
 40
0.0
 40
0.0
 40
0.5
 40
0.5
 40
1.0
 40
1.0
 40
1.0
 40
1.0
 10
160.0226224251499
 20
54.8504990266098
 30
0.0
 10
159.7843387556846
 20
54.73037567424355
 30
0.0
 10
159.5443905671923
 20
54.60520005736706
 30
0.0
 10
159.0650394261155
 20
54.33205675864716
 30
0.0
 10
158.8283855422954
 20
54.18526619886793
 30
0.0
 10
158.5991410080778
 20
54.03702156076654
 30
0.0
  0
CIRCLE
  5
1F9
330
1F
100
AcDbEntity
  8
0
  6
Continuous
 62
     7
370
    15
100
AcDbCircle
 10
169.282364766
 20
62.5466313237
 30
0.0
 40
31.50000000000002
  0
LINE
  5
1FA
330
1F
100
AcDbEntity
  8
0
  6
Continuous
 62
     7
370
    15
100
AcDbLine
 10
173.1927647394
 20
36.537587645
 30
0.0
 11
172.5144860008
 21
46.237425881
 31
0.0
  0
LINE
  5
1FB
330
1F
100
AcDbEntity
  8
0
  6
Continuous
 62
     7
370
    15
100
AcDbLine
 10
169.2466499131
 20
36.0573772364
 30
0.0
 11
168.5373619454
 21
46.2006684416
 31
0.0
  0
SPLINE
  5
1FC
330
1F
100
AcDbEntity
  8
0
  6
Continuous
 62
     7
370
    15
100
AcDbSpline
210
0.0
220
0.0
230
1.0
 70
     8
 71
     3
 72
     9
 73
     5
 74
     0
 42
0.00000001
 43
0.00000001
 12
1.0
 22
0.0
 32
0.0
 13
1.0
 23
0.0
 33
0.0
 40
0.0
 40
0.0
 40
0.0
 40
0.0
 40
0.55981694559657
 40
1.0
 40
1.0
 40
1.0
 40
1.0
 10
173.2014497880663
 20
36.41338460381972
 30
0.0
 10
172.4702369543484
 20
36.25379290039827
 30
0.0
 10
171.1640727885982
 20
35.96871452848266
 30
0.0
 10
169.8567270826579
 20
35.68665203799061
 30
0.0
 10
169.2812556566559
 20
35.56249290939319
 30
0.0
  0
SPLINE
  5
1FD
330
1F
100
AcDbEntity
  8
0
  6
Continuous
 62
     7
370
    15
100
AcDbSpline
210
0.0
220
0.0
230
1.0
 70
     8
 71
     3
 72
    14
 73
    10
 74
     0
 42
0.00000001
 43
0.00000001
 12
1.0
 22
0.0
 32
0.0
 13
1.0
 23
0.0
 33
0.0
 40
0.0
 40
0.0
 40
0.0
 40
0.0
 40
0.1583178082984319
 40
0.3168035575928325
 40
0.4713479950156708
 40
0.6221019218238153
 40
0.7721421345624494
 40
0.9245522909787596
 40
1.0
 40
1.0
 40
1.0
 40
1.0
 10
173.1927647393968
 20
36.53758764501559
 30
0.0
 10
173.1935521997935
 20
36.52632591363686
 30
0.0
 10
173.1951279559124
 20
36.50379050461508
 30
0.0
 10
173.1975163062158
 20
36.46963244960609
 30
0.0
 10
173.1995492752502
 20
36.44056049107662
 30
0.0
 10
173.2010211508344
 20
36.41951601066292
 30
0.0
 10
173.2017949230674
 20
36.4084460703012
 30
0.0
 10
173.2018408399475
 20
36.40779547572298
 30
0.0
 10
173.2015470627986
 20
36.41199429996171
 30
0.0
 10
173.2014497880663
 20
36.41338460381972
 30
0.0
  0
SPLINE
  5
1FE
330
1F
100
AcDbEntity
  8
0
  6
Continuous
 62
     7
370
    15
100
AcDbSpline
210
0.0
220
0.0
230
1.0
 70
     8
 71
     3
 72
    14
 73
    10
 74
     0
 42
0.00000001
 43
0.00000001
 12
1.0
 22
0.0
 32
0.0
 13
1.0
 23
0.0
 33
0.0
 40
0.0
 40
0.0
 40
0.0
 40
0.0
 40
0.1588577027097098
 40
0.3173274731510662
 40
0.4720250400773675
 40
0.6236468238969946
 40
0.7746643277079129
 40
0.9277443433306383
 40
0.9999999999999999
 40
0.9999999999999999
 40
0.9999999999999999
 40
0.9999999999999999
 10
169.2812556566559
 20
35.56249290939319
 30
0.0
 10
169.2819205796795
 20
35.55298411257341
 30
0.0
 10
169.2832488019773
 20
35.53398973952091
 30
0.0
 10
169.2811208844584
 20
35.5644191259837
 30
0.0
 10
169.2761997391535
 20
35.63479551144233
 30
0.0
 10
169.2689024143841
 20
35.73915127002396
 30
0.0
 10
169.2601469751237
 20
35.86436104585542
 30
0.0
 10
169.2524247683138
 20
35.97479406719964
 30
0.0
 10
169.2480520573354
 20
36.03732590919704
 30
0.0
 10
169.2466499131478
 20
36.05737723644721
 30
0.0
  0
SPLINE
  5
1FF
330
1F
100
AcDbEntity
  8
0
  6
Continuous
 62
     7
370
    15
100
AcDbSpline
210
0.0
220
0.0
230
1.0
 70
     8
 71
     3
 72
    10
 73
     6
 74
     0
 42
0.00000001
 43
0.00000001
 12
1.0
 22
0.0
 32
0.0
 13
1.0
 23
0.0
 33
0.0
 40
0.0
 40
0.0
 40
0.0
 40
0.0
 40
0.2656392367675492
 40
0.6165230403351952
 40
1.0
 40
1.0
 40
1.0
 40
1.0
 10
172.5099646624948
 20
46.30208201941001
 30
0.0
 10
172.5101839952412
 20
46.29894602086319
 30
0.0
 10
172.5106930453849
 20
46.29166767078926
 30
0.0
 10
172.5122081716303
 20
46.26999816604875
 30
0.0
 10
172.5137045859191
 20
46.24859988289362
 30
0.0
 10
172.514486000764
 20
46.2374258809899
 30
0.0
  0
SPLINE
  5
200
330
1F
100
AcDbEntity
  8
0
  6
Continuous
 62
     7
370
    15
100
AcDbSpline
210
0.0
220
0.0
230
1.0
 70
     8
 71
     3
 72
    10
 73
     6
 74
     0
 42
0.00000001
 43
0.00000001
 12
1.0
 22
0.0
 32
0.0
 13
1.0
 23
0.0
 33
0.0
 40
0.0
 40
0.0
 40
0.0
 40
0.0
 40
0.3518062201375187
 40
0.7034350023212061
 40
1.0
 40
1.0
 40
1.0
 40
1.0
 10
168.5373619453821
 20
46.20066844161498
 30
0.0
 10
168.5344897932477
 20
46.24174215181592
 30
0.0
 10
168.5287469375855
 20
46.32386885616823
 30
0.0
 10
168.5224645130113
 20
46.41371093848861
 30
0.0
 10
168.5202778972597
 20
46.44498070208624
 30
0.0
 10
168.5192774654205
 20
46.45928740735995
 30
0.0
  0
LINE
  5
201
330
1F
100
AcDbEntity
  8
0
  6
Continuous
 62
     7
370
    15
100
AcDbLine
 10
168.5979228838
 20
49.63528272
 30
0.0
 11
168.2956397905
 21
49.6574547165
 31
0.0
  0
LINE
  5
202
330
1F
100
AcDbEntity
  8
0
  6
Continuous
 62
     7
370
    15
100
AcDbLine
 10
172.5099646625
 20
46.3020820194
 30
0.0
 11
172.5084878177
 21
46.3232025528
 31
0.0
  0
LINE
  5
203
330
1F
100
AcDbEntity
  8
0
  6
Continuous
 62
     7
370
    15
100
AcDbLine
 10
168.5192774654
 20
46.4592874074
 30
0.0
 11
168.2956397905
 21
49.6574547165
 31
0.0
  0
LINE
  5
204
330
1F
100
AcDbEntity
  8
0
  6
Continuous
 62
     7
370
    15
100
AcDbLine
 10
168.5373619454
 20
46.2006684416
 30
0.0
 11
168.5192774654
 21
46.4592874074
 31
0.0
  0
LINE
  5
205
330
1F
100
AcDbEntity
  8
VERMASSUNG
  6
CENTERX2
100
AcDbLine
 10
169.282364766
 20
35.5466313237
 30
0.0
 11
169.282364766
 21
87.82505977
 31
0.0
  0
CIRCLE
  5
206
330
1F
100
AcDbEntity
  8
VERMASSUNG
  6
CENTERX2
100
AcDbCircle
 10
169.282364766
 20
60.5466313237
 30
0.0
 40
25.0
  0
DIMENSION
  5
207
330
1F
100
AcDbEntity
  8
VERMASSUNG
100
AcDbDimension
  2
_D_6
 10
153.7785101733
 20
40.9346326298
 30
0.0
 11
144.9665494057
 21
29.7877167431
 31
0.0
 70
   160
  1
%%c<> min. 
 71
     2
 42
-1.0
  3
SLDDIMSTYLE2
100
AcDbAlignedDimension
 13
184.7862193587
 23
80.1586300175
 33
0.0
 14
153.7785101733
 24
40.9346326298
 34
0.0
 50
51.672605341
100
AcDbRotatedDimension
  0
DIMENSION
  5
216
330
1F
100
AcDbEntity
  8
VERMASSUNG
100
AcDbDimension
  2
_D_7
 10
169.282364766
 20
28.5466313237
 30
0.0
 11
156.2456603012
 21
99.8284121851
 31
0.0
 70
   162
  1
<>
 71
     1
 42
-1.0
  3
SLDDIMSTYLE3
100
AcDb2LineAngularDimension
 13
166.2770615392
 23
82.8251458776
 33
0.0
 14
168.822369479
 24
46.4255465104
 34
0.0
 15
169.282364766
 25
96.5466313237
 35
0.0
 16
167.1401812954
 26
101.1914158751
 36
0.0
  0
INSERT
  5
22E
330
1F
100
AcDbEntity
  8
VERMASSUNG
100
AcDbBlockReference
  2
SW_CENTERMARKSYMBOL_0
 10
169.282364766
 20
62.5466313237
 30
0.0
  0
OLE2FRAME
  5
22F
330
1F
100
AcDbEntity
  8
0
100
AcDbOle2Frame
 70
     2
  3
Paintbrush-Bild
 10
13.8511154363
 20
38.264191557
 30
0.0
 11
51.6290888628
 21
31.9806341108
 31
0.0
 71
     2
 72
     0
 73
     1
 90
    12928
310
80552BED0767C5B32B40DDAF6807D121434000000000000000006FFBDDFB85D0
310
4940DDAF6807D121434000000000000000006FFBDDFB85D04940416F4BD60AFB
310
3F4000000000000000002BED0767C5B32B40416F4BD60AFB3F40000000000000
310
0000000000000100000000010000010000000100000000000100000000320000
310
D0CF11E0A1B11AE1000000000000000000000000000000003E000300FEFF0900
310
0600000000000000000000000100000001000000000000000010000002000000
310
01000000FEFFFFFF0000000000000000FFFFFFFFFFFFFFFFFFFFFFFFFFFFFFFF
310
FFFFFFFFFFFFFFFFFFFFFFFFFFFFFFFFFFFFFFFFFFFFFFFFFFFFFFFFFFFFFFFF
310
FFFFFFFFFFFFFFFFFFFFFFFFFFFFFFFFFFFFFFFFFFFFFFFFFFFFFFFFFFFFFFFF
310
FFFFFFFFFFFFFFFFFFFFFFFFFFFFFFFFFFFFFFFFFFFFFFFFFFFFFFFFFFFFFFFF
310
FFFFFFFFFFFFFFFFFFFFFFFFFFFFFFFFFFFFFFFFFFFFFFFFFFFFFFFFFFFFFFFF
310
FFFFFFFFFFFFFFFFFFFFFFFFFFFFFFFFFFFFFFFFFFFFFFFFFFFFFFFFFFFFFFFF
310
FFFFFFFFFFFFFFFFFFFFFFFFFFFFFFFFFFFFFFFFFFFFFFFFFFFFFFFFFFFFFFFF
310
FFFFFFFFFFFFFFFFFFFFFFFFFFFFFFFFFFFFFFFFFFFFFFFFFFFFFFFFFFFFFFFF
310
FFFFFFFFFFFFFFFFFFFFFFFFFFFFFFFFFFFFFFFFFFFFFFFFFFFFFFFFFFFFFFFF
310
FFFFFFFFFFFFFFFFFFFFFFFFFFFFFFFFFFFFFFFFFFFFFFFFFFFFFFFFFFFFFFFF
310
FFFFFFFFFFFFFFFFFFFFFFFFFFFFFFFFFFFFFFFFFFFFFFFFFFFFFFFFFFFFFFFF
310
FFFFFFFFFFFFFFFFFFFFFFFFFFFFFFFFFFFFFFFFFFFFFFFFFFFFFFFFFFFFFFFF
310
FFFFFFFFFFFFFFFFFFFFFFFFFFFFFFFFFFFFFFFFFFFFFFFFFFFFFFFFFFFFFFFF
310
FFFFFFFFFFFFFFFFFFFFFFFFFFFFFFFFFFFFFFFFFFFFFFFFFFFFFFFFFFFFFFFF
310
FDFFFFFFFEFFFFFFFEFFFFFFFEFFFFFF05000000060000000700000008000000
310
090000000A0000000B0000000C0000000D0000000E0000000F00000010000000
310
11000000120000001300000014000000150000001600000017000000FEFFFFFF
310
FFFFFFFFFFFFFFFFFFFFFFFFFFFFFFFFFFFFFFFFFFFFFFFFFFFFFFFFFFFFFFFF
310
FFFFFFFFFFFFFFFFFFFFFFFFFFFFFFFFFFFFFFFFFFFFFFFFFFFFFFFFFFFFFFFF
310
FFFFFFFFFFFFFFFFFFFFFFFFFFFFFFFFFFFFFFFFFFFFFFFFFFFFFFFFFFFFFFFF
310
FFFFFFFFFFFFFFFFFFFFFFFFFFFFFFFFFFFFFFFFFFFFFFFFFFFFFFFFFFFFFFFF
310
FFFFFFFFFFFFFFFFFFFFFFFFFFFFFFFFFFFFFFFFFFFFFFFFFFFFFFFFFFFFFFFF
310
FFFFFFFFFFFFFFFFFFFFFFFFFFFFFFFFFFFFFFFFFFFFFFFFFFFFFFFFFFFFFFFF
310
FFFFFFFFFFFFFFFFFFFFFFFFFFFFFFFFFFFFFFFFFFFFFFFFFFFFFFFFFFFFFFFF
310
FFFFFFFFFFFFFFFFFFFFFFFFFFFFFFFFFFFFFFFFFFFFFFFFFFFFFFFFFFFFFFFF
310
FFFFFFFFFFFFFFFFFFFFFFFFFFFFFFFFFFFFFFFFFFFFFFFFFFFFFFFFFFFFFFFF
310
FFFFFFFFFFFFFFFFFFFFFFFFFFFFFFFFFFFFFFFFFFFFFFFFFFFFFFFFFFFFFFFF
310
FFFFFFFFFFFFFFFFFFFFFFFFFFFFFFFFFFFFFFFFFFFFFFFFFFFFFFFFFFFFFFFF
310
FFFFFFFFFFFFFFFFFFFFFFFFFFFFFFFFFFFFFFFFFFFFFFFFFFFFFFFFFFFFFFFF
310
FFFFFFFFFFFFFFFFFFFFFFFFFFFFFFFFFFFFFFFFFFFFFFFFFFFFFFFFFFFFFFFF
310
52006F006F007400200045006E00740072007900000000000000000000000000
310
0000000000000000000000000000000000000000000000000000000000000000
310
16000500FFFFFFFFFFFFFFFF020000000A00030000000000C000000000000046
310
00000000000000000000000030AD65AEB944CD0103000000C000000000000000
310
01004F006C006500000000000000000000000000000000000000000000000000
310
0000000000000000000000000000000000000000000000000000000000000000
310
0A000200FFFFFFFFFFFFFFFFFFFFFFFF00000000000000000000000000000000
310
0000000000000000000000000000000000000000000000001400000000000000
310
010043006F006D0070004F0062006A0000000000000000000000000000000000
310
0000000000000000000000000000000000000000000000000000000000000000
310
120002010100000003000000FFFFFFFF00000000000000000000000000000000
310
0000000000000000000000000000000000000000010000004D00000000000000
310
01004F006C006500310030004E00610074006900760065000000000000000000
310
0000000000000000000000000000000000000000000000000000000000000000
310
1A000200FFFFFFFFFFFFFFFFFFFFFFFF00000000000000000000000000000000
310
0000000000000000000000000000000000000000040000002426000000000000
310
FEFFFFFF02000000FEFFFFFFFFFFFFFFFFFFFFFFFFFFFFFFFFFFFFFFFFFFFFFF
310
FFFFFFFFFFFFFFFFFFFFFFFFFFFFFFFFFFFFFFFFFFFFFFFFFFFFFFFFFFFFFFFF
310
FFFFFFFFFFFFFFFFFFFFFFFFFFFFFFFFFFFFFFFFFFFFFFFFFFFFFFFFFFFFFFFF
310
FFFFFFFFFFFFFFFFFFFFFFFFFFFFFFFFFFFFFFFFFFFFFFFFFFFFFFFFFFFFFFFF
310
FFFFFFFFFFFFFFFFFFFFFFFFFFFFFFFFFFFFFFFFFFFFFFFFFFFFFFFFFFFFFFFF
310
FFFFFFFFFFFFFFFFFFFFFFFFFFFFFFFFFFFFFFFFFFFFFFFFFFFFFFFFFFFFFFFF
310
FFFFFFFFFFFFFFFFFFFFFFFFFFFFFFFFFFFFFFFFFFFFFFFFFFFFFFFFFFFFFFFF
310
FFFFFFFFFFFFFFFFFFFFFFFFFFFFFFFFFFFFFFFFFFFFFFFFFFFFFFFFFFFFFFFF
310
FFFFFFFFFFFFFFFFFFFFFFFFFFFFFFFFFFFFFFFFFFFFFFFFFFFFFFFFFFFFFFFF
310
FFFFFFFFFFFFFFFFFFFFFFFFFFFFFFFFFFFFFFFFFFFFFFFFFFFFFFFFFFFFFFFF
310
FFFFFFFFFFFFFFFFFFFFFFFFFFFFFFFFFFFFFFFFFFFFFFFFFFFFFFFFFFFFFFFF
310
FFFFFFFFFFFFFFFFFFFFFFFFFFFFFFFFFFFFFFFFFFFFFFFFFFFFFFFFFFFFFFFF
310
FFFFFFFFFFFFFFFFFFFFFFFFFFFFFFFFFFFFFFFFFFFFFFFFFFFFFFFFFFFFFFFF
310
FFFFFFFFFFFFFFFFFFFFFFFFFFFFFFFFFFFFFFFFFFFFFFFFFFFFFFFFFFFFFFFF
310
FFFFFFFFFFFFFFFFFFFFFFFFFFFFFFFFFFFFFFFFFFFFFFFFFFFFFFFFFFFFFFFF
310
FFFFFFFFFFFFFFFFFFFFFFFFFFFFFFFFFFFFFFFFFFFFFFFFFFFFFFFFFFFFFFFF
310
0100000200000000000000000000000000000000000000000000000000000000
310
0000000000000000000000000000000000000000000000000000000000000000
310
0100FEFF030A0000FFFFFFFF0A00030000000000C00000000000004607000000
310
5042727573680007000000504272757368000700000050427275736800F439B2
310
7100000000000000000000000000000000000000000000000000000000000000
310
0000000000000000000000000000000000000000000000000000000000000000
310
0000000000000000000000000000000000000000000000000000000000000000
310
0000000000000000000000000000000000000000000000000000000000000000
310
0000000000000000000000000000000000000000000000000000000000000000
310
0000000000000000000000000000000000000000000000000000000000000000
310
0000000000000000000000000000000000000000000000000000000000000000
310
0000000000000000000000000000000000000000000000000000000000000000
310
0000000000000000000000000000000000000000000000000000000000000000
310
0000000000000000000000000000000000000000000000000000000000000000
310
0000000000000000000000000000000000000000000000000000000000000000
310
0000000000000000000000000000000000000000000000000000000000000000
310
20260000424D0E260000000000003E00000028000000B40200006E0000000100
310
01000000000000000000130B0000130B00000200000002000000000000FFFFFF
310
FFFFFFFFFFFFFFFFFFFFFFFFFFFFFFFFFFFFFFFFFFFFFFFFFFFFFFFFFFFFFFFF
310
FFFFFFFFFFFFFFFFFFFFFFFFFFFFFFFFFFFFFFFFFFFFFFFFFFFFFFFFFFFFFFFF
310
FFFFFFFFFFFFFFFFFFFFFFFFFFFFFFFFFFFFFFFFFFFFFFFFF000FFFFFFFFFFFF
310
FFFFFFFFFFFFFFFFFFFFFFFFFFFFFFFFFFFFFFFFFFFFFFFFFFFFFFFFFFFFFFFF
310
FFFFFFFFFFFFFFFFFFFFFFFFFFFFFFFFFFFFFFFFFFFFFFFFFFFFFFFFFFFFFFFF
310
FFFFFFFFFFFFFFFFFFFFFFFFFFFFFFFFF000FFFFFFFFFFFFFFFFFFFFFFFFFFFF
310
FFFFFFFFFFFFFFFFFFFFFFFFFFFFFFFFFFFFFFFFFFFFFFFFFFFFFFFFFFFFFFFF
310
FFFFFFFFFFFFFFFFFFFFFFFFFFFFFFFFFFFFFFFFFFFFFFFFFFFFFFFFFFFFFFFF
310
FFFFFFFFFFFFFFFFF000FFFFFFFFFFFFFFFFFFFFFFFFFFFFFFFFFFFFFFFFFFFF
310
FFFFFFFFFFFFFFFFFFFFFFFFFFFFFFFFFFFFFFFFFFFFFFFFFFFFFFFFFFFFFFFF
310
FFFFFFFFFFFFFFFFFFFFFFFFFFFFFFFFFFFFFFFFFFFFFFFFFFFFFFFFFFFFFFFF
310
F000FFFFFFFFFFFFFFFFFFFFFFFFFFFFFFFFFFFFFFFFFFFFFFFFFFFFFFFFFFFF
310
FFFFFFFFFFFFFFFFFFFFFFFFFFFFFFFFFFFFFFFFFFFFFFFFFFFFFFFFFFFFFFFF
310
FFFFFFFFFFFFFFFFFFFFFFFFFFFFFFFFFFFFFFFFFFFFFFFFF000FFFFFFFFFFFF
310
FFFFFFFFFFFFFFFFFFFFFFFFFFFFFFFFFFFFFFFFFFFFFFFFFFFFFFFFFFFFFFFF
310
FFFFFFFFFFFFFFFFFFFFFFFFFFFFFFFFFFFFFFFFFFFFFFFFFFFFFFFFFFFFFFFF
310
FFFFFFFFFFFFFFFFFFFFFFFFFFFFFFFFF000FFFFFFFFFFFFFFFFFFFFFFFFFFFF
310
FFFFFFFFFFFFFFFFFFFFFFFFFFFFFFFFFFFFFFFFFFFFFFFFFFFFFFFFFFFFFFFF
310
FFFFFFFFFFFFFFFFFFFFFFFFFFFFFFFFFFFFFFFFFFFFFFFFFFFFFFFFFFFFFFFF
310
FFFFFFFFFFFFFFFFF000FFFFFFFFFFFFFFFFFFFFFFFFFFFFFFFFFFFFFFFFFFFF
310
FFFFFFFFFFFFFFFFFFFFFFFFFFFFFFFFFFFFFFFFFFFFFFFFFFFFFFFFFFFFFFFF
310
FFFFFFFFFFFFFFFFFFFFFFFFFFFFFFFFFFFFFFFFFFFFFFFFFFFFFFFFFFFFFFFF
310
F000FFFFFFFFFFFFFFFFFFFFFFFFFFFFFFFFFFFFFFFFFFFFFFFFFFFFFFFFFFFF
310
FFFFFFFFFFFFFFFFFFFFFFFFFFFFFFFFFFFFFFFFFFFFFFFFFFFFFFFFFFFFFFFF
310
FFFFFFFFFFFFFFFFFFFFFFFFFFFFFFFFFFFFFFFFFFFFFFFFF000FFFFFFFFFFFF
310
FFFFFFFFFFFFFFFFFFFFFFFFFFFFFFFFFFFFFFFFFFFFFFFFFFFFFFFFFFFFFFFF
310
FFFFFFFFFFFFFFFFFFFFFFFFFFFFFFFFFFFFFFFFFFFFFFFFFFFFFFFFFFFFFFFF
310
FFFFFFFFFFFFFFFFFFFFFFFFFFFFFFFFF000FFFFFFFFFFFFFFFFFFFFFFFFFFFF
310
FFFFFFFFFFFFFFFFFFFFFFFFFFFFFFFFFFFFFFFFFFFFFFFFFFFFFFFFFFFFFFFF
310
FFFFFFFFFFFFFFFFFFFFFFFFFFFFFFFFFFFFFFFFFFFFFFFFFFFFFFFFFFFFFFFF
310
FFFFFFFFFFFFFFFFF000FFFFFFFFFFFFFFFFFFFFFFFFFFFFFFFFFFFFFFFFFFFF
310
FFFFFFFFFFFFFFFFFFFFFFFFFFFFFFFFFFFFFFFFFFFFFFFFFFFFFFFFFFFFFFFF
310
FFFFFFFFFFFFFFFFFFFFFFFFFFFFFFFFFFFFFFFFFFFFFFFFFFFFFFFFFFFFFFFF
310
F000FFFFFFFFFFFFFFFFFFFFFFFFFFFFFFFFFFFFFFFFFFFFFFFFFFFFFFFFFFFF
310
FFFFFFFFFFFFFFFFFFFFFFFFFFFFFFFFFFFFFFFFFFFFFFFFFFFFFFFFFFFFFFFF
310
FFFFFFFFFFFFFFFFFFFFFFFFFFFFFFFFFFFFFFFFFFFFFFFFF000FFFFFFFFFFFF
310
FFFFFFFFFFFFFFFFFFFFFFFFFFFFFFFFFFFFFFFFFFFFFFFFFFFFFFFFFFFFFFFF
310
FFFFFFFFFFFFFFFFFFFFFFFFFFFFFFFFFFFFFFFFFFFFFFFFFFFFFFFFFFFFFFFF
310
FFFFFFFFFFFFFFFFFFFFFFFFFFFFFFFFF000FFFFFFFFFFFFFFFFFFFFFFFFFFFF
310
FFFFFFFFFFFFFFFFFFFFFFFFFFFFFFFFFFFFFFFFFFFFFFFFFFFFFFFFFFFFFFFF
310
FFFFFFFFFFFFFFFFFFFFFFFFFFFFFFFFFFFFFFFFFFFFFFFFFFFFFFFFFFFFFFFF
310
FFFFFFFFFFFFFFFFF000FFFFFFFFFFFFFFFFFFFFFFFFFFFFFFFFFFFFFFFFFFFF
310
FFFFFFFFFFFFFFFFFFFFFFFFFFFFFFFFFFFFFFFFFFFFFFFFFFFFFFFFFFFFFFFF
310
FFFFFFFFFFFFFFFFFFFFFFFFFFFFFFFFFFFFFFFFFFFFFFFFFFFFFFFFFFFFFFFF
310
F000FFFFFFFFFFFFFFFFFFFFFFFFFFFFFFFFFFFFFFFFFFFFFFFFFFFFFFFFFFFF
310
FFFFFFFFFFFFFFFFFFFFFFFFFFFFFFFFFFFFFFFFFFFFFFFFFFFFFFFFFFFFFFFF
310
FFFFFFFFFFFFFFFFFFFFFFFFFFFFFFFFFFFFFFFFFFFFFFFFF000FFFFFFFFFFFF
310
FFFFFFFFFFFFFFFFFFFFFFFFFFFFFFFFFFFFFFFFFFFFFFFFFFFFFFFFFFFFFFFF
310
FFFFFFFFFFFFFFFFFFFFFFFFFFFFFFFFFFFFFFFFFFFFFFFFFFFFFFFFFFFFFFFF
310
FFFFFFFFFFFFFFFFFFFFFFFFFFFFFFFFF000FFFFFFFFFFFFFFFFFFFFFFFFFFFF
310
FFFFFFFFFFFFFFFFFFFFFFFFFFFFFFFFFFFFFFFFFFFFFFFFFFFFFFFFFFFFFFFF
310
FFFFFFFFFFFFFFFFFFFFFFFFFFFFFFFFFFFFFFFFFFFFFFFFFFFFFFFFFFFFFFFF
310
FFFFFFFFFFFFFFFFF000FFFFF80003FFFFFFFFFFFFFFFFFFFFFFFFFFFFFFFFFF
310
FFFFF00007FFFFFFFFFF00007FFFFFF800000000000000007FFFFFFFFFFFFFFF
310
FFFFFFFC001FFFFFFFFFFFFFFC001FFFFFFFFFFFFFFFFFFFFFFFFFFE0007FFFF
310
F000FFFF8000007FFFFFFFF8000FFFFFC0007FFFFF80007FFFFF0000007FFFFF
310
FFF8000007FFFFF800000000000000007FFFFFF0001FFFFFFFFFFFC00001FFFF
310
FFFFFFFFC00001FFFFFFFF000000000003FFFFE000007FFFF000FFFE0000000F
310
FFFFFFF0000FFFFF80007FFFFF80007FFFFC0000001FFFFFFFC0000001FFFFF8
310
00000000000000007FFFFFF0001FFFFFFFFFFE0000003FFFFFFFFFFE0000003F
310
FFFFFF000000000003FFFF0000000FFFF000FFF800000003FFFFFFF00007FFFF
310
80007FFFFF80007FFFF000000007FFFFFF000000003FFFF80000000000000000
310
7FFFFFF0001FFFFFFFFFF80000000FFFFFFFFFF80000000FFFFFFF0000000000
310
03FFFC00000003FFF000FFE000000000FFFFFFF00007FFFF80003FFFFF80007F
310
FFC000000001FFFFFC000000001FFFF800000000000000007FFFFFF0001FFFFF
310
FFFFE000000003FFFFFFFFE000000003FFFFFF000000000003FFF000000000FF
310
F000FF80000000007FFFFFF00007FFFF80003FFFFF80007FFF8000000000FFFF
310
F80000000007FFF800000000000000007FFFFFF0001FFFFFFFFFC000000001FF
310
FFFFFFC000000001FFFFFF000000000003FFC0000000007FF000FF0000000000
310
3FFFFFE00007FFFF00003FFFFF80007FFE00000000003FFFF00000000003FFF8
310
00000000000000007FFFFFF0001FFFFFFFFF8000000000FFFFFFFF8000000000
310
FFFFFF000000000003FF80000000003FF000FE00000000001FFFFFE00003FFFF
310
00003FFFFF80007FFC00000000001FFFE00000000001FFF8000001FFFE000000
310
7FFFFFF0001FFFFFFFFE00000000003FFFFFFE00000000003FFFFF0000000000
310
03FF00000000001FF000FC00000000000FFFFFE00003FFFF00001FFFFF80007F
310
F800000000001FFFC00000000000FFF8000001FFFE0000007FFFFFF0001FFFFF
310
FFFC00000000001FFFFFFC00000000001FFFFF000000000003FE00000000000F
310
F000F8000000000007FFFFE00003FFFF00001FFFFF80007FF800000000000FFF
310
800000000000FFF8000001FFFE0000007FFFFFF0001FFFFFFFF800000000000F
310
FFFFF800000000000FFFFF000000000003FC000000000007F000F80000000000
310
03FFFFC00003FFFE00001FFFFF80007FF0000000000007FF0000000000007FF8
310
000001FFFE0000007FFFFFF0001FFFFFFFF0000000000007FFFFF00000000000
310
07FFFF000000000003F8000000000003F000F0000000000003FFFFC00001FFFE
310
00001FFFFF80007FE0000000000007FE0000000000003FF8000001FFFE000000
310
7FFFFFF0001FFFFFFFF0000000000007FFFFF0000000000007FFFF0000000000
310
03F800001F800003F000E00001FFF00001FFFFC00001FFFE00000FFFFF80007F
310
E00001FFE00003FE00001FFF00003FF8000001FFFE0000007FFFFFF0001FFFFF
310
FFE000003E000003FFFFE000003E000003FFFF000000000003F00001FFF80001
310
F000E00007FFFC0001FFFFC00001FFFE00000FFFFF80007FC0000FFFFC0003FC
310
0000FFFFC0001FF8000001FFFE0000007FFFFFF0001FFFFFFFC00003FFE00001
310
FFFFC00003FFE00001FFFF0001FFFFFFFFF00007FFFE0001F000E0000FFFFF00
310
00FFFF800001FFFC00000FFFFF80007FC0001FFFFE0001FC0001FFFFE0001FF8
310
000001FFFE0000007FFFFFF0001FFFFFFF80000FFFF80000FFFF80000FFFF800
310
00FFFF0003FFFFFFFFE0000FFFFF8000F000C0003FFFFF8000FFFF800000FFFC
310
000007FFFF80007F80003FFFFF0001FC0003FFFFF0001FF8000001FFFE000000
310
7FFFFFF0001FFFFFFF80003FFFFE0000FFFF80003FFFFE0000FFFF0003FFFFFF
310
FFE0003FFFFF8000F000C0003FFFFF8000FFFF800000FFFC000007FFFF80007F
310
80007FFFFF8001F80007FFFFF8000FF8000001FFFE0000007FFFFFF0001FFFFF
310
FF00007FFFFF00007FFF00007FFFFF00007FFF0003FFFFFFFFE0003FFFFFC000
310
F000C0007FFFFFC000FFFF000000FFFC000007FFFF80007F8000FFFFFF8000F8
310
000FFFFFF8000FF8000001FFFE0000007FFFFFF0001FFFFFFF0000FFFFFF8000
310
7FFF0000FFFFFF80007FFF0003FFFFFFFFC0007FFFFFC00070008000FFFFFFC0
310
00FFFF000000FFF8000007FFFF80007F8000FFFFFF8000F8000FFFFFF8000FF8
310
000001FFFE0000007FFFFFF0001FFFFFFE0001FFFFFFC0003FFE0001FFFFFFC0
310
003FFF0003FFFFFFFFC0007FFFFFE00070008000FFFFFFC0007FFF0000007FF8
310
000003FFFF80007F0001FFFFFF8000F8000FFFFFF8000FF8000001FFFE000000
310
7FFFFFF0001FFFFFFE0001FFFFFFC0003FFE0001FFFFFFC0003FFF0003FFFFFF
310
FFC000FFFFFFE00070008000FFFFFFC0007FFF0000007FF8000003FFFF80007F
310
0001FFFFFF8000F8001FFFFFF8000FF8000001FFFE0000007FFFFFF0001FFFFF
310
FE0003FFFFFFE0003FFE0003FFFFFFE0003FFF0003FFFFFFFFC000FFFFFFE000
310
70008000FFFFFFC0007FFE0000007FF8000003FFFF80007F0001FFFFFF8000F0
310
001FFFFFF8000FF8000001FFFE0000007FFFFFF0001FFFFFFC0003FFFFFFE000
310
1FFC0003FFFFFFE0001FFF0003FFFFFFFFC000FFFFFFC00070008000FFFFFF80
310
007FFE0000007FF0000003FFFF80007F0001FFFFFF0000F0001FFFFFF8000FF8
310
000001FFFE0000007FFFFFF0001FFFFFFC0007FFFFFFF0001FFC0007FFFFFFF0
310
001FFF0003FFFFFFFFC000FFFFFFC00070008001FFFFFF0000FFFE0000003FF0
310
000001FFFF80007F0001FFFFFF0000F8001FFFFFF0000FF8000001FFFE000000
310
7FFFFFF0001FFFFFFC0007FFFFFFF0001FFC0007FFFFFFF0001FFF0003FFFFFF
310
FFC001FFFFFF80007000FFFFFFFFFE0000FFFE0008003FF0008001FFFF80007F
310
FFFFFFFFFC0000FFFFFFFFFFE0000FF8000001FFFE0000007FFFFFF0001FFFFF
310
F8000FFFFFFFF8000FF8000FFFFFFFF8000FFF0003FFFFFFFFFFFFFFFFFF0000
310
7000FFFFFFFFFC0000FFFC0008003FF0008001FFFF80007FFFFFFFFFF80001FF
310
FFFFFFFF80000FF8000001FFFE0000007FFFFFF0001FFFFFF8000FFFFFFFF800
310
0FF8000FFFFFFFF8000FFF0003FFFFFFFFFFFFFFFFFE0000F000FFFFFFFFE000
310
00FFFC000C003FE000C001FFFF80007FFFFFFFFFC00001FFFFFFFFFE00001FF8
310
000001FFFE0000007FFFFFF0001FFFFFF8000FFFFFFFF8000FF8000FFFFFFFF8
310
000FFF0003FFFFFFFFFFFFFFFFF00000F000FFFFFFFE000001FFFC000C001FE0
310
00C000FFFF80007FFFFFFFFE000001FFFFFFFFE000001FF80FFFFFFFFFFFFFC0
310
7FFFFFF0001FFFFFF8000FFFFFFFF8000FF8000FFFFFFFF8000FFF0003FFFFFF
310
FFFFFFFFFF800000F000FFFFFFC0000001FFFC001C001FE001C000FFFF80007F
310
FFFFFF80000003FFFFFFF80000001FF80FFFFFFFFFFFFFC07FFFFFF0001FFFFF
310
F8001FFFFFFFFC000FF8001FFFFFFFFC000FFF0003FFFFFFFFFFFFFFF0000001
310
F000FFFFF800000001FFF8001C001FE001C000FFFF80007FFFFFF800000003FF
310
FFFF800000003FF80FFFFFFFFFFFFFC07FFFFFF0001FFFFFF8001FFFFFFFFC00
310
0FF8001FFFFFFFFC000FFF0003FFFFFFFFFFFFFE00000001F000FFFFC0000000
310
03FFF8001E001FC001E000FFFF80007FFFFF8000000007FFFFFC000000003FF8
310
0FFFFFFFFFFFFFC07FFFFFF0001FFFFFF8001FFFFFFFFC000FF8001FFFFFFFFC
310
000FFF0003FFFFFFFFFFFFE000000003F000FFFE0000000007FFF8001E000FC0
310
01E0007FFF80007FFFFE0000000007FFFFE0000000007FF80FFFFFFFFFFFFFC0
310
7FFFFFF0001FFFFFF0001FFFFFFFFC0007F0001FFFFFFFFC0007FF0003FFFFFF
310
FFFFFF0000000003F000FFF80000000007FFF8001E000FC003E0007FFF80007F
310
FFF0000000000FFFFF8000000000FFF80FFFFFFFFFFFFFC07FFFFFF0001FFFFF
310
F0001FFFFFFFFC0007F0001FFFFFFFFC0007FF0003FFFFFFFFFFFC0000000007
310
F000FFE0000000000FFFF0003E000FC003E0007FFF80007FFFC0000000001FFF
310
FE0000000001FFF80FFFFFFFFFFFFFC07FFFFFF0001FFFFFF0001FFFFFFFFC00
310
07F0001FFFFFFFFC0007FF0003FFFFFFFFFFF0000000000FF000FFC000000000
310
1FFFF0003F000F8003F0003FFF80007FFF80000000003FFFF80000000003FFF8
310
0FFFFFFFFFFFFFC07FFFFFF0001FFFFFF0001FFFFFFFFC0007F0001FFFFFFFFC
310
0007FF0003FFFFFFFFFFE0000000001FF000FF00000000007FFFF0003F000780
310
03F0003FFF80007FFF00000000007FFFF00000000007FFF80FFFFFFFFFFFFFC0
310
7FFFFFF0001FFFFFF0001FFFFFFFFC0007F0001FFFFFFFFC0007FF0003FFFFFF
310
FFFF80000000007FF000FE0000000000FFFFE0003F00078007F0003FFF80007F
310
FE0000000001FFFFE0000000001FFFF80FFFFFFFFFFFFFC07FFFFFF0001FFFFF
310
F0001FFFFFFFFC0007F0001FFFFFFFFC0007FF0003FFFFFFFFFF0000000000FF
310
F000FC0000000003FFFFE0007F00078007F0003FFF80007FFC0000000007FFFF
310
C0000000007FFFF80FFFFFFFFFFFFFC07FFFFFF0001FFFFFF8001FFFFFFFFC00
310
0FF8001FFFFFFFFC000FFF0003FFFFFFFFFE0000000003FFF000FC000000000F
310
FFFFE0007F80070007F8001FFF80007FF8000000001FFFFF8000000001FFFFF8
310
0FFFFFFFFFFFFFC07FFFFFF0001FFFFFF8001FFFFFFFFC000FF8001FFFFFFFFC
310
000FFF0003FFFFFFFFFC000000000FFFF000F8000000007FFFFFE0007F800700
310
07F8001FFF80007FF000000000FFFFFF800000000FFFFFF80FFFFFFFFFFFFFC0
310
7FFFFFF0001FFFFFF8000FFFFFFFF8000FF8000FFFFFFFF8000FFF0003FFFFFF
310
FFFC000000007FFFF000F800000007FFFFFFC0007F8003000FF8001FFF80007F
310
F000000007FFFFFF000000007FFFFFF80FFFFFFFFFFFFFC07FFFFFF0001FFFFF
310
F8000FFFFFFFF8000FF8000FFFFFFFF8000FFF0003FFFFFFFFF80000000FFFFF
310
F000F0000000FFFFFFFFC000FF8003000FF8001FFF80007FE0000000FFFFFFFF
310
0000000FFFFFFFF8000001FFFE0000007FFFFFF0001FFFFFF8000FFFFFFFF800
310
0FF8000FFFFFFFF8000FFF0003FFFFFFFFF8000000FFFFFFF000F000000FFFFF
310
FFFFC000FFC002000FF8000FFF80007FE000001FFFFFFFFE000001FFFFFFFFF8
310
000001FFFE0000007FFFFFF0001FFFFFF8000FFFFFFFF8000FF8000FFFFFFFF8
310
000FFF0003FFFFFFFFF000001FFFFFFFF000E00000FFFFFFFFFFC000FFC00200
310
0FFC000FFF80007FE00001FFFFFFFFFE00001FFFFFFFFFF8000001FFFE000000
310
7FFFFFF0001FFFFFFC000FFFFFFFF8001FFC000FFFFFFFF8001FFF0003FFFFFF
310
FFF00001FFFFFFFFF000E00007FFFFFFFFFF8000FFC000001FFC000FFF80007F
310
C0000FFFFFFFFFFE0000FFFFFFFFFFF8000001FFFE0000007FFFFFF0001FFFFF
310
FC0007FFFFFFF0001FFC0007FFFFFFF0001FFF0003FFFFFFFFF00007FFFFFFFF
310
F000E0001FFFFFFFFFFF8000FFC000001FFC000FFF80007FC0003FFFFFFFFFFE
310
0001FFFFFFFFFFF8000001FFFE0000007FFFFFF0001FFFFFFC0007FFFFFFF000
310
1FFC0007FFFFFFF0001FFF0003FFFFFFFFF0001FFFFFFFFFF000E0003FFFFF00
310
03FF8001FFE000001FFC0007FF80007FC0007FFFFF0007FC0003FFFFF0003FF8
310
000001FFFE0000007FFFFFF0001FFFFFFC0003FFFFFFE0001FFC0003FFFFFFE0
310
001FFF0003FFFFFFFFF0003FFFFFFFFFF000E0003FFFFF0001FF8001FFE00000
310
1FFE0007FF80007FC0007FFFFE0003FC0007FFFFE0003FF8000001FFFE000000
310
7FFFFFF0001FFFFFFE0003FFFFFFE0003FFE0003FFFFFFE0003FFF0003FFFFFF
310
FFF0003FFFFF8001F000E0003FFFFF0001FF0001FFE000001FFE0007FF80007F
310
C0007FFFFE0003FC0007FFFFE0003FF8000001FFFE0000007FFFFFF0001FFFFF
310
FE0001FFFFFFC0003FFE0001FFFFFFC0003FFF0003FFFFFFFFF0003FFFFF0001
310
F000E0003FFFFF0003FF0001FFE000003FFE0007FF80007FC0007FFFFE0003FC
310
0007FFFFE0003FF8000001FFFE0000007FFFFFF0001FFFFFFF0001FFFFFFC000
310
7FFF0001FFFFFFC0007FFF0003FFFFFFFFF0003FFFFF0001F000E0003FFFFE00
310
03FF0003FFF000003FFE0003FF80007FC0007FFFFC0003FE0007FFFFE0003FF8
310
000001FFFE0000007FFFFFF0001FFFFFFF0000FFFFFF80007FFF0000FFFFFF80
310
007FFF0003FFFFFFFFF0003FFFFF0001F000E0003FFFFE0003FF0003FFF00000
310
3FFF0003FF80007FC0007FFFFC0007FE0007FFFFC0003FF8000001FFFE000000
310
7FFFFFF0001FFFFFFF80007FFFFF0000FFFF80007FFFFF0000FFFF0003FFFFFF
310
FFF0003FFFFF0003F000E0003FFFFC0003FE0003FFF000003FFF0003FF80007F
310
E0003FFFF80007FE0003FFFFC0007FF8000001FFFE0000007FFFFFF0001FFFFF
310
FF80003FFFFE0000FFFF80003FFFFE0000FFFF0003FFFFFFFFF0001FFFFE0003
310
F000F0001FFFF80003FE0003FFF000007FFF0001FF80007FE0003FFFF00007FE
310
0001FFFF80007FF8000001FFFE0000007FFFFFF0001FFFFFFFC0000FFFF80001
310
FFFFC0000FFFF80001FFFF0003FFFFFFFFF0001FFFFC0003F000F0000FFFF000
310
07FE0007FFF800007FFF0001FF80007FE0001FFFE00007FF0000FFFE00007FF8
310
000001FFFE0000007FFFFFF0001FFFFFFFC00003FFE00001FFFFC00003FFE000
310
01FFFF0003FFFFFFFFF8000FFFF80003F000F00003FFC00007FC0007FFF80000
310
7FFF8001FF80007FF00007FF80000FFF00007FF80000FFF8000001FFFE000000
310
7F80000000000001FFE000003E000003FFFFE000003E000003FFFF0003FFFFFF
310
FFF80003FFE00007F000F800000000000FFC0007FFF800007FFF8001FF80007F
310
F000000000000FFF000000000000FFF8000001FFFE0000007F80000000000001
310
FFF0000000000007FFFFF0000000000007FFFF0003FFFFFFFFFC00007E000007
310
F000F800000000000FFC0007FFF80000FFFF8000FF80007FF800000000001FFF
310
800000000001FFF8000001FFFE0000007F80000000000001FFF800000000000F
310
FFFFF800000000000FFFFF0003FFFFFFFFFC00000000000FF000FC0000000000
310
1FFC0007FFFC0000FFFF8000FF80007FF800000000003FFFC00000000001FFF8
310
000001FFFE0000007F80000000000001FFF800000000000FFFFFF80000000000
310
0FFFFF0003FFFFFFFFFE00000000001FF000FE00000000003FF8000FFFFC0000
310
FFFF8000FF80007FFC00000000003FFFC00000000003FFF8000001FFFE000000
310
7F80000000000001FFFC00000000001FFFFFFC00000000001FFFFF0003FFFFFF
310
FFFF00000000001FF000FF00000000003FF8000FFFFC0000FFFFC000FF80007F
310
FE00000000007FFFE00000000007FFF8000001FFFE0000007F80000000000001
310
FFFE00000000003FFFFFFE00000000003FFFFF0003FFFFFFFFFF80000000003F
310
F000FF80000000007FF8000FFFFC0001FFFFC0007F80007FFF0000000000FFFF
310
F0000000000FFFF800000000000000007F80000000000001FFFF8000000000FF
310
FFFFFF8000000000FFFFFF0003FFFFFFFFFFC0000000007FF000FFC000000000
310
FFF8000FFFFE0001FFFFC0007F80007FFF8000000001FFFFF8000000001FFFF8
310
00000000000000007F80000000000001FFFFC000000001FFFFFFFFC000000001
310
FFFFFF0003FFFFFFFFFFE000000000FFF000FFE000000003FFF0001FFFFE0001
310
FFFFC0007F80007FFFC000000007FFFFFE000000003FFFF80000000000000000
310
7F80000000000001FFFFE000000003FFFFFFFFE000000003FFFFFF0003FFFFFF
310
FFFFF000000003FFF000FFF80000000FFFF0001FFFFE0001FFFFE0007F80007F
310
FFF00000000FFFFFFF00000000FFFFF800000000000000007F80000000000001
310
FFFFF80000000FFFFFFFFFF80000000FFFFFFF0003FFFFFFFFFFFC0000000FFF
310
F000FFFE0000003FFFF0001FFFFE0003FFFFE0003F80007FFFFC0000003FFFFF
310
FFC0000003FFFFF800000000000000007F80000000000001FFFFFE0000003FFF
310
FFFFFFFE0000003FFFFFFF0003FFFFFFFFFFFF0000003FFFF000FFFF800000FF
310
FFF0001FFFFF0003FFFFE0003F80007FFFFF000001FFFFFFFFF800001FFFFFF8
310
00000000000000007F80000000000001FFFFFFC00001FFFFFFFFFFFFC00001FF
310
FFFFFF0003FFFFFFFFFFFFC00000FFFFF000FFFFF8000FFFFFFFFFFFFFFFFFFF
310
FFFFFFFFFFFFFFFFFFFFF0001FFFFFFFFFFF0000FFFFFFF80000000000000000
310
7FFFFFFFFFFFFFFFFFFFFFFC001FFFFFFFFFFFFFFC001FFFFFFFFFFFFFFFFFFF
310
FFFFFFFC001FFFFFF000FFFFFFFFFFFFFFFFFFFFFFFFFFFFFFFFFFFFFFFFFFFF
310
FFFFFFFFFFFFFFFFFFFFFFFFFFFFFFFFFFFFFFFFFFFFFFFFFFFFFFFFFFFFFFFF
310
FFFFFFFFFFFFFFFFFFFFFFFFFFFFFFFFFFFFFFFFFFFFFFFFFFFFFFFFFFFFFFFF
310
F000FFFFFFFFFFFFFFFFFFFFFFFFFFFFFFFFFFFFFFFFFFFFFFFFFFFFFFFFFFFF
310
FFFFFFFFFFFFFFFFFFFFFFFFFFFFFFFFFFFFFFFFFFFFFFFFFFFFFFFFFFFFFFFF
310
FFFFFFFFFFFFFFFFFFFFFFFFFFFFFFFFFFFFFFFFFFFFFFFFF000FFFFFFFFFFFF
310
FFFFFFFFFFFFFFFFFFFFFFFFFFFFFFFFFFFFFFFFFFFFFFFFFFFFFFFFFFFFFFFF
310
FFFFFFFFFFFFFFFFFFFFFFFFFFFFFFFFFFFFFFFFFFFFFFFFFFFFFFFFFFFFFFFF
310
FFFFFFFFFFFFFFFFFFFFFFFFFFFFFFFFF000FFFFFFFFFFFFFFFFFFFFFFFFFFFF
310
FFFFFFFFFFFFFFFFFFFFFFFFFFFFFFFFFFFFFFFFFFFFFFFFFFFFFFFFFFFFFFFF
310
FFFFFFFFFFFFFFFFFFFFFFFFFFFFFFFFFFFFFFFFFFFFFFFFFFFFFFFFFFFFFFFF
310
FFFFFFFFFFFFFFFFF000FFFFFFFFFFFFFFFFFFFFFFFFFFFFFFFFFFFFFFFFFFFF
310
FFFFFFFFFFFFFFFFFFFFFFFFFFFFFFFFFFFFFFFFFFFFFFFFFFFFFFFFFFFFFFFF
310
FFFFFFFFFFFFFFFFFFFFFFFFFFFFFFFFFFFFFFFFFFFFFFFFFFFFFFFFFFFFFFFF
310
F000FFFFFFFFFFFFFFFFFFFFFFFFFFFFFFFFFFFFFFFFFFFFFFFFFFFFFFFFFFFF
310
FFFFFFFFFFFFFFFFFFFFFFFFFFFFFFFFFFFFFFFFFFFFFFFFFFFFFFFFFFFFFFFF
310
FFFFFFFFFFFFFFFFFFFFFFFFFFFFFFFFFFFFFFFFFFFFFFFFF000FFFFFFFFFFFF
310
FFFFFFFFFFFFFFFFFFFFFFFFFFFFFFFFFFFFFFFFFFFFFFFFFFFFFFFFFFFFFFFF
310
FFFFFFFFFFFFFFFFFFFFFFFFFFFFFFFFFFFFFFFFFFFFFFFFFFFFFFFFFFFFFFFF
310
FFFFFFFFFFFFFFFFFFFFFFFFFFFFFFFFF000FFFFFFFFFFFFFFFFFFFFFFFFFFFF
310
FFFFFFFFFFFFFFFFFFFFFFFFFFFFFFFFFFFFFFFFFFFFFFFFFFFFFFFFFFFFFFFF
310
FFFFFFFFFFFFFFFFFFFFFFFFFFFFFFFFFFFFFFFFFFFFFFFFFFFFFFFFFFFFFFFF
310
FFFFFFFFFFFFFFFFF000FFFFFFFFFFFFFFFFFFFFFFFFFFFFFFFFFFFFFFFFFFFF
310
FFFFFFFFFFFFFFFFFFFFFFFFFFFFFFFFFFFFFFFFFFFFFFFFFFFFFFFFFFFFFFFF
310
FFFFFFFFFFFFFFFFFFFFFFFFFFFFFFFFFFFFFFFFFFFFFFFFFFFFFFFFFFFFFFFF
310
F000FFFFFFFFFFFFFFFFFFFFFFFFFFFFFFFFFFFFFFFFFFFFFFFFFFFFFFFFFFFF
310
FFFFFFFFFFFFFFFFFFFFFFFFFFFFFFFFFFFFFFFFFFFFFFFFFFFFFFFFFFFFFFFF
310
FFFFFFFFFFFFFFFFFFFFFFFFFFFFFFFFFFFFFFFFFFFFFFFFF000FFFFFFFFFFFF
310
FFFFFFFFFFFFFFFFFFFFFFFFFFFFFFFFFFFFFFFFFFFFFFFFFFFFFFFFFFFFFFFF
310
FFFFFFFFFFFFFFFFFFFFFFFFFFFFFFFFFFFFFFFFFFFFFFFFFFFFFFFFFFFFFFFF
310
FFFFFFFFFFFFFFFFFFFFFFFFFFFFFFFFF000FFFFFFFFFFFFFFFFFFFFFFFFFFFF
310
FFFFFFFFFFFFFFFFFFFFFFFFFFFFFFFFFFFFFFFFFFFFFFFFFFFFFFFFFFFFFFFF
310
FFFFFFFFFFFFFFFFFFFFFFFFFFFFFFFFFFFFFFFFFFFFFFFFFFFFFFFFFFFFFFFF
310
FFFFFFFFFFFFFFFFF000FFFFFFFFFFFFFFFFFFFFFFFFFFFFFFFFFFFFFFFFFFFF
310
FFFFFFFFFFFFFFFFFFFFFFFFFFFFFFFFFFFFFFFFFFFFFFFFFFFFFFFFFFFFFFFF
310
FFFFFFFFFFFFFFFFFFFFFFFFFFFFFFFFFFFFFFFFFFFFFFFFFFFFFFFFFFFFFFFF
310
F000FFFFFFFFFFFFFFFFFFFFFFFFFFFFFFFFFFFFFFFFFFFFFFFFFFFFFFFFFFFF
310
FFFFFFFFFFFFFFFFFFFFFFFFFFFFFFFFFFFFFFFFFFFFFFFFFFFFFFFFFFFFFFFF
310
FFFFFFFFFFFFFFFFFFFFFFFFFFFFFFFFFFFFFFFFFFFFFFFFF000FFFFFFFFFFFF
310
FFFFFFFFFFFFFFFFFFFFFFFFFFFFFFFFFFFFFFFFFFFFFFFFFFFFFFFFFFFFFFFF
310
FFFFFFFFFFFFFFFFFFFFFFFFFFFFFFFFFFFFFFFFFFFFFFFFFFFFFFFFFFFFFFFF
310
FFFFFFFFFFFFFFFFFFFFFFFFFFFFFFFFF000FFFFFFFFFFFFFFFFFFFFFFFFFFFF
310
FFFFFFFFFFFFFFFFFFFFFFFFFFFFFFFFFFFFFFFFFFFFFFFFFFFFFFFFFFFFFFFF
310
FFFFFFFFFFFFFFFFFFFFFFFFFFFFFFFFFFFFFFFFFFFFFFFFFFFFFFFFFFFFFFFF
310
FFFFFFFFFFFFFFFFF000FFFFFFFFFFFFFFFFFFFFFFFFFFFFFFFFFFFFFFFFFFFF
310
FFFFFFFFFFFFFFFFFFFFFFFFFFFFFFFFFFFFFFFFFFFFFFFFFFFFFFFFFFFFFFFF
310
FFFFFFFFFFFFFFFFFFFFFFFFFFFFFFFFFFFFFFFFFFFFFFFFFFFFFFFFFFFFFFFF
310
F000FFFFFFFFFFFFFFFFFFFFFFFFFFFFFFFFFFFFFFFFFFFFFFFFFFFFFFFFFFFF
310
FFFFFFFFFFFFFFFFFFFFFFFFFFFFFFFFFFFFFFFFFFFFFFFFFFFFFFFFFFFFFFFF
310
FFFFFFFFFFFFFFFFFFFFFFFFFFFFFFFFFFFFFFFFFFFFFFFFF000FFFFFFFFFFFF
310
FFFFFFFFFFFFFFFFFFFFFFFFFFFFFFFFFFFFFFFFFFFFFFFFFFFFFFFFFFFFFFFF
310
FFFFFFFFFFFFFFFFFFFFFFFFFFFFFFFFFFFFFFFFFFFFFFFFFFFFFFFFFFFFFFFF
310
FFFFFFFFFFFFFFFFFFFFFFFFFFFFFFFFF000FFFFFFFFFFFFFFFFFFFFFFFFFFFF
310
FFFFFFFFFFFFFFFFFFFFFFFFFFFFFFFFFFFFFFFFFFFFFFFFFFFFFFFFFFFFFFFF
310
FFFFFFFFFFFFFFFFFFFFFFFFFFFFFFFFFFFFFFFFFFFFFFFFFFFFFFFFFFFFFFFF
310
FFFFFFFFFFFFFFFFF000FFFFFFFFFFFFFFFFFFFFFFFFFFFFFFFFFFFFFFFFFFFF
310
FFFFFFFFFFFFFFFFFFFFFFFFFFFFFFFFFFFFFFFFFFFFFFFFFFFFFFFFFFFFFFFF
310
FFFFFFFFFFFFFFFFFFFFFFFFFFFFFFFFFFFFFFFFFFFFFFFFFFFFFFFFFFFFFFFF
310
F000FFFFFFFFFFFFFFFFFFFFFFFFFFFFFFFFFFFFFFFFFFFFFFFFFFFFFFFFFFFF
310
FFFFFFFFFFFFFFFFFFFFFFFFFFFFFFFFFFFFFFFFFFFFFFFFFFFFFFFFFFFFFFFF
310
FFFFFFFFFFFFFFFFFFFFFFFFFFFFFFFFFFFFFFFFFFFFFFFFF000FFFFFFFFFFFF
310
FFFFFFFFFFFFFFFFFFFFFFFFFFFFFFFFFFFFFFFFFFFFFFFFFFFFFFFFFFFFFFFF
310
FFFFFFFFFFFFFFFFFFFFFFFFFFFFFFFFFFFFFFFFFFFFFFFFFFFFFFFFFFFFFFFF
310
FFFFFFFFFFFFFFFFFFFFFFFFFFFFFFFFF0000000000000000000000000000000
310
0000000000000000000000000000000000000000000000000000000000000000
310
0000000000000000000000000000000000000000000000000000000000000000
310
0000000000000000000000000000000000000000000000000000000000000000
310
0000000000000000000000000000000000000000000000000000000000000000
310
0000000000000000000000000000000000000000000000000000000000000000
310
0000000000000000000000000000000000000000000000000000000000000000
310
0000000000000000000000000000000000000000000000000000000000000000
310
0000000000000000000000000000000000000000000000000000000000000000
310
0000000000000000000000000000000000000000000000000000000000000000
310
0000000000000000000000000000000000000000000000000000000000000000
310
0000000000000000000000000000000000000000000000000000000000000000
310
0000000000000000000000000000000000000000000000000000000000000000
310
0000000000000000000000000000000000000000000000000000000000000000
310
0000000000000000000000000000000000000000000000000000000000000000
310
0000000000000000000000000000000000000000000000000000000000000000
  1
OLE
  0
ENDSEC
  0
SECTION
  2
OBJECTS
  0
DICTIONARY
  5
C
330
0
100
AcDbDictionary
281
     1
  3
ACAD_GROUP
350
D
  3
ACAD_LAYOUT
350
1A
  3
ACAD_MLINESTYLE
350
17
  3
ACAD_PLOTSETTINGS
350
19
  3
ACAD_PLOTSTYLENAME
350
E
  0
DICTIONARY
  5
D
102
{ACAD_REACTORS
330
C
102
}
330
C
100
AcDbDictionary
281
     1
  0
DICTIONARY
  5
1A
102
{ACAD_REACTORS
330
C
102
}
330
C
100
AcDbDictionary
281
     1
  3
Layout1
350
1E
  3
Layout2
350
26
  3
Model
350
22
  0
DICTIONARY
  5
17
102
{ACAD_REACTORS
330
C
102
}
330
C
100
AcDbDictionary
281
     1
  3
Standard
350
18
  0
DICTIONARY
  5
19
102
{ACAD_REACTORS
330
C
102
}
330
C
100
AcDbDictionary
281
     1
  0
ACDBDICTIONARYWDFLT
  5
E
102
{ACAD_REACTORS
330
C
102
}
330
C
100
AcDbDictionary
281
     1
  3
Normal
350
F
100
AcDbDictionaryWithDefault
340
F
  0
LAYOUT
  5
1E
102
{ACAD_REACTORS
330
1A
102
}
330
1A
100
AcDbPlotSettings
  1

  2
none_device
  4

  6

 40
0.0
 41
0.0
 42
0.0
 43
0.0
 44
0.0
 45
0.0
 46
0.0
 47
0.0
 48
0.0
 49
0.0
140
0.0
141
0.0
142
1.0
143
1.0
 70
   688
 72
     0
 73
     0
 74
     5
  7

 75
    16
147
1.0
148
0.0
149
0.0
100
AcDbLayout
  1
Layout1
 70
     1
 71
     1
 10
0.0
 20
0.0
 11
420.0
 21
297.0
 12
0.0
 22
0.0
 32
0.0
 14
1.0000000000E+20
 24
1.0000000000E+20
 34
1.0000000000E+20
 15
-1.0000000000E+20
 25
-1.0000000000E+20
 35
-1.0000000000E+20
146
0.0
 13
0.0
 23
0.0
 33
0.0
 16
1.0
 26
0.0
 36
0.0
 17
0.0
 27
1.0
 37
0.0
 76
     0
330
1B
  0
LAYOUT
  5
26
102
{ACAD_REACTORS
330
1A
102
}
330
1A
100
AcDbPlotSettings
  1

  2
none_device
  4

  6

 40
0.0
 41
0.0
 42
0.0
 43
0.0
 44
0.0
 45
0.0
 46
0.0
 47
0.0
 48
0.0
 49
0.0
140
0.0
141
0.0
142
1.0
143
1.0
 70
   688
 72
     0
 73
     0
 74
     5
  7

 75
    16
147
1.0
148
0.0
149
0.0
100
AcDbLayout
  1
Layout2
 70
     1
 71
     2
 10
0.0
 20
0.0
 11
0.0
 21
0.0
 12
0.0
 22
0.0
 32
0.0
 14
0.0
 24
0.0
 34
0.0
 15
0.0
 25
0.0
 35
0.0
146
0.0
 13
0.0
 23
0.0
 33
0.0
 16
1.0
 26
0.0
 36
0.0
 17
0.0
 27
1.0
 37
0.0
 76
     0
330
23
  0
LAYOUT
  5
22
102
{ACAD_REACTORS
330
1A
102
}
330
1A
100
AcDbPlotSettings
  1

  2
none_device
  4

  6

 40
0.0
 41
0.0
 42
0.0
 43
0.0
 44
0.0
 45
0.0
 46
0.0
 47
0.0
 48
0.0
 49
0.0
140
0.0
141
0.0
142
1.0
143
1.0
 70
  1712
 72
     0
 73
     0
 74
     0
  7

 75
     0
147
1.0
148
0.0
149
0.0
100
AcDbLayout
  1
Model
 70
     1
 71
     0
 10
0.0
 20
0.0
 11
297.0
 21
210.0
 12
0.0
 22
0.0
 32
0.0
 14
0.0
 24
0.0
 34
0.0
 15
297.0
 25
210.0
 35
0.0
146
0.0
 13
0.0
 23
0.0
 33
0.0
 16
1.0
 26
0.0
 36
0.0
 17
0.0
 27
1.0
 37
0.0
 76
     0
330
1F
331
29
  0
MLINESTYLE
  5
18
102
{ACAD_REACTORS
330
17
102
}
330
17
100
AcDbMlineStyle
  2
Standard
 70
     0
  3

 62
   256
 51
90.0
 52
90.0
 71
     2
 49
0.5
 62
   256
  6
BYLAYER
 49
-0.5
 62
   256
  6
BYLAYER
  0
ACDBPLACEHOLDER
  5
F
102
{ACAD_REACTORS
330
E
102
}
330
E
  0
ENDSEC
  0
EOF
