  0
SECTION
  2
HEADER
  9
$ACADVER
  1
AC1015
  9
$ACADMAINTVER
 70
     6
  9
$DWGCODEPAGE
  3
ANSI_1252
  9
$INSBASE
 10
0.0
 20
0.0
 30
0.0
  9
$EXTMIN
 10
0.0
 20
0.0
 30
0.0
  9
$EXTMAX
 10
297.0
 20
210.0
 30
0.0
  9
$LIMMIN
 10
0.0
 20
0.0
  9
$LIMMAX
 10
297.0
 20
210.0
  9
$ORTHOMODE
 70
     0
  9
$REGENMODE
 70
     1
  9
$FILLMODE
 70
     1
  9
$QTEXTMODE
 70
     0
  9
$MIRRTEXT
 70
     1
  9
$LTSCALE
 40
1.0
  9
$ATTMODE
 70
     1
  9
$TEXTSIZE
 40
2.0
  9
$TRACEWID
 40
1.0
  9
$TEXTSTYLE
  7
Standard
  9
$CLAYER
  8
0
  9
$CELTYPE
  6
ByLayer
  9
$CECOLOR
 62
   256
  9
$CELTSCALE
 40
1.0
  9
$DISPSILH
 70
     0
  9
$DIMSCALE
 40
1.0
  9
$DIMASZ
 40
3.0
  9
$DIMEXO
 40
0.0
  9
$DIMDLI
 40
3.75
  9
$DIMRND
 40
0.0
  9
$DIMDLE
 40
0.0
  9
$DIMEXE
 40
1.0
  9
$DIMTP
 40
0.0
  9
$DIMTM
 40
0.0
  9
$DIMTXT
 40
2.0
  9
$DIMCEN
 40
2.5
  9
$DIMTSZ
 40
0.0
  9
$DIMTOL
 70
     0
  9
$DIMLIM
 70
     0
  9
$DIMTIH
 70
     1
  9
$DIMTOH
 70
     1
  9
$DIMSE1
 70
     0
  9
$DIMSE2
 70
     0
  9
$DIMTAD
 70
     1
  9
$DIMZIN
 70
     0
  9
$DIMBLK
  1

  9
$DIMASO
 70
     1
  9
$DIMSHO
 70
     1
  9
$DIMPOST
  1

  9
$DIMAPOST
  1

  9
$DIMALT
 70
     0
  9
$DIMALTD
 70
     3
  9
$DIMALTF
 40
0.0393700787
  9
$DIMLFAC
 40
1.0
  9
$DIMTOFL
 70
     1
  9
$DIMTVP
 40
0.0
  9
$DIMTIX
 70
     0
  9
$DIMSOXD
 70
     0
  9
$DIMSAH
 70
     0
  9
$DIMBLK1
  1

  9
$DIMBLK2
  1

  9
$DIMSTYLE
  2
ISO-25
  9
$DIMCLRD
 70
     0
  9
$DIMCLRE
 70
     0
  9
$DIMCLRT
 70
     0
  9
$DIMTFAC
 40
1.0
  9
$DIMGAP
 40
1.524
  9
$DIMJUST
 70
     0
  9
$DIMSD1
 70
     0
  9
$DIMSD2
 70
     0
  9
$DIMTOLJ
 70
     0
  9
$DIMTZIN
 70
     0
  9
$DIMALTZ
 70
     0
  9
$DIMALTTZ
 70
     0
  9
$DIMUPT
 70
     0
  9
$DIMDEC
 70
     2
  9
$DIMTDEC
 70
     3
  9
$DIMALTU
 70
     2
  9
$DIMALTTD
 70
     3
  9
$DIMTXSTY
  7
Standard
  9
$DIMAUNIT
 70
     0
  9
$DIMADEC
 70
     2
  9
$DIMALTRND
 40
0.0
  9
$DIMAZIN
 70
     0
  9
$DIMDSEP
 70
    44
  9
$DIMATFIT
 70
     3
  9
$DIMFRAC
 70
     0
  9
$DIMLDRBLK
  1

  9
$DIMLUNIT
 70
     2
  9
$DIMLWD
 70
    -2
  9
$DIMLWE
 70
    -2
  9
$DIMTMOVE
 70
     0
  9
$LUNITS
 70
     2
  9
$LUPREC
 70
     2
  9
$SKETCHINC
 40
1.0
  9
$FILLETRAD
 40
10.0
  9
$AUNITS
 70
     0
  9
$AUPREC
 70
     2
  9
$MENU
  1
.
  9
$ELEVATION
 40
0.0
  9
$PELEVATION
 40
0.0
  9
$THICKNESS
 40
0.0
  9
$LIMCHECK
 70
     0
  9
$CHAMFERA
 40
10.0
  9
$CHAMFERB
 40
10.0
  9
$CHAMFERC
 40
20.0
  9
$CHAMFERD
 40
0.0
  9
$SKPOLY
 70
     0
  9
$TDCREATE
 40
2456086.690759005
  9
$TDUCREATE
 40
2456086.607425671
  9
$TDUPDATE
 40
2456086.690760451
  9
$TDUUPDATE
 40
2456086.607427118
  9
$TDINDWG
 40
0.0000000116
  9
$TDUSRTIMER
 40
0.0000000116
  9
$USRTIMER
 70
     1
  9
$ANGBASE
 50
0.0
  9
$ANGDIR
 70
     0
  9
$PDMODE
 70
     0
  9
$PDSIZE
 40
-1.0
  9
$PLINEWID
 40
0.0
  9
$SPLFRAME
 70
     0
  9
$SPLINETYPE
 70
     6
  9
$SPLINESEGS
 70
     8
  9
$HANDSEED
  5
22D
  9
$SURFTAB1
 70
     6
  9
$SURFTAB2
 70
     6
  9
$SURFTYPE
 70
     6
  9
$SURFU
 70
     6
  9
$SURFV
 70
     6
  9
$UCSBASE
  2

  9
$UCSNAME
  2

  9
$UCSORG
 10
0.0
 20
0.0
 30
0.0
  9
$UCSXDIR
 10
1.0
 20
0.0
 30
0.0
  9
$UCSYDIR
 10
0.0
 20
1.0
 30
0.0
  9
$UCSORTHOREF
  2

  9
$UCSORTHOVIEW
 70
     0
  9
$UCSORGTOP
 10
0.0
 20
0.0
 30
0.0
  9
$UCSORGBOTTOM
 10
0.0
 20
0.0
 30
0.0
  9
$UCSORGLEFT
 10
0.0
 20
0.0
 30
0.0
  9
$UCSORGRIGHT
 10
0.0
 20
0.0
 30
0.0
  9
$UCSORGFRONT
 10
0.0
 20
0.0
 30
0.0
  9
$UCSORGBACK
 10
0.0
 20
0.0
 30
0.0
  9
$PUCSBASE
  2

  9
$PUCSNAME
  2

  9
$PUCSORG
 10
0.0
 20
0.0
 30
0.0
  9
$PUCSXDIR
 10
1.0
 20
0.0
 30
0.0
  9
$PUCSYDIR
 10
0.0
 20
1.0
 30
0.0
  9
$PUCSORTHOREF
  2

  9
$PUCSORTHOVIEW
 70
     0
  9
$PUCSORGTOP
 10
0.0
 20
0.0
 30
0.0
  9
$PUCSORGBOTTOM
 10
0.0
 20
0.0
 30
0.0
  9
$PUCSORGLEFT
 10
0.0
 20
0.0
 30
0.0
  9
$PUCSORGRIGHT
 10
0.0
 20
0.0
 30
0.0
  9
$PUCSORGFRONT
 10
0.0
 20
0.0
 30
0.0
  9
$PUCSORGBACK
 10
0.0
 20
0.0
 30
0.0
  9
$USERI1
 70
     0
  9
$USERI2
 70
     0
  9
$USERI3
 70
     0
  9
$USERI4
 70
     0
  9
$USERI5
 70
     0
  9
$USERR1
 40
0.0
  9
$USERR2
 40
0.0
  9
$USERR3
 40
0.0
  9
$USERR4
 40
0.0
  9
$USERR5
 40
0.0
  9
$WORLDVIEW
 70
     1
  9
$SHADEDGE
 70
     3
  9
$SHADEDIF
 70
    70
  9
$TILEMODE
 70
     1
  9
$MAXACTVP
 70
    64
  9
$PINSBASE
 10
0.0
 20
0.0
 30
0.0
  9
$PLIMCHECK
 70
     0
  9
$PEXTMIN
 10
1.0000000000E+20
 20
1.0000000000E+20
 30
1.0000000000E+20
  9
$PEXTMAX
 10
-1.0000000000E+20
 20
-1.0000000000E+20
 30
-1.0000000000E+20
  9
$PLIMMIN
 10
0.0
 20
0.0
  9
$PLIMMAX
 10
420.0
 20
297.0
  9
$UNITMODE
 70
     0
  9
$VISRETAIN
 70
     1
  9
$PLINEGEN
 70
     0
  9
$PSLTSCALE
 70
     1
  9
$TREEDEPTH
 70
  3020
  9
$CMLSTYLE
  2
Standard
  9
$CMLJUST
 70
     0
  9
$CMLSCALE
 40
20.0
  9
$PROXYGRAPHICS
 70
     1
  9
$MEASUREMENT
 70
     1
  9
$CELWEIGHT
370
    -1
  9
$ENDCAPS
280
     0
  9
$JOINSTYLE
280
     0
  9
$LWDISPLAY
290
     1
  9
$INSUNITS
 70
     4
  9
$HYPERLINKBASE
  1

  9
$STYLESHEET
  1

  9
$XEDIT
290
     1
  9
$CEPSNTYPE
380
     0
  9
$PSTYLEMODE
290
     1
  9
$FINGERPRINTGUID
  2
{B0B9FABF-1D77-4D99-BD83-F6C39CD94E0B}
  9
$VERSIONGUID
  2
{FAEB1C32-E019-11D5-929B-00C0DF256EC4}
  9
$EXTNAMES
290
     1
  9
$PSVPSCALE
 40
0.0
  9
$OLESTARTUP
290
     0
  0
ENDSEC
  0
SECTION
  2
CLASSES
  0
CLASS
  1
ACDBDICTIONARYWDFLT
  2
AcDbDictionaryWithDefault
  3
ObjectDBX Classes
 90
        0
280
     0
281
     0
  0
CLASS
  1
VISUALSTYLE
  2
AcDbVisualStyle
  3
ObjectDBX Classes
 90
     4095
280
     0
281
     0
  0
CLASS
  1
MATERIAL
  2
AcDbMaterial
  3
ObjectDBX Classes
 90
     1153
280
     0
281
     0
  0
CLASS
  1
ACDBPLACEHOLDER
  2
AcDbPlaceHolder
  3
ObjectDBX Classes
 90
        0
280
     0
281
     0
  0
CLASS
  1
LAYOUT
  2
AcDbLayout
  3
ObjectDBX Classes
 90
        0
280
     0
281
     0
  0
ENDSEC
  0
SECTION
  2
TABLES
  0
TABLE
  2
VPORT
  5
8
330
0
100
AcDbSymbolTable
 70
     1
  0
VPORT
  5
29
330
8
100
AcDbSymbolTableRecord
100
AcDbViewportTableRecord
  2
*Active
 70
     0
 10
0.0
 20
0.0
 11
1.0
 21
1.0
 12
148.5
 22
105.0
 13
0.0
 23
0.0
 14
10.0
 24
10.0
 15
10.0
 25
10.0
 16
0.0
 26
0.0
 36
1.0
 17
0.0
 27
0.0
 37
0.0
 40
210.0
 41
1.4142857143
 42
50.0
 43
0.0
 44
0.0
 50
0.0
 51
0.0
 71
     0
 72
  2000
 73
     1
 74
     3
 75
     0
 76
     0
 77
     0
 78
     0
281
     0
 65
     1
110
0.0
120
0.0
130
0.0
111
1.0
121
0.0
131
0.0
112
0.0
122
1.0
132
0.0
 79
     0
146
0.0
  0
ENDTAB
  0
TABLE
  2
LTYPE
  5
5
330
0
100
AcDbSymbolTable
 70
     6
  0
LTYPE
  5
14
330
5
100
AcDbSymbolTableRecord
100
AcDbLinetypeTableRecord
  2
ByBlock
 70
     0
  3

 72
    65
 73
     0
 40
0.0
  0
LTYPE
  5
15
330
5
100
AcDbSymbolTableRecord
100
AcDbLinetypeTableRecord
  2
ByLayer
 70
     0
  3

 72
    65
 73
     0
 40
0.0
  0
LTYPE
  5
16
330
5
100
AcDbSymbolTableRecord
100
AcDbLinetypeTableRecord
  2
Continuous
 70
     0
  3
Solid line
 72
    65
 73
     0
 40
0.0
  0
LTYPE
  5
3F
330
5
100
AcDbSymbolTableRecord
100
AcDbLinetypeTableRecord
  2
HIDDEN
 70
     0
  3
Hidden __ __ __ __ __ __ __ __ __ __ __ __ __ __
 72
    65
 73
     2
 40
1.905
 49
1.27
 74
     0
 49
-0.635
 74
     0
  0
LTYPE
  5
40
330
5
100
AcDbSymbolTableRecord
100
AcDbLinetypeTableRecord
  2
PHANTOM
 70
     0
  3
Phantom ______  __  __  ______  __  __  ______
 72
    65
 73
     6
 40
12.7
 49
6.35
 74
     0
 49
-1.27
 74
     0
 49
1.27
 74
     0
 49
-1.27
 74
     0
 49
1.27
 74
     0
 49
-1.27
 74
     0
  0
LTYPE
  5
41
330
5
100
AcDbSymbolTableRecord
100
AcDbLinetypeTableRecord
  2
CENTER
 70
     0
  3
Center ____ _ ____ _ ____ _ ____ _ ____ _ ____
 72
    65
 73
     4
 40
10.16
 49
6.35
 74
     0
 49
-1.27
 74
     0
 49
1.27
 74
     0
 49
-1.27
 74
     0
  0
LTYPE
  5
42
330
5
100
AcDbSymbolTableRecord
100
AcDbLinetypeTableRecord
  2
CENTERX2
 70
     0
  3
Center (2x) ________  __  ________  __  _____
 72
    65
 73
     4
 40
20.32
 49
12.7
 74
     0
 49
-2.54
 74
     0
 49
2.54
 74
     0
 49
-2.54
 74
     0
  0
LTYPE
  5
43
330
5
100
AcDbSymbolTableRecord
100
AcDbLinetypeTableRecord
  2
DOT2
 70
     0
  3
Dot (.5x) ........................................
 72
    65
 73
     2
 40
0.635
 49
0.0
 74
     0
 49
-0.635
 74
     0
  0
ENDTAB
  0
TABLE
  2
LAYER
  5
2
330
0
100
AcDbSymbolTable
 70
     5
  0
LAYER
  5
10
330
2
100
AcDbSymbolTableRecord
100
AcDbLayerTableRecord
  2
0
 70
     0
 62
     7
  6
Continuous
370
    -3
390
F
  0
LAYER
  5
44
330
2
100
AcDbSymbolTableRecord
100
AcDbLayerTableRecord
  2
FORMAT
 70
     0
 62
     7
  6
Continuous
370
    -3
390
F
  0
LAYER
  5
45
330
2
100
AcDbSymbolTableRecord
100
AcDbLayerTableRecord
  2
VERMASSUNG
 70
     0
 62
     7
  6
Continuous
370
    -3
390
F
  0
LAYER
  5
46
330
2
100
AcDbSymbolTableRecord
100
AcDbLayerTableRecord
  2
KOPF_DÜNN
 70
     0
 62
     7
  6
Continuous
370
    -3
390
F
  0
LAYER
  5
47
330
2
100
AcDbSymbolTableRecord
100
AcDbLayerTableRecord
  2
KOPF_DICK
 70
     0
 62
     7
  6
Continuous
370
    15
390
F
  0
ENDTAB
  0
TABLE
  2
STYLE
  5
3
330
0
100
AcDbSymbolTable
 70
     2
  0
STYLE
  5
11
330
3
100
AcDbSymbolTableRecord
100
AcDbTextStyleTableRecord
  2
Standard
 70
     0
 40
0.0
 41
1.0
 50
0.0
 71
     0
 42
2.0
  3
txt
  4

  0
STYLE
  5
48
330
3
100
AcDbSymbolTableRecord
100
AcDbTextStyleTableRecord
  2
SLDTEXTSTYLE0
 70
     0
 40
0.0
 41
0.7
 50
0.0
 71
     0
 42
0.2
  3
TXT
  4

  0
ENDTAB
  0
TABLE
  2
VIEW
  5
6
330
0
100
AcDbSymbolTable
 70
     0
  0
ENDTAB
  0
TABLE
  2
UCS
  5
7
330
0
100
AcDbSymbolTable
 70
     0
  0
ENDTAB
  0
TABLE
  2
APPID
  5
9
330
0
100
AcDbSymbolTable
 70
     1
  0
APPID
  5
12
330
9
100
AcDbSymbolTableRecord
100
AcDbRegAppTableRecord
  2
ACAD
 70
     0
  0
ENDTAB
  0
TABLE
  2
DIMSTYLE
  5
A
330
0
100
AcDbSymbolTable
 70
     5
100
AcDbDimStyleTable
  0
DIMSTYLE
105
27
330
A
100
AcDbSymbolTableRecord
100
AcDbDimStyleTableRecord
  2
ISO-25
 70
     0
 41
2.5
 42
0.625
 43
3.75
 44
1.25
 73
     0
 74
     0
 77
     1
 78
     8
140
2.5
141
2.5
143
0.0393700787
147
0.625
171
     3
172
     1
178
     0
271
     2
272
     2
274
     3
278
    44
283
     0
284
     8
340
11
  0
DIMSTYLE
105
1AA
102
{ACAD_REACTORS
330
1A9
330
1B4
330
1BE
330
1D1
330
1DD
102
}
330
A
100
AcDbSymbolTableRecord
100
AcDbDimStyleTableRecord
  2
SLDDIMSTYLE0
 70
     0
 41
3.0
 44
0.0
 45
0.000000001
 73
     0
 74
     0
 77
     1
 78
    12
 79
     3
140
2.0
147
0.5
173
     1
178
     0
271
     2
272
     3
276
     2
284
    12
340
48
  0
DIMSTYLE
105
1C9
102
{ACAD_REACTORS
330
1C8
102
}
330
A
100
AcDbSymbolTableRecord
100
AcDbDimStyleTableRecord
  2
SLDDIMSTYLE1
 70
     0
 41
3.0
 44
0.0
 73
     0
 74
     0
 77
     1
 78
    12
 79
     3
140
2.0
147
0.5
173
     1
178
     0
179
     1
272
     3
276
     2
284
    12
340
48
  0
DIMSTYLE
105
205
102
{ACAD_REACTORS
330
204
102
}
330
A
100
AcDbSymbolTableRecord
100
AcDbDimStyleTableRecord
  2
SLDDIMSTYLE2
 70
     0
 41
3.0
 44
0.0
 45
0.000000001
 73
     0
 74
     0
 77
     1
 78
    12
 79
     3
140
2.0
147
0.5
172
     1
173
     1
178
     0
271
     2
272
     3
276
     2
284
    12
289
     0
340
48
  0
DIMSTYLE
105
214
102
{ACAD_REACTORS
330
213
102
}
330
A
100
AcDbSymbolTableRecord
100
AcDbDimStyleTableRecord
  2
SLDDIMSTYLE3
 70
     0
 41
3.0
 44
0.0
 73
     0
 74
     0
 77
     1
 78
    12
 79
     3
140
2.0
147
0.5
173
     1
178
     0
179
     2
272
     3
276
     2
284
    12
340
48
  0
ENDTAB
  0
TABLE
  2
BLOCK_RECORD
  5
1
330
0
100
AcDbSymbolTable
 70
    10
  0
BLOCK_RECORD
  5
1F
330
1
100
AcDbSymbolTableRecord
100
AcDbBlockTableRecord
  2
*Model_Space
340
22
  0
BLOCK_RECORD
  5
1B
330
1
100
AcDbSymbolTableRecord
100
AcDbBlockTableRecord
  2
*Paper_Space
340
1E
  0
BLOCK_RECORD
  5
23
330
1
100
AcDbSymbolTableRecord
100
AcDbBlockTableRecord
  2
*Paper_Space0
340
26
  0
BLOCK_RECORD
  5
1AB
330
1
100
AcDbSymbolTableRecord
100
AcDbBlockTableRecord
  2
_D
340
0
  0
BLOCK_RECORD
  5
1B5
330
1
100
AcDbSymbolTableRecord
100
AcDbBlockTableRecord
  2
_D_1
340
0
  0
BLOCK_RECORD
  5
1BF
330
1
100
AcDbSymbolTableRecord
100
AcDbBlockTableRecord
  2
_D_2
340
0
  0
BLOCK_RECORD
  5
1CA
330
1
100
AcDbSymbolTableRecord
100
AcDbBlockTableRecord
  2
_D_3
340
0
  0
BLOCK_RECORD
  5
1D2
330
1
100
AcDbSymbolTableRecord
100
AcDbBlockTableRecord
  2
_D_4
340
0
  0
BLOCK_RECORD
  5
1DE
330
1
100
AcDbSymbolTableRecord
100
AcDbBlockTableRecord
  2
_D_5
340
0
  0
BLOCK_RECORD
  5
206
330
1
100
AcDbSymbolTableRecord
100
AcDbBlockTableRecord
  2
_D_6
340
0
  0
BLOCK_RECORD
  5
215
330
1
100
AcDbSymbolTableRecord
100
AcDbBlockTableRecord
  2
_D_7
340
0
  0
BLOCK_RECORD
  5
220
330
1
100
AcDbSymbolTableRecord
100
AcDbBlockTableRecord
  2
SW_CENTERMARKSYMBOL_0
340
0
102
{BLKREFS
331
22B
102
}
  0
ENDTAB
  0
ENDSEC
  0
SECTION
  2
BLOCKS
  0
BLOCK
  5
20
330
1F
100
AcDbEntity
  8
0
100
AcDbBlockBegin
  2
*Model_Space
 70
     0
 10
0.0
 20
0.0
 30
0.0
  3
*Model_Space
  1

  0
ENDBLK
  5
21
330
1F
100
AcDbEntity
  8
0
100
AcDbBlockEnd
  0
BLOCK
  5
1C
330
1B
100
AcDbEntity
 67
     1
  8
0
100
AcDbBlockBegin
  2
*Paper_Space
 70
     0
 10
0.0
 20
0.0
 30
0.0
  3
*Paper_Space
  1

  0
ENDBLK
  5
1D
330
1B
100
AcDbEntity
 67
     1
  8
0
100
AcDbBlockEnd
  0
BLOCK
  5
24
330
23
100
AcDbEntity
  8
0
100
AcDbBlockBegin
  2
*Paper_Space0
 70
     0
 10
0.0
 20
0.0
 30
0.0
  3
*Paper_Space0
  1

  0
ENDBLK
  5
25
330
23
100
AcDbEntity
  8
0
100
AcDbBlockEnd
  0
BLOCK
  5
1AC
330
1AB
100
AcDbEntity
  8
0
100
AcDbBlockBegin
  2
_D
 70
     0
 10
0.0
 20
0.0
 30
0.0
  3
_D
  1

  0
SOLID
  5
1AE
330
1AB
100
AcDbEntity
  8
VERMASSUNG
100
AcDbTrace
 10
133.0580044185
 20
82.4635598121
 30
0.0
 11
136.0580044185
 21
82.0135598121
 31
0.0
 12
136.0580044185
 22
82.9135598121
 32
0.0
 13
136.0580044185
 23
82.9135598121
 33
0.0
  0
SOLID
  5
1AF
330
1AB
100
AcDbEntity
  8
VERMASSUNG
100
AcDbTrace
 10
273.0580044185
 20
82.4635598121
 30
0.0
 11
270.0580044185
 21
82.9135598121
 31
0.0
 12
270.0580044185
 22
82.0135598121
 32
0.0
 13
270.0580044185
 23
82.0135598121
 33
0.0
  0
LINE
  5
1B0
330
1AB
100
AcDbEntity
  8
VERMASSUNG
100
AcDbLine
 10
133.0580044185
 20
92.9635598121
 30
0.0
 11
133.0580044185
 21
81.4635598121
 31
0.0
  0
LINE
  5
1B1
330
1AB
100
AcDbEntity
  8
VERMASSUNG
100
AcDbLine
 10
273.0580044185
 20
96.9635598121
 30
0.0
 11
273.0580044185
 21
81.4635598121
 31
0.0
  0
LINE
  5
1B2
330
1AB
100
AcDbEntity
  8
VERMASSUNG
100
AcDbLine
 10
133.0580044185
 20
82.4635598121
 30
0.0
 11
273.0580044185
 21
82.4635598121
 31
0.0
  0
MTEXT
  5
1B3
330
1AB
100
AcDbEntity
  8
VERMASSUNG
100
AcDbMText
 10
200.1580042226
 20
85.0416951753
 30
0.1
 40
2.0
 41
0.0
 71
     1
 72
     1
  1
140
  7
SLDTEXTSTYLE0
 73
     1
 44
1.0
  0
ENDBLK
  5
1AD
330
1AB
100
AcDbEntity
  8
0
100
AcDbBlockEnd
  0
BLOCK
  5
1B6
330
1B5
100
AcDbEntity
  8
0
100
AcDbBlockBegin
  2
_D_1
 70
     0
 10
0.0
 20
0.0
 30
0.0
  3
_D_1
  1

  0
SOLID
  5
1B8
330
1B5
100
AcDbEntity
  8
VERMASSUNG
100
AcDbTrace
 10
95.0580044185
 20
73.7003739777
 30
0.0
 11
98.0580044185
 21
73.2503739777
 31
0.0
 12
98.0580044185
 22
74.1503739777
 32
0.0
 13
98.0580044185
 23
74.1503739777
 33
0.0
  0
SOLID
  5
1B9
330
1B5
100
AcDbEntity
  8
VERMASSUNG
100
AcDbTrace
 10
273.0580044185
 20
73.7003739777
 30
0.0
 11
270.0580044185
 21
74.1503739777
 31
0.0
 12
270.0580044185
 22
73.2503739777
 32
0.0
 13
270.0580044185
 23
73.2503739777
 33
0.0
  0
LINE
  5
1BA
330
1B5
100
AcDbEntity
  8
VERMASSUNG
100
AcDbLine
 10
95.0580044185
 20
103.6712218196
 30
0.0
 11
95.0580044185
 21
72.7003739777
 31
0.0
  0
LINE
  5
1BB
330
1B5
100
AcDbEntity
  8
VERMASSUNG
100
AcDbLine
 10
273.0580044185
 20
96.9635598121
 30
0.0
 11
273.0580044185
 21
72.7003739777
 31
0.0
  0
LINE
  5
1BC
330
1B5
100
AcDbEntity
  8
VERMASSUNG
100
AcDbLine
 10
95.0580044185
 20
73.7003739777
 30
0.0
 11
273.0580044185
 21
73.7003739777
 31
0.0
  0
MTEXT
  5
1BD
330
1B5
100
AcDbEntity
  8
VERMASSUNG
100
AcDbMText
 10
181.2580042855
 20
76.2785093408
 30
0.1
 40
2.0
 41
0.0
 71
     1
 72
     1
  1
178
  7
SLDTEXTSTYLE0
 73
     1
 44
1.0
  0
ENDBLK
  5
1B7
330
1B5
100
AcDbEntity
  8
0
100
AcDbBlockEnd
  0
BLOCK
  5
1C0
330
1BF
100
AcDbEntity
  8
0
100
AcDbBlockBegin
  2
_D_2
 70
     0
 10
0.0
 20
0.0
 30
0.0
  3
_D_2
  1

  0
SOLID
  5
1C2
330
1BF
100
AcDbEntity
  8
VERMASSUNG
100
AcDbTrace
 10
285.8645908403
 20
123.9635598121
 30
0.0
 11
285.4145908403
 21
120.9635598121
 31
0.0
 12
286.3145908403
 22
120.9635598121
 32
0.0
 13
286.3145908403
 23
120.9635598121
 33
0.0
  0
SOLID
  5
1C3
330
1BF
100
AcDbEntity
  8
VERMASSUNG
100
AcDbTrace
 10
285.8645908403
 20
96.9635598121
 30
0.0
 11
286.3145908403
 21
99.9635598121
 31
0.0
 12
285.4145908403
 22
99.9635598121
 32
0.0
 13
285.4145908403
 23
99.9635598121
 33
0.0
  0
LINE
  5
1C4
330
1BF
100
AcDbEntity
  8
VERMASSUNG
100
AcDbLine
 10
273.0580044185
 20
123.9635598121
 30
0.0
 11
286.8645908403
 21
123.9635598121
 31
0.0
  0
LINE
  5
1C5
330
1BF
100
AcDbEntity
  8
VERMASSUNG
100
AcDbLine
 10
273.0580044185
 20
96.9635598121
 30
0.0
 11
286.8645908403
 21
96.9635598121
 31
0.0
  0
LINE
  5
1C6
330
1BF
100
AcDbEntity
  8
VERMASSUNG
100
AcDbLine
 10
285.8645908403
 20
123.9635598121
 30
0.0
 11
285.8645908403
 21
96.9635598121
 31
0.0
  0
MTEXT
  5
1C7
330
1BF
100
AcDbEntity
  8
VERMASSUNG
100
AcDbMText
 10
283.2864554772
 20
108.1635597611
 30
0.1
 40
2.0
 41
0.0
 71
     1
 72
     1
  1
27
  7
SLDTEXTSTYLE0
 11
-7.044195017643634E-15
 21
1.0
 31
0.0
 73
     1
 44
1.0
  0
ENDBLK
  5
1C1
330
1BF
100
AcDbEntity
  8
0
100
AcDbBlockEnd
  0
BLOCK
  5
1CB
330
1CA
100
AcDbEntity
  8
0
100
AcDbBlockBegin
  2
_D_3
 70
     0
 10
0.0
 20
0.0
 30
0.0
  3
_D_3
  1

  0
ARC
  5
1CD
330
1CA
100
AcDbEntity
  8
VERMASSUNG
100
AcDbCircle
 10
273.2035355841
 20
96.9635598121
 30
0.0
 40
9.187764470869624
100
AcDbArc
 50
0.0
 51
107.5401158054
  0
SOLID
  5
1CE
330
1CA
100
AcDbEntity
  8
VERMASSUNG
100
AcDbTrace
 10
282.391300055
 20
96.9635598121
 30
0.0
 11
282.3642603415
 21
99.9970015627
 31
0.0
 12
281.4754429938
 22
99.8555670465
 32
0.0
 13
281.4754429938
 23
99.8555670465
 33
0.0
  0
SOLID
  5
1CF
330
1CA
100
AcDbEntity
  8
VERMASSUNG
100
AcDbTrace
 10
270.4345870926
 20
105.7241499876
 30
0.0
 11
273.468148878
 21
105.7224488879
 31
0.0
 12
273.3351415916
 22
106.6125663306
 32
0.0
 13
273.3351415916
 23
106.6125663306
 33
0.0
  0
MTEXT
  5
1D0
330
1CA
100
AcDbEntity
  8
VERMASSUNG
100
AcDbMText
 10
276.608236697
 20
109.0550613329
 30
0.1
 40
2.0
 41
0.0
 71
     1
 72
     1
  1
107.5°
  7
SLDTEXTSTYLE0
 11
0.8066515584256988
 21
-0.5910272948768031
 31
0.0
 73
     1
 44
1.0
  0
ENDBLK
  5
1CC
330
1CA
100
AcDbEntity
  8
0
100
AcDbBlockEnd
  0
BLOCK
  5
1D3
330
1D2
100
AcDbEntity
  8
0
100
AcDbBlockBegin
  2
_D_4
 70
     0
 10
0.0
 20
0.0
 30
0.0
  3
_D_4
  1

  0
SOLID
  5
1D5
330
1D2
100
AcDbEntity
  8
VERMASSUNG
100
AcDbTrace
 10
85.0579544185
 20
155.4635598121
 30
0.0
 11
84.6079544185
 21
152.4635598121
 31
0.0
 12
85.5079544185
 22
152.4635598121
 32
0.0
 13
85.5079544185
 23
152.4635598121
 33
0.0
  0
SOLID
  5
1D6
330
1D2
100
AcDbEntity
  8
VERMASSUNG
100
AcDbTrace
 10
85.0579544185
 20
92.4635598121
 30
0.0
 11
85.5079544185
 21
95.4635598121
 31
0.0
 12
84.6079544185
 22
95.4635598121
 32
0.0
 13
84.6079544185
 23
95.4635598121
 33
0.0
  0
LINE
  5
1D7
330
1D2
100
AcDbEntity
  8
VERMASSUNG
100
AcDbLine
 10
133.5580044185
 20
155.4635598121
 30
0.0
 11
84.0579544185
 21
155.4635598121
 31
0.0
  0
LINE
  5
1D8
330
1D2
100
AcDbEntity
  8
VERMASSUNG
100
AcDbLine
 10
133.5580044185
 20
92.4635598121
 30
0.0
 11
84.0579544185
 21
92.4635598121
 31
0.0
  0
LINE
  5
1D9
330
1D2
100
AcDbEntity
  8
VERMASSUNG
100
AcDbLine
 10
85.0579544185
 20
155.4635598121
 30
0.0
 11
85.0579544185
 21
92.4635598121
 31
0.0
  0
MTEXT
  5
1DA
330
1D2
100
AcDbEntity
  8
VERMASSUNG
100
AcDbMText
 10
82.2798189295
 20
117.5585597029
 30
0.1
 40
2.0
 41
0.0
 71
     1
 72
     1
  1
PSC
  7
SLDTEXTSTYLE0
 11
-7.044195017643634E-15
 21
1.0
 31
0.0
 73
     1
 44
1.0
  0
MTEXT
  5
1DB
330
1D2
100
AcDbEntity
  8
VERMASSUNG
100
AcDbMText
 10
82.479818939
 20
122.158559805
 30
0.1
 40
2.0
 41
0.0
 71
     1
 72
     1
  1
%%c
  7
SLDTEXTSTYLE0
 11
-7.044195017643634E-15
 21
1.0
 31
0.0
 73
     1
 44
1.0
  0
MTEXT
  5
1DC
330
1D2
100
AcDbEntity
  8
VERMASSUNG
100
AcDbMText
 10
82.2798189295
 20
125.768560285
 30
0.1
 40
2.0
 41
0.0
 71
     1
 72
     1
  1
63
  7
SLDTEXTSTYLE0
 11
-7.044195017643634E-15
 21
1.0
 31
0.0
 73
     1
 44
1.0
  0
ENDBLK
  5
1D4
330
1D2
100
AcDbEntity
  8
0
100
AcDbBlockEnd
  0
BLOCK
  5
1DF
330
1DE
100
AcDbEntity
  8
0
100
AcDbBlockBegin
  2
_D_5
 70
     0
 10
0.0
 20
0.0
 30
0.0
  3
_D_5
  1

  0
SOLID
  5
1E1
330
1DE
100
AcDbEntity
  8
VERMASSUNG
100
AcDbTrace
 10
187.1174845877
 20
143.9635598121
 30
0.0
 11
186.6674845877
 21
140.9635598121
 31
0.0
 12
187.5674845877
 22
140.9635598121
 32
0.0
 13
187.5674845877
 23
140.9635598121
 33
0.0
  0
SOLID
  5
1E2
330
1DE
100
AcDbEntity
  8
VERMASSUNG
100
AcDbTrace
 10
187.1174845877
 20
103.9635598121
 30
0.0
 11
187.5674845877
 21
106.9635598121
 31
0.0
 12
186.6674845877
 22
106.9635598121
 32
0.0
 13
186.6674845877
 23
106.9635598121
 33
0.0
  0
LINE
  5
1E3
330
1DE
100
AcDbEntity
  8
VERMASSUNG
100
AcDbLine
 10
187.1174845877
 20
143.9635598121
 30
0.0
 11
187.1174845877
 21
103.9635598121
 31
0.0
  0
MTEXT
  5
1E4
330
1DE
100
AcDbEntity
  8
VERMASSUNG
100
AcDbMText
 10
184.5393491082
 20
109.2297882839
 30
0.1
 40
2.0
 41
0.0
 71
     1
 72
     1
  1
%%c
  7
SLDTEXTSTYLE0
 11
-7.044195017643634E-15
 21
1.0
 31
0.0
 73
     1
 44
1.0
  0
MTEXT
  5
1E5
330
1DE
100
AcDbEntity
  8
VERMASSUNG
100
AcDbMText
 10
184.3393490987
 20
112.8397882982
 30
0.1
 40
2.0
 41
0.0
 71
     1
 72
     1
  1
40
  7
SLDTEXTSTYLE0
 11
-7.044195017643634E-15
 21
1.0
 31
0.0
 73
     1
 44
1.0
  0
ENDBLK
  5
1E0
330
1DE
100
AcDbEntity
  8
0
100
AcDbBlockEnd
  0
BLOCK
  5
207
330
206
100
AcDbEntity
  8
0
100
AcDbBlockBegin
  2
_D_6
 70
     0
 10
0.0
 20
0.0
 30
0.0
  3
_D_6
  1

  0
SOLID
  5
209
330
206
100
AcDbEntity
  8
VERMASSUNG
100
AcDbTrace
 10
53.9308050863
 20
143.7823816033
 30
0.0
 11
55.820516518
 21
146.1554578147
 31
0.0
 12
55.0410936546
 22
146.6054578147
 32
0.0
 13
55.0410936546
 23
146.6054578147
 33
0.0
  0
SOLID
  5
20A
330
206
100
AcDbEntity
  8
VERMASSUNG
100
AcDbTrace
 10
28.9308050863
 20
100.4811114141
 30
0.0
 11
27.0410936546
 21
98.1080352027
 31
0.0
 12
27.820516518
 22
97.6580352027
 32
0.0
 13
27.820516518
 23
97.6580352027
 33
0.0
  0
LINE
  5
20B
330
206
100
AcDbEntity
  8
VERMASSUNG
100
AcDbLine
 10
53.9308050863
 20
143.7823816033
 30
0.0
 11
53.0647796825
 21
144.2823816033
 31
0.0
  0
LINE
  5
20C
330
206
100
AcDbEntity
  8
VERMASSUNG
100
AcDbLine
 10
28.9308050863
 20
100.4811114141
 30
0.0
 11
28.0647796825
 21
100.9811114141
 31
0.0
  0
LINE
  5
20D
330
206
100
AcDbEntity
  8
VERMASSUNG
100
AcDbLine
 10
53.9308050863
 20
143.7823816033
 30
0.0
 11
56.9308050863
 21
148.978534026
 31
0.0
  0
LINE
  5
20E
330
206
100
AcDbEntity
  8
VERMASSUNG
100
AcDbLine
 10
53.9308050863
 20
143.7823816033
 30
0.0
 11
28.9308050863
 21
100.4811114141
 31
0.0
  0
LINE
  5
20F
330
206
100
AcDbEntity
  8
VERMASSUNG
100
AcDbLine
 10
28.9308050863
 20
100.4811114141
 30
0.0
 11
18.2330162531
 21
81.9519976263
 31
0.0
  0
MTEXT
  5
210
330
206
100
AcDbEntity
  8
VERMASSUNG
100
AcDbMText
 10
16.0002854334
 20
83.241065366
 30
0.1
 40
2.0
 41
0.0
 71
     1
 72
     1
  1
%%c
  7
SLDTEXTSTYLE0
 11
0.499999999999998
 21
0.8660254037844398
 31
0.0
 73
     1
 44
1.0
  0
MTEXT
  5
211
330
206
100
AcDbEntity
  8
VERMASSUNG
100
AcDbMText
 10
17.6320803516
 20
86.4674170908
 30
0.1
 40
2.0
 41
0.0
 71
     1
 72
     1
  1
50
  7
SLDTEXTSTYLE0
 11
0.499999999999998
 21
0.8660254037844398
 31
0.0
 73
     1
 44
1.0
  0
MTEXT
  5
212
330
206
100
AcDbEntity
  8
VERMASSUNG
100
AcDbMText
 10
20.5258306354
 20
91.4795396069
 30
0.1
 40
2.0
 41
0.0
 71
     1
 72
     1
  1
min.
  7
SLDTEXTSTYLE0
 11
0.499999999999998
 21
0.8660254037844398
 31
0.0
 73
     1
 44
1.0
  0
ENDBLK
  5
208
330
206
100
AcDbEntity
  8
0
100
AcDbBlockEnd
  0
BLOCK
  5
216
330
215
100
AcDbEntity
  8
0
100
AcDbBlockBegin
  2
_D_7
 70
     0
 10
0.0
 20
0.0
 30
0.0
  3
_D_7
  1

  0
ARC
  5
218
330
215
100
AcDbEntity
  8
VERMASSUNG
100
AcDbCircle
 10
41.6842415647
 20
101.26423592
 30
0.0
 40
61.60630497076423
100
AcDbArc
 50
90.0
 51
94.0
  0
ARC
  5
219
330
215
100
AcDbEntity
  8
VERMASSUNG
100
AcDbCircle
 10
41.6842415647
 20
101.26423592
 30
0.0
 40
61.60630497076421
100
AcDbArc
 50
84.4258693247
 51
90.0
  0
ARC
  5
21A
330
215
100
AcDbEntity
  8
VERMASSUNG
100
AcDbCircle
 10
41.6842415647
 20
101.26423592
 30
0.0
 40
61.60630497076423
100
AcDbArc
 50
94.0
 51
102.5345570418
  0
SOLID
  5
21B
330
215
100
AcDbEntity
  8
VERMASSUNG
100
AcDbTrace
 10
41.6842415647
 20
162.8705408908
 30
0.0
 11
44.6724068201
 21
162.3476944448
 31
0.0
 12
44.694300705
 22
163.2474281042
 32
0.0
 13
44.694300705
 23
163.2474281042
 33
0.0
  0
SOLID
  5
21C
330
215
100
AcDbEntity
  8
VERMASSUNG
100
AcDbTrace
 10
37.3868029695
 20
162.7204710282
 30
0.0
 11
34.3577858589
 21
162.8864690519
 31
0.0
 12
34.4423886588
 22
161.9904543387
 32
0.0
 13
34.4423886588
 23
161.9904543387
 33
0.0
  0
LINE
  5
21D
330
215
100
AcDbEntity
  8
VERMASSUNG
100
AcDbLine
 10
41.6842415647
 20
157.9635598121
 30
0.0
 11
41.6842415647
 21
163.8705408908
 31
0.0
  0
LINE
  5
21E
330
215
100
AcDbEntity
  8
VERMASSUNG
100
AcDbLine
 10
38.6789383379
 20
144.2420743661
 30
0.0
 11
37.3170464957
 21
163.7180350784
 31
0.0
  0
MTEXT
  5
21F
330
215
100
AcDbEntity
  8
VERMASSUNG
100
AcDbMText
 10
27.8393614556
 20
163.9798773181
 30
-52.3032682109
 40
2.0
 41
0.0
 71
     1
 72
     1
  1
4°
  7
SLDTEXTSTYLE0
 11
0.9835825641064257
 21
0.1804586921869628
 31
0.0
 73
     1
 44
1.0
  0
ENDBLK
  5
217
330
215
100
AcDbEntity
  8
0
100
AcDbBlockEnd
  0
BLOCK
  5
221
330
220
100
AcDbEntity
  8
0
100
AcDbBlockBegin
  2
SW_CENTERMARKSYMBOL_0
 70
     0
 10
0.0
 20
0.0
 30
0.0
  3
SW_CENTERMARKSYMBOL_0
  1

  0
LINE
  5
223
330
220
100
AcDbEntity
  8
VERMASSUNG
 62
     0
100
AcDbLine
 10
0.0
 20
0.0
 30
0.0
 11
0.0
 21
2.5
 31
0.0
  0
LINE
  5
224
330
220
100
AcDbEntity
  8
VERMASSUNG
 62
     0
100
AcDbLine
 10
0.0
 20
0.0
 30
0.0
 11
-2.5
 21
0.0
 31
0.0
  0
LINE
  5
225
330
220
100
AcDbEntity
  8
VERMASSUNG
 62
     0
100
AcDbLine
 10
0.0
 20
0.0
 30
0.0
 11
0.0
 21
-2.5
 31
0.0
  0
LINE
  5
226
330
220
100
AcDbEntity
  8
VERMASSUNG
 62
     0
100
AcDbLine
 10
0.0
 20
0.0
 30
0.0
 11
2.5
 21
0.0
 31
0.0
  0
LINE
  5
227
330
220
100
AcDbEntity
  8
VERMASSUNG
 62
     0
100
AcDbLine
 10
0.0
 20
5.0
 30
0.0
 11
0.0
 21
34.0
 31
0.0
  0
LINE
  5
228
330
220
100
AcDbEntity
  8
VERMASSUNG
 62
     0
100
AcDbLine
 10
-5.0
 20
0.0
 30
0.0
 11
-34.0
 21
0.0
 31
0.0
  0
LINE
  5
229
330
220
100
AcDbEntity
  8
VERMASSUNG
 62
     0
100
AcDbLine
 10
0.0
 20
-5.0
 30
0.0
 11
0.0
 21
-34.0
 31
0.0
  0
LINE
  5
22A
330
220
100
AcDbEntity
  8
VERMASSUNG
 62
     0
100
AcDbLine
 10
5.0
 20
0.0
 30
0.0
 11
34.0
 21
0.0
 31
0.0
  0
ENDBLK
  5
222
330
220
100
AcDbEntity
  8
0
100
AcDbBlockEnd
  0
ENDSEC
  0
SECTION
  2
ENTITIES
  0
MTEXT
  5
49
330
1F
100
AcDbEntity
  8
KOPF_DÜNN
100
AcDbMText
 10
13.8892156294
 20
23.8442973028
 30
0.0
 40
3.0
 41
0.0
 71
     1
 72
     1
  1
PS6.BDB.LQC.140
  7
SLDTEXTSTYLE0
 73
     1
 44
1.0
  0
MTEXT
  5
4A
330
1F
100
AcDbEntity
  8
VERMASSUNG
100
AcDbMText
 10
13.9329988022
 20
28.8834360957
 30
0.0
 40
3.0
 41
0.0
 71
     1
 72
     1
  1
Bohrstange links_Boring bar left
  7
SLDTEXTSTYLE0
 73
     1
 44
1.0
  0
MTEXT
  5
4B
330
1F
100
AcDbEntity
  8
VERMASSUNG
100
AcDbMText
 10
98.8601118557
 20
13.8365368179
 30
0.0
 40
2.0
 41
0.0
 71
     1
 72
     1
  1
Datum: 07.06.2012
  7
SLDTEXTSTYLE0
 73
     1
 44
1.0
  0
MTEXT
  5
4C
330
1F
100
AcDbEntity
  8
VERMASSUNG
100
AcDbMText
 10
13.933048693
 20
18.0482802738
 30
0.0
 40
2.0
 41
0.0
 71
     1
 72
     1
  1
PSC 63
  7
SLDTEXTSTYLE0
 73
     1
 44
1.0
  0
MTEXT
  5
4D
330
1F
100
AcDbEntity
  8
VERMASSUNG
100
AcDbMText
 10
13.9808475933
 20
13.9090973692
 30
0.0
 40
2.0
 41
0.0
 71
     1
 72
     1
  1
Gewicht: 1687g
  7
SLDTEXTSTYLE0
 73
     1
 44
1.0
  0
LINE
  5
4E
330
1F
100
AcDbEntity
  8
0
  6
Continuous
 62
     7
370
    15
100
AcDbLine
 10
133.5580044423
 20
92.4635593055
 30
0.0
 11
154.0580041354
 21
92.4635593055
 31
0.0
  0
LINE
  5
4F
330
1F
100
AcDbEntity
  8
0
  6
Continuous
 62
     7
370
    15
100
AcDbLine
 10
154.0580041354
 20
155.4635603188
 30
0.0
 11
133.5580044423
 21
155.4635603188
 31
0.0
  0
ARC
  5
50
330
1F
100
AcDbEntity
  8
0
  6
Continuous
 62
     7
370
    15
100
AcDbCircle
 10
133.5580044185
 20
92.9635598121
 30
0.0
 40
0.5000000000000426
100
AcDbArc
 50
180.0
 51
270.0
  0
ARC
  5
51
330
1F
100
AcDbEntity
  8
0
  6
Continuous
 62
     7
370
    15
100
AcDbCircle
 10
133.5580044185
 20
154.9635598121
 30
0.0
 40
0.5000000000000568
100
AcDbArc
 50
90.0
 51
180.0
  0
ARC
  5
52
330
1F
100
AcDbEntity
  8
0
  6
Continuous
 62
     7
370
    15
100
AcDbCircle
 10
154.0580044185
 20
93.4635598121
 30
0.0
 40
1.000000000000057
100
AcDbArc
 50
270.0
 51
360.0
  0
ARC
  5
53
330
1F
100
AcDbEntity
  8
0
  6
Continuous
 62
     7
370
    15
100
AcDbCircle
 10
154.0580044185
 20
154.4635598121
 30
0.0
 40
1.000000000000057
100
AcDbArc
 50
0.0
 51
90.0
  0
LWPOLYLINE
  5
54
330
1F
100
AcDbEntity
  8
0
  6
Continuous
 62
     7
370
    15
100
AcDbPolyline
 90
        3
 70
   128
 43
0.0
 10
132.8580044236
 20
101.4237392901
 10
132.9834593588
 20
101.3554379551
 10
133.0580044185
 20
101.3026990203
  0
LWPOLYLINE
  5
55
330
1F
100
AcDbEntity
  8
0
  6
Continuous
 62
     7
370
    15
100
AcDbPolyline
 90
        3
 70
   128
 43
0.0
 10
133.0580044185
 20
146.6244206039
 10
132.9834593588
 20
146.5716816692
 10
132.8580044236
 20
146.5033803342
  0
ARC
  5
56
330
1F
100
AcDbEntity
  8
0
  6
Continuous
 62
     7
370
    15
100
AcDbCircle
 10
159.0580044185
 20
99.9635598121
 30
0.0
 40
4.000000000000028
100
AcDbArc
 50
90.0
 51
180.0
  0
ARC
  5
57
330
1F
100
AcDbEntity
  8
0
  6
Continuous
 62
     7
370
    15
100
AcDbCircle
 10
159.0580044185
 20
147.9635598121
 30
0.0
 40
4.0
100
AcDbArc
 50
180.0
 51
270.0
  0
LINE
  5
58
330
1F
100
AcDbEntity
  8
0
  6
Continuous
 62
     7
370
    15
100
AcDbLine
 10
247.0580044781
 20
143.9635593651
 30
0.0
 11
159.058004955
 21
143.9635593651
 31
0.0
  0
LINE
  5
59
330
1F
100
AcDbEntity
  8
0
  6
Continuous
 62
     7
370
    15
100
AcDbLine
 10
159.058004955
 20
103.9635602592
 30
0.0
 11
247.0580044781
 21
103.9635602592
 31
0.0
  0
LINE
  5
5A
330
1F
100
AcDbEntity
  8
0
  6
Continuous
 62
     7
370
    15
100
AcDbLine
 10
247.5580054914
 20
144.4635603784
 30
0.0
 11
247.0580044781
 21
143.9635593651
 31
0.0
  0
LINE
  5
5B
330
1F
100
AcDbEntity
  8
0
  6
Continuous
 62
     7
370
    15
100
AcDbLine
 10
247.0580044781
 20
103.9635602592
 30
0.0
 11
247.9453760778
 21
103.0761867969
 31
0.0
  0
LINE
  5
5C
330
1F
100
AcDbEntity
  8
0
  6
Continuous
 62
     7
370
    15
100
AcDbLine
 10
257.7318925058
 20
144.4635603784
 30
0.0
 11
247.5580054914
 21
144.4635603784
 31
0.0
  0
LINE
  5
5D
330
1F
100
AcDbEntity
  8
0
  6
Continuous
 62
     7
370
    15
100
AcDbLine
 10
265.0563347732
 20
105.22017332
 30
0.0
 11
265.0563347732
 21
105.3142778782
 31
0.0
  0
LINE
  5
5E
330
1F
100
AcDbEntity
  8
0
  6
Continuous
 62
     7
370
    15
100
AcDbLine
 10
266.9604349529
 20
104.8858620433
 30
0.0
 11
266.9604349529
 21
104.7931116281
 31
0.0
  0
LINE
  5
5F
330
1F
100
AcDbEntity
  8
0
  6
Continuous
 62
     7
370
    15
100
AcDbLine
 10
264.808379451
 20
103.4495186268
 30
0.0
 11
264.808379451
 21
103.5423286466
 31
0.0
  0
LINE
  5
60
330
1F
100
AcDbEntity
  8
0
  6
Continuous
 62
     7
370
    15
100
AcDbLine
 10
266.7124796306
 20
103.1139128117
 30
0.0
 11
266.7124796306
 21
103.0198231546
 31
0.0
  0
LINE
  5
61
330
1F
100
AcDbEntity
  8
0
  6
Continuous
 62
     7
370
    15
100
AcDbLine
 10
268.511720339
 20
104.1365850924
 30
0.0
 11
268.511720339
 21
104.1871279685
 31
0.0
  0
LINE
  5
62
330
1F
100
AcDbEntity
  8
0
  6
Continuous
 62
     7
370
    15
100
AcDbLine
 10
263.261728326
 20
104.1871279685
 30
0.0
 11
263.261728326
 21
104.1365850924
 31
0.0
  0
SPLINE
  5
63
330
1F
100
AcDbEntity
  8
0
  6
Continuous
 62
     7
370
    15
100
AcDbSpline
210
0.0
220
0.0
230
1.0
 70
     8
 71
     3
 72
    12
 73
     8
 74
     0
 42
0.00000001
 43
0.00000001
 12
1.0
 22
0.0
 32
0.0
 13
1.0
 23
0.0
 33
0.0
 40
0.0
 40
0.0
 40
0.0
 40
0.0
 40
0.2500000000000009
 40
0.2500000000000009
 40
0.5000000000000019
 40
0.5000000000000019
 40
1.0
 40
1.0
 40
1.0
 40
1.0
 10
143.5857612321012
 20
133.3516262434732
 30
0.0
 10
143.5226811936078
 20
133.3516262434732
 30
0.0
 10
143.4635325714263
 20
133.376990562688
 30
0.0
 10
143.3650600213573
 20
133.451155423061
 30
0.0
 10
143.3260234093725
 20
133.4976757636151
 30
0.0
 10
143.2261269425936
 20
133.6478181064604
 30
0.0
 10
143.1837060615267
 20
133.7595113134326
 30
0.0
 10
143.1527485302089
 20
133.8729291328223
 30
0.0
  0
LINE
  5
64
330
1F
100
AcDbEntity
  8
0
  6
Continuous
 62
     7
370
    15
100
AcDbLine
 10
146.5302476307
 20
133.3516266404
 30
0.0
 11
143.585761415
 21
133.3516266404
 31
0.0
  0
SPLINE
  5
65
330
1F
100
AcDbEntity
  8
0
  6
Continuous
 62
     7
370
    15
100
AcDbSpline
210
0.0
220
0.0
230
1.0
 70
     8
 71
     3
 72
    12
 73
     8
 74
     0
 42
0.00000001
 43
0.00000001
 12
1.0
 22
0.0
 32
0.0
 13
1.0
 23
0.0
 33
0.0
 40
0.0
 40
0.0
 40
0.0
 40
0.0
 40
0.5
 40
0.5
 40
0.75
 40
0.75
 40
1.0
 40
1.0
 40
1.0
 40
1.0
 10
146.9632603068605
 20
133.8729291328223
 30
0.0
 10
146.9325380649414
 20
133.7603733334132
 30
0.0
 10
146.8897008504061
 20
133.6476154736736
 30
0.0
 10
146.7902738262065
 20
133.4980745878772
 30
0.0
 10
146.7505216313897
 20
133.4507818561704
 30
0.0
 10
146.6524801745316
 20
133.3770455628489
 30
0.0
 10
146.5929241189441
 20
133.3516262434732
 30
0.0
 10
146.5302476049683
 20
133.3516262434732
 30
0.0
  0
ELLIPSE
  5
66
330
1F
100
AcDbEntity
  8
0
  6
Continuous
 62
     7
370
    15
100
AcDbEllipse
 10
130.7108502292
 20
123.9635598121
 30
0.0
 11
14.75368316065601
 21
31.09325491558121
 31
0.0
210
0.0
220
0.0
230
1.0
 40
0.3419987131
 41
5.193281737408617
 42
6.124043104552322
  0
SPLINE
  5
67
330
1F
100
AcDbEntity
  8
0
  6
Continuous
 62
     7
370
    15
100
AcDbSpline
210
0.0
220
0.0
230
1.0
 70
     8
 71
     3
 72
    12
 73
     8
 74
     0
 42
0.00000001
 43
0.00000001
 12
1.0
 22
0.0
 32
0.0
 13
1.0
 23
0.0
 33
0.0
 40
0.0
 40
0.0
 40
0.0
 40
0.0
 40
0.2500000000000023
 40
0.2500000000000023
 40
0.5000000000000046
 40
0.5000000000000046
 40
1.0
 40
1.0
 40
1.0
 40
1.0
 10
146.5302476049683
 20
154.0320517710105
 30
0.0
 10
146.5933276434616
 20
154.0320517710105
 30
0.0
 10
146.652476265643
 20
154.0241458447979
 30
0.0
 10
146.7509488157121
 20
154.0008206833617
 30
0.0
 10
146.7899854276968
 20
153.98610789353
 30
0.0
 10
146.8898818944759
 20
153.9381520927991
 30
0.0
 10
146.9323027755424
 20
153.901889936219
 30
0.0
 10
146.9632603068605
 20
153.8643022722545
 30
0.0
  0
LINE
  5
68
330
1F
100
AcDbEntity
  8
0
  6
Continuous
 62
     7
370
    15
100
AcDbLine
 10
143.585761415
 20
154.032052329
 30
0.0
 11
146.5302476307
 21
154.032052329
 31
0.0
  0
SPLINE
  5
69
330
1F
100
AcDbEntity
  8
0
  6
Continuous
 62
     7
370
    15
100
AcDbSpline
210
0.0
220
0.0
230
1.0
 70
     8
 71
     3
 72
    12
 73
     8
 74
     0
 42
0.00000001
 43
0.00000001
 12
1.0
 22
0.0
 32
0.0
 13
1.0
 23
0.0
 33
0.0
 40
0.0
 40
0.0
 40
0.0
 40
0.0
 40
0.4999999999999971
 40
0.4999999999999971
 40
0.7499999999999986
 40
0.7499999999999986
 40
1.0
 40
1.0
 40
1.0
 40
1.0
 10
143.1527485302089
 20
153.8643022722545
 30
0.0
 10
143.183470772128
 20
153.9016042552076
 30
0.0
 10
143.2263079866631
 20
153.938216087254
 30
0.0
 10
143.3257350108629
 20
153.9859808705392
 30
0.0
 10
143.3654872056796
 20
154.0009383860215
 30
0.0
 10
143.4635286625378
 20
154.0241283317907
 30
0.0
 10
143.5230847181253
 20
154.0320517710104
 30
0.0
 10
143.5857612321012
 20
154.0320517710104
 30
0.0
  0
ELLIPSE
  5
6A
330
1F
100
AcDbEntity
  8
0
  6
Continuous
 62
     7
370
    15
100
AcDbEllipse
 10
159.4051586079
 20
123.9635598121
 30
0.0
 11
-14.75368316065604
 21
31.09325491558118
 31
0.0
210
0.0
220
0.0
230
1.0
 40
0.3419987131
 41
0.1591422026273024
 42
1.08990356977098
  0
SPLINE
  5
6B
330
1F
100
AcDbEntity
  8
0
  6
Continuous
 62
     7
370
    15
100
AcDbSpline
210
0.0
220
0.0
230
1.0
 70
     8
 71
     3
 72
    12
 73
     8
 74
     0
 42
0.00000001
 43
0.00000001
 12
1.0
 22
0.0
 32
0.0
 13
1.0
 23
0.0
 33
0.0
 40
0.0
 40
0.0
 40
0.0
 40
0.0
 40
0.2500000000000014
 40
0.2500000000000014
 40
0.5000000000000028
 40
0.5000000000000028
 40
1.0
 40
1.0
 40
1.0
 40
1.0
 10
143.5857612321012
 20
93.89506785326411
 30
0.0
 10
143.5227042772034
 20
93.89506785326411
 30
0.0
 10
143.4635741274578
 20
93.90296818434378
 30
0.0
 10
143.3651265769246
 20
93.92627893234884
 30
0.0
 10
143.3260943387365
 20
93.94098405863245
 30
0.0
 10
143.2262044542796
 20
93.98891758681911
 30
0.0
 10
143.1839054806701
 20
94.02498755958375
 30
0.0
 10
143.1527485302089
 20
94.06281735201998
 30
0.0
  0
LINE
  5
6C
330
1F
100
AcDbEntity
  8
0
  6
Continuous
 62
     7
370
    15
100
AcDbLine
 10
146.5302476307
 20
93.8950672953
 30
0.0
 11
143.585761415
 21
93.8950672953
 31
0.0
  0
SPLINE
  5
6D
330
1F
100
AcDbEntity
  8
0
  6
Continuous
 62
     7
370
    15
100
AcDbSpline
210
0.0
220
0.0
230
1.0
 70
     8
 71
     3
 72
    12
 73
     8
 74
     0
 42
0.00000001
 43
0.00000001
 12
1.0
 22
0.0
 32
0.0
 13
1.0
 23
0.0
 33
0.0
 40
0.0
 40
0.0
 40
0.0
 40
0.0
 40
0.499999999999999
 40
0.499999999999999
 40
0.7499999999999994
 40
0.7499999999999994
 40
1.0
 40
1.0
 40
1.0
 40
1.0
 10
146.9632603068605
 20
94.06281735201998
 30
0.0
 10
146.9321151088984
 20
94.02500182909978
 30
0.0
 10
146.8898408425639
 20
93.98893497101629
 30
0.0
 10
146.7898953087386
 20
93.94097490600501
 30
0.0
 10
146.7501650040345
 20
93.92611393210736
 30
0.0
 10
146.6532769540283
 20
93.90316278597622
 30
0.0
 10
146.5932117122818
 20
93.8950678532641
 30
0.0
 10
146.5302476049683
 20
93.8950678532641
 30
0.0
  0
ELLIPSE
  5
6E
330
1F
100
AcDbEntity
  8
0
  6
Continuous
 62
     7
370
    15
100
AcDbEllipse
 10
130.7108502292
 20
123.9635598121
 30
0.0
 11
-14.75368316065615
 21
31.09325491558121
 31
0.0
210
0.0
220
0.0
230
1.0
 40
0.3419987131
 41
3.300734856217126
 42
4.231496223360775
  0
SPLINE
  5
6F
330
1F
100
AcDbEntity
  8
0
  6
Continuous
 62
     7
370
    15
100
AcDbSpline
210
0.0
220
0.0
230
1.0
 70
     8
 71
     3
 72
    12
 73
     8
 74
     0
 42
0.00000001
 43
0.00000001
 12
1.0
 22
0.0
 32
0.0
 13
1.0
 23
0.0
 33
0.0
 40
0.0
 40
0.0
 40
0.0
 40
0.0
 40
0.2500000000000009
 40
0.2500000000000009
 40
0.5000000000000018
 40
0.5000000000000018
 40
1.0
 40
1.0
 40
1.0
 40
1.0
 10
146.5302476049683
 20
114.575493380801
 30
0.0
 10
146.5933045598661
 20
114.575493380801
 30
0.0
 10
146.6524347096116
 20
114.5501470274203
 30
0.0
 10
146.7508822601449
 20
114.4760276452809
 30
0.0
 10
146.789914498333
 20
114.4295311305828
 30
0.0
 10
146.88980438279
 20
114.2794566235743
 30
0.0
 10
146.9321033563993
 20
114.1683389144594
 30
0.0
 10
146.9632603068606
 20
114.0541904914519
 30
0.0
  0
LINE
  5
70
330
1F
100
AcDbEntity
  8
0
  6
Continuous
 62
     7
370
    15
100
AcDbLine
 10
143.585761415
 20
114.5754929839
 30
0.0
 11
146.5302476307
 21
114.5754929839
 31
0.0
  0
SPLINE
  5
71
330
1F
100
AcDbEntity
  8
0
  6
Continuous
 62
     7
370
    15
100
AcDbSpline
210
0.0
220
0.0
230
1.0
 70
     8
 71
     3
 72
    12
 73
     8
 74
     0
 42
0.00000001
 43
0.00000001
 12
1.0
 22
0.0
 32
0.0
 13
1.0
 23
0.0
 33
0.0
 40
0.0
 40
0.0
 40
0.0
 40
0.0
 40
0.4999999999999971
 40
0.4999999999999971
 40
0.7499999999999986
 40
0.7499999999999986
 40
1.0
 40
1.0
 40
1.0
 40
1.0
 10
143.1527485302089
 20
114.0541904914519
 30
0.0
 10
143.183893728171
 20
114.1682958573172
 30
0.0
 10
143.2261679945055
 20
114.279402184536
 30
0.0
 10
143.3261135283308
 20
114.4295597919663
 30
0.0
 10
143.3658438330349
 20
114.4765524835836
 30
0.0
 10
143.4627318830411
 20
114.5495280681221
 30
0.0
 10
143.5227971247876
 20
114.5754933808011
 30
0.0
 10
143.5857612321011
 20
114.5754933808011
 30
0.0
  0
ELLIPSE
  5
72
330
1F
100
AcDbEntity
  8
0
  6
Continuous
 62
     7
370
    15
100
AcDbEllipse
 10
159.4051586079
 20
123.9635598121
 30
0.0
 11
14.75368316065618
 21
31.09325491558117
 31
0.0
210
0.0
220
0.0
230
1.0
 40
0.3419987131
 41
2.051689083818826
 42
2.9824504509625
  0
LINE
  5
73
330
1F
100
AcDbEntity
  8
0
  6
Continuous
 62
     7
370
    15
100
AcDbLine
 10
133.0580044185
 20
92.9635603188
 30
0.0
 11
133.0580044185
 21
154.9635593055
 31
0.0
  0
LINE
  5
74
330
1F
100
AcDbEntity
  8
0
  6
Continuous
 62
     7
370
    15
100
AcDbLine
 10
155.0580042993
 20
154.4635601549
 30
0.0
 11
155.0580042993
 21
93.4635594694
 31
0.0
  0
SPLINE
  5
75
330
1F
100
AcDbEntity
  8
0
  6
Continuous
 62
     7
370
    15
100
AcDbSpline
210
0.0
220
0.0
230
1.0
 70
     8
 71
     3
 72
    12
 73
     8
 74
     0
 42
0.00000001
 43
0.00000001
 12
1.0
 22
0.0
 32
0.0
 13
1.0
 23
0.0
 33
0.0
 40
0.0
 40
0.0
 40
0.0
 40
0.0
 40
0.5000000000000001
 40
0.5000000000000001
 40
0.7499999999999999
 40
0.7499999999999999
 40
1.0
 40
1.0
 40
1.0
 40
1.0
 10
132.2414921320783
 20
102.1087661096615
 30
0.0
 10
132.2979286329854
 20
102.1073482283198
 30
0.0
 10
132.3670132636742
 20
102.1057838920714
 30
0.0
 10
132.4858155353921
 20
102.102839700097
 30
0.0
 10
132.5260008108622
 20
102.1018014969996
 30
0.0
 10
132.599381858266
 20
102.099867601785
 30
0.0
 10
132.6327914220086
 20
102.0989727144962
 30
0.0
 10
132.663027529665
 20
102.0981889242238
 30
0.0
  0
SPLINE
  5
76
330
1F
100
AcDbEntity
  8
0
  6
Continuous
 62
     7
370
    15
100
AcDbSpline
210
0.0
220
0.0
230
1.0
 70
     8
 71
     3
 72
    16
 73
    12
 74
     0
 42
0.00000001
 43
0.00000001
 12
1.0
 22
0.0
 32
0.0
 13
1.0
 23
0.0
 33
0.0
 40
0.0
 40
0.0
 40
0.0
 40
0.0
 40
0.0624999999999995
 40
0.0624999999999995
 40
0.1249999999999991
 40
0.1249999999999991
 40
0.2499999999999981
 40
0.2499999999999981
 40
0.4999999999999962
 40
0.4999999999999962
 40
1.0
 40
1.0
 40
1.0
 40
1.0
 10
132.6630275296278
 20
102.0981889242481
 30
0.0
 10
132.6746079372158
 20
102.0978887331367
 30
0.0
 10
132.6879174639771
 20
102.0965609848778
 30
0.0
 10
132.7172188940633
 20
102.0898623101027
 30
0.0
 10
132.7320329939477
 20
102.084504126997
 30
0.0
 10
132.7678613956505
 20
102.0674584778296
 30
0.0
 10
132.7819810200135
 20
102.0559959400539
 30
0.0
 10
132.816485164102
 20
102.0244326146817
 30
0.0
 10
132.8275897148066
 20
102.0065353156364
 30
0.0
 10
132.8537658920227
 20
101.9563738980222
 30
0.0
 10
132.8580044185348
 20
101.9286294858256
 30
0.0
 10
132.8580044185347
 20
101.9039653238961
 30
0.0
  0
LINE
  5
77
330
1F
100
AcDbEntity
  8
0
  6
Continuous
 62
     7
370
    15
100
AcDbLine
 10
132.8580044236
 20
116.9416725842
 30
0.0
 11
132.8580044236
 21
101.4237392901
 31
0.0
  0
SPLINE
  5
78
330
1F
100
AcDbEntity
  8
0
  6
Continuous
 62
     7
370
    15
100
AcDbSpline
210
0.0
220
0.0
230
1.0
 70
     8
 71
     3
 72
    16
 73
    12
 74
     0
 42
0.00000001
 43
0.00000001
 12
1.0
 22
0.0
 32
0.0
 13
1.0
 23
0.0
 33
0.0
 40
0.0
 40
0.0
 40
0.0
 40
0.0
 40
0.5000000000000018
 40
0.5000000000000018
 40
0.7500000000000027
 40
0.7500000000000027
 40
0.8750000000000014
 40
0.8750000000000014
 40
0.9375000000000008
 40
0.9375000000000008
 40
1.0
 40
1.0
 40
1.0
 40
1.0
 10
132.8580044185347
 20
116.9416724863872
 30
0.0
 10
132.8580044185347
 20
117.0553650305151
 30
0.0
 10
132.8538581434568
 20
117.1696851918646
 30
0.0
 10
132.8278925480633
 20
117.3427334823617
 30
0.0
 10
132.8164316426859
 20
117.4019089895234
 30
0.0
 10
132.7821199049115
 20
117.4850321089916
 30
0.0
 10
132.7680951689819
 20
117.5131534250923
 30
0.0
 10
132.7320722059482
 20
117.5417692390697
 30
0.0
 10
132.7173176968585
 20
117.5475622869715
 30
0.0
 10
132.6879655357116
 20
117.5459688610345
 30
0.0
 10
132.6746256612074
 20
117.5394724577107
 30
0.0
 10
132.6630275296591
 20
117.5309567115075
 30
0.0
  0
SPLINE
  5
79
330
1F
100
AcDbEntity
  8
0
  6
Continuous
 62
     7
370
    15
100
AcDbSpline
210
0.0
220
0.0
230
1.0
 70
     8
 71
     3
 72
    12
 73
     8
 74
     0
 42
0.00000001
 43
0.00000001
 12
1.0
 22
0.0
 32
0.0
 13
1.0
 23
0.0
 33
0.0
 40
0.0
 40
0.0
 40
0.0
 40
0.0
 40
0.2500000000000001
 40
0.2500000000000001
 40
0.5000000000000001
 40
0.5000000000000001
 40
1.0
 40
1.0
 40
1.0
 40
1.0
 10
132.6630275296661
 20
117.5309567114984
 30
0.0
 10
132.6328290882255
 20
117.5087839794534
 30
0.0
 10
132.5994617328895
 20
117.4897043235761
 30
0.0
 10
132.5263064570596
 20
117.4645312791335
 30
0.0
 10
132.4860537580356
 20
117.4589747427167
 30
0.0
 10
132.3683250147608
 20
117.4698865537034
 30
0.0
 10
132.2978665667019
 20
117.5118223091143
 30
0.0
 10
132.2414921320837
 20
117.5610340914958
 30
0.0
  0
SPLINE
  5
7A
330
1F
100
AcDbEntity
  8
0
  6
Continuous
 62
     7
370
    15
100
AcDbSpline
210
0.0
220
0.0
230
1.0
 70
     8
 71
     3
 72
    12
 73
     8
 74
     0
 42
0.00000001
 43
0.00000001
 12
1.0
 22
0.0
 32
0.0
 13
1.0
 23
0.0
 33
0.0
 40
0.0
 40
0.0
 40
0.0
 40
0.0
 40
0.5000000000000014
 40
0.5000000000000014
 40
0.7500000000000007
 40
0.7500000000000007
 40
1.0
 40
1.0
 40
1.0
 40
1.0
 10
131.7366840749751
 20
118.7773854833763
 30
0.0
 10
131.7804344268595
 20
118.5569384984017
 30
0.0
 10
131.833324577984
 20
118.3413935085962
 30
0.0
 10
131.9449361211257
 20
118.0289794320242
 30
0.0
 10
131.9874954650292
 20
117.9268999564083
 30
0.0
 10
132.0924727003666
 20
117.7324599437665
 30
0.0
 10
132.1540399434612
 20
117.6373750447029
 30
0.0
 10
132.2414921320836
 20
117.5610340914957
 30
0.0
  0
SPLINE
  5
7B
330
1F
100
AcDbEntity
  8
0
  6
Continuous
 62
     7
370
    15
100
AcDbSpline
210
0.0
220
0.0
230
1.0
 70
     8
 71
     3
 72
    12
 73
     8
 74
     0
 42
0.00000001
 43
0.00000001
 12
1.0
 22
0.0
 32
0.0
 13
1.0
 23
0.0
 33
0.0
 40
0.0
 40
0.0
 40
0.0
 40
0.0
 40
0.2500000000000008
 40
0.2500000000000008
 40
0.5000000000000016
 40
0.5000000000000016
 40
1.0
 40
1.0
 40
1.0
 40
1.0
 10
132.2414921320835
 20
130.3660855327789
 30
0.0
 10
132.1529987245156
 20
130.2888356526706
 30
0.0
 10
132.0929406837497
 20
130.1955163287814
 30
0.0
 10
131.9870924107672
 20
129.9994832758119
 30
0.0
 10
131.9445588894897
 20
129.8971569176002
 30
0.0
 10
131.833407582666
 20
129.5858125118243
 30
0.0
 10
131.7804767256183
 20
129.3703942586463
 30
0.0
 10
131.7366840749751
 20
129.1497341408984
 30
0.0
  0
SPLINE
  5
7C
330
1F
100
AcDbEntity
  8
0
  6
Continuous
 62
     7
370
    15
100
AcDbSpline
210
0.0
220
0.0
230
1.0
 70
     8
 71
     3
 72
    12
 73
     8
 74
     0
 42
0.00000001
 43
0.00000001
 12
1.0
 22
0.0
 32
0.0
 13
1.0
 23
0.0
 33
0.0
 40
0.0
 40
0.0
 40
0.0
 40
0.0
 40
0.4999999999999998
 40
0.4999999999999998
 40
0.7499999999999999
 40
0.7499999999999999
 40
1.0
 40
1.0
 40
1.0
 40
1.0
 10
132.2414921320835
 20
130.3660855327788
 30
0.0
 10
132.2978006803792
 20
130.4152398000227
 30
0.0
 10
132.3680753410972
 20
130.4571971186264
 30
0.0
 10
132.4861132554208
 20
130.4681567961588
 30
0.0
 10
132.5262894962747
 20
130.4626480379115
 30
0.0
 10
132.6002465909527
 20
130.4370908091225
 30
0.0
 10
132.6328629786641
 20
130.4183107612832
 30
0.0
 10
132.6630275296599
 20
130.3961629127665
 30
0.0
  0
SPLINE
  5
7D
330
1F
100
AcDbEntity
  8
0
  6
Continuous
 62
     7
370
    15
100
AcDbSpline
210
0.0
220
0.0
230
1.0
 70
     8
 71
     3
 72
    16
 73
    12
 74
     0
 42
0.00000001
 43
0.00000001
 12
1.0
 22
0.0
 32
0.0
 13
1.0
 23
0.0
 33
0.0
 40
0.0
 40
0.0
 40
0.0
 40
0.0
 40
0.0624999999999986
 40
0.0624999999999986
 40
0.1249999999999973
 40
0.1249999999999973
 40
0.2499999999999967
 40
0.2499999999999967
 40
0.499999999999999
 40
0.499999999999999
 40
1.0
 40
1.0
 40
1.0
 40
1.0
 10
132.6630275296281
 20
130.396162912712
 30
0.0
 10
132.6746404294675
 20
130.3876363231168
 30
0.0
 10
132.6879916139
 20
130.381136061584
 30
0.0
 10
132.7173914535191
 20
130.3795666644665
 30
0.0
 10
132.7322321780744
 20
130.3854500550971
 30
0.0
 10
132.768065386043
 20
130.4139976911477
 30
0.0
 10
132.7821785938646
 20
130.4421647104535
 30
0.0
 10
132.8166699650835
 20
130.5259189688754
 30
0.0
 10
132.8277540361939
 20
130.5836323824969
 30
0.0
 10
132.8538768539899
 20
130.7572229191427
 30
0.0
 10
132.8580044185347
 20
130.8722509717846
 30
0.0
 10
132.8580044185347
 20
130.9854471378875
 30
0.0
  0
LINE
  5
7E
330
1F
100
AcDbEntity
  8
0
  6
Continuous
 62
     7
370
    15
100
AcDbLine
 10
132.8580044236
 20
146.5033803342
 30
0.0
 11
132.8580044236
 21
130.98544704
 31
0.0
  0
SPLINE
  5
7F
330
1F
100
AcDbEntity
  8
0
  6
Continuous
 62
     7
370
    15
100
AcDbSpline
210
0.0
220
0.0
230
1.0
 70
     8
 71
     3
 72
    16
 73
    12
 74
     0
 42
0.00000001
 43
0.00000001
 12
1.0
 22
0.0
 32
0.0
 13
1.0
 23
0.0
 33
0.0
 40
0.0
 40
0.0
 40
0.0
 40
0.0
 40
0.5000000000000044
 40
0.5000000000000044
 40
0.7500000000000049
 40
0.7500000000000049
 40
0.8750000000000042
 40
0.8750000000000042
 40
0.9375000000000021
 40
0.9375000000000021
 40
1.0
 40
1.0
 40
1.0
 40
1.0
 10
132.8580044185347
 20
146.0231543003786
 30
0.0
 10
132.8580044185347
 20
145.9984831443357
 30
0.0
 10
132.8538387200747
 20
145.9709013129444
 30
0.0
 10
132.8275803917498
 20
145.9205584421211
 30
0.0
 10
132.8160766100122
 20
145.9022689440592
 30
0.0
 10
132.7819458506657
 20
145.8711139130222
 30
0.0
 10
132.767523963995
 20
145.8594745378105
 30
0.0
 10
132.7319569955572
 20
145.8425925118794
 30
0.0
 10
132.7170052272625
 20
145.8372034080717
 30
0.0
 10
132.6880014089027
 20
145.8305829121272
 30
0.0
 10
132.6745860548935
 20
145.8292303239208
 30
0.0
 10
132.6630275296569
 20
145.8289307000491
 30
0.0
  0
SPLINE
  5
80
330
1F
100
AcDbEntity
  8
0
  6
Continuous
 62
     7
370
    15
100
AcDbSpline
210
0.0
220
0.0
230
1.0
 70
     8
 71
     3
 72
    12
 73
     8
 74
     0
 42
0.00000001
 43
0.00000001
 12
1.0
 22
0.0
 32
0.0
 13
1.0
 23
0.0
 33
0.0
 40
0.0
 40
0.0
 40
0.0
 40
0.0
 40
0.2499999999999997
 40
0.2499999999999997
 40
0.4999999999999994
 40
0.4999999999999994
 40
1.0
 40
1.0
 40
1.0
 40
1.0
 10
132.6630275296661
 20
145.8289307000509
 30
0.0
 10
132.6328397531165
 20
145.8281481626333
 30
0.0
 10
132.5994859490248
 20
145.8272548308148
 30
0.0
 10
132.5263597458288
 20
145.8253275220112
 30
0.0
 10
132.4861245428047
 20
145.8242879907986
 30
0.0
 10
132.3684329126716
 20
145.8213701074513
 30
0.0
 10
132.2980522395116
 20
145.8197745013811
 30
0.0
 10
132.241492132081
 20
145.8183535146132
 30
0.0
  0
SPLINE
  5
81
330
1F
100
AcDbEntity
  8
0
  6
Continuous
 62
     7
370
    15
100
AcDbSpline
210
0.0
220
0.0
230
1.0
 70
     8
 71
     3
 72
    16
 73
    12
 74
     0
 42
0.00000001
 43
0.00000001
 12
1.0
 22
0.0
 32
0.0
 13
1.0
 23
0.0
 33
0.0
 40
0.0
 40
0.0
 40
0.0
 40
0.0
 40
0.2500000000000001
 40
0.2500000000000001
 40
0.3750000000000001
 40
0.3750000000000001
 40
0.5000000000000001
 40
0.5000000000000001
 40
0.7500000000000001
 40
0.7500000000000001
 40
1.0
 40
1.0
 40
1.0
 40
1.0
 10
131.736684074975
 20
129.1497341408984
 30
0.0
 10
131.5754515974906
 20
128.3373243656516
 30
0.0
 10
131.454971757851
 20
127.4972460712669
 30
0.0
 10
131.3325912405377
 20
126.1959510219041
 30
0.0
 10
131.3016135801402
 20
125.7552699863193
 30
0.0
 10
131.2599998425122
 20
124.8594303453882
 30
0.0
 10
131.2497639295794
 20
124.4127722141857
 30
0.0
 10
131.2495755325233
 20
123.0774622570458
 30
0.0
 10
131.2897202351609
 20
122.1929668837383
 30
0.0
 10
131.4538739901005
 20
120.4357169957122
 30
0.0
 10
131.57542564051
 20
119.5899260492991
 30
0.0
 10
131.736684074975
 20
118.7773854833762
 30
0.0
  0
LINE
  5
82
330
1F
100
AcDbEntity
  8
0
  6
Continuous
 62
     7
370
    15
100
AcDbLine
 10
130.8580044305
 20
130.4487379475
 30
0.0
 11
130.8580044305
 21
117.4783816768
 31
0.0
  0
LINE
  5
83
330
1F
100
AcDbEntity
  8
0
  6
Continuous
 62
     7
370
    15
100
AcDbLine
 10
96.558004955
 20
130.0178704059
 30
0.0
 11
96.558004955
 21
117.9092492184
 31
0.0
  0
LINE
  5
84
330
1F
100
AcDbEntity
  8
0
  6
Continuous
 62
     7
370
    15
100
AcDbLine
 10
95.0580056404
 20
129.5848575628
 30
0.0
 11
95.0580056404
 21
118.3422620615
 31
0.0
  0
LINE
  5
85
330
1F
100
AcDbEntity
  8
0
  6
Continuous
 62
     7
370
    15
100
AcDbLine
 10
130.8580044305
 20
101.9434601275
 30
0.0
 11
130.8580044305
 21
117.4783816768
 31
0.0
  0
ARC
  5
86
330
1F
100
AcDbEntity
  8
0
  6
Continuous
 62
     7
370
    15
100
AcDbCircle
 10
131.0579413295
 20
101.9384379164
 30
0.0
 40
0.1999999999999931
100
AcDbArc
 50
88.5608333333
 51
178.5608333333
  0
LINE
  5
87
330
1F
100
AcDbEntity
  8
0
  6
Continuous
 62
     7
370
    15
100
AcDbLine
 10
96.558004955
 20
102.805196142
 30
0.0
 11
96.558004955
 21
117.9092492184
 31
0.0
  0
LINE
  5
88
330
1F
100
AcDbEntity
  8
0
  6
Continuous
 62
     7
370
    15
100
AcDbLine
 10
96.558004955
 20
102.805196142
 30
0.0
 11
130.8580044305
 21
101.9434601275
 31
0.0
  0
LINE
  5
89
330
1F
100
AcDbEntity
  8
0
  6
Continuous
 62
     7
370
    15
100
AcDbLine
 10
130.8580044305
 20
130.4487379475
 30
0.0
 11
130.8580044305
 21
145.9836594967
 31
0.0
  0
ARC
  5
8A
330
1F
100
AcDbEntity
  8
0
  6
Continuous
 62
     7
370
    15
100
AcDbCircle
 10
131.0579413295
 20
145.9886817078
 30
0.0
 40
0.2000000000000059
100
AcDbArc
 50
181.4391666667
 51
271.4391666667
  0
LINE
  5
8B
330
1F
100
AcDbEntity
  8
0
  6
Continuous
 62
     7
370
    15
100
AcDbLine
 10
96.558004955
 20
130.0178704059
 30
0.0
 11
96.558004955
 21
145.1219234822
 31
0.0
  0
LINE
  5
8C
330
1F
100
AcDbEntity
  8
0
  6
Continuous
 62
     7
370
    15
100
AcDbLine
 10
96.558004955
 20
145.1219234822
 30
0.0
 11
130.8580044305
 21
145.9836594967
 31
0.0
  0
LINE
  5
8D
330
1F
100
AcDbEntity
  8
0
  6
Continuous
 62
     7
370
    15
100
AcDbLine
 10
131.0629645476
 20
145.7887448577
 30
0.0
 11
132.2414921477
 21
145.818353465
 31
0.0
  0
LINE
  5
8E
330
1F
100
AcDbEntity
  8
0
  6
Continuous
 62
     7
370
    15
100
AcDbLine
 10
131.0629645476
 20
102.1383747665
 30
0.0
 11
132.2414921477
 21
102.1087661592
 31
0.0
  0
LINE
  5
8F
330
1F
100
AcDbEntity
  8
0
  6
Continuous
 62
     7
370
    15
100
AcDbLine
 10
95.0580056404
 20
144.255897796
 30
0.0
 11
96.558004955
 21
145.1219234822
 31
0.0
  0
LINE
  5
90
330
1F
100
AcDbEntity
  8
0
  6
Continuous
 62
     7
370
    15
100
AcDbLine
 10
95.0580056404
 20
129.5848575628
 30
0.0
 11
95.0580056404
 21
144.255897796
 31
0.0
  0
LINE
  5
91
330
1F
100
AcDbEntity
  8
0
  6
Continuous
 62
     7
370
    15
100
AcDbLine
 10
95.0580056404
 20
103.6712218283
 30
0.0
 11
96.558004955
 21
102.805196142
 31
0.0
  0
LINE
  5
92
330
1F
100
AcDbEntity
  8
0
  6
Continuous
 62
     7
370
    15
100
AcDbLine
 10
95.0580056404
 20
103.6712218283
 30
0.0
 11
95.0580056404
 21
118.3422620615
 31
0.0
  0
LINE
  5
93
330
1F
100
AcDbEntity
  8
0
  6
Continuous
 62
     7
370
    15
100
AcDbLine
 10
242.3599887287
 20
143.741759306
 30
0.0
 11
247.0580044781
 21
143.741759306
 31
0.0
  0
SPLINE
  5
94
330
1F
100
AcDbEntity
  8
0
  6
Continuous
 62
     7
370
    15
100
AcDbSpline
210
0.0
220
0.0
230
1.0
 70
     8
 71
     3
 72
    14
 73
    10
 74
     0
 42
0.00000001
 43
0.00000001
 12
1.0
 22
0.0
 32
0.0
 13
1.0
 23
0.0
 33
0.0
 40
0.0
 40
0.0
 40
0.0
 40
0.0
 40
0.25
 40
0.25
 40
0.5
 40
0.5
 40
0.75
 40
0.75
 40
1.0
 40
1.0
 40
1.0
 40
1.0
 10
239.4622079036046
 20
143.2845030331054
 30
0.0
 10
239.5465850777589
 20
143.3673776243681
 30
0.0
 10
239.6792130897434
 20
143.4371633028533
 30
0.0
 10
240.0430083319757
 20
143.5560847170227
 30
0.0
 10
240.2655076140223
 20
143.6023063892061
 30
0.0
 10
240.7878439415417
 20
143.6751369340048
 30
0.0
 10
241.0773940381059
 20
143.7003157319674
 30
0.0
 10
241.7023636949213
 20
143.7338691563608
 30
0.0
 10
242.0282489661274
 20
143.7417602318907
 30
0.0
 10
242.3599853824717
 20
143.7417602318907
 30
0.0
  0
ELLIPSE
  5
95
330
1F
100
AcDbEntity
  8
0
  6
Continuous
 62
     7
370
    15
100
AcDbEllipse
 10
240.4822818126
 20
123.9635598121
 30
0.0
 11
0.4025701892336713
 21
19.99971074150079
 31
0.0
210
0.0
220
0.0
230
1.0
 40
0.2671959542
 41
0.2667084576674463
 42
3.025267100523405
  0
SPLINE
  5
96
330
1F
100
AcDbEntity
  8
0
  6
Continuous
 62
     7
370
    15
100
AcDbSpline
210
0.0
220
0.0
230
1.0
 70
     8
 71
     3
 72
    14
 73
    10
 74
     0
 42
0.00000001
 43
0.00000001
 12
1.0
 22
0.0
 32
0.0
 13
1.0
 23
0.0
 33
0.0
 40
0.0
 40
0.0
 40
0.0
 40
0.0
 40
0.25
 40
0.25
 40
0.5
 40
0.5
 40
0.75
 40
0.75
 40
1.0
 40
1.0
 40
1.0
 40
1.0
 10
242.3599853824717
 20
103.9644511326528
 30
0.0
 10
242.0282537272279
 20
103.9644511326528
 30
0.0
 10
241.7056635464143
 20
103.964742723945
 30
0.0
 10
241.0787112984889
 20
103.9684937535627
 30
0.0
 10
240.7901771503384
 20
103.971916679002
 30
0.0
 10
240.2671625629364
 20
103.9884483738655
 30
0.0
 10
240.0441327952796
 20
104.0013125134796
 30
0.0
 10
239.6806356230304
 20
104.0436723809242
 30
0.0
 10
239.5465865100886
 20
104.0725526735475
 30
0.0
 10
239.4622079036045
 20
104.1114953125185
 30
0.0
  0
LINE
  5
97
330
1F
100
AcDbEntity
  8
0
  6
Continuous
 62
     7
370
    15
100
AcDbLine
 10
247.0580044781
 20
103.9644506036
 30
0.0
 11
242.3599887287
 21
103.9644506036
 31
0.0
  0
LINE
  5
98
330
1F
100
AcDbEntity
  8
0
  6
Continuous
 62
     7
370
    15
100
AcDbLine
 10
247.0580044781
 20
103.9644506036
 30
0.0
 11
247.0580044781
 21
103.9635602592
 31
0.0
  0
LINE
  5
99
330
1F
100
AcDbEntity
  8
0
  6
Continuous
 62
     7
370
    15
100
AcDbLine
 10
247.0580044781
 20
143.9635593651
 30
0.0
 11
247.0580044781
 21
143.741759306
 31
0.0
  0
ELLIPSE
  5
9A
330
1F
100
AcDbEntity
  8
0
  6
Continuous
 62
     7
370
    15
100
AcDbEllipse
 10
237.850703063
 20
114.1949229466
 30
0.0
 11
-0.1064029529044035
 21
2.367670791413389
 31
0.0
210
0.0
220
0.0
230
1.0
 40
0.2553617877
 41
0.0
 42
6.283185307179586
  0
LINE
  5
9B
330
1F
100
AcDbEntity
  8
0
  6
Continuous
 62
     7
370
    15
100
AcDbLine
 10
247.5580054914
 20
144.4635603784
 30
0.0
 11
247.5580054914
 21
144.2420751063
 31
0.0
  0
LINE
  5
9C
330
1F
100
AcDbEntity
  8
0
  6
Continuous
 62
     7
370
    15
100
AcDbLine
 10
247.0580044781
 20
143.741759306
 30
0.0
 11
247.5580054914
 21
144.2420751063
 31
0.0
  0
LINE
  5
9D
330
1F
100
AcDbEntity
  8
0
  6
Continuous
 62
     7
370
    15
100
AcDbLine
 10
247.9664165174
 20
103.0555188863
 30
0.0
 11
247.0580044781
 21
103.9644506036
 31
0.0
  0
LINE
  5
9E
330
1F
100
AcDbEntity
  8
0
  6
Continuous
 62
     7
370
    15
100
AcDbLine
 10
247.9664165174
 20
103.0555188863
 30
0.0
 11
247.9490194117
 21
103.0798282681
 31
0.0
  0
ELLIPSE
  5
9F
330
1F
100
AcDbEntity
  8
0
  6
Continuous
 62
     7
370
    15
100
AcDbEllipse
 10
264.3638746636
 20
123.9635598121
 30
0.0
 11
-6.697318860126188
 21
20.48986112711594
 31
0.0
210
0.0
220
0.0
230
1.0
 40
0.0962569477
 41
6.104602709247341
 42
6.251733123200058
  0
LINE
  5
A0
330
1F
100
AcDbEntity
  8
0
  6
Continuous
 62
     7
370
    15
100
AcDbLine
 10
247.5580054914
 20
144.2420751063
 30
0.0
 11
258.1234205162
 21
144.2420751063
 31
0.0
  0
LINE
  5
A1
330
1F
100
AcDbEntity
  8
0
  6
Continuous
 62
     7
370
    15
100
AcDbLine
 10
258.1234205162
 20
144.2420751063
 30
0.0
 11
269.6281898414
 21
107.842474079
 31
0.0
  0
LINE
  5
A2
330
1F
100
AcDbEntity
  8
0
  6
Continuous
 62
     7
370
    15
100
AcDbLine
 10
262.2656155025
 20
110.1758329405
 30
0.0
 11
261.5622806942
 21
112.4010978474
 31
0.0
  0
ARC
  5
A3
330
1F
100
AcDbEntity
  8
0
  6
Continuous
 62
     7
370
    15
100
AcDbCircle
 10
260.1167558843
 20
111.9438853513
 30
0.0
 40
1.516108585288257
100
AcDbArc
 50
17.5519107236
 51
197.3680822979
  0
LINE
  5
A4
330
1F
100
AcDbEntity
  8
0
  6
Continuous
 62
     7
370
    15
100
AcDbLine
 10
258.6697715913
 20
111.4913130386
 30
0.0
 11
258.899920026
 21
110.76312775
 31
0.0
  0
LINE
  5
A5
330
1F
100
AcDbEntity
  8
0
  6
Continuous
 62
     7
370
    15
100
AcDbLine
 10
262.1273476278
 20
100.4193954377
 30
0.0
 11
257.5381848609
 21
101.8628280817
 31
0.0
  0
ELLIPSE
  5
A6
330
1F
100
AcDbEntity
  8
0
  6
Continuous
 62
     7
370
    15
100
AcDbEllipse
 10
249.7728935051
 20
76.9240745917
 30
0.0
 11
-8.526512829121202E-14
 21
26.13144513619372
 31
0.0
210
0.0
220
0.0
230
1.0
 40
0.9949698482
 41
5.979891802486661
 42
6.283185307179586
  0
LINE
  5
A7
330
1F
100
AcDbEntity
  8
0
  6
Continuous
 62
     7
370
    15
100
AcDbLine
 10
249.7728917395
 20
103.0555188863
 30
0.0
 11
247.9664165174
 21
103.0555188863
 31
0.0
  0
ARC
  5
A8
330
1F
100
AcDbEntity
  8
0
  6
Continuous
 62
     7
370
    15
100
AcDbCircle
 10
260.1166280445
 20
112.0956638444
 30
0.0
 40
1.249725537736222
100
AcDbArc
 50
17.5519582695
 51
197.3680144901
  0
LINE
  5
A9
330
1F
100
AcDbEntity
  8
0
  6
Continuous
 62
     7
370
    15
100
AcDbLine
 10
261.3081711923
 20
112.4725442587
 30
0.0
 11
262.0085257684
 21
110.2566940917
 31
0.0
  0
LINE
  5
AA
330
1F
100
AcDbEntity
  8
0
  6
Continuous
 62
     7
370
    15
100
AcDbLine
 10
258.9238810932
 20
111.7226107253
 30
0.0
 11
259.1328996813
 21
111.0612860156
 31
0.0
  0
LINE
  5
AB
330
1F
100
AcDbEntity
  8
0
  6
Continuous
 62
     7
370
    15
100
AcDbLine
 10
258.8671225702
 20
112.1498950033
 30
0.0
 11
258.9238810932
 21
111.8272457479
 31
0.0
  0
LINE
  5
AC
330
1F
100
AcDbEntity
  8
0
  6
Continuous
 62
     7
370
    15
100
AcDbLine
 10
258.9238810932
 20
111.8272457479
 30
0.0
 11
259.1631639396
 21
111.0701838715
 31
0.0
  0
CIRCLE
  5
AD
330
1F
100
AcDbEntity
  8
0
  6
Continuous
 62
     7
370
    15
100
AcDbCircle
 10
265.884562133
 20
104.1413319561
 30
0.0
 40
2.62312826148596
  0
CIRCLE
  5
AE
330
1F
100
AcDbEntity
  8
0
  6
Continuous
 62
     7
370
    15
100
AcDbCircle
 10
265.8851245644
 20
104.1206666402
 30
0.0
 40
1.798740895648596
  0
ARC
  5
AF
330
1F
100
AcDbEntity
  8
0
  6
Continuous
 62
     7
370
    15
100
AcDbCircle
 10
265.8903898001
 20
104.1188922861
 30
0.0
 40
1.671504840209768
100
AcDbArc
 50
293.315056377
 51
351.9501727717
  0
ARC
  5
B0
330
1F
100
AcDbEntity
  8
0
  6
Continuous
 62
     7
370
    15
100
AcDbCircle
 10
265.8926364209
 20
104.1171150908
 30
0.0
 40
1.669032113601723
100
AcDbArc
 50
351.9997805693
 51
52.204558401
  0
ARC
  5
B1
330
1F
100
AcDbEntity
  8
0
  6
Continuous
 62
     7
370
    15
100
AcDbCircle
 10
265.8866854889
 20
104.1100753809
 30
0.0
 40
1.678241957858127
100
AcDbArc
 50
52.1913049903
 51
110.6634694658
  0
LINE
  5
B2
330
1F
100
AcDbEntity
  8
0
  6
Continuous
 62
     7
370
    15
100
AcDbLine
 10
265.215777198
 20
105.6483842639
 30
0.0
 11
265.2944702303
 21
105.6803547053
 31
0.0
  0
ARC
  5
B3
330
1F
100
AcDbEntity
  8
0
  6
Continuous
 62
     7
370
    15
100
AcDbCircle
 10
265.8831964963
 20
104.1156954889
 30
0.0
 40
1.671700751022588
100
AcDbArc
 50
113.5310305788
 51
170.0034389201
  0
LINE
  5
B4
330
1F
100
AcDbEntity
  8
0
  6
Continuous
 62
     7
370
    15
100
AcDbLine
 10
264.2204243337
 20
104.2875003277
 30
0.0
 11
264.2368752157
 21
104.4058844654
 31
0.0
  0
ARC
  5
B5
330
1F
100
AcDbEntity
  8
0
  6
Continuous
 62
     7
370
    15
100
AcDbCircle
 10
265.8807324933
 20
104.1176522701
 30
0.0
 40
1.668973201548985
100
AcDbArc
 50
174.1590113638
 51
230.0451804061
  0
LINE
  5
B6
330
1F
100
AcDbEntity
  8
0
  6
Continuous
 62
     7
370
    15
100
AcDbLine
 10
264.9033594524
 20
102.7647171376
 30
0.0
 11
264.8089456951
 21
102.8382990716
 31
0.0
  0
ARC
  5
B7
330
1F
100
AcDbEntity
  8
0
  6
Continuous
 62
     7
370
    15
100
AcDbCircle
 10
265.8867554701
 20
104.1247539558
 30
0.0
 40
1.678322935039035
100
AcDbArc
 50
234.1305975353
 51
290.4497345872
  0
LINE
  5
B8
330
1F
100
AcDbEntity
  8
0
  6
Continuous
 62
     7
370
    15
100
AcDbLine
 10
266.5519494211
 20
102.583878508
 30
0.0
 11
266.4731371795
 21
102.552200502
 31
0.0
  0
SPLINE
  5
B9
330
1F
100
AcDbEntity
  8
0
  6
Continuous
 62
     7
370
    15
100
AcDbSpline
210
0.0
220
0.0
230
1.0
 70
     8
 71
     3
 72
    11
 73
     7
 74
     0
 42
0.00000001
 43
0.00000001
 12
1.0
 22
0.0
 32
0.0
 13
1.0
 23
0.0
 33
0.0
 40
0.0
 40
0.0
 40
0.0
 40
0.0
 40
0.2431015753851066
 40
0.5182673741616018
 40
0.7947748352731041
 40
1.0
 40
1.0
 40
1.0
 40
1.0
 10
265.2157771979994
 20
105.6483842639415
 30
0.0
 10
265.1884131775774
 20
105.6297737578369
 30
0.0
 10
265.1300759208642
 20
105.5900980868117
 30
0.0
 10
265.0703288751781
 20
105.4987631840074
 30
0.0
 10
265.0418709315217
 20
105.3997875647305
 30
0.0
 10
265.0471651988797
 20
105.3360342092383
 30
0.0
 10
265.0494206344313
 20
105.3088743446557
 30
0.0
  0
SPLINE
  5
BA
330
1F
100
AcDbEntity
  8
0
  6
Continuous
 62
     7
370
    15
100
AcDbSpline
210
0.0
220
0.0
230
1.0
 70
     8
 71
     3
 72
    12
 73
     8
 74
     0
 42
0.00000001
 43
0.00000001
 12
1.0
 22
0.0
 32
0.0
 13
1.0
 23
0.0
 33
0.0
 40
0.0
 40
0.0
 40
0.0
 40
0.0
 40
0.2058154646780817
 40
0.4120184245324873
 40
0.6140787360345256
 40
0.8132157563492237
 40
1.0
 40
1.0
 40
1.0
 40
1.0
 10
265.0494206344313
 20
105.3088743446557
 30
0.0
 10
265.0531652795799
 20
105.2442572367673
 30
0.0
 10
265.0606616200369
 20
105.1149013643517
 30
0.0
 10
264.9889816598038
 20
104.9282500714701
 30
0.0
 10
264.864933721563
 20
104.776393196681
 30
0.0
 10
264.7033340443848
 20
104.6714489671226
 30
0.0
 10
264.5826230241291
 20
104.6482137121081
 30
0.0
 10
264.5241994058318
 20
104.6369679479091
 30
0.0
  0
SPLINE
  5
BB
330
1F
100
AcDbEntity
  8
0
  6
Continuous
 62
     7
370
    15
100
AcDbSpline
210
0.0
220
0.0
230
1.0
 70
     8
 71
     3
 72
    11
 73
     7
 74
     0
 42
0.00000001
 43
0.00000001
 12
1.0
 22
0.0
 32
0.0
 13
1.0
 23
0.0
 33
0.0
 40
0.0
 40
0.0
 40
0.0
 40
0.0
 40
0.2908478072857186
 40
0.5839432062159904
 40
0.8745906427520739
 40
1.0
 40
1.0
 40
1.0
 40
1.0
 10
264.5241994058318
 20
104.6369679479091
 30
0.0
 10
264.4871777344891
 20
104.6294849913815
 30
0.0
 10
264.4128482985374
 20
104.6144612521018
 30
0.0
 10
264.3182960218355
 20
104.5467661775528
 30
0.0
 10
264.2617855879369
 20
104.4716936721346
 30
0.0
 10
264.242644724582
 20
104.4211265822046
 30
0.0
 10
264.236875215692
 20
104.4058844654052
 30
0.0
  0
SPLINE
  5
BC
330
1F
100
AcDbEntity
  8
0
  6
Continuous
 62
     7
370
    15
100
AcDbSpline
210
0.0
220
0.0
230
1.0
 70
     8
 71
     3
 72
    12
 73
     8
 74
     0
 42
0.00000001
 43
0.00000001
 12
1.0
 22
0.0
 32
0.0
 13
1.0
 23
0.0
 33
0.0
 40
0.0
 40
0.0
 40
0.0
 40
0.0
 40
0.0091740230635094
 40
0.2576859040593229
 40
0.5062009132607419
 40
0.7560391452086347
 40
1.0
 40
1.0
 40
1.0
 40
1.0
 10
266.9154930507369
 20
105.435990562865
 30
0.0
 10
266.9144071511856
 20
105.4368265970912
 30
0.0
 10
266.8839057009897
 20
105.4603096681385
 30
0.0
 10
266.8152228380276
 20
105.4962570699315
 30
0.0
 10
266.7034058422557
 20
105.5130067955114
 30
0.0
 10
266.591613002176
 20
105.4946899722473
 30
0.0
 10
266.5301474427102
 20
105.4549997155212
 30
0.0
 10
266.4997804557509
 20
105.435390791127
 30
0.0
  0
SPLINE
  5
BD
330
1F
100
AcDbEntity
  8
0
  6
Continuous
 62
     7
370
    15
100
AcDbSpline
210
0.0
220
0.0
230
1.0
 70
     8
 71
     3
 72
    12
 73
     8
 74
     0
 42
0.00000001
 43
0.00000001
 12
1.0
 22
0.0
 32
0.0
 13
1.0
 23
0.0
 33
0.0
 40
0.0
 40
0.0
 40
0.0
 40
0.0
 40
0.2057517650264348
 40
0.4119539139453102
 40
0.6140193320701297
 40
0.813149088060608
 40
1.0
 40
1.0
 40
1.0
 40
1.0
 10
266.4997804557509
 20
105.435390791127
 30
0.0
 10
266.4449849366064
 20
105.400196647355
 30
0.0
 10
266.3352739527161
 20
105.3297313209801
 30
0.0
 10
266.1364728567701
 20
105.2988594405933
 30
0.0
 10
265.9426873712014
 20
105.3300280662179
 30
0.0
 10
265.7717566150695
 20
105.4165701929711
 30
0.0
 10
265.6923341663621
 20
105.5086112070923
 30
0.0
 10
265.6538862382598
 20
105.553167706558
 30
0.0
  0
SPLINE
  5
BE
330
1F
100
AcDbEntity
  8
0
  6
Continuous
 62
     7
370
    15
100
AcDbSpline
210
0.0
220
0.0
230
1.0
 70
     8
 71
     3
 72
    11
 73
     7
 74
     0
 42
0.00000001
 43
0.00000001
 12
1.0
 22
0.0
 32
0.0
 13
1.0
 23
0.0
 33
0.0
 40
0.0
 40
0.0
 40
0.0
 40
0.0
 40
0.2794057211878179
 40
0.55964501249932
 40
0.8375239972761331
 40
1.0
 40
1.0
 40
1.0
 40
1.0
 10
265.6538862382598
 20
105.553167706558
 30
0.0
 10
265.6290887711666
 20
105.5813429448285
 30
0.0
 10
265.5794198570072
 20
105.6377774784773
 30
0.0
 10
265.4739000907918
 20
105.6850108720344
 30
0.0
 10
265.3749183768257
 20
105.6968408270415
 30
0.0
 10
265.3161527474072
 20
105.6847980720096
 30
0.0
 10
265.2944702302642
 20
105.6803547052829
 30
0.0
  0
LINE
  5
BF
330
1F
100
AcDbEntity
  8
0
  6
Continuous
 62
     7
370
    15
100
AcDbLine
 10
267.0391726886
 20
105.2092191039
 30
0.0
 11
267.0140791332
 21
105.1302653013
 31
0.0
  0
SPLINE
  5
C0
330
1F
100
AcDbEntity
  8
0
  6
Continuous
 62
     7
370
    15
100
AcDbSpline
210
0.0
220
0.0
230
1.0
 70
     8
 71
     3
 72
    11
 73
     7
 74
     0
 42
0.00000001
 43
0.00000001
 12
1.0
 22
0.0
 32
0.0
 13
1.0
 23
0.0
 33
0.0
 40
0.0
 40
0.0
 40
0.0
 40
0.0
 40
0.2535102117547663
 40
0.5075665464666774
 40
0.75950495131492
 40
1.0
 40
1.0
 40
1.0
 40
1.0
 10
267.0140791331954
 20
105.0353318659751
 30
0.0
 10
267.0264982756095
 20
105.0706773587347
 30
0.0
 10
267.0513633143058
 20
105.1414444870841
 30
0.0
 10
267.0402767732634
 20
105.2556851650956
 30
0.0
 10
266.996154316351
 20
105.3603127951495
 30
0.0
 10
266.9419603458988
 20
105.4111584975598
 30
0.0
 10
266.9154930507369
 20
105.435990562865
 30
0.0
  0
SPLINE
  5
C1
330
1F
100
AcDbEntity
  8
0
  6
Continuous
 62
     7
370
    15
100
AcDbSpline
210
0.0
220
0.0
230
1.0
 70
     8
 71
     3
 72
    12
 73
     8
 74
     0
 42
0.00000001
 43
0.00000001
 12
1.0
 22
0.0
 32
0.0
 13
1.0
 23
0.0
 33
0.0
 40
0.0
 40
0.0
 40
0.0
 40
0.0
 40
0.0091722785533979
 40
0.2573301137461538
 40
0.5054948667619803
 40
0.7549855808094915
 40
1.0
 40
1.0
 40
1.0
 40
1.0
 10
267.5454247390456
 20
103.8848243860691
 30
0.0
 10
267.5456114196361
 20
103.8861816967544
 30
0.0
 10
267.55084878103
 20
103.9242613201579
 30
0.0
 10
267.5476872638012
 20
104.0016508188792
 30
0.0
 10
267.5060451542433
 20
104.1069744616328
 30
0.0
 10
267.4335254018628
 20
104.1951383938471
 30
0.0
 10
267.3674872220543
 20
104.2289125005716
 30
0.0
 10
267.3347670232482
 20
104.2456466911523
 30
0.0
  0
SPLINE
  5
C2
330
1F
100
AcDbEntity
  8
0
  6
Continuous
 62
     7
370
    15
100
AcDbSpline
210
0.0
220
0.0
230
1.0
 70
     8
 71
     3
 72
    12
 73
     8
 74
     0
 42
0.00000001
 43
0.00000001
 12
1.0
 22
0.0
 32
0.0
 13
1.0
 23
0.0
 33
0.0
 40
0.0
 40
0.0
 40
0.0
 40
0.0
 40
0.2058408490302163
 40
0.4120709302057005
 40
0.6141406023171585
 40
0.8132613199795347
 40
0.9999999999999999
 40
0.9999999999999999
 40
0.9999999999999999
 40
0.9999999999999999
 10
267.3347670232482
 20
104.2456466911523
 30
0.0
 10
267.2762023643086
 20
104.2757452196659
 30
0.0
 10
267.15896230433
 20
104.3359991911242
 30
0.0
 10
267.0318127447503
 20
104.4929064901076
 30
0.0
 10
266.9620763188648
 20
104.6758889343279
 30
0.0
 10
266.9528156224293
 20
104.8662183014388
 30
0.0
 10
266.9940995566313
 20
104.9801796657761
 30
0.0
 10
267.0140791331954
 20
105.0353318659751
 30
0.0
  0
ARC
  5
C3
330
1F
100
AcDbEntity
  8
0
  6
Continuous
 62
     7
370
    15
100
AcDbCircle
 10
264.5543251052
 20
104.3994133671
 30
0.0
 40
0.3341988644031131
100
AcDbArc
 50
180.0369968463
 51
248.906027267
  0
SPLINE
  5
C4
330
1F
100
AcDbEntity
  8
0
  6
Continuous
 62
     7
370
    15
100
AcDbSpline
210
0.0
220
0.0
230
1.0
 70
     8
 71
     3
 72
    11
 73
     7
 74
     0
 42
0.00000001
 43
0.00000001
 12
1.0
 22
0.0
 32
0.0
 13
1.0
 23
0.0
 33
0.0
 40
0.0
 40
0.0
 40
0.0
 40
0.0
 40
0.2669030246014024
 40
0.5545988886980291
 40
0.8438970641728741
 40
1.0
 40
1.0
 40
1.0
 40
1.0
 10
264.220424333734
 20
104.2875003276556
 30
0.0
 10
264.2250359006389
 20
104.2531096445684
 30
0.0
 10
264.2346182944108
 20
104.1816491032343
 30
0.0
 10
264.2919391920856
 20
104.0867047553701
 30
0.0
 10
264.3635916868603
 20
104.0234406749592
 30
0.0
 10
264.4157626480417
 20
104.000615399546
 30
0.0
 10
264.434047380609
 20
103.9926156608551
 30
0.0
  0
ARC
  5
C5
330
1F
100
AcDbEntity
  8
0
  6
Continuous
 62
     7
370
    15
100
AcDbCircle
 10
267.5431546568
 20
104.8860494567
 30
0.0
 40
0.5827197340609298
100
AcDbArc
 50
155.2224363847
 51
180.0184273728
  0
SPLINE
  5
C6
330
1F
100
AcDbEntity
  8
0
  6
Continuous
 62
     7
370
    15
100
AcDbSpline
210
0.0
220
0.0
230
1.0
 70
     8
 71
     3
 72
    12
 73
     8
 74
     0
 42
0.00000001
 43
0.00000001
 12
1.0
 22
0.0
 32
0.0
 13
1.0
 23
0.0
 33
0.0
 40
0.0
 40
0.0
 40
0.0
 40
0.0
 40
0.205839978533794
 40
0.4120555307216633
 40
0.614139362571457
 40
0.813278418083785
 40
1.0
 40
1.0
 40
1.0
 40
1.0
 10
264.434047380609
 20
103.9926156608551
 30
0.0
 10
264.492613208726
 20
103.9638803972439
 30
0.0
 10
264.6098517236093
 20
103.9063574399346
 30
0.0
 10
264.7369856804604
 20
103.7516316311237
 30
0.0
 10
264.8067426745684
 20
103.5684932122004
 30
0.0
 10
264.816000710608
 20
103.3758424069299
 30
0.0
 10
264.7747142002845
 20
103.2593178244989
 30
0.0
 10
264.7547352706618
 20
103.2029304860322
 30
0.0
  0
SPLINE
  5
C7
330
1F
100
AcDbEntity
  8
0
  6
Continuous
 62
     7
370
    15
100
AcDbSpline
210
0.0
220
0.0
230
1.0
 70
     8
 71
     3
 72
    11
 73
     7
 74
     0
 42
0.00000001
 43
0.00000001
 12
1.0
 22
0.0
 32
0.0
 13
1.0
 23
0.0
 33
0.0
 40
0.0
 40
0.0
 40
0.0
 40
0.0
 40
0.2929002034874508
 40
0.5864384293971469
 40
0.8775300253637621
 40
1.0
 40
1.0
 40
1.0
 40
1.0
 10
264.7547352706618
 20
103.2029304860322
 30
0.0
 10
264.7423237443217
 20
103.1668024169937
 30
0.0
 10
264.7174736557022
 20
103.0944675814017
 30
0.0
 10
264.7284467215798
 20
102.9783096721493
 30
0.0
 10
264.7649658498527
 20
102.8921934790959
 30
0.0
 10
264.798897386216
 20
102.8506126131918
 30
0.0
 10
264.8089456950851
 20
102.8382990716188
 30
0.0
  0
ARC
  5
C8
330
1F
100
AcDbEntity
  8
0
  6
Continuous
 62
     7
370
    15
100
AcDbCircle
 10
267.2142835515
 20
104.029274643
 30
0.0
 40
0.3344158587806681
100
AcDbArc
 50
275.2038664811
 51
353.9315523317
  0
SPLINE
  5
C9
330
1F
100
AcDbEntity
  8
0
  6
Continuous
 62
     7
370
    15
100
AcDbSpline
210
0.0
220
0.0
230
1.0
 70
     8
 71
     3
 72
    11
 73
     7
 74
     0
 42
0.00000001
 43
0.00000001
 12
1.0
 22
0.0
 32
0.0
 13
1.0
 23
0.0
 33
0.0
 40
0.0
 40
0.0
 40
0.0
 40
0.0
 40
0.252473402631993
 40
0.5068912398971969
 40
0.7591781902989098
 40
1.0
 40
1.0
 40
1.0
 40
1.0
 10
267.2446149980254
 20
103.6012944040983
 30
0.0
 10
267.2816506447462
 20
103.6079846057563
 30
0.0
 10
267.3560071697939
 20
103.6214165339446
 30
0.0
 10
267.4503461947428
 20
103.6873757239618
 30
0.0
 10
267.5197673858879
 20
103.7774034617119
 30
0.0
 10
267.5370058906234
 20
103.8495767721015
 30
0.0
 10
267.5454247390456
 20
103.8848243860691
 30
0.0
  0
SPLINE
  5
CA
330
1F
100
AcDbEntity
  8
0
  6
Continuous
 62
     7
370
    15
100
AcDbSpline
210
0.0
220
0.0
230
1.0
 70
     8
 71
     3
 72
    12
 73
     8
 74
     0
 42
0.00000001
 43
0.00000001
 12
1.0
 22
0.0
 32
0.0
 13
1.0
 23
0.0
 33
0.0
 40
0.0
 40
0.0
 40
0.0
 40
0.0
 40
0.2058593678688754
 40
0.4120990016074554
 40
0.6141955432787863
 40
0.813308809820342
 40
1.0
 40
1.0
 40
1.0
 40
1.0
 10
266.7193937694258
 20
102.9293861447065
 30
0.0
 10
266.7156545289139
 20
102.9953762226715
 30
0.0
 10
266.7081691407207
 20
103.1274782762573
 30
0.0
 10
266.7798542601513
 20
103.3163491364613
 30
0.0
 10
266.9039427933475
 20
103.4680373590953
 30
0.0
 10
267.0655362737218
 20
103.5706426047932
 30
0.0
 10
267.1862173135066
 20
103.591298833085
 30
0.0
 10
267.2446149980254
 20
103.6012944040983
 30
0.0
  0
SPLINE
  5
CB
330
1F
100
AcDbEntity
  8
0
  6
Continuous
 62
     7
370
    15
100
AcDbSpline
210
0.0
220
0.0
230
1.0
 70
     8
 71
     3
 72
    11
 73
     7
 74
     0
 42
0.00000001
 43
0.00000001
 12
1.0
 22
0.0
 32
0.0
 13
1.0
 23
0.0
 33
0.0
 40
0.0
 40
0.0
 40
0.0
 40
0.0
 40
0.242349881545118
 40
0.5166847241208651
 40
0.7923338850795061
 40
0.9999999999999999
 40
0.9999999999999999
 40
0.9999999999999999
 40
0.9999999999999999
 10
266.5519494210906
 20
102.5838785080402
 30
0.0
 10
266.579381133924
 20
102.602526562144
 30
0.0
 10
266.6378649544529
 20
102.6422838115746
 30
0.0
 10
266.6979758915637
 20
102.7346472030008
 30
0.0
 10
266.7269107428681
 20
102.8356517682658
 30
0.0
 10
266.721652905043
 20
102.9012154095042
 30
0.0
 10
266.7193937694258
 20
102.9293861447065
 30
0.0
  0
ARC
  5
CC
330
1F
100
AcDbEntity
  8
0
  6
Continuous
 62
     7
370
    15
100
AcDbCircle
 10
264.2235252379
 20
103.5419576992
 30
0.0
 40
0.5848543306956692
100
AcDbArc
 50
0.0363401978
 51
68.9024728289
  0
ARC
  5
CD
330
1F
100
AcDbEntity
  8
0
  6
Continuous
 62
     7
370
    15
100
AcDbCircle
 10
265.0590563069
 20
103.1589419916
 30
0.0
 40
0.3350461224171744
100
AcDbArc
 50
187.027735992
 51
308.8080016512
  0
SPLINE
  5
CE
330
1F
100
AcDbEntity
  8
0
  6
Continuous
 62
     7
370
    15
100
AcDbSpline
210
0.0
220
0.0
230
1.0
 70
     8
 71
     3
 72
    11
 73
     7
 74
     0
 42
0.00000001
 43
0.00000001
 12
1.0
 22
0.0
 32
0.0
 13
1.0
 23
0.0
 33
0.0
 40
0.0
 40
0.0
 40
0.0
 40
0.0
 40
0.2657652058496598
 40
0.5530069587695069
 40
0.8418234630271194
 40
1.0
 40
1.0
 40
1.0
 40
1.0
 10
264.9033594524092
 20
102.7647171376436
 30
0.0
 10
264.9354849720067
 20
102.7515163871408
 30
0.0
 10
265.002332081788
 20
102.7240481304678
 30
0.0
 10
265.1139399487702
 20
102.7261642164319
 30
0.0
 10
265.2057986404603
 20
102.7566942721143
 30
0.0
 10
265.2525057842029
 20
102.7908019462023
 30
0.0
 10
265.2690339481063
 20
102.8028715608804
 30
0.0
  0
ARC
  5
CF
330
1F
100
AcDbEntity
  8
0
  6
Continuous
 62
     7
370
    15
100
AcDbCircle
 10
267.2977850464
 20
103.1133514943
 30
0.0
 40
0.5853056848839862
100
AcDbArc
 50
95.2120199988
 51
179.9450524321
  0
SPLINE
  5
D0
330
1F
100
AcDbEntity
  8
0
  6
Continuous
 62
     7
370
    15
100
AcDbSpline
210
0.0
220
0.0
230
1.0
 70
     8
 71
     3
 72
    12
 73
     8
 74
     0
 42
0.00000001
 43
0.00000001
 12
1.0
 22
0.0
 32
0.0
 13
1.0
 23
0.0
 33
0.0
 40
0.0
 40
0.0
 40
0.0
 40
0.0
 40
0.2057930458524186
 40
0.4120334434845098
 40
0.6141353704526032
 40
0.8132617629499991
 40
1.0
 40
1.0
 40
1.0
 40
1.0
 10
265.2690339481063
 20
102.8028715608804
 30
0.0
 10
265.3238392443773
 20
102.8394318343113
 30
0.0
 10
265.4335689723678
 20
102.9126318556923
 30
0.0
 10
265.6323994760609
 20
102.9456854204607
 30
0.0
 10
265.8262070131614
 20
102.9143326559283
 30
0.0
 10
265.997099589499
 20
102.8254436194516
 30
0.0
 10
266.0765017066007
 20
102.7308654955548
 30
0.0
 10
266.1149281655975
 20
102.6850946454494
 30
0.0
  0
SPLINE
  5
D1
330
1F
100
AcDbEntity
  8
0
  6
Continuous
 62
     7
370
    15
100
AcDbSpline
210
0.0
220
0.0
230
1.0
 70
     8
 71
     3
 72
    11
 73
     7
 74
     0
 42
0.00000001
 43
0.00000001
 12
1.0
 22
0.0
 32
0.0
 13
1.0
 23
0.0
 33
0.0
 40
0.0
 40
0.0
 40
0.0
 40
0.0
 40
0.2802525733489578
 40
0.5613140572153208
 40
0.8400099555968517
 40
1.0
 40
1.0
 40
1.0
 40
1.0
 10
266.1149281655974
 20
102.6850946454494
 30
0.0
 10
266.1397258681857
 20
102.6561253006343
 30
0.0
 10
266.1893928485212
 20
102.5981029949736
 30
0.0
 10
266.2949009747892
 20
102.5491279052406
 30
0.0
 10
266.3934574105568
 20
102.5363914076479
 30
0.0
 10
266.4518435748989
 20
102.5479756829541
 30
0.0
 10
266.4731371795363
 20
102.5522005019872
 30
0.0
  0
ARC
  5
D2
330
1F
100
AcDbEntity
  8
0
  6
Continuous
 62
     7
370
    15
100
AcDbCircle
 10
266.3882930961
 20
102.974202783
 30
0.0
 40
0.3352875399866527
100
AcDbArc
 50
215.3814886102
 51
342.4613270781
  0
ARC
  5
D3
330
1F
100
AcDbEntity
  8
0
  6
Continuous
 62
     7
370
    15
100
AcDbCircle
 10
265.8867243325
 20
104.1822487673
 30
0.0
 40
2.62500054108305
100
AcDbArc
 50
0.106498186
 51
179.893501814
  0
ARC
  5
D4
330
1F
100
AcDbEntity
  8
0
  6
Continuous
 62
     7
370
    15
100
AcDbCircle
 10
265.6364111839
 20
102.4398992733
 30
0.0
 40
0.5871042926608747
100
AcDbArc
 50
35.4080934541
 51
128.7368468669
  0
LINE
  5
D5
330
1F
100
AcDbEntity
  8
0
  6
Continuous
 62
     7
370
    15
100
AcDbLine
 10
258.9344162142
 20
110.5772292448
 30
0.0
 11
262.1373016035
 21
100.4436880557
 31
0.0
  0
LINE
  5
D6
330
1F
100
AcDbEntity
  8
0
  6
Continuous
 62
     7
370
    15
100
AcDbLine
 10
260.7163119709
 20
109.3278255521
 30
0.0
 11
259.2968273555
 21
110.7065228952
 31
0.0
  0
LINE
  5
D7
330
1F
100
AcDbEntity
  8
0
  6
Continuous
 62
     7
370
    15
100
AcDbLine
 10
262.6754868423
 20
100.7571935861
 30
0.0
 11
262.4997127449
 21
100.5729817061
 31
0.0
  0
SPLINE
  5
D8
330
1F
100
AcDbEntity
  8
0
  6
Continuous
 62
     7
370
    15
100
AcDbSpline
210
0.0
220
0.0
230
1.0
 70
     8
 71
     3
 72
    10
 73
     6
 74
     0
 42
0.00000001
 43
0.00000001
 12
1.0
 22
0.0
 32
0.0
 13
1.0
 23
0.0
 33
0.0
 40
0.0
 40
0.0
 40
0.0
 40
0.0
 40
0.3518037946185381
 40
0.70340164363489
 40
1.0
 40
1.0
 40
1.0
 40
1.0
 10
262.118704954309
 20
100.4362076727836
 30
0.0
 10
262.1363760366071
 20
100.3951348493219
 30
0.0
 10
262.171707856569
 20
100.3130132463897
 30
0.0
 10
262.2670207665161
 20
100.2231568557457
 30
0.0
 10
262.3431297783084
 20
100.191893867712
 30
0.0
 10
262.3779553567595
 20
100.1775887070386
 30
0.0
  0
LINE
  5
D9
330
1F
100
AcDbEntity
  8
0
  6
Continuous
 62
     7
370
    15
100
AcDbLine
 10
258.9127201235
 20
110.5794979466
 30
0.0
 11
262.1187049543
 21
100.4362076728
 31
0.0
  0
LINE
  5
DA
330
1F
100
AcDbEntity
  8
0
  6
Continuous
 62
     7
370
    15
100
AcDbLine
 10
269.5768702423
 20
107.8762158958
 30
0.0
 11
259.4088244831
 21
111.074383205
 31
0.0
  0
SPLINE
  5
DB
330
1F
100
AcDbEntity
  8
0
  6
Continuous
 62
     7
370
    15
100
AcDbSpline
210
0.0
220
0.0
230
1.0
 70
     8
 71
     3
 72
    10
 73
     6
 74
     0
 42
0.00000001
 43
0.00000001
 12
1.0
 22
0.0
 32
0.0
 13
1.0
 23
0.0
 33
0.0
 40
0.0
 40
0.0
 40
0.0
 40
0.0
 40
0.351782145997754
 40
0.7034047821151386
 40
1.0
 40
1.0
 40
1.0
 40
1.0
 10
269.836120644731
 20
107.6175969300954
 30
0.0
 10
269.8184560753817
 20
107.6586709344247
 30
0.0
 10
269.7831349463941
 20
107.7408003187454
 30
0.0
 10
269.6878053484842
 20
107.8306436845402
 30
0.0
 10
269.6116949319197
 20
107.8619098914653
 30
0.0
 10
269.5768702422804
 20
107.8762158958404
 30
0.0
  0
LINE
  5
DC
330
1F
100
AcDbEntity
  8
0
  6
Continuous
 62
     7
370
    15
100
AcDbLine
 10
273.0421054756
 20
97.4743057249
 30
0.0
 11
269.8361206447
 21
107.6175969301
 31
0.0
  0
SPLINE
  5
DD
330
1F
100
AcDbEntity
  8
0
  6
Continuous
 62
     7
370
    15
100
AcDbSpline
210
0.0
220
0.0
230
1.0
 70
     8
 71
     3
 72
    14
 73
    10
 74
     0
 42
0.00000001
 43
0.00000001
 12
1.0
 22
0.0
 32
0.0
 13
1.0
 23
0.0
 33
0.0
 40
0.0
 40
0.0
 40
0.0
 40
0.0
 40
0.1588412614773511
 40
0.3173286294499226
 40
0.4720121307993775
 40
0.6236454041656729
 40
0.7746635540005253
 40
0.9277440342347891
 40
1.0
 40
1.0
 40
1.0
 40
1.0
 10
272.5460160171218
 20
96.97942139787364
 30
0.0
 10
272.5911096146268
 20
96.96991378508925
 30
0.0
 10
272.6811963424714
 20
96.9509197421929
 30
0.0
 10
272.8175369899724
 20
96.98134016568088
 30
0.0
 10
272.9334713340247
 20
97.0517340177679
 30
0.0
 10
273.0176402670041
 20
97.15607379195158
 30
0.0
 10
273.0618465473412
 20
97.28129024965016
 30
0.0
 10
273.0640767688151
 20
97.39172254558537
 30
0.0
 10
273.0474401445792
 20
97.45425438240869
 30
0.0
 10
273.0421054755873
 20
97.47430572492766
 30
0.0
  0
LINE
  5
DE
330
1F
100
AcDbEntity
  8
0
  6
Continuous
 62
     7
370
    15
100
AcDbLine
 10
262.3779553568
 20
100.177588707
 30
0.0
 11
272.5460160171
 21
96.9794213979
 31
0.0
  0
ARC
  5
DF
330
1F
100
AcDbEntity
  8
0
  6
Continuous
 62
     7
370
    15
100
AcDbCircle
 10
259.2965181891
 20
110.6909232284
 30
0.0
 40
0.3795315035630603
100
AcDbArc
 50
72.4297138465
 51
197.431419152
  0
ARC
  5
E0
330
1F
100
AcDbEntity
  8
0
  6
Continuous
 62
     7
370
    15
100
AcDbCircle
 10
262.4991558071
 20
100.5582828338
 30
0.0
 40
0.3795661047558019
100
AcDbArc
 50
197.5723544354
 51
252.5684515174
  0
LINE
  5
E1
330
1F
100
AcDbEntity
  8
0
  6
Continuous
 62
     7
370
    15
100
AcDbLine
 10
262.3854506408
 20
100.1961481033
 30
0.0
 11
272.5437361395
 21
97.0010560213
 31
0.0
  0
ARC
  5
E2
330
1F
100
AcDbEntity
  8
0
  6
Continuous
 62
     7
370
    15
100
AcDbCircle
 10
272.6583060232
 20
97.3628938892
 30
0.0
 40
0.3795430159131647
100
AcDbArc
 50
252.4304837365
 51
17.4287459708
  0
LINE
  5
E3
330
1F
100
AcDbEntity
  8
0
  6
Continuous
 62
     7
370
    15
100
AcDbLine
 10
273.0204242861
 20
97.4765744267
 30
0.0
 11
269.8175239956
 21
107.6101165472
 31
0.0
  0
ARC
  5
E4
330
1F
100
AcDbEntity
  8
0
  6
Continuous
 62
     7
370
    15
100
AcDbCircle
 10
269.455677965
 20
107.4955272374
 30
0.0
 40
0.3795566621489588
100
AcDbArc
 50
17.5719399751
 51
72.5692971072
  0
LINE
  5
E5
330
1F
100
AcDbEntity
  8
0
  6
Continuous
 62
     7
370
    15
100
AcDbLine
 10
269.5693749582
 20
107.8576546369
 30
0.0
 11
259.4110894596
 21
111.0527485816
 31
0.0
  0
SPLINE
  5
E6
330
1F
100
AcDbEntity
  8
0
  6
Continuous
 62
     7
370
    15
100
AcDbSpline
210
0.0
220
0.0
230
1.0
 70
     8
 71
     3
 72
    14
 73
    10
 74
     0
 42
0.00000001
 43
0.00000001
 12
1.0
 22
0.0
 32
0.0
 13
1.0
 23
0.0
 33
0.0
 40
0.0
 40
0.0
 40
0.0
 40
0.0
 40
0.1588563247582953
 40
0.3173416405852506
 40
0.4720231404155769
 40
0.6236444462741888
 40
0.7746654213226419
 40
0.9277439210157824
 40
1.0
 40
1.0
 40
1.0
 40
1.0
 10
259.4088244830794
 20
111.0743832050054
 30
0.0
 10
259.3637257935485
 20
111.0838912411089
 30
0.0
 10
259.2736337424718
 20
111.1028851072985
 30
0.0
 10
259.1372900644704
 20
111.0724637363515
 30
0.0
 10
259.0213515754195
 20
111.0020756062172
 30
0.0
 10
258.9372067068254
 20
110.8977216218931
 30
0.0
 10
258.8929731607871
 20
110.7725182405764
 30
0.0
 10
258.890749596345
 20
110.6620815280709
 30
0.0
 10
258.9073856006739
 20
110.5995495363876
 30
0.0
 10
258.9127201234526
 20
110.5794979466288
 30
0.0
  0
LINE
  5
E7
330
1F
100
AcDbEntity
  8
0
  6
Continuous
 62
     7
370
    15
100
AcDbLine
 10
269.2793536579
 20
107.3449764608
 30
0.0
 11
269.4551128542
 21
107.5114298819
 31
0.0
  0
SPLINE
  5
E8
330
1F
100
AcDbEntity
  8
0
  6
Continuous
 62
     7
370
    15
100
AcDbSpline
210
0.0
220
0.0
230
1.0
 70
     8
 71
     3
 72
    11
 73
     7
 74
     0
 42
0.00000001
 43
0.00000001
 12
1.0
 22
0.0
 32
0.0
 13
1.0
 23
0.0
 33
0.0
 40
0.0
 40
0.0
 40
0.0
 40
0.0
 40
0.0072910919845643
 40
0.1268373088122721
 40
0.5874295524569594
 40
1.0
 40
1.0
 40
1.0
 40
1.0
 10
261.2024772559828
 20
108.8350199369876
 30
0.0
 10
261.2014197950367
 20
108.8361384397278
 30
0.0
 10
261.1830239908319
 20
108.8555961393109
 30
0.0
 10
261.0956335887561
 20
108.9470830176083
 30
0.0
 10
260.9319087571365
 20
109.1157933883791
 30
0.0
 10
260.7854934051206
 20
109.2597879460961
 30
0.0
 10
260.7163119708724
 20
109.3278255520551
 30
0.0
  0
ARC
  5
E9
330
1F
100
AcDbEntity
  8
0
  6
Continuous
 62
     7
370
    15
100
AcDbCircle
 10
262.6956600257
 20
107.2990758658
 30
0.0
 40
0.9987748866325437
100
AcDbArc
 50
72.4301655168
 51
197.4306494855
  0
LINE
  5
EA
330
1F
100
AcDbEntity
  8
0
  6
Continuous
 62
     7
370
    15
100
AcDbLine
 10
271.2385136282
 20
98.8312501667
 30
0.0
 11
272.6579982435
 21
97.3778896241
 31
0.0
  0
LINE
  5
EB
330
1F
100
AcDbEntity
  8
0
  6
Continuous
 62
     7
370
    15
100
AcDbLine
 10
267.9860818779
 20
106.6820927171
 30
0.0
 11
262.997158209
 21
108.251257634
 31
0.0
  0
LINE
  5
EC
330
1F
100
AcDbEntity
  8
0
  6
Continuous
 62
     7
370
    15
100
AcDbLine
 10
270.2120918428
 20
101.0539129583
 30
0.0
 11
268.6390805637
 21
106.0306716917
 31
0.0
  0
ARC
  5
ED
330
1F
100
AcDbEntity
  8
0
  6
Continuous
 62
     7
370
    15
100
AcDbCircle
 10
269.259159581
 20
100.754744674
 30
0.0
 40
0.998790046990775
100
AcDbArc
 50
252.4308014599
 51
17.4294182143
  0
LINE
  5
EE
330
1F
100
AcDbEntity
  8
0
  6
Continuous
 62
     7
370
    15
100
AcDbLine
 10
263.9687586223
 20
101.3717118858
 30
0.0
 11
268.95766739
 21
99.8025451062
 31
0.0
  0
ARC
  5
EF
330
1F
100
AcDbEntity
  8
0
  6
Continuous
 62
     7
370
    15
100
AcDbCircle
 10
264.2678770295
 20
102.3245770964
 30
0.0
 40
0.9987111350229739
100
AcDbArc
 50
197.5677431375
 51
252.5721596407
  0
LINE
  5
F0
330
1F
100
AcDbEntity
  8
0
  6
Continuous
 62
     7
370
    15
100
AcDbLine
 10
261.7427486574
 20
106.9998916445
 30
0.0
 11
263.3157450353
 21
102.0231329112
 31
0.0
  0
ARC
  5
F1
330
1F
100
AcDbEntity
  8
0
  6
Continuous
 62
     7
370
    15
100
AcDbCircle
 10
267.6869208441
 20
105.7292065564
 30
0.0
 40
0.9987438908135731
100
AcDbArc
 50
17.5684088646
 51
72.5701864662
  0
CIRCLE
  5
F2
330
1F
100
AcDbEntity
  8
0
  6
Continuous
 62
     7
370
    15
100
AcDbCircle
 10
265.9812857037
 20
104.0218805693
 30
0.0
 40
3.046870036487601
  0
SPLINE
  5
F3
330
1F
100
AcDbEntity
  8
0
  6
Continuous
 62
     7
370
    15
100
AcDbSpline
210
0.0
220
0.0
230
1.0
 70
     8
 71
     3
 72
    11
 73
     7
 74
     0
 42
0.00000001
 43
0.00000001
 12
1.0
 22
0.0
 32
0.0
 13
1.0
 23
0.0
 33
0.0
 40
0.0
 40
0.0
 40
0.0
 40
0.0
 40
0.0092192941202303
 40
0.3448426100148434
 40
0.6722324605176082
 40
1.0
 40
1.0
 40
1.0
 40
1.0
 10
268.7868851815886
 20
106.8519957570522
 30
0.0
 10
268.7882499403381
 20
106.8534320873842
 30
0.0
 10
268.8392979883847
 20
106.9071572309898
 30
0.0
 10
268.9484738143716
 20
107.0201592807166
 30
0.0
 10
269.121744374506
 20
107.193811487821
 30
0.0
 10
269.226797042965
 20
107.294568774732
 30
0.0
 10
269.2793536578841
 20
107.3449764607637
 30
0.0
  0
ARC
  5
F4
330
1F
100
AcDbEntity
  8
0
  6
Continuous
 62
     7
370
    15
100
AcDbCircle
 10
265.9774202501
 20
104.1019814857
 30
0.0
 40
3.050004299524068
100
AcDbArc
 50
180.1019044465
 51
359.8980955535
  0
SPLINE
  5
F5
330
1F
100
AcDbEntity
  8
0
  6
Continuous
 62
     7
370
    15
100
AcDbSpline
210
0.0
220
0.0
230
1.0
 70
     8
 71
     3
 72
    11
 73
     7
 74
     0
 42
0.00000001
 43
0.00000001
 12
1.0
 22
0.0
 32
0.0
 13
1.0
 23
0.0
 33
0.0
 40
0.0
 40
0.0
 40
0.0
 40
0.0
 40
0.3277729608762289
 40
0.6551539661493964
 40
0.990781015391285
 40
1.0
 40
1.0
 40
1.0
 40
1.0
 10
262.6754868423171
 20
100.7571935860603
 30
0.0
 10
262.7280442625669
 20
100.8116522660781
 30
0.0
 10
262.8330962541502
 20
100.9205045036438
 30
0.0
 10
263.0063515261425
 20
101.0924146774728
 30
0.0
 10
263.1155253653594
 20
101.1975014237065
 30
0.0
 10
263.1665756580617
 20
101.2454539032134
 30
0.0
 10
263.1679404174513
 20
101.2467358468263
 30
0.0
  0
SPLINE
  5
F6
330
1F
100
AcDbEntity
  8
0
  6
Continuous
 62
     7
370
    15
100
AcDbSpline
210
0.0
220
0.0
230
1.0
 70
     8
 71
     3
 72
    11
 73
     7
 74
     0
 42
0.00000001
 43
0.00000001
 12
1.0
 22
0.0
 32
0.0
 13
1.0
 23
0.0
 33
0.0
 40
0.0
 40
0.0
 40
0.0
 40
0.0
 40
0.4125707235038729
 40
0.8731500387485075
 40
0.9926951569813092
 40
1.0
 40
1.0
 40
1.0
 40
1.0
 10
271.2385136281676
 20
98.83125016672301
 30
0.0
 10
271.169339903775
 20
98.9012260831637
 30
0.0
 10
271.0229430881677
 20
99.04932062955507
 30
0.0
 10
270.8591213622827
 20
99.20743689177648
 30
0.0
 10
270.7718616479114
 20
99.29008240172129
 30
0.0
 10
270.7534108590774
 20
99.30742043917954
 30
0.0
 10
270.7523483430571
 20
99.3084188757627
 30
0.0
  0
SPLINE
  5
F7
330
1F
100
AcDbEntity
  8
0
  6
HIDDEN
 62
     7
370
     0
100
AcDbSpline
210
0.0
220
0.0
230
1.0
 70
     8
 71
     3
 72
    60
 73
    56
 74
     0
 42
0.00000001
 43
0.00000001
 12
1.0
 22
0.0
 32
0.0
 13
1.0
 23
0.0
 33
0.0
 40
-0.0624999999999999
 40
-0.0624999999999999
 40
0.0
 40
0.0
 40
0.03125
 40
0.03125
 40
0.0624999999999999
 40
0.0624999999999999
 40
0.0937499999999999
 40
0.0937499999999999
 40
0.1249999999999999
 40
0.1249999999999999
 40
0.1875000000000001
 40
0.1875000000000001
 40
0.2500000000000004
 40
0.2500000000000004
 40
0.2812500000000003
 40
0.2812500000000003
 40
0.3125000000000002
 40
0.3125000000000002
 40
0.3437500000000001
 40
0.3437500000000001
 40
0.375
 40
0.375
 40
0.4062499999999999
 40
0.4062499999999999
 40
0.4374999999999998
 40
0.4374999999999998
 40
0.4687499999999998
 40
0.4687499999999998
 40
0.4999999999999997
 40
0.4999999999999997
 40
0.5624999999999994
 40
0.5624999999999994
 40
0.6249999999999993
 40
0.6249999999999993
 40
0.6562499999999993
 40
0.6562499999999993
 40
0.6874999999999994
 40
0.6874999999999994
 40
0.7187499999999996
 40
0.7187499999999996
 40
0.7499999999999996
 40
0.7499999999999996
 40
0.7812499999999997
 40
0.7812499999999997
 40
0.8124999999999998
 40
0.8124999999999998
 40
0.8437499999999999
 40
0.8437499999999999
 40
0.8749999999999999
 40
0.8749999999999999
 40
0.90625
 40
0.90625
 40
0.9375000000000001
 40
0.9375000000000001
 40
1.0
 40
1.0
 40
1.03125
 40
1.03125
 10
143.0580044185347
 20
123.6992292870506
 30
0.0
 10
143.0580044185347
 20
124.0957250746807
 30
0.0
 10
143.0709762770236
 20
124.2256751356848
 30
0.0
 10
143.1217964467159
 20
124.4813280690449
 30
0.0
 10
143.1602637701829
 20
124.6083575755942
 30
0.0
 10
143.260662006255
 20
124.8505457067187
 30
0.0
 10
143.3220950372281
 20
124.9654071992716
 30
0.0
 10
143.4672298687731
 20
125.1827873950958
 30
0.0
 10
143.551684986181
 20
125.2856849622944
 30
0.0
 10
143.8284044365393
 20
125.5623520013022
 30
0.0
 10
144.0514813284573
 20
125.7113500917822
 30
0.0
 10
144.5327646906776
 20
125.9108612322468
 30
0.0
 10
144.7959951096686
 20
125.9634193352435
 30
0.0
 10
145.1873973113565
 20
125.9636296176216
 30
0.0
 10
145.3199203394654
 20
125.9506438468945
 30
0.0
 10
145.5764507927065
 20
125.8996166986807
 30
0.0
 10
145.7011376270031
 20
125.8618614995303
 30
0.0
 10
145.9433168892386
 20
125.7617231666216
 30
0.0
 10
146.0604104213887
 20
125.69911749921
 30
0.0
 10
146.2771254247441
 20
125.5543842059451
 30
0.0
 10
146.3781442516068
 20
125.4717568586655
 30
0.0
 10
146.564929139059
 20
125.2851518054139
 30
0.0
 10
146.6477860202552
 20
125.1840367415378
 30
0.0
 10
146.792670285329
 20
124.9675039375479
 30
0.0
 10
146.85530779315
 20
124.8506337299468
 30
0.0
 10
146.9557566165497
 20
124.6083358592966
 30
0.0
 10
146.993607717567
 20
124.4836718608356
 30
0.0
 10
147.0448292828233
 20
124.2273848167718
 30
0.0
 10
147.0579574094405
 20
124.0948128210262
 30
0.0
 10
147.0580980497808
 20
123.7032086282522
 30
0.0
 10
147.0057733004089
 20
123.4400432969283
 30
0.0
 10
146.8066622383516
 20
122.9585379277551
 30
0.0
 10
146.6577999018944
 20
122.735286388271
 30
0.0
 10
146.3814789425689
 20
122.4584300893822
 30
0.0
 10
146.2787152941953
 20
122.3739166425385
 30
0.0
 10
146.0613317368158
 20
122.2284993690982
 30
0.0
 10
145.9465329688594
 20
122.1669881700398
 30
0.0
 10
145.7046562454354
 20
122.066458321785
 30
0.0
 10
145.5775026374351
 20
122.027813298567
 30
0.0
 10
145.3218366280026
 20
121.976756971016
 30
0.0
 10
145.1919705902466
 20
121.9636921124704
 30
0.0
 10
144.9280180635149
 20
121.9634294916724
 30
0.0
 10
144.7976137400909
 20
121.9763064919165
 30
0.0
 10
144.5419629767115
 20
122.0268924957223
 30
0.0
 10
144.4150974275972
 20
122.0651688603441
 30
0.0
 10
144.1725769696513
 20
122.1654397278241
 30
0.0
 10
144.057650330991
 20
122.226795751965
 30
0.0
 10
143.840278862159
 20
122.3716420471378
 30
0.0
 10
143.7372650494967
 20
122.4560195616325
 30
0.0
 10
143.5525645039147
 20
122.6404268818207
 30
0.0
 10
143.4697347696582
 20
122.7409999450902
 30
0.0
 10
143.3234823310607
 20
122.9592260856692
 30
0.0
 10
143.2611138502683
 20
123.0757811955904
 30
0.0
 10
143.1111576987015
 20
123.4366307896242
 30
0.0
 10
143.0580044185347
 20
123.6992292870506
 30
0.0
 10
143.0580044185347
 20
124.0957250746807
 30
0.0
  0
SPLINE
  5
F8
330
1F
100
AcDbEntity
  8
0
  6
HIDDEN
 62
     7
370
     0
100
AcDbSpline
210
0.0
220
0.0
230
1.0
 70
     8
 71
     3
 72
    12
 73
     8
 74
     0
 42
0.00000001
 43
0.00000001
 12
1.0
 22
0.0
 32
0.0
 13
1.0
 23
0.0
 33
0.0
 40
0.0
 40
0.0
 40
0.0
 40
0.0
 40
0.2500000000000005
 40
0.2500000000000005
 40
0.500000000000001
 40
0.500000000000001
 40
1.0
 40
1.0
 40
1.0
 40
1.0
 10
143.5857612321012
 20
114.5754933808012
 30
0.0
 10
143.5226811936078
 20
114.5754933808012
 30
0.0
 10
143.4635325714265
 20
114.5501290615861
 30
0.0
 10
143.3650600213575
 20
114.4759642012132
 30
0.0
 10
143.3260234093728
 20
114.4294438606592
 30
0.0
 10
143.2261269425938
 20
114.2793015178139
 30
0.0
 10
143.183706061527
 20
114.1676083108419
 30
0.0
 10
143.1527485302091
 20
114.0541904914521
 30
0.0
  0
LINE
  5
F9
330
1F
100
AcDbEntity
  8
0
  6
HIDDEN
 62
     7
370
     0
100
AcDbLine
 10
146.5302476307
 20
114.5754929839
 30
0.0
 11
143.585761415
 21
114.5754929839
 31
0.0
  0
SPLINE
  5
FA
330
1F
100
AcDbEntity
  8
0
  6
HIDDEN
 62
     7
370
     0
100
AcDbSpline
210
0.0
220
0.0
230
1.0
 70
     8
 71
     3
 72
    12
 73
     8
 74
     0
 42
0.00000001
 43
0.00000001
 12
1.0
 22
0.0
 32
0.0
 13
1.0
 23
0.0
 33
0.0
 40
0.0
 40
0.0
 40
0.0
 40
0.0
 40
0.5000000000000019
 40
0.5000000000000019
 40
0.7500000000000009
 40
0.7500000000000009
 40
1.0
 40
1.0
 40
1.0
 40
1.0
 10
146.9632603068604
 20
114.0541904914521
 30
0.0
 10
146.9325380649414
 20
114.1667462908613
 30
0.0
 10
146.8897008504061
 20
114.2795041506008
 30
0.0
 10
146.7902738262063
 20
114.4290450363972
 30
0.0
 10
146.7505216313897
 20
114.476337768104
 30
0.0
 10
146.6524801745315
 20
114.5500740614254
 30
0.0
 10
146.5929241189441
 20
114.5754933808013
 30
0.0
 10
146.5302476049683
 20
114.5754933808013
 30
0.0
  0
ELLIPSE
  5
FB
330
1F
100
AcDbEntity
  8
0
  6
HIDDEN
 62
     7
370
     0
100
AcDbEllipse
 10
130.7108502292
 20
123.9635598121
 30
0.0
 11
-14.75368316065609
 21
31.09325491558116
 31
0.0
210
0.0
220
0.0
230
1.0
 40
0.3419987131
 41
3.30073485621713
 42
4.23149622336078
  0
SPLINE
  5
FC
330
1F
100
AcDbEntity
  8
0
  6
HIDDEN
 62
     7
370
     0
100
AcDbSpline
210
0.0
220
0.0
230
1.0
 70
     8
 71
     3
 72
    12
 73
     8
 74
     0
 42
0.00000001
 43
0.00000001
 12
1.0
 22
0.0
 32
0.0
 13
1.0
 23
0.0
 33
0.0
 40
0.0
 40
0.0
 40
0.0
 40
0.0
 40
0.2499999999999991
 40
0.2499999999999991
 40
0.4999999999999982
 40
0.4999999999999982
 40
1.0
 40
1.0
 40
1.0
 40
1.0
 10
146.5302476049683
 20
93.89506785326418
 30
0.0
 10
146.5933276434617
 20
93.89506785326417
 30
0.0
 10
146.6524762656429
 20
93.9029737794768
 30
0.0
 10
146.7509488157121
 20
93.926298940913
 30
0.0
 10
146.7899854276967
 20
93.94101173074468
 30
0.0
 10
146.8898818944758
 20
93.98896753147561
 30
0.0
 10
146.9323027755424
 20
94.02522968805566
 30
0.0
 10
146.9632603068604
 20
94.06281735202016
 30
0.0
  0
LINE
  5
FD
330
1F
100
AcDbEntity
  8
0
  6
HIDDEN
 62
     7
370
     0
100
AcDbLine
 10
143.585761415
 20
93.8950672953
 30
0.0
 11
146.5302476307
 21
93.8950672953
 31
0.0
  0
SPLINE
  5
FE
330
1F
100
AcDbEntity
  8
0
  6
HIDDEN
 62
     7
370
     0
100
AcDbSpline
210
0.0
220
0.0
230
1.0
 70
     8
 71
     3
 72
    12
 73
     8
 74
     0
 42
0.00000001
 43
0.00000001
 12
1.0
 22
0.0
 32
0.0
 13
1.0
 23
0.0
 33
0.0
 40
0.0
 40
0.0
 40
0.0
 40
0.0
 40
0.499999999999999
 40
0.499999999999999
 40
0.7499999999999994
 40
0.7499999999999994
 40
1.0
 40
1.0
 40
1.0
 40
1.0
 10
143.1527485302091
 20
94.06281735202016
 30
0.0
 10
143.1834707721282
 20
94.02551536906711
 30
0.0
 10
143.2263079866633
 20
93.98890353702072
 30
0.0
 10
143.3257350108632
 20
93.94113875373554
 30
0.0
 10
143.3654872056798
 20
93.92618123825319
 30
0.0
 10
143.463528662538
 20
93.90299129248409
 30
0.0
 10
143.5230847181254
 20
93.89506785326415
 30
0.0
 10
143.5857612321012
 20
93.89506785326415
 30
0.0
  0
ELLIPSE
  5
FF
330
1F
100
AcDbEntity
  8
0
  6
HIDDEN
 62
     7
370
     0
100
AcDbEllipse
 10
159.4051586079
 20
123.9635598121
 30
0.0
 11
14.75368316065609
 21
31.09325491558116
 31
0.0
210
0.0
220
0.0
230
1.0
 40
0.3419987131
 41
2.051689083818817
 42
2.982450450962492
  0
SPLINE
  5
100
330
1F
100
AcDbEntity
  8
0
  6
HIDDEN
 62
     7
370
     0
100
AcDbSpline
210
0.0
220
0.0
230
1.0
 70
     8
 71
     3
 72
    12
 73
     8
 74
     0
 42
0.00000001
 43
0.00000001
 12
1.0
 22
0.0
 32
0.0
 13
1.0
 23
0.0
 33
0.0
 40
0.0
 40
0.0
 40
0.0
 40
0.0
 40
0.2499999999999982
 40
0.2499999999999982
 40
0.4999999999999963
 40
0.4999999999999963
 40
1.0
 40
1.0
 40
1.0
 40
1.0
 10
143.5857612321012
 20
154.0320517710107
 30
0.0
 10
143.5226811936078
 20
154.0320517710107
 30
0.0
 10
143.4635325714265
 20
154.0241458447981
 30
0.0
 10
143.3650600213574
 20
154.0008206833618
 30
0.0
 10
143.3260234093727
 20
153.9861078935302
 30
0.0
 10
143.2261269425937
 20
153.9381520927993
 30
0.0
 10
143.1837060615269
 20
153.9018899362192
 30
0.0
 10
143.152748530209
 20
153.8643022722547
 30
0.0
  0
LINE
  5
101
330
1F
100
AcDbEntity
  8
0
  6
HIDDEN
 62
     7
370
     0
100
AcDbLine
 10
146.5302476307
 20
154.032052329
 30
0.0
 11
143.585761415
 21
154.032052329
 31
0.0
  0
SPLINE
  5
102
330
1F
100
AcDbEntity
  8
0
  6
HIDDEN
 62
     7
370
     0
100
AcDbSpline
210
0.0
220
0.0
230
1.0
 70
     8
 71
     3
 72
    12
 73
     8
 74
     0
 42
0.00000001
 43
0.00000001
 12
1.0
 22
0.0
 32
0.0
 13
1.0
 23
0.0
 33
0.0
 40
0.0
 40
0.0
 40
0.0
 40
0.0
 40
0.4999999999999981
 40
0.4999999999999981
 40
0.749999999999999
 40
0.749999999999999
 40
1.0
 40
1.0
 40
1.0
 40
1.0
 10
146.9632603068605
 20
153.8643022722547
 30
0.0
 10
146.9325380649414
 20
153.9016042552078
 30
0.0
 10
146.8897008504061
 20
153.9382160872541
 30
0.0
 10
146.7902738262064
 20
153.9859808705393
 30
0.0
 10
146.7505216313897
 20
154.0009383860217
 30
0.0
 10
146.6524801745315
 20
154.0241283317908
 30
0.0
 10
146.5929241189442
 20
154.0320517710107
 30
0.0
 10
146.5302476049683
 20
154.0320517710106
 30
0.0
  0
ELLIPSE
  5
103
330
1F
100
AcDbEntity
  8
0
  6
HIDDEN
 62
     7
370
     0
100
AcDbEllipse
 10
130.7108502292
 20
123.9635598121
 30
0.0
 11
14.75368316065624
 21
31.09325491558117
 31
0.0
210
0.0
220
0.0
230
1.0
 40
0.3419987131
 41
5.193281737408635
 42
6.12404310455234
  0
SPLINE
  5
104
330
1F
100
AcDbEntity
  8
0
  6
HIDDEN
 62
     7
370
     0
100
AcDbSpline
210
0.0
220
0.0
230
1.0
 70
     8
 71
     3
 72
    12
 73
     8
 74
     0
 42
0.00000001
 43
0.00000001
 12
1.0
 22
0.0
 32
0.0
 13
1.0
 23
0.0
 33
0.0
 40
0.0
 40
0.0
 40
0.0
 40
0.0
 40
0.2499999999999977
 40
0.2499999999999977
 40
0.4999999999999953
 40
0.4999999999999953
 40
1.0
 40
1.0
 40
1.0
 40
1.0
 10
146.5302476049683
 20
133.3516262434738
 30
0.0
 10
146.5933276434617
 20
133.3516262434738
 30
0.0
 10
146.652476265643
 20
133.3769905626889
 30
0.0
 10
146.7509488157121
 20
133.4511554230618
 30
0.0
 10
146.7899854276968
 20
133.4976757636159
 30
0.0
 10
146.8898818944759
 20
133.6478181064611
 30
0.0
 10
146.9323027755424
 20
133.7595113134332
 30
0.0
 10
146.9632603068605
 20
133.872929132823
 30
0.0
  0
LINE
  5
105
330
1F
100
AcDbEntity
  8
0
  6
HIDDEN
 62
     7
370
     0
100
AcDbLine
 10
143.585761415
 20
133.3516266404
 30
0.0
 11
146.5302476307
 21
133.3516266404
 31
0.0
  0
SPLINE
  5
106
330
1F
100
AcDbEntity
  8
0
  6
HIDDEN
 62
     7
370
     0
100
AcDbSpline
210
0.0
220
0.0
230
1.0
 70
     8
 71
     3
 72
    12
 73
     8
 74
     0
 42
0.00000001
 43
0.00000001
 12
1.0
 22
0.0
 32
0.0
 13
1.0
 23
0.0
 33
0.0
 40
0.0
 40
0.0
 40
0.0
 40
0.0
 40
0.4999999999999963
 40
0.4999999999999963
 40
0.7499999999999981
 40
0.7499999999999981
 40
1.0
 40
1.0
 40
1.0
 40
1.0
 10
143.152748530209
 20
133.872929132823
 30
0.0
 10
143.1834707721281
 20
133.7603733334138
 30
0.0
 10
143.2263079866632
 20
133.6476154736742
 30
0.0
 10
143.3257350108631
 20
133.4980745878779
 30
0.0
 10
143.3654872056797
 20
133.450781856171
 30
0.0
 10
143.463528662538
 20
133.3770455628496
 30
0.0
 10
143.5230847181253
 20
133.3516262434738
 30
0.0
 10
143.5857612321012
 20
133.3516262434738
 30
0.0
  0
ELLIPSE
  5
107
330
1F
100
AcDbEntity
  8
0
  6
HIDDEN
 62
     7
370
     0
100
AcDbEllipse
 10
159.4051586079
 20
123.9635598121
 30
0.0
 11
-14.75368316065624
 21
31.09325491558118
 31
0.0
210
0.0
220
0.0
230
1.0
 40
0.3419987131
 41
0.1591422026272806
 42
1.089903569770961
  0
LINE
  5
108
330
1F
100
AcDbEntity
  8
0
  6
HIDDEN
 62
     7
370
     0
100
AcDbLine
 10
133.0580044185
 20
154.9635593055
 30
0.0
 11
133.0580044185
 21
92.9635603188
 31
0.0
  0
LINE
  5
109
330
1F
100
AcDbEntity
  8
0
  6
HIDDEN
 62
     7
370
     0
100
AcDbLine
 10
155.0580042993
 20
93.4635594694
 30
0.0
 11
155.0580042993
 21
154.4635601549
 31
0.0
  0
LINE
  5
10A
330
1F
100
AcDbEntity
  8
0
  6
HIDDEN
 62
     7
370
     0
100
AcDbLine
 10
133.0580044185
 20
99.7135590969
 30
0.0
 11
133.0580044185
 21
148.2135605274
 31
0.0
  0
SPLINE
  5
10B
330
1F
100
AcDbEntity
  8
0
  6
HIDDEN
 62
     7
370
     0
100
AcDbSpline
210
0.0
220
0.0
230
1.0
 70
     8
 71
     3
 72
    12
 73
     8
 74
     0
 42
0.00000001
 43
0.00000001
 12
1.0
 22
0.0
 32
0.0
 13
1.0
 23
0.0
 33
0.0
 40
0.0
 40
0.0
 40
0.0
 40
0.0
 40
0.5
 40
0.5
 40
0.75
 40
0.75
 40
1.0
 40
1.0
 40
1.0
 40
1.0
 10
132.2414921320877
 20
139.4158277939682
 30
0.0
 10
132.297898310768
 20
139.3680054203084
 30
0.0
 10
132.3680612122397
 20
139.3277345733699
 30
0.0
 10
132.4860719256289
 20
139.3196887048929
 30
0.0
 10
132.5262777092244
 20
139.3262513032318
 30
0.0
 10
132.5999984059575
 20
139.3536333976855
 30
0.0
 10
132.632859127744
 20
139.3733948882158
 30
0.0
 10
132.6630275296732
 20
139.3963275994038
 30
0.0
  0
SPLINE
  5
10C
330
1F
100
AcDbEntity
  8
0
  6
HIDDEN
 62
     7
370
     0
100
AcDbSpline
210
0.0
220
0.0
230
1.0
 70
     8
 71
     3
 72
    16
 73
    12
 74
     0
 42
0.00000001
 43
0.00000001
 12
1.0
 22
0.0
 32
0.0
 13
1.0
 23
0.0
 33
0.0
 40
0.0
 40
0.0
 40
0.0
 40
0.0
 40
0.0624999999999967
 40
0.0624999999999967
 40
0.1249999999999934
 40
0.1249999999999934
 40
0.2499999999999951
 40
0.2499999999999951
 40
0.4999999999999983
 40
0.4999999999999983
 40
1.0
 40
1.0
 40
1.0
 40
1.0
 10
132.663027529628
 20
139.3963275994519
 30
0.0
 10
132.6746404294674
 20
139.4051552224333
 30
0.0
 10
132.6879916138999
 20
139.4129896043152
 30
0.0
 10
132.717391453519
 20
139.4212997303876
 30
0.0
 10
132.7322321780744
 20
139.4208039111525
 30
0.0
 10
132.768065386043
 20
139.4093529401831
 30
0.0
 10
132.7821785938645
 20
139.3926724393245
 30
0.0
 10
132.8166699650834
 20
139.3405517535674
 30
0.0
 10
132.8277540361938
 20
139.3007622595425
 30
0.0
 10
132.8538768539898
 20
139.1774256274453
 30
0.0
 10
132.8580044185347
 20
139.0900042169467
 30
0.0
 10
132.8580044185347
 20
139.0012669746285
 30
0.0
  0
LINE
  5
10D
330
1F
100
AcDbEntity
  8
0
  6
HIDDEN
 62
     7
370
     0
100
AcDbLine
 10
132.8580044236
 20
108.925852759
 30
0.0
 11
132.8580044236
 21
139.0012668653
 31
0.0
  0
SPLINE
  5
10E
330
1F
100
AcDbEntity
  8
0
  6
HIDDEN
 62
     7
370
     0
100
AcDbSpline
210
0.0
220
0.0
230
1.0
 70
     8
 71
     3
 72
    16
 73
    12
 74
     0
 42
0.00000001
 43
0.00000001
 12
1.0
 22
0.0
 32
0.0
 13
1.0
 23
0.0
 33
0.0
 40
0.0
 40
0.0
 40
0.0
 40
0.0
 40
0.5000000000000026
 40
0.5000000000000026
 40
0.7499999999999962
 40
0.7499999999999962
 40
0.8749999999999931
 40
0.8749999999999931
 40
0.9374999999999966
 40
0.9374999999999966
 40
1.0
 40
1.0
 40
1.0
 40
1.0
 10
132.8580044185347
 20
108.9258526496462
 30
0.0
 10
132.8580044185347
 20
108.8367262844575
 30
0.0
 10
132.8538581434567
 20
108.749864916844
 30
0.0
 10
132.8278925480632
 20
108.62688267035
 30
0.0
 10
132.8164316426858
 20
108.5861113751187
 30
0.0
 10
132.7821199049115
 20
108.5344070551189
 30
0.0
 10
132.7680951689818
 20
108.5177366885285
 30
0.0
 10
132.7320722059481
 20
108.5062844680718
 30
0.0
 10
132.7173176968583
 20
108.5058314217967
 30
0.0
 10
132.6879655357115
 20
108.5141467430129
 30
0.0
 10
132.6746256612074
 20
108.5219756280912
 30
0.0
 10
132.663027529659
 20
108.5307920248538
 30
0.0
  0
SPLINE
  5
10F
330
1F
100
AcDbEntity
  8
0
  6
HIDDEN
 62
     7
370
     0
100
AcDbSpline
210
0.0
220
0.0
230
1.0
 70
     8
 71
     3
 72
    12
 73
     8
 74
     0
 42
0.00000001
 43
0.00000001
 12
1.0
 22
0.0
 32
0.0
 13
1.0
 23
0.0
 33
0.0
 40
0.0
 40
0.0
 40
0.0
 40
0.0
 40
0.2500000000000005
 40
0.2500000000000005
 40
0.5000000000000013
 40
0.5000000000000013
 40
1.0
 40
1.0
 40
1.0
 40
1.0
 10
132.6630275296661
 20
108.5307920248627
 30
0.0
 10
132.6328356879489
 20
108.5537425539605
 30
0.0
 10
132.5994767185343
 20
108.5737120279847
 30
0.0
 10
132.5263394339537
 20
108.6008131616102
 30
0.0
 10
132.4860975612997
 20
108.6074139022556
 30
0.0
 10
132.3683917843312
 20
108.5994450277489
 30
0.0
 10
132.2979813065519
 20
108.559184569581
 30
0.0
 10
132.2414921320836
 20
108.5112918303029
 30
0.0
  0
SPLINE
  5
110
330
1F
100
AcDbEntity
  8
0
  6
HIDDEN
 62
     7
370
     0
100
AcDbSpline
210
0.0
220
0.0
230
1.0
 70
     8
 71
     3
 72
    12
 73
     8
 74
     0
 42
0.00000001
 43
0.00000001
 12
1.0
 22
0.0
 32
0.0
 13
1.0
 23
0.0
 33
0.0
 40
0.0
 40
0.0
 40
0.0
 40
0.0
 40
0.249999999999999
 40
0.249999999999999
 40
0.4999999999999981
 40
0.4999999999999981
 40
1.0
 40
1.0
 40
1.0
 40
1.0
 10
132.2414921320832
 20
108.5112918303032
 30
0.0
 10
132.1533381943454
 20
108.4365530224491
 30
0.0
 10
132.0929847697167
 20
108.3455725219667
 30
0.0
 10
131.9867228116499
 20
108.1566586992141
 30
0.0
 10
131.9444906450878
 20
108.0601542396735
 30
0.0
 10
131.8334199497706
 20
107.7693864855063
 30
0.0
 10
131.7804831733438
 20
107.5737196709626
 30
0.0
 10
131.7366840749751
 20
107.3796531858963
 30
0.0
  0
SPLINE
  5
111
330
1F
100
AcDbEntity
  8
0
  6
HIDDEN
 62
     7
370
     0
100
AcDbSpline
210
0.0
220
0.0
230
1.0
 70
     8
 71
     3
 72
    12
 73
     8
 74
     0
 42
0.00000001
 43
0.00000001
 12
1.0
 22
0.0
 32
0.0
 13
1.0
 23
0.0
 33
0.0
 40
0.0
 40
0.0
 40
0.0
 40
0.0
 40
0.5
 40
0.5
 40
0.75
 40
0.75
 40
1.0
 40
1.0
 40
1.0
 40
1.0
 10
131.7366840749751
 20
102.1934788571352
 30
0.0
 10
131.7804306158117
 20
102.166884686494
 30
0.0
 10
131.8333149710432
 20
102.1471244611683
 30
0.0
 10
131.9448820583793
 20
102.1266734709392
 30
0.0
 10
131.9874656549223
 20
102.1214132462828
 30
0.0
 10
132.0923823820041
 20
102.1135304523601
 30
0.0
 10
132.1539159898489
 20
102.110966327181
 30
0.0
 10
132.241492132075
 20
102.1087661096614
 30
0.0
  0
LINE
  5
112
330
1F
100
AcDbEntity
  8
0
  6
HIDDEN
 62
     7
370
     0
100
AcDbLine
 10
132.8580044236
 20
101.4237392901
 30
0.0
 11
132.8580044236
 21
101.9039645998
 31
0.0
  0
LINE
  5
113
330
1F
100
AcDbEntity
  8
0
  6
HIDDEN
 62
     7
370
     0
100
AcDbLine
 10
132.8580044236
 20
146.0231550245
 30
0.0
 11
132.8580044236
 21
146.5033803342
 31
0.0
  0
SPLINE
  5
114
330
1F
100
AcDbEntity
  8
0
  6
HIDDEN
 62
     7
370
     0
100
AcDbSpline
210
0.0
220
0.0
230
1.0
 70
     8
 71
     3
 72
    12
 73
     8
 74
     0
 42
0.00000001
 43
0.00000001
 12
1.0
 22
0.0
 32
0.0
 13
1.0
 23
0.0
 33
0.0
 40
0.0
 40
0.0
 40
0.0
 40
0.0
 40
0.2499999999999997
 40
0.2499999999999997
 40
0.4999999999999992
 40
0.4999999999999992
 40
1.0
 40
1.0
 40
1.0
 40
1.0
 10
132.241492132083
 20
145.8183535146133
 30
0.0
 10
132.1528074722266
 20
145.8161254472723
 30
0.0
 10
132.0928890565032
 20
145.813623663242
 30
0.0
 10
131.9872298291825
 20
145.805692227406
 30
0.0
 10
131.9445885910675
 20
145.8004000725091
 30
0.0
 10
131.833399248965
 20
145.779995132022
 30
0.0
 10
131.780472566844
 20
145.7602604404351
 30
0.0
 10
131.736684074975
 20
145.7336407671395
 30
0.0
  0
SPLINE
  5
115
330
1F
100
AcDbEntity
  8
0
  6
HIDDEN
 62
     7
370
     0
100
AcDbSpline
210
0.0
220
0.0
230
1.0
 70
     8
 71
     3
 72
    12
 73
     8
 74
     0
 42
0.00000001
 43
0.00000001
 12
1.0
 22
0.0
 32
0.0
 13
1.0
 23
0.0
 33
0.0
 40
0.0
 40
0.0
 40
0.0
 40
0.0
 40
0.5000000000000034
 40
0.5000000000000034
 40
0.7500000000000003
 40
0.7500000000000003
 40
1.0
 40
1.0
 40
1.0
 40
1.0
 10
131.7366840749735
 20
140.5474664383786
 30
0.0
 10
131.7804455512722
 20
140.3535666504166
 30
0.0
 10
131.8333518669252
 20
140.1577102864797
 30
0.0
 10
131.9450630645726
 20
139.8655681399807
 30
0.0
 10
131.987582508159
 20
139.7688502032827
 30
0.0
 10
132.0927058507264
 20
139.5821257668583
 30
0.0
 10
132.1542718144441
 20
139.4897750585885
 30
0.0
 10
132.2414921320868
 20
139.4158277939689
 30
0.0
  0
LINE
  5
116
330
1F
100
AcDbEntity
  8
0
  6
HIDDEN
 62
     7
370
     0
100
AcDbLine
 10
155.0580042993
 20
99.9635596035
 30
0.0
 11
155.0580042993
 21
147.9635600208
 31
0.0
  0
LINE
  5
117
330
1F
100
AcDbEntity
  8
0
  6
HIDDEN
 62
     7
370
     0
100
AcDbLine
 10
132.8580044236
 20
101.9039645998
 30
0.0
 11
132.8580044236
 21
116.9416725842
 31
0.0
  0
LINE
  5
118
330
1F
100
AcDbEntity
  8
0
  6
HIDDEN
 62
     7
370
     0
100
AcDbLine
 10
132.8580044236
 20
130.98544704
 30
0.0
 11
132.8580044236
 21
146.0231550245
 31
0.0
  0
SPLINE
  5
119
330
1F
100
AcDbEntity
  8
0
  6
HIDDEN
 62
     7
370
     0
100
AcDbSpline
210
0.0
220
0.0
230
1.0
 70
     8
 71
     3
 72
    68
 73
    64
 74
     0
 42
0.00000001
 43
0.00000001
 12
1.0
 22
0.0
 32
0.0
 13
1.0
 23
0.0
 33
0.0
 40
-0.0625
 40
-0.0625
 40
0.0
 40
0.0
 40
0.03125
 40
0.03125
 40
0.0625
 40
0.0625
 40
0.09375
 40
0.09375
 40
0.125
 40
0.125
 40
0.15625
 40
0.15625
 40
0.1875
 40
0.1875
 40
0.21875
 40
0.21875
 40
0.2500000000000001
 40
0.2500000000000001
 40
0.2812500000000001
 40
0.2812500000000001
 40
0.3125000000000001
 40
0.3125000000000001
 40
0.3437500000000002
 40
0.3437500000000002
 40
0.3750000000000002
 40
0.3750000000000002
 40
0.4062500000000002
 40
0.4062500000000002
 40
0.4375000000000003
 40
0.4375000000000003
 40
0.4687500000000003
 40
0.4687500000000003
 40
0.5000000000000003
 40
0.5000000000000003
 40
0.5312500000000003
 40
0.5312500000000003
 40
0.5625000000000003
 40
0.5625000000000003
 40
0.5937500000000002
 40
0.5937500000000002
 40
0.6250000000000002
 40
0.6250000000000002
 40
0.6562500000000002
 40
0.6562500000000002
 40
0.6875000000000002
 40
0.6875000000000002
 40
0.7187500000000002
 40
0.7187500000000002
 40
0.7500000000000001
 40
0.7500000000000001
 40
0.7812500000000001
 40
0.7812500000000001
 40
0.8125000000000001
 40
0.8125000000000001
 40
0.8437500000000001
 40
0.8437500000000001
 40
0.8750000000000001
 40
0.8750000000000001
 40
0.9062500000000001
 40
0.9062500000000001
 40
0.9375
 40
0.9375
 40
1.0
 40
1.0
 40
1.03125
 40
1.03125
 10
230.7273339058582
 20
131.7200637191685
 30
0.0
 10
231.2233396748731
 20
131.7200637191685
 30
0.0
 10
231.3858794172958
 20
131.7351602093919
 30
0.0
 10
231.7056066269932
 20
131.7941671478297
 30
0.0
 10
231.8644632035785
 20
131.8388028126395
 30
0.0
 10
232.1671351018074
 20
131.9548178076572
 30
0.0
 10
232.3106629174035
 20
132.0256464360814
 30
0.0
 10
232.5822946963508
 20
132.1922351530737
 30
0.0
 10
232.7107793286739
 20
132.2887801038008
 30
0.0
 10
232.9411360846343
 20
132.4985384665421
 30
0.0
 10
233.0445635845972
 20
132.6125206844004
 30
0.0
 10
233.2273286611525
 20
132.8586495810486
 30
0.0
 10
233.304895036874
 20
132.9888006383417
 30
0.0
 10
233.4296302298701
 20
133.2564635331631
 30
0.0
 10
233.4777105732129
 20
133.3959571897673
 30
0.0
 10
233.5419940820242
 20
133.6794313282058
 30
0.0
 10
233.5579134095806
 20
133.8210029273399
 30
0.0
 10
233.5580946567669
 20
134.1037123993634
 30
0.0
 10
233.5418306274863
 20
134.2462821610633
 30
0.0
 10
233.4779904096872
 20
134.5201455999849
 30
0.0
 10
233.4307568651001
 20
134.6523050552187
 30
0.0
 10
233.3054516988718
 20
134.9073554943716
 30
0.0
 10
233.2272439212466
 20
135.0295723875668
 30
0.0
 10
233.0463920387485
 20
135.2546035750503
 30
0.0
 10
232.9430198750886
 20
135.3589377031639
 30
0.0
 10
232.7098833392115
 20
135.5506476291502
 30
0.0
 10
232.5837933022271
 20
135.6350422908599
 30
0.0
 10
232.3132511659039
 20
135.7823979075562
 30
0.0
 10
232.1670562053169
 20
135.8458649334795
 30
0.0
 10
231.8644308563672
 20
135.9472648802434
 30
0.0
 10
231.7086083578182
 20
135.9853877353508
 30
0.0
 10
231.3879751855396
 20
136.0369627589317
 30
0.0
 10
231.2221700049316
 20
136.0501413811728
 30
0.0
 10
230.8957161888217
 20
136.0502398119827
 30
0.0
 10
230.7333765865331
 20
136.0375856516655
 30
0.0
 10
230.4105145988786
 20
135.9861190740235
 30
0.0
 10
230.2527738884533
 20
135.947538066883
 30
0.0
 10
229.9518215557809
 20
135.8469520290572
 30
0.0
 10
229.806302077841
 20
135.7841522496968
 30
0.0
 10
229.5330988219504
 20
135.6356967379761
 30
0.0
 10
229.4072681740192
 20
135.5513236663369
 30
0.0
 10
229.1765883504433
 20
135.3621557341637
 30
0.0
 10
229.0709708725042
 20
135.2561050973191
 30
0.0
 10
228.8894264851803
 20
135.0305768738878
 30
0.0
 10
228.8125080281868
 20
134.9106653983386
 30
0.0
 10
228.6866802330622
 20
134.6558556382091
 30
0.0
 10
228.6384199637765
 20
134.5212968352106
 30
0.0
 10
228.5745451949783
 20
134.2484209049187
 30
0.0
 10
228.5581550345125
 20
134.1086794562448
 30
0.0
 10
228.5578558495521
 20
133.8223582616444
 30
0.0
 10
228.5739452184669
 20
133.6805672996414
 30
0.0
 10
228.6372606253815
 20
133.3997179181908
 30
0.0
 10
228.6852742928722
 20
133.2591634727185
 30
0.0
 10
228.810529831882
 20
132.9897279153348
 30
0.0
 10
228.8872002795305
 20
132.8610665651053
 30
0.0
 10
229.0684100637453
 20
132.6161945674042
 30
0.0
 10
229.1737731098326
 20
132.4996779446312
 30
0.0
 10
229.4039547281468
 20
132.2898041462401
 30
0.0
 10
229.5296200680227
 20
132.195036627011
 30
0.0
 10
229.802748302468
 20
132.0269559309501
 30
0.0
 10
229.9478680371878
 20
131.9553457487909
 30
0.0
 10
230.3988182874409
 20
131.7820707379583
 30
0.0
 10
230.7273339058582
 20
131.7200637191685
 30
0.0
 10
231.2233396748731
 20
131.7200637191685
 30
0.0
  0
LINE
  5
11A
330
1F
100
AcDbEntity
  8
0
  6
HIDDEN
 62
     7
370
     0
100
AcDbLine
 10
247.0580044781
 20
103.9635602592
 30
0.0
 11
247.0580044781
 21
143.9635593651
 31
0.0
  0
CIRCLE
  5
11B
330
1F
100
AcDbEntity
  8
0
  6
HIDDEN
 62
     7
370
     0
100
AcDbCircle
 10
117.5580044185
 20
123.9635598121
 30
0.0
 40
4.049999999999997
  0
LINE
  5
11C
330
1F
100
AcDbEntity
  8
0
  6
HIDDEN
 62
     7
370
     0
100
AcDbLine
 10
96.5882319605
 20
139.2765108703
 30
0.0
 11
96.5882319605
 21
108.650608754
 31
0.0
  0
LINE
  5
11D
330
1F
100
AcDbEntity
  8
0
  6
HIDDEN
 62
     7
370
     0
100
AcDbLine
 10
95.0580056404
 20
107.7671300827
 30
0.0
 11
95.0580056404
 21
140.1599895416
 31
0.0
  0
LINE
  5
11E
330
1F
100
AcDbEntity
  8
0
  6
HIDDEN
 62
     7
370
     0
100
AcDbLine
 10
103.0882320946
 20
138.3099703325
 30
0.0
 11
103.0882320946
 21
109.6171492918
 31
0.0
  0
LINE
  5
11F
330
1F
100
AcDbEntity
  8
0
  6
HIDDEN
 62
     7
370
     0
100
AcDbLine
 10
108.8882334178
 20
137.9635602443
 30
0.0
 11
108.8882334178
 21
109.96355938
 31
0.0
  0
LINE
  5
120
330
1F
100
AcDbEntity
  8
0
  6
HIDDEN
 62
     7
370
     0
100
AcDbLine
 10
101.4882329499
 20
137.9635602443
 30
0.0
 11
101.4882329499
 21
109.96355938
 31
0.0
  0
LINE
  5
121
330
1F
100
AcDbEntity
  8
0
  6
HIDDEN
 62
     7
370
     0
100
AcDbLine
 10
102.4882331138
 20
137.9635602443
 30
0.0
 11
102.4882331138
 21
109.96355938
 31
0.0
  0
SPLINE
  5
122
330
1F
100
AcDbEntity
  8
0
  6
HIDDEN
 62
     7
370
     0
100
AcDbSpline
210
0.0
220
0.0
230
1.0
 70
     8
 71
     3
 72
    10
 73
     6
 74
     0
 42
0.00000001
 43
0.00000001
 12
1.0
 22
0.0
 32
0.0
 13
1.0
 23
0.0
 33
0.0
 40
0.0
 40
0.0
 40
0.0
 40
0.0
 40
0.5
 40
0.5
 40
1.0
 40
1.0
 40
1.0
 40
1.0
 10
121.5580044185347
 20
124.5979886891598
 30
0.0
 10
121.5911518366112
 20
124.3889980881518
 30
0.0
 10
121.6080106819728
 20
124.1774356221302
 30
0.0
 10
121.6079981516252
 20
123.7494468561626
 30
0.0
 10
121.5910831938848
 20
123.5376887517469
 30
0.0
 10
121.5580044185347
 20
123.3291309351148
 30
0.0
  0
LINE
  5
123
330
1F
100
AcDbEntity
  8
0
  6
HIDDEN
 62
     7
370
     0
100
AcDbLine
 10
122.0580044781
 20
137.4635601623
 30
0.0
 11
122.0580044781
 21
110.463559462
 31
0.0
  0
SPLINE
  5
124
330
1F
100
AcDbEntity
  8
0
  6
HIDDEN
 62
     7
370
     0
100
AcDbSpline
210
0.0
220
0.0
230
1.0
 70
     8
 71
     3
 72
    10
 73
     6
 74
     0
 42
0.00000001
 43
0.00000001
 12
1.0
 22
0.0
 32
0.0
 13
1.0
 23
0.0
 33
0.0
 40
0.0
 40
0.0
 40
0.0
 40
0.0
 40
0.5
 40
0.5
 40
1.0
 40
1.0
 40
1.0
 40
1.0
 10
121.5580044185347
 20
123.3291309351149
 30
0.0
 10
121.5911933810084
 20
123.5383834686973
 30
0.0
 10
121.6078941572631
 20
123.7492002295963
 30
0.0
 10
121.6081135977077
 20
124.1737325107995
 30
0.0
 10
121.5912338823143
 20
124.3884807995722
 30
0.0
 10
121.5580044185347
 20
124.5979886891598
 30
0.0
  0
SPLINE
  5
125
330
1F
100
AcDbEntity
  8
0
  6
HIDDEN
 62
     7
370
     0
100
AcDbSpline
210
0.0
220
0.0
230
1.0
 70
     8
 71
     3
 72
    14
 73
    10
 74
     0
 42
0.00000001
 43
0.00000001
 12
1.0
 22
0.0
 32
0.0
 13
1.0
 23
0.0
 33
0.0
 40
0.0
 40
0.0
 40
0.0
 40
0.0
 40
0.25
 40
0.25
 40
0.5
 40
0.5
 40
0.75
 40
0.75
 40
1.0
 40
1.0
 40
1.0
 40
1.0
 10
233.0580044185348
 20
121.3082890709623
 30
0.0
 10
233.0898696712546
 20
121.4137230972065
 30
0.0
 10
233.1148369003354
 20
121.5179378490501
 30
0.0
 10
233.1490456388105
 20
121.7241570689475
 30
0.0
 10
233.1579923739988
 20
121.8261448496995
 30
0.0
 10
233.15801643803
 20
122.0170055223756
 30
0.0
 10
233.1491836415956
 20
122.1082813026194
 30
0.0
 10
233.1149135306105
 20
122.2753233737247
 30
0.0
 10
233.0898852987131
 20
122.3503523256379
 30
0.0
 10
233.0580044185348
 20
122.4173427216031
 30
0.0
  0
SPLINE
  5
126
330
1F
100
AcDbEntity
  8
0
  6
HIDDEN
 62
     7
370
     0
100
AcDbSpline
210
0.0
220
0.0
230
1.0
 70
     8
 71
     3
 72
    50
 73
    46
 74
     0
 42
0.00000001
 43
0.00000001
 12
1.0
 22
0.0
 32
0.0
 13
1.0
 23
0.0
 33
0.0
 40
0.0
 40
0.0
 40
0.0
 40
0.0
 40
0.0625000000000035
 40
0.0625000000000035
 40
0.125000000000007
 40
0.125000000000007
 40
0.1562500000000088
 40
0.1562500000000088
 40
0.1875000000000105
 40
0.1875000000000105
 40
0.2187500000000123
 40
0.2187500000000123
 40
0.250000000000014
 40
0.250000000000014
 40
0.2812500000000158
 40
0.2812500000000158
 40
0.3125000000000175
 40
0.3125000000000175
 40
0.3750000000000181
 40
0.3750000000000181
 40
0.4375000000000187
 40
0.4375000000000187
 40
0.5000000000000192
 40
0.5000000000000192
 40
0.5312500000000195
 40
0.5312500000000195
 40
0.5625000000000199
 40
0.5625000000000199
 40
0.5937500000000201
 40
0.5937500000000201
 40
0.6250000000000204
 40
0.6250000000000204
 40
0.6875000000000188
 40
0.6875000000000188
 40
0.750000000000017
 40
0.750000000000017
 40
0.8125000000000153
 40
0.8125000000000153
 40
0.8437500000000128
 40
0.8437500000000128
 40
0.8750000000000102
 40
0.8750000000000102
 40
0.9375000000000051
 40
0.9375000000000051
 40
1.0
 40
1.0
 40
1.0
 40
1.0
 10
233.0580044185348
 20
122.4173427216032
 30
0.0
 10
232.9811410011827
 20
122.6435532829
 30
0.0
 10
232.8651966081358
 20
122.8586422655458
 30
0.0
 10
232.5623582519553
 20
123.2567574516861
 30
0.0
 10
232.3807854842939
 20
123.4322795182131
 30
0.0
 10
232.068217254539
 20
123.6468870682109
 30
0.0
 10
231.9592406747638
 20
123.7088604189044
 30
0.0
 10
231.7311970272041
 20
123.8124753939962
 30
0.0
 10
231.6108713429114
 20
123.8544063082077
 30
0.0
 10
231.3645450156517
 20
123.9132280147774
 30
0.0
 10
231.2403229096967
 20
123.9299434275649
 30
0.0
 10
230.9897444285492
 20
123.9377723655639
 30
0.0
 10
230.8618363964389
 20
123.9285134761121
 30
0.0
 10
230.612969766024
 20
123.8844631932135
 30
0.0
 10
230.4919812837136
 20
123.8501062804075
 30
0.0
 10
230.2564344856016
 20
123.7584235276193
 30
0.0
 10
230.1421239939809
 20
123.7009032296943
 30
0.0
 10
229.8207368902329
 20
123.5027701393267
 30
0.0
 10
229.6281068373189
 20
123.3324135870149
 30
0.0
 10
229.3100489268843
 20
122.9508400522489
 30
0.0
 10
229.1807397620994
 20
122.7344185516082
 30
0.0
 10
229.0061360343038
 20
122.29304610144
 30
0.0
 10
228.9587169048166
 20
122.0612013831008
 30
0.0
 10
228.9576605743697
 20
121.7348961767595
 30
0.0
 10
228.9687565595364
 20
121.6274140082417
 30
0.0
 10
229.0133390805453
 20
121.4232292779536
 30
0.0
 10
229.0463931592327
 20
121.3270310237985
 30
0.0
 10
229.1332521151779
 20
121.1452759414281
 30
0.0
 10
229.1875388808558
 20
121.0594650113102
 30
0.0
 10
229.3127260465947
 20
120.9035316306379
 30
0.0
 10
229.3839354526582
 20
120.832508018525
 30
0.0
 10
229.623747220571
 20
120.6378209569246
 30
0.0
 10
229.8125161563229
 20
120.5368722017791
 30
0.0
 10
230.2437323760051
 20
120.3846101548293
 30
0.0
 10
230.4773807390402
 20
120.3361018917768
 30
0.0
 10
230.9778318792142
 20
120.2893396161289
 30
0.0
 10
231.2324170779548
 20
120.2925983552025
 30
0.0
 10
231.6036897962565
 20
120.3374834746234
 30
0.0
 10
231.72290861567
 20
120.3588407695946
 30
0.0
 10
231.953116366508
 20
120.4148227518273
 30
0.0
 10
232.0647518216522
 20
120.449824396395
 30
0.0
 10
232.3770058214882
 20
120.5734298950724
 30
0.0
 10
232.5617343404237
 20
120.6832066113748
 30
0.0
 10
232.8622486124605
 20
120.9544814729773
 30
0.0
 10
232.9810376997338
 20
121.1184123311345
 30
0.0
 10
233.0580044185348
 20
121.3082890709623
 30
0.0
  0
SPLINE
  5
127
330
1F
100
AcDbEntity
  8
0
  6
HIDDEN
 62
     7
370
     0
100
AcDbSpline
210
0.0
220
0.0
230
1.0
 70
     8
 71
     3
 72
    10
 73
     6
 74
     0
 42
0.00000001
 43
0.00000001
 12
1.0
 22
0.0
 32
0.0
 13
1.0
 23
0.0
 33
0.0
 40
0.0
 40
0.0
 40
0.0
 40
0.0
 40
0.5
 40
0.5
 40
1.0
 40
1.0
 40
1.0
 40
1.0
 10
230.5402563263902
 20
116.2674275150947
 30
0.0
 10
230.4808539214622
 20
116.1473041627271
 30
0.0
 10
230.4448326912494
 20
116.0221285458492
 30
0.0
 10
230.4346834369056
 20
115.7489852471259
 30
0.0
 10
230.4613919543585
 20
115.6021946873448
 30
0.0
 10
230.5125553275132
 20
115.4539500492415
 30
0.0
  0
SPLINE
  5
128
330
1F
100
AcDbEntity
  8
0
  6
HIDDEN
 62
     7
370
     0
100
AcDbSpline
210
0.0
220
0.0
230
1.0
 70
     8
 71
     3
 72
    68
 73
    64
 74
     0
 42
0.00000001
 43
0.00000001
 12
1.0
 22
0.0
 32
0.0
 13
1.0
 23
0.0
 33
0.0
 40
0.0
 40
0.0
 40
0.0
 40
0.0
 40
0.0312500000000011
 40
0.0312500000000011
 40
0.0625000000000023
 40
0.0625000000000023
 40
0.0937500000000034
 40
0.0937500000000034
 40
0.1250000000000046
 40
0.1250000000000046
 40
0.1562500000000057
 40
0.1562500000000057
 40
0.1875000000000069
 40
0.1875000000000069
 40
0.218750000000008
 40
0.218750000000008
 40
0.2500000000000092
 40
0.2500000000000092
 40
0.28125000000001
 40
0.28125000000001
 40
0.3125000000000108
 40
0.3125000000000108
 40
0.3437500000000116
 40
0.3437500000000116
 40
0.3750000000000124
 40
0.3750000000000124
 40
0.4375000000000139
 40
0.4375000000000139
 40
0.4687500000000141
 40
0.4687500000000141
 40
0.4843750000000139
 40
0.4843750000000139
 40
0.5000000000000135
 40
0.5000000000000135
 40
0.5156250000000133
 40
0.5156250000000133
 40
0.531250000000013
 40
0.531250000000013
 40
0.5625000000000117
 40
0.5625000000000117
 40
0.5937500000000102
 40
0.5937500000000102
 40
0.6250000000000088
 40
0.6250000000000088
 40
0.6875000000000067
 40
0.6875000000000067
 40
0.7187500000000057
 40
0.7187500000000057
 40
0.7500000000000047
 40
0.7500000000000047
 40
0.7812500000000038
 40
0.7812500000000038
 40
0.8125000000000028
 40
0.8125000000000028
 40
0.8437500000000018
 40
0.8437500000000018
 40
0.8750000000000009
 40
0.8750000000000009
 40
0.937499999999999
 40
0.937499999999999
 40
0.9687499999999996
 40
0.9687499999999996
 40
1.0
 40
1.0
 40
1.0
 40
1.0
 10
230.5125553275135
 20
115.4539500492423
 30
0.0
 10
230.6297135101879
 20
115.3908031279341
 30
0.0
 10
230.7420037449455
 20
115.3339794048761
 30
0.0
 10
230.9661536093749
 20
115.2345523148208
 30
0.0
 10
231.0776975384109
 20
115.1919241651245
 30
0.0
 10
231.3029282564037
 20
115.123164439823
 30
0.0
 10
231.4174064445373
 20
115.0969509013679
 30
0.0
 10
231.6441063650808
 20
115.0656160186654
 30
0.0
 10
231.7566745352221
 20
115.0602061288467
 30
0.0
 10
231.980884682303
 20
115.0737619761201
 30
0.0
 10
232.0935676697323
 20
115.0931715672302
 30
0.0
 10
232.3092447983184
 20
115.1606221165618
 30
0.0
 10
232.4133504176256
 20
115.2086141220933
 30
0.0
 10
232.610609542057
 20
115.3385097476847
 30
0.0
 10
232.6998632293895
 20
115.4178004290972
 30
0.0
 10
232.8588216435377
 20
115.6068634410248
 30
0.0
 10
232.928542814898
 20
115.7180615927052
 30
0.0
 10
233.0385124569052
 20
115.9569863925551
 30
0.0
 10
233.0806002661635
 20
116.0880880654568
 30
0.0
 10
233.1374155481304
 20
116.3573815319538
 30
0.0
 10
233.1527364652975
 20
116.4967546973219
 30
0.0
 10
233.1609658347259
 20
116.7771195127477
 30
0.0
 10
233.1540111621396
 20
116.9159319374243
 30
0.0
 10
233.1228176187249
 20
117.1913516535172
 30
0.0
 10
233.098217831161
 20
117.3290323413941
 30
0.0
 10
233.0050491294598
 20
117.7292724766718
 30
0.0
 10
232.9168897489297
 20
117.9801095115051
 30
0.0
 10
232.7714278990949
 20
118.3364433297135
 30
0.0
 10
232.7208975163786
 20
118.450822360631
 30
0.0
 10
232.6549728078786
 20
118.6116416713775
 30
0.0
 10
232.6348767458596
 20
118.6632457829854
 30
0.0
 10
232.6041196754736
 20
118.7587662715803
 30
0.0
 10
232.5935083391993
 20
118.8034550644244
 30
0.0
 10
232.5884466675886
 20
118.8777992483341
 30
0.0
 10
232.5940978387156
 20
118.9081825462119
 30
0.0
 10
232.6181436141327
 20
118.9530231812556
 30
0.0
 10
232.6360389546635
 20
118.9681319381899
 30
0.0
 10
232.698518442765
 20
118.998493682855
 30
0.0
 10
232.7488250626452
 20
118.999080700877
 30
0.0
 10
232.8467600641436
 20
118.9811401579759
 30
0.0
 10
232.8953685693538
 20
118.9616010691715
 30
0.0
 10
232.982899653343
 20
118.9067472594467
 30
0.0
 10
233.0219981805134
 20
118.8714565177046
 30
0.0
 10
233.1201525186614
 20
118.7431904500791
 30
0.0
 10
233.1607201590063
 20
118.6255540100537
 30
0.0
 10
233.1564314624059
 20
118.4053060828061
 30
0.0
 10
233.1440267055332
 20
118.3232226021639
 30
0.0
 10
233.0936387358283
 20
118.1472495320448
 30
0.0
 10
233.0561013787028
 20
118.0537684676453
 30
0.0
 10
232.9518455748082
 20
117.8544569006252
 30
0.0
 10
232.8874986954328
 20
117.7532607884142
 30
0.0
 10
232.734648823146
 20
117.5487432149747
 30
0.0
 10
232.6456372704729
 20
117.4453319118971
 30
0.0
 10
232.4545504796183
 20
117.2489655468434
 30
0.0
 10
232.3501352807245
 20
117.1534849875535
 30
0.0
 10
232.1355115193246
 20
116.9766770544221
 30
0.0
 10
232.0239578885146
 20
116.8940360240324
 30
0.0
 10
231.6843169443255
 20
116.6664440483706
 30
0.0
 10
231.4570473070405
 20
116.5440766004048
 30
0.0
 10
231.1127072294576
 20
116.4013718466279
 30
0.0
 10
230.9992327667468
 20
116.3615682710025
 30
0.0
 10
230.7718035749183
 20
116.2993067782735
 30
0.0
 10
230.6581275929039
 20
116.2764532093292
 30
0.0
 10
230.5402563263906
 20
116.267427515094
 30
0.0
  0
LWPOLYLINE
  5
129
330
1F
100
AcDbEntity
  8
0
  6
HIDDEN
 62
     7
370
     0
100
AcDbPolyline
 90
       21
 70
   128
 43
0.0
 10
231.0580018555
 20
114.644906318
 10
231.7069399749
 20
114.7339174731
 10
232.2923544442
 20
114.9922384156
 10
232.7569428479
 20
115.394581875
 10
233.0552193915
 20
115.9015650137
 10
233.1580076014
 20
116.4635599798
 10
233.0552193915
 20
117.0255544802
 10
232.7569428479
 20
117.5325376189
 10
232.2923544442
 20
117.9348810783
 10
231.7069399749
 20
118.1932020208
 10
231.0580018555
 20
118.2822131759
 10
230.4090711867
 20
118.1932020208
 10
229.8236567175
 20
117.9348810783
 10
229.3590683138
 20
117.5325376189
 10
229.0607843196
 20
117.0255544802
 10
228.9580035602
 20
116.4635599798
 10
229.0607843196
 20
115.9015650137
 10
229.3590683138
 20
115.394581875
 10
229.8236567175
 20
114.9922384156
 10
230.4090711867
 20
114.7339174731
 10
231.0580018555
 20
114.644906318
  0
SPLINE
  5
12A
330
1F
100
AcDbEntity
  8
0
  6
HIDDEN
 62
     7
370
     0
100
AcDbSpline
210
0.0
220
0.0
230
1.0
 70
     8
 71
     3
 72
    68
 73
    64
 74
     0
 42
0.00000001
 43
0.00000001
 12
1.0
 22
0.0
 32
0.0
 13
1.0
 23
0.0
 33
0.0
 40
0.0
 40
0.0
 40
0.0
 40
0.0
 40
0.0312499999999998
 40
0.0312499999999998
 40
0.0624999999999996
 40
0.0624999999999996
 40
0.0937499999999994
 40
0.0937499999999994
 40
0.1249999999999991
 40
0.1249999999999991
 40
0.1562499999999989
 40
0.1562499999999989
 40
0.1874999999999987
 40
0.1874999999999987
 40
0.2187499999999985
 40
0.2187499999999985
 40
0.2499999999999983
 40
0.2499999999999983
 40
0.2812499999999983
 40
0.2812499999999983
 40
0.3124999999999983
 40
0.3124999999999983
 40
0.3437499999999983
 40
0.3437499999999983
 40
0.3749999999999983
 40
0.3749999999999983
 40
0.4062499999999983
 40
0.4062499999999983
 40
0.4374999999999983
 40
0.4374999999999983
 40
0.4687499999999983
 40
0.4687499999999983
 40
0.4999999999999983
 40
0.4999999999999983
 40
0.5624999999999983
 40
0.5624999999999983
 40
0.5937499999999984
 40
0.5937499999999984
 40
0.6249999999999986
 40
0.6249999999999986
 40
0.6562499999999987
 40
0.6562499999999987
 40
0.6874999999999988
 40
0.6874999999999988
 40
0.7187499999999989
 40
0.7187499999999989
 40
0.749999999999999
 40
0.749999999999999
 40
0.7812499999999992
 40
0.7812499999999992
 40
0.8124999999999993
 40
0.8124999999999993
 40
0.8437499999999994
 40
0.8437499999999994
 40
0.8749999999999996
 40
0.8749999999999996
 40
0.9062499999999997
 40
0.9062499999999997
 40
0.9374999999999998
 40
0.9374999999999998
 40
0.9687499999999999
 40
0.9687499999999999
 40
1.0
 40
1.0
 40
1.0
 40
1.0
 10
121.5580044185347
 20
123.3291309351148
 30
0.0
 10
121.517989466185
 20
123.0768413322993
 30
0.0
 10
121.4550476647737
 20
122.8328424819234
 30
0.0
 10
121.2856610027017
 20
122.3604240928609
 30
0.0
 10
121.1779674401162
 20
122.130010706701
 30
0.0
 10
120.9226826715783
 20
121.6953061109039
 30
0.0
 10
120.7766434411061
 20
121.4926641442526
 30
0.0
 10
120.4484220045468
 20
121.1156748534948
 30
0.0
 10
120.2641747167718
 20
120.9400168999174
 30
0.0
 10
119.8712145494636
 20
120.6297589309711
 30
0.0
 10
119.6619199525044
 20
120.4938137233212
 30
0.0
 10
119.217034525567
 20
120.2604236279154
 30
0.0
 10
118.980236933068
 20
120.163177021501
 30
0.0
 10
118.4995018641487
 20
120.0165055636296
 30
0.0
 10
118.2532587709659
 20
119.9656132186872
 30
0.0
 10
117.7485419909865
 20
119.9100858684517
 30
0.0
 10
117.49234729005
 20
119.9062609813818
 30
0.0
 10
116.9899685408499
 20
119.9456847640262
 30
0.0
 10
116.7407188416664
 20
119.9887122132374
 30
0.0
 10
116.2491910441876
 20
120.1224171826887
 30
0.0
 10
116.0138954429618
 20
120.2110870285939
 30
0.0
 10
115.5629815482996
 20
120.4301183923713
 30
0.0
 10
115.3453691978362
 20
120.5621199580549
 30
0.0
 10
114.942162028288
 20
120.8614772390578
 30
0.0
 10
114.7565505358535
 20
121.0280961664957
 30
0.0
 10
114.416562465451
 20
121.3952075919231
 30
0.0
 10
114.2614895346281
 20
121.5975113374638
 30
0.0
 10
113.9951464579648
 20
122.0215920170579
 30
0.0
 10
113.882162357248
 20
122.2447516225241
 30
0.0
 10
113.6973071003171
 20
122.7141068641182
 30
0.0
 10
113.6261663388137
 20
122.9603173674537
 30
0.0
 10
113.5322059275255
 20
123.4548431938249
 30
0.0
 10
113.5081965975691
 20
123.7057741889169
 30
0.0
 10
113.5076234768966
 20
124.4700195684731
 30
0.0
 10
113.6030225882152
 20
124.9722438705241
 30
0.0
 10
113.8808863804163
 20
125.6798083767964
 30
0.0
 10
113.9940483364968
 20
125.9035146405373
 30
0.0
 10
114.2601795185407
 20
126.3277845518578
 30
0.0
 10
114.4150072927404
 20
126.5300365139139
 30
0.0
 10
114.7551883985282
 20
126.8977472552821
 30
0.0
 10
114.940690855478
 20
127.0643641305314
 30
0.0
 10
115.3429846565373
 20
127.3634135093269
 30
0.0
 10
115.5609927047893
 20
127.4958702173553
 30
0.0
 10
116.0115910719396
 20
127.71507661806
 30
0.0
 10
116.2461400708204
 20
127.8035617480636
 30
0.0
 10
116.7346000643727
 20
127.9370479780022
 30
0.0
 10
116.9868654600866
 20
127.980989690496
 30
0.0
 10
117.4890460982469
 20
128.0207986869695
 30
0.0
 10
117.7415282155986
 20
128.017454474156
 30
0.0
 10
118.2493932586681
 20
127.9622751541654
 30
0.0
 10
118.4969387318519
 20
127.911229225696
 30
0.0
 10
118.9779062693226
 20
127.7648188374604
 30
0.0
 10
119.2138661344279
 20
127.6681726326868
 30
0.0
 10
119.6604365839495
 20
127.4342676883738
 30
0.0
 10
119.8700814465229
 20
127.2981426745473
 30
0.0
 10
120.2630681532774
 20
126.9880884102182
 30
0.0
 10
120.4474640570924
 20
126.812431162643
 30
0.0
 10
120.7760144749528
 20
126.4352912399786
 30
0.0
 10
120.921956571476
 20
126.2328250347088
 30
0.0
 10
121.1768419266781
 20
125.7992487365754
 30
0.0
 10
121.2851532394864
 20
125.5679568929939
 30
0.0
 10
121.4549882169034
 20
125.0945972128606
 30
0.0
 10
121.5179835780404
 20
124.8503154160399
 30
0.0
 10
121.5580044185347
 20
124.5979886891598
 30
0.0
  0
SPLINE
  5
12B
330
1F
100
AcDbEntity
  8
0
  6
HIDDEN
 62
     7
370
     0
100
AcDbSpline
210
0.0
220
0.0
230
1.0
 70
     8
 71
     3
 72
    68
 73
    64
 74
     0
 42
0.00000001
 43
0.00000001
 12
1.0
 22
0.0
 32
0.0
 13
1.0
 23
0.0
 33
0.0
 40
0.0
 40
0.0
 40
0.0
 40
0.0
 40
0.0312499999999999
 40
0.0312499999999999
 40
0.0624999999999999
 40
0.0624999999999999
 40
0.0937499999999998
 40
0.0937499999999998
 40
0.1249999999999998
 40
0.1249999999999998
 40
0.1562499999999997
 40
0.1562499999999997
 40
0.1874999999999997
 40
0.1874999999999997
 40
0.2187499999999996
 40
0.2187499999999996
 40
0.2499999999999996
 40
0.2499999999999996
 40
0.2812499999999996
 40
0.2812499999999996
 40
0.3124999999999996
 40
0.3124999999999996
 40
0.3437499999999995
 40
0.3437499999999995
 40
0.3749999999999994
 40
0.3749999999999994
 40
0.4062499999999994
 40
0.4062499999999994
 40
0.4374999999999994
 40
0.4374999999999994
 40
0.4687499999999993
 40
0.4687499999999993
 40
0.4999999999999993
 40
0.4999999999999993
 40
0.5624999999999993
 40
0.5624999999999993
 40
0.5937499999999993
 40
0.5937499999999993
 40
0.6249999999999994
 40
0.6249999999999994
 40
0.6562499999999994
 40
0.6562499999999994
 40
0.6874999999999996
 40
0.6874999999999996
 40
0.7187499999999996
 40
0.7187499999999996
 40
0.7499999999999997
 40
0.7499999999999997
 40
0.7812499999999997
 40
0.7812499999999997
 40
0.8124999999999998
 40
0.8124999999999998
 40
0.8437499999999998
 40
0.8437499999999998
 40
0.8749999999999999
 40
0.8749999999999999
 40
0.9062499999999999
 40
0.9062499999999999
 40
0.9375
 40
0.9375
 40
0.96875
 40
0.96875
 40
1.0
 40
1.0
 40
1.0
 40
1.0
 10
121.5580044185347
 20
124.5979886891598
 30
0.0
 10
121.517989466185
 20
124.8502782919754
 30
0.0
 10
121.4550476647737
 20
125.0942771423512
 30
0.0
 10
121.2856610027017
 20
125.5666955314138
 30
0.0
 10
121.1779674401162
 20
125.7971089175737
 30
0.0
 10
120.9226826715783
 20
126.2318135133708
 30
0.0
 10
120.7766434411061
 20
126.4344554800221
 30
0.0
 10
120.4484220045468
 20
126.8114447707799
 30
0.0
 10
120.2641747167719
 20
126.9871027243573
 30
0.0
 10
119.8712145494636
 20
127.2973606933036
 30
0.0
 10
119.6619199525044
 20
127.4333059009535
 30
0.0
 10
119.217034525567
 20
127.6666959963593
 30
0.0
 10
118.980236933068
 20
127.7639426027737
 30
0.0
 10
118.4995018641487
 20
127.9106140606451
 30
0.0
 10
118.253258770966
 20
127.9615064055875
 30
0.0
 10
117.7485419909865
 20
128.017033755823
 30
0.0
 10
117.49234729005
 20
128.020858642893
 30
0.0
 10
116.9899685408499
 20
127.9814348602485
 30
0.0
 10
116.7407188416663
 20
127.9384074110373
 30
0.0
 10
116.2491910441876
 20
127.804702441586
 30
0.0
 10
116.0138954429617
 20
127.7160325956808
 30
0.0
 10
115.5629815482996
 20
127.4970012319034
 30
0.0
 10
115.3453691978362
 20
127.3649996662198
 30
0.0
 10
114.9421620282879
 20
127.0656423852169
 30
0.0
 10
114.7565505358535
 20
126.899023457779
 30
0.0
 10
114.416562465451
 20
126.5319120323516
 30
0.0
 10
114.2614895346281
 20
126.3296082868109
 30
0.0
 10
113.9951464579647
 20
125.9055276072169
 30
0.0
 10
113.8821623572479
 20
125.6823680017506
 30
0.0
 10
113.6973071003171
 20
125.2130127601565
 30
0.0
 10
113.6261663388137
 20
124.966802256821
 30
0.0
 10
113.5322059275255
 20
124.4722764304498
 30
0.0
 10
113.5081965975691
 20
124.2213454353578
 30
0.0
 10
113.5076234768966
 20
123.4571000558016
 30
0.0
 10
113.6030225882152
 20
122.9548757537506
 30
0.0
 10
113.8808863804163
 20
122.2473112474783
 30
0.0
 10
113.9940483364968
 20
122.0236049837374
 30
0.0
 10
114.2601795185407
 20
121.5993350724169
 30
0.0
 10
114.4150072927404
 20
121.3970831103608
 30
0.0
 10
114.7551883985282
 20
121.0293723689926
 30
0.0
 10
114.940690855478
 20
120.8627554937433
 30
0.0
 10
115.3429846565374
 20
120.5637061149478
 30
0.0
 10
115.5609927047893
 20
120.4312494069194
 30
0.0
 10
116.0115910719396
 20
120.2120430062148
 30
0.0
 10
116.2461400708204
 20
120.1235578762112
 30
0.0
 10
116.7346000643727
 20
119.9900716462725
 30
0.0
 10
116.9868654600865
 20
119.9461299337787
 30
0.0
 10
117.4890460982468
 20
119.9063209373053
 30
0.0
 10
117.7415282155985
 20
119.9096651501188
 30
0.0
 10
118.249393258668
 20
119.9648444701093
 30
0.0
 10
118.4969387318518
 20
120.0158903985787
 30
0.0
 10
118.9779062693226
 20
120.1623007868143
 30
0.0
 10
119.2138661344278
 20
120.2589469915879
 30
0.0
 10
119.6604365839494
 20
120.4928519359009
 30
0.0
 10
119.8700814465229
 20
120.6289769497274
 30
0.0
 10
120.2630681532774
 20
120.9390312140565
 30
0.0
 10
120.4474640570923
 20
121.1146884616316
 30
0.0
 10
120.7760144749527
 20
121.4918283842961
 30
0.0
 10
120.9219565714759
 20
121.6942945895659
 30
0.0
 10
121.1768419266781
 20
122.1278708876993
 30
0.0
 10
121.2851532394864
 20
122.3591627312808
 30
0.0
 10
121.4549882169033
 20
122.832522411414
 30
0.0
 10
121.5179835780404
 20
123.0768042082348
 30
0.0
 10
121.5580044185348
 20
123.3291309351149
 30
0.0
  0
ARC
  5
12C
330
1F
100
AcDbEntity
  8
0
  6
HIDDEN
 62
     7
370
     0
100
AcDbCircle
 10
231.4803323084
 20
115.8282047563
 30
0.0
 40
1.037624591595433
100
AcDbArc
 50
154.9571136768
 51
201.1422208307
  0
LINE
  5
12D
330
1F
100
AcDbEntity
  8
0
  6
HIDDEN
 62
     7
370
     0
100
AcDbLine
 10
123.3080042174
 20
132.9635594247
 30
0.0
 11
123.3080042174
 21
114.9635601996
 31
0.0
  0
LINE
  5
12E
330
1F
100
AcDbEntity
  8
0
  6
HIDDEN
 62
     7
370
     0
100
AcDbLine
 10
122.0580044781
 20
113.713559529
 30
0.0
 11
122.0580044781
 21
134.2135600953
 31
0.0
  0
LINE
  5
12F
330
1F
100
AcDbEntity
  8
0
  6
HIDDEN
 62
     7
370
     0
100
AcDbLine
 10
149.0580051785
 20
132.9635594247
 30
0.0
 11
149.0580051785
 21
114.9635601996
 31
0.0
  0
LINE
  5
130
330
1F
100
AcDbEntity
  8
0
  6
HIDDEN
 62
     7
370
     0
100
AcDbLine
 10
151.9120916372
 20
128.2135600431
 30
0.0
 11
151.9120916372
 21
119.7135595812
 31
0.0
  0
SPLINE
  5
131
330
1F
100
AcDbEntity
  8
0
  6
HIDDEN
 62
     7
370
     0
100
AcDbSpline
210
0.0
220
0.0
230
1.0
 70
     8
 71
     3
 72
    50
 73
    46
 74
     0
 42
0.00000001
 43
0.00000001
 12
1.0
 22
0.0
 32
0.0
 13
1.0
 23
0.0
 33
0.0
 40
0.0
 40
0.0
 40
0.0
 40
0.0
 40
0.0625000000000009
 40
0.0625000000000009
 40
0.1250000000000019
 40
0.1250000000000019
 40
0.1562500000000009
 40
0.1562500000000009
 40
0.1875
 40
0.1875
 40
0.2187499999999991
 40
0.2187499999999991
 40
0.2499999999999981
 40
0.2499999999999981
 40
0.2812499999999972
 40
0.2812499999999972
 40
0.3124999999999963
 40
0.3124999999999963
 40
0.3749999999999944
 40
0.3749999999999944
 40
0.4374999999999925
 40
0.4374999999999925
 40
0.4999999999999907
 40
0.4999999999999907
 40
0.5312499999999898
 40
0.5312499999999898
 40
0.5624999999999889
 40
0.5624999999999889
 40
0.5937499999999881
 40
0.5937499999999881
 40
0.6249999999999872
 40
0.6249999999999872
 40
0.6874999999999877
 40
0.6874999999999877
 40
0.7499999999999882
 40
0.7499999999999882
 40
0.8124999999999887
 40
0.8124999999999887
 40
0.8437499999999907
 40
0.8437499999999907
 40
0.8749999999999926
 40
0.8749999999999926
 40
0.9374999999999962
 40
0.9374999999999962
 40
1.0
 40
1.0
 40
1.0
 40
1.0
 10
233.0580044185348
 20
125.5097769026715
 30
0.0
 10
232.9811410011828
 20
125.2835663413747
 30
0.0
 10
232.8651966081358
 20
125.0684773587289
 30
0.0
 10
232.5623582519553
 20
124.6703621725886
 30
0.0
 10
232.3807854842939
 20
124.4948401060616
 30
0.0
 10
232.068217254539
 20
124.2802325560638
 30
0.0
 10
231.9592406747639
 20
124.2182592053703
 30
0.0
 10
231.7311970272042
 20
124.1146442302785
 30
0.0
 10
231.6108713429115
 20
124.072713316067
 30
0.0
 10
231.3645450156518
 20
124.0138916094973
 30
0.0
 10
231.2403229096968
 20
123.9971761967098
 30
0.0
 10
230.9897444285494
 20
123.9893472587108
 30
0.0
 10
230.861836396439
 20
123.9986061481626
 30
0.0
 10
230.6129697660241
 20
124.0426564310611
 30
0.0
 10
230.4919812837136
 20
124.0770133438672
 30
0.0
 10
230.2564344856016
 20
124.1686960966554
 30
0.0
 10
230.1421239939808
 20
124.2262163945804
 30
0.0
 10
229.8207368902329
 20
124.424349484948
 30
0.0
 10
229.6281068373189
 20
124.5947060372598
 30
0.0
 10
229.3100489268842
 20
124.9762795720257
 30
0.0
 10
229.1807397620993
 20
125.1927010726665
 30
0.0
 10
229.0061360343038
 20
125.6340735228347
 30
0.0
 10
228.9587169048166
 20
125.8659182411739
 30
0.0
 10
228.9576605743696
 20
126.1922234475152
 30
0.0
 10
228.9687565595364
 20
126.299705616033
 30
0.0
 10
229.0133390805453
 20
126.5038903463211
 30
0.0
 10
229.0463931592327
 20
126.6000886004763
 30
0.0
 10
229.1332521151779
 20
126.7818436828466
 30
0.0
 10
229.1875388808558
 20
126.8676546129645
 30
0.0
 10
229.3127260465948
 20
127.0235879936368
 30
0.0
 10
229.3839354526582
 20
127.0946116057498
 30
0.0
 10
229.6237472205711
 20
127.2892986673501
 30
0.0
 10
229.8125161563229
 20
127.3902474224955
 30
0.0
 10
230.2437323760051
 20
127.5425094694453
 30
0.0
 10
230.4773807390401
 20
127.5910177324979
 30
0.0
 10
230.9778318792142
 20
127.6377800081458
 30
0.0
 10
231.2324170779546
 20
127.6345212690722
 30
0.0
 10
231.6036897962564
 20
127.5896361496514
 30
0.0
 10
231.7229086156699
 20
127.5682788546802
 30
0.0
 10
231.9531163665081
 20
127.5122968724474
 30
0.0
 10
232.0647518216522
 20
127.4772952278797
 30
0.0
 10
232.3770058214883
 20
127.3536897292023
 30
0.0
 10
232.5617343404237
 20
127.2439130128999
 30
0.0
 10
232.8622486124605
 20
126.9726381512974
 30
0.0
 10
232.9810376997339
 20
126.8087072931402
 30
0.0
 10
233.0580044185349
 20
126.6188305533123
 30
0.0
  0
LINE
  5
132
330
1F
100
AcDbEntity
  8
0
  6
HIDDEN
 62
     7
370
     0
100
AcDbLine
 10
233.0580059087
 20
125.5097769408
 30
0.0
 11
233.0580059087
 21
119.7135595812
 31
0.0
  0
LINE
  5
133
330
1F
100
AcDbEntity
  8
0
  6
HIDDEN
 62
     7
370
     0
100
AcDbLine
 10
233.0580059087
 20
122.4173426835
 30
0.0
 11
233.0580059087
 21
128.2135600431
 31
0.0
  0
SPLINE
  5
134
330
1F
100
AcDbEntity
  8
0
  6
HIDDEN
 62
     7
370
     0
100
AcDbSpline
210
0.0
220
0.0
230
1.0
 70
     8
 71
     3
 72
    14
 73
    10
 74
     0
 42
0.00000001
 43
0.00000001
 12
1.0
 22
0.0
 32
0.0
 13
1.0
 23
0.0
 33
0.0
 40
0.0
 40
0.0
 40
0.0
 40
0.0
 40
0.25
 40
0.25
 40
0.5
 40
0.5
 40
0.75
 40
0.75
 40
1.0
 40
1.0
 40
1.0
 40
1.0
 10
233.0580044185348
 20
126.6188305533123
 30
0.0
 10
233.0898696712546
 20
126.5133965270682
 30
0.0
 10
233.1148369003354
 20
126.4091817752246
 30
0.0
 10
233.1490456388105
 20
126.2029625553272
 30
0.0
 10
233.1579923739988
 20
126.1009747745752
 30
0.0
 10
233.15801643803
 20
125.9101141018991
 30
0.0
 10
233.1491836415956
 20
125.8188383216553
 30
0.0
 10
233.1149135306105
 20
125.6517962505499
 30
0.0
 10
233.0898852987131
 20
125.5767672986367
 30
0.0
 10
233.0580044185348
 20
125.5097769026715
 30
0.0
  0
SPLINE
  5
135
330
1F
100
AcDbEntity
  8
0
  6
HIDDEN
 62
     7
370
     0
100
AcDbSpline
210
0.0
220
0.0
230
1.0
 70
     8
 71
     3
 72
     8
 73
     4
 74
     0
 42
0.00000001
 43
0.00000001
 12
1.0
 22
0.0
 32
0.0
 13
1.0
 23
0.0
 33
0.0
 40
0.0
 40
0.0
 40
0.0
 40
0.0
 40
1.0
 40
1.0
 40
1.0
 40
1.0
 10
249.7728935051438
 20
105.7069756678142
 30
0.0
 10
250.1450261907666
 20
105.8718353998976
 30
0.0
 10
250.555073493163
 20
106.0247269011985
 30
0.0
 10
250.9968780518987
 20
106.1615461302488
 30
0.0
  0
SPLINE
  5
136
330
1F
100
AcDbEntity
  8
0
  6
HIDDEN
 62
     7
370
     0
100
AcDbSpline
210
0.0
220
0.0
230
1.0
 70
     8
 71
     3
 72
    16
 73
    12
 74
     0
 42
0.00000001
 43
0.00000001
 12
1.0
 22
0.0
 32
0.0
 13
1.0
 23
0.0
 33
0.0
 40
0.0
 40
0.0
 40
0.0
 40
0.0
 40
0.2500000000000005
 40
0.2500000000000005
 40
0.5000000000000008
 40
0.5000000000000008
 40
0.6250000000000006
 40
0.6250000000000006
 40
0.7500000000000002
 40
0.7500000000000002
 40
1.0
 40
1.0
 40
1.0
 40
1.0
 10
247.8546387616202
 20
120.4635598121374
 30
0.0
 10
248.0718559197094
 20
119.1728781521877
 30
0.0
 10
248.3037962196788
 20
117.902110896664
 30
0.0
 10
248.7926244750194
 20
115.3976885954174
 30
0.0
 10
249.04953137212
 20
114.1640454221267
 30
0.0
 10
249.4521980679459
 20
112.3415572673336
 30
0.0
 10
249.5896598687991
 20
111.7374393285792
 30
0.0
 10
249.8657462272184
 20
110.5580886656828
 30
0.0
 10
250.004870650195
 20
109.9805096896963
 30
0.0
 10
250.4251760596514
 20
108.2832074275639
 30
0.0
 10
250.7092513055189
 20
107.1987144428953
 30
0.0
 10
250.9968780518986
 20
106.161546130249
 30
0.0
  0
SPLINE
  5
137
330
1F
100
AcDbEntity
  8
0
  6
HIDDEN
 62
     7
370
     0
100
AcDbSpline
210
0.0
220
0.0
230
1.0
 70
     8
 71
     3
 72
    10
 73
     6
 74
     0
 42
0.00000001
 43
0.00000001
 12
1.0
 22
0.0
 32
0.0
 13
1.0
 23
0.0
 33
0.0
 40
0.0
 40
0.0
 40
0.0
 40
0.0
 40
0.5
 40
0.5
 40
1.0
 40
1.0
 40
1.0
 40
1.0
 10
247.8546387616204
 20
120.4635598121374
 30
0.0
 10
247.7580285064748
 20
121.03760785501
 30
0.0
 10
247.6837098208851
 20
121.6165312322283
 30
0.0
 10
247.5836031248074
 20
122.7849920112423
 30
0.0
 10
247.5580044185349
 20
123.3765721410619
 30
0.0
 10
247.5580044185349
 20
123.9635598121373
 30
0.0
  0
LINE
  5
138
330
1F
100
AcDbEntity
  8
0
  6
HIDDEN
 62
     7
370
     0
100
AcDbLine
 10
247.5580054914
 20
123.9635598121
 30
0.0
 11
247.5580054914
 21
144.4635603784
 31
0.0
  0
SPLINE
  5
139
330
1F
100
AcDbEntity
  8
0
  6
HIDDEN
 62
     7
370
     0
100
AcDbSpline
210
0.0
220
0.0
230
1.0
 70
     8
 71
     3
 72
    12
 73
     8
 74
     0
 42
0.00000001
 43
0.00000001
 12
1.0
 22
0.0
 32
0.0
 13
1.0
 23
0.0
 33
0.0
 40
0.0
 40
0.0
 40
0.0
 40
0.0
 40
0.1741438834002012
 40
0.3601827619865233
 40
0.6141163700605855
 40
0.8743576003695506
 40
1.0
 40
1.0
 40
1.0
 40
1.0
 10
247.9490194117255
 20
103.0798282681196
 30
0.0
 10
247.8177820340243
 20
103.2341930885684
 30
0.0
 10
247.5463430362637
 20
103.5534667047141
 30
0.0
 10
247.5309536843982
 20
104.1065281298481
 30
0.0
 10
247.9882169081073
 20
104.7309348750771
 30
0.0
 10
248.8548370480602
 20
105.2828833130739
 30
0.0
 10
249.547396676209
 20
105.602808933923
 30
0.0
 10
249.7728917395301
 20
105.7069756297557
 30
0.0
  0
ELLIPSE
  5
13A
330
1F
100
AcDbEntity
  8
0
  6
HIDDEN
 62
     7
370
     0
100
AcDbEllipse
 10
264.3638746636
 20
123.9635598121
 30
0.0
 11
-6.697318860126188
 21
20.48986112711594
 31
0.0
210
0.0
220
0.0
230
1.0
 40
0.0962569477
 41
6.251733123200058
 42
7.8225294499948
  0
LINE
  5
13B
330
1F
100
AcDbEntity
  8
0
  6
HIDDEN
 62
     7
370
     0
100
AcDbLine
 10
269.6281898414
 20
107.842474079
 30
0.0
 11
262.2717994844
 21
110.1562882049
 31
0.0
  0
LINE
  5
13C
330
1F
100
AcDbEntity
  8
0
  6
HIDDEN
 62
     7
370
     0
100
AcDbLine
 10
262.2717994844
 20
110.1562882049
 30
0.0
 11
262.2656155025
 21
110.1758329405
 31
0.0
  0
LINE
  5
13D
330
1F
100
AcDbEntity
  8
0
  6
HIDDEN
 62
     7
370
     0
100
AcDbLine
 10
258.899920026
 20
110.76312775
 30
0.0
 11
262.1738839542
 21
100.4047606347
 31
0.0
  0
LINE
  5
13E
330
1F
100
AcDbEntity
  8
0
  6
HIDDEN
 62
     7
370
     0
100
AcDbLine
 10
262.1738839542
 20
100.4047606347
 30
0.0
 11
262.1273476278
 21
100.4193954377
 31
0.0
  0
LINE
  5
13F
330
1F
100
AcDbEntity
  8
0
  6
HIDDEN
 62
     7
370
     0
100
AcDbLine
 10
262.2717994844
 20
110.1562882049
 30
0.0
 11
262.0593834316
 21
110.0957745893
 31
0.0
  0
LINE
  5
140
330
1F
100
AcDbEntity
  8
0
  6
HIDDEN
 62
     7
370
     0
100
AcDbLine
 10
262.0085257684
 20
110.2566940917
 30
0.0
 11
262.0593834316
 21
110.0957745893
 31
0.0
  0
LINE
  5
141
330
1F
100
AcDbEntity
  8
0
  6
HIDDEN
 62
     7
370
     0
100
AcDbLine
 10
259.1328996813
 20
111.0612860156
 30
0.0
 11
262.3908001577
 21
100.7536936758
 31
0.0
  0
LINE
  5
142
330
1F
100
AcDbEntity
  8
0
  6
HIDDEN
 62
     7
370
     0
100
AcDbLine
 10
262.1738839542
 20
100.4047606347
 30
0.0
 11
262.3908001577
 21
100.7536936758
 31
0.0
  0
LINE
  5
143
330
1F
100
AcDbEntity
  8
0
  6
HIDDEN
 62
     7
370
     0
100
AcDbLine
 10
269.4157886898
 20
107.781962326
 30
0.0
 11
262.0593834316
 21
110.0957745893
 31
0.0
  0
LINE
  5
144
330
1F
100
AcDbEntity
  8
0
  6
HIDDEN
 62
     7
370
     0
100
AcDbLine
 10
269.4157886898
 20
107.781962326
 30
0.0
 11
269.6281898414
 21
107.842474079
 31
0.0
  0
ARC
  5
145
330
1F
100
AcDbEntity
  8
0
  6
HIDDEN
 62
     7
370
     0
100
AcDbCircle
 10
260.1163296028
 20
112.1996737076
 30
0.0
 40
1.250198436096957
100
AcDbArc
 50
17.5751096642
 51
182.2819287938
  0
LINE
  5
146
330
1F
100
AcDbEntity
  8
0
  6
HIDDEN
 62
     7
370
     0
100
AcDbLine
 10
259.1631639396
 20
111.0701838715
 30
0.0
 11
262.3263228332
 21
101.062339565
 31
0.0
  0
LINE
  5
147
330
1F
100
AcDbEntity
  8
0
  6
HIDDEN
 62
     7
370
     0
100
AcDbLine
 10
262.3908001577
 20
100.7536936758
 30
0.0
 11
262.3263228332
 21
101.062339565
 31
0.0
  0
LINE
  5
148
330
1F
100
AcDbEntity
  8
0
  6
HIDDEN
 62
     7
370
     0
100
AcDbLine
 10
262.0593834316
 20
110.0957745893
 30
0.0
 11
262.0593834316
 21
110.2004086806
 31
0.0
  0
LINE
  5
149
330
1F
100
AcDbEntity
  8
0
  6
HIDDEN
 62
     7
370
     0
100
AcDbLine
 10
269.2013609802
 20
107.9540409355
 30
0.0
 11
269.4157886898
 21
107.781962326
 31
0.0
  0
LWPOLYLINE
  5
14A
330
1F
100
AcDbEntity
  8
0
  6
HIDDEN
 62
     7
370
     0
100
AcDbPolyline
 90
       21
 70
   128
 43
0.0
 10
231.0580018555
 20
129.024734555
 10
231.7069399749
 20
129.1137457101
 10
232.2923544442
 20
129.3720661869
 10
232.7569428479
 20
129.774410112
 10
233.0552193915
 20
130.281392785
 10
233.1580076014
 20
130.8433877511
 10
233.0552193915
 20
131.4053822516
 10
232.7569428479
 20
131.9123653902
 10
232.2923544442
 20
132.3147088496
 10
231.7069399749
 20
132.5730297921
 10
231.0580018555
 20
132.6620409472
 10
230.4090711867
 20
132.5730297921
 10
229.8236567175
 20
132.3147088496
 10
229.3590683138
 20
131.9123653902
 10
229.0607843196
 20
131.4053822516
 10
228.9580035602
 20
130.8433877511
 10
229.0607843196
 20
130.281392785
 10
229.3590683138
 20
129.774410112
 10
229.8236567175
 20
129.3720661869
 10
230.4090711867
 20
129.1137457101
 10
231.0580018555
 20
129.024734555
  0
CIRCLE
  5
14B
330
1F
100
AcDbEntity
  8
0
  6
HIDDEN
 62
     7
370
     0
100
AcDbCircle
 10
265.8856207991
 20
104.3983809595
 30
0.0
 40
2.398229614700079
  0
LINE
  5
14C
330
1F
100
AcDbEntity
  8
0
  6
HIDDEN
 62
     7
370
     0
100
AcDbLine
 10
271.8896347677
 20
98.0543855785
 30
0.0
 11
272.2247916853
 21
98.3882945238
 31
0.0
  0
LINE
  5
14D
330
1F
100
AcDbEntity
  8
0
  6
HIDDEN
 62
     7
370
     0
100
AcDbLine
 10
269.2013609802
 20
107.9540409355
 30
0.0
 11
262.0593834316
 21
110.2004086806
 31
0.0
  0
LINE
  5
14E
330
1F
100
AcDbEntity
  8
0
  6
HIDDEN
 62
     7
370
     0
100
AcDbLine
 10
262.0593834316
 20
110.2004086806
 30
0.0
 11
261.3081711923
 21
112.5771783499
 31
0.0
  0
LINE
  5
14F
330
1F
100
AcDbEntity
  8
0
  6
HIDDEN
 62
     7
370
     0
100
AcDbLine
 10
271.8896347677
 20
98.0543855785
 30
0.0
 11
262.3263228332
 21
101.062339565
 31
0.0
  0
LINE
  5
150
330
1F
100
AcDbEntity
  8
0
  6
HIDDEN
 62
     7
370
     0
100
AcDbLine
 10
269.2013609802
 20
107.9540409355
 30
0.0
 11
272.2247916853
 21
98.3882945238
 31
0.0
  0
CIRCLE
  5
151
330
1F
100
AcDbEntity
  8
0
  6
HIDDEN
 62
     7
370
     0
100
AcDbCircle
 10
265.8857936837
 20
104.4494332867
 30
0.0
 40
1.648791570522401
  0
LINE
  5
152
330
1F
100
AcDbEntity
  8
0
  6
HIDDEN
 62
     7
370
     0
100
AcDbLine
 10
270.9622013962
 20
99.3049450426
 30
0.0
 11
271.8896347677
 21
98.0543855785
 31
0.0
  0
LINE
  5
153
330
1F
100
AcDbEntity
  8
0
  6
HIDDEN
 62
     7
370
     0
100
AcDbLine
 10
272.2247916853
 20
98.3882945238
 30
0.0
 11
271.1338627731
 21
99.8593166677
 31
0.0
  0
CIRCLE
  5
154
330
1F
100
AcDbEntity
  8
0
  6
HIDDEN
 62
     7
370
     0
100
AcDbCircle
 10
265.8857936837
 20
105.059801613
 30
0.0
 40
1.648791570522401
  0
LINE
  5
155
330
1F
100
AcDbEntity
  8
0
  6
HIDDEN
 62
     7
370
     0
100
AcDbLine
 10
96.558004955
 20
145.1219234822
 30
0.0
 11
96.558004955
 21
139.0676124228
 31
0.0
  0
LINE
  5
156
330
1F
100
AcDbEntity
  8
0
  6
HIDDEN
 62
     7
370
     0
100
AcDbLine
 10
130.8580044305
 20
145.9836594967
 30
0.0
 11
130.8580044305
 21
139.4984804301
 31
0.0
  0
LINE
  5
157
330
1F
100
AcDbEntity
  8
0
  6
HIDDEN
 62
     7
370
     0
100
AcDbLine
 10
95.0580056404
 20
144.255897796
 30
0.0
 11
95.0580056404
 21
138.6345995797
 31
0.0
  0
SPLINE
  5
158
330
1F
100
AcDbEntity
  8
0
  6
HIDDEN
 62
     7
370
     0
100
AcDbSpline
210
0.0
220
0.0
230
1.0
 70
     8
 71
     3
 72
    16
 73
    12
 74
     0
 42
0.00000001
 43
0.00000001
 12
1.0
 22
0.0
 32
0.0
 13
1.0
 23
0.0
 33
0.0
 40
0.0
 40
0.0
 40
0.0
 40
0.0
 40
0.2500000000000003
 40
0.2500000000000003
 40
0.3750000000000004
 40
0.3750000000000004
 40
0.5000000000000006
 40
0.5000000000000006
 40
0.7500000000000003
 40
0.7500000000000003
 40
1.0
 40
1.0
 40
1.0
 40
1.0
 10
131.736684074975
 20
145.7336407671395
 30
0.0
 10
131.5754515974905
 20
145.6356251540847
 30
0.0
 10
131.4549717578509
 20
145.4488891224087
 30
0.0
 10
131.3325912405376
 20
145.0358493148498
 30
0.0
 10
131.3016135801402
 20
144.8758488156169
 30
0.0
 10
131.2599998425122
 20
144.5090431645257
 30
0.0
 10
131.2497639295794
 20
144.3057060119017
 30
0.0
 10
131.2495755325233
 20
143.6384187452751
 30
0.0
 10
131.2897202351609
 20
143.117604281387
 30
0.0
 10
131.4538739901004
 20
141.9202452659093
 30
0.0
 10
131.57542564051
 20
141.2619756116133
 30
0.0
 10
131.736684074975
 20
140.5474664383784
 30
0.0
  0
SPLINE
  5
159
330
1F
100
AcDbEntity
  8
0
  6
HIDDEN
 62
     7
370
     0
100
AcDbSpline
210
0.0
220
0.0
230
1.0
 70
     8
 71
     3
 72
    16
 73
    12
 74
     0
 42
0.00000001
 43
0.00000001
 12
1.0
 22
0.0
 32
0.0
 13
1.0
 23
0.0
 33
0.0
 40
0.0
 40
0.0
 40
0.0
 40
0.0
 40
0.2500000000000003
 40
0.2500000000000003
 40
0.3750000000000002
 40
0.3750000000000002
 40
0.5000000000000002
 40
0.5000000000000002
 40
0.7500000000000001
 40
0.7500000000000001
 40
1.0
 40
1.0
 40
1.0
 40
1.0
 10
131.736684074975
 20
107.3796531858963
 30
0.0
 10
131.5754515974906
 20
106.6652590237042
 30
0.0
 10
131.4549717578509
 20
106.0119167609955
 30
0.0
 10
131.3325912405376
 20
105.1236615191916
 30
0.0
 10
131.3016135801402
 20
104.8429809828398
 30
0.0
 10
131.2599998425122
 20
104.3139469929998
 30
0.0
 10
131.2497639295794
 20
104.0706260144213
 30
0.0
 10
131.2495755325233
 20
103.4026033239081
 30
0.0
 10
131.2897202351609
 20
103.0389224144886
 30
0.0
 10
131.4538739901005
 20
102.4790315419403
 30
0.0
 10
131.57542564051
 20
102.2915102498232
 30
0.0
 10
131.736684074975
 20
102.1934788571352
 30
0.0
  0
LINE
  5
15A
330
1F
100
AcDbEntity
  8
0
  6
HIDDEN
 62
     7
370
     0
100
AcDbLine
 10
130.8580044305
 20
108.4286391942
 30
0.0
 11
130.8580044305
 21
101.9434601275
 31
0.0
  0
LINE
  5
15B
330
1F
100
AcDbEntity
  8
0
  6
HIDDEN
 62
     7
370
     0
100
AcDbLine
 10
96.558004955
 20
108.8595072014
 30
0.0
 11
96.558004955
 21
102.805196142
 31
0.0
  0
LINE
  5
15C
330
1F
100
AcDbEntity
  8
0
  6
HIDDEN
 62
     7
370
     0
100
AcDbLine
 10
95.0580056404
 20
109.2925200446
 30
0.0
 11
95.0580056404
 21
103.6712218283
 31
0.0
  0
ELLIPSE
  5
15D
330
1F
100
AcDbEntity
  8
0
  6
HIDDEN
 62
     7
370
     0
100
AcDbEllipse
 10
297.3669064781
 20
120.4635598121
 30
0.0
 11
26.15327782776762
 21
24.36834782511485
 31
0.0
210
0.0
220
0.0
230
1.0
 40
0.2135193148
 41
2.764800518179884
 42
2.805150525736825
  0
ELLIPSE
  5
15E
330
1F
100
AcDbEntity
  8
0
  6
HIDDEN
 62
     7
370
     0
100
AcDbEllipse
 10
196.4750024664
 20
120.4635598121
 30
0.0
 11
79.87403590516472
 21
-24.61739821802048
 31
0.0
210
0.0
220
0.0
230
1.0
 40
0.054548757
 41
0.3865360448653992
 42
0.7175191278459305
  0
SPLINE
  5
15F
330
1F
100
AcDbEntity
  8
0
  6
HIDDEN
 62
     7
370
     0
100
AcDbSpline
210
0.0
220
0.0
230
1.0
 70
     8
 71
     3
 72
    12
 73
     8
 74
     0
 42
0.00000001
 43
0.00000001
 12
1.0
 22
0.0
 32
0.0
 13
1.0
 23
0.0
 33
0.0
 40
0.0
 40
0.0
 40
0.0
 40
0.0
 40
0.499999999999997
 40
0.499999999999997
 40
0.7499999999999984
 40
0.7499999999999984
 40
1.0
 40
1.0
 40
1.0
 40
1.0
 10
250.9968780518985
 20
106.1615461302488
 30
0.0
 10
252.1270826180986
 20
106.0987736465452
 30
0.0
 10
253.2397804043172
 20
105.9502571803452
 30
0.0
 10
254.882120972512
 20
105.6027504164116
 30
0.0
 10
255.4267173634626
 20
105.465536274483
 30
0.0
 10
256.4986049032294
 20
105.1513290384237
 30
0.0
 10
257.0238366564113
 20
104.9750871856863
 30
0.0
 10
257.5381835936833
 20
104.7806685521358
 30
0.0
  0
ELLIPSE
  5
160
330
1F
100
AcDbEntity
  8
0
  6
HIDDEN
 62
     7
370
     0
100
AcDbEllipse
 10
265.9751240913
 20
120.4635598121
 30
0.0
 11
-8.167462024544136
 21
24.98763552087314
 31
0.0
210
0.0
220
0.0
230
1.0
 40
0.0962569477
 41
1.539344142815212
 42
2.508078693174892
  0
LWPOLYLINE
  5
161
330
1F
100
AcDbEntity
  8
0
  6
HIDDEN
 62
     7
370
     0
100
AcDbPolyline
 90
       23
 70
   128
 43
0.0
 10
231.0580018555
 20
128.7984962782
 10
231.7623350417
 20
128.8861965968
 10
232.409604231
 20
129.1421924925
 10
232.9473796879
 20
129.5457448086
 10
233.3320829665
 20
130.0641599318
 10
233.5325557386
 20
130.6554389393
 10
233.5325557386
 20
131.2716806514
 10
233.3320829665
 20
131.8629596589
 10
232.9473796879
 20
132.3813747822
 10
232.409604231
 20
132.7849270983
 10
231.7623350417
 20
133.0409234597
 10
231.0580018555
 20
133.1286233125
 10
230.35367612
 20
133.0409234597
 10
229.70639948
 20
132.7849270983
 10
229.1686314737
 20
132.3813747822
 10
228.7839207446
 20
131.8629596589
 10
228.5834479725
 20
131.2716806514
 10
228.5834479725
 20
130.6554389393
 10
228.7839207446
 20
130.0641599318
 10
229.1686314737
 20
129.5457448086
 10
229.70639948
 20
129.1421924925
 10
230.35367612
 20
128.8861965968
 10
231.0580018555
 20
128.7984962782
  0
LINE
  5
162
330
1F
100
AcDbEntity
  8
0
  6
HIDDEN
 62
     7
370
     0
100
AcDbLine
 10
95.0580056404
 20
138.6345995797
 30
0.0
 11
95.0580056404
 21
126.8655472176
 31
0.0
  0
LINE
  5
163
330
1F
100
AcDbEntity
  8
0
  6
HIDDEN
 62
     7
370
     0
100
AcDbLine
 10
95.0580056404
 20
121.0615724066
 30
0.0
 11
95.0580056404
 21
109.2925200446
 31
0.0
  0
LINE
  5
164
330
1F
100
AcDbEntity
  8
0
  6
HIDDEN
 62
     7
370
     0
100
AcDbLine
 10
96.558004955
 20
119.9983487113
 30
0.0
 11
96.558004955
 21
108.8595072014
 31
0.0
  0
LINE
  5
165
330
1F
100
AcDbEntity
  8
0
  6
HIDDEN
 62
     7
370
     0
100
AcDbLine
 10
96.558004955
 20
139.0676124228
 30
0.0
 11
96.558004955
 21
127.928770913
 31
0.0
  0
LINE
  5
166
330
1F
100
AcDbEntity
  8
0
  6
HIDDEN
 62
     7
370
     0
100
AcDbLine
 10
132.8580044236
 20
139.0012668653
 30
0.0
 11
132.8580044236
 21
108.925852759
 31
0.0
  0
LINE
  5
167
330
1F
100
AcDbEntity
  8
0
  6
HIDDEN
 62
     7
370
     0
100
AcDbLine
 10
130.8580044305
 20
139.4984804301
 30
0.0
 11
130.8580044305
 21
108.4286391942
 31
0.0
  0
SPLINE
  5
168
330
1F
100
AcDbEntity
  8
0
  6
HIDDEN
 62
     7
370
     0
100
AcDbSpline
210
0.0
220
0.0
230
1.0
 70
     8
 71
     3
 72
     8
 73
     4
 74
     0
 42
0.00000001
 43
0.00000001
 12
1.0
 22
0.0
 32
0.0
 13
1.0
 23
0.0
 33
0.0
 40
0.0000249638557296
 40
0.0000249638557296
 40
0.0000249638557296
 40
0.0000249638557296
 40
0.0049776420541172
 40
0.0049776420541172
 40
0.0049776420541172
 40
0.0049776420541172
 10
96.55800441853476
 20
119.9983489153009
 30
0.0
 10
98.20798065304429
 20
119.9570696775327
 30
0.0
 10
99.8579819727893
 20
119.9168479962932
 30
0.0
 10
101.5080044185347
 20
119.8775987590382
 30
0.0
  0
SPLINE
  5
169
330
1F
100
AcDbEntity
  8
0
  6
HIDDEN
 62
     7
370
     0
100
AcDbSpline
210
0.0
220
0.0
230
1.0
 70
     8
 71
     3
 72
     8
 73
     4
 74
     0
 42
0.00000001
 43
0.00000001
 12
1.0
 22
0.0
 32
0.0
 13
1.0
 23
0.0
 33
0.0
 40
0.0000249631533153
 40
0.0000249631533153
 40
0.0000249631533153
 40
0.0000249631533153
 40
0.0049776413517029
 40
0.0049776413517029
 40
0.0049776413517029
 40
0.0049776413517029
 10
101.5080044185347
 20
128.0495208652365
 30
0.0
 10
99.85798197278928
 20
128.0102716279815
 30
0.0
 10
98.20798065304426
 20
127.970049946742
 30
0.0
 10
96.55800441853471
 20
127.9287707089738
 30
0.0
  0
SPLINE
  5
16A
330
1F
100
AcDbEntity
  8
0
  6
HIDDEN
 62
     7
370
     0
100
AcDbSpline
210
0.0
220
0.0
230
1.0
 70
     8
 71
     3
 72
     8
 73
     4
 74
     0
 42
0.00000001
 43
0.00000001
 12
1.0
 22
0.0
 32
0.0
 13
1.0
 23
0.0
 33
0.0
 40
0.0
 40
0.0
 40
0.0
 40
0.0
 40
1.0
 40
1.0
 40
1.0
 40
1.0
 10
95.05800441853249
 20
121.0615724791571
 30
0.0
 10
95.52476502991028
 20
120.646209233534
 30
0.0
 10
96.03051257669038
 20
120.3016188042294
 30
0.0
 10
96.55800441853476
 20
119.9983489153008
 30
0.0
  0
SPLINE
  5
16B
330
1F
100
AcDbEntity
  8
0
  6
HIDDEN
 62
     7
370
     0
100
AcDbSpline
210
0.0
220
0.0
230
1.0
 70
     8
 71
     3
 72
     8
 73
     4
 74
     0
 42
0.00000001
 43
0.00000001
 12
1.0
 22
0.0
 32
0.0
 13
1.0
 23
0.0
 33
0.0
 40
0.0
 40
0.0
 40
0.0
 40
0.0
 40
1.0
 40
1.0
 40
1.0
 40
1.0
 10
96.55800441853474
 20
127.9287707089738
 30
0.0
 10
96.03051257669121
 20
127.6255008200458
 30
0.0
 10
95.52476502991189
 20
127.2809103907418
 30
0.0
 10
95.05800441853471
 20
126.8655471451196
 30
0.0
  0
LINE
  5
16C
330
1F
100
AcDbEntity
  8
0
  6
HIDDEN
 62
     7
370
     0
100
AcDbLine
 10
95.0580056404
 20
121.0615724066
 30
0.0
 11
95.0580056404
 21
126.8655472176
 31
0.0
  0
LINE
  5
16D
330
1F
100
AcDbEntity
  8
0
  6
HIDDEN
 62
     7
370
     0
100
AcDbLine
 10
101.5080030655
 20
119.8775985485
 30
0.0
 11
101.5080030655
 21
128.0495210758
 31
0.0
  0
SPLINE
  5
16E
330
1F
100
AcDbEntity
  8
0
  6
HIDDEN
 62
     7
370
     0
100
AcDbSpline
210
0.0
220
0.0
230
1.0
 70
     8
 71
     3
 72
    24
 73
    20
 74
     0
 42
0.00000001
 43
0.00000001
 12
1.0
 22
0.0
 32
0.0
 13
1.0
 23
0.0
 33
0.0
 40
0.0
 40
0.0
 40
0.0
 40
0.0
 40
0.1249999999999999
 40
0.1249999999999999
 40
0.2499999999999998
 40
0.2499999999999998
 40
0.3749999999999998
 40
0.3749999999999998
 40
0.4374999999999998
 40
0.4374999999999998
 40
0.4999999999999999
 40
0.4999999999999999
 40
0.625
 40
0.625
 40
0.7500000000000001
 40
0.7500000000000001
 40
0.8750000000000001
 40
0.8750000000000001
 40
1.0
 40
1.0
 40
1.0
 40
1.0
 10
101.5080044185347
 20
119.8775987590381
 30
0.0
 10
101.7458080508098
 20
120.1766058613682
 30
0.0
 10
101.9758937120211
 20
120.480943712687
 30
0.0
 10
102.4106471106309
 20
121.106677250083
 30
0.0
 10
102.6155799029171
 20
121.4279019774105
 30
0.0
 10
102.9806818534158
 20
122.0998277481433
 30
0.0
 10
103.1424822392073
 20
122.4551429800221
 30
0.0
 10
103.314342443787
 20
123.0053742013746
 30
0.0
 10
103.3599276354471
 20
123.191777986355
 30
0.0
 10
103.422402375022
 20
123.5719124884513
 30
0.0
 10
103.4390735207704
 20
123.7675822807372
 30
0.0
 10
103.4395945639469
 20
124.3460626594116
 30
0.0
 10
103.3751522630602
 20
124.7239744983804
 30
0.0
 10
103.1453031696869
 20
125.4659425234788
 30
0.0
 10
102.9867824920238
 20
125.8146579836397
 30
0.0
 10
102.6225481621236
 20
126.4877503813729
 30
0.0
 10
102.41581192206
 20
126.8127028686145
 30
0.0
 10
101.9778739763197
 20
127.4436266790763
 30
0.0
 10
101.7466012490401
 20
127.7495164194169
 30
0.0
 10
101.5080044185348
 20
128.0495208652365
 30
0.0
  0
SPLINE
  5
16F
330
1F
100
AcDbEntity
  8
0
  6
HIDDEN
 62
     7
370
     0
100
AcDbSpline
210
0.0
220
0.0
230
1.0
 70
     8
 71
     3
 72
    72
 73
    68
 74
     0
 42
0.00000001
 43
0.00000001
 12
1.0
 22
0.0
 32
0.0
 13
1.0
 23
0.0
 33
0.0
 40
-0.0312499999999999
 40
-0.0312499999999999
 40
0.0
 40
0.0
 40
0.0312500000000001
 40
0.0312500000000001
 40
0.0625000000000001
 40
0.0625000000000001
 40
0.0937500000000002
 40
0.0937500000000002
 40
0.1250000000000002
 40
0.1250000000000002
 40
0.1562500000000003
 40
0.1562500000000003
 40
0.1875000000000004
 40
0.1875000000000004
 40
0.2187500000000004
 40
0.2187500000000004
 40
0.2500000000000005
 40
0.2500000000000005
 40
0.2812500000000006
 40
0.2812500000000006
 40
0.3125000000000006
 40
0.3125000000000006
 40
0.3437500000000007
 40
0.3437500000000007
 40
0.3750000000000008
 40
0.3750000000000008
 40
0.3906250000000008
 40
0.3906250000000008
 40
0.4062500000000008
 40
0.4062500000000008
 40
0.4375000000000008
 40
0.4375000000000008
 40
0.4687500000000008
 40
0.4687500000000008
 40
0.5000000000000008
 40
0.5000000000000008
 40
0.5312500000000009
 40
0.5312500000000009
 40
0.5625000000000008
 40
0.5625000000000008
 40
0.5937500000000008
 40
0.5937500000000008
 40
0.6250000000000007
 40
0.6250000000000007
 40
0.6562500000000007
 40
0.6562500000000007
 40
0.6875000000000006
 40
0.6875000000000006
 40
0.7187500000000006
 40
0.7187500000000006
 40
0.7500000000000004
 40
0.7500000000000004
 40
0.7812500000000004
 40
0.7812500000000004
 40
0.8125000000000004
 40
0.8125000000000004
 40
0.8437500000000003
 40
0.8437500000000003
 40
0.8750000000000003
 40
0.8750000000000003
 40
0.9062500000000002
 40
0.9062500000000002
 40
0.9375000000000002
 40
0.9375000000000002
 40
0.9687500000000001
 40
0.9687500000000001
 40
1.0
 40
1.0
 40
1.03125
 40
1.03125
 10
114.1819507373599
 20
126.4043934619522
 30
0.0
 10
114.5563809572338
 20
126.8147492624374
 30
0.0
 10
114.7612335584994
 20
126.9983983450958
 30
0.0
 10
115.2041017553464
 20
127.3253532485911
 30
0.0
 10
115.4440571726647
 20
127.4691314567709
 30
0.0
 10
115.9396681554392
 20
127.7066488122168
 30
0.0
 10
116.1969344465937
 20
127.8019683771145
 30
0.0
 10
116.7302882144308
 20
127.946053909749
 30
0.0
 10
117.0045683543291
 20
127.9937899167186
 30
0.0
 10
117.5509968889086
 20
128.0393720572525
 30
0.0
 10
117.8255732073764
 20
128.0379382971802
 30
0.0
 10
118.3775403816471
 20
127.9850249890893
 30
0.0
 10
118.6481573442188
 20
127.9340552628852
 30
0.0
 10
119.174442515298
 20
127.7854486359416
 30
0.0
 10
119.4320740787055
 20
127.6871632651845
 30
0.0
 10
119.928000243379
 20
127.4429099059987
 30
0.0
 10
120.1609839211707
 20
127.2998297749766
 30
0.0
 10
120.5973171964957
 20
126.9719712245077
 30
0.0
 10
120.8025984503539
 20
126.7849775868075
 30
0.0
 10
121.1706327482141
 20
126.3755469669845
 30
0.0
 10
121.3321477381993
 20
126.155441526
 30
0.0
 10
121.6093054213464
 20
125.683691444562
 30
0.0
 10
121.7256996007801
 20
125.4286749181208
 30
0.0
 10
121.8989736374268
 20
124.9074370947238
 30
0.0
 10
121.9574201918925
 20
124.6399529769429
 30
0.0
 10
122.0012849173684
 20
124.2280373176104
 30
0.0
 10
122.0084651339978
 20
124.0883300145349
 30
0.0
 10
122.0074971067023
 20
123.8122069590725
 30
0.0
 10
121.9994943172887
 20
123.6750303927417
 30
0.0
 10
121.9534215853763
 20
123.2660969514785
 30
0.0
 10
121.8924867529242
 20
122.9941707024742
 30
0.0
 10
121.7143665965157
 20
122.4709901860192
 30
0.0
 10
121.5987986851734
 20
122.2222781856558
 30
0.0
 10
121.3169519012341
 20
121.7493936606639
 30
0.0
 10
121.1500819558195
 20
121.5257844434318
 30
0.0
 10
120.7807564010207
 20
121.1211270552441
 30
0.0
 10
120.5759712447232
 20
120.9367134670746
 30
0.0
 10
120.131318297207
 20
120.6076874321802
 30
0.0
 10
119.8964691676962
 20
120.466519356192
 30
0.0
 10
119.4030594052192
 20
120.2281098274115
 30
0.0
 10
119.1417724515146
 20
120.1303272710066
 30
0.0
 10
118.6110341710019
 20
119.9849992428165
 30
0.0
 10
118.3413944701046
 20
119.9367098526215
 30
0.0
 10
117.7936431303594
 20
119.8882946288349
 30
0.0
 10
117.5137390885008
 20
119.8887528144708
 30
0.0
 10
116.9666611806658
 20
119.938904670073
 30
0.0
 10
116.6970560759784
 20
119.988078237105
 30
0.0
 10
116.1659013193223
 20
120.135752760412
 30
0.0
 10
115.9046065028788
 20
120.2349079247776
 30
0.0
 10
115.4122925247034
 20
120.4759206952543
 30
0.0
 10
115.1783356491248
 20
120.618408819879
 30
0.0
 10
114.7361670285943
 20
120.949896248864
 30
0.0
 10
114.5309734974826
 20
121.1373298768523
 30
0.0
 10
114.1652792811246
 20
121.5442335959028
 30
0.0
 10
114.0025086587363
 20
121.7654126705717
 30
0.0
 10
113.7215562279707
 20
122.245159999787
 30
0.0
 10
113.6083523756972
 20
122.4951719665973
 30
0.0
 10
113.4357436515583
 20
123.0152471766177
 30
0.0
 10
113.3761373688819
 20
123.2889786412475
 30
0.0
 10
113.3182455988121
 20
123.837596291146
 30
0.0
 10
113.319035137672
 20
124.1119361550376
 30
0.0
 10
113.3802256132884
 20
124.6606781061765
 30
0.0
 10
113.4413543370225
 20
124.9337434200337
 30
0.0
 10
113.6174340226523
 20
125.4539086688021
 30
0.0
 10
113.7337646176423
 20
125.706227802361
 30
0.0
 10
114.016965847383
 20
126.182632143768
 30
0.0
 10
114.1819507373599
 20
126.4043934619522
 30
0.0
 10
114.5563809572338
 20
126.8147492624374
 30
0.0
  0
CIRCLE
  5
170
330
1F
100
AcDbEntity
  8
0
  6
HIDDEN
 62
     7
370
     0
100
AcDbCircle
 10
117.5580044185
 20
123.9635598121
 30
0.0
 40
4.050000000000011
  0
LINE
  5
171
330
1F
100
AcDbEntity
  8
0
  6
HIDDEN
 62
     7
370
     0
100
AcDbLine
 10
263.3142400181
 20
120.4635597041
 30
0.0
 11
262.1819454824
 21
123.9635598121
 31
0.0
  0
CIRCLE
  5
172
330
1F
100
AcDbEntity
  8
0
  6
HIDDEN
 62
     7
370
     0
100
AcDbCircle
 10
145.0580044185
 20
123.9635598121
 30
0.0
 40
2.0
  0
LINE
  5
173
330
1F
100
AcDbEntity
  8
0
  6
HIDDEN
 62
     7
370
     0
100
AcDbLine
 10
133.0580044185
 20
99.7135590969
 30
0.0
 11
133.150897639
 21
99.8064529358
 31
0.0
  0
LINE
  5
174
330
1F
100
AcDbEntity
  8
0
  6
HIDDEN
 62
     7
370
     0
100
AcDbLine
 10
133.150897639
 20
148.1206666885
 30
0.0
 11
133.0580044185
 21
148.2135605274
 31
0.0
  0
ARC
  5
175
330
1F
100
AcDbEntity
  8
0
  6
HIDDEN
 62
     7
370
     0
100
AcDbCircle
 10
132.4437908562
 20
100.5135598121
 30
0.0
 40
1.000000000000008
100
AcDbArc
 50
315.0
 51
0.0
  0
ARC
  5
176
330
1F
100
AcDbEntity
  8
0
  6
HIDDEN
 62
     7
370
     0
100
AcDbCircle
 10
132.4437908562
 20
100.5135598121
 30
0.0
 40
1.0
100
AcDbArc
 50
0.0
 51
52.1052014664
  0
ARC
  5
177
330
1F
100
AcDbEntity
  8
0
  6
HIDDEN
 62
     7
370
     0
100
AcDbCircle
 10
132.4437908562
 20
147.4135598121
 30
0.0
 40
1.000000000000028
100
AcDbArc
 50
351.8087250651
 51
45.0
  0
ARC
  5
178
330
1F
100
AcDbEntity
  8
0
  6
HIDDEN
 62
     7
370
     0
100
AcDbCircle
 10
132.4437908562
 20
147.4135598121
 30
0.0
 40
1.000000000000006
100
AcDbArc
 50
307.8947985336
 51
351.8087250651
  0
LINE
  5
179
330
1F
100
AcDbEntity
  8
0
  6
HIDDEN
 62
     7
370
     0
100
AcDbLine
 10
133.4437908543
 20
100.5135596005
 30
0.0
 11
133.4437908543
 21
147.4135600237
 31
0.0
  0
LINE
  5
17A
330
1F
100
AcDbEntity
  8
0
  6
HIDDEN
 62
     7
370
     0
100
AcDbLine
 10
133.4437908543
 20
100.5135596005
 30
0.0
 11
133.4437908543
 21
147.4135600237
 31
0.0
  0
LINE
  5
17B
330
1F
100
AcDbEntity
  8
0
  6
HIDDEN
 62
     7
370
     0
100
AcDbLine
 10
95.0580056404
 20
107.7671300827
 30
0.0
 11
96.5882319605
 21
108.650608754
 31
0.0
  0
LINE
  5
17C
330
1F
100
AcDbEntity
  8
0
  6
HIDDEN
 62
     7
370
     0
100
AcDbLine
 10
96.5882319605
 20
139.2765108703
 30
0.0
 11
95.0580056404
 21
140.1599895416
 31
0.0
  0
ARC
  5
17D
330
1F
100
AcDbEntity
  8
0
  6
HIDDEN
 62
     7
370
     0
100
AcDbCircle
 10
106.0598057334
 20
109.9635598121
 30
0.0
 40
2.000000000000046
100
AcDbArc
 50
270.0
 51
315.0
  0
ARC
  5
17E
330
1F
100
AcDbEntity
  8
0
  6
HIDDEN
 62
     7
370
     0
100
AcDbCircle
 10
106.0598057334
 20
137.9635598121
 30
0.0
 40
2.000000000000076
100
AcDbArc
 50
45.0
 51
90.0
  0
LINE
  5
17F
330
1F
100
AcDbEntity
  8
0
  6
HIDDEN
 62
     7
370
     0
100
AcDbLine
 10
105.0580035543
 20
107.9635590522
 30
0.0
 11
106.059804896
 21
107.9635590522
 31
0.0
  0
LINE
  5
180
330
1F
100
AcDbEntity
  8
0
  6
HIDDEN
 62
     7
370
     0
100
AcDbLine
 10
106.059804896
 20
139.9635605721
 30
0.0
 11
105.0580035543
 21
139.9635605721
 31
0.0
  0
ARC
  5
181
330
1F
100
AcDbEntity
  8
0
  6
HIDDEN
 62
     7
370
     0
100
AcDbCircle
 10
105.0580044185
 20
109.9635598121
 30
0.0
 40
2.000000000000037
100
AcDbArc
 50
189.9742217944
 51
270.0
  0
ARC
  5
182
330
1F
100
AcDbEntity
  8
0
  6
HIDDEN
 62
     7
370
     0
100
AcDbCircle
 10
105.0580044185
 20
137.9635598121
 30
0.0
 40
2.00000000000004
100
AcDbArc
 50
90.0
 51
170.0257782056
  0
LINE
  5
183
330
1F
100
AcDbEntity
  8
0
  6
HIDDEN
 62
     7
370
     0
100
AcDbLine
 10
107.4740200882
 20
108.5493460505
 30
0.0
 11
108.8882334178
 21
109.96355938
 31
0.0
  0
LINE
  5
184
330
1F
100
AcDbEntity
  8
0
  6
HIDDEN
 62
     7
370
     0
100
AcDbLine
 10
108.8882334178
 20
137.9635602443
 30
0.0
 11
107.4740200882
 21
139.3777735738
 31
0.0
  0
LINE
  5
185
330
1F
100
AcDbEntity
  8
0
  6
HIDDEN
 62
     7
370
     0
100
AcDbLine
 10
96.5882319605
 20
108.650608754
 30
0.0
 11
101.4882329499
 21
109.96355938
 31
0.0
  0
LINE
  5
186
330
1F
100
AcDbEntity
  8
0
  6
HIDDEN
 62
     7
370
     0
100
AcDbLine
 10
101.4882329499
 20
137.9635602443
 30
0.0
 11
96.5882319605
 21
139.2765108703
 31
0.0
  0
LINE
  5
187
330
1F
100
AcDbEntity
  8
0
  6
HIDDEN
 62
     7
370
     0
100
AcDbLine
 10
103.0882320946
 20
138.3099703325
 30
0.0
 11
102.4882331138
 21
137.9635602443
 31
0.0
  0
LINE
  5
188
330
1F
100
AcDbEntity
  8
0
  6
HIDDEN
 62
     7
370
     0
100
AcDbLine
 10
102.4882331138
 20
109.96355938
 30
0.0
 11
103.0882320946
 21
109.6171492918
 31
0.0
  0
ARC
  5
189
330
1F
100
AcDbEntity
  8
0
  6
HIDDEN
 62
     7
370
     0
100
AcDbCircle
 10
121.5580044185
 20
110.4635598121
 30
0.0
 40
0.5000000000000284
100
AcDbArc
 50
270.0
 51
360.0
  0
ARC
  5
18A
330
1F
100
AcDbEntity
  8
0
  6
HIDDEN
 62
     7
370
     0
100
AcDbCircle
 10
121.5580044185
 20
137.4635598121
 30
0.0
 40
0.5000000000000284
100
AcDbArc
 50
0.0
 51
90.0
  0
LINE
  5
18B
330
1F
100
AcDbEntity
  8
0
  6
HIDDEN
 62
     7
370
     0
100
AcDbLine
 10
233.1580076014
 20
118.483928798
 30
0.0
 11
233.1580076014
 21
121.9139404802
 31
0.0
  0
LINE
  5
18C
330
1F
100
AcDbEntity
  8
0
  6
HIDDEN
 62
     7
370
     0
100
AcDbLine
 10
233.1580076014
 20
116.4635599798
 30
0.0
 11
233.1580076014
 21
116.7231815143
 31
0.0
  0
LINE
  5
18D
330
1F
100
AcDbEntity
  8
0
  6
HIDDEN
 62
     7
370
     0
100
AcDbLine
 10
228.9580035602
 20
121.8451350669
 30
0.0
 11
228.9580035602
 21
116.4635599798
 31
0.0
  0
LINE
  5
18E
330
1F
100
AcDbEntity
  8
0
  6
HIDDEN
 62
     7
370
     0
100
AcDbLine
 10
101.4882329499
 20
109.96355938
 30
0.0
 11
102.4882331138
 21
109.96355938
 31
0.0
  0
LINE
  5
18F
330
1F
100
AcDbEntity
  8
0
  6
HIDDEN
 62
     7
370
     0
100
AcDbLine
 10
102.4882331138
 20
137.9635602443
 30
0.0
 11
101.4882329499
 21
137.9635602443
 31
0.0
  0
LINE
  5
190
330
1F
100
AcDbEntity
  8
0
  6
HIDDEN
 62
     7
370
     0
100
AcDbLine
 10
108.8882334178
 20
109.96355938
 30
0.0
 11
121.5580043962
 21
109.96355938
 31
0.0
  0
LINE
  5
191
330
1F
100
AcDbEntity
  8
0
  6
HIDDEN
 62
     7
370
     0
100
AcDbLine
 10
121.5580043962
 20
137.9635602443
 30
0.0
 11
108.8882334178
 21
137.9635602443
 31
0.0
  0
LINE
  5
192
330
1F
100
AcDbEntity
  8
0
  6
HIDDEN
 62
     7
370
     0
100
AcDbLine
 10
237.8288734352
 20
116.5436332321
 30
0.0
 11
232.8995842134
 21
118.9561531155
 31
0.0
  0
LINE
  5
193
330
1F
100
AcDbEntity
  8
0
  6
HIDDEN
 62
     7
370
     0
100
AcDbLine
 10
230.6804660355
 20
115.3661960943
 30
0.0
 11
237.8725338375
 21
111.8462121321
 31
0.0
  0
LINE
  5
194
330
1F
100
AcDbEntity
  8
0
  6
HIDDEN
 62
     7
370
     0
100
AcDbLine
 10
230.4399091398
 20
115.8125920428
 30
0.0
 11
230.4456907903
 21
115.6652586742
 31
0.0
  0
LINE
  5
195
330
1F
100
AcDbEntity
  8
0
  6
HIDDEN
 62
     7
370
     0
100
AcDbLine
 10
122.0580044781
 20
113.713559529
 30
0.0
 11
123.3080042174
 21
114.9635601996
 31
0.0
  0
LINE
  5
196
330
1F
100
AcDbEntity
  8
0
  6
HIDDEN
 62
     7
370
     0
100
AcDbLine
 10
123.3080042174
 20
132.9635594247
 30
0.0
 11
122.0580044781
 21
134.2135600953
 31
0.0
  0
LINE
  5
197
330
1F
100
AcDbEntity
  8
0
  6
HIDDEN
 62
     7
370
     0
100
AcDbLine
 10
123.3080042174
 20
114.9635601996
 30
0.0
 11
149.0580051785
 21
114.9635601996
 31
0.0
  0
LINE
  5
198
330
1F
100
AcDbEntity
  8
0
  6
HIDDEN
 62
     7
370
     0
100
AcDbLine
 10
149.0580051785
 20
132.9635594247
 30
0.0
 11
123.3080042174
 21
132.9635594247
 31
0.0
  0
LINE
  5
199
330
1F
100
AcDbEntity
  8
0
  6
HIDDEN
 62
     7
370
     0
100
AcDbLine
 10
149.0580051785
 20
114.9635601996
 30
0.0
 11
151.9120916372
 21
119.7135595812
 31
0.0
  0
LINE
  5
19A
330
1F
100
AcDbEntity
  8
0
  6
HIDDEN
 62
     7
370
     0
100
AcDbLine
 10
151.9120916372
 20
128.2135600431
 30
0.0
 11
149.0580051785
 21
132.9635594247
 31
0.0
  0
LINE
  5
19B
330
1F
100
AcDbEntity
  8
0
  6
HIDDEN
 62
     7
370
     0
100
AcDbLine
 10
233.0580059087
 20
128.2135600431
 30
0.0
 11
151.9120916372
 21
128.2135600431
 31
0.0
  0
LINE
  5
19C
330
1F
100
AcDbEntity
  8
0
  6
HIDDEN
 62
     7
370
     0
100
AcDbLine
 10
151.9120916372
 20
119.7135595812
 30
0.0
 11
233.0580059087
 21
119.7135595812
 31
0.0
  0
LINE
  5
19D
330
1F
100
AcDbEntity
  8
0
  6
HIDDEN
 62
     7
370
     0
100
AcDbLine
 10
233.0580059087
 20
119.7135595812
 30
0.0
 11
235.6116626059
 21
123.9635598121
 31
0.0
  0
LINE
  5
19E
330
1F
100
AcDbEntity
  8
0
  6
HIDDEN
 62
     7
370
     0
100
AcDbLine
 10
235.6116626059
 20
123.9635598121
 30
0.0
 11
233.0580059087
 21
128.2135600431
 31
0.0
  0
LINE
  5
19F
330
1F
100
AcDbEntity
  8
0
  6
HIDDEN
 62
     7
370
     0
100
AcDbLine
 10
258.8660198843
 20
112.2022120489
 30
0.0
 11
258.8660198843
 21
112.0975770263
 31
0.0
  0
LINE
  5
1A0
330
1F
100
AcDbEntity
  8
0
  6
HIDDEN
 62
     7
370
     0
100
AcDbLine
 10
233.1580076014
 20
126.0131791441
 30
0.0
 11
233.1580076014
 21
130.8433877511
 31
0.0
  0
LINE
  5
1A1
330
1F
100
AcDbEntity
  8
0
  6
HIDDEN
 62
     7
370
     0
100
AcDbLine
 10
228.9580035602
 20
130.8433877511
 30
0.0
 11
228.9580035602
 21
126.0819845574
 31
0.0
  0
LINE
  5
1A2
330
1F
100
AcDbEntity
  8
0
  6
HIDDEN
 62
     7
370
     0
100
AcDbLine
 10
267.5367224609
 20
104.4466223775
 30
0.0
 11
267.5367224609
 21
105.0569925664
 31
0.0
  0
LINE
  5
1A3
330
1F
100
AcDbEntity
  8
0
  6
HIDDEN
 62
     7
370
     0
100
AcDbLine
 10
264.2367262041
 20
105.0569925664
 30
0.0
 11
264.2367262041
 21
104.4466223775
 31
0.0
  0
LINE
  5
1A4
330
1F
100
AcDbEntity
  8
0
  6
HIDDEN
 62
     7
370
     0
100
AcDbLine
 10
233.5580069219
 20
130.9635600282
 30
0.0
 11
233.5580069219
 21
133.9616168497
 31
0.0
  0
LINE
  5
1A5
330
1F
100
AcDbEntity
  8
0
  6
HIDDEN
 62
     7
370
     0
100
AcDbLine
 10
228.5580042397
 20
133.9635223357
 30
0.0
 11
228.5580042397
 21
130.9635600282
 31
0.0
  0
LINE
  5
1A6
330
1F
100
AcDbEntity
  8
VERMASSUNG
  6
CENTERX2
100
AcDbLine
 10
90.9382010775
 20
123.9635598121
 30
0.0
 11
273.0580044185
 21
123.9635598121
 31
0.0
  0
LINE
  5
1A7
330
1F
100
AcDbEntity
  8
VERMASSUNG
  6
CENTERX2
100
AcDbLine
 10
273.0580044185
 20
123.9635598121
 30
0.0
 11
273.0580044185
 21
96.9635598121
 31
0.0
  0
LINE
  5
1A8
330
1F
100
AcDbEntity
  8
VERMASSUNG
  6
CENTERX2
100
AcDbLine
 10
273.0580044185
 20
96.9635598121
 30
0.0
 11
287.3836113495
 21
96.9635598121
 31
0.0
  0
DIMENSION
  5
1A9
330
1F
100
AcDbEntity
  8
VERMASSUNG
100
AcDbDimension
  2
_D
 10
273.0580044185
 20
82.4635598121
 30
0.0
 11
203.0580044185
 21
82.4635598121
 31
0.0
 70
   160
  1
<>
 71
     2
 42
-1.0
  3
SLDDIMSTYLE0
100
AcDbAlignedDimension
 13
133.0580044185
 23
92.9635598121
 33
0.0
 14
273.0580044185
 24
96.9635598121
 34
0.0
100
AcDbRotatedDimension
  0
DIMENSION
  5
1B4
330
1F
100
AcDbEntity
  8
VERMASSUNG
100
AcDbDimension
  2
_D_1
 10
273.0580044185
 20
73.7003739777
 30
0.0
 11
184.0580044185
 21
73.7003739777
 31
0.0
 70
   160
  1
<>
 71
     2
 42
-1.0
  3
SLDDIMSTYLE0
100
AcDbAlignedDimension
 13
95.0580044185
 23
103.6712218196
 33
0.0
 14
273.0580044185
 24
96.9635598121
 34
0.0
 50
0.0
100
AcDbRotatedDimension
  0
DIMENSION
  5
1BE
330
1F
100
AcDbEntity
  8
VERMASSUNG
100
AcDbDimension
  2
_D_2
 10
285.8645908403
 20
96.9635598121
 30
0.0
 11
285.8645908403
 21
110.4635598121
 31
0.0
 70
   160
  1
<>
 71
     2
 42
-1.0
  3
SLDDIMSTYLE0
100
AcDbAlignedDimension
 13
273.0580044185
 23
123.9635598121
 33
0.0
 14
273.0580044185
 24
96.9635598121
 34
0.0
 50
90.0
100
AcDbRotatedDimension
  0
DIMENSION
  5
1C8
330
1F
100
AcDbEntity
  8
VERMASSUNG
100
AcDbDimension
  2
_D_3
 10
269.8361278498
 20
107.6175966077
 30
0.0
 11
278.6337551653
 21
104.374884341
 31
0.0
 70
   162
  1
<>
 71
     1
 42
-1.0
  3
SLDDIMSTYLE1
100
AcDb2LineAngularDimension
 13
273.0580044185
 23
96.9635598121
 33
0.0
 14
287.3836113495
 24
96.9635598121
 34
0.0
 15
273.0421046854
 25
97.4743060214
 35
0.0
 16
278.6337551653
 26
104.374884341
 36
0.0
  0
DIMENSION
  5
1D1
330
1F
100
AcDbEntity
  8
VERMASSUNG
100
AcDbDimension
  2
_D_4
 10
85.0579544185
 20
92.4635598121
 30
0.0
 11
85.0579544185
 21
123.9635598121
 31
0.0
 70
   160
  1
PSC%%c<>
 71
     2
 42
-1.0
  3
SLDDIMSTYLE0
100
AcDbAlignedDimension
 13
133.5580044185
 23
155.4635598121
 33
0.0
 14
133.5580044185
 24
92.4635598121
 34
0.0
 50
90.0
100
AcDbRotatedDimension
  0
DIMENSION
  5
1DD
330
1F
100
AcDbEntity
  8
VERMASSUNG
100
AcDbDimension
  2
_D_5
 10
187.1174845877
 20
103.9635598121
 30
0.0
 11
187.1174845877
 21
113.4347884051
 31
0.0
 70
   160
  1
%%c<>
 71
     2
 42
-1.0
  3
SLDDIMSTYLE0
100
AcDbAlignedDimension
 13
159.0580044185
 23
143.9635598121
 33
0.0
 14
159.0580044185
 24
103.9635598121
 34
0.0
 50
90.0
100
AcDbRotatedDimension
  0
LINE
  5
1E6
330
1F
100
AcDbEntity
  8
0
  6
Continuous
 62
     7
370
    15
100
AcDbLine
 10
44.8954066445
 20
107.9540409355
 30
0.0
 11
43.4037766603
 21
107.781962326
 31
0.0
  0
LINE
  5
1E7
330
1F
100
AcDbEntity
  8
0
  6
Continuous
 62
     7
370
    15
100
AcDbLine
 10
43.4037766603
 20
107.781962326
 30
0.0
 11
41.2242462693
 21
107.842474079
 31
0.0
  0
LINE
  5
1E8
330
1F
100
AcDbEntity
  8
0
  6
Continuous
 62
     7
370
    15
100
AcDbLine
 10
38.678938355
 20
144.2420751063
 30
0.0
 11
41.2242462693
 21
107.842474079
 31
0.0
  0
ARC
  5
1E9
330
1F
100
AcDbEntity
  8
0
  6
Continuous
 62
     7
370
    15
100
AcDbCircle
 10
41.6842415647
 20
123.9635598121
 30
0.0
 40
20.5000000000001
100
AcDbArc
 50
0.0
 51
98.4299517575
  0
LINE
  5
1EA
330
1F
100
AcDbEntity
  8
0
  6
Continuous
 62
     7
370
    15
100
AcDbLine
 10
62.1842421309
 20
120.4635597041
 30
0.0
 11
62.1842421309
 21
123.9635598121
 31
0.0
  0
ARC
  5
1EB
330
1F
100
AcDbEntity
  8
0
  6
Continuous
 62
     7
370
    15
100
AcDbCircle
 10
37.1842415647
 20
120.4635598121
 30
0.0
 40
25.00000000000012
100
AcDbArc
 50
304.4955987959
 51
0.0
  0
LINE
  5
1EC
330
1F
100
AcDbEntity
  8
0
  6
Continuous
 62
     7
370
    15
100
AcDbLine
 10
45.5643088275
 20
98.3882945238
 30
0.0
 11
51.34281476
 21
99.8593166677
 31
0.0
  0
LINE
  5
1ED
330
1F
100
AcDbEntity
  8
0
  6
Continuous
 62
     7
370
    15
100
AcDbLine
 10
44.8954066445
 20
107.9540409355
 30
0.0
 11
44.9103646164
 21
107.7401310412
 31
0.0
  0
ARC
  5
1EE
330
1F
100
AcDbEntity
  8
0
  6
Continuous
 62
     7
370
    15
100
AcDbCircle
 10
37.1842415647
 20
120.4635598121
 30
0.0
 40
25.00000000000013
100
AcDbArc
 50
302.1837136596
 51
304.4955987959
  0
LINE
  5
1EF
330
1F
100
AcDbEntity
  8
0
  6
Continuous
 62
     7
370
    15
100
AcDbLine
 10
50.5001345367
 20
99.3049450426
 30
0.0
 11
45.5876580157
 21
98.0543855785
 31
0.0
  0
SPLINE
  5
1F0
330
1F
100
AcDbEntity
  8
0
  6
Continuous
 62
     7
370
    15
100
AcDbSpline
210
0.0
220
0.0
230
1.0
 70
     8
 71
     3
 72
    14
 73
    10
 74
     0
 42
0.00000001
 43
0.00000001
 12
1.0
 22
0.0
 32
0.0
 13
1.0
 23
0.0
 33
0.0
 40
0.0
 40
0.0
 40
0.0
 40
0.0
 40
0.25
 40
0.25
 40
0.5
 40
0.5
 40
0.75
 40
0.75
 40
1.0
 40
1.0
 40
1.0
 40
1.0
 10
36.51692571867749
 20
143.2845030331054
 30
0.0
 10
36.82679941712648
 20
143.3673776243681
 30
0.0
 10
37.11747245642036
 20
143.4371633028533
 30
0.0
 10
37.65812919004274
 20
143.5560847170227
 30
0.0
 10
37.89467831002348
 20
143.6023063892061
 30
0.0
 10
38.29383094824589
 20
143.6751369340048
 30
0.0
 10
38.44820135308118
 20
143.7003157319674
 30
0.0
 10
38.65994678345695
 20
143.7338691563608
 30
0.0
 10
38.71392371027537
 20
143.7417602318907
 30
0.0
 10
38.71392371027537
 20
143.7417602318907
 30
0.0
  0
SPLINE
  5
1F1
330
1F
100
AcDbEntity
  8
0
  6
Continuous
 62
     7
370
    15
100
AcDbSpline
210
0.0
220
0.0
230
1.0
 70
     8
 71
     3
 72
    10
 73
     6
 74
     0
 42
0.00000001
 43
0.00000001
 12
1.0
 22
0.0
 32
0.0
 13
1.0
 23
0.0
 33
0.0
 40
0.0
 40
0.0
 40
0.0
 40
0.0
 40
0.2753790843220073
 40
0.6537830805713047
 40
1.0
 40
1.0
 40
1.0
 40
1.0
 10
41.19425197801875
 20
103.9707370309322
 30
0.0
 10
41.08846400034932
 20
103.9732403130801
 30
0.0
 10
40.83731061265317
 20
103.9791834061011
 30
0.0
 10
40.14229829432468
 20
104.0150299117599
 30
0.0
 10
39.54266725080941
 20
104.0803066588881
 30
0.0
 10
39.25616929279031
 20
104.1114952622144
 30
0.0
  0
ELLIPSE
  5
1F2
330
1F
100
AcDbEntity
  8
0
  6
Continuous
 62
     7
370
    15
100
AcDbEllipse
 10
32.5221632657
 20
114.1949229466
 30
0.0
 11
-1.776310460398101
 21
1.907117469001932
 31
0.0
210
0.0
220
0.0
230
1.0
 40
0.7900595085
 41
0.0
 42
6.283185307179586
  0
ARC
  5
1F3
330
1F
100
AcDbEntity
  8
0
  6
Continuous
 62
     7
370
    15
100
AcDbCircle
 10
41.6842415647
 20
123.9635598121
 30
0.0
 40
20.00000000000005
100
AcDbArc
 50
104.9731161125
 51
263.0268838875
  0
ARC
  5
1F4
330
1F
100
AcDbEntity
  8
0
  6
Continuous
 62
     7
370
    15
100
AcDbCircle
 10
30.6072404591
 20
117.7952025272
 30
0.0
 40
2.374136534592615
100
AcDbArc
 50
279.5472759246
 51
319.9461279524
  0
SPLINE
  5
1F5
330
1F
100
AcDbEntity
  8
0
  6
Continuous
 62
     7
370
    15
100
AcDbSpline
210
0.0
220
0.0
230
1.0
 70
     8
 71
     3
 72
     9
 73
     5
 74
     0
 42
0.00000001
 43
0.00000001
 12
1.0
 22
0.0
 32
0.0
 13
1.0
 23
0.0
 33
0.0
 40
0.0
 40
0.0
 40
0.0
 40
0.0
 40
0.7490343169464435
 40
1.0
 40
1.0
 40
1.0
 40
1.0
 10
31.00101795950296
 20
115.4539499638765
 30
0.0
 10
30.84552351344412
 20
115.2977345319442
 30
0.0
 10
30.63793029302568
 20
115.0891787576652
 30
0.0
 10
30.35388059043201
 20
115.0967345894114
 30
0.0
 10
30.28259386279943
 20
115.0986308438866
 30
0.0
  0
SPLINE
  5
1F6
330
1F
100
AcDbEntity
  8
0
  6
Continuous
 62
     7
370
    15
100
AcDbSpline
210
0.0
220
0.0
230
1.0
 70
     8
 71
     3
 72
    10
 73
     6
 74
     0
 42
0.00000001
 43
0.00000001
 12
1.0
 22
0.0
 32
0.0
 13
1.0
 23
0.0
 33
0.0
 40
0.0
 40
0.0
 40
0.0
 40
0.0
 40
0.5
 40
0.5
 40
1.0
 40
1.0
 40
1.0
 40
1.0
 10
32.42449922381333
 20
116.2674275150947
 30
0.0
 10
32.18621555434517
 20
116.1473041627271
 30
0.0
 10
31.94626736584992
 20
116.0221285458492
 30
0.0
 10
31.46691622476728
 20
115.7489852471259
 30
0.0
 10
31.2302623409443
 20
115.6021946873448
 30
0.0
 10
31.00101780672403
 20
115.4539500492415
 30
0.0
  0
CIRCLE
  5
1F7
330
1F
100
AcDbEntity
  8
0
  6
Continuous
 62
     7
370
    15
100
AcDbCircle
 10
41.6842415647
 20
123.9635598121
 30
0.0
 40
31.50000000000013
  0
LINE
  5
1F8
330
1F
100
AcDbEntity
  8
0
  6
Continuous
 62
     7
370
    15
100
AcDbLine
 10
45.5946415381
 20
97.9545161335
 30
0.0
 11
44.9163627994
 21
107.6543543695
 31
0.0
  0
LINE
  5
1F9
330
1F
100
AcDbEntity
  8
0
  6
Continuous
 62
     7
370
    15
100
AcDbLine
 10
41.6485267118
 20
97.4743057249
 30
0.0
 11
40.939238744
 21
107.6175969301
 31
0.0
  0
SPLINE
  5
1FA
330
1F
100
AcDbEntity
  8
0
  6
Continuous
 62
     7
370
    15
100
AcDbSpline
210
0.0
220
0.0
230
1.0
 70
     8
 71
     3
 72
    10
 73
     6
 74
     0
 42
0.00000001
 43
0.00000001
 12
1.0
 22
0.0
 32
0.0
 13
1.0
 23
0.0
 33
0.0
 40
0.0
 40
0.0
 40
0.0
 40
0.0
 40
0.2780942326697255
 40
0.5601463567273858
 40
1.0
 40
1.0
 40
1.0
 40
1.0
 10
45.60332658672096
 20
97.83031309230017
 30
0.0
 10
45.24365509669341
 20
97.74270403514672
 30
0.0
 10
44.51919320180428
 20
97.56623905164197
 30
0.0
 10
43.19946041844437
 20
97.31811130904018
 30
0.0
 10
42.25722927165089
 20
97.10765275972588
 30
0.0
 10
41.68313245531053
 20
96.97942139787364
 30
0.0
  0
SPLINE
  5
1FB
330
1F
100
AcDbEntity
  8
0
  6
Continuous
 62
     7
370
    15
100
AcDbSpline
210
0.0
220
0.0
230
1.0
 70
     8
 71
     3
 72
    14
 73
    10
 74
     0
 42
0.00000001
 43
0.00000001
 12
1.0
 22
0.0
 32
0.0
 13
1.0
 23
0.0
 33
0.0
 40
0.0
 40
0.0
 40
0.0
 40
0.0
 40
0.158324285661261
 40
0.3168027764498967
 40
0.4713893533242121
 40
0.622149448029022
 40
0.7721310560168557
 40
0.924616213645533
 40
1.0
 40
1.0
 40
1.0
 40
1.0
 10
45.59464153805138
 20
97.95451613349604
 30
0.0
 10
45.59542896205626
 20
97.94325492255203
 30
0.0
 10
45.59700457700343
 20
97.92072153243849
 30
0.0
 10
45.59939357932335
 20
97.88655415298572
 30
0.0
 10
45.60142578219445
 20
97.85749315082917
 30
0.0
 10
45.602897723728
 20
97.83644772735892
 30
0.0
 10
45.60367190755482
 20
97.82537190133577
 30
0.0
 10
45.60371785407575
 20
97.82472088367803
 30
0.0
 10
45.60342384953752
 20
97.82892295853435
 30
0.0
 10
45.60332658672096
 20
97.83031309230017
 30
0.0
  0
SPLINE
  5
1FC
330
1F
100
AcDbEntity
  8
0
  6
Continuous
 62
     7
370
    15
100
AcDbSpline
210
0.0
220
0.0
230
1.0
 70
     8
 71
     3
 72
    14
 73
    10
 74
     0
 42
0.00000001
 43
0.00000001
 12
1.0
 22
0.0
 32
0.0
 13
1.0
 23
0.0
 33
0.0
 40
0.0
 40
0.0
 40
0.0
 40
0.0
 40
0.1588412614773511
 40
0.3173286294499226
 40
0.4720121307993775
 40
0.6236454041656729
 40
0.7746635540005253
 40
0.9277440342347891
 40
1.0
 40
1.0
 40
1.0
 40
1.0
 10
41.68313245531053
 20
96.97942139787364
 30
0.0
 10
41.68379729553671
 20
96.96991378508925
 30
0.0
 10
41.68512549474521
 20
96.9509197421929
 30
0.0
 10
41.68299820398526
 20
96.98134016568088
 30
0.0
 10
41.67807583729078
 20
97.0517340177679
 30
0.0
 10
41.67077963025992
 20
97.15607379195158
 30
0.0
 10
41.66202372375842
 20
97.28129024965016
 30
0.0
 10
41.65430156767435
 20
97.39172254558537
 30
0.0
 10
41.64992885705777
 20
97.45425438240869
 30
0.0
 10
41.64852671180243
 20
97.47430572492766
 30
0.0
  0
SPLINE
  5
1FD
330
1F
100
AcDbEntity
  8
0
  6
Continuous
 62
     7
370
    15
100
AcDbSpline
210
0.0
220
0.0
230
1.0
 70
     8
 71
     3
 72
    10
 73
     6
 74
     0
 42
0.00000001
 43
0.00000001
 12
1.0
 22
0.0
 32
0.0
 13
1.0
 23
0.0
 33
0.0
 40
0.0
 40
0.0
 40
0.0
 40
0.0
 40
0.2657555066775493
 40
0.6164872463577333
 40
1.0
 40
1.0
 40
1.0
 40
1.0
 10
44.91184146114947
 20
107.7190105078905
 30
0.0
 10
44.91206069267707
 20
107.7158759569598
 30
0.0
 10
44.91256925576369
 20
107.7086045717082
 30
0.0
 10
44.91408564734615
 20
107.6869169722833
 30
0.0
 10
44.91558148767658
 20
107.6655268968724
 30
0.0
 10
44.91636279941859
 20
107.6543543694704
 30
0.0
  0
SPLINE
  5
1FE
330
1F
100
AcDbEntity
  8
0
  6
Continuous
 62
     7
370
    15
100
AcDbSpline
210
0.0
220
0.0
230
1.0
 70
     8
 71
     3
 72
    10
 73
     6
 74
     0
 42
0.00000001
 43
0.00000001
 12
1.0
 22
0.0
 32
0.0
 13
1.0
 23
0.0
 33
0.0
 40
0.0
 40
0.0
 40
0.0
 40
0.0
 40
0.351782145997754
 40
0.7034047821151386
 40
1.0
 40
1.0
 40
1.0
 40
1.0
 10
40.93923874403672
 20
107.6175969300954
 30
0.0
 10
40.93636657133471
 20
107.6586709344247
 30
0.0
 10
40.93062352827059
 20
107.7408003187454
 30
0.0
 10
40.92434101394461
 20
107.8306436845402
 30
0.0
 10
40.92215464690221
 20
107.8619098914653
 30
0.0
 10
40.92115426407518
 20
107.8762158958404
 30
0.0
  0
LINE
  5
1FF
330
1F
100
AcDbEntity
  8
0
  6
Continuous
 62
     7
370
    15
100
AcDbLine
 10
40.9997996825
 20
111.0522112085
 30
0.0
 11
40.6975165891
 21
111.074383205
 31
0.0
  0
LINE
  5
200
330
1F
100
AcDbEntity
  8
0
  6
Continuous
 62
     7
370
    15
100
AcDbLine
 10
44.9118414611
 20
107.7190105079
 30
0.0
 11
44.9103646164
 21
107.7401310412
 31
0.0
  0
LINE
  5
201
330
1F
100
AcDbEntity
  8
0
  6
Continuous
 62
     7
370
    15
100
AcDbLine
 10
40.9211542641
 20
107.8762158958
 30
0.0
 11
40.6975165891
 21
111.074383205
 31
0.0
  0
LINE
  5
202
330
1F
100
AcDbEntity
  8
0
  6
Continuous
 62
     7
370
    15
100
AcDbLine
 10
40.939238744
 20
107.6175969301
 30
0.0
 11
40.9211542641
 21
107.8762158958
 31
0.0
  0
CIRCLE
  5
203
330
1F
100
AcDbEntity
  8
VERMASSUNG
  6
CENTERX2
100
AcDbCircle
 10
41.4308050863
 20
122.1317465087
 30
0.0
 40
24.99999999999999
  0
DIMENSION
  5
204
330
1F
100
AcDbEntity
  8
VERMASSUNG
100
AcDbDimension
  2
_D_6
 10
28.9308050863
 20
100.4811114141
 30
0.0
 11
21.6855161158
 21
87.9319028017
 31
0.0
 70
   160
  1
%%c<> min. 
 71
     2
 42
-1.0
  3
SLDDIMSTYLE2
100
AcDbAlignedDimension
 13
53.9308050863
 23
143.7823816033
 33
0.0
 14
28.9308050863
 24
100.4811114141
 34
0.0
 50
60.0
100
AcDbRotatedDimension
  0
DIMENSION
  5
213
330
1F
100
AcDbEntity
  8
VERMASSUNG
100
AcDbDimension
  2
_D_7
 10
41.6842415647
 20
89.9635598121
 30
0.0
 11
30.5668483392
 21
161.8591233283
 31
0.0
 70
   162
  1
<>
 71
     1
 42
-1.0
  3
SLDDIMSTYLE3
100
AcDb2LineAngularDimension
 13
38.6789383379
 23
144.2420743661
 33
0.0
 14
41.2242462777
 24
107.8424749989
 34
0.0
 15
41.6842415647
 25
157.9635598121
 35
0.0
 16
39.5342125275
 26
162.8330119943
 36
0.0
  0
INSERT
  5
22B
330
1F
100
AcDbEntity
  8
VERMASSUNG
100
AcDbBlockReference
  2
SW_CENTERMARKSYMBOL_0
 10
41.6842415647
 20
123.9635598121
 30
0.0
  0
OLE2FRAME
  5
22C
330
1F
100
AcDbEntity
  8
0
100
AcDbOle2Frame
 70
     2
  3
Paintbrush-Bild
 10
13.8511154363
 20
38.264191557
 30
0.0
 11
51.6290888628
 21
31.9806341108
 31
0.0
 71
     2
 72
     0
 73
     1
 90
    12928
310
80552BED0767C5B32B40DDAF6807D121434000000000000000006FFBDDFB85D0
310
4940DDAF6807D121434000000000000000006FFBDDFB85D04940416F4BD60AFB
310
3F4000000000000000002BED0767C5B32B40416F4BD60AFB3F40000000000000
310
0000000000000100000000010000010000000100000000000100000000320000
310
D0CF11E0A1B11AE1000000000000000000000000000000003E000300FEFF0900
310
0600000000000000000000000100000001000000000000000010000002000000
310
01000000FEFFFFFF0000000000000000FFFFFFFFFFFFFFFFFFFFFFFFFFFFFFFF
310
FFFFFFFFFFFFFFFFFFFFFFFFFFFFFFFFFFFFFFFFFFFFFFFFFFFFFFFFFFFFFFFF
310
FFFFFFFFFFFFFFFFFFFFFFFFFFFFFFFFFFFFFFFFFFFFFFFFFFFFFFFFFFFFFFFF
310
FFFFFFFFFFFFFFFFFFFFFFFFFFFFFFFFFFFFFFFFFFFFFFFFFFFFFFFFFFFFFFFF
310
FFFFFFFFFFFFFFFFFFFFFFFFFFFFFFFFFFFFFFFFFFFFFFFFFFFFFFFFFFFFFFFF
310
FFFFFFFFFFFFFFFFFFFFFFFFFFFFFFFFFFFFFFFFFFFFFFFFFFFFFFFFFFFFFFFF
310
FFFFFFFFFFFFFFFFFFFFFFFFFFFFFFFFFFFFFFFFFFFFFFFFFFFFFFFFFFFFFFFF
310
FFFFFFFFFFFFFFFFFFFFFFFFFFFFFFFFFFFFFFFFFFFFFFFFFFFFFFFFFFFFFFFF
310
FFFFFFFFFFFFFFFFFFFFFFFFFFFFFFFFFFFFFFFFFFFFFFFFFFFFFFFFFFFFFFFF
310
FFFFFFFFFFFFFFFFFFFFFFFFFFFFFFFFFFFFFFFFFFFFFFFFFFFFFFFFFFFFFFFF
310
FFFFFFFFFFFFFFFFFFFFFFFFFFFFFFFFFFFFFFFFFFFFFFFFFFFFFFFFFFFFFFFF
310
FFFFFFFFFFFFFFFFFFFFFFFFFFFFFFFFFFFFFFFFFFFFFFFFFFFFFFFFFFFFFFFF
310
FFFFFFFFFFFFFFFFFFFFFFFFFFFFFFFFFFFFFFFFFFFFFFFFFFFFFFFFFFFFFFFF
310
FFFFFFFFFFFFFFFFFFFFFFFFFFFFFFFFFFFFFFFFFFFFFFFFFFFFFFFFFFFFFFFF
310
FDFFFFFFFEFFFFFFFEFFFFFFFEFFFFFF05000000060000000700000008000000
310
090000000A0000000B0000000C0000000D0000000E0000000F00000010000000
310
11000000120000001300000014000000150000001600000017000000FEFFFFFF
310
FFFFFFFFFFFFFFFFFFFFFFFFFFFFFFFFFFFFFFFFFFFFFFFFFFFFFFFFFFFFFFFF
310
FFFFFFFFFFFFFFFFFFFFFFFFFFFFFFFFFFFFFFFFFFFFFFFFFFFFFFFFFFFFFFFF
310
FFFFFFFFFFFFFFFFFFFFFFFFFFFFFFFFFFFFFFFFFFFFFFFFFFFFFFFFFFFFFFFF
310
FFFFFFFFFFFFFFFFFFFFFFFFFFFFFFFFFFFFFFFFFFFFFFFFFFFFFFFFFFFFFFFF
310
FFFFFFFFFFFFFFFFFFFFFFFFFFFFFFFFFFFFFFFFFFFFFFFFFFFFFFFFFFFFFFFF
310
FFFFFFFFFFFFFFFFFFFFFFFFFFFFFFFFFFFFFFFFFFFFFFFFFFFFFFFFFFFFFFFF
310
FFFFFFFFFFFFFFFFFFFFFFFFFFFFFFFFFFFFFFFFFFFFFFFFFFFFFFFFFFFFFFFF
310
FFFFFFFFFFFFFFFFFFFFFFFFFFFFFFFFFFFFFFFFFFFFFFFFFFFFFFFFFFFFFFFF
310
FFFFFFFFFFFFFFFFFFFFFFFFFFFFFFFFFFFFFFFFFFFFFFFFFFFFFFFFFFFFFFFF
310
FFFFFFFFFFFFFFFFFFFFFFFFFFFFFFFFFFFFFFFFFFFFFFFFFFFFFFFFFFFFFFFF
310
FFFFFFFFFFFFFFFFFFFFFFFFFFFFFFFFFFFFFFFFFFFFFFFFFFFFFFFFFFFFFFFF
310
FFFFFFFFFFFFFFFFFFFFFFFFFFFFFFFFFFFFFFFFFFFFFFFFFFFFFFFFFFFFFFFF
310
FFFFFFFFFFFFFFFFFFFFFFFFFFFFFFFFFFFFFFFFFFFFFFFFFFFFFFFFFFFFFFFF
310
52006F006F007400200045006E00740072007900000000000000000000000000
310
0000000000000000000000000000000000000000000000000000000000000000
310
16000500FFFFFFFFFFFFFFFF020000000A00030000000000C000000000000046
310
000000000000000000000000705BC8ACBA44CD0103000000C000000000000000
310
01004F006C006500000000000000000000000000000000000000000000000000
310
0000000000000000000000000000000000000000000000000000000000000000
310
0A000200FFFFFFFFFFFFFFFFFFFFFFFF00000000000000000000000000000000
310
0000000000000000000000000000000000000000000000001400000000000000
310
010043006F006D0070004F0062006A0000000000000000000000000000000000
310
0000000000000000000000000000000000000000000000000000000000000000
310
120002010100000003000000FFFFFFFF00000000000000000000000000000000
310
0000000000000000000000000000000000000000010000004D00000000000000
310
01004F006C006500310030004E00610074006900760065000000000000000000
310
0000000000000000000000000000000000000000000000000000000000000000
310
1A000200FFFFFFFFFFFFFFFFFFFFFFFF00000000000000000000000000000000
310
0000000000000000000000000000000000000000040000002426000000000000
310
FEFFFFFF02000000FEFFFFFFFFFFFFFFFFFFFFFFFFFFFFFFFFFFFFFFFFFFFFFF
310
FFFFFFFFFFFFFFFFFFFFFFFFFFFFFFFFFFFFFFFFFFFFFFFFFFFFFFFFFFFFFFFF
310
FFFFFFFFFFFFFFFFFFFFFFFFFFFFFFFFFFFFFFFFFFFFFFFFFFFFFFFFFFFFFFFF
310
FFFFFFFFFFFFFFFFFFFFFFFFFFFFFFFFFFFFFFFFFFFFFFFFFFFFFFFFFFFFFFFF
310
FFFFFFFFFFFFFFFFFFFFFFFFFFFFFFFFFFFFFFFFFFFFFFFFFFFFFFFFFFFFFFFF
310
FFFFFFFFFFFFFFFFFFFFFFFFFFFFFFFFFFFFFFFFFFFFFFFFFFFFFFFFFFFFFFFF
310
FFFFFFFFFFFFFFFFFFFFFFFFFFFFFFFFFFFFFFFFFFFFFFFFFFFFFFFFFFFFFFFF
310
FFFFFFFFFFFFFFFFFFFFFFFFFFFFFFFFFFFFFFFFFFFFFFFFFFFFFFFFFFFFFFFF
310
FFFFFFFFFFFFFFFFFFFFFFFFFFFFFFFFFFFFFFFFFFFFFFFFFFFFFFFFFFFFFFFF
310
FFFFFFFFFFFFFFFFFFFFFFFFFFFFFFFFFFFFFFFFFFFFFFFFFFFFFFFFFFFFFFFF
310
FFFFFFFFFFFFFFFFFFFFFFFFFFFFFFFFFFFFFFFFFFFFFFFFFFFFFFFFFFFFFFFF
310
FFFFFFFFFFFFFFFFFFFFFFFFFFFFFFFFFFFFFFFFFFFFFFFFFFFFFFFFFFFFFFFF
310
FFFFFFFFFFFFFFFFFFFFFFFFFFFFFFFFFFFFFFFFFFFFFFFFFFFFFFFFFFFFFFFF
310
FFFFFFFFFFFFFFFFFFFFFFFFFFFFFFFFFFFFFFFFFFFFFFFFFFFFFFFFFFFFFFFF
310
FFFFFFFFFFFFFFFFFFFFFFFFFFFFFFFFFFFFFFFFFFFFFFFFFFFFFFFFFFFFFFFF
310
FFFFFFFFFFFFFFFFFFFFFFFFFFFFFFFFFFFFFFFFFFFFFFFFFFFFFFFFFFFFFFFF
310
0100000200000000000000000000000000000000000000000000000000000000
310
0000000000000000000000000000000000000000000000000000000000000000
310
0100FEFF030A0000FFFFFFFF0A00030000000000C00000000000004607000000
310
5042727573680007000000504272757368000700000050427275736800F439B2
310
7100000000000000000000000000000000000000000000000000000000000000
310
0000000000000000000000000000000000000000000000000000000000000000
310
0000000000000000000000000000000000000000000000000000000000000000
310
0000000000000000000000000000000000000000000000000000000000000000
310
0000000000000000000000000000000000000000000000000000000000000000
310
0000000000000000000000000000000000000000000000000000000000000000
310
0000000000000000000000000000000000000000000000000000000000000000
310
0000000000000000000000000000000000000000000000000000000000000000
310
0000000000000000000000000000000000000000000000000000000000000000
310
0000000000000000000000000000000000000000000000000000000000000000
310
0000000000000000000000000000000000000000000000000000000000000000
310
0000000000000000000000000000000000000000000000000000000000000000
310
20260000424D0E260000000000003E00000028000000B40200006E0000000100
310
01000000000000000000130B0000130B00000200000002000000000000FFFFFF
310
FFFFFFFFFFFFFFFFFFFFFFFFFFFFFFFFFFFFFFFFFFFFFFFFFFFFFFFFFFFFFFFF
310
FFFFFFFFFFFFFFFFFFFFFFFFFFFFFFFFFFFFFFFFFFFFFFFFFFFFFFFFFFFFFFFF
310
FFFFFFFFFFFFFFFFFFFFFFFFFFFFFFFFFFFFFFFFFFFFFFFFF000FFFFFFFFFFFF
310
FFFFFFFFFFFFFFFFFFFFFFFFFFFFFFFFFFFFFFFFFFFFFFFFFFFFFFFFFFFFFFFF
310
FFFFFFFFFFFFFFFFFFFFFFFFFFFFFFFFFFFFFFFFFFFFFFFFFFFFFFFFFFFFFFFF
310
FFFFFFFFFFFFFFFFFFFFFFFFFFFFFFFFF000FFFFFFFFFFFFFFFFFFFFFFFFFFFF
310
FFFFFFFFFFFFFFFFFFFFFFFFFFFFFFFFFFFFFFFFFFFFFFFFFFFFFFFFFFFFFFFF
310
FFFFFFFFFFFFFFFFFFFFFFFFFFFFFFFFFFFFFFFFFFFFFFFFFFFFFFFFFFFFFFFF
310
FFFFFFFFFFFFFFFFF000FFFFFFFFFFFFFFFFFFFFFFFFFFFFFFFFFFFFFFFFFFFF
310
FFFFFFFFFFFFFFFFFFFFFFFFFFFFFFFFFFFFFFFFFFFFFFFFFFFFFFFFFFFFFFFF
310
FFFFFFFFFFFFFFFFFFFFFFFFFFFFFFFFFFFFFFFFFFFFFFFFFFFFFFFFFFFFFFFF
310
F000FFFFFFFFFFFFFFFFFFFFFFFFFFFFFFFFFFFFFFFFFFFFFFFFFFFFFFFFFFFF
310
FFFFFFFFFFFFFFFFFFFFFFFFFFFFFFFFFFFFFFFFFFFFFFFFFFFFFFFFFFFFFFFF
310
FFFFFFFFFFFFFFFFFFFFFFFFFFFFFFFFFFFFFFFFFFFFFFFFF000FFFFFFFFFFFF
310
FFFFFFFFFFFFFFFFFFFFFFFFFFFFFFFFFFFFFFFFFFFFFFFFFFFFFFFFFFFFFFFF
310
FFFFFFFFFFFFFFFFFFFFFFFFFFFFFFFFFFFFFFFFFFFFFFFFFFFFFFFFFFFFFFFF
310
FFFFFFFFFFFFFFFFFFFFFFFFFFFFFFFFF000FFFFFFFFFFFFFFFFFFFFFFFFFFFF
310
FFFFFFFFFFFFFFFFFFFFFFFFFFFFFFFFFFFFFFFFFFFFFFFFFFFFFFFFFFFFFFFF
310
FFFFFFFFFFFFFFFFFFFFFFFFFFFFFFFFFFFFFFFFFFFFFFFFFFFFFFFFFFFFFFFF
310
FFFFFFFFFFFFFFFFF000FFFFFFFFFFFFFFFFFFFFFFFFFFFFFFFFFFFFFFFFFFFF
310
FFFFFFFFFFFFFFFFFFFFFFFFFFFFFFFFFFFFFFFFFFFFFFFFFFFFFFFFFFFFFFFF
310
FFFFFFFFFFFFFFFFFFFFFFFFFFFFFFFFFFFFFFFFFFFFFFFFFFFFFFFFFFFFFFFF
310
F000FFFFFFFFFFFFFFFFFFFFFFFFFFFFFFFFFFFFFFFFFFFFFFFFFFFFFFFFFFFF
310
FFFFFFFFFFFFFFFFFFFFFFFFFFFFFFFFFFFFFFFFFFFFFFFFFFFFFFFFFFFFFFFF
310
FFFFFFFFFFFFFFFFFFFFFFFFFFFFFFFFFFFFFFFFFFFFFFFFF000FFFFFFFFFFFF
310
FFFFFFFFFFFFFFFFFFFFFFFFFFFFFFFFFFFFFFFFFFFFFFFFFFFFFFFFFFFFFFFF
310
FFFFFFFFFFFFFFFFFFFFFFFFFFFFFFFFFFFFFFFFFFFFFFFFFFFFFFFFFFFFFFFF
310
FFFFFFFFFFFFFFFFFFFFFFFFFFFFFFFFF000FFFFFFFFFFFFFFFFFFFFFFFFFFFF
310
FFFFFFFFFFFFFFFFFFFFFFFFFFFFFFFFFFFFFFFFFFFFFFFFFFFFFFFFFFFFFFFF
310
FFFFFFFFFFFFFFFFFFFFFFFFFFFFFFFFFFFFFFFFFFFFFFFFFFFFFFFFFFFFFFFF
310
FFFFFFFFFFFFFFFFF000FFFFFFFFFFFFFFFFFFFFFFFFFFFFFFFFFFFFFFFFFFFF
310
FFFFFFFFFFFFFFFFFFFFFFFFFFFFFFFFFFFFFFFFFFFFFFFFFFFFFFFFFFFFFFFF
310
FFFFFFFFFFFFFFFFFFFFFFFFFFFFFFFFFFFFFFFFFFFFFFFFFFFFFFFFFFFFFFFF
310
F000FFFFFFFFFFFFFFFFFFFFFFFFFFFFFFFFFFFFFFFFFFFFFFFFFFFFFFFFFFFF
310
FFFFFFFFFFFFFFFFFFFFFFFFFFFFFFFFFFFFFFFFFFFFFFFFFFFFFFFFFFFFFFFF
310
FFFFFFFFFFFFFFFFFFFFFFFFFFFFFFFFFFFFFFFFFFFFFFFFF000FFFFFFFFFFFF
310
FFFFFFFFFFFFFFFFFFFFFFFFFFFFFFFFFFFFFFFFFFFFFFFFFFFFFFFFFFFFFFFF
310
FFFFFFFFFFFFFFFFFFFFFFFFFFFFFFFFFFFFFFFFFFFFFFFFFFFFFFFFFFFFFFFF
310
FFFFFFFFFFFFFFFFFFFFFFFFFFFFFFFFF000FFFFFFFFFFFFFFFFFFFFFFFFFFFF
310
FFFFFFFFFFFFFFFFFFFFFFFFFFFFFFFFFFFFFFFFFFFFFFFFFFFFFFFFFFFFFFFF
310
FFFFFFFFFFFFFFFFFFFFFFFFFFFFFFFFFFFFFFFFFFFFFFFFFFFFFFFFFFFFFFFF
310
FFFFFFFFFFFFFFFFF000FFFFFFFFFFFFFFFFFFFFFFFFFFFFFFFFFFFFFFFFFFFF
310
FFFFFFFFFFFFFFFFFFFFFFFFFFFFFFFFFFFFFFFFFFFFFFFFFFFFFFFFFFFFFFFF
310
FFFFFFFFFFFFFFFFFFFFFFFFFFFFFFFFFFFFFFFFFFFFFFFFFFFFFFFFFFFFFFFF
310
F000FFFFFFFFFFFFFFFFFFFFFFFFFFFFFFFFFFFFFFFFFFFFFFFFFFFFFFFFFFFF
310
FFFFFFFFFFFFFFFFFFFFFFFFFFFFFFFFFFFFFFFFFFFFFFFFFFFFFFFFFFFFFFFF
310
FFFFFFFFFFFFFFFFFFFFFFFFFFFFFFFFFFFFFFFFFFFFFFFFF000FFFFFFFFFFFF
310
FFFFFFFFFFFFFFFFFFFFFFFFFFFFFFFFFFFFFFFFFFFFFFFFFFFFFFFFFFFFFFFF
310
FFFFFFFFFFFFFFFFFFFFFFFFFFFFFFFFFFFFFFFFFFFFFFFFFFFFFFFFFFFFFFFF
310
FFFFFFFFFFFFFFFFFFFFFFFFFFFFFFFFF000FFFFFFFFFFFFFFFFFFFFFFFFFFFF
310
FFFFFFFFFFFFFFFFFFFFFFFFFFFFFFFFFFFFFFFFFFFFFFFFFFFFFFFFFFFFFFFF
310
FFFFFFFFFFFFFFFFFFFFFFFFFFFFFFFFFFFFFFFFFFFFFFFFFFFFFFFFFFFFFFFF
310
FFFFFFFFFFFFFFFFF000FFFFF80003FFFFFFFFFFFFFFFFFFFFFFFFFFFFFFFFFF
310
FFFFF00007FFFFFFFFFF00007FFFFFF800000000000000007FFFFFFFFFFFFFFF
310
FFFFFFFC001FFFFFFFFFFFFFFC001FFFFFFFFFFFFFFFFFFFFFFFFFFE0007FFFF
310
F000FFFF8000007FFFFFFFF8000FFFFFC0007FFFFF80007FFFFF0000007FFFFF
310
FFF8000007FFFFF800000000000000007FFFFFF0001FFFFFFFFFFFC00001FFFF
310
FFFFFFFFC00001FFFFFFFF000000000003FFFFE000007FFFF000FFFE0000000F
310
FFFFFFF0000FFFFF80007FFFFF80007FFFFC0000001FFFFFFFC0000001FFFFF8
310
00000000000000007FFFFFF0001FFFFFFFFFFE0000003FFFFFFFFFFE0000003F
310
FFFFFF000000000003FFFF0000000FFFF000FFF800000003FFFFFFF00007FFFF
310
80007FFFFF80007FFFF000000007FFFFFF000000003FFFF80000000000000000
310
7FFFFFF0001FFFFFFFFFF80000000FFFFFFFFFF80000000FFFFFFF0000000000
310
03FFFC00000003FFF000FFE000000000FFFFFFF00007FFFF80003FFFFF80007F
310
FFC000000001FFFFFC000000001FFFF800000000000000007FFFFFF0001FFFFF
310
FFFFE000000003FFFFFFFFE000000003FFFFFF000000000003FFF000000000FF
310
F000FF80000000007FFFFFF00007FFFF80003FFFFF80007FFF8000000000FFFF
310
F80000000007FFF800000000000000007FFFFFF0001FFFFFFFFFC000000001FF
310
FFFFFFC000000001FFFFFF000000000003FFC0000000007FF000FF0000000000
310
3FFFFFE00007FFFF00003FFFFF80007FFE00000000003FFFF00000000003FFF8
310
00000000000000007FFFFFF0001FFFFFFFFF8000000000FFFFFFFF8000000000
310
FFFFFF000000000003FF80000000003FF000FE00000000001FFFFFE00003FFFF
310
00003FFFFF80007FFC00000000001FFFE00000000001FFF8000001FFFE000000
310
7FFFFFF0001FFFFFFFFE00000000003FFFFFFE00000000003FFFFF0000000000
310
03FF00000000001FF000FC00000000000FFFFFE00003FFFF00001FFFFF80007F
310
F800000000001FFFC00000000000FFF8000001FFFE0000007FFFFFF0001FFFFF
310
FFFC00000000001FFFFFFC00000000001FFFFF000000000003FE00000000000F
310
F000F8000000000007FFFFE00003FFFF00001FFFFF80007FF800000000000FFF
310
800000000000FFF8000001FFFE0000007FFFFFF0001FFFFFFFF800000000000F
310
FFFFF800000000000FFFFF000000000003FC000000000007F000F80000000000
310
03FFFFC00003FFFE00001FFFFF80007FF0000000000007FF0000000000007FF8
310
000001FFFE0000007FFFFFF0001FFFFFFFF0000000000007FFFFF00000000000
310
07FFFF000000000003F8000000000003F000F0000000000003FFFFC00001FFFE
310
00001FFFFF80007FE0000000000007FE0000000000003FF8000001FFFE000000
310
7FFFFFF0001FFFFFFFF0000000000007FFFFF0000000000007FFFF0000000000
310
03F800001F800003F000E00001FFF00001FFFFC00001FFFE00000FFFFF80007F
310
E00001FFE00003FE00001FFF00003FF8000001FFFE0000007FFFFFF0001FFFFF
310
FFE000003E000003FFFFE000003E000003FFFF000000000003F00001FFF80001
310
F000E00007FFFC0001FFFFC00001FFFE00000FFFFF80007FC0000FFFFC0003FC
310
0000FFFFC0001FF8000001FFFE0000007FFFFFF0001FFFFFFFC00003FFE00001
310
FFFFC00003FFE00001FFFF0001FFFFFFFFF00007FFFE0001F000E0000FFFFF00
310
00FFFF800001FFFC00000FFFFF80007FC0001FFFFE0001FC0001FFFFE0001FF8
310
000001FFFE0000007FFFFFF0001FFFFFFF80000FFFF80000FFFF80000FFFF800
310
00FFFF0003FFFFFFFFE0000FFFFF8000F000C0003FFFFF8000FFFF800000FFFC
310
000007FFFF80007F80003FFFFF0001FC0003FFFFF0001FF8000001FFFE000000
310
7FFFFFF0001FFFFFFF80003FFFFE0000FFFF80003FFFFE0000FFFF0003FFFFFF
310
FFE0003FFFFF8000F000C0003FFFFF8000FFFF800000FFFC000007FFFF80007F
310
80007FFFFF8001F80007FFFFF8000FF8000001FFFE0000007FFFFFF0001FFFFF
310
FF00007FFFFF00007FFF00007FFFFF00007FFF0003FFFFFFFFE0003FFFFFC000
310
F000C0007FFFFFC000FFFF000000FFFC000007FFFF80007F8000FFFFFF8000F8
310
000FFFFFF8000FF8000001FFFE0000007FFFFFF0001FFFFFFF0000FFFFFF8000
310
7FFF0000FFFFFF80007FFF0003FFFFFFFFC0007FFFFFC00070008000FFFFFFC0
310
00FFFF000000FFF8000007FFFF80007F8000FFFFFF8000F8000FFFFFF8000FF8
310
000001FFFE0000007FFFFFF0001FFFFFFE0001FFFFFFC0003FFE0001FFFFFFC0
310
003FFF0003FFFFFFFFC0007FFFFFE00070008000FFFFFFC0007FFF0000007FF8
310
000003FFFF80007F0001FFFFFF8000F8000FFFFFF8000FF8000001FFFE000000
310
7FFFFFF0001FFFFFFE0001FFFFFFC0003FFE0001FFFFFFC0003FFF0003FFFFFF
310
FFC000FFFFFFE00070008000FFFFFFC0007FFF0000007FF8000003FFFF80007F
310
0001FFFFFF8000F8001FFFFFF8000FF8000001FFFE0000007FFFFFF0001FFFFF
310
FE0003FFFFFFE0003FFE0003FFFFFFE0003FFF0003FFFFFFFFC000FFFFFFE000
310
70008000FFFFFFC0007FFE0000007FF8000003FFFF80007F0001FFFFFF8000F0
310
001FFFFFF8000FF8000001FFFE0000007FFFFFF0001FFFFFFC0003FFFFFFE000
310
1FFC0003FFFFFFE0001FFF0003FFFFFFFFC000FFFFFFC00070008000FFFFFF80
310
007FFE0000007FF0000003FFFF80007F0001FFFFFF0000F0001FFFFFF8000FF8
310
000001FFFE0000007FFFFFF0001FFFFFFC0007FFFFFFF0001FFC0007FFFFFFF0
310
001FFF0003FFFFFFFFC000FFFFFFC00070008001FFFFFF0000FFFE0000003FF0
310
000001FFFF80007F0001FFFFFF0000F8001FFFFFF0000FF8000001FFFE000000
310
7FFFFFF0001FFFFFFC0007FFFFFFF0001FFC0007FFFFFFF0001FFF0003FFFFFF
310
FFC001FFFFFF80007000FFFFFFFFFE0000FFFE0008003FF0008001FFFF80007F
310
FFFFFFFFFC0000FFFFFFFFFFE0000FF8000001FFFE0000007FFFFFF0001FFFFF
310
F8000FFFFFFFF8000FF8000FFFFFFFF8000FFF0003FFFFFFFFFFFFFFFFFF0000
310
7000FFFFFFFFFC0000FFFC0008003FF0008001FFFF80007FFFFFFFFFF80001FF
310
FFFFFFFF80000FF8000001FFFE0000007FFFFFF0001FFFFFF8000FFFFFFFF800
310
0FF8000FFFFFFFF8000FFF0003FFFFFFFFFFFFFFFFFE0000F000FFFFFFFFE000
310
00FFFC000C003FE000C001FFFF80007FFFFFFFFFC00001FFFFFFFFFE00001FF8
310
000001FFFE0000007FFFFFF0001FFFFFF8000FFFFFFFF8000FF8000FFFFFFFF8
310
000FFF0003FFFFFFFFFFFFFFFFF00000F000FFFFFFFE000001FFFC000C001FE0
310
00C000FFFF80007FFFFFFFFE000001FFFFFFFFE000001FF80FFFFFFFFFFFFFC0
310
7FFFFFF0001FFFFFF8000FFFFFFFF8000FF8000FFFFFFFF8000FFF0003FFFFFF
310
FFFFFFFFFF800000F000FFFFFFC0000001FFFC001C001FE001C000FFFF80007F
310
FFFFFF80000003FFFFFFF80000001FF80FFFFFFFFFFFFFC07FFFFFF0001FFFFF
310
F8001FFFFFFFFC000FF8001FFFFFFFFC000FFF0003FFFFFFFFFFFFFFF0000001
310
F000FFFFF800000001FFF8001C001FE001C000FFFF80007FFFFFF800000003FF
310
FFFF800000003FF80FFFFFFFFFFFFFC07FFFFFF0001FFFFFF8001FFFFFFFFC00
310
0FF8001FFFFFFFFC000FFF0003FFFFFFFFFFFFFE00000001F000FFFFC0000000
310
03FFF8001E001FC001E000FFFF80007FFFFF8000000007FFFFFC000000003FF8
310
0FFFFFFFFFFFFFC07FFFFFF0001FFFFFF8001FFFFFFFFC000FF8001FFFFFFFFC
310
000FFF0003FFFFFFFFFFFFE000000003F000FFFE0000000007FFF8001E000FC0
310
01E0007FFF80007FFFFE0000000007FFFFE0000000007FF80FFFFFFFFFFFFFC0
310
7FFFFFF0001FFFFFF0001FFFFFFFFC0007F0001FFFFFFFFC0007FF0003FFFFFF
310
FFFFFF0000000003F000FFF80000000007FFF8001E000FC003E0007FFF80007F
310
FFF0000000000FFFFF8000000000FFF80FFFFFFFFFFFFFC07FFFFFF0001FFFFF
310
F0001FFFFFFFFC0007F0001FFFFFFFFC0007FF0003FFFFFFFFFFFC0000000007
310
F000FFE0000000000FFFF0003E000FC003E0007FFF80007FFFC0000000001FFF
310
FE0000000001FFF80FFFFFFFFFFFFFC07FFFFFF0001FFFFFF0001FFFFFFFFC00
310
07F0001FFFFFFFFC0007FF0003FFFFFFFFFFF0000000000FF000FFC000000000
310
1FFFF0003F000F8003F0003FFF80007FFF80000000003FFFF80000000003FFF8
310
0FFFFFFFFFFFFFC07FFFFFF0001FFFFFF0001FFFFFFFFC0007F0001FFFFFFFFC
310
0007FF0003FFFFFFFFFFE0000000001FF000FF00000000007FFFF0003F000780
310
03F0003FFF80007FFF00000000007FFFF00000000007FFF80FFFFFFFFFFFFFC0
310
7FFFFFF0001FFFFFF0001FFFFFFFFC0007F0001FFFFFFFFC0007FF0003FFFFFF
310
FFFF80000000007FF000FE0000000000FFFFE0003F00078007F0003FFF80007F
310
FE0000000001FFFFE0000000001FFFF80FFFFFFFFFFFFFC07FFFFFF0001FFFFF
310
F0001FFFFFFFFC0007F0001FFFFFFFFC0007FF0003FFFFFFFFFF0000000000FF
310
F000FC0000000003FFFFE0007F00078007F0003FFF80007FFC0000000007FFFF
310
C0000000007FFFF80FFFFFFFFFFFFFC07FFFFFF0001FFFFFF8001FFFFFFFFC00
310
0FF8001FFFFFFFFC000FFF0003FFFFFFFFFE0000000003FFF000FC000000000F
310
FFFFE0007F80070007F8001FFF80007FF8000000001FFFFF8000000001FFFFF8
310
0FFFFFFFFFFFFFC07FFFFFF0001FFFFFF8001FFFFFFFFC000FF8001FFFFFFFFC
310
000FFF0003FFFFFFFFFC000000000FFFF000F8000000007FFFFFE0007F800700
310
07F8001FFF80007FF000000000FFFFFF800000000FFFFFF80FFFFFFFFFFFFFC0
310
7FFFFFF0001FFFFFF8000FFFFFFFF8000FF8000FFFFFFFF8000FFF0003FFFFFF
310
FFFC000000007FFFF000F800000007FFFFFFC0007F8003000FF8001FFF80007F
310
F000000007FFFFFF000000007FFFFFF80FFFFFFFFFFFFFC07FFFFFF0001FFFFF
310
F8000FFFFFFFF8000FF8000FFFFFFFF8000FFF0003FFFFFFFFF80000000FFFFF
310
F000F0000000FFFFFFFFC000FF8003000FF8001FFF80007FE0000000FFFFFFFF
310
0000000FFFFFFFF8000001FFFE0000007FFFFFF0001FFFFFF8000FFFFFFFF800
310
0FF8000FFFFFFFF8000FFF0003FFFFFFFFF8000000FFFFFFF000F000000FFFFF
310
FFFFC000FFC002000FF8000FFF80007FE000001FFFFFFFFE000001FFFFFFFFF8
310
000001FFFE0000007FFFFFF0001FFFFFF8000FFFFFFFF8000FF8000FFFFFFFF8
310
000FFF0003FFFFFFFFF000001FFFFFFFF000E00000FFFFFFFFFFC000FFC00200
310
0FFC000FFF80007FE00001FFFFFFFFFE00001FFFFFFFFFF8000001FFFE000000
310
7FFFFFF0001FFFFFFC000FFFFFFFF8001FFC000FFFFFFFF8001FFF0003FFFFFF
310
FFF00001FFFFFFFFF000E00007FFFFFFFFFF8000FFC000001FFC000FFF80007F
310
C0000FFFFFFFFFFE0000FFFFFFFFFFF8000001FFFE0000007FFFFFF0001FFFFF
310
FC0007FFFFFFF0001FFC0007FFFFFFF0001FFF0003FFFFFFFFF00007FFFFFFFF
310
F000E0001FFFFFFFFFFF8000FFC000001FFC000FFF80007FC0003FFFFFFFFFFE
310
0001FFFFFFFFFFF8000001FFFE0000007FFFFFF0001FFFFFFC0007FFFFFFF000
310
1FFC0007FFFFFFF0001FFF0003FFFFFFFFF0001FFFFFFFFFF000E0003FFFFF00
310
03FF8001FFE000001FFC0007FF80007FC0007FFFFF0007FC0003FFFFF0003FF8
310
000001FFFE0000007FFFFFF0001FFFFFFC0003FFFFFFE0001FFC0003FFFFFFE0
310
001FFF0003FFFFFFFFF0003FFFFFFFFFF000E0003FFFFF0001FF8001FFE00000
310
1FFE0007FF80007FC0007FFFFE0003FC0007FFFFE0003FF8000001FFFE000000
310
7FFFFFF0001FFFFFFE0003FFFFFFE0003FFE0003FFFFFFE0003FFF0003FFFFFF
310
FFF0003FFFFF8001F000E0003FFFFF0001FF0001FFE000001FFE0007FF80007F
310
C0007FFFFE0003FC0007FFFFE0003FF8000001FFFE0000007FFFFFF0001FFFFF
310
FE0001FFFFFFC0003FFE0001FFFFFFC0003FFF0003FFFFFFFFF0003FFFFF0001
310
F000E0003FFFFF0003FF0001FFE000003FFE0007FF80007FC0007FFFFE0003FC
310
0007FFFFE0003FF8000001FFFE0000007FFFFFF0001FFFFFFF0001FFFFFFC000
310
7FFF0001FFFFFFC0007FFF0003FFFFFFFFF0003FFFFF0001F000E0003FFFFE00
310
03FF0003FFF000003FFE0003FF80007FC0007FFFFC0003FE0007FFFFE0003FF8
310
000001FFFE0000007FFFFFF0001FFFFFFF0000FFFFFF80007FFF0000FFFFFF80
310
007FFF0003FFFFFFFFF0003FFFFF0001F000E0003FFFFE0003FF0003FFF00000
310
3FFF0003FF80007FC0007FFFFC0007FE0007FFFFC0003FF8000001FFFE000000
310
7FFFFFF0001FFFFFFF80007FFFFF0000FFFF80007FFFFF0000FFFF0003FFFFFF
310
FFF0003FFFFF0003F000E0003FFFFC0003FE0003FFF000003FFF0003FF80007F
310
E0003FFFF80007FE0003FFFFC0007FF8000001FFFE0000007FFFFFF0001FFFFF
310
FF80003FFFFE0000FFFF80003FFFFE0000FFFF0003FFFFFFFFF0001FFFFE0003
310
F000F0001FFFF80003FE0003FFF000007FFF0001FF80007FE0003FFFF00007FE
310
0001FFFF80007FF8000001FFFE0000007FFFFFF0001FFFFFFFC0000FFFF80001
310
FFFFC0000FFFF80001FFFF0003FFFFFFFFF0001FFFFC0003F000F0000FFFF000
310
07FE0007FFF800007FFF0001FF80007FE0001FFFE00007FF0000FFFE00007FF8
310
000001FFFE0000007FFFFFF0001FFFFFFFC00003FFE00001FFFFC00003FFE000
310
01FFFF0003FFFFFFFFF8000FFFF80003F000F00003FFC00007FC0007FFF80000
310
7FFF8001FF80007FF00007FF80000FFF00007FF80000FFF8000001FFFE000000
310
7F80000000000001FFE000003E000003FFFFE000003E000003FFFF0003FFFFFF
310
FFF80003FFE00007F000F800000000000FFC0007FFF800007FFF8001FF80007F
310
F000000000000FFF000000000000FFF8000001FFFE0000007F80000000000001
310
FFF0000000000007FFFFF0000000000007FFFF0003FFFFFFFFFC00007E000007
310
F000F800000000000FFC0007FFF80000FFFF8000FF80007FF800000000001FFF
310
800000000001FFF8000001FFFE0000007F80000000000001FFF800000000000F
310
FFFFF800000000000FFFFF0003FFFFFFFFFC00000000000FF000FC0000000000
310
1FFC0007FFFC0000FFFF8000FF80007FF800000000003FFFC00000000001FFF8
310
000001FFFE0000007F80000000000001FFF800000000000FFFFFF80000000000
310
0FFFFF0003FFFFFFFFFE00000000001FF000FE00000000003FF8000FFFFC0000
310
FFFF8000FF80007FFC00000000003FFFC00000000003FFF8000001FFFE000000
310
7F80000000000001FFFC00000000001FFFFFFC00000000001FFFFF0003FFFFFF
310
FFFF00000000001FF000FF00000000003FF8000FFFFC0000FFFFC000FF80007F
310
FE00000000007FFFE00000000007FFF8000001FFFE0000007F80000000000001
310
FFFE00000000003FFFFFFE00000000003FFFFF0003FFFFFFFFFF80000000003F
310
F000FF80000000007FF8000FFFFC0001FFFFC0007F80007FFF0000000000FFFF
310
F0000000000FFFF800000000000000007F80000000000001FFFF8000000000FF
310
FFFFFF8000000000FFFFFF0003FFFFFFFFFFC0000000007FF000FFC000000000
310
FFF8000FFFFE0001FFFFC0007F80007FFF8000000001FFFFF8000000001FFFF8
310
00000000000000007F80000000000001FFFFC000000001FFFFFFFFC000000001
310
FFFFFF0003FFFFFFFFFFE000000000FFF000FFE000000003FFF0001FFFFE0001
310
FFFFC0007F80007FFFC000000007FFFFFE000000003FFFF80000000000000000
310
7F80000000000001FFFFE000000003FFFFFFFFE000000003FFFFFF0003FFFFFF
310
FFFFF000000003FFF000FFF80000000FFFF0001FFFFE0001FFFFE0007F80007F
310
FFF00000000FFFFFFF00000000FFFFF800000000000000007F80000000000001
310
FFFFF80000000FFFFFFFFFF80000000FFFFFFF0003FFFFFFFFFFFC0000000FFF
310
F000FFFE0000003FFFF0001FFFFE0003FFFFE0003F80007FFFFC0000003FFFFF
310
FFC0000003FFFFF800000000000000007F80000000000001FFFFFE0000003FFF
310
FFFFFFFE0000003FFFFFFF0003FFFFFFFFFFFF0000003FFFF000FFFF800000FF
310
FFF0001FFFFF0003FFFFE0003F80007FFFFF000001FFFFFFFFF800001FFFFFF8
310
00000000000000007F80000000000001FFFFFFC00001FFFFFFFFFFFFC00001FF
310
FFFFFF0003FFFFFFFFFFFFC00000FFFFF000FFFFF8000FFFFFFFFFFFFFFFFFFF
310
FFFFFFFFFFFFFFFFFFFFF0001FFFFFFFFFFF0000FFFFFFF80000000000000000
310
7FFFFFFFFFFFFFFFFFFFFFFC001FFFFFFFFFFFFFFC001FFFFFFFFFFFFFFFFFFF
310
FFFFFFFC001FFFFFF000FFFFFFFFFFFFFFFFFFFFFFFFFFFFFFFFFFFFFFFFFFFF
310
FFFFFFFFFFFFFFFFFFFFFFFFFFFFFFFFFFFFFFFFFFFFFFFFFFFFFFFFFFFFFFFF
310
FFFFFFFFFFFFFFFFFFFFFFFFFFFFFFFFFFFFFFFFFFFFFFFFFFFFFFFFFFFFFFFF
310
F000FFFFFFFFFFFFFFFFFFFFFFFFFFFFFFFFFFFFFFFFFFFFFFFFFFFFFFFFFFFF
310
FFFFFFFFFFFFFFFFFFFFFFFFFFFFFFFFFFFFFFFFFFFFFFFFFFFFFFFFFFFFFFFF
310
FFFFFFFFFFFFFFFFFFFFFFFFFFFFFFFFFFFFFFFFFFFFFFFFF000FFFFFFFFFFFF
310
FFFFFFFFFFFFFFFFFFFFFFFFFFFFFFFFFFFFFFFFFFFFFFFFFFFFFFFFFFFFFFFF
310
FFFFFFFFFFFFFFFFFFFFFFFFFFFFFFFFFFFFFFFFFFFFFFFFFFFFFFFFFFFFFFFF
310
FFFFFFFFFFFFFFFFFFFFFFFFFFFFFFFFF000FFFFFFFFFFFFFFFFFFFFFFFFFFFF
310
FFFFFFFFFFFFFFFFFFFFFFFFFFFFFFFFFFFFFFFFFFFFFFFFFFFFFFFFFFFFFFFF
310
FFFFFFFFFFFFFFFFFFFFFFFFFFFFFFFFFFFFFFFFFFFFFFFFFFFFFFFFFFFFFFFF
310
FFFFFFFFFFFFFFFFF000FFFFFFFFFFFFFFFFFFFFFFFFFFFFFFFFFFFFFFFFFFFF
310
FFFFFFFFFFFFFFFFFFFFFFFFFFFFFFFFFFFFFFFFFFFFFFFFFFFFFFFFFFFFFFFF
310
FFFFFFFFFFFFFFFFFFFFFFFFFFFFFFFFFFFFFFFFFFFFFFFFFFFFFFFFFFFFFFFF
310
F000FFFFFFFFFFFFFFFFFFFFFFFFFFFFFFFFFFFFFFFFFFFFFFFFFFFFFFFFFFFF
310
FFFFFFFFFFFFFFFFFFFFFFFFFFFFFFFFFFFFFFFFFFFFFFFFFFFFFFFFFFFFFFFF
310
FFFFFFFFFFFFFFFFFFFFFFFFFFFFFFFFFFFFFFFFFFFFFFFFF000FFFFFFFFFFFF
310
FFFFFFFFFFFFFFFFFFFFFFFFFFFFFFFFFFFFFFFFFFFFFFFFFFFFFFFFFFFFFFFF
310
FFFFFFFFFFFFFFFFFFFFFFFFFFFFFFFFFFFFFFFFFFFFFFFFFFFFFFFFFFFFFFFF
310
FFFFFFFFFFFFFFFFFFFFFFFFFFFFFFFFF000FFFFFFFFFFFFFFFFFFFFFFFFFFFF
310
FFFFFFFFFFFFFFFFFFFFFFFFFFFFFFFFFFFFFFFFFFFFFFFFFFFFFFFFFFFFFFFF
310
FFFFFFFFFFFFFFFFFFFFFFFFFFFFFFFFFFFFFFFFFFFFFFFFFFFFFFFFFFFFFFFF
310
FFFFFFFFFFFFFFFFF000FFFFFFFFFFFFFFFFFFFFFFFFFFFFFFFFFFFFFFFFFFFF
310
FFFFFFFFFFFFFFFFFFFFFFFFFFFFFFFFFFFFFFFFFFFFFFFFFFFFFFFFFFFFFFFF
310
FFFFFFFFFFFFFFFFFFFFFFFFFFFFFFFFFFFFFFFFFFFFFFFFFFFFFFFFFFFFFFFF
310
F000FFFFFFFFFFFFFFFFFFFFFFFFFFFFFFFFFFFFFFFFFFFFFFFFFFFFFFFFFFFF
310
FFFFFFFFFFFFFFFFFFFFFFFFFFFFFFFFFFFFFFFFFFFFFFFFFFFFFFFFFFFFFFFF
310
FFFFFFFFFFFFFFFFFFFFFFFFFFFFFFFFFFFFFFFFFFFFFFFFF000FFFFFFFFFFFF
310
FFFFFFFFFFFFFFFFFFFFFFFFFFFFFFFFFFFFFFFFFFFFFFFFFFFFFFFFFFFFFFFF
310
FFFFFFFFFFFFFFFFFFFFFFFFFFFFFFFFFFFFFFFFFFFFFFFFFFFFFFFFFFFFFFFF
310
FFFFFFFFFFFFFFFFFFFFFFFFFFFFFFFFF000FFFFFFFFFFFFFFFFFFFFFFFFFFFF
310
FFFFFFFFFFFFFFFFFFFFFFFFFFFFFFFFFFFFFFFFFFFFFFFFFFFFFFFFFFFFFFFF
310
FFFFFFFFFFFFFFFFFFFFFFFFFFFFFFFFFFFFFFFFFFFFFFFFFFFFFFFFFFFFFFFF
310
FFFFFFFFFFFFFFFFF000FFFFFFFFFFFFFFFFFFFFFFFFFFFFFFFFFFFFFFFFFFFF
310
FFFFFFFFFFFFFFFFFFFFFFFFFFFFFFFFFFFFFFFFFFFFFFFFFFFFFFFFFFFFFFFF
310
FFFFFFFFFFFFFFFFFFFFFFFFFFFFFFFFFFFFFFFFFFFFFFFFFFFFFFFFFFFFFFFF
310
F000FFFFFFFFFFFFFFFFFFFFFFFFFFFFFFFFFFFFFFFFFFFFFFFFFFFFFFFFFFFF
310
FFFFFFFFFFFFFFFFFFFFFFFFFFFFFFFFFFFFFFFFFFFFFFFFFFFFFFFFFFFFFFFF
310
FFFFFFFFFFFFFFFFFFFFFFFFFFFFFFFFFFFFFFFFFFFFFFFFF000FFFFFFFFFFFF
310
FFFFFFFFFFFFFFFFFFFFFFFFFFFFFFFFFFFFFFFFFFFFFFFFFFFFFFFFFFFFFFFF
310
FFFFFFFFFFFFFFFFFFFFFFFFFFFFFFFFFFFFFFFFFFFFFFFFFFFFFFFFFFFFFFFF
310
FFFFFFFFFFFFFFFFFFFFFFFFFFFFFFFFF000FFFFFFFFFFFFFFFFFFFFFFFFFFFF
310
FFFFFFFFFFFFFFFFFFFFFFFFFFFFFFFFFFFFFFFFFFFFFFFFFFFFFFFFFFFFFFFF
310
FFFFFFFFFFFFFFFFFFFFFFFFFFFFFFFFFFFFFFFFFFFFFFFFFFFFFFFFFFFFFFFF
310
FFFFFFFFFFFFFFFFF000FFFFFFFFFFFFFFFFFFFFFFFFFFFFFFFFFFFFFFFFFFFF
310
FFFFFFFFFFFFFFFFFFFFFFFFFFFFFFFFFFFFFFFFFFFFFFFFFFFFFFFFFFFFFFFF
310
FFFFFFFFFFFFFFFFFFFFFFFFFFFFFFFFFFFFFFFFFFFFFFFFFFFFFFFFFFFFFFFF
310
F000FFFFFFFFFFFFFFFFFFFFFFFFFFFFFFFFFFFFFFFFFFFFFFFFFFFFFFFFFFFF
310
FFFFFFFFFFFFFFFFFFFFFFFFFFFFFFFFFFFFFFFFFFFFFFFFFFFFFFFFFFFFFFFF
310
FFFFFFFFFFFFFFFFFFFFFFFFFFFFFFFFFFFFFFFFFFFFFFFFF000FFFFFFFFFFFF
310
FFFFFFFFFFFFFFFFFFFFFFFFFFFFFFFFFFFFFFFFFFFFFFFFFFFFFFFFFFFFFFFF
310
FFFFFFFFFFFFFFFFFFFFFFFFFFFFFFFFFFFFFFFFFFFFFFFFFFFFFFFFFFFFFFFF
310
FFFFFFFFFFFFFFFFFFFFFFFFFFFFFFFFF000FFFFFFFFFFFFFFFFFFFFFFFFFFFF
310
FFFFFFFFFFFFFFFFFFFFFFFFFFFFFFFFFFFFFFFFFFFFFFFFFFFFFFFFFFFFFFFF
310
FFFFFFFFFFFFFFFFFFFFFFFFFFFFFFFFFFFFFFFFFFFFFFFFFFFFFFFFFFFFFFFF
310
FFFFFFFFFFFFFFFFF000FFFFFFFFFFFFFFFFFFFFFFFFFFFFFFFFFFFFFFFFFFFF
310
FFFFFFFFFFFFFFFFFFFFFFFFFFFFFFFFFFFFFFFFFFFFFFFFFFFFFFFFFFFFFFFF
310
FFFFFFFFFFFFFFFFFFFFFFFFFFFFFFFFFFFFFFFFFFFFFFFFFFFFFFFFFFFFFFFF
310
F000FFFFFFFFFFFFFFFFFFFFFFFFFFFFFFFFFFFFFFFFFFFFFFFFFFFFFFFFFFFF
310
FFFFFFFFFFFFFFFFFFFFFFFFFFFFFFFFFFFFFFFFFFFFFFFFFFFFFFFFFFFFFFFF
310
FFFFFFFFFFFFFFFFFFFFFFFFFFFFFFFFFFFFFFFFFFFFFFFFF000FFFFFFFFFFFF
310
FFFFFFFFFFFFFFFFFFFFFFFFFFFFFFFFFFFFFFFFFFFFFFFFFFFFFFFFFFFFFFFF
310
FFFFFFFFFFFFFFFFFFFFFFFFFFFFFFFFFFFFFFFFFFFFFFFFFFFFFFFFFFFFFFFF
310
FFFFFFFFFFFFFFFFFFFFFFFFFFFFFFFFF0000000000000000000000000000000
310
0000000000000000000000000000000000000000000000000000000000000000
310
0000000000000000000000000000000000000000000000000000000000000000
310
0000000000000000000000000000000000000000000000000000000000000000
310
0000000000000000000000000000000000000000000000000000000000000000
310
0000000000000000000000000000000000000000000000000000000000000000
310
0000000000000000000000000000000000000000000000000000000000000000
310
0000000000000000000000000000000000000000000000000000000000000000
310
0000000000000000000000000000000000000000000000000000000000000000
310
0000000000000000000000000000000000000000000000000000000000000000
310
0000000000000000000000000000000000000000000000000000000000000000
310
0000000000000000000000000000000000000000000000000000000000000000
310
0000000000000000000000000000000000000000000000000000000000000000
310
0000000000000000000000000000000000000000000000000000000000000000
310
0000000000000000000000000000000000000000000000000000000000000000
310
0000000000000000000000000000000000000000000000000000000000000000
  1
OLE
  0
ENDSEC
  0
SECTION
  2
OBJECTS
  0
DICTIONARY
  5
C
330
0
100
AcDbDictionary
281
     1
  3
ACAD_GROUP
350
D
  3
ACAD_LAYOUT
350
1A
  3
ACAD_MLINESTYLE
350
17
  3
ACAD_PLOTSETTINGS
350
19
  3
ACAD_PLOTSTYLENAME
350
E
  0
DICTIONARY
  5
D
102
{ACAD_REACTORS
330
C
102
}
330
C
100
AcDbDictionary
281
     1
  0
DICTIONARY
  5
1A
102
{ACAD_REACTORS
330
C
102
}
330
C
100
AcDbDictionary
281
     1
  3
Layout1
350
1E
  3
Layout2
350
26
  3
Model
350
22
  0
DICTIONARY
  5
17
102
{ACAD_REACTORS
330
C
102
}
330
C
100
AcDbDictionary
281
     1
  3
Standard
350
18
  0
DICTIONARY
  5
19
102
{ACAD_REACTORS
330
C
102
}
330
C
100
AcDbDictionary
281
     1
  0
ACDBDICTIONARYWDFLT
  5
E
102
{ACAD_REACTORS
330
C
102
}
330
C
100
AcDbDictionary
281
     1
  3
Normal
350
F
100
AcDbDictionaryWithDefault
340
F
  0
LAYOUT
  5
1E
102
{ACAD_REACTORS
330
1A
102
}
330
1A
100
AcDbPlotSettings
  1

  2
none_device
  4

  6

 40
0.0
 41
0.0
 42
0.0
 43
0.0
 44
0.0
 45
0.0
 46
0.0
 47
0.0
 48
0.0
 49
0.0
140
0.0
141
0.0
142
1.0
143
1.0
 70
   688
 72
     0
 73
     0
 74
     5
  7

 75
    16
147
1.0
148
0.0
149
0.0
100
AcDbLayout
  1
Layout1
 70
     1
 71
     1
 10
0.0
 20
0.0
 11
420.0
 21
297.0
 12
0.0
 22
0.0
 32
0.0
 14
1.0000000000E+20
 24
1.0000000000E+20
 34
1.0000000000E+20
 15
-1.0000000000E+20
 25
-1.0000000000E+20
 35
-1.0000000000E+20
146
0.0
 13
0.0
 23
0.0
 33
0.0
 16
1.0
 26
0.0
 36
0.0
 17
0.0
 27
1.0
 37
0.0
 76
     0
330
1B
  0
LAYOUT
  5
26
102
{ACAD_REACTORS
330
1A
102
}
330
1A
100
AcDbPlotSettings
  1

  2
none_device
  4

  6

 40
0.0
 41
0.0
 42
0.0
 43
0.0
 44
0.0
 45
0.0
 46
0.0
 47
0.0
 48
0.0
 49
0.0
140
0.0
141
0.0
142
1.0
143
1.0
 70
   688
 72
     0
 73
     0
 74
     5
  7

 75
    16
147
1.0
148
0.0
149
0.0
100
AcDbLayout
  1
Layout2
 70
     1
 71
     2
 10
0.0
 20
0.0
 11
0.0
 21
0.0
 12
0.0
 22
0.0
 32
0.0
 14
0.0
 24
0.0
 34
0.0
 15
0.0
 25
0.0
 35
0.0
146
0.0
 13
0.0
 23
0.0
 33
0.0
 16
1.0
 26
0.0
 36
0.0
 17
0.0
 27
1.0
 37
0.0
 76
     0
330
23
  0
LAYOUT
  5
22
102
{ACAD_REACTORS
330
1A
102
}
330
1A
100
AcDbPlotSettings
  1

  2
none_device
  4

  6

 40
0.0
 41
0.0
 42
0.0
 43
0.0
 44
0.0
 45
0.0
 46
0.0
 47
0.0
 48
0.0
 49
0.0
140
0.0
141
0.0
142
1.0
143
1.0
 70
  1712
 72
     0
 73
     0
 74
     0
  7

 75
     0
147
1.0
148
0.0
149
0.0
100
AcDbLayout
  1
Model
 70
     1
 71
     0
 10
0.0
 20
0.0
 11
297.0
 21
210.0
 12
0.0
 22
0.0
 32
0.0
 14
0.0
 24
0.0
 34
0.0
 15
297.0
 25
210.0
 35
0.0
146
0.0
 13
0.0
 23
0.0
 33
0.0
 16
1.0
 26
0.0
 36
0.0
 17
0.0
 27
1.0
 37
0.0
 76
     0
330
1F
331
29
  0
MLINESTYLE
  5
18
102
{ACAD_REACTORS
330
17
102
}
330
17
100
AcDbMlineStyle
  2
Standard
 70
     0
  3

 62
   256
 51
90.0
 52
90.0
 71
     2
 49
0.5
 62
   256
  6
BYLAYER
 49
-0.5
 62
   256
  6
BYLAYER
  0
ACDBPLACEHOLDER
  5
F
102
{ACAD_REACTORS
330
E
102
}
330
E
  0
ENDSEC
  0
EOF
