  0
SECTION
  2
HEADER
  9
$ACADVER
  1
AC1015
  9
$ACADMAINTVER
 70
     6
  9
$DWGCODEPAGE
  3
ANSI_1252
  9
$INSBASE
 10
0.0
 20
0.0
 30
0.0
  9
$EXTMIN
 10
0.0
 20
0.0
 30
0.0
  9
$EXTMAX
 10
297.0
 20
210.0
 30
0.0
  9
$LIMMIN
 10
0.0
 20
0.0
  9
$LIMMAX
 10
297.0
 20
210.0
  9
$ORTHOMODE
 70
     0
  9
$REGENMODE
 70
     1
  9
$FILLMODE
 70
     1
  9
$QTEXTMODE
 70
     0
  9
$MIRRTEXT
 70
     1
  9
$LTSCALE
 40
1.0
  9
$ATTMODE
 70
     1
  9
$TEXTSIZE
 40
2.0
  9
$TRACEWID
 40
1.0
  9
$TEXTSTYLE
  7
Standard
  9
$CLAYER
  8
0
  9
$CELTYPE
  6
ByLayer
  9
$CECOLOR
 62
   256
  9
$CELTSCALE
 40
1.0
  9
$DISPSILH
 70
     0
  9
$DIMSCALE
 40
1.0
  9
$DIMASZ
 40
3.0
  9
$DIMEXO
 40
0.0
  9
$DIMDLI
 40
3.75
  9
$DIMRND
 40
0.0
  9
$DIMDLE
 40
0.0
  9
$DIMEXE
 40
1.0
  9
$DIMTP
 40
0.0
  9
$DIMTM
 40
0.0
  9
$DIMTXT
 40
2.0
  9
$DIMCEN
 40
2.5
  9
$DIMTSZ
 40
0.0
  9
$DIMTOL
 70
     0
  9
$DIMLIM
 70
     0
  9
$DIMTIH
 70
     1
  9
$DIMTOH
 70
     1
  9
$DIMSE1
 70
     0
  9
$DIMSE2
 70
     0
  9
$DIMTAD
 70
     1
  9
$DIMZIN
 70
     0
  9
$DIMBLK
  1

  9
$DIMASO
 70
     1
  9
$DIMSHO
 70
     1
  9
$DIMPOST
  1

  9
$DIMAPOST
  1

  9
$DIMALT
 70
     0
  9
$DIMALTD
 70
     3
  9
$DIMALTF
 40
0.0393700787
  9
$DIMLFAC
 40
1.0
  9
$DIMTOFL
 70
     1
  9
$DIMTVP
 40
0.0
  9
$DIMTIX
 70
     0
  9
$DIMSOXD
 70
     0
  9
$DIMSAH
 70
     0
  9
$DIMBLK1
  1

  9
$DIMBLK2
  1

  9
$DIMSTYLE
  2
ISO-25
  9
$DIMCLRD
 70
     0
  9
$DIMCLRE
 70
     0
  9
$DIMCLRT
 70
     0
  9
$DIMTFAC
 40
1.0
  9
$DIMGAP
 40
1.524
  9
$DIMJUST
 70
     0
  9
$DIMSD1
 70
     0
  9
$DIMSD2
 70
     0
  9
$DIMTOLJ
 70
     0
  9
$DIMTZIN
 70
     0
  9
$DIMALTZ
 70
     0
  9
$DIMALTTZ
 70
     0
  9
$DIMUPT
 70
     0
  9
$DIMDEC
 70
     2
  9
$DIMTDEC
 70
     3
  9
$DIMALTU
 70
     2
  9
$DIMALTTD
 70
     3
  9
$DIMTXSTY
  7
Standard
  9
$DIMAUNIT
 70
     0
  9
$DIMADEC
 70
     2
  9
$DIMALTRND
 40
0.0
  9
$DIMAZIN
 70
     0
  9
$DIMDSEP
 70
    44
  9
$DIMATFIT
 70
     3
  9
$DIMFRAC
 70
     0
  9
$DIMLDRBLK
  1

  9
$DIMLUNIT
 70
     2
  9
$DIMLWD
 70
    -2
  9
$DIMLWE
 70
    -2
  9
$DIMTMOVE
 70
     0
  9
$LUNITS
 70
     2
  9
$LUPREC
 70
     2
  9
$SKETCHINC
 40
1.0
  9
$FILLETRAD
 40
10.0
  9
$AUNITS
 70
     0
  9
$AUPREC
 70
     2
  9
$MENU
  1
.
  9
$ELEVATION
 40
0.0
  9
$PELEVATION
 40
0.0
  9
$THICKNESS
 40
0.0
  9
$LIMCHECK
 70
     0
  9
$CHAMFERA
 40
10.0
  9
$CHAMFERB
 40
10.0
  9
$CHAMFERC
 40
20.0
  9
$CHAMFERD
 40
0.0
  9
$SKPOLY
 70
     0
  9
$TDCREATE
 40
2456086.65960118
  9
$TDUCREATE
 40
2456086.576267847
  9
$TDUPDATE
 40
2456086.659602616
  9
$TDUUPDATE
 40
2456086.576269282
  9
$TDINDWG
 40
0.0000000116
  9
$TDUSRTIMER
 40
0.0000000116
  9
$USRTIMER
 70
     1
  9
$ANGBASE
 50
0.0
  9
$ANGDIR
 70
     0
  9
$PDMODE
 70
     0
  9
$PDSIZE
 40
-1.0
  9
$PLINEWID
 40
0.0
  9
$SPLFRAME
 70
     0
  9
$SPLINETYPE
 70
     6
  9
$SPLINESEGS
 70
     8
  9
$HANDSEED
  5
22D
  9
$SURFTAB1
 70
     6
  9
$SURFTAB2
 70
     6
  9
$SURFTYPE
 70
     6
  9
$SURFU
 70
     6
  9
$SURFV
 70
     6
  9
$UCSBASE
  2

  9
$UCSNAME
  2

  9
$UCSORG
 10
0.0
 20
0.0
 30
0.0
  9
$UCSXDIR
 10
1.0
 20
0.0
 30
0.0
  9
$UCSYDIR
 10
0.0
 20
1.0
 30
0.0
  9
$UCSORTHOREF
  2

  9
$UCSORTHOVIEW
 70
     0
  9
$UCSORGTOP
 10
0.0
 20
0.0
 30
0.0
  9
$UCSORGBOTTOM
 10
0.0
 20
0.0
 30
0.0
  9
$UCSORGLEFT
 10
0.0
 20
0.0
 30
0.0
  9
$UCSORGRIGHT
 10
0.0
 20
0.0
 30
0.0
  9
$UCSORGFRONT
 10
0.0
 20
0.0
 30
0.0
  9
$UCSORGBACK
 10
0.0
 20
0.0
 30
0.0
  9
$PUCSBASE
  2

  9
$PUCSNAME
  2

  9
$PUCSORG
 10
0.0
 20
0.0
 30
0.0
  9
$PUCSXDIR
 10
1.0
 20
0.0
 30
0.0
  9
$PUCSYDIR
 10
0.0
 20
1.0
 30
0.0
  9
$PUCSORTHOREF
  2

  9
$PUCSORTHOVIEW
 70
     0
  9
$PUCSORGTOP
 10
0.0
 20
0.0
 30
0.0
  9
$PUCSORGBOTTOM
 10
0.0
 20
0.0
 30
0.0
  9
$PUCSORGLEFT
 10
0.0
 20
0.0
 30
0.0
  9
$PUCSORGRIGHT
 10
0.0
 20
0.0
 30
0.0
  9
$PUCSORGFRONT
 10
0.0
 20
0.0
 30
0.0
  9
$PUCSORGBACK
 10
0.0
 20
0.0
 30
0.0
  9
$USERI1
 70
     0
  9
$USERI2
 70
     0
  9
$USERI3
 70
     0
  9
$USERI4
 70
     0
  9
$USERI5
 70
     0
  9
$USERR1
 40
0.0
  9
$USERR2
 40
0.0
  9
$USERR3
 40
0.0
  9
$USERR4
 40
0.0
  9
$USERR5
 40
0.0
  9
$WORLDVIEW
 70
     1
  9
$SHADEDGE
 70
     3
  9
$SHADEDIF
 70
    70
  9
$TILEMODE
 70
     1
  9
$MAXACTVP
 70
    64
  9
$PINSBASE
 10
0.0
 20
0.0
 30
0.0
  9
$PLIMCHECK
 70
     0
  9
$PEXTMIN
 10
1.0000000000E+20
 20
1.0000000000E+20
 30
1.0000000000E+20
  9
$PEXTMAX
 10
-1.0000000000E+20
 20
-1.0000000000E+20
 30
-1.0000000000E+20
  9
$PLIMMIN
 10
0.0
 20
0.0
  9
$PLIMMAX
 10
420.0
 20
297.0
  9
$UNITMODE
 70
     0
  9
$VISRETAIN
 70
     1
  9
$PLINEGEN
 70
     0
  9
$PSLTSCALE
 70
     1
  9
$TREEDEPTH
 70
  3020
  9
$CMLSTYLE
  2
Standard
  9
$CMLJUST
 70
     0
  9
$CMLSCALE
 40
20.0
  9
$PROXYGRAPHICS
 70
     1
  9
$MEASUREMENT
 70
     1
  9
$CELWEIGHT
370
    -1
  9
$ENDCAPS
280
     0
  9
$JOINSTYLE
280
     0
  9
$LWDISPLAY
290
     1
  9
$INSUNITS
 70
     4
  9
$HYPERLINKBASE
  1

  9
$STYLESHEET
  1

  9
$XEDIT
290
     1
  9
$CEPSNTYPE
380
     0
  9
$PSTYLEMODE
290
     1
  9
$FINGERPRINTGUID
  2
{8743B247-F8D1-4F59-B3BE-4415943DA4F0}
  9
$VERSIONGUID
  2
{FAEB1C32-E019-11D5-929B-00C0DF256EC4}
  9
$EXTNAMES
290
     1
  9
$PSVPSCALE
 40
0.0
  9
$OLESTARTUP
290
     0
  0
ENDSEC
  0
SECTION
  2
CLASSES
  0
CLASS
  1
ACDBDICTIONARYWDFLT
  2
AcDbDictionaryWithDefault
  3
ObjectDBX Classes
 90
        0
280
     0
281
     0
  0
CLASS
  1
VISUALSTYLE
  2
AcDbVisualStyle
  3
ObjectDBX Classes
 90
     4095
280
     0
281
     0
  0
CLASS
  1
MATERIAL
  2
AcDbMaterial
  3
ObjectDBX Classes
 90
     1153
280
     0
281
     0
  0
CLASS
  1
ACDBPLACEHOLDER
  2
AcDbPlaceHolder
  3
ObjectDBX Classes
 90
        0
280
     0
281
     0
  0
CLASS
  1
LAYOUT
  2
AcDbLayout
  3
ObjectDBX Classes
 90
        0
280
     0
281
     0
  0
ENDSEC
  0
SECTION
  2
TABLES
  0
TABLE
  2
VPORT
  5
8
330
0
100
AcDbSymbolTable
 70
     1
  0
VPORT
  5
29
330
8
100
AcDbSymbolTableRecord
100
AcDbViewportTableRecord
  2
*Active
 70
     0
 10
0.0
 20
0.0
 11
1.0
 21
1.0
 12
148.5
 22
105.0
 13
0.0
 23
0.0
 14
10.0
 24
10.0
 15
10.0
 25
10.0
 16
0.0
 26
0.0
 36
1.0
 17
0.0
 27
0.0
 37
0.0
 40
210.0
 41
1.4142857143
 42
50.0
 43
0.0
 44
0.0
 50
0.0
 51
0.0
 71
     0
 72
  2000
 73
     1
 74
     3
 75
     0
 76
     0
 77
     0
 78
     0
281
     0
 65
     1
110
0.0
120
0.0
130
0.0
111
1.0
121
0.0
131
0.0
112
0.0
122
1.0
132
0.0
 79
     0
146
0.0
  0
ENDTAB
  0
TABLE
  2
LTYPE
  5
5
330
0
100
AcDbSymbolTable
 70
     6
  0
LTYPE
  5
14
330
5
100
AcDbSymbolTableRecord
100
AcDbLinetypeTableRecord
  2
ByBlock
 70
     0
  3

 72
    65
 73
     0
 40
0.0
  0
LTYPE
  5
15
330
5
100
AcDbSymbolTableRecord
100
AcDbLinetypeTableRecord
  2
ByLayer
 70
     0
  3

 72
    65
 73
     0
 40
0.0
  0
LTYPE
  5
16
330
5
100
AcDbSymbolTableRecord
100
AcDbLinetypeTableRecord
  2
Continuous
 70
     0
  3
Solid line
 72
    65
 73
     0
 40
0.0
  0
LTYPE
  5
3F
330
5
100
AcDbSymbolTableRecord
100
AcDbLinetypeTableRecord
  2
HIDDEN
 70
     0
  3
Hidden __ __ __ __ __ __ __ __ __ __ __ __ __ __
 72
    65
 73
     2
 40
1.905
 49
1.27
 74
     0
 49
-0.635
 74
     0
  0
LTYPE
  5
40
330
5
100
AcDbSymbolTableRecord
100
AcDbLinetypeTableRecord
  2
PHANTOM
 70
     0
  3
Phantom ______  __  __  ______  __  __  ______
 72
    65
 73
     6
 40
12.7
 49
6.35
 74
     0
 49
-1.27
 74
     0
 49
1.27
 74
     0
 49
-1.27
 74
     0
 49
1.27
 74
     0
 49
-1.27
 74
     0
  0
LTYPE
  5
41
330
5
100
AcDbSymbolTableRecord
100
AcDbLinetypeTableRecord
  2
CENTER
 70
     0
  3
Center ____ _ ____ _ ____ _ ____ _ ____ _ ____
 72
    65
 73
     4
 40
10.16
 49
6.35
 74
     0
 49
-1.27
 74
     0
 49
1.27
 74
     0
 49
-1.27
 74
     0
  0
LTYPE
  5
42
330
5
100
AcDbSymbolTableRecord
100
AcDbLinetypeTableRecord
  2
CENTERX2
 70
     0
  3
Center (2x) ________  __  ________  __  _____
 72
    65
 73
     4
 40
20.32
 49
12.7
 74
     0
 49
-2.54
 74
     0
 49
2.54
 74
     0
 49
-2.54
 74
     0
  0
LTYPE
  5
43
330
5
100
AcDbSymbolTableRecord
100
AcDbLinetypeTableRecord
  2
DOT2
 70
     0
  3
Dot (.5x) ........................................
 72
    65
 73
     2
 40
0.635
 49
0.0
 74
     0
 49
-0.635
 74
     0
  0
ENDTAB
  0
TABLE
  2
LAYER
  5
2
330
0
100
AcDbSymbolTable
 70
     5
  0
LAYER
  5
10
330
2
100
AcDbSymbolTableRecord
100
AcDbLayerTableRecord
  2
0
 70
     0
 62
     7
  6
Continuous
370
    -3
390
F
  0
LAYER
  5
44
330
2
100
AcDbSymbolTableRecord
100
AcDbLayerTableRecord
  2
FORMAT
 70
     0
 62
     7
  6
Continuous
370
    -3
390
F
  0
LAYER
  5
45
330
2
100
AcDbSymbolTableRecord
100
AcDbLayerTableRecord
  2
VERMASSUNG
 70
     0
 62
     7
  6
Continuous
370
    -3
390
F
  0
LAYER
  5
46
330
2
100
AcDbSymbolTableRecord
100
AcDbLayerTableRecord
  2
KOPF_DÜNN
 70
     0
 62
     7
  6
Continuous
370
    -3
390
F
  0
LAYER
  5
47
330
2
100
AcDbSymbolTableRecord
100
AcDbLayerTableRecord
  2
KOPF_DICK
 70
     0
 62
     7
  6
Continuous
370
    15
390
F
  0
ENDTAB
  0
TABLE
  2
STYLE
  5
3
330
0
100
AcDbSymbolTable
 70
     2
  0
STYLE
  5
11
330
3
100
AcDbSymbolTableRecord
100
AcDbTextStyleTableRecord
  2
Standard
 70
     0
 40
0.0
 41
1.0
 50
0.0
 71
     0
 42
2.0
  3
txt
  4

  0
STYLE
  5
48
330
3
100
AcDbSymbolTableRecord
100
AcDbTextStyleTableRecord
  2
SLDTEXTSTYLE0
 70
     0
 40
0.0
 41
0.7
 50
0.0
 71
     0
 42
0.2
  3
TXT
  4

  0
ENDTAB
  0
TABLE
  2
VIEW
  5
6
330
0
100
AcDbSymbolTable
 70
     0
  0
ENDTAB
  0
TABLE
  2
UCS
  5
7
330
0
100
AcDbSymbolTable
 70
     0
  0
ENDTAB
  0
TABLE
  2
APPID
  5
9
330
0
100
AcDbSymbolTable
 70
     1
  0
APPID
  5
12
330
9
100
AcDbSymbolTableRecord
100
AcDbRegAppTableRecord
  2
ACAD
 70
     0
  0
ENDTAB
  0
TABLE
  2
DIMSTYLE
  5
A
330
0
100
AcDbSymbolTable
 70
     5
100
AcDbDimStyleTable
  0
DIMSTYLE
105
27
330
A
100
AcDbSymbolTableRecord
100
AcDbDimStyleTableRecord
  2
ISO-25
 70
     0
 41
2.5
 42
0.625
 43
3.75
 44
1.25
 73
     0
 74
     0
 77
     1
 78
     8
140
2.5
141
2.5
143
0.0393700787
147
0.625
171
     3
172
     1
178
     0
271
     2
272
     2
274
     3
278
    44
283
     0
284
     8
340
11
  0
DIMSTYLE
105
1AB
102
{ACAD_REACTORS
330
1AA
330
1B5
330
1BF
330
1D2
330
1DE
102
}
330
A
100
AcDbSymbolTableRecord
100
AcDbDimStyleTableRecord
  2
SLDDIMSTYLE0
 70
     0
 41
3.0
 44
0.0
 45
0.000000001
 73
     0
 74
     0
 77
     1
 78
    12
 79
     3
140
2.0
147
0.5
173
     1
178
     0
271
     2
272
     3
276
     2
284
    12
340
48
  0
DIMSTYLE
105
1CA
102
{ACAD_REACTORS
330
1C9
102
}
330
A
100
AcDbSymbolTableRecord
100
AcDbDimStyleTableRecord
  2
SLDDIMSTYLE1
 70
     0
 41
3.0
 44
0.0
 73
     0
 74
     0
 77
     1
 78
    12
 79
     3
140
2.0
147
0.5
173
     1
178
     0
179
     1
272
     3
276
     2
284
    12
340
48
  0
DIMSTYLE
105
205
102
{ACAD_REACTORS
330
204
102
}
330
A
100
AcDbSymbolTableRecord
100
AcDbDimStyleTableRecord
  2
SLDDIMSTYLE2
 70
     0
 41
3.0
 44
0.0
 45
0.000000001
 73
     0
 74
     0
 77
     1
 78
    12
 79
     3
140
2.0
147
0.5
172
     1
173
     1
178
     0
271
     2
272
     3
276
     2
284
    12
289
     0
340
48
  0
DIMSTYLE
105
214
102
{ACAD_REACTORS
330
213
102
}
330
A
100
AcDbSymbolTableRecord
100
AcDbDimStyleTableRecord
  2
SLDDIMSTYLE3
 70
     0
 41
3.0
 44
0.0
 73
     0
 74
     0
 77
     1
 78
    12
 79
     3
140
2.0
147
0.5
173
     1
178
     0
179
     2
272
     3
276
     2
284
    12
340
48
  0
ENDTAB
  0
TABLE
  2
BLOCK_RECORD
  5
1
330
0
100
AcDbSymbolTable
 70
    10
  0
BLOCK_RECORD
  5
1F
330
1
100
AcDbSymbolTableRecord
100
AcDbBlockTableRecord
  2
*Model_Space
340
22
  0
BLOCK_RECORD
  5
1B
330
1
100
AcDbSymbolTableRecord
100
AcDbBlockTableRecord
  2
*Paper_Space
340
1E
  0
BLOCK_RECORD
  5
23
330
1
100
AcDbSymbolTableRecord
100
AcDbBlockTableRecord
  2
*Paper_Space0
340
26
  0
BLOCK_RECORD
  5
1AC
330
1
100
AcDbSymbolTableRecord
100
AcDbBlockTableRecord
  2
_D
340
0
  0
BLOCK_RECORD
  5
1B6
330
1
100
AcDbSymbolTableRecord
100
AcDbBlockTableRecord
  2
_D_1
340
0
  0
BLOCK_RECORD
  5
1C0
330
1
100
AcDbSymbolTableRecord
100
AcDbBlockTableRecord
  2
_D_2
340
0
  0
BLOCK_RECORD
  5
1CB
330
1
100
AcDbSymbolTableRecord
100
AcDbBlockTableRecord
  2
_D_3
340
0
  0
BLOCK_RECORD
  5
1D3
330
1
100
AcDbSymbolTableRecord
100
AcDbBlockTableRecord
  2
_D_4
340
0
  0
BLOCK_RECORD
  5
1DF
330
1
100
AcDbSymbolTableRecord
100
AcDbBlockTableRecord
  2
_D_5
340
0
  0
BLOCK_RECORD
  5
206
330
1
100
AcDbSymbolTableRecord
100
AcDbBlockTableRecord
  2
_D_6
340
0
  0
BLOCK_RECORD
  5
215
330
1
100
AcDbSymbolTableRecord
100
AcDbBlockTableRecord
  2
_D_7
340
0
  0
BLOCK_RECORD
  5
220
330
1
100
AcDbSymbolTableRecord
100
AcDbBlockTableRecord
  2
SW_CENTERMARKSYMBOL_0
340
0
102
{BLKREFS
331
22B
102
}
  0
ENDTAB
  0
ENDSEC
  0
SECTION
  2
BLOCKS
  0
BLOCK
  5
20
330
1F
100
AcDbEntity
  8
0
100
AcDbBlockBegin
  2
*Model_Space
 70
     0
 10
0.0
 20
0.0
 30
0.0
  3
*Model_Space
  1

  0
ENDBLK
  5
21
330
1F
100
AcDbEntity
  8
0
100
AcDbBlockEnd
  0
BLOCK
  5
1C
330
1B
100
AcDbEntity
 67
     1
  8
0
100
AcDbBlockBegin
  2
*Paper_Space
 70
     0
 10
0.0
 20
0.0
 30
0.0
  3
*Paper_Space
  1

  0
ENDBLK
  5
1D
330
1B
100
AcDbEntity
 67
     1
  8
0
100
AcDbBlockEnd
  0
BLOCK
  5
24
330
23
100
AcDbEntity
  8
0
100
AcDbBlockBegin
  2
*Paper_Space0
 70
     0
 10
0.0
 20
0.0
 30
0.0
  3
*Paper_Space0
  1

  0
ENDBLK
  5
25
330
23
100
AcDbEntity
  8
0
100
AcDbBlockEnd
  0
BLOCK
  5
1AD
330
1AC
100
AcDbEntity
  8
0
100
AcDbBlockBegin
  2
_D
 70
     0
 10
0.0
 20
0.0
 30
0.0
  3
_D
  1

  0
SOLID
  5
1AF
330
1AC
100
AcDbEntity
  8
VERMASSUNG
100
AcDbTrace
 10
93.4290813051
 20
123.2051320682
 30
0.0
 11
96.4290813051
 21
122.7551320682
 31
0.0
 12
96.4290813051
 22
123.6551320682
 32
0.0
 13
96.4290813051
 23
123.6551320682
 33
0.0
  0
SOLID
  5
1B0
330
1AC
100
AcDbEntity
  8
VERMASSUNG
100
AcDbTrace
 10
253.4290813051
 20
123.2051320682
 30
0.0
 11
250.4290813051
 21
123.6551320682
 31
0.0
 12
250.4290813051
 22
122.7551320682
 32
0.0
 13
250.4290813051
 23
122.7551320682
 33
0.0
  0
LINE
  5
1B1
330
1AC
100
AcDbEntity
  8
VERMASSUNG
100
AcDbLine
 10
93.4290813051
 20
133.7051320682
 30
0.0
 11
93.4290813051
 21
122.2051320682
 31
0.0
  0
LINE
  5
1B2
330
1AC
100
AcDbEntity
  8
VERMASSUNG
100
AcDbLine
 10
253.4290813051
 20
142.7051320682
 30
0.0
 11
253.4290813051
 21
122.2051320682
 31
0.0
  0
LINE
  5
1B3
330
1AC
100
AcDbEntity
  8
VERMASSUNG
100
AcDbLine
 10
93.4290813051
 20
123.2051320682
 30
0.0
 11
253.4290813051
 21
123.2051320682
 31
0.0
  0
MTEXT
  5
1B4
330
1AC
100
AcDbEntity
  8
VERMASSUNG
100
AcDbMText
 10
170.6290811721
 20
125.7832674313
 30
0.1
 40
2.0
 41
0.0
 71
     1
 72
     1
  1
160
  7
SLDTEXTSTYLE0
 73
     1
 44
1.0
  0
ENDBLK
  5
1AE
330
1AC
100
AcDbEntity
  8
0
100
AcDbBlockEnd
  0
BLOCK
  5
1B7
330
1B6
100
AcDbEntity
  8
0
100
AcDbBlockBegin
  2
_D_1
 70
     0
 10
0.0
 20
0.0
 30
0.0
  3
_D_1
  1

  0
SOLID
  5
1B9
330
1B6
100
AcDbEntity
  8
VERMASSUNG
100
AcDbTrace
 10
253.4290813051
 20
117.2051320682
 30
0.0
 11
250.4290813051
 21
117.6551320682
 31
0.0
 12
250.4290813051
 22
116.7551320682
 32
0.0
 13
250.4290813051
 23
116.7551320682
 33
0.0
  0
SOLID
  5
1BA
330
1B6
100
AcDbEntity
  8
VERMASSUNG
100
AcDbTrace
 10
55.4290813051
 20
117.2051320682
 30
0.0
 11
58.4290813051
 21
116.7551320682
 31
0.0
 12
58.4290813051
 22
117.6551320682
 32
0.0
 13
58.4290813051
 23
117.6551320682
 33
0.0
  0
LINE
  5
1BB
330
1B6
100
AcDbEntity
  8
VERMASSUNG
100
AcDbLine
 10
253.4290813051
 20
142.7051320682
 30
0.0
 11
253.4290813051
 21
116.2051320682
 31
0.0
  0
LINE
  5
1BC
330
1B6
100
AcDbEntity
  8
VERMASSUNG
100
AcDbLine
 10
55.4290813051
 20
144.4127940757
 30
0.0
 11
55.4290813051
 21
116.2051320682
 31
0.0
  0
LINE
  5
1BD
330
1B6
100
AcDbEntity
  8
VERMASSUNG
100
AcDbLine
 10
253.4290813051
 20
117.2051320682
 30
0.0
 11
55.4290813051
 21
117.2051320682
 31
0.0
  0
MTEXT
  5
1BE
330
1B6
100
AcDbEntity
  8
VERMASSUNG
100
AcDbMText
 10
151.6290811721
 20
119.7832674313
 30
0.1
 40
2.0
 41
0.0
 71
     1
 72
     1
  1
198
  7
SLDTEXTSTYLE0
 73
     1
 44
1.0
  0
ENDBLK
  5
1B8
330
1B6
100
AcDbEntity
  8
0
100
AcDbBlockEnd
  0
BLOCK
  5
1C1
330
1C0
100
AcDbEntity
  8
0
100
AcDbBlockBegin
  2
_D_2
 70
     0
 10
0.0
 20
0.0
 30
0.0
  3
_D_2
  1

  0
SOLID
  5
1C3
330
1C0
100
AcDbEntity
  8
VERMASSUNG
100
AcDbTrace
 10
270.229272114
 20
142.7051320682
 30
0.0
 11
270.679272114
 21
145.7051320682
 31
0.0
 12
269.779272114
 22
145.7051320682
 32
0.0
 13
269.779272114
 23
145.7051320682
 33
0.0
  0
SOLID
  5
1C4
330
1C0
100
AcDbEntity
  8
VERMASSUNG
100
AcDbTrace
 10
270.229272114
 20
164.7051320682
 30
0.0
 11
269.779272114
 21
161.7051320682
 31
0.0
 12
270.679272114
 22
161.7051320682
 32
0.0
 13
270.679272114
 23
161.7051320682
 33
0.0
  0
LINE
  5
1C5
330
1C0
100
AcDbEntity
  8
VERMASSUNG
100
AcDbLine
 10
253.4290813051
 20
142.7051320682
 30
0.0
 11
271.229272114
 21
142.7051320682
 31
0.0
  0
LINE
  5
1C6
330
1C0
100
AcDbEntity
  8
VERMASSUNG
100
AcDbLine
 10
253.4290813051
 20
164.7051320682
 30
0.0
 11
271.229272114
 21
164.7051320682
 31
0.0
  0
LINE
  5
1C7
330
1C0
100
AcDbEntity
  8
VERMASSUNG
100
AcDbLine
 10
270.229272114
 20
142.7051320682
 30
0.0
 11
270.229272114
 21
164.7051320682
 31
0.0
  0
MTEXT
  5
1C8
330
1C0
100
AcDbEntity
  8
VERMASSUNG
100
AcDbMText
 10
267.6511367509
 20
151.4051320171
 30
0.1
 40
2.0
 41
0.0
 71
     1
 72
     1
  1
22
  7
SLDTEXTSTYLE0
 11
6.123233995736766E-17
 21
1.0
 31
0.0
 73
     1
 44
1.0
  0
ENDBLK
  5
1C2
330
1C0
100
AcDbEntity
  8
0
100
AcDbBlockEnd
  0
BLOCK
  5
1CC
330
1CB
100
AcDbEntity
  8
0
100
AcDbBlockBegin
  2
_D_3
 70
     0
 10
0.0
 20
0.0
 30
0.0
  3
_D_3
  1

  0
ARC
  5
1CE
330
1CB
100
AcDbEntity
  8
VERMASSUNG
100
AcDbCircle
 10
253.5746124707
 20
142.7051320682
 30
0.0
 40
9.446072017872424
100
AcDbArc
 50
0.0
 51
107.5401158054
  0
SOLID
  5
1CF
330
1CB
100
AcDbEntity
  8
VERMASSUNG
100
AcDbTrace
 10
263.0206844886
 20
142.7051320682
 30
0.0
 11
263.0059148944
 21
145.7386583758
 31
0.0
 12
262.1165327325
 22
145.6008201733
 32
0.0
 13
262.1165327325
 23
145.6008201733
 33
0.0
  0
SOLID
  5
1D0
330
1CB
100
AcDbEntity
  8
VERMASSUNG
100
AcDbTrace
 10
250.7278169365
 20
151.7120200853
 30
0.0
 11
253.7613607865
 21
151.7225893832
 31
0.0
 12
253.6247541727
 22
152.6121615461
 32
0.0
 13
253.6247541727
 23
152.6121615461
 33
0.0
  0
MTEXT
  5
1D1
330
1CB
100
AcDbEntity
  8
VERMASSUNG
100
AcDbMText
 10
257.1319803943
 20
155.0049977742
 30
0.1
 40
2.0
 41
0.0
 71
     1
 72
     1
  1
107.5°
  7
SLDTEXTSTYLE0
 11
0.8066515584256986
 21
-0.5910272948768034
 31
0.0
 73
     1
 44
1.0
  0
ENDBLK
  5
1CD
330
1CB
100
AcDbEntity
  8
0
100
AcDbBlockEnd
  0
BLOCK
  5
1D4
330
1D3
100
AcDbEntity
  8
0
100
AcDbBlockBegin
  2
_D_4
 70
     0
 10
0.0
 20
0.0
 30
0.0
  3
_D_4
  1

  0
SOLID
  5
1D6
330
1D3
100
AcDbEntity
  8
VERMASSUNG
100
AcDbTrace
 10
45.4290313051
 20
133.2051320682
 30
0.0
 11
45.8790313051
 21
136.2051320682
 31
0.0
 12
44.9790313051
 22
136.2051320682
 32
0.0
 13
44.9790313051
 23
136.2051320682
 33
0.0
  0
SOLID
  5
1D7
330
1D3
100
AcDbEntity
  8
VERMASSUNG
100
AcDbTrace
 10
45.4290313051
 20
196.2051320682
 30
0.0
 11
44.9790313051
 21
193.2051320682
 31
0.0
 12
45.8790313051
 22
193.2051320682
 32
0.0
 13
45.8790313051
 23
193.2051320682
 33
0.0
  0
LINE
  5
1D8
330
1D3
100
AcDbEntity
  8
VERMASSUNG
100
AcDbLine
 10
93.9290813051
 20
133.2051320682
 30
0.0
 11
44.4290313051
 21
133.2051320682
 31
0.0
  0
LINE
  5
1D9
330
1D3
100
AcDbEntity
  8
VERMASSUNG
100
AcDbLine
 10
93.9290813051
 20
196.2051320682
 30
0.0
 11
44.4290313051
 21
196.2051320682
 31
0.0
  0
LINE
  5
1DA
330
1D3
100
AcDbEntity
  8
VERMASSUNG
100
AcDbLine
 10
45.4290313051
 20
133.2051320682
 30
0.0
 11
45.4290313051
 21
196.2051320682
 31
0.0
  0
MTEXT
  5
1DB
330
1D3
100
AcDbEntity
  8
VERMASSUNG
100
AcDbMText
 10
42.6508958161
 20
158.3001319589
 30
0.1
 40
2.0
 41
0.0
 71
     1
 72
     1
  1
PSC
  7
SLDTEXTSTYLE0
 11
6.123233995736766E-17
 21
1.0
 31
0.0
 73
     1
 44
1.0
  0
MTEXT
  5
1DC
330
1D3
100
AcDbEntity
  8
VERMASSUNG
100
AcDbMText
 10
42.8508958256
 20
162.900132061
 30
0.1
 40
2.0
 41
0.0
 71
     1
 72
     1
  1
%%c
  7
SLDTEXTSTYLE0
 11
6.123233995736766E-17
 21
1.0
 31
0.0
 73
     1
 44
1.0
  0
MTEXT
  5
1DD
330
1D3
100
AcDbEntity
  8
VERMASSUNG
100
AcDbMText
 10
42.6508958161
 20
166.510132541
 30
0.1
 40
2.0
 41
0.0
 71
     1
 72
     1
  1
63
  7
SLDTEXTSTYLE0
 11
6.123233995736766E-17
 21
1.0
 31
0.0
 73
     1
 44
1.0
  0
ENDBLK
  5
1D5
330
1D3
100
AcDbEntity
  8
0
100
AcDbBlockEnd
  0
BLOCK
  5
1E0
330
1DF
100
AcDbEntity
  8
0
100
AcDbBlockBegin
  2
_D_5
 70
     0
 10
0.0
 20
0.0
 30
0.0
  3
_D_5
  1

  0
SOLID
  5
1E2
330
1DF
100
AcDbEntity
  8
VERMASSUNG
100
AcDbTrace
 10
144.3097845501
 20
148.7051320682
 30
0.0
 11
144.7597845501
 21
151.7051320682
 31
0.0
 12
143.8597845501
 22
151.7051320682
 32
0.0
 13
143.8597845501
 23
151.7051320682
 33
0.0
  0
SOLID
  5
1E3
330
1DF
100
AcDbEntity
  8
VERMASSUNG
100
AcDbTrace
 10
144.3097845501
 20
180.7051320682
 30
0.0
 11
143.8597845501
 21
177.7051320682
 31
0.0
 12
144.7597845501
 22
177.7051320682
 32
0.0
 13
144.7597845501
 23
177.7051320682
 33
0.0
  0
LINE
  5
1E4
330
1DF
100
AcDbEntity
  8
VERMASSUNG
100
AcDbLine
 10
144.3097845501
 20
148.7051320682
 30
0.0
 11
144.3097845501
 21
180.7051320682
 31
0.0
  0
MTEXT
  5
1E5
330
1DF
100
AcDbEntity
  8
VERMASSUNG
100
AcDbMText
 10
141.7316490706
 20
151.9470594675
 30
0.1
 40
2.0
 41
0.0
 71
     1
 72
     1
  1
%%c
  7
SLDTEXTSTYLE0
 11
6.123233995736766E-17
 21
1.0
 31
0.0
 73
     1
 44
1.0
  0
MTEXT
  5
1E6
330
1DF
100
AcDbEntity
  8
VERMASSUNG
100
AcDbMText
 10
141.5316490611
 20
155.5570594818
 30
0.1
 40
2.0
 41
0.0
 71
     1
 72
     1
  1
32
  7
SLDTEXTSTYLE0
 11
6.123233995736766E-17
 21
1.0
 31
0.0
 73
     1
 44
1.0
  0
ENDBLK
  5
1E1
330
1DF
100
AcDbEntity
  8
0
100
AcDbBlockEnd
  0
BLOCK
  5
207
330
206
100
AcDbEntity
  8
0
100
AcDbBlockBegin
  2
_D_6
 70
     0
 10
0.0
 20
0.0
 30
0.0
  3
_D_6
  1

  0
SOLID
  5
209
330
206
100
AcDbEntity
  8
VERMASSUNG
100
AcDbTrace
 10
176.1111576306
 20
79.2499239927
 30
0.0
 11
178.2997040588
 21
81.3505821114
 31
0.0
 12
177.5870566017
 22
81.9002489213
 32
0.0
 13
177.5870566017
 23
81.9002489213
 33
0.0
  0
SOLID
  5
20A
330
206
100
AcDbEntity
  8
VERMASSUNG
100
AcDbTrace
 10
151.6815216354
 20
47.5767036774
 30
0.0
 11
149.4929752072
 21
45.4760455587
 31
0.0
 12
150.2056226643
 22
44.9263787488
 32
0.0
 13
150.2056226643
 23
44.9263787488
 33
0.0
  0
LINE
  5
20B
330
206
100
AcDbEntity
  8
VERMASSUNG
100
AcDbLine
 10
176.1111576306
 20
79.2499239927
 30
0.0
 11
176.9029881385
 21
78.6391830928
 31
0.0
  0
LINE
  5
20C
330
206
100
AcDbEntity
  8
VERMASSUNG
100
AcDbLine
 10
151.6815216354
 20
47.5767036774
 30
0.0
 11
152.4733521433
 21
46.9659627775
 31
0.0
  0
LINE
  5
20D
330
206
100
AcDbEntity
  8
VERMASSUNG
100
AcDbLine
 10
176.1111576306
 20
79.2499239927
 30
0.0
 11
179.7756030299
 21
84.00090704
 31
0.0
  0
LINE
  5
20E
330
206
100
AcDbEntity
  8
VERMASSUNG
100
AcDbLine
 10
176.1111576306
 20
79.2499239927
 30
0.0
 11
151.6815216354
 21
47.5767036774
 31
0.0
  0
LINE
  5
20F
330
206
100
AcDbEntity
  8
VERMASSUNG
100
AcDbLine
 10
151.6815216354
 20
47.5767036774
 30
0.0
 11
136.0352009144
 21
27.2911225325
 31
0.0
  0
MTEXT
  5
210
330
206
100
AcDbEntity
  8
VERMASSUNG
100
AcDbMText
 10
133.9937545882
 20
28.8656953153
 30
0.1
 40
2.0
 41
0.0
 71
     1
 72
     1
  1
%%c
  7
SLDTEXTSTYLE0
 11
0.6107408998800289
 21
0.7918305078826734
 31
0.0
 73
     1
 44
1.0
  0
MTEXT
  5
211
330
206
100
AcDbEntity
  8
VERMASSUNG
100
AcDbMText
 10
136.0401631364
 20
31.8463516459
 30
0.1
 40
2.0
 41
0.0
 71
     1
 72
     1
  1
40
  7
SLDTEXTSTYLE0
 11
0.6107408998800289
 21
0.7918305078826734
 31
0.0
 73
     1
 44
1.0
  0
MTEXT
  5
212
330
206
100
AcDbEntity
  8
VERMASSUNG
100
AcDbMText
 10
139.6969744137
 20
36.5874369923
 30
0.1
 40
2.0
 41
0.0
 71
     1
 72
     1
  1
min.
  7
SLDTEXTSTYLE0
 11
0.6107408998800289
 21
0.7918305078826734
 31
0.0
 73
     1
 44
1.0
  0
ENDBLK
  5
208
330
206
100
AcDbEntity
  8
0
100
AcDbBlockEnd
  0
BLOCK
  5
216
330
215
100
AcDbEntity
  8
0
100
AcDbBlockBegin
  2
_D_7
 70
     0
 10
0.0
 20
0.0
 30
0.0
  3
_D_7
  1

  0
ARC
  5
218
330
215
100
AcDbEntity
  8
VERMASSUNG
100
AcDbCircle
 10
163.896339633
 20
47.5446393711
 30
0.0
 40
55.37866185132156
100
AcDbArc
 50
90.0
 51
94.0
  0
ARC
  5
219
330
215
100
AcDbEntity
  8
VERMASSUNG
100
AcDbCircle
 10
163.896339633
 20
47.5446393711
 30
0.0
 40
55.37866185132155
100
AcDbArc
 50
83.8006243493
 51
90.0
  0
ARC
  5
21A
330
215
100
AcDbEntity
  8
VERMASSUNG
100
AcDbCircle
 10
163.896339633
 20
47.5446393711
 30
0.0
 40
55.37866185132156
100
AcDbArc
 50
94.0
 51
104.684292402
  0
SOLID
  5
21B
330
215
100
AcDbEntity
  8
VERMASSUNG
100
AcDbTrace
 10
163.896339633
 20
102.9233012224
 30
0.0
 11
166.8830659294
 21
102.3922964857
 31
0.0
 12
166.9074167731
 22
103.2919670012
 32
0.0
 13
166.9074167731
 23
103.2919670012
 33
0.0
  0
SOLID
  5
21C
330
215
100
AcDbEntity
  8
VERMASSUNG
100
AcDbTrace
 10
160.0333194616
 20
102.7884015854
 30
0.0
 11
157.0038603293
 21
102.9461271894
 31
0.0
 12
157.0909096983
 22
102.0503468551
 32
0.0
 13
157.0909096983
 23
102.0503468551
 33
0.0
  0
LINE
  5
21D
330
215
100
AcDbEntity
  8
VERMASSUNG
100
AcDbLine
 10
163.896339633
 20
99.2439632632
 30
0.0
 11
163.896339633
 21
103.9233012224
 31
0.0
  0
LINE
  5
21E
330
215
100
AcDbEntity
  8
VERMASSUNG
100
AcDbLine
 10
161.5169496472
 20
81.5715014517
 30
0.0
 11
159.9635629878
 21
103.7859656357
 31
0.0
  0
MTEXT
  5
21F
330
215
100
AcDbEntity
  8
VERMASSUNG
100
AcDbMText
 10
149.2966611317
 20
103.6795637163
 30
-62.3032682109
 40
2.0
 41
0.0
 71
     1
 72
     1
  1
4°
  7
SLDTEXTSTYLE0
 11
0.9770231230839016
 21
0.2131333314134118
 31
0.0
 73
     1
 44
1.0
  0
ENDBLK
  5
217
330
215
100
AcDbEntity
  8
0
100
AcDbBlockEnd
  0
BLOCK
  5
221
330
220
100
AcDbEntity
  8
0
100
AcDbBlockBegin
  2
SW_CENTERMARKSYMBOL_0
 70
     0
 10
0.0
 20
0.0
 30
0.0
  3
SW_CENTERMARKSYMBOL_0
  1

  0
LINE
  5
223
330
220
100
AcDbEntity
  8
VERMASSUNG
 62
     0
100
AcDbLine
 10
0.0
 20
0.0
 30
0.0
 11
0.0
 21
2.5
 31
0.0
  0
LINE
  5
224
330
220
100
AcDbEntity
  8
VERMASSUNG
 62
     0
100
AcDbLine
 10
0.0
 20
0.0
 30
0.0
 11
-2.5
 21
0.0
 31
0.0
  0
LINE
  5
225
330
220
100
AcDbEntity
  8
VERMASSUNG
 62
     0
100
AcDbLine
 10
0.0
 20
0.0
 30
0.0
 11
0.0
 21
-2.5
 31
0.0
  0
LINE
  5
226
330
220
100
AcDbEntity
  8
VERMASSUNG
 62
     0
100
AcDbLine
 10
0.0
 20
0.0
 30
0.0
 11
2.5
 21
0.0
 31
0.0
  0
LINE
  5
227
330
220
100
AcDbEntity
  8
VERMASSUNG
 62
     0
100
AcDbLine
 10
0.0
 20
5.0
 30
0.0
 11
0.0
 21
34.0
 31
0.0
  0
LINE
  5
228
330
220
100
AcDbEntity
  8
VERMASSUNG
 62
     0
100
AcDbLine
 10
-5.0
 20
0.0
 30
0.0
 11
-34.0
 21
0.0
 31
0.0
  0
LINE
  5
229
330
220
100
AcDbEntity
  8
VERMASSUNG
 62
     0
100
AcDbLine
 10
0.0
 20
-5.0
 30
0.0
 11
0.0
 21
-34.0
 31
0.0
  0
LINE
  5
22A
330
220
100
AcDbEntity
  8
VERMASSUNG
 62
     0
100
AcDbLine
 10
5.0
 20
0.0
 30
0.0
 11
34.0
 21
0.0
 31
0.0
  0
ENDBLK
  5
222
330
220
100
AcDbEntity
  8
0
100
AcDbBlockEnd
  0
ENDSEC
  0
SECTION
  2
ENTITIES
  0
MTEXT
  5
49
330
1F
100
AcDbEntity
  8
KOPF_DÜNN
100
AcDbMText
 10
13.8892156294
 20
23.8442973028
 30
0.0
 40
3.0
 41
0.0
 71
     1
 72
     1
  1
PS6.BDB.LQB.160
  7
SLDTEXTSTYLE0
 73
     1
 44
1.0
  0
MTEXT
  5
4A
330
1F
100
AcDbEntity
  8
VERMASSUNG
100
AcDbMText
 10
13.9329988022
 20
28.8834360957
 30
0.0
 40
3.0
 41
0.0
 71
     1
 72
     1
  1
Bohrstange links_Boring bar left
  7
SLDTEXTSTYLE0
 73
     1
 44
1.0
  0
MTEXT
  5
4B
330
1F
100
AcDbEntity
  8
VERMASSUNG
100
AcDbMText
 10
98.8601118557
 20
13.8365368179
 30
0.0
 40
2.0
 41
0.0
 71
     1
 72
     1
  1
Datum: 07.06.2012
  7
SLDTEXTSTYLE0
 73
     1
 44
1.0
  0
MTEXT
  5
4C
330
1F
100
AcDbEntity
  8
VERMASSUNG
100
AcDbMText
 10
13.933048693
 20
18.0482802738
 30
0.0
 40
2.0
 41
0.0
 71
     1
 72
     1
  1
PSC ø63 / Wp.: DC..11 T3..
  7
SLDTEXTSTYLE0
 73
     1
 44
1.0
  0
MTEXT
  5
4D
330
1F
100
AcDbEntity
  8
VERMASSUNG
100
AcDbMText
 10
13.9808475933
 20
13.9090973692
 30
0.0
 40
2.0
 41
0.0
 71
     1
 72
     1
  1
Gewicht: 1463g
  7
SLDTEXTSTYLE0
 73
     1
 44
1.0
  0
ARC
  5
4E
330
1F
100
AcDbEntity
  8
0
  6
Continuous
 62
     7
370
    15
100
AcDbCircle
 10
114.4290813051
 20
134.2051320682
 30
0.0
 40
1.000000000000057
100
AcDbArc
 50
270.0
 51
360.0
  0
ARC
  5
4F
330
1F
100
AcDbEntity
  8
0
  6
Continuous
 62
     7
370
    15
100
AcDbCircle
 10
114.4290813051
 20
195.2051320682
 30
0.0
 40
1.000000000000057
100
AcDbArc
 50
0.0
 51
90.0
  0
LINE
  5
50
330
1F
100
AcDbEntity
  8
0
  6
Continuous
 62
     7
370
    15
100
AcDbLine
 10
93.9290813289
 20
133.2051315615
 30
0.0
 11
114.429081022
 21
133.2051315615
 31
0.0
  0
LINE
  5
51
330
1F
100
AcDbEntity
  8
0
  6
Continuous
 62
     7
370
    15
100
AcDbLine
 10
114.429081022
 20
196.2051325748
 30
0.0
 11
93.9290813289
 21
196.2051325748
 31
0.0
  0
ARC
  5
52
330
1F
100
AcDbEntity
  8
0
  6
Continuous
 62
     7
370
    15
100
AcDbCircle
 10
93.9290813051
 20
133.7051320682
 30
0.0
 40
0.5000000000000568
100
AcDbArc
 50
180.0
 51
270.0
  0
ARC
  5
53
330
1F
100
AcDbEntity
  8
0
  6
Continuous
 62
     7
370
    15
100
AcDbCircle
 10
93.9290813051
 20
195.7051320682
 30
0.0
 40
0.5000000000000568
100
AcDbArc
 50
90.0
 51
180.0
  0
LWPOLYLINE
  5
54
330
1F
100
AcDbEntity
  8
0
  6
Continuous
 62
     7
370
    15
100
AcDbPolyline
 90
        3
 70
   128
 43
0.0
 10
93.2290813102
 20
142.1653115461
 10
93.3545362453
 20
142.0970102111
 10
93.4290813051
 20
142.0442712764
  0
LWPOLYLINE
  5
55
330
1F
100
AcDbEntity
  8
0
  6
Continuous
 62
     7
370
    15
100
AcDbPolyline
 90
        3
 70
   128
 43
0.0
 10
93.4290813051
 20
187.36599286
 10
93.3545362453
 20
187.3132539252
 10
93.2290813102
 20
187.2449525902
  0
LINE
  5
56
330
1F
100
AcDbEntity
  8
0
  6
Continuous
 62
     7
370
    15
100
AcDbLine
 10
93.2290813102
 20
171.2574231709
 30
0.0
 11
93.2290813102
 21
171.727019296
 31
0.0
  0
ARC
  5
57
330
1F
100
AcDbEntity
  8
0
  6
Continuous
 62
     7
370
    15
100
AcDbCircle
 10
119.4290813051
 20
144.7051320682
 30
0.0
 40
3.999999999999986
100
AcDbArc
 50
90.0
 51
180.0
  0
ARC
  5
58
330
1F
100
AcDbEntity
  8
0
  6
Continuous
 62
     7
370
    15
100
AcDbCircle
 10
119.4290813051
 20
184.7051320682
 30
0.0
 40
3.999999999999986
100
AcDbArc
 50
180.0
 51
270.0
  0
LINE
  5
59
330
1F
100
AcDbEntity
  8
0
  6
Continuous
 62
     7
370
    15
100
AcDbLine
 10
227.0148621641
 20
180.7051328281
 30
0.0
 11
119.4290818415
 21
180.7051328281
 31
0.0
  0
LINE
  5
5A
330
1F
100
AcDbEntity
  8
0
  6
Continuous
 62
     7
370
    15
100
AcDbLine
 10
222.7984891973
 20
148.7051313082
 30
0.0
 11
227.0148621641
 21
148.7051313082
 31
0.0
  0
LINE
  5
5B
330
1F
100
AcDbEntity
  8
0
  6
Continuous
 62
     7
370
    15
100
AcDbLine
 10
119.4290818415
 20
148.7051313082
 30
0.0
 11
222.7984891973
 21
148.7051313082
 31
0.0
  0
ARC
  5
5C
330
1F
100
AcDbEntity
  8
0
  6
Continuous
 62
     7
370
    15
100
AcDbCircle
 10
227.0148677427
 20
181.7051320682
 30
0.0
 40
0.999999999999988
100
AcDbArc
 50
270.0
 51
315.0
  0
LINE
  5
5D
330
1F
100
AcDbEntity
  8
0
  6
Continuous
 62
     7
370
    15
100
AcDbLine
 10
241.0531865202
 20
181.2051319787
 30
0.0
 11
227.9290782057
 21
181.2051319787
 31
0.0
  0
LINE
  5
5E
330
1F
100
AcDbEntity
  8
0
  6
Continuous
 62
     7
370
    15
100
AcDbLine
 10
227.9290782057
 20
181.2051319787
 30
0.0
 11
227.7219818674
 21
180.9980244646
 31
0.0
  0
LINE
  5
5F
330
1F
100
AcDbEntity
  8
0
  6
Continuous
 62
     7
370
    15
100
AcDbLine
 10
247.465722426
 20
150.0018452564
 30
0.0
 11
247.465722426
 21
149.9097747067
 31
0.0
  0
LINE
  5
60
330
1F
100
AcDbEntity
  8
0
  6
Continuous
 62
     7
370
    15
100
AcDbLine
 10
245.0524942718
 20
149.8150713081
 30
0.0
 11
245.0524942718
 21
149.9071120555
 31
0.0
  0
LINE
  5
61
330
1F
100
AcDbEntity
  8
0
  6
Continuous
 62
     7
370
    15
100
AcDbLine
 10
248.8827930532
 20
149.878158168
 30
0.0
 11
248.8827930532
 21
149.9287010441
 31
0.0
  0
LINE
  5
62
330
1F
100
AcDbEntity
  8
0
  6
Continuous
 62
     7
370
    15
100
AcDbLine
 10
243.6328010403
 20
149.9287010441
 30
0.0
 11
243.6328010403
 21
149.878158168
 31
0.0
  0
LINE
  5
63
330
1F
100
AcDbEntity
  8
0
  6
Continuous
 62
     7
370
    15
100
AcDbLine
 10
115.4290811859
 20
195.2051324109
 30
0.0
 11
115.4290811859
 21
134.2051317254
 31
0.0
  0
SPLINE
  5
64
330
1F
100
AcDbEntity
  8
0
  6
Continuous
 62
     7
370
    15
100
AcDbSpline
210
0.0
220
0.0
230
1.0
 70
     8
 71
     3
 72
    12
 73
     8
 74
     0
 42
0.00000001
 43
0.00000001
 12
1.0
 22
0.0
 32
0.0
 13
1.0
 23
0.0
 33
0.0
 40
0.0
 40
0.0
 40
0.0
 40
0.0
 40
0.2499999999999991
 40
0.2499999999999991
 40
0.4999999999999982
 40
0.4999999999999982
 40
1.0
 40
1.0
 40
1.0
 40
1.0
 10
103.9568381186733
 20
174.0931984994885
 30
0.0
 10
103.8937580801799
 20
174.0931984994885
 30
0.0
 10
103.8346094579986
 20
174.1185628187035
 30
0.0
 10
103.7361369079295
 20
174.1927276790765
 30
0.0
 10
103.6971002959448
 20
174.2392480196305
 30
0.0
 10
103.5972038291659
 20
174.3893903624758
 30
0.0
 10
103.554782948099
 20
174.5010835694478
 30
0.0
 10
103.5238254167811
 20
174.6145013888376
 30
0.0
  0
LINE
  5
65
330
1F
100
AcDbEntity
  8
0
  6
Continuous
 62
     7
370
    15
100
AcDbLine
 10
106.9013245173
 20
174.0931988964
 30
0.0
 11
103.9568383016
 21
174.0931988964
 31
0.0
  0
SPLINE
  5
66
330
1F
100
AcDbEntity
  8
0
  6
Continuous
 62
     7
370
    15
100
AcDbSpline
210
0.0
220
0.0
230
1.0
 70
     8
 71
     3
 72
    12
 73
     8
 74
     0
 42
0.00000001
 43
0.00000001
 12
1.0
 22
0.0
 32
0.0
 13
1.0
 23
0.0
 33
0.0
 40
0.0
 40
0.0
 40
0.0
 40
0.0
 40
0.4999999999999982
 40
0.4999999999999982
 40
0.7499999999999991
 40
0.7499999999999991
 40
1.0
 40
1.0
 40
1.0
 40
1.0
 10
107.3343371934326
 20
174.6145013888376
 30
0.0
 10
107.3036149515136
 20
174.5019455894284
 30
0.0
 10
107.2607777369782
 20
174.3891877296889
 30
0.0
 10
107.1613507127785
 20
174.2396468438925
 30
0.0
 10
107.1215985179618
 20
174.1923541121858
 30
0.0
 10
107.0235570611036
 20
174.1186178188643
 30
0.0
 10
106.9640010055162
 20
174.0931984994885
 30
0.0
 10
106.9013244915404
 20
174.0931984994885
 30
0.0
  0
ELLIPSE
  5
67
330
1F
100
AcDbEntity
  8
0
  6
Continuous
 62
     7
370
    15
100
AcDbEllipse
 10
91.0819271157
 20
164.7051320682
 30
0.0
 11
14.753683160656
 21
31.09325491558119
 31
0.0
210
0.0
220
0.0
230
1.0
 40
0.3419987131
 41
5.193281737408617
 42
6.124043104552322
  0
SPLINE
  5
68
330
1F
100
AcDbEntity
  8
0
  6
Continuous
 62
     7
370
    15
100
AcDbSpline
210
0.0
220
0.0
230
1.0
 70
     8
 71
     3
 72
    12
 73
     8
 74
     0
 42
0.00000001
 43
0.00000001
 12
1.0
 22
0.0
 32
0.0
 13
1.0
 23
0.0
 33
0.0
 40
0.0
 40
0.0
 40
0.0
 40
0.0
 40
0.2500000000000005
 40
0.2500000000000005
 40
0.500000000000001
 40
0.500000000000001
 40
1.0
 40
1.0
 40
1.0
 40
1.0
 10
106.9013244915404
 20
194.7736240270258
 30
0.0
 10
106.9644045300338
 20
194.7736240270258
 30
0.0
 10
107.0235531522151
 20
194.7657181008131
 30
0.0
 10
107.1220257022842
 20
194.7423929393769
 30
0.0
 10
107.1610623142688
 20
194.7276801495453
 30
0.0
 10
107.260958781048
 20
194.6797243488143
 30
0.0
 10
107.3033796621146
 20
194.6434621922343
 30
0.0
 10
107.3343371934326
 20
194.6058745282698
 30
0.0
  0
LINE
  5
69
330
1F
100
AcDbEntity
  8
0
  6
Continuous
 62
     7
370
    15
100
AcDbLine
 10
103.9568383016
 20
194.773624585
 30
0.0
 11
106.9013245173
 21
194.773624585
 31
0.0
  0
SPLINE
  5
6A
330
1F
100
AcDbEntity
  8
0
  6
Continuous
 62
     7
370
    15
100
AcDbSpline
210
0.0
220
0.0
230
1.0
 70
     8
 71
     3
 72
    12
 73
     8
 74
     0
 42
0.00000001
 43
0.00000001
 12
1.0
 22
0.0
 32
0.0
 13
1.0
 23
0.0
 33
0.0
 40
0.0
 40
0.0
 40
0.0
 40
0.0
 40
0.5000000000000028
 40
0.5000000000000028
 40
0.7500000000000013
 40
0.7500000000000013
 40
1.0
 40
1.0
 40
1.0
 40
1.0
 10
103.5238254167811
 20
194.6058745282698
 30
0.0
 10
103.5545476587003
 20
194.6431765112228
 30
0.0
 10
103.5973848732354
 20
194.6797883432692
 30
0.0
 10
103.6968118974353
 20
194.7275531265544
 30
0.0
 10
103.7365640922518
 20
194.7425106420368
 30
0.0
 10
103.8346055491101
 20
194.7657005878059
 30
0.0
 10
103.8941616046975
 20
194.7736240270257
 30
0.0
 10
103.9568381186733
 20
194.7736240270257
 30
0.0
  0
ELLIPSE
  5
6B
330
1F
100
AcDbEntity
  8
0
  6
Continuous
 62
     7
370
    15
100
AcDbEllipse
 10
119.7762354945
 20
164.7051320682
 30
0.0
 11
-14.75368316065603
 21
31.09325491558118
 31
0.0
210
0.0
220
0.0
230
1.0
 40
0.3419987131
 41
0.1591422026273057
 42
1.089903569770982
  0
SPLINE
  5
6C
330
1F
100
AcDbEntity
  8
0
  6
Continuous
 62
     7
370
    15
100
AcDbSpline
210
0.0
220
0.0
230
1.0
 70
     8
 71
     3
 72
    12
 73
     8
 74
     0
 42
0.00000001
 43
0.00000001
 12
1.0
 22
0.0
 32
0.0
 13
1.0
 23
0.0
 33
0.0
 40
0.0
 40
0.0
 40
0.0
 40
0.0
 40
0.2500000000000023
 40
0.2500000000000023
 40
0.5000000000000047
 40
0.5000000000000047
 40
1.0
 40
1.0
 40
1.0
 40
1.0
 10
103.9568381186733
 20
134.6366401092794
 30
0.0
 10
103.8937811637755
 20
134.6366401092794
 30
0.0
 10
103.83465101403
 20
134.6445404403591
 30
0.0
 10
103.7362034634967
 20
134.6678511883641
 30
0.0
 10
103.6971712253086
 20
134.6825563146477
 30
0.0
 10
103.5972813408518
 20
134.7304898428344
 30
0.0
 10
103.5549823672423
 20
134.766559815599
 30
0.0
 10
103.523825416781
 20
134.8043896080352
 30
0.0
  0
LINE
  5
6D
330
1F
100
AcDbEntity
  8
0
  6
Continuous
 62
     7
370
    15
100
AcDbLine
 10
106.9013245173
 20
134.6366395513
 30
0.0
 11
103.9568383016
 21
134.6366395513
 31
0.0
  0
SPLINE
  5
6E
330
1F
100
AcDbEntity
  8
0
  6
Continuous
 62
     7
370
    15
100
AcDbSpline
210
0.0
220
0.0
230
1.0
 70
     8
 71
     3
 72
    12
 73
     8
 74
     0
 42
0.00000001
 43
0.00000001
 12
1.0
 22
0.0
 32
0.0
 13
1.0
 23
0.0
 33
0.0
 40
0.0
 40
0.0
 40
0.0
 40
0.0
 40
0.5
 40
0.5
 40
0.75
 40
0.75
 40
1.0
 40
1.0
 40
1.0
 40
1.0
 10
107.3343371934326
 20
134.8043896080352
 30
0.0
 10
107.3031919954705
 20
134.7665740851151
 30
0.0
 10
107.260917729136
 20
134.7305072270316
 30
0.0
 10
107.1609721953107
 20
134.6825471620203
 30
0.0
 10
107.1212418906066
 20
134.6676861881226
 30
0.0
 10
107.0243538406005
 20
134.6447350419915
 30
0.0
 10
106.964288598854
 20
134.6366401092793
 30
0.0
 10
106.9013244915404
 20
134.6366401092793
 30
0.0
  0
ELLIPSE
  5
6F
330
1F
100
AcDbEntity
  8
0
  6
Continuous
 62
     7
370
    15
100
AcDbEllipse
 10
91.0819271157
 20
164.7051320682
 30
0.0
 11
-14.75368316065614
 21
31.09325491558119
 31
0.0
210
0.0
220
0.0
230
1.0
 40
0.3419987131
 41
3.300734856217121
 42
4.231496223360772
  0
SPLINE
  5
70
330
1F
100
AcDbEntity
  8
0
  6
Continuous
 62
     7
370
    15
100
AcDbSpline
210
0.0
220
0.0
230
1.0
 70
     8
 71
     3
 72
    12
 73
     8
 74
     0
 42
0.00000001
 43
0.00000001
 12
1.0
 22
0.0
 32
0.0
 13
1.0
 23
0.0
 33
0.0
 40
0.0
 40
0.0
 40
0.0
 40
0.0
 40
0.2500000000000014
 40
0.2500000000000014
 40
0.5000000000000028
 40
0.5000000000000028
 40
1.0
 40
1.0
 40
1.0
 40
1.0
 10
106.9013244915404
 20
155.3170656368163
 30
0.0
 10
106.9643814464382
 20
155.3170656368163
 30
0.0
 10
107.0235115961837
 20
155.2917192834355
 30
0.0
 10
107.121959146717
 20
155.217599901296
 30
0.0
 10
107.160991384905
 20
155.1711033865981
 30
0.0
 10
107.2608812693621
 20
155.0210288795896
 30
0.0
 10
107.3031802429714
 20
154.9099111704747
 30
0.0
 10
107.3343371934327
 20
154.7957627474672
 30
0.0
  0
LINE
  5
71
330
1F
100
AcDbEntity
  8
0
  6
Continuous
 62
     7
370
    15
100
AcDbLine
 10
103.9568383016
 20
155.3170652399
 30
0.0
 11
106.9013245173
 21
155.3170652399
 31
0.0
  0
SPLINE
  5
72
330
1F
100
AcDbEntity
  8
0
  6
Continuous
 62
     7
370
    15
100
AcDbSpline
210
0.0
220
0.0
230
1.0
 70
     8
 71
     3
 72
    12
 73
     8
 74
     0
 42
0.00000001
 43
0.00000001
 12
1.0
 22
0.0
 32
0.0
 13
1.0
 23
0.0
 33
0.0
 40
0.0
 40
0.0
 40
0.0
 40
0.0
 40
0.5
 40
0.5
 40
0.75
 40
0.75
 40
1.0
 40
1.0
 40
1.0
 40
1.0
 10
103.5238254167811
 20
154.7957627474672
 30
0.0
 10
103.5549706147432
 20
154.9098681133325
 30
0.0
 10
103.5972448810776
 20
155.0209744405513
 30
0.0
 10
103.697190414903
 20
155.1711320479815
 30
0.0
 10
103.7369207196071
 20
155.2181247395988
 30
0.0
 10
103.8338087696133
 20
155.2911003241373
 30
0.0
 10
103.8938740113597
 20
155.3170656368164
 30
0.0
 10
103.9568381186733
 20
155.3170656368164
 30
0.0
  0
ELLIPSE
  5
73
330
1F
100
AcDbEntity
  8
0
  6
Continuous
 62
     7
370
    15
100
AcDbEllipse
 10
119.7762354945
 20
164.7051320682
 30
0.0
 11
14.75368316065615
 21
31.09325491558118
 31
0.0
210
0.0
220
0.0
230
1.0
 40
0.3419987131
 41
2.051689083818826
 42
2.982450450962504
  0
LINE
  5
74
330
1F
100
AcDbEntity
  8
0
  6
Continuous
 62
     7
370
    15
100
AcDbLine
 10
93.4290813051
 20
133.7051325748
 30
0.0
 11
93.4290813051
 21
195.7051315615
 31
0.0
  0
SPLINE
  5
75
330
1F
100
AcDbEntity
  8
0
  6
Continuous
 62
     7
370
    15
100
AcDbSpline
210
0.0
220
0.0
230
1.0
 70
     8
 71
     3
 72
    12
 73
     8
 74
     0
 42
0.00000001
 43
0.00000001
 12
1.0
 22
0.0
 32
0.0
 13
1.0
 23
0.0
 33
0.0
 40
0.0
 40
0.0
 40
0.0
 40
0.0
 40
0.4999999999999998
 40
0.4999999999999998
 40
0.75
 40
0.75
 40
1.0
 40
1.0
 40
1.0
 40
1.0
 10
92.61256901865039
 20
142.8503383656768
 30
0.0
 10
92.66900551955757
 20
142.848920484335
 30
0.0
 10
92.73809015024631
 20
142.8473561480867
 30
0.0
 10
92.85689242196423
 20
142.8444119561123
 30
0.0
 10
92.8970776974343
 20
142.8433737530149
 30
0.0
 10
92.97045874483813
 20
142.8414398578003
 30
0.0
 10
93.00386830858078
 20
142.8405449705115
 30
0.0
 10
93.03410441623723
 20
142.8397611802391
 30
0.0
  0
SPLINE
  5
76
330
1F
100
AcDbEntity
  8
0
  6
Continuous
 62
     7
370
    15
100
AcDbSpline
210
0.0
220
0.0
230
1.0
 70
     8
 71
     3
 72
    16
 73
    12
 74
     0
 42
0.00000001
 43
0.00000001
 12
1.0
 22
0.0
 32
0.0
 13
1.0
 23
0.0
 33
0.0
 40
0.0
 40
0.0
 40
0.0
 40
0.0
 40
0.0625000000000042
 40
0.0625000000000042
 40
0.1250000000000085
 40
0.1250000000000085
 40
0.2500000000000099
 40
0.2500000000000099
 40
0.500000000000008
 40
0.500000000000008
 40
1.0
 40
1.0
 40
1.0
 40
1.0
 10
93.0341044162
 20
142.8397611802634
 30
0.0
 10
93.04568482378795
 20
142.839460989152
 30
0.0
 10
93.05899435054924
 20
142.838133240893
 30
0.0
 10
93.0882957806354
 20
142.831434566118
 30
0.0
 10
93.10310988051974
 20
142.8260763830123
 30
0.0
 10
93.13893828222255
 20
142.8090307338449
 30
0.0
 10
93.1530579065856
 20
142.7975681960692
 30
0.0
 10
93.18756205067406
 20
142.766004870697
 30
0.0
 10
93.19866660137866
 20
142.7481075716517
 30
0.0
 10
93.22484277859485
 20
142.6979461540375
 30
0.0
 10
93.22908130510686
 20
142.6702017418409
 30
0.0
 10
93.22908130510686
 20
142.6455375799113
 30
0.0
  0
LINE
  5
77
330
1F
100
AcDbEntity
  8
0
  6
Continuous
 62
     7
370
    15
100
AcDbLine
 10
93.2290813102
 20
157.6832448403
 30
0.0
 11
93.2290813102
 21
142.1653115461
 31
0.0
  0
SPLINE
  5
78
330
1F
100
AcDbEntity
  8
0
  6
Continuous
 62
     7
370
    15
100
AcDbSpline
210
0.0
220
0.0
230
1.0
 70
     8
 71
     3
 72
    16
 73
    12
 74
     0
 42
0.00000001
 43
0.00000001
 12
1.0
 22
0.0
 32
0.0
 13
1.0
 23
0.0
 33
0.0
 40
0.0
 40
0.0
 40
0.0
 40
0.0
 40
0.4999999999999992
 40
0.4999999999999992
 40
0.7499999999999989
 40
0.7499999999999989
 40
0.8749999999999996
 40
0.8749999999999996
 40
0.9374999999999998
 40
0.9374999999999998
 40
1.0
 40
1.0
 40
1.0
 40
1.0
 10
93.22908130510686
 20
157.6832447424025
 30
0.0
 10
93.22908130510687
 20
157.7969372865304
 30
0.0
 10
93.22493503002892
 20
157.9112574478799
 30
0.0
 10
93.19896943463542
 20
158.084305738377
 30
0.0
 10
93.18750852925801
 20
158.1434812455387
 30
0.0
 10
93.15319679148367
 20
158.2266043650069
 30
0.0
 10
93.13917205555408
 20
158.2547256811076
 30
0.0
 10
93.10314909252025
 20
158.283341495085
 30
0.0
 10
93.08839458343053
 20
158.2891345429869
 30
0.0
 10
93.05904242228365
 20
158.2875411170498
 30
0.0
 10
93.04570254777953
 20
158.281044713726
 30
0.0
 10
93.03410441623119
 20
158.2725289675229
 30
0.0
  0
SPLINE
  5
79
330
1F
100
AcDbEntity
  8
0
  6
Continuous
 62
     7
370
    15
100
AcDbSpline
210
0.0
220
0.0
230
1.0
 70
     8
 71
     3
 72
    12
 73
     8
 74
     0
 42
0.00000001
 43
0.00000001
 12
1.0
 22
0.0
 32
0.0
 13
1.0
 23
0.0
 33
0.0
 40
0.0
 40
0.0
 40
0.0
 40
0.0
 40
0.2500000000000001
 40
0.2500000000000001
 40
0.5000000000000001
 40
0.5000000000000001
 40
1.0
 40
1.0
 40
1.0
 40
1.0
 10
93.03410441623825
 20
158.2725289675137
 30
0.0
 10
93.00390597479762
 20
158.2503562354687
 30
0.0
 10
92.97053861946164
 20
158.2312765795915
 30
0.0
 10
92.89738334363173
 20
158.2061035351488
 30
0.0
 10
92.85713064460782
 20
158.200546998732
 30
0.0
 10
92.73940190133297
 20
158.2114588097187
 30
0.0
 10
92.66894345327407
 20
158.2533945651295
 30
0.0
 10
92.61256901865579
 20
158.3026063475111
 30
0.0
  0
SPLINE
  5
7A
330
1F
100
AcDbEntity
  8
0
  6
Continuous
 62
     7
370
    15
100
AcDbSpline
210
0.0
220
0.0
230
1.0
 70
     8
 71
     3
 72
    12
 73
     8
 74
     0
 42
0.00000001
 43
0.00000001
 12
1.0
 22
0.0
 32
0.0
 13
1.0
 23
0.0
 33
0.0
 40
0.0
 40
0.0
 40
0.0
 40
0.0
 40
0.5
 40
0.5
 40
0.75
 40
0.75
 40
1.0
 40
1.0
 40
1.0
 40
1.0
 10
92.10776096154719
 20
159.5189577393916
 30
0.0
 10
92.15151131343164
 20
159.298510754417
 30
0.0
 10
92.20440146455613
 20
159.0829657646115
 30
0.0
 10
92.3160130076978
 20
158.7705516880395
 30
0.0
 10
92.35857235160132
 20
158.6684722124236
 30
0.0
 10
92.46354958693875
 20
158.4740321997818
 30
0.0
 10
92.52511683003334
 20
158.3789473007182
 30
0.0
 10
92.6125690186557
 20
158.302606347511
 30
0.0
  0
SPLINE
  5
7B
330
1F
100
AcDbEntity
  8
0
  6
Continuous
 62
     7
370
    15
100
AcDbSpline
210
0.0
220
0.0
230
1.0
 70
     8
 71
     3
 72
    12
 73
     8
 74
     0
 42
0.00000001
 43
0.00000001
 12
1.0
 22
0.0
 32
0.0
 13
1.0
 23
0.0
 33
0.0
 40
0.0
 40
0.0
 40
0.0
 40
0.0
 40
0.2499999999999998
 40
0.2499999999999998
 40
0.4999999999999994
 40
0.4999999999999994
 40
1.0
 40
1.0
 40
1.0
 40
1.0
 10
92.6125690186556
 20
171.1076577887942
 30
0.0
 10
92.52407561108774
 20
171.0304079086859
 30
0.0
 10
92.46401757032186
 20
170.9370885847967
 30
0.0
 10
92.3581692973393
 20
170.7410555318272
 30
0.0
 10
92.31563577606181
 20
170.6387291736155
 30
0.0
 10
92.20448446923817
 20
170.3273847678396
 30
0.0
 10
92.15155361219038
 20
170.1119665146616
 30
0.0
 10
92.10776096154719
 20
169.8913063969137
 30
0.0
  0
SPLINE
  5
7C
330
1F
100
AcDbEntity
  8
0
  6
Continuous
 62
     7
370
    15
100
AcDbSpline
210
0.0
220
0.0
230
1.0
 70
     8
 71
     3
 72
    12
 73
     8
 74
     0
 42
0.00000001
 43
0.00000001
 12
1.0
 22
0.0
 32
0.0
 13
1.0
 23
0.0
 33
0.0
 40
0.0
 40
0.0
 40
0.0
 40
0.0
 40
0.4999999999999997
 40
0.4999999999999997
 40
0.7499999999999998
 40
0.7499999999999998
 40
1.0
 40
1.0
 40
1.0
 40
1.0
 10
92.61256901865569
 20
171.1076577887941
 30
0.0
 10
92.66887756695132
 20
171.1568120560379
 30
0.0
 10
92.73915222766941
 20
171.1987693746417
 30
0.0
 10
92.85719014199296
 20
171.2097290521741
 30
0.0
 10
92.89736638284687
 20
171.2042202939267
 30
0.0
 10
92.9713234775248
 20
171.1786630651378
 30
0.0
 10
93.00393986523622
 20
171.1598830172985
 30
0.0
 10
93.03410441623197
 20
171.1377351687818
 30
0.0
  0
SPLINE
  5
7D
330
1F
100
AcDbEntity
  8
0
  6
Continuous
 62
     7
370
    15
100
AcDbSpline
210
0.0
220
0.0
230
1.0
 70
     8
 71
     3
 72
    16
 73
    12
 74
     0
 42
0.00000001
 43
0.00000001
 12
1.0
 22
0.0
 32
0.0
 13
1.0
 23
0.0
 33
0.0
 40
0.0
 40
0.0
 40
0.0
 40
0.0
 40
0.0624999999999996
 40
0.0624999999999996
 40
0.1249999999999992
 40
0.1249999999999992
 40
0.2500000000000006
 40
0.2500000000000006
 40
0.5000000000000016
 40
0.5000000000000016
 40
1.0
 40
1.0
 40
1.0
 40
1.0
 10
93.03410441620024
 20
171.1377351687273
 30
0.0
 10
93.0457173160396
 20
171.129208579132
 30
0.0
 10
93.05906850047211
 20
171.1227083175992
 30
0.0
 10
93.08846834009127
 20
171.1211389204817
 30
0.0
 10
93.10330906464664
 20
171.1270223111123
 30
0.0
 10
93.1391422726152
 20
171.1555699471629
 30
0.0
 10
93.15325548043678
 20
171.1837369664687
 30
0.0
 10
93.18774685165563
 20
171.2674912248907
 30
0.0
 10
93.19883092276602
 20
171.3252046385121
 30
0.0
 10
93.22495374056201
 20
171.498795175158
 30
0.0
 10
93.22908130510687
 20
171.6138232277999
 30
0.0
 10
93.22908130510687
 20
171.7270193939027
 30
0.0
  0
LINE
  5
7E
330
1F
100
AcDbEntity
  8
0
  6
Continuous
 62
     7
370
    15
100
AcDbLine
 10
93.2290813102
 20
187.2449525902
 30
0.0
 11
93.2290813102
 21
171.727019296
 31
0.0
  0
SPLINE
  5
7F
330
1F
100
AcDbEntity
  8
0
  6
Continuous
 62
     7
370
    15
100
AcDbSpline
210
0.0
220
0.0
230
1.0
 70
     8
 71
     3
 72
    16
 73
    12
 74
     0
 42
0.00000001
 43
0.00000001
 12
1.0
 22
0.0
 32
0.0
 13
1.0
 23
0.0
 33
0.0
 40
0.0
 40
0.0
 40
0.0
 40
0.0
 40
0.5000000000000034
 40
0.5000000000000034
 40
0.7500000000000034
 40
0.7500000000000034
 40
0.8750000000000044
 40
0.8750000000000044
 40
0.9375000000000022
 40
0.9375000000000022
 40
1.0
 40
1.0
 40
1.0
 40
1.0
 10
93.22908130510687
 20
186.7647265563939
 30
0.0
 10
93.22908130510687
 20
186.740055400351
 30
0.0
 10
93.22491560664689
 20
186.7124735689597
 30
0.0
 10
93.19865727832196
 20
186.6621306981364
 30
0.0
 10
93.18715349658439
 20
186.6438412000745
 30
0.0
 10
93.15302273723789
 20
186.6126861690375
 30
0.0
 10
93.13860085056717
 20
186.6010467938258
 30
0.0
 10
93.10303388212935
 20
186.5841647678947
 30
0.0
 10
93.08808211383464
 20
186.578775664087
 30
0.0
 10
93.05907829547489
 20
186.5721551681425
 30
0.0
 10
93.0456629414656
 20
186.570802579936
 30
0.0
 10
93.034104416229
 20
186.5705029560644
 30
0.0
  0
SPLINE
  5
80
330
1F
100
AcDbEntity
  8
0
  6
Continuous
 62
     7
370
    15
100
AcDbSpline
210
0.0
220
0.0
230
1.0
 70
     8
 71
     3
 72
    12
 73
     8
 74
     0
 42
0.00000001
 43
0.00000001
 12
1.0
 22
0.0
 32
0.0
 13
1.0
 23
0.0
 33
0.0
 40
0.0
 40
0.0
 40
0.0
 40
0.0
 40
0.2499999999999998
 40
0.2499999999999998
 40
0.4999999999999999
 40
0.4999999999999999
 40
1.0
 40
1.0
 40
1.0
 40
1.0
 10
93.03410441623826
 20
186.5705029560662
 30
0.0
 10
93.00391663968861
 20
186.5697204186486
 30
0.0
 10
92.97056283559694
 20
186.5688270868301
 30
0.0
 10
92.89743663240097
 20
186.5668997780265
 30
0.0
 10
92.85720142937681
 20
186.5658602468138
 30
0.0
 10
92.73950979924373
 20
186.5629423634665
 30
0.0
 10
92.66912912608372
 20
186.5613467573964
 30
0.0
 10
92.6125690186531
 20
186.5599257706285
 30
0.0
  0
SPLINE
  5
81
330
1F
100
AcDbEntity
  8
0
  6
Continuous
 62
     7
370
    15
100
AcDbSpline
210
0.0
220
0.0
230
1.0
 70
     8
 71
     3
 72
    16
 73
    12
 74
     0
 42
0.00000001
 43
0.00000001
 12
1.0
 22
0.0
 32
0.0
 13
1.0
 23
0.0
 33
0.0
 40
0.0
 40
0.0
 40
0.0
 40
0.0
 40
0.25
 40
0.25
 40
0.375
 40
0.375
 40
0.5
 40
0.5
 40
0.75
 40
0.75
 40
1.0
 40
1.0
 40
1.0
 40
1.0
 10
92.10776096154719
 20
169.8913063969137
 30
0.0
 10
91.94652848406272
 20
169.0788966216669
 30
0.0
 10
91.8260486444231
 20
168.2388183272821
 30
0.0
 10
91.70366812710978
 20
166.9375232779194
 30
0.0
 10
91.67269046671233
 20
166.4968422423346
 30
0.0
 10
91.63107672908437
 20
165.6010026014035
 30
0.0
 10
91.62084081615156
 20
165.154344470201
 30
0.0
 10
91.62065241909544
 20
163.8190345130611
 30
0.0
 10
91.66079712173305
 20
162.9345391397536
 30
0.0
 10
91.82495087667263
 20
161.1772892517276
 30
0.0
 10
91.94650252708219
 20
160.3314983053144
 30
0.0
 10
92.10776096154719
 20
159.5189577393916
 30
0.0
  0
LINE
  5
82
330
1F
100
AcDbEntity
  8
0
  6
Continuous
 62
     7
370
    15
100
AcDbLine
 10
91.229081317
 20
171.1903102035
 30
0.0
 11
91.229081317
 21
158.2199539328
 31
0.0
  0
LINE
  5
83
330
1F
100
AcDbEntity
  8
0
  6
Continuous
 62
     7
370
    15
100
AcDbLine
 10
56.9290818415
 20
170.7594426619
 30
0.0
 11
56.9290818415
 21
158.6508214744
 31
0.0
  0
LINE
  5
84
330
1F
100
AcDbEntity
  8
0
  6
Continuous
 62
     7
370
    15
100
AcDbLine
 10
55.429082527
 20
170.3264298188
 30
0.0
 11
55.429082527
 21
159.0838343175
 31
0.0
  0
LINE
  5
85
330
1F
100
AcDbEntity
  8
0
  6
Continuous
 62
     7
370
    15
100
AcDbLine
 10
91.229081317
 20
142.6850323836
 30
0.0
 11
91.229081317
 21
158.2199539328
 31
0.0
  0
ARC
  5
86
330
1F
100
AcDbEntity
  8
0
  6
Continuous
 62
     7
370
    15
100
AcDbCircle
 10
91.429018216
 20
142.6800101725
 30
0.0
 40
0.1999999999999917
100
AcDbArc
 50
88.5608333333
 51
178.5608333333
  0
LINE
  5
87
330
1F
100
AcDbEntity
  8
0
  6
Continuous
 62
     7
370
    15
100
AcDbLine
 10
56.9290818415
 20
143.546768398
 30
0.0
 11
56.9290818415
 21
158.6508214744
 31
0.0
  0
LINE
  5
88
330
1F
100
AcDbEntity
  8
0
  6
Continuous
 62
     7
370
    15
100
AcDbLine
 10
56.9290818415
 20
143.546768398
 30
0.0
 11
91.229081317
 21
142.6850323836
 31
0.0
  0
LINE
  5
89
330
1F
100
AcDbEntity
  8
0
  6
Continuous
 62
     7
370
    15
100
AcDbLine
 10
91.229081317
 20
171.1903102035
 30
0.0
 11
91.229081317
 21
186.7252317527
 31
0.0
  0
ARC
  5
8A
330
1F
100
AcDbEntity
  8
0
  6
Continuous
 62
     7
370
    15
100
AcDbCircle
 10
91.429018216
 20
186.7302539638
 30
0.0
 40
0.1999999999999917
100
AcDbArc
 50
181.4391666667
 51
271.4391666667
  0
LINE
  5
8B
330
1F
100
AcDbEntity
  8
0
  6
Continuous
 62
     7
370
    15
100
AcDbLine
 10
56.9290818415
 20
170.7594426619
 30
0.0
 11
56.9290818415
 21
185.8634957383
 31
0.0
  0
LINE
  5
8C
330
1F
100
AcDbEntity
  8
0
  6
Continuous
 62
     7
370
    15
100
AcDbLine
 10
56.9290818415
 20
185.8634957383
 30
0.0
 11
91.229081317
 21
186.7252317527
 31
0.0
  0
LINE
  5
8D
330
1F
100
AcDbEntity
  8
0
  6
Continuous
 62
     7
370
    15
100
AcDbLine
 10
91.4340414341
 20
186.5303171138
 30
0.0
 11
92.6125690343
 21
186.559925721
 31
0.0
  0
LINE
  5
8E
330
1F
100
AcDbEntity
  8
0
  6
Continuous
 62
     7
370
    15
100
AcDbLine
 10
91.4340414341
 20
142.8799470226
 30
0.0
 11
92.6125690343
 21
142.8503384153
 31
0.0
  0
LINE
  5
8F
330
1F
100
AcDbEntity
  8
0
  6
Continuous
 62
     7
370
    15
100
AcDbLine
 10
55.429082527
 20
144.4127940843
 30
0.0
 11
56.9290818415
 21
143.546768398
 31
0.0
  0
LINE
  5
90
330
1F
100
AcDbEntity
  8
0
  6
Continuous
 62
     7
370
    15
100
AcDbLine
 10
55.429082527
 20
144.4127940843
 30
0.0
 11
55.429082527
 21
159.0838343175
 31
0.0
  0
LINE
  5
91
330
1F
100
AcDbEntity
  8
0
  6
Continuous
 62
     7
370
    15
100
AcDbLine
 10
55.429082527
 20
184.997470052
 30
0.0
 11
56.9290818415
 21
185.8634957383
 31
0.0
  0
LINE
  5
92
330
1F
100
AcDbEntity
  8
0
  6
Continuous
 62
     7
370
    15
100
AcDbLine
 10
55.429082527
 20
170.3264298188
 30
0.0
 11
55.429082527
 21
184.997470052
 31
0.0
  0
LINE
  5
93
330
1F
100
AcDbEntity
  8
0
  6
Continuous
 62
     7
370
    15
100
AcDbLine
 10
222.7310614429
 20
180.5324414084
 30
0.0
 11
227.0148621641
 21
180.5324414084
 31
0.0
  0
SPLINE
  5
94
330
1F
100
AcDbEntity
  8
0
  6
Continuous
 62
     7
370
    15
100
AcDbSpline
210
0.0
220
0.0
230
1.0
 70
     8
 71
     3
 72
    14
 73
    10
 74
     0
 42
0.00000001
 43
0.00000001
 12
1.0
 22
0.0
 32
0.0
 13
1.0
 23
0.0
 33
0.0
 40
0.0
 40
0.0
 40
0.0
 40
0.0
 40
0.2500000000000002
 40
0.2500000000000002
 40
0.5000000000000001
 40
0.5000000000000001
 40
0.7500000000000001
 40
0.7500000000000001
 40
1.0
 40
1.0
 40
1.0
 40
1.0
 10
219.8332847901765
 20
180.0476575314896
 30
0.0
 10
219.9173174498503
 20
180.1387895022111
 30
0.0
 10
220.0494156661183
 20
180.2144951209627
 30
0.0
 10
220.4126989394936
 20
180.3418342369981
 30
0.0
 10
220.6349878394817
 20
180.3902983300001
 30
0.0
 10
221.1576882523497
 20
180.465685485173
 30
0.0
 10
221.4472580914861
 20
180.4910775700233
 30
0.0
 10
222.0731742962296
 20
180.5247157137015
 30
0.0
 10
222.3989840022411
 20
180.5324419741444
 30
0.0
 10
222.7310622690438
 20
180.5324419741444
 30
0.0
  0
ELLIPSE
  5
95
330
1F
100
AcDbEntity
  8
0
  6
Continuous
 62
     7
370
    15
100
AcDbEllipse
 10
220.7599027451
 20
164.7051320682
 30
0.0
 11
0.3220561513869313
 21
15.99976859320063
 31
0.0
210
0.0
220
0.0
230
1.0
 40
0.2671959542
 41
0.2930472284706231
 42
2.998928329720231
  0
SPLINE
  5
96
330
1F
100
AcDbEntity
  8
0
  6
Continuous
 62
     7
370
    15
100
AcDbSpline
210
0.0
220
0.0
230
1.0
 70
     8
 71
     3
 72
    14
 73
    10
 74
     0
 42
0.00000001
 43
0.00000001
 12
1.0
 22
0.0
 32
0.0
 13
1.0
 23
0.0
 33
0.0
 40
0.0
 40
0.0
 40
0.0
 40
0.0
 40
0.25
 40
0.25
 40
0.5
 40
0.5
 40
0.75
 40
0.75
 40
1.0
 40
1.0
 40
1.0
 40
1.0
 10
222.7310622690438
 20
148.705573558722
 30
0.0
 10
222.3989866948236
 20
148.705573558722
 30
0.0
 10
222.0760656895647
 20
148.7057027288067
 30
0.0
 10
221.4484905660167
 20
148.7094660442954
 30
0.0
 10
221.1597924945425
 20
148.713074908571
 30
0.0
 10
220.636559017765
 20
148.7320458623637
 30
0.0
 10
220.4137196168571
 20
148.7471289992762
 30
0.0
 10
220.0507512952633
 20
148.7978751443235
 30
0.0
 10
219.9173198279449
 20
148.8327649061276
 30
0.0
 10
219.8332847901765
 20
148.880144982457
 30
0.0
  0
LINE
  5
97
330
1F
100
AcDbEntity
  8
0
  6
Continuous
 62
     7
370
    15
100
AcDbLine
 10
227.0148621641
 20
148.7055727551
 30
0.0
 11
222.7310614429
 21
148.7055727551
 31
0.0
  0
ELLIPSE
  5
98
330
1F
100
AcDbEntity
  8
0
  6
Continuous
 62
     7
370
    15
100
AcDbEllipse
 10
218.4037205301
 20
158.4624909015
 30
0.0
 11
-0.09033694274967276
 21
2.324516216905408
 31
0.0
210
0.0
220
0.0
230
1.0
 40
0.2588465783
 41
0.0
 42
6.283185307179586
  0
LINE
  5
99
330
1F
100
AcDbEntity
  8
0
  6
Continuous
 62
     7
370
    15
100
AcDbLine
 10
228.2499598108
 20
147.8843641738
 30
0.0
 11
227.7219818674
 21
148.4125358323
 31
0.0
  0
SPLINE
  5
9A
330
1F
100
AcDbEntity
  8
0
  6
Continuous
 62
     7
370
    15
100
AcDbSpline
210
0.0
220
0.0
230
1.0
 70
     8
 71
     3
 72
    10
 73
     6
 74
     0
 42
0.00000001
 43
0.00000001
 12
1.0
 22
0.0
 32
0.0
 13
1.0
 23
0.0
 33
0.0
 40
0.0
 40
0.0
 40
0.0
 40
0.0
 40
0.5
 40
0.5
 40
1.0
 40
1.0
 40
1.0
 40
1.0
 10
227.7219745239204
 20
148.4125357992774
 30
0.0
 10
227.6287295642547
 20
148.505821842797
 30
0.0
 10
227.5188335147005
 20
148.5791034439569
 30
0.0
 10
227.2768699252116
 20
148.6794723450364
 30
0.0
 10
227.1469368521035
 20
148.7055735587222
 30
0.0
 10
227.0148677427338
 20
148.7055735587222
 30
0.0
  0
SPLINE
  5
9B
330
1F
100
AcDbEntity
  8
0
  6
Continuous
 62
     7
370
    15
100
AcDbSpline
210
0.0
220
0.0
230
1.0
 70
     8
 71
     3
 72
    10
 73
     6
 74
     0
 42
0.00000001
 43
0.00000001
 12
1.0
 22
0.0
 32
0.0
 13
1.0
 23
0.0
 33
0.0
 40
0.0
 40
0.0
 40
0.0
 40
0.0
 40
0.5
 40
0.5
 40
1.0
 40
1.0
 40
1.0
 40
1.0
 10
227.0148677427338
 20
180.5324419741443
 30
0.0
 10
227.1469302334214
 20
180.5324419741443
 30
0.0
 10
227.2765286580325
 20
180.558452277384
 30
0.0
 10
227.5185158750375
 20
180.6587298159894
 30
0.0
 10
227.6287284064642
 20
180.732192531768
 30
0.0
 10
227.7219745239206
 20
180.8254797335887
 30
0.0
  0
LINE
  5
9C
330
1F
100
AcDbEntity
  8
0
  6
Continuous
 62
     7
370
    15
100
AcDbLine
 10
227.7219818674
 20
180.8254801938
 30
0.0
 11
227.9290782057
 21
181.0326696644
 31
0.0
  0
LINE
  5
9D
330
1F
100
AcDbEntity
  8
0
  6
Continuous
 62
     7
370
    15
100
AcDbLine
 10
227.9290782057
 20
181.0326696644
 30
0.0
 11
241.3622366033
 21
181.0326696644
 31
0.0
  0
LINE
  5
9E
330
1F
100
AcDbEntity
  8
0
  6
Continuous
 62
     7
370
    15
100
AcDbLine
 10
241.3622366033
 20
181.0326696644
 30
0.0
 11
250.0421480976
 21
153.5705578784
 31
0.0
  0
LINE
  5
9F
330
1F
100
AcDbEntity
  8
0
  6
Continuous
 62
     7
370
    15
100
AcDbLine
 10
242.6366882168
 20
155.9174050847
 30
0.0
 11
241.9333534084
 21
158.1426699916
 31
0.0
  0
ARC
  5
A0
330
1F
100
AcDbEntity
  8
0
  6
Continuous
 62
     7
370
    15
100
AcDbCircle
 10
240.4878290882
 20
157.6854561706
 30
0.0
 40
1.516108518050272
100
AcDbArc
 50
17.5519640437
 51
197.3680121906
  0
LINE
  5
A1
330
1F
100
AcDbEntity
  8
0
  6
Continuous
 62
     7
370
    15
100
AcDbLine
 10
239.0408443056
 20
157.2328856485
 30
0.0
 11
239.2709927402
 21
156.5046998942
 31
0.0
  0
LINE
  5
A2
330
1F
100
AcDbEntity
  8
0
  6
Continuous
 62
     7
370
    15
100
AcDbLine
 10
242.498420342
 20
146.1609685132
 30
0.0
 11
240.8111320577
 21
146.6916733692
 31
0.0
  0
ELLIPSE
  5
A3
330
1F
100
AcDbEntity
  8
0
  6
Continuous
 62
     7
370
    15
100
AcDbEllipse
 10
233.04583964
 20
121.7529197747
 30
0.0
 11
-1.136868377216160E-13
 21
26.13144513619379
 31
0.0
210
0.0
220
0.0
230
1.0
 40
0.9949698482
 41
5.979891802486658
 42
6.283185307179586
  0
LINE
  5
A4
330
1F
100
AcDbEntity
  8
0
  6
Continuous
 62
     7
370
    15
100
AcDbLine
 10
233.0458389364
 20
147.8843641738
 30
0.0
 11
228.2499598108
 21
147.8843641738
 31
0.0
  0
ELLIPSE
  5
A5
330
1F
100
AcDbEntity
  8
0
  6
Continuous
 62
     7
370
    15
100
AcDbEllipse
 10
246.3911315452
 20
164.7051320682
 30
0.0
 11
-5.390524936199143
 21
16.4918394437762
 31
0.0
210
0.0
220
0.0
230
1.0
 40
0.0962569477
 41
6.107023136584786
 42
6.251733123200069
  0
LINE
  5
A6
330
1F
100
AcDbEntity
  8
0
  6
Continuous
 62
     7
370
    15
100
AcDbLine
 10
227.9290782057
 20
181.2051319787
 30
0.0
 11
227.9290782057
 21
181.0326696644
 31
0.0
  0
ARC
  5
A7
330
1F
100
AcDbEntity
  8
0
  6
Continuous
 62
     7
370
    15
100
AcDbCircle
 10
240.4877015204
 20
157.8372333331
 30
0.0
 40
1.249725471957157
100
AcDbArc
 50
17.5520645264
 51
197.3678878677
  0
LINE
  5
A8
330
1F
100
AcDbEntity
  8
0
  6
Continuous
 62
     7
370
    15
100
AcDbLine
 10
241.6792439066
 20
158.2141159373
 30
0.0
 11
242.3795984827
 21
155.9982671673
 31
0.0
  0
LINE
  5
A9
330
1F
100
AcDbEntity
  8
0
  6
Continuous
 62
     7
370
    15
100
AcDbLine
 10
239.2949538074
 20
157.4641828695
 30
0.0
 11
239.5039723955
 21
156.8028581599
 31
0.0
  0
LINE
  5
AA
330
1F
100
AcDbEntity
  8
0
  6
Continuous
 62
     7
370
    15
100
AcDbLine
 10
239.2381952844
 20
157.8914666819
 30
0.0
 11
239.2949538074
 21
157.5688174265
 31
0.0
  0
LINE
  5
AB
330
1F
100
AcDbEntity
  8
0
  6
Continuous
 62
     7
370
    15
100
AcDbLine
 10
239.2949538074
 20
157.5688174265
 30
0.0
 11
239.5342366539
 21
156.8117560158
 31
0.0
  0
CIRCLE
  5
AC
330
1F
100
AcDbEntity
  8
0
  6
Continuous
 62
     7
370
    15
100
AcDbCircle
 10
246.2622674524
 20
149.8791909809
 30
0.0
 40
2.620503802784685
  0
CIRCLE
  5
AD
330
1F
100
AcDbEntity
  8
0
  6
Continuous
 62
     7
370
    15
100
AcDbCircle
 10
246.2608697133
 20
149.8598246903
 30
0.0
 40
1.79690256752191
  0
ARC
  5
AE
330
1F
100
AcDbEntity
  8
0
  6
Continuous
 62
     7
370
    15
100
AcDbCircle
 10
246.2584040748
 20
149.8537836209
 30
0.0
 40
1.676096452264529
100
AcDbArc
 50
32.9594635736
 51
91.4830978139
  0
ARC
  5
AF
330
1F
100
AcDbEntity
  8
0
  6
Continuous
 62
     7
370
    15
100
AcDbCircle
 10
246.2568911989
 20
149.8543928727
 30
0.0
 40
1.675448916588715
100
AcDbArc
 50
91.4319181568
 51
151.4772971399
  0
ARC
  5
B0
330
1F
100
AcDbEntity
  8
0
  6
Continuous
 62
     7
370
    15
100
AcDbCircle
 10
246.250258396
 20
149.8589460187
 30
0.0
 40
1.667447199844498
100
AcDbArc
 50
151.5059308878
 51
210.2398594065
  0
LINE
  5
B1
330
1F
100
AcDbEntity
  8
0
  6
Continuous
 62
     7
370
    15
100
AcDbLine
 10
244.8542492233
 20
148.9470125446
 30
0.0
 11
244.8097096525
 21
149.0191844562
 31
0.0
  0
ARC
  5
B2
330
1F
100
AcDbEntity
  8
0
  6
Continuous
 62
     7
370
    15
100
AcDbCircle
 10
246.2571114727
 20
149.8640096566
 30
0.0
 40
1.675979174777176
100
AcDbArc
 50
213.1711016263
 51
269.5448345187
  0
LINE
  5
B3
330
1F
100
AcDbEntity
  8
0
  6
Continuous
 62
     7
370
    15
100
AcDbLine
 10
246.3635580383
 20
148.1913578967
 30
0.0
 11
246.2437974058
 21
148.1880833665
 31
0.0
  0
ARC
  5
B4
330
1F
100
AcDbEntity
  8
0
  6
Continuous
 62
     7
370
    15
100
AcDbCircle
 10
246.2587235128
 20
149.8635978899
 30
0.0
 40
1.675522865410647
100
AcDbArc
 50
273.5872395283
 51
329.3224058267
  0
LINE
  5
B5
330
1F
100
AcDbEntity
  8
0
  6
Continuous
 62
     7
370
    15
100
AcDbLine
 10
247.7569954239
 20
149.113732324
 30
0.0
 11
247.6997600637
 21
149.0087350169
 31
0.0
  0
ARC
  5
B6
330
1F
100
AcDbEntity
  8
0
  6
Continuous
 62
     7
370
    15
100
AcDbCircle
 10
246.2653684667
 20
149.8589449041
 30
0.0
 40
1.667420993329946
100
AcDbArc
 50
333.4534169782
 51
30.0263602651
  0
LINE
  5
B7
330
1F
100
AcDbEntity
  8
0
  6
Continuous
 62
     7
370
    15
100
AcDbLine
 10
247.6647423349
 20
150.7656564275
 30
0.0
 11
247.7090136848
 21
150.6933196718
 31
0.0
  0
SPLINE
  5
B8
330
1F
100
AcDbEntity
  8
0
  6
Continuous
 62
     7
370
    15
100
AcDbSpline
210
0.0
220
0.0
230
1.0
 70
     8
 71
     3
 72
    12
 73
     8
 74
     0
 42
0.00000001
 43
0.00000001
 12
1.0
 22
0.0
 32
0.0
 13
1.0
 23
0.0
 33
0.0
 40
0.0
 40
0.0
 40
0.0
 40
0.0
 40
0.205854284597593
 40
0.4120935111710535
 40
0.6141865935280607
 40
0.813314181981454
 40
1.0
 40
1.0
 40
1.0
 40
1.0
 10
247.2982333741986
 20
150.8767622793271
 30
0.0
 10
247.234274389214
 20
150.8630211705335
 30
0.0
 10
247.1062368176629
 20
150.8355132574422
 30
0.0
 10
246.9087911285701
 20
150.8762975470728
 30
0.0
 10
246.7383150537582
 20
150.9733543516891
 30
0.0
 10
246.6091565761411
 20
151.1141544832607
 30
0.0
 10
246.567614219433
 20
151.2280125783854
 30
0.0
 10
246.5475128732527
 20
151.2831057692125
 30
0.0
  0
SPLINE
  5
B9
330
1F
100
AcDbEntity
  8
0
  6
Continuous
 62
     7
370
    15
100
AcDbSpline
210
0.0
220
0.0
230
1.0
 70
     8
 71
     3
 72
    11
 73
     7
 74
     0
 42
0.00000001
 43
0.00000001
 12
1.0
 22
0.0
 32
0.0
 13
1.0
 23
0.0
 33
0.0
 40
0.0
 40
0.0
 40
0.0
 40
0.0
 40
0.2524712990951497
 40
0.5068862940702468
 40
0.7591985229283628
 40
1.0
 40
1.0
 40
1.0
 40
1.0
 10
246.5475128732526
 20
151.2831057692125
 30
0.0
 10
246.5344216757918
 20
151.3179888813985
 30
0.0
 10
246.5081384959231
 20
151.388023659708
 30
0.0
 10
246.4265444785694
 20
151.4689986887436
 30
0.0
 10
246.3255562744531
 20
151.5218493585861
 30
0.0
 10
246.251289732618
 20
151.5268678933703
 30
0.0
 10
246.2150232635343
 20
151.529318586941
 30
0.0
  0
SPLINE
  5
BA
330
1F
100
AcDbEntity
  8
0
  6
Continuous
 62
     7
370
    15
100
AcDbSpline
210
0.0
220
0.0
230
1.0
 70
     8
 71
     3
 72
    11
 73
     7
 74
     0
 42
0.00000001
 43
0.00000001
 12
1.0
 22
0.0
 32
0.0
 13
1.0
 23
0.0
 33
0.0
 40
0.0
 40
0.0
 40
0.0
 40
0.0
 40
0.2423609809613675
 40
0.5166935444004247
 40
0.7923069311219371
 40
1.0
 40
1.0
 40
1.0
 40
1.0
 10
247.6647423349225
 20
150.7656564274981
 30
0.0
 10
247.6418608303055
 20
150.789666416147
 30
0.0
 10
247.5930793570052
 20
150.8408537239671
 30
0.0
 10
247.4924855260011
 20
150.8855371089747
 30
0.0
 10
247.388707122561
 20
150.8983990128744
 30
0.0
 10
247.3254269825654
 20
150.8832656117199
 30
0.0
 10
247.2982333741986
 20
150.8767622793271
 30
0.0
  0
SPLINE
  5
BB
330
1F
100
AcDbEntity
  8
0
  6
Continuous
 62
     7
370
    15
100
AcDbSpline
210
0.0
220
0.0
230
1.0
 70
     8
 71
     3
 72
    12
 73
     8
 74
     0
 42
0.00000001
 43
0.00000001
 12
1.0
 22
0.0
 32
0.0
 13
1.0
 23
0.0
 33
0.0
 40
0.0
 40
0.0
 40
0.0
 40
0.0
 40
0.2058473326703367
 40
0.4120752501739052
 40
0.6141344646791924
 40
0.8132580860771308
 40
1.0
 40
1.0
 40
1.0
 40
1.0
 10
245.8955721698606
 20
151.2658884087755
 30
0.0
 10
245.8761104904589
 20
151.2041048467103
 30
0.0
 10
245.8371511495522
 20
151.0804234928429
 30
0.0
 10
245.7039894676606
 20
150.9307915972677
 30
0.0
 10
245.5344496967604
 20
150.8319891987473
 30
0.0
 10
245.3466330152464
 20
150.7902156976076
 30
0.0
 10
245.2258906931849
 20
150.8106179690992
 30
0.0
 10
245.1674567304456
 20
150.8204917693689
 30
0.0
  0
SPLINE
  5
BC
330
1F
100
AcDbEntity
  8
0
  6
Continuous
 62
     7
370
    15
100
AcDbSpline
210
0.0
220
0.0
230
1.0
 70
     8
 71
     3
 72
    11
 73
     7
 74
     0
 42
0.00000001
 43
0.00000001
 12
1.0
 22
0.0
 32
0.0
 13
1.0
 23
0.0
 33
0.0
 40
0.0
 40
0.0
 40
0.0
 40
0.0
 40
0.2535211441791959
 40
0.5075582424818187
 40
0.7594940669921847
 40
1.0
 40
1.0
 40
1.0
 40
1.0
 10
245.1674567304456
 20
150.8204917693689
 30
0.0
 10
245.1300690520595
 20
150.8264354956649
 30
0.0
 10
245.05521760567
 20
150.8383350446448
 30
0.0
 10
244.9432242381567
 20
150.8076339788808
 30
0.0
 10
244.8464742701681
 20
150.7463582742183
 30
0.0
 10
244.8050340795105
 20
150.6845958201653
 30
0.0
 10
244.7847949109876
 20
150.6544313663795
 30
0.0
  0
SPLINE
  5
BD
330
1F
100
AcDbEntity
  8
0
  6
Continuous
 62
     7
370
    15
100
AcDbSpline
210
0.0
220
0.0
230
1.0
 70
     8
 71
     3
 72
    12
 73
     8
 74
     0
 42
0.00000001
 43
0.00000001
 12
1.0
 22
0.0
 32
0.0
 13
1.0
 23
0.0
 33
0.0
 40
0.0
 40
0.0
 40
0.0
 40
0.0
 40
0.0091930399161471
 40
0.2573453591800307
 40
0.5055007574786207
 40
0.7549933144937174
 40
1.0
 40
1.0
 40
1.0
 40
1.0
 10
246.2150232635343
 20
151.529318586941
 30
0.0
 10
246.2136474371427
 20
151.5292783428197
 30
0.0
 10
246.1751332416042
 20
151.5281517690267
 30
0.0
 10
246.0992609048369
 20
151.5125139925295
 30
0.0
 10
246.0025164914215
 20
151.4548616080156
 30
0.0
 10
245.9281304421104
 20
151.3700119138416
 30
0.0
 10
245.9063590940317
 20
151.3003857047304
 30
0.0
 10
245.8955721698606
 20
151.2658884087755
 30
0.0
  0
SPLINE
  5
BE
330
1F
100
AcDbEntity
  8
0
  6
Continuous
 62
     7
370
    15
100
AcDbSpline
210
0.0
220
0.0
230
1.0
 70
     8
 71
     3
 72
    11
 73
     7
 74
     0
 42
0.00000001
 43
0.00000001
 12
1.0
 22
0.0
 32
0.0
 13
1.0
 23
0.0
 33
0.0
 40
0.0
 40
0.0
 40
0.0
 40
0.0
 40
0.2657566450797305
 40
0.5529983660026498
 40
0.8418177541445594
 40
1.0
 40
1.0
 40
1.0
 40
1.0
 10
247.7569954238736
 20
149.1137323239996
 30
0.0
 10
247.764856052473
 20
149.1476196883584
 30
0.0
 10
247.7812128015954
 20
149.2181340384811
 30
0.0
 10
247.7614667171758
 20
149.3284302184925
 30
0.0
 10
247.7170075128692
 20
149.4147816220103
 30
0.0
 10
247.6762130888897
 20
149.4558542788081
 30
0.0
 10
247.6617770038449
 20
149.4703888232066
 30
0.0
  0
SPLINE
  5
BF
330
1F
100
AcDbEntity
  8
0
  6
Continuous
 62
     7
370
    15
100
AcDbSpline
210
0.0
220
0.0
230
1.0
 70
     8
 71
     3
 72
    12
 73
     8
 74
     0
 42
0.00000001
 43
0.00000001
 12
1.0
 22
0.0
 32
0.0
 13
1.0
 23
0.0
 33
0.0
 40
0.0
 40
0.0
 40
0.0
 40
0.0
 40
0.2057853273454296
 40
0.4120300397912032
 40
0.6141269918587493
 40
0.8132577002983059
 40
0.9999999999999999
 40
0.9999999999999999
 40
0.9999999999999999
 40
0.9999999999999999
 10
247.6617770038449
 20
149.4703888232066
 30
0.0
 10
247.6172922582024
 20
149.5190982919596
 30
0.0
 10
247.5282234613468
 20
149.6166259661012
 30
0.0
 10
247.4639345651808
 20
149.8081166235921
 30
0.0
 10
247.4630054562367
 20
150.0038858518735
 30
0.0
 10
247.5216346758424
 20
150.1853253536528
 30
0.0
 10
247.6008404846304
 20
150.2775143250061
 30
0.0
 10
247.6391719423139
 20
150.3221289524986
 30
0.0
  0
SPLINE
  5
C0
330
1F
100
AcDbEntity
  8
0
  6
Continuous
 62
     7
370
    15
100
AcDbSpline
210
0.0
220
0.0
230
1.0
 70
     8
 71
     3
 72
    11
 73
     7
 74
     0
 42
0.00000001
 43
0.00000001
 12
1.0
 22
0.0
 32
0.0
 13
1.0
 23
0.0
 33
0.0
 40
0.0
 40
0.0
 40
0.0
 40
0.0
 40
0.2802371905445311
 40
0.56128263534702
 40
0.8399830854539275
 40
1.0
 40
1.0
 40
1.0
 40
1.0
 10
247.6391719423139
 20
150.3221289524986
 30
0.0
 10
247.6633482408222
 20
150.3508265186221
 30
0.0
 10
247.7117705666146
 20
150.4083044197904
 30
0.0
 10
247.7419826088024
 20
150.5191677145976
 30
0.0
 10
247.7379115985577
 20
150.6176836395329
 30
0.0
 10
247.7167369022103
 20
150.6731052880072
 30
0.0
 10
247.7090136848294
 20
150.6933196718051
 30
0.0
  0
LWPOLYLINE
  5
C1
330
1F
100
AcDbEntity
  8
0
  6
Continuous
 62
     7
370
    15
100
AcDbPolyline
 90
        3
 70
   128
 43
0.0
 10
247.7340476356
 20
150.6013981337
 10
247.7042453132
 20
150.5076288516
 10
247.6391719423
 20
150.4170996407
  0
SPLINE
  5
C2
330
1F
100
AcDbEntity
  8
0
  6
Continuous
 62
     7
370
    15
100
AcDbSpline
210
0.0
220
0.0
230
1.0
 70
     8
 71
     3
 72
    12
 73
     8
 74
     0
 42
0.00000001
 43
0.00000001
 12
1.0
 22
0.0
 32
0.0
 13
1.0
 23
0.0
 33
0.0
 40
0.0
 40
0.0
 40
0.0
 40
0.0
 40
0.0091742877152633
 40
0.2576735641747285
 40
0.5061879042802915
 40
0.756031676249445
 40
1.0
 40
1.0
 40
1.0
 40
1.0
 10
244.7847949109876
 20
150.6544313663795
 30
0.0
 10
244.7841466838153
 20
150.6532255264402
 30
0.0
 10
244.7659402561277
 20
150.6193577118904
 30
0.0
 10
244.7418443869481
 20
150.5460172327237
 30
0.0
 10
244.7442093006569
 20
150.4338959572938
 30
0.0
 10
244.7815438783696
 20
150.3279041433696
 30
0.0
 10
244.8316632639366
 20
150.2748510705821
 30
0.0
 10
244.8564247928464
 20
150.2486401507809
 30
0.0
  0
SPLINE
  5
C3
330
1F
100
AcDbEntity
  8
0
  6
Continuous
 62
     7
370
    15
100
AcDbSpline
210
0.0
220
0.0
230
1.0
 70
     8
 71
     3
 72
    12
 73
     8
 74
     0
 42
0.00000001
 43
0.00000001
 12
1.0
 22
0.0
 32
0.0
 13
1.0
 23
0.0
 33
0.0
 40
0.0
 40
0.0
 40
0.0
 40
0.0
 40
0.2057564240844613
 40
0.4119615805425473
 40
0.6140163896393646
 40
0.8131412273861798
 40
0.9999999999999999
 40
0.9999999999999999
 40
0.9999999999999999
 40
0.9999999999999999
 10
244.8564247928464
 20
150.2486401507809
 30
0.0
 10
244.9009099335566
 20
150.2013006333831
 30
0.0
 10
244.9899772322285
 20
150.1065183562507
 30
0.0
 10
245.0542594365477
 20
149.9172442877902
 30
0.0
 10
245.0552254321274
 20
149.721342379418
 30
0.0
 10
244.9966109125289
 20
149.5375697280157
 30
0.0
 10
244.9173943407807
 20
149.4427858872816
 30
0.0
 10
244.8790447555387
 20
149.3969000214889
 30
0.0
  0
SPLINE
  5
C4
330
1F
100
AcDbEntity
  8
0
  6
Continuous
 62
     7
370
    15
100
AcDbSpline
210
0.0
220
0.0
230
1.0
 70
     8
 71
     3
 72
    11
 73
     7
 74
     0
 42
0.00000001
 43
0.00000001
 12
1.0
 22
0.0
 32
0.0
 13
1.0
 23
0.0
 33
0.0
 40
0.0
 40
0.0
 40
0.0
 40
0.0
 40
0.2794070707354669
 40
0.5596236706866027
 40
0.8375026898305479
 40
1.0
 40
1.0
 40
1.0
 40
1.0
 10
244.8790447555387
 20
149.3969000214889
 30
0.0
 10
244.8548687024739
 20
149.3674031703704
 30
0.0
 10
244.8064465507968
 20
149.3083240065786
 30
0.0
 10
244.7762308191678
 20
149.1957216766467
 30
0.0
 10
244.780332043924
 20
149.0958140683894
 30
0.0
 10
244.8017912728288
 20
149.0398390429251
 30
0.0
 10
244.8097096525037
 20
149.0191844562247
 30
0.0
  0
ARC
  5
C5
330
1F
100
AcDbEntity
  8
0
  6
Continuous
 62
     7
370
    15
100
AcDbCircle
 10
245.0786086755
 20
150.5932901033
 30
0.0
 40
0.3342451653512635
100
AcDbArc
 50
186.917978404
 51
228.3381339341
  0
ARC
  5
C6
330
1F
100
AcDbEntity
  8
0
  6
Continuous
 62
     7
370
    15
100
AcDbCircle
 10
248.0498787654
 20
150.0016979604
 30
0.0
 40
0.5841563579496651
100
AcDbArc
 50
134.6743858614
 51
179.9855527702
  0
ARC
  5
C7
330
1F
100
AcDbEntity
  8
0
  6
Continuous
 62
     7
370
    15
100
AcDbCircle
 10
244.4682369277
 20
149.9069278034
 30
0.0
 40
0.5842573731556765
100
AcDbArc
 50
0.0180688629
 51
48.3627350628
  0
ARC
  5
C8
330
1F
100
AcDbEntity
  8
0
  6
Continuous
 62
     7
370
    15
100
AcDbCircle
 10
247.4390330226
 20
149.3165330226
 30
0.0
 40
0.3348476174150641
100
AcDbArc
 50
254.7149375466
 51
352.5018935931
  0
SPLINE
  5
C9
330
1F
100
AcDbEntity
  8
0
  6
Continuous
 62
     7
370
    15
100
AcDbSpline
210
0.0
220
0.0
230
1.0
 70
     8
 71
     3
 72
    11
 73
     7
 74
     0
 42
0.00000001
 43
0.00000001
 12
1.0
 22
0.0
 32
0.0
 13
1.0
 23
0.0
 33
0.0
 40
0.0
 40
0.0
 40
0.0
 40
0.0
 40
0.2928844528943992
 40
0.5864372976163855
 40
0.8775230592235638
 40
1.0
 40
1.0
 40
1.0
 40
1.0
 10
247.350759967407
 20
148.8985372046187
 30
0.0
 10
247.3881290293394
 20
148.8918029071682
 30
0.0
 10
247.4629524331684
 20
148.8783189439219
 30
0.0
 10
247.5751490900812
 20
148.9072007684506
 30
0.0
 10
247.6538580664139
 20
148.9567649408625
 30
0.0
 10
247.6892721524732
 20
148.9968606415796
 30
0.0
 10
247.6997600637281
 20
149.0087350169375
 30
0.0
  0
ARC
  5
CA
330
1F
100
AcDbEntity
  8
0
  6
Continuous
 62
     7
370
    15
100
AcDbCircle
 10
245.1147764688
 20
149.2551985843
 30
0.0
 40
0.3349099471766361
100
AcDbArc
 50
186.5507713353
 51
288.3059026054
  0
SPLINE
  5
CB
330
1F
100
AcDbEntity
  8
0
  6
Continuous
 62
     7
370
    15
100
AcDbSpline
210
0.0
220
0.0
230
1.0
 70
     8
 71
     3
 72
    11
 73
     7
 74
     0
 42
0.00000001
 43
0.00000001
 12
1.0
 22
0.0
 32
0.0
 13
1.0
 23
0.0
 33
0.0
 40
0.0
 40
0.0
 40
0.0
 40
0.0
 40
0.243119258844705
 40
0.5182840783624008
 40
0.7948012602329981
 40
1.0
 40
1.0
 40
1.0
 40
1.0
 10
244.8542492233121
 20
148.9470125446274
 30
0.0
 10
244.8772214871929
 20
148.9232269937698
 30
0.0
 10
244.9261939901114
 20
148.8725207175036
 30
0.0
 10
245.0269530621752
 20
148.829464431767
 30
0.0
 10
245.1303457250733
 20
148.818763444073
 30
0.0
 10
245.1931958616518
 20
148.8352456807384
 30
0.0
 10
245.2199684224928
 20
148.8422666946604
 30
0.0
  0
SPLINE
  5
CC
330
1F
100
AcDbEntity
  8
0
  6
Continuous
 62
     7
370
    15
100
AcDbSpline
210
0.0
220
0.0
230
1.0
 70
     8
 71
     3
 72
    11
 73
     7
 74
     0
 42
0.00000001
 43
0.00000001
 12
1.0
 22
0.0
 32
0.0
 13
1.0
 23
0.0
 33
0.0
 40
0.0
 40
0.0
 40
0.0
 40
0.0
 40
0.2669015267582331
 40
0.554611878973775
 40
0.8439138511906802
 40
1.0
 40
1.0
 40
1.0
 40
1.0
 10
246.3635580383146
 20
148.191357896681
 30
0.0
 10
246.3968973410238
 20
148.2016522383121
 30
0.0
 10
246.4661752261816
 20
148.2230435140539
 30
0.0
 10
246.5513155181675
 20
148.2959031139656
 30
0.0
 10
246.6029330517845
 20
148.3777800920886
 30
0.0
 10
246.6175292827307
 20
148.4335833847768
 30
0.0
 10
246.622644527992
 20
148.4531396338894
 30
0.0
  0
SPLINE
  5
CD
330
1F
100
AcDbEntity
  8
0
  6
Continuous
 62
     7
370
    15
100
AcDbSpline
210
0.0
220
0.0
230
1.0
 70
     8
 71
     3
 72
    12
 73
     8
 74
     0
 42
0.00000001
 43
0.00000001
 12
1.0
 22
0.0
 32
0.0
 13
1.0
 23
0.0
 33
0.0
 40
0.0
 40
0.0
 40
0.0
 40
0.0
 40
0.205838725564161
 40
0.4120627506343612
 40
0.6141380571595001
 40
0.8132758809721466
 40
1.0
 40
1.0
 40
1.0
 40
1.0
 10
246.622644527992
 20
148.4531396338894
 30
0.0
 10
246.6421001335167
 20
148.5162859430739
 30
0.0
 10
246.6810477625685
 20
148.6426967619498
 30
0.0
 10
246.814218364203
 20
148.7945171387165
 30
0.0
 10
246.9837658690733
 20
148.8931570350849
 30
0.0
 10
247.1715883925037
 20
148.9326180853236
 30
0.0
 10
247.2923309264179
 20
148.9096512062494
 30
0.0
 10
247.350759967407
 20
148.8985372046187
 30
0.0
  0
SPLINE
  5
CE
330
1F
100
AcDbEntity
  8
0
  6
Continuous
 62
     7
370
    15
100
AcDbSpline
210
0.0
220
0.0
230
1.0
 70
     8
 71
     3
 72
    12
 73
     8
 74
     0
 42
0.00000001
 43
0.00000001
 12
1.0
 22
0.0
 32
0.0
 13
1.0
 23
0.0
 33
0.0
 40
0.0
 40
0.0
 40
0.0
 40
0.0
 40
0.2058274437681816
 40
0.4120226832553708
 40
0.6140813721818043
 40
0.8132118842637731
 40
1.0
 40
1.0
 40
1.0
 40
1.0
 10
245.2199684224927
 20
148.8422666946604
 30
0.0
 10
245.2839224341293
 20
148.8573690183991
 30
0.0
 10
245.4119447376522
 20
148.8876006524138
 30
0.0
 10
245.6093673444434
 20
148.8490260514899
 30
0.0
 10
245.7798365670494
 20
148.7518467909925
 30
0.0
 10
245.9090207144586
 20
148.6087347270703
 30
0.0
 10
245.950575857396
 20
148.4922856258402
 30
0.0
 10
245.9706889234388
 20
148.4359232047751
 30
0.0
  0
SPLINE
  5
CF
330
1F
100
AcDbEntity
  8
0
  6
Continuous
 62
     7
370
    15
100
AcDbSpline
210
0.0
220
0.0
230
1.0
 70
     8
 71
     3
 72
    11
 73
     7
 74
     0
 42
0.00000001
 43
0.00000001
 12
1.0
 22
0.0
 32
0.0
 13
1.0
 23
0.0
 33
0.0
 40
0.0
 40
0.0
 40
0.0
 40
0.0
 40
0.2908572063381553
 40
0.5839575325901075
 40
0.8746003944730031
 40
0.9999999999999999
 40
0.9999999999999999
 40
0.9999999999999999
 40
0.9999999999999999
 10
245.9706889234388
 20
148.4359232047751
 30
0.0
 10
245.9837830230549
 20
148.4002594823338
 30
0.0
 10
246.0100722052952
 20
148.328656995251
 30
0.0
 10
246.0917100936775
 20
148.2457451221158
 30
0.0
 10
246.1747783041477
 20
148.2019367412339
 30
0.0
 10
246.2278123751683
 20
148.1912918495812
 30
0.0
 10
246.2437974057996
 20
148.1880833665087
 30
0.0
  0
ARC
  5
D0
330
1F
100
AcDbEntity
  8
0
  6
Continuous
 62
     7
370
    15
100
AcDbCircle
 10
246.2946211305
 20
148.6169428439
 30
0.0
 40
0.3351625463604979
100
AcDbArc
 50
194.8739566558
 51
348.1530370751
  0
ARC
  5
D1
330
1F
100
AcDbEntity
  8
0
  6
Continuous
 62
     7
370
    15
100
AcDbCircle
 10
247.1964675966
 20
148.4279162232
 30
0.0
 40
0.586280953879918
100
AcDbArc
 50
74.7416755127
 51
168.1674338253
  0
ARC
  5
D2
330
1F
100
AcDbEntity
  8
0
  6
Continuous
 62
     7
370
    15
100
AcDbCircle
 10
245.4039113872
 20
148.3804162584
 30
0.0
 40
0.586416898604004
100
AcDbArc
 50
14.8702289099
 51
108.2807037454
  0
ARC
  5
D3
330
1F
100
AcDbEntity
  8
0
  6
Continuous
 62
     7
370
    15
100
AcDbCircle
 10
246.2577970467
 20
149.9239168682
 30
0.0
 40
2.625000366175367
100
AcDbArc
 50
0.1044240757
 51
179.8955759243
  0
LINE
  5
D4
330
1F
100
AcDbEntity
  8
0
  6
Continuous
 62
     7
370
    15
100
AcDbLine
 10
239.3054889284
 20
156.3188013891
 30
0.0
 11
242.5083892189
 21
146.1852611313
 31
0.0
  0
LINE
  5
D5
330
1F
100
AcDbEntity
  8
0
  6
Continuous
 62
     7
370
    15
100
AcDbLine
 10
241.0873846851
 20
155.0693976963
 30
0.0
 11
239.6679000698
 21
156.4480950395
 31
0.0
  0
LINE
  5
D6
330
1F
100
AcDbEntity
  8
0
  6
Continuous
 62
     7
370
    15
100
AcDbLine
 10
243.0465595566
 20
146.4987666616
 30
0.0
 11
242.8708003603
 21
146.3145547817
 31
0.0
  0
SPLINE
  5
D7
330
1F
100
AcDbEntity
  8
0
  6
Continuous
 62
     7
370
    15
100
AcDbSpline
210
0.0
220
0.0
230
1.0
 70
     8
 71
     3
 72
    10
 73
     6
 74
     0
 42
0.00000001
 43
0.00000001
 12
1.0
 22
0.0
 32
0.0
 13
1.0
 23
0.0
 33
0.0
 40
0.0
 40
0.0
 40
0.0
 40
0.0
 40
0.3518094875753714
 40
0.7034338029853894
 40
1.0
 40
1.0
 40
1.0
 40
1.0
 10
242.4897776685559
 20
146.1777807483627
 30
0.0
 10
242.5074477460766
 20
146.1367061854563
 30
0.0
 10
242.5427786006112
 20
146.0545786789177
 30
0.0
 10
242.6381055754361
 20
145.964738664085
 30
0.0
 10
242.7142086700475
 20
145.9334674286371
 30
0.0
 10
242.7490280710065
 20
145.9191599199726
 30
0.0
  0
LINE
  5
D8
330
1F
100
AcDbEntity
  8
0
  6
Continuous
 62
     7
370
    15
100
AcDbLine
 10
239.2838077389
 20
156.3210710222
 30
0.0
 11
242.4897776686
 21
146.1777807484
 31
0.0
  0
LINE
  5
D9
330
1F
100
AcDbEntity
  8
0
  6
Continuous
 62
     7
370
    15
100
AcDbLine
 10
249.9479578577
 20
153.6177889714
 30
0.0
 11
239.7798971973
 21
156.8159562806
 31
0.0
  0
SPLINE
  5
DA
330
1F
100
AcDbEntity
  8
0
  6
Continuous
 62
     7
370
    15
100
AcDbSpline
210
0.0
220
0.0
230
1.0
 70
     8
 71
     3
 72
    10
 73
     6
 74
     0
 42
0.00000001
 43
0.00000001
 12
1.0
 22
0.0
 32
0.0
 13
1.0
 23
0.0
 33
0.0
 40
0.0
 40
0.0
 40
0.0
 40
0.0
 40
0.3518058475263222
 40
0.7034342572867441
 40
1.0
 40
1.0
 40
1.0
 40
1.0
 10
250.2072082601392
 20
153.359169074352
 30
0.0
 10
250.1895379369181
 20
153.4002428075175
 30
0.0
 10
250.1542062027287
 20
153.4823695577873
 30
0.0
 10
250.0588812367325
 20
153.5722114089809
 30
0.0
 10
249.982777365225
 20
153.6034819038519
 30
0.0
 10
249.9479578576886
 20
153.6177889714195
 30
0.0
  0
LINE
  5
DB
330
1F
100
AcDbEntity
  8
0
  6
Continuous
 62
     7
370
    15
100
AcDbLine
 10
253.4131781898
 20
143.2158788005
 30
0.0
 11
250.2072082601
 21
153.3591690744
 31
0.0
  0
SPLINE
  5
DC
330
1F
100
AcDbEntity
  8
0
  6
Continuous
 62
     7
370
    15
100
AcDbSpline
210
0.0
220
0.0
230
1.0
 70
     8
 71
     3
 72
    14
 73
    10
 74
     0
 42
0.00000001
 43
0.00000001
 12
1.0
 22
0.0
 32
0.0
 13
1.0
 23
0.0
 33
0.0
 40
0.0
 40
0.0
 40
0.0
 40
0.0
 40
0.158840526565165
 40
0.3173276004680039
 40
0.4720103861421687
 40
0.6236429579456864
 40
0.7746583788850078
 40
0.9277383410952367
 40
1.0
 40
1.0
 40
1.0
 40
1.0
 10
252.9170887313688
 20
142.7209926108076
 30
0.0
 10
252.9621823572522
 20
142.7114847981219
 30
0.0
 10
253.0522692664777
 20
142.6924903295787
 30
0.0
 10
253.1886096229984
 20
142.7229138287481
 30
0.0
 10
253.3045434960049
 20
142.793306869857
 30
0.0
 10
253.3887147398244
 20
142.8976466596829
 30
0.0
 10
253.432910970567
 20
143.0228614109357
 30
0.0
 10
253.4351748150289
 20
143.1332973837767
 30
0.0
 10
253.4185192352245
 20
143.1958270384186
 30
0.0
 10
253.4131781898343
 20
143.2158788005068
 30
0.0
  0
LINE
  5
DD
330
1F
100
AcDbEntity
  8
0
  6
Continuous
 62
     7
370
    15
100
AcDbLine
 10
242.749028071
 20
145.91915992
 30
0.0
 11
252.9170887314
 21
142.7209926108
 31
0.0
  0
ARC
  5
DE
330
1F
100
AcDbEntity
  8
0
  6
Continuous
 62
     7
370
    15
100
AcDbCircle
 10
239.6675930276
 20
156.4324932434
 30
0.0
 40
0.3795328923305365
100
AcDbArc
 50
72.4301165997
 51
197.4310163989
  0
ARC
  5
DF
330
1F
100
AcDbEntity
  8
0
  6
Continuous
 62
     7
370
    15
100
AcDbCircle
 10
242.8701777908
 20
146.299783275
 30
0.0
 40
0.3794816097921126
100
AcDbArc
 50
197.5648912524
 51
252.5724740391
  0
LINE
  5
E0
330
1F
100
AcDbEntity
  8
0
  6
Continuous
 62
     7
370
    15
100
AcDbLine
 10
242.7565233551
 20
145.9377211789
 30
0.0
 11
252.9148088537
 21
142.7426272342
 31
0.0
  0
ARC
  5
E1
330
1F
100
AcDbEntity
  8
0
  6
Continuous
 62
     7
370
    15
100
AcDbCircle
 10
253.0293782382
 20
143.1044660479
 30
0.0
 40
0.379543766856336
100
AcDbArc
 50
252.4305986832
 51
17.4288554554
  0
LINE
  5
E2
330
1F
100
AcDbEntity
  8
0
  6
Continuous
 62
     7
370
    15
100
AcDbLine
 10
253.3914970003
 20
143.2181475023
 30
0.0
 11
250.1885967098
 21
153.3516877601
 31
0.0
  0
ARC
  5
E3
330
1F
100
AcDbEntity
  8
0
  6
Continuous
 62
     7
370
    15
100
AcDbCircle
 10
249.8267510306
 20
153.2371015274
 30
0.0
 40
0.3795553982096412
100
AcDbArc
 50
17.5715131582
 51
72.5692927945
  0
LINE
  5
E4
330
1F
100
AcDbEntity
  8
0
  6
Continuous
 62
     7
370
    15
100
AcDbLine
 10
249.9404476724
 20
153.5992277125
 30
0.0
 11
239.7821621738
 21
156.7943207259
 31
0.0
  0
SPLINE
  5
E5
330
1F
100
AcDbEntity
  8
0
  6
Continuous
 62
     7
370
    15
100
AcDbSpline
210
0.0
220
0.0
230
1.0
 70
     8
 71
     3
 72
    14
 73
    10
 74
     0
 42
0.00000001
 43
0.00000001
 12
1.0
 22
0.0
 32
0.0
 13
1.0
 23
0.0
 33
0.0
 40
0.0
 40
0.0
 40
0.0
 40
0.0
 40
0.1588569547847609
 40
0.3173261263181643
 40
0.4720231099653564
 40
0.6236443182619626
 40
0.7746612493448466
 40
0.927740688023496
 40
0.9999999999999999
 40
0.9999999999999999
 40
0.9999999999999999
 40
0.9999999999999999
 10
239.7798971973264
 20
156.8159562805845
 30
0.0
 10
239.7347983225985
 20
156.8254646818828
 30
0.0
 10
239.6447106633069
 20
156.8444582736682
 30
0.0
 10
239.5083704058374
 20
156.8140291808901
 30
0.0
 10
239.3924282098054
 20
156.743652782166
 30
0.0
 10
239.3082728873661
 20
156.6392968111628
 30
0.0
 10
239.2640744437542
 20
156.5140878890362
 30
0.0
 10
239.2618108731792
 20
156.4036510401687
 30
0.0
 10
239.2784667149115
 20
156.3411221449474
 30
0.0
 10
239.2838077388608
 20
156.3210710222079
 30
0.0
  0
LINE
  5
E6
330
1F
100
AcDbEntity
  8
0
  6
Continuous
 62
     7
370
    15
100
AcDbLine
 10
249.6504263721
 20
153.0865495363
 30
0.0
 11
249.8261855684
 21
153.2530020261
 31
0.0
  0
SPLINE
  5
E7
330
1F
100
AcDbEntity
  8
0
  6
Continuous
 62
     7
370
    15
100
AcDbSpline
210
0.0
220
0.0
230
1.0
 70
     8
 71
     3
 72
    11
 73
     7
 74
     0
 42
0.00000001
 43
0.00000001
 12
1.0
 22
0.0
 32
0.0
 13
1.0
 23
0.0
 33
0.0
 40
0.0
 40
0.0
 40
0.0
 40
0.0
 40
0.0073038389762677
 40
0.126848520757174
 40
0.5874348501147415
 40
1.0
 40
1.0
 40
1.0
 40
1.0
 10
241.5735648713911
 20
154.5765920812442
 30
0.0
 10
241.5725023506937
 20
154.577710522889
 30
0.0
 10
241.5540491537962
 20
154.5971349199306
 30
0.0
 10
241.4667956100724
 20
154.6887117918706
 30
0.0
 10
241.3029529395568
 20
154.8573474404788
 30
0.0
 10
241.1565569639774
 20
155.0013542848795
 30
0.0
 10
241.0873846851194
 20
155.0693976963117
 30
0.0
  0
ARC
  5
E8
330
1F
100
AcDbEntity
  8
0
  6
Continuous
 62
     7
370
    15
100
AcDbCircle
 10
243.0667440239
 20
153.0406409975
 30
0.0
 40
0.9987835518457462
100
AcDbArc
 50
72.4301052554
 51
197.4300717769
  0
LINE
  5
E9
330
1F
100
AcDbEntity
  8
0
  6
Continuous
 62
     7
370
    15
100
AcDbLine
 10
251.6096012436
 20
144.5728232423
 30
0.0
 11
253.0290858589
 21
143.1194626996
 31
0.0
  0
LINE
  5
EA
330
1F
100
AcDbEntity
  8
0
  6
Continuous
 62
     7
370
    15
100
AcDbLine
 10
248.3571545921
 20
152.4236648614
 30
0.0
 11
243.3682458244
 21
153.9928307096
 31
0.0
  0
LINE
  5
EB
330
1F
100
AcDbEntity
  8
0
  6
Continuous
 62
     7
370
    15
100
AcDbLine
 10
250.5831645571
 20
146.7954860339
 30
0.0
 11
249.0101681791
 21
151.772243836
 31
0.0
  0
ARC
  5
EC
330
1F
100
AcDbEntity
  8
0
  6
Continuous
 62
     7
370
    15
100
AcDbCircle
 10
249.6302415336
 20
146.4963084887
 30
0.0
 40
0.9987840068311434
100
AcDbArc
 50
252.4301358576
 51
17.4300838167
  0
LINE
  5
ED
330
1F
100
AcDbEntity
  8
0
  6
Continuous
 62
     7
370
    15
100
AcDbLine
 10
244.3398313366
 20
147.1132849613
 30
0.0
 11
249.3287401043
 21
145.5441181818
 31
0.0
  0
ARC
  5
EE
330
1F
100
AcDbEntity
  8
0
  6
Continuous
 62
     7
370
    15
100
AcDbCircle
 10
244.6390277805
 20
148.0662292617
 30
0.0
 40
0.9988099677551606
100
AcDbArc
 50
197.5708191529
 51
252.5692474541
  0
LINE
  5
EF
330
1F
100
AcDbEntity
  8
0
  6
Continuous
 62
     7
370
    15
100
AcDbLine
 10
242.1138213716
 20
152.7414637888
 30
0.0
 11
243.6868177496
 21
147.7647041241
 31
0.0
  0
ARC
  5
F0
330
1F
100
AcDbEntity
  8
0
  6
Continuous
 62
     7
370
    15
100
AcDbCircle
 10
248.0579535739
 20
151.4707168377
 30
0.0
 40
0.9988148903437051
100
AcDbArc
 50
17.5708416941
 51
72.5690610841
  0
CIRCLE
  5
F1
330
1F
100
AcDbEntity
  8
0
  6
Continuous
 62
     7
370
    15
100
AcDbCircle
 10
246.352378118
 20
149.7634002649
 30
0.0
 40
3.046914168700699
  0
SPLINE
  5
F2
330
1F
100
AcDbEntity
  8
0
  6
Continuous
 62
     7
370
    15
100
AcDbSpline
210
0.0
220
0.0
230
1.0
 70
     8
 71
     3
 72
    11
 73
     7
 74
     0
 42
0.00000001
 43
0.00000001
 12
1.0
 22
0.0
 32
0.0
 13
1.0
 23
0.0
 33
0.0
 40
0.0
 40
0.0
 40
0.0
 40
0.0
 40
0.0092192940364626
 40
0.3448562656144873
 40
0.6722324634957466
 40
1.0
 40
1.0
 40
1.0
 40
1.0
 10
249.1579578958356
 20
152.5935679013087
 30
0.0
 10
249.1593226527614
 20
152.5950042332815
 30
0.0
 10
249.2103726545308
 20
152.6487315662354
 30
0.0
 10
249.319563654429
 20
152.7617206400259
 30
0.0
 10
249.4928156507896
 20
152.935390194732
 30
0.0
 10
249.5978685478485
 20
153.0361430281597
 30
0.0
 10
249.6504263721311
 20
153.0865495363428
 30
0.0
  0
ARC
  5
F3
330
1F
100
AcDbEntity
  8
0
  6
Continuous
 62
     7
370
    15
100
AcDbCircle
 10
246.3484929643
 20
149.8434534325
 30
0.0
 40
3.050004124588049
100
AcDbArc
 50
180.1000396889
 51
359.8999603111
  0
SPLINE
  5
F4
330
1F
100
AcDbEntity
  8
0
  6
Continuous
 62
     7
370
    15
100
AcDbSpline
210
0.0
220
0.0
230
1.0
 70
     8
 71
     3
 72
    11
 73
     7
 74
     0
 42
0.00000001
 43
0.00000001
 12
1.0
 22
0.0
 32
0.0
 13
1.0
 23
0.0
 33
0.0
 40
0.0
 40
0.0
 40
0.0
 40
0.0
 40
0.3277726843354878
 40
0.6551516034616117
 40
0.9907936692501155
 40
1.0
 40
1.0
 40
1.0
 40
1.0
 10
243.0465595565641
 20
146.4987666616394
 30
0.0
 10
243.0991212147185
 20
146.5532229587584
 30
0.0
 10
243.2041813868015
 20
146.6620701326723
 30
0.0
 10
243.377374972297
 20
146.8340186162193
 30
0.0
 10
243.4867203370501
 20
146.9390070366747
 30
0.0
 10
243.5376533849523
 20
146.9870269469603
 30
0.0
 10
243.5390131316983
 20
146.9883089224055
 30
0.0
  0
SPLINE
  5
F5
330
1F
100
AcDbEntity
  8
0
  6
Continuous
 62
     7
370
    15
100
AcDbSpline
210
0.0
220
0.0
230
1.0
 70
     8
 71
     3
 72
    11
 73
     7
 74
     0
 42
0.00000001
 43
0.00000001
 12
1.0
 22
0.0
 32
0.0
 13
1.0
 23
0.0
 33
0.0
 40
0.0
 40
0.0
 40
0.0
 40
0.0
 40
0.4125800985260684
 40
0.8731516562384052
 40
0.9926967628725164
 40
1.0
 40
1.0
 40
1.0
 40
1.0
 10
251.6096012435758
 20
144.5728232423021
 30
0.0
 10
251.5404227500992
 20
144.642800104728
 30
0.0
 10
251.394018896954
 20
144.7908935623227
 30
0.0
 10
251.2301860749691
 20
144.9489945266623
 30
0.0
 10
251.1429383185694
 20
145.0316616705483
 30
0.0
 10
251.1244835806539
 20
145.0489922861883
 30
0.0
 10
251.1234210573041
 20
145.0499900886967
 30
0.0
  0
LINE
  5
F6
330
1F
100
AcDbEntity
  8
0
  6
HIDDEN
 62
     7
370
     0
100
AcDbLine
 10
115.4290811859
 20
134.2051317254
 30
0.0
 11
115.4290811859
 21
195.2051324109
 31
0.0
  0
SPLINE
  5
F7
330
1F
100
AcDbEntity
  8
0
  6
HIDDEN
 62
     7
370
     0
100
AcDbSpline
210
0.0
220
0.0
230
1.0
 70
     8
 71
     3
 72
    60
 73
    56
 74
     0
 42
0.00000001
 43
0.00000001
 12
1.0
 22
0.0
 32
0.0
 13
1.0
 23
0.0
 33
0.0
 40
-0.0625000000000002
 40
-0.0625000000000002
 40
0.0
 40
0.0
 40
0.0312499999999999
 40
0.0312499999999999
 40
0.0624999999999998
 40
0.0624999999999998
 40
0.0937499999999997
 40
0.0937499999999997
 40
0.1249999999999996
 40
0.1249999999999996
 40
0.1874999999999995
 40
0.1874999999999995
 40
0.2499999999999993
 40
0.2499999999999993
 40
0.2812499999999993
 40
0.2812499999999993
 40
0.3124999999999992
 40
0.3124999999999992
 40
0.3437499999999991
 40
0.3437499999999991
 40
0.374999999999999
 40
0.374999999999999
 40
0.4062499999999989
 40
0.4062499999999989
 40
0.4374999999999988
 40
0.4374999999999988
 40
0.4687499999999987
 40
0.4687499999999987
 40
0.4999999999999987
 40
0.4999999999999987
 40
0.5624999999999986
 40
0.5624999999999986
 40
0.6249999999999984
 40
0.6249999999999984
 40
0.6562499999999987
 40
0.6562499999999987
 40
0.6874999999999988
 40
0.6874999999999988
 40
0.7187499999999989
 40
0.7187499999999989
 40
0.749999999999999
 40
0.749999999999999
 40
0.7812499999999991
 40
0.7812499999999991
 40
0.8124999999999992
 40
0.8124999999999992
 40
0.8437499999999993
 40
0.8437499999999993
 40
0.8749999999999994
 40
0.8749999999999994
 40
0.9062499999999997
 40
0.9062499999999997
 40
0.9374999999999998
 40
0.9374999999999998
 40
1.0
 40
1.0
 40
1.03125
 40
1.03125
 10
103.4290813051069
 20
164.4408015430659
 30
0.0
 10
103.4290813051069
 20
164.837297330696
 30
0.0
 10
103.4420531635957
 20
164.9672473917001
 30
0.0
 10
103.492873333288
 20
165.2229003250602
 30
0.0
 10
103.531340656755
 20
165.3499298316095
 30
0.0
 10
103.6317388928271
 20
165.5921179627341
 30
0.0
 10
103.6931719238003
 20
165.7069794552869
 30
0.0
 10
103.8383067553452
 20
165.924359651111
 30
0.0
 10
103.9227618727531
 20
166.0272572183097
 30
0.0
 10
104.1994813231114
 20
166.3039242573175
 30
0.0
 10
104.4225582150294
 20
166.4529223477974
 30
0.0
 10
104.9038415772498
 20
166.6524334882621
 30
0.0
 10
105.1670719962408
 20
166.7049915912588
 30
0.0
 10
105.5584741979287
 20
166.7052018736369
 30
0.0
 10
105.6909972260375
 20
166.6922161029098
 30
0.0
 10
105.9475276792786
 20
166.641188954696
 30
0.0
 10
106.0722145135752
 20
166.6034337555456
 30
0.0
 10
106.3143937758107
 20
166.5032954226368
 30
0.0
 10
106.4314873079608
 20
166.4406897552253
 30
0.0
 10
106.6482023113162
 20
166.2959564619603
 30
0.0
 10
106.749221138179
 20
166.2133291146808
 30
0.0
 10
106.9360060256311
 20
166.0267240614292
 30
0.0
 10
107.0188629068273
 20
165.925608997553
 30
0.0
 10
107.1637471719011
 20
165.7090761935632
 30
0.0
 10
107.2263846797221
 20
165.5922059859621
 30
0.0
 10
107.3268335031218
 20
165.3499081153119
 30
0.0
 10
107.3646846041391
 20
165.2252441168509
 30
0.0
 10
107.4159061693954
 20
164.968957072787
 30
0.0
 10
107.4290342960126
 20
164.8363850770415
 30
0.0
 10
107.4291749363529
 20
164.4447808842675
 30
0.0
 10
107.376850186981
 20
164.1816155529436
 30
0.0
 10
107.1777391249238
 20
163.7001101837704
 30
0.0
 10
107.0288767884665
 20
163.4768586442863
 30
0.0
 10
106.752555829141
 20
163.2000023453975
 30
0.0
 10
106.6497921807674
 20
163.1154888985537
 30
0.0
 10
106.432408623388
 20
162.9700716251135
 30
0.0
 10
106.3176098554315
 20
162.9085604260551
 30
0.0
 10
106.0757331320075
 20
162.8080305778003
 30
0.0
 10
105.9485795240073
 20
162.7693855545823
 30
0.0
 10
105.6929135145747
 20
162.7183292270313
 30
0.0
 10
105.5630474768187
 20
162.7052643684856
 30
0.0
 10
105.2990949500871
 20
162.7050017476877
 30
0.0
 10
105.168690626663
 20
162.7178787479318
 30
0.0
 10
104.9130398632837
 20
162.7684647517375
 30
0.0
 10
104.7861743141693
 20
162.8067411163594
 30
0.0
 10
104.5436538562234
 20
162.9070119838394
 30
0.0
 10
104.4287272175631
 20
162.9683680079803
 30
0.0
 10
104.2113557487311
 20
163.1132143031531
 30
0.0
 10
104.1083419360688
 20
163.1975918176477
 30
0.0
 10
103.9236413904869
 20
163.381999137836
 30
0.0
 10
103.8408116562303
 20
163.4825722011054
 30
0.0
 10
103.6945592176328
 20
163.7007983416844
 30
0.0
 10
103.6321907368404
 20
163.8173534516057
 30
0.0
 10
103.4822345852736
 20
164.1782030456395
 30
0.0
 10
103.4290813051069
 20
164.4408015430659
 30
0.0
 10
103.4290813051069
 20
164.837297330696
 30
0.0
  0
SPLINE
  5
F8
330
1F
100
AcDbEntity
  8
0
  6
HIDDEN
 62
     7
370
     0
100
AcDbSpline
210
0.0
220
0.0
230
1.0
 70
     8
 71
     3
 72
    12
 73
     8
 74
     0
 42
0.00000001
 43
0.00000001
 12
1.0
 22
0.0
 32
0.0
 13
1.0
 23
0.0
 33
0.0
 40
0.0
 40
0.0
 40
0.0
 40
0.0
 40
0.2500000000000009
 40
0.2500000000000009
 40
0.5000000000000018
 40
0.5000000000000018
 40
1.0
 40
1.0
 40
1.0
 40
1.0
 10
103.9568381186733
 20
155.3170656368165
 30
0.0
 10
103.8937580801799
 20
155.3170656368165
 30
0.0
 10
103.8346094579986
 20
155.2917013176015
 30
0.0
 10
103.7361369079296
 20
155.2175364572286
 30
0.0
 10
103.6971002959448
 20
155.1710161166746
 30
0.0
 10
103.5972038291659
 20
155.0208737738293
 30
0.0
 10
103.554782948099
 20
154.9091805668572
 30
0.0
 10
103.5238254167812
 20
154.7957627474674
 30
0.0
  0
LINE
  5
F9
330
1F
100
AcDbEntity
  8
0
  6
HIDDEN
 62
     7
370
     0
100
AcDbLine
 10
106.9013245173
 20
155.3170652399
 30
0.0
 11
103.9568383016
 21
155.3170652399
 31
0.0
  0
SPLINE
  5
FA
330
1F
100
AcDbEntity
  8
0
  6
HIDDEN
 62
     7
370
     0
100
AcDbSpline
210
0.0
220
0.0
230
1.0
 70
     8
 71
     3
 72
    12
 73
     8
 74
     0
 42
0.00000001
 43
0.00000001
 12
1.0
 22
0.0
 32
0.0
 13
1.0
 23
0.0
 33
0.0
 40
0.0
 40
0.0
 40
0.0
 40
0.0
 40
0.5000000000000029
 40
0.5000000000000029
 40
0.7500000000000014
 40
0.7500000000000014
 40
1.0
 40
1.0
 40
1.0
 40
1.0
 10
107.3343371934326
 20
154.7957627474674
 30
0.0
 10
107.3036149515136
 20
154.9083185468766
 30
0.0
 10
107.2607777369782
 20
155.0210764066161
 30
0.0
 10
107.1613507127785
 20
155.1706172924125
 30
0.0
 10
107.1215985179618
 20
155.2179100241193
 30
0.0
 10
107.0235570611036
 20
155.2916463174408
 30
0.0
 10
106.9640010055162
 20
155.3170656368166
 30
0.0
 10
106.9013244915404
 20
155.3170656368166
 30
0.0
  0
ELLIPSE
  5
FB
330
1F
100
AcDbEntity
  8
0
  6
HIDDEN
 62
     7
370
     0
100
AcDbEllipse
 10
91.0819271157
 20
164.7051320682
 30
0.0
 11
-14.75368316065606
 21
31.09325491558118
 31
0.0
210
0.0
220
0.0
230
1.0
 40
0.3419987131
 41
3.300734856217132
 42
4.23149622336078
  0
SPLINE
  5
FC
330
1F
100
AcDbEntity
  8
0
  6
HIDDEN
 62
     7
370
     0
100
AcDbSpline
210
0.0
220
0.0
230
1.0
 70
     8
 71
     3
 72
    12
 73
     8
 74
     0
 42
0.00000001
 43
0.00000001
 12
1.0
 22
0.0
 32
0.0
 13
1.0
 23
0.0
 33
0.0
 40
0.0
 40
0.0
 40
0.0
 40
0.0
 40
0.2500000000000009
 40
0.2500000000000009
 40
0.5000000000000019
 40
0.5000000000000019
 40
1.0
 40
1.0
 40
1.0
 40
1.0
 10
106.9013244915404
 20
134.6366401092794
 30
0.0
 10
106.9644045300338
 20
134.6366401092794
 30
0.0
 10
107.0235531522151
 20
134.644546035492
 30
0.0
 10
107.1220257022842
 20
134.6678711969282
 30
0.0
 10
107.1610623142689
 20
134.6825839867599
 30
0.0
 10
107.260958781048
 20
134.7305397874909
 30
0.0
 10
107.3033796621146
 20
134.7668019440709
 30
0.0
 10
107.3343371934326
 20
134.8043896080354
 30
0.0
  0
LINE
  5
FD
330
1F
100
AcDbEntity
  8
0
  6
HIDDEN
 62
     7
370
     0
100
AcDbLine
 10
103.9568383016
 20
134.6366395513
 30
0.0
 11
106.9013245173
 21
134.6366395513
 31
0.0
  0
SPLINE
  5
FE
330
1F
100
AcDbEntity
  8
0
  6
HIDDEN
 62
     7
370
     0
100
AcDbSpline
210
0.0
220
0.0
230
1.0
 70
     8
 71
     3
 72
    12
 73
     8
 74
     0
 42
0.00000001
 43
0.00000001
 12
1.0
 22
0.0
 32
0.0
 13
1.0
 23
0.0
 33
0.0
 40
0.0
 40
0.0
 40
0.0
 40
0.0
 40
0.5000000000000064
 40
0.5000000000000064
 40
0.7500000000000032
 40
0.7500000000000032
 40
1.0
 40
1.0
 40
1.0
 40
1.0
 10
103.5238254167811
 20
134.8043896080354
 30
0.0
 10
103.5545476587003
 20
134.7670876250824
 30
0.0
 10
103.5973848732354
 20
134.730475793036
 30
0.0
 10
103.6968118974353
 20
134.6827110097508
 30
0.0
 10
103.7365640922519
 20
134.6677534942684
 30
0.0
 10
103.8346055491101
 20
134.6445635484993
 30
0.0
 10
103.8941616046975
 20
134.6366401092795
 30
0.0
 10
103.9568381186733
 20
134.6366401092795
 30
0.0
  0
ELLIPSE
  5
FF
330
1F
100
AcDbEntity
  8
0
  6
HIDDEN
 62
     7
370
     0
100
AcDbEllipse
 10
119.7762354945
 20
164.7051320682
 30
0.0
 11
14.7536831606561
 21
31.09325491558119
 31
0.0
210
0.0
220
0.0
230
1.0
 40
0.3419987131
 41
2.051689083818818
 42
2.982450450962497
  0
SPLINE
  5
100
330
1F
100
AcDbEntity
  8
0
  6
HIDDEN
 62
     7
370
     0
100
AcDbSpline
210
0.0
220
0.0
230
1.0
 70
     8
 71
     3
 72
    12
 73
     8
 74
     0
 42
0.00000001
 43
0.00000001
 12
1.0
 22
0.0
 32
0.0
 13
1.0
 23
0.0
 33
0.0
 40
0.0
 40
0.0
 40
0.0
 40
0.0
 40
0.2499999999999981
 40
0.2499999999999981
 40
0.4999999999999962
 40
0.4999999999999962
 40
1.0
 40
1.0
 40
1.0
 40
1.0
 10
103.9568381186733
 20
194.7736240270259
 30
0.0
 10
103.8937580801799
 20
194.7736240270259
 30
0.0
 10
103.8346094579986
 20
194.7657181008134
 30
0.0
 10
103.7361369079295
 20
194.7423929393771
 30
0.0
 10
103.6971002959448
 20
194.7276801495455
 30
0.0
 10
103.5972038291659
 20
194.6797243488145
 30
0.0
 10
103.554782948099
 20
194.6434621922345
 30
0.0
 10
103.5238254167812
 20
194.60587452827
 30
0.0
  0
LINE
  5
101
330
1F
100
AcDbEntity
  8
0
  6
HIDDEN
 62
     7
370
     0
100
AcDbLine
 10
106.9013245173
 20
194.773624585
 30
0.0
 11
103.9568383016
 21
194.773624585
 31
0.0
  0
SPLINE
  5
102
330
1F
100
AcDbEntity
  8
0
  6
HIDDEN
 62
     7
370
     0
100
AcDbSpline
210
0.0
220
0.0
230
1.0
 70
     8
 71
     3
 72
    12
 73
     8
 74
     0
 42
0.00000001
 43
0.00000001
 12
1.0
 22
0.0
 32
0.0
 13
1.0
 23
0.0
 33
0.0
 40
0.0
 40
0.0
 40
0.0
 40
0.0
 40
0.5000000000000018
 40
0.5000000000000018
 40
0.7500000000000009
 40
0.7500000000000009
 40
1.0
 40
1.0
 40
1.0
 40
1.0
 10
107.3343371934326
 20
194.60587452827
 30
0.0
 10
107.3036149515136
 20
194.643176511223
 30
0.0
 10
107.2607777369782
 20
194.6797883432694
 30
0.0
 10
107.1613507127785
 20
194.7275531265546
 30
0.0
 10
107.1215985179618
 20
194.7425106420369
 30
0.0
 10
107.0235570611036
 20
194.7657005878061
 30
0.0
 10
106.9640010055162
 20
194.7736240270259
 30
0.0
 10
106.9013244915404
 20
194.7736240270259
 30
0.0
  0
ELLIPSE
  5
103
330
1F
100
AcDbEntity
  8
0
  6
HIDDEN
 62
     7
370
     0
100
AcDbEllipse
 10
91.0819271157
 20
164.7051320682
 30
0.0
 11
14.75368316065619
 21
31.09325491558119
 31
0.0
210
0.0
220
0.0
230
1.0
 40
0.3419987131
 41
5.193281737408634
 42
6.12404310455234
  0
SPLINE
  5
104
330
1F
100
AcDbEntity
  8
0
  6
HIDDEN
 62
     7
370
     0
100
AcDbSpline
210
0.0
220
0.0
230
1.0
 70
     8
 71
     3
 72
    12
 73
     8
 74
     0
 42
0.00000001
 43
0.00000001
 12
1.0
 22
0.0
 32
0.0
 13
1.0
 23
0.0
 33
0.0
 40
0.0
 40
0.0
 40
0.0
 40
0.0
 40
0.2499999999999977
 40
0.2499999999999977
 40
0.4999999999999953
 40
0.4999999999999953
 40
1.0
 40
1.0
 40
1.0
 40
1.0
 10
106.9013244915404
 20
174.0931984994891
 30
0.0
 10
106.9644045300338
 20
174.0931984994891
 30
0.0
 10
107.0235531522151
 20
174.1185628187042
 30
0.0
 10
107.1220257022842
 20
174.1927276790771
 30
0.0
 10
107.1610623142689
 20
174.2392480196312
 30
0.0
 10
107.260958781048
 20
174.3893903624763
 30
0.0
 10
107.3033796621146
 20
174.5010835694485
 30
0.0
 10
107.3343371934326
 20
174.6145013888383
 30
0.0
  0
LINE
  5
105
330
1F
100
AcDbEntity
  8
0
  6
HIDDEN
 62
     7
370
     0
100
AcDbLine
 10
103.9568383016
 20
174.0931988964
 30
0.0
 11
106.9013245173
 21
174.0931988964
 31
0.0
  0
SPLINE
  5
106
330
1F
100
AcDbEntity
  8
0
  6
HIDDEN
 62
     7
370
     0
100
AcDbSpline
210
0.0
220
0.0
230
1.0
 70
     8
 71
     3
 72
    12
 73
     8
 74
     0
 42
0.00000001
 43
0.00000001
 12
1.0
 22
0.0
 32
0.0
 13
1.0
 23
0.0
 33
0.0
 40
0.0
 40
0.0
 40
0.0
 40
0.0
 40
0.4999999999999953
 40
0.4999999999999953
 40
0.7499999999999977
 40
0.7499999999999977
 40
1.0
 40
1.0
 40
1.0
 40
1.0
 10
103.5238254167811
 20
174.6145013888382
 30
0.0
 10
103.5545476587003
 20
174.5019455894291
 30
0.0
 10
103.5973848732354
 20
174.3891877296895
 30
0.0
 10
103.6968118974353
 20
174.2396468438932
 30
0.0
 10
103.7365640922519
 20
174.1923541121863
 30
0.0
 10
103.8346055491101
 20
174.1186178188649
 30
0.0
 10
103.8941616046975
 20
174.0931984994891
 30
0.0
 10
103.9568381186733
 20
174.0931984994891
 30
0.0
  0
ELLIPSE
  5
107
330
1F
100
AcDbEntity
  8
0
  6
HIDDEN
 62
     7
370
     0
100
AcDbEllipse
 10
119.7762354945
 20
164.7051320682
 30
0.0
 11
-14.75368316065622
 21
31.09325491558118
 31
0.0
210
0.0
220
0.0
230
1.0
 40
0.3419987131
 41
0.1591422026272825
 42
1.089903569770961
  0
LINE
  5
108
330
1F
100
AcDbEntity
  8
0
  6
HIDDEN
 62
     7
370
     0
100
AcDbLine
 10
93.4290813051
 20
195.7051315615
 30
0.0
 11
93.4290813051
 21
133.7051325748
 31
0.0
  0
LINE
  5
109
330
1F
100
AcDbEntity
  8
0
  6
HIDDEN
 62
     7
370
     0
100
AcDbLine
 10
93.4290813051
 20
140.4551313529
 30
0.0
 11
93.4290813051
 21
188.9268131266
 31
0.0
  0
SPLINE
  5
10A
330
1F
100
AcDbEntity
  8
0
  6
HIDDEN
 62
     7
370
     0
100
AcDbSpline
210
0.0
220
0.0
230
1.0
 70
     8
 71
     3
 72
    12
 73
     8
 74
     0
 42
0.00000001
 43
0.00000001
 12
1.0
 22
0.0
 32
0.0
 13
1.0
 23
0.0
 33
0.0
 40
0.0
 40
0.0
 40
0.0
 40
0.0
 40
0.5000000000000004
 40
0.5000000000000004
 40
0.7500000000000002
 40
0.7500000000000002
 40
1.0
 40
1.0
 40
1.0
 40
1.0
 10
92.61256901865987
 20
180.1574000499836
 30
0.0
 10
92.6689751973401
 20
180.1095776763237
 30
0.0
 10
92.73913809881182
 20
180.0693068293852
 30
0.0
 10
92.857148812201
 20
180.0612609609082
 30
0.0
 10
92.89735459579646
 20
180.0678235592471
 30
0.0
 10
92.97107529252952
 20
180.0952056537007
 30
0.0
 10
93.00393601431605
 20
180.114967144231
 30
0.0
 10
93.03410441624534
 20
180.1378998554191
 30
0.0
  0
SPLINE
  5
10B
330
1F
100
AcDbEntity
  8
0
  6
HIDDEN
 62
     7
370
     0
100
AcDbSpline
210
0.0
220
0.0
230
1.0
 70
     8
 71
     3
 72
    16
 73
    12
 74
     0
 42
0.00000001
 43
0.00000001
 12
1.0
 22
0.0
 32
0.0
 13
1.0
 23
0.0
 33
0.0
 40
0.0
 40
0.0
 40
0.0
 40
0.0
 40
0.0624999999999985
 40
0.0624999999999985
 40
0.124999999999997
 40
0.124999999999997
 40
0.2500000000000022
 40
0.2500000000000022
 40
0.499999999999998
 40
0.499999999999998
 40
1.0
 40
1.0
 40
1.0
 40
1.0
 10
93.0341044162002
 20
180.1378998554672
 30
0.0
 10
93.04571731603954
 20
180.1467274784486
 30
0.0
 10
93.05906850047204
 20
180.1545618603305
 30
0.0
 10
93.08846834009121
 20
180.1628719864029
 30
0.0
 10
93.10330906464657
 20
180.1623761671679
 30
0.0
 10
93.13914227261513
 20
180.1509251961985
 30
0.0
 10
93.15325548043673
 20
180.1342446953398
 30
0.0
 10
93.18774685165559
 20
180.0821240095828
 30
0.0
 10
93.198830922766
 20
180.0423345155578
 30
0.0
 10
93.22495374056201
 20
179.9189978834607
 30
0.0
 10
93.22908130510687
 20
179.831576472962
 30
0.0
 10
93.22908130510687
 20
179.7428392306438
 30
0.0
  0
LINE
  5
10C
330
1F
100
AcDbEntity
  8
0
  6
HIDDEN
 62
     7
370
     0
100
AcDbLine
 10
93.2290813102
 20
149.667425015
 30
0.0
 11
93.2290813102
 21
179.7428391213
 31
0.0
  0
SPLINE
  5
10D
330
1F
100
AcDbEntity
  8
0
  6
HIDDEN
 62
     7
370
     0
100
AcDbSpline
210
0.0
220
0.0
230
1.0
 70
     8
 71
     3
 72
    16
 73
    12
 74
     0
 42
0.00000001
 43
0.00000001
 12
1.0
 22
0.0
 32
0.0
 13
1.0
 23
0.0
 33
0.0
 40
0.0
 40
0.0
 40
0.0
 40
0.0
 40
0.5000000000000017
 40
0.5000000000000017
 40
0.75
 40
0.75
 40
0.874999999999996
 40
0.874999999999996
 40
0.937499999999998
 40
0.937499999999998
 40
1.0
 40
1.0
 40
1.0
 40
1.0
 10
93.22908130510687
 20
149.6674249056614
 30
0.0
 10
93.22908130510687
 20
149.5782985404727
 30
0.0
 10
93.22493503002893
 20
149.4914371728593
 30
0.0
 10
93.1989694346354
 20
149.3684549263652
 30
0.0
 10
93.18750852925795
 20
149.327683631134
 30
0.0
 10
93.15319679148364
 20
149.2759793111342
 30
0.0
 10
93.13917205555397
 20
149.2593089445438
 30
0.0
 10
93.10314909252023
 20
149.247856724087
 30
0.0
 10
93.08839458343046
 20
149.247403677812
 30
0.0
 10
93.05904242228364
 20
149.2557189990282
 30
0.0
 10
93.04570254777953
 20
149.2635478841065
 30
0.0
 10
93.0341044162312
 20
149.2723642808691
 30
0.0
  0
SPLINE
  5
10E
330
1F
100
AcDbEntity
  8
0
  6
HIDDEN
 62
     7
370
     0
100
AcDbSpline
210
0.0
220
0.0
230
1.0
 70
     8
 71
     3
 72
    12
 73
     8
 74
     0
 42
0.00000001
 43
0.00000001
 12
1.0
 22
0.0
 32
0.0
 13
1.0
 23
0.0
 33
0.0
 40
0.0
 40
0.0
 40
0.0
 40
0.0
 40
0.2499999999999998
 40
0.2499999999999998
 40
0.4999999999999996
 40
0.4999999999999996
 40
1.0
 40
1.0
 40
1.0
 40
1.0
 10
93.03410441623826
 20
149.272364280878
 30
0.0
 10
93.00391257452105
 20
149.2953148099758
 30
0.0
 10
92.97055360510645
 20
149.315284284
 30
0.0
 10
92.89741632052585
 20
149.3423854176255
 30
0.0
 10
92.8571744478719
 20
149.3489861582709
 30
0.0
 10
92.73946867090339
 20
149.3410172837642
 30
0.0
 10
92.66905819312403
 20
149.3007568255964
 30
0.0
 10
92.61256901865572
 20
149.2528640863182
 30
0.0
  0
SPLINE
  5
10F
330
1F
100
AcDbEntity
  8
0
  6
HIDDEN
 62
     7
370
     0
100
AcDbSpline
210
0.0
220
0.0
230
1.0
 70
     8
 71
     3
 72
    12
 73
     8
 74
     0
 42
0.00000001
 43
0.00000001
 12
1.0
 22
0.0
 32
0.0
 13
1.0
 23
0.0
 33
0.0
 40
0.0
 40
0.0
 40
0.0
 40
0.0
 40
0.2500000000000026
 40
0.2500000000000026
 40
0.5000000000000023
 40
0.5000000000000023
 40
1.0
 40
1.0
 40
1.0
 40
1.0
 10
92.61256901865528
 20
149.2528640863185
 30
0.0
 10
92.52441508091755
 20
149.1781252784644
 30
0.0
 10
92.46406165628882
 20
149.087144777982
 30
0.0
 10
92.35779969822198
 20
148.8982309552294
 30
0.0
 10
92.31556753165991
 20
148.8017264956888
 30
0.0
 10
92.20449683634276
 20
148.5109587415216
 30
0.0
 10
92.15156005991597
 20
148.3152919269779
 30
0.0
 10
92.10776096154717
 20
148.1212254419116
 30
0.0
  0
SPLINE
  5
110
330
1F
100
AcDbEntity
  8
0
  6
HIDDEN
 62
     7
370
     0
100
AcDbSpline
210
0.0
220
0.0
230
1.0
 70
     8
 71
     3
 72
    12
 73
     8
 74
     0
 42
0.00000001
 43
0.00000001
 12
1.0
 22
0.0
 32
0.0
 13
1.0
 23
0.0
 33
0.0
 40
0.0
 40
0.0
 40
0.0
 40
0.0
 40
0.5
 40
0.5
 40
0.75
 40
0.75
 40
1.0
 40
1.0
 40
1.0
 40
1.0
 10
92.10776096154719
 20
142.9350511131505
 30
0.0
 10
92.15150750238377
 20
142.9084569425093
 30
0.0
 10
92.20439185761526
 20
142.8886967171836
 30
0.0
 10
92.31595894495143
 20
142.8682457269545
 30
0.0
 10
92.3585425414944
 20
142.8629855022981
 30
0.0
 10
92.46345926857619
 20
142.8551027083754
 30
0.0
 10
92.524992876421
 20
142.8525385831963
 30
0.0
 10
92.61256901864712
 20
142.8503383656766
 30
0.0
  0
LINE
  5
111
330
1F
100
AcDbEntity
  8
0
  6
HIDDEN
 62
     7
370
     0
100
AcDbLine
 10
93.2290813102
 20
142.1653115461
 30
0.0
 11
93.2290813102
 21
142.6455368558
 31
0.0
  0
LINE
  5
112
330
1F
100
AcDbEntity
  8
0
  6
HIDDEN
 62
     7
370
     0
100
AcDbLine
 10
93.2290813102
 20
186.7647272805
 30
0.0
 11
93.2290813102
 21
187.2449525902
 31
0.0
  0
SPLINE
  5
113
330
1F
100
AcDbEntity
  8
0
  6
HIDDEN
 62
     7
370
     0
100
AcDbSpline
210
0.0
220
0.0
230
1.0
 70
     8
 71
     3
 72
    12
 73
     8
 74
     0
 42
0.00000001
 43
0.00000001
 12
1.0
 22
0.0
 32
0.0
 13
1.0
 23
0.0
 33
0.0
 40
0.0
 40
0.0
 40
0.0
 40
0.0
 40
0.2499999999999999
 40
0.2499999999999999
 40
0.5
 40
0.5
 40
1.0
 40
1.0
 40
1.0
 40
1.0
 10
92.61256901865511
 20
186.5599257706286
 30
0.0
 10
92.52388435879875
 20
186.5576977032876
 30
0.0
 10
92.46396594307535
 20
186.5551959192572
 30
0.0
 10
92.35830671575461
 20
186.5472644834212
 30
0.0
 10
92.31566547763967
 20
186.5419723285244
 30
0.0
 10
92.20447613553713
 20
186.5215673880372
 30
0.0
 10
92.15154945341617
 20
186.5018326964504
 30
0.0
 10
92.10776096154719
 20
186.4752130231548
 30
0.0
  0
SPLINE
  5
114
330
1F
100
AcDbEntity
  8
0
  6
HIDDEN
 62
     7
370
     0
100
AcDbSpline
210
0.0
220
0.0
230
1.0
 70
     8
 71
     3
 72
    12
 73
     8
 74
     0
 42
0.00000001
 43
0.00000001
 12
1.0
 22
0.0
 32
0.0
 13
1.0
 23
0.0
 33
0.0
 40
0.0
 40
0.0
 40
0.0
 40
0.0
 40
0.5000000000000029
 40
0.5000000000000029
 40
0.7500000000000016
 40
0.7500000000000016
 40
1.0
 40
1.0
 40
1.0
 40
1.0
 10
92.10776096154561
 20
181.2890386943939
 30
0.0
 10
92.15152243784435
 20
181.0951389064318
 30
0.0
 10
92.20442875349737
 20
180.8992825424949
 30
0.0
 10
92.31613995114473
 20
180.607140395996
 30
0.0
 10
92.35865939473112
 20
180.510422459298
 30
0.0
 10
92.46378273729852
 20
180.3236980228736
 30
0.0
 10
92.52534870101621
 20
180.2313473146039
 30
0.0
 10
92.61256901865893
 20
180.1574000499841
 30
0.0
  0
LINE
  5
115
330
1F
100
AcDbEntity
  8
0
  6
HIDDEN
 62
     7
370
     0
100
AcDbLine
 10
93.2290813102
 20
142.6455368558
 30
0.0
 11
93.2290813102
 21
157.6832448403
 31
0.0
  0
LINE
  5
116
330
1F
100
AcDbEntity
  8
0
  6
HIDDEN
 62
     7
370
     0
100
AcDbLine
 10
93.2290813102
 20
171.727019296
 30
0.0
 11
93.2290813102
 21
186.7647272805
 31
0.0
  0
LINE
  5
117
330
1F
100
AcDbEntity
  8
0
  6
HIDDEN
 62
     7
370
     0
100
AcDbLine
 10
115.4290811859
 20
144.7051325152
 30
0.0
 11
115.4290811859
 21
184.6767858872
 31
0.0
  0
CIRCLE
  5
118
330
1F
100
AcDbEntity
  8
0
  6
HIDDEN
 62
     7
370
     0
100
AcDbCircle
 10
77.9290813051
 20
164.7051320682
 30
0.0
 40
4.050000000000011
  0
LINE
  5
119
330
1F
100
AcDbEntity
  8
0
  6
HIDDEN
 62
     7
370
     0
100
AcDbLine
 10
56.959308847
 20
180.0180831263
 30
0.0
 11
56.959308847
 21
149.39218101
 31
0.0
  0
LINE
  5
11A
330
1F
100
AcDbEntity
  8
0
  6
HIDDEN
 62
     7
370
     0
100
AcDbLine
 10
55.429082527
 20
148.5087023387
 30
0.0
 11
55.429082527
 21
180.8731154809
 31
0.0
  0
LINE
  5
11B
330
1F
100
AcDbEntity
  8
0
  6
HIDDEN
 62
     7
370
     0
100
AcDbLine
 10
63.4593089811
 20
179.0515425885
 30
0.0
 11
63.4593089811
 21
150.3587215478
 31
0.0
  0
SPLINE
  5
11C
330
1F
100
AcDbEntity
  8
0
  6
HIDDEN
 62
     7
370
     0
100
AcDbSpline
210
0.0
220
0.0
230
1.0
 70
     8
 71
     3
 72
    66
 73
    62
 74
     0
 42
0.00000001
 43
0.00000001
 12
1.0
 22
0.0
 32
0.0
 13
1.0
 23
0.0
 33
0.0
 40
-0.0312500000000033
 40
-0.0312500000000033
 40
0.0
 40
0.0
 40
0.0312499999999987
 40
0.0312499999999987
 40
0.0624999999999974
 40
0.0624999999999974
 40
0.0937499999999961
 40
0.0937499999999961
 40
0.1249999999999948
 40
0.1249999999999948
 40
0.1562499999999934
 40
0.1562499999999934
 40
0.187499999999992
 40
0.187499999999992
 40
0.2187499999999905
 40
0.2187499999999905
 40
0.2499999999999891
 40
0.2499999999999891
 40
0.2812499999999877
 40
0.2812499999999877
 40
0.3124999999999863
 40
0.3124999999999863
 40
0.3437499999999849
 40
0.3437499999999849
 40
0.3749999999999835
 40
0.3749999999999835
 40
0.4062499999999821
 40
0.4062499999999821
 40
0.4374999999999806
 40
0.4374999999999806
 40
0.4687499999999792
 40
0.4687499999999792
 40
0.4999999999999778
 40
0.4999999999999778
 40
0.5624999999999776
 40
0.5624999999999776
 40
0.5937499999999788
 40
0.5937499999999788
 40
0.6249999999999799
 40
0.6249999999999799
 40
0.656249999999981
 40
0.656249999999981
 40
0.6874999999999821
 40
0.6874999999999821
 40
0.7187499999999833
 40
0.7187499999999833
 40
0.7499999999999845
 40
0.7499999999999845
 40
0.7812499999999856
 40
0.7812499999999856
 40
0.8124999999999867
 40
0.8124999999999867
 40
0.8437499999999879
 40
0.8437499999999879
 40
0.874999999999989
 40
0.874999999999989
 40
0.9374999999999932
 40
0.9374999999999932
 40
0.9687499999999967
 40
0.9687499999999967
 40
1.0
 40
1.0
 40
1.031249999999999
 40
1.031249999999999
 10
211.2636475573855
 20
167.2110348621371
 30
0.0
 10
211.5945150528282
 20
167.2110348621371
 30
0.0
 10
211.7571328005556
 20
167.2273000162114
 30
0.0
 10
212.0769826592907
 20
167.2908910220187
 30
0.0
 10
212.2358911511473
 20
167.3390054545084
 30
0.0
 10
212.5385142004729
 20
167.4640864687285
 30
0.0
 10
212.6820042539987
 20
167.5404788555335
 30
0.0
 10
212.9535642293489
 20
167.7203543183277
 30
0.0
 10
213.0819417859086
 20
167.8246329311244
 30
0.0
 10
213.3121489024065
 20
168.0515307255468
 30
0.0
 10
213.4155435463185
 20
168.1749963085003
 30
0.0
 10
213.5983135134342
 20
168.4421708814561
 30
0.0
 10
213.6758217376097
 20
168.5835485988306
 30
0.0
 10
213.8005893114104
 20
168.8751103405469
 30
0.0
 10
213.8487250911384
 20
169.0274534094259
 30
0.0
 10
213.9130467260306
 20
169.3375192865135
 30
0.0
 10
213.9289880068698
 20
169.4927229534104
 30
0.0
 10
213.9291737945305
 20
169.8033801927608
 30
0.0
 10
213.9128857827435
 20
169.9603916967964
 30
0.0
 10
213.8490018883144
 20
170.26248317169
 30
0.0
 10
213.8017374555465
 20
170.4085934975311
 30
0.0
 10
213.6763293447214
 20
170.6911481413747
 30
0.0
 10
213.5981625419616
 20
170.8266473637791
 30
0.0
 10
213.4173549084456
 20
171.07671614442
 30
0.0
 10
213.3138184311197
 20
171.1930847927506
 30
0.0
 10
213.0809852246797
 20
171.4066602766685
 30
0.0
 10
212.9550148898873
 20
171.5009226268323
 30
0.0
 10
212.6845596744443
 20
171.6657829639431
 30
0.0
 10
212.5382984220595
 20
171.7369487258355
 30
0.0
 10
212.2358563312618
 20
171.8506257453872
 30
0.0
 10
212.0800368506382
 20
171.8934593341569
 30
0.0
 10
211.7591860894378
 20
171.9514438023315
 30
0.0
 10
211.593325333843
 20
171.9662601984624
 30
0.0
 10
211.1034993004032
 20
171.9664314259824
 30
0.0
 10
210.7740570443766
 20
171.9073837243187
 30
0.0
 10
210.3225991308398
 20
171.7381151191558
 30
0.0
 10
210.1768797525006
 20
171.6675954344366
 30
0.0
 10
209.9040567176185
 20
171.5016588695403
 30
0.0
 10
209.7783114960733
 20
171.4074279372595
 30
0.0
 10
209.547645547345
 20
171.1963805547285
 30
0.0
 10
209.4420748404423
 20
171.0782728046151
 30
0.0
 10
209.2606894528412
 20
170.8277946006022
 30
0.0
 10
209.1837440529921
 20
170.6947502244793
 30
0.0
 10
209.057784286719
 20
170.4123407536687
 30
0.0
 10
209.0095721699339
 20
170.2637859744409
 30
0.0
 10
208.9456532212747
 20
169.9628065167969
 30
0.0
 10
208.9292193339253
 20
169.8085089083379
 30
0.0
 10
208.9289449993183
 20
169.4942467425528
 30
0.0
 10
208.9450286052486
 20
169.3388530366937
 30
0.0
 10
209.0084144916016
 20
169.0314877596581
 30
0.0
 10
209.0565405137953
 20
168.8778723488025
 30
0.0
 10
209.1817462787649
 20
168.5845940096308
 30
0.0
 10
209.2584069895229
 20
168.4447214911133
 30
0.0
 10
209.4397533882096
 20
168.1787532265222
 30
0.0
 10
209.5449904158505
 20
168.05268443936
 30
0.0
 10
209.8899349716131
 20
167.7122653643625
 30
0.0
 10
210.1683304988722
 20
167.5269355478329
 30
0.0
 10
210.6192468427481
 20
167.3401041665426
 30
0.0
 10
210.7771950240477
 20
167.2918490797013
 30
0.0
 10
211.1001956042647
 20
167.2273025302366
 30
0.0
 10
211.2636475573855
 20
167.2110348621371
 30
0.0
 10
211.5945150528282
 20
167.2110348621371
 30
0.0
  0
LINE
  5
11D
330
1F
100
AcDbEntity
  8
0
  6
HIDDEN
 62
     7
370
     0
100
AcDbLine
 10
69.2593103044
 20
178.7051325003
 30
0.0
 11
69.2593103044
 21
150.705131636
 31
0.0
  0
LINE
  5
11E
330
1F
100
AcDbEntity
  8
0
  6
HIDDEN
 62
     7
370
     0
100
AcDbLine
 10
61.8593098365
 20
178.7051325003
 30
0.0
 11
61.8593098365
 21
150.705131636
 31
0.0
  0
LINE
  5
11F
330
1F
100
AcDbEntity
  8
0
  6
HIDDEN
 62
     7
370
     0
100
AcDbLine
 10
62.8593100004
 20
178.7051325003
 30
0.0
 11
62.8593100004
 21
150.705131636
 31
0.0
  0
SPLINE
  5
120
330
1F
100
AcDbEntity
  8
0
  6
HIDDEN
 62
     7
370
     0
100
AcDbSpline
210
0.0
220
0.0
230
1.0
 70
     8
 71
     3
 72
    10
 73
     6
 74
     0
 42
0.00000001
 43
0.00000001
 12
1.0
 22
0.0
 32
0.0
 13
1.0
 23
0.0
 33
0.0
 40
0.0
 40
0.0
 40
0.0
 40
0.0
 40
0.5
 40
0.5
 40
1.0
 40
1.0
 40
1.0
 40
1.0
 10
81.92908130510688
 20
165.3395609451751
 30
0.0
 10
81.96222872318332
 20
165.1305703441671
 30
0.0
 10
81.97908756854495
 20
164.9190078781455
 30
0.0
 10
81.9790750381973
 20
164.4910191121779
 30
0.0
 10
81.9621600804569
 20
164.2792610077622
 30
0.0
 10
81.92908130510688
 20
164.0707031911301
 30
0.0
  0
LINE
  5
121
330
1F
100
AcDbEntity
  8
0
  6
HIDDEN
 62
     7
370
     0
100
AcDbLine
 10
82.4290813647
 20
178.2051324183
 30
0.0
 11
82.4290813647
 21
151.205131718
 31
0.0
  0
SPLINE
  5
122
330
1F
100
AcDbEntity
  8
0
  6
HIDDEN
 62
     7
370
     0
100
AcDbSpline
210
0.0
220
0.0
230
1.0
 70
     8
 71
     3
 72
    10
 73
     6
 74
     0
 42
0.00000001
 43
0.00000001
 12
1.0
 22
0.0
 32
0.0
 13
1.0
 23
0.0
 33
0.0
 40
0.0
 40
0.0
 40
0.0
 40
0.0
 40
0.5
 40
0.5
 40
1.0
 40
1.0
 40
1.0
 40
1.0
 10
81.92908130510688
 20
164.0707031911301
 30
0.0
 10
81.96227026758058
 20
164.2799557247126
 30
0.0
 10
81.97897104383523
 20
164.4907724856116
 30
0.0
 10
81.97919048427988
 20
164.9153047668148
 30
0.0
 10
81.96231076888648
 20
165.1300530555874
 30
0.0
 10
81.92908130510688
 20
165.3395609451751
 30
0.0
  0
SPLINE
  5
123
330
1F
100
AcDbEntity
  8
0
  6
HIDDEN
 62
     7
370
     0
100
AcDbSpline
210
0.0
220
0.0
230
1.0
 70
     8
 71
     3
 72
    68
 73
    64
 74
     0
 42
0.00000001
 43
0.00000001
 12
1.0
 22
0.0
 32
0.0
 13
1.0
 23
0.0
 33
0.0
 40
0.0
 40
0.0
 40
0.0
 40
0.0
 40
0.0312499999999999
 40
0.0312499999999999
 40
0.0624999999999998
 40
0.0624999999999998
 40
0.0937499999999996
 40
0.0937499999999996
 40
0.1249999999999995
 40
0.1249999999999995
 40
0.1562499999999994
 40
0.1562499999999994
 40
0.1874999999999993
 40
0.1874999999999993
 40
0.2187499999999992
 40
0.2187499999999992
 40
0.2499999999999991
 40
0.2499999999999991
 40
0.2812499999999992
 40
0.2812499999999992
 40
0.3124999999999993
 40
0.3124999999999993
 40
0.3437499999999994
 40
0.3437499999999994
 40
0.3749999999999994
 40
0.3749999999999994
 40
0.4062499999999996
 40
0.4062499999999996
 40
0.4374999999999997
 40
0.4374999999999997
 40
0.4687499999999999
 40
0.4687499999999999
 40
0.5
 40
0.5
 40
0.5625000000000003
 40
0.5625000000000003
 40
0.5937500000000004
 40
0.5937500000000004
 40
0.6250000000000006
 40
0.6250000000000006
 40
0.6562500000000007
 40
0.6562500000000007
 40
0.6875000000000008
 40
0.6875000000000008
 40
0.7187500000000009
 40
0.7187500000000009
 40
0.7500000000000009
 40
0.7500000000000009
 40
0.7812500000000008
 40
0.7812500000000008
 40
0.8125000000000007
 40
0.8125000000000007
 40
0.8437500000000006
 40
0.8437500000000006
 40
0.8750000000000004
 40
0.8750000000000004
 40
0.9062500000000003
 40
0.9062500000000003
 40
0.9375000000000002
 40
0.9375000000000002
 40
0.9687500000000001
 40
0.9687500000000001
 40
1.0
 40
1.0
 40
1.0
 40
1.0
 10
81.92908130510688
 20
164.0707031911301
 30
0.0
 10
81.88906635275718
 20
163.8184135883145
 30
0.0
 10
81.82612455134587
 20
163.5744147379388
 30
0.0
 10
81.65673788927381
 20
163.1019963488762
 30
0.0
 10
81.54904432668835
 20
162.8715829627163
 30
0.0
 10
81.29375955815047
 20
162.4368783669192
 30
0.0
 10
81.14772032767823
 20
162.2342364002679
 30
0.0
 10
80.81949889111897
 20
161.85724710951
 30
0.0
 10
80.63525160334399
 20
161.6815891559327
 30
0.0
 10
80.2422914360357
 20
161.3713311869864
 30
0.0
 10
80.03299683907653
 20
161.2353859793365
 30
0.0
 10
79.58811141213917
 20
161.0019958839306
 30
0.0
 10
79.35131381964014
 20
160.9047492775163
 30
0.0
 10
78.87057875072087
 20
160.7580778196449
 30
0.0
 10
78.6243356575381
 20
160.7071854747025
 30
0.0
 10
78.11961887755866
 20
160.651658124467
 30
0.0
 10
77.86342417662217
 20
160.647833237397
 30
0.0
 10
77.36104542742207
 20
160.6872570200414
 30
0.0
 10
77.11179572823846
 20
160.7302844692527
 30
0.0
 10
76.62026793075971
 20
160.863989438704
 30
0.0
 10
76.38497232953387
 20
160.9526592846092
 30
0.0
 10
75.93405843487174
 20
161.1716906483866
 30
0.0
 10
75.71644608440837
 20
161.3036922140701
 30
0.0
 10
75.31323891486007
 20
161.603049495073
 30
0.0
 10
75.12762742242565
 20
161.7696684225109
 30
0.0
 10
74.78763935202315
 20
162.1367798479384
 30
0.0
 10
74.63256642120022
 20
162.3390835934791
 30
0.0
 10
74.36622334453688
 20
162.7631642730731
 30
0.0
 10
74.25323924382009
 20
162.9863238785393
 30
0.0
 10
74.06838398688922
 20
163.4556791201335
 30
0.0
 10
73.99724322538582
 20
163.701889623469
 30
0.0
 10
73.90328281409765
 20
164.1964154498401
 30
0.0
 10
73.87927348414127
 20
164.4473464449322
 30
0.0
 10
73.8787003634687
 20
165.2115918244884
 30
0.0
 10
73.9740994747873
 20
165.7138161265393
 30
0.0
 10
74.25196326698843
 20
166.4213806328117
 30
0.0
 10
74.36512522306899
 20
166.6450868965526
 30
0.0
 10
74.63125640511285
 20
167.0693568078731
 30
0.0
 10
74.78608417931257
 20
167.2716087699292
 30
0.0
 10
75.12626528510039
 20
167.6393195112973
 30
0.0
 10
75.31176774205012
 20
167.8059363865467
 30
0.0
 10
75.71406154310947
 20
168.1049857653421
 30
0.0
 10
75.93206959136147
 20
168.2374424733705
 30
0.0
 10
76.38266795851176
 20
168.4566488740752
 30
0.0
 10
76.61721695739253
 20
168.5451340040789
 30
0.0
 10
77.10567695094485
 20
168.6786202340175
 30
0.0
 10
77.35794234665872
 20
168.7225619465113
 30
0.0
 10
77.86012298481899
 20
168.7623709429847
 30
0.0
 10
78.11260510217069
 20
168.7590267301712
 30
0.0
 10
78.62047014524018
 20
168.7038474101807
 30
0.0
 10
78.868015618424
 20
168.6528014817113
 30
0.0
 10
79.34898315589471
 20
168.5063910934757
 30
0.0
 10
79.58494302099997
 20
168.4097448887021
 30
0.0
 10
80.03151347052157
 20
168.1758399443891
 30
0.0
 10
80.24115833309504
 20
168.0397149305626
 30
0.0
 10
80.6341450398495
 20
167.7296606662335
 30
0.0
 10
80.8185409436645
 20
167.5540034186583
 30
0.0
 10
81.14709136152489
 20
167.1768634959939
 30
0.0
 10
81.29303345804807
 20
166.9743972907241
 30
0.0
 10
81.54791881325022
 20
166.5408209925907
 30
0.0
 10
81.65623012605855
 20
166.3095291490092
 30
0.0
 10
81.8260651034755
 20
165.8361694688759
 30
0.0
 10
81.88906046461254
 20
165.5918876720552
 30
0.0
 10
81.92908130510688
 20
165.3395609451751
 30
0.0
  0
SPLINE
  5
124
330
1F
100
AcDbEntity
  8
0
  6
HIDDEN
 62
     7
370
     0
100
AcDbSpline
210
0.0
220
0.0
230
1.0
 70
     8
 71
     3
 72
    68
 73
    64
 74
     0
 42
0.00000001
 43
0.00000001
 12
1.0
 22
0.0
 32
0.0
 13
1.0
 23
0.0
 33
0.0
 40
0.0
 40
0.0
 40
0.0
 40
0.0
 40
0.0312500000000002
 40
0.0312500000000002
 40
0.0625000000000004
 40
0.0625000000000004
 40
0.0937500000000007
 40
0.0937500000000007
 40
0.1250000000000009
 40
0.1250000000000009
 40
0.1562500000000011
 40
0.1562500000000011
 40
0.1875000000000014
 40
0.1875000000000014
 40
0.2187500000000016
 40
0.2187500000000016
 40
0.2500000000000018
 40
0.2500000000000018
 40
0.2812500000000019
 40
0.2812500000000019
 40
0.3125000000000018
 40
0.3125000000000018
 40
0.3437500000000018
 40
0.3437500000000018
 40
0.3750000000000018
 40
0.3750000000000018
 40
0.4062500000000018
 40
0.4062500000000018
 40
0.4375000000000018
 40
0.4375000000000018
 40
0.4687500000000018
 40
0.4687500000000018
 40
0.5000000000000018
 40
0.5000000000000018
 40
0.5625000000000018
 40
0.5625000000000018
 40
0.5937500000000017
 40
0.5937500000000017
 40
0.6250000000000014
 40
0.6250000000000014
 40
0.6562500000000013
 40
0.6562500000000013
 40
0.6875000000000012
 40
0.6875000000000012
 40
0.7187500000000011
 40
0.7187500000000011
 40
0.750000000000001
 40
0.750000000000001
 40
0.7812500000000009
 40
0.7812500000000009
 40
0.8125000000000008
 40
0.8125000000000008
 40
0.8437500000000007
 40
0.8437500000000007
 40
0.8750000000000004
 40
0.8750000000000004
 40
0.9062500000000003
 40
0.9062500000000003
 40
0.9375000000000002
 40
0.9375000000000002
 40
0.9687500000000001
 40
0.9687500000000001
 40
1.0
 40
1.0
 40
1.0
 40
1.0
 10
81.92908130510688
 20
165.3395609451751
 30
0.0
 10
81.88906635275718
 20
165.5918505479907
 30
0.0
 10
81.82612455134588
 20
165.8358493983665
 30
0.0
 10
81.65673788927381
 20
166.3082677874291
 30
0.0
 10
81.54904432668833
 20
166.538681173589
 30
0.0
 10
81.29375955815046
 20
166.9733857693861
 30
0.0
 10
81.14772032767821
 20
167.1760277360374
 30
0.0
 10
80.81949889111897
 20
167.5530170267952
 30
0.0
 10
80.63525160334399
 20
167.7286749803726
 30
0.0
 10
80.2422914360357
 20
168.0389329493188
 30
0.0
 10
80.03299683907656
 20
168.1748781569687
 30
0.0
 10
79.5881114121392
 20
168.4082682523746
 30
0.0
 10
79.35131381964017
 20
168.505514858789
 30
0.0
 10
78.8705787507209
 20
168.6521863166604
 30
0.0
 10
78.6243356575381
 20
168.7030786616028
 30
0.0
 10
78.11961887755866
 20
168.7586060118383
 30
0.0
 10
77.86342417662219
 20
168.7624308989082
 30
0.0
 10
77.36104542742208
 20
168.7230071162638
 30
0.0
 10
77.11179572823848
 20
168.6799796670525
 30
0.0
 10
76.62026793075974
 20
168.5462746976013
 30
0.0
 10
76.38497232953387
 20
168.4576048516961
 30
0.0
 10
75.93405843487174
 20
168.2385734879186
 30
0.0
 10
75.71644608440837
 20
168.1065719222351
 30
0.0
 10
75.31323891486007
 20
167.8072146412322
 30
0.0
 10
75.12762742242565
 20
167.6405957137943
 30
0.0
 10
74.78763935202315
 20
167.2734842883669
 30
0.0
 10
74.63256642120024
 20
167.0711805428262
 30
0.0
 10
74.36622334453688
 20
166.6470998632321
 30
0.0
 10
74.2532392438201
 20
166.4239402577659
 30
0.0
 10
74.06838398688922
 20
165.9545850161718
 30
0.0
 10
73.99724322538582
 20
165.7083745128363
 30
0.0
 10
73.90328281409764
 20
165.2138486864651
 30
0.0
 10
73.87927348414125
 20
164.9629176913731
 30
0.0
 10
73.87870036346868
 20
164.1986723118169
 30
0.0
 10
73.9740994747873
 20
163.6964480097659
 30
0.0
 10
74.25196326698843
 20
162.9888835034935
 30
0.0
 10
74.36512522306897
 20
162.7651772397527
 30
0.0
 10
74.63125640511285
 20
162.3409073284321
 30
0.0
 10
74.78608417931257
 20
162.1386553663761
 30
0.0
 10
75.12626528510039
 20
161.7709446250079
 30
0.0
 10
75.31176774205012
 20
161.6043277497585
 30
0.0
 10
75.71406154310947
 20
161.3052783709631
 30
0.0
 10
75.93206959136147
 20
161.1728216629347
 30
0.0
 10
76.38266795851176
 20
160.95361526223
 30
0.0
 10
76.61721695739251
 20
160.8651301322264
 30
0.0
 10
77.10567695094485
 20
160.7316439022877
 30
0.0
 10
77.35794234665872
 20
160.687702189794
 30
0.0
 10
77.860122984819
 20
160.6478931933205
 30
0.0
 10
78.11260510217069
 20
160.651237406134
 30
0.0
 10
78.62047014524019
 20
160.7064167261245
 30
0.0
 10
78.868015618424
 20
160.757462654594
 30
0.0
 10
79.34898315589471
 20
160.9038730428295
 30
0.0
 10
79.58494302099997
 20
161.0005192476031
 30
0.0
 10
80.03151347052159
 20
161.2344241919162
 30
0.0
 10
80.24115833309504
 20
161.3705492057427
 30
0.0
 10
80.6341450398495
 20
161.6806034700718
 30
0.0
 10
80.8185409436645
 20
161.8562607176469
 30
0.0
 10
81.14709136152489
 20
162.2334006403113
 30
0.0
 10
81.29303345804806
 20
162.4358668455812
 30
0.0
 10
81.54791881325023
 20
162.8694431437145
 30
0.0
 10
81.65623012605853
 20
163.1007349872961
 30
0.0
 10
81.8260651034755
 20
163.5740946674293
 30
0.0
 10
81.88906046461254
 20
163.8183764642501
 30
0.0
 10
81.92908130510688
 20
164.0707031911301
 30
0.0
  0
SPLINE
  5
125
330
1F
100
AcDbEntity
  8
0
  6
HIDDEN
 62
     7
370
     0
100
AcDbSpline
210
0.0
220
0.0
230
1.0
 70
     8
 71
     3
 72
    14
 73
    10
 74
     0
 42
0.00000001
 43
0.00000001
 12
1.0
 22
0.0
 32
0.0
 13
1.0
 23
0.0
 33
0.0
 40
0.0
 40
0.0
 40
0.0
 40
0.0
 40
0.25
 40
0.25
 40
0.5
 40
0.5
 40
0.75
 40
0.75
 40
1.0
 40
1.0
 40
1.0
 40
1.0
 10
213.4290813051069
 20
162.7978276234292
 30
0.0
 10
213.4609465578268
 20
162.9043764727066
 30
0.0
 10
213.4859137869076
 20
163.011782335751
 30
0.0
 10
213.5201225253826
 20
163.2286776260377
 30
0.0
 10
213.5290692605709
 20
163.3382239230427
 30
0.0
 10
213.5290933246021
 20
163.5478176969299
 30
0.0
 10
213.5202605281677
 20
163.6504789248761
 30
0.0
 10
213.4859904171826
 20
163.8435104159247
 30
0.0
 10
213.4609621852852
 20
163.9329645532845
 30
0.0
 10
213.4290813051069
 20
164.0157742295608
 30
0.0
  0
SPLINE
  5
126
330
1F
100
AcDbEntity
  8
0
  6
HIDDEN
 62
     7
370
     0
100
AcDbSpline
210
0.0
220
0.0
230
1.0
 70
     8
 71
     3
 72
    50
 73
    46
 74
     0
 42
0.00000001
 43
0.00000001
 12
1.0
 22
0.0
 32
0.0
 13
1.0
 23
0.0
 33
0.0
 40
0.0
 40
0.0
 40
0.0
 40
0.0
 40
0.0625000000000019
 40
0.0625000000000019
 40
0.1250000000000038
 40
0.1250000000000038
 40
0.1562500000000034
 40
0.1562500000000034
 40
0.1875000000000029
 40
0.1875000000000029
 40
0.2187500000000024
 40
0.2187500000000024
 40
0.250000000000002
 40
0.250000000000002
 40
0.2812500000000015
 40
0.2812500000000015
 40
0.312500000000001
 40
0.312500000000001
 40
0.3750000000000001
 40
0.3750000000000001
 40
0.4374999999999992
 40
0.4374999999999992
 40
0.4999999999999983
 40
0.4999999999999983
 40
0.5312499999999979
 40
0.5312499999999979
 40
0.5624999999999973
 40
0.5624999999999973
 40
0.5937499999999969
 40
0.5937499999999969
 40
0.6249999999999963
 40
0.6249999999999963
 40
0.6874999999999953
 40
0.6874999999999953
 40
0.7499999999999942
 40
0.7499999999999942
 40
0.8124999999999931
 40
0.8124999999999931
 40
0.8437499999999943
 40
0.8437499999999943
 40
0.8749999999999954
 40
0.8749999999999954
 40
0.9374999999999978
 40
0.9374999999999978
 40
1.0
 40
1.0
 40
1.0
 40
1.0
 10
213.4290813051068
 20
164.0157742295608
 30
0.0
 10
213.3522178877548
 20
164.2554113303547
 30
0.0
 10
213.2362734947079
 20
164.4786506927701
 30
0.0
 10
212.9334351385274
 20
164.8861235365198
 30
0.0
 10
212.751862370866
 20
165.062663664281
 30
0.0
 10
212.439294141111
 20
165.2766743148489
 30
0.0
 10
212.3303175613359
 20
165.3381008673089
 30
0.0
 10
212.1022739137762
 20
165.4404812164247
 30
0.0
 10
211.9819482294835
 20
165.4817182095526
 30
0.0
 10
211.7356219022238
 20
165.5394840270665
 30
0.0
 10
211.6113997962688
 20
165.5558477010917
 30
0.0
 10
211.3608213151214
 20
165.5635169339676
 30
0.0
 10
211.232913283011
 20
165.5544580892605
 30
0.0
 10
210.9840466525961
 20
165.5112474130406
 30
0.0
 10
210.8630581702857
 20
165.4775190443253
 30
0.0
 10
210.6275113721737
 20
165.3871248146446
 30
0.0
 10
210.513200880553
 20
165.3302582948253
 30
0.0
 10
210.1918137768049
 20
165.1332593000458
 30
0.0
 10
209.999183723891
 20
164.9625394619822
 30
0.0
 10
209.6811258134563
 20
164.5736661900482
 30
0.0
 10
209.5518166486714
 20
164.3501213292873
 30
0.0
 10
209.3772129208759
 20
163.8850913974538
 30
0.0
 10
209.3297937913888
 20
163.6362270617141
 30
0.0
 10
209.3287374609418
 20
163.2780087323935
 30
0.0
 10
209.3398334461085
 20
163.1586488763003
 30
0.0
 10
209.3844159671174
 20
162.9291908027867
 30
0.0
 10
209.4174700458047
 20
162.8196977664157
 30
0.0
 10
209.5043290017501
 20
162.6102934176757
 30
0.0
 10
209.5586157674279
 20
162.5100538693909
 30
0.0
 10
209.6838029331669
 20
162.3256012765657
 30
0.0
 10
209.7550123392303
 20
162.2403588089736
 30
0.0
 10
209.9948241071432
 20
162.0037492532536
 30
0.0
 10
210.183593042895
 20
161.8767673587872
 30
0.0
 10
210.6148092625772
 20
161.6817597190161
 30
0.0
 10
210.8484576256123
 20
161.6174629745519
 30
0.0
 10
211.3489087657863
 20
161.5554086260591
 30
0.0
 10
211.6034939645267
 20
161.5598213851185
 30
0.0
 10
211.9747666828285
 20
161.6192261089913
 30
0.0
 10
212.093985502242
 20
161.6473872445017
 30
0.0
 10
212.3241932530802
 20
161.7202813104124
 30
0.0
 10
212.4358287082242
 20
161.7654878630742
 30
0.0
 10
212.7480827080603
 20
161.9228124940456
 30
0.0
 10
212.9328112269958
 20
162.0598394735622
 30
0.0
 10
213.2333254990326
 20
162.3872263772332
 30
0.0
 10
213.3521145863058
 20
162.5805118898724
 30
0.0
 10
213.4290813051068
 20
162.7978276234292
 30
0.0
  0
SPLINE
  5
127
330
1F
100
AcDbEntity
  8
0
  6
HIDDEN
 62
     7
370
     0
100
AcDbSpline
210
0.0
220
0.0
230
1.0
 70
     8
 71
     3
 72
    64
 73
    60
 74
     0
 42
0.00000001
 43
0.00000001
 12
1.0
 22
0.0
 32
0.0
 13
1.0
 23
0.0
 33
0.0
 40
0.0
 40
0.0
 40
0.0
 40
0.0
 40
0.0312499999999981
 40
0.0312499999999981
 40
0.0624999999999963
 40
0.0624999999999963
 40
0.1249999999999926
 40
0.1249999999999926
 40
0.1562499999999912
 40
0.1562499999999912
 40
0.1874999999999899
 40
0.1874999999999899
 40
0.2187499999999886
 40
0.2187499999999886
 40
0.2499999999999873
 40
0.2499999999999873
 40
0.281249999999986
 40
0.281249999999986
 40
0.3124999999999847
 40
0.3124999999999847
 40
0.3437499999999834
 40
0.3437499999999834
 40
0.3749999999999821
 40
0.3749999999999821
 40
0.4062499999999808
 40
0.4062499999999808
 40
0.4374999999999796
 40
0.4374999999999796
 40
0.4687499999999784
 40
0.4687499999999784
 40
0.4999999999999771
 40
0.4999999999999771
 40
0.5156249999999768
 40
0.5156249999999768
 40
0.5312499999999764
 40
0.5312499999999764
 40
0.5624999999999765
 40
0.5624999999999765
 40
0.5937499999999765
 40
0.5937499999999765
 40
0.6249999999999765
 40
0.6249999999999765
 40
0.6874999999999789
 40
0.6874999999999789
 40
0.7187499999999811
 40
0.7187499999999811
 40
0.7499999999999833
 40
0.7499999999999833
 40
0.7812499999999857
 40
0.7812499999999857
 40
0.8124999999999879
 40
0.8124999999999879
 40
0.8749999999999926
 40
0.8749999999999926
 40
0.937499999999997
 40
0.937499999999997
 40
0.9687499999999986
 40
0.9687499999999986
 40
1.0
 40
1.0
 40
1.0
 40
1.0
 10
212.5365989260319
 20
163.3962134124613
 30
0.0
 10
212.6552595191624
 20
163.3395625223639
 30
0.0
 10
212.7538454815961
 20
163.28807268333
 30
0.0
 10
212.9330842689473
 20
163.179983200639
 30
0.0
 10
213.0128152429963
 20
163.1236470474086
 30
0.0
 10
213.2254262691514
 20
162.9432421979996
 30
0.0
 10
213.3366112938747
 20
162.8052265738521
 30
0.0
 10
213.4539201883338
 20
162.5541843528935
 30
0.0
 10
213.4839014365899
 20
162.4645019589215
 30
0.0
 10
213.5231029277064
 20
162.2698103945831
 30
0.0
 10
213.5321617420229
 20
162.163596274457
 30
0.0
 10
213.52409212857
 20
161.9406165084362
 30
0.0
 10
213.5069589729972
 20
161.8217454464127
 30
0.0
 10
213.4431506814954
 20
161.575832346567
 30
0.0
 10
213.3975288791143
 20
161.4517185324324
 30
0.0
 10
213.2774611796011
 20
161.2006111105356
 30
0.0
 10
213.2038358952789
 20
161.0762660569544
 30
0.0
 10
213.0388145685108
 20
160.8411925719722
 30
0.0
 10
212.9463429129464
 20
160.728895480141
 30
0.0
 10
212.7542336825092
 20
160.5237696597095
 30
0.0
 10
212.6526196340619
 20
160.4287253506758
 30
0.0
 10
212.4500414180828
 20
160.2585320248417
 30
0.0
 10
212.3481393029959
 20
160.182311624697
 30
0.0
 10
212.1443742405046
 20
160.0438256096222
 30
0.0
 10
212.0427326040303
 20
159.9818795779243
 30
0.0
 10
211.8473013149253
 20
159.8722902855603
 30
0.0
 10
211.7525798250603
 20
159.8241190886719
 30
0.0
 10
211.5723902075829
 20
159.7368640123742
 30
0.0
 10
211.4860715159349
 20
159.6977126603748
 30
0.0
 10
211.3355792790992
 20
159.622994548621
 30
0.0
 10
211.2702714139479
 20
159.5871936552904
 30
0.0
 10
211.218936682591
 20
159.5271876562736
 30
0.0
 10
211.2099796449698
 20
159.5056040527306
 30
0.0
 10
211.2137159197583
 20
159.4609098728565
 30
0.0
 10
211.2259935617602
 20
159.4379152992589
 30
0.0
 10
211.2894883254961
 20
159.3686121274154
 30
0.0
 10
211.3626109862098
 20
159.3254875611523
 30
0.0
 10
211.530682099674
 20
159.2543773536887
 30
0.0
 10
211.6245084926231
 20
159.2268951692026
 30
0.0
 10
211.820896071674
 20
159.1900975014212
 30
0.0
 10
211.9240833383507
 20
159.1807510742541
 30
0.0
 10
212.2410702443348
 20
159.1852239697452
 30
0.0
 10
212.4539517590295
 20
159.2295880640176
 30
0.0
 10
212.7656004153917
 20
159.3834763377255
 30
0.0
 10
212.865223789637
 20
159.4484694896747
 30
0.0
 10
213.0510107784832
 20
159.6079082068655
 30
0.0
 10
213.1380973343554
 20
159.7039339580834
 30
0.0
 10
213.2868180460215
 20
159.9183419018542
 30
0.0
 10
213.3505636270677
 20
160.0393454315366
 30
0.0
 10
213.4497895249694
 20
160.2995899221831
 30
0.0
 10
213.4846955928917
 20
160.4360150217697
 30
0.0
 10
213.5477215540656
 20
160.8628291589707
 30
0.0
 10
213.5308351264846
 20
161.1563923265431
 30
0.0
 10
213.4117334282866
 20
161.7073501704015
 30
0.0
 10
213.3093650251234
 20
161.9711020646129
 30
0.0
 10
213.1050278851052
 20
162.3292458227054
 30
0.0
 10
213.0283235779794
 20
162.443003918455
 30
0.0
 10
212.8517900337743
 20
162.6592211892998
 30
0.0
 10
212.7543480135329
 20
162.7594764210891
 30
0.0
 10
212.6402926978988
 20
162.8483133051559
 30
0.0
  0
SPLINE
  5
128
330
1F
100
AcDbEntity
  8
0
  6
HIDDEN
 62
     7
370
     0
100
AcDbSpline
210
0.0
220
0.0
230
1.0
 70
     8
 71
     3
 72
    10
 73
     6
 74
     0
 42
0.00000001
 43
0.00000001
 12
1.0
 22
0.0
 32
0.0
 13
1.0
 23
0.0
 33
0.0
 40
0.0
 40
0.0
 40
0.0
 40
0.0
 40
0.5
 40
0.5
 40
1.0
 40
1.0
 40
1.0
 40
1.0
 10
212.6402926978986
 20
162.8483133051558
 30
0.0
 10
212.5798485241532
 20
162.9670183238311
 30
0.0
 10
212.535208200244
 20
163.0719584422924
 30
0.0
 10
212.4984479057742
 20
163.2547838741646
 30
0.0
 10
212.5072927266539
 20
163.3323552243836
 30
0.0
 10
212.5365989260322
 20
163.3962134124615
 30
0.0
  0
LWPOLYLINE
  5
129
330
1F
100
AcDbEntity
  8
0
  6
HIDDEN
 62
     7
370
     0
100
AcDbPolyline
 90
       20
 70
   128
 43
0.0
 10
211.4290820204
 20
158.6906923251
 10
212.110951706
 20
158.7989073517
 10
212.7189265333
 20
159.1118247518
 10
213.1871284686
 20
159.595536002
 10
213.464819058
 20
160.1976230079
 10
213.5219054066
 20
160.8528401042
 10
213.3522035323
 20
161.4901846545
 10
212.9741014682
 20
162.0405904753
 10
212.4285699569
 20
162.4444126422
 10
211.7747293554
 20
162.6578904027
 10
211.0834346853
 20
162.6578904027
 10
210.4295940839
 20
162.4444126422
 10
209.8840625726
 20
162.0405904753
 10
209.5059605084
 20
161.4901846545
 10
209.3362511836
 20
160.8528401042
 10
209.3933375321
 20
160.1976230079
 10
209.6710281216
 20
159.595536002
 10
210.1392375074
 20
159.1118247518
 10
210.7472123347
 20
158.7989073517
 10
211.4290820204
 20
158.6906923251
  0
LWPOLYLINE
  5
12A
330
1F
100
AcDbEntity
  8
0
  6
HIDDEN
 62
     7
370
     0
100
AcDbPolyline
 90
        9
 70
   128
 43
0.0
 10
212.5365959249
 20
163.3962133704
 10
212.578714057
 20
163.3856971087
 10
212.6129345737
 20
163.357723671
 10
212.6389445506
 20
163.3125483561
 10
212.6565130196
 20
163.2505832743
 10
212.6654686175
 20
163.1723938547
 10
212.665744289
 20
163.0786934905
 10
212.6573251329
 20
162.9703370193
 10
212.6402931057
 20
162.8483132729
  0
LINE
  5
12B
330
1F
100
AcDbEntity
  8
0
  6
HIDDEN
 62
     7
370
     0
100
AcDbLine
 10
83.6790811039
 20
173.7051316807
 30
0.0
 11
83.6790811039
 21
155.7051324556
 31
0.0
  0
LINE
  5
12C
330
1F
100
AcDbEntity
  8
0
  6
HIDDEN
 62
     7
370
     0
100
AcDbLine
 10
82.4290813647
 20
154.455131785
 30
0.0
 11
82.4290813647
 21
174.9551323513
 31
0.0
  0
LINE
  5
12D
330
1F
100
AcDbEntity
  8
0
  6
HIDDEN
 62
     7
370
     0
100
AcDbLine
 10
109.4290820651
 20
173.7051316807
 30
0.0
 11
109.4290820651
 21
155.7051324556
 31
0.0
  0
LINE
  5
12E
330
1F
100
AcDbEntity
  8
0
  6
HIDDEN
 62
     7
370
     0
100
AcDbLine
 10
112.2831685237
 20
168.9551322991
 30
0.0
 11
112.2831685237
 21
160.4551318372
 31
0.0
  0
SPLINE
  5
12F
330
1F
100
AcDbEntity
  8
0
  6
HIDDEN
 62
     7
370
     0
100
AcDbSpline
210
0.0
220
0.0
230
1.0
 70
     8
 71
     3
 72
    14
 73
    10
 74
     0
 42
0.00000001
 43
0.00000001
 12
1.0
 22
0.0
 32
0.0
 13
1.0
 23
0.0
 33
0.0
 40
0.0
 40
0.0
 40
0.0
 40
0.0
 40
0.2499999999999998
 40
0.2499999999999998
 40
0.4999999999999997
 40
0.4999999999999997
 40
0.7499999999999997
 40
0.7499999999999997
 40
1.0
 40
1.0
 40
1.0
 40
1.0
 10
213.4290813051069
 20
166.612436512876
 30
0.0
 10
213.4609465578267
 20
166.5058876635988
 30
0.0
 10
213.4859137869075
 20
166.3984818005543
 30
0.0
 10
213.5201225253827
 20
166.1815865102674
 30
0.0
 10
213.5290692605709
 20
166.0720402132625
 30
0.0
 10
213.5290933246021
 20
165.8624464393752
 30
0.0
 10
213.5202605281677
 20
165.7597852114287
 30
0.0
 10
213.4859904171825
 20
165.5667537203804
 30
0.0
 10
213.4609621852852
 20
165.4772995830207
 30
0.0
 10
213.4290813051069
 20
165.3944899067444
 30
0.0
  0
LINE
  5
130
330
1F
100
AcDbEntity
  8
0
  6
HIDDEN
 62
     7
370
     0
100
AcDbLine
 10
213.4290786229
 20
164.015774258
 30
0.0
 11
213.4290786229
 21
168.9551322991
 31
0.0
  0
LINE
  5
131
330
1F
100
AcDbEntity
  8
0
  6
HIDDEN
 62
     7
370
     0
100
AcDbLine
 10
213.4290786229
 20
165.3944898783
 30
0.0
 11
213.4290786229
 21
160.4551318372
 31
0.0
  0
SPLINE
  5
132
330
1F
100
AcDbEntity
  8
0
  6
HIDDEN
 62
     7
370
     0
100
AcDbSpline
210
0.0
220
0.0
230
1.0
 70
     8
 71
     3
 72
    50
 73
    46
 74
     0
 42
0.00000001
 43
0.00000001
 12
1.0
 22
0.0
 32
0.0
 13
1.0
 23
0.0
 33
0.0
 40
0.0
 40
0.0
 40
0.0
 40
0.0
 40
0.0625000000000001
 40
0.0625000000000001
 40
0.1250000000000002
 40
0.1250000000000002
 40
0.1562500000000003
 40
0.1562500000000003
 40
0.1875000000000004
 40
0.1875000000000004
 40
0.2187500000000004
 40
0.2187500000000004
 40
0.2500000000000005
 40
0.2500000000000005
 40
0.2812500000000006
 40
0.2812500000000006
 40
0.3125000000000006
 40
0.3125000000000006
 40
0.3750000000000008
 40
0.3750000000000008
 40
0.4375000000000009
 40
0.4375000000000009
 40
0.500000000000001
 40
0.500000000000001
 40
0.5312500000000011
 40
0.5312500000000011
 40
0.5625000000000011
 40
0.5625000000000011
 40
0.5937500000000012
 40
0.5937500000000012
 40
0.6250000000000012
 40
0.6250000000000012
 40
0.6875000000000036
 40
0.6875000000000036
 40
0.750000000000006
 40
0.750000000000006
 40
0.8125000000000083
 40
0.8125000000000083
 40
0.8437500000000078
 40
0.8437500000000078
 40
0.8750000000000073
 40
0.8750000000000073
 40
0.9375000000000037
 40
0.9375000000000037
 40
1.0
 40
1.0
 40
1.0
 40
1.0
 10
213.4290813051068
 20
165.3944899067445
 30
0.0
 10
213.3522178877548
 20
165.1548528059506
 30
0.0
 10
213.2362734947079
 20
164.9316134435352
 30
0.0
 10
212.9334351385273
 20
164.5241405997855
 30
0.0
 10
212.751862370866
 20
164.3476004720243
 30
0.0
 10
212.4392941411111
 20
164.1335898214564
 30
0.0
 10
212.3303175613359
 20
164.0721632689964
 30
0.0
 10
212.1022739137762
 20
163.9697829198805
 30
0.0
 10
211.9819482294835
 20
163.9285459267526
 30
0.0
 10
211.7356219022238
 20
163.8707801092388
 30
0.0
 10
211.6113997962688
 20
163.8544164352136
 30
0.0
 10
211.3608213151214
 20
163.8467472023377
 30
0.0
 10
211.232913283011
 20
163.8558060470447
 30
0.0
 10
210.9840466525962
 20
163.8990167232647
 30
0.0
 10
210.8630581702857
 20
163.93274509198
 30
0.0
 10
210.6275113721737
 20
164.0231393216606
 30
0.0
 10
210.513200880553
 20
164.08000584148
 30
0.0
 10
210.1918137768049
 20
164.2770048362594
 30
0.0
 10
209.999183723891
 20
164.4477246743231
 30
0.0
 10
209.6811258134563
 20
164.8365979462571
 30
0.0
 10
209.5518166486715
 20
165.0601428070179
 30
0.0
 10
209.3772129208759
 20
165.5251727388515
 30
0.0
 10
209.3297937913887
 20
165.7740370745911
 30
0.0
 10
209.3287374609418
 20
166.1322554039117
 30
0.0
 10
209.3398334461085
 20
166.2516152600049
 30
0.0
 10
209.3844159671174
 20
166.4810733335186
 30
0.0
 10
209.4174700458047
 20
166.5905663698896
 30
0.0
 10
209.50432900175
 20
166.7999707186296
 30
0.0
 10
209.5586157674279
 20
166.9002102669143
 30
0.0
 10
209.6838029331668
 20
167.0846628597395
 30
0.0
 10
209.7550123392303
 20
167.1699053273317
 30
0.0
 10
209.9948241071432
 20
167.4065148830517
 30
0.0
 10
210.183593042895
 20
167.533496777518
 30
0.0
 10
210.6148092625772
 20
167.7285044172892
 30
0.0
 10
210.8484576256123
 20
167.7928011617534
 30
0.0
 10
211.3489087657863
 20
167.8548555102462
 30
0.0
 10
211.6034939645268
 20
167.8504427511868
 30
0.0
 10
211.9747666828285
 20
167.791038027314
 30
0.0
 10
212.093985502242
 20
167.7628768918036
 30
0.0
 10
212.3241932530802
 20
167.6899828258929
 30
0.0
 10
212.4358287082242
 20
167.6447762732311
 30
0.0
 10
212.7480827080604
 20
167.4874516422597
 30
0.0
 10
212.9328112269958
 20
167.350424662743
 30
0.0
 10
213.2333254990326
 20
167.0230377590721
 30
0.0
 10
213.3521145863058
 20
166.8297522464328
 30
0.0
 10
213.4290813051068
 20
166.612436512876
 30
0.0
  0
LINE
  5
133
330
1F
100
AcDbEntity
  8
0
  6
HIDDEN
 62
     7
370
     0
100
AcDbLine
 10
250.0421480976
 20
153.5705578784
 30
0.0
 11
242.6428721987
 21
155.8978603492
 31
0.0
  0
LINE
  5
134
330
1F
100
AcDbEntity
  8
0
  6
HIDDEN
 62
     7
370
     0
100
AcDbLine
 10
242.6428721987
 20
155.8978603492
 30
0.0
 11
242.6366882168
 21
155.9174050847
 31
0.0
  0
LINE
  5
135
330
1F
100
AcDbEntity
  8
0
  6
HIDDEN
 62
     7
370
     0
100
AcDbLine
 10
239.2709927402
 20
156.5046998942
 30
0.0
 11
242.5449566685
 21
146.1463337103
 31
0.0
  0
LINE
  5
136
330
1F
100
AcDbEntity
  8
0
  6
HIDDEN
 62
     7
370
     0
100
AcDbLine
 10
242.5449566685
 20
146.1463337103
 30
0.0
 11
242.498420342
 21
146.1609685132
 31
0.0
  0
ELLIPSE
  5
137
330
1F
100
AcDbEntity
  8
0
  6
HIDDEN
 62
     7
370
     0
100
AcDbEllipse
 10
246.3911315452
 20
164.7051320682
 30
0.0
 11
-5.390524936199143
 21
16.4918394437762
 31
0.0
210
0.0
220
0.0
230
1.0
 40
0.0962569477
 41
6.251733123200069
 42
7.822529449994797
  0
LINE
  5
138
330
1F
100
AcDbEntity
  8
0
  6
HIDDEN
 62
     7
370
     0
100
AcDbLine
 10
227.9290782057
 20
164.7051320682
 30
0.0
 11
227.9290782057
 21
181.2051319787
 31
0.0
  0
SPLINE
  5
139
330
1F
100
AcDbEntity
  8
0
  6
HIDDEN
 62
     7
370
     0
100
AcDbSpline
210
0.0
220
0.0
230
1.0
 70
     8
 71
     3
 72
    16
 73
    12
 74
     0
 42
0.00000001
 43
0.00000001
 12
1.0
 22
0.0
 32
0.0
 13
1.0
 23
0.0
 33
0.0
 40
0.0
 40
0.0
 40
0.0
 40
0.0
 40
0.2500000000000007
 40
0.2500000000000007
 40
0.5000000000000014
 40
0.5000000000000014
 40
0.6250000000000013
 40
0.6250000000000013
 40
0.7500000000000012
 40
0.7500000000000012
 40
1.0
 40
1.0
 40
1.0
 40
1.0
 10
230.5147375585064
 20
150.3385812179549
 30
0.0
 10
230.2266909025955
 20
151.2724535686432
 30
0.0
 10
229.9539685977621
 20
152.2451418465461
 30
0.0
 10
229.442624323576
 20
154.2678987852669
 30
0.0
 10
229.2039774389161
 20
155.3179435591351
 30
0.0
 10
228.8766520709818
 20
156.9550521723458
 30
0.0
 10
228.7725631501397
 20
157.5121851330379
 30
0.0
 10
228.5788865640233
 20
158.629894397332
 30
0.0
 10
228.4888516352762
 20
159.1925572644442
 30
0.0
 10
228.2400816813502
 20
160.8920812376261
 30
0.0
 10
228.1025719449735
 20
162.0404085341334
 30
0.0
 10
227.9971228308877
 20
163.2051320681526
 30
0.0
  0
SPLINE
  5
13A
330
1F
100
AcDbEntity
  8
0
  6
HIDDEN
 62
     7
370
     0
100
AcDbSpline
210
0.0
220
0.0
230
1.0
 70
     8
 71
     3
 72
     8
 73
     4
 74
     0
 42
0.00000001
 43
0.00000001
 12
1.0
 22
0.0
 32
0.0
 13
1.0
 23
0.0
 33
0.0
 40
0.0
 40
0.0
 40
0.0
 40
0.0
 40
1.0
 40
1.0
 40
1.0
 40
1.0
 10
227.9971228308878
 20
163.2051320681526
 30
0.0
 10
227.9521292615816
 20
163.7021022845919
 30
0.0
 10
227.9290813051069
 20
164.2056776643081
 30
0.0
 10
227.9290813051069
 20
164.7051320681526
 30
0.0
  0
SPLINE
  5
13B
330
1F
100
AcDbEntity
  8
0
  6
HIDDEN
 62
     7
370
     0
100
AcDbSpline
210
0.0
220
0.0
230
1.0
 70
     8
 71
     3
 72
    18
 73
    14
 74
     0
 42
0.00000001
 43
0.00000001
 12
1.0
 22
0.0
 32
0.0
 13
1.0
 23
0.0
 33
0.0
 40
0.0
 40
0.0
 40
0.0
 40
0.0
 40
0.1250000000000004
 40
0.1250000000000004
 40
0.2500000000000008
 40
0.2500000000000008
 40
0.5000000000000014
 40
0.5000000000000014
 40
0.6250000000000011
 40
0.6250000000000011
 40
0.7500000000000007
 40
0.7500000000000007
 40
1.0
 40
1.0
 40
1.0
 40
1.0
 10
228.2499606512092
 20
147.8843649109371
 30
0.0
 10
228.1440820341815
 20
147.9882915042901
 30
0.0
 10
228.0628143849016
 20
148.0930751874772
 30
0.0
 10
227.9544021803558
 20
148.3045274189312
 30
0.0
 10
227.9274161692813
 20
148.4117935653967
 30
0.0
 10
227.9326544704182
 20
148.7308521371318
 30
0.0
 10
228.0498502825511
 20
148.9403232855298
 30
0.0
 10
228.3728903028837
 20
149.2503412414702
 30
0.0
 10
228.5049637992745
 20
149.3529866300526
 30
0.0
 10
228.8129069377384
 20
149.5570315230622
 30
0.0
 10
228.9891758178316
 20
149.6585636371536
 30
0.0
 10
229.5666752268247
 20
149.9572120864182
 30
0.0
 10
230.0181005708502
 20
150.1500331354363
 30
0.0
 10
230.5147375585065
 20
150.3385812179548
 30
0.0
  0
LINE
  5
13C
330
1F
100
AcDbEntity
  8
0
  6
HIDDEN
 62
     7
370
     0
100
AcDbLine
 10
242.6428721987
 20
155.8978603492
 30
0.0
 11
242.430471047
 21
155.8373467336
 31
0.0
  0
LINE
  5
13D
330
1F
100
AcDbEntity
  8
0
  6
HIDDEN
 62
     7
370
     0
100
AcDbLine
 10
242.3795984827
 20
155.9982671673
 30
0.0
 11
242.430471047
 21
155.8373467336
 31
0.0
  0
LINE
  5
13E
330
1F
100
AcDbEntity
  8
0
  6
HIDDEN
 62
     7
370
     0
100
AcDbLine
 10
239.5039723955
 20
156.8028581599
 30
0.0
 11
242.7618877731
 21
146.4952667514
 31
0.0
  0
LINE
  5
13F
330
1F
100
AcDbEntity
  8
0
  6
HIDDEN
 62
     7
370
     0
100
AcDbLine
 10
242.5449566685
 20
146.1463337103
 30
0.0
 11
242.7618877731
 21
146.4952667514
 31
0.0
  0
LINE
  5
140
330
1F
100
AcDbEntity
  8
0
  6
HIDDEN
 62
     7
370
     0
100
AcDbLine
 10
249.8297469459
 20
153.5100442628
 30
0.0
 11
242.430471047
 21
155.8373467336
 31
0.0
  0
LINE
  5
141
330
1F
100
AcDbEntity
  8
0
  6
HIDDEN
 62
     7
370
     0
100
AcDbLine
 10
249.8297469459
 20
153.5100442628
 30
0.0
 11
250.0421480976
 21
153.5705578784
 31
0.0
  0
ARC
  5
142
330
1F
100
AcDbEntity
  8
0
  6
HIDDEN
 62
     7
370
     0
100
AcDbCircle
 10
240.4874034318
 20
157.9412398404
 30
0.0
 40
1.250199329174359
100
AcDbArc
 50
17.5754080743
 51
182.2816728035
  0
LINE
  5
143
330
1F
100
AcDbEntity
  8
0
  6
HIDDEN
 62
     7
370
     0
100
AcDbLine
 10
239.5342366539
 20
156.8117560158
 30
0.0
 11
242.6973955475
 21
146.8039107779
 31
0.0
  0
LINE
  5
144
330
1F
100
AcDbEntity
  8
0
  6
HIDDEN
 62
     7
370
     0
100
AcDbLine
 10
242.7618877731
 20
146.4952667514
 30
0.0
 11
242.6973955475
 21
146.8039107779
 31
0.0
  0
LINE
  5
145
330
1F
100
AcDbEntity
  8
0
  6
HIDDEN
 62
     7
370
     0
100
AcDbLine
 10
242.430471047
 20
155.8373467336
 30
0.0
 11
242.430471047
 21
155.9419817561
 31
0.0
  0
LINE
  5
146
330
1F
100
AcDbEntity
  8
0
  6
HIDDEN
 62
     7
370
     0
100
AcDbLine
 10
249.6153192364
 20
153.6821247349
 30
0.0
 11
249.8297469459
 21
153.5100442628
 31
0.0
  0
LWPOLYLINE
  5
147
330
1F
100
AcDbEntity
  8
0
  6
HIDDEN
 62
     7
370
     0
100
AcDbPolyline
 90
       20
 70
   128
 43
0.0
 10
211.4290820204
 20
165.7980833473
 10
212.110951706
 20
165.906298141
 10
212.7189265333
 20
166.2192158904
 10
213.1871284686
 20
166.7029270241
 10
213.464819058
 20
167.3050137973
 10
213.5219054066
 20
167.9602311263
 10
213.3522035323
 20
168.5975756766
 10
212.9741014682
 20
169.1479812646
 10
212.4285699569
 20
169.5518031987
 10
211.7747293554
 20
169.7652814249
 10
211.0834346853
 20
169.7652814249
 10
210.4295940839
 20
169.5518031987
 10
209.8840625726
 20
169.1479812646
 10
209.5059605084
 20
168.5975756766
 10
209.3362511836
 20
167.9602311263
 10
209.3933375321
 20
167.3050137973
 10
209.6710281216
 20
166.7029270241
 10
210.1392375074
 20
166.2192158904
 10
210.7472123347
 20
165.906298141
 10
211.4290820204
 20
165.7980833473
  0
CIRCLE
  5
148
330
1F
100
AcDbEntity
  8
0
  6
HIDDEN
 62
     7
370
     0
100
AcDbCircle
 10
246.2565936726
 20
150.1396872535
 30
0.0
 40
2.39796288836149
  0
LINE
  5
149
330
1F
100
AcDbEntity
  8
0
  6
HIDDEN
 62
     7
370
     0
100
AcDbLine
 10
252.3035930239
 20
143.7824675152
 30
0.0
 11
252.6387499414
 21
144.1163783232
 31
0.0
  0
LINE
  5
14A
330
1F
100
AcDbEntity
  8
0
  6
HIDDEN
 62
     7
370
     0
100
AcDbLine
 10
249.6153192364
 20
153.6821247349
 30
0.0
 11
242.430471047
 21
155.9419817561
 31
0.0
  0
LINE
  5
14B
330
1F
100
AcDbEntity
  8
0
  6
HIDDEN
 62
     7
370
     0
100
AcDbLine
 10
242.430471047
 20
155.9419817561
 30
0.0
 11
241.6792439066
 21
158.3187509598
 31
0.0
  0
LINE
  5
14C
330
1F
100
AcDbEntity
  8
0
  6
HIDDEN
 62
     7
370
     0
100
AcDbLine
 10
252.3035930239
 20
143.7824675152
 30
0.0
 11
242.6973955475
 21
146.8039107779
 31
0.0
  0
LINE
  5
14D
330
1F
100
AcDbEntity
  8
0
  6
HIDDEN
 62
     7
370
     0
100
AcDbLine
 10
249.6153192364
 20
153.6821247349
 30
0.0
 11
252.6387499414
 21
144.1163783232
 31
0.0
  0
CIRCLE
  5
14E
330
1F
100
AcDbEntity
  8
0
  6
HIDDEN
 62
     7
370
     0
100
AcDbCircle
 10
246.2568768437
 20
150.1910082377
 30
0.0
 40
1.648793448422013
  0
LINE
  5
14F
330
1F
100
AcDbEntity
  8
0
  6
HIDDEN
 62
     7
370
     0
100
AcDbLine
 10
251.724548801
 20
144.5632566968
 30
0.0
 11
252.3035930239
 21
143.7824675152
 31
0.0
  0
LINE
  5
150
330
1F
100
AcDbEntity
  8
0
  6
HIDDEN
 62
     7
370
     0
100
AcDbLine
 10
252.6387499414
 20
144.1163783232
 30
0.0
 11
251.9261466108
 21
145.0772610763
 31
0.0
  0
SPLINE
  5
151
330
1F
100
AcDbEntity
  8
0
  6
HIDDEN
 62
     7
370
     0
100
AcDbSpline
210
0.0
220
0.0
230
1.0
 70
     8
 71
     3
 72
    32
 73
    28
 74
     0
 42
0.00000001
 43
0.00000001
 12
1.0
 22
0.0
 32
0.0
 13
1.0
 23
0.0
 33
0.0
 40
0.0
 40
0.0
 40
0.0
 40
0.0
 40
0.1249999999999948
 40
0.1249999999999948
 40
0.2499999999999896
 40
0.2499999999999896
 40
0.3124999999999903
 40
0.3124999999999903
 40
0.3749999999999911
 40
0.3749999999999911
 40
0.4374999999999918
 40
0.4374999999999918
 40
0.4999999999999928
 40
0.4999999999999928
 40
0.5624999999999938
 40
0.5624999999999938
 40
0.6249999999999947
 40
0.6249999999999947
 40
0.6874999999999957
 40
0.6874999999999957
 40
0.7499999999999966
 40
0.7499999999999966
 40
0.8124999999999976
 40
0.8124999999999976
 40
0.8749999999999986
 40
0.8749999999999986
 40
1.0
 40
1.0
 40
1.0
 40
1.0
 10
247.9048085118555
 20
150.8976362876132
 30
0.0
 10
247.9174139530525
 20
150.6783671255796
 30
0.0
 10
247.8911071677951
 20
150.465282231558
 30
0.0
 10
247.7632674386401
 20
150.050749536342
 30
0.0
 10
247.6635026252951
 20
149.8563809545396
 30
0.0
 10
247.455740040627
 20
149.5932598838196
 30
0.0
 10
247.3756413532828
 20
149.5096050552349
 30
0.0
 10
247.1982716793427
 20
149.3598970602817
 30
0.0
 10
247.0998655393007
 20
149.2925265904983
 30
0.0
 10
246.8827988250818
 20
149.1784320436111
 30
0.0
 10
246.7672821595029
 20
149.1332038000311
 30
0.0
 10
246.5197706936842
 20
149.070123798494
 30
0.0
 10
246.3912351094892
 20
149.0535745047356
 30
0.0
 10
246.1333887698821
 20
149.0528269081942
 30
0.0
 10
246.0026861760506
 20
149.06903483361
 30
0.0
 10
245.7563447439832
 20
149.1305382747632
 30
0.0
 10
245.637734022951
 20
149.1763634480002
 30
0.0
 10
245.4214435228983
 20
149.2890269885936
 30
0.0
 10
245.3212230028064
 20
149.3570413642737
 30
0.0
 10
245.1431902751368
 20
149.506463111986
 30
0.0
 10
245.0643343846338
 20
149.5882301610018
 30
0.0
 10
244.9242208254182
 20
149.7644363352302
 30
0.0
 10
244.8637239137657
 20
149.858266418463
 30
0.0
 10
244.7626905376855
 20
150.0512898317937
 30
0.0
 10
244.721568621993
 20
150.1512414073026
 30
0.0
 10
244.6252625416735
 20
150.4613504677463
 30
0.0
 10
244.598173901953
 20
150.6781523562781
 30
0.0
 10
244.6107916899012
 20
150.8976362876132
 30
0.0
  0
ARC
  5
152
330
1F
100
AcDbEntity
  8
0
  6
HIDDEN
 62
     7
370
     0
100
AcDbCircle
 10
246.2578044973
 20
150.7950222259
 30
0.0
 40
1.650203925896157
100
AcDbArc
 50
3.565094164
 51
176.434905836
  0
SPLINE
  5
153
330
1F
100
AcDbEntity
  8
0
  6
HIDDEN
 62
     7
370
     0
100
AcDbSpline
210
0.0
220
0.0
230
1.0
 70
     8
 71
     3
 72
    16
 73
    12
 74
     0
 42
0.00000001
 43
0.00000001
 12
1.0
 22
0.0
 32
0.0
 13
1.0
 23
0.0
 33
0.0
 40
0.0
 40
0.0
 40
0.0
 40
0.0
 40
0.2500000000000001
 40
0.2500000000000001
 40
0.3749999999999999
 40
0.3749999999999999
 40
0.4999999999999998
 40
0.4999999999999998
 40
0.7499999999999999
 40
0.7499999999999999
 40
1.0
 40
1.0
 40
1.0
 40
1.0
 10
92.10776096154717
 20
148.1212254419116
 30
0.0
 10
91.94652848406272
 20
147.4068312797195
 30
0.0
 10
91.8260486444231
 20
146.7534890170108
 30
0.0
 10
91.70366812710976
 20
145.8652337752069
 30
0.0
 10
91.67269046671231
 20
145.5845532388551
 30
0.0
 10
91.63107672908436
 20
145.055519249015
 30
0.0
 10
91.62084081615154
 20
144.8121982704366
 30
0.0
 10
91.62065241909542
 20
144.1441755799234
 30
0.0
 10
91.66079712173304
 20
143.7804946705039
 30
0.0
 10
91.82495087667262
 20
143.2206037979556
 30
0.0
 10
91.94650252708217
 20
143.0330825058384
 30
0.0
 10
92.10776096154717
 20
142.9350511131505
 30
0.0
  0
LINE
  5
154
330
1F
100
AcDbEntity
  8
0
  6
HIDDEN
 62
     7
370
     0
100
AcDbLine
 10
91.229081317
 20
149.1702114502
 30
0.0
 11
91.229081317
 21
142.6850323836
 31
0.0
  0
LINE
  5
155
330
1F
100
AcDbEntity
  8
0
  6
HIDDEN
 62
     7
370
     0
100
AcDbLine
 10
56.9290818415
 20
149.6010794575
 30
0.0
 11
56.9290818415
 21
143.546768398
 31
0.0
  0
LINE
  5
156
330
1F
100
AcDbEntity
  8
0
  6
HIDDEN
 62
     7
370
     0
100
AcDbLine
 10
55.429082527
 20
150.0340923006
 30
0.0
 11
55.429082527
 21
144.4127940843
 31
0.0
  0
SPLINE
  5
157
330
1F
100
AcDbEntity
  8
0
  6
HIDDEN
 62
     7
370
     0
100
AcDbSpline
210
0.0
220
0.0
230
1.0
 70
     8
 71
     3
 72
    16
 73
    12
 74
     0
 42
0.00000001
 43
0.00000001
 12
1.0
 22
0.0
 32
0.0
 13
1.0
 23
0.0
 33
0.0
 40
0.0
 40
0.0
 40
0.0
 40
0.0
 40
0.2500000000000001
 40
0.2500000000000001
 40
0.3750000000000001
 40
0.3750000000000001
 40
0.5000000000000001
 40
0.5000000000000001
 40
0.75
 40
0.75
 40
1.0
 40
1.0
 40
1.0
 40
1.0
 10
92.10776096154717
 20
186.4752130231548
 30
0.0
 10
91.94652848406272
 20
186.3771974101
 30
0.0
 10
91.8260486444231
 20
186.190461378424
 30
0.0
 10
91.70366812710976
 20
185.7774215708651
 30
0.0
 10
91.67269046671233
 20
185.6174210716322
 30
0.0
 10
91.63107672908437
 20
185.250615420541
 30
0.0
 10
91.62084081615154
 20
185.047278267917
 30
0.0
 10
91.62065241909544
 20
184.3799910012903
 30
0.0
 10
91.66079712173304
 20
183.8591765374023
 30
0.0
 10
91.82495087667262
 20
182.6618175219246
 30
0.0
 10
91.94650252708217
 20
182.0035478676286
 30
0.0
 10
92.10776096154717
 20
181.2890386943937
 30
0.0
  0
LINE
  5
158
330
1F
100
AcDbEntity
  8
0
  6
HIDDEN
 62
     7
370
     0
100
AcDbLine
 10
91.229081317
 20
186.7252317527
 30
0.0
 11
91.229081317
 21
180.2400526861
 31
0.0
  0
LINE
  5
159
330
1F
100
AcDbEntity
  8
0
  6
HIDDEN
 62
     7
370
     0
100
AcDbLine
 10
56.9290818415
 20
185.8634957383
 30
0.0
 11
56.9290818415
 21
179.8091846788
 31
0.0
  0
LINE
  5
15A
330
1F
100
AcDbEntity
  8
0
  6
HIDDEN
 62
     7
370
     0
100
AcDbLine
 10
55.429082527
 20
184.997470052
 30
0.0
 11
55.429082527
 21
179.3761718357
 31
0.0
  0
ELLIPSE
  5
15B
330
1F
100
AcDbEntity
  8
0
  6
HIDDEN
 62
     7
370
     0
100
AcDbEllipse
 10
275.7478556993
 20
163.2051320682
 30
0.0
 11
24.0610156015436
 21
22.41887999910568
 31
0.0
210
0.0
220
0.0
230
1.0
 40
0.2135193148
 41
2.703893128927138
 42
2.741099098689573
  0
ELLIPSE
  5
15C
330
1F
100
AcDbEntity
  8
0
  6
HIDDEN
 62
     7
370
     0
100
AcDbEllipse
 10
185.0367648633
 20
163.2051320682
 30
0.0
 11
73.48411303275155
 21
-22.64800636057885
 31
0.0
210
0.0
220
0.0
230
1.0
 40
0.054548757
 41
0.4505874719126488
 42
0.7259972699172408
  0
SPLINE
  5
15D
330
1F
100
AcDbEntity
  8
0
  6
HIDDEN
 62
     7
370
     0
100
AcDbSpline
210
0.0
220
0.0
230
1.0
 70
     8
 71
     3
 72
    12
 73
     8
 74
     0
 42
0.00000001
 43
0.00000001
 12
1.0
 22
0.0
 32
0.0
 13
1.0
 23
0.0
 33
0.0
 40
0.0
 40
0.0
 40
0.0
 40
0.0
 40
0.4999999999999949
 40
0.4999999999999949
 40
0.7499999999999974
 40
0.7499999999999974
 40
1.0
 40
1.0
 40
1.0
 40
1.0
 10
240.8111297284967
 20
148.9292458961644
 30
0.0
 10
239.5957497462215
 20
149.3871834760035
 30
0.0
 10
238.3371551852829
 20
149.7376724710449
 30
0.0
 10
236.3896657743315
 20
150.0948330392247
 30
0.0
 10
235.7304662620404
 20
150.1856824340256
 30
0.0
 10
234.3915710534993
 20
150.3079206867926
 30
0.0
 10
233.7195687499625
 20
150.3385812179548
 30
0.0
 10
233.0458396399572
 20
150.3385812179548
 30
0.0
  0
LINE
  5
15E
330
1F
100
AcDbEntity
  8
0
  6
HIDDEN
 62
     7
370
     0
100
AcDbLine
 10
233.0458389364
 20
150.3385807658
 30
0.0
 11
230.5147425972
 21
150.3385807658
 31
0.0
  0
ELLIPSE
  5
15F
330
1F
100
AcDbEntity
  8
0
  6
HIDDEN
 62
     7
370
     0
100
AcDbEllipse
 10
247.5682290466
 20
163.2051320682
 30
0.0
 11
-7.514065062580612
 21
22.98862467920318
 31
0.0
210
0.0
220
0.0
230
1.0
 40
0.0962569477
 41
1.539344142815212
 42
2.447171303922076
  0
LWPOLYLINE
  5
160
330
1F
100
AcDbEntity
  8
0
  6
HIDDEN
 62
     7
370
     0
100
AcDbPolyline
 90
       22
 70
   128
 43
0.0
 10
211.4290820204
 20
165.4919311907
 10
212.1659667931
 20
165.5975631359
 10
212.8373833142
 20
165.9050729862
 10
213.3836598836
 20
166.3871374251
 10
213.7562634192
 20
167.0009225412
 10
213.9220909916
 20
167.6918910155
 10
213.8663979016
 20
168.398647503
 10
213.594146236
 20
169.0583931552
 10
213.1295131288
 20
169.6125068041
 10
212.5137896977
 20
170.0117531503
 10
211.801685556
 20
170.2206576513
 10
211.0564784847
 20
170.2206576513
 10
210.344374343
 20
170.0117531503
 10
209.7286509119
 20
169.6125068041
 10
209.2640178047
 20
169.0583931552
 10
208.9917586885
 20
168.398647503
 10
208.9360730491
 20
167.6918910155
 10
209.1019006215
 20
167.0009225412
 10
209.4745041571
 20
166.3871374251
 10
210.0207807265
 20
165.9050729862
 10
210.692189797
 20
165.5975631359
 10
211.4290820204
 20
165.4919311907
  0
SPLINE
  5
161
330
1F
100
AcDbEntity
  8
0
  6
HIDDEN
 62
     7
370
     0
100
AcDbSpline
210
0.0
220
0.0
230
1.0
 70
     8
 71
     3
 72
    20
 73
    16
 74
     0
 42
0.00000001
 43
0.00000001
 12
1.0
 22
0.0
 32
0.0
 13
1.0
 23
0.0
 33
0.0
 40
0.0
 40
0.0
 40
0.0
 40
0.0
 40
0.2500000000000138
 40
0.2500000000000138
 40
0.3750000000000115
 40
0.3750000000000115
 40
0.5000000000000092
 40
0.5000000000000092
 40
0.6250000000000069
 40
0.6250000000000069
 40
0.7500000000000046
 40
0.7500000000000046
 40
0.8750000000000023
 40
0.8750000000000023
 40
1.0
 40
1.0
 40
1.0
 40
1.0
 10
244.6107916899011
 20
150.8976362876132
 30
0.0
 10
244.839992386222
 20
151.0843829046108
 30
0.0
 10
245.0843085118272
 20
151.2639181824522
 30
0.0
 10
245.4924997001666
 20
151.4744982040124
 30
0.0
 10
245.6375120631508
 20
151.535145623655
 30
0.0
 10
245.9410726104932
 20
151.619907578343
 30
0.0
 10
246.0996746214206
 20
151.6435760753295
 30
0.0
 10
246.4196148254109
 20
151.6432193923433
 30
0.0
 10
246.5766219482005
 20
151.6195776506763
 30
0.0
 10
246.8818205055788
 20
151.5338436660813
 30
0.0
 10
247.0242897859804
 20
151.4739698925069
 30
0.0
 10
247.2965249216365
 20
151.3333564338411
 30
0.0
 10
247.4263874053442
 20
151.25228276432
 30
0.0
 10
247.6729106448786
 20
151.0812562089463
 30
0.0
 10
247.7905054831099
 20
150.9907673481793
 30
0.0
 10
247.9048085118555
 20
150.8976362876132
 30
0.0
  0
LINE
  5
162
330
1F
100
AcDbEntity
  8
0
  6
HIDDEN
 62
     7
370
     0
100
AcDbLine
 10
55.429082527
 20
179.3761718357
 30
0.0
 11
55.429082527
 21
167.6071194736
 31
0.0
  0
LINE
  5
163
330
1F
100
AcDbEntity
  8
0
  6
HIDDEN
 62
     7
370
     0
100
AcDbLine
 10
55.429082527
 20
161.8031446627
 30
0.0
 11
55.429082527
 21
150.0340923006
 31
0.0
  0
LINE
  5
164
330
1F
100
AcDbEntity
  8
0
  6
HIDDEN
 62
     7
370
     0
100
AcDbLine
 10
56.9290818415
 20
160.7399209673
 30
0.0
 11
56.9290818415
 21
149.6010794575
 31
0.0
  0
LINE
  5
165
330
1F
100
AcDbEntity
  8
0
  6
HIDDEN
 62
     7
370
     0
100
AcDbLine
 10
56.9290818415
 20
179.8091846788
 30
0.0
 11
56.9290818415
 21
168.670343169
 31
0.0
  0
LINE
  5
166
330
1F
100
AcDbEntity
  8
0
  6
HIDDEN
 62
     7
370
     0
100
AcDbLine
 10
93.2290813102
 20
179.7428391213
 30
0.0
 11
93.2290813102
 21
149.667425015
 31
0.0
  0
LINE
  5
167
330
1F
100
AcDbEntity
  8
0
  6
HIDDEN
 62
     7
370
     0
100
AcDbLine
 10
91.229081317
 20
180.2400526861
 30
0.0
 11
91.229081317
 21
149.1702114502
 31
0.0
  0
LINE
  5
168
330
1F
100
AcDbEntity
  8
0
  6
HIDDEN
 62
     7
370
     0
100
AcDbLine
 10
245.1202200495
 20
163.2051320551
 30
0.0
 11
244.634948834
 21
164.7051320682
 31
0.0
  0
SPLINE
  5
169
330
1F
100
AcDbEntity
  8
0
  6
HIDDEN
 62
     7
370
     0
100
AcDbSpline
210
0.0
220
0.0
230
1.0
 70
     8
 71
     3
 72
    24
 73
    20
 74
     0
 42
0.00000001
 43
0.00000001
 12
1.0
 22
0.0
 32
0.0
 13
1.0
 23
0.0
 33
0.0
 40
0.0
 40
0.0
 40
0.0
 40
0.0
 40
0.1249999999999999
 40
0.1249999999999999
 40
0.2499999999999999
 40
0.2499999999999999
 40
0.3749999999999997
 40
0.3749999999999997
 40
0.4374999999999998
 40
0.4374999999999998
 40
0.4999999999999998
 40
0.4999999999999998
 40
0.6249999999999998
 40
0.6249999999999998
 40
0.7499999999999999
 40
0.7499999999999999
 40
0.8749999999999999
 40
0.8749999999999999
 40
1.0
 40
1.0
 40
1.0
 40
1.0
 10
61.87908130510683
 20
160.6191710150534
 30
0.0
 10
62.1168849373819
 20
160.9181781173835
 30
0.0
 10
62.34697059859319
 20
161.2225159687023
 30
0.0
 10
62.78172399720301
 20
161.8482495060983
 30
0.0
 10
62.98665678948917
 20
162.1694742334258
 30
0.0
 10
63.35175873998786
 20
162.8414000041585
 30
0.0
 10
63.51355912577935
 20
163.1967152360374
 30
0.0
 10
63.68541933035907
 20
163.7469464573898
 30
0.0
 10
63.73100452201918
 20
163.9333502423703
 30
0.0
 10
63.79347926159404
 20
164.3134847444666
 30
0.0
 10
63.81015040734249
 20
164.5091545367524
 30
0.0
 10
63.810671450519
 20
165.0876349154268
 30
0.0
 10
63.74622914963231
 20
165.4655467543956
 30
0.0
 10
63.51638005625898
 20
166.207514779494
 30
0.0
 10
63.35785937859589
 20
166.556230239655
 30
0.0
 10
62.99362504869573
 20
167.2293226373882
 30
0.0
 10
62.78688880863215
 20
167.5542751246298
 30
0.0
 10
62.34895086289178
 20
168.1851989350916
 30
0.0
 10
62.11767813561224
 20
168.4910886754322
 30
0.0
 10
61.87908130510692
 20
168.7910931212517
 30
0.0
  0
LINE
  5
16A
330
1F
100
AcDbEntity
  8
0
  6
HIDDEN
 62
     7
370
     0
100
AcDbLine
 10
61.8790799521
 20
160.6191708045
 30
0.0
 11
61.8790799521
 21
168.7910933318
 31
0.0
  0
SPLINE
  5
16B
330
1F
100
AcDbEntity
  8
0
  6
HIDDEN
 62
     7
370
     0
100
AcDbSpline
210
0.0
220
0.0
230
1.0
 70
     8
 71
     3
 72
     8
 73
     4
 74
     0
 42
0.00000001
 43
0.00000001
 12
1.0
 22
0.0
 32
0.0
 13
1.0
 23
0.0
 33
0.0
 40
0.0000249638557296
 40
0.0000249638557296
 40
0.0000249638557296
 40
0.0000249638557296
 40
0.0049776420541172
 40
0.0049776420541172
 40
0.0049776420541172
 40
0.0049776420541172
 10
56.92908130510688
 20
160.7399211713162
 30
0.0
 10
58.57905753961641
 20
160.698641933548
 30
0.0
 10
60.22905885936144
 20
160.6584202523085
 30
0.0
 10
61.87908130510689
 20
160.6191710150535
 30
0.0
  0
SPLINE
  5
16C
330
1F
100
AcDbEntity
  8
0
  6
HIDDEN
 62
     7
370
     0
100
AcDbSpline
210
0.0
220
0.0
230
1.0
 70
     8
 71
     3
 72
     8
 73
     4
 74
     0
 42
0.00000001
 43
0.00000001
 12
1.0
 22
0.0
 32
0.0
 13
1.0
 23
0.0
 33
0.0
 40
0.0000249631533153
 40
0.0000249631533153
 40
0.0000249631533153
 40
0.0000249631533153
 40
0.0049776413517029
 40
0.0049776413517029
 40
0.0049776413517029
 40
0.0049776413517029
 10
61.87908130510686
 20
168.7910931212518
 30
0.0
 10
60.22905885936144
 20
168.7518438839968
 30
0.0
 10
58.5790575396164
 20
168.7116222027573
 30
0.0
 10
56.92908130510686
 20
168.6703429649891
 30
0.0
  0
SPLINE
  5
16D
330
1F
100
AcDbEntity
  8
0
  6
HIDDEN
 62
     7
370
     0
100
AcDbSpline
210
0.0
220
0.0
230
1.0
 70
     8
 71
     3
 72
     8
 73
     4
 74
     0
 42
0.00000001
 43
0.00000001
 12
1.0
 22
0.0
 32
0.0
 13
1.0
 23
0.0
 33
0.0
 40
0.0
 40
0.0
 40
0.0
 40
0.0
 40
1.0
 40
1.0
 40
1.0
 40
1.0
 10
55.42908130510471
 20
161.8031447351724
 30
0.0
 10
55.8958419164825
 20
161.3877814895493
 30
0.0
 10
56.40158946326257
 20
161.0431910602447
 30
0.0
 10
56.92908130510693
 20
160.7399211713161
 30
0.0
  0
SPLINE
  5
16E
330
1F
100
AcDbEntity
  8
0
  6
HIDDEN
 62
     7
370
     0
100
AcDbSpline
210
0.0
220
0.0
230
1.0
 70
     8
 71
     3
 72
     8
 73
     4
 74
     0
 42
0.00000001
 43
0.00000001
 12
1.0
 22
0.0
 32
0.0
 13
1.0
 23
0.0
 33
0.0
 40
0.0
 40
0.0
 40
0.0
 40
0.0
 40
1.0
 40
1.0
 40
1.0
 40
1.0
 10
56.92908130510693
 20
168.6703429649891
 30
0.0
 10
56.4015894632634
 20
168.367073076061
 30
0.0
 10
55.89584191648412
 20
168.022482646757
 30
0.0
 10
55.42908130510693
 20
167.6071194011349
 30
0.0
  0
LINE
  5
16F
330
1F
100
AcDbEntity
  8
0
  6
HIDDEN
 62
     7
370
     0
100
AcDbLine
 10
55.429082527
 20
161.8031446627
 30
0.0
 11
55.429082527
 21
167.6071194736
 31
0.0
  0
SPLINE
  5
170
330
1F
100
AcDbEntity
  8
0
  6
HIDDEN
 62
     7
370
     0
100
AcDbSpline
210
0.0
220
0.0
230
1.0
 70
     8
 71
     3
 72
    72
 73
    68
 74
     0
 42
0.00000001
 43
0.00000001
 12
1.0
 22
0.0
 32
0.0
 13
1.0
 23
0.0
 33
0.0
 40
-0.0312500000000001
 40
-0.0312500000000001
 40
0.0
 40
0.0
 40
0.0312499999999999
 40
0.0312499999999999
 40
0.0624999999999998
 40
0.0624999999999998
 40
0.0937499999999998
 40
0.0937499999999998
 40
0.1249999999999997
 40
0.1249999999999997
 40
0.1562499999999996
 40
0.1562499999999996
 40
0.1874999999999996
 40
0.1874999999999996
 40
0.2187499999999995
 40
0.2187499999999995
 40
0.2499999999999994
 40
0.2499999999999994
 40
0.2812499999999993
 40
0.2812499999999993
 40
0.3124999999999992
 40
0.3124999999999992
 40
0.3437499999999992
 40
0.3437499999999992
 40
0.3749999999999991
 40
0.3749999999999991
 40
0.3906249999999991
 40
0.3906249999999991
 40
0.406249999999999
 40
0.406249999999999
 40
0.4374999999999989
 40
0.4374999999999989
 40
0.4687499999999988
 40
0.4687499999999988
 40
0.4999999999999988
 40
0.4999999999999988
 40
0.5312499999999987
 40
0.5312499999999987
 40
0.5624999999999987
 40
0.5624999999999987
 40
0.5937499999999986
 40
0.5937499999999986
 40
0.6249999999999984
 40
0.6249999999999984
 40
0.6562499999999984
 40
0.6562499999999984
 40
0.6874999999999986
 40
0.6874999999999986
 40
0.7187499999999987
 40
0.7187499999999987
 40
0.7499999999999988
 40
0.7499999999999988
 40
0.781249999999999
 40
0.781249999999999
 40
0.8124999999999991
 40
0.8124999999999991
 40
0.8437499999999992
 40
0.8437499999999992
 40
0.8749999999999994
 40
0.8749999999999994
 40
0.9062499999999996
 40
0.9062499999999996
 40
0.9374999999999997
 40
0.9374999999999997
 40
0.9687499999999999
 40
0.9687499999999999
 40
1.0
 40
1.0
 40
1.03125
 40
1.03125
 10
74.55302762393207
 20
167.1459657179675
 30
0.0
 10
74.92745784380594
 20
167.5563215184526
 30
0.0
 10
75.1323104450716
 20
167.739970601111
 30
0.0
 10
75.5751786419186
 20
168.0669255046064
 30
0.0
 10
75.81513405923685
 20
168.2107037127862
 30
0.0
 10
76.3107450420114
 20
168.4482210682321
 30
0.0
 10
76.56801133316588
 20
168.5435406331298
 30
0.0
 10
77.10136510100294
 20
168.6876261657643
 30
0.0
 10
77.3756452409012
 20
168.7353621727339
 30
0.0
 10
77.92207377548077
 20
168.7809443132677
 30
0.0
 10
78.19665009394855
 20
168.7795105531955
 30
0.0
 10
78.74861726821925
 20
168.7265972451046
 30
0.0
 10
79.01923423079091
 20
168.6756275189004
 30
0.0
 10
79.5455194018701
 20
168.5270208919569
 30
0.0
 10
79.80315096527768
 20
168.4287355211997
 30
0.0
 10
80.2990771299512
 20
168.184482162014
 30
0.0
 10
80.53206080774284
 20
168.0414020309918
 30
0.0
 10
80.96839408306785
 20
167.713543480523
 30
0.0
 10
81.1736753369261
 20
167.5265498428228
 30
0.0
 10
81.5417096347863
 20
167.1171192229998
 30
0.0
 10
81.7032246247715
 20
166.8970137820153
 30
0.0
 10
81.98038230791862
 20
166.4252637005773
 30
0.0
 10
82.0967764873523
 20
166.1702471741361
 30
0.0
 10
82.27005052399892
 20
165.6490093507391
 30
0.0
 10
82.32849707846468
 20
165.3815252329582
 30
0.0
 10
82.37236180394056
 20
164.9696095736257
 30
0.0
 10
82.37954202056993
 20
164.8299022705502
 30
0.0
 10
82.3785739932745
 20
164.5537792150878
 30
0.0
 10
82.37057120386085
 20
164.416602648757
 30
0.0
 10
82.32449847194843
 20
164.0076692074938
 30
0.0
 10
82.26356363949641
 20
163.7357429584896
 30
0.0
 10
82.0854434830879
 20
163.2125624420345
 30
0.0
 10
81.9698755717455
 20
162.9638504416711
 30
0.0
 10
81.68802878780623
 20
162.4909659166791
 30
0.0
 10
81.52115884239159
 20
162.267356699447
 30
0.0
 10
81.15183328759282
 20
161.8626993112594
 30
0.0
 10
80.94704813129533
 20
161.6782857230899
 30
0.0
 10
80.50239518377913
 20
161.3492596881955
 30
0.0
 10
80.26754605426835
 20
161.2080916122073
 30
0.0
 10
79.77413629179132
 20
160.9696820834268
 30
0.0
 10
79.5128493380867
 20
160.8718995270219
 30
0.0
 10
78.98211105757402
 20
160.7265714988318
 30
0.0
 10
78.71247135667677
 20
160.6782821086368
 30
0.0
 10
78.16472001693157
 20
160.6298668848502
 30
0.0
 10
77.884815975073
 20
160.6303250704861
 30
0.0
 10
77.33773806723798
 20
160.6804769260883
 30
0.0
 10
77.06813296255055
 20
160.7296504931203
 30
0.0
 10
76.53697820589447
 20
160.8773250164274
 30
0.0
 10
76.27568338945095
 20
160.9764801807929
 30
0.0
 10
75.78336941127557
 20
161.2174929512697
 30
0.0
 10
75.54941253569693
 20
161.3599810758944
 30
0.0
 10
75.10724391516646
 20
161.6914685048793
 30
0.0
 10
74.90205038405485
 20
161.8789021328677
 30
0.0
 10
74.53635616769684
 20
162.2858058519181
 30
0.0
 10
74.37358554530853
 20
162.5069849265871
 30
0.0
 10
74.09263311454295
 20
162.9867322558023
 30
0.0
 10
73.97942926226945
 20
163.2367442226126
 30
0.0
 10
73.80682053813052
 20
163.7568194326331
 30
0.0
 10
73.74721425545414
 20
164.0305508972628
 30
0.0
 10
73.6893224853843
 20
164.5791685471613
 30
0.0
 10
73.69011202424426
 20
164.8535084110528
 30
0.0
 10
73.75130249986066
 20
165.4022503621918
 30
0.0
 10
73.81243122359469
 20
165.6753156760489
 30
0.0
 10
73.9885109092245
 20
166.1954809248173
 30
0.0
 10
74.10484150421445
 20
166.4478000583762
 30
0.0
 10
74.38804273395517
 20
166.9242043997832
 30
0.0
 10
74.55302762393207
 20
167.1459657179675
 30
0.0
 10
74.92745784380594
 20
167.5563215184526
 30
0.0
  0
CIRCLE
  5
171
330
1F
100
AcDbEntity
  8
0
  6
HIDDEN
 62
     7
370
     0
100
AcDbCircle
 10
77.9290813051
 20
164.7051320682
 30
0.0
 40
4.050000000000011
  0
CIRCLE
  5
172
330
1F
100
AcDbEntity
  8
0
  6
HIDDEN
 62
     7
370
     0
100
AcDbCircle
 10
105.4290813051
 20
164.7051320682
 30
0.0
 40
2.0
  0
LINE
  5
173
330
1F
100
AcDbEntity
  8
0
  6
HIDDEN
 62
     7
370
     0
100
AcDbLine
 10
93.4290813051
 20
140.4551313529
 30
0.0
 11
93.5219745255
 21
140.5480251918
 31
0.0
  0
LINE
  5
174
330
1F
100
AcDbEntity
  8
0
  6
HIDDEN
 62
     7
370
     0
100
AcDbLine
 10
93.5219745255
 20
188.8622389445
 30
0.0
 11
93.4290813051
 21
188.9551327834
 31
0.0
  0
ARC
  5
175
330
1F
100
AcDbEntity
  8
0
  6
HIDDEN
 62
     7
370
     0
100
AcDbCircle
 10
92.8148677427
 20
141.2551320682
 30
0.0
 40
1.000000000000038
100
AcDbArc
 50
315.0
 51
0.0
  0
ARC
  5
176
330
1F
100
AcDbEntity
  8
0
  6
HIDDEN
 62
     7
370
     0
100
AcDbCircle
 10
92.8148677427
 20
141.2551320682
 30
0.0
 40
1.000000000000014
100
AcDbArc
 50
0.0
 51
52.1052014664
  0
ARC
  5
177
330
1F
100
AcDbEntity
  8
0
  6
HIDDEN
 62
     7
370
     0
100
AcDbCircle
 10
92.8148677427
 20
188.1551320682
 30
0.0
 40
1.000000000000058
100
AcDbArc
 50
351.8087250651
 51
45.0
  0
ARC
  5
178
330
1F
100
AcDbEntity
  8
0
  6
HIDDEN
 62
     7
370
     0
100
AcDbCircle
 10
92.8148677427
 20
188.1551320682
 30
0.0
 40
1.000000000000002
100
AcDbArc
 50
307.8947985336
 51
351.8087250651
  0
LINE
  5
179
330
1F
100
AcDbEntity
  8
0
  6
HIDDEN
 62
     7
370
     0
100
AcDbLine
 10
93.8148677409
 20
141.2551318566
 30
0.0
 11
93.8148677409
 21
188.1551322797
 31
0.0
  0
LINE
  5
17A
330
1F
100
AcDbEntity
  8
0
  6
HIDDEN
 62
     7
370
     0
100
AcDbLine
 10
93.8148677409
 20
141.2551318566
 30
0.0
 11
93.8148677409
 21
188.1551322797
 31
0.0
  0
LINE
  5
17B
330
1F
100
AcDbEntity
  8
0
  6
HIDDEN
 62
     7
370
     0
100
AcDbLine
 10
55.429082527
 20
148.5087023387
 30
0.0
 11
56.959308847
 21
149.39218101
 31
0.0
  0
LINE
  5
17C
330
1F
100
AcDbEntity
  8
0
  6
HIDDEN
 62
     7
370
     0
100
AcDbLine
 10
56.959308847
 20
180.0180831263
 30
0.0
 11
55.429082527
 21
180.9015617976
 31
0.0
  0
ARC
  5
17D
330
1F
100
AcDbEntity
  8
0
  6
HIDDEN
 62
     7
370
     0
100
AcDbCircle
 10
65.4290813051
 20
150.7051320682
 30
0.0
 40
2.000000000000028
100
AcDbArc
 50
189.9742217944
 51
270.0
  0
ARC
  5
17E
330
1F
100
AcDbEntity
  8
0
  6
HIDDEN
 62
     7
370
     0
100
AcDbCircle
 10
65.4290813051
 20
178.7051320682
 30
0.0
 40
2.000000000000028
100
AcDbArc
 50
90.0
 51
170.0257782056
  0
LINE
  5
17F
330
1F
100
AcDbEntity
  8
0
  6
HIDDEN
 62
     7
370
     0
100
AcDbLine
 10
65.4290804408
 20
148.7051313082
 30
0.0
 11
66.4308817826
 21
148.7051313082
 31
0.0
  0
LINE
  5
180
330
1F
100
AcDbEntity
  8
0
  6
HIDDEN
 62
     7
370
     0
100
AcDbLine
 10
66.4308817826
 20
180.7051328281
 30
0.0
 11
65.4290804408
 21
180.7051328281
 31
0.0
  0
ARC
  5
181
330
1F
100
AcDbEntity
  8
0
  6
HIDDEN
 62
     7
370
     0
100
AcDbCircle
 10
66.43088262
 20
150.7051320682
 30
0.0
 40
2.000000000000028
100
AcDbArc
 50
270.0
 51
315.0
  0
ARC
  5
182
330
1F
100
AcDbEntity
  8
0
  6
HIDDEN
 62
     7
370
     0
100
AcDbCircle
 10
66.43088262
 20
178.7051320682
 30
0.0
 40
2.000000000000028
100
AcDbArc
 50
45.0
 51
90.0
  0
LINE
  5
183
330
1F
100
AcDbEntity
  8
0
  6
HIDDEN
 62
     7
370
     0
100
AcDbLine
 10
67.8450969748
 20
149.2909183065
 30
0.0
 11
69.2593103044
 21
150.705131636
 31
0.0
  0
LINE
  5
184
330
1F
100
AcDbEntity
  8
0
  6
HIDDEN
 62
     7
370
     0
100
AcDbLine
 10
69.2593103044
 20
178.7051325003
 30
0.0
 11
67.8450969748
 21
180.1193458298
 31
0.0
  0
LINE
  5
185
330
1F
100
AcDbEntity
  8
0
  6
HIDDEN
 62
     7
370
     0
100
AcDbLine
 10
56.959308847
 20
149.39218101
 30
0.0
 11
61.8593098365
 21
150.705131636
 31
0.0
  0
LINE
  5
186
330
1F
100
AcDbEntity
  8
0
  6
HIDDEN
 62
     7
370
     0
100
AcDbLine
 10
61.8593098365
 20
178.7051325003
 30
0.0
 11
56.959308847
 21
180.0180831263
 31
0.0
  0
LINE
  5
187
330
1F
100
AcDbEntity
  8
0
  6
HIDDEN
 62
     7
370
     0
100
AcDbLine
 10
63.4593089811
 20
179.0515425885
 30
0.0
 11
62.8593100004
 21
178.7051325003
 31
0.0
  0
LINE
  5
188
330
1F
100
AcDbEntity
  8
0
  6
HIDDEN
 62
     7
370
     0
100
AcDbLine
 10
62.8593100004
 20
150.705131636
 30
0.0
 11
63.4593089811
 21
150.3587215478
 31
0.0
  0
ARC
  5
189
330
1F
100
AcDbEntity
  8
0
  6
HIDDEN
 62
     7
370
     0
100
AcDbCircle
 10
81.9290813051
 20
151.2051320682
 30
0.0
 40
0.5000000000000284
100
AcDbArc
 50
270.0
 51
360.0
  0
ARC
  5
18A
330
1F
100
AcDbEntity
  8
0
  6
HIDDEN
 62
     7
370
     0
100
AcDbCircle
 10
81.9290813051
 20
178.2051320682
 30
0.0
 40
0.5000000000000284
100
AcDbArc
 50
0.0
 51
90.0
  0
LINE
  5
18B
330
1F
100
AcDbEntity
  8
0
  6
HIDDEN
 62
     7
370
     0
100
AcDbLine
 10
61.8593098365
 20
150.705131636
 30
0.0
 11
62.8593100004
 21
150.705131636
 31
0.0
  0
LINE
  5
18C
330
1F
100
AcDbEntity
  8
0
  6
HIDDEN
 62
     7
370
     0
100
AcDbLine
 10
62.8593100004
 20
178.7051325003
 30
0.0
 11
61.8593098365
 21
178.7051325003
 31
0.0
  0
LINE
  5
18D
330
1F
100
AcDbEntity
  8
0
  6
HIDDEN
 62
     7
370
     0
100
AcDbLine
 10
69.2593103044
 20
150.705131636
 30
0.0
 11
81.9290812828
 21
150.705131636
 31
0.0
  0
LINE
  5
18E
330
1F
100
AcDbEntity
  8
0
  6
HIDDEN
 62
     7
370
     0
100
AcDbLine
 10
81.9290812828
 20
178.7051325003
 30
0.0
 11
69.2593103044
 21
178.7051325003
 31
0.0
  0
LINE
  5
18F
330
1F
100
AcDbEntity
  8
0
  6
HIDDEN
 62
     7
370
     0
100
AcDbLine
 10
213.5290803157
 20
162.1009406438
 30
0.0
 11
213.5290803157
 21
163.4383977428
 31
0.0
  0
LINE
  5
190
330
1F
100
AcDbEntity
  8
0
  6
HIDDEN
 62
     7
370
     0
100
AcDbLine
 10
213.5290803157
 20
160.6879112581
 30
0.0
 11
213.5290803157
 21
160.9060928961
 31
0.0
  0
LINE
  5
191
330
1F
100
AcDbEntity
  8
0
  6
HIDDEN
 62
     7
370
     0
100
AcDbLine
 10
209.3290837251
 20
163.3958735541
 30
0.0
 11
209.3290837251
 21
160.6879112581
 31
0.0
  0
LINE
  5
192
330
1F
100
AcDbEntity
  8
0
  6
HIDDEN
 62
     7
370
     0
100
AcDbLine
 10
218.3909641348
 20
160.770960086
 30
0.0
 11
212.5748993598
 21
163.3875159817
 31
0.0
  0
LINE
  5
193
330
1F
100
AcDbEntity
  8
0
  6
HIDDEN
 62
     7
370
     0
100
AcDbLine
 10
211.4276813112
 20
159.2981712232
 30
0.0
 11
218.4164749227
 21
156.1540215546
 31
0.0
  0
LINE
  5
194
330
1F
100
AcDbEntity
  8
0
  6
HIDDEN
 62
     7
370
     0
100
AcDbLine
 10
82.4290813647
 20
154.455131785
 30
0.0
 11
83.6790811039
 21
155.7051324556
 31
0.0
  0
LINE
  5
195
330
1F
100
AcDbEntity
  8
0
  6
HIDDEN
 62
     7
370
     0
100
AcDbLine
 10
83.6790811039
 20
173.7051316807
 30
0.0
 11
82.4290813647
 21
174.9551323513
 31
0.0
  0
LINE
  5
196
330
1F
100
AcDbEntity
  8
0
  6
HIDDEN
 62
     7
370
     0
100
AcDbLine
 10
83.6790811039
 20
155.7051324556
 30
0.0
 11
109.4290820651
 21
155.7051324556
 31
0.0
  0
LINE
  5
197
330
1F
100
AcDbEntity
  8
0
  6
HIDDEN
 62
     7
370
     0
100
AcDbLine
 10
109.4290820651
 20
173.7051316807
 30
0.0
 11
83.6790811039
 21
173.7051316807
 31
0.0
  0
LINE
  5
198
330
1F
100
AcDbEntity
  8
0
  6
HIDDEN
 62
     7
370
     0
100
AcDbLine
 10
109.4290820651
 20
155.7051324556
 30
0.0
 11
112.2831685237
 21
160.4551318372
 31
0.0
  0
LINE
  5
199
330
1F
100
AcDbEntity
  8
0
  6
HIDDEN
 62
     7
370
     0
100
AcDbLine
 10
112.2831685237
 20
168.9551322991
 30
0.0
 11
109.4290820651
 21
173.7051316807
 31
0.0
  0
LINE
  5
19A
330
1F
100
AcDbEntity
  8
0
  6
HIDDEN
 62
     7
370
     0
100
AcDbLine
 10
213.4290786229
 20
160.4551318372
 30
0.0
 11
215.9827353202
 21
164.7051320682
 31
0.0
  0
LINE
  5
19B
330
1F
100
AcDbEntity
  8
0
  6
HIDDEN
 62
     7
370
     0
100
AcDbLine
 10
215.9827353202
 20
164.7051320682
 30
0.0
 11
213.4290786229
 21
168.9551322991
 31
0.0
  0
LINE
  5
19C
330
1F
100
AcDbEntity
  8
0
  6
HIDDEN
 62
     7
370
     0
100
AcDbLine
 10
213.4290786229
 20
168.9551322991
 30
0.0
 11
112.2831685237
 21
168.9551322991
 31
0.0
  0
LINE
  5
19D
330
1F
100
AcDbEntity
  8
0
  6
HIDDEN
 62
     7
370
     0
100
AcDbLine
 10
112.2831685237
 20
160.4551318372
 30
0.0
 11
213.4290786229
 21
160.4551318372
 31
0.0
  0
LINE
  5
19E
330
1F
100
AcDbEntity
  8
0
  6
HIDDEN
 62
     7
370
     0
100
AcDbLine
 10
227.0148621641
 20
148.7051313082
 30
0.0
 11
227.0429359518
 21
148.7047382901
 31
0.0
  0
ARC
  5
19F
330
1F
100
AcDbEntity
  8
0
  6
HIDDEN
 62
     7
370
     0
100
AcDbCircle
 10
227.0148677427
 20
147.7051320682
 30
0.0
 40
0.9999999999999928
100
AcDbArc
 50
45.0
 51
64.8454287542
  0
LINE
  5
1A0
330
1F
100
AcDbEntity
  8
0
  6
HIDDEN
 62
     7
370
     0
100
AcDbLine
 10
239.2370925985
 20
157.9437841932
 30
0.0
 11
239.2370925985
 21
157.8391496362
 31
0.0
  0
LINE
  5
1A1
330
1F
100
AcDbEntity
  8
0
  6
HIDDEN
 62
     7
370
     0
100
AcDbLine
 10
213.5290803157
 20
165.9718663935
 30
0.0
 11
213.5290803157
 21
167.7953020474
 31
0.0
  0
LINE
  5
1A2
330
1F
100
AcDbEntity
  8
0
  6
HIDDEN
 62
     7
370
     0
100
AcDbLine
 10
209.3290837251
 20
167.7953020474
 30
0.0
 11
209.3290837251
 21
166.0143905822
 31
0.0
  0
LINE
  5
1A3
330
1F
100
AcDbEntity
  8
0
  6
HIDDEN
 62
     7
370
     0
100
AcDbLine
 10
247.9077951752
 20
150.1881945217
 30
0.0
 11
247.9077951752
 21
150.793400527
 31
0.0
  0
LINE
  5
1A4
330
1F
100
AcDbEntity
  8
0
  6
HIDDEN
 62
     7
370
     0
100
AcDbLine
 10
244.6077989183
 20
150.7933781753
 30
0.0
 11
244.6077989183
 21
150.1881945217
 31
0.0
  0
LINE
  5
1A5
330
1F
100
AcDbEntity
  8
0
  6
HIDDEN
 62
     7
370
     0
100
AcDbLine
 10
213.9290796362
 20
167.8695724616
 30
0.0
 11
213.9290796362
 21
169.6479198793
 31
0.0
  0
LINE
  5
1A6
330
1F
100
AcDbEntity
  8
0
  6
HIDDEN
 62
     7
370
     0
100
AcDbLine
 10
208.9290844045
 20
169.649245617
 30
0.0
 11
208.9290844045
 21
167.8695724616
 31
0.0
  0
LINE
  5
1A7
330
1F
100
AcDbEntity
  8
VERMASSUNG
  6
CENTERX2
100
AcDbLine
 10
51.9727554829
 20
164.7051320682
 30
0.0
 11
253.4290813051
 21
164.7051320682
 31
0.0
  0
LINE
  5
1A8
330
1F
100
AcDbEntity
  8
VERMASSUNG
  6
CENTERX2
100
AcDbLine
 10
253.4290813051
 20
142.7051320682
 30
0.0
 11
253.4290813051
 21
164.7051320682
 31
0.0
  0
LINE
  5
1A9
330
1F
100
AcDbEntity
  8
VERMASSUNG
  6
CENTERX2
100
AcDbLine
 10
253.4290813051
 20
142.7051320682
 30
0.0
 11
268.7591046351
 21
142.7051320682
 31
0.0
  0
DIMENSION
  5
1AA
330
1F
100
AcDbEntity
  8
VERMASSUNG
100
AcDbDimension
  2
_D
 10
253.4290813051
 20
123.2051320682
 30
0.0
 11
173.4290813051
 21
123.2051320682
 31
0.0
 70
   160
  1
<>
 71
     2
 42
-1.0
  3
SLDDIMSTYLE0
100
AcDbAlignedDimension
 13
93.4290813051
 23
133.7051320682
 33
0.0
 14
253.4290813051
 24
142.7051320682
 34
0.0
100
AcDbRotatedDimension
  0
DIMENSION
  5
1B5
330
1F
100
AcDbEntity
  8
VERMASSUNG
100
AcDbDimension
  2
_D_1
 10
55.4290813051
 20
117.2051320682
 30
0.0
 11
154.4290813051
 21
117.2051320682
 31
0.0
 70
   160
  1
<>
 71
     2
 42
-1.0
  3
SLDDIMSTYLE0
100
AcDbAlignedDimension
 13
253.4290813051
 23
142.7051320682
 33
0.0
 14
55.4290813051
 24
144.4127940757
 34
0.0
 50
0.0
100
AcDbRotatedDimension
  0
DIMENSION
  5
1BF
330
1F
100
AcDbEntity
  8
VERMASSUNG
100
AcDbDimension
  2
_D_2
 10
270.229272114
 20
164.7051320682
 30
0.0
 11
270.229272114
 21
153.7051320682
 31
0.0
 70
   160
  1
<>
 71
     2
 42
-1.0
  3
SLDDIMSTYLE0
100
AcDbAlignedDimension
 13
253.4290813051
 23
142.7051320682
 33
0.0
 14
253.4290813051
 24
164.7051320682
 34
0.0
 50
90.0
100
AcDbRotatedDimension
  0
DIMENSION
  5
1C9
330
1F
100
AcDbEntity
  8
VERMASSUNG
100
AcDbDimension
  2
_D_3
 10
250.2072047364
 20
153.3591688637
 30
0.0
 11
259.1574988626
 21
150.3248207824
 31
0.0
 70
   162
  1
<>
 71
     1
 42
-1.0
  3
SLDDIMSTYLE1
100
AcDb2LineAngularDimension
 13
253.4290813051
 23
142.7051320682
 33
0.0
 14
268.7591046351
 24
142.7051320682
 34
0.0
 15
253.4131815719
 25
143.2158782774
 35
0.0
 16
259.1574988626
 26
150.3248207824
 36
0.0
  0
DIMENSION
  5
1D2
330
1F
100
AcDbEntity
  8
VERMASSUNG
100
AcDbDimension
  2
_D_4
 10
45.4290313051
 20
196.2051320682
 30
0.0
 11
45.4290313051
 21
164.7051320682
 31
0.0
 70
   160
  1
PSC%%c<>
 71
     2
 42
-1.0
  3
SLDDIMSTYLE0
100
AcDbAlignedDimension
 13
93.9290813051
 23
133.2051320682
 33
0.0
 14
93.9290813051
 24
196.2051320682
 34
0.0
 50
90.0
100
AcDbRotatedDimension
  0
DIMENSION
  5
1DE
330
1F
100
AcDbEntity
  8
VERMASSUNG
100
AcDbDimension
  2
_D_5
 10
144.3097845501
 20
180.7051320682
 30
0.0
 11
144.3097845501
 21
156.0520592928
 31
0.0
 70
   160
  1
%%c<>
 71
     2
 42
-1.0
  3
SLDDIMSTYLE0
100
AcDbAlignedDimension
 13
119.4290813051
 23
148.7051320682
 33
0.0
 14
119.4290813051
 24
180.7051320682
 34
0.0
 50
90.0
100
AcDbRotatedDimension
  0
LINE
  5
1E7
330
1F
100
AcDbEntity
  8
0
  6
Continuous
 62
     7
370
    15
100
AcDbLine
 10
163.4817511152
 20
48.7208423384
 30
0.0
 11
163.5132051091
 21
48.7230421223
 31
0.0
  0
LINE
  5
1E8
330
1F
100
AcDbEntity
  8
0
  6
Continuous
 62
     7
370
    15
100
AcDbLine
 10
167.1084479098
 20
54.2209559299
 30
0.0
 11
165.616818042
 21
54.0488754578
 31
0.0
  0
LINE
  5
1E9
330
1F
100
AcDbEntity
  8
0
  6
Continuous
 62
     7
370
    15
100
AcDbLine
 10
165.616818042
 20
54.0488754578
 30
0.0
 11
163.4372875927
 21
54.1093890734
 31
0.0
  0
LINE
  5
1EA
330
1F
100
AcDbEntity
  8
0
  6
Continuous
 62
     7
370
    15
100
AcDbLine
 10
161.5169496876
 20
81.5715008594
 30
0.0
 11
163.4372875927
 21
54.1093890734
 31
0.0
  0
ARC
  5
1EB
330
1F
100
AcDbEntity
  8
0
  6
Continuous
 62
     7
370
    15
100
AcDbCircle
 10
163.896339633
 20
65.2439632632
 30
0.0
 40
16.50000000000009
100
AcDbArc
 50
0.0
 51
98.2912714864
  0
LINE
  5
1EC
330
1F
100
AcDbEntity
  8
0
  6
Continuous
 62
     7
370
    15
100
AcDbLine
 10
180.3963395436
 20
63.7439632502
 30
0.0
 11
180.3963395436
 21
65.2439632632
 31
0.0
  0
ARC
  5
1ED
330
1F
100
AcDbEntity
  8
0
  6
Continuous
 62
     7
370
    15
100
AcDbCircle
 10
157.396339633
 20
63.7439632632
 30
0.0
 40
23.00000000000011
100
AcDbArc
 50
307.9853351412
 51
0.0
  0
LINE
  5
1EE
330
1F
100
AcDbEntity
  8
0
  6
Continuous
 62
     7
370
    15
100
AcDbLine
 10
167.7773500927
 20
44.6552095183
 30
0.0
 11
171.5519141075
 21
45.6160922714
 31
0.0
  0
LINE
  5
1EF
330
1F
100
AcDbEntity
  8
0
  6
Continuous
 62
     7
370
    15
100
AcDbLine
 10
167.1084479098
 20
54.2209559299
 30
0.0
 11
167.1234058816
 21
54.0070460357
 31
0.0
  0
ARC
  5
1F0
330
1F
100
AcDbEntity
  8
0
  6
Continuous
 62
     7
370
    15
100
AcDbCircle
 10
157.396339633
 20
63.7439632632
 30
0.0
 40
23.00000000000012
100
AcDbArc
 50
305.8535901012
 51
307.9853351412
  0
LINE
  5
1F1
330
1F
100
AcDbEntity
  8
0
  6
Continuous
 62
     7
370
    15
100
AcDbLine
 10
170.8678083163
 20
45.1020878919
 30
0.0
 11
167.800699281
 21
44.3212987103
 31
0.0
  0
SPLINE
  5
1F2
330
1F
100
AcDbEntity
  8
0
  6
Continuous
 62
     7
370
    15
100
AcDbSpline
210
0.0
220
0.0
230
1.0
 70
     8
 71
     3
 72
    14
 73
    10
 74
     0
 42
0.00000001
 43
0.00000001
 12
1.0
 22
0.0
 32
0.0
 13
1.0
 23
0.0
 33
0.0
 40
0.0
 40
0.0
 40
0.0
 40
0.0
 40
0.2500000000000002
 40
0.2500000000000002
 40
0.5000000000000001
 40
0.5000000000000001
 40
0.7500000000000001
 40
0.7500000000000001
 40
1.0
 40
1.0
 40
1.0
 40
1.0
 10
159.3568559170899
 20
80.58648872655947
 30
0.0
 10
159.6648633181127
 20
80.6776206972809
 30
0.0
 10
159.9546851191812
 20
80.75332631603254
 30
0.0
 10
160.4947917657807
 20
80.88066543206791
 30
0.0
 10
160.731386080002
 20
80.92912952506991
 30
0.0
 10
161.1311402471209
 20
81.00451668024282
 30
0.0
 10
161.2856941918206
 20
81.02990876509314
 30
0.0
 10
161.4979405233735
 20
81.06354690877133
 30
0.0
 10
161.5519290162823
 20
81.07127316921417
 30
0.0
 10
161.5519290162823
 20
81.07127316921418
 30
0.0
  0
SPLINE
  5
1F3
330
1F
100
AcDbEntity
  8
0
  6
Continuous
 62
     7
370
    15
100
AcDbSpline
210
0.0
220
0.0
230
1.0
 70
     8
 71
     3
 72
    10
 73
     6
 74
     0
 42
0.00000001
 43
0.00000001
 12
1.0
 22
0.0
 32
0.0
 13
1.0
 23
0.0
 33
0.0
 40
0.0
 40
0.0
 40
0.0
 40
0.0
 40
0.2747857256900348
 40
0.6521802931241375
 40
1.0
 40
1.0
 40
1.0
 40
1.0
 10
163.4762904217395
 20
49.25094742257283
 30
0.0
 10
163.370597691583
 20
49.25361053177153
 30
0.0
 10
163.1197450842963
 20
49.25993119247349
 30
0.0
 10
162.4236670130416
 20
49.30174723856457
 30
0.0
 10
161.8239369744533
 20
49.38097719573027
 30
0.0
 10
161.5363007080204
 20
49.41897664148495
 30
0.0
  0
ELLIPSE
  5
1F4
330
1F
100
AcDbEntity
  8
0
  6
Continuous
 62
     7
370
    15
100
AcDbEllipse
 10
155.5180033232
 20
59.0013220965
 30
0.0
 11
-1.760196824718207
 21
1.835933670849798
 31
0.0
210
0.0
220
0.0
230
1.0
 40
0.8100956337
 41
0.0
 42
6.283185307179586
  0
ARC
  5
1F5
330
1F
100
AcDbEntity
  8
0
  6
Continuous
 62
     7
370
    15
100
AcDbCircle
 10
163.896339633
 20
65.2439632632
 30
0.0
 40
16.00000000000004
100
AcDbArc
 50
106.4822165171
 51
261.5177834829
  0
SPLINE
  5
1F6
330
1F
100
AcDbEntity
  8
0
  6
Continuous
 62
     7
370
    15
100
AcDbSpline
210
0.0
220
0.0
230
1.0
 70
     8
 71
     3
 72
    15
 73
    11
 74
     0
 42
0.00000001
 43
0.00000001
 12
1.0
 22
0.0
 32
0.0
 13
1.0
 23
0.0
 33
0.0
 40
0.0
 40
0.0
 40
0.0
 40
0.0
 40
0.1461438203277909
 40
0.4038077901146456
 40
0.4952310796936144
 40
0.568548316525872
 40
0.6425597183694848
 40
0.7396830264076132
 40
0.944026050050943
 40
1.0
 40
1.0
 40
1.0
 40
1.0
 10
156.2154695060498
 20
60.92282209474728
 30
0.0
 10
156.1360956685444
 20
60.80532725103641
 30
0.0
 10
155.9167790129096
 20
60.48067901697262
 30
0.0
 10
155.435844652818
 20
60.28050538078896
 30
0.0
 10
154.9582465294905
 20
60.1355042617063
 30
0.0
 10
154.6498576593183
 20
60.04603161896927
 30
0.0
 10
154.3281077514486
 20
59.93388644147153
 30
0.0
 10
153.9093755709263
 20
59.78713456370525
 30
0.0
 10
153.5563925290949
 20
59.67114853063759
 30
0.0
 10
153.3288762550189
 20
59.74558648018979
 30
0.0
 10
153.2799551863617
 20
59.76159229803965
 30
0.0
  0
CIRCLE
  5
1F7
330
1F
100
AcDbEntity
  8
0
  6
Continuous
 62
     7
370
    15
100
AcDbCircle
 10
163.896339633
 20
65.2439632632
 30
0.0
 40
31.50000000000012
  0
LINE
  5
1F8
330
1F
100
AcDbEntity
  8
0
  6
Continuous
 62
     7
370
    15
100
AcDbLine
 10
167.8067396064
 20
44.2349204041
 30
0.0
 11
167.1284608677
 21
53.9347577088
 31
0.0
  0
LINE
  5
1F9
330
1F
100
AcDbEntity
  8
0
  6
Continuous
 62
     7
370
    15
100
AcDbLine
 10
163.8606247801
 20
43.7547099956
 30
0.0
 11
163.1513368124
 21
53.8980002694
 31
0.0
  0
SPLINE
  5
1FA
330
1F
100
AcDbEntity
  8
0
  6
Continuous
 62
     7
370
    15
100
AcDbSpline
210
0.0
220
0.0
230
1.0
 70
     8
 71
     3
 72
     9
 73
     5
 74
     0
 42
0.00000001
 43
0.00000001
 12
1.0
 22
0.0
 32
0.0
 13
1.0
 23
0.0
 33
0.0
 40
0.0
 40
0.0
 40
0.0
 40
0.0
 40
0.5598168474431245
 40
1.0
 40
1.0
 40
1.0
 40
1.0
 10
167.8154246550447
 20
44.11071550030396
 30
0.0
 10
167.0842117397182
 20
43.95112479499993
 30
0.0
 10
165.7780471991791
 20
43.6660481560368
 30
0.0
 10
164.4707018992413
 20
43.38398378843316
 30
0.0
 10
163.8952305236343
 20
43.25982380587742
 30
0.0
  0
SPLINE
  5
1FB
330
1F
100
AcDbEntity
  8
0
  6
Continuous
 62
     7
370
    15
100
AcDbSpline
210
0.0
220
0.0
230
1.0
 70
     8
 71
     3
 72
    14
 73
    10
 74
     0
 42
0.00000001
 43
0.00000001
 12
1.0
 22
0.0
 32
0.0
 13
1.0
 23
0.0
 33
0.0
 40
0.0
 40
0.0
 40
0.0
 40
0.0
 40
0.1583279445697073
 40
0.3168142868405823
 40
0.4713951176332097
 40
0.6221015189103708
 40
0.7721394017436658
 40
0.9246190157089663
 40
1.0
 40
1.0
 40
1.0
 40
1.0
 10
167.8067396063751
 20
44.23492040414498
 30
0.0
 10
167.8075270362826
 20
44.22365913074513
 30
0.0
 10
167.8091026838743
 20
44.20112531771053
 30
0.0
 10
167.8114915728648
 20
44.16695923192747
 30
0.0
 10
167.8135234796345
 20
44.13790366776513
 30
0.0
 10
167.8149963439414
 20
44.11684068806753
 30
0.0
 10
167.8157697661865
 20
44.10578078322433
 30
0.0
 10
167.8158159448714
 20
44.10512258641772
 30
0.0
 10
167.8155219234076
 20
44.10932519179067
 30
0.0
 10
167.8154246550447
 20
44.11071550030396
 30
0.0
  0
SPLINE
  5
1FC
330
1F
100
AcDbEntity
  8
0
  6
Continuous
 62
     7
370
    15
100
AcDbSpline
210
0.0
220
0.0
230
1.0
 70
     8
 71
     3
 72
    14
 73
    10
 74
     0
 42
0.00000001
 43
0.00000001
 12
1.0
 22
0.0
 32
0.0
 13
1.0
 23
0.0
 33
0.0
 40
0.0
 40
0.0
 40
0.0
 40
0.0
 40
0.158840526565165
 40
0.3173276004680039
 40
0.4720103861421687
 40
0.6236429579456864
 40
0.7746583788850078
 40
0.9277383410952367
 40
1.0
 40
1.0
 40
1.0
 40
1.0
 10
163.8952305236343
 20
43.25982380587742
 30
0.0
 10
163.8958953627219
 20
43.25031599319176
 30
0.0
 10
163.8972235614941
 20
43.23132152464849
 30
0.0
 10
163.8950962798858
 20
43.26174502381784
 30
0.0
 10
163.8901738982501
 20
43.3321380649268
 30
0.0
 10
163.8828777569969
 20
43.43647785475266
 30
0.0
 10
163.8741217726995
 20
43.56169260600554
 30
0.0
 10
163.8663993076256
 20
43.67212857884653
 30
0.0
 10
163.8620269049162
 20
43.73465823348841
 30
0.0
 10
163.8606247801262
 20
43.7547099955766
 30
0.0
  0
SPLINE
  5
1FD
330
1F
100
AcDbEntity
  8
0
  6
Continuous
 62
     7
370
    15
100
AcDbSpline
210
0.0
220
0.0
230
1.0
 70
     8
 71
     3
 72
    10
 73
     6
 74
     0
 42
0.00000001
 43
0.00000001
 12
1.0
 22
0.0
 32
0.0
 13
1.0
 23
0.0
 33
0.0
 40
0.0
 40
0.0
 40
0.0
 40
0.0
 40
0.2657422428470327
 40
0.6165802328051138
 40
1.0
 40
1.0
 40
1.0
 40
1.0
 10
167.1239395294732
 20
53.9994147785394
 30
0.0
 10
167.1241588123882
 20
53.99627956005639
 30
0.0
 10
167.1246675968002
 20
53.98900516618721
 30
0.0
 10
167.1261830502574
 20
53.96732947153902
 30
0.0
 10
167.1276794614505
 20
53.94593146635713
 30
0.0
 10
167.1284608677423
 20
53.93475770879672
 30
0.0
  0
SPLINE
  5
1FE
330
1F
100
AcDbEntity
  8
0
  6
Continuous
 62
     7
370
    15
100
AcDbSpline
210
0.0
220
0.0
230
1.0
 70
     8
 71
     3
 72
    10
 73
     6
 74
     0
 42
0.00000001
 43
0.00000001
 12
1.0
 22
0.0
 32
0.0
 13
1.0
 23
0.0
 33
0.0
 40
0.0
 40
0.0
 40
0.0
 40
0.0
 40
0.3518058475263222
 40
0.7034342572867441
 40
1.0
 40
1.0
 40
1.0
 40
1.0
 10
163.1513368123605
 20
53.89800026942179
 30
0.0
 10
163.148464660494
 20
53.93907400258725
 30
0.0
 10
163.1427218053673
 20
54.02120075285703
 30
0.0
 10
163.1364393703338
 20
54.11104260405074
 30
0.0
 10
163.1342527625368
 20
54.14231309892167
 30
0.0
 10
163.1332523323989
 20
54.15662016648934
 30
0.0
  0
LINE
  5
1FF
330
1F
100
AcDbEntity
  8
0
  6
Continuous
 62
     7
370
    15
100
AcDbLine
 10
163.2118977508
 20
57.3326145478
 30
0.0
 11
162.9096146575
 21
57.3547874757
 31
0.0
  0
LINE
  5
200
330
1F
100
AcDbEntity
  8
0
  6
Continuous
 62
     7
370
    15
100
AcDbLine
 10
167.1239395295
 20
53.9994147785
 30
0.0
 11
167.1234058816
 21
54.0070460357
 31
0.0
  0
LINE
  5
201
330
1F
100
AcDbEntity
  8
0
  6
Continuous
 62
     7
370
    15
100
AcDbLine
 10
163.1332523324
 20
54.1566201665
 30
0.0
 11
162.9096146575
 21
57.3547874757
 31
0.0
  0
LINE
  5
202
330
1F
100
AcDbEntity
  8
0
  6
Continuous
 62
     7
370
    15
100
AcDbLine
 10
163.1513368124
 20
53.8980002694
 30
0.0
 11
163.1332523324
 21
54.1566201665
 31
0.0
  0
CIRCLE
  5
203
330
1F
100
AcDbEntity
  8
VERMASSUNG
  6
CENTERX2
100
AcDbCircle
 10
163.896339633
 20
63.4133138351
 30
0.0
 40
20.00000000000002
  0
DIMENSION
  5
204
330
1F
100
AcDbEntity
  8
VERMASSUNG
100
AcDbDimension
  2
_D_6
 10
151.6815216354
 20
47.5767036774
 30
0.0
 11
140.313440931
 21
32.8378952571
 31
0.0
 70
   160
  1
%%c<> min. 
 71
     2
 42
-1.0
  3
SLDDIMSTYLE2
100
AcDbAlignedDimension
 13
176.1111576306
 23
79.2499239927
 33
0.0
 14
151.6815216354
 24
47.5767036774
 34
0.0
 50
52.35690585
100
AcDbRotatedDimension
  0
DIMENSION
  5
213
330
1F
100
AcDbEntity
  8
VERMASSUNG
100
AcDbDimension
  2
_D_7
 10
163.896339633
 20
31.2439632632
 30
0.0
 11
152.0933009434
 21
101.6508725253
 31
0.0
 70
   162
  1
<>
 71
     1
 42
-1.0
  3
SLDDIMSTYLE3
100
AcDb2LineAngularDimension
 13
161.5169496472
 23
81.5715014517
 33
0.0
 14
163.437287596
 24
54.1093893464
 34
0.0
 15
163.896339633
 25
99.2439632632
 35
0.0
 16
161.9636522063
 26
102.8895660379
 36
0.0
  0
INSERT
  5
22B
330
1F
100
AcDbEntity
  8
VERMASSUNG
100
AcDbBlockReference
  2
SW_CENTERMARKSYMBOL_0
 10
163.896339633
 20
65.2439632632
 30
0.0
  0
OLE2FRAME
  5
22C
330
1F
100
AcDbEntity
  8
0
100
AcDbOle2Frame
 70
     2
  3
Paintbrush-Bild
 10
13.8511154363
 20
38.264191557
 30
0.0
 11
51.6290888628
 21
31.9806341108
 31
0.0
 71
     2
 72
     0
 73
     1
 90
    12928
310
80552BED0767C5B32B40DDAF6807D121434000000000000000006FFBDDFB85D0
310
4940DDAF6807D121434000000000000000006FFBDDFB85D04940416F4BD60AFB
310
3F4000000000000000002BED0767C5B32B40416F4BD60AFB3F40000000000000
310
0000000000000100000000010000010000000100000000000100000000320000
310
D0CF11E0A1B11AE1000000000000000000000000000000003E000300FEFF0900
310
0600000000000000000000000100000001000000000000000010000002000000
310
01000000FEFFFFFF0000000000000000FFFFFFFFFFFFFFFFFFFFFFFFFFFFFFFF
310
FFFFFFFFFFFFFFFFFFFFFFFFFFFFFFFFFFFFFFFFFFFFFFFFFFFFFFFFFFFFFFFF
310
FFFFFFFFFFFFFFFFFFFFFFFFFFFFFFFFFFFFFFFFFFFFFFFFFFFFFFFFFFFFFFFF
310
FFFFFFFFFFFFFFFFFFFFFFFFFFFFFFFFFFFFFFFFFFFFFFFFFFFFFFFFFFFFFFFF
310
FFFFFFFFFFFFFFFFFFFFFFFFFFFFFFFFFFFFFFFFFFFFFFFFFFFFFFFFFFFFFFFF
310
FFFFFFFFFFFFFFFFFFFFFFFFFFFFFFFFFFFFFFFFFFFFFFFFFFFFFFFFFFFFFFFF
310
FFFFFFFFFFFFFFFFFFFFFFFFFFFFFFFFFFFFFFFFFFFFFFFFFFFFFFFFFFFFFFFF
310
FFFFFFFFFFFFFFFFFFFFFFFFFFFFFFFFFFFFFFFFFFFFFFFFFFFFFFFFFFFFFFFF
310
FFFFFFFFFFFFFFFFFFFFFFFFFFFFFFFFFFFFFFFFFFFFFFFFFFFFFFFFFFFFFFFF
310
FFFFFFFFFFFFFFFFFFFFFFFFFFFFFFFFFFFFFFFFFFFFFFFFFFFFFFFFFFFFFFFF
310
FFFFFFFFFFFFFFFFFFFFFFFFFFFFFFFFFFFFFFFFFFFFFFFFFFFFFFFFFFFFFFFF
310
FFFFFFFFFFFFFFFFFFFFFFFFFFFFFFFFFFFFFFFFFFFFFFFFFFFFFFFFFFFFFFFF
310
FFFFFFFFFFFFFFFFFFFFFFFFFFFFFFFFFFFFFFFFFFFFFFFFFFFFFFFFFFFFFFFF
310
FFFFFFFFFFFFFFFFFFFFFFFFFFFFFFFFFFFFFFFFFFFFFFFFFFFFFFFFFFFFFFFF
310
FDFFFFFFFEFFFFFFFEFFFFFFFEFFFFFF05000000060000000700000008000000
310
090000000A0000000B0000000C0000000D0000000E0000000F00000010000000
310
11000000120000001300000014000000150000001600000017000000FEFFFFFF
310
FFFFFFFFFFFFFFFFFFFFFFFFFFFFFFFFFFFFFFFFFFFFFFFFFFFFFFFFFFFFFFFF
310
FFFFFFFFFFFFFFFFFFFFFFFFFFFFFFFFFFFFFFFFFFFFFFFFFFFFFFFFFFFFFFFF
310
FFFFFFFFFFFFFFFFFFFFFFFFFFFFFFFFFFFFFFFFFFFFFFFFFFFFFFFFFFFFFFFF
310
FFFFFFFFFFFFFFFFFFFFFFFFFFFFFFFFFFFFFFFFFFFFFFFFFFFFFFFFFFFFFFFF
310
FFFFFFFFFFFFFFFFFFFFFFFFFFFFFFFFFFFFFFFFFFFFFFFFFFFFFFFFFFFFFFFF
310
FFFFFFFFFFFFFFFFFFFFFFFFFFFFFFFFFFFFFFFFFFFFFFFFFFFFFFFFFFFFFFFF
310
FFFFFFFFFFFFFFFFFFFFFFFFFFFFFFFFFFFFFFFFFFFFFFFFFFFFFFFFFFFFFFFF
310
FFFFFFFFFFFFFFFFFFFFFFFFFFFFFFFFFFFFFFFFFFFFFFFFFFFFFFFFFFFFFFFF
310
FFFFFFFFFFFFFFFFFFFFFFFFFFFFFFFFFFFFFFFFFFFFFFFFFFFFFFFFFFFFFFFF
310
FFFFFFFFFFFFFFFFFFFFFFFFFFFFFFFFFFFFFFFFFFFFFFFFFFFFFFFFFFFFFFFF
310
FFFFFFFFFFFFFFFFFFFFFFFFFFFFFFFFFFFFFFFFFFFFFFFFFFFFFFFFFFFFFFFF
310
FFFFFFFFFFFFFFFFFFFFFFFFFFFFFFFFFFFFFFFFFFFFFFFFFFFFFFFFFFFFFFFF
310
FFFFFFFFFFFFFFFFFFFFFFFFFFFFFFFFFFFFFFFFFFFFFFFFFFFFFFFFFFFFFFFF
310
52006F006F007400200045006E00740072007900000000000000000000000000
310
0000000000000000000000000000000000000000000000000000000000000000
310
16000500FFFFFFFFFFFFFFFF020000000A00030000000000C000000000000046
310
000000000000000000000000201C3468B444CD0103000000C000000000000000
310
01004F006C006500000000000000000000000000000000000000000000000000
310
0000000000000000000000000000000000000000000000000000000000000000
310
0A000200FFFFFFFFFFFFFFFFFFFFFFFF00000000000000000000000000000000
310
0000000000000000000000000000000000000000000000001400000000000000
310
010043006F006D0070004F0062006A0000000000000000000000000000000000
310
0000000000000000000000000000000000000000000000000000000000000000
310
120002010100000003000000FFFFFFFF00000000000000000000000000000000
310
0000000000000000000000000000000000000000010000004D00000000000000
310
01004F006C006500310030004E00610074006900760065000000000000000000
310
0000000000000000000000000000000000000000000000000000000000000000
310
1A000200FFFFFFFFFFFFFFFFFFFFFFFF00000000000000000000000000000000
310
0000000000000000000000000000000000000000040000002426000000000000
310
FEFFFFFF02000000FEFFFFFFFFFFFFFFFFFFFFFFFFFFFFFFFFFFFFFFFFFFFFFF
310
FFFFFFFFFFFFFFFFFFFFFFFFFFFFFFFFFFFFFFFFFFFFFFFFFFFFFFFFFFFFFFFF
310
FFFFFFFFFFFFFFFFFFFFFFFFFFFFFFFFFFFFFFFFFFFFFFFFFFFFFFFFFFFFFFFF
310
FFFFFFFFFFFFFFFFFFFFFFFFFFFFFFFFFFFFFFFFFFFFFFFFFFFFFFFFFFFFFFFF
310
FFFFFFFFFFFFFFFFFFFFFFFFFFFFFFFFFFFFFFFFFFFFFFFFFFFFFFFFFFFFFFFF
310
FFFFFFFFFFFFFFFFFFFFFFFFFFFFFFFFFFFFFFFFFFFFFFFFFFFFFFFFFFFFFFFF
310
FFFFFFFFFFFFFFFFFFFFFFFFFFFFFFFFFFFFFFFFFFFFFFFFFFFFFFFFFFFFFFFF
310
FFFFFFFFFFFFFFFFFFFFFFFFFFFFFFFFFFFFFFFFFFFFFFFFFFFFFFFFFFFFFFFF
310
FFFFFFFFFFFFFFFFFFFFFFFFFFFFFFFFFFFFFFFFFFFFFFFFFFFFFFFFFFFFFFFF
310
FFFFFFFFFFFFFFFFFFFFFFFFFFFFFFFFFFFFFFFFFFFFFFFFFFFFFFFFFFFFFFFF
310
FFFFFFFFFFFFFFFFFFFFFFFFFFFFFFFFFFFFFFFFFFFFFFFFFFFFFFFFFFFFFFFF
310
FFFFFFFFFFFFFFFFFFFFFFFFFFFFFFFFFFFFFFFFFFFFFFFFFFFFFFFFFFFFFFFF
310
FFFFFFFFFFFFFFFFFFFFFFFFFFFFFFFFFFFFFFFFFFFFFFFFFFFFFFFFFFFFFFFF
310
FFFFFFFFFFFFFFFFFFFFFFFFFFFFFFFFFFFFFFFFFFFFFFFFFFFFFFFFFFFFFFFF
310
FFFFFFFFFFFFFFFFFFFFFFFFFFFFFFFFFFFFFFFFFFFFFFFFFFFFFFFFFFFFFFFF
310
FFFFFFFFFFFFFFFFFFFFFFFFFFFFFFFFFFFFFFFFFFFFFFFFFFFFFFFFFFFFFFFF
310
0100000200000000000000000000000000000000000000000000000000000000
310
0000000000000000000000000000000000000000000000000000000000000000
310
0100FEFF030A0000FFFFFFFF0A00030000000000C00000000000004607000000
310
5042727573680007000000504272757368000700000050427275736800F439B2
310
7100000000000000000000000000000000000000000000000000000000000000
310
0000000000000000000000000000000000000000000000000000000000000000
310
0000000000000000000000000000000000000000000000000000000000000000
310
0000000000000000000000000000000000000000000000000000000000000000
310
0000000000000000000000000000000000000000000000000000000000000000
310
0000000000000000000000000000000000000000000000000000000000000000
310
0000000000000000000000000000000000000000000000000000000000000000
310
0000000000000000000000000000000000000000000000000000000000000000
310
0000000000000000000000000000000000000000000000000000000000000000
310
0000000000000000000000000000000000000000000000000000000000000000
310
0000000000000000000000000000000000000000000000000000000000000000
310
0000000000000000000000000000000000000000000000000000000000000000
310
20260000424D0E260000000000003E00000028000000B40200006E0000000100
310
01000000000000000000130B0000130B00000200000002000000000000FFFFFF
310
FFFFFFFFFFFFFFFFFFFFFFFFFFFFFFFFFFFFFFFFFFFFFFFFFFFFFFFFFFFFFFFF
310
FFFFFFFFFFFFFFFFFFFFFFFFFFFFFFFFFFFFFFFFFFFFFFFFFFFFFFFFFFFFFFFF
310
FFFFFFFFFFFFFFFFFFFFFFFFFFFFFFFFFFFFFFFFFFFFFFFFF000FFFFFFFFFFFF
310
FFFFFFFFFFFFFFFFFFFFFFFFFFFFFFFFFFFFFFFFFFFFFFFFFFFFFFFFFFFFFFFF
310
FFFFFFFFFFFFFFFFFFFFFFFFFFFFFFFFFFFFFFFFFFFFFFFFFFFFFFFFFFFFFFFF
310
FFFFFFFFFFFFFFFFFFFFFFFFFFFFFFFFF000FFFFFFFFFFFFFFFFFFFFFFFFFFFF
310
FFFFFFFFFFFFFFFFFFFFFFFFFFFFFFFFFFFFFFFFFFFFFFFFFFFFFFFFFFFFFFFF
310
FFFFFFFFFFFFFFFFFFFFFFFFFFFFFFFFFFFFFFFFFFFFFFFFFFFFFFFFFFFFFFFF
310
FFFFFFFFFFFFFFFFF000FFFFFFFFFFFFFFFFFFFFFFFFFFFFFFFFFFFFFFFFFFFF
310
FFFFFFFFFFFFFFFFFFFFFFFFFFFFFFFFFFFFFFFFFFFFFFFFFFFFFFFFFFFFFFFF
310
FFFFFFFFFFFFFFFFFFFFFFFFFFFFFFFFFFFFFFFFFFFFFFFFFFFFFFFFFFFFFFFF
310
F000FFFFFFFFFFFFFFFFFFFFFFFFFFFFFFFFFFFFFFFFFFFFFFFFFFFFFFFFFFFF
310
FFFFFFFFFFFFFFFFFFFFFFFFFFFFFFFFFFFFFFFFFFFFFFFFFFFFFFFFFFFFFFFF
310
FFFFFFFFFFFFFFFFFFFFFFFFFFFFFFFFFFFFFFFFFFFFFFFFF000FFFFFFFFFFFF
310
FFFFFFFFFFFFFFFFFFFFFFFFFFFFFFFFFFFFFFFFFFFFFFFFFFFFFFFFFFFFFFFF
310
FFFFFFFFFFFFFFFFFFFFFFFFFFFFFFFFFFFFFFFFFFFFFFFFFFFFFFFFFFFFFFFF
310
FFFFFFFFFFFFFFFFFFFFFFFFFFFFFFFFF000FFFFFFFFFFFFFFFFFFFFFFFFFFFF
310
FFFFFFFFFFFFFFFFFFFFFFFFFFFFFFFFFFFFFFFFFFFFFFFFFFFFFFFFFFFFFFFF
310
FFFFFFFFFFFFFFFFFFFFFFFFFFFFFFFFFFFFFFFFFFFFFFFFFFFFFFFFFFFFFFFF
310
FFFFFFFFFFFFFFFFF000FFFFFFFFFFFFFFFFFFFFFFFFFFFFFFFFFFFFFFFFFFFF
310
FFFFFFFFFFFFFFFFFFFFFFFFFFFFFFFFFFFFFFFFFFFFFFFFFFFFFFFFFFFFFFFF
310
FFFFFFFFFFFFFFFFFFFFFFFFFFFFFFFFFFFFFFFFFFFFFFFFFFFFFFFFFFFFFFFF
310
F000FFFFFFFFFFFFFFFFFFFFFFFFFFFFFFFFFFFFFFFFFFFFFFFFFFFFFFFFFFFF
310
FFFFFFFFFFFFFFFFFFFFFFFFFFFFFFFFFFFFFFFFFFFFFFFFFFFFFFFFFFFFFFFF
310
FFFFFFFFFFFFFFFFFFFFFFFFFFFFFFFFFFFFFFFFFFFFFFFFF000FFFFFFFFFFFF
310
FFFFFFFFFFFFFFFFFFFFFFFFFFFFFFFFFFFFFFFFFFFFFFFFFFFFFFFFFFFFFFFF
310
FFFFFFFFFFFFFFFFFFFFFFFFFFFFFFFFFFFFFFFFFFFFFFFFFFFFFFFFFFFFFFFF
310
FFFFFFFFFFFFFFFFFFFFFFFFFFFFFFFFF000FFFFFFFFFFFFFFFFFFFFFFFFFFFF
310
FFFFFFFFFFFFFFFFFFFFFFFFFFFFFFFFFFFFFFFFFFFFFFFFFFFFFFFFFFFFFFFF
310
FFFFFFFFFFFFFFFFFFFFFFFFFFFFFFFFFFFFFFFFFFFFFFFFFFFFFFFFFFFFFFFF
310
FFFFFFFFFFFFFFFFF000FFFFFFFFFFFFFFFFFFFFFFFFFFFFFFFFFFFFFFFFFFFF
310
FFFFFFFFFFFFFFFFFFFFFFFFFFFFFFFFFFFFFFFFFFFFFFFFFFFFFFFFFFFFFFFF
310
FFFFFFFFFFFFFFFFFFFFFFFFFFFFFFFFFFFFFFFFFFFFFFFFFFFFFFFFFFFFFFFF
310
F000FFFFFFFFFFFFFFFFFFFFFFFFFFFFFFFFFFFFFFFFFFFFFFFFFFFFFFFFFFFF
310
FFFFFFFFFFFFFFFFFFFFFFFFFFFFFFFFFFFFFFFFFFFFFFFFFFFFFFFFFFFFFFFF
310
FFFFFFFFFFFFFFFFFFFFFFFFFFFFFFFFFFFFFFFFFFFFFFFFF000FFFFFFFFFFFF
310
FFFFFFFFFFFFFFFFFFFFFFFFFFFFFFFFFFFFFFFFFFFFFFFFFFFFFFFFFFFFFFFF
310
FFFFFFFFFFFFFFFFFFFFFFFFFFFFFFFFFFFFFFFFFFFFFFFFFFFFFFFFFFFFFFFF
310
FFFFFFFFFFFFFFFFFFFFFFFFFFFFFFFFF000FFFFFFFFFFFFFFFFFFFFFFFFFFFF
310
FFFFFFFFFFFFFFFFFFFFFFFFFFFFFFFFFFFFFFFFFFFFFFFFFFFFFFFFFFFFFFFF
310
FFFFFFFFFFFFFFFFFFFFFFFFFFFFFFFFFFFFFFFFFFFFFFFFFFFFFFFFFFFFFFFF
310
FFFFFFFFFFFFFFFFF000FFFFFFFFFFFFFFFFFFFFFFFFFFFFFFFFFFFFFFFFFFFF
310
FFFFFFFFFFFFFFFFFFFFFFFFFFFFFFFFFFFFFFFFFFFFFFFFFFFFFFFFFFFFFFFF
310
FFFFFFFFFFFFFFFFFFFFFFFFFFFFFFFFFFFFFFFFFFFFFFFFFFFFFFFFFFFFFFFF
310
F000FFFFFFFFFFFFFFFFFFFFFFFFFFFFFFFFFFFFFFFFFFFFFFFFFFFFFFFFFFFF
310
FFFFFFFFFFFFFFFFFFFFFFFFFFFFFFFFFFFFFFFFFFFFFFFFFFFFFFFFFFFFFFFF
310
FFFFFFFFFFFFFFFFFFFFFFFFFFFFFFFFFFFFFFFFFFFFFFFFF000FFFFFFFFFFFF
310
FFFFFFFFFFFFFFFFFFFFFFFFFFFFFFFFFFFFFFFFFFFFFFFFFFFFFFFFFFFFFFFF
310
FFFFFFFFFFFFFFFFFFFFFFFFFFFFFFFFFFFFFFFFFFFFFFFFFFFFFFFFFFFFFFFF
310
FFFFFFFFFFFFFFFFFFFFFFFFFFFFFFFFF000FFFFFFFFFFFFFFFFFFFFFFFFFFFF
310
FFFFFFFFFFFFFFFFFFFFFFFFFFFFFFFFFFFFFFFFFFFFFFFFFFFFFFFFFFFFFFFF
310
FFFFFFFFFFFFFFFFFFFFFFFFFFFFFFFFFFFFFFFFFFFFFFFFFFFFFFFFFFFFFFFF
310
FFFFFFFFFFFFFFFFF000FFFFF80003FFFFFFFFFFFFFFFFFFFFFFFFFFFFFFFFFF
310
FFFFF00007FFFFFFFFFF00007FFFFFF800000000000000007FFFFFFFFFFFFFFF
310
FFFFFFFC001FFFFFFFFFFFFFFC001FFFFFFFFFFFFFFFFFFFFFFFFFFE0007FFFF
310
F000FFFF8000007FFFFFFFF8000FFFFFC0007FFFFF80007FFFFF0000007FFFFF
310
FFF8000007FFFFF800000000000000007FFFFFF0001FFFFFFFFFFFC00001FFFF
310
FFFFFFFFC00001FFFFFFFF000000000003FFFFE000007FFFF000FFFE0000000F
310
FFFFFFF0000FFFFF80007FFFFF80007FFFFC0000001FFFFFFFC0000001FFFFF8
310
00000000000000007FFFFFF0001FFFFFFFFFFE0000003FFFFFFFFFFE0000003F
310
FFFFFF000000000003FFFF0000000FFFF000FFF800000003FFFFFFF00007FFFF
310
80007FFFFF80007FFFF000000007FFFFFF000000003FFFF80000000000000000
310
7FFFFFF0001FFFFFFFFFF80000000FFFFFFFFFF80000000FFFFFFF0000000000
310
03FFFC00000003FFF000FFE000000000FFFFFFF00007FFFF80003FFFFF80007F
310
FFC000000001FFFFFC000000001FFFF800000000000000007FFFFFF0001FFFFF
310
FFFFE000000003FFFFFFFFE000000003FFFFFF000000000003FFF000000000FF
310
F000FF80000000007FFFFFF00007FFFF80003FFFFF80007FFF8000000000FFFF
310
F80000000007FFF800000000000000007FFFFFF0001FFFFFFFFFC000000001FF
310
FFFFFFC000000001FFFFFF000000000003FFC0000000007FF000FF0000000000
310
3FFFFFE00007FFFF00003FFFFF80007FFE00000000003FFFF00000000003FFF8
310
00000000000000007FFFFFF0001FFFFFFFFF8000000000FFFFFFFF8000000000
310
FFFFFF000000000003FF80000000003FF000FE00000000001FFFFFE00003FFFF
310
00003FFFFF80007FFC00000000001FFFE00000000001FFF8000001FFFE000000
310
7FFFFFF0001FFFFFFFFE00000000003FFFFFFE00000000003FFFFF0000000000
310
03FF00000000001FF000FC00000000000FFFFFE00003FFFF00001FFFFF80007F
310
F800000000001FFFC00000000000FFF8000001FFFE0000007FFFFFF0001FFFFF
310
FFFC00000000001FFFFFFC00000000001FFFFF000000000003FE00000000000F
310
F000F8000000000007FFFFE00003FFFF00001FFFFF80007FF800000000000FFF
310
800000000000FFF8000001FFFE0000007FFFFFF0001FFFFFFFF800000000000F
310
FFFFF800000000000FFFFF000000000003FC000000000007F000F80000000000
310
03FFFFC00003FFFE00001FFFFF80007FF0000000000007FF0000000000007FF8
310
000001FFFE0000007FFFFFF0001FFFFFFFF0000000000007FFFFF00000000000
310
07FFFF000000000003F8000000000003F000F0000000000003FFFFC00001FFFE
310
00001FFFFF80007FE0000000000007FE0000000000003FF8000001FFFE000000
310
7FFFFFF0001FFFFFFFF0000000000007FFFFF0000000000007FFFF0000000000
310
03F800001F800003F000E00001FFF00001FFFFC00001FFFE00000FFFFF80007F
310
E00001FFE00003FE00001FFF00003FF8000001FFFE0000007FFFFFF0001FFFFF
310
FFE000003E000003FFFFE000003E000003FFFF000000000003F00001FFF80001
310
F000E00007FFFC0001FFFFC00001FFFE00000FFFFF80007FC0000FFFFC0003FC
310
0000FFFFC0001FF8000001FFFE0000007FFFFFF0001FFFFFFFC00003FFE00001
310
FFFFC00003FFE00001FFFF0001FFFFFFFFF00007FFFE0001F000E0000FFFFF00
310
00FFFF800001FFFC00000FFFFF80007FC0001FFFFE0001FC0001FFFFE0001FF8
310
000001FFFE0000007FFFFFF0001FFFFFFF80000FFFF80000FFFF80000FFFF800
310
00FFFF0003FFFFFFFFE0000FFFFF8000F000C0003FFFFF8000FFFF800000FFFC
310
000007FFFF80007F80003FFFFF0001FC0003FFFFF0001FF8000001FFFE000000
310
7FFFFFF0001FFFFFFF80003FFFFE0000FFFF80003FFFFE0000FFFF0003FFFFFF
310
FFE0003FFFFF8000F000C0003FFFFF8000FFFF800000FFFC000007FFFF80007F
310
80007FFFFF8001F80007FFFFF8000FF8000001FFFE0000007FFFFFF0001FFFFF
310
FF00007FFFFF00007FFF00007FFFFF00007FFF0003FFFFFFFFE0003FFFFFC000
310
F000C0007FFFFFC000FFFF000000FFFC000007FFFF80007F8000FFFFFF8000F8
310
000FFFFFF8000FF8000001FFFE0000007FFFFFF0001FFFFFFF0000FFFFFF8000
310
7FFF0000FFFFFF80007FFF0003FFFFFFFFC0007FFFFFC00070008000FFFFFFC0
310
00FFFF000000FFF8000007FFFF80007F8000FFFFFF8000F8000FFFFFF8000FF8
310
000001FFFE0000007FFFFFF0001FFFFFFE0001FFFFFFC0003FFE0001FFFFFFC0
310
003FFF0003FFFFFFFFC0007FFFFFE00070008000FFFFFFC0007FFF0000007FF8
310
000003FFFF80007F0001FFFFFF8000F8000FFFFFF8000FF8000001FFFE000000
310
7FFFFFF0001FFFFFFE0001FFFFFFC0003FFE0001FFFFFFC0003FFF0003FFFFFF
310
FFC000FFFFFFE00070008000FFFFFFC0007FFF0000007FF8000003FFFF80007F
310
0001FFFFFF8000F8001FFFFFF8000FF8000001FFFE0000007FFFFFF0001FFFFF
310
FE0003FFFFFFE0003FFE0003FFFFFFE0003FFF0003FFFFFFFFC000FFFFFFE000
310
70008000FFFFFFC0007FFE0000007FF8000003FFFF80007F0001FFFFFF8000F0
310
001FFFFFF8000FF8000001FFFE0000007FFFFFF0001FFFFFFC0003FFFFFFE000
310
1FFC0003FFFFFFE0001FFF0003FFFFFFFFC000FFFFFFC00070008000FFFFFF80
310
007FFE0000007FF0000003FFFF80007F0001FFFFFF0000F0001FFFFFF8000FF8
310
000001FFFE0000007FFFFFF0001FFFFFFC0007FFFFFFF0001FFC0007FFFFFFF0
310
001FFF0003FFFFFFFFC000FFFFFFC00070008001FFFFFF0000FFFE0000003FF0
310
000001FFFF80007F0001FFFFFF0000F8001FFFFFF0000FF8000001FFFE000000
310
7FFFFFF0001FFFFFFC0007FFFFFFF0001FFC0007FFFFFFF0001FFF0003FFFFFF
310
FFC001FFFFFF80007000FFFFFFFFFE0000FFFE0008003FF0008001FFFF80007F
310
FFFFFFFFFC0000FFFFFFFFFFE0000FF8000001FFFE0000007FFFFFF0001FFFFF
310
F8000FFFFFFFF8000FF8000FFFFFFFF8000FFF0003FFFFFFFFFFFFFFFFFF0000
310
7000FFFFFFFFFC0000FFFC0008003FF0008001FFFF80007FFFFFFFFFF80001FF
310
FFFFFFFF80000FF8000001FFFE0000007FFFFFF0001FFFFFF8000FFFFFFFF800
310
0FF8000FFFFFFFF8000FFF0003FFFFFFFFFFFFFFFFFE0000F000FFFFFFFFE000
310
00FFFC000C003FE000C001FFFF80007FFFFFFFFFC00001FFFFFFFFFE00001FF8
310
000001FFFE0000007FFFFFF0001FFFFFF8000FFFFFFFF8000FF8000FFFFFFFF8
310
000FFF0003FFFFFFFFFFFFFFFFF00000F000FFFFFFFE000001FFFC000C001FE0
310
00C000FFFF80007FFFFFFFFE000001FFFFFFFFE000001FF80FFFFFFFFFFFFFC0
310
7FFFFFF0001FFFFFF8000FFFFFFFF8000FF8000FFFFFFFF8000FFF0003FFFFFF
310
FFFFFFFFFF800000F000FFFFFFC0000001FFFC001C001FE001C000FFFF80007F
310
FFFFFF80000003FFFFFFF80000001FF80FFFFFFFFFFFFFC07FFFFFF0001FFFFF
310
F8001FFFFFFFFC000FF8001FFFFFFFFC000FFF0003FFFFFFFFFFFFFFF0000001
310
F000FFFFF800000001FFF8001C001FE001C000FFFF80007FFFFFF800000003FF
310
FFFF800000003FF80FFFFFFFFFFFFFC07FFFFFF0001FFFFFF8001FFFFFFFFC00
310
0FF8001FFFFFFFFC000FFF0003FFFFFFFFFFFFFE00000001F000FFFFC0000000
310
03FFF8001E001FC001E000FFFF80007FFFFF8000000007FFFFFC000000003FF8
310
0FFFFFFFFFFFFFC07FFFFFF0001FFFFFF8001FFFFFFFFC000FF8001FFFFFFFFC
310
000FFF0003FFFFFFFFFFFFE000000003F000FFFE0000000007FFF8001E000FC0
310
01E0007FFF80007FFFFE0000000007FFFFE0000000007FF80FFFFFFFFFFFFFC0
310
7FFFFFF0001FFFFFF0001FFFFFFFFC0007F0001FFFFFFFFC0007FF0003FFFFFF
310
FFFFFF0000000003F000FFF80000000007FFF8001E000FC003E0007FFF80007F
310
FFF0000000000FFFFF8000000000FFF80FFFFFFFFFFFFFC07FFFFFF0001FFFFF
310
F0001FFFFFFFFC0007F0001FFFFFFFFC0007FF0003FFFFFFFFFFFC0000000007
310
F000FFE0000000000FFFF0003E000FC003E0007FFF80007FFFC0000000001FFF
310
FE0000000001FFF80FFFFFFFFFFFFFC07FFFFFF0001FFFFFF0001FFFFFFFFC00
310
07F0001FFFFFFFFC0007FF0003FFFFFFFFFFF0000000000FF000FFC000000000
310
1FFFF0003F000F8003F0003FFF80007FFF80000000003FFFF80000000003FFF8
310
0FFFFFFFFFFFFFC07FFFFFF0001FFFFFF0001FFFFFFFFC0007F0001FFFFFFFFC
310
0007FF0003FFFFFFFFFFE0000000001FF000FF00000000007FFFF0003F000780
310
03F0003FFF80007FFF00000000007FFFF00000000007FFF80FFFFFFFFFFFFFC0
310
7FFFFFF0001FFFFFF0001FFFFFFFFC0007F0001FFFFFFFFC0007FF0003FFFFFF
310
FFFF80000000007FF000FE0000000000FFFFE0003F00078007F0003FFF80007F
310
FE0000000001FFFFE0000000001FFFF80FFFFFFFFFFFFFC07FFFFFF0001FFFFF
310
F0001FFFFFFFFC0007F0001FFFFFFFFC0007FF0003FFFFFFFFFF0000000000FF
310
F000FC0000000003FFFFE0007F00078007F0003FFF80007FFC0000000007FFFF
310
C0000000007FFFF80FFFFFFFFFFFFFC07FFFFFF0001FFFFFF8001FFFFFFFFC00
310
0FF8001FFFFFFFFC000FFF0003FFFFFFFFFE0000000003FFF000FC000000000F
310
FFFFE0007F80070007F8001FFF80007FF8000000001FFFFF8000000001FFFFF8
310
0FFFFFFFFFFFFFC07FFFFFF0001FFFFFF8001FFFFFFFFC000FF8001FFFFFFFFC
310
000FFF0003FFFFFFFFFC000000000FFFF000F8000000007FFFFFE0007F800700
310
07F8001FFF80007FF000000000FFFFFF800000000FFFFFF80FFFFFFFFFFFFFC0
310
7FFFFFF0001FFFFFF8000FFFFFFFF8000FF8000FFFFFFFF8000FFF0003FFFFFF
310
FFFC000000007FFFF000F800000007FFFFFFC0007F8003000FF8001FFF80007F
310
F000000007FFFFFF000000007FFFFFF80FFFFFFFFFFFFFC07FFFFFF0001FFFFF
310
F8000FFFFFFFF8000FF8000FFFFFFFF8000FFF0003FFFFFFFFF80000000FFFFF
310
F000F0000000FFFFFFFFC000FF8003000FF8001FFF80007FE0000000FFFFFFFF
310
0000000FFFFFFFF8000001FFFE0000007FFFFFF0001FFFFFF8000FFFFFFFF800
310
0FF8000FFFFFFFF8000FFF0003FFFFFFFFF8000000FFFFFFF000F000000FFFFF
310
FFFFC000FFC002000FF8000FFF80007FE000001FFFFFFFFE000001FFFFFFFFF8
310
000001FFFE0000007FFFFFF0001FFFFFF8000FFFFFFFF8000FF8000FFFFFFFF8
310
000FFF0003FFFFFFFFF000001FFFFFFFF000E00000FFFFFFFFFFC000FFC00200
310
0FFC000FFF80007FE00001FFFFFFFFFE00001FFFFFFFFFF8000001FFFE000000
310
7FFFFFF0001FFFFFFC000FFFFFFFF8001FFC000FFFFFFFF8001FFF0003FFFFFF
310
FFF00001FFFFFFFFF000E00007FFFFFFFFFF8000FFC000001FFC000FFF80007F
310
C0000FFFFFFFFFFE0000FFFFFFFFFFF8000001FFFE0000007FFFFFF0001FFFFF
310
FC0007FFFFFFF0001FFC0007FFFFFFF0001FFF0003FFFFFFFFF00007FFFFFFFF
310
F000E0001FFFFFFFFFFF8000FFC000001FFC000FFF80007FC0003FFFFFFFFFFE
310
0001FFFFFFFFFFF8000001FFFE0000007FFFFFF0001FFFFFFC0007FFFFFFF000
310
1FFC0007FFFFFFF0001FFF0003FFFFFFFFF0001FFFFFFFFFF000E0003FFFFF00
310
03FF8001FFE000001FFC0007FF80007FC0007FFFFF0007FC0003FFFFF0003FF8
310
000001FFFE0000007FFFFFF0001FFFFFFC0003FFFFFFE0001FFC0003FFFFFFE0
310
001FFF0003FFFFFFFFF0003FFFFFFFFFF000E0003FFFFF0001FF8001FFE00000
310
1FFE0007FF80007FC0007FFFFE0003FC0007FFFFE0003FF8000001FFFE000000
310
7FFFFFF0001FFFFFFE0003FFFFFFE0003FFE0003FFFFFFE0003FFF0003FFFFFF
310
FFF0003FFFFF8001F000E0003FFFFF0001FF0001FFE000001FFE0007FF80007F
310
C0007FFFFE0003FC0007FFFFE0003FF8000001FFFE0000007FFFFFF0001FFFFF
310
FE0001FFFFFFC0003FFE0001FFFFFFC0003FFF0003FFFFFFFFF0003FFFFF0001
310
F000E0003FFFFF0003FF0001FFE000003FFE0007FF80007FC0007FFFFE0003FC
310
0007FFFFE0003FF8000001FFFE0000007FFFFFF0001FFFFFFF0001FFFFFFC000
310
7FFF0001FFFFFFC0007FFF0003FFFFFFFFF0003FFFFF0001F000E0003FFFFE00
310
03FF0003FFF000003FFE0003FF80007FC0007FFFFC0003FE0007FFFFE0003FF8
310
000001FFFE0000007FFFFFF0001FFFFFFF0000FFFFFF80007FFF0000FFFFFF80
310
007FFF0003FFFFFFFFF0003FFFFF0001F000E0003FFFFE0003FF0003FFF00000
310
3FFF0003FF80007FC0007FFFFC0007FE0007FFFFC0003FF8000001FFFE000000
310
7FFFFFF0001FFFFFFF80007FFFFF0000FFFF80007FFFFF0000FFFF0003FFFFFF
310
FFF0003FFFFF0003F000E0003FFFFC0003FE0003FFF000003FFF0003FF80007F
310
E0003FFFF80007FE0003FFFFC0007FF8000001FFFE0000007FFFFFF0001FFFFF
310
FF80003FFFFE0000FFFF80003FFFFE0000FFFF0003FFFFFFFFF0001FFFFE0003
310
F000F0001FFFF80003FE0003FFF000007FFF0001FF80007FE0003FFFF00007FE
310
0001FFFF80007FF8000001FFFE0000007FFFFFF0001FFFFFFFC0000FFFF80001
310
FFFFC0000FFFF80001FFFF0003FFFFFFFFF0001FFFFC0003F000F0000FFFF000
310
07FE0007FFF800007FFF0001FF80007FE0001FFFE00007FF0000FFFE00007FF8
310
000001FFFE0000007FFFFFF0001FFFFFFFC00003FFE00001FFFFC00003FFE000
310
01FFFF0003FFFFFFFFF8000FFFF80003F000F00003FFC00007FC0007FFF80000
310
7FFF8001FF80007FF00007FF80000FFF00007FF80000FFF8000001FFFE000000
310
7F80000000000001FFE000003E000003FFFFE000003E000003FFFF0003FFFFFF
310
FFF80003FFE00007F000F800000000000FFC0007FFF800007FFF8001FF80007F
310
F000000000000FFF000000000000FFF8000001FFFE0000007F80000000000001
310
FFF0000000000007FFFFF0000000000007FFFF0003FFFFFFFFFC00007E000007
310
F000F800000000000FFC0007FFF80000FFFF8000FF80007FF800000000001FFF
310
800000000001FFF8000001FFFE0000007F80000000000001FFF800000000000F
310
FFFFF800000000000FFFFF0003FFFFFFFFFC00000000000FF000FC0000000000
310
1FFC0007FFFC0000FFFF8000FF80007FF800000000003FFFC00000000001FFF8
310
000001FFFE0000007F80000000000001FFF800000000000FFFFFF80000000000
310
0FFFFF0003FFFFFFFFFE00000000001FF000FE00000000003FF8000FFFFC0000
310
FFFF8000FF80007FFC00000000003FFFC00000000003FFF8000001FFFE000000
310
7F80000000000001FFFC00000000001FFFFFFC00000000001FFFFF0003FFFFFF
310
FFFF00000000001FF000FF00000000003FF8000FFFFC0000FFFFC000FF80007F
310
FE00000000007FFFE00000000007FFF8000001FFFE0000007F80000000000001
310
FFFE00000000003FFFFFFE00000000003FFFFF0003FFFFFFFFFF80000000003F
310
F000FF80000000007FF8000FFFFC0001FFFFC0007F80007FFF0000000000FFFF
310
F0000000000FFFF800000000000000007F80000000000001FFFF8000000000FF
310
FFFFFF8000000000FFFFFF0003FFFFFFFFFFC0000000007FF000FFC000000000
310
FFF8000FFFFE0001FFFFC0007F80007FFF8000000001FFFFF8000000001FFFF8
310
00000000000000007F80000000000001FFFFC000000001FFFFFFFFC000000001
310
FFFFFF0003FFFFFFFFFFE000000000FFF000FFE000000003FFF0001FFFFE0001
310
FFFFC0007F80007FFFC000000007FFFFFE000000003FFFF80000000000000000
310
7F80000000000001FFFFE000000003FFFFFFFFE000000003FFFFFF0003FFFFFF
310
FFFFF000000003FFF000FFF80000000FFFF0001FFFFE0001FFFFE0007F80007F
310
FFF00000000FFFFFFF00000000FFFFF800000000000000007F80000000000001
310
FFFFF80000000FFFFFFFFFF80000000FFFFFFF0003FFFFFFFFFFFC0000000FFF
310
F000FFFE0000003FFFF0001FFFFE0003FFFFE0003F80007FFFFC0000003FFFFF
310
FFC0000003FFFFF800000000000000007F80000000000001FFFFFE0000003FFF
310
FFFFFFFE0000003FFFFFFF0003FFFFFFFFFFFF0000003FFFF000FFFF800000FF
310
FFF0001FFFFF0003FFFFE0003F80007FFFFF000001FFFFFFFFF800001FFFFFF8
310
00000000000000007F80000000000001FFFFFFC00001FFFFFFFFFFFFC00001FF
310
FFFFFF0003FFFFFFFFFFFFC00000FFFFF000FFFFF8000FFFFFFFFFFFFFFFFFFF
310
FFFFFFFFFFFFFFFFFFFFF0001FFFFFFFFFFF0000FFFFFFF80000000000000000
310
7FFFFFFFFFFFFFFFFFFFFFFC001FFFFFFFFFFFFFFC001FFFFFFFFFFFFFFFFFFF
310
FFFFFFFC001FFFFFF000FFFFFFFFFFFFFFFFFFFFFFFFFFFFFFFFFFFFFFFFFFFF
310
FFFFFFFFFFFFFFFFFFFFFFFFFFFFFFFFFFFFFFFFFFFFFFFFFFFFFFFFFFFFFFFF
310
FFFFFFFFFFFFFFFFFFFFFFFFFFFFFFFFFFFFFFFFFFFFFFFFFFFFFFFFFFFFFFFF
310
F000FFFFFFFFFFFFFFFFFFFFFFFFFFFFFFFFFFFFFFFFFFFFFFFFFFFFFFFFFFFF
310
FFFFFFFFFFFFFFFFFFFFFFFFFFFFFFFFFFFFFFFFFFFFFFFFFFFFFFFFFFFFFFFF
310
FFFFFFFFFFFFFFFFFFFFFFFFFFFFFFFFFFFFFFFFFFFFFFFFF000FFFFFFFFFFFF
310
FFFFFFFFFFFFFFFFFFFFFFFFFFFFFFFFFFFFFFFFFFFFFFFFFFFFFFFFFFFFFFFF
310
FFFFFFFFFFFFFFFFFFFFFFFFFFFFFFFFFFFFFFFFFFFFFFFFFFFFFFFFFFFFFFFF
310
FFFFFFFFFFFFFFFFFFFFFFFFFFFFFFFFF000FFFFFFFFFFFFFFFFFFFFFFFFFFFF
310
FFFFFFFFFFFFFFFFFFFFFFFFFFFFFFFFFFFFFFFFFFFFFFFFFFFFFFFFFFFFFFFF
310
FFFFFFFFFFFFFFFFFFFFFFFFFFFFFFFFFFFFFFFFFFFFFFFFFFFFFFFFFFFFFFFF
310
FFFFFFFFFFFFFFFFF000FFFFFFFFFFFFFFFFFFFFFFFFFFFFFFFFFFFFFFFFFFFF
310
FFFFFFFFFFFFFFFFFFFFFFFFFFFFFFFFFFFFFFFFFFFFFFFFFFFFFFFFFFFFFFFF
310
FFFFFFFFFFFFFFFFFFFFFFFFFFFFFFFFFFFFFFFFFFFFFFFFFFFFFFFFFFFFFFFF
310
F000FFFFFFFFFFFFFFFFFFFFFFFFFFFFFFFFFFFFFFFFFFFFFFFFFFFFFFFFFFFF
310
FFFFFFFFFFFFFFFFFFFFFFFFFFFFFFFFFFFFFFFFFFFFFFFFFFFFFFFFFFFFFFFF
310
FFFFFFFFFFFFFFFFFFFFFFFFFFFFFFFFFFFFFFFFFFFFFFFFF000FFFFFFFFFFFF
310
FFFFFFFFFFFFFFFFFFFFFFFFFFFFFFFFFFFFFFFFFFFFFFFFFFFFFFFFFFFFFFFF
310
FFFFFFFFFFFFFFFFFFFFFFFFFFFFFFFFFFFFFFFFFFFFFFFFFFFFFFFFFFFFFFFF
310
FFFFFFFFFFFFFFFFFFFFFFFFFFFFFFFFF000FFFFFFFFFFFFFFFFFFFFFFFFFFFF
310
FFFFFFFFFFFFFFFFFFFFFFFFFFFFFFFFFFFFFFFFFFFFFFFFFFFFFFFFFFFFFFFF
310
FFFFFFFFFFFFFFFFFFFFFFFFFFFFFFFFFFFFFFFFFFFFFFFFFFFFFFFFFFFFFFFF
310
FFFFFFFFFFFFFFFFF000FFFFFFFFFFFFFFFFFFFFFFFFFFFFFFFFFFFFFFFFFFFF
310
FFFFFFFFFFFFFFFFFFFFFFFFFFFFFFFFFFFFFFFFFFFFFFFFFFFFFFFFFFFFFFFF
310
FFFFFFFFFFFFFFFFFFFFFFFFFFFFFFFFFFFFFFFFFFFFFFFFFFFFFFFFFFFFFFFF
310
F000FFFFFFFFFFFFFFFFFFFFFFFFFFFFFFFFFFFFFFFFFFFFFFFFFFFFFFFFFFFF
310
FFFFFFFFFFFFFFFFFFFFFFFFFFFFFFFFFFFFFFFFFFFFFFFFFFFFFFFFFFFFFFFF
310
FFFFFFFFFFFFFFFFFFFFFFFFFFFFFFFFFFFFFFFFFFFFFFFFF000FFFFFFFFFFFF
310
FFFFFFFFFFFFFFFFFFFFFFFFFFFFFFFFFFFFFFFFFFFFFFFFFFFFFFFFFFFFFFFF
310
FFFFFFFFFFFFFFFFFFFFFFFFFFFFFFFFFFFFFFFFFFFFFFFFFFFFFFFFFFFFFFFF
310
FFFFFFFFFFFFFFFFFFFFFFFFFFFFFFFFF000FFFFFFFFFFFFFFFFFFFFFFFFFFFF
310
FFFFFFFFFFFFFFFFFFFFFFFFFFFFFFFFFFFFFFFFFFFFFFFFFFFFFFFFFFFFFFFF
310
FFFFFFFFFFFFFFFFFFFFFFFFFFFFFFFFFFFFFFFFFFFFFFFFFFFFFFFFFFFFFFFF
310
FFFFFFFFFFFFFFFFF000FFFFFFFFFFFFFFFFFFFFFFFFFFFFFFFFFFFFFFFFFFFF
310
FFFFFFFFFFFFFFFFFFFFFFFFFFFFFFFFFFFFFFFFFFFFFFFFFFFFFFFFFFFFFFFF
310
FFFFFFFFFFFFFFFFFFFFFFFFFFFFFFFFFFFFFFFFFFFFFFFFFFFFFFFFFFFFFFFF
310
F000FFFFFFFFFFFFFFFFFFFFFFFFFFFFFFFFFFFFFFFFFFFFFFFFFFFFFFFFFFFF
310
FFFFFFFFFFFFFFFFFFFFFFFFFFFFFFFFFFFFFFFFFFFFFFFFFFFFFFFFFFFFFFFF
310
FFFFFFFFFFFFFFFFFFFFFFFFFFFFFFFFFFFFFFFFFFFFFFFFF000FFFFFFFFFFFF
310
FFFFFFFFFFFFFFFFFFFFFFFFFFFFFFFFFFFFFFFFFFFFFFFFFFFFFFFFFFFFFFFF
310
FFFFFFFFFFFFFFFFFFFFFFFFFFFFFFFFFFFFFFFFFFFFFFFFFFFFFFFFFFFFFFFF
310
FFFFFFFFFFFFFFFFFFFFFFFFFFFFFFFFF000FFFFFFFFFFFFFFFFFFFFFFFFFFFF
310
FFFFFFFFFFFFFFFFFFFFFFFFFFFFFFFFFFFFFFFFFFFFFFFFFFFFFFFFFFFFFFFF
310
FFFFFFFFFFFFFFFFFFFFFFFFFFFFFFFFFFFFFFFFFFFFFFFFFFFFFFFFFFFFFFFF
310
FFFFFFFFFFFFFFFFF000FFFFFFFFFFFFFFFFFFFFFFFFFFFFFFFFFFFFFFFFFFFF
310
FFFFFFFFFFFFFFFFFFFFFFFFFFFFFFFFFFFFFFFFFFFFFFFFFFFFFFFFFFFFFFFF
310
FFFFFFFFFFFFFFFFFFFFFFFFFFFFFFFFFFFFFFFFFFFFFFFFFFFFFFFFFFFFFFFF
310
F000FFFFFFFFFFFFFFFFFFFFFFFFFFFFFFFFFFFFFFFFFFFFFFFFFFFFFFFFFFFF
310
FFFFFFFFFFFFFFFFFFFFFFFFFFFFFFFFFFFFFFFFFFFFFFFFFFFFFFFFFFFFFFFF
310
FFFFFFFFFFFFFFFFFFFFFFFFFFFFFFFFFFFFFFFFFFFFFFFFF000FFFFFFFFFFFF
310
FFFFFFFFFFFFFFFFFFFFFFFFFFFFFFFFFFFFFFFFFFFFFFFFFFFFFFFFFFFFFFFF
310
FFFFFFFFFFFFFFFFFFFFFFFFFFFFFFFFFFFFFFFFFFFFFFFFFFFFFFFFFFFFFFFF
310
FFFFFFFFFFFFFFFFFFFFFFFFFFFFFFFFF000FFFFFFFFFFFFFFFFFFFFFFFFFFFF
310
FFFFFFFFFFFFFFFFFFFFFFFFFFFFFFFFFFFFFFFFFFFFFFFFFFFFFFFFFFFFFFFF
310
FFFFFFFFFFFFFFFFFFFFFFFFFFFFFFFFFFFFFFFFFFFFFFFFFFFFFFFFFFFFFFFF
310
FFFFFFFFFFFFFFFFF000FFFFFFFFFFFFFFFFFFFFFFFFFFFFFFFFFFFFFFFFFFFF
310
FFFFFFFFFFFFFFFFFFFFFFFFFFFFFFFFFFFFFFFFFFFFFFFFFFFFFFFFFFFFFFFF
310
FFFFFFFFFFFFFFFFFFFFFFFFFFFFFFFFFFFFFFFFFFFFFFFFFFFFFFFFFFFFFFFF
310
F000FFFFFFFFFFFFFFFFFFFFFFFFFFFFFFFFFFFFFFFFFFFFFFFFFFFFFFFFFFFF
310
FFFFFFFFFFFFFFFFFFFFFFFFFFFFFFFFFFFFFFFFFFFFFFFFFFFFFFFFFFFFFFFF
310
FFFFFFFFFFFFFFFFFFFFFFFFFFFFFFFFFFFFFFFFFFFFFFFFF000FFFFFFFFFFFF
310
FFFFFFFFFFFFFFFFFFFFFFFFFFFFFFFFFFFFFFFFFFFFFFFFFFFFFFFFFFFFFFFF
310
FFFFFFFFFFFFFFFFFFFFFFFFFFFFFFFFFFFFFFFFFFFFFFFFFFFFFFFFFFFFFFFF
310
FFFFFFFFFFFFFFFFFFFFFFFFFFFFFFFFF0000000000000000000000000000000
310
0000000000000000000000000000000000000000000000000000000000000000
310
0000000000000000000000000000000000000000000000000000000000000000
310
0000000000000000000000000000000000000000000000000000000000000000
310
0000000000000000000000000000000000000000000000000000000000000000
310
0000000000000000000000000000000000000000000000000000000000000000
310
0000000000000000000000000000000000000000000000000000000000000000
310
0000000000000000000000000000000000000000000000000000000000000000
310
0000000000000000000000000000000000000000000000000000000000000000
310
0000000000000000000000000000000000000000000000000000000000000000
310
0000000000000000000000000000000000000000000000000000000000000000
310
0000000000000000000000000000000000000000000000000000000000000000
310
0000000000000000000000000000000000000000000000000000000000000000
310
0000000000000000000000000000000000000000000000000000000000000000
310
0000000000000000000000000000000000000000000000000000000000000000
310
0000000000000000000000000000000000000000000000000000000000000000
  1
OLE
  0
ENDSEC
  0
SECTION
  2
OBJECTS
  0
DICTIONARY
  5
C
330
0
100
AcDbDictionary
281
     1
  3
ACAD_GROUP
350
D
  3
ACAD_LAYOUT
350
1A
  3
ACAD_MLINESTYLE
350
17
  3
ACAD_PLOTSETTINGS
350
19
  3
ACAD_PLOTSTYLENAME
350
E
  0
DICTIONARY
  5
D
102
{ACAD_REACTORS
330
C
102
}
330
C
100
AcDbDictionary
281
     1
  0
DICTIONARY
  5
1A
102
{ACAD_REACTORS
330
C
102
}
330
C
100
AcDbDictionary
281
     1
  3
Layout1
350
1E
  3
Layout2
350
26
  3
Model
350
22
  0
DICTIONARY
  5
17
102
{ACAD_REACTORS
330
C
102
}
330
C
100
AcDbDictionary
281
     1
  3
Standard
350
18
  0
DICTIONARY
  5
19
102
{ACAD_REACTORS
330
C
102
}
330
C
100
AcDbDictionary
281
     1
  0
ACDBDICTIONARYWDFLT
  5
E
102
{ACAD_REACTORS
330
C
102
}
330
C
100
AcDbDictionary
281
     1
  3
Normal
350
F
100
AcDbDictionaryWithDefault
340
F
  0
LAYOUT
  5
1E
102
{ACAD_REACTORS
330
1A
102
}
330
1A
100
AcDbPlotSettings
  1

  2
none_device
  4

  6

 40
0.0
 41
0.0
 42
0.0
 43
0.0
 44
0.0
 45
0.0
 46
0.0
 47
0.0
 48
0.0
 49
0.0
140
0.0
141
0.0
142
1.0
143
1.0
 70
   688
 72
     0
 73
     0
 74
     5
  7

 75
    16
147
1.0
148
0.0
149
0.0
100
AcDbLayout
  1
Layout1
 70
     1
 71
     1
 10
0.0
 20
0.0
 11
420.0
 21
297.0
 12
0.0
 22
0.0
 32
0.0
 14
1.0000000000E+20
 24
1.0000000000E+20
 34
1.0000000000E+20
 15
-1.0000000000E+20
 25
-1.0000000000E+20
 35
-1.0000000000E+20
146
0.0
 13
0.0
 23
0.0
 33
0.0
 16
1.0
 26
0.0
 36
0.0
 17
0.0
 27
1.0
 37
0.0
 76
     0
330
1B
  0
LAYOUT
  5
26
102
{ACAD_REACTORS
330
1A
102
}
330
1A
100
AcDbPlotSettings
  1

  2
none_device
  4

  6

 40
0.0
 41
0.0
 42
0.0
 43
0.0
 44
0.0
 45
0.0
 46
0.0
 47
0.0
 48
0.0
 49
0.0
140
0.0
141
0.0
142
1.0
143
1.0
 70
   688
 72
     0
 73
     0
 74
     5
  7

 75
    16
147
1.0
148
0.0
149
0.0
100
AcDbLayout
  1
Layout2
 70
     1
 71
     2
 10
0.0
 20
0.0
 11
0.0
 21
0.0
 12
0.0
 22
0.0
 32
0.0
 14
0.0
 24
0.0
 34
0.0
 15
0.0
 25
0.0
 35
0.0
146
0.0
 13
0.0
 23
0.0
 33
0.0
 16
1.0
 26
0.0
 36
0.0
 17
0.0
 27
1.0
 37
0.0
 76
     0
330
23
  0
LAYOUT
  5
22
102
{ACAD_REACTORS
330
1A
102
}
330
1A
100
AcDbPlotSettings
  1

  2
none_device
  4

  6

 40
0.0
 41
0.0
 42
0.0
 43
0.0
 44
0.0
 45
0.0
 46
0.0
 47
0.0
 48
0.0
 49
0.0
140
0.0
141
0.0
142
1.0
143
1.0
 70
  1712
 72
     0
 73
     0
 74
     0
  7

 75
     0
147
1.0
148
0.0
149
0.0
100
AcDbLayout
  1
Model
 70
     1
 71
     0
 10
0.0
 20
0.0
 11
297.0
 21
210.0
 12
0.0
 22
0.0
 32
0.0
 14
0.0
 24
0.0
 34
0.0
 15
297.0
 25
210.0
 35
0.0
146
0.0
 13
0.0
 23
0.0
 33
0.0
 16
1.0
 26
0.0
 36
0.0
 17
0.0
 27
1.0
 37
0.0
 76
     0
330
1F
331
29
  0
MLINESTYLE
  5
18
102
{ACAD_REACTORS
330
17
102
}
330
17
100
AcDbMlineStyle
  2
Standard
 70
     0
  3

 62
   256
 51
90.0
 52
90.0
 71
     2
 49
0.5
 62
   256
  6
BYLAYER
 49
-0.5
 62
   256
  6
BYLAYER
  0
ACDBPLACEHOLDER
  5
F
102
{ACAD_REACTORS
330
E
102
}
330
E
  0
ENDSEC
  0
EOF
