  0
SECTION
  2
HEADER
  9
$ACADVER
  1
AC1015
  9
$ACADMAINTVER
 70
     6
  9
$DWGCODEPAGE
  3
ANSI_1252
  9
$INSBASE
 10
0.0
 20
0.0
 30
0.0
  9
$EXTMIN
 10
0.0
 20
0.0
 30
0.0
  9
$EXTMAX
 10
297.0
 20
210.0
 30
0.0
  9
$LIMMIN
 10
0.0
 20
0.0
  9
$LIMMAX
 10
297.0
 20
210.0
  9
$ORTHOMODE
 70
     0
  9
$REGENMODE
 70
     1
  9
$FILLMODE
 70
     1
  9
$QTEXTMODE
 70
     0
  9
$MIRRTEXT
 70
     1
  9
$LTSCALE
 40
1.0
  9
$ATTMODE
 70
     1
  9
$TEXTSIZE
 40
2.0
  9
$TRACEWID
 40
1.0
  9
$TEXTSTYLE
  7
Standard
  9
$CLAYER
  8
0
  9
$CELTYPE
  6
ByLayer
  9
$CECOLOR
 62
   256
  9
$CELTSCALE
 40
1.0
  9
$DISPSILH
 70
     0
  9
$DIMSCALE
 40
1.0
  9
$DIMASZ
 40
3.0
  9
$DIMEXO
 40
0.0
  9
$DIMDLI
 40
3.75
  9
$DIMRND
 40
0.0
  9
$DIMDLE
 40
0.0
  9
$DIMEXE
 40
1.0
  9
$DIMTP
 40
0.0
  9
$DIMTM
 40
0.0
  9
$DIMTXT
 40
2.0
  9
$DIMCEN
 40
2.5
  9
$DIMTSZ
 40
0.0
  9
$DIMTOL
 70
     0
  9
$DIMLIM
 70
     0
  9
$DIMTIH
 70
     1
  9
$DIMTOH
 70
     1
  9
$DIMSE1
 70
     0
  9
$DIMSE2
 70
     0
  9
$DIMTAD
 70
     1
  9
$DIMZIN
 70
     0
  9
$DIMBLK
  1

  9
$DIMASO
 70
     1
  9
$DIMSHO
 70
     1
  9
$DIMPOST
  1

  9
$DIMAPOST
  1

  9
$DIMALT
 70
     0
  9
$DIMALTD
 70
     3
  9
$DIMALTF
 40
0.0393700787
  9
$DIMLFAC
 40
1.0
  9
$DIMTOFL
 70
     1
  9
$DIMTVP
 40
0.0
  9
$DIMTIX
 70
     0
  9
$DIMSOXD
 70
     0
  9
$DIMSAH
 70
     0
  9
$DIMBLK1
  1

  9
$DIMBLK2
  1

  9
$DIMSTYLE
  2
ISO-25
  9
$DIMCLRD
 70
     0
  9
$DIMCLRE
 70
     0
  9
$DIMCLRT
 70
     0
  9
$DIMTFAC
 40
1.0
  9
$DIMGAP
 40
1.524
  9
$DIMJUST
 70
     0
  9
$DIMSD1
 70
     0
  9
$DIMSD2
 70
     0
  9
$DIMTOLJ
 70
     0
  9
$DIMTZIN
 70
     0
  9
$DIMALTZ
 70
     0
  9
$DIMALTTZ
 70
     0
  9
$DIMUPT
 70
     0
  9
$DIMDEC
 70
     2
  9
$DIMTDEC
 70
     3
  9
$DIMALTU
 70
     2
  9
$DIMALTTD
 70
     3
  9
$DIMTXSTY
  7
Standard
  9
$DIMAUNIT
 70
     0
  9
$DIMADEC
 70
     2
  9
$DIMALTRND
 40
0.0
  9
$DIMAZIN
 70
     0
  9
$DIMDSEP
 70
    44
  9
$DIMATFIT
 70
     3
  9
$DIMFRAC
 70
     0
  9
$DIMLDRBLK
  1

  9
$DIMLUNIT
 70
     2
  9
$DIMLWD
 70
    -2
  9
$DIMLWE
 70
    -2
  9
$DIMTMOVE
 70
     0
  9
$LUNITS
 70
     2
  9
$LUPREC
 70
     2
  9
$SKETCHINC
 40
1.0
  9
$FILLETRAD
 40
10.0
  9
$AUNITS
 70
     0
  9
$AUPREC
 70
     2
  9
$MENU
  1
.
  9
$ELEVATION
 40
0.0
  9
$PELEVATION
 40
0.0
  9
$THICKNESS
 40
0.0
  9
$LIMCHECK
 70
     0
  9
$CHAMFERA
 40
10.0
  9
$CHAMFERB
 40
10.0
  9
$CHAMFERC
 40
20.0
  9
$CHAMFERD
 40
0.0
  9
$SKPOLY
 70
     0
  9
$TDCREATE
 40
2456080.664686933
  9
$TDUCREATE
 40
2456080.5813536
  9
$TDUPDATE
 40
2456080.664688553
  9
$TDUUPDATE
 40
2456080.58135522
  9
$TDINDWG
 40
0.0000000116
  9
$TDUSRTIMER
 40
0.0000000116
  9
$USRTIMER
 70
     1
  9
$ANGBASE
 50
0.0
  9
$ANGDIR
 70
     0
  9
$PDMODE
 70
     0
  9
$PDSIZE
 40
-1.0
  9
$PLINEWID
 40
0.0
  9
$SPLFRAME
 70
     0
  9
$SPLINETYPE
 70
     6
  9
$SPLINESEGS
 70
     8
  9
$HANDSEED
  5
21D
  9
$SURFTAB1
 70
     6
  9
$SURFTAB2
 70
     6
  9
$SURFTYPE
 70
     6
  9
$SURFU
 70
     6
  9
$SURFV
 70
     6
  9
$UCSBASE
  2

  9
$UCSNAME
  2

  9
$UCSORG
 10
0.0
 20
0.0
 30
0.0
  9
$UCSXDIR
 10
1.0
 20
0.0
 30
0.0
  9
$UCSYDIR
 10
0.0
 20
1.0
 30
0.0
  9
$UCSORTHOREF
  2

  9
$UCSORTHOVIEW
 70
     0
  9
$UCSORGTOP
 10
0.0
 20
0.0
 30
0.0
  9
$UCSORGBOTTOM
 10
0.0
 20
0.0
 30
0.0
  9
$UCSORGLEFT
 10
0.0
 20
0.0
 30
0.0
  9
$UCSORGRIGHT
 10
0.0
 20
0.0
 30
0.0
  9
$UCSORGFRONT
 10
0.0
 20
0.0
 30
0.0
  9
$UCSORGBACK
 10
0.0
 20
0.0
 30
0.0
  9
$PUCSBASE
  2

  9
$PUCSNAME
  2

  9
$PUCSORG
 10
0.0
 20
0.0
 30
0.0
  9
$PUCSXDIR
 10
1.0
 20
0.0
 30
0.0
  9
$PUCSYDIR
 10
0.0
 20
1.0
 30
0.0
  9
$PUCSORTHOREF
  2

  9
$PUCSORTHOVIEW
 70
     0
  9
$PUCSORGTOP
 10
0.0
 20
0.0
 30
0.0
  9
$PUCSORGBOTTOM
 10
0.0
 20
0.0
 30
0.0
  9
$PUCSORGLEFT
 10
0.0
 20
0.0
 30
0.0
  9
$PUCSORGRIGHT
 10
0.0
 20
0.0
 30
0.0
  9
$PUCSORGFRONT
 10
0.0
 20
0.0
 30
0.0
  9
$PUCSORGBACK
 10
0.0
 20
0.0
 30
0.0
  9
$USERI1
 70
     0
  9
$USERI2
 70
     0
  9
$USERI3
 70
     0
  9
$USERI4
 70
     0
  9
$USERI5
 70
     0
  9
$USERR1
 40
0.0
  9
$USERR2
 40
0.0
  9
$USERR3
 40
0.0
  9
$USERR4
 40
0.0
  9
$USERR5
 40
0.0
  9
$WORLDVIEW
 70
     1
  9
$SHADEDGE
 70
     3
  9
$SHADEDIF
 70
    70
  9
$TILEMODE
 70
     1
  9
$MAXACTVP
 70
    64
  9
$PINSBASE
 10
0.0
 20
0.0
 30
0.0
  9
$PLIMCHECK
 70
     0
  9
$PEXTMIN
 10
1.0000000000E+20
 20
1.0000000000E+20
 30
1.0000000000E+20
  9
$PEXTMAX
 10
-1.0000000000E+20
 20
-1.0000000000E+20
 30
-1.0000000000E+20
  9
$PLIMMIN
 10
0.0
 20
0.0
  9
$PLIMMAX
 10
420.0
 20
297.0
  9
$UNITMODE
 70
     0
  9
$VISRETAIN
 70
     1
  9
$PLINEGEN
 70
     0
  9
$PSLTSCALE
 70
     1
  9
$TREEDEPTH
 70
  3020
  9
$CMLSTYLE
  2
Standard
  9
$CMLJUST
 70
     0
  9
$CMLSCALE
 40
20.0
  9
$PROXYGRAPHICS
 70
     1
  9
$MEASUREMENT
 70
     1
  9
$CELWEIGHT
370
    -1
  9
$ENDCAPS
280
     0
  9
$JOINSTYLE
280
     0
  9
$LWDISPLAY
290
     1
  9
$INSUNITS
 70
     4
  9
$HYPERLINKBASE
  1

  9
$STYLESHEET
  1

  9
$XEDIT
290
     1
  9
$CEPSNTYPE
380
     0
  9
$PSTYLEMODE
290
     1
  9
$FINGERPRINTGUID
  2
{F563862F-E5BA-445C-8759-7E651D59DD2B}
  9
$VERSIONGUID
  2
{FAEB1C32-E019-11D5-929B-00C0DF256EC4}
  9
$EXTNAMES
290
     1
  9
$PSVPSCALE
 40
0.0
  9
$OLESTARTUP
290
     0
  0
ENDSEC
  0
SECTION
  2
CLASSES
  0
CLASS
  1
ACDBDICTIONARYWDFLT
  2
AcDbDictionaryWithDefault
  3
ObjectDBX Classes
 90
        0
280
     0
281
     0
  0
CLASS
  1
VISUALSTYLE
  2
AcDbVisualStyle
  3
ObjectDBX Classes
 90
     4095
280
     0
281
     0
  0
CLASS
  1
MATERIAL
  2
AcDbMaterial
  3
ObjectDBX Classes
 90
     1153
280
     0
281
     0
  0
CLASS
  1
ACDBPLACEHOLDER
  2
AcDbPlaceHolder
  3
ObjectDBX Classes
 90
        0
280
     0
281
     0
  0
CLASS
  1
LAYOUT
  2
AcDbLayout
  3
ObjectDBX Classes
 90
        0
280
     0
281
     0
  0
ENDSEC
  0
SECTION
  2
TABLES
  0
TABLE
  2
VPORT
  5
8
330
0
100
AcDbSymbolTable
 70
     1
  0
VPORT
  5
29
330
8
100
AcDbSymbolTableRecord
100
AcDbViewportTableRecord
  2
*Active
 70
     0
 10
0.0
 20
0.0
 11
1.0
 21
1.0
 12
148.5
 22
105.0
 13
0.0
 23
0.0
 14
10.0
 24
10.0
 15
10.0
 25
10.0
 16
0.0
 26
0.0
 36
1.0
 17
0.0
 27
0.0
 37
0.0
 40
210.0
 41
1.4142857143
 42
50.0
 43
0.0
 44
0.0
 50
0.0
 51
0.0
 71
     0
 72
  2000
 73
     1
 74
     3
 75
     0
 76
     0
 77
     0
 78
     0
281
     0
 65
     1
110
0.0
120
0.0
130
0.0
111
1.0
121
0.0
131
0.0
112
0.0
122
1.0
132
0.0
 79
     0
146
0.0
  0
ENDTAB
  0
TABLE
  2
LTYPE
  5
5
330
0
100
AcDbSymbolTable
 70
     6
  0
LTYPE
  5
14
330
5
100
AcDbSymbolTableRecord
100
AcDbLinetypeTableRecord
  2
ByBlock
 70
     0
  3

 72
    65
 73
     0
 40
0.0
  0
LTYPE
  5
15
330
5
100
AcDbSymbolTableRecord
100
AcDbLinetypeTableRecord
  2
ByLayer
 70
     0
  3

 72
    65
 73
     0
 40
0.0
  0
LTYPE
  5
16
330
5
100
AcDbSymbolTableRecord
100
AcDbLinetypeTableRecord
  2
Continuous
 70
     0
  3
Solid line
 72
    65
 73
     0
 40
0.0
  0
LTYPE
  5
3F
330
5
100
AcDbSymbolTableRecord
100
AcDbLinetypeTableRecord
  2
HIDDEN
 70
     0
  3
Hidden __ __ __ __ __ __ __ __ __ __ __ __ __ __
 72
    65
 73
     2
 40
1.905
 49
1.27
 74
     0
 49
-0.635
 74
     0
  0
LTYPE
  5
40
330
5
100
AcDbSymbolTableRecord
100
AcDbLinetypeTableRecord
  2
PHANTOM
 70
     0
  3
Phantom ______  __  __  ______  __  __  ______
 72
    65
 73
     6
 40
12.7
 49
6.35
 74
     0
 49
-1.27
 74
     0
 49
1.27
 74
     0
 49
-1.27
 74
     0
 49
1.27
 74
     0
 49
-1.27
 74
     0
  0
LTYPE
  5
41
330
5
100
AcDbSymbolTableRecord
100
AcDbLinetypeTableRecord
  2
CENTER
 70
     0
  3
Center ____ _ ____ _ ____ _ ____ _ ____ _ ____
 72
    65
 73
     4
 40
10.16
 49
6.35
 74
     0
 49
-1.27
 74
     0
 49
1.27
 74
     0
 49
-1.27
 74
     0
  0
LTYPE
  5
42
330
5
100
AcDbSymbolTableRecord
100
AcDbLinetypeTableRecord
  2
CENTERX2
 70
     0
  3
Center (2x) ________  __  ________  __  _____
 72
    65
 73
     4
 40
20.32
 49
12.7
 74
     0
 49
-2.54
 74
     0
 49
2.54
 74
     0
 49
-2.54
 74
     0
  0
LTYPE
  5
43
330
5
100
AcDbSymbolTableRecord
100
AcDbLinetypeTableRecord
  2
DOT2
 70
     0
  3
Dot (.5x) ........................................
 72
    65
 73
     2
 40
0.635
 49
0.0
 74
     0
 49
-0.635
 74
     0
  0
ENDTAB
  0
TABLE
  2
LAYER
  5
2
330
0
100
AcDbSymbolTable
 70
     5
  0
LAYER
  5
10
330
2
100
AcDbSymbolTableRecord
100
AcDbLayerTableRecord
  2
0
 70
     0
 62
     7
  6
Continuous
370
    -3
390
F
  0
LAYER
  5
44
330
2
100
AcDbSymbolTableRecord
100
AcDbLayerTableRecord
  2
FORMAT
 70
     0
 62
     7
  6
Continuous
370
    -3
390
F
  0
LAYER
  5
45
330
2
100
AcDbSymbolTableRecord
100
AcDbLayerTableRecord
  2
VERMASSUNG
 70
     0
 62
     7
  6
Continuous
370
    -3
390
F
  0
LAYER
  5
46
330
2
100
AcDbSymbolTableRecord
100
AcDbLayerTableRecord
  2
KOPF_DÜNN
 70
     0
 62
     7
  6
Continuous
370
    -3
390
F
  0
LAYER
  5
47
330
2
100
AcDbSymbolTableRecord
100
AcDbLayerTableRecord
  2
KOPF_DICK
 70
     0
 62
     7
  6
Continuous
370
    15
390
F
  0
ENDTAB
  0
TABLE
  2
STYLE
  5
3
330
0
100
AcDbSymbolTable
 70
     2
  0
STYLE
  5
11
330
3
100
AcDbSymbolTableRecord
100
AcDbTextStyleTableRecord
  2
Standard
 70
     0
 40
0.0
 41
1.0
 50
0.0
 71
     0
 42
2.0
  3
txt
  4

  0
STYLE
  5
48
330
3
100
AcDbSymbolTableRecord
100
AcDbTextStyleTableRecord
  2
SLDTEXTSTYLE0
 70
     0
 40
0.0
 41
0.7
 50
0.0
 71
     0
 42
0.2
  3
TXT
  4

  0
ENDTAB
  0
TABLE
  2
VIEW
  5
6
330
0
100
AcDbSymbolTable
 70
     0
  0
ENDTAB
  0
TABLE
  2
UCS
  5
7
330
0
100
AcDbSymbolTable
 70
     0
  0
ENDTAB
  0
TABLE
  2
APPID
  5
9
330
0
100
AcDbSymbolTable
 70
     1
  0
APPID
  5
12
330
9
100
AcDbSymbolTableRecord
100
AcDbRegAppTableRecord
  2
ACAD
 70
     0
  0
ENDTAB
  0
TABLE
  2
DIMSTYLE
  5
A
330
0
100
AcDbSymbolTable
 70
     5
100
AcDbDimStyleTable
  0
DIMSTYLE
105
27
330
A
100
AcDbSymbolTableRecord
100
AcDbDimStyleTableRecord
  2
ISO-25
 70
     0
 41
2.5
 42
0.625
 43
3.75
 44
1.25
 73
     0
 74
     0
 77
     1
 78
     8
140
2.5
141
2.5
143
0.0393700787
147
0.625
171
     3
172
     1
178
     0
271
     2
272
     2
274
     3
278
    44
283
     0
284
     8
340
11
  0
DIMSTYLE
105
196
102
{ACAD_REACTORS
330
195
330
1A0
330
1AA
330
1BE
330
1CA
102
}
330
A
100
AcDbSymbolTableRecord
100
AcDbDimStyleTableRecord
  2
SLDDIMSTYLE0
 70
     0
 41
3.0
 44
0.0
 45
0.000000001
 73
     0
 74
     0
 77
     1
 78
    12
 79
     3
140
2.0
147
0.5
173
     1
178
     0
271
     2
272
     3
276
     2
284
    12
340
48
  0
DIMSTYLE
105
1B5
102
{ACAD_REACTORS
330
1B4
102
}
330
A
100
AcDbSymbolTableRecord
100
AcDbDimStyleTableRecord
  2
SLDDIMSTYLE1
 70
     0
 41
3.0
 44
0.0
 73
     0
 74
     0
 77
     1
 78
    12
 79
     3
140
2.0
147
0.5
173
     1
178
     0
179
     1
272
     3
276
     2
284
    12
340
48
  0
DIMSTYLE
105
1F5
102
{ACAD_REACTORS
330
1F4
102
}
330
A
100
AcDbSymbolTableRecord
100
AcDbDimStyleTableRecord
  2
SLDDIMSTYLE2
 70
     0
 41
3.0
 44
0.0
 45
0.000000001
 73
     0
 74
     0
 77
     1
 78
    12
 79
     3
140
2.0
147
0.5
172
     1
173
     1
178
     0
271
     2
272
     3
276
     2
284
    12
289
     0
340
48
  0
DIMSTYLE
105
204
102
{ACAD_REACTORS
330
203
102
}
330
A
100
AcDbSymbolTableRecord
100
AcDbDimStyleTableRecord
  2
SLDDIMSTYLE3
 70
     0
 41
3.0
 44
0.0
 73
     0
 74
     0
 77
     1
 78
    12
 79
     3
140
2.0
147
0.5
173
     1
178
     0
179
     2
272
     3
276
     2
284
    12
340
48
  0
ENDTAB
  0
TABLE
  2
BLOCK_RECORD
  5
1
330
0
100
AcDbSymbolTable
 70
    10
  0
BLOCK_RECORD
  5
1F
330
1
100
AcDbSymbolTableRecord
100
AcDbBlockTableRecord
  2
*Model_Space
340
22
  0
BLOCK_RECORD
  5
1B
330
1
100
AcDbSymbolTableRecord
100
AcDbBlockTableRecord
  2
*Paper_Space
340
1E
  0
BLOCK_RECORD
  5
23
330
1
100
AcDbSymbolTableRecord
100
AcDbBlockTableRecord
  2
*Paper_Space0
340
26
  0
BLOCK_RECORD
  5
197
330
1
100
AcDbSymbolTableRecord
100
AcDbBlockTableRecord
  2
_D
340
0
  0
BLOCK_RECORD
  5
1A1
330
1
100
AcDbSymbolTableRecord
100
AcDbBlockTableRecord
  2
_D_1
340
0
  0
BLOCK_RECORD
  5
1AB
330
1
100
AcDbSymbolTableRecord
100
AcDbBlockTableRecord
  2
_D_2
340
0
  0
BLOCK_RECORD
  5
1B6
330
1
100
AcDbSymbolTableRecord
100
AcDbBlockTableRecord
  2
_D_3
340
0
  0
BLOCK_RECORD
  5
1BF
330
1
100
AcDbSymbolTableRecord
100
AcDbBlockTableRecord
  2
_D_4
340
0
  0
BLOCK_RECORD
  5
1CB
330
1
100
AcDbSymbolTableRecord
100
AcDbBlockTableRecord
  2
_D_5
340
0
  0
BLOCK_RECORD
  5
1F6
330
1
100
AcDbSymbolTableRecord
100
AcDbBlockTableRecord
  2
_D_6
340
0
  0
BLOCK_RECORD
  5
205
330
1
100
AcDbSymbolTableRecord
100
AcDbBlockTableRecord
  2
_D_7
340
0
  0
BLOCK_RECORD
  5
210
330
1
100
AcDbSymbolTableRecord
100
AcDbBlockTableRecord
  2
SW_CENTERMARKSYMBOL_0
340
0
102
{BLKREFS
331
21B
102
}
  0
ENDTAB
  0
ENDSEC
  0
SECTION
  2
BLOCKS
  0
BLOCK
  5
20
330
1F
100
AcDbEntity
  8
0
100
AcDbBlockBegin
  2
*Model_Space
 70
     0
 10
0.0
 20
0.0
 30
0.0
  3
*Model_Space
  1

  0
ENDBLK
  5
21
330
1F
100
AcDbEntity
  8
0
100
AcDbBlockEnd
  0
BLOCK
  5
1C
330
1B
100
AcDbEntity
 67
     1
  8
0
100
AcDbBlockBegin
  2
*Paper_Space
 70
     0
 10
0.0
 20
0.0
 30
0.0
  3
*Paper_Space
  1

  0
ENDBLK
  5
1D
330
1B
100
AcDbEntity
 67
     1
  8
0
100
AcDbBlockEnd
  0
BLOCK
  5
24
330
23
100
AcDbEntity
  8
0
100
AcDbBlockBegin
  2
*Paper_Space0
 70
     0
 10
0.0
 20
0.0
 30
0.0
  3
*Paper_Space0
  1

  0
ENDBLK
  5
25
330
23
100
AcDbEntity
  8
0
100
AcDbBlockEnd
  0
BLOCK
  5
198
330
197
100
AcDbEntity
  8
0
100
AcDbBlockBegin
  2
_D
 70
     0
 10
0.0
 20
0.0
 30
0.0
  3
_D
  1

  0
SOLID
  5
19A
330
197
100
AcDbEntity
  8
VERMASSUNG
100
AcDbTrace
 10
141.4513797
 20
151.5517664879
 30
0.0
 11
144.4513797
 21
151.1017664879
 31
0.0
 12
144.4513797
 22
152.0017664879
 32
0.0
 13
144.4513797
 23
152.0017664879
 33
0.0
  0
SOLID
  5
19B
330
197
100
AcDbEntity
  8
VERMASSUNG
100
AcDbTrace
 10
266.4513797
 20
151.5517664879
 30
0.0
 11
263.4513797
 21
152.0017664879
 31
0.0
 12
263.4513797
 22
151.1017664879
 32
0.0
 13
263.4513797
 23
151.1017664879
 33
0.0
  0
LINE
  5
19C
330
197
100
AcDbEntity
  8
VERMASSUNG
100
AcDbLine
 10
141.4513797
 20
142.7766414209
 30
0.0
 11
141.4513797
 21
152.5517664879
 31
0.0
  0
LINE
  5
19D
330
197
100
AcDbEntity
  8
VERMASSUNG
100
AcDbLine
 10
266.4513797
 20
133.7766414209
 30
0.0
 11
266.4513797
 21
152.5517664879
 31
0.0
  0
LINE
  5
19E
330
197
100
AcDbEntity
  8
VERMASSUNG
100
AcDbLine
 10
141.4513797
 20
151.5517664879
 30
0.0
 11
266.4513797
 21
151.5517664879
 31
0.0
  0
MTEXT
  5
19F
330
197
100
AcDbEntity
  8
VERMASSUNG
100
AcDbMText
 10
201.151379567
 20
154.129901851
 30
0.1
 40
2.0
 41
0.0
 71
     1
 72
     1
  1
125
  7
SLDTEXTSTYLE0
 73
     1
 44
1.0
  0
ENDBLK
  5
199
330
197
100
AcDbEntity
  8
0
100
AcDbBlockEnd
  0
BLOCK
  5
1A2
330
1A1
100
AcDbEntity
  8
0
100
AcDbBlockBegin
  2
_D_1
 70
     0
 10
0.0
 20
0.0
 30
0.0
  3
_D_1
  1

  0
SOLID
  5
1A4
330
1A1
100
AcDbEntity
  8
VERMASSUNG
100
AcDbTrace
 10
266.4513797
 20
159.2766414209
 30
0.0
 11
263.4513797
 21
159.7266414209
 31
0.0
 12
263.4513797
 22
158.8266414209
 32
0.0
 13
263.4513797
 23
158.8266414209
 33
0.0
  0
SOLID
  5
1A5
330
1A1
100
AcDbEntity
  8
VERMASSUNG
100
AcDbTrace
 10
103.4513797
 20
159.2766414209
 30
0.0
 11
106.4513797
 21
158.8266414209
 31
0.0
 12
106.4513797
 22
159.7266414209
 32
0.0
 13
106.4513797
 23
159.7266414209
 33
0.0
  0
LINE
  5
1A6
330
1A1
100
AcDbEntity
  8
VERMASSUNG
100
AcDbLine
 10
266.4513797
 20
133.7766414209
 30
0.0
 11
266.4513797
 21
160.2766414209
 31
0.0
  0
LINE
  5
1A7
330
1A1
100
AcDbEntity
  8
VERMASSUNG
100
AcDbLine
 10
103.4513797
 20
132.0689794134
 30
0.0
 11
103.4513797
 21
160.2766414209
 31
0.0
  0
LINE
  5
1A8
330
1A1
100
AcDbEntity
  8
VERMASSUNG
100
AcDbLine
 10
266.4513797
 20
159.2766414209
 30
0.0
 11
103.4513797
 21
159.2766414209
 31
0.0
  0
MTEXT
  5
1A9
330
1A1
100
AcDbEntity
  8
VERMASSUNG
100
AcDbMText
 10
182.151379567
 20
161.854776784
 30
0.1
 40
2.0
 41
0.0
 71
     1
 72
     1
  1
163
  7
SLDTEXTSTYLE0
 73
     1
 44
1.0
  0
ENDBLK
  5
1A3
330
1A1
100
AcDbEntity
  8
0
100
AcDbBlockEnd
  0
BLOCK
  5
1AC
330
1AB
100
AcDbEntity
  8
0
100
AcDbBlockBegin
  2
_D_2
 70
     0
 10
0.0
 20
0.0
 30
0.0
  3
_D_2
  1

  0
SOLID
  5
1AE
330
1AB
100
AcDbEntity
  8
VERMASSUNG
100
AcDbTrace
 10
280.0542251404
 20
133.7766414209
 30
0.0
 11
279.6042251404
 21
130.7766414209
 31
0.0
 12
280.5042251404
 22
130.7766414209
 32
0.0
 13
280.5042251404
 23
130.7766414209
 33
0.0
  0
SOLID
  5
1AF
330
1AB
100
AcDbEntity
  8
VERMASSUNG
100
AcDbTrace
 10
280.0542251404
 20
111.7766414209
 30
0.0
 11
280.5042251404
 21
114.7766414209
 31
0.0
 12
279.6042251404
 22
114.7766414209
 32
0.0
 13
279.6042251404
 23
114.7766414209
 33
0.0
  0
LINE
  5
1B0
330
1AB
100
AcDbEntity
  8
VERMASSUNG
100
AcDbLine
 10
266.4513797
 20
133.7766414209
 30
0.0
 11
281.0542251404
 21
133.7766414209
 31
0.0
  0
LINE
  5
1B1
330
1AB
100
AcDbEntity
  8
VERMASSUNG
100
AcDbLine
 10
266.4513797
 20
111.7766414209
 30
0.0
 11
281.0542251404
 21
111.7766414209
 31
0.0
  0
LINE
  5
1B2
330
1AB
100
AcDbEntity
  8
VERMASSUNG
100
AcDbLine
 10
280.0542251404
 20
133.7766414209
 30
0.0
 11
280.0542251404
 21
111.7766414209
 31
0.0
  0
MTEXT
  5
1B3
330
1AB
100
AcDbEntity
  8
VERMASSUNG
100
AcDbMText
 10
277.4760897773
 20
120.4766413699
 30
0.1
 40
2.0
 41
0.0
 71
     1
 72
     1
  1
22
  7
SLDTEXTSTYLE0
 11
-7.044195017643634E-15
 21
1.0
 31
0.0
 73
     1
 44
1.0
  0
ENDBLK
  5
1AD
330
1AB
100
AcDbEntity
  8
0
100
AcDbBlockEnd
  0
BLOCK
  5
1B7
330
1B6
100
AcDbEntity
  8
0
100
AcDbBlockBegin
  2
_D_3
 70
     0
 10
0.0
 20
0.0
 30
0.0
  3
_D_3
  1

  0
ARC
  5
1B9
330
1B6
100
AcDbEntity
  8
VERMASSUNG
100
AcDbCircle
 10
266.4513797
 20
133.7766414209
 30
0.0
 40
10.39124605810498
100
AcDbArc
 50
264.9878526278
 51
0.0
  0
SOLID
  5
1BA
330
1B6
100
AcDbEntity
  8
VERMASSUNG
100
AcDbTrace
 10
265.5435282703
 20
123.4251294337
 30
0.0
 11
268.5631698515
 21
123.1348455704
 31
0.0
 12
268.5154449496
 22
124.0335793095
 32
0.0
 13
268.5154449496
 23
124.0335793095
 33
0.0
  0
SOLID
  5
1BB
330
1B6
100
AcDbEntity
  8
VERMASSUNG
100
AcDbTrace
 10
276.8426257581
 20
133.7766414209
 30
0.0
 11
275.9768551913
 21
130.8692471708
 31
0.0
 12
276.8679827713
 22
130.7431851377
 32
0.0
 13
276.8679827713
 23
130.7431851377
 33
0.0
  0
LINE
  5
1BC
330
1B6
100
AcDbEntity
  8
VERMASSUNG
100
AcDbLine
 10
275.0187978111
 20
133.7766414209
 30
0.0
 11
277.8426257581
 21
133.7766414209
 31
0.0
  0
MTEXT
  5
1BD
330
1B6
100
AcDbEntity
  8
VERMASSUNG
100
AcDbMText
 10
269.5909180108
 20
126.0566673883
 30
0.1
 40
2.0
 41
0.0
 71
     1
 72
     1
  1
95°
  7
SLDTEXTSTYLE0
 11
0.7373489491615091
 21
0.6755120481312071
 31
0.0
 73
     1
 44
1.0
  0
ENDBLK
  5
1B8
330
1B6
100
AcDbEntity
  8
0
100
AcDbBlockEnd
  0
BLOCK
  5
1C0
330
1BF
100
AcDbEntity
  8
0
100
AcDbBlockBegin
  2
_D_4
 70
     0
 10
0.0
 20
0.0
 30
0.0
  3
_D_4
  1

  0
SOLID
  5
1C2
330
1BF
100
AcDbEntity
  8
VERMASSUNG
100
AcDbTrace
 10
95.8641519142
 20
143.2766414209
 30
0.0
 11
95.4141519142
 21
140.2766414209
 31
0.0
 12
96.3141519142
 22
140.2766414209
 32
0.0
 13
96.3141519142
 23
140.2766414209
 33
0.0
  0
SOLID
  5
1C3
330
1BF
100
AcDbEntity
  8
VERMASSUNG
100
AcDbTrace
 10
95.8641519142
 20
80.2766414209
 30
0.0
 11
96.3141519142
 21
83.2766414209
 31
0.0
 12
95.4141519142
 22
83.2766414209
 32
0.0
 13
95.4141519142
 23
83.2766414209
 33
0.0
  0
LINE
  5
1C4
330
1BF
100
AcDbEntity
  8
VERMASSUNG
100
AcDbLine
 10
141.9513797
 20
143.2766414209
 30
0.0
 11
94.8641519142
 21
143.2766414209
 31
0.0
  0
LINE
  5
1C5
330
1BF
100
AcDbEntity
  8
VERMASSUNG
100
AcDbLine
 10
141.9513797
 20
80.2766414209
 30
0.0
 11
94.8641519142
 21
80.2766414209
 31
0.0
  0
LINE
  5
1C6
330
1BF
100
AcDbEntity
  8
VERMASSUNG
100
AcDbLine
 10
95.8641519142
 20
143.2766414209
 30
0.0
 11
95.8641519142
 21
80.2766414209
 31
0.0
  0
MTEXT
  5
1C7
330
1BF
100
AcDbEntity
  8
VERMASSUNG
100
AcDbMText
 10
93.0860164252
 20
105.3716413117
 30
0.1
 40
2.0
 41
0.0
 71
     1
 72
     1
  1
PSC
  7
SLDTEXTSTYLE0
 11
-7.044195017643634E-15
 21
1.0
 31
0.0
 73
     1
 44
1.0
  0
MTEXT
  5
1C8
330
1BF
100
AcDbEntity
  8
VERMASSUNG
100
AcDbMText
 10
93.2860164347
 20
109.9716414137
 30
0.1
 40
2.0
 41
0.0
 71
     1
 72
     1
  1
%%c
  7
SLDTEXTSTYLE0
 11
-7.044195017643634E-15
 21
1.0
 31
0.0
 73
     1
 44
1.0
  0
MTEXT
  5
1C9
330
1BF
100
AcDbEntity
  8
VERMASSUNG
100
AcDbMText
 10
93.0860164252
 20
113.5816418937
 30
0.1
 40
2.0
 41
0.0
 71
     1
 72
     1
  1
63
  7
SLDTEXTSTYLE0
 11
-7.044195017643634E-15
 21
1.0
 31
0.0
 73
     1
 44
1.0
  0
ENDBLK
  5
1C1
330
1BF
100
AcDbEntity
  8
0
100
AcDbBlockEnd
  0
BLOCK
  5
1CC
330
1CB
100
AcDbEntity
  8
0
100
AcDbBlockBegin
  2
_D_5
 70
     0
 10
0.0
 20
0.0
 30
0.0
  3
_D_5
  1

  0
SOLID
  5
1CE
330
1CB
100
AcDbEntity
  8
VERMASSUNG
100
AcDbTrace
 10
189.7601402377
 20
127.7766414209
 30
0.0
 11
189.3101402377
 21
124.7766414209
 31
0.0
 12
190.2101402377
 22
124.7766414209
 32
0.0
 13
190.2101402377
 23
124.7766414209
 33
0.0
  0
SOLID
  5
1CF
330
1CB
100
AcDbEntity
  8
VERMASSUNG
100
AcDbTrace
 10
189.7601402377
 20
95.7766414209
 30
0.0
 11
190.2101402377
 21
98.7766414209
 31
0.0
 12
189.3101402377
 22
98.7766414209
 32
0.0
 13
189.3101402377
 23
98.7766414209
 33
0.0
  0
LINE
  5
1D0
330
1CB
100
AcDbEntity
  8
VERMASSUNG
100
AcDbLine
 10
189.7601402377
 20
127.7766414209
 30
0.0
 11
189.7601402377
 21
95.7766414209
 31
0.0
  0
MTEXT
  5
1D1
330
1CB
100
AcDbEntity
  8
VERMASSUNG
100
AcDbMText
 10
187.1820047581
 20
99.0875783013
 30
0.1
 40
2.0
 41
0.0
 71
     1
 72
     1
  1
%%c
  7
SLDTEXTSTYLE0
 11
-7.044195017643634E-15
 21
1.0
 31
0.0
 73
     1
 44
1.0
  0
MTEXT
  5
1D2
330
1CB
100
AcDbEntity
  8
VERMASSUNG
100
AcDbMText
 10
186.9820047486
 20
102.6975783156
 30
0.1
 40
2.0
 41
0.0
 71
     1
 72
     1
  1
32
  7
SLDTEXTSTYLE0
 11
-7.044195017643634E-15
 21
1.0
 31
0.0
 73
     1
 44
1.0
  0
ENDBLK
  5
1CD
330
1CB
100
AcDbEntity
  8
0
100
AcDbBlockEnd
  0
BLOCK
  5
1F7
330
1F6
100
AcDbEntity
  8
0
100
AcDbBlockBegin
  2
_D_6
 70
     0
 10
0.0
 20
0.0
 30
0.0
  3
_D_6
  1

  0
SOLID
  5
1F9
330
1F6
100
AcDbEntity
  8
VERMASSUNG
100
AcDbTrace
 10
62.5980283591
 20
99.5472311828
 30
0.0
 11
64.4011506511
 21
97.1077127877
 31
0.0
 12
65.0375467542
 22
97.7441088907
 32
0.0
 13
65.0375467542
 23
97.7441088907
 33
0.0
  0
SOLID
  5
1FA
330
1F6
100
AcDbEntity
  8
VERMASSUNG
100
AcDbTrace
 10
34.3137571116
 20
127.8315024302
 30
0.0
 11
32.5106348196
 21
130.2710208253
 31
0.0
 12
31.8742387165
 22
129.6346247222
 32
0.0
 13
31.8742387165
 23
129.6346247222
 33
0.0
  0
LINE
  5
1FB
330
1F6
100
AcDbEntity
  8
VERMASSUNG
100
AcDbLine
 10
62.5980283591
 20
99.5472311828
 30
0.0
 11
63.3051351403
 21
100.2543379639
 31
0.0
  0
LINE
  5
1FC
330
1F6
100
AcDbEntity
  8
VERMASSUNG
100
AcDbLine
 10
34.3137571116
 20
127.8315024302
 30
0.0
 11
35.0208638928
 21
128.5386092114
 31
0.0
  0
LINE
  5
1FD
330
1F6
100
AcDbEntity
  8
VERMASSUNG
100
AcDbLine
 10
62.5980283591
 20
99.5472311828
 30
0.0
 11
66.8406690462
 21
95.3045904956
 31
0.0
  0
LINE
  5
1FE
330
1F6
100
AcDbEntity
  8
VERMASSUNG
100
AcDbLine
 10
62.5980283591
 20
99.5472311828
 30
0.0
 11
34.3137571116
 21
127.8315024302
 31
0.0
  0
LINE
  5
1FF
330
1F6
100
AcDbEntity
  8
VERMASSUNG
100
AcDbLine
 10
34.3137571116
 20
127.8315024302
 30
0.0
 11
16.4644192299
 21
145.6808403119
 31
0.0
  0
MTEXT
  5
200
330
1F6
100
AcDbEntity
  8
VERMASSUNG
100
AcDbMText
 10
18.2874363103
 20
147.5038573923
 30
0.1
 40
2.0
 41
0.0
 71
     1
 72
     1
  1
%%c
  7
SLDTEXTSTYLE0
 11
0.7071067811865464
 21
-0.7071067811865488
 31
0.0
 73
     1
 44
1.0
  0
MTEXT
  5
201
330
1F6
100
AcDbEntity
  8
VERMASSUNG
100
AcDbMText
 10
20.9815131635
 20
145.0926232651
 30
0.1
 40
2.0
 41
0.0
 71
     1
 72
     1
  1
40
  7
SLDTEXTSTYLE0
 11
0.7071067811865464
 21
-0.7071067811865488
 31
0.0
 73
     1
 44
1.0
  0
MTEXT
  5
202
330
1F6
100
AcDbEntity
  8
VERMASSUNG
100
AcDbMText
 10
25.215315177
 20
140.8588212515
 30
0.1
 40
2.0
 41
0.0
 71
     1
 72
     1
  1
min.
  7
SLDTEXTSTYLE0
 11
0.7071067811865464
 21
-0.7071067811865488
 31
0.0
 73
     1
 44
1.0
  0
ENDBLK
  5
1F8
330
1F6
100
AcDbEntity
  8
0
100
AcDbBlockEnd
  0
BLOCK
  5
206
330
205
100
AcDbEntity
  8
0
100
AcDbBlockBegin
  2
_D_7
 70
     0
 10
0.0
 20
0.0
 30
0.0
  3
_D_7
  1

  0
ARC
  5
208
330
205
100
AcDbEntity
  8
VERMASSUNG
100
AcDbCircle
 10
48.4558927353
 20
129.475965313
 30
0.0
 40
57.15048282159301
100
AcDbArc
 50
266.0
 51
270.0
  0
ARC
  5
209
330
205
100
AcDbEntity
  8
VERMASSUNG
100
AcDbCircle
 10
48.4558927353
 20
129.475965313
 30
0.0
 40
57.15048282159301
100
AcDbArc
 50
254.8720994501
 51
266.0
  0
ARC
  5
20A
330
205
100
AcDbEntity
  8
VERMASSUNG
100
AcDbCircle
 10
48.4558927353
 20
129.475965313
 30
0.0
 40
57.15048282159301
100
AcDbArc
 50
270.0
 51
276.0076702319
  0
SOLID
  5
20B
330
205
100
AcDbEntity
  8
VERMASSUNG
100
AcDbTrace
 10
44.4692765809
 20
72.4646981952
 30
0.0
 11
41.5262498277
 21
73.2002887945
 31
0.0
 12
41.4399505848
 22
72.3044358821
 32
0.0
 13
41.4399505848
 23
72.3044358821
 33
0.0
  0
SOLID
  5
20C
330
205
100
AcDbEntity
  8
VERMASSUNG
100
AcDbTrace
 10
48.4558927353
 20
72.3254824914
 30
0.0
 11
51.4666601118
 21
71.95429547
 31
0.0
 12
51.4430626296
 22
72.8539860606
 32
0.0
 13
51.4430626296
 23
72.8539860606
 33
0.0
  0
LINE
  5
20D
330
205
100
AcDbEntity
  8
VERMASSUNG
100
AcDbLine
 10
46.0765027496
 20
95.4491032324
 30
0.0
 11
44.3995201072
 21
71.467134145
 31
0.0
  0
LINE
  5
20E
330
205
100
AcDbEntity
  8
VERMASSUNG
100
AcDbLine
 10
48.4558927353
 20
77.7766414209
 30
0.0
 11
48.4558927353
 21
71.3254824914
 31
0.0
  0
MTEXT
  5
20F
330
205
100
AcDbEntity
  8
VERMASSUNG
100
AcDbMText
 10
34.101197985
 20
76.7751698163
 30
-43.3966575146
 40
2.0
 41
0.0
 71
     1
 72
     1
  1
4°
  7
SLDTEXTSTYLE0
 11
0.9750591909642314
 21
-0.2219449799301134
 31
0.0
 73
     1
 44
1.0
  0
ENDBLK
  5
207
330
205
100
AcDbEntity
  8
0
100
AcDbBlockEnd
  0
BLOCK
  5
211
330
210
100
AcDbEntity
  8
0
100
AcDbBlockBegin
  2
SW_CENTERMARKSYMBOL_0
 70
     0
 10
0.0
 20
0.0
 30
0.0
  3
SW_CENTERMARKSYMBOL_0
  1

  0
LINE
  5
213
330
210
100
AcDbEntity
  8
VERMASSUNG
 62
     0
100
AcDbLine
 10
0.0
 20
0.0
 30
0.0
 11
0.0
 21
2.5
 31
0.0
  0
LINE
  5
214
330
210
100
AcDbEntity
  8
VERMASSUNG
 62
     0
100
AcDbLine
 10
0.0
 20
0.0
 30
0.0
 11
-2.5
 21
0.0
 31
0.0
  0
LINE
  5
215
330
210
100
AcDbEntity
  8
VERMASSUNG
 62
     0
100
AcDbLine
 10
0.0
 20
0.0
 30
0.0
 11
0.0
 21
-2.5
 31
0.0
  0
LINE
  5
216
330
210
100
AcDbEntity
  8
VERMASSUNG
 62
     0
100
AcDbLine
 10
0.0
 20
0.0
 30
0.0
 11
2.5
 21
0.0
 31
0.0
  0
LINE
  5
217
330
210
100
AcDbEntity
  8
VERMASSUNG
 62
     0
100
AcDbLine
 10
0.0
 20
5.0
 30
0.0
 11
0.0
 21
34.0
 31
0.0
  0
LINE
  5
218
330
210
100
AcDbEntity
  8
VERMASSUNG
 62
     0
100
AcDbLine
 10
-5.0
 20
0.0
 30
0.0
 11
-34.0
 21
0.0
 31
0.0
  0
LINE
  5
219
330
210
100
AcDbEntity
  8
VERMASSUNG
 62
     0
100
AcDbLine
 10
0.0
 20
-5.0
 30
0.0
 11
0.0
 21
-34.0
 31
0.0
  0
LINE
  5
21A
330
210
100
AcDbEntity
  8
VERMASSUNG
 62
     0
100
AcDbLine
 10
5.0
 20
0.0
 30
0.0
 11
34.0
 21
0.0
 31
0.0
  0
ENDBLK
  5
212
330
210
100
AcDbEntity
  8
0
100
AcDbBlockEnd
  0
ENDSEC
  0
SECTION
  2
ENTITIES
  0
MTEXT
  5
49
330
1F
100
AcDbEntity
  8
KOPF_DÜNN
100
AcDbMText
 10
13.8892156294
 20
23.8442973028
 30
0.0
 40
3.0
 41
0.0
 71
     1
 72
     1
  1
PS6.BCC.RLB.125
  7
SLDTEXTSTYLE0
 73
     1
 44
1.0
  0
MTEXT
  5
4A
330
1F
100
AcDbEntity
  8
VERMASSUNG
100
AcDbMText
 10
13.9329988022
 20
28.8834360957
 30
0.0
 40
3.0
 41
0.0
 71
     1
 72
     1
  1
Bohrstange_Boring bar
  7
SLDTEXTSTYLE0
 73
     1
 44
1.0
  0
MTEXT
  5
4B
330
1F
100
AcDbEntity
  8
VERMASSUNG
100
AcDbMText
 10
98.8601118557
 20
13.8365368179
 30
0.0
 40
2.0
 41
0.0
 71
     1
 72
     1
  1
Datum: 01.06.2012
  7
SLDTEXTSTYLE0
 73
     1
 44
1.0
  0
MTEXT
  5
4C
330
1F
100
AcDbEntity
  8
VERMASSUNG
100
AcDbMText
 10
13.933048693
 20
18.0482802738
 30
0.0
 40
2.0
 41
0.0
 71
     1
 72
     1
  1
PSC ø63 / Wp.: CC..12 04..
  7
SLDTEXTSTYLE0
 73
     1
 44
1.0
  0
MTEXT
  5
4D
330
1F
100
AcDbEntity
  8
VERMASSUNG
100
AcDbMText
 10
13.9808475933
 20
13.9090973692
 30
0.0
 40
2.0
 41
0.0
 71
     1
 72
     1
  1
Gewicht: 1258g
  7
SLDTEXTSTYLE0
 73
     1
 44
1.0
  0
ARC
  5
4E
330
1F
100
AcDbEntity
  8
0
  6
Continuous
 62
     7
370
    15
100
AcDbCircle
 10
162.4513797
 20
81.2766414209
 30
0.0
 40
1.000000000000014
100
AcDbArc
 50
270.0
 51
0.0
  0
ARC
  5
4F
330
1F
100
AcDbEntity
  8
0
  6
Continuous
 62
     7
370
    15
100
AcDbCircle
 10
162.4513797
 20
142.2766414209
 30
0.0
 40
1.000000000000028
100
AcDbArc
 50
0.0
 51
90.0
  0
ARC
  5
50
330
1F
100
AcDbEntity
  8
0
  6
Continuous
 62
     7
370
    15
100
AcDbCircle
 10
141.9513797
 20
80.7766414209
 30
0.0
 40
0.5000000000000142
100
AcDbArc
 50
180.0
 51
270.0
  0
ARC
  5
51
330
1F
100
AcDbEntity
  8
0
  6
Continuous
 62
     7
370
    15
100
AcDbCircle
 10
141.9513797
 20
142.7766414209
 30
0.0
 40
0.5000000000000284
100
AcDbArc
 50
90.0
 51
180.0
  0
LINE
  5
52
330
1F
100
AcDbEntity
  8
0
  6
Continuous
 62
     7
370
    15
100
AcDbLine
 10
141.9513797238
 20
80.2766409142
 30
0.0
 11
162.4513794169
 21
80.2766409142
 31
0.0
  0
LINE
  5
53
330
1F
100
AcDbEntity
  8
0
  6
Continuous
 62
     7
370
    15
100
AcDbLine
 10
162.4513794169
 20
143.2766419275
 30
0.0
 11
141.9513797238
 21
143.2766419275
 31
0.0
  0
LWPOLYLINE
  5
54
330
1F
100
AcDbEntity
  8
0
  6
Continuous
 62
     7
370
    15
100
AcDbPolyline
 90
        3
 70
   128
 43
0.0
 10
141.2513797051
 20
89.2368208988
 10
141.3768346403
 20
89.1685195638
 10
141.4513797
 20
89.1157806291
  0
LWPOLYLINE
  5
55
330
1F
100
AcDbEntity
  8
0
  6
Continuous
 62
     7
370
    15
100
AcDbPolyline
 90
        3
 70
   128
 43
0.0
 10
141.4513797
 20
134.4375022127
 10
141.3768346403
 20
134.3847632779
 10
141.2513797051
 20
134.316461943
  0
ARC
  5
56
330
1F
100
AcDbEntity
  8
0
  6
Continuous
 62
     7
370
    15
100
AcDbCircle
 10
167.4513797
 20
91.7766414209
 30
0.0
 40
4.0
100
AcDbArc
 50
90.0
 51
180.0
  0
ARC
  5
57
330
1F
100
AcDbEntity
  8
0
  6
Continuous
 62
     7
370
    15
100
AcDbCircle
 10
167.4513797
 20
131.7766414209
 30
0.0
 40
4.0
100
AcDbArc
 50
180.0
 51
270.0
  0
LINE
  5
58
330
1F
100
AcDbEntity
  8
0
  6
Continuous
 62
     7
370
    15
100
AcDbLine
 10
240.4513791636
 20
127.7766421808
 30
0.0
 11
167.4513802365
 21
127.7766421808
 31
0.0
  0
LINE
  5
59
330
1F
100
AcDbEntity
  8
0
  6
Continuous
 62
     7
370
    15
100
AcDbLine
 10
167.4513802365
 20
95.7766406609
 30
0.0
 11
240.4513791636
 21
95.7766406609
 31
0.0
  0
LINE
  5
5A
330
1F
100
AcDbEntity
  8
0
  6
Continuous
 62
     7
370
    15
100
AcDbLine
 10
240.8209577635
 20
128.1462226434
 30
0.0
 11
240.4513791636
 21
127.7766421808
 31
0.0
  0
LINE
  5
5B
330
1F
100
AcDbEntity
  8
0
  6
Continuous
 62
     7
370
    15
100
AcDbLine
 10
240.4513791636
 20
95.7766406609
 30
0.0
 11
240.9513801769
 21
95.2766415103
 31
0.0
  0
LINE
  5
5C
330
1F
100
AcDbEntity
  8
0
  6
Continuous
 62
     7
370
    15
100
AcDbLine
 10
240.9513801769
 20
95.2766415103
 30
0.0
 11
247.6039588884
 21
95.2766415103
 31
0.0
  0
LINE
  5
5D
330
1F
100
AcDbEntity
  8
0
  6
Continuous
 62
     7
370
    15
100
AcDbLine
 10
258.0483913854
 20
126.63146466
 30
0.0
 11
258.0483913854
 21
126.7430734261
 31
0.0
  0
LINE
  5
5E
330
1F
100
AcDbEntity
  8
0
  6
Continuous
 62
     7
370
    15
100
AcDbLine
 10
260.8866453603
 20
126.8543608858
 30
0.0
 11
260.8866453603
 21
126.7428815736
 31
0.0
  0
LINE
  5
5F
330
1F
100
AcDbEntity
  8
0
  6
Continuous
 62
     7
370
    15
100
AcDbLine
 10
255.9659839109
 20
126.773379594
 30
0.0
 11
255.9659839109
 21
126.7594283818
 31
0.0
  0
LINE
  5
60
330
1F
100
AcDbEntity
  8
0
  6
Continuous
 62
     7
370
    15
100
AcDbLine
 10
262.9659831956
 20
126.7594283818
 30
0.0
 11
262.9659831956
 21
126.773379594
 31
0.0
  0
LINE
  5
61
330
1F
100
AcDbEntity
  8
0
  6
Continuous
 62
     7
370
    15
100
AcDbLine
 10
163.4513795808
 20
81.2766410782
 30
0.0
 11
163.4513795808
 21
142.2766417636
 31
0.0
  0
LINE
  5
62
330
1F
100
AcDbEntity
  8
0
  6
Continuous
 62
     7
370
    15
100
AcDbLine
 10
141.4513797
 20
80.7766419275
 30
0.0
 11
141.4513797
 21
142.7766409142
 31
0.0
  0
SPLINE
  5
63
330
1F
100
AcDbEntity
  8
0
  6
Continuous
 62
     7
370
    15
100
AcDbSpline
210
0.0
220
0.0
230
1.0
 70
     8
 71
     3
 72
    12
 73
     8
 74
     0
 42
0.00000001
 43
0.00000001
 12
1.0
 22
0.0
 32
0.0
 13
1.0
 23
0.0
 33
0.0
 40
0.0
 40
0.0
 40
0.0
 40
0.0
 40
0.2500000000000009
 40
0.2500000000000009
 40
0.5000000000000018
 40
0.5000000000000018
 40
1.0
 40
1.0
 40
1.0
 40
1.0
 10
151.979136513591
 20
121.1647078522238
 30
0.0
 10
151.9160564750976
 20
121.1647078522238
 30
0.0
 10
151.8569078529162
 20
121.1900721714387
 30
0.0
 10
151.7584353028471
 20
121.2642370318116
 30
0.0
 10
151.7193986908624
 20
121.3107573723658
 30
0.0
 10
151.6195022240834
 20
121.460899715211
 30
0.0
 10
151.5770813430167
 20
121.5725929221832
 30
0.0
 10
151.5461238116987
 20
121.686010741573
 30
0.0
  0
LINE
  5
64
330
1F
100
AcDbEntity
  8
0
  6
Continuous
 62
     7
370
    15
100
AcDbLine
 10
154.9236229122
 20
121.1647082491
 30
0.0
 11
151.9791366965
 21
121.1647082491
 31
0.0
  0
SPLINE
  5
65
330
1F
100
AcDbEntity
  8
0
  6
Continuous
 62
     7
370
    15
100
AcDbSpline
210
0.0
220
0.0
230
1.0
 70
     8
 71
     3
 72
    12
 73
     8
 74
     0
 42
0.00000001
 43
0.00000001
 12
1.0
 22
0.0
 32
0.0
 13
1.0
 23
0.0
 33
0.0
 40
0.0
 40
0.0
 40
0.0
 40
0.0
 40
0.5000000000000001
 40
0.5000000000000001
 40
0.75
 40
0.75
 40
1.0
 40
1.0
 40
1.0
 40
1.0
 10
155.3566355883503
 20
121.6860107415729
 30
0.0
 10
155.3259133464312
 20
121.5734549421637
 30
0.0
 10
155.2830761318961
 20
121.4606970824241
 30
0.0
 10
155.1836491076963
 20
121.3111561966278
 30
0.0
 10
155.1438969128796
 20
121.2638634649209
 30
0.0
 10
155.0458554560214
 20
121.1901271715995
 30
0.0
 10
154.9862994004339
 20
121.1647078522238
 30
0.0
 10
154.9236228864581
 20
121.1647078522238
 30
0.0
  0
ELLIPSE
  5
66
330
1F
100
AcDbEntity
  8
0
  6
Continuous
 62
     7
370
    15
100
AcDbEllipse
 10
139.1042255107
 20
111.7766414209
 30
0.0
 11
14.75368316065604
 21
31.09325491558118
 31
0.0
210
0.0
220
0.0
230
1.0
 40
0.3419987131
 41
5.193281737408617
 42
6.124043104552322
  0
SPLINE
  5
67
330
1F
100
AcDbEntity
  8
0
  6
Continuous
 62
     7
370
    15
100
AcDbSpline
210
0.0
220
0.0
230
1.0
 70
     8
 71
     3
 72
    12
 73
     8
 74
     0
 42
0.00000001
 43
0.00000001
 12
1.0
 22
0.0
 32
0.0
 13
1.0
 23
0.0
 33
0.0
 40
0.0
 40
0.0
 40
0.0
 40
0.0
 40
0.2500000000000009
 40
0.2500000000000009
 40
0.5000000000000018
 40
0.5000000000000018
 40
1.0
 40
1.0
 40
1.0
 40
1.0
 10
154.9236228864581
 20
141.845133379761
 30
0.0
 10
154.9867029249515
 20
141.845133379761
 30
0.0
 10
155.0458515471329
 20
141.8372274535485
 30
0.0
 10
155.1443240972019
 20
141.8139022921123
 30
0.0
 10
155.1833607091867
 20
141.7991895022806
 30
0.0
 10
155.2832571759657
 20
141.7512337015496
 30
0.0
 10
155.3256780570323
 20
141.7149715449696
 30
0.0
 10
155.3566355883503
 20
141.6773838810051
 30
0.0
  0
LINE
  5
68
330
1F
100
AcDbEntity
  8
0
  6
Continuous
 62
     7
370
    15
100
AcDbLine
 10
151.9791366965
 20
141.8451339378
 30
0.0
 11
154.9236229122
 21
141.8451339378
 31
0.0
  0
SPLINE
  5
69
330
1F
100
AcDbEntity
  8
0
  6
Continuous
 62
     7
370
    15
100
AcDbSpline
210
0.0
220
0.0
230
1.0
 70
     8
 71
     3
 72
    12
 73
     8
 74
     0
 42
0.00000001
 43
0.00000001
 12
1.0
 22
0.0
 32
0.0
 13
1.0
 23
0.0
 33
0.0
 40
0.0
 40
0.0
 40
0.0
 40
0.0
 40
0.5000000000000029
 40
0.5000000000000029
 40
0.7500000000000014
 40
0.7500000000000014
 40
1.0
 40
1.0
 40
1.0
 40
1.0
 10
151.5461238116987
 20
141.6773838810051
 30
0.0
 10
151.5768460536179
 20
141.7146858639581
 30
0.0
 10
151.619683268153
 20
141.7512976960045
 30
0.0
 10
151.7191102923528
 20
141.7990624792897
 30
0.0
 10
151.7588624871695
 20
141.8140199947721
 30
0.0
 10
151.8569039440277
 20
141.8372099405412
 30
0.0
 10
151.9164599996152
 20
141.8451333797609
 30
0.0
 10
151.979136513591
 20
141.845133379761
 30
0.0
  0
ELLIPSE
  5
6A
330
1F
100
AcDbEntity
  8
0
  6
Continuous
 62
     7
370
    15
100
AcDbEllipse
 10
167.7985338894
 20
111.7766414209
 30
0.0
 11
-14.75368316065606
 21
31.09325491558118
 31
0.0
210
0.0
220
0.0
230
1.0
 40
0.3419987131
 41
0.159142202627302
 42
1.089903569770978
  0
SPLINE
  5
6B
330
1F
100
AcDbEntity
  8
0
  6
Continuous
 62
     7
370
    15
100
AcDbSpline
210
0.0
220
0.0
230
1.0
 70
     8
 71
     3
 72
    12
 73
     8
 74
     0
 42
0.00000001
 43
0.00000001
 12
1.0
 22
0.0
 32
0.0
 13
1.0
 23
0.0
 33
0.0
 40
0.0
 40
0.0
 40
0.0
 40
0.0
 40
0.25
 40
0.25
 40
0.5
 40
0.5
 40
1.0
 40
1.0
 40
1.0
 40
1.0
 10
151.979136513591
 20
81.7081494620148
 30
0.0
 10
151.9160795586932
 20
81.7081494620148
 30
0.0
 10
151.8569494089476
 20
81.71604979309434
 30
0.0
 10
151.7585018584143
 20
81.73936054109939
 30
0.0
 10
151.7194696202262
 20
81.75406566738303
 30
0.0
 10
151.6195797357693
 20
81.80199919556966
 30
0.0
 10
151.5772807621599
 20
81.83806916833441
 30
0.0
 10
151.5461238116987
 20
81.87589896077063
 30
0.0
  0
LINE
  5
6C
330
1F
100
AcDbEntity
  8
0
  6
Continuous
 62
     7
370
    15
100
AcDbLine
 10
154.9236229122
 20
81.708148904
 30
0.0
 11
151.9791366965
 21
81.708148904
 31
0.0
  0
SPLINE
  5
6D
330
1F
100
AcDbEntity
  8
0
  6
Continuous
 62
     7
370
    15
100
AcDbSpline
210
0.0
220
0.0
230
1.0
 70
     8
 71
     3
 72
    12
 73
     8
 74
     0
 42
0.00000001
 43
0.00000001
 12
1.0
 22
0.0
 32
0.0
 13
1.0
 23
0.0
 33
0.0
 40
0.0
 40
0.0
 40
0.0
 40
0.0
 40
0.5000000000000019
 40
0.5000000000000019
 40
0.7500000000000009
 40
0.7500000000000009
 40
1.0
 40
1.0
 40
1.0
 40
1.0
 10
155.3566355883503
 20
81.87589896077064
 30
0.0
 10
155.3254903903882
 20
81.83808343785046
 30
0.0
 10
155.2832161240538
 20
81.80201657976684
 30
0.0
 10
155.1832705902285
 20
81.75405651475556
 30
0.0
 10
155.1435402855244
 20
81.73919554085792
 30
0.0
 10
155.0466522355182
 20
81.71624439472679
 30
0.0
 10
154.9865869937717
 20
81.70814946201473
 30
0.0
 10
154.9236228864581
 20
81.70814946201475
 30
0.0
  0
ELLIPSE
  5
6E
330
1F
100
AcDbEntity
  8
0
  6
Continuous
 62
     7
370
    15
100
AcDbEllipse
 10
139.1042255107
 20
111.7766414209
 30
0.0
 11
-14.75368316065618
 21
31.09325491558119
 31
0.0
210
0.0
220
0.0
230
1.0
 40
0.3419987131
 41
3.300734856217124
 42
4.231496223360774
  0
SPLINE
  5
6F
330
1F
100
AcDbEntity
  8
0
  6
Continuous
 62
     7
370
    15
100
AcDbSpline
210
0.0
220
0.0
230
1.0
 70
     8
 71
     3
 72
    12
 73
     8
 74
     0
 42
0.00000001
 43
0.00000001
 12
1.0
 22
0.0
 32
0.0
 13
1.0
 23
0.0
 33
0.0
 40
0.0
 40
0.0
 40
0.0
 40
0.0
 40
0.2499999999999991
 40
0.2499999999999991
 40
0.4999999999999982
 40
0.4999999999999982
 40
1.0
 40
1.0
 40
1.0
 40
1.0
 10
154.9236228864581
 20
102.3885749895516
 30
0.0
 10
154.9866798413559
 20
102.3885749895516
 30
0.0
 10
155.0458099911015
 20
102.363228636171
 30
0.0
 10
155.1442575416348
 20
102.2891092540315
 30
0.0
 10
155.1832897798228
 20
102.2426127393335
 30
0.0
 10
155.2831796642798
 20
102.0925382323249
 30
0.0
 10
155.3254786378891
 20
101.98142052321
 30
0.0
 10
155.3566355883504
 20
101.8672721002026
 30
0.0
  0
LINE
  5
70
330
1F
100
AcDbEntity
  8
0
  6
Continuous
 62
     7
370
    15
100
AcDbLine
 10
151.9791366965
 20
102.3885745926
 30
0.0
 11
154.9236229122
 21
102.3885745926
 31
0.0
  0
SPLINE
  5
71
330
1F
100
AcDbEntity
  8
0
  6
Continuous
 62
     7
370
    15
100
AcDbSpline
210
0.0
220
0.0
230
1.0
 70
     8
 71
     3
 72
    12
 73
     8
 74
     0
 42
0.00000001
 43
0.00000001
 12
1.0
 22
0.0
 32
0.0
 13
1.0
 23
0.0
 33
0.0
 40
0.0
 40
0.0
 40
0.0
 40
0.0
 40
0.5000000000000064
 40
0.5000000000000064
 40
0.7500000000000032
 40
0.7500000000000032
 40
1.0
 40
1.0
 40
1.0
 40
1.0
 10
151.5461238116988
 20
101.8672721002025
 30
0.0
 10
151.5772690096609
 20
101.9813774660678
 30
0.0
 10
151.6195432759953
 20
102.0924837932866
 30
0.0
 10
151.7194888098206
 20
102.2426414007169
 30
0.0
 10
151.7592191145247
 20
102.2896340923342
 30
0.0
 10
151.8561071645308
 20
102.3626096768727
 30
0.0
 10
151.9161724062774
 20
102.3885749895517
 30
0.0
 10
151.979136513591
 20
102.3885749895517
 30
0.0
  0
ELLIPSE
  5
72
330
1F
100
AcDbEntity
  8
0
  6
Continuous
 62
     7
370
    15
100
AcDbEllipse
 10
167.7985338894
 20
111.7766414209
 30
0.0
 11
14.75368316065621
 21
31.09325491558119
 31
0.0
210
0.0
220
0.0
230
1.0
 40
0.3419987131
 41
2.051689083818826
 42
2.982450450962503
  0
SPLINE
  5
73
330
1F
100
AcDbEntity
  8
0
  6
Continuous
 62
     7
370
    15
100
AcDbSpline
210
0.0
220
0.0
230
1.0
 70
     8
 71
     3
 72
    12
 73
     8
 74
     0
 42
0.00000001
 43
0.00000001
 12
1.0
 22
0.0
 32
0.0
 13
1.0
 23
0.0
 33
0.0
 40
0.0
 40
0.0
 40
0.0
 40
0.0
 40
0.4999999999999997
 40
0.4999999999999997
 40
0.7499999999999998
 40
0.7499999999999998
 40
1.0
 40
1.0
 40
1.0
 40
1.0
 10
140.634867413568
 20
89.92184771841207
 30
0.0
 10
140.6913039144752
 20
89.92042983707033
 30
0.0
 10
140.760388545164
 20
89.91886550082201
 30
0.0
 10
140.8791908168819
 20
89.91592130884757
 30
0.0
 10
140.919376092352
 20
89.91488310575019
 30
0.0
 10
140.9927571397558
 20
89.91294921053556
 30
0.0
 10
141.0261667034985
 20
89.91205432324675
 30
0.0
 10
141.0564028111549
 20
89.9112705329744
 30
0.0
  0
SPLINE
  5
74
330
1F
100
AcDbEntity
  8
0
  6
Continuous
 62
     7
370
    15
100
AcDbSpline
210
0.0
220
0.0
230
1.0
 70
     8
 71
     3
 72
    16
 73
    12
 74
     0
 42
0.00000001
 43
0.00000001
 12
1.0
 22
0.0
 32
0.0
 13
1.0
 23
0.0
 33
0.0
 40
0.0
 40
0.0
 40
0.0
 40
0.0
 40
0.0624999999999992
 40
0.0624999999999992
 40
0.1249999999999984
 40
0.1249999999999984
 40
0.2500000000000002
 40
0.2500000000000002
 40
0.499999999999999
 40
0.499999999999999
 40
1.0
 40
1.0
 40
1.0
 40
1.0
 10
141.0564028111177
 20
89.91127053299864
 30
0.0
 10
141.0679832187056
 20
89.9109703418873
 30
0.0
 10
141.0812927454669
 20
89.90964259362829
 30
0.0
 10
141.110594175553
 20
89.90294391885328
 30
0.0
 10
141.1254082754373
 20
89.8975857357476
 30
0.0
 10
141.1612366771402
 20
89.88054008658025
 30
0.0
 10
141.1753563015032
 20
89.86907754880453
 30
0.0
 10
141.2098604455917
 20
89.83751422343228
 30
0.0
 10
141.2209649962963
 20
89.819616924387
 30
0.0
 10
141.2471411735125
 20
89.76945550677276
 30
0.0
 10
141.2513797000246
 20
89.74171109457617
 30
0.0
 10
141.2513797000246
 20
89.71704693264665
 30
0.0
  0
LINE
  5
75
330
1F
100
AcDbEntity
  8
0
  6
Continuous
 62
     7
370
    15
100
AcDbLine
 10
141.2513797051
 20
104.754754193
 30
0.0
 11
141.2513797051
 21
89.2368208988
 31
0.0
  0
SPLINE
  5
76
330
1F
100
AcDbEntity
  8
0
  6
Continuous
 62
     7
370
    15
100
AcDbSpline
210
0.0
220
0.0
230
1.0
 70
     8
 71
     3
 72
    16
 73
    12
 74
     0
 42
0.00000001
 43
0.00000001
 12
1.0
 22
0.0
 32
0.0
 13
1.0
 23
0.0
 33
0.0
 40
0.0
 40
0.0
 40
0.0
 40
0.0
 40
0.4999999999999972
 40
0.4999999999999972
 40
0.7499999999999958
 40
0.7499999999999958
 40
0.8749999999999968
 40
0.8749999999999968
 40
0.9374999999999983
 40
0.9374999999999983
 40
1.0
 40
1.0
 40
1.0
 40
1.0
 10
141.2513797000246
 20
104.7547540951378
 30
0.0
 10
141.2513797000246
 20
104.8684466392657
 30
0.0
 10
141.2472334249466
 20
104.9827668006152
 30
0.0
 10
141.2212678295531
 20
105.1558150911123
 30
0.0
 10
141.2098069241757
 20
105.214990598274
 30
0.0
 10
141.1754951864013
 20
105.2981137177422
 30
0.0
 10
141.1614704504717
 20
105.3262350338428
 30
0.0
 10
141.1254474874379
 20
105.3548508478203
 30
0.0
 10
141.1106929783482
 20
105.360643895722
 30
0.0
 10
141.0813408172013
 20
105.359050469785
 30
0.0
 10
141.0680009426972
 20
105.3525540664612
 30
0.0
 10
141.0564028111489
 20
105.3440383202581
 30
0.0
  0
SPLINE
  5
77
330
1F
100
AcDbEntity
  8
0
  6
Continuous
 62
     7
370
    15
100
AcDbSpline
210
0.0
220
0.0
230
1.0
 70
     8
 71
     3
 72
    12
 73
     8
 74
     0
 42
0.00000001
 43
0.00000001
 12
1.0
 22
0.0
 32
0.0
 13
1.0
 23
0.0
 33
0.0
 40
0.0
 40
0.0
 40
0.0
 40
0.0
 40
0.2500000000000001
 40
0.2500000000000001
 40
0.5000000000000002
 40
0.5000000000000002
 40
1.0
 40
1.0
 40
1.0
 40
1.0
 10
141.0564028111559
 20
105.344038320249
 30
0.0
 10
141.0262043697153
 20
105.3218655882039
 30
0.0
 10
140.9928370143793
 20
105.3027859323267
 30
0.0
 10
140.9196817385494
 20
105.277612887884
 30
0.0
 10
140.8794290395255
 20
105.2720563514672
 30
0.0
 10
140.7617002962506
 20
105.2829681624539
 30
0.0
 10
140.6912418481917
 20
105.3249039178648
 30
0.0
 10
140.6348674135734
 20
105.3741157002463
 30
0.0
  0
SPLINE
  5
78
330
1F
100
AcDbEntity
  8
0
  6
Continuous
 62
     7
370
    15
100
AcDbSpline
210
0.0
220
0.0
230
1.0
 70
     8
 71
     3
 72
    12
 73
     8
 74
     0
 42
0.00000001
 43
0.00000001
 12
1.0
 22
0.0
 32
0.0
 13
1.0
 23
0.0
 33
0.0
 40
0.0
 40
0.0
 40
0.0
 40
0.0
 40
0.4999999999999978
 40
0.4999999999999978
 40
0.7499999999999989
 40
0.7499999999999989
 40
1.0
 40
1.0
 40
1.0
 40
1.0
 10
140.1300593564649
 20
106.5904670921269
 30
0.0
 10
140.1738097083493
 20
106.3700201071523
 30
0.0
 10
140.2266998594738
 20
106.1544751173468
 30
0.0
 10
140.3383114026155
 20
105.8420610407748
 30
0.0
 10
140.380870746519
 20
105.7399815651589
 30
0.0
 10
140.4858479818565
 20
105.5455415525172
 30
0.0
 10
140.547415224951
 20
105.4504566534535
 30
0.0
 10
140.6348674135734
 20
105.3741157002463
 30
0.0
  0
SPLINE
  5
79
330
1F
100
AcDbEntity
  8
0
  6
Continuous
 62
     7
370
    15
100
AcDbSpline
210
0.0
220
0.0
230
1.0
 70
     8
 71
     3
 72
    12
 73
     8
 74
     0
 42
0.00000001
 43
0.00000001
 12
1.0
 22
0.0
 32
0.0
 13
1.0
 23
0.0
 33
0.0
 40
0.0
 40
0.0
 40
0.0
 40
0.0
 40
0.2500000000000008
 40
0.2500000000000008
 40
0.5000000000000016
 40
0.5000000000000016
 40
1.0
 40
1.0
 40
1.0
 40
1.0
 10
140.6348674135733
 20
118.1791671415295
 30
0.0
 10
140.5463740060054
 20
118.1019172614212
 30
0.0
 10
140.4863159652396
 20
118.0085979375319
 30
0.0
 10
140.380467692257
 20
117.8125648845625
 30
0.0
 10
140.3379341709795
 20
117.7102385263508
 30
0.0
 10
140.2267828641559
 20
117.3988941205749
 30
0.0
 10
140.1738520071081
 20
117.1834758673969
 30
0.0
 10
140.1300593564649
 20
116.962815749649
 30
0.0
  0
SPLINE
  5
7A
330
1F
100
AcDbEntity
  8
0
  6
Continuous
 62
     7
370
    15
100
AcDbSpline
210
0.0
220
0.0
230
1.0
 70
     8
 71
     3
 72
    12
 73
     8
 74
     0
 42
0.00000001
 43
0.00000001
 12
1.0
 22
0.0
 32
0.0
 13
1.0
 23
0.0
 33
0.0
 40
0.0
 40
0.0
 40
0.0
 40
0.0
 40
0.5000000000000009
 40
0.5000000000000009
 40
0.7500000000000004
 40
0.7500000000000004
 40
1.0
 40
1.0
 40
1.0
 40
1.0
 10
140.6348674135733
 20
118.1791671415295
 30
0.0
 10
140.6911759618689
 20
118.2283214087733
 30
0.0
 10
140.761450622587
 20
118.2702787273771
 30
0.0
 10
140.8794885369106
 20
118.2812384049095
 30
0.0
 10
140.9196647777646
 20
118.2757296466622
 30
0.0
 10
140.9936218724425
 20
118.2501724178732
 30
0.0
 10
141.0262382601539
 20
118.2313923700339
 30
0.0
 10
141.0564028111497
 20
118.2092445215172
 30
0.0
  0
SPLINE
  5
7B
330
1F
100
AcDbEntity
  8
0
  6
Continuous
 62
     7
370
    15
100
AcDbSpline
210
0.0
220
0.0
230
1.0
 70
     8
 71
     3
 72
    16
 73
    12
 74
     0
 42
0.00000001
 43
0.00000001
 12
1.0
 22
0.0
 32
0.0
 13
1.0
 23
0.0
 33
0.0
 40
0.0
 40
0.0
 40
0.0
 40
0.0
 40
0.0624999999999982
 40
0.0624999999999982
 40
0.1249999999999965
 40
0.1249999999999965
 40
0.2499999999999952
 40
0.2499999999999952
 40
0.4999999999999957
 40
0.4999999999999957
 40
1.0
 40
1.0
 40
1.0
 40
1.0
 10
141.0564028111179
 20
118.2092445214627
 30
0.0
 10
141.0680157109573
 20
118.2007179318674
 30
0.0
 10
141.0813668953898
 20
118.1942176703347
 30
0.0
 10
141.110766735009
 20
118.1926482732171
 30
0.0
 10
141.1256074595642
 20
118.1985316638477
 30
0.0
 10
141.1614406675328
 20
118.2270792998983
 30
0.0
 10
141.1755538753544
 20
118.255246319204
 30
0.0
 10
141.2100452465733
 20
118.339000577626
 30
0.0
 10
141.2211293176837
 20
118.3967139912474
 30
0.0
 10
141.2472521354797
 20
118.5703045278932
 30
0.0
 10
141.2513797000246
 20
118.6853325805352
 30
0.0
 10
141.2513797000246
 20
118.798528746638
 30
0.0
  0
LINE
  5
7C
330
1F
100
AcDbEntity
  8
0
  6
Continuous
 62
     7
370
    15
100
AcDbLine
 10
141.2513797051
 20
134.316461943
 30
0.0
 11
141.2513797051
 21
118.7985286488
 31
0.0
  0
SPLINE
  5
7D
330
1F
100
AcDbEntity
  8
0
  6
Continuous
 62
     7
370
    15
100
AcDbSpline
210
0.0
220
0.0
230
1.0
 70
     8
 71
     3
 72
    16
 73
    12
 74
     0
 42
0.00000001
 43
0.00000001
 12
1.0
 22
0.0
 32
0.0
 13
1.0
 23
0.0
 33
0.0
 40
0.0
 40
0.0
 40
0.0
 40
0.0
 40
0.4999999999999958
 40
0.4999999999999958
 40
0.7499999999999937
 40
0.7499999999999937
 40
0.8749999999999941
 40
0.8749999999999941
 40
0.9374999999999971
 40
0.9374999999999971
 40
1.0
 40
1.0
 40
1.0
 40
1.0
 10
141.2513797000246
 20
133.8362359091292
 30
0.0
 10
141.2513797000246
 20
133.8115647530863
 30
0.0
 10
141.2472140015646
 20
133.783982921695
 30
0.0
 10
141.2209556732396
 20
133.7336400508717
 30
0.0
 10
141.209451891502
 20
133.7153505528098
 30
0.0
 10
141.1753211321555
 20
133.6841955217728
 30
0.0
 10
141.1608992454848
 20
133.672556146561
 30
0.0
 10
141.125332277047
 20
133.65567412063
 30
0.0
 10
141.1103805087523
 20
133.6502850168223
 30
0.0
 10
141.0813766903925
 20
133.6436645208778
 30
0.0
 10
141.0679613363833
 20
133.6423119326714
 30
0.0
 10
141.0564028111467
 20
133.6420123087998
 30
0.0
  0
SPLINE
  5
7E
330
1F
100
AcDbEntity
  8
0
  6
Continuous
 62
     7
370
    15
100
AcDbSpline
210
0.0
220
0.0
230
1.0
 70
     8
 71
     3
 72
    12
 73
     8
 74
     0
 42
0.00000001
 43
0.00000001
 12
1.0
 22
0.0
 32
0.0
 13
1.0
 23
0.0
 33
0.0
 40
0.0
 40
0.0
 40
0.0
 40
0.0
 40
0.25
 40
0.25
 40
0.5
 40
0.5
 40
1.0
 40
1.0
 40
1.0
 40
1.0
 10
141.056402811156
 20
133.6420123088015
 30
0.0
 10
141.0262150346063
 20
133.6412297713839
 30
0.0
 10
140.9928612305146
 20
133.6403364395654
 30
0.0
 10
140.9197350273186
 20
133.6384091307618
 30
0.0
 10
140.8794998242945
 20
133.6373695995491
 30
0.0
 10
140.7618081941614
 20
133.6344517162019
 30
0.0
 10
140.6914275210013
 20
133.6328561101317
 30
0.0
 10
140.6348674135707
 20
133.6314351233638
 30
0.0
  0
SPLINE
  5
7F
330
1F
100
AcDbEntity
  8
0
  6
Continuous
 62
     7
370
    15
100
AcDbSpline
210
0.0
220
0.0
230
1.0
 70
     8
 71
     3
 72
    16
 73
    12
 74
     0
 42
0.00000001
 43
0.00000001
 12
1.0
 22
0.0
 32
0.0
 13
1.0
 23
0.0
 33
0.0
 40
0.0
 40
0.0
 40
0.0
 40
0.0
 40
0.2499999999999999
 40
0.2499999999999999
 40
0.3749999999999999
 40
0.3749999999999999
 40
0.4999999999999999
 40
0.4999999999999999
 40
0.7499999999999999
 40
0.7499999999999999
 40
1.0
 40
1.0
 40
1.0
 40
1.0
 10
140.1300593564649
 20
116.962815749649
 30
0.0
 10
139.9688268789804
 20
116.1504059744022
 30
0.0
 10
139.8483470393408
 20
115.3103276800174
 30
0.0
 10
139.7259665220275
 20
114.0090326306546
 30
0.0
 10
139.69498886163
 20
113.5683515950699
 30
0.0
 10
139.6533751240021
 20
112.6725119541387
 30
0.0
 10
139.6431392110692
 20
112.2258538229363
 30
0.0
 10
139.6429508140131
 20
110.8905438657964
 30
0.0
 10
139.6830955166508
 20
110.0060484924889
 30
0.0
 10
139.8472492715903
 20
108.2487986044629
 30
0.0
 10
139.9688009219999
 20
107.4030076580497
 30
0.0
 10
140.1300593564649
 20
106.5904670921269
 30
0.0
  0
LINE
  5
80
330
1F
100
AcDbEntity
  8
0
  6
Continuous
 62
     7
370
    15
100
AcDbLine
 10
139.2513797119
 20
118.2618195562
 30
0.0
 11
139.2513797119
 21
105.2914632856
 31
0.0
  0
LINE
  5
81
330
1F
100
AcDbEntity
  8
0
  6
Continuous
 62
     7
370
    15
100
AcDbLine
 10
104.9513802365
 20
117.8309520146
 30
0.0
 11
104.9513802365
 21
105.7223308271
 31
0.0
  0
LINE
  5
82
330
1F
100
AcDbEntity
  8
0
  6
Continuous
 62
     7
370
    15
100
AcDbLine
 10
103.4513809219
 20
117.3979391715
 30
0.0
 11
103.4513809219
 21
106.1553436703
 31
0.0
  0
LINE
  5
83
330
1F
100
AcDbEntity
  8
0
  6
Continuous
 62
     7
370
    15
100
AcDbLine
 10
139.2513797119
 20
118.2618195562
 30
0.0
 11
139.2513797119
 21
133.7967411055
 31
0.0
  0
ARC
  5
84
330
1F
100
AcDbEntity
  8
0
  6
Continuous
 62
     7
370
    15
100
AcDbCircle
 10
139.451316611
 20
133.8017633166
 30
0.0
 40
0.2000000000000066
100
AcDbArc
 50
181.4391666667
 51
271.4391666667
  0
LINE
  5
85
330
1F
100
AcDbEntity
  8
0
  6
Continuous
 62
     7
370
    15
100
AcDbLine
 10
104.9513802365
 20
117.8309520146
 30
0.0
 11
104.9513802365
 21
132.935005091
 31
0.0
  0
LINE
  5
86
330
1F
100
AcDbEntity
  8
0
  6
Continuous
 62
     7
370
    15
100
AcDbLine
 10
104.9513802365
 20
132.935005091
 30
0.0
 11
139.2513797119
 21
133.7967411055
 31
0.0
  0
LINE
  5
87
330
1F
100
AcDbEntity
  8
0
  6
Continuous
 62
     7
370
    15
100
AcDbLine
 10
104.9513802365
 20
90.6182777508
 30
0.0
 11
104.9513802365
 21
105.7223308271
 31
0.0
  0
LINE
  5
88
330
1F
100
AcDbEntity
  8
0
  6
Continuous
 62
     7
370
    15
100
AcDbLine
 10
139.2513797119
 20
89.7565417363
 30
0.0
 11
139.2513797119
 21
105.2914632856
 31
0.0
  0
LINE
  5
89
330
1F
100
AcDbEntity
  8
0
  6
Continuous
 62
     7
370
    15
100
AcDbLine
 10
104.9513802365
 20
90.6182777508
 30
0.0
 11
139.2513797119
 21
89.7565417363
 31
0.0
  0
ARC
  5
8A
330
1F
100
AcDbEntity
  8
0
  6
Continuous
 62
     7
370
    15
100
AcDbCircle
 10
139.451316611
 20
89.7515195252
 30
0.0
 40
0.2000000000000059
100
AcDbArc
 50
88.5608333333
 51
178.5608333333
  0
LINE
  5
8B
330
1F
100
AcDbEntity
  8
0
  6
Continuous
 62
     7
370
    15
100
AcDbLine
 10
139.4563398291
 20
133.6018264665
 30
0.0
 11
140.6348674292
 21
133.6314350738
 31
0.0
  0
LINE
  5
8C
330
1F
100
AcDbEntity
  8
0
  6
Continuous
 62
     7
370
    15
100
AcDbLine
 10
139.4563398291
 20
89.9514563753
 30
0.0
 11
140.6348674292
 21
89.921847768
 31
0.0
  0
LINE
  5
8D
330
1F
100
AcDbEntity
  8
0
  6
Continuous
 62
     7
370
    15
100
AcDbLine
 10
103.4513809219
 20
132.0689794047
 30
0.0
 11
104.9513802365
 21
132.935005091
 31
0.0
  0
LINE
  5
8E
330
1F
100
AcDbEntity
  8
0
  6
Continuous
 62
     7
370
    15
100
AcDbLine
 10
103.4513809219
 20
117.3979391715
 30
0.0
 11
103.4513809219
 21
132.0689794047
 31
0.0
  0
LINE
  5
8F
330
1F
100
AcDbEntity
  8
0
  6
Continuous
 62
     7
370
    15
100
AcDbLine
 10
103.4513809219
 20
91.484303437
 30
0.0
 11
104.9513802365
 21
90.6182777508
 31
0.0
  0
LINE
  5
90
330
1F
100
AcDbEntity
  8
0
  6
Continuous
 62
     7
370
    15
100
AcDbLine
 10
103.4513809219
 20
91.484303437
 30
0.0
 11
103.4513809219
 21
106.1553436703
 31
0.0
  0
ELLIPSE
  5
91
330
1F
100
AcDbEntity
  8
0
  6
Continuous
 62
     7
370
    15
100
AcDbEllipse
 10
233.78220114
 20
111.7766414209
 30
0.0
 11
-0.3220561513869029
 21
15.99976859320061
 31
0.0
210
0.0
220
0.0
230
1.0
 40
0.2671959542
 41
0.2878381521913606
 42
2.703371596797382
  0
ELLIPSE
  5
92
330
1F
100
AcDbEntity
  8
0
  6
Continuous
 62
     7
370
    15
100
AcDbEllipse
 10
231.2463212119
 20
118.2478698242
 30
0.0
 11
0.08858572008301734
 21
2.32755199684469
 31
0.0
210
0.0
220
0.0
230
1.0
 40
0.2575917467
 41
0.0
 42
6.283185307179586
  0
LINE
  5
93
330
1F
100
AcDbEntity
  8
0
  6
Continuous
 62
     7
370
    15
100
AcDbLine
 10
238.0553394988
 20
127.7762007339
 30
0.0
 11
240.4513791636
 21
127.7762007339
 31
0.0
  0
SPLINE
  5
94
330
1F
100
AcDbEntity
  8
0
  6
Continuous
 62
     7
370
    15
100
AcDbSpline
210
0.0
220
0.0
230
1.0
 70
     8
 71
     3
 72
    14
 73
    10
 74
     0
 42
0.00000001
 43
0.00000001
 12
1.0
 22
0.0
 32
0.0
 13
1.0
 23
0.0
 33
0.0
 40
0.0
 40
0.0
 40
0.0
 40
0.0
 40
0.25
 40
0.25
 40
0.5
 40
0.5
 40
0.75
 40
0.75
 40
1.0
 40
1.0
 40
1.0
 40
1.0
 10
232.2597866701638
 20
127.0937482015851
 30
0.0
 10
232.4224727853175
 20
127.2814700503158
 30
0.0
 10
232.6786427104852
 20
127.4193683036704
 30
0.0
 10
233.3969745513168
 20
127.620956150215
 30
0.0
 10
233.8389412053029
 20
127.6794264459979
 30
0.0
 10
234.8894985949519
 20
127.7518389251838
 30
0.0
 10
235.47095374604
 20
127.7643073273322
 30
0.0
 10
236.7348716401779
 20
127.7765066445427
 30
0.0
 10
237.3856769290366
 20
127.7761999303185
 30
0.0
 10
238.0553416278984
 20
127.7761999303185
 30
0.0
  0
SPLINE
  5
95
330
1F
100
AcDbEntity
  8
0
  6
Continuous
 62
     7
370
    15
100
AcDbSpline
210
0.0
220
0.0
230
1.0
 70
     8
 71
     3
 72
    14
 73
    10
 74
     0
 42
0.00000001
 43
0.00000001
 12
1.0
 22
0.0
 32
0.0
 13
1.0
 23
0.0
 33
0.0
 40
0.0
 40
0.0
 40
0.0
 40
0.0
 40
0.25
 40
0.25
 40
0.5
 40
0.5
 40
0.75
 40
0.75
 40
1.0
 40
1.0
 40
1.0
 40
1.0
 10
238.0553416278984
 20
95.94933151489626
 30
0.0
 10
237.3856817138713
 20
95.94933151489626
 30
0.0
 10
236.7345797809562
 20
95.96423715656468
 30
0.0
 10
235.4695684118732
 20
96.03722474442658
 30
0.0
 10
234.8896856062865
 20
96.09364752567971
 30
0.0
 10
233.8397644779479
 20
96.28025305325923
 30
0.0
 10
233.3972338110752
 20
96.4062001372241
 30
0.0
 10
232.6794920215975
 20
96.76014051869608
 30
0.0
 10
232.4224762414675
 20
96.97977596188836
 30
0.0
 10
232.2597866701638
 20
97.25220928146898
 30
0.0
  0
LINE
  5
96
330
1F
100
AcDbEntity
  8
0
  6
Continuous
 62
     7
370
    15
100
AcDbLine
 10
240.4513791636
 20
95.9493320806
 30
0.0
 11
238.0553394988
 21
95.9493320806
 31
0.0
  0
LINE
  5
97
330
1F
100
AcDbEntity
  8
0
  6
Continuous
 62
     7
370
    15
100
AcDbLine
 10
240.4513791636
 20
95.9493320806
 30
0.0
 11
240.4513791636
 21
95.7766406609
 31
0.0
  0
LINE
  5
98
330
1F
100
AcDbEntity
  8
0
  6
Continuous
 62
     7
370
    15
100
AcDbLine
 10
240.4513791636
 20
127.7766421808
 30
0.0
 11
240.4513791636
 21
127.7762007339
 31
0.0
  0
LINE
  5
99
330
1F
100
AcDbEntity
  8
0
  6
Continuous
 62
     7
370
    15
100
AcDbLine
 10
240.9513801769
 20
95.4491038247
 30
0.0
 11
240.4513791636
 21
95.9493320806
 31
0.0
  0
LINE
  5
9A
330
1F
100
AcDbEntity
  8
0
  6
Continuous
 62
     7
370
    15
100
AcDbLine
 10
240.9513801769
 20
95.4491038247
 30
0.0
 11
240.9513801769
 21
95.2766415103
 31
0.0
  0
SPLINE
  5
9B
330
1F
100
AcDbEntity
  8
0
  6
Continuous
 62
     7
370
    15
100
AcDbSpline
210
0.0
220
0.0
230
1.0
 70
     8
 71
     3
 72
     8
 73
     4
 74
     0
 42
0.00000001
 43
0.00000001
 12
1.0
 22
0.0
 32
0.0
 13
1.0
 23
0.0
 33
0.0
 40
0.0
 40
0.0
 40
0.0
 40
0.0
 40
1.0
 40
1.0
 40
1.0
 40
1.0
 10
240.4513797000245
 20
127.7761999303185
 30
0.0
 10
241.6835124392913
 20
129.0090070870417
 30
0.0
 10
242.9160577291798
 20
130.2414041873429
 30
0.0
 10
244.1488196038368
 20
131.4735860123044
 30
0.0
  0
LINE
  5
9C
330
1F
100
AcDbEntity
  8
0
  6
Continuous
 62
     7
370
    15
100
AcDbLine
 10
247.9657963351
 20
95.4491038247
 30
0.0
 11
240.9513801769
 21
95.4491038247
 31
0.0
  0
ELLIPSE
  5
9D
330
1F
100
AcDbEntity
  8
0
  6
Continuous
 62
     7
370
    15
100
AcDbEllipse
 10
259.3017657085
 20
111.7766414209
 30
0.0
 11
11.763690687468
 21
16.48124712370799
 31
0.0
210
0.0
220
0.0
230
1.0
 40
0.0668534593
 41
3.189273956189412
 42
3.333983942804627
  0
ARC
  5
9E
330
1F
100
AcDbEntity
  8
0
  6
Continuous
 62
     7
370
    15
100
AcDbCircle
 10
253.7472818251
 20
121.0804228561
 30
0.0
 40
2.097261118181985
100
AcDbArc
 50
118.3543253619
 51
333.038162661
  0
LINE
  5
9F
330
1F
100
AcDbEntity
  8
0
  6
Continuous
 62
     7
370
    15
100
AcDbLine
 10
265.0259271696
 20
120.9361514448
 30
0.0
 11
264.9074629381
 21
119.5853746867
 31
0.0
  0
ELLIPSE
  5
A0
330
1F
100
AcDbEntity
  8
0
  6
Continuous
 62
     7
370
    15
100
AcDbEllipse
 10
275.4665597934
 20
115.1752990563
 30
0.0
 11
3113.331223476199
 21
271.0557416021163
 31
0.0
210
0.0
220
0.0
230
1.0
 40
0.0060650906
 41
1.577288011604672
 42
1.580327688672809
  0
LINE
  5
A1
330
1F
100
AcDbEntity
  8
0
  6
Continuous
 62
     7
370
    15
100
AcDbLine
 10
264.9074629381
 20
119.5853746867
 30
0.0
 11
247.9657963351
 21
95.4491038247
 31
0.0
  0
ARC
  5
A2
330
1F
100
AcDbEntity
  8
0
  6
Continuous
 62
     7
370
    15
100
AcDbCircle
 10
253.7399495924
 20
120.7449026626
 30
0.0
 40
2.09437511947462
100
AcDbArc
 50
119.1307384259
 51
175.3820558201
  0
CIRCLE
  5
A3
330
1F
100
AcDbEntity
  8
0
  6
Continuous
 62
     7
370
    15
100
AcDbCircle
 10
259.4719076321
 20
126.7743690566
 30
0.0
 40
3.494041367864961
  0
CIRCLE
  5
A4
330
1F
100
AcDbEntity
  8
0
  6
Continuous
 62
     7
370
    15
100
AcDbCircle
 10
259.4704583931
 20
126.8091628004
 30
0.0
 40
2.62946855607013
  0
CIRCLE
  5
A5
330
1F
100
AcDbEntity
  8
0
  6
Continuous
 62
     7
370
    15
100
AcDbCircle
 10
259.4691435622
 20
126.8091000624
 30
0.0
 40
1.996810013308221
  0
SPLINE
  5
A6
330
1F
100
AcDbEntity
  8
0
  6
Continuous
 62
     7
370
    15
100
AcDbSpline
210
0.0
220
0.0
230
1.0
 70
     8
 71
     3
 72
    15
 73
    11
 74
     0
 42
0.00000001
 43
0.00000001
 12
1.0
 22
0.0
 32
0.0
 13
1.0
 23
0.0
 33
0.0
 40
0.0
 40
0.0
 40
0.0
 40
0.0
 40
0.1262468222165567
 40
0.2533653699820581
 40
0.379421051159082
 40
0.5042671845793892
 40
0.6284522018977706
 40
0.7526345682576474
 40
0.8774891582040627
 40
1.0
 40
1.0
 40
1.0
 40
1.0
 10
259.8067209556893
 20
128.4764808042517
 30
0.0
 10
259.7913057336845
 20
128.5184255220585
 30
0.0
 10
259.7603688486362
 20
128.6026045830389
 30
0.0
 10
259.6643376490297
 20
128.7005480419093
 30
0.0
 10
259.5441910706657
 20
128.7622270825402
 30
0.0
 10
259.4106693358462
 20
128.7797882306821
 30
0.0
 10
259.2795353749217
 20
128.7523727507522
 30
0.0
 10
259.1656298736873
 20
128.6831600159013
 30
0.0
 10
259.0782197733868
 20
128.5813556068879
 30
0.0
 10
259.0526270315
 20
128.4976643652437
 30
0.0
 10
259.0399519041375
 20
128.456215225028
 30
0.0
  0
SPLINE
  5
A7
330
1F
100
AcDbEntity
  8
0
  6
Continuous
 62
     7
370
    15
100
AcDbSpline
210
0.0
220
0.0
230
1.0
 70
     8
 71
     3
 72
    12
 73
     8
 74
     0
 42
0.00000001
 43
0.00000001
 12
1.0
 22
0.0
 32
0.0
 13
1.0
 23
0.0
 33
0.0
 40
0.0
 40
0.0
 40
0.0
 40
0.0
 40
0.2058770084538116
 40
0.4120979479348726
 40
0.6141678177585187
 40
0.8132902664733995
 40
1.0
 40
1.0
 40
1.0
 40
1.0
 10
259.0399519041375
 20
128.456215225028
 30
0.0
 10
259.0170599298411
 20
128.3819365274758
 30
0.0
 10
258.9712377387059
 20
128.2332550449421
 30
0.0
 10
258.8146132726631
 20
128.0546815142958
 30
0.0
 10
258.6151989494642
 20
127.9386912032003
 30
0.0
 10
258.394312838013
 20
127.8922926731381
 30
0.0
 10
258.2523179078286
 20
127.9193033581393
 30
0.0
 10
258.1836045220689
 20
127.9323742164841
 30
0.0
  0
SPLINE
  5
A8
330
1F
100
AcDbEntity
  8
0
  6
Continuous
 62
     7
370
    15
100
AcDbSpline
210
0.0
220
0.0
230
1.0
 70
     8
 71
     3
 72
    23
 73
    19
 74
     0
 42
0.00000001
 43
0.00000001
 12
1.0
 22
0.0
 32
0.0
 13
1.0
 23
0.0
 33
0.0
 40
0.0
 40
0.0
 40
0.0
 40
0.0
 40
0.0625401729961655
 40
0.1268758401320497
 40
0.1895212827775945
 40
0.2540072130670737
 40
0.3161240547440274
 40
0.3800755422879125
 40
0.4416046837727804
 40
0.5049338201934517
 40
0.5661403529639062
 40
0.6291218776054507
 40
0.690334897842576
 40
0.7533072192642486
 40
0.8148535519567821
 40
0.8781526076141437
 40
0.9382822886068827
 40
1.0
 40
1.0
 40
1.0
 40
1.0
 10
258.1836045220689
 20
127.9323742164841
 30
0.0
 10
258.1622446637223
 20
127.9373277744336
 30
0.0
 10
258.1189117171858
 20
127.9473771042705
 30
0.0
 10
258.0521041167242
 20
127.9483233072118
 30
0.0
 10
257.9855145619421
 20
127.9386211672127
 30
0.0
 10
257.9221756631736
 20
127.9177050304418
 30
0.0
 10
257.8628866630401
 20
127.8861199181884
 30
0.0
 10
257.810564280263
 20
127.8454613380199
 30
0.0
 10
257.7655558814388
 20
127.7961760340457
 30
0.0
 10
257.7299777770157
 20
127.7407216516942
 30
0.0
 10
257.7039796674697
 20
127.6795777140889
 30
0.0
 10
257.6887213289596
 20
127.6156019662478
 30
0.0
 10
257.6842605818655
 20
127.5493515955122
 30
0.0
 10
257.6908035274709
 20
127.4837740891839
 30
0.0
 10
257.7082242954418
 20
127.4194776198104
 30
0.0
 10
257.7357047577142
 20
127.3600507630618
 30
0.0
 10
257.7719598518078
 20
127.3053703371365
 30
0.0
 10
257.8023899967986
 20
127.2751388730405
 30
0.0
 10
257.8178033665017
 20
127.2598261384835
 30
0.0
  0
SPLINE
  5
A9
330
1F
100
AcDbEntity
  8
0
  6
Continuous
 62
     7
370
    15
100
AcDbSpline
210
0.0
220
0.0
230
1.0
 70
     8
 71
     3
 72
    12
 73
     8
 74
     0
 42
0.00000001
 43
0.00000001
 12
1.0
 22
0.0
 32
0.0
 13
1.0
 23
0.0
 33
0.0
 40
0.0
 40
0.0
 40
0.0
 40
0.0
 40
0.2057942861349451
 40
0.4120000559636832
 40
0.6140545534036684
 40
0.8131803696213316
 40
1.0
 40
1.0
 40
1.0
 40
1.0
 10
257.8178033665017
 20
127.2598261384835
 30
0.0
 10
257.8701295108708
 20
127.2025354349358
 30
0.0
 10
257.9748864252307
 20
127.0878394756303
 30
0.0
 10
258.0504926906989
 20
126.8626470529761
 30
0.0
 10
258.0516024285326
 20
126.6324400965684
 30
0.0
 10
257.9826479496551
 20
126.4190543189938
 30
0.0
 10
257.8894888240463
 20
126.3106082785881
 30
0.0
 10
257.8443944886521
 20
126.2581142036786
 30
0.0
  0
SPLINE
  5
AA
330
1F
100
AcDbEntity
  8
0
  6
Continuous
 62
     7
370
    15
100
AcDbSpline
210
0.0
220
0.0
230
1.0
 70
     8
 71
     3
 72
    15
 73
    11
 74
     0
 42
0.00000001
 43
0.00000001
 12
1.0
 22
0.0
 32
0.0
 13
1.0
 23
0.0
 33
0.0
 40
0.0
 40
0.0
 40
0.0
 40
0.0
 40
0.126802773560126
 40
0.2539248203409235
 40
0.3799868126758142
 40
0.5048399777136297
 40
0.6290244521958017
 40
0.7532046249969142
 40
0.878055891222619
 40
1.0
 40
1.0
 40
1.0
 40
1.0
 10
257.8443944886521
 20
126.2581142036786
 30
0.0
 10
257.8159808532679
 20
126.2243616548743
 30
0.0
 10
257.7590820405873
 20
126.1567715726502
 30
0.0
 10
257.7231096484913
 20
126.0261205991295
 30
0.0
 10
257.7303932200999
 20
125.8924584966958
 30
0.0
 10
257.7822698397984
 20
125.7687029721261
 30
0.0
 10
257.8715940957618
 20
125.668914251079
 30
0.0
 10
257.9881540895886
 20
125.6042961135195
 30
0.0
 10
258.1191925766893
 20
125.5784085560956
 30
0.0
 10
258.2036423446286
 20
125.5967627237154
 30
0.0
 10
258.2453698352174
 20
125.6058317049017
 30
0.0
  0
SPLINE
  5
AB
330
1F
100
AcDbEntity
  8
0
  6
Continuous
 62
     7
370
    15
100
AcDbSpline
210
0.0
220
0.0
230
1.0
 70
     8
 71
     3
 72
    12
 73
     8
 74
     0
 42
0.00000001
 43
0.00000001
 12
1.0
 22
0.0
 32
0.0
 13
1.0
 23
0.0
 33
0.0
 40
0.0
 40
0.0
 40
0.0
 40
0.0
 40
0.2058506408854077
 40
0.4120530042929043
 40
0.6141074652906935
 40
0.8132436373299036
 40
1.0
 40
1.0
 40
1.0
 40
1.0
 10
258.2453698352174
 20
125.6058317049017
 30
0.0
 10
258.3205960526016
 20
125.6219949536364
 30
0.0
 10
258.4711770211203
 20
125.654349068113
 30
0.0
 10
258.7033796705078
 20
125.6064015891984
 30
0.0
 10
258.9038638075804
 20
125.4922900277891
 30
0.0
 10
259.0557928553464
 20
125.3267109620927
 30
0.0
 10
259.1046590700362
 20
125.1927779853461
 30
0.0
 10
259.1283083394364
 20
125.1279598473182
 30
0.0
  0
SPLINE
  5
AC
330
1F
100
AcDbEntity
  8
0
  6
Continuous
 62
     7
370
    15
100
AcDbSpline
210
0.0
220
0.0
230
1.0
 70
     8
 71
     3
 72
    15
 73
    11
 74
     0
 42
0.00000001
 43
0.00000001
 12
1.0
 22
0.0
 32
0.0
 13
1.0
 23
0.0
 33
0.0
 40
0.0
 40
0.0
 40
0.0
 40
0.0
 40
0.1262573287371269
 40
0.2533848735414118
 40
0.3794481843872743
 40
0.5043004104363822
 40
0.6284785954616346
 40
0.7526618522630438
 40
0.8775107504179462
 40
1.0
 40
1.0
 40
1.0
 40
1.0
 10
259.1283083394364
 20
125.1279598473182
 30
0.0
 10
259.143725956834
 20
125.0869453508868
 30
0.0
 10
259.174667456022
 20
125.0046336696911
 30
0.0
 10
259.2707060146245
 20
124.9087371968327
 30
0.0
 10
259.3908595436156
 20
124.848344413767
 30
0.0
 10
259.5243857407811
 20
124.8311989000231
 30
0.0
 10
259.6555184468479
 20
124.8581609368664
 30
0.0
 10
259.7694208432327
 20
124.9260609695799
 30
0.0
 10
259.8568195832341
 20
125.025833518486
 30
0.0
 10
259.8824111380724
 20
125.1076884271703
 30
0.0
 10
259.8950848415689
 20
125.1482254265418
 30
0.0
  0
SPLINE
  5
AD
330
1F
100
AcDbEntity
  8
0
  6
Continuous
 62
     7
370
    15
100
AcDbSpline
210
0.0
220
0.0
230
1.0
 70
     8
 71
     3
 72
    12
 73
     8
 74
     0
 42
0.00000001
 43
0.00000001
 12
1.0
 22
0.0
 32
0.0
 13
1.0
 23
0.0
 33
0.0
 40
0.0
 40
0.0
 40
0.0
 40
0.0
 40
0.2058713002307743
 40
0.4120906996594725
 40
0.6141696241849628
 40
0.8133048460054448
 40
1.0
 40
1.0
 40
1.0
 40
1.0
 10
259.8950848415689
 20
125.1482254265418
 30
0.0
 10
259.9179738664487
 20
125.2209012301812
 30
0.0
 10
259.9637906183061
 20
125.3663757219462
 30
0.0
 10
260.1204203307254
 20
125.5423707813573
 30
0.0
 10
260.3198379751145
 20
125.6585560131918
 30
0.0
 10
260.5407287079466
 20
125.7076742747598
 30
0.0
 10
260.6827238023341
 20
125.6836778144308
 30
0.0
 10
260.7514322236375
 20
125.6720664350858
 30
0.0
  0
SPLINE
  5
AE
330
1F
100
AcDbEntity
  8
0
  6
Continuous
 62
     7
370
    15
100
AcDbSpline
210
0.0
220
0.0
230
1.0
 70
     8
 71
     3
 72
    15
 73
    11
 74
     0
 42
0.00000001
 43
0.00000001
 12
1.0
 22
0.0
 32
0.0
 13
1.0
 23
0.0
 33
0.0
 40
0.0
 40
0.0
 40
0.0
 40
0.0
 40
0.126866526059065
 40
0.2539824985461009
 40
0.3800270628827601
 40
0.5048742231353699
 40
0.6290514912468419
 40
0.7532383062716741
 40
0.8780959531880907
 40
1.0
 40
1.0
 40
1.0
 40
1.0
 10
260.7514322236375
 20
125.6720664350858
 30
0.0
 10
260.7953717739668
 20
125.6650960118428
 30
0.0
 10
260.8833372690766
 20
125.6511414600302
 30
0.0
 10
261.0156546492895
 20
125.6869456669896
 30
0.0
 10
261.1285862180712
 20
125.7610542092282
 30
0.0
 10
261.2102442123677
 20
125.8680543607271
 30
0.0
 10
261.2519914010792
 20
125.9947678033841
 30
0.0
 10
261.2492306981484
 20
126.1267839240074
 30
0.0
 10
261.2052909930238
 20
126.251388440211
 30
0.0
 10
261.1463507565379
 20
126.3137881185989
 30
0.0
 10
261.1172333792047
 20
126.3446145130863
 30
0.0
  0
SPLINE
  5
AF
330
1F
100
AcDbEntity
  8
0
  6
Continuous
 62
     7
370
    15
100
AcDbSpline
210
0.0
220
0.0
230
1.0
 70
     8
 71
     3
 72
    17
 73
    13
 74
     0
 42
0.00000001
 43
0.00000001
 12
1.0
 22
0.0
 32
0.0
 13
1.0
 23
0.0
 33
0.0
 40
0.0
 40
0.0
 40
0.0
 40
0.0
 40
0.101484546055474
 40
0.2058452155746297
 40
0.3074613733879668
 40
0.4121418191776505
 40
0.5117223064581956
 40
0.614281244253754
 40
0.7124655575483152
 40
0.8134116815125446
 40
0.9056308372216865
 40
1.0
 40
1.0
 40
1.0
 40
1.0
 10
261.1172333792047
 20
126.3446145130863
 30
0.0
 10
261.0902036373049
 20
126.3706600112348
 30
0.0
 10
261.0353781169222
 20
126.4234891501481
 30
0.0
 10
260.9715550285118
 20
126.5187689499147
 30
0.0
 10
260.9230934155396
 20
126.624083268203
 30
0.0
 10
260.893811303206
 20
126.7352220285056
 30
0.0
 10
260.8834749078774
 20
126.85042485474
 30
0.0
 10
260.8922437607814
 20
126.9636736349898
 30
0.0
 10
260.9194325070175
 20
127.0745634926528
 30
0.0
 10
260.9627637523303
 20
127.1757578678769
 30
0.0
 10
261.0195524535828
 20
127.2683831762176
 30
0.0
 10
261.0667593712997
 20
127.3201465388925
 30
0.0
 10
261.0906348064736
 20
127.3463264478912
 30
0.0
  0
SPLINE
  5
B0
330
1F
100
AcDbEntity
  8
0
  6
Continuous
 62
     7
370
    15
100
AcDbSpline
210
0.0
220
0.0
230
1.0
 70
     8
 71
     3
 72
    23
 73
    19
 74
     0
 42
0.00000001
 43
0.00000001
 12
1.0
 22
0.0
 32
0.0
 13
1.0
 23
0.0
 33
0.0
 40
0.0
 40
0.0
 40
0.0
 40
0.0
 40
0.0625006715403146
 40
0.1267884089935256
 40
0.1894250783470408
 40
0.2539070477828589
 40
0.3160194833272558
 40
0.3799654134952076
 40
0.4414905455535503
 40
0.5048173696032818
 40
0.5660227014919561
 40
0.6290003342826321
 40
0.6902171546296625
 40
0.7531887954595842
 40
0.8147385778895824
 40
0.8780424853925807
 40
0.9382216910969443
 40
1.0
 40
1.0
 40
1.0
 40
1.0
 10
261.0906348064736
 20
127.3463264478912
 30
0.0
 10
261.1054020705894
 20
127.3626462509777
 30
0.0
 10
261.1353588354733
 20
127.3957524851577
 30
0.0
 10
261.169025616306
 20
127.4539130995085
 30
0.0
 10
261.193417185333
 20
127.5171130609901
 30
0.0
 10
261.2065381841203
 20
127.5829836916407
 30
0.0
 10
261.2084540656632
 20
127.6505504058428
 30
0.0
 10
261.1991080945498
 20
127.7164756548027
 30
0.0
 10
261.1787016924218
 20
127.7802368780468
 30
0.0
 10
261.1483371848162
 20
127.838783594943
 30
0.0
 10
261.1083122951918
 20
127.8917211507882
 30
0.0
 10
261.0605682737072
 20
127.9366571189035
 30
0.0
 10
261.0055278307455
 20
127.9732280111553
 30
0.0
 10
260.9456610476347
 20
127.9998305360608
 30
0.0
 10
260.8815427368006
 20
128.0162330482687
 30
0.0
 10
260.8166735089118
 20
128.0213950698706
 30
0.0
 10
260.7515750314608
 20
128.0164991213608
 30
0.0
 10
260.7104776064854
 20
128.0046248574424
 30
0.0
 10
260.6896594599084
 20
127.9986098779907
 30
0.0
  0
SPLINE
  5
B1
330
1F
100
AcDbEntity
  8
0
  6
Continuous
 62
     7
370
    15
100
AcDbSpline
210
0.0
220
0.0
230
1.0
 70
     8
 71
     3
 72
    12
 73
     8
 74
     0
 42
0.00000001
 43
0.00000001
 12
1.0
 22
0.0
 32
0.0
 13
1.0
 23
0.0
 33
0.0
 40
0.0
 40
0.0
 40
0.0
 40
0.0
 40
0.205887225988942
 40
0.4121345199912261
 40
0.6142260029759561
 40
0.8133467726030722
 40
1.0
 40
1.0
 40
1.0
 40
1.0
 10
260.6896594599084
 20
127.9986098779907
 30
0.0
 10
260.6144231537519
 20
127.9808425475698
 30
0.0
 10
260.4638189636436
 20
127.9452768141477
 30
0.0
 10
260.2315852791957
 20
127.9906723334095
 30
0.0
 10
260.031087043673
 20
128.1050114926824
 30
0.0
 10
259.879209905226
 20
128.2733287789668
 30
0.0
 10
259.8303576658324
 20
128.410238355336
 30
0.0
 10
259.8067209556893
 20
128.4764808042517
 30
0.0
  0
LWPOLYLINE
  5
B2
330
1F
100
AcDbEntity
  8
0
  6
Continuous
 62
     7
370
    15
100
AcDbPolyline
 90
        3
 70
   128
 43
0.0
 10
257.7329040006
 20
125.9268697722
 10
257.7678621248
 20
126.0366019233
 10
257.8443944887
 20
126.1430753766
  0
ARC
  5
B3
330
1F
100
AcDbEntity
  8
0
  6
Continuous
 62
     7
370
    15
100
AcDbCircle
 10
260.8563027221
 20
125.9360561973
 30
0.0
 40
0.3927063413148803
100
AcDbArc
 50
7.1914380783
 51
48.3604548971
  0
ARC
  5
B4
330
1F
100
AcDbEntity
  8
0
  6
Continuous
 62
     7
370
    15
100
AcDbCircle
 10
257.3614105189
 20
126.6316132134
 30
0.0
 40
0.6869808825383983
100
AcDbArc
 50
314.6724626533
 51
359.9876103102
  0
ARC
  5
B5
330
1F
100
AcDbEntity
  8
0
  6
Continuous
 62
     7
370
    15
100
AcDbCircle
 10
261.5735941416
 20
126.7429937519
 30
0.0
 40
0.6869487904239969
100
AcDbArc
 50
180.0093563639
 51
228.3690465857
  0
ARC
  5
B6
330
1F
100
AcDbEntity
  8
0
  6
Continuous
 62
     7
370
    15
100
AcDbCircle
 10
258.0797759665
 20
127.4375097303
 30
0.0
 40
0.3937863765778401
100
AcDbArc
 50
74.7122267201
 51
174.3392414379
  0
ARC
  5
B7
330
1F
100
AcDbEntity
  8
0
  6
Continuous
 62
     7
370
    15
100
AcDbCircle
 10
260.8133949667
 20
127.5096471916
 30
0.0
 40
0.3938648603858101
100
AcDbArc
 50
5.6755546704
 51
108.309946078
  0
ARC
  5
B8
330
1F
100
AcDbEntity
  8
0
  6
Continuous
 62
     7
370
    15
100
AcDbCircle
 10
258.3650639015
 20
128.4825973879
 30
0.0
 40
0.6895406714112163
100
AcDbArc
 50
254.7423640552
 51
348.1671836113
  0
ARC
  5
B9
330
1F
100
AcDbEntity
  8
0
  6
Continuous
 62
     7
370
    15
100
AcDbCircle
 10
260.4733323241
 20
128.5384835803
 30
0.0
 40
0.6897157753376892
100
AcDbArc
 50
194.8720154245
 51
288.2791407847
  0
ARC
  5
BA
330
1F
100
AcDbEntity
  8
0
  6
Continuous
 62
     7
370
    15
100
AcDbCircle
 10
259.4257419752
 20
128.260281783
 30
0.0
 40
0.3941854098299736
100
AcDbArc
 50
14.8730520518
 51
168.1537663014
  0
ARC
  5
BB
330
1F
100
AcDbEntity
  8
0
  6
Continuous
 62
     7
370
    15
100
AcDbCircle
 10
259.4659835533
 20
126.765668027
 30
0.0
 40
3.50000520425007
100
AcDbArc
 50
180.1021442842
 51
359.8978557158
  0
LINE
  5
BC
330
1F
100
AcDbEntity
  8
0
  6
Continuous
 62
     7
370
    15
100
AcDbLine
 10
265.9764945939
 20
133.7351955845
 30
0.0
 11
253.9388969973
 21
132.6846078409
 31
0.0
  0
ARC
  5
BD
330
1F
100
AcDbEntity
  8
0
  6
Continuous
 62
     7
370
    15
100
AcDbCircle
 10
266.0117930566
 20
133.3372383264
 30
0.0
 40
0.3995196624491428
100
AcDbArc
 50
355.0709886438
 51
95.068820539
  0
LINE
  5
BE
330
1F
100
AcDbEntity
  8
0
  6
Continuous
 62
     7
370
    15
100
AcDbLine
 10
265.3566807941
 20
121.2946389242
 30
0.0
 11
266.4098352626
 21
133.3029110356
 31
0.0
  0
ARC
  5
BF
330
1F
100
AcDbEntity
  8
0
  6
Continuous
 62
     7
370
    15
100
AcDbCircle
 10
264.9587292216
 20
121.3299460285
 30
0.0
 40
0.3995147627284383
100
AcDbArc
 50
274.9299566701
 51
354.9298729349
  0
LINE
  5
C0
330
1F
100
AcDbEntity
  8
0
  6
Continuous
 62
     7
370
    15
100
AcDbLine
 10
252.955465062
 20
119.8813215269
 30
0.0
 11
264.9930626586
 21
120.9319092705
 31
0.0
  0
ARC
  5
C1
330
1F
100
AcDbEntity
  8
0
  6
Continuous
 62
     7
370
    15
100
AcDbCircle
 10
252.9201606618
 20
120.2792659727
 30
0.0
 40
0.3995074249396136
100
AcDbArc
 50
175.0689929785
 51
275.069831092
  0
LINE
  5
C2
330
1F
100
AcDbEntity
  8
0
  6
Continuous
 62
     7
370
    15
100
AcDbLine
 10
253.5752788618
 20
132.3218781872
 30
0.0
 11
252.5221318439
 21
120.3136060758
 31
0.0
  0
ARC
  5
C3
330
1F
100
AcDbEntity
  8
0
  6
Continuous
 62
     7
370
    15
100
AcDbCircle
 10
253.9732369291
 20
132.2865645722
 30
0.0
 40
0.3995218075187847
100
AcDbArc
 50
94.9308044056
 51
174.9290251993
  0
ARC
  5
C4
330
1F
100
AcDbEntity
  8
0
  6
Continuous
 62
     7
370
    15
100
AcDbCircle
 10
252.9201813807
 20
120.2792427795
 30
0.0
 40
0.3795314855259687
100
AcDbArc
 50
175.0687705449
 51
275.0711293394
  0
LINE
  5
C5
330
1F
100
AcDbEntity
  8
0
  6
Continuous
 62
     7
370
    15
100
AcDbLine
 10
252.9537290767
 20
119.901196882
 30
0.0
 11
264.9913192228
 21
120.9517846255
 31
0.0
  0
ARC
  5
C6
330
1F
100
AcDbEntity
  8
0
  6
Continuous
 62
     7
370
    15
100
AcDbCircle
 10
264.9586982692
 20
121.3299253882
 30
0.0
 40
0.3795452055410037
100
AcDbArc
 50
274.9305108176
 51
354.9290561461
  0
LINE
  5
C7
330
1F
100
AcDbEntity
  8
0
  6
Continuous
 62
     7
370
    15
100
AcDbLine
 10
265.3367579416
 20
121.2963777034
 30
0.0
 11
266.3899049595
 21
133.3046488835
 31
0.0
  0
ARC
  5
C8
330
1F
100
AcDbEntity
  8
0
  6
Continuous
 62
     7
370
    15
100
AcDbCircle
 10
266.0117800999
 20
133.3372746212
 30
0.0
 40
0.3795297724789388
100
AcDbArc
 50
355.0685632822
 51
95.0702996432
  0
LINE
  5
C9
330
1F
100
AcDbEntity
  8
0
  6
Continuous
 62
     7
370
    15
100
AcDbLine
 10
265.9782380298
 20
133.7153192981
 30
0.0
 11
253.9406404332
 21
132.6647315546
 31
0.0
  0
ARC
  5
CA
330
1F
100
AcDbEntity
  8
0
  6
Continuous
 62
     7
370
    15
100
AcDbCircle
 10
253.9732511381
 20
132.2866092395
 30
0.0
 40
0.3795259454144334
100
AcDbArc
 50
94.9292087043
 51
174.9315940507
  0
LINE
  5
CB
330
1F
100
AcDbEntity
  8
0
  6
Continuous
 62
     7
370
    15
100
AcDbLine
 10
253.5952091649
 20
132.3201384767
 30
0.0
 11
252.5420546964
 21
120.3118672966
 31
0.0
  0
LINE
  5
CC
330
1F
100
AcDbEntity
  8
0
  6
Continuous
 62
     7
370
    15
100
AcDbLine
 10
264.958201392
 20
121.3141119479
 30
0.0
 11
264.9913192228
 21
120.9517846255
 31
0.0
  0
LINE
  5
CD
330
1F
100
AcDbEntity
  8
0
  6
Continuous
 62
     7
370
    15
100
AcDbLine
 10
252.9206037954
 20
120.2635242044
 30
0.0
 11
252.9537290767
 21
119.901196882
 31
0.0
  0
LINE
  5
CE
330
1F
100
AcDbEntity
  8
0
  6
Continuous
 62
     7
370
    15
100
AcDbLine
 10
253.8396031097
 20
121.1466405912
 30
0.0
 11
252.9206037954
 21
120.2635242044
 31
0.0
  0
LINE
  5
CF
330
1F
100
AcDbEntity
  8
0
  6
Continuous
 62
     7
370
    15
100
AcDbLine
 10
264.3845066861
 20
121.8613785131
 30
0.0
 11
264.958201392
 21
121.3141119479
 31
0.0
  0
LINE
  5
D0
330
1F
100
AcDbEntity
  8
0
  6
Continuous
 62
     7
370
    15
100
AcDbLine
 10
252.9206037954
 20
120.2635242044
 30
0.0
 11
252.5420546964
 21
120.3118672966
 31
0.0
  0
LINE
  5
D1
330
1F
100
AcDbEntity
  8
0
  6
Continuous
 62
     7
370
    15
100
AcDbLine
 10
253.9737582639
 20
132.2717972471
 30
0.0
 11
253.5952091649
 21
132.3201384767
 31
0.0
  0
LINE
  5
D2
330
1F
100
AcDbEntity
  8
0
  6
Continuous
 62
     7
370
    15
100
AcDbLine
 10
254.5474529699
 20
131.6744692995
 30
0.0
 11
253.9737582639
 21
132.2717972471
 31
0.0
  0
LINE
  5
D3
330
1F
100
AcDbEntity
  8
0
  6
Continuous
 62
     7
370
    15
100
AcDbLine
 10
264.958201392
 20
121.3141119479
 30
0.0
 11
265.3367579416
 21
121.2963777034
 31
0.0
  0
LINE
  5
D4
330
1F
100
AcDbEntity
  8
0
  6
Continuous
 62
     7
370
    15
100
AcDbLine
 10
255.8899283841
 20
122.1602045371
 30
0.0
 11
262.626937075
 21
122.7481801434
 31
0.0
  0
LINE
  5
D5
330
1F
100
AcDbEntity
  8
0
  6
Continuous
 62
     7
370
    15
100
AcDbLine
 10
266.0113558606
 20
133.3223849906
 30
0.0
 11
266.3899049595
 21
133.3046488835
 31
0.0
  0
LINE
  5
D6
330
1F
100
AcDbEntity
  8
0
  6
Continuous
 62
     7
370
    15
100
AcDbLine
 10
265.0923565462
 20
132.3719777538
 30
0.0
 11
266.0113558606
 21
133.3223849906
 31
0.0
  0
ARC
  5
D7
330
1F
100
AcDbEntity
  8
0
  6
Continuous
 62
     7
370
    15
100
AcDbCircle
 10
255.8016694118
 20
123.1550848351
 30
0.0
 40
0.9987874917380748
100
AcDbArc
 50
175.0701912282
 51
275.0696179547
  0
LINE
  5
D8
330
1F
100
AcDbEntity
  8
0
  6
Continuous
 62
     7
370
    15
100
AcDbLine
 10
263.0420312718
 20
131.4563125743
 30
0.0
 11
256.3050300315
 21
130.868336968
 31
0.0
  0
ARC
  5
D9
330
1F
100
AcDbEntity
  8
0
  6
Continuous
 62
     7
370
    15
100
AcDbCircle
 10
263.1302949316
 20
130.4614369013
 30
0.0
 40
0.9987832990406796
100
AcDbArc
 50
355.069850556
 51
95.0699092513
  0
LINE
  5
DA
330
1F
100
AcDbEntity
  8
0
  6
Continuous
 62
     7
370
    15
100
AcDbLine
 10
263.535974963
 20
123.655005209
 30
0.0
 11
264.1253829435
 21
130.3756002708
 31
0.0
  0
ARC
  5
DB
330
1F
100
AcDbEntity
  8
0
  6
Continuous
 62
     7
370
    15
100
AcDbCircle
 10
262.5410916384
 20
123.7432756468
 30
0.0
 40
0.9987915197345819
100
AcDbArc
 50
274.930615806
 51
354.929742242
  0
LINE
  5
DC
330
1F
100
AcDbEntity
  8
0
  6
Continuous
 62
     7
370
    15
100
AcDbLine
 10
255.3959846929
 20
129.9615119024
 30
0.0
 11
254.8065767124
 21
123.2409159093
 31
0.0
  0
ARC
  5
DD
330
1F
100
AcDbEntity
  8
0
  6
Continuous
 62
     7
370
    15
100
AcDbCircle
 10
256.3908712728
 20
129.8732374961
 30
0.0
 40
0.9987951129801533
100
AcDbArc
 50
94.9303564653
 51
174.9295319831
  0
CIRCLE
  5
DE
330
1F
100
AcDbEntity
  8
0
  6
Continuous
 62
     7
370
    15
100
AcDbCircle
 10
259.4598720187
 20
126.8058550156
 30
0.0
 40
3.794054741558485
  0
LINE
  5
DF
330
1F
100
AcDbEntity
  8
0
  6
Continuous
 62
     7
370
    15
100
AcDbLine
 10
255.6804404095
 20
127.0584229751
 30
0.0
 11
255.6659788326
 21
126.7280381544
 31
0.0
  0
ARC
  5
E0
330
1F
100
AcDbEntity
  8
0
  6
Continuous
 62
     7
370
    15
100
AcDbCircle
 10
259.4656986576
 20
126.7207581526
 30
0.0
 40
3.800289138667464
100
AcDbArc
 50
0.109758394
 51
174.9024098714
  0
SPLINE
  5
E1
330
1F
100
AcDbEntity
  8
0
  6
Continuous
 62
     7
370
    15
100
AcDbSpline
210
0.0
220
0.0
230
1.0
 70
     8
 71
     3
 72
    11
 73
     7
 74
     0
 42
0.00000001
 43
0.00000001
 12
1.0
 22
0.0
 32
0.0
 13
1.0
 23
0.0
 33
0.0
 40
0.0
 40
0.0
 40
0.0
 40
0.0
 40
0.007625245784328
 40
0.3209894447861705
 40
0.6632131876839163
 40
1.0
 40
1.0
 40
1.0
 40
1.0
 10
254.3285325601892
 20
121.6396343334188
 30
0.0
 10
254.3274181093461
 20
121.6384582857328
 30
0.0
 10
254.2805046107522
 20
121.5889518298825
 30
0.0
 10
254.1764047410431
 20
121.4809175140952
 30
0.0
 10
254.0069781255716
 20
121.309324771292
 30
0.0
 10
253.8950961635739
 20
121.2005784021974
 30
0.0
 10
253.8396031096772
 20
121.1466405911913
 30
0.0
  0
SPLINE
  5
E2
330
1F
100
AcDbEntity
  8
0
  6
Continuous
 62
     7
370
    15
100
AcDbSpline
210
0.0
220
0.0
230
1.0
 70
     8
 71
     3
 72
    11
 73
     7
 74
     0
 42
0.00000001
 43
0.00000001
 12
1.0
 22
0.0
 32
0.0
 13
1.0
 23
0.0
 33
0.0
 40
0.0
 40
0.0
 40
0.0
 40
0.0
 40
0.3372317851352146
 40
0.6736308271864321
 40
0.9918808483796664
 40
1.0
 40
1.0
 40
1.0
 40
1.0
 10
264.3845066860513
 20
121.8613785131445
 30
0.0
 10
264.3296036195281
 20
121.9143979397849
 30
0.0
 10
264.2199330613325
 20
122.02030586958
 30
0.0
 10
264.0484647153575
 20
122.193164621165
 30
0.0
 10
263.9430287677602
 20
122.3025304274043
 30
0.0
 10
263.8950424657374
 20
122.3530675360932
 30
0.0
 10
263.8938487008409
 20
122.3543247579207
 30
0.0
  0
LINE
  5
E3
330
1F
100
AcDbEntity
  8
0
  6
Continuous
 62
     7
370
    15
100
AcDbLine
 10
253.9737582639
 20
132.2717972471
 30
0.0
 11
253.9406404332
 21
132.6647315546
 31
0.0
  0
LINE
  5
E4
330
1F
100
AcDbEntity
  8
0
  6
Continuous
 62
     7
370
    15
100
AcDbLine
 10
266.0113558606
 20
133.3223849906
 30
0.0
 11
265.9782380298
 21
133.7153192981
 31
0.0
  0
SPLINE
  5
E5
330
1F
100
AcDbEntity
  8
0
  6
Continuous
 62
     7
370
    15
100
AcDbSpline
210
0.0
220
0.0
230
1.0
 70
     8
 71
     3
 72
    11
 73
     7
 74
     0
 42
0.00000001
 43
0.00000001
 12
1.0
 22
0.0
 32
0.0
 13
1.0
 23
0.0
 33
0.0
 40
0.0
 40
0.0
 40
0.0
 40
0.0
 40
0.0081194891120921
 40
0.3263697629701918
 40
0.6627685539439195
 40
0.9999999999999999
 40
0.9999999999999999
 40
0.9999999999999999
 40
0.9999999999999999
 10
255.038110955079
 20
131.1884940041771
 30
0.0
 10
255.0369171909337
 20
131.1896162114969
 30
0.0
 10
254.98893282692
 20
131.2347242881156
 30
0.0
 10
254.8834941924472
 20
131.3358518702246
 30
0.0
 10
254.7120268338867
 20
131.505043547606
 30
0.0
 10
254.6023561114897
 20
131.6179475297285
 30
0.0
 10
254.5474529698686
 20
131.6744692994824
 30
0.0
  0
SPLINE
  5
E6
330
1F
100
AcDbEntity
  8
0
  6
Continuous
 62
     7
370
    15
100
AcDbSpline
210
0.0
220
0.0
230
1.0
 70
     8
 71
     3
 72
    11
 73
     7
 74
     0
 42
0.00000001
 43
0.00000001
 12
1.0
 22
0.0
 32
0.0
 13
1.0
 23
0.0
 33
0.0
 40
0.0
 40
0.0
 40
0.0
 40
0.0
 40
0.3367869379598065
 40
0.6790112058150579
 40
0.9923741098995214
 40
1.0
 40
1.0
 40
1.0
 40
1.0
 10
265.0923565462426
 20
132.3719777538052
 30
0.0
 10
265.036863282227
 20
132.3152087515832
 30
0.0
 10
264.9249808311374
 20
132.2007542276484
 30
0.0
 10
264.7555575110818
 20
132.0342412413596
 30
0.0
 10
264.6514509224442
 20
131.9347340656964
 30
0.0
 10
264.6045415450911
 20
131.8905465651813
 30
0.0
 10
264.6034270957307
 20
131.8894967807999
 30
0.0
  0
LINE
  5
E7
330
1F
100
AcDbEntity
  8
0
  6
HIDDEN
 62
     7
370
     0
100
AcDbLine
 10
163.4513795808
 20
81.2766410782
 30
0.0
 11
163.4513795808
 21
142.2766417636
 31
0.0
  0
LINE
  5
E8
330
1F
100
AcDbEntity
  8
0
  6
HIDDEN
 62
     7
370
     0
100
AcDbLine
 10
141.4513797
 20
142.7766409142
 30
0.0
 11
141.4513797
 21
80.7766419275
 31
0.0
  0
SPLINE
  5
E9
330
1F
100
AcDbEntity
  8
0
  6
HIDDEN
 62
     7
370
     0
100
AcDbSpline
210
0.0
220
0.0
230
1.0
 70
    11
 71
     3
 72
    47
 73
    43
 74
     0
 42
0.00000001
 43
0.00000001
 12
1.0
 22
0.0
 32
0.0
 13
1.0
 23
0.0
 33
0.0
 40
0.0
 40
0.0
 40
0.0
 40
0.0
 40
0.0156133938040333
 40
0.0420393344833699
 40
0.0617665734486939
 40
0.0692325458948747
 40
0.0956582344168335
 40
0.1228484315936965
 40
0.1493072951149044
 40
0.1765321686063443
 40
0.2030117943179719
 40
0.2302613939350079
 40
0.2567046277606323
 40
0.2839169520867506
 40
0.3103233553189818
 40
0.3374945132028316
 40
0.3639211854678256
 40
0.3911115918720475
 40
0.4175839566659292
 40
0.4448238460418494
 40
0.4712961254645631
 40
0.4985386724492072
 40
0.5249652506940056
 40
0.552159510809133
 40
0.5785661443935673
 40
0.6057365962576949
 40
0.6321799093813995
 40
0.6593878474720868
 40
0.6858675617258772
 40
0.7131161462402504
 40
0.7395750131965982
 40
0.7668038641140985
 40
0.7932171334921823
 40
0.820396515670868
 40
0.8468105743965688
 40
0.8739880841065314
 40
0.9004480581993441
 40
0.9276740303753086
 40
0.9541534574930629
 40
0.9814027881144595
 40
0.9984088440220467
 40
1.0
 40
1.0
 40
1.0
 40
1.0
 10
151.4619648888902
 20
111.5809033908724
 30
0.0
 10
151.4573123804189
 20
111.6460511788658
 30
0.0
 10
151.4447854204083
 20
111.8214627315802
 30
0.0
 10
151.4622984885918
 20
112.0823259927403
 30
0.0
 10
151.529595655177
 20
112.2969173327873
 30
0.0
 10
151.5802068596755
 20
112.5157579982779
 30
0.0
 10
151.6952980538
 20
112.7473177242589
 30
0.0
 10
151.878401542416
 20
113.0283427130881
 30
0.0
 10
152.1127420181879
 20
113.2751057742041
 30
0.0
 10
152.3817016734646
 20
113.4778423646828
 30
0.0
 10
152.6840829394697
 20
113.6338954760377
 30
0.0
 10
153.0053541652842
 20
113.7360303532358
 30
0.0
 10
153.3421952927187
 20
113.7831725037551
 30
0.0
 10
153.6787707439372
 20
113.7732207776825
 30
0.0
 10
154.0117485647265
 20
113.7063963932351
 30
0.0
 10
154.3258132566311
 20
113.5858808832039
 30
0.0
 10
154.6179116630369
 20
113.4128565477844
 30
0.0
 10
154.8747100998763
 20
113.1951581679605
 30
0.0
 10
155.0934687044901
 20
112.9349489198542
 30
0.0
 10
155.2639913292304
 20
112.6441567092182
 30
0.0
 10
155.384377451491
 20
112.3259007118872
 30
0.0
 10
155.4489733230813
 20
111.9951123654427
 30
0.0
 10
155.4571969560287
 20
111.6552568877875
 30
0.0
 10
155.4087969596424
 20
111.3221930492932
 30
0.0
 10
155.3043440961985
 20
110.9991572427796
 30
0.0
 10
155.1486760780702
 20
110.7009192381445
 30
0.0
 10
154.9432939052097
 20
110.4304490094604
 30
0.0
 10
154.6974901482723
 20
110.200155891916
 30
0.0
 10
154.4137852256154
 20
110.0125725319699
 30
0.0
 10
154.1053080562648
 20
109.876502819849
 30
0.0
 10
153.7753830778049
 20
109.7934234196677
 30
0.0
 10
153.4395205030808
 20
109.7671810071335
 30
0.0
 10
153.1011418145403
 20
109.797922369304
 30
0.0
 10
152.7759229167281
 20
109.8840928054953
 30
0.0
 10
152.4669913947312
 20
110.0247978431331
 30
0.0
 10
152.1884631015681
 20
110.2136242619682
 30
0.0
 10
151.9430961842327
 20
110.4487279494621
 30
0.0
 10
151.7426555730239
 20
110.7194599773742
 30
0.0
 10
151.5878195558087
 20
111.0228070720333
 30
0.0
 10
151.5030030324184
 20
111.3072497250097
 30
0.0
 10
151.4661839896455
 20
111.4965090969907
 30
0.0
 10
151.4622974193569
 20
111.57425181378
 30
0.0
 10
151.4619648888902
 20
111.5809033908724
 30
0.0
  0
SPLINE
  5
EA
330
1F
100
AcDbEntity
  8
0
  6
HIDDEN
 62
     7
370
     0
100
AcDbSpline
210
0.0
220
0.0
230
1.0
 70
     8
 71
     3
 72
    12
 73
     8
 74
     0
 42
0.00000001
 43
0.00000001
 12
1.0
 22
0.0
 32
0.0
 13
1.0
 23
0.0
 33
0.0
 40
0.0
 40
0.0
 40
0.0
 40
0.0
 40
0.2500000000000032
 40
0.2500000000000032
 40
0.5000000000000064
 40
0.5000000000000064
 40
1.0
 40
1.0
 40
1.0
 40
1.0
 10
151.979136513591
 20
102.3885749895519
 30
0.0
 10
151.9160564750976
 20
102.3885749895519
 30
0.0
 10
151.8569078529162
 20
102.3632106703369
 30
0.0
 10
151.7584353028471
 20
102.289045809964
 30
0.0
 10
151.7193986908624
 20
102.2425254694099
 30
0.0
 10
151.6195022240834
 20
102.0923831265646
 30
0.0
 10
151.5770813430167
 20
101.9806899195925
 30
0.0
 10
151.5461238116988
 20
101.8672721002027
 30
0.0
  0
LINE
  5
EB
330
1F
100
AcDbEntity
  8
0
  6
HIDDEN
 62
     7
370
     0
100
AcDbLine
 10
154.9236229122
 20
102.3885745926
 30
0.0
 11
151.9791366965
 21
102.3885745926
 31
0.0
  0
SPLINE
  5
EC
330
1F
100
AcDbEntity
  8
0
  6
HIDDEN
 62
     7
370
     0
100
AcDbSpline
210
0.0
220
0.0
230
1.0
 70
     8
 71
     3
 72
    12
 73
     8
 74
     0
 42
0.00000001
 43
0.00000001
 12
1.0
 22
0.0
 32
0.0
 13
1.0
 23
0.0
 33
0.0
 40
0.0
 40
0.0
 40
0.0
 40
0.0
 40
0.4999999999999971
 40
0.4999999999999971
 40
0.7499999999999986
 40
0.7499999999999986
 40
1.0
 40
1.0
 40
1.0
 40
1.0
 10
155.3566355883503
 20
101.8672721002027
 30
0.0
 10
155.3259133464312
 20
101.9798278996119
 30
0.0
 10
155.2830761318961
 20
102.0925857593515
 30
0.0
 10
155.1836491076963
 20
102.2421266451479
 30
0.0
 10
155.1438969128796
 20
102.2894193768547
 30
0.0
 10
155.0458554560214
 20
102.3631556701762
 30
0.0
 10
154.9862994004339
 20
102.3885749895519
 30
0.0
 10
154.9236228864581
 20
102.3885749895519
 30
0.0
  0
ELLIPSE
  5
ED
330
1F
100
AcDbEntity
  8
0
  6
HIDDEN
 62
     7
370
     0
100
AcDbEllipse
 10
139.1042255107
 20
111.7766414209
 30
0.0
 11
-14.75368316065608
 21
31.09325491558119
 31
0.0
210
0.0
220
0.0
230
1.0
 40
0.3419987131
 41
3.300734856217137
 42
4.231496223360783
  0
SPLINE
  5
EE
330
1F
100
AcDbEntity
  8
0
  6
HIDDEN
 62
     7
370
     0
100
AcDbSpline
210
0.0
220
0.0
230
1.0
 70
     8
 71
     3
 72
    12
 73
     8
 74
     0
 42
0.00000001
 43
0.00000001
 12
1.0
 22
0.0
 32
0.0
 13
1.0
 23
0.0
 33
0.0
 40
0.0
 40
0.0
 40
0.0
 40
0.0
 40
0.2499999999999999
 40
0.2499999999999999
 40
0.4999999999999999
 40
0.4999999999999999
 40
1.0
 40
1.0
 40
1.0
 40
1.0
 10
154.9236228864581
 20
81.70814946201484
 30
0.0
 10
154.9867029249515
 20
81.70814946201483
 30
0.0
 10
155.0458515471329
 20
81.71605538822728
 30
0.0
 10
155.144324097202
 20
81.73938054966352
 30
0.0
 10
155.1833607091867
 20
81.75409333949523
 30
0.0
 10
155.2832571759657
 20
81.80204914022615
 30
0.0
 10
155.3256780570323
 20
81.83831129680622
 30
0.0
 10
155.3566355883503
 20
81.87589896077071
 30
0.0
  0
LINE
  5
EF
330
1F
100
AcDbEntity
  8
0
  6
HIDDEN
 62
     7
370
     0
100
AcDbLine
 10
151.9791366965
 20
81.708148904
 30
0.0
 11
154.9236229122
 21
81.708148904
 31
0.0
  0
SPLINE
  5
F0
330
1F
100
AcDbEntity
  8
0
  6
HIDDEN
 62
     7
370
     0
100
AcDbSpline
210
0.0
220
0.0
230
1.0
 70
     8
 71
     3
 72
    12
 73
     8
 74
     0
 42
0.00000001
 43
0.00000001
 12
1.0
 22
0.0
 32
0.0
 13
1.0
 23
0.0
 33
0.0
 40
0.0
 40
0.0
 40
0.0
 40
0.0
 40
0.5
 40
0.5
 40
0.75
 40
0.75
 40
1.0
 40
1.0
 40
1.0
 40
1.0
 10
151.5461238116987
 20
81.87589896077071
 30
0.0
 10
151.5768460536179
 20
81.83859697781767
 30
0.0
 10
151.619683268153
 20
81.80198514577128
 30
0.0
 10
151.7191102923528
 20
81.75422036248607
 30
0.0
 10
151.7588624871695
 20
81.7392628470037
 30
0.0
 10
151.8569039440277
 20
81.71607290123455
 30
0.0
 10
151.9164599996152
 20
81.70814946201484
 30
0.0
 10
151.979136513591
 20
81.70814946201484
 30
0.0
  0
ELLIPSE
  5
F1
330
1F
100
AcDbEntity
  8
0
  6
HIDDEN
 62
     7
370
     0
100
AcDbEllipse
 10
167.7985338894
 20
111.7766414209
 30
0.0
 11
14.75368316065612
 21
31.09325491558118
 31
0.0
210
0.0
220
0.0
230
1.0
 40
0.3419987131
 41
2.05168908381882
 42
2.982450450962498
  0
SPLINE
  5
F2
330
1F
100
AcDbEntity
  8
0
  6
HIDDEN
 62
     7
370
     0
100
AcDbSpline
210
0.0
220
0.0
230
1.0
 70
     8
 71
     3
 72
    12
 73
     8
 74
     0
 42
0.00000001
 43
0.00000001
 12
1.0
 22
0.0
 32
0.0
 13
1.0
 23
0.0
 33
0.0
 40
0.0
 40
0.0
 40
0.0
 40
0.0
 40
0.2499999999999991
 40
0.2499999999999991
 40
0.4999999999999981
 40
0.4999999999999981
 40
1.0
 40
1.0
 40
1.0
 40
1.0
 10
151.979136513591
 20
141.8451333797612
 30
0.0
 10
151.9160564750976
 20
141.8451333797612
 30
0.0
 10
151.8569078529162
 20
141.8372274535487
 30
0.0
 10
151.7584353028471
 20
141.8139022921125
 30
0.0
 10
151.7193986908624
 20
141.7991895022808
 30
0.0
 10
151.6195022240834
 20
141.7512337015498
 30
0.0
 10
151.5770813430167
 20
141.7149715449698
 30
0.0
 10
151.5461238116988
 20
141.6773838810053
 30
0.0
  0
LINE
  5
F3
330
1F
100
AcDbEntity
  8
0
  6
HIDDEN
 62
     7
370
     0
100
AcDbLine
 10
154.9236229122
 20
141.8451339378
 30
0.0
 11
151.9791366965
 21
141.8451339378
 31
0.0
  0
SPLINE
  5
F4
330
1F
100
AcDbEntity
  8
0
  6
HIDDEN
 62
     7
370
     0
100
AcDbSpline
210
0.0
220
0.0
230
1.0
 70
     8
 71
     3
 72
    12
 73
     8
 74
     0
 42
0.00000001
 43
0.00000001
 12
1.0
 22
0.0
 32
0.0
 13
1.0
 23
0.0
 33
0.0
 40
0.0
 40
0.0
 40
0.0
 40
0.0
 40
0.4999999999999953
 40
0.4999999999999953
 40
0.7499999999999977
 40
0.7499999999999977
 40
1.0
 40
1.0
 40
1.0
 40
1.0
 10
155.3566355883503
 20
141.6773838810053
 30
0.0
 10
155.3259133464312
 20
141.7146858639583
 30
0.0
 10
155.2830761318961
 20
141.7512976960047
 30
0.0
 10
155.1836491076963
 20
141.7990624792899
 30
0.0
 10
155.1438969128796
 20
141.8140199947723
 30
0.0
 10
155.0458554560214
 20
141.8372099405414
 30
0.0
 10
154.9862994004339
 20
141.8451333797612
 30
0.0
 10
154.9236228864581
 20
141.8451333797612
 30
0.0
  0
ELLIPSE
  5
F5
330
1F
100
AcDbEntity
  8
0
  6
HIDDEN
 62
     7
370
     0
100
AcDbEllipse
 10
139.1042255107
 20
111.7766414209
 30
0.0
 11
14.75368316065626
 21
31.09325491558118
 31
0.0
210
0.0
220
0.0
230
1.0
 40
0.3419987131
 41
5.193281737408636
 42
6.12404310455234
  0
SPLINE
  5
F6
330
1F
100
AcDbEntity
  8
0
  6
HIDDEN
 62
     7
370
     0
100
AcDbSpline
210
0.0
220
0.0
230
1.0
 70
     8
 71
     3
 72
    12
 73
     8
 74
     0
 42
0.00000001
 43
0.00000001
 12
1.0
 22
0.0
 32
0.0
 13
1.0
 23
0.0
 33
0.0
 40
0.0
 40
0.0
 40
0.0
 40
0.0
 40
0.2499999999999999
 40
0.2499999999999999
 40
0.4999999999999999
 40
0.4999999999999999
 40
1.0
 40
1.0
 40
1.0
 40
1.0
 10
154.9236228864581
 20
121.1647078522244
 30
0.0
 10
154.9867029249515
 20
121.1647078522244
 30
0.0
 10
155.0458515471329
 20
121.1900721714393
 30
0.0
 10
155.144324097202
 20
121.2642370318123
 30
0.0
 10
155.1833607091867
 20
121.3107573723664
 30
0.0
 10
155.2832571759657
 20
121.4608997152117
 30
0.0
 10
155.3256780570323
 20
121.5725929221838
 30
0.0
 10
155.3566355883503
 20
121.6860107415736
 30
0.0
  0
LINE
  5
F7
330
1F
100
AcDbEntity
  8
0
  6
HIDDEN
 62
     7
370
     0
100
AcDbLine
 10
151.9791366965
 20
121.1647082491
 30
0.0
 11
154.9236229122
 21
121.1647082491
 31
0.0
  0
SPLINE
  5
F8
330
1F
100
AcDbEntity
  8
0
  6
HIDDEN
 62
     7
370
     0
100
AcDbSpline
210
0.0
220
0.0
230
1.0
 70
     8
 71
     3
 72
    12
 73
     8
 74
     0
 42
0.00000001
 43
0.00000001
 12
1.0
 22
0.0
 32
0.0
 13
1.0
 23
0.0
 33
0.0
 40
0.0
 40
0.0
 40
0.0
 40
0.0
 40
0.5
 40
0.5
 40
0.75
 40
0.75
 40
1.0
 40
1.0
 40
1.0
 40
1.0
 10
151.5461238116988
 20
121.6860107415735
 30
0.0
 10
151.5768460536179
 20
121.5734549421644
 30
0.0
 10
151.619683268153
 20
121.4606970824248
 30
0.0
 10
151.7191102923528
 20
121.3111561966284
 30
0.0
 10
151.7588624871695
 20
121.2638634649216
 30
0.0
 10
151.8569039440277
 20
121.1901271716001
 30
0.0
 10
151.9164599996152
 20
121.1647078522244
 30
0.0
 10
151.979136513591
 20
121.1647078522244
 30
0.0
  0
ELLIPSE
  5
F9
330
1F
100
AcDbEntity
  8
0
  6
HIDDEN
 62
     7
370
     0
100
AcDbEllipse
 10
167.7985338894
 20
111.7766414209
 30
0.0
 11
-14.75368316065626
 21
31.09325491558118
 31
0.0
210
0.0
220
0.0
230
1.0
 40
0.3419987131
 41
0.1591422026272803
 42
1.089903569770961
  0
LINE
  5
FA
330
1F
100
AcDbEntity
  8
0
  6
HIDDEN
 62
     7
370
     0
100
AcDbLine
 10
141.4513797
 20
87.5266407056
 30
0.0
 11
141.4513797
 21
136.002906449
 31
0.0
  0
SPLINE
  5
FB
330
1F
100
AcDbEntity
  8
0
  6
HIDDEN
 62
     7
370
     0
100
AcDbSpline
210
0.0
220
0.0
230
1.0
 70
     8
 71
     3
 72
    12
 73
     8
 74
     0
 42
0.00000001
 43
0.00000001
 12
1.0
 22
0.0
 32
0.0
 13
1.0
 23
0.0
 33
0.0
 40
0.0
 40
0.0
 40
0.0
 40
0.0
 40
0.5
 40
0.5
 40
0.75
 40
0.75
 40
1.0
 40
1.0
 40
1.0
 40
1.0
 10
140.6348674135775
 20
127.2289094027188
 30
0.0
 10
140.6912735922577
 20
127.181087029059
 30
0.0
 10
140.7614364937295
 20
127.1408161821204
 30
0.0
 10
140.8794472071187
 20
127.1327703136435
 30
0.0
 10
140.9196529907142
 20
127.1393329119824
 30
0.0
 10
140.9933736874472
 20
127.166715006436
 30
0.0
 10
141.0262344092338
 20
127.1864764969663
 30
0.0
 10
141.056402811163
 20
127.2094092081544
 30
0.0
  0
SPLINE
  5
FC
330
1F
100
AcDbEntity
  8
0
  6
HIDDEN
 62
     7
370
     0
100
AcDbSpline
210
0.0
220
0.0
230
1.0
 70
     8
 71
     3
 72
    16
 73
    12
 74
     0
 42
0.00000001
 43
0.00000001
 12
1.0
 22
0.0
 32
0.0
 13
1.0
 23
0.0
 33
0.0
 40
0.0
 40
0.0
 40
0.0
 40
0.0
 40
0.0624999999999949
 40
0.0624999999999949
 40
0.1249999999999898
 40
0.1249999999999898
 40
0.2499999999999876
 40
0.2499999999999876
 40
0.4999999999999934
 40
0.4999999999999934
 40
1.0
 40
1.0
 40
1.0
 40
1.0
 10
141.0564028111179
 20
127.2094092082024
 30
0.0
 10
141.0680157109573
 20
127.2182368311838
 30
0.0
 10
141.0813668953897
 20
127.2260712130658
 30
0.0
 10
141.1107667350089
 20
127.2343813391381
 30
0.0
 10
141.1256074595642
 20
127.2338855199031
 30
0.0
 10
141.1614406675328
 20
127.2224345489337
 30
0.0
 10
141.1755538753544
 20
127.2057540480751
 30
0.0
 10
141.2100452465733
 20
127.1536333623181
 30
0.0
 10
141.2211293176836
 20
127.1138438682931
 30
0.0
 10
141.2472521354797
 20
126.990507236196
 30
0.0
 10
141.2513797000246
 20
126.9030858256973
 30
0.0
 10
141.2513797000246
 20
126.8143485833791
 30
0.0
  0
LINE
  5
FD
330
1F
100
AcDbEntity
  8
0
  6
HIDDEN
 62
     7
370
     0
100
AcDbLine
 10
141.2513797051
 20
96.7389343678
 30
0.0
 11
141.2513797051
 21
126.814348474
 31
0.0
  0
SPLINE
  5
FE
330
1F
100
AcDbEntity
  8
0
  6
HIDDEN
 62
     7
370
     0
100
AcDbSpline
210
0.0
220
0.0
230
1.0
 70
     8
 71
     3
 72
    16
 73
    12
 74
     0
 42
0.00000001
 43
0.00000001
 12
1.0
 22
0.0
 32
0.0
 13
1.0
 23
0.0
 33
0.0
 40
0.0
 40
0.0
 40
0.0
 40
0.0
 40
0.5000000000000077
 40
0.5000000000000077
 40
0.750000000000009
 40
0.750000000000009
 40
0.8750000000000046
 40
0.8750000000000046
 40
0.9375000000000022
 40
0.9375000000000022
 40
1.0
 40
1.0
 40
1.0
 40
1.0
 10
141.2513797000246
 20
96.73893425839677
 30
0.0
 10
141.2513797000246
 20
96.64980789320802
 30
0.0
 10
141.2472334249466
 20
96.56294652559461
 30
0.0
 10
141.2212678295531
 20
96.43996427910056
 30
0.0
 10
141.2098069241756
 20
96.39919298386928
 30
0.0
 10
141.1754951864013
 20
96.34748866386953
 30
0.0
 10
141.1614704504716
 20
96.33081829727911
 30
0.0
 10
141.1254474874379
 20
96.31936607682238
 30
0.0
 10
141.1106929783482
 20
96.31891303054739
 30
0.0
 10
141.0813408172013
 20
96.32722835176354
 30
0.0
 10
141.0680009426972
 20
96.33505723684179
 30
0.0
 10
141.0564028111489
 20
96.34387363360443
 30
0.0
  0
SPLINE
  5
FF
330
1F
100
AcDbEntity
  8
0
  6
HIDDEN
 62
     7
370
     0
100
AcDbSpline
210
0.0
220
0.0
230
1.0
 70
     8
 71
     3
 72
    12
 73
     8
 74
     0
 42
0.00000001
 43
0.00000001
 12
1.0
 22
0.0
 32
0.0
 13
1.0
 23
0.0
 33
0.0
 40
0.0
 40
0.0
 40
0.0
 40
0.0
 40
0.25
 40
0.25
 40
0.5
 40
0.5
 40
1.0
 40
1.0
 40
1.0
 40
1.0
 10
141.056402811156
 20
96.34387363361331
 30
0.0
 10
141.0262109694388
 20
96.36682416271114
 30
0.0
 10
140.9928520000242
 20
96.38679363673536
 30
0.0
 10
140.9197147154436
 20
96.41389477036086
 30
0.0
 10
140.8794728427896
 20
96.42049551100627
 30
0.0
 10
140.7617670658211
 20
96.41252663649955
 30
0.0
 10
140.6913565880417
 20
96.3722661783317
 30
0.0
 10
140.6348674135733
 20
96.32437343905353
 30
0.0
  0
SPLINE
  5
100
330
1F
100
AcDbEntity
  8
0
  6
HIDDEN
 62
     7
370
     0
100
AcDbSpline
210
0.0
220
0.0
230
1.0
 70
     8
 71
     3
 72
    12
 73
     8
 74
     0
 42
0.00000001
 43
0.00000001
 12
1.0
 22
0.0
 32
0.0
 13
1.0
 23
0.0
 33
0.0
 40
0.0
 40
0.0
 40
0.0
 40
0.0
 40
0.2499999999999986
 40
0.2499999999999986
 40
0.4999999999999998
 40
0.4999999999999998
 40
1.0
 40
1.0
 40
1.0
 40
1.0
 10
140.634867413573
 20
96.32437343905374
 30
0.0
 10
140.5467134758352
 20
96.24963463119965
 30
0.0
 10
140.4863600512065
 20
96.15865413071727
 30
0.0
 10
140.3800980931397
 20
95.96974030796467
 30
0.0
 10
140.3378659265776
 20
95.87323584842409
 30
0.0
 10
140.2267952312604
 20
95.58246809425692
 30
0.0
 10
140.1738584548337
 20
95.3868012797132
 30
0.0
 10
140.1300593564649
 20
95.19273479464688
 30
0.0
  0
SPLINE
  5
101
330
1F
100
AcDbEntity
  8
0
  6
HIDDEN
 62
     7
370
     0
100
AcDbSpline
210
0.0
220
0.0
230
1.0
 70
     8
 71
     3
 72
    12
 73
     8
 74
     0
 42
0.00000001
 43
0.00000001
 12
1.0
 22
0.0
 32
0.0
 13
1.0
 23
0.0
 33
0.0
 40
0.0
 40
0.0
 40
0.0
 40
0.0
 40
0.4999999999999991
 40
0.4999999999999991
 40
0.7499999999999996
 40
0.7499999999999996
 40
1.0
 40
1.0
 40
1.0
 40
1.0
 10
140.1300593564649
 20
90.00656046588581
 30
0.0
 10
140.1738058973015
 20
89.97996629524465
 30
0.0
 10
140.226690252533
 20
89.96020606991893
 30
0.0
 10
140.3382573398691
 20
89.93975507968983
 30
0.0
 10
140.3808409364121
 20
89.93449485503339
 30
0.0
 10
140.4857576634939
 20
89.92661206111075
 30
0.0
 10
140.5472912713387
 20
89.92404793593158
 30
0.0
 10
140.6348674135648
 20
89.92184771841195
 30
0.0
  0
LINE
  5
102
330
1F
100
AcDbEntity
  8
0
  6
HIDDEN
 62
     7
370
     0
100
AcDbLine
 10
141.2513797051
 20
89.2368208988
 30
0.0
 11
141.2513797051
 21
89.7170462085
 31
0.0
  0
LINE
  5
103
330
1F
100
AcDbEntity
  8
0
  6
HIDDEN
 62
     7
370
     0
100
AcDbLine
 10
141.2513797051
 20
133.8362366332
 30
0.0
 11
141.2513797051
 21
134.316461943
 31
0.0
  0
SPLINE
  5
104
330
1F
100
AcDbEntity
  8
0
  6
HIDDEN
 62
     7
370
     0
100
AcDbSpline
210
0.0
220
0.0
230
1.0
 70
     8
 71
     3
 72
    12
 73
     8
 74
     0
 42
0.00000001
 43
0.00000001
 12
1.0
 22
0.0
 32
0.0
 13
1.0
 23
0.0
 33
0.0
 40
0.0
 40
0.0
 40
0.0
 40
0.0
 40
0.25
 40
0.25
 40
0.5000000000000001
 40
0.5000000000000001
 40
1.0
 40
1.0
 40
1.0
 40
1.0
 10
140.6348674135728
 20
133.6314351233638
 30
0.0
 10
140.5461827537164
 20
133.6292070560228
 30
0.0
 10
140.486264337993
 20
133.6267052719925
 30
0.0
 10
140.3806051106723
 20
133.6187738361565
 30
0.0
 10
140.3379638725574
 20
133.6134816812597
 30
0.0
 10
140.2267745304548
 20
133.5930767407725
 30
0.0
 10
140.1738478483339
 20
133.5733420491857
 30
0.0
 10
140.1300593564649
 20
133.5467223758901
 30
0.0
  0
SPLINE
  5
105
330
1F
100
AcDbEntity
  8
0
  6
HIDDEN
 62
     7
370
     0
100
AcDbSpline
210
0.0
220
0.0
230
1.0
 70
     8
 71
     3
 72
    12
 73
     8
 74
     0
 42
0.00000001
 43
0.00000001
 12
1.0
 22
0.0
 32
0.0
 13
1.0
 23
0.0
 33
0.0
 40
0.0
 40
0.0
 40
0.0
 40
0.0
 40
0.5000000000000006
 40
0.5000000000000006
 40
0.7500000000000018
 40
0.7500000000000018
 40
1.0
 40
1.0
 40
1.0
 40
1.0
 10
140.1300593564633
 20
128.3605480471292
 30
0.0
 10
140.1738208327621
 20
128.1666482591671
 30
0.0
 10
140.2267271484151
 20
127.9707918952302
 30
0.0
 10
140.3384383460625
 20
127.6786497487313
 30
0.0
 10
140.3809577896488
 20
127.5819318120333
 30
0.0
 10
140.4860811322162
 20
127.3952073756089
 30
0.0
 10
140.5476470959339
 20
127.3028566673392
 30
0.0
 10
140.6348674135767
 20
127.2289094027195
 30
0.0
  0
LINE
  5
106
330
1F
100
AcDbEntity
  8
0
  6
HIDDEN
 62
     7
370
     0
100
AcDbLine
 10
141.2513797051
 20
89.7170462085
 30
0.0
 11
141.2513797051
 21
104.754754193
 31
0.0
  0
LINE
  5
107
330
1F
100
AcDbEntity
  8
0
  6
HIDDEN
 62
     7
370
     0
100
AcDbLine
 10
141.2513797051
 20
118.7985286488
 30
0.0
 11
141.2513797051
 21
133.8362366332
 31
0.0
  0
LINE
  5
108
330
1F
100
AcDbEntity
  8
0
  6
HIDDEN
 62
     7
370
     0
100
AcDbLine
 10
163.4513795808
 20
91.7766418679
 30
0.0
 11
163.4513795808
 21
131.7532852663
 31
0.0
  0
CIRCLE
  5
109
330
1F
100
AcDbEntity
  8
0
  6
HIDDEN
 62
     7
370
     0
100
AcDbCircle
 10
125.9513797
 20
111.7766414209
 30
0.0
 40
4.049999999999997
  0
LINE
  5
10A
330
1F
100
AcDbEntity
  8
0
  6
HIDDEN
 62
     7
370
     0
100
AcDbLine
 10
104.9816072419
 20
127.089592479
 30
0.0
 11
104.9816072419
 21
96.4636903627
 31
0.0
  0
LINE
  5
10B
330
1F
100
AcDbEntity
  8
0
  6
HIDDEN
 62
     7
370
     0
100
AcDbLine
 10
103.4513809219
 20
95.5802116914
 30
0.0
 11
103.4513809219
 21
127.9730711503
 31
0.0
  0
SPLINE
  5
10C
330
1F
100
AcDbEntity
  8
0
  6
HIDDEN
 62
     7
370
     0
100
AcDbSpline
210
0.0
220
0.0
230
1.0
 70
     8
 71
     3
 72
    66
 73
    62
 74
     0
 42
0.00000001
 43
0.00000001
 12
1.0
 22
0.0
 32
0.0
 13
1.0
 23
0.0
 33
0.0
 40
-0.0312500000000018
 40
-0.0312500000000018
 40
0.0
 40
0.0
 40
0.0312499999999993
 40
0.0312499999999993
 40
0.0624999999999986
 40
0.0624999999999986
 40
0.0937499999999979
 40
0.0937499999999979
 40
0.1249999999999971
 40
0.1249999999999971
 40
0.1562499999999964
 40
0.1562499999999964
 40
0.1874999999999957
 40
0.1874999999999957
 40
0.218749999999995
 40
0.218749999999995
 40
0.2499999999999943
 40
0.2499999999999943
 40
0.2812499999999936
 40
0.2812499999999936
 40
0.3124999999999928
 40
0.3124999999999928
 40
0.3437499999999921
 40
0.3437499999999921
 40
0.3749999999999915
 40
0.3749999999999915
 40
0.4062499999999907
 40
0.4062499999999907
 40
0.43749999999999
 40
0.43749999999999
 40
0.4687499999999893
 40
0.4687499999999893
 40
0.4999999999999886
 40
0.4999999999999886
 40
0.5624999999999898
 40
0.5624999999999898
 40
0.5937499999999905
 40
0.5937499999999905
 40
0.624999999999991
 40
0.624999999999991
 40
0.6562499999999917
 40
0.6562499999999917
 40
0.6874999999999922
 40
0.6874999999999922
 40
0.7187499999999929
 40
0.7187499999999929
 40
0.7499999999999934
 40
0.7499999999999934
 40
0.781249999999994
 40
0.781249999999994
 40
0.8124999999999946
 40
0.8124999999999946
 40
0.843749999999995
 40
0.843749999999995
 40
0.8749999999999956
 40
0.8749999999999956
 40
0.9374999999999966
 40
0.9374999999999966
 40
0.9687499999999982
 40
0.9687499999999982
 40
1.0
 40
1.0
 40
1.031249999999999
 40
1.031249999999999
 10
224.2859459523032
 20
104.5154560454277
 30
0.0
 10
224.6168134477459
 20
104.5154560454277
 30
0.0
 10
224.7794311954733
 20
104.5301166317143
 30
0.0
 10
225.0992810542083
 20
104.5876066845445
 30
0.0
 10
225.258189546065
 20
104.6311520506657
 30
0.0
 10
225.5608125953905
 20
104.7449146542841
 30
0.0
 10
225.7043026489164
 20
104.8146089878143
 30
0.0
 10
225.9758626242665
 20
104.9797930087975
 30
0.0
 10
226.1042401808263
 20
105.0760341148184
 30
0.0
 10
226.3344472973241
 20
105.2871139305699
 30
0.0
 10
226.4378419412362
 20
105.4027195080652
 30
0.0
 10
226.6206119083519
 20
105.655169047489
 30
0.0
 10
226.6981201325273
 20
105.7898331612352
 30
0.0
 10
226.822887706328
 20
106.0702462747347
 30
0.0
 10
226.8710234860561
 20
106.2180765276422
 30
0.0
 10
226.9353451209482
 20
106.5220479081709
 30
0.0
 10
226.9512864017874
 20
106.6756974957528
 30
0.0
 10
226.9514721894481
 20
106.9863367939984
 30
0.0
 10
226.9351841776611
 20
107.1449354979968
 30
0.0
 10
226.871300283232
 20
107.4530801330417
 30
0.0
 10
226.824035850464
 20
107.6036248593455
 30
0.0
 10
226.698627739639
 20
107.8973893002453
 30
0.0
 10
226.6204609368793
 20
108.0396548192365
 30
0.0
 10
226.4396533033633
 20
108.304296257363
 30
0.0
 10
226.3361168260374
 20
108.4285516857903
 30
0.0
 10
226.1032836195974
 20
108.6581287780855
 30
0.0
 10
225.9773132848049
 20
108.76027228756
 30
0.0
 10
225.706858069362
 20
108.9397852411852
 30
0.0
 10
225.5605968169772
 20
109.0177857183551
 30
0.0
 10
225.2581547261794
 20
109.1427729066016
 30
0.0
 10
225.1023352455558
 20
109.1901006136692
 30
0.0
 10
224.7814844843555
 20
109.2542371239088
 30
0.0
 10
224.6156237287607
 20
109.2706751780807
 30
0.0
 10
224.1257976953208
 20
109.270864961573
 30
0.0
 10
223.7963554392942
 20
109.20518229153
 30
0.0
 10
223.3448975257575
 20
109.0190660152474
 30
0.0
 10
223.1991781474183
 20
108.9417641203134
 30
0.0
 10
222.9263551125362
 20
108.7610687296907
 30
0.0
 10
222.800609890991
 20
108.6589644686263
 30
0.0
 10
222.5699439422627
 20
108.4320840600937
 30
0.0
 10
222.46437323536
 20
108.3059516460626
 30
0.0
 10
222.2829878477589
 20
108.0408609821177
 30
0.0
 10
222.2060424479097
 20
107.901158230117
 30
0.0
 10
222.0800826816367
 20
107.6074974542328
 30
0.0
 10
222.0318705648515
 20
107.454421443514
 30
0.0
 10
221.9679516161923
 20
107.1473864544219
 30
0.0
 10
221.951517728843
 20
106.9914877702116
 30
0.0
 10
221.9512433942359
 20
106.677199112543
 30
0.0
 10
221.9673270001661
 20
106.5233727188744
 30
0.0
 10
222.0307128865192
 20
106.2220146038149
 30
0.0
 10
222.0788389087128
 20
106.0729140558135
 30
0.0
 10
222.2040446736825
 20
105.7908273594079
 30
0.0
 10
222.2807053844405
 20
105.6575959403701
 30
0.0
 10
222.4620517831272
 20
105.4062529054757
 30
0.0
 10
222.5672888107682
 20
105.2881922519417
 30
0.0
 10
222.9122333665308
 20
104.9714901528583
 30
0.0
 10
223.1906288937898
 20
104.8020806103029
 30
0.0
 10
223.6415452376657
 20
104.6321493595818
 30
0.0
 10
223.7994934189653
 20
104.5884734220105
 30
0.0
 10
224.1224939991823
 20
104.5301183170336
 30
0.0
 10
224.2859459523032
 20
104.5154560454277
 30
0.0
 10
224.6168134477459
 20
104.5154560454277
 30
0.0
  0
LINE
  5
10D
330
1F
100
AcDbEntity
  8
0
  6
HIDDEN
 62
     7
370
     0
100
AcDbLine
 10
240.4513791636
 20
95.7766406609
 30
0.0
 11
240.4513791636
 21
127.7766421808
 31
0.0
  0
LINE
  5
10E
330
1F
100
AcDbEntity
  8
0
  6
HIDDEN
 62
     7
370
     0
100
AcDbLine
 10
111.4816073761
 20
126.1230519413
 30
0.0
 11
111.4816073761
 21
97.4302309005
 31
0.0
  0
LINE
  5
10F
330
1F
100
AcDbEntity
  8
0
  6
HIDDEN
 62
     7
370
     0
100
AcDbLine
 10
117.2816086993
 20
125.776641853
 30
0.0
 11
117.2816086993
 21
97.7766409888
 31
0.0
  0
LINE
  5
110
330
1F
100
AcDbEntity
  8
0
  6
HIDDEN
 62
     7
370
     0
100
AcDbLine
 10
109.8816082314
 20
125.776641853
 30
0.0
 11
109.8816082314
 21
97.7766409888
 31
0.0
  0
LINE
  5
111
330
1F
100
AcDbEntity
  8
0
  6
HIDDEN
 62
     7
370
     0
100
AcDbLine
 10
110.8816083953
 20
125.776641853
 30
0.0
 11
110.8816083953
 21
97.7766409888
 31
0.0
  0
SPLINE
  5
112
330
1F
100
AcDbEntity
  8
0
  6
HIDDEN
 62
     7
370
     0
100
AcDbSpline
210
0.0
220
0.0
230
1.0
 70
     8
 71
     3
 72
    10
 73
     6
 74
     0
 42
0.00000001
 43
0.00000001
 12
1.0
 22
0.0
 32
0.0
 13
1.0
 23
0.0
 33
0.0
 40
0.0
 40
0.0
 40
0.0
 40
0.0
 40
0.5
 40
0.5
 40
1.0
 40
1.0
 40
1.0
 40
1.0
 10
129.9513797000245
 20
112.4110702979104
 30
0.0
 10
129.984527118101
 20
112.2020796969024
 30
0.0
 10
130.0013859634626
 20
111.9905172308808
 30
0.0
 10
130.001373433115
 20
111.5625284649132
 30
0.0
 10
129.9844584753746
 20
111.3507703604975
 30
0.0
 10
129.9513797000245
 20
111.1422125438654
 30
0.0
  0
LINE
  5
113
330
1F
100
AcDbEntity
  8
0
  6
HIDDEN
 62
     7
370
     0
100
AcDbLine
 10
130.4513797596
 20
125.2766417711
 30
0.0
 11
130.4513797596
 21
98.2766410707
 31
0.0
  0
SPLINE
  5
114
330
1F
100
AcDbEntity
  8
0
  6
HIDDEN
 62
     7
370
     0
100
AcDbSpline
210
0.0
220
0.0
230
1.0
 70
     8
 71
     3
 72
    10
 73
     6
 74
     0
 42
0.00000001
 43
0.00000001
 12
1.0
 22
0.0
 32
0.0
 13
1.0
 23
0.0
 33
0.0
 40
0.0
 40
0.0
 40
0.0
 40
0.0
 40
0.5
 40
0.5
 40
1.0
 40
1.0
 40
1.0
 40
1.0
 10
129.9513797000245
 20
111.1422125438654
 30
0.0
 10
129.9845686624982
 20
111.3514650774479
 30
0.0
 10
130.0012694387529
 20
111.5622818383468
 30
0.0
 10
130.0014888791976
 20
111.9868141195501
 30
0.0
 10
129.9846091638042
 20
112.2015624083228
 30
0.0
 10
129.9513797000245
 20
112.4110702979104
 30
0.0
  0
SPLINE
  5
115
330
1F
100
AcDbEntity
  8
0
  6
HIDDEN
 62
     7
370
     0
100
AcDbSpline
210
0.0
220
0.0
230
1.0
 70
     8
 71
     3
 72
    68
 73
    64
 74
     0
 42
0.00000001
 43
0.00000001
 12
1.0
 22
0.0
 32
0.0
 13
1.0
 23
0.0
 33
0.0
 40
0.0
 40
0.0
 40
0.0
 40
0.0
 40
0.0312499999999999
 40
0.0312499999999999
 40
0.0624999999999998
 40
0.0624999999999998
 40
0.0937499999999997
 40
0.0937499999999997
 40
0.1249999999999996
 40
0.1249999999999996
 40
0.1562499999999995
 40
0.1562499999999995
 40
0.1874999999999994
 40
0.1874999999999994
 40
0.2187499999999993
 40
0.2187499999999993
 40
0.2499999999999992
 40
0.2499999999999992
 40
0.2812499999999991
 40
0.2812499999999991
 40
0.312499999999999
 40
0.312499999999999
 40
0.3437499999999989
 40
0.3437499999999989
 40
0.3749999999999987
 40
0.3749999999999987
 40
0.4062499999999986
 40
0.4062499999999986
 40
0.4374999999999985
 40
0.4374999999999985
 40
0.4687499999999984
 40
0.4687499999999984
 40
0.4999999999999983
 40
0.4999999999999983
 40
0.5624999999999981
 40
0.5624999999999981
 40
0.593749999999998
 40
0.593749999999998
 40
0.6249999999999979
 40
0.6249999999999979
 40
0.6562499999999978
 40
0.6562499999999978
 40
0.6874999999999977
 40
0.6874999999999977
 40
0.7187499999999976
 40
0.7187499999999976
 40
0.7499999999999973
 40
0.7499999999999973
 40
0.7812499999999977
 40
0.7812499999999977
 40
0.812499999999998
 40
0.812499999999998
 40
0.8437499999999983
 40
0.8437499999999983
 40
0.8749999999999987
 40
0.8749999999999987
 40
0.906249999999999
 40
0.906249999999999
 40
0.9374999999999993
 40
0.9374999999999993
 40
0.9687499999999997
 40
0.9687499999999997
 40
1.0
 40
1.0
 40
1.0
 40
1.0
 10
129.9513797000245
 20
111.1422125438654
 30
0.0
 10
129.9113647476748
 20
110.8899229410498
 30
0.0
 10
129.8484229462635
 20
110.645924090674
 30
0.0
 10
129.6790362841915
 20
110.1735057016115
 30
0.0
 10
129.571342721606
 20
109.9430923154516
 30
0.0
 10
129.3160579530681
 20
109.5083877196545
 30
0.0
 10
129.1700187225959
 20
109.3057457530032
 30
0.0
 10
128.8417972860366
 20
108.9287564622453
 30
0.0
 10
128.6575499982617
 20
108.7530985086679
 30
0.0
 10
128.2645898309534
 20
108.4428405397217
 30
0.0
 10
128.0552952339942
 20
108.3068953320718
 30
0.0
 10
127.6104098070568
 20
108.073505236666
 30
0.0
 10
127.3736122145578
 20
107.9762586302516
 30
0.0
 10
126.8928771456386
 20
107.8295871723802
 30
0.0
 10
126.6466340524557
 20
107.7786948274378
 30
0.0
 10
126.1419172724763
 20
107.7231674772023
 30
0.0
 10
125.8857225715398
 20
107.7193425901324
 30
0.0
 10
125.3833438223397
 20
107.7587663727768
 30
0.0
 10
125.1340941231562
 20
107.801793821988
 30
0.0
 10
124.6425663256774
 20
107.9354987914393
 30
0.0
 10
124.4072707244515
 20
108.0241686373445
 30
0.0
 10
123.9563568297894
 20
108.2432000011219
 30
0.0
 10
123.738744479326
 20
108.3752015668055
 30
0.0
 10
123.3355373097777
 20
108.6745588478083
 30
0.0
 10
123.1499258173433
 20
108.8411777752462
 30
0.0
 10
122.8099377469408
 20
109.2082892006737
 30
0.0
 10
122.6548648161179
 20
109.4105929462144
 30
0.0
 10
122.3885217394545
 20
109.8346736258084
 30
0.0
 10
122.2755376387378
 20
110.0578332312746
 30
0.0
 10
122.0906823818069
 20
110.5271884728688
 30
0.0
 10
122.0195416203035
 20
110.7733989762043
 30
0.0
 10
121.9255812090153
 20
111.2679248025755
 30
0.0
 10
121.9015718790589
 20
111.5188557976675
 30
0.0
 10
121.9009987583864
 20
112.2831011772237
 30
0.0
 10
121.996397869705
 20
112.7853254792746
 30
0.0
 10
122.2742616619061
 20
113.492889985547
 30
0.0
 10
122.3874236179867
 20
113.7165962492878
 30
0.0
 10
122.6535548000305
 20
114.1408661606084
 30
0.0
 10
122.8083825742302
 20
114.3431181226645
 30
0.0
 10
123.1485636800181
 20
114.7108288640327
 30
0.0
 10
123.3340661369678
 20
114.877445739282
 30
0.0
 10
123.7363599380271
 20
115.1764951180774
 30
0.0
 10
123.9543679862791
 20
115.3089518261058
 30
0.0
 10
124.4049663534294
 20
115.5281582268105
 30
0.0
 10
124.6395153523102
 20
115.6166433568142
 30
0.0
 10
125.1279753458625
 20
115.7501295867528
 30
0.0
 10
125.3802407415764
 20
115.7940712992466
 30
0.0
 10
125.8824213797367
 20
115.83388029572
 30
0.0
 10
126.1349034970884
 20
115.8305360829065
 30
0.0
 10
126.6427685401578
 20
115.775356762916
 30
0.0
 10
126.8903140133417
 20
115.7243108344466
 30
0.0
 10
127.3712815508124
 20
115.577900446211
 30
0.0
 10
127.6072414159176
 20
115.4812542414374
 30
0.0
 10
128.0538118654392
 20
115.2473492971244
 30
0.0
 10
128.2634567280127
 20
115.1112242832979
 30
0.0
 10
128.6564434347672
 20
114.8011700189688
 30
0.0
 10
128.8408393385822
 20
114.6255127713937
 30
0.0
 10
129.1693897564426
 20
114.2483728487292
 30
0.0
 10
129.3153318529657
 20
114.0459066434594
 30
0.0
 10
129.5702172081679
 20
113.612330345326
 30
0.0
 10
129.6785285209762
 20
113.3810385017445
 30
0.0
 10
129.8483634983932
 20
112.9076788216113
 30
0.0
 10
129.9113588595302
 20
112.6633970247905
 30
0.0
 10
129.9513797000245
 20
112.4110702979104
 30
0.0
  0
SPLINE
  5
116
330
1F
100
AcDbEntity
  8
0
  6
HIDDEN
 62
     7
370
     0
100
AcDbSpline
210
0.0
220
0.0
230
1.0
 70
     8
 71
     3
 72
    68
 73
    64
 74
     0
 42
0.00000001
 43
0.00000001
 12
1.0
 22
0.0
 32
0.0
 13
1.0
 23
0.0
 33
0.0
 40
0.0
 40
0.0
 40
0.0
 40
0.0
 40
0.0312499999999999
 40
0.0312499999999999
 40
0.0624999999999998
 40
0.0624999999999998
 40
0.0937499999999997
 40
0.0937499999999997
 40
0.1249999999999996
 40
0.1249999999999996
 40
0.1562499999999995
 40
0.1562499999999995
 40
0.1874999999999994
 40
0.1874999999999994
 40
0.2187499999999993
 40
0.2187499999999993
 40
0.2499999999999992
 40
0.2499999999999992
 40
0.2812499999999991
 40
0.2812499999999991
 40
0.312499999999999
 40
0.312499999999999
 40
0.3437499999999989
 40
0.3437499999999989
 40
0.3749999999999987
 40
0.3749999999999987
 40
0.4062499999999986
 40
0.4062499999999986
 40
0.4374999999999985
 40
0.4374999999999985
 40
0.4687499999999984
 40
0.4687499999999984
 40
0.4999999999999983
 40
0.4999999999999983
 40
0.5624999999999981
 40
0.5624999999999981
 40
0.593749999999998
 40
0.593749999999998
 40
0.6249999999999979
 40
0.6249999999999979
 40
0.6562499999999978
 40
0.6562499999999978
 40
0.6874999999999977
 40
0.6874999999999977
 40
0.7187499999999976
 40
0.7187499999999976
 40
0.7499999999999973
 40
0.7499999999999973
 40
0.7812499999999977
 40
0.7812499999999977
 40
0.812499999999998
 40
0.812499999999998
 40
0.8437499999999983
 40
0.8437499999999983
 40
0.8749999999999987
 40
0.8749999999999987
 40
0.906249999999999
 40
0.906249999999999
 40
0.9374999999999993
 40
0.9374999999999993
 40
0.9687499999999997
 40
0.9687499999999997
 40
1.0
 40
1.0
 40
1.0
 40
1.0
 10
129.9513797000245
 20
112.4110702979104
 30
0.0
 10
129.9113647476748
 20
112.663359900726
 30
0.0
 10
129.8484229462635
 20
112.9073587511019
 30
0.0
 10
129.6790362841915
 20
113.3797771401644
 30
0.0
 10
129.571342721606
 20
113.6101905263243
 30
0.0
 10
129.3160579530681
 20
114.0448951221214
 30
0.0
 10
129.1700187225959
 20
114.2475370887727
 30
0.0
 10
128.8417972860366
 20
114.6245263795305
 30
0.0
 10
128.6575499982617
 20
114.8001843331079
 30
0.0
 10
128.2645898309534
 20
115.1104423020542
 30
0.0
 10
128.0552952339942
 20
115.2463875097041
 30
0.0
 10
127.6104098070568
 20
115.4797776051099
 30
0.0
 10
127.3736122145578
 20
115.5770242115243
 30
0.0
 10
126.8928771456386
 20
115.7236956693957
 30
0.0
 10
126.6466340524557
 20
115.7745880143381
 30
0.0
 10
126.1419172724763
 20
115.8301153645736
 30
0.0
 10
125.8857225715398
 20
115.8339402516435
 30
0.0
 10
125.3833438223397
 20
115.7945164689991
 30
0.0
 10
125.1340941231562
 20
115.7514890197879
 30
0.0
 10
124.6425663256774
 20
115.6177840503366
 30
0.0
 10
124.4072707244515
 20
115.5291142044314
 30
0.0
 10
123.9563568297894
 20
115.310082840654
 30
0.0
 10
123.738744479326
 20
115.1780812749704
 30
0.0
 10
123.3355373097777
 20
114.8787239939675
 30
0.0
 10
123.1499258173433
 20
114.7121050665296
 30
0.0
 10
122.8099377469408
 20
114.3449936411022
 30
0.0
 10
122.6548648161179
 20
114.1426898955614
 30
0.0
 10
122.3885217394545
 20
113.7186092159674
 30
0.0
 10
122.2755376387378
 20
113.4954496105012
 30
0.0
 10
122.0906823818069
 20
113.0260943689071
 30
0.0
 10
122.0195416203035
 20
112.7798838655716
 30
0.0
 10
121.9255812090153
 20
112.2853580392004
 30
0.0
 10
121.9015718790589
 20
112.0344270441084
 30
0.0
 10
121.9009987583864
 20
111.2701816645522
 30
0.0
 10
121.996397869705
 20
110.7679573625012
 30
0.0
 10
122.2742616619061
 20
110.0603928562288
 30
0.0
 10
122.3874236179867
 20
109.836686592488
 30
0.0
 10
122.6535548000305
 20
109.4124166811674
 30
0.0
 10
122.8083825742302
 20
109.2101647191114
 30
0.0
 10
123.1485636800181
 20
108.8424539777432
 30
0.0
 10
123.3340661369678
 20
108.6758371024939
 30
0.0
 10
123.7363599380271
 20
108.3767877236984
 30
0.0
 10
123.9543679862791
 20
108.24433101567
 30
0.0
 10
124.4049663534294
 20
108.0251246149653
 30
0.0
 10
124.6395153523102
 20
107.9366394849617
 30
0.0
 10
125.1279753458625
 20
107.8031532550231
 30
0.0
 10
125.3802407415764
 20
107.7592115425293
 30
0.0
 10
125.8824213797367
 20
107.7194025460558
 30
0.0
 10
126.1349034970884
 20
107.7227467588693
 30
0.0
 10
126.6427685401578
 20
107.7779260788598
 30
0.0
 10
126.8903140133417
 20
107.8289720073293
 30
0.0
 10
127.3712815508124
 20
107.9753823955648
 30
0.0
 10
127.6072414159176
 20
108.0720286003384
 30
0.0
 10
128.0538118654392
 20
108.3059335446515
 30
0.0
 10
128.2634567280127
 20
108.442058558478
 30
0.0
 10
128.6564434347672
 20
108.7521128228071
 30
0.0
 10
128.8408393385822
 20
108.9277700703822
 30
0.0
 10
129.1693897564426
 20
109.3049099930466
 30
0.0
 10
129.3153318529657
 20
109.5073761983165
 30
0.0
 10
129.5702172081679
 20
109.9409524964498
 30
0.0
 10
129.6785285209762
 20
110.1722443400314
 30
0.0
 10
129.8483634983932
 20
110.6456040201646
 30
0.0
 10
129.9113588595302
 20
110.8898858169854
 30
0.0
 10
129.9513797000245
 20
111.1422125438654
 30
0.0
  0
SPLINE
  5
117
330
1F
100
AcDbEntity
  8
0
  6
HIDDEN
 62
     7
370
     0
100
AcDbSpline
210
0.0
220
0.0
230
1.0
 70
     8
 71
     3
 72
    62
 73
    58
 74
     0
 42
0.00000001
 43
0.00000001
 12
1.0
 22
0.0
 32
0.0
 13
1.0
 23
0.0
 33
0.0
 40
-0.0312500000000008
 40
-0.0312500000000008
 40
0.0
 40
0.0
 40
0.0312499999999981
 40
0.0312499999999981
 40
0.0624999999999962
 40
0.0624999999999962
 40
0.1249999999999952
 40
0.1249999999999952
 40
0.1874999999999942
 40
0.1874999999999942
 40
0.2187499999999943
 40
0.2187499999999943
 40
0.2499999999999943
 40
0.2499999999999943
 40
0.2812499999999944
 40
0.2812499999999944
 40
0.3124999999999945
 40
0.3124999999999945
 40
0.3437499999999946
 40
0.3437499999999946
 40
0.3749999999999947
 40
0.3749999999999947
 40
0.4374999999999949
 40
0.4374999999999949
 40
0.4687499999999949
 40
0.4687499999999949
 40
0.4999999999999951
 40
0.4999999999999951
 40
0.5312499999999952
 40
0.5312499999999952
 40
0.5624999999999952
 40
0.5624999999999952
 40
0.5937499999999953
 40
0.5937499999999953
 40
0.6249999999999954
 40
0.6249999999999954
 40
0.6562499999999956
 40
0.6562499999999956
 40
0.6874999999999956
 40
0.6874999999999956
 40
0.7187499999999957
 40
0.7187499999999957
 40
0.7499999999999958
 40
0.7499999999999958
 40
0.7812499999999959
 40
0.7812499999999959
 40
0.8124999999999959
 40
0.8124999999999959
 40
0.8749999999999973
 40
0.8749999999999973
 40
0.906249999999998
 40
0.906249999999998
 40
0.9374999999999986
 40
0.9374999999999986
 40
0.9687499999999992
 40
0.9687499999999992
 40
1.0
 40
1.0
 40
1.031249999999998
 40
1.031249999999998
 10
224.3101814760446
 20
110.921218577503
 30
0.0
 10
224.5925779240044
 20
110.921218577503
 30
0.0
 10
224.7308558010182
 20
110.9371226395208
 30
0.0
 10
225.002021872226
 20
110.9984744977177
 30
0.0
 10
225.1362251996856
 20
111.0447383105496
 30
0.0
 10
225.5152883794757
 20
111.220835978009
 30
0.0
 10
225.7442953011696
 20
111.390593831014
 30
0.0
 10
226.1253259201723
 20
111.7961162284794
 30
0.0
 10
226.280948997094
 20
112.0361060204897
 30
0.0
 10
226.4400194736626
 20
112.4184425925275
 30
0.0
 10
226.481746618806
 20
112.5525753799821
 30
0.0
 10
226.537017319948
 20
112.819762250572
 30
0.0
 10
226.5510972514378
 20
112.9530631969915
 30
0.0
 10
226.551653817759
 20
113.2189069037379
 30
0.0
 10
226.5376645403384
 20
113.3511220534497
 30
0.0
 10
226.4831830211027
 20
113.6014300277253
 30
0.0
 10
226.4423325629478
 20
113.7222519397977
 30
0.0
 10
226.3357185960884
 20
113.9496117993259
 30
0.0
 10
226.2709664538154
 20
114.0546274472618
 30
0.0
 10
226.1194079118628
 20
114.2494522722408
 30
0.0
 10
226.0320697886897
 20
114.3393372261825
 30
0.0
 10
225.7462933677282
 20
114.5783724781656
 30
0.0
 10
225.5167570192625
 20
114.7030123796791
 30
0.0
 10
225.1404388832681
 20
114.8285820519745
 30
0.0
 10
225.0081059749074
 20
114.8609012432413
 30
0.0
 10
224.7340733159166
 20
114.904504428466
 30
0.0
 10
224.5960481562945
 20
114.9153609055717
 30
0.0
 10
224.3179767750757
 20
114.9159392706622
 30
0.0
 10
224.1762638364054
 20
114.9052408155797
 30
0.0
 10
223.9038415807251
 20
114.8628045547916
 30
0.0
 10
223.772013436228
 20
114.8313289287734
 30
0.0
 10
223.5166145406234
 20
114.7470548449024
 30
0.0
 10
223.396448537434
 20
114.6953226550282
 30
0.0
 10
223.1712771248777
 20
114.5730509212394
 30
0.0
 10
223.0651260635433
 20
114.5015643240124
 30
0.0
 10
222.8736787748412
 20
114.3422306372924
 30
0.0
 10
222.7877447609217
 20
114.2543130296056
 30
0.0
 10
222.6353324428816
 20
114.0599240650096
 30
0.0
 10
222.5691489525941
 20
113.9531284576709
 30
0.0
 10
222.462967254043
 20
113.7286065043308
 30
0.0
 10
222.4219871908273
 20
113.6098132444937
 30
0.0
 10
222.3659070500299
 20
113.3573946433956
 30
0.0
 10
222.3516828745886
 20
113.2264603421935
 30
0.0
 10
222.3510861907171
 20
112.9620349154635
 30
0.0
 10
222.3648547582156
 20
112.8258529648729
 30
0.0
 10
222.4197048251576
 20
112.5571671934743
 30
0.0
 10
222.4602013384341
 20
112.4255786354327
 30
0.0
 10
222.6196638096102
 20
112.0392652432929
 30
0.0
 10
222.7743322339245
 20
111.799783173958
 30
0.0
 10
223.0626402652691
 20
111.4923958317873
 30
0.0
 10
223.1666650806169
 20
111.3999331096093
 30
0.0
 10
223.3910843387957
 20
111.2353141334865
 30
0.0
 10
223.5130151266562
 20
111.1625908914451
 30
0.0
 10
223.7654722780822
 20
111.0451545027393
 30
0.0
 10
223.8963588079993
 20
110.9997752816545
 30
0.0
 10
224.1682997257122
 20
110.9376369023739
 30
0.0
 10
224.3101814760446
 20
110.921218577503
 30
0.0
 10
224.5925779240044
 20
110.921218577503
 30
0.0
  0
SPLINE
  5
118
330
1F
100
AcDbEntity
  8
0
  6
HIDDEN
 62
     7
370
     0
100
AcDbSpline
210
0.0
220
0.0
230
1.0
 70
     8
 71
     3
 72
     8
 73
     4
 74
     0
 42
0.00000001
 43
0.00000001
 12
1.0
 22
0.0
 32
0.0
 13
1.0
 23
0.0
 33
0.0
 40
0.0
 40
0.0
 40
0.0
 40
0.0
 40
1.0
 40
1.0
 40
1.0
 40
1.0
 10
225.5505056467627
 20
113.3585879938608
 30
0.0
 10
225.5314571651931
 20
113.4524708676779
 30
0.0
 10
225.5531783970582
 20
113.5679084970039
 30
0.0
 10
225.6114527123414
 20
113.7077573545955
 30
0.0
  0
SPLINE
  5
119
330
1F
100
AcDbEntity
  8
0
  6
HIDDEN
 62
     7
370
     0
100
AcDbSpline
210
0.0
220
0.0
230
1.0
 70
     8
 71
     3
 72
    16
 73
    12
 74
     0
 42
0.00000001
 43
0.00000001
 12
1.0
 22
0.0
 32
0.0
 13
1.0
 23
0.0
 33
0.0
 40
0.0
 40
0.0
 40
0.0
 40
0.0
 40
0.1250000000000031
 40
0.1250000000000031
 40
0.2500000000000063
 40
0.2500000000000063
 40
0.5000000000000042
 40
0.5000000000000042
 40
0.7500000000000021
 40
0.7500000000000021
 40
1.0
 40
1.0
 40
1.0
 40
1.0
 10
225.6114527123411
 20
113.7077573545963
 30
0.0
 10
225.7021279080049
 20
113.7781494850198
 30
0.0
 10
225.7782221566417
 20
113.853614998169
 30
0.0
 10
225.9198861297855
 20
114.012342255436
 30
0.0
 10
225.984562662112
 20
114.0957465699638
 30
0.0
 10
226.1653691940914
 20
114.3582823157087
 30
0.0
 10
226.2665331933457
 20
114.5473914559492
 30
0.0
 10
226.4279050743885
 20
114.9478740237288
 30
0.0
 10
226.4893300228721
 20
115.1643254385694
 30
0.0
 10
226.5560758618319
 20
115.6088476940665
 30
0.0
 10
226.5620372179443
 20
115.8401949649118
 30
0.0
 10
226.5313965291408
 20
116.0687324739333
 30
0.0
  0
SPLINE
  5
11A
330
1F
100
AcDbEntity
  8
0
  6
HIDDEN
 62
     7
370
     0
100
AcDbSpline
210
0.0
220
0.0
230
1.0
 70
     8
 71
     3
 72
    52
 73
    48
 74
     0
 42
0.00000001
 43
0.00000001
 12
1.0
 22
0.0
 32
0.0
 13
1.0
 23
0.0
 33
0.0
 40
0.0
 40
0.0
 40
0.0
 40
0.0
 40
0.0625000000000026
 40
0.0625000000000026
 40
0.1250000000000052
 40
0.1250000000000052
 40
0.1875000000000078
 40
0.1875000000000078
 40
0.2187500000000075
 40
0.2187500000000075
 40
0.2500000000000072
 40
0.2500000000000072
 40
0.2812500000000069
 40
0.2812500000000069
 40
0.2968750000000071
 40
0.2968750000000071
 40
0.3125000000000073
 40
0.3125000000000073
 40
0.3437500000000082
 40
0.3437500000000082
 40
0.375000000000009
 40
0.375000000000009
 40
0.4375000000000083
 40
0.4375000000000083
 40
0.5000000000000074
 40
0.5000000000000074
 40
0.5625000000000067
 40
0.5625000000000067
 40
0.625000000000006
 40
0.625000000000006
 40
0.6562500000000057
 40
0.6562500000000057
 40
0.6875000000000052
 40
0.6875000000000052
 40
0.7187500000000049
 40
0.7187500000000049
 40
0.7500000000000046
 40
0.7500000000000046
 40
0.8125000000000034
 40
0.8125000000000034
 40
0.8750000000000024
 40
0.8750000000000024
 40
0.9375000000000013
 40
0.9375000000000013
 40
0.9687500000000007
 40
0.9687500000000007
 40
1.0
 40
1.0
 40
1.0
 40
1.0
 10
226.0023885101228
 20
117.1403285404084
 30
0.0
 10
225.8582262284392
 20
117.2721555265982
 30
0.0
 10
225.7009449633584
 20
117.3653101979821
 30
0.0
 10
225.3671355885594
 20
117.4922936538233
 30
0.0
 10
225.1971286928733
 20
117.5231326054905
 30
0.0
 10
224.8593115661129
 20
117.5344543500297
 30
0.0
 10
224.6902845123154
 20
117.5143229030251
 30
0.0
 10
224.4510924906239
 20
117.4536671095709
 30
0.0
 10
224.3732810412137
 20
117.4283318152899
 30
0.0
 10
224.2241035357113
 20
117.3682237112761
 30
0.0
 10
224.1523950350203
 20
117.3333380319882
 30
0.0
 10
224.027379616468
 20
117.2569370123435
 30
0.0
 10
223.9722505370615
 20
117.2143236657586
 30
0.0
 10
223.9393442431866
 20
117.1565870588338
 30
0.0
 10
223.9376551887533
 20
117.1389444604125
 30
0.0
 10
223.9528893334127
 20
117.1087543323465
 30
0.0
 10
223.9692439557068
 20
117.0961768646602
 30
0.0
 10
224.0323400218149
 20
117.0626755326702
 30
0.0
 10
224.0906326675057
 20
117.0453644504632
 30
0.0
 10
224.2170818022614
 20
117.0076352871631
 30
0.0
 10
224.2860434395699
 20
116.987730040119
 30
0.0
 10
224.4990409784763
 20
116.9202500995779
 30
0.0
 10
224.6504822180358
 20
116.8648242241798
 30
0.0
 10
224.9647949168293
 20
116.7208882964712
 30
0.0
 10
225.126473592228
 20
116.6332167712975
 30
0.0
 10
225.448701668233
 20
116.4208924164313
 30
0.0
 10
225.6122938979448
 20
116.2938965446562
 30
0.0
 10
225.9190458054052
 20
116.0019605164103
 30
0.0
 10
226.0652816657563
 20
115.83346637917
 30
0.0
 10
226.2475573501592
 20
115.5624477971511
 30
0.0
 10
226.3028347120483
 20
115.4679643653549
 30
0.0
 10
226.396009411568
 20
115.280892450035
 30
0.0
 10
226.4349016958973
 20
115.1867826884685
 30
0.0
 10
226.4964556889944
 20
114.9994229677663
 30
0.0
 10
226.5182931646407
 20
114.9089123954122
 30
0.0
 10
226.546310682819
 20
114.7333419584333
 30
0.0
 10
226.5523302059572
 20
114.6480153823411
 30
0.0
 10
226.54910735376
 20
114.4081860284332
 30
0.0
 10
226.5190993700075
 20
114.2644367457601
 30
0.0
 10
226.4194689394509
 20
114.0118925551336
 30
0.0
 10
226.3507547455342
 20
113.9035539017431
 30
0.0
 10
226.1814219188385
 20
113.7128666516126
 30
0.0
 10
226.0813640568459
 20
113.6317990640696
 30
0.0
 10
225.9089454527038
 20
113.525882955617
 30
0.0
 10
225.847580275711
 20
113.4930573616548
 30
0.0
 10
225.7120700357224
 20
113.4281082398702
 30
0.0
 10
225.6375490020482
 20
113.3960942661553
 30
0.0
 10
225.5505056467636
 20
113.3585879938615
 30
0.0
  0
LWPOLYLINE
  5
11B
330
1F
100
AcDbEntity
  8
0
  6
HIDDEN
 62
     7
370
     0
100
AcDbPolyline
 90
       20
 70
   128
 43
0.0
 10
226.0023862556
 20
117.1403283625
 10
225.5165040925
 20
117.5151214375
 10
224.9360815123
 20
117.7371529302
 10
224.3126541808
 20
117.7867183833
 10
223.701527758
 20
117.6594182289
 10
223.1569573716
 20
117.3665512724
 10
222.7272600368
 20
116.9341083987
 10
222.4505827263
 20
116.400469411
 10
222.3514751032
 20
115.8129939249
 10
222.4387363032
 20
115.2238208706
 10
222.7046102718
 20
114.6852386555
 10
223.1255159214
 20
114.2450462467
 10
223.6640885905
 20
113.9423107634
 10
224.2725328043
 20
113.8038996978
 10
224.8968542054
 20
113.8420971947
 10
225.4816353753
 20
114.0535130071
 10
225.9749830201
 20
114.4193840119
 10
226.3331100777
 20
114.9072396475
 10
226.5242323712
 20
115.4737824945
 10
226.5313998297
 20
116.06873231
  0
ARC
  5
11C
330
1F
100
AcDbEntity
  8
0
  6
HIDDEN
 62
     7
370
     0
100
AcDbCircle
 10
225.1978738507
 20
113.6000422148
 30
0.0
 40
0.4273772847061138
100
AcDbArc
 50
325.599982241
 51
14.5981260354
  0
SPLINE
  5
11D
330
1F
100
AcDbEntity
  8
0
  6
HIDDEN
 62
     7
370
     0
100
AcDbSpline
210
0.0
220
0.0
230
1.0
 70
     8
 71
     3
 72
    14
 73
    10
 74
     0
 42
0.00000001
 43
0.00000001
 12
1.0
 22
0.0
 32
0.0
 13
1.0
 23
0.0
 33
0.0
 40
0.0
 40
0.0
 40
0.0
 40
0.0
 40
0.25
 40
0.25
 40
0.5
 40
0.5
 40
0.75
 40
0.75
 40
1.0
 40
1.0
 40
1.0
 40
1.0
 10
226.531396529141
 20
116.0687324739334
 30
0.0
 10
226.4654702520338
 20
116.1530314266811
 30
0.0
 10
226.4065812107761
 20
116.2409391016566
 30
0.0
 10
226.2979736653982
 20
116.4209048246401
 30
0.0
 10
226.2477476214304
 20
116.5138959234384
 30
0.0
 10
226.1573463089396
 20
116.6977782255258
 30
0.0
 10
226.1172444323979
 20
116.7882844113564
 30
0.0
 10
226.0489249994955
 20
116.9672431840042
 30
0.0
 10
226.0209736321569
 20
117.055821974532
 30
0.0
 10
226.0023885101228
 20
117.1403285404083
 30
0.0
  0
LINE
  5
11E
330
1F
100
AcDbEntity
  8
0
  6
HIDDEN
 62
     7
370
     0
100
AcDbLine
 10
131.7013794989
 20
120.7766410335
 30
0.0
 11
131.7013794989
 21
102.7766418083
 31
0.0
  0
LINE
  5
11F
330
1F
100
AcDbEntity
  8
0
  6
HIDDEN
 62
     7
370
     0
100
AcDbLine
 10
130.4513797596
 20
101.5266411378
 30
0.0
 11
130.4513797596
 21
122.026641704
 31
0.0
  0
LINE
  5
120
330
1F
100
AcDbEntity
  8
0
  6
HIDDEN
 62
     7
370
     0
100
AcDbLine
 10
157.45138046
 20
120.7766410335
 30
0.0
 11
157.45138046
 21
102.7766418083
 31
0.0
  0
LINE
  5
121
330
1F
100
AcDbEntity
  8
0
  6
HIDDEN
 62
     7
370
     0
100
AcDbLine
 10
160.3054669187
 20
116.0266416519
 30
0.0
 11
160.3054669187
 21
107.5266411899
 31
0.0
  0
SPLINE
  5
122
330
1F
100
AcDbEntity
  8
0
  6
HIDDEN
 62
     7
370
     0
100
AcDbSpline
210
0.0
220
0.0
230
1.0
 70
     8
 71
     3
 72
    62
 73
    58
 74
     0
 42
0.00000001
 43
0.00000001
 12
1.0
 22
0.0
 32
0.0
 13
1.0
 23
0.0
 33
0.0
 40
-0.0312499999999998
 40
-0.0312499999999998
 40
0.0
 40
0.0
 40
0.0312499999999982
 40
0.0312499999999982
 40
0.0624999999999964
 40
0.0624999999999964
 40
0.1249999999999957
 40
0.1249999999999957
 40
0.1874999999999949
 40
0.1874999999999949
 40
0.2187499999999952
 40
0.2187499999999952
 40
0.2499999999999954
 40
0.2499999999999954
 40
0.2812499999999957
 40
0.2812499999999957
 40
0.3124999999999959
 40
0.3124999999999959
 40
0.3437499999999961
 40
0.3437499999999961
 40
0.3749999999999963
 40
0.3749999999999963
 40
0.4374999999999967
 40
0.4374999999999967
 40
0.4687499999999969
 40
0.4687499999999969
 40
0.4999999999999971
 40
0.4999999999999971
 40
0.5312499999999973
 40
0.5312499999999973
 40
0.5624999999999976
 40
0.5624999999999976
 40
0.5937499999999978
 40
0.5937499999999978
 40
0.624999999999998
 40
0.624999999999998
 40
0.6562499999999982
 40
0.6562499999999982
 40
0.6874999999999984
 40
0.6874999999999984
 40
0.7187499999999987
 40
0.7187499999999987
 40
0.7499999999999988
 40
0.7499999999999988
 40
0.781249999999999
 40
0.781249999999999
 40
0.8124999999999992
 40
0.8124999999999992
 40
0.8750000000000009
 40
0.8750000000000009
 40
0.9062500000000007
 40
0.9062500000000007
 40
0.9375000000000004
 40
0.9375000000000004
 40
0.9687500000000002
 40
0.9687500000000002
 40
1.0
 40
1.0
 40
1.031249999999998
 40
1.031249999999998
 10
224.5925779240044
 20
108.6376268958332
 30
0.0
 10
224.3101814760446
 20
108.6376268958332
 30
0.0
 10
224.1719035990309
 20
108.6485224003547
 30
0.0
 10
223.900737527823
 20
108.6911662023734
 30
0.0
 10
223.7665342003635
 20
108.7235058157084
 30
0.0
 10
223.3874710205733
 20
108.8493664764397
 30
0.0
 10
223.1584640988795
 20
108.9737037475759
 30
0.0
 10
222.7774334798767
 20
109.2914891190487
 30
0.0
 10
222.6218104029551
 20
109.4885612614672
 30
0.0
 10
222.4627399263865
 20
109.8252775807915
 30
0.0
 10
222.4210127812431
 20
109.9469696683906
 30
0.0
 10
222.3657420801011
 20
110.1975349006826
 30
0.0
 10
222.3516621486113
 20
110.3265049992494
 30
0.0
 10
222.3511055822901
 20
110.5921787411924
 30
0.0
 10
222.3650948597107
 20
110.7286968389293
 30
0.0
 10
222.4195763789463
 20
110.9953954488498
 30
0.0
 10
222.4604268371013
 20
111.1284107373024
 30
0.0
 10
222.5670408039607
 20
111.3863718535179
 30
0.0
 10
222.6317929462337
 20
111.5095052875181
 30
0.0
 10
222.7833514881863
 20
111.7443079571984
 30
0.0
 10
222.8706896113594
 20
111.8561577650189
 30
0.0
 10
223.1564660323209
 20
112.1610729782617
 30
0.0
 10
223.3860023807866
 20
112.331218442489
 30
0.0
 10
223.762320516781
 20
112.5068547473917
 30
0.0
 10
223.8946534251416
 20
112.5530668440932
 30
0.0
 10
224.1686860841324
 20
112.6157850138668
 30
0.0
 10
224.3067112437547
 20
112.631635575694
 30
0.0
 10
224.5847826249733
 20
112.6324759301966
 30
0.0
 10
224.7264955636437
 20
112.6168567902479
 30
0.0
 10
224.998917819324
 20
112.5557927288351
 30
0.0
 10
225.1307459638211
 20
112.5107389478424
 30
0.0
 10
225.3861448594257
 20
112.3927816347436
 30
0.0
 10
225.506310862615
 20
112.3214079343491
 30
0.0
 10
225.7314822751714
 20
112.1572069119579
 30
0.0
 10
225.8376333365057
 20
112.0631632545807
 30
0.0
 10
226.0290806252079
 20
111.8597836639421
 30
0.0
 10
226.1150146391274
 20
111.7502891742391
 30
0.0
 10
226.2674269571675
 20
111.5157719904416
 30
0.0
 10
226.3336104474549
 20
111.3904789546523
 30
0.0
 10
226.4397921460061
 20
111.1355085024607
 30
0.0
 10
226.4807722092218
 20
111.0044987686639
 30
0.0
 10
226.5368523500191
 20
110.7352186688031
 30
0.0
 10
226.5510765254605
 20
110.59990847375
 30
0.0
 10
226.5516732093319
 20
110.3353008311211
 30
0.0
 10
226.5379046418335
 20
110.2033553455186
 30
0.0
 10
226.4830545748914
 20
109.9511714278582
 30
0.0
 10
226.442558061615
 20
109.8316703638338
 30
0.0
 10
226.2830955904388
 20
109.4911342687852
 30
0.0
 10
226.1284271661246
 20
109.2944055798426
 30
0.0
 10
225.84011913478
 20
109.0534591146809
 30
0.0
 10
225.7360943194321
 20
108.9831473663005
 30
0.0
 10
225.5116750612534
 20
108.8604798585827
 30
0.0
 10
225.3897442733929
 20
108.8077411879616
 30
0.0
 10
225.1372871219668
 20
108.7237996193962
 30
0.0
 10
225.0064005920497
 20
108.6920745189294
 30
0.0
 10
224.7344596743369
 20
108.6488757877451
 30
0.0
 10
224.5925779240044
 20
108.6376268958332
 30
0.0
 10
224.3101814760446
 20
108.6376268958332
 30
0.0
  0
LINE
  5
123
330
1F
100
AcDbEntity
  8
0
  6
HIDDEN
 62
     7
370
     0
100
AcDbLine
 10
227.4513826207
 20
107.5266411899
 30
0.0
 11
227.4513826207
 21
116.0266416519
 31
0.0
  0
LINE
  5
124
330
1F
100
AcDbEntity
  8
0
  6
HIDDEN
 62
     7
370
     0
100
AcDbLine
 10
240.9513801769
 20
95.2766415103
 30
0.0
 11
240.9513801769
 21
111.7766414209
 31
0.0
  0
SPLINE
  5
125
330
1F
100
AcDbEntity
  8
0
  6
HIDDEN
 62
     7
370
     0
100
AcDbSpline
210
0.0
220
0.0
230
1.0
 70
     8
 71
     3
 72
    14
 73
    10
 74
     0
 42
0.00000001
 43
0.00000001
 12
1.0
 22
0.0
 32
0.0
 13
1.0
 23
0.0
 33
0.0
 40
0.0
 40
0.0
 40
0.0
 40
0.0
 40
0.2499999999999983
 40
0.2499999999999983
 40
0.3749999999999983
 40
0.3749999999999983
 40
0.4999999999999983
 40
0.4999999999999983
 40
1.0
 40
1.0
 40
1.0
 40
1.0
 10
242.7736886518271
 20
119.7426319635203
 30
0.0
 10
242.5011971932484
 20
119.1158834550845
 30
0.0
 10
242.2504517596473
 20
118.4794558311592
 30
0.0
 10
241.9153249560273
 20
117.5065692226484
 30
0.0
 10
241.8104678046696
 20
117.1792239704588
 30
0.0
 10
241.6161021100534
 20
116.5177018290081
 30
0.0
 10
241.5263967853021
 20
116.1825906664817
 30
0.0
 10
241.1244788422914
 20
114.5044830005074
 30
0.0
 10
240.9513797000245
 20
113.1484570213638
 30
0.0
 10
240.9513797000245
 20
111.7766414208879
 30
0.0
  0
SPLINE
  5
126
330
1F
100
AcDbEntity
  8
0
  6
HIDDEN
 62
     7
370
     0
100
AcDbSpline
210
0.0
220
0.0
230
1.0
 70
     8
 71
     3
 72
    26
 73
    22
 74
     0
 42
0.00000001
 43
0.00000001
 12
1.0
 22
0.0
 32
0.0
 13
1.0
 23
0.0
 33
0.0
 40
0.0
 40
0.0
 40
0.0
 40
0.0
 40
0.1249999999999995
 40
0.1249999999999995
 40
0.1874999999999994
 40
0.1874999999999994
 40
0.2499999999999992
 40
0.2499999999999992
 40
0.3749999999999993
 40
0.3749999999999993
 40
0.4374999999999993
 40
0.4374999999999993
 40
0.4999999999999994
 40
0.4999999999999994
 40
0.7499999999999994
 40
0.7499999999999994
 40
0.8124999999999994
 40
0.8124999999999994
 40
0.8749999999999993
 40
0.8749999999999993
 40
1.0
 40
1.0
 40
1.0
 40
1.0
 10
244.1488196038369
 20
131.4735860123045
 30
0.0
 10
244.0975607242051
 20
131.4160938761835
 30
0.0
 10
244.0437075837408
 20
131.297480280747
 30
0.0
 10
243.9591516837127
 20
131.0263981070249
 30
0.0
 10
243.9302361080267
 20
130.919980205769
 30
0.0
 10
243.871959688095
 20
130.6786417419585
 30
0.0
 10
243.8425375552982
 20
130.5436170507398
 30
0.0
 10
243.7535072499103
 20
130.0964678389819
 30
0.0
 10
243.6931363888365
 20
129.7424650776514
 30
0.0
 10
243.6013725899257
 20
129.1278446355477
 30
0.0
 10
243.5705830390602
 20
128.9089857351841
 30
0.0
 10
243.5086507693775
 20
128.4427214562069
 30
0.0
 10
243.477490444101
 20
128.1950420063452
 30
0.0
 10
243.3233566495142
 20
126.9043278347897
 30
0.0
 10
243.2033968696107
 20
125.6935895189007
 30
0.0
 10
243.0599157848352
 20
123.9558203749608
 30
0.0
 10
243.0316298463081
 20
123.5977420040209
 30
0.0
 10
242.9765096755803
 20
122.8682478765715
 30
0.0
 10
242.9495873733628
 20
122.4957800982499
 30
0.0
 10
242.8707767820882
 20
121.3554170072181
 30
0.0
 10
242.8208383741459
 20
120.5646753034757
 30
0.0
 10
242.7736886518271
 20
119.7426319635203
 30
0.0
  0
ELLIPSE
  5
127
330
1F
100
AcDbEntity
  8
0
  6
HIDDEN
 62
     7
370
     0
100
AcDbEllipse
 10
259.3017657085
 20
111.7766414209
 30
0.0
 11
11.763690687468
 21
16.48124712370799
 31
0.0
210
0.0
220
0.0
230
1.0
 40
0.0668534593
 41
1.618477629394295
 42
3.189273956189412
  0
LINE
  5
128
330
1F
100
AcDbEntity
  8
0
  6
HIDDEN
 62
     7
370
     0
100
AcDbLine
 10
252.7919248179
 20
122.9473164676
 30
0.0
 11
252.7512446478
 21
122.9260702057
 31
0.0
  0
LINE
  5
129
330
1F
100
AcDbEntity
  8
0
  6
HIDDEN
 62
     7
370
     0
100
AcDbLine
 10
255.6165889338
 20
120.1295311003
 30
0.0
 11
265.0272161201
 21
120.9508486463
 31
0.0
  0
LINE
  5
12A
330
1F
100
AcDbEntity
  8
0
  6
HIDDEN
 62
     7
370
     0
100
AcDbLine
 10
265.0272161201
 20
120.9508486463
 30
0.0
 11
265.0259271696
 21
120.9361514448
 31
0.0
  0
LINE
  5
12B
330
1F
100
AcDbEntity
  8
0
  6
HIDDEN
 62
     7
370
     0
100
AcDbLine
 10
253.611995323
 20
132.2979413344
 30
0.0
 11
252.7919248179
 21
122.9473164676
 31
0.0
  0
ELLIPSE
  5
12C
330
1F
100
AcDbEntity
  8
0
  6
HIDDEN
 62
     7
370
     0
100
AcDbEllipse
 10
253.7456535789
 20
120.4485267891
 30
0.0
 11
2.09928144839779
 21
0.127654356355535
 31
0.0
210
0.0
220
0.0
230
1.0
 40
0.4303093993
 41
5.785598212635374
 42
5.923521446741097
  0
ELLIPSE
  5
12D
330
1F
100
AcDbEntity
  8
0
  6
HIDDEN
 62
     7
370
     0
100
AcDbEllipse
 10
253.7456535789
 20
120.4485267891
 30
0.0
 11
-1.616902374425194
 21
2.318196838028328
 31
0.0
210
0.0
220
0.0
230
1.0
 40
0.57803977
 41
5.737920332829635
 42
5.875843566935347
  0
LINE
  5
12E
330
1F
100
AcDbEntity
  8
0
  6
HIDDEN
 62
     7
370
     0
100
AcDbLine
 10
253.0582085684
 20
122.9153041168
 30
0.0
 11
253.0582085684
 21
122.7492837607
 31
0.0
  0
ARC
  5
12F
330
1F
100
AcDbEntity
  8
0
  6
HIDDEN
 62
     7
370
     0
100
AcDbCircle
 10
253.747228793
 20
120.7682382871
 30
0.0
 40
2.097448458954545
100
AcDbArc
 50
340.9617967491
 51
109.1779999768
  0
LINE
  5
130
330
1F
100
AcDbEntity
  8
0
  6
HIDDEN
 62
     7
370
     0
100
AcDbLine
 10
255.7299495176
 20
120.0840536876
 30
0.0
 11
255.7299495176
 21
120.2500740437
 31
0.0
  0
ARC
  5
131
330
1F
100
AcDbEntity
  8
0
  6
HIDDEN
 62
     7
370
     0
100
AcDbCircle
 10
253.7469109135
 20
120.7470890799
 30
0.0
 40
2.095866238593586
100
AcDbArc
 50
269.9655649725
 51
119.3260694311
  0
ARC
  5
132
330
1F
100
AcDbEntity
  8
0
  6
HIDDEN
 62
     7
370
     0
100
AcDbCircle
 10
253.7425897993
 20
120.7479823595
 30
0.0
 40
2.096761374731384
100
AcDbArc
 50
175.4717465329
 51
270.0836578108
  0
LINE
  5
133
330
1F
100
AcDbEntity
  8
0
  6
HIDDEN
 62
     7
370
     0
100
AcDbLine
 10
262.8551483587
 20
119.1320240869
 30
0.0
 11
264.9074629381
 21
119.5853746867
 31
0.0
  0
LINE
  5
134
330
1F
100
AcDbEntity
  8
0
  6
HIDDEN
 62
     7
370
     0
100
AcDbLine
 10
255.7299495176
 20
120.2500740437
 30
0.0
 11
264.7914722994
 21
121.0409233718
 31
0.0
  0
LINE
  5
135
330
1F
100
AcDbEntity
  8
0
  6
HIDDEN
 62
     7
370
     0
100
AcDbLine
 10
265.0272161201
 20
120.9508486463
 30
0.0
 11
264.7914722994
 21
121.0409233718
 31
0.0
  0
LINE
  5
136
330
1F
100
AcDbEntity
  8
0
  6
HIDDEN
 62
     7
370
     0
100
AcDbLine
 10
253.8614184097
 20
132.0736546441
 30
0.0
 11
253.0582085684
 21
122.9153041168
 31
0.0
  0
ELLIPSE
  5
137
330
1F
100
AcDbEntity
  8
0
  6
HIDDEN
 62
     7
370
     0
100
AcDbEllipse
 10
251.9484134368
 20
113.117727863
 30
0.0
 11
1.563905465413569
 21
19.20496181771458
 31
0.0
210
0.0
220
0.0
230
1.0
 40
0.1268365588
 41
6.131969490805066
 42
6.241701813834834
  0
ELLIPSE
  5
138
330
1F
100
AcDbEntity
  8
0
  6
HIDDEN
 62
     7
370
     0
100
AcDbEllipse
 10
264.4280998734
 20
114.2095589505
 30
0.0
 11
1.891564442790866
 21
19.23368928549792
 31
0.0
210
0.0
220
0.0
230
1.0
 40
0.1143262497
 41
0.3251632554038067
 42
1.192201791185871
  0
LINE
  5
139
330
1F
100
AcDbEntity
  8
0
  6
HIDDEN
 62
     7
370
     0
100
AcDbLine
 10
264.7914722994
 20
121.0409233718
 30
0.0
 11
264.4958705142
 21
120.849104449
 31
0.0
  0
LINE
  5
13A
330
1F
100
AcDbEntity
  8
0
  6
HIDDEN
 62
     7
370
     0
100
AcDbLine
 10
253.8259610966
 20
131.5034095569
 30
0.0
 11
253.0582085684
 21
122.7492837607
 31
0.0
  0
ELLIPSE
  5
13B
330
1F
100
AcDbEntity
  8
0
  6
HIDDEN
 62
     7
370
     0
100
AcDbEllipse
 10
252.1889268967
 20
113.1387700641
 30
0.0
 11
1.677499657206852
 21
19.21932851201902
 31
0.0
210
0.0
220
0.0
230
1.0
 40
0.0059876405
 41
5.984362141500808
 42
6.111448254451451
  0
LWPOLYLINE
  5
13C
330
1F
100
AcDbEntity
  8
0
  6
HIDDEN
 62
     7
370
     0
100
AcDbPolyline
 90
       22
 70
   128
 43
0.0
 10
224.451376541
 20
106.6892527415
 10
225.0703633264
 20
106.7779835685
 10
225.6343499258
 20
107.0362919381
 10
226.0932237342
 20
107.4412258713
 10
226.4062151745
 20
107.956805583
 10
226.5455112294
 20
108.5372190828
 10
226.4987290338
 20
109.1308943833
 10
226.2700334624
 20
109.6850809081
 10
225.8797422484
 20
110.1505363731
 10
225.3625378445
 20
110.4859033039
 10
224.7643679813
 20
110.6613828706
 10
224.1383925513
 20
110.6613828706
 10
223.540222688
 20
110.4859033039
 10
223.0230182842
 20
110.1505363731
 10
222.6327270702
 20
109.6850809081
 10
222.4040314987
 20
109.1308943833
 10
222.3572493032
 20
108.5372190828
 10
222.496545358
 20
107.956805583
 10
222.8095367983
 20
107.4412258713
 10
223.2684106067
 20
107.0362919381
 10
223.8323972061
 20
106.7779835685
 10
224.451376541
 20
106.6892527415
  0
CIRCLE
  5
13D
330
1F
100
AcDbEntity
  8
0
  6
HIDDEN
 62
     7
370
     0
100
AcDbCircle
 10
259.4648065363
 20
126.4813005552
 30
0.0
 40
2.997775346259545
  0
LINE
  5
13E
330
1F
100
AcDbEntity
  8
0
  6
HIDDEN
 62
     7
370
     0
100
AcDbLine
 10
255.7299495176
 20
120.0840536876
 30
0.0
 11
264.4958705142
 21
120.849104449
 31
0.0
  0
ELLIPSE
  5
13F
330
1F
100
AcDbEntity
  8
0
  6
HIDDEN
 62
     7
370
     0
100
AcDbEllipse
 10
-455.3334725782
 20
51.2385809194
 30
0.0
 11
3113.331223476238
 21
271.0557416021197
 31
0.0
210
0.0
220
0.0
230
1.0
 40
0.0060650906
 41
1.336610939312848
 42
1.340469575624206
  0
LINE
  5
140
330
1F
100
AcDbEntity
  8
0
  6
HIDDEN
 62
     7
370
     0
100
AcDbLine
 10
265.5180678204
 20
132.5044621153
 30
0.0
 11
264.4958705142
 21
120.849104449
 31
0.0
  0
CIRCLE
  5
141
330
1F
100
AcDbEntity
  8
0
  6
HIDDEN
 62
     7
370
     0
100
AcDbCircle
 10
259.4649118555
 20
126.4175118883
 30
0.0
 40
2.098905737637012
  0
SPLINE
  5
142
330
1F
100
AcDbEntity
  8
0
  6
HIDDEN
 62
     7
370
     0
100
AcDbSpline
210
0.0
220
0.0
230
1.0
 70
     8
 71
     3
 72
    58
 73
    54
 74
     0
 42
0.00000001
 43
0.00000001
 12
1.0
 22
0.0
 32
0.0
 13
1.0
 23
0.0
 33
0.0
 40
-0.0312500000000006
 40
-0.0312500000000006
 40
0.0
 40
0.0
 40
0.0312499999999998
 40
0.0312499999999998
 40
0.0624999999999995
 40
0.0624999999999995
 40
0.0937499999999993
 40
0.0937499999999993
 40
0.1249999999999991
 40
0.1249999999999991
 40
0.1874999999999988
 40
0.1874999999999988
 40
0.2499999999999985
 40
0.2499999999999985
 40
0.3124999999999982
 40
0.3124999999999982
 40
0.3749999999999979
 40
0.3749999999999979
 40
0.4062499999999978
 40
0.4062499999999978
 40
0.4374999999999977
 40
0.4374999999999977
 40
0.4687499999999976
 40
0.4687499999999976
 40
0.4999999999999974
 40
0.4999999999999974
 40
0.5312499999999973
 40
0.5312499999999973
 40
0.5624999999999972
 40
0.5624999999999972
 40
0.5937499999999971
 40
0.5937499999999971
 40
0.624999999999997
 40
0.624999999999997
 40
0.6562499999999967
 40
0.6562499999999967
 40
0.6874999999999963
 40
0.6874999999999963
 40
0.7499999999999964
 40
0.7499999999999964
 40
0.8124999999999967
 40
0.8124999999999967
 40
0.8437499999999972
 40
0.8437499999999972
 40
0.8749999999999978
 40
0.8749999999999978
 40
0.9062499999999983
 40
0.9062499999999983
 40
0.9374999999999989
 40
0.9374999999999989
 40
0.9687499999999994
 40
0.9687499999999994
 40
1.0
 40
1.0
 40
1.03125
 40
1.03125
 10
259.2990334863981
 20
123.6008513955312
 30
0.0
 10
259.6329274947952
 20
123.5995749655212
 30
0.0
 10
259.7964309948758
 20
123.619484531915
 30
0.0
 10
260.1168118709665
 20
123.6988087557827
 30
0.0
 10
260.2711848656658
 20
123.7582333321573
 30
0.0
 10
260.5556429232773
 20
123.9077125228471
 30
0.0
 10
260.6882664088492
 20
123.9992156485992
 30
0.0
 10
260.9224994287221
 20
124.2016941012992
 30
0.0
 10
261.0268951065531
 20
124.3148276247144
 30
0.0
 10
261.294588820241
 20
124.6710715909463
 30
0.0
 10
261.4156606151807
 20
124.9342403921408
 30
0.0
 10
261.5564961068079
 20
125.4572667303723
 30
0.0
 10
261.5783524934878
 20
125.7240432242726
 30
0.0
 10
261.5405705242204
 20
126.2325331240671
 30
0.0
 10
261.4820849754053
 20
126.4770345381805
 30
0.0
 10
261.2902860282649
 20
126.9414852275456
 30
0.0
 10
261.1605603992808
 20
127.154435584924
 30
0.0
 10
260.9074853860671
 20
127.4443122269879
 30
0.0
 10
260.8122205161779
 20
127.5365814363585
 30
0.0
 10
260.6021562254204
 20
127.7043406634326
 30
0.0
 10
260.4873604788164
 20
127.7803024164849
 30
0.0
 10
260.2313910563613
 20
127.9125557184679
 30
0.0
 10
260.0927330778355
 20
127.967382473771
 30
0.0
 10
259.7923904183307
 20
128.0456483738942
 30
0.0
 10
259.6307175778476
 20
128.0684459371135
 30
0.0
 10
259.3003133537277
 20
128.0708410328953
 30
0.0
 10
259.1337607954399
 20
128.0503479351045
 30
0.0
 10
258.8158582299501
 20
127.9695155143662
 30
0.0
 10
258.6677187603247
 20
127.9104817412801
 30
0.0
 10
258.3971213527648
 20
127.766601508992
 30
0.0
 10
258.2779927212844
 20
127.6840589278976
 30
0.0
 10
258.0626713186161
 20
127.5027344451241
 30
0.0
 10
257.9667265142866
 20
127.4035329203587
 30
0.0
 10
257.7997606683715
 20
127.197936180797
 30
0.0
 10
257.7276488440124
 20
127.0906064428889
 30
0.0
 10
257.6027560383178
 20
126.8674085722234
 30
0.0
 10
257.5498545639331
 20
126.7508626212082
 30
0.0
 10
257.421625341066
 20
126.3957684991561
 30
0.0
 10
257.374550390585
 20
126.1488658687077
 30
0.0
 10
257.3595065771142
 20
125.6419653428298
 30
0.0
 10
257.391302793152
 20
125.3886433479948
 30
0.0
 10
257.5069963188814
 20
125.0105464938382
 30
0.0
 10
257.5577755885009
 20
124.8837016610985
 30
0.0
 10
257.68338742618
 20
124.6390243043017
 30
0.0
 10
257.7580030056059
 20
124.5209265839898
 30
0.0
 10
257.9342633284761
 20
124.2952706846042
 30
0.0
 10
258.0369404520831
 20
124.1871196630883
 30
0.0
 10
258.2652210387358
 20
123.9936396584179
 30
0.0
 10
258.3921161272124
 20
123.9067282118117
 30
0.0
 10
258.6717821885034
 20
123.7600218802396
 30
0.0
 10
258.8196236165926
 20
123.7026537836032
 30
0.0
 10
259.1323313936969
 20
123.6228826835249
 30
0.0
 10
259.2990334863981
 20
123.6008513955312
 30
0.0
 10
259.6329274947952
 20
123.5995749655212
 30
0.0
  0
LINE
  5
143
330
1F
100
AcDbEntity
  8
0
  6
HIDDEN
 62
     7
370
     0
100
AcDbLine
 10
104.9513802365
 20
96.6725888102
 30
0.0
 11
104.9513802365
 21
90.6182777508
 31
0.0
  0
LINE
  5
144
330
1F
100
AcDbEntity
  8
0
  6
HIDDEN
 62
     7
370
     0
100
AcDbLine
 10
103.4513809219
 20
97.1056016533
 30
0.0
 11
103.4513809219
 21
91.484303437
 31
0.0
  0
LINE
  5
145
330
1F
100
AcDbEntity
  8
0
  6
HIDDEN
 62
     7
370
     0
100
AcDbLine
 10
139.2513797119
 20
96.2417208029
 30
0.0
 11
139.2513797119
 21
89.7565417363
 31
0.0
  0
SPLINE
  5
146
330
1F
100
AcDbEntity
  8
0
  6
HIDDEN
 62
     7
370
     0
100
AcDbSpline
210
0.0
220
0.0
230
1.0
 70
     8
 71
     3
 72
    16
 73
    12
 74
     0
 42
0.00000001
 43
0.00000001
 12
1.0
 22
0.0
 32
0.0
 13
1.0
 23
0.0
 33
0.0
 40
0.0
 40
0.0
 40
0.0
 40
0.0
 40
0.2499999999999995
 40
0.2499999999999995
 40
0.3749999999999996
 40
0.3749999999999996
 40
0.4999999999999997
 40
0.4999999999999997
 40
0.7499999999999998
 40
0.7499999999999998
 40
1.0
 40
1.0
 40
1.0
 40
1.0
 10
140.1300593564649
 20
95.19273479464688
 30
0.0
 10
139.9688268789804
 20
94.47834063245475
 30
0.0
 10
139.8483470393408
 20
93.82499836974607
 30
0.0
 10
139.7259665220275
 20
92.93674312794221
 30
0.0
 10
139.69498886163
 20
92.65606259159034
 30
0.0
 10
139.6533751240021
 20
92.12702860175037
 30
0.0
 10
139.6431392110692
 20
91.88370762317193
 30
0.0
 10
139.6429508140131
 20
91.21568493265869
 30
0.0
 10
139.6830955166508
 20
90.85200402323923
 30
0.0
 10
139.8472492715903
 20
90.29211315069092
 30
0.0
 10
139.9688009219999
 20
90.10459185857378
 30
0.0
 10
140.1300593564649
 20
90.00656046588581
 30
0.0
  0
LINE
  5
147
330
1F
100
AcDbEntity
  8
0
  6
HIDDEN
 62
     7
370
     0
100
AcDbLine
 10
104.9513802365
 20
132.935005091
 30
0.0
 11
104.9513802365
 21
126.8806940316
 31
0.0
  0
LINE
  5
148
330
1F
100
AcDbEntity
  8
0
  6
HIDDEN
 62
     7
370
     0
100
AcDbLine
 10
139.2513797119
 20
133.7967411055
 30
0.0
 11
139.2513797119
 21
127.3115620388
 31
0.0
  0
SPLINE
  5
149
330
1F
100
AcDbEntity
  8
0
  6
HIDDEN
 62
     7
370
     0
100
AcDbSpline
210
0.0
220
0.0
230
1.0
 70
     8
 71
     3
 72
    16
 73
    12
 74
     0
 42
0.00000001
 43
0.00000001
 12
1.0
 22
0.0
 32
0.0
 13
1.0
 23
0.0
 33
0.0
 40
0.0
 40
0.0
 40
0.0
 40
0.0
 40
0.2500000000000002
 40
0.2500000000000002
 40
0.3750000000000003
 40
0.3750000000000003
 40
0.5000000000000004
 40
0.5000000000000004
 40
0.7500000000000002
 40
0.7500000000000002
 40
1.0
 40
1.0
 40
1.0
 40
1.0
 10
140.1300593564649
 20
133.5467223758901
 30
0.0
 10
139.9688268789804
 20
133.4487067628353
 30
0.0
 10
139.8483470393408
 20
133.2619707311592
 30
0.0
 10
139.7259665220275
 20
132.8489309236004
 30
0.0
 10
139.69498886163
 20
132.6889304243674
 30
0.0
 10
139.6533751240021
 20
132.3221247732763
 30
0.0
 10
139.6431392110692
 20
132.1187876206523
 30
0.0
 10
139.6429508140131
 20
131.4515003540256
 30
0.0
 10
139.6830955166508
 20
130.9306858901376
 30
0.0
 10
139.8472492715903
 20
129.7333268746599
 30
0.0
 10
139.9688009219999
 20
129.0750572203639
 30
0.0
 10
140.1300593564649
 20
128.360548047129
 30
0.0
  0
LINE
  5
14A
330
1F
100
AcDbEntity
  8
0
  6
HIDDEN
 62
     7
370
     0
100
AcDbLine
 10
103.4513809219
 20
132.0689794047
 30
0.0
 11
103.4513809219
 21
126.4476811885
 31
0.0
  0
LWPOLYLINE
  5
14B
330
1F
100
AcDbEntity
  8
0
  6
HIDDEN
 62
     7
370
     0
100
AcDbPolyline
 90
       23
 70
   128
 43
0.0
 10
224.451376541
 20
106.2345596402
 10
225.1557097271
 20
106.3308709672
 10
225.8029789165
 20
106.6120018622
 10
226.3407543734
 20
107.0551772973
 10
226.7254576519
 20
107.6244929245
 10
226.9259304241
 20
108.2738273217
 10
226.9259304241
 20
108.9505747332
 10
226.7254576519
 20
109.5999088975
 10
226.3407543734
 20
110.1692249904
 10
225.8029789165
 20
110.6124001926
 10
225.1557097271
 20
110.8935311459
 10
224.451376541
 20
110.9898422983
 10
223.7470508054
 20
110.8935311459
 10
223.0997741655
 20
110.6124001926
 10
222.5620061591
 20
110.1692249904
 10
222.1773028806
 20
109.5999088975
 10
221.9768226579
 20
108.9505747332
 10
221.9768226579
 20
108.2738273217
 10
222.1773028806
 20
107.6244929245
 10
222.5620061591
 20
107.0551772973
 10
223.0997741655
 20
106.6120018622
 10
223.7470508054
 20
106.3308709672
 10
224.451376541
 20
106.2345596402
  0
LINE
  5
14C
330
1F
100
AcDbEntity
  8
0
  6
HIDDEN
 62
     7
370
     0
100
AcDbLine
 10
103.4513809219
 20
126.4476811885
 30
0.0
 11
103.4513809219
 21
114.6786288264
 31
0.0
  0
LINE
  5
14D
330
1F
100
AcDbEntity
  8
0
  6
HIDDEN
 62
     7
370
     0
100
AcDbLine
 10
103.4513809219
 20
108.8746540154
 30
0.0
 11
103.4513809219
 21
97.1056016533
 31
0.0
  0
LINE
  5
14E
330
1F
100
AcDbEntity
  8
0
  6
HIDDEN
 62
     7
370
     0
100
AcDbLine
 10
104.9513802365
 20
107.81143032
 30
0.0
 11
104.9513802365
 21
96.6725888102
 31
0.0
  0
LINE
  5
14F
330
1F
100
AcDbEntity
  8
0
  6
HIDDEN
 62
     7
370
     0
100
AcDbLine
 10
104.9513802365
 20
126.8806940316
 30
0.0
 11
104.9513802365
 21
115.7418525218
 31
0.0
  0
LINE
  5
150
330
1F
100
AcDbEntity
  8
0
  6
HIDDEN
 62
     7
370
     0
100
AcDbLine
 10
141.2513797051
 20
126.814348474
 30
0.0
 11
141.2513797051
 21
96.7389343678
 31
0.0
  0
LINE
  5
151
330
1F
100
AcDbEntity
  8
0
  6
HIDDEN
 62
     7
370
     0
100
AcDbLine
 10
139.2513797119
 20
127.3115620388
 30
0.0
 11
139.2513797119
 21
96.2417208029
 31
0.0
  0
LINE
  5
152
330
1F
100
AcDbEntity
  8
0
  6
HIDDEN
 62
     7
370
     0
100
AcDbLine
 10
263.0840525463
 20
121.5195579826
 30
0.0
 11
242.7736878827
 21
119.7426317631
 31
0.0
  0
LINE
  5
153
330
1F
100
AcDbEntity
  8
0
  6
HIDDEN
 62
     7
370
     0
100
AcDbLine
 10
262.8551483587
 20
119.1320240869
 30
0.0
 11
263.0840525463
 21
121.5195579826
 31
0.0
  0
LINE
  5
154
330
1F
100
AcDbEntity
  8
0
  6
HIDDEN
 62
     7
370
     0
100
AcDbLine
 10
257.6404944495
 20
111.7766414209
 30
0.0
 11
262.8551483587
 21
119.1320240869
 31
0.0
  0
SPLINE
  5
155
330
1F
100
AcDbEntity
  8
0
  6
HIDDEN
 62
     7
370
     0
100
AcDbSpline
210
0.0
220
0.0
230
1.0
 70
     8
 71
     3
 72
     8
 73
     4
 74
     0
 42
0.00000001
 43
0.00000001
 12
1.0
 22
0.0
 32
0.0
 13
1.0
 23
0.0
 33
0.0
 40
0.0000249638557296
 40
0.0000249638557296
 40
0.0000249638557296
 40
0.0000249638557296
 40
0.0049776420541172
 40
0.0049776420541172
 40
0.0049776420541172
 40
0.0049776420541172
 10
104.9513797000245
 20
107.8114305240514
 30
0.0
 10
106.6013559345341
 20
107.7701512862832
 30
0.0
 10
108.2513572542791
 20
107.7299296050437
 30
0.0
 10
109.9013797000245
 20
107.6906803677887
 30
0.0
  0
SPLINE
  5
156
330
1F
100
AcDbEntity
  8
0
  6
HIDDEN
 62
     7
370
     0
100
AcDbSpline
210
0.0
220
0.0
230
1.0
 70
     8
 71
     3
 72
     8
 73
     4
 74
     0
 42
0.00000001
 43
0.00000001
 12
1.0
 22
0.0
 32
0.0
 13
1.0
 23
0.0
 33
0.0
 40
0.0000249631533153
 40
0.0000249631533153
 40
0.0000249631533153
 40
0.0000249631533153
 40
0.0049776413517029
 40
0.0049776413517029
 40
0.0049776413517029
 40
0.0049776413517029
 10
109.9013797000245
 20
115.8626024739872
 30
0.0
 10
108.2513572542791
 20
115.8233532367322
 30
0.0
 10
106.6013559345341
 20
115.7831315554927
 30
0.0
 10
104.9513797000245
 20
115.7418523177245
 30
0.0
  0
SPLINE
  5
157
330
1F
100
AcDbEntity
  8
0
  6
HIDDEN
 62
     7
370
     0
100
AcDbSpline
210
0.0
220
0.0
230
1.0
 70
     8
 71
     3
 72
     8
 73
     4
 74
     0
 42
0.00000001
 43
0.00000001
 12
1.0
 22
0.0
 32
0.0
 13
1.0
 23
0.0
 33
0.0
 40
0.0
 40
0.0
 40
0.0
 40
0.0
 40
1.0
 40
1.0
 40
1.0
 40
1.0
 10
103.4513797000223
 20
108.8746540879076
 30
0.0
 10
103.9181403114001
 20
108.4592908422845
 30
0.0
 10
104.4238878581802
 20
108.11470041298
 30
0.0
 10
104.9513797000245
 20
107.8114305240514
 30
0.0
  0
SPLINE
  5
158
330
1F
100
AcDbEntity
  8
0
  6
HIDDEN
 62
     7
370
     0
100
AcDbSpline
210
0.0
220
0.0
230
1.0
 70
     8
 71
     3
 72
     8
 73
     4
 74
     0
 42
0.00000001
 43
0.00000001
 12
1.0
 22
0.0
 32
0.0
 13
1.0
 23
0.0
 33
0.0
 40
0.0
 40
0.0
 40
0.0
 40
0.0
 40
1.0
 40
1.0
 40
1.0
 40
1.0
 10
104.9513797000245
 20
115.7418523177245
 30
0.0
 10
104.423887858181
 20
115.4385824287964
 30
0.0
 10
103.9181403114017
 20
115.0939919994924
 30
0.0
 10
103.4513797000245
 20
114.6786287538703
 30
0.0
  0
LINE
  5
159
330
1F
100
AcDbEntity
  8
0
  6
HIDDEN
 62
     7
370
     0
100
AcDbLine
 10
103.4513809219
 20
108.8746540154
 30
0.0
 11
103.4513809219
 21
114.6786288264
 31
0.0
  0
LINE
  5
15A
330
1F
100
AcDbEntity
  8
0
  6
HIDDEN
 62
     7
370
     0
100
AcDbLine
 10
109.901378347
 20
107.6906801573
 30
0.0
 11
109.901378347
 21
115.8626026845
 31
0.0
  0
SPLINE
  5
15B
330
1F
100
AcDbEntity
  8
0
  6
HIDDEN
 62
     7
370
     0
100
AcDbSpline
210
0.0
220
0.0
230
1.0
 70
     8
 71
     3
 72
    24
 73
    20
 74
     0
 42
0.00000001
 43
0.00000001
 12
1.0
 22
0.0
 32
0.0
 13
1.0
 23
0.0
 33
0.0
 40
0.0
 40
0.0
 40
0.0
 40
0.0
 40
0.125
 40
0.125
 40
0.25
 40
0.25
 40
0.375
 40
0.375
 40
0.4375
 40
0.4375
 40
0.5
 40
0.5
 40
0.625
 40
0.625
 40
0.75
 40
0.75
 40
0.875
 40
0.875
 40
1.0
 40
1.0
 40
1.0
 40
1.0
 10
109.9013797000245
 20
107.6906803677887
 30
0.0
 10
110.1391833322996
 20
107.9896874701188
 30
0.0
 10
110.3692689935109
 20
108.2940253214375
 30
0.0
 10
110.8040223921207
 20
108.9197588588335
 30
0.0
 10
111.0089551844069
 20
109.2409835861611
 30
0.0
 10
111.3740571349056
 20
109.9129093568938
 30
0.0
 10
111.5358575206971
 20
110.2682245887727
 30
0.0
 10
111.7077177252768
 20
110.8184558101251
 30
0.0
 10
111.753302916937
 20
111.0048595951056
 30
0.0
 10
111.8157776565118
 20
111.3849940972018
 30
0.0
 10
111.8324488022603
 20
111.5806638894877
 30
0.0
 10
111.8329698454368
 20
112.1591442681622
 30
0.0
 10
111.7685275445501
 20
112.537056107131
 30
0.0
 10
111.5386784511767
 20
113.2790241322294
 30
0.0
 10
111.3801577735136
 20
113.6277395923903
 30
0.0
 10
111.0159234436135
 20
114.3008319901235
 30
0.0
 10
110.8091872035499
 20
114.6257844773651
 30
0.0
 10
110.3712492578095
 20
115.2567082878269
 30
0.0
 10
110.1399765305299
 20
115.5625980281676
 30
0.0
 10
109.9013797000246
 20
115.8626024739871
 30
0.0
  0
SPLINE
  5
15C
330
1F
100
AcDbEntity
  8
0
  6
HIDDEN
 62
     7
370
     0
100
AcDbSpline
210
0.0
220
0.0
230
1.0
 70
     8
 71
     3
 72
    72
 73
    68
 74
     0
 42
0.00000001
 43
0.00000001
 12
1.0
 22
0.0
 32
0.0
 13
1.0
 23
0.0
 33
0.0
 40
-0.0312499999999998
 40
-0.0312499999999998
 40
0.0
 40
0.0
 40
0.03125
 40
0.03125
 40
0.0625
 40
0.0625
 40
0.09375
 40
0.09375
 40
0.125
 40
0.125
 40
0.15625
 40
0.15625
 40
0.1875000000000001
 40
0.1875000000000001
 40
0.2187500000000001
 40
0.2187500000000001
 40
0.2500000000000001
 40
0.2500000000000001
 40
0.2812500000000001
 40
0.2812500000000001
 40
0.3125000000000001
 40
0.3125000000000001
 40
0.3437500000000001
 40
0.3437500000000001
 40
0.3750000000000001
 40
0.3750000000000001
 40
0.3906250000000001
 40
0.3906250000000001
 40
0.4062500000000001
 40
0.4062500000000001
 40
0.4375000000000001
 40
0.4375000000000001
 40
0.4687500000000001
 40
0.4687500000000001
 40
0.5000000000000001
 40
0.5000000000000001
 40
0.5312500000000001
 40
0.5312500000000001
 40
0.5625000000000001
 40
0.5625000000000001
 40
0.5937500000000001
 40
0.5937500000000001
 40
0.6250000000000001
 40
0.6250000000000001
 40
0.6562500000000001
 40
0.6562500000000001
 40
0.6875000000000001
 40
0.6875000000000001
 40
0.7187500000000001
 40
0.7187500000000001
 40
0.7500000000000002
 40
0.7500000000000002
 40
0.7812500000000002
 40
0.7812500000000002
 40
0.8125000000000002
 40
0.8125000000000002
 40
0.8437500000000002
 40
0.8437500000000002
 40
0.8750000000000002
 40
0.8750000000000002
 40
0.9062500000000002
 40
0.9062500000000002
 40
0.9375000000000002
 40
0.9375000000000002
 40
0.9687500000000002
 40
0.9687500000000002
 40
1.0
 40
1.0
 40
1.03125
 40
1.03125
 10
122.5753260188498
 20
114.2174750707028
 30
0.0
 10
122.9497562387236
 20
114.6278308711879
 30
0.0
 10
123.1546088399892
 20
114.8114799538464
 30
0.0
 10
123.5974770368362
 20
115.1384348573417
 30
0.0
 10
123.8374324541545
 20
115.2822130655216
 30
0.0
 10
124.333043436929
 20
115.5197304209675
 30
0.0
 10
124.5903097280835
 20
115.6150499858652
 30
0.0
 10
125.1236634959206
 20
115.7591355184997
 30
0.0
 10
125.3979436358189
 20
115.8068715254693
 30
0.0
 10
125.9443721703984
 20
115.8524536660031
 30
0.0
 10
126.2189484888662
 20
115.8510199059308
 30
0.0
 10
126.7709156631369
 20
115.79810659784
 30
0.0
 10
127.0415326257086
 20
115.7471368716358
 30
0.0
 10
127.5678177967878
 20
115.5985302446922
 30
0.0
 10
127.8254493601954
 20
115.5002448739351
 30
0.0
 10
128.321375524869
 20
115.2559915147494
 30
0.0
 10
128.5543592026605
 20
115.1129113837272
 30
0.0
 10
128.9906924779856
 20
114.7850528332584
 30
0.0
 10
129.1959737318438
 20
114.5980591955582
 30
0.0
 10
129.564008029704
 20
114.1886285757352
 30
0.0
 10
129.7255230196892
 20
113.9685231347507
 30
0.0
 10
130.0026807028364
 20
113.4967730533126
 30
0.0
 10
130.1190748822701
 20
113.2417565268714
 30
0.0
 10
130.2923489189167
 20
112.7205187034744
 30
0.0
 10
130.3507954733825
 20
112.4530345856935
 30
0.0
 10
130.3946601988583
 20
112.0411189263611
 30
0.0
 10
130.4018404154877
 20
111.9014116232855
 30
0.0
 10
130.4008723881923
 20
111.6252885678231
 30
0.0
 10
130.3928695987786
 20
111.4881120014923
 30
0.0
 10
130.3467968668662
 20
111.0791785602291
 30
0.0
 10
130.2858620344142
 20
110.8072523112248
 30
0.0
 10
130.1077418780057
 20
110.2840717947697
 30
0.0
 10
129.9921739666633
 20
110.0353597944064
 30
0.0
 10
129.710327182724
 20
109.5624752694144
 30
0.0
 10
129.5434572373093
 20
109.3388660521823
 30
0.0
 10
129.1741316825105
 20
108.9342086639947
 30
0.0
 10
128.9693465262131
 20
108.7497950758251
 30
0.0
 10
128.5246935786969
 20
108.4207690409307
 30
0.0
 10
128.2898444491861
 20
108.2796009649425
 30
0.0
 10
127.796434686709
 20
108.041191436162
 30
0.0
 10
127.5351477330044
 20
107.9434088797571
 30
0.0
 10
127.0044094524917
 20
107.798080851567
 30
0.0
 10
126.7347697515945
 20
107.749791461372
 30
0.0
 10
126.1870184118493
 20
107.7013762375854
 30
0.0
 10
125.9071143699906
 20
107.7018344232214
 30
0.0
 10
125.3600364621556
 20
107.7519862788235
 30
0.0
 10
125.0904313574682
 20
107.8011598458556
 30
0.0
 10
124.5592766008121
 20
107.9488343691626
 30
0.0
 10
124.2979817843686
 20
108.0479895335282
 30
0.0
 10
123.8056678061932
 20
108.2890023040049
 30
0.0
 10
123.5717109306146
 20
108.4314904286296
 30
0.0
 10
123.1295423100841
 20
108.7629778576145
 30
0.0
 10
122.9243487789724
 20
108.9504114856029
 30
0.0
 10
122.5586545626145
 20
109.3573152046533
 30
0.0
 10
122.3958839402261
 20
109.5784942793223
 30
0.0
 10
122.1149315094605
 20
110.0582416085376
 30
0.0
 10
122.001727657187
 20
110.3082535753479
 30
0.0
 10
121.8291189330481
 20
110.8283287853683
 30
0.0
 10
121.7695126503717
 20
111.1020602499981
 30
0.0
 10
121.7116208803019
 20
111.6506778998966
 30
0.0
 10
121.7124104191618
 20
111.9250177637881
 30
0.0
 10
121.7736008947782
 20
112.4737597149271
 30
0.0
 10
121.8347296185123
 20
112.7468250287842
 30
0.0
 10
122.0108093041421
 20
113.2669902775527
 30
0.0
 10
122.127139899132
 20
113.5193094111116
 30
0.0
 10
122.4103411288728
 20
113.9957137525185
 30
0.0
 10
122.5753260188498
 20
114.2174750707028
 30
0.0
 10
122.9497562387236
 20
114.6278308711879
 30
0.0
  0
CIRCLE
  5
15D
330
1F
100
AcDbEntity
  8
0
  6
HIDDEN
 62
     7
370
     0
100
AcDbCircle
 10
125.9513797
 20
111.7766414209
 30
0.0
 40
4.050000000000011
  0
CIRCLE
  5
15E
330
1F
100
AcDbEntity
  8
0
  6
HIDDEN
 62
     7
370
     0
100
AcDbCircle
 10
153.4513797
 20
111.7766414209
 30
0.0
 40
2.0
  0
LINE
  5
15F
330
1F
100
AcDbEntity
  8
0
  6
HIDDEN
 62
     7
370
     0
100
AcDbLine
 10
141.4513797
 20
87.5266407056
 30
0.0
 11
141.5442729205
 21
87.6195345445
 31
0.0
  0
LINE
  5
160
330
1F
100
AcDbEntity
  8
0
  6
HIDDEN
 62
     7
370
     0
100
AcDbLine
 10
141.5442729205
 20
135.9337482973
 30
0.0
 11
141.4513797
 21
136.0266421361
 31
0.0
  0
ARC
  5
161
330
1F
100
AcDbEntity
  8
0
  6
HIDDEN
 62
     7
370
     0
100
AcDbCircle
 10
140.8371661377
 20
88.3266414209
 30
0.0
 40
1.000000000000008
100
AcDbArc
 50
315.0
 51
0.0
  0
ARC
  5
162
330
1F
100
AcDbEntity
  8
0
  6
HIDDEN
 62
     7
370
     0
100
AcDbCircle
 10
140.8371661377
 20
88.3266414209
 30
0.0
 40
1.0
100
AcDbArc
 50
0.0
 51
52.1052014664
  0
ARC
  5
163
330
1F
100
AcDbEntity
  8
0
  6
HIDDEN
 62
     7
370
     0
100
AcDbCircle
 10
140.8371661377
 20
135.2266414209
 30
0.0
 40
1.000000000000008
100
AcDbArc
 50
351.8087250651
 51
45.0
  0
ARC
  5
164
330
1F
100
AcDbEntity
  8
0
  6
HIDDEN
 62
     7
370
     0
100
AcDbCircle
 10
140.8371661377
 20
135.2266414209
 30
0.0
 40
1.000000000000002
100
AcDbArc
 50
307.8947985336
 51
351.8087250651
  0
LINE
  5
165
330
1F
100
AcDbEntity
  8
0
  6
HIDDEN
 62
     7
370
     0
100
AcDbLine
 10
141.8371661358
 20
88.3266412093
 30
0.0
 11
141.8371661358
 21
135.2266416325
 31
0.0
  0
LINE
  5
166
330
1F
100
AcDbEntity
  8
0
  6
HIDDEN
 62
     7
370
     0
100
AcDbLine
 10
141.8371661358
 20
88.3266412093
 30
0.0
 11
141.8371661358
 21
135.2266416325
 31
0.0
  0
LINE
  5
167
330
1F
100
AcDbEntity
  8
0
  6
HIDDEN
 62
     7
370
     0
100
AcDbLine
 10
103.4513809219
 20
95.5802116914
 30
0.0
 11
104.9816072419
 21
96.4636903627
 31
0.0
  0
LINE
  5
168
330
1F
100
AcDbEntity
  8
0
  6
HIDDEN
 62
     7
370
     0
100
AcDbLine
 10
104.9816072419
 20
127.089592479
 30
0.0
 11
103.4513809219
 21
127.9730711503
 31
0.0
  0
ARC
  5
169
330
1F
100
AcDbEntity
  8
0
  6
HIDDEN
 62
     7
370
     0
100
AcDbCircle
 10
114.4531810149
 20
97.7766414209
 30
0.0
 40
2.000000000000028
100
AcDbArc
 50
270.0
 51
315.0
  0
ARC
  5
16A
330
1F
100
AcDbEntity
  8
0
  6
HIDDEN
 62
     7
370
     0
100
AcDbCircle
 10
114.4531810149
 20
125.7766414209
 30
0.0
 40
2.000000000000028
100
AcDbArc
 50
45.0
 51
90.0
  0
LINE
  5
16B
330
1F
100
AcDbEntity
  8
0
  6
HIDDEN
 62
     7
370
     0
100
AcDbLine
 10
113.4513788358
 20
95.7766406609
 30
0.0
 11
114.4531801775
 21
95.7766406609
 31
0.0
  0
LINE
  5
16C
330
1F
100
AcDbEntity
  8
0
  6
HIDDEN
 62
     7
370
     0
100
AcDbLine
 10
114.4531801775
 20
127.7766421808
 30
0.0
 11
113.4513788358
 21
127.7766421808
 31
0.0
  0
ARC
  5
16D
330
1F
100
AcDbEntity
  8
0
  6
HIDDEN
 62
     7
370
     0
100
AcDbCircle
 10
113.4513797
 20
97.7766414209
 30
0.0
 40
2.000000000000006
100
AcDbArc
 50
189.9742217944
 51
270.0
  0
ARC
  5
16E
330
1F
100
AcDbEntity
  8
0
  6
HIDDEN
 62
     7
370
     0
100
AcDbCircle
 10
113.4513797
 20
125.7766414209
 30
0.0
 40
2.000000000000008
100
AcDbArc
 50
90.0
 51
170.0257782056
  0
LINE
  5
16F
330
1F
100
AcDbEntity
  8
0
  6
HIDDEN
 62
     7
370
     0
100
AcDbLine
 10
115.8673953697
 20
96.3624276592
 30
0.0
 11
117.2816086993
 21
97.7766409888
 31
0.0
  0
LINE
  5
170
330
1F
100
AcDbEntity
  8
0
  6
HIDDEN
 62
     7
370
     0
100
AcDbLine
 10
117.2816086993
 20
125.776641853
 30
0.0
 11
115.8673953697
 21
127.1908551826
 31
0.0
  0
LINE
  5
171
330
1F
100
AcDbEntity
  8
0
  6
HIDDEN
 62
     7
370
     0
100
AcDbLine
 10
104.9816072419
 20
96.4636903627
 30
0.0
 11
109.8816082314
 21
97.7766409888
 31
0.0
  0
LINE
  5
172
330
1F
100
AcDbEntity
  8
0
  6
HIDDEN
 62
     7
370
     0
100
AcDbLine
 10
109.8816082314
 20
125.776641853
 30
0.0
 11
104.9816072419
 21
127.089592479
 31
0.0
  0
LINE
  5
173
330
1F
100
AcDbEntity
  8
0
  6
HIDDEN
 62
     7
370
     0
100
AcDbLine
 10
111.4816073761
 20
126.1230519413
 30
0.0
 11
110.8816083953
 21
125.776641853
 31
0.0
  0
LINE
  5
174
330
1F
100
AcDbEntity
  8
0
  6
HIDDEN
 62
     7
370
     0
100
AcDbLine
 10
110.8816083953
 20
97.7766409888
 30
0.0
 11
111.4816073761
 21
97.4302309005
 31
0.0
  0
ARC
  5
175
330
1F
100
AcDbEntity
  8
0
  6
HIDDEN
 62
     7
370
     0
100
AcDbCircle
 10
129.9513797
 20
98.2766414209
 30
0.0
 40
0.5
100
AcDbArc
 50
270.0
 51
0.0
  0
ARC
  5
176
330
1F
100
AcDbEntity
  8
0
  6
HIDDEN
 62
     7
370
     0
100
AcDbCircle
 10
129.9513797
 20
125.2766414209
 30
0.0
 40
0.5
100
AcDbArc
 50
0.0
 51
90.0
  0
LINE
  5
177
330
1F
100
AcDbEntity
  8
0
  6
HIDDEN
 62
     7
370
     0
100
AcDbLine
 10
109.8816082314
 20
97.7766409888
 30
0.0
 11
110.8816083953
 21
97.7766409888
 31
0.0
  0
LINE
  5
178
330
1F
100
AcDbEntity
  8
0
  6
HIDDEN
 62
     7
370
     0
100
AcDbLine
 10
110.8816083953
 20
125.776641853
 30
0.0
 11
109.8816082314
 21
125.776641853
 31
0.0
  0
LINE
  5
179
330
1F
100
AcDbEntity
  8
0
  6
HIDDEN
 62
     7
370
     0
100
AcDbLine
 10
117.2816086993
 20
97.7766409888
 30
0.0
 11
129.9513796777
 21
97.7766409888
 31
0.0
  0
LINE
  5
17A
330
1F
100
AcDbEntity
  8
0
  6
HIDDEN
 62
     7
370
     0
100
AcDbLine
 10
129.9513796777
 20
125.776641853
 30
0.0
 11
117.2816086993
 21
125.776641853
 31
0.0
  0
LINE
  5
17B
330
1F
100
AcDbEntity
  8
0
  6
HIDDEN
 62
     7
370
     0
100
AcDbLine
 10
222.3513782457
 20
115.7938622309
 30
0.0
 11
222.3513782457
 21
113.0858215875
 31
0.0
  0
LINE
  5
17C
330
1F
100
AcDbEntity
  8
0
  6
HIDDEN
 62
     7
370
     0
100
AcDbLine
 10
226.5513822869
 20
115.7621753773
 30
0.0
 11
226.5513822869
 21
115.7938622309
 31
0.0
  0
LINE
  5
17D
330
1F
100
AcDbEntity
  8
0
  6
HIDDEN
 62
     7
370
     0
100
AcDbLine
 10
226.5513822869
 20
113.087372938
 30
0.0
 11
226.5513822869
 21
114.5910116284
 31
0.0
  0
LINE
  5
17E
330
1F
100
AcDbEntity
  8
0
  6
HIDDEN
 62
     7
370
     0
100
AcDbLine
 10
231.2574819163
 20
120.5592200531
 30
0.0
 11
224.2330670789
 21
117.3701987973
 31
0.0
  0
LINE
  5
17F
330
1F
100
AcDbEntity
  8
0
  6
HIDDEN
 62
     7
370
     0
100
AcDbLine
 10
225.7005706862
 20
113.423871775
 30
0.0
 11
231.2351599768
 21
115.9365198946
 31
0.0
  0
LINE
  5
180
330
1F
100
AcDbEntity
  8
0
  6
HIDDEN
 62
     7
370
     0
100
AcDbLine
 10
130.4513797596
 20
101.5266411378
 30
0.0
 11
131.7013794989
 21
102.7766418083
 31
0.0
  0
LINE
  5
181
330
1F
100
AcDbEntity
  8
0
  6
HIDDEN
 62
     7
370
     0
100
AcDbLine
 10
131.7013794989
 20
120.7766410335
 30
0.0
 11
130.4513797596
 21
122.026641704
 31
0.0
  0
LINE
  5
182
330
1F
100
AcDbEntity
  8
0
  6
HIDDEN
 62
     7
370
     0
100
AcDbLine
 10
131.7013794989
 20
102.7766418083
 30
0.0
 11
157.45138046
 21
102.7766418083
 31
0.0
  0
LINE
  5
183
330
1F
100
AcDbEntity
  8
0
  6
HIDDEN
 62
     7
370
     0
100
AcDbLine
 10
157.45138046
 20
120.7766410335
 30
0.0
 11
131.7013794989
 21
120.7766410335
 31
0.0
  0
LINE
  5
184
330
1F
100
AcDbEntity
  8
0
  6
HIDDEN
 62
     7
370
     0
100
AcDbLine
 10
157.45138046
 20
102.7766418083
 30
0.0
 11
160.3054669187
 21
107.5266411899
 31
0.0
  0
LINE
  5
185
330
1F
100
AcDbEntity
  8
0
  6
HIDDEN
 62
     7
370
     0
100
AcDbLine
 10
160.3054669187
 20
116.0266416519
 30
0.0
 11
157.45138046
 21
120.7766410335
 31
0.0
  0
LINE
  5
186
330
1F
100
AcDbEntity
  8
0
  6
HIDDEN
 62
     7
370
     0
100
AcDbLine
 10
227.4513826207
 20
116.0266416519
 30
0.0
 11
160.3054669187
 21
116.0266416519
 31
0.0
  0
LINE
  5
187
330
1F
100
AcDbEntity
  8
0
  6
HIDDEN
 62
     7
370
     0
100
AcDbLine
 10
160.3054669187
 20
107.5266411899
 30
0.0
 11
227.4513826207
 21
107.5266411899
 31
0.0
  0
LINE
  5
188
330
1F
100
AcDbEntity
  8
0
  6
HIDDEN
 62
     7
370
     0
100
AcDbLine
 10
227.4513826207
 20
107.5266411899
 30
0.0
 11
230.0050393179
 21
111.7766414209
 31
0.0
  0
LINE
  5
189
330
1F
100
AcDbEntity
  8
0
  6
HIDDEN
 62
     7
370
     0
100
AcDbLine
 10
230.0050393179
 20
111.7766414209
 30
0.0
 11
227.4513826207
 21
116.0266416519
 31
0.0
  0
LINE
  5
18A
330
1F
100
AcDbEntity
  8
0
  6
HIDDEN
 62
     7
370
     0
100
AcDbLine
 10
251.645652993
 20
121.0809385775
 30
0.0
 11
251.645652993
 21
120.7461076228
 31
0.0
  0
LINE
  5
18B
330
1F
100
AcDbEntity
  8
0
  6
HIDDEN
 62
     7
370
     0
100
AcDbLine
 10
255.8456570342
 20
120.7461076228
 30
0.0
 11
255.8456570342
 21
120.7698246835
 31
0.0
  0
LINE
  5
18C
330
1F
100
AcDbEntity
  8
0
  6
HIDDEN
 62
     7
370
     0
100
AcDbLine
 10
222.3513782457
 20
110.4643778781
 30
0.0
 11
222.3513782457
 21
108.6864714416
 31
0.0
  0
LINE
  5
18D
330
1F
100
AcDbEntity
  8
0
  6
HIDDEN
 62
     7
370
     0
100
AcDbLine
 10
226.5513822869
 20
108.6864714416
 30
0.0
 11
226.5513822869
 21
110.4637229255
 31
0.0
  0
LINE
  5
18E
330
1F
100
AcDbEntity
  8
0
  6
HIDDEN
 62
     7
370
     0
100
AcDbLine
 10
257.3659778074
 20
126.4134364574
 30
0.0
 11
257.3659778074
 21
125.8248424529
 31
0.0
  0
LINE
  5
18F
330
1F
100
AcDbEntity
  8
0
  6
HIDDEN
 62
     7
370
     0
100
AcDbLine
 10
261.5659818486
 20
125.8027859403
 30
0.0
 11
261.5659818486
 21
126.4134364574
 31
0.0
  0
LINE
  5
190
330
1F
100
AcDbEntity
  8
0
  6
HIDDEN
 62
     7
370
     0
100
AcDbLine
 10
221.9513789252
 20
108.6122010274
 30
0.0
 11
221.9513789252
 21
106.8324477783
 31
0.0
  0
LINE
  5
191
330
1F
100
AcDbEntity
  8
0
  6
HIDDEN
 62
     7
370
     0
100
AcDbLine
 10
226.9513816074
 20
106.8327709472
 30
0.0
 11
226.9513816074
 21
108.6122010274
 31
0.0
  0
LINE
  5
192
330
1F
100
AcDbEntity
  8
VERMASSUNG
  6
CENTERX2
100
AcDbLine
 10
99.4258629752
 20
111.7766414209
 30
0.0
 11
266.4513797
 21
111.7766414209
 31
0.0
  0
LINE
  5
193
330
1F
100
AcDbEntity
  8
VERMASSUNG
  6
CENTERX2
100
AcDbLine
 10
266.4513797
 20
133.7766414209
 30
0.0
 11
266.4513797
 21
111.7766414209
 31
0.0
  0
LINE
  5
194
330
1F
100
AcDbEntity
  8
VERMASSUNG
  6
CENTERX2
100
AcDbLine
 10
266.4513797
 20
133.7766414209
 30
0.0
 11
275.0187978111
 21
133.7766414209
 31
0.0
  0
DIMENSION
  5
195
330
1F
100
AcDbEntity
  8
VERMASSUNG
100
AcDbDimension
  2
_D
 10
266.4513797
 20
151.5517664879
 30
0.0
 11
203.9513797
 21
151.5517664879
 31
0.0
 70
   160
  1
<>
 71
     2
 42
-1.0
  3
SLDDIMSTYLE0
100
AcDbAlignedDimension
 13
141.4513797
 23
142.7766414209
 33
0.0
 14
266.4513797
 24
133.7766414209
 34
0.0
100
AcDbRotatedDimension
  0
DIMENSION
  5
1A0
330
1F
100
AcDbEntity
  8
VERMASSUNG
100
AcDbDimension
  2
_D_1
 10
103.4513797
 20
159.2766414209
 30
0.0
 11
184.9513797
 21
159.2766414209
 31
0.0
 70
   160
  1
<>
 71
     2
 42
-1.0
  3
SLDDIMSTYLE0
100
AcDbAlignedDimension
 13
266.4513797
 23
133.7766414209
 33
0.0
 14
103.4513797
 24
132.0689794134
 34
0.0
100
AcDbRotatedDimension
  0
DIMENSION
  5
1AA
330
1F
100
AcDbEntity
  8
VERMASSUNG
100
AcDbDimension
  2
_D_2
 10
280.0542251404
 20
111.7766414209
 30
0.0
 11
280.0542251404
 21
122.7766414209
 31
0.0
 70
   160
  1
<>
 71
     2
 42
-1.0
  3
SLDDIMSTYLE0
100
AcDbAlignedDimension
 13
266.4513797
 23
133.7766414209
 33
0.0
 14
266.4513797
 24
111.7766414209
 34
0.0
 50
90.0
100
AcDbRotatedDimension
  0
DIMENSION
  5
1B4
330
1F
100
AcDbEntity
  8
VERMASSUNG
100
AcDbDimension
  2
_D_3
 10
275.0187978111
 20
133.7766414209
 30
0.0
 11
273.4707916074
 21
126.1146670595
 31
0.0
 70
   162
  1
<>
 71
     1
 42
-1.0
  3
SLDDIMSTYLE1
100
AcDb2LineAngularDimension
 13
265.3566793315
 23
121.2946387311
 33
0.0
 14
266.4098324322
 24
133.3029107787
 34
0.0
 15
266.4513797
 25
133.7766414209
 35
0.0
 16
273.4707916074
 26
126.1146670595
 36
0.0
  0
DIMENSION
  5
1BE
330
1F
100
AcDbEntity
  8
VERMASSUNG
100
AcDbDimension
  2
_D_4
 10
95.8641519142
 20
80.2766414209
 30
0.0
 11
95.8641519142
 21
111.7766414209
 31
0.0
 70
   160
  1
PSC%%c<>
 71
     2
 42
-1.0
  3
SLDDIMSTYLE0
100
AcDbAlignedDimension
 13
141.9513797
 23
143.2766414209
 33
0.0
 14
141.9513797
 24
80.2766414209
 34
0.0
 50
90.0
100
AcDbRotatedDimension
  0
DIMENSION
  5
1CA
330
1F
100
AcDbEntity
  8
VERMASSUNG
100
AcDbDimension
  2
_D_5
 10
189.7601402377
 20
95.7766414209
 30
0.0
 11
189.7601402377
 21
103.1925781267
 31
0.0
 70
   160
  1
%%c<>
 71
     2
 42
-1.0
  3
SLDDIMSTYLE0
100
AcDbAlignedDimension
 13
167.4513797
 23
127.7766414209
 33
0.0
 14
167.4513797
 24
95.7766414209
 34
0.0
 50
90.0
100
AcDbRotatedDimension
  0
LINE
  5
1D3
330
1F
100
AcDbEntity
  8
0
  6
Continuous
 62
     7
370
    15
100
AcDbLine
 10
51.6750010654
 20
133.110440187
 30
0.0
 11
48.4531007221
 21
133.7367136403
 31
0.0
  0
LINE
  5
1D4
330
1F
100
AcDbEntity
  8
0
  6
Continuous
 62
     7
370
    15
100
AcDbLine
 10
47.4841310868
 20
119.8798025398
 30
0.0
 11
47.7859698228
 21
119.8956210537
 31
0.0
  0
LINE
  5
1D5
330
1F
100
AcDbEntity
  8
0
  6
Continuous
 62
     7
370
    15
100
AcDbLine
 10
64.9558926459
 20
119.1320240869
 30
0.0
 11
64.9558926459
 21
121.5195579826
 31
0.0
  0
LINE
  5
1D6
330
1F
100
AcDbEntity
  8
0
  6
Continuous
 62
     7
370
    15
100
AcDbLine
 10
64.9558926459
 20
119.1320240869
 30
0.0
 11
47.7642752455
 21
119.5853746867
 31
0.0
  0
LINE
  5
1D7
330
1F
100
AcDbEntity
  8
0
  6
Continuous
 62
     7
370
    15
100
AcDbLine
 10
47.8597585104
 20
120.9508486463
 30
0.0
 11
47.7642752455
 21
119.5853746867
 31
0.0
  0
LINE
  5
1D8
330
1F
100
AcDbEntity
  8
0
  6
Continuous
 62
     7
370
    15
100
AcDbLine
 10
47.8597585104
 20
120.9508486463
 30
0.0
 11
49.9511363676
 21
121.0409233718
 31
0.0
  0
LINE
  5
1D9
330
1F
100
AcDbEntity
  8
0
  6
Continuous
 62
     7
370
    15
100
AcDbLine
 10
49.9511363676
 20
121.0409233718
 30
0.0
 11
52.323534758
 21
120.849104449
 31
0.0
  0
LINE
  5
1DA
330
1F
100
AcDbEntity
  8
0
  6
Continuous
 62
     7
370
    15
100
AcDbLine
 10
52.3441551711
 20
121.1439900471
 30
0.0
 11
52.323534758
 21
120.849104449
 31
0.0
  0
ELLIPSE
  5
1DB
330
1F
100
AcDbEntity
  8
0
  6
Continuous
 62
     7
370
    15
100
AcDbEllipse
 10
47.4558927353
 20
114.2095589505
 30
0.0
 11
-6.535361227381565
 21
18.12766902896297
 31
0.0
210
0.0
220
0.0
230
1.0
 40
0.9841672027
 41
4.761272678636989
 42
5.628311214419065
  0
LINE
  5
1DC
330
1F
100
AcDbEntity
  8
0
  6
Continuous
 62
     7
370
    15
100
AcDbLine
 10
64.9558926459
 20
111.7766414209
 30
0.0
 11
64.9558926459
 21
119.1320240869
 31
0.0
  0
ARC
  5
1DD
330
1F
100
AcDbEntity
  8
0
  6
Continuous
 62
     7
370
    15
100
AcDbCircle
 10
48.4558927353
 20
111.7766414209
 30
0.0
 40
16.50000000000001
100
AcDbArc
 50
261.7087285136
 51
0.0
  0
LINE
  5
1DE
330
1F
100
AcDbEntity
  8
0
  6
Continuous
 62
     7
370
    15
100
AcDbLine
 10
47.7642752455
 20
119.5853746867
 30
0.0
 11
46.0765027899
 21
95.4491038247
 31
0.0
  0
SPLINE
  5
1DF
330
1F
100
AcDbEntity
  8
0
  6
Continuous
 62
     7
370
    15
100
AcDbSpline
210
0.0
220
0.0
230
1.0
 70
     8
 71
     3
 72
    14
 73
    10
 74
     0
 42
0.00000001
 43
0.00000001
 12
1.0
 22
0.0
 32
0.0
 13
1.0
 23
0.0
 33
0.0
 40
0.0
 40
0.0
 40
0.0
 40
0.0
 40
0.160168498195209
 40
0.3248892273117221
 40
0.4851018563952884
 40
0.6500862225471952
 40
0.8084550563886621
 40
0.9712605554321387
 40
1.0
 40
1.0
 40
1.0
 40
1.0
 10
43.83136671892755
 20
127.0937480403652
 30
0.0
 10
44.13170593565405
 20
127.1787454725051
 30
0.0
 10
44.74092046381147
 20
127.3511560923373
 30
0.0
 10
45.59887508618006
 20
127.5261977632144
 30
0.0
 10
46.38652064293108
 20
127.6482922125329
 30
0.0
 10
47.06300556228418
 20
127.7196867867514
 30
0.0
 10
47.60182887036076
 20
127.7562161961923
 30
0.0
 10
47.92688563378081
 20
127.7687293855178
 30
0.0
 10
48.02169982923024
 20
127.7705598152073
 30
0.0
 10
48.03592577152342
 20
127.7708344532719
 30
0.0
  0
SPLINE
  5
1E0
330
1F
100
AcDbEntity
  8
0
  6
Continuous
 62
     7
370
    15
100
AcDbSpline
210
0.0
220
0.0
230
1.0
 70
     8
 71
     3
 72
    14
 73
    10
 74
     0
 42
0.00000001
 43
0.00000001
 12
1.0
 22
0.0
 32
0.0
 13
1.0
 23
0.0
 33
0.0
 40
0.0
 40
0.0
 40
0.0
 40
0.0
 40
0.25
 40
0.25
 40
0.5
 40
0.5
 40
0.75
 40
0.75
 40
1.0
 40
1.0
 40
1.0
 40
1.0
 10
46.1114821186414
 20
95.94933151489626
 30
0.0
 10
46.1114821186414
 20
95.94933151489626
 30
0.0
 10
46.00318976633795
 20
95.96423715656468
 30
0.0
 10
45.57168692484924
 20
96.03722474442658
 30
0.0
 10
45.25970112490256
 20
96.09364752567971
 30
0.0
 10
44.45165923972719
 20
96.28025305325923
 30
0.0
 10
43.97613648843168
 20
96.4062001372241
 30
0.0
 10
42.90401179814951
 20
96.76014051869608
 30
0.0
 10
42.33424113704685
 20
96.97977596188836
 30
0.0
 10
41.74464314771549
 20
97.25220928146898
 30
0.0
  0
ELLIPSE
  5
1E1
330
1F
100
AcDbEntity
  8
0
  6
Continuous
 62
     7
370
    15
100
AcDbEllipse
 10
39.4212621698
 20
118.2478698242
 30
0.0
 11
1.733036295194204
 21
1.855089312013831
 31
0.0
210
0.0
220
0.0
230
1.0
 40
0.8112573031
 41
0.0
 42
6.283185307179586
  0
ARC
  5
1E2
330
1F
100
AcDbEntity
  8
0
  6
Continuous
 62
     7
370
    15
100
AcDbCircle
 10
48.4558927353
 20
111.7766414209
 30
0.0
 40
15.99999999999999
100
AcDbArc
 50
106.8000641757
 51
245.1999358243
  0
SPLINE
  5
1E3
330
1F
100
AcDbEntity
  8
0
  6
Continuous
 62
     7
370
    15
100
AcDbSpline
210
0.0
220
0.0
230
1.0
 70
     8
 71
     3
 72
    17
 73
    13
 74
     0
 42
0.00000001
 43
0.00000001
 12
1.0
 22
0.0
 32
0.0
 13
1.0
 23
0.0
 33
0.0
 40
0.0
 40
0.0
 40
0.0
 40
0.0
 40
0.0909607253064685
 40
0.2814467315025488
 40
0.3513595853718423
 40
0.3982765065443362
 40
0.4342939005788344
 40
0.4702202405224852
 40
0.5703058932694556
 40
0.7928902897357238
 40
0.9783674943743358
 40
1.0
 40
1.0
 40
1.0
 40
1.0
 10
37.17712373397701
 20
117.4839281848242
 30
0.0
 10
37.26198273808325
 20
117.5036922523235
 30
0.0
 10
37.52454978846455
 20
117.5648453728613
 30
0.0
 10
37.87304399343296
 20
117.4303315439698
 30
0.0
 10
38.2016955989894
 20
117.2782347427137
 30
0.0
 10
38.3927499149529
 20
117.1909104773576
 30
0.0
 10
38.56401340768483
 20
117.1302381063634
 30
0.0
 10
38.81015987087773
 20
117.0674888103385
 30
0.0
 10
39.25681314932877
 20
116.9890519219508
 30
0.0
 10
39.76169742070881
 20
116.7950501252219
 30
0.0
 10
40.13698772027806
 20
116.5341809518089
 30
0.0
 10
40.21104684586059
 20
116.3259918111929
 30
0.0
 10
40.21878228447788
 20
116.304246559607
 30
0.0
  0
CIRCLE
  5
1E4
330
1F
100
AcDbEntity
  8
0
  6
Continuous
 62
     7
370
    15
100
AcDbCircle
 10
48.4558927353
 20
111.7766414209
 30
0.0
 40
31.50000000000001
  0
LWPOLYLINE
  5
1E5
330
1F
100
AcDbEntity
  8
0
  6
Continuous
 62
     7
370
    15
100
AcDbPolyline
 90
        9
 70
   128
 43
0.0
 10
48.4227662608
 20
133.3029110356
 10
48.428840152
 20
133.3897717668
 10
48.434741381
 20
133.4741626306
 10
48.4401901838
 20
133.5520845278
 10
48.4449282428
 20
133.6198419704
 10
48.448730938
 20
133.6742237581
 10
48.45141799
 20
133.7126501276
 10
48.4528620116
 20
133.7332994117
 10
48.4531007221
 20
133.7367136403
  0
LINE
  5
1E6
330
1F
100
AcDbEntity
  8
0
  6
Continuous
 62
     7
370
    15
100
AcDbLine
 10
51.6750010654
 20
133.110440187
 30
0.0
 11
48.4227662608
 21
133.3029110356
 31
0.0
  0
LINE
  5
1E7
330
1F
100
AcDbEntity
  8
0
  6
Continuous
 62
     7
370
    15
100
AcDbLine
 10
53.1594484571
 20
132.8032303973
 30
0.0
 11
51.6750010654
 21
133.110440187
 31
0.0
  0
LINE
  5
1E8
330
1F
100
AcDbEntity
  8
0
  6
Continuous
 62
     7
370
    15
100
AcDbLine
 10
52.3457798634
 20
121.1672237514
 30
0.0
 11
53.1594484571
 21
132.8032303973
 31
0.0
  0
LINE
  5
1E9
330
1F
100
AcDbEntity
  8
0
  6
Continuous
 62
     7
370
    15
100
AcDbLine
 10
52.3457798634
 20
121.1672237514
 30
0.0
 11
50.8353008415
 21
121.1021680756
 31
0.0
  0
LINE
  5
1EA
330
1F
100
AcDbEntity
  8
0
  6
Continuous
 62
     7
370
    15
100
AcDbLine
 10
50.8353008415
 20
121.1021680756
 30
0.0
 11
47.583066066
 21
121.2946389242
 31
0.0
  0
LINE
  5
1EB
330
1F
100
AcDbEntity
  8
0
  6
Continuous
 62
     7
370
    15
100
AcDbLine
 10
47.583066066
 20
121.2946389242
 30
0.0
 11
48.4227662608
 21
133.3029110356
 31
0.0
  0
LINE
  5
1EC
330
1F
100
AcDbEntity
  8
0
  6
Continuous
 62
     7
370
    15
100
AcDbLine
 10
50.8353008415
 20
121.1021680756
 30
0.0
 11
48.2257942429
 21
120.9666140749
 31
0.0
  0
LINE
  5
1ED
330
1F
100
AcDbEntity
  8
0
  6
Continuous
 62
     7
370
    15
100
AcDbLine
 10
47.859530511
 20
120.947588086
 30
0.0
 11
47.5577015539
 21
120.9319092705
 31
0.0
  0
LWPOLYLINE
  5
1EE
330
1F
100
AcDbEntity
  8
0
  6
Continuous
 62
     7
370
    15
100
AcDbPolyline
 90
        9
 70
   128
 43
0.0
 10
47.5577015539
 20
120.9319092705
 10
47.558546147
 20
120.9439866616
 10
47.5602096056
 20
120.9677763654
 10
47.5626414634
 20
121.002553813
 10
47.5657678551
 20
121.0472619532
 10
47.5694936693
 20
121.1005447804
 10
47.5737058084
 20
121.1607808618
 10
47.5782762158
 20
121.2261410801
 10
47.583066066
 20
121.2946389242
  0
LINE
  5
1EF
330
1F
100
AcDbEntity
  8
0
  6
Continuous
 62
     7
370
    15
100
AcDbLine
 10
47.7860662147
 20
119.8970003425
 30
0.0
 11
47.4842373158
 21
119.8813215269
 31
0.0
  0
LINE
  5
1F0
330
1F
100
AcDbEntity
  8
0
  6
Continuous
 62
     7
370
    15
100
AcDbLine
 10
52.3441551711
 20
121.1439900471
 30
0.0
 11
52.3457798634
 21
121.1672237514
 31
0.0
  0
LINE
  5
1F1
330
1F
100
AcDbEntity
  8
0
  6
Continuous
 62
     7
370
    15
100
AcDbLine
 10
47.4842373158
 20
119.8813215269
 30
0.0
 11
47.5577015539
 21
120.9319092705
 31
0.0
  0
LINE
  5
1F2
330
1F
100
AcDbEntity
  8
0
  6
Continuous
 62
     7
370
    15
100
AcDbLine
 10
47.4841310868
 20
119.8798025398
 30
0.0
 11
47.4842373158
 21
119.8813215269
 31
0.0
  0
CIRCLE
  5
1F3
330
1F
100
AcDbEntity
  8
VERMASSUNG
  6
CENTERX2
100
AcDbCircle
 10
48.4558927353
 20
113.6893668065
 30
0.0
 40
20.0
  0
DIMENSION
  5
1F4
330
1F
100
AcDbEntity
  8
VERMASSUNG
100
AcDbDimension
  2
_D_6
 10
34.3137571116
 20
127.8315024302
 30
0.0
 11
21.4177022472
 21
140.7275572946
 31
0.0
 70
   160
  1
%%c<> min. 
 71
     2
 42
-1.0
  3
SLDDIMSTYLE2
100
AcDbAlignedDimension
 13
62.5980283591
 23
99.5472311828
 33
0.0
 14
34.3137571116
 24
127.8315024302
 34
0.0
 50
-45.0
100
AcDbRotatedDimension
  0
DIMENSION
  5
203
330
1F
100
AcDbEntity
  8
VERMASSUNG
100
AcDbDimension
  2
_D_7
 10
48.4558927353
 20
145.7766414209
 30
0.0
 11
35.7716299725
 21
73.7508617698
 31
0.0
 70
   162
  1
<>
 71
     1
 42
-1.0
  3
SLDDIMSTYLE3
100
AcDb2LineAngularDimension
 13
46.0765027496
 23
95.4491032324
 33
0.0
 14
47.7642752489
 24
119.585374462
 34
0.0
 15
48.4558927353
 25
77.7766414209
 35
0.0
 16
46.4613696486
 26
72.3602970214
 36
0.0
  0
INSERT
  5
21B
330
1F
100
AcDbEntity
  8
VERMASSUNG
100
AcDbBlockReference
  2
SW_CENTERMARKSYMBOL_0
 10
48.4558927353
 20
111.7766414209
 30
0.0
  0
OLE2FRAME
  5
21C
330
1F
100
AcDbEntity
  8
0
100
AcDbOle2Frame
 70
     2
  3
Paintbrush-Bild
 10
13.8511154363
 20
38.264191557
 30
0.0
 11
51.6290888628
 21
31.9806341108
 31
0.0
 71
     2
 72
     0
 73
     1
 90
    12928
310
80552BED0767C5B32B40DDAF6807D121434000000000000000006FFBDDFB85D0
310
4940DDAF6807D121434000000000000000006FFBDDFB85D04940416F4BD60AFB
310
3F4000000000000000002BED0767C5B32B40416F4BD60AFB3F40000000000000
310
0000000000000100000000010000010000000100000000000100000000320000
310
D0CF11E0A1B11AE1000000000000000000000000000000003E000300FEFF0900
310
0600000000000000000000000100000001000000000000000010000002000000
310
01000000FEFFFFFF0000000000000000FFFFFFFFFFFFFFFFFFFFFFFFFFFFFFFF
310
FFFFFFFFFFFFFFFFFFFFFFFFFFFFFFFFFFFFFFFFFFFFFFFFFFFFFFFFFFFFFFFF
310
FFFFFFFFFFFFFFFFFFFFFFFFFFFFFFFFFFFFFFFFFFFFFFFFFFFFFFFFFFFFFFFF
310
FFFFFFFFFFFFFFFFFFFFFFFFFFFFFFFFFFFFFFFFFFFFFFFFFFFFFFFFFFFFFFFF
310
FFFFFFFFFFFFFFFFFFFFFFFFFFFFFFFFFFFFFFFFFFFFFFFFFFFFFFFFFFFFFFFF
310
FFFFFFFFFFFFFFFFFFFFFFFFFFFFFFFFFFFFFFFFFFFFFFFFFFFFFFFFFFFFFFFF
310
FFFFFFFFFFFFFFFFFFFFFFFFFFFFFFFFFFFFFFFFFFFFFFFFFFFFFFFFFFFFFFFF
310
FFFFFFFFFFFFFFFFFFFFFFFFFFFFFFFFFFFFFFFFFFFFFFFFFFFFFFFFFFFFFFFF
310
FFFFFFFFFFFFFFFFFFFFFFFFFFFFFFFFFFFFFFFFFFFFFFFFFFFFFFFFFFFFFFFF
310
FFFFFFFFFFFFFFFFFFFFFFFFFFFFFFFFFFFFFFFFFFFFFFFFFFFFFFFFFFFFFFFF
310
FFFFFFFFFFFFFFFFFFFFFFFFFFFFFFFFFFFFFFFFFFFFFFFFFFFFFFFFFFFFFFFF
310
FFFFFFFFFFFFFFFFFFFFFFFFFFFFFFFFFFFFFFFFFFFFFFFFFFFFFFFFFFFFFFFF
310
FFFFFFFFFFFFFFFFFFFFFFFFFFFFFFFFFFFFFFFFFFFFFFFFFFFFFFFFFFFFFFFF
310
FFFFFFFFFFFFFFFFFFFFFFFFFFFFFFFFFFFFFFFFFFFFFFFFFFFFFFFFFFFFFFFF
310
FDFFFFFFFEFFFFFFFEFFFFFFFEFFFFFF05000000060000000700000008000000
310
090000000A0000000B0000000C0000000D0000000E0000000F00000010000000
310
11000000120000001300000014000000150000001600000017000000FEFFFFFF
310
FFFFFFFFFFFFFFFFFFFFFFFFFFFFFFFFFFFFFFFFFFFFFFFFFFFFFFFFFFFFFFFF
310
FFFFFFFFFFFFFFFFFFFFFFFFFFFFFFFFFFFFFFFFFFFFFFFFFFFFFFFFFFFFFFFF
310
FFFFFFFFFFFFFFFFFFFFFFFFFFFFFFFFFFFFFFFFFFFFFFFFFFFFFFFFFFFFFFFF
310
FFFFFFFFFFFFFFFFFFFFFFFFFFFFFFFFFFFFFFFFFFFFFFFFFFFFFFFFFFFFFFFF
310
FFFFFFFFFFFFFFFFFFFFFFFFFFFFFFFFFFFFFFFFFFFFFFFFFFFFFFFFFFFFFFFF
310
FFFFFFFFFFFFFFFFFFFFFFFFFFFFFFFFFFFFFFFFFFFFFFFFFFFFFFFFFFFFFFFF
310
FFFFFFFFFFFFFFFFFFFFFFFFFFFFFFFFFFFFFFFFFFFFFFFFFFFFFFFFFFFFFFFF
310
FFFFFFFFFFFFFFFFFFFFFFFFFFFFFFFFFFFFFFFFFFFFFFFFFFFFFFFFFFFFFFFF
310
FFFFFFFFFFFFFFFFFFFFFFFFFFFFFFFFFFFFFFFFFFFFFFFFFFFFFFFFFFFFFFFF
310
FFFFFFFFFFFFFFFFFFFFFFFFFFFFFFFFFFFFFFFFFFFFFFFFFFFFFFFFFFFFFFFF
310
FFFFFFFFFFFFFFFFFFFFFFFFFFFFFFFFFFFFFFFFFFFFFFFFFFFFFFFFFFFFFFFF
310
FFFFFFFFFFFFFFFFFFFFFFFFFFFFFFFFFFFFFFFFFFFFFFFFFFFFFFFFFFFFFFFF
310
FFFFFFFFFFFFFFFFFFFFFFFFFFFFFFFFFFFFFFFFFFFFFFFFFFFFFFFFFFFFFFFF
310
52006F006F007400200045006E00740072007900000000000000000000000000
310
0000000000000000000000000000000000000000000000000000000000000000
310
16000500FFFFFFFFFFFFFFFF020000000A00030000000000C000000000000046
310
000000000000000000000000308BA46FFE3FCD0103000000C000000000000000
310
01004F006C006500000000000000000000000000000000000000000000000000
310
0000000000000000000000000000000000000000000000000000000000000000
310
0A000200FFFFFFFFFFFFFFFFFFFFFFFF00000000000000000000000000000000
310
0000000000000000000000000000000000000000000000001400000000000000
310
010043006F006D0070004F0062006A0000000000000000000000000000000000
310
0000000000000000000000000000000000000000000000000000000000000000
310
120002010100000003000000FFFFFFFF00000000000000000000000000000000
310
0000000000000000000000000000000000000000010000004D00000000000000
310
01004F006C006500310030004E00610074006900760065000000000000000000
310
0000000000000000000000000000000000000000000000000000000000000000
310
1A000200FFFFFFFFFFFFFFFFFFFFFFFF00000000000000000000000000000000
310
0000000000000000000000000000000000000000040000002426000000000000
310
FEFFFFFF02000000FEFFFFFFFFFFFFFFFFFFFFFFFFFFFFFFFFFFFFFFFFFFFFFF
310
FFFFFFFFFFFFFFFFFFFFFFFFFFFFFFFFFFFFFFFFFFFFFFFFFFFFFFFFFFFFFFFF
310
FFFFFFFFFFFFFFFFFFFFFFFFFFFFFFFFFFFFFFFFFFFFFFFFFFFFFFFFFFFFFFFF
310
FFFFFFFFFFFFFFFFFFFFFFFFFFFFFFFFFFFFFFFFFFFFFFFFFFFFFFFFFFFFFFFF
310
FFFFFFFFFFFFFFFFFFFFFFFFFFFFFFFFFFFFFFFFFFFFFFFFFFFFFFFFFFFFFFFF
310
FFFFFFFFFFFFFFFFFFFFFFFFFFFFFFFFFFFFFFFFFFFFFFFFFFFFFFFFFFFFFFFF
310
FFFFFFFFFFFFFFFFFFFFFFFFFFFFFFFFFFFFFFFFFFFFFFFFFFFFFFFFFFFFFFFF
310
FFFFFFFFFFFFFFFFFFFFFFFFFFFFFFFFFFFFFFFFFFFFFFFFFFFFFFFFFFFFFFFF
310
FFFFFFFFFFFFFFFFFFFFFFFFFFFFFFFFFFFFFFFFFFFFFFFFFFFFFFFFFFFFFFFF
310
FFFFFFFFFFFFFFFFFFFFFFFFFFFFFFFFFFFFFFFFFFFFFFFFFFFFFFFFFFFFFFFF
310
FFFFFFFFFFFFFFFFFFFFFFFFFFFFFFFFFFFFFFFFFFFFFFFFFFFFFFFFFFFFFFFF
310
FFFFFFFFFFFFFFFFFFFFFFFFFFFFFFFFFFFFFFFFFFFFFFFFFFFFFFFFFFFFFFFF
310
FFFFFFFFFFFFFFFFFFFFFFFFFFFFFFFFFFFFFFFFFFFFFFFFFFFFFFFFFFFFFFFF
310
FFFFFFFFFFFFFFFFFFFFFFFFFFFFFFFFFFFFFFFFFFFFFFFFFFFFFFFFFFFFFFFF
310
FFFFFFFFFFFFFFFFFFFFFFFFFFFFFFFFFFFFFFFFFFFFFFFFFFFFFFFFFFFFFFFF
310
FFFFFFFFFFFFFFFFFFFFFFFFFFFFFFFFFFFFFFFFFFFFFFFFFFFFFFFFFFFFFFFF
310
0100000200000000000000000000000000000000000000000000000000000000
310
0000000000000000000000000000000000000000000000000000000000000000
310
0100FEFF030A0000FFFFFFFF0A00030000000000C00000000000004607000000
310
5042727573680007000000504272757368000700000050427275736800F439B2
310
7100000000000000000000000000000000000000000000000000000000000000
310
0000000000000000000000000000000000000000000000000000000000000000
310
0000000000000000000000000000000000000000000000000000000000000000
310
0000000000000000000000000000000000000000000000000000000000000000
310
0000000000000000000000000000000000000000000000000000000000000000
310
0000000000000000000000000000000000000000000000000000000000000000
310
0000000000000000000000000000000000000000000000000000000000000000
310
0000000000000000000000000000000000000000000000000000000000000000
310
0000000000000000000000000000000000000000000000000000000000000000
310
0000000000000000000000000000000000000000000000000000000000000000
310
0000000000000000000000000000000000000000000000000000000000000000
310
0000000000000000000000000000000000000000000000000000000000000000
310
20260000424D0E260000000000003E00000028000000B40200006E0000000100
310
01000000000000000000130B0000130B00000200000002000000000000FFFFFF
310
FFFFFFFFFFFFFFFFFFFFFFFFFFFFFFFFFFFFFFFFFFFFFFFFFFFFFFFFFFFFFFFF
310
FFFFFFFFFFFFFFFFFFFFFFFFFFFFFFFFFFFFFFFFFFFFFFFFFFFFFFFFFFFFFFFF
310
FFFFFFFFFFFFFFFFFFFFFFFFFFFFFFFFFFFFFFFFFFFFFFFFF000FFFFFFFFFFFF
310
FFFFFFFFFFFFFFFFFFFFFFFFFFFFFFFFFFFFFFFFFFFFFFFFFFFFFFFFFFFFFFFF
310
FFFFFFFFFFFFFFFFFFFFFFFFFFFFFFFFFFFFFFFFFFFFFFFFFFFFFFFFFFFFFFFF
310
FFFFFFFFFFFFFFFFFFFFFFFFFFFFFFFFF000FFFFFFFFFFFFFFFFFFFFFFFFFFFF
310
FFFFFFFFFFFFFFFFFFFFFFFFFFFFFFFFFFFFFFFFFFFFFFFFFFFFFFFFFFFFFFFF
310
FFFFFFFFFFFFFFFFFFFFFFFFFFFFFFFFFFFFFFFFFFFFFFFFFFFFFFFFFFFFFFFF
310
FFFFFFFFFFFFFFFFF000FFFFFFFFFFFFFFFFFFFFFFFFFFFFFFFFFFFFFFFFFFFF
310
FFFFFFFFFFFFFFFFFFFFFFFFFFFFFFFFFFFFFFFFFFFFFFFFFFFFFFFFFFFFFFFF
310
FFFFFFFFFFFFFFFFFFFFFFFFFFFFFFFFFFFFFFFFFFFFFFFFFFFFFFFFFFFFFFFF
310
F000FFFFFFFFFFFFFFFFFFFFFFFFFFFFFFFFFFFFFFFFFFFFFFFFFFFFFFFFFFFF
310
FFFFFFFFFFFFFFFFFFFFFFFFFFFFFFFFFFFFFFFFFFFFFFFFFFFFFFFFFFFFFFFF
310
FFFFFFFFFFFFFFFFFFFFFFFFFFFFFFFFFFFFFFFFFFFFFFFFF000FFFFFFFFFFFF
310
FFFFFFFFFFFFFFFFFFFFFFFFFFFFFFFFFFFFFFFFFFFFFFFFFFFFFFFFFFFFFFFF
310
FFFFFFFFFFFFFFFFFFFFFFFFFFFFFFFFFFFFFFFFFFFFFFFFFFFFFFFFFFFFFFFF
310
FFFFFFFFFFFFFFFFFFFFFFFFFFFFFFFFF000FFFFFFFFFFFFFFFFFFFFFFFFFFFF
310
FFFFFFFFFFFFFFFFFFFFFFFFFFFFFFFFFFFFFFFFFFFFFFFFFFFFFFFFFFFFFFFF
310
FFFFFFFFFFFFFFFFFFFFFFFFFFFFFFFFFFFFFFFFFFFFFFFFFFFFFFFFFFFFFFFF
310
FFFFFFFFFFFFFFFFF000FFFFFFFFFFFFFFFFFFFFFFFFFFFFFFFFFFFFFFFFFFFF
310
FFFFFFFFFFFFFFFFFFFFFFFFFFFFFFFFFFFFFFFFFFFFFFFFFFFFFFFFFFFFFFFF
310
FFFFFFFFFFFFFFFFFFFFFFFFFFFFFFFFFFFFFFFFFFFFFFFFFFFFFFFFFFFFFFFF
310
F000FFFFFFFFFFFFFFFFFFFFFFFFFFFFFFFFFFFFFFFFFFFFFFFFFFFFFFFFFFFF
310
FFFFFFFFFFFFFFFFFFFFFFFFFFFFFFFFFFFFFFFFFFFFFFFFFFFFFFFFFFFFFFFF
310
FFFFFFFFFFFFFFFFFFFFFFFFFFFFFFFFFFFFFFFFFFFFFFFFF000FFFFFFFFFFFF
310
FFFFFFFFFFFFFFFFFFFFFFFFFFFFFFFFFFFFFFFFFFFFFFFFFFFFFFFFFFFFFFFF
310
FFFFFFFFFFFFFFFFFFFFFFFFFFFFFFFFFFFFFFFFFFFFFFFFFFFFFFFFFFFFFFFF
310
FFFFFFFFFFFFFFFFFFFFFFFFFFFFFFFFF000FFFFFFFFFFFFFFFFFFFFFFFFFFFF
310
FFFFFFFFFFFFFFFFFFFFFFFFFFFFFFFFFFFFFFFFFFFFFFFFFFFFFFFFFFFFFFFF
310
FFFFFFFFFFFFFFFFFFFFFFFFFFFFFFFFFFFFFFFFFFFFFFFFFFFFFFFFFFFFFFFF
310
FFFFFFFFFFFFFFFFF000FFFFFFFFFFFFFFFFFFFFFFFFFFFFFFFFFFFFFFFFFFFF
310
FFFFFFFFFFFFFFFFFFFFFFFFFFFFFFFFFFFFFFFFFFFFFFFFFFFFFFFFFFFFFFFF
310
FFFFFFFFFFFFFFFFFFFFFFFFFFFFFFFFFFFFFFFFFFFFFFFFFFFFFFFFFFFFFFFF
310
F000FFFFFFFFFFFFFFFFFFFFFFFFFFFFFFFFFFFFFFFFFFFFFFFFFFFFFFFFFFFF
310
FFFFFFFFFFFFFFFFFFFFFFFFFFFFFFFFFFFFFFFFFFFFFFFFFFFFFFFFFFFFFFFF
310
FFFFFFFFFFFFFFFFFFFFFFFFFFFFFFFFFFFFFFFFFFFFFFFFF000FFFFFFFFFFFF
310
FFFFFFFFFFFFFFFFFFFFFFFFFFFFFFFFFFFFFFFFFFFFFFFFFFFFFFFFFFFFFFFF
310
FFFFFFFFFFFFFFFFFFFFFFFFFFFFFFFFFFFFFFFFFFFFFFFFFFFFFFFFFFFFFFFF
310
FFFFFFFFFFFFFFFFFFFFFFFFFFFFFFFFF000FFFFFFFFFFFFFFFFFFFFFFFFFFFF
310
FFFFFFFFFFFFFFFFFFFFFFFFFFFFFFFFFFFFFFFFFFFFFFFFFFFFFFFFFFFFFFFF
310
FFFFFFFFFFFFFFFFFFFFFFFFFFFFFFFFFFFFFFFFFFFFFFFFFFFFFFFFFFFFFFFF
310
FFFFFFFFFFFFFFFFF000FFFFFFFFFFFFFFFFFFFFFFFFFFFFFFFFFFFFFFFFFFFF
310
FFFFFFFFFFFFFFFFFFFFFFFFFFFFFFFFFFFFFFFFFFFFFFFFFFFFFFFFFFFFFFFF
310
FFFFFFFFFFFFFFFFFFFFFFFFFFFFFFFFFFFFFFFFFFFFFFFFFFFFFFFFFFFFFFFF
310
F000FFFFFFFFFFFFFFFFFFFFFFFFFFFFFFFFFFFFFFFFFFFFFFFFFFFFFFFFFFFF
310
FFFFFFFFFFFFFFFFFFFFFFFFFFFFFFFFFFFFFFFFFFFFFFFFFFFFFFFFFFFFFFFF
310
FFFFFFFFFFFFFFFFFFFFFFFFFFFFFFFFFFFFFFFFFFFFFFFFF000FFFFFFFFFFFF
310
FFFFFFFFFFFFFFFFFFFFFFFFFFFFFFFFFFFFFFFFFFFFFFFFFFFFFFFFFFFFFFFF
310
FFFFFFFFFFFFFFFFFFFFFFFFFFFFFFFFFFFFFFFFFFFFFFFFFFFFFFFFFFFFFFFF
310
FFFFFFFFFFFFFFFFFFFFFFFFFFFFFFFFF000FFFFFFFFFFFFFFFFFFFFFFFFFFFF
310
FFFFFFFFFFFFFFFFFFFFFFFFFFFFFFFFFFFFFFFFFFFFFFFFFFFFFFFFFFFFFFFF
310
FFFFFFFFFFFFFFFFFFFFFFFFFFFFFFFFFFFFFFFFFFFFFFFFFFFFFFFFFFFFFFFF
310
FFFFFFFFFFFFFFFFF000FFFFF80003FFFFFFFFFFFFFFFFFFFFFFFFFFFFFFFFFF
310
FFFFF00007FFFFFFFFFF00007FFFFFF800000000000000007FFFFFFFFFFFFFFF
310
FFFFFFFC001FFFFFFFFFFFFFFC001FFFFFFFFFFFFFFFFFFFFFFFFFFE0007FFFF
310
F000FFFF8000007FFFFFFFF8000FFFFFC0007FFFFF80007FFFFF0000007FFFFF
310
FFF8000007FFFFF800000000000000007FFFFFF0001FFFFFFFFFFFC00001FFFF
310
FFFFFFFFC00001FFFFFFFF000000000003FFFFE000007FFFF000FFFE0000000F
310
FFFFFFF0000FFFFF80007FFFFF80007FFFFC0000001FFFFFFFC0000001FFFFF8
310
00000000000000007FFFFFF0001FFFFFFFFFFE0000003FFFFFFFFFFE0000003F
310
FFFFFF000000000003FFFF0000000FFFF000FFF800000003FFFFFFF00007FFFF
310
80007FFFFF80007FFFF000000007FFFFFF000000003FFFF80000000000000000
310
7FFFFFF0001FFFFFFFFFF80000000FFFFFFFFFF80000000FFFFFFF0000000000
310
03FFFC00000003FFF000FFE000000000FFFFFFF00007FFFF80003FFFFF80007F
310
FFC000000001FFFFFC000000001FFFF800000000000000007FFFFFF0001FFFFF
310
FFFFE000000003FFFFFFFFE000000003FFFFFF000000000003FFF000000000FF
310
F000FF80000000007FFFFFF00007FFFF80003FFFFF80007FFF8000000000FFFF
310
F80000000007FFF800000000000000007FFFFFF0001FFFFFFFFFC000000001FF
310
FFFFFFC000000001FFFFFF000000000003FFC0000000007FF000FF0000000000
310
3FFFFFE00007FFFF00003FFFFF80007FFE00000000003FFFF00000000003FFF8
310
00000000000000007FFFFFF0001FFFFFFFFF8000000000FFFFFFFF8000000000
310
FFFFFF000000000003FF80000000003FF000FE00000000001FFFFFE00003FFFF
310
00003FFFFF80007FFC00000000001FFFE00000000001FFF8000001FFFE000000
310
7FFFFFF0001FFFFFFFFE00000000003FFFFFFE00000000003FFFFF0000000000
310
03FF00000000001FF000FC00000000000FFFFFE00003FFFF00001FFFFF80007F
310
F800000000001FFFC00000000000FFF8000001FFFE0000007FFFFFF0001FFFFF
310
FFFC00000000001FFFFFFC00000000001FFFFF000000000003FE00000000000F
310
F000F8000000000007FFFFE00003FFFF00001FFFFF80007FF800000000000FFF
310
800000000000FFF8000001FFFE0000007FFFFFF0001FFFFFFFF800000000000F
310
FFFFF800000000000FFFFF000000000003FC000000000007F000F80000000000
310
03FFFFC00003FFFE00001FFFFF80007FF0000000000007FF0000000000007FF8
310
000001FFFE0000007FFFFFF0001FFFFFFFF0000000000007FFFFF00000000000
310
07FFFF000000000003F8000000000003F000F0000000000003FFFFC00001FFFE
310
00001FFFFF80007FE0000000000007FE0000000000003FF8000001FFFE000000
310
7FFFFFF0001FFFFFFFF0000000000007FFFFF0000000000007FFFF0000000000
310
03F800001F800003F000E00001FFF00001FFFFC00001FFFE00000FFFFF80007F
310
E00001FFE00003FE00001FFF00003FF8000001FFFE0000007FFFFFF0001FFFFF
310
FFE000003E000003FFFFE000003E000003FFFF000000000003F00001FFF80001
310
F000E00007FFFC0001FFFFC00001FFFE00000FFFFF80007FC0000FFFFC0003FC
310
0000FFFFC0001FF8000001FFFE0000007FFFFFF0001FFFFFFFC00003FFE00001
310
FFFFC00003FFE00001FFFF0001FFFFFFFFF00007FFFE0001F000E0000FFFFF00
310
00FFFF800001FFFC00000FFFFF80007FC0001FFFFE0001FC0001FFFFE0001FF8
310
000001FFFE0000007FFFFFF0001FFFFFFF80000FFFF80000FFFF80000FFFF800
310
00FFFF0003FFFFFFFFE0000FFFFF8000F000C0003FFFFF8000FFFF800000FFFC
310
000007FFFF80007F80003FFFFF0001FC0003FFFFF0001FF8000001FFFE000000
310
7FFFFFF0001FFFFFFF80003FFFFE0000FFFF80003FFFFE0000FFFF0003FFFFFF
310
FFE0003FFFFF8000F000C0003FFFFF8000FFFF800000FFFC000007FFFF80007F
310
80007FFFFF8001F80007FFFFF8000FF8000001FFFE0000007FFFFFF0001FFFFF
310
FF00007FFFFF00007FFF00007FFFFF00007FFF0003FFFFFFFFE0003FFFFFC000
310
F000C0007FFFFFC000FFFF000000FFFC000007FFFF80007F8000FFFFFF8000F8
310
000FFFFFF8000FF8000001FFFE0000007FFFFFF0001FFFFFFF0000FFFFFF8000
310
7FFF0000FFFFFF80007FFF0003FFFFFFFFC0007FFFFFC00070008000FFFFFFC0
310
00FFFF000000FFF8000007FFFF80007F8000FFFFFF8000F8000FFFFFF8000FF8
310
000001FFFE0000007FFFFFF0001FFFFFFE0001FFFFFFC0003FFE0001FFFFFFC0
310
003FFF0003FFFFFFFFC0007FFFFFE00070008000FFFFFFC0007FFF0000007FF8
310
000003FFFF80007F0001FFFFFF8000F8000FFFFFF8000FF8000001FFFE000000
310
7FFFFFF0001FFFFFFE0001FFFFFFC0003FFE0001FFFFFFC0003FFF0003FFFFFF
310
FFC000FFFFFFE00070008000FFFFFFC0007FFF0000007FF8000003FFFF80007F
310
0001FFFFFF8000F8001FFFFFF8000FF8000001FFFE0000007FFFFFF0001FFFFF
310
FE0003FFFFFFE0003FFE0003FFFFFFE0003FFF0003FFFFFFFFC000FFFFFFE000
310
70008000FFFFFFC0007FFE0000007FF8000003FFFF80007F0001FFFFFF8000F0
310
001FFFFFF8000FF8000001FFFE0000007FFFFFF0001FFFFFFC0003FFFFFFE000
310
1FFC0003FFFFFFE0001FFF0003FFFFFFFFC000FFFFFFC00070008000FFFFFF80
310
007FFE0000007FF0000003FFFF80007F0001FFFFFF0000F0001FFFFFF8000FF8
310
000001FFFE0000007FFFFFF0001FFFFFFC0007FFFFFFF0001FFC0007FFFFFFF0
310
001FFF0003FFFFFFFFC000FFFFFFC00070008001FFFFFF0000FFFE0000003FF0
310
000001FFFF80007F0001FFFFFF0000F8001FFFFFF0000FF8000001FFFE000000
310
7FFFFFF0001FFFFFFC0007FFFFFFF0001FFC0007FFFFFFF0001FFF0003FFFFFF
310
FFC001FFFFFF80007000FFFFFFFFFE0000FFFE0008003FF0008001FFFF80007F
310
FFFFFFFFFC0000FFFFFFFFFFE0000FF8000001FFFE0000007FFFFFF0001FFFFF
310
F8000FFFFFFFF8000FF8000FFFFFFFF8000FFF0003FFFFFFFFFFFFFFFFFF0000
310
7000FFFFFFFFFC0000FFFC0008003FF0008001FFFF80007FFFFFFFFFF80001FF
310
FFFFFFFF80000FF8000001FFFE0000007FFFFFF0001FFFFFF8000FFFFFFFF800
310
0FF8000FFFFFFFF8000FFF0003FFFFFFFFFFFFFFFFFE0000F000FFFFFFFFE000
310
00FFFC000C003FE000C001FFFF80007FFFFFFFFFC00001FFFFFFFFFE00001FF8
310
000001FFFE0000007FFFFFF0001FFFFFF8000FFFFFFFF8000FF8000FFFFFFFF8
310
000FFF0003FFFFFFFFFFFFFFFFF00000F000FFFFFFFE000001FFFC000C001FE0
310
00C000FFFF80007FFFFFFFFE000001FFFFFFFFE000001FF80FFFFFFFFFFFFFC0
310
7FFFFFF0001FFFFFF8000FFFFFFFF8000FF8000FFFFFFFF8000FFF0003FFFFFF
310
FFFFFFFFFF800000F000FFFFFFC0000001FFFC001C001FE001C000FFFF80007F
310
FFFFFF80000003FFFFFFF80000001FF80FFFFFFFFFFFFFC07FFFFFF0001FFFFF
310
F8001FFFFFFFFC000FF8001FFFFFFFFC000FFF0003FFFFFFFFFFFFFFF0000001
310
F000FFFFF800000001FFF8001C001FE001C000FFFF80007FFFFFF800000003FF
310
FFFF800000003FF80FFFFFFFFFFFFFC07FFFFFF0001FFFFFF8001FFFFFFFFC00
310
0FF8001FFFFFFFFC000FFF0003FFFFFFFFFFFFFE00000001F000FFFFC0000000
310
03FFF8001E001FC001E000FFFF80007FFFFF8000000007FFFFFC000000003FF8
310
0FFFFFFFFFFFFFC07FFFFFF0001FFFFFF8001FFFFFFFFC000FF8001FFFFFFFFC
310
000FFF0003FFFFFFFFFFFFE000000003F000FFFE0000000007FFF8001E000FC0
310
01E0007FFF80007FFFFE0000000007FFFFE0000000007FF80FFFFFFFFFFFFFC0
310
7FFFFFF0001FFFFFF0001FFFFFFFFC0007F0001FFFFFFFFC0007FF0003FFFFFF
310
FFFFFF0000000003F000FFF80000000007FFF8001E000FC003E0007FFF80007F
310
FFF0000000000FFFFF8000000000FFF80FFFFFFFFFFFFFC07FFFFFF0001FFFFF
310
F0001FFFFFFFFC0007F0001FFFFFFFFC0007FF0003FFFFFFFFFFFC0000000007
310
F000FFE0000000000FFFF0003E000FC003E0007FFF80007FFFC0000000001FFF
310
FE0000000001FFF80FFFFFFFFFFFFFC07FFFFFF0001FFFFFF0001FFFFFFFFC00
310
07F0001FFFFFFFFC0007FF0003FFFFFFFFFFF0000000000FF000FFC000000000
310
1FFFF0003F000F8003F0003FFF80007FFF80000000003FFFF80000000003FFF8
310
0FFFFFFFFFFFFFC07FFFFFF0001FFFFFF0001FFFFFFFFC0007F0001FFFFFFFFC
310
0007FF0003FFFFFFFFFFE0000000001FF000FF00000000007FFFF0003F000780
310
03F0003FFF80007FFF00000000007FFFF00000000007FFF80FFFFFFFFFFFFFC0
310
7FFFFFF0001FFFFFF0001FFFFFFFFC0007F0001FFFFFFFFC0007FF0003FFFFFF
310
FFFF80000000007FF000FE0000000000FFFFE0003F00078007F0003FFF80007F
310
FE0000000001FFFFE0000000001FFFF80FFFFFFFFFFFFFC07FFFFFF0001FFFFF
310
F0001FFFFFFFFC0007F0001FFFFFFFFC0007FF0003FFFFFFFFFF0000000000FF
310
F000FC0000000003FFFFE0007F00078007F0003FFF80007FFC0000000007FFFF
310
C0000000007FFFF80FFFFFFFFFFFFFC07FFFFFF0001FFFFFF8001FFFFFFFFC00
310
0FF8001FFFFFFFFC000FFF0003FFFFFFFFFE0000000003FFF000FC000000000F
310
FFFFE0007F80070007F8001FFF80007FF8000000001FFFFF8000000001FFFFF8
310
0FFFFFFFFFFFFFC07FFFFFF0001FFFFFF8001FFFFFFFFC000FF8001FFFFFFFFC
310
000FFF0003FFFFFFFFFC000000000FFFF000F8000000007FFFFFE0007F800700
310
07F8001FFF80007FF000000000FFFFFF800000000FFFFFF80FFFFFFFFFFFFFC0
310
7FFFFFF0001FFFFFF8000FFFFFFFF8000FF8000FFFFFFFF8000FFF0003FFFFFF
310
FFFC000000007FFFF000F800000007FFFFFFC0007F8003000FF8001FFF80007F
310
F000000007FFFFFF000000007FFFFFF80FFFFFFFFFFFFFC07FFFFFF0001FFFFF
310
F8000FFFFFFFF8000FF8000FFFFFFFF8000FFF0003FFFFFFFFF80000000FFFFF
310
F000F0000000FFFFFFFFC000FF8003000FF8001FFF80007FE0000000FFFFFFFF
310
0000000FFFFFFFF8000001FFFE0000007FFFFFF0001FFFFFF8000FFFFFFFF800
310
0FF8000FFFFFFFF8000FFF0003FFFFFFFFF8000000FFFFFFF000F000000FFFFF
310
FFFFC000FFC002000FF8000FFF80007FE000001FFFFFFFFE000001FFFFFFFFF8
310
000001FFFE0000007FFFFFF0001FFFFFF8000FFFFFFFF8000FF8000FFFFFFFF8
310
000FFF0003FFFFFFFFF000001FFFFFFFF000E00000FFFFFFFFFFC000FFC00200
310
0FFC000FFF80007FE00001FFFFFFFFFE00001FFFFFFFFFF8000001FFFE000000
310
7FFFFFF0001FFFFFFC000FFFFFFFF8001FFC000FFFFFFFF8001FFF0003FFFFFF
310
FFF00001FFFFFFFFF000E00007FFFFFFFFFF8000FFC000001FFC000FFF80007F
310
C0000FFFFFFFFFFE0000FFFFFFFFFFF8000001FFFE0000007FFFFFF0001FFFFF
310
FC0007FFFFFFF0001FFC0007FFFFFFF0001FFF0003FFFFFFFFF00007FFFFFFFF
310
F000E0001FFFFFFFFFFF8000FFC000001FFC000FFF80007FC0003FFFFFFFFFFE
310
0001FFFFFFFFFFF8000001FFFE0000007FFFFFF0001FFFFFFC0007FFFFFFF000
310
1FFC0007FFFFFFF0001FFF0003FFFFFFFFF0001FFFFFFFFFF000E0003FFFFF00
310
03FF8001FFE000001FFC0007FF80007FC0007FFFFF0007FC0003FFFFF0003FF8
310
000001FFFE0000007FFFFFF0001FFFFFFC0003FFFFFFE0001FFC0003FFFFFFE0
310
001FFF0003FFFFFFFFF0003FFFFFFFFFF000E0003FFFFF0001FF8001FFE00000
310
1FFE0007FF80007FC0007FFFFE0003FC0007FFFFE0003FF8000001FFFE000000
310
7FFFFFF0001FFFFFFE0003FFFFFFE0003FFE0003FFFFFFE0003FFF0003FFFFFF
310
FFF0003FFFFF8001F000E0003FFFFF0001FF0001FFE000001FFE0007FF80007F
310
C0007FFFFE0003FC0007FFFFE0003FF8000001FFFE0000007FFFFFF0001FFFFF
310
FE0001FFFFFFC0003FFE0001FFFFFFC0003FFF0003FFFFFFFFF0003FFFFF0001
310
F000E0003FFFFF0003FF0001FFE000003FFE0007FF80007FC0007FFFFE0003FC
310
0007FFFFE0003FF8000001FFFE0000007FFFFFF0001FFFFFFF0001FFFFFFC000
310
7FFF0001FFFFFFC0007FFF0003FFFFFFFFF0003FFFFF0001F000E0003FFFFE00
310
03FF0003FFF000003FFE0003FF80007FC0007FFFFC0003FE0007FFFFE0003FF8
310
000001FFFE0000007FFFFFF0001FFFFFFF0000FFFFFF80007FFF0000FFFFFF80
310
007FFF0003FFFFFFFFF0003FFFFF0001F000E0003FFFFE0003FF0003FFF00000
310
3FFF0003FF80007FC0007FFFFC0007FE0007FFFFC0003FF8000001FFFE000000
310
7FFFFFF0001FFFFFFF80007FFFFF0000FFFF80007FFFFF0000FFFF0003FFFFFF
310
FFF0003FFFFF0003F000E0003FFFFC0003FE0003FFF000003FFF0003FF80007F
310
E0003FFFF80007FE0003FFFFC0007FF8000001FFFE0000007FFFFFF0001FFFFF
310
FF80003FFFFE0000FFFF80003FFFFE0000FFFF0003FFFFFFFFF0001FFFFE0003
310
F000F0001FFFF80003FE0003FFF000007FFF0001FF80007FE0003FFFF00007FE
310
0001FFFF80007FF8000001FFFE0000007FFFFFF0001FFFFFFFC0000FFFF80001
310
FFFFC0000FFFF80001FFFF0003FFFFFFFFF0001FFFFC0003F000F0000FFFF000
310
07FE0007FFF800007FFF0001FF80007FE0001FFFE00007FF0000FFFE00007FF8
310
000001FFFE0000007FFFFFF0001FFFFFFFC00003FFE00001FFFFC00003FFE000
310
01FFFF0003FFFFFFFFF8000FFFF80003F000F00003FFC00007FC0007FFF80000
310
7FFF8001FF80007FF00007FF80000FFF00007FF80000FFF8000001FFFE000000
310
7F80000000000001FFE000003E000003FFFFE000003E000003FFFF0003FFFFFF
310
FFF80003FFE00007F000F800000000000FFC0007FFF800007FFF8001FF80007F
310
F000000000000FFF000000000000FFF8000001FFFE0000007F80000000000001
310
FFF0000000000007FFFFF0000000000007FFFF0003FFFFFFFFFC00007E000007
310
F000F800000000000FFC0007FFF80000FFFF8000FF80007FF800000000001FFF
310
800000000001FFF8000001FFFE0000007F80000000000001FFF800000000000F
310
FFFFF800000000000FFFFF0003FFFFFFFFFC00000000000FF000FC0000000000
310
1FFC0007FFFC0000FFFF8000FF80007FF800000000003FFFC00000000001FFF8
310
000001FFFE0000007F80000000000001FFF800000000000FFFFFF80000000000
310
0FFFFF0003FFFFFFFFFE00000000001FF000FE00000000003FF8000FFFFC0000
310
FFFF8000FF80007FFC00000000003FFFC00000000003FFF8000001FFFE000000
310
7F80000000000001FFFC00000000001FFFFFFC00000000001FFFFF0003FFFFFF
310
FFFF00000000001FF000FF00000000003FF8000FFFFC0000FFFFC000FF80007F
310
FE00000000007FFFE00000000007FFF8000001FFFE0000007F80000000000001
310
FFFE00000000003FFFFFFE00000000003FFFFF0003FFFFFFFFFF80000000003F
310
F000FF80000000007FF8000FFFFC0001FFFFC0007F80007FFF0000000000FFFF
310
F0000000000FFFF800000000000000007F80000000000001FFFF8000000000FF
310
FFFFFF8000000000FFFFFF0003FFFFFFFFFFC0000000007FF000FFC000000000
310
FFF8000FFFFE0001FFFFC0007F80007FFF8000000001FFFFF8000000001FFFF8
310
00000000000000007F80000000000001FFFFC000000001FFFFFFFFC000000001
310
FFFFFF0003FFFFFFFFFFE000000000FFF000FFE000000003FFF0001FFFFE0001
310
FFFFC0007F80007FFFC000000007FFFFFE000000003FFFF80000000000000000
310
7F80000000000001FFFFE000000003FFFFFFFFE000000003FFFFFF0003FFFFFF
310
FFFFF000000003FFF000FFF80000000FFFF0001FFFFE0001FFFFE0007F80007F
310
FFF00000000FFFFFFF00000000FFFFF800000000000000007F80000000000001
310
FFFFF80000000FFFFFFFFFF80000000FFFFFFF0003FFFFFFFFFFFC0000000FFF
310
F000FFFE0000003FFFF0001FFFFE0003FFFFE0003F80007FFFFC0000003FFFFF
310
FFC0000003FFFFF800000000000000007F80000000000001FFFFFE0000003FFF
310
FFFFFFFE0000003FFFFFFF0003FFFFFFFFFFFF0000003FFFF000FFFF800000FF
310
FFF0001FFFFF0003FFFFE0003F80007FFFFF000001FFFFFFFFF800001FFFFFF8
310
00000000000000007F80000000000001FFFFFFC00001FFFFFFFFFFFFC00001FF
310
FFFFFF0003FFFFFFFFFFFFC00000FFFFF000FFFFF8000FFFFFFFFFFFFFFFFFFF
310
FFFFFFFFFFFFFFFFFFFFF0001FFFFFFFFFFF0000FFFFFFF80000000000000000
310
7FFFFFFFFFFFFFFFFFFFFFFC001FFFFFFFFFFFFFFC001FFFFFFFFFFFFFFFFFFF
310
FFFFFFFC001FFFFFF000FFFFFFFFFFFFFFFFFFFFFFFFFFFFFFFFFFFFFFFFFFFF
310
FFFFFFFFFFFFFFFFFFFFFFFFFFFFFFFFFFFFFFFFFFFFFFFFFFFFFFFFFFFFFFFF
310
FFFFFFFFFFFFFFFFFFFFFFFFFFFFFFFFFFFFFFFFFFFFFFFFFFFFFFFFFFFFFFFF
310
F000FFFFFFFFFFFFFFFFFFFFFFFFFFFFFFFFFFFFFFFFFFFFFFFFFFFFFFFFFFFF
310
FFFFFFFFFFFFFFFFFFFFFFFFFFFFFFFFFFFFFFFFFFFFFFFFFFFFFFFFFFFFFFFF
310
FFFFFFFFFFFFFFFFFFFFFFFFFFFFFFFFFFFFFFFFFFFFFFFFF000FFFFFFFFFFFF
310
FFFFFFFFFFFFFFFFFFFFFFFFFFFFFFFFFFFFFFFFFFFFFFFFFFFFFFFFFFFFFFFF
310
FFFFFFFFFFFFFFFFFFFFFFFFFFFFFFFFFFFFFFFFFFFFFFFFFFFFFFFFFFFFFFFF
310
FFFFFFFFFFFFFFFFFFFFFFFFFFFFFFFFF000FFFFFFFFFFFFFFFFFFFFFFFFFFFF
310
FFFFFFFFFFFFFFFFFFFFFFFFFFFFFFFFFFFFFFFFFFFFFFFFFFFFFFFFFFFFFFFF
310
FFFFFFFFFFFFFFFFFFFFFFFFFFFFFFFFFFFFFFFFFFFFFFFFFFFFFFFFFFFFFFFF
310
FFFFFFFFFFFFFFFFF000FFFFFFFFFFFFFFFFFFFFFFFFFFFFFFFFFFFFFFFFFFFF
310
FFFFFFFFFFFFFFFFFFFFFFFFFFFFFFFFFFFFFFFFFFFFFFFFFFFFFFFFFFFFFFFF
310
FFFFFFFFFFFFFFFFFFFFFFFFFFFFFFFFFFFFFFFFFFFFFFFFFFFFFFFFFFFFFFFF
310
F000FFFFFFFFFFFFFFFFFFFFFFFFFFFFFFFFFFFFFFFFFFFFFFFFFFFFFFFFFFFF
310
FFFFFFFFFFFFFFFFFFFFFFFFFFFFFFFFFFFFFFFFFFFFFFFFFFFFFFFFFFFFFFFF
310
FFFFFFFFFFFFFFFFFFFFFFFFFFFFFFFFFFFFFFFFFFFFFFFFF000FFFFFFFFFFFF
310
FFFFFFFFFFFFFFFFFFFFFFFFFFFFFFFFFFFFFFFFFFFFFFFFFFFFFFFFFFFFFFFF
310
FFFFFFFFFFFFFFFFFFFFFFFFFFFFFFFFFFFFFFFFFFFFFFFFFFFFFFFFFFFFFFFF
310
FFFFFFFFFFFFFFFFFFFFFFFFFFFFFFFFF000FFFFFFFFFFFFFFFFFFFFFFFFFFFF
310
FFFFFFFFFFFFFFFFFFFFFFFFFFFFFFFFFFFFFFFFFFFFFFFFFFFFFFFFFFFFFFFF
310
FFFFFFFFFFFFFFFFFFFFFFFFFFFFFFFFFFFFFFFFFFFFFFFFFFFFFFFFFFFFFFFF
310
FFFFFFFFFFFFFFFFF000FFFFFFFFFFFFFFFFFFFFFFFFFFFFFFFFFFFFFFFFFFFF
310
FFFFFFFFFFFFFFFFFFFFFFFFFFFFFFFFFFFFFFFFFFFFFFFFFFFFFFFFFFFFFFFF
310
FFFFFFFFFFFFFFFFFFFFFFFFFFFFFFFFFFFFFFFFFFFFFFFFFFFFFFFFFFFFFFFF
310
F000FFFFFFFFFFFFFFFFFFFFFFFFFFFFFFFFFFFFFFFFFFFFFFFFFFFFFFFFFFFF
310
FFFFFFFFFFFFFFFFFFFFFFFFFFFFFFFFFFFFFFFFFFFFFFFFFFFFFFFFFFFFFFFF
310
FFFFFFFFFFFFFFFFFFFFFFFFFFFFFFFFFFFFFFFFFFFFFFFFF000FFFFFFFFFFFF
310
FFFFFFFFFFFFFFFFFFFFFFFFFFFFFFFFFFFFFFFFFFFFFFFFFFFFFFFFFFFFFFFF
310
FFFFFFFFFFFFFFFFFFFFFFFFFFFFFFFFFFFFFFFFFFFFFFFFFFFFFFFFFFFFFFFF
310
FFFFFFFFFFFFFFFFFFFFFFFFFFFFFFFFF000FFFFFFFFFFFFFFFFFFFFFFFFFFFF
310
FFFFFFFFFFFFFFFFFFFFFFFFFFFFFFFFFFFFFFFFFFFFFFFFFFFFFFFFFFFFFFFF
310
FFFFFFFFFFFFFFFFFFFFFFFFFFFFFFFFFFFFFFFFFFFFFFFFFFFFFFFFFFFFFFFF
310
FFFFFFFFFFFFFFFFF000FFFFFFFFFFFFFFFFFFFFFFFFFFFFFFFFFFFFFFFFFFFF
310
FFFFFFFFFFFFFFFFFFFFFFFFFFFFFFFFFFFFFFFFFFFFFFFFFFFFFFFFFFFFFFFF
310
FFFFFFFFFFFFFFFFFFFFFFFFFFFFFFFFFFFFFFFFFFFFFFFFFFFFFFFFFFFFFFFF
310
F000FFFFFFFFFFFFFFFFFFFFFFFFFFFFFFFFFFFFFFFFFFFFFFFFFFFFFFFFFFFF
310
FFFFFFFFFFFFFFFFFFFFFFFFFFFFFFFFFFFFFFFFFFFFFFFFFFFFFFFFFFFFFFFF
310
FFFFFFFFFFFFFFFFFFFFFFFFFFFFFFFFFFFFFFFFFFFFFFFFF000FFFFFFFFFFFF
310
FFFFFFFFFFFFFFFFFFFFFFFFFFFFFFFFFFFFFFFFFFFFFFFFFFFFFFFFFFFFFFFF
310
FFFFFFFFFFFFFFFFFFFFFFFFFFFFFFFFFFFFFFFFFFFFFFFFFFFFFFFFFFFFFFFF
310
FFFFFFFFFFFFFFFFFFFFFFFFFFFFFFFFF000FFFFFFFFFFFFFFFFFFFFFFFFFFFF
310
FFFFFFFFFFFFFFFFFFFFFFFFFFFFFFFFFFFFFFFFFFFFFFFFFFFFFFFFFFFFFFFF
310
FFFFFFFFFFFFFFFFFFFFFFFFFFFFFFFFFFFFFFFFFFFFFFFFFFFFFFFFFFFFFFFF
310
FFFFFFFFFFFFFFFFF000FFFFFFFFFFFFFFFFFFFFFFFFFFFFFFFFFFFFFFFFFFFF
310
FFFFFFFFFFFFFFFFFFFFFFFFFFFFFFFFFFFFFFFFFFFFFFFFFFFFFFFFFFFFFFFF
310
FFFFFFFFFFFFFFFFFFFFFFFFFFFFFFFFFFFFFFFFFFFFFFFFFFFFFFFFFFFFFFFF
310
F000FFFFFFFFFFFFFFFFFFFFFFFFFFFFFFFFFFFFFFFFFFFFFFFFFFFFFFFFFFFF
310
FFFFFFFFFFFFFFFFFFFFFFFFFFFFFFFFFFFFFFFFFFFFFFFFFFFFFFFFFFFFFFFF
310
FFFFFFFFFFFFFFFFFFFFFFFFFFFFFFFFFFFFFFFFFFFFFFFFF000FFFFFFFFFFFF
310
FFFFFFFFFFFFFFFFFFFFFFFFFFFFFFFFFFFFFFFFFFFFFFFFFFFFFFFFFFFFFFFF
310
FFFFFFFFFFFFFFFFFFFFFFFFFFFFFFFFFFFFFFFFFFFFFFFFFFFFFFFFFFFFFFFF
310
FFFFFFFFFFFFFFFFFFFFFFFFFFFFFFFFF000FFFFFFFFFFFFFFFFFFFFFFFFFFFF
310
FFFFFFFFFFFFFFFFFFFFFFFFFFFFFFFFFFFFFFFFFFFFFFFFFFFFFFFFFFFFFFFF
310
FFFFFFFFFFFFFFFFFFFFFFFFFFFFFFFFFFFFFFFFFFFFFFFFFFFFFFFFFFFFFFFF
310
FFFFFFFFFFFFFFFFF000FFFFFFFFFFFFFFFFFFFFFFFFFFFFFFFFFFFFFFFFFFFF
310
FFFFFFFFFFFFFFFFFFFFFFFFFFFFFFFFFFFFFFFFFFFFFFFFFFFFFFFFFFFFFFFF
310
FFFFFFFFFFFFFFFFFFFFFFFFFFFFFFFFFFFFFFFFFFFFFFFFFFFFFFFFFFFFFFFF
310
F000FFFFFFFFFFFFFFFFFFFFFFFFFFFFFFFFFFFFFFFFFFFFFFFFFFFFFFFFFFFF
310
FFFFFFFFFFFFFFFFFFFFFFFFFFFFFFFFFFFFFFFFFFFFFFFFFFFFFFFFFFFFFFFF
310
FFFFFFFFFFFFFFFFFFFFFFFFFFFFFFFFFFFFFFFFFFFFFFFFF000FFFFFFFFFFFF
310
FFFFFFFFFFFFFFFFFFFFFFFFFFFFFFFFFFFFFFFFFFFFFFFFFFFFFFFFFFFFFFFF
310
FFFFFFFFFFFFFFFFFFFFFFFFFFFFFFFFFFFFFFFFFFFFFFFFFFFFFFFFFFFFFFFF
310
FFFFFFFFFFFFFFFFFFFFFFFFFFFFFFFFF0000000000000000000000000000000
310
0000000000000000000000000000000000000000000000000000000000000000
310
0000000000000000000000000000000000000000000000000000000000000000
310
0000000000000000000000000000000000000000000000000000000000000000
310
0000000000000000000000000000000000000000000000000000000000000000
310
0000000000000000000000000000000000000000000000000000000000000000
310
0000000000000000000000000000000000000000000000000000000000000000
310
0000000000000000000000000000000000000000000000000000000000000000
310
0000000000000000000000000000000000000000000000000000000000000000
310
0000000000000000000000000000000000000000000000000000000000000000
310
0000000000000000000000000000000000000000000000000000000000000000
310
0000000000000000000000000000000000000000000000000000000000000000
310
0000000000000000000000000000000000000000000000000000000000000000
310
0000000000000000000000000000000000000000000000000000000000000000
310
0000000000000000000000000000000000000000000000000000000000000000
310
0000000000000000000000000000000000000000000000000000000000000000
  1
OLE
  0
ENDSEC
  0
SECTION
  2
OBJECTS
  0
DICTIONARY
  5
C
330
0
100
AcDbDictionary
281
     1
  3
ACAD_GROUP
350
D
  3
ACAD_LAYOUT
350
1A
  3
ACAD_MLINESTYLE
350
17
  3
ACAD_PLOTSETTINGS
350
19
  3
ACAD_PLOTSTYLENAME
350
E
  0
DICTIONARY
  5
D
102
{ACAD_REACTORS
330
C
102
}
330
C
100
AcDbDictionary
281
     1
  0
DICTIONARY
  5
1A
102
{ACAD_REACTORS
330
C
102
}
330
C
100
AcDbDictionary
281
     1
  3
Layout1
350
1E
  3
Layout2
350
26
  3
Model
350
22
  0
DICTIONARY
  5
17
102
{ACAD_REACTORS
330
C
102
}
330
C
100
AcDbDictionary
281
     1
  3
Standard
350
18
  0
DICTIONARY
  5
19
102
{ACAD_REACTORS
330
C
102
}
330
C
100
AcDbDictionary
281
     1
  0
ACDBDICTIONARYWDFLT
  5
E
102
{ACAD_REACTORS
330
C
102
}
330
C
100
AcDbDictionary
281
     1
  3
Normal
350
F
100
AcDbDictionaryWithDefault
340
F
  0
LAYOUT
  5
1E
102
{ACAD_REACTORS
330
1A
102
}
330
1A
100
AcDbPlotSettings
  1

  2
none_device
  4

  6

 40
0.0
 41
0.0
 42
0.0
 43
0.0
 44
0.0
 45
0.0
 46
0.0
 47
0.0
 48
0.0
 49
0.0
140
0.0
141
0.0
142
1.0
143
1.0
 70
   688
 72
     0
 73
     0
 74
     5
  7

 75
    16
147
1.0
148
0.0
149
0.0
100
AcDbLayout
  1
Layout1
 70
     1
 71
     1
 10
0.0
 20
0.0
 11
420.0
 21
297.0
 12
0.0
 22
0.0
 32
0.0
 14
1.0000000000E+20
 24
1.0000000000E+20
 34
1.0000000000E+20
 15
-1.0000000000E+20
 25
-1.0000000000E+20
 35
-1.0000000000E+20
146
0.0
 13
0.0
 23
0.0
 33
0.0
 16
1.0
 26
0.0
 36
0.0
 17
0.0
 27
1.0
 37
0.0
 76
     0
330
1B
  0
LAYOUT
  5
26
102
{ACAD_REACTORS
330
1A
102
}
330
1A
100
AcDbPlotSettings
  1

  2
none_device
  4

  6

 40
0.0
 41
0.0
 42
0.0
 43
0.0
 44
0.0
 45
0.0
 46
0.0
 47
0.0
 48
0.0
 49
0.0
140
0.0
141
0.0
142
1.0
143
1.0
 70
   688
 72
     0
 73
     0
 74
     5
  7

 75
    16
147
1.0
148
0.0
149
0.0
100
AcDbLayout
  1
Layout2
 70
     1
 71
     2
 10
0.0
 20
0.0
 11
0.0
 21
0.0
 12
0.0
 22
0.0
 32
0.0
 14
0.0
 24
0.0
 34
0.0
 15
0.0
 25
0.0
 35
0.0
146
0.0
 13
0.0
 23
0.0
 33
0.0
 16
1.0
 26
0.0
 36
0.0
 17
0.0
 27
1.0
 37
0.0
 76
     0
330
23
  0
LAYOUT
  5
22
102
{ACAD_REACTORS
330
1A
102
}
330
1A
100
AcDbPlotSettings
  1

  2
none_device
  4

  6

 40
0.0
 41
0.0
 42
0.0
 43
0.0
 44
0.0
 45
0.0
 46
0.0
 47
0.0
 48
0.0
 49
0.0
140
0.0
141
0.0
142
1.0
143
1.0
 70
  1712
 72
     0
 73
     0
 74
     0
  7

 75
     0
147
1.0
148
0.0
149
0.0
100
AcDbLayout
  1
Model
 70
     1
 71
     0
 10
0.0
 20
0.0
 11
297.0
 21
210.0
 12
0.0
 22
0.0
 32
0.0
 14
0.0
 24
0.0
 34
0.0
 15
297.0
 25
210.0
 35
0.0
146
0.0
 13
0.0
 23
0.0
 33
0.0
 16
1.0
 26
0.0
 36
0.0
 17
0.0
 27
1.0
 37
0.0
 76
     0
330
1F
331
29
  0
MLINESTYLE
  5
18
102
{ACAD_REACTORS
330
17
102
}
330
17
100
AcDbMlineStyle
  2
Standard
 70
     0
  3

 62
   256
 51
90.0
 52
90.0
 71
     2
 49
0.5
 62
   256
  6
BYLAYER
 49
-0.5
 62
   256
  6
BYLAYER
  0
ACDBPLACEHOLDER
  5
F
102
{ACAD_REACTORS
330
E
102
}
330
E
  0
ENDSEC
  0
EOF
