  0
SECTION
  2
HEADER
  9
$ACADVER
  1
AC1015
  9
$ACADMAINTVER
 70
     6
  9
$DWGCODEPAGE
  3
ANSI_1252
  9
$INSBASE
 10
0.0
 20
0.0
 30
0.0
  9
$EXTMIN
 10
0.0
 20
0.0
 30
0.0
  9
$EXTMAX
 10
297.0
 20
210.0
 30
0.0
  9
$LIMMIN
 10
0.0
 20
0.0
  9
$LIMMAX
 10
297.0
 20
210.0
  9
$ORTHOMODE
 70
     0
  9
$REGENMODE
 70
     1
  9
$FILLMODE
 70
     1
  9
$QTEXTMODE
 70
     0
  9
$MIRRTEXT
 70
     1
  9
$LTSCALE
 40
1.0
  9
$ATTMODE
 70
     1
  9
$TEXTSIZE
 40
2.0
  9
$TRACEWID
 40
1.0
  9
$TEXTSTYLE
  7
Standard
  9
$CLAYER
  8
0
  9
$CELTYPE
  6
ByLayer
  9
$CECOLOR
 62
   256
  9
$CELTSCALE
 40
1.0
  9
$DISPSILH
 70
     0
  9
$DIMSCALE
 40
1.0
  9
$DIMASZ
 40
3.0
  9
$DIMEXO
 40
0.0
  9
$DIMDLI
 40
3.75
  9
$DIMRND
 40
0.0
  9
$DIMDLE
 40
0.0
  9
$DIMEXE
 40
1.0
  9
$DIMTP
 40
0.0
  9
$DIMTM
 40
0.0
  9
$DIMTXT
 40
2.0
  9
$DIMCEN
 40
2.5
  9
$DIMTSZ
 40
0.0
  9
$DIMTOL
 70
     0
  9
$DIMLIM
 70
     0
  9
$DIMTIH
 70
     1
  9
$DIMTOH
 70
     1
  9
$DIMSE1
 70
     0
  9
$DIMSE2
 70
     0
  9
$DIMTAD
 70
     1
  9
$DIMZIN
 70
     0
  9
$DIMBLK
  1

  9
$DIMASO
 70
     1
  9
$DIMSHO
 70
     1
  9
$DIMPOST
  1

  9
$DIMAPOST
  1

  9
$DIMALT
 70
     0
  9
$DIMALTD
 70
     3
  9
$DIMALTF
 40
0.0393700787
  9
$DIMLFAC
 40
1.0
  9
$DIMTOFL
 70
     1
  9
$DIMTVP
 40
0.0
  9
$DIMTIX
 70
     0
  9
$DIMSOXD
 70
     0
  9
$DIMSAH
 70
     0
  9
$DIMBLK1
  1

  9
$DIMBLK2
  1

  9
$DIMSTYLE
  2
ISO-25
  9
$DIMCLRD
 70
     0
  9
$DIMCLRE
 70
     0
  9
$DIMCLRT
 70
     0
  9
$DIMTFAC
 40
1.0
  9
$DIMGAP
 40
1.524
  9
$DIMJUST
 70
     0
  9
$DIMSD1
 70
     0
  9
$DIMSD2
 70
     0
  9
$DIMTOLJ
 70
     0
  9
$DIMTZIN
 70
     0
  9
$DIMALTZ
 70
     0
  9
$DIMALTTZ
 70
     0
  9
$DIMUPT
 70
     0
  9
$DIMDEC
 70
     2
  9
$DIMTDEC
 70
     3
  9
$DIMALTU
 70
     2
  9
$DIMALTTD
 70
     3
  9
$DIMTXSTY
  7
Standard
  9
$DIMAUNIT
 70
     0
  9
$DIMADEC
 70
     2
  9
$DIMALTRND
 40
0.0
  9
$DIMAZIN
 70
     0
  9
$DIMDSEP
 70
    44
  9
$DIMATFIT
 70
     3
  9
$DIMFRAC
 70
     0
  9
$DIMLDRBLK
  1

  9
$DIMLUNIT
 70
     2
  9
$DIMLWD
 70
    -2
  9
$DIMLWE
 70
    -2
  9
$DIMTMOVE
 70
     0
  9
$LUNITS
 70
     2
  9
$LUPREC
 70
     2
  9
$SKETCHINC
 40
1.0
  9
$FILLETRAD
 40
10.0
  9
$AUNITS
 70
     0
  9
$AUPREC
 70
     2
  9
$MENU
  1
.
  9
$ELEVATION
 40
0.0
  9
$PELEVATION
 40
0.0
  9
$THICKNESS
 40
0.0
  9
$LIMCHECK
 70
     0
  9
$CHAMFERA
 40
10.0
  9
$CHAMFERB
 40
10.0
  9
$CHAMFERC
 40
20.0
  9
$CHAMFERD
 40
0.0
  9
$SKPOLY
 70
     0
  9
$TDCREATE
 40
2456083.696102488
  9
$TDUCREATE
 40
2456083.612769155
  9
$TDUPDATE
 40
2456083.696103935
  9
$TDUUPDATE
 40
2456083.612770602
  9
$TDINDWG
 40
0.0000000116
  9
$TDUSRTIMER
 40
0.0000000116
  9
$USRTIMER
 70
     1
  9
$ANGBASE
 50
0.0
  9
$ANGDIR
 70
     0
  9
$PDMODE
 70
     0
  9
$PDSIZE
 40
-1.0
  9
$PLINEWID
 40
0.0
  9
$SPLFRAME
 70
     0
  9
$SPLINETYPE
 70
     6
  9
$SPLINESEGS
 70
     8
  9
$HANDSEED
  5
222
  9
$SURFTAB1
 70
     6
  9
$SURFTAB2
 70
     6
  9
$SURFTYPE
 70
     6
  9
$SURFU
 70
     6
  9
$SURFV
 70
     6
  9
$UCSBASE
  2

  9
$UCSNAME
  2

  9
$UCSORG
 10
0.0
 20
0.0
 30
0.0
  9
$UCSXDIR
 10
1.0
 20
0.0
 30
0.0
  9
$UCSYDIR
 10
0.0
 20
1.0
 30
0.0
  9
$UCSORTHOREF
  2

  9
$UCSORTHOVIEW
 70
     0
  9
$UCSORGTOP
 10
0.0
 20
0.0
 30
0.0
  9
$UCSORGBOTTOM
 10
0.0
 20
0.0
 30
0.0
  9
$UCSORGLEFT
 10
0.0
 20
0.0
 30
0.0
  9
$UCSORGRIGHT
 10
0.0
 20
0.0
 30
0.0
  9
$UCSORGFRONT
 10
0.0
 20
0.0
 30
0.0
  9
$UCSORGBACK
 10
0.0
 20
0.0
 30
0.0
  9
$PUCSBASE
  2

  9
$PUCSNAME
  2

  9
$PUCSORG
 10
0.0
 20
0.0
 30
0.0
  9
$PUCSXDIR
 10
1.0
 20
0.0
 30
0.0
  9
$PUCSYDIR
 10
0.0
 20
1.0
 30
0.0
  9
$PUCSORTHOREF
  2

  9
$PUCSORTHOVIEW
 70
     0
  9
$PUCSORGTOP
 10
0.0
 20
0.0
 30
0.0
  9
$PUCSORGBOTTOM
 10
0.0
 20
0.0
 30
0.0
  9
$PUCSORGLEFT
 10
0.0
 20
0.0
 30
0.0
  9
$PUCSORGRIGHT
 10
0.0
 20
0.0
 30
0.0
  9
$PUCSORGFRONT
 10
0.0
 20
0.0
 30
0.0
  9
$PUCSORGBACK
 10
0.0
 20
0.0
 30
0.0
  9
$USERI1
 70
     0
  9
$USERI2
 70
     0
  9
$USERI3
 70
     0
  9
$USERI4
 70
     0
  9
$USERI5
 70
     0
  9
$USERR1
 40
0.0
  9
$USERR2
 40
0.0
  9
$USERR3
 40
0.0
  9
$USERR4
 40
0.0
  9
$USERR5
 40
0.0
  9
$WORLDVIEW
 70
     1
  9
$SHADEDGE
 70
     3
  9
$SHADEDIF
 70
    70
  9
$TILEMODE
 70
     1
  9
$MAXACTVP
 70
    64
  9
$PINSBASE
 10
0.0
 20
0.0
 30
0.0
  9
$PLIMCHECK
 70
     0
  9
$PEXTMIN
 10
1.0000000000E+20
 20
1.0000000000E+20
 30
1.0000000000E+20
  9
$PEXTMAX
 10
-1.0000000000E+20
 20
-1.0000000000E+20
 30
-1.0000000000E+20
  9
$PLIMMIN
 10
0.0
 20
0.0
  9
$PLIMMAX
 10
420.0
 20
297.0
  9
$UNITMODE
 70
     0
  9
$VISRETAIN
 70
     1
  9
$PLINEGEN
 70
     0
  9
$PSLTSCALE
 70
     1
  9
$TREEDEPTH
 70
  3020
  9
$CMLSTYLE
  2
Standard
  9
$CMLJUST
 70
     0
  9
$CMLSCALE
 40
20.0
  9
$PROXYGRAPHICS
 70
     1
  9
$MEASUREMENT
 70
     1
  9
$CELWEIGHT
370
    -1
  9
$ENDCAPS
280
     0
  9
$JOINSTYLE
280
     0
  9
$LWDISPLAY
290
     1
  9
$INSUNITS
 70
     4
  9
$HYPERLINKBASE
  1

  9
$STYLESHEET
  1

  9
$XEDIT
290
     1
  9
$CEPSNTYPE
380
     0
  9
$PSTYLEMODE
290
     1
  9
$FINGERPRINTGUID
  2
{E961A134-64A4-4F3F-9A9C-C9791A2020B2}
  9
$VERSIONGUID
  2
{FAEB1C32-E019-11D5-929B-00C0DF256EC4}
  9
$EXTNAMES
290
     1
  9
$PSVPSCALE
 40
0.0
  9
$OLESTARTUP
290
     0
  0
ENDSEC
  0
SECTION
  2
CLASSES
  0
CLASS
  1
ACDBDICTIONARYWDFLT
  2
AcDbDictionaryWithDefault
  3
ObjectDBX Classes
 90
        0
280
     0
281
     0
  0
CLASS
  1
VISUALSTYLE
  2
AcDbVisualStyle
  3
ObjectDBX Classes
 90
     4095
280
     0
281
     0
  0
CLASS
  1
MATERIAL
  2
AcDbMaterial
  3
ObjectDBX Classes
 90
     1153
280
     0
281
     0
  0
CLASS
  1
ACDBPLACEHOLDER
  2
AcDbPlaceHolder
  3
ObjectDBX Classes
 90
        0
280
     0
281
     0
  0
CLASS
  1
LAYOUT
  2
AcDbLayout
  3
ObjectDBX Classes
 90
        0
280
     0
281
     0
  0
ENDSEC
  0
SECTION
  2
TABLES
  0
TABLE
  2
VPORT
  5
8
330
0
100
AcDbSymbolTable
 70
     1
  0
VPORT
  5
29
330
8
100
AcDbSymbolTableRecord
100
AcDbViewportTableRecord
  2
*Active
 70
     0
 10
0.0
 20
0.0
 11
1.0
 21
1.0
 12
148.5
 22
105.0
 13
0.0
 23
0.0
 14
10.0
 24
10.0
 15
10.0
 25
10.0
 16
0.0
 26
0.0
 36
1.0
 17
0.0
 27
0.0
 37
0.0
 40
210.0
 41
1.4142857143
 42
50.0
 43
0.0
 44
0.0
 50
0.0
 51
0.0
 71
     0
 72
  2000
 73
     1
 74
     3
 75
     0
 76
     0
 77
     0
 78
     0
281
     0
 65
     1
110
0.0
120
0.0
130
0.0
111
1.0
121
0.0
131
0.0
112
0.0
122
1.0
132
0.0
 79
     0
146
0.0
  0
ENDTAB
  0
TABLE
  2
LTYPE
  5
5
330
0
100
AcDbSymbolTable
 70
     6
  0
LTYPE
  5
14
330
5
100
AcDbSymbolTableRecord
100
AcDbLinetypeTableRecord
  2
ByBlock
 70
     0
  3

 72
    65
 73
     0
 40
0.0
  0
LTYPE
  5
15
330
5
100
AcDbSymbolTableRecord
100
AcDbLinetypeTableRecord
  2
ByLayer
 70
     0
  3

 72
    65
 73
     0
 40
0.0
  0
LTYPE
  5
16
330
5
100
AcDbSymbolTableRecord
100
AcDbLinetypeTableRecord
  2
Continuous
 70
     0
  3
Solid line
 72
    65
 73
     0
 40
0.0
  0
LTYPE
  5
3F
330
5
100
AcDbSymbolTableRecord
100
AcDbLinetypeTableRecord
  2
HIDDEN
 70
     0
  3
Hidden __ __ __ __ __ __ __ __ __ __ __ __ __ __
 72
    65
 73
     2
 40
1.905
 49
1.27
 74
     0
 49
-0.635
 74
     0
  0
LTYPE
  5
40
330
5
100
AcDbSymbolTableRecord
100
AcDbLinetypeTableRecord
  2
PHANTOM
 70
     0
  3
Phantom ______  __  __  ______  __  __  ______
 72
    65
 73
     6
 40
12.7
 49
6.35
 74
     0
 49
-1.27
 74
     0
 49
1.27
 74
     0
 49
-1.27
 74
     0
 49
1.27
 74
     0
 49
-1.27
 74
     0
  0
LTYPE
  5
41
330
5
100
AcDbSymbolTableRecord
100
AcDbLinetypeTableRecord
  2
CENTER
 70
     0
  3
Center ____ _ ____ _ ____ _ ____ _ ____ _ ____
 72
    65
 73
     4
 40
10.16
 49
6.35
 74
     0
 49
-1.27
 74
     0
 49
1.27
 74
     0
 49
-1.27
 74
     0
  0
LTYPE
  5
42
330
5
100
AcDbSymbolTableRecord
100
AcDbLinetypeTableRecord
  2
CENTERX2
 70
     0
  3
Center (2x) ________  __  ________  __  _____
 72
    65
 73
     4
 40
20.32
 49
12.7
 74
     0
 49
-2.54
 74
     0
 49
2.54
 74
     0
 49
-2.54
 74
     0
  0
LTYPE
  5
43
330
5
100
AcDbSymbolTableRecord
100
AcDbLinetypeTableRecord
  2
DOT2
 70
     0
  3
Dot (.5x) ........................................
 72
    65
 73
     2
 40
0.635
 49
0.0
 74
     0
 49
-0.635
 74
     0
  0
ENDTAB
  0
TABLE
  2
LAYER
  5
2
330
0
100
AcDbSymbolTable
 70
     5
  0
LAYER
  5
10
330
2
100
AcDbSymbolTableRecord
100
AcDbLayerTableRecord
  2
0
 70
     0
 62
     7
  6
Continuous
370
    -3
390
F
  0
LAYER
  5
44
330
2
100
AcDbSymbolTableRecord
100
AcDbLayerTableRecord
  2
FORMAT
 70
     0
 62
     7
  6
Continuous
370
    -3
390
F
  0
LAYER
  5
45
330
2
100
AcDbSymbolTableRecord
100
AcDbLayerTableRecord
  2
VERMASSUNG
 70
     0
 62
     7
  6
Continuous
370
    -3
390
F
  0
LAYER
  5
46
330
2
100
AcDbSymbolTableRecord
100
AcDbLayerTableRecord
  2
KOPF_DÜNN
 70
     0
 62
     7
  6
Continuous
370
    -3
390
F
  0
LAYER
  5
47
330
2
100
AcDbSymbolTableRecord
100
AcDbLayerTableRecord
  2
KOPF_DICK
 70
     0
 62
     7
  6
Continuous
370
    15
390
F
  0
ENDTAB
  0
TABLE
  2
STYLE
  5
3
330
0
100
AcDbSymbolTable
 70
     2
  0
STYLE
  5
11
330
3
100
AcDbSymbolTableRecord
100
AcDbTextStyleTableRecord
  2
Standard
 70
     0
 40
0.0
 41
1.0
 50
0.0
 71
     0
 42
2.0
  3
txt
  4

  0
STYLE
  5
48
330
3
100
AcDbSymbolTableRecord
100
AcDbTextStyleTableRecord
  2
SLDTEXTSTYLE0
 70
     0
 40
0.0
 41
0.7
 50
0.0
 71
     0
 42
0.2
  3
TXT
  4

  0
ENDTAB
  0
TABLE
  2
VIEW
  5
6
330
0
100
AcDbSymbolTable
 70
     0
  0
ENDTAB
  0
TABLE
  2
UCS
  5
7
330
0
100
AcDbSymbolTable
 70
     0
  0
ENDTAB
  0
TABLE
  2
APPID
  5
9
330
0
100
AcDbSymbolTable
 70
     1
  0
APPID
  5
12
330
9
100
AcDbSymbolTableRecord
100
AcDbRegAppTableRecord
  2
ACAD
 70
     0
  0
ENDTAB
  0
TABLE
  2
DIMSTYLE
  5
A
330
0
100
AcDbSymbolTable
 70
     5
100
AcDbDimStyleTable
  0
DIMSTYLE
105
27
330
A
100
AcDbSymbolTableRecord
100
AcDbDimStyleTableRecord
  2
ISO-25
 70
     0
 41
2.5
 42
0.625
 43
3.75
 44
1.25
 73
     0
 74
     0
 77
     1
 78
     8
140
2.5
141
2.5
143
0.0393700787
147
0.625
171
     3
172
     1
178
     0
271
     2
272
     2
274
     3
278
    44
283
     0
284
     8
340
11
  0
DIMSTYLE
105
19B
102
{ACAD_REACTORS
330
19A
102
}
330
A
100
AcDbSymbolTableRecord
100
AcDbDimStyleTableRecord
  2
SLDDIMSTYLE0
 70
     0
 41
3.0
 44
0.0
 73
     0
 74
     0
 77
     1
 78
    12
 79
     3
140
2.0
147
0.5
173
     1
178
     0
179
     1
272
     3
276
     2
284
    12
340
48
  0
DIMSTYLE
105
1A4
102
{ACAD_REACTORS
330
1A3
330
1AE
330
1B8
330
1C2
330
1CB
102
}
330
A
100
AcDbSymbolTableRecord
100
AcDbDimStyleTableRecord
  2
SLDDIMSTYLE1
 70
     0
 41
3.0
 44
0.0
 45
0.000000001
 73
     0
 74
     0
 77
     1
 78
    12
 79
     3
140
2.0
147
0.5
173
     1
178
     0
271
     2
272
     3
276
     2
284
    12
340
48
  0
DIMSTYLE
105
1FA
102
{ACAD_REACTORS
330
1F9
102
}
330
A
100
AcDbSymbolTableRecord
100
AcDbDimStyleTableRecord
  2
SLDDIMSTYLE2
 70
     0
 41
3.0
 44
0.0
 45
0.000000001
 73
     0
 74
     0
 77
     1
 78
    12
 79
     3
140
2.0
147
0.5
172
     1
173
     1
178
     0
271
     2
272
     3
276
     2
284
    12
289
     0
340
48
  0
DIMSTYLE
105
209
102
{ACAD_REACTORS
330
208
102
}
330
A
100
AcDbSymbolTableRecord
100
AcDbDimStyleTableRecord
  2
SLDDIMSTYLE3
 70
     0
 41
3.0
 44
0.0
 73
     0
 74
     0
 77
     1
 78
    12
 79
     3
140
2.0
147
0.5
173
     1
178
     0
179
     2
272
     3
276
     2
284
    12
340
48
  0
ENDTAB
  0
TABLE
  2
BLOCK_RECORD
  5
1
330
0
100
AcDbSymbolTable
 70
    10
  0
BLOCK_RECORD
  5
1F
330
1
100
AcDbSymbolTableRecord
100
AcDbBlockTableRecord
  2
*Model_Space
340
22
  0
BLOCK_RECORD
  5
1B
330
1
100
AcDbSymbolTableRecord
100
AcDbBlockTableRecord
  2
*Paper_Space
340
1E
  0
BLOCK_RECORD
  5
23
330
1
100
AcDbSymbolTableRecord
100
AcDbBlockTableRecord
  2
*Paper_Space0
340
26
  0
BLOCK_RECORD
  5
19C
330
1
100
AcDbSymbolTableRecord
100
AcDbBlockTableRecord
  2
_D
340
0
  0
BLOCK_RECORD
  5
1A5
330
1
100
AcDbSymbolTableRecord
100
AcDbBlockTableRecord
  2
_D_1
340
0
  0
BLOCK_RECORD
  5
1AF
330
1
100
AcDbSymbolTableRecord
100
AcDbBlockTableRecord
  2
_D_2
340
0
  0
BLOCK_RECORD
  5
1B9
330
1
100
AcDbSymbolTableRecord
100
AcDbBlockTableRecord
  2
_D_3
340
0
  0
BLOCK_RECORD
  5
1C3
330
1
100
AcDbSymbolTableRecord
100
AcDbBlockTableRecord
  2
_D_4
340
0
  0
BLOCK_RECORD
  5
1CC
330
1
100
AcDbSymbolTableRecord
100
AcDbBlockTableRecord
  2
_D_5
340
0
  0
BLOCK_RECORD
  5
1FB
330
1
100
AcDbSymbolTableRecord
100
AcDbBlockTableRecord
  2
_D_6
340
0
  0
BLOCK_RECORD
  5
20A
330
1
100
AcDbSymbolTableRecord
100
AcDbBlockTableRecord
  2
_D_7
340
0
  0
BLOCK_RECORD
  5
215
330
1
100
AcDbSymbolTableRecord
100
AcDbBlockTableRecord
  2
SW_CENTERMARKSYMBOL_0
340
0
102
{BLKREFS
331
220
102
}
  0
ENDTAB
  0
ENDSEC
  0
SECTION
  2
BLOCKS
  0
BLOCK
  5
20
330
1F
100
AcDbEntity
  8
0
100
AcDbBlockBegin
  2
*Model_Space
 70
     0
 10
0.0
 20
0.0
 30
0.0
  3
*Model_Space
  1

  0
ENDBLK
  5
21
330
1F
100
AcDbEntity
  8
0
100
AcDbBlockEnd
  0
BLOCK
  5
1C
330
1B
100
AcDbEntity
 67
     1
  8
0
100
AcDbBlockBegin
  2
*Paper_Space
 70
     0
 10
0.0
 20
0.0
 30
0.0
  3
*Paper_Space
  1

  0
ENDBLK
  5
1D
330
1B
100
AcDbEntity
 67
     1
  8
0
100
AcDbBlockEnd
  0
BLOCK
  5
24
330
23
100
AcDbEntity
  8
0
100
AcDbBlockBegin
  2
*Paper_Space0
 70
     0
 10
0.0
 20
0.0
 30
0.0
  3
*Paper_Space0
  1

  0
ENDBLK
  5
25
330
23
100
AcDbEntity
  8
0
100
AcDbBlockEnd
  0
BLOCK
  5
19D
330
19C
100
AcDbEntity
  8
0
100
AcDbBlockBegin
  2
_D
 70
     0
 10
0.0
 20
0.0
 30
0.0
  3
_D
  1

  0
ARC
  5
19F
330
19C
100
AcDbEntity
  8
VERMASSUNG
100
AcDbCircle
 10
272.6775985803
 20
99.8310411207
 30
0.0
 40
9.145973640298456
100
AcDbArc
 50
0.0
 51
95.0121473722
  0
SOLID
  5
1A0
330
19C
100
AcDbEntity
  8
VERMASSUNG
100
AcDbTrace
 10
281.8235722206
 20
99.8310411207
 30
0.0
 11
281.7944885188
 21
102.8644639627
 31
0.0
 12
280.9057666743
 22
102.7224305755
 32
0.0
 13
280.9057666743
 23
102.7224305755
 33
0.0
  0
SOLID
  5
1A1
330
19C
100
AcDbEntity
  8
VERMASSUNG
100
AcDbTrace
 10
271.8785427982
 20
108.9420423657
 30
0.0
 11
274.8390620186
 21
108.2803581918
 31
0.0
 12
274.9029073851
 22
109.1780907629
 32
0.0
 13
274.9029073851
 23
109.1780907629
 33
0.0
  0
MTEXT
  5
1A2
330
19C
100
AcDbEntity
  8
VERMASSUNG
100
AcDbMText
 10
278.4590633686
 20
110.4347856462
 30
0.1
 40
2.0
 41
0.0
 71
     1
 72
     1
  1
95°
  7
SLDTEXTSTYLE0
 11
0.7373489491615086
 21
-0.6755120481312077
 31
0.0
 73
     1
 44
1.0
  0
ENDBLK
  5
19E
330
19C
100
AcDbEntity
  8
0
100
AcDbBlockEnd
  0
BLOCK
  5
1A6
330
1A5
100
AcDbEntity
  8
0
100
AcDbBlockBegin
  2
_D_1
 70
     0
 10
0.0
 20
0.0
 30
0.0
  3
_D_1
  1

  0
SOLID
  5
1A8
330
1A5
100
AcDbEntity
  8
VERMASSUNG
100
AcDbTrace
 10
287.1447191023
 20
99.8310411207
 30
0.0
 11
287.5947191023
 21
102.8310411207
 31
0.0
 12
286.6947191023
 22
102.8310411207
 32
0.0
 13
286.6947191023
 23
102.8310411207
 33
0.0
  0
SOLID
  5
1A9
330
1A5
100
AcDbEntity
  8
VERMASSUNG
100
AcDbTrace
 10
287.1447191023
 20
121.8310411207
 30
0.0
 11
286.6947191023
 21
118.8310411207
 31
0.0
 12
287.5947191023
 22
118.8310411207
 32
0.0
 13
287.5947191023
 23
118.8310411207
 33
0.0
  0
LINE
  5
1AA
330
1A5
100
AcDbEntity
  8
VERMASSUNG
100
AcDbLine
 10
272.6410751798
 20
99.8310411207
 30
0.0
 11
288.1447191023
 21
99.8310411207
 31
0.0
  0
LINE
  5
1AB
330
1A5
100
AcDbEntity
  8
VERMASSUNG
100
AcDbLine
 10
272.6410751798
 20
121.8310411207
 30
0.0
 11
288.1447191023
 21
121.8310411207
 31
0.0
  0
LINE
  5
1AC
330
1A5
100
AcDbEntity
  8
VERMASSUNG
100
AcDbLine
 10
287.1447191023
 20
99.8310411207
 30
0.0
 11
287.1447191023
 21
121.8310411207
 31
0.0
  0
MTEXT
  5
1AD
330
1A5
100
AcDbEntity
  8
VERMASSUNG
100
AcDbMText
 10
284.5665837392
 20
108.5310410697
 30
0.1
 40
2.0
 41
0.0
 71
     1
 72
     1
  1
22
  7
SLDTEXTSTYLE0
 11
6.123233995736766E-17
 21
1.0
 31
0.0
 73
     1
 44
1.0
  0
ENDBLK
  5
1A7
330
1A5
100
AcDbEntity
  8
0
100
AcDbBlockEnd
  0
BLOCK
  5
1B0
330
1AF
100
AcDbEntity
  8
0
100
AcDbBlockBegin
  2
_D_2
 70
     0
 10
0.0
 20
0.0
 30
0.0
  3
_D_2
  1

  0
SOLID
  5
1B2
330
1AF
100
AcDbEntity
  8
VERMASSUNG
100
AcDbTrace
 10
147.6410751798
 20
77.8815655885
 30
0.0
 11
150.6410751798
 21
77.4315655885
 31
0.0
 12
150.6410751798
 22
78.3315655885
 32
0.0
 13
150.6410751798
 23
78.3315655885
 33
0.0
  0
SOLID
  5
1B3
330
1AF
100
AcDbEntity
  8
VERMASSUNG
100
AcDbTrace
 10
272.6410751798
 20
77.8815655885
 30
0.0
 11
269.6410751798
 21
78.3315655885
 31
0.0
 12
269.6410751798
 22
77.4315655885
 32
0.0
 13
269.6410751798
 23
77.4315655885
 33
0.0
  0
LINE
  5
1B4
330
1AF
100
AcDbEntity
  8
VERMASSUNG
100
AcDbLine
 10
147.6410751798
 20
90.8310411207
 30
0.0
 11
147.6410751798
 21
76.8815655885
 31
0.0
  0
LINE
  5
1B5
330
1AF
100
AcDbEntity
  8
VERMASSUNG
100
AcDbLine
 10
272.6410751798
 20
99.8310411207
 30
0.0
 11
272.6410751798
 21
76.8815655885
 31
0.0
  0
LINE
  5
1B6
330
1AF
100
AcDbEntity
  8
VERMASSUNG
100
AcDbLine
 10
147.6410751798
 20
77.8815655885
 30
0.0
 11
272.6410751798
 21
77.8815655885
 31
0.0
  0
MTEXT
  5
1B7
330
1AF
100
AcDbEntity
  8
VERMASSUNG
100
AcDbMText
 10
207.3410750469
 20
80.4597009516
 30
0.1
 40
2.0
 41
0.0
 71
     1
 72
     1
  1
125
  7
SLDTEXTSTYLE0
 73
     1
 44
1.0
  0
ENDBLK
  5
1B1
330
1AF
100
AcDbEntity
  8
0
100
AcDbBlockEnd
  0
BLOCK
  5
1BA
330
1B9
100
AcDbEntity
  8
0
100
AcDbBlockBegin
  2
_D_3
 70
     0
 10
0.0
 20
0.0
 30
0.0
  3
_D_3
  1

  0
SOLID
  5
1BC
330
1B9
100
AcDbEntity
  8
VERMASSUNG
100
AcDbTrace
 10
109.6410751798
 20
65.647907528
 30
0.0
 11
112.6410751798
 21
65.197907528
 31
0.0
 12
112.6410751798
 22
66.097907528
 32
0.0
 13
112.6410751798
 23
66.097907528
 33
0.0
  0
SOLID
  5
1BD
330
1B9
100
AcDbEntity
  8
VERMASSUNG
100
AcDbTrace
 10
272.6410751798
 20
65.647907528
 30
0.0
 11
269.6410751798
 21
66.097907528
 31
0.0
 12
269.6410751798
 22
65.197907528
 32
0.0
 13
269.6410751798
 23
65.197907528
 33
0.0
  0
LINE
  5
1BE
330
1B9
100
AcDbEntity
  8
VERMASSUNG
100
AcDbLine
 10
109.6410751798
 20
101.5387031282
 30
0.0
 11
109.6410751798
 21
64.647907528
 31
0.0
  0
LINE
  5
1BF
330
1B9
100
AcDbEntity
  8
VERMASSUNG
100
AcDbLine
 10
272.6410751798
 20
99.8310411207
 30
0.0
 11
272.6410751798
 21
64.647907528
 31
0.0
  0
LINE
  5
1C0
330
1B9
100
AcDbEntity
  8
VERMASSUNG
100
AcDbLine
 10
109.6410751798
 20
65.647907528
 30
0.0
 11
272.6410751798
 21
65.647907528
 31
0.0
  0
MTEXT
  5
1C1
330
1B9
100
AcDbEntity
  8
VERMASSUNG
100
AcDbMText
 10
188.3410750469
 20
68.2260428911
 30
0.1
 40
2.0
 41
0.0
 71
     1
 72
     1
  1
163
  7
SLDTEXTSTYLE0
 73
     1
 44
1.0
  0
ENDBLK
  5
1BB
330
1B9
100
AcDbEntity
  8
0
100
AcDbBlockEnd
  0
BLOCK
  5
1C4
330
1C3
100
AcDbEntity
  8
0
100
AcDbBlockBegin
  2
_D_4
 70
     0
 10
0.0
 20
0.0
 30
0.0
  3
_D_4
  1

  0
SOLID
  5
1C6
330
1C3
100
AcDbEntity
  8
VERMASSUNG
100
AcDbTrace
 10
187.2143823319
 20
137.8310411207
 30
0.0
 11
186.7643823319
 21
134.8310411207
 31
0.0
 12
187.6643823319
 22
134.8310411207
 32
0.0
 13
187.6643823319
 23
134.8310411207
 33
0.0
  0
SOLID
  5
1C7
330
1C3
100
AcDbEntity
  8
VERMASSUNG
100
AcDbTrace
 10
187.2143823319
 20
105.8310411207
 30
0.0
 11
187.6643823319
 21
108.8310411207
 31
0.0
 12
186.7643823319
 22
108.8310411207
 32
0.0
 13
186.7643823319
 23
108.8310411207
 33
0.0
  0
LINE
  5
1C8
330
1C3
100
AcDbEntity
  8
VERMASSUNG
100
AcDbLine
 10
187.2143823319
 20
137.8310411207
 30
0.0
 11
187.2143823319
 21
105.8310411207
 31
0.0
  0
MTEXT
  5
1C9
330
1C3
100
AcDbEntity
  8
VERMASSUNG
100
AcDbMText
 10
184.6362468523
 20
108.6227954967
 30
0.1
 40
2.0
 41
0.0
 71
     1
 72
     1
  1
%%c
  7
SLDTEXTSTYLE0
 11
-7.044195017643634E-15
 21
1.0
 31
0.0
 73
     1
 44
1.0
  0
MTEXT
  5
1CA
330
1C3
100
AcDbEntity
  8
VERMASSUNG
100
AcDbMText
 10
184.4362468428
 20
112.232795511
 30
0.1
 40
2.0
 41
0.0
 71
     1
 72
     1
  1
32
  7
SLDTEXTSTYLE0
 11
-7.044195017643634E-15
 21
1.0
 31
0.0
 73
     1
 44
1.0
  0
ENDBLK
  5
1C5
330
1C3
100
AcDbEntity
  8
0
100
AcDbBlockEnd
  0
BLOCK
  5
1CD
330
1CC
100
AcDbEntity
  8
0
100
AcDbBlockBegin
  2
_D_5
 70
     0
 10
0.0
 20
0.0
 30
0.0
  3
_D_5
  1

  0
SOLID
  5
1CF
330
1CC
100
AcDbEntity
  8
VERMASSUNG
100
AcDbTrace
 10
99.6410751798
 20
153.3310411207
 30
0.0
 11
99.1910751798
 21
150.3310411207
 31
0.0
 12
100.0910751798
 22
150.3310411207
 32
0.0
 13
100.0910751798
 23
150.3310411207
 33
0.0
  0
SOLID
  5
1D0
330
1CC
100
AcDbEntity
  8
VERMASSUNG
100
AcDbTrace
 10
99.6410751798
 20
90.3310411207
 30
0.0
 11
100.0910751798
 21
93.3310411207
 31
0.0
 12
99.1910751798
 22
93.3310411207
 32
0.0
 13
99.1910751798
 23
93.3310411207
 33
0.0
  0
LINE
  5
1D1
330
1CC
100
AcDbEntity
  8
VERMASSUNG
100
AcDbLine
 10
148.1410751798
 20
153.3310411207
 30
0.0
 11
98.6410751798
 21
153.3310411207
 31
0.0
  0
LINE
  5
1D2
330
1CC
100
AcDbEntity
  8
VERMASSUNG
100
AcDbLine
 10
148.1410751798
 20
90.3310411207
 30
0.0
 11
98.6410751798
 21
90.3310411207
 31
0.0
  0
LINE
  5
1D3
330
1CC
100
AcDbEntity
  8
VERMASSUNG
100
AcDbLine
 10
99.6410751798
 20
153.3310411207
 30
0.0
 11
99.6410751798
 21
90.3310411207
 31
0.0
  0
MTEXT
  5
1D4
330
1CC
100
AcDbEntity
  8
VERMASSUNG
100
AcDbMText
 10
96.8629396908
 20
115.4260410115
 30
0.1
 40
2.0
 41
0.0
 71
     1
 72
     1
  1
PSC
  7
SLDTEXTSTYLE0
 11
-7.044195017643634E-15
 21
1.0
 31
0.0
 73
     1
 44
1.0
  0
MTEXT
  5
1D5
330
1CC
100
AcDbEntity
  8
VERMASSUNG
100
AcDbMText
 10
97.0629397003
 20
120.0260411136
 30
0.1
 40
2.0
 41
0.0
 71
     1
 72
     1
  1
%%c
  7
SLDTEXTSTYLE0
 11
-7.044195017643634E-15
 21
1.0
 31
0.0
 73
     1
 44
1.0
  0
MTEXT
  5
1D6
330
1CC
100
AcDbEntity
  8
VERMASSUNG
100
AcDbMText
 10
96.8629396908
 20
123.6360415936
 30
0.1
 40
2.0
 41
0.0
 71
     1
 72
     1
  1
63
  7
SLDTEXTSTYLE0
 11
-7.044195017643634E-15
 21
1.0
 31
0.0
 73
     1
 44
1.0
  0
ENDBLK
  5
1CE
330
1CC
100
AcDbEntity
  8
0
100
AcDbBlockEnd
  0
BLOCK
  5
1FC
330
1FB
100
AcDbEntity
  8
0
100
AcDbBlockBegin
  2
_D_6
 70
     0
 10
0.0
 20
0.0
 30
0.0
  3
_D_6
  1

  0
SOLID
  5
1FE
330
1FB
100
AcDbEntity
  8
VERMASSUNG
100
AcDbTrace
 10
59.4351424095
 20
136.3912285102
 30
0.0
 11
61.4999524031
 21
138.6136280446
 31
0.0
 12
60.7570318065
 22
139.1216329531
 32
0.0
 13
60.7570318065
 23
139.1216329531
 33
0.0
  0
SOLID
  5
1FF
330
1FB
100
AcDbEntity
  8
VERMASSUNG
100
AcDbTrace
 10
36.8571464724
 20
103.3725353279
 30
0.0
 11
34.7923364788
 21
101.1501357935
 31
0.0
 12
35.5352570754
 22
100.6421308849
 32
0.0
 13
35.5352570754
 23
100.6421308849
 33
0.0
  0
LINE
  5
200
330
1FB
100
AcDbEntity
  8
VERMASSUNG
100
AcDbLine
 10
59.4351424095
 20
136.3912285102
 30
0.0
 11
60.260609739
 21
135.8267786118
 31
0.0
  0
LINE
  5
201
330
1FB
100
AcDbEntity
  8
VERMASSUNG
100
AcDbLine
 10
36.8571464724
 20
103.3725353279
 30
0.0
 11
37.682613802
 21
102.8080854295
 31
0.0
  0
LINE
  5
202
330
1FB
100
AcDbEntity
  8
VERMASSUNG
100
AcDbLine
 10
59.4351424095
 20
136.3912285102
 30
0.0
 11
62.8218418
 21
141.3440324875
 31
0.0
  0
LINE
  5
203
330
1FB
100
AcDbEntity
  8
VERMASSUNG
100
AcDbLine
 10
59.4351424095
 20
136.3912285102
 30
0.0
 11
36.8571464724
 21
103.3725353279
 31
0.0
  0
LINE
  5
204
330
1FB
100
AcDbEntity
  8
VERMASSUNG
100
AcDbLine
 10
36.8571464724
 20
103.3725353279
 30
0.0
 11
22.3847004425
 21
82.2076251919
 31
0.0
  0
MTEXT
  5
205
330
1FB
100
AcDbEntity
  8
VERMASSUNG
100
AcDbMText
 10
20.256533833
 20
83.6628535014
 30
0.1
 40
2.0
 41
0.0
 71
     1
 72
     1
  1
%%c
  7
SLDTEXTSTYLE0
 11
0.5644498984266552
 21
0.8254673295571052
 31
0.0
 73
     1
 44
1.0
  0
MTEXT
  5
206
330
1FB
100
AcDbEntity
  8
VERMASSUNG
100
AcDbMText
 10
22.1291045006
 20
86.755680558
 30
0.1
 40
2.0
 41
0.0
 71
     1
 72
     1
  1
40
  7
SLDTEXTSTYLE0
 11
0.5644498984266552
 21
0.8254673295571052
 31
0.0
 73
     1
 44
1.0
  0
MTEXT
  5
207
330
1FB
100
AcDbEntity
  8
VERMASSUNG
100
AcDbMText
 10
25.5087483961
 20
91.6981663819
 30
0.1
 40
2.0
 41
0.0
 71
     1
 72
     1
  1
min.
  7
SLDTEXTSTYLE0
 11
0.5644498984266552
 21
0.8254673295571052
 31
0.0
 73
     1
 44
1.0
  0
ENDBLK
  5
1FD
330
1FB
100
AcDbEntity
  8
0
100
AcDbBlockEnd
  0
BLOCK
  5
20B
330
20A
100
AcDbEntity
  8
0
100
AcDbBlockBegin
  2
_D_7
 70
     0
 10
0.0
 20
0.0
 30
0.0
  3
_D_7
  1

  0
ARC
  5
20D
330
20A
100
AcDbEntity
  8
VERMASSUNG
100
AcDbCircle
 10
48.1461444409
 20
104.1317172286
 30
0.0
 40
56.56367904197712
100
AcDbArc
 50
90.0
 51
94.0
  0
ARC
  5
20E
330
20A
100
AcDbEntity
  8
VERMASSUNG
100
AcDbCircle
 10
48.1461444409
 20
104.1317172286
 30
0.0
 40
56.56367904197715
100
AcDbArc
 50
83.9301644347
 51
90.0
  0
ARC
  5
20F
330
20A
100
AcDbEntity
  8
VERMASSUNG
100
AcDbCircle
 10
48.1461444409
 20
104.1317172286
 30
0.0
 40
56.56367904197714
100
AcDbArc
 50
94.0
 51
101.8656825465
  0
SOLID
  5
210
330
20A
100
AcDbEntity
  8
VERMASSUNG
100
AcDbTrace
 10
48.1461444409
 20
160.6953962706
 30
0.0
 11
51.1331707201
 21
160.1660816123
 31
0.0
 12
51.1570124951
 22
161.0657657623
 32
0.0
 13
51.1570124951
 23
161.0657657623
 33
0.0
  0
SOLID
  5
211
330
20A
100
AcDbEntity
  8
VERMASSUNG
100
AcDbTrace
 10
44.200461649
 20
160.5576099913
 30
0.0
 11
41.1710922483
 21
160.7170497432
 31
0.0
 12
41.2576347398
 22
159.8212202967
 32
0.0
 13
41.2576347398
 23
159.8212202967
 33
0.0
  0
LINE
  5
212
330
20A
100
AcDbEntity
  8
VERMASSUNG
100
AcDbLine
 10
48.1461444409
 20
155.8310411207
 30
0.0
 11
48.1461444409
 21
161.6953962706
 31
0.0
  0
LINE
  5
213
330
20A
100
AcDbEntity
  8
VERMASSUNG
100
AcDbLine
 10
47.45868505
 20
113.9628445429
 30
0.0
 11
44.1307051752
 21
161.5551740416
 31
0.0
  0
MTEXT
  5
214
330
20A
100
AcDbEntity
  8
VERMASSUNG
100
AcDbMText
 10
36.0788532552
 20
162.0750058374
 30
-43.9352467575
 40
2.0
 41
0.0
 71
     1
 72
     1
  1
4°
  7
SLDTEXTSTYLE0
 11
0.9861782446421093
 21
0.1656878685800743
 31
0.0
 73
     1
 44
1.0
  0
ENDBLK
  5
20C
330
20A
100
AcDbEntity
  8
0
100
AcDbBlockEnd
  0
BLOCK
  5
216
330
215
100
AcDbEntity
  8
0
100
AcDbBlockBegin
  2
SW_CENTERMARKSYMBOL_0
 70
     0
 10
0.0
 20
0.0
 30
0.0
  3
SW_CENTERMARKSYMBOL_0
  1

  0
LINE
  5
218
330
215
100
AcDbEntity
  8
VERMASSUNG
 62
     0
100
AcDbLine
 10
0.0
 20
0.0
 30
0.0
 11
0.0
 21
2.5
 31
0.0
  0
LINE
  5
219
330
215
100
AcDbEntity
  8
VERMASSUNG
 62
     0
100
AcDbLine
 10
0.0
 20
0.0
 30
0.0
 11
-2.5
 21
0.0
 31
0.0
  0
LINE
  5
21A
330
215
100
AcDbEntity
  8
VERMASSUNG
 62
     0
100
AcDbLine
 10
0.0
 20
0.0
 30
0.0
 11
0.0
 21
-2.5
 31
0.0
  0
LINE
  5
21B
330
215
100
AcDbEntity
  8
VERMASSUNG
 62
     0
100
AcDbLine
 10
0.0
 20
0.0
 30
0.0
 11
2.5
 21
0.0
 31
0.0
  0
LINE
  5
21C
330
215
100
AcDbEntity
  8
VERMASSUNG
 62
     0
100
AcDbLine
 10
0.0
 20
5.0
 30
0.0
 11
0.0
 21
34.0
 31
0.0
  0
LINE
  5
21D
330
215
100
AcDbEntity
  8
VERMASSUNG
 62
     0
100
AcDbLine
 10
-5.0
 20
0.0
 30
0.0
 11
-34.0
 21
0.0
 31
0.0
  0
LINE
  5
21E
330
215
100
AcDbEntity
  8
VERMASSUNG
 62
     0
100
AcDbLine
 10
0.0
 20
-5.0
 30
0.0
 11
0.0
 21
-34.0
 31
0.0
  0
LINE
  5
21F
330
215
100
AcDbEntity
  8
VERMASSUNG
 62
     0
100
AcDbLine
 10
5.0
 20
0.0
 30
0.0
 11
34.0
 21
0.0
 31
0.0
  0
ENDBLK
  5
217
330
215
100
AcDbEntity
  8
0
100
AcDbBlockEnd
  0
ENDSEC
  0
SECTION
  2
ENTITIES
  0
MTEXT
  5
49
330
1F
100
AcDbEntity
  8
KOPF_DÜNN
100
AcDbMText
 10
13.8892156294
 20
23.8442973028
 30
0.0
 40
3.0
 41
0.0
 71
     1
 72
     1
  1
PS6.BCC.LLB.125
  7
SLDTEXTSTYLE0
 73
     1
 44
1.0
  0
MTEXT
  5
4A
330
1F
100
AcDbEntity
  8
VERMASSUNG
100
AcDbMText
 10
13.9329988022
 20
28.8834360957
 30
0.0
 40
3.0
 41
0.0
 71
     1
 72
     1
  1
Bohrstange links_Boring bar left
  7
SLDTEXTSTYLE0
 73
     1
 44
1.0
  0
MTEXT
  5
4B
330
1F
100
AcDbEntity
  8
VERMASSUNG
100
AcDbMText
 10
98.8601118557
 20
13.8365368179
 30
0.0
 40
2.0
 41
0.0
 71
     1
 72
     1
  1
Datum: 04.06.2012
  7
SLDTEXTSTYLE0
 73
     1
 44
1.0
  0
MTEXT
  5
4C
330
1F
100
AcDbEntity
  8
VERMASSUNG
100
AcDbMText
 10
13.933048693
 20
18.0482802738
 30
0.0
 40
2.0
 41
0.0
 71
     1
 72
     1
  1
PSC ø63 / Wp.: CC..12 04..
  7
SLDTEXTSTYLE0
 73
     1
 44
1.0
  0
MTEXT
  5
4D
330
1F
100
AcDbEntity
  8
VERMASSUNG
100
AcDbMText
 10
13.9808475933
 20
13.9090973692
 30
0.0
 40
2.0
 41
0.0
 71
     1
 72
     1
  1
Gewicht: 1258g
  7
SLDTEXTSTYLE0
 73
     1
 44
1.0
  0
ARC
  5
4E
330
1F
100
AcDbEntity
  8
0
  6
Continuous
 62
     7
370
    15
100
AcDbCircle
 10
148.1410751798
 20
90.8310411207
 30
0.0
 40
0.500000000000071
100
AcDbArc
 50
180.0
 51
270.0
  0
ARC
  5
4F
330
1F
100
AcDbEntity
  8
0
  6
Continuous
 62
     7
370
    15
100
AcDbCircle
 10
148.1410751798
 20
152.8310411207
 30
0.0
 40
0.5000000000000853
100
AcDbArc
 50
90.0
 51
180.0
  0
ARC
  5
50
330
1F
100
AcDbEntity
  8
0
  6
Continuous
 62
     7
370
    15
100
AcDbCircle
 10
168.6410751798
 20
91.3310411207
 30
0.0
 40
1.000000000000071
100
AcDbArc
 50
270.0
 51
360.0
  0
ARC
  5
51
330
1F
100
AcDbEntity
  8
0
  6
Continuous
 62
     7
370
    15
100
AcDbCircle
 10
168.6410751798
 20
152.3310411207
 30
0.0
 40
1.000000000000085
100
AcDbArc
 50
0.0
 51
90.0
  0
LINE
  5
52
330
1F
100
AcDbEntity
  8
0
  6
Continuous
 62
     7
370
    15
100
AcDbLine
 10
148.1410751798
 20
90.3310411207
 30
0.0
 11
168.6410751798
 21
90.3310411207
 31
0.0
  0
LINE
  5
53
330
1F
100
AcDbEntity
  8
0
  6
Continuous
 62
     7
370
    15
100
AcDbLine
 10
168.6410751798
 20
153.3310411207
 30
0.0
 11
148.1410751798
 21
153.3310411207
 31
0.0
  0
LWPOLYLINE
  5
54
330
1F
100
AcDbEntity
  8
0
  6
Continuous
 62
     7
370
    15
100
AcDbPolyline
 90
        3
 70
   128
 43
0.0
 10
147.4410751798
 20
99.2912208419
 10
147.5665301233
 20
99.2229187269
 10
147.6410751798
 20
99.1701809688
  0
LWPOLYLINE
  5
55
330
1F
100
AcDbEntity
  8
0
  6
Continuous
 62
     7
370
    15
100
AcDbPolyline
 90
        3
 70
   128
 43
0.0
 10
147.6410751798
 20
144.4919012727
 10
147.5665301233
 20
144.4391635146
 10
147.4410751798
 20
144.3708613996
  0
ARC
  5
56
330
1F
100
AcDbEntity
  8
0
  6
Continuous
 62
     7
370
    15
100
AcDbCircle
 10
173.6410751798
 20
101.8310411207
 30
0.0
 40
4.0
100
AcDbArc
 50
90.0
 51
180.0
  0
ARC
  5
57
330
1F
100
AcDbEntity
  8
0
  6
Continuous
 62
     7
370
    15
100
AcDbCircle
 10
173.6410751798
 20
141.8310411207
 30
0.0
 40
4.0
100
AcDbArc
 50
180.0
 51
270.0
  0
LINE
  5
58
330
1F
100
AcDbEntity
  8
0
  6
Continuous
 62
     7
370
    15
100
AcDbLine
 10
246.2268616175
 20
137.8310411207
 30
0.0
 11
173.6410751798
 21
137.8310411207
 31
0.0
  0
LINE
  5
59
330
1F
100
AcDbEntity
  8
0
  6
Continuous
 62
     7
370
    15
100
AcDbLine
 10
173.6410751798
 20
105.8310411207
 30
0.0
 11
246.2268616175
 21
105.8310411207
 31
0.0
  0
ARC
  5
5A
330
1F
100
AcDbEntity
  8
0
  6
Continuous
 62
     7
370
    15
100
AcDbCircle
 10
246.2268616175
 20
138.8310411207
 30
0.0
 40
0.9999999999999716
100
AcDbArc
 50
270.0
 51
315.0
  0
LINE
  5
5B
330
1F
100
AcDbEntity
  8
0
  6
Continuous
 62
     7
370
    15
100
AcDbLine
 10
253.7936570896
 20
138.3310411207
 30
0.0
 11
247.1410751798
 21
138.3310411207
 31
0.0
  0
LINE
  5
5C
330
1F
100
AcDbEntity
  8
0
  6
Continuous
 62
     7
370
    15
100
AcDbLine
 10
247.1410751798
 20
138.3310411207
 30
0.0
 11
246.9339683987
 21
138.1239343396
 31
0.0
  0
LINE
  5
5D
330
1F
100
AcDbEntity
  8
0
  6
Continuous
 62
     7
370
    15
100
AcDbLine
 10
246.9339683987
 20
105.5381479019
 30
0.0
 11
247.0038073216
 21
105.468308979
 31
0.0
  0
LINE
  5
5E
330
1F
100
AcDbEntity
  8
0
  6
Continuous
 62
     7
370
    15
100
AcDbLine
 10
267.0613627743
 20
106.9861610542
 30
0.0
 11
267.0613627743
 21
106.8745169559
 31
0.0
  0
LINE
  5
5F
330
1F
100
AcDbEntity
  8
0
  6
Continuous
 62
     7
370
    15
100
AcDbLine
 10
264.2231057344
 20
106.7631352995
 30
0.0
 11
264.2231057344
 21
106.8747440667
 31
0.0
  0
LINE
  5
60
330
1F
100
AcDbEntity
  8
0
  6
Continuous
 62
     7
370
    15
100
AcDbLine
 10
269.1406979741
 20
106.8492439963
 30
0.0
 11
269.1406979741
 21
106.8631952911
 31
0.0
  0
LINE
  5
61
330
1F
100
AcDbEntity
  8
0
  6
Continuous
 62
     7
370
    15
100
AcDbLine
 10
262.1406979741
 20
106.8631952911
 30
0.0
 11
262.1406979741
 21
106.8492439963
 31
0.0
  0
LINE
  5
62
330
1F
100
AcDbEntity
  8
0
  6
Continuous
 62
     7
370
    15
100
AcDbLine
 10
147.6410751798
 20
90.8310411207
 30
0.0
 11
147.6410751798
 21
152.8310411071
 31
0.0
  0
LINE
  5
63
330
1F
100
AcDbEntity
  8
0
  6
Continuous
 62
     7
370
    15
100
AcDbLine
 10
169.6410751798
 20
91.3310411207
 30
0.0
 11
169.6410751798
 21
152.3310411207
 31
0.0
  0
SPLINE
  5
64
330
1F
100
AcDbEntity
  8
0
  6
Continuous
 62
     7
370
    15
100
AcDbSpline
210
0.0
220
0.0
230
1.0
 70
     8
 71
     3
 72
    12
 73
     8
 74
     0
 42
0.00000001
 43
0.00000001
 12
1.0
 22
0.0
 32
0.0
 13
1.0
 23
0.0
 33
0.0
 40
0.0
 40
0.0
 40
0.0
 40
0.0
 40
0.2499999999999977
 40
0.2499999999999977
 40
0.4999999999999953
 40
0.4999999999999953
 40
1.0
 40
1.0
 40
1.0
 40
1.0
 10
158.1688319934113
 20
131.2191075520775
 30
0.0
 10
158.1057519549179
 20
131.2191075520775
 30
0.0
 10
158.0466033327366
 20
131.2444718712926
 30
0.0
 10
157.9481307826676
 20
131.3186367316655
 30
0.0
 10
157.9090941706828
 20
131.3651570722195
 30
0.0
 10
157.8091977039039
 20
131.5152994150648
 30
0.0
 10
157.766776822837
 20
131.6269926220369
 30
0.0
 10
157.7358192915191
 20
131.7404104414266
 30
0.0
  0
LINE
  5
65
330
1F
100
AcDbEntity
  8
0
  6
Continuous
 62
     7
370
    15
100
AcDbLine
 10
161.1133183663
 20
131.2191075521
 30
0.0
 11
158.1688319934
 21
131.2191075521
 31
0.0
  0
SPLINE
  5
66
330
1F
100
AcDbEntity
  8
0
  6
Continuous
 62
     7
370
    15
100
AcDbSpline
210
0.0
220
0.0
230
1.0
 70
     8
 71
     3
 72
    12
 73
     8
 74
     0
 42
0.00000001
 43
0.00000001
 12
1.0
 22
0.0
 32
0.0
 13
1.0
 23
0.0
 33
0.0
 40
0.0
 40
0.0
 40
0.0
 40
0.0
 40
0.5000000000000011
 40
0.5000000000000011
 40
0.7500000000000006
 40
0.7500000000000006
 40
1.0
 40
1.0
 40
1.0
 40
1.0
 10
161.5463310681705
 20
131.7404104414266
 30
0.0
 10
161.5156088262515
 20
131.6278546420174
 30
0.0
 10
161.4727716117162
 20
131.5150967822779
 30
0.0
 10
161.3733445875165
 20
131.3655558964815
 30
0.0
 10
161.3335923926998
 20
131.3182631647748
 30
0.0
 10
161.2355509358416
 20
131.2445268714533
 30
0.0
 10
161.1759948802542
 20
131.2191075520775
 30
0.0
 10
161.1133183662784
 20
131.2191075520775
 30
0.0
  0
ELLIPSE
  5
67
330
1F
100
AcDbEntity
  8
0
  6
Continuous
 62
     7
370
    15
100
AcDbEllipse
 10
145.2939209905
 20
121.8310411207
 30
0.0
 11
14.75368316065601
 21
31.09325491558118
 31
0.0
210
0.0
220
0.0
230
1.0
 40
0.3419987131
 41
5.193281737408618
 42
6.124043104552324
  0
SPLINE
  5
68
330
1F
100
AcDbEntity
  8
0
  6
Continuous
 62
     7
370
    15
100
AcDbSpline
210
0.0
220
0.0
230
1.0
 70
     8
 71
     3
 72
    12
 73
     8
 74
     0
 42
0.00000001
 43
0.00000001
 12
1.0
 22
0.0
 32
0.0
 13
1.0
 23
0.0
 33
0.0
 40
0.0
 40
0.0
 40
0.0
 40
0.0
 40
0.2500000000000014
 40
0.2500000000000014
 40
0.5000000000000029
 40
0.5000000000000029
 40
1.0
 40
1.0
 40
1.0
 40
1.0
 10
161.1133183662784
 20
151.8995330796147
 30
0.0
 10
161.1763984047718
 20
151.8995330796147
 30
0.0
 10
161.235547026953
 20
151.8916271534021
 30
0.0
 10
161.3340195770222
 20
151.8683019919659
 30
0.0
 10
161.3730561890068
 20
151.8535892021342
 30
0.0
 10
161.472952655786
 20
151.8056334014033
 30
0.0
 10
161.5153735368525
 20
151.7693712448232
 30
0.0
 10
161.5463310681705
 20
151.7317835808587
 30
0.0
  0
LINE
  5
69
330
1F
100
AcDbEntity
  8
0
  6
Continuous
 62
     7
370
    15
100
AcDbLine
 10
158.1688319934
 20
151.8995330796
 30
0.0
 11
161.1133183663
 21
151.8995330796
 31
0.0
  0
SPLINE
  5
6A
330
1F
100
AcDbEntity
  8
0
  6
Continuous
 62
     7
370
    15
100
AcDbSpline
210
0.0
220
0.0
230
1.0
 70
     8
 71
     3
 72
    12
 73
     8
 74
     0
 42
0.00000001
 43
0.00000001
 12
1.0
 22
0.0
 32
0.0
 13
1.0
 23
0.0
 33
0.0
 40
0.0
 40
0.0
 40
0.0
 40
0.0
 40
0.5000000000000019
 40
0.5000000000000019
 40
0.7500000000000009
 40
0.7500000000000009
 40
1.0
 40
1.0
 40
1.0
 40
1.0
 10
157.7358192915191
 20
151.7317835808587
 30
0.0
 10
157.7665415334383
 20
151.7690855638118
 30
0.0
 10
157.8093787479733
 20
151.8056973958582
 30
0.0
 10
157.9088057721733
 20
151.8534621791433
 30
0.0
 10
157.9485579669899
 20
151.8684196946257
 30
0.0
 10
158.0465994238481
 20
151.8916096403948
 30
0.0
 10
158.1061554794355
 20
151.8995330796147
 30
0.0
 10
158.1688319934113
 20
151.8995330796147
 30
0.0
  0
ELLIPSE
  5
6B
330
1F
100
AcDbEntity
  8
0
  6
Continuous
 62
     7
370
    15
100
AcDbEllipse
 10
173.9882293692
 20
121.8310411207
 30
0.0
 11
-14.75368316065601
 21
31.09325491558118
 31
0.0
210
0.0
220
0.0
230
1.0
 40
0.3419987131
 41
0.1591422026273079
 42
1.089903569770981
  0
SPLINE
  5
6C
330
1F
100
AcDbEntity
  8
0
  6
Continuous
 62
     7
370
    15
100
AcDbSpline
210
0.0
220
0.0
230
1.0
 70
     8
 71
     3
 72
    12
 73
     8
 74
     0
 42
0.00000001
 43
0.00000001
 12
1.0
 22
0.0
 32
0.0
 13
1.0
 23
0.0
 33
0.0
 40
0.0
 40
0.0
 40
0.0
 40
0.0
 40
0.2499999999999986
 40
0.2499999999999986
 40
0.4999999999999971
 40
0.4999999999999971
 40
1.0
 40
1.0
 40
1.0
 40
1.0
 10
158.1688319934113
 20
91.76254916186836
 30
0.0
 10
158.1057750385135
 20
91.76254916186835
 30
0.0
 10
158.046644888768
 20
91.77044949294806
 30
0.0
 10
157.9481973382347
 20
91.79376024095312
 30
0.0
 10
157.9091651000466
 20
91.80846536723672
 30
0.0
 10
157.8092752155898
 20
91.85639889542337
 30
0.0
 10
157.7669762419803
 20
91.89246886818798
 30
0.0
 10
157.735819291519
 20
91.93029866062419
 30
0.0
  0
LINE
  5
6D
330
1F
100
AcDbEntity
  8
0
  6
Continuous
 62
     7
370
    15
100
AcDbLine
 10
161.1133183663
 20
91.7625491619
 30
0.0
 11
158.1688319934
 21
91.7625491619
 31
0.0
  0
SPLINE
  5
6E
330
1F
100
AcDbEntity
  8
0
  6
Continuous
 62
     7
370
    15
100
AcDbSpline
210
0.0
220
0.0
230
1.0
 70
     8
 71
     3
 72
    12
 73
     8
 74
     0
 42
0.00000001
 43
0.00000001
 12
1.0
 22
0.0
 32
0.0
 13
1.0
 23
0.0
 33
0.0
 40
0.0
 40
0.0
 40
0.0
 40
0.0
 40
0.5
 40
0.5
 40
0.75
 40
0.75
 40
1.0
 40
1.0
 40
1.0
 40
1.0
 10
161.5463310681706
 20
91.9302986606242
 30
0.0
 10
161.5151858702085
 20
91.892483137704
 30
0.0
 10
161.4729116038739
 20
91.85641627962055
 30
0.0
 10
161.3729660700487
 20
91.80845621460927
 30
0.0
 10
161.3332357653446
 20
91.79359524071165
 30
0.0
 10
161.2363477153384
 20
91.77064409458049
 30
0.0
 10
161.176282473592
 20
91.7625491618683
 30
0.0
 10
161.1133183662784
 20
91.7625491618683
 30
0.0
  0
ELLIPSE
  5
6F
330
1F
100
AcDbEntity
  8
0
  6
Continuous
 62
     7
370
    15
100
AcDbEllipse
 10
145.2939209905
 20
121.8310411207
 30
0.0
 11
-14.75368316065615
 21
31.09325491558118
 31
0.0
210
0.0
220
0.0
230
1.0
 40
0.3419987131
 41
3.300734856217119
 42
4.231496223360772
  0
SPLINE
  5
70
330
1F
100
AcDbEntity
  8
0
  6
Continuous
 62
     7
370
    15
100
AcDbSpline
210
0.0
220
0.0
230
1.0
 70
     8
 71
     3
 72
    12
 73
     8
 74
     0
 42
0.00000001
 43
0.00000001
 12
1.0
 22
0.0
 32
0.0
 13
1.0
 23
0.0
 33
0.0
 40
0.0
 40
0.0
 40
0.0
 40
0.0
 40
0.2499999999999995
 40
0.2499999999999995
 40
0.499999999999999
 40
0.499999999999999
 40
1.0
 40
1.0
 40
1.0
 40
1.0
 10
161.1133183662784
 20
112.4429746894053
 30
0.0
 10
161.1763753211762
 20
112.4429746894053
 30
0.0
 10
161.2355054709216
 20
112.4176283360244
 30
0.0
 10
161.333953021455
 20
112.343508953885
 30
0.0
 10
161.372985259643
 20
112.2970124391871
 30
0.0
 10
161.4728751441001
 20
112.1469379321785
 30
0.0
 10
161.5151741177094
 20
112.0358202230637
 30
0.0
 10
161.5463310681707
 20
111.9216718000562
 30
0.0
  0
LINE
  5
71
330
1F
100
AcDbEntity
  8
0
  6
Continuous
 62
     7
370
    15
100
AcDbLine
 10
158.1688319934
 20
112.4429746894
 30
0.0
 11
161.1133183663
 21
112.4429746894
 31
0.0
  0
SPLINE
  5
72
330
1F
100
AcDbEntity
  8
0
  6
Continuous
 62
     7
370
    15
100
AcDbSpline
210
0.0
220
0.0
230
1.0
 70
     8
 71
     3
 72
    12
 73
     8
 74
     0
 42
0.00000001
 43
0.00000001
 12
1.0
 22
0.0
 32
0.0
 13
1.0
 23
0.0
 33
0.0
 40
0.0
 40
0.0
 40
0.0
 40
0.0
 40
0.4999999999999953
 40
0.4999999999999953
 40
0.7499999999999977
 40
0.7499999999999977
 40
1.0
 40
1.0
 40
1.0
 40
1.0
 10
157.7358192915191
 20
111.9216718000562
 30
0.0
 10
157.7669644894812
 20
112.0357771659215
 30
0.0
 10
157.8092387558156
 20
112.1468834931403
 30
0.0
 10
157.9091842896411
 20
112.2970411005705
 30
0.0
 10
157.9489145943451
 20
112.3440337921878
 30
0.0
 10
158.0458026443513
 20
112.4170093767262
 30
0.0
 10
158.1058678860977
 20
112.4429746894054
 30
0.0
 10
158.1688319934113
 20
112.4429746894054
 30
0.0
  0
ELLIPSE
  5
73
330
1F
100
AcDbEntity
  8
0
  6
Continuous
 62
     7
370
    15
100
AcDbEllipse
 10
173.9882293692
 20
121.8310411207
 30
0.0
 11
14.75368316065612
 21
31.09325491558121
 31
0.0
210
0.0
220
0.0
230
1.0
 40
0.3419987131
 41
2.051689083818824
 42
2.982450450962498
  0
SPLINE
  5
74
330
1F
100
AcDbEntity
  8
0
  6
Continuous
 62
     7
370
    15
100
AcDbSpline
210
0.0
220
0.0
230
1.0
 70
     8
 71
     3
 72
    12
 73
     8
 74
     0
 42
0.00000001
 43
0.00000001
 12
1.0
 22
0.0
 32
0.0
 13
1.0
 23
0.0
 33
0.0
 40
0.0
 40
0.0
 40
0.0
 40
0.0
 40
0.5000000000000003
 40
0.5000000000000003
 40
0.7500000000000001
 40
0.7500000000000001
 40
1.0
 40
1.0
 40
1.0
 40
1.0
 10
146.8245628933884
 20
99.97624741826576
 30
0.0
 10
146.8809993942955
 20
99.97482953692402
 30
0.0
 10
146.9500840249843
 20
99.9732652006757
 30
0.0
 10
147.0688862967022
 20
99.97032100870126
 30
0.0
 10
147.1090715721723
 20
99.96928280560387
 30
0.0
 10
147.1824526195761
 20
99.96734891038925
 30
0.0
 10
147.2158621833188
 20
99.96645402310045
 30
0.0
 10
147.2460982909752
 20
99.9656702328281
 30
0.0
  0
SPLINE
  5
75
330
1F
100
AcDbEntity
  8
0
  6
Continuous
 62
     7
370
    15
100
AcDbSpline
210
0.0
220
0.0
230
1.0
 70
     8
 71
     3
 72
    16
 73
    12
 74
     0
 42
0.00000001
 43
0.00000001
 12
1.0
 22
0.0
 32
0.0
 13
1.0
 23
0.0
 33
0.0
 40
0.0
 40
0.0
 40
0.0
 40
0.0
 40
0.0625000000000004
 40
0.0625000000000004
 40
0.1250000000000008
 40
0.1250000000000008
 40
0.2499999999999981
 40
0.2499999999999981
 40
0.4999999999999976
 40
0.4999999999999976
 40
1.0
 40
1.0
 40
1.0
 40
1.0
 10
147.246098290938
 20
99.96567023285236
 30
0.0
 10
147.2576786985259
 20
99.96537004174098
 30
0.0
 10
147.2709882252872
 20
99.96404229348201
 30
0.0
 10
147.3002896553733
 20
99.957343618707
 30
0.0
 10
147.3151037552577
 20
99.95198543560129
 30
0.0
 10
147.3509321569605
 20
99.93493978643393
 30
0.0
 10
147.3650517813236
 20
99.9234772486582
 30
0.0
 10
147.399555925412
 20
99.89191392328594
 30
0.0
 10
147.4106604761166
 20
99.87401662424068
 30
0.0
 10
147.4368366533328
 20
99.82385520662646
 30
0.0
 10
147.4410751798448
 20
99.79611079442988
 30
0.0
 10
147.4410751798448
 20
99.77144663250033
 30
0.0
  0
LINE
  5
76
330
1F
100
AcDbEntity
  8
0
  6
Continuous
 62
     7
370
    15
100
AcDbLine
 10
147.4410751798
 20
114.809153795
 30
0.0
 11
147.4410751798
 21
99.2912208419
 31
0.0
  0
SPLINE
  5
77
330
1F
100
AcDbEntity
  8
0
  6
Continuous
 62
     7
370
    15
100
AcDbSpline
210
0.0
220
0.0
230
1.0
 70
     8
 71
     3
 72
    16
 73
    12
 74
     0
 42
0.00000001
 43
0.00000001
 12
1.0
 22
0.0
 32
0.0
 13
1.0
 23
0.0
 33
0.0
 40
0.0
 40
0.0
 40
0.0
 40
0.0
 40
0.4999999999999974
 40
0.4999999999999974
 40
0.7499999999999962
 40
0.7499999999999962
 40
0.8749999999999982
 40
0.8749999999999982
 40
0.9374999999999991
 40
0.9374999999999991
 40
1.0
 40
1.0
 40
1.0
 40
1.0
 10
147.4410751798448
 20
114.8091537949915
 30
0.0
 10
147.4410751798448
 20
114.9228463391194
 30
0.0
 10
147.4369289047669
 20
115.0371665004689
 30
0.0
 10
147.4109633093734
 20
115.210214790966
 30
0.0
 10
147.399502403996
 20
115.2693902981277
 30
0.0
 10
147.3651906662217
 20
115.3525134175958
 30
0.0
 10
147.3511659302921
 20
115.3806347336966
 30
0.0
 10
147.3151429672583
 20
115.409250547674
 30
0.0
 10
147.3003884581685
 20
115.4150435955759
 30
0.0
 10
147.2710362970216
 20
115.4134501696389
 30
0.0
 10
147.2576964225175
 20
115.406953766315
 30
0.0
 10
147.2460982909691
 20
115.3984380201119
 30
0.0
  0
SPLINE
  5
78
330
1F
100
AcDbEntity
  8
0
  6
Continuous
 62
     7
370
    15
100
AcDbSpline
210
0.0
220
0.0
230
1.0
 70
     8
 71
     3
 72
    12
 73
     8
 74
     0
 42
0.00000001
 43
0.00000001
 12
1.0
 22
0.0
 32
0.0
 13
1.0
 23
0.0
 33
0.0
 40
0.0
 40
0.0
 40
0.0
 40
0.0
 40
0.25
 40
0.25
 40
0.5
 40
0.5
 40
1.0
 40
1.0
 40
1.0
 40
1.0
 10
147.2460982909762
 20
115.3984380201027
 30
0.0
 10
147.2158998495356
 20
115.3762652880577
 30
0.0
 10
147.1825324941996
 20
115.3571856321805
 30
0.0
 10
147.1093772183697
 20
115.3320125877378
 30
0.0
 10
147.0691245193458
 20
115.326456051321
 30
0.0
 10
146.9513957760709
 20
115.3373678623077
 30
0.0
 10
146.880937328012
 20
115.3793036177185
 30
0.0
 10
146.8245628933938
 20
115.4285154001001
 30
0.0
  0
SPLINE
  5
79
330
1F
100
AcDbEntity
  8
0
  6
Continuous
 62
     7
370
    15
100
AcDbSpline
210
0.0
220
0.0
230
1.0
 70
     8
 71
     3
 72
    12
 73
     8
 74
     0
 42
0.00000001
 43
0.00000001
 12
1.0
 22
0.0
 32
0.0
 13
1.0
 23
0.0
 33
0.0
 40
0.0
 40
0.0
 40
0.0
 40
0.0
 40
0.5
 40
0.5
 40
0.75
 40
0.75
 40
1.0
 40
1.0
 40
1.0
 40
1.0
 10
146.3197548362852
 20
116.6448667919805
 30
0.0
 10
146.3635051881696
 20
116.424419807006
 30
0.0
 10
146.4163953392941
 20
116.2088748172004
 30
0.0
 10
146.5280068824358
 20
115.8964607406285
 30
0.0
 10
146.5705662263393
 20
115.7943812650126
 30
0.0
 10
146.6755434616767
 20
115.5999412523708
 30
0.0
 10
146.7371107047713
 20
115.5048563533072
 30
0.0
 10
146.8245628933937
 20
115.4285154001
 30
0.0
  0
SPLINE
  5
7A
330
1F
100
AcDbEntity
  8
0
  6
Continuous
 62
     7
370
    15
100
AcDbSpline
210
0.0
220
0.0
230
1.0
 70
     8
 71
     3
 72
    12
 73
     8
 74
     0
 42
0.00000001
 43
0.00000001
 12
1.0
 22
0.0
 32
0.0
 13
1.0
 23
0.0
 33
0.0
 40
0.0
 40
0.0
 40
0.0
 40
0.0
 40
0.2500000000000008
 40
0.2500000000000008
 40
0.5000000000000016
 40
0.5000000000000016
 40
1.0
 40
1.0
 40
1.0
 40
1.0
 10
146.8245628933936
 20
128.2335668413832
 30
0.0
 10
146.7360694858257
 20
128.1563169612749
 30
0.0
 10
146.6760114450598
 20
128.0629976373856
 30
0.0
 10
146.5701631720773
 20
127.8669645844162
 30
0.0
 10
146.5276296507998
 20
127.7646382262045
 30
0.0
 10
146.4164783439761
 20
127.4532938204286
 30
0.0
 10
146.3635474869284
 20
127.2378755672506
 30
0.0
 10
146.3197548362852
 20
127.0172154495027
 30
0.0
  0
SPLINE
  5
7B
330
1F
100
AcDbEntity
  8
0
  6
Continuous
 62
     7
370
    15
100
AcDbSpline
210
0.0
220
0.0
230
1.0
 70
     8
 71
     3
 72
    12
 73
     8
 74
     0
 42
0.00000001
 43
0.00000001
 12
1.0
 22
0.0
 32
0.0
 13
1.0
 23
0.0
 33
0.0
 40
0.0
 40
0.0
 40
0.0
 40
0.0
 40
0.5000000000000001
 40
0.5000000000000001
 40
0.75
 40
0.75
 40
1.0
 40
1.0
 40
1.0
 40
1.0
 10
146.8245628933937
 20
128.2335668413831
 30
0.0
 10
146.8808714416893
 20
128.2827211086269
 30
0.0
 10
146.9511461024074
 20
128.3246784272306
 30
0.0
 10
147.0691840167309
 20
128.335638104763
 30
0.0
 10
147.1093602575848
 20
128.3301293465157
 30
0.0
 10
147.1833173522628
 20
128.3045721177268
 30
0.0
 10
147.2159337399742
 20
128.2857920698875
 30
0.0
 10
147.2460982909699
 20
128.2636442213707
 30
0.0
  0
SPLINE
  5
7C
330
1F
100
AcDbEntity
  8
0
  6
Continuous
 62
     7
370
    15
100
AcDbSpline
210
0.0
220
0.0
230
1.0
 70
     8
 71
     3
 72
    16
 73
    12
 74
     0
 42
0.00000001
 43
0.00000001
 12
1.0
 22
0.0
 32
0.0
 13
1.0
 23
0.0
 33
0.0
 40
0.0
 40
0.0
 40
0.0
 40
0.0
 40
0.0624999999999988
 40
0.0624999999999988
 40
0.1249999999999977
 40
0.1249999999999977
 40
0.2499999999999976
 40
0.2499999999999976
 40
0.4999999999999972
 40
0.4999999999999972
 40
1.0
 40
1.0
 40
1.0
 40
1.0
 10
147.2460982909382
 20
128.2636442213162
 30
0.0
 10
147.2577111907775
 20
128.255117631721
 30
0.0
 10
147.2710623752101
 20
128.2486173701882
 30
0.0
 10
147.3004622148292
 20
128.2470479730707
 30
0.0
 10
147.3153029393846
 20
128.2529313637013
 30
0.0
 10
147.3511361473532
 20
128.2814789997519
 30
0.0
 10
147.3652493551748
 20
128.3096460190577
 30
0.0
 10
147.3997407263936
 20
128.3934002774796
 30
0.0
 10
147.410824797504
 20
128.4511136911011
 30
0.0
 10
147.4369476153
 20
128.6247042277469
 30
0.0
 10
147.4410751798449
 20
128.7397322803888
 30
0.0
 10
147.4410751798448
 20
128.8529284464917
 30
0.0
  0
LINE
  5
7D
330
1F
100
AcDbEntity
  8
0
  6
Continuous
 62
     7
370
    15
100
AcDbLine
 10
147.4410751798
 20
144.3708613996
 30
0.0
 11
147.4410751798
 21
128.8529284465
 31
0.0
  0
SPLINE
  5
7E
330
1F
100
AcDbEntity
  8
0
  6
Continuous
 62
     7
370
    15
100
AcDbSpline
210
0.0
220
0.0
230
1.0
 70
     8
 71
     3
 72
    16
 73
    12
 74
     0
 42
0.00000001
 43
0.00000001
 12
1.0
 22
0.0
 32
0.0
 13
1.0
 23
0.0
 33
0.0
 40
0.0
 40
0.0
 40
0.0
 40
0.0
 40
0.5000000000000027
 40
0.5000000000000027
 40
0.750000000000004
 40
0.750000000000004
 40
0.8750000000000021
 40
0.8750000000000021
 40
0.9375000000000011
 40
0.9375000000000011
 40
1.0
 40
1.0
 40
1.0
 40
1.0
 10
147.4410751798448
 20
143.8906356089829
 30
0.0
 10
147.4410751798448
 20
143.8659644529399
 30
0.0
 10
147.4369094813849
 20
143.8383826215487
 30
0.0
 10
147.4106511530599
 20
143.7880397507254
 30
0.0
 10
147.3991473713224
 20
143.7697502526635
 30
0.0
 10
147.3650166119759
 20
143.7385952216265
 30
0.0
 10
147.3505947253051
 20
143.7269558464147
 30
0.0
 10
147.3150277568674
 20
143.7100738204837
 30
0.0
 10
147.3000759885726
 20
143.704684716676
 30
0.0
 10
147.2710721702128
 20
143.6980642207315
 30
0.0
 10
147.2576568162036
 20
143.696711632525
 30
0.0
 10
147.246098290967
 20
143.6964120086534
 30
0.0
  0
SPLINE
  5
7F
330
1F
100
AcDbEntity
  8
0
  6
Continuous
 62
     7
370
    15
100
AcDbSpline
210
0.0
220
0.0
230
1.0
 70
     8
 71
     3
 72
    12
 73
     8
 74
     0
 42
0.00000001
 43
0.00000001
 12
1.0
 22
0.0
 32
0.0
 13
1.0
 23
0.0
 33
0.0
 40
0.0
 40
0.0
 40
0.0
 40
0.0
 40
0.25
 40
0.25
 40
0.5
 40
0.5
 40
1.0
 40
1.0
 40
1.0
 40
1.0
 10
147.2460982909762
 20
143.6964120086552
 30
0.0
 10
147.2159105144266
 20
143.6956294712376
 30
0.0
 10
147.1825567103349
 20
143.694736139419
 30
0.0
 10
147.1094305071389
 20
143.6928088306154
 30
0.0
 10
147.0691953041148
 20
143.6917692994028
 30
0.0
 10
146.9515036739817
 20
143.6888514160555
 30
0.0
 10
146.8811230008217
 20
143.6872558099853
 30
0.0
 10
146.8245628933911
 20
143.6858348232174
 30
0.0
  0
SPLINE
  5
80
330
1F
100
AcDbEntity
  8
0
  6
Continuous
 62
     7
370
    15
100
AcDbSpline
210
0.0
220
0.0
230
1.0
 70
     8
 71
     3
 72
    16
 73
    12
 74
     0
 42
0.00000001
 43
0.00000001
 12
1.0
 22
0.0
 32
0.0
 13
1.0
 23
0.0
 33
0.0
 40
0.0
 40
0.0
 40
0.0
 40
0.0
 40
0.2499999999999998
 40
0.2499999999999998
 40
0.3749999999999998
 40
0.3749999999999998
 40
0.4999999999999999
 40
0.4999999999999999
 40
0.7499999999999999
 40
0.7499999999999999
 40
1.0
 40
1.0
 40
1.0
 40
1.0
 10
146.3197548362852
 20
127.0172154495027
 30
0.0
 10
146.1585223588007
 20
126.2048056742559
 30
0.0
 10
146.0380425191611
 20
125.3647273798711
 30
0.0
 10
145.9156620018477
 20
124.0634323305083
 30
0.0
 10
145.8846843414503
 20
123.6227512949236
 30
0.0
 10
145.8430706038224
 20
122.7269116539924
 30
0.0
 10
145.8328346908895
 20
122.28025352279
 30
0.0
 10
145.8326462938334
 20
120.9449435656501
 30
0.0
 10
145.8727909964711
 20
120.0604481923425
 30
0.0
 10
146.0369447514106
 20
118.3031983043165
 30
0.0
 10
146.1584964018202
 20
117.4574073579034
 30
0.0
 10
146.3197548362852
 20
116.6448667919805
 30
0.0
  0
LINE
  5
81
330
1F
100
AcDbEntity
  8
0
  6
Continuous
 62
     7
370
    15
100
AcDbLine
 10
145.4410751798
 20
128.3162193824
 30
0.0
 11
145.4410751798
 21
115.3458628591
 31
0.0
  0
LINE
  5
82
330
1F
100
AcDbEntity
  8
0
  6
Continuous
 62
     7
370
    15
100
AcDbLine
 10
111.1410751798
 20
127.8853516883
 30
0.0
 11
111.1410751798
 21
115.7767305532
 31
0.0
  0
LINE
  5
83
330
1F
100
AcDbEntity
  8
0
  6
Continuous
 62
     7
370
    15
100
AcDbLine
 10
109.6410751798
 20
127.4523389864
 30
0.0
 11
109.6410751798
 21
116.2097432551
 31
0.0
  0
LINE
  5
84
330
1F
100
AcDbEntity
  8
0
  6
Continuous
 62
     7
370
    15
100
AcDbLine
 10
111.1410751798
 20
127.8853516883
 30
0.0
 11
111.1410751798
 21
142.989404517
 31
0.0
  0
LINE
  5
85
330
1F
100
AcDbEntity
  8
0
  6
Continuous
 62
     7
370
    15
100
AcDbLine
 10
111.1410751798
 20
142.989404517
 30
0.0
 11
145.4410751798
 21
143.8511399053
 31
0.0
  0
LINE
  5
86
330
1F
100
AcDbEntity
  8
0
  6
Continuous
 62
     7
370
    15
100
AcDbLine
 10
145.4410751798
 20
128.3162193824
 30
0.0
 11
145.4410751798
 21
143.8511399053
 31
0.0
  0
ARC
  5
87
330
1F
100
AcDbEntity
  8
0
  6
Continuous
 62
     7
370
    15
100
AcDbCircle
 10
145.6410120908
 20
143.8561630164
 30
0.0
 40
0.2000000000000066
100
AcDbArc
 50
181.4391666667
 51
271.4391666667
  0
LINE
  5
88
330
1F
100
AcDbEntity
  8
0
  6
Continuous
 62
     7
370
    15
100
AcDbLine
 10
111.1410751798
 20
100.6726777245
 30
0.0
 11
111.1410751798
 21
115.7767305532
 31
0.0
  0
LINE
  5
89
330
1F
100
AcDbEntity
  8
0
  6
Continuous
 62
     7
370
    15
100
AcDbLine
 10
145.4410751798
 20
99.8109423362
 30
0.0
 11
145.4410751798
 21
115.3458628591
 31
0.0
  0
LINE
  5
8A
330
1F
100
AcDbEntity
  8
0
  6
Continuous
 62
     7
370
    15
100
AcDbLine
 10
111.1410751798
 20
100.6726777245
 30
0.0
 11
145.4410751798
 21
99.8109423362
 31
0.0
  0
ARC
  5
8B
330
1F
100
AcDbEntity
  8
0
  6
Continuous
 62
     7
370
    15
100
AcDbCircle
 10
145.6410120908
 20
99.8059192251
 30
0.0
 40
0.2000000000000066
100
AcDbArc
 50
88.5608333333
 51
178.5608333333
  0
LINE
  5
8C
330
1F
100
AcDbEntity
  8
0
  6
Continuous
 62
     7
370
    15
100
AcDbLine
 10
145.6460352019
 20
143.6562261055
 30
0.0
 11
146.8245628934
 21
143.6858348232
 31
0.0
  0
LINE
  5
8D
330
1F
100
AcDbEntity
  8
0
  6
Continuous
 62
     7
370
    15
100
AcDbLine
 10
145.6460352019
 20
100.005856136
 30
0.0
 11
146.8245628934
 21
99.9762474183
 31
0.0
  0
LINE
  5
8E
330
1F
100
AcDbEntity
  8
0
  6
Continuous
 62
     7
370
    15
100
AcDbLine
 10
109.6410751798
 20
101.5387031282
 30
0.0
 11
111.1410751798
 21
100.6726777245
 31
0.0
  0
LINE
  5
8F
330
1F
100
AcDbEntity
  8
0
  6
Continuous
 62
     7
370
    15
100
AcDbLine
 10
109.6410751798
 20
101.5387031282
 30
0.0
 11
109.6410751798
 21
116.2097432551
 31
0.0
  0
LINE
  5
90
330
1F
100
AcDbEntity
  8
0
  6
Continuous
 62
     7
370
    15
100
AcDbLine
 10
109.6410751798
 20
142.1233791132
 30
0.0
 11
111.1410751798
 21
142.989404517
 31
0.0
  0
LINE
  5
91
330
1F
100
AcDbEntity
  8
0
  6
Continuous
 62
     7
370
    15
100
AcDbLine
 10
109.6410751798
 20
127.4523389864
 30
0.0
 11
109.6410751798
 21
142.1233791132
 31
0.0
  0
LINE
  5
92
330
1F
100
AcDbEntity
  8
0
  6
Continuous
 62
     7
370
    15
100
AcDbLine
 10
244.2450371077
 20
137.6583510267
 30
0.0
 11
246.2268616175
 21
137.6583510267
 31
0.0
  0
SPLINE
  5
93
330
1F
100
AcDbEntity
  8
0
  6
Continuous
 62
     7
370
    15
100
AcDbSpline
210
0.0
220
0.0
230
1.0
 70
     8
 71
     3
 72
    14
 73
    10
 74
     0
 42
0.00000001
 43
0.00000001
 12
1.0
 22
0.0
 32
0.0
 13
1.0
 23
0.0
 33
0.0
 40
0.0
 40
0.0
 40
0.0
 40
0.0
 40
0.2500000000000001
 40
0.2500000000000001
 40
0.5000000000000002
 40
0.5000000000000002
 40
0.7500000000000001
 40
0.7500000000000001
 40
1.0
 40
1.0
 40
1.0
 40
1.0
 10
238.4494821499842
 20
136.3554732601607
 30
0.0
 10
238.6121682651379
 20
136.6279007922136
 30
0.0
 10
238.8683381903056
 20
136.8470263458482
 30
0.0
 10
239.5866700311371
 20
137.2014512620254
 30
0.0
 10
240.0286366851232
 20
137.3272521390028
 30
0.0
 10
241.0791940747721
 20
137.5140327747941
 30
0.0
 10
241.6606492258602
 20
137.5705591921366
 30
0.0
 10
242.924567119998
 20
137.6434407309545
 30
0.0
 10
243.5753724088568
 20
137.6583510267334
 30
0.0
 10
244.2450371077186
 20
137.6583510267334
 30
0.0
  0
ELLIPSE
  5
94
330
1F
100
AcDbEntity
  8
0
  6
Continuous
 62
     7
370
    15
100
AcDbEllipse
 10
239.9718966199
 20
121.8310411207
 30
0.0
 11
0.3220561513868745
 21
15.99976859320063
 31
0.0
210
0.0
220
0.0
230
1.0
 40
0.2671959542
 41
0.4382210567924032
 42
2.853754501398428
  0
SPLINE
  5
95
330
1F
100
AcDbEntity
  8
0
  6
Continuous
 62
     7
370
    15
100
AcDbSpline
210
0.0
220
0.0
230
1.0
 70
     8
 71
     3
 72
    14
 73
    10
 74
     0
 42
0.00000001
 43
0.00000001
 12
1.0
 22
0.0
 32
0.0
 13
1.0
 23
0.0
 33
0.0
 40
0.0
 40
0.0
 40
0.0
 40
0.0
 40
0.25
 40
0.25
 40
0.5
 40
0.5
 40
0.75
 40
0.75
 40
1.0
 40
1.0
 40
1.0
 40
1.0
 10
244.2450371077186
 20
105.831482611311
 30
0.0
 10
243.5753771936915
 20
105.831482611311
 30
0.0
 10
242.9242752607764
 20
105.831171809819
 30
0.0
 10
241.6592638916934
 20
105.8433954989701
 30
0.0
 10
241.0793810861067
 20
105.8558491463606
 30
0.0
 10
240.0294599577682
 20
105.9281809469078
 30
0.0
 10
239.5869292908955
 20
105.9867223466345
 30
0.0
 10
238.8691875014178
 20
106.188007286882
 30
0.0
 10
238.6121717212878
 20
106.3262085032974
 30
0.0
 10
238.4494821499842
 20
106.5139343400443
 30
0.0
  0
LINE
  5
96
330
1F
100
AcDbEntity
  8
0
  6
Continuous
 62
     7
370
    15
100
AcDbLine
 10
246.2268616175
 20
105.8314826113
 30
0.0
 11
244.2450371077
 21
105.8314826113
 31
0.0
  0
ELLIPSE
  5
97
330
1F
100
AcDbEntity
  8
0
  6
Continuous
 62
     7
370
    15
100
AcDbEllipse
 10
237.4360166917
 20
115.3598127174
 30
0.0
 11
-0.0885857200830458
 21
2.327551996844704
 31
0.0
210
0.0
220
0.0
230
1.0
 40
0.2575917467
 41
0.0
 42
6.283185307179586
  0
SPLINE
  5
98
330
1F
100
AcDbEntity
  8
0
  6
Continuous
 62
     7
370
    15
100
AcDbSpline
210
0.0
220
0.0
230
1.0
 70
     8
 71
     3
 72
    10
 73
     6
 74
     0
 42
0.00000001
 43
0.00000001
 12
1.0
 22
0.0
 32
0.0
 13
1.0
 23
0.0
 33
0.0
 40
0.0
 40
0.0
 40
0.0
 40
0.0
 40
0.5
 40
0.5
 40
1.0
 40
1.0
 40
1.0
 40
1.0
 10
246.9339683986583
 20
105.5384448518663
 30
0.0
 10
246.8407234389928
 20
105.631730895386
 30
0.0
 10
246.7308273894385
 20
105.7050124965459
 30
0.0
 10
246.4888637999496
 20
105.8053813976254
 30
0.0
 10
246.3589307268414
 20
105.8314826113112
 30
0.0
 10
246.2268616174718
 20
105.8314826113112
 30
0.0
  0
SPLINE
  5
99
330
1F
100
AcDbEntity
  8
0
  6
Continuous
 62
     7
370
    15
100
AcDbSpline
210
0.0
220
0.0
230
1.0
 70
     8
 71
     3
 72
    10
 73
     6
 74
     0
 42
0.00000001
 43
0.00000001
 12
1.0
 22
0.0
 32
0.0
 13
1.0
 23
0.0
 33
0.0
 40
0.0
 40
0.0
 40
0.0
 40
0.0
 40
0.5
 40
0.5
 40
1.0
 40
1.0
 40
1.0
 40
1.0
 10
246.2268616174718
 20
137.6583510267333
 30
0.0
 10
246.3589241081594
 20
137.6583510267333
 30
0.0
 10
246.4885225327705
 20
137.6843613299729
 30
0.0
 10
246.7305097497755
 20
137.7846388685784
 30
0.0
 10
246.8407222812022
 20
137.858101584357
 30
0.0
 10
246.9339683986586
 20
137.9513887861777
 30
0.0
  0
LINE
  5
9A
330
1F
100
AcDbEntity
  8
0
  6
Continuous
 62
     7
370
    15
100
AcDbLine
 10
246.9339683987
 20
137.9513887862
 30
0.0
 11
247.1410751798
 21
138.1585793092
 31
0.0
  0
LINE
  5
9B
330
1F
100
AcDbEntity
  8
0
  6
Continuous
 62
     7
370
    15
100
AcDbLine
 10
247.1410751798
 20
138.1585793092
 30
0.0
 11
254.1554896788
 21
138.1585793092
 31
0.0
  0
LINE
  5
9C
330
1F
100
AcDbEntity
  8
0
  6
Continuous
 62
     7
370
    15
100
AcDbLine
 10
254.1554896788
 20
138.1585793092
 30
0.0
 11
271.1388962795
 21
113.9628445429
 31
0.0
  0
LINE
  5
9D
330
1F
100
AcDbEntity
  8
0
  6
Continuous
 62
     7
370
    15
100
AcDbLine
 10
271.1388962795
 20
113.9628445429
 30
0.0
 11
271.2556492206
 21
112.6316030759
 31
0.0
  0
ARC
  5
9E
330
1F
100
AcDbEntity
  8
0
  6
Continuous
 62
     7
370
    15
100
AcDbCircle
 10
259.9764688236
 20
112.4878795241
 30
0.0
 40
2.097488182000983
100
AcDbArc
 50
26.9419094291
 51
241.66567858
  0
ELLIPSE
  5
9F
330
1F
100
AcDbEntity
  8
0
  6
Continuous
 62
     7
370
    15
100
AcDbEllipse
 10
281.6562552732
 20
118.4323834853
 30
0.0
 11
3113.331223476319
 21
-271.0557416021263
 31
0.0
210
0.0
220
0.0
230
1.0
 40
0.0060650906
 41
4.702857618506777
 42
4.705909117463257
  0
SPLINE
  5
A0
330
1F
100
AcDbEntity
  8
0
  6
Continuous
 62
     7
370
    15
100
AcDbSpline
210
0.0
220
0.0
230
1.0
 70
     8
 71
     3
 72
     8
 73
     4
 74
     0
 42
0.00000001
 43
0.00000001
 12
1.0
 22
0.0
 32
0.0
 13
1.0
 23
0.0
 33
0.0
 40
0.0
 40
0.0
 40
0.0
 40
0.0
 40
1.0
 40
1.0
 40
1.0
 40
1.0
 10
250.3385150836572
 20
102.134096529325
 30
0.0
 10
249.2034316898973
 20
103.2686458339065
 30
0.0
 10
248.0685336653705
 20
104.403379694178
 30
0.0
 10
246.9339683986583
 20
105.5384448518663
 30
0.0
  0
LINE
  5
A1
330
1F
100
AcDbEntity
  8
0
  6
Continuous
 62
     7
370
    15
100
AcDbLine
 10
246.9339683987
 20
105.5384448519
 30
0.0
 11
246.9339683987
 21
105.5381479019
 31
0.0
  0
ELLIPSE
  5
A2
330
1F
100
AcDbEntity
  8
0
  6
Continuous
 62
     7
370
    15
100
AcDbEllipse
 10
265.4914611883
 20
121.8310411207
 30
0.0
 11
-11.7636906874682
 21
16.48124712370799
 31
0.0
210
0.0
220
0.0
230
1.0
 40
0.0668534593
 41
6.090794017965149
 42
6.235504004580424
  0
LINE
  5
A3
330
1F
100
AcDbEntity
  8
0
  6
Continuous
 62
     7
370
    15
100
AcDbLine
 10
247.1410751798
 20
138.3310411207
 30
0.0
 11
247.1410751798
 21
138.1585793092
 31
0.0
  0
ARC
  5
A4
330
1F
100
AcDbEntity
  8
0
  6
Continuous
 62
     7
370
    15
100
AcDbCircle
 10
259.970068023
 20
112.8231140391
 30
0.0
 40
2.094795872327848
100
AcDbArc
 50
184.6242052208
 51
240.8633087526
  0
CIRCLE
  5
A5
330
1F
100
AcDbEntity
  8
0
  6
Continuous
 62
     7
370
    15
100
AcDbCircle
 10
265.6466261869
 20
106.850240605
 30
0.0
 40
3.494042864670281
  0
CIRCLE
  5
A6
330
1F
100
AcDbEntity
  8
0
  6
Continuous
 62
     7
370
    15
100
AcDbCircle
 10
265.6451767628
 20
106.8152756731
 30
0.0
 40
2.629470016125826
  0
CIRCLE
  5
A7
330
1F
100
AcDbEntity
  8
0
  6
Continuous
 62
     7
370
    15
100
AcDbCircle
 10
265.6438635618
 20
106.8152096946
 30
0.0
 40
1.996810907477283
  0
SPLINE
  5
A8
330
1F
100
AcDbEntity
  8
0
  6
Continuous
 62
     7
370
    15
100
AcDbSpline
210
0.0
220
0.0
230
1.0
 70
     8
 71
     3
 72
    15
 73
    11
 74
     0
 42
0.00000001
 43
0.00000001
 12
1.0
 22
0.0
 32
0.0
 13
1.0
 23
0.0
 33
0.0
 40
0.0
 40
0.0
 40
0.0
 40
0.0
 40
0.1262470803730991
 40
0.2533633350513211
 40
0.3794185517357354
 40
0.5042689738350723
 40
0.6284502821606428
 40
0.7526361292231414
 40
0.877489191211471
 40
1.0
 40
1.0
 40
1.0
 40
1.0
 10
265.981440376435
 20
108.4897186230444
 30
0.0
 10
265.9660248829239
 20
108.5307320826443
 30
0.0
 10
265.9350877647276
 20
108.6130413675441
 30
0.0
 10
265.8390567984523
 20
108.7089382576455
 30
0.0
 10
265.7189104809256
 20
108.7693354967255
 30
0.0
 10
265.5853875014558
 20
108.7864904185689
 30
0.0
 10
265.4542531190211
 20
108.7595388353275
 30
0.0
 10
265.3403449017655
 20
108.691647406781
 30
0.0
 10
265.2529381111901
 20
108.5918731990812
 30
0.0
 10
265.2273428304864
 20
108.5100120872812
 30
0.0
 10
265.214666369165
 20
108.4694690969752
 30
0.0
  0
SPLINE
  5
A9
330
1F
100
AcDbEntity
  8
0
  6
Continuous
 62
     7
370
    15
100
AcDbSpline
210
0.0
220
0.0
230
1.0
 70
     8
 71
     3
 72
    12
 73
     8
 74
     0
 42
0.00000001
 43
0.00000001
 12
1.0
 22
0.0
 32
0.0
 13
1.0
 23
0.0
 33
0.0
 40
0.0
 40
0.0
 40
0.0
 40
0.0
 40
0.2058748011360879
 40
0.4120995812665506
 40
0.6141693366127179
 40
0.8132901286728982
 40
1.0
 40
1.0
 40
1.0
 40
1.0
 10
265.214666369165
 20
108.4694690969752
 30
0.0
 10
265.191777189146
 20
108.3967931226173
 30
0.0
 10
265.1459599184097
 20
108.2513176276283
 30
0.0
 10
264.9893271631374
 20
108.0753273971834
 30
0.0
 10
264.7899151151669
 20
107.9591427259228
 30
0.0
 10
264.5690289893825
 20
107.9100220090909
 30
0.0
 10
264.4270348378543
 20
107.9340171104811
 30
0.0
 10
264.3583215076894
 20
107.9456287388926
 30
0.0
  0
SPLINE
  5
AA
330
1F
100
AcDbEntity
  8
0
  6
Continuous
 62
     7
370
    15
100
AcDbSpline
210
0.0
220
0.0
230
1.0
 70
     8
 71
     3
 72
    15
 73
    11
 74
     0
 42
0.00000001
 43
0.00000001
 12
1.0
 22
0.0
 32
0.0
 13
1.0
 23
0.0
 33
0.0
 40
0.0
 40
0.0
 40
0.0
 40
0.0
 40
0.1268765508973069
 40
0.2539936290345776
 40
0.380049637988498
 40
0.504900637099148
 40
0.629082197326577
 40
0.753267940771815
 40
0.8781205851189248
 40
1.0
 40
1.0
 40
1.0
 40
1.0
 10
264.3583215076894
 20
107.9456287388926
 30
0.0
 10
264.3143788568538
 20
107.9525993902417
 30
0.0
 10
264.2264102505495
 20
107.9665539076081
 30
0.0
 10
264.0940903119736
 20
107.9307403852293
 30
0.0
 10
263.981151422022
 20
107.8566321534552
 30
0.0
 10
263.8995011390794
 20
107.7496163959971
 30
0.0
 10
263.857749984834
 20
107.6228976946812
 30
0.0
 10
263.8605313967957
 20
107.4908767816694
 30
0.0
 10
263.904470590509
 20
107.3662783353381
 30
0.0
 10
263.9634075820543
 20
107.3038845721813
 30
0.0
 10
263.9925209695356
 20
107.2730636267008
 30
0.0
  0
SPLINE
  5
AB
330
1F
100
AcDbEntity
  8
0
  6
Continuous
 62
     7
370
    15
100
AcDbSpline
210
0.0
220
0.0
230
1.0
 70
     8
 71
     3
 72
    12
 73
     8
 74
     0
 42
0.00000001
 43
0.00000001
 12
1.0
 22
0.0
 32
0.0
 13
1.0
 23
0.0
 33
0.0
 40
0.0
 40
0.0
 40
0.0
 40
0.0
 40
0.2057949882087169
 40
0.4120010155282808
 40
0.6140549927929603
 40
0.8131810826683196
 40
1.0
 40
1.0
 40
1.0
 40
1.0
 10
263.9925209695356
 20
107.2730636267008
 30
0.0
 10
264.0448476535216
 20
107.2173737343316
 30
0.0
 10
264.1496055347951
 20
107.1058827188775
 30
0.0
 10
264.2252100092998
 20
106.8832577690089
 30
0.0
 10
264.2263216279236
 20
106.652851083239
 30
0.0
 10
264.1573681775757
 20
106.4367354202419
 30
0.0
 10
264.0642094213993
 20
106.3252704623735
 30
0.0
 10
264.0191153856069
 20
106.2713152035658
 30
0.0
  0
SPLINE
  5
AC
330
1F
100
AcDbEntity
  8
0
  6
Continuous
 62
     7
370
    15
100
AcDbSpline
210
0.0
220
0.0
230
1.0
 70
     8
 71
     3
 72
    23
 73
    19
 74
     0
 42
0.00000001
 43
0.00000001
 12
1.0
 22
0.0
 32
0.0
 13
1.0
 23
0.0
 33
0.0
 40
0.0
 40
0.0
 40
0.0
 40
0.0
 40
0.062506522413465
 40
0.1268032294228432
 40
0.1894476925803238
 40
0.2539381432713727
 40
0.3160572949799604
 40
0.38001231431279
 40
0.4415418845482049
 40
0.5048752096397703
 40
0.566080361205207
 40
0.629061021931763
 40
0.6902737759323456
 40
0.7532438799218086
 40
0.8147897755420468
 40
0.8780884206729144
 40
0.9382463322173401
 40
1.0
 40
1.0
 40
1.0
 40
1.0
 10
264.0191153856069
 20
106.2713152035658
 30
0.0
 10
264.004348413456
 20
106.2549934437597
 30
0.0
 10
263.9743915435928
 20
106.2218824695226
 30
0.0
 10
263.9407207872774
 20
106.1637173193031
 30
0.0
 10
263.9163323279868
 20
106.1005083260351
 30
0.0
 10
263.90321248936
 20
106.0346306573744
 30
0.0
 10
263.901298891454
 20
105.967055811217
 30
0.0
 10
263.9106495286528
 20
105.9011238020887
 30
0.0
 10
263.931064589979
 20
105.837356699744
 30
0.0
 10
263.961440092179
 20
105.7788102589707
 30
0.0
 10
264.0014664471552
 20
105.7258669866563
 30
0.0
 10
264.0492194788773
 20
105.6809373224197
 30
0.0
 10
264.1042612568467
 20
105.6443652363608
 30
0.0
 10
264.1641320985313
 20
105.6177716677238
 30
0.0
 10
264.2282506932915
 20
105.6013739214026
 30
0.0
 10
264.2931126675484
 20
105.5962174292248
 30
0.0
 10
264.3581954373378
 20
105.601115652645
 30
0.0
 10
264.3992784641063
 20
105.6129865171291
 30
0.0
 10
264.4200888547236
 20
105.6189996409497
 30
0.0
  0
SPLINE
  5
AD
330
1F
100
AcDbEntity
  8
0
  6
Continuous
 62
     7
370
    15
100
AcDbSpline
210
0.0
220
0.0
230
1.0
 70
     8
 71
     3
 72
    12
 73
     8
 74
     0
 42
0.00000001
 43
0.00000001
 12
1.0
 22
0.0
 32
0.0
 13
1.0
 23
0.0
 33
0.0
 40
0.0
 40
0.0
 40
0.0
 40
0.0
 40
0.2058497400954374
 40
0.4120524486337513
 40
0.6141081262894185
 40
0.81324319036743
 40
1.0
 40
1.0
 40
1.0
 40
1.0
 10
264.4200888547236
 20
105.6189996409497
 30
0.0
 10
264.4953147742169
 20
105.6367634560267
 30
0.0
 10
264.6458956023181
 20
105.6723215456126
 30
0.0
 10
264.8780985770393
 20
105.626940625619
 30
0.0
 10
265.07858411731
 20
105.5126295116283
 30
0.0
 10
265.2305117280085
 20
105.344320347339
 30
0.0
 10
265.2793784973377
 20
105.2073702031117
 30
0.0
 10
265.303028132271
 20
105.1410916060304
 30
0.0
  0
SPLINE
  5
AE
330
1F
100
AcDbEntity
  8
0
  6
Continuous
 62
     7
370
    15
100
AcDbSpline
210
0.0
220
0.0
230
1.0
 70
     8
 71
     3
 72
    15
 73
    11
 74
     0
 42
0.00000001
 43
0.00000001
 12
1.0
 22
0.0
 32
0.0
 13
1.0
 23
0.0
 33
0.0
 40
0.0
 40
0.0
 40
0.0
 40
0.0
 40
0.1262564375372311
 40
0.2533820972841983
 40
0.3794454811305353
 40
0.5043002379035756
 40
0.6284814530465911
 40
0.7526634909000909
 40
0.877510462112227
 40
1.0
 40
1.0
 40
1.0
 40
1.0
 10
265.303028132271
 20
105.1410916060304
 30
0.0
 10
265.3184445656618
 20
105.0991441385395
 30
0.0
 10
265.3493835680717
 20
105.0149604129732
 30
0.0
 10
265.4454213526646
 20
104.9170128802887
 30
0.0
 10
265.565575412769
 20
104.8553308238059
 30
0.0
 10
265.6991037593179
 20
104.837773659576
 30
0.0
 10
265.8302381291009
 20
104.8651985187322
 30
0.0
 10
265.944141249431
 20
104.9344119269732
 30
0.0
 10
266.0315366341687
 20
105.0362175255037
 30
0.0
 10
266.057128278118
 20
105.1198991431591
 30
0.0
 10
266.0698021395408
 20
105.161341155556
 30
0.0
  0
SPLINE
  5
AF
330
1F
100
AcDbEntity
  8
0
  6
Continuous
 62
     7
370
    15
100
AcDbSpline
210
0.0
220
0.0
230
1.0
 70
     8
 71
     3
 72
    12
 73
     8
 74
     0
 42
0.00000001
 43
0.00000001
 12
1.0
 22
0.0
 32
0.0
 13
1.0
 23
0.0
 33
0.0
 40
0.0
 40
0.0
 40
0.0
 40
0.0
 40
0.2058713741445015
 40
0.4120924153879386
 40
0.6141683533434134
 40
0.8133068872805178
 40
1.0
 40
1.0
 40
1.0
 40
1.0
 10
266.0698021395408
 20
105.161341155556
 30
0.0
 10
266.0926910253656
 20
105.235618911815
 30
0.0
 10
266.1385076731838
 20
105.384300583143
 30
0.0
 10
266.2951388987161
 20
105.5628668875182
 30
0.0
 10
266.4945543504735
 20
105.6788646060687
 30
0.0
 10
266.715444639551
 20
105.7252626511643
 30
0.0
 10
266.8574396148726
 20
105.6982514677384
 30
0.0
 10
266.9261470010164
 20
105.6851815136386
 30
0.0
  0
SPLINE
  5
B0
330
1F
100
AcDbEntity
  8
0
  6
Continuous
 62
     7
370
    15
100
AcDbSpline
210
0.0
220
0.0
230
1.0
 70
     8
 71
     3
 72
    23
 73
    19
 74
     0
 42
0.00000001
 43
0.00000001
 12
1.0
 22
0.0
 32
0.0
 13
1.0
 23
0.0
 33
0.0
 40
0.0
 40
0.0
 40
0.0
 40
0.0
 40
0.062538490697381
 40
0.1268703322468096
 40
0.1895089567157948
 40
0.2539934004622967
 40
0.3161067687094442
 40
0.3800557579600297
 40
0.4415809685728595
 40
0.5049096679481228
 40
0.5661129323449596
 40
0.629091483716747
 40
0.6903053232553393
 40
0.7532763836341902
 40
0.8148262267670661
 40
0.8781288171896667
 40
0.9382674905199593
 40
1.0
 40
1.0
 40
1.0
 40
1.0
 10
266.9261470010164
 20
105.6851815136386
 30
0.0
 10
266.947506803734
 20
105.6802289110997
 30
0.0
 10
266.9908389218791
 20
105.6701816854217
 30
0.0
 10
267.0576434358907
 20
105.6692339314912
 30
0.0
 10
267.1242300192606
 20
105.6789366427122
 30
0.0
 10
267.1875671736573
 20
105.6998503916892
 30
0.0
 10
267.2468554376294
 20
105.731434529174
 30
0.0
 10
267.2991791020164
 20
105.7720893157748
 30
0.0
 10
267.3441827215565
 20
105.821377240356
 30
0.0
 10
267.3797704631008
 20
105.8768240762233
 30
0.0
 10
267.4057635902561
 20
105.9379690592519
 30
0.0
 10
267.4210297061908
 20
106.0019416517251
 30
0.0
 10
267.4254889101073
 20
106.0681914270773
 30
0.0
 10
267.4189560668052
 20
106.1337709305388
 30
0.0
 10
267.4015334115532
 20
106.1980693052644
 30
0.0
 10
267.374052459353
 20
106.2575006108157
 30
0.0
 10
267.3378023387071
 20
106.3121952496778
 30
0.0
 10
267.3073651585646
 20
106.3424310099855
 30
0.0
 10
267.2919475391704
 20
106.357746602374
 30
0.0
  0
SPLINE
  5
B1
330
1F
100
AcDbEntity
  8
0
  6
Continuous
 62
     7
370
    15
100
AcDbSpline
210
0.0
220
0.0
230
1.0
 70
     8
 71
     3
 72
    12
 73
     8
 74
     0
 42
0.00000001
 43
0.00000001
 12
1.0
 22
0.0
 32
0.0
 13
1.0
 23
0.0
 33
0.0
 40
0.0
 40
0.0
 40
0.0
 40
0.0
 40
0.2058321750920895
 40
0.4120750343577164
 40
0.6141697879284594
 40
0.8133029339857797
 40
1.0
 40
1.0
 40
1.0
 40
1.0
 10
267.2919475391704
 20
106.357746602374
 30
0.0
 10
267.2396142379624
 20
106.4150474086344
 30
0.0
 10
267.1348432181559
 20
106.5297633499002
 30
0.0
 10
267.0592434043768
 20
106.7550018444225
 30
0.0
 10
267.0581585255918
 20
106.9852520096756
 30
0.0
 10
267.1271442747316
 20
107.1986184197784
 30
0.0
 10
267.2202842024114
 20
107.3070342903508
 30
0.0
 10
267.2653531230986
 20
107.3594949953759
 30
0.0
  0
SPLINE
  5
B2
330
1F
100
AcDbEntity
  8
0
  6
Continuous
 62
     7
370
    15
100
AcDbSpline
210
0.0
220
0.0
230
1.0
 70
     8
 71
     3
 72
    15
 73
    11
 74
     0
 42
0.00000001
 43
0.00000001
 12
1.0
 22
0.0
 32
0.0
 13
1.0
 23
0.0
 33
0.0
 40
0.0
 40
0.0
 40
0.0
 40
0.0
 40
0.1267880291974993
 40
0.2538950064076003
 40
0.3799409022877441
 40
0.5047841289692022
 40
0.6289621452108921
 40
0.7531495391279627
 40
0.8780089278145834
 40
1.0
 40
1.0
 40
1.0
 40
1.0
 10
267.2653531230986
 20
107.3594949953759
 30
0.0
 10
267.2937654549594
 20
107.3932456276969
 30
0.0
 10
267.3506615927535
 20
107.460831795442
 30
0.0
 10
267.3866423613562
 20
107.5914746332087
 30
0.0
 10
267.379367180574
 20
107.7251331701129
 30
0.0
 10
267.327500217511
 20
107.8488860584976
 30
0.0
 10
267.2381950004409
 20
107.9486901894855
 30
0.0
 10
267.1216401546192
 20
108.0133216604045
 30
0.0
 10
266.9905888575395
 20
108.0392335586338
 30
0.0
 10
266.9061222308932
 20
108.0208804727143
 30
0.0
 10
266.8643796539822
 20
108.0118105579921
 30
0.0
  0
SPLINE
  5
B3
330
1F
100
AcDbEntity
  8
0
  6
Continuous
 62
     7
370
    15
100
AcDbSpline
210
0.0
220
0.0
230
1.0
 70
     8
 71
     3
 72
    12
 73
     8
 74
     0
 42
0.00000001
 43
0.00000001
 12
1.0
 22
0.0
 32
0.0
 13
1.0
 23
0.0
 33
0.0
 40
0.0
 40
0.0
 40
0.0
 40
0.0
 40
0.2058903596433935
 40
0.41213364307646
 40
0.614223912117593
 40
0.8133482777366888
 40
1.0
 40
1.0
 40
1.0
 40
1.0
 10
266.8643796539822
 20
108.0118105579921
 30
0.0
 10
266.7891419608589
 20
107.9956478277528
 30
0.0
 10
266.6385376070792
 20
107.963294662179
 30
0.0
 10
266.4063040822765
 20
108.0112755323097
 30
0.0
 10
266.2058079078424
 20
108.1254347204584
 30
0.0
 10
266.0539219300066
 20
108.2910320686552
 30
0.0
 10
266.0050744601862
 20
108.4249328336226
 30
0.0
 10
265.981440376435
 20
108.4897186230444
 30
0.0
  0
LWPOLYLINE
  5
B4
330
1F
100
AcDbEntity
  8
0
  6
Continuous
 62
     7
370
    15
100
AcDbPolyline
 90
        3
 70
   128
 43
0.0
 10
267.3768464623
 20
107.6907642764
 10
267.3418924101
 20
107.5810232861
 10
267.2653531231
 20
107.4745505526
  0
ARC
  5
B5
330
1F
100
AcDbEntity
  8
0
  6
Continuous
 62
     7
370
    15
100
AcDbCircle
 10
264.2533952288
 20
107.6815411549
 30
0.0
 40
0.3926475798952785
100
AcDbArc
 50
187.1839929191
 51
228.3638433193
  0
ARC
  5
B6
330
1F
100
AcDbEntity
  8
0
  6
Continuous
 62
     7
370
    15
100
AcDbCircle
 10
267.748343826
 20
106.9860191141
 30
0.0
 40
0.686981066274799
100
AcDbArc
 50
134.6732371703
 51
179.9881618794
  0
ARC
  5
B7
330
1F
100
AcDbEntity
  8
0
  6
Continuous
 62
     7
370
    15
100
AcDbCircle
 10
263.5360468956
 20
106.8745855435
 30
0.0
 40
0.6870588570085283
100
AcDbArc
 50
0.0132197031
 51
48.3645622671
  0
ARC
  5
B8
330
1F
100
AcDbEntity
  8
0
  6
Continuous
 62
     7
370
    15
100
AcDbCircle
 10
267.0299558569
 20
106.1801466781
 30
0.0
 40
0.3938115076672377
100
AcDbArc
 50
254.71619735
 51
354.3291909953
  0
ARC
  5
B9
330
1F
100
AcDbEntity
  8
0
  6
Continuous
 62
     7
370
    15
100
AcDbCircle
 10
264.2963583742
 20
106.1079866474
 30
0.0
 40
0.3938704870291151
100
AcDbArc
 50
185.6756058455
 51
288.3089050775
  0
ARC
  5
BA
330
1F
100
AcDbEntity
  8
0
  6
Continuous
 62
     7
370
    15
100
AcDbCircle
 10
266.7446863947
 20
105.1350326613
 30
0.0
 40
0.689536095795782
100
AcDbArc
 50
74.7421546754
 51
168.1674797951
  0
ARC
  5
BB
330
1F
100
AcDbEntity
  8
0
  6
Continuous
 62
     7
370
    15
100
AcDbCircle
 10
264.6364186162
 20
105.0791464904
 30
0.0
 40
0.6897129701929549
100
AcDbArc
 50
14.8717374618
 51
108.2794474723
  0
ARC
  5
BC
330
1F
100
AcDbEntity
  8
0
  6
Continuous
 62
     7
370
    15
100
AcDbCircle
 10
265.6840096014
 20
105.3573464913
 30
0.0
 40
0.3941883688610024
100
AcDbArc
 50
194.8732623077
 51
348.1534626332
  0
ARC
  5
BD
330
1F
100
AcDbEntity
  8
0
  6
Continuous
 62
     7
370
    15
100
AcDbCircle
 10
265.6406979741
 20
106.8569734264
 30
0.0
 40
3.500005530224362
100
AcDbArc
 50
0.1018532041
 51
179.8981467959
  0
LINE
  5
BE
330
1F
100
AcDbEntity
  8
0
  6
Continuous
 62
     7
370
    15
100
AcDbLine
 10
272.6395530591
 20
100.2648441151
 30
0.0
 11
271.5863999584
 21
112.2731161627
 31
0.0
  0
ARC
  5
BF
330
1F
100
AcDbEntity
  8
0
  6
Continuous
 62
     7
370
    15
100
AcDbCircle
 10
272.2415175151
 20
100.2305101562
 30
0.0
 40
0.3995135980505468
100
AcDbArc
 50
264.9302140244
 51
4.9300462061
  0
LINE
  5
C0
330
1F
100
AcDbEntity
  8
0
  6
Continuous
 62
     7
370
    15
100
AcDbLine
 10
260.1686178587
 20
100.8831472064
 30
0.0
 11
272.2062128827
 21
99.8325595337
 31
0.0
  0
ARC
  5
C1
330
1F
100
AcDbEntity
  8
0
  6
Continuous
 62
     7
370
    15
100
AcDbCircle
 10
260.2029530012
 20
101.2811828554
 30
0.0
 40
0.3995138043832434
100
AcDbArc
 50
185.0699537939
 51
265.0697859756
  0
LINE
  5
C2
330
1F
100
AcDbEntity
  8
0
  6
Continuous
 62
     7
370
    15
100
AcDbLine
 10
258.7518491759
 20
113.2541490868
 30
0.0
 11
259.8050022766
 21
101.2458770392
 31
0.0
  0
ARC
  5
C3
330
1F
100
AcDbEntity
  8
0
  6
Continuous
 62
     7
370
    15
100
AcDbCircle
 10
259.1498847199
 20
113.2884830457
 30
0.0
 40
0.3995135980501181
100
AcDbArc
 50
84.9302140243
 51
184.9300462061
  0
LINE
  5
C4
330
1F
100
AcDbEntity
  8
0
  6
Continuous
 62
     7
370
    15
100
AcDbLine
 10
271.2227843762
 20
112.6358459956
 30
0.0
 11
259.1851893522
 21
113.6864336683
 31
0.0
  0
ARC
  5
C5
330
1F
100
AcDbEntity
  8
0
  6
Continuous
 62
     7
370
    15
100
AcDbCircle
 10
271.1884492337
 20
112.2378103466
 30
0.0
 40
0.3995138043830485
100
AcDbArc
 50
5.0699537939
 51
85.0697859756
  0
ARC
  5
C6
330
1F
100
AcDbEntity
  8
0
  6
Continuous
 62
     7
370
    15
100
AcDbCircle
 10
259.1499068366
 20
113.2885052165
 30
0.0
 40
0.3795379181480473
100
AcDbArc
 50
84.9302140244
 51
184.930046206
  0
LINE
  5
C7
330
1F
100
AcDbEntity
  8
0
  6
Continuous
 62
     7
370
    15
100
AcDbLine
 10
258.7717730698
 20
113.2558879555
 30
0.0
 11
259.8249261708
 21
101.247615908
 31
0.0
  0
ARC
  5
C8
330
1F
100
AcDbEntity
  8
0
  6
Continuous
 62
     7
370
    15
100
AcDbCircle
 10
260.2029793597
 20
101.2811564337
 30
0.0
 40
0.3795381146290651
100
AcDbArc
 50
185.0699538432
 51
265.0697858713
  0
LINE
  5
C9
330
1F
100
AcDbEntity
  8
0
  6
Continuous
 62
     7
370
    15
100
AcDbLine
 10
260.1703609736
 20
100.9030225667
 30
0.0
 11
272.2079559976
 21
99.852434894
 31
0.0
  0
ARC
  5
CA
330
1F
100
AcDbEntity
  8
0
  6
Continuous
 62
     7
370
    15
100
AcDbCircle
 10
272.2414953983
 20
100.2304879854
 30
0.0
 40
0.3795379181475034
100
AcDbArc
 50
264.9302140243
 51
4.9300462062
  0
LINE
  5
CB
330
1F
100
AcDbEntity
  8
0
  6
Continuous
 62
     7
370
    15
100
AcDbLine
 10
272.6196291651
 20
100.2631052464
 30
0.0
 11
271.5664760644
 21
112.271377294
 31
0.0
  0
ARC
  5
CC
330
1F
100
AcDbEntity
  8
0
  6
Continuous
 62
     7
370
    15
100
AcDbCircle
 10
271.188422876
 20
112.2378367686
 30
0.0
 40
0.3795381141639114
100
AcDbArc
 50
5.0699537939
 51
85.0697859756
  0
LINE
  5
CD
330
1F
100
AcDbEntity
  8
0
  6
Continuous
 62
     7
370
    15
100
AcDbLine
 10
271.2210412614
 20
112.6159706352
 30
0.0
 11
259.1834462373
 21
113.6665583079
 31
0.0
  0
LINE
  5
CE
330
1F
100
AcDbEntity
  8
0
  6
Continuous
 62
     7
370
    15
100
AcDbLine
 10
259.1503270551
 20
113.3042305503
 30
0.0
 11
258.7717730698
 21
113.2558879555
 31
0.0
  0
LINE
  5
CF
330
1F
100
AcDbEntity
  8
0
  6
Continuous
 62
     7
370
    15
100
AcDbLine
 10
259.1503270551
 20
113.3042305503
 30
0.0
 11
259.1834462373
 21
113.6665583079
 31
0.0
  0
LINE
  5
D0
330
1F
100
AcDbEntity
  8
0
  6
Continuous
 62
     7
370
    15
100
AcDbLine
 10
271.1879220791
 20
112.2536428776
 30
0.0
 11
271.2210412614
 21
112.6159706352
 31
0.0
  0
LINE
  5
D1
330
1F
100
AcDbEntity
  8
0
  6
Continuous
 62
     7
370
    15
100
AcDbLine
 10
270.6142277499
 20
111.706376763
 30
0.0
 11
271.1879220791
 21
112.2536428776
 31
0.0
  0
LINE
  5
D2
330
1F
100
AcDbEntity
  8
0
  6
Continuous
 62
     7
370
    15
100
AcDbLine
 10
260.0693273996
 20
112.4211139627
 30
0.0
 11
259.1503270551
 21
113.3042305503
 31
0.0
  0
LINE
  5
D3
330
1F
100
AcDbEntity
  8
0
  6
Continuous
 62
     7
370
    15
100
AcDbLine
 10
260.2034801558
 20
101.2959585027
 30
0.0
 11
259.8249261708
 21
101.247615908
 31
0.0
  0
LINE
  5
D4
330
1F
100
AcDbEntity
  8
0
  6
Continuous
 62
     7
370
    15
100
AcDbLine
 10
260.777174485
 20
101.8932860655
 30
0.0
 11
260.2034801558
 21
101.2959585027
 31
0.0
  0
LINE
  5
D5
330
1F
100
AcDbEntity
  8
0
  6
Continuous
 62
     7
370
    15
100
AcDbLine
 10
271.1879220791
 20
112.2536428776
 30
0.0
 11
271.5664760644
 21
112.271377294
 31
0.0
  0
LINE
  5
D6
330
1F
100
AcDbEntity
  8
0
  6
Continuous
 62
     7
370
    15
100
AcDbLine
 10
272.2410751798
 20
100.24537083
 30
0.0
 11
272.6196291651
 21
100.2631052464
 31
0.0
  0
LINE
  5
D7
330
1F
100
AcDbEntity
  8
0
  6
Continuous
 62
     7
370
    15
100
AcDbLine
 10
271.3220748353
 20
101.1957776542
 30
0.0
 11
272.2410751798
 21
100.24537083
 31
0.0
  0
ARC
  5
D8
330
1F
100
AcDbEntity
  8
0
  6
Continuous
 62
     7
370
    15
100
AcDbCircle
 10
262.03138593
 20
110.4126740184
 30
0.0
 40
0.9987839949517651
100
AcDbArc
 50
84.9302140094
 51
184.9300462358
  0
LINE
  5
D9
330
1F
100
AcDbEntity
  8
0
  6
Continuous
 62
     7
370
    15
100
AcDbLine
 10
268.8566544741
 20
110.8195746162
 30
0.0
 11
262.119647511
 21
111.4075505745
 31
0.0
  0
ARC
  5
DA
330
1F
100
AcDbEntity
  8
0
  6
Continuous
 62
     7
370
    15
100
AcDbCircle
 10
268.7708166178
 20
109.8244854937
 30
0.0
 40
0.9987845109572653
100
AcDbArc
 50
5.0699537939
 51
85.0697859756
  0
LINE
  5
DB
330
1F
100
AcDbEntity
  8
0
  6
Continuous
 62
     7
370
    15
100
AcDbLine
 10
270.3551051648
 20
103.1921540814
 30
0.0
 11
269.7656934294
 21
109.912750034
 31
0.0
  0
ARC
  5
DC
330
1F
100
AcDbEntity
  8
0
  6
Continuous
 62
     7
370
    15
100
AcDbCircle
 10
269.3600163047
 20
103.1063191841
 30
0.0
 40
0.9987839951263365
100
AcDbArc
 50
264.9302140244
 51
4.9300462061
  0
LINE
  5
DD
330
1F
100
AcDbEntity
  8
0
  6
Continuous
 62
     7
370
    15
100
AcDbLine
 10
262.5347477609
 20
102.6994185858
 30
0.0
 11
269.2717547239
 21
102.1114426278
 31
0.0
  0
ARC
  5
DE
330
1F
100
AcDbEntity
  8
0
  6
Continuous
 62
     7
370
    15
100
AcDbCircle
 10
262.6205856171
 20
103.6945077083
 30
0.0
 40
0.9987845109572676
100
AcDbArc
 50
185.0699537939
 51
265.0697859756
  0
LINE
  5
DF
330
1F
100
AcDbEntity
  8
0
  6
Continuous
 62
     7
370
    15
100
AcDbLine
 10
261.0362970702
 20
110.3268391206
 30
0.0
 11
261.6257088055
 21
103.6062431679
 31
0.0
  0
CIRCLE
  5
E0
330
1F
100
AcDbEntity
  8
0
  6
Continuous
 62
     7
370
    15
100
AcDbCircle
 10
265.6981072379
 20
106.7533739934
 30
0.0
 40
3.796703903104296
  0
ARC
  5
E1
330
1F
100
AcDbEntity
  8
0
  6
Continuous
 62
     7
370
    15
100
AcDbCircle
 10
265.6957011175
 20
106.8465929802
 30
0.0
 40
3.800006221751548
100
AcDbArc
 50
180.1036816422
 51
359.8963183578
  0
SPLINE
  5
E2
330
1F
100
AcDbEntity
  8
0
  6
Continuous
 62
     7
370
    15
100
AcDbSpline
210
0.0
220
0.0
230
1.0
 70
     8
 71
     3
 72
    14
 73
    10
 74
     0
 42
0.00000001
 43
0.00000001
 12
1.0
 22
0.0
 32
0.0
 13
1.0
 23
0.0
 33
0.0
 40
0.0
 40
0.0
 40
0.0
 40
0.0
 40
0.0076078452722815
 40
0.162987463162262
 40
0.3207220632349373
 40
0.4900060525183154
 40
0.662967345872895
 40
0.8292185822131658
 40
1.0
 40
1.0
 40
1.0
 40
1.0
 10
260.5582549771819
 20
111.928120777905
 30
0.0
 10
260.5571394275123
 20
111.929296866514
 30
0.0
 10
260.5332403333298
 20
111.9544929229505
 30
0.0
 10
260.4844379756595
 20
112.0055478334014
 30
0.0
 10
260.4072201921322
 20
112.0852344946214
 30
0.0
 10
260.3240798684312
 20
112.1698598059929
 30
0.0
 10
260.2379470303069
 20
112.2562287274726
 30
0.0
 10
260.1514819208688
 20
112.3417013895648
 30
0.0
 10
260.0969565386756
 20
112.394406959947
 30
0.0
 10
260.0693273995928
 20
112.4211139627401
 30
0.0
  0
SPLINE
  5
E3
330
1F
100
AcDbEntity
  8
0
  6
Continuous
 62
     7
370
    15
100
AcDbSpline
210
0.0
220
0.0
230
1.0
 70
     8
 71
     3
 72
    11
 73
     7
 74
     0
 42
0.00000001
 43
0.00000001
 12
1.0
 22
0.0
 32
0.0
 13
1.0
 23
0.0
 33
0.0
 40
0.0
 40
0.0
 40
0.0
 40
0.0
 40
0.0081164391029275
 40
0.3263678516926851
 40
0.6627685813477298
 40
0.9999999999999999
 40
0.9999999999999999
 40
0.9999999999999999
 40
0.9999999999999999
 10
270.1235719164382
 20
111.2134298974532
 30
0.0
 10
270.1247645387949
 20
111.2146871904744
 30
0.0
 10
270.1727207412014
 20
111.2652438467956
 30
0.0
 10
270.2781993854014
 20
111.3745812475787
 30
0.0
 10
270.4496515544527
 20
111.5474508933251
 30
0.0
 10
270.5593239372728
 20
111.6533579400139
 30
0.0
 10
270.6142277498927
 20
111.7063767629574
 30
0.0
  0
LINE
  5
E4
330
1F
100
AcDbEntity
  8
0
  6
Continuous
 62
     7
370
    15
100
AcDbLine
 10
272.2410751798
 20
100.24537083
 30
0.0
 11
272.2079559976
 21
99.852434894
 31
0.0
  0
LINE
  5
E5
330
1F
100
AcDbEntity
  8
0
  6
Continuous
 62
     7
370
    15
100
AcDbLine
 10
260.2034801558
 20
101.2959585027
 30
0.0
 11
260.1703609736
 21
100.9030225667
 31
0.0
  0
SPLINE
  5
E6
330
1F
100
AcDbEntity
  8
0
  6
Continuous
 62
     7
370
    15
100
AcDbSpline
210
0.0
220
0.0
230
1.0
 70
     8
 71
     3
 72
    11
 73
     7
 74
     0
 42
0.00000001
 43
0.00000001
 12
1.0
 22
0.0
 32
0.0
 13
1.0
 23
0.0
 33
0.0
 40
0.0
 40
0.0
 40
0.0
 40
0.0
 40
0.3372314186520671
 40
0.6736321483072989
 40
0.991883560897184
 40
1.0
 40
1.0
 40
1.0
 40
1.0
 10
260.7771744850422
 20
101.8932860654513
 30
0.0
 10
260.832078297662
 20
101.949807381891
 30
0.0
 10
260.9417506804819
 20
102.0627107880166
 30
0.0
 10
261.113202849534
 20
102.2319101826456
 30
0.0
 10
261.2186814937326
 20
102.3330161888962
 30
0.0
 10
261.26663769614
 20
102.3781382996003
 30
0.0
 10
261.2678303184967
 20
102.3792604409565
 30
0.0
  0
SPLINE
  5
E7
330
1F
100
AcDbEntity
  8
0
  6
Continuous
 62
     7
370
    15
100
AcDbSpline
210
0.0
220
0.0
230
1.0
 70
     8
 71
     3
 72
    11
 73
     7
 74
     0
 42
0.00000001
 43
0.00000001
 12
1.0
 22
0.0
 32
0.0
 13
1.0
 23
0.0
 33
0.0
 40
0.0
 40
0.0
 40
0.0
 40
0.0
 40
0.3367831131416333
 40
0.6790111347689517
 40
0.992371733991854
 40
1.0
 40
1.0
 40
1.0
 40
1.0
 10
271.3220748353423
 20
101.1957776541834
 30
0.0
 10
271.2665849975452
 20
101.2525479897455
 30
0.0
 10
271.1547081953527
 20
101.3670064897921
 30
0.0
 10
270.9852603312637
 20
101.5334997921611
 30
0.0
 10
270.8812043585531
 20
101.6330427700539
 30
0.0
 10
270.8342628184272
 20
101.6772080357064
 30
0.0
 10
270.833147257753
 20
101.6782576185151
 30
0.0
  0
LINE
  5
E8
330
1F
100
AcDbEntity
  8
0
  6
HIDDEN
 62
     7
370
     0
100
AcDbLine
 10
147.6410751798
 20
90.8310411207
 30
0.0
 11
147.6410751798
 21
152.8310411207
 31
0.0
  0
LINE
  5
E9
330
1F
100
AcDbEntity
  8
0
  6
HIDDEN
 62
     7
370
     0
100
AcDbLine
 10
169.6410751798
 20
91.3310411207
 30
0.0
 11
169.6410751798
 21
152.3310411157
 31
0.0
  0
SPLINE
  5
EA
330
1F
100
AcDbEntity
  8
0
  6
HIDDEN
 62
     7
370
     0
100
AcDbSpline
210
0.0
220
0.0
230
1.0
 70
    11
 71
     3
 72
    47
 73
    43
 74
     0
 42
0.00000001
 43
0.00000001
 12
1.0
 22
0.0
 32
0.0
 13
1.0
 23
0.0
 33
0.0
 40
0.0
 40
0.0
 40
0.0
 40
0.0
 40
0.0156133930831419
 40
0.042039330056539
 40
0.0617665812280598
 40
0.0692325612221257
 40
0.0956582295685118
 40
0.1228484187266783
 40
0.149307306577954
 40
0.1765321394686745
 40
0.2030118209524081
 40
0.2302613972093092
 40
0.2567046168767274
 40
0.283916929133089
 40
0.3103233301576335
 40
0.3374945172509523
 40
0.3639211978292268
 40
0.3911115864284279
 40
0.4175839659679023
 40
0.4448238644855289
 40
0.4712961214909161
 40
0.4985386688589283
 40
0.5249652486477181
 40
0.5521595154835707
 40
0.5785661487324464
 40
0.605736580009617
 40
0.6321799050274679
 40
0.6593878819913837
 40
0.6858675478254027
 40
0.7131161529500911
 40
0.7395750335653681
 40
0.7668038980306646
 40
0.793217159478193
 40
0.8203965443636563
 40
0.846810611019047
 40
0.8739880878341182
 40
0.9004480454369204
 40
0.9276740539524034
 40
0.9541534544431819
 40
0.9814027956355947
 40
0.9984088421861939
 40
1.0
 40
1.0
 40
1.0
 40
1.0
 10
157.6516605178072
 20
121.6353030941959
 30
0.0
 10
157.6470080893607
 20
121.7004508752457
 30
0.0
 10
157.6344813455588
 20
121.875862398892
 30
0.0
 10
157.6519929667354
 20
122.1367258622209
 30
0.0
 10
157.7192915573807
 20
122.3513170192579
 30
0.0
 10
157.7699027193231
 20
122.570157546708
 30
0.0
 10
157.8849934720195
 20
122.8017175371739
 30
0.0
 10
158.0680968128976
 20
123.0827426855362
 30
0.0
 10
158.302437510728
 20
123.3295050878968
 30
0.0
 10
158.5713970543545
 20
123.5322424652937
 30
0.0
 10
158.8737785157787
 20
123.6882948973189
 30
0.0
 10
159.19504972959
 20
123.7904300785837
 30
0.0
 10
159.5318906364616
 20
123.8375722123296
 30
0.0
 10
159.8684659575489
 20
123.8276205484591
 30
0.0
 10
160.201443867211
 20
123.7607959204474
 30
0.0
 10
160.5155086933824
 20
123.6402806910505
 30
0.0
 10
160.8076073554486
 20
123.4672563466109
 30
0.0
 10
161.0644053762437
 20
123.2495576684278
 30
0.0
 10
161.2831645600545
 20
122.9893487375491
 30
0.0
 10
161.4536872579812
 20
122.6985565882655
 30
0.0
 10
161.5740723071392
 20
122.3803002259379
 30
0.0
 10
161.6386683667172
 20
122.0495120876411
 30
0.0
 10
161.646893154979
 20
121.7096565395731
 30
0.0
 10
161.5984920702417
 20
121.3765927836287
 30
0.0
 10
161.4940390805818
 20
121.0535571009346
 30
0.0
 10
161.3383721675725
 20
120.7553186730193
 30
0.0
 10
161.1329893438369
 20
120.4848484741228
 30
0.0
 10
160.887185373934
 20
120.2545560226038
 30
0.0
 10
160.6034806740074
 20
120.0669719097997
 30
0.0
 10
160.2950034275012
 20
119.9309025594921
 30
0.0
 10
159.9650783166946
 20
119.8478230206129
 30
0.0
 10
159.6292156205899
 20
119.821580799804
 30
0.0
 10
159.2908369051215
 20
119.8523221554464
 30
0.0
 10
158.9656179438126
 20
119.9384924928054
 30
0.0
 10
158.6566866182604
 20
120.0791974671277
 30
0.0
 10
158.378158390933
 20
120.2680239364837
 30
0.0
 10
158.1327921427376
 20
120.5031279835624
 30
0.0
 10
157.932350218202
 20
120.7738592037564
 30
0.0
 10
157.7775159150513
 20
121.0772071684963
 30
0.0
 10
157.692697181152
 20
121.361649169104
 30
0.0
 10
157.6558808575681
 20
121.5509089120752
 30
0.0
 10
157.6519931464042
 20
121.6286515163643
 30
0.0
 10
157.6516605178072
 20
121.6353030941959
 30
0.0
  0
SPLINE
  5
EB
330
1F
100
AcDbEntity
  8
0
  6
HIDDEN
 62
     7
370
     0
100
AcDbSpline
210
0.0
220
0.0
230
1.0
 70
     8
 71
     3
 72
    12
 73
     8
 74
     0
 42
0.00000001
 43
0.00000001
 12
1.0
 22
0.0
 32
0.0
 13
1.0
 23
0.0
 33
0.0
 40
0.0
 40
0.0
 40
0.0
 40
0.0
 40
0.2500000000000023
 40
0.2500000000000023
 40
0.5000000000000047
 40
0.5000000000000047
 40
1.0
 40
1.0
 40
1.0
 40
1.0
 10
158.1688319934113
 20
112.4429746894055
 30
0.0
 10
158.1057519549179
 20
112.4429746894055
 30
0.0
 10
158.0466033327366
 20
112.4176103701905
 30
0.0
 10
157.9481307826676
 20
112.3434455098175
 30
0.0
 10
157.9090941706828
 20
112.2969251692635
 30
0.0
 10
157.8091977039039
 20
112.1467828264182
 30
0.0
 10
157.766776822837
 20
112.0350896194462
 30
0.0
 10
157.7358192915191
 20
111.9216718000564
 30
0.0
  0
LINE
  5
EC
330
1F
100
AcDbEntity
  8
0
  6
HIDDEN
 62
     7
370
     0
100
AcDbLine
 10
161.1133183663
 20
112.4429746894
 30
0.0
 11
158.1688319934
 21
112.4429746894
 31
0.0
  0
SPLINE
  5
ED
330
1F
100
AcDbEntity
  8
0
  6
HIDDEN
 62
     7
370
     0
100
AcDbSpline
210
0.0
220
0.0
230
1.0
 70
     8
 71
     3
 72
    12
 73
     8
 74
     0
 42
0.00000001
 43
0.00000001
 12
1.0
 22
0.0
 32
0.0
 13
1.0
 23
0.0
 33
0.0
 40
0.0
 40
0.0
 40
0.0
 40
0.0
 40
0.5
 40
0.5
 40
0.75
 40
0.75
 40
1.0
 40
1.0
 40
1.0
 40
1.0
 10
161.5463310681706
 20
111.9216718000564
 30
0.0
 10
161.5156088262515
 20
112.0342275994656
 30
0.0
 10
161.4727716117162
 20
112.1469854592051
 30
0.0
 10
161.3733445875165
 20
112.2965263450015
 30
0.0
 10
161.3335923926998
 20
112.3438190767082
 30
0.0
 10
161.2355509358416
 20
112.4175553700297
 30
0.0
 10
161.1759948802542
 20
112.4429746894055
 30
0.0
 10
161.1133183662784
 20
112.4429746894055
 30
0.0
  0
ELLIPSE
  5
EE
330
1F
100
AcDbEntity
  8
0
  6
HIDDEN
 62
     7
370
     0
100
AcDbEllipse
 10
145.2939209905
 20
121.8310411207
 30
0.0
 11
-14.75368316065606
 21
31.09325491558118
 31
0.0
210
0.0
220
0.0
230
1.0
 40
0.3419987131
 41
3.30073485621713
 42
4.23149622336078
  0
SPLINE
  5
EF
330
1F
100
AcDbEntity
  8
0
  6
HIDDEN
 62
     7
370
     0
100
AcDbSpline
210
0.0
220
0.0
230
1.0
 70
     8
 71
     3
 72
    12
 73
     8
 74
     0
 42
0.00000001
 43
0.00000001
 12
1.0
 22
0.0
 32
0.0
 13
1.0
 23
0.0
 33
0.0
 40
0.0
 40
0.0
 40
0.0
 40
0.0
 40
0.2499999999999991
 40
0.2499999999999991
 40
0.4999999999999982
 40
0.4999999999999982
 40
1.0
 40
1.0
 40
1.0
 40
1.0
 10
161.1133183662784
 20
91.7625491618684
 30
0.0
 10
161.1763984047718
 20
91.76254916186839
 30
0.0
 10
161.2355470269531
 20
91.77045508808102
 30
0.0
 10
161.3340195770222
 20
91.79378024951723
 30
0.0
 10
161.3730561890068
 20
91.80849303934893
 30
0.0
 10
161.472952655786
 20
91.85644884007985
 30
0.0
 10
161.5153735368525
 20
91.89271099665991
 30
0.0
 10
161.5463310681706
 20
91.9302986606244
 30
0.0
  0
LINE
  5
F0
330
1F
100
AcDbEntity
  8
0
  6
HIDDEN
 62
     7
370
     0
100
AcDbLine
 10
158.1688319934
 20
91.7625491619
 30
0.0
 11
161.1133183663
 21
91.7625491619
 31
0.0
  0
SPLINE
  5
F1
330
1F
100
AcDbEntity
  8
0
  6
HIDDEN
 62
     7
370
     0
100
AcDbSpline
210
0.0
220
0.0
230
1.0
 70
     8
 71
     3
 72
    12
 73
     8
 74
     0
 42
0.00000001
 43
0.00000001
 12
1.0
 22
0.0
 32
0.0
 13
1.0
 23
0.0
 33
0.0
 40
0.0
 40
0.0
 40
0.0
 40
0.0
 40
0.5
 40
0.5
 40
0.75
 40
0.75
 40
1.0
 40
1.0
 40
1.0
 40
1.0
 10
157.7358192915191
 20
91.9302986606244
 30
0.0
 10
157.7665415334383
 20
91.89299667767135
 30
0.0
 10
157.8093787479733
 20
91.85638484562496
 30
0.0
 10
157.9088057721733
 20
91.80862006233978
 30
0.0
 10
157.9485579669899
 20
91.79366254685742
 30
0.0
 10
158.0465994238481
 20
91.7704726010883
 30
0.0
 10
158.1061554794355
 20
91.7625491618684
 30
0.0
 10
158.1688319934113
 20
91.7625491618684
 30
0.0
  0
ELLIPSE
  5
F2
330
1F
100
AcDbEntity
  8
0
  6
HIDDEN
 62
     7
370
     0
100
AcDbEllipse
 10
173.9882293692
 20
121.8310411207
 30
0.0
 11
14.75368316065606
 21
31.09325491558118
 31
0.0
210
0.0
220
0.0
230
1.0
 40
0.3419987131
 41
2.051689083818817
 42
2.982450450962495
  0
SPLINE
  5
F3
330
1F
100
AcDbEntity
  8
0
  6
HIDDEN
 62
     7
370
     0
100
AcDbSpline
210
0.0
220
0.0
230
1.0
 70
     8
 71
     3
 72
    12
 73
     8
 74
     0
 42
0.00000001
 43
0.00000001
 12
1.0
 22
0.0
 32
0.0
 13
1.0
 23
0.0
 33
0.0
 40
0.0
 40
0.0
 40
0.0
 40
0.0
 40
0.2500000000000009
 40
0.2500000000000009
 40
0.5000000000000018
 40
0.5000000000000018
 40
1.0
 40
1.0
 40
1.0
 40
1.0
 10
158.1688319934113
 20
151.8995330796149
 30
0.0
 10
158.1057519549179
 20
151.8995330796149
 30
0.0
 10
158.0466033327366
 20
151.8916271534023
 30
0.0
 10
157.9481307826676
 20
151.8683019919661
 30
0.0
 10
157.9090941706828
 20
151.8535892021344
 30
0.0
 10
157.8091977039039
 20
151.8056334014035
 30
0.0
 10
157.766776822837
 20
151.7693712448235
 30
0.0
 10
157.7358192915191
 20
151.731783580859
 30
0.0
  0
LINE
  5
F4
330
1F
100
AcDbEntity
  8
0
  6
HIDDEN
 62
     7
370
     0
100
AcDbLine
 10
161.1133183663
 20
151.8995330796
 30
0.0
 11
158.1688319934
 21
151.8995330796
 31
0.0
  0
SPLINE
  5
F5
330
1F
100
AcDbEntity
  8
0
  6
HIDDEN
 62
     7
370
     0
100
AcDbSpline
210
0.0
220
0.0
230
1.0
 70
     8
 71
     3
 72
    12
 73
     8
 74
     0
 42
0.00000001
 43
0.00000001
 12
1.0
 22
0.0
 32
0.0
 13
1.0
 23
0.0
 33
0.0
 40
0.0
 40
0.0
 40
0.0
 40
0.0
 40
0.5000000000000018
 40
0.5000000000000018
 40
0.7500000000000009
 40
0.7500000000000009
 40
1.0
 40
1.0
 40
1.0
 40
1.0
 10
161.5463310681706
 20
151.731783580859
 30
0.0
 10
161.5156088262515
 20
151.769085563812
 30
0.0
 10
161.4727716117162
 20
151.8056973958584
 30
0.0
 10
161.3733445875165
 20
151.8534621791436
 30
0.0
 10
161.3335923926998
 20
151.8684196946259
 30
0.0
 10
161.2355509358416
 20
151.8916096403951
 30
0.0
 10
161.1759948802542
 20
151.8995330796149
 30
0.0
 10
161.1133183662784
 20
151.8995330796149
 30
0.0
  0
ELLIPSE
  5
F6
330
1F
100
AcDbEntity
  8
0
  6
HIDDEN
 62
     7
370
     0
100
AcDbEllipse
 10
145.2939209905
 20
121.8310411207
 30
0.0
 11
14.75368316065621
 21
31.09325491558121
 31
0.0
210
0.0
220
0.0
230
1.0
 40
0.3419987131
 41
5.193281737408636
 42
6.12404310455234
  0
SPLINE
  5
F7
330
1F
100
AcDbEntity
  8
0
  6
HIDDEN
 62
     7
370
     0
100
AcDbSpline
210
0.0
220
0.0
230
1.0
 70
     8
 71
     3
 72
    12
 73
     8
 74
     0
 42
0.00000001
 43
0.00000001
 12
1.0
 22
0.0
 32
0.0
 13
1.0
 23
0.0
 33
0.0
 40
0.0
 40
0.0
 40
0.0
 40
0.0
 40
0.2499999999999996
 40
0.2499999999999996
 40
0.4999999999999991
 40
0.4999999999999991
 40
1.0
 40
1.0
 40
1.0
 40
1.0
 10
161.1133183662784
 20
131.2191075520781
 30
0.0
 10
161.1763984047718
 20
131.2191075520781
 30
0.0
 10
161.2355470269531
 20
131.2444718712932
 30
0.0
 10
161.3340195770222
 20
131.3186367316661
 30
0.0
 10
161.3730561890068
 20
131.3651570722201
 30
0.0
 10
161.472952655786
 20
131.5152994150654
 30
0.0
 10
161.5153735368525
 20
131.6269926220375
 30
0.0
 10
161.5463310681706
 20
131.7404104414273
 30
0.0
  0
LINE
  5
F8
330
1F
100
AcDbEntity
  8
0
  6
HIDDEN
 62
     7
370
     0
100
AcDbLine
 10
158.1688319934
 20
131.2191075521
 30
0.0
 11
161.1133183663
 21
131.2191075521
 31
0.0
  0
SPLINE
  5
F9
330
1F
100
AcDbEntity
  8
0
  6
HIDDEN
 62
     7
370
     0
100
AcDbSpline
210
0.0
220
0.0
230
1.0
 70
     8
 71
     3
 72
    12
 73
     8
 74
     0
 42
0.00000001
 43
0.00000001
 12
1.0
 22
0.0
 32
0.0
 13
1.0
 23
0.0
 33
0.0
 40
0.0
 40
0.0
 40
0.0
 40
0.0
 40
0.5
 40
0.5
 40
0.75
 40
0.75
 40
1.0
 40
1.0
 40
1.0
 40
1.0
 10
157.7358192915191
 20
131.7404104414272
 30
0.0
 10
157.7665415334383
 20
131.6278546420181
 30
0.0
 10
157.8093787479733
 20
131.5150967822785
 30
0.0
 10
157.9088057721733
 20
131.3655558964822
 30
0.0
 10
157.9485579669899
 20
131.3182631647753
 30
0.0
 10
158.0465994238481
 20
131.244526871454
 30
0.0
 10
158.1061554794355
 20
131.2191075520781
 30
0.0
 10
158.1688319934113
 20
131.2191075520781
 30
0.0
  0
ELLIPSE
  5
FA
330
1F
100
AcDbEntity
  8
0
  6
HIDDEN
 62
     7
370
     0
100
AcDbEllipse
 10
173.9882293692
 20
121.8310411207
 30
0.0
 11
-14.75368316065624
 21
31.09325491558118
 31
0.0
210
0.0
220
0.0
230
1.0
 40
0.3419987131
 41
0.1591422026272834
 42
1.089903569770961
  0
LINE
  5
FB
330
1F
100
AcDbEntity
  8
0
  6
HIDDEN
 62
     7
370
     0
100
AcDbLine
 10
147.6410751798
 20
97.5810411207
 30
0.0
 11
147.6410751798
 21
146.0573058639
 31
0.0
  0
SPLINE
  5
FC
330
1F
100
AcDbEntity
  8
0
  6
HIDDEN
 62
     7
370
     0
100
AcDbSpline
210
0.0
220
0.0
230
1.0
 70
     8
 71
     3
 72
    12
 73
     8
 74
     0
 42
0.00000001
 43
0.00000001
 12
1.0
 22
0.0
 32
0.0
 13
1.0
 23
0.0
 33
0.0
 40
0.0
 40
0.0
 40
0.0
 40
0.0
 40
0.4999999999999993
 40
0.4999999999999993
 40
0.7499999999999998
 40
0.7499999999999998
 40
1.0
 40
1.0
 40
1.0
 40
1.0
 10
146.8245628933979
 20
137.2833091025725
 30
0.0
 10
146.8809690720781
 20
137.2354867289127
 30
0.0
 10
146.9511319735498
 20
137.1952158819742
 30
0.0
 10
147.069142686939
 20
137.1871700134973
 30
0.0
 10
147.1093484705344
 20
137.1937326118361
 30
0.0
 10
147.1830691672675
 20
137.2211147062897
 30
0.0
 10
147.215929889054
 20
137.24087619682
 30
0.0
 10
147.2460982909833
 20
137.2638089080081
 30
0.0
  0
SPLINE
  5
FD
330
1F
100
AcDbEntity
  8
0
  6
HIDDEN
 62
     7
370
     0
100
AcDbSpline
210
0.0
220
0.0
230
1.0
 70
     8
 71
     3
 72
    16
 73
    12
 74
     0
 42
0.00000001
 43
0.00000001
 12
1.0
 22
0.0
 32
0.0
 13
1.0
 23
0.0
 33
0.0
 40
0.0
 40
0.0
 40
0.0
 40
0.0
 40
0.0624999999999975
 40
0.0624999999999975
 40
0.1249999999999951
 40
0.1249999999999951
 40
0.2499999999999921
 40
0.2499999999999921
 40
0.4999999999999964
 40
0.4999999999999964
 40
1.0
 40
1.0
 40
1.0
 40
1.0
 10
147.2460982909382
 20
137.2638089080562
 30
0.0
 10
147.2577111907775
 20
137.2726365310376
 30
0.0
 10
147.27106237521
 20
137.2804709129195
 30
0.0
 10
147.3004622148292
 20
137.2887810389919
 30
0.0
 10
147.3153029393845
 20
137.2882852197569
 30
0.0
 10
147.3511361473531
 20
137.2768342487875
 30
0.0
 10
147.3652493551747
 20
137.2601537479288
 30
0.0
 10
147.3997407263936
 20
137.2080330621718
 30
0.0
 10
147.410824797504
 20
137.1682435681468
 30
0.0
 10
147.4369476153
 20
137.0449069360496
 30
0.0
 10
147.4410751798449
 20
136.957485525551
 30
0.0
 10
147.4410751798448
 20
136.8687482832328
 30
0.0
  0
LINE
  5
FE
330
1F
100
AcDbEntity
  8
0
  6
HIDDEN
 62
     7
370
     0
100
AcDbLine
 10
147.4410751798
 20
106.7933339583
 30
0.0
 11
147.4410751798
 21
136.8687482832
 31
0.0
  0
SPLINE
  5
FF
330
1F
100
AcDbEntity
  8
0
  6
HIDDEN
 62
     7
370
     0
100
AcDbSpline
210
0.0
220
0.0
230
1.0
 70
     8
 71
     3
 72
    16
 73
    12
 74
     0
 42
0.00000001
 43
0.00000001
 12
1.0
 22
0.0
 32
0.0
 13
1.0
 23
0.0
 33
0.0
 40
0.0
 40
0.0
 40
0.0
 40
0.0
 40
0.4999999999999853
 40
0.4999999999999853
 40
0.7499999999999856
 40
0.7499999999999856
 40
0.8749999999999929
 40
0.8749999999999929
 40
0.9374999999999964
 40
0.9374999999999964
 40
1.0
 40
1.0
 40
1.0
 40
1.0
 10
147.4410751798448
 20
106.7933339582504
 30
0.0
 10
147.4410751798448
 20
106.7042075930617
 30
0.0
 10
147.4369289047669
 20
106.6173462254483
 30
0.0
 10
147.4109633093734
 20
106.4943639789542
 30
0.0
 10
147.3995024039959
 20
106.453592683723
 30
0.0
 10
147.3651906662217
 20
106.4018883637232
 30
0.0
 10
147.351165930292
 20
106.3852179971328
 30
0.0
 10
147.3151429672582
 20
106.373765776676
 30
0.0
 10
147.3003884581685
 20
106.373312730401
 30
0.0
 10
147.2710362970216
 20
106.3816280516171
 30
0.0
 10
147.2576964225175
 20
106.3894569366954
 30
0.0
 10
147.2460982909692
 20
106.3982733334581
 30
0.0
  0
SPLINE
  5
100
330
1F
100
AcDbEntity
  8
0
  6
HIDDEN
 62
     7
370
     0
100
AcDbSpline
210
0.0
220
0.0
230
1.0
 70
     8
 71
     3
 72
    12
 73
     8
 74
     0
 42
0.00000001
 43
0.00000001
 12
1.0
 22
0.0
 32
0.0
 13
1.0
 23
0.0
 33
0.0
 40
0.0
 40
0.0
 40
0.0
 40
0.0
 40
0.2499999999999999
 40
0.2499999999999999
 40
0.5000000000000001
 40
0.5000000000000001
 40
1.0
 40
1.0
 40
1.0
 40
1.0
 10
147.2460982909762
 20
106.3982733334669
 30
0.0
 10
147.215906449259
 20
106.4212238625648
 30
0.0
 10
147.1825474798444
 20
106.4411933365889
 30
0.0
 10
147.1094101952638
 20
106.4682944702144
 30
0.0
 10
147.0691683226099
 20
106.4748952108598
 30
0.0
 10
146.9514625456414
 20
106.4669263363531
 30
0.0
 10
146.881052067862
 20
106.4266658781853
 30
0.0
 10
146.8245628933937
 20
106.3787731389072
 30
0.0
  0
SPLINE
  5
101
330
1F
100
AcDbEntity
  8
0
  6
HIDDEN
 62
     7
370
     0
100
AcDbSpline
210
0.0
220
0.0
230
1.0
 70
     8
 71
     3
 72
    12
 73
     8
 74
     0
 42
0.00000001
 43
0.00000001
 12
1.0
 22
0.0
 32
0.0
 13
1.0
 23
0.0
 33
0.0
 40
0.0
 40
0.0
 40
0.0
 40
0.0
 40
0.2500000000000009
 40
0.2500000000000009
 40
0.5000000000000019
 40
0.5000000000000019
 40
1.0
 40
1.0
 40
1.0
 40
1.0
 10
146.8245628933932
 20
106.3787731389074
 30
0.0
 10
146.7364089556555
 20
106.3040343310533
 30
0.0
 10
146.6760555310268
 20
106.213053830571
 30
0.0
 10
146.56979357296
 20
106.0241400078184
 30
0.0
 10
146.5275614063979
 20
105.9276355482778
 30
0.0
 10
146.4164907110807
 20
105.6368677941106
 30
0.0
 10
146.3635539346539
 20
105.4412009795669
 30
0.0
 10
146.3197548362852
 20
105.2471344945006
 30
0.0
  0
SPLINE
  5
102
330
1F
100
AcDbEntity
  8
0
  6
HIDDEN
 62
     7
370
     0
100
AcDbSpline
210
0.0
220
0.0
230
1.0
 70
     8
 71
     3
 72
    12
 73
     8
 74
     0
 42
0.00000001
 43
0.00000001
 12
1.0
 22
0.0
 32
0.0
 13
1.0
 23
0.0
 33
0.0
 40
0.0
 40
0.0
 40
0.0
 40
0.0
 40
0.5000000000000009
 40
0.5000000000000009
 40
0.7500000000000004
 40
0.7500000000000004
 40
1.0
 40
1.0
 40
1.0
 40
1.0
 10
146.3197548362851
 20
100.0609601657395
 30
0.0
 10
146.3635013771217
 20
100.0343659950983
 30
0.0
 10
146.4163857323532
 20
100.0146057697726
 30
0.0
 10
146.5279528196894
 20
99.99415477954349
 30
0.0
 10
146.5705364162324
 20
99.98889455488704
 30
0.0
 10
146.6754531433141
 20
99.98101176096439
 30
0.0
 10
146.736986751159
 20
99.97844763578524
 30
0.0
 10
146.8245628933851
 20
99.9762474182656
 30
0.0
  0
LINE
  5
103
330
1F
100
AcDbEntity
  8
0
  6
HIDDEN
 62
     7
370
     0
100
AcDbLine
 10
147.4410751798
 20
99.2912208419
 30
0.0
 11
147.4410751798
 21
99.7714466325
 31
0.0
  0
LINE
  5
104
330
1F
100
AcDbEntity
  8
0
  6
HIDDEN
 62
     7
370
     0
100
AcDbLine
 10
147.4410751798
 20
143.890635609
 30
0.0
 11
147.4410751798
 21
144.3708613996
 31
0.0
  0
SPLINE
  5
105
330
1F
100
AcDbEntity
  8
0
  6
HIDDEN
 62
     7
370
     0
100
AcDbSpline
210
0.0
220
0.0
230
1.0
 70
     8
 71
     3
 72
    12
 73
     8
 74
     0
 42
0.00000001
 43
0.00000001
 12
1.0
 22
0.0
 32
0.0
 13
1.0
 23
0.0
 33
0.0
 40
0.0
 40
0.0
 40
0.0
 40
0.0
 40
0.25
 40
0.25
 40
0.5
 40
0.5
 40
1.0
 40
1.0
 40
1.0
 40
1.0
 10
146.8245628933931
 20
143.6858348232175
 30
0.0
 10
146.7358782335367
 20
143.6836067558766
 30
0.0
 10
146.6759598178134
 20
143.6811049718462
 30
0.0
 10
146.5703005904926
 20
143.6731735360102
 30
0.0
 10
146.5276593523777
 20
143.6678813811133
 30
0.0
 10
146.4164700102751
 20
143.6474764406262
 30
0.0
 10
146.3635433281542
 20
143.6277417490394
 30
0.0
 10
146.3197548362852
 20
143.6011220757437
 30
0.0
  0
SPLINE
  5
106
330
1F
100
AcDbEntity
  8
0
  6
HIDDEN
 62
     7
370
     0
100
AcDbSpline
210
0.0
220
0.0
230
1.0
 70
     8
 71
     3
 72
    12
 73
     8
 74
     0
 42
0.00000001
 43
0.00000001
 12
1.0
 22
0.0
 32
0.0
 13
1.0
 23
0.0
 33
0.0
 40
0.0
 40
0.0
 40
0.0
 40
0.0
 40
0.499999999999996
 40
0.499999999999996
 40
0.7499999999999967
 40
0.7499999999999967
 40
1.0
 40
1.0
 40
1.0
 40
1.0
 10
146.3197548362836
 20
138.4149477469828
 30
0.0
 10
146.3635163125823
 20
138.2210479590208
 30
0.0
 10
146.4164226282354
 20
138.0251915950839
 30
0.0
 10
146.5281338258827
 20
137.733049448585
 30
0.0
 10
146.5706532694691
 20
137.636331511887
 30
0.0
 10
146.6757766120365
 20
137.4496070754626
 30
0.0
 10
146.7373425757542
 20
137.3572563671928
 30
0.0
 10
146.8245628933969
 20
137.2833091025731
 30
0.0
  0
LINE
  5
107
330
1F
100
AcDbEntity
  8
0
  6
HIDDEN
 62
     7
370
     0
100
AcDbLine
 10
147.4410751798
 20
99.7714466325
 30
0.0
 11
147.4410751798
 21
114.809153795
 31
0.0
  0
LINE
  5
108
330
1F
100
AcDbEntity
  8
0
  6
HIDDEN
 62
     7
370
     0
100
AcDbLine
 10
147.4410751798
 20
128.8529284465
 30
0.0
 11
147.4410751798
 21
143.890635609
 31
0.0
  0
LINE
  5
109
330
1F
100
AcDbEntity
  8
0
  6
HIDDEN
 62
     7
370
     0
100
AcDbLine
 10
169.6410751798
 20
101.8310411207
 30
0.0
 11
169.6410751798
 21
141.8076856574
 31
0.0
  0
CIRCLE
  5
10A
330
1F
100
AcDbEntity
  8
0
  6
HIDDEN
 62
     7
370
     0
100
AcDbCircle
 10
132.1410751798
 20
121.8310411207
 30
0.0
 40
4.050000000000026
  0
LINE
  5
10B
330
1F
100
AcDbEntity
  8
0
  6
HIDDEN
 62
     7
370
     0
100
AcDbLine
 10
111.1713036195
 20
137.1439921637
 30
0.0
 11
111.1713036195
 21
106.5180900778
 31
0.0
  0
LINE
  5
10C
330
1F
100
AcDbEntity
  8
0
  6
HIDDEN
 62
     7
370
     0
100
AcDbLine
 10
109.6410751798
 20
105.6346122763
 30
0.0
 11
109.6410751798
 21
138.0274699652
 31
0.0
  0
LINE
  5
10D
330
1F
100
AcDbEntity
  8
0
  6
HIDDEN
 62
     7
370
     0
100
AcDbLine
 10
117.6713036195
 20
136.1774512823
 30
0.0
 11
117.6713036195
 21
107.4846309592
 31
0.0
  0
SPLINE
  5
10E
330
1F
100
AcDbEntity
  8
0
  6
HIDDEN
 62
     7
370
     0
100
AcDbSpline
210
0.0
220
0.0
230
1.0
 70
     8
 71
     3
 72
    66
 73
    62
 74
     0
 42
0.00000001
 43
0.00000001
 12
1.0
 22
0.0
 32
0.0
 13
1.0
 23
0.0
 33
0.0
 40
-0.0312500000000004
 40
-0.0312500000000004
 40
0.0
 40
0.0
 40
0.0312500000000008
 40
0.0312500000000008
 40
0.0625000000000017
 40
0.0625000000000017
 40
0.0937500000000025
 40
0.0937500000000025
 40
0.1250000000000034
 40
0.1250000000000034
 40
0.1562500000000042
 40
0.1562500000000042
 40
0.1875000000000051
 40
0.1875000000000051
 40
0.2187500000000057
 40
0.2187500000000057
 40
0.2500000000000064
 40
0.2500000000000064
 40
0.2812500000000069
 40
0.2812500000000069
 40
0.3125000000000074
 40
0.3125000000000074
 40
0.3437500000000079
 40
0.3437500000000079
 40
0.3750000000000084
 40
0.3750000000000084
 40
0.4062500000000089
 40
0.4062500000000089
 40
0.4375000000000094
 40
0.4375000000000094
 40
0.4687500000000099
 40
0.4687500000000099
 40
0.5000000000000104
 40
0.5000000000000104
 40
0.5625000000000088
 40
0.5625000000000088
 40
0.593750000000008
 40
0.593750000000008
 40
0.6250000000000071
 40
0.6250000000000071
 40
0.6562500000000063
 40
0.6562500000000063
 40
0.6875000000000054
 40
0.6875000000000054
 40
0.7187500000000047
 40
0.7187500000000047
 40
0.7500000000000038
 40
0.7500000000000038
 40
0.781250000000003
 40
0.781250000000003
 40
0.8125000000000022
 40
0.8125000000000022
 40
0.8437500000000013
 40
0.8437500000000013
 40
0.8750000000000006
 40
0.8750000000000006
 40
0.9374999999999991
 40
0.9374999999999991
 40
0.9687499999999996
 40
0.9687499999999996
 40
1.0
 40
1.0
 40
1.031250000000001
 40
1.031250000000001
 10
230.4756414321236
 20
124.336943914726
 30
0.0
 10
230.8065089275662
 20
124.336943914726
 30
0.0
 10
230.9691266752936
 20
124.3532090688004
 30
0.0
 10
231.2889765340286
 20
124.4168000746077
 30
0.0
 10
231.4478850258853
 20
124.4649145070974
 30
0.0
 10
231.7505080752109
 20
124.5899955213175
 30
0.0
 10
231.8939981287367
 20
124.6663879081225
 30
0.0
 10
232.1655581040868
 20
124.8462633709166
 30
0.0
 10
232.2939356606466
 20
124.9505419837134
 30
0.0
 10
232.5241427771444
 20
125.1774397781358
 30
0.0
 10
232.6275374210565
 20
125.3009053610893
 30
0.0
 10
232.8103073881721
 20
125.5680799340451
 30
0.0
 10
232.8878156123476
 20
125.7094576514196
 30
0.0
 10
233.0125831861484
 20
126.0010193931359
 30
0.0
 10
233.0607189658764
 20
126.1533624620149
 30
0.0
 10
233.1250406007686
 20
126.4634283391025
 30
0.0
 10
233.1409818816078
 20
126.6186320059993
 30
0.0
 10
233.1411676692685
 20
126.9292892453498
 30
0.0
 10
233.1248796574815
 20
127.0863007493854
 30
0.0
 10
233.0609957630523
 20
127.3883922242789
 30
0.0
 10
233.0137313302844
 20
127.5345025501201
 30
0.0
 10
232.8883232194593
 20
127.8170571939637
 30
0.0
 10
232.8101564166996
 20
127.9525564163681
 30
0.0
 10
232.6293487831836
 20
128.202625197009
 30
0.0
 10
232.5258123058577
 20
128.3189938453396
 30
0.0
 10
232.2929790994177
 20
128.5325693292575
 30
0.0
 10
232.1670087646252
 20
128.6268316794213
 30
0.0
 10
231.8965535491823
 20
128.7916920165321
 30
0.0
 10
231.7502922967975
 20
128.8628577784245
 30
0.0
 10
231.4478502059997
 20
128.9765347979762
 30
0.0
 10
231.2920307253762
 20
129.0193683867458
 30
0.0
 10
230.9711799641758
 20
129.0773528549205
 30
0.0
 10
230.805319208581
 20
129.0921692510514
 30
0.0
 10
230.3154931751411
 20
129.0923404785714
 30
0.0
 10
229.9860509191145
 20
129.0332927769077
 30
0.0
 10
229.5345930055778
 20
128.8640241717448
 30
0.0
 10
229.3888736272386
 20
128.7935044870256
 30
0.0
 10
229.1160505923565
 20
128.6275679221293
 30
0.0
 10
228.9903053708114
 20
128.5333369898486
 30
0.0
 10
228.759639422083
 20
128.3222896073175
 30
0.0
 10
228.6540687151803
 20
128.2041818572041
 30
0.0
 10
228.4726833275792
 20
127.9537036531912
 30
0.0
 10
228.39573792773
 20
127.8206592770683
 30
0.0
 10
228.2697781614569
 20
127.5382498062578
 30
0.0
 10
228.2215660446718
 20
127.38969502703
 30
0.0
 10
228.1576470960125
 20
127.0887155693859
 30
0.0
 10
228.1412132086633
 20
126.9344179609269
 30
0.0
 10
228.1409388740563
 20
126.6201557951418
 30
0.0
 10
228.1570224799865
 20
126.4647620892827
 30
0.0
 10
228.2204083663395
 20
126.1573968122471
 30
0.0
 10
228.2685343885332
 20
126.0037814013915
 30
0.0
 10
228.3937401535028
 20
125.7105030622198
 30
0.0
 10
228.4704008642608
 20
125.5706305437023
 30
0.0
 10
228.6517472629475
 20
125.3046622791112
 30
0.0
 10
228.7569842905885
 20
125.178593491949
 30
0.0
 10
229.1019288463511
 20
124.8381744169515
 30
0.0
 10
229.3803243736102
 20
124.6528446004218
 30
0.0
 10
229.831240717486
 20
124.4660132191315
 30
0.0
 10
229.9891888987856
 20
124.4177581322902
 30
0.0
 10
230.3121894790027
 20
124.3532115828256
 30
0.0
 10
230.4756414321236
 20
124.336943914726
 30
0.0
 10
230.8065089275662
 20
124.336943914726
 30
0.0
  0
LINE
  5
10F
330
1F
100
AcDbEntity
  8
0
  6
HIDDEN
 62
     7
370
     0
100
AcDbLine
 10
123.4713036195
 20
135.8310411207
 30
0.0
 11
123.4713036195
 21
107.8310411207
 31
0.0
  0
LINE
  5
110
330
1F
100
AcDbEntity
  8
0
  6
HIDDEN
 62
     7
370
     0
100
AcDbLine
 10
116.0713036195
 20
135.8310411207
 30
0.0
 11
116.0713036195
 21
107.8310411207
 31
0.0
  0
LINE
  5
111
330
1F
100
AcDbEntity
  8
0
  6
HIDDEN
 62
     7
370
     0
100
AcDbLine
 10
117.0713036195
 20
135.8310411207
 30
0.0
 11
117.0713036195
 21
107.8310411207
 31
0.0
  0
SPLINE
  5
112
330
1F
100
AcDbEntity
  8
0
  6
HIDDEN
 62
     7
370
     0
100
AcDbSpline
210
0.0
220
0.0
230
1.0
 70
     8
 71
     3
 72
    10
 73
     6
 74
     0
 42
0.00000001
 43
0.00000001
 12
1.0
 22
0.0
 32
0.0
 13
1.0
 23
0.0
 33
0.0
 40
0.0
 40
0.0
 40
0.0
 40
0.0
 40
0.5
 40
0.5
 40
1.0
 40
1.0
 40
1.0
 40
1.0
 10
136.1410751798448
 20
122.4654699977641
 30
0.0
 10
136.1742225979213
 20
122.2564793967561
 30
0.0
 10
136.1910814432829
 20
122.0449169307345
 30
0.0
 10
136.1910689129353
 20
121.6169281647669
 30
0.0
 10
136.1741539551949
 20
121.4051700603512
 30
0.0
 10
136.1410751798448
 20
121.1966122437191
 30
0.0
  0
LINE
  5
113
330
1F
100
AcDbEntity
  8
0
  6
HIDDEN
 62
     7
370
     0
100
AcDbLine
 10
136.6410751798
 20
135.3310410833
 30
0.0
 11
136.6410751798
 21
108.3310411207
 31
0.0
  0
SPLINE
  5
114
330
1F
100
AcDbEntity
  8
0
  6
HIDDEN
 62
     7
370
     0
100
AcDbSpline
210
0.0
220
0.0
230
1.0
 70
     8
 71
     3
 72
    10
 73
     6
 74
     0
 42
0.00000001
 43
0.00000001
 12
1.0
 22
0.0
 32
0.0
 13
1.0
 23
0.0
 33
0.0
 40
0.0
 40
0.0
 40
0.0
 40
0.0
 40
0.5
 40
0.5
 40
1.0
 40
1.0
 40
1.0
 40
1.0
 10
136.1410751798448
 20
121.1966122437191
 30
0.0
 10
136.1742641423185
 20
121.4058647773016
 30
0.0
 10
136.1909649185732
 20
121.6166815382005
 30
0.0
 10
136.1911843590179
 20
122.0412138194038
 30
0.0
 10
136.1743046436245
 20
122.2559621081764
 30
0.0
 10
136.1410751798448
 20
122.4654699977641
 30
0.0
  0
SPLINE
  5
115
330
1F
100
AcDbEntity
  8
0
  6
HIDDEN
 62
     7
370
     0
100
AcDbSpline
210
0.0
220
0.0
230
1.0
 70
     8
 71
     3
 72
    68
 73
    64
 74
     0
 42
0.00000001
 43
0.00000001
 12
1.0
 22
0.0
 32
0.0
 13
1.0
 23
0.0
 33
0.0
 40
0.0
 40
0.0
 40
0.0
 40
0.0
 40
0.0312499999999999
 40
0.0312499999999999
 40
0.0624999999999998
 40
0.0624999999999998
 40
0.0937499999999996
 40
0.0937499999999996
 40
0.1249999999999995
 40
0.1249999999999995
 40
0.1562499999999994
 40
0.1562499999999994
 40
0.1874999999999993
 40
0.1874999999999993
 40
0.2187499999999992
 40
0.2187499999999992
 40
0.2499999999999991
 40
0.2499999999999991
 40
0.2812499999999989
 40
0.2812499999999989
 40
0.3124999999999988
 40
0.3124999999999988
 40
0.3437499999999987
 40
0.3437499999999987
 40
0.3749999999999986
 40
0.3749999999999986
 40
0.4062499999999984
 40
0.4062499999999984
 40
0.4374999999999984
 40
0.4374999999999984
 40
0.4687499999999983
 40
0.4687499999999983
 40
0.4999999999999982
 40
0.4999999999999982
 40
0.5624999999999981
 40
0.5624999999999981
 40
0.593749999999998
 40
0.593749999999998
 40
0.6249999999999979
 40
0.6249999999999979
 40
0.6562499999999978
 40
0.6562499999999978
 40
0.6874999999999977
 40
0.6874999999999977
 40
0.7187499999999976
 40
0.7187499999999976
 40
0.7499999999999973
 40
0.7499999999999973
 40
0.7812499999999977
 40
0.7812499999999977
 40
0.812499999999998
 40
0.812499999999998
 40
0.8437499999999983
 40
0.8437499999999983
 40
0.8749999999999987
 40
0.8749999999999987
 40
0.906249999999999
 40
0.906249999999999
 40
0.9374999999999993
 40
0.9374999999999993
 40
0.9687499999999997
 40
0.9687499999999997
 40
1.0
 40
1.0
 40
1.0
 40
1.0
 10
136.1410751798448
 20
121.1966122437191
 30
0.0
 10
136.1010602274952
 20
120.9443226409035
 30
0.0
 10
136.0381184260839
 20
120.7003237905277
 30
0.0
 10
135.8687317640118
 20
120.2279054014652
 30
0.0
 10
135.7610382014263
 20
119.9974920153053
 30
0.0
 10
135.5057534328884
 20
119.5627874195082
 30
0.0
 10
135.3597142024162
 20
119.3601454528568
 30
0.0
 10
135.031492765857
 20
118.983156162099
 30
0.0
 10
134.847245478082
 20
118.8074982085216
 30
0.0
 10
134.4542853107737
 20
118.4972402395754
 30
0.0
 10
134.2449907138145
 20
118.3612950319255
 30
0.0
 10
133.8001052868772
 20
118.1279049365196
 30
0.0
 10
133.5633076943781
 20
118.0306583301052
 30
0.0
 10
133.0825726254589
 20
117.8839868722339
 30
0.0
 10
132.8363295322761
 20
117.8330945272915
 30
0.0
 10
132.3316127522966
 20
117.777567177056
 30
0.0
 10
132.0754180513602
 20
117.773742289986
 30
0.0
 10
131.5730393021601
 20
117.8131660726304
 30
0.0
 10
131.3237896029764
 20
117.8561935218417
 30
0.0
 10
130.8322618054977
 20
117.989898491293
 30
0.0
 10
130.5969662042719
 20
118.0785683371982
 30
0.0
 10
130.1460523096097
 20
118.2975997009756
 30
0.0
 10
129.9284399591463
 20
118.4296012666591
 30
0.0
 10
129.525232789598
 20
118.728958547662
 30
0.0
 10
129.3396212971636
 20
118.8955774750999
 30
0.0
 10
128.9996332267611
 20
119.2626889005274
 30
0.0
 10
128.8445602959382
 20
119.4649926460681
 30
0.0
 10
128.5782172192749
 20
119.8890733256621
 30
0.0
 10
128.4652331185581
 20
120.1122329311283
 30
0.0
 10
128.2803778616272
 20
120.5815881727225
 30
0.0
 10
128.2092371001238
 20
120.827798676058
 30
0.0
 10
128.1152766888356
 20
121.3223245024291
 30
0.0
 10
128.0912673588792
 20
121.5732554975211
 30
0.0
 10
128.0906942382067
 20
122.3375008770774
 30
0.0
 10
128.1860933495253
 20
122.8397251791283
 30
0.0
 10
128.4639571417264
 20
123.5472896854007
 30
0.0
 10
128.577119097807
 20
123.7709959491415
 30
0.0
 10
128.8432502798508
 20
124.1952658604621
 30
0.0
 10
128.9980780540505
 20
124.3975178225182
 30
0.0
 10
129.3382591598384
 20
124.7652285638864
 30
0.0
 10
129.5237616167881
 20
124.9318454391357
 30
0.0
 10
129.9260554178474
 20
125.2308948179311
 30
0.0
 10
130.1440634660995
 20
125.3633515259595
 30
0.0
 10
130.5946618332497
 20
125.5825579266642
 30
0.0
 10
130.8292108321305
 20
125.6710430566678
 30
0.0
 10
131.3176708256828
 20
125.8045292866065
 30
0.0
 10
131.5699362213967
 20
125.8484709991002
 30
0.0
 10
132.072116859557
 20
125.8882799955737
 30
0.0
 10
132.3245989769087
 20
125.8849357827602
 30
0.0
 10
132.8324640199782
 20
125.8297564627697
 30
0.0
 10
133.080009493162
 20
125.7787105343003
 30
0.0
 10
133.5609770306327
 20
125.6323001460647
 30
0.0
 10
133.796936895738
 20
125.5356539412911
 30
0.0
 10
134.2435073452596
 20
125.301748996978
 30
0.0
 10
134.453152207833
 20
125.1656239831515
 30
0.0
 10
134.8461389145875
 20
124.8555697188225
 30
0.0
 10
135.0305348184025
 20
124.6799124712473
 30
0.0
 10
135.3590852362629
 20
124.3027725485829
 30
0.0
 10
135.5050273327861
 20
124.100306343313
 30
0.0
 10
135.7599126879882
 20
123.6667300451797
 30
0.0
 10
135.8682240007965
 20
123.4354382015982
 30
0.0
 10
136.0380589782135
 20
122.9620785214649
 30
0.0
 10
136.1010543393506
 20
122.7177967246442
 30
0.0
 10
136.1410751798448
 20
122.4654699977641
 30
0.0
  0
SPLINE
  5
116
330
1F
100
AcDbEntity
  8
0
  6
HIDDEN
 62
     7
370
     0
100
AcDbSpline
210
0.0
220
0.0
230
1.0
 70
     8
 71
     3
 72
    68
 73
    64
 74
     0
 42
0.00000001
 43
0.00000001
 12
1.0
 22
0.0
 32
0.0
 13
1.0
 23
0.0
 33
0.0
 40
0.0
 40
0.0
 40
0.0
 40
0.0
 40
0.0312499999999999
 40
0.0312499999999999
 40
0.0624999999999998
 40
0.0624999999999998
 40
0.0937499999999996
 40
0.0937499999999996
 40
0.1249999999999995
 40
0.1249999999999995
 40
0.1562499999999994
 40
0.1562499999999994
 40
0.1874999999999993
 40
0.1874999999999993
 40
0.2187499999999992
 40
0.2187499999999992
 40
0.2499999999999991
 40
0.2499999999999991
 40
0.2812499999999989
 40
0.2812499999999989
 40
0.3124999999999988
 40
0.3124999999999988
 40
0.3437499999999987
 40
0.3437499999999987
 40
0.3749999999999986
 40
0.3749999999999986
 40
0.4062499999999984
 40
0.4062499999999984
 40
0.4374999999999983
 40
0.4374999999999983
 40
0.4687499999999982
 40
0.4687499999999982
 40
0.4999999999999981
 40
0.4999999999999981
 40
0.5624999999999979
 40
0.5624999999999979
 40
0.5937499999999979
 40
0.5937499999999979
 40
0.6249999999999979
 40
0.6249999999999979
 40
0.6562499999999978
 40
0.6562499999999978
 40
0.6874999999999977
 40
0.6874999999999977
 40
0.7187499999999976
 40
0.7187499999999976
 40
0.7499999999999973
 40
0.7499999999999973
 40
0.7812499999999977
 40
0.7812499999999977
 40
0.812499999999998
 40
0.812499999999998
 40
0.8437499999999983
 40
0.8437499999999983
 40
0.8749999999999987
 40
0.8749999999999987
 40
0.906249999999999
 40
0.906249999999999
 40
0.9374999999999993
 40
0.9374999999999993
 40
0.9687499999999997
 40
0.9687499999999997
 40
1.0
 40
1.0
 40
1.0
 40
1.0
 10
136.1410751798448
 20
122.4654699977641
 30
0.0
 10
136.1010602274952
 20
122.7177596005797
 30
0.0
 10
136.0381184260839
 20
122.9617584509555
 30
0.0
 10
135.8687317640118
 20
123.434176840018
 30
0.0
 10
135.7610382014263
 20
123.6645902261779
 30
0.0
 10
135.5057534328884
 20
124.0992948219751
 30
0.0
 10
135.3597142024162
 20
124.3019367886264
 30
0.0
 10
135.031492765857
 20
124.6789260793842
 30
0.0
 10
134.847245478082
 20
124.8545840329616
 30
0.0
 10
134.4542853107737
 20
125.1648420019078
 30
0.0
 10
134.2449907138145
 20
125.3007872095578
 30
0.0
 10
133.8001052868772
 20
125.5341773049636
 30
0.0
 10
133.5633076943781
 20
125.631423911378
 30
0.0
 10
133.0825726254589
 20
125.7780953692494
 30
0.0
 10
132.8363295322761
 20
125.8289877141918
 30
0.0
 10
132.3316127522966
 20
125.8845150644272
 30
0.0
 10
132.0754180513601
 20
125.8883399514972
 30
0.0
 10
131.57303930216
 20
125.8489161688528
 30
0.0
 10
131.3237896029765
 20
125.8058887196415
 30
0.0
 10
130.8322618054977
 20
125.6721837501903
 30
0.0
 10
130.5969662042719
 20
125.5835139042851
 30
0.0
 10
130.1460523096097
 20
125.3644825405076
 30
0.0
 10
129.9284399591463
 20
125.2324809748241
 30
0.0
 10
129.525232789598
 20
124.9331236938212
 30
0.0
 10
129.3396212971636
 20
124.7665047663833
 30
0.0
 10
128.9996332267611
 20
124.3993933409559
 30
0.0
 10
128.8445602959382
 20
124.1970895954152
 30
0.0
 10
128.5782172192749
 20
123.7730089158211
 30
0.0
 10
128.4652331185581
 20
123.5498493103549
 30
0.0
 10
128.2803778616272
 20
123.0804940687608
 30
0.0
 10
128.2092371001238
 20
122.8342835654253
 30
0.0
 10
128.1152766888356
 20
122.3397577390541
 30
0.0
 10
128.0912673588792
 20
122.0888267439621
 30
0.0
 10
128.0906942382067
 20
121.3245813644059
 30
0.0
 10
128.1860933495253
 20
120.8223570623549
 30
0.0
 10
128.4639571417264
 20
120.1147925560825
 30
0.0
 10
128.577119097807
 20
119.8910862923417
 30
0.0
 10
128.8432502798508
 20
119.4668163810211
 30
0.0
 10
128.9980780540505
 20
119.2645644189651
 30
0.0
 10
129.3382591598384
 20
118.8968536775969
 30
0.0
 10
129.5237616167881
 20
118.7302368023475
 30
0.0
 10
129.9260554178474
 20
118.4311874235521
 30
0.0
 10
130.1440634660995
 20
118.2987307155237
 30
0.0
 10
130.5946618332497
 20
118.079524314819
 30
0.0
 10
130.8292108321305
 20
117.9910391848154
 30
0.0
 10
131.3176708256828
 20
117.8575529548768
 30
0.0
 10
131.5699362213967
 20
117.813611242383
 30
0.0
 10
132.072116859557
 20
117.7738022459095
 30
0.0
 10
132.3245989769087
 20
117.777146458723
 30
0.0
 10
132.8324640199782
 20
117.8323257787135
 30
0.0
 10
133.080009493162
 20
117.8833717071829
 30
0.0
 10
133.5609770306327
 20
118.0297820954185
 30
0.0
 10
133.796936895738
 20
118.1264283001921
 30
0.0
 10
134.2435073452596
 20
118.3603332445052
 30
0.0
 10
134.453152207833
 20
118.4964582583317
 30
0.0
 10
134.8461389145875
 20
118.8065125226608
 30
0.0
 10
135.0305348184025
 20
118.9821697702359
 30
0.0
 10
135.3590852362629
 20
119.3593096929003
 30
0.0
 10
135.5050273327861
 20
119.5617758981702
 30
0.0
 10
135.7599126879882
 20
119.9953521963035
 30
0.0
 10
135.8682240007965
 20
120.2266440398851
 30
0.0
 10
136.0380589782135
 20
120.7000037200183
 30
0.0
 10
136.1010543393506
 20
120.9442855168391
 30
0.0
 10
136.1410751798448
 20
121.1966122437191
 30
0.0
  0
SPLINE
  5
117
330
1F
100
AcDbEntity
  8
0
  6
HIDDEN
 62
     7
370
     0
100
AcDbSpline
210
0.0
220
0.0
230
1.0
 70
     8
 71
     3
 72
    62
 73
    58
 74
     0
 42
0.00000001
 43
0.00000001
 12
1.0
 22
0.0
 32
0.0
 13
1.0
 23
0.0
 33
0.0
 40
-0.0312499999999994
 40
-0.0312499999999994
 40
0.0
 40
0.0
 40
0.0312500000000016
 40
0.0312500000000016
 40
0.0625000000000032
 40
0.0625000000000032
 40
0.1250000000000037
 40
0.1250000000000037
 40
0.1875000000000041
 40
0.1875000000000041
 40
0.2187500000000049
 40
0.2187500000000049
 40
0.2500000000000057
 40
0.2500000000000057
 40
0.2812500000000066
 40
0.2812500000000066
 40
0.3125000000000074
 40
0.3125000000000074
 40
0.3437500000000083
 40
0.3437500000000083
 40
0.3750000000000091
 40
0.3750000000000091
 40
0.4375000000000107
 40
0.4375000000000107
 40
0.4687500000000102
 40
0.4687500000000102
 40
0.5000000000000095
 40
0.5000000000000095
 40
0.531250000000009
 40
0.531250000000009
 40
0.5625000000000083
 40
0.5625000000000083
 40
0.5937500000000078
 40
0.5937500000000078
 40
0.6250000000000071
 40
0.6250000000000071
 40
0.6562500000000066
 40
0.6562500000000066
 40
0.687500000000006
 40
0.687500000000006
 40
0.7187500000000053
 40
0.7187500000000053
 40
0.7500000000000048
 40
0.7500000000000048
 40
0.7812500000000042
 40
0.7812500000000042
 40
0.8125000000000036
 40
0.8125000000000036
 40
0.8750000000000023
 40
0.8750000000000023
 40
0.9062500000000018
 40
0.9062500000000018
 40
0.9375000000000012
 40
0.9375000000000012
 40
0.9687500000000006
 40
0.9687500000000006
 40
1.0
 40
1.0
 40
1.031250000000002
 40
1.031250000000002
 10
230.499876955865
 20
118.6920265956869
 30
0.0
 10
230.7822734038247
 20
118.6920265956869
 30
0.0
 10
230.9205512808385
 20
118.7029221002084
 30
0.0
 10
231.1917173520463
 20
118.7455659022272
 30
0.0
 10
231.3259206795058
 20
118.7779055155621
 30
0.0
 10
231.704983859296
 20
118.9037661762934
 30
0.0
 10
231.9339907809899
 20
119.0281034474296
 30
0.0
 10
232.3150213999926
 20
119.3458888189024
 30
0.0
 10
232.4706444769143
 20
119.5429609613208
 30
0.0
 10
232.6297149534829
 20
119.8796772806452
 30
0.0
 10
232.6714420986262
 20
120.0013693682442
 30
0.0
 10
232.7267127997683
 20
120.2519346005362
 30
0.0
 10
232.7407927312581
 20
120.3809046991031
 30
0.0
 10
232.7413492975793
 20
120.6465784410461
 30
0.0
 10
232.7273600201587
 20
120.783096538783
 30
0.0
 10
232.672878500923
 20
121.0497951487035
 30
0.0
 10
232.6320280427681
 20
121.1828104371561
 30
0.0
 10
232.5254140759087
 20
121.4407715533716
 30
0.0
 10
232.4606619336357
 20
121.5639049873717
 30
0.0
 10
232.3091033916831
 20
121.7987076570521
 30
0.0
 10
232.22176526851
 20
121.9105574648725
 30
0.0
 10
231.9359888475485
 20
122.2154726781153
 30
0.0
 10
231.7064524990827
 20
122.3856181423426
 30
0.0
 10
231.3301343630884
 20
122.5612544472453
 30
0.0
 10
231.1978014547278
 20
122.6074665439469
 30
0.0
 10
230.9237687957369
 20
122.6701847137204
 30
0.0
 10
230.7857436361148
 20
122.6860352755477
 30
0.0
 10
230.5076722548961
 20
122.6868756300503
 30
0.0
 10
230.3659593162256
 20
122.6712564901016
 30
0.0
 10
230.0935370605454
 20
122.6101924286887
 30
0.0
 10
229.9617089160483
 20
122.5651386476961
 30
0.0
 10
229.7063100204437
 20
122.4471813345973
 30
0.0
 10
229.5861440172544
 20
122.3758076342027
 30
0.0
 10
229.3609726046981
 20
122.2116066118116
 30
0.0
 10
229.2548215433637
 20
122.1175629544344
 30
0.0
 10
229.0633742546615
 20
121.9141833637958
 30
0.0
 10
228.977440240742
 20
121.8046888740928
 30
0.0
 10
228.825027922702
 20
121.5701716902952
 30
0.0
 10
228.7588444324145
 20
121.444878654506
 30
0.0
 10
228.6526627338634
 20
121.1899082023144
 30
0.0
 10
228.6116826706476
 20
121.0588984685176
 30
0.0
 10
228.5556025298502
 20
120.7896183686568
 30
0.0
 10
228.541378354409
 20
120.6543081736037
 30
0.0
 10
228.5407816705375
 20
120.3897005309748
 30
0.0
 10
228.5545502380359
 20
120.2577550453723
 30
0.0
 10
228.609400304978
 20
120.0055711277119
 30
0.0
 10
228.6498968182545
 20
119.8860700636875
 30
0.0
 10
228.8093592894306
 20
119.5455339686389
 30
0.0
 10
228.9640277137448
 20
119.3488052796963
 30
0.0
 10
229.2523357450894
 20
119.1078588145347
 30
0.0
 10
229.3563605604372
 20
119.0375470661542
 30
0.0
 10
229.580779818616
 20
118.9148795584364
 30
0.0
 10
229.7027106064765
 20
118.8621408878153
 30
0.0
 10
229.9551677579025
 20
118.7781993192499
 30
0.0
 10
230.0860542878196
 20
118.7464742187831
 30
0.0
 10
230.3579952055325
 20
118.7032754875988
 30
0.0
 10
230.499876955865
 20
118.6920265956869
 30
0.0
 10
230.7822734038247
 20
118.6920265956869
 30
0.0
  0
SPLINE
  5
118
330
1F
100
AcDbEntity
  8
0
  6
HIDDEN
 62
     7
370
     0
100
AcDbSpline
210
0.0
220
0.0
230
1.0
 70
     8
 71
     3
 72
     8
 73
     4
 74
     0
 42
0.00000001
 43
0.00000001
 12
1.0
 22
0.0
 32
0.0
 13
1.0
 23
0.0
 33
0.0
 40
0.0
 40
0.0
 40
0.0
 40
0.0
 40
1.0
 40
1.0
 40
1.0
 40
1.0
 10
231.8011481921633
 20
119.8999251870296
 30
0.0
 10
231.7428738768781
 20
120.0397740446249
 30
0.0
 10
231.7211526450124
 20
120.1552116739534
 30
0.0
 10
231.7402011265834
 20
120.2490945477722
 30
0.0
  0
SPLINE
  5
119
330
1F
100
AcDbEntity
  8
0
  6
HIDDEN
 62
     7
370
     0
100
AcDbSpline
210
0.0
220
0.0
230
1.0
 70
     8
 71
     3
 72
    54
 73
    50
 74
     0
 42
0.00000001
 43
0.00000001
 12
1.0
 22
0.0
 32
0.0
 13
1.0
 23
0.0
 33
0.0
 40
0.0
 40
0.0
 40
0.0
 40
0.0
 40
0.0312499999999993
 40
0.0312499999999993
 40
0.0624999999999987
 40
0.0624999999999987
 40
0.124999999999997
 40
0.124999999999997
 40
0.1874999999999953
 40
0.1874999999999953
 40
0.2499999999999936
 40
0.2499999999999936
 40
0.281249999999993
 40
0.281249999999993
 40
0.3124999999999923
 40
0.3124999999999923
 40
0.3437499999999917
 40
0.3437499999999917
 40
0.374999999999991
 40
0.374999999999991
 40
0.4374999999999898
 40
0.4374999999999898
 40
0.4687499999999906
 40
0.4687499999999906
 40
0.4999999999999913
 40
0.4999999999999913
 40
0.5624999999999925
 40
0.5624999999999925
 40
0.6249999999999936
 40
0.6249999999999936
 40
0.6562499999999944
 40
0.6562499999999944
 40
0.6874999999999952
 40
0.6874999999999952
 40
0.7031249999999959
 40
0.7031249999999959
 40
0.7187499999999966
 40
0.7187499999999966
 40
0.7499999999999969
 40
0.7499999999999969
 40
0.7812499999999972
 40
0.7812499999999972
 40
0.8124999999999976
 40
0.8124999999999976
 40
0.8749999999999983
 40
0.8749999999999983
 40
0.9374999999999992
 40
0.9374999999999992
 40
1.0
 40
1.0
 40
1.0
 40
1.0
 10
231.7402011265828
 20
120.249094547769
 30
0.0
 10
231.8282679722189
 20
120.2111472618253
 30
0.0
 10
231.9009032645361
 20
120.179959074175
 30
0.0
 10
232.0364141284457
 20
120.1150662899124
 30
0.0
 10
232.0983456946211
 20
120.0820036163511
 30
0.0
 10
232.2728454233936
 20
119.9747408467223
 30
0.0
 10
232.3714172782992
 20
119.8944188467225
 30
0.0
 10
232.5396728697456
 20
119.7050632050434
 30
0.0
 10
232.6095355071601
 20
119.5953436958629
 30
0.0
 10
232.7095148987236
 20
119.34092084653
 30
0.0
 10
232.7392404433521
 20
119.1978935114885
 30
0.0
 10
232.7418715806294
 20
118.955138260349
 30
0.0
 10
232.7356616544879
 20
118.8710079517231
 30
0.0
 10
232.7072492379456
 20
118.6953564527723
 30
0.0
 10
232.6845622011492
 20
118.6026100554803
 30
0.0
 10
232.6229644322225
 20
118.4167869062814
 30
0.0
 10
232.5841973168483
 20
118.3233074054634
 30
0.0
 10
232.4899849475121
 20
118.135083886571
 30
0.0
 10
232.4342126544752
 20
118.0402961054924
 30
0.0
 10
232.2511738159731
 20
117.7694326783477
 30
0.0
 10
232.1040451467831
 20
117.6004661346199
 30
0.0
 10
231.8713141743529
 20
117.3801809275432
 30
0.0
 10
231.790909358185
 20
117.3113565522364
 30
0.0
 10
231.630548783382
 20
117.1856847578065
 30
0.0
 10
231.5499189561877
 20
117.1281818663863
 30
0.0
 10
231.3071244105342
 20
116.9691713423693
 30
0.0
 10
231.1436170026749
 20
116.8812643698472
 30
0.0
 10
230.8311413595559
 20
116.7393070207187
 30
0.0
 10
230.6796112349219
 20
116.6842441744362
 30
0.0
 10
230.4657728714253
 20
116.6169595677758
 30
0.0
 10
230.396969647824
 20
116.5972220976317
 30
0.0
 10
230.2712080738698
 20
116.5594799838534
 30
0.0
 10
230.212991907635
 20
116.5418320821941
 30
0.0
 10
230.1533660938363
 20
116.5075172936388
 30
0.0
 10
230.1385095271995
 20
116.4944141869275
 30
0.0
 10
230.1271522720773
 20
116.4634223170273
 30
0.0
 10
230.1310931570189
 20
116.4450839413749
 30
0.0
 10
230.169151465471
 20
116.3869171502819
 30
0.0
 10
230.2255291969639
 20
116.3447494602684
 30
0.0
 10
230.3522257589992
 20
116.2691129733779
 30
0.0
 10
230.4236728307456
 20
116.2350100136992
 30
0.0
 10
230.5718340834519
 20
116.1763157545725
 30
0.0
 10
230.649169425264
 20
116.151531788491
 30
0.0
 10
230.88734729041
 20
116.0922652141677
 30
0.0
 10
231.0559780277407
 20
116.0729370249084
 30
0.0
 10
231.3905181333724
 20
116.0852155281069
 30
0.0
 10
231.5580004184514
 20
116.1157146376251
 30
0.0
 10
231.8912118297681
 20
116.242709406037
 30
0.0
 10
232.0485216745675
 20
116.3360756450146
 30
0.0
 10
232.1920839899435
 20
116.4673540012216
 30
0.0
  0
SPLINE
  5
11A
330
1F
100
AcDbEntity
  8
0
  6
HIDDEN
 62
     7
370
     0
100
AcDbSpline
210
0.0
220
0.0
230
1.0
 70
     8
 71
     3
 72
    16
 73
    12
 74
     0
 42
0.00000001
 43
0.00000001
 12
1.0
 22
0.0
 32
0.0
 13
1.0
 23
0.0
 33
0.0
 40
0.0
 40
0.0
 40
0.0
 40
0.0
 40
0.25
 40
0.25
 40
0.5
 40
0.5
 40
0.75
 40
0.75
 40
0.875
 40
0.875
 40
1.0
 40
1.0
 40
1.0
 40
1.0
 10
232.7210920089611
 20
117.5389500676963
 30
0.0
 10
232.7517645920301
 20
117.7677254641888
 30
0.0
 10
232.7462569544924
 20
117.9939268146435
 30
0.0
 10
232.6794010263853
 20
118.442508688985
 30
0.0
 10
232.6191921793777
 20
118.6551331566212
 30
0.0
 10
232.4573687265039
 20
119.058175016135
 30
0.0
 10
232.3552933474795
 20
119.2488425306377
 30
0.0
 10
232.1755576797542
 20
119.5101605112688
 30
0.0
 10
232.1109684626823
 20
119.5936955521615
 30
0.0
 10
231.9682184517142
 20
119.7538202637132
 30
0.0
 10
231.8907148973053
 20
119.8303935897332
 30
0.0
 10
231.8011481921612
 20
119.8999251870344
 30
0.0
  0
LWPOLYLINE
  5
11B
330
1F
100
AcDbEntity
  8
0
  6
HIDDEN
 62
     7
370
     0
100
AcDbPolyline
 90
       19
 70
   128
 43
0.0
 10
232.721092009
 20
117.5389500677
 10
232.7080547349
 20
118.1666038616
 10
232.4907991363
 20
118.7594025022
 10
232.0907901447
 20
119.2587772701
 10
231.5475487925
 20
119.6153897585
 10
230.9147475209
 20
119.7940065251
 10
230.2549073235
 20
119.7769801691
 10
229.6332206493
 20
119.5659929005
 10
229.1111103657
 20
119.1818903374
 10
228.7401611567
 20
118.6626219515
 10
228.5570229379
 20
118.0594916463
 10
228.579789831
 20
117.432088913
 10
228.806212459
 20
116.8424013678
 10
229.2139201846
 20
116.3486903525
 10
229.7626313377
 20
115.9997346931
 10
230.3981330587
 20
115.8300113345
 10
231.0576375489
 20
115.8562890057
 10
231.6759855269
 20
116.0759714632
 10
232.1920839899
 20
116.4673540012
  0
ARC
  5
11C
330
1F
100
AcDbEntity
  8
0
  6
HIDDEN
 62
     7
370
     0
100
AcDbCircle
 10
231.3875738276
 20
120.0076401069
 30
0.0
 40
0.427371336149286
100
AcDbArc
 50
345.4017038214
 51
34.40060731
  0
SPLINE
  5
11D
330
1F
100
AcDbEntity
  8
0
  6
HIDDEN
 62
     7
370
     0
100
AcDbSpline
210
0.0
220
0.0
230
1.0
 70
     8
 71
     3
 72
    12
 73
     8
 74
     0
 42
0.00000001
 43
0.00000001
 12
1.0
 22
0.0
 32
0.0
 13
1.0
 23
0.0
 33
0.0
 40
0.0
 40
0.0
 40
0.0
 40
0.0
 40
0.2500000000000003
 40
0.2500000000000003
 40
0.5000000000000006
 40
0.5000000000000006
 40
1.0
 40
1.0
 40
1.0
 40
1.0
 10
232.1920839899435
 20
116.4673540012216
 30
0.0
 10
232.2106700751685
 20
116.5518649467279
 30
0.0
 10
232.2386222411155
 20
116.6404060837065
 30
0.0
 10
232.3066809597105
 20
116.8187575652541
 30
0.0
 10
232.3466843786599
 20
116.9091266943824
 30
0.0
 10
232.4822701020371
 20
117.1850683735245
 30
0.0
 10
232.5891395845985
 20
117.3702244597233
 30
0.0
 10
232.7210920089613
 20
117.5389500676962
 30
0.0
  0
LINE
  5
11E
330
1F
100
AcDbEntity
  8
0
  6
HIDDEN
 62
     7
370
     0
100
AcDbLine
 10
137.8910751798
 20
130.8310411207
 30
0.0
 11
137.8910751798
 21
112.8310411207
 31
0.0
  0
LINE
  5
11F
330
1F
100
AcDbEntity
  8
0
  6
HIDDEN
 62
     7
370
     0
100
AcDbLine
 10
136.6410751798
 20
111.5810411207
 30
0.0
 11
136.6410751798
 21
132.0810411207
 31
0.0
  0
LINE
  5
120
330
1F
100
AcDbEntity
  8
0
  6
HIDDEN
 62
     7
370
     0
100
AcDbLine
 10
163.6410751798
 20
130.8310411207
 30
0.0
 11
163.6410751798
 21
112.8310411207
 31
0.0
  0
LINE
  5
121
330
1F
100
AcDbEntity
  8
0
  6
HIDDEN
 62
     7
370
     0
100
AcDbLine
 10
166.4951631202
 20
126.0810411207
 30
0.0
 11
166.4951631202
 21
117.5810411207
 31
0.0
  0
SPLINE
  5
122
330
1F
100
AcDbEntity
  8
0
  6
HIDDEN
 62
     7
370
     0
100
AcDbSpline
210
0.0
220
0.0
230
1.0
 70
     8
 71
     3
 72
    62
 73
    58
 74
     0
 42
0.00000001
 43
0.00000001
 12
1.0
 22
0.0
 32
0.0
 13
1.0
 23
0.0
 33
0.0
 40
-0.0312499999999992
 40
-0.0312499999999992
 40
0.0
 40
0.0
 40
0.0312499999999989
 40
0.0312499999999989
 40
0.0624999999999979
 40
0.0624999999999979
 40
0.1249999999999985
 40
0.1249999999999985
 40
0.1874999999999992
 40
0.1874999999999992
 40
0.2187500000000001
 40
0.2187500000000001
 40
0.2500000000000011
 40
0.2500000000000011
 40
0.281250000000002
 40
0.281250000000002
 40
0.3125000000000029
 40
0.3125000000000029
 40
0.3437500000000038
 40
0.3437500000000038
 40
0.3750000000000048
 40
0.3750000000000048
 40
0.4375000000000044
 40
0.4375000000000044
 40
0.4687500000000042
 40
0.4687500000000042
 40
0.500000000000004
 40
0.500000000000004
 40
0.5312500000000038
 40
0.5312500000000038
 40
0.5625000000000037
 40
0.5625000000000037
 40
0.5937500000000034
 40
0.5937500000000034
 40
0.6250000000000032
 40
0.6250000000000032
 40
0.6562500000000031
 40
0.6562500000000031
 40
0.6875000000000029
 40
0.6875000000000029
 40
0.7187500000000028
 40
0.7187500000000028
 40
0.7500000000000026
 40
0.7500000000000026
 40
0.7812500000000023
 40
0.7812500000000023
 40
0.8125000000000022
 40
0.8125000000000022
 40
0.8750000000000029
 40
0.8750000000000029
 40
0.9062500000000022
 40
0.9062500000000022
 40
0.9375000000000014
 40
0.9375000000000014
 40
0.9687500000000008
 40
0.9687500000000008
 40
1.0
 40
1.0
 40
1.031249999999999
 40
1.031249999999999
 10
230.7822734038248
 20
120.9756182773567
 30
0.0
 10
230.499876955865
 20
120.9756182773567
 30
0.0
 10
230.3615990788512
 20
120.9915223393745
 30
0.0
 10
230.0904330076434
 20
121.0528741975714
 30
0.0
 10
229.9562296801838
 20
121.0991380104034
 30
0.0
 10
229.5771665003936
 20
121.2752356778628
 30
0.0
 10
229.3481595786999
 20
121.4449935308677
 30
0.0
 10
228.9671289596971
 20
121.8505159283331
 30
0.0
 10
228.8115058827756
 20
122.0905057203435
 30
0.0
 10
228.6524354062068
 20
122.4728422923811
 30
0.0
 10
228.6107082610635
 20
122.6069750798358
 30
0.0
 10
228.5554375599215
 20
122.8741619504256
 30
0.0
 10
228.5413576284316
 20
123.0074628968452
 30
0.0
 10
228.5408010621104
 20
123.2733066035916
 30
0.0
 10
228.554790339531
 20
123.4055217533034
 30
0.0
 10
228.6092718587667
 20
123.655829727579
 30
0.0
 10
228.6501223169216
 20
123.7766516396514
 30
0.0
 10
228.756736283781
 20
124.0040114991795
 30
0.0
 10
228.821488426054
 20
124.1090271471155
 30
0.0
 10
228.9730469680066
 20
124.3038519720944
 30
0.0
 10
229.0603850911797
 20
124.3937369260362
 30
0.0
 10
229.3461615121412
 20
124.6327721780193
 30
0.0
 10
229.5756978606069
 20
124.7574120795327
 30
0.0
 10
229.9520159966013
 20
124.8829817518282
 30
0.0
 10
230.0843489049619
 20
124.9153009430949
 30
0.0
 10
230.3583815639528
 20
124.9589041283197
 30
0.0
 10
230.496406723575
 20
124.9697606054254
 30
0.0
 10
230.7744781047936
 20
124.9703389705159
 30
0.0
 10
230.916191043464
 20
124.9596405154334
 30
0.0
 10
231.1886132991444
 20
124.9172042546452
 30
0.0
 10
231.3204414436414
 20
124.8857286286271
 30
0.0
 10
231.575840339246
 20
124.8014545447561
 30
0.0
 10
231.6960063424353
 20
124.7497223548819
 30
0.0
 10
231.9211777549916
 20
124.627450621093
 30
0.0
 10
232.027328816326
 20
124.5559640238661
 30
0.0
 10
232.2187761050282
 20
124.3966303371461
 30
0.0
 10
232.3047101189477
 20
124.3087127294593
 30
0.0
 10
232.4571224369877
 20
124.1143237648633
 30
0.0
 10
232.5233059272753
 20
124.0075281575246
 30
0.0
 10
232.6294876258263
 20
123.7830062041845
 30
0.0
 10
232.6704676890421
 20
123.6642129443474
 30
0.0
 10
232.7265478298395
 20
123.4117943432493
 30
0.0
 10
232.7407720052807
 20
123.2808600420472
 30
0.0
 10
232.7413686891522
 20
123.0164346153172
 30
0.0
 10
232.7276001216538
 20
122.8802526647266
 30
0.0
 10
232.6727500547117
 20
122.611566893328
 30
0.0
 10
232.6322535414352
 20
122.4799783352864
 30
0.0
 10
232.4727910702591
 20
122.0936649431466
 30
0.0
 10
232.3181226459449
 20
121.8541828738117
 30
0.0
 10
232.0298146146003
 20
121.5467955316411
 30
0.0
 10
231.9257897992525
 20
121.454332809463
 30
0.0
 10
231.7013705410737
 20
121.2897138333403
 30
0.0
 10
231.5794397532132
 20
121.2169905912988
 30
0.0
 10
231.3269826017872
 20
121.099554202593
 30
0.0
 10
231.19609607187
 20
121.0541749815082
 30
0.0
 10
230.9241551541572
 20
120.9920366022277
 30
0.0
 10
230.7822734038248
 20
120.9756182773567
 30
0.0
 10
230.499876955865
 20
120.9756182773567
 30
0.0
  0
LINE
  5
123
330
1F
100
AcDbEntity
  8
0
  6
HIDDEN
 62
     7
370
     0
100
AcDbLine
 10
233.6410751798
 20
117.5810411207
 30
0.0
 11
233.6410751798
 21
126.0810411207
 31
0.0
  0
LINE
  5
124
330
1F
100
AcDbEntity
  8
0
  6
HIDDEN
 62
     7
370
     0
100
AcDbLine
 10
271.2556492206
 20
112.6316030759
 30
0.0
 11
271.2569381753
 21
112.6169061447
 31
0.0
  0
LINE
  5
125
330
1F
100
AcDbEntity
  8
0
  6
HIDDEN
 62
     7
370
     0
100
AcDbLine
 10
271.2569381753
 20
112.6169061447
 30
0.0
 11
261.8463089663
 21
113.4382239428
 31
0.0
  0
LINE
  5
126
330
1F
100
AcDbEntity
  8
0
  6
HIDDEN
 62
     7
370
     0
100
AcDbLine
 10
258.9809683184
 20
110.6416846758
 30
0.0
 11
259.0216430478
 21
110.6204387684
 31
0.0
  0
LINE
  5
127
330
1F
100
AcDbEntity
  8
0
  6
HIDDEN
 62
     7
370
     0
100
AcDbLine
 10
259.0216430478
 20
110.6204387684
 30
0.0
 11
259.8384937814
 21
101.3065357616
 31
0.0
  0
ELLIPSE
  5
128
330
1F
100
AcDbEntity
  8
0
  6
HIDDEN
 62
     7
370
     0
100
AcDbEllipse
 10
265.4914611883
 20
121.8310411207
 30
0.0
 11
-11.7636906874682
 21
16.48124712370799
 31
0.0
210
0.0
220
0.0
230
1.0
 40
0.0668534593
 41
6.235504004580424
 42
7.80630033137507
  0
LINE
  5
129
330
1F
100
AcDbEntity
  8
0
  6
HIDDEN
 62
     7
370
     0
100
AcDbLine
 10
247.1410751798
 20
121.8310411207
 30
0.0
 11
247.1410751798
 21
138.3310411207
 31
0.0
  0
SPLINE
  5
12A
330
1F
100
AcDbEntity
  8
0
  6
HIDDEN
 62
     7
370
     0
100
AcDbSpline
210
0.0
220
0.0
230
1.0
 70
     8
 71
     3
 72
    20
 73
    16
 74
     0
 42
0.00000001
 43
0.00000001
 12
1.0
 22
0.0
 32
0.0
 13
1.0
 23
0.0
 33
0.0
 40
0.0
 40
0.0
 40
0.0
 40
0.0
 40
0.2499999999999999
 40
0.2499999999999999
 40
0.3749999999999999
 40
0.3749999999999999
 40
0.5
 40
0.5
 40
0.6250000000000001
 40
0.6250000000000001
 40
0.75
 40
0.75
 40
0.875
 40
0.875
 40
1.0
 40
1.0
 40
1.0
 40
1.0
 10
248.9633841316475
 20
113.8650505781093
 30
0.0
 10
249.0576957324853
 20
112.2207519579588
 30
0.0
 10
249.1629317905312
 20
110.702270038521
 30
0.0
 10
249.3353785066072
 20
108.6127996824106
 30
0.0
 10
249.394291729301
 20
107.9607291237736
 30
0.0
 10
249.5138360898577
 20
106.7491314461677
 30
0.0
 10
249.5745703122535
 20
106.1883785690758
 30
0.0
 10
249.6975272698831
 20
105.1583871913138
 30
0.0
 10
249.7601285971901
 20
104.6871898265993
 30
0.0
 10
249.8827359266192
 20
103.8657366416272
 30
0.0
 10
249.943109850442
 20
103.5117974130184
 30
0.0
 10
250.061597216482
 20
102.9164698702345
 30
0.0
 10
250.1198129932791
 20
102.6747400203143
 30
0.0
 10
250.2331003631709
 20
102.3108030572863
 30
0.0
 10
250.2871393887831
 20
102.1917196858245
 30
0.0
 10
250.3385150836572
 20
102.134096529325
 30
0.0
  0
SPLINE
  5
12B
330
1F
100
AcDbEntity
  8
0
  6
HIDDEN
 62
     7
370
     0
100
AcDbSpline
210
0.0
220
0.0
230
1.0
 70
     8
 71
     3
 72
    14
 73
    10
 74
     0
 42
0.00000001
 43
0.00000001
 12
1.0
 22
0.0
 32
0.0
 13
1.0
 23
0.0
 33
0.0
 40
0.0
 40
0.0
 40
0.0
 40
0.0
 40
0.2500000000000001
 40
0.2500000000000001
 40
0.5000000000000002
 40
0.5000000000000002
 40
0.7500000000000001
 40
0.7500000000000001
 40
1.0
 40
1.0
 40
1.0
 40
1.0
 10
248.9633841316475
 20
113.8650505781093
 30
0.0
 10
248.6920470745207
 20
114.489143886298
 30
0.0
 10
248.4418140238493
 20
115.1238429940963
 30
0.0
 10
247.9949563650655
 20
116.4201820846573
 30
0.0
 10
247.7981245463363
 20
117.0836675192573
 30
0.0
 10
247.4766150570914
 20
118.4238991944044
 30
0.0
 10
247.3511462162865
 20
119.1047600608074
 30
0.0
 10
247.183674550264
 20
120.4658567723769
 30
0.0
 10
247.1410751798449
 20
121.1477517112232
 30
0.0
 10
247.1410751798449
 20
121.8310411207416
 30
0.0
  0
ELLIPSE
  5
12C
330
1F
100
AcDbEntity
  8
0
  6
HIDDEN
 62
     7
370
     0
100
AcDbEllipse
 10
259.9753742058
 20
113.1192281047
 30
0.0
 11
1.616902374425194
 21
2.318196838028328
 31
0.0
210
0.0
220
0.0
230
1.0
 40
0.57803977
 41
3.548934393834041
 42
3.686857627939767
  0
ELLIPSE
  5
12D
330
1F
100
AcDbEntity
  8
0
  6
HIDDEN
 62
     7
370
     0
100
AcDbEllipse
 10
259.9753742058
 20
113.1192281047
 30
0.0
 11
2.099281448397733
 21
-0.1276543563555492
 31
0.0
210
0.0
220
0.0
230
1.0
 40
0.4303093993
 41
0.3596638604385172
 42
0.4975870945442687
  0
LINE
  5
12E
330
1F
100
AcDbEntity
  8
0
  6
HIDDEN
 62
     7
370
     0
100
AcDbLine
 10
261.9596669652
 20
113.317681083
 30
0.0
 11
261.9596669652
 21
113.4837014905
 31
0.0
  0
ARC
  5
12F
330
1F
100
AcDbEntity
  8
0
  6
HIDDEN
 62
     7
370
     0
100
AcDbCircle
 10
259.9769518085
 20
112.7995113539
 30
0.0
 40
2.09744500181011
100
AcDbArc
 50
250.8218643824
 51
19.038395848
  0
LINE
  5
130
330
1F
100
AcDbEntity
  8
0
  6
HIDDEN
 62
     7
370
     0
100
AcDbLine
 10
259.2879280298
 20
110.8184707768
 30
0.0
 11
259.2879280298
 21
110.6524503693
 31
0.0
  0
ARC
  5
131
330
1F
100
AcDbEntity
  8
0
  6
HIDDEN
 62
     7
370
     0
100
AcDbCircle
 10
259.9724617692
 20
112.8240151662
 30
0.0
 40
2.09725459410999
100
AcDbArc
 50
270.0795661043
 51
184.6434711494
  0
LWPOLYLINE
  5
132
330
1F
100
AcDbEntity
  8
0
  6
HIDDEN
 62
     7
370
     0
100
AcDbPolyline
 90
        3
 70
   128
 43
0.0
 10
258.9501227437
 20
110.9933923734
 10
259.3264385176
 20
110.82929354
 10
259.9753742058
 20
110.7267625943
  0
LINE
  5
133
330
1F
100
AcDbEntity
  8
0
  6
HIDDEN
 62
     7
370
     0
100
AcDbLine
 10
269.0870804482
 20
114.4160852855
 30
0.0
 11
271.1388962795
 21
113.9628445429
 31
0.0
  0
LINE
  5
134
330
1F
100
AcDbEntity
  8
0
  6
HIDDEN
 62
     7
370
     0
100
AcDbLine
 10
271.0211955411
 20
112.5268312331
 30
0.0
 11
261.9596669652
 21
113.317681083
 31
0.0
  0
LINE
  5
135
330
1F
100
AcDbEntity
  8
0
  6
HIDDEN
 62
     7
370
     0
100
AcDbLine
 10
271.0211955411
 20
112.5268312331
 30
0.0
 11
271.2569381753
 21
112.6169061447
 31
0.0
  0
LINE
  5
136
330
1F
100
AcDbEntity
  8
0
  6
HIDDEN
 62
     7
370
     0
100
AcDbLine
 10
259.2879280298
 20
110.6524503693
 30
0.0
 11
260.0879136007
 21
101.530847477
 31
0.0
  0
ELLIPSE
  5
137
330
1F
100
AcDbEntity
  8
0
  6
HIDDEN
 62
     7
370
     0
100
AcDbEllipse
 10
258.1748854653
 20
120.4867371476
 30
0.0
 11
-1.563905465413484
 21
19.20496181771458
 31
0.0
210
0.0
220
0.0
230
1.0
 40
0.1268365588
 41
3.183087968823098
 42
3.29282035349626
  0
LINE
  5
138
330
1F
100
AcDbEntity
  8
0
  6
HIDDEN
 62
     7
370
     0
100
AcDbLine
 10
270.7255893772
 20
112.7186508298
 30
0.0
 11
271.0211955411
 21
112.5268312331
 31
0.0
  0
LINE
  5
139
330
1F
100
AcDbEntity
  8
0
  6
HIDDEN
 62
     7
370
     0
100
AcDbLine
 10
259.2879280298
 20
110.8184707768
 30
0.0
 11
260.052459661
 21
102.1011211248
 31
0.0
  0
ELLIPSE
  5
13A
330
1F
100
AcDbEntity
  8
0
  6
HIDDEN
 62
     7
370
     0
100
AcDbEllipse
 10
258.4154268016
 20
120.4656925075
 30
0.0
 11
-1.677499657206795
 21
19.21932851201927
 31
0.0
210
0.0
220
0.0
230
1.0
 40
0.0059876405
 41
3.313341589854188
 42
3.440427958461454
  0
LWPOLYLINE
  5
13B
330
1F
100
AcDbEntity
  8
0
  6
HIDDEN
 62
     7
370
     0
100
AcDbPolyline
 90
       21
 70
   128
 43
0.0
 10
230.6410751798
 20
122.9239923803
 10
231.290010868
 20
123.0217432204
 10
231.8754242097
 20
123.3054272075
 10
232.340010868
 20
123.7472753763
 10
232.6382938641
 20
124.3040365496
 10
232.7410751798
 20
124.9212110645
 10
232.6382938641
 20
125.5383855794
 10
232.340010868
 20
126.0951467527
 10
231.8754242097
 20
126.5369949215
 10
231.290010868
 20
126.8206789086
 10
230.6410751798
 20
126.9184297487
 10
229.9921394917
 20
126.8206789086
 10
229.40672615
 20
126.5369949215
 10
228.9421394917
 20
126.0951467527
 10
228.6438564956
 20
125.5383855794
 10
228.5410751798
 20
124.9212110645
 10
228.6438564956
 20
124.3040365496
 10
228.9421394917
 20
123.7472753763
 10
229.40672615
 20
123.3054272075
 10
229.9921394917
 20
123.0217432204
 10
230.6410751798
 20
122.9239923803
  0
LINE
  5
13C
330
1F
100
AcDbEntity
  8
0
  6
HIDDEN
 62
     7
370
     0
100
AcDbLine
 10
271.1964673239
 20
101.1469969139
 30
0.0
 11
271.6956364752
 21
101.6579697375
 31
0.0
  0
CIRCLE
  5
13D
330
1F
100
AcDbEntity
  8
0
  6
HIDDEN
 62
     7
370
     0
100
AcDbCircle
 10
265.6395234451
 20
107.1514901904
 30
0.0
 40
2.99777599679859
  0
LINE
  5
13E
330
1F
100
AcDbEntity
  8
0
  6
HIDDEN
 62
     7
370
     0
100
AcDbLine
 10
270.7255893772
 20
112.7186508298
 30
0.0
 11
261.9596669652
 21
113.4837014905
 31
0.0
  0
ELLIPSE
  5
13F
330
1F
100
AcDbEntity
  8
0
  6
HIDDEN
 62
     7
370
     0
100
AcDbEllipse
 10
-449.1437770984
 20
182.3691016222
 30
0.0
 11
3113.331223476239
 21
-271.0557416021193
 31
0.0
210
0.0
220
0.0
230
1.0
 40
0.0060650906
 41
4.942727870743414
 42
4.946405554949567
  0
LINE
  5
140
330
1F
100
AcDbEntity
  8
0
  6
HIDDEN
 62
     7
370
     0
100
AcDbLine
 10
270.7255893772
 20
112.7186508298
 30
0.0
 11
271.6956365978
 21
101.6579694193
 31
0.0
  0
CIRCLE
  5
141
330
1F
100
AcDbEntity
  8
0
  6
HIDDEN
 62
     7
370
     0
100
AcDbCircle
 10
265.6377180609
 20
107.2123393499
 30
0.0
 40
2.097451095819996
  0
SPLINE
  5
142
330
1F
100
AcDbEntity
  8
0
  6
HIDDEN
 62
     7
370
     0
100
AcDbSpline
210
0.0
220
0.0
230
1.0
 70
     8
 71
     3
 72
    25
 73
    21
 74
     0
 42
0.00000001
 43
0.00000001
 12
1.0
 22
0.0
 32
0.0
 13
1.0
 23
0.0
 33
0.0
 40
0.0
 40
0.0
 40
0.0
 40
0.0
 40
0.0199998901848373
 40
0.0408828466159356
 40
0.0626488720923099
 40
0.0923707154079631
 40
0.1253136303743135
 40
0.1879819105472006
 40
0.2506511419271175
 40
0.3133132887856395
 40
0.3759603830168111
 40
0.5011343245869947
 40
0.6261581682074341
 40
0.6898548630570986
 40
0.7510243910057645
 40
0.8143052709410692
 40
0.8756460386477826
 40
0.917787001210568
 40
0.9592380420105455
 40
1.0
 40
1.0
 40
1.0
 40
1.0
 10
268.8458365577132
 20
112.1255614128477
 30
0.0
 10
268.8601143366216
 20
112.0231942758878
 30
0.0
 10
268.8893003091309
 20
111.8139401289817
 30
0.0
 10
268.9345389831385
 20
111.4963726619746
 30
0.0
 10
268.9872322479537
 20
111.1324250347189
 30
0.0
 10
269.0493641331456
 20
110.7124090069755
 30
0.0
 10
269.1426698173627
 20
110.097494802388
 30
0.0
 10
269.2625031619656
 20
109.3382614466326
 30
0.0
 10
269.4074942010629
 20
108.4661903870349
 30
0.0
 10
269.5547395028359
 20
107.6263051694133
 30
0.0
 10
269.7533882514084
 20
106.5532068990862
 30
0.0
 10
270.0052066572054
 20
105.3040409277318
 30
0.0
 10
270.2598294126842
 20
104.1880717175394
 30
0.0
 10
270.4618392376519
 20
103.3904577351278
 30
0.0
 10
270.61325461541
 20
102.8366854550619
 30
0.0
 10
270.7616096817211
 20
102.3376738052337
 30
0.0
 10
270.8933991138458
 20
101.9339316102266
 30
0.0
 10
271.0065929595573
 20
101.6165511797749
 30
0.0
 10
271.1027861030637
 20
101.3657996133266
 30
0.0
 10
271.1654151048855
 20
101.2195186532193
 30
0.0
 10
271.1964671377609
 20
101.1469912130535
 30
0.0
  0
SPLINE
  5
143
330
1F
100
AcDbEntity
  8
0
  6
HIDDEN
 62
     7
370
     0
100
AcDbSpline
210
0.0
220
0.0
230
1.0
 70
     8
 71
     3
 72
    29
 73
    25
 74
     0
 42
0.00000001
 43
0.00000001
 12
1.0
 22
0.0
 32
0.0
 13
1.0
 23
0.0
 33
0.0
 40
0.0
 40
0.0
 40
0.0
 40
0.0
 40
0.0248585524673031
 40
0.0497062406976314
 40
0.0745560622324373
 40
0.0994210112677762
 40
0.1243140583100022
 40
0.1554263774936281
 40
0.1865867279805325
 40
0.2489251963033781
 40
0.3113303818025508
 40
0.3737960827805121
 40
0.4363152917591076
 40
0.4988803158591515
 40
0.5614828870091169
 40
0.6241142219351301
 40
0.6867652256274537
 40
0.7494264786089511
 40
0.8120885030433348
 40
0.843404321123711
 40
0.8747479337716954
 40
0.9164935886809359
 40
0.9582246595433842
 40
1.0
 40
1.0
 40
1.0
 40
1.0
 10
271.695636785877
 20
101.6579693284254
 30
0.0
 10
271.6754257774776
 20
101.7037478975213
 30
0.0
 10
271.6350125937431
 20
101.7952850285457
 30
0.0
 10
271.5737595263341
 20
101.9443809428889
 30
0.0
 10
271.5120757678851
 20
102.1020361240395
 30
0.0
 10
271.4499132753388
 20
102.2691037498294
 30
0.0
 10
271.3821054991404
 20
102.4599240005983
 30
0.0
 10
271.3085366051812
 20
102.6773604922909
 30
0.0
 10
271.2026924481284
 20
103.0065486380047
 30
0.0
 10
271.0691380582885
 20
103.4524545115353
 30
0.0
 10
270.9075266270542
 20
104.0403815899545
 30
0.0
 10
270.7450273961753
 20
104.6794249392168
 30
0.0
 10
270.5821816417282
 20
105.3675185512851
 30
0.0
 10
270.4195271777162
 20
106.1023031184176
 30
0.0
 10
270.2576040796136
 20
106.8814405476907
 30
0.0
 10
270.096946084492
 20
107.7022531717095
 30
0.0
 10
269.9380874725928
 20
108.562116091482
 30
0.0
 10
269.7815539758779
 20
109.4580933194292
 30
0.0
 10
269.6534771072027
 20
110.2324213614705
 30
0.0
 10
269.5526914109708
 20
110.8669581303803
 30
0.0
 10
269.4697089160027
 20
111.4035488677137
 30
0.0
 10
269.3798350672464
 20
112.0035343041457
 30
0.0
 10
269.2834790828301
 20
112.6685570470308
 30
0.0
 10
269.2209228738626
 20
113.1204211033769
 30
0.0
 10
269.1896281877899
 20
113.3464729058168
 30
0.0
  0
SPLINE
  5
144
330
1F
100
AcDbEntity
  8
0
  6
HIDDEN
 62
     7
370
     0
100
AcDbSpline
210
0.0
220
0.0
230
1.0
 70
     8
 71
     3
 72
    62
 73
    58
 74
     0
 42
0.00000001
 43
0.00000001
 12
1.0
 22
0.0
 32
0.0
 13
1.0
 23
0.0
 33
0.0
 40
-0.0312500000000006
 40
-0.0312500000000006
 40
0.0
 40
0.0
 40
0.0312500000000002
 40
0.0312500000000002
 40
0.0625000000000005
 40
0.0625000000000005
 40
0.0937500000000007
 40
0.0937500000000007
 40
0.125000000000001
 40
0.125000000000001
 40
0.1562500000000012
 40
0.1562500000000012
 40
0.1875000000000015
 40
0.1875000000000015
 40
0.2500000000000012
 40
0.2500000000000012
 40
0.2812500000000012
 40
0.2812500000000012
 40
0.3125000000000012
 40
0.3125000000000012
 40
0.3437500000000011
 40
0.3437500000000011
 40
0.3750000000000011
 40
0.3750000000000011
 40
0.4062500000000011
 40
0.4062500000000011
 40
0.4375000000000011
 40
0.4375000000000011
 40
0.468750000000001
 40
0.468750000000001
 40
0.500000000000001
 40
0.500000000000001
 40
0.5312500000000009
 40
0.5312500000000009
 40
0.5625000000000008
 40
0.5625000000000008
 40
0.5937500000000008
 40
0.5937500000000008
 40
0.6250000000000007
 40
0.6250000000000007
 40
0.6562500000000006
 40
0.6562500000000006
 40
0.6875000000000004
 40
0.6875000000000004
 40
0.7500000000000004
 40
0.7500000000000004
 40
0.8125000000000003
 40
0.8125000000000003
 40
0.84375
 40
0.84375
 40
0.8749999999999996
 40
0.8749999999999996
 40
0.9374999999999988
 40
0.9374999999999988
 40
0.9687499999999994
 40
0.9687499999999994
 40
1.0
 40
1.0
 40
1.03125
 40
1.03125
 10
265.4740689400738
 20
105.5529839327114
 30
0.0
 10
265.8073270080981
 20
105.5554735872972
 30
0.0
 10
265.9647333335502
 20
105.5777770062322
 30
0.0
 10
266.2654292581133
 20
105.6557453928968
 30
0.0
 10
266.4051037956588
 20
105.7108770936461
 30
0.0
 10
266.6602148838384
 20
105.842405328817
 30
0.0
 10
266.776686162562
 20
105.9193603645807
 30
0.0
 10
266.9857415890347
 20
106.0861412913823
 30
0.0
 10
267.0796148137325
 20
106.1767174288966
 30
0.0
 10
267.249596121861
 20
106.3708643026486
 30
0.0
 10
267.3252286597419
 20
106.4742112316208
 30
0.0
 10
267.4566287476903
 20
106.6876826780985
 30
0.0
 10
267.5129937943333
 20
106.7985003158641
 30
0.0
 10
267.6555278960706
 20
107.1431730209783
 30
0.0
 10
267.7153847269133
 20
107.3920200197156
 30
0.0
 10
267.7435989497248
 20
107.7721413714545
 30
0.0
 10
267.742985107298
 20
107.9005882469946
 30
0.0
 10
267.7196711021649
 20
108.1609895320801
 30
0.0
 10
267.6966474863463
 20
108.2941126285992
 30
0.0
 10
267.6259251712598
 20
108.5575923607083
 30
0.0
 10
267.5785900551247
 20
108.6875393740177
 30
0.0
 10
267.4568096046088
 20
108.942642311309
 30
0.0
 10
267.3813296747313
 20
109.0690603998947
 30
0.0
 10
267.2036527834909
 20
109.3061134936334
 30
0.0
 10
267.1015999659662
 20
109.4173424121949
 30
0.0
 10
266.8663938715314
 20
109.6216536533375
 30
0.0
 10
266.7358018125382
 20
109.7120432928265
 30
0.0
 10
266.454213964471
 20
109.8613678303224
 30
0.0
 10
266.2991008369719
 20
109.9218692054853
 30
0.0
 10
265.9803871640206
 20
110.0022306941989
 30
0.0
 10
265.8165112016706
 20
110.0229873448678
 30
0.0
 10
265.4828206132526
 20
110.0232052582075
 30
0.0
 10
265.3203701890302
 20
110.0028053410787
 30
0.0
 10
265.003745669148
 20
109.9239938020172
 30
0.0
 10
264.8531141474078
 20
109.8660532149802
 30
0.0
 10
264.5745116893281
 20
109.7213040862421
 30
0.0
 10
264.4453404531241
 20
109.6336863204795
 30
0.0
 10
264.2158135483089
 20
109.4403293227233
 30
0.0
 10
264.1129127007009
 20
109.3325324680835
 30
0.0
 10
263.9356163208604
 20
109.1067531535766
 30
0.0
 10
263.860754093169
 20
108.988807638067
 30
0.0
 10
263.7347967967821
 20
108.7449253054679
 30
0.0
 10
263.6835531778903
 20
108.6179934043219
 30
0.0
 10
263.5664012222967
 20
108.2378814198804
 30
0.0
 10
263.534226192953
 20
107.9832840971983
 30
0.0
 10
263.549236240621
 20
107.4739871488403
 30
0.0
 10
263.596176215992
 20
107.228511324867
 30
0.0
 10
263.7243304123696
 20
106.8733743135829
 30
0.0
 10
263.7772978021929
 20
106.7565943388875
 30
0.0
 10
263.9025091339817
 20
106.532853247489
 30
0.0
 10
263.9748133050475
 20
106.4253040505134
 30
0.0
 10
264.2259097643068
 20
106.1164086804279
 30
0.0
 10
264.4391705100242
 20
105.9272227541811
 30
0.0
 10
264.8452683705063
 20
105.7121342127071
 30
0.0
 10
264.9922402820114
 20
105.6537357443649
 30
0.0
 10
265.3109785448456
 20
105.573075268179
 30
0.0
 10
265.4740689400738
 20
105.5529839327114
 30
0.0
 10
265.8073270080981
 20
105.5554735872972
 30
0.0
  0
LINE
  5
145
330
1F
100
AcDbEntity
  8
0
  6
HIDDEN
 62
     7
370
     0
100
AcDbLine
 10
111.1410751798
 20
106.726988292
 30
0.0
 11
111.1410751798
 21
100.6726777245
 31
0.0
  0
LINE
  5
146
330
1F
100
AcDbEntity
  8
0
  6
HIDDEN
 62
     7
370
     0
100
AcDbLine
 10
109.6410751798
 20
107.1600009939
 30
0.0
 11
109.6410751798
 21
101.5387031282
 31
0.0
  0
LINE
  5
147
330
1F
100
AcDbEntity
  8
0
  6
HIDDEN
 62
     7
370
     0
100
AcDbLine
 10
145.4410751798
 20
106.2961205979
 30
0.0
 11
145.4410751798
 21
99.8109423362
 31
0.0
  0
SPLINE
  5
148
330
1F
100
AcDbEntity
  8
0
  6
HIDDEN
 62
     7
370
     0
100
AcDbSpline
210
0.0
220
0.0
230
1.0
 70
     8
 71
     3
 72
    16
 73
    12
 74
     0
 42
0.00000001
 43
0.00000001
 12
1.0
 22
0.0
 32
0.0
 13
1.0
 23
0.0
 33
0.0
 40
0.0
 40
0.0
 40
0.0
 40
0.0
 40
0.2500000000000002
 40
0.2500000000000002
 40
0.3750000000000002
 40
0.3750000000000002
 40
0.5000000000000001
 40
0.5000000000000001
 40
0.75
 40
0.75
 40
1.0
 40
1.0
 40
1.0
 40
1.0
 10
146.3197548362851
 20
105.2471344945006
 30
0.0
 10
146.1585223588007
 20
104.5327403323085
 30
0.0
 10
146.0380425191611
 20
103.8793980695998
 30
0.0
 10
145.9156620018477
 20
102.9911428277959
 30
0.0
 10
145.8846843414503
 20
102.710462291444
 30
0.0
 10
145.8430706038224
 20
102.1814283016041
 30
0.0
 10
145.8328346908895
 20
101.9381073230256
 30
0.0
 10
145.8326462938334
 20
101.2700846325124
 30
0.0
 10
145.872790996471
 20
100.9064037230929
 30
0.0
 10
146.0369447514106
 20
100.3465128505446
 30
0.0
 10
146.1584964018202
 20
100.1589915584274
 30
0.0
 10
146.3197548362851
 20
100.0609601657395
 30
0.0
  0
SPLINE
  5
149
330
1F
100
AcDbEntity
  8
0
  6
HIDDEN
 62
     7
370
     0
100
AcDbSpline
210
0.0
220
0.0
230
1.0
 70
     8
 71
     3
 72
    16
 73
    12
 74
     0
 42
0.00000001
 43
0.00000001
 12
1.0
 22
0.0
 32
0.0
 13
1.0
 23
0.0
 33
0.0
 40
0.0
 40
0.0
 40
0.0
 40
0.0
 40
0.2500000000000001
 40
0.2500000000000001
 40
0.3750000000000004
 40
0.3750000000000004
 40
0.5000000000000007
 40
0.5000000000000007
 40
0.7500000000000003
 40
0.7500000000000003
 40
1.0
 40
1.0
 40
1.0
 40
1.0
 10
146.3197548362852
 20
143.6011220757437
 30
0.0
 10
146.1585223588007
 20
143.503106462689
 30
0.0
 10
146.0380425191611
 20
143.316370431013
 30
0.0
 10
145.9156620018477
 20
142.9033306234541
 30
0.0
 10
145.8846843414503
 20
142.7433301242211
 30
0.0
 10
145.8430706038224
 20
142.37652447313
 30
0.0
 10
145.8328346908895
 20
142.173187320506
 30
0.0
 10
145.8326462938334
 20
141.5059000538793
 30
0.0
 10
145.872790996471
 20
140.9850855899913
 30
0.0
 10
146.0369447514106
 20
139.7877265745136
 30
0.0
 10
146.1584964018202
 20
139.1294569202176
 30
0.0
 10
146.3197548362852
 20
138.4149477469826
 30
0.0
  0
LINE
  5
14A
330
1F
100
AcDbEntity
  8
0
  6
HIDDEN
 62
     7
370
     0
100
AcDbLine
 10
145.4410751798
 20
143.8511399053
 30
0.0
 11
145.4410751798
 21
137.3659616436
 31
0.0
  0
LINE
  5
14B
330
1F
100
AcDbEntity
  8
0
  6
HIDDEN
 62
     7
370
     0
100
AcDbLine
 10
111.1410751798
 20
142.989404517
 30
0.0
 11
111.1410751798
 21
136.9350939495
 31
0.0
  0
LINE
  5
14C
330
1F
100
AcDbEntity
  8
0
  6
HIDDEN
 62
     7
370
     0
100
AcDbLine
 10
109.6410751798
 20
142.1233791132
 30
0.0
 11
109.6410751798
 21
136.5020812476
 31
0.0
  0
LWPOLYLINE
  5
14D
330
1F
100
AcDbEntity
  8
0
  6
HIDDEN
 62
     7
370
     0
100
AcDbPolyline
 90
       23
 70
   128
 43
0.0
 10
230.6410751798
 20
122.6178402308
 10
231.3454065719
 20
122.7141514093
 10
231.9926772235
 20
122.9952823859
 10
232.5304491157
 20
123.4384576008
 10
232.9151551682
 20
124.0077736338
 10
233.1156287845
 20
124.6571078857
 10
233.1156287845
 20
125.3338551573
 10
232.9151551682
 20
125.9831894092
 10
232.5304491157
 20
126.5525054422
 10
231.9926772235
 20
126.9956806571
 10
231.3454065719
 20
127.2768116337
 10
230.6410751798
 20
127.3731228122
 10
229.9367437877
 20
127.2768116337
 10
229.2894731362
 20
126.9956806571
 10
228.751701244
 20
126.5525054422
 10
228.3669951915
 20
125.9831894092
 10
228.1665215751
 20
125.3338551573
 10
228.1665215751
 20
124.6571078857
 10
228.3669951915
 20
124.0077736338
 10
228.751701244
 20
123.4384576008
 10
229.2894731362
 20
122.9952823859
 10
229.9367437877
 20
122.7141514093
 10
230.6410751798
 20
122.6178402308
  0
LINE
  5
14E
330
1F
100
AcDbEntity
  8
0
  6
HIDDEN
 62
     7
370
     0
100
AcDbLine
 10
109.6410751798
 20
136.5020812476
 30
0.0
 11
109.6410751798
 21
124.7330284537
 31
0.0
  0
LINE
  5
14F
330
1F
100
AcDbEntity
  8
0
  6
HIDDEN
 62
     7
370
     0
100
AcDbLine
 10
109.6410751798
 20
118.9290537878
 30
0.0
 11
109.6410751798
 21
107.1600009939
 31
0.0
  0
LINE
  5
150
330
1F
100
AcDbEntity
  8
0
  6
HIDDEN
 62
     7
370
     0
100
AcDbLine
 10
111.1410751798
 20
117.8658302239
 30
0.0
 11
111.1410751798
 21
106.726988292
 31
0.0
  0
LINE
  5
151
330
1F
100
AcDbEntity
  8
0
  6
HIDDEN
 62
     7
370
     0
100
AcDbLine
 10
111.1410751798
 20
136.9350939495
 30
0.0
 11
111.1410751798
 21
125.7962520176
 31
0.0
  0
LINE
  5
152
330
1F
100
AcDbEntity
  8
0
  6
HIDDEN
 62
     7
370
     0
100
AcDbLine
 10
147.4410751798
 20
136.8687482832
 30
0.0
 11
147.4410751798
 21
106.7933339583
 31
0.0
  0
LINE
  5
153
330
1F
100
AcDbEntity
  8
0
  6
HIDDEN
 62
     7
370
     0
100
AcDbLine
 10
145.4410751798
 20
137.3659616436
 30
0.0
 11
145.4410751798
 21
106.2961205979
 31
0.0
  0
SPLINE
  5
154
330
1F
100
AcDbEntity
  8
0
  6
HIDDEN
 62
     7
370
     0
100
AcDbSpline
210
0.0
220
0.0
230
1.0
 70
     8
 71
     3
 72
    10
 73
     6
 74
     0
 42
0.00000001
 43
0.00000001
 12
1.0
 22
0.0
 32
0.0
 13
1.0
 23
0.0
 33
0.0
 40
0.0
 40
0.0
 40
0.0
 40
0.0
 40
0.3293635822219304
 40
0.6626577436969242
 40
1.0
 40
1.0
 40
1.0
 40
1.0
 10
269.189623824412
 20
113.34647400028
 30
0.0
 10
269.1549430119811
 20
113.2115880198558
 30
0.0
 10
269.0851675111197
 20
112.9402063484479
 30
0.0
 10
268.9704583722186
 20
112.5331646819783
 30
0.0
 10
268.8875418220989
 20
112.2619764888841
 30
0.0
 10
268.8458332966435
 20
112.1255639193964
 30
0.0
  0
LINE
  5
155
330
1F
100
AcDbEntity
  8
0
  6
HIDDEN
 62
     7
370
     0
100
AcDbLine
 10
248.9633841316
 20
113.8650505781
 30
0.0
 11
268.8458331016
 21
112.1255616901
 31
0.0
  0
LINE
  5
156
330
1F
100
AcDbEntity
  8
0
  6
HIDDEN
 62
     7
370
     0
100
AcDbLine
 10
269.1896275567
 20
113.3464743581
 30
0.0
 11
269.0870804482
 21
114.4160852855
 31
0.0
  0
LINE
  5
157
330
1F
100
AcDbEntity
  8
0
  6
HIDDEN
 62
     7
370
     0
100
AcDbLine
 10
269.0870804482
 20
114.4160852855
 30
0.0
 11
263.830189493
 21
121.8310411207
 31
0.0
  0
SPLINE
  5
158
330
1F
100
AcDbEntity
  8
0
  6
HIDDEN
 62
     7
370
     0
100
AcDbSpline
210
0.0
220
0.0
230
1.0
 70
     8
 71
     3
 72
     8
 73
     4
 74
     0
 42
0.00000001
 43
0.00000001
 12
1.0
 22
0.0
 32
0.0
 13
1.0
 23
0.0
 33
0.0
 40
0.0000249638557296
 40
0.0000249638557296
 40
0.0000249638557296
 40
0.0000249638557296
 40
0.0049776420541172
 40
0.0049776420541172
 40
0.0049776420541172
 40
0.0049776420541172
 10
111.1410751798448
 20
117.8658302239052
 30
0.0
 10
112.7910514143544
 20
117.824550986137
 30
0.0
 10
114.4410527340994
 20
117.7843293048975
 30
0.0
 10
116.0910751798449
 20
117.7450800676425
 30
0.0
  0
SPLINE
  5
159
330
1F
100
AcDbEntity
  8
0
  6
HIDDEN
 62
     7
370
     0
100
AcDbSpline
210
0.0
220
0.0
230
1.0
 70
     8
 71
     3
 72
     8
 73
     4
 74
     0
 42
0.00000001
 43
0.00000001
 12
1.0
 22
0.0
 32
0.0
 13
1.0
 23
0.0
 33
0.0
 40
0.0000249631533153
 40
0.0000249631533153
 40
0.0000249631533153
 40
0.0000249631533153
 40
0.0049776413517029
 40
0.0049776413517029
 40
0.0049776413517029
 40
0.0049776413517029
 10
116.0910751798449
 20
125.9170021738407
 30
0.0
 10
114.4410527340994
 20
125.8777529365857
 30
0.0
 10
112.7910514143544
 20
125.8375312553462
 30
0.0
 10
111.1410751798448
 20
125.796252017578
 30
0.0
  0
SPLINE
  5
15A
330
1F
100
AcDbEntity
  8
0
  6
HIDDEN
 62
     7
370
     0
100
AcDbSpline
210
0.0
220
0.0
230
1.0
 70
     8
 71
     3
 72
     8
 73
     4
 74
     0
 42
0.00000001
 43
0.00000001
 12
1.0
 22
0.0
 32
0.0
 13
1.0
 23
0.0
 33
0.0
 40
0.0
 40
0.0
 40
0.0
 40
0.0
 40
1.0
 40
1.0
 40
1.0
 40
1.0
 10
109.6410751798427
 20
118.9290537877614
 30
0.0
 10
110.1078357912205
 20
118.5136905421383
 30
0.0
 10
110.6135833380006
 20
118.1691001128337
 30
0.0
 10
111.1410751798449
 20
117.8658302239051
 30
0.0
  0
SPLINE
  5
15B
330
1F
100
AcDbEntity
  8
0
  6
HIDDEN
 62
     7
370
     0
100
AcDbSpline
210
0.0
220
0.0
230
1.0
 70
     8
 71
     3
 72
     8
 73
     4
 74
     0
 42
0.00000001
 43
0.00000001
 12
1.0
 22
0.0
 32
0.0
 13
1.0
 23
0.0
 33
0.0
 40
0.0
 40
0.0
 40
0.0
 40
0.0
 40
1.0
 40
1.0
 40
1.0
 40
1.0
 10
111.1410751798449
 20
125.7962520175781
 30
0.0
 10
110.6135833380014
 20
125.49298212865
 30
0.0
 10
110.1078357912221
 20
125.148391699346
 30
0.0
 10
109.6410751798449
 20
124.7330284537238
 30
0.0
  0
LINE
  5
15C
330
1F
100
AcDbEntity
  8
0
  6
HIDDEN
 62
     7
370
     0
100
AcDbLine
 10
109.6410751798
 20
118.9290537878
 30
0.0
 11
109.6410751798
 21
124.7330284537
 31
0.0
  0
LINE
  5
15D
330
1F
100
AcDbEntity
  8
0
  6
HIDDEN
 62
     7
370
     0
100
AcDbLine
 10
116.0910751798
 20
117.7450800676
 30
0.0
 11
116.0910751798
 21
125.9170021738
 31
0.0
  0
SPLINE
  5
15E
330
1F
100
AcDbEntity
  8
0
  6
HIDDEN
 62
     7
370
     0
100
AcDbSpline
210
0.0
220
0.0
230
1.0
 70
     8
 71
     3
 72
    24
 73
    20
 74
     0
 42
0.00000001
 43
0.00000001
 12
1.0
 22
0.0
 32
0.0
 13
1.0
 23
0.0
 33
0.0
 40
0.0
 40
0.0
 40
0.0
 40
0.0
 40
0.125
 40
0.125
 40
0.25
 40
0.25
 40
0.375
 40
0.375
 40
0.4375
 40
0.4375
 40
0.5
 40
0.5
 40
0.625
 40
0.625
 40
0.75
 40
0.75
 40
0.875
 40
0.875
 40
1.0
 40
1.0
 40
1.0
 40
1.0
 10
116.0910751798448
 20
117.7450800676424
 30
0.0
 10
116.3288788121199
 20
118.0440871699725
 30
0.0
 10
116.5589644733312
 20
118.3484250212913
 30
0.0
 10
116.993717871941
 20
118.9741585586873
 30
0.0
 10
117.1986506642271
 20
119.2953832860148
 30
0.0
 10
117.5637526147258
 20
119.9673090567475
 30
0.0
 10
117.7255530005173
 20
120.3226242886264
 30
0.0
 10
117.897413205097
 20
120.8728555099788
 30
0.0
 10
117.9429983967572
 20
121.0592592949593
 30
0.0
 10
118.005473136332
 20
121.4393937970556
 30
0.0
 10
118.0221442820805
 20
121.6350635893414
 30
0.0
 10
118.022665325257
 20
122.2135439680158
 30
0.0
 10
117.9582230243703
 20
122.5914558069846
 30
0.0
 10
117.728373930997
 20
123.333423832083
 30
0.0
 10
117.5698532533339
 20
123.682139292244
 30
0.0
 10
117.2056189234337
 20
124.3552316899771
 30
0.0
 10
116.9988826833701
 20
124.6801841772187
 30
0.0
 10
116.5609447376298
 20
125.3111079876806
 30
0.0
 10
116.3296720103502
 20
125.6169977280212
 30
0.0
 10
116.0910751798449
 20
125.9170021738407
 30
0.0
  0
SPLINE
  5
15F
330
1F
100
AcDbEntity
  8
0
  6
HIDDEN
 62
     7
370
     0
100
AcDbSpline
210
0.0
220
0.0
230
1.0
 70
     8
 71
     3
 72
    72
 73
    68
 74
     0
 42
0.00000001
 43
0.00000001
 12
1.0
 22
0.0
 32
0.0
 13
1.0
 23
0.0
 33
0.0
 40
-0.0312500000000001
 40
-0.0312500000000001
 40
0.0
 40
0.0
 40
0.03125
 40
0.03125
 40
0.0624999999999999
 40
0.0624999999999999
 40
0.0937499999999999
 40
0.0937499999999999
 40
0.1249999999999998
 40
0.1249999999999998
 40
0.1562499999999998
 40
0.1562499999999998
 40
0.1874999999999998
 40
0.1874999999999998
 40
0.2187499999999997
 40
0.2187499999999997
 40
0.2499999999999997
 40
0.2499999999999997
 40
0.2812499999999996
 40
0.2812499999999996
 40
0.3124999999999996
 40
0.3124999999999996
 40
0.3437499999999996
 40
0.3437499999999996
 40
0.3749999999999996
 40
0.3749999999999996
 40
0.3906249999999997
 40
0.3906249999999997
 40
0.4062499999999997
 40
0.4062499999999997
 40
0.4374999999999997
 40
0.4374999999999997
 40
0.4687499999999998
 40
0.4687499999999998
 40
0.4999999999999999
 40
0.4999999999999999
 40
0.5312499999999999
 40
0.5312499999999999
 40
0.5624999999999998
 40
0.5624999999999998
 40
0.5937499999999998
 40
0.5937499999999998
 40
0.6249999999999998
 40
0.6249999999999998
 40
0.6562499999999997
 40
0.6562499999999997
 40
0.6874999999999997
 40
0.6874999999999997
 40
0.7187499999999997
 40
0.7187499999999997
 40
0.7499999999999996
 40
0.7499999999999996
 40
0.7812499999999996
 40
0.7812499999999996
 40
0.8124999999999996
 40
0.8124999999999996
 40
0.8437499999999997
 40
0.8437499999999997
 40
0.8749999999999997
 40
0.8749999999999997
 40
0.9062499999999998
 40
0.9062499999999998
 40
0.9374999999999999
 40
0.9374999999999999
 40
0.9687499999999999
 40
0.9687499999999999
 40
1.0
 40
1.0
 40
1.03125
 40
1.03125
 10
128.76502149867
 20
124.2718747705565
 30
0.0
 10
129.1394517185439
 20
124.6822305710416
 30
0.0
 10
129.3443043198096
 20
124.8658796537
 30
0.0
 10
129.7871725166566
 20
125.1928345571953
 30
0.0
 10
130.0271279339749
 20
125.3366127653752
 30
0.0
 10
130.5227389167494
 20
125.5741301208211
 30
0.0
 10
130.7800052079039
 20
125.6694496857188
 30
0.0
 10
131.3133589757409
 20
125.8135352183533
 30
0.0
 10
131.5876391156392
 20
125.8612712253228
 30
0.0
 10
132.1340676502187
 20
125.9068533658567
 30
0.0
 10
132.4086439686865
 20
125.9054196057844
 30
0.0
 10
132.9606111429572
 20
125.8525062976936
 30
0.0
 10
133.2312281055289
 20
125.8015365714894
 30
0.0
 10
133.7575132766081
 20
125.6529299445458
 30
0.0
 10
134.0151448400156
 20
125.5546445737887
 30
0.0
 10
134.5110710046892
 20
125.310391214603
 30
0.0
 10
134.7440546824808
 20
125.1673110835808
 30
0.0
 10
135.1803879578058
 20
124.839452533112
 30
0.0
 10
135.3856692116641
 20
124.6524588954118
 30
0.0
 10
135.7537035095243
 20
124.2430282755888
 30
0.0
 10
135.9152184995095
 20
124.0229228346043
 30
0.0
 10
136.1923761826566
 20
123.5511727531663
 30
0.0
 10
136.3087703620903
 20
123.2961562267251
 30
0.0
 10
136.4820443987369
 20
122.7749184033281
 30
0.0
 10
136.5404909532026
 20
122.5074342855471
 30
0.0
 10
136.5843556786785
 20
122.0955186262147
 30
0.0
 10
136.5915358953079
 20
121.9558113231392
 30
0.0
 10
136.5905678680124
 20
121.6796882676768
 30
0.0
 10
136.5825650785988
 20
121.542511701346
 30
0.0
 10
136.5364923466864
 20
121.1335782600828
 30
0.0
 10
136.4755575142344
 20
120.8616520110786
 30
0.0
 10
136.2974373578259
 20
120.3384714946235
 30
0.0
 10
136.1818694464835
 20
120.0897594942601
 30
0.0
 10
135.9000226625442
 20
119.6168749692681
 30
0.0
 10
135.7331527171295
 20
119.393265752036
 30
0.0
 10
135.3638271623308
 20
118.9886083638484
 30
0.0
 10
135.1590420060333
 20
118.8041947756789
 30
0.0
 10
134.7143890585171
 20
118.4751687407845
 30
0.0
 10
134.4795399290063
 20
118.3340006647963
 30
0.0
 10
133.9861301665293
 20
118.0955911360158
 30
0.0
 10
133.7248432128247
 20
117.9978085796109
 30
0.0
 10
133.194104932312
 20
117.8524805514208
 30
0.0
 10
132.9244652314148
 20
117.8041911612258
 30
0.0
 10
132.3767138916695
 20
117.7557759374392
 30
0.0
 10
132.096809849811
 20
117.7562341230751
 30
0.0
 10
131.5497319419759
 20
117.8063859786773
 30
0.0
 10
131.2801268372885
 20
117.8555595457093
 30
0.0
 10
130.7489720806325
 20
118.0032340690164
 30
0.0
 10
130.4876772641889
 20
118.1023892333819
 30
0.0
 10
129.9953632860135
 20
118.3434020038587
 30
0.0
 10
129.7614064104349
 20
118.4858901284834
 30
0.0
 10
129.3192377899045
 20
118.8173775574683
 30
0.0
 10
129.1140442587928
 20
119.0048111854567
 30
0.0
 10
128.7483500424349
 20
119.4117149045071
 30
0.0
 10
128.5855794200465
 20
119.632893979176
 30
0.0
 10
128.3046269892809
 20
120.1126413083913
 30
0.0
 10
128.1914231370074
 20
120.3626532752016
 30
0.0
 10
128.0188144128685
 20
120.882728485222
 30
0.0
 10
127.9592081301921
 20
121.1564599498518
 30
0.0
 10
127.9013163601223
 20
121.7050775997503
 30
0.0
 10
127.9021058989823
 20
121.9794174636418
 30
0.0
 10
127.9632963745987
 20
122.5281594147808
 30
0.0
 10
128.0244250983327
 20
122.8012247286379
 30
0.0
 10
128.2005047839625
 20
123.3213899774063
 30
0.0
 10
128.3168353789524
 20
123.5737091109652
 30
0.0
 10
128.6000366086932
 20
124.0501134523722
 30
0.0
 10
128.76502149867
 20
124.2718747705565
 30
0.0
 10
129.1394517185439
 20
124.6822305710416
 30
0.0
  0
CIRCLE
  5
160
330
1F
100
AcDbEntity
  8
0
  6
HIDDEN
 62
     7
370
     0
100
AcDbCircle
 10
132.1410751798
 20
121.8310411207
 30
0.0
 40
4.050000000000026
  0
CIRCLE
  5
161
330
1F
100
AcDbEntity
  8
0
  6
HIDDEN
 62
     7
370
     0
100
AcDbCircle
 10
159.6410751798
 20
121.8310411207
 30
0.0
 40
2.0
  0
LINE
  5
162
330
1F
100
AcDbEntity
  8
0
  6
HIDDEN
 62
     7
370
     0
100
AcDbLine
 10
147.6410751798
 20
97.5810411207
 30
0.0
 11
147.7339683987
 21
97.6739343396
 31
0.0
  0
LINE
  5
163
330
1F
100
AcDbEntity
  8
0
  6
HIDDEN
 62
     7
370
     0
100
AcDbLine
 10
147.7339683987
 20
145.9881479019
 30
0.0
 11
147.6410751798
 21
146.0810411207
 31
0.0
  0
ARC
  5
164
330
1F
100
AcDbEntity
  8
0
  6
HIDDEN
 62
     7
370
     0
100
AcDbCircle
 10
147.0268616175
 20
98.3810411207
 30
0.0
 40
1.000000000000048
100
AcDbArc
 50
315.0
 51
0.0
  0
ARC
  5
165
330
1F
100
AcDbEntity
  8
0
  6
HIDDEN
 62
     7
370
     0
100
AcDbCircle
 10
147.0268616175
 20
98.3810411207
 30
0.0
 40
1.0
100
AcDbArc
 50
0.0
 51
52.1052014664
  0
ARC
  5
166
330
1F
100
AcDbEntity
  8
0
  6
HIDDEN
 62
     7
370
     0
100
AcDbCircle
 10
147.0268616175
 20
145.2810411207
 30
0.0
 40
1.000000000000068
100
AcDbArc
 50
351.8087250651
 51
45.0
  0
ARC
  5
167
330
1F
100
AcDbEntity
  8
0
  6
HIDDEN
 62
     7
370
     0
100
AcDbCircle
 10
147.0268616175
 20
145.2810411207
 30
0.0
 40
1.000000000000002
100
AcDbArc
 50
307.8947985336
 51
351.8087250651
  0
LINE
  5
168
330
1F
100
AcDbEntity
  8
0
  6
HIDDEN
 62
     7
370
     0
100
AcDbLine
 10
148.0268616175
 20
98.3810411207
 30
0.0
 11
148.0268616175
 21
145.2810411207
 31
0.0
  0
LINE
  5
169
330
1F
100
AcDbEntity
  8
0
  6
HIDDEN
 62
     7
370
     0
100
AcDbLine
 10
148.0268616175
 20
98.3810411207
 30
0.0
 11
148.0268616175
 21
145.2810411207
 31
0.0
  0
LINE
  5
16A
330
1F
100
AcDbEntity
  8
0
  6
HIDDEN
 62
     7
370
     0
100
AcDbLine
 10
109.6410751798
 20
105.6346122763
 30
0.0
 11
111.1713036195
 21
106.5180900778
 31
0.0
  0
LINE
  5
16B
330
1F
100
AcDbEntity
  8
0
  6
HIDDEN
 62
     7
370
     0
100
AcDbLine
 10
111.1713036195
 20
137.1439921637
 30
0.0
 11
109.6410751798
 21
138.0274699652
 31
0.0
  0
LINE
  5
16C
330
1F
100
AcDbEntity
  8
0
  6
HIDDEN
 62
     7
370
     0
100
AcDbLine
 10
119.6410751798
 20
105.8310411207
 30
0.0
 11
120.6428764947
 21
105.8310411207
 31
0.0
  0
LINE
  5
16D
330
1F
100
AcDbEntity
  8
0
  6
HIDDEN
 62
     7
370
     0
100
AcDbLine
 10
120.6428764947
 20
137.8310411207
 30
0.0
 11
119.6410751798
 21
137.8310411207
 31
0.0
  0
ARC
  5
16E
330
1F
100
AcDbEntity
  8
0
  6
HIDDEN
 62
     7
370
     0
100
AcDbCircle
 10
119.6410751798
 20
107.8310411207
 30
0.0
 40
2.000000000000043
100
AcDbArc
 50
189.9742217944
 51
270.0
  0
ARC
  5
16F
330
1F
100
AcDbEntity
  8
0
  6
HIDDEN
 62
     7
370
     0
100
AcDbCircle
 10
119.6410751798
 20
135.8310411207
 30
0.0
 40
2.000000000000028
100
AcDbArc
 50
90.0
 51
170.0257782056
  0
ARC
  5
170
330
1F
100
AcDbEntity
  8
0
  6
HIDDEN
 62
     7
370
     0
100
AcDbCircle
 10
120.6428764947
 20
107.8310411207
 30
0.0
 40
2.000000000000043
100
AcDbArc
 50
270.0
 51
315.0
  0
ARC
  5
171
330
1F
100
AcDbEntity
  8
0
  6
HIDDEN
 62
     7
370
     0
100
AcDbCircle
 10
120.6428764947
 20
135.8310411207
 30
0.0
 40
2.000000000000036
100
AcDbArc
 50
45.0
 51
90.0
  0
LINE
  5
172
330
1F
100
AcDbEntity
  8
0
  6
HIDDEN
 62
     7
370
     0
100
AcDbLine
 10
122.0570900571
 20
106.4168275584
 30
0.0
 11
123.4713036195
 21
107.8310411207
 31
0.0
  0
LINE
  5
173
330
1F
100
AcDbEntity
  8
0
  6
HIDDEN
 62
     7
370
     0
100
AcDbLine
 10
123.4713036195
 20
135.8310411207
 30
0.0
 11
122.0570900571
 21
137.2452546831
 31
0.0
  0
LINE
  5
174
330
1F
100
AcDbEntity
  8
0
  6
HIDDEN
 62
     7
370
     0
100
AcDbLine
 10
111.1713036195
 20
106.5180900778
 30
0.0
 11
116.0713036195
 21
107.8310411207
 31
0.0
  0
LINE
  5
175
330
1F
100
AcDbEntity
  8
0
  6
HIDDEN
 62
     7
370
     0
100
AcDbLine
 10
116.0713036195
 20
135.8310411207
 30
0.0
 11
111.1713036195
 21
137.1439921637
 31
0.0
  0
LINE
  5
176
330
1F
100
AcDbEntity
  8
0
  6
HIDDEN
 62
     7
370
     0
100
AcDbLine
 10
117.6713036195
 20
136.1774512823
 30
0.0
 11
117.0713036195
 21
135.8310411207
 31
0.0
  0
LINE
  5
177
330
1F
100
AcDbEntity
  8
0
  6
HIDDEN
 62
     7
370
     0
100
AcDbLine
 10
117.0713036195
 20
107.8310411207
 30
0.0
 11
117.6713036195
 21
107.4846309592
 31
0.0
  0
ARC
  5
178
330
1F
100
AcDbEntity
  8
0
  6
HIDDEN
 62
     7
370
     0
100
AcDbCircle
 10
136.1410751798
 20
108.3310411207
 30
0.0
 40
0.5000000000000426
100
AcDbArc
 50
270.0
 51
360.0
  0
ARC
  5
179
330
1F
100
AcDbEntity
  8
0
  6
HIDDEN
 62
     7
370
     0
100
AcDbCircle
 10
136.1410751798
 20
135.3310411207
 30
0.0
 40
0.5000000000000284
100
AcDbArc
 50
0.0
 51
90.0
  0
LINE
  5
17A
330
1F
100
AcDbEntity
  8
0
  6
HIDDEN
 62
     7
370
     0
100
AcDbLine
 10
123.4713036195
 20
107.8310411207
 30
0.0
 11
136.1410751798
 21
107.8310411207
 31
0.0
  0
LINE
  5
17B
330
1F
100
AcDbEntity
  8
0
  6
HIDDEN
 62
     7
370
     0
100
AcDbLine
 10
136.1410751798
 20
135.8310411207
 30
0.0
 11
123.4713036195
 21
135.8310411207
 31
0.0
  0
LINE
  5
17C
330
1F
100
AcDbEntity
  8
0
  6
HIDDEN
 62
     7
370
     0
100
AcDbLine
 10
116.0713036195
 20
107.8310411207
 30
0.0
 11
117.0713036195
 21
107.8310411207
 31
0.0
  0
LINE
  5
17D
330
1F
100
AcDbEntity
  8
0
  6
HIDDEN
 62
     7
370
     0
100
AcDbLine
 10
117.0713036195
 20
135.8310411207
 30
0.0
 11
116.0713036195
 21
135.8310411207
 31
0.0
  0
LINE
  5
17E
330
1F
100
AcDbEntity
  8
0
  6
HIDDEN
 62
     7
370
     0
100
AcDbLine
 10
232.7410751798
 20
119.0202750233
 30
0.0
 11
232.7410751798
 21
120.5179615131
 31
0.0
  0
LINE
  5
17F
330
1F
100
AcDbEntity
  8
0
  6
HIDDEN
 62
     7
370
     0
100
AcDbLine
 10
232.7410751798
 20
117.8138201939
 30
0.0
 11
232.7410751798
 21
117.8438619653
 31
0.0
  0
LINE
  5
180
330
1F
100
AcDbEntity
  8
0
  6
HIDDEN
 62
     7
370
     0
100
AcDbLine
 10
228.5410751798
 20
120.5187275895
 30
0.0
 11
228.5410751798
 21
117.8138201939
 31
0.0
  0
LINE
  5
181
330
1F
100
AcDbEntity
  8
0
  6
HIDDEN
 62
     7
370
     0
100
AcDbLine
 10
237.4248524204
 20
117.6711625087
 30
0.0
 11
231.9047624657
 21
120.1772309058
 31
0.0
  0
LINE
  5
182
330
1F
100
AcDbEntity
  8
0
  6
HIDDEN
 62
     7
370
     0
100
AcDbLine
 10
230.423871667
 20
116.2369786232
 30
0.0
 11
237.447180963
 21
113.0484629261
 31
0.0
  0
LINE
  5
183
330
1F
100
AcDbEntity
  8
0
  6
HIDDEN
 62
     7
370
     0
100
AcDbLine
 10
136.6410751798
 20
111.5810411207
 30
0.0
 11
137.8910751798
 21
112.8310411207
 31
0.0
  0
LINE
  5
184
330
1F
100
AcDbEntity
  8
0
  6
HIDDEN
 62
     7
370
     0
100
AcDbLine
 10
137.8910751798
 20
130.8310411207
 30
0.0
 11
136.6410751798
 21
132.0810411207
 31
0.0
  0
LINE
  5
185
330
1F
100
AcDbEntity
  8
0
  6
HIDDEN
 62
     7
370
     0
100
AcDbLine
 10
137.8910751798
 20
112.8310411207
 30
0.0
 11
163.6410751798
 21
112.8310411207
 31
0.0
  0
LINE
  5
186
330
1F
100
AcDbEntity
  8
0
  6
HIDDEN
 62
     7
370
     0
100
AcDbLine
 10
163.6410751798
 20
130.8310411207
 30
0.0
 11
137.8910751798
 21
130.8310411207
 31
0.0
  0
LINE
  5
187
330
1F
100
AcDbEntity
  8
0
  6
HIDDEN
 62
     7
370
     0
100
AcDbLine
 10
163.6410751798
 20
112.8310411207
 30
0.0
 11
166.4951631202
 21
117.5810411207
 31
0.0
  0
LINE
  5
188
330
1F
100
AcDbEntity
  8
0
  6
HIDDEN
 62
     7
370
     0
100
AcDbLine
 10
166.4951631202
 20
126.0810411207
 30
0.0
 11
163.6410751798
 21
130.8310411207
 31
0.0
  0
LINE
  5
189
330
1F
100
AcDbEntity
  8
0
  6
HIDDEN
 62
     7
370
     0
100
AcDbLine
 10
233.6410751798
 20
126.0810411207
 30
0.0
 11
166.4951631202
 21
126.0810411207
 31
0.0
  0
LINE
  5
18A
330
1F
100
AcDbEntity
  8
0
  6
HIDDEN
 62
     7
370
     0
100
AcDbLine
 10
166.4951631202
 20
117.5810411207
 30
0.0
 11
233.6410751798
 21
117.5810411207
 31
0.0
  0
LINE
  5
18B
330
1F
100
AcDbEntity
  8
0
  6
HIDDEN
 62
     7
370
     0
100
AcDbLine
 10
233.6410751798
 20
117.5810411207
 30
0.0
 11
236.1947328107
 21
121.8310411207
 31
0.0
  0
LINE
  5
18C
330
1F
100
AcDbEntity
  8
0
  6
HIDDEN
 62
     7
370
     0
100
AcDbLine
 10
236.1947328107
 20
121.8310411207
 30
0.0
 11
233.6410751798
 21
126.0810411207
 31
0.0
  0
LINE
  5
18D
330
1F
100
AcDbEntity
  8
0
  6
HIDDEN
 62
     7
370
     0
100
AcDbLine
 10
246.2268616175
 20
105.8310411207
 30
0.0
 11
246.2549348779
 21
105.8306469891
 31
0.0
  0
ARC
  5
18E
330
1F
100
AcDbEntity
  8
0
  6
HIDDEN
 62
     7
370
     0
100
AcDbCircle
 10
246.2268616175
 20
104.8310411207
 30
0.0
 40
0.9999999999999799
100
AcDbArc
 50
45.0
 51
64.8454287542
  0
LINE
  5
18F
330
1F
100
AcDbEntity
  8
0
  6
HIDDEN
 62
     7
370
     0
100
AcDbLine
 10
262.0753742058
 20
112.7979298988
 30
0.0
 11
262.0753742058
 21
112.8216470999
 31
0.0
  0
LINE
  5
190
330
1F
100
AcDbEntity
  8
0
  6
HIDDEN
 62
     7
370
     0
100
AcDbLine
 10
257.8753742058
 20
112.8216470999
 30
0.0
 11
257.8753742058
 21
112.4868160259
 31
0.0
  0
LINE
  5
191
330
1F
100
AcDbEntity
  8
0
  6
HIDDEN
 62
     7
370
     0
100
AcDbLine
 10
232.7410751798
 20
123.1420833617
 30
0.0
 11
232.7410751798
 21
124.9212110645
 31
0.0
  0
LINE
  5
192
330
1F
100
AcDbEntity
  8
0
  6
HIDDEN
 62
     7
370
     0
100
AcDbLine
 10
228.5410751798
 20
124.9212110645
 30
0.0
 11
228.5410751798
 21
123.1441207284
 31
0.0
  0
LINE
  5
193
330
1F
100
AcDbEntity
  8
0
  6
HIDDEN
 62
     7
370
     0
100
AcDbLine
 10
267.7406979741
 20
107.2091874009
 30
0.0
 11
267.7406979741
 21
107.8207306538
 31
0.0
  0
LINE
  5
194
330
1F
100
AcDbEntity
  8
0
  6
HIDDEN
 62
     7
370
     0
100
AcDbLine
 10
263.5406979741
 20
107.7987119603
 30
0.0
 11
263.5406979741
 21
107.2091874009
 31
0.0
  0
LINE
  5
195
330
1F
100
AcDbEntity
  8
0
  6
HIDDEN
 62
     7
370
     0
100
AcDbLine
 10
233.1410751798
 20
124.9954815215
 30
0.0
 11
233.1410751798
 21
126.7751025518
 31
0.0
  0
LINE
  5
196
330
1F
100
AcDbEntity
  8
0
  6
HIDDEN
 62
     7
370
     0
100
AcDbLine
 10
228.1410751798
 20
126.7752755704
 30
0.0
 11
228.1410751798
 21
124.9954815215
 31
0.0
  0
LINE
  5
197
330
1F
100
AcDbEntity
  8
VERMASSUNG
  6
CENTERX2
100
AcDbLine
 10
105.1034916515
 20
121.8310411207
 30
0.0
 11
272.6410751798
 21
121.8310411207
 31
0.0
  0
LINE
  5
198
330
1F
100
AcDbEntity
  8
VERMASSUNG
  6
CENTERX2
100
AcDbLine
 10
272.6410751798
 20
99.8310411207
 30
0.0
 11
272.6410751798
 21
121.8310411207
 31
0.0
  0
LINE
  5
199
330
1F
100
AcDbEntity
  8
VERMASSUNG
  6
CENTERX2
100
AcDbLine
 10
272.6410751798
 20
99.8310411207
 30
0.0
 11
286.24412888
 21
99.8310411207
 31
0.0
  0
DIMENSION
  5
19A
330
1F
100
AcDbEntity
  8
VERMASSUNG
100
AcDbDimension
  2
_D
 10
271.5863999584
 20
112.2731161627
 30
0.0
 11
278.8558139662
 21
106.5748151735
 31
0.0
 70
   162
  1
<>
 71
     1
 42
-1.0
  3
SLDDIMSTYLE0
100
AcDb2LineAngularDimension
 13
272.6410751798
 23
99.8310411207
 33
0.0
 14
286.24412888
 24
99.8310411207
 34
0.0
 15
272.6395530591
 25
100.2648441151
 35
0.0
 16
278.8558139662
 26
106.5748151735
 36
0.0
  0
DIMENSION
  5
1A3
330
1F
100
AcDbEntity
  8
VERMASSUNG
100
AcDbDimension
  2
_D_1
 10
287.1447191023
 20
121.8310411207
 30
0.0
 11
287.1447191023
 21
110.8310411207
 31
0.0
 70
   160
  1
<>
 71
     2
 42
-1.0
  3
SLDDIMSTYLE1
100
AcDbAlignedDimension
 13
272.6410751798
 23
99.8310411207
 33
0.0
 14
272.6410751798
 24
121.8310411207
 34
0.0
 50
90.0
100
AcDbRotatedDimension
  0
DIMENSION
  5
1AE
330
1F
100
AcDbEntity
  8
VERMASSUNG
100
AcDbDimension
  2
_D_2
 10
272.6410751798
 20
77.8815655885
 30
0.0
 11
210.1410751798
 21
77.8815655885
 31
0.0
 70
   160
  1
<>
 71
     2
 42
-1.0
  3
SLDDIMSTYLE1
100
AcDbAlignedDimension
 13
147.6410751798
 23
90.8310411207
 33
0.0
 14
272.6410751798
 24
99.8310411207
 34
0.0
100
AcDbRotatedDimension
  0
DIMENSION
  5
1B8
330
1F
100
AcDbEntity
  8
VERMASSUNG
100
AcDbDimension
  2
_D_3
 10
272.6410751798
 20
65.647907528
 30
0.0
 11
191.1410751798
 21
65.647907528
 31
0.0
 70
   160
  1
<>
 71
     2
 42
-1.0
  3
SLDDIMSTYLE1
100
AcDbAlignedDimension
 13
109.6410751798
 23
101.5387031282
 33
0.0
 14
272.6410751798
 24
99.8310411207
 34
0.0
 50
0.0
100
AcDbRotatedDimension
  0
DIMENSION
  5
1C2
330
1F
100
AcDbEntity
  8
VERMASSUNG
100
AcDbDimension
  2
_D_4
 10
187.2143823319
 20
105.8310411207
 30
0.0
 11
187.2143823319
 21
112.7277953221
 31
0.0
 70
   160
  1
%%c<>
 71
     2
 42
-1.0
  3
SLDDIMSTYLE1
100
AcDbAlignedDimension
 13
173.6410751798
 23
137.8310411207
 33
0.0
 14
173.6410751798
 24
105.8310411207
 34
0.0
 50
90.0
100
AcDbRotatedDimension
  0
DIMENSION
  5
1CB
330
1F
100
AcDbEntity
  8
VERMASSUNG
100
AcDbDimension
  2
_D_5
 10
99.6410751798
 20
90.3310411207
 30
0.0
 11
99.6410751798
 21
121.8310411207
 31
0.0
 70
   160
  1
PSC%%c<>
 71
     2
 42
-1.0
  3
SLDDIMSTYLE1
100
AcDbAlignedDimension
 13
148.1410751798
 23
153.3310411207
 33
0.0
 14
148.1410751798
 24
90.3310411207
 34
0.0
 50
90.0
100
AcDbRotatedDimension
  0
LINE
  5
1D7
330
1F
100
AcDbEntity
  8
0
  6
Continuous
 62
     7
370
    15
100
AcDbLine
 10
48.1461444409
 20
99.8310411207
 30
0.0
 11
51.3680447352
 21
100.457315096
 31
0.0
  0
LINE
  5
1D8
330
1F
100
AcDbEntity
  8
0
  6
Continuous
 62
     7
370
    15
100
AcDbLine
 10
47.4790135546
 20
113.6721333842
 30
0.0
 11
47.1771748341
 21
113.6879520812
 31
0.0
  0
SPLINE
  5
1D9
330
1F
100
AcDbEntity
  8
0
  6
Continuous
 62
     7
370
    15
100
AcDbSpline
210
0.0
220
0.0
230
1.0
 70
     8
 71
     3
 72
    25
 73
    21
 74
     0
 42
0.00000001
 43
0.00000001
 12
1.0
 22
0.0
 32
0.0
 13
1.0
 23
0.0
 33
0.0
 40
0.0
 40
0.0
 40
0.0
 40
0.0
 40
0.0199998901848373
 40
0.0408828466159356
 40
0.0626488720923099
 40
0.0923707154079631
 40
0.1253136303743135
 40
0.1879819105472006
 40
0.2506511419271175
 40
0.3133132887856395
 40
0.3759603830168111
 40
0.5011343245869947
 40
0.6261581682074341
 40
0.6898548630570986
 40
0.7510243910057645
 40
0.8143052709410692
 40
0.8756460386477826
 40
0.917787001210568
 40
0.9592380420105455
 40
1.0
 40
1.0
 40
1.0
 40
1.0
 10
64.64614445152597
 20
112.1255614128477
 30
0.0
 10
64.60295604154564
 20
112.0231942758878
 30
0.0
 10
64.51467229976035
 20
111.8139401289817
 30
0.0
 10
64.37239064002519
 20
111.4963726619746
 30
0.0
 10
64.20187302471841
 20
111.1324250347189
 30
0.0
 10
63.99355474953047
 20
110.7124090069755
 30
0.0
 10
63.66791987023684
 20
110.097494802388
 30
0.0
 10
63.22532409192418
 20
109.3382614466326
 30
0.0
 10
62.65245478518545
 20
108.4661903870349
 30
0.0
 10
62.03402000511482
 20
107.6263051694133
 30
0.0
 10
61.15158420143734
 20
106.5532068990862
 30
0.0
 10
59.9438374144409
 20
105.3040409277318
 30
0.0
 10
58.60479896287713
 20
104.1880717175394
 30
0.0
 10
57.4718855041832
 20
103.3904577351278
 30
0.0
 10
56.58762646103595
 20
102.8366854550619
 30
0.0
 10
55.68605802015563
 20
102.3376738052337
 30
0.0
 10
54.85365851031786
 20
101.9339316102266
 30
0.0
 10
54.11501793657913
 20
101.6165511797749
 30
0.0
 10
53.47214970629998
 20
101.3657996133266
 30
0.0
 10
53.04000758726426
 20
101.2195186532193
 30
0.0
 10
52.8257475656012
 20
101.1469912130535
 30
0.0
  0
SPLINE
  5
1DA
330
1F
100
AcDbEntity
  8
0
  6
Continuous
 62
     7
370
    15
100
AcDbSpline
210
0.0
220
0.0
230
1.0
 70
     8
 71
     3
 72
    29
 73
    25
 74
     0
 42
0.00000001
 43
0.00000001
 12
1.0
 22
0.0
 32
0.0
 13
1.0
 23
0.0
 33
0.0
 40
0.0
 40
0.0
 40
0.0
 40
0.0
 40
0.0248585524673031
 40
0.0497062406976314
 40
0.0745560622324373
 40
0.0994210112677762
 40
0.1243140583100022
 40
0.1554263774936281
 40
0.1865867279805325
 40
0.2489251963033781
 40
0.3113303818025508
 40
0.3737960827805121
 40
0.4363152917591076
 40
0.4988803158591515
 40
0.5614828870091169
 40
0.6241142219351301
 40
0.6867652256274537
 40
0.7494264786089511
 40
0.8120885030433348
 40
0.843404321123711
 40
0.8747479337716954
 40
0.9164935886809359
 40
0.9582246595433842
 40
1.0
 40
1.0
 40
1.0
 40
1.0
 10
52.79001506925591
 20
101.6579693284254
 30
0.0
 10
52.92541949820861
 20
101.7037478975213
 30
0.0
 10
53.19616917866169
 20
101.7952850285457
 30
0.0
 10
53.5980397567693
 20
101.9443809428889
 30
0.0
 10
53.99657347148994
 20
102.1020361240395
 30
0.0
 10
54.39148145869154
 20
102.2691037498294
 30
0.0
 10
54.81521297140004
 20
102.4599240005983
 30
0.0
 10
55.26640977640216
 20
102.6773604922909
 30
0.0
 10
55.90212677513177
 20
103.0065486380047
 30
0.0
 10
56.67922211731189
 20
103.4524545115353
 30
0.0
 10
57.57990281228314
 20
104.0403815899545
 30
0.0
 10
58.44624144568942
 20
104.6794249392168
 30
0.0
 10
59.27530092020465
 20
105.3675185512851
 30
0.0
 10
60.06441441286893
 20
106.1023031184176
 30
0.0
 10
60.81087834086742
 20
106.8814405476907
 30
0.0
 10
61.51232197868513
 20
107.7022531717095
 30
0.0
 10
62.16632665704394
 20
108.562116091482
 30
0.0
 10
62.77080210392045
 20
109.4580933194292
 30
0.0
 10
63.23155775109766
 20
110.2324213614705
 30
0.0
 10
63.57345270110699
 20
110.8669581303803
 30
0.0
 10
63.84335139623121
 20
111.4035488677137
 30
0.0
 10
64.12021194818394
 20
112.0035343041457
 30
0.0
 10
64.39918456526146
 20
112.6685570470308
 30
0.0
 10
64.56379258814545
 20
113.1204211033769
 30
0.0
 10
64.64614023174846
 20
113.3464729058168
 30
0.0
  0
SPLINE
  5
1DB
330
1F
100
AcDbEntity
  8
0
  6
Continuous
 62
     7
370
    15
100
AcDbSpline
210
0.0
220
0.0
230
1.0
 70
    24
 71
     3
 72
    10
 73
     6
 74
     0
 42
0.00000001
 43
0.00000001
 12
1.0
 22
0.0
 32
0.0
 13
1.0
 23
0.0
 33
0.0
 40
0.0
 40
0.0
 40
0.0
 40
0.0
 40
0.3293635822219304
 40
0.6626577436969242
 40
1.0
 40
1.0
 40
1.0
 40
1.0
 10
64.64614444094835
 20
113.34647400028
 30
0.0
 10
64.64614444094835
 20
113.2115880198558
 30
0.0
 10
64.64614444094835
 20
112.9402063484479
 30
0.0
 10
64.64614444094835
 20
112.5331646819783
 30
0.0
 10
64.64614444094835
 20
112.2619764888841
 30
0.0
 10
64.64614444094835
 20
112.1255639193964
 30
0.0
  0
LINE
  5
1DC
330
1F
100
AcDbEntity
  8
0
  6
Continuous
 62
     7
370
    15
100
AcDbLine
 10
52.0165784153
 20
112.7186508298
 30
0.0
 11
49.6441800307
 21
112.5268312331
 31
0.0
  0
LINE
  5
1DD
330
1F
100
AcDbEntity
  8
0
  6
Continuous
 62
     7
370
    15
100
AcDbLine
 10
49.6441800307
 20
112.5268312331
 30
0.0
 11
47.5528022313
 21
112.6169061447
 31
0.0
  0
LINE
  5
1DE
330
1F
100
AcDbEntity
  8
0
  6
Continuous
 62
     7
370
    15
100
AcDbLine
 10
47.45868505
 20
113.9628445429
 30
0.0
 11
47.5528022313
 21
112.6169061447
 31
0.0
  0
LINE
  5
1DF
330
1F
100
AcDbEntity
  8
0
  6
Continuous
 62
     7
370
    15
100
AcDbLine
 10
64.6461444409
 20
114.4160852855
 30
0.0
 11
47.45868505
 21
113.9628445429
 31
0.0
  0
LINE
  5
1E0
330
1F
100
AcDbEntity
  8
0
  6
Continuous
 62
     7
370
    15
100
AcDbLine
 10
64.6461444409
 20
113.3464743581
 30
0.0
 11
64.6461444409
 21
114.4160852855
 31
0.0
  0
LINE
  5
1E1
330
1F
100
AcDbEntity
  8
0
  6
Continuous
 62
     7
370
    15
100
AcDbLine
 10
52.0165784153
 20
112.7186508298
 30
0.0
 11
52.0388234968
 21
112.4005313428
 31
0.0
  0
ARC
  5
1E2
330
1F
100
AcDbEntity
  8
0
  6
Continuous
 62
     7
370
    15
100
AcDbCircle
 10
48.1461444409
 20
121.8310411207
 30
0.0
 40
16.50000000000007
100
AcDbArc
 50
0.0
 51
98.2912714864
  0
LINE
  5
1E3
330
1F
100
AcDbEntity
  8
0
  6
Continuous
 62
     7
370
    15
100
AcDbLine
 10
64.6461444409
 20
114.4160852855
 30
0.0
 11
64.6461444409
 21
121.8310411207
 31
0.0
  0
LINE
  5
1E4
330
1F
100
AcDbEntity
  8
0
  6
Continuous
 62
     7
370
    15
100
AcDbLine
 10
45.7667544552
 20
138.1585793092
 30
0.0
 11
47.45868505
 21
113.9628445429
 31
0.0
  0
SPLINE
  5
1E5
330
1F
100
AcDbEntity
  8
0
  6
Continuous
 62
     7
370
    15
100
AcDbSpline
210
0.0
220
0.0
230
1.0
 70
     8
 71
     3
 72
    14
 73
    10
 74
     0
 42
0.00000001
 43
0.00000001
 12
1.0
 22
0.0
 32
0.0
 13
1.0
 23
0.0
 33
0.0
 40
0.0
 40
0.0
 40
0.0
 40
0.0
 40
0.2500000000000001
 40
0.2500000000000001
 40
0.5000000000000002
 40
0.5000000000000002
 40
0.7500000000000001
 40
0.7500000000000001
 40
1.0
 40
1.0
 40
1.0
 40
1.0
 10
41.43489485332219
 20
136.3554732601607
 30
0.0
 10
42.02448031733272
 20
136.6279007922136
 30
0.0
 10
42.59279980514779
 20
136.8470263458482
 30
0.0
 10
43.66619566743357
 20
137.2014512620254
 30
0.0
 10
44.14118900487873
 20
137.3272521390028
 30
0.0
 10
44.94989714977974
 20
137.5140327747941
 30
0.0
 10
45.26251434150809
 20
137.5705591921366
 30
0.0
 10
45.69343772445966
 20
137.6434407309545
 30
0.0
 10
45.80173382424795
 20
137.6583510267334
 30
0.0
 10
45.80173382424795
 20
137.6583510267334
 30
0.0
  0
SPLINE
  5
1E6
330
1F
100
AcDbEntity
  8
0
  6
Continuous
 62
     7
370
    15
100
AcDbSpline
210
0.0
220
0.0
230
1.0
 70
     8
 71
     3
 72
    18
 73
    14
 74
     0
 42
0.00000001
 43
0.00000001
 12
1.0
 22
0.0
 32
0.0
 13
1.0
 23
0.0
 33
0.0
 40
0.0
 40
0.0
 40
0.0
 40
0.0
 40
0.0193397690813015
 40
0.1832430467111845
 40
0.2664547688403827
 40
0.3509052746143567
 40
0.4319176790746254
 40
0.5135144733797662
 40
0.5960231596091514
 40
0.6797838074131546
 40
0.7588685035308625
 40
0.918534768698739
 40
1.0
 40
1.0
 40
1.0
 40
1.0
 10
47.7261896411479
 20
105.8366745531463
 30
0.0
 10
47.71508399806914
 20
105.8369296834046
 30
0.0
 10
47.60985875650167
 20
105.83934702591
 30
0.0
 10
47.37572723178732
 20
105.8481577050054
 30
0.0
 10
47.03045328569178
 20
105.8691581348584
 30
0.0
 10
46.7332772369481
 20
105.8925082710512
 30
0.0
 10
46.4062930961939
 20
105.924712704707
 30
0.0
 10
46.05258338632649
 20
105.967145222477
 30
0.0
 10
45.66825100564954
 20
106.0223716312524
 30
0.0
 10
45.26433652379036
 20
106.0908001418454
 30
0.0
 10
44.70816349084728
 20
106.2004572877937
 30
0.0
 10
44.1253238949952
 20
106.3376219668348
 30
0.0
 10
43.67407202318793
 20
106.4694102422208
 30
0.0
 10
43.52161853349373
 20
106.5139343400443
 30
0.0
  0
ELLIPSE
  5
1E7
330
1F
100
AcDbEntity
  8
0
  6
Continuous
 62
     7
370
    15
100
AcDbEllipse
 10
39.1115138754
 20
115.3598127174
 30
0.0
 11
-1.733036295194203
 21
1.855089312013874
 31
0.0
210
0.0
220
0.0
230
1.0
 40
0.8112573031
 41
0.0
 42
6.283185307179586
  0
ARC
  5
1E8
330
1F
100
AcDbEntity
  8
0
  6
Continuous
 62
     7
370
    15
100
AcDbCircle
 10
48.1461444409
 20
121.8310411207
 30
0.0
 40
16.00000000000005
100
AcDbArc
 50
114.8000641757
 51
253.1999358243
  0
SPLINE
  5
1E9
330
1F
100
AcDbEntity
  8
0
  6
Continuous
 62
     7
370
    15
100
AcDbSpline
210
0.0
220
0.0
230
1.0
 70
     8
 71
     3
 72
    31
 73
    27
 74
     0
 42
0.00000001
 43
0.00000001
 12
1.0
 22
0.0
 32
0.0
 13
1.0
 23
0.0
 33
0.0
 40
0.0
 40
0.0
 40
0.0
 40
0.0
 40
0.0001457285209004
 40
0.044558276577916
 40
0.089905943356626
 40
0.1355152509608583
 40
0.1980896672511743
 40
0.2611434569991791
 40
0.325514614921953
 40
0.3902846107484851
 40
0.4335702887848707
 40
0.477056824706527
 40
0.508043200801437
 40
0.5394853288590323
 40
0.5585338546669067
 40
0.5780799500095015
 40
0.597157704676966
 40
0.6168056710827188
 40
0.6493419546492878
 40
0.682617837840612
 40
0.7356350474474931
 40
0.7891033125641735
 40
0.8435816215414887
 40
0.8983696762967287
 40
0.953510976941903
 40
0.9999999999999999
 40
0.9999999999999999
 40
0.9999999999999999
 40
0.9999999999999999
 10
39.89553617992427
 20
117.25627894811
 30
0.0
 10
39.89546683109222
 20
117.2561495831663
 30
0.0
 10
39.87426257800721
 20
117.2165946703417
 30
0.0
 10
39.81909907760714
 20
117.1466293035158
 30
0.0
 10
39.73056440842416
 20
117.0469719216573
 30
0.0
 10
39.6162454462549
 20
116.9472229153194
 30
0.0
 10
39.47524526967369
 20
116.8502740736277
 30
0.0
 10
39.30301243237179
 20
116.7604107673953
 30
0.0
 10
39.1145257443664
 20
116.6857111129229
 30
0.0
 10
38.93300597104344
 20
116.6315211008651
 30
0.0
 10
38.76360929385753
 20
116.5909049243463
 30
0.0
 10
38.6245419309698
 20
116.561832237542
 30
0.0
 10
38.49195668199107
 20
116.5347175567954
 30
0.0
 10
38.38360427075003
 20
116.5106002436898
 30
0.0
 10
38.28649105528385
 20
116.4849837960292
 30
0.0
 10
38.20539346979725
 20
116.4599905824635
 30
0.0
 10
38.12518596708013
 20
116.4311572793329
 30
0.0
 10
38.03208039210428
 20
116.3932883688184
 30
0.0
 10
37.92940507940316
 20
116.3467767335957
 30
0.0
 10
37.79844236759065
 20
116.2853643946506
 30
0.0
 10
37.65476492542898
 20
116.2208518204743
 30
0.0
 10
37.49591376961065
 20
116.1602848262515
 30
0.0
 10
37.33868856847321
 20
116.1142796635844
 30
0.0
 10
37.18205940138086
 20
116.0855278967984
 30
0.0
 10
37.03452853425832
 20
116.0737705829718
 30
0.0
 10
36.9406044516763
 20
116.0825288373249
 30
0.0
 10
36.89764051451897
 20
116.086535148372
 30
0.0
  0
CIRCLE
  5
1EA
330
1F
100
AcDbEntity
  8
0
  6
Continuous
 62
     7
370
    15
100
AcDbCircle
 10
48.1461444409
 20
121.8310411207
 30
0.0
 40
31.50000000000014
  0
LINE
  5
1EB
330
1F
100
AcDbEntity
  8
0
  6
Continuous
 62
     7
370
    15
100
AcDbLine
 10
50.528344554
 20
112.4655871435
 30
0.0
 11
47.2761097993
 21
112.2731161627
 31
0.0
  0
LINE
  5
1EC
330
1F
100
AcDbEntity
  8
0
  6
Continuous
 62
     7
370
    15
100
AcDbLine
 10
52.0388234968
 20
112.4005313428
 30
0.0
 11
50.528344554
 21
112.4655871435
 31
0.0
  0
LINE
  5
1ED
330
1F
100
AcDbEntity
  8
0
  6
Continuous
 62
     7
370
    15
100
AcDbLine
 10
52.852492336
 20
100.7645248306
 30
0.0
 11
52.0388234968
 21
112.4005313428
 31
0.0
  0
LINE
  5
1EE
330
1F
100
AcDbEntity
  8
0
  6
Continuous
 62
     7
370
    15
100
AcDbLine
 10
52.852492336
 20
100.7645248306
 30
0.0
 11
51.3680447352
 21
100.457315096
 31
0.0
  0
LINE
  5
1EF
330
1F
100
AcDbEntity
  8
0
  6
Continuous
 62
     7
370
    15
100
AcDbLine
 10
51.3680447352
 20
100.457315096
 30
0.0
 11
48.1158099805
 21
100.2648441151
 31
0.0
  0
LINE
  5
1F0
330
1F
100
AcDbEntity
  8
0
  6
Continuous
 62
     7
370
    15
100
AcDbLine
 10
48.1158099805
 20
100.2648441151
 30
0.0
 11
47.2761097993
 21
112.2731161627
 31
0.0
  0
LINE
  5
1F1
330
1F
100
AcDbEntity
  8
0
  6
Continuous
 62
     7
370
    15
100
AcDbLine
 10
48.1461444409
 20
99.8310411207
 30
0.0
 11
48.1158099805
 21
100.2648441151
 31
0.0
  0
LINE
  5
1F2
330
1F
100
AcDbEntity
  8
0
  6
Continuous
 62
     7
370
    15
100
AcDbLine
 10
50.528344554
 20
112.4655871435
 30
0.0
 11
47.9188379605
 21
112.6011411136
 31
0.0
  0
LINE
  5
1F3
330
1F
100
AcDbEntity
  8
0
  6
Continuous
 62
     7
370
    15
100
AcDbLine
 10
47.5525742012
 20
112.6201671268
 30
0.0
 11
47.2507452585
 21
112.6358459956
 31
0.0
  0
LINE
  5
1F4
330
1F
100
AcDbEntity
  8
0
  6
Continuous
 62
     7
370
    15
100
AcDbLine
 10
47.2761097993
 20
112.2731161627
 30
0.0
 11
47.2507452585
 21
112.6358459956
 31
0.0
  0
LINE
  5
1F5
330
1F
100
AcDbEntity
  8
0
  6
Continuous
 62
     7
370
    15
100
AcDbLine
 10
47.4791099546
 20
113.6707547995
 30
0.0
 11
47.1772810119
 21
113.6864336683
 31
0.0
  0
LINE
  5
1F6
330
1F
100
AcDbEntity
  8
0
  6
Continuous
 62
     7
370
    15
100
AcDbLine
 10
47.2507452585
 20
112.6358459956
 30
0.0
 11
47.1772810119
 21
113.6864336683
 31
0.0
  0
LINE
  5
1F7
330
1F
100
AcDbEntity
  8
0
  6
Continuous
 62
     7
370
    15
100
AcDbLine
 10
47.1772810119
 20
113.6864336683
 30
0.0
 11
47.1771748341
 21
113.6879520812
 31
0.0
  0
CIRCLE
  5
1F8
330
1F
100
AcDbEntity
  8
VERMASSUNG
  6
CENTERX2
100
AcDbCircle
 10
48.1461444409
 20
119.881881919
 30
0.0
 40
20.00000000000001
  0
DIMENSION
  5
1F9
330
1F
100
AcDbEntity
  8
VERMASSUNG
100
AcDbDimension
  2
_D_6
 10
36.8571464724
 20
103.3725353279
 30
0.0
 11
26.338671993
 21
87.990023853
 31
0.0
 70
   160
  1
%%c<> min. 
 71
     2
 42
-1.0
  3
SLDDIMSTYLE2
100
AcDbAlignedDimension
 13
59.4351424095
 23
136.3912285102
 33
0.0
 14
36.8571464724
 24
103.3725353279
 34
0.0
 50
55.6359000086
100
AcDbRotatedDimension
  0
DIMENSION
  5
208
330
1F
100
AcDbEntity
  8
VERMASSUNG
100
AcDbDimension
  2
_D_7
 10
48.1461444409
 20
87.8310411207
 30
0.0
 11
38.7742290214
 21
159.9135869367
 31
0.0
 70
   162
  1
<>
 71
     1
 42
-1.0
  3
SLDDIMSTYLE3
100
AcDb2LineAngularDimension
 13
47.45868505
 23
113.9628445429
 33
0.0
 14
47.5528022313
 24
112.6169061447
 34
0.0
 15
48.1461444409
 25
155.8310411207
 35
0.0
 16
46.1721005107
 26
160.6609392056
 36
0.0
  0
INSERT
  5
220
330
1F
100
AcDbEntity
  8
VERMASSUNG
100
AcDbBlockReference
  2
SW_CENTERMARKSYMBOL_0
 10
48.1461444409
 20
121.8310411207
 30
0.0
  0
OLE2FRAME
  5
221
330
1F
100
AcDbEntity
  8
0
100
AcDbOle2Frame
 70
     2
  3
Paintbrush-Bild
 10
13.8511154363
 20
38.264191557
 30
0.0
 11
51.6290888628
 21
31.9806341108
 31
0.0
 71
     2
 72
     0
 73
     1
 90
    12928
310
80552BED0767C5B32B40DDAF6807D121434000000000000000006FFBDDFB85D0
310
4940DDAF6807D121434000000000000000006FFBDDFB85D04940416F4BD60AFB
310
3F4000000000000000002BED0767C5B32B40416F4BD60AFB3F40000000000000
310
0000000000000100000000010000010000000100000000000100000000320000
310
D0CF11E0A1B11AE1000000000000000000000000000000003E000300FEFF0900
310
0600000000000000000000000100000001000000000000000010000002000000
310
01000000FEFFFFFF0000000000000000FFFFFFFFFFFFFFFFFFFFFFFFFFFFFFFF
310
FFFFFFFFFFFFFFFFFFFFFFFFFFFFFFFFFFFFFFFFFFFFFFFFFFFFFFFFFFFFFFFF
310
FFFFFFFFFFFFFFFFFFFFFFFFFFFFFFFFFFFFFFFFFFFFFFFFFFFFFFFFFFFFFFFF
310
FFFFFFFFFFFFFFFFFFFFFFFFFFFFFFFFFFFFFFFFFFFFFFFFFFFFFFFFFFFFFFFF
310
FFFFFFFFFFFFFFFFFFFFFFFFFFFFFFFFFFFFFFFFFFFFFFFFFFFFFFFFFFFFFFFF
310
FFFFFFFFFFFFFFFFFFFFFFFFFFFFFFFFFFFFFFFFFFFFFFFFFFFFFFFFFFFFFFFF
310
FFFFFFFFFFFFFFFFFFFFFFFFFFFFFFFFFFFFFFFFFFFFFFFFFFFFFFFFFFFFFFFF
310
FFFFFFFFFFFFFFFFFFFFFFFFFFFFFFFFFFFFFFFFFFFFFFFFFFFFFFFFFFFFFFFF
310
FFFFFFFFFFFFFFFFFFFFFFFFFFFFFFFFFFFFFFFFFFFFFFFFFFFFFFFFFFFFFFFF
310
FFFFFFFFFFFFFFFFFFFFFFFFFFFFFFFFFFFFFFFFFFFFFFFFFFFFFFFFFFFFFFFF
310
FFFFFFFFFFFFFFFFFFFFFFFFFFFFFFFFFFFFFFFFFFFFFFFFFFFFFFFFFFFFFFFF
310
FFFFFFFFFFFFFFFFFFFFFFFFFFFFFFFFFFFFFFFFFFFFFFFFFFFFFFFFFFFFFFFF
310
FFFFFFFFFFFFFFFFFFFFFFFFFFFFFFFFFFFFFFFFFFFFFFFFFFFFFFFFFFFFFFFF
310
FFFFFFFFFFFFFFFFFFFFFFFFFFFFFFFFFFFFFFFFFFFFFFFFFFFFFFFFFFFFFFFF
310
FDFFFFFFFEFFFFFFFEFFFFFFFEFFFFFF05000000060000000700000008000000
310
090000000A0000000B0000000C0000000D0000000E0000000F00000010000000
310
11000000120000001300000014000000150000001600000017000000FEFFFFFF
310
FFFFFFFFFFFFFFFFFFFFFFFFFFFFFFFFFFFFFFFFFFFFFFFFFFFFFFFFFFFFFFFF
310
FFFFFFFFFFFFFFFFFFFFFFFFFFFFFFFFFFFFFFFFFFFFFFFFFFFFFFFFFFFFFFFF
310
FFFFFFFFFFFFFFFFFFFFFFFFFFFFFFFFFFFFFFFFFFFFFFFFFFFFFFFFFFFFFFFF
310
FFFFFFFFFFFFFFFFFFFFFFFFFFFFFFFFFFFFFFFFFFFFFFFFFFFFFFFFFFFFFFFF
310
FFFFFFFFFFFFFFFFFFFFFFFFFFFFFFFFFFFFFFFFFFFFFFFFFFFFFFFFFFFFFFFF
310
FFFFFFFFFFFFFFFFFFFFFFFFFFFFFFFFFFFFFFFFFFFFFFFFFFFFFFFFFFFFFFFF
310
FFFFFFFFFFFFFFFFFFFFFFFFFFFFFFFFFFFFFFFFFFFFFFFFFFFFFFFFFFFFFFFF
310
FFFFFFFFFFFFFFFFFFFFFFFFFFFFFFFFFFFFFFFFFFFFFFFFFFFFFFFFFFFFFFFF
310
FFFFFFFFFFFFFFFFFFFFFFFFFFFFFFFFFFFFFFFFFFFFFFFFFFFFFFFFFFFFFFFF
310
FFFFFFFFFFFFFFFFFFFFFFFFFFFFFFFFFFFFFFFFFFFFFFFFFFFFFFFFFFFFFFFF
310
FFFFFFFFFFFFFFFFFFFFFFFFFFFFFFFFFFFFFFFFFFFFFFFFFFFFFFFFFFFFFFFF
310
FFFFFFFFFFFFFFFFFFFFFFFFFFFFFFFFFFFFFFFFFFFFFFFFFFFFFFFFFFFFFFFF
310
FFFFFFFFFFFFFFFFFFFFFFFFFFFFFFFFFFFFFFFFFFFFFFFFFFFFFFFFFFFFFFFF
310
52006F006F007400200045006E00740072007900000000000000000000000000
310
0000000000000000000000000000000000000000000000000000000000000000
310
16000500FFFFFFFFFFFFFFFF020000000A00030000000000C000000000000046
310
000000000000000000000000406DB9406042CD0103000000C000000000000000
310
01004F006C006500000000000000000000000000000000000000000000000000
310
0000000000000000000000000000000000000000000000000000000000000000
310
0A000200FFFFFFFFFFFFFFFFFFFFFFFF00000000000000000000000000000000
310
0000000000000000000000000000000000000000000000001400000000000000
310
010043006F006D0070004F0062006A0000000000000000000000000000000000
310
0000000000000000000000000000000000000000000000000000000000000000
310
120002010100000003000000FFFFFFFF00000000000000000000000000000000
310
0000000000000000000000000000000000000000010000004D00000000000000
310
01004F006C006500310030004E00610074006900760065000000000000000000
310
0000000000000000000000000000000000000000000000000000000000000000
310
1A000200FFFFFFFFFFFFFFFFFFFFFFFF00000000000000000000000000000000
310
0000000000000000000000000000000000000000040000002426000000000000
310
FEFFFFFF02000000FEFFFFFFFFFFFFFFFFFFFFFFFFFFFFFFFFFFFFFFFFFFFFFF
310
FFFFFFFFFFFFFFFFFFFFFFFFFFFFFFFFFFFFFFFFFFFFFFFFFFFFFFFFFFFFFFFF
310
FFFFFFFFFFFFFFFFFFFFFFFFFFFFFFFFFFFFFFFFFFFFFFFFFFFFFFFFFFFFFFFF
310
FFFFFFFFFFFFFFFFFFFFFFFFFFFFFFFFFFFFFFFFFFFFFFFFFFFFFFFFFFFFFFFF
310
FFFFFFFFFFFFFFFFFFFFFFFFFFFFFFFFFFFFFFFFFFFFFFFFFFFFFFFFFFFFFFFF
310
FFFFFFFFFFFFFFFFFFFFFFFFFFFFFFFFFFFFFFFFFFFFFFFFFFFFFFFFFFFFFFFF
310
FFFFFFFFFFFFFFFFFFFFFFFFFFFFFFFFFFFFFFFFFFFFFFFFFFFFFFFFFFFFFFFF
310
FFFFFFFFFFFFFFFFFFFFFFFFFFFFFFFFFFFFFFFFFFFFFFFFFFFFFFFFFFFFFFFF
310
FFFFFFFFFFFFFFFFFFFFFFFFFFFFFFFFFFFFFFFFFFFFFFFFFFFFFFFFFFFFFFFF
310
FFFFFFFFFFFFFFFFFFFFFFFFFFFFFFFFFFFFFFFFFFFFFFFFFFFFFFFFFFFFFFFF
310
FFFFFFFFFFFFFFFFFFFFFFFFFFFFFFFFFFFFFFFFFFFFFFFFFFFFFFFFFFFFFFFF
310
FFFFFFFFFFFFFFFFFFFFFFFFFFFFFFFFFFFFFFFFFFFFFFFFFFFFFFFFFFFFFFFF
310
FFFFFFFFFFFFFFFFFFFFFFFFFFFFFFFFFFFFFFFFFFFFFFFFFFFFFFFFFFFFFFFF
310
FFFFFFFFFFFFFFFFFFFFFFFFFFFFFFFFFFFFFFFFFFFFFFFFFFFFFFFFFFFFFFFF
310
FFFFFFFFFFFFFFFFFFFFFFFFFFFFFFFFFFFFFFFFFFFFFFFFFFFFFFFFFFFFFFFF
310
FFFFFFFFFFFFFFFFFFFFFFFFFFFFFFFFFFFFFFFFFFFFFFFFFFFFFFFFFFFFFFFF
310
0100000200000000000000000000000000000000000000000000000000000000
310
0000000000000000000000000000000000000000000000000000000000000000
310
0100FEFF030A0000FFFFFFFF0A00030000000000C00000000000004607000000
310
5042727573680007000000504272757368000700000050427275736800F439B2
310
7100000000000000000000000000000000000000000000000000000000000000
310
0000000000000000000000000000000000000000000000000000000000000000
310
0000000000000000000000000000000000000000000000000000000000000000
310
0000000000000000000000000000000000000000000000000000000000000000
310
0000000000000000000000000000000000000000000000000000000000000000
310
0000000000000000000000000000000000000000000000000000000000000000
310
0000000000000000000000000000000000000000000000000000000000000000
310
0000000000000000000000000000000000000000000000000000000000000000
310
0000000000000000000000000000000000000000000000000000000000000000
310
0000000000000000000000000000000000000000000000000000000000000000
310
0000000000000000000000000000000000000000000000000000000000000000
310
0000000000000000000000000000000000000000000000000000000000000000
310
20260000424D0E260000000000003E00000028000000B40200006E0000000100
310
01000000000000000000130B0000130B00000200000002000000000000FFFFFF
310
FFFFFFFFFFFFFFFFFFFFFFFFFFFFFFFFFFFFFFFFFFFFFFFFFFFFFFFFFFFFFFFF
310
FFFFFFFFFFFFFFFFFFFFFFFFFFFFFFFFFFFFFFFFFFFFFFFFFFFFFFFFFFFFFFFF
310
FFFFFFFFFFFFFFFFFFFFFFFFFFFFFFFFFFFFFFFFFFFFFFFFF000FFFFFFFFFFFF
310
FFFFFFFFFFFFFFFFFFFFFFFFFFFFFFFFFFFFFFFFFFFFFFFFFFFFFFFFFFFFFFFF
310
FFFFFFFFFFFFFFFFFFFFFFFFFFFFFFFFFFFFFFFFFFFFFFFFFFFFFFFFFFFFFFFF
310
FFFFFFFFFFFFFFFFFFFFFFFFFFFFFFFFF000FFFFFFFFFFFFFFFFFFFFFFFFFFFF
310
FFFFFFFFFFFFFFFFFFFFFFFFFFFFFFFFFFFFFFFFFFFFFFFFFFFFFFFFFFFFFFFF
310
FFFFFFFFFFFFFFFFFFFFFFFFFFFFFFFFFFFFFFFFFFFFFFFFFFFFFFFFFFFFFFFF
310
FFFFFFFFFFFFFFFFF000FFFFFFFFFFFFFFFFFFFFFFFFFFFFFFFFFFFFFFFFFFFF
310
FFFFFFFFFFFFFFFFFFFFFFFFFFFFFFFFFFFFFFFFFFFFFFFFFFFFFFFFFFFFFFFF
310
FFFFFFFFFFFFFFFFFFFFFFFFFFFFFFFFFFFFFFFFFFFFFFFFFFFFFFFFFFFFFFFF
310
F000FFFFFFFFFFFFFFFFFFFFFFFFFFFFFFFFFFFFFFFFFFFFFFFFFFFFFFFFFFFF
310
FFFFFFFFFFFFFFFFFFFFFFFFFFFFFFFFFFFFFFFFFFFFFFFFFFFFFFFFFFFFFFFF
310
FFFFFFFFFFFFFFFFFFFFFFFFFFFFFFFFFFFFFFFFFFFFFFFFF000FFFFFFFFFFFF
310
FFFFFFFFFFFFFFFFFFFFFFFFFFFFFFFFFFFFFFFFFFFFFFFFFFFFFFFFFFFFFFFF
310
FFFFFFFFFFFFFFFFFFFFFFFFFFFFFFFFFFFFFFFFFFFFFFFFFFFFFFFFFFFFFFFF
310
FFFFFFFFFFFFFFFFFFFFFFFFFFFFFFFFF000FFFFFFFFFFFFFFFFFFFFFFFFFFFF
310
FFFFFFFFFFFFFFFFFFFFFFFFFFFFFFFFFFFFFFFFFFFFFFFFFFFFFFFFFFFFFFFF
310
FFFFFFFFFFFFFFFFFFFFFFFFFFFFFFFFFFFFFFFFFFFFFFFFFFFFFFFFFFFFFFFF
310
FFFFFFFFFFFFFFFFF000FFFFFFFFFFFFFFFFFFFFFFFFFFFFFFFFFFFFFFFFFFFF
310
FFFFFFFFFFFFFFFFFFFFFFFFFFFFFFFFFFFFFFFFFFFFFFFFFFFFFFFFFFFFFFFF
310
FFFFFFFFFFFFFFFFFFFFFFFFFFFFFFFFFFFFFFFFFFFFFFFFFFFFFFFFFFFFFFFF
310
F000FFFFFFFFFFFFFFFFFFFFFFFFFFFFFFFFFFFFFFFFFFFFFFFFFFFFFFFFFFFF
310
FFFFFFFFFFFFFFFFFFFFFFFFFFFFFFFFFFFFFFFFFFFFFFFFFFFFFFFFFFFFFFFF
310
FFFFFFFFFFFFFFFFFFFFFFFFFFFFFFFFFFFFFFFFFFFFFFFFF000FFFFFFFFFFFF
310
FFFFFFFFFFFFFFFFFFFFFFFFFFFFFFFFFFFFFFFFFFFFFFFFFFFFFFFFFFFFFFFF
310
FFFFFFFFFFFFFFFFFFFFFFFFFFFFFFFFFFFFFFFFFFFFFFFFFFFFFFFFFFFFFFFF
310
FFFFFFFFFFFFFFFFFFFFFFFFFFFFFFFFF000FFFFFFFFFFFFFFFFFFFFFFFFFFFF
310
FFFFFFFFFFFFFFFFFFFFFFFFFFFFFFFFFFFFFFFFFFFFFFFFFFFFFFFFFFFFFFFF
310
FFFFFFFFFFFFFFFFFFFFFFFFFFFFFFFFFFFFFFFFFFFFFFFFFFFFFFFFFFFFFFFF
310
FFFFFFFFFFFFFFFFF000FFFFFFFFFFFFFFFFFFFFFFFFFFFFFFFFFFFFFFFFFFFF
310
FFFFFFFFFFFFFFFFFFFFFFFFFFFFFFFFFFFFFFFFFFFFFFFFFFFFFFFFFFFFFFFF
310
FFFFFFFFFFFFFFFFFFFFFFFFFFFFFFFFFFFFFFFFFFFFFFFFFFFFFFFFFFFFFFFF
310
F000FFFFFFFFFFFFFFFFFFFFFFFFFFFFFFFFFFFFFFFFFFFFFFFFFFFFFFFFFFFF
310
FFFFFFFFFFFFFFFFFFFFFFFFFFFFFFFFFFFFFFFFFFFFFFFFFFFFFFFFFFFFFFFF
310
FFFFFFFFFFFFFFFFFFFFFFFFFFFFFFFFFFFFFFFFFFFFFFFFF000FFFFFFFFFFFF
310
FFFFFFFFFFFFFFFFFFFFFFFFFFFFFFFFFFFFFFFFFFFFFFFFFFFFFFFFFFFFFFFF
310
FFFFFFFFFFFFFFFFFFFFFFFFFFFFFFFFFFFFFFFFFFFFFFFFFFFFFFFFFFFFFFFF
310
FFFFFFFFFFFFFFFFFFFFFFFFFFFFFFFFF000FFFFFFFFFFFFFFFFFFFFFFFFFFFF
310
FFFFFFFFFFFFFFFFFFFFFFFFFFFFFFFFFFFFFFFFFFFFFFFFFFFFFFFFFFFFFFFF
310
FFFFFFFFFFFFFFFFFFFFFFFFFFFFFFFFFFFFFFFFFFFFFFFFFFFFFFFFFFFFFFFF
310
FFFFFFFFFFFFFFFFF000FFFFFFFFFFFFFFFFFFFFFFFFFFFFFFFFFFFFFFFFFFFF
310
FFFFFFFFFFFFFFFFFFFFFFFFFFFFFFFFFFFFFFFFFFFFFFFFFFFFFFFFFFFFFFFF
310
FFFFFFFFFFFFFFFFFFFFFFFFFFFFFFFFFFFFFFFFFFFFFFFFFFFFFFFFFFFFFFFF
310
F000FFFFFFFFFFFFFFFFFFFFFFFFFFFFFFFFFFFFFFFFFFFFFFFFFFFFFFFFFFFF
310
FFFFFFFFFFFFFFFFFFFFFFFFFFFFFFFFFFFFFFFFFFFFFFFFFFFFFFFFFFFFFFFF
310
FFFFFFFFFFFFFFFFFFFFFFFFFFFFFFFFFFFFFFFFFFFFFFFFF000FFFFFFFFFFFF
310
FFFFFFFFFFFFFFFFFFFFFFFFFFFFFFFFFFFFFFFFFFFFFFFFFFFFFFFFFFFFFFFF
310
FFFFFFFFFFFFFFFFFFFFFFFFFFFFFFFFFFFFFFFFFFFFFFFFFFFFFFFFFFFFFFFF
310
FFFFFFFFFFFFFFFFFFFFFFFFFFFFFFFFF000FFFFFFFFFFFFFFFFFFFFFFFFFFFF
310
FFFFFFFFFFFFFFFFFFFFFFFFFFFFFFFFFFFFFFFFFFFFFFFFFFFFFFFFFFFFFFFF
310
FFFFFFFFFFFFFFFFFFFFFFFFFFFFFFFFFFFFFFFFFFFFFFFFFFFFFFFFFFFFFFFF
310
FFFFFFFFFFFFFFFFF000FFFFF80003FFFFFFFFFFFFFFFFFFFFFFFFFFFFFFFFFF
310
FFFFF00007FFFFFFFFFF00007FFFFFF800000000000000007FFFFFFFFFFFFFFF
310
FFFFFFFC001FFFFFFFFFFFFFFC001FFFFFFFFFFFFFFFFFFFFFFFFFFE0007FFFF
310
F000FFFF8000007FFFFFFFF8000FFFFFC0007FFFFF80007FFFFF0000007FFFFF
310
FFF8000007FFFFF800000000000000007FFFFFF0001FFFFFFFFFFFC00001FFFF
310
FFFFFFFFC00001FFFFFFFF000000000003FFFFE000007FFFF000FFFE0000000F
310
FFFFFFF0000FFFFF80007FFFFF80007FFFFC0000001FFFFFFFC0000001FFFFF8
310
00000000000000007FFFFFF0001FFFFFFFFFFE0000003FFFFFFFFFFE0000003F
310
FFFFFF000000000003FFFF0000000FFFF000FFF800000003FFFFFFF00007FFFF
310
80007FFFFF80007FFFF000000007FFFFFF000000003FFFF80000000000000000
310
7FFFFFF0001FFFFFFFFFF80000000FFFFFFFFFF80000000FFFFFFF0000000000
310
03FFFC00000003FFF000FFE000000000FFFFFFF00007FFFF80003FFFFF80007F
310
FFC000000001FFFFFC000000001FFFF800000000000000007FFFFFF0001FFFFF
310
FFFFE000000003FFFFFFFFE000000003FFFFFF000000000003FFF000000000FF
310
F000FF80000000007FFFFFF00007FFFF80003FFFFF80007FFF8000000000FFFF
310
F80000000007FFF800000000000000007FFFFFF0001FFFFFFFFFC000000001FF
310
FFFFFFC000000001FFFFFF000000000003FFC0000000007FF000FF0000000000
310
3FFFFFE00007FFFF00003FFFFF80007FFE00000000003FFFF00000000003FFF8
310
00000000000000007FFFFFF0001FFFFFFFFF8000000000FFFFFFFF8000000000
310
FFFFFF000000000003FF80000000003FF000FE00000000001FFFFFE00003FFFF
310
00003FFFFF80007FFC00000000001FFFE00000000001FFF8000001FFFE000000
310
7FFFFFF0001FFFFFFFFE00000000003FFFFFFE00000000003FFFFF0000000000
310
03FF00000000001FF000FC00000000000FFFFFE00003FFFF00001FFFFF80007F
310
F800000000001FFFC00000000000FFF8000001FFFE0000007FFFFFF0001FFFFF
310
FFFC00000000001FFFFFFC00000000001FFFFF000000000003FE00000000000F
310
F000F8000000000007FFFFE00003FFFF00001FFFFF80007FF800000000000FFF
310
800000000000FFF8000001FFFE0000007FFFFFF0001FFFFFFFF800000000000F
310
FFFFF800000000000FFFFF000000000003FC000000000007F000F80000000000
310
03FFFFC00003FFFE00001FFFFF80007FF0000000000007FF0000000000007FF8
310
000001FFFE0000007FFFFFF0001FFFFFFFF0000000000007FFFFF00000000000
310
07FFFF000000000003F8000000000003F000F0000000000003FFFFC00001FFFE
310
00001FFFFF80007FE0000000000007FE0000000000003FF8000001FFFE000000
310
7FFFFFF0001FFFFFFFF0000000000007FFFFF0000000000007FFFF0000000000
310
03F800001F800003F000E00001FFF00001FFFFC00001FFFE00000FFFFF80007F
310
E00001FFE00003FE00001FFF00003FF8000001FFFE0000007FFFFFF0001FFFFF
310
FFE000003E000003FFFFE000003E000003FFFF000000000003F00001FFF80001
310
F000E00007FFFC0001FFFFC00001FFFE00000FFFFF80007FC0000FFFFC0003FC
310
0000FFFFC0001FF8000001FFFE0000007FFFFFF0001FFFFFFFC00003FFE00001
310
FFFFC00003FFE00001FFFF0001FFFFFFFFF00007FFFE0001F000E0000FFFFF00
310
00FFFF800001FFFC00000FFFFF80007FC0001FFFFE0001FC0001FFFFE0001FF8
310
000001FFFE0000007FFFFFF0001FFFFFFF80000FFFF80000FFFF80000FFFF800
310
00FFFF0003FFFFFFFFE0000FFFFF8000F000C0003FFFFF8000FFFF800000FFFC
310
000007FFFF80007F80003FFFFF0001FC0003FFFFF0001FF8000001FFFE000000
310
7FFFFFF0001FFFFFFF80003FFFFE0000FFFF80003FFFFE0000FFFF0003FFFFFF
310
FFE0003FFFFF8000F000C0003FFFFF8000FFFF800000FFFC000007FFFF80007F
310
80007FFFFF8001F80007FFFFF8000FF8000001FFFE0000007FFFFFF0001FFFFF
310
FF00007FFFFF00007FFF00007FFFFF00007FFF0003FFFFFFFFE0003FFFFFC000
310
F000C0007FFFFFC000FFFF000000FFFC000007FFFF80007F8000FFFFFF8000F8
310
000FFFFFF8000FF8000001FFFE0000007FFFFFF0001FFFFFFF0000FFFFFF8000
310
7FFF0000FFFFFF80007FFF0003FFFFFFFFC0007FFFFFC00070008000FFFFFFC0
310
00FFFF000000FFF8000007FFFF80007F8000FFFFFF8000F8000FFFFFF8000FF8
310
000001FFFE0000007FFFFFF0001FFFFFFE0001FFFFFFC0003FFE0001FFFFFFC0
310
003FFF0003FFFFFFFFC0007FFFFFE00070008000FFFFFFC0007FFF0000007FF8
310
000003FFFF80007F0001FFFFFF8000F8000FFFFFF8000FF8000001FFFE000000
310
7FFFFFF0001FFFFFFE0001FFFFFFC0003FFE0001FFFFFFC0003FFF0003FFFFFF
310
FFC000FFFFFFE00070008000FFFFFFC0007FFF0000007FF8000003FFFF80007F
310
0001FFFFFF8000F8001FFFFFF8000FF8000001FFFE0000007FFFFFF0001FFFFF
310
FE0003FFFFFFE0003FFE0003FFFFFFE0003FFF0003FFFFFFFFC000FFFFFFE000
310
70008000FFFFFFC0007FFE0000007FF8000003FFFF80007F0001FFFFFF8000F0
310
001FFFFFF8000FF8000001FFFE0000007FFFFFF0001FFFFFFC0003FFFFFFE000
310
1FFC0003FFFFFFE0001FFF0003FFFFFFFFC000FFFFFFC00070008000FFFFFF80
310
007FFE0000007FF0000003FFFF80007F0001FFFFFF0000F0001FFFFFF8000FF8
310
000001FFFE0000007FFFFFF0001FFFFFFC0007FFFFFFF0001FFC0007FFFFFFF0
310
001FFF0003FFFFFFFFC000FFFFFFC00070008001FFFFFF0000FFFE0000003FF0
310
000001FFFF80007F0001FFFFFF0000F8001FFFFFF0000FF8000001FFFE000000
310
7FFFFFF0001FFFFFFC0007FFFFFFF0001FFC0007FFFFFFF0001FFF0003FFFFFF
310
FFC001FFFFFF80007000FFFFFFFFFE0000FFFE0008003FF0008001FFFF80007F
310
FFFFFFFFFC0000FFFFFFFFFFE0000FF8000001FFFE0000007FFFFFF0001FFFFF
310
F8000FFFFFFFF8000FF8000FFFFFFFF8000FFF0003FFFFFFFFFFFFFFFFFF0000
310
7000FFFFFFFFFC0000FFFC0008003FF0008001FFFF80007FFFFFFFFFF80001FF
310
FFFFFFFF80000FF8000001FFFE0000007FFFFFF0001FFFFFF8000FFFFFFFF800
310
0FF8000FFFFFFFF8000FFF0003FFFFFFFFFFFFFFFFFE0000F000FFFFFFFFE000
310
00FFFC000C003FE000C001FFFF80007FFFFFFFFFC00001FFFFFFFFFE00001FF8
310
000001FFFE0000007FFFFFF0001FFFFFF8000FFFFFFFF8000FF8000FFFFFFFF8
310
000FFF0003FFFFFFFFFFFFFFFFF00000F000FFFFFFFE000001FFFC000C001FE0
310
00C000FFFF80007FFFFFFFFE000001FFFFFFFFE000001FF80FFFFFFFFFFFFFC0
310
7FFFFFF0001FFFFFF8000FFFFFFFF8000FF8000FFFFFFFF8000FFF0003FFFFFF
310
FFFFFFFFFF800000F000FFFFFFC0000001FFFC001C001FE001C000FFFF80007F
310
FFFFFF80000003FFFFFFF80000001FF80FFFFFFFFFFFFFC07FFFFFF0001FFFFF
310
F8001FFFFFFFFC000FF8001FFFFFFFFC000FFF0003FFFFFFFFFFFFFFF0000001
310
F000FFFFF800000001FFF8001C001FE001C000FFFF80007FFFFFF800000003FF
310
FFFF800000003FF80FFFFFFFFFFFFFC07FFFFFF0001FFFFFF8001FFFFFFFFC00
310
0FF8001FFFFFFFFC000FFF0003FFFFFFFFFFFFFE00000001F000FFFFC0000000
310
03FFF8001E001FC001E000FFFF80007FFFFF8000000007FFFFFC000000003FF8
310
0FFFFFFFFFFFFFC07FFFFFF0001FFFFFF8001FFFFFFFFC000FF8001FFFFFFFFC
310
000FFF0003FFFFFFFFFFFFE000000003F000FFFE0000000007FFF8001E000FC0
310
01E0007FFF80007FFFFE0000000007FFFFE0000000007FF80FFFFFFFFFFFFFC0
310
7FFFFFF0001FFFFFF0001FFFFFFFFC0007F0001FFFFFFFFC0007FF0003FFFFFF
310
FFFFFF0000000003F000FFF80000000007FFF8001E000FC003E0007FFF80007F
310
FFF0000000000FFFFF8000000000FFF80FFFFFFFFFFFFFC07FFFFFF0001FFFFF
310
F0001FFFFFFFFC0007F0001FFFFFFFFC0007FF0003FFFFFFFFFFFC0000000007
310
F000FFE0000000000FFFF0003E000FC003E0007FFF80007FFFC0000000001FFF
310
FE0000000001FFF80FFFFFFFFFFFFFC07FFFFFF0001FFFFFF0001FFFFFFFFC00
310
07F0001FFFFFFFFC0007FF0003FFFFFFFFFFF0000000000FF000FFC000000000
310
1FFFF0003F000F8003F0003FFF80007FFF80000000003FFFF80000000003FFF8
310
0FFFFFFFFFFFFFC07FFFFFF0001FFFFFF0001FFFFFFFFC0007F0001FFFFFFFFC
310
0007FF0003FFFFFFFFFFE0000000001FF000FF00000000007FFFF0003F000780
310
03F0003FFF80007FFF00000000007FFFF00000000007FFF80FFFFFFFFFFFFFC0
310
7FFFFFF0001FFFFFF0001FFFFFFFFC0007F0001FFFFFFFFC0007FF0003FFFFFF
310
FFFF80000000007FF000FE0000000000FFFFE0003F00078007F0003FFF80007F
310
FE0000000001FFFFE0000000001FFFF80FFFFFFFFFFFFFC07FFFFFF0001FFFFF
310
F0001FFFFFFFFC0007F0001FFFFFFFFC0007FF0003FFFFFFFFFF0000000000FF
310
F000FC0000000003FFFFE0007F00078007F0003FFF80007FFC0000000007FFFF
310
C0000000007FFFF80FFFFFFFFFFFFFC07FFFFFF0001FFFFFF8001FFFFFFFFC00
310
0FF8001FFFFFFFFC000FFF0003FFFFFFFFFE0000000003FFF000FC000000000F
310
FFFFE0007F80070007F8001FFF80007FF8000000001FFFFF8000000001FFFFF8
310
0FFFFFFFFFFFFFC07FFFFFF0001FFFFFF8001FFFFFFFFC000FF8001FFFFFFFFC
310
000FFF0003FFFFFFFFFC000000000FFFF000F8000000007FFFFFE0007F800700
310
07F8001FFF80007FF000000000FFFFFF800000000FFFFFF80FFFFFFFFFFFFFC0
310
7FFFFFF0001FFFFFF8000FFFFFFFF8000FF8000FFFFFFFF8000FFF0003FFFFFF
310
FFFC000000007FFFF000F800000007FFFFFFC0007F8003000FF8001FFF80007F
310
F000000007FFFFFF000000007FFFFFF80FFFFFFFFFFFFFC07FFFFFF0001FFFFF
310
F8000FFFFFFFF8000FF8000FFFFFFFF8000FFF0003FFFFFFFFF80000000FFFFF
310
F000F0000000FFFFFFFFC000FF8003000FF8001FFF80007FE0000000FFFFFFFF
310
0000000FFFFFFFF8000001FFFE0000007FFFFFF0001FFFFFF8000FFFFFFFF800
310
0FF8000FFFFFFFF8000FFF0003FFFFFFFFF8000000FFFFFFF000F000000FFFFF
310
FFFFC000FFC002000FF8000FFF80007FE000001FFFFFFFFE000001FFFFFFFFF8
310
000001FFFE0000007FFFFFF0001FFFFFF8000FFFFFFFF8000FF8000FFFFFFFF8
310
000FFF0003FFFFFFFFF000001FFFFFFFF000E00000FFFFFFFFFFC000FFC00200
310
0FFC000FFF80007FE00001FFFFFFFFFE00001FFFFFFFFFF8000001FFFE000000
310
7FFFFFF0001FFFFFFC000FFFFFFFF8001FFC000FFFFFFFF8001FFF0003FFFFFF
310
FFF00001FFFFFFFFF000E00007FFFFFFFFFF8000FFC000001FFC000FFF80007F
310
C0000FFFFFFFFFFE0000FFFFFFFFFFF8000001FFFE0000007FFFFFF0001FFFFF
310
FC0007FFFFFFF0001FFC0007FFFFFFF0001FFF0003FFFFFFFFF00007FFFFFFFF
310
F000E0001FFFFFFFFFFF8000FFC000001FFC000FFF80007FC0003FFFFFFFFFFE
310
0001FFFFFFFFFFF8000001FFFE0000007FFFFFF0001FFFFFFC0007FFFFFFF000
310
1FFC0007FFFFFFF0001FFF0003FFFFFFFFF0001FFFFFFFFFF000E0003FFFFF00
310
03FF8001FFE000001FFC0007FF80007FC0007FFFFF0007FC0003FFFFF0003FF8
310
000001FFFE0000007FFFFFF0001FFFFFFC0003FFFFFFE0001FFC0003FFFFFFE0
310
001FFF0003FFFFFFFFF0003FFFFFFFFFF000E0003FFFFF0001FF8001FFE00000
310
1FFE0007FF80007FC0007FFFFE0003FC0007FFFFE0003FF8000001FFFE000000
310
7FFFFFF0001FFFFFFE0003FFFFFFE0003FFE0003FFFFFFE0003FFF0003FFFFFF
310
FFF0003FFFFF8001F000E0003FFFFF0001FF0001FFE000001FFE0007FF80007F
310
C0007FFFFE0003FC0007FFFFE0003FF8000001FFFE0000007FFFFFF0001FFFFF
310
FE0001FFFFFFC0003FFE0001FFFFFFC0003FFF0003FFFFFFFFF0003FFFFF0001
310
F000E0003FFFFF0003FF0001FFE000003FFE0007FF80007FC0007FFFFE0003FC
310
0007FFFFE0003FF8000001FFFE0000007FFFFFF0001FFFFFFF0001FFFFFFC000
310
7FFF0001FFFFFFC0007FFF0003FFFFFFFFF0003FFFFF0001F000E0003FFFFE00
310
03FF0003FFF000003FFE0003FF80007FC0007FFFFC0003FE0007FFFFE0003FF8
310
000001FFFE0000007FFFFFF0001FFFFFFF0000FFFFFF80007FFF0000FFFFFF80
310
007FFF0003FFFFFFFFF0003FFFFF0001F000E0003FFFFE0003FF0003FFF00000
310
3FFF0003FF80007FC0007FFFFC0007FE0007FFFFC0003FF8000001FFFE000000
310
7FFFFFF0001FFFFFFF80007FFFFF0000FFFF80007FFFFF0000FFFF0003FFFFFF
310
FFF0003FFFFF0003F000E0003FFFFC0003FE0003FFF000003FFF0003FF80007F
310
E0003FFFF80007FE0003FFFFC0007FF8000001FFFE0000007FFFFFF0001FFFFF
310
FF80003FFFFE0000FFFF80003FFFFE0000FFFF0003FFFFFFFFF0001FFFFE0003
310
F000F0001FFFF80003FE0003FFF000007FFF0001FF80007FE0003FFFF00007FE
310
0001FFFF80007FF8000001FFFE0000007FFFFFF0001FFFFFFFC0000FFFF80001
310
FFFFC0000FFFF80001FFFF0003FFFFFFFFF0001FFFFC0003F000F0000FFFF000
310
07FE0007FFF800007FFF0001FF80007FE0001FFFE00007FF0000FFFE00007FF8
310
000001FFFE0000007FFFFFF0001FFFFFFFC00003FFE00001FFFFC00003FFE000
310
01FFFF0003FFFFFFFFF8000FFFF80003F000F00003FFC00007FC0007FFF80000
310
7FFF8001FF80007FF00007FF80000FFF00007FF80000FFF8000001FFFE000000
310
7F80000000000001FFE000003E000003FFFFE000003E000003FFFF0003FFFFFF
310
FFF80003FFE00007F000F800000000000FFC0007FFF800007FFF8001FF80007F
310
F000000000000FFF000000000000FFF8000001FFFE0000007F80000000000001
310
FFF0000000000007FFFFF0000000000007FFFF0003FFFFFFFFFC00007E000007
310
F000F800000000000FFC0007FFF80000FFFF8000FF80007FF800000000001FFF
310
800000000001FFF8000001FFFE0000007F80000000000001FFF800000000000F
310
FFFFF800000000000FFFFF0003FFFFFFFFFC00000000000FF000FC0000000000
310
1FFC0007FFFC0000FFFF8000FF80007FF800000000003FFFC00000000001FFF8
310
000001FFFE0000007F80000000000001FFF800000000000FFFFFF80000000000
310
0FFFFF0003FFFFFFFFFE00000000001FF000FE00000000003FF8000FFFFC0000
310
FFFF8000FF80007FFC00000000003FFFC00000000003FFF8000001FFFE000000
310
7F80000000000001FFFC00000000001FFFFFFC00000000001FFFFF0003FFFFFF
310
FFFF00000000001FF000FF00000000003FF8000FFFFC0000FFFFC000FF80007F
310
FE00000000007FFFE00000000007FFF8000001FFFE0000007F80000000000001
310
FFFE00000000003FFFFFFE00000000003FFFFF0003FFFFFFFFFF80000000003F
310
F000FF80000000007FF8000FFFFC0001FFFFC0007F80007FFF0000000000FFFF
310
F0000000000FFFF800000000000000007F80000000000001FFFF8000000000FF
310
FFFFFF8000000000FFFFFF0003FFFFFFFFFFC0000000007FF000FFC000000000
310
FFF8000FFFFE0001FFFFC0007F80007FFF8000000001FFFFF8000000001FFFF8
310
00000000000000007F80000000000001FFFFC000000001FFFFFFFFC000000001
310
FFFFFF0003FFFFFFFFFFE000000000FFF000FFE000000003FFF0001FFFFE0001
310
FFFFC0007F80007FFFC000000007FFFFFE000000003FFFF80000000000000000
310
7F80000000000001FFFFE000000003FFFFFFFFE000000003FFFFFF0003FFFFFF
310
FFFFF000000003FFF000FFF80000000FFFF0001FFFFE0001FFFFE0007F80007F
310
FFF00000000FFFFFFF00000000FFFFF800000000000000007F80000000000001
310
FFFFF80000000FFFFFFFFFF80000000FFFFFFF0003FFFFFFFFFFFC0000000FFF
310
F000FFFE0000003FFFF0001FFFFE0003FFFFE0003F80007FFFFC0000003FFFFF
310
FFC0000003FFFFF800000000000000007F80000000000001FFFFFE0000003FFF
310
FFFFFFFE0000003FFFFFFF0003FFFFFFFFFFFF0000003FFFF000FFFF800000FF
310
FFF0001FFFFF0003FFFFE0003F80007FFFFF000001FFFFFFFFF800001FFFFFF8
310
00000000000000007F80000000000001FFFFFFC00001FFFFFFFFFFFFC00001FF
310
FFFFFF0003FFFFFFFFFFFFC00000FFFFF000FFFFF8000FFFFFFFFFFFFFFFFFFF
310
FFFFFFFFFFFFFFFFFFFFF0001FFFFFFFFFFF0000FFFFFFF80000000000000000
310
7FFFFFFFFFFFFFFFFFFFFFFC001FFFFFFFFFFFFFFC001FFFFFFFFFFFFFFFFFFF
310
FFFFFFFC001FFFFFF000FFFFFFFFFFFFFFFFFFFFFFFFFFFFFFFFFFFFFFFFFFFF
310
FFFFFFFFFFFFFFFFFFFFFFFFFFFFFFFFFFFFFFFFFFFFFFFFFFFFFFFFFFFFFFFF
310
FFFFFFFFFFFFFFFFFFFFFFFFFFFFFFFFFFFFFFFFFFFFFFFFFFFFFFFFFFFFFFFF
310
F000FFFFFFFFFFFFFFFFFFFFFFFFFFFFFFFFFFFFFFFFFFFFFFFFFFFFFFFFFFFF
310
FFFFFFFFFFFFFFFFFFFFFFFFFFFFFFFFFFFFFFFFFFFFFFFFFFFFFFFFFFFFFFFF
310
FFFFFFFFFFFFFFFFFFFFFFFFFFFFFFFFFFFFFFFFFFFFFFFFF000FFFFFFFFFFFF
310
FFFFFFFFFFFFFFFFFFFFFFFFFFFFFFFFFFFFFFFFFFFFFFFFFFFFFFFFFFFFFFFF
310
FFFFFFFFFFFFFFFFFFFFFFFFFFFFFFFFFFFFFFFFFFFFFFFFFFFFFFFFFFFFFFFF
310
FFFFFFFFFFFFFFFFFFFFFFFFFFFFFFFFF000FFFFFFFFFFFFFFFFFFFFFFFFFFFF
310
FFFFFFFFFFFFFFFFFFFFFFFFFFFFFFFFFFFFFFFFFFFFFFFFFFFFFFFFFFFFFFFF
310
FFFFFFFFFFFFFFFFFFFFFFFFFFFFFFFFFFFFFFFFFFFFFFFFFFFFFFFFFFFFFFFF
310
FFFFFFFFFFFFFFFFF000FFFFFFFFFFFFFFFFFFFFFFFFFFFFFFFFFFFFFFFFFFFF
310
FFFFFFFFFFFFFFFFFFFFFFFFFFFFFFFFFFFFFFFFFFFFFFFFFFFFFFFFFFFFFFFF
310
FFFFFFFFFFFFFFFFFFFFFFFFFFFFFFFFFFFFFFFFFFFFFFFFFFFFFFFFFFFFFFFF
310
F000FFFFFFFFFFFFFFFFFFFFFFFFFFFFFFFFFFFFFFFFFFFFFFFFFFFFFFFFFFFF
310
FFFFFFFFFFFFFFFFFFFFFFFFFFFFFFFFFFFFFFFFFFFFFFFFFFFFFFFFFFFFFFFF
310
FFFFFFFFFFFFFFFFFFFFFFFFFFFFFFFFFFFFFFFFFFFFFFFFF000FFFFFFFFFFFF
310
FFFFFFFFFFFFFFFFFFFFFFFFFFFFFFFFFFFFFFFFFFFFFFFFFFFFFFFFFFFFFFFF
310
FFFFFFFFFFFFFFFFFFFFFFFFFFFFFFFFFFFFFFFFFFFFFFFFFFFFFFFFFFFFFFFF
310
FFFFFFFFFFFFFFFFFFFFFFFFFFFFFFFFF000FFFFFFFFFFFFFFFFFFFFFFFFFFFF
310
FFFFFFFFFFFFFFFFFFFFFFFFFFFFFFFFFFFFFFFFFFFFFFFFFFFFFFFFFFFFFFFF
310
FFFFFFFFFFFFFFFFFFFFFFFFFFFFFFFFFFFFFFFFFFFFFFFFFFFFFFFFFFFFFFFF
310
FFFFFFFFFFFFFFFFF000FFFFFFFFFFFFFFFFFFFFFFFFFFFFFFFFFFFFFFFFFFFF
310
FFFFFFFFFFFFFFFFFFFFFFFFFFFFFFFFFFFFFFFFFFFFFFFFFFFFFFFFFFFFFFFF
310
FFFFFFFFFFFFFFFFFFFFFFFFFFFFFFFFFFFFFFFFFFFFFFFFFFFFFFFFFFFFFFFF
310
F000FFFFFFFFFFFFFFFFFFFFFFFFFFFFFFFFFFFFFFFFFFFFFFFFFFFFFFFFFFFF
310
FFFFFFFFFFFFFFFFFFFFFFFFFFFFFFFFFFFFFFFFFFFFFFFFFFFFFFFFFFFFFFFF
310
FFFFFFFFFFFFFFFFFFFFFFFFFFFFFFFFFFFFFFFFFFFFFFFFF000FFFFFFFFFFFF
310
FFFFFFFFFFFFFFFFFFFFFFFFFFFFFFFFFFFFFFFFFFFFFFFFFFFFFFFFFFFFFFFF
310
FFFFFFFFFFFFFFFFFFFFFFFFFFFFFFFFFFFFFFFFFFFFFFFFFFFFFFFFFFFFFFFF
310
FFFFFFFFFFFFFFFFFFFFFFFFFFFFFFFFF000FFFFFFFFFFFFFFFFFFFFFFFFFFFF
310
FFFFFFFFFFFFFFFFFFFFFFFFFFFFFFFFFFFFFFFFFFFFFFFFFFFFFFFFFFFFFFFF
310
FFFFFFFFFFFFFFFFFFFFFFFFFFFFFFFFFFFFFFFFFFFFFFFFFFFFFFFFFFFFFFFF
310
FFFFFFFFFFFFFFFFF000FFFFFFFFFFFFFFFFFFFFFFFFFFFFFFFFFFFFFFFFFFFF
310
FFFFFFFFFFFFFFFFFFFFFFFFFFFFFFFFFFFFFFFFFFFFFFFFFFFFFFFFFFFFFFFF
310
FFFFFFFFFFFFFFFFFFFFFFFFFFFFFFFFFFFFFFFFFFFFFFFFFFFFFFFFFFFFFFFF
310
F000FFFFFFFFFFFFFFFFFFFFFFFFFFFFFFFFFFFFFFFFFFFFFFFFFFFFFFFFFFFF
310
FFFFFFFFFFFFFFFFFFFFFFFFFFFFFFFFFFFFFFFFFFFFFFFFFFFFFFFFFFFFFFFF
310
FFFFFFFFFFFFFFFFFFFFFFFFFFFFFFFFFFFFFFFFFFFFFFFFF000FFFFFFFFFFFF
310
FFFFFFFFFFFFFFFFFFFFFFFFFFFFFFFFFFFFFFFFFFFFFFFFFFFFFFFFFFFFFFFF
310
FFFFFFFFFFFFFFFFFFFFFFFFFFFFFFFFFFFFFFFFFFFFFFFFFFFFFFFFFFFFFFFF
310
FFFFFFFFFFFFFFFFFFFFFFFFFFFFFFFFF000FFFFFFFFFFFFFFFFFFFFFFFFFFFF
310
FFFFFFFFFFFFFFFFFFFFFFFFFFFFFFFFFFFFFFFFFFFFFFFFFFFFFFFFFFFFFFFF
310
FFFFFFFFFFFFFFFFFFFFFFFFFFFFFFFFFFFFFFFFFFFFFFFFFFFFFFFFFFFFFFFF
310
FFFFFFFFFFFFFFFFF000FFFFFFFFFFFFFFFFFFFFFFFFFFFFFFFFFFFFFFFFFFFF
310
FFFFFFFFFFFFFFFFFFFFFFFFFFFFFFFFFFFFFFFFFFFFFFFFFFFFFFFFFFFFFFFF
310
FFFFFFFFFFFFFFFFFFFFFFFFFFFFFFFFFFFFFFFFFFFFFFFFFFFFFFFFFFFFFFFF
310
F000FFFFFFFFFFFFFFFFFFFFFFFFFFFFFFFFFFFFFFFFFFFFFFFFFFFFFFFFFFFF
310
FFFFFFFFFFFFFFFFFFFFFFFFFFFFFFFFFFFFFFFFFFFFFFFFFFFFFFFFFFFFFFFF
310
FFFFFFFFFFFFFFFFFFFFFFFFFFFFFFFFFFFFFFFFFFFFFFFFF000FFFFFFFFFFFF
310
FFFFFFFFFFFFFFFFFFFFFFFFFFFFFFFFFFFFFFFFFFFFFFFFFFFFFFFFFFFFFFFF
310
FFFFFFFFFFFFFFFFFFFFFFFFFFFFFFFFFFFFFFFFFFFFFFFFFFFFFFFFFFFFFFFF
310
FFFFFFFFFFFFFFFFFFFFFFFFFFFFFFFFF000FFFFFFFFFFFFFFFFFFFFFFFFFFFF
310
FFFFFFFFFFFFFFFFFFFFFFFFFFFFFFFFFFFFFFFFFFFFFFFFFFFFFFFFFFFFFFFF
310
FFFFFFFFFFFFFFFFFFFFFFFFFFFFFFFFFFFFFFFFFFFFFFFFFFFFFFFFFFFFFFFF
310
FFFFFFFFFFFFFFFFF000FFFFFFFFFFFFFFFFFFFFFFFFFFFFFFFFFFFFFFFFFFFF
310
FFFFFFFFFFFFFFFFFFFFFFFFFFFFFFFFFFFFFFFFFFFFFFFFFFFFFFFFFFFFFFFF
310
FFFFFFFFFFFFFFFFFFFFFFFFFFFFFFFFFFFFFFFFFFFFFFFFFFFFFFFFFFFFFFFF
310
F000FFFFFFFFFFFFFFFFFFFFFFFFFFFFFFFFFFFFFFFFFFFFFFFFFFFFFFFFFFFF
310
FFFFFFFFFFFFFFFFFFFFFFFFFFFFFFFFFFFFFFFFFFFFFFFFFFFFFFFFFFFFFFFF
310
FFFFFFFFFFFFFFFFFFFFFFFFFFFFFFFFFFFFFFFFFFFFFFFFF000FFFFFFFFFFFF
310
FFFFFFFFFFFFFFFFFFFFFFFFFFFFFFFFFFFFFFFFFFFFFFFFFFFFFFFFFFFFFFFF
310
FFFFFFFFFFFFFFFFFFFFFFFFFFFFFFFFFFFFFFFFFFFFFFFFFFFFFFFFFFFFFFFF
310
FFFFFFFFFFFFFFFFFFFFFFFFFFFFFFFFF0000000000000000000000000000000
310
0000000000000000000000000000000000000000000000000000000000000000
310
0000000000000000000000000000000000000000000000000000000000000000
310
0000000000000000000000000000000000000000000000000000000000000000
310
0000000000000000000000000000000000000000000000000000000000000000
310
0000000000000000000000000000000000000000000000000000000000000000
310
0000000000000000000000000000000000000000000000000000000000000000
310
0000000000000000000000000000000000000000000000000000000000000000
310
0000000000000000000000000000000000000000000000000000000000000000
310
0000000000000000000000000000000000000000000000000000000000000000
310
0000000000000000000000000000000000000000000000000000000000000000
310
0000000000000000000000000000000000000000000000000000000000000000
310
0000000000000000000000000000000000000000000000000000000000000000
310
0000000000000000000000000000000000000000000000000000000000000000
310
0000000000000000000000000000000000000000000000000000000000000000
310
0000000000000000000000000000000000000000000000000000000000000000
  1
OLE
  0
ENDSEC
  0
SECTION
  2
OBJECTS
  0
DICTIONARY
  5
C
330
0
100
AcDbDictionary
281
     1
  3
ACAD_GROUP
350
D
  3
ACAD_LAYOUT
350
1A
  3
ACAD_MLINESTYLE
350
17
  3
ACAD_PLOTSETTINGS
350
19
  3
ACAD_PLOTSTYLENAME
350
E
  0
DICTIONARY
  5
D
102
{ACAD_REACTORS
330
C
102
}
330
C
100
AcDbDictionary
281
     1
  0
DICTIONARY
  5
1A
102
{ACAD_REACTORS
330
C
102
}
330
C
100
AcDbDictionary
281
     1
  3
Layout1
350
1E
  3
Layout2
350
26
  3
Model
350
22
  0
DICTIONARY
  5
17
102
{ACAD_REACTORS
330
C
102
}
330
C
100
AcDbDictionary
281
     1
  3
Standard
350
18
  0
DICTIONARY
  5
19
102
{ACAD_REACTORS
330
C
102
}
330
C
100
AcDbDictionary
281
     1
  0
ACDBDICTIONARYWDFLT
  5
E
102
{ACAD_REACTORS
330
C
102
}
330
C
100
AcDbDictionary
281
     1
  3
Normal
350
F
100
AcDbDictionaryWithDefault
340
F
  0
LAYOUT
  5
1E
102
{ACAD_REACTORS
330
1A
102
}
330
1A
100
AcDbPlotSettings
  1

  2
none_device
  4

  6

 40
0.0
 41
0.0
 42
0.0
 43
0.0
 44
0.0
 45
0.0
 46
0.0
 47
0.0
 48
0.0
 49
0.0
140
0.0
141
0.0
142
1.0
143
1.0
 70
   688
 72
     0
 73
     0
 74
     5
  7

 75
    16
147
1.0
148
0.0
149
0.0
100
AcDbLayout
  1
Layout1
 70
     1
 71
     1
 10
0.0
 20
0.0
 11
420.0
 21
297.0
 12
0.0
 22
0.0
 32
0.0
 14
1.0000000000E+20
 24
1.0000000000E+20
 34
1.0000000000E+20
 15
-1.0000000000E+20
 25
-1.0000000000E+20
 35
-1.0000000000E+20
146
0.0
 13
0.0
 23
0.0
 33
0.0
 16
1.0
 26
0.0
 36
0.0
 17
0.0
 27
1.0
 37
0.0
 76
     0
330
1B
  0
LAYOUT
  5
26
102
{ACAD_REACTORS
330
1A
102
}
330
1A
100
AcDbPlotSettings
  1

  2
none_device
  4

  6

 40
0.0
 41
0.0
 42
0.0
 43
0.0
 44
0.0
 45
0.0
 46
0.0
 47
0.0
 48
0.0
 49
0.0
140
0.0
141
0.0
142
1.0
143
1.0
 70
   688
 72
     0
 73
     0
 74
     5
  7

 75
    16
147
1.0
148
0.0
149
0.0
100
AcDbLayout
  1
Layout2
 70
     1
 71
     2
 10
0.0
 20
0.0
 11
0.0
 21
0.0
 12
0.0
 22
0.0
 32
0.0
 14
0.0
 24
0.0
 34
0.0
 15
0.0
 25
0.0
 35
0.0
146
0.0
 13
0.0
 23
0.0
 33
0.0
 16
1.0
 26
0.0
 36
0.0
 17
0.0
 27
1.0
 37
0.0
 76
     0
330
23
  0
LAYOUT
  5
22
102
{ACAD_REACTORS
330
1A
102
}
330
1A
100
AcDbPlotSettings
  1

  2
none_device
  4

  6

 40
0.0
 41
0.0
 42
0.0
 43
0.0
 44
0.0
 45
0.0
 46
0.0
 47
0.0
 48
0.0
 49
0.0
140
0.0
141
0.0
142
1.0
143
1.0
 70
  1712
 72
     0
 73
     0
 74
     0
  7

 75
     0
147
1.0
148
0.0
149
0.0
100
AcDbLayout
  1
Model
 70
     1
 71
     0
 10
0.0
 20
0.0
 11
297.0
 21
210.0
 12
0.0
 22
0.0
 32
0.0
 14
0.0
 24
0.0
 34
0.0
 15
297.0
 25
210.0
 35
0.0
146
0.0
 13
0.0
 23
0.0
 33
0.0
 16
1.0
 26
0.0
 36
0.0
 17
0.0
 27
1.0
 37
0.0
 76
     0
330
1F
331
29
  0
MLINESTYLE
  5
18
102
{ACAD_REACTORS
330
17
102
}
330
17
100
AcDbMlineStyle
  2
Standard
 70
     0
  3

 62
   256
 51
90.0
 52
90.0
 71
     2
 49
0.5
 62
   256
  6
BYLAYER
 49
-0.5
 62
   256
  6
BYLAYER
  0
ACDBPLACEHOLDER
  5
F
102
{ACAD_REACTORS
330
E
102
}
330
E
  0
ENDSEC
  0
EOF
