  0
SECTION
  2
HEADER
  9
$ACADVER
  1
AC1015
  9
$ACADMAINTVER
 70
     6
  9
$DWGCODEPAGE
  3
ANSI_1252
  9
$INSBASE
 10
0.0
 20
0.0
 30
0.0
  9
$EXTMIN
 10
0.0
 20
0.0
 30
0.0
  9
$EXTMAX
 10
297.0
 20
210.0
 30
0.0
  9
$LIMMIN
 10
0.0
 20
0.0
  9
$LIMMAX
 10
297.0
 20
210.0
  9
$ORTHOMODE
 70
     0
  9
$REGENMODE
 70
     1
  9
$FILLMODE
 70
     1
  9
$QTEXTMODE
 70
     0
  9
$MIRRTEXT
 70
     1
  9
$LTSCALE
 40
1.0
  9
$ATTMODE
 70
     1
  9
$TEXTSIZE
 40
2.0
  9
$TRACEWID
 40
1.0
  9
$TEXTSTYLE
  7
Standard
  9
$CLAYER
  8
0
  9
$CELTYPE
  6
ByLayer
  9
$CECOLOR
 62
   256
  9
$CELTSCALE
 40
1.0
  9
$DISPSILH
 70
     0
  9
$DIMSCALE
 40
1.0
  9
$DIMASZ
 40
3.0
  9
$DIMEXO
 40
0.0
  9
$DIMDLI
 40
3.75
  9
$DIMRND
 40
0.0
  9
$DIMDLE
 40
0.0
  9
$DIMEXE
 40
1.0
  9
$DIMTP
 40
0.0
  9
$DIMTM
 40
0.0
  9
$DIMTXT
 40
2.0
  9
$DIMCEN
 40
2.5
  9
$DIMTSZ
 40
0.0
  9
$DIMTOL
 70
     0
  9
$DIMLIM
 70
     0
  9
$DIMTIH
 70
     1
  9
$DIMTOH
 70
     1
  9
$DIMSE1
 70
     0
  9
$DIMSE2
 70
     0
  9
$DIMTAD
 70
     1
  9
$DIMZIN
 70
     0
  9
$DIMBLK
  1

  9
$DIMASO
 70
     1
  9
$DIMSHO
 70
     1
  9
$DIMPOST
  1

  9
$DIMAPOST
  1

  9
$DIMALT
 70
     0
  9
$DIMALTD
 70
     3
  9
$DIMALTF
 40
0.0393700787
  9
$DIMLFAC
 40
1.0
  9
$DIMTOFL
 70
     1
  9
$DIMTVP
 40
0.0
  9
$DIMTIX
 70
     0
  9
$DIMSOXD
 70
     0
  9
$DIMSAH
 70
     0
  9
$DIMBLK1
  1

  9
$DIMBLK2
  1

  9
$DIMSTYLE
  2
ISO-25
  9
$DIMCLRD
 70
     0
  9
$DIMCLRE
 70
     0
  9
$DIMCLRT
 70
     0
  9
$DIMTFAC
 40
1.0
  9
$DIMGAP
 40
1.524
  9
$DIMJUST
 70
     0
  9
$DIMSD1
 70
     0
  9
$DIMSD2
 70
     0
  9
$DIMTOLJ
 70
     0
  9
$DIMTZIN
 70
     0
  9
$DIMALTZ
 70
     0
  9
$DIMALTTZ
 70
     0
  9
$DIMUPT
 70
     0
  9
$DIMDEC
 70
     2
  9
$DIMTDEC
 70
     2
  9
$DIMALTU
 70
     2
  9
$DIMALTTD
 70
     3
  9
$DIMTXSTY
  7
Standard
  9
$DIMAUNIT
 70
     0
  9
$DIMADEC
 70
     0
  9
$DIMALTRND
 40
0.0
  9
$DIMAZIN
 70
     0
  9
$DIMDSEP
 70
    44
  9
$DIMATFIT
 70
     3
  9
$DIMFRAC
 70
     0
  9
$DIMLDRBLK
  1

  9
$DIMLUNIT
 70
     2
  9
$DIMLWD
 70
    -2
  9
$DIMLWE
 70
    -2
  9
$DIMTMOVE
 70
     0
  9
$LUNITS
 70
     2
  9
$LUPREC
 70
     2
  9
$SKETCHINC
 40
1.0
  9
$FILLETRAD
 40
10.0
  9
$AUNITS
 70
     0
  9
$AUPREC
 70
     0
  9
$MENU
  1
.
  9
$ELEVATION
 40
0.0
  9
$PELEVATION
 40
0.0
  9
$THICKNESS
 40
0.0
  9
$LIMCHECK
 70
     0
  9
$CHAMFERA
 40
10.0
  9
$CHAMFERB
 40
10.0
  9
$CHAMFERC
 40
20.0
  9
$CHAMFERD
 40
0.0
  9
$SKPOLY
 70
     0
  9
$TDCREATE
 40
2455358.659303878
  9
$TDUCREATE
 40
2455358.575970544
  9
$TDUPDATE
 40
2455358.659303889
  9
$TDUUPDATE
 40
2455358.575970556
  9
$TDINDWG
 40
0.0000000116
  9
$TDUSRTIMER
 40
0.0000000116
  9
$USRTIMER
 70
     1
  9
$ANGBASE
 50
0.0
  9
$ANGDIR
 70
     0
  9
$PDMODE
 70
     0
  9
$PDSIZE
 40
-1.0
  9
$PLINEWID
 40
0.0
  9
$SPLFRAME
 70
     0
  9
$SPLINETYPE
 70
     6
  9
$SPLINESEGS
 70
     8
  9
$HANDSEED
  5
283
  9
$SURFTAB1
 70
     6
  9
$SURFTAB2
 70
     6
  9
$SURFTYPE
 70
     6
  9
$SURFU
 70
     6
  9
$SURFV
 70
     6
  9
$UCSBASE
  2

  9
$UCSNAME
  2

  9
$UCSORG
 10
0.0
 20
0.0
 30
0.0
  9
$UCSXDIR
 10
1.0
 20
0.0
 30
0.0
  9
$UCSYDIR
 10
0.0
 20
1.0
 30
0.0
  9
$UCSORTHOREF
  2

  9
$UCSORTHOVIEW
 70
     0
  9
$UCSORGTOP
 10
0.0
 20
0.0
 30
0.0
  9
$UCSORGBOTTOM
 10
0.0
 20
0.0
 30
0.0
  9
$UCSORGLEFT
 10
0.0
 20
0.0
 30
0.0
  9
$UCSORGRIGHT
 10
0.0
 20
0.0
 30
0.0
  9
$UCSORGFRONT
 10
0.0
 20
0.0
 30
0.0
  9
$UCSORGBACK
 10
0.0
 20
0.0
 30
0.0
  9
$PUCSBASE
  2

  9
$PUCSNAME
  2

  9
$PUCSORG
 10
0.0
 20
0.0
 30
0.0
  9
$PUCSXDIR
 10
1.0
 20
0.0
 30
0.0
  9
$PUCSYDIR
 10
0.0
 20
1.0
 30
0.0
  9
$PUCSORTHOREF
  2

  9
$PUCSORTHOVIEW
 70
     0
  9
$PUCSORGTOP
 10
0.0
 20
0.0
 30
0.0
  9
$PUCSORGBOTTOM
 10
0.0
 20
0.0
 30
0.0
  9
$PUCSORGLEFT
 10
0.0
 20
0.0
 30
0.0
  9
$PUCSORGRIGHT
 10
0.0
 20
0.0
 30
0.0
  9
$PUCSORGFRONT
 10
0.0
 20
0.0
 30
0.0
  9
$PUCSORGBACK
 10
0.0
 20
0.0
 30
0.0
  9
$USERI1
 70
     0
  9
$USERI2
 70
     0
  9
$USERI3
 70
     0
  9
$USERI4
 70
     0
  9
$USERI5
 70
     0
  9
$USERR1
 40
0.0
  9
$USERR2
 40
0.0
  9
$USERR3
 40
0.0
  9
$USERR4
 40
0.0
  9
$USERR5
 40
0.0
  9
$WORLDVIEW
 70
     1
  9
$SHADEDGE
 70
     3
  9
$SHADEDIF
 70
    70
  9
$TILEMODE
 70
     1
  9
$MAXACTVP
 70
    64
  9
$PINSBASE
 10
0.0
 20
0.0
 30
0.0
  9
$PLIMCHECK
 70
     0
  9
$PEXTMIN
 10
1.0000000000E+20
 20
1.0000000000E+20
 30
1.0000000000E+20
  9
$PEXTMAX
 10
-1.0000000000E+20
 20
-1.0000000000E+20
 30
-1.0000000000E+20
  9
$PLIMMIN
 10
0.0
 20
0.0
  9
$PLIMMAX
 10
420.0
 20
297.0
  9
$UNITMODE
 70
     0
  9
$VISRETAIN
 70
     1
  9
$PLINEGEN
 70
     0
  9
$PSLTSCALE
 70
     1
  9
$TREEDEPTH
 70
  3020
  9
$CMLSTYLE
  2
Standard
  9
$CMLJUST
 70
     0
  9
$CMLSCALE
 40
20.0
  9
$PROXYGRAPHICS
 70
     1
  9
$MEASUREMENT
 70
     1
  9
$CELWEIGHT
370
    -1
  9
$ENDCAPS
280
     0
  9
$JOINSTYLE
280
     0
  9
$LWDISPLAY
290
     1
  9
$INSUNITS
 70
     4
  9
$HYPERLINKBASE
  1

  9
$STYLESHEET
  1

  9
$XEDIT
290
     1
  9
$CEPSNTYPE
380
     0
  9
$PSTYLEMODE
290
     1
  9
$FINGERPRINTGUID
  2
{2F976C75-761C-4715-98FF-7D11A892C62E}
  9
$VERSIONGUID
  2
{FAEB1C32-E019-11D5-929B-00C0DF256EC4}
  9
$EXTNAMES
290
     1
  9
$PSVPSCALE
 40
0.0
  9
$OLESTARTUP
290
     0
  0
ENDSEC
  0
SECTION
  2
CLASSES
  0
CLASS
  1
ACDBDICTIONARYWDFLT
  2
AcDbDictionaryWithDefault
  3
ObjectDBX Classes
 90
        0
280
     0
281
     0
  0
CLASS
  1
VISUALSTYLE
  2
AcDbVisualStyle
  3
ObjectDBX Classes
 90
     4095
280
     0
281
     0
  0
CLASS
  1
DICTIONARYVAR
  2
AcDbDictionaryVar
  3
ObjectDBX Classes
 90
        0
280
     0
281
     0
  0
CLASS
  1
ACDBPLACEHOLDER
  2
AcDbPlaceHolder
  3
ObjectDBX Classes
 90
        0
280
     0
281
     0
  0
CLASS
  1
LAYOUT
  2
AcDbLayout
  3
ObjectDBX Classes
 90
        0
280
     0
281
     0
  0
ENDSEC
  0
SECTION
  2
TABLES
  0
TABLE
  2
VPORT
  5
8
330
0
100
AcDbSymbolTable
 70
     1
  0
VPORT
  5
29
330
8
100
AcDbSymbolTableRecord
100
AcDbViewportTableRecord
  2
*Active
 70
     0
 10
0.0
 20
0.0
 11
1.0
 21
1.0
 12
148.5
 22
105.0
 13
0.0
 23
0.0
 14
10.0
 24
10.0
 15
10.0
 25
10.0
 16
0.0
 26
0.0
 36
1.0
 17
0.0
 27
0.0
 37
0.0
 40
210.0
 41
1.4142857143
 42
50.0
 43
0.0
 44
0.0
 50
0.0
 51
0.0
 71
     0
 72
  2000
 73
     1
 74
     3
 75
     0
 76
     0
 77
     0
 78
     0
281
     0
 65
     1
110
0.0
120
0.0
130
0.0
111
1.0
121
0.0
131
0.0
112
0.0
122
1.0
132
0.0
 79
     0
146
0.0
  0
ENDTAB
  0
TABLE
  2
LTYPE
  5
5
330
0
100
AcDbSymbolTable
 70
     6
  0
LTYPE
  5
14
330
5
100
AcDbSymbolTableRecord
100
AcDbLinetypeTableRecord
  2
ByBlock
 70
     0
  3

 72
    65
 73
     0
 40
0.0
  0
LTYPE
  5
15
330
5
100
AcDbSymbolTableRecord
100
AcDbLinetypeTableRecord
  2
ByLayer
 70
     0
  3

 72
    65
 73
     0
 40
0.0
  0
LTYPE
  5
16
330
5
100
AcDbSymbolTableRecord
100
AcDbLinetypeTableRecord
  2
Continuous
 70
     0
  3
Solid line
 72
    65
 73
     0
 40
0.0
  0
LTYPE
  5
3B
330
5
100
AcDbSymbolTableRecord
100
AcDbLinetypeTableRecord
  2
HIDDEN
 70
     0
  3
Hidden __ __ __ __ __ __ __ __ __ __ __ __ __ __
 72
    65
 73
     2
 40
1.905
 49
1.27
 74
     0
 49
-0.635
 74
     0
  0
LTYPE
  5
3C
330
5
100
AcDbSymbolTableRecord
100
AcDbLinetypeTableRecord
  2
PHANTOM
 70
     0
  3
Phantom ______  __  __  ______  __  __  ______
 72
    65
 73
     6
 40
12.7
 49
6.35
 74
     0
 49
-1.27
 74
     0
 49
1.27
 74
     0
 49
-1.27
 74
     0
 49
1.27
 74
     0
 49
-1.27
 74
     0
  0
LTYPE
  5
3D
330
5
100
AcDbSymbolTableRecord
100
AcDbLinetypeTableRecord
  2
CENTER
 70
     0
  3
Center ____ _ ____ _ ____ _ ____ _ ____ _ ____
 72
    65
 73
     4
 40
10.16
 49
6.35
 74
     0
 49
-1.27
 74
     0
 49
1.27
 74
     0
 49
-1.27
 74
     0
  0
LTYPE
  5
3E
330
5
100
AcDbSymbolTableRecord
100
AcDbLinetypeTableRecord
  2
CENTERX2
 70
     0
  3
Center (2x) ________  __  ________  __  _____
 72
    65
 73
     4
 40
20.32
 49
12.7
 74
     0
 49
-2.54
 74
     0
 49
2.54
 74
     0
 49
-2.54
 74
     0
  0
LTYPE
  5
3F
330
5
100
AcDbSymbolTableRecord
100
AcDbLinetypeTableRecord
  2
DOT2
 70
     0
  3
Dot (.5x) ........................................
 72
    65
 73
     2
 40
0.635
 49
0.0
 74
     0
 49
-0.635
 74
     0
  0
ENDTAB
  0
TABLE
  2
LAYER
  5
2
330
0
100
AcDbSymbolTable
 70
     5
  0
LAYER
  5
10
330
2
100
AcDbSymbolTableRecord
100
AcDbLayerTableRecord
  2
0
 70
     0
 62
     7
  6
Continuous
370
    -3
390
F
  0
LAYER
  5
40
330
2
100
AcDbSymbolTableRecord
100
AcDbLayerTableRecord
  2
FORMAT
 70
     0
 62
     7
  6
Continuous
370
    -3
390
F
  0
LAYER
  5
41
330
2
100
AcDbSymbolTableRecord
100
AcDbLayerTableRecord
  2
VERMASSUNG
 70
     0
 62
     7
  6
Continuous
370
    -3
390
F
  0
LAYER
  5
42
330
2
100
AcDbSymbolTableRecord
100
AcDbLayerTableRecord
  2
KOPF_DÜNN
 70
     0
 62
     7
  6
Continuous
370
    -3
390
F
  0
LAYER
  5
43
330
2
100
AcDbSymbolTableRecord
100
AcDbLayerTableRecord
  2
KOPF_DICK
 70
     0
 62
     7
  6
Continuous
370
    15
390
F
  0
ENDTAB
  0
TABLE
  2
STYLE
  5
3
330
0
100
AcDbSymbolTable
 70
     3
  0
STYLE
  5
11
330
3
100
AcDbSymbolTableRecord
100
AcDbTextStyleTableRecord
  2
Standard
 70
     0
 40
0.0
 41
1.0
 50
0.0
 71
     0
 42
2.5
  3
txt
  4

  0
STYLE
  5
44
330
3
100
AcDbSymbolTableRecord
100
AcDbTextStyleTableRecord
  2
SLDTEXTSTYLE0
 70
     0
 40
0.0
 41
0.7
 50
0.0
 71
     0
 42
0.2
  3
TXT
  4

  0
STYLE
  5
48
330
3
100
AcDbSymbolTableRecord
100
AcDbTextStyleTableRecord
  2
SLDTEXTSTYLE1
 70
     0
 40
0.0
 41
0.6384615385
 50
0.0
 71
     0
 42
0.2
  3
TXT
  4

  0
ENDTAB
  0
TABLE
  2
VIEW
  5
6
330
0
100
AcDbSymbolTable
 70
     0
  0
ENDTAB
  0
TABLE
  2
UCS
  5
7
330
0
100
AcDbSymbolTable
 70
     0
  0
ENDTAB
  0
TABLE
  2
APPID
  5
9
330
0
100
AcDbSymbolTable
 70
     1
  0
APPID
  5
12
330
9
100
AcDbSymbolTableRecord
100
AcDbRegAppTableRecord
  2
ACAD
 70
     0
  0
ENDTAB
  0
TABLE
  2
DIMSTYLE
  5
A
330
0
100
AcDbSymbolTable
 70
     3
100
AcDbDimStyleTable
  0
DIMSTYLE
105
27
330
A
100
AcDbSymbolTableRecord
100
AcDbDimStyleTableRecord
  2
ISO-25
 70
     0
 41
2.5
 42
0.625
 43
3.75
 44
1.25
 73
     0
 74
     0
 77
     1
 78
     8
140
2.5
141
2.5
143
0.0393700787
147
0.625
171
     3
172
     1
271
     2
272
     2
274
     3
278
    44
283
     0
284
     8
340
11
  0
DIMSTYLE
105
169
102
{ACAD_REACTORS
330
168
330
173
330
17D
330
187
330
191
330
19B
330
1A5
330
1B0
330
1BB
330
1D5
102
}
330
A
100
AcDbSymbolTableRecord
100
AcDbDimStyleTableRecord
  2
SLDDIMSTYLE0
 70
     0
 41
3.0
 44
0.0
 45
0.000000001
 73
     0
 74
     0
 77
     1
 78
    12
140
2.0
147
0.5
173
     1
271
     2
272
     3
284
    12
340
44
  0
DIMSTYLE
105
1C8
102
{ACAD_REACTORS
330
1C7
102
}
330
A
100
AcDbSymbolTableRecord
100
AcDbDimStyleTableRecord
  2
SLDDIMSTYLE1
 70
     0
 41
3.0
 44
0.0
 45
0.000000001
 73
     0
 74
     0
 77
     1
 78
    12
140
2.0
147
0.5
173
     1
271
     2
272
     3
284
    12
340
44
  0
ENDTAB
  0
TABLE
  2
BLOCK_RECORD
  5
1
330
0
100
AcDbSymbolTable
 70
    12
  0
BLOCK_RECORD
  5
1F
330
1
100
AcDbSymbolTableRecord
100
AcDbBlockTableRecord
  2
*Model_Space
340
22
  0
BLOCK_RECORD
  5
1B
330
1
100
AcDbSymbolTableRecord
100
AcDbBlockTableRecord
  2
*Paper_Space
340
1E
  0
BLOCK_RECORD
  5
23
330
1
100
AcDbSymbolTableRecord
100
AcDbBlockTableRecord
  2
*Paper_Space0
340
26
  0
BLOCK_RECORD
  5
16A
330
1
100
AcDbSymbolTableRecord
100
AcDbBlockTableRecord
  2
*D1
340
0
  0
BLOCK_RECORD
  5
174
330
1
100
AcDbSymbolTableRecord
100
AcDbBlockTableRecord
  2
*D2
340
0
  0
BLOCK_RECORD
  5
17E
330
1
100
AcDbSymbolTableRecord
100
AcDbBlockTableRecord
  2
*D3
340
0
  0
BLOCK_RECORD
  5
188
330
1
100
AcDbSymbolTableRecord
100
AcDbBlockTableRecord
  2
*D4
340
0
  0
BLOCK_RECORD
  5
192
330
1
100
AcDbSymbolTableRecord
100
AcDbBlockTableRecord
  2
*D5
340
0
  0
BLOCK_RECORD
  5
19C
330
1
100
AcDbSymbolTableRecord
100
AcDbBlockTableRecord
  2
*D6
340
0
  0
BLOCK_RECORD
  5
1A6
330
1
100
AcDbSymbolTableRecord
100
AcDbBlockTableRecord
  2
*D7
340
0
  0
BLOCK_RECORD
  5
1B1
330
1
100
AcDbSymbolTableRecord
100
AcDbBlockTableRecord
  2
*D8
340
0
  0
BLOCK_RECORD
  5
1BC
330
1
100
AcDbSymbolTableRecord
100
AcDbBlockTableRecord
  2
*D9
340
0
  0
BLOCK_RECORD
  5
1C9
330
1
100
AcDbSymbolTableRecord
100
AcDbBlockTableRecord
  2
*D10
340
0
  0
BLOCK_RECORD
  5
1D6
330
1
100
AcDbSymbolTableRecord
100
AcDbBlockTableRecord
  2
*D11
340
0
  0
ENDTAB
  0
ENDSEC
  0
SECTION
  2
BLOCKS
  0
BLOCK
  5
20
330
1F
100
AcDbEntity
  8
0
100
AcDbBlockBegin
  2
*Model_Space
 70
     0
 10
0.0
 20
0.0
 30
0.0
  3
*Model_Space
  1

  0
ENDBLK
  5
21
330
1F
100
AcDbEntity
  8
0
100
AcDbBlockEnd
  0
BLOCK
  5
1C
330
1B
100
AcDbEntity
 67
     1
  8
0
100
AcDbBlockBegin
  2
*Paper_Space
 70
     0
 10
0.0
 20
0.0
 30
0.0
  3
*Paper_Space
  1

  0
ENDBLK
  5
1D
330
1B
100
AcDbEntity
 67
     1
  8
0
100
AcDbBlockEnd
  0
BLOCK
  5
24
330
23
100
AcDbEntity
  8
0
100
AcDbBlockBegin
  2
*Paper_Space0
 70
     0
 10
0.0
 20
0.0
 30
0.0
  3
*Paper_Space0
  1

  0
ENDBLK
  5
25
330
23
100
AcDbEntity
  8
0
100
AcDbBlockEnd
  0
BLOCK
  5
16B
330
16A
100
AcDbEntity
  8
0
100
AcDbBlockBegin
  2
*D1
 70
     1
 10
0.0
 20
0.0
 30
0.0
  3
*D1
  1

  0
SOLID
  5
16D
330
16A
100
AcDbEntity
  8
VERMASSUNG
100
AcDbTrace
 10
97.7553954641
 20
144.9366182432
 30
0.0
 11
100.7553954641
 21
144.4866182432
 31
0.0
 12
100.7553954641
 22
145.3866182432
 32
0.0
 13
100.7553954641
 23
145.3866182432
 33
0.0
  0
SOLID
  5
16E
330
16A
100
AcDbEntity
  8
VERMASSUNG
100
AcDbTrace
 10
155.7553954641
 20
144.9366182432
 30
0.0
 11
152.7553954641
 21
145.3866182432
 31
0.0
 12
152.7553954641
 22
144.4866182432
 32
0.0
 13
152.7553954641
 23
144.4866182432
 33
0.0
  0
LINE
  5
16F
330
16A
100
AcDbEntity
  8
VERMASSUNG
100
AcDbLine
 10
97.7553954641
 20
141.3949012567
 30
0.0
 11
97.7553954641
 21
145.9366182432
 31
0.0
  0
LINE
  5
170
330
16A
100
AcDbEntity
  8
VERMASSUNG
100
AcDbLine
 10
155.7553954641
 20
125.8949012567
 30
0.0
 11
155.7553954641
 21
145.9366182432
 31
0.0
  0
LINE
  5
171
330
16A
100
AcDbEntity
  8
VERMASSUNG
100
AcDbLine
 10
97.7553954641
 20
144.9366182432
 30
0.0
 11
155.7553954641
 21
144.9366182432
 31
0.0
  0
MTEXT
  5
172
330
16A
100
AcDbEntity
  8
VERMASSUNG
100
AcDbMText
 10
125.3557728798
 20
147.5147538391
 30
0.0
 40
2.0
 41
0.0
 71
     1
 72
     1
  1
58
  7
SLDTEXTSTYLE0
 73
     1
 44
1.0
  0
ENDBLK
  5
16C
330
16A
100
AcDbEntity
  8
0
100
AcDbBlockEnd
  0
BLOCK
  5
175
330
174
100
AcDbEntity
  8
0
100
AcDbBlockBegin
  2
*D2
 70
     1
 10
0.0
 20
0.0
 30
0.0
  3
*D2
  1

  0
SOLID
  5
177
330
174
100
AcDbEntity
  8
VERMASSUNG
100
AcDbTrace
 10
155.7553954641
 20
150.9366182432
 30
0.0
 11
152.7553954641
 21
151.3866182432
 31
0.0
 12
152.7553954641
 22
150.4866182432
 32
0.0
 13
152.7553954641
 23
150.4866182432
 33
0.0
  0
SOLID
  5
178
330
174
100
AcDbEntity
  8
VERMASSUNG
100
AcDbTrace
 10
75.7553954641
 20
150.9366182432
 30
0.0
 11
78.7553954641
 21
150.4866182432
 31
0.0
 12
78.7553954641
 22
151.3866182432
 32
0.0
 13
78.7553954641
 23
151.3866182432
 33
0.0
  0
LINE
  5
179
330
174
100
AcDbEntity
  8
VERMASSUNG
100
AcDbLine
 10
155.7553954641
 20
125.8949012567
 30
0.0
 11
155.7553954641
 21
151.9366182432
 31
0.0
  0
LINE
  5
17A
330
174
100
AcDbEntity
  8
VERMASSUNG
100
AcDbLine
 10
75.7553954641
 20
141.0949012567
 30
0.0
 11
75.7553954641
 21
151.9366182432
 31
0.0
  0
LINE
  5
17B
330
174
100
AcDbEntity
  8
VERMASSUNG
100
AcDbLine
 10
155.7553954641
 20
150.9366182432
 30
0.0
 11
75.7553954641
 21
150.9366182432
 31
0.0
  0
MTEXT
  5
17C
330
174
100
AcDbEntity
  8
VERMASSUNG
100
AcDbMText
 10
114.3557728798
 20
153.5147538391
 30
0.0
 40
2.0
 41
0.0
 71
     1
 72
     1
  1
80
  7
SLDTEXTSTYLE0
 73
     1
 44
1.0
  0
ENDBLK
  5
176
330
174
100
AcDbEntity
  8
0
100
AcDbBlockEnd
  0
BLOCK
  5
17F
330
17E
100
AcDbEntity
  8
0
100
AcDbBlockBegin
  2
*D3
 70
     1
 10
0.0
 20
0.0
 30
0.0
  3
*D3
  1

  0
SOLID
  5
181
330
17E
100
AcDbEntity
  8
VERMASSUNG
100
AcDbTrace
 10
155.7553954641
 20
156.9366182432
 30
0.0
 11
152.7553954641
 21
157.3866182432
 31
0.0
 12
152.7553954641
 22
156.4866182432
 32
0.0
 13
152.7553954641
 23
156.4866182432
 33
0.0
  0
SOLID
  5
182
330
17E
100
AcDbEntity
  8
VERMASSUNG
100
AcDbTrace
 10
37.7553954641
 20
156.9366182432
 30
0.0
 11
40.7553954641
 21
156.4866182432
 31
0.0
 12
40.7553954641
 22
157.3866182432
 32
0.0
 13
40.7553954641
 23
157.3866182432
 33
0.0
  0
LINE
  5
183
330
17E
100
AcDbEntity
  8
VERMASSUNG
100
AcDbLine
 10
155.7553954641
 20
125.8949012567
 30
0.0
 11
155.7553954641
 21
157.9366182432
 31
0.0
  0
LINE
  5
184
330
17E
100
AcDbEntity
  8
VERMASSUNG
100
AcDbLine
 10
37.7553954641
 20
130.1872392492
 30
0.0
 11
37.7553954641
 21
157.9366182432
 31
0.0
  0
LINE
  5
185
330
17E
100
AcDbEntity
  8
VERMASSUNG
100
AcDbLine
 10
155.7553954641
 20
156.9366182432
 30
0.0
 11
37.7553954641
 21
156.9366182432
 31
0.0
  0
MTEXT
  5
186
330
17E
100
AcDbEntity
  8
VERMASSUNG
100
AcDbMText
 10
95.0559156574
 20
159.5147538391
 30
0.0
 40
2.0
 41
0.0
 71
     1
 72
     1
  1
118
  7
SLDTEXTSTYLE0
 73
     1
 44
1.0
  0
ENDBLK
  5
180
330
17E
100
AcDbEntity
  8
0
100
AcDbBlockEnd
  0
BLOCK
  5
189
330
188
100
AcDbEntity
  8
0
100
AcDbBlockBegin
  2
*D4
 70
     1
 10
0.0
 20
0.0
 30
0.0
  3
*D4
  1

  0
SOLID
  5
18B
330
188
100
AcDbEntity
  8
VERMASSUNG
100
AcDbTrace
 10
147.7553954641
 20
83.2786748858
 30
0.0
 11
150.7553954641
 21
82.8286748858
 31
0.0
 12
150.7553954641
 22
83.7286748858
 32
0.0
 13
150.7553954641
 23
83.7286748858
 33
0.0
  0
SOLID
  5
18C
330
188
100
AcDbEntity
  8
VERMASSUNG
100
AcDbTrace
 10
155.7553954641
 20
83.2786748858
 30
0.0
 11
152.7553954641
 21
83.7286748858
 31
0.0
 12
152.7553954641
 22
82.8286748858
 32
0.0
 13
152.7553954641
 23
82.8286748858
 33
0.0
  0
LINE
  5
18D
330
188
100
AcDbEntity
  8
VERMASSUNG
100
AcDbLine
 10
147.7553954641
 20
110.7233283815
 30
0.0
 11
147.7553954641
 21
82.2786748858
 31
0.0
  0
LINE
  5
18E
330
188
100
AcDbEntity
  8
VERMASSUNG
100
AcDbLine
 10
155.7553954641
 20
93.8949012567
 30
0.0
 11
155.7553954641
 21
82.2786748858
 31
0.0
  0
LINE
  5
18F
330
188
100
AcDbEntity
  8
VERMASSUNG
100
AcDbLine
 10
147.7553954641
 20
83.2786748858
 30
0.0
 11
155.7553954641
 21
83.2786748858
 31
0.0
  0
MTEXT
  5
190
330
188
100
AcDbEntity
  8
VERMASSUNG
100
AcDbMText
 10
151.0560174916
 20
85.8568104817
 30
0.0
 40
2.0
 41
0.0
 71
     1
 72
     1
  1
8
  7
SLDTEXTSTYLE0
 73
     1
 44
1.0
  0
ENDBLK
  5
18A
330
188
100
AcDbEntity
  8
0
100
AcDbBlockEnd
  0
BLOCK
  5
193
330
192
100
AcDbEntity
  8
0
100
AcDbBlockBegin
  2
*D5
 70
     1
 10
0.0
 20
0.0
 30
0.0
  3
*D5
  1

  0
SOLID
  5
195
330
192
100
AcDbEntity
  8
VERMASSUNG
100
AcDbTrace
 10
147.7553954641
 20
83.2786748858
 30
0.0
 11
144.7553954641
 21
83.7286748858
 31
0.0
 12
144.7553954641
 22
82.8286748858
 32
0.0
 13
144.7553954641
 23
82.8286748858
 33
0.0
  0
SOLID
  5
196
330
192
100
AcDbEntity
  8
VERMASSUNG
100
AcDbTrace
 10
137.7553954641
 20
83.2786748858
 30
0.0
 11
140.7553954641
 21
82.8286748858
 31
0.0
 12
140.7553954641
 22
83.7286748858
 32
0.0
 13
140.7553954641
 23
83.7286748858
 33
0.0
  0
LINE
  5
197
330
192
100
AcDbEntity
  8
VERMASSUNG
100
AcDbLine
 10
147.7553954641
 20
110.7233283815
 30
0.0
 11
147.7553954641
 21
82.2786748858
 31
0.0
  0
LINE
  5
198
330
192
100
AcDbEntity
  8
VERMASSUNG
100
AcDbLine
 10
137.7553954641
 20
110.7233283815
 30
0.0
 11
137.7553954641
 21
82.2786748858
 31
0.0
  0
LINE
  5
199
330
192
100
AcDbEntity
  8
VERMASSUNG
100
AcDbLine
 10
147.7553954641
 20
83.2786748858
 30
0.0
 11
137.7553954641
 21
83.2786748858
 31
0.0
  0
MTEXT
  5
19A
330
192
100
AcDbEntity
  8
VERMASSUNG
100
AcDbMText
 10
141.5559665745
 20
85.8568104817
 30
0.0
 40
2.0
 41
0.0
 71
     1
 72
     1
  1
10
  7
SLDTEXTSTYLE0
 73
     1
 44
1.0
  0
ENDBLK
  5
194
330
192
100
AcDbEntity
  8
0
100
AcDbBlockEnd
  0
BLOCK
  5
19D
330
19C
100
AcDbEntity
  8
0
100
AcDbBlockBegin
  2
*D6
 70
     1
 10
0.0
 20
0.0
 30
0.0
  3
*D6
  1

  0
SOLID
  5
19F
330
19C
100
AcDbEntity
  8
VERMASSUNG
100
AcDbTrace
 10
137.7553954641
 20
83.2786748858
 30
0.0
 11
134.7553954641
 21
83.7286748858
 31
0.0
 12
134.7553954641
 22
82.8286748858
 32
0.0
 13
134.7553954641
 23
82.8286748858
 33
0.0
  0
SOLID
  5
1A0
330
19C
100
AcDbEntity
  8
VERMASSUNG
100
AcDbTrace
 10
127.7553954641
 20
83.2786748858
 30
0.0
 11
130.7553954641
 21
82.8286748858
 31
0.0
 12
130.7553954641
 22
83.7286748858
 32
0.0
 13
130.7553954641
 23
83.7286748858
 33
0.0
  0
LINE
  5
1A1
330
19C
100
AcDbEntity
  8
VERMASSUNG
100
AcDbLine
 10
137.7553954641
 20
110.7233283815
 30
0.0
 11
137.7553954641
 21
82.2786748858
 31
0.0
  0
LINE
  5
1A2
330
19C
100
AcDbEntity
  8
VERMASSUNG
100
AcDbLine
 10
127.7553954641
 20
110.7233283815
 30
0.0
 11
127.7553954641
 21
82.2786748858
 31
0.0
  0
LINE
  5
1A3
330
19C
100
AcDbEntity
  8
VERMASSUNG
100
AcDbLine
 10
137.7553954641
 20
83.2786748858
 30
0.0
 11
127.7553954641
 21
83.2786748858
 31
0.0
  0
MTEXT
  5
1A4
330
19C
100
AcDbEntity
  8
VERMASSUNG
100
AcDbMText
 10
131.5559665745
 20
85.8568104817
 30
0.0
 40
2.0
 41
0.0
 71
     1
 72
     1
  1
10
  7
SLDTEXTSTYLE0
 73
     1
 44
1.0
  0
ENDBLK
  5
19E
330
19C
100
AcDbEntity
  8
0
100
AcDbBlockEnd
  0
BLOCK
  5
1A7
330
1A6
100
AcDbEntity
  8
0
100
AcDbBlockBegin
  2
*D7
 70
     1
 10
0.0
 20
0.0
 30
0.0
  3
*D7
  1

  0
SOLID
  5
1A9
330
1A6
100
AcDbEntity
  8
VERMASSUNG
100
AcDbTrace
 10
162.1172484753
 20
113.8949012567
 30
0.0
 11
161.6672484753
 21
110.8949012567
 31
0.0
 12
162.5672484753
 22
110.8949012567
 32
0.0
 13
162.5672484753
 23
110.8949012567
 33
0.0
  0
SOLID
  5
1AA
330
1A6
100
AcDbEntity
  8
VERMASSUNG
100
AcDbTrace
 10
162.1172484753
 20
105.8949012567
 30
0.0
 11
162.5672484753
 21
108.8949012567
 31
0.0
 12
161.6672484753
 22
108.8949012567
 32
0.0
 13
161.6672484753
 23
108.8949012567
 33
0.0
  0
LINE
  5
1AB
330
1A6
100
AcDbEntity
  8
VERMASSUNG
100
AcDbLine
 10
155.4553954641
 20
113.8949012567
 30
0.0
 11
163.1172484753
 21
113.8949012567
 31
0.0
  0
LINE
  5
1AC
330
1A6
100
AcDbEntity
  8
VERMASSUNG
100
AcDbLine
 10
155.4553954641
 20
105.8949012567
 30
0.0
 11
163.1172484753
 21
105.8949012567
 31
0.0
  0
LINE
  5
1AD
330
1A6
100
AcDbEntity
  8
VERMASSUNG
100
AcDbLine
 10
162.1172484753
 20
113.8949012567
 30
0.0
 11
162.1172484753
 21
105.8949012567
 31
0.0
  0
MTEXT
  5
1AE
330
1A6
100
AcDbEntity
  8
VERMASSUNG
100
AcDbMText
 10
159.5391129375
 20
107.3911801138
 30
0.0
 40
2.0
 41
0.0
 71
     1
 72
     1
  1
%%c
  7
SLDTEXTSTYLE0
 11
-7.044195017643634E-15
 21
1.0
 31
0.0
 73
     1
 44
1.0
  0
MTEXT
  5
1AF
330
1A6
100
AcDbEntity
  8
VERMASSUNG
100
AcDbMText
 10
159.5391128793
 20
110.9998664548
 30
0.0
 40
2.0
 41
0.0
 71
     1
 72
     1
  1
8
  7
SLDTEXTSTYLE0
 11
-7.044195017643634E-15
 21
1.0
 31
0.0
 73
     1
 44
1.0
  0
ENDBLK
  5
1A8
330
1A6
100
AcDbEntity
  8
0
100
AcDbBlockEnd
  0
BLOCK
  5
1B2
330
1B1
100
AcDbEntity
  8
0
100
AcDbBlockBegin
  2
*D8
 70
     1
 10
0.0
 20
0.0
 30
0.0
  3
*D8
  1

  0
SOLID
  5
1B4
330
1B1
100
AcDbEntity
  8
VERMASSUNG
100
AcDbTrace
 10
170.2277323649
 20
126.8949012567
 30
0.0
 11
169.7777323649
 21
123.8949012567
 31
0.0
 12
170.6777323649
 22
123.8949012567
 32
0.0
 13
170.6777323649
 23
123.8949012567
 33
0.0
  0
SOLID
  5
1B5
330
1B1
100
AcDbEntity
  8
VERMASSUNG
100
AcDbTrace
 10
170.2277323649
 20
92.8949012567
 30
0.0
 11
170.6777323649
 21
95.8949012567
 31
0.0
 12
169.7777323649
 22
95.8949012567
 32
0.0
 13
169.7777323649
 23
95.8949012567
 33
0.0
  0
LINE
  5
1B6
330
1B1
100
AcDbEntity
  8
VERMASSUNG
100
AcDbLine
 10
154.7553954641
 20
126.8949012567
 30
0.0
 11
171.2277323649
 21
126.8949012567
 31
0.0
  0
LINE
  5
1B7
330
1B1
100
AcDbEntity
  8
VERMASSUNG
100
AcDbLine
 10
154.7553954641
 20
92.8949012567
 30
0.0
 11
171.2277323649
 21
92.8949012567
 31
0.0
  0
LINE
  5
1B8
330
1B1
100
AcDbEntity
  8
VERMASSUNG
100
AcDbLine
 10
170.2277323649
 20
126.8949012567
 30
0.0
 11
170.2277323649
 21
92.8949012567
 31
0.0
  0
MTEXT
  5
1B9
330
1B1
100
AcDbEntity
  8
VERMASSUNG
100
AcDbMText
 10
167.6495968272
 20
106.5912719743
 30
0.0
 40
2.0
 41
0.0
 71
     1
 72
     1
  1
%%c
  7
SLDTEXTSTYLE0
 11
-7.044195017643634E-15
 21
1.0
 31
0.0
 73
     1
 44
1.0
  0
MTEXT
  5
1BA
330
1B1
100
AcDbEntity
  8
VERMASSUNG
100
AcDbMText
 10
167.649596769
 20
110.1999583153
 30
0.0
 40
2.0
 41
0.0
 71
     1
 72
     1
  1
34
  7
SLDTEXTSTYLE0
 11
-7.044195017643634E-15
 21
1.0
 31
0.0
 73
     1
 44
1.0
  0
ENDBLK
  5
1B3
330
1B1
100
AcDbEntity
  8
0
100
AcDbBlockEnd
  0
BLOCK
  5
1BD
330
1BC
100
AcDbEntity
  8
0
100
AcDbBlockBegin
  2
*D9
 70
     1
 10
0.0
 20
0.0
 30
0.0
  3
*D9
  1

  0
SOLID
  5
1BF
330
1BC
100
AcDbEntity
  8
VERMASSUNG
100
AcDbTrace
 10
26.5233529924
 20
141.3949012567
 30
0.0
 11
26.0733529924
 21
138.3949012567
 31
0.0
 12
26.9733529924
 22
138.3949012567
 32
0.0
 13
26.9733529924
 23
138.3949012567
 33
0.0
  0
SOLID
  5
1C0
330
1BC
100
AcDbEntity
  8
VERMASSUNG
100
AcDbTrace
 10
26.5233529924
 20
78.3949012567
 30
0.0
 11
26.9733529924
 21
81.3949012567
 31
0.0
 12
26.0733529924
 22
81.3949012567
 32
0.0
 13
26.0733529924
 23
81.3949012567
 33
0.0
  0
LINE
  5
1C1
330
1BC
100
AcDbEntity
  8
VERMASSUNG
100
AcDbLine
 10
76.0553954641
 20
141.3949012567
 30
0.0
 11
25.5233529924
 21
141.3949012567
 31
0.0
  0
LINE
  5
1C2
330
1BC
100
AcDbEntity
  8
VERMASSUNG
100
AcDbLine
 10
76.0553954641
 20
78.3949012567
 30
0.0
 11
25.5233529924
 21
78.3949012567
 31
0.0
  0
LINE
  5
1C3
330
1BC
100
AcDbEntity
  8
VERMASSUNG
100
AcDbLine
 10
26.5233529924
 20
141.3949012567
 30
0.0
 11
26.5233529924
 21
78.3949012567
 31
0.0
  0
MTEXT
  5
1C4
330
1BC
100
AcDbEntity
  8
VERMASSUNG
100
AcDbMText
 10
23.7452177362
 20
104.3908746112
 30
0.0
 40
2.0
 41
0.0
 71
     1
 72
     1
  1
PSC
  7
SLDTEXTSTYLE0
 11
-7.044195017643634E-15
 21
1.0
 31
0.0
 73
     1
 44
1.0
  0
MTEXT
  5
1C5
330
1BC
100
AcDbEntity
  8
VERMASSUNG
100
AcDbMText
 10
23.9452176875
 20
108.9908742476
 30
0.0
 40
2.0
 41
0.0
 71
     1
 72
     1
  1
%%c
  7
SLDTEXTSTYLE0
 11
-7.044195017643634E-15
 21
1.0
 31
0.0
 73
     1
 44
1.0
  0
MTEXT
  5
1C6
330
1BC
100
AcDbEntity
  8
VERMASSUNG
100
AcDbMText
 10
23.9452173964
 20
112.5996827338
 30
0.0
 40
2.0
 41
0.0
 71
     1
 72
     1
  1
63
  7
SLDTEXTSTYLE0
 11
-7.044195017643634E-15
 21
1.0
 31
0.0
 73
     1
 44
1.0
  0
ENDBLK
  5
1BE
330
1BC
100
AcDbEntity
  8
0
100
AcDbBlockEnd
  0
BLOCK
  5
1CA
330
1C9
100
AcDbEntity
  8
0
100
AcDbBlockBegin
  2
*D10
 70
     1
 10
0.0
 20
0.0
 30
0.0
  3
*D10
  1

  0
SOLID
  5
1CC
330
1C9
100
AcDbEntity
  8
VERMASSUNG
100
AcDbTrace
 10
32.5233529924
 20
104.8949012567
 30
0.0
 11
32.9733529924
 21
107.8949012567
 31
0.0
 12
32.0733529924
 22
107.8949012567
 32
0.0
 13
32.0733529924
 23
107.8949012567
 33
0.0
  0
SOLID
  5
1CD
330
1C9
100
AcDbEntity
  8
VERMASSUNG
100
AcDbTrace
 10
32.5233529924
 20
114.8949012567
 30
0.0
 11
32.0733529924
 21
111.8949012567
 31
0.0
 12
32.9733529924
 22
111.8949012567
 32
0.0
 13
32.9733529924
 23
111.8949012567
 33
0.0
  0
LINE
  5
1CE
330
1C9
100
AcDbEntity
  8
VERMASSUNG
100
AcDbLine
 10
94.1588379402
 20
104.8949012567
 30
0.0
 11
31.5233529924
 21
104.8949012567
 31
0.0
  0
LINE
  5
1CF
330
1C9
100
AcDbEntity
  8
VERMASSUNG
100
AcDbLine
 10
94.1588379402
 20
114.8949012567
 30
0.0
 11
31.5233529924
 21
114.8949012567
 31
0.0
  0
LINE
  5
1D0
330
1C9
100
AcDbEntity
  8
VERMASSUNG
100
AcDbLine
 10
32.5233529924
 20
104.8949012567
 30
0.0
 11
32.5233529924
 21
114.8949012567
 31
0.0
  0
MTEXT
  5
1D1
330
1C9
100
AcDbEntity
  8
VERMASSUNG
100
AcDbMText
 10
29.9452174546
 20
104.1924141952
 30
0.0
 40
2.0
 41
0.0
 71
     1
 72
     1
  1
%%c
  7
SLDTEXTSTYLE0
 11
6.123233995736766E-17
 21
1.0
 31
0.0
 73
     1
 44
1.0
  0
MTEXT
  5
1D2
330
1C9
100
AcDbEntity
  8
VERMASSUNG
100
AcDbMText
 10
29.9452173964
 20
107.8011005363
 30
0.0
 40
2.0
 41
0.0
 71
     1
 72
     1
  1
10
  7
SLDTEXTSTYLE0
 11
6.123233995736766E-17
 21
1.0
 31
0.0
 73
     1
 44
1.0
  0
MTEXT
  5
1D3
330
1C9
100
AcDbEntity
  8
VERMASSUNG
100
AcDbMText
 10
30.4389561904
 20
111.3993872049
 30
0.0
 40
1.5
 41
0.0
 71
     1
 72
     1
  1
min.
  7
SLDTEXTSTYLE0
 11
6.123233995736766E-17
 21
1.0
 31
0.0
 73
     1
 44
1.0
  0
MTEXT
  5
1D4
330
1C9
100
AcDbEntity
  8
VERMASSUNG
100
AcDbMText
 10
29.9452173964
 20
114.6978166511
 30
0.0
 40
2.0
 41
0.0
 71
     1
 72
     1
  1
 
  7
SLDTEXTSTYLE0
 11
6.123233995736766E-17
 21
1.0
 31
0.0
 73
     1
 44
1.0
  0
ENDBLK
  5
1CB
330
1C9
100
AcDbEntity
  8
0
100
AcDbBlockEnd
  0
BLOCK
  5
1D7
330
1D6
100
AcDbEntity
  8
0
100
AcDbBlockBegin
  2
*D11
 70
     1
 10
0.0
 20
0.0
 30
0.0
  3
*D11
  1

  0
SOLID
  5
1D9
330
1D6
100
AcDbEntity
  8
VERMASSUNG
100
AcDbTrace
 10
37.7553954641
 20
68.3949012567
 30
0.0
 11
40.7553954641
 21
67.9449012567
 31
0.0
 12
40.7553954641
 22
68.8449012567
 32
0.0
 13
40.7553954641
 23
68.8449012567
 33
0.0
  0
SOLID
  5
1DA
330
1D6
100
AcDbEntity
  8
VERMASSUNG
100
AcDbTrace
 10
121.7553954641
 20
68.3949012567
 30
0.0
 11
118.7553954641
 21
68.8449012567
 31
0.0
 12
118.7553954641
 22
67.9449012567
 32
0.0
 13
118.7553954641
 23
67.9449012567
 33
0.0
  0
LINE
  5
1DB
330
1D6
100
AcDbEntity
  8
VERMASSUNG
100
AcDbLine
 10
37.7553954641
 20
89.6025632642
 30
0.0
 11
37.7553954641
 21
67.3949012567
 31
0.0
  0
LINE
  5
1DC
330
1D6
100
AcDbEntity
  8
VERMASSUNG
100
AcDbLine
 10
121.7553954641
 20
104.8949012567
 30
0.0
 11
121.7553954641
 21
67.3949012567
 31
0.0
  0
LINE
  5
1DD
330
1D6
100
AcDbEntity
  8
VERMASSUNG
100
AcDbLine
 10
37.7553954641
 20
68.3949012567
 30
0.0
 11
121.7553954641
 21
68.3949012567
 31
0.0
  0
MTEXT
  5
1DE
330
1D6
100
AcDbEntity
  8
VERMASSUNG
100
AcDbMText
 10
78.2561093521
 20
70.9730368527
 30
0.0
 40
2.0
 41
0.0
 71
     1
 72
     1
  1
84
  7
SLDTEXTSTYLE0
 73
     1
 44
1.0
  0
ENDBLK
  5
1D8
330
1D6
100
AcDbEntity
  8
0
100
AcDbBlockEnd
  0
ENDSEC
  0
SECTION
  2
ENTITIES
  0
MTEXT
  5
45
330
1F
100
AcDbEntity
  8
KOPF_DÜNN
100
AcDbMText
 10
13.8892156294
 20
23.8442973028
 30
0.0
 40
3.0
 41
0.0
 71
     1
 72
     1
  1
PS6.B08.K01.080
  7
SLDTEXTSTYLE0
 73
     1
 44
1.0
  0
MTEXT
  5
46
330
1F
100
AcDbEntity
  8
VERMASSUNG
100
AcDbMText
 10
13.9329988022
 20
28.8834360957
 30
0.0
 40
3.0
 41
0.0
 71
     1
 72
     1
  1
Bohrstangenhalter / Boring bar holder
  7
SLDTEXTSTYLE0
 73
     1
 44
1.0
  0
MTEXT
  5
47
330
1F
100
AcDbEntity
  8
VERMASSUNG
100
AcDbMText
 10
98.8601118557
 20
13.8365368761
 30
0.0
 40
2.0
 41
0.0
 71
     1
 72
     1
  1
Datum: 08.03.2010
  7
SLDTEXTSTYLE0
 73
     1
 44
1.0
  0
MTEXT
  5
49
330
1F
100
AcDbEntity
  8
VERMASSUNG
100
AcDbMText
 10
13.933048693
 20
18.0482802738
 30
0.0
 40
2.0
 41
0.0
 71
     1
 72
     1
  1
PSC 63 / ø 08
  7
SLDTEXTSTYLE1
 73
     1
 44
1.0
  0
MTEXT
  5
4A
330
1F
100
AcDbEntity
  8
VERMASSUNG
100
AcDbMText
 10
13.9808475933
 20
13.9090974274
 30
0.0
 40
2.0
 41
0.0
 71
     1
 72
     1
  1
Gewicht: 1131g
  7
SLDTEXTSTYLE0
 73
     1
 44
1.0
  0
ARC
  5
4B
330
1F
100
AcDbEntity
  8
0
  6
Continuous
 62
     7
370
    15
100
AcDbCircle
 10
76.0553954641
 20
78.6949012567
 30
0.0
 40
0.2999999999999972
100
AcDbArc
 50
180.0
 51
270.0
  0
ARC
  5
4C
330
1F
100
AcDbEntity
  8
0
  6
Continuous
 62
     7
370
    15
100
AcDbCircle
 10
76.0553954641
 20
141.0949012567
 30
0.0
 40
0.2999999999999829
100
AcDbArc
 50
90.0
 51
180.0
  0
SPLINE
  5
4D
330
1F
100
AcDbEntity
  8
0
  6
Continuous
 62
     7
370
    15
100
AcDbSpline
210
0.0
220
0.0
230
1.0
 70
    24
 71
     1
 72
     4
 73
     2
 74
     0
 42
0.00000001
 43
0.00000001
 40
0.0
 40
0.0
 40
1.0
 40
1.0
 10
76.05539547830126
 20
78.394900750093
 30
0.0
 10
97.75539534484274
 20
78.394900750093
 30
0.0
  0
SPLINE
  5
4E
330
1F
100
AcDbEntity
  8
0
  6
Continuous
 62
     7
370
    15
100
AcDbSpline
210
0.0
220
0.0
230
1.0
 70
    24
 71
     1
 72
     4
 73
     2
 74
     0
 42
0.00000001
 43
0.00000001
 40
0.0
 40
0.0
 40
1.0
 40
1.0
 10
97.75539534484274
 20
141.394901763372
 30
0.0
 10
76.05539547830126
 20
141.394901763372
 30
0.0
  0
LWPOLYLINE
  5
4F
330
1F
100
AcDbEntity
  8
0
  6
Continuous
 62
     7
370
    15
100
AcDbPolyline
 90
        3
 70
   128
 43
0.0
 10
75.5553954691
 20
87.3550807347
 10
75.6808504043
 20
87.2867793997
 10
75.7553954641
 20
87.2340404649
  0
LWPOLYLINE
  5
50
330
1F
100
AcDbEntity
  8
0
  6
Continuous
 62
     7
370
    15
100
AcDbPolyline
 90
        3
 70
   128
 43
0.0
 10
75.7553954641
 20
132.5557620485
 10
75.6808504043
 20
132.5030231138
 10
75.5553954691
 20
132.4347217788
  0
ARC
  5
51
330
1F
100
AcDbEntity
  8
0
  6
Continuous
 62
     7
370
    15
100
AcDbCircle
 10
101.7553954641
 20
88.8949012567
 30
0.0
 40
4.0
100
AcDbArc
 50
90.0
 51
180.0
  0
ARC
  5
52
330
1F
100
AcDbEntity
  8
0
  6
Continuous
 62
     7
370
    15
100
AcDbCircle
 10
101.7553954641
 20
130.8949012567
 30
0.0
 40
4.000000000000014
100
AcDbArc
 50
180.0
 51
270.0
  0
SPLINE
  5
53
330
1F
100
AcDbEntity
  8
0
  6
Continuous
 62
     7
370
    15
100
AcDbSpline
210
0.0
220
0.0
230
1.0
 70
    24
 71
     1
 72
     4
 73
     2
 74
     0
 42
0.00000001
 43
0.00000001
 40
0.0
 40
0.0
 40
1.0
 40
1.0
 10
124.2675897697104
 20
126.8949021806045
 30
0.0
 10
101.7553960004938
 20
126.8949021806045
 30
0.0
  0
SPLINE
  5
54
330
1F
100
AcDbEntity
  8
0
  6
Continuous
 62
     7
370
    15
100
AcDbSpline
210
0.0
220
0.0
230
1.0
 70
    24
 71
     1
 72
     4
 73
     2
 74
     0
 42
0.00000001
 43
0.00000001
 40
0.0
 40
0.0
 40
1.0
 40
1.0
 10
134.2675876835478
 20
126.8949021806045
 30
0.0
 10
131.2128086606157
 20
126.8949021806045
 30
0.0
  0
SPLINE
  5
55
330
1F
100
AcDbEntity
  8
0
  6
Continuous
 62
     7
370
    15
100
AcDbSpline
210
0.0
220
0.0
230
1.0
 70
    24
 71
     1
 72
     4
 73
     2
 74
     0
 42
0.00000001
 43
0.00000001
 40
0.0
 40
0.0
 40
1.0
 40
1.0
 10
144.2675893226755
 20
126.8949021806045
 30
0.0
 10
141.2128065744532
 20
126.8949021806045
 30
0.0
  0
SPLINE
  5
56
330
1F
100
AcDbEntity
  8
0
  6
Continuous
 62
     7
370
    15
100
AcDbSpline
210
0.0
220
0.0
230
1.0
 70
    24
 71
     1
 72
     4
 73
     2
 74
     0
 42
0.00000001
 43
0.00000001
 40
0.0
 40
0.0
 40
1.0
 40
1.0
 10
154.7553990999353
 20
126.8949021806045
 30
0.0
 10
151.2128119388712
 20
126.8949021806045
 30
0.0
  0
SPLINE
  5
57
330
1F
100
AcDbEntity
  8
0
  6
Continuous
 62
     7
370
    15
100
AcDbSpline
210
0.0
220
0.0
230
1.0
 70
    24
 71
     1
 72
     4
 73
     2
 74
     0
 42
0.00000001
 43
0.00000001
 40
0.0
 40
0.0
 40
1.0
 40
1.0
 10
101.7553960004938
 20
92.89490033286049
 30
0.0
 10
154.7553990999353
 20
92.89490033286049
 30
0.0
  0
ARC
  5
58
330
1F
100
AcDbEntity
  8
0
  6
Continuous
 62
     7
370
    15
100
AcDbCircle
 10
154.7553954641
 20
125.8949012567
 30
0.0
 40
1.0
100
AcDbArc
 50
0.0
 51
90.0
  0
ARC
  5
59
330
1F
100
AcDbEntity
  8
0
  6
Continuous
 62
     7
370
    15
100
AcDbCircle
 10
154.7553954641
 20
93.8949012567
 30
0.0
 40
1.0
100
AcDbArc
 50
270.0
 51
0.0
  0
LINE
  5
5A
330
1F
100
AcDbEntity
  8
0
  6
Continuous
 62
     7
370
    15
100
AcDbLine
 10
127.7553965369
 20
126.8949021806
 30
0.0
 11
131.1553944865
 21
126.8949021806
 31
0.0
  0
LINE
  5
5B
330
1F
100
AcDbEntity
  8
0
  6
Continuous
 62
     7
370
    15
100
AcDbLine
 10
124.355394862
 20
126.8949021806
 30
0.0
 11
127.7553965369
 21
126.8949021806
 31
0.0
  0
LINE
  5
5C
330
1F
100
AcDbEntity
  8
0
  6
Continuous
 62
     7
370
    15
100
AcDbLine
 10
137.7553944508
 20
126.8949021806
 30
0.0
 11
141.1553924004
 21
126.8949021806
 31
0.0
  0
LINE
  5
5D
330
1F
100
AcDbEntity
  8
0
  6
Continuous
 62
     7
370
    15
100
AcDbLine
 10
134.3553965012
 20
126.8949021806
 30
0.0
 11
137.7553944508
 21
126.8949021806
 31
0.0
  0
LINE
  5
5E
330
1F
100
AcDbEntity
  8
0
  6
Continuous
 62
     7
370
    15
100
AcDbLine
 10
147.7553923646
 20
126.8949021806
 30
0.0
 11
151.1553977648
 21
126.8949021806
 31
0.0
  0
LINE
  5
5F
330
1F
100
AcDbEntity
  8
0
  6
Continuous
 62
     7
370
    15
100
AcDbLine
 10
144.355394415
 20
126.8949021806
 30
0.0
 11
147.7553923646
 21
126.8949021806
 31
0.0
  0
LINE
  5
60
330
1F
100
AcDbEntity
  8
0
  6
Continuous
 62
     7
370
    15
100
AcDbLine
 10
129.7553968648
 20
111.0496017837
 30
0.0
 11
127.7553965369
 21
112.2043023107
 31
0.0
  0
LINE
  5
61
330
1F
100
AcDbEntity
  8
0
  6
Continuous
 62
     7
370
    15
100
AcDbLine
 10
125.7553962091
 20
111.0496017837
 30
0.0
 11
127.7553965369
 21
112.2043023107
 31
0.0
  0
LINE
  5
62
330
1F
100
AcDbEntity
  8
0
  6
Continuous
 62
     7
370
    15
100
AcDbLine
 10
125.7553962091
 20
108.7402007298
 30
0.0
 11
125.7553962091
 21
111.0496017837
 31
0.0
  0
LINE
  5
63
330
1F
100
AcDbEntity
  8
0
  6
Continuous
 62
     7
370
    15
100
AcDbLine
 10
125.7553962091
 20
108.7402007298
 30
0.0
 11
127.7553965369
 21
107.5855002028
 31
0.0
  0
LINE
  5
64
330
1F
100
AcDbEntity
  8
0
  6
Continuous
 62
     7
370
    15
100
AcDbLine
 10
129.7553968648
 20
108.7402007298
 30
0.0
 11
127.7553965369
 21
107.5855002028
 31
0.0
  0
LINE
  5
65
330
1F
100
AcDbEntity
  8
0
  6
Continuous
 62
     7
370
    15
100
AcDbLine
 10
129.7553968648
 20
108.7402007298
 30
0.0
 11
129.7553968648
 21
111.0496017837
 31
0.0
  0
CIRCLE
  5
66
330
1F
100
AcDbEntity
  8
0
  6
Continuous
 62
     7
370
    15
100
AcDbCircle
 10
127.7553954641
 20
109.8949012567
 30
0.0
 40
3.400000000000063
  0
CIRCLE
  5
67
330
1F
100
AcDbEntity
  8
0
  6
Continuous
 62
     7
370
    15
100
AcDbCircle
 10
127.7553954641
 20
109.8949012567
 30
0.0
 40
4.000000000000071
  0
LINE
  5
68
330
1F
100
AcDbEntity
  8
0
  6
Continuous
 62
     7
370
    15
100
AcDbLine
 10
139.7553985039
 20
111.0496017837
 30
0.0
 11
137.7553944508
 21
112.2043023107
 31
0.0
  0
LINE
  5
69
330
1F
100
AcDbEntity
  8
0
  6
Continuous
 62
     7
370
    15
100
AcDbLine
 10
135.7553941229
 20
111.0496017837
 30
0.0
 11
137.7553944508
 21
112.2043023107
 31
0.0
  0
LINE
  5
6A
330
1F
100
AcDbEntity
  8
0
  6
Continuous
 62
     7
370
    15
100
AcDbLine
 10
135.7553941229
 20
108.7402007298
 30
0.0
 11
135.7553941229
 21
111.0496017837
 31
0.0
  0
LINE
  5
6B
330
1F
100
AcDbEntity
  8
0
  6
Continuous
 62
     7
370
    15
100
AcDbLine
 10
135.7553941229
 20
108.7402007298
 30
0.0
 11
137.7553944508
 21
107.5855002028
 31
0.0
  0
LINE
  5
6C
330
1F
100
AcDbEntity
  8
0
  6
Continuous
 62
     7
370
    15
100
AcDbLine
 10
139.7553985039
 20
108.7402007298
 30
0.0
 11
137.7553944508
 21
107.5855002028
 31
0.0
  0
LINE
  5
6D
330
1F
100
AcDbEntity
  8
0
  6
Continuous
 62
     7
370
    15
100
AcDbLine
 10
139.7553985039
 20
108.7402007298
 30
0.0
 11
139.7553985039
 21
111.0496017837
 31
0.0
  0
CIRCLE
  5
6E
330
1F
100
AcDbEntity
  8
0
  6
Continuous
 62
     7
370
    15
100
AcDbCircle
 10
137.7553954641
 20
109.8949012567
 30
0.0
 40
3.400000000000063
  0
CIRCLE
  5
6F
330
1F
100
AcDbEntity
  8
0
  6
Continuous
 62
     7
370
    15
100
AcDbCircle
 10
137.7553954641
 20
109.8949012567
 30
0.0
 40
4.000000000000071
  0
LINE
  5
70
330
1F
100
AcDbEntity
  8
0
  6
Continuous
 62
     7
370
    15
100
AcDbLine
 10
149.7553964177
 20
111.0496017837
 30
0.0
 11
147.7553923646
 21
112.2043023107
 31
0.0
  0
LINE
  5
71
330
1F
100
AcDbEntity
  8
0
  6
Continuous
 62
     7
370
    15
100
AcDbLine
 10
145.7553957621
 20
111.0496017837
 30
0.0
 11
147.7553923646
 21
112.2043023107
 31
0.0
  0
LINE
  5
72
330
1F
100
AcDbEntity
  8
0
  6
Continuous
 62
     7
370
    15
100
AcDbLine
 10
145.7553957621
 20
108.7402007298
 30
0.0
 11
145.7553957621
 21
111.0496017837
 31
0.0
  0
LINE
  5
73
330
1F
100
AcDbEntity
  8
0
  6
Continuous
 62
     7
370
    15
100
AcDbLine
 10
145.7553957621
 20
108.7402007298
 30
0.0
 11
147.7553923646
 21
107.5855002028
 31
0.0
  0
LINE
  5
74
330
1F
100
AcDbEntity
  8
0
  6
Continuous
 62
     7
370
    15
100
AcDbLine
 10
149.7553964177
 20
108.7402007298
 30
0.0
 11
147.7553923646
 21
107.5855002028
 31
0.0
  0
LINE
  5
75
330
1F
100
AcDbEntity
  8
0
  6
Continuous
 62
     7
370
    15
100
AcDbLine
 10
149.7553964177
 20
108.7402007298
 30
0.0
 11
149.7553964177
 21
111.0496017837
 31
0.0
  0
CIRCLE
  5
76
330
1F
100
AcDbEntity
  8
0
  6
Continuous
 62
     7
370
    15
100
AcDbCircle
 10
147.7553954641
 20
109.8949012567
 30
0.0
 40
3.400000000000063
  0
CIRCLE
  5
77
330
1F
100
AcDbEntity
  8
0
  6
Continuous
 62
     7
370
    15
100
AcDbCircle
 10
147.7553954641
 20
109.8949012567
 30
0.0
 40
4.000000000000071
  0
LINE
  5
78
330
1F
100
AcDbEntity
  8
0
  6
Continuous
 62
     7
370
    15
100
AcDbLine
 10
75.7553954641
 20
78.6949021031
 30
0.0
 11
75.7553954641
 21
141.0949004103
 31
0.0
  0
SPLINE
  5
79
330
1F
100
AcDbEntity
  8
0
  6
Continuous
 62
     7
370
    15
100
AcDbSpline
210
0.0
220
0.0
230
1.0
 70
     8
 71
     3
 72
    12
 73
     8
 74
     0
 42
0.00000001
 43
0.00000001
 40
0.0
 40
0.0
 40
0.0
 40
0.0
 40
0.2500000000000009
 40
0.2500000000000009
 40
0.5000000000000018
 40
0.5000000000000018
 40
1.0
 40
1.0
 40
1.0
 40
1.0
 10
86.28315227761846
 20
119.2829676880683
 30
0.0
 10
86.2200722391251
 20
119.2829676880683
 30
0.0
 10
86.1609236169437
 20
119.3083320072833
 30
0.0
 10
86.0624510668746
 20
119.3824968676562
 30
0.0
 10
86.0234144548899
 20
119.4290172082103
 30
0.0
 10
85.92351798811085
 20
119.5791595510556
 30
0.0
 10
85.88109710704421
 20
119.6908527580277
 30
0.0
 10
85.85013957572623
 20
119.8042705774175
 30
0.0
  0
LINE
  5
7A
330
1F
100
AcDbEntity
  8
0
  6
Continuous
 62
     7
370
    15
100
AcDbLine
 10
89.2276386762
 20
119.282968085
 30
0.0
 11
86.2831524605
 21
119.282968085
 31
0.0
  0
SPLINE
  5
7B
330
1F
100
AcDbEntity
  8
0
  6
Continuous
 62
     7
370
    15
100
AcDbSpline
210
0.0
220
0.0
230
1.0
 70
     8
 71
     3
 72
    12
 73
     8
 74
     0
 42
0.00000001
 43
0.00000001
 40
0.0
 40
0.0
 40
0.0
 40
0.0
 40
0.5000000000000018
 40
0.5000000000000018
 40
0.7500000000000009
 40
0.7500000000000009
 40
1.0
 40
1.0
 40
1.0
 40
1.0
 10
89.6606513523778
 20
119.8042705774175
 30
0.0
 10
89.62992911045869
 20
119.6917147780083
 30
0.0
 10
89.58709189592355
 20
119.5789569182687
 30
0.0
 10
89.48766487172374
 20
119.4294160324723
 30
0.0
 10
89.44791267690711
 20
119.3821233007655
 30
0.0
 10
89.34987122004887
 20
119.308387007444
 30
0.0
 10
89.29031516446142
 20
119.2829676880683
 30
0.0
 10
89.22763865048557
 20
119.2829676880683
 30
0.0
  0
ELLIPSE
  5
7C
330
1F
100
AcDbEntity
  8
0
  6
Continuous
 62
     7
370
    15
100
AcDbEllipse
 10
73.4082412747
 20
109.8949012567
 30
0.0
 11
14.75368316065614
 21
31.09325491558116
 31
0.0
210
0.0
220
0.0
230
0.9999999999999999
 40
0.3419987131
 41
5.19328173740862
 42
6.124043104552325
  0
SPLINE
  5
7D
330
1F
100
AcDbEntity
  8
0
  6
Continuous
 62
     7
370
    15
100
AcDbSpline
210
0.0
220
0.0
230
1.0
 70
     8
 71
     3
 72
    12
 73
     8
 74
     0
 42
0.00000001
 43
0.00000001
 40
0.0
 40
0.0
 40
0.0
 40
0.0
 40
0.2499999999999999
 40
0.2499999999999999
 40
0.4999999999999999
 40
0.4999999999999999
 40
1.0
 40
1.0
 40
1.0
 40
1.0
 10
89.22763865048557
 20
139.9633932156055
 30
0.0
 10
89.29071868897894
 20
139.9633932156055
 30
0.0
 10
89.34986731116035
 20
139.9554872893931
 30
0.0
 10
89.44833986122943
 20
139.9321621279568
 30
0.0
 10
89.48737647321414
 20
139.9174493381251
 30
0.0
 10
89.58727293999318
 20
139.8694935373942
 30
0.0
 10
89.62969382105983
 20
139.8332313808141
 30
0.0
 10
89.6606513523778
 20
139.7956437168496
 30
0.0
  0
LINE
  5
7E
330
1F
100
AcDbEntity
  8
0
  6
Continuous
 62
     7
370
    15
100
AcDbLine
 10
86.2831524605
 20
139.9633937736
 30
0.0
 11
89.2276386762
 21
139.9633937736
 31
0.0
  0
SPLINE
  5
7F
330
1F
100
AcDbEntity
  8
0
  6
Continuous
 62
     7
370
    15
100
AcDbSpline
210
0.0
220
0.0
230
1.0
 70
     8
 71
     3
 72
    12
 73
     8
 74
     0
 42
0.00000001
 43
0.00000001
 40
0.0
 40
0.0
 40
0.0
 40
0.0
 40
0.5
 40
0.5
 40
0.75
 40
0.75
 40
1.0
 40
1.0
 40
1.0
 40
1.0
 10
85.85013957572625
 20
139.7956437168496
 30
0.0
 10
85.88086181764534
 20
139.8329456998027
 30
0.0
 10
85.9236990321805
 20
139.8695575318491
 30
0.0
 10
86.02312605638028
 20
139.9173223151343
 30
0.0
 10
86.06287825119695
 20
139.9322798306167
 30
0.0
 10
86.16091970805516
 20
139.9554697763858
 30
0.0
 10
86.22047576364264
 20
139.9633932156055
 30
0.0
 10
86.28315227761846
 20
139.9633932156055
 30
0.0
  0
ELLIPSE
  5
80
330
1F
100
AcDbEntity
  8
0
  6
Continuous
 62
     7
370
    15
100
AcDbEllipse
 10
102.1025496534
 20
109.8949012567
 30
0.0
 11
-14.75368316065608
 21
31.09325491558116
 31
0.0
210
0.0
220
0.0
230
1.0
 40
0.3419987131
 41
0.1591422026273013
 42
1.089903569770978
  0
SPLINE
  5
81
330
1F
100
AcDbEntity
  8
0
  6
Continuous
 62
     7
370
    15
100
AcDbSpline
210
0.0
220
0.0
230
1.0
 70
     8
 71
     3
 72
    12
 73
     8
 74
     0
 42
0.00000001
 43
0.00000001
 40
0.0
 40
0.0
 40
0.0
 40
0.0
 40
0.2500000000000018
 40
0.2500000000000018
 40
0.5000000000000037
 40
0.5000000000000037
 40
1.0
 40
1.0
 40
1.0
 40
1.0
 10
86.28315227761846
 20
79.82640929785933
 30
0.0
 10
86.22009532272067
 20
79.82640929785934
 30
0.0
 10
86.1609651729751
 20
79.8343096289389
 30
0.0
 10
86.0625176224418
 20
79.85762037694394
 30
0.0
 10
86.0234853842537
 20
79.87232550322757
 30
0.0
 10
85.92359549979675
 20
79.92025903141422
 30
0.0
 10
85.88129652618744
 20
79.95632900417897
 30
0.0
 10
85.85013957572617
 20
79.99415879661518
 30
0.0
  0
LINE
  5
82
330
1F
100
AcDbEntity
  8
0
  6
Continuous
 62
     7
370
    15
100
AcDbLine
 10
89.2276386762
 20
79.8264087399
 30
0.0
 11
86.2831524605
 21
79.8264087399
 31
0.0
  0
SPLINE
  5
83
330
1F
100
AcDbEntity
  8
0
  6
Continuous
 62
     7
370
    15
100
AcDbSpline
210
0.0
220
0.0
230
1.0
 70
     8
 71
     3
 72
    12
 73
     8
 74
     0
 42
0.00000001
 43
0.00000001
 40
0.0
 40
0.0
 40
0.0
 40
0.0
 40
0.5000000000000046
 40
0.5000000000000046
 40
0.7500000000000022
 40
0.7500000000000022
 40
1.0
 40
1.0
 40
1.0
 40
1.0
 10
89.6606513523778
 20
79.9941587966152
 30
0.0
 10
89.6295061544157
 20
79.95634327369501
 30
0.0
 10
89.58723188808126
 20
79.9202764156114
 30
0.0
 10
89.48728635425596
 20
79.87231635060013
 30
0.0
 10
89.4475560495519
 20
79.85745537670248
 30
0.0
 10
89.3506679995457
 20
79.83450423057133
 30
0.0
 10
89.29060275779914
 20
79.82640929785929
 30
0.0
 10
89.22763865048559
 20
79.82640929785929
 30
0.0
  0
ELLIPSE
  5
84
330
1F
100
AcDbEntity
  8
0
  6
Continuous
 62
     7
370
    15
100
AcDbEllipse
 10
73.4082412747
 20
109.8949012567
 30
0.0
 11
-14.75368316065629
 21
31.09325491558116
 31
0.0
210
0.0
220
0.0
230
1.0
 40
0.3419987131
 41
3.300734856217121
 42
4.231496223360772
  0
SPLINE
  5
85
330
1F
100
AcDbEntity
  8
0
  6
Continuous
 62
     7
370
    15
100
AcDbSpline
210
0.0
220
0.0
230
1.0
 70
     8
 71
     3
 72
    12
 73
     8
 74
     0
 42
0.00000001
 43
0.00000001
 40
0.0
 40
0.0
 40
0.0
 40
0.0
 40
0.2499999999999991
 40
0.2499999999999991
 40
0.4999999999999982
 40
0.4999999999999982
 40
1.0
 40
1.0
 40
1.0
 40
1.0
 10
89.22763865048557
 20
100.5068348253962
 30
0.0
 10
89.29069560538339
 20
100.5068348253962
 30
0.0
 10
89.34982575512896
 20
100.4814884720155
 30
0.0
 10
89.44827330566225
 20
100.407369089876
 30
0.0
 10
89.48730554385033
 20
100.360872575178
 30
0.0
 10
89.58719542830728
 20
100.2107980681694
 30
0.0
 10
89.62949440191659
 20
100.0996803590546
 30
0.0
 10
89.66065135237785
 20
99.98553193604711
 30
0.0
  0
LINE
  5
86
330
1F
100
AcDbEntity
  8
0
  6
Continuous
 62
     7
370
    15
100
AcDbLine
 10
86.2831524605
 20
100.5068344285
 30
0.0
 11
89.2276386762
 21
100.5068344285
 31
0.0
  0
SPLINE
  5
87
330
1F
100
AcDbEntity
  8
0
  6
Continuous
 62
     7
370
    15
100
AcDbSpline
210
0.0
220
0.0
230
1.0
 70
     8
 71
     3
 72
    12
 73
     8
 74
     0
 42
0.00000001
 43
0.00000001
 40
0.0
 40
0.0
 40
0.0
 40
0.0
 40
0.4999999999999982
 40
0.4999999999999982
 40
0.7499999999999991
 40
0.7499999999999991
 40
1.0
 40
1.0
 40
1.0
 40
1.0
 10
85.85013957572623
 20
99.98553193604708
 30
0.0
 10
85.88128477368835
 20
100.0996373019124
 30
0.0
 10
85.92355904002278
 20
100.2107436291311
 30
0.0
 10
86.02350457384809
 20
100.3609012365614
 30
0.0
 10
86.06323487855214
 20
100.4078939281788
 30
0.0
 10
86.16012292855835
 20
100.4808695127173
 30
0.0
 10
86.2201881703049
 20
100.5068348253963
 30
0.0
 10
86.28315227761844
 20
100.5068348253963
 30
0.0
  0
ELLIPSE
  5
88
330
1F
100
AcDbEntity
  8
0
  6
Continuous
 62
     7
370
    15
100
AcDbEllipse
 10
102.1025496534
 20
109.8949012567
 30
0.0
 11
14.75368316065621
 21
31.09325491558116
 31
0.0
210
0.0
220
0.0
230
1.0
 40
0.3419987131
 41
2.051689083818826
 42
2.982450450962504
  0
LINE
  5
89
330
1F
100
AcDbEntity
  8
0
  6
Continuous
 62
     7
370
    15
100
AcDbLine
 10
97.7553953448
 20
78.3949007501
 30
0.0
 11
97.7553953448
 21
141.3949017634
 31
0.0
  0
SPLINE
  5
8A
330
1F
100
AcDbEntity
  8
0
  6
Continuous
 62
     7
370
    15
100
AcDbSpline
210
0.0
220
0.0
230
1.0
 70
     8
 71
     3
 72
    12
 73
     8
 74
     0
 42
0.00000001
 43
0.00000001
 40
0.0
 40
0.0
 40
0.0
 40
0.0
 40
0.5000000000000003
 40
0.5000000000000003
 40
0.7500000000000001
 40
0.7500000000000001
 40
1.0
 40
1.0
 40
1.0
 40
1.0
 10
74.93888317759553
 20
88.04010755425662
 30
0.0
 10
74.99531967850271
 20
88.03868967291487
 30
0.0
 10
75.06440430919146
 20
88.03712533666656
 30
0.0
 10
75.18320658090941
 20
88.03418114469213
 30
0.0
 10
75.22339185637948
 20
88.03314294159475
 30
0.0
 10
75.29677290378329
 20
88.03120904638011
 30
0.0
 10
75.33018246752596
 20
88.03031415909129
 30
0.0
 10
75.3604185751824
 20
88.02953036881895
 30
0.0
  0
SPLINE
  5
8B
330
1F
100
AcDbEntity
  8
0
  6
Continuous
 62
     7
370
    15
100
AcDbSpline
210
0.0
220
0.0
230
1.0
 70
     8
 71
     3
 72
    16
 73
    12
 74
     0
 42
0.00000001
 43
0.00000001
 40
0.0
 40
0.0
 40
0.0
 40
0.0
 40
0.0625000000000014
 40
0.0625000000000014
 40
0.1250000000000028
 40
0.1250000000000028
 40
0.2500000000000003
 40
0.2500000000000003
 40
0.5000000000000002
 40
0.5000000000000002
 40
1.0
 40
1.0
 40
1.0
 40
1.0
 10
75.36041857514518
 20
88.0295303688432
 30
0.0
 10
75.37199898273313
 20
88.02923017773185
 30
0.0
 10
75.3853085094944
 20
88.02790242947285
 30
0.0
 10
75.41460993958054
 20
88.02120375469785
 30
0.0
 10
75.42942403946483
 20
88.01584557159215
 30
0.0
 10
75.46525244116766
 20
87.99879992242482
 30
0.0
 10
75.47937206553071
 20
87.98733738464908
 30
0.0
 10
75.5138762096192
 20
87.95577405927683
 30
0.0
 10
75.52498076032381
 20
87.93787676023157
 30
0.0
 10
75.55115693754
 20
87.88771534261731
 30
0.0
 10
75.55539546405201
 20
87.85997093042074
 30
0.0
 10
75.55539546405201
 20
87.83530676849121
 30
0.0
  0
LINE
  5
8C
330
1F
100
AcDbEntity
  8
0
  6
Continuous
 62
     7
370
    15
100
AcDbLine
 10
75.5553954691
 20
102.8730140288
 30
0.0
 11
75.5553954691
 21
87.3550807347
 31
0.0
  0
SPLINE
  5
8D
330
1F
100
AcDbEntity
  8
0
  6
Continuous
 62
     7
370
    15
100
AcDbSpline
210
0.0
220
0.0
230
1.0
 70
     8
 71
     3
 72
    16
 73
    12
 74
     0
 42
0.00000001
 43
0.00000001
 40
0.0
 40
0.0
 40
0.0
 40
0.0
 40
0.4999999999999996
 40
0.4999999999999996
 40
0.7499999999999993
 40
0.7499999999999993
 40
0.8750000000000002
 40
0.8750000000000002
 40
0.9375000000000001
 40
0.9375000000000001
 40
1.0
 40
1.0
 40
1.0
 40
1.0
 10
75.55539546405201
 20
102.8730139309824
 30
0.0
 10
75.55539546405201
 20
102.9867064751103
 30
0.0
 10
75.55124918897407
 20
103.1010266364598
 30
0.0
 10
75.52528359358055
 20
103.2740749269569
 30
0.0
 10
75.51382268820313
 20
103.3332504341186
 30
0.0
 10
75.47951095042876
 20
103.4163735535867
 30
0.0
 10
75.46548621449921
 20
103.4444948696874
 30
0.0
 10
75.42946325146536
 20
103.4731106836648
 30
0.0
 10
75.41470874237571
 20
103.4789037315666
 30
0.0
 10
75.38535658122882
 20
103.4773103056296
 30
0.0
 10
75.37201670672472
 20
103.4708139023058
 30
0.0
 10
75.36041857517638
 20
103.4622981561027
 30
0.0
  0
SPLINE
  5
8E
330
1F
100
AcDbEntity
  8
0
  6
Continuous
 62
     7
370
    15
100
AcDbSpline
210
0.0
220
0.0
230
1.0
 70
     8
 71
     3
 72
    12
 73
     8
 74
     0
 42
0.00000001
 43
0.00000001
 40
0.0
 40
0.0
 40
0.0
 40
0.0
 40
0.25
 40
0.25
 40
0.5
 40
0.5
 40
1.0
 40
1.0
 40
1.0
 40
1.0
 10
75.36041857518345
 20
103.4622981560935
 30
0.0
 10
75.33022013374283
 20
103.4401254240485
 30
0.0
 10
75.29685277840683
 20
103.4210457681712
 30
0.0
 10
75.22369750257693
 20
103.3958727237285
 30
0.0
 10
75.18344480355296
 20
103.3903161873117
 30
0.0
 10
75.06571606027812
 20
103.4012279982985
 30
0.0
 10
74.99525761221918
 20
103.4431637537093
 30
0.0
 10
74.93888317760089
 20
103.4923755360908
 30
0.0
  0
SPLINE
  5
8F
330
1F
100
AcDbEntity
  8
0
  6
Continuous
 62
     7
370
    15
100
AcDbSpline
210
0.0
220
0.0
230
1.0
 70
     8
 71
     3
 72
    12
 73
     8
 74
     0
 42
0.00000001
 43
0.00000001
 40
0.0
 40
0.0
 40
0.0
 40
0.0
 40
0.4999999999999978
 40
0.4999999999999978
 40
0.7499999999999989
 40
0.7499999999999989
 40
1.0
 40
1.0
 40
1.0
 40
1.0
 10
74.43407512049237
 20
104.7087269279714
 30
0.0
 10
74.47782547237684
 20
104.4882799429969
 30
0.0
 10
74.53071562350132
 20
104.2727349531913
 30
0.0
 10
74.64232716664299
 20
103.9603208766194
 30
0.0
 10
74.68488651054653
 20
103.8582414010035
 30
0.0
 10
74.78986374588395
 20
103.6638013883617
 30
0.0
 10
74.85143098897854
 20
103.5687164892981
 30
0.0
 10
74.9388831776009
 20
103.4923755360909
 30
0.0
  0
SPLINE
  5
90
330
1F
100
AcDbEntity
  8
0
  6
Continuous
 62
     7
370
    15
100
AcDbSpline
210
0.0
220
0.0
230
1.0
 70
     8
 71
     3
 72
    12
 73
     8
 74
     0
 42
0.00000001
 43
0.00000001
 40
0.0
 40
0.0
 40
0.0
 40
0.0
 40
0.2499999999999991
 40
0.2499999999999991
 40
0.4999999999999983
 40
0.4999999999999983
 40
1.0
 40
1.0
 40
1.0
 40
1.0
 10
74.9388831776008
 20
116.297426977374
 30
0.0
 10
74.85038977003292
 20
116.2201770972657
 30
0.0
 10
74.79033172926705
 20
116.1268577733765
 30
0.0
 10
74.68448345628448
 20
115.9308247204071
 30
0.0
 10
74.64194993500699
 20
115.8284983621953
 30
0.0
 10
74.53079862818335
 20
115.5171539564194
 30
0.0
 10
74.47786777113556
 20
115.3017357032414
 30
0.0
 10
74.43407512049237
 20
115.0810755854936
 30
0.0
  0
SPLINE
  5
91
330
1F
100
AcDbEntity
  8
0
  6
Continuous
 62
     7
370
    15
100
AcDbSpline
210
0.0
220
0.0
230
1.0
 70
     8
 71
     3
 72
    12
 73
     8
 74
     0
 42
0.00000001
 43
0.00000001
 40
0.0
 40
0.0
 40
0.0
 40
0.0
 40
0.4999999999999997
 40
0.4999999999999997
 40
0.7499999999999998
 40
0.7499999999999998
 40
1.0
 40
1.0
 40
1.0
 40
1.0
 10
74.93888317760079
 20
116.297426977374
 30
0.0
 10
74.99519172589643
 20
116.3465812446179
 30
0.0
 10
75.06546638661455
 20
116.3885385632216
 30
0.0
 10
75.18350430093813
 20
116.3994982407541
 30
0.0
 10
75.22368054179206
 20
116.3939894825067
 30
0.0
 10
75.29763763646999
 20
116.3684322537177
 30
0.0
 10
75.33025402418141
 20
116.3496522058785
 30
0.0
 10
75.36041857517716
 20
116.3275043573617
 30
0.0
  0
SPLINE
  5
92
330
1F
100
AcDbEntity
  8
0
  6
Continuous
 62
     7
370
    15
100
AcDbSpline
210
0.0
220
0.0
230
1.0
 70
     8
 71
     3
 72
    16
 73
    12
 74
     0
 42
0.00000001
 43
0.00000001
 40
0.0
 40
0.0
 40
0.0
 40
0.0
 40
0.0625000000000001
 40
0.0625000000000001
 40
0.1250000000000002
 40
0.1250000000000002
 40
0.2500000000000002
 40
0.2500000000000002
 40
0.5000000000000001
 40
0.5000000000000001
 40
1.0
 40
1.0
 40
1.0
 40
1.0
 10
75.36041857514545
 20
116.3275043573072
 30
0.0
 10
75.3720314749848
 20
116.318977767712
 30
0.0
 10
75.38538265941727
 20
116.3124775061792
 30
0.0
 10
75.41478249903643
 20
116.3109081090617
 30
0.0
 10
75.4296232235917
 20
116.3167914996923
 30
0.0
 10
75.4654564315603
 20
116.3453391357428
 30
0.0
 10
75.47956963938188
 20
116.3735061550486
 30
0.0
 10
75.51406101060077
 20
116.4572604134705
 30
0.0
 10
75.52514508171116
 20
116.514973827092
 30
0.0
 10
75.55126789950715
 20
116.6885643637378
 30
0.0
 10
75.55539546405203
 20
116.8035924163797
 30
0.0
 10
75.55539546405203
 20
116.9167885824826
 30
0.0
  0
LINE
  5
93
330
1F
100
AcDbEntity
  8
0
  6
Continuous
 62
     7
370
    15
100
AcDbLine
 10
75.5553954691
 20
132.4347217788
 30
0.0
 11
75.5553954691
 21
116.9167884846
 31
0.0
  0
SPLINE
  5
94
330
1F
100
AcDbEntity
  8
0
  6
Continuous
 62
     7
370
    15
100
AcDbSpline
210
0.0
220
0.0
230
1.0
 70
     8
 71
     3
 72
    16
 73
    12
 74
     0
 42
0.00000001
 43
0.00000001
 40
0.0
 40
0.0
 40
0.0
 40
0.0
 40
0.4999999999999959
 40
0.4999999999999959
 40
0.7499999999999938
 40
0.7499999999999938
 40
0.8749999999999943
 40
0.8749999999999943
 40
0.9374999999999972
 40
0.9374999999999972
 40
1.0
 40
1.0
 40
1.0
 40
1.0
 10
75.55539546405201
 20
131.9544957449737
 30
0.0
 10
75.55539546405201
 20
131.9298245889308
 30
0.0
 10
75.55122976559204
 20
131.9022427575396
 30
0.0
 10
75.5249714372671
 20
131.8518998867162
 30
0.0
 10
75.51346765552951
 20
131.8336103886544
 30
0.0
 10
75.479336896183
 20
131.8024553576173
 30
0.0
 10
75.46491500951227
 20
131.7908159824056
 30
0.0
 10
75.42934804107446
 20
131.7739339564745
 30
0.0
 10
75.4143962727798
 20
131.7685448526669
 30
0.0
 10
75.38539245442003
 20
131.7619243567224
 30
0.0
 10
75.3719771004108
 20
131.7605717685159
 30
0.0
 10
75.3604185751742
 20
131.7602721446443
 30
0.0
  0
SPLINE
  5
95
330
1F
100
AcDbEntity
  8
0
  6
Continuous
 62
     7
370
    15
100
AcDbSpline
210
0.0
220
0.0
230
1.0
 70
     8
 71
     3
 72
    12
 73
     8
 74
     0
 42
0.00000001
 43
0.00000001
 40
0.0
 40
0.0
 40
0.0
 40
0.0
 40
0.2500000000000001
 40
0.2500000000000001
 40
0.5000000000000001
 40
0.5000000000000001
 40
1.0
 40
1.0
 40
1.0
 40
1.0
 10
75.36041857518345
 20
131.7602721446461
 30
0.0
 10
75.33023079863379
 20
131.7594896072285
 30
0.0
 10
75.2968769945421
 20
131.75859627541
 30
0.0
 10
75.22375079134615
 20
131.7566689666064
 30
0.0
 10
75.18351558832197
 20
131.7556294353937
 30
0.0
 10
75.06582395818889
 20
131.7527115520464
 30
0.0
 10
74.99544328502884
 20
131.7511159459762
 30
0.0
 10
74.93888317759823
 20
131.7496949592083
 30
0.0
  0
SPLINE
  5
96
330
1F
100
AcDbEntity
  8
0
  6
Continuous
 62
     7
370
    15
100
AcDbSpline
210
0.0
220
0.0
230
1.0
 70
     8
 71
     3
 72
    16
 73
    12
 74
     0
 42
0.00000001
 43
0.00000001
 40
0.0
 40
0.0
 40
0.0
 40
0.0
 40
0.2500000000000002
 40
0.2500000000000002
 40
0.3750000000000002
 40
0.3750000000000002
 40
0.5000000000000002
 40
0.5000000000000002
 40
0.7500000000000001
 40
0.7500000000000001
 40
1.0
 40
1.0
 40
1.0
 40
1.0
 10
74.43407512049237
 20
115.0810755854936
 30
0.0
 10
74.27284264300792
 20
114.2686658102467
 30
0.0
 10
74.15236280336829
 20
113.428587515862
 30
0.0
 10
74.02998228605496
 20
112.1272924664992
 30
0.0
 10
73.9990046256575
 20
111.6866114309145
 30
0.0
 10
73.95739088802955
 20
110.7907717899833
 30
0.0
 10
73.94715497509674
 20
110.3441136587808
 30
0.0
 10
73.94696657804062
 20
109.008803701641
 30
0.0
 10
73.98711128067823
 20
108.1243083283334
 30
0.0
 10
74.15126503561781
 20
106.3670584403074
 30
0.0
 10
74.27281668602737
 20
105.5212674938943
 30
0.0
 10
74.43407512049237
 20
104.7087269279714
 30
0.0
  0
LINE
  5
97
330
1F
100
AcDbEntity
  8
0
  6
Continuous
 62
     7
370
    15
100
AcDbLine
 10
73.555395476
 20
116.3800793921
 30
0.0
 11
73.555395476
 21
103.4097231214
 31
0.0
  0
LINE
  5
98
330
1F
100
AcDbEntity
  8
0
  6
Continuous
 62
     7
370
    15
100
AcDbLine
 10
39.2553960005
 20
115.9492118505
 30
0.0
 11
39.2553960005
 21
103.840590663
 31
0.0
  0
LINE
  5
99
330
1F
100
AcDbEntity
  8
0
  6
Continuous
 62
     7
370
    15
100
AcDbLine
 10
37.7553966859
 20
115.5161990074
 30
0.0
 11
37.7553966859
 21
104.2736035061
 31
0.0
  0
LINE
  5
9A
330
1F
100
AcDbEntity
  8
0
  6
Continuous
 62
     7
370
    15
100
AcDbLine
 10
39.2553960005
 20
115.9492118505
 30
0.0
 11
39.2553960005
 21
131.0532649268
 31
0.0
  0
LINE
  5
9B
330
1F
100
AcDbEntity
  8
0
  6
Continuous
 62
     7
370
    15
100
AcDbLine
 10
39.2553960005
 20
131.0532649268
 30
0.0
 11
73.555395476
 21
131.9150009413
 31
0.0
  0
LINE
  5
9C
330
1F
100
AcDbEntity
  8
0
  6
Continuous
 62
     7
370
    15
100
AcDbLine
 10
73.555395476
 20
116.3800793921
 30
0.0
 11
73.555395476
 21
131.9150009413
 31
0.0
  0
ARC
  5
9D
330
1F
100
AcDbEntity
  8
0
  6
Continuous
 62
     7
370
    15
100
AcDbCircle
 10
73.755332375
 20
131.9200231524
 30
0.0
 40
0.2000000000000052
100
AcDbArc
 50
181.4391666667
 51
271.4391666667
  0
LINE
  5
9E
330
1F
100
AcDbEntity
  8
0
  6
Continuous
 62
     7
370
    15
100
AcDbLine
 10
73.555395476
 20
87.8748015721
 30
0.0
 11
73.555395476
 21
103.4097231214
 31
0.0
  0
ARC
  5
9F
330
1F
100
AcDbEntity
  8
0
  6
Continuous
 62
     7
370
    15
100
AcDbCircle
 10
73.755332375
 20
87.869779361
 30
0.0
 40
0.2000000000000059
100
AcDbArc
 50
88.5608333333
 51
178.5608333333
  0
LINE
  5
A0
330
1F
100
AcDbEntity
  8
0
  6
Continuous
 62
     7
370
    15
100
AcDbLine
 10
39.2553960005
 20
88.7365375866
 30
0.0
 11
39.2553960005
 21
103.840590663
 31
0.0
  0
LINE
  5
A1
330
1F
100
AcDbEntity
  8
0
  6
Continuous
 62
     7
370
    15
100
AcDbLine
 10
39.2553960005
 20
88.7365375866
 30
0.0
 11
73.555395476
 21
87.8748015721
 31
0.0
  0
LINE
  5
A2
330
1F
100
AcDbEntity
  8
0
  6
Continuous
 62
     7
370
    15
100
AcDbLine
 10
73.7603555931
 20
131.7200863023
 30
0.0
 11
74.9388831932
 21
131.7496949096
 31
0.0
  0
LINE
  5
A3
330
1F
100
AcDbEntity
  8
0
  6
Continuous
 62
     7
370
    15
100
AcDbLine
 10
73.7603555931
 20
88.0697162111
 30
0.0
 11
74.9388831932
 21
88.0401076038
 31
0.0
  0
LINE
  5
A4
330
1F
100
AcDbEntity
  8
0
  6
Continuous
 62
     7
370
    15
100
AcDbLine
 10
37.7553966859
 20
130.1872392406
 30
0.0
 11
39.2553960005
 21
131.0532649268
 31
0.0
  0
LINE
  5
A5
330
1F
100
AcDbEntity
  8
0
  6
Continuous
 62
     7
370
    15
100
AcDbLine
 10
37.7553966859
 20
115.5161990074
 30
0.0
 11
37.7553966859
 21
130.1872392406
 31
0.0
  0
LINE
  5
A6
330
1F
100
AcDbEntity
  8
0
  6
Continuous
 62
     7
370
    15
100
AcDbLine
 10
37.7553966859
 20
89.6025632729
 30
0.0
 11
39.2553960005
 21
88.7365375866
 31
0.0
  0
LINE
  5
A7
330
1F
100
AcDbEntity
  8
0
  6
Continuous
 62
     7
370
    15
100
AcDbLine
 10
37.7553966859
 20
89.6025632729
 30
0.0
 11
37.7553966859
 21
104.2736035061
 31
0.0
  0
SPLINE
  5
A8
330
1F
100
AcDbEntity
  8
0
  6
Continuous
 62
     7
370
    15
100
AcDbSpline
210
0.0
220
0.0
230
1.0
 70
     8
 71
     3
 72
    12
 73
     8
 74
     0
 42
0.00000001
 43
0.00000001
 40
0.0
 40
0.0
 40
0.0
 40
0.0
 40
0.2117261427148317
 40
0.4233423068424857
 40
0.637798831751734
 40
0.8542007606969256
 40
1.0
 40
1.0
 40
1.0
 40
1.0
 10
147.7553923646105
 20
126.5307066251559
 30
0.0
 10
148.1440830791947
 20
126.5388615891823
 30
0.0
 10
148.9212626076668
 20
126.5551672812375
 30
0.0
 10
149.962383250458
 20
126.6692332932582
 30
0.0
 10
150.7509885421291
 20
126.7938908641519
 30
0.0
 10
151.2087902227524
 20
126.8851972585607
 30
0.0
 10
151.2116576816263
 20
126.8859240899944
 30
0.0
 10
151.2128119388712
 20
126.8862166662736
 30
0.0
  0
SPLINE
  5
A9
330
1F
100
AcDbEntity
  8
0
  6
Continuous
 62
     7
370
    15
100
AcDbSpline
210
0.0
220
0.0
230
1.0
 70
     8
 71
     3
 72
    12
 73
     8
 74
     0
 42
0.00000001
 43
0.00000001
 40
0.0
 40
0.0
 40
0.0
 40
0.0
 40
0.1964722881123415
 40
0.4068605002766937
 40
0.6208530274561773
 40
0.837206204389783
 40
1.0
 40
1.0
 40
1.0
 40
1.0
 10
144.2675893226755
 20
126.8924434890075
 30
0.0
 10
144.295312760205
 20
126.8865774381552
 30
0.0
 10
144.3527232569779
 20
126.8744298502822
 30
0.0
 10
144.9054096150023
 20
126.7680109039893
 30
0.0
 10
145.7554878457395
 20
126.6418506647957
 30
0.0
 10
146.7620347302215
 20
126.5466934770681
 30
0.0
 10
147.4569972830753
 20
126.5355089217455
 30
0.0
 10
147.7553923646105
 20
126.5307066251559
 30
0.0
  0
SPLINE
  5
AA
330
1F
100
AcDbEntity
  8
0
  6
Continuous
 62
     7
370
    15
100
AcDbSpline
210
0.0
220
0.0
230
1.0
 70
     8
 71
     3
 72
    12
 73
     8
 74
     0
 42
0.00000001
 43
0.00000001
 40
0.0
 40
0.0
 40
0.0
 40
0.0
 40
0.2117262413323021
 40
0.4233425040262008
 40
0.6377982197716315
 40
0.8542007770228378
 40
1.0
 40
1.0
 40
1.0
 40
1.0
 10
137.7553944507731
 20
126.5307066251559
 30
0.0
 10
138.1440849590331
 20
126.5388616058468
 30
0.0
 10
138.921264074964
 20
126.5551673312224
 30
0.0
 10
139.9623863405066
 20
126.6692329297447
 30
0.0
 10
140.7509797254788
 20
126.7938913744873
 30
0.0
 10
141.208796860117
 20
126.8851971539982
 30
0.0
 10
141.2116557632719
 20
126.8859240603602
 30
0.0
 10
141.2128065744532
 20
126.8862166662736
 30
0.0
  0
SPLINE
  5
AB
330
1F
100
AcDbEntity
  8
0
  6
Continuous
 62
     7
370
    15
100
AcDbSpline
210
0.0
220
0.0
230
1.0
 70
     8
 71
     3
 72
    12
 73
     8
 74
     0
 42
0.00000001
 43
0.00000001
 40
0.0
 40
0.0
 40
0.0
 40
0.0
 40
0.196472280571176
 40
0.40686007138205
 40
0.6208519965664682
 40
0.8372062911198476
 40
0.9999999999999999
 40
0.9999999999999999
 40
0.9999999999999999
 40
0.9999999999999999
 10
134.2675876835478
 20
126.8924434890075
 30
0.0
 10
134.2953128928442
 20
126.8865774496376
 30
0.0
 10
134.3527270003236
 20
126.874429897882
 30
0.0
 10
134.9054071834983
 20
126.7680110243432
 30
0.0
 10
135.7554842520067
 20
126.6418500804266
 30
0.0
 10
136.7620349920673
 20
126.5466936922303
 30
0.0
 10
137.4569995000624
 20
126.5355089754531
 30
0.0
 10
137.7553944507731
 20
126.5307066251559
 30
0.0
  0
SPLINE
  5
AC
330
1F
100
AcDbEntity
  8
0
  6
Continuous
 62
     7
370
    15
100
AcDbSpline
210
0.0
220
0.0
230
1.0
 70
     8
 71
     3
 72
    12
 73
     8
 74
     0
 42
0.00000001
 43
0.00000001
 40
0.0
 40
0.0
 40
0.0
 40
0.0
 40
0.2117256643307714
 40
0.4233420194042408
 40
0.6377982832949103
 40
0.8542006712587576
 40
0.9999999999999999
 40
0.9999999999999999
 40
0.9999999999999999
 40
0.9999999999999999
 10
127.7553965369356
 20
126.5307066251559
 30
0.0
 10
128.1440858638339
 20
126.5388616315476
 30
0.0
 10
128.9212638459652
 20
126.5551674340824
 30
0.0
 10
129.9623841972737
 20
126.6692331092903
 30
0.0
 10
130.7509835383476
 20
126.7938911199261
 30
0.0
 10
131.2087929452917
 20
126.8851972061834
 30
0.0
 10
131.2116561263761
 20
126.8859240751497
 30
0.0
 10
131.2128086606157
 20
126.8862166662736
 30
0.0
  0
SPLINE
  5
AD
330
1F
100
AcDbEntity
  8
0
  6
Continuous
 62
     7
370
    15
100
AcDbSpline
210
0.0
220
0.0
230
1.0
 70
     8
 71
     3
 72
    12
 73
     8
 74
     0
 42
0.00000001
 43
0.00000001
 40
0.0
 40
0.0
 40
0.0
 40
0.0
 40
0.1964722694354707
 40
0.4068600483219327
 40
0.6208519613776627
 40
0.8372056272262329
 40
1.0
 40
1.0
 40
1.0
 40
1.0
 10
124.2675897697104
 20
126.8924434890075
 30
0.0
 10
124.2953149824564
 20
126.886577451346
 30
0.0
 10
124.3527290970794
 20
126.8744299031283
 30
0.0
 10
124.9054092234337
 20
126.7680110014489
 30
0.0
 10
125.7554856974072
 20
126.6418502895076
 30
0.0
 10
126.7620354432666
 20
126.5466934770135
 30
0.0
 10
127.4570002631228
 20
126.5355089241937
 30
0.0
 10
127.7553965369356
 20
126.5307066251559
 30
0.0
  0
SPLINE
  5
AE
330
1F
100
AcDbEntity
  8
0
  6
Continuous
 62
     7
370
    15
100
AcDbSpline
210
0.0
220
0.0
230
1.0
 70
     8
 71
     3
 72
    11
 73
     7
 74
     0
 42
0.00000001
 43
0.00000001
 40
0.0
 40
0.0
 40
0.0
 40
0.0
 40
0.2927836385507963
 40
0.5955243990462223
 40
0.8937377190640681
 40
0.9999999999999999
 40
0.9999999999999999
 40
0.9999999999999999
 40
0.9999999999999999
 10
130.7237376490725
 20
108.0572798137589
 30
0.0
 10
130.8966972830294
 20
108.3963718970218
 30
0.0
 10
131.248498642495
 20
109.0860880645852
 30
0.0
 10
131.2835085773747
 20
110.2602020777306
 30
0.0
 10
131.0891109600247
 20
111.1831873519103
 30
0.0
 10
130.7777443116361
 20
111.6011326155533
 30
0.0
 10
130.6959432581556
 20
111.7109335946886
 30
0.0
  0
SPLINE
  5
AF
330
1F
100
AcDbEntity
  8
0
  6
Continuous
 62
     7
370
    15
100
AcDbSpline
210
0.0
220
0.0
230
1.0
 70
     8
 71
     3
 72
    11
 73
     7
 74
     0
 42
0.00000001
 43
0.00000001
 40
0.0
 40
0.0
 40
0.0
 40
0.0
 40
0.174873892873358
 40
0.4797157161904283
 40
0.778954431874329
 40
1.0
 40
1.0
 40
1.0
 40
1.0
 10
124.8210673252238
 20
111.7108306835441
 30
0.0
 10
124.6964045370578
 20
111.522131642816
 30
0.0
 10
124.3544283979972
 20
111.0044906503272
 30
0.0
 10
124.2069385978595
 20
109.9803148506042
 30
0.0
 10
124.3210092804758
 20
108.8969202764014
 30
0.0
 10
124.6650605373117
 20
108.3170940330091
 30
0.0
 10
124.8112325588358
 20
108.0707517440466
 30
0.0
  0
SPLINE
  5
B0
330
1F
100
AcDbEntity
  8
0
  6
Continuous
 62
     7
370
    15
100
AcDbSpline
210
0.0
220
0.0
230
1.0
 70
     8
 71
     3
 72
    11
 73
     7
 74
     0
 42
0.00000001
 43
0.00000001
 40
0.0
 40
0.0
 40
0.0
 40
0.0
 40
0.2927833738819495
 40
0.5955242476751614
 40
0.8937376792964428
 40
1.0
 40
1.0
 40
1.0
 40
1.0
 10
150.7237409273279
 20
108.0572798137589
 30
0.0
 10
150.8966989908855
 20
108.3963720282021
 30
0.0
 10
151.2484973847418
 20
109.0860889107606
 30
0.0
 10
151.2835083570891
 20
110.2602019803331
 30
0.0
 10
151.0891104961028
 20
111.183187359164
 30
0.0
 10
150.7777438610878
 20
111.6011326170625
 30
0.0
 10
150.6959428111208
 20
111.7109335946886
 30
0.0
  0
SPLINE
  5
B1
330
1F
100
AcDbEntity
  8
0
  6
Continuous
 62
     7
370
    15
100
AcDbSpline
210
0.0
220
0.0
230
1.0
 70
     8
 71
     3
 72
    11
 73
     7
 74
     0
 42
0.00000001
 43
0.00000001
 40
0.0
 40
0.0
 40
0.0
 40
0.0
 40
0.1748741638505199
 40
0.4797156137206587
 40
0.7789538249967836
 40
1.0
 40
1.0
 40
1.0
 40
1.0
 10
144.8210706034792
 20
111.7108306835441
 30
0.0
 10
144.6964062675841
 20
111.5221317534377
 30
0.0
 10
144.3544264857445
 20
111.0044919770908
 30
0.0
 10
144.2069406318852
 20
109.9803153237047
 30
0.0
 10
144.3210022824306
 20
108.8969178070057
 30
0.0
 10
144.665060489985
 20
108.3170937373116
 30
0.0
 10
144.8112358370913
 20
108.0707517440466
 30
0.0
  0
SPLINE
  5
B2
330
1F
100
AcDbEntity
  8
0
  6
Continuous
 62
     7
370
    15
100
AcDbSpline
210
0.0
220
0.0
230
1.0
 70
     8
 71
     3
 72
    11
 73
     7
 74
     0
 42
0.00000001
 43
0.00000001
 40
0.0
 40
0.0
 40
0.0
 40
0.0
 40
0.2927839032213503
 40
0.5955245504182595
 40
0.8937377588319501
 40
1.0
 40
1.0
 40
1.0
 40
1.0
 10
140.7237355629099
 20
108.0572798137589
 30
0.0
 10
140.8966967672665
 20
108.3963717658405
 30
0.0
 10
141.248501092337
 20
109.0860872184047
 30
0.0
 10
141.2835099897544
 20
110.2602021751285
 30
0.0
 10
141.0891126160394
 20
111.1831873446566
 30
0.0
 10
140.7777459542772
 20
111.6011326140441
 30
0.0
 10
140.6959448972834
 20
111.7109335946886
 30
0.0
  0
SPLINE
  5
B3
330
1F
100
AcDbEntity
  8
0
  6
Continuous
 62
     7
370
    15
100
AcDbSpline
210
0.0
220
0.0
230
1.0
 70
     8
 71
     3
 72
    11
 73
     7
 74
     0
 42
0.00000001
 43
0.00000001
 40
0.0
 40
0.0
 40
0.0
 40
0.0
 40
0.1748738161328257
 40
0.4797155056750746
 40
0.7789540900429857
 40
1.0
 40
1.0
 40
1.0
 40
1.0
 10
134.8210652390612
 20
111.7108306835441
 30
0.0
 10
134.6964024395636
 20
111.5221316369384
 30
0.0
 10
134.3544262694179
 20
111.004490628326
 30
0.0
 10
134.2069368341985
 20
109.9803150178834
 30
0.0
 10
134.3210062201423
 20
108.8969191634475
 30
0.0
 10
134.665060658044
 20
108.3170938985617
 30
0.0
 10
134.8112341979635
 20
108.0707517440466
 30
0.0
  0
LINE
  5
B4
330
1F
100
AcDbEntity
  8
0
  6
Continuous
 62
     7
370
    15
100
AcDbLine
 10
155.7553936759
 20
109.8949012567
 30
0.0
 11
155.7553936759
 21
93.8949004968
 31
0.0
  0
LINE
  5
B5
330
1F
100
AcDbEntity
  8
0
  6
Continuous
 62
     7
370
    15
100
AcDbLine
 10
155.7553936759
 20
125.8949020167
 30
0.0
 11
155.7553936759
 21
109.8949012567
 31
0.0
  0
LINE
  5
B6
330
1F
100
AcDbEntity
  8
0
  6
HIDDEN
 62
     7
370
     0
100
AcDbLine
 10
127.7553965369
 20
117.6449011301
 30
0.0
 11
131.7553971926
 21
117.6449011301
 31
0.0
  0
LINE
  5
B7
330
1F
100
AcDbEntity
  8
0
  6
HIDDEN
 62
     7
370
     0
100
AcDbLine
 10
123.7553958813
 20
117.6449011301
 30
0.0
 11
127.7553965369
 21
117.6449011301
 31
0.0
  0
LINE
  5
B8
330
1F
100
AcDbEntity
  8
0
  6
HIDDEN
 62
     7
370
     0
100
AcDbLine
 10
127.7553965369
 20
116.3949013908
 30
0.0
 11
130.5053946594
 21
116.3949013908
 31
0.0
  0
LINE
  5
B9
330
1F
100
AcDbEntity
  8
0
  6
HIDDEN
 62
     7
370
     0
100
AcDbLine
 10
125.0053946892
 20
116.3949013908
 30
0.0
 11
127.7553965369
 21
116.3949013908
 31
0.0
  0
LINE
  5
BA
330
1F
100
AcDbEntity
  8
0
  6
HIDDEN
 62
     7
370
     0
100
AcDbLine
 10
127.7553965369
 20
126.2949013372
 30
0.0
 11
131.7553971926
 21
126.2949013372
 31
0.0
  0
LINE
  5
BB
330
1F
100
AcDbEntity
  8
0
  6
HIDDEN
 62
     7
370
     0
100
AcDbLine
 10
123.7553958813
 20
126.2949013372
 30
0.0
 11
127.7553965369
 21
126.2949013372
 31
0.0
  0
LINE
  5
BC
330
1F
100
AcDbEntity
  8
0
  6
HIDDEN
 62
     7
370
     0
100
AcDbLine
 10
129.7553968648
 20
121.894901361
 30
0.0
 11
127.7553965369
 21
121.894901361
 31
0.0
  0
LINE
  5
BD
330
1F
100
AcDbEntity
  8
0
  6
HIDDEN
 62
     7
370
     0
100
AcDbLine
 10
125.7553962091
 20
121.894901361
 30
0.0
 11
127.7553965369
 21
121.894901361
 31
0.0
  0
LINE
  5
BE
330
1F
100
AcDbEntity
  8
0
  6
HIDDEN
 62
     7
370
     0
100
AcDbLine
 10
127.7553965369
 20
121.894901361
 30
0.0
 11
127.7553965369
 21
126.8949021806
 31
0.0
  0
LINE
  5
BF
330
1F
100
AcDbEntity
  8
0
  6
HIDDEN
 62
     7
370
     0
100
AcDbLine
 10
129.7553968648
 20
121.894901361
 30
0.0
 11
129.7553968648
 21
126.8949021806
 31
0.0
  0
LINE
  5
C0
330
1F
100
AcDbEntity
  8
0
  6
HIDDEN
 62
     7
370
     0
100
AcDbLine
 10
125.7553962091
 20
121.894901361
 30
0.0
 11
125.7553962091
 21
126.8949021806
 31
0.0
  0
LINE
  5
C1
330
1F
100
AcDbEntity
  8
0
  6
HIDDEN
 62
     7
370
     0
100
AcDbLine
 10
137.7553944508
 20
126.2949013372
 30
0.0
 11
141.7553951064
 21
126.2949013372
 31
0.0
  0
LINE
  5
C2
330
1F
100
AcDbEntity
  8
0
  6
HIDDEN
 62
     7
370
     0
100
AcDbLine
 10
133.7553937951
 20
126.2949013372
 30
0.0
 11
137.7553944508
 21
126.2949013372
 31
0.0
  0
LINE
  5
C3
330
1F
100
AcDbEntity
  8
0
  6
HIDDEN
 62
     7
370
     0
100
AcDbLine
 10
137.7553944508
 20
117.6449011301
 30
0.0
 11
141.7553951064
 21
117.6449011301
 31
0.0
  0
LINE
  5
C4
330
1F
100
AcDbEntity
  8
0
  6
HIDDEN
 62
     7
370
     0
100
AcDbLine
 10
133.7553937951
 20
117.6449011301
 30
0.0
 11
137.7553944508
 21
117.6449011301
 31
0.0
  0
LINE
  5
C5
330
1F
100
AcDbEntity
  8
0
  6
HIDDEN
 62
     7
370
     0
100
AcDbLine
 10
137.7553944508
 20
116.3949013908
 30
0.0
 11
140.5053962985
 21
116.3949013908
 31
0.0
  0
LINE
  5
C6
330
1F
100
AcDbEntity
  8
0
  6
HIDDEN
 62
     7
370
     0
100
AcDbLine
 10
135.0053963283
 20
116.3949013908
 30
0.0
 11
137.7553944508
 21
116.3949013908
 31
0.0
  0
LINE
  5
C7
330
1F
100
AcDbEntity
  8
0
  6
HIDDEN
 62
     7
370
     0
100
AcDbLine
 10
139.7553985039
 20
121.894901361
 30
0.0
 11
137.7553944508
 21
121.894901361
 31
0.0
  0
LINE
  5
C8
330
1F
100
AcDbEntity
  8
0
  6
HIDDEN
 62
     7
370
     0
100
AcDbLine
 10
135.7553941229
 20
121.894901361
 30
0.0
 11
137.7553944508
 21
121.894901361
 31
0.0
  0
LINE
  5
C9
330
1F
100
AcDbEntity
  8
0
  6
HIDDEN
 62
     7
370
     0
100
AcDbLine
 10
137.7553944508
 20
121.894901361
 30
0.0
 11
137.7553944508
 21
126.8949021806
 31
0.0
  0
LINE
  5
CA
330
1F
100
AcDbEntity
  8
0
  6
HIDDEN
 62
     7
370
     0
100
AcDbLine
 10
139.7553985039
 20
121.894901361
 30
0.0
 11
139.7553985039
 21
126.8949021806
 31
0.0
  0
LINE
  5
CB
330
1F
100
AcDbEntity
  8
0
  6
HIDDEN
 62
     7
370
     0
100
AcDbLine
 10
135.7553941229
 20
121.894901361
 30
0.0
 11
135.7553941229
 21
126.8949021806
 31
0.0
  0
LINE
  5
CC
330
1F
100
AcDbEntity
  8
0
  6
HIDDEN
 62
     7
370
     0
100
AcDbLine
 10
147.7553923646
 20
126.2949013372
 30
0.0
 11
151.7553930203
 21
126.2949013372
 31
0.0
  0
LINE
  5
CD
330
1F
100
AcDbEntity
  8
0
  6
HIDDEN
 62
     7
370
     0
100
AcDbLine
 10
143.7553991595
 20
126.2949013372
 30
0.0
 11
147.7553923646
 21
126.2949013372
 31
0.0
  0
LINE
  5
CE
330
1F
100
AcDbEntity
  8
0
  6
HIDDEN
 62
     7
370
     0
100
AcDbLine
 10
147.7553923646
 20
117.6449011301
 30
0.0
 11
151.7553930203
 21
117.6449011301
 31
0.0
  0
LINE
  5
CF
330
1F
100
AcDbEntity
  8
0
  6
HIDDEN
 62
     7
370
     0
100
AcDbLine
 10
143.7553991595
 20
117.6449011301
 30
0.0
 11
147.7553923646
 21
117.6449011301
 31
0.0
  0
LINE
  5
D0
330
1F
100
AcDbEntity
  8
0
  6
HIDDEN
 62
     7
370
     0
100
AcDbLine
 10
147.7553923646
 20
116.3949013908
 30
0.0
 11
150.5053942124
 21
116.3949013908
 31
0.0
  0
LINE
  5
D1
330
1F
100
AcDbEntity
  8
0
  6
HIDDEN
 62
     7
370
     0
100
AcDbLine
 10
145.0053979674
 20
116.3949013908
 30
0.0
 11
147.7553923646
 21
116.3949013908
 31
0.0
  0
LINE
  5
D2
330
1F
100
AcDbEntity
  8
0
  6
HIDDEN
 62
     7
370
     0
100
AcDbLine
 10
149.7553964177
 20
121.894901361
 30
0.0
 11
147.7553923646
 21
121.894901361
 31
0.0
  0
LINE
  5
D3
330
1F
100
AcDbEntity
  8
0
  6
HIDDEN
 62
     7
370
     0
100
AcDbLine
 10
145.7553957621
 20
121.894901361
 30
0.0
 11
147.7553923646
 21
121.894901361
 31
0.0
  0
LINE
  5
D4
330
1F
100
AcDbEntity
  8
0
  6
HIDDEN
 62
     7
370
     0
100
AcDbLine
 10
147.7553923646
 20
121.894901361
 30
0.0
 11
147.7553923646
 21
126.8949021806
 31
0.0
  0
LINE
  5
D5
330
1F
100
AcDbEntity
  8
0
  6
HIDDEN
 62
     7
370
     0
100
AcDbLine
 10
149.7553964177
 20
121.894901361
 30
0.0
 11
149.7553964177
 21
126.8949021806
 31
0.0
  0
LINE
  5
D6
330
1F
100
AcDbEntity
  8
0
  6
HIDDEN
 62
     7
370
     0
100
AcDbLine
 10
145.7553957621
 20
121.894901361
 30
0.0
 11
145.7553957621
 21
126.8949021806
 31
0.0
  0
CIRCLE
  5
D7
330
1F
100
AcDbEntity
  8
0
  6
HIDDEN
 62
     7
370
     0
100
AcDbCircle
 10
127.7553954641
 20
109.8949012567
 30
0.0
 40
1.850000000000023
  0
CIRCLE
  5
D8
330
1F
100
AcDbEntity
  8
0
  6
HIDDEN
 62
     7
370
     0
100
AcDbCircle
 10
127.7553954641
 20
109.8949012567
 30
0.0
 40
2.750000000000057
  0
CIRCLE
  5
D9
330
1F
100
AcDbEntity
  8
0
  6
HIDDEN
 62
     7
370
     0
100
AcDbCircle
 10
137.7553954641
 20
109.8949012567
 30
0.0
 40
1.850000000000023
  0
CIRCLE
  5
DA
330
1F
100
AcDbEntity
  8
0
  6
HIDDEN
 62
     7
370
     0
100
AcDbCircle
 10
137.7553954641
 20
109.8949012567
 30
0.0
 40
2.750000000000057
  0
CIRCLE
  5
DB
330
1F
100
AcDbEntity
  8
0
  6
HIDDEN
 62
     7
370
     0
100
AcDbCircle
 10
147.7553954641
 20
109.8949012567
 30
0.0
 40
1.850000000000023
  0
CIRCLE
  5
DC
330
1F
100
AcDbEntity
  8
0
  6
HIDDEN
 62
     7
370
     0
100
AcDbCircle
 10
147.7553954641
 20
109.8949012567
 30
0.0
 40
2.750000000000057
  0
SPLINE
  5
DD
330
1F
100
AcDbEntity
  8
0
  6
HIDDEN
 62
     7
370
     0
100
AcDbSpline
210
0.0
220
0.0
230
1.0
 70
     8
 71
     3
 72
     9
 73
     5
 74
     0
 42
0.00000001
 43
0.00000001
 40
0.0
 40
0.0
 40
0.0
 40
0.0
 40
0.3547925647816709
 40
1.0
 40
1.0
 40
1.0
 40
1.0
 10
85.78226203416712
 20
109.6457713620773
 30
0.0
 10
85.76923317984638
 20
109.7289395037785
 30
0.0
 10
85.73251072392699
 20
109.9633529327983
 30
0.0
 10
85.79286474076181
 20
110.1947910114748
 30
0.0
 10
85.83180560116894
 20
110.3441165806296
 30
0.0
  0
SPLINE
  5
DE
330
1F
100
AcDbEntity
  8
0
  6
HIDDEN
 62
     7
370
     0
100
AcDbSpline
210
0.0
220
0.0
230
1.0
 70
     8
 71
     3
 72
    12
 73
     8
 74
     0
 42
0.00000001
 43
0.00000001
 40
0.0
 40
0.0
 40
0.0
 40
0.0
 40
0.5000000000000003
 40
0.5000000000000003
 40
0.7500000000000001
 40
0.7500000000000001
 40
1.0
 40
1.0
 40
1.0
 40
1.0
 10
74.938883177605
 20
125.3471692385633
 30
0.0
 10
74.99528935628527
 20
125.2993468649035
 30
0.0
 10
75.06545225775706
 20
125.259076017965
 30
0.0
 10
75.18346297114623
 20
125.2510301494881
 30
0.0
 10
75.22366875474168
 20
125.2575927478269
 30
0.0
 10
75.29738945147473
 20
125.2849748422805
 30
0.0
 10
75.33025017326122
 20
125.3047363328109
 30
0.0
 10
75.3604185751905
 20
125.3276690439989
 30
0.0
  0
SPLINE
  5
DF
330
1F
100
AcDbEntity
  8
0
  6
HIDDEN
 62
     7
370
     0
100
AcDbSpline
210
0.0
220
0.0
230
1.0
 70
     8
 71
     3
 72
    16
 73
    12
 74
     0
 42
0.00000001
 43
0.00000001
 40
0.0
 40
0.0
 40
0.0
 40
0.0
 40
0.0624999999999984
 40
0.0624999999999984
 40
0.1249999999999968
 40
0.1249999999999968
 40
0.2499999999999939
 40
0.2499999999999939
 40
0.4999999999999942
 40
0.4999999999999942
 40
1.0
 40
1.0
 40
1.0
 40
1.0
 10
75.36041857514536
 20
125.327669044047
 30
0.0
 10
75.37203147498472
 20
125.3364966670284
 30
0.0
 10
75.38538265941719
 20
125.3443310489103
 30
0.0
 10
75.41478249903635
 20
125.3526411749827
 30
0.0
 10
75.42962322359163
 20
125.3521453557477
 30
0.0
 10
75.46545643156026
 20
125.3406943847783
 30
0.0
 10
75.47956963938185
 20
125.3240138839197
 30
0.0
 10
75.51406101060077
 20
125.2718931981626
 30
0.0
 10
75.52514508171116
 20
125.2321037041376
 30
0.0
 10
75.55126789950715
 20
125.1087670720405
 30
0.0
 10
75.55539546405203
 20
125.0213456615419
 30
0.0
 10
75.55539546405203
 20
124.9326084192237
 30
0.0
  0
SPLINE
  5
E0
330
1F
100
AcDbEntity
  8
0
  6
HIDDEN
 62
     7
370
     0
100
AcDbSpline
210
0.0
220
0.0
230
1.0
 70
     8
 71
     3
 72
    15
 73
    11
 74
     0
 42
0.00000001
 43
0.00000001
 40
0.0
 40
0.0
 40
0.0
 40
0.0
 40
0.4473636574799171
 40
0.5992470226073511
 40
0.7520169596383259
 40
0.8185648881248611
 40
0.8609323033594692
 40
0.9036118850751194
 40
0.9411960428053343
 40
1.0
 40
1.0
 40
1.0
 40
1.0
 10
75.53733203121233
 20
94.70222585248186
 30
0.0
 10
75.53578115296382
 20
94.64678786888042
 30
0.0
 10
75.53370373975132
 20
94.5725282680902
 30
0.0
 10
75.49959221026192
 20
94.49366905233263
 30
0.0
 10
75.47463664788589
 20
94.4583655725805
 30
0.0
 10
75.44556218340392
 20
94.4415162089489
 30
0.0
 10
75.42369806690677
 20
94.43735804418158
 30
0.0
 10
75.40354866547393
 20
94.43958657322055
 30
0.0
 10
75.3812312561606
 20
94.44773147043685
 30
0.0
 10
75.36830471755192
 20
94.456676530959
 30
0.0
 10
75.36041856246307
 20
94.46213368671371
 30
0.0
  0
SPLINE
  5
E1
330
1F
100
AcDbEntity
  8
0
  6
HIDDEN
 62
     7
370
     0
100
AcDbSpline
210
0.0
220
0.0
230
1.0
 70
     8
 71
     3
 72
    12
 73
     8
 74
     0
 42
0.00000001
 43
0.00000001
 40
0.0
 40
0.0
 40
0.0
 40
0.0
 40
0.2500000000000004
 40
0.2500000000000004
 40
0.5000000000000008
 40
0.5000000000000008
 40
1.0
 40
1.0
 40
1.0
 40
1.0
 10
75.36041857518345
 20
94.46213346945788
 30
0.0
 10
75.33022673346623
 20
94.48508399855571
 30
0.0
 10
75.29686776405161
 20
94.5050534725799
 30
0.0
 10
75.22373047947102
 20
94.53215460620538
 30
0.0
 10
75.18348860681705
 20
94.5387553468508
 30
0.0
 10
75.06578282984854
 20
94.53078647234409
 30
0.0
 10
74.99537235206915
 20
94.49052601417624
 30
0.0
 10
74.93888317760083
 20
94.44263327489809
 30
0.0
  0
SPLINE
  5
E2
330
1F
100
AcDbEntity
  8
0
  6
HIDDEN
 62
     7
370
     0
100
AcDbSpline
210
0.0
220
0.0
230
1.0
 70
     8
 71
     3
 72
    12
 73
     8
 74
     0
 42
0.00000001
 43
0.00000001
 40
0.0
 40
0.0
 40
0.0
 40
0.0
 40
0.2499999999999986
 40
0.2499999999999986
 40
0.4999999999999971
 40
0.4999999999999971
 40
1.0
 40
1.0
 40
1.0
 40
1.0
 10
74.93888317760049
 20
94.4426332748983
 30
0.0
 10
74.85072923986274
 20
94.36789446704421
 30
0.0
 10
74.79037581523403
 20
94.27691396656182
 30
0.0
 10
74.68411385716719
 20
94.08800014380923
 30
0.0
 10
74.6418816906051
 20
93.99149568426866
 30
0.0
 10
74.53081099528794
 20
93.70072793010151
 30
0.0
 10
74.47787421886116
 20
93.50506111555775
 30
0.0
 10
74.43407512049237
 20
93.31099463049146
 30
0.0
  0
SPLINE
  5
E3
330
1F
100
AcDbEntity
  8
0
  6
HIDDEN
 62
     7
370
     0
100
AcDbSpline
210
0.0
220
0.0
230
1.0
 70
     8
 71
     3
 72
    12
 73
     8
 74
     0
 42
0.00000001
 43
0.00000001
 40
0.0
 40
0.0
 40
0.0
 40
0.0
 40
0.5
 40
0.5
 40
0.75
 40
0.75
 40
1.0
 40
1.0
 40
1.0
 40
1.0
 10
74.43407512049237
 20
88.12482030173037
 30
0.0
 10
74.47782166132895
 20
88.09822613108919
 30
0.0
 10
74.53070601656044
 20
88.07846590576348
 30
0.0
 10
74.64227310389663
 20
88.05801491553439
 30
0.0
 10
74.68485670043961
 20
88.05275469087795
 30
0.0
 10
74.78977342752141
 20
88.0448718969553
 30
0.0
 10
74.8513070353662
 20
88.04230777177615
 30
0.0
 10
74.93888317759234
 20
88.04010755425651
 30
0.0
  0
SPLINE
  5
E4
330
1F
100
AcDbEntity
  8
0
  6
HIDDEN
 62
     7
370
     0
100
AcDbSpline
210
0.0
220
0.0
230
1.0
 70
     8
 71
     3
 72
    12
 73
     8
 74
     0
 42
0.00000001
 43
0.00000001
 40
0.0
 40
0.0
 40
0.0
 40
0.0
 40
0.25
 40
0.25
 40
0.5
 40
0.5
 40
1.0
 40
1.0
 40
1.0
 40
1.0
 10
74.93888317760032
 20
131.7496949592084
 30
0.0
 10
74.85019851774395
 20
131.7474668918674
 30
0.0
 10
74.79028010202055
 20
131.7449651078371
 30
0.0
 10
74.6846208746998
 20
131.737033672001
 30
0.0
 10
74.64197963658486
 20
131.7317415171042
 30
0.0
 10
74.53079029448233
 20
131.7113365766171
 30
0.0
 10
74.47786361236135
 20
131.6916018850302
 30
0.0
 10
74.43407512049237
 20
131.6649822117346
 30
0.0
  0
SPLINE
  5
E5
330
1F
100
AcDbEntity
  8
0
  6
HIDDEN
 62
     7
370
     0
100
AcDbSpline
210
0.0
220
0.0
230
1.0
 70
     8
 71
     3
 72
    12
 73
     8
 74
     0
 42
0.00000001
 43
0.00000001
 40
0.0
 40
0.0
 40
0.0
 40
0.0
 40
0.5000000000000013
 40
0.5000000000000013
 40
0.7499999999999993
 40
0.7499999999999993
 40
1.0
 40
1.0
 40
1.0
 40
1.0
 10
74.4340751204908
 20
126.4788078829737
 30
0.0
 10
74.47783659678954
 20
126.2849080950116
 30
0.0
 10
74.53074291244256
 20
126.0890517310748
 30
0.0
 10
74.64245411008994
 20
125.7969095845758
 30
0.0
 10
74.68497355367634
 20
125.7001916478779
 30
0.0
 10
74.79009689624375
 20
125.5134672114534
 30
0.0
 10
74.85166285996145
 20
125.4211165031837
 30
0.0
 10
74.9388831776042
 20
125.347169238564
 30
0.0
  0
CIRCLE
  5
E6
330
1F
100
AcDbEntity
  8
0
  6
HIDDEN
 62
     7
370
     0
100
AcDbCircle
 10
60.2553954641
 20
109.8949012567
 30
0.0
 40
4.049999999999997
  0
SPLINE
  5
E7
330
1F
100
AcDbEntity
  8
0
  6
HIDDEN
 62
     7
370
     0
100
AcDbSpline
210
0.0
220
0.0
230
1.0
 70
    24
 71
     1
 72
     4
 73
     2
 74
     0
 42
0.00000001
 43
0.00000001
 40
0.0
 40
0.0
 40
1.0
 40
1.0
 10
147.9776804367197
 20
126.5383434702678
 30
0.0
 10
147.2276230374468
 20
126.5447453816457
 30
0.0
  0
SPLINE
  5
E8
330
1F
100
AcDbEntity
  8
0
  6
HIDDEN
 62
     7
370
     0
100
AcDbSpline
210
0.0
220
0.0
230
1.0
 70
    24
 71
     1
 72
     4
 73
     2
 74
     0
 42
0.00000001
 43
0.00000001
 40
0.0
 40
0.0
 40
1.0
 40
1.0
 10
137.9776825228823
 20
126.5383434702678
 30
0.0
 10
137.2276213983191
 20
126.5447453816457
 30
0.0
  0
SPLINE
  5
E9
330
1F
100
AcDbEntity
  8
0
  6
HIDDEN
 62
     7
370
     0
100
AcDbSpline
210
0.0
220
0.0
230
1.0
 70
    24
 71
     1
 72
     4
 73
     2
 74
     0
 42
0.00000001
 43
0.00000001
 40
0.0
 40
0.0
 40
1.0
 40
1.0
 10
127.9776808837546
 20
126.5383434702678
 30
0.0
 10
127.2276197591913
 20
126.5447453816457
 30
0.0
  0
SPLINE
  5
EA
330
1F
100
AcDbEntity
  8
0
  6
HIDDEN
 62
     7
370
     0
100
AcDbSpline
210
0.0
220
0.0
230
1.0
 70
     8
 71
     3
 72
    11
 73
     7
 74
     0
 42
0.00000001
 43
0.00000001
 40
0.0
 40
0.0
 40
0.0
 40
0.0
 40
0.326810243566549
 40
0.6534517622639807
 40
0.9844768368954063
 40
1.0
 40
1.0
 40
1.0
 40
1.0
 10
127.7553965369356
 20
106.3949011486991
 30
0.0
 10
128.1463506038508
 20
106.4317005303047
 30
0.0
 10
128.9280568967808
 20
106.5052802948125
 30
0.0
 10
129.935076520202
 20
107.1101929574052
 30
0.0
 10
130.5597651858122
 20
107.6618516473243
 30
0.0
 10
130.7167076232656
 20
108.0403265390471
 30
0.0
 10
130.7237376490725
 20
108.0572798137589
 30
0.0
  0
SPLINE
  5
EB
330
1F
100
AcDbEntity
  8
0
  6
HIDDEN
 62
     7
370
     0
100
AcDbSpline
210
0.0
220
0.0
230
1.0
 70
     8
 71
     3
 72
    14
 73
    10
 74
     0
 42
0.00000001
 43
0.00000001
 40
0.0
 40
0.0
 40
0.0
 40
0.0
 40
0.1054925318073127
 40
0.271782638627479
 40
0.4384318961330027
 40
0.6020569461625856
 40
0.7640343637523358
 40
0.9282588169916548
 40
0.9999999999999999
 40
0.9999999999999999
 40
0.9999999999999999
 40
0.9999999999999999
 10
130.6959432581556
 20
111.7109335946886
 30
0.0
 10
130.5656502849052
 20
111.924946552834
 30
0.0
 10
130.2299737449837
 20
112.4763126587444
 30
0.0
 10
129.3472998093962
 20
113.0778813183608
 30
0.0
 10
128.2133237424012
 20
113.4336180300969
 30
0.0
 10
127.0182325901005
 20
113.3851973772552
 30
0.0
 10
125.9368960371813
 20
112.9460199571901
 30
0.0
 10
125.1621043118069
 20
112.3565437258585
 30
0.0
 10
124.9005793650486
 20
111.861377290381
 30
0.0
 10
124.8210673252238
 20
111.7108306835441
 30
0.0
  0
SPLINE
  5
EC
330
1F
100
AcDbEntity
  8
0
  6
HIDDEN
 62
     7
370
     0
100
AcDbSpline
210
0.0
220
0.0
230
1.0
 70
     8
 71
     3
 72
    11
 73
     7
 74
     0
 42
0.00000001
 43
0.00000001
 40
0.0
 40
0.0
 40
0.0
 40
0.0
 40
0.0843025147099525
 40
0.414666126372202
 40
0.7486758439613277
 40
1.0
 40
1.0
 40
1.0
 40
1.0
 10
124.8112325588358
 20
108.0707517440466
 30
0.0
 10
124.8542435239006
 20
107.9805568266239
 30
0.0
 10
125.0658053063254
 20
107.5369072254842
 30
0.0
 10
125.7738912680401
 20
106.9540654565352
 30
0.0
 10
126.7587206731738
 20
106.4682886021813
 30
0.0
 10
127.4560045375498
 20
106.4169460453668
 30
0.0
 10
127.7553965369356
 20
106.3949011486991
 30
0.0
  0
SPLINE
  5
ED
330
1F
100
AcDbEntity
  8
0
  6
HIDDEN
 62
     7
370
     0
100
AcDbSpline
210
0.0
220
0.0
230
1.0
 70
     8
 71
     3
 72
    11
 73
     7
 74
     0
 42
0.00000001
 43
0.00000001
 40
0.0
 40
0.0
 40
0.0
 40
0.0
 40
0.3268107098870909
 40
0.6534516618988101
 40
0.9844768638263205
 40
1.0
 40
1.0
 40
1.0
 40
1.0
 10
147.7553923646105
 20
106.3949011486991
 30
0.0
 10
148.1463478040985
 20
106.4317002786363
 30
0.0
 10
148.9280556059943
 20
106.5052794236472
 30
0.0
 10
149.93507586086
 20
107.1101942482195
 30
0.0
 10
150.5597681654175
 20
107.6618508625219
 30
0.0
 10
150.7167109023391
 20
108.0403265382506
 30
0.0
 10
150.7237409273279
 20
108.0572798137589
 30
0.0
  0
SPLINE
  5
EE
330
1F
100
AcDbEntity
  8
0
  6
HIDDEN
 62
     7
370
     0
100
AcDbSpline
210
0.0
220
0.0
230
1.0
 70
     8
 71
     3
 72
    14
 73
    10
 74
     0
 42
0.00000001
 43
0.00000001
 40
0.0
 40
0.0
 40
0.0
 40
0.0
 40
0.1054928855251146
 40
0.271782663873312
 40
0.4384315127529257
 40
0.6020577003980571
 40
0.7640342335469861
 40
0.9282587774050185
 40
1.0
 40
1.0
 40
1.0
 40
1.0
 10
150.6959428111208
 20
111.7109335946886
 30
0.0
 10
150.5656484097807
 20
111.924946390397
 30
0.0
 10
150.2299692849967
 20
112.4763102803035
 30
0.0
 10
149.3473002430349
 20
113.0778818780028
 30
0.0
 10
148.2133234161902
 20
113.4336182481293
 30
0.0
 10
147.0182327142841
 20
113.3851993660977
 30
0.0
 10
145.9368977070891
 20
112.9460178197669
 30
0.0
 10
145.1621075625808
 20
112.3565437922432
 30
0.0
 10
144.9005826368969
 20
111.8613773058584
 30
0.0
 10
144.8210706034792
 20
111.7108306835441
 30
0.0
  0
SPLINE
  5
EF
330
1F
100
AcDbEntity
  8
0
  6
HIDDEN
 62
     7
370
     0
100
AcDbSpline
210
0.0
220
0.0
230
1.0
 70
     8
 71
     3
 72
    11
 73
     7
 74
     0
 42
0.00000001
 43
0.00000001
 40
0.0
 40
0.0
 40
0.0
 40
0.0
 40
0.0843021818349878
 40
0.4146671134122645
 40
0.7486764521320596
 40
1.0
 40
1.0
 40
1.0
 40
1.0
 10
144.8112358370913
 20
108.0707517440466
 30
0.0
 10
144.8542454540467
 20
107.9805567633033
 30
0.0
 10
145.0658019443254
 20
107.5369040428753
 30
0.0
 10
145.7738953054102
 20
106.9540686156369
 30
0.0
 10
146.758719632151
 20
106.4682883747642
 30
0.0
 10
147.4560014594919
 20
106.416945965739
 30
0.0
 10
147.7553923646105
 20
106.3949011486991
 30
0.0
  0
SPLINE
  5
F0
330
1F
100
AcDbEntity
  8
0
  6
HIDDEN
 62
     7
370
     0
100
AcDbSpline
210
0.0
220
0.0
230
1.0
 70
     8
 71
     3
 72
    11
 73
     7
 74
     0
 42
0.00000001
 43
0.00000001
 40
0.0
 40
0.0
 40
0.0
 40
0.0
 40
0.3268111684592733
 40
0.6534525788049751
 40
0.9844768420446647
 40
1.0
 40
1.0
 40
1.0
 40
1.0
 10
137.7553944507731
 20
106.3949011486991
 30
0.0
 10
138.1463497350763
 20
106.4317004200862
 30
0.0
 10
138.9280572266831
 20
106.5052798479235
 30
0.0
 10
139.935078382889
 20
107.1101916804777
 30
0.0
 10
140.5597633982067
 20
107.6618524320107
 30
0.0
 10
140.716705536281
 20
108.0403265398388
 30
0.0
 10
140.7237355629099
 20
108.0572798137589
 30
0.0
  0
SPLINE
  5
F1
330
1F
100
AcDbEntity
  8
0
  6
HIDDEN
 62
     7
370
     0
100
AcDbSpline
210
0.0
220
0.0
230
1.0
 70
     8
 71
     3
 72
    14
 73
    10
 74
     0
 42
0.00000001
 43
0.00000001
 40
0.0
 40
0.0
 40
0.0
 40
0.0
 40
0.105492811180165
 40
0.2717824723374718
 40
0.438432204937834
 40
0.6020572299423648
 40
0.7640341358494686
 40
0.9282585639720617
 40
0.9999999999999999
 40
0.9999999999999999
 40
0.9999999999999999
 40
0.9999999999999999
 10
140.6959448972834
 20
111.7109335946886
 30
0.0
 10
140.565650488159
 20
111.924946374489
 30
0.0
 10
140.2299713433203
 20
112.4763102234116
 30
0.0
 10
139.3473005034628
 20
113.0778836396873
 30
0.0
 10
138.2133224908101
 20
113.4336171840241
 30
0.0
 10
137.0182317464909
 20
113.3851981030345
 30
0.0
 10
135.9368961773748
 20
112.9460192001232
 30
0.0
 10
135.1621073766198
 20
112.3565422302349
 30
0.0
 10
134.9005786359819
 20
111.8613772373391
 30
0.0
 10
134.8210652390612
 20
111.7108306835441
 30
0.0
  0
SPLINE
  5
F2
330
1F
100
AcDbEntity
  8
0
  6
HIDDEN
 62
     7
370
     0
100
AcDbSpline
210
0.0
220
0.0
230
1.0
 70
     8
 71
     3
 72
    11
 73
     7
 74
     0
 42
0.00000001
 43
0.00000001
 40
0.0
 40
0.0
 40
0.0
 40
0.0
 40
0.0843020848890976
 40
0.4146658831896424
 40
0.7486767411493135
 40
1.0
 40
1.0
 40
1.0
 40
1.0
 10
134.8112341979635
 20
108.0707517440466
 30
0.0
 10
134.854243836039
 20
107.9805567901585
 30
0.0
 10
135.0658000458494
 20
107.5369050078509
 30
0.0
 10
135.7738913218355
 20
106.9540650081166
 30
0.0
 10
136.7587199750644
 20
106.4682895687946
 30
0.0
 10
137.4560037030963
 20
106.4169462742629
 30
0.0
 10
137.7553944507731
 20
106.3949011486991
 30
0.0
  0
LINE
  5
F3
330
1F
100
AcDbEntity
  8
0
  6
HIDDEN
 62
     7
370
     0
100
AcDbLine
 10
39.285623006
 20
94.5819501986
 30
0.0
 11
39.285623006
 21
125.2078523149
 31
0.0
  0
LINE
  5
F4
330
1F
100
AcDbEntity
  8
0
  6
HIDDEN
 62
     7
370
     0
100
AcDbLine
 10
45.7856231401
 20
95.5484907364
 30
0.0
 11
45.7856231401
 21
124.2413117771
 31
0.0
  0
LINE
  5
F5
330
1F
100
AcDbEntity
  8
0
  6
HIDDEN
 62
     7
370
     0
100
AcDbLine
 10
51.5856244633
 20
95.8949008246
 30
0.0
 11
51.5856244633
 21
123.8949016889
 31
0.0
  0
LINE
  5
F6
330
1F
100
AcDbEntity
  8
0
  6
HIDDEN
 62
     7
370
     0
100
AcDbLine
 10
44.1856239954
 20
95.8949008246
 30
0.0
 11
44.1856239954
 21
123.8949016889
 31
0.0
  0
LINE
  5
F7
330
1F
100
AcDbEntity
  8
0
  6
HIDDEN
 62
     7
370
     0
100
AcDbLine
 10
45.1856241593
 20
95.8949008246
 30
0.0
 11
45.1856241593
 21
123.8949016889
 31
0.0
  0
LINE
  5
F8
330
1F
100
AcDbEntity
  8
0
  6
HIDDEN
 62
     7
370
     0
100
AcDbLine
 10
64.7553955237
 20
96.3949009066
 30
0.0
 11
64.7553955237
 21
123.3949016069
 31
0.0
  0
SPLINE
  5
F9
330
1F
100
AcDbEntity
  8
0
  6
HIDDEN
 62
     7
370
     0
100
AcDbSpline
210
0.0
220
0.0
230
1.0
 70
    24
 71
     1
 72
     4
 73
     2
 74
     0
 42
0.00000001
 43
0.00000001
 40
0.0
 40
0.0
 40
1.0
 40
1.0
 10
64.25539544170029
 20
109.2604723863339
 30
0.0
 10
64.118462152232
 20
108.8528634036927
 30
0.0
  0
SPLINE
  5
FA
330
1F
100
AcDbEntity
  8
0
  6
HIDDEN
 62
     7
370
     0
100
AcDbSpline
210
0.0
220
0.0
230
1.0
 70
     8
 71
     3
 72
     9
 73
     5
 74
     0
 42
0.00000001
 43
0.00000001
 40
0.0
 40
0.0
 40
0.0
 40
0.0
 40
0.6182753458841797
 40
1.0
 40
1.0
 40
1.0
 40
1.0
 10
59.50142490064031
 20
113.853015213929
 30
0.0
 10
59.90887395606678
 20
113.9155787057729
 30
0.0
 10
60.56788301754534
 20
114.0167690447707
 30
0.0
 10
61.18925983993109
 20
113.8005600093951
 30
0.0
 10
61.42645469253188
 20
113.7180276901497
 30
0.0
  0
SPLINE
  5
FB
330
1F
100
AcDbEntity
  8
0
  6
HIDDEN
 62
     7
370
     0
100
AcDbSpline
210
0.0
220
0.0
230
1.0
 70
    24
 71
     1
 72
     4
 73
     2
 74
     0
 42
0.00000001
 43
0.00000001
 40
0.0
 40
0.0
 40
1.0
 40
1.0
 10
64.02135687266714
 20
111.2490119167639
 30
0.0
 10
64.25539544170029
 20
110.529330127131
 30
0.0
  0
LINE
  5
FC
330
1F
100
AcDbEntity
  8
0
  6
HIDDEN
 62
     7
370
     0
100
AcDbLine
 10
66.0053952629
 20
100.8949016442
 30
0.0
 11
66.0053952629
 21
118.8949008693
 31
0.0
  0
LINE
  5
FD
330
1F
100
AcDbEntity
  8
0
  6
HIDDEN
 62
     7
370
     0
100
AcDbLine
 10
91.755396224
 20
100.8949016442
 30
0.0
 11
91.755396224
 21
118.8949008693
 31
0.0
  0
LINE
  5
FE
330
1F
100
AcDbEntity
  8
0
  6
HIDDEN
 62
     7
370
     0
100
AcDbLine
 10
94.1588380406
 20
104.8949013685
 30
0.0
 11
94.1588380406
 21
114.894901145
 31
0.0
  0
LINE
  5
FF
330
1F
100
AcDbEntity
  8
0
  6
HIDDEN
 62
     7
370
     0
100
AcDbLine
 10
121.7553955535
 20
109.8949012567
 30
0.0
 11
121.7553955535
 21
104.8949013685
 31
0.0
  0
LINE
  5
100
330
1F
100
AcDbEntity
  8
0
  6
HIDDEN
 62
     7
370
     0
100
AcDbLine
 10
121.7553955535
 20
114.894901145
 30
0.0
 11
121.7553955535
 21
109.8949012567
 31
0.0
  0
LINE
  5
101
330
1F
100
AcDbEntity
  8
0
  6
HIDDEN
 62
     7
370
     0
100
AcDbLine
 10
122.3562550763
 20
109.8949012567
 30
0.0
 11
122.3562550763
 21
105.8949010667
 31
0.0
  0
LINE
  5
102
330
1F
100
AcDbEntity
  8
0
  6
HIDDEN
 62
     7
370
     0
100
AcDbLine
 10
122.3562550763
 20
113.8949014467
 30
0.0
 11
122.3562550763
 21
109.8949012567
 31
0.0
  0
SPLINE
  5
103
330
1F
100
AcDbEntity
  8
0
  6
HIDDEN
 62
     7
370
     0
100
AcDbSpline
210
0.0
220
0.0
230
1.0
 70
     8
 71
     3
 72
    11
 73
     7
 74
     0
 42
0.00000001
 43
0.00000001
 40
0.0
 40
0.0
 40
0.0
 40
0.0
 40
0.2295586813475749
 40
0.568018281348559
 40
0.84274912107917
 40
0.9999999999999999
 40
0.9999999999999999
 40
0.9999999999999999
 40
0.9999999999999999
 10
125.6938432375086
 20
112.723328381501
 30
0.0
 10
125.5130441308006
 20
112.8601966393311
 30
0.0
 10
125.0656761756496
 20
113.1988624311342
 30
0.0
 10
124.5722047139561
 20
113.6198142548138
 30
0.0
 10
124.2724094047945
 20
113.8798391647563
 30
0.0
 10
124.2843368022078
 20
113.8695562067392
 30
0.0
 10
124.28867863809
 20
113.865812983088
 30
0.0
  0
SPLINE
  5
104
330
1F
100
AcDbEntity
  8
0
  6
HIDDEN
 62
     7
370
     0
100
AcDbSpline
210
0.0
220
0.0
230
1.0
 70
     8
 71
     3
 72
     9
 73
     5
 74
     0
 42
0.00000001
 43
0.00000001
 40
0.0
 40
0.0
 40
0.0
 40
0.0
 40
0.9093146682480325
 40
1.0
 40
1.0
 40
1.0
 40
1.0
 10
125.6938432375086
 20
112.723328381501
 30
0.0
 10
125.5014618124533
 20
112.5889914891572
 30
0.0
 10
125.2898943190729
 20
112.4412572701517
 30
0.0
 10
125.1430195619467
 20
112.2136706762971
 30
0.0
 10
125.1297001758707
 20
112.1930319105311
 30
0.0
  0
SPLINE
  5
105
330
1F
100
AcDbEntity
  8
0
  6
HIDDEN
 62
     7
370
     0
100
AcDbSpline
210
0.0
220
0.0
230
1.0
 70
    24
 71
     1
 72
     4
 73
     2
 74
     0
 42
0.00000001
 43
0.00000001
 40
0.0
 40
0.0
 40
1.0
 40
1.0
 10
127.6380312660826
 20
106.4099964906497
 30
0.0
 10
127.8534051993979
 20
106.4113792718424
 30
0.0
  0
SPLINE
  5
106
330
1F
100
AcDbEntity
  8
0
  6
HIDDEN
 62
     7
370
     0
100
AcDbSpline
210
0.0
220
0.0
230
1.0
 70
     8
 71
     3
 72
     9
 73
     5
 74
     0
 42
0.00000001
 43
0.00000001
 40
0.0
 40
0.0
 40
0.0
 40
0.0
 40
0.3352894058708681
 40
1.0
 40
1.0
 40
1.0
 40
1.0
 10
130.1481840232504
 20
112.4180168599857
 30
0.0
 10
130.1165261025755
 20
112.459409383174
 30
0.0
 10
130.0221064158196
 20
112.5828625029668
 30
0.0
 10
129.8988678299775
 20
112.6672410604347
 30
0.0
 10
129.8169498363627
 20
112.723328381501
 30
0.0
  0
SPLINE
  5
107
330
1F
100
AcDbEntity
  8
0
  6
HIDDEN
 62
     7
370
     0
100
AcDbSpline
210
0.0
220
0.0
230
1.0
 70
     8
 71
     3
 72
    12
 73
     8
 74
     0
 42
0.00000001
 43
0.00000001
 40
0.0
 40
0.0
 40
0.0
 40
0.0
 40
0.009537716117284
 40
0.2692537895873392
 40
0.5270910590836408
 40
0.9021986330685484
 40
1.0
 40
1.0
 40
1.0
 40
1.0
 10
131.2505421260489
 20
113.8906765018625
 30
0.0
 10
131.2521585399052
 20
113.8920830485889
 30
0.0
 10
131.2977905917508
 20
113.9317904619397
 30
0.0
 10
131.1447146046496
 20
113.7976715661294
 30
0.0
 10
130.7776253858965
 20
113.4821256768104
 30
0.0
 10
130.2746826515145
 20
113.0627683654882
 30
0.0
 10
129.8953904995076
 20
112.7814974630273
 30
0.0
 10
129.8169498363627
 20
112.723328381501
 30
0.0
  0
SPLINE
  5
108
330
1F
100
AcDbEntity
  8
0
  6
HIDDEN
 62
     7
370
     0
100
AcDbSpline
210
0.0
220
0.0
230
1.0
 70
     8
 71
     3
 72
    11
 73
     7
 74
     0
 42
0.00000001
 43
0.00000001
 40
0.0
 40
0.0
 40
0.0
 40
0.0
 40
0.2295581062515278
 40
0.5680183952239974
 40
0.8427490676839803
 40
1.0
 40
1.0
 40
1.0
 40
1.0
 10
145.6938390651835
 20
112.723328381501
 30
0.0
 10
145.513041623515
 20
112.8601967657968
 30
0.0
 10
145.0656765778885
 20
113.1988637868576
 30
0.0
 10
144.5721989494966
 20
113.6198134357421
 30
0.0
 10
144.2724078295681
 20
113.8798392618779
 30
0.0
 10
144.2843387832744
 20
113.8695562343136
 30
0.0
 10
144.2886819163454
 20
113.865812983088
 30
0.0
  0
SPLINE
  5
109
330
1F
100
AcDbEntity
  8
0
  6
HIDDEN
 62
     7
370
     0
100
AcDbSpline
210
0.0
220
0.0
230
1.0
 70
     8
 71
     3
 72
     9
 73
     5
 74
     0
 42
0.00000001
 43
0.00000001
 40
0.0
 40
0.0
 40
0.0
 40
0.0
 40
0.9093163305902583
 40
0.9999999999999999
 40
0.9999999999999999
 40
0.9999999999999999
 40
0.9999999999999999
 10
145.6938390651835
 20
112.723328381501
 30
0.0
 10
145.5014549930737
 20
112.5889934060806
 30
0.0
 10
145.2898849754267
 20
112.4412615652445
 30
0.0
 10
145.1430215669123
 20
112.2136706865365
 30
0.0
 10
145.1297034541262
 20
112.1930319105311
 30
0.0
  0
SPLINE
  5
10A
330
1F
100
AcDbEntity
  8
0
  6
HIDDEN
 62
     7
370
     0
100
AcDbSpline
210
0.0
220
0.0
230
1.0
 70
     8
 71
     3
 72
    10
 73
     6
 74
     0
 42
0.00000001
 43
0.00000001
 40
0.0
 40
0.0
 40
0.0
 40
0.0
 40
0.3693763507010892
 40
0.9582481988910029
 40
1.0
 40
1.0
 40
1.0
 40
1.0
 10
147.6380308190477
 20
106.4099964906497
 30
0.0
 10
147.7957632778982
 20
106.4078037443786
 30
0.0
 10
148.2049579767825
 20
106.4021152503508
 30
0.0
 10
148.6318520810815
 20
106.4637162375511
 30
0.0
 10
148.8403129799092
 20
106.572427118836
 30
0.0
 10
148.8541145840776
 20
106.5796245575918
 30
0.0
  0
SPLINE
  5
10B
330
1F
100
AcDbEntity
  8
0
  6
HIDDEN
 62
     7
370
     0
100
AcDbSpline
210
0.0
220
0.0
230
1.0
 70
     8
 71
     3
 72
     9
 73
     5
 74
     0
 42
0.00000001
 43
0.00000001
 40
0.0
 40
0.0
 40
0.0
 40
0.0
 40
0.335287780429513
 40
1.0
 40
1.0
 40
1.0
 40
1.0
 10
150.1481835762156
 20
112.4180168599857
 30
0.0
 10
150.1165257074071
 20
112.4594094142153
 30
0.0
 10
150.0221057176064
 20
112.5828632250774
 30
0.0
 10
149.8988651651812
 20
112.6672412663822
 30
0.0
 10
149.8169456640375
 20
112.723328381501
 30
0.0
  0
SPLINE
  5
10C
330
1F
100
AcDbEntity
  8
0
  6
HIDDEN
 62
     7
370
     0
100
AcDbSpline
210
0.0
220
0.0
230
1.0
 70
     8
 71
     3
 72
    12
 73
     8
 74
     0
 42
0.00000001
 43
0.00000001
 40
0.0
 40
0.0
 40
0.0
 40
0.0
 40
0.0095377136044771
 40
0.2692538648285019
 40
0.5270910663949917
 40
0.9021979455458674
 40
1.0
 40
1.0
 40
1.0
 40
1.0
 10
151.250541679014
 20
113.8906765018625
 30
0.0
 10
151.2521580939244
 20
113.89208304858
 30
0.0
 10
151.2977902003001
 20
113.9317904832388
 30
0.0
 10
151.1447091640624
 20
113.7976714760663
 30
0.0
 10
150.7776208417787
 20
113.4821265681361
 30
0.0
 10
150.2746837419085
 20
113.062766030575
 30
0.0
 10
149.8953876869779
 20
112.781497402482
 30
0.0
 10
149.8169456640375
 20
112.723328381501
 30
0.0
  0
SPLINE
  5
10D
330
1F
100
AcDbEntity
  8
0
  6
HIDDEN
 62
     7
370
     0
100
AcDbSpline
210
0.0
220
0.0
230
1.0
 70
     8
 71
     3
 72
    11
 73
     7
 74
     0
 42
0.00000001
 43
0.00000001
 40
0.0
 40
0.0
 40
0.0
 40
0.0
 40
0.2295580381685933
 40
0.5680182267596386
 40
0.8427491143218668
 40
1.0
 40
1.0
 40
1.0
 40
1.0
 10
135.693841151346
 20
112.723328381501
 30
0.0
 10
135.5130436253612
 20
112.8601967607818
 30
0.0
 10
135.0656783711026
 20
113.1988637694338
 30
0.0
 10
134.5722025572836
 20
113.6198136847157
 30
0.0
 10
134.2724056013382
 20
113.8798392059815
 30
0.0
 10
134.2843369891167
 20
113.8695562175122
 30
0.0
 10
134.2886802772177
 20
113.865812983088
 30
0.0
  0
SPLINE
  5
10E
330
1F
100
AcDbEntity
  8
0
  6
HIDDEN
 62
     7
370
     0
100
AcDbSpline
210
0.0
220
0.0
230
1.0
 70
     8
 71
     3
 72
     9
 73
     5
 74
     0
 42
0.00000001
 43
0.00000001
 40
0.0
 40
0.0
 40
0.0
 40
0.0
 40
0.9093144228494054
 40
1.0
 40
1.0
 40
1.0
 40
1.0
 10
135.693841151346
 20
112.723328381501
 30
0.0
 10
135.501461354334
 20
112.5889912061831
 30
0.0
 10
135.2898955942647
 20
112.4412566361134
 30
0.0
 10
135.1430212038609
 20
112.2136706747855
 30
0.0
 10
135.1297018149984
 20
112.1930319105311
 30
0.0
  0
SPLINE
  5
10F
330
1F
100
AcDbEntity
  8
0
  6
HIDDEN
 62
     7
370
     0
100
AcDbSpline
210
0.0
220
0.0
230
1.0
 70
     8
 71
     3
 72
    10
 73
     6
 74
     0
 42
0.00000001
 43
0.00000001
 40
0.0
 40
0.0
 40
0.0
 40
0.0
 40
0.369375352349695
 40
0.9582483117378833
 40
1.0
 40
1.0
 40
1.0
 40
1.0
 10
137.63802917992
 20
106.4099964906497
 30
0.0
 10
137.7957616030241
 20
106.4078037993674
 30
0.0
 10
138.2049573633375
 20
106.402115431949
 30
0.0
 10
138.6318532774846
 20
106.4637157663974
 30
0.0
 10
138.8403150663009
 20
106.5724271185115
 30
0.0
 10
138.8541166702402
 20
106.5796245575918
 30
0.0
  0
SPLINE
  5
110
330
1F
100
AcDbEntity
  8
0
  6
HIDDEN
 62
     7
370
     0
100
AcDbSpline
210
0.0
220
0.0
230
1.0
 70
     8
 71
     3
 72
     9
 73
     5
 74
     0
 42
0.00000001
 43
0.00000001
 40
0.0
 40
0.0
 40
0.0
 40
0.0
 40
0.335287780429513
 40
1.0
 40
1.0
 40
1.0
 40
1.0
 10
140.1481856623781
 20
112.4180168599857
 30
0.0
 10
140.1165277935697
 20
112.4594094142153
 30
0.0
 10
140.022107803769
 20
112.5828632250774
 30
0.0
 10
139.8988672513438
 20
112.6672412663822
 30
0.0
 10
139.8169477502001
 20
112.723328381501
 30
0.0
  0
SPLINE
  5
111
330
1F
100
AcDbEntity
  8
0
  6
HIDDEN
 62
     7
370
     0
100
AcDbSpline
210
0.0
220
0.0
230
1.0
 70
     8
 71
     3
 72
    12
 73
     8
 74
     0
 42
0.00000001
 43
0.00000001
 40
0.0
 40
0.0
 40
0.0
 40
0.0
 40
0.0095377136044771
 40
0.2692538648285019
 40
0.5270910663949917
 40
0.9021979455458674
 40
1.0
 40
1.0
 40
1.0
 40
1.0
 10
141.2505437651766
 20
113.8906765018625
 30
0.0
 10
141.252160180087
 20
113.89208304858
 30
0.0
 10
141.2977922864627
 20
113.9317904832388
 30
0.0
 10
141.1447112502249
 20
113.7976714760663
 30
0.0
 10
140.7776229279412
 20
113.4821265681361
 30
0.0
 10
140.2746858280711
 20
113.062766030575
 30
0.0
 10
139.8953897731405
 20
112.781497402482
 30
0.0
 10
139.8169477502001
 20
112.723328381501
 30
0.0
  0
SPLINE
  5
112
330
1F
100
AcDbEntity
  8
0
  6
HIDDEN
 62
     7
370
     0
100
AcDbSpline
210
0.0
220
0.0
230
1.0
 70
     8
 71
     3
 72
    16
 73
    12
 74
     0
 42
0.00000001
 43
0.00000001
 40
0.0
 40
0.0
 40
0.0
 40
0.0
 40
0.2499999999999994
 40
0.2499999999999994
 40
0.3749999999999994
 40
0.3749999999999994
 40
0.4999999999999993
 40
0.4999999999999993
 40
0.7499999999999997
 40
0.7499999999999997
 40
1.0
 40
1.0
 40
1.0
 40
1.0
 10
74.43407512049237
 20
93.31099463049146
 30
0.0
 10
74.27284264300792
 20
92.59660046829934
 30
0.0
 10
74.15236280336828
 20
91.94325820559065
 30
0.0
 10
74.02998228605495
 20
91.05500296378676
 30
0.0
 10
73.9990046256575
 20
90.77432242743491
 30
0.0
 10
73.95739088802955
 20
90.24528843759494
 30
0.0
 10
73.94715497509674
 20
90.00196745901648
 30
0.0
 10
73.94696657804062
 20
89.33394476850324
 30
0.0
 10
73.98711128067823
 20
88.97026385908379
 30
0.0
 10
74.15126503561781
 20
88.41037298653546
 30
0.0
 10
74.27281668602737
 20
88.22285169441832
 30
0.0
 10
74.43407512049237
 20
88.12482030173037
 30
0.0
  0
SPLINE
  5
113
330
1F
100
AcDbEntity
  8
0
  6
HIDDEN
 62
     7
370
     0
100
AcDbSpline
210
0.0
220
0.0
230
1.0
 70
     8
 71
     3
 72
    16
 73
    12
 74
     0
 42
0.00000001
 43
0.00000001
 40
0.0
 40
0.0
 40
0.0
 40
0.0
 40
0.2499999999999994
 40
0.2499999999999994
 40
0.3749999999999994
 40
0.3749999999999994
 40
0.4999999999999993
 40
0.4999999999999993
 40
0.7499999999999997
 40
0.7499999999999997
 40
1.0
 40
1.0
 40
1.0
 40
1.0
 10
74.43407512049237
 20
131.6649822117346
 30
0.0
 10
74.27284264300792
 20
131.5669665986799
 30
0.0
 10
74.15236280336829
 20
131.3802305670038
 30
0.0
 10
74.02998228605496
 20
130.9671907594449
 30
0.0
 10
73.9990046256575
 20
130.807190260212
 30
0.0
 10
73.95739088802955
 20
130.4403846091208
 30
0.0
 10
73.94715497509674
 20
130.2370474564968
 30
0.0
 10
73.94696657804062
 20
129.5697601898702
 30
0.0
 10
73.98711128067823
 20
129.0489457259821
 30
0.0
 10
74.15126503561781
 20
127.8515867105044
 30
0.0
 10
74.27281668602737
 20
127.1933170562085
 30
0.0
 10
74.43407512049237
 20
126.4788078829735
 30
0.0
  0
LINE
  5
114
330
1F
100
AcDbEntity
  8
0
  6
HIDDEN
 62
     7
370
     0
100
AcDbLine
 10
75.5553954691
 20
116.9167884846
 30
0.0
 11
75.5553954691
 21
102.8575834108
 31
0.0
  0
SPLINE
  5
115
330
1F
100
AcDbEntity
  8
0
  6
HIDDEN
 62
     7
370
     0
100
AcDbSpline
210
0.0
220
0.0
230
1.0
 70
     8
 71
     3
 72
     8
 73
     4
 74
     0
 42
0.00000001
 43
0.00000001
 40
0.0000249638557296
 40
0.0000249638557296
 40
0.0000249638557296
 40
0.0000249638557296
 40
0.0049776420541172
 40
0.0049776420541172
 40
0.0049776420541172
 40
0.0049776420541172
 10
39.25539546405202
 20
105.9296903598959
 30
0.0
 10
40.90537169856157
 20
105.8884111221277
 30
0.0
 10
42.5553730183066
 20
105.8481894408882
 30
0.0
 10
44.20539546405202
 20
105.8089402036332
 30
0.0
  0
SPLINE
  5
116
330
1F
100
AcDbEntity
  8
0
  6
HIDDEN
 62
     7
370
     0
100
AcDbSpline
210
0.0
220
0.0
230
1.0
 70
     8
 71
     3
 72
     8
 73
     4
 74
     0
 42
0.00000001
 43
0.00000001
 40
0.0000249631533153
 40
0.0000249631533153
 40
0.0000249631533153
 40
0.0000249631533153
 40
0.0049776413517028
 40
0.0049776413517028
 40
0.0049776413517028
 40
0.0049776413517028
 10
44.20539546405201
 20
113.9808623098317
 30
0.0
 10
42.55537301830659
 20
113.9416130725767
 30
0.0
 10
40.90537169856156
 20
113.9013913913372
 30
0.0
 10
39.25539546405202
 20
113.860112153569
 30
0.0
  0
SPLINE
  5
117
330
1F
100
AcDbEntity
  8
0
  6
HIDDEN
 62
     7
370
     0
100
AcDbSpline
210
0.0
220
0.0
230
1.0
 70
     8
 71
     3
 72
     8
 73
     4
 74
     0
 42
0.00000001
 43
0.00000001
 40
0.0
 40
0.0
 40
0.0
 40
0.0
 40
1.0
 40
1.0
 40
1.0
 40
1.0
 10
37.75539546405203
 20
106.9929139237501
 30
0.0
 10
38.2221560754292
 20
106.577550678128
 30
0.0
 10
38.72790362220849
 20
106.232960248824
 30
0.0
 10
39.25539546405202
 20
105.9296903598959
 30
0.0
  0
SPLINE
  5
118
330
1F
100
AcDbEntity
  8
0
  6
HIDDEN
 62
     7
370
     0
100
AcDbSpline
210
0.0
220
0.0
230
1.0
 70
     8
 71
     3
 72
     8
 73
     4
 74
     0
 42
0.00000001
 43
0.00000001
 40
0.0
 40
0.0
 40
0.0
 40
0.0
 40
1.0
 40
1.0
 40
1.0
 40
1.0
 10
39.25539546405202
 20
113.860112153569
 30
0.0
 10
38.72790362220849
 20
113.5568422646409
 30
0.0
 10
38.2221560754292
 20
113.212251835337
 30
0.0
 10
37.75539546405202
 20
112.7968885897148
 30
0.0
  0
LINE
  5
119
330
1F
100
AcDbEntity
  8
0
  6
HIDDEN
 62
     7
370
     0
100
AcDbLine
 10
44.205394111
 20
105.8089399931
 30
0.0
 11
44.205394111
 21
113.9808625204
 31
0.0
  0
SPLINE
  5
11A
330
1F
100
AcDbEntity
  8
0
  6
HIDDEN
 62
     7
370
     0
100
AcDbSpline
210
0.0
220
0.0
230
1.0
 70
     8
 71
     3
 72
    24
 73
    20
 74
     0
 42
0.00000001
 43
0.00000001
 40
0.0
 40
0.0
 40
0.0
 40
0.0
 40
0.1249999999999999
 40
0.1249999999999999
 40
0.2499999999999997
 40
0.2499999999999997
 40
0.3749999999999997
 40
0.3749999999999997
 40
0.4374999999999997
 40
0.4374999999999997
 40
0.4999999999999998
 40
0.4999999999999998
 40
0.6249999999999999
 40
0.6249999999999999
 40
0.7499999999999999
 40
0.7499999999999999
 40
0.875
 40
0.875
 40
1.0
 40
1.0
 40
1.0
 40
1.0
 10
44.20539546405202
 20
105.8089402036332
 30
0.0
 10
44.44319909632711
 20
106.1079473059634
 30
0.0
 10
44.6732847575384
 20
106.4122851572821
 30
0.0
 10
45.10803815614823
 20
107.0380186946781
 30
0.0
 10
45.31297094843439
 20
107.3592434220056
 30
0.0
 10
45.67807289893308
 20
108.0311691927383
 30
0.0
 10
45.8398732847246
 20
108.3864844246172
 30
0.0
 10
46.01173348930432
 20
108.9367156459697
 30
0.0
 10
46.05731868096445
 20
109.1231194309501
 30
0.0
 10
46.11979342053931
 20
109.5032539330464
 30
0.0
 10
46.13646456628777
 20
109.6989237253323
 30
0.0
 10
46.13698560946425
 20
110.2774041040067
 30
0.0
 10
46.07254330857756
 20
110.6553159429755
 30
0.0
 10
45.84269421520422
 20
111.3972839680739
 30
0.0
 10
45.68417353754112
 20
111.7459994282349
 30
0.0
 10
45.31993920764095
 20
112.419091825968
 30
0.0
 10
45.11320296757737
 20
112.7440443132097
 30
0.0
 10
44.675265021837
 20
113.3749681236715
 30
0.0
 10
44.44399229455743
 20
113.6808578640121
 30
0.0
 10
44.20539546405212
 20
113.9808623098316
 30
0.0
  0
SPLINE
  5
11B
330
1F
100
AcDbEntity
  8
0
  6
HIDDEN
 62
     7
370
     0
100
AcDbSpline
210
0.0
220
0.0
230
1.0
 70
     8
 71
     3
 72
    19
 73
    15
 74
     0
 42
0.00000001
 43
0.00000001
 40
0.0
 40
0.0
 40
0.0
 40
0.0
 40
0.0737825572974566
 40
0.16005456007438
 40
0.2501413105303152
 40
0.3423644242035593
 40
0.434346897480226
 40
0.52282841024173
 40
0.6051098910825604
 40
0.6821925132024842
 40
0.7583150963244203
 40
0.8377524284751746
 40
0.9227254546054744
 40
1.0
 40
1.0
 40
1.0
 40
1.0
 10
57.06655653511411
 20
112.5409127899481
 30
0.0
 10
57.36887878346177
 20
112.8195359733093
 30
0.0
 10
58.02469848167181
 20
113.4239459134476
 30
0.0
 10
59.35304219303096
 20
113.9295330395868
 30
0.0
 10
60.85998020261793
 20
114.02217283496
 30
0.0
 10
62.35118923707991
 20
113.6068439166443
 30
0.0
 10
63.60805977690749
 20
112.7237117734122
 30
0.0
 10
64.44778134815395
 20
111.499578300789
 30
0.0
 10
64.77704257827838
 20
110.135449899359
 30
0.0
 10
64.62297930726652
 20
108.8143556028994
 30
0.0
 10
64.0552558123397
 20
107.6325153123277
 30
0.0
 10
63.11701837915108
 20
106.6695613553526
 30
0.0
 10
61.92046638302581
 20
105.9998182960629
 30
0.0
 10
61.01956606589721
 20
105.9059249280365
 30
0.0
 10
60.59048930500871
 20
105.8612058159931
 30
0.0
  0
SPLINE
  5
11C
330
1F
100
AcDbEntity
  8
0
  6
HIDDEN
 62
     7
370
     0
100
AcDbSpline
210
0.0
220
0.0
230
1.0
 70
     8
 71
     3
 72
    13
 73
     9
 74
     0
 42
0.00000001
 43
0.00000001
 40
0.0
 40
0.0
 40
0.0
 40
0.0
 40
0.071014348096028
 40
0.2845446691340678
 40
0.4859797195079917
 40
0.6752848981794662
 40
0.8594837670013883
 40
1.0
 40
1.0
 40
1.0
 40
1.0
 10
57.9624925771845
 20
106.573643371187
 30
0.0
 10
57.81539841363183
 20
106.6475589122221
 30
0.0
 10
57.22601244837522
 20
106.9437282601298
 30
0.0
 10
56.51489303941521
 20
107.8764929506854
 30
0.0
 10
56.00201388923492
 20
109.1897984402377
 30
0.0
 10
56.0079978096634
 20
110.5461553197648
 30
0.0
 10
56.3965642130195
 20
111.6964943028505
 30
0.0
 10
56.86419527912665
 20
112.2858686946757
 30
0.0
 10
57.06655653511411
 20
112.5409127899481
 30
0.0
  0
CIRCLE
  5
11D
330
1F
100
AcDbEntity
  8
0
  6
HIDDEN
 62
     7
370
     0
100
AcDbCircle
 10
87.7553954641
 20
109.8949012567
 30
0.0
 40
2.0
  0
SPLINE
  5
11E
330
1F
100
AcDbEntity
  8
0
  6
HIDDEN
 62
     7
370
     0
100
AcDbSpline
210
0.0
220
0.0
230
1.0
 70
    24
 71
     1
 72
     4
 73
     2
 74
     0
 42
0.00000001
 43
0.00000001
 40
0.0
 40
0.0
 40
1.0
 40
1.0
 10
123.7553958812845
 20
117.6449011300726
 30
0.0
 10
125.0053946891916
 20
116.3949013908429
 30
0.0
  0
SPLINE
  5
11F
330
1F
100
AcDbEntity
  8
0
  6
HIDDEN
 62
     7
370
     0
100
AcDbSpline
210
0.0
220
0.0
230
1.0
 70
    24
 71
     1
 72
     4
 73
     2
 74
     0
 42
0.00000001
 43
0.00000001
 40
0.0
 40
0.0
 40
1.0
 40
1.0
 10
130.5053946593893
 20
116.3949013908429
 30
0.0
 10
131.7553971925867
 20
117.6449011300726
 30
0.0
  0
SPLINE
  5
120
330
1F
100
AcDbEntity
  8
0
  6
HIDDEN
 62
     7
370
     0
100
AcDbSpline
210
0.0
220
0.0
230
1.0
 70
    24
 71
     1
 72
     4
 73
     2
 74
     0
 42
0.00000001
 43
0.00000001
 40
0.0
 40
0.0
 40
1.0
 40
1.0
 10
123.7553958812845
 20
126.2949013371988
 30
0.0
 10
123.7553958812845
 20
117.6449011300726
 30
0.0
  0
SPLINE
  5
121
330
1F
100
AcDbEntity
  8
0
  6
HIDDEN
 62
     7
370
     0
100
AcDbSpline
210
0.0
220
0.0
230
1.0
 70
    24
 71
     1
 72
     4
 73
     2
 74
     0
 42
0.00000001
 43
0.00000001
 40
0.0
 40
0.0
 40
1.0
 40
1.0
 10
131.7553971925867
 20
117.6449011300726
 30
0.0
 10
131.7553971925867
 20
126.2949013371988
 30
0.0
  0
SPLINE
  5
122
330
1F
100
AcDbEntity
  8
0
  6
HIDDEN
 62
     7
370
     0
100
AcDbSpline
210
0.0
220
0.0
230
1.0
 70
    24
 71
     1
 72
     4
 73
     2
 74
     0
 42
0.00000001
 43
0.00000001
 40
0.0
 40
0.0
 40
1.0
 40
1.0
 10
131.7553971925867
 20
126.2949013371988
 30
0.0
 10
131.1553944865358
 20
126.8949021806045
 30
0.0
  0
SPLINE
  5
123
330
1F
100
AcDbEntity
  8
0
  6
HIDDEN
 62
     7
370
     0
100
AcDbSpline
210
0.0
220
0.0
230
1.0
 70
    24
 71
     1
 72
     4
 73
     2
 74
     0
 42
0.00000001
 43
0.00000001
 40
0.0
 40
0.0
 40
1.0
 40
1.0
 10
124.3553948620451
 20
126.8949021806045
 30
0.0
 10
123.7553958812845
 20
126.2949013371988
 30
0.0
  0
SPLINE
  5
124
330
1F
100
AcDbEntity
  8
0
  6
HIDDEN
 62
     7
370
     0
100
AcDbSpline
210
0.0
220
0.0
230
1.0
 70
    24
 71
     1
 72
     4
 73
     2
 74
     0
 42
0.00000001
 43
0.00000001
 40
0.0
 40
0.0
 40
1.0
 40
1.0
 10
129.6053943256033
 20
116.3949013908429
 30
0.0
 10
127.7553965369356
 20
117.4629993957503
 30
0.0
  0
SPLINE
  5
125
330
1F
100
AcDbEntity
  8
0
  6
HIDDEN
 62
     7
370
     0
100
AcDbSpline
210
0.0
220
0.0
230
1.0
 70
    24
 71
     1
 72
     4
 73
     2
 74
     0
 42
0.00000001
 43
0.00000001
 40
0.0
 40
0.0
 40
1.0
 40
1.0
 10
127.7553965369356
 20
117.4629993957503
 30
0.0
 10
125.9053950229777
 20
116.3949013908429
 30
0.0
  0
SPLINE
  5
126
330
1F
100
AcDbEntity
  8
0
  6
HIDDEN
 62
     7
370
     0
100
AcDbSpline
210
0.0
220
0.0
230
1.0
 70
    24
 71
     1
 72
     4
 73
     2
 74
     0
 42
0.00000001
 43
0.00000001
 40
0.0
 40
0.0
 40
1.0
 40
1.0
 10
133.755393795122
 20
126.2949013371988
 30
0.0
 10
133.755393795122
 20
117.6449011300726
 30
0.0
  0
SPLINE
  5
127
330
1F
100
AcDbEntity
  8
0
  6
HIDDEN
 62
     7
370
     0
100
AcDbSpline
210
0.0
220
0.0
230
1.0
 70
    24
 71
     1
 72
     4
 73
     2
 74
     0
 42
0.00000001
 43
0.00000001
 40
0.0
 40
0.0
 40
1.0
 40
1.0
 10
141.7553951064241
 20
117.6449011300726
 30
0.0
 10
141.7553951064241
 20
126.2949013371988
 30
0.0
  0
SPLINE
  5
128
330
1F
100
AcDbEntity
  8
0
  6
HIDDEN
 62
     7
370
     0
100
AcDbSpline
210
0.0
220
0.0
230
1.0
 70
    24
 71
     1
 72
     4
 73
     2
 74
     0
 42
0.00000001
 43
0.00000001
 40
0.0
 40
0.0
 40
1.0
 40
1.0
 10
133.755393795122
 20
117.6449011300726
 30
0.0
 10
135.0053963283194
 20
116.3949013908429
 30
0.0
  0
SPLINE
  5
129
330
1F
100
AcDbEntity
  8
0
  6
HIDDEN
 62
     7
370
     0
100
AcDbSpline
210
0.0
220
0.0
230
1.0
 70
    24
 71
     1
 72
     4
 73
     2
 74
     0
 42
0.00000001
 43
0.00000001
 40
0.0
 40
0.0
 40
1.0
 40
1.0
 10
140.505396298517
 20
116.3949013908429
 30
0.0
 10
141.7553951064241
 20
117.6449011300726
 30
0.0
  0
SPLINE
  5
12A
330
1F
100
AcDbEntity
  8
0
  6
HIDDEN
 62
     7
370
     0
100
AcDbSpline
210
0.0
220
0.0
230
1.0
 70
    24
 71
     1
 72
     4
 73
     2
 74
     0
 42
0.00000001
 43
0.00000001
 40
0.0
 40
0.0
 40
1.0
 40
1.0
 10
141.7553951064241
 20
126.2949013371988
 30
0.0
 10
141.1553924003733
 20
126.8949021806045
 30
0.0
  0
SPLINE
  5
12B
330
1F
100
AcDbEntity
  8
0
  6
HIDDEN
 62
     7
370
     0
100
AcDbSpline
210
0.0
220
0.0
230
1.0
 70
    24
 71
     1
 72
     4
 73
     2
 74
     0
 42
0.00000001
 43
0.00000001
 40
0.0
 40
0.0
 40
1.0
 40
1.0
 10
134.3553965011728
 20
126.8949021806045
 30
0.0
 10
133.755393795122
 20
126.2949013371988
 30
0.0
  0
SPLINE
  5
12C
330
1F
100
AcDbEntity
  8
0
  6
HIDDEN
 62
     7
370
     0
100
AcDbSpline
210
0.0
220
0.0
230
1.0
 70
    24
 71
     1
 72
     4
 73
     2
 74
     0
 42
0.00000001
 43
0.00000001
 40
0.0
 40
0.0
 40
1.0
 40
1.0
 10
139.605395964731
 20
116.3949013908429
 30
0.0
 10
137.7553944507731
 20
117.4629993957503
 30
0.0
  0
SPLINE
  5
12D
330
1F
100
AcDbEntity
  8
0
  6
HIDDEN
 62
     7
370
     0
100
AcDbSpline
210
0.0
220
0.0
230
1.0
 70
    24
 71
     1
 72
     4
 73
     2
 74
     0
 42
0.00000001
 43
0.00000001
 40
0.0
 40
0.0
 40
1.0
 40
1.0
 10
137.7553944507731
 20
117.4629993957503
 30
0.0
 10
135.9053966621054
 20
116.3949013908429
 30
0.0
  0
SPLINE
  5
12E
330
1F
100
AcDbEntity
  8
0
  6
HIDDEN
 62
     7
370
     0
100
AcDbSpline
210
0.0
220
0.0
230
1.0
 70
    24
 71
     1
 72
     4
 73
     2
 74
     0
 42
0.00000001
 43
0.00000001
 40
0.0
 40
0.0
 40
1.0
 40
1.0
 10
143.75539915954
 20
126.2949013371988
 30
0.0
 10
143.75539915954
 20
117.6449011300726
 30
0.0
  0
SPLINE
  5
12F
330
1F
100
AcDbEntity
  8
0
  6
HIDDEN
 62
     7
370
     0
100
AcDbSpline
210
0.0
220
0.0
230
1.0
 70
    24
 71
     1
 72
     4
 73
     2
 74
     0
 42
0.00000001
 43
0.00000001
 40
0.0
 40
0.0
 40
1.0
 40
1.0
 10
151.7553930202616
 20
117.6449011300726
 30
0.0
 10
151.7553930202616
 20
126.2949013371988
 30
0.0
  0
SPLINE
  5
130
330
1F
100
AcDbEntity
  8
0
  6
HIDDEN
 62
     7
370
     0
100
AcDbSpline
210
0.0
220
0.0
230
1.0
 70
    24
 71
     1
 72
     4
 73
     2
 74
     0
 42
0.00000001
 43
0.00000001
 40
0.0
 40
0.0
 40
1.0
 40
1.0
 10
143.75539915954
 20
117.6449011300726
 30
0.0
 10
145.0053979674471
 20
116.3949013908429
 30
0.0
  0
SPLINE
  5
131
330
1F
100
AcDbEntity
  8
0
  6
HIDDEN
 62
     7
370
     0
100
AcDbSpline
210
0.0
220
0.0
230
1.0
 70
    24
 71
     1
 72
     4
 73
     2
 74
     0
 42
0.00000001
 43
0.00000001
 40
0.0
 40
0.0
 40
1.0
 40
1.0
 10
150.5053942123545
 20
116.3949013908429
 30
0.0
 10
151.7553930202616
 20
117.6449011300726
 30
0.0
  0
SPLINE
  5
132
330
1F
100
AcDbEntity
  8
0
  6
HIDDEN
 62
     7
370
     0
100
AcDbSpline
210
0.0
220
0.0
230
1.0
 70
    24
 71
     1
 72
     4
 73
     2
 74
     0
 42
0.00000001
 43
0.00000001
 40
0.0
 40
0.0
 40
1.0
 40
1.0
 10
151.7553930202616
 20
126.2949013371988
 30
0.0
 10
151.1553977647913
 20
126.8949021806045
 30
0.0
  0
SPLINE
  5
133
330
1F
100
AcDbEntity
  8
0
  6
HIDDEN
 62
     7
370
     0
100
AcDbSpline
210
0.0
220
0.0
230
1.0
 70
    24
 71
     1
 72
     4
 73
     2
 74
     0
 42
0.00000001
 43
0.00000001
 40
0.0
 40
0.0
 40
1.0
 40
1.0
 10
144.3553944150103
 20
126.8949021806045
 30
0.0
 10
143.75539915954
 20
126.2949013371988
 30
0.0
  0
SPLINE
  5
134
330
1F
100
AcDbEntity
  8
0
  6
HIDDEN
 62
     7
370
     0
100
AcDbSpline
210
0.0
220
0.0
230
1.0
 70
    24
 71
     1
 72
     4
 73
     2
 74
     0
 42
0.00000001
 43
0.00000001
 40
0.0
 40
0.0
 40
1.0
 40
1.0
 10
149.6053938785685
 20
116.3949013908429
 30
0.0
 10
147.7553923646105
 20
117.4629993957503
 30
0.0
  0
SPLINE
  5
135
330
1F
100
AcDbEntity
  8
0
  6
HIDDEN
 62
     7
370
     0
100
AcDbSpline
210
0.0
220
0.0
230
1.0
 70
    24
 71
     1
 72
     4
 73
     2
 74
     0
 42
0.00000001
 43
0.00000001
 40
0.0
 40
0.0
 40
1.0
 40
1.0
 10
147.7553923646105
 20
117.4629993957503
 30
0.0
 10
145.9053983012331
 20
116.3949013908429
 30
0.0
  0
SPLINE
  5
136
330
1F
100
AcDbEntity
  8
0
  6
HIDDEN
 62
     7
370
     0
100
AcDbSpline
210
0.0
220
0.0
230
1.0
 70
    24
 71
     1
 72
     4
 73
     2
 74
     0
 42
0.00000001
 43
0.00000001
 40
0.0
 40
0.0
 40
1.0
 40
1.0
 10
75.75539546405203
 20
85.64490054147674
 30
0.0
 10
75.84828868447808
 20
85.73779438035919
 30
0.0
  0
SPLINE
  5
137
330
1F
100
AcDbEntity
  8
0
  6
HIDDEN
 62
     7
370
     0
100
AcDbSpline
210
0.0
220
0.0
230
1.0
 70
    24
 71
     1
 72
     4
 73
     2
 74
     0
 42
0.00000001
 43
0.00000001
 40
0.0
 40
0.0
 40
1.0
 40
1.0
 10
75.84828868447808
 20
134.0520081331058
 30
0.0
 10
75.75539546405203
 20
134.1449019719882
 30
0.0
  0
ARC
  5
138
330
1F
100
AcDbEntity
  8
0
  6
HIDDEN
 62
     7
370
     0
100
AcDbCircle
 10
75.1411819017
 20
86.4449012567
 30
0.0
 40
1.0
100
AcDbArc
 50
315.0
 51
0.0
  0
ARC
  5
139
330
1F
100
AcDbEntity
  8
0
  6
HIDDEN
 62
     7
370
     0
100
AcDbCircle
 10
75.1411819017
 20
86.4449012567
 30
0.0
 40
1.0
100
AcDbArc
 50
0.0
 51
52.1052014664
  0
ARC
  5
13A
330
1F
100
AcDbEntity
  8
0
  6
HIDDEN
 62
     7
370
     0
100
AcDbCircle
 10
75.1411819017
 20
133.3449012567
 30
0.0
 40
0.9999999999999917
100
AcDbArc
 50
351.8087250651
 51
45.0
  0
ARC
  5
13B
330
1F
100
AcDbEntity
  8
0
  6
HIDDEN
 62
     7
370
     0
100
AcDbCircle
 10
75.1411819017
 20
133.3449012567
 30
0.0
 40
1.000000000000021
100
AcDbArc
 50
307.8947985336
 51
351.8087250651
  0
LINE
  5
13C
330
1F
100
AcDbEntity
  8
0
  6
HIDDEN
 62
     7
370
     0
100
AcDbLine
 10
76.1411818999
 20
86.4449010451
 30
0.0
 11
76.1411818999
 21
133.3449014683
 31
0.0
  0
SPLINE
  5
13D
330
1F
100
AcDbEntity
  8
0
  6
HIDDEN
 62
     7
370
     0
100
AcDbSpline
210
0.0
220
0.0
230
1.0
 70
    24
 71
     1
 72
     4
 73
     2
 74
     0
 42
0.00000001
 43
0.00000001
 40
0.0
 40
0.0
 40
1.0
 40
1.0
 10
37.75539668594724
 20
93.69847152727081
 30
0.0
 10
39.28562300597554
 20
94.58195019858314
 30
0.0
  0
SPLINE
  5
13E
330
1F
100
AcDbEntity
  8
0
  6
HIDDEN
 62
     7
370
     0
100
AcDbSpline
210
0.0
220
0.0
230
1.0
 70
    24
 71
     1
 72
     4
 73
     2
 74
     0
 42
0.00000001
 43
0.00000001
 40
0.0
 40
0.0
 40
1.0
 40
1.0
 10
39.28562300597554
 20
125.2078523148818
 30
0.0
 10
37.75539668594724
 20
126.0913309861942
 30
0.0
  0
ARC
  5
13F
330
1F
100
AcDbEntity
  8
0
  6
HIDDEN
 62
     7
370
     0
100
AcDbCircle
 10
48.7571967789
 20
95.8949012567
 30
0.0
 40
2.000000000000014
100
AcDbArc
 50
270.0
 51
315.0
  0
ARC
  5
140
330
1F
100
AcDbEntity
  8
0
  6
HIDDEN
 62
     7
370
     0
100
AcDbCircle
 10
48.7571967789
 20
123.8949012567
 30
0.0
 40
2.000000000000014
100
AcDbArc
 50
45.0
 51
90.0
  0
SPLINE
  5
141
330
1F
100
AcDbEntity
  8
0
  6
HIDDEN
 62
     7
370
     0
100
AcDbSpline
210
0.0
220
0.0
230
1.0
 70
    24
 71
     1
 72
     4
 73
     2
 74
     0
 42
0.00000001
 43
0.00000001
 40
0.0
 40
0.0
 40
1.0
 40
1.0
 10
47.75539459978467
 20
93.89490049677326
 30
0.0
 10
48.75719594155675
 20
93.89490049677326
 30
0.0
  0
SPLINE
  5
142
330
1F
100
AcDbEntity
  8
0
  6
HIDDEN
 62
     7
370
     0
100
AcDbSpline
210
0.0
220
0.0
230
1.0
 70
    24
 71
     1
 72
     4
 73
     2
 74
     0
 42
0.00000001
 43
0.00000001
 40
0.0
 40
0.0
 40
1.0
 40
1.0
 10
48.75719594155675
 20
125.8949020166917
 30
0.0
 10
47.75539459978467
 20
125.8949020166917
 30
0.0
  0
ARC
  5
143
330
1F
100
AcDbEntity
  8
0
  6
HIDDEN
 62
     7
370
     0
100
AcDbCircle
 10
47.7553954641
 20
95.8949012567
 30
0.0
 40
2.000000000000014
100
AcDbArc
 50
189.9742217944
 51
270.0
  0
ARC
  5
144
330
1F
100
AcDbEntity
  8
0
  6
HIDDEN
 62
     7
370
     0
100
AcDbCircle
 10
47.7553954641
 20
123.8949012567
 30
0.0
 40
2.000000000000015
100
AcDbArc
 50
90.0
 51
170.0257782056
  0
SPLINE
  5
145
330
1F
100
AcDbEntity
  8
0
  6
HIDDEN
 62
     7
370
     0
100
AcDbSpline
210
0.0
220
0.0
230
1.0
 70
    24
 71
     1
 72
     4
 73
     2
 74
     0
 42
0.00000001
 43
0.00000001
 40
0.0
 40
0.0
 40
1.0
 40
1.0
 10
50.17141113375551
 20
94.4806874950452
 30
0.0
 10
51.58562446330911
 20
95.8949008245988
 30
0.0
  0
SPLINE
  5
146
330
1F
100
AcDbEntity
  8
0
  6
HIDDEN
 62
     7
370
     0
100
AcDbSpline
210
0.0
220
0.0
230
1.0
 70
    24
 71
     1
 72
     4
 73
     2
 74
     0
 42
0.00000001
 43
0.00000001
 40
0.0
 40
0.0
 40
1.0
 40
1.0
 10
51.58562446330911
 20
123.8949016888662
 30
0.0
 10
50.17141113375551
 20
125.3091150184198
 30
0.0
  0
SPLINE
  5
147
330
1F
100
AcDbEntity
  8
0
  6
HIDDEN
 62
     7
370
     0
100
AcDbSpline
210
0.0
220
0.0
230
1.0
 70
    24
 71
     1
 72
     4
 73
     2
 74
     0
 42
0.00000001
 43
0.00000001
 40
0.0
 40
0.0
 40
1.0
 40
1.0
 10
39.28562300597554
 20
94.58195019858314
 30
0.0
 10
44.18562399541265
 20
95.8949008245988
 30
0.0
  0
SPLINE
  5
148
330
1F
100
AcDbEntity
  8
0
  6
HIDDEN
 62
     7
370
     0
100
AcDbSpline
210
0.0
220
0.0
230
1.0
 70
    24
 71
     1
 72
     4
 73
     2
 74
     0
 42
0.00000001
 43
0.00000001
 40
0.0
 40
0.0
 40
1.0
 40
1.0
 10
44.18562399541265
 20
123.8949016888662
 30
0.0
 10
39.28562300597554
 20
125.2078523148818
 30
0.0
  0
SPLINE
  5
149
330
1F
100
AcDbEntity
  8
0
  6
HIDDEN
 62
     7
370
     0
100
AcDbSpline
210
0.0
220
0.0
230
1.0
 70
    24
 71
     1
 72
     4
 73
     2
 74
     0
 42
0.00000001
 43
0.00000001
 40
0.0
 40
0.0
 40
1.0
 40
1.0
 10
45.785623140086
 20
124.2413117771073
 30
0.0
 10
45.18562415932542
 20
123.8949016888662
 30
0.0
  0
SPLINE
  5
14A
330
1F
100
AcDbEntity
  8
0
  6
HIDDEN
 62
     7
370
     0
100
AcDbSpline
210
0.0
220
0.0
230
1.0
 70
    24
 71
     1
 72
     4
 73
     2
 74
     0
 42
0.00000001
 43
0.00000001
 40
0.0
 40
0.0
 40
1.0
 40
1.0
 10
45.18562415932542
 20
95.8949008245988
 30
0.0
 10
45.785623140086
 20
95.5484907363577
 30
0.0
  0
ARC
  5
14B
330
1F
100
AcDbEntity
  8
0
  6
HIDDEN
 62
     7
370
     0
100
AcDbCircle
 10
64.2553954641
 20
96.3949012567
 30
0.0
 40
0.5
100
AcDbArc
 50
270.0
 51
0.0
  0
ARC
  5
14C
330
1F
100
AcDbEntity
  8
0
  6
HIDDEN
 62
     7
370
     0
100
AcDbCircle
 10
64.2553954641
 20
123.3949012567
 30
0.0
 40
0.5
100
AcDbArc
 50
0.0
 51
90.0
  0
SPLINE
  5
14D
330
1F
100
AcDbEntity
  8
0
  6
HIDDEN
 62
     7
370
     0
100
AcDbSpline
210
0.0
220
0.0
230
1.0
 70
    24
 71
     1
 72
     4
 73
     2
 74
     0
 42
0.00000001
 43
0.00000001
 40
0.0
 40
0.0
 40
1.0
 40
1.0
 10
51.58562446330911
 20
95.8949008245988
 30
0.0
 10
64.25539544170029
 20
95.8949008245988
 30
0.0
  0
SPLINE
  5
14E
330
1F
100
AcDbEntity
  8
0
  6
HIDDEN
 62
     7
370
     0
100
AcDbSpline
210
0.0
220
0.0
230
1.0
 70
    24
 71
     1
 72
     4
 73
     2
 74
     0
 42
0.00000001
 43
0.00000001
 40
0.0
 40
0.0
 40
1.0
 40
1.0
 10
64.25539544170029
 20
123.8949016888662
 30
0.0
 10
51.58562446330911
 20
123.8949016888662
 30
0.0
  0
SPLINE
  5
14F
330
1F
100
AcDbEntity
  8
0
  6
HIDDEN
 62
     7
370
     0
100
AcDbSpline
210
0.0
220
0.0
230
1.0
 70
    24
 71
     1
 72
     4
 73
     2
 74
     0
 42
0.00000001
 43
0.00000001
 40
0.0
 40
0.0
 40
1.0
 40
1.0
 10
44.18562399541265
 20
95.8949008245988
 30
0.0
 10
45.18562415932542
 20
95.8949008245988
 30
0.0
  0
SPLINE
  5
150
330
1F
100
AcDbEntity
  8
0
  6
HIDDEN
 62
     7
370
     0
100
AcDbSpline
210
0.0
220
0.0
230
1.0
 70
    24
 71
     1
 72
     4
 73
     2
 74
     0
 42
0.00000001
 43
0.00000001
 40
0.0
 40
0.0
 40
1.0
 40
1.0
 10
45.18562415932542
 20
123.8949016888662
 30
0.0
 10
44.18562399541265
 20
123.8949016888662
 30
0.0
  0
SPLINE
  5
151
330
1F
100
AcDbEntity
  8
0
  6
HIDDEN
 62
     7
370
     0
100
AcDbSpline
210
0.0
220
0.0
230
1.0
 70
    24
 71
     1
 72
     4
 73
     2
 74
     0
 42
0.00000001
 43
0.00000001
 40
0.0
 40
0.0
 40
1.0
 40
1.0
 10
64.75539552365667
 20
99.64490097361042
 30
0.0
 10
66.00539526288635
 20
100.8949016441627
 30
0.0
  0
SPLINE
  5
152
330
1F
100
AcDbEntity
  8
0
  6
HIDDEN
 62
     7
370
     0
100
AcDbSpline
210
0.0
220
0.0
230
1.0
 70
    24
 71
     1
 72
     4
 73
     2
 74
     0
 42
0.00000001
 43
0.00000001
 40
0.0
 40
0.0
 40
1.0
 40
1.0
 10
66.00539526288635
 20
118.8949008693023
 30
0.0
 10
64.75539552365667
 20
120.1449015398545
 30
0.0
  0
SPLINE
  5
153
330
1F
100
AcDbEntity
  8
0
  6
HIDDEN
 62
     7
370
     0
100
AcDbSpline
210
0.0
220
0.0
230
1.0
 70
    24
 71
     1
 72
     4
 73
     2
 74
     0
 42
0.00000001
 43
0.00000001
 40
0.0
 40
0.0
 40
1.0
 40
1.0
 10
91.75539622401125
 20
100.8949016441627
 30
0.0
 10
94.15883804057962
 20
104.8949013684912
 30
0.0
  0
SPLINE
  5
154
330
1F
100
AcDbEntity
  8
0
  6
HIDDEN
 62
     7
370
     0
100
AcDbSpline
210
0.0
220
0.0
230
1.0
 70
    24
 71
     1
 72
     4
 73
     2
 74
     0
 42
0.00000001
 43
0.00000001
 40
0.0
 40
0.0
 40
1.0
 40
1.0
 10
94.15883804057962
 20
114.8949011449738
 30
0.0
 10
91.75539622401125
 20
118.8949008693023
 30
0.0
  0
SPLINE
  5
155
330
1F
100
AcDbEntity
  8
0
  6
HIDDEN
 62
     7
370
     0
100
AcDbSpline
210
0.0
220
0.0
230
1.0
 70
    24
 71
     1
 72
     4
 73
     2
 74
     0
 42
0.00000001
 43
0.00000001
 40
0.0
 40
0.0
 40
1.0
 40
1.0
 10
66.00539526288635
 20
100.8949016441627
 30
0.0
 10
91.75539622401125
 20
100.8949016441627
 30
0.0
  0
SPLINE
  5
156
330
1F
100
AcDbEntity
  8
0
  6
HIDDEN
 62
     7
370
     0
100
AcDbSpline
210
0.0
220
0.0
230
1.0
 70
    24
 71
     1
 72
     4
 73
     2
 74
     0
 42
0.00000001
 43
0.00000001
 40
0.0
 40
0.0
 40
1.0
 40
1.0
 10
91.75539622401125
 20
118.8949008693023
 30
0.0
 10
66.00539526288635
 20
118.8949008693023
 30
0.0
  0
SPLINE
  5
157
330
1F
100
AcDbEntity
  8
0
  6
HIDDEN
 62
     7
370
     0
100
AcDbSpline
210
0.0
220
0.0
230
1.0
 70
    24
 71
     1
 72
     4
 73
     2
 74
     0
 42
0.00000001
 43
0.00000001
 40
0.0
 40
0.0
 40
1.0
 40
1.0
 10
94.15883804057962
 20
104.8949013684912
 30
0.0
 10
121.755395553459
 20
104.8949013684912
 30
0.0
  0
SPLINE
  5
158
330
1F
100
AcDbEntity
  8
0
  6
HIDDEN
 62
     7
370
     0
100
AcDbSpline
210
0.0
220
0.0
230
1.0
 70
    24
 71
     1
 72
     4
 73
     2
 74
     0
 42
0.00000001
 43
0.00000001
 40
0.0
 40
0.0
 40
1.0
 40
1.0
 10
121.755395553459
 20
114.8949011449738
 30
0.0
 10
94.15883804057962
 20
114.8949011449738
 30
0.0
  0
SPLINE
  5
159
330
1F
100
AcDbEntity
  8
0
  6
HIDDEN
 62
     7
370
     0
100
AcDbSpline
210
0.0
220
0.0
230
1.0
 70
    24
 71
     1
 72
     4
 73
     2
 74
     0
 42
0.00000001
 43
0.00000001
 40
0.0
 40
0.0
 40
1.0
 40
1.0
 10
121.755395553459
 20
104.8949013684912
 30
0.0
 10
122.3562550762785
 20
105.8949010667427
 30
0.0
  0
SPLINE
  5
15A
330
1F
100
AcDbEntity
  8
0
  6
HIDDEN
 62
     7
370
     0
100
AcDbSpline
210
0.0
220
0.0
230
1.0
 70
    24
 71
     1
 72
     4
 73
     2
 74
     0
 42
0.00000001
 43
0.00000001
 40
0.0
 40
0.0
 40
1.0
 40
1.0
 10
122.3562550762785
 20
113.8949014467223
 30
0.0
 10
121.755395553459
 20
114.8949011449738
 30
0.0
  0
ARC
  5
15B
330
1F
100
AcDbEntity
  8
0
  6
HIDDEN
 62
     7
370
     0
100
AcDbCircle
 10
155.4553954641
 20
114.1949012567
 30
0.0
 40
0.3000000000000398
100
AcDbArc
 50
270.0
 51
0.0
  0
ARC
  5
15C
330
1F
100
AcDbEntity
  8
0
  6
HIDDEN
 62
     7
370
     0
100
AcDbCircle
 10
155.4553954641
 20
105.5949012567
 30
0.0
 40
0.3000000000000398
100
AcDbArc
 50
0.0
 51
90.0
  0
SPLINE
  5
15D
330
1F
100
AcDbEntity
  8
0
  6
HIDDEN
 62
     7
370
     0
100
AcDbSpline
210
0.0
220
0.0
230
1.0
 70
    24
 71
     1
 72
     4
 73
     2
 74
     0
 42
0.00000001
 43
0.00000001
 40
0.0
 40
0.0
 40
1.0
 40
1.0
 10
124.28867863809
 20
113.8949014467223
 30
0.0
 10
122.3562550762785
 20
113.8949014467223
 30
0.0
  0
SPLINE
  5
15E
330
1F
100
AcDbEntity
  8
0
  6
HIDDEN
 62
     7
370
     0
100
AcDbSpline
210
0.0
220
0.0
230
1.0
 70
    24
 71
     1
 72
     4
 73
     2
 74
     0
 42
0.00000001
 43
0.00000001
 40
0.0
 40
0.0
 40
1.0
 40
1.0
 10
134.2886802772177
 20
113.8949014467223
 30
0.0
 10
131.2505421260489
 20
113.8949014467223
 30
0.0
  0
SPLINE
  5
15F
330
1F
100
AcDbEntity
  8
0
  6
HIDDEN
 62
     7
370
     0
100
AcDbSpline
210
0.0
220
0.0
230
1.0
 70
    24
 71
     1
 72
     4
 73
     2
 74
     0
 42
0.00000001
 43
0.00000001
 40
0.0
 40
0.0
 40
1.0
 40
1.0
 10
144.2886819163454
 20
113.8949014467223
 30
0.0
 10
141.2505437651766
 20
113.8949014467223
 30
0.0
  0
SPLINE
  5
160
330
1F
100
AcDbEntity
  8
0
  6
HIDDEN
 62
     7
370
     0
100
AcDbSpline
210
0.0
220
0.0
230
1.0
 70
    24
 71
     1
 72
     4
 73
     2
 74
     0
 42
0.00000001
 43
0.00000001
 40
0.0
 40
0.0
 40
1.0
 40
1.0
 10
155.4553960481775
 20
113.8949014467223
 30
0.0
 10
151.250541679014
 20
113.8949014467223
 30
0.0
  0
SPLINE
  5
161
330
1F
100
AcDbEntity
  8
0
  6
HIDDEN
 62
     7
370
     0
100
AcDbSpline
210
0.0
220
0.0
230
1.0
 70
    24
 71
     1
 72
     4
 73
     2
 74
     0
 42
0.00000001
 43
0.00000001
 40
0.0
 40
0.0
 40
1.0
 40
1.0
 10
122.3562550762785
 20
105.8949010667427
 30
0.0
 10
155.4553960481775
 20
105.8949010667427
 30
0.0
  0
SPLINE
  5
162
330
1F
100
AcDbEntity
  8
0
  6
HIDDEN
 62
     7
370
     0
100
AcDbSpline
210
0.0
220
0.0
230
1.0
 70
    24
 71
     1
 72
     4
 73
     2
 74
     0
 42
0.00000001
 43
0.00000001
 40
0.0
 40
0.0
 40
1.0
 40
1.0
 10
124.2553968945635
 20
126.8949021806045
 30
0.0
 10
124.2553968945635
 20
113.8658157770558
 30
0.0
  0
SPLINE
  5
163
330
1F
100
AcDbEntity
  8
0
  6
HIDDEN
 62
     7
370
     0
100
AcDbSpline
210
0.0
220
0.0
230
1.0
 70
    24
 71
     1
 72
     4
 73
     2
 74
     0
 42
0.00000001
 43
0.00000001
 40
0.0
 40
0.0
 40
1.0
 40
1.0
 10
131.2553961793078
 20
113.8906969909592
 30
0.0
 10
131.2553961793078
 20
126.8949021806045
 30
0.0
  0
SPLINE
  5
164
330
1F
100
AcDbEntity
  8
0
  6
HIDDEN
 62
     7
370
     0
100
AcDbSpline
210
0.0
220
0.0
230
1.0
 70
    24
 71
     1
 72
     4
 73
     2
 74
     0
 42
0.00000001
 43
0.00000001
 40
0.0
 40
0.0
 40
1.0
 40
1.0
 10
144.2553927222384
 20
126.8949021806045
 30
0.0
 10
144.2553927222384
 20
113.8658157770558
 30
0.0
  0
SPLINE
  5
165
330
1F
100
AcDbEntity
  8
0
  6
HIDDEN
 62
     7
370
     0
100
AcDbSpline
210
0.0
220
0.0
230
1.0
 70
    24
 71
     1
 72
     4
 73
     2
 74
     0
 42
0.00000001
 43
0.00000001
 40
0.0
 40
0.0
 40
1.0
 40
1.0
 10
151.2553920069826
 20
113.8906969909592
 30
0.0
 10
151.2553920069826
 20
126.8949021806045
 30
0.0
  0
SPLINE
  5
166
330
1F
100
AcDbEntity
  8
0
  6
HIDDEN
 62
     7
370
     0
100
AcDbSpline
210
0.0
220
0.0
230
1.0
 70
    24
 71
     1
 72
     4
 73
     2
 74
     0
 42
0.00000001
 43
0.00000001
 40
0.0
 40
0.0
 40
1.0
 40
1.0
 10
134.2553948084009
 20
126.8949021806045
 30
0.0
 10
134.2553948084009
 20
113.8658157770558
 30
0.0
  0
SPLINE
  5
167
330
1F
100
AcDbEntity
  8
0
  6
HIDDEN
 62
     7
370
     0
100
AcDbSpline
210
0.0
220
0.0
230
1.0
 70
    24
 71
     1
 72
     4
 73
     2
 74
     0
 42
0.00000001
 43
0.00000001
 40
0.0
 40
0.0
 40
1.0
 40
1.0
 10
141.2553940931452
 20
113.8906969909592
 30
0.0
 10
141.2553940931452
 20
126.8949021806045
 30
0.0
  0
DIMENSION
  5
168
330
1F
100
AcDbEntity
  8
VERMASSUNG
100
AcDbDimension
  2
*D1
 10
155.7553954641
 20
144.9366182432
 30
0.0
 11
126.7553954641
 21
144.9366182432
 31
0.0
 70
   160
 71
     2
 42
-1.0
  3
SLDDIMSTYLE0
100
AcDbAlignedDimension
 13
97.7553954641
 23
141.3949012567
 33
0.0
 14
155.7553954641
 24
125.8949012567
 34
0.0
100
AcDbRotatedDimension
  0
DIMENSION
  5
173
330
1F
100
AcDbEntity
  8
VERMASSUNG
100
AcDbDimension
  2
*D2
 10
75.7553954641
 20
150.9366182432
 30
0.0
 11
115.7553954641
 21
150.9366182432
 31
0.0
 70
   160
 71
     2
 42
-1.0
  3
SLDDIMSTYLE0
100
AcDbAlignedDimension
 13
155.7553954641
 23
125.8949012567
 33
0.0
 14
75.7553954641
 24
141.0949012567
 34
0.0
100
AcDbRotatedDimension
  0
DIMENSION
  5
17D
330
1F
100
AcDbEntity
  8
VERMASSUNG
100
AcDbDimension
  2
*D3
 10
37.7553954641
 20
156.9366182432
 30
0.0
 11
96.7553954641
 21
156.9366182432
 31
0.0
 70
   160
 71
     2
 42
-1.0
  3
SLDDIMSTYLE0
100
AcDbAlignedDimension
 13
155.7553954641
 23
125.8949012567
 33
0.0
 14
37.7553954641
 24
130.1872392492
 34
0.0
100
AcDbRotatedDimension
  0
DIMENSION
  5
187
330
1F
100
AcDbEntity
  8
VERMASSUNG
100
AcDbDimension
  2
*D4
 10
155.7553954641
 20
83.2786748858
 30
0.0
 11
151.7553954641
 21
83.2786748858
 31
0.0
 70
   160
 71
     2
 42
-1.0
  3
SLDDIMSTYLE0
100
AcDbAlignedDimension
 13
147.7553954641
 23
110.7233283815
 33
0.0
 14
155.7553954641
 24
93.8949012567
 34
0.0
100
AcDbRotatedDimension
  0
DIMENSION
  5
191
330
1F
100
AcDbEntity
  8
VERMASSUNG
100
AcDbDimension
  2
*D5
 10
137.7553954641
 20
83.2786748858
 30
0.0
 11
142.7553954641
 21
83.2786748858
 31
0.0
 70
   160
 71
     2
 42
-1.0
  3
SLDDIMSTYLE0
100
AcDbAlignedDimension
 13
147.7553954641
 23
110.7233283815
 33
0.0
 14
137.7553954641
 24
110.7233283815
 34
0.0
100
AcDbRotatedDimension
  0
DIMENSION
  5
19B
330
1F
100
AcDbEntity
  8
VERMASSUNG
100
AcDbDimension
  2
*D6
 10
127.7553954641
 20
83.2786748858
 30
0.0
 11
132.7553954641
 21
83.2786748858
 31
0.0
 70
   160
 71
     2
 42
-1.0
  3
SLDDIMSTYLE0
100
AcDbAlignedDimension
 13
137.7553954641
 23
110.7233283815
 33
0.0
 14
127.7553954641
 24
110.7233283815
 34
0.0
100
AcDbRotatedDimension
  0
DIMENSION
  5
1A5
330
1F
100
AcDbEntity
  8
VERMASSUNG
100
AcDbDimension
  2
*D7
 10
162.1172484753
 20
105.8949012567
 30
0.0
 11
162.1172484753
 21
109.8949012567
 31
0.0
 70
   160
  1
%%c<>
 71
     2
 42
-1.0
  3
SLDDIMSTYLE0
100
AcDbAlignedDimension
 13
155.4553954641
 23
113.8949012567
 33
0.0
 14
155.4553954641
 24
105.8949012567
 34
0.0
 50
90.0
100
AcDbRotatedDimension
  0
DIMENSION
  5
1B0
330
1F
100
AcDbEntity
  8
VERMASSUNG
100
AcDbDimension
  2
*D8
 10
170.2277323649
 20
92.8949012567
 30
0.0
 11
170.2277323649
 21
109.8949012567
 31
0.0
 70
   160
  1
%%c<>
 71
     2
 42
-1.0
  3
SLDDIMSTYLE0
100
AcDbAlignedDimension
 13
154.7553954641
 23
126.8949012567
 33
0.0
 14
154.7553954641
 24
92.8949012567
 34
0.0
 50
90.0
100
AcDbRotatedDimension
  0
DIMENSION
  5
1BB
330
1F
100
AcDbEntity
  8
VERMASSUNG
100
AcDbDimension
  2
*D9
 10
26.5233529924
 20
78.3949012567
 30
0.0
 11
26.5233529924
 21
109.8949012567
 31
0.0
 70
   160
  1
PSC%%c<>
 71
     2
 42
-1.0
  3
SLDDIMSTYLE0
100
AcDbAlignedDimension
 13
76.0553954641
 23
141.3949012567
 33
0.0
 14
76.0553954641
 24
78.3949012567
 34
0.0
 50
90.0
100
AcDbRotatedDimension
  0
DIMENSION
  5
1C7
330
1F
100
AcDbEntity
  8
VERMASSUNG
100
AcDbDimension
  2
*D10
 10
32.5233529924
 20
114.8949012567
 30
0.0
 11
32.5233529924
 21
109.8949012567
 31
0.0
 70
   160
  1
%%c<> min.  
 71
     2
 42
-1.0
  3
SLDDIMSTYLE1
100
AcDbAlignedDimension
 13
94.1588379402
 23
104.8949012567
 33
0.0
 14
94.1588379402
 24
114.8949012567
 34
0.0
 50
90.0
100
AcDbRotatedDimension
  0
DIMENSION
  5
1D5
330
1F
100
AcDbEntity
  8
VERMASSUNG
100
AcDbDimension
  2
*D11
 10
121.7553954641
 20
68.3949012567
 30
0.0
 11
79.7553954641
 21
68.3949012567
 31
0.0
 70
   160
 71
     2
 42
-1.0
  3
SLDDIMSTYLE0
100
AcDbAlignedDimension
 13
37.7553954641
 23
89.6025632642
 33
0.0
 14
121.7553954641
 24
104.8949012567
 34
0.0
100
AcDbRotatedDimension
  0
LINE
  5
1DF
330
1F
100
AcDbEntity
  8
VERMASSUNG
  6
CENTERX2
370
     0
100
AcDbLine
 10
157.2762858325
 20
109.8949012567
 30
0.0
 11
35.7553954641
 21
109.8949012567
 31
0.0
  0
LINE
  5
1E0
330
1F
100
AcDbEntity
  8
VERMASSUNG
  6
CENTERX2
370
     0
100
AcDbLine
 10
147.7553954641
 20
110.7233283815
 30
0.0
 11
147.7553954641
 21
128.5307060781
 31
0.0
  0
LINE
  5
1E1
330
1F
100
AcDbEntity
  8
VERMASSUNG
  6
CENTERX2
370
     0
100
AcDbLine
 10
137.7553954641
 20
110.7233283815
 30
0.0
 11
137.7553954641
 21
128.5307060781
 31
0.0
  0
LINE
  5
1E2
330
1F
100
AcDbEntity
  8
VERMASSUNG
  6
CENTERX2
370
     0
100
AcDbLine
 10
127.7553954641
 20
110.7233283815
 30
0.0
 11
127.7553954641
 21
128.5307060781
 31
0.0
  0
ARC
  5
1E3
330
1F
100
AcDbEntity
  8
0
  6
Continuous
 62
     7
370
    15
100
AcDbCircle
 10
238.3838125446
 20
109.8949012567
 30
0.0
 40
29.3420802536927
100
AcDbArc
 50
150.0
 51
174.3240597885
  0
SPLINE
  5
1E4
330
1F
100
AcDbEntity
  8
0
  6
Continuous
 62
     7
370
    15
100
AcDbSpline
210
0.0
220
0.0
230
1.0
 70
     8
 71
     3
 72
     8
 73
     4
 74
     0
 42
0.00000001
 43
0.00000001
 40
0.0
 40
0.0
 40
0.0
 40
0.0
 40
1.0
 40
1.0
 40
1.0
 40
1.0
 10
208.4370806702528
 20
113.860112153569
 30
0.0
 10
208.7041307023348
 20
113.5568422646409
 30
0.0
 10
208.9560614774258
 20
113.212251835337
 30
0.0
 10
209.1855909698095
 20
112.7968885897148
 30
0.0
  0
ARC
  5
1E5
330
1F
100
AcDbEntity
  8
0
  6
Continuous
 62
     7
370
    15
100
AcDbCircle
 10
238.3838125446
 20
109.8949012567
 30
0.0
 40
30.20810565747714
100
AcDbArc
 50
150.0
 51
172.457409384
  0
ARC
  5
1E6
330
1F
100
AcDbEntity
  8
0
  6
Continuous
 62
     7
370
    15
100
AcDbCircle
 10
238.3838125446
 20
109.8949012567
 30
0.0
 40
30.20810565747713
100
AcDbArc
 50
187.542590616
 51
210.0
  0
SPLINE
  5
1E7
330
1F
100
AcDbEntity
  8
0
  6
Continuous
 62
     7
370
    15
100
AcDbSpline
210
0.0
220
0.0
230
1.0
 70
     8
 71
     3
 72
     8
 73
     4
 74
     0
 42
0.00000001
 43
0.00000001
 40
0.0
 40
0.0
 40
0.0
 40
0.0
 40
1.0
 40
1.0
 40
1.0
 40
1.0
 10
209.1855909698095
 20
106.9929139237501
 30
0.0
 10
208.9560614774258
 20
106.577550678128
 30
0.0
 10
208.7041307023348
 20
106.232960248824
 30
0.0
 10
208.4370806702528
 20
105.9296903598959
 30
0.0
  0
ARC
  5
1E8
330
1F
100
AcDbEntity
  8
0
  6
Continuous
 62
     7
370
    15
100
AcDbCircle
 10
238.3838125446
 20
109.8949012567
 30
0.0
 40
29.3420802536927
100
AcDbArc
 50
185.6759402115
 51
210.0
  0
ARC
  5
1E9
330
1F
100
AcDbEntity
  8
0
  6
Continuous
 62
     7
370
    15
100
AcDbCircle
 10
222.7091991529
 20
118.9446435179
 30
0.0
 40
11.24259573130699
100
AcDbArc
 50
90.0
 51
150.0
  0
ARC
  5
1EA
330
1F
100
AcDbEntity
  8
0
  6
Continuous
 62
     7
370
    15
100
AcDbCircle
 10
222.7091991529
 20
100.8451589955
 30
0.0
 40
29.34208025369269
100
AcDbArc
 50
30.0
 51
90.0
  0
ARC
  5
1EB
330
1F
100
AcDbEntity
  8
0
  6
Continuous
 62
     7
370
    15
100
AcDbCircle
 10
238.3838125446
 20
109.8949012567
 30
0.0
 40
11.24259573130696
100
AcDbArc
 50
330.0
 51
30.0
  0
ARC
  5
1EC
330
1F
100
AcDbEntity
  8
0
  6
Continuous
 62
     7
370
    15
100
AcDbCircle
 10
222.7091991529
 20
118.9446435179
 30
0.0
 40
29.34208025369269
100
AcDbArc
 50
270.0
 51
330.0
  0
ARC
  5
1ED
330
1F
100
AcDbEntity
  8
0
  6
Continuous
 62
     7
370
    15
100
AcDbCircle
 10
222.7091991529
 20
100.8451589955
 30
0.0
 40
11.24259573130699
100
AcDbArc
 50
210.0
 51
270.0
  0
CIRCLE
  5
1EE
330
1F
100
AcDbEntity
  8
0
  6
Continuous
 62
     7
370
    15
100
AcDbCircle
 10
227.9340702835
 20
109.8949012567
 30
0.0
 40
16.19642884446071
  0
ARC
  5
1EF
330
1F
100
AcDbEntity
  8
0
  6
Continuous
 62
     7
370
    15
100
AcDbCircle
 10
203.9340702835
 20
109.8949012567
 30
0.0
 40
5.999999999999988
100
AcDbArc
 50
331.0749852843
 51
28.9250147157
  0
CIRCLE
  5
1F0
330
1F
100
AcDbEntity
  8
0
  6
Continuous
 62
     7
370
    15
100
AcDbCircle
 10
227.9340702835
 20
109.8949012567
 30
0.0
 40
15.31295104291249
  0
ARC
  5
1F1
330
1F
100
AcDbEntity
  8
0
  6
Continuous
 62
     7
370
    15
100
AcDbCircle
 10
222.7091991529
 20
118.9446435179
 30
0.0
 40
12.10862113509143
100
AcDbArc
 50
90.0
 51
150.0
  0
ARC
  5
1F2
330
1F
100
AcDbEntity
  8
0
  6
Continuous
 62
     7
370
    15
100
AcDbCircle
 10
222.7091991529
 20
100.8451589955
 30
0.0
 40
12.10862113509143
100
AcDbArc
 50
210.0
 51
270.0
  0
ARC
  5
1F3
330
1F
100
AcDbEntity
  8
0
  6
Continuous
 62
     7
370
    15
100
AcDbCircle
 10
222.7091991529
 20
118.9446435179
 30
0.0
 40
30.20810565747712
100
AcDbArc
 50
270.0
 51
330.0
  0
ARC
  5
1F4
330
1F
100
AcDbEntity
  8
0
  6
Continuous
 62
     7
370
    15
100
AcDbCircle
 10
222.7091991529
 20
100.8451589955
 30
0.0
 40
30.20810565747713
100
AcDbArc
 50
30.0
 51
90.0
  0
ARC
  5
1F5
330
1F
100
AcDbEntity
  8
0
  6
Continuous
 62
     7
370
    15
100
AcDbCircle
 10
238.3838125446
 20
109.8949012567
 30
0.0
 40
12.1086211350914
100
AcDbArc
 50
330.0
 51
30.0
  0
ARC
  5
1F6
330
1F
100
AcDbEntity
  8
0
  6
Continuous
 62
     7
370
    15
100
AcDbCircle
 10
238.3838125446
 20
109.8949012567
 30
0.0
 40
31.06984104575923
100
AcDbArc
 50
150.0
 51
210.0
  0
SPLINE
  5
1F7
330
1F
100
AcDbEntity
  8
0
  6
Continuous
 62
     7
370
    15
100
AcDbSpline
210
0.0
220
0.0
230
1.0
 70
     8
 71
     3
 72
    24
 73
    20
 74
     0
 42
0.00000001
 43
0.00000001
 40
0.0
 40
0.0
 40
0.0
 40
0.0
 40
0.1249999999999999
 40
0.1249999999999999
 40
0.2499999999999997
 40
0.2499999999999997
 40
0.3749999999999997
 40
0.3749999999999997
 40
0.4374999999999997
 40
0.4374999999999997
 40
0.4999999999999998
 40
0.4999999999999998
 40
0.6249999999999999
 40
0.6249999999999999
 40
0.7499999999999999
 40
0.7499999999999999
 40
0.875
 40
0.875
 40
1.0
 40
1.0
 40
1.0
 40
1.0
 10
208.3278069929718
 20
105.8089402036332
 30
0.0
 10
208.2811290892901
 20
106.1079473059634
 30
0.0
 10
208.2384561231112
 20
106.4122851572821
 30
0.0
 10
208.1617619745237
 20
107.0380186946781
 30
0.0
 10
208.1277135931417
 20
107.3592434220056
 30
0.0
 10
208.0697128725759
 20
108.0311691927383
 30
0.0
 10
208.045538522128
 20
108.3864844246172
 30
0.0
 10
208.020524519523
 20
108.9367156459697
 30
0.0
 10
208.0140290061987
 20
109.1231194309501
 30
0.0
 10
208.0051789530086
 20
109.5032539330464
 30
0.0
 10
208.0028506413082
 20
109.6989237253323
 30
0.0
 10
208.0027775580908
 20
110.2774041040067
 30
0.0
 10
208.0116844599447
 20
110.6553159429755
 30
0.0
 10
208.0451175105876
 20
111.3972839680739
 30
0.0
 10
208.0687788563213
 20
111.7459994282349
 30
0.0
 10
208.1265727006039
 20
112.419091825968
 30
0.0
 10
208.1608737369441
 20
112.7440443132097
 30
0.0
 10
208.2380842796094
 20
113.3749681236715
 30
0.0
 10
208.2809733943151
 20
113.6808578640121
 30
0.0
 10
208.3278069929718
 20
113.9808623098316
 30
0.0
  0
SPLINE
  5
1F8
330
1F
100
AcDbEntity
  8
0
  6
Continuous
 62
     7
370
    15
100
AcDbSpline
210
0.0
220
0.0
230
1.0
 70
     8
 71
     3
 72
    72
 73
    68
 74
     0
 42
0.00000001
 43
0.00000001
 40
-0.03125
 40
-0.03125
 40
0.0
 40
0.0
 40
0.0312499999999998
 40
0.0312499999999998
 40
0.0624999999999996
 40
0.0624999999999996
 40
0.0937499999999995
 40
0.0937499999999995
 40
0.1249999999999993
 40
0.1249999999999993
 40
0.1562499999999993
 40
0.1562499999999993
 40
0.1874999999999993
 40
0.1874999999999993
 40
0.2187499999999992
 40
0.2187499999999992
 40
0.2499999999999992
 40
0.2499999999999992
 40
0.2812499999999992
 40
0.2812499999999992
 40
0.3124999999999992
 40
0.3124999999999992
 40
0.3437499999999992
 40
0.3437499999999992
 40
0.3749999999999992
 40
0.3749999999999992
 40
0.3906249999999992
 40
0.3906249999999992
 40
0.4062499999999992
 40
0.4062499999999992
 40
0.4374999999999992
 40
0.4374999999999992
 40
0.4687499999999993
 40
0.4687499999999993
 40
0.4999999999999993
 40
0.4999999999999993
 40
0.5312499999999993
 40
0.5312499999999993
 40
0.5624999999999994
 40
0.5624999999999994
 40
0.5937499999999994
 40
0.5937499999999994
 40
0.6249999999999994
 40
0.6249999999999994
 40
0.6562499999999996
 40
0.6562499999999996
 40
0.6874999999999996
 40
0.6874999999999996
 40
0.7187499999999997
 40
0.7187499999999997
 40
0.7499999999999997
 40
0.7499999999999997
 40
0.7812499999999997
 40
0.7812499999999997
 40
0.8124999999999998
 40
0.8124999999999998
 40
0.8437499999999998
 40
0.8437499999999998
 40
0.8749999999999998
 40
0.8749999999999998
 40
0.9062499999999999
 40
0.9062499999999999
 40
0.9374999999999999
 40
0.9374999999999999
 40
0.96875
 40
0.96875
 40
1.0
 40
1.0
 40
1.03125
 40
1.03125
 10
207.8295811713751
 20
112.3357349065473
 30
0.0
 10
207.8556911480453
 20
112.7460907070325
 30
0.0
 10
207.8684814315896
 20
112.929739789691
 30
0.0
 10
207.8915752088266
 20
113.2566946931863
 30
0.0
 10
207.9019103046516
 20
113.4004729013661
 30
0.0
 10
207.9176194224868
 20
113.637990256812
 30
0.0
 10
207.9231146671078
 20
113.7333098217098
 30
0.0
 10
207.9281037548699
 20
113.8773953543442
 30
0.0
 10
207.9275095712009
 20
113.9251313613138
 30
0.0
 10
207.9197255309778
 20
113.9707135018477
 30
0.0
 10
207.9125695126748
 20
113.9692797417754
 30
0.0
 10
207.8915536402964
 20
113.9163664336846
 30
0.0
 10
207.8779370889133
 20
113.8653967074804
 30
0.0
 10
207.8456377749895
 20
113.7167900805368
 30
0.0
 10
207.8268208409146
 20
113.6185047097797
 30
0.0
 10
207.7855068354012
 20
113.374251350594
 30
0.0
 10
207.7634911383644
 20
113.2311712195718
 30
0.0
 10
207.7185283064861
 20
112.9033126691029
 30
0.0
 10
207.6953347333613
 20
112.7163190314027
 30
0.0
 10
207.6511692696648
 20
112.3068884115797
 30
0.0
 10
207.6303983608053
 20
112.0867829705952
 30
0.0
 10
207.5934344846154
 20
111.6150328891572
 30
0.0
 10
207.5771227576857
 20
111.360016362716
 30
0.0
 10
207.5523947320874
 20
110.838778539319
 30
0.0
 10
207.5437790588254
 20
110.571294421538
 30
0.0
 10
207.5373112601759
 20
110.1593787622056
 30
0.0
 10
207.5362461049447
 20
110.0196714591301
 30
0.0
 10
207.536389398887
 20
109.7435484036676
 30
0.0
 10
207.5375762477515
 20
109.6063718373369
 30
0.0
 10
207.5443664569342
 20
109.1974383960736
 30
0.0
 10
207.553341013976
 20
108.9255121470694
 30
0.0
 10
207.5787173986198
 20
108.4023316306143
 30
0.0
 10
207.5948832114687
 20
108.1536196302509
 30
0.0
 10
207.6323729910758
 20
107.6807351052589
 30
0.0
 10
207.6537378396259
 20
107.4571258880268
 30
0.0
 10
207.6978409910928
 20
107.0524684998392
 30
0.0
 10
207.7208780337947
 20
106.8680549116696
 30
0.0
 10
207.7663797354032
 20
106.5390288767753
 30
0.0
 10
207.7883326476915
 20
106.397860800787
 30
0.0
 10
207.8290128781563
 20
106.1594512720066
 30
0.0
 10
207.8478908444312
 20
106.0616687156017
 30
0.0
 10
207.8799324784364
 20
105.9163406874115
 30
0.0
 10
207.8931822658465
 20
105.8680512972166
 30
0.0
 10
207.9134994016111
 20
105.8196360734299
 30
0.0
 10
207.9205336797738
 20
105.8200942590659
 30
0.0
 10
207.9277312465569
 20
105.8702461146681
 30
0.0
 10
207.928025257456
 20
105.9194196817001
 30
0.0
 10
207.922562091154
 20
106.0670942050071
 30
0.0
 10
207.9167296616686
 20
106.1662493693727
 30
0.0
 10
207.9006496411254
 20
106.4072621398494
 30
0.0
 10
207.8903838810306
 20
106.5497502644742
 30
0.0
 10
207.8670034703045
 20
106.8812376934591
 30
0.0
 10
207.8540229887653
 20
107.0686713214475
 30
0.0
 10
207.8283024150709
 20
107.4755750404979
 30
0.0
 10
207.8154309641249
 20
107.6967541151669
 30
0.0
 10
207.7917822067408
 20
108.1765014443822
 30
0.0
 10
207.7814466886728
 20
108.4265134111925
 30
0.0
 10
207.7652565901474
 20
108.9465886212129
 30
0.0
 10
207.7593772622439
 20
109.2203200858426
 30
0.0
 10
207.7536618689512
 20
109.7689377357411
 30
0.0
 10
207.7537418332089
 20
110.0432775996327
 30
0.0
 10
207.7597786920943
 20
110.5920195507717
 30
0.0
 10
207.7658003496432
 20
110.8650848646288
 30
0.0
 10
207.7822794954245
 20
111.3852501133972
 30
0.0
 10
207.7928608862909
 20
111.6375692469561
 30
0.0
 10
207.8165917757053
 20
112.1139735883631
 30
0.0
 10
207.8295811713751
 20
112.3357349065473
 30
0.0
 10
207.8556911480453
 20
112.7460907070325
 30
0.0
  0
SPLINE
  5
1F9
330
1F
100
AcDbEntity
  8
0
  6
Continuous
 62
     7
370
    15
100
AcDbSpline
210
0.0
220
0.0
230
1.0
 70
     8
 71
     3
 72
     8
 73
     4
 74
     0
 42
0.00000001
 43
0.00000001
 40
0.0000249631533153
 40
0.0000249631533153
 40
0.0000249631533153
 40
0.0000249631533153
 40
0.0049776413517028
 40
0.0049776413517028
 40
0.0049776413517028
 40
0.0049776413517028
 10
208.3278069929718
 20
113.9808623098317
 30
0.0
 10
208.3643068711827
 20
113.9416130725767
 30
0.0
 10
208.4007314573148
 20
113.9013913913372
 30
0.0
 10
208.4370806702528
 20
113.860112153569
 30
0.0
  0
SPLINE
  5
1FA
330
1F
100
AcDbEntity
  8
0
  6
Continuous
 62
     7
370
    15
100
AcDbSpline
210
0.0
220
0.0
230
1.0
 70
     8
 71
     3
 72
     8
 73
     4
 74
     0
 42
0.00000001
 43
0.00000001
 40
0.0000249638557296
 40
0.0000249638557296
 40
0.0000249638557296
 40
0.0000249638557296
 40
0.0049776420541172
 40
0.0049776420541172
 40
0.0049776420541172
 40
0.0049776420541172
 10
208.4370806702528
 20
105.9296903598959
 30
0.0
 10
208.4007314573148
 20
105.8884111221277
 30
0.0
 10
208.3643068711827
 20
105.8481894408882
 30
0.0
 10
208.3278069929718
 20
105.8089402036332
 30
0.0
  0
ARC
  5
1FB
330
1F
100
AcDbEntity
  8
0
  6
Continuous
 62
     7
370
    15
100
AcDbCircle
 10
222.7091991529
 20
118.9446435179
 30
0.0
 40
12.9703565233735
100
AcDbArc
 50
90.0
 51
150.0
  0
ARC
  5
1FC
330
1F
100
AcDbEntity
  8
0
  6
Continuous
 62
     7
370
    15
100
AcDbCircle
 10
222.7091991529
 20
100.8451589955
 30
0.0
 40
12.97035652337349
100
AcDbArc
 50
210.0
 51
270.0
  0
ARC
  5
1FD
330
1F
100
AcDbEntity
  8
0
  6
Continuous
 62
     7
370
    15
100
AcDbCircle
 10
222.7091991529
 20
100.8451589955
 30
0.0
 40
31.06984104575922
100
AcDbArc
 50
30.0
 51
90.0
  0
ARC
  5
1FE
330
1F
100
AcDbEntity
  8
0
  6
Continuous
 62
     7
370
    15
100
AcDbCircle
 10
222.7091991529
 20
118.9446435179
 30
0.0
 40
31.06984104575921
100
AcDbArc
 50
270.0
 51
330.0
  0
ARC
  5
1FF
330
1F
100
AcDbEntity
  8
0
  6
Continuous
 62
     7
370
    15
100
AcDbCircle
 10
238.3838125446
 20
109.8949012567
 30
0.0
 40
12.97035652337349
100
AcDbArc
 50
330.0
 51
30.0
  0
CIRCLE
  5
200
330
1F
100
AcDbEntity
  8
0
  6
Continuous
 62
     7
370
    15
100
AcDbCircle
 10
227.9340702835
 20
109.8949012567
 30
0.0
 40
14.0
  0
SPLINE
  5
201
330
1F
100
AcDbEntity
  8
0
  6
Continuous
 62
     7
370
    15
100
AcDbSpline
210
0.0
220
0.0
230
1.0
 70
    24
 71
     1
 72
     4
 73
     2
 74
     0
 42
0.00000001
 43
0.00000001
 40
0.0
 40
0.0
 40
1.0
 40
1.0
 10
213.9424210092856
 20
109.5743033319715
 30
0.0
 10
213.9484526710646
 20
109.26047237971
 30
0.0
  0
SPLINE
  5
202
330
1F
100
AcDbEntity
  8
0
  6
Continuous
 62
     7
370
    15
100
AcDbSpline
210
0.0
220
0.0
230
1.0
 70
     8
 71
     3
 72
    10
 73
     6
 74
     0
 42
0.00000001
 43
0.00000001
 40
0.0
 40
0.0
 40
0.0
 40
0.0
 40
0.5
 40
0.5
 40
1.0
 40
1.0
 40
1.0
 40
1.0
 10
241.9196878958451
 20
109.26047237971
 30
0.0
 10
241.9291802081315
 20
109.4697249132925
 30
0.0
 10
241.9315431808443
 20
109.6805416741914
 30
0.0
 10
241.9315846188348
 20
110.1050739553947
 30
0.0
 10
241.9291917918333
 20
110.3198222441673
 30
0.0
 10
241.9196878958451
 20
110.529330133755
 30
0.0
  0
CIRCLE
  5
203
330
1F
100
AcDbEntity
  8
0
  6
Continuous
 62
     7
370
    15
100
AcDbCircle
 10
227.9340702835
 20
109.8949012567
 30
0.0
 40
10.24999999999999
  0
CIRCLE
  5
204
330
1F
100
AcDbEntity
  8
0
  6
Continuous
 62
     7
370
    15
100
AcDbCircle
 10
227.9340702835
 20
109.8949012567
 30
0.0
 40
8.999999999999986
  0
SPLINE
  5
205
330
1F
100
AcDbEntity
  8
0
  6
Continuous
 62
     7
370
    15
100
AcDbSpline
210
0.0
220
0.0
230
1.0
 70
    24
 71
     1
 72
     4
 73
     2
 74
     0
 42
0.00000001
 43
0.00000001
 40
0.0
 40
0.0
 40
1.0
 40
1.0
 10
211.3284125575967
 20
125.1267406395575
 30
0.0
 10
211.1438689297137
 20
124.9326084192237
 30
0.0
  0
ARC
  5
206
330
1F
100
AcDbEntity
  8
0
  6
Continuous
 62
     7
370
    15
100
AcDbCircle
 10
227.9340702835
 20
109.8949012567
 30
0.0
 40
22.53982027887557
100
AcDbArc
 50
138.1516123933
 51
221.8483876067
  0
SPLINE
  5
207
330
1F
100
AcDbEntity
  8
0
  6
Continuous
 62
     7
370
    15
100
AcDbSpline
210
0.0
220
0.0
230
1.0
 70
    24
 71
     1
 72
     4
 73
     2
 74
     0
 42
0.00000001
 43
0.00000001
 40
0.0
 40
0.0
 40
1.0
 40
1.0
 10
211.1438689297137
 20
94.85719409424131
 30
0.0
 10
211.2983182534604
 20
94.69983064470728
 30
0.0
  0
SPLINE
  5
208
330
1F
100
AcDbEntity
  8
0
  6
Continuous
 62
     7
370
    15
100
AcDbSpline
210
0.0
220
0.0
230
1.0
 70
    24
 71
     1
 72
     4
 73
     2
 74
     0
 42
0.00000001
 43
0.00000001
 40
0.0
 40
0.0
 40
1.0
 40
1.0
 10
223.0457392944932
 20
87.89806012817745
 30
0.0
 10
223.3061345429369
 20
87.8353067684912
 30
0.0
  0
ARC
  5
209
330
1F
100
AcDbEntity
  8
0
  6
Continuous
 62
     7
370
    15
100
AcDbCircle
 10
227.9340702835
 20
109.8949012567
 30
0.0
 40
22.53982027887555
100
AcDbArc
 50
258.1516123933
 51
341.8483876067
  0
SPLINE
  5
20A
330
1F
100
AcDbEntity
  8
0
  6
Continuous
 62
     7
370
    15
100
AcDbSpline
210
0.0
220
0.0
230
1.0
 70
    24
 71
     1
 72
     4
 73
     2
 74
     0
 42
0.00000001
 43
0.00000001
 40
0.0
 40
0.0
 40
1.0
 40
1.0
 10
249.352207377714
 20
102.8730139309824
 30
0.0
 10
249.4112634607636
 20
103.0854526937104
 30
0.0
  0
SPLINE
  5
20B
330
1F
100
AcDbEntity
  8
0
  6
Continuous
 62
     7
370
    15
100
AcDbSpline
210
0.0
220
0.0
230
1.0
 70
    24
 71
     1
 72
     4
 73
     2
 74
     0
 42
0.00000001
 43
0.00000001
 40
0.0
 40
0.0
 40
1.0
 40
1.0
 10
249.4280589982747
 20
116.6599030024626
 30
0.0
 10
249.352207377714
 20
116.9167885824826
 30
0.0
  0
ARC
  5
20C
330
1F
100
AcDbEntity
  8
0
  6
Continuous
 62
     7
370
    15
100
AcDbCircle
 10
227.9340702835
 20
109.8949012567
 30
0.0
 40
22.53982027887553
100
AcDbArc
 50
18.1516123933
 51
101.8483876067
  0
SPLINE
  5
20D
330
1F
100
AcDbEntity
  8
0
  6
Continuous
 62
     7
370
    15
100
AcDbSpline
210
0.0
220
0.0
230
1.0
 70
    24
 71
     1
 72
     4
 73
     2
 74
     0
 42
0.00000001
 43
0.00000001
 40
0.0
 40
0.0
 40
1.0
 40
1.0
 10
223.3061345429369
 20
131.9544957449737
 30
0.0
 10
223.0851050134657
 20
131.8997261535491
 30
0.0
  0
CIRCLE
  5
20E
330
1F
100
AcDbEntity
  8
0
  6
Continuous
 62
     7
370
    15
100
AcDbCircle
 10
227.9340702835
 20
109.8949012567
 30
0.0
 40
31.5
  0
CIRCLE
  5
20F
330
1F
100
AcDbEntity
  8
0
  6
Continuous
 62
     7
370
    15
100
AcDbCircle
 10
227.9340702835
 20
109.8949012567
 30
0.0
 40
24.24999999999999
  0
CIRCLE
  5
210
330
1F
100
AcDbEntity
  8
0
  6
Continuous
 62
     7
370
    15
100
AcDbCircle
 10
227.9340702835
 20
109.8949012567
 30
0.0
 40
5.0
  0
CIRCLE
  5
211
330
1F
100
AcDbEntity
  8
0
  6
Continuous
 62
     7
370
    15
100
AcDbCircle
 10
227.9340702835
 20
109.8949012567
 30
0.0
 40
4.0
  0
LINE
  5
212
330
1F
100
AcDbEntity
  8
0
  6
HIDDEN
 62
     7
370
     0
100
AcDbLine
 10
223.9340702835
 20
126.2949012567
 30
0.0
 11
231.9340702835
 21
126.2949012567
 31
0.0
  0
LWPOLYLINE
  5
213
330
1F
100
AcDbEntity
  8
0
  6
HIDDEN
 62
     7
370
     0
100
AcDbPolyline
 90
        2
 70
   128
 43
0.0
 10
231.9340702835
 20
126.2949012567
 10
231.9340702835
 20
126.2949012567
  0
LINE
  5
214
330
1F
100
AcDbEntity
  8
0
  6
HIDDEN
 62
     7
370
     0
100
AcDbLine
 10
223.9340702835
 20
117.6449012567
 30
0.0
 11
231.9340702835
 21
117.6449012567
 31
0.0
  0
LWPOLYLINE
  5
215
330
1F
100
AcDbEntity
  8
0
  6
HIDDEN
 62
     7
370
     0
100
AcDbPolyline
 90
        2
 70
   128
 43
0.0
 10
231.9340702835
 20
117.6449012567
 10
231.9340702835
 20
117.6449012567
  0
LINE
  5
216
330
1F
100
AcDbEntity
  8
0
  6
HIDDEN
 62
     7
370
     0
100
AcDbLine
 10
225.1840702835
 20
116.3949012567
 30
0.0
 11
230.6840702835
 21
116.3949012567
 31
0.0
  0
LWPOLYLINE
  5
217
330
1F
100
AcDbEntity
  8
0
  6
HIDDEN
 62
     7
370
     0
100
AcDbPolyline
 90
        2
 70
   128
 43
0.0
 10
230.6840702835
 20
116.3949012567
 10
230.6840702835
 20
116.3949012567
  0
LINE
  5
218
330
1F
100
AcDbEntity
  8
0
  6
HIDDEN
 62
     7
370
     0
100
AcDbLine
 10
224.5340702835
 20
126.8949012567
 30
0.0
 11
231.3340702835
 21
126.8949012567
 31
0.0
  0
LWPOLYLINE
  5
219
330
1F
100
AcDbEntity
  8
0
  6
HIDDEN
 62
     7
370
     0
100
AcDbPolyline
 90
        2
 70
   128
 43
0.0
 10
231.3340702835
 20
126.8949012567
 10
231.3340702835
 20
126.8949012567
  0
LINE
  5
21A
330
1F
100
AcDbEntity
  8
0
  6
HIDDEN
 62
     7
370
     0
100
AcDbLine
 10
229.0887708218
 20
121.8949012567
 30
0.0
 11
226.7793697451
 21
121.8949012567
 31
0.0
  0
LINE
  5
21B
330
1F
100
AcDbEntity
  8
0
  6
HIDDEN
 62
     7
370
     0
100
AcDbLine
 10
229.0887708218
 20
126.8949012567
 30
0.0
 11
226.7793697451
 21
126.8949012567
 31
0.0
  0
LINE
  5
21C
330
1F
100
AcDbEntity
  8
0
  6
HIDDEN
 62
     7
370
     0
100
AcDbLine
 10
226.7793697451
 20
121.8949012567
 30
0.0
 11
226.7793697451
 21
126.8949012567
 31
0.0
  0
LINE
  5
21D
330
1F
100
AcDbEntity
  8
0
  6
HIDDEN
 62
     7
370
     0
100
AcDbLine
 10
226.7793697451
 20
121.8949012567
 30
0.0
 11
225.6246692067
 21
121.8949012567
 31
0.0
  0
LINE
  5
21E
330
1F
100
AcDbEntity
  8
0
  6
HIDDEN
 62
     7
370
     0
100
AcDbLine
 10
226.7793697451
 20
126.8949012567
 30
0.0
 11
225.6246692067
 21
126.8949012567
 31
0.0
  0
LINE
  5
21F
330
1F
100
AcDbEntity
  8
0
  6
HIDDEN
 62
     7
370
     0
100
AcDbLine
 10
229.0887708218
 20
121.8949012567
 30
0.0
 11
229.0887708218
 21
126.8949012567
 31
0.0
  0
LINE
  5
220
330
1F
100
AcDbEntity
  8
0
  6
HIDDEN
 62
     7
370
     0
100
AcDbLine
 10
229.0887708218
 20
121.8949012567
 30
0.0
 11
230.2434713602
 21
121.8949012567
 31
0.0
  0
LINE
  5
221
330
1F
100
AcDbEntity
  8
0
  6
HIDDEN
 62
     7
370
     0
100
AcDbLine
 10
229.0887708218
 20
126.8949012567
 30
0.0
 11
230.2434713602
 21
126.8949012567
 31
0.0
  0
LINE
  5
222
330
1F
100
AcDbEntity
  8
0
  6
HIDDEN
 62
     7
370
     0
100
AcDbLine
 10
229.7840702835
 20
116.3949012567
 30
0.0
 11
226.0840702835
 21
116.3949012567
 31
0.0
  0
LINE
  5
223
330
1F
100
AcDbEntity
  8
0
  6
HIDDEN
 62
     7
370
     0
100
AcDbLine
 10
226.7793697451
 20
121.8949012567
 30
0.0
 11
226.7793697451
 21
126.8949012567
 31
0.0
  0
LINE
  5
224
330
1F
100
AcDbEntity
  8
0
  6
HIDDEN
 62
     7
370
     0
100
AcDbLine
 10
225.6246692067
 20
121.8949012567
 30
0.0
 11
225.6246692067
 21
126.8949012567
 31
0.0
  0
LINE
  5
225
330
1F
100
AcDbEntity
  8
0
  6
HIDDEN
 62
     7
370
     0
100
AcDbLine
 10
226.7793697451
 20
121.8949012567
 30
0.0
 11
225.6246692067
 21
121.8949012567
 31
0.0
  0
LINE
  5
226
330
1F
100
AcDbEntity
  8
0
  6
HIDDEN
 62
     7
370
     0
100
AcDbLine
 10
226.7793697451
 20
126.8949012567
 30
0.0
 11
225.6246692067
 21
126.8949012567
 31
0.0
  0
LINE
  5
227
330
1F
100
AcDbEntity
  8
0
  6
HIDDEN
 62
     7
370
     0
100
AcDbLine
 10
229.0887708218
 20
121.8949012567
 30
0.0
 11
229.0887708218
 21
126.8949012567
 31
0.0
  0
LINE
  5
228
330
1F
100
AcDbEntity
  8
0
  6
HIDDEN
 62
     7
370
     0
100
AcDbLine
 10
230.2434713602
 20
121.8949012567
 30
0.0
 11
230.2434713602
 21
126.8949012567
 31
0.0
  0
LINE
  5
229
330
1F
100
AcDbEntity
  8
0
  6
HIDDEN
 62
     7
370
     0
100
AcDbLine
 10
229.0887708218
 20
121.8949012567
 30
0.0
 11
230.2434713602
 21
121.8949012567
 31
0.0
  0
LINE
  5
22A
330
1F
100
AcDbEntity
  8
0
  6
HIDDEN
 62
     7
370
     0
100
AcDbLine
 10
229.0887708218
 20
126.8949012567
 30
0.0
 11
230.2434713602
 21
126.8949012567
 31
0.0
  0
LINE
  5
22B
330
1F
100
AcDbEntity
  8
0
  6
HIDDEN
 62
     7
370
     0
100
AcDbLine
 10
229.0887708218
 20
121.8949012567
 30
0.0
 11
226.7793697451
 21
121.8949012567
 31
0.0
  0
LINE
  5
22C
330
1F
100
AcDbEntity
  8
0
  6
HIDDEN
 62
     7
370
     0
100
AcDbLine
 10
229.0887708218
 20
126.8949012567
 30
0.0
 11
226.7793697451
 21
126.8949012567
 31
0.0
  0
LINE
  5
22D
330
1F
100
AcDbEntity
  8
0
  6
HIDDEN
 62
     7
370
     0
100
AcDbLine
 10
210.9340702835
 20
106.4949012567
 30
0.0
 11
210.9340702835
 21
113.2949012567
 31
0.0
  0
LWPOLYLINE
  5
22E
330
1F
100
AcDbEntity
  8
0
  6
HIDDEN
 62
     7
370
     0
100
AcDbPolyline
 90
        2
 70
   128
 43
0.0
 10
210.9340702835
 20
113.2949012567
 10
210.9340702835
 20
113.2949012567
  0
LINE
  5
22F
330
1F
100
AcDbEntity
  8
0
  6
HIDDEN
 62
     7
370
     0
100
AcDbLine
 10
211.5340702835
 20
105.8949012567
 30
0.0
 11
211.5340702835
 21
113.8949012567
 31
0.0
  0
LWPOLYLINE
  5
230
330
1F
100
AcDbEntity
  8
0
  6
HIDDEN
 62
     7
370
     0
100
AcDbPolyline
 90
        2
 70
   128
 43
0.0
 10
211.5340702835
 20
113.8949012567
 10
211.5340702835
 20
113.8949012567
  0
LINE
  5
231
330
1F
100
AcDbEntity
  8
0
  6
HIDDEN
 62
     7
370
     0
100
AcDbLine
 10
220.1840702835
 20
105.8949012567
 30
0.0
 11
220.1840702835
 21
113.8949012567
 31
0.0
  0
LWPOLYLINE
  5
232
330
1F
100
AcDbEntity
  8
0
  6
HIDDEN
 62
     7
370
     0
100
AcDbPolyline
 90
        2
 70
   128
 43
0.0
 10
220.1840702835
 20
113.8949012567
 10
220.1840702835
 20
113.8949012567
  0
LINE
  5
233
330
1F
100
AcDbEntity
  8
0
  6
HIDDEN
 62
     7
370
     0
100
AcDbLine
 10
221.4340702835
 20
107.1449012567
 30
0.0
 11
221.4340702835
 21
112.6449012567
 31
0.0
  0
LWPOLYLINE
  5
234
330
1F
100
AcDbEntity
  8
0
  6
HIDDEN
 62
     7
370
     0
100
AcDbPolyline
 90
        2
 70
   128
 43
0.0
 10
221.4340702835
 20
112.6449012567
 10
221.4340702835
 20
112.6449012567
  0
LINE
  5
235
330
1F
100
AcDbEntity
  8
0
  6
HIDDEN
 62
     7
370
     0
100
AcDbLine
 10
210.9340702835
 20
111.0496017951
 30
0.0
 11
210.9340702835
 21
108.7402007184
 31
0.0
  0
LINE
  5
236
330
1F
100
AcDbEntity
  8
0
  6
HIDDEN
 62
     7
370
     0
100
AcDbLine
 10
215.9340702835
 20
111.0496017951
 30
0.0
 11
215.9340702835
 21
108.7402007184
 31
0.0
  0
LINE
  5
237
330
1F
100
AcDbEntity
  8
0
  6
HIDDEN
 62
     7
370
     0
100
AcDbLine
 10
215.9340702835
 20
108.7402007184
 30
0.0
 11
215.9340702835
 21
107.58550018
 31
0.0
  0
LINE
  5
238
330
1F
100
AcDbEntity
  8
0
  6
HIDDEN
 62
     7
370
     0
100
AcDbLine
 10
215.9340702835
 20
108.7402007184
 30
0.0
 11
210.9340702835
 21
108.7402007184
 31
0.0
  0
LINE
  5
239
330
1F
100
AcDbEntity
  8
0
  6
HIDDEN
 62
     7
370
     0
100
AcDbLine
 10
210.9340702835
 20
108.7402007184
 30
0.0
 11
210.9340702835
 21
107.58550018
 31
0.0
  0
LINE
  5
23A
330
1F
100
AcDbEntity
  8
0
  6
HIDDEN
 62
     7
370
     0
100
AcDbLine
 10
215.9340702835
 20
111.0496017951
 30
0.0
 11
215.9340702835
 21
112.2043023335
 31
0.0
  0
LINE
  5
23B
330
1F
100
AcDbEntity
  8
0
  6
HIDDEN
 62
     7
370
     0
100
AcDbLine
 10
215.9340702835
 20
111.0496017951
 30
0.0
 11
210.9340702835
 21
111.0496017951
 31
0.0
  0
LINE
  5
23C
330
1F
100
AcDbEntity
  8
0
  6
HIDDEN
 62
     7
370
     0
100
AcDbLine
 10
210.9340702835
 20
111.0496017951
 30
0.0
 11
210.9340702835
 21
112.2043023335
 31
0.0
  0
LINE
  5
23D
330
1F
100
AcDbEntity
  8
0
  6
HIDDEN
 62
     7
370
     0
100
AcDbLine
 10
221.4340702835
 20
111.7449012567
 30
0.0
 11
221.4340702835
 21
108.0449012567
 31
0.0
  0
LINE
  5
23E
330
1F
100
AcDbEntity
  8
0
  6
HIDDEN
 62
     7
370
     0
100
AcDbLine
 10
215.9340702835
 20
111.0496017951
 30
0.0
 11
210.9340702835
 21
111.0496017951
 31
0.0
  0
LINE
  5
23F
330
1F
100
AcDbEntity
  8
0
  6
HIDDEN
 62
     7
370
     0
100
AcDbLine
 10
215.9340702835
 20
112.2043023335
 30
0.0
 11
210.9340702835
 21
112.2043023335
 31
0.0
  0
LINE
  5
240
330
1F
100
AcDbEntity
  8
0
  6
HIDDEN
 62
     7
370
     0
100
AcDbLine
 10
215.9340702835
 20
111.0496017951
 30
0.0
 11
215.9340702835
 21
112.2043023335
 31
0.0
  0
LINE
  5
241
330
1F
100
AcDbEntity
  8
0
  6
HIDDEN
 62
     7
370
     0
100
AcDbLine
 10
210.9340702835
 20
111.0496017951
 30
0.0
 11
210.9340702835
 21
112.2043023335
 31
0.0
  0
LINE
  5
242
330
1F
100
AcDbEntity
  8
0
  6
HIDDEN
 62
     7
370
     0
100
AcDbLine
 10
215.9340702835
 20
108.7402007184
 30
0.0
 11
210.9340702835
 21
108.7402007184
 31
0.0
  0
LINE
  5
243
330
1F
100
AcDbEntity
  8
0
  6
HIDDEN
 62
     7
370
     0
100
AcDbLine
 10
215.9340702835
 20
107.58550018
 30
0.0
 11
210.9340702835
 21
107.58550018
 31
0.0
  0
LINE
  5
244
330
1F
100
AcDbEntity
  8
0
  6
HIDDEN
 62
     7
370
     0
100
AcDbLine
 10
215.9340702835
 20
108.7402007184
 30
0.0
 11
215.9340702835
 21
107.58550018
 31
0.0
  0
LINE
  5
245
330
1F
100
AcDbEntity
  8
0
  6
HIDDEN
 62
     7
370
     0
100
AcDbLine
 10
210.9340702835
 20
108.7402007184
 30
0.0
 11
210.9340702835
 21
107.58550018
 31
0.0
  0
LINE
  5
246
330
1F
100
AcDbEntity
  8
0
  6
HIDDEN
 62
     7
370
     0
100
AcDbLine
 10
215.9340702835
 20
111.0496017951
 30
0.0
 11
215.9340702835
 21
108.7402007184
 31
0.0
  0
LINE
  5
247
330
1F
100
AcDbEntity
  8
0
  6
HIDDEN
 62
     7
370
     0
100
AcDbLine
 10
210.9340702835
 20
111.0496017951
 30
0.0
 11
210.9340702835
 21
108.7402007184
 31
0.0
  0
LINE
  5
248
330
1F
100
AcDbEntity
  8
0
  6
HIDDEN
 62
     7
370
     0
100
AcDbLine
 10
235.6840702835
 20
113.8949012567
 30
0.0
 11
235.6840702835
 21
105.8949012567
 31
0.0
  0
LWPOLYLINE
  5
249
330
1F
100
AcDbEntity
  8
0
  6
HIDDEN
 62
     7
370
     0
100
AcDbPolyline
 90
        2
 70
   128
 43
0.0
 10
235.6840702835
 20
105.8949012567
 10
235.6840702835
 20
105.8949012567
  0
LINE
  5
24A
330
1F
100
AcDbEntity
  8
0
  6
HIDDEN
 62
     7
370
     0
100
AcDbLine
 10
234.4340702835
 20
112.6449012567
 30
0.0
 11
234.4340702835
 21
107.1449012567
 31
0.0
  0
LWPOLYLINE
  5
24B
330
1F
100
AcDbEntity
  8
0
  6
HIDDEN
 62
     7
370
     0
100
AcDbPolyline
 90
        2
 70
   128
 43
0.0
 10
234.4340702835
 20
107.1449012567
 10
234.4340702835
 20
107.1449012567
  0
LINE
  5
24C
330
1F
100
AcDbEntity
  8
0
  6
HIDDEN
 62
     7
370
     0
100
AcDbLine
 10
244.3340702835
 20
113.8949012567
 30
0.0
 11
244.3340702835
 21
105.8949012567
 31
0.0
  0
LWPOLYLINE
  5
24D
330
1F
100
AcDbEntity
  8
0
  6
HIDDEN
 62
     7
370
     0
100
AcDbPolyline
 90
        2
 70
   128
 43
0.0
 10
244.3340702835
 20
105.8949012567
 10
244.3340702835
 20
105.8949012567
  0
LINE
  5
24E
330
1F
100
AcDbEntity
  8
0
  6
HIDDEN
 62
     7
370
     0
100
AcDbLine
 10
244.9340702835
 20
113.2949012567
 30
0.0
 11
244.9340702835
 21
106.4949012567
 31
0.0
  0
LWPOLYLINE
  5
24F
330
1F
100
AcDbEntity
  8
0
  6
HIDDEN
 62
     7
370
     0
100
AcDbPolyline
 90
        2
 70
   128
 43
0.0
 10
244.9340702835
 20
106.4949012567
 10
244.9340702835
 20
106.4949012567
  0
LINE
  5
250
330
1F
100
AcDbEntity
  8
0
  6
HIDDEN
 62
     7
370
     0
100
AcDbLine
 10
239.9340702835
 20
108.7402007184
 30
0.0
 11
239.9340702835
 21
111.0496017951
 31
0.0
  0
LINE
  5
251
330
1F
100
AcDbEntity
  8
0
  6
HIDDEN
 62
     7
370
     0
100
AcDbLine
 10
244.9340702835
 20
108.7402007184
 30
0.0
 11
244.9340702835
 21
111.0496017951
 31
0.0
  0
LINE
  5
252
330
1F
100
AcDbEntity
  8
0
  6
HIDDEN
 62
     7
370
     0
100
AcDbLine
 10
239.9340702835
 20
111.0496017951
 30
0.0
 11
244.9340702835
 21
111.0496017951
 31
0.0
  0
LINE
  5
253
330
1F
100
AcDbEntity
  8
0
  6
HIDDEN
 62
     7
370
     0
100
AcDbLine
 10
239.9340702835
 20
111.0496017951
 30
0.0
 11
239.9340702835
 21
112.2043023335
 31
0.0
  0
LINE
  5
254
330
1F
100
AcDbEntity
  8
0
  6
HIDDEN
 62
     7
370
     0
100
AcDbLine
 10
244.9340702835
 20
111.0496017951
 30
0.0
 11
244.9340702835
 21
112.2043023335
 31
0.0
  0
LINE
  5
255
330
1F
100
AcDbEntity
  8
0
  6
HIDDEN
 62
     7
370
     0
100
AcDbLine
 10
239.9340702835
 20
108.7402007184
 30
0.0
 11
244.9340702835
 21
108.7402007184
 31
0.0
  0
LINE
  5
256
330
1F
100
AcDbEntity
  8
0
  6
HIDDEN
 62
     7
370
     0
100
AcDbLine
 10
239.9340702835
 20
108.7402007184
 30
0.0
 11
239.9340702835
 21
107.58550018
 31
0.0
  0
LINE
  5
257
330
1F
100
AcDbEntity
  8
0
  6
HIDDEN
 62
     7
370
     0
100
AcDbLine
 10
244.9340702835
 20
108.7402007184
 30
0.0
 11
244.9340702835
 21
107.58550018
 31
0.0
  0
LINE
  5
258
330
1F
100
AcDbEntity
  8
0
  6
HIDDEN
 62
     7
370
     0
100
AcDbLine
 10
234.4340702835
 20
108.0449012567
 30
0.0
 11
234.4340702835
 21
111.7449012567
 31
0.0
  0
LINE
  5
259
330
1F
100
AcDbEntity
  8
0
  6
HIDDEN
 62
     7
370
     0
100
AcDbLine
 10
239.9340702835
 20
111.0496017951
 30
0.0
 11
244.9340702835
 21
111.0496017951
 31
0.0
  0
LINE
  5
25A
330
1F
100
AcDbEntity
  8
0
  6
HIDDEN
 62
     7
370
     0
100
AcDbLine
 10
239.9340702835
 20
112.2043023335
 30
0.0
 11
244.9340702835
 21
112.2043023335
 31
0.0
  0
LINE
  5
25B
330
1F
100
AcDbEntity
  8
0
  6
HIDDEN
 62
     7
370
     0
100
AcDbLine
 10
239.9340702835
 20
111.0496017951
 30
0.0
 11
239.9340702835
 21
112.2043023335
 31
0.0
  0
LINE
  5
25C
330
1F
100
AcDbEntity
  8
0
  6
HIDDEN
 62
     7
370
     0
100
AcDbLine
 10
244.9340702835
 20
111.0496017951
 30
0.0
 11
244.9340702835
 21
112.2043023335
 31
0.0
  0
LINE
  5
25D
330
1F
100
AcDbEntity
  8
0
  6
HIDDEN
 62
     7
370
     0
100
AcDbLine
 10
239.9340702835
 20
108.7402007184
 30
0.0
 11
244.9340702835
 21
108.7402007184
 31
0.0
  0
LINE
  5
25E
330
1F
100
AcDbEntity
  8
0
  6
HIDDEN
 62
     7
370
     0
100
AcDbLine
 10
239.9340702835
 20
107.58550018
 30
0.0
 11
244.9340702835
 21
107.58550018
 31
0.0
  0
LINE
  5
25F
330
1F
100
AcDbEntity
  8
0
  6
HIDDEN
 62
     7
370
     0
100
AcDbLine
 10
239.9340702835
 20
108.7402007184
 30
0.0
 11
239.9340702835
 21
107.58550018
 31
0.0
  0
LINE
  5
260
330
1F
100
AcDbEntity
  8
0
  6
HIDDEN
 62
     7
370
     0
100
AcDbLine
 10
244.9340702835
 20
108.7402007184
 30
0.0
 11
244.9340702835
 21
107.58550018
 31
0.0
  0
LINE
  5
261
330
1F
100
AcDbEntity
  8
0
  6
HIDDEN
 62
     7
370
     0
100
AcDbLine
 10
239.9340702835
 20
108.7402007184
 30
0.0
 11
239.9340702835
 21
111.0496017951
 31
0.0
  0
LINE
  5
262
330
1F
100
AcDbEntity
  8
0
  6
HIDDEN
 62
     7
370
     0
100
AcDbLine
 10
244.9340702835
 20
108.7402007184
 30
0.0
 11
244.9340702835
 21
111.0496017951
 31
0.0
  0
SPLINE
  5
263
330
1F
100
AcDbEntity
  8
0
  6
HIDDEN
 62
     7
370
     0
100
AcDbSpline
210
0.0
220
0.0
230
1.0
 70
    24
 71
     1
 72
     4
 73
     2
 74
     0
 42
0.00000001
 43
0.00000001
 40
0.0
 40
0.0
 40
1.0
 40
1.0
 10
223.9340702834547
 20
126.2949012567325
 30
0.0
 10
223.9340702834547
 20
117.6449012567325
 30
0.0
  0
SPLINE
  5
264
330
1F
100
AcDbEntity
  8
0
  6
HIDDEN
 62
     7
370
     0
100
AcDbSpline
210
0.0
220
0.0
230
1.0
 70
    24
 71
     1
 72
     4
 73
     2
 74
     0
 42
0.00000001
 43
0.00000001
 40
0.0
 40
0.0
 40
1.0
 40
1.0
 10
231.9340702834547
 20
117.6449012567325
 30
0.0
 10
231.9340702834547
 20
126.2949012567325
 30
0.0
  0
SPLINE
  5
265
330
1F
100
AcDbEntity
  8
0
  6
HIDDEN
 62
     7
370
     0
100
AcDbSpline
210
0.0
220
0.0
230
1.0
 70
    24
 71
     1
 72
     4
 73
     2
 74
     0
 42
0.00000001
 43
0.00000001
 40
0.0
 40
0.0
 40
1.0
 40
1.0
 10
223.9340702834547
 20
117.6449012567325
 30
0.0
 10
225.1840702834547
 20
116.3949012567325
 30
0.0
  0
SPLINE
  5
266
330
1F
100
AcDbEntity
  8
0
  6
HIDDEN
 62
     7
370
     0
100
AcDbSpline
210
0.0
220
0.0
230
1.0
 70
    24
 71
     1
 72
     4
 73
     2
 74
     0
 42
0.00000001
 43
0.00000001
 40
0.0
 40
0.0
 40
1.0
 40
1.0
 10
230.6840702834547
 20
116.3949012567325
 30
0.0
 10
231.9340702834547
 20
117.6449012567325
 30
0.0
  0
SPLINE
  5
267
330
1F
100
AcDbEntity
  8
0
  6
HIDDEN
 62
     7
370
     0
100
AcDbSpline
210
0.0
220
0.0
230
1.0
 70
    24
 71
     1
 72
     4
 73
     2
 74
     0
 42
0.00000001
 43
0.00000001
 40
0.0
 40
0.0
 40
1.0
 40
1.0
 10
231.9340702834547
 20
126.2949012567325
 30
0.0
 10
231.3340702834547
 20
126.8949012567325
 30
0.0
  0
SPLINE
  5
268
330
1F
100
AcDbEntity
  8
0
  6
HIDDEN
 62
     7
370
     0
100
AcDbSpline
210
0.0
220
0.0
230
1.0
 70
    24
 71
     1
 72
     4
 73
     2
 74
     0
 42
0.00000001
 43
0.00000001
 40
0.0
 40
0.0
 40
1.0
 40
1.0
 10
224.5340702834547
 20
126.8949012567325
 30
0.0
 10
223.9340702834547
 20
126.2949012567325
 30
0.0
  0
SPLINE
  5
269
330
1F
100
AcDbEntity
  8
0
  6
HIDDEN
 62
     7
370
     0
100
AcDbSpline
210
0.0
220
0.0
230
1.0
 70
    24
 71
     1
 72
     4
 73
     2
 74
     0
 42
0.00000001
 43
0.00000001
 40
0.0
 40
0.0
 40
1.0
 40
1.0
 10
229.7840702834547
 20
116.3949012567325
 30
0.0
 10
227.9340702834547
 20
117.4629992547333
 30
0.0
  0
SPLINE
  5
26A
330
1F
100
AcDbEntity
  8
0
  6
HIDDEN
 62
     7
370
     0
100
AcDbSpline
210
0.0
220
0.0
230
1.0
 70
    24
 71
     1
 72
     4
 73
     2
 74
     0
 42
0.00000001
 43
0.00000001
 40
0.0
 40
0.0
 40
1.0
 40
1.0
 10
227.9340702834547
 20
117.4629992547333
 30
0.0
 10
226.0840702834547
 20
116.3949012567325
 30
0.0
  0
SPLINE
  5
26B
330
1F
100
AcDbEntity
  8
0
  6
HIDDEN
 62
     7
370
     0
100
AcDbSpline
210
0.0
220
0.0
230
1.0
 70
    24
 71
     1
 72
     4
 73
     2
 74
     0
 42
0.00000001
 43
0.00000001
 40
0.0
 40
0.0
 40
1.0
 40
1.0
 10
211.5340702834547
 20
113.8949012567327
 30
0.0
 10
210.9340702834547
 20
113.2949012567327
 30
0.0
  0
SPLINE
  5
26C
330
1F
100
AcDbEntity
  8
0
  6
HIDDEN
 62
     7
370
     0
100
AcDbSpline
210
0.0
220
0.0
230
1.0
 70
    24
 71
     1
 72
     4
 73
     2
 74
     0
 42
0.00000001
 43
0.00000001
 40
0.0
 40
0.0
 40
1.0
 40
1.0
 10
210.9340702834546
 20
106.4949012567327
 30
0.0
 10
211.5340702834546
 20
105.8949012567327
 30
0.0
  0
SPLINE
  5
26D
330
1F
100
AcDbEntity
  8
0
  6
HIDDEN
 62
     7
370
     0
100
AcDbSpline
210
0.0
220
0.0
230
1.0
 70
    24
 71
     1
 72
     4
 73
     2
 74
     0
 42
0.00000001
 43
0.00000001
 40
0.0
 40
0.0
 40
1.0
 40
1.0
 10
211.5340702834546
 20
105.8949012567327
 30
0.0
 10
220.1840702834546
 20
105.8949012567326
 30
0.0
  0
SPLINE
  5
26E
330
1F
100
AcDbEntity
  8
0
  6
HIDDEN
 62
     7
370
     0
100
AcDbSpline
210
0.0
220
0.0
230
1.0
 70
    24
 71
     1
 72
     4
 73
     2
 74
     0
 42
0.00000001
 43
0.00000001
 40
0.0
 40
0.0
 40
1.0
 40
1.0
 10
220.1840702834547
 20
113.8949012567326
 30
0.0
 10
211.5340702834547
 20
113.8949012567327
 30
0.0
  0
SPLINE
  5
26F
330
1F
100
AcDbEntity
  8
0
  6
HIDDEN
 62
     7
370
     0
100
AcDbSpline
210
0.0
220
0.0
230
1.0
 70
    24
 71
     1
 72
     4
 73
     2
 74
     0
 42
0.00000001
 43
0.00000001
 40
0.0
 40
0.0
 40
1.0
 40
1.0
 10
220.1840702834546
 20
105.8949012567326
 30
0.0
 10
221.4340702834546
 20
107.1449012567326
 30
0.0
  0
SPLINE
  5
270
330
1F
100
AcDbEntity
  8
0
  6
HIDDEN
 62
     7
370
     0
100
AcDbSpline
210
0.0
220
0.0
230
1.0
 70
    24
 71
     1
 72
     4
 73
     2
 74
     0
 42
0.00000001
 43
0.00000001
 40
0.0
 40
0.0
 40
1.0
 40
1.0
 10
221.4340702834547
 20
112.6449012567326
 30
0.0
 10
220.1840702834547
 20
113.8949012567326
 30
0.0
  0
SPLINE
  5
271
330
1F
100
AcDbEntity
  8
0
  6
HIDDEN
 62
     7
370
     0
100
AcDbSpline
210
0.0
220
0.0
230
1.0
 70
    24
 71
     1
 72
     4
 73
     2
 74
     0
 42
0.00000001
 43
0.00000001
 40
0.0
 40
0.0
 40
1.0
 40
1.0
 10
221.4340702834547
 20
111.7449012567326
 30
0.0
 10
220.3659722854538
 20
109.8949012567326
 30
0.0
  0
SPLINE
  5
272
330
1F
100
AcDbEntity
  8
0
  6
HIDDEN
 62
     7
370
     0
100
AcDbSpline
210
0.0
220
0.0
230
1.0
 70
    24
 71
     1
 72
     4
 73
     2
 74
     0
 42
0.00000001
 43
0.00000001
 40
0.0
 40
0.0
 40
1.0
 40
1.0
 10
220.3659722854538
 20
109.8949012567326
 30
0.0
 10
221.4340702834546
 20
108.0449012567326
 30
0.0
  0
SPLINE
  5
273
330
1F
100
AcDbEntity
  8
0
  6
HIDDEN
 62
     7
370
     0
100
AcDbSpline
210
0.0
220
0.0
230
1.0
 70
    24
 71
     1
 72
     4
 73
     2
 74
     0
 42
0.00000001
 43
0.00000001
 40
0.0
 40
0.0
 40
1.0
 40
1.0
 10
235.6840702834546
 20
113.8949012567326
 30
0.0
 10
234.4340702834547
 20
112.6449012567325
 30
0.0
  0
SPLINE
  5
274
330
1F
100
AcDbEntity
  8
0
  6
HIDDEN
 62
     7
370
     0
100
AcDbSpline
210
0.0
220
0.0
230
1.0
 70
    24
 71
     1
 72
     4
 73
     2
 74
     0
 42
0.00000001
 43
0.00000001
 40
0.0
 40
0.0
 40
1.0
 40
1.0
 10
234.4340702834547
 20
107.1449012567326
 30
0.0
 10
235.6840702834547
 20
105.8949012567326
 30
0.0
  0
SPLINE
  5
275
330
1F
100
AcDbEntity
  8
0
  6
HIDDEN
 62
     7
370
     0
100
AcDbSpline
210
0.0
220
0.0
230
1.0
 70
    24
 71
     1
 72
     4
 73
     2
 74
     0
 42
0.00000001
 43
0.00000001
 40
0.0
 40
0.0
 40
1.0
 40
1.0
 10
244.3340702834546
 20
113.8949012567327
 30
0.0
 10
235.6840702834546
 20
113.8949012567326
 30
0.0
  0
SPLINE
  5
276
330
1F
100
AcDbEntity
  8
0
  6
HIDDEN
 62
     7
370
     0
100
AcDbSpline
210
0.0
220
0.0
230
1.0
 70
    24
 71
     1
 72
     4
 73
     2
 74
     0
 42
0.00000001
 43
0.00000001
 40
0.0
 40
0.0
 40
1.0
 40
1.0
 10
235.6840702834547
 20
105.8949012567326
 30
0.0
 10
244.3340702834547
 20
105.8949012567327
 30
0.0
  0
SPLINE
  5
277
330
1F
100
AcDbEntity
  8
0
  6
HIDDEN
 62
     7
370
     0
100
AcDbSpline
210
0.0
220
0.0
230
1.0
 70
    24
 71
     1
 72
     4
 73
     2
 74
     0
 42
0.00000001
 43
0.00000001
 40
0.0
 40
0.0
 40
1.0
 40
1.0
 10
244.3340702834547
 20
105.8949012567327
 30
0.0
 10
244.9340702834547
 20
106.4949012567327
 30
0.0
  0
SPLINE
  5
278
330
1F
100
AcDbEntity
  8
0
  6
HIDDEN
 62
     7
370
     0
100
AcDbSpline
210
0.0
220
0.0
230
1.0
 70
    24
 71
     1
 72
     4
 73
     2
 74
     0
 42
0.00000001
 43
0.00000001
 40
0.0
 40
0.0
 40
1.0
 40
1.0
 10
244.9340702834546
 20
113.2949012567327
 30
0.0
 10
244.3340702834546
 20
113.8949012567327
 30
0.0
  0
SPLINE
  5
279
330
1F
100
AcDbEntity
  8
0
  6
HIDDEN
 62
     7
370
     0
100
AcDbSpline
210
0.0
220
0.0
230
1.0
 70
    24
 71
     1
 72
     4
 73
     2
 74
     0
 42
0.00000001
 43
0.00000001
 40
0.0
 40
0.0
 40
1.0
 40
1.0
 10
234.4340702834547
 20
108.0449012567325
 30
0.0
 10
235.5021682814555
 20
109.8949012567326
 30
0.0
  0
SPLINE
  5
27A
330
1F
100
AcDbEntity
  8
0
  6
HIDDEN
 62
     7
370
     0
100
AcDbSpline
210
0.0
220
0.0
230
1.0
 70
    24
 71
     1
 72
     4
 73
     2
 74
     0
 42
0.00000001
 43
0.00000001
 40
0.0
 40
0.0
 40
1.0
 40
1.0
 10
235.5021682814555
 20
109.8949012567326
 30
0.0
 10
234.4340702834547
 20
111.7449012567325
 30
0.0
  0
LINE
  5
27B
330
1F
100
AcDbEntity
  8
VERMASSUNG
100
AcDbLine
 10
227.9340702835
 20
72.1495980345
 30
0.0
 11
227.9340702835
 21
147.404836595
 31
0.0
  0
LINE
  5
27C
330
1F
100
AcDbEntity
  8
VERMASSUNG
100
AcDbLine
 10
189.4191177001
 20
109.8949012567
 30
0.0
 11
265.1237136202
 21
109.8949012567
 31
0.0
  0
OLE2FRAME
  5
27D
330
1F
100
AcDbEntity
  8
0
100
AcDbOle2Frame
 70
     2
  3
Bitmap
 10
13.8511154363
 20
38.264191557
 30
0.0
 11
51.6290888628
 21
31.9806341108
 31
0.0
 71
     2
 72
     0
 73
     1
 90
    12928
310
80552BED0767C5B32B40DDAF6807D121434000000000000000006FFBDDFB85D0
310
4940DDAF6807D121434000000000000000006FFBDDFB85D04940416F4BD60AFB
310
3F4000000000000000002BED0767C5B32B40416F4BD60AFB3F40000000000000
310
0000000000000100000000010000010000000100000000000100000000320000
310
D0CF11E0A1B11AE1000000000000000000000000000000003E000300FEFF0900
310
0600000000000000000000000100000001000000000000000010000002000000
310
01000000FEFFFFFF0000000000000000FFFFFFFFFFFFFFFFFFFFFFFFFFFFFFFF
310
FFFFFFFFFFFFFFFFFFFFFFFFFFFFFFFFFFFFFFFFFFFFFFFFFFFFFFFFFFFFFFFF
310
FFFFFFFFFFFFFFFFFFFFFFFFFFFFFFFFFFFFFFFFFFFFFFFFFFFFFFFFFFFFFFFF
310
FFFFFFFFFFFFFFFFFFFFFFFFFFFFFFFFFFFFFFFFFFFFFFFFFFFFFFFFFFFFFFFF
310
FFFFFFFFFFFFFFFFFFFFFFFFFFFFFFFFFFFFFFFFFFFFFFFFFFFFFFFFFFFFFFFF
310
FFFFFFFFFFFFFFFFFFFFFFFFFFFFFFFFFFFFFFFFFFFFFFFFFFFFFFFFFFFFFFFF
310
FFFFFFFFFFFFFFFFFFFFFFFFFFFFFFFFFFFFFFFFFFFFFFFFFFFFFFFFFFFFFFFF
310
FFFFFFFFFFFFFFFFFFFFFFFFFFFFFFFFFFFFFFFFFFFFFFFFFFFFFFFFFFFFFFFF
310
FFFFFFFFFFFFFFFFFFFFFFFFFFFFFFFFFFFFFFFFFFFFFFFFFFFFFFFFFFFFFFFF
310
FFFFFFFFFFFFFFFFFFFFFFFFFFFFFFFFFFFFFFFFFFFFFFFFFFFFFFFFFFFFFFFF
310
FFFFFFFFFFFFFFFFFFFFFFFFFFFFFFFFFFFFFFFFFFFFFFFFFFFFFFFFFFFFFFFF
310
FFFFFFFFFFFFFFFFFFFFFFFFFFFFFFFFFFFFFFFFFFFFFFFFFFFFFFFFFFFFFFFF
310
FFFFFFFFFFFFFFFFFFFFFFFFFFFFFFFFFFFFFFFFFFFFFFFFFFFFFFFFFFFFFFFF
310
FFFFFFFFFFFFFFFFFFFFFFFFFFFFFFFFFFFFFFFFFFFFFFFFFFFFFFFFFFFFFFFF
310
FDFFFFFFFEFFFFFFFEFFFFFFFEFFFFFF05000000060000000700000008000000
310
090000000A0000000B0000000C0000000D0000000E0000000F00000010000000
310
11000000120000001300000014000000150000001600000017000000FEFFFFFF
310
FFFFFFFFFFFFFFFFFFFFFFFFFFFFFFFFFFFFFFFFFFFFFFFFFFFFFFFFFFFFFFFF
310
FFFFFFFFFFFFFFFFFFFFFFFFFFFFFFFFFFFFFFFFFFFFFFFFFFFFFFFFFFFFFFFF
310
FFFFFFFFFFFFFFFFFFFFFFFFFFFFFFFFFFFFFFFFFFFFFFFFFFFFFFFFFFFFFFFF
310
FFFFFFFFFFFFFFFFFFFFFFFFFFFFFFFFFFFFFFFFFFFFFFFFFFFFFFFFFFFFFFFF
310
FFFFFFFFFFFFFFFFFFFFFFFFFFFFFFFFFFFFFFFFFFFFFFFFFFFFFFFFFFFFFFFF
310
FFFFFFFFFFFFFFFFFFFFFFFFFFFFFFFFFFFFFFFFFFFFFFFFFFFFFFFFFFFFFFFF
310
FFFFFFFFFFFFFFFFFFFFFFFFFFFFFFFFFFFFFFFFFFFFFFFFFFFFFFFFFFFFFFFF
310
FFFFFFFFFFFFFFFFFFFFFFFFFFFFFFFFFFFFFFFFFFFFFFFFFFFFFFFFFFFFFFFF
310
FFFFFFFFFFFFFFFFFFFFFFFFFFFFFFFFFFFFFFFFFFFFFFFFFFFFFFFFFFFFFFFF
310
FFFFFFFFFFFFFFFFFFFFFFFFFFFFFFFFFFFFFFFFFFFFFFFFFFFFFFFFFFFFFFFF
310
FFFFFFFFFFFFFFFFFFFFFFFFFFFFFFFFFFFFFFFFFFFFFFFFFFFFFFFFFFFFFFFF
310
FFFFFFFFFFFFFFFFFFFFFFFFFFFFFFFFFFFFFFFFFFFFFFFFFFFFFFFFFFFFFFFF
310
FFFFFFFFFFFFFFFFFFFFFFFFFFFFFFFFFFFFFFFFFFFFFFFFFFFFFFFFFFFFFFFF
310
52006F006F007400200045006E00740072007900000000000000000000000000
310
0000000000000000000000000000000000000000000000000000000000000000
310
16000500FFFFFFFFFFFFFFFF020000000A00030000000000C000000000000046
310
000000000000000000000000B05934BCA308CB0103000000C000000000000000
310
01004F006C006500000000000000000000000000000000000000000000000000
310
0000000000000000000000000000000000000000000000000000000000000000
310
0A000200FFFFFFFFFFFFFFFFFFFFFFFF00000000000000000000000000000000
310
0000000000000000000000000000000000000000000000001400000000000000
310
010043006F006D0070004F0062006A0000000000000000000000000000000000
310
0000000000000000000000000000000000000000000000000000000000000000
310
120002010100000003000000FFFFFFFF00000000000000000000000000000000
310
0000000000000000000000000000000000000000010000004D00000000000000
310
01004F006C006500310030004E00610074006900760065000000000000000000
310
0000000000000000000000000000000000000000000000000000000000000000
310
1A000200FFFFFFFFFFFFFFFFFFFFFFFF00000000000000000000000000000000
310
0000000000000000000000000000000000000000040000002426000000000000
310
FEFFFFFF02000000FEFFFFFFFFFFFFFFFFFFFFFFFFFFFFFFFFFFFFFFFFFFFFFF
310
FFFFFFFFFFFFFFFFFFFFFFFFFFFFFFFFFFFFFFFFFFFFFFFFFFFFFFFFFFFFFFFF
310
FFFFFFFFFFFFFFFFFFFFFFFFFFFFFFFFFFFFFFFFFFFFFFFFFFFFFFFFFFFFFFFF
310
FFFFFFFFFFFFFFFFFFFFFFFFFFFFFFFFFFFFFFFFFFFFFFFFFFFFFFFFFFFFFFFF
310
FFFFFFFFFFFFFFFFFFFFFFFFFFFFFFFFFFFFFFFFFFFFFFFFFFFFFFFFFFFFFFFF
310
FFFFFFFFFFFFFFFFFFFFFFFFFFFFFFFFFFFFFFFFFFFFFFFFFFFFFFFFFFFFFFFF
310
FFFFFFFFFFFFFFFFFFFFFFFFFFFFFFFFFFFFFFFFFFFFFFFFFFFFFFFFFFFFFFFF
310
FFFFFFFFFFFFFFFFFFFFFFFFFFFFFFFFFFFFFFFFFFFFFFFFFFFFFFFFFFFFFFFF
310
FFFFFFFFFFFFFFFFFFFFFFFFFFFFFFFFFFFFFFFFFFFFFFFFFFFFFFFFFFFFFFFF
310
FFFFFFFFFFFFFFFFFFFFFFFFFFFFFFFFFFFFFFFFFFFFFFFFFFFFFFFFFFFFFFFF
310
FFFFFFFFFFFFFFFFFFFFFFFFFFFFFFFFFFFFFFFFFFFFFFFFFFFFFFFFFFFFFFFF
310
FFFFFFFFFFFFFFFFFFFFFFFFFFFFFFFFFFFFFFFFFFFFFFFFFFFFFFFFFFFFFFFF
310
FFFFFFFFFFFFFFFFFFFFFFFFFFFFFFFFFFFFFFFFFFFFFFFFFFFFFFFFFFFFFFFF
310
FFFFFFFFFFFFFFFFFFFFFFFFFFFFFFFFFFFFFFFFFFFFFFFFFFFFFFFFFFFFFFFF
310
FFFFFFFFFFFFFFFFFFFFFFFFFFFFFFFFFFFFFFFFFFFFFFFFFFFFFFFFFFFFFFFF
310
FFFFFFFFFFFFFFFFFFFFFFFFFFFFFFFFFFFFFFFFFFFFFFFFFFFFFFFFFFFFFFFF
310
0100000200000000000000000000000000000000C0AB1635B8CB9A1A10B01635
310
D0AD163548CC9A1A98AF163508AF1635A0AA163558AA1635E8CB9A1A58CE9A1A
310
0100FEFF030A0000FFFFFFFF0A00030000000000C00000000000004607000000
310
5042727573680007000000504272757368000700000050427275736800F439B2
310
71000000000000000000000000CA613538CE6135280D6A3500D0613598CB6135
310
60D0613510D26135F80C6A35C80C6A3598894435C8096A35909A663500946635
310
E8594135A80E6A35380F6A3518874435900E8B1AA0A44435305B6935505F6935
310
58DE613580A56635F8DD613500A94435680F6A3528DE6135480E6A3588DE6135
310
70DE6135780E6A35A0DE6135B8DE6135D0DE6135E8DE6135880D6A35E80A6A35
310
38A84435580A6A3510A56635B8A5663560604135C80F6A35880A6A3528A94435
310
6842A31AF0C22135705E6935105D693568CB6135D89D663530DF6135E8F35C35
310
98156A3548DF6135480B6A35B0CE613580E0613588FE693500E2613578DF6135
310
C0D06135B8E1613568006A3528016A3528F05C35A80B6A3540996635509C6635
310
785A4135380C6A35C8FD6935E0F15C35B8C71800D0ED5C355066693530666935
310
A8A27035D8A4663508A37035707B6035D0637435F0A27035F064743538A37035
310
50A370359061743568A3703580A3703598A37035B0A37035C064743590647435
310
20260000424D0E260000000000003E00000028000000B40200006E0000000100
310
01000000000000000000130B0000130B00000200000002000000000000FFFFFF
310
FFFFFFFFFFFFFFFFFFFFFFFFFFFFFFFFFFFFFFFFFFFFFFFFFFFFFFFFFFFFFFFF
310
FFFFFFFFFFFFFFFFFFFFFFFFFFFFFFFFFFFFFFFFFFFFFFFFFFFFFFFFFFFFFFFF
310
FFFFFFFFFFFFFFFFFFFFFFFFFFFFFFFFFFFFFFFFFFFFFFFFF000FFFFFFFFFFFF
310
FFFFFFFFFFFFFFFFFFFFFFFFFFFFFFFFFFFFFFFFFFFFFFFFFFFFFFFFFFFFFFFF
310
FFFFFFFFFFFFFFFFFFFFFFFFFFFFFFFFFFFFFFFFFFFFFFFFFFFFFFFFFFFFFFFF
310
FFFFFFFFFFFFFFFFFFFFFFFFFFFFFFFFF000FFFFFFFFFFFFFFFFFFFFFFFFFFFF
310
FFFFFFFFFFFFFFFFFFFFFFFFFFFFFFFFFFFFFFFFFFFFFFFFFFFFFFFFFFFFFFFF
310
FFFFFFFFFFFFFFFFFFFFFFFFFFFFFFFFFFFFFFFFFFFFFFFFFFFFFFFFFFFFFFFF
310
FFFFFFFFFFFFFFFFF000FFFFFFFFFFFFFFFFFFFFFFFFFFFFFFFFFFFFFFFFFFFF
310
FFFFFFFFFFFFFFFFFFFFFFFFFFFFFFFFFFFFFFFFFFFFFFFFFFFFFFFFFFFFFFFF
310
FFFFFFFFFFFFFFFFFFFFFFFFFFFFFFFFFFFFFFFFFFFFFFFFFFFFFFFFFFFFFFFF
310
F000FFFFFFFFFFFFFFFFFFFFFFFFFFFFFFFFFFFFFFFFFFFFFFFFFFFFFFFFFFFF
310
FFFFFFFFFFFFFFFFFFFFFFFFFFFFFFFFFFFFFFFFFFFFFFFFFFFFFFFFFFFFFFFF
310
FFFFFFFFFFFFFFFFFFFFFFFFFFFFFFFFFFFFFFFFFFFFFFFFF000FFFFFFFFFFFF
310
FFFFFFFFFFFFFFFFFFFFFFFFFFFFFFFFFFFFFFFFFFFFFFFFFFFFFFFFFFFFFFFF
310
FFFFFFFFFFFFFFFFFFFFFFFFFFFFFFFFFFFFFFFFFFFFFFFFFFFFFFFFFFFFFFFF
310
FFFFFFFFFFFFFFFFFFFFFFFFFFFFFFFFF000FFFFFFFFFFFFFFFFFFFFFFFFFFFF
310
FFFFFFFFFFFFFFFFFFFFFFFFFFFFFFFFFFFFFFFFFFFFFFFFFFFFFFFFFFFFFFFF
310
FFFFFFFFFFFFFFFFFFFFFFFFFFFFFFFFFFFFFFFFFFFFFFFFFFFFFFFFFFFFFFFF
310
FFFFFFFFFFFFFFFFF000FFFFFFFFFFFFFFFFFFFFFFFFFFFFFFFFFFFFFFFFFFFF
310
FFFFFFFFFFFFFFFFFFFFFFFFFFFFFFFFFFFFFFFFFFFFFFFFFFFFFFFFFFFFFFFF
310
FFFFFFFFFFFFFFFFFFFFFFFFFFFFFFFFFFFFFFFFFFFFFFFFFFFFFFFFFFFFFFFF
310
F000FFFFFFFFFFFFFFFFFFFFFFFFFFFFFFFFFFFFFFFFFFFFFFFFFFFFFFFFFFFF
310
FFFFFFFFFFFFFFFFFFFFFFFFFFFFFFFFFFFFFFFFFFFFFFFFFFFFFFFFFFFFFFFF
310
FFFFFFFFFFFFFFFFFFFFFFFFFFFFFFFFFFFFFFFFFFFFFFFFF000FFFFFFFFFFFF
310
FFFFFFFFFFFFFFFFFFFFFFFFFFFFFFFFFFFFFFFFFFFFFFFFFFFFFFFFFFFFFFFF
310
FFFFFFFFFFFFFFFFFFFFFFFFFFFFFFFFFFFFFFFFFFFFFFFFFFFFFFFFFFFFFFFF
310
FFFFFFFFFFFFFFFFFFFFFFFFFFFFFFFFF000FFFFFFFFFFFFFFFFFFFFFFFFFFFF
310
FFFFFFFFFFFFFFFFFFFFFFFFFFFFFFFFFFFFFFFFFFFFFFFFFFFFFFFFFFFFFFFF
310
FFFFFFFFFFFFFFFFFFFFFFFFFFFFFFFFFFFFFFFFFFFFFFFFFFFFFFFFFFFFFFFF
310
FFFFFFFFFFFFFFFFF000FFFFFFFFFFFFFFFFFFFFFFFFFFFFFFFFFFFFFFFFFFFF
310
FFFFFFFFFFFFFFFFFFFFFFFFFFFFFFFFFFFFFFFFFFFFFFFFFFFFFFFFFFFFFFFF
310
FFFFFFFFFFFFFFFFFFFFFFFFFFFFFFFFFFFFFFFFFFFFFFFFFFFFFFFFFFFFFFFF
310
F000FFFFFFFFFFFFFFFFFFFFFFFFFFFFFFFFFFFFFFFFFFFFFFFFFFFFFFFFFFFF
310
FFFFFFFFFFFFFFFFFFFFFFFFFFFFFFFFFFFFFFFFFFFFFFFFFFFFFFFFFFFFFFFF
310
FFFFFFFFFFFFFFFFFFFFFFFFFFFFFFFFFFFFFFFFFFFFFFFFF000FFFFFFFFFFFF
310
FFFFFFFFFFFFFFFFFFFFFFFFFFFFFFFFFFFFFFFFFFFFFFFFFFFFFFFFFFFFFFFF
310
FFFFFFFFFFFFFFFFFFFFFFFFFFFFFFFFFFFFFFFFFFFFFFFFFFFFFFFFFFFFFFFF
310
FFFFFFFFFFFFFFFFFFFFFFFFFFFFFFFFF000FFFFFFFFFFFFFFFFFFFFFFFFFFFF
310
FFFFFFFFFFFFFFFFFFFFFFFFFFFFFFFFFFFFFFFFFFFFFFFFFFFFFFFFFFFFFFFF
310
FFFFFFFFFFFFFFFFFFFFFFFFFFFFFFFFFFFFFFFFFFFFFFFFFFFFFFFFFFFFFFFF
310
FFFFFFFFFFFFFFFFF000FFFFFFFFFFFFFFFFFFFFFFFFFFFFFFFFFFFFFFFFFFFF
310
FFFFFFFFFFFFFFFFFFFFFFFFFFFFFFFFFFFFFFFFFFFFFFFFFFFFFFFFFFFFFFFF
310
FFFFFFFFFFFFFFFFFFFFFFFFFFFFFFFFFFFFFFFFFFFFFFFFFFFFFFFFFFFFFFFF
310
F000FFFFFFFFFFFFFFFFFFFFFFFFFFFFFFFFFFFFFFFFFFFFFFFFFFFFFFFFFFFF
310
FFFFFFFFFFFFFFFFFFFFFFFFFFFFFFFFFFFFFFFFFFFFFFFFFFFFFFFFFFFFFFFF
310
FFFFFFFFFFFFFFFFFFFFFFFFFFFFFFFFFFFFFFFFFFFFFFFFF000FFFFFFFFFFFF
310
FFFFFFFFFFFFFFFFFFFFFFFFFFFFFFFFFFFFFFFFFFFFFFFFFFFFFFFFFFFFFFFF
310
FFFFFFFFFFFFFFFFFFFFFFFFFFFFFFFFFFFFFFFFFFFFFFFFFFFFFFFFFFFFFFFF
310
FFFFFFFFFFFFFFFFFFFFFFFFFFFFFFFFF000FFFFFFFFFFFFFFFFFFFFFFFFFFFF
310
FFFFFFFFFFFFFFFFFFFFFFFFFFFFFFFFFFFFFFFFFFFFFFFFFFFFFFFFFFFFFFFF
310
FFFFFFFFFFFFFFFFFFFFFFFFFFFFFFFFFFFFFFFFFFFFFFFFFFFFFFFFFFFFFFFF
310
FFFFFFFFFFFFFFFFF000FFFFF80003FFFFFFFFFFFFFFFFFFFFFFFFFFFFFFFFFF
310
FFFFF00007FFFFFFFFFF00007FFFFFF800000000000000007FFFFFFFFFFFFFFF
310
FFFFFFFC001FFFFFFFFFFFFFFC001FFFFFFFFFFFFFFFFFFFFFFFFFFE0007FFFF
310
F000FFFF8000007FFFFFFFF8000FFFFFC0007FFFFF80007FFFFF0000007FFFFF
310
FFF8000007FFFFF800000000000000007FFFFFF0001FFFFFFFFFFFC00001FFFF
310
FFFFFFFFC00001FFFFFFFF000000000003FFFFE000007FFFF000FFFE0000000F
310
FFFFFFF0000FFFFF80007FFFFF80007FFFFC0000001FFFFFFFC0000001FFFFF8
310
00000000000000007FFFFFF0001FFFFFFFFFFE0000003FFFFFFFFFFE0000003F
310
FFFFFF000000000003FFFF0000000FFFF000FFF800000003FFFFFFF00007FFFF
310
80007FFFFF80007FFFF000000007FFFFFF000000003FFFF80000000000000000
310
7FFFFFF0001FFFFFFFFFF80000000FFFFFFFFFF80000000FFFFFFF0000000000
310
03FFFC00000003FFF000FFE000000000FFFFFFF00007FFFF80003FFFFF80007F
310
FFC000000001FFFFFC000000001FFFF800000000000000007FFFFFF0001FFFFF
310
FFFFE000000003FFFFFFFFE000000003FFFFFF000000000003FFF000000000FF
310
F000FF80000000007FFFFFF00007FFFF80003FFFFF80007FFF8000000000FFFF
310
F80000000007FFF800000000000000007FFFFFF0001FFFFFFFFFC000000001FF
310
FFFFFFC000000001FFFFFF000000000003FFC0000000007FF000FF0000000000
310
3FFFFFE00007FFFF00003FFFFF80007FFE00000000003FFFF00000000003FFF8
310
00000000000000007FFFFFF0001FFFFFFFFF8000000000FFFFFFFF8000000000
310
FFFFFF000000000003FF80000000003FF000FE00000000001FFFFFE00003FFFF
310
00003FFFFF80007FFC00000000001FFFE00000000001FFF8000001FFFE000000
310
7FFFFFF0001FFFFFFFFE00000000003FFFFFFE00000000003FFFFF0000000000
310
03FF00000000001FF000FC00000000000FFFFFE00003FFFF00001FFFFF80007F
310
F800000000001FFFC00000000000FFF8000001FFFE0000007FFFFFF0001FFFFF
310
FFFC00000000001FFFFFFC00000000001FFFFF000000000003FE00000000000F
310
F000F8000000000007FFFFE00003FFFF00001FFFFF80007FF800000000000FFF
310
800000000000FFF8000001FFFE0000007FFFFFF0001FFFFFFFF800000000000F
310
FFFFF800000000000FFFFF000000000003FC000000000007F000F80000000000
310
03FFFFC00003FFFE00001FFFFF80007FF0000000000007FF0000000000007FF8
310
000001FFFE0000007FFFFFF0001FFFFFFFF0000000000007FFFFF00000000000
310
07FFFF000000000003F8000000000003F000F0000000000003FFFFC00001FFFE
310
00001FFFFF80007FE0000000000007FE0000000000003FF8000001FFFE000000
310
7FFFFFF0001FFFFFFFF0000000000007FFFFF0000000000007FFFF0000000000
310
03F800001F800003F000E00001FFF00001FFFFC00001FFFE00000FFFFF80007F
310
E00001FFE00003FE00001FFF00003FF8000001FFFE0000007FFFFFF0001FFFFF
310
FFE000003E000003FFFFE000003E000003FFFF000000000003F00001FFF80001
310
F000E00007FFFC0001FFFFC00001FFFE00000FFFFF80007FC0000FFFFC0003FC
310
0000FFFFC0001FF8000001FFFE0000007FFFFFF0001FFFFFFFC00003FFE00001
310
FFFFC00003FFE00001FFFF0001FFFFFFFFF00007FFFE0001F000E0000FFFFF00
310
00FFFF800001FFFC00000FFFFF80007FC0001FFFFE0001FC0001FFFFE0001FF8
310
000001FFFE0000007FFFFFF0001FFFFFFF80000FFFF80000FFFF80000FFFF800
310
00FFFF0003FFFFFFFFE0000FFFFF8000F000C0003FFFFF8000FFFF800000FFFC
310
000007FFFF80007F80003FFFFF0001FC0003FFFFF0001FF8000001FFFE000000
310
7FFFFFF0001FFFFFFF80003FFFFE0000FFFF80003FFFFE0000FFFF0003FFFFFF
310
FFE0003FFFFF8000F000C0003FFFFF8000FFFF800000FFFC000007FFFF80007F
310
80007FFFFF8001F80007FFFFF8000FF8000001FFFE0000007FFFFFF0001FFFFF
310
FF00007FFFFF00007FFF00007FFFFF00007FFF0003FFFFFFFFE0003FFFFFC000
310
F000C0007FFFFFC000FFFF000000FFFC000007FFFF80007F8000FFFFFF8000F8
310
000FFFFFF8000FF8000001FFFE0000007FFFFFF0001FFFFFFF0000FFFFFF8000
310
7FFF0000FFFFFF80007FFF0003FFFFFFFFC0007FFFFFC00070008000FFFFFFC0
310
00FFFF000000FFF8000007FFFF80007F8000FFFFFF8000F8000FFFFFF8000FF8
310
000001FFFE0000007FFFFFF0001FFFFFFE0001FFFFFFC0003FFE0001FFFFFFC0
310
003FFF0003FFFFFFFFC0007FFFFFE00070008000FFFFFFC0007FFF0000007FF8
310
000003FFFF80007F0001FFFFFF8000F8000FFFFFF8000FF8000001FFFE000000
310
7FFFFFF0001FFFFFFE0001FFFFFFC0003FFE0001FFFFFFC0003FFF0003FFFFFF
310
FFC000FFFFFFE00070008000FFFFFFC0007FFF0000007FF8000003FFFF80007F
310
0001FFFFFF8000F8001FFFFFF8000FF8000001FFFE0000007FFFFFF0001FFFFF
310
FE0003FFFFFFE0003FFE0003FFFFFFE0003FFF0003FFFFFFFFC000FFFFFFE000
310
70008000FFFFFFC0007FFE0000007FF8000003FFFF80007F0001FFFFFF8000F0
310
001FFFFFF8000FF8000001FFFE0000007FFFFFF0001FFFFFFC0003FFFFFFE000
310
1FFC0003FFFFFFE0001FFF0003FFFFFFFFC000FFFFFFC00070008000FFFFFF80
310
007FFE0000007FF0000003FFFF80007F0001FFFFFF0000F0001FFFFFF8000FF8
310
000001FFFE0000007FFFFFF0001FFFFFFC0007FFFFFFF0001FFC0007FFFFFFF0
310
001FFF0003FFFFFFFFC000FFFFFFC00070008001FFFFFF0000FFFE0000003FF0
310
000001FFFF80007F0001FFFFFF0000F8001FFFFFF0000FF8000001FFFE000000
310
7FFFFFF0001FFFFFFC0007FFFFFFF0001FFC0007FFFFFFF0001FFF0003FFFFFF
310
FFC001FFFFFF80007000FFFFFFFFFE0000FFFE0008003FF0008001FFFF80007F
310
FFFFFFFFFC0000FFFFFFFFFFE0000FF8000001FFFE0000007FFFFFF0001FFFFF
310
F8000FFFFFFFF8000FF8000FFFFFFFF8000FFF0003FFFFFFFFFFFFFFFFFF0000
310
7000FFFFFFFFFC0000FFFC0008003FF0008001FFFF80007FFFFFFFFFF80001FF
310
FFFFFFFF80000FF8000001FFFE0000007FFFFFF0001FFFFFF8000FFFFFFFF800
310
0FF8000FFFFFFFF8000FFF0003FFFFFFFFFFFFFFFFFE0000F000FFFFFFFFE000
310
00FFFC000C003FE000C001FFFF80007FFFFFFFFFC00001FFFFFFFFFE00001FF8
310
000001FFFE0000007FFFFFF0001FFFFFF8000FFFFFFFF8000FF8000FFFFFFFF8
310
000FFF0003FFFFFFFFFFFFFFFFF00000F000FFFFFFFE000001FFFC000C001FE0
310
00C000FFFF80007FFFFFFFFE000001FFFFFFFFE000001FF80FFFFFFFFFFFFFC0
310
7FFFFFF0001FFFFFF8000FFFFFFFF8000FF8000FFFFFFFF8000FFF0003FFFFFF
310
FFFFFFFFFF800000F000FFFFFFC0000001FFFC001C001FE001C000FFFF80007F
310
FFFFFF80000003FFFFFFF80000001FF80FFFFFFFFFFFFFC07FFFFFF0001FFFFF
310
F8001FFFFFFFFC000FF8001FFFFFFFFC000FFF0003FFFFFFFFFFFFFFF0000001
310
F000FFFFF800000001FFF8001C001FE001C000FFFF80007FFFFFF800000003FF
310
FFFF800000003FF80FFFFFFFFFFFFFC07FFFFFF0001FFFFFF8001FFFFFFFFC00
310
0FF8001FFFFFFFFC000FFF0003FFFFFFFFFFFFFE00000001F000FFFFC0000000
310
03FFF8001E001FC001E000FFFF80007FFFFF8000000007FFFFFC000000003FF8
310
0FFFFFFFFFFFFFC07FFFFFF0001FFFFFF8001FFFFFFFFC000FF8001FFFFFFFFC
310
000FFF0003FFFFFFFFFFFFE000000003F000FFFE0000000007FFF8001E000FC0
310
01E0007FFF80007FFFFE0000000007FFFFE0000000007FF80FFFFFFFFFFFFFC0
310
7FFFFFF0001FFFFFF0001FFFFFFFFC0007F0001FFFFFFFFC0007FF0003FFFFFF
310
FFFFFF0000000003F000FFF80000000007FFF8001E000FC003E0007FFF80007F
310
FFF0000000000FFFFF8000000000FFF80FFFFFFFFFFFFFC07FFFFFF0001FFFFF
310
F0001FFFFFFFFC0007F0001FFFFFFFFC0007FF0003FFFFFFFFFFFC0000000007
310
F000FFE0000000000FFFF0003E000FC003E0007FFF80007FFFC0000000001FFF
310
FE0000000001FFF80FFFFFFFFFFFFFC07FFFFFF0001FFFFFF0001FFFFFFFFC00
310
07F0001FFFFFFFFC0007FF0003FFFFFFFFFFF0000000000FF000FFC000000000
310
1FFFF0003F000F8003F0003FFF80007FFF80000000003FFFF80000000003FFF8
310
0FFFFFFFFFFFFFC07FFFFFF0001FFFFFF0001FFFFFFFFC0007F0001FFFFFFFFC
310
0007FF0003FFFFFFFFFFE0000000001FF000FF00000000007FFFF0003F000780
310
03F0003FFF80007FFF00000000007FFFF00000000007FFF80FFFFFFFFFFFFFC0
310
7FFFFFF0001FFFFFF0001FFFFFFFFC0007F0001FFFFFFFFC0007FF0003FFFFFF
310
FFFF80000000007FF000FE0000000000FFFFE0003F00078007F0003FFF80007F
310
FE0000000001FFFFE0000000001FFFF80FFFFFFFFFFFFFC07FFFFFF0001FFFFF
310
F0001FFFFFFFFC0007F0001FFFFFFFFC0007FF0003FFFFFFFFFF0000000000FF
310
F000FC0000000003FFFFE0007F00078007F0003FFF80007FFC0000000007FFFF
310
C0000000007FFFF80FFFFFFFFFFFFFC07FFFFFF0001FFFFFF8001FFFFFFFFC00
310
0FF8001FFFFFFFFC000FFF0003FFFFFFFFFE0000000003FFF000FC000000000F
310
FFFFE0007F80070007F8001FFF80007FF8000000001FFFFF8000000001FFFFF8
310
0FFFFFFFFFFFFFC07FFFFFF0001FFFFFF8001FFFFFFFFC000FF8001FFFFFFFFC
310
000FFF0003FFFFFFFFFC000000000FFFF000F8000000007FFFFFE0007F800700
310
07F8001FFF80007FF000000000FFFFFF800000000FFFFFF80FFFFFFFFFFFFFC0
310
7FFFFFF0001FFFFFF8000FFFFFFFF8000FF8000FFFFFFFF8000FFF0003FFFFFF
310
FFFC000000007FFFF000F800000007FFFFFFC0007F8003000FF8001FFF80007F
310
F000000007FFFFFF000000007FFFFFF80FFFFFFFFFFFFFC07FFFFFF0001FFFFF
310
F8000FFFFFFFF8000FF8000FFFFFFFF8000FFF0003FFFFFFFFF80000000FFFFF
310
F000F0000000FFFFFFFFC000FF8003000FF8001FFF80007FE0000000FFFFFFFF
310
0000000FFFFFFFF8000001FFFE0000007FFFFFF0001FFFFFF8000FFFFFFFF800
310
0FF8000FFFFFFFF8000FFF0003FFFFFFFFF8000000FFFFFFF000F000000FFFFF
310
FFFFC000FFC002000FF8000FFF80007FE000001FFFFFFFFE000001FFFFFFFFF8
310
000001FFFE0000007FFFFFF0001FFFFFF8000FFFFFFFF8000FF8000FFFFFFFF8
310
000FFF0003FFFFFFFFF000001FFFFFFFF000E00000FFFFFFFFFFC000FFC00200
310
0FFC000FFF80007FE00001FFFFFFFFFE00001FFFFFFFFFF8000001FFFE000000
310
7FFFFFF0001FFFFFFC000FFFFFFFF8001FFC000FFFFFFFF8001FFF0003FFFFFF
310
FFF00001FFFFFFFFF000E00007FFFFFFFFFF8000FFC000001FFC000FFF80007F
310
C0000FFFFFFFFFFE0000FFFFFFFFFFF8000001FFFE0000007FFFFFF0001FFFFF
310
FC0007FFFFFFF0001FFC0007FFFFFFF0001FFF0003FFFFFFFFF00007FFFFFFFF
310
F000E0001FFFFFFFFFFF8000FFC000001FFC000FFF80007FC0003FFFFFFFFFFE
310
0001FFFFFFFFFFF8000001FFFE0000007FFFFFF0001FFFFFFC0007FFFFFFF000
310
1FFC0007FFFFFFF0001FFF0003FFFFFFFFF0001FFFFFFFFFF000E0003FFFFF00
310
03FF8001FFE000001FFC0007FF80007FC0007FFFFF0007FC0003FFFFF0003FF8
310
000001FFFE0000007FFFFFF0001FFFFFFC0003FFFFFFE0001FFC0003FFFFFFE0
310
001FFF0003FFFFFFFFF0003FFFFFFFFFF000E0003FFFFF0001FF8001FFE00000
310
1FFE0007FF80007FC0007FFFFE0003FC0007FFFFE0003FF8000001FFFE000000
310
7FFFFFF0001FFFFFFE0003FFFFFFE0003FFE0003FFFFFFE0003FFF0003FFFFFF
310
FFF0003FFFFF8001F000E0003FFFFF0001FF0001FFE000001FFE0007FF80007F
310
C0007FFFFE0003FC0007FFFFE0003FF8000001FFFE0000007FFFFFF0001FFFFF
310
FE0001FFFFFFC0003FFE0001FFFFFFC0003FFF0003FFFFFFFFF0003FFFFF0001
310
F000E0003FFFFF0003FF0001FFE000003FFE0007FF80007FC0007FFFFE0003FC
310
0007FFFFE0003FF8000001FFFE0000007FFFFFF0001FFFFFFF0001FFFFFFC000
310
7FFF0001FFFFFFC0007FFF0003FFFFFFFFF0003FFFFF0001F000E0003FFFFE00
310
03FF0003FFF000003FFE0003FF80007FC0007FFFFC0003FE0007FFFFE0003FF8
310
000001FFFE0000007FFFFFF0001FFFFFFF0000FFFFFF80007FFF0000FFFFFF80
310
007FFF0003FFFFFFFFF0003FFFFF0001F000E0003FFFFE0003FF0003FFF00000
310
3FFF0003FF80007FC0007FFFFC0007FE0007FFFFC0003FF8000001FFFE000000
310
7FFFFFF0001FFFFFFF80007FFFFF0000FFFF80007FFFFF0000FFFF0003FFFFFF
310
FFF0003FFFFF0003F000E0003FFFFC0003FE0003FFF000003FFF0003FF80007F
310
E0003FFFF80007FE0003FFFFC0007FF8000001FFFE0000007FFFFFF0001FFFFF
310
FF80003FFFFE0000FFFF80003FFFFE0000FFFF0003FFFFFFFFF0001FFFFE0003
310
F000F0001FFFF80003FE0003FFF000007FFF0001FF80007FE0003FFFF00007FE
310
0001FFFF80007FF8000001FFFE0000007FFFFFF0001FFFFFFFC0000FFFF80001
310
FFFFC0000FFFF80001FFFF0003FFFFFFFFF0001FFFFC0003F000F0000FFFF000
310
07FE0007FFF800007FFF0001FF80007FE0001FFFE00007FF0000FFFE00007FF8
310
000001FFFE0000007FFFFFF0001FFFFFFFC00003FFE00001FFFFC00003FFE000
310
01FFFF0003FFFFFFFFF8000FFFF80003F000F00003FFC00007FC0007FFF80000
310
7FFF8001FF80007FF00007FF80000FFF00007FF80000FFF8000001FFFE000000
310
7F80000000000001FFE000003E000003FFFFE000003E000003FFFF0003FFFFFF
310
FFF80003FFE00007F000F800000000000FFC0007FFF800007FFF8001FF80007F
310
F000000000000FFF000000000000FFF8000001FFFE0000007F80000000000001
310
FFF0000000000007FFFFF0000000000007FFFF0003FFFFFFFFFC00007E000007
310
F000F800000000000FFC0007FFF80000FFFF8000FF80007FF800000000001FFF
310
800000000001FFF8000001FFFE0000007F80000000000001FFF800000000000F
310
FFFFF800000000000FFFFF0003FFFFFFFFFC00000000000FF000FC0000000000
310
1FFC0007FFFC0000FFFF8000FF80007FF800000000003FFFC00000000001FFF8
310
000001FFFE0000007F80000000000001FFF800000000000FFFFFF80000000000
310
0FFFFF0003FFFFFFFFFE00000000001FF000FE00000000003FF8000FFFFC0000
310
FFFF8000FF80007FFC00000000003FFFC00000000003FFF8000001FFFE000000
310
7F80000000000001FFFC00000000001FFFFFFC00000000001FFFFF0003FFFFFF
310
FFFF00000000001FF000FF00000000003FF8000FFFFC0000FFFFC000FF80007F
310
FE00000000007FFFE00000000007FFF8000001FFFE0000007F80000000000001
310
FFFE00000000003FFFFFFE00000000003FFFFF0003FFFFFFFFFF80000000003F
310
F000FF80000000007FF8000FFFFC0001FFFFC0007F80007FFF0000000000FFFF
310
F0000000000FFFF800000000000000007F80000000000001FFFF8000000000FF
310
FFFFFF8000000000FFFFFF0003FFFFFFFFFFC0000000007FF000FFC000000000
310
FFF8000FFFFE0001FFFFC0007F80007FFF8000000001FFFFF8000000001FFFF8
310
00000000000000007F80000000000001FFFFC000000001FFFFFFFFC000000001
310
FFFFFF0003FFFFFFFFFFE000000000FFF000FFE000000003FFF0001FFFFE0001
310
FFFFC0007F80007FFFC000000007FFFFFE000000003FFFF80000000000000000
310
7F80000000000001FFFFE000000003FFFFFFFFE000000003FFFFFF0003FFFFFF
310
FFFFF000000003FFF000FFF80000000FFFF0001FFFFE0001FFFFE0007F80007F
310
FFF00000000FFFFFFF00000000FFFFF800000000000000007F80000000000001
310
FFFFF80000000FFFFFFFFFF80000000FFFFFFF0003FFFFFFFFFFFC0000000FFF
310
F000FFFE0000003FFFF0001FFFFE0003FFFFE0003F80007FFFFC0000003FFFFF
310
FFC0000003FFFFF800000000000000007F80000000000001FFFFFE0000003FFF
310
FFFFFFFE0000003FFFFFFF0003FFFFFFFFFFFF0000003FFFF000FFFF800000FF
310
FFF0001FFFFF0003FFFFE0003F80007FFFFF000001FFFFFFFFF800001FFFFFF8
310
00000000000000007F80000000000001FFFFFFC00001FFFFFFFFFFFFC00001FF
310
FFFFFF0003FFFFFFFFFFFFC00000FFFFF000FFFFF8000FFFFFFFFFFFFFFFFFFF
310
FFFFFFFFFFFFFFFFFFFFF0001FFFFFFFFFFF0000FFFFFFF80000000000000000
310
7FFFFFFFFFFFFFFFFFFFFFFC001FFFFFFFFFFFFFFC001FFFFFFFFFFFFFFFFFFF
310
FFFFFFFC001FFFFFF000FFFFFFFFFFFFFFFFFFFFFFFFFFFFFFFFFFFFFFFFFFFF
310
FFFFFFFFFFFFFFFFFFFFFFFFFFFFFFFFFFFFFFFFFFFFFFFFFFFFFFFFFFFFFFFF
310
FFFFFFFFFFFFFFFFFFFFFFFFFFFFFFFFFFFFFFFFFFFFFFFFFFFFFFFFFFFFFFFF
310
F000FFFFFFFFFFFFFFFFFFFFFFFFFFFFFFFFFFFFFFFFFFFFFFFFFFFFFFFFFFFF
310
FFFFFFFFFFFFFFFFFFFFFFFFFFFFFFFFFFFFFFFFFFFFFFFFFFFFFFFFFFFFFFFF
310
FFFFFFFFFFFFFFFFFFFFFFFFFFFFFFFFFFFFFFFFFFFFFFFFF000FFFFFFFFFFFF
310
FFFFFFFFFFFFFFFFFFFFFFFFFFFFFFFFFFFFFFFFFFFFFFFFFFFFFFFFFFFFFFFF
310
FFFFFFFFFFFFFFFFFFFFFFFFFFFFFFFFFFFFFFFFFFFFFFFFFFFFFFFFFFFFFFFF
310
FFFFFFFFFFFFFFFFFFFFFFFFFFFFFFFFF000FFFFFFFFFFFFFFFFFFFFFFFFFFFF
310
FFFFFFFFFFFFFFFFFFFFFFFFFFFFFFFFFFFFFFFFFFFFFFFFFFFFFFFFFFFFFFFF
310
FFFFFFFFFFFFFFFFFFFFFFFFFFFFFFFFFFFFFFFFFFFFFFFFFFFFFFFFFFFFFFFF
310
FFFFFFFFFFFFFFFFF000FFFFFFFFFFFFFFFFFFFFFFFFFFFFFFFFFFFFFFFFFFFF
310
FFFFFFFFFFFFFFFFFFFFFFFFFFFFFFFFFFFFFFFFFFFFFFFFFFFFFFFFFFFFFFFF
310
FFFFFFFFFFFFFFFFFFFFFFFFFFFFFFFFFFFFFFFFFFFFFFFFFFFFFFFFFFFFFFFF
310
F000FFFFFFFFFFFFFFFFFFFFFFFFFFFFFFFFFFFFFFFFFFFFFFFFFFFFFFFFFFFF
310
FFFFFFFFFFFFFFFFFFFFFFFFFFFFFFFFFFFFFFFFFFFFFFFFFFFFFFFFFFFFFFFF
310
FFFFFFFFFFFFFFFFFFFFFFFFFFFFFFFFFFFFFFFFFFFFFFFFF000FFFFFFFFFFFF
310
FFFFFFFFFFFFFFFFFFFFFFFFFFFFFFFFFFFFFFFFFFFFFFFFFFFFFFFFFFFFFFFF
310
FFFFFFFFFFFFFFFFFFFFFFFFFFFFFFFFFFFFFFFFFFFFFFFFFFFFFFFFFFFFFFFF
310
FFFFFFFFFFFFFFFFFFFFFFFFFFFFFFFFF000FFFFFFFFFFFFFFFFFFFFFFFFFFFF
310
FFFFFFFFFFFFFFFFFFFFFFFFFFFFFFFFFFFFFFFFFFFFFFFFFFFFFFFFFFFFFFFF
310
FFFFFFFFFFFFFFFFFFFFFFFFFFFFFFFFFFFFFFFFFFFFFFFFFFFFFFFFFFFFFFFF
310
FFFFFFFFFFFFFFFFF000FFFFFFFFFFFFFFFFFFFFFFFFFFFFFFFFFFFFFFFFFFFF
310
FFFFFFFFFFFFFFFFFFFFFFFFFFFFFFFFFFFFFFFFFFFFFFFFFFFFFFFFFFFFFFFF
310
FFFFFFFFFFFFFFFFFFFFFFFFFFFFFFFFFFFFFFFFFFFFFFFFFFFFFFFFFFFFFFFF
310
F000FFFFFFFFFFFFFFFFFFFFFFFFFFFFFFFFFFFFFFFFFFFFFFFFFFFFFFFFFFFF
310
FFFFFFFFFFFFFFFFFFFFFFFFFFFFFFFFFFFFFFFFFFFFFFFFFFFFFFFFFFFFFFFF
310
FFFFFFFFFFFFFFFFFFFFFFFFFFFFFFFFFFFFFFFFFFFFFFFFF000FFFFFFFFFFFF
310
FFFFFFFFFFFFFFFFFFFFFFFFFFFFFFFFFFFFFFFFFFFFFFFFFFFFFFFFFFFFFFFF
310
FFFFFFFFFFFFFFFFFFFFFFFFFFFFFFFFFFFFFFFFFFFFFFFFFFFFFFFFFFFFFFFF
310
FFFFFFFFFFFFFFFFFFFFFFFFFFFFFFFFF000FFFFFFFFFFFFFFFFFFFFFFFFFFFF
310
FFFFFFFFFFFFFFFFFFFFFFFFFFFFFFFFFFFFFFFFFFFFFFFFFFFFFFFFFFFFFFFF
310
FFFFFFFFFFFFFFFFFFFFFFFFFFFFFFFFFFFFFFFFFFFFFFFFFFFFFFFFFFFFFFFF
310
FFFFFFFFFFFFFFFFF000FFFFFFFFFFFFFFFFFFFFFFFFFFFFFFFFFFFFFFFFFFFF
310
FFFFFFFFFFFFFFFFFFFFFFFFFFFFFFFFFFFFFFFFFFFFFFFFFFFFFFFFFFFFFFFF
310
FFFFFFFFFFFFFFFFFFFFFFFFFFFFFFFFFFFFFFFFFFFFFFFFFFFFFFFFFFFFFFFF
310
F000FFFFFFFFFFFFFFFFFFFFFFFFFFFFFFFFFFFFFFFFFFFFFFFFFFFFFFFFFFFF
310
FFFFFFFFFFFFFFFFFFFFFFFFFFFFFFFFFFFFFFFFFFFFFFFFFFFFFFFFFFFFFFFF
310
FFFFFFFFFFFFFFFFFFFFFFFFFFFFFFFFFFFFFFFFFFFFFFFFF000FFFFFFFFFFFF
310
FFFFFFFFFFFFFFFFFFFFFFFFFFFFFFFFFFFFFFFFFFFFFFFFFFFFFFFFFFFFFFFF
310
FFFFFFFFFFFFFFFFFFFFFFFFFFFFFFFFFFFFFFFFFFFFFFFFFFFFFFFFFFFFFFFF
310
FFFFFFFFFFFFFFFFFFFFFFFFFFFFFFFFF000FFFFFFFFFFFFFFFFFFFFFFFFFFFF
310
FFFFFFFFFFFFFFFFFFFFFFFFFFFFFFFFFFFFFFFFFFFFFFFFFFFFFFFFFFFFFFFF
310
FFFFFFFFFFFFFFFFFFFFFFFFFFFFFFFFFFFFFFFFFFFFFFFFFFFFFFFFFFFFFFFF
310
FFFFFFFFFFFFFFFFF000FFFFFFFFFFFFFFFFFFFFFFFFFFFFFFFFFFFFFFFFFFFF
310
FFFFFFFFFFFFFFFFFFFFFFFFFFFFFFFFFFFFFFFFFFFFFFFFFFFFFFFFFFFFFFFF
310
FFFFFFFFFFFFFFFFFFFFFFFFFFFFFFFFFFFFFFFFFFFFFFFFFFFFFFFFFFFFFFFF
310
F000FFFFFFFFFFFFFFFFFFFFFFFFFFFFFFFFFFFFFFFFFFFFFFFFFFFFFFFFFFFF
310
FFFFFFFFFFFFFFFFFFFFFFFFFFFFFFFFFFFFFFFFFFFFFFFFFFFFFFFFFFFFFFFF
310
FFFFFFFFFFFFFFFFFFFFFFFFFFFFFFFFFFFFFFFFFFFFFFFFF000FFFFFFFFFFFF
310
FFFFFFFFFFFFFFFFFFFFFFFFFFFFFFFFFFFFFFFFFFFFFFFFFFFFFFFFFFFFFFFF
310
FFFFFFFFFFFFFFFFFFFFFFFFFFFFFFFFFFFFFFFFFFFFFFFFFFFFFFFFFFFFFFFF
310
FFFFFFFFFFFFFFFFFFFFFFFFFFFFFFFFF000FFFFFFFFFFFFFFFFFFFFFFFFFFFF
310
FFFFFFFFFFFFFFFFFFFFFFFFFFFFFFFFFFFFFFFFFFFFFFFFFFFFFFFFFFFFFFFF
310
FFFFFFFFFFFFFFFFFFFFFFFFFFFFFFFFFFFFFFFFFFFFFFFFFFFFFFFFFFFFFFFF
310
FFFFFFFFFFFFFFFFF000FFFFFFFFFFFFFFFFFFFFFFFFFFFFFFFFFFFFFFFFFFFF
310
FFFFFFFFFFFFFFFFFFFFFFFFFFFFFFFFFFFFFFFFFFFFFFFFFFFFFFFFFFFFFFFF
310
FFFFFFFFFFFFFFFFFFFFFFFFFFFFFFFFFFFFFFFFFFFFFFFFFFFFFFFFFFFFFFFF
310
F000FFFFFFFFFFFFFFFFFFFFFFFFFFFFFFFFFFFFFFFFFFFFFFFFFFFFFFFFFFFF
310
FFFFFFFFFFFFFFFFFFFFFFFFFFFFFFFFFFFFFFFFFFFFFFFFFFFFFFFFFFFFFFFF
310
FFFFFFFFFFFFFFFFFFFFFFFFFFFFFFFFFFFFFFFFFFFFFFFFF000FFFFFFFFFFFF
310
FFFFFFFFFFFFFFFFFFFFFFFFFFFFFFFFFFFFFFFFFFFFFFFFFFFFFFFFFFFFFFFF
310
FFFFFFFFFFFFFFFFFFFFFFFFFFFFFFFFFFFFFFFFFFFFFFFFFFFFFFFFFFFFFFFF
310
FFFFFFFFFFFFFFFFFFFFFFFFFFFFFFFFF0000000000000000000000000000000
310
00000000000000000000000042006F006C00640020004900740061006C006900
310
6300200053007500620068006500610064000000000000000000000000000000
310
0000000000000000000000000000000000000000000000000000000000000000
310
0000000000000000000000000000000000000000000000000000000000000000
310
00000000000000000000000064760008000000000000000020FF002028000000
310
1C0000000C0000000800000000000000120000002F000000BC02000000000000
310
6000000060000000200006FB00002000FF00001B0000000021002200E8030000
310
D604000034020000870200600100000000000000000000009F01002000000000
310
616C000800000000E40100007001000002000000270000001000000000000000
310
000000002C0100000000000003020112410072006E006F002000500072006F00
310
20004C006900670068007400200044006900730070006C006100790000000000
310
00000000000000000000000000000000410072006E006F00500072006F002D00
310
4C00690067006800740044006900730070006C00610079000000000000000000
310
0000000000000000000000000000000000000000000000000000000000000000
310
0000000000000000000000000000000000000000000000000000000000000000
  1
OLE
  0
ENDSEC
  0
SECTION
  2
OBJECTS
  0
DICTIONARY
  5
C
330
0
100
AcDbDictionary
281
     1
  3
ACAD_GROUP
350
D
  3
ACAD_LAYOUT
350
1A
  3
ACAD_MLEADERSTYLE
350
27F
  3
ACAD_MLINESTYLE
350
17
  3
ACAD_PLOTSETTINGS
350
19
  3
ACAD_PLOTSTYLENAME
350
E
  3
ACAD_TABLESTYLE
350
27E
  3
ACAD_VISUALSTYLE
350
2A
  3
AcDbVariableDictionary
350
280
  0
DICTIONARY
  5
D
102
{ACAD_REACTORS
330
C
102
}
330
C
100
AcDbDictionary
281
     1
  0
DICTIONARY
  5
1A
102
{ACAD_REACTORS
330
C
102
}
330
C
100
AcDbDictionary
281
     1
  3
Layout1
350
1E
  3
Layout2
350
26
  3
Model
350
22
  0
DICTIONARY
  5
27F
102
{ACAD_REACTORS
330
C
102
}
330
C
100
AcDbDictionary
281
     1
  0
DICTIONARY
  5
17
102
{ACAD_REACTORS
330
C
102
}
330
C
100
AcDbDictionary
281
     1
  3
Standard
350
18
  0
DICTIONARY
  5
19
102
{ACAD_REACTORS
330
C
102
}
330
C
100
AcDbDictionary
281
     1
  0
ACDBDICTIONARYWDFLT
  5
E
102
{ACAD_REACTORS
330
C
102
}
330
C
100
AcDbDictionary
281
     1
  3
Normal
350
F
100
AcDbDictionaryWithDefault
340
F
  0
DICTIONARY
  5
27E
102
{ACAD_REACTORS
330
C
102
}
330
C
100
AcDbDictionary
281
     1
  0
DICTIONARY
  5
2A
102
{ACAD_REACTORS
330
C
102
}
330
C
100
AcDbDictionary
281
     1
  3
2dWireframe
350
2F
  3
3D Hidden
350
31
  3
3dWireframe
350
30
  3
Basic
350
32
  3
Brighten
350
36
  3
ColorChange
350
3A
  3
Conceptual
350
34
  3
Dim
350
35
  3
Facepattern
350
39
  3
Flat
350
2B
  3
FlatWithEdges
350
2C
  3
Gouraud
350
2D
  3
GouraudWithEdges
350
2E
  3
Linepattern
350
38
  3
Realistic
350
33
  3
Thicken
350
37
  0
DICTIONARY
  5
280
102
{ACAD_REACTORS
330
C
102
}
330
C
100
AcDbDictionary
281
     1
  3
PSOLHEIGHT
350
282
  3
PSOLWIDTH
350
281
  0
LAYOUT
  5
1E
102
{ACAD_REACTORS
330
1A
102
}
330
1A
100
AcDbPlotSettings
  1

  2
none_device
  4

  6

 40
0.0
 41
0.0
 42
0.0
 43
0.0
 44
0.0
 45
0.0
 46
0.0
 47
0.0
 48
0.0
 49
0.0
140
0.0
141
0.0
142
1.0
143
1.0
 70
   688
 72
     0
 73
     0
 74
     5
  7

 75
    16
147
1.0
148
0.0
149
0.0
100
AcDbLayout
  1
Layout1
 70
     1
 71
     1
 10
0.0
 20
0.0
 11
420.0
 21
297.0
 12
0.0
 22
0.0
 32
0.0
 14
1.0000000000E+20
 24
1.0000000000E+20
 34
1.0000000000E+20
 15
-1.0000000000E+20
 25
-1.0000000000E+20
 35
-1.0000000000E+20
146
0.0
 13
0.0
 23
0.0
 33
0.0
 16
1.0
 26
0.0
 36
0.0
 17
0.0
 27
1.0
 37
0.0
 76
     0
330
1B
  0
LAYOUT
  5
26
102
{ACAD_REACTORS
330
1A
102
}
330
1A
100
AcDbPlotSettings
  1

  2
none_device
  4

  6

 40
0.0
 41
0.0
 42
0.0
 43
0.0
 44
0.0
 45
0.0
 46
0.0
 47
0.0
 48
0.0
 49
0.0
140
0.0
141
0.0
142
1.0
143
1.0
 70
   688
 72
     0
 73
     0
 74
     5
  7

 75
    16
147
1.0
148
0.0
149
0.0
100
AcDbLayout
  1
Layout2
 70
     1
 71
     2
 10
0.0
 20
0.0
 11
0.0
 21
0.0
 12
0.0
 22
0.0
 32
0.0
 14
0.0
 24
0.0
 34
0.0
 15
0.0
 25
0.0
 35
0.0
146
0.0
 13
0.0
 23
0.0
 33
0.0
 16
1.0
 26
0.0
 36
0.0
 17
0.0
 27
1.0
 37
0.0
 76
     0
330
23
  0
LAYOUT
  5
22
102
{ACAD_REACTORS
330
1A
102
}
330
1A
100
AcDbPlotSettings
  1

  2
none_device
  4

  6

 40
0.0
 41
0.0
 42
0.0
 43
0.0
 44
0.0
 45
0.0
 46
0.0
 47
0.0
 48
0.0
 49
0.0
140
0.0
141
0.0
142
1.0
143
1.0
 70
  1712
 72
     0
 73
     0
 74
     0
  7

 75
     0
147
1.0
148
0.0
149
0.0
100
AcDbLayout
  1
Model
 70
     1
 71
     0
 10
0.0
 20
0.0
 11
297.0
 21
210.0
 12
0.0
 22
0.0
 32
0.0
 14
0.0
 24
0.0
 34
0.0
 15
297.0
 25
210.0
 35
0.0
146
0.0
 13
0.0
 23
0.0
 33
0.0
 16
1.0
 26
0.0
 36
0.0
 17
0.0
 27
1.0
 37
0.0
 76
     0
330
1F
331
29
  0
MLINESTYLE
  5
18
102
{ACAD_REACTORS
330
17
102
}
330
17
100
AcDbMlineStyle
  2
Standard
 70
     0
  3

 62
   256
 51
90.0
 52
90.0
 71
     2
 49
0.5
 62
   256
  6
BYLAYER
 49
-0.5
 62
   256
  6
BYLAYER
  0
ACDBPLACEHOLDER
  5
F
102
{ACAD_REACTORS
330
E
102
}
330
E
  0
VISUALSTYLE
  5
2F
102
{ACAD_REACTORS
330
2A
102
}
330
2A
100
AcDbVisualStyle
  2
2dWireframe
 70
     4
 71
     0
 72
     2
 73
     0
 90
        0
 40
-0.6
 41
-30.0
 62
     5
 63
     7
 74
     1
 91
        4
 64
     7
 65
   257
 75
     1
175
     1
 42
1.0
 92
        0
 66
   257
 43
1.0
 76
     1
 77
     6
 78
     2
 67
     7
 79
     5
170
     0
171
     0
290
     0
174
     0
 93
        1
 44
0.0
173
     0
291
     0
 45
0.0
1001
ACAD
1000
AcDbSavedByObjectVersion
1070
     0
  0
VISUALSTYLE
  5
31
102
{ACAD_REACTORS
330
2A
102
}
330
2A
100
AcDbVisualStyle
  2
3D Hidden
 70
     6
 71
     1
 72
     2
 73
     2
 90
        0
 40
-0.6
 41
-30.0
 62
     5
 63
     7
 74
     2
 91
        2
 64
     7
 65
   257
 75
     2
175
     1
 42
40.0
 92
        0
 66
   257
 43
1.0
 76
     1
 77
     6
 78
     2
 67
     7
 79
     3
170
     0
171
     0
290
     0
174
     0
 93
        1
 44
0.0
173
     0
291
     0
 45
0.0
1001
ACAD
1000
AcDbSavedByObjectVersion
1070
     0
  0
VISUALSTYLE
  5
30
102
{ACAD_REACTORS
330
2A
102
}
330
2A
100
AcDbVisualStyle
  2
3dWireframe
 70
     5
 71
     0
 72
     2
 73
     0
 90
        0
 40
-0.6
 41
-30.0
 62
     5
 63
     7
 74
     1
 91
        4
 64
     7
 65
   257
 75
     1
175
     1
 42
1.0
 92
        0
 66
   257
 43
1.0
 76
     1
 77
     6
 78
     2
 67
     7
 79
     5
170
     0
171
     0
290
     0
174
     0
 93
        1
 44
0.0
173
     0
291
     0
 45
0.0
1001
ACAD
1000
AcDbSavedByObjectVersion
1070
     0
  0
VISUALSTYLE
  5
32
102
{ACAD_REACTORS
330
2A
102
}
330
2A
100
AcDbVisualStyle
  2
Basic
 70
     7
 71
     1
 72
     0
 73
     1
 90
        0
 40
-0.6
 41
-30.0
 62
     5
 63
     7
 74
     0
 91
        4
 64
     7
 65
   257
 75
     1
175
     1
 42
1.0
 92
        8
 66
     7
 43
1.0
 76
     1
 77
     6
 78
     2
 67
     7
 79
     5
170
     0
171
     0
290
     0
174
     0
 93
        1
 44
0.0
173
     0
291
     1
 45
0.0
1001
ACAD
1000
AcDbSavedByObjectVersion
1070
     0
  0
VISUALSTYLE
  5
36
102
{ACAD_REACTORS
330
2A
102
}
330
2A
100
AcDbVisualStyle
  2
Brighten
 70
    12
 71
     2
 72
     2
 73
     0
 90
        0
 40
-0.6
 41
-30.0
 62
     5
 63
     7
 74
     1
 91
        4
 64
     7
 65
   257
 75
     1
175
     1
 42
1.0
 92
        8
 66
     7
 43
1.0
 76
     1
 77
     6
 78
     2
 67
     7
 79
     5
170
     0
171
     0
290
     0
174
     0
 93
        1
 44
50.0
173
     0
291
     1
 45
0.0
1001
ACAD
1000
AcDbSavedByObjectVersion
1070
     0
  0
VISUALSTYLE
  5
3A
102
{ACAD_REACTORS
330
2A
102
}
330
2A
100
AcDbVisualStyle
  2
ColorChange
 70
    16
 71
     2
 72
     2
 73
     3
 90
        0
 40
-0.6
 41
-30.0
 62
     5
 63
     8
 74
     1
 91
        4
 64
     7
 65
   257
 75
     1
175
     1
 42
1.0
 92
        8
 66
     8
 43
1.0
 76
     1
 77
     6
 78
     2
 67
     7
 79
     5
170
     0
171
     0
290
     0
174
     0
 93
        1
 44
0.0
173
     0
291
     1
 45
0.0
1001
ACAD
1000
AcDbSavedByObjectVersion
1070
     0
  0
VISUALSTYLE
  5
34
102
{ACAD_REACTORS
330
2A
102
}
330
2A
100
AcDbVisualStyle
  2
Conceptual
 70
     9
 71
     3
 72
     2
 73
     0
 90
        0
 40
-0.6
 41
-30.0
 62
     5
 63
     7
 74
     2
 91
        2
 64
     7
 65
   257
 75
     1
175
     1
 42
40.0
 92
        8
 66
     7
 43
1.0
 76
     1
 77
     6
 78
     2
 67
     7
 79
     3
170
     0
171
     0
290
     0
174
     0
 93
        1
 44
0.0
173
     0
291
     0
 45
0.0
1001
ACAD
1000
AcDbSavedByObjectVersion
1070
     0
  0
VISUALSTYLE
  5
35
102
{ACAD_REACTORS
330
2A
102
}
330
2A
100
AcDbVisualStyle
  2
Dim
 70
    11
 71
     2
 72
     2
 73
     0
 90
        0
 40
-0.6
 41
-30.0
 62
     5
 63
     7
 74
     1
 91
        4
 64
     7
 65
   257
 75
     1
175
     1
 42
1.0
 92
        8
 66
     7
 43
1.0
 76
     1
 77
     6
 78
     2
 67
     7
 79
     5
170
     0
171
     0
290
     0
174
     0
 93
        1
 44
-50.0
173
     0
291
     1
 45
0.0
1001
ACAD
1000
AcDbSavedByObjectVersion
1070
     0
  0
VISUALSTYLE
  5
39
102
{ACAD_REACTORS
330
2A
102
}
330
2A
100
AcDbVisualStyle
  2
Facepattern
 70
    15
 71
     2
 72
     2
 73
     0
 90
        0
 40
-0.6
 41
-30.0
 62
     5
 63
     7
 74
     1
 91
        4
 64
     7
 65
   257
 75
     1
175
     1
 42
1.0
 92
        8
 66
     7
 43
1.0
 76
     1
 77
     6
 78
     2
 67
     7
 79
     5
170
     0
171
     0
290
     0
174
     0
 93
        1
 44
0.0
173
     0
291
     1
 45
0.0
1001
ACAD
1000
AcDbSavedByObjectVersion
1070
     0
  0
VISUALSTYLE
  5
2B
102
{ACAD_REACTORS
330
2A
102
}
330
2A
100
AcDbVisualStyle
  2
Flat
 70
     0
 71
     2
 72
     1
 73
     1
 90
        2
 40
-0.6
 41
30.0
 62
     5
 63
     7
 74
     0
 91
        4
 64
     7
 65
   257
 75
     1
175
     1
 42
1.0
 92
        8
 66
     7
 43
1.0
 76
     1
 77
     6
 78
     2
 67
     7
 79
     5
170
     0
171
     0
290
     0
174
     0
 93
       13
 44
0.0
173
     0
291
     1
 45
0.0
1001
ACAD
1000
AcDbSavedByObjectVersion
1070
     0
  0
VISUALSTYLE
  5
2C
102
{ACAD_REACTORS
330
2A
102
}
330
2A
100
AcDbVisualStyle
  2
FlatWithEdges
 70
     1
 71
     2
 72
     1
 73
     1
 90
        2
 40
-0.6
 41
30.0
 62
     5
 63
     7
 74
     1
 91
        4
 64
     7
 65
   257
 75
     1
175
     1
 42
1.0
 92
        0
 66
   257
 43
1.0
 76
     1
 77
     6
 78
     2
 67
     7
 79
     5
170
     0
171
     0
290
     0
174
     0
 93
       13
 44
0.0
173
     0
291
     1
 45
0.0
1001
ACAD
1000
AcDbSavedByObjectVersion
1070
     0
  0
VISUALSTYLE
  5
2D
102
{ACAD_REACTORS
330
2A
102
}
330
2A
100
AcDbVisualStyle
  2
Gouraud
 70
     2
 71
     2
 72
     2
 73
     1
 90
        2
 40
-0.6
 41
30.0
 62
     5
 63
     7
 74
     0
 91
        4
 64
     7
 65
   257
 75
     1
175
     1
 42
1.0
 92
        0
 66
     7
 43
1.0
 76
     1
 77
     6
 78
     2
 67
     7
 79
     5
170
     0
171
     0
290
     0
174
     0
 93
       13
 44
0.0
173
     0
291
     1
 45
0.0
1001
ACAD
1000
AcDbSavedByObjectVersion
1070
     0
  0
VISUALSTYLE
  5
2E
102
{ACAD_REACTORS
330
2A
102
}
330
2A
100
AcDbVisualStyle
  2
GouraudWithEdges
 70
     3
 71
     2
 72
     2
 73
     1
 90
        2
 40
-0.6
 41
30.0
 62
     5
 63
     7
 74
     1
 91
        4
 64
     7
 65
   257
 75
     1
175
     1
 42
1.0
 92
        0
 66
   257
 43
1.0
 76
     1
 77
     6
 78
     2
 67
     7
 79
     5
170
     0
171
     0
290
     0
174
     0
 93
       13
 44
0.0
173
     0
291
     1
 45
0.0
1001
ACAD
1000
AcDbSavedByObjectVersion
1070
     0
  0
VISUALSTYLE
  5
38
102
{ACAD_REACTORS
330
2A
102
}
330
2A
100
AcDbVisualStyle
  2
Linepattern
 70
    14
 71
     2
 72
     2
 73
     0
 90
        0
 40
-0.6
 41
-30.0
 62
     5
 63
     7
 74
     1
 91
        4
 64
     7
 65
   257
 75
     7
175
     7
 42
1.0
 92
        8
 66
     7
 43
1.0
 76
     1
 77
     6
 78
     2
 67
     7
 79
     5
170
     0
171
     0
290
     0
174
     0
 93
        1
 44
0.0
173
     0
291
     1
 45
0.0
1001
ACAD
1000
AcDbSavedByObjectVersion
1070
     0
  0
VISUALSTYLE
  5
33
102
{ACAD_REACTORS
330
2A
102
}
330
2A
100
AcDbVisualStyle
  2
Realistic
 70
     8
 71
     2
 72
     2
 73
     0
 90
        0
 40
-0.6
 41
-30.0
 62
     5
 63
     7
 74
     1
 91
        0
 64
     7
 65
   257
 75
     1
175
     1
 42
1.0
 92
        8
 66
     8
 43
1.0
 76
     1
 77
     6
 78
     2
 67
     7
 79
     5
170
     0
171
     0
290
     0
174
     0
 93
       13
 44
0.0
173
     0
291
     0
 45
0.0
1001
ACAD
1000
AcDbSavedByObjectVersion
1070
     0
  0
VISUALSTYLE
  5
37
102
{ACAD_REACTORS
330
2A
102
}
330
2A
100
AcDbVisualStyle
  2
Thicken
 70
    13
 71
     2
 72
     2
 73
     0
 90
        0
 40
-0.6
 41
-30.0
 62
     5
 63
     7
 74
     1
 91
        4
 64
     7
 65
   257
 75
     1
175
     1
 42
1.0
 92
       12
 66
     7
 43
1.0
 76
     1
 77
     6
 78
     2
 67
     7
 79
     5
170
     0
171
     0
290
     0
174
     0
 93
        1
 44
0.0
173
     0
291
     1
 45
0.0
1001
ACAD
1000
AcDbSavedByObjectVersion
1070
     0
  0
DICTIONARYVAR
  5
282
102
{ACAD_REACTORS
330
280
102
}
330
280
100
DictionaryVariables
280
     0
  1
80.000000
  0
DICTIONARYVAR
  5
281
102
{ACAD_REACTORS
330
280
102
}
330
280
100
DictionaryVariables
280
     0
  1
5.000000
  0
ENDSEC
  0
EOF
