  0
SECTION
  2
HEADER
  9
$ACADVER
  1
AC1015
  9
$ACADMAINTVER
 70
     6
  9
$DWGCODEPAGE
  3
ANSI_1252
  9
$INSBASE
 10
0.0
 20
0.0
 30
0.0
  9
$EXTMIN
 10
0.0
 20
0.0
 30
0.0
  9
$EXTMAX
 10
297.0
 20
210.0
 30
0.0
  9
$LIMMIN
 10
0.0
 20
0.0
  9
$LIMMAX
 10
297.0
 20
210.0
  9
$ORTHOMODE
 70
     0
  9
$REGENMODE
 70
     1
  9
$FILLMODE
 70
     1
  9
$QTEXTMODE
 70
     0
  9
$MIRRTEXT
 70
     1
  9
$LTSCALE
 40
1.0
  9
$ATTMODE
 70
     1
  9
$TEXTSIZE
 40
2.0
  9
$TRACEWID
 40
1.0
  9
$TEXTSTYLE
  7
Standard
  9
$CLAYER
  8
0
  9
$CELTYPE
  6
ByLayer
  9
$CECOLOR
 62
   256
  9
$CELTSCALE
 40
1.0
  9
$DISPSILH
 70
     0
  9
$DIMSCALE
 40
1.0
  9
$DIMASZ
 40
3.0
  9
$DIMEXO
 40
0.0
  9
$DIMDLI
 40
3.75
  9
$DIMRND
 40
0.0
  9
$DIMDLE
 40
0.0
  9
$DIMEXE
 40
1.0
  9
$DIMTP
 40
0.0
  9
$DIMTM
 40
0.0
  9
$DIMTXT
 40
2.0
  9
$DIMCEN
 40
2.5
  9
$DIMTSZ
 40
0.0
  9
$DIMTOL
 70
     0
  9
$DIMLIM
 70
     0
  9
$DIMTIH
 70
     1
  9
$DIMTOH
 70
     1
  9
$DIMSE1
 70
     0
  9
$DIMSE2
 70
     0
  9
$DIMTAD
 70
     1
  9
$DIMZIN
 70
     0
  9
$DIMBLK
  1

  9
$DIMASO
 70
     1
  9
$DIMSHO
 70
     1
  9
$DIMPOST
  1

  9
$DIMAPOST
  1

  9
$DIMALT
 70
     0
  9
$DIMALTD
 70
     3
  9
$DIMALTF
 40
0.0393700787
  9
$DIMLFAC
 40
1.0
  9
$DIMTOFL
 70
     1
  9
$DIMTVP
 40
0.0
  9
$DIMTIX
 70
     0
  9
$DIMSOXD
 70
     0
  9
$DIMSAH
 70
     0
  9
$DIMBLK1
  1

  9
$DIMBLK2
  1

  9
$DIMSTYLE
  2
ISO-25
  9
$DIMCLRD
 70
     0
  9
$DIMCLRE
 70
     0
  9
$DIMCLRT
 70
     0
  9
$DIMTFAC
 40
1.0
  9
$DIMGAP
 40
1.524
  9
$DIMJUST
 70
     0
  9
$DIMSD1
 70
     0
  9
$DIMSD2
 70
     0
  9
$DIMTOLJ
 70
     0
  9
$DIMTZIN
 70
     0
  9
$DIMALTZ
 70
     0
  9
$DIMALTTZ
 70
     0
  9
$DIMUPT
 70
     0
  9
$DIMDEC
 70
     2
  9
$DIMTDEC
 70
     2
  9
$DIMALTU
 70
     2
  9
$DIMALTTD
 70
     3
  9
$DIMTXSTY
  7
Standard
  9
$DIMAUNIT
 70
     0
  9
$DIMADEC
 70
     0
  9
$DIMALTRND
 40
0.0
  9
$DIMAZIN
 70
     0
  9
$DIMDSEP
 70
    44
  9
$DIMATFIT
 70
     3
  9
$DIMFRAC
 70
     0
  9
$DIMLDRBLK
  1

  9
$DIMLUNIT
 70
     2
  9
$DIMLWD
 70
    -2
  9
$DIMLWE
 70
    -2
  9
$DIMTMOVE
 70
     0
  9
$LUNITS
 70
     2
  9
$LUPREC
 70
     2
  9
$SKETCHINC
 40
1.0
  9
$FILLETRAD
 40
10.0
  9
$AUNITS
 70
     0
  9
$AUPREC
 70
     0
  9
$MENU
  1
.
  9
$ELEVATION
 40
0.0
  9
$PELEVATION
 40
0.0
  9
$THICKNESS
 40
0.0
  9
$LIMCHECK
 70
     0
  9
$CHAMFERA
 40
10.0
  9
$CHAMFERB
 40
10.0
  9
$CHAMFERC
 40
20.0
  9
$CHAMFERD
 40
0.0
  9
$SKPOLY
 70
     0
  9
$TDCREATE
 40
2455358.658475069
  9
$TDUCREATE
 40
2455358.575141736
  9
$TDUPDATE
 40
2455358.658475081
  9
$TDUUPDATE
 40
2455358.575141747
  9
$TDINDWG
 40
0.0000000116
  9
$TDUSRTIMER
 40
0.0000000116
  9
$USRTIMER
 70
     1
  9
$ANGBASE
 50
0.0
  9
$ANGDIR
 70
     0
  9
$PDMODE
 70
     0
  9
$PDSIZE
 40
-1.0
  9
$PLINEWID
 40
0.0
  9
$SPLFRAME
 70
     0
  9
$SPLINETYPE
 70
     6
  9
$SPLINESEGS
 70
     8
  9
$HANDSEED
  5
277
  9
$SURFTAB1
 70
     6
  9
$SURFTAB2
 70
     6
  9
$SURFTYPE
 70
     6
  9
$SURFU
 70
     6
  9
$SURFV
 70
     6
  9
$UCSBASE
  2

  9
$UCSNAME
  2

  9
$UCSORG
 10
0.0
 20
0.0
 30
0.0
  9
$UCSXDIR
 10
1.0
 20
0.0
 30
0.0
  9
$UCSYDIR
 10
0.0
 20
1.0
 30
0.0
  9
$UCSORTHOREF
  2

  9
$UCSORTHOVIEW
 70
     0
  9
$UCSORGTOP
 10
0.0
 20
0.0
 30
0.0
  9
$UCSORGBOTTOM
 10
0.0
 20
0.0
 30
0.0
  9
$UCSORGLEFT
 10
0.0
 20
0.0
 30
0.0
  9
$UCSORGRIGHT
 10
0.0
 20
0.0
 30
0.0
  9
$UCSORGFRONT
 10
0.0
 20
0.0
 30
0.0
  9
$UCSORGBACK
 10
0.0
 20
0.0
 30
0.0
  9
$PUCSBASE
  2

  9
$PUCSNAME
  2

  9
$PUCSORG
 10
0.0
 20
0.0
 30
0.0
  9
$PUCSXDIR
 10
1.0
 20
0.0
 30
0.0
  9
$PUCSYDIR
 10
0.0
 20
1.0
 30
0.0
  9
$PUCSORTHOREF
  2

  9
$PUCSORTHOVIEW
 70
     0
  9
$PUCSORGTOP
 10
0.0
 20
0.0
 30
0.0
  9
$PUCSORGBOTTOM
 10
0.0
 20
0.0
 30
0.0
  9
$PUCSORGLEFT
 10
0.0
 20
0.0
 30
0.0
  9
$PUCSORGRIGHT
 10
0.0
 20
0.0
 30
0.0
  9
$PUCSORGFRONT
 10
0.0
 20
0.0
 30
0.0
  9
$PUCSORGBACK
 10
0.0
 20
0.0
 30
0.0
  9
$USERI1
 70
     0
  9
$USERI2
 70
     0
  9
$USERI3
 70
     0
  9
$USERI4
 70
     0
  9
$USERI5
 70
     0
  9
$USERR1
 40
0.0
  9
$USERR2
 40
0.0
  9
$USERR3
 40
0.0
  9
$USERR4
 40
0.0
  9
$USERR5
 40
0.0
  9
$WORLDVIEW
 70
     1
  9
$SHADEDGE
 70
     3
  9
$SHADEDIF
 70
    70
  9
$TILEMODE
 70
     1
  9
$MAXACTVP
 70
    64
  9
$PINSBASE
 10
0.0
 20
0.0
 30
0.0
  9
$PLIMCHECK
 70
     0
  9
$PEXTMIN
 10
1.0000000000E+20
 20
1.0000000000E+20
 30
1.0000000000E+20
  9
$PEXTMAX
 10
-1.0000000000E+20
 20
-1.0000000000E+20
 30
-1.0000000000E+20
  9
$PLIMMIN
 10
0.0
 20
0.0
  9
$PLIMMAX
 10
420.0
 20
297.0
  9
$UNITMODE
 70
     0
  9
$VISRETAIN
 70
     1
  9
$PLINEGEN
 70
     0
  9
$PSLTSCALE
 70
     1
  9
$TREEDEPTH
 70
  3020
  9
$CMLSTYLE
  2
Standard
  9
$CMLJUST
 70
     0
  9
$CMLSCALE
 40
20.0
  9
$PROXYGRAPHICS
 70
     1
  9
$MEASUREMENT
 70
     1
  9
$CELWEIGHT
370
    -1
  9
$ENDCAPS
280
     0
  9
$JOINSTYLE
280
     0
  9
$LWDISPLAY
290
     1
  9
$INSUNITS
 70
     4
  9
$HYPERLINKBASE
  1

  9
$STYLESHEET
  1

  9
$XEDIT
290
     1
  9
$CEPSNTYPE
380
     0
  9
$PSTYLEMODE
290
     1
  9
$FINGERPRINTGUID
  2
{7D831A38-14B1-477B-85F4-9BDD0A7638D6}
  9
$VERSIONGUID
  2
{FAEB1C32-E019-11D5-929B-00C0DF256EC4}
  9
$EXTNAMES
290
     1
  9
$PSVPSCALE
 40
0.0
  9
$OLESTARTUP
290
     0
  0
ENDSEC
  0
SECTION
  2
CLASSES
  0
CLASS
  1
ACDBDICTIONARYWDFLT
  2
AcDbDictionaryWithDefault
  3
ObjectDBX Classes
 90
        0
280
     0
281
     0
  0
CLASS
  1
VISUALSTYLE
  2
AcDbVisualStyle
  3
ObjectDBX Classes
 90
     4095
280
     0
281
     0
  0
CLASS
  1
DICTIONARYVAR
  2
AcDbDictionaryVar
  3
ObjectDBX Classes
 90
        0
280
     0
281
     0
  0
CLASS
  1
ACDBPLACEHOLDER
  2
AcDbPlaceHolder
  3
ObjectDBX Classes
 90
        0
280
     0
281
     0
  0
CLASS
  1
LAYOUT
  2
AcDbLayout
  3
ObjectDBX Classes
 90
        0
280
     0
281
     0
  0
ENDSEC
  0
SECTION
  2
TABLES
  0
TABLE
  2
VPORT
  5
8
330
0
100
AcDbSymbolTable
 70
     1
  0
VPORT
  5
29
330
8
100
AcDbSymbolTableRecord
100
AcDbViewportTableRecord
  2
*Active
 70
     0
 10
0.0
 20
0.0
 11
1.0
 21
1.0
 12
148.5
 22
105.0
 13
0.0
 23
0.0
 14
10.0
 24
10.0
 15
10.0
 25
10.0
 16
0.0
 26
0.0
 36
1.0
 17
0.0
 27
0.0
 37
0.0
 40
210.0
 41
1.4142857143
 42
50.0
 43
0.0
 44
0.0
 50
0.0
 51
0.0
 71
     0
 72
  2000
 73
     1
 74
     3
 75
     0
 76
     0
 77
     0
 78
     0
281
     0
 65
     1
110
0.0
120
0.0
130
0.0
111
1.0
121
0.0
131
0.0
112
0.0
122
1.0
132
0.0
 79
     0
146
0.0
  0
ENDTAB
  0
TABLE
  2
LTYPE
  5
5
330
0
100
AcDbSymbolTable
 70
     6
  0
LTYPE
  5
14
330
5
100
AcDbSymbolTableRecord
100
AcDbLinetypeTableRecord
  2
ByBlock
 70
     0
  3

 72
    65
 73
     0
 40
0.0
  0
LTYPE
  5
15
330
5
100
AcDbSymbolTableRecord
100
AcDbLinetypeTableRecord
  2
ByLayer
 70
     0
  3

 72
    65
 73
     0
 40
0.0
  0
LTYPE
  5
16
330
5
100
AcDbSymbolTableRecord
100
AcDbLinetypeTableRecord
  2
Continuous
 70
     0
  3
Solid line
 72
    65
 73
     0
 40
0.0
  0
LTYPE
  5
3B
330
5
100
AcDbSymbolTableRecord
100
AcDbLinetypeTableRecord
  2
HIDDEN
 70
     0
  3
Hidden __ __ __ __ __ __ __ __ __ __ __ __ __ __
 72
    65
 73
     2
 40
1.905
 49
1.27
 74
     0
 49
-0.635
 74
     0
  0
LTYPE
  5
3C
330
5
100
AcDbSymbolTableRecord
100
AcDbLinetypeTableRecord
  2
PHANTOM
 70
     0
  3
Phantom ______  __  __  ______  __  __  ______
 72
    65
 73
     6
 40
12.7
 49
6.35
 74
     0
 49
-1.27
 74
     0
 49
1.27
 74
     0
 49
-1.27
 74
     0
 49
1.27
 74
     0
 49
-1.27
 74
     0
  0
LTYPE
  5
3D
330
5
100
AcDbSymbolTableRecord
100
AcDbLinetypeTableRecord
  2
CENTER
 70
     0
  3
Center ____ _ ____ _ ____ _ ____ _ ____ _ ____
 72
    65
 73
     4
 40
10.16
 49
6.35
 74
     0
 49
-1.27
 74
     0
 49
1.27
 74
     0
 49
-1.27
 74
     0
  0
LTYPE
  5
3E
330
5
100
AcDbSymbolTableRecord
100
AcDbLinetypeTableRecord
  2
CENTERX2
 70
     0
  3
Center (2x) ________  __  ________  __  _____
 72
    65
 73
     4
 40
20.32
 49
12.7
 74
     0
 49
-2.54
 74
     0
 49
2.54
 74
     0
 49
-2.54
 74
     0
  0
LTYPE
  5
3F
330
5
100
AcDbSymbolTableRecord
100
AcDbLinetypeTableRecord
  2
DOT2
 70
     0
  3
Dot (.5x) ........................................
 72
    65
 73
     2
 40
0.635
 49
0.0
 74
     0
 49
-0.635
 74
     0
  0
ENDTAB
  0
TABLE
  2
LAYER
  5
2
330
0
100
AcDbSymbolTable
 70
     5
  0
LAYER
  5
10
330
2
100
AcDbSymbolTableRecord
100
AcDbLayerTableRecord
  2
0
 70
     0
 62
     7
  6
Continuous
370
    -3
390
F
  0
LAYER
  5
40
330
2
100
AcDbSymbolTableRecord
100
AcDbLayerTableRecord
  2
FORMAT
 70
     0
 62
     7
  6
Continuous
370
    -3
390
F
  0
LAYER
  5
41
330
2
100
AcDbSymbolTableRecord
100
AcDbLayerTableRecord
  2
VERMASSUNG
 70
     0
 62
     7
  6
Continuous
370
    -3
390
F
  0
LAYER
  5
42
330
2
100
AcDbSymbolTableRecord
100
AcDbLayerTableRecord
  2
KOPF_DÜNN
 70
     0
 62
     7
  6
Continuous
370
    -3
390
F
  0
LAYER
  5
43
330
2
100
AcDbSymbolTableRecord
100
AcDbLayerTableRecord
  2
KOPF_DICK
 70
     0
 62
     7
  6
Continuous
370
    15
390
F
  0
ENDTAB
  0
TABLE
  2
STYLE
  5
3
330
0
100
AcDbSymbolTable
 70
     3
  0
STYLE
  5
11
330
3
100
AcDbSymbolTableRecord
100
AcDbTextStyleTableRecord
  2
Standard
 70
     0
 40
0.0
 41
1.0
 50
0.0
 71
     0
 42
2.5
  3
txt
  4

  0
STYLE
  5
44
330
3
100
AcDbSymbolTableRecord
100
AcDbTextStyleTableRecord
  2
SLDTEXTSTYLE0
 70
     0
 40
0.0
 41
0.7
 50
0.0
 71
     0
 42
0.2
  3
TXT
  4

  0
STYLE
  5
48
330
3
100
AcDbSymbolTableRecord
100
AcDbTextStyleTableRecord
  2
SLDTEXTSTYLE1
 70
     0
 40
0.0
 41
0.6384615385
 50
0.0
 71
     0
 42
0.2
  3
TXT
  4

  0
ENDTAB
  0
TABLE
  2
VIEW
  5
6
330
0
100
AcDbSymbolTable
 70
     0
  0
ENDTAB
  0
TABLE
  2
UCS
  5
7
330
0
100
AcDbSymbolTable
 70
     0
  0
ENDTAB
  0
TABLE
  2
APPID
  5
9
330
0
100
AcDbSymbolTable
 70
     1
  0
APPID
  5
12
330
9
100
AcDbSymbolTableRecord
100
AcDbRegAppTableRecord
  2
ACAD
 70
     0
  0
ENDTAB
  0
TABLE
  2
DIMSTYLE
  5
A
330
0
100
AcDbSymbolTable
 70
     4
100
AcDbDimStyleTable
  0
DIMSTYLE
105
27
330
A
100
AcDbSymbolTableRecord
100
AcDbDimStyleTableRecord
  2
ISO-25
 70
     0
 41
2.5
 42
0.625
 43
3.75
 44
1.25
 73
     0
 74
     0
 77
     1
 78
     8
140
2.5
141
2.5
143
0.0393700787
147
0.625
171
     3
172
     1
271
     2
272
     2
274
     3
278
    44
283
     0
284
     8
340
11
  0
DIMSTYLE
105
164
102
{ACAD_REACTORS
330
163
330
170
330
189
330
193
330
19D
330
1A7
330
1B1
330
1BB
330
1D4
102
}
330
A
100
AcDbSymbolTableRecord
100
AcDbDimStyleTableRecord
  2
SLDDIMSTYLE0
 70
     0
 41
3.0
 44
0.0
 45
0.000000001
 73
     0
 74
     0
 77
     1
 78
    12
140
2.0
147
0.5
173
     1
271
     2
272
     3
284
    12
340
44
  0
DIMSTYLE
105
17C
102
{ACAD_REACTORS
330
17B
102
}
330
A
100
AcDbSymbolTableRecord
100
AcDbDimStyleTableRecord
  2
SLDDIMSTYLE1
 70
     0
 41
3.0
 44
0.0
 45
0.000000001
 73
     0
 74
     0
 77
     1
 78
    12
140
2.0
147
0.5
173
     1
271
     2
272
     3
284
    12
340
44
  0
DIMSTYLE
105
1C6
102
{ACAD_REACTORS
330
1C5
102
}
330
A
100
AcDbSymbolTableRecord
100
AcDbDimStyleTableRecord
  2
SLDDIMSTYLE2
 70
     0
 41
3.0
 44
0.0
 45
0.000000001
 73
     0
 74
     0
 77
     1
 78
    12
140
2.0
147
0.5
173
     1
271
     2
272
     3
284
    12
340
44
  0
ENDTAB
  0
TABLE
  2
BLOCK_RECORD
  5
1
330
0
100
AcDbSymbolTable
 70
    12
  0
BLOCK_RECORD
  5
1F
330
1
100
AcDbSymbolTableRecord
100
AcDbBlockTableRecord
  2
*Model_Space
340
22
  0
BLOCK_RECORD
  5
1B
330
1
100
AcDbSymbolTableRecord
100
AcDbBlockTableRecord
  2
*Paper_Space
340
1E
  0
BLOCK_RECORD
  5
23
330
1
100
AcDbSymbolTableRecord
100
AcDbBlockTableRecord
  2
*Paper_Space0
340
26
  0
BLOCK_RECORD
  5
165
330
1
100
AcDbSymbolTableRecord
100
AcDbBlockTableRecord
  2
*D1
340
0
  0
BLOCK_RECORD
  5
171
330
1
100
AcDbSymbolTableRecord
100
AcDbBlockTableRecord
  2
*D2
340
0
  0
BLOCK_RECORD
  5
17D
330
1
100
AcDbSymbolTableRecord
100
AcDbBlockTableRecord
  2
*D3
340
0
  0
BLOCK_RECORD
  5
18A
330
1
100
AcDbSymbolTableRecord
100
AcDbBlockTableRecord
  2
*D4
340
0
  0
BLOCK_RECORD
  5
194
330
1
100
AcDbSymbolTableRecord
100
AcDbBlockTableRecord
  2
*D5
340
0
  0
BLOCK_RECORD
  5
19E
330
1
100
AcDbSymbolTableRecord
100
AcDbBlockTableRecord
  2
*D6
340
0
  0
BLOCK_RECORD
  5
1A8
330
1
100
AcDbSymbolTableRecord
100
AcDbBlockTableRecord
  2
*D7
340
0
  0
BLOCK_RECORD
  5
1B2
330
1
100
AcDbSymbolTableRecord
100
AcDbBlockTableRecord
  2
*D8
340
0
  0
BLOCK_RECORD
  5
1BC
330
1
100
AcDbSymbolTableRecord
100
AcDbBlockTableRecord
  2
*D9
340
0
  0
BLOCK_RECORD
  5
1C7
330
1
100
AcDbSymbolTableRecord
100
AcDbBlockTableRecord
  2
*D10
340
0
  0
BLOCK_RECORD
  5
1D5
330
1
100
AcDbSymbolTableRecord
100
AcDbBlockTableRecord
  2
*D11
340
0
  0
ENDTAB
  0
ENDSEC
  0
SECTION
  2
BLOCKS
  0
BLOCK
  5
20
330
1F
100
AcDbEntity
  8
0
100
AcDbBlockBegin
  2
*Model_Space
 70
     0
 10
0.0
 20
0.0
 30
0.0
  3
*Model_Space
  1

  0
ENDBLK
  5
21
330
1F
100
AcDbEntity
  8
0
100
AcDbBlockEnd
  0
BLOCK
  5
1C
330
1B
100
AcDbEntity
 67
     1
  8
0
100
AcDbBlockBegin
  2
*Paper_Space
 70
     0
 10
0.0
 20
0.0
 30
0.0
  3
*Paper_Space
  1

  0
ENDBLK
  5
1D
330
1B
100
AcDbEntity
 67
     1
  8
0
100
AcDbBlockEnd
  0
BLOCK
  5
24
330
23
100
AcDbEntity
  8
0
100
AcDbBlockBegin
  2
*Paper_Space0
 70
     0
 10
0.0
 20
0.0
 30
0.0
  3
*Paper_Space0
  1

  0
ENDBLK
  5
25
330
23
100
AcDbEntity
  8
0
100
AcDbBlockEnd
  0
BLOCK
  5
166
330
165
100
AcDbEntity
  8
0
100
AcDbBlockBegin
  2
*D1
 70
     1
 10
0.0
 20
0.0
 30
0.0
  3
*D1
  1

  0
SOLID
  5
168
330
165
100
AcDbEntity
  8
VERMASSUNG
100
AcDbTrace
 10
32.6515037451
 20
139.0171085802
 30
0.0
 11
32.2015037451
 21
136.0171085802
 31
0.0
 12
33.1015037451
 22
136.0171085802
 32
0.0
 13
33.1015037451
 23
136.0171085802
 33
0.0
  0
SOLID
  5
169
330
165
100
AcDbEntity
  8
VERMASSUNG
100
AcDbTrace
 10
32.6515037451
 20
76.0171085802
 30
0.0
 11
33.1015037451
 21
79.0171085802
 31
0.0
 12
32.2015037451
 22
79.0171085802
 32
0.0
 13
32.2015037451
 23
79.0171085802
 33
0.0
  0
LINE
  5
16A
330
165
100
AcDbEntity
  8
VERMASSUNG
100
AcDbLine
 10
82.1348754238
 20
139.0171085802
 30
0.0
 11
31.6515037451
 21
139.0171085802
 31
0.0
  0
LINE
  5
16B
330
165
100
AcDbEntity
  8
VERMASSUNG
100
AcDbLine
 10
82.1348754238
 20
76.0171085802
 30
0.0
 11
31.6515037451
 21
76.0171085802
 31
0.0
  0
LINE
  5
16C
330
165
100
AcDbEntity
  8
VERMASSUNG
100
AcDbLine
 10
32.6515037451
 20
139.0171085802
 30
0.0
 11
32.6515037451
 21
76.0171085802
 31
0.0
  0
MTEXT
  5
16D
330
165
100
AcDbEntity
  8
VERMASSUNG
100
AcDbMText
 10
29.8733684889
 20
102.013486609
 30
0.0
 40
2.0
 41
0.0
 71
     1
 72
     1
  1
PSC
  7
SLDTEXTSTYLE0
 11
-7.044195017643634E-15
 21
1.0
 31
0.0
 73
     1
 44
1.0
  0
MTEXT
  5
16E
330
165
100
AcDbEntity
  8
VERMASSUNG
100
AcDbMText
 10
30.0733684402
 20
106.6134862454
 30
0.0
 40
2.0
 41
0.0
 71
     1
 72
     1
  1
%%c
  7
SLDTEXTSTYLE0
 11
-7.044195017643634E-15
 21
1.0
 31
0.0
 73
     1
 44
1.0
  0
MTEXT
  5
16F
330
165
100
AcDbEntity
  8
VERMASSUNG
100
AcDbMText
 10
30.0733681491
 20
110.2216888443
 30
0.0
 40
2.0
 41
0.0
 71
     1
 72
     1
  1
63
  7
SLDTEXTSTYLE0
 11
-7.044195017643634E-15
 21
1.0
 31
0.0
 73
     1
 44
1.0
  0
ENDBLK
  5
167
330
165
100
AcDbEntity
  8
0
100
AcDbBlockEnd
  0
BLOCK
  5
172
330
171
100
AcDbEntity
  8
0
100
AcDbBlockBegin
  2
*D2
 70
     1
 10
0.0
 20
0.0
 30
0.0
  3
*D2
  1

  0
SOLID
  5
174
330
171
100
AcDbEntity
  8
VERMASSUNG
100
AcDbTrace
 10
174.6820906719
 20
124.5171085802
 30
0.0
 11
174.2320906719
 21
121.5171085802
 31
0.0
 12
175.1320906719
 22
121.5171085802
 32
0.0
 13
175.1320906719
 23
121.5171085802
 33
0.0
  0
SOLID
  5
175
330
171
100
AcDbEntity
  8
VERMASSUNG
100
AcDbTrace
 10
174.6820906719
 20
90.5171085802
 30
0.0
 11
175.1320906719
 21
93.5171085802
 31
0.0
 12
174.2320906719
 22
93.5171085802
 32
0.0
 13
174.2320906719
 23
93.5171085802
 33
0.0
  0
LINE
  5
176
330
171
100
AcDbEntity
  8
VERMASSUNG
100
AcDbLine
 10
131.3348754238
 20
124.5171085802
 30
0.0
 11
175.6820906719
 21
124.5171085802
 31
0.0
  0
LINE
  5
177
330
171
100
AcDbEntity
  8
VERMASSUNG
100
AcDbLine
 10
160.8348754238
 20
90.5171085802
 30
0.0
 11
175.6820906719
 21
90.5171085802
 31
0.0
  0
LINE
  5
178
330
171
100
AcDbEntity
  8
VERMASSUNG
100
AcDbLine
 10
174.6820906719
 20
124.5171085802
 30
0.0
 11
174.6820906719
 21
90.5171085802
 31
0.0
  0
MTEXT
  5
179
330
171
100
AcDbEntity
  8
VERMASSUNG
100
AcDbMText
 10
172.1039551342
 20
104.213443901
 30
0.0
 40
2.0
 41
0.0
 71
     1
 72
     1
  1
%%c
  7
SLDTEXTSTYLE0
 11
-7.044195017643634E-15
 21
1.0
 31
0.0
 73
     1
 44
1.0
  0
MTEXT
  5
17A
330
171
100
AcDbEntity
  8
VERMASSUNG
100
AcDbMText
 10
172.103955076
 20
107.8228653563
 30
0.0
 40
2.0
 41
0.0
 71
     1
 72
     1
  1
34
  7
SLDTEXTSTYLE0
 11
-7.044195017643634E-15
 21
1.0
 31
0.0
 73
     1
 44
1.0
  0
ENDBLK
  5
173
330
171
100
AcDbEntity
  8
0
100
AcDbBlockEnd
  0
BLOCK
  5
17E
330
17D
100
AcDbEntity
  8
0
100
AcDbBlockBegin
  2
*D3
 70
     1
 10
0.0
 20
0.0
 30
0.0
  3
*D3
  1

  0
SOLID
  5
180
330
17D
100
AcDbEntity
  8
VERMASSUNG
100
AcDbTrace
 10
167.9222792733
 20
104.5171085802
 30
0.0
 11
167.4722792733
 21
101.5171085802
 31
0.0
 12
168.3722792733
 22
101.5171085802
 32
0.0
 13
168.3722792733
 23
101.5171085802
 33
0.0
  0
SOLID
  5
181
330
17D
100
AcDbEntity
  8
VERMASSUNG
100
AcDbTrace
 10
167.9222792733
 20
110.5171085802
 30
0.0
 11
168.3722792733
 21
113.5171085802
 31
0.0
 12
167.4722792733
 22
113.5171085802
 32
0.0
 13
167.4722792733
 23
113.5171085802
 33
0.0
  0
LINE
  5
182
330
17D
100
AcDbEntity
  8
VERMASSUNG
100
AcDbLine
 10
161.5348754238
 20
104.5171085802
 30
0.0
 11
168.9222792733
 21
104.5171085802
 31
0.0
  0
LINE
  5
183
330
17D
100
AcDbEntity
  8
VERMASSUNG
100
AcDbLine
 10
161.5348754238
 20
110.5171085802
 30
0.0
 11
168.9222792733
 21
110.5171085802
 31
0.0
  0
LINE
  5
184
330
17D
100
AcDbEntity
  8
VERMASSUNG
100
AcDbLine
 10
167.9222792733
 20
104.5171085802
 30
0.0
 11
167.9222792733
 21
98.5171085802
 31
0.0
  0
LINE
  5
185
330
17D
100
AcDbEntity
  8
VERMASSUNG
100
AcDbLine
 10
167.9222792733
 20
104.5171085802
 30
0.0
 11
167.9222792733
 21
110.5171085802
 31
0.0
  0
LINE
  5
186
330
17D
100
AcDbEntity
  8
VERMASSUNG
100
AcDbLine
 10
167.9222792733
 20
110.5171085802
 30
0.0
 11
167.9222792733
 21
119.5466843782
 31
0.0
  0
MTEXT
  5
187
330
17D
100
AcDbEntity
  8
VERMASSUNG
100
AcDbMText
 10
165.3441437356
 20
112.9502420693
 30
0.0
 40
2.0
 41
0.0
 71
     1
 72
     1
  1
%%c
  7
SLDTEXTSTYLE0
 11
6.123233995736766E-17
 21
1.0
 31
0.0
 73
     1
 44
1.0
  0
MTEXT
  5
188
330
17D
100
AcDbEntity
  8
VERMASSUNG
100
AcDbMText
 10
165.3441436774
 20
116.5596635247
 30
0.0
 40
2.0
 41
0.0
 71
     1
 72
     1
  1
6
  7
SLDTEXTSTYLE0
 11
6.123233995736766E-17
 21
1.0
 31
0.0
 73
     1
 44
1.0
  0
ENDBLK
  5
17F
330
17D
100
AcDbEntity
  8
0
100
AcDbBlockEnd
  0
BLOCK
  5
18B
330
18A
100
AcDbEntity
  8
0
100
AcDbBlockBegin
  2
*D4
 70
     1
 10
0.0
 20
0.0
 30
0.0
  3
*D4
  1

  0
SOLID
  5
18D
330
18A
100
AcDbEntity
  8
VERMASSUNG
100
AcDbTrace
 10
153.8348754238
 20
82.0251927875
 30
0.0
 11
156.8348754238
 21
81.5751927875
 31
0.0
 12
156.8348754238
 22
82.4751927875
 32
0.0
 13
156.8348754238
 23
82.4751927875
 33
0.0
  0
SOLID
  5
18E
330
18A
100
AcDbEntity
  8
VERMASSUNG
100
AcDbTrace
 10
161.8348754238
 20
82.0251927875
 30
0.0
 11
158.8348754238
 21
82.4751927875
 31
0.0
 12
158.8348754238
 22
81.5751927875
 32
0.0
 13
158.8348754238
 23
81.5751927875
 33
0.0
  0
LINE
  5
18F
330
18A
100
AcDbEntity
  8
VERMASSUNG
100
AcDbLine
 10
153.8348754238
 20
107.6384289237
 30
0.0
 11
153.8348754238
 21
81.0251927875
 31
0.0
  0
LINE
  5
190
330
18A
100
AcDbEntity
  8
VERMASSUNG
100
AcDbLine
 10
161.8348754238
 20
91.5171085802
 30
0.0
 11
161.8348754238
 21
81.0251927875
 31
0.0
  0
LINE
  5
191
330
18A
100
AcDbEntity
  8
VERMASSUNG
100
AcDbLine
 10
153.8348754238
 20
82.0251927875
 30
0.0
 11
161.8348754238
 21
82.0251927875
 31
0.0
  0
MTEXT
  5
192
330
18A
100
AcDbEntity
  8
VERMASSUNG
100
AcDbMText
 10
157.135114997
 20
84.6033283835
 30
0.0
 40
2.0
 41
0.0
 71
     1
 72
     1
  1
8
  7
SLDTEXTSTYLE0
 73
     1
 44
1.0
  0
ENDBLK
  5
18C
330
18A
100
AcDbEntity
  8
0
100
AcDbBlockEnd
  0
BLOCK
  5
195
330
194
100
AcDbEntity
  8
0
100
AcDbBlockBegin
  2
*D5
 70
     1
 10
0.0
 20
0.0
 30
0.0
  3
*D5
  1

  0
SOLID
  5
197
330
194
100
AcDbEntity
  8
VERMASSUNG
100
AcDbTrace
 10
153.8348754238
 20
82.0251927875
 30
0.0
 11
150.8348754238
 21
82.4751927875
 31
0.0
 12
150.8348754238
 22
81.5751927875
 32
0.0
 13
150.8348754238
 23
81.5751927875
 33
0.0
  0
SOLID
  5
198
330
194
100
AcDbEntity
  8
VERMASSUNG
100
AcDbTrace
 10
143.8348754238
 20
82.0251927875
 30
0.0
 11
146.8348754238
 21
81.5751927875
 31
0.0
 12
146.8348754238
 22
82.4751927875
 32
0.0
 13
146.8348754238
 23
82.4751927875
 33
0.0
  0
LINE
  5
199
330
194
100
AcDbEntity
  8
VERMASSUNG
100
AcDbLine
 10
153.8348754238
 20
107.6384289237
 30
0.0
 11
153.8348754238
 21
81.0251927875
 31
0.0
  0
LINE
  5
19A
330
194
100
AcDbEntity
  8
VERMASSUNG
100
AcDbLine
 10
143.8348754238
 20
107.6384289237
 30
0.0
 11
143.8348754238
 21
81.0251927875
 31
0.0
  0
LINE
  5
19B
330
194
100
AcDbEntity
  8
VERMASSUNG
100
AcDbLine
 10
153.8348754238
 20
82.0251927875
 30
0.0
 11
143.8348754238
 21
82.0251927875
 31
0.0
  0
MTEXT
  5
19C
330
194
100
AcDbEntity
  8
VERMASSUNG
100
AcDbMText
 10
147.6354636798
 20
84.6033283835
 30
0.0
 40
2.0
 41
0.0
 71
     1
 72
     1
  1
10
  7
SLDTEXTSTYLE0
 73
     1
 44
1.0
  0
ENDBLK
  5
196
330
194
100
AcDbEntity
  8
0
100
AcDbBlockEnd
  0
BLOCK
  5
19F
330
19E
100
AcDbEntity
  8
0
100
AcDbBlockBegin
  2
*D6
 70
     1
 10
0.0
 20
0.0
 30
0.0
  3
*D6
  1

  0
SOLID
  5
1A1
330
19E
100
AcDbEntity
  8
VERMASSUNG
100
AcDbTrace
 10
143.8348754238
 20
82.0251927875
 30
0.0
 11
140.8348754238
 21
82.4751927875
 31
0.0
 12
140.8348754238
 22
81.5751927875
 32
0.0
 13
140.8348754238
 23
81.5751927875
 33
0.0
  0
SOLID
  5
1A2
330
19E
100
AcDbEntity
  8
VERMASSUNG
100
AcDbTrace
 10
133.8348754238
 20
82.0251927875
 30
0.0
 11
136.8348754238
 21
81.5751927875
 31
0.0
 12
136.8348754238
 22
82.4751927875
 32
0.0
 13
136.8348754238
 23
82.4751927875
 33
0.0
  0
LINE
  5
1A3
330
19E
100
AcDbEntity
  8
VERMASSUNG
100
AcDbLine
 10
143.8348754238
 20
107.6384289237
 30
0.0
 11
143.8348754238
 21
81.0251927875
 31
0.0
  0
LINE
  5
1A4
330
19E
100
AcDbEntity
  8
VERMASSUNG
100
AcDbLine
 10
133.8348754238
 20
107.6384289237
 30
0.0
 11
133.8348754238
 21
81.0251927875
 31
0.0
  0
LINE
  5
1A5
330
19E
100
AcDbEntity
  8
VERMASSUNG
100
AcDbLine
 10
143.8348754238
 20
82.0251927875
 30
0.0
 11
133.8348754238
 21
82.0251927875
 31
0.0
  0
MTEXT
  5
1A6
330
19E
100
AcDbEntity
  8
VERMASSUNG
100
AcDbMText
 10
137.6354636798
 20
84.6033283835
 30
0.0
 40
2.0
 41
0.0
 71
     1
 72
     1
  1
10
  7
SLDTEXTSTYLE0
 73
     1
 44
1.0
  0
ENDBLK
  5
1A0
330
19E
100
AcDbEntity
  8
0
100
AcDbBlockEnd
  0
BLOCK
  5
1A9
330
1A8
100
AcDbEntity
  8
0
100
AcDbBlockBegin
  2
*D7
 70
     1
 10
0.0
 20
0.0
 30
0.0
  3
*D7
  1

  0
SOLID
  5
1AB
330
1A8
100
AcDbEntity
  8
VERMASSUNG
100
AcDbTrace
 10
103.8348754238
 20
145.6382714864
 30
0.0
 11
106.8348754238
 21
145.1882714864
 31
0.0
 12
106.8348754238
 22
146.0882714864
 32
0.0
 13
106.8348754238
 23
146.0882714864
 33
0.0
  0
SOLID
  5
1AC
330
1A8
100
AcDbEntity
  8
VERMASSUNG
100
AcDbTrace
 10
161.8348754238
 20
145.6382714864
 30
0.0
 11
158.8348754238
 21
146.0882714864
 31
0.0
 12
158.8348754238
 22
145.1882714864
 32
0.0
 13
158.8348754238
 23
145.1882714864
 33
0.0
  0
LINE
  5
1AD
330
1A8
100
AcDbEntity
  8
VERMASSUNG
100
AcDbLine
 10
103.8348754238
 20
139.0171085802
 30
0.0
 11
103.8348754238
 21
146.6382714864
 31
0.0
  0
LINE
  5
1AE
330
1A8
100
AcDbEntity
  8
VERMASSUNG
100
AcDbLine
 10
161.8348754238
 20
123.5171085802
 30
0.0
 11
161.8348754238
 21
146.6382714864
 31
0.0
  0
LINE
  5
1AF
330
1A8
100
AcDbEntity
  8
VERMASSUNG
100
AcDbLine
 10
103.8348754238
 20
145.6382714864
 30
0.0
 11
161.8348754238
 21
145.6382714864
 31
0.0
  0
MTEXT
  5
1B0
330
1A8
100
AcDbEntity
  8
VERMASSUNG
100
AcDbMText
 10
131.4353545702
 20
148.2164070823
 30
0.0
 40
2.0
 41
0.0
 71
     1
 72
     1
  1
58
  7
SLDTEXTSTYLE0
 73
     1
 44
1.0
  0
ENDBLK
  5
1AA
330
1A8
100
AcDbEntity
  8
0
100
AcDbBlockEnd
  0
BLOCK
  5
1B3
330
1B2
100
AcDbEntity
  8
0
100
AcDbBlockBegin
  2
*D8
 70
     1
 10
0.0
 20
0.0
 30
0.0
  3
*D8
  1

  0
SOLID
  5
1B5
330
1B2
100
AcDbEntity
  8
VERMASSUNG
100
AcDbTrace
 10
81.8348754238
 20
151.6382714864
 30
0.0
 11
84.8348754238
 21
151.1882714864
 31
0.0
 12
84.8348754238
 22
152.0882714864
 32
0.0
 13
84.8348754238
 23
152.0882714864
 33
0.0
  0
SOLID
  5
1B6
330
1B2
100
AcDbEntity
  8
VERMASSUNG
100
AcDbTrace
 10
161.8348754238
 20
151.6382714864
 30
0.0
 11
158.8348754238
 21
152.0882714864
 31
0.0
 12
158.8348754238
 22
151.1882714864
 32
0.0
 13
158.8348754238
 23
151.1882714864
 33
0.0
  0
LINE
  5
1B7
330
1B2
100
AcDbEntity
  8
VERMASSUNG
100
AcDbLine
 10
81.8348754238
 20
138.7171085802
 30
0.0
 11
81.8348754238
 21
152.6382714864
 31
0.0
  0
LINE
  5
1B8
330
1B2
100
AcDbEntity
  8
VERMASSUNG
100
AcDbLine
 10
161.8348754238
 20
123.5171085802
 30
0.0
 11
161.8348754238
 21
152.6382714864
 31
0.0
  0
LINE
  5
1B9
330
1B2
100
AcDbEntity
  8
VERMASSUNG
100
AcDbLine
 10
81.8348754238
 20
151.6382714864
 30
0.0
 11
161.8348754238
 21
151.6382714864
 31
0.0
  0
MTEXT
  5
1BA
330
1B2
100
AcDbEntity
  8
VERMASSUNG
100
AcDbMText
 10
120.4353545702
 20
154.2164070823
 30
0.0
 40
2.0
 41
0.0
 71
     1
 72
     1
  1
80
  7
SLDTEXTSTYLE0
 73
     1
 44
1.0
  0
ENDBLK
  5
1B4
330
1B2
100
AcDbEntity
  8
0
100
AcDbBlockEnd
  0
BLOCK
  5
1BD
330
1BC
100
AcDbEntity
  8
0
100
AcDbBlockBegin
  2
*D9
 70
     1
 10
0.0
 20
0.0
 30
0.0
  3
*D9
  1

  0
SOLID
  5
1BF
330
1BC
100
AcDbEntity
  8
VERMASSUNG
100
AcDbTrace
 10
43.8348754238
 20
157.6382714864
 30
0.0
 11
46.8348754238
 21
157.1882714864
 31
0.0
 12
46.8348754238
 22
158.0882714864
 32
0.0
 13
46.8348754238
 23
158.0882714864
 33
0.0
  0
SOLID
  5
1C0
330
1BC
100
AcDbEntity
  8
VERMASSUNG
100
AcDbTrace
 10
161.8348754238
 20
157.6382714864
 30
0.0
 11
158.8348754238
 21
158.0882714864
 31
0.0
 12
158.8348754238
 22
157.1882714864
 32
0.0
 13
158.8348754238
 23
157.1882714864
 33
0.0
  0
LINE
  5
1C1
330
1BC
100
AcDbEntity
  8
VERMASSUNG
100
AcDbLine
 10
43.8348754238
 20
127.8094465727
 30
0.0
 11
43.8348754238
 21
158.6382714864
 31
0.0
  0
LINE
  5
1C2
330
1BC
100
AcDbEntity
  8
VERMASSUNG
100
AcDbLine
 10
161.8348754238
 20
123.5171085802
 30
0.0
 11
161.8348754238
 21
158.6382714864
 31
0.0
  0
LINE
  5
1C3
330
1BC
100
AcDbEntity
  8
VERMASSUNG
100
AcDbLine
 10
43.8348754238
 20
157.6382714864
 30
0.0
 11
161.8348754238
 21
157.6382714864
 31
0.0
  0
MTEXT
  5
1C4
330
1BC
100
AcDbEntity
  8
VERMASSUNG
100
AcDbMText
 10
101.1358123626
 20
160.2164070823
 30
0.0
 40
2.0
 41
0.0
 71
     1
 72
     1
  1
118
  7
SLDTEXTSTYLE0
 73
     1
 44
1.0
  0
ENDBLK
  5
1BE
330
1BC
100
AcDbEntity
  8
0
100
AcDbBlockEnd
  0
BLOCK
  5
1C8
330
1C7
100
AcDbEntity
  8
0
100
AcDbBlockBegin
  2
*D10
 70
     1
 10
0.0
 20
0.0
 30
0.0
  3
*D10
  1

  0
SOLID
  5
1CA
330
1C7
100
AcDbEntity
  8
VERMASSUNG
100
AcDbTrace
 10
38.6515037451
 20
104.0171085802
 30
0.0
 11
38.2015037451
 21
101.0171085802
 31
0.0
 12
39.1015037451
 22
101.0171085802
 32
0.0
 13
39.1015037451
 23
101.0171085802
 33
0.0
  0
SOLID
  5
1CB
330
1C7
100
AcDbEntity
  8
VERMASSUNG
100
AcDbTrace
 10
38.6515037451
 20
111.0171085802
 30
0.0
 11
39.1015037451
 21
114.0171085802
 31
0.0
 12
38.2015037451
 22
114.0171085802
 32
0.0
 13
38.2015037451
 23
114.0171085802
 33
0.0
  0
LINE
  5
1CC
330
1C7
100
AcDbEntity
  8
VERMASSUNG
100
AcDbLine
 10
101.1396088284
 20
104.0171085802
 30
0.0
 11
37.6515037451
 21
104.0171085802
 31
0.0
  0
LINE
  5
1CD
330
1C7
100
AcDbEntity
  8
VERMASSUNG
100
AcDbLine
 10
101.1396088284
 20
111.0171085802
 30
0.0
 11
37.6515037451
 21
111.0171085802
 31
0.0
  0
LINE
  5
1CE
330
1C7
100
AcDbEntity
  8
VERMASSUNG
100
AcDbLine
 10
38.6515037451
 20
104.0171085802
 30
0.0
 11
38.6515037451
 21
89.4468877641
 31
0.0
  0
LINE
  5
1CF
330
1C7
100
AcDbEntity
  8
VERMASSUNG
100
AcDbLine
 10
38.6515037451
 20
104.0171085802
 30
0.0
 11
38.6515037451
 21
111.0171085802
 31
0.0
  0
LINE
  5
1D0
330
1C7
100
AcDbEntity
  8
VERMASSUNG
100
AcDbLine
 10
38.6515037451
 20
111.0171085802
 30
0.0
 11
38.6515037451
 21
117.0171085802
 31
0.0
  0
MTEXT
  5
1D1
330
1C7
100
AcDbEntity
  8
VERMASSUNG
100
AcDbMText
 10
36.0733682074
 20
91.0343877641
 30
0.0
 40
2.0
 41
0.0
 71
     1
 72
     1
  1
%%c
  7
SLDTEXTSTYLE0
 11
6.123233995736766E-17
 21
1.0
 31
0.0
 73
     1
 44
1.0
  0
MTEXT
  5
1D2
330
1C7
100
AcDbEntity
  8
VERMASSUNG
100
AcDbMText
 10
36.0733681491
 20
94.6438092195
 30
0.0
 40
2.0
 41
0.0
 71
     1
 72
     1
  1
7
  7
SLDTEXTSTYLE0
 11
6.123233995736766E-17
 21
1.0
 31
0.0
 73
     1
 44
1.0
  0
MTEXT
  5
1D3
330
1C7
100
AcDbEntity
  8
VERMASSUNG
100
AcDbMText
 10
36.5687525467
 20
97.2414989033
 30
0.0
 40
1.5
 41
0.0
 71
     1
 72
     1
  1
min.
  7
SLDTEXTSTYLE0
 11
6.123233995736766E-17
 21
1.0
 31
0.0
 73
     1
 44
1.0
  0
ENDBLK
  5
1C9
330
1C7
100
AcDbEntity
  8
0
100
AcDbBlockEnd
  0
BLOCK
  5
1D6
330
1D5
100
AcDbEntity
  8
0
100
AcDbBlockBegin
  2
*D11
 70
     1
 10
0.0
 20
0.0
 30
0.0
  3
*D11
  1

  0
SOLID
  5
1D8
330
1D5
100
AcDbEntity
  8
VERMASSUNG
100
AcDbTrace
 10
43.8348754238
 20
68.3229627637
 30
0.0
 11
46.8348754238
 21
67.8729627637
 31
0.0
 12
46.8348754238
 22
68.7729627637
 32
0.0
 13
46.8348754238
 23
68.7729627637
 33
0.0
  0
SOLID
  5
1D9
330
1D5
100
AcDbEntity
  8
VERMASSUNG
100
AcDbTrace
 10
128.8348754238
 20
68.3229627637
 30
0.0
 11
125.8348754238
 21
68.7729627637
 31
0.0
 12
125.8348754238
 22
67.8729627637
 32
0.0
 13
125.8348754238
 23
67.8729627637
 33
0.0
  0
LINE
  5
1DA
330
1D5
100
AcDbEntity
  8
VERMASSUNG
100
AcDbLine
 10
43.8348754238
 20
87.2247705877
 30
0.0
 11
43.8348754238
 21
67.3229627637
 31
0.0
  0
LINE
  5
1DB
330
1D5
100
AcDbEntity
  8
VERMASSUNG
100
AcDbLine
 10
128.8348754238
 20
104.0171085802
 30
0.0
 11
128.8348754238
 21
67.3229627637
 31
0.0
  0
LINE
  5
1DC
330
1D5
100
AcDbEntity
  8
VERMASSUNG
100
AcDbLine
 10
43.8348754238
 20
68.3229627637
 30
0.0
 11
128.8348754238
 21
68.3229627637
 31
0.0
  0
MTEXT
  5
1DD
330
1D5
100
AcDbEntity
  8
VERMASSUNG
100
AcDbMText
 10
84.9353545702
 20
70.9010983596
 30
0.0
 40
2.0
 41
0.0
 71
     1
 72
     1
  1
85
  7
SLDTEXTSTYLE0
 73
     1
 44
1.0
  0
ENDBLK
  5
1D7
330
1D5
100
AcDbEntity
  8
0
100
AcDbBlockEnd
  0
ENDSEC
  0
SECTION
  2
ENTITIES
  0
MTEXT
  5
45
330
1F
100
AcDbEntity
  8
KOPF_DÜNN
100
AcDbMText
 10
13.8892156294
 20
23.8442973028
 30
0.0
 40
3.0
 41
0.0
 71
     1
 72
     1
  1
PS6.B06.K01.080
  7
SLDTEXTSTYLE0
 73
     1
 44
1.0
  0
MTEXT
  5
46
330
1F
100
AcDbEntity
  8
VERMASSUNG
100
AcDbMText
 10
13.9329988022
 20
28.8834360957
 30
0.0
 40
3.0
 41
0.0
 71
     1
 72
     1
  1
Bohrstangenhalter / Boring bar holder
  7
SLDTEXTSTYLE0
 73
     1
 44
1.0
  0
MTEXT
  5
47
330
1F
100
AcDbEntity
  8
VERMASSUNG
100
AcDbMText
 10
98.8601118557
 20
13.8365368761
 30
0.0
 40
2.0
 41
0.0
 71
     1
 72
     1
  1
Datum: 08.03.2010
  7
SLDTEXTSTYLE0
 73
     1
 44
1.0
  0
MTEXT
  5
49
330
1F
100
AcDbEntity
  8
VERMASSUNG
100
AcDbMText
 10
13.933048693
 20
18.0482802738
 30
0.0
 40
2.0
 41
0.0
 71
     1
 72
     1
  1
PSC 63 / ø 06
  7
SLDTEXTSTYLE1
 73
     1
 44
1.0
  0
MTEXT
  5
4A
330
1F
100
AcDbEntity
  8
VERMASSUNG
100
AcDbMText
 10
13.9808475933
 20
13.9090974274
 30
0.0
 40
2.0
 41
0.0
 71
     1
 72
     1
  1
Gewicht: 1150g
  7
SLDTEXTSTYLE0
 73
     1
 44
1.0
  0
ARC
  5
4B
330
1F
100
AcDbEntity
  8
0
  6
Continuous
 62
     7
370
    15
100
AcDbCircle
 10
82.1348754238
 20
76.3171085802
 30
0.0
 40
0.2999999999999972
100
AcDbArc
 50
180.0
 51
270.0
  0
ARC
  5
4C
330
1F
100
AcDbEntity
  8
0
  6
Continuous
 62
     7
370
    15
100
AcDbCircle
 10
82.1348754238
 20
138.7171085802
 30
0.0
 40
0.3000000000000114
100
AcDbArc
 50
90.0
 51
180.0
  0
SPLINE
  5
4D
330
1F
100
AcDbEntity
  8
0
  6
Continuous
 62
     7
370
    15
100
AcDbSpline
210
0.0
220
0.0
230
1.0
 70
    24
 71
     1
 72
     4
 73
     2
 74
     0
 42
0.00000001
 43
0.00000001
 40
0.0
 40
0.0
 40
1.0
 40
1.0
 10
82.13487543802003
 20
76.01710807353032
 30
0.0
 10
103.8348753045615
 20
76.01710807353032
 30
0.0
  0
SPLINE
  5
4E
330
1F
100
AcDbEntity
  8
0
  6
Continuous
 62
     7
370
    15
100
AcDbSpline
210
0.0
220
0.0
230
1.0
 70
    24
 71
     1
 72
     4
 73
     2
 74
     0
 42
0.00000001
 43
0.00000001
 40
0.0
 40
0.0
 40
1.0
 40
1.0
 10
103.8348753045615
 20
139.0171090868093
 30
0.0
 10
82.13487543802003
 20
139.0171090868093
 30
0.0
  0
LWPOLYLINE
  5
4F
330
1F
100
AcDbEntity
  8
0
  6
Continuous
 62
     7
370
    15
100
AcDbPolyline
 90
        3
 70
   128
 43
0.0
 10
81.6348754288
 20
84.9772880581
 10
81.760330364
 20
84.9089867231
 10
81.8348754238
 20
84.8562477884
  0
LWPOLYLINE
  5
50
330
1F
100
AcDbEntity
  8
0
  6
Continuous
 62
     7
370
    15
100
AcDbPolyline
 90
        3
 70
   128
 43
0.0
 10
81.8348754238
 20
130.177969372
 10
81.760330364
 20
130.1252304372
 10
81.6348754288
 20
130.0569291022
  0
ARC
  5
51
330
1F
100
AcDbEntity
  8
0
  6
Continuous
 62
     7
370
    15
100
AcDbCircle
 10
107.8348754238
 20
86.5171085802
 30
0.0
 40
4.000000000000014
100
AcDbArc
 50
90.0
 51
180.0
  0
ARC
  5
52
330
1F
100
AcDbEntity
  8
0
  6
Continuous
 62
     7
370
    15
100
AcDbCircle
 10
107.8348754238
 20
128.5171085802
 30
0.0
 40
4.0
100
AcDbArc
 50
180.0
 51
270.0
  0
SPLINE
  5
53
330
1F
100
AcDbEntity
  8
0
  6
Continuous
 62
     7
370
    15
100
AcDbSpline
210
0.0
220
0.0
230
1.0
 70
    24
 71
     1
 72
     4
 73
     2
 74
     0
 42
0.00000001
 43
0.00000001
 40
0.0
 40
0.0
 40
1.0
 40
1.0
 10
131.3348751555499
 20
124.5171095040418
 30
0.0
 10
107.8348759602126
 20
124.5171095040418
 30
0.0
  0
SPLINE
  5
54
330
1F
100
AcDbEntity
  8
0
  6
Continuous
 62
     7
370
    15
100
AcDbSpline
210
0.0
220
0.0
230
1.0
 70
    24
 71
     1
 72
     4
 73
     2
 74
     0
 42
0.00000001
 43
0.00000001
 40
0.0
 40
0.0
 40
1.0
 40
1.0
 10
141.3348767946776
 20
124.5171095040418
 30
0.0
 10
136.3348741124686
 20
124.5171095040418
 30
0.0
  0
SPLINE
  5
55
330
1F
100
AcDbEntity
  8
0
  6
Continuous
 62
     7
370
    15
100
AcDbSpline
210
0.0
220
0.0
230
1.0
 70
    24
 71
     1
 72
     4
 73
     2
 74
     0
 42
0.00000001
 43
0.00000001
 40
0.0
 40
0.0
 40
1.0
 40
1.0
 10
151.3348747085151
 20
124.5171095040418
 30
0.0
 10
146.334872026306
 20
124.5171095040418
 30
0.0
  0
SPLINE
  5
56
330
1F
100
AcDbEntity
  8
0
  6
Continuous
 62
     7
370
    15
100
AcDbSpline
210
0.0
220
0.0
230
1.0
 70
    24
 71
     1
 72
     4
 73
     2
 74
     0
 42
0.00000001
 43
0.00000001
 40
0.0
 40
0.0
 40
1.0
 40
1.0
 10
160.8348790596541
 20
124.5171095040418
 30
0.0
 10
156.3348773907241
 20
124.5171095040418
 30
0.0
  0
SPLINE
  5
57
330
1F
100
AcDbEntity
  8
0
  6
Continuous
 62
     7
370
    15
100
AcDbSpline
210
0.0
220
0.0
230
1.0
 70
    24
 71
     1
 72
     4
 73
     2
 74
     0
 42
0.00000001
 43
0.00000001
 40
0.0
 40
0.0
 40
1.0
 40
1.0
 10
107.8348759602126
 20
90.51710765629781
 30
0.0
 10
160.8348790596541
 20
90.51710765629781
 30
0.0
  0
ARC
  5
58
330
1F
100
AcDbEntity
  8
0
  6
Continuous
 62
     7
370
    15
100
AcDbCircle
 10
160.8348754238
 20
123.5171085802
 30
0.0
 40
1.0
100
AcDbArc
 50
0.0
 51
90.0
  0
ARC
  5
59
330
1F
100
AcDbEntity
  8
0
  6
Continuous
 62
     7
370
    15
100
AcDbCircle
 10
160.8348754238
 20
91.5171085802
 30
0.0
 40
1.0
100
AcDbArc
 50
270.0
 51
0.0
  0
LINE
  5
5A
330
1F
100
AcDbEntity
  8
0
  6
Continuous
 62
     7
370
    15
100
AcDbLine
 10
153.8348723243
 20
124.517109504
 30
0.0
 11
156.3348773907
 21
124.517109504
 31
0.0
  0
LINE
  5
5B
330
1F
100
AcDbEntity
  8
0
  6
Continuous
 62
     7
370
    15
100
AcDbLine
 10
151.3348747085
 20
124.517109504
 30
0.0
 11
153.8348723243
 21
124.517109504
 31
0.0
  0
CIRCLE
  5
5C
330
1F
100
AcDbEntity
  8
0
  6
Continuous
 62
     7
370
    15
100
AcDbCircle
 10
153.8348754238
 20
107.5171085802
 30
0.0
 40
2.5
  0
LINE
  5
5D
330
1F
100
AcDbEntity
  8
0
  6
Continuous
 62
     7
370
    15
100
AcDbLine
 10
155.3348753642
 20
108.3831339754
 30
0.0
 11
153.8348723243
 21
109.2491593706
 31
0.0
  0
LINE
  5
5E
330
1F
100
AcDbEntity
  8
0
  6
Continuous
 62
     7
370
    15
100
AcDbLine
 10
152.3348767351
 20
108.3831339754
 30
0.0
 11
153.8348723243
 21
109.2491593706
 31
0.0
  0
LINE
  5
5F
330
1F
100
AcDbEntity
  8
0
  6
Continuous
 62
     7
370
    15
100
AcDbLine
 10
152.3348767351
 20
106.6510831849
 30
0.0
 11
152.3348767351
 21
108.3831339754
 31
0.0
  0
LINE
  5
60
330
1F
100
AcDbEntity
  8
0
  6
Continuous
 62
     7
370
    15
100
AcDbLine
 10
152.3348767351
 20
106.6510831849
 30
0.0
 11
153.8348723243
 21
105.7850577897
 31
0.0
  0
LINE
  5
61
330
1F
100
AcDbEntity
  8
0
  6
Continuous
 62
     7
370
    15
100
AcDbLine
 10
155.3348753642
 20
106.6510831849
 30
0.0
 11
153.8348723243
 21
105.7850577897
 31
0.0
  0
LINE
  5
62
330
1F
100
AcDbEntity
  8
0
  6
Continuous
 62
     7
370
    15
100
AcDbLine
 10
155.3348753642
 20
106.6510831849
 30
0.0
 11
155.3348753642
 21
108.3831339754
 31
0.0
  0
LINE
  5
63
330
1F
100
AcDbEntity
  8
0
  6
Continuous
 62
     7
370
    15
100
AcDbLine
 10
143.8348744105
 20
124.517109504
 30
0.0
 11
146.3348720263
 21
124.517109504
 31
0.0
  0
LINE
  5
64
330
1F
100
AcDbEntity
  8
0
  6
Continuous
 62
     7
370
    15
100
AcDbLine
 10
141.3348767947
 20
124.517109504
 30
0.0
 11
143.8348744105
 21
124.517109504
 31
0.0
  0
CIRCLE
  5
65
330
1F
100
AcDbEntity
  8
0
  6
Continuous
 62
     7
370
    15
100
AcDbCircle
 10
143.8348754238
 20
107.5171085802
 30
0.0
 40
2.5
  0
LINE
  5
66
330
1F
100
AcDbEntity
  8
0
  6
Continuous
 62
     7
370
    15
100
AcDbLine
 10
145.3348774503
 20
108.3831339754
 30
0.0
 11
143.8348744105
 21
109.2491593706
 31
0.0
  0
LINE
  5
67
330
1F
100
AcDbEntity
  8
0
  6
Continuous
 62
     7
370
    15
100
AcDbLine
 10
142.3348750959
 20
108.3831339754
 30
0.0
 11
143.8348744105
 21
109.2491593706
 31
0.0
  0
LINE
  5
68
330
1F
100
AcDbEntity
  8
0
  6
Continuous
 62
     7
370
    15
100
AcDbLine
 10
142.3348750959
 20
106.6510831849
 30
0.0
 11
142.3348750959
 21
108.3831339754
 31
0.0
  0
LINE
  5
69
330
1F
100
AcDbEntity
  8
0
  6
Continuous
 62
     7
370
    15
100
AcDbLine
 10
142.3348750959
 20
106.6510831849
 30
0.0
 11
143.8348744105
 21
105.7850577897
 31
0.0
  0
LINE
  5
6A
330
1F
100
AcDbEntity
  8
0
  6
Continuous
 62
     7
370
    15
100
AcDbLine
 10
145.3348774503
 20
106.6510831849
 30
0.0
 11
143.8348744105
 21
105.7850577897
 31
0.0
  0
LINE
  5
6B
330
1F
100
AcDbEntity
  8
0
  6
Continuous
 62
     7
370
    15
100
AcDbLine
 10
145.3348774503
 20
106.6510831849
 30
0.0
 11
145.3348774503
 21
108.3831339754
 31
0.0
  0
CIRCLE
  5
6C
330
1F
100
AcDbEntity
  8
0
  6
Continuous
 62
     7
370
    15
100
AcDbCircle
 10
133.8348754238
 20
107.5171085802
 30
0.0
 40
2.5
  0
LINE
  5
6D
330
1F
100
AcDbEntity
  8
0
  6
Continuous
 62
     7
370
    15
100
AcDbLine
 10
135.3348758112
 20
108.3831339754
 30
0.0
 11
133.8348764967
 21
109.2491593706
 31
0.0
  0
LINE
  5
6E
330
1F
100
AcDbEntity
  8
0
  6
Continuous
 62
     7
370
    15
100
AcDbLine
 10
132.3348771821
 20
108.3831339754
 30
0.0
 11
133.8348764967
 21
109.2491593706
 31
0.0
  0
LINE
  5
6F
330
1F
100
AcDbEntity
  8
0
  6
Continuous
 62
     7
370
    15
100
AcDbLine
 10
132.3348771821
 20
106.6510831849
 30
0.0
 11
132.3348771821
 21
108.3831339754
 31
0.0
  0
LINE
  5
70
330
1F
100
AcDbEntity
  8
0
  6
Continuous
 62
     7
370
    15
100
AcDbLine
 10
132.3348771821
 20
106.6510831849
 30
0.0
 11
133.8348764967
 21
105.7850577897
 31
0.0
  0
LINE
  5
71
330
1F
100
AcDbEntity
  8
0
  6
Continuous
 62
     7
370
    15
100
AcDbLine
 10
135.3348758112
 20
106.6510831849
 30
0.0
 11
133.8348764967
 21
105.7850577897
 31
0.0
  0
LINE
  5
72
330
1F
100
AcDbEntity
  8
0
  6
Continuous
 62
     7
370
    15
100
AcDbLine
 10
135.3348758112
 20
106.6510831849
 30
0.0
 11
135.3348758112
 21
108.3831339754
 31
0.0
  0
LINE
  5
73
330
1F
100
AcDbEntity
  8
0
  6
Continuous
 62
     7
370
    15
100
AcDbLine
 10
133.8348764967
 20
124.517109504
 30
0.0
 11
136.3348741125
 21
124.517109504
 31
0.0
  0
LINE
  5
74
330
1F
100
AcDbEntity
  8
0
  6
Continuous
 62
     7
370
    15
100
AcDbLine
 10
131.3348751555
 20
124.517109504
 30
0.0
 11
133.8348764967
 21
124.517109504
 31
0.0
  0
LINE
  5
75
330
1F
100
AcDbEntity
  8
0
  6
Continuous
 62
     7
370
    15
100
AcDbLine
 10
81.8348754238
 20
76.3171094266
 30
0.0
 11
81.8348754238
 21
138.7171077338
 31
0.0
  0
SPLINE
  5
76
330
1F
100
AcDbEntity
  8
0
  6
Continuous
 62
     7
370
    15
100
AcDbSpline
210
0.0
220
0.0
230
1.0
 70
     8
 71
     3
 72
    12
 73
     8
 74
     0
 42
0.00000001
 43
0.00000001
 40
0.0
 40
0.0
 40
0.0
 40
0.0
 40
0.2500000000000009
 40
0.2500000000000009
 40
0.5000000000000018
 40
0.5000000000000018
 40
1.0
 40
1.0
 40
1.0
 40
1.0
 10
92.36263223733724
 20
116.9051750115057
 30
0.0
 10
92.29955219884388
 20
116.9051750115057
 30
0.0
 10
92.24040357666249
 20
116.9305393307206
 30
0.0
 10
92.14193102659338
 20
117.0047041910935
 30
0.0
 10
92.10289441460867
 20
117.0512245316476
 30
0.0
 10
92.00299794782963
 20
117.2013668744929
 30
0.0
 10
91.96057706676298
 20
117.313060081465
 30
0.0
 10
91.92961953544501
 20
117.4264779008548
 30
0.0
  0
LINE
  5
77
330
1F
100
AcDbEntity
  8
0
  6
Continuous
 62
     7
370
    15
100
AcDbLine
 10
95.3071186359
 20
116.9051754084
 30
0.0
 11
92.3626324202
 21
116.9051754084
 31
0.0
  0
SPLINE
  5
78
330
1F
100
AcDbEntity
  8
0
  6
Continuous
 62
     7
370
    15
100
AcDbSpline
210
0.0
220
0.0
230
1.0
 70
     8
 71
     3
 72
    12
 73
     8
 74
     0
 42
0.00000001
 43
0.00000001
 40
0.0
 40
0.0
 40
0.0
 40
0.0
 40
0.5000000000000018
 40
0.5000000000000018
 40
0.7500000000000009
 40
0.7500000000000009
 40
1.0
 40
1.0
 40
1.0
 40
1.0
 10
95.74013131209658
 20
117.4264779008548
 30
0.0
 10
95.70940907017747
 20
117.3139221014456
 30
0.0
 10
95.66657185564233
 20
117.201164241706
 30
0.0
 10
95.56714483144252
 20
117.0516233559097
 30
0.0
 10
95.52739263662588
 20
117.0043306242028
 30
0.0
 10
95.42935117976764
 20
116.9305943308813
 30
0.0
 10
95.36979512418019
 20
116.9051750115057
 30
0.0
 10
95.30711861020436
 20
116.9051750115057
 30
0.0
  0
ELLIPSE
  5
79
330
1F
100
AcDbEntity
  8
0
  6
Continuous
 62
     7
370
    15
100
AcDbEllipse
 10
79.4877212344
 20
107.5171085802
 30
0.0
 11
14.75368316065615
 21
31.09325491558116
 31
0.0
210
0.0
220
0.0
230
0.9999999999999998
 40
0.3419987131
 41
5.193281737408619
 42
6.124043104552325
  0
SPLINE
  5
7A
330
1F
100
AcDbEntity
  8
0
  6
Continuous
 62
     7
370
    15
100
AcDbSpline
210
0.0
220
0.0
230
1.0
 70
     8
 71
     3
 72
    12
 73
     8
 74
     0
 42
0.00000001
 43
0.00000001
 40
0.0
 40
0.0
 40
0.0
 40
0.0
 40
0.2499999999999999
 40
0.2499999999999999
 40
0.4999999999999999
 40
0.4999999999999999
 40
1.0
 40
1.0
 40
1.0
 40
1.0
 10
95.30711861020436
 20
137.5856005390428
 30
0.0
 10
95.37019864869771
 20
137.5856005390428
 30
0.0
 10
95.42934727087912
 20
137.5776946128304
 30
0.0
 10
95.5278198209482
 20
137.5543694513942
 30
0.0
 10
95.56685643293292
 20
137.5396566615624
 30
0.0
 10
95.66675289971197
 20
137.4917008608315
 30
0.0
 10
95.7091737807786
 20
137.4554387042514
 30
0.0
 10
95.74013131209658
 20
137.417851040287
 30
0.0
  0
LINE
  5
7B
330
1F
100
AcDbEntity
  8
0
  6
Continuous
 62
     7
370
    15
100
AcDbLine
 10
92.3626324202
 20
137.585601097
 30
0.0
 11
95.3071186359
 21
137.585601097
 31
0.0
  0
SPLINE
  5
7C
330
1F
100
AcDbEntity
  8
0
  6
Continuous
 62
     7
370
    15
100
AcDbSpline
210
0.0
220
0.0
230
1.0
 70
     8
 71
     3
 72
    12
 73
     8
 74
     0
 42
0.00000001
 43
0.00000001
 40
0.0
 40
0.0
 40
0.0
 40
0.0
 40
0.5
 40
0.5
 40
0.75
 40
0.75
 40
1.0
 40
1.0
 40
1.0
 40
1.0
 10
91.92961953544503
 20
137.417851040287
 30
0.0
 10
91.96034177736412
 20
137.45515302324
 30
0.0
 10
92.00317899189928
 20
137.4917648552864
 30
0.0
 10
92.10260601609906
 20
137.5395296385716
 30
0.0
 10
92.14235821091572
 20
137.554487154054
 30
0.0
 10
92.24039966777393
 20
137.5776770998231
 30
0.0
 10
92.29995572336142
 20
137.5856005390428
 30
0.0
 10
92.36263223733724
 20
137.5856005390428
 30
0.0
  0
ELLIPSE
  5
7D
330
1F
100
AcDbEntity
  8
0
  6
Continuous
 62
     7
370
    15
100
AcDbEllipse
 10
108.1820296131
 20
107.5171085802
 30
0.0
 11
-14.75368316065608
 21
31.09325491558116
 31
0.0
210
0.0
220
0.0
230
1.0
 40
0.3419987131
 41
0.1591422026273013
 42
1.089903569770979
  0
SPLINE
  5
7E
330
1F
100
AcDbEntity
  8
0
  6
Continuous
 62
     7
370
    15
100
AcDbSpline
210
0.0
220
0.0
230
1.0
 70
     8
 71
     3
 72
    12
 73
     8
 74
     0
 42
0.00000001
 43
0.00000001
 40
0.0
 40
0.0
 40
0.0
 40
0.0
 40
0.2500000000000018
 40
0.2500000000000018
 40
0.5000000000000037
 40
0.5000000000000037
 40
1.0
 40
1.0
 40
1.0
 40
1.0
 10
92.36263223733724
 20
77.44861662129665
 30
0.0
 10
92.29957528243945
 20
77.44861662129667
 30
0.0
 10
92.24044513269388
 20
77.4565169523762
 30
0.0
 10
92.14199758216057
 20
77.47982770038125
 30
0.0
 10
92.10296534397249
 20
77.49453282666488
 30
0.0
 10
92.00307545951553
 20
77.54246635485153
 30
0.0
 10
91.96077648590621
 20
77.57853632761629
 30
0.0
 10
91.92961953544496
 20
77.6163661200525
 30
0.0
  0
LINE
  5
7F
330
1F
100
AcDbEntity
  8
0
  6
Continuous
 62
     7
370
    15
100
AcDbLine
 10
95.3071186359
 20
77.4486160633
 30
0.0
 11
92.3626324202
 21
77.4486160633
 31
0.0
  0
SPLINE
  5
80
330
1F
100
AcDbEntity
  8
0
  6
Continuous
 62
     7
370
    15
100
AcDbSpline
210
0.0
220
0.0
230
1.0
 70
     8
 71
     3
 72
    12
 73
     8
 74
     0
 42
0.00000001
 43
0.00000001
 40
0.0
 40
0.0
 40
0.0
 40
0.0
 40
0.5000000000000046
 40
0.5000000000000046
 40
0.7500000000000022
 40
0.7500000000000022
 40
1.0
 40
1.0
 40
1.0
 40
1.0
 10
95.74013131209658
 20
77.61636612005252
 30
0.0
 10
95.70898611413448
 20
77.57855059713232
 30
0.0
 10
95.66671184780004
 20
77.5424837390487
 30
0.0
 10
95.56676631397474
 20
77.49452367403745
 30
0.0
 10
95.52703600927067
 20
77.47966270013978
 30
0.0
 10
95.43014795926447
 20
77.45671155400865
 30
0.0
 10
95.37008271751792
 20
77.4486166212966
 30
0.0
 10
95.30711861020437
 20
77.4486166212966
 30
0.0
  0
ELLIPSE
  5
81
330
1F
100
AcDbEntity
  8
0
  6
Continuous
 62
     7
370
    15
100
AcDbEllipse
 10
79.4877212344
 20
107.5171085802
 30
0.0
 11
-14.75368316065628
 21
31.09325491558116
 31
0.0
210
0.0
220
0.0
230
1.0
 40
0.3419987131
 41
3.300734856217123
 42
4.231496223360772
  0
SPLINE
  5
82
330
1F
100
AcDbEntity
  8
0
  6
Continuous
 62
     7
370
    15
100
AcDbSpline
210
0.0
220
0.0
230
1.0
 70
     8
 71
     3
 72
    12
 73
     8
 74
     0
 42
0.00000001
 43
0.00000001
 40
0.0
 40
0.0
 40
0.0
 40
0.0
 40
0.2499999999999991
 40
0.2499999999999991
 40
0.4999999999999982
 40
0.4999999999999982
 40
1.0
 40
1.0
 40
1.0
 40
1.0
 10
95.30711861020436
 20
98.12904214883353
 30
0.0
 10
95.37017556510216
 20
98.12904214883352
 30
0.0
 10
95.42930571484774
 20
98.10369579545284
 30
0.0
 10
95.52775326538102
 20
98.02957641331334
 30
0.0
 10
95.56678550356911
 20
97.98307989861532
 30
0.0
 10
95.66667538802606
 20
97.83300539160675
 30
0.0
 10
95.70897436163536
 20
97.72188768249191
 30
0.0
 10
95.74013131209664
 20
97.60773925948442
 30
0.0
  0
LINE
  5
83
330
1F
100
AcDbEntity
  8
0
  6
Continuous
 62
     7
370
    15
100
AcDbLine
 10
92.3626324202
 20
98.1290417519
 30
0.0
 11
95.3071186359
 21
98.1290417519
 31
0.0
  0
SPLINE
  5
84
330
1F
100
AcDbEntity
  8
0
  6
Continuous
 62
     7
370
    15
100
AcDbSpline
210
0.0
220
0.0
230
1.0
 70
     8
 71
     3
 72
    12
 73
     8
 74
     0
 42
0.00000001
 43
0.00000001
 40
0.0
 40
0.0
 40
0.0
 40
0.0
 40
0.4999999999999982
 40
0.4999999999999982
 40
0.7499999999999991
 40
0.7499999999999991
 40
1.0
 40
1.0
 40
1.0
 40
1.0
 10
91.92961953544501
 20
97.60773925948439
 30
0.0
 10
91.96076473340713
 20
97.7218446253497
 30
0.0
 10
92.00303899974156
 20
97.83295095256845
 30
0.0
 10
92.10298453356685
 20
97.98310855999875
 30
0.0
 10
92.1427148382709
 20
98.0301012516161
 30
0.0
 10
92.23960288827712
 20
98.1030768361546
 30
0.0
 10
92.29966813002368
 20
98.1290421488336
 30
0.0
 10
92.36263223733722
 20
98.1290421488336
 30
0.0
  0
ELLIPSE
  5
85
330
1F
100
AcDbEntity
  8
0
  6
Continuous
 62
     7
370
    15
100
AcDbEllipse
 10
108.1820296131
 20
107.5171085802
 30
0.0
 11
14.75368316065621
 21
31.09325491558116
 31
0.0
210
0.0
220
0.0
230
1.0
 40
0.3419987131
 41
2.051689083818826
 42
2.982450450962504
  0
LINE
  5
86
330
1F
100
AcDbEntity
  8
0
  6
Continuous
 62
     7
370
    15
100
AcDbLine
 10
103.8348753046
 20
76.0171080735
 30
0.0
 11
103.8348753046
 21
139.0171090868
 31
0.0
  0
SPLINE
  5
87
330
1F
100
AcDbEntity
  8
0
  6
Continuous
 62
     7
370
    15
100
AcDbSpline
210
0.0
220
0.0
230
1.0
 70
     8
 71
     3
 72
    12
 73
     8
 74
     0
 42
0.00000001
 43
0.00000001
 40
0.0
 40
0.0
 40
0.0
 40
0.0
 40
0.4999999999999998
 40
0.4999999999999998
 40
0.7499999999999999
 40
0.7499999999999999
 40
1.0
 40
1.0
 40
1.0
 40
1.0
 10
81.01836313731431
 20
85.66231487769393
 30
0.0
 10
81.07479963822148
 20
85.66089699635218
 30
0.0
 10
81.14388426891024
 20
85.65933266010389
 30
0.0
 10
81.26268654062817
 20
85.65638846812944
 30
0.0
 10
81.30287181609825
 20
85.65535026503206
 30
0.0
 10
81.37625286350207
 20
85.65341636981742
 30
0.0
 10
81.40966242724473
 20
85.65252148252861
 30
0.0
 10
81.43989853490116
 20
85.65173769225628
 30
0.0
  0
SPLINE
  5
88
330
1F
100
AcDbEntity
  8
0
  6
Continuous
 62
     7
370
    15
100
AcDbSpline
210
0.0
220
0.0
230
1.0
 70
     8
 71
     3
 72
    16
 73
    12
 74
     0
 42
0.00000001
 43
0.00000001
 40
0.0
 40
0.0
 40
0.0
 40
0.0
 40
0.0624999999999967
 40
0.0624999999999967
 40
0.1249999999999934
 40
0.1249999999999934
 40
0.2499999999999922
 40
0.2499999999999922
 40
0.4999999999999949
 40
0.4999999999999949
 40
1.0
 40
1.0
 40
1.0
 40
1.0
 10
81.43989853486396
 20
85.65173769228052
 30
0.0
 10
81.4514789424519
 20
85.65143750116916
 30
0.0
 10
81.46478846921316
 20
85.65010975291017
 30
0.0
 10
81.49408989929933
 20
85.64341107813517
 30
0.0
 10
81.50890399918362
 20
85.63805289502947
 30
0.0
 10
81.54473240088646
 20
85.62100724586213
 30
0.0
 10
81.5588520252495
 20
85.60954470808637
 30
0.0
 10
81.59335616933798
 20
85.57798138271414
 30
0.0
 10
81.60446072004258
 20
85.56008408366888
 30
0.0
 10
81.63063689725877
 20
85.50992266605463
 30
0.0
 10
81.6348754237708
 20
85.48217825385807
 30
0.0
 10
81.6348754237708
 20
85.4575140919285
 30
0.0
  0
LINE
  5
89
330
1F
100
AcDbEntity
  8
0
  6
Continuous
 62
     7
370
    15
100
AcDbLine
 10
81.6348754288
 20
100.4952213523
 30
0.0
 11
81.6348754288
 21
84.9772880581
 31
0.0
  0
SPLINE
  5
8A
330
1F
100
AcDbEntity
  8
0
  6
Continuous
 62
     7
370
    15
100
AcDbSpline
210
0.0
220
0.0
230
1.0
 70
     8
 71
     3
 72
    16
 73
    12
 74
     0
 42
0.00000001
 43
0.00000001
 40
0.0
 40
0.0
 40
0.0
 40
0.0
 40
0.5000000000000011
 40
0.5000000000000011
 40
0.75
 40
0.75
 40
0.875000000000001
 40
0.875000000000001
 40
0.9375000000000006
 40
0.9375000000000006
 40
1.0
 40
1.0
 40
1.0
 40
1.0
 10
81.6348754237708
 20
100.4952212544197
 30
0.0
 10
81.6348754237708
 20
100.6089137985476
 30
0.0
 10
81.63072914869285
 20
100.7232339598971
 30
0.0
 10
81.60476355329934
 20
100.8962822503942
 30
0.0
 10
81.59330264792192
 20
100.9554577575559
 30
0.0
 10
81.55899091014754
 20
101.038580877024
 30
0.0
 10
81.54496617421799
 20
101.0667021931247
 30
0.0
 10
81.50894321118413
 20
101.0953180071021
 30
0.0
 10
81.49418870209448
 20
101.101111055004
 30
0.0
 10
81.46483654094757
 20
101.0995176290669
 30
0.0
 10
81.45149666644349
 20
101.0930212257431
 30
0.0
 10
81.43989853489515
 20
101.08450547954
 30
0.0
  0
SPLINE
  5
8B
330
1F
100
AcDbEntity
  8
0
  6
Continuous
 62
     7
370
    15
100
AcDbSpline
210
0.0
220
0.0
230
1.0
 70
     8
 71
     3
 72
    12
 73
     8
 74
     0
 42
0.00000001
 43
0.00000001
 40
0.0
 40
0.0
 40
0.0
 40
0.0
 40
0.2499999999999999
 40
0.2499999999999999
 40
0.5000000000000001
 40
0.5000000000000001
 40
1.0
 40
1.0
 40
1.0
 40
1.0
 10
81.43989853490223
 20
101.0845054795308
 30
0.0
 10
81.4097000934616
 20
101.0623327474858
 30
0.0
 10
81.37633273812561
 20
101.0432530916085
 30
0.0
 10
81.30317746229571
 20
101.0180800471658
 30
0.0
 10
81.26292476327174
 20
101.0125235107491
 30
0.0
 10
81.14519601999689
 20
101.0234353217358
 30
0.0
 10
81.07473757193793
 20
101.0653710771466
 30
0.0
 10
81.01836313731967
 20
101.1145828595282
 30
0.0
  0
SPLINE
  5
8C
330
1F
100
AcDbEntity
  8
0
  6
Continuous
 62
     7
370
    15
100
AcDbSpline
210
0.0
220
0.0
230
1.0
 70
     8
 71
     3
 72
    12
 73
     8
 74
     0
 42
0.00000001
 43
0.00000001
 40
0.0
 40
0.0
 40
0.0
 40
0.0
 40
0.4999999999999976
 40
0.4999999999999976
 40
0.7499999999999988
 40
0.7499999999999988
 40
1.0
 40
1.0
 40
1.0
 40
1.0
 10
80.51355508021115
 20
102.3309342514087
 30
0.0
 10
80.5573054320956
 20
102.1104872664342
 30
0.0
 10
80.61019558322008
 20
101.8949422766287
 30
0.0
 10
80.72180712636177
 20
101.5825282000567
 30
0.0
 10
80.76436647026529
 20
101.4804487244408
 30
0.0
 10
80.86934370560273
 20
101.286008711799
 30
0.0
 10
80.93091094869732
 20
101.1909238127354
 30
0.0
 10
81.0183631373197
 20
101.1145828595282
 30
0.0
  0
SPLINE
  5
8D
330
1F
100
AcDbEntity
  8
0
  6
Continuous
 62
     7
370
    15
100
AcDbSpline
210
0.0
220
0.0
230
1.0
 70
     8
 71
     3
 72
    12
 73
     8
 74
     0
 42
0.00000001
 43
0.00000001
 40
0.0
 40
0.0
 40
0.0
 40
0.0
 40
0.2500000000000004
 40
0.2500000000000004
 40
0.5000000000000008
 40
0.5000000000000008
 40
1.0
 40
1.0
 40
1.0
 40
1.0
 10
81.01836313731958
 20
113.9196343008113
 30
0.0
 10
80.92986972975169
 20
113.842384420703
 30
0.0
 10
80.86981168898582
 20
113.7490650968138
 30
0.0
 10
80.76396341600325
 20
113.5530320438444
 30
0.0
 10
80.72142989472576
 20
113.4507056856326
 30
0.0
 10
80.61027858790213
 20
113.1393612798567
 30
0.0
 10
80.55734773085433
 20
112.9239430266787
 30
0.0
 10
80.51355508021115
 20
112.7032829089308
 30
0.0
  0
SPLINE
  5
8E
330
1F
100
AcDbEntity
  8
0
  6
Continuous
 62
     7
370
    15
100
AcDbSpline
210
0.0
220
0.0
230
1.0
 70
     8
 71
     3
 72
    12
 73
     8
 74
     0
 42
0.00000001
 43
0.00000001
 40
0.0
 40
0.0
 40
0.0
 40
0.0
 40
0.5000000000000001
 40
0.5000000000000001
 40
0.7499999999999999
 40
0.7499999999999999
 40
1.0
 40
1.0
 40
1.0
 40
1.0
 10
81.01836313731957
 20
113.9196343008114
 30
0.0
 10
81.0746716856152
 20
113.9687885680552
 30
0.0
 10
81.14494634633331
 20
114.0107458866589
 30
0.0
 10
81.26298426065689
 20
114.0217055641914
 30
0.0
 10
81.30316050151085
 20
114.016196805944
 30
0.0
 10
81.37711759618877
 20
113.9906395771551
 30
0.0
 10
81.4097339839002
 20
113.9718595293158
 30
0.0
 10
81.43989853489596
 20
113.949711680799
 30
0.0
  0
SPLINE
  5
8F
330
1F
100
AcDbEntity
  8
0
  6
Continuous
 62
     7
370
    15
100
AcDbSpline
210
0.0
220
0.0
230
1.0
 70
     8
 71
     3
 72
    16
 73
    12
 74
     0
 42
0.00000001
 43
0.00000001
 40
0.0
 40
0.0
 40
0.0
 40
0.0
 40
0.0625000000000004
 40
0.0625000000000004
 40
0.1250000000000007
 40
0.1250000000000007
 40
0.2500000000000025
 40
0.2500000000000025
 40
0.5000000000000028
 40
0.5000000000000028
 40
1.0
 40
1.0
 40
1.0
 40
1.0
 10
81.4398985348642
 20
113.9497116807445
 30
0.0
 10
81.45151143470356
 20
113.9411850911493
 30
0.0
 10
81.46486261913604
 20
113.9346848296165
 30
0.0
 10
81.49426245875522
 20
113.933115432499
 30
0.0
 10
81.50910318331047
 20
113.9389988231296
 30
0.0
 10
81.54493639127907
 20
113.9675464591801
 30
0.0
 10
81.55904959910065
 20
113.9957134784859
 30
0.0
 10
81.59354097031954
 20
114.0794677369078
 30
0.0
 10
81.60462504142993
 20
114.1371811505293
 30
0.0
 10
81.63074785922593
 20
114.3107716871751
 30
0.0
 10
81.63487542377081
 20
114.4257997398171
 30
0.0
 10
81.63487542377081
 20
114.5389959059199
 30
0.0
  0
LINE
  5
90
330
1F
100
AcDbEntity
  8
0
  6
Continuous
 62
     7
370
    15
100
AcDbLine
 10
81.6348754288
 20
130.0569291022
 30
0.0
 11
81.6348754288
 21
114.5389958081
 31
0.0
  0
SPLINE
  5
91
330
1F
100
AcDbEntity
  8
0
  6
Continuous
 62
     7
370
    15
100
AcDbSpline
210
0.0
220
0.0
230
1.0
 70
     8
 71
     3
 72
    16
 73
    12
 74
     0
 42
0.00000001
 43
0.00000001
 40
0.0
 40
0.0
 40
0.0
 40
0.0
 40
0.5000000000000024
 40
0.5000000000000024
 40
0.7500000000000039
 40
0.7500000000000039
 40
0.8750000000000047
 40
0.8750000000000047
 40
0.9375000000000023
 40
0.9375000000000023
 40
1.0
 40
1.0
 40
1.0
 40
1.0
 10
81.6348754237708
 20
129.5767030684111
 30
0.0
 10
81.6348754237708
 20
129.5520319123681
 30
0.0
 10
81.63070972531082
 20
129.5244500809769
 30
0.0
 10
81.60445139698587
 20
129.4741072101536
 30
0.0
 10
81.59294761524828
 20
129.4558177120917
 30
0.0
 10
81.55881685590175
 20
129.4246626810547
 30
0.0
 10
81.54439496923105
 20
129.4130233058429
 30
0.0
 10
81.50882800079322
 20
129.3961412799118
 30
0.0
 10
81.49387623249856
 20
129.3907521761042
 30
0.0
 10
81.4648724141388
 20
129.3841316801597
 30
0.0
 10
81.45145706012956
 20
129.3827790919532
 30
0.0
 10
81.43989853489296
 20
129.3824794680816
 30
0.0
  0
SPLINE
  5
92
330
1F
100
AcDbEntity
  8
0
  6
Continuous
 62
     7
370
    15
100
AcDbSpline
210
0.0
220
0.0
230
1.0
 70
     8
 71
     3
 72
    12
 73
     8
 74
     0
 42
0.00000001
 43
0.00000001
 40
0.0
 40
0.0
 40
0.0
 40
0.0
 40
0.2500000000000003
 40
0.2500000000000003
 40
0.5000000000000007
 40
0.5000000000000007
 40
1.0
 40
1.0
 40
1.0
 40
1.0
 10
81.43989853490221
 20
129.3824794680834
 30
0.0
 10
81.40971075835257
 20
129.3816969306658
 30
0.0
 10
81.37635695426087
 20
129.3808035988473
 30
0.0
 10
81.30323075106492
 20
129.3788762900437
 30
0.0
 10
81.26299554804075
 20
129.377836758831
 30
0.0
 10
81.14530391790767
 20
129.3749188754838
 30
0.0
 10
81.07492324474762
 20
129.3733232694136
 30
0.0
 10
81.01836313731701
 20
129.3719022826457
 30
0.0
  0
SPLINE
  5
93
330
1F
100
AcDbEntity
  8
0
  6
Continuous
 62
     7
370
    15
100
AcDbSpline
210
0.0
220
0.0
230
1.0
 70
     8
 71
     3
 72
    16
 73
    12
 74
     0
 42
0.00000001
 43
0.00000001
 40
0.0
 40
0.0
 40
0.0
 40
0.0
 40
0.2500000000000001
 40
0.2500000000000001
 40
0.3750000000000001
 40
0.3750000000000001
 40
0.5000000000000001
 40
0.5000000000000001
 40
0.7500000000000001
 40
0.7500000000000001
 40
1.0
 40
1.0
 40
1.0
 40
1.0
 10
80.51355508021115
 20
112.7032829089308
 30
0.0
 10
80.35232260272667
 20
111.890873133684
 30
0.0
 10
80.23184276308706
 20
111.0507948392993
 30
0.0
 10
80.10946224577374
 20
109.7494997899365
 30
0.0
 10
80.07848458537629
 20
109.3088187543517
 30
0.0
 10
80.03687084774833
 20
108.4129791134206
 30
0.0
 10
80.02663493481552
 20
107.9663209822181
 30
0.0
 10
80.02644653775941
 20
106.6310110250783
 30
0.0
 10
80.06659124039702
 20
105.7465156517707
 30
0.0
 10
80.23074499533658
 20
103.9892657637447
 30
0.0
 10
80.35229664574614
 20
103.1434748173316
 30
0.0
 10
80.51355508021115
 20
102.3309342514087
 30
0.0
  0
LINE
  5
94
330
1F
100
AcDbEntity
  8
0
  6
Continuous
 62
     7
370
    15
100
AcDbLine
 10
79.6348754357
 20
114.0022867155
 30
0.0
 11
79.6348754357
 21
101.0319304448
 31
0.0
  0
LINE
  5
95
330
1F
100
AcDbEntity
  8
0
  6
Continuous
 62
     7
370
    15
100
AcDbLine
 10
45.3348759602
 20
113.5714191739
 30
0.0
 11
45.3348759602
 21
101.4627979864
 31
0.0
  0
LINE
  5
96
330
1F
100
AcDbEntity
  8
0
  6
Continuous
 62
     7
370
    15
100
AcDbLine
 10
43.8348766457
 20
113.1384063308
 30
0.0
 11
43.8348766457
 21
101.8958108295
 31
0.0
  0
LINE
  5
97
330
1F
100
AcDbEntity
  8
0
  6
Continuous
 62
     7
370
    15
100
AcDbLine
 10
45.3348759602
 20
113.5714191739
 30
0.0
 11
45.3348759602
 21
128.6754722503
 31
0.0
  0
LINE
  5
98
330
1F
100
AcDbEntity
  8
0
  6
Continuous
 62
     7
370
    15
100
AcDbLine
 10
45.3348759602
 20
128.6754722503
 30
0.0
 11
79.6348754357
 21
129.5372082648
 31
0.0
  0
LINE
  5
99
330
1F
100
AcDbEntity
  8
0
  6
Continuous
 62
     7
370
    15
100
AcDbLine
 10
79.6348754357
 20
114.0022867155
 30
0.0
 11
79.6348754357
 21
129.5372082648
 31
0.0
  0
ARC
  5
9A
330
1F
100
AcDbEntity
  8
0
  6
Continuous
 62
     7
370
    15
100
AcDbCircle
 10
79.8348123347
 20
129.5422304759
 30
0.0
 40
0.2000000000000059
100
AcDbArc
 50
181.4391666667
 51
271.4391666667
  0
LINE
  5
9B
330
1F
100
AcDbEntity
  8
0
  6
Continuous
 62
     7
370
    15
100
AcDbLine
 10
79.6348754357
 20
85.4970088956
 30
0.0
 11
79.6348754357
 21
101.0319304448
 31
0.0
  0
ARC
  5
9C
330
1F
100
AcDbEntity
  8
0
  6
Continuous
 62
     7
370
    15
100
AcDbCircle
 10
79.8348123347
 20
85.4919866845
 30
0.0
 40
0.2000000000000059
100
AcDbArc
 50
88.5608333333
 51
178.5608333333
  0
LINE
  5
9D
330
1F
100
AcDbEntity
  8
0
  6
Continuous
 62
     7
370
    15
100
AcDbLine
 10
45.3348759602
 20
86.3587449101
 30
0.0
 11
45.3348759602
 21
101.4627979864
 31
0.0
  0
LINE
  5
9E
330
1F
100
AcDbEntity
  8
0
  6
Continuous
 62
     7
370
    15
100
AcDbLine
 10
45.3348759602
 20
86.3587449101
 30
0.0
 11
79.6348754357
 21
85.4970088956
 31
0.0
  0
LINE
  5
9F
330
1F
100
AcDbEntity
  8
0
  6
Continuous
 62
     7
370
    15
100
AcDbLine
 10
79.8398355528
 20
129.3422936258
 30
0.0
 11
81.0183631529
 21
129.3719022331
 31
0.0
  0
LINE
  5
A0
330
1F
100
AcDbEntity
  8
0
  6
Continuous
 62
     7
370
    15
100
AcDbLine
 10
79.8398355528
 20
85.6919235346
 30
0.0
 11
81.0183631529
 21
85.6623149273
 31
0.0
  0
LINE
  5
A1
330
1F
100
AcDbEntity
  8
0
  6
Continuous
 62
     7
370
    15
100
AcDbLine
 10
43.8348766457
 20
127.809446564
 30
0.0
 11
45.3348759602
 21
128.6754722503
 31
0.0
  0
LINE
  5
A2
330
1F
100
AcDbEntity
  8
0
  6
Continuous
 62
     7
370
    15
100
AcDbLine
 10
43.8348766457
 20
113.1384063308
 30
0.0
 11
43.8348766457
 21
127.809446564
 31
0.0
  0
LINE
  5
A3
330
1F
100
AcDbEntity
  8
0
  6
Continuous
 62
     7
370
    15
100
AcDbLine
 10
43.8348766457
 20
87.2247705963
 30
0.0
 11
45.3348759602
 21
86.3587449101
 31
0.0
  0
LINE
  5
A4
330
1F
100
AcDbEntity
  8
0
  6
Continuous
 62
     7
370
    15
100
AcDbLine
 10
43.8348766457
 20
87.2247705963
 30
0.0
 11
43.8348766457
 21
101.8958108295
 31
0.0
  0
SPLINE
  5
A5
330
1F
100
AcDbEntity
  8
0
  6
Continuous
 62
     7
370
    15
100
AcDbSpline
210
0.0
220
0.0
230
1.0
 70
     8
 71
     3
 72
    12
 73
     8
 74
     0
 42
0.00000001
 43
0.00000001
 40
0.0
 40
0.0
 40
0.0
 40
0.0
 40
0.2132549180362588
 40
0.4264530561938373
 40
0.6411064739417649
 40
0.8567308282277759
 40
1.0
 40
1.0
 40
1.0
 40
1.0
 10
153.8348723243293
 20
124.3322810885288
 30
0.0
 10
154.1141442421105
 20
124.3364403225913
 30
0.0
 10
154.6726137205337
 20
124.3447576833056
 30
0.0
 10
155.4197048030697
 20
124.4030839733347
 30
0.0
 10
155.9813721211532
 20
124.4665117672641
 30
0.0
 10
156.3035605651125
 20
124.5124500725465
 30
0.0
 10
156.3036099438594
 20
124.5125266355756
 30
0.0
 10
156.3036296557006
 20
124.5125571992971
 30
0.0
  0
SPLINE
  5
A6
330
1F
100
AcDbEntity
  8
0
  6
Continuous
 62
     7
370
    15
100
AcDbSpline
210
0.0
220
0.0
230
1.0
 70
     8
 71
     3
 72
    12
 73
     8
 74
     0
 42
0.00000001
 43
0.00000001
 40
0.0
 40
0.0
 40
0.0
 40
0.0
 40
0.2086257861078707
 40
0.4211489034032493
 40
0.6356078085730406
 40
0.851113440321267
 40
1.0
 40
1.0
 40
1.0
 40
1.0
 10
151.337445158821
 20
124.5167407003023
 30
0.0
 10
151.3625994278904
 20
124.5129441324756
 30
0.0
 10
151.4133778720708
 20
124.5052800732684
 30
0.0
 10
151.8310046820669
 20
124.4484612636292
 30
0.0
 10
152.4548591907471
 20
124.3841980164011
 30
0.0
 10
153.1639891764225
 20
124.3392430511057
 30
0.0
 10
153.6402695210316
 20
124.3343005421969
 30
0.0
 10
153.8348723243293
 20
124.3322810885288
 30
0.0
  0
SPLINE
  5
A7
330
1F
100
AcDbEntity
  8
0
  6
Continuous
 62
     7
370
    15
100
AcDbSpline
210
0.0
220
0.0
230
1.0
 70
     8
 71
     3
 72
    12
 73
     8
 74
     0
 42
0.00000001
 43
0.00000001
 40
0.0
 40
0.0
 40
0.0
 40
0.0
 40
0.2132550328700482
 40
0.4264532858308413
 40
0.6411055487810456
 40
0.8567307510800034
 40
1.0
 40
1.0
 40
1.0
 40
1.0
 10
143.8348744104918
 20
124.3322810885288
 30
0.0
 10
144.11414613955
 20
124.3364403345328
 30
0.0
 10
144.6726152405776
 20
124.3447577191268
 30
0.0
 10
145.4197076790388
 20
124.4030837141109
 30
0.0
 10
145.9813642210278
 20
124.4665121279281
 30
0.0
 10
146.3035641465079
 20
124.5124500085634
 30
0.0
 10
146.3036124566464
 20
124.5125266173655
 30
0.0
 10
146.3036317418631
 20
124.5125571992971
 30
0.0
  0
SPLINE
  5
A8
330
1F
100
AcDbEntity
  8
0
  6
Continuous
 62
     7
370
    15
100
AcDbSpline
210
0.0
220
0.0
230
1.0
 70
     8
 71
     3
 72
    12
 73
     8
 74
     0
 42
0.00000001
 43
0.00000001
 40
0.0
 40
0.0
 40
0.0
 40
0.0
 40
0.2086257498859385
 40
0.4211488302827242
 40
0.6356069977086692
 40
0.8511134661711823
 40
1.0
 40
1.0
 40
1.0
 40
1.0
 10
141.3374472449836
 20
124.5167407003023
 30
0.0
 10
141.3626014662318
 20
124.5129441253603
 30
0.0
 10
141.4133798138765
 20
124.5052800517896
 30
0.0
 10
141.8310069002361
 20
124.4484614143746
 30
0.0
 10
142.4548584074298
 20
124.384197738548
 30
0.0
 10
143.1639903846677
 20
124.3392431267076
 30
0.0
 10
143.640271683952
 20
124.3343005606875
 30
0.0
 10
143.8348744104918
 20
124.3322810885288
 30
0.0
  0
SPLINE
  5
A9
330
1F
100
AcDbEntity
  8
0
  6
Continuous
 62
     7
370
    15
100
AcDbSpline
210
0.0
220
0.0
230
1.0
 70
     8
 71
     3
 72
    12
 73
     8
 74
     0
 42
0.00000001
 43
0.00000001
 40
0.0
 40
0.0
 40
0.0
 40
0.0
 40
0.2132542917923069
 40
0.4264527421561546
 40
0.641105839047406
 40
0.8567305090926248
 40
1.0
 40
1.0
 40
1.0
 40
1.0
 10
133.8348764966544
 20
124.3322810885288
 30
0.0
 10
134.1141470845593
 20
124.3364403523141
 30
0.0
 10
134.6726151323281
 20
124.3447577907662
 30
0.0
 10
135.4197050565928
 20
124.4030838484267
 30
0.0
 10
135.9813694757259
 20
124.4665118882843
 30
0.0
 10
136.3035543030876
 20
124.5124500690414
 30
0.0
 10
136.3036111392123
 20
124.5125266345656
 30
0.0
 10
136.3036338280257
 20
124.5125571992971
 30
0.0
  0
SPLINE
  5
AA
330
1F
100
AcDbEntity
  8
0
  6
Continuous
 62
     7
370
    15
100
AcDbSpline
210
0.0
220
0.0
230
1.0
 70
     8
 71
     3
 72
    12
 73
     8
 74
     0
 42
0.00000001
 43
0.00000001
 40
0.0
 40
0.0
 40
0.0
 40
0.0
 40
0.2086256468976278
 40
0.4211481710943124
 40
0.6356062326527679
 40
0.8511125947302967
 40
1.0
 40
1.0
 40
1.0
 40
1.0
 10
131.3374493311461
 20
124.5167407003023
 30
0.0
 10
131.3626038489988
 20
124.5129441397374
 30
0.0
 10
131.4133827409806
 20
124.5052801034019
 30
0.0
 10
131.8310045965605
 20
124.448461333356
 30
0.0
 10
132.4548570674192
 20
124.3841977498997
 30
0.0
 10
133.163989859002
 20
124.3392430462146
 30
0.0
 10
133.6402724939381
 20
124.3343005427202
 30
0.0
 10
133.8348764966544
 20
124.3322810885288
 30
0.0
  0
SPLINE
  5
AB
330
1F
100
AcDbEntity
  8
0
  6
Continuous
 62
     7
370
    15
100
AcDbSpline
210
0.0
220
0.0
230
1.0
 70
     8
 71
     3
 72
    12
 73
     8
 74
     0
 42
0.00000001
 43
0.00000001
 40
0.0
 40
0.0
 40
0.0
 40
0.0
 40
0.2131565716965648
 40
0.4262573275530404
 40
0.6408120633702742
 40
0.8563379271348592
 40
1.0
 40
1.0
 40
1.0
 40
1.0
 10
133.8348764966544
 20
105.0171086360492
 30
0.0
 10
134.1141476685239
 20
105.0444459666646
 30
0.0
 10
134.6726168840692
 20
105.0991134695139
 30
0.0
 10
135.4196980318557
 20
105.5248049574248
 30
0.0
 10
135.9813960702724
 20
106.154367673975
 30
0.0
 10
136.3037261300991
 20
106.8580543537184
 30
0.0
 10
136.3037320450851
 20
107.3301258734922
 30
0.0
 10
136.3037344108638
 20
107.5189372620584
 30
0.0
  0
SPLINE
  5
AC
330
1F
100
AcDbEntity
  8
0
  6
Continuous
 62
     7
370
    15
100
AcDbSpline
210
0.0
220
0.0
230
1.0
 70
     8
 71
     3
 72
    12
 73
     8
 74
     0
 42
0.00000001
 43
0.00000001
 40
0.0
 40
0.0
 40
0.0
 40
0.0
 40
0.2087090201409804
 40
0.4212091545646602
 40
0.6356446224364678
 40
0.851128280386299
 40
1.0
 40
1.0
 40
1.0
 40
1.0
 10
131.3373822759208
 20
107.5175240519868
 30
0.0
 10
131.362545518227
 20
107.2438047109993
 30
0.0
 10
131.4133290828796
 20
106.6913940287612
 30
0.0
 10
131.8310003485576
 20
105.9485738072217
 30
0.0
 10
132.4548582248295
 20
105.3773777881973
 30
0.0
 10
133.1639896708834
 20
105.0636104123673
 30
0.0
 10
133.6402724393705
 20
105.0305974004648
 30
0.0
 10
133.8348764966544
 20
105.0171086360492
 30
0.0
  0
SPLINE
  5
AD
330
1F
100
AcDbEntity
  8
0
  6
Continuous
 62
     7
370
    15
100
AcDbSpline
210
0.0
220
0.0
230
1.0
 70
     8
 71
     3
 72
    12
 73
     8
 74
     0
 42
0.00000001
 43
0.00000001
 40
0.0
 40
0.0
 40
0.0
 40
0.0
 40
0.2131571861492435
 40
0.4262576184412685
 40
0.6408126633883999
 40
0.8563381999063385
 40
1.0
 40
1.0
 40
1.0
 40
1.0
 10
153.8348723243293
 20
105.0171086360492
 30
0.0
 10
154.1141448368851
 20
105.0444457294241
 30
0.0
 10
154.6726155046992
 20
105.099112637576
 30
0.0
 10
155.4196976483339
 20
105.5248061066831
 30
0.0
 10
155.9813992079135
 20
106.1543662911763
 30
0.0
 10
156.3037308396674
 20
106.8580542938606
 30
0.0
 10
156.3037330712696
 20
107.3301258871705
 30
0.0
 10
156.3037339638289
 20
107.5189372620584
 30
0.0
  0
SPLINE
  5
AE
330
1F
100
AcDbEntity
  8
0
  6
Continuous
 62
     7
370
    15
100
AcDbSpline
210
0.0
220
0.0
230
1.0
 70
     8
 71
     3
 72
    12
 73
     8
 74
     0
 42
0.00000001
 43
0.00000001
 40
0.0
 40
0.0
 40
0.0
 40
0.0
 40
0.2087089180568484
 40
0.4212097103122731
 40
0.6356460870922718
 40
0.8511290804946078
 40
1.0
 40
1.0
 40
1.0
 40
1.0
 10
151.3373855541762
 20
107.5175240519868
 30
0.0
 10
151.3625454609132
 20
107.2438045106993
 30
0.0
 10
151.4133223856694
 20
106.6913924251693
 30
0.0
 10
151.8310009873448
 20
105.9485733763688
 30
0.0
 10
152.454860197403
 20
105.3773799056778
 30
0.0
 10
153.1639890128075
 20
105.0636104028522
 30
0.0
 10
153.6402694735719
 20
105.0305973847327
 30
0.0
 10
153.8348723243293
 20
105.0171086360492
 30
0.0
  0
SPLINE
  5
AF
330
1F
100
AcDbEntity
  8
0
  6
Continuous
 62
     7
370
    15
100
AcDbSpline
210
0.0
220
0.0
230
1.0
 70
     8
 71
     3
 72
    12
 73
     8
 74
     0
 42
0.00000001
 43
0.00000001
 40
0.0
 40
0.0
 40
0.0
 40
0.0
 40
0.2131573008778034
 40
0.4262578478678415
 40
0.6408117384935307
 40
0.8563381225825956
 40
1.0
 40
1.0
 40
1.0
 40
1.0
 10
143.8348744104918
 20
105.0171086360492
 30
0.0
 10
144.1141467343481
 20
105.0444458732327
 30
0.0
 10
144.6726170248133
 20
105.0991130689635
 30
0.0
 10
145.4197005240389
 20
105.5248035332348
 30
0.0
 10
145.9813913087161
 20
106.1543708693409
 30
0.0
 10
146.3037344266803
 20
106.8580525879817
 30
0.0
 10
146.3037355862192
 20
107.3301256744998
 30
0.0
 10
146.3037360499915
 20
107.5189372620584
 30
0.0
  0
SPLINE
  5
B0
330
1F
100
AcDbEntity
  8
0
  6
Continuous
 62
     7
370
    15
100
AcDbSpline
210
0.0
220
0.0
230
1.0
 70
     8
 71
     3
 72
    12
 73
     8
 74
     0
 42
0.00000001
 43
0.00000001
 40
0.0
 40
0.0
 40
0.0
 40
0.0
 40
0.208709123159594
 40
0.4212098137137262
 40
0.6356453874307177
 40
0.8511291517431184
 40
1.0
 40
1.0
 40
1.0
 40
1.0
 10
141.3373801897582
 20
107.5175240519868
 30
0.0
 10
141.3625431352352
 20
107.243804547262
 30
0.0
 10
141.4133261552413
 20
106.6913929427785
 30
0.0
 10
141.831002652162
 20
105.9485748117838
 30
0.0
 10
142.4548595648588
 20
105.3773776143178
 30
0.0
 10
143.1639901965475
 20
105.0636109845259
 30
0.0
 10
143.6402716293841
 20
105.0305975304866
 30
0.0
 10
143.8348744104918
 20
105.0171086360492
 30
0.0
  0
LINE
  5
B1
330
1F
100
AcDbEntity
  8
0
  6
Continuous
 62
     7
370
    15
100
AcDbLine
 10
161.8348736356
 20
107.5171085802
 30
0.0
 11
161.8348736356
 21
91.5171078202
 31
0.0
  0
LINE
  5
B2
330
1F
100
AcDbEntity
  8
0
  6
Continuous
 62
     7
370
    15
100
AcDbLine
 10
161.8348736356
 20
123.5171093401
 30
0.0
 11
161.8348736356
 21
107.5171085802
 31
0.0
  0
LINE
  5
B3
330
1F
100
AcDbEntity
  8
0
  6
HIDDEN
 62
     7
370
     0
100
AcDbLine
 10
153.8348723243
 20
114.9171085824
 30
0.0
 11
156.834878404
 21
114.9171085824
 31
0.0
  0
LINE
  5
B4
330
1F
100
AcDbEntity
  8
0
  6
HIDDEN
 62
     7
370
     0
100
AcDbLine
 10
150.8348736952
 20
114.9171085824
 30
0.0
 11
153.8348723243
 21
114.9171085824
 31
0.0
  0
LINE
  5
B5
330
1F
100
AcDbEntity
  8
0
  6
HIDDEN
 62
     7
370
     0
100
AcDbLine
 10
153.8348723243
 20
114.0171087143
 30
0.0
 11
155.9348780702
 21
114.0171087143
 31
0.0
  0
LINE
  5
B6
330
1F
100
AcDbEntity
  8
0
  6
HIDDEN
 62
     7
370
     0
100
AcDbLine
 10
151.734874029
 20
114.0171087143
 30
0.0
 11
153.8348723243
 21
114.0171087143
 31
0.0
  0
LINE
  5
B7
330
1F
100
AcDbEntity
  8
0
  6
HIDDEN
 62
     7
370
     0
100
AcDbLine
 10
153.8348723243
 20
124.0171084908
 30
0.0
 11
156.834878404
 21
124.0171084908
 31
0.0
  0
LINE
  5
B8
330
1F
100
AcDbEntity
  8
0
  6
HIDDEN
 62
     7
370
     0
100
AcDbLine
 10
150.8348736952
 20
124.0171084908
 30
0.0
 11
153.8348723243
 21
124.0171084908
 31
0.0
  0
LINE
  5
B9
330
1F
100
AcDbEntity
  8
0
  6
HIDDEN
 62
     7
370
     0
100
AcDbLine
 10
155.3348753642
 20
121.0171089303
 30
0.0
 11
153.8348723243
 21
121.0171089303
 31
0.0
  0
LINE
  5
BA
330
1F
100
AcDbEntity
  8
0
  6
HIDDEN
 62
     7
370
     0
100
AcDbLine
 10
152.3348767351
 20
121.0171089303
 30
0.0
 11
153.8348723243
 21
121.0171089303
 31
0.0
  0
LINE
  5
BB
330
1F
100
AcDbEntity
  8
0
  6
HIDDEN
 62
     7
370
     0
100
AcDbLine
 10
153.8348723243
 20
121.0171089303
 30
0.0
 11
153.8348723243
 21
124.517109504
 31
0.0
  0
LINE
  5
BC
330
1F
100
AcDbEntity
  8
0
  6
HIDDEN
 62
     7
370
     0
100
AcDbLine
 10
155.3348753642
 20
121.0171089303
 30
0.0
 11
155.3348753642
 21
124.517109504
 31
0.0
  0
LINE
  5
BD
330
1F
100
AcDbEntity
  8
0
  6
HIDDEN
 62
     7
370
     0
100
AcDbLine
 10
152.3348767351
 20
121.0171089303
 30
0.0
 11
152.3348767351
 21
124.517109504
 31
0.0
  0
CIRCLE
  5
BE
330
1F
100
AcDbEntity
  8
0
  6
HIDDEN
 62
     7
370
     0
100
AcDbCircle
 10
153.8348754238
 20
107.5171085802
 30
0.0
 40
3.000000000000014
  0
CIRCLE
  5
BF
330
1F
100
AcDbEntity
  8
0
  6
HIDDEN
 62
     7
370
     0
100
AcDbCircle
 10
153.8348754238
 20
107.5171085802
 30
0.0
 40
1.25
  0
CIRCLE
  5
C0
330
1F
100
AcDbEntity
  8
0
  6
HIDDEN
 62
     7
370
     0
100
AcDbCircle
 10
153.8348754238
 20
107.5171085802
 30
0.0
 40
2.100000000000009
  0
LINE
  5
C1
330
1F
100
AcDbEntity
  8
0
  6
HIDDEN
 62
     7
370
     0
100
AcDbLine
 10
143.8348744105
 20
124.0171084908
 30
0.0
 11
146.8348730396
 21
124.0171084908
 31
0.0
  0
LINE
  5
C2
330
1F
100
AcDbEntity
  8
0
  6
HIDDEN
 62
     7
370
     0
100
AcDbLine
 10
140.8348757814
 20
124.0171084908
 30
0.0
 11
143.8348744105
 21
124.0171084908
 31
0.0
  0
LINE
  5
C3
330
1F
100
AcDbEntity
  8
0
  6
HIDDEN
 62
     7
370
     0
100
AcDbLine
 10
143.8348744105
 20
114.9171085824
 30
0.0
 11
146.8348730396
 21
114.9171085824
 31
0.0
  0
LINE
  5
C4
330
1F
100
AcDbEntity
  8
0
  6
HIDDEN
 62
     7
370
     0
100
AcDbLine
 10
140.8348757814
 20
114.9171085824
 30
0.0
 11
143.8348744105
 21
114.9171085824
 31
0.0
  0
LINE
  5
C5
330
1F
100
AcDbEntity
  8
0
  6
HIDDEN
 62
     7
370
     0
100
AcDbLine
 10
143.8348744105
 20
114.0171087143
 30
0.0
 11
145.9348727058
 21
114.0171087143
 31
0.0
  0
LINE
  5
C6
330
1F
100
AcDbEntity
  8
0
  6
HIDDEN
 62
     7
370
     0
100
AcDbLine
 10
141.7348761152
 20
114.0171087143
 30
0.0
 11
143.8348744105
 21
114.0171087143
 31
0.0
  0
LINE
  5
C7
330
1F
100
AcDbEntity
  8
0
  6
HIDDEN
 62
     7
370
     0
100
AcDbLine
 10
145.3348774503
 20
121.0171089303
 30
0.0
 11
143.8348744105
 21
121.0171089303
 31
0.0
  0
LINE
  5
C8
330
1F
100
AcDbEntity
  8
0
  6
HIDDEN
 62
     7
370
     0
100
AcDbLine
 10
142.3348750959
 20
121.0171089303
 30
0.0
 11
143.8348744105
 21
121.0171089303
 31
0.0
  0
LINE
  5
C9
330
1F
100
AcDbEntity
  8
0
  6
HIDDEN
 62
     7
370
     0
100
AcDbLine
 10
143.8348744105
 20
121.0171089303
 30
0.0
 11
143.8348744105
 21
124.517109504
 31
0.0
  0
LINE
  5
CA
330
1F
100
AcDbEntity
  8
0
  6
HIDDEN
 62
     7
370
     0
100
AcDbLine
 10
145.3348774503
 20
121.0171089303
 30
0.0
 11
145.3348774503
 21
124.517109504
 31
0.0
  0
LINE
  5
CB
330
1F
100
AcDbEntity
  8
0
  6
HIDDEN
 62
     7
370
     0
100
AcDbLine
 10
142.3348750959
 20
121.0171089303
 30
0.0
 11
142.3348750959
 21
124.517109504
 31
0.0
  0
CIRCLE
  5
CC
330
1F
100
AcDbEntity
  8
0
  6
HIDDEN
 62
     7
370
     0
100
AcDbCircle
 10
143.8348754238
 20
107.5171085802
 30
0.0
 40
3.000000000000014
  0
CIRCLE
  5
CD
330
1F
100
AcDbEntity
  8
0
  6
HIDDEN
 62
     7
370
     0
100
AcDbCircle
 10
143.8348754238
 20
107.5171085802
 30
0.0
 40
1.25
  0
CIRCLE
  5
CE
330
1F
100
AcDbEntity
  8
0
  6
HIDDEN
 62
     7
370
     0
100
AcDbCircle
 10
143.8348754238
 20
107.5171085802
 30
0.0
 40
2.100000000000009
  0
CIRCLE
  5
CF
330
1F
100
AcDbEntity
  8
0
  6
HIDDEN
 62
     7
370
     0
100
AcDbCircle
 10
133.8348754238
 20
107.5171085802
 30
0.0
 40
3.000000000000014
  0
CIRCLE
  5
D0
330
1F
100
AcDbEntity
  8
0
  6
HIDDEN
 62
     7
370
     0
100
AcDbCircle
 10
133.8348754238
 20
107.5171085802
 30
0.0
 40
1.25
  0
CIRCLE
  5
D1
330
1F
100
AcDbEntity
  8
0
  6
HIDDEN
 62
     7
370
     0
100
AcDbCircle
 10
133.8348754238
 20
107.5171085802
 30
0.0
 40
2.100000000000009
  0
LINE
  5
D2
330
1F
100
AcDbEntity
  8
0
  6
HIDDEN
 62
     7
370
     0
100
AcDbLine
 10
133.8348764967
 20
124.0171084908
 30
0.0
 11
136.8348751257
 21
124.0171084908
 31
0.0
  0
LINE
  5
D3
330
1F
100
AcDbEntity
  8
0
  6
HIDDEN
 62
     7
370
     0
100
AcDbLine
 10
130.8348741423
 20
124.0171084908
 30
0.0
 11
133.8348764967
 21
124.0171084908
 31
0.0
  0
LINE
  5
D4
330
1F
100
AcDbEntity
  8
0
  6
HIDDEN
 62
     7
370
     0
100
AcDbLine
 10
133.8348764967
 20
114.9171085824
 30
0.0
 11
136.8348751257
 21
114.9171085824
 31
0.0
  0
LINE
  5
D5
330
1F
100
AcDbEntity
  8
0
  6
HIDDEN
 62
     7
370
     0
100
AcDbLine
 10
130.8348741423
 20
114.9171085824
 30
0.0
 11
133.8348764967
 21
114.9171085824
 31
0.0
  0
LINE
  5
D6
330
1F
100
AcDbEntity
  8
0
  6
HIDDEN
 62
     7
370
     0
100
AcDbLine
 10
133.8348764967
 20
114.0171087143
 30
0.0
 11
135.934874792
 21
114.0171087143
 31
0.0
  0
LINE
  5
D7
330
1F
100
AcDbEntity
  8
0
  6
HIDDEN
 62
     7
370
     0
100
AcDbLine
 10
131.7348744761
 20
114.0171087143
 30
0.0
 11
133.8348764967
 21
114.0171087143
 31
0.0
  0
LINE
  5
D8
330
1F
100
AcDbEntity
  8
0
  6
HIDDEN
 62
     7
370
     0
100
AcDbLine
 10
135.3348758112
 20
121.0171089303
 30
0.0
 11
133.8348764967
 21
121.0171089303
 31
0.0
  0
LINE
  5
D9
330
1F
100
AcDbEntity
  8
0
  6
HIDDEN
 62
     7
370
     0
100
AcDbLine
 10
133.8348764967
 20
121.0171089303
 30
0.0
 11
133.8348764967
 21
124.517109504
 31
0.0
  0
LINE
  5
DA
330
1F
100
AcDbEntity
  8
0
  6
HIDDEN
 62
     7
370
     0
100
AcDbLine
 10
132.3348771821
 20
121.0171089303
 30
0.0
 11
133.8348764967
 21
121.0171089303
 31
0.0
  0
LINE
  5
DB
330
1F
100
AcDbEntity
  8
0
  6
HIDDEN
 62
     7
370
     0
100
AcDbLine
 10
135.3348758112
 20
121.0171089303
 30
0.0
 11
135.3348758112
 21
124.517109504
 31
0.0
  0
LINE
  5
DC
330
1F
100
AcDbEntity
  8
0
  6
HIDDEN
 62
     7
370
     0
100
AcDbLine
 10
132.3348771821
 20
121.0171089303
 30
0.0
 11
132.3348771821
 21
124.517109504
 31
0.0
  0
SPLINE
  5
DD
330
1F
100
AcDbEntity
  8
0
  6
HIDDEN
 62
     7
370
     0
100
AcDbSpline
210
0.0
220
0.0
230
1.0
 70
     8
 71
     3
 72
     9
 73
     5
 74
     0
 42
0.00000001
 43
0.00000001
 40
0.0
 40
0.0
 40
0.0
 40
0.0
 40
0.3547925647816709
 40
1.0
 40
1.0
 40
1.0
 40
1.0
 10
91.86174199388589
 20
107.2679786855146
 30
0.0
 10
91.84871313956516
 20
107.3511468272158
 30
0.0
 10
91.81199068364576
 20
107.5855602562356
 30
0.0
 10
91.87234470048058
 20
107.8169983349121
 30
0.0
 10
91.9112855608877
 20
107.9663239040669
 30
0.0
  0
SPLINE
  5
DE
330
1F
100
AcDbEntity
  8
0
  6
HIDDEN
 62
     7
370
     0
100
AcDbSpline
210
0.0
220
0.0
230
1.0
 70
     8
 71
     3
 72
    12
 73
     8
 74
     0
 42
0.00000001
 43
0.00000001
 40
0.0
 40
0.0
 40
0.0
 40
0.0
 40
0.4999999999999999
 40
0.4999999999999999
 40
0.7499999999999998
 40
0.7499999999999998
 40
1.0
 40
1.0
 40
1.0
 40
1.0
 10
81.01836313731542
 20
122.9693765620078
 30
0.0
 10
81.07476931599608
 20
122.9215541883457
 30
0.0
 10
81.14493221746815
 20
122.8812833414045
 30
0.0
 10
81.26294293086006
 20
122.8732374729248
 30
0.0
 10
81.30314871445671
 20
122.8798000712632
 30
0.0
 10
81.37686941119179
 20
122.9071821657168
 30
0.0
 10
81.40973013297928
 20
122.9269436562476
 30
0.0
 10
81.43989853490929
 20
122.9498763674362
 30
0.0
  0
SPLINE
  5
DF
330
1F
100
AcDbEntity
  8
0
  6
HIDDEN
 62
     7
370
     0
100
AcDbSpline
210
0.0
220
0.0
230
1.0
 70
     8
 71
     3
 72
    16
 73
    12
 74
     0
 42
0.00000001
 43
0.00000001
 40
0.0
 40
0.0
 40
0.0
 40
0.0
 40
0.0624999999999999
 40
0.0624999999999999
 40
0.1249999999999997
 40
0.1249999999999997
 40
0.2499999999999931
 40
0.2499999999999931
 40
0.4999999999999903
 40
0.4999999999999903
 40
1.0
 40
1.0
 40
1.0
 40
1.0
 10
81.43989853486414
 20
122.9498763674843
 30
0.0
 10
81.4515114347035
 20
122.9587039904657
 30
0.0
 10
81.46486261913597
 20
122.9665383723476
 30
0.0
 10
81.49426245875516
 20
122.97484849842
 30
0.0
 10
81.50910318331042
 20
122.974352679185
 30
0.0
 10
81.54493639127904
 20
122.9629017082156
 30
0.0
 10
81.55904959910062
 20
122.946221207357
 30
0.0
 10
81.59354097031954
 20
122.8941005216
 30
0.0
 10
81.60462504142993
 20
122.854311027575
 30
0.0
 10
81.63074785922593
 20
122.7309743954778
 30
0.0
 10
81.63487542377081
 20
122.6435529849792
 30
0.0
 10
81.63487542377081
 20
122.554815742661
 30
0.0
  0
SPLINE
  5
E0
330
1F
100
AcDbEntity
  8
0
  6
HIDDEN
 62
     7
370
     0
100
AcDbSpline
210
0.0
220
0.0
230
1.0
 70
     8
 71
     3
 72
    15
 73
    11
 74
     0
 42
0.00000001
 43
0.00000001
 40
0.0
 40
0.0
 40
0.0
 40
0.0
 40
0.4473636574799171
 40
0.5992470226073511
 40
0.7520169596383259
 40
0.8185648881248611
 40
0.8609323033594692
 40
0.9036118850751194
 40
0.9411960428053343
 40
1.0
 40
1.0
 40
1.0
 40
1.0
 10
81.6168119909311
 20
92.32443317591918
 30
0.0
 10
81.61526111268259
 20
92.26899519231773
 30
0.0
 10
81.6131836994701
 20
92.1947355915275
 30
0.0
 10
81.5790721699807
 20
92.11587637576996
 30
0.0
 10
81.55411660760466
 20
92.08057289601781
 30
0.0
 10
81.5250421431227
 20
92.06372353238622
 30
0.0
 10
81.50317802662555
 20
92.05956536761889
 30
0.0
 10
81.48302862519272
 20
92.06179389665786
 30
0.0
 10
81.46071121587937
 20
92.06993879387416
 30
0.0
 10
81.44778467727069
 20
92.07888385439632
 30
0.0
 10
81.43989852218184
 20
92.08434101015104
 30
0.0
  0
SPLINE
  5
E1
330
1F
100
AcDbEntity
  8
0
  6
HIDDEN
 62
     7
370
     0
100
AcDbSpline
210
0.0
220
0.0
230
1.0
 70
     8
 71
     3
 72
    12
 73
     8
 74
     0
 42
0.00000001
 43
0.00000001
 40
0.0
 40
0.0
 40
0.0
 40
0.0
 40
0.2499999999999999
 40
0.2499999999999999
 40
0.5000000000000002
 40
0.5000000000000002
 40
1.0
 40
1.0
 40
1.0
 40
1.0
 10
81.43989853490221
 20
92.08434079289519
 30
0.0
 10
81.409706693185
 20
92.10729132199302
 30
0.0
 10
81.3763477237704
 20
92.12726079601721
 30
0.0
 10
81.30321043918981
 20
92.15436192964272
 30
0.0
 10
81.26296856653582
 20
92.16096267028813
 30
0.0
 10
81.14526278956731
 20
92.15299379578143
 30
0.0
 10
81.07485231178791
 20
92.11273333761355
 30
0.0
 10
81.01836313731961
 20
92.06484059833541
 30
0.0
  0
SPLINE
  5
E2
330
1F
100
AcDbEntity
  8
0
  6
HIDDEN
 62
     7
370
     0
100
AcDbSpline
210
0.0
220
0.0
230
1.0
 70
     8
 71
     3
 72
    12
 73
     8
 74
     0
 42
0.00000001
 43
0.00000001
 40
0.0
 40
0.0
 40
0.0
 40
0.0
 40
0.2499999999999989
 40
0.2499999999999989
 40
0.5000000000000006
 40
0.5000000000000006
 40
1.0
 40
1.0
 40
1.0
 40
1.0
 10
81.01836313731927
 20
92.06484059833559
 30
0.0
 10
80.93020919958153
 20
91.99010179048152
 30
0.0
 10
80.86985577495278
 20
91.89912128999913
 30
0.0
 10
80.76359381688596
 20
91.71020746724652
 30
0.0
 10
80.72136165032389
 20
91.61370300770594
 30
0.0
 10
80.61029095500672
 20
91.3229352535388
 30
0.0
 10
80.55735417857993
 20
91.12726843899506
 30
0.0
 10
80.51355508021113
 20
90.93320195392874
 30
0.0
  0
SPLINE
  5
E3
330
1F
100
AcDbEntity
  8
0
  6
HIDDEN
 62
     7
370
     0
100
AcDbSpline
210
0.0
220
0.0
230
1.0
 70
     8
 71
     3
 72
    12
 73
     8
 74
     0
 42
0.00000001
 43
0.00000001
 40
0.0
 40
0.0
 40
0.0
 40
0.0
 40
0.4999999999999993
 40
0.4999999999999993
 40
0.7499999999999997
 40
0.7499999999999997
 40
1.0
 40
1.0
 40
1.0
 40
1.0
 10
80.51355508021113
 20
85.7470276251677
 30
0.0
 10
80.55730162104773
 20
85.72043345452653
 30
0.0
 10
80.61018597627923
 20
85.70067322920079
 30
0.0
 10
80.7217530636154
 20
85.68022223897171
 30
0.0
 10
80.76433666015838
 20
85.67496201431527
 30
0.0
 10
80.86925338724018
 20
85.66707922039261
 30
0.0
 10
80.93078699508497
 20
85.66451509521346
 30
0.0
 10
81.01836313731111
 20
85.66231487769383
 30
0.0
  0
SPLINE
  5
E4
330
1F
100
AcDbEntity
  8
0
  6
HIDDEN
 62
     7
370
     0
100
AcDbSpline
210
0.0
220
0.0
230
1.0
 70
     8
 71
     3
 72
    12
 73
     8
 74
     0
 42
0.00000001
 43
0.00000001
 40
0.0
 40
0.0
 40
0.0
 40
0.0
 40
0.2499999999999997
 40
0.2499999999999997
 40
0.4999999999999992
 40
0.4999999999999992
 40
1.0
 40
1.0
 40
1.0
 40
1.0
 10
81.0183631373191
 20
129.3719022826457
 30
0.0
 10
80.92967847746273
 20
129.3696742153047
 30
0.0
 10
80.86976006173933
 20
129.3671724312744
 30
0.0
 10
80.76410083441858
 20
129.3592409954384
 30
0.0
 10
80.72145959630365
 20
129.3539488405415
 30
0.0
 10
80.61027025420108
 20
129.3335439000544
 30
0.0
 10
80.55734357208013
 20
129.3138092084675
 30
0.0
 10
80.51355508021115
 20
129.2871895351719
 30
0.0
  0
SPLINE
  5
E5
330
1F
100
AcDbEntity
  8
0
  6
HIDDEN
 62
     7
370
     0
100
AcDbSpline
210
0.0
220
0.0
230
1.0
 70
     8
 71
     3
 72
    12
 73
     8
 74
     0
 42
0.00000001
 43
0.00000001
 40
0.0
 40
0.0
 40
0.0
 40
0.0
 40
0.4999999999999987
 40
0.4999999999999987
 40
0.749999999999998
 40
0.749999999999998
 40
1.0
 40
1.0
 40
1.0
 40
1.0
 10
80.51355508020956
 20
124.101015206411
 30
0.0
 10
80.55731655650803
 20
123.9071154184502
 30
0.0
 10
80.61022287216069
 20
123.7112590545146
 30
0.0
 10
80.7219340698069
 20
123.4191169080175
 30
0.0
 10
80.76445351339281
 20
123.3223989713202
 30
0.0
 10
80.86957685595873
 20
123.1356745348966
 30
0.0
 10
80.9311428196756
 20
123.0433238266273
 30
0.0
 10
81.01836313731624
 20
122.9693765620071
 30
0.0
  0
CIRCLE
  5
E6
330
1F
100
AcDbEntity
  8
0
  6
HIDDEN
 62
     7
370
     0
100
AcDbCircle
 10
66.3348754238
 20
107.5171085802
 30
0.0
 40
4.049999999999997
  0
SPLINE
  5
E7
330
1F
100
AcDbEntity
  8
0
  6
HIDDEN
 62
     7
370
     0
100
AcDbSpline
210
0.0
220
0.0
230
1.0
 70
    24
 71
     1
 72
     4
 73
     2
 74
     0
 42
0.00000001
 43
0.00000001
 40
0.0
 40
0.0
 40
1.0
 40
1.0
 10
153.98079194532
 20
124.3358461913444
 30
0.0
 10
153.3474329899367
 20
124.3406667169906
 30
0.0
  0
SPLINE
  5
E8
330
1F
100
AcDbEntity
  8
0
  6
HIDDEN
 62
     7
370
     0
100
AcDbSpline
210
0.0
220
0.0
230
1.0
 70
    24
 71
     1
 72
     4
 73
     2
 74
     0
 42
0.00000001
 43
0.00000001
 40
0.0
 40
0.0
 40
1.0
 40
1.0
 10
143.9807903061923
 20
124.3358461913444
 30
0.0
 10
143.347431350809
 20
124.3406667169906
 30
0.0
  0
SPLINE
  5
E9
330
1F
100
AcDbEntity
  8
0
  6
HIDDEN
 62
     7
370
     0
100
AcDbSpline
210
0.0
220
0.0
230
1.0
 70
    24
 71
     1
 72
     4
 73
     2
 74
     0
 42
0.00000001
 43
0.00000001
 40
0.0
 40
0.0
 40
1.0
 40
1.0
 10
133.9807923923549
 20
124.3358461913444
 30
0.0
 10
133.3474297116813
 20
124.3406667169906
 30
0.0
  0
SPLINE
  5
EA
330
1F
100
AcDbEntity
  8
0
  6
HIDDEN
 62
     7
370
     0
100
AcDbSpline
210
0.0
220
0.0
230
1.0
 70
     8
 71
     3
 72
    18
 73
    14
 74
     0
 42
0.00000001
 43
0.00000001
 40
0.0
 40
0.0
 40
0.0
 40
0.0
 40
0.0351569002137083
 40
0.1413440750845138
 40
0.2479273503185757
 40
0.3555149985303639
 40
0.4631697356041166
 40
0.569819898606651
 40
0.6759692945577046
 40
0.7828934251360655
 40
0.8906645557661377
 40
0.9980403993035083
 40
1.0
 40
1.0
 40
1.0
 40
1.0
 10
136.3037344108638
 20
107.5189372620584
 30
0.0
 10
136.3123705111602
 20
107.6106441012799
 30
0.0
 10
136.3470909103225
 20
107.9793403825192
 30
0.0
 10
136.1213746179394
 20
108.6141029306934
 30
0.0
 10
135.6490864733487
 20
109.3086605293296
 30
0.0
 10
134.9518892591217
 20
109.8068371787825
 30
0.0
 10
134.1322437924166
 20
110.0475617331481
 30
0.0
 10
133.2803613307327
 20
110.0031619280803
 30
0.0
 10
132.4963996801179
 20
109.6832826531929
 30
0.0
 10
131.8505617599311
 20
109.1212797578697
 30
0.0
 10
131.4574597746374
 20
108.3797305859787
 30
0.0
 10
131.2900397702028
 20
107.8039969348365
 30
0.0
 10
131.3365487041545
 20
107.5225680542701
 30
0.0
 10
131.3373822759208
 20
107.5175240519868
 30
0.0
  0
SPLINE
  5
EB
330
1F
100
AcDbEntity
  8
0
  6
HIDDEN
 62
     7
370
     0
100
AcDbSpline
210
0.0
220
0.0
230
1.0
 70
     8
 71
     3
 72
    18
 73
    14
 74
     0
 42
0.00000001
 43
0.00000001
 40
0.0
 40
0.0
 40
0.0
 40
0.0
 40
0.0351569387378576
 40
0.1413442778068184
 40
0.2479275869713039
 40
0.355515655077952
 40
0.4631699699996253
 40
0.5698206422702577
 40
0.6759691914036301
 40
0.7828933560209248
 40
0.8906645209595703
 40
0.998040398679676
 40
1.0
 40
1.0
 40
1.0
 40
1.0
 10
156.3037339638289
 20
107.5189372620584
 30
0.0
 10
156.3123715464471
 20
107.6106441124854
 30
0.0
 10
156.3470979168591
 20
107.9793405635672
 30
0.0
 10
156.1213715519145
 20
108.6141021439666
 30
0.0
 10
155.6490866035894
 20
109.3086620451583
 30
0.0
 10
154.9518862399489
 20
109.8068353132259
 30
0.0
 10
154.1322413695466
 20
110.0475621889624
 30
0.0
 10
153.2803601295111
 20
110.0031634701424
 30
0.0
 10
152.4964014912147
 20
109.6832804373301
 30
0.0
 10
151.8505649549784
 20
109.1212799413011
 30
0.0
 10
151.4574630765926
 20
108.3797305337333
 30
0.0
 10
151.2900430483845
 20
107.8039969349979
 30
0.0
 10
151.3365519824087
 20
107.522568054273
 30
0.0
 10
151.3373855541762
 20
107.5175240519868
 30
0.0
  0
SPLINE
  5
EC
330
1F
100
AcDbEntity
  8
0
  6
HIDDEN
 62
     7
370
     0
100
AcDbSpline
210
0.0
220
0.0
230
1.0
 70
     8
 71
     3
 72
    18
 73
    14
 74
     0
 42
0.00000001
 43
0.00000001
 40
0.0
 40
0.0
 40
0.0
 40
0.0
 40
0.0351568830352002
 40
0.1413439581623594
 40
0.2479272641589509
 40
0.3555153290678413
 40
0.4631700972133735
 40
0.5698202909977431
 40
0.6759692772809668
 40
0.7828934387202365
 40
0.8906646004556823
 40
0.998040474984337
 40
1.0
 40
1.0
 40
1.0
 40
1.0
 10
146.3037360499915
 20
107.5189372620584
 30
0.0
 10
146.3123706709526
 20
107.6106440943148
 30
0.0
 10
146.3470851108717
 20
107.979340222714
 30
0.0
 10
146.1213786581537
 20
108.6141034078052
 30
0.0
 10
145.6490871943317
 20
109.3086618169849
 30
0.0
 10
144.951887852376
 20
109.8068362275141
 30
0.0
 10
144.1322417011803
 20
110.0475617359532
 30
0.0
 10
143.2803607307071
 20
110.0031626256553
 30
0.0
 10
142.496398452095
 20
109.6832811801462
 30
0.0
 10
141.8505714023908
 20
109.1212811606356
 30
0.0
 10
141.4574311934925
 20
108.3797256508109
 30
0.0
 10
141.2901072052395
 20
107.8040078082447
 30
0.0
 10
141.3365478733152
 20
107.5225680563669
 30
0.0
 10
141.3373801897582
 20
107.5175240519868
 30
0.0
  0
LINE
  5
ED
330
1F
100
AcDbEntity
  8
0
  6
HIDDEN
 62
     7
370
     0
100
AcDbLine
 10
45.3651029657
 20
92.204157522
 30
0.0
 11
45.3651029657
 21
122.8300596383
 31
0.0
  0
LINE
  5
EE
330
1F
100
AcDbEntity
  8
0
  6
HIDDEN
 62
     7
370
     0
100
AcDbLine
 10
51.8651030998
 20
93.1706980598
 30
0.0
 11
51.8651030998
 21
121.8635191005
 31
0.0
  0
LINE
  5
EF
330
1F
100
AcDbEntity
  8
0
  6
HIDDEN
 62
     7
370
     0
100
AcDbLine
 10
57.665104423
 20
93.517108148
 30
0.0
 11
57.665104423
 21
121.5171090123
 31
0.0
  0
LINE
  5
F0
330
1F
100
AcDbEntity
  8
0
  6
HIDDEN
 62
     7
370
     0
100
AcDbLine
 10
50.2651039551
 20
93.517108148
 30
0.0
 11
50.2651039551
 21
121.5171090123
 31
0.0
  0
LINE
  5
F1
330
1F
100
AcDbEntity
  8
0
  6
HIDDEN
 62
     7
370
     0
100
AcDbLine
 10
51.265104119
 20
93.517108148
 30
0.0
 11
51.265104119
 21
121.5171090123
 31
0.0
  0
LINE
  5
F2
330
1F
100
AcDbEntity
  8
0
  6
HIDDEN
 62
     7
370
     0
100
AcDbLine
 10
70.8348754834
 20
94.01710823
 30
0.0
 11
70.8348754834
 21
121.0171089303
 31
0.0
  0
SPLINE
  5
F3
330
1F
100
AcDbEntity
  8
0
  6
HIDDEN
 62
     7
370
     0
100
AcDbSpline
210
0.0
220
0.0
230
1.0
 70
    24
 71
     1
 72
     4
 73
     2
 74
     0
 42
0.00000001
 43
0.00000001
 40
0.0
 40
0.0
 40
1.0
 40
1.0
 10
70.33487540141905
 20
106.8826797097713
 30
0.0
 10
70.19794211195077
 20
106.47507072713
 30
0.0
  0
SPLINE
  5
F4
330
1F
100
AcDbEntity
  8
0
  6
HIDDEN
 62
     7
370
     0
100
AcDbSpline
210
0.0
220
0.0
230
1.0
 70
     8
 71
     3
 72
     9
 73
     5
 74
     0
 42
0.00000001
 43
0.00000001
 40
0.0
 40
0.0
 40
0.0
 40
0.0
 40
0.6182753458841797
 40
1.0
 40
1.0
 40
1.0
 40
1.0
 10
65.58090486035908
 20
111.4752225373663
 30
0.0
 10
65.98835391578555
 20
111.5377860292102
 30
0.0
 10
66.64736297726412
 20
111.638976368208
 30
0.0
 10
67.26873979964986
 20
111.4227673328324
 30
0.0
 10
67.50593465225066
 20
111.340235013587
 30
0.0
  0
SPLINE
  5
F5
330
1F
100
AcDbEntity
  8
0
  6
HIDDEN
 62
     7
370
     0
100
AcDbSpline
210
0.0
220
0.0
230
1.0
 70
    24
 71
     1
 72
     4
 73
     2
 74
     0
 42
0.00000001
 43
0.00000001
 40
0.0
 40
0.0
 40
1.0
 40
1.0
 10
70.10083683238591
 20
108.8712192402012
 30
0.0
 10
70.33487540141905
 20
108.1515374505684
 30
0.0
  0
LINE
  5
F6
330
1F
100
AcDbEntity
  8
0
  6
HIDDEN
 62
     7
370
     0
100
AcDbLine
 10
72.0848752226
 20
98.5171089676
 30
0.0
 11
72.0848752226
 21
116.5171081927
 31
0.0
  0
LINE
  5
F7
330
1F
100
AcDbEntity
  8
0
  6
HIDDEN
 62
     7
370
     0
100
AcDbLine
 10
97.8348761837
 20
98.5171089676
 30
0.0
 11
97.8348761837
 21
116.5171081927
 31
0.0
  0
LINE
  5
F8
330
1F
100
AcDbEntity
  8
0
  6
HIDDEN
 62
     7
370
     0
100
AcDbLine
 10
101.1396091472
 20
104.0171084721
 30
0.0
 11
101.1396091472
 21
111.0171086882
 31
0.0
  0
LINE
  5
F9
330
1F
100
AcDbEntity
  8
0
  6
HIDDEN
 62
     7
370
     0
100
AcDbLine
 10
128.8348738144
 20
107.5171085802
 30
0.0
 11
128.8348738144
 21
104.0171084721
 31
0.0
  0
LINE
  5
FA
330
1F
100
AcDbEntity
  8
0
  6
HIDDEN
 62
     7
370
     0
100
AcDbLine
 10
128.8348738144
 20
111.0171086882
 30
0.0
 11
128.8348738144
 21
107.5171085802
 31
0.0
  0
LINE
  5
FB
330
1F
100
AcDbEntity
  8
0
  6
HIDDEN
 62
     7
370
     0
100
AcDbLine
 10
129.1353073011
 20
107.5171085802
 30
0.0
 11
129.1353073011
 21
104.5171085541
 31
0.0
  0
LINE
  5
FC
330
1F
100
AcDbEntity
  8
0
  6
HIDDEN
 62
     7
370
     0
100
AcDbLine
 10
129.1353073011
 20
110.5171086062
 30
0.0
 11
129.1353073011
 21
107.5171085802
 31
0.0
  0
SPLINE
  5
FD
330
1F
100
AcDbEntity
  8
0
  6
HIDDEN
 62
     7
370
     0
100
AcDbSpline
210
0.0
220
0.0
230
1.0
 70
     8
 71
     3
 72
    11
 73
     7
 74
     0
 42
0.00000001
 43
0.00000001
 40
0.0
 40
0.0
 40
0.0
 40
0.0
 40
0.3162877554394765
 40
0.6267047182179208
 40
0.8831421599481754
 40
1.0
 40
1.0
 40
1.0
 40
1.0
 10
132.5119998346385
 20
109.6384288073309
 30
0.0
 10
132.3097114893127
 20
109.7753677949558
 30
0.0
 10
131.908889584968
 20
110.0467039696152
 30
0.0
 10
131.5283796240628
 20
110.3575590699396
 30
0.0
 10
131.3366233145136
 20
110.5155130387396
 30
0.0
 10
131.3536085149893
 20
110.5014890371488
 30
0.0
 10
131.3589256297168
 20
110.4970989079006
 30
0.0
  0
SPLINE
  5
FE
330
1F
100
AcDbEntity
  8
0
  6
HIDDEN
 62
     7
370
     0
100
AcDbSpline
210
0.0
220
0.0
230
1.0
 70
     8
 71
     3
 72
     9
 73
     5
 74
     0
 42
0.00000001
 43
0.00000001
 40
0.0
 40
0.0
 40
0.0
 40
0.0
 40
0.9562951380246392
 40
1.0
 40
1.0
 40
1.0
 40
1.0
 10
132.5119998346385
 20
109.6384288073309
 30
0.0
 10
132.2956211832522
 20
109.5028761013294
 30
0.0
 10
132.0693535355537
 20
109.3611283284803
 30
0.0
 10
131.9257392527532
 20
109.1256853737155
 30
0.0
 10
131.9194626103457
 20
109.1153953718744
 30
0.0
  0
SPLINE
  5
FF
330
1F
100
AcDbEntity
  8
0
  6
HIDDEN
 62
     7
370
     0
100
AcDbSpline
210
0.0
220
0.0
230
1.0
 70
     8
 71
     3
 72
     9
 73
     5
 74
     0
 42
0.00000001
 43
0.00000001
 40
0.0
 40
0.0
 40
0.0
 40
0.0
 40
0.5711813995503364
 40
1.0
 40
1.0
 40
1.0
 40
1.0
 10
133.7767731438693
 20
105.0239273142792
 30
0.0
 10
133.9292369741797
 20
105.0229572349813
 30
0.0
 10
134.1961641367772
 20
105.0212588615774
 30
0.0
 10
134.4273272472944
 20
105.1002479947752
 30
0.0
 10
134.5264542888221
 20
105.1341200043238
 30
0.0
  0
SPLINE
  5
100
330
1F
100
AcDbEntity
  8
0
  6
HIDDEN
 62
     7
370
     0
100
AcDbSpline
210
0.0
220
0.0
230
1.0
 70
    24
 71
     1
 72
     4
 73
     2
 74
     0
 42
0.00000001
 43
0.00000001
 40
0.0
 40
0.0
 40
1.0
 40
1.0
 10
135.3467185090598
 20
109.4654940795876
 30
0.0
 10
135.15774943338
 20
109.6384288073309
 30
0.0
  0
SPLINE
  5
101
330
1F
100
AcDbEntity
  8
0
  6
HIDDEN
 62
     7
370
     0
100
AcDbSpline
210
0.0
220
0.0
230
1.0
 70
     8
 71
     3
 72
    11
 73
     7
 74
     0
 42
0.00000001
 43
0.00000001
 40
0.0
 40
0.0
 40
0.0
 40
0.0
 40
0.120809102351161
 40
0.3611963514236359
 40
0.6192964229137498
 40
1.0
 40
1.0
 40
1.0
 40
1.0
 10
136.3104138563689
 20
110.4967540857173
 30
0.0
 10
136.3157304348782
 20
110.5011411035409
 30
0.0
 10
136.3316259983933
 20
110.5142574565363
 30
0.0
 10
136.1614163344802
 20
110.3740727760436
 30
0.0
 10
135.8051909779477
 20
110.0821875451186
 30
0.0
 10
135.3995165398475
 20
109.8041368421408
 30
0.0
 10
135.15774943338
 20
109.6384288073309
 30
0.0
  0
SPLINE
  5
102
330
1F
100
AcDbEntity
  8
0
  6
HIDDEN
 62
     7
370
     0
100
AcDbSpline
210
0.0
220
0.0
230
1.0
 70
     8
 71
     3
 72
    11
 73
     7
 74
     0
 42
0.00000001
 43
0.00000001
 40
0.0
 40
0.0
 40
0.0
 40
0.0
 40
0.3162883830917119
 40
0.6267050529108403
 40
0.8831422526255269
 40
0.9999999999999999
 40
0.9999999999999999
 40
0.9999999999999999
 40
0.9999999999999999
 10
152.5119993876037
 20
109.6384288073309
 30
0.0
 10
152.3097094742143
 20
109.7753677074487
 30
0.0
 10
151.9088850441964
 20
110.0467033151781
 30
0.0
 10
151.5283765686048
 20
110.3575591430472
 30
0.0
 10
151.3366167575359
 20
110.5155130340237
 30
0.0
 10
151.3536066108584
 20
110.5014890363706
 30
0.0
 10
151.358925182682
 20
110.4970989079006
 30
0.0
  0
SPLINE
  5
103
330
1F
100
AcDbEntity
  8
0
  6
HIDDEN
 62
     7
370
     0
100
AcDbSpline
210
0.0
220
0.0
230
1.0
 70
     8
 71
     3
 72
     9
 73
     5
 74
     0
 42
0.00000001
 43
0.00000001
 40
0.0
 40
0.0
 40
0.0
 40
0.0
 40
0.9562972000282297
 40
0.9999999999999999
 40
0.9999999999999999
 40
0.9999999999999999
 40
0.9999999999999999
 10
152.5119993876037
 20
109.6384288073309
 30
0.0
 10
152.2956091212315
 20
109.5028814437619
 30
0.0
 10
152.0693298156288
 20
109.3611395631364
 30
0.0
 10
151.9257375474832
 20
109.1256853789868
 30
0.0
 10
151.9194621633109
 20
109.1153953718744
 30
0.0
  0
SPLINE
  5
104
330
1F
100
AcDbEntity
  8
0
  6
HIDDEN
 62
     7
370
     0
100
AcDbSpline
210
0.0
220
0.0
230
1.0
 70
     8
 71
     3
 72
     9
 73
     5
 74
     0
 42
0.00000001
 43
0.00000001
 40
0.0
 40
0.0
 40
0.0
 40
0.0
 40
0.5711789442842574
 40
0.9999999999999999
 40
0.9999999999999999
 40
0.9999999999999999
 40
0.9999999999999999
 10
153.7767726968345
 20
105.0239273142792
 30
0.0
 10
153.9292364244136
 20
105.0229573830021
 30
0.0
 10
154.1961645545642
 20
105.0212592614471
 30
0.0
 10
154.4273292698321
 20
105.1002479790512
 30
0.0
 10
154.5264575670775
 20
105.1341200043238
 30
0.0
  0
SPLINE
  5
105
330
1F
100
AcDbEntity
  8
0
  6
HIDDEN
 62
     7
370
     0
100
AcDbSpline
210
0.0
220
0.0
230
1.0
 70
    24
 71
     1
 72
     4
 73
     2
 74
     0
 42
0.00000001
 43
0.00000001
 40
0.0
 40
0.0
 40
1.0
 40
1.0
 10
155.3467217873153
 20
109.4654940795876
 30
0.0
 10
155.1577527116355
 20
109.6384288073309
 30
0.0
  0
SPLINE
  5
106
330
1F
100
AcDbEntity
  8
0
  6
HIDDEN
 62
     7
370
     0
100
AcDbSpline
210
0.0
220
0.0
230
1.0
 70
     8
 71
     3
 72
    11
 73
     7
 74
     0
 42
0.00000001
 43
0.00000001
 40
0.0
 40
0.0
 40
0.0
 40
0.0
 40
0.1208091903331113
 40
0.3611965886625307
 40
0.6192961865341043
 40
1.0
 40
1.0
 40
1.0
 40
1.0
 10
156.3104096840438
 20
110.4967540857173
 30
0.0
 10
156.3157277567306
 20
110.5011410981467
 30
0.0
 10
156.3316277864175
 20
110.5142574340772
 30
0.0
 10
156.1614143791952
 20
110.3740731411784
 30
0.0
 10
155.8051957799781
 20
110.0821869620405
 30
0.0
 10
155.3995205374276
 20
109.8041367274362
 30
0.0
 10
155.1577527116355
 20
109.6384288073309
 30
0.0
  0
SPLINE
  5
107
330
1F
100
AcDbEntity
  8
0
  6
HIDDEN
 62
     7
370
     0
100
AcDbSpline
210
0.0
220
0.0
230
1.0
 70
     8
 71
     3
 72
    11
 73
     7
 74
     0
 42
0.00000001
 43
0.00000001
 40
0.0
 40
0.0
 40
0.0
 40
0.0
 40
0.3162883886610697
 40
0.626705063946164
 40
0.8831422681763199
 40
1.0
 40
1.0
 40
1.0
 40
1.0
 10
142.5120014737662
 20
109.6384288073309
 30
0.0
 10
142.3097116536157
 20
109.7753677075356
 30
0.0
 10
141.9088874083446
 20
110.0467033154369
 30
0.0
 10
141.5283776455422
 20
110.3575591421074
 30
0.0
 10
141.3366212185412
 20
110.5155130321626
 30
0.0
 10
141.353606426488
 20
110.5014890355808
 30
0.0
 10
141.3589235435542
 20
110.4970989079006
 30
0.0
  0
SPLINE
  5
108
330
1F
100
AcDbEntity
  8
0
  6
HIDDEN
 62
     7
370
     0
100
AcDbSpline
210
0.0
220
0.0
230
1.0
 70
     8
 71
     3
 72
     9
 73
     5
 74
     0
 42
0.00000001
 43
0.00000001
 40
0.0
 40
0.0
 40
0.0
 40
0.0
 40
0.9562952604075747
 40
1.0
 40
1.0
 40
1.0
 40
1.0
 10
142.5120014737662
 20
109.6384288073309
 30
0.0
 10
142.2956211775459
 20
109.5028764183961
 30
0.0
 10
142.0693518387979
 20
109.3611289952446
 30
0.0
 10
141.9257371660569
 20
109.1256853740284
 30
0.0
 10
141.9194605241832
 20
109.1153953718744
 30
0.0
  0
SPLINE
  5
109
330
1F
100
AcDbEntity
  8
0
  6
HIDDEN
 62
     7
370
     0
100
AcDbSpline
210
0.0
220
0.0
230
1.0
 70
     8
 71
     3
 72
     9
 73
     5
 74
     0
 42
0.00000001
 43
0.00000001
 40
0.0
 40
0.0
 40
0.0
 40
0.0
 40
0.5711793702158063
 40
0.9999999999999999
 40
0.9999999999999999
 40
0.9999999999999999
 40
0.9999999999999999
 10
143.776774782997
 20
105.0239273142792
 30
0.0
 10
143.9292373224201
 20
105.0229573573241
 30
0.0
 10
144.1961631733406
 20
105.0212591920792
 30
0.0
 10
144.4273251697689
 20
105.1002479817789
 30
0.0
 10
144.5264522026595
 20
105.1341200043238
 30
0.0
  0
SPLINE
  5
10A
330
1F
100
AcDbEntity
  8
0
  6
HIDDEN
 62
     7
370
     0
100
AcDbSpline
210
0.0
220
0.0
230
1.0
 70
    24
 71
     1
 72
     4
 73
     2
 74
     0
 42
0.00000001
 43
0.00000001
 40
0.0
 40
0.0
 40
1.0
 40
1.0
 10
145.3467164228972
 20
109.4654940795876
 30
0.0
 10
145.157754797798
 20
109.6384288073309
 30
0.0
  0
SPLINE
  5
10B
330
1F
100
AcDbEntity
  8
0
  6
HIDDEN
 62
     7
370
     0
100
AcDbSpline
210
0.0
220
0.0
230
1.0
 70
     8
 71
     3
 72
    11
 73
     7
 74
     0
 42
0.00000001
 43
0.00000001
 40
0.0
 40
0.0
 40
0.0
 40
0.0
 40
0.1208092554050636
 40
0.3611967832153386
 40
0.6192977878614883
 40
0.9999999999999999
 40
0.9999999999999999
 40
0.9999999999999999
 40
0.9999999999999999
 10
146.3104117702064
 20
110.4967540857173
 30
0.0
 10
146.3157297895436
 20
110.5011411125971
 30
0.0
 10
146.3316296597253
 20
110.5142574917316
 30
0.0
 10
146.1614180835662
 20
110.374072321517
 30
0.0
 10
145.8051880625265
 20
110.0821891589435
 30
0.0
 10
145.3995183716855
 20
109.8041371426918
 30
0.0
 10
145.157754797798
 20
109.6384288073309
 30
0.0
  0
SPLINE
  5
10C
330
1F
100
AcDbEntity
  8
0
  6
HIDDEN
 62
     7
370
     0
100
AcDbSpline
210
0.0
220
0.0
230
1.0
 70
     8
 71
     3
 72
    16
 73
    12
 74
     0
 42
0.00000001
 43
0.00000001
 40
0.0
 40
0.0
 40
0.0
 40
0.0
 40
0.2499999999999994
 40
0.2499999999999994
 40
0.3749999999999997
 40
0.3749999999999997
 40
0.4999999999999999
 40
0.4999999999999999
 40
0.7499999999999999
 40
0.7499999999999999
 40
1.0
 40
1.0
 40
1.0
 40
1.0
 10
80.51355508021115
 20
90.93320195392874
 30
0.0
 10
80.35232260272667
 20
90.21880779173662
 30
0.0
 10
80.23184276308704
 20
89.56546552902795
 30
0.0
 10
80.10946224577373
 20
88.67721028722407
 30
0.0
 10
80.07848458537629
 20
88.39652975087223
 30
0.0
 10
80.03687084774833
 20
87.86749576103226
 30
0.0
 10
80.02663493481552
 20
87.62417478245379
 30
0.0
 10
80.0264465377594
 20
86.95615209194058
 30
0.0
 10
80.06659124039702
 20
86.5924711825211
 30
0.0
 10
80.23074499533658
 20
86.03258030997279
 30
0.0
 10
80.35229664574614
 20
85.84505901785563
 30
0.0
 10
80.51355508021115
 20
85.7470276251677
 30
0.0
  0
SPLINE
  5
10D
330
1F
100
AcDbEntity
  8
0
  6
HIDDEN
 62
     7
370
     0
100
AcDbSpline
210
0.0
220
0.0
230
1.0
 70
     8
 71
     3
 72
    16
 73
    12
 74
     0
 42
0.00000001
 43
0.00000001
 40
0.0
 40
0.0
 40
0.0
 40
0.0
 40
0.2499999999999992
 40
0.2499999999999992
 40
0.3749999999999991
 40
0.3749999999999991
 40
0.4999999999999989
 40
0.4999999999999989
 40
0.7499999999999994
 40
0.7499999999999994
 40
1.0
 40
1.0
 40
1.0
 40
1.0
 10
80.51355508021115
 20
129.2871895351719
 30
0.0
 10
80.35232260272669
 20
129.1891739221172
 30
0.0
 10
80.23184276308706
 20
129.0024378904411
 30
0.0
 10
80.10946224577374
 20
128.5893980828822
 30
0.0
 10
80.07848458537629
 20
128.4293975836493
 30
0.0
 10
80.03687084774833
 20
128.0625919325581
 30
0.0
 10
80.02663493481552
 20
127.8592547799341
 30
0.0
 10
80.0264465377594
 20
127.1919675133075
 30
0.0
 10
80.06659124039702
 20
126.6711530494194
 30
0.0
 10
80.23074499533658
 20
125.4737940339417
 30
0.0
 10
80.35229664574614
 20
124.8155243796458
 30
0.0
 10
80.51355508021115
 20
124.1010152064108
 30
0.0
  0
LINE
  5
10E
330
1F
100
AcDbEntity
  8
0
  6
HIDDEN
 62
     7
370
     0
100
AcDbLine
 10
81.6348754288
 20
114.5389958081
 30
0.0
 11
81.6348754288
 21
100.4797907342
 31
0.0
  0
SPLINE
  5
10F
330
1F
100
AcDbEntity
  8
0
  6
HIDDEN
 62
     7
370
     0
100
AcDbSpline
210
0.0
220
0.0
230
1.0
 70
     8
 71
     3
 72
     8
 73
     4
 74
     0
 42
0.00000001
 43
0.00000001
 40
0.0000249638557296
 40
0.0000249638557296
 40
0.0000249638557296
 40
0.0000249638557296
 40
0.0049776420541172
 40
0.0049776420541172
 40
0.0049776420541172
 40
0.0049776420541172
 10
45.3348754237708
 20
103.5518976833333
 30
0.0
 10
46.98485165828034
 20
103.510618445565
 30
0.0
 10
48.63485297802538
 20
103.4703967643256
 30
0.0
 10
50.2848754237708
 20
103.4311475270705
 30
0.0
  0
SPLINE
  5
110
330
1F
100
AcDbEntity
  8
0
  6
HIDDEN
 62
     7
370
     0
100
AcDbSpline
210
0.0
220
0.0
230
1.0
 70
     8
 71
     3
 72
     8
 73
     4
 74
     0
 42
0.00000001
 43
0.00000001
 40
0.0000249631533153
 40
0.0000249631533153
 40
0.0000249631533153
 40
0.0000249631533153
 40
0.0049776413517028
 40
0.0049776413517028
 40
0.0049776413517028
 40
0.0049776413517028
 10
50.28487542377079
 20
111.6030696332691
 30
0.0
 10
48.63485297802537
 20
111.563820396014
 30
0.0
 10
46.98485165828033
 20
111.5235987147746
 30
0.0
 10
45.3348754237708
 20
111.4823194770063
 30
0.0
  0
SPLINE
  5
111
330
1F
100
AcDbEntity
  8
0
  6
HIDDEN
 62
     7
370
     0
100
AcDbSpline
210
0.0
220
0.0
230
1.0
 70
     8
 71
     3
 72
     8
 73
     4
 74
     0
 42
0.00000001
 43
0.00000001
 40
0.0
 40
0.0
 40
0.0
 40
0.0
 40
1.0
 40
1.0
 40
1.0
 40
1.0
 10
43.8348754237708
 20
104.6151212471874
 30
0.0
 10
44.30163603514798
 20
104.1997580015653
 30
0.0
 10
44.80738358192727
 20
103.8551675722613
 30
0.0
 10
45.3348754237708
 20
103.5518976833333
 30
0.0
  0
SPLINE
  5
112
330
1F
100
AcDbEntity
  8
0
  6
HIDDEN
 62
     7
370
     0
100
AcDbSpline
210
0.0
220
0.0
230
1.0
 70
     8
 71
     3
 72
     8
 73
     4
 74
     0
 42
0.00000001
 43
0.00000001
 40
0.0
 40
0.0
 40
0.0
 40
0.0
 40
1.0
 40
1.0
 40
1.0
 40
1.0
 10
45.3348754237708
 20
111.4823194770063
 30
0.0
 10
44.80738358192727
 20
111.1790495880783
 30
0.0
 10
44.30163603514797
 20
110.8344591587743
 30
0.0
 10
43.8348754237708
 20
110.4190959131522
 30
0.0
  0
LINE
  5
113
330
1F
100
AcDbEntity
  8
0
  6
HIDDEN
 62
     7
370
     0
100
AcDbLine
 10
50.2848740707
 20
103.4311473165
 30
0.0
 11
50.2848740707
 21
111.6030698438
 31
0.0
  0
SPLINE
  5
114
330
1F
100
AcDbEntity
  8
0
  6
HIDDEN
 62
     7
370
     0
100
AcDbSpline
210
0.0
220
0.0
230
1.0
 70
     8
 71
     3
 72
    24
 73
    20
 74
     0
 42
0.00000001
 43
0.00000001
 40
0.0
 40
0.0
 40
0.0
 40
0.0
 40
0.1249999999999999
 40
0.1249999999999999
 40
0.2499999999999997
 40
0.2499999999999997
 40
0.3749999999999997
 40
0.3749999999999997
 40
0.4374999999999997
 40
0.4374999999999997
 40
0.4999999999999998
 40
0.4999999999999998
 40
0.6249999999999999
 40
0.6249999999999999
 40
0.7499999999999999
 40
0.7499999999999999
 40
0.875
 40
0.875
 40
1.0
 40
1.0
 40
1.0
 40
1.0
 10
50.2848754237708
 20
103.4311475270706
 30
0.0
 10
50.52267905604588
 20
103.7301546294007
 30
0.0
 10
50.75276471725718
 20
104.0344924807194
 30
0.0
 10
51.187518115867
 20
104.6602260181154
 30
0.0
 10
51.39245090815317
 20
104.9814507454429
 30
0.0
 10
51.75755285865186
 20
105.6533765161757
 30
0.0
 10
51.91935324444337
 20
106.0086917480545
 30
0.0
 10
52.09121344902309
 20
106.558922969407
 30
0.0
 10
52.13679864068322
 20
106.7453267543875
 30
0.0
 10
52.19927338025808
 20
107.1254612564837
 30
0.0
 10
52.21594452600655
 20
107.3211310487696
 30
0.0
 10
52.21646556918303
 20
107.899611427444
 30
0.0
 10
52.15202326829633
 20
108.2775232664128
 30
0.0
 10
51.92217417492299
 20
109.0194912915113
 30
0.0
 10
51.7636534972599
 20
109.3682067516722
 30
0.0
 10
51.39941916735972
 20
110.0412991494054
 30
0.0
 10
51.19268292729614
 20
110.366251636647
 30
0.0
 10
50.75474498155577
 20
110.9971754471088
 30
0.0
 10
50.52347225427621
 20
111.3030651874494
 30
0.0
 10
50.28487542377089
 20
111.6030696332689
 30
0.0
  0
SPLINE
  5
115
330
1F
100
AcDbEntity
  8
0
  6
HIDDEN
 62
     7
370
     0
100
AcDbSpline
210
0.0
220
0.0
230
1.0
 70
     8
 71
     3
 72
    19
 73
    15
 74
     0
 42
0.00000001
 43
0.00000001
 40
0.0
 40
0.0
 40
0.0
 40
0.0
 40
0.0737825572974566
 40
0.16005456007438
 40
0.2501413105303152
 40
0.3423644242035593
 40
0.434346897480226
 40
0.52282841024173
 40
0.6051098910825604
 40
0.6821925132024842
 40
0.7583150963244203
 40
0.8377524284751746
 40
0.9227254546054744
 40
1.0
 40
1.0
 40
1.0
 40
1.0
 10
63.14603649483288
 20
110.1631201133854
 30
0.0
 10
63.44835874318056
 20
110.4417432967467
 30
0.0
 10
64.10417844139059
 20
111.0461532368849
 30
0.0
 10
65.43252215274974
 20
111.5517403630242
 30
0.0
 10
66.9394601623367
 20
111.6443801583973
 30
0.0
 10
68.43066919679869
 20
111.2290512400816
 30
0.0
 10
69.68753973662626
 20
110.3459190968495
 30
0.0
 10
70.52726130787273
 20
109.1217856242263
 30
0.0
 10
70.85652253799715
 20
107.7576572227963
 30
0.0
 10
70.70245926698529
 20
106.4365629263367
 30
0.0
 10
70.13473577205848
 20
105.254722635765
 30
0.0
 10
69.19649833886986
 20
104.2917686787899
 30
0.0
 10
67.9999463427446
 20
103.6220256195002
 30
0.0
 10
67.09904602561598
 20
103.5281322514738
 30
0.0
 10
66.66996926472748
 20
103.4834131394304
 30
0.0
  0
SPLINE
  5
116
330
1F
100
AcDbEntity
  8
0
  6
HIDDEN
 62
     7
370
     0
100
AcDbSpline
210
0.0
220
0.0
230
1.0
 70
     8
 71
     3
 72
    13
 73
     9
 74
     0
 42
0.00000001
 43
0.00000001
 40
0.0
 40
0.0
 40
0.0
 40
0.0
 40
0.071014348096028
 40
0.2845446691340678
 40
0.4859797195079917
 40
0.6752848981794662
 40
0.8594837670013883
 40
1.0
 40
1.0
 40
1.0
 40
1.0
 10
64.04197253690327
 20
104.1958506946243
 30
0.0
 10
63.8948783733506
 20
104.2697662356594
 30
0.0
 10
63.305492408094
 20
104.5659355835671
 30
0.0
 10
62.59437299913398
 20
105.4987002741227
 30
0.0
 10
62.0814938489537
 20
106.812005763675
 30
0.0
 10
62.08747776938218
 20
108.1683626432022
 30
0.0
 10
62.47604417273828
 20
109.3187016262878
 30
0.0
 10
62.94367523884542
 20
109.908076018113
 30
0.0
 10
63.14603649483288
 20
110.1631201133854
 30
0.0
  0
CIRCLE
  5
117
330
1F
100
AcDbEntity
  8
0
  6
HIDDEN
 62
     7
370
     0
100
AcDbCircle
 10
93.8348754238
 20
107.5171085802
 30
0.0
 40
2.0
  0
SPLINE
  5
118
330
1F
100
AcDbEntity
  8
0
  6
HIDDEN
 62
     7
370
     0
100
AcDbSpline
210
0.0
220
0.0
230
1.0
 70
    24
 71
     1
 72
     4
 73
     2
 74
     0
 42
0.00000001
 43
0.00000001
 40
0.0
 40
0.0
 40
1.0
 40
1.0
 10
150.8348736952361
 20
114.917108582405
 30
0.0
 10
151.7348740290221
 20
114.0171087142803
 30
0.0
  0
SPLINE
  5
119
330
1F
100
AcDbEntity
  8
0
  6
HIDDEN
 62
     7
370
     0
100
AcDbSpline
210
0.0
220
0.0
230
1.0
 70
    24
 71
     1
 72
     4
 73
     2
 74
     0
 42
0.00000001
 43
0.00000001
 40
0.0
 40
0.0
 40
1.0
 40
1.0
 10
155.934878070217
 20
114.0171087142803
 30
0.0
 10
156.834878404003
 20
114.917108582405
 30
0.0
  0
SPLINE
  5
11A
330
1F
100
AcDbEntity
  8
0
  6
HIDDEN
 62
     7
370
     0
100
AcDbSpline
210
0.0
220
0.0
230
1.0
 70
    24
 71
     1
 72
     4
 73
     2
 74
     0
 42
0.00000001
 43
0.00000001
 40
0.0
 40
0.0
 40
1.0
 40
1.0
 10
150.8348736952361
 20
124.0171084907628
 30
0.0
 10
150.8348736952361
 20
114.917108582405
 30
0.0
  0
SPLINE
  5
11B
330
1F
100
AcDbEntity
  8
0
  6
HIDDEN
 62
     7
370
     0
100
AcDbSpline
210
0.0
220
0.0
230
1.0
 70
    24
 71
     1
 72
     4
 73
     2
 74
     0
 42
0.00000001
 43
0.00000001
 40
0.0
 40
0.0
 40
1.0
 40
1.0
 10
156.834878404003
 20
114.917108582405
 30
0.0
 10
156.834878404003
 20
124.0171084907628
 30
0.0
  0
SPLINE
  5
11C
330
1F
100
AcDbEntity
  8
0
  6
HIDDEN
 62
     7
370
     0
100
AcDbSpline
210
0.0
220
0.0
230
1.0
 70
    24
 71
     1
 72
     4
 73
     2
 74
     0
 42
0.00000001
 43
0.00000001
 40
0.0
 40
0.0
 40
1.0
 40
1.0
 10
156.834878404003
 20
124.0171084907628
 30
0.0
 10
156.3348773907241
 20
124.5171095040418
 30
0.0
  0
SPLINE
  5
11D
330
1F
100
AcDbEntity
  8
0
  6
HIDDEN
 62
     7
370
     0
100
AcDbSpline
210
0.0
220
0.0
230
1.0
 70
    24
 71
     1
 72
     4
 73
     2
 74
     0
 42
0.00000001
 43
0.00000001
 40
0.0
 40
0.0
 40
1.0
 40
1.0
 10
151.3348747085151
 20
124.5171095040418
 30
0.0
 10
150.8348736952361
 20
124.0171084907628
 30
0.0
  0
SPLINE
  5
11E
330
1F
100
AcDbEntity
  8
0
  6
HIDDEN
 62
     7
370
     0
100
AcDbSpline
210
0.0
220
0.0
230
1.0
 70
    24
 71
     1
 72
     4
 73
     2
 74
     0
 42
0.00000001
 43
0.00000001
 40
0.0
 40
0.0
 40
1.0
 40
1.0
 10
155.084878582817
 20
114.0171087142803
 30
0.0
 10
153.8348723243293
 20
114.7387966309465
 30
0.0
  0
SPLINE
  5
11F
330
1F
100
AcDbEntity
  8
0
  6
HIDDEN
 62
     7
370
     0
100
AcDbSpline
210
0.0
220
0.0
230
1.0
 70
    24
 71
     1
 72
     4
 73
     2
 74
     0
 42
0.00000001
 43
0.00000001
 40
0.0
 40
0.0
 40
1.0
 40
1.0
 10
153.8348723243293
 20
114.7387966309465
 30
0.0
 10
152.5848735164222
 20
114.0171087142803
 30
0.0
  0
SPLINE
  5
120
330
1F
100
AcDbEntity
  8
0
  6
HIDDEN
 62
     7
370
     0
100
AcDbSpline
210
0.0
220
0.0
230
1.0
 70
    24
 71
     1
 72
     4
 73
     2
 74
     0
 42
0.00000001
 43
0.00000001
 40
0.0
 40
0.0
 40
1.0
 40
1.0
 10
140.8348757813987
 20
124.0171084907628
 30
0.0
 10
140.8348757813987
 20
114.917108582405
 30
0.0
  0
SPLINE
  5
121
330
1F
100
AcDbEntity
  8
0
  6
HIDDEN
 62
     7
370
     0
100
AcDbSpline
210
0.0
220
0.0
230
1.0
 70
    24
 71
     1
 72
     4
 73
     2
 74
     0
 42
0.00000001
 43
0.00000001
 40
0.0
 40
0.0
 40
1.0
 40
1.0
 10
146.834873039585
 20
114.917108582405
 30
0.0
 10
146.834873039585
 20
124.0171084907628
 30
0.0
  0
SPLINE
  5
122
330
1F
100
AcDbEntity
  8
0
  6
HIDDEN
 62
     7
370
     0
100
AcDbSpline
210
0.0
220
0.0
230
1.0
 70
    24
 71
     1
 72
     4
 73
     2
 74
     0
 42
0.00000001
 43
0.00000001
 40
0.0
 40
0.0
 40
1.0
 40
1.0
 10
140.8348757813987
 20
114.917108582405
 30
0.0
 10
141.7348761151847
 20
114.0171087142803
 30
0.0
  0
SPLINE
  5
123
330
1F
100
AcDbEntity
  8
0
  6
HIDDEN
 62
     7
370
     0
100
AcDbSpline
210
0.0
220
0.0
230
1.0
 70
    24
 71
     1
 72
     4
 73
     2
 74
     0
 42
0.00000001
 43
0.00000001
 40
0.0
 40
0.0
 40
1.0
 40
1.0
 10
145.934872705799
 20
114.0171087142803
 30
0.0
 10
146.834873039585
 20
114.917108582405
 30
0.0
  0
SPLINE
  5
124
330
1F
100
AcDbEntity
  8
0
  6
HIDDEN
 62
     7
370
     0
100
AcDbSpline
210
0.0
220
0.0
230
1.0
 70
    24
 71
     1
 72
     4
 73
     2
 74
     0
 42
0.00000001
 43
0.00000001
 40
0.0
 40
0.0
 40
1.0
 40
1.0
 10
146.834873039585
 20
124.0171084907628
 30
0.0
 10
146.334872026306
 20
124.5171095040418
 30
0.0
  0
SPLINE
  5
125
330
1F
100
AcDbEntity
  8
0
  6
HIDDEN
 62
     7
370
     0
100
AcDbSpline
210
0.0
220
0.0
230
1.0
 70
    24
 71
     1
 72
     4
 73
     2
 74
     0
 42
0.00000001
 43
0.00000001
 40
0.0
 40
0.0
 40
1.0
 40
1.0
 10
141.3348767946776
 20
124.5171095040418
 30
0.0
 10
140.8348757813987
 20
124.0171084907628
 30
0.0
  0
SPLINE
  5
126
330
1F
100
AcDbEntity
  8
0
  6
HIDDEN
 62
     7
370
     0
100
AcDbSpline
210
0.0
220
0.0
230
1.0
 70
    24
 71
     1
 72
     4
 73
     2
 74
     0
 42
0.00000001
 43
0.00000001
 40
0.0
 40
0.0
 40
1.0
 40
1.0
 10
145.0848732183989
 20
114.0171087142803
 30
0.0
 10
143.8348744104918
 20
114.7387966309465
 30
0.0
  0
SPLINE
  5
127
330
1F
100
AcDbEntity
  8
0
  6
HIDDEN
 62
     7
370
     0
100
AcDbSpline
210
0.0
220
0.0
230
1.0
 70
    24
 71
     1
 72
     4
 73
     2
 74
     0
 42
0.00000001
 43
0.00000001
 40
0.0
 40
0.0
 40
1.0
 40
1.0
 10
143.8348744104918
 20
114.7387966309465
 30
0.0
 10
142.5848756025847
 20
114.0171087142803
 30
0.0
  0
SPLINE
  5
128
330
1F
100
AcDbEntity
  8
0
  6
HIDDEN
 62
     7
370
     0
100
AcDbSpline
210
0.0
220
0.0
230
1.0
 70
    24
 71
     1
 72
     4
 73
     2
 74
     0
 42
0.00000001
 43
0.00000001
 40
0.0
 40
0.0
 40
1.0
 40
1.0
 10
130.8348741422709
 20
124.0171084907628
 30
0.0
 10
130.8348741422709
 20
114.917108582405
 30
0.0
  0
SPLINE
  5
129
330
1F
100
AcDbEntity
  8
0
  6
HIDDEN
 62
     7
370
     0
100
AcDbSpline
210
0.0
220
0.0
230
1.0
 70
    24
 71
     1
 72
     4
 73
     2
 74
     0
 42
0.00000001
 43
0.00000001
 40
0.0
 40
0.0
 40
1.0
 40
1.0
 10
136.8348751257476
 20
114.917108582405
 30
0.0
 10
136.8348751257476
 20
124.0171084907628
 30
0.0
  0
SPLINE
  5
12A
330
1F
100
AcDbEntity
  8
0
  6
HIDDEN
 62
     7
370
     0
100
AcDbSpline
210
0.0
220
0.0
230
1.0
 70
    24
 71
     1
 72
     4
 73
     2
 74
     0
 42
0.00000001
 43
0.00000001
 40
0.0
 40
0.0
 40
1.0
 40
1.0
 10
130.8348741422709
 20
114.917108582405
 30
0.0
 10
131.7348744760569
 20
114.0171087142803
 30
0.0
  0
SPLINE
  5
12B
330
1F
100
AcDbEntity
  8
0
  6
HIDDEN
 62
     7
370
     0
100
AcDbSpline
210
0.0
220
0.0
230
1.0
 70
    24
 71
     1
 72
     4
 73
     2
 74
     0
 42
0.00000001
 43
0.00000001
 40
0.0
 40
0.0
 40
1.0
 40
1.0
 10
135.9348747919616
 20
114.0171087142803
 30
0.0
 10
136.8348751257476
 20
114.917108582405
 30
0.0
  0
SPLINE
  5
12C
330
1F
100
AcDbEntity
  8
0
  6
HIDDEN
 62
     7
370
     0
100
AcDbSpline
210
0.0
220
0.0
230
1.0
 70
    24
 71
     1
 72
     4
 73
     2
 74
     0
 42
0.00000001
 43
0.00000001
 40
0.0
 40
0.0
 40
1.0
 40
1.0
 10
136.8348751257476
 20
124.0171084907628
 30
0.0
 10
136.3348741124686
 20
124.5171095040418
 30
0.0
  0
SPLINE
  5
12D
330
1F
100
AcDbEntity
  8
0
  6
HIDDEN
 62
     7
370
     0
100
AcDbSpline
210
0.0
220
0.0
230
1.0
 70
    24
 71
     1
 72
     4
 73
     2
 74
     0
 42
0.00000001
 43
0.00000001
 40
0.0
 40
0.0
 40
1.0
 40
1.0
 10
131.3348751555499
 20
124.5171095040418
 30
0.0
 10
130.8348741422709
 20
124.0171084907628
 30
0.0
  0
SPLINE
  5
12E
330
1F
100
AcDbEntity
  8
0
  6
HIDDEN
 62
     7
370
     0
100
AcDbSpline
210
0.0
220
0.0
230
1.0
 70
    24
 71
     1
 72
     4
 73
     2
 74
     0
 42
0.00000001
 43
0.00000001
 40
0.0
 40
0.0
 40
1.0
 40
1.0
 10
135.0848753045615
 20
114.0171087142803
 30
0.0
 10
133.8348764966544
 20
114.7387966309465
 30
0.0
  0
SPLINE
  5
12F
330
1F
100
AcDbEntity
  8
0
  6
HIDDEN
 62
     7
370
     0
100
AcDbSpline
210
0.0
220
0.0
230
1.0
 70
    24
 71
     1
 72
     4
 73
     2
 74
     0
 42
0.00000001
 43
0.00000001
 40
0.0
 40
0.0
 40
1.0
 40
1.0
 10
133.8348764966544
 20
114.7387966309465
 30
0.0
 10
132.584873963457
 20
114.0171087142803
 30
0.0
  0
SPLINE
  5
130
330
1F
100
AcDbEntity
  8
0
  6
HIDDEN
 62
     7
370
     0
100
AcDbSpline
210
0.0
220
0.0
230
1.0
 70
    24
 71
     1
 72
     4
 73
     2
 74
     0
 42
0.00000001
 43
0.00000001
 40
0.0
 40
0.0
 40
1.0
 40
1.0
 10
81.8348754237708
 20
83.26710786491407
 30
0.0
 10
81.92776864419685
 20
83.36000170379651
 30
0.0
  0
SPLINE
  5
131
330
1F
100
AcDbEntity
  8
0
  6
HIDDEN
 62
     7
370
     0
100
AcDbSpline
210
0.0
220
0.0
230
1.0
 70
    24
 71
     1
 72
     4
 73
     2
 74
     0
 42
0.00000001
 43
0.00000001
 40
0.0
 40
0.0
 40
1.0
 40
1.0
 10
81.92776864419685
 20
131.6742154565431
 30
0.0
 10
81.8348754237708
 20
131.7671092954255
 30
0.0
  0
ARC
  5
132
330
1F
100
AcDbEntity
  8
0
  6
HIDDEN
 62
     7
370
     0
100
AcDbCircle
 10
81.2206618614
 20
84.0671085802
 30
0.0
 40
1.0
100
AcDbArc
 50
315.0
 51
0.0
  0
ARC
  5
133
330
1F
100
AcDbEntity
  8
0
  6
HIDDEN
 62
     7
370
     0
100
AcDbCircle
 10
81.2206618614
 20
84.0671085802
 30
0.0
 40
1.0
100
AcDbArc
 50
0.0
 51
52.1052014664
  0
ARC
  5
134
330
1F
100
AcDbEntity
  8
0
  6
HIDDEN
 62
     7
370
     0
100
AcDbCircle
 10
81.2206618614
 20
130.9671085802
 30
0.0
 40
1.000000000000008
100
AcDbArc
 50
351.8087250651
 51
45.0
  0
ARC
  5
135
330
1F
100
AcDbEntity
  8
0
  6
HIDDEN
 62
     7
370
     0
100
AcDbCircle
 10
81.2206618614
 20
130.9671085802
 30
0.0
 40
1.000000000000002
100
AcDbArc
 50
307.8947985336
 51
351.8087250651
  0
LINE
  5
136
330
1F
100
AcDbEntity
  8
0
  6
HIDDEN
 62
     7
370
     0
100
AcDbLine
 10
82.2206618596
 20
84.0671083686
 30
0.0
 11
82.2206618596
 21
130.9671087918
 31
0.0
  0
SPLINE
  5
137
330
1F
100
AcDbEntity
  8
0
  6
HIDDEN
 62
     7
370
     0
100
AcDbSpline
210
0.0
220
0.0
230
1.0
 70
    24
 71
     1
 72
     4
 73
     2
 74
     0
 42
0.00000001
 43
0.00000001
 40
0.0
 40
0.0
 40
1.0
 40
1.0
 10
43.83487664566601
 20
91.32067885070813
 30
0.0
 10
45.36510296569432
 20
92.20415752202047
 30
0.0
  0
SPLINE
  5
138
330
1F
100
AcDbEntity
  8
0
  6
HIDDEN
 62
     7
370
     0
100
AcDbSpline
210
0.0
220
0.0
230
1.0
 70
    24
 71
     1
 72
     4
 73
     2
 74
     0
 42
0.00000001
 43
0.00000001
 40
0.0
 40
0.0
 40
1.0
 40
1.0
 10
45.36510296569432
 20
122.8300596383191
 30
0.0
 10
43.83487664566601
 20
123.7135383096315
 30
0.0
  0
ARC
  5
139
330
1F
100
AcDbEntity
  8
0
  6
HIDDEN
 62
     7
370
     0
100
AcDbCircle
 10
54.8366767387
 20
93.5171085802
 30
0.0
 40
2.000000000000014
100
AcDbArc
 50
270.0
 51
315.0
  0
ARC
  5
13A
330
1F
100
AcDbEntity
  8
0
  6
HIDDEN
 62
     7
370
     0
100
AcDbCircle
 10
54.8366767387
 20
121.5171085802
 30
0.0
 40
2.000000000000014
100
AcDbArc
 50
45.0
 51
90.0
  0
SPLINE
  5
13B
330
1F
100
AcDbEntity
  8
0
  6
HIDDEN
 62
     7
370
     0
100
AcDbSpline
210
0.0
220
0.0
230
1.0
 70
    24
 71
     1
 72
     4
 73
     2
 74
     0
 42
0.00000001
 43
0.00000001
 40
0.0
 40
0.0
 40
1.0
 40
1.0
 10
53.83487455950345
 20
91.51710782021058
 30
0.0
 10
54.83667590127553
 20
91.51710782021058
 30
0.0
  0
SPLINE
  5
13C
330
1F
100
AcDbEntity
  8
0
  6
HIDDEN
 62
     7
370
     0
100
AcDbSpline
210
0.0
220
0.0
230
1.0
 70
    24
 71
     1
 72
     4
 73
     2
 74
     0
 42
0.00000001
 43
0.00000001
 40
0.0
 40
0.0
 40
1.0
 40
1.0
 10
54.83667590127553
 20
123.517109340129
 30
0.0
 10
53.83487455950345
 20
123.517109340129
 30
0.0
  0
ARC
  5
13D
330
1F
100
AcDbEntity
  8
0
  6
HIDDEN
 62
     7
370
     0
100
AcDbCircle
 10
53.8348754238
 20
93.5171085802
 30
0.0
 40
2.000000000000022
100
AcDbArc
 50
189.9742217944
 51
270.0
  0
ARC
  5
13E
330
1F
100
AcDbEntity
  8
0
  6
HIDDEN
 62
     7
370
     0
100
AcDbCircle
 10
53.8348754238
 20
121.5171085802
 30
0.0
 40
2.00000000000002
100
AcDbArc
 50
90.0
 51
170.0257782056
  0
SPLINE
  5
13F
330
1F
100
AcDbEntity
  8
0
  6
HIDDEN
 62
     7
370
     0
100
AcDbSpline
210
0.0
220
0.0
230
1.0
 70
    24
 71
     1
 72
     4
 73
     2
 74
     0
 42
0.00000001
 43
0.00000001
 40
0.0
 40
0.0
 40
1.0
 40
1.0
 10
56.25089109347428
 20
92.10289481848253
 30
0.0
 10
57.66510442302788
 20
93.51710814803613
 30
0.0
  0
SPLINE
  5
140
330
1F
100
AcDbEntity
  8
0
  6
HIDDEN
 62
     7
370
     0
100
AcDbSpline
210
0.0
220
0.0
230
1.0
 70
    24
 71
     1
 72
     4
 73
     2
 74
     0
 42
0.00000001
 43
0.00000001
 40
0.0
 40
0.0
 40
1.0
 40
1.0
 10
57.66510442302788
 20
121.5171090123035
 30
0.0
 10
56.25089109347428
 20
122.9313223418571
 30
0.0
  0
SPLINE
  5
141
330
1F
100
AcDbEntity
  8
0
  6
HIDDEN
 62
     7
370
     0
100
AcDbSpline
210
0.0
220
0.0
230
1.0
 70
    24
 71
     1
 72
     4
 73
     2
 74
     0
 42
0.00000001
 43
0.00000001
 40
0.0
 40
0.0
 40
1.0
 40
1.0
 10
45.36510296569432
 20
92.20415752202047
 30
0.0
 10
50.26510395513142
 20
93.51710814803613
 30
0.0
  0
SPLINE
  5
142
330
1F
100
AcDbEntity
  8
0
  6
HIDDEN
 62
     7
370
     0
100
AcDbSpline
210
0.0
220
0.0
230
1.0
 70
    24
 71
     1
 72
     4
 73
     2
 74
     0
 42
0.00000001
 43
0.00000001
 40
0.0
 40
0.0
 40
1.0
 40
1.0
 10
50.26510395513142
 20
121.5171090123035
 30
0.0
 10
45.36510296569432
 20
122.8300596383191
 30
0.0
  0
SPLINE
  5
143
330
1F
100
AcDbEntity
  8
0
  6
HIDDEN
 62
     7
370
     0
100
AcDbSpline
210
0.0
220
0.0
230
1.0
 70
    24
 71
     1
 72
     4
 73
     2
 74
     0
 42
0.00000001
 43
0.00000001
 40
0.0
 40
0.0
 40
1.0
 40
1.0
 10
51.86510309980477
 20
121.8635191005446
 30
0.0
 10
51.2651041190442
 20
121.5171090123035
 30
0.0
  0
SPLINE
  5
144
330
1F
100
AcDbEntity
  8
0
  6
HIDDEN
 62
     7
370
     0
100
AcDbSpline
210
0.0
220
0.0
230
1.0
 70
    24
 71
     1
 72
     4
 73
     2
 74
     0
 42
0.00000001
 43
0.00000001
 40
0.0
 40
0.0
 40
1.0
 40
1.0
 10
51.2651041190442
 20
93.51710814803613
 30
0.0
 10
51.86510309980477
 20
93.17069805979503
 30
0.0
  0
ARC
  5
145
330
1F
100
AcDbEntity
  8
0
  6
HIDDEN
 62
     7
370
     0
100
AcDbCircle
 10
70.3348754238
 20
94.0171085802
 30
0.0
 40
0.5
100
AcDbArc
 50
270.0
 51
0.0
  0
ARC
  5
146
330
1F
100
AcDbEntity
  8
0
  6
HIDDEN
 62
     7
370
     0
100
AcDbCircle
 10
70.3348754238
 20
121.0171085802
 30
0.0
 40
0.5
100
AcDbArc
 50
0.0
 51
90.0
  0
SPLINE
  5
147
330
1F
100
AcDbEntity
  8
0
  6
HIDDEN
 62
     7
370
     0
100
AcDbSpline
210
0.0
220
0.0
230
1.0
 70
    24
 71
     1
 72
     4
 73
     2
 74
     0
 42
0.00000001
 43
0.00000001
 40
0.0
 40
0.0
 40
1.0
 40
1.0
 10
57.66510442302788
 20
93.51710814803613
 30
0.0
 10
70.33487540141905
 20
93.51710814803613
 30
0.0
  0
SPLINE
  5
148
330
1F
100
AcDbEntity
  8
0
  6
HIDDEN
 62
     7
370
     0
100
AcDbSpline
210
0.0
220
0.0
230
1.0
 70
    24
 71
     1
 72
     4
 73
     2
 74
     0
 42
0.00000001
 43
0.00000001
 40
0.0
 40
0.0
 40
1.0
 40
1.0
 10
70.33487540141905
 20
121.5171090123035
 30
0.0
 10
57.66510442302788
 20
121.5171090123035
 30
0.0
  0
SPLINE
  5
149
330
1F
100
AcDbEntity
  8
0
  6
HIDDEN
 62
     7
370
     0
100
AcDbSpline
210
0.0
220
0.0
230
1.0
 70
    24
 71
     1
 72
     4
 73
     2
 74
     0
 42
0.00000001
 43
0.00000001
 40
0.0
 40
0.0
 40
1.0
 40
1.0
 10
50.26510395513142
 20
93.51710814803613
 30
0.0
 10
51.2651041190442
 20
93.51710814803613
 30
0.0
  0
SPLINE
  5
14A
330
1F
100
AcDbEntity
  8
0
  6
HIDDEN
 62
     7
370
     0
100
AcDbSpline
210
0.0
220
0.0
230
1.0
 70
    24
 71
     1
 72
     4
 73
     2
 74
     0
 42
0.00000001
 43
0.00000001
 40
0.0
 40
0.0
 40
1.0
 40
1.0
 10
51.2651041190442
 20
121.5171090123035
 30
0.0
 10
50.26510395513142
 20
121.5171090123035
 30
0.0
  0
SPLINE
  5
14B
330
1F
100
AcDbEntity
  8
0
  6
HIDDEN
 62
     7
370
     0
100
AcDbSpline
210
0.0
220
0.0
230
1.0
 70
    24
 71
     1
 72
     4
 73
     2
 74
     0
 42
0.00000001
 43
0.00000001
 40
0.0
 40
0.0
 40
1.0
 40
1.0
 10
70.83487548337544
 20
97.26710829704774
 30
0.0
 10
72.08487522260512
 20
98.5171089676
 30
0.0
  0
SPLINE
  5
14C
330
1F
100
AcDbEntity
  8
0
  6
HIDDEN
 62
     7
370
     0
100
AcDbSpline
210
0.0
220
0.0
230
1.0
 70
    24
 71
     1
 72
     4
 73
     2
 74
     0
 42
0.00000001
 43
0.00000001
 40
0.0
 40
0.0
 40
1.0
 40
1.0
 10
72.08487522260512
 20
116.5171081927396
 30
0.0
 10
70.83487548337544
 20
117.7671088632919
 30
0.0
  0
SPLINE
  5
14D
330
1F
100
AcDbEntity
  8
0
  6
HIDDEN
 62
     7
370
     0
100
AcDbSpline
210
0.0
220
0.0
230
1.0
 70
    24
 71
     1
 72
     4
 73
     2
 74
     0
 42
0.00000001
 43
0.00000001
 40
0.0
 40
0.0
 40
1.0
 40
1.0
 10
72.08487522260512
 20
98.5171089676
 30
0.0
 10
97.83487618373002
 20
98.5171089676
 30
0.0
  0
SPLINE
  5
14E
330
1F
100
AcDbEntity
  8
0
  6
HIDDEN
 62
     7
370
     0
100
AcDbSpline
210
0.0
220
0.0
230
1.0
 70
    24
 71
     1
 72
     4
 73
     2
 74
     0
 42
0.00000001
 43
0.00000001
 40
0.0
 40
0.0
 40
1.0
 40
1.0
 10
97.83487618373002
 20
116.5171081927396
 30
0.0
 10
72.08487522260512
 20
116.5171081927396
 30
0.0
  0
SPLINE
  5
14F
330
1F
100
AcDbEntity
  8
0
  6
HIDDEN
 62
     7
370
     0
100
AcDbSpline
210
0.0
220
0.0
230
1.0
 70
    24
 71
     1
 72
     4
 73
     2
 74
     0
 42
0.00000001
 43
0.00000001
 40
0.0
 40
0.0
 40
1.0
 40
1.0
 10
97.83487618373002
 20
98.5171089676
 30
0.0
 10
101.1396091471728
 20
104.0171084721364
 30
0.0
  0
SPLINE
  5
150
330
1F
100
AcDbEntity
  8
0
  6
HIDDEN
 62
     7
370
     0
100
AcDbSpline
210
0.0
220
0.0
230
1.0
 70
    24
 71
     1
 72
     4
 73
     2
 74
     0
 42
0.00000001
 43
0.00000001
 40
0.0
 40
0.0
 40
1.0
 40
1.0
 10
101.1396091471728
 20
111.0171086882032
 30
0.0
 10
97.83487618373002
 20
116.5171081927396
 30
0.0
  0
SPLINE
  5
151
330
1F
100
AcDbEntity
  8
0
  6
HIDDEN
 62
     7
370
     0
100
AcDbSpline
210
0.0
220
0.0
230
1.0
 70
    24
 71
     1
 72
     4
 73
     2
 74
     0
 42
0.00000001
 43
0.00000001
 40
0.0
 40
0.0
 40
1.0
 40
1.0
 10
101.1396091471728
 20
104.0171084721364
 30
0.0
 10
128.8348738144454
 20
104.0171084721364
 30
0.0
  0
SPLINE
  5
152
330
1F
100
AcDbEntity
  8
0
  6
HIDDEN
 62
     7
370
     0
100
AcDbSpline
210
0.0
220
0.0
230
1.0
 70
    24
 71
     1
 72
     4
 73
     2
 74
     0
 42
0.00000001
 43
0.00000001
 40
0.0
 40
0.0
 40
1.0
 40
1.0
 10
128.8348738144454
 20
111.0171086882032
 30
0.0
 10
101.1396091471728
 20
111.0171086882032
 30
0.0
  0
SPLINE
  5
153
330
1F
100
AcDbEntity
  8
0
  6
HIDDEN
 62
     7
370
     0
100
AcDbSpline
210
0.0
220
0.0
230
1.0
 70
    24
 71
     1
 72
     4
 73
     2
 74
     0
 42
0.00000001
 43
0.00000001
 40
0.0
 40
0.0
 40
1.0
 40
1.0
 10
128.8348738144454
 20
104.0171084721364
 30
0.0
 10
129.1353073011454
 20
104.5171085540928
 30
0.0
  0
SPLINE
  5
154
330
1F
100
AcDbEntity
  8
0
  6
HIDDEN
 62
     7
370
     0
100
AcDbSpline
210
0.0
220
0.0
230
1.0
 70
    24
 71
     1
 72
     4
 73
     2
 74
     0
 42
0.00000001
 43
0.00000001
 40
0.0
 40
0.0
 40
1.0
 40
1.0
 10
129.1353073011454
 20
110.5171086062468
 30
0.0
 10
128.8348738144454
 20
111.0171086882032
 30
0.0
  0
ARC
  5
155
330
1F
100
AcDbEntity
  8
0
  6
HIDDEN
 62
     7
370
     0
100
AcDbCircle
 10
161.5348754238
 20
110.8171085802
 30
0.0
 40
0.2999999999999972
100
AcDbArc
 50
270.0
 51
0.0
  0
ARC
  5
156
330
1F
100
AcDbEntity
  8
0
  6
HIDDEN
 62
     7
370
     0
100
AcDbCircle
 10
161.5348754238
 20
104.2171085802
 30
0.0
 40
0.2999999999999972
100
AcDbArc
 50
0.0
 51
90.0
  0
SPLINE
  5
157
330
1F
100
AcDbEntity
  8
0
  6
HIDDEN
 62
     7
370
     0
100
AcDbSpline
210
0.0
220
0.0
230
1.0
 70
    24
 71
     1
 72
     4
 73
     2
 74
     0
 42
0.00000001
 43
0.00000001
 40
0.0
 40
0.0
 40
1.0
 40
1.0
 10
131.3589256297168
 20
110.5171086062468
 30
0.0
 10
129.1353073011454
 20
110.5171086062468
 30
0.0
  0
SPLINE
  5
158
330
1F
100
AcDbEntity
  8
0
  6
HIDDEN
 62
     7
370
     0
100
AcDbSpline
210
0.0
220
0.0
230
1.0
 70
    24
 71
     1
 72
     4
 73
     2
 74
     0
 42
0.00000001
 43
0.00000001
 40
0.0
 40
0.0
 40
1.0
 40
1.0
 10
141.3589235435542
 20
110.5171086062468
 30
0.0
 10
136.3104138563689
 20
110.5171086062468
 30
0.0
  0
SPLINE
  5
159
330
1F
100
AcDbEntity
  8
0
  6
HIDDEN
 62
     7
370
     0
100
AcDbSpline
210
0.0
220
0.0
230
1.0
 70
    24
 71
     1
 72
     4
 73
     2
 74
     0
 42
0.00000001
 43
0.00000001
 40
0.0
 40
0.0
 40
1.0
 40
1.0
 10
151.3589251826819
 20
110.5171086062468
 30
0.0
 10
146.3104117702063
 20
110.5171086062468
 30
0.0
  0
SPLINE
  5
15A
330
1F
100
AcDbEntity
  8
0
  6
HIDDEN
 62
     7
370
     0
100
AcDbSpline
210
0.0
220
0.0
230
1.0
 70
    24
 71
     1
 72
     4
 73
     2
 74
     0
 42
0.00000001
 43
0.00000001
 40
0.0
 40
0.0
 40
1.0
 40
1.0
 10
161.5348760078963
 20
110.5171086062468
 30
0.0
 10
156.3104096840438
 20
110.5171086062468
 30
0.0
  0
SPLINE
  5
15B
330
1F
100
AcDbEntity
  8
0
  6
HIDDEN
 62
     7
370
     0
100
AcDbSpline
210
0.0
220
0.0
230
1.0
 70
    24
 71
     1
 72
     4
 73
     2
 74
     0
 42
0.00000001
 43
0.00000001
 40
0.0
 40
0.0
 40
1.0
 40
1.0
 10
129.1353073011454
 20
104.5171085540928
 30
0.0
 10
161.5348760078963
 20
104.5171085540928
 30
0.0
  0
SPLINE
  5
15C
330
1F
100
AcDbEntity
  8
0
  6
HIDDEN
 62
     7
370
     0
100
AcDbSpline
210
0.0
220
0.0
230
1.0
 70
    24
 71
     1
 72
     4
 73
     2
 74
     0
 42
0.00000001
 43
0.00000001
 40
0.0
 40
0.0
 40
1.0
 40
1.0
 10
151.3348747085151
 20
124.5171095040418
 30
0.0
 10
151.3348747085151
 20
110.4970998392232
 30
0.0
  0
SPLINE
  5
15D
330
1F
100
AcDbEntity
  8
0
  6
HIDDEN
 62
     7
370
     0
100
AcDbSpline
210
0.0
220
0.0
230
1.0
 70
    24
 71
     1
 72
     4
 73
     2
 74
     0
 42
0.00000001
 43
0.00000001
 40
0.0
 40
0.0
 40
1.0
 40
1.0
 10
156.3348773907241
 20
110.4967547842093
 30
0.0
 10
156.3348773907241
 20
124.5171095040418
 30
0.0
  0
SPLINE
  5
15E
330
1F
100
AcDbEntity
  8
0
  6
HIDDEN
 62
     7
370
     0
100
AcDbSpline
210
0.0
220
0.0
230
1.0
 70
    24
 71
     1
 72
     4
 73
     2
 74
     0
 42
0.00000001
 43
0.00000001
 40
0.0
 40
0.0
 40
1.0
 40
1.0
 10
141.3348767946776
 20
124.5171095040418
 30
0.0
 10
141.3348767946776
 20
110.4970998392232
 30
0.0
  0
SPLINE
  5
15F
330
1F
100
AcDbEntity
  8
0
  6
HIDDEN
 62
     7
370
     0
100
AcDbSpline
210
0.0
220
0.0
230
1.0
 70
    24
 71
     1
 72
     4
 73
     2
 74
     0
 42
0.00000001
 43
0.00000001
 40
0.0
 40
0.0
 40
1.0
 40
1.0
 10
146.334872026306
 20
110.4967547842093
 30
0.0
 10
146.334872026306
 20
124.5171095040418
 30
0.0
  0
SPLINE
  5
160
330
1F
100
AcDbEntity
  8
0
  6
HIDDEN
 62
     7
370
     0
100
AcDbSpline
210
0.0
220
0.0
230
1.0
 70
    24
 71
     1
 72
     4
 73
     2
 74
     0
 42
0.00000001
 43
0.00000001
 40
0.0
 40
0.0
 40
1.0
 40
1.0
 10
131.3348751555499
 20
124.5171095040418
 30
0.0
 10
131.3348751555499
 20
110.4970998392232
 30
0.0
  0
SPLINE
  5
161
330
1F
100
AcDbEntity
  8
0
  6
HIDDEN
 62
     7
370
     0
100
AcDbSpline
210
0.0
220
0.0
230
1.0
 70
    24
 71
     1
 72
     4
 73
     2
 74
     0
 42
0.00000001
 43
0.00000001
 40
0.0
 40
0.0
 40
1.0
 40
1.0
 10
136.3348741124686
 20
110.4967547842093
 30
0.0
 10
136.3348741124686
 20
124.5171095040418
 30
0.0
  0
LINE
  5
162
330
1F
100
AcDbEntity
  8
VERMASSUNG
100
AcDbLine
 10
39.8387116073
 20
107.5171085802
 30
0.0
 11
163.73544578
 21
107.5171085802
 31
0.0
  0
DIMENSION
  5
163
330
1F
100
AcDbEntity
  8
VERMASSUNG
100
AcDbDimension
  2
*D1
 10
32.6515037451
 20
76.0171085802
 30
0.0
 11
32.6515037451
 21
107.5171085802
 31
0.0
 70
   160
  1
PSC%%c<>
 71
     2
 42
-1.0
  3
SLDDIMSTYLE0
100
AcDbAlignedDimension
 13
82.1348754238
 23
139.0171085802
 33
0.0
 14
82.1348754238
 24
76.0171085802
 34
0.0
 50
90.0
100
AcDbRotatedDimension
  0
DIMENSION
  5
170
330
1F
100
AcDbEntity
  8
VERMASSUNG
100
AcDbDimension
  2
*D2
 10
174.6820906719
 20
90.5171085802
 30
0.0
 11
174.6820906719
 21
107.5171085802
 31
0.0
 70
   160
  1
%%c<>
 71
     2
 42
-1.0
  3
SLDDIMSTYLE0
100
AcDbAlignedDimension
 13
131.3348754238
 23
124.5171085802
 33
0.0
 14
160.8348754238
 24
90.5171085802
 34
0.0
 50
90.0
100
AcDbRotatedDimension
  0
DIMENSION
  5
17B
330
1F
100
AcDbEntity
  8
VERMASSUNG
100
AcDbDimension
  2
*D3
 10
167.9222792733
 20
110.5171085802
 30
0.0
 11
167.9222792733
 21
115.4547132238
 31
0.0
 70
   160
  1
%%c<>
 71
     2
 42
-1.0
  3
SLDDIMSTYLE1
100
AcDbAlignedDimension
 13
161.5348754238
 23
104.5171085802
 33
0.0
 14
161.5348754238
 24
110.5171085802
 34
0.0
 50
90.0
100
AcDbRotatedDimension
  0
DIMENSION
  5
189
330
1F
100
AcDbEntity
  8
VERMASSUNG
100
AcDbDimension
  2
*D4
 10
161.8348754238
 20
82.0251927875
 30
0.0
 11
157.8348754238
 21
82.0251927875
 31
0.0
 70
   160
 71
     2
 42
-1.0
  3
SLDDIMSTYLE0
100
AcDbAlignedDimension
 13
153.8348754238
 23
107.6384289237
 33
0.0
 14
161.8348754238
 24
91.5171085802
 34
0.0
100
AcDbRotatedDimension
  0
DIMENSION
  5
193
330
1F
100
AcDbEntity
  8
VERMASSUNG
100
AcDbDimension
  2
*D5
 10
143.8348754238
 20
82.0251927875
 30
0.0
 11
148.8348754238
 21
82.0251927875
 31
0.0
 70
   160
 71
     2
 42
-1.0
  3
SLDDIMSTYLE0
100
AcDbAlignedDimension
 13
153.8348754238
 23
107.6384289237
 33
0.0
 14
143.8348754238
 24
107.6384289237
 34
0.0
100
AcDbRotatedDimension
  0
DIMENSION
  5
19D
330
1F
100
AcDbEntity
  8
VERMASSUNG
100
AcDbDimension
  2
*D6
 10
133.8348754238
 20
82.0251927875
 30
0.0
 11
138.8348754238
 21
82.0251927875
 31
0.0
 70
   160
 71
     2
 42
-1.0
  3
SLDDIMSTYLE0
100
AcDbAlignedDimension
 13
143.8348754238
 23
107.6384289237
 33
0.0
 14
133.8348754238
 24
107.6384289237
 34
0.0
100
AcDbRotatedDimension
  0
DIMENSION
  5
1A7
330
1F
100
AcDbEntity
  8
VERMASSUNG
100
AcDbDimension
  2
*D7
 10
161.8348754238
 20
145.6382714864
 30
0.0
 11
132.8348754238
 21
145.6382714864
 31
0.0
 70
   160
 71
     2
 42
-1.0
  3
SLDDIMSTYLE0
100
AcDbAlignedDimension
 13
103.8348754238
 23
139.0171085802
 33
0.0
 14
161.8348754238
 24
123.5171085802
 34
0.0
100
AcDbRotatedDimension
  0
DIMENSION
  5
1B1
330
1F
100
AcDbEntity
  8
VERMASSUNG
100
AcDbDimension
  2
*D8
 10
161.8348754238
 20
151.6382714864
 30
0.0
 11
121.8348754238
 21
151.6382714864
 31
0.0
 70
   160
 71
     2
 42
-1.0
  3
SLDDIMSTYLE0
100
AcDbAlignedDimension
 13
81.8348754238
 23
138.7171085802
 33
0.0
 14
161.8348754238
 24
123.5171085802
 34
0.0
100
AcDbRotatedDimension
  0
DIMENSION
  5
1BB
330
1F
100
AcDbEntity
  8
VERMASSUNG
100
AcDbDimension
  2
*D9
 10
161.8348754238
 20
157.6382714864
 30
0.0
 11
102.8348754238
 21
157.6382714864
 31
0.0
 70
   160
 71
     2
 42
-1.0
  3
SLDDIMSTYLE0
100
AcDbAlignedDimension
 13
43.8348754238
 23
127.8094465727
 33
0.0
 14
161.8348754238
 24
123.5171085802
 34
0.0
100
AcDbRotatedDimension
  0
DIMENSION
  5
1C5
330
1F
100
AcDbEntity
  8
VERMASSUNG
100
AcDbDimension
  2
*D10
 10
38.6515037451
 20
111.0171085802
 30
0.0
 11
38.6515037451
 21
95.6368972852
 31
0.0
 70
   160
  1
%%c<> min. 
 71
     2
 42
-1.0
  3
SLDDIMSTYLE2
100
AcDbAlignedDimension
 13
101.1396088284
 23
104.0171085802
 33
0.0
 14
101.1396088284
 24
111.0171085802
 34
0.0
 50
90.0
100
AcDbRotatedDimension
  0
DIMENSION
  5
1D4
330
1F
100
AcDbEntity
  8
VERMASSUNG
100
AcDbDimension
  2
*D11
 10
128.8348754238
 20
68.3229627637
 30
0.0
 11
86.3348754238
 21
68.3229627637
 31
0.0
 70
   160
 71
     2
 42
-1.0
  3
SLDDIMSTYLE0
100
AcDbAlignedDimension
 13
43.8348754238
 23
87.2247705877
 33
0.0
 14
128.8348754238
 24
104.0171085802
 34
0.0
100
AcDbRotatedDimension
  0
LINE
  5
1DE
330
1F
100
AcDbEntity
  8
VERMASSUNG
  6
CENTERX2
370
     0
100
AcDbLine
 10
153.8348754238
 20
107.6384289237
 30
0.0
 11
153.8348754238
 21
126.3322803283
 31
0.0
  0
LINE
  5
1DF
330
1F
100
AcDbEntity
  8
VERMASSUNG
  6
CENTERX2
370
     0
100
AcDbLine
 10
143.8348754238
 20
107.6384289237
 30
0.0
 11
143.8348754238
 21
126.3322803283
 31
0.0
  0
LINE
  5
1E0
330
1F
100
AcDbEntity
  8
VERMASSUNG
  6
CENTERX2
370
     0
100
AcDbLine
 10
133.8348754238
 20
107.6384289237
 30
0.0
 11
133.8348754238
 21
126.3322803283
 31
0.0
  0
ARC
  5
1E1
330
1F
100
AcDbEntity
  8
0
  6
Continuous
 62
     7
370
    15
100
AcDbCircle
 10
238.2551963525
 20
107.5171085802
 30
0.0
 40
29.34208025369268
100
AcDbArc
 50
150.0
 51
174.3240597885
  0
SPLINE
  5
1E2
330
1F
100
AcDbEntity
  8
0
  6
Continuous
 62
     7
370
    15
100
AcDbSpline
210
0.0
220
0.0
230
1.0
 70
     8
 71
     3
 72
     8
 73
     4
 74
     0
 42
0.00000001
 43
0.00000001
 40
0.0
 40
0.0
 40
0.0
 40
0.0
 40
1.0
 40
1.0
 40
1.0
 40
1.0
 10
208.3084644781154
 20
111.4823194770063
 30
0.0
 10
208.5755145101974
 20
111.1790495880783
 30
0.0
 10
208.8274452852884
 20
110.8344591587743
 30
0.0
 10
209.0569747776722
 20
110.4190959131522
 30
0.0
  0
ARC
  5
1E3
330
1F
100
AcDbEntity
  8
0
  6
Continuous
 62
     7
370
    15
100
AcDbCircle
 10
238.2551963525
 20
107.5171085802
 30
0.0
 40
30.20810565747712
100
AcDbArc
 50
150.0
 51
172.457409384
  0
ARC
  5
1E4
330
1F
100
AcDbEntity
  8
0
  6
Continuous
 62
     7
370
    15
100
AcDbCircle
 10
238.2551963525
 20
107.5171085802
 30
0.0
 40
30.20810565747712
100
AcDbArc
 50
187.542590616
 51
210.0
  0
SPLINE
  5
1E5
330
1F
100
AcDbEntity
  8
0
  6
Continuous
 62
     7
370
    15
100
AcDbSpline
210
0.0
220
0.0
230
1.0
 70
     8
 71
     3
 72
     8
 73
     4
 74
     0
 42
0.00000001
 43
0.00000001
 40
0.0
 40
0.0
 40
0.0
 40
0.0
 40
1.0
 40
1.0
 40
1.0
 40
1.0
 10
209.0569747776722
 20
104.6151212471874
 30
0.0
 10
208.8274452852884
 20
104.1997580015653
 30
0.0
 10
208.5755145101974
 20
103.8551675722613
 30
0.0
 10
208.3084644781154
 20
103.5518976833333
 30
0.0
  0
ARC
  5
1E6
330
1F
100
AcDbEntity
  8
0
  6
Continuous
 62
     7
370
    15
100
AcDbCircle
 10
238.2551963525
 20
107.5171085802
 30
0.0
 40
29.34208025369268
100
AcDbArc
 50
185.6759402115
 51
210.0
  0
ARC
  5
1E7
330
1F
100
AcDbEntity
  8
0
  6
Continuous
 62
     7
370
    15
100
AcDbCircle
 10
222.5805829607
 20
116.5668508414
 30
0.0
 40
11.24259573130696
100
AcDbArc
 50
90.0
 51
150.0
  0
ARC
  5
1E8
330
1F
100
AcDbEntity
  8
0
  6
Continuous
 62
     7
370
    15
100
AcDbCircle
 10
222.5805829607
 20
98.467366319
 30
0.0
 40
29.34208025369269
100
AcDbArc
 50
30.0
 51
90.0
  0
ARC
  5
1E9
330
1F
100
AcDbEntity
  8
0
  6
Continuous
 62
     7
370
    15
100
AcDbCircle
 10
238.2551963525
 20
107.5171085802
 30
0.0
 40
11.24259573130696
100
AcDbArc
 50
330.0
 51
30.0
  0
ARC
  5
1EA
330
1F
100
AcDbEntity
  8
0
  6
Continuous
 62
     7
370
    15
100
AcDbCircle
 10
222.5805829607
 20
116.5668508414
 30
0.0
 40
29.34208025369269
100
AcDbArc
 50
270.0
 51
330.0
  0
ARC
  5
1EB
330
1F
100
AcDbEntity
  8
0
  6
Continuous
 62
     7
370
    15
100
AcDbCircle
 10
222.5805829607
 20
98.467366319
 30
0.0
 40
11.24259573130696
100
AcDbArc
 50
210.0
 51
270.0
  0
CIRCLE
  5
1EC
330
1F
100
AcDbEntity
  8
0
  6
Continuous
 62
     7
370
    15
100
AcDbCircle
 10
227.8054540913
 20
107.5171085802
 30
0.0
 40
16.19642884446073
  0
ARC
  5
1ED
330
1F
100
AcDbEntity
  8
0
  6
Continuous
 62
     7
370
    15
100
AcDbCircle
 10
203.8054540913
 20
107.5171085802
 30
0.0
 40
6.000000000000013
100
AcDbArc
 50
331.0749852843
 51
28.9250147157
  0
CIRCLE
  5
1EE
330
1F
100
AcDbEntity
  8
0
  6
Continuous
 62
     7
370
    15
100
AcDbCircle
 10
227.8054540913
 20
107.5171085802
 30
0.0
 40
15.3129510429125
  0
ARC
  5
1EF
330
1F
100
AcDbEntity
  8
0
  6
Continuous
 62
     7
370
    15
100
AcDbCircle
 10
222.5805829607
 20
116.5668508414
 30
0.0
 40
12.10862113509141
100
AcDbArc
 50
90.0
 51
150.0
  0
ARC
  5
1F0
330
1F
100
AcDbEntity
  8
0
  6
Continuous
 62
     7
370
    15
100
AcDbCircle
 10
222.5805829607
 20
98.467366319
 30
0.0
 40
12.10862113509141
100
AcDbArc
 50
210.0
 51
270.0
  0
ARC
  5
1F1
330
1F
100
AcDbEntity
  8
0
  6
Continuous
 62
     7
370
    15
100
AcDbCircle
 10
222.5805829607
 20
116.5668508414
 30
0.0
 40
30.20810565747713
100
AcDbArc
 50
270.0
 51
330.0
  0
ARC
  5
1F2
330
1F
100
AcDbEntity
  8
0
  6
Continuous
 62
     7
370
    15
100
AcDbCircle
 10
222.5805829607
 20
98.467366319
 30
0.0
 40
30.20810565747713
100
AcDbArc
 50
30.0
 51
90.0
  0
ARC
  5
1F3
330
1F
100
AcDbEntity
  8
0
  6
Continuous
 62
     7
370
    15
100
AcDbCircle
 10
238.2551963525
 20
107.5171085802
 30
0.0
 40
12.1086211350914
100
AcDbArc
 50
330.0
 51
30.0
  0
ARC
  5
1F4
330
1F
100
AcDbEntity
  8
0
  6
Continuous
 62
     7
370
    15
100
AcDbCircle
 10
238.2551963525
 20
107.5171085802
 30
0.0
 40
31.0698410457592
100
AcDbArc
 50
150.0
 51
210.0
  0
SPLINE
  5
1F5
330
1F
100
AcDbEntity
  8
0
  6
Continuous
 62
     7
370
    15
100
AcDbSpline
210
0.0
220
0.0
230
1.0
 70
     8
 71
     3
 72
    24
 73
    20
 74
     0
 42
0.00000001
 43
0.00000001
 40
0.0
 40
0.0
 40
0.0
 40
0.0
 40
0.1249999999999999
 40
0.1249999999999999
 40
0.2499999999999997
 40
0.2499999999999997
 40
0.3749999999999997
 40
0.3749999999999997
 40
0.4374999999999997
 40
0.4374999999999997
 40
0.4999999999999998
 40
0.4999999999999998
 40
0.6249999999999999
 40
0.6249999999999999
 40
0.7499999999999999
 40
0.7499999999999999
 40
0.875
 40
0.875
 40
1.0
 40
1.0
 40
1.0
 40
1.0
 10
208.1991908008344
 20
103.4311475270706
 30
0.0
 10
208.1525128971527
 20
103.7301546294007
 30
0.0
 10
208.1098399309738
 20
104.0344924807194
 30
0.0
 10
208.0331457823863
 20
104.6602260181154
 30
0.0
 10
207.9990974010043
 20
104.9814507454429
 30
0.0
 10
207.9410966804385
 20
105.6533765161757
 30
0.0
 10
207.9169223299906
 20
106.0086917480545
 30
0.0
 10
207.8919083273856
 20
106.558922969407
 30
0.0
 10
207.8854128140613
 20
106.7453267543875
 30
0.0
 10
207.8765627608712
 20
107.1254612564837
 30
0.0
 10
207.8742344491708
 20
107.3211310487696
 30
0.0
 10
207.8741613659534
 20
107.899611427444
 30
0.0
 10
207.8830682678074
 20
108.2775232664128
 30
0.0
 10
207.9165013184502
 20
109.0194912915113
 30
0.0
 10
207.9401626641839
 20
109.3682067516722
 30
0.0
 10
207.9979565084665
 20
110.0412991494054
 30
0.0
 10
208.0322575448067
 20
110.366251636647
 30
0.0
 10
208.109468087472
 20
110.9971754471088
 30
0.0
 10
208.1523572021777
 20
111.3030651874494
 30
0.0
 10
208.1991908008344
 20
111.6030696332689
 30
0.0
  0
SPLINE
  5
1F6
330
1F
100
AcDbEntity
  8
0
  6
Continuous
 62
     7
370
    15
100
AcDbSpline
210
0.0
220
0.0
230
1.0
 70
     8
 71
     3
 72
    72
 73
    68
 74
     0
 42
0.00000001
 43
0.00000001
 40
-0.03125
 40
-0.03125
 40
0.0
 40
0.0
 40
0.0312499999999998
 40
0.0312499999999998
 40
0.0624999999999996
 40
0.0624999999999996
 40
0.0937499999999995
 40
0.0937499999999995
 40
0.1249999999999993
 40
0.1249999999999993
 40
0.1562499999999993
 40
0.1562499999999993
 40
0.1874999999999993
 40
0.1874999999999993
 40
0.2187499999999992
 40
0.2187499999999992
 40
0.2499999999999992
 40
0.2499999999999992
 40
0.2812499999999992
 40
0.2812499999999992
 40
0.3124999999999992
 40
0.3124999999999992
 40
0.3437499999999992
 40
0.3437499999999992
 40
0.3749999999999992
 40
0.3749999999999992
 40
0.3906249999999992
 40
0.3906249999999992
 40
0.4062499999999992
 40
0.4062499999999992
 40
0.4374999999999992
 40
0.4374999999999992
 40
0.4687499999999993
 40
0.4687499999999993
 40
0.4999999999999993
 40
0.4999999999999993
 40
0.5312499999999993
 40
0.5312499999999993
 40
0.5624999999999994
 40
0.5624999999999994
 40
0.5937499999999994
 40
0.5937499999999994
 40
0.6249999999999994
 40
0.6249999999999994
 40
0.6562499999999996
 40
0.6562499999999996
 40
0.6874999999999996
 40
0.6874999999999996
 40
0.7187499999999997
 40
0.7187499999999997
 40
0.7499999999999997
 40
0.7499999999999997
 40
0.7812499999999997
 40
0.7812499999999997
 40
0.8124999999999998
 40
0.8124999999999998
 40
0.8437499999999998
 40
0.8437499999999998
 40
0.8749999999999998
 40
0.8749999999999998
 40
0.9062499999999999
 40
0.9062499999999999
 40
0.9374999999999999
 40
0.9374999999999999
 40
0.96875
 40
0.96875
 40
1.0
 40
1.0
 40
1.03125
 40
1.03125
 10
207.7009649792378
 20
109.9579422299846
 30
0.0
 10
207.7270749559079
 20
110.3682980304698
 30
0.0
 10
207.7398652394522
 20
110.5519471131283
 30
0.0
 10
207.7629590166892
 20
110.8789020166236
 30
0.0
 10
207.7732941125142
 20
111.0226802248035
 30
0.0
 10
207.7890032303494
 20
111.2601975802493
 30
0.0
 10
207.7944984749704
 20
111.3555171451471
 30
0.0
 10
207.7994875627325
 20
111.4996026777815
 30
0.0
 10
207.7988933790635
 20
111.5473386847511
 30
0.0
 10
207.7911093388404
 20
111.592920825285
 30
0.0
 10
207.7839533205374
 20
111.5914870652127
 30
0.0
 10
207.762937448159
 20
111.5385737571219
 30
0.0
 10
207.7493208967759
 20
111.4876040309177
 30
0.0
 10
207.7170215828521
 20
111.3389974039741
 30
0.0
 10
207.6982046487772
 20
111.240712033217
 30
0.0
 10
207.6568906432638
 20
110.9964586740313
 30
0.0
 10
207.634874946227
 20
110.8533785430091
 30
0.0
 10
207.5899121143487
 20
110.5255199925403
 30
0.0
 10
207.5667185412239
 20
110.33852635484
 30
0.0
 10
207.5225530775274
 20
109.929095735017
 30
0.0
 10
207.5017821686679
 20
109.7089902940325
 30
0.0
 10
207.464818292478
 20
109.2372402125945
 30
0.0
 10
207.4485065655483
 20
108.9822236861533
 30
0.0
 10
207.42377853995
 20
108.4609858627563
 30
0.0
 10
207.415162866688
 20
108.1935017449754
 30
0.0
 10
207.4086950680385
 20
107.7815860856429
 30
0.0
 10
207.4076299128073
 20
107.6418787825674
 30
0.0
 10
207.4077732067496
 20
107.365755727105
 30
0.0
 10
207.4089600556142
 20
107.2285791607742
 30
0.0
 10
207.4157502647968
 20
106.8196457195109
 30
0.0
 10
207.4247248218386
 20
106.5477194705067
 30
0.0
 10
207.4501012064824
 20
106.0245389540516
 30
0.0
 10
207.4662670193313
 20
105.7758269536882
 30
0.0
 10
207.5037567989384
 20
105.3029424286963
 30
0.0
 10
207.5251216474885
 20
105.0793332114641
 30
0.0
 10
207.5692247989554
 20
104.6746758232765
 30
0.0
 10
207.5922618416573
 20
104.490262235107
 30
0.0
 10
207.6377635432658
 20
104.1612362002126
 30
0.0
 10
207.6597164555541
 20
104.0200681242244
 30
0.0
 10
207.7003966860189
 20
103.7816585954439
 30
0.0
 10
207.7192746522938
 20
103.683876039039
 30
0.0
 10
207.751316286299
 20
103.5385480108489
 30
0.0
 10
207.7645660737091
 20
103.4902586206539
 30
0.0
 10
207.7848832094737
 20
103.4418433968673
 30
0.0
 10
207.7919174876364
 20
103.4423015825032
 30
0.0
 10
207.7991150544195
 20
103.4924534381054
 30
0.0
 10
207.7994090653186
 20
103.5416270051374
 30
0.0
 10
207.7939458990166
 20
103.6893015284444
 30
0.0
 10
207.7881134695312
 20
103.78845669281
 30
0.0
 10
207.772033448988
 20
104.0294694632868
 30
0.0
 10
207.7617676888932
 20
104.1719575879115
 30
0.0
 10
207.7383872781671
 20
104.5034450168964
 30
0.0
 10
207.7254067966279
 20
104.6908786448848
 30
0.0
 10
207.6996862229335
 20
105.0977823639352
 30
0.0
 10
207.6868147719875
 20
105.3189614386042
 30
0.0
 10
207.6631660146034
 20
105.7987087678195
 30
0.0
 10
207.6528304965354
 20
106.0487207346298
 30
0.0
 10
207.6366403980101
 20
106.5687959446502
 30
0.0
 10
207.6307610701065
 20
106.84252740928
 30
0.0
 10
207.6250456768138
 20
107.3911450591784
 30
0.0
 10
207.6251256410715
 20
107.66548492307
 30
0.0
 10
207.6311624999569
 20
108.214226874209
 30
0.0
 10
207.6371841575058
 20
108.4872921880661
 30
0.0
 10
207.6536633032872
 20
109.0074574368345
 30
0.0
 10
207.6642446941535
 20
109.2597765703934
 30
0.0
 10
207.6879755835679
 20
109.7361809118004
 30
0.0
 10
207.7009649792378
 20
109.9579422299846
 30
0.0
 10
207.7270749559079
 20
110.3682980304698
 30
0.0
  0
SPLINE
  5
1F7
330
1F
100
AcDbEntity
  8
0
  6
Continuous
 62
     7
370
    15
100
AcDbSpline
210
0.0
220
0.0
230
1.0
 70
     8
 71
     3
 72
     8
 73
     4
 74
     0
 42
0.00000001
 43
0.00000001
 40
0.0000249631533153
 40
0.0000249631533153
 40
0.0000249631533153
 40
0.0000249631533153
 40
0.0049776413517028
 40
0.0049776413517028
 40
0.0049776413517028
 40
0.0049776413517028
 10
208.1991908008344
 20
111.6030696332691
 30
0.0
 10
208.2356906790453
 20
111.563820396014
 30
0.0
 10
208.2721152651774
 20
111.5235987147746
 30
0.0
 10
208.3084644781154
 20
111.4823194770063
 30
0.0
  0
SPLINE
  5
1F8
330
1F
100
AcDbEntity
  8
0
  6
Continuous
 62
     7
370
    15
100
AcDbSpline
210
0.0
220
0.0
230
1.0
 70
     8
 71
     3
 72
     8
 73
     4
 74
     0
 42
0.00000001
 43
0.00000001
 40
0.0000249638557296
 40
0.0000249638557296
 40
0.0000249638557296
 40
0.0000249638557296
 40
0.0049776420541172
 40
0.0049776420541172
 40
0.0049776420541172
 40
0.0049776420541172
 10
208.3084644781154
 20
103.5518976833333
 30
0.0
 10
208.2721152651774
 20
103.510618445565
 30
0.0
 10
208.2356906790453
 20
103.4703967643256
 30
0.0
 10
208.1991908008344
 20
103.4311475270705
 30
0.0
  0
ARC
  5
1F9
330
1F
100
AcDbEntity
  8
0
  6
Continuous
 62
     7
370
    15
100
AcDbCircle
 10
222.5805829607
 20
116.5668508414
 30
0.0
 40
12.97035652337347
100
AcDbArc
 50
90.0
 51
150.0
  0
ARC
  5
1FA
330
1F
100
AcDbEntity
  8
0
  6
Continuous
 62
     7
370
    15
100
AcDbCircle
 10
222.5805829607
 20
98.467366319
 30
0.0
 40
12.97035652337348
100
AcDbArc
 50
210.0
 51
270.0
  0
ARC
  5
1FB
330
1F
100
AcDbEntity
  8
0
  6
Continuous
 62
     7
370
    15
100
AcDbCircle
 10
222.5805829607
 20
98.467366319
 30
0.0
 40
31.06984104575924
100
AcDbArc
 50
30.0
 51
90.0
  0
ARC
  5
1FC
330
1F
100
AcDbEntity
  8
0
  6
Continuous
 62
     7
370
    15
100
AcDbCircle
 10
222.5805829607
 20
116.5668508414
 30
0.0
 40
31.06984104575924
100
AcDbArc
 50
270.0
 51
330.0
  0
ARC
  5
1FD
330
1F
100
AcDbEntity
  8
0
  6
Continuous
 62
     7
370
    15
100
AcDbCircle
 10
238.2551963525
 20
107.5171085802
 30
0.0
 40
12.97035652337351
100
AcDbArc
 50
330.0
 51
30.0
  0
CIRCLE
  5
1FE
330
1F
100
AcDbEntity
  8
0
  6
Continuous
 62
     7
370
    15
100
AcDbCircle
 10
227.8054540913
 20
107.5171085802
 30
0.0
 40
14.0
  0
SPLINE
  5
1FF
330
1F
100
AcDbEntity
  8
0
  6
Continuous
 62
     7
370
    15
100
AcDbSpline
210
0.0
220
0.0
230
1.0
 70
    24
 71
     1
 72
     4
 73
     2
 74
     0
 42
0.00000001
 43
0.00000001
 40
0.0
 40
0.0
 40
1.0
 40
1.0
 10
213.8138048171482
 20
107.1965106554088
 30
0.0
 10
213.8198364789272
 20
106.8826797031473
 30
0.0
  0
SPLINE
  5
200
330
1F
100
AcDbEntity
  8
0
  6
Continuous
 62
     7
370
    15
100
AcDbSpline
210
0.0
220
0.0
230
1.0
 70
     8
 71
     3
 72
    10
 73
     6
 74
     0
 42
0.00000001
 43
0.00000001
 40
0.0
 40
0.0
 40
0.0
 40
0.0
 40
0.5
 40
0.5
 40
1.0
 40
1.0
 40
1.0
 40
1.0
 10
241.7910717037078
 20
106.8826797031473
 30
0.0
 10
241.8005640159942
 20
107.0919322367298
 30
0.0
 10
241.8029269887069
 20
107.3027489976287
 30
0.0
 10
241.8029684266974
 20
107.727281278832
 30
0.0
 10
241.8005755996959
 20
107.9420295676046
 30
0.0
 10
241.7910717037078
 20
108.1515374571923
 30
0.0
  0
CIRCLE
  5
201
330
1F
100
AcDbEntity
  8
0
  6
Continuous
 62
     7
370
    15
100
AcDbCircle
 10
227.8054540913
 20
107.5171085802
 30
0.0
 40
10.25
  0
CIRCLE
  5
202
330
1F
100
AcDbEntity
  8
0
  6
Continuous
 62
     7
370
    15
100
AcDbCircle
 10
227.8054540913
 20
107.5171085802
 30
0.0
 40
9.0
  0
SPLINE
  5
203
330
1F
100
AcDbEntity
  8
0
  6
Continuous
 62
     7
370
    15
100
AcDbSpline
210
0.0
220
0.0
230
1.0
 70
    24
 71
     1
 72
     4
 73
     2
 74
     0
 42
0.00000001
 43
0.00000001
 40
0.0
 40
0.0
 40
1.0
 40
1.0
 10
211.1997963654592
 20
122.7489479629948
 30
0.0
 10
211.0152527375763
 20
122.554815742661
 30
0.0
  0
ARC
  5
204
330
1F
100
AcDbEntity
  8
0
  6
Continuous
 62
     7
370
    15
100
AcDbCircle
 10
227.8054540913
 20
107.5171085802
 30
0.0
 40
22.53982027887555
100
AcDbArc
 50
138.1516123933
 51
221.8483876067
  0
SPLINE
  5
205
330
1F
100
AcDbEntity
  8
0
  6
Continuous
 62
     7
370
    15
100
AcDbSpline
210
0.0
220
0.0
230
1.0
 70
    24
 71
     1
 72
     4
 73
     2
 74
     0
 42
0.00000001
 43
0.00000001
 40
0.0
 40
0.0
 40
1.0
 40
1.0
 10
211.0152527375763
 20
92.47940141767862
 30
0.0
 10
211.169702061323
 20
92.3220379681446
 30
0.0
  0
SPLINE
  5
206
330
1F
100
AcDbEntity
  8
0
  6
Continuous
 62
     7
370
    15
100
AcDbSpline
210
0.0
220
0.0
230
1.0
 70
    24
 71
     1
 72
     4
 73
     2
 74
     0
 42
0.00000001
 43
0.00000001
 40
0.0
 40
0.0
 40
1.0
 40
1.0
 10
222.9171231023559
 20
85.52026745161477
 30
0.0
 10
223.1775183507995
 20
85.4575140919285
 30
0.0
  0
ARC
  5
207
330
1F
100
AcDbEntity
  8
0
  6
Continuous
 62
     7
370
    15
100
AcDbCircle
 10
227.8054540913
 20
107.5171085802
 30
0.0
 40
22.53982027887556
100
AcDbArc
 50
258.1516123933
 51
341.8483876067
  0
SPLINE
  5
208
330
1F
100
AcDbEntity
  8
0
  6
Continuous
 62
     7
370
    15
100
AcDbSpline
210
0.0
220
0.0
230
1.0
 70
    24
 71
     1
 72
     4
 73
     2
 74
     0
 42
0.00000001
 43
0.00000001
 40
0.0
 40
0.0
 40
1.0
 40
1.0
 10
249.2235911855766
 20
100.4952212544197
 30
0.0
 10
249.2826472686262
 20
100.7076600171477
 30
0.0
  0
SPLINE
  5
209
330
1F
100
AcDbEntity
  8
0
  6
Continuous
 62
     7
370
    15
100
AcDbSpline
210
0.0
220
0.0
230
1.0
 70
    24
 71
     1
 72
     4
 73
     2
 74
     0
 42
0.00000001
 43
0.00000001
 40
0.0
 40
0.0
 40
1.0
 40
1.0
 10
249.2994428061373
 20
114.2821103258999
 30
0.0
 10
249.2235911855766
 20
114.5389959059199
 30
0.0
  0
ARC
  5
20A
330
1F
100
AcDbEntity
  8
0
  6
Continuous
 62
     7
370
    15
100
AcDbCircle
 10
227.8054540913
 20
107.5171085802
 30
0.0
 40
22.53982027887553
100
AcDbArc
 50
18.1516123933
 51
101.8483876067
  0
SPLINE
  5
20B
330
1F
100
AcDbEntity
  8
0
  6
Continuous
 62
     7
370
    15
100
AcDbSpline
210
0.0
220
0.0
230
1.0
 70
    24
 71
     1
 72
     4
 73
     2
 74
     0
 42
0.00000001
 43
0.00000001
 40
0.0
 40
0.0
 40
1.0
 40
1.0
 10
223.1775183507995
 20
129.5767030684111
 30
0.0
 10
222.9564888213283
 20
129.5219334769864
 30
0.0
  0
CIRCLE
  5
20C
330
1F
100
AcDbEntity
  8
0
  6
Continuous
 62
     7
370
    15
100
AcDbCircle
 10
227.8054540913
 20
107.5171085802
 30
0.0
 40
31.5
  0
CIRCLE
  5
20D
330
1F
100
AcDbEntity
  8
0
  6
Continuous
 62
     7
370
    15
100
AcDbCircle
 10
227.8054540913
 20
107.5171085802
 30
0.0
 40
24.25
  0
CIRCLE
  5
20E
330
1F
100
AcDbEntity
  8
0
  6
Continuous
 62
     7
370
    15
100
AcDbCircle
 10
227.8054540913
 20
107.5171085802
 30
0.0
 40
3.5
  0
CIRCLE
  5
20F
330
1F
100
AcDbEntity
  8
0
  6
Continuous
 62
     7
370
    15
100
AcDbCircle
 10
227.8054540913
 20
107.5171085802
 30
0.0
 40
3.0
  0
LINE
  5
210
330
1F
100
AcDbEntity
  8
0
  6
HIDDEN
 62
     7
370
     0
100
AcDbLine
 10
235.2054540913
 20
110.5171085802
 30
0.0
 11
235.2054540913
 21
104.5171085802
 31
0.0
  0
LINE
  5
211
330
1F
100
AcDbEntity
  8
0
  6
HIDDEN
 62
     7
370
     0
100
AcDbLine
 10
234.3054540913
 20
109.6171085802
 30
0.0
 11
234.3054540913
 21
105.4171085802
 31
0.0
  0
LWPOLYLINE
  5
212
330
1F
100
AcDbEntity
  8
0
  6
HIDDEN
 62
     7
370
     0
100
AcDbPolyline
 90
        2
 70
   128
 43
0.0
 10
234.3054540913
 20
105.4171085802
 10
234.3054540913
 20
105.4171085802
  0
LINE
  5
213
330
1F
100
AcDbEntity
  8
0
  6
HIDDEN
 62
     7
370
     0
100
AcDbLine
 10
244.3054540913
 20
110.5171085802
 30
0.0
 11
244.3054540913
 21
104.5171085802
 31
0.0
  0
LINE
  5
214
330
1F
100
AcDbEntity
  8
0
  6
HIDDEN
 62
     7
370
     0
100
AcDbLine
 10
244.8054540913
 20
110.0171085802
 30
0.0
 11
244.8054540913
 21
105.0171085802
 31
0.0
  0
LINE
  5
215
330
1F
100
AcDbEntity
  8
0
  6
HIDDEN
 62
     7
370
     0
100
AcDbLine
 10
244.8054540913
 20
106.6510831764
 30
0.0
 11
244.8054540913
 21
105.7850577726
 31
0.0
  0
LINE
  5
216
330
1F
100
AcDbEntity
  8
0
  6
HIDDEN
 62
     7
370
     0
100
AcDbLine
 10
241.3054540913
 20
106.6510831764
 30
0.0
 11
241.3054540913
 21
105.7850577726
 31
0.0
  0
LINE
  5
217
330
1F
100
AcDbEntity
  8
0
  6
HIDDEN
 62
     7
370
     0
100
AcDbLine
 10
241.3054540913
 20
106.6510831764
 30
0.0
 11
241.3054540913
 21
108.383133984
 31
0.0
  0
LINE
  5
218
330
1F
100
AcDbEntity
  8
0
  6
HIDDEN
 62
     7
370
     0
100
AcDbLine
 10
241.3054540913
 20
106.6510831764
 30
0.0
 11
244.8054540913
 21
106.6510831764
 31
0.0
  0
LINE
  5
219
330
1F
100
AcDbEntity
  8
0
  6
HIDDEN
 62
     7
370
     0
100
AcDbLine
 10
244.8054540913
 20
106.6510831764
 30
0.0
 11
244.8054540913
 21
108.383133984
 31
0.0
  0
LINE
  5
21A
330
1F
100
AcDbEntity
  8
0
  6
HIDDEN
 62
     7
370
     0
100
AcDbLine
 10
241.3054540913
 20
108.383133984
 30
0.0
 11
244.8054540913
 21
108.383133984
 31
0.0
  0
LINE
  5
21B
330
1F
100
AcDbEntity
  8
0
  6
HIDDEN
 62
     7
370
     0
100
AcDbLine
 10
241.3054540913
 20
108.383133984
 30
0.0
 11
241.3054540913
 21
109.2491593877
 31
0.0
  0
LINE
  5
21C
330
1F
100
AcDbEntity
  8
0
  6
HIDDEN
 62
     7
370
     0
100
AcDbLine
 10
244.8054540913
 20
108.383133984
 30
0.0
 11
244.8054540913
 21
109.2491593877
 31
0.0
  0
LINE
  5
21D
330
1F
100
AcDbEntity
  8
0
  6
HIDDEN
 62
     7
370
     0
100
AcDbLine
 10
234.3054540913
 20
106.2671085802
 30
0.0
 11
234.3054540913
 21
108.7671085802
 31
0.0
  0
LINE
  5
21E
330
1F
100
AcDbEntity
  8
0
  6
HIDDEN
 62
     7
370
     0
100
AcDbLine
 10
241.3054540913
 20
106.6510831764
 30
0.0
 11
244.8054540913
 21
106.6510831764
 31
0.0
  0
LINE
  5
21F
330
1F
100
AcDbEntity
  8
0
  6
HIDDEN
 62
     7
370
     0
100
AcDbLine
 10
241.3054540913
 20
106.6510831764
 30
0.0
 11
241.3054540913
 21
105.7850577726
 31
0.0
  0
LINE
  5
220
330
1F
100
AcDbEntity
  8
0
  6
HIDDEN
 62
     7
370
     0
100
AcDbLine
 10
241.3054540913
 20
105.7850577726
 30
0.0
 11
244.8054540913
 21
105.7850577726
 31
0.0
  0
LINE
  5
221
330
1F
100
AcDbEntity
  8
0
  6
HIDDEN
 62
     7
370
     0
100
AcDbLine
 10
244.8054540913
 20
106.6510831764
 30
0.0
 11
244.8054540913
 21
105.7850577726
 31
0.0
  0
LINE
  5
222
330
1F
100
AcDbEntity
  8
0
  6
HIDDEN
 62
     7
370
     0
100
AcDbLine
 10
241.3054540913
 20
108.383133984
 30
0.0
 11
244.8054540913
 21
108.383133984
 31
0.0
  0
LINE
  5
223
330
1F
100
AcDbEntity
  8
0
  6
HIDDEN
 62
     7
370
     0
100
AcDbLine
 10
241.3054540913
 20
109.2491593877
 30
0.0
 11
244.8054540913
 21
109.2491593877
 31
0.0
  0
LINE
  5
224
330
1F
100
AcDbEntity
  8
0
  6
HIDDEN
 62
     7
370
     0
100
AcDbLine
 10
241.3054540913
 20
108.383133984
 30
0.0
 11
241.3054540913
 21
109.2491593877
 31
0.0
  0
LINE
  5
225
330
1F
100
AcDbEntity
  8
0
  6
HIDDEN
 62
     7
370
     0
100
AcDbLine
 10
244.8054540913
 20
108.383133984
 30
0.0
 11
244.8054540913
 21
109.2491593877
 31
0.0
  0
LINE
  5
226
330
1F
100
AcDbEntity
  8
0
  6
HIDDEN
 62
     7
370
     0
100
AcDbLine
 10
241.3054540913
 20
106.6510831764
 30
0.0
 11
241.3054540913
 21
108.383133984
 31
0.0
  0
LINE
  5
227
330
1F
100
AcDbEntity
  8
0
  6
HIDDEN
 62
     7
370
     0
100
AcDbLine
 10
244.8054540913
 20
106.6510831764
 30
0.0
 11
244.8054540913
 21
108.383133984
 31
0.0
  0
LINE
  5
228
330
1F
100
AcDbEntity
  8
0
  6
HIDDEN
 62
     7
370
     0
100
AcDbLine
 10
210.8054540913
 20
105.0171085802
 30
0.0
 11
210.8054540913
 21
110.0171085802
 31
0.0
  0
LINE
  5
229
330
1F
100
AcDbEntity
  8
0
  6
HIDDEN
 62
     7
370
     0
100
AcDbLine
 10
211.3054540913
 20
104.5171085802
 30
0.0
 11
211.3054540913
 21
110.5171085802
 31
0.0
  0
LINE
  5
22A
330
1F
100
AcDbEntity
  8
0
  6
HIDDEN
 62
     7
370
     0
100
AcDbLine
 10
220.4054540913
 20
104.5171085802
 30
0.0
 11
220.4054540913
 21
110.5171085802
 31
0.0
  0
LINE
  5
22B
330
1F
100
AcDbEntity
  8
0
  6
HIDDEN
 62
     7
370
     0
100
AcDbLine
 10
221.3054540913
 20
105.4171085802
 30
0.0
 11
221.3054540913
 21
109.6171085802
 31
0.0
  0
LINE
  5
22C
330
1F
100
AcDbEntity
  8
0
  6
HIDDEN
 62
     7
370
     0
100
AcDbLine
 10
210.8054540913
 20
108.383133984
 30
0.0
 11
210.8054540913
 21
109.2491593877
 31
0.0
  0
LINE
  5
22D
330
1F
100
AcDbEntity
  8
0
  6
HIDDEN
 62
     7
370
     0
100
AcDbLine
 10
214.3054540913
 20
108.383133984
 30
0.0
 11
210.8054540913
 21
108.383133984
 31
0.0
  0
LINE
  5
22E
330
1F
100
AcDbEntity
  8
0
  6
HIDDEN
 62
     7
370
     0
100
AcDbLine
 10
210.8054540913
 20
108.383133984
 30
0.0
 11
210.8054540913
 21
106.6510831764
 31
0.0
  0
LINE
  5
22F
330
1F
100
AcDbEntity
  8
0
  6
HIDDEN
 62
     7
370
     0
100
AcDbLine
 10
214.3054540913
 20
108.383133984
 30
0.0
 11
214.3054540913
 21
106.6510831764
 31
0.0
  0
LINE
  5
230
330
1F
100
AcDbEntity
  8
0
  6
HIDDEN
 62
     7
370
     0
100
AcDbLine
 10
214.3054540913
 20
108.383133984
 30
0.0
 11
214.3054540913
 21
109.2491593877
 31
0.0
  0
LINE
  5
231
330
1F
100
AcDbEntity
  8
0
  6
HIDDEN
 62
     7
370
     0
100
AcDbLine
 10
214.3054540913
 20
106.6510831764
 30
0.0
 11
214.3054540913
 21
105.7850577726
 31
0.0
  0
LINE
  5
232
330
1F
100
AcDbEntity
  8
0
  6
HIDDEN
 62
     7
370
     0
100
AcDbLine
 10
214.3054540913
 20
106.6510831764
 30
0.0
 11
210.8054540913
 21
106.6510831764
 31
0.0
  0
LINE
  5
233
330
1F
100
AcDbEntity
  8
0
  6
HIDDEN
 62
     7
370
     0
100
AcDbLine
 10
210.8054540913
 20
106.6510831764
 30
0.0
 11
210.8054540913
 21
105.7850577726
 31
0.0
  0
LINE
  5
234
330
1F
100
AcDbEntity
  8
0
  6
HIDDEN
 62
     7
370
     0
100
AcDbLine
 10
221.3054540913
 20
108.7671085802
 30
0.0
 11
221.3054540913
 21
106.2671085802
 31
0.0
  0
LINE
  5
235
330
1F
100
AcDbEntity
  8
0
  6
HIDDEN
 62
     7
370
     0
100
AcDbLine
 10
214.3054540913
 20
108.383133984
 30
0.0
 11
210.8054540913
 21
108.383133984
 31
0.0
  0
LINE
  5
236
330
1F
100
AcDbEntity
  8
0
  6
HIDDEN
 62
     7
370
     0
100
AcDbLine
 10
214.3054540913
 20
108.383133984
 30
0.0
 11
214.3054540913
 21
109.2491593877
 31
0.0
  0
LINE
  5
237
330
1F
100
AcDbEntity
  8
0
  6
HIDDEN
 62
     7
370
     0
100
AcDbLine
 10
214.3054540913
 20
109.2491593877
 30
0.0
 11
210.8054540913
 21
109.2491593877
 31
0.0
  0
LINE
  5
238
330
1F
100
AcDbEntity
  8
0
  6
HIDDEN
 62
     7
370
     0
100
AcDbLine
 10
210.8054540913
 20
108.383133984
 30
0.0
 11
210.8054540913
 21
109.2491593877
 31
0.0
  0
LINE
  5
239
330
1F
100
AcDbEntity
  8
0
  6
HIDDEN
 62
     7
370
     0
100
AcDbLine
 10
214.3054540913
 20
106.6510831764
 30
0.0
 11
210.8054540913
 21
106.6510831764
 31
0.0
  0
LINE
  5
23A
330
1F
100
AcDbEntity
  8
0
  6
HIDDEN
 62
     7
370
     0
100
AcDbLine
 10
214.3054540913
 20
105.7850577726
 30
0.0
 11
210.8054540913
 21
105.7850577726
 31
0.0
  0
LINE
  5
23B
330
1F
100
AcDbEntity
  8
0
  6
HIDDEN
 62
     7
370
     0
100
AcDbLine
 10
214.3054540913
 20
106.6510831764
 30
0.0
 11
214.3054540913
 21
105.7850577726
 31
0.0
  0
LINE
  5
23C
330
1F
100
AcDbEntity
  8
0
  6
HIDDEN
 62
     7
370
     0
100
AcDbLine
 10
210.8054540913
 20
106.6510831764
 30
0.0
 11
210.8054540913
 21
105.7850577726
 31
0.0
  0
LINE
  5
23D
330
1F
100
AcDbEntity
  8
0
  6
HIDDEN
 62
     7
370
     0
100
AcDbLine
 10
214.3054540913
 20
108.383133984
 30
0.0
 11
214.3054540913
 21
106.6510831764
 31
0.0
  0
LINE
  5
23E
330
1F
100
AcDbEntity
  8
0
  6
HIDDEN
 62
     7
370
     0
100
AcDbLine
 10
210.8054540913
 20
108.383133984
 30
0.0
 11
210.8054540913
 21
106.6510831764
 31
0.0
  0
LINE
  5
23F
330
1F
100
AcDbEntity
  8
0
  6
HIDDEN
 62
     7
370
     0
100
AcDbLine
 10
224.8054540913
 20
124.0171085802
 30
0.0
 11
230.8054540913
 21
124.0171085802
 31
0.0
  0
LINE
  5
240
330
1F
100
AcDbEntity
  8
0
  6
HIDDEN
 62
     7
370
     0
100
AcDbLine
 10
224.8054540913
 20
114.9171085802
 30
0.0
 11
230.8054540913
 21
114.9171085802
 31
0.0
  0
LINE
  5
241
330
1F
100
AcDbEntity
  8
0
  6
HIDDEN
 62
     7
370
     0
100
AcDbLine
 10
225.3054540913
 20
124.5171085802
 30
0.0
 11
230.3054540913
 21
124.5171085802
 31
0.0
  0
LINE
  5
242
330
1F
100
AcDbEntity
  8
0
  6
HIDDEN
 62
     7
370
     0
100
AcDbLine
 10
225.7054540913
 20
114.0171085802
 30
0.0
 11
229.9054540913
 21
114.0171085802
 31
0.0
  0
LWPOLYLINE
  5
243
330
1F
100
AcDbEntity
  8
0
  6
HIDDEN
 62
     7
370
     0
100
AcDbPolyline
 90
        2
 70
   128
 43
0.0
 10
229.9054540913
 20
114.0171085802
 10
229.9054540913
 20
114.0171085802
  0
LINE
  5
244
330
1F
100
AcDbEntity
  8
0
  6
HIDDEN
 62
     7
370
     0
100
AcDbLine
 10
228.6714794951
 20
124.5171085802
 30
0.0
 11
226.9394286875
 21
124.5171085802
 31
0.0
  0
LINE
  5
245
330
1F
100
AcDbEntity
  8
0
  6
HIDDEN
 62
     7
370
     0
100
AcDbLine
 10
228.6714794951
 20
121.0171085802
 30
0.0
 11
226.9394286875
 21
121.0171085802
 31
0.0
  0
LINE
  5
246
330
1F
100
AcDbEntity
  8
0
  6
HIDDEN
 62
     7
370
     0
100
AcDbLine
 10
228.6714794951
 20
121.0171085802
 30
0.0
 11
229.5375048989
 21
121.0171085802
 31
0.0
  0
LINE
  5
247
330
1F
100
AcDbEntity
  8
0
  6
HIDDEN
 62
     7
370
     0
100
AcDbLine
 10
228.6714794951
 20
121.0171085802
 30
0.0
 11
228.6714794951
 21
124.5171085802
 31
0.0
  0
LINE
  5
248
330
1F
100
AcDbEntity
  8
0
  6
HIDDEN
 62
     7
370
     0
100
AcDbLine
 10
228.6714794951
 20
124.5171085802
 30
0.0
 11
229.5375048989
 21
124.5171085802
 31
0.0
  0
LINE
  5
249
330
1F
100
AcDbEntity
  8
0
  6
HIDDEN
 62
     7
370
     0
100
AcDbLine
 10
226.9394286875
 20
121.0171085802
 30
0.0
 11
226.0734032837
 21
121.0171085802
 31
0.0
  0
LINE
  5
24A
330
1F
100
AcDbEntity
  8
0
  6
HIDDEN
 62
     7
370
     0
100
AcDbLine
 10
226.9394286875
 20
121.0171085802
 30
0.0
 11
226.9394286875
 21
124.5171085802
 31
0.0
  0
LINE
  5
24B
330
1F
100
AcDbEntity
  8
0
  6
HIDDEN
 62
     7
370
     0
100
AcDbLine
 10
226.9394286875
 20
124.5171085802
 30
0.0
 11
226.0734032837
 21
124.5171085802
 31
0.0
  0
LINE
  5
24C
330
1F
100
AcDbEntity
  8
0
  6
HIDDEN
 62
     7
370
     0
100
AcDbLine
 10
229.0554540913
 20
114.0171085802
 30
0.0
 11
226.5554540913
 21
114.0171085802
 31
0.0
  0
LINE
  5
24D
330
1F
100
AcDbEntity
  8
0
  6
HIDDEN
 62
     7
370
     0
100
AcDbLine
 10
228.6714794951
 20
121.0171085802
 30
0.0
 11
228.6714794951
 21
124.5171085802
 31
0.0
  0
LINE
  5
24E
330
1F
100
AcDbEntity
  8
0
  6
HIDDEN
 62
     7
370
     0
100
AcDbLine
 10
229.5375048989
 20
121.0171085802
 30
0.0
 11
229.5375048989
 21
124.5171085802
 31
0.0
  0
LINE
  5
24F
330
1F
100
AcDbEntity
  8
0
  6
HIDDEN
 62
     7
370
     0
100
AcDbLine
 10
228.6714794951
 20
121.0171085802
 30
0.0
 11
229.5375048989
 21
121.0171085802
 31
0.0
  0
LINE
  5
250
330
1F
100
AcDbEntity
  8
0
  6
HIDDEN
 62
     7
370
     0
100
AcDbLine
 10
228.6714794951
 20
124.5171085802
 30
0.0
 11
229.5375048989
 21
124.5171085802
 31
0.0
  0
LINE
  5
251
330
1F
100
AcDbEntity
  8
0
  6
HIDDEN
 62
     7
370
     0
100
AcDbLine
 10
226.9394286875
 20
121.0171085802
 30
0.0
 11
226.9394286875
 21
124.5171085802
 31
0.0
  0
LINE
  5
252
330
1F
100
AcDbEntity
  8
0
  6
HIDDEN
 62
     7
370
     0
100
AcDbLine
 10
226.0734032837
 20
121.0171085802
 30
0.0
 11
226.0734032837
 21
124.5171085802
 31
0.0
  0
LINE
  5
253
330
1F
100
AcDbEntity
  8
0
  6
HIDDEN
 62
     7
370
     0
100
AcDbLine
 10
226.9394286875
 20
121.0171085802
 30
0.0
 11
226.0734032837
 21
121.0171085802
 31
0.0
  0
LINE
  5
254
330
1F
100
AcDbEntity
  8
0
  6
HIDDEN
 62
     7
370
     0
100
AcDbLine
 10
226.9394286875
 20
124.5171085802
 30
0.0
 11
226.0734032837
 21
124.5171085802
 31
0.0
  0
LINE
  5
255
330
1F
100
AcDbEntity
  8
0
  6
HIDDEN
 62
     7
370
     0
100
AcDbLine
 10
228.6714794951
 20
121.0171085802
 30
0.0
 11
226.9394286875
 21
121.0171085802
 31
0.0
  0
LINE
  5
256
330
1F
100
AcDbEntity
  8
0
  6
HIDDEN
 62
     7
370
     0
100
AcDbLine
 10
228.6714794951
 20
124.5171085802
 30
0.0
 11
226.9394286875
 21
124.5171085802
 31
0.0
  0
SPLINE
  5
257
330
1F
100
AcDbEntity
  8
0
  6
HIDDEN
 62
     7
370
     0
100
AcDbSpline
210
0.0
220
0.0
230
1.0
 70
    24
 71
     1
 72
     4
 73
     2
 74
     0
 42
0.00000001
 43
0.00000001
 40
0.0
 40
0.0
 40
1.0
 40
1.0
 10
235.2054540913173
 20
110.5171085801699
 30
0.0
 10
234.3054540913172
 20
109.6171085801699
 30
0.0
  0
SPLINE
  5
258
330
1F
100
AcDbEntity
  8
0
  6
HIDDEN
 62
     7
370
     0
100
AcDbSpline
210
0.0
220
0.0
230
1.0
 70
    24
 71
     1
 72
     4
 73
     2
 74
     0
 42
0.00000001
 43
0.00000001
 40
0.0
 40
0.0
 40
1.0
 40
1.0
 10
234.3054540913173
 20
105.4171085801699
 30
0.0
 10
235.2054540913173
 20
104.5171085801699
 30
0.0
  0
SPLINE
  5
259
330
1F
100
AcDbEntity
  8
0
  6
HIDDEN
 62
     7
370
     0
100
AcDbSpline
210
0.0
220
0.0
230
1.0
 70
    24
 71
     1
 72
     4
 73
     2
 74
     0
 42
0.00000001
 43
0.00000001
 40
0.0
 40
0.0
 40
1.0
 40
1.0
 10
244.3054540913173
 20
110.51710858017
 30
0.0
 10
235.2054540913173
 20
110.5171085801699
 30
0.0
  0
SPLINE
  5
25A
330
1F
100
AcDbEntity
  8
0
  6
HIDDEN
 62
     7
370
     0
100
AcDbSpline
210
0.0
220
0.0
230
1.0
 70
    24
 71
     1
 72
     4
 73
     2
 74
     0
 42
0.00000001
 43
0.00000001
 40
0.0
 40
0.0
 40
1.0
 40
1.0
 10
235.2054540913173
 20
104.5171085801699
 30
0.0
 10
244.3054540913173
 20
104.51710858017
 30
0.0
  0
SPLINE
  5
25B
330
1F
100
AcDbEntity
  8
0
  6
HIDDEN
 62
     7
370
     0
100
AcDbSpline
210
0.0
220
0.0
230
1.0
 70
    24
 71
     1
 72
     4
 73
     2
 74
     0
 42
0.00000001
 43
0.00000001
 40
0.0
 40
0.0
 40
1.0
 40
1.0
 10
244.3054540913173
 20
104.51710858017
 30
0.0
 10
244.8054540913173
 20
105.01710858017
 30
0.0
  0
SPLINE
  5
25C
330
1F
100
AcDbEntity
  8
0
  6
HIDDEN
 62
     7
370
     0
100
AcDbSpline
210
0.0
220
0.0
230
1.0
 70
    24
 71
     1
 72
     4
 73
     2
 74
     0
 42
0.00000001
 43
0.00000001
 40
0.0
 40
0.0
 40
1.0
 40
1.0
 10
244.8054540913173
 20
110.01710858017
 30
0.0
 10
244.3054540913173
 20
110.51710858017
 30
0.0
  0
SPLINE
  5
25D
330
1F
100
AcDbEntity
  8
0
  6
HIDDEN
 62
     7
370
     0
100
AcDbSpline
210
0.0
220
0.0
230
1.0
 70
    24
 71
     1
 72
     4
 73
     2
 74
     0
 42
0.00000001
 43
0.00000001
 40
0.0
 40
0.0
 40
1.0
 40
1.0
 10
234.3054540913173
 20
106.2671085801699
 30
0.0
 10
235.0271419278043
 20
107.5171085801699
 30
0.0
  0
SPLINE
  5
25E
330
1F
100
AcDbEntity
  8
0
  6
HIDDEN
 62
     7
370
     0
100
AcDbSpline
210
0.0
220
0.0
230
1.0
 70
    24
 71
     1
 72
     4
 73
     2
 74
     0
 42
0.00000001
 43
0.00000001
 40
0.0
 40
0.0
 40
1.0
 40
1.0
 10
235.0271419278043
 20
107.5171085801699
 30
0.0
 10
234.3054540913172
 20
108.7671085801699
 30
0.0
  0
SPLINE
  5
25F
330
1F
100
AcDbEntity
  8
0
  6
HIDDEN
 62
     7
370
     0
100
AcDbSpline
210
0.0
220
0.0
230
1.0
 70
    24
 71
     1
 72
     4
 73
     2
 74
     0
 42
0.00000001
 43
0.00000001
 40
0.0
 40
0.0
 40
1.0
 40
1.0
 10
211.3054540913173
 20
110.51710858017
 30
0.0
 10
210.8054540913173
 20
110.01710858017
 30
0.0
  0
SPLINE
  5
260
330
1F
100
AcDbEntity
  8
0
  6
HIDDEN
 62
     7
370
     0
100
AcDbSpline
210
0.0
220
0.0
230
1.0
 70
    24
 71
     1
 72
     4
 73
     2
 74
     0
 42
0.00000001
 43
0.00000001
 40
0.0
 40
0.0
 40
1.0
 40
1.0
 10
210.8054540913173
 20
105.01710858017
 30
0.0
 10
211.3054540913173
 20
104.51710858017
 30
0.0
  0
SPLINE
  5
261
330
1F
100
AcDbEntity
  8
0
  6
HIDDEN
 62
     7
370
     0
100
AcDbSpline
210
0.0
220
0.0
230
1.0
 70
    24
 71
     1
 72
     4
 73
     2
 74
     0
 42
0.00000001
 43
0.00000001
 40
0.0
 40
0.0
 40
1.0
 40
1.0
 10
211.3054540913173
 20
104.51710858017
 30
0.0
 10
220.4054540913173
 20
104.5171085801699
 30
0.0
  0
SPLINE
  5
262
330
1F
100
AcDbEntity
  8
0
  6
HIDDEN
 62
     7
370
     0
100
AcDbSpline
210
0.0
220
0.0
230
1.0
 70
    24
 71
     1
 72
     4
 73
     2
 74
     0
 42
0.00000001
 43
0.00000001
 40
0.0
 40
0.0
 40
1.0
 40
1.0
 10
220.4054540913173
 20
110.5171085801699
 30
0.0
 10
211.3054540913173
 20
110.51710858017
 30
0.0
  0
SPLINE
  5
263
330
1F
100
AcDbEntity
  8
0
  6
HIDDEN
 62
     7
370
     0
100
AcDbSpline
210
0.0
220
0.0
230
1.0
 70
    24
 71
     1
 72
     4
 73
     2
 74
     0
 42
0.00000001
 43
0.00000001
 40
0.0
 40
0.0
 40
1.0
 40
1.0
 10
220.4054540913173
 20
104.5171085801699
 30
0.0
 10
221.3054540913173
 20
105.4171085801699
 30
0.0
  0
SPLINE
  5
264
330
1F
100
AcDbEntity
  8
0
  6
HIDDEN
 62
     7
370
     0
100
AcDbSpline
210
0.0
220
0.0
230
1.0
 70
    24
 71
     1
 72
     4
 73
     2
 74
     0
 42
0.00000001
 43
0.00000001
 40
0.0
 40
0.0
 40
1.0
 40
1.0
 10
221.3054540913173
 20
109.6171085801699
 30
0.0
 10
220.4054540913173
 20
110.5171085801699
 30
0.0
  0
SPLINE
  5
265
330
1F
100
AcDbEntity
  8
0
  6
HIDDEN
 62
     7
370
     0
100
AcDbSpline
210
0.0
220
0.0
230
1.0
 70
    24
 71
     1
 72
     4
 73
     2
 74
     0
 42
0.00000001
 43
0.00000001
 40
0.0
 40
0.0
 40
1.0
 40
1.0
 10
221.3054540913173
 20
108.7671085801699
 30
0.0
 10
220.5837662548303
 20
107.5171085801699
 30
0.0
  0
SPLINE
  5
266
330
1F
100
AcDbEntity
  8
0
  6
HIDDEN
 62
     7
370
     0
100
AcDbSpline
210
0.0
220
0.0
230
1.0
 70
    24
 71
     1
 72
     4
 73
     2
 74
     0
 42
0.00000001
 43
0.00000001
 40
0.0
 40
0.0
 40
1.0
 40
1.0
 10
220.5837662548303
 20
107.5171085801699
 30
0.0
 10
221.3054540913173
 20
106.2671085801699
 30
0.0
  0
SPLINE
  5
267
330
1F
100
AcDbEntity
  8
0
  6
HIDDEN
 62
     7
370
     0
100
AcDbSpline
210
0.0
220
0.0
230
1.0
 70
    24
 71
     1
 72
     4
 73
     2
 74
     0
 42
0.00000001
 43
0.00000001
 40
0.0
 40
0.0
 40
1.0
 40
1.0
 10
224.8054540913173
 20
124.0171085801698
 30
0.0
 10
224.8054540913173
 20
114.9171085801698
 30
0.0
  0
SPLINE
  5
268
330
1F
100
AcDbEntity
  8
0
  6
HIDDEN
 62
     7
370
     0
100
AcDbSpline
210
0.0
220
0.0
230
1.0
 70
    24
 71
     1
 72
     4
 73
     2
 74
     0
 42
0.00000001
 43
0.00000001
 40
0.0
 40
0.0
 40
1.0
 40
1.0
 10
230.8054540913173
 20
114.9171085801698
 30
0.0
 10
230.8054540913173
 20
124.0171085801698
 30
0.0
  0
SPLINE
  5
269
330
1F
100
AcDbEntity
  8
0
  6
HIDDEN
 62
     7
370
     0
100
AcDbSpline
210
0.0
220
0.0
230
1.0
 70
    24
 71
     1
 72
     4
 73
     2
 74
     0
 42
0.00000001
 43
0.00000001
 40
0.0
 40
0.0
 40
1.0
 40
1.0
 10
230.8054540913173
 20
124.0171085801698
 30
0.0
 10
230.3054540913173
 20
124.5171085801698
 30
0.0
  0
SPLINE
  5
26A
330
1F
100
AcDbEntity
  8
0
  6
HIDDEN
 62
     7
370
     0
100
AcDbSpline
210
0.0
220
0.0
230
1.0
 70
    24
 71
     1
 72
     4
 73
     2
 74
     0
 42
0.00000001
 43
0.00000001
 40
0.0
 40
0.0
 40
1.0
 40
1.0
 10
225.3054540913173
 20
124.5171085801698
 30
0.0
 10
224.8054540913173
 20
124.0171085801698
 30
0.0
  0
SPLINE
  5
26B
330
1F
100
AcDbEntity
  8
0
  6
HIDDEN
 62
     7
370
     0
100
AcDbSpline
210
0.0
220
0.0
230
1.0
 70
    24
 71
     1
 72
     4
 73
     2
 74
     0
 42
0.00000001
 43
0.00000001
 40
0.0
 40
0.0
 40
1.0
 40
1.0
 10
224.8054540913173
 20
114.9171085801698
 30
0.0
 10
225.7054540913173
 20
114.0171085801698
 30
0.0
  0
SPLINE
  5
26C
330
1F
100
AcDbEntity
  8
0
  6
HIDDEN
 62
     7
370
     0
100
AcDbSpline
210
0.0
220
0.0
230
1.0
 70
    24
 71
     1
 72
     4
 73
     2
 74
     0
 42
0.00000001
 43
0.00000001
 40
0.0
 40
0.0
 40
1.0
 40
1.0
 10
229.9054540913173
 20
114.0171085801698
 30
0.0
 10
230.8054540913173
 20
114.9171085801698
 30
0.0
  0
SPLINE
  5
26D
330
1F
100
AcDbEntity
  8
0
  6
HIDDEN
 62
     7
370
     0
100
AcDbSpline
210
0.0
220
0.0
230
1.0
 70
    24
 71
     1
 72
     4
 73
     2
 74
     0
 42
0.00000001
 43
0.00000001
 40
0.0
 40
0.0
 40
1.0
 40
1.0
 10
229.0554540913173
 20
114.0171085801698
 30
0.0
 10
227.8054540913173
 20
114.7387964166568
 30
0.0
  0
SPLINE
  5
26E
330
1F
100
AcDbEntity
  8
0
  6
HIDDEN
 62
     7
370
     0
100
AcDbSpline
210
0.0
220
0.0
230
1.0
 70
    24
 71
     1
 72
     4
 73
     2
 74
     0
 42
0.00000001
 43
0.00000001
 40
0.0
 40
0.0
 40
1.0
 40
1.0
 10
227.8054540913173
 20
114.7387964166568
 30
0.0
 10
226.5554540913173
 20
114.0171085801698
 30
0.0
  0
LINE
  5
26F
330
1F
100
AcDbEntity
  8
VERMASSUNG
100
AcDbLine
 10
227.8054540913
 20
70.4177743055
 30
0.0
 11
227.8054540913
 21
144.8716244312
 31
0.0
  0
LINE
  5
270
330
1F
100
AcDbEntity
  8
VERMASSUNG
100
AcDbLine
 10
191.1743819472
 20
107.5171085802
 30
0.0
 11
262.6148871719
 21
107.5171085802
 31
0.0
  0
OLE2FRAME
  5
271
330
1F
100
AcDbEntity
  8
0
100
AcDbOle2Frame
 70
     2
  3
Bitmap
 10
13.8511154363
 20
38.264191557
 30
0.0
 11
51.6290888628
 21
31.9806341108
 31
0.0
 71
     2
 72
     0
 73
     1
 90
    12928
310
80552BED0767C5B32B40DDAF6807D121434000000000000000006FFBDDFB85D0
310
4940DDAF6807D121434000000000000000006FFBDDFB85D04940416F4BD60AFB
310
3F4000000000000000002BED0767C5B32B40416F4BD60AFB3F40000000000000
310
0000000000000100000000010000010000000100000000000100000000320000
310
D0CF11E0A1B11AE1000000000000000000000000000000003E000300FEFF0900
310
0600000000000000000000000100000001000000000000000010000002000000
310
01000000FEFFFFFF0000000000000000FFFFFFFFFFFFFFFFFFFFFFFFFFFFFFFF
310
FFFFFFFFFFFFFFFFFFFFFFFFFFFFFFFFFFFFFFFFFFFFFFFFFFFFFFFFFFFFFFFF
310
FFFFFFFFFFFFFFFFFFFFFFFFFFFFFFFFFFFFFFFFFFFFFFFFFFFFFFFFFFFFFFFF
310
FFFFFFFFFFFFFFFFFFFFFFFFFFFFFFFFFFFFFFFFFFFFFFFFFFFFFFFFFFFFFFFF
310
FFFFFFFFFFFFFFFFFFFFFFFFFFFFFFFFFFFFFFFFFFFFFFFFFFFFFFFFFFFFFFFF
310
FFFFFFFFFFFFFFFFFFFFFFFFFFFFFFFFFFFFFFFFFFFFFFFFFFFFFFFFFFFFFFFF
310
FFFFFFFFFFFFFFFFFFFFFFFFFFFFFFFFFFFFFFFFFFFFFFFFFFFFFFFFFFFFFFFF
310
FFFFFFFFFFFFFFFFFFFFFFFFFFFFFFFFFFFFFFFFFFFFFFFFFFFFFFFFFFFFFFFF
310
FFFFFFFFFFFFFFFFFFFFFFFFFFFFFFFFFFFFFFFFFFFFFFFFFFFFFFFFFFFFFFFF
310
FFFFFFFFFFFFFFFFFFFFFFFFFFFFFFFFFFFFFFFFFFFFFFFFFFFFFFFFFFFFFFFF
310
FFFFFFFFFFFFFFFFFFFFFFFFFFFFFFFFFFFFFFFFFFFFFFFFFFFFFFFFFFFFFFFF
310
FFFFFFFFFFFFFFFFFFFFFFFFFFFFFFFFFFFFFFFFFFFFFFFFFFFFFFFFFFFFFFFF
310
FFFFFFFFFFFFFFFFFFFFFFFFFFFFFFFFFFFFFFFFFFFFFFFFFFFFFFFFFFFFFFFF
310
FFFFFFFFFFFFFFFFFFFFFFFFFFFFFFFFFFFFFFFFFFFFFFFFFFFFFFFFFFFFFFFF
310
FDFFFFFFFEFFFFFFFEFFFFFFFEFFFFFF05000000060000000700000008000000
310
090000000A0000000B0000000C0000000D0000000E0000000F00000010000000
310
11000000120000001300000014000000150000001600000017000000FEFFFFFF
310
FFFFFFFFFFFFFFFFFFFFFFFFFFFFFFFFFFFFFFFFFFFFFFFFFFFFFFFFFFFFFFFF
310
FFFFFFFFFFFFFFFFFFFFFFFFFFFFFFFFFFFFFFFFFFFFFFFFFFFFFFFFFFFFFFFF
310
FFFFFFFFFFFFFFFFFFFFFFFFFFFFFFFFFFFFFFFFFFFFFFFFFFFFFFFFFFFFFFFF
310
FFFFFFFFFFFFFFFFFFFFFFFFFFFFFFFFFFFFFFFFFFFFFFFFFFFFFFFFFFFFFFFF
310
FFFFFFFFFFFFFFFFFFFFFFFFFFFFFFFFFFFFFFFFFFFFFFFFFFFFFFFFFFFFFFFF
310
FFFFFFFFFFFFFFFFFFFFFFFFFFFFFFFFFFFFFFFFFFFFFFFFFFFFFFFFFFFFFFFF
310
FFFFFFFFFFFFFFFFFFFFFFFFFFFFFFFFFFFFFFFFFFFFFFFFFFFFFFFFFFFFFFFF
310
FFFFFFFFFFFFFFFFFFFFFFFFFFFFFFFFFFFFFFFFFFFFFFFFFFFFFFFFFFFFFFFF
310
FFFFFFFFFFFFFFFFFFFFFFFFFFFFFFFFFFFFFFFFFFFFFFFFFFFFFFFFFFFFFFFF
310
FFFFFFFFFFFFFFFFFFFFFFFFFFFFFFFFFFFFFFFFFFFFFFFFFFFFFFFFFFFFFFFF
310
FFFFFFFFFFFFFFFFFFFFFFFFFFFFFFFFFFFFFFFFFFFFFFFFFFFFFFFFFFFFFFFF
310
FFFFFFFFFFFFFFFFFFFFFFFFFFFFFFFFFFFFFFFFFFFFFFFFFFFFFFFFFFFFFFFF
310
FFFFFFFFFFFFFFFFFFFFFFFFFFFFFFFFFFFFFFFFFFFFFFFFFFFFFFFFFFFFFFFF
310
52006F006F007400200045006E00740072007900000000000000000000000000
310
0000000000000000000000000000000000000000000000000000000000000000
310
16000500FFFFFFFFFFFFFFFF020000000A00030000000000C000000000000046
310
00000000000000000000000010888591A308CB0103000000C000000000000000
310
01004F006C006500000000000000000000000000000000000000000000000000
310
0000000000000000000000000000000000000000000000000000000000000000
310
0A000200FFFFFFFFFFFFFFFFFFFFFFFF00000000000000000000000000000000
310
0000000000000000000000000000000000000000000000001400000000000000
310
010043006F006D0070004F0062006A0000000000000000000000000000000000
310
0000000000000000000000000000000000000000000000000000000000000000
310
120002010100000003000000FFFFFFFF00000000000000000000000000000000
310
0000000000000000000000000000000000000000010000004D00000000000000
310
01004F006C006500310030004E00610074006900760065000000000000000000
310
0000000000000000000000000000000000000000000000000000000000000000
310
1A000200FFFFFFFFFFFFFFFFFFFFFFFF00000000000000000000000000000000
310
0000000000000000000000000000000000000000040000002426000000000000
310
FEFFFFFF02000000FEFFFFFFFFFFFFFFFFFFFFFFFFFFFFFFFFFFFFFFFFFFFFFF
310
FFFFFFFFFFFFFFFFFFFFFFFFFFFFFFFFFFFFFFFFFFFFFFFFFFFFFFFFFFFFFFFF
310
FFFFFFFFFFFFFFFFFFFFFFFFFFFFFFFFFFFFFFFFFFFFFFFFFFFFFFFFFFFFFFFF
310
FFFFFFFFFFFFFFFFFFFFFFFFFFFFFFFFFFFFFFFFFFFFFFFFFFFFFFFFFFFFFFFF
310
FFFFFFFFFFFFFFFFFFFFFFFFFFFFFFFFFFFFFFFFFFFFFFFFFFFFFFFFFFFFFFFF
310
FFFFFFFFFFFFFFFFFFFFFFFFFFFFFFFFFFFFFFFFFFFFFFFFFFFFFFFFFFFFFFFF
310
FFFFFFFFFFFFFFFFFFFFFFFFFFFFFFFFFFFFFFFFFFFFFFFFFFFFFFFFFFFFFFFF
310
FFFFFFFFFFFFFFFFFFFFFFFFFFFFFFFFFFFFFFFFFFFFFFFFFFFFFFFFFFFFFFFF
310
FFFFFFFFFFFFFFFFFFFFFFFFFFFFFFFFFFFFFFFFFFFFFFFFFFFFFFFFFFFFFFFF
310
FFFFFFFFFFFFFFFFFFFFFFFFFFFFFFFFFFFFFFFFFFFFFFFFFFFFFFFFFFFFFFFF
310
FFFFFFFFFFFFFFFFFFFFFFFFFFFFFFFFFFFFFFFFFFFFFFFFFFFFFFFFFFFFFFFF
310
FFFFFFFFFFFFFFFFFFFFFFFFFFFFFFFFFFFFFFFFFFFFFFFFFFFFFFFFFFFFFFFF
310
FFFFFFFFFFFFFFFFFFFFFFFFFFFFFFFFFFFFFFFFFFFFFFFFFFFFFFFFFFFFFFFF
310
FFFFFFFFFFFFFFFFFFFFFFFFFFFFFFFFFFFFFFFFFFFFFFFFFFFFFFFFFFFFFFFF
310
FFFFFFFFFFFFFFFFFFFFFFFFFFFFFFFFFFFFFFFFFFFFFFFFFFFFFFFFFFFFFFFF
310
FFFFFFFFFFFFFFFFFFFFFFFFFFFFFFFFFFFFFFFFFFFFFFFFFFFFFFFFFFFFFFFF
310
0100000200000000000000000000000000000000000000000000000000000000
310
0000000000000000000000000000000000000000000000000000000000000000
310
0100FEFF030A0000FFFFFFFF0A00030000000000C00000000000004607000000
310
5042727573680007000000504272757368000700000050427275736800F439B2
310
7100000000000000000000000000000000000000000000000000000000000000
310
0000000000000000000000000000000000000000000000000000000000000000
310
0000000000000000000000000000000000000000000000000000000000000000
310
0000000000000000000000000000000000000000000000000000000000000000
310
0000000000000000000000000000000000000000000000000000000000000000
310
0000000000000000000000000000000000000000000000000000000000000000
310
0000000000000000000000000000000000000000000000000000000000000000
310
0000000000000000000000000000000000000000000000000000000000000000
310
0000000000000000000000000000000000000000000000000000000000000000
310
0000000000000000000000000000000000000000000000000000000000000000
310
0000000000000000000000000000000000000000000000000000000000000000
310
0000000000000000000000000000000000000000000000000000000000000000
310
20260000424D0E260000000000003E00000028000000B40200006E0000000100
310
01000000000000000000130B0000130B00000200000002000000000000FFFFFF
310
FFFFFFFFFFFFFFFFFFFFFFFFFFFFFFFFFFFFFFFFFFFFFFFFFFFFFFFFFFFFFFFF
310
FFFFFFFFFFFFFFFFFFFFFFFFFFFFFFFFFFFFFFFFFFFFFFFFFFFFFFFFFFFFFFFF
310
FFFFFFFFFFFFFFFFFFFFFFFFFFFFFFFFFFFFFFFFFFFFFFFFF000FFFFFFFFFFFF
310
FFFFFFFFFFFFFFFFFFFFFFFFFFFFFFFFFFFFFFFFFFFFFFFFFFFFFFFFFFFFFFFF
310
FFFFFFFFFFFFFFFFFFFFFFFFFFFFFFFFFFFFFFFFFFFFFFFFFFFFFFFFFFFFFFFF
310
FFFFFFFFFFFFFFFFFFFFFFFFFFFFFFFFF000FFFFFFFFFFFFFFFFFFFFFFFFFFFF
310
FFFFFFFFFFFFFFFFFFFFFFFFFFFFFFFFFFFFFFFFFFFFFFFFFFFFFFFFFFFFFFFF
310
FFFFFFFFFFFFFFFFFFFFFFFFFFFFFFFFFFFFFFFFFFFFFFFFFFFFFFFFFFFFFFFF
310
FFFFFFFFFFFFFFFFF000FFFFFFFFFFFFFFFFFFFFFFFFFFFFFFFFFFFFFFFFFFFF
310
FFFFFFFFFFFFFFFFFFFFFFFFFFFFFFFFFFFFFFFFFFFFFFFFFFFFFFFFFFFFFFFF
310
FFFFFFFFFFFFFFFFFFFFFFFFFFFFFFFFFFFFFFFFFFFFFFFFFFFFFFFFFFFFFFFF
310
F000FFFFFFFFFFFFFFFFFFFFFFFFFFFFFFFFFFFFFFFFFFFFFFFFFFFFFFFFFFFF
310
FFFFFFFFFFFFFFFFFFFFFFFFFFFFFFFFFFFFFFFFFFFFFFFFFFFFFFFFFFFFFFFF
310
FFFFFFFFFFFFFFFFFFFFFFFFFFFFFFFFFFFFFFFFFFFFFFFFF000FFFFFFFFFFFF
310
FFFFFFFFFFFFFFFFFFFFFFFFFFFFFFFFFFFFFFFFFFFFFFFFFFFFFFFFFFFFFFFF
310
FFFFFFFFFFFFFFFFFFFFFFFFFFFFFFFFFFFFFFFFFFFFFFFFFFFFFFFFFFFFFFFF
310
FFFFFFFFFFFFFFFFFFFFFFFFFFFFFFFFF000FFFFFFFFFFFFFFFFFFFFFFFFFFFF
310
FFFFFFFFFFFFFFFFFFFFFFFFFFFFFFFFFFFFFFFFFFFFFFFFFFFFFFFFFFFFFFFF
310
FFFFFFFFFFFFFFFFFFFFFFFFFFFFFFFFFFFFFFFFFFFFFFFFFFFFFFFFFFFFFFFF
310
FFFFFFFFFFFFFFFFF000FFFFFFFFFFFFFFFFFFFFFFFFFFFFFFFFFFFFFFFFFFFF
310
FFFFFFFFFFFFFFFFFFFFFFFFFFFFFFFFFFFFFFFFFFFFFFFFFFFFFFFFFFFFFFFF
310
FFFFFFFFFFFFFFFFFFFFFFFFFFFFFFFFFFFFFFFFFFFFFFFFFFFFFFFFFFFFFFFF
310
F000FFFFFFFFFFFFFFFFFFFFFFFFFFFFFFFFFFFFFFFFFFFFFFFFFFFFFFFFFFFF
310
FFFFFFFFFFFFFFFFFFFFFFFFFFFFFFFFFFFFFFFFFFFFFFFFFFFFFFFFFFFFFFFF
310
FFFFFFFFFFFFFFFFFFFFFFFFFFFFFFFFFFFFFFFFFFFFFFFFF000FFFFFFFFFFFF
310
FFFFFFFFFFFFFFFFFFFFFFFFFFFFFFFFFFFFFFFFFFFFFFFFFFFFFFFFFFFFFFFF
310
FFFFFFFFFFFFFFFFFFFFFFFFFFFFFFFFFFFFFFFFFFFFFFFFFFFFFFFFFFFFFFFF
310
FFFFFFFFFFFFFFFFFFFFFFFFFFFFFFFFF000FFFFFFFFFFFFFFFFFFFFFFFFFFFF
310
FFFFFFFFFFFFFFFFFFFFFFFFFFFFFFFFFFFFFFFFFFFFFFFFFFFFFFFFFFFFFFFF
310
FFFFFFFFFFFFFFFFFFFFFFFFFFFFFFFFFFFFFFFFFFFFFFFFFFFFFFFFFFFFFFFF
310
FFFFFFFFFFFFFFFFF000FFFFFFFFFFFFFFFFFFFFFFFFFFFFFFFFFFFFFFFFFFFF
310
FFFFFFFFFFFFFFFFFFFFFFFFFFFFFFFFFFFFFFFFFFFFFFFFFFFFFFFFFFFFFFFF
310
FFFFFFFFFFFFFFFFFFFFFFFFFFFFFFFFFFFFFFFFFFFFFFFFFFFFFFFFFFFFFFFF
310
F000FFFFFFFFFFFFFFFFFFFFFFFFFFFFFFFFFFFFFFFFFFFFFFFFFFFFFFFFFFFF
310
FFFFFFFFFFFFFFFFFFFFFFFFFFFFFFFFFFFFFFFFFFFFFFFFFFFFFFFFFFFFFFFF
310
FFFFFFFFFFFFFFFFFFFFFFFFFFFFFFFFFFFFFFFFFFFFFFFFF000FFFFFFFFFFFF
310
FFFFFFFFFFFFFFFFFFFFFFFFFFFFFFFFFFFFFFFFFFFFFFFFFFFFFFFFFFFFFFFF
310
FFFFFFFFFFFFFFFFFFFFFFFFFFFFFFFFFFFFFFFFFFFFFFFFFFFFFFFFFFFFFFFF
310
FFFFFFFFFFFFFFFFFFFFFFFFFFFFFFFFF000FFFFFFFFFFFFFFFFFFFFFFFFFFFF
310
FFFFFFFFFFFFFFFFFFFFFFFFFFFFFFFFFFFFFFFFFFFFFFFFFFFFFFFFFFFFFFFF
310
FFFFFFFFFFFFFFFFFFFFFFFFFFFFFFFFFFFFFFFFFFFFFFFFFFFFFFFFFFFFFFFF
310
FFFFFFFFFFFFFFFFF000FFFFFFFFFFFFFFFFFFFFFFFFFFFFFFFFFFFFFFFFFFFF
310
FFFFFFFFFFFFFFFFFFFFFFFFFFFFFFFFFFFFFFFFFFFFFFFFFFFFFFFFFFFFFFFF
310
FFFFFFFFFFFFFFFFFFFFFFFFFFFFFFFFFFFFFFFFFFFFFFFFFFFFFFFFFFFFFFFF
310
F000FFFFFFFFFFFFFFFFFFFFFFFFFFFFFFFFFFFFFFFFFFFFFFFFFFFFFFFFFFFF
310
FFFFFFFFFFFFFFFFFFFFFFFFFFFFFFFFFFFFFFFFFFFFFFFFFFFFFFFFFFFFFFFF
310
FFFFFFFFFFFFFFFFFFFFFFFFFFFFFFFFFFFFFFFFFFFFFFFFF000FFFFFFFFFFFF
310
FFFFFFFFFFFFFFFFFFFFFFFFFFFFFFFFFFFFFFFFFFFFFFFFFFFFFFFFFFFFFFFF
310
FFFFFFFFFFFFFFFFFFFFFFFFFFFFFFFFFFFFFFFFFFFFFFFFFFFFFFFFFFFFFFFF
310
FFFFFFFFFFFFFFFFFFFFFFFFFFFFFFFFF000FFFFFFFFFFFFFFFFFFFFFFFFFFFF
310
FFFFFFFFFFFFFFFFFFFFFFFFFFFFFFFFFFFFFFFFFFFFFFFFFFFFFFFFFFFFFFFF
310
FFFFFFFFFFFFFFFFFFFFFFFFFFFFFFFFFFFFFFFFFFFFFFFFFFFFFFFFFFFFFFFF
310
FFFFFFFFFFFFFFFFF000FFFFF80003FFFFFFFFFFFFFFFFFFFFFFFFFFFFFFFFFF
310
FFFFF00007FFFFFFFFFF00007FFFFFF800000000000000007FFFFFFFFFFFFFFF
310
FFFFFFFC001FFFFFFFFFFFFFFC001FFFFFFFFFFFFFFFFFFFFFFFFFFE0007FFFF
310
F000FFFF8000007FFFFFFFF8000FFFFFC0007FFFFF80007FFFFF0000007FFFFF
310
FFF8000007FFFFF800000000000000007FFFFFF0001FFFFFFFFFFFC00001FFFF
310
FFFFFFFFC00001FFFFFFFF000000000003FFFFE000007FFFF000FFFE0000000F
310
FFFFFFF0000FFFFF80007FFFFF80007FFFFC0000001FFFFFFFC0000001FFFFF8
310
00000000000000007FFFFFF0001FFFFFFFFFFE0000003FFFFFFFFFFE0000003F
310
FFFFFF000000000003FFFF0000000FFFF000FFF800000003FFFFFFF00007FFFF
310
80007FFFFF80007FFFF000000007FFFFFF000000003FFFF80000000000000000
310
7FFFFFF0001FFFFFFFFFF80000000FFFFFFFFFF80000000FFFFFFF0000000000
310
03FFFC00000003FFF000FFE000000000FFFFFFF00007FFFF80003FFFFF80007F
310
FFC000000001FFFFFC000000001FFFF800000000000000007FFFFFF0001FFFFF
310
FFFFE000000003FFFFFFFFE000000003FFFFFF000000000003FFF000000000FF
310
F000FF80000000007FFFFFF00007FFFF80003FFFFF80007FFF8000000000FFFF
310
F80000000007FFF800000000000000007FFFFFF0001FFFFFFFFFC000000001FF
310
FFFFFFC000000001FFFFFF000000000003FFC0000000007FF000FF0000000000
310
3FFFFFE00007FFFF00003FFFFF80007FFE00000000003FFFF00000000003FFF8
310
00000000000000007FFFFFF0001FFFFFFFFF8000000000FFFFFFFF8000000000
310
FFFFFF000000000003FF80000000003FF000FE00000000001FFFFFE00003FFFF
310
00003FFFFF80007FFC00000000001FFFE00000000001FFF8000001FFFE000000
310
7FFFFFF0001FFFFFFFFE00000000003FFFFFFE00000000003FFFFF0000000000
310
03FF00000000001FF000FC00000000000FFFFFE00003FFFF00001FFFFF80007F
310
F800000000001FFFC00000000000FFF8000001FFFE0000007FFFFFF0001FFFFF
310
FFFC00000000001FFFFFFC00000000001FFFFF000000000003FE00000000000F
310
F000F8000000000007FFFFE00003FFFF00001FFFFF80007FF800000000000FFF
310
800000000000FFF8000001FFFE0000007FFFFFF0001FFFFFFFF800000000000F
310
FFFFF800000000000FFFFF000000000003FC000000000007F000F80000000000
310
03FFFFC00003FFFE00001FFFFF80007FF0000000000007FF0000000000007FF8
310
000001FFFE0000007FFFFFF0001FFFFFFFF0000000000007FFFFF00000000000
310
07FFFF000000000003F8000000000003F000F0000000000003FFFFC00001FFFE
310
00001FFFFF80007FE0000000000007FE0000000000003FF8000001FFFE000000
310
7FFFFFF0001FFFFFFFF0000000000007FFFFF0000000000007FFFF0000000000
310
03F800001F800003F000E00001FFF00001FFFFC00001FFFE00000FFFFF80007F
310
E00001FFE00003FE00001FFF00003FF8000001FFFE0000007FFFFFF0001FFFFF
310
FFE000003E000003FFFFE000003E000003FFFF000000000003F00001FFF80001
310
F000E00007FFFC0001FFFFC00001FFFE00000FFFFF80007FC0000FFFFC0003FC
310
0000FFFFC0001FF8000001FFFE0000007FFFFFF0001FFFFFFFC00003FFE00001
310
FFFFC00003FFE00001FFFF0001FFFFFFFFF00007FFFE0001F000E0000FFFFF00
310
00FFFF800001FFFC00000FFFFF80007FC0001FFFFE0001FC0001FFFFE0001FF8
310
000001FFFE0000007FFFFFF0001FFFFFFF80000FFFF80000FFFF80000FFFF800
310
00FFFF0003FFFFFFFFE0000FFFFF8000F000C0003FFFFF8000FFFF800000FFFC
310
000007FFFF80007F80003FFFFF0001FC0003FFFFF0001FF8000001FFFE000000
310
7FFFFFF0001FFFFFFF80003FFFFE0000FFFF80003FFFFE0000FFFF0003FFFFFF
310
FFE0003FFFFF8000F000C0003FFFFF8000FFFF800000FFFC000007FFFF80007F
310
80007FFFFF8001F80007FFFFF8000FF8000001FFFE0000007FFFFFF0001FFFFF
310
FF00007FFFFF00007FFF00007FFFFF00007FFF0003FFFFFFFFE0003FFFFFC000
310
F000C0007FFFFFC000FFFF000000FFFC000007FFFF80007F8000FFFFFF8000F8
310
000FFFFFF8000FF8000001FFFE0000007FFFFFF0001FFFFFFF0000FFFFFF8000
310
7FFF0000FFFFFF80007FFF0003FFFFFFFFC0007FFFFFC00070008000FFFFFFC0
310
00FFFF000000FFF8000007FFFF80007F8000FFFFFF8000F8000FFFFFF8000FF8
310
000001FFFE0000007FFFFFF0001FFFFFFE0001FFFFFFC0003FFE0001FFFFFFC0
310
003FFF0003FFFFFFFFC0007FFFFFE00070008000FFFFFFC0007FFF0000007FF8
310
000003FFFF80007F0001FFFFFF8000F8000FFFFFF8000FF8000001FFFE000000
310
7FFFFFF0001FFFFFFE0001FFFFFFC0003FFE0001FFFFFFC0003FFF0003FFFFFF
310
FFC000FFFFFFE00070008000FFFFFFC0007FFF0000007FF8000003FFFF80007F
310
0001FFFFFF8000F8001FFFFFF8000FF8000001FFFE0000007FFFFFF0001FFFFF
310
FE0003FFFFFFE0003FFE0003FFFFFFE0003FFF0003FFFFFFFFC000FFFFFFE000
310
70008000FFFFFFC0007FFE0000007FF8000003FFFF80007F0001FFFFFF8000F0
310
001FFFFFF8000FF8000001FFFE0000007FFFFFF0001FFFFFFC0003FFFFFFE000
310
1FFC0003FFFFFFE0001FFF0003FFFFFFFFC000FFFFFFC00070008000FFFFFF80
310
007FFE0000007FF0000003FFFF80007F0001FFFFFF0000F0001FFFFFF8000FF8
310
000001FFFE0000007FFFFFF0001FFFFFFC0007FFFFFFF0001FFC0007FFFFFFF0
310
001FFF0003FFFFFFFFC000FFFFFFC00070008001FFFFFF0000FFFE0000003FF0
310
000001FFFF80007F0001FFFFFF0000F8001FFFFFF0000FF8000001FFFE000000
310
7FFFFFF0001FFFFFFC0007FFFFFFF0001FFC0007FFFFFFF0001FFF0003FFFFFF
310
FFC001FFFFFF80007000FFFFFFFFFE0000FFFE0008003FF0008001FFFF80007F
310
FFFFFFFFFC0000FFFFFFFFFFE0000FF8000001FFFE0000007FFFFFF0001FFFFF
310
F8000FFFFFFFF8000FF8000FFFFFFFF8000FFF0003FFFFFFFFFFFFFFFFFF0000
310
7000FFFFFFFFFC0000FFFC0008003FF0008001FFFF80007FFFFFFFFFF80001FF
310
FFFFFFFF80000FF8000001FFFE0000007FFFFFF0001FFFFFF8000FFFFFFFF800
310
0FF8000FFFFFFFF8000FFF0003FFFFFFFFFFFFFFFFFE0000F000FFFFFFFFE000
310
00FFFC000C003FE000C001FFFF80007FFFFFFFFFC00001FFFFFFFFFE00001FF8
310
000001FFFE0000007FFFFFF0001FFFFFF8000FFFFFFFF8000FF8000FFFFFFFF8
310
000FFF0003FFFFFFFFFFFFFFFFF00000F000FFFFFFFE000001FFFC000C001FE0
310
00C000FFFF80007FFFFFFFFE000001FFFFFFFFE000001FF80FFFFFFFFFFFFFC0
310
7FFFFFF0001FFFFFF8000FFFFFFFF8000FF8000FFFFFFFF8000FFF0003FFFFFF
310
FFFFFFFFFF800000F000FFFFFFC0000001FFFC001C001FE001C000FFFF80007F
310
FFFFFF80000003FFFFFFF80000001FF80FFFFFFFFFFFFFC07FFFFFF0001FFFFF
310
F8001FFFFFFFFC000FF8001FFFFFFFFC000FFF0003FFFFFFFFFFFFFFF0000001
310
F000FFFFF800000001FFF8001C001FE001C000FFFF80007FFFFFF800000003FF
310
FFFF800000003FF80FFFFFFFFFFFFFC07FFFFFF0001FFFFFF8001FFFFFFFFC00
310
0FF8001FFFFFFFFC000FFF0003FFFFFFFFFFFFFE00000001F000FFFFC0000000
310
03FFF8001E001FC001E000FFFF80007FFFFF8000000007FFFFFC000000003FF8
310
0FFFFFFFFFFFFFC07FFFFFF0001FFFFFF8001FFFFFFFFC000FF8001FFFFFFFFC
310
000FFF0003FFFFFFFFFFFFE000000003F000FFFE0000000007FFF8001E000FC0
310
01E0007FFF80007FFFFE0000000007FFFFE0000000007FF80FFFFFFFFFFFFFC0
310
7FFFFFF0001FFFFFF0001FFFFFFFFC0007F0001FFFFFFFFC0007FF0003FFFFFF
310
FFFFFF0000000003F000FFF80000000007FFF8001E000FC003E0007FFF80007F
310
FFF0000000000FFFFF8000000000FFF80FFFFFFFFFFFFFC07FFFFFF0001FFFFF
310
F0001FFFFFFFFC0007F0001FFFFFFFFC0007FF0003FFFFFFFFFFFC0000000007
310
F000FFE0000000000FFFF0003E000FC003E0007FFF80007FFFC0000000001FFF
310
FE0000000001FFF80FFFFFFFFFFFFFC07FFFFFF0001FFFFFF0001FFFFFFFFC00
310
07F0001FFFFFFFFC0007FF0003FFFFFFFFFFF0000000000FF000FFC000000000
310
1FFFF0003F000F8003F0003FFF80007FFF80000000003FFFF80000000003FFF8
310
0FFFFFFFFFFFFFC07FFFFFF0001FFFFFF0001FFFFFFFFC0007F0001FFFFFFFFC
310
0007FF0003FFFFFFFFFFE0000000001FF000FF00000000007FFFF0003F000780
310
03F0003FFF80007FFF00000000007FFFF00000000007FFF80FFFFFFFFFFFFFC0
310
7FFFFFF0001FFFFFF0001FFFFFFFFC0007F0001FFFFFFFFC0007FF0003FFFFFF
310
FFFF80000000007FF000FE0000000000FFFFE0003F00078007F0003FFF80007F
310
FE0000000001FFFFE0000000001FFFF80FFFFFFFFFFFFFC07FFFFFF0001FFFFF
310
F0001FFFFFFFFC0007F0001FFFFFFFFC0007FF0003FFFFFFFFFF0000000000FF
310
F000FC0000000003FFFFE0007F00078007F0003FFF80007FFC0000000007FFFF
310
C0000000007FFFF80FFFFFFFFFFFFFC07FFFFFF0001FFFFFF8001FFFFFFFFC00
310
0FF8001FFFFFFFFC000FFF0003FFFFFFFFFE0000000003FFF000FC000000000F
310
FFFFE0007F80070007F8001FFF80007FF8000000001FFFFF8000000001FFFFF8
310
0FFFFFFFFFFFFFC07FFFFFF0001FFFFFF8001FFFFFFFFC000FF8001FFFFFFFFC
310
000FFF0003FFFFFFFFFC000000000FFFF000F8000000007FFFFFE0007F800700
310
07F8001FFF80007FF000000000FFFFFF800000000FFFFFF80FFFFFFFFFFFFFC0
310
7FFFFFF0001FFFFFF8000FFFFFFFF8000FF8000FFFFFFFF8000FFF0003FFFFFF
310
FFFC000000007FFFF000F800000007FFFFFFC0007F8003000FF8001FFF80007F
310
F000000007FFFFFF000000007FFFFFF80FFFFFFFFFFFFFC07FFFFFF0001FFFFF
310
F8000FFFFFFFF8000FF8000FFFFFFFF8000FFF0003FFFFFFFFF80000000FFFFF
310
F000F0000000FFFFFFFFC000FF8003000FF8001FFF80007FE0000000FFFFFFFF
310
0000000FFFFFFFF8000001FFFE0000007FFFFFF0001FFFFFF8000FFFFFFFF800
310
0FF8000FFFFFFFF8000FFF0003FFFFFFFFF8000000FFFFFFF000F000000FFFFF
310
FFFFC000FFC002000FF8000FFF80007FE000001FFFFFFFFE000001FFFFFFFFF8
310
000001FFFE0000007FFFFFF0001FFFFFF8000FFFFFFFF8000FF8000FFFFFFFF8
310
000FFF0003FFFFFFFFF000001FFFFFFFF000E00000FFFFFFFFFFC000FFC00200
310
0FFC000FFF80007FE00001FFFFFFFFFE00001FFFFFFFFFF8000001FFFE000000
310
7FFFFFF0001FFFFFFC000FFFFFFFF8001FFC000FFFFFFFF8001FFF0003FFFFFF
310
FFF00001FFFFFFFFF000E00007FFFFFFFFFF8000FFC000001FFC000FFF80007F
310
C0000FFFFFFFFFFE0000FFFFFFFFFFF8000001FFFE0000007FFFFFF0001FFFFF
310
FC0007FFFFFFF0001FFC0007FFFFFFF0001FFF0003FFFFFFFFF00007FFFFFFFF
310
F000E0001FFFFFFFFFFF8000FFC000001FFC000FFF80007FC0003FFFFFFFFFFE
310
0001FFFFFFFFFFF8000001FFFE0000007FFFFFF0001FFFFFFC0007FFFFFFF000
310
1FFC0007FFFFFFF0001FFF0003FFFFFFFFF0001FFFFFFFFFF000E0003FFFFF00
310
03FF8001FFE000001FFC0007FF80007FC0007FFFFF0007FC0003FFFFF0003FF8
310
000001FFFE0000007FFFFFF0001FFFFFFC0003FFFFFFE0001FFC0003FFFFFFE0
310
001FFF0003FFFFFFFFF0003FFFFFFFFFF000E0003FFFFF0001FF8001FFE00000
310
1FFE0007FF80007FC0007FFFFE0003FC0007FFFFE0003FF8000001FFFE000000
310
7FFFFFF0001FFFFFFE0003FFFFFFE0003FFE0003FFFFFFE0003FFF0003FFFFFF
310
FFF0003FFFFF8001F000E0003FFFFF0001FF0001FFE000001FFE0007FF80007F
310
C0007FFFFE0003FC0007FFFFE0003FF8000001FFFE0000007FFFFFF0001FFFFF
310
FE0001FFFFFFC0003FFE0001FFFFFFC0003FFF0003FFFFFFFFF0003FFFFF0001
310
F000E0003FFFFF0003FF0001FFE000003FFE0007FF80007FC0007FFFFE0003FC
310
0007FFFFE0003FF8000001FFFE0000007FFFFFF0001FFFFFFF0001FFFFFFC000
310
7FFF0001FFFFFFC0007FFF0003FFFFFFFFF0003FFFFF0001F000E0003FFFFE00
310
03FF0003FFF000003FFE0003FF80007FC0007FFFFC0003FE0007FFFFE0003FF8
310
000001FFFE0000007FFFFFF0001FFFFFFF0000FFFFFF80007FFF0000FFFFFF80
310
007FFF0003FFFFFFFFF0003FFFFF0001F000E0003FFFFE0003FF0003FFF00000
310
3FFF0003FF80007FC0007FFFFC0007FE0007FFFFC0003FF8000001FFFE000000
310
7FFFFFF0001FFFFFFF80007FFFFF0000FFFF80007FFFFF0000FFFF0003FFFFFF
310
FFF0003FFFFF0003F000E0003FFFFC0003FE0003FFF000003FFF0003FF80007F
310
E0003FFFF80007FE0003FFFFC0007FF8000001FFFE0000007FFFFFF0001FFFFF
310
FF80003FFFFE0000FFFF80003FFFFE0000FFFF0003FFFFFFFFF0001FFFFE0003
310
F000F0001FFFF80003FE0003FFF000007FFF0001FF80007FE0003FFFF00007FE
310
0001FFFF80007FF8000001FFFE0000007FFFFFF0001FFFFFFFC0000FFFF80001
310
FFFFC0000FFFF80001FFFF0003FFFFFFFFF0001FFFFC0003F000F0000FFFF000
310
07FE0007FFF800007FFF0001FF80007FE0001FFFE00007FF0000FFFE00007FF8
310
000001FFFE0000007FFFFFF0001FFFFFFFC00003FFE00001FFFFC00003FFE000
310
01FFFF0003FFFFFFFFF8000FFFF80003F000F00003FFC00007FC0007FFF80000
310
7FFF8001FF80007FF00007FF80000FFF00007FF80000FFF8000001FFFE000000
310
7F80000000000001FFE000003E000003FFFFE000003E000003FFFF0003FFFFFF
310
FFF80003FFE00007F000F800000000000FFC0007FFF800007FFF8001FF80007F
310
F000000000000FFF000000000000FFF8000001FFFE0000007F80000000000001
310
FFF0000000000007FFFFF0000000000007FFFF0003FFFFFFFFFC00007E000007
310
F000F800000000000FFC0007FFF80000FFFF8000FF80007FF800000000001FFF
310
800000000001FFF8000001FFFE0000007F80000000000001FFF800000000000F
310
FFFFF800000000000FFFFF0003FFFFFFFFFC00000000000FF000FC0000000000
310
1FFC0007FFFC0000FFFF8000FF80007FF800000000003FFFC00000000001FFF8
310
000001FFFE0000007F80000000000001FFF800000000000FFFFFF80000000000
310
0FFFFF0003FFFFFFFFFE00000000001FF000FE00000000003FF8000FFFFC0000
310
FFFF8000FF80007FFC00000000003FFFC00000000003FFF8000001FFFE000000
310
7F80000000000001FFFC00000000001FFFFFFC00000000001FFFFF0003FFFFFF
310
FFFF00000000001FF000FF00000000003FF8000FFFFC0000FFFFC000FF80007F
310
FE00000000007FFFE00000000007FFF8000001FFFE0000007F80000000000001
310
FFFE00000000003FFFFFFE00000000003FFFFF0003FFFFFFFFFF80000000003F
310
F000FF80000000007FF8000FFFFC0001FFFFC0007F80007FFF0000000000FFFF
310
F0000000000FFFF800000000000000007F80000000000001FFFF8000000000FF
310
FFFFFF8000000000FFFFFF0003FFFFFFFFFFC0000000007FF000FFC000000000
310
FFF8000FFFFE0001FFFFC0007F80007FFF8000000001FFFFF8000000001FFFF8
310
00000000000000007F80000000000001FFFFC000000001FFFFFFFFC000000001
310
FFFFFF0003FFFFFFFFFFE000000000FFF000FFE000000003FFF0001FFFFE0001
310
FFFFC0007F80007FFFC000000007FFFFFE000000003FFFF80000000000000000
310
7F80000000000001FFFFE000000003FFFFFFFFE000000003FFFFFF0003FFFFFF
310
FFFFF000000003FFF000FFF80000000FFFF0001FFFFE0001FFFFE0007F80007F
310
FFF00000000FFFFFFF00000000FFFFF800000000000000007F80000000000001
310
FFFFF80000000FFFFFFFFFF80000000FFFFFFF0003FFFFFFFFFFFC0000000FFF
310
F000FFFE0000003FFFF0001FFFFE0003FFFFE0003F80007FFFFC0000003FFFFF
310
FFC0000003FFFFF800000000000000007F80000000000001FFFFFE0000003FFF
310
FFFFFFFE0000003FFFFFFF0003FFFFFFFFFFFF0000003FFFF000FFFF800000FF
310
FFF0001FFFFF0003FFFFE0003F80007FFFFF000001FFFFFFFFF800001FFFFFF8
310
00000000000000007F80000000000001FFFFFFC00001FFFFFFFFFFFFC00001FF
310
FFFFFF0003FFFFFFFFFFFFC00000FFFFF000FFFFF8000FFFFFFFFFFFFFFFFFFF
310
FFFFFFFFFFFFFFFFFFFFF0001FFFFFFFFFFF0000FFFFFFF80000000000000000
310
7FFFFFFFFFFFFFFFFFFFFFFC001FFFFFFFFFFFFFFC001FFFFFFFFFFFFFFFFFFF
310
FFFFFFFC001FFFFFF000FFFFFFFFFFFFFFFFFFFFFFFFFFFFFFFFFFFFFFFFFFFF
310
FFFFFFFFFFFFFFFFFFFFFFFFFFFFFFFFFFFFFFFFFFFFFFFFFFFFFFFFFFFFFFFF
310
FFFFFFFFFFFFFFFFFFFFFFFFFFFFFFFFFFFFFFFFFFFFFFFFFFFFFFFFFFFFFFFF
310
F000FFFFFFFFFFFFFFFFFFFFFFFFFFFFFFFFFFFFFFFFFFFFFFFFFFFFFFFFFFFF
310
FFFFFFFFFFFFFFFFFFFFFFFFFFFFFFFFFFFFFFFFFFFFFFFFFFFFFFFFFFFFFFFF
310
FFFFFFFFFFFFFFFFFFFFFFFFFFFFFFFFFFFFFFFFFFFFFFFFF000FFFFFFFFFFFF
310
FFFFFFFFFFFFFFFFFFFFFFFFFFFFFFFFFFFFFFFFFFFFFFFFFFFFFFFFFFFFFFFF
310
FFFFFFFFFFFFFFFFFFFFFFFFFFFFFFFFFFFFFFFFFFFFFFFFFFFFFFFFFFFFFFFF
310
FFFFFFFFFFFFFFFFFFFFFFFFFFFFFFFFF000FFFFFFFFFFFFFFFFFFFFFFFFFFFF
310
FFFFFFFFFFFFFFFFFFFFFFFFFFFFFFFFFFFFFFFFFFFFFFFFFFFFFFFFFFFFFFFF
310
FFFFFFFFFFFFFFFFFFFFFFFFFFFFFFFFFFFFFFFFFFFFFFFFFFFFFFFFFFFFFFFF
310
FFFFFFFFFFFFFFFFF000FFFFFFFFFFFFFFFFFFFFFFFFFFFFFFFFFFFFFFFFFFFF
310
FFFFFFFFFFFFFFFFFFFFFFFFFFFFFFFFFFFFFFFFFFFFFFFFFFFFFFFFFFFFFFFF
310
FFFFFFFFFFFFFFFFFFFFFFFFFFFFFFFFFFFFFFFFFFFFFFFFFFFFFFFFFFFFFFFF
310
F000FFFFFFFFFFFFFFFFFFFFFFFFFFFFFFFFFFFFFFFFFFFFFFFFFFFFFFFFFFFF
310
FFFFFFFFFFFFFFFFFFFFFFFFFFFFFFFFFFFFFFFFFFFFFFFFFFFFFFFFFFFFFFFF
310
FFFFFFFFFFFFFFFFFFFFFFFFFFFFFFFFFFFFFFFFFFFFFFFFF000FFFFFFFFFFFF
310
FFFFFFFFFFFFFFFFFFFFFFFFFFFFFFFFFFFFFFFFFFFFFFFFFFFFFFFFFFFFFFFF
310
FFFFFFFFFFFFFFFFFFFFFFFFFFFFFFFFFFFFFFFFFFFFFFFFFFFFFFFFFFFFFFFF
310
FFFFFFFFFFFFFFFFFFFFFFFFFFFFFFFFF000FFFFFFFFFFFFFFFFFFFFFFFFFFFF
310
FFFFFFFFFFFFFFFFFFFFFFFFFFFFFFFFFFFFFFFFFFFFFFFFFFFFFFFFFFFFFFFF
310
FFFFFFFFFFFFFFFFFFFFFFFFFFFFFFFFFFFFFFFFFFFFFFFFFFFFFFFFFFFFFFFF
310
FFFFFFFFFFFFFFFFF000FFFFFFFFFFFFFFFFFFFFFFFFFFFFFFFFFFFFFFFFFFFF
310
FFFFFFFFFFFFFFFFFFFFFFFFFFFFFFFFFFFFFFFFFFFFFFFFFFFFFFFFFFFFFFFF
310
FFFFFFFFFFFFFFFFFFFFFFFFFFFFFFFFFFFFFFFFFFFFFFFFFFFFFFFFFFFFFFFF
310
F000FFFFFFFFFFFFFFFFFFFFFFFFFFFFFFFFFFFFFFFFFFFFFFFFFFFFFFFFFFFF
310
FFFFFFFFFFFFFFFFFFFFFFFFFFFFFFFFFFFFFFFFFFFFFFFFFFFFFFFFFFFFFFFF
310
FFFFFFFFFFFFFFFFFFFFFFFFFFFFFFFFFFFFFFFFFFFFFFFFF000FFFFFFFFFFFF
310
FFFFFFFFFFFFFFFFFFFFFFFFFFFFFFFFFFFFFFFFFFFFFFFFFFFFFFFFFFFFFFFF
310
FFFFFFFFFFFFFFFFFFFFFFFFFFFFFFFFFFFFFFFFFFFFFFFFFFFFFFFFFFFFFFFF
310
FFFFFFFFFFFFFFFFFFFFFFFFFFFFFFFFF000FFFFFFFFFFFFFFFFFFFFFFFFFFFF
310
FFFFFFFFFFFFFFFFFFFFFFFFFFFFFFFFFFFFFFFFFFFFFFFFFFFFFFFFFFFFFFFF
310
FFFFFFFFFFFFFFFFFFFFFFFFFFFFFFFFFFFFFFFFFFFFFFFFFFFFFFFFFFFFFFFF
310
FFFFFFFFFFFFFFFFF000FFFFFFFFFFFFFFFFFFFFFFFFFFFFFFFFFFFFFFFFFFFF
310
FFFFFFFFFFFFFFFFFFFFFFFFFFFFFFFFFFFFFFFFFFFFFFFFFFFFFFFFFFFFFFFF
310
FFFFFFFFFFFFFFFFFFFFFFFFFFFFFFFFFFFFFFFFFFFFFFFFFFFFFFFFFFFFFFFF
310
F000FFFFFFFFFFFFFFFFFFFFFFFFFFFFFFFFFFFFFFFFFFFFFFFFFFFFFFFFFFFF
310
FFFFFFFFFFFFFFFFFFFFFFFFFFFFFFFFFFFFFFFFFFFFFFFFFFFFFFFFFFFFFFFF
310
FFFFFFFFFFFFFFFFFFFFFFFFFFFFFFFFFFFFFFFFFFFFFFFFF000FFFFFFFFFFFF
310
FFFFFFFFFFFFFFFFFFFFFFFFFFFFFFFFFFFFFFFFFFFFFFFFFFFFFFFFFFFFFFFF
310
FFFFFFFFFFFFFFFFFFFFFFFFFFFFFFFFFFFFFFFFFFFFFFFFFFFFFFFFFFFFFFFF
310
FFFFFFFFFFFFFFFFFFFFFFFFFFFFFFFFF000FFFFFFFFFFFFFFFFFFFFFFFFFFFF
310
FFFFFFFFFFFFFFFFFFFFFFFFFFFFFFFFFFFFFFFFFFFFFFFFFFFFFFFFFFFFFFFF
310
FFFFFFFFFFFFFFFFFFFFFFFFFFFFFFFFFFFFFFFFFFFFFFFFFFFFFFFFFFFFFFFF
310
FFFFFFFFFFFFFFFFF000FFFFFFFFFFFFFFFFFFFFFFFFFFFFFFFFFFFFFFFFFFFF
310
FFFFFFFFFFFFFFFFFFFFFFFFFFFFFFFFFFFFFFFFFFFFFFFFFFFFFFFFFFFFFFFF
310
FFFFFFFFFFFFFFFFFFFFFFFFFFFFFFFFFFFFFFFFFFFFFFFFFFFFFFFFFFFFFFFF
310
F000FFFFFFFFFFFFFFFFFFFFFFFFFFFFFFFFFFFFFFFFFFFFFFFFFFFFFFFFFFFF
310
FFFFFFFFFFFFFFFFFFFFFFFFFFFFFFFFFFFFFFFFFFFFFFFFFFFFFFFFFFFFFFFF
310
FFFFFFFFFFFFFFFFFFFFFFFFFFFFFFFFFFFFFFFFFFFFFFFFF000FFFFFFFFFFFF
310
FFFFFFFFFFFFFFFFFFFFFFFFFFFFFFFFFFFFFFFFFFFFFFFFFFFFFFFFFFFFFFFF
310
FFFFFFFFFFFFFFFFFFFFFFFFFFFFFFFFFFFFFFFFFFFFFFFFFFFFFFFFFFFFFFFF
310
FFFFFFFFFFFFFFFFFFFFFFFFFFFFFFFFF000FFFFFFFFFFFFFFFFFFFFFFFFFFFF
310
FFFFFFFFFFFFFFFFFFFFFFFFFFFFFFFFFFFFFFFFFFFFFFFFFFFFFFFFFFFFFFFF
310
FFFFFFFFFFFFFFFFFFFFFFFFFFFFFFFFFFFFFFFFFFFFFFFFFFFFFFFFFFFFFFFF
310
FFFFFFFFFFFFFFFFF000FFFFFFFFFFFFFFFFFFFFFFFFFFFFFFFFFFFFFFFFFFFF
310
FFFFFFFFFFFFFFFFFFFFFFFFFFFFFFFFFFFFFFFFFFFFFFFFFFFFFFFFFFFFFFFF
310
FFFFFFFFFFFFFFFFFFFFFFFFFFFFFFFFFFFFFFFFFFFFFFFFFFFFFFFFFFFFFFFF
310
F000FFFFFFFFFFFFFFFFFFFFFFFFFFFFFFFFFFFFFFFFFFFFFFFFFFFFFFFFFFFF
310
FFFFFFFFFFFFFFFFFFFFFFFFFFFFFFFFFFFFFFFFFFFFFFFFFFFFFFFFFFFFFFFF
310
FFFFFFFFFFFFFFFFFFFFFFFFFFFFFFFFFFFFFFFFFFFFFFFFF000FFFFFFFFFFFF
310
FFFFFFFFFFFFFFFFFFFFFFFFFFFFFFFFFFFFFFFFFFFFFFFFFFFFFFFFFFFFFFFF
310
FFFFFFFFFFFFFFFFFFFFFFFFFFFFFFFFFFFFFFFFFFFFFFFFFFFFFFFFFFFFFFFF
310
FFFFFFFFFFFFFFFFFFFFFFFFFFFFFFFFF0000000000000000000000000000000
310
0000000080DB7835B5A6C33EC00B2BBD10F2E9BE0000803F4937204756212047
310
F8060B4E0000803F0000000000000000000000000500000000000000A4DD683F
310
47B1D43E80DC783500000000000000000000000000007F430000000000000000
310
00000000000000000000000000000000000000000000000040000000D0D97835
310
0000000000DC7835B5A6C33EC00B2BBD10F2E9BE0000803F4937204756212047
310
F8060B4E0000803F0000000000000000000000000500000000000000A4DD683F
310
47B1D43E00DD783500000000000000000000000000007F430000000000000000
310
0000000000000000000000000000000000000000000000004000000050DA7835
310
0000000080DB7835587FC33E8C5129BD529DE9BE0000803F4637204753212047
310
57310B4E0000803F0000000000000000000000000500000000000000D7B35D3F
310
0000003F80DC783500000000000000000000000000007F430000000000000000
310
00000000000000000000000000000000000000000000000040000000D0DA7835
310
0000000000DC7835587FC33E8C5129BD529DE9BE0000803F4637204753212047
310
57310B4E0000803F00000000000000000000000005000000000000000D88503F
310
9C7E143F00DD783500000000000000000000000000007F430000000000000000
  1
OLE
  0
ENDSEC
  0
SECTION
  2
OBJECTS
  0
DICTIONARY
  5
C
330
0
100
AcDbDictionary
281
     1
  3
ACAD_GROUP
350
D
  3
ACAD_LAYOUT
350
1A
  3
ACAD_MLEADERSTYLE
350
273
  3
ACAD_MLINESTYLE
350
17
  3
ACAD_PLOTSETTINGS
350
19
  3
ACAD_PLOTSTYLENAME
350
E
  3
ACAD_TABLESTYLE
350
272
  3
ACAD_VISUALSTYLE
350
2A
  3
AcDbVariableDictionary
350
274
  0
DICTIONARY
  5
D
102
{ACAD_REACTORS
330
C
102
}
330
C
100
AcDbDictionary
281
     1
  0
DICTIONARY
  5
1A
102
{ACAD_REACTORS
330
C
102
}
330
C
100
AcDbDictionary
281
     1
  3
Layout1
350
1E
  3
Layout2
350
26
  3
Model
350
22
  0
DICTIONARY
  5
273
102
{ACAD_REACTORS
330
C
102
}
330
C
100
AcDbDictionary
281
     1
  0
DICTIONARY
  5
17
102
{ACAD_REACTORS
330
C
102
}
330
C
100
AcDbDictionary
281
     1
  3
Standard
350
18
  0
DICTIONARY
  5
19
102
{ACAD_REACTORS
330
C
102
}
330
C
100
AcDbDictionary
281
     1
  0
ACDBDICTIONARYWDFLT
  5
E
102
{ACAD_REACTORS
330
C
102
}
330
C
100
AcDbDictionary
281
     1
  3
Normal
350
F
100
AcDbDictionaryWithDefault
340
F
  0
DICTIONARY
  5
272
102
{ACAD_REACTORS
330
C
102
}
330
C
100
AcDbDictionary
281
     1
  0
DICTIONARY
  5
2A
102
{ACAD_REACTORS
330
C
102
}
330
C
100
AcDbDictionary
281
     1
  3
2dWireframe
350
2F
  3
3D Hidden
350
31
  3
3dWireframe
350
30
  3
Basic
350
32
  3
Brighten
350
36
  3
ColorChange
350
3A
  3
Conceptual
350
34
  3
Dim
350
35
  3
Facepattern
350
39
  3
Flat
350
2B
  3
FlatWithEdges
350
2C
  3
Gouraud
350
2D
  3
GouraudWithEdges
350
2E
  3
Linepattern
350
38
  3
Realistic
350
33
  3
Thicken
350
37
  0
DICTIONARY
  5
274
102
{ACAD_REACTORS
330
C
102
}
330
C
100
AcDbDictionary
281
     1
  3
PSOLHEIGHT
350
276
  3
PSOLWIDTH
350
275
  0
LAYOUT
  5
1E
102
{ACAD_REACTORS
330
1A
102
}
330
1A
100
AcDbPlotSettings
  1

  2
none_device
  4

  6

 40
0.0
 41
0.0
 42
0.0
 43
0.0
 44
0.0
 45
0.0
 46
0.0
 47
0.0
 48
0.0
 49
0.0
140
0.0
141
0.0
142
1.0
143
1.0
 70
   688
 72
     0
 73
     0
 74
     5
  7

 75
    16
147
1.0
148
0.0
149
0.0
100
AcDbLayout
  1
Layout1
 70
     1
 71
     1
 10
0.0
 20
0.0
 11
420.0
 21
297.0
 12
0.0
 22
0.0
 32
0.0
 14
1.0000000000E+20
 24
1.0000000000E+20
 34
1.0000000000E+20
 15
-1.0000000000E+20
 25
-1.0000000000E+20
 35
-1.0000000000E+20
146
0.0
 13
0.0
 23
0.0
 33
0.0
 16
1.0
 26
0.0
 36
0.0
 17
0.0
 27
1.0
 37
0.0
 76
     0
330
1B
  0
LAYOUT
  5
26
102
{ACAD_REACTORS
330
1A
102
}
330
1A
100
AcDbPlotSettings
  1

  2
none_device
  4

  6

 40
0.0
 41
0.0
 42
0.0
 43
0.0
 44
0.0
 45
0.0
 46
0.0
 47
0.0
 48
0.0
 49
0.0
140
0.0
141
0.0
142
1.0
143
1.0
 70
   688
 72
     0
 73
     0
 74
     5
  7

 75
    16
147
1.0
148
0.0
149
0.0
100
AcDbLayout
  1
Layout2
 70
     1
 71
     2
 10
0.0
 20
0.0
 11
0.0
 21
0.0
 12
0.0
 22
0.0
 32
0.0
 14
0.0
 24
0.0
 34
0.0
 15
0.0
 25
0.0
 35
0.0
146
0.0
 13
0.0
 23
0.0
 33
0.0
 16
1.0
 26
0.0
 36
0.0
 17
0.0
 27
1.0
 37
0.0
 76
     0
330
23
  0
LAYOUT
  5
22
102
{ACAD_REACTORS
330
1A
102
}
330
1A
100
AcDbPlotSettings
  1

  2
none_device
  4

  6

 40
0.0
 41
0.0
 42
0.0
 43
0.0
 44
0.0
 45
0.0
 46
0.0
 47
0.0
 48
0.0
 49
0.0
140
0.0
141
0.0
142
1.0
143
1.0
 70
  1712
 72
     0
 73
     0
 74
     0
  7

 75
     0
147
1.0
148
0.0
149
0.0
100
AcDbLayout
  1
Model
 70
     1
 71
     0
 10
0.0
 20
0.0
 11
297.0
 21
210.0
 12
0.0
 22
0.0
 32
0.0
 14
0.0
 24
0.0
 34
0.0
 15
297.0
 25
210.0
 35
0.0
146
0.0
 13
0.0
 23
0.0
 33
0.0
 16
1.0
 26
0.0
 36
0.0
 17
0.0
 27
1.0
 37
0.0
 76
     0
330
1F
331
29
  0
MLINESTYLE
  5
18
102
{ACAD_REACTORS
330
17
102
}
330
17
100
AcDbMlineStyle
  2
Standard
 70
     0
  3

 62
   256
 51
90.0
 52
90.0
 71
     2
 49
0.5
 62
   256
  6
BYLAYER
 49
-0.5
 62
   256
  6
BYLAYER
  0
ACDBPLACEHOLDER
  5
F
102
{ACAD_REACTORS
330
E
102
}
330
E
  0
VISUALSTYLE
  5
2F
102
{ACAD_REACTORS
330
2A
102
}
330
2A
100
AcDbVisualStyle
  2
2dWireframe
 70
     4
 71
     0
 72
     2
 73
     0
 90
        0
 40
-0.6
 41
-30.0
 62
     5
 63
     7
 74
     1
 91
        4
 64
     7
 65
   257
 75
     1
175
     1
 42
1.0
 92
        0
 66
   257
 43
1.0
 76
     1
 77
     6
 78
     2
 67
     7
 79
     5
170
     0
171
     0
290
     0
174
     0
 93
        1
 44
0.0
173
     0
291
     0
 45
0.0
1001
ACAD
1000
AcDbSavedByObjectVersion
1070
     0
  0
VISUALSTYLE
  5
31
102
{ACAD_REACTORS
330
2A
102
}
330
2A
100
AcDbVisualStyle
  2
3D Hidden
 70
     6
 71
     1
 72
     2
 73
     2
 90
        0
 40
-0.6
 41
-30.0
 62
     5
 63
     7
 74
     2
 91
        2
 64
     7
 65
   257
 75
     2
175
     1
 42
40.0
 92
        0
 66
   257
 43
1.0
 76
     1
 77
     6
 78
     2
 67
     7
 79
     3
170
     0
171
     0
290
     0
174
     0
 93
        1
 44
0.0
173
     0
291
     0
 45
0.0
1001
ACAD
1000
AcDbSavedByObjectVersion
1070
     0
  0
VISUALSTYLE
  5
30
102
{ACAD_REACTORS
330
2A
102
}
330
2A
100
AcDbVisualStyle
  2
3dWireframe
 70
     5
 71
     0
 72
     2
 73
     0
 90
        0
 40
-0.6
 41
-30.0
 62
     5
 63
     7
 74
     1
 91
        4
 64
     7
 65
   257
 75
     1
175
     1
 42
1.0
 92
        0
 66
   257
 43
1.0
 76
     1
 77
     6
 78
     2
 67
     7
 79
     5
170
     0
171
     0
290
     0
174
     0
 93
        1
 44
0.0
173
     0
291
     0
 45
0.0
1001
ACAD
1000
AcDbSavedByObjectVersion
1070
     0
  0
VISUALSTYLE
  5
32
102
{ACAD_REACTORS
330
2A
102
}
330
2A
100
AcDbVisualStyle
  2
Basic
 70
     7
 71
     1
 72
     0
 73
     1
 90
        0
 40
-0.6
 41
-30.0
 62
     5
 63
     7
 74
     0
 91
        4
 64
     7
 65
   257
 75
     1
175
     1
 42
1.0
 92
        8
 66
     7
 43
1.0
 76
     1
 77
     6
 78
     2
 67
     7
 79
     5
170
     0
171
     0
290
     0
174
     0
 93
        1
 44
0.0
173
     0
291
     1
 45
0.0
1001
ACAD
1000
AcDbSavedByObjectVersion
1070
     0
  0
VISUALSTYLE
  5
36
102
{ACAD_REACTORS
330
2A
102
}
330
2A
100
AcDbVisualStyle
  2
Brighten
 70
    12
 71
     2
 72
     2
 73
     0
 90
        0
 40
-0.6
 41
-30.0
 62
     5
 63
     7
 74
     1
 91
        4
 64
     7
 65
   257
 75
     1
175
     1
 42
1.0
 92
        8
 66
     7
 43
1.0
 76
     1
 77
     6
 78
     2
 67
     7
 79
     5
170
     0
171
     0
290
     0
174
     0
 93
        1
 44
50.0
173
     0
291
     1
 45
0.0
1001
ACAD
1000
AcDbSavedByObjectVersion
1070
     0
  0
VISUALSTYLE
  5
3A
102
{ACAD_REACTORS
330
2A
102
}
330
2A
100
AcDbVisualStyle
  2
ColorChange
 70
    16
 71
     2
 72
     2
 73
     3
 90
        0
 40
-0.6
 41
-30.0
 62
     5
 63
     8
 74
     1
 91
        4
 64
     7
 65
   257
 75
     1
175
     1
 42
1.0
 92
        8
 66
     8
 43
1.0
 76
     1
 77
     6
 78
     2
 67
     7
 79
     5
170
     0
171
     0
290
     0
174
     0
 93
        1
 44
0.0
173
     0
291
     1
 45
0.0
1001
ACAD
1000
AcDbSavedByObjectVersion
1070
     0
  0
VISUALSTYLE
  5
34
102
{ACAD_REACTORS
330
2A
102
}
330
2A
100
AcDbVisualStyle
  2
Conceptual
 70
     9
 71
     3
 72
     2
 73
     0
 90
        0
 40
-0.6
 41
-30.0
 62
     5
 63
     7
 74
     2
 91
        2
 64
     7
 65
   257
 75
     1
175
     1
 42
40.0
 92
        8
 66
     7
 43
1.0
 76
     1
 77
     6
 78
     2
 67
     7
 79
     3
170
     0
171
     0
290
     0
174
     0
 93
        1
 44
0.0
173
     0
291
     0
 45
0.0
1001
ACAD
1000
AcDbSavedByObjectVersion
1070
     0
  0
VISUALSTYLE
  5
35
102
{ACAD_REACTORS
330
2A
102
}
330
2A
100
AcDbVisualStyle
  2
Dim
 70
    11
 71
     2
 72
     2
 73
     0
 90
        0
 40
-0.6
 41
-30.0
 62
     5
 63
     7
 74
     1
 91
        4
 64
     7
 65
   257
 75
     1
175
     1
 42
1.0
 92
        8
 66
     7
 43
1.0
 76
     1
 77
     6
 78
     2
 67
     7
 79
     5
170
     0
171
     0
290
     0
174
     0
 93
        1
 44
-50.0
173
     0
291
     1
 45
0.0
1001
ACAD
1000
AcDbSavedByObjectVersion
1070
     0
  0
VISUALSTYLE
  5
39
102
{ACAD_REACTORS
330
2A
102
}
330
2A
100
AcDbVisualStyle
  2
Facepattern
 70
    15
 71
     2
 72
     2
 73
     0
 90
        0
 40
-0.6
 41
-30.0
 62
     5
 63
     7
 74
     1
 91
        4
 64
     7
 65
   257
 75
     1
175
     1
 42
1.0
 92
        8
 66
     7
 43
1.0
 76
     1
 77
     6
 78
     2
 67
     7
 79
     5
170
     0
171
     0
290
     0
174
     0
 93
        1
 44
0.0
173
     0
291
     1
 45
0.0
1001
ACAD
1000
AcDbSavedByObjectVersion
1070
     0
  0
VISUALSTYLE
  5
2B
102
{ACAD_REACTORS
330
2A
102
}
330
2A
100
AcDbVisualStyle
  2
Flat
 70
     0
 71
     2
 72
     1
 73
     1
 90
        2
 40
-0.6
 41
30.0
 62
     5
 63
     7
 74
     0
 91
        4
 64
     7
 65
   257
 75
     1
175
     1
 42
1.0
 92
        8
 66
     7
 43
1.0
 76
     1
 77
     6
 78
     2
 67
     7
 79
     5
170
     0
171
     0
290
     0
174
     0
 93
       13
 44
0.0
173
     0
291
     1
 45
0.0
1001
ACAD
1000
AcDbSavedByObjectVersion
1070
     0
  0
VISUALSTYLE
  5
2C
102
{ACAD_REACTORS
330
2A
102
}
330
2A
100
AcDbVisualStyle
  2
FlatWithEdges
 70
     1
 71
     2
 72
     1
 73
     1
 90
        2
 40
-0.6
 41
30.0
 62
     5
 63
     7
 74
     1
 91
        4
 64
     7
 65
   257
 75
     1
175
     1
 42
1.0
 92
        0
 66
   257
 43
1.0
 76
     1
 77
     6
 78
     2
 67
     7
 79
     5
170
     0
171
     0
290
     0
174
     0
 93
       13
 44
0.0
173
     0
291
     1
 45
0.0
1001
ACAD
1000
AcDbSavedByObjectVersion
1070
     0
  0
VISUALSTYLE
  5
2D
102
{ACAD_REACTORS
330
2A
102
}
330
2A
100
AcDbVisualStyle
  2
Gouraud
 70
     2
 71
     2
 72
     2
 73
     1
 90
        2
 40
-0.6
 41
30.0
 62
     5
 63
     7
 74
     0
 91
        4
 64
     7
 65
   257
 75
     1
175
     1
 42
1.0
 92
        0
 66
     7
 43
1.0
 76
     1
 77
     6
 78
     2
 67
     7
 79
     5
170
     0
171
     0
290
     0
174
     0
 93
       13
 44
0.0
173
     0
291
     1
 45
0.0
1001
ACAD
1000
AcDbSavedByObjectVersion
1070
     0
  0
VISUALSTYLE
  5
2E
102
{ACAD_REACTORS
330
2A
102
}
330
2A
100
AcDbVisualStyle
  2
GouraudWithEdges
 70
     3
 71
     2
 72
     2
 73
     1
 90
        2
 40
-0.6
 41
30.0
 62
     5
 63
     7
 74
     1
 91
        4
 64
     7
 65
   257
 75
     1
175
     1
 42
1.0
 92
        0
 66
   257
 43
1.0
 76
     1
 77
     6
 78
     2
 67
     7
 79
     5
170
     0
171
     0
290
     0
174
     0
 93
       13
 44
0.0
173
     0
291
     1
 45
0.0
1001
ACAD
1000
AcDbSavedByObjectVersion
1070
     0
  0
VISUALSTYLE
  5
38
102
{ACAD_REACTORS
330
2A
102
}
330
2A
100
AcDbVisualStyle
  2
Linepattern
 70
    14
 71
     2
 72
     2
 73
     0
 90
        0
 40
-0.6
 41
-30.0
 62
     5
 63
     7
 74
     1
 91
        4
 64
     7
 65
   257
 75
     7
175
     7
 42
1.0
 92
        8
 66
     7
 43
1.0
 76
     1
 77
     6
 78
     2
 67
     7
 79
     5
170
     0
171
     0
290
     0
174
     0
 93
        1
 44
0.0
173
     0
291
     1
 45
0.0
1001
ACAD
1000
AcDbSavedByObjectVersion
1070
     0
  0
VISUALSTYLE
  5
33
102
{ACAD_REACTORS
330
2A
102
}
330
2A
100
AcDbVisualStyle
  2
Realistic
 70
     8
 71
     2
 72
     2
 73
     0
 90
        0
 40
-0.6
 41
-30.0
 62
     5
 63
     7
 74
     1
 91
        0
 64
     7
 65
   257
 75
     1
175
     1
 42
1.0
 92
        8
 66
     8
 43
1.0
 76
     1
 77
     6
 78
     2
 67
     7
 79
     5
170
     0
171
     0
290
     0
174
     0
 93
       13
 44
0.0
173
     0
291
     0
 45
0.0
1001
ACAD
1000
AcDbSavedByObjectVersion
1070
     0
  0
VISUALSTYLE
  5
37
102
{ACAD_REACTORS
330
2A
102
}
330
2A
100
AcDbVisualStyle
  2
Thicken
 70
    13
 71
     2
 72
     2
 73
     0
 90
        0
 40
-0.6
 41
-30.0
 62
     5
 63
     7
 74
     1
 91
        4
 64
     7
 65
   257
 75
     1
175
     1
 42
1.0
 92
       12
 66
     7
 43
1.0
 76
     1
 77
     6
 78
     2
 67
     7
 79
     5
170
     0
171
     0
290
     0
174
     0
 93
        1
 44
0.0
173
     0
291
     1
 45
0.0
1001
ACAD
1000
AcDbSavedByObjectVersion
1070
     0
  0
DICTIONARYVAR
  5
276
102
{ACAD_REACTORS
330
274
102
}
330
274
100
DictionaryVariables
280
     0
  1
80.000000
  0
DICTIONARYVAR
  5
275
102
{ACAD_REACTORS
330
274
102
}
330
274
100
DictionaryVariables
280
     0
  1
5.000000
  0
ENDSEC
  0
EOF
