  0
SECTION
  2
HEADER
  9
$ACADVER
  1
AC1015
  9
$ACADMAINTVER
 70
     6
  9
$DWGCODEPAGE
  3
ANSI_1252
  9
$INSBASE
 10
0.0
 20
0.0
 30
0.0
  9
$EXTMIN
 10
0.0
 20
0.0
 30
0.0
  9
$EXTMAX
 10
297.0
 20
210.0
 30
0.0
  9
$LIMMIN
 10
0.0
 20
0.0
  9
$LIMMAX
 10
297.0
 20
210.0
  9
$ORTHOMODE
 70
     0
  9
$REGENMODE
 70
     1
  9
$FILLMODE
 70
     1
  9
$QTEXTMODE
 70
     0
  9
$MIRRTEXT
 70
     1
  9
$LTSCALE
 40
1.0
  9
$ATTMODE
 70
     1
  9
$TEXTSIZE
 40
2.0
  9
$TRACEWID
 40
1.0
  9
$TEXTSTYLE
  7
STANDARD
  9
$CLAYER
  8
0
  9
$CELTYPE
  6
ByLayer
  9
$CECOLOR
 62
   256
  9
$CELTSCALE
 40
1.0
  9
$DISPSILH
 70
     0
  9
$DIMSCALE
 40
1.0
  9
$DIMASZ
 40
3.0
  9
$DIMEXO
 40
0.0
  9
$DIMDLI
 40
3.75
  9
$DIMRND
 40
0.0
  9
$DIMDLE
 40
0.0
  9
$DIMEXE
 40
1.0
  9
$DIMTP
 40
0.0
  9
$DIMTM
 40
0.0
  9
$DIMTXT
 40
2.0
  9
$DIMCEN
 40
2.5
  9
$DIMTSZ
 40
0.0
  9
$DIMTOL
 70
     0
  9
$DIMLIM
 70
     0
  9
$DIMTIH
 70
     1
  9
$DIMTOH
 70
     1
  9
$DIMSE1
 70
     0
  9
$DIMSE2
 70
     0
  9
$DIMTAD
 70
     1
  9
$DIMZIN
 70
     0
  9
$DIMBLK
  1

  9
$DIMASO
 70
     1
  9
$DIMSHO
 70
     1
  9
$DIMPOST
  1

  9
$DIMAPOST
  1

  9
$DIMALT
 70
     0
  9
$DIMALTD
 70
     3
  9
$DIMALTF
 40
0.0393700787
  9
$DIMLFAC
 40
1.0
  9
$DIMTOFL
 70
     1
  9
$DIMTVP
 40
0.0
  9
$DIMTIX
 70
     0
  9
$DIMSOXD
 70
     0
  9
$DIMSAH
 70
     0
  9
$DIMBLK1
  1

  9
$DIMBLK2
  1

  9
$DIMSTYLE
  2
ISO-25
  9
$DIMCLRD
 70
     0
  9
$DIMCLRE
 70
     0
  9
$DIMCLRT
 70
     0
  9
$DIMTFAC
 40
1.0
  9
$DIMGAP
 40
1.524
  9
$DIMJUST
 70
     0
  9
$DIMSD1
 70
     0
  9
$DIMSD2
 70
     0
  9
$DIMTOLJ
 70
     0
  9
$DIMTZIN
 70
     0
  9
$DIMALTZ
 70
     0
  9
$DIMALTTZ
 70
     0
  9
$DIMUPT
 70
     0
  9
$DIMDEC
 70
     2
  9
$DIMTDEC
 70
     3
  9
$DIMALTU
 70
     2
  9
$DIMALTTD
 70
     3
  9
$DIMTXSTY
  7
STANDARD
  9
$DIMAUNIT
 70
     0
  9
$DIMADEC
 70
     2
  9
$DIMALTRND
 40
0.0
  9
$DIMAZIN
 70
     0
  9
$DIMDSEP
 70
    44
  9
$DIMATFIT
 70
     3
  9
$DIMFRAC
 70
     0
  9
$DIMLDRBLK
  1

  9
$DIMLUNIT
 70
     2
  9
$DIMLWD
 70
    -2
  9
$DIMLWE
 70
    -2
  9
$DIMTMOVE
 70
     0
  9
$LUNITS
 70
     2
  9
$LUPREC
 70
     2
  9
$SKETCHINC
 40
1.0
  9
$FILLETRAD
 40
10.0
  9
$AUNITS
 70
     0
  9
$AUPREC
 70
     2
  9
$MENU
  1
.
  9
$ELEVATION
 40
0.0
  9
$PELEVATION
 40
0.0
  9
$THICKNESS
 40
0.0
  9
$LIMCHECK
 70
     0
  9
$CHAMFERA
 40
10.0
  9
$CHAMFERB
 40
10.0
  9
$CHAMFERC
 40
20.0
  9
$CHAMFERD
 40
0.0
  9
$SKPOLY
 70
     0
  9
$TDCREATE
 40
2457149.471791944
  9
$TDUCREATE
 40
2457149.388458611
  9
$TDUPDATE
 40
2457149.471792662
  9
$TDUUPDATE
 40
2457149.388459329
  9
$TDINDWG
 40
0.0000000116
  9
$TDUSRTIMER
 40
0.0000000116
  9
$USRTIMER
 70
     1
  9
$ANGBASE
 50
0.0
  9
$ANGDIR
 70
     0
  9
$PDMODE
 70
     0
  9
$PDSIZE
 40
-1.0
  9
$PLINEWID
 40
0.0
  9
$SPLFRAME
 70
     0
  9
$SPLINETYPE
 70
     6
  9
$SPLINESEGS
 70
     8
  9
$HANDSEED
  5
4BC
  9
$SURFTAB1
 70
     6
  9
$SURFTAB2
 70
     6
  9
$SURFTYPE
 70
     6
  9
$SURFU
 70
     6
  9
$SURFV
 70
     6
  9
$UCSBASE
  2

  9
$UCSNAME
  2

  9
$UCSORG
 10
0.0
 20
0.0
 30
0.0
  9
$UCSXDIR
 10
1.0
 20
0.0
 30
0.0
  9
$UCSYDIR
 10
0.0
 20
1.0
 30
0.0
  9
$UCSORTHOREF
  2

  9
$UCSORTHOVIEW
 70
     0
  9
$UCSORGTOP
 10
0.0
 20
0.0
 30
0.0
  9
$UCSORGBOTTOM
 10
0.0
 20
0.0
 30
0.0
  9
$UCSORGLEFT
 10
0.0
 20
0.0
 30
0.0
  9
$UCSORGRIGHT
 10
0.0
 20
0.0
 30
0.0
  9
$UCSORGFRONT
 10
0.0
 20
0.0
 30
0.0
  9
$UCSORGBACK
 10
0.0
 20
0.0
 30
0.0
  9
$PUCSBASE
  2

  9
$PUCSNAME
  2

  9
$PUCSORG
 10
0.0
 20
0.0
 30
0.0
  9
$PUCSXDIR
 10
1.0
 20
0.0
 30
0.0
  9
$PUCSYDIR
 10
0.0
 20
1.0
 30
0.0
  9
$PUCSORTHOREF
  2

  9
$PUCSORTHOVIEW
 70
     0
  9
$PUCSORGTOP
 10
0.0
 20
0.0
 30
0.0
  9
$PUCSORGBOTTOM
 10
0.0
 20
0.0
 30
0.0
  9
$PUCSORGLEFT
 10
0.0
 20
0.0
 30
0.0
  9
$PUCSORGRIGHT
 10
0.0
 20
0.0
 30
0.0
  9
$PUCSORGFRONT
 10
0.0
 20
0.0
 30
0.0
  9
$PUCSORGBACK
 10
0.0
 20
0.0
 30
0.0
  9
$USERI1
 70
     0
  9
$USERI2
 70
     0
  9
$USERI3
 70
     0
  9
$USERI4
 70
     0
  9
$USERI5
 70
     0
  9
$USERR1
 40
0.0
  9
$USERR2
 40
0.0
  9
$USERR3
 40
0.0
  9
$USERR4
 40
0.0
  9
$USERR5
 40
0.0
  9
$WORLDVIEW
 70
     1
  9
$SHADEDGE
 70
     3
  9
$SHADEDIF
 70
    70
  9
$TILEMODE
 70
     1
  9
$MAXACTVP
 70
    64
  9
$PINSBASE
 10
0.0
 20
0.0
 30
0.0
  9
$PLIMCHECK
 70
     0
  9
$PEXTMIN
 10
1.0000000000E+20
 20
1.0000000000E+20
 30
1.0000000000E+20
  9
$PEXTMAX
 10
-1.0000000000E+20
 20
-1.0000000000E+20
 30
-1.0000000000E+20
  9
$PLIMMIN
 10
0.0
 20
0.0
  9
$PLIMMAX
 10
420.0
 20
297.0
  9
$UNITMODE
 70
     0
  9
$VISRETAIN
 70
     1
  9
$PLINEGEN
 70
     0
  9
$PSLTSCALE
 70
     1
  9
$TREEDEPTH
 70
  3020
  9
$CMLSTYLE
  2
Standard
  9
$CMLJUST
 70
     0
  9
$CMLSCALE
 40
20.0
  9
$PROXYGRAPHICS
 70
     1
  9
$MEASUREMENT
 70
     1
  9
$CELWEIGHT
370
    -1
  9
$ENDCAPS
280
     0
  9
$JOINSTYLE
280
     0
  9
$LWDISPLAY
290
     1
  9
$INSUNITS
 70
     4
  9
$HYPERLINKBASE
  1

  9
$STYLESHEET
  1

  9
$XEDIT
290
     1
  9
$CEPSNTYPE
380
     0
  9
$PSTYLEMODE
290
     1
  9
$FINGERPRINTGUID
  2
{7C5D83A6-E94E-44E8-A569-8FEDC8CF938D}
  9
$VERSIONGUID
  2
{FAEB1C32-E019-11D5-929B-00C0DF256EC4}
  9
$EXTNAMES
290
     1
  9
$PSVPSCALE
 40
0.0
  9
$OLESTARTUP
290
     0
  0
ENDSEC
  0
SECTION
  2
CLASSES
  0
CLASS
  1
ACDBDICTIONARYWDFLT
  2
AcDbDictionaryWithDefault
  3
ObjectDBX Classes
 90
        0
280
     0
281
     0
  0
CLASS
  1
VISUALSTYLE
  2
AcDbVisualStyle
  3
ObjectDBX Classes
 90
     4095
280
     0
281
     0
  0
CLASS
  1
MATERIAL
  2
AcDbMaterial
  3
ObjectDBX Classes
 90
     1153
280
     0
281
     0
  0
CLASS
  1
ACDBPLACEHOLDER
  2
AcDbPlaceHolder
  3
ObjectDBX Classes
 90
        0
280
     0
281
     0
  0
CLASS
  1
LAYOUT
  2
AcDbLayout
  3
ObjectDBX Classes
 90
        0
280
     0
281
     0
  0
ENDSEC
  0
SECTION
  2
TABLES
  0
TABLE
  2
VPORT
  5
8
330
0
100
AcDbSymbolTable
 70
     1
  0
VPORT
  5
29
330
8
100
AcDbSymbolTableRecord
100
AcDbViewportTableRecord
  2
*Active
 70
     0
 10
0.0
 20
0.0
 11
1.0
 21
1.0
 12
148.5
 22
105.0
 13
0.0
 23
0.0
 14
10.0
 24
10.0
 15
10.0
 25
10.0
 16
0.0
 26
0.0
 36
1.0
 17
0.0
 27
0.0
 37
0.0
 40
210.0
 41
1.4142857143
 42
50.0
 43
0.0
 44
0.0
 50
0.0
 51
0.0
 71
     0
 72
  2000
 73
     1
 74
     3
 75
     0
 76
     0
 77
     0
 78
     0
281
     0
 65
     1
110
0.0
120
0.0
130
0.0
111
1.0
121
0.0
131
0.0
112
0.0
122
1.0
132
0.0
 79
     0
146
0.0
  0
ENDTAB
  0
TABLE
  2
LTYPE
  5
5
330
0
100
AcDbSymbolTable
 70
     8
  0
LTYPE
  5
14
330
5
100
AcDbSymbolTableRecord
100
AcDbLinetypeTableRecord
  2
ByBlock
 70
     0
  3

 72
    65
 73
     0
 40
0.0
  0
LTYPE
  5
15
330
5
100
AcDbSymbolTableRecord
100
AcDbLinetypeTableRecord
  2
ByLayer
 70
     0
  3

 72
    65
 73
     0
 40
0.0
  0
LTYPE
  5
16
330
5
100
AcDbSymbolTableRecord
100
AcDbLinetypeTableRecord
  2
Continuous
 70
     0
  3
Solid line
 72
    65
 73
     0
 40
0.0
  0
LTYPE
  5
3F
330
5
100
AcDbSymbolTableRecord
100
AcDbLinetypeTableRecord
  2
SLD-Durchgehend
 70
     0
  3
SolidWorks Line Style
 72
    65
 73
     0
 40
0.0
  0
LTYPE
  5
40
330
5
100
AcDbSymbolTableRecord
100
AcDbLinetypeTableRecord
  2
SLD-Gestrichelt
 70
     0
  3
SolidWorks Line Style
 72
    65
 73
     2
 40
1.905
 49
1.27
 74
     0
 49
-0.635
 74
     0
  0
LTYPE
  5
41
330
5
100
AcDbSymbolTableRecord
100
AcDbLinetypeTableRecord
  2
SLD-Phantom
 70
     0
  3
SolidWorks Line Style
 72
    65
 73
     6
 40
12.7
 49
6.35
 74
     0
 49
-1.27
 74
     0
 49
1.27
 74
     0
 49
-1.27
 74
     0
 49
1.27
 74
     0
 49
-1.27
 74
     0
  0
LTYPE
  5
42
330
5
100
AcDbSymbolTableRecord
100
AcDbLinetypeTableRecord
  2
SLD-Kette
 70
     0
  3
SolidWorks Line Style
 72
    65
 73
     4
 40
10.16
 49
6.35
 74
     0
 49
-1.27
 74
     0
 49
1.27
 74
     0
 49
-1.27
 74
     0
  0
LTYPE
  5
43
330
5
100
AcDbSymbolTableRecord
100
AcDbLinetypeTableRecord
  2
SLD-Punktstrich
 70
     0
  3
SolidWorks Line Style
 72
    65
 73
     4
 40
19.05
 49
15.24
 74
     0
 49
-1.27
 74
     0
 49
1.27
 74
     0
 49
-1.27
 74
     0
  0
LTYPE
  5
44
330
5
100
AcDbSymbolTableRecord
100
AcDbLinetypeTableRecord
  2
SLD-Naht
 70
     0
  3
SolidWorks Line Style
 72
    65
 73
     2
 40
0.635
 49
0.0
 74
     0
 49
-0.635
 74
     0
  0
LTYPE
  5
45
330
5
100
AcDbSymbolTableRecord
100
AcDbLinetypeTableRecord
  2
SLD-Dicke-Dünne-Kette
 70
     0
  3
SolidWorks Line Style
 72
    65
 73
     4
 40
10.16
 49
6.35
 74
     0
 49
-1.27
 74
     0
 49
1.27
 74
     0
 49
-1.27
 74
     0
  0
ENDTAB
  0
TABLE
  2
LAYER
  5
2
330
0
100
AcDbSymbolTable
 70
     5
  0
LAYER
  5
10
330
2
100
AcDbSymbolTableRecord
100
AcDbLayerTableRecord
  2
0
 70
     0
 62
     7
  6
Continuous
370
    -3
390
F
  0
LAYER
  5
46
330
2
100
AcDbSymbolTableRecord
100
AcDbLayerTableRecord
  2
FORMAT
 70
     0
 62
     7
  6
SLD-Durchgehend
370
    -3
390
F
  0
LAYER
  5
47
330
2
100
AcDbSymbolTableRecord
100
AcDbLayerTableRecord
  2
VERMASSUNG
 70
     0
 62
     7
  6
SLD-Durchgehend
370
    -3
390
F
  0
LAYER
  5
48
330
2
100
AcDbSymbolTableRecord
100
AcDbLayerTableRecord
  2
KOPF_DÜNN
 70
     0
 62
     7
  6
SLD-Durchgehend
370
    -3
390
F
  0
LAYER
  5
49
330
2
100
AcDbSymbolTableRecord
100
AcDbLayerTableRecord
  2
KOPF_DICK
 70
     0
 62
     7
  6
SLD-Durchgehend
370
    15
390
F
  0
ENDTAB
  0
TABLE
  2
STYLE
  5
3
330
0
100
AcDbSymbolTable
 70
     2
  0
STYLE
  5
11
330
3
100
AcDbSymbolTableRecord
100
AcDbTextStyleTableRecord
  2
STANDARD
 70
     0
 40
0.0
 41
1.0
 50
0.0
 71
     0
 42
2.0
  3
ISOCPEUR.TTF
  4

1001
ACAD
1000
ISOCPEUR
1071
       34
  0
STYLE
  5
4A
330
3
100
AcDbSymbolTableRecord
100
AcDbTextStyleTableRecord
  2
SLDTEXTSTYLE0
 70
     0
 40
0.0
 41
1.0
 50
0.0
 71
     0
 42
0.2
  3
ISOCPEUR.TTF
  4

1001
ACAD
1000
ISOCPEUR
1071
      290
  0
ENDTAB
  0
TABLE
  2
VIEW
  5
6
330
0
100
AcDbSymbolTable
 70
     0
  0
ENDTAB
  0
TABLE
  2
UCS
  5
7
330
0
100
AcDbSymbolTable
 70
     0
  0
ENDTAB
  0
TABLE
  2
APPID
  5
9
330
0
100
AcDbSymbolTable
 70
     1
  0
APPID
  5
12
330
9
100
AcDbSymbolTableRecord
100
AcDbRegAppTableRecord
  2
ACAD
 70
     0
  0
ENDTAB
  0
TABLE
  2
DIMSTYLE
  5
A
330
0
100
AcDbSymbolTable
 70
     4
100
AcDbDimStyleTable
  0
DIMSTYLE
105
27
330
A
100
AcDbSymbolTableRecord
100
AcDbDimStyleTableRecord
  2
ISO-25
 70
     0
 41
2.5
 42
0.625
 43
3.75
 44
1.25
 73
     0
 74
     0
 77
     1
 78
     8
140
2.5
141
2.5
143
0.0393700787
147
0.625
171
     3
172
     1
178
     0
271
     2
272
     2
274
     3
278
    44
283
     0
284
     8
340
11
  0
DIMSTYLE
105
2A5
102
{ACAD_REACTORS
330
2A4
330
2AF
330
2D8
102
}
330
A
100
AcDbSymbolTableRecord
100
AcDbDimStyleTableRecord
  2
SLDDIMSTYLE0
 70
     0
 41
3.0
 44
0.0
 45
0.000000001
 73
     0
 74
     0
 77
     1
 78
    12
 79
     3
140
2.0
147
0.5
173
     1
178
     0
271
     2
272
     3
276
     2
284
    12
340
4A
  0
DIMSTYLE
105
2BA
102
{ACAD_REACTORS
330
2B9
330
2C5
102
}
330
A
100
AcDbSymbolTableRecord
100
AcDbDimStyleTableRecord
  2
SLDDIMSTYLE1
 70
     0
 41
3.0
 44
0.0
 45
0.000000001
 73
     0
 74
     0
 77
     1
 78
    12
 79
     3
140
2.0
147
0.5
172
     1
173
     1
178
     0
271
     2
272
     3
276
     2
284
    12
289
     0
340
4A
  0
DIMSTYLE
105
2D1
102
{ACAD_REACTORS
330
2D0
102
}
330
A
100
AcDbSymbolTableRecord
100
AcDbDimStyleTableRecord
  2
SLDDIMSTYLE2
 70
     0
 41
3.0
 44
0.0
 45
0.000000001
 73
     0
 74
     0
 77
     1
 78
    12
 79
     3
140
2.0
141
0.0
147
0.5
173
     1
178
     0
271
     2
272
     3
276
     2
279
     1
284
    12
340
4A
  0
ENDTAB
  0
TABLE
  2
BLOCK_RECORD
  5
1
330
0
100
AcDbSymbolTable
 70
     8
  0
BLOCK_RECORD
  5
1F
330
1
100
AcDbSymbolTableRecord
100
AcDbBlockTableRecord
  2
*Model_Space
340
22
  0
BLOCK_RECORD
  5
1B
330
1
100
AcDbSymbolTableRecord
100
AcDbBlockTableRecord
  2
*Paper_Space
340
1E
  0
BLOCK_RECORD
  5
23
330
1
100
AcDbSymbolTableRecord
100
AcDbBlockTableRecord
  2
*Paper_Space0
340
26
  0
BLOCK_RECORD
  5
2A6
330
1
100
AcDbSymbolTableRecord
100
AcDbBlockTableRecord
  2
_D
340
0
  0
BLOCK_RECORD
  5
2B0
330
1
100
AcDbSymbolTableRecord
100
AcDbBlockTableRecord
  2
_D_1
340
0
  0
BLOCK_RECORD
  5
2BB
330
1
100
AcDbSymbolTableRecord
100
AcDbBlockTableRecord
  2
_D_2
340
0
  0
BLOCK_RECORD
  5
2C6
330
1
100
AcDbSymbolTableRecord
100
AcDbBlockTableRecord
  2
_D_3
340
0
  0
BLOCK_RECORD
  5
2D2
330
1
100
AcDbSymbolTableRecord
100
AcDbBlockTableRecord
  2
_D_4
340
0
  0
BLOCK_RECORD
  5
2D9
330
1
100
AcDbSymbolTableRecord
100
AcDbBlockTableRecord
  2
_D_5
340
0
  0
BLOCK_RECORD
  5
4AF
330
1
100
AcDbSymbolTableRecord
100
AcDbBlockTableRecord
  2
SW_CENTERMARKSYMBOL_0
340
0
102
{BLKREFS
331
4BA
102
}
  0
ENDTAB
  0
ENDSEC
  0
SECTION
  2
BLOCKS
  0
BLOCK
  5
20
330
1F
100
AcDbEntity
  8
0
100
AcDbBlockBegin
  2
*Model_Space
 70
     0
 10
0.0
 20
0.0
 30
0.0
  3
*Model_Space
  1

  0
ENDBLK
  5
21
330
1F
100
AcDbEntity
  8
0
100
AcDbBlockEnd
  0
BLOCK
  5
1C
330
1B
100
AcDbEntity
 67
     1
  8
0
100
AcDbBlockBegin
  2
*Paper_Space
 70
     0
 10
0.0
 20
0.0
 30
0.0
  3
*Paper_Space
  1

  0
ENDBLK
  5
1D
330
1B
100
AcDbEntity
 67
     1
  8
0
100
AcDbBlockEnd
  0
BLOCK
  5
24
330
23
100
AcDbEntity
  8
0
100
AcDbBlockBegin
  2
*Paper_Space0
 70
     0
 10
0.0
 20
0.0
 30
0.0
  3
*Paper_Space0
  1

  0
ENDBLK
  5
25
330
23
100
AcDbEntity
  8
0
100
AcDbBlockEnd
  0
BLOCK
  5
2A7
330
2A6
100
AcDbEntity
  8
0
100
AcDbBlockBegin
  2
_D
 70
     0
 10
0.0
 20
0.0
 30
0.0
  3
_D
  1

  0
SOLID
  5
2A9
330
2A6
100
AcDbEntity
  8
VERMASSUNG
100
AcDbTrace
 10
288.1606451914
 20
156.248410523
 30
0.0
 11
285.1606451914
 21
156.698410523
 31
0.0
 12
285.1606451914
 22
155.798410523
 32
0.0
 13
285.1606451914
 23
155.798410523
 33
0.0
  0
SOLID
  5
2AA
330
2A6
100
AcDbEntity
  8
VERMASSUNG
100
AcDbTrace
 10
148.1606451914
 20
156.248410523
 30
0.0
 11
151.1606451914
 21
155.798410523
 31
0.0
 12
151.1606451914
 22
156.698410523
 32
0.0
 13
151.1606451914
 23
156.698410523
 33
0.0
  0
LINE
  5
2AB
330
2A6
100
AcDbEntity
  8
VERMASSUNG
100
AcDbLine
 10
288.1606451914
 20
154.656267437
 30
0.0
 11
288.1606451914
 21
157.248410523
 31
0.0
  0
LINE
  5
2AC
330
2A6
100
AcDbEntity
  8
VERMASSUNG
100
AcDbLine
 10
148.1606451914
 20
136.6187708191
 30
0.0
 11
148.1606451914
 21
157.248410523
 31
0.0
  0
LINE
  5
2AD
330
2A6
100
AcDbEntity
  8
VERMASSUNG
100
AcDbLine
 10
288.1606451914
 20
156.248410523
 30
0.0
 11
148.1606451914
 21
156.248410523
 31
0.0
  0
MTEXT
  5
2AE
330
2A6
100
AcDbEntity
  8
VERMASSUNG
100
AcDbMText
 10
215.2606449954
 20
158.8484104066
 30
0.1
 40
2.0
 41
0.0
 71
     1
 72
     1
  1
140
  7
SLDTEXTSTYLE0
 73
     1
 44
1.0
  0
ENDBLK
  5
2A8
330
2A6
100
AcDbEntity
  8
0
100
AcDbBlockEnd
  0
BLOCK
  5
2B1
330
2B0
100
AcDbEntity
  8
0
100
AcDbBlockBegin
  2
_D_1
 70
     0
 10
0.0
 20
0.0
 30
0.0
  3
_D_1
  1

  0
SOLID
  5
2B3
330
2B0
100
AcDbEntity
  8
VERMASSUNG
100
AcDbTrace
 10
148.1606451914
 20
149.025275373
 30
0.0
 11
151.1606451914
 21
148.575275373
 31
0.0
 12
151.1606451914
 22
149.475275373
 32
0.0
 13
151.1606451914
 23
149.475275373
 33
0.0
  0
SOLID
  5
2B4
330
2B0
100
AcDbEntity
  8
VERMASSUNG
100
AcDbTrace
 10
248.1606451914
 20
149.025275373
 30
0.0
 11
245.1606451914
 21
149.475275373
 31
0.0
 12
245.1606451914
 22
148.575275373
 32
0.0
 13
245.1606451914
 23
148.575275373
 33
0.0
  0
LINE
  5
2B5
330
2B0
100
AcDbEntity
  8
VERMASSUNG
100
AcDbLine
 10
148.1606451914
 20
136.6187708191
 30
0.0
 11
148.1606451914
 21
150.025275373
 31
0.0
  0
LINE
  5
2B6
330
2B0
100
AcDbEntity
  8
VERMASSUNG
100
AcDbLine
 10
248.1606451914
 20
134.2211247341
 30
0.0
 11
248.1606451914
 21
150.025275373
 31
0.0
  0
LINE
  5
2B7
330
2B0
100
AcDbEntity
  8
VERMASSUNG
100
AcDbLine
 10
148.1606451914
 20
149.025275373
 30
0.0
 11
248.1606451914
 21
149.025275373
 31
0.0
  0
MTEXT
  5
2B8
330
2B0
100
AcDbEntity
  8
VERMASSUNG
100
AcDbMText
 10
195.3606450584
 20
151.6252752566
 30
0.1
 40
2.0
 41
0.0
 71
     1
 72
     1
  1
100
  7
SLDTEXTSTYLE0
 73
     1
 44
1.0
  0
ENDBLK
  5
2B2
330
2B0
100
AcDbEntity
  8
0
100
AcDbBlockEnd
  0
BLOCK
  5
2BC
330
2BB
100
AcDbEntity
  8
0
100
AcDbBlockBegin
  2
_D_2
 70
     0
 10
0.0
 20
0.0
 30
0.0
  3
_D_2
  1

  0
SOLID
  5
2BE
330
2BB
100
AcDbEntity
  8
VERMASSUNG
100
AcDbTrace
 10
185.3410002784
 20
91.9187708191
 30
0.0
 11
184.8910002784
 21
88.9187708191
 31
0.0
 12
185.7910002784
 22
88.9187708191
 32
0.0
 13
185.7910002784
 23
88.9187708191
 33
0.0
  0
SOLID
  5
2BF
330
2BB
100
AcDbEntity
  8
VERMASSUNG
100
AcDbTrace
 10
185.3410002784
 20
131.9187708191
 30
0.0
 11
185.7910002784
 21
134.9187708191
 31
0.0
 12
184.8910002784
 22
134.9187708191
 32
0.0
 13
184.8910002784
 23
134.9187708191
 33
0.0
  0
LINE
  5
2C0
330
2BB
100
AcDbEntity
  8
VERMASSUNG
100
AcDbLine
 10
185.3410002784
 20
91.9187708191
 30
0.0
 11
185.3410002784
 21
85.9187708191
 31
0.0
  0
LINE
  5
2C1
330
2BB
100
AcDbEntity
  8
VERMASSUNG
100
AcDbLine
 10
185.3410002784
 20
91.9187708191
 30
0.0
 11
185.3410002784
 21
131.9187708191
 31
0.0
  0
LINE
  5
2C2
330
2BB
100
AcDbEntity
  8
VERMASSUNG
100
AcDbLine
 10
185.3410002784
 20
131.9187708191
 30
0.0
 11
185.3410002784
 21
144.6955219377
 31
0.0
  0
MTEXT
  5
2C3
330
2BB
100
AcDbEntity
  8
VERMASSUNG
100
AcDbMText
 10
182.7410002784
 20
136.2855216955
 30
0.1
 40
2.0
 41
0.0
 71
     1
 72
     1
  1
%%c
  7
SLDTEXTSTYLE0
 11
6.123233995736766E-17
 21
1.0
 31
0.0
 73
     1
 44
1.0
  0
MTEXT
  5
2C4
330
2BB
100
AcDbEntity
  8
VERMASSUNG
100
AcDbMText
 10
182.5410002689
 20
139.8955217098
 30
0.1
 40
2.0
 41
0.0
 71
     1
 72
     1
  1
40
  7
SLDTEXTSTYLE0
 11
6.123233995736766E-17
 21
1.0
 31
0.0
 73
     1
 44
1.0
  0
ENDBLK
  5
2BD
330
2BB
100
AcDbEntity
  8
0
100
AcDbBlockEnd
  0
BLOCK
  5
2C7
330
2C6
100
AcDbEntity
  8
0
100
AcDbBlockBegin
  2
_D_3
 70
     0
 10
0.0
 20
0.0
 30
0.0
  3
_D_3
  1

  0
SOLID
  5
2C9
330
2C6
100
AcDbEntity
  8
VERMASSUNG
100
AcDbTrace
 10
252.3832484293
 20
118.8182657557
 30
0.0
 11
251.9332484293
 21
115.8182657557
 31
0.0
 12
252.8332484293
 22
115.8182657557
 32
0.0
 13
252.8332484293
 23
115.8182657557
 33
0.0
  0
SOLID
  5
2CA
330
2C6
100
AcDbEntity
  8
VERMASSUNG
100
AcDbTrace
 10
252.3832484293
 20
124.8182657557
 30
0.0
 11
252.8332484293
 21
127.8182657557
 31
0.0
 12
251.9332484293
 22
127.8182657557
 32
0.0
 13
251.9332484293
 23
127.8182657557
 33
0.0
  0
LINE
  5
2CB
330
2C6
100
AcDbEntity
  8
VERMASSUNG
100
AcDbLine
 10
252.3832484293
 20
118.8182657557
 30
0.0
 11
252.3832484293
 21
112.8182657557
 31
0.0
  0
LINE
  5
2CC
330
2C6
100
AcDbEntity
  8
VERMASSUNG
100
AcDbLine
 10
252.3832484293
 20
118.8182657557
 30
0.0
 11
252.3832484293
 21
124.8182657557
 31
0.0
  0
LINE
  5
2CD
330
2C6
100
AcDbEntity
  8
VERMASSUNG
100
AcDbLine
 10
252.3832484293
 20
124.8182657557
 30
0.0
 11
252.3832484293
 21
140.1794200888
 31
0.0
  0
MTEXT
  5
2CE
330
2C6
100
AcDbEntity
  8
VERMASSUNG
100
AcDbMText
 10
249.7832484293
 20
133.3694199225
 30
0.1
 40
2.0
 41
0.0
 71
     1
 72
     1
  1
%%c
  7
SLDTEXTSTYLE0
 11
6.123233995736766E-17
 21
1.0
 31
0.0
 73
     1
 44
1.0
  0
MTEXT
  5
2CF
330
2C6
100
AcDbEntity
  8
VERMASSUNG
100
AcDbMText
 10
249.5832484198
 20
136.9794199368
 30
0.1
 40
2.0
 41
0.0
 71
     1
 72
     1
  1
6
  7
SLDTEXTSTYLE0
 11
6.123233995736766E-17
 21
1.0
 31
0.0
 73
     1
 44
1.0
  0
ENDBLK
  5
2C8
330
2C6
100
AcDbEntity
  8
0
100
AcDbBlockEnd
  0
BLOCK
  5
2D3
330
2D2
100
AcDbEntity
  8
0
100
AcDbBlockBegin
  2
_D_4
 70
     0
 10
0.0
 20
0.0
 30
0.0
  3
_D_4
  1

  0
SOLID
  5
2D5
330
2D2
100
AcDbEntity
  8
VERMASSUNG
100
AcDbTrace
 10
168.8368369037
 20
133.693394791
 30
0.0
 11
171.5800479226
 21
134.9884983797
 31
0.0
 12
171.0793383163
 22
135.7363552444
 32
0.0
 13
171.0793383163
 23
135.7363552444
 33
0.0
  0
LINE
  5
2D6
330
2D2
100
AcDbEntity
  8
VERMASSUNG
100
AcDbLine
 10
168.8368369037
 20
133.693394791
 30
0.0
 11
175.8999296621
 21
138.4223189492
 31
0.0
  0
MTEXT
  5
2D7
330
2D2
100
AcDbEntity
  8
VERMASSUNG
100
AcDbMText
 10
170.2986746549
 20
137.8010740074
 30
0.1
 40
2.0
 41
0.0
 71
     1
 72
     1
  1
R4
  7
SLDTEXTSTYLE0
 11
0.8309520719260813
 21
0.5563440070331958
 31
0.0
 73
     1
 44
1.0
  0
ENDBLK
  5
2D4
330
2D2
100
AcDbEntity
  8
0
100
AcDbBlockEnd
  0
BLOCK
  5
2DA
330
2D9
100
AcDbEntity
  8
0
100
AcDbBlockBegin
  2
_D_5
 70
     0
 10
0.0
 20
0.0
 30
0.0
  3
_D_5
  1

  0
SOLID
  5
2DC
330
2D9
100
AcDbEntity
  8
VERMASSUNG
100
AcDbTrace
 10
111.8970610299
 20
86.9187708191
 30
0.0
 11
112.3470610299
 21
89.9187708191
 31
0.0
 12
111.4470610299
 22
89.9187708191
 32
0.0
 13
111.4470610299
 23
89.9187708191
 33
0.0
  0
SOLID
  5
2DD
330
2D9
100
AcDbEntity
  8
VERMASSUNG
100
AcDbTrace
 10
111.8970610299
 20
136.9187708191
 30
0.0
 11
111.4470610299
 21
133.9187708191
 31
0.0
 12
112.3470610299
 22
133.9187708191
 32
0.0
 13
112.3470610299
 23
133.9187708191
 33
0.0
  0
LINE
  5
2DE
330
2D9
100
AcDbEntity
  8
VERMASSUNG
100
AcDbLine
 10
148.4606451914
 20
86.9187708191
 30
0.0
 11
110.8970610299
 21
86.9187708191
 31
0.0
  0
LINE
  5
2DF
330
2D9
100
AcDbEntity
  8
VERMASSUNG
100
AcDbLine
 10
148.4606451914
 20
136.9187708191
 30
0.0
 11
110.8970610299
 21
136.9187708191
 31
0.0
  0
LINE
  5
2E0
330
2D9
100
AcDbEntity
  8
VERMASSUNG
100
AcDbLine
 10
111.8970610299
 20
86.9187708191
 30
0.0
 11
111.8970610299
 21
136.9187708191
 31
0.0
  0
MTEXT
  5
2E1
330
2D9
100
AcDbEntity
  8
VERMASSUNG
100
AcDbMText
 10
109.0970610204
 20
104.9137703321
 30
0.1
 40
2.0
 41
0.0
 71
     1
 72
     1
  1
PSC 
  7
SLDTEXTSTYLE0
 11
6.123233995736766E-17
 21
1.0
 31
0.0
 73
     1
 44
1.0
  0
MTEXT
  5
2E2
330
2D9
100
AcDbEntity
  8
VERMASSUNG
100
AcDbMText
 10
109.2970610299
 20
110.713770724
 30
0.1
 40
2.0
 41
0.0
 71
     1
 72
     1
  1
%%c
  7
SLDTEXTSTYLE0
 11
6.123233995736766E-17
 21
1.0
 31
0.0
 73
     1
 44
1.0
  0
MTEXT
  5
2E3
330
2D9
100
AcDbEntity
  8
VERMASSUNG
100
AcDbMText
 10
109.0970610204
 20
114.3237707383
 30
0.1
 40
2.0
 41
0.0
 71
     1
 72
     1
  1
50
  7
SLDTEXTSTYLE0
 11
6.123233995736766E-17
 21
1.0
 31
0.0
 73
     1
 44
1.0
  0
ENDBLK
  5
2DB
330
2D9
100
AcDbEntity
  8
0
100
AcDbBlockEnd
  0
BLOCK
  5
4B0
330
4AF
100
AcDbEntity
  8
0
100
AcDbBlockBegin
  2
SW_CENTERMARKSYMBOL_0
 70
     0
 10
0.0
 20
0.0
 30
0.0
  3
SW_CENTERMARKSYMBOL_0
  1

  0
LINE
  5
4B2
330
4AF
100
AcDbEntity
  8
VERMASSUNG
 62
     0
100
AcDbLine
 10
0.0
 20
0.0
 30
0.0
 11
0.0
 21
2.5
 31
0.0
  0
LINE
  5
4B3
330
4AF
100
AcDbEntity
  8
VERMASSUNG
 62
     0
100
AcDbLine
 10
0.0
 20
0.0
 30
0.0
 11
-2.5
 21
0.0
 31
0.0
  0
LINE
  5
4B4
330
4AF
100
AcDbEntity
  8
VERMASSUNG
 62
     0
100
AcDbLine
 10
0.0
 20
0.0
 30
0.0
 11
0.0
 21
-2.5
 31
0.0
  0
LINE
  5
4B5
330
4AF
100
AcDbEntity
  8
VERMASSUNG
 62
     0
100
AcDbLine
 10
0.0
 20
0.0
 30
0.0
 11
2.5
 21
0.0
 31
0.0
  0
LINE
  5
4B6
330
4AF
100
AcDbEntity
  8
VERMASSUNG
 62
     0
100
AcDbLine
 10
0.0
 20
5.0
 30
0.0
 11
0.0
 21
34.0
 31
0.0
  0
LINE
  5
4B7
330
4AF
100
AcDbEntity
  8
VERMASSUNG
 62
     0
100
AcDbLine
 10
-5.0
 20
0.0
 30
0.0
 11
-34.0
 21
0.0
 31
0.0
  0
LINE
  5
4B8
330
4AF
100
AcDbEntity
  8
VERMASSUNG
 62
     0
100
AcDbLine
 10
0.0
 20
-5.0
 30
0.0
 11
0.0
 21
-34.0
 31
0.0
  0
LINE
  5
4B9
330
4AF
100
AcDbEntity
  8
VERMASSUNG
 62
     0
100
AcDbLine
 10
5.0
 20
0.0
 30
0.0
 11
34.0
 21
0.0
 31
0.0
  0
ENDBLK
  5
4B1
330
4AF
100
AcDbEntity
  8
0
100
AcDbBlockEnd
  0
ENDSEC
  0
SECTION
  2
ENTITIES
  0
MTEXT
  5
4B
330
1F
100
AcDbEntity
  8
KOPF_DÜNN
100
AcDbMText
 10
13.8892156294
 20
23.8770940835
 30
0.0
 40
3.0
 41
0.0
 71
     1
 72
     1
  1
PS5.WK1.040.140
  7
SLDTEXTSTYLE0
 73
     1
 44
1.0
  0
MTEXT
  5
4C
330
1F
100
AcDbEntity
  8
VERMASSUNG
100
AcDbMText
 10
13.9329988022
 20
28.9162328764
 30
0.0
 40
3.0
 41
0.0
 71
     1
 72
     1
  1
Bohrstange ø32
  7
SLDTEXTSTYLE0
 73
     1
 44
1.0
  0
MTEXT
  5
4D
330
1F
100
AcDbEntity
  8
VERMASSUNG
100
AcDbMText
 10
98.8601118557
 20
13.8584013384
 30
0.0
 40
2.0
 41
0.0
 71
     1
 72
     1
  1
Datum: 06.05.2015
  7
SLDTEXTSTYLE0
 73
     1
 44
1.0
  0
MTEXT
  5
4E
330
1F
100
AcDbEntity
  8
VERMASSUNG
100
AcDbMText
 10
13.933048693
 20
18.0701447943
 30
0.0
 40
2.0
 41
0.0
 71
     1
 72
     1
  1
PSC ø50 / Wechselkopf-Bohrstange
  7
SLDTEXTSTYLE0
 73
     1
 44
1.0
  0
MTEXT
  5
4F
330
1F
100
AcDbEntity
  8
VERMASSUNG
100
AcDbMText
 10
13.9808475933
 20
13.9309618897
 30
0.0
 40
2.0
 41
0.0
 71
     1
 72
     1
  1
Gewicht: 1205g
  7
SLDTEXTSTYLE0
 73
     1
 44
1.0
  0
ARC
  5
50
330
1F
100
AcDbEntity
  8
0
  6
SLD-Durchgehend
 62
     7
370
    15
100
AcDbCircle
 10
259.2606451914
 20
106.7192758825
 30
0.0
 40
0.3000000000000114
100
AcDbArc
 50
0.0
 51
90.0
  0
ARC
  5
51
330
1F
100
AcDbEntity
  8
0
  6
SLD-Durchgehend
 62
     7
370
    15
100
AcDbCircle
 10
259.2606451914
 20
97.3192758825
 30
0.0
 40
0.3000000000000114
100
AcDbArc
 50
270.0
 51
0.0
  0
LINE
  5
52
330
1F
100
AcDbEntity
  8
0
  6
SLD-Durchgehend
 62
     7
370
    15
100
AcDbLine
 10
259.2606483147
 20
107.0192760035
 30
0.0
 11
253.5606486842
 21
107.0192760035
 31
0.0
  0
LINE
  5
53
330
1F
100
AcDbEntity
  8
0
  6
SLD-Durchgehend
 62
     7
370
    15
100
AcDbLine
 10
253.5606486842
 20
97.0192757613
 30
0.0
 11
259.2606483147
 21
97.0192757613
 31
0.0
  0
ARC
  5
54
330
1F
100
AcDbEntity
  8
0
  6
SLD-Durchgehend
 62
     7
370
    15
100
AcDbCircle
 10
253.3106451914
 20
98.7692758825
 30
0.0
 40
0.25
100
AcDbArc
 50
0.0
 51
90.0
  0
ARC
  5
55
330
1F
100
AcDbEntity
  8
0
  6
SLD-Durchgehend
 62
     7
370
    15
100
AcDbCircle
 10
253.3106451914
 20
105.2692758825
 30
0.0
 40
0.25
100
AcDbArc
 50
270.0
 51
0.0
  0
LINE
  5
56
330
1F
100
AcDbEntity
  8
0
  6
SLD-Durchgehend
 62
     7
370
    15
100
AcDbLine
 10
253.3106444523
 20
105.0192756757
 30
0.0
 11
248.550751631
 21
105.0192756757
 31
0.0
  0
LINE
  5
57
330
1F
100
AcDbEntity
  8
0
  6
SLD-Durchgehend
 62
     7
370
    15
100
AcDbLine
 10
248.550751631
 20
99.0192760892
 30
0.0
 11
253.3106444523
 21
99.0192760892
 31
0.0
  0
ARC
  5
58
330
1F
100
AcDbEntity
  8
0
  6
SLD-Durchgehend
 62
     7
370
    15
100
AcDbCircle
 10
259.2606451914
 20
126.5182657557
 30
0.0
 40
0.3000000000000114
100
AcDbArc
 50
0.0
 51
90.0
  0
ARC
  5
59
330
1F
100
AcDbEntity
  8
0
  6
SLD-Durchgehend
 62
     7
370
    15
100
AcDbCircle
 10
259.2606451914
 20
117.1182657557
 30
0.0
 40
0.3000000000000114
100
AcDbArc
 50
270.0
 51
0.0
  0
LINE
  5
5A
330
1F
100
AcDbEntity
  8
0
  6
SLD-Durchgehend
 62
     7
370
    15
100
AcDbLine
 10
259.2606483147
 20
126.8182658769
 30
0.0
 11
253.5606486842
 21
126.8182658769
 31
0.0
  0
LINE
  5
5B
330
1F
100
AcDbEntity
  8
0
  6
SLD-Durchgehend
 62
     7
370
    15
100
AcDbLine
 10
253.5606486842
 20
116.8182656347
 30
0.0
 11
259.2606483147
 21
116.8182656347
 31
0.0
  0
ARC
  5
5C
330
1F
100
AcDbEntity
  8
0
  6
SLD-Durchgehend
 62
     7
370
    15
100
AcDbCircle
 10
253.3106451914
 20
118.5682657557
 30
0.0
 40
0.25
100
AcDbArc
 50
0.0
 51
90.0
  0
ARC
  5
5D
330
1F
100
AcDbEntity
  8
0
  6
SLD-Durchgehend
 62
     7
370
    15
100
AcDbCircle
 10
253.3106451914
 20
125.0682657557
 30
0.0
 40
0.25
100
AcDbArc
 50
270.0
 51
0.0
  0
LINE
  5
5E
330
1F
100
AcDbEntity
  8
0
  6
SLD-Durchgehend
 62
     7
370
    15
100
AcDbLine
 10
253.3106444523
 20
124.818265549
 30
0.0
 11
248.550751631
 21
124.818265549
 31
0.0
  0
LINE
  5
5F
330
1F
100
AcDbEntity
  8
0
  6
SLD-Durchgehend
 62
     7
370
    15
100
AcDbLine
 10
248.550751631
 20
118.8182659625
 30
0.0
 11
253.3106444523
 21
118.8182659625
 31
0.0
  0
LINE
  5
60
330
1F
100
AcDbEntity
  8
0
  6
SLD-Durchgehend
 62
     7
370
    15
100
AcDbLine
 10
162.1359115586
 20
86.9187704466
 30
0.0
 11
168.1606447444
 21
86.9187704466
 31
0.0
  0
LINE
  5
61
330
1F
100
AcDbEntity
  8
0
  6
SLD-Durchgehend
 62
     7
370
    15
100
AcDbLine
 10
148.4606452056
 20
86.9187704466
 30
0.0
 11
158.1606449679
 21
86.9187704466
 31
0.0
  0
LINE
  5
62
330
1F
100
AcDbEntity
  8
0
  6
SLD-Durchgehend
 62
     7
370
    15
100
AcDbLine
 10
168.1606447444
 20
136.9187711916
 30
0.0
 11
148.4606452056
 21
136.9187711916
 31
0.0
  0
ARC
  5
63
330
1F
100
AcDbEntity
  8
0
  6
SLD-Durchgehend
 62
     7
370
    15
100
AcDbCircle
 10
148.4606451914
 20
87.2187708191
 30
0.0
 40
0.3000000000000114
100
AcDbArc
 50
180.0
 51
270.0
  0
ARC
  5
64
330
1F
100
AcDbEntity
  8
0
  6
SLD-Durchgehend
 62
     7
370
    15
100
AcDbCircle
 10
148.4606451914
 20
136.6187708191
 30
0.0
 40
0.3000000000000114
100
AcDbArc
 50
90.0
 51
180.0
  0
ARC
  5
65
330
1F
100
AcDbEntity
  8
0
  6
SLD-Durchgehend
 62
     7
370
    15
100
AcDbCircle
 10
172.1606451914
 20
87.9187708191
 30
0.0
 40
4.0
100
AcDbArc
 50
90.0
 51
180.0
  0
ARC
  5
66
330
1F
100
AcDbEntity
  8
0
  6
SLD-Durchgehend
 62
     7
370
    15
100
AcDbCircle
 10
172.1606451914
 20
135.9187708191
 30
0.0
 40
4.0
100
AcDbArc
 50
180.0
 51
270.0
  0
LINE
  5
67
330
1F
100
AcDbEntity
  8
0
  6
SLD-Durchgehend
 62
     7
370
    15
100
AcDbLine
 10
247.4606422827
 20
131.9187703721
 30
0.0
 11
172.1606454
 21
131.9187703721
 31
0.0
  0
LINE
  5
68
330
1F
100
AcDbEntity
  8
0
  6
SLD-Durchgehend
 62
     7
370
    15
100
AcDbLine
 10
172.1606454
 20
91.9187712661
 30
0.0
 11
247.4606422827
 21
91.9187712661
 31
0.0
  0
LINE
  5
69
330
1F
100
AcDbEntity
  8
0
  6
SLD-Durchgehend
 62
     7
370
    15
100
AcDbLine
 10
247.4606422827
 20
91.9187712661
 30
0.0
 11
247.7958364532
 21
92.2539598487
 31
0.0
  0
LINE
  5
6A
330
1F
100
AcDbEntity
  8
0
  6
SLD-Durchgehend
 62
     7
370
    15
100
AcDbLine
 10
247.7958364532
 20
131.5835817895
 30
0.0
 11
247.4606422827
 21
131.9187703721
 31
0.0
  0
LWPOLYLINE
  5
6B
330
1F
100
AcDbEntity
  8
0
  6
SLD-Durchgehend
 62
     7
370
    15
100
AcDbPolyline
 90
        3
 70
   128
 43
0.0
 10
147.9606451964
 20
94.0789497636
 10
148.0861001316
 20
94.0106484286
 10
148.1606451914
 20
93.9579113565
  0
ARC
  5
6C
330
1F
100
AcDbEntity
  8
0
  6
SLD-Durchgehend
 62
     7
370
    15
100
AcDbCircle
 10
147.546431629
 20
130.6687708191
 30
0.0
 40
1.000000000000028
100
AcDbArc
 50
225.0
 51
307.8947985336
  0
LINE
  5
6D
330
1F
100
AcDbEntity
  8
0
  6
SLD-Durchgehend
 62
     7
370
    15
100
AcDbLine
 10
137.5872757405
 20
95.7290410242
 30
0.0
 11
145.9606452033
 21
95.5186720184
 31
0.0
  0
LINE
  5
6E
330
1F
100
AcDbEntity
  8
0
  6
SLD-Durchgehend
 62
     7
370
    15
100
AcDbLine
 10
125.5176695183
 20
96.0322703413
 30
0.0
 11
130.9236971781
 21
95.896451845
 31
0.0
  0
ARC
  5
6F
330
1F
100
AcDbEntity
  8
0
  6
SLD-Durchgehend
 62
     7
370
    15
100
AcDbCircle
 10
146.1605821023
 20
95.5136489234
 30
0.0
 40
0.2000000000000048
100
AcDbArc
 50
88.5608333333
 51
178.5608333333
  0
LINE
  5
70
330
1F
100
AcDbEntity
  8
0
  6
SLD-Durchgehend
 62
     7
370
    15
100
AcDbLine
 10
146.1656053204
 20
95.7135866574
 30
0.0
 11
147.7656682898
 21
95.6733870498
 31
0.0
  0
ARC
  5
71
330
1F
100
AcDbEntity
  8
0
  6
SLD-Durchgehend
 62
     7
370
    15
100
AcDbCircle
 10
147.7606451914
 20
95.4734497693
 30
0.0
 40
0.2000000000000171
100
AcDbArc
 50
0.0
 51
88.5608333333
  0
ARC
  5
72
330
1F
100
AcDbEntity
  8
0
  6
SLD-Durchgehend
 62
     7
370
    15
100
AcDbCircle
 10
146.1605821023
 20
130.5638927148
 30
0.0
 40
0.2000000000000052
100
AcDbArc
 50
181.4391666667
 51
271.4391666667
  0
LINE
  5
73
330
1F
100
AcDbEntity
  8
0
  6
SLD-Durchgehend
 62
     7
370
    15
100
AcDbLine
 10
145.9606452033
 20
130.5588699124
 30
0.0
 11
119.6606451765
 21
129.8981226228
 31
0.0
  0
LINE
  5
74
330
1F
100
AcDbEntity
  8
0
  6
SLD-Durchgehend
 62
     7
370
    15
100
AcDbLine
 10
146.4399189342
 20
130.3708470605
 30
0.0
 11
146.1656053204
 21
130.3639552734
 31
0.0
  0
LINE
  5
75
330
1F
100
AcDbEntity
  8
0
  6
SLD-Durchgehend
 62
     7
370
    15
100
AcDbLine
 10
119.6606451765
 20
129.8981226228
 30
0.0
 11
118.1606458619
 21
129.0320969365
 31
0.0
  0
LINE
  5
76
330
1F
100
AcDbEntity
  8
0
  6
SLD-Durchgehend
 62
     7
370
    15
100
AcDbLine
 10
146.8393248858
 20
129.9616648994
 30
0.0
 11
146.4467638059
 21
130.3542248152
 31
0.0
  0
LINE
  5
77
330
1F
100
AcDbEntity
  8
0
  6
SLD-Durchgehend
 62
     7
370
    15
100
AcDbLine
 10
259.5606459424
 20
106.7192760474
 30
0.0
 11
259.5606459424
 21
97.319276183
 31
0.0
  0
LINE
  5
78
330
1F
100
AcDbEntity
  8
0
  6
SLD-Durchgehend
 62
     7
370
    15
100
AcDbLine
 10
253.5606486842
 20
107.0192760035
 30
0.0
 11
253.5606486842
 21
97.0192757613
 31
0.0
  0
LINE
  5
79
330
1F
100
AcDbEntity
  8
0
  6
SLD-Durchgehend
 62
     7
370
    15
100
AcDbLine
 10
259.5606459424
 20
120.0559410445
 30
0.0
 11
259.5606459424
 21
117.1182655908
 31
0.0
  0
LINE
  5
7A
330
1F
100
AcDbEntity
  8
0
  6
SLD-Durchgehend
 62
     7
370
    15
100
AcDbLine
 10
259.5606459424
 20
126.5182654552
 30
0.0
 11
259.5606459424
 21
120.0559410445
 31
0.0
  0
LINE
  5
7B
330
1F
100
AcDbEntity
  8
0
  6
SLD-Durchgehend
 62
     7
370
    15
100
AcDbLine
 10
253.5606486842
 20
119.9434521786
 30
0.0
 11
253.5606486842
 21
116.8182656347
 31
0.0
  0
LINE
  5
7C
330
1F
100
AcDbEntity
  8
0
  6
SLD-Durchgehend
 62
     7
370
    15
100
AcDbLine
 10
253.5606486842
 20
126.8182658769
 30
0.0
 11
253.5606486842
 21
119.9434521786
 31
0.0
  0
ARC
  5
7D
330
1F
100
AcDbEntity
  8
0
  6
SLD-Durchgehend
 62
     7
370
    15
100
AcDbCircle
 10
160.1605803685
 20
61.9623218392
 30
0.0
 40
25.0364547949486
100
AcDbArc
 50
85.4747630076
 51
94.581721871
  0
ARC
  5
7E
330
1F
100
AcDbEntity
  8
0
  6
SLD-Durchgehend
 62
     7
370
    15
100
AcDbCircle
 10
156.6538890583
 20
88.6317553526
 30
0.0
 40
0.5408182585921131
100
AcDbArc
 50
222.5365258507
 51
273.658867817
  0
LINE
  5
7F
330
1F
100
AcDbEntity
  8
0
  6
SLD-Durchgehend
 62
     7
370
    15
100
AcDbLine
 10
159.6328880757
 20
88.0920394502
 30
0.0
 11
156.68840186
 21
88.0920394502
 31
0.0
  0
ARC
  5
80
330
1F
100
AcDbEntity
  8
0
  6
SLD-Durchgehend
 62
     7
370
    15
100
AcDbCircle
 10
159.6509544846
 20
88.6726622885
 30
0.0
 40
0.5809038435613106
100
AcDbArc
 50
268.2177843505
 51
315.5868219817
  0
ELLIPSE
  5
81
330
1F
100
AcDbEntity
  8
0
  6
SLD-Durchgehend
 62
     7
370
    15
100
AcDbEllipse
 10
147.1043875364
 20
111.9187708191
 30
0.0
 11
-11.70927234972726
 21
24.67718644093744
 31
0.0
210
0.0
220
0.0
230
1.0
 40
0.3419987131
 41
3.310521928178944
 42
4.221709151398938
  0
ARC
  5
82
330
1F
100
AcDbEntity
  8
0
  6
SLD-Durchgehend
 62
     7
370
    15
100
AcDbCircle
 10
159.451792447
 20
103.7598450513
 30
0.0
 40
0.6172779654842437
100
AcDbArc
 50
5.8086897983
 51
72.9397135828
  0
LINE
  5
83
330
1F
100
AcDbEntity
  8
0
  6
SLD-Durchgehend
 62
     7
370
    15
100
AcDbLine
 10
156.68840186
 20
104.349960684
 30
0.0
 11
159.6328880757
 21
104.349960684
 31
0.0
  0
LWPOLYLINE
  5
84
330
1F
100
AcDbEntity
  8
0
  6
SLD-Durchgehend
 62
     7
370
    15
100
AcDbPolyline
 90
        6
 70
   128
 43
0.0
 10
156.2553890169
 20
103.8223180167
 10
156.3883837432
 20
104.141193553
 10
156.4674846947
 20
104.242934025
 10
156.5728852645
 20
104.3218980722
 10
156.653201592
 20
104.3473893023
 10
156.68840186
 20
104.349960684
  0
ELLIPSE
  5
85
330
1F
100
AcDbEntity
  8
0
  6
SLD-Durchgehend
 62
     7
370
    15
100
AcDbEllipse
 10
169.2169028464
 20
111.9187708191
 30
0.0
 11
11.70927234972711
 21
24.67718644093746
 31
0.0
210
0.0
220
0.0
230
1.0
 40
0.3419987131
 41
2.061476155780658
 42
2.972663379000675
  0
ARC
  5
86
330
1F
100
AcDbEntity
  8
0
  6
SLD-Durchgehend
 62
     7
370
    15
100
AcDbCircle
 10
156.8694974888
 20
120.0776965869
 30
0.0
 40
0.6172779654842735
100
AcDbArc
 50
185.8086897983
 51
252.9397135828
  0
LINE
  5
87
330
1F
100
AcDbEntity
  8
0
  6
SLD-Durchgehend
 62
     7
370
    15
100
AcDbLine
 10
159.6328880757
 20
119.4875809542
 30
0.0
 11
156.68840186
 21
119.4875809542
 31
0.0
  0
LWPOLYLINE
  5
88
330
1F
100
AcDbEntity
  8
0
  6
SLD-Durchgehend
 62
     7
370
    15
100
AcDbPolyline
 90
        6
 70
   128
 43
0.0
 10
160.0659009189
 20
120.0152236215
 10
159.9419754118
 20
119.7110010489
 10
159.863122192
 20
119.6044442422
 10
159.7571684167
 20
119.5201395258
 10
159.6767347425
 20
119.4915735341
 10
159.6328880757
 20
119.4875809542
  0
ELLIPSE
  5
89
330
1F
100
AcDbEntity
  8
0
  6
SLD-Durchgehend
 62
     7
370
    15
100
AcDbEllipse
 10
147.1043875364
 20
111.9187708191
 30
0.0
 11
11.70927234972714
 21
24.67718644093743
 31
0.0
210
0.0
220
0.0
230
1.0
 40
0.3419987131
 41
5.20306880937046
 42
6.114256032590505
  0
ARC
  5
8A
330
1F
100
AcDbEntity
  8
0
  6
SLD-Durchgehend
 62
     7
370
    15
100
AcDbCircle
 10
159.6674008775
 20
135.2057862856
 30
0.0
 40
0.5408182585920729
100
AcDbArc
 50
42.5365258507
 51
93.658867817
  0
LINE
  5
8B
330
1F
100
AcDbEntity
  8
0
  6
SLD-Durchgehend
 62
     7
370
    15
100
AcDbLine
 10
156.68840186
 20
135.745502188
 30
0.0
 11
159.6328880757
 21
135.745502188
 31
0.0
  0
ARC
  5
8C
330
1F
100
AcDbEntity
  8
0
  6
SLD-Durchgehend
 62
     7
370
    15
100
AcDbCircle
 10
156.669162967
 20
135.1677956571
 30
0.0
 40
0.5780267908219461
100
AcDbArc
 50
88.0926299303
 51
135.7119764019
  0
ELLIPSE
  5
8D
330
1F
100
AcDbEntity
  8
0
  6
SLD-Durchgehend
 62
     7
370
    15
100
AcDbEllipse
 10
169.2169028464
 20
111.9187708191
 30
0.0
 11
-11.70927234972703
 21
24.67718644093743
 31
0.0
210
0.0
220
0.0
230
1.0
 40
0.3419987131
 41
0.1689292745891252
 42
1.08011649780914
  0
LINE
  5
8E
330
1F
100
AcDbEntity
  8
0
  6
SLD-Durchgehend
 62
     7
370
    15
100
AcDbLine
 10
168.1606447444
 20
111.9187708191
 30
0.0
 11
168.1606447444
 21
136.9187711916
 31
0.0
  0
LINE
  5
8F
330
1F
100
AcDbEntity
  8
0
  6
SLD-Durchgehend
 62
     7
370
    15
100
AcDbLine
 10
168.1606447444
 20
86.9187704466
 30
0.0
 11
168.1606447444
 21
111.9187708191
 31
0.0
  0
LINE
  5
90
330
1F
100
AcDbEntity
  8
0
  6
SLD-Durchgehend
 62
     7
370
    15
100
AcDbLine
 10
148.1606451914
 20
111.9187708191
 30
0.0
 11
148.1606451914
 21
136.6187717013
 31
0.0
  0
LINE
  5
91
330
1F
100
AcDbEntity
  8
0
  6
SLD-Durchgehend
 62
     7
370
    15
100
AcDbLine
 10
148.1606451914
 20
87.218769937
 30
0.0
 11
148.1606451914
 21
111.9187708191
 31
0.0
  0
LINE
  5
92
330
1F
100
AcDbEntity
  8
0
  6
SLD-Durchgehend
 62
     7
370
    15
100
AcDbLine
 10
247.4606422827
 20
131.9187703721
 30
0.0
 11
247.4606422827
 21
91.9187712661
 31
0.0
  0
LINE
  5
93
330
1F
100
AcDbEntity
  8
0
  6
SLD-Durchgehend
 62
     7
370
    15
100
AcDbLine
 10
247.7954564736
 20
131.5832073979
 30
0.0
 11
247.6906417057
 21
131.5226937822
 31
0.0
  0
LWPOLYLINE
  5
94
330
1F
100
AcDbEntity
  8
0
  6
SLD-Durchgehend
 62
     7
370
    15
100
AcDbPolyline
 90
       12
 70
   128
 43
0.0
 10
247.6906417057
 20
131.5226937822
 10
247.6774616286
 20
131.5138722948
 10
247.6315362498
 20
131.4041792593
 10
247.644910042
 20
131.3620275996
 10
247.6511834309
 20
131.351632177
 10
247.6553334043
 20
131.3458598397
 10
247.6600496218
 20
131.3400744639
 10
247.6639462754
 20
131.3358090065
 10
247.6681782052
 20
131.3316012911
 10
247.673013632
 20
131.3272650532
 10
247.6799873755
 20
131.3217795632
 10
247.6906417057
 20
131.3148486606
  0
LWPOLYLINE
  5
95
330
1F
100
AcDbEntity
  8
0
  6
SLD-Durchgehend
 62
     7
370
    15
100
AcDbPolyline
 90
        4
 70
   128
 43
0.0
 10
247.6906417057
 20
131.3148486606
 10
248.1881467745
 20
131.0276157401
 10
248.5029338047
 20
130.8458718649
 10
248.560646002
 20
130.8125528685
  0
LINE
  5
96
330
1F
100
AcDbEntity
  8
0
  6
SLD-Durchgehend
 62
     7
370
    15
100
AcDbLine
 10
248.560646002
 20
130.8125528685
 30
0.0
 11
248.560646002
 21
130.5249883972
 31
0.0
  0
LWPOLYLINE
  5
97
330
1F
100
AcDbEntity
  8
0
  6
SLD-Durchgehend
 62
     7
370
    15
100
AcDbPolyline
 90
        3
 70
   128
 43
0.0
 10
248.560646002
 20
130.5249883972
 10
248.2105283186
 20
130.3228485576
 10
247.6906417057
 20
130.0226944677
  0
ARC
  5
98
330
1F
100
AcDbEntity
  8
0
  6
SLD-Durchgehend
 62
     7
370
    15
100
AcDbCircle
 10
247.7506561133
 20
129.9187709756
 30
0.0
 40
0.1200075886402603
100
AcDbArc
 50
120.0058511848
 51
239.9941488152
  0
LINE
  5
99
330
1F
100
AcDbEntity
  8
0
  6
SLD-Durchgehend
 62
     7
370
    15
100
AcDbLine
 10
247.6906417057
 20
129.8148474834
 30
0.0
 11
248.560646002
 21
129.312553554
 31
0.0
  0
LINE
  5
9A
330
1F
100
AcDbEntity
  8
0
  6
SLD-Durchgehend
 62
     7
370
    15
100
AcDbLine
 10
248.560646002
 20
129.312553554
 30
0.0
 11
248.560646002
 21
129.0249890826
 31
0.0
  0
LINE
  5
9B
330
1F
100
AcDbEntity
  8
0
  6
SLD-Durchgehend
 62
     7
370
    15
100
AcDbLine
 10
248.560646002
 20
129.0249890826
 30
0.0
 11
247.6906417057
 21
128.5226932905
 31
0.0
  0
LWPOLYLINE
  5
9C
330
1F
100
AcDbEntity
  8
0
  6
SLD-Durchgehend
 62
     7
370
    15
100
AcDbPolyline
 90
       10
 70
   128
 43
0.0
 10
247.6906417057
 20
128.5226932905
 10
247.6356415197
 20
128.4530378125
 10
247.6310594127
 20
128.4087683252
 10
247.634143953
 20
128.3900208018
 10
247.641765897
 20
128.3683191232
 10
247.6499466345
 20
128.3535036437
 10
247.6611895606
 20
128.3387831591
 10
247.672551696
 20
128.3276613049
 10
247.688913171
 20
128.3158688984
 10
247.6906417057
 20
128.3148481689
  0
LINE
  5
9D
330
1F
100
AcDbEntity
  8
0
  6
SLD-Durchgehend
 62
     7
370
    15
100
AcDbLine
 10
247.6906417057
 20
128.3148481689
 30
0.0
 11
248.560646002
 21
127.8125523768
 31
0.0
  0
LINE
  5
9E
330
1F
100
AcDbEntity
  8
0
  6
SLD-Durchgehend
 62
     7
370
    15
100
AcDbLine
 10
248.560646002
 20
127.8125523768
 30
0.0
 11
248.560646002
 21
127.5249888367
 31
0.0
  0
LINE
  5
9F
330
1F
100
AcDbEntity
  8
0
  6
SLD-Durchgehend
 62
     7
370
    15
100
AcDbLine
 10
248.560646002
 20
127.5249888367
 30
0.0
 11
247.6906417057
 21
127.022693976
 31
0.0
  0
LWPOLYLINE
  5
A0
330
1F
100
AcDbEntity
  8
0
  6
SLD-Durchgehend
 62
     7
370
    15
100
AcDbPolyline
 90
        9
 70
   128
 43
0.0
 10
247.6906417057
 20
127.022693976
 10
247.6383684322
 20
126.9611326225
 10
247.6313797876
 20
126.9054898239
 10
247.6371763393
 20
126.8797117464
 10
247.6455209896
 20
126.8608943737
 10
247.6581944272
 20
126.8422697849
 10
247.6712105915
 20
126.8288270749
 10
247.6902170226
 20
126.8150984488
 10
247.6906417057
 20
126.814847923
  0
LINE
  5
A1
330
1F
100
AcDbEntity
  8
0
  6
SLD-Durchgehend
 62
     7
370
    15
100
AcDbLine
 10
247.6906417057
 20
126.814847923
 30
0.0
 11
248.560646002
 21
126.3125530622
 31
0.0
  0
LINE
  5
A2
330
1F
100
AcDbEntity
  8
0
  6
SLD-Durchgehend
 62
     7
370
    15
100
AcDbLine
 10
248.560646002
 20
126.3125530622
 30
0.0
 11
248.560646002
 21
126.0249885909
 31
0.0
  0
LINE
  5
A3
330
1F
100
AcDbEntity
  8
0
  6
SLD-Durchgehend
 62
     7
370
    15
100
AcDbLine
 10
248.560646002
 20
126.0249885909
 30
0.0
 11
247.6906417057
 21
125.5226937301
 31
0.0
  0
ARC
  5
A4
330
1F
100
AcDbEntity
  8
0
  6
SLD-Durchgehend
 62
     7
370
    15
100
AcDbCircle
 10
247.7506500071
 20
125.4187707036
 30
0.0
 40
0.1200041318836491
100
AcDbArc
 50
120.0034377343
 51
239.9965622657
  0
LINE
  5
A5
330
1F
100
AcDbEntity
  8
0
  6
SLD-Durchgehend
 62
     7
370
    15
100
AcDbLine
 10
247.6906417057
 20
125.3148476771
 30
0.0
 11
248.560646002
 21
124.8125528164
 31
0.0
  0
LINE
  5
A6
330
1F
100
AcDbEntity
  8
0
  6
SLD-Durchgehend
 62
     7
370
    15
100
AcDbLine
 10
248.560646002
 20
124.8125528164
 30
0.0
 11
248.560646002
 21
124.524988345
 31
0.0
  0
LINE
  5
A7
330
1F
100
AcDbEntity
  8
0
  6
SLD-Durchgehend
 62
     7
370
    15
100
AcDbLine
 10
248.560646002
 20
124.524988345
 30
0.0
 11
247.6906417057
 21
124.0226934842
 31
0.0
  0
ARC
  5
A8
330
1F
100
AcDbEntity
  8
0
  6
SLD-Durchgehend
 62
     7
370
    15
100
AcDbCircle
 10
247.7506544572
 20
123.9187704577
 30
0.0
 40
0.1200063572134921
100
AcDbArc
 50
120.0052776637
 51
239.9947223363
  0
LINE
  5
A9
330
1F
100
AcDbEntity
  8
0
  6
SLD-Durchgehend
 62
     7
370
    15
100
AcDbLine
 10
247.6906417057
 20
123.8148474313
 30
0.0
 11
248.560646002
 21
123.3125535018
 31
0.0
  0
LINE
  5
AA
330
1F
100
AcDbEntity
  8
0
  6
SLD-Durchgehend
 62
     7
370
    15
100
AcDbLine
 10
248.560646002
 20
123.3125535018
 30
0.0
 11
248.560646002
 21
123.0249890305
 31
0.0
  0
LINE
  5
AB
330
1F
100
AcDbEntity
  8
0
  6
SLD-Durchgehend
 62
     7
370
    15
100
AcDbLine
 10
248.560646002
 20
123.0249890305
 30
0.0
 11
247.6906417057
 21
122.5226941697
 31
0.0
  0
ARC
  5
AC
330
1F
100
AcDbEntity
  8
0
  6
SLD-Durchgehend
 62
     7
370
    15
100
AcDbCircle
 10
247.7506520168
 20
122.4187711432
 30
0.0
 40
0.1200051368591281
100
AcDbArc
 50
120.0042686812
 51
239.9957313188
  0
LINE
  5
AD
330
1F
100
AcDbEntity
  8
0
  6
SLD-Durchgehend
 62
     7
370
    15
100
AcDbLine
 10
247.6906417057
 20
122.3148481167
 30
0.0
 11
248.560646002
 21
121.812553256
 31
0.0
  0
LINE
  5
AE
330
1F
100
AcDbEntity
  8
0
  6
SLD-Durchgehend
 62
     7
370
    15
100
AcDbLine
 10
248.560646002
 20
121.812553256
 30
0.0
 11
248.560646002
 21
121.5249887846
 31
0.0
  0
LINE
  5
AF
330
1F
100
AcDbEntity
  8
0
  6
SLD-Durchgehend
 62
     7
370
    15
100
AcDbLine
 10
248.560646002
 20
121.5249887846
 30
0.0
 11
247.6906417057
 21
121.0226939238
 31
0.0
  0
ARC
  5
B0
330
1F
100
AcDbEntity
  8
0
  6
SLD-Durchgehend
 62
     7
370
    15
100
AcDbCircle
 10
247.7506489659
 20
120.9187708973
 30
0.0
 40
0.1200036112294991
100
AcDbArc
 50
120.0030072266
 51
239.9969927734
  0
LINE
  5
B1
330
1F
100
AcDbEntity
  8
0
  6
SLD-Durchgehend
 62
     7
370
    15
100
AcDbLine
 10
247.6906417057
 20
120.8148478709
 30
0.0
 11
248.560646002
 21
120.3125530101
 31
0.0
  0
LINE
  5
B2
330
1F
100
AcDbEntity
  8
0
  6
SLD-Durchgehend
 62
     7
370
    15
100
AcDbLine
 10
248.560646002
 20
120.3125530101
 30
0.0
 11
248.560646002
 21
120.0249885387
 31
0.0
  0
LINE
  5
B3
330
1F
100
AcDbEntity
  8
0
  6
SLD-Durchgehend
 62
     7
370
    15
100
AcDbLine
 10
248.560646002
 20
120.0249885387
 30
0.0
 11
247.6906417057
 21
119.5226936779
 31
0.0
  0
ARC
  5
B4
330
1F
100
AcDbEntity
  8
0
  6
SLD-Durchgehend
 62
     7
370
    15
100
AcDbCircle
 10
247.750644946
 20
119.4187706515
 30
0.0
 40
0.1200016011567028
100
AcDbArc
 50
120.0013450917
 51
239.9986549083
  0
LINE
  5
B5
330
1F
100
AcDbEntity
  8
0
  6
SLD-Durchgehend
 62
     7
370
    15
100
AcDbLine
 10
247.6906417057
 20
119.314847625
 30
0.0
 11
248.560646002
 21
118.8125532299
 31
0.0
  0
LINE
  5
B6
330
1F
100
AcDbEntity
  8
0
  6
SLD-Durchgehend
 62
     7
370
    15
100
AcDbLine
 10
248.560646002
 20
118.8125532299
 30
0.0
 11
248.560646002
 21
118.5249887585
 31
0.0
  0
LINE
  5
B7
330
1F
100
AcDbEntity
  8
0
  6
SLD-Durchgehend
 62
     7
370
    15
100
AcDbLine
 10
248.560646002
 20
118.5249887585
 30
0.0
 11
247.6906417057
 21
118.0226938977
 31
0.0
  0
ARC
  5
B8
330
1F
100
AcDbEntity
  8
0
  6
SLD-Durchgehend
 62
     7
370
    15
100
AcDbCircle
 10
247.7506478013
 20
117.9187708713
 30
0.0
 40
0.1200030288758809
100
AcDbArc
 50
120.0025256911
 51
239.9974743089
  0
LINE
  5
B9
330
1F
100
AcDbEntity
  8
0
  6
SLD-Durchgehend
 62
     7
370
    15
100
AcDbLine
 10
247.6906417057
 20
117.8148478448
 30
0.0
 11
248.560646002
 21
117.312552984
 31
0.0
  0
LINE
  5
BA
330
1F
100
AcDbEntity
  8
0
  6
SLD-Durchgehend
 62
     7
370
    15
100
AcDbLine
 10
248.560646002
 20
117.312552984
 30
0.0
 11
248.560646002
 21
117.0249885126
 31
0.0
  0
LINE
  5
BB
330
1F
100
AcDbEntity
  8
0
  6
SLD-Durchgehend
 62
     7
370
    15
100
AcDbLine
 10
248.560646002
 20
117.0249885126
 30
0.0
 11
247.6906417057
 21
116.5226936519
 31
0.0
  0
ARC
  5
BC
330
1F
100
AcDbEntity
  8
0
  6
SLD-Durchgehend
 62
     7
370
    15
100
AcDbCircle
 10
247.7506479066
 20
116.4187706254
 30
0.0
 40
0.1200030815348757
100
AcDbArc
 50
120.0025692342
 51
239.9974307658
  0
LINE
  5
BD
330
1F
100
AcDbEntity
  8
0
  6
SLD-Durchgehend
 62
     7
370
    15
100
AcDbLine
 10
247.6906417057
 20
116.3148475989
 30
0.0
 11
248.560646002
 21
115.812552971
 31
0.0
  0
LINE
  5
BE
330
1F
100
AcDbEntity
  8
0
  6
SLD-Durchgehend
 62
     7
370
    15
100
AcDbLine
 10
248.560646002
 20
115.812552971
 30
0.0
 11
248.560646002
 21
115.5249884996
 31
0.0
  0
LINE
  5
BF
330
1F
100
AcDbEntity
  8
0
  6
SLD-Durchgehend
 62
     7
370
    15
100
AcDbLine
 10
248.560646002
 20
115.5249884996
 30
0.0
 11
247.6906417057
 21
115.0226938717
 31
0.0
  0
ARC
  5
C0
330
1F
100
AcDbEntity
  8
0
  6
SLD-Durchgehend
 62
     7
370
    15
100
AcDbCircle
 10
247.7506456663
 20
114.9187708452
 30
0.0
 40
0.1200019612808849
100
AcDbArc
 50
120.0016428897
 51
239.9983571103
  0
LINE
  5
C1
330
1F
100
AcDbEntity
  8
0
  6
SLD-Durchgehend
 62
     7
370
    15
100
AcDbLine
 10
247.6906417057
 20
114.8148478187
 30
0.0
 11
248.560646002
 21
114.3125529579
 31
0.0
  0
LINE
  5
C2
330
1F
100
AcDbEntity
  8
0
  6
SLD-Durchgehend
 62
     7
370
    15
100
AcDbLine
 10
248.560646002
 20
114.3125529579
 30
0.0
 11
248.560646002
 21
114.0249884866
 31
0.0
  0
LINE
  5
C3
330
1F
100
AcDbEntity
  8
0
  6
SLD-Durchgehend
 62
     7
370
    15
100
AcDbLine
 10
248.560646002
 20
114.0249884866
 30
0.0
 11
247.6906417057
 21
113.5226938586
 31
0.0
  0
ARC
  5
C4
330
1F
100
AcDbEntity
  8
0
  6
SLD-Durchgehend
 62
     7
370
    15
100
AcDbCircle
 10
247.7506503552
 20
113.4187708321
 30
0.0
 40
0.1200043059313803
100
AcDbArc
 50
120.0035816452
 51
239.9964183548
  0
LINE
  5
C5
330
1F
100
AcDbEntity
  8
0
  6
SLD-Durchgehend
 62
     7
370
    15
100
AcDbLine
 10
247.6906417057
 20
113.3148478057
 30
0.0
 11
248.560646002
 21
112.8125530613
 31
0.0
  0
LINE
  5
C6
330
1F
100
AcDbEntity
  8
0
  6
SLD-Durchgehend
 62
     7
370
    15
100
AcDbLine
 10
248.560646002
 20
112.8125530613
 30
0.0
 11
248.560646002
 21
112.5249885899
 31
0.0
  0
LINE
  5
C7
330
1F
100
AcDbEntity
  8
0
  6
SLD-Durchgehend
 62
     7
370
    15
100
AcDbLine
 10
248.560646002
 20
112.5249885899
 30
0.0
 11
247.6906417057
 21
112.0226938674
 31
0.0
  0
ARC
  5
C8
330
1F
100
AcDbEntity
  8
0
  6
SLD-Durchgehend
 62
     7
370
    15
100
AcDbCircle
 10
247.7506490159
 20
111.9187708191
 30
0.0
 40
0.1200036551233174
100
AcDbArc
 50
120.0030226795
 51
239.9969773205
  0
LINE
  5
C9
330
1F
100
AcDbEntity
  8
0
  6
SLD-Durchgehend
 62
     7
370
    15
100
AcDbLine
 10
247.6906417057
 20
111.8148477708
 30
0.0
 11
248.560646002
 21
111.3125530483
 31
0.0
  0
LINE
  5
CA
330
1F
100
AcDbEntity
  8
0
  6
SLD-Durchgehend
 62
     7
370
    15
100
AcDbLine
 10
248.560646002
 20
111.3125530483
 30
0.0
 11
248.560646002
 21
111.0249885769
 31
0.0
  0
LINE
  5
CB
330
1F
100
AcDbEntity
  8
0
  6
SLD-Durchgehend
 62
     7
370
    15
100
AcDbLine
 10
248.560646002
 20
111.0249885769
 30
0.0
 11
247.6906417057
 21
110.5226938325
 31
0.0
  0
ARC
  5
CC
330
1F
100
AcDbEntity
  8
0
  6
SLD-Durchgehend
 62
     7
370
    15
100
AcDbCircle
 10
247.7506538332
 20
110.4187708061
 30
0.0
 40
0.1200060451705633
100
AcDbArc
 50
120.0050196731
 51
239.9949803269
  0
LINE
  5
CD
330
1F
100
AcDbEntity
  8
0
  6
SLD-Durchgehend
 62
     7
370
    15
100
AcDbLine
 10
247.6906417057
 20
110.3148477796
 30
0.0
 11
248.560646002
 21
109.8125531516
 31
0.0
  0
LINE
  5
CE
330
1F
100
AcDbEntity
  8
0
  6
SLD-Durchgehend
 62
     7
370
    15
100
AcDbLine
 10
248.560646002
 20
109.8125531516
 30
0.0
 11
248.560646002
 21
109.5249886803
 31
0.0
  0
LINE
  5
CF
330
1F
100
AcDbEntity
  8
0
  6
SLD-Durchgehend
 62
     7
370
    15
100
AcDbLine
 10
248.560646002
 20
109.5249886803
 30
0.0
 11
247.6906417057
 21
109.0226938195
 31
0.0
  0
ARC
  5
D0
330
1F
100
AcDbEntity
  8
0
  6
SLD-Durchgehend
 62
     7
370
    15
100
AcDbCircle
 10
247.7506493531
 20
108.918770793
 30
0.0
 40
0.1200038048241615
100
AcDbArc
 50
120.0031673033
 51
239.9968326967
  0
LINE
  5
D1
330
1F
100
AcDbEntity
  8
0
  6
SLD-Durchgehend
 62
     7
370
    15
100
AcDbLine
 10
247.6906417057
 20
108.8148477666
 30
0.0
 11
248.560646002
 21
108.3125531386
 31
0.0
  0
LINE
  5
D2
330
1F
100
AcDbEntity
  8
0
  6
SLD-Durchgehend
 62
     7
370
    15
100
AcDbLine
 10
248.560646002
 20
108.3125531386
 30
0.0
 11
248.560646002
 21
108.0249886672
 31
0.0
  0
LINE
  5
D3
330
1F
100
AcDbEntity
  8
0
  6
SLD-Durchgehend
 62
     7
370
    15
100
AcDbLine
 10
248.560646002
 20
108.0249886672
 30
0.0
 11
247.6906417057
 21
107.5226940393
 31
0.0
  0
ARC
  5
D4
330
1F
100
AcDbEntity
  8
0
  6
SLD-Durchgehend
 62
     7
370
    15
100
AcDbCircle
 10
247.7506477543
 20
107.4187710128
 30
0.0
 40
0.1200030053917943
100
AcDbArc
 50
120.0025062724
 51
239.9974937276
  0
LINE
  5
D5
330
1F
100
AcDbEntity
  8
0
  6
SLD-Durchgehend
 62
     7
370
    15
100
AcDbLine
 10
247.6906417057
 20
107.3148479863
 30
0.0
 11
248.560646002
 21
106.8125531256
 31
0.0
  0
LINE
  5
D6
330
1F
100
AcDbEntity
  8
0
  6
SLD-Durchgehend
 62
     7
370
    15
100
AcDbLine
 10
248.560646002
 20
106.8125531256
 30
0.0
 11
248.560646002
 21
106.5249886542
 31
0.0
  0
LINE
  5
D7
330
1F
100
AcDbEntity
  8
0
  6
SLD-Durchgehend
 62
     7
370
    15
100
AcDbLine
 10
248.560646002
 20
106.5249886542
 30
0.0
 11
247.6906417057
 21
106.0226937934
 31
0.0
  0
ARC
  5
D8
330
1F
100
AcDbEntity
  8
0
  6
SLD-Durchgehend
 62
     7
370
    15
100
AcDbCircle
 10
247.7506524833
 20
105.9187707669
 30
0.0
 40
0.1200053701277179
100
AcDbArc
 50
120.0044615504
 51
239.9955384496
  0
LINE
  5
D9
330
1F
100
AcDbEntity
  8
0
  6
SLD-Durchgehend
 62
     7
370
    15
100
AcDbLine
 10
247.6906417057
 20
105.8148477405
 30
0.0
 11
248.560646002
 21
105.3125528797
 31
0.0
  0
LINE
  5
DA
330
1F
100
AcDbEntity
  8
0
  6
SLD-Durchgehend
 62
     7
370
    15
100
AcDbLine
 10
248.560646002
 20
105.3125528797
 30
0.0
 11
248.560646002
 21
105.0249884083
 31
0.0
  0
LINE
  5
DB
330
1F
100
AcDbEntity
  8
0
  6
SLD-Durchgehend
 62
     7
370
    15
100
AcDbLine
 10
248.560646002
 20
105.0249884083
 30
0.0
 11
247.6906417057
 21
104.5226940132
 31
0.0
  0
ARC
  5
DC
330
1F
100
AcDbEntity
  8
0
  6
SLD-Durchgehend
 62
     7
370
    15
100
AcDbCircle
 10
247.7506475595
 20
104.4187709867
 30
0.0
 40
0.1200029079831363
100
AcDbArc
 50
120.002425726
 51
239.997574274
  0
LINE
  5
DD
330
1F
100
AcDbEntity
  8
0
  6
SLD-Durchgehend
 62
     7
370
    15
100
AcDbLine
 10
247.6906417057
 20
104.3148479603
 30
0.0
 11
248.560646002
 21
103.8125530995
 31
0.0
  0
LINE
  5
DE
330
1F
100
AcDbEntity
  8
0
  6
SLD-Durchgehend
 62
     7
370
    15
100
AcDbLine
 10
248.560646002
 20
103.8125530995
 30
0.0
 11
248.560646002
 21
103.5249886281
 31
0.0
  0
LINE
  5
DF
330
1F
100
AcDbEntity
  8
0
  6
SLD-Durchgehend
 62
     7
370
    15
100
AcDbLine
 10
248.560646002
 20
103.5249886281
 30
0.0
 11
247.6906417057
 21
103.0226937673
 31
0.0
  0
ARC
  5
E0
330
1F
100
AcDbEntity
  8
0
  6
SLD-Durchgehend
 62
     7
370
    15
100
AcDbCircle
 10
247.7506512843
 20
102.9187707409
 30
0.0
 40
0.1200047705601124
100
AcDbArc
 50
120.0039658171
 51
239.9960341829
  0
LINE
  5
E1
330
1F
100
AcDbEntity
  8
0
  6
SLD-Durchgehend
 62
     7
370
    15
100
AcDbLine
 10
247.6906417057
 20
102.8148477144
 30
0.0
 11
248.560646002
 21
102.3125528536
 31
0.0
  0
LINE
  5
E2
330
1F
100
AcDbEntity
  8
0
  6
SLD-Durchgehend
 62
     7
370
    15
100
AcDbLine
 10
248.560646002
 20
102.3125528536
 30
0.0
 11
248.560646002
 21
102.0249883823
 31
0.0
  0
LINE
  5
E3
330
1F
100
AcDbEntity
  8
0
  6
SLD-Durchgehend
 62
     7
370
    15
100
AcDbLine
 10
248.560646002
 20
102.0249883823
 30
0.0
 11
247.6906417057
 21
101.5226935215
 31
0.0
  0
ARC
  5
E4
330
1F
100
AcDbEntity
  8
0
  6
SLD-Durchgehend
 62
     7
370
    15
100
AcDbCircle
 10
247.7506476614
 20
101.418770495
 30
0.0
 40
0.1200029588950718
100
AcDbArc
 50
120.0024678247
 51
239.9975321753
  0
LINE
  5
E5
330
1F
100
AcDbEntity
  8
0
  6
SLD-Durchgehend
 62
     7
370
    15
100
AcDbLine
 10
247.6906417057
 20
101.3148474685
 30
0.0
 11
248.560646002
 21
100.8125526077
 31
0.0
  0
LINE
  5
E6
330
1F
100
AcDbEntity
  8
0
  6
SLD-Durchgehend
 62
     7
370
    15
100
AcDbLine
 10
248.560646002
 20
100.8125526077
 30
0.0
 11
248.560646002
 21
100.5249881364
 31
0.0
  0
LINE
  5
E7
330
1F
100
AcDbEntity
  8
0
  6
SLD-Durchgehend
 62
     7
370
    15
100
AcDbLine
 10
248.560646002
 20
100.5249881364
 30
0.0
 11
247.6906417057
 21
100.0226942069
 31
0.0
  0
ARC
  5
E8
330
1F
100
AcDbEntity
  8
0
  6
SLD-Durchgehend
 62
     7
370
    15
100
AcDbCircle
 10
247.7506520906
 20
99.9187711805
 30
0.0
 40
0.1200051737503384
100
AcDbArc
 50
120.0042991834
 51
239.9957008166
  0
LINE
  5
E9
330
1F
100
AcDbEntity
  8
0
  6
SLD-Durchgehend
 62
     7
370
    15
100
AcDbLine
 10
247.6906417057
 20
99.814848154
 30
0.0
 11
248.560646002
 21
99.3125532932
 31
0.0
  0
LINE
  5
EA
330
1F
100
AcDbEntity
  8
0
  6
SLD-Durchgehend
 62
     7
370
    15
100
AcDbLine
 10
248.560646002
 20
99.3125532932
 30
0.0
 11
248.560646002
 21
99.0249888218
 31
0.0
  0
LINE
  5
EB
330
1F
100
AcDbEntity
  8
0
  6
SLD-Durchgehend
 62
     7
370
    15
100
AcDbLine
 10
248.560646002
 20
99.0249888218
 30
0.0
 11
247.6906417057
 21
98.5226939611
 31
0.0
  0
ARC
  5
EC
330
1F
100
AcDbEntity
  8
0
  6
SLD-Durchgehend
 62
     7
370
    15
100
AcDbCircle
 10
247.7506476052
 20
98.4187709346
 30
0.0
 40
0.1200029308129916
100
AcDbArc
 50
120.0024446039
 51
239.9975553961
  0
LINE
  5
ED
330
1F
100
AcDbEntity
  8
0
  6
SLD-Durchgehend
 62
     7
370
    15
100
AcDbLine
 10
247.6906417057
 20
98.3148479081
 30
0.0
 11
248.560646002
 21
97.8125530473
 31
0.0
  0
LINE
  5
EE
330
1F
100
AcDbEntity
  8
0
  6
SLD-Durchgehend
 62
     7
370
    15
100
AcDbLine
 10
248.560646002
 20
97.8125530473
 30
0.0
 11
248.560646002
 21
97.524988576
 31
0.0
  0
LINE
  5
EF
330
1F
100
AcDbEntity
  8
0
  6
SLD-Durchgehend
 62
     7
370
    15
100
AcDbLine
 10
248.560646002
 20
97.524988576
 30
0.0
 11
247.6906417057
 21
97.0226937152
 31
0.0
  0
ARC
  5
F0
330
1F
100
AcDbEntity
  8
0
  6
SLD-Durchgehend
 62
     7
370
    15
100
AcDbCircle
 10
247.7506468873
 20
96.9187706887
 30
0.0
 40
0.1200025718257503
100
AcDbArc
 50
120.0021477581
 51
239.9978522419
  0
LINE
  5
F1
330
1F
100
AcDbEntity
  8
0
  6
SLD-Durchgehend
 62
     7
370
    15
100
AcDbLine
 10
247.6906417057
 20
96.8148476622
 30
0.0
 11
248.560646002
 21
96.3125528015
 31
0.0
  0
LINE
  5
F2
330
1F
100
AcDbEntity
  8
0
  6
SLD-Durchgehend
 62
     7
370
    15
100
AcDbLine
 10
248.560646002
 20
96.3125528015
 30
0.0
 11
248.560646002
 21
96.0249892614
 31
0.0
  0
LINE
  5
F3
330
1F
100
AcDbEntity
  8
0
  6
SLD-Durchgehend
 62
     7
370
    15
100
AcDbLine
 10
248.560646002
 20
96.0249892614
 30
0.0
 11
247.6906417057
 21
95.5226934693
 31
0.0
  0
LWPOLYLINE
  5
F4
330
1F
100
AcDbEntity
  8
0
  6
SLD-Durchgehend
 62
     7
370
    15
100
AcDbPolyline
 90
       10
 70
   128
 43
0.0
 10
247.6906417057
 20
95.5226934693
 10
247.6821331427
 20
95.5172899357
 10
247.6666508362
 20
95.5044749371
 10
247.6558698461
 20
95.4923751942
 10
247.6469962046
 20
95.4792435459
 10
247.6384280369
 20
95.4612839214
 10
247.6316703603
 20
95.4344432048
 10
247.6342259094
 20
95.3896894298
 10
247.6782886431
 20
95.3230365358
 10
247.6906417057
 20
95.3148483477
  0
LINE
  5
F5
330
1F
100
AcDbEntity
  8
0
  6
SLD-Durchgehend
 62
     7
370
    15
100
AcDbLine
 10
247.6906417057
 20
95.3148483477
 30
0.0
 11
248.560646002
 21
94.8125525556
 31
0.0
  0
LINE
  5
F6
330
1F
100
AcDbEntity
  8
0
  6
SLD-Durchgehend
 62
     7
370
    15
100
AcDbLine
 10
248.560646002
 20
94.8125525556
 30
0.0
 11
248.560646002
 21
94.5249880842
 31
0.0
  0
LINE
  5
F7
330
1F
100
AcDbEntity
  8
0
  6
SLD-Durchgehend
 62
     7
370
    15
100
AcDbLine
 10
248.560646002
 20
94.5249880842
 30
0.0
 11
247.6906417057
 21
94.0226941548
 31
0.0
  0
LWPOLYLINE
  5
F8
330
1F
100
AcDbEntity
  8
0
  6
SLD-Durchgehend
 62
     7
370
    15
100
AcDbPolyline
 90
        9
 70
   128
 43
0.0
 10
247.6906417057
 20
94.0226941548
 10
247.6773275182
 20
94.0137664966
 10
247.6677833244
 20
94.0055708579
 10
247.6584924504
 20
93.9956299208
 10
247.6513547942
 20
93.9861565075
 10
247.643293266
 20
93.9724008731
 10
247.6349560663
 20
93.9506451778
 10
247.6319534824
 20
93.9010969541
 10
247.6906417057
 20
93.8148471705
  0
LWPOLYLINE
  5
F9
330
1F
100
AcDbEntity
  8
0
  6
SLD-Durchgehend
 62
     7
370
    15
100
AcDbPolyline
 90
        3
 70
   128
 43
0.0
 10
247.6906417057
 20
93.8148471705
 10
248.2074959323
 20
93.5164421044
 10
248.560646002
 20
93.312553241
  0
LINE
  5
FA
330
1F
100
AcDbEntity
  8
0
  6
SLD-Durchgehend
 62
     7
370
    15
100
AcDbLine
 10
248.560646002
 20
93.312553241
 30
0.0
 11
248.560646002
 21
93.0249887697
 31
0.0
  0
LWPOLYLINE
  5
FB
330
1F
100
AcDbEntity
  8
0
  6
SLD-Durchgehend
 62
     7
370
    15
100
AcDbPolyline
 90
        4
 70
   128
 43
0.0
 10
248.560646002
 20
93.0249887697
 10
248.3522681639
 20
92.9046805195
 10
247.9160143182
 20
92.6528136424
 10
247.6906417057
 20
92.5226929776
  0
LWPOLYLINE
  5
FC
330
1F
100
AcDbEntity
  8
0
  6
SLD-Durchgehend
 62
     7
370
    15
100
AcDbPolyline
 90
       12
 70
   128
 43
0.0
 10
247.6906417057
 20
92.5226929776
 10
247.6849494621
 20
92.5191912047
 10
247.6788027331
 20
92.5148884944
 10
247.6712254927
 20
92.5087287269
 10
247.6669935629
 20
92.5048059962
 10
247.6627020285
 20
92.5004176042
 10
247.6591779039
 20
92.4964520327
 10
247.6543201253
 20
92.4903332434
 10
247.6463629052
 20
92.4781440935
 10
247.6343525693
 20
92.4483678482
 10
247.6363418743
 20
92.3822476707
 10
247.6906417057
 20
92.314847856
  0
LWPOLYLINE
  5
FD
330
1F
100
AcDbEntity
  8
0
  6
SLD-Durchgehend
 62
     7
370
    15
100
AcDbPolyline
 90
        3
 70
   128
 43
0.0
 10
247.6906417057
 20
92.314847856
 10
247.7959333107
 20
92.2540604315
 10
247.7954564736
 20
92.2543342404
  0
LINE
  5
FE
330
1F
100
AcDbEntity
  8
0
  6
SLD-Durchgehend
 62
     7
370
    15
100
AcDbLine
 10
147.9606451964
 20
98.3330059044
 30
0.0
 11
147.9606451964
 21
94.0789497636
 31
0.0
  0
LWPOLYLINE
  5
FF
330
1F
100
AcDbEntity
  8
0
  6
SLD-Durchgehend
 62
     7
370
    15
100
AcDbPolyline
 90
        9
 70
   128
 43
0.0
 10
147.9606451964
 20
98.3330059044
 10
147.9236590592
 20
98.642016872
 10
147.9028419187
 20
98.6976335935
 10
147.868659528
 20
98.7529867507
 10
147.8464333984
 20
98.7738586209
 10
147.8284212123
 20
98.7842847771
 10
147.8081173616
 20
98.7900943674
 10
147.7905786948
 20
98.7905358143
 10
147.7656682898
 20
98.7843630082
  0
ARC
  5
100
330
1F
100
AcDbEntity
  8
0
  6
SLD-Durchgehend
 62
     7
370
    15
100
AcDbCircle
 10
147.5764557236
 20
99.3169887151
 30
0.0
 40
0.5652358258372142
100
AcDbArc
 50
216.1057262632
 51
289.5573226844
  0
LINE
  5
101
330
1F
100
AcDbEntity
  8
0
  6
SLD-Durchgehend
 62
     7
370
    15
100
AcDbLine
 10
147.1197841808
 20
98.9839081831
 30
0.0
 11
146.8393248858
 21
99.506448134
 31
0.0
  0
LINE
  5
102
330
1F
100
AcDbEntity
  8
0
  6
SLD-Durchgehend
 62
     7
370
    15
100
AcDbLine
 10
146.8393248858
 20
106.7842888824
 30
0.0
 11
147.1197841808
 21
107.7388740323
 31
0.0
  0
LWPOLYLINE
  5
103
330
1F
100
AcDbEntity
  8
0
  6
SLD-Durchgehend
 62
     7
370
    15
100
AcDbPolyline
 90
        8
 70
   128
 43
0.0
 10
147.1197841808
 20
107.7388740323
 10
147.2824747677
 20
108.0147490084
 10
147.3752651716
 20
108.1147835303
 10
147.4934313216
 20
108.1858981579
 10
147.5720375081
 20
108.1990973271
 10
147.6506273964
 20
108.1851260915
 10
147.7433013558
 20
108.133228141
 10
147.7656682898
 20
108.1148340545
  0
LWPOLYLINE
  5
104
330
1F
100
AcDbEntity
  8
0
  6
SLD-Durchgehend
 62
     7
370
    15
100
AcDbPolyline
 90
        9
 70
   128
 43
0.0
 10
147.7656682898
 20
108.1148340545
 10
147.787045257
 20
108.0999768983
 10
147.8069183711
 20
108.0932015266
 10
147.8275170727
 20
108.0938464675
 10
147.8436917011
 20
108.1004306852
 10
147.865810525
 20
108.1195931129
 10
147.8955425034
 20
108.1696212004
 10
147.9429485687
 20
108.3688178278
 10
147.9606451964
 20
108.6984298836
  0
LINE
  5
105
330
1F
100
AcDbEntity
  8
0
  6
SLD-Durchgehend
 62
     7
370
    15
100
AcDbLine
 10
147.9606451964
 20
128.7248759709
 30
0.0
 11
147.9606451964
 21
108.6984298836
 31
0.0
  0
LINE
  5
106
330
1F
100
AcDbEntity
  8
0
  6
SLD-Durchgehend
 62
     7
370
    15
100
AcDbLine
 10
147.9606451964
 20
128.7248759709
 30
0.0
 11
147.9470494003
 21
128.7730309359
 31
0.0
  0
ARC
  5
107
330
1F
100
AcDbEntity
  8
0
  6
SLD-Durchgehend
 62
     7
370
    15
100
AcDbCircle
 10
147.8436568503
 20
128.727689335
 30
0.0
 40
0.1511061857987154
100
AcDbArc
 50
58.0321285503
 51
121.0721855782
  0
ARC
  5
108
330
1F
100
AcDbEntity
  8
0
  6
SLD-Durchgehend
 62
     7
370
    15
100
AcDbCircle
 10
147.5543554798
 20
129.3540151244
 30
0.0
 40
0.5399660829020034
100
AcDbArc
 50
216.4078762495
 51
293.0381901599
  0
LINE
  5
109
330
1F
100
AcDbEntity
  8
0
  6
SLD-Durchgehend
 62
     7
370
    15
100
AcDbLine
 10
146.8393248858
 20
129.4655754409
 30
0.0
 11
147.1197841808
 21
129.0335293106
 31
0.0
  0
ARC
  5
10A
330
1F
100
AcDbEntity
  8
0
  6
SLD-Durchgehend
 62
     7
370
    15
100
AcDbCircle
 10
162.3617913419
 20
103.1453685082
 30
0.0
 40
15.94329659674305
100
AcDbArc
 50
166.8064421638
 51
193.1935578362
  0
LINE
  5
10B
330
1F
100
AcDbEntity
  8
0
  6
SLD-Durchgehend
 62
     7
370
    15
100
AcDbLine
 10
119.6606451765
 20
107.7388740323
 30
0.0
 11
119.6606451765
 21
128.6093454055
 31
0.0
  0
LINE
  5
10C
330
1F
100
AcDbEntity
  8
0
  6
SLD-Durchgehend
 62
     7
370
    15
100
AcDbLine
 10
145.9606452033
 20
107.7388740323
 30
0.0
 11
145.9606452033
 21
129.1815704844
 31
0.0
  0
LINE
  5
10D
330
1F
100
AcDbEntity
  8
0
  6
SLD-Durchgehend
 62
     7
370
    15
100
AcDbLine
 10
145.9606452033
 20
98.8358688719
 30
0.0
 11
145.9606452033
 21
107.7388740323
 31
0.0
  0
LINE
  5
10E
330
1F
100
AcDbEntity
  8
0
  6
SLD-Durchgehend
 62
     7
370
    15
100
AcDbLine
 10
119.6606451765
 20
99.4080930195
 30
0.0
 11
119.6606451765
 21
107.7388740323
 31
0.0
  0
LINE
  5
10F
330
1F
100
AcDbEntity
  8
0
  6
SLD-Durchgehend
 62
     7
370
    15
100
AcDbLine
 10
118.1606458619
 20
100.1580926768
 30
0.0
 11
118.1606458619
 21
107.7388740323
 31
0.0
  0
LINE
  5
110
330
1F
100
AcDbEntity
  8
0
  6
SLD-Durchgehend
 62
     7
370
    15
100
AcDbLine
 10
118.1606458619
 20
107.7388740323
 30
0.0
 11
118.1606458619
 21
127.8593457482
 31
0.0
  0
LINE
  5
111
330
1F
100
AcDbEntity
  8
0
  6
SLD-Durchgehend
 62
     7
370
    15
100
AcDbLine
 10
119.6606451765
 20
96.3859736166
 30
0.0
 11
123.6606458321
 21
96.2939067922
 31
0.0
  0
LINE
  5
112
330
1F
100
AcDbEntity
  8
0
  6
SLD-Durchgehend
 62
     7
370
    15
100
AcDbLine
 10
119.6606451765
 20
96.3859736166
 30
0.0
 11
119.6606451765
 21
99.4080930195
 31
0.0
  0
LINE
  5
113
330
1F
100
AcDbEntity
  8
0
  6
SLD-Durchgehend
 62
     7
370
    15
100
AcDbLine
 10
145.9606452033
 20
95.5186720184
 30
0.0
 11
145.9606452033
 21
98.8358688719
 31
0.0
  0
ARC
  5
114
330
1F
100
AcDbEntity
  8
0
  6
SLD-Durchgehend
 62
     7
370
    15
100
AcDbCircle
 10
128.3185657882
 20
122.8790565036
 30
0.0
 40
26.99011677440612
100
AcDbArc
 50
260.0622144145
 51
264.0435401664
  0
ARC
  5
115
330
1F
100
AcDbEntity
  8
0
  6
SLD-Durchgehend
 62
     7
370
    15
100
AcDbCircle
 10
133.5489746442
 20
68.1159078675
 30
0.0
 40
27.90960060216384
100
AcDbArc
 50
81.6804022927
 51
95.3971500737
  0
LINE
  5
116
330
1F
100
AcDbEntity
  8
0
  6
SLD-Durchgehend
 62
     7
370
    15
100
AcDbLine
 10
118.1606458619
 20
97.1635022379
 30
0.0
 11
119.6606451765
 21
96.3859736166
 31
0.0
  0
LINE
  5
117
330
1F
100
AcDbEntity
  8
0
  6
SLD-Durchgehend
 62
     7
370
    15
100
AcDbLine
 10
118.1606458619
 20
97.1635022379
 30
0.0
 11
118.1606458619
 21
100.1580926768
 31
0.0
  0
LINE
  5
118
330
1F
100
AcDbEntity
  8
0
  6
SLD-Durchgehend
 62
     7
370
    15
100
AcDbLine
 10
145.9606452033
 20
130.5588699124
 30
0.0
 11
145.9606452033
 21
129.1815704844
 31
0.0
  0
LINE
  5
119
330
1F
100
AcDbEntity
  8
0
  6
SLD-Durchgehend
 62
     7
370
    15
100
AcDbLine
 10
119.6606451765
 20
129.8981226228
 30
0.0
 11
119.6606451765
 21
128.6093454055
 31
0.0
  0
LWPOLYLINE
  5
11A
330
1F
100
AcDbEntity
  8
0
  6
SLD-Durchgehend
 62
     7
370
    15
100
AcDbPolyline
 90
        4
 70
   128
 43
0.0
 10
146.4404929782
 20
130.3479961298
 10
146.4337680143
 20
130.3630295388
 10
146.5184463075
 20
130.1740213476
 10
146.8393248858
 20
129.4655754409
  0
LINE
  5
11B
330
1F
100
AcDbEntity
  8
0
  6
SLD-Durchgehend
 62
     7
370
    15
100
AcDbLine
 10
118.1606458619
 20
129.0320969365
 30
0.0
 11
118.1606458619
 21
127.8593457482
 31
0.0
  0
LWPOLYLINE
  5
11C
330
1F
100
AcDbEntity
  8
0
  6
SLD-Gestrichelt
 62
     7
370
     0
100
AcDbPolyline
 90
       11
 70
   128
 43
0.0
 10
158.1606449679
 20
86.9187704466
 10
158.2729680583
 20
86.9275062523
 10
158.5970869407
 20
86.949895247
 10
159.0976663053
 20
86.9762386374
 10
159.7190717355
 20
86.9949880234
 10
160.38915274
 20
86.997850909
 10
161.031974864
 20
86.9836705915
 10
161.5775296584
 20
86.9586515419
 10
161.9649691627
 20
86.9336641572
 10
162.1489081651
 20
86.9197073571
 10
162.1359115586
 20
86.9207299493
  0
ARC
  5
11D
330
1F
100
AcDbEntity
  8
0
  6
SLD-Gestrichelt
 62
     7
370
     0
100
AcDbCircle
 10
156.8694974888
 20
103.7598450513
 30
0.0
 40
0.617277965484272
100
AcDbArc
 50
107.0602864172
 51
174.1913102017
  0
LINE
  5
11E
330
1F
100
AcDbEntity
  8
0
  6
SLD-Gestrichelt
 62
     7
370
     0
100
AcDbLine
 10
159.6328880757
 20
104.349960684
 30
0.0
 11
156.68840186
 21
104.349960684
 31
0.0
  0
LWPOLYLINE
  5
11F
330
1F
100
AcDbEntity
  8
0
  6
SLD-Gestrichelt
 62
     7
370
     0
100
AcDbPolyline
 90
        6
 70
   128
 43
0.0
 10
160.0659009189
 20
103.8223180167
 10
159.9329061926
 20
104.141193553
 10
159.853805241
 20
104.242934025
 10
159.7484056026
 20
104.3218980722
 10
159.6680883438
 20
104.3473893023
 10
159.6328880757
 20
104.349960684
  0
ELLIPSE
  5
120
330
1F
100
AcDbEntity
  8
0
  6
SLD-Gestrichelt
 62
     7
370
     0
100
AcDbEllipse
 10
147.1043875364
 20
111.9187708191
 30
0.0
 11
-11.70927234972714
 21
24.67718644093743
 31
0.0
210
0.0
220
0.0
230
1.0
 40
0.3419987131
 41
3.310521928178956
 42
4.221709151398949
  0
ARC
  5
121
330
1F
100
AcDbEntity
  8
0
  6
SLD-Gestrichelt
 62
     7
370
     0
100
AcDbCircle
 10
159.6674008775
 20
88.6317553526
 30
0.0
 40
0.540818258592101
100
AcDbArc
 50
266.341132183
 51
317.4634741493
  0
LINE
  5
122
330
1F
100
AcDbEntity
  8
0
  6
SLD-Gestrichelt
 62
     7
370
     0
100
AcDbLine
 10
156.68840186
 20
88.0920394502
 30
0.0
 11
159.6328880757
 21
88.0920394502
 31
0.0
  0
ARC
  5
123
330
1F
100
AcDbEntity
  8
0
  6
SLD-Gestrichelt
 62
     7
370
     0
100
AcDbCircle
 10
156.6703357955
 20
88.6726631449
 30
0.0
 40
0.5809046888071409
100
AcDbArc
 50
224.4132145875
 51
271.7821790802
  0
ELLIPSE
  5
124
330
1F
100
AcDbEntity
  8
0
  6
SLD-Gestrichelt
 62
     7
370
     0
100
AcDbEllipse
 10
169.2169028464
 20
111.9187708191
 30
0.0
 11
11.709272349727
 21
24.67718644093746
 31
0.0
210
0.0
220
0.0
230
1.0
 40
0.3419987131
 41
2.061476155780644
 42
2.97266337900066
  0
ARC
  5
125
330
1F
100
AcDbEntity
  8
0
  6
SLD-Gestrichelt
 62
     7
370
     0
100
AcDbCircle
 10
156.6538890583
 20
135.2057862856
 30
0.0
 40
0.5408182585920938
100
AcDbArc
 50
86.341132183
 51
137.4634741493
  0
LINE
  5
126
330
1F
100
AcDbEntity
  8
0
  6
SLD-Gestrichelt
 62
     7
370
     0
100
AcDbLine
 10
159.6328880757
 20
135.745502188
 30
0.0
 11
156.68840186
 21
135.745502188
 31
0.0
  0
ARC
  5
127
330
1F
100
AcDbEntity
  8
0
  6
SLD-Gestrichelt
 62
     7
370
     0
100
AcDbCircle
 10
159.6509544846
 20
135.1648793497
 30
0.0
 40
0.5809038435613222
100
AcDbArc
 50
44.4131780183
 51
91.7822156495
  0
ELLIPSE
  5
128
330
1F
100
AcDbEntity
  8
0
  6
SLD-Gestrichelt
 62
     7
370
     0
100
AcDbEllipse
 10
147.1043875364
 20
111.9187708191
 30
0.0
 11
11.70927234972729
 21
24.67718644093743
 31
0.0
210
0.0
220
0.0
230
1.0
 40
0.3419987131
 41
5.203068809370475
 42
6.11425603259052
  0
ARC
  5
129
330
1F
100
AcDbEntity
  8
0
  6
SLD-Gestrichelt
 62
     7
370
     0
100
AcDbCircle
 10
159.451792447
 20
120.0776965869
 30
0.0
 40
0.6172779654842564
100
AcDbArc
 50
287.0602864172
 51
354.1913102017
  0
LINE
  5
12A
330
1F
100
AcDbEntity
  8
0
  6
SLD-Gestrichelt
 62
     7
370
     0
100
AcDbLine
 10
156.68840186
 20
119.4875809542
 30
0.0
 11
159.6328880757
 21
119.4875809542
 31
0.0
  0
LWPOLYLINE
  5
12B
330
1F
100
AcDbEntity
  8
0
  6
SLD-Gestrichelt
 62
     7
370
     0
100
AcDbPolyline
 90
        6
 70
   128
 43
0.0
 10
156.2553890169
 20
120.0152236215
 10
156.3883837432
 20
119.6963480852
 10
156.4674846947
 20
119.5946076132
 10
156.5728852645
 20
119.515643566
 10
156.653201592
 20
119.4901523359
 10
156.68840186
 20
119.4875809542
  0
ELLIPSE
  5
12C
330
1F
100
AcDbEntity
  8
0
  6
SLD-Gestrichelt
 62
     7
370
     0
100
AcDbEllipse
 10
169.2169028464
 20
111.9187708191
 30
0.0
 11
-11.70927234972715
 21
24.67718644093746
 31
0.0
210
0.0
220
0.0
230
1.0
 40
0.3419987131
 41
0.1689292745891137
 42
1.080116497809131
  0
LINE
  5
12D
330
1F
100
AcDbEntity
  8
0
  6
SLD-Gestrichelt
 62
     7
370
     0
100
AcDbLine
 10
168.1606447444
 20
136.9187711916
 30
0.0
 11
168.1606447444
 21
86.9187704466
 31
0.0
  0
LINE
  5
12E
330
1F
100
AcDbEntity
  8
0
  6
SLD-Gestrichelt
 62
     7
370
     0
100
AcDbLine
 10
148.1606451914
 20
136.6187717013
 30
0.0
 11
148.1606451914
 21
87.218769937
 31
0.0
  0
LINE
  5
12F
330
1F
100
AcDbEntity
  8
0
  6
SLD-Gestrichelt
 62
     7
370
     0
100
AcDbLine
 10
168.1606447444
 20
87.9237643621
 30
0.0
 11
168.1606447444
 21
135.9137772761
 31
0.0
  0
LINE
  5
130
330
1F
100
AcDbEntity
  8
0
  6
SLD-Gestrichelt
 62
     7
370
     0
100
AcDbLine
 10
247.4606422827
 20
111.9187708191
 30
0.0
 11
247.4606422827
 21
131.9187703721
 31
0.0
  0
LINE
  5
131
330
1F
100
AcDbEntity
  8
0
  6
SLD-Gestrichelt
 62
     7
370
     0
100
AcDbLine
 10
247.4606422827
 20
91.9187712661
 30
0.0
 11
247.4606422827
 21
111.9187708191
 31
0.0
  0
LINE
  5
132
330
1F
100
AcDbEntity
  8
0
  6
SLD-Gestrichelt
 62
     7
370
     0
100
AcDbLine
 10
248.560646002
 20
112.8125530613
 30
0.0
 11
247.6906417057
 21
113.3148478057
 31
0.0
  0
ARC
  5
133
330
1F
100
AcDbEntity
  8
0
  6
SLD-Gestrichelt
 62
     7
370
     0
100
AcDbCircle
 10
247.7506538332
 20
113.4187708321
 30
0.0
 40
0.1200060451705633
100
AcDbArc
 50
120.0050196731
 51
239.9949803269
  0
LINE
  5
134
330
1F
100
AcDbEntity
  8
0
  6
SLD-Gestrichelt
 62
     7
370
     0
100
AcDbLine
 10
247.6906417057
 20
113.5226938586
 30
0.0
 11
248.560646002
 21
114.0249884866
 31
0.0
  0
LINE
  5
135
330
1F
100
AcDbEntity
  8
0
  6
SLD-Gestrichelt
 62
     7
370
     0
100
AcDbLine
 10
248.560646002
 20
114.0249884866
 30
0.0
 11
248.560646002
 21
114.3125529579
 31
0.0
  0
LINE
  5
136
330
1F
100
AcDbEntity
  8
0
  6
SLD-Gestrichelt
 62
     7
370
     0
100
AcDbLine
 10
248.560646002
 20
114.3125529579
 30
0.0
 11
247.6906417057
 21
114.8148478187
 31
0.0
  0
ARC
  5
137
330
1F
100
AcDbEntity
  8
0
  6
SLD-Gestrichelt
 62
     7
370
     0
100
AcDbCircle
 10
247.7506493531
 20
114.9187708452
 30
0.0
 40
0.1200038048241615
100
AcDbArc
 50
120.0031673033
 51
239.9968326967
  0
LINE
  5
138
330
1F
100
AcDbEntity
  8
0
  6
SLD-Gestrichelt
 62
     7
370
     0
100
AcDbLine
 10
247.6906417057
 20
115.0226938717
 30
0.0
 11
248.560646002
 21
115.5249884996
 31
0.0
  0
LINE
  5
139
330
1F
100
AcDbEntity
  8
0
  6
SLD-Gestrichelt
 62
     7
370
     0
100
AcDbLine
 10
248.560646002
 20
115.5249884996
 30
0.0
 11
248.560646002
 21
115.812552971
 31
0.0
  0
LINE
  5
13A
330
1F
100
AcDbEntity
  8
0
  6
SLD-Gestrichelt
 62
     7
370
     0
100
AcDbLine
 10
248.560646002
 20
115.812552971
 30
0.0
 11
247.6906417057
 21
116.3148475989
 31
0.0
  0
ARC
  5
13B
330
1F
100
AcDbEntity
  8
0
  6
SLD-Gestrichelt
 62
     7
370
     0
100
AcDbCircle
 10
247.7506477543
 20
116.4187706254
 30
0.0
 40
0.1200030053917943
100
AcDbArc
 50
120.0025062724
 51
239.9974937276
  0
LINE
  5
13C
330
1F
100
AcDbEntity
  8
0
  6
SLD-Gestrichelt
 62
     7
370
     0
100
AcDbLine
 10
247.6906417057
 20
116.5226936519
 30
0.0
 11
248.560646002
 21
117.0249885126
 31
0.0
  0
LINE
  5
13D
330
1F
100
AcDbEntity
  8
0
  6
SLD-Gestrichelt
 62
     7
370
     0
100
AcDbLine
 10
248.560646002
 20
117.0249885126
 30
0.0
 11
248.560646002
 21
117.312552984
 31
0.0
  0
LINE
  5
13E
330
1F
100
AcDbEntity
  8
0
  6
SLD-Gestrichelt
 62
     7
370
     0
100
AcDbLine
 10
248.560646002
 20
117.312552984
 30
0.0
 11
247.6906417057
 21
117.8148478448
 31
0.0
  0
ARC
  5
13F
330
1F
100
AcDbEntity
  8
0
  6
SLD-Gestrichelt
 62
     7
370
     0
100
AcDbCircle
 10
247.7506524833
 20
117.9187708713
 30
0.0
 40
0.1200053701277179
100
AcDbArc
 50
120.0044615504
 51
239.9955384496
  0
LINE
  5
140
330
1F
100
AcDbEntity
  8
0
  6
SLD-Gestrichelt
 62
     7
370
     0
100
AcDbLine
 10
247.6906417057
 20
118.0226938977
 30
0.0
 11
248.560646002
 21
118.5249887585
 31
0.0
  0
LINE
  5
141
330
1F
100
AcDbEntity
  8
0
  6
SLD-Gestrichelt
 62
     7
370
     0
100
AcDbLine
 10
248.560646002
 20
118.5249887585
 30
0.0
 11
248.560646002
 21
118.8125532299
 31
0.0
  0
LINE
  5
142
330
1F
100
AcDbEntity
  8
0
  6
SLD-Gestrichelt
 62
     7
370
     0
100
AcDbLine
 10
248.560646002
 20
118.8125532299
 30
0.0
 11
247.6906417057
 21
119.314847625
 31
0.0
  0
ARC
  5
143
330
1F
100
AcDbEntity
  8
0
  6
SLD-Gestrichelt
 62
     7
370
     0
100
AcDbCircle
 10
247.7506475595
 20
119.4187706515
 30
0.0
 40
0.1200029079831363
100
AcDbArc
 50
120.002425726
 51
239.997574274
  0
LINE
  5
144
330
1F
100
AcDbEntity
  8
0
  6
SLD-Gestrichelt
 62
     7
370
     0
100
AcDbLine
 10
247.6906417057
 20
119.5226936779
 30
0.0
 11
248.560646002
 21
120.0249885387
 31
0.0
  0
LINE
  5
145
330
1F
100
AcDbEntity
  8
0
  6
SLD-Gestrichelt
 62
     7
370
     0
100
AcDbLine
 10
248.560646002
 20
120.0249885387
 30
0.0
 11
248.560646002
 21
120.3125530101
 31
0.0
  0
LINE
  5
146
330
1F
100
AcDbEntity
  8
0
  6
SLD-Gestrichelt
 62
     7
370
     0
100
AcDbLine
 10
248.560646002
 20
120.3125530101
 30
0.0
 11
247.6906417057
 21
120.8148478709
 31
0.0
  0
ARC
  5
147
330
1F
100
AcDbEntity
  8
0
  6
SLD-Gestrichelt
 62
     7
370
     0
100
AcDbCircle
 10
247.7506512843
 20
120.9187708973
 30
0.0
 40
0.1200047705601124
100
AcDbArc
 50
120.0039658171
 51
239.9960341829
  0
LINE
  5
148
330
1F
100
AcDbEntity
  8
0
  6
SLD-Gestrichelt
 62
     7
370
     0
100
AcDbLine
 10
247.6906417057
 20
121.0226939238
 30
0.0
 11
248.560646002
 21
121.5249887846
 31
0.0
  0
LINE
  5
149
330
1F
100
AcDbEntity
  8
0
  6
SLD-Gestrichelt
 62
     7
370
     0
100
AcDbLine
 10
248.560646002
 20
121.5249887846
 30
0.0
 11
248.560646002
 21
121.812553256
 31
0.0
  0
LINE
  5
14A
330
1F
100
AcDbEntity
  8
0
  6
SLD-Gestrichelt
 62
     7
370
     0
100
AcDbLine
 10
248.560646002
 20
121.812553256
 30
0.0
 11
247.6906417057
 21
122.3148481167
 31
0.0
  0
ARC
  5
14B
330
1F
100
AcDbEntity
  8
0
  6
SLD-Gestrichelt
 62
     7
370
     0
100
AcDbCircle
 10
247.7506476614
 20
122.4187711432
 30
0.0
 40
0.1200029588950718
100
AcDbArc
 50
120.0024678247
 51
239.9975321753
  0
LINE
  5
14C
330
1F
100
AcDbEntity
  8
0
  6
SLD-Gestrichelt
 62
     7
370
     0
100
AcDbLine
 10
247.6906417057
 20
122.5226941697
 30
0.0
 11
248.560646002
 21
123.0249890305
 31
0.0
  0
LINE
  5
14D
330
1F
100
AcDbEntity
  8
0
  6
SLD-Gestrichelt
 62
     7
370
     0
100
AcDbLine
 10
248.560646002
 20
123.0249890305
 30
0.0
 11
248.560646002
 21
123.3125535018
 31
0.0
  0
LINE
  5
14E
330
1F
100
AcDbEntity
  8
0
  6
SLD-Gestrichelt
 62
     7
370
     0
100
AcDbLine
 10
248.560646002
 20
123.3125535018
 30
0.0
 11
247.6906417057
 21
123.8148474313
 31
0.0
  0
ARC
  5
14F
330
1F
100
AcDbEntity
  8
0
  6
SLD-Gestrichelt
 62
     7
370
     0
100
AcDbCircle
 10
247.7506520906
 20
123.9187704577
 30
0.0
 40
0.1200051737503384
100
AcDbArc
 50
120.0042991834
 51
239.9957008166
  0
LINE
  5
150
330
1F
100
AcDbEntity
  8
0
  6
SLD-Gestrichelt
 62
     7
370
     0
100
AcDbLine
 10
247.6906417057
 20
124.0226934842
 30
0.0
 11
248.560646002
 21
124.524988345
 31
0.0
  0
LINE
  5
151
330
1F
100
AcDbEntity
  8
0
  6
SLD-Gestrichelt
 62
     7
370
     0
100
AcDbLine
 10
248.560646002
 20
124.524988345
 30
0.0
 11
248.560646002
 21
124.8125528164
 31
0.0
  0
LINE
  5
152
330
1F
100
AcDbEntity
  8
0
  6
SLD-Gestrichelt
 62
     7
370
     0
100
AcDbLine
 10
248.560646002
 20
124.8125528164
 30
0.0
 11
247.6906417057
 21
125.3148476771
 31
0.0
  0
ARC
  5
153
330
1F
100
AcDbEntity
  8
0
  6
SLD-Gestrichelt
 62
     7
370
     0
100
AcDbCircle
 10
247.7506476052
 20
125.4187707036
 30
0.0
 40
0.1200029308129916
100
AcDbArc
 50
120.0024446039
 51
239.9975553961
  0
LINE
  5
154
330
1F
100
AcDbEntity
  8
0
  6
SLD-Gestrichelt
 62
     7
370
     0
100
AcDbLine
 10
247.6906417057
 20
125.5226937301
 30
0.0
 11
248.560646002
 21
126.0249885909
 31
0.0
  0
LINE
  5
155
330
1F
100
AcDbEntity
  8
0
  6
SLD-Gestrichelt
 62
     7
370
     0
100
AcDbLine
 10
248.560646002
 20
126.0249885909
 30
0.0
 11
248.560646002
 21
126.3125530622
 31
0.0
  0
LINE
  5
156
330
1F
100
AcDbEntity
  8
0
  6
SLD-Gestrichelt
 62
     7
370
     0
100
AcDbLine
 10
248.560646002
 20
126.3125530622
 30
0.0
 11
247.6906417057
 21
126.814847923
 31
0.0
  0
ARC
  5
157
330
1F
100
AcDbEntity
  8
0
  6
SLD-Gestrichelt
 62
     7
370
     0
100
AcDbCircle
 10
247.7506468873
 20
126.9187709495
 30
0.0
 40
0.1200025718257503
100
AcDbArc
 50
120.0021477581
 51
239.9978522419
  0
LINE
  5
158
330
1F
100
AcDbEntity
  8
0
  6
SLD-Gestrichelt
 62
     7
370
     0
100
AcDbLine
 10
247.6906417057
 20
127.022693976
 30
0.0
 11
248.560646002
 21
127.5249888367
 31
0.0
  0
LINE
  5
159
330
1F
100
AcDbEntity
  8
0
  6
SLD-Gestrichelt
 62
     7
370
     0
100
AcDbLine
 10
248.560646002
 20
127.5249888367
 30
0.0
 11
248.560646002
 21
127.8125523768
 31
0.0
  0
LINE
  5
15A
330
1F
100
AcDbEntity
  8
0
  6
SLD-Gestrichelt
 62
     7
370
     0
100
AcDbLine
 10
248.560646002
 20
127.8125523768
 30
0.0
 11
247.6906417057
 21
128.3148481689
 31
0.0
  0
LWPOLYLINE
  5
15B
330
1F
100
AcDbEntity
  8
0
  6
SLD-Gestrichelt
 62
     7
370
     0
100
AcDbPolyline
 90
       10
 70
   128
 43
0.0
 10
247.6906417057
 20
128.3148481689
 10
247.6821331427
 20
128.3202517025
 10
247.6666508362
 20
128.3330667011
 10
247.6558698461
 20
128.345166444
 10
247.6469962046
 20
128.3582980923
 10
247.6384280369
 20
128.3762577168
 10
247.6316703603
 20
128.4030984334
 10
247.6342259094
 20
128.4478522084
 10
247.6782886431
 20
128.5145051024
 10
247.6906417057
 20
128.5226932905
  0
LINE
  5
15C
330
1F
100
AcDbEntity
  8
0
  6
SLD-Gestrichelt
 62
     7
370
     0
100
AcDbLine
 10
247.6906417057
 20
128.5226932905
 30
0.0
 11
248.560646002
 21
129.0249890826
 31
0.0
  0
LINE
  5
15D
330
1F
100
AcDbEntity
  8
0
  6
SLD-Gestrichelt
 62
     7
370
     0
100
AcDbLine
 10
248.560646002
 20
129.0249890826
 30
0.0
 11
248.560646002
 21
129.312553554
 31
0.0
  0
LINE
  5
15E
330
1F
100
AcDbEntity
  8
0
  6
SLD-Gestrichelt
 62
     7
370
     0
100
AcDbLine
 10
248.560646002
 20
129.312553554
 30
0.0
 11
247.6906417057
 21
129.8148474834
 31
0.0
  0
LWPOLYLINE
  5
15F
330
1F
100
AcDbEntity
  8
0
  6
SLD-Gestrichelt
 62
     7
370
     0
100
AcDbPolyline
 90
        9
 70
   128
 43
0.0
 10
247.6906417057
 20
129.8148474834
 10
247.6773275182
 20
129.8237751416
 10
247.6677833244
 20
129.8319707803
 10
247.6584924504
 20
129.8419117174
 10
247.6513547942
 20
129.8513851307
 10
247.643293266
 20
129.8651407651
 10
247.6349560663
 20
129.8868964604
 10
247.6319534824
 20
129.9364446841
 10
247.6906417057
 20
130.0226944677
  0
LWPOLYLINE
  5
160
330
1F
100
AcDbEntity
  8
0
  6
SLD-Gestrichelt
 62
     7
370
     0
100
AcDbPolyline
 90
        3
 70
   128
 43
0.0
 10
247.6906417057
 20
130.0226944677
 10
248.2074959323
 20
130.3210995338
 10
248.560646002
 20
130.5249883972
  0
LINE
  5
161
330
1F
100
AcDbEntity
  8
0
  6
SLD-Gestrichelt
 62
     7
370
     0
100
AcDbLine
 10
248.560646002
 20
130.5249883972
 30
0.0
 11
248.560646002
 21
130.8125528685
 31
0.0
  0
LWPOLYLINE
  5
162
330
1F
100
AcDbEntity
  8
0
  6
SLD-Gestrichelt
 62
     7
370
     0
100
AcDbPolyline
 90
        4
 70
   128
 43
0.0
 10
248.560646002
 20
130.8125528685
 10
248.3522681639
 20
130.9328611187
 10
247.9160143182
 20
131.1847279958
 10
247.6906417057
 20
131.3148486606
  0
LWPOLYLINE
  5
163
330
1F
100
AcDbEntity
  8
0
  6
SLD-Gestrichelt
 62
     7
370
     0
100
AcDbPolyline
 90
       12
 70
   128
 43
0.0
 10
247.6906417057
 20
131.3148486606
 10
247.6849494621
 20
131.3183504335
 10
247.6788027331
 20
131.3226531438
 10
247.6712254927
 20
131.3288129113
 10
247.6669935629
 20
131.332735642
 10
247.6627020285
 20
131.337124034
 10
247.6591779039
 20
131.3410896055
 10
247.6543201253
 20
131.3472083948
 10
247.6463629052
 20
131.3593975447
 10
247.6343525693
 20
131.38917379
 10
247.6363418743
 20
131.4552939675
 10
247.6906417057
 20
131.5226937822
  0
LWPOLYLINE
  5
164
330
1F
100
AcDbEntity
  8
0
  6
SLD-Gestrichelt
 62
     7
370
     0
100
AcDbPolyline
 90
        3
 70
   128
 43
0.0
 10
247.6906417057
 20
131.5226937822
 10
247.7959333107
 20
131.5834812067
 10
247.7954564736
 20
131.5832073979
  0
LINE
  5
165
330
1F
100
AcDbEntity
  8
0
  6
SLD-Gestrichelt
 62
     7
370
     0
100
AcDbLine
 10
247.7954564736
 20
92.2543342404
 30
0.0
 11
247.6906417057
 21
92.314847856
 31
0.0
  0
LWPOLYLINE
  5
166
330
1F
100
AcDbEntity
  8
0
  6
SLD-Gestrichelt
 62
     7
370
     0
100
AcDbPolyline
 90
       12
 70
   128
 43
0.0
 10
247.6906417057
 20
92.314847856
 10
247.6774616286
 20
92.3236693434
 10
247.6315362498
 20
92.4333623789
 10
247.644910042
 20
92.4755140386
 10
247.6511834309
 20
92.4859094612
 10
247.6553334043
 20
92.4916817985
 10
247.6600496218
 20
92.4974671743
 10
247.6639462754
 20
92.5017326317
 10
247.6681782052
 20
92.5059403471
 10
247.673013632
 20
92.510276585
 10
247.6799873755
 20
92.515762075
 10
247.6906417057
 20
92.5226929776
  0
LWPOLYLINE
  5
167
330
1F
100
AcDbEntity
  8
0
  6
SLD-Gestrichelt
 62
     7
370
     0
100
AcDbPolyline
 90
        4
 70
   128
 43
0.0
 10
247.6906417057
 20
92.5226929776
 10
248.1881467745
 20
92.8099258981
 10
248.5029338047
 20
92.9916697733
 10
248.560646002
 20
93.0249887697
  0
LINE
  5
168
330
1F
100
AcDbEntity
  8
0
  6
SLD-Gestrichelt
 62
     7
370
     0
100
AcDbLine
 10
248.560646002
 20
93.0249887697
 30
0.0
 11
248.560646002
 21
93.312553241
 31
0.0
  0
LWPOLYLINE
  5
169
330
1F
100
AcDbEntity
  8
0
  6
SLD-Gestrichelt
 62
     7
370
     0
100
AcDbPolyline
 90
        3
 70
   128
 43
0.0
 10
248.560646002
 20
93.312553241
 10
248.2105283186
 20
93.5146930806
 10
247.6906417057
 20
93.8148471705
  0
ARC
  5
16A
330
1F
100
AcDbEntity
  8
0
  6
SLD-Gestrichelt
 62
     7
370
     0
100
AcDbCircle
 10
247.7506561133
 20
93.9187706626
 30
0.0
 40
0.1200075886402603
100
AcDbArc
 50
120.0058511848
 51
239.9941488152
  0
LINE
  5
16B
330
1F
100
AcDbEntity
  8
0
  6
SLD-Gestrichelt
 62
     7
370
     0
100
AcDbLine
 10
247.6906417057
 20
94.0226941548
 30
0.0
 11
248.560646002
 21
94.5249880842
 31
0.0
  0
LINE
  5
16C
330
1F
100
AcDbEntity
  8
0
  6
SLD-Gestrichelt
 62
     7
370
     0
100
AcDbLine
 10
248.560646002
 20
94.5249880842
 30
0.0
 11
248.560646002
 21
94.8125525556
 31
0.0
  0
LINE
  5
16D
330
1F
100
AcDbEntity
  8
0
  6
SLD-Gestrichelt
 62
     7
370
     0
100
AcDbLine
 10
248.560646002
 20
94.8125525556
 30
0.0
 11
247.6906417057
 21
95.3148483477
 31
0.0
  0
LWPOLYLINE
  5
16E
330
1F
100
AcDbEntity
  8
0
  6
SLD-Gestrichelt
 62
     7
370
     0
100
AcDbPolyline
 90
       10
 70
   128
 43
0.0
 10
247.6906417057
 20
95.3148483477
 10
247.6356415197
 20
95.3845038257
 10
247.6310594127
 20
95.428773313
 10
247.634143953
 20
95.4475208364
 10
247.641765897
 20
95.469222515
 10
247.6499466345
 20
95.4840379945
 10
247.6611895606
 20
95.4987584792
 10
247.672551696
 20
95.5098803333
 10
247.688913171
 20
95.5216727398
 10
247.6906417057
 20
95.5226934693
  0
LINE
  5
16F
330
1F
100
AcDbEntity
  8
0
  6
SLD-Gestrichelt
 62
     7
370
     0
100
AcDbLine
 10
247.6906417057
 20
95.5226934693
 30
0.0
 11
248.560646002
 21
96.0249892614
 31
0.0
  0
LINE
  5
170
330
1F
100
AcDbEntity
  8
0
  6
SLD-Gestrichelt
 62
     7
370
     0
100
AcDbLine
 10
248.560646002
 20
96.0249892614
 30
0.0
 11
248.560646002
 21
96.3125528015
 31
0.0
  0
LINE
  5
171
330
1F
100
AcDbEntity
  8
0
  6
SLD-Gestrichelt
 62
     7
370
     0
100
AcDbLine
 10
248.560646002
 20
96.3125528015
 30
0.0
 11
247.6906417057
 21
96.8148476622
 31
0.0
  0
LWPOLYLINE
  5
172
330
1F
100
AcDbEntity
  8
0
  6
SLD-Gestrichelt
 62
     7
370
     0
100
AcDbPolyline
 90
        9
 70
   128
 43
0.0
 10
247.6906417057
 20
96.8148476622
 10
247.6383684322
 20
96.8764090157
 10
247.6313797876
 20
96.9320518143
 10
247.6371763393
 20
96.9578298918
 10
247.6455209896
 20
96.9766472645
 10
247.6581944272
 20
96.9952718533
 10
247.6712105915
 20
97.0087145633
 10
247.6902170226
 20
97.0224431894
 10
247.6906417057
 20
97.0226937152
  0
LINE
  5
173
330
1F
100
AcDbEntity
  8
0
  6
SLD-Gestrichelt
 62
     7
370
     0
100
AcDbLine
 10
247.6906417057
 20
97.0226937152
 30
0.0
 11
248.560646002
 21
97.524988576
 31
0.0
  0
LINE
  5
174
330
1F
100
AcDbEntity
  8
0
  6
SLD-Gestrichelt
 62
     7
370
     0
100
AcDbLine
 10
248.560646002
 20
97.524988576
 30
0.0
 11
248.560646002
 21
97.8125530473
 31
0.0
  0
LINE
  5
175
330
1F
100
AcDbEntity
  8
0
  6
SLD-Gestrichelt
 62
     7
370
     0
100
AcDbLine
 10
248.560646002
 20
97.8125530473
 30
0.0
 11
247.6906417057
 21
98.3148479081
 31
0.0
  0
ARC
  5
176
330
1F
100
AcDbEntity
  8
0
  6
SLD-Gestrichelt
 62
     7
370
     0
100
AcDbCircle
 10
247.7506500071
 20
98.4187709346
 30
0.0
 40
0.1200041318836491
100
AcDbArc
 50
120.0034377343
 51
239.9965622657
  0
LINE
  5
177
330
1F
100
AcDbEntity
  8
0
  6
SLD-Gestrichelt
 62
     7
370
     0
100
AcDbLine
 10
247.6906417057
 20
98.5226939611
 30
0.0
 11
248.560646002
 21
99.0249888218
 31
0.0
  0
LINE
  5
178
330
1F
100
AcDbEntity
  8
0
  6
SLD-Gestrichelt
 62
     7
370
     0
100
AcDbLine
 10
248.560646002
 20
99.0249888218
 30
0.0
 11
248.560646002
 21
99.3125532932
 31
0.0
  0
LINE
  5
179
330
1F
100
AcDbEntity
  8
0
  6
SLD-Gestrichelt
 62
     7
370
     0
100
AcDbLine
 10
248.560646002
 20
99.3125532932
 30
0.0
 11
247.6906417057
 21
99.814848154
 31
0.0
  0
ARC
  5
17A
330
1F
100
AcDbEntity
  8
0
  6
SLD-Gestrichelt
 62
     7
370
     0
100
AcDbCircle
 10
247.7506544572
 20
99.9187711805
 30
0.0
 40
0.1200063572134921
100
AcDbArc
 50
120.0052776637
 51
239.9947223363
  0
LINE
  5
17B
330
1F
100
AcDbEntity
  8
0
  6
SLD-Gestrichelt
 62
     7
370
     0
100
AcDbLine
 10
247.6906417057
 20
100.0226942069
 30
0.0
 11
248.560646002
 21
100.5249881364
 31
0.0
  0
LINE
  5
17C
330
1F
100
AcDbEntity
  8
0
  6
SLD-Gestrichelt
 62
     7
370
     0
100
AcDbLine
 10
248.560646002
 20
100.5249881364
 30
0.0
 11
248.560646002
 21
100.8125526077
 31
0.0
  0
LINE
  5
17D
330
1F
100
AcDbEntity
  8
0
  6
SLD-Gestrichelt
 62
     7
370
     0
100
AcDbLine
 10
248.560646002
 20
100.8125526077
 30
0.0
 11
247.6906417057
 21
101.3148474685
 31
0.0
  0
ARC
  5
17E
330
1F
100
AcDbEntity
  8
0
  6
SLD-Gestrichelt
 62
     7
370
     0
100
AcDbCircle
 10
247.7506520168
 20
101.418770495
 30
0.0
 40
0.1200051368591281
100
AcDbArc
 50
120.0042686812
 51
239.9957313188
  0
LINE
  5
17F
330
1F
100
AcDbEntity
  8
0
  6
SLD-Gestrichelt
 62
     7
370
     0
100
AcDbLine
 10
247.6906417057
 20
101.5226935215
 30
0.0
 11
248.560646002
 21
102.0249883823
 31
0.0
  0
LINE
  5
180
330
1F
100
AcDbEntity
  8
0
  6
SLD-Gestrichelt
 62
     7
370
     0
100
AcDbLine
 10
248.560646002
 20
102.0249883823
 30
0.0
 11
248.560646002
 21
102.3125528536
 31
0.0
  0
LINE
  5
181
330
1F
100
AcDbEntity
  8
0
  6
SLD-Gestrichelt
 62
     7
370
     0
100
AcDbLine
 10
248.560646002
 20
102.3125528536
 30
0.0
 11
247.6906417057
 21
102.8148477144
 31
0.0
  0
ARC
  5
182
330
1F
100
AcDbEntity
  8
0
  6
SLD-Gestrichelt
 62
     7
370
     0
100
AcDbCircle
 10
247.7506489659
 20
102.9187707409
 30
0.0
 40
0.1200036112294991
100
AcDbArc
 50
120.0030072266
 51
239.9969927734
  0
LINE
  5
183
330
1F
100
AcDbEntity
  8
0
  6
SLD-Gestrichelt
 62
     7
370
     0
100
AcDbLine
 10
247.6906417057
 20
103.0226937673
 30
0.0
 11
248.560646002
 21
103.5249886281
 31
0.0
  0
LINE
  5
184
330
1F
100
AcDbEntity
  8
0
  6
SLD-Gestrichelt
 62
     7
370
     0
100
AcDbLine
 10
248.560646002
 20
103.5249886281
 30
0.0
 11
248.560646002
 21
103.8125530995
 31
0.0
  0
LINE
  5
185
330
1F
100
AcDbEntity
  8
0
  6
SLD-Gestrichelt
 62
     7
370
     0
100
AcDbLine
 10
248.560646002
 20
103.8125530995
 30
0.0
 11
247.6906417057
 21
104.3148479603
 31
0.0
  0
ARC
  5
186
330
1F
100
AcDbEntity
  8
0
  6
SLD-Gestrichelt
 62
     7
370
     0
100
AcDbCircle
 10
247.750644946
 20
104.4187709867
 30
0.0
 40
0.1200016011567028
100
AcDbArc
 50
120.0013450917
 51
239.9986549083
  0
LINE
  5
187
330
1F
100
AcDbEntity
  8
0
  6
SLD-Gestrichelt
 62
     7
370
     0
100
AcDbLine
 10
247.6906417057
 20
104.5226940132
 30
0.0
 11
248.560646002
 21
105.0249884083
 31
0.0
  0
LINE
  5
188
330
1F
100
AcDbEntity
  8
0
  6
SLD-Gestrichelt
 62
     7
370
     0
100
AcDbLine
 10
248.560646002
 20
105.0249884083
 30
0.0
 11
248.560646002
 21
105.3125528797
 31
0.0
  0
LINE
  5
189
330
1F
100
AcDbEntity
  8
0
  6
SLD-Gestrichelt
 62
     7
370
     0
100
AcDbLine
 10
248.560646002
 20
105.3125528797
 30
0.0
 11
247.6906417057
 21
105.8148477405
 31
0.0
  0
ARC
  5
18A
330
1F
100
AcDbEntity
  8
0
  6
SLD-Gestrichelt
 62
     7
370
     0
100
AcDbCircle
 10
247.7506478013
 20
105.9187707669
 30
0.0
 40
0.1200030288758809
100
AcDbArc
 50
120.0025256911
 51
239.9974743089
  0
LINE
  5
18B
330
1F
100
AcDbEntity
  8
0
  6
SLD-Gestrichelt
 62
     7
370
     0
100
AcDbLine
 10
247.6906417057
 20
106.0226937934
 30
0.0
 11
248.560646002
 21
106.5249886542
 31
0.0
  0
LINE
  5
18C
330
1F
100
AcDbEntity
  8
0
  6
SLD-Gestrichelt
 62
     7
370
     0
100
AcDbLine
 10
248.560646002
 20
106.5249886542
 30
0.0
 11
248.560646002
 21
106.8125531256
 31
0.0
  0
LINE
  5
18D
330
1F
100
AcDbEntity
  8
0
  6
SLD-Gestrichelt
 62
     7
370
     0
100
AcDbLine
 10
248.560646002
 20
106.8125531256
 30
0.0
 11
247.6906417057
 21
107.3148479863
 31
0.0
  0
ARC
  5
18E
330
1F
100
AcDbEntity
  8
0
  6
SLD-Gestrichelt
 62
     7
370
     0
100
AcDbCircle
 10
247.7506479066
 20
107.4187710128
 30
0.0
 40
0.1200030815348757
100
AcDbArc
 50
120.0025692342
 51
239.9974307658
  0
LINE
  5
18F
330
1F
100
AcDbEntity
  8
0
  6
SLD-Gestrichelt
 62
     7
370
     0
100
AcDbLine
 10
247.6906417057
 20
107.5226940393
 30
0.0
 11
248.560646002
 21
108.0249886672
 31
0.0
  0
LINE
  5
190
330
1F
100
AcDbEntity
  8
0
  6
SLD-Gestrichelt
 62
     7
370
     0
100
AcDbLine
 10
248.560646002
 20
108.0249886672
 30
0.0
 11
248.560646002
 21
108.3125531386
 31
0.0
  0
LINE
  5
191
330
1F
100
AcDbEntity
  8
0
  6
SLD-Gestrichelt
 62
     7
370
     0
100
AcDbLine
 10
248.560646002
 20
108.3125531386
 30
0.0
 11
247.6906417057
 21
108.8148477666
 31
0.0
  0
ARC
  5
192
330
1F
100
AcDbEntity
  8
0
  6
SLD-Gestrichelt
 62
     7
370
     0
100
AcDbCircle
 10
247.7506456663
 20
108.918770793
 30
0.0
 40
0.1200019612808849
100
AcDbArc
 50
120.0016428897
 51
239.9983571103
  0
LINE
  5
193
330
1F
100
AcDbEntity
  8
0
  6
SLD-Gestrichelt
 62
     7
370
     0
100
AcDbLine
 10
247.6906417057
 20
109.0226938195
 30
0.0
 11
248.560646002
 21
109.5249886803
 31
0.0
  0
LINE
  5
194
330
1F
100
AcDbEntity
  8
0
  6
SLD-Gestrichelt
 62
     7
370
     0
100
AcDbLine
 10
248.560646002
 20
109.5249886803
 30
0.0
 11
248.560646002
 21
109.8125531516
 31
0.0
  0
LINE
  5
195
330
1F
100
AcDbEntity
  8
0
  6
SLD-Gestrichelt
 62
     7
370
     0
100
AcDbLine
 10
248.560646002
 20
109.8125531516
 30
0.0
 11
247.6906417057
 21
110.3148477796
 31
0.0
  0
ARC
  5
196
330
1F
100
AcDbEntity
  8
0
  6
SLD-Gestrichelt
 62
     7
370
     0
100
AcDbCircle
 10
247.7506503552
 20
110.4187708061
 30
0.0
 40
0.1200043059313803
100
AcDbArc
 50
120.0035816452
 51
239.9964183548
  0
LINE
  5
197
330
1F
100
AcDbEntity
  8
0
  6
SLD-Gestrichelt
 62
     7
370
     0
100
AcDbLine
 10
247.6906417057
 20
110.5226938325
 30
0.0
 11
248.560646002
 21
111.0249885769
 31
0.0
  0
LINE
  5
198
330
1F
100
AcDbEntity
  8
0
  6
SLD-Gestrichelt
 62
     7
370
     0
100
AcDbLine
 10
248.560646002
 20
111.0249885769
 30
0.0
 11
248.560646002
 21
111.3125530483
 31
0.0
  0
LINE
  5
199
330
1F
100
AcDbEntity
  8
0
  6
SLD-Gestrichelt
 62
     7
370
     0
100
AcDbLine
 10
248.560646002
 20
111.3125530483
 30
0.0
 11
247.6906417057
 21
111.8148477708
 31
0.0
  0
ARC
  5
19A
330
1F
100
AcDbEntity
  8
0
  6
SLD-Gestrichelt
 62
     7
370
     0
100
AcDbCircle
 10
247.7506490159
 20
111.9187708191
 30
0.0
 40
0.1200036551233174
100
AcDbArc
 50
120.0030226795
 51
239.9969773205
  0
LINE
  5
19B
330
1F
100
AcDbEntity
  8
0
  6
SLD-Gestrichelt
 62
     7
370
     0
100
AcDbLine
 10
247.6906417057
 20
112.0226938674
 30
0.0
 11
248.560646002
 21
112.5249885899
 31
0.0
  0
LINE
  5
19C
330
1F
100
AcDbEntity
  8
0
  6
SLD-Gestrichelt
 62
     7
370
     0
100
AcDbLine
 10
248.560646002
 20
112.5249885899
 30
0.0
 11
248.560646002
 21
112.8125530613
 31
0.0
  0
LINE
  5
19D
330
1F
100
AcDbEntity
  8
0
  6
SLD-Gestrichelt
 62
     7
370
     0
100
AcDbLine
 10
148.1606451914
 20
92.3738359652
 30
0.0
 11
148.1606451914
 21
131.463705673
 31
0.0
  0
ARC
  5
19E
330
1F
100
AcDbEntity
  8
0
  6
SLD-Gestrichelt
 62
     7
370
     0
100
AcDbCircle
 10
147.5724091474
 20
99.3038908325
 30
0.0
 40
0.5543088095406982
100
AcDbArc
 50
215.2583524742
 51
290.4046964735
  0
LWPOLYLINE
  5
19F
330
1F
100
AcDbEntity
  8
0
  6
SLD-Gestrichelt
 62
     7
370
     0
100
AcDbPolyline
 90
        9
 70
   128
 43
0.0
 10
147.7656682898
 20
98.7843630082
 10
147.787045257
 20
98.7901381395
 10
147.8069183711
 20
98.7902554862
 10
147.8275170727
 20
98.784671276
 10
147.8436917011
 20
98.7757929779
 10
147.865810525
 20
98.7562203027
 10
147.8955425034
 20
98.7124649055
 10
147.9429485687
 20
98.5599170617
 10
147.9606451964
 20
98.3330059044
  0
LINE
  5
1A0
330
1F
100
AcDbEntity
  8
0
  6
SLD-Gestrichelt
 62
     7
370
     0
100
AcDbLine
 10
147.9606451964
 20
94.0789497636
 30
0.0
 11
147.9606451964
 21
98.3330059044
 31
0.0
  0
LINE
  5
1A1
330
1F
100
AcDbEntity
  8
0
  6
SLD-Gestrichelt
 62
     7
370
     0
100
AcDbLine
 10
147.9470494003
 20
128.7730309359
 30
0.0
 11
147.9236590592
 21
128.8558795295
 31
0.0
  0
LINE
  5
1A2
330
1F
100
AcDbEntity
  8
0
  6
SLD-Gestrichelt
 62
     7
370
     0
100
AcDbLine
 10
147.1197841808
 20
129.0335293106
 30
0.0
 11
146.8393248858
 21
129.4655754409
 31
0.0
  0
ARC
  5
1A3
330
1F
100
AcDbEntity
  8
0
  6
SLD-Gestrichelt
 62
     7
370
     0
100
AcDbCircle
 10
147.5508804308
 20
129.3412923916
 30
0.0
 40
0.5296811217101597
100
AcDbArc
 50
215.5233468001
 51
293.9227196092
  0
LWPOLYLINE
  5
1A4
330
1F
100
AcDbEntity
  8
0
  6
SLD-Gestrichelt
 62
     7
370
     0
100
AcDbPolyline
 90
        9
 70
   128
 43
0.0
 10
147.7656682898
 20
128.8571144632
 10
147.787045257
 20
128.8661985836
 10
147.8069183711
 20
128.8728556774
 10
147.8275170727
 20
128.8777935497
 10
147.8436917011
 20
128.8800883285
 10
147.865810525
 20
128.8804999731
 10
147.8955425034
 20
128.8742265842
 10
147.9429485687
 20
128.8275766365
 10
147.9606451964
 20
128.7248759709
  0
LINE
  5
1A5
330
1F
100
AcDbEntity
  8
0
  6
SLD-Gestrichelt
 62
     7
370
     0
100
AcDbLine
 10
147.9606451964
 20
108.6984298836
 30
0.0
 11
147.9606451964
 21
128.7248759709
 31
0.0
  0
LWPOLYLINE
  5
1A6
330
1F
100
AcDbEntity
  8
0
  6
SLD-Gestrichelt
 62
     7
370
     0
100
AcDbPolyline
 90
       10
 70
   128
 43
0.0
 10
147.9606451964
 20
108.6984298836
 10
147.9480454061
 20
108.4132044289
 10
147.9269131439
 20
108.2729786813
 10
147.8807047595
 20
108.1405332025
 10
147.8617121818
 20
108.1150503542
 10
147.8356036884
 20
108.0964241355
 10
147.81787477
 20
108.0925244551
 10
147.799386649
 20
108.0949482221
 10
147.7774907896
 20
108.1056665807
 10
147.7656682898
 20
108.1148340545
  0
LWPOLYLINE
  5
1A7
330
1F
100
AcDbEntity
  8
0
  6
SLD-Gestrichelt
 62
     7
370
     0
100
AcDbPolyline
 90
        7
 70
   128
 43
0.0
 10
147.7656682898
 20
108.1148340545
 10
147.6860801983
 20
108.1698496073
 10
147.5922830057
 20
108.1981036059
 10
147.5047218616
 20
108.1894618637
 10
147.4142801369
 20
108.1451316077
 10
147.2908660423
 20
108.025439893
 10
147.1197841808
 20
107.7388740323
  0
LINE
  5
1A8
330
1F
100
AcDbEntity
  8
0
  6
SLD-Gestrichelt
 62
     7
370
     0
100
AcDbLine
 10
147.1197841808
 20
107.7388740323
 30
0.0
 11
146.8393248858
 21
106.7842888824
 31
0.0
  0
LINE
  5
1A9
330
1F
100
AcDbEntity
  8
0
  6
SLD-Gestrichelt
 62
     7
370
     0
100
AcDbLine
 10
146.8393248858
 20
99.506448134
 30
0.0
 11
147.1197841808
 21
98.9839081831
 31
0.0
  0
LINE
  5
1AA
330
1F
100
AcDbEntity
  8
0
  6
SLD-Gestrichelt
 62
     7
370
     0
100
AcDbLine
 10
147.9606451964
 20
108.6984298836
 30
0.0
 11
147.9606451964
 21
128.7248759709
 31
0.0
  0
LINE
  5
1AB
330
1F
100
AcDbEntity
  8
0
  6
SLD-Gestrichelt
 62
     7
370
     0
100
AcDbLine
 10
247.2606463477
 20
119.3182655788
 30
0.0
 11
247.2606463477
 21
124.3182654671
 31
0.0
  0
LINE
  5
1AC
330
1F
100
AcDbEntity
  8
0
  6
SLD-Gestrichelt
 62
     7
370
     0
100
AcDbLine
 10
248.560646002
 20
124.524988345
 30
0.0
 11
248.560646002
 21
124.8125528164
 31
0.0
  0
ARC
  5
1AD
330
1F
100
AcDbEntity
  8
0
  6
SLD-Gestrichelt
 62
     7
370
     0
100
AcDbCircle
 10
247.7506514126
 20
123.9187704577
 30
0.0
 40
0.1200048347176136
100
AcDbArc
 50
120.0040188643
 51
239.9959811357
  0
LINE
  5
1AE
330
1F
100
AcDbEntity
  8
0
  6
SLD-Gestrichelt
 62
     7
370
     0
100
AcDbLine
 10
248.560646002
 20
123.0249890305
 30
0.0
 11
248.560646002
 21
123.3125535018
 31
0.0
  0
ARC
  5
1AF
330
1F
100
AcDbEntity
  8
0
  6
SLD-Gestrichelt
 62
     7
370
     0
100
AcDbCircle
 10
247.7506517981
 20
122.4187711432
 30
0.0
 40
0.1200050274629069
100
AcDbArc
 50
120.0041782305
 51
239.9958217695
  0
LINE
  5
1B0
330
1F
100
AcDbEntity
  8
0
  6
SLD-Gestrichelt
 62
     7
370
     0
100
AcDbLine
 10
248.560646002
 20
121.5249887846
 30
0.0
 11
248.560646002
 21
121.812553256
 31
0.0
  0
ARC
  5
1B1
330
1F
100
AcDbEntity
  8
0
  6
SLD-Gestrichelt
 62
     7
370
     0
100
AcDbCircle
 10
247.7506542187
 20
120.9187708973
 30
0.0
 40
0.1200062379700399
100
AcDbArc
 50
120.0051790761
 51
239.9948209239
  0
LINE
  5
1B2
330
1F
100
AcDbEntity
  8
0
  6
SLD-Gestrichelt
 62
     7
370
     0
100
AcDbLine
 10
248.560646002
 20
120.0249885387
 30
0.0
 11
248.560646002
 21
120.3125530101
 31
0.0
  0
LWPOLYLINE
  5
1B3
330
1F
100
AcDbEntity
  8
0
  6
SLD-Gestrichelt
 62
     7
370
     0
100
AcDbPolyline
 90
       10
 70
   128
 43
0.0
 10
247.6906417057
 20
119.314847625
 10
247.6830719158
 20
119.319605752
 10
247.6683346674
 20
119.3314517095
 10
247.657985811
 20
119.342519547
 10
247.6492313788
 20
119.3546253435
 10
247.640469496
 20
119.3712191834
 10
247.6326836392
 20
119.3967420786
 10
247.6328177497
 20
119.4415102891
 10
247.6727007076
 20
119.5100085988
 10
247.6906417057
 20
119.5226936779
  0
LINE
  5
1B4
330
1F
100
AcDbEntity
  8
0
  6
SLD-Gestrichelt
 62
     7
370
     0
100
AcDbLine
 10
248.560646002
 20
118.5249887585
 30
0.0
 11
248.560646002
 21
118.8125532299
 31
0.0
  0
LINE
  5
1B5
330
1F
100
AcDbEntity
  8
0
  6
SLD-Gestrichelt
 62
     7
370
     0
100
AcDbLine
 10
248.560646002
 20
124.8125528164
 30
0.0
 11
248.560646002
 21
124.524988345
 31
0.0
  0
LWPOLYLINE
  5
1B6
330
1F
100
AcDbEntity
  8
0
  6
SLD-Gestrichelt
 62
     7
370
     0
100
AcDbPolyline
 90
        6
 70
   128
 43
0.0
 10
248.560646002
 20
124.8125528164
 10
248.2294006393
 20
125.0037971131
 10
248.0594007418
 20
125.1019482679
 10
248.0849115297
 20
125.0872184701
 10
248.273977463
 20
124.9780618764
 10
248.560646002
 20
124.8125528164
  0
LINE
  5
1B7
330
1F
100
AcDbEntity
  8
0
  6
SLD-Gestrichelt
 62
     7
370
     0
100
AcDbLine
 10
248.560646002
 20
123.3125535018
 30
0.0
 11
248.560646002
 21
123.0249890305
 31
0.0
  0
ARC
  5
1B8
330
1F
100
AcDbEntity
  8
0
  6
SLD-Gestrichelt
 62
     7
370
     0
100
AcDbCircle
 10
247.7506519253
 20
123.9187704577
 30
0.0
 40
0.1200050910906589
100
AcDbArc
 50
120.0042308391
 51
239.9957691609
  0
LINE
  5
1B9
330
1F
100
AcDbEntity
  8
0
  6
SLD-Gestrichelt
 62
     7
370
     0
100
AcDbLine
 10
248.560646002
 20
121.812553256
 30
0.0
 11
248.560646002
 21
121.5249887846
 31
0.0
  0
ARC
  5
1BA
330
1F
100
AcDbEntity
  8
0
  6
SLD-Gestrichelt
 62
     7
370
     0
100
AcDbCircle
 10
247.7506477324
 20
122.4187711432
 30
0.0
 40
0.1200029944088437
100
AcDbArc
 50
120.0024971907
 51
239.9975028093
  0
LINE
  5
1BB
330
1F
100
AcDbEntity
  8
0
  6
SLD-Gestrichelt
 62
     7
370
     0
100
AcDbLine
 10
248.560646002
 20
120.3125530101
 30
0.0
 11
248.560646002
 21
120.0249885387
 31
0.0
  0
ARC
  5
1BC
330
1F
100
AcDbEntity
  8
0
  6
SLD-Gestrichelt
 62
     7
370
     0
100
AcDbCircle
 10
247.750649315
 20
120.9187708973
 30
0.0
 40
0.1200037857824693
100
AcDbArc
 50
120.0031515584
 51
239.9968484416
  0
LINE
  5
1BD
330
1F
100
AcDbEntity
  8
0
  6
SLD-Gestrichelt
 62
     7
370
     0
100
AcDbLine
 10
248.560646002
 20
118.8125532299
 30
0.0
 11
248.560646002
 21
118.5249887585
 31
0.0
  0
LWPOLYLINE
  5
1BE
330
1F
100
AcDbEntity
  8
0
  6
SLD-Gestrichelt
 62
     7
370
     0
100
AcDbPolyline
 90
       10
 70
   128
 43
0.0
 10
247.6906417057
 20
119.5226936779
 10
247.6372210428
 20
119.4579569801
 10
247.6307017848
 20
119.422392565
 10
247.6356117174
 20
119.3846069455
 10
247.6413635656
 20
119.3691958852
 10
247.6507885501
 20
119.3522211343
 10
247.6600347206
 20
119.340097177
 10
247.6706816003
 20
119.3292938351
 10
247.6849718139
 20
119.318335428
 10
247.6906417057
 20
119.314847625
  0
LWPOLYLINE
  5
1BF
330
1F
100
AcDbEntity
  8
0
  6
SLD-Gestrichelt
 62
     7
370
     0
100
AcDbPolyline
 90
        5
 70
   128
 43
0.0
 10
248.560646002
 20
118.5249887585
 10
248.3285231635
 20
118.3909709744
 10
248.2394514725
 20
118.3395456701
 10
248.3187480018
 20
118.3853308848
 10
248.560646002
 20
118.5249887585
  0
LINE
  5
1C0
330
1F
100
AcDbEntity
  8
0
  6
SLD-Gestrichelt
 62
     7
370
     0
100
AcDbLine
 10
247.2606463477
 20
99.5192761711
 30
0.0
 11
247.2606463477
 21
104.5192760594
 31
0.0
  0
LWPOLYLINE
  5
1C1
330
1F
100
AcDbEntity
  8
0
  6
SLD-Gestrichelt
 62
     7
370
     0
100
AcDbPolyline
 90
       10
 70
   128
 43
0.0
 10
247.6906417057
 20
104.3148479603
 10
247.6372210428
 20
104.3795846581
 10
247.6307017848
 20
104.4151490732
 10
247.6356117174
 20
104.4529346927
 10
247.6413635656
 20
104.468345753
 10
247.6507885501
 20
104.485320504
 10
247.6600347206
 20
104.4974444612
 10
247.6706816003
 20
104.5082478031
 10
247.6849718139
 20
104.5192062102
 10
247.6906417057
 20
104.5226940132
  0
LINE
  5
1C2
330
1F
100
AcDbEntity
  8
0
  6
SLD-Gestrichelt
 62
     7
370
     0
100
AcDbLine
 10
248.560646002
 20
103.5249886281
 30
0.0
 11
248.560646002
 21
103.8125530995
 31
0.0
  0
ARC
  5
1C3
330
1F
100
AcDbEntity
  8
0
  6
SLD-Gestrichelt
 62
     7
370
     0
100
AcDbCircle
 10
247.750649315
 20
102.9187707409
 30
0.0
 40
0.1200037857824693
100
AcDbArc
 50
120.0031515584
 51
239.9968484416
  0
LINE
  5
1C4
330
1F
100
AcDbEntity
  8
0
  6
SLD-Gestrichelt
 62
     7
370
     0
100
AcDbLine
 10
248.560646002
 20
102.0249883823
 30
0.0
 11
248.560646002
 21
102.3125528536
 31
0.0
  0
ARC
  5
1C5
330
1F
100
AcDbEntity
  8
0
  6
SLD-Gestrichelt
 62
     7
370
     0
100
AcDbCircle
 10
247.7506477324
 20
101.418770495
 30
0.0
 40
0.1200029944088437
100
AcDbArc
 50
120.0024971907
 51
239.9975028093
  0
LINE
  5
1C6
330
1F
100
AcDbEntity
  8
0
  6
SLD-Gestrichelt
 62
     7
370
     0
100
AcDbLine
 10
248.560646002
 20
100.5249881364
 30
0.0
 11
248.560646002
 21
100.8125526077
 31
0.0
  0
ARC
  5
1C7
330
1F
100
AcDbEntity
  8
0
  6
SLD-Gestrichelt
 62
     7
370
     0
100
AcDbCircle
 10
247.7506519253
 20
99.9187711805
 30
0.0
 40
0.1200050910906589
100
AcDbArc
 50
120.0042308391
 51
239.9957691609
  0
LINE
  5
1C8
330
1F
100
AcDbEntity
  8
0
  6
SLD-Gestrichelt
 62
     7
370
     0
100
AcDbLine
 10
248.560646002
 20
99.0249888218
 30
0.0
 11
248.560646002
 21
99.3125532932
 31
0.0
  0
LINE
  5
1C9
330
1F
100
AcDbEntity
  8
0
  6
SLD-Gestrichelt
 62
     7
370
     0
100
AcDbLine
 10
248.560646002
 20
105.0249884083
 30
0.0
 11
248.560646002
 21
105.3125528797
 31
0.0
  0
LINE
  5
1CA
330
1F
100
AcDbEntity
  8
0
  6
SLD-Gestrichelt
 62
     7
370
     0
100
AcDbLine
 10
248.560646002
 20
99.3125532932
 30
0.0
 11
248.560646002
 21
99.0249888218
 31
0.0
  0
LWPOLYLINE
  5
1CB
330
1F
100
AcDbEntity
  8
0
  6
SLD-Gestrichelt
 62
     7
370
     0
100
AcDbPolyline
 90
        6
 70
   128
 43
0.0
 10
248.560646002
 20
99.0249888218
 10
248.2294006393
 20
98.8337445251
 10
248.0594007418
 20
98.7355933703
 10
248.0849115297
 20
98.7503231681
 10
248.273977463
 20
98.8594797618
 10
248.560646002
 20
99.0249888218
  0
LINE
  5
1CC
330
1F
100
AcDbEntity
  8
0
  6
SLD-Gestrichelt
 62
     7
370
     0
100
AcDbLine
 10
248.560646002
 20
100.8125526077
 30
0.0
 11
248.560646002
 21
100.5249881364
 31
0.0
  0
ARC
  5
1CD
330
1F
100
AcDbEntity
  8
0
  6
SLD-Gestrichelt
 62
     7
370
     0
100
AcDbCircle
 10
247.7506514126
 20
99.9187711805
 30
0.0
 40
0.1200048347176136
100
AcDbArc
 50
120.0040188643
 51
239.9959811357
  0
LINE
  5
1CE
330
1F
100
AcDbEntity
  8
0
  6
SLD-Gestrichelt
 62
     7
370
     0
100
AcDbLine
 10
248.560646002
 20
102.3125528536
 30
0.0
 11
248.560646002
 21
102.0249883823
 31
0.0
  0
ARC
  5
1CF
330
1F
100
AcDbEntity
  8
0
  6
SLD-Gestrichelt
 62
     7
370
     0
100
AcDbCircle
 10
247.7506517981
 20
101.418770495
 30
0.0
 40
0.1200050274629069
100
AcDbArc
 50
120.0041782305
 51
239.9958217695
  0
LINE
  5
1D0
330
1F
100
AcDbEntity
  8
0
  6
SLD-Gestrichelt
 62
     7
370
     0
100
AcDbLine
 10
248.560646002
 20
103.8125530995
 30
0.0
 11
248.560646002
 21
103.5249886281
 31
0.0
  0
ARC
  5
1D1
330
1F
100
AcDbEntity
  8
0
  6
SLD-Gestrichelt
 62
     7
370
     0
100
AcDbCircle
 10
247.7506542187
 20
102.9187707409
 30
0.0
 40
0.1200062379700399
100
AcDbArc
 50
120.0051790761
 51
239.9948209239
  0
LINE
  5
1D2
330
1F
100
AcDbEntity
  8
0
  6
SLD-Gestrichelt
 62
     7
370
     0
100
AcDbLine
 10
248.560646002
 20
105.3125528797
 30
0.0
 11
248.560646002
 21
105.0249884083
 31
0.0
  0
LWPOLYLINE
  5
1D3
330
1F
100
AcDbEntity
  8
0
  6
SLD-Gestrichelt
 62
     7
370
     0
100
AcDbPolyline
 90
       10
 70
   128
 43
0.0
 10
247.6906417057
 20
104.5226940132
 10
247.6830719158
 20
104.5179358862
 10
247.6683346674
 20
104.5060899287
 10
247.657985811
 20
104.4950220912
 10
247.6492313788
 20
104.4829162947
 10
247.640469496
 20
104.4663224548
 10
247.6326836392
 20
104.4407995596
 10
247.6328177497
 20
104.3960313491
 10
247.6727007076
 20
104.3275330394
 10
247.6906417057
 20
104.3148479603
  0
LWPOLYLINE
  5
1D4
330
1F
100
AcDbEntity
  8
0
  6
SLD-Gestrichelt
 62
     7
370
     0
100
AcDbPolyline
 90
        5
 70
   128
 43
0.0
 10
248.560646002
 20
105.3125528797
 10
248.3285231635
 20
105.4465706638
 10
248.2394514725
 20
105.4979959681
 10
248.3187480018
 20
105.4522107534
 10
248.560646002
 20
105.3125528797
  0
LINE
  5
1D5
330
1F
100
AcDbEntity
  8
0
  6
SLD-Gestrichelt
 62
     7
370
     0
100
AcDbLine
 10
231.7606447384
 20
119.3182655788
 30
0.0
 11
231.7606447384
 21
124.3182654671
 31
0.0
  0
LINE
  5
1D6
330
1F
100
AcDbEntity
  8
0
  6
SLD-Gestrichelt
 62
     7
370
     0
100
AcDbLine
 10
231.7606447384
 20
99.5192761711
 30
0.0
 11
231.7606447384
 21
104.5192760594
 31
0.0
  0
LINE
  5
1D7
330
1F
100
AcDbEntity
  8
0
  6
SLD-Gestrichelt
 62
     7
370
     0
100
AcDbLine
 10
145.9606452033
 20
98.8358688719
 30
0.0
 11
145.9606452033
 21
95.5186720184
 31
0.0
  0
LINE
  5
1D8
330
1F
100
AcDbEntity
  8
0
  6
SLD-Gestrichelt
 62
     7
370
     0
100
AcDbLine
 10
119.6606451765
 20
99.4080930195
 30
0.0
 11
119.6606451765
 21
96.3859736166
 31
0.0
  0
LINE
  5
1D9
330
1F
100
AcDbEntity
  8
0
  6
SLD-Gestrichelt
 62
     7
370
     0
100
AcDbLine
 10
123.6606458321
 20
96.2939067922
 30
0.0
 11
119.6606451765
 21
96.3859736166
 31
0.0
  0
LWPOLYLINE
  5
1DA
330
1F
100
AcDbEntity
  8
0
  6
SLD-Gestrichelt
 62
     7
370
     0
100
AcDbPolyline
 90
        6
 70
   128
 43
0.0
 10
125.517729123
 20
96.0346582524
 10
125.5349790797
 20
96.032849624
 10
125.3281863526
 20
96.0551138214
 10
124.7925324485
 20
96.1203268907
 10
124.129343231
 20
96.2161376319
 10
123.6606458321
 20
96.2939067922
  0
LWPOLYLINE
  5
1DB
330
1F
100
AcDbEntity
  8
0
  6
SLD-Gestrichelt
 62
     7
370
     0
100
AcDbPolyline
 90
       10
 70
   128
 43
0.0
 10
131.6897044078
 20
95.9639820449
 10
131.8722715721
 20
95.9738764159
 10
132.4252555266
 20
96.003848239
 10
133.4572577968
 20
96.0266339771
 10
134.6155082926
 20
96.005926951
 10
135.7571346805
 20
95.9378398202
 10
136.7200952143
 20
95.8441040657
 10
137.3587571204
 20
95.763948857
 10
137.6060847312
 20
95.72911553
 10
137.5873446584
 20
95.7317977391
  0
LWPOLYLINE
  5
1DC
330
1F
100
AcDbEntity
  8
0
  6
SLD-Gestrichelt
 62
     7
370
     0
100
AcDbPolyline
 90
        5
 70
   128
 43
0.0
 10
130.9238312885
 20
95.9017752848
 10
130.9230489776
 20
95.901700779
 10
131.2504964069
 20
95.9308735273
 10
131.3471956298
 20
95.9381639204
 10
131.6897044078
 20
95.9639820449
  0
LINE
  5
1DD
330
1F
100
AcDbEntity
  8
0
  6
SLD-Gestrichelt
 62
     7
370
     0
100
AcDbLine
 10
147.9606451964
 20
98.3330059044
 30
0.0
 11
147.9606451964
 21
95.4734488569
 31
0.0
  0
LINE
  5
1DE
330
1F
100
AcDbEntity
  8
0
  6
SLD-Gestrichelt
 62
     7
370
     0
100
AcDbLine
 10
123.1886850789
 20
101.1300954215
 30
0.0
 11
123.1886850789
 21
122.7074462167
 31
0.0
  0
LINE
  5
1DF
330
1F
100
AcDbEntity
  8
0
  6
SLD-Gestrichelt
 62
     7
370
     0
100
AcDbLine
 10
119.1886844233
 20
100.7488976411
 30
0.0
 11
119.1886844233
 21
123.0886439971
 31
0.0
  0
LINE
  5
1E0
330
1F
100
AcDbEntity
  8
0
  6
SLD-Gestrichelt
 62
     7
370
     0
100
AcDbLine
 10
118.1606458619
 20
100.1752606771
 30
0.0
 11
118.1606458619
 21
123.6622809611
 31
0.0
  0
LINE
  5
1E1
330
1F
100
AcDbEntity
  8
0
  6
SLD-Gestrichelt
 62
     7
370
     0
100
AcDbLine
 10
127.7886847154
 20
101.4187709607
 30
0.0
 11
127.7886847154
 21
122.4187706775
 31
0.0
  0
LINE
  5
1E2
330
1F
100
AcDbEntity
  8
0
  6
SLD-Gestrichelt
 62
     7
370
     0
100
AcDbLine
 10
121.6886857644
 20
101.4187709607
 30
0.0
 11
121.6886857644
 21
122.4187706775
 31
0.0
  0
LINE
  5
1E3
330
1F
100
AcDbEntity
  8
0
  6
SLD-Gestrichelt
 62
     7
370
     0
100
AcDbLine
 10
122.6886859283
 20
101.4187709607
 30
0.0
 11
122.6886859283
 21
122.4187706775
 31
0.0
  0
LINE
  5
1E4
330
1F
100
AcDbEntity
  8
0
  6
SLD-Gestrichelt
 62
     7
370
     0
100
AcDbLine
 10
138.1606454149
 20
101.9187710426
 30
0.0
 11
138.1606454149
 21
121.9187705956
 31
0.0
  0
LWPOLYLINE
  5
1E5
330
1F
100
AcDbEntity
  8
0
  6
SLD-Gestrichelt
 62
     7
370
     0
100
AcDbPolyline
 90
       24
 70
   128
 43
0.0
 10
133.8425077617
 20
101.8572255216
 10
134.1606447593
 20
101.8715073533
 10
134.3864411235
 20
101.8604646615
 10
135.1457866028
 20
101.8233263112
 10
136.019379285
 20
101.7010222367
 10
136.7099223778
 20
101.5531393878
 10
137.1241252989
 20
101.4435758061
 10
137.1756926298
 20
101.4288227252
 10
137.1965849892
 20
101.4228464282
 10
136.9454398871
 20
101.4927179731
 10
136.4009663582
 20
101.6247655443
 10
135.5900209517
 20
101.7703415073
 10
134.6034132064
 20
101.8617564059
 10
133.5980747014
 20
101.8557698644
 10
132.6786665365
 20
101.7627987258
 10
131.8982070431
 20
101.6199301175
 10
131.3450610385
 20
101.4844515539
 10
131.1152087644
 20
101.4200953014
 10
131.1334850386
 20
101.4253107078
 10
131.2238382295
 20
101.451090648
 10
131.6372392819
 20
101.5594714499
 10
132.3325367764
 20
101.7065487049
 10
133.2567235574
 20
101.8309277661
 10
133.8425077617
 20
101.8572255216
  0
LWPOLYLINE
  5
1E6
330
1F
100
AcDbEntity
  8
0
  6
SLD-Gestrichelt
 62
     7
370
     0
100
AcDbPolyline
 90
       24
 70
   128
 43
0.0
 10
134.4787826881
 20
121.9803161166
 10
134.1606447593
 20
121.9660342849
 10
133.9348493263
 20
121.9770769767
 10
133.1755029157
 20
122.014215327
 10
132.3019111648
 20
122.1365194015
 10
131.6113690034
 20
122.2844022504
 10
131.197165151
 20
122.3939658321
 10
131.14559782
 20
122.408718913
 10
131.1247045294
 20
122.41469521
 10
131.3758505628
 20
122.3448236651
 10
131.9203240916
 20
122.2127760939
 10
132.7312694982
 20
122.0672001309
 10
133.7178772435
 20
121.9757852323
 10
134.7232157484
 20
121.9817717738
 10
135.6426239133
 20
122.0747429124
 10
136.4230824754
 20
122.2176115207
 10
136.9762284801
 20
122.3530900843
 10
137.2060826168
 20
122.4174463368
 10
137.1878054112
 20
122.4122309304
 10
137.0974522203
 20
122.3864509902
 10
136.684051168
 20
122.2780701883
 10
135.9887546048
 20
122.1309929333
 10
135.0645668924
 20
122.0066138721
 10
134.4787826881
 20
121.9803161166
  0
LINE
  5
1E7
330
1F
100
AcDbEntity
  8
0
  6
SLD-Gestrichelt
 62
     7
370
     0
100
AcDbLine
 10
139.1606455788
 20
104.6687710277
 30
0.0
 11
139.1606455788
 21
119.1687706105
 31
0.0
  0
LINE
  5
1E8
330
1F
100
AcDbEntity
  8
0
  6
SLD-Gestrichelt
 62
     7
370
     0
100
AcDbLine
 10
138.1606454149
 20
103.6737962804
 30
0.0
 11
138.1606454149
 21
120.1637453578
 31
0.0
  0
LINE
  5
1E9
330
1F
100
AcDbEntity
  8
0
  6
SLD-Gestrichelt
 62
     7
370
     0
100
AcDbLine
 10
163.1606448561
 20
104.6687710277
 30
0.0
 11
163.1606448561
 21
119.1687706105
 31
0.0
  0
LINE
  5
1EA
330
1F
100
AcDbEntity
  8
0
  6
SLD-Gestrichelt
 62
     7
370
     0
100
AcDbLine
 10
165.4739579305
 20
108.518770774
 30
0.0
 11
165.4739579305
 21
115.3187708642
 31
0.0
  0
LINE
  5
1EB
330
1F
100
AcDbEntity
  8
0
  6
SLD-Gestrichelt
 62
     7
370
     0
100
AcDbLine
 10
247.5606439755
 20
105.9187707669
 30
0.0
 11
247.5606439755
 21
117.9187708713
 31
0.0
  0
LINE
  5
1EC
330
1F
100
AcDbEntity
  8
0
  6
SLD-Gestrichelt
 62
     7
370
     0
100
AcDbLine
 10
248.560646002
 20
118.8125532299
 30
0.0
 11
248.560646002
 21
118.5249887585
 31
0.0
  0
LWPOLYLINE
  5
1ED
330
1F
100
AcDbEntity
  8
0
  6
SLD-Gestrichelt
 62
     7
370
     0
100
AcDbPolyline
 90
        3
 70
   128
 43
0.0
 10
248.560646002
 20
118.5249887585
 10
247.8392807886
 20
118.1085073567
 10
247.6906417057
 20
118.0226938977
  0
LWPOLYLINE
  5
1EE
330
1F
100
AcDbEntity
  8
0
  6
SLD-Gestrichelt
 62
     7
370
     0
100
AcDbPolyline
 90
       16
 70
   128
 43
0.0
 10
247.6906417057
 20
118.0226938977
 10
247.6889206216
 20
118.0216773591
 10
247.6835115001
 20
118.0182370535
 10
247.6793987796
 20
118.0153331898
 10
247.6761205241
 20
118.0128223441
 10
247.6722015187
 20
118.0095804102
 10
247.6699663446
 20
118.0076036781
 10
247.6677088186
 20
118.0054998204
 10
247.6659877345
 20
118.0038169205
 10
247.6642517492
 20
118.0020539268
 10
247.6623518512
 20
118.0000413387
 10
247.6597739503
 20
117.9971430629
 10
247.6544467852
 20
117.9905045956
 10
247.6428834841
 20
117.971571739
 10
247.6306421802
 20
117.9184341981
 10
247.6906417057
 20
117.8148478448
  0
LWPOLYLINE
  5
1EF
330
1F
100
AcDbEntity
  8
0
  6
SLD-Gestrichelt
 62
     7
370
     0
100
AcDbPolyline
 90
        3
 70
   128
 43
0.0
 10
247.6906417057
 20
117.8148478448
 10
248.0394927904
 20
117.6134386278
 10
248.560646002
 20
117.312552984
  0
LINE
  5
1F0
330
1F
100
AcDbEntity
  8
0
  6
SLD-Gestrichelt
 62
     7
370
     0
100
AcDbLine
 10
248.560646002
 20
117.312552984
 30
0.0
 11
248.560646002
 21
117.0249885126
 31
0.0
  0
ARC
  5
1F1
330
1F
100
AcDbEntity
  8
0
  6
SLD-Gestrichelt
 62
     7
370
     0
100
AcDbCircle
 10
247.7506512412
 20
116.4187706254
 30
0.0
 40
0.1200047490043289
100
AcDbArc
 50
120.0039479942
 51
239.9960520058
  0
LINE
  5
1F2
330
1F
100
AcDbEntity
  8
0
  6
SLD-Gestrichelt
 62
     7
370
     0
100
AcDbLine
 10
248.560646002
 20
115.812552971
 30
0.0
 11
248.560646002
 21
115.5249884996
 31
0.0
  0
ARC
  5
1F3
330
1F
100
AcDbEntity
  8
0
  6
SLD-Gestrichelt
 62
     7
370
     0
100
AcDbCircle
 10
247.7506547148
 20
114.9187708452
 30
0.0
 40
0.1200064860218222
100
AcDbArc
 50
120.0053841587
 51
239.9946158413
  0
LINE
  5
1F4
330
1F
100
AcDbEntity
  8
0
  6
SLD-Gestrichelt
 62
     7
370
     0
100
AcDbLine
 10
248.560646002
 20
114.3125529579
 30
0.0
 11
248.560646002
 21
114.0249884866
 31
0.0
  0
ARC
  5
1F5
330
1F
100
AcDbEntity
  8
0
  6
SLD-Gestrichelt
 62
     7
370
     0
100
AcDbCircle
 10
247.7506516628
 20
113.4187708321
 30
0.0
 40
0.120004959796255
100
AcDbArc
 50
120.0041222823
 51
239.9958777177
  0
LINE
  5
1F6
330
1F
100
AcDbEntity
  8
0
  6
SLD-Gestrichelt
 62
     7
370
     0
100
AcDbLine
 10
248.560646002
 20
112.8125530613
 30
0.0
 11
248.560646002
 21
112.5249885899
 31
0.0
  0
ARC
  5
1F7
330
1F
100
AcDbEntity
  8
0
  6
SLD-Gestrichelt
 62
     7
370
     0
100
AcDbCircle
 10
247.7506563097
 20
111.9187708191
 30
0.0
 40
0.1200073025104388
100
AcDbArc
 50
120.0060383559
 51
239.9939616441
  0
LINE
  5
1F8
330
1F
100
AcDbEntity
  8
0
  6
SLD-Gestrichelt
 62
     7
370
     0
100
AcDbLine
 10
248.560646002
 20
111.3125530483
 30
0.0
 11
248.560646002
 21
111.0249885769
 31
0.0
  0
ARC
  5
1F9
330
1F
100
AcDbEntity
  8
0
  6
SLD-Gestrichelt
 62
     7
370
     0
100
AcDbCircle
 10
247.7506482218
 20
110.4187708061
 30
0.0
 40
0.1200032391562652
100
AcDbArc
 50
120.0026995687
 51
239.9973004313
  0
LINE
  5
1FA
330
1F
100
AcDbEntity
  8
0
  6
SLD-Gestrichelt
 62
     7
370
     0
100
AcDbLine
 10
248.560646002
 20
109.8125531516
 30
0.0
 11
248.560646002
 21
109.5249886803
 31
0.0
  0
ARC
  5
1FB
330
1F
100
AcDbEntity
  8
0
  6
SLD-Gestrichelt
 62
     7
370
     0
100
AcDbCircle
 10
247.7506443807
 20
108.918770793
 30
0.0
 40
0.1200013184725257
100
AcDbArc
 50
120.0011113282
 51
239.9988886718
  0
LINE
  5
1FC
330
1F
100
AcDbEntity
  8
0
  6
SLD-Gestrichelt
 62
     7
370
     0
100
AcDbLine
 10
248.560646002
 20
108.3125531386
 30
0.0
 11
248.560646002
 21
108.0249886672
 31
0.0
  0
ARC
  5
1FD
330
1F
100
AcDbEntity
  8
0
  6
SLD-Gestrichelt
 62
     7
370
     0
100
AcDbCircle
 10
247.7506509814
 20
107.4187710128
 30
0.0
 40
0.1200046190680573
100
AcDbArc
 50
120.0038405588
 51
239.9961594412
  0
LINE
  5
1FE
330
1F
100
AcDbEntity
  8
0
  6
SLD-Gestrichelt
 62
     7
370
     0
100
AcDbLine
 10
248.560646002
 20
106.8125531256
 30
0.0
 11
248.560646002
 21
106.5249886542
 31
0.0
  0
LWPOLYLINE
  5
1FF
330
1F
100
AcDbEntity
  8
0
  6
SLD-Gestrichelt
 62
     7
370
     0
100
AcDbPolyline
 90
        3
 70
   128
 43
0.0
 10
248.560646002
 20
106.5249886542
 10
248.0476511762
 20
106.228809449
 10
247.6906417057
 20
106.0226937934
  0
LWPOLYLINE
  5
200
330
1F
100
AcDbEntity
  8
0
  6
SLD-Gestrichelt
 62
     7
370
     0
100
AcDbPolyline
 90
       16
 70
   128
 43
0.0
 10
247.6906417057
 20
106.0226937934
 10
247.6614428804
 20
105.9990349404
 10
247.6431964085
 20
105.8653417222
 10
247.6474953935
 20
105.8574487633
 10
247.6509226606
 20
105.8520186871
 10
247.653828387
 20
105.8478775612
 10
247.6563317821
 20
105.8445727631
 10
247.659565334
 20
105.8406369939
 10
247.6615471885
 20
105.8383892469
 10
247.6636408016
 20
105.836123339
 10
247.6653171823
 20
105.834392476
 10
247.6670755193
 20
105.8326509028
 10
247.6690797255
 20
105.8307505391
 10
247.6719631002
 20
105.8281651876
 10
247.678556864
 20
105.8228384882
 10
247.6906417057
 20
105.8148477405
  0
LWPOLYLINE
  5
201
330
1F
100
AcDbEntity
  8
0
  6
SLD-Gestrichelt
 62
     7
370
     0
100
AcDbPolyline
 90
        4
 70
   128
 43
0.0
 10
247.6906417057
 20
105.8148477405
 10
247.9240981981
 20
105.6800653405
 10
248.2822625086
 20
105.4732782013
 10
248.560646002
 20
105.3125528797
  0
LINE
  5
202
330
1F
100
AcDbEntity
  8
0
  6
SLD-Gestrichelt
 62
     7
370
     0
100
AcDbLine
 10
248.560646002
 20
105.3125528797
 30
0.0
 11
248.560646002
 21
105.0249884083
 31
0.0
  0
LINE
  5
203
330
1F
100
AcDbEntity
  8
0
  6
SLD-Gestrichelt
 62
     7
370
     0
100
AcDbLine
 10
248.560646002
 20
105.0249884083
 30
0.0
 11
248.560646002
 21
105.3125528797
 31
0.0
  0
LINE
  5
204
330
1F
100
AcDbEntity
  8
0
  6
SLD-Gestrichelt
 62
     7
370
     0
100
AcDbLine
 10
248.560646002
 20
118.5249887585
 30
0.0
 11
248.560646002
 21
118.8125532299
 31
0.0
  0
LINE
  5
205
330
1F
100
AcDbEntity
  8
0
  6
SLD-Gestrichelt
 62
     7
370
     0
100
AcDbLine
 10
248.560646002
 20
106.5249886542
 30
0.0
 11
248.560646002
 21
106.8125531256
 31
0.0
  0
LINE
  5
206
330
1F
100
AcDbEntity
  8
0
  6
SLD-Gestrichelt
 62
     7
370
     0
100
AcDbLine
 10
248.560646002
 20
117.0249885126
 30
0.0
 11
248.560646002
 21
117.312552984
 31
0.0
  0
LINE
  5
207
330
1F
100
AcDbEntity
  8
0
  6
SLD-Gestrichelt
 62
     7
370
     0
100
AcDbLine
 10
248.560646002
 20
108.0249886672
 30
0.0
 11
248.560646002
 21
108.3125531386
 31
0.0
  0
LINE
  5
208
330
1F
100
AcDbEntity
  8
0
  6
SLD-Gestrichelt
 62
     7
370
     0
100
AcDbLine
 10
248.560646002
 20
115.5249884996
 30
0.0
 11
248.560646002
 21
115.812552971
 31
0.0
  0
LINE
  5
209
330
1F
100
AcDbEntity
  8
0
  6
SLD-Gestrichelt
 62
     7
370
     0
100
AcDbLine
 10
248.560646002
 20
109.5249886803
 30
0.0
 11
248.560646002
 21
109.8125531516
 31
0.0
  0
LINE
  5
20A
330
1F
100
AcDbEntity
  8
0
  6
SLD-Gestrichelt
 62
     7
370
     0
100
AcDbLine
 10
248.560646002
 20
114.0249884866
 30
0.0
 11
248.560646002
 21
114.3125529579
 31
0.0
  0
LWPOLYLINE
  5
20B
330
1F
100
AcDbEntity
  8
0
  6
SLD-Gestrichelt
 62
     7
370
     0
100
AcDbPolyline
 90
        4
 70
   128
 43
0.0
 10
247.6906417057
 20
118.0226938977
 10
247.9240981981
 20
118.1574762977
 10
248.2822625086
 20
118.3642634369
 10
248.560646002
 20
118.5249887585
  0
LWPOLYLINE
  5
20C
330
1F
100
AcDbEntity
  8
0
  6
SLD-Gestrichelt
 62
     7
370
     0
100
AcDbPolyline
 90
        3
 70
   128
 43
0.0
 10
248.560646002
 20
105.3125528797
 10
247.8392807886
 20
105.7290342815
 10
247.6906417057
 20
105.8148477405
  0
LWPOLYLINE
  5
20D
330
1F
100
AcDbEntity
  8
0
  6
SLD-Gestrichelt
 62
     7
370
     0
100
AcDbPolyline
 90
        3
 70
   128
 43
0.0
 10
248.560646002
 20
117.312552984
 10
248.0476511762
 20
117.6087321892
 10
247.6906417057
 20
117.8148478448
  0
LWPOLYLINE
  5
20E
330
1F
100
AcDbEntity
  8
0
  6
SLD-Gestrichelt
 62
     7
370
     0
100
AcDbPolyline
 90
        3
 70
   128
 43
0.0
 10
247.6906417057
 20
106.0226937934
 10
248.0394927904
 20
106.2241030104
 10
248.560646002
 20
106.5249886542
  0
LINE
  5
20F
330
1F
100
AcDbEntity
  8
0
  6
SLD-Gestrichelt
 62
     7
370
     0
100
AcDbLine
 10
248.560646002
 20
112.5249885899
 30
0.0
 11
248.560646002
 21
112.8125530613
 31
0.0
  0
LINE
  5
210
330
1F
100
AcDbEntity
  8
0
  6
SLD-Gestrichelt
 62
     7
370
     0
100
AcDbLine
 10
248.560646002
 20
111.0249885769
 30
0.0
 11
248.560646002
 21
111.3125530483
 31
0.0
  0
LWPOLYLINE
  5
211
330
1F
100
AcDbEntity
  8
0
  6
SLD-Gestrichelt
 62
     7
370
     0
100
AcDbPolyline
 90
       16
 70
   128
 43
0.0
 10
247.6906417057
 20
117.8148478448
 10
247.6614428804
 20
117.8385066978
 10
247.6431964085
 20
117.972199916
 10
247.6474953935
 20
117.9800928749
 10
247.6509226606
 20
117.9855229511
 10
247.653828387
 20
117.989664077
 10
247.6563317821
 20
117.9929688751
 10
247.659565334
 20
117.9969046443
 10
247.6615471885
 20
117.9991523913
 10
247.6636408016
 20
118.0014182992
 10
247.6653171823
 20
118.0031491622
 10
247.6670755193
 20
118.0048907354
 10
247.6690797255
 20
118.0067910991
 10
247.6719631002
 20
118.0093764506
 10
247.678556864
 20
118.01470315
 10
247.6906417057
 20
118.0226938977
  0
LWPOLYLINE
  5
212
330
1F
100
AcDbEntity
  8
0
  6
SLD-Gestrichelt
 62
     7
370
     0
100
AcDbPolyline
 90
       16
 70
   128
 43
0.0
 10
247.6906417057
 20
105.8148477405
 10
247.6889206216
 20
105.8158642791
 10
247.6835115001
 20
105.8193045847
 10
247.6793987796
 20
105.8222084484
 10
247.6761205241
 20
105.8247192941
 10
247.6722015187
 20
105.827961228
 10
247.6699663446
 20
105.8299379602
 10
247.6677088186
 20
105.8320418178
 10
247.6659877345
 20
105.8337247177
 10
247.6642517492
 20
105.8354877114
 10
247.6623518512
 20
105.8375002995
 10
247.6597739503
 20
105.8403985753
 10
247.6544467852
 20
105.8470370426
 10
247.6428834841
 20
105.8659698992
 10
247.6306421802
 20
105.9191074401
 10
247.6906417057
 20
106.0226937934
  0
ARC
  5
213
330
1F
100
AcDbEntity
  8
0
  6
SLD-Gestrichelt
 62
     7
370
     0
100
AcDbCircle
 10
247.7506509814
 20
116.4187706254
 30
0.0
 40
0.1200046190680573
100
AcDbArc
 50
120.0038405588
 51
239.9961594412
  0
ARC
  5
214
330
1F
100
AcDbEntity
  8
0
  6
SLD-Gestrichelt
 62
     7
370
     0
100
AcDbCircle
 10
247.7506512412
 20
107.4187710128
 30
0.0
 40
0.1200047490043289
100
AcDbArc
 50
120.0039479942
 51
239.9960520058
  0
ARC
  5
215
330
1F
100
AcDbEntity
  8
0
  6
SLD-Gestrichelt
 62
     7
370
     0
100
AcDbCircle
 10
247.7506443807
 20
114.9187708452
 30
0.0
 40
0.1200013184725257
100
AcDbArc
 50
120.0011113282
 51
239.9988886718
  0
ARC
  5
216
330
1F
100
AcDbEntity
  8
0
  6
SLD-Gestrichelt
 62
     7
370
     0
100
AcDbCircle
 10
247.7506547148
 20
108.918770793
 30
0.0
 40
0.1200064860218222
100
AcDbArc
 50
120.0053841587
 51
239.9946158413
  0
ARC
  5
217
330
1F
100
AcDbEntity
  8
0
  6
SLD-Gestrichelt
 62
     7
370
     0
100
AcDbCircle
 10
247.7506482218
 20
113.4187708321
 30
0.0
 40
0.1200032391562652
100
AcDbArc
 50
120.0026995687
 51
239.9973004313
  0
ARC
  5
218
330
1F
100
AcDbEntity
  8
0
  6
SLD-Gestrichelt
 62
     7
370
     0
100
AcDbCircle
 10
247.7506516628
 20
110.4187708061
 30
0.0
 40
0.120004959796255
100
AcDbArc
 50
120.0041222823
 51
239.9958777177
  0
ARC
  5
219
330
1F
100
AcDbEntity
  8
0
  6
SLD-Gestrichelt
 62
     7
370
     0
100
AcDbCircle
 10
247.7506563097
 20
111.9187708191
 30
0.0
 40
0.1200073025104388
100
AcDbArc
 50
120.0060383559
 51
239.9939616441
  0
LINE
  5
21A
330
1F
100
AcDbEntity
  8
0
  6
SLD-Gestrichelt
 62
     7
370
     0
100
AcDbLine
 10
145.9606452033
 20
129.1815704844
 30
0.0
 11
145.9606452033
 21
130.5588699124
 31
0.0
  0
LINE
  5
21B
330
1F
100
AcDbEntity
  8
0
  6
SLD-Gestrichelt
 62
     7
370
     0
100
AcDbLine
 10
119.6606451765
 20
128.6093454055
 30
0.0
 11
119.6606451765
 21
129.8981226228
 31
0.0
  0
ARC
  5
21C
330
1F
100
AcDbEntity
  8
0
  6
SLD-Gestrichelt
 62
     7
370
     0
100
AcDbCircle
 10
255.2221681029
 20
178.9832298324
 30
0.0
 40
119.1588804925801
100
AcDbArc
 50
204.0889562052
 51
204.5545820207
  0
LINE
  5
21D
330
1F
100
AcDbEntity
  8
0
  6
SLD-Gestrichelt
 62
     7
370
     0
100
AcDbLine
 10
118.1606458619
 20
127.8593457482
 30
0.0
 11
118.1606458619
 21
129.0320969365
 31
0.0
  0
LINE
  5
21E
330
1F
100
AcDbEntity
  8
0
  6
SLD-Gestrichelt
 62
     7
370
     0
100
AcDbLine
 10
244.6106461928
 20
108.218770818
 30
0.0
 11
244.6106461928
 21
115.6187708202
 31
0.0
  0
LINE
  5
21F
330
1F
100
AcDbEntity
  8
0
  6
SLD-Gestrichelt
 62
     7
370
     0
100
AcDbLine
 10
246.110641782
 20
108.218770818
 30
0.0
 11
246.110641782
 21
115.6187708202
 31
0.0
  0
LINE
  5
220
330
1F
100
AcDbEntity
  8
0
  6
SLD-Gestrichelt
 62
     7
370
     0
100
AcDbLine
 10
242.2606436655
 20
108.518770774
 30
0.0
 11
242.2606436655
 21
115.3187708642
 31
0.0
  0
LINE
  5
221
330
1F
100
AcDbEntity
  8
0
  6
SLD-Gestrichelt
 62
     7
370
     0
100
AcDbLine
 10
242.500991945
 20
108.918770793
 30
0.0
 11
242.500991945
 21
114.9187708452
 31
0.0
  0
LINE
  5
222
330
1F
100
AcDbEntity
  8
0
  6
SLD-Gestrichelt
 62
     7
370
     0
100
AcDbLine
 10
131.1106452838
 20
96.1284536115
 30
0.0
 11
137.2106451661
 21
96.1284536115
 31
0.0
  0
LINE
  5
223
330
1F
100
AcDbEntity
  8
0
  6
SLD-Gestrichelt
 62
     7
370
     0
100
AcDbLine
 10
247.1276311323
 20
108.918770793
 30
0.0
 11
247.1276311323
 21
114.9187708452
 31
0.0
  0
LINE
  5
224
330
1F
100
AcDbEntity
  8
0
  6
SLD-Gestrichelt
 62
     7
370
     0
100
AcDbLine
 10
247.5606439755
 20
115.1687708862
 30
0.0
 11
247.5606439755
 21
108.668770752
 31
0.0
  0
LINE
  5
225
330
1F
100
AcDbEntity
  8
0
  6
SLD-Gestrichelt
 62
     7
370
     0
100
AcDbLine
 10
119.6606451765
 20
96.3859736166
 30
0.0
 11
118.1606458619
 21
97.1635022379
 31
0.0
  0
LINE
  5
226
330
1F
100
AcDbEntity
  8
0
  6
SLD-Gestrichelt
 62
     7
370
     0
100
AcDbLine
 10
123.6606458321
 20
96.2939067922
 30
0.0
 11
123.6606458321
 21
97.918770387
 31
0.0
  0
LINE
  5
227
330
1F
100
AcDbEntity
  8
0
  6
SLD-Gestrichelt
 62
     7
370
     0
100
AcDbLine
 10
118.1606458619
 20
97.1635022379
 30
0.0
 11
118.1606458619
 21
97.918770387
 31
0.0
  0
LINE
  5
228
330
1F
100
AcDbEntity
  8
0
  6
SLD-Gestrichelt
 62
     7
370
     0
100
AcDbLine
 10
131.1106452838
 20
125.9187712512
 30
0.0
 11
137.2106451661
 21
125.9187712512
 31
0.0
  0
LINE
  5
229
330
1F
100
AcDbEntity
  8
0
  6
SLD-Gestrichelt
 62
     7
370
     0
100
AcDbLine
 10
246.110641782
 20
108.9238462682
 30
0.0
 11
246.110641782
 21
114.91369537
 31
0.0
  0
LINE
  5
22A
330
1F
100
AcDbEntity
  8
0
  6
SLD-Gestrichelt
 62
     7
370
     0
100
AcDbLine
 10
244.6106461928
 20
108.9238462682
 30
0.0
 11
244.6106461928
 21
114.91369537
 31
0.0
  0
LINE
  5
22B
330
1F
100
AcDbEntity
  8
0
  6
SLD-Gestrichelt
 62
     7
370
     0
100
AcDbLine
 10
158.1606449679
 20
87.4187714599
 30
0.0
 11
162.1606456235
 21
87.4187714599
 31
0.0
  0
LINE
  5
22C
330
1F
100
AcDbEntity
  8
0
  6
SLD-Gestrichelt
 62
     7
370
     0
100
AcDbLine
 10
118.1606458619
 20
100.1580926768
 30
0.0
 11
118.1606458619
 21
97.1635022379
 31
0.0
  0
LINE
  5
22D
330
1F
100
AcDbEntity
  8
0
  6
SLD-Gestrichelt
 62
     7
370
     0
100
AcDbLine
 10
118.1606458619
 20
127.8593457482
 30
0.0
 11
118.1606458619
 21
107.7388740323
 31
0.0
  0
LINE
  5
22E
330
1F
100
AcDbEntity
  8
0
  6
SLD-Gestrichelt
 62
     7
370
     0
100
AcDbLine
 10
119.6606451765
 20
128.6093454055
 30
0.0
 11
119.6606451765
 21
107.7388740323
 31
0.0
  0
LINE
  5
22F
330
1F
100
AcDbEntity
  8
0
  6
SLD-Gestrichelt
 62
     7
370
     0
100
AcDbLine
 10
145.9606452033
 20
129.1815704844
 30
0.0
 11
145.9606452033
 21
107.7388740323
 31
0.0
  0
LINE
  5
230
330
1F
100
AcDbEntity
  8
0
  6
SLD-Gestrichelt
 62
     7
370
     0
100
AcDbLine
 10
147.9606451964
 20
128.7248759709
 30
0.0
 11
147.9606451964
 21
108.6984298836
 31
0.0
  0
LINE
  5
231
330
1F
100
AcDbEntity
  8
0
  6
SLD-Gestrichelt
 62
     7
370
     0
100
AcDbLine
 10
247.2606463477
 20
99.5192761711
 30
0.0
 11
247.2606463477
 21
104.5192760594
 31
0.0
  0
LWPOLYLINE
  5
232
330
1F
100
AcDbEntity
  8
0
  6
SLD-Gestrichelt
 62
     7
370
     0
100
AcDbPolyline
 90
       10
 70
   128
 43
0.0
 10
247.6906417057
 20
104.3148479603
 10
247.6372210428
 20
104.3795846581
 10
247.6307017848
 20
104.4151490732
 10
247.6356117174
 20
104.4529346927
 10
247.6413635656
 20
104.468345753
 10
247.6507885501
 20
104.485320504
 10
247.6600347206
 20
104.4974444612
 10
247.6706816003
 20
104.5082478031
 10
247.6849718139
 20
104.5192062102
 10
247.6906417057
 20
104.5226940132
  0
LINE
  5
233
330
1F
100
AcDbEntity
  8
0
  6
SLD-Gestrichelt
 62
     7
370
     0
100
AcDbLine
 10
248.560646002
 20
103.5249886281
 30
0.0
 11
248.560646002
 21
103.8125530995
 31
0.0
  0
LINE
  5
234
330
1F
100
AcDbEntity
  8
0
  6
SLD-Gestrichelt
 62
     7
370
     0
100
AcDbLine
 10
248.560646002
 20
102.0249883823
 30
0.0
 11
248.560646002
 21
102.3125528536
 31
0.0
  0
LINE
  5
235
330
1F
100
AcDbEntity
  8
0
  6
SLD-Gestrichelt
 62
     7
370
     0
100
AcDbLine
 10
248.560646002
 20
100.5249881364
 30
0.0
 11
248.560646002
 21
100.8125526077
 31
0.0
  0
LINE
  5
236
330
1F
100
AcDbEntity
  8
0
  6
SLD-Gestrichelt
 62
     7
370
     0
100
AcDbLine
 10
248.560646002
 20
99.0249888218
 30
0.0
 11
248.560646002
 21
99.3125532932
 31
0.0
  0
LINE
  5
237
330
1F
100
AcDbEntity
  8
0
  6
SLD-Gestrichelt
 62
     7
370
     0
100
AcDbLine
 10
248.560646002
 20
105.0249884083
 30
0.0
 11
248.560646002
 21
105.3125528797
 31
0.0
  0
LINE
  5
238
330
1F
100
AcDbEntity
  8
0
  6
SLD-Gestrichelt
 62
     7
370
     0
100
AcDbLine
 10
248.560646002
 20
105.3125528797
 30
0.0
 11
248.560646002
 21
105.0249884083
 31
0.0
  0
LWPOLYLINE
  5
239
330
1F
100
AcDbEntity
  8
0
  6
SLD-Gestrichelt
 62
     7
370
     0
100
AcDbPolyline
 90
        5
 70
   128
 43
0.0
 10
248.560646002
 20
105.3125528797
 10
248.3285231635
 20
105.4465706638
 10
248.2394514725
 20
105.4979959681
 10
248.3187480018
 20
105.4522107534
 10
248.560646002
 20
105.3125528797
  0
LINE
  5
23A
330
1F
100
AcDbEntity
  8
0
  6
SLD-Gestrichelt
 62
     7
370
     0
100
AcDbLine
 10
248.560646002
 20
102.3125528536
 30
0.0
 11
248.560646002
 21
102.0249883823
 31
0.0
  0
LINE
  5
23B
330
1F
100
AcDbEntity
  8
0
  6
SLD-Gestrichelt
 62
     7
370
     0
100
AcDbLine
 10
248.560646002
 20
100.8125526077
 30
0.0
 11
248.560646002
 21
100.5249881364
 31
0.0
  0
LINE
  5
23C
330
1F
100
AcDbEntity
  8
0
  6
SLD-Gestrichelt
 62
     7
370
     0
100
AcDbLine
 10
248.560646002
 20
103.8125530995
 30
0.0
 11
248.560646002
 21
103.5249886281
 31
0.0
  0
LINE
  5
23D
330
1F
100
AcDbEntity
  8
0
  6
SLD-Gestrichelt
 62
     7
370
     0
100
AcDbLine
 10
248.560646002
 20
99.3125532932
 30
0.0
 11
248.560646002
 21
99.0249888218
 31
0.0
  0
LWPOLYLINE
  5
23E
330
1F
100
AcDbEntity
  8
0
  6
SLD-Gestrichelt
 62
     7
370
     0
100
AcDbPolyline
 90
       10
 70
   128
 43
0.0
 10
247.6906417057
 20
104.5226940132
 10
247.6830719158
 20
104.5179358862
 10
247.6683346674
 20
104.5060899287
 10
247.657985811
 20
104.4950220912
 10
247.6492313788
 20
104.4829162947
 10
247.640469496
 20
104.4663224548
 10
247.6326836392
 20
104.4407995596
 10
247.6328177497
 20
104.3960313491
 10
247.6727007076
 20
104.3275330394
 10
247.6906417057
 20
104.3148479603
  0
LWPOLYLINE
  5
23F
330
1F
100
AcDbEntity
  8
0
  6
SLD-Gestrichelt
 62
     7
370
     0
100
AcDbPolyline
 90
        6
 70
   128
 43
0.0
 10
248.560646002
 20
99.0249888218
 10
248.2294006393
 20
98.8337445251
 10
248.0594007418
 20
98.7355933703
 10
248.0849115297
 20
98.7503231681
 10
248.273977463
 20
98.8594797618
 10
248.560646002
 20
99.0249888218
  0
LINE
  5
240
330
1F
100
AcDbEntity
  8
0
  6
SLD-Gestrichelt
 62
     7
370
     0
100
AcDbLine
 10
247.2606463477
 20
119.3182655788
 30
0.0
 11
247.2606463477
 21
124.3182654671
 31
0.0
  0
LINE
  5
241
330
1F
100
AcDbEntity
  8
0
  6
SLD-Gestrichelt
 62
     7
370
     0
100
AcDbLine
 10
248.560646002
 20
124.524988345
 30
0.0
 11
248.560646002
 21
124.8125528164
 31
0.0
  0
LINE
  5
242
330
1F
100
AcDbEntity
  8
0
  6
SLD-Gestrichelt
 62
     7
370
     0
100
AcDbLine
 10
248.560646002
 20
123.0249890305
 30
0.0
 11
248.560646002
 21
123.3125535018
 31
0.0
  0
LINE
  5
243
330
1F
100
AcDbEntity
  8
0
  6
SLD-Gestrichelt
 62
     7
370
     0
100
AcDbLine
 10
248.560646002
 20
121.5249887846
 30
0.0
 11
248.560646002
 21
121.812553256
 31
0.0
  0
LINE
  5
244
330
1F
100
AcDbEntity
  8
0
  6
SLD-Gestrichelt
 62
     7
370
     0
100
AcDbLine
 10
248.560646002
 20
120.0249885387
 30
0.0
 11
248.560646002
 21
120.3125530101
 31
0.0
  0
LWPOLYLINE
  5
245
330
1F
100
AcDbEntity
  8
0
  6
SLD-Gestrichelt
 62
     7
370
     0
100
AcDbPolyline
 90
       10
 70
   128
 43
0.0
 10
247.6906417057
 20
119.314847625
 10
247.6830719158
 20
119.319605752
 10
247.6683346674
 20
119.3314517095
 10
247.657985811
 20
119.342519547
 10
247.6492313788
 20
119.3546253435
 10
247.640469496
 20
119.3712191834
 10
247.6326836392
 20
119.3967420786
 10
247.6328177497
 20
119.4415102891
 10
247.6727007076
 20
119.5100085988
 10
247.6906417057
 20
119.5226936779
  0
LINE
  5
246
330
1F
100
AcDbEntity
  8
0
  6
SLD-Gestrichelt
 62
     7
370
     0
100
AcDbLine
 10
248.560646002
 20
118.5249887585
 30
0.0
 11
248.560646002
 21
118.8125532299
 31
0.0
  0
LINE
  5
247
330
1F
100
AcDbEntity
  8
0
  6
SLD-Gestrichelt
 62
     7
370
     0
100
AcDbLine
 10
248.560646002
 20
118.8125532299
 30
0.0
 11
248.560646002
 21
118.5249887585
 31
0.0
  0
LWPOLYLINE
  5
248
330
1F
100
AcDbEntity
  8
0
  6
SLD-Gestrichelt
 62
     7
370
     0
100
AcDbPolyline
 90
        5
 70
   128
 43
0.0
 10
248.560646002
 20
118.5249887585
 10
248.3285231635
 20
118.3909709744
 10
248.2394514725
 20
118.3395456701
 10
248.3187480018
 20
118.3853308848
 10
248.560646002
 20
118.5249887585
  0
LINE
  5
249
330
1F
100
AcDbEntity
  8
0
  6
SLD-Gestrichelt
 62
     7
370
     0
100
AcDbLine
 10
248.560646002
 20
121.812553256
 30
0.0
 11
248.560646002
 21
121.5249887846
 31
0.0
  0
LINE
  5
24A
330
1F
100
AcDbEntity
  8
0
  6
SLD-Gestrichelt
 62
     7
370
     0
100
AcDbLine
 10
248.560646002
 20
123.3125535018
 30
0.0
 11
248.560646002
 21
123.0249890305
 31
0.0
  0
LINE
  5
24B
330
1F
100
AcDbEntity
  8
0
  6
SLD-Gestrichelt
 62
     7
370
     0
100
AcDbLine
 10
248.560646002
 20
120.3125530101
 30
0.0
 11
248.560646002
 21
120.0249885387
 31
0.0
  0
LINE
  5
24C
330
1F
100
AcDbEntity
  8
0
  6
SLD-Gestrichelt
 62
     7
370
     0
100
AcDbLine
 10
248.560646002
 20
124.8125528164
 30
0.0
 11
248.560646002
 21
124.524988345
 31
0.0
  0
LWPOLYLINE
  5
24D
330
1F
100
AcDbEntity
  8
0
  6
SLD-Gestrichelt
 62
     7
370
     0
100
AcDbPolyline
 90
       10
 70
   128
 43
0.0
 10
247.6906417057
 20
119.5226936779
 10
247.6372210428
 20
119.4579569801
 10
247.6307017848
 20
119.422392565
 10
247.6356117174
 20
119.3846069455
 10
247.6413635656
 20
119.3691958852
 10
247.6507885501
 20
119.3522211343
 10
247.6600347206
 20
119.340097177
 10
247.6706816003
 20
119.3292938351
 10
247.6849718139
 20
119.318335428
 10
247.6906417057
 20
119.314847625
  0
LWPOLYLINE
  5
24E
330
1F
100
AcDbEntity
  8
0
  6
SLD-Gestrichelt
 62
     7
370
     0
100
AcDbPolyline
 90
        6
 70
   128
 43
0.0
 10
248.560646002
 20
124.8125528164
 10
248.2294006393
 20
125.0037971131
 10
248.0594007418
 20
125.1019482679
 10
248.0849115297
 20
125.0872184701
 10
248.273977463
 20
124.9780618764
 10
248.560646002
 20
124.8125528164
  0
LINE
  5
24F
330
1F
100
AcDbEntity
  8
0
  6
SLD-Gestrichelt
 62
     7
370
     0
100
AcDbLine
 10
231.7606447384
 20
119.3182655788
 30
0.0
 11
231.7606447384
 21
124.3182654671
 31
0.0
  0
LINE
  5
250
330
1F
100
AcDbEntity
  8
0
  6
SLD-Gestrichelt
 62
     7
370
     0
100
AcDbLine
 10
231.7606447384
 20
99.5192761711
 30
0.0
 11
231.7606447384
 21
104.5192760594
 31
0.0
  0
LINE
  5
251
330
1F
100
AcDbEntity
  8
0
  6
SLD-Gestrichelt
 62
     7
370
     0
100
AcDbLine
 10
118.1606458619
 20
107.7388740323
 30
0.0
 11
118.1606458619
 21
100.1580926768
 31
0.0
  0
LINE
  5
252
330
1F
100
AcDbEntity
  8
0
  6
SLD-Gestrichelt
 62
     7
370
     0
100
AcDbLine
 10
119.6606451765
 20
107.7388740323
 30
0.0
 11
119.6606451765
 21
99.4080930195
 31
0.0
  0
LINE
  5
253
330
1F
100
AcDbEntity
  8
0
  6
SLD-Gestrichelt
 62
     7
370
     0
100
AcDbLine
 10
145.9606452033
 20
107.7388740323
 30
0.0
 11
145.9606452033
 21
98.8358688719
 31
0.0
  0
ARC
  5
254
330
1F
100
AcDbEntity
  8
0
  6
SLD-Gestrichelt
 62
     7
370
     0
100
AcDbCircle
 10
162.5870944951
 20
103.1453685082
 30
0.0
 40
16.16273458162522
100
AcDbArc
 50
166.9887352598
 51
193.0112647402
  0
LINE
  5
255
330
1F
100
AcDbEntity
  8
0
  6
SLD-Gestrichelt
 62
     7
370
     0
100
AcDbLine
 10
148.1606451914
 20
92.368771433
 30
0.0
 11
148.2535384118
 21
92.4616634093
 31
0.0
  0
LINE
  5
256
330
1F
100
AcDbEntity
  8
0
  6
SLD-Gestrichelt
 62
     7
370
     0
100
AcDbLine
 10
148.2535384118
 20
131.3758782289
 30
0.0
 11
148.1606451914
 21
131.4687702052
 31
0.0
  0
ARC
  5
257
330
1F
100
AcDbEntity
  8
0
  6
SLD-Gestrichelt
 62
     7
370
     0
100
AcDbCircle
 10
147.546431629
 20
93.1687708191
 30
0.0
 40
1.0
100
AcDbArc
 50
315.0
 51
0.0
  0
ARC
  5
258
330
1F
100
AcDbEntity
  8
0
  6
SLD-Gestrichelt
 62
     7
370
     0
100
AcDbCircle
 10
147.546431629
 20
93.1687708191
 30
0.0
 40
1.000000000000004
100
AcDbArc
 50
0.0
 51
52.1052014664
  0
ARC
  5
259
330
1F
100
AcDbEntity
  8
0
  6
SLD-Gestrichelt
 62
     7
370
     0
100
AcDbCircle
 10
147.546431629
 20
130.6687708191
 30
0.0
 40
0.9999999999999998
100
AcDbArc
 50
343.125
 51
45.0
  0
ARC
  5
25A
330
1F
100
AcDbEntity
  8
0
  6
SLD-Gestrichelt
 62
     7
370
     0
100
AcDbCircle
 10
147.546431629
 20
130.6687708191
 30
0.0
 40
0.9999999999999998
100
AcDbArc
 50
307.8947985336
 51
343.125
  0
LINE
  5
25B
330
1F
100
AcDbEntity
  8
0
  6
SLD-Gestrichelt
 62
     7
370
     0
100
AcDbLine
 10
148.5464316272
 20
93.168770074
 30
0.0
 11
148.5464316272
 21
130.6687715642
 31
0.0
  0
LINE
  5
25C
330
1F
100
AcDbEntity
  8
0
  6
SLD-Gestrichelt
 62
     7
370
     0
100
AcDbLine
 10
148.5464316272
 20
93.168770074
 30
0.0
 11
148.5464316272
 21
130.6687715642
 31
0.0
  0
LINE
  5
25D
330
1F
100
AcDbEntity
  8
0
  6
SLD-Gestrichelt
 62
     7
370
     0
100
AcDbLine
 10
248.0537084982
 20
125.1113276176
 30
0.0
 11
247.2606463477
 21
124.3182654671
 31
0.0
  0
LINE
  5
25E
330
1F
100
AcDbEntity
  8
0
  6
SLD-Gestrichelt
 62
     7
370
     0
100
AcDbLine
 10
247.2606463477
 20
119.3182655788
 30
0.0
 11
248.2398240015
 21
118.3390883907
 31
0.0
  0
LINE
  5
25F
330
1F
100
AcDbEntity
  8
0
  6
SLD-Gestrichelt
 62
     7
370
     0
100
AcDbLine
 10
248.2398240015
 20
105.4984532475
 30
0.0
 11
247.2606463477
 21
104.5192760594
 31
0.0
  0
LINE
  5
260
330
1F
100
AcDbEntity
  8
0
  6
SLD-Gestrichelt
 62
     7
370
     0
100
AcDbLine
 10
247.2606463477
 20
99.5192761711
 30
0.0
 11
248.0537084982
 21
98.7262140206
 31
0.0
  0
LINE
  5
261
330
1F
100
AcDbEntity
  8
0
  6
SLD-Gestrichelt
 62
     7
370
     0
100
AcDbLine
 10
247.2606463477
 20
124.3182654671
 30
0.0
 11
231.7606447384
 21
124.3182654671
 31
0.0
  0
LINE
  5
262
330
1F
100
AcDbEntity
  8
0
  6
SLD-Gestrichelt
 62
     7
370
     0
100
AcDbLine
 10
231.7606447384
 20
119.3182655788
 30
0.0
 11
247.2606463477
 21
119.3182655788
 31
0.0
  0
LINE
  5
263
330
1F
100
AcDbEntity
  8
0
  6
SLD-Gestrichelt
 62
     7
370
     0
100
AcDbLine
 10
231.7606447384
 20
124.3182654671
 30
0.0
 11
230.2584959313
 21
121.8182659886
 31
0.0
  0
LINE
  5
264
330
1F
100
AcDbEntity
  8
0
  6
SLD-Gestrichelt
 62
     7
370
     0
100
AcDbLine
 10
230.2584959313
 20
121.8182659886
 30
0.0
 11
231.7606447384
 21
119.3182655788
 31
0.0
  0
LINE
  5
265
330
1F
100
AcDbEntity
  8
0
  6
SLD-Gestrichelt
 62
     7
370
     0
100
AcDbLine
 10
247.2606463477
 20
104.5192760594
 30
0.0
 11
231.7606447384
 21
104.5192760594
 31
0.0
  0
LINE
  5
266
330
1F
100
AcDbEntity
  8
0
  6
SLD-Gestrichelt
 62
     7
370
     0
100
AcDbLine
 10
231.7606447384
 20
99.5192761711
 30
0.0
 11
247.2606463477
 21
99.5192761711
 31
0.0
  0
LINE
  5
267
330
1F
100
AcDbEntity
  8
0
  6
SLD-Gestrichelt
 62
     7
370
     0
100
AcDbLine
 10
231.7606447384
 20
104.5192760594
 30
0.0
 11
230.2584959313
 21
102.0192756496
 31
0.0
  0
LINE
  5
268
330
1F
100
AcDbEntity
  8
0
  6
SLD-Gestrichelt
 62
     7
370
     0
100
AcDbLine
 10
230.2584959313
 20
102.0192756496
 30
0.0
 11
231.7606447384
 21
99.5192761711
 31
0.0
  0
LINE
  5
269
330
1F
100
AcDbEntity
  8
0
  6
SLD-Gestrichelt
 62
     7
370
     0
100
AcDbLine
 10
124.6606459961
 20
99.9187707148
 30
0.0
 11
125.667364721
 21
99.9187707148
 31
0.0
  0
LINE
  5
26A
330
1F
100
AcDbEntity
  8
0
  6
SLD-Gestrichelt
 62
     7
370
     0
100
AcDbLine
 10
125.667364721
 20
123.9187709234
 30
0.0
 11
124.6606459961
 21
123.9187709234
 31
0.0
  0
ARC
  5
26B
330
1F
100
AcDbEntity
  8
0
  6
SLD-Gestrichelt
 62
     7
370
     0
100
AcDbCircle
 10
124.6606451914
 20
101.4187708191
 30
0.0
 40
1.5
100
AcDbArc
 50
191.0958032831
 51
270.0
  0
ARC
  5
26C
330
1F
100
AcDbEntity
  8
0
  6
SLD-Gestrichelt
 62
     7
370
     0
100
AcDbCircle
 10
124.6606451914
 20
122.4187708191
 30
0.0
 40
1.5
100
AcDbArc
 50
90.0
 51
168.9041967169
  0
ARC
  5
26D
330
1F
100
AcDbEntity
  8
0
  6
SLD-Gestrichelt
 62
     7
370
     0
100
AcDbCircle
 10
125.6673647034
 20
101.4187708191
 30
0.0
 40
1.500000000000002
100
AcDbArc
 50
270.0
 51
315.0
  0
ARC
  5
26E
330
1F
100
AcDbEntity
  8
0
  6
SLD-Gestrichelt
 62
     7
370
     0
100
AcDbCircle
 10
125.6673647034
 20
122.4187708191
 30
0.0
 40
1.500000000000002
100
AcDbArc
 50
45.0
 51
90.0
  0
LINE
  5
26F
330
1F
100
AcDbEntity
  8
0
  6
SLD-Gestrichelt
 62
     7
370
     0
100
AcDbLine
 10
118.1606458619
 20
100.1553583137
 30
0.0
 11
119.1886844233
 21
100.7488976411
 31
0.0
  0
LINE
  5
270
330
1F
100
AcDbEntity
  8
0
  6
SLD-Gestrichelt
 62
     7
370
     0
100
AcDbLine
 10
119.1886844233
 20
123.0886439971
 30
0.0
 11
118.1606458619
 21
123.6821833245
 31
0.0
  0
LINE
  5
271
330
1F
100
AcDbEntity
  8
0
  6
SLD-Gestrichelt
 62
     7
370
     0
100
AcDbLine
 10
126.7280256495
 20
100.3581109635
 30
0.0
 11
127.7886847154
 21
101.4187709607
 31
0.0
  0
LINE
  5
272
330
1F
100
AcDbEntity
  8
0
  6
SLD-Gestrichelt
 62
     7
370
     0
100
AcDbLine
 10
127.7886847154
 20
122.4187706775
 30
0.0
 11
126.7280256495
 21
123.4794306747
 31
0.0
  0
LINE
  5
273
330
1F
100
AcDbEntity
  8
0
  6
SLD-Gestrichelt
 62
     7
370
     0
100
AcDbLine
 10
119.1886844233
 20
100.7488976411
 30
0.0
 11
121.6886857644
 21
101.4187709607
 31
0.0
  0
LINE
  5
274
330
1F
100
AcDbEntity
  8
0
  6
SLD-Gestrichelt
 62
     7
370
     0
100
AcDbLine
 10
121.6886857644
 20
122.4187706775
 30
0.0
 11
119.1886844233
 21
123.0886439971
 31
0.0
  0
LINE
  5
275
330
1F
100
AcDbEntity
  8
0
  6
SLD-Gestrichelt
 62
     7
370
     0
100
AcDbLine
 10
123.1886850789
 20
122.7074462167
 30
0.0
 11
122.6886859283
 21
122.4187706775
 31
0.0
  0
LINE
  5
276
330
1F
100
AcDbEntity
  8
0
  6
SLD-Gestrichelt
 62
     7
370
     0
100
AcDbLine
 10
122.6886859283
 20
101.4187709607
 30
0.0
 11
123.1886850789
 21
101.1300954215
 31
0.0
  0
ARC
  5
277
330
1F
100
AcDbEntity
  8
0
  6
SLD-Gestrichelt
 62
     7
370
     0
100
AcDbCircle
 10
137.6606451914
 20
101.9187708191
 30
0.0
 40
0.5000000000000142
100
AcDbArc
 50
270.0
 51
0.0
  0
ARC
  5
278
330
1F
100
AcDbEntity
  8
0
  6
SLD-Gestrichelt
 62
     7
370
     0
100
AcDbCircle
 10
137.6606451914
 20
121.9187708191
 30
0.0
 40
0.5000000000000142
100
AcDbArc
 50
0.0
 51
90.0
  0
LINE
  5
279
330
1F
100
AcDbEntity
  8
0
  6
SLD-Gestrichelt
 62
     7
370
     0
100
AcDbLine
 10
137.1756926298
 20
101.4187709607
 30
0.0
 11
137.660645333
 21
101.4187709607
 31
0.0
  0
LINE
  5
27A
330
1F
100
AcDbEntity
  8
0
  6
SLD-Gestrichelt
 62
     7
370
     0
100
AcDbLine
 10
127.7886847154
 20
101.4187709607
 30
0.0
 11
131.1334850386
 21
101.4187709607
 31
0.0
  0
LINE
  5
27B
330
1F
100
AcDbEntity
  8
0
  6
SLD-Gestrichelt
 62
     7
370
     0
100
AcDbLine
 10
131.14559782
 20
122.4187706775
 30
0.0
 11
127.7886847154
 21
122.4187706775
 31
0.0
  0
LINE
  5
27C
330
1F
100
AcDbEntity
  8
0
  6
SLD-Gestrichelt
 62
     7
370
     0
100
AcDbLine
 10
137.660645333
 20
122.4187706775
 30
0.0
 11
137.1878054112
 21
122.4187706775
 31
0.0
  0
LINE
  5
27D
330
1F
100
AcDbEntity
  8
0
  6
SLD-Gestrichelt
 62
     7
370
     0
100
AcDbLine
 10
121.6886857644
 20
101.4187709607
 30
0.0
 11
122.6886859283
 21
101.4187709607
 31
0.0
  0
LINE
  5
27E
330
1F
100
AcDbEntity
  8
0
  6
SLD-Gestrichelt
 62
     7
370
     0
100
AcDbLine
 10
122.6886859283
 20
122.4187706775
 30
0.0
 11
121.6886857644
 21
122.4187706775
 31
0.0
  0
LINE
  5
27F
330
1F
100
AcDbEntity
  8
0
  6
SLD-Gestrichelt
 62
     7
370
     0
100
AcDbLine
 10
138.1606454149
 20
103.6687708638
 30
0.0
 11
139.1606455788
 21
104.6687710277
 31
0.0
  0
LINE
  5
280
330
1F
100
AcDbEntity
  8
0
  6
SLD-Gestrichelt
 62
     7
370
     0
100
AcDbLine
 10
139.1606455788
 20
119.1687706105
 30
0.0
 11
138.1606454149
 21
120.1687707744
 31
0.0
  0
LINE
  5
281
330
1F
100
AcDbEntity
  8
0
  6
SLD-Gestrichelt
 62
     7
370
     0
100
AcDbLine
 10
163.1606448561
 20
104.6687710277
 30
0.0
 11
165.4739579305
 21
108.518770774
 31
0.0
  0
LINE
  5
282
330
1F
100
AcDbEntity
  8
0
  6
SLD-Gestrichelt
 62
     7
370
     0
100
AcDbLine
 10
165.4739579305
 20
115.3187708642
 30
0.0
 11
163.1606448561
 21
119.1687706105
 31
0.0
  0
LINE
  5
283
330
1F
100
AcDbEntity
  8
0
  6
SLD-Gestrichelt
 62
     7
370
     0
100
AcDbLine
 10
139.1606455788
 20
104.6687710277
 30
0.0
 11
163.1606448561
 21
104.6687710277
 31
0.0
  0
LINE
  5
284
330
1F
100
AcDbEntity
  8
0
  6
SLD-Gestrichelt
 62
     7
370
     0
100
AcDbLine
 10
163.1606448561
 20
119.1687706105
 30
0.0
 11
139.1606455788
 21
119.1687706105
 31
0.0
  0
LINE
  5
285
330
1F
100
AcDbEntity
  8
0
  6
SLD-Gestrichelt
 62
     7
370
     0
100
AcDbLine
 10
248.5075382635
 20
118.8656618997
 30
0.0
 11
247.5606439755
 21
117.9187708713
 31
0.0
  0
LINE
  5
286
330
1F
100
AcDbEntity
  8
0
  6
SLD-Gestrichelt
 62
     7
370
     0
100
AcDbLine
 10
247.5606439755
 20
105.9187707669
 30
0.0
 11
248.5075382635
 21
104.9718797385
 31
0.0
  0
LINE
  5
287
330
1F
100
AcDbEntity
  8
0
  6
SLD-Gestrichelt
 62
     7
370
     0
100
AcDbLine
 10
246.110641782
 20
115.6187708202
 30
0.0
 11
244.6106461928
 21
115.6187708202
 31
0.0
  0
LINE
  5
288
330
1F
100
AcDbEntity
  8
0
  6
SLD-Gestrichelt
 62
     7
370
     0
100
AcDbLine
 10
244.6106461928
 20
108.218770818
 30
0.0
 11
246.110641782
 21
108.218770818
 31
0.0
  0
LINE
  5
289
330
1F
100
AcDbEntity
  8
0
  6
SLD-Gestrichelt
 62
     7
370
     0
100
AcDbLine
 10
242.2606436655
 20
108.518770774
 30
0.0
 11
242.500991945
 21
108.918770793
 31
0.0
  0
LINE
  5
28A
330
1F
100
AcDbEntity
  8
0
  6
SLD-Gestrichelt
 62
     7
370
     0
100
AcDbLine
 10
242.500991945
 20
114.9187708452
 30
0.0
 11
242.2606436655
 21
115.3187708642
 31
0.0
  0
LINE
  5
28B
330
1F
100
AcDbEntity
  8
0
  6
SLD-Gestrichelt
 62
     7
370
     0
100
AcDbLine
 10
242.2606436655
 20
115.3187708642
 30
0.0
 11
165.4739579305
 21
115.3187708642
 31
0.0
  0
LINE
  5
28C
330
1F
100
AcDbEntity
  8
0
  6
SLD-Gestrichelt
 62
     7
370
     0
100
AcDbLine
 10
165.4739579305
 20
108.518770774
 30
0.0
 11
242.2606436655
 21
108.518770774
 31
0.0
  0
LINE
  5
28D
330
1F
100
AcDbEntity
  8
0
  6
SLD-Gestrichelt
 62
     7
370
     0
100
AcDbLine
 10
137.5973833844
 20
95.7417144618
 30
0.0
 11
137.2106451661
 21
96.1284536115
 31
0.0
  0
LINE
  5
28E
330
1F
100
AcDbEntity
  8
0
  6
SLD-Gestrichelt
 62
     7
370
     0
100
AcDbLine
 10
131.1106452838
 20
96.1284536115
 30
0.0
 11
130.9038991228
 21
95.9217074505
 31
0.0
  0
LINE
  5
28F
330
1F
100
AcDbEntity
  8
0
  6
SLD-Gestrichelt
 62
     7
370
     0
100
AcDbLine
 10
247.5606439755
 20
115.1687708862
 30
0.0
 11
247.1276311323
 21
114.9187708452
 31
0.0
  0
LINE
  5
290
330
1F
100
AcDbEntity
  8
0
  6
SLD-Gestrichelt
 62
     7
370
     0
100
AcDbLine
 10
247.1276311323
 20
108.918770793
 30
0.0
 11
247.5606439755
 21
108.668770752
 31
0.0
  0
LINE
  5
291
330
1F
100
AcDbEntity
  8
0
  6
SLD-Gestrichelt
 62
     7
370
     0
100
AcDbLine
 10
123.6606458321
 20
97.918770387
 30
0.0
 11
118.1606458619
 21
97.918770387
 31
0.0
  0
LINE
  5
292
330
1F
100
AcDbEntity
  8
0
  6
SLD-Gestrichelt
 62
     7
370
     0
100
AcDbLine
 10
125.5312835917
 20
96.0481326274
 30
0.0
 11
123.6606458321
 21
97.918770387
 31
0.0
  0
LINE
  5
293
330
1F
100
AcDbEntity
  8
0
  6
SLD-Gestrichelt
 62
     7
370
     0
100
AcDbLine
 10
137.2106451661
 20
96.1284536115
 30
0.0
 11
137.2106451661
 21
101.4287761591
 31
0.0
  0
LINE
  5
294
330
1F
100
AcDbEntity
  8
0
  6
SLD-Gestrichelt
 62
     7
370
     0
100
AcDbLine
 10
131.1106452838
 20
101.4252389959
 30
0.0
 11
131.1106452838
 21
96.1284536115
 31
0.0
  0
LINE
  5
295
330
1F
100
AcDbEntity
  8
0
  6
SLD-Gestrichelt
 62
     7
370
     0
100
AcDbLine
 10
137.2106451661
 20
122.4123026423
 30
0.0
 11
137.2106451661
 21
125.9187712512
 31
0.0
  0
LINE
  5
296
330
1F
100
AcDbEntity
  8
0
  6
SLD-Gestrichelt
 62
     7
370
     0
100
AcDbLine
 10
131.1106452838
 20
125.9187712512
 30
0.0
 11
131.1106452838
 21
122.4087654791
 31
0.0
  0
LINE
  5
297
330
1F
100
AcDbEntity
  8
0
  6
SLD-Gestrichelt
 62
     7
370
     0
100
AcDbLine
 10
137.2106451661
 20
125.9187712512
 30
0.0
 11
134.1606447593
 21
127.7513961486
 31
0.0
  0
LINE
  5
298
330
1F
100
AcDbEntity
  8
0
  6
SLD-Gestrichelt
 62
     7
370
     0
100
AcDbLine
 10
134.1606447593
 20
127.7513961486
 30
0.0
 11
131.1106452838
 21
125.9187712512
 31
0.0
  0
LINE
  5
299
330
1F
100
AcDbEntity
  8
0
  6
SLD-Gestrichelt
 62
     7
370
     0
100
AcDbLine
 10
247.1276311323
 20
114.9187708452
 30
0.0
 11
246.110641782
 21
114.9187708452
 31
0.0
  0
LINE
  5
29A
330
1F
100
AcDbEntity
  8
0
  6
SLD-Gestrichelt
 62
     7
370
     0
100
AcDbLine
 10
246.110641782
 20
108.918770793
 30
0.0
 11
247.1276311323
 21
108.918770793
 31
0.0
  0
LINE
  5
29B
330
1F
100
AcDbEntity
  8
0
  6
SLD-Gestrichelt
 62
     7
370
     0
100
AcDbLine
 10
244.6106461928
 20
114.9187708452
 30
0.0
 11
242.500991945
 21
114.9187708452
 31
0.0
  0
LINE
  5
29C
330
1F
100
AcDbEntity
  8
0
  6
SLD-Gestrichelt
 62
     7
370
     0
100
AcDbLine
 10
242.500991945
 20
108.918770793
 30
0.0
 11
244.6106461928
 21
108.918770793
 31
0.0
  0
LINE
  5
29D
330
1F
100
AcDbEntity
  8
0
  6
SLD-Gestrichelt
 62
     7
370
     0
100
AcDbLine
 10
158.1606449679
 20
87.4187714599
 30
0.0
 11
158.1606449679
 21
86.9187704466
 31
0.0
  0
LINE
  5
29E
330
1F
100
AcDbEntity
  8
0
  6
SLD-Gestrichelt
 62
     7
370
     0
100
AcDbLine
 10
162.1606456235
 20
86.9187704466
 30
0.0
 11
162.1606456235
 21
87.4187714599
 31
0.0
  0
LINE
  5
29F
330
1F
100
AcDbEntity
  8
0
  6
SLD-Gestrichelt
 62
     7
370
     0
100
AcDbLine
 10
162.1606456235
 20
87.4187714599
 30
0.0
 11
160.1606452957
 21
88.6204923681
 31
0.0
  0
LINE
  5
2A0
330
1F
100
AcDbEntity
  8
0
  6
SLD-Gestrichelt
 62
     7
370
     0
100
AcDbLine
 10
160.1606452957
 20
88.6204923681
 30
0.0
 11
158.1606449679
 21
87.4187714599
 31
0.0
  0
LINE
  5
2A1
330
1F
100
AcDbEntity
  8
VERMASSUNG
  6
SLD-Punktstrich
100
AcDbLine
 10
115.5264558569
 20
111.9187708191
 30
0.0
 11
288.1606451914
 21
111.9187708191
 31
0.0
  0
LINE
  5
2A2
330
1F
100
AcDbEntity
  8
VERMASSUNG
  6
SLD-Punktstrich
100
AcDbLine
 10
288.1606451914
 20
154.656267437
 30
0.0
 11
288.1606451914
 21
111.9187708191
 31
0.0
  0
LINE
  5
2A3
330
1F
100
AcDbEntity
  8
VERMASSUNG
  6
SLD-Punktstrich
100
AcDbLine
 10
248.1606451914
 20
134.2211247341
 30
0.0
 11
248.1606451914
 21
93.8334539193
 31
0.0
  0
DIMENSION
  5
2A4
330
1F
100
AcDbEntity
  8
VERMASSUNG
100
AcDbDimension
  2
_D
 10
148.1606451914
 20
156.248410523
 30
0.0
 11
218.1606451914
 21
156.248410523
 31
0.0
 70
   160
  1
<>
 71
     2
 42
-1.0
  3
SLDDIMSTYLE0
100
AcDbAlignedDimension
 13
288.1606451914
 23
154.656267437
 33
0.0
 14
148.1606451914
 24
136.6187708191
 34
0.0
100
AcDbRotatedDimension
  0
DIMENSION
  5
2AF
330
1F
100
AcDbEntity
  8
VERMASSUNG
100
AcDbDimension
  2
_D_1
 10
248.1606451914
 20
149.025275373
 30
0.0
 11
198.1606451914
 21
149.025275373
 31
0.0
 70
   160
  1
<>
 71
     2
 42
-1.0
  3
SLDDIMSTYLE0
100
AcDbAlignedDimension
 13
148.1606451914
 23
136.6187708191
 33
0.0
 14
248.1606451914
 24
134.2211247341
 34
0.0
100
AcDbRotatedDimension
  0
DIMENSION
  5
2B9
330
1F
100
AcDbEntity
  8
VERMASSUNG
100
AcDbDimension
  2
_D_2
 10
185.3410002784
 20
131.9187708191
 30
0.0
 11
185.3410002784
 21
140.4905218166
 31
0.0
 70
   160
  1
%%c<>
 71
     2
 42
-1.0
  3
SLDDIMSTYLE1
100
AcDbAlignedDimension
 13
172.1606451914
 23
91.9187708191
 33
0.0
 14
172.1606451914
 24
131.9187708191
 34
0.0
 50
90.0
100
AcDbRotatedDimension
  0
DIMENSION
  5
2C5
330
1F
100
AcDbEntity
  8
VERMASSUNG
100
AcDbDimension
  2
_D_3
 10
252.3832484293
 20
124.8182657557
 30
0.0
 11
252.3832484293
 21
136.7744200057
 31
0.0
 70
   160
  1
%%c<>
 71
     2
 42
-1.0
  3
SLDDIMSTYLE1
100
AcDbAlignedDimension
 13
253.3106451914
 23
118.8182657557
 33
0.0
 14
253.3106451914
 24
124.8182657557
 34
0.0
 50
90.0
100
AcDbRotatedDimension
  0
DIMENSION
  5
2D0
330
1F
100
AcDbEntity
  8
VERMASSUNG
100
AcDbDimension
  2
_D_4
 10
172.1606451914
 20
135.9187708191
 30
0.0
 11
173.8225593352
 21
137.0314688332
 31
0.0
 70
   164
  1
<>
 71
     1
 42
-1.0
  3
SLDDIMSTYLE2
100
AcDbRadialDimension
 15
168.8368369037
 25
133.693394791
 35
0.0
 40
0.0
  0
DIMENSION
  5
2D8
330
1F
100
AcDbEntity
  8
VERMASSUNG
100
AcDbDimension
  2
_D_5
 10
111.8970610299
 20
136.9187708191
 30
0.0
 11
111.8970610299
 21
111.9187708191
 31
0.0
 70
   160
  1
PSC %%c<>
 71
     2
 42
-1.0
  3
SLDDIMSTYLE0
100
AcDbAlignedDimension
 13
148.4606451914
 23
86.9187708191
 33
0.0
 14
148.4606451914
 24
136.9187708191
 34
0.0
 50
90.0
100
AcDbRotatedDimension
  0
LINE
  5
2E4
330
1F
100
AcDbEntity
  8
VERMASSUNG
  6
SLD-Punktstrich
370
     0
100
AcDbLine
 10
228.4147139503
 20
121.8182657557
 30
0.0
 11
263.3517379154
 21
121.8182657557
 31
0.0
  0
LINE
  5
2E5
330
1F
100
AcDbEntity
  8
VERMASSUNG
  6
SLD-Punktstrich
370
     0
100
AcDbLine
 10
227.9676222359
 20
102.0192758825
 30
0.0
 11
263.2878676705
 21
102.0192758825
 31
0.0
  0
LINE
  5
2E6
330
1F
100
AcDbEntity
  8
0
  6
SLD-Durchgehend
 62
     7
370
    15
100
AcDbLine
 10
52.0667651463
 20
104.8768988057
 30
0.0
 11
49.9272806365
 21
102.8673491619
 31
0.0
  0
LINE
  5
2E7
330
1F
100
AcDbEntity
  8
0
  6
SLD-Durchgehend
 62
     7
370
    15
100
AcDbLine
 10
49.9272806365
 20
102.8673491619
 30
0.0
 11
50.5978589672
 21
100.0097264714
 31
0.0
  0
LINE
  5
2E8
330
1F
100
AcDbEntity
  8
0
  6
SLD-Durchgehend
 62
     7
370
    15
100
AcDbLine
 10
53.4079227391
 20
99.1616529591
 30
0.0
 11
50.5978589672
 21
100.0097264714
 31
0.0
  0
LINE
  5
2E9
330
1F
100
AcDbEntity
  8
0
  6
SLD-Durchgehend
 62
     7
370
    15
100
AcDbLine
 10
55.547407249
 20
101.1712030686
 30
0.0
 11
53.4079227391
 21
99.1616529591
 31
0.0
  0
LINE
  5
2EA
330
1F
100
AcDbEntity
  8
0
  6
SLD-Durchgehend
 62
     7
370
    15
100
AcDbLine
 10
55.547407249
 20
101.1712030686
 30
0.0
 11
54.8768284525
 21
104.0288257591
 31
0.0
  0
LINE
  5
2EB
330
1F
100
AcDbEntity
  8
0
  6
SLD-Durchgehend
 62
     7
370
    15
100
AcDbLine
 10
52.0667651463
 20
104.8768988057
 30
0.0
 11
54.8768284525
 21
104.0288257591
 31
0.0
  0
CIRCLE
  5
2EC
330
1F
100
AcDbEntity
  8
0
  6
SLD-Durchgehend
 62
     7
370
    15
100
AcDbCircle
 10
52.73734371
 20
102.0192758825
 30
0.0
 40
5.000000000000008
  0
ARC
  5
2ED
330
1F
100
AcDbEntity
  8
0
  6
SLD-Durchgehend
 62
     7
370
    15
100
AcDbCircle
 10
52.73734371
 20
102.0192758825
 30
0.0
 40
2.541999999999988
100
AcDbArc
 50
73.2062589409
 51
133.2062589409
  0
ARC
  5
2EE
330
1F
100
AcDbEntity
  8
0
  6
SLD-Durchgehend
 62
     7
370
    15
100
AcDbCircle
 10
52.73734371
 20
102.0192758825
 30
0.0
 40
2.541999999999994
100
AcDbArc
 50
13.2062589409
 51
73.2062589409
  0
ARC
  5
2EF
330
1F
100
AcDbEntity
  8
0
  6
SLD-Durchgehend
 62
     7
370
    15
100
AcDbCircle
 10
52.73734371
 20
102.0192758825
 30
0.0
 40
2.542000000000013
100
AcDbArc
 50
253.2062589409
 51
313.2062589409
  0
ARC
  5
2F0
330
1F
100
AcDbEntity
  8
0
  6
SLD-Durchgehend
 62
     7
370
    15
100
AcDbCircle
 10
52.73734371
 20
102.0192758825
 30
0.0
 40
2.542000000000008
100
AcDbArc
 50
313.2062589409
 51
13.2062589409
  0
ARC
  5
2F1
330
1F
100
AcDbEntity
  8
0
  6
SLD-Durchgehend
 62
     7
370
    15
100
AcDbCircle
 10
52.73734371
 20
102.0192758825
 30
0.0
 40
2.542000000000013
100
AcDbArc
 50
193.2062589409
 51
253.2062589409
  0
ARC
  5
2F2
330
1F
100
AcDbEntity
  8
0
  6
SLD-Durchgehend
 62
     7
370
    15
100
AcDbCircle
 10
52.73734371
 20
102.0192758825
 30
0.0
 40
2.541999999999994
100
AcDbArc
 50
133.2062589409
 51
193.2062589409
  0
CIRCLE
  5
2F3
330
1F
100
AcDbEntity
  8
0
  6
SLD-Durchgehend
 62
     7
370
    15
100
AcDbCircle
 10
72.5363335832
 20
121.8182657557
 30
0.0
 40
5.000000000000015
  0
LINE
  5
2F4
330
1F
100
AcDbEntity
  8
0
  6
SLD-Durchgehend
 62
     7
370
    15
100
AcDbLine
 10
72.6965939421
 20
124.7491362683
 30
0.0
 11
70.0782550294
 21
123.4224905438
 31
0.0
  0
LINE
  5
2F5
330
1F
100
AcDbEntity
  8
0
  6
SLD-Durchgehend
 62
     7
370
    15
100
AcDbLine
 10
70.0782550294
 20
123.4224905438
 30
0.0
 11
69.917995369
 21
120.4916193328
 31
0.0
  0
LINE
  5
2F6
330
1F
100
AcDbEntity
  8
0
  6
SLD-Durchgehend
 62
     7
370
    15
100
AcDbLine
 10
72.3760736901
 20
118.8873952433
 30
0.0
 11
69.917995369
 21
120.4916193328
 31
0.0
  0
LINE
  5
2F7
330
1F
100
AcDbEntity
  8
0
  6
SLD-Durchgehend
 62
     7
370
    15
100
AcDbLine
 10
74.9944116715
 20
120.2140414334
 30
0.0
 11
72.3760736901
 21
118.8873952433
 31
0.0
  0
LINE
  5
2F8
330
1F
100
AcDbEntity
  8
0
  6
SLD-Durchgehend
 62
     7
370
    15
100
AcDbLine
 10
74.9944116715
 20
120.2140414334
 30
0.0
 11
75.1546717975
 21
123.1449117131
 31
0.0
  0
LINE
  5
2F9
330
1F
100
AcDbEntity
  8
0
  6
SLD-Durchgehend
 62
     7
370
    15
100
AcDbLine
 10
72.6965939421
 20
124.7491362683
 30
0.0
 11
75.1546717975
 21
123.1449117131
 31
0.0
  0
ARC
  5
2FA
330
1F
100
AcDbEntity
  8
0
  6
SLD-Durchgehend
 62
     7
370
    15
100
AcDbCircle
 10
72.5363335832
 20
121.8182657557
 30
0.0
 40
2.541999999999998
100
AcDbArc
 50
56.8701833941
 51
116.8701833941
  0
ARC
  5
2FB
330
1F
100
AcDbEntity
  8
0
  6
SLD-Durchgehend
 62
     7
370
    15
100
AcDbCircle
 10
72.5363335832
 20
121.8182657557
 30
0.0
 40
2.54200000000001
100
AcDbArc
 50
236.8701833941
 51
296.8701833941
  0
ARC
  5
2FC
330
1F
100
AcDbEntity
  8
0
  6
SLD-Durchgehend
 62
     7
370
    15
100
AcDbCircle
 10
72.5363335832
 20
121.8182657557
 30
0.0
 40
2.54200000000001
100
AcDbArc
 50
296.8701833941
 51
356.8701833941
  0
ARC
  5
2FD
330
1F
100
AcDbEntity
  8
0
  6
SLD-Durchgehend
 62
     7
370
    15
100
AcDbCircle
 10
72.5363335832
 20
121.8182657557
 30
0.0
 40
2.542000000000003
100
AcDbArc
 50
356.8701833941
 51
56.8701833941
  0
ARC
  5
2FE
330
1F
100
AcDbEntity
  8
0
  6
SLD-Durchgehend
 62
     7
370
    15
100
AcDbCircle
 10
72.5363335832
 20
121.8182657557
 30
0.0
 40
2.542000000000002
100
AcDbArc
 50
176.8701833941
 51
236.8701833941
  0
ARC
  5
2FF
330
1F
100
AcDbEntity
  8
0
  6
SLD-Durchgehend
 62
     7
370
    15
100
AcDbCircle
 10
72.5363335832
 20
121.8182657557
 30
0.0
 40
2.541999999999991
100
AcDbArc
 50
116.8701833941
 51
176.8701833941
  0
CIRCLE
  5
300
330
1F
100
AcDbEntity
  8
0
  6
SLD-Durchgehend
 62
     7
370
    15
100
AcDbCircle
 10
72.5363335832
 20
102.0192758825
 30
0.0
 40
4.999999999999998
  0
LINE
  5
301
330
1F
100
AcDbEntity
  8
0
  6
SLD-Durchgehend
 62
     7
370
    15
100
AcDbLine
 10
74.1906262729
 20
99.5946108542
 30
0.0
 11
75.4633018542
 21
102.2396023563
 31
0.0
  0
LINE
  5
302
330
1F
100
AcDbEntity
  8
0
  6
SLD-Durchgehend
 62
     7
370
    15
100
AcDbLine
 10
75.4633018542
 20
102.2396023563
 30
0.0
 11
73.8090093974
 21
104.6642676174
 31
0.0
  0
LINE
  5
303
330
1F
100
AcDbEntity
  8
0
  6
SLD-Durchgehend
 62
     7
370
    15
100
AcDbLine
 10
70.8820413593
 20
104.4439413763
 30
0.0
 11
73.8090093974
 21
104.6642676174
 31
0.0
  0
LINE
  5
304
330
1F
100
AcDbEntity
  8
0
  6
SLD-Durchgehend
 62
     7
370
    15
100
AcDbLine
 10
69.609365778
 20
101.7989489428
 30
0.0
 11
70.8820413593
 21
104.4439413763
 31
0.0
  0
LINE
  5
305
330
1F
100
AcDbEntity
  8
0
  6
SLD-Durchgehend
 62
     7
370
    15
100
AcDbLine
 10
69.609365778
 20
101.7989489428
 30
0.0
 11
71.2636582348
 21
99.3742841474
 31
0.0
  0
LINE
  5
306
330
1F
100
AcDbEntity
  8
0
  6
SLD-Durchgehend
 62
     7
370
    15
100
AcDbLine
 10
74.1906262729
 20
99.5946108542
 30
0.0
 11
71.2636582348
 21
99.3742841474
 31
0.0
  0
ARC
  5
307
330
1F
100
AcDbEntity
  8
0
  6
SLD-Durchgehend
 62
     7
370
    15
100
AcDbCircle
 10
72.5363335832
 20
102.0192758825
 30
0.0
 40
2.542000000000006
100
AcDbArc
 50
34.3048024535
 51
94.3048024535
  0
ARC
  5
308
330
1F
100
AcDbEntity
  8
0
  6
SLD-Durchgehend
 62
     7
370
    15
100
AcDbCircle
 10
72.5363335832
 20
102.0192758825
 30
0.0
 40
2.542000000000005
100
AcDbArc
 50
334.3048024535
 51
34.3048024535
  0
ARC
  5
309
330
1F
100
AcDbEntity
  8
0
  6
SLD-Durchgehend
 62
     7
370
    15
100
AcDbCircle
 10
72.5363335832
 20
102.0192758825
 30
0.0
 40
2.542000000000005
100
AcDbArc
 50
274.3048024535
 51
334.3048024535
  0
ARC
  5
30A
330
1F
100
AcDbEntity
  8
0
  6
SLD-Durchgehend
 62
     7
370
    15
100
AcDbCircle
 10
72.5363335832
 20
102.0192758825
 30
0.0
 40
2.541999999999993
100
AcDbArc
 50
214.3048024535
 51
274.3048024535
  0
ARC
  5
30B
330
1F
100
AcDbEntity
  8
0
  6
SLD-Durchgehend
 62
     7
370
    15
100
AcDbCircle
 10
72.5363335832
 20
102.0192758825
 30
0.0
 40
2.541999999999986
100
AcDbArc
 50
154.3048024535
 51
214.3048024535
  0
ARC
  5
30C
330
1F
100
AcDbEntity
  8
0
  6
SLD-Durchgehend
 62
     7
370
    15
100
AcDbCircle
 10
72.5363335832
 20
102.0192758825
 30
0.0
 40
2.542000000000006
100
AcDbArc
 50
94.3048024535
 51
154.3048024535
  0
LINE
  5
30D
330
1F
100
AcDbEntity
  8
0
  6
SLD-Durchgehend
 62
     7
370
    15
100
AcDbLine
 10
53.8379525561
 20
119.0971733249
 30
0.0
 11
55.6441837717
 21
121.4108747608
 31
0.0
  0
LINE
  5
30E
330
1F
100
AcDbEntity
  8
0
  6
SLD-Durchgehend
 62
     7
370
    15
100
AcDbLine
 10
55.6441837717
 20
121.4108747608
 30
0.0
 11
54.5435746927
 21
124.1319674245
 31
0.0
  0
LINE
  5
30F
330
1F
100
AcDbEntity
  8
0
  6
SLD-Durchgehend
 62
     7
370
    15
100
AcDbLine
 10
51.6367343981
 20
124.5393586523
 30
0.0
 11
54.5435746927
 21
124.1319674245
 31
0.0
  0
LINE
  5
310
330
1F
100
AcDbEntity
  8
0
  6
SLD-Durchgehend
 62
     7
370
    15
100
AcDbLine
 10
49.8305041138
 20
122.2256562851
 30
0.0
 11
51.6367343981
 21
124.5393586523
 31
0.0
  0
LINE
  5
311
330
1F
100
AcDbEntity
  8
0
  6
SLD-Durchgehend
 62
     7
370
    15
100
AcDbLine
 10
49.8305041138
 20
122.2256562851
 30
0.0
 11
50.9311131928
 21
119.504564087
 31
0.0
  0
LINE
  5
312
330
1F
100
AcDbEntity
  8
0
  6
SLD-Durchgehend
 62
     7
370
    15
100
AcDbLine
 10
53.8379525561
 20
119.0971733249
 30
0.0
 11
50.9311131928
 21
119.504564087
 31
0.0
  0
CIRCLE
  5
313
330
1F
100
AcDbEntity
  8
0
  6
SLD-Durchgehend
 62
     7
370
    15
100
AcDbCircle
 10
52.73734371
 20
121.8182657557
 30
0.0
 40
5.0
  0
ARC
  5
314
330
1F
100
AcDbEntity
  8
0
  6
SLD-Durchgehend
 62
     7
370
    15
100
AcDbCircle
 10
52.73734371
 20
121.8182657557
 30
0.0
 40
2.541999999999998
100
AcDbArc
 50
322.0220130834
 51
22.0220130834
  0
ARC
  5
315
330
1F
100
AcDbEntity
  8
0
  6
SLD-Durchgehend
 62
     7
370
    15
100
AcDbCircle
 10
52.73734371
 20
121.8182657557
 30
0.0
 40
2.541999999999997
100
AcDbArc
 50
262.0220130834
 51
322.0220130834
  0
ARC
  5
316
330
1F
100
AcDbEntity
  8
0
  6
SLD-Durchgehend
 62
     7
370
    15
100
AcDbCircle
 10
52.73734371
 20
121.8182657557
 30
0.0
 40
2.542000000000005
100
AcDbArc
 50
22.0220130834
 51
82.0220130834
  0
ARC
  5
317
330
1F
100
AcDbEntity
  8
0
  6
SLD-Durchgehend
 62
     7
370
    15
100
AcDbCircle
 10
52.73734371
 20
121.8182657557
 30
0.0
 40
2.542000000000011
100
AcDbArc
 50
82.0220130834
 51
142.0220130834
  0
ARC
  5
318
330
1F
100
AcDbEntity
  8
0
  6
SLD-Durchgehend
 62
     7
370
    15
100
AcDbCircle
 10
52.73734371
 20
121.8182657557
 30
0.0
 40
2.542000000000011
100
AcDbArc
 50
142.0220130834
 51
202.0220130834
  0
ARC
  5
319
330
1F
100
AcDbEntity
  8
0
  6
SLD-Durchgehend
 62
     7
370
    15
100
AcDbCircle
 10
52.73734371
 20
121.8182657557
 30
0.0
 40
2.541999999999993
100
AcDbArc
 50
202.0220130834
 51
262.0220130834
  0
CIRCLE
  5
31A
330
1F
100
AcDbEntity
  8
0
  6
SLD-Durchgehend
 62
     7
370
    15
100
AcDbCircle
 10
62.6368386466
 20
111.9187708191
 30
0.0
 40
19.99999999999999
  0
LINE
  5
31B
330
1F
100
AcDbEntity
  8
0
  6
SLD-Durchgehend
 62
     7
370
    15
100
AcDbLine
 10
81.5156934578
 20
112.8125530613
 30
0.0
 11
82.357484268
 21
113.3148478057
 31
0.0
  0
ARC
  5
31C
330
1F
100
AcDbEntity
  8
0
  6
SLD-Durchgehend
 62
     7
370
    15
100
AcDbCircle
 10
82.2889109101
 20
113.4141545861
 30
0.0
 40
0.12068198724956
100
AcDbArc
 50
304.6258703726
 51
64.0770235497
  0
LINE
  5
31D
330
1F
100
AcDbEntity
  8
0
  6
SLD-Durchgehend
 62
     7
370
    15
100
AcDbLine
 10
82.341668548
 20
113.5226938586
 30
0.0
 11
81.4191134441
 21
114.0249884866
 31
0.0
  0
ARC
  5
31E
330
1F
100
AcDbEntity
  8
0
  6
SLD-Durchgehend
 62
     7
370
    15
100
AcDbCircle
 10
62.6368386466
 20
111.9187708191
 30
0.0
 40
18.89999999999999
100
AcDbArc
 50
6.3983373518
 51
7.276348303
  0
LINE
  5
31F
330
1F
100
AcDbEntity
  8
0
  6
SLD-Durchgehend
 62
     7
370
    15
100
AcDbLine
 10
81.3846340198
 20
114.3125529579
 30
0.0
 11
82.1935677696
 21
114.8148478187
 31
0.0
  0
ARC
  5
320
330
1F
100
AcDbEntity
  8
0
  6
SLD-Durchgehend
 62
     7
370
    15
100
AcDbCircle
 10
82.1172006736
 20
114.9094957728
 30
0.0
 40
0.1216148369770169
100
AcDbArc
 50
308.8984691223
 51
68.5585878788
  0
LINE
  5
321
330
1F
100
AcDbEntity
  8
0
  6
SLD-Durchgehend
 62
     7
370
    15
100
AcDbLine
 10
82.1616569329
 20
115.0226938717
 30
0.0
 11
81.1896057594
 21
115.5249884996
 31
0.0
  0
ARC
  5
322
330
1F
100
AcDbEntity
  8
0
  6
SLD-Durchgehend
 62
     7
370
    15
100
AcDbCircle
 10
62.6368386466
 20
111.9187708191
 30
0.0
 40
18.89999999999998
100
AcDbArc
 50
10.999776935
 51
11.8892284564
  0
LINE
  5
323
330
1F
100
AcDbEntity
  8
0
  6
SLD-Durchgehend
 62
     7
370
    15
100
AcDbLine
 10
81.1313906479
 20
115.812552971
 30
0.0
 11
81.9118855316
 21
116.3148475989
 31
0.0
  0
LWPOLYLINE
  5
324
330
1F
100
AcDbEntity
  8
0
  6
SLD-Durchgehend
 62
     7
370
    15
100
AcDbPolyline
 90
        9
 70
   128
 43
0.0
 10
81.9118855316
 20
116.3148475989
 10
81.9332239944
 20
116.3341734737
 10
81.9470504094
 20
116.3592241883
 10
81.9523980636
 20
116.3855550058
 10
81.9504609126
 20
116.414271406
 10
81.9421944935
 20
116.4409505382
 10
81.9226627964
 20
116.4740665063
 10
81.8867323715
 20
116.5086367346
 10
81.8633002955
 20
116.5226936519
  0
LINE
  5
325
330
1F
100
AcDbEntity
  8
0
  6
SLD-Durchgehend
 62
     7
370
    15
100
AcDbLine
 10
81.8633002955
 20
116.5226936519
 30
0.0
 11
80.8339969981
 21
117.0249885126
 31
0.0
  0
ARC
  5
326
330
1F
100
AcDbEntity
  8
0
  6
SLD-Durchgehend
 62
     7
370
    15
100
AcDbCircle
 10
62.6368386466
 20
111.9187708191
 30
0.0
 40
18.89999999999998
100
AcDbArc
 50
15.6743981476
 51
16.5818813394
  0
LINE
  5
327
330
1F
100
AcDbEntity
  8
0
  6
SLD-Durchgehend
 62
     7
370
    15
100
AcDbLine
 10
80.7508410681
 20
117.312552984
 30
0.0
 11
81.5071644056
 21
117.8148478448
 31
0.0
  0
LWPOLYLINE
  5
328
330
1F
100
AcDbEntity
  8
0
  6
SLD-Durchgehend
 62
     7
370
    15
100
AcDbPolyline
 90
        9
 70
   128
 43
0.0
 10
81.5071644056
 20
117.8148478448
 10
81.5261782873
 20
117.8325094461
 10
81.5386617351
 20
117.8562777295
 10
81.5429197419
 20
117.8864204503
 10
81.538782807
 20
117.9138935349
 10
81.5286034513
 20
117.9399929188
 10
81.5050279516
 20
117.9746315993
 10
81.462408768
 20
118.0109820507
 10
81.4409604091
 20
118.0226938977
  0
LINE
  5
329
330
1F
100
AcDbEntity
  8
0
  6
SLD-Durchgehend
 62
     7
370
    15
100
AcDbLine
 10
81.4409604091
 20
118.0226938977
 30
0.0
 11
80.344687568
 21
118.5249887585
 31
0.0
  0
ARC
  5
32A
330
1F
100
AcDbEntity
  8
0
  6
SLD-Durchgehend
 62
     7
370
    15
100
AcDbCircle
 10
62.6368386466
 20
111.9187708191
 30
0.0
 40
18.89999999999998
100
AcDbArc
 50
20.4588966099
 51
21.3922215885
  0
LINE
  5
32B
330
1F
100
AcDbEntity
  8
0
  6
SLD-Durchgehend
 62
     7
370
    15
100
AcDbLine
 10
80.2347300369
 20
118.8125532299
 30
0.0
 11
80.9712590445
 21
119.314847625
 31
0.0
  0
LWPOLYLINE
  5
32C
330
1F
100
AcDbEntity
  8
0
  6
SLD-Durchgehend
 62
     7
370
    15
100
AcDbPolyline
 90
        9
 70
   128
 43
0.0
 10
80.9712590445
 20
119.314847625
 10
80.9881755877
 20
119.3308603197
 10
80.9994632173
 20
119.3532730631
 10
81.0025924612
 20
119.3816583782
 10
80.997784974
 20
119.4077200435
 10
80.9869834948
 20
119.4331949755
 10
80.9616422076
 20
119.4686285398
 10
80.915180387
 20
119.5073091603
 10
80.8860374409
 20
119.5226936779
  0
LINE
  5
32D
330
1F
100
AcDbEntity
  8
0
  6
SLD-Durchgehend
 62
     7
370
    15
100
AcDbLine
 10
80.8860374409
 20
119.5226936779
 30
0.0
 11
79.7101868111
 21
120.0249885387
 31
0.0
  0
ARC
  5
32E
330
1F
100
AcDbEntity
  8
0
  6
SLD-Durchgehend
 62
     7
370
    15
100
AcDbCircle
 10
62.6368386466
 20
111.9187708191
 30
0.0
 40
18.89999999999998
100
AcDbArc
 50
25.3977977343
 51
26.3667601109
  0
LINE
  5
32F
330
1F
100
AcDbEntity
  8
0
  6
SLD-Durchgehend
 62
     7
370
    15
100
AcDbLine
 10
79.5706635136
 20
120.3125530101
 30
0.0
 11
80.2922261674
 21
120.8148478709
 31
0.0
  0
LWPOLYLINE
  5
330
330
1F
100
AcDbEntity
  8
0
  6
SLD-Durchgehend
 62
     7
370
    15
100
AcDbPolyline
 90
        9
 70
   128
 43
0.0
 10
80.2922261674
 20
120.8148478709
 10
80.3072372246
 20
120.8292107276
 10
80.3174836356
 20
120.850181318
 10
80.3196647931
 20
120.8767156295
 10
80.3143208641
 20
120.9012177951
 10
80.2995463628
 20
120.9315677352
 10
80.2691796589
 20
120.9686120219
 10
80.2133245189
 20
121.0096880041
 10
80.185954811
 20
121.0226939238
  0
LINE
  5
331
330
1F
100
AcDbEntity
  8
0
  6
SLD-Durchgehend
 62
     7
370
    15
100
AcDbLine
 10
80.185954811
 20
121.0226939238
 30
0.0
 11
78.9135260302
 21
121.5249887846
 31
0.0
  0
ARC
  5
332
330
1F
100
AcDbEntity
  8
0
  6
SLD-Durchgehend
 62
     7
370
    15
100
AcDbCircle
 10
62.6368386466
 20
111.9187708191
 30
0.0
 40
18.89999999999999
100
AcDbArc
 50
30.5483638936
 51
31.5660102076
  0
LINE
  5
333
330
1F
100
AcDbEntity
  8
0
  6
SLD-Durchgehend
 62
     7
370
    15
100
AcDbLine
 10
78.7403503228
 20
121.812553256
 30
0.0
 11
79.4527375865
 21
122.3148481167
 31
0.0
  0
LWPOLYLINE
  5
334
330
1F
100
AcDbEntity
  8
0
  6
SLD-Durchgehend
 62
     7
370
    15
100
AcDbPolyline
 90
        9
 70
   128
 43
0.0
 10
79.4527375865
 20
122.3148481167
 10
79.4660033453
 20
122.3275439061
 10
79.4753724504
 20
122.3469731576
 10
79.4768048245
 20
122.3715488977
 10
79.4710902292
 20
122.3943122841
 10
79.455527829
 20
122.4238342784
 10
79.4229222256
 20
122.4613703034
 10
79.3607434053
 20
122.5053790204
 10
79.3224530089
 20
122.5226941697
  0
LINE
  5
335
330
1F
100
AcDbEntity
  8
0
  6
SLD-Durchgehend
 62
     7
370
    15
100
AcDbLine
 10
79.3224530089
 20
122.5226941697
 30
0.0
 11
77.9293834958
 21
123.0249890305
 31
0.0
  0
ARC
  5
336
330
1F
100
AcDbEntity
  8
0
  6
SLD-Durchgehend
 62
     7
370
    15
100
AcDbCircle
 10
62.6368386466
 20
111.9187708191
 30
0.0
 40
18.9
100
AcDbArc
 50
35.9890459682
 51
37.0739731725
  0
LINE
  5
337
330
1F
100
AcDbEntity
  8
0
  6
SLD-Durchgehend
 62
     7
370
    15
100
AcDbLine
 10
77.7163518388
 20
123.3125535018
 30
0.0
 11
78.4272229094
 21
123.8148474313
 31
0.0
  0
LWPOLYLINE
  5
338
330
1F
100
AcDbEntity
  8
0
  6
SLD-Durchgehend
 62
     7
370
    15
100
AcDbPolyline
 90
        9
 70
   128
 43
0.0
 10
78.4272229094
 20
123.8148474313
 10
78.4388756174
 20
123.8258416943
 10
78.4475518185
 20
123.843614123
 10
78.4484589267
 20
123.866116739
 10
78.4425822813
 20
123.8869262106
 10
78.4265486318
 20
123.9150903366
 10
78.3919947017
 20
123.95254068
 10
78.3226372469
 20
123.9995603628
 10
78.268471526
 20
124.0226934842
  0
LINE
  5
339
330
1F
100
AcDbEntity
  8
0
  6
SLD-Durchgehend
 62
     7
370
    15
100
AcDbLine
 10
78.268471526
 20
124.0226934842
 30
0.0
 11
76.71850303
 21
124.524988345
 31
0.0
  0
LINE
  5
33A
330
1F
100
AcDbEntity
  8
0
  6
SLD-Durchgehend
 62
     7
370
    15
100
AcDbLine
 10
76.4556800741
 20
124.8125528164
 30
0.0
 11
77.1763719413
 21
125.3148476771
 31
0.0
  0
LWPOLYLINE
  5
33B
330
1F
100
AcDbEntity
  8
0
  6
SLD-Durchgehend
 62
     7
370
    15
100
AcDbPolyline
 90
        9
 70
   128
 43
0.0
 10
77.1763719413
 20
125.3148476771
 10
77.1865112502
 20
125.3240789465
 10
77.1953727845
 20
125.3429894514
 10
77.1947171334
 20
125.3637570135
 10
77.1880255807
 20
125.3823108218
 10
77.1699597854
 20
125.4096376888
 10
77.129801156
 20
125.4479886211
 10
77.0446801353
 20
125.4990204416
 10
76.9820878077
 20
125.5226937301
  0
LINE
  5
33C
330
1F
100
AcDbEntity
  8
0
  6
SLD-Durchgehend
 62
     7
370
    15
100
AcDbLine
 10
76.9820878077
 20
125.5226937301
 30
0.0
 11
75.2155756373
 21
126.0249885909
 31
0.0
  0
ARC
  5
33D
330
1F
100
AcDbEntity
  8
0
  6
SLD-Durchgehend
 62
     7
370
    15
100
AcDbCircle
 10
62.6368386466
 20
111.9187708191
 30
0.0
 40
18.9
100
AcDbArc
 50
48.2761087723
 51
49.6033126775
  0
LINE
  5
33E
330
1F
100
AcDbEntity
  8
0
  6
SLD-Durchgehend
 62
     7
370
    15
100
AcDbLine
 10
74.8854730073
 20
126.3125530622
 30
0.0
 11
75.635291988
 21
126.814847923
 31
0.0
  0
LWPOLYLINE
  5
33F
330
1F
100
AcDbEntity
  8
0
  6
SLD-Durchgehend
 62
     7
370
    15
100
AcDbPolyline
 90
        9
 70
   128
 43
0.0
 10
75.635291988
 20
126.814847923
 10
75.6439747084
 20
126.8222258605
 10
75.6525130737
 20
126.8381291247
 10
75.6529396195
 20
126.853171847
 10
75.6479272414
 20
126.8692176036
 10
75.6334768403
 20
126.8919409431
 10
75.5996465478
 20
126.9250364221
 10
75.5201702732
 20
126.9750782467
 10
75.3931863028
 20
127.022693976
  0
LINE
  5
340
330
1F
100
AcDbEntity
  8
0
  6
SLD-Durchgehend
 62
     7
370
    15
100
AcDbLine
 10
75.3931863028
 20
127.022693976
 30
0.0
 11
73.297794329
 21
127.5249888367
 31
0.0
  0
ARC
  5
341
330
1F
100
AcDbEntity
  8
0
  6
SLD-Durchgehend
 62
     7
370
    15
100
AcDbCircle
 10
62.6368386466
 20
111.9187708191
 30
0.0
 40
18.9
100
AcDbArc
 50
55.6621463087
 51
57.2396056671
  0
LINE
  5
342
330
1F
100
AcDbEntity
  8
0
  6
SLD-Durchgehend
 62
     7
370
    15
100
AcDbLine
 10
72.8641398046
 20
127.8125523768
 30
0.0
 11
73.6831756104
 21
128.3148481689
 31
0.0
  0
LWPOLYLINE
  5
343
330
1F
100
AcDbEntity
  8
0
  6
SLD-Durchgehend
 62
     7
370
    15
100
AcDbPolyline
 90
       10
 70
   128
 43
0.0
 10
73.6831756104
 20
128.3148481689
 10
73.690389635
 20
128.3202517025
 10
73.6990732867
 20
128.3330667011
 10
73.7004125286
 20
128.345166444
 10
73.6967943404
 20
128.3582980923
 10
73.6854312736
 20
128.3762577168
 10
73.6575055662
 20
128.4030984334
 10
73.5856530983
 20
128.4478522084
 10
73.403600024
 20
128.5145051024
 10
73.3682246674
 20
128.5226932905
  0
LINE
  5
344
330
1F
100
AcDbEntity
  8
0
  6
SLD-Durchgehend
 62
     7
370
    15
100
AcDbLine
 10
73.3682246674
 20
128.5226932905
 30
0.0
 11
70.6734623555
 21
129.0249890826
 31
0.0
  0
ARC
  5
345
330
1F
100
AcDbEntity
  8
0
  6
SLD-Durchgehend
 62
     7
370
    15
100
AcDbCircle
 10
62.6368386466
 20
111.9187708191
 30
0.0
 40
18.9000000000072
100
AcDbArc
 50
64.8355269229
 51
66.970848949
  0
LINE
  5
346
330
1F
100
AcDbEntity
  8
0
  6
SLD-Durchgehend
 62
     7
370
    15
100
AcDbLine
 10
70.030507518
 20
129.312553554
 30
0.0
 11
71.038226949
 21
129.8148474834
 31
0.0
  0
LWPOLYLINE
  5
347
330
1F
100
AcDbEntity
  8
0
  6
SLD-Durchgehend
 62
     7
370
    15
100
AcDbPolyline
 90
        9
 70
   128
 43
0.0
 10
71.038226949
 20
129.8148474834
 10
71.0505511407
 20
129.8237751416
 10
71.0555420983
 20
129.8319707803
 10
71.0562443156
 20
129.8419117174
 10
71.052861752
 20
129.8513851307
 10
71.0424979944
 20
129.8651407651
 10
71.0156470332
 20
129.8868964604
 10
70.9157524425
 20
129.9364446841
 10
70.5804446507
 20
130.0226944677
  0
LWPOLYLINE
  5
348
330
1F
100
AcDbEntity
  8
0
  6
SLD-Durchgehend
 62
     7
370
    15
100
AcDbPolyline
 90
        3
 70
   128
 43
0.0
 10
70.5804446507
 20
130.0226944677
 10
68.2970456574
 20
130.3210995338
 10
65.9562753308
 20
130.5249883972
  0
ARC
  5
349
330
1F
100
AcDbEntity
  8
0
  6
SLD-Durchgehend
 62
     7
370
    15
100
AcDbCircle
 10
62.6368386466
 20
111.9187708191
 30
0.0
 40
18.90000000000001
100
AcDbArc
 50
79.8845863359
 51
88.5302739106
  0
ARC
  5
34A
330
1F
100
AcDbEntity
  8
0
  6
SLD-Durchgehend
 62
     7
370
    15
100
AcDbCircle
 10
62.4695454402
 20
146.5210636511
 30
0.0
 40
15.72203823001808
100
AcDbArc
 50
272.3769622176
 51
284.7173040006
  0
LWPOLYLINE
  5
34B
330
1F
100
AcDbEntity
  8
0
  6
SLD-Durchgehend
 62
     7
370
    15
100
AcDbPolyline
 90
       12
 70
   128
 43
0.0
 10
66.4637301843
 20
131.3148486606
 10
66.4753814954
 20
131.3183504335
 10
66.4852993823
 20
131.3226531438
 10
66.4931862876
 20
131.3288129113
 10
66.495166745
 20
131.332735642
 10
66.4950850215
 20
131.337124034
 10
66.4931972306
 20
131.3410896055
 10
66.4873438682
 20
131.3472083948
 10
66.4666957482
 20
131.3593975447
 10
66.3765337113
 20
131.38917379
 10
66.0024570562
 20
131.4552939675
 10
65.1940052658
 20
131.5226937822
  0
LWPOLYLINE
  5
34C
330
1F
100
AcDbEntity
  8
0
  6
SLD-Durchgehend
 62
     7
370
    15
100
AcDbPolyline
 90
        3
 70
   128
 43
0.0
 10
65.1940052658
 20
131.5226937822
 10
62.6483857414
 20
131.5834812067
 10
60.0796720274
 20
131.5226937822
  0
LWPOLYLINE
  5
34D
330
1F
100
AcDbEntity
  8
0
  6
SLD-Durchgehend
 62
     7
370
    15
100
AcDbPolyline
 90
       12
 70
   128
 43
0.0
 10
60.0796720274
 20
131.5226937822
 10
59.9153848625
 20
131.5138722948
 10
58.960913334
 20
131.4041792593
 10
58.8128109257
 20
131.3620275996
 10
58.7925404571
 20
131.351632177
 10
58.7847590241
 20
131.3458598397
 10
58.7798446677
 20
131.3400744639
 10
58.7783335969
 20
131.3358090065
 10
58.7788702715
 20
131.3316012911
 10
58.7818772793
 20
131.3272650532
 10
58.7900577839
 20
131.3217795632
 10
58.8099471088
 20
131.3148486606
  0
ARC
  5
34E
330
1F
100
AcDbEntity
  8
0
  6
SLD-Durchgehend
 62
     7
370
    15
100
AcDbCircle
 10
62.7469518631
 20
146.1406046163
 30
0.0
 40
15.33959080586803
100
AcDbArc
 50
255.1282408537
 51
267.7774929281
  0
ARC
  5
34F
330
1F
100
AcDbEntity
  8
0
  6
SLD-Durchgehend
 62
     7
370
    15
100
AcDbCircle
 10
62.6368386466
 20
111.9187708191
 30
0.0
 40
18.9000000000008
100
AcDbArc
 50
91.4697260895
 51
100.1154136641
  0
LWPOLYLINE
  5
350
330
1F
100
AcDbEntity
  8
0
  6
SLD-Durchgehend
 62
     7
370
    15
100
AcDbPolyline
 90
        3
 70
   128
 43
0.0
 10
59.3174019623
 20
130.5249883972
 10
56.9926433991
 20
130.3228485576
 10
54.6932326425
 20
130.0226944677
  0
LWPOLYLINE
  5
351
330
1F
100
AcDbEntity
  8
0
  6
SLD-Durchgehend
 62
     7
370
    15
100
AcDbPolyline
 90
       11
 70
   128
 43
0.0
 10
54.6932326425
 20
130.0226944677
 10
54.4855886865
 20
129.9785181127
 10
54.3042499367
 20
129.9129734925
 10
54.2572730947
 20
129.8863860957
 10
54.2346857283
 20
129.8686313621
 10
54.2226893622
 20
129.8545739792
 10
54.2178604547
 20
129.8439438633
 10
54.2176862973
 20
129.8335186384
 10
54.2215028573
 20
129.8257122926
 10
54.2329897899
 20
129.8161811374
 10
54.2354503441
 20
129.8148474834
  0
LINE
  5
352
330
1F
100
AcDbEntity
  8
0
  6
SLD-Durchgehend
 62
     7
370
    15
100
AcDbLine
 10
54.2354503441
 20
129.8148474834
 30
0.0
 11
55.2431697752
 21
129.312553554
 31
0.0
  0
ARC
  5
353
330
1F
100
AcDbEntity
  8
0
  6
SLD-Durchgehend
 62
     7
370
    15
100
AcDbCircle
 10
62.6368386466
 20
111.9187708191
 30
0.0
 40
18.9
100
AcDbArc
 50
113.029151051
 51
115.1644730771
  0
LINE
  5
354
330
1F
100
AcDbEntity
  8
0
  6
SLD-Durchgehend
 62
     7
370
    15
100
AcDbLine
 10
54.6002149377
 20
129.0249890826
 30
0.0
 11
51.9054526258
 21
128.5226932905
 31
0.0
  0
LWPOLYLINE
  5
355
330
1F
100
AcDbEntity
  8
0
  6
SLD-Durchgehend
 62
     7
370
    15
100
AcDbPolyline
 90
       10
 70
   128
 43
0.0
 10
51.9054526258
 20
128.5226932905
 10
51.6984289307
 20
128.4530378125
 10
51.6235589776
 20
128.4087683252
 10
51.6010675374
 20
128.3900208018
 10
51.5824131462
 20
128.3683191232
 10
51.5750426594
 20
128.3535036437
 10
51.573315056
 20
128.3387831591
 10
51.5771334786
 20
128.3276613049
 10
51.5889137778
 20
128.3158688984
 10
51.5905016828
 20
128.3148481689
  0
LINE
  5
356
330
1F
100
AcDbEntity
  8
0
  6
SLD-Durchgehend
 62
     7
370
    15
100
AcDbLine
 10
51.5905016828
 20
128.3148481689
 30
0.0
 11
52.4095374886
 21
127.8125523768
 31
0.0
  0
ARC
  5
357
330
1F
100
AcDbEntity
  8
0
  6
SLD-Durchgehend
 62
     7
370
    15
100
AcDbCircle
 10
62.6368386466
 20
111.9187708191
 30
0.0
 40
18.89999999999998
100
AcDbArc
 50
122.7603943329
 51
124.3378536913
  0
LINE
  5
358
330
1F
100
AcDbEntity
  8
0
  6
SLD-Durchgehend
 62
     7
370
    15
100
AcDbLine
 10
51.9758829642
 20
127.5249888367
 30
0.0
 11
49.8804909903
 21
127.022693976
 31
0.0
  0
LWPOLYLINE
  5
359
330
1F
100
AcDbEntity
  8
0
  6
SLD-Durchgehend
 62
     7
370
    15
100
AcDbPolyline
 90
        9
 70
   128
 43
0.0
 10
49.8804909903
 20
127.022693976
 10
49.7275436092
 20
126.9611326225
 10
49.6523123029
 20
126.9054898239
 10
49.6314544026
 20
126.8797117464
 10
49.6225407142
 20
126.8608943737
 10
49.6204517577
 20
126.8422697849
 10
49.6248438749
 20
126.8288270749
 10
49.6380155701
 20
126.8150984488
 10
49.6383853052
 20
126.814847923
  0
LINE
  5
35A
330
1F
100
AcDbEntity
  8
0
  6
SLD-Durchgehend
 62
     7
370
    15
100
AcDbLine
 10
49.6383853052
 20
126.814847923
 30
0.0
 11
50.3882042859
 21
126.3125530622
 31
0.0
  0
ARC
  5
35B
330
1F
100
AcDbEntity
  8
0
  6
SLD-Durchgehend
 62
     7
370
    15
100
AcDbCircle
 10
62.6368386466
 20
111.9187708191
 30
0.0
 40
18.89999999999998
100
AcDbArc
 50
130.3966873225
 51
131.7238912277
  0
LINE
  5
35C
330
1F
100
AcDbEntity
  8
0
  6
SLD-Durchgehend
 62
     7
370
    15
100
AcDbLine
 10
50.0581016559
 20
126.0249885909
 30
0.0
 11
48.2915894855
 21
125.5226937301
 31
0.0
  0
LWPOLYLINE
  5
35D
330
1F
100
AcDbEntity
  8
0
  6
SLD-Durchgehend
 62
     7
370
    15
100
AcDbPolyline
 90
        9
 70
   128
 43
0.0
 10
48.2915894855
 20
125.5226937301
 10
48.1996390763
 20
125.4843129955
 10
48.1450952384
 20
125.4489385701
 10
48.0972774122
 20
125.4013358794
 10
48.0843236465
 20
125.379496365
 10
48.0778025258
 20
125.35655789
 10
48.0795748327
 20
125.3379193313
 10
48.0869518388
 20
125.3243397168
 10
48.0973053518
 20
125.3148476771
  0
LINE
  5
35E
330
1F
100
AcDbEntity
  8
0
  6
SLD-Durchgehend
 62
     7
370
    15
100
AcDbLine
 10
48.0973053518
 20
125.3148476771
 30
0.0
 11
48.817997219
 21
124.8125528164
 31
0.0
  0
LINE
  5
35F
330
1F
100
AcDbEntity
  8
0
  6
SLD-Durchgehend
 62
     7
370
    15
100
AcDbLine
 10
48.5551742632
 20
124.524988345
 30
0.0
 11
47.0052057672
 21
124.0226934842
 31
0.0
  0
LWPOLYLINE
  5
360
330
1F
100
AcDbEntity
  8
0
  6
SLD-Durchgehend
 62
     7
370
    15
100
AcDbPolyline
 90
        9
 70
   128
 43
0.0
 10
47.0052057672
 20
124.0226934842
 10
46.9155529309
 20
123.9785385496
 10
46.8733435292
 20
123.9448749639
 10
46.8427663464
 20
123.9087470985
 10
46.8298377264
 20
123.8837271176
 10
46.8247452546
 20
123.8619174055
 10
46.8265911359
 20
123.8418930388
 10
46.8342782724
 20
123.826525285
 10
46.8464543838
 20
123.8148474313
  0
LINE
  5
361
330
1F
100
AcDbEntity
  8
0
  6
SLD-Durchgehend
 62
     7
370
    15
100
AcDbLine
 10
46.8464543838
 20
123.8148474313
 30
0.0
 11
47.5573254544
 21
123.3125535018
 31
0.0
  0
ARC
  5
362
330
1F
100
AcDbEntity
  8
0
  6
SLD-Durchgehend
 62
     7
370
    15
100
AcDbCircle
 10
62.6368386466
 20
111.9187708191
 30
0.0
 40
18.89999999999997
100
AcDbArc
 50
142.9260268275
 51
144.0109540318
  0
LINE
  5
363
330
1F
100
AcDbEntity
  8
0
  6
SLD-Durchgehend
 62
     7
370
    15
100
AcDbLine
 10
47.3442937974
 20
123.0249890305
 30
0.0
 11
45.9512242842
 21
122.5226941697
 31
0.0
  0
LWPOLYLINE
  5
364
330
1F
100
AcDbEntity
  8
0
  6
SLD-Durchgehend
 62
     7
370
    15
100
AcDbPolyline
 90
        9
 70
   128
 43
0.0
 10
45.9512242842
 20
122.5226941697
 10
45.8731384743
 20
122.4800405271
 10
45.8355298061
 20
122.4459410823
 10
45.8108143676
 20
122.4119114868
 10
45.7997223157
 20
122.3856528468
 10
45.7964552361
 20
122.3590496174
 10
45.8009572495
 20
122.3391453914
 10
45.8144278992
 20
122.3201072953
 10
45.8209397066
 20
122.3148481167
  0
LINE
  5
365
330
1F
100
AcDbEntity
  8
0
  6
SLD-Durchgehend
 62
     7
370
    15
100
AcDbLine
 10
45.8209397066
 20
122.3148481167
 30
0.0
 11
46.5333269704
 21
121.812553256
 31
0.0
  0
ARC
  5
366
330
1F
100
AcDbEntity
  8
0
  6
SLD-Durchgehend
 62
     7
370
    15
100
AcDbCircle
 10
62.6368386466
 20
111.9187708191
 30
0.0
 40
18.89999999999998
100
AcDbArc
 50
148.4339897924
 51
149.4516361064
  0
LINE
  5
367
330
1F
100
AcDbEntity
  8
0
  6
SLD-Durchgehend
 62
     7
370
    15
100
AcDbLine
 10
46.3601512629
 20
121.5249887846
 30
0.0
 11
45.0877224821
 21
121.0226939238
 31
0.0
  0
LWPOLYLINE
  5
368
330
1F
100
AcDbEntity
  8
0
  6
SLD-Durchgehend
 62
     7
370
    15
100
AcDbPolyline
 90
        9
 70
   128
 43
0.0
 10
45.0877224821
 20
121.0226939238
 10
45.0216246564
 20
120.9837860606
 10
44.9870092589
 20
120.9494891755
 10
44.9656596202
 20
120.9164048723
 10
44.955955239
 20
120.8891879014
 10
44.9540423024
 20
120.8619346089
 10
44.9594383854
 20
120.8411074422
 10
44.9743265081
 20
120.8205373205
 10
44.9814511258
 20
120.8148478709
  0
LINE
  5
369
330
1F
100
AcDbEntity
  8
0
  6
SLD-Durchgehend
 62
     7
370
    15
100
AcDbLine
 10
44.9814511258
 20
120.8148478709
 30
0.0
 11
45.7030137796
 21
120.3125530101
 31
0.0
  0
ARC
  5
36A
330
1F
100
AcDbEntity
  8
0
  6
SLD-Durchgehend
 62
     7
370
    15
100
AcDbCircle
 10
62.6368386466
 20
111.9187708191
 30
0.0
 40
18.89999999999997
100
AcDbArc
 50
153.6332398891
 51
154.6022022657
  0
LINE
  5
36B
330
1F
100
AcDbEntity
  8
0
  6
SLD-Durchgehend
 62
     7
370
    15
100
AcDbLine
 10
45.563490482
 20
120.0249885387
 30
0.0
 11
44.3876398522
 21
119.5226936779
 31
0.0
  0
LWPOLYLINE
  5
36C
330
1F
100
AcDbEntity
  8
0
  6
SLD-Durchgehend
 62
     7
370
    15
100
AcDbPolyline
 90
        9
 70
   128
 43
0.0
 10
44.3876398522
 20
119.5226936779
 10
44.3308030981
 20
119.4869094707
 10
44.2993504721
 20
119.4531159654
 10
44.2806420643
 20
119.420660305
 10
44.2723346669
 20
119.3928016528
 10
44.2716827411
 20
119.3651483572
 10
44.2779449541
 20
119.3434201359
 10
44.294202121
 20
119.321338012
 10
44.3024182487
 20
119.314847625
  0
LINE
  5
36D
330
1F
100
AcDbEntity
  8
0
  6
SLD-Durchgehend
 62
     7
370
    15
100
AcDbLine
 10
44.3024182487
 20
119.314847625
 30
0.0
 11
45.0389472563
 21
118.8125532299
 31
0.0
  0
ARC
  5
36E
330
1F
100
AcDbEntity
  8
0
  6
SLD-Durchgehend
 62
     7
370
    15
100
AcDbCircle
 10
62.6368386466
 20
111.9187708191
 30
0.0
 40
18.89999999999997
100
AcDbArc
 50
158.6077784115
 51
159.5411033901
  0
LINE
  5
36F
330
1F
100
AcDbEntity
  8
0
  6
SLD-Durchgehend
 62
     7
370
    15
100
AcDbLine
 10
44.9289897252
 20
118.5249887585
 30
0.0
 11
43.8327168841
 21
118.0226938977
 31
0.0
  0
LWPOLYLINE
  5
370
330
1F
100
AcDbEntity
  8
0
  6
SLD-Durchgehend
 62
     7
370
    15
100
AcDbPolyline
 90
        9
 70
   128
 43
0.0
 10
43.8327168841
 20
118.0226938977
 10
43.7832822818
 20
117.9896105259
 10
43.7548564542
 20
117.9566635928
 10
43.7384055722
 20
117.9247783675
 10
43.731467219
 20
117.8964824594
 10
43.7320111114
 20
117.8685758441
 10
43.7391543556
 20
117.8459973253
 10
43.7568140942
 20
117.8224078558
 10
43.7665128875
 20
117.8148478448
  0
LINE
  5
371
330
1F
100
AcDbEntity
  8
0
  6
SLD-Durchgehend
 62
     7
370
    15
100
AcDbLine
 10
43.7665128875
 20
117.8148478448
 30
0.0
 11
44.5228362251
 21
117.312552984
 31
0.0
  0
ARC
  5
372
330
1F
100
AcDbEntity
  8
0
  6
SLD-Durchgehend
 62
     7
370
    15
100
AcDbCircle
 10
62.6368386466
 20
111.9187708191
 30
0.0
 40
18.89999999999997
100
AcDbArc
 50
163.4181186606
 51
164.3256018524
  0
LINE
  5
373
330
1F
100
AcDbEntity
  8
0
  6
SLD-Durchgehend
 62
     7
370
    15
100
AcDbLine
 10
44.439680295
 20
117.0249885126
 30
0.0
 11
43.4103769976
 21
116.5226936519
 31
0.0
  0
LWPOLYLINE
  5
374
330
1F
100
AcDbEntity
  8
0
  6
SLD-Durchgehend
 62
     7
370
    15
100
AcDbPolyline
 90
        9
 70
   128
 43
0.0
 10
43.4103769976
 20
116.5226936519
 10
43.3755399454
 20
116.4997467949
 10
43.3459555525
 20
116.4671197712
 10
43.3292439002
 20
116.4353858858
 10
43.3219460565
 20
116.4063272245
 10
43.3221863378
 20
116.3770422518
 10
43.3291321415
 20
116.3529498681
 10
43.3462666142
 20
116.3275475792
 10
43.3617917616
 20
116.3148475989
  0
LINE
  5
375
330
1F
100
AcDbEntity
  8
0
  6
SLD-Durchgehend
 62
     7
370
    15
100
AcDbLine
 10
43.3617917616
 20
116.3148475989
 30
0.0
 11
44.1422866452
 21
115.812552971
 31
0.0
  0
ARC
  5
376
330
1F
100
AcDbEntity
  8
0
  6
SLD-Durchgehend
 62
     7
370
    15
100
AcDbCircle
 10
62.6368386466
 20
111.9187708191
 30
0.0
 40
18.89999999999997
100
AcDbArc
 50
168.1107715436
 51
169.000223065
  0
LINE
  5
377
330
1F
100
AcDbEntity
  8
0
  6
SLD-Durchgehend
 62
     7
370
    15
100
AcDbLine
 10
44.0840715337
 20
115.5249884996
 30
0.0
 11
43.1120203603
 21
115.0226938717
 31
0.0
  0
LWPOLYLINE
  5
378
330
1F
100
AcDbEntity
  8
0
  6
SLD-Durchgehend
 62
     7
370
    15
100
AcDbPolyline
 90
        9
 70
   128
 43
0.0
 10
43.1120203603
 20
115.0226938717
 10
43.0782748181
 20
114.9986287292
 10
43.0530862678
 20
114.9675353608
 10
43.0391927976
 20
114.9366908885
 10
43.0339121986
 20
114.9077747195
 10
43.0358847398
 20
114.8790459793
 10
43.0441828239
 20
114.8545822307
 10
43.0636064876
 20
114.8277671255
 10
43.0801095236
 20
114.8148478187
  0
LINE
  5
379
330
1F
100
AcDbEntity
  8
0
  6
SLD-Durchgehend
 62
     7
370
    15
100
AcDbLine
 10
43.0801095236
 20
114.8148478187
 30
0.0
 11
43.8890432734
 21
114.3125529579
 31
0.0
  0
ARC
  5
37A
330
1F
100
AcDbEntity
  8
0
  6
SLD-Durchgehend
 62
     7
370
    15
100
AcDbCircle
 10
62.6368386466
 20
111.9187708191
 30
0.0
 40
18.89999999999997
100
AcDbArc
 50
172.723651697
 51
173.6016626482
  0
LINE
  5
37B
330
1F
100
AcDbEntity
  8
0
  6
SLD-Durchgehend
 62
     7
370
    15
100
AcDbLine
 10
43.854563849
 20
114.0249884866
 30
0.0
 11
42.9320087451
 21
113.5226938586
 31
0.0
  0
ARC
  5
37C
330
1F
100
AcDbEntity
  8
0
  6
SLD-Durchgehend
 62
     7
370
    15
100
AcDbCircle
 10
42.9830022384
 20
113.4142888259
 30
0.0
 40
0.1197997807799025
100
AcDbArc
 50
115.1921919634
 51
236.1049141144
  0
LINE
  5
37D
330
1F
100
AcDbEntity
  8
0
  6
SLD-Durchgehend
 62
     7
370
    15
100
AcDbLine
 10
42.9161930252
 20
113.3148478057
 30
0.0
 11
43.7579838354
 21
112.8125530613
 31
0.0
  0
ARC
  5
37E
330
1F
100
AcDbEntity
  8
0
  6
SLD-Durchgehend
 62
     7
370
    15
100
AcDbCircle
 10
62.6368386466
 20
111.9187708191
 30
0.0
 40
18.89999999999996
100
AcDbArc
 50
177.2894679724
 51
178.1619217522
  0
LINE
  5
37F
330
1F
100
AcDbEntity
  8
0
  6
SLD-Durchgehend
 62
     7
370
    15
100
AcDbLine
 10
43.746563958
 20
112.5249885899
 30
0.0
 11
42.8671123255
 21
112.0226938674
 31
0.0
  0
ARC
  5
380
330
1F
100
AcDbEntity
  8
0
  6
SLD-Durchgehend
 62
     7
370
    15
100
AcDbCircle
 10
42.926637042
 20
111.9187708191
 30
0.0
 40
0.1197630654656253
100
AcDbArc
 50
119.8030827258
 51
240.1969172742
  0
LINE
  5
381
330
1F
100
AcDbEntity
  8
0
  6
SLD-Durchgehend
 62
     7
370
    15
100
AcDbLine
 10
42.8671123255
 20
111.8148477708
 30
0.0
 11
43.746563958
 21
111.3125530483
 31
0.0
  0
ARC
  5
382
330
1F
100
AcDbEntity
  8
0
  6
SLD-Durchgehend
 62
     7
370
    15
100
AcDbCircle
 10
62.6368386466
 20
111.9187708191
 30
0.0
 40
18.89999999999996
100
AcDbArc
 50
181.8380782478
 51
182.7105320276
  0
LINE
  5
383
330
1F
100
AcDbEntity
  8
0
  6
SLD-Durchgehend
 62
     7
370
    15
100
AcDbLine
 10
43.7579838354
 20
111.0249885769
 30
0.0
 11
42.9161930252
 21
110.5226938325
 31
0.0
  0
ARC
  5
384
330
1F
100
AcDbEntity
  8
0
  6
SLD-Durchgehend
 62
     7
370
    15
100
AcDbCircle
 10
42.9847663831
 20
110.4233870521
 30
0.0
 40
0.1206819872495687
100
AcDbArc
 50
124.6258703726
 51
244.0770235497
  0
LINE
  5
385
330
1F
100
AcDbEntity
  8
0
  6
SLD-Durchgehend
 62
     7
370
    15
100
AcDbLine
 10
42.9320087451
 20
110.3148477796
 30
0.0
 11
43.854563849
 21
109.8125531516
 31
0.0
  0
ARC
  5
386
330
1F
100
AcDbEntity
  8
0
  6
SLD-Durchgehend
 62
     7
370
    15
100
AcDbCircle
 10
62.6368386466
 20
111.9187708191
 30
0.0
 40
18.89999999999997
100
AcDbArc
 50
186.3983373518
 51
187.276348303
  0
LINE
  5
387
330
1F
100
AcDbEntity
  8
0
  6
SLD-Durchgehend
 62
     7
370
    15
100
AcDbLine
 10
43.8890432734
 20
109.5249886803
 30
0.0
 11
43.0801095236
 21
109.0226938195
 31
0.0
  0
ARC
  5
388
330
1F
100
AcDbEntity
  8
0
  6
SLD-Durchgehend
 62
     7
370
    15
100
AcDbCircle
 10
43.1564766196
 20
108.9280458654
 30
0.0
 40
0.1216148369770104
100
AcDbArc
 50
128.8984691223
 51
248.5585878788
  0
LINE
  5
389
330
1F
100
AcDbEntity
  8
0
  6
SLD-Durchgehend
 62
     7
370
    15
100
AcDbLine
 10
43.1120203603
 20
108.8148477666
 30
0.0
 11
44.0840715337
 21
108.3125531386
 31
0.0
  0
ARC
  5
38A
330
1F
100
AcDbEntity
  8
0
  6
SLD-Durchgehend
 62
     7
370
    15
100
AcDbCircle
 10
62.6368386466
 20
111.9187708191
 30
0.0
 40
18.89999999999996
100
AcDbArc
 50
190.999776935
 51
191.8892284564
  0
LINE
  5
38B
330
1F
100
AcDbEntity
  8
0
  6
SLD-Durchgehend
 62
     7
370
    15
100
AcDbLine
 10
44.1422866452
 20
108.0249886672
 30
0.0
 11
43.3617917616
 21
107.5226940393
 31
0.0
  0
LWPOLYLINE
  5
38C
330
1F
100
AcDbEntity
  8
0
  6
SLD-Durchgehend
 62
     7
370
    15
100
AcDbPolyline
 90
        9
 70
   128
 43
0.0
 10
43.3617917616
 20
107.5226940393
 10
43.3404532987
 20
107.5033681645
 10
43.3266268838
 20
107.4783174499
 10
43.3212792296
 20
107.4519866324
 10
43.3232163805
 20
107.4232702322
 10
43.3314827997
 20
107.3965911
 10
43.3510144967
 20
107.3634751319
 10
43.3869449217
 20
107.3289049036
 10
43.4103769976
 20
107.3148479863
  0
LINE
  5
38D
330
1F
100
AcDbEntity
  8
0
  6
SLD-Durchgehend
 62
     7
370
    15
100
AcDbLine
 10
43.4103769976
 20
107.3148479863
 30
0.0
 11
44.439680295
 21
106.8125531256
 31
0.0
  0
ARC
  5
38E
330
1F
100
AcDbEntity
  8
0
  6
SLD-Durchgehend
 62
     7
370
    15
100
AcDbCircle
 10
62.6368386466
 20
111.9187708191
 30
0.0
 40
18.89999999999996
100
AcDbArc
 50
195.6743981476
 51
196.5818813394
  0
LINE
  5
38F
330
1F
100
AcDbEntity
  8
0
  6
SLD-Durchgehend
 62
     7
370
    15
100
AcDbLine
 10
44.5228362251
 20
106.5249886542
 30
0.0
 11
43.7665128875
 21
106.0226937934
 31
0.0
  0
LWPOLYLINE
  5
390
330
1F
100
AcDbEntity
  8
0
  6
SLD-Durchgehend
 62
     7
370
    15
100
AcDbPolyline
 90
        9
 70
   128
 43
0.0
 10
43.7665128875
 20
106.0226937934
 10
43.7474990058
 20
106.0050321921
 10
43.7350155581
 20
105.9812639087
 10
43.7307575512
 20
105.9511211879
 10
43.7348944861
 20
105.9236481033
 10
43.7450738419
 20
105.8975487194
 10
43.7686493415
 20
105.8629100389
 10
43.8112685252
 20
105.8265595875
 10
43.8327168841
 20
105.8148477405
  0
LINE
  5
391
330
1F
100
AcDbEntity
  8
0
  6
SLD-Durchgehend
 62
     7
370
    15
100
AcDbLine
 10
43.8327168841
 20
105.8148477405
 30
0.0
 11
44.9289897252
 21
105.3125528797
 31
0.0
  0
ARC
  5
392
330
1F
100
AcDbEntity
  8
0
  6
SLD-Durchgehend
 62
     7
370
    15
100
AcDbCircle
 10
62.6368386466
 20
111.9187708191
 30
0.0
 40
18.89999999999996
100
AcDbArc
 50
200.4588966099
 51
201.3922215885
  0
LINE
  5
393
330
1F
100
AcDbEntity
  8
0
  6
SLD-Durchgehend
 62
     7
370
    15
100
AcDbLine
 10
45.0389472563
 20
105.0249884083
 30
0.0
 11
44.3024182487
 21
104.5226940132
 31
0.0
  0
LWPOLYLINE
  5
394
330
1F
100
AcDbEntity
  8
0
  6
SLD-Durchgehend
 62
     7
370
    15
100
AcDbPolyline
 90
        9
 70
   128
 43
0.0
 10
44.3024182487
 20
104.5226940132
 10
44.2855017055
 20
104.5066813185
 10
44.2742140759
 20
104.4842685751
 10
44.271084832
 20
104.45588326
 10
44.2758923191
 20
104.4298215947
 10
44.2866937984
 20
104.4043466627
 10
44.3120350856
 20
104.3689130984
 10
44.3584969062
 20
104.3302324779
 10
44.3876398522
 20
104.3148479603
  0
LINE
  5
395
330
1F
100
AcDbEntity
  8
0
  6
SLD-Durchgehend
 62
     7
370
    15
100
AcDbLine
 10
44.3876398522
 20
104.3148479603
 30
0.0
 11
45.563490482
 21
103.8125530995
 31
0.0
  0
ARC
  5
396
330
1F
100
AcDbEntity
  8
0
  6
SLD-Durchgehend
 62
     7
370
    15
100
AcDbCircle
 10
62.6368386466
 20
111.9187708191
 30
0.0
 40
18.89999999999996
100
AcDbArc
 50
205.3977977343
 51
206.3667601109
  0
LINE
  5
397
330
1F
100
AcDbEntity
  8
0
  6
SLD-Durchgehend
 62
     7
370
    15
100
AcDbLine
 10
45.7030137796
 20
103.5249886281
 30
0.0
 11
44.9814511258
 21
103.0226937673
 31
0.0
  0
LWPOLYLINE
  5
398
330
1F
100
AcDbEntity
  8
0
  6
SLD-Durchgehend
 62
     7
370
    15
100
AcDbPolyline
 90
        9
 70
   128
 43
0.0
 10
44.9814511258
 20
103.0226937673
 10
44.9664400685
 20
103.0083309106
 10
44.9561936576
 20
102.9873603202
 10
44.9540125001
 20
102.9608260087
 10
44.959356429
 20
102.9363238431
 10
44.9741309304
 20
102.905973903
 10
45.0044976342
 20
102.8689296163
 10
45.0603527743
 20
102.8278536342
 10
45.0877224821
 20
102.8148477144
  0
LINE
  5
399
330
1F
100
AcDbEntity
  8
0
  6
SLD-Durchgehend
 62
     7
370
    15
100
AcDbLine
 10
45.0877224821
 20
102.8148477144
 30
0.0
 11
46.3601512629
 21
102.3125528536
 31
0.0
  0
ARC
  5
39A
330
1F
100
AcDbEntity
  8
0
  6
SLD-Durchgehend
 62
     7
370
    15
100
AcDbCircle
 10
62.6368386466
 20
111.9187708191
 30
0.0
 40
18.89999999999997
100
AcDbArc
 50
210.5483638936
 51
211.5660102076
  0
LINE
  5
39B
330
1F
100
AcDbEntity
  8
0
  6
SLD-Durchgehend
 62
     7
370
    15
100
AcDbLine
 10
46.5333269704
 20
102.0249883823
 30
0.0
 11
45.8209397066
 21
101.5226935215
 31
0.0
  0
LWPOLYLINE
  5
39C
330
1F
100
AcDbEntity
  8
0
  6
SLD-Durchgehend
 62
     7
370
    15
100
AcDbPolyline
 90
        9
 70
   128
 43
0.0
 10
45.8209397066
 20
101.5226935215
 10
45.8076739479
 20
101.5099977321
 10
45.7983048428
 20
101.4905684806
 10
45.7968724686
 20
101.4659927405
 10
45.802587064
 20
101.4432293541
 10
45.8181494642
 20
101.4137073598
 10
45.8507550675
 20
101.3761713348
 10
45.9129338879
 20
101.3321626178
 10
45.9512242842
 20
101.3148474685
  0
LINE
  5
39D
330
1F
100
AcDbEntity
  8
0
  6
SLD-Durchgehend
 62
     7
370
    15
100
AcDbLine
 10
45.9512242842
 20
101.3148474685
 30
0.0
 11
47.3442937974
 21
100.8125526077
 31
0.0
  0
ARC
  5
39E
330
1F
100
AcDbEntity
  8
0
  6
SLD-Durchgehend
 62
     7
370
    15
100
AcDbCircle
 10
62.6368386466
 20
111.9187708191
 30
0.0
 40
18.89999999999997
100
AcDbArc
 50
215.9890459682
 51
217.0739731725
  0
LINE
  5
39F
330
1F
100
AcDbEntity
  8
0
  6
SLD-Durchgehend
 62
     7
370
    15
100
AcDbLine
 10
47.5573254544
 20
100.5249881364
 30
0.0
 11
46.8464543838
 21
100.0226942069
 31
0.0
  0
LWPOLYLINE
  5
3A0
330
1F
100
AcDbEntity
  8
0
  6
SLD-Durchgehend
 62
     7
370
    15
100
AcDbPolyline
 90
        9
 70
   128
 43
0.0
 10
46.8464543838
 20
100.0226942069
 10
46.8348016757
 20
100.0116999439
 10
46.8261254746
 20
99.9939275152
 10
46.8252183664
 20
99.9714248992
 10
46.8310950119
 20
99.9506154276
 10
46.8471286613
 20
99.9224513016
 10
46.8816825915
 20
99.8850009582
 10
46.9510400463
 20
99.8379812754
 10
47.0052057672
 20
99.814848154
  0
LINE
  5
3A1
330
1F
100
AcDbEntity
  8
0
  6
SLD-Durchgehend
 62
     7
370
    15
100
AcDbLine
 10
47.0052057672
 20
99.814848154
 30
0.0
 11
48.5551742632
 21
99.3125532932
 31
0.0
  0
LINE
  5
3A2
330
1F
100
AcDbEntity
  8
0
  6
SLD-Durchgehend
 62
     7
370
    15
100
AcDbLine
 10
48.817997219
 20
99.0249888218
 30
0.0
 11
48.0973053518
 21
98.5226939611
 31
0.0
  0
LWPOLYLINE
  5
3A3
330
1F
100
AcDbEntity
  8
0
  6
SLD-Durchgehend
 62
     7
370
    15
100
AcDbPolyline
 90
        9
 70
   128
 43
0.0
 10
48.0973053518
 20
98.5226939611
 10
48.087166043
 20
98.5134626917
 10
48.0783045087
 20
98.4945521868
 10
48.0789601598
 20
98.4737846247
 10
48.0856517125
 20
98.4552308164
 10
48.1037175078
 20
98.4279039494
 10
48.1438761372
 20
98.3895530171
 10
48.2289971579
 20
98.3385211966
 10
48.2915894855
 20
98.3148479081
  0
LINE
  5
3A4
330
1F
100
AcDbEntity
  8
0
  6
SLD-Durchgehend
 62
     7
370
    15
100
AcDbLine
 10
48.2915894855
 20
98.3148479081
 30
0.0
 11
50.0581016559
 21
97.8125530473
 31
0.0
  0
ARC
  5
3A5
330
1F
100
AcDbEntity
  8
0
  6
SLD-Durchgehend
 62
     7
370
    15
100
AcDbCircle
 10
62.6368386466
 20
111.9187708191
 30
0.0
 40
18.89999999999997
100
AcDbArc
 50
228.2761087723
 51
229.6033126775
  0
LINE
  5
3A6
330
1F
100
AcDbEntity
  8
0
  6
SLD-Durchgehend
 62
     7
370
    15
100
AcDbLine
 10
50.3882042859
 20
97.524988576
 30
0.0
 11
49.6383853052
 21
97.0226937152
 31
0.0
  0
LWPOLYLINE
  5
3A7
330
1F
100
AcDbEntity
  8
0
  6
SLD-Durchgehend
 62
     7
370
    15
100
AcDbPolyline
 90
        9
 70
   128
 43
0.0
 10
49.6383853052
 20
97.0226937152
 10
49.6297025848
 20
97.0153157778
 10
49.6211642194
 20
96.9994125135
 10
49.6207376737
 20
96.9843697912
 10
49.6257500518
 20
96.9683240346
 10
49.6402004529
 20
96.9456006951
 10
49.6740307454
 20
96.9125052161
 10
49.7535070199
 20
96.8624633915
 10
49.8804909903
 20
96.8148476622
  0
LINE
  5
3A8
330
1F
100
AcDbEntity
  8
0
  6
SLD-Durchgehend
 62
     7
370
    15
100
AcDbLine
 10
49.8804909903
 20
96.8148476622
 30
0.0
 11
51.9758829642
 21
96.3125528015
 31
0.0
  0
ARC
  5
3A9
330
1F
100
AcDbEntity
  8
0
  6
SLD-Durchgehend
 62
     7
370
    15
100
AcDbCircle
 10
62.6368386466
 20
111.9187708191
 30
0.0
 40
18.89999999999997
100
AcDbArc
 50
235.6621463087
 51
237.2396056671
  0
LINE
  5
3AA
330
1F
100
AcDbEntity
  8
0
  6
SLD-Durchgehend
 62
     7
370
    15
100
AcDbLine
 10
52.4095374886
 20
96.0249892614
 30
0.0
 11
51.5905016828
 21
95.5226934693
 31
0.0
  0
LWPOLYLINE
  5
3AB
330
1F
100
AcDbEntity
  8
0
  6
SLD-Durchgehend
 62
     7
370
    15
100
AcDbPolyline
 90
       10
 70
   128
 43
0.0
 10
51.5905016828
 20
95.5226934693
 10
51.5832876581
 20
95.5172899357
 10
51.5746040065
 20
95.5044749371
 10
51.5732647646
 20
95.4923751942
 10
51.5768829528
 20
95.4792435459
 10
51.5882460195
 20
95.4612839214
 10
51.6161717269
 20
95.4344432048
 10
51.6880241949
 20
95.3896894298
 10
51.8700772691
 20
95.3230365358
 10
51.9054526258
 20
95.3148483477
  0
LINE
  5
3AC
330
1F
100
AcDbEntity
  8
0
  6
SLD-Durchgehend
 62
     7
370
    15
100
AcDbLine
 10
51.9054526258
 20
95.3148483477
 30
0.0
 11
54.6002149377
 21
94.8125525556
 31
0.0
  0
ARC
  5
3AD
330
1F
100
AcDbEntity
  8
0
  6
SLD-Durchgehend
 62
     7
370
    15
100
AcDbCircle
 10
62.6368386466
 20
111.9187708191
 30
0.0
 40
18.90000000000704
100
AcDbArc
 50
244.8355269229
 51
246.970848949
  0
LINE
  5
3AE
330
1F
100
AcDbEntity
  8
0
  6
SLD-Durchgehend
 62
     7
370
    15
100
AcDbLine
 10
55.2431697752
 20
94.5249880842
 30
0.0
 11
54.2354503441
 21
94.0226941548
 31
0.0
  0
LWPOLYLINE
  5
3AF
330
1F
100
AcDbEntity
  8
0
  6
SLD-Durchgehend
 62
     7
370
    15
100
AcDbPolyline
 90
        9
 70
   128
 43
0.0
 10
54.2354503441
 20
94.0226941548
 10
54.2231261525
 20
94.0137664966
 10
54.2181351948
 20
94.0055708579
 10
54.2174329776
 20
93.9956299208
 10
54.2208155412
 20
93.9861565075
 10
54.2311792988
 20
93.9724008731
 10
54.25803026
 20
93.9506451778
 10
54.3579248506
 20
93.9010969541
 10
54.6932326425
 20
93.8148471705
  0
LWPOLYLINE
  5
3B0
330
1F
100
AcDbEntity
  8
0
  6
SLD-Durchgehend
 62
     7
370
    15
100
AcDbPolyline
 90
        3
 70
   128
 43
0.0
 10
54.6932326425
 20
93.8148471705
 10
56.9766316358
 20
93.5164421044
 10
59.3174019623
 20
93.312553241
  0
ARC
  5
3B1
330
1F
100
AcDbEntity
  8
0
  6
SLD-Durchgehend
 62
     7
370
    15
100
AcDbCircle
 10
62.6368386466
 20
111.9187708191
 30
0.0
 40
18.89999999999999
100
AcDbArc
 50
259.8845863359
 51
268.5302739106
  0
ARC
  5
3B2
330
1F
100
AcDbEntity
  8
0
  6
SLD-Durchgehend
 62
     7
370
    15
100
AcDbCircle
 10
62.804131853
 20
77.3164779871
 30
0.0
 40
15.72203823001815
100
AcDbArc
 50
92.3769622176
 51
104.7173040006
  0
LWPOLYLINE
  5
3B3
330
1F
100
AcDbEntity
  8
0
  6
SLD-Durchgehend
 62
     7
370
    15
100
AcDbPolyline
 90
       12
 70
   128
 43
0.0
 10
58.8099471088
 20
92.5226929776
 10
58.7982957978
 20
92.5191912047
 10
58.7883779108
 20
92.5148884944
 10
58.7804910056
 20
92.5087287269
 10
58.7785105482
 20
92.5048059962
 10
58.7785922717
 20
92.5004176042
 10
58.7804800626
 20
92.4964520327
 10
58.7863334249
 20
92.4903332434
 10
58.8069815449
 20
92.4781440935
 10
58.8971435819
 20
92.4483678482
 10
59.271220237
 20
92.3822476707
 10
60.0796720274
 20
92.314847856
  0
LWPOLYLINE
  5
3B4
330
1F
100
AcDbEntity
  8
0
  6
SLD-Durchgehend
 62
     7
370
    15
100
AcDbPolyline
 90
        3
 70
   128
 43
0.0
 10
60.0796720274
 20
92.314847856
 10
62.6252915518
 20
92.2540604315
 10
65.1940052658
 20
92.314847856
  0
LWPOLYLINE
  5
3B5
330
1F
100
AcDbEntity
  8
0
  6
SLD-Durchgehend
 62
     7
370
    15
100
AcDbPolyline
 90
       12
 70
   128
 43
0.0
 10
65.1940052658
 20
92.314847856
 10
65.3582924306
 20
92.3236693434
 10
66.3127639591
 20
92.4333623789
 10
66.4608663674
 20
92.4755140386
 10
66.4811368361
 20
92.4859094612
 10
66.488918269
 20
92.4916817985
 10
66.4938326254
 20
92.4974671743
 10
66.4953436963
 20
92.5017326317
 10
66.4948070217
 20
92.5059403471
 10
66.4918000139
 20
92.510276585
 10
66.4836195092
 20
92.515762075
 10
66.4637301843
 20
92.5226929776
  0
ARC
  5
3B6
330
1F
100
AcDbEntity
  8
0
  6
SLD-Durchgehend
 62
     7
370
    15
100
AcDbCircle
 10
62.5267254301
 20
77.6969370219
 30
0.0
 40
15.33959080586808
100
AcDbArc
 50
75.1282408537
 51
87.7774929281
  0
ARC
  5
3B7
330
1F
100
AcDbEntity
  8
0
  6
SLD-Durchgehend
 62
     7
370
    15
100
AcDbCircle
 10
62.6368386466
 20
111.9187708191
 30
0.0
 40
18.9000000000008
100
AcDbArc
 50
271.4697260895
 51
280.1154136641
  0
LWPOLYLINE
  5
3B8
330
1F
100
AcDbEntity
  8
0
  6
SLD-Durchgehend
 62
     7
370
    15
100
AcDbPolyline
 90
        3
 70
   128
 43
0.0
 10
65.9562753308
 20
93.312553241
 10
68.281033894
 20
93.5146930806
 10
70.5804446507
 20
93.8148471705
  0
LWPOLYLINE
  5
3B9
330
1F
100
AcDbEntity
  8
0
  6
SLD-Durchgehend
 62
     7
370
    15
100
AcDbPolyline
 90
       11
 70
   128
 43
0.0
 10
70.5804446507
 20
93.8148471705
 10
70.7880886066
 20
93.8590235255
 10
70.9694273565
 20
93.9245681457
 10
71.0164041985
 20
93.9511555425
 10
71.0389915649
 20
93.9689102761
 10
71.0509879309
 20
93.982967659
 10
71.0558168385
 20
93.9935977749
 10
71.0559909958
 20
94.0040229998
 10
71.0521744359
 20
94.0118293456
 10
71.0406875033
 20
94.0213605008
 10
71.038226949
 20
94.0226941548
  0
LINE
  5
3BA
330
1F
100
AcDbEntity
  8
0
  6
SLD-Durchgehend
 62
     7
370
    15
100
AcDbLine
 10
71.038226949
 20
94.0226941548
 30
0.0
 11
70.030507518
 21
94.5249880842
 31
0.0
  0
ARC
  5
3BB
330
1F
100
AcDbEntity
  8
0
  6
SLD-Durchgehend
 62
     7
370
    15
100
AcDbCircle
 10
62.6368386466
 20
111.9187708191
 30
0.0
 40
18.9
100
AcDbArc
 50
293.029151051
 51
295.1644730771
  0
LINE
  5
3BC
330
1F
100
AcDbEntity
  8
0
  6
SLD-Durchgehend
 62
     7
370
    15
100
AcDbLine
 10
70.6734623555
 20
94.8125525556
 30
0.0
 11
73.3682246674
 21
95.3148483477
 31
0.0
  0
LWPOLYLINE
  5
3BD
330
1F
100
AcDbEntity
  8
0
  6
SLD-Durchgehend
 62
     7
370
    15
100
AcDbPolyline
 90
       10
 70
   128
 43
0.0
 10
73.3682246674
 20
95.3148483477
 10
73.5752483625
 20
95.3845038257
 10
73.6501183156
 20
95.428773313
 10
73.6726097557
 20
95.4475208364
 10
73.6912641469
 20
95.469222515
 10
73.6986346338
 20
95.4840379945
 10
73.7003622371
 20
95.4987584792
 10
73.6965438146
 20
95.5098803333
 10
73.6847635153
 20
95.5216727398
 10
73.6831756104
 20
95.5226934693
  0
LINE
  5
3BE
330
1F
100
AcDbEntity
  8
0
  6
SLD-Durchgehend
 62
     7
370
    15
100
AcDbLine
 10
73.6831756104
 20
95.5226934693
 30
0.0
 11
72.8641398046
 21
96.0249892614
 31
0.0
  0
ARC
  5
3BF
330
1F
100
AcDbEntity
  8
0
  6
SLD-Durchgehend
 62
     7
370
    15
100
AcDbCircle
 10
62.6368386466
 20
111.9187708191
 30
0.0
 40
18.89999999999998
100
AcDbArc
 50
302.7603943329
 51
304.3378536913
  0
LINE
  5
3C0
330
1F
100
AcDbEntity
  8
0
  6
SLD-Durchgehend
 62
     7
370
    15
100
AcDbLine
 10
73.297794329
 20
96.3125528015
 30
0.0
 11
75.3931863028
 21
96.8148476622
 31
0.0
  0
LWPOLYLINE
  5
3C1
330
1F
100
AcDbEntity
  8
0
  6
SLD-Durchgehend
 62
     7
370
    15
100
AcDbPolyline
 90
        9
 70
   128
 43
0.0
 10
75.3931863028
 20
96.8148476622
 10
75.546133684
 20
96.8764090157
 10
75.6213649902
 20
96.9320518143
 10
75.6422228906
 20
96.9578298918
 10
75.651136579
 20
96.9766472645
 10
75.6532255355
 20
96.9952718533
 10
75.6488334182
 20
97.0087145633
 10
75.6356617231
 20
97.0224431894
 10
75.635291988
 20
97.0226937152
  0
LINE
  5
3C2
330
1F
100
AcDbEntity
  8
0
  6
SLD-Durchgehend
 62
     7
370
    15
100
AcDbLine
 10
75.635291988
 20
97.0226937152
 30
0.0
 11
74.8854730073
 21
97.524988576
 31
0.0
  0
ARC
  5
3C3
330
1F
100
AcDbEntity
  8
0
  6
SLD-Durchgehend
 62
     7
370
    15
100
AcDbCircle
 10
62.6368386466
 20
111.9187708191
 30
0.0
 40
18.89999999999998
100
AcDbArc
 50
310.3966873225
 51
311.7238912277
  0
LINE
  5
3C4
330
1F
100
AcDbEntity
  8
0
  6
SLD-Durchgehend
 62
     7
370
    15
100
AcDbLine
 10
75.2155756373
 20
97.8125530473
 30
0.0
 11
76.9820878077
 21
98.3148479081
 31
0.0
  0
LWPOLYLINE
  5
3C5
330
1F
100
AcDbEntity
  8
0
  6
SLD-Durchgehend
 62
     7
370
    15
100
AcDbPolyline
 90
        9
 70
   128
 43
0.0
 10
76.9820878077
 20
98.3148479081
 10
77.0740382168
 20
98.3532286427
 10
77.1285820547
 20
98.3886030681
 10
77.176399881
 20
98.4362057588
 10
77.1893536467
 20
98.4580452732
 10
77.1958747674
 20
98.4809837482
 10
77.1941024605
 20
98.4996223069
 10
77.1867254544
 20
98.5132019214
 10
77.1763719413
 20
98.5226939611
  0
LINE
  5
3C6
330
1F
100
AcDbEntity
  8
0
  6
SLD-Durchgehend
 62
     7
370
    15
100
AcDbLine
 10
77.1763719413
 20
98.5226939611
 30
0.0
 11
76.4556800741
 21
99.0249888218
 31
0.0
  0
LINE
  5
3C7
330
1F
100
AcDbEntity
  8
0
  6
SLD-Durchgehend
 62
     7
370
    15
100
AcDbLine
 10
76.71850303
 20
99.3125532932
 30
0.0
 11
78.268471526
 21
99.814848154
 31
0.0
  0
LWPOLYLINE
  5
3C8
330
1F
100
AcDbEntity
  8
0
  6
SLD-Durchgehend
 62
     7
370
    15
100
AcDbPolyline
 90
        9
 70
   128
 43
0.0
 10
78.268471526
 20
99.814848154
 10
78.3581243623
 20
99.8590030886
 10
78.400333764
 20
99.8926666744
 10
78.4309109468
 20
99.9287945397
 10
78.4438395668
 20
99.9538145206
 10
78.4489320386
 20
99.9756242327
 10
78.4470861573
 20
99.9956485994
 10
78.4393990207
 20
100.0110163532
 10
78.4272229094
 20
100.0226942069
  0
LINE
  5
3C9
330
1F
100
AcDbEntity
  8
0
  6
SLD-Durchgehend
 62
     7
370
    15
100
AcDbLine
 10
78.4272229094
 20
100.0226942069
 30
0.0
 11
77.7163518388
 21
100.5249881364
 31
0.0
  0
ARC
  5
3CA
330
1F
100
AcDbEntity
  8
0
  6
SLD-Durchgehend
 62
     7
370
    15
100
AcDbCircle
 10
62.6368386466
 20
111.9187708191
 30
0.0
 40
18.89999999999999
100
AcDbArc
 50
322.9260268275
 51
324.0109540318
  0
LINE
  5
3CB
330
1F
100
AcDbEntity
  8
0
  6
SLD-Durchgehend
 62
     7
370
    15
100
AcDbLine
 10
77.9293834958
 20
100.8125526077
 30
0.0
 11
79.3224530089
 21
101.3148474685
 31
0.0
  0
LWPOLYLINE
  5
3CC
330
1F
100
AcDbEntity
  8
0
  6
SLD-Durchgehend
 62
     7
370
    15
100
AcDbPolyline
 90
        9
 70
   128
 43
0.0
 10
79.3224530089
 20
101.3148474685
 10
79.4005388189
 20
101.3575011111
 10
79.4381474871
 20
101.3916005559
 10
79.4628629256
 20
101.4256301514
 10
79.4739549774
 20
101.4518887914
 10
79.477222057
 20
101.4784920208
 10
79.4727200437
 20
101.4983962468
 10
79.459249394
 20
101.5174343429
 10
79.4527375865
 20
101.5226935215
  0
LINE
  5
3CD
330
1F
100
AcDbEntity
  8
0
  6
SLD-Durchgehend
 62
     7
370
    15
100
AcDbLine
 10
79.4527375865
 20
101.5226935215
 30
0.0
 11
78.7403503228
 21
102.0249883823
 31
0.0
  0
ARC
  5
3CE
330
1F
100
AcDbEntity
  8
0
  6
SLD-Durchgehend
 62
     7
370
    15
100
AcDbCircle
 10
62.6368386466
 20
111.9187708191
 30
0.0
 40
18.89999999999999
100
AcDbArc
 50
328.4339897924
 51
329.4516361064
  0
LINE
  5
3CF
330
1F
100
AcDbEntity
  8
0
  6
SLD-Durchgehend
 62
     7
370
    15
100
AcDbLine
 10
78.9135260302
 20
102.3125528536
 30
0.0
 11
80.185954811
 21
102.8148477144
 31
0.0
  0
LWPOLYLINE
  5
3D0
330
1F
100
AcDbEntity
  8
0
  6
SLD-Durchgehend
 62
     7
370
    15
100
AcDbPolyline
 90
        9
 70
   128
 43
0.0
 10
80.185954811
 20
102.8148477144
 10
80.2520526368
 20
102.8537555776
 10
80.2866680342
 20
102.8880524627
 10
80.3080176729
 20
102.9211367659
 10
80.3177220542
 20
102.9483537368
 10
80.3196349907
 20
102.9756070293
 10
80.3142389077
 20
102.996434196
 10
80.2993507851
 20
103.0170043177
 10
80.2922261674
 20
103.0226937673
  0
LINE
  5
3D1
330
1F
100
AcDbEntity
  8
0
  6
SLD-Durchgehend
 62
     7
370
    15
100
AcDbLine
 10
80.2922261674
 20
103.0226937673
 30
0.0
 11
79.5706635136
 21
103.5249886281
 31
0.0
  0
ARC
  5
3D2
330
1F
100
AcDbEntity
  8
0
  6
SLD-Durchgehend
 62
     7
370
    15
100
AcDbCircle
 10
62.6368386466
 20
111.9187708191
 30
0.0
 40
18.89999999999998
100
AcDbArc
 50
333.6332398891
 51
334.6022022657
  0
LINE
  5
3D3
330
1F
100
AcDbEntity
  8
0
  6
SLD-Durchgehend
 62
     7
370
    15
100
AcDbLine
 10
79.7101868111
 20
103.8125530995
 30
0.0
 11
80.8860374409
 21
104.3148479603
 31
0.0
  0
LWPOLYLINE
  5
3D4
330
1F
100
AcDbEntity
  8
0
  6
SLD-Durchgehend
 62
     7
370
    15
100
AcDbPolyline
 90
        9
 70
   128
 43
0.0
 10
80.8860374409
 20
104.3148479603
 10
80.942874195
 20
104.3506321676
 10
80.974326821
 20
104.3844256728
 10
80.9930352289
 20
104.4168813332
 10
81.0013426263
 20
104.4447399854
 10
81.0019945521
 20
104.472393281
 10
80.9957323391
 20
104.4941215023
 10
80.9794751722
 20
104.5162036262
 10
80.9712590445
 20
104.5226940132
  0
LINE
  5
3D5
330
1F
100
AcDbEntity
  8
0
  6
SLD-Durchgehend
 62
     7
370
    15
100
AcDbLine
 10
80.9712590445
 20
104.5226940132
 30
0.0
 11
80.2347300369
 21
105.0249884083
 31
0.0
  0
ARC
  5
3D6
330
1F
100
AcDbEntity
  8
0
  6
SLD-Durchgehend
 62
     7
370
    15
100
AcDbCircle
 10
62.6368386466
 20
111.9187708191
 30
0.0
 40
18.89999999999997
100
AcDbArc
 50
338.6077784115
 51
339.5411033901
  0
LINE
  5
3D7
330
1F
100
AcDbEntity
  8
0
  6
SLD-Durchgehend
 62
     7
370
    15
100
AcDbLine
 10
80.344687568
 20
105.3125528797
 30
0.0
 11
81.4409604091
 21
105.8148477405
 31
0.0
  0
LWPOLYLINE
  5
3D8
330
1F
100
AcDbEntity
  8
0
  6
SLD-Durchgehend
 62
     7
370
    15
100
AcDbPolyline
 90
        9
 70
   128
 43
0.0
 10
81.4409604091
 20
105.8148477405
 10
81.4903950114
 20
105.8479311123
 10
81.518820839
 20
105.8808780454
 10
81.5352717209
 20
105.9127632707
 10
81.5422100741
 20
105.9410591788
 10
81.5416661817
 20
105.9689657941
 10
81.5345229376
 20
105.9915443129
 10
81.5168631989
 20
106.0151337824
 10
81.5071644056
 20
106.0226937934
  0
LINE
  5
3D9
330
1F
100
AcDbEntity
  8
0
  6
SLD-Durchgehend
 62
     7
370
    15
100
AcDbLine
 10
81.5071644056
 20
106.0226937934
 30
0.0
 11
80.7508410681
 21
106.5249886542
 31
0.0
  0
ARC
  5
3DA
330
1F
100
AcDbEntity
  8
0
  6
SLD-Durchgehend
 62
     7
370
    15
100
AcDbCircle
 10
62.6368386466
 20
111.9187708191
 30
0.0
 40
18.89999999999998
100
AcDbArc
 50
343.4181186606
 51
344.3256018524
  0
LINE
  5
3DB
330
1F
100
AcDbEntity
  8
0
  6
SLD-Durchgehend
 62
     7
370
    15
100
AcDbLine
 10
80.8339969981
 20
106.8125531256
 30
0.0
 11
81.8633002955
 21
107.3148479863
 31
0.0
  0
LWPOLYLINE
  5
3DC
330
1F
100
AcDbEntity
  8
0
  6
SLD-Durchgehend
 62
     7
370
    15
100
AcDbPolyline
 90
        9
 70
   128
 43
0.0
 10
81.8633002955
 20
107.3148479863
 10
81.8981373477
 20
107.3377948433
 10
81.9277217407
 20
107.370421867
 10
81.9444333929
 20
107.4021557524
 10
81.9517312366
 20
107.4312144137
 10
81.9514909554
 20
107.4604993864
 10
81.9445451516
 20
107.4845917701
 10
81.9274106789
 20
107.509994059
 10
81.9118855316
 20
107.5226940393
  0
LINE
  5
3DD
330
1F
100
AcDbEntity
  8
0
  6
SLD-Durchgehend
 62
     7
370
    15
100
AcDbLine
 10
81.9118855316
 20
107.5226940393
 30
0.0
 11
81.1313906479
 21
108.0249886672
 31
0.0
  0
ARC
  5
3DE
330
1F
100
AcDbEntity
  8
0
  6
SLD-Durchgehend
 62
     7
370
    15
100
AcDbCircle
 10
62.6368386466
 20
111.9187708191
 30
0.0
 40
18.89999999999998
100
AcDbArc
 50
348.1107715436
 51
349.000223065
  0
LINE
  5
3DF
330
1F
100
AcDbEntity
  8
0
  6
SLD-Durchgehend
 62
     7
370
    15
100
AcDbLine
 10
81.1896057594
 20
108.3125531386
 30
0.0
 11
82.1616569329
 21
108.8148477666
 31
0.0
  0
LWPOLYLINE
  5
3E0
330
1F
100
AcDbEntity
  8
0
  6
SLD-Durchgehend
 62
     7
370
    15
100
AcDbPolyline
 90
        9
 70
   128
 43
0.0
 10
82.1616569329
 20
108.8148477666
 10
82.1954024751
 20
108.8389129091
 10
82.2205910254
 20
108.8700062774
 10
82.2344844956
 20
108.9008507497
 10
82.2397650946
 20
108.9297669187
 10
82.2377925534
 20
108.958495659
 10
82.2294944692
 20
108.9829594075
 10
82.2100708056
 20
109.0097745127
 10
82.1935677696
 20
109.0226938195
  0
LINE
  5
3E1
330
1F
100
AcDbEntity
  8
0
  6
SLD-Durchgehend
 62
     7
370
    15
100
AcDbLine
 10
82.1935677696
 20
109.0226938195
 30
0.0
 11
81.3846340198
 21
109.5249886803
 31
0.0
  0
ARC
  5
3E2
330
1F
100
AcDbEntity
  8
0
  6
SLD-Durchgehend
 62
     7
370
    15
100
AcDbCircle
 10
62.6368386466
 20
111.9187708191
 30
0.0
 40
18.89999999999998
100
AcDbArc
 50
352.723651697
 51
353.6016626482
  0
LINE
  5
3E3
330
1F
100
AcDbEntity
  8
0
  6
SLD-Durchgehend
 62
     7
370
    15
100
AcDbLine
 10
81.4191134441
 20
109.8125531516
 30
0.0
 11
82.341668548
 21
110.3148477796
 31
0.0
  0
ARC
  5
3E4
330
1F
100
AcDbEntity
  8
0
  6
SLD-Durchgehend
 62
     7
370
    15
100
AcDbCircle
 10
82.2906750548
 20
110.4232528123
 30
0.0
 40
0.1197997807799025
100
AcDbArc
 50
295.1921919634
 51
56.1049141144
  0
LINE
  5
3E5
330
1F
100
AcDbEntity
  8
0
  6
SLD-Durchgehend
 62
     7
370
    15
100
AcDbLine
 10
82.357484268
 20
110.5226938325
 30
0.0
 11
81.5156934578
 21
111.0249885769
 31
0.0
  0
ARC
  5
3E6
330
1F
100
AcDbEntity
  8
0
  6
SLD-Durchgehend
 62
     7
370
    15
100
AcDbCircle
 10
62.6368386466
 20
111.9187708191
 30
0.0
 40
18.89999999999998
100
AcDbArc
 50
357.2894679724
 51
358.1619217522
  0
LINE
  5
3E7
330
1F
100
AcDbEntity
  8
0
  6
SLD-Durchgehend
 62
     7
370
    15
100
AcDbLine
 10
81.5271133352
 20
111.3125530483
 30
0.0
 11
82.4065649677
 21
111.8148477708
 31
0.0
  0
ARC
  5
3E8
330
1F
100
AcDbEntity
  8
0
  6
SLD-Durchgehend
 62
     7
370
    15
100
AcDbCircle
 10
82.3470402511
 20
111.9187708191
 30
0.0
 40
0.1197630654656289
100
AcDbArc
 50
299.8030827258
 51
60.1969172742
  0
LINE
  5
3E9
330
1F
100
AcDbEntity
  8
0
  6
SLD-Durchgehend
 62
     7
370
    15
100
AcDbLine
 10
82.4065649677
 20
112.0226938674
 30
0.0
 11
81.5271133352
 21
112.5249885899
 31
0.0
  0
ARC
  5
3EA
330
1F
100
AcDbEntity
  8
0
  6
SLD-Durchgehend
 62
     7
370
    15
100
AcDbCircle
 10
62.6368386466
 20
111.9187708191
 30
0.0
 40
18.89999999999999
100
AcDbArc
 50
1.8380782478
 51
2.7105320276
  0
LINE
  5
3EB
330
1F
100
AcDbEntity
  8
0
  6
SLD-Durchgehend
 62
     7
370
    15
100
AcDbLine
 10
63.1215999629
 20
93.0249887697
 30
0.0
 11
62.1520773303
 21
93.0249887697
 31
0.0
  0
LINE
  5
3EC
330
1F
100
AcDbEntity
  8
0
  6
SLD-Durchgehend
 62
     7
370
    15
100
AcDbLine
 10
63.1215999629
 20
130.8125528685
 30
0.0
 11
62.1520773303
 21
130.8125528685
 31
0.0
  0
LINE
  5
3ED
330
1F
100
AcDbEntity
  8
0
  6
SLD-Durchgehend
 62
     7
370
    15
100
AcDbLine
 10
68.5320555959
 20
99.0249888218
 30
0.0
 11
56.7416216973
 21
99.0249888218
 31
0.0
  0
LINE
  5
3EE
330
1F
100
AcDbEntity
  8
0
  6
SLD-Durchgehend
 62
     7
370
    15
100
AcDbLine
 10
68.5320555959
 20
124.8125528164
 30
0.0
 11
56.7416216973
 21
124.8125528164
 31
0.0
  0
LINE
  5
3EF
330
1F
100
AcDbEntity
  8
0
  6
SLD-Durchgehend
 62
     7
370
    15
100
AcDbLine
 10
68.7741100583
 20
118.5249887585
 30
0.0
 11
64.9515496362
 21
118.5249887585
 31
0.0
  0
LINE
  5
3F0
330
1F
100
AcDbEntity
  8
0
  6
SLD-Durchgehend
 62
     7
370
    15
100
AcDbLine
 10
80.344687568
 20
118.5249887585
 30
0.0
 11
76.2985566426
 21
118.5249887585
 31
0.0
  0
LWPOLYLINE
  5
3F1
330
1F
100
AcDbEntity
  8
0
  6
SLD-Durchgehend
 62
     7
370
    15
100
AcDbPolyline
 90
        3
 70
   128
 43
0.0
 10
64.9515496362
 20
118.5249887585
 10
63.6896434035
 20
118.1085073567
 10
63.2016602349
 20
118.0226938977
  0
LINE
  5
3F2
330
1F
100
AcDbEntity
  8
0
  6
SLD-Durchgehend
 62
     7
370
    15
100
AcDbLine
 10
80.344687568
 20
105.3125528797
 30
0.0
 11
76.2985566426
 21
105.3125528797
 31
0.0
  0
LINE
  5
3F3
330
1F
100
AcDbEntity
  8
0
  6
SLD-Durchgehend
 62
     7
370
    15
100
AcDbLine
 10
68.7741100583
 20
105.3125528797
 30
0.0
 11
64.9515496362
 21
105.3125528797
 31
0.0
  0
ARC
  5
3F4
330
1F
100
AcDbEntity
  8
0
  6
SLD-Durchgehend
 62
     7
370
    15
100
AcDbCircle
 10
62.1966307537
 20
99.0142665964
 30
0.0
 40
6.874444570629105
100
AcDbArc
 50
66.375061473
 51
81.5933459011
  0
LINE
  5
3F5
330
1F
100
AcDbEntity
  8
0
  6
SLD-Durchgehend
 62
     7
370
    15
100
AcDbLine
 10
48.9751206506
 20
118.5249887585
 30
0.0
 11
44.9289897252
 21
118.5249887585
 31
0.0
  0
LINE
  5
3F6
330
1F
100
AcDbEntity
  8
0
  6
SLD-Durchgehend
 62
     7
370
    15
100
AcDbLine
 10
60.322127657
 20
118.5249887585
 30
0.0
 11
56.4995672349
 21
118.5249887585
 31
0.0
  0
ARC
  5
3F7
330
1F
100
AcDbEntity
  8
0
  6
SLD-Durchgehend
 62
     7
370
    15
100
AcDbCircle
 10
63.0770465394
 20
124.8232750418
 30
0.0
 40
6.874444570629076
100
AcDbArc
 50
246.375061473
 51
261.5933459011
  0
LINE
  5
3F8
330
1F
100
AcDbEntity
  8
0
  6
SLD-Durchgehend
 62
     7
370
    15
100
AcDbLine
 10
60.322127657
 20
105.3125528797
 30
0.0
 11
56.4995672349
 21
105.3125528797
 31
0.0
  0
LINE
  5
3F9
330
1F
100
AcDbEntity
  8
0
  6
SLD-Durchgehend
 62
     7
370
    15
100
AcDbLine
 10
48.9751206506
 20
105.3125528797
 30
0.0
 11
44.9289897252
 21
105.3125528797
 31
0.0
  0
LWPOLYLINE
  5
3FA
330
1F
100
AcDbEntity
  8
0
  6
SLD-Durchgehend
 62
     7
370
    15
100
AcDbPolyline
 90
        3
 70
   128
 43
0.0
 10
60.322127657
 20
105.3125528797
 10
61.5840338897
 20
105.7290342815
 10
62.0720170582
 20
105.8148477405
  0
CIRCLE
  5
3FB
330
1F
100
AcDbEntity
  8
0
  6
SLD-Durchgehend
 62
     7
370
    15
100
AcDbCircle
 10
62.6368386466
 20
111.9187708191
 30
0.0
 40
5.999999999999993
  0
LINE
  5
3FC
330
1F
100
AcDbEntity
  8
0
  6
SLD-Durchgehend
 62
     7
370
    15
100
AcDbLine
 10
55.6941333953
 20
112.8125530613
 30
0.0
 11
56.6679303329
 21
113.3148478057
 31
0.0
  0
LWPOLYLINE
  5
3FD
330
1F
100
AcDbEntity
  8
0
  6
SLD-Durchgehend
 62
     7
370
    15
100
AcDbPolyline
 90
        9
 70
   128
 43
0.0
 10
56.6679303329
 20
113.3148478057
 10
56.702748293
 20
113.3378315662
 10
56.7330111544
 20
113.3711538223
 10
56.7501810174
 20
113.4034087827
 10
56.7578425426
 20
113.4328085409
 10
56.7579035442
 20
113.4624023634
 10
56.7511332948
 20
113.4864506257
 10
56.7343685571
 20
113.5112404536
 10
56.7203926649
 20
113.5226938586
  0
LINE
  5
3FE
330
1F
100
AcDbEntity
  8
0
  6
SLD-Durchgehend
 62
     7
370
    15
100
AcDbLine
 10
56.7203926649
 20
113.5226938586
 30
0.0
 11
55.9612227399
 21
114.0249884866
 31
0.0
  0
ARC
  5
3FF
330
1F
100
AcDbEntity
  8
0
  6
SLD-Durchgehend
 62
     7
370
    15
100
AcDbCircle
 10
62.6368386466
 20
111.9187708191
 30
0.0
 40
6.999999999999999
100
AcDbArc
 50
160.0031251428
 51
162.4890384396
  0
LINE
  5
400
330
1F
100
AcDbEntity
  8
0
  6
SLD-Durchgehend
 62
     7
370
    15
100
AcDbLine
 10
56.0588598046
 20
114.3125529579
 30
0.0
 11
57.2340948302
 21
114.8148478187
 31
0.0
  0
LWPOLYLINE
  5
401
330
1F
100
AcDbEntity
  8
0
  6
SLD-Durchgehend
 62
     7
370
    15
100
AcDbPolyline
 90
        9
 70
   128
 43
0.0
 10
57.2340948302
 20
114.8148478187
 10
57.3026355151
 20
114.8544695407
 10
57.3399671148
 20
114.890263294
 10
57.3627812583
 20
114.9238542366
 10
57.3733610827
 20
114.9509391926
 10
57.37602094
 20
114.978156862
 10
57.3710192721
 20
114.9984426975
 10
57.3567975107
 20
115.0178987245
 10
57.3507662657
 20
115.0226938717
  0
LINE
  5
402
330
1F
100
AcDbEntity
  8
0
  6
SLD-Durchgehend
 62
     7
370
    15
100
AcDbLine
 10
57.3507662657
 20
115.0226938717
 30
0.0
 11
56.6372390631
 21
115.5249884996
 31
0.0
  0
ARC
  5
403
330
1F
100
AcDbEntity
  8
0
  6
SLD-Durchgehend
 62
     7
370
    15
100
AcDbCircle
 10
62.6368386466
 20
111.9187708191
 30
0.0
 40
7.000000000000005
100
AcDbArc
 50
146.2028277715
 51
148.9909159789
  0
LINE
  5
404
330
1F
100
AcDbEntity
  8
0
  6
SLD-Durchgehend
 62
     7
370
    15
100
AcDbLine
 10
56.8197550047
 20
115.812552971
 30
0.0
 11
58.364672007
 21
116.3148475989
 31
0.0
  0
LWPOLYLINE
  5
405
330
1F
100
AcDbEntity
  8
0
  6
SLD-Durchgehend
 62
     7
370
    15
100
AcDbPolyline
 90
        9
 70
   128
 43
0.0
 10
58.364672007
 20
116.3148475989
 10
58.4943079185
 20
116.3697728134
 10
58.5576997865
 20
116.4139570847
 10
58.5840739105
 20
116.440213862
 10
58.6007608827
 20
116.4648277863
 10
58.6069709416
 20
116.4826309487
 10
58.6067483555
 20
116.4994399242
 10
58.6009457502
 20
116.5119536399
 10
58.5895193536
 20
116.5226936519
  0
LINE
  5
406
330
1F
100
AcDbEntity
  8
0
  6
SLD-Durchgehend
 62
     7
370
    15
100
AcDbLine
 10
58.5895193536
 20
116.5226936519
 30
0.0
 11
57.8486718032
 21
117.0249885126
 31
0.0
  0
ARC
  5
407
330
1F
100
AcDbEntity
  8
0
  6
SLD-Durchgehend
 62
     7
370
    15
100
AcDbCircle
 10
62.6368386466
 20
111.9187708191
 30
0.0
 40
7.000000000000006
100
AcDbArc
 50
129.5975663528
 51
133.1588834979
  0
LWPOLYLINE
  5
408
330
1F
100
AcDbEntity
  8
0
  6
SLD-Durchgehend
 62
     7
370
    15
100
AcDbPolyline
 90
        3
 70
   128
 43
0.0
 10
58.1750999
 20
117.312552984
 10
59.5214659143
 20
117.6087321892
 10
60.9595859451
 20
117.8148478448
  0
LWPOLYLINE
  5
409
330
1F
100
AcDbEntity
  8
0
  6
SLD-Durchgehend
 62
     7
370
    15
100
AcDbPolyline
 90
       16
 70
   128
 43
0.0
 10
60.9595859451
 20
117.8148478448
 10
61.1615697881
 20
117.8385066978
 10
62.0423461105
 20
117.972199916
 10
62.0799392955
 20
117.9800928749
 10
62.1020268909
 20
117.9855229511
 10
62.1161701884
 20
117.989664077
 10
62.1254313765
 20
117.9929688751
 10
62.1337030926
 20
117.9969046443
 10
62.136897529
 20
117.9991523913
 10
62.1388616301
 20
118.0014182992
 10
62.1394441142
 20
118.0031491622
 10
62.1391697232
 20
118.0048907354
 10
62.1378211681
 20
118.0067910991
 10
62.134096751
 20
118.0093764506
 10
62.118736797
 20
118.01470315
 10
62.0720170582
 20
118.0226938977
  0
ARC
  5
40A
330
1F
100
AcDbEntity
  8
0
  6
SLD-Durchgehend
 62
     7
370
    15
100
AcDbCircle
 10
62.6368386466
 20
111.9187708191
 30
0.0
 40
7.000000000000012
100
AcDbArc
 50
99.9939673009
 51
109.3096281731
  0
LINE
  5
40B
330
1F
100
AcDbEntity
  8
0
  6
SLD-Durchgehend
 62
     7
370
    15
100
AcDbLine
 10
61.422027301
 20
118.8125532299
 30
0.0
 11
63.8516499921
 21
118.8125532299
 31
0.0
  0
ARC
  5
40C
330
1F
100
AcDbEntity
  8
0
  6
SLD-Durchgehend
 62
     7
370
    15
100
AcDbCircle
 10
62.6368386466
 20
111.9187708191
 30
0.0
 40
7.000000000000015
100
AcDbArc
 50
70.6903718269
 51
80.0060326991
  0
LWPOLYLINE
  5
40D
330
1F
100
AcDbEntity
  8
0
  6
SLD-Durchgehend
 62
     7
370
    15
100
AcDbPolyline
 90
       16
 70
   128
 43
0.0
 10
63.2016602349
 20
118.0226938977
 10
63.1938484176
 20
118.0216773591
 10
63.171671357
 20
118.0182370535
 10
63.1575140897
 20
118.0153331898
 10
63.1482515046
 20
118.0128223441
 10
63.1399716395
 20
118.0095804102
 10
63.13678477
 20
118.0076036781
 10
63.1348172929
 20
118.0054998204
 10
63.1342335283
 20
118.0038169205
 10
63.1345058819
 20
118.0020539268
 10
63.1358529818
 20
118.0000413387
 10
63.1395792616
 20
117.9971430629
 10
63.154968203
 20
117.9905045956
 10
63.2345461664
 20
117.971571739
 10
63.5582218556
 20
117.9184341981
 10
64.3140913481
 20
117.8148478448
  0
LWPOLYLINE
  5
40E
330
1F
100
AcDbEntity
  8
0
  6
SLD-Durchgehend
 62
     7
370
    15
100
AcDbPolyline
 90
        3
 70
   128
 43
0.0
 10
64.3140913481
 20
117.8148478448
 10
65.7265418004
 20
117.6134386278
 10
67.0985773932
 20
117.312552984
  0
ARC
  5
40F
330
1F
100
AcDbEntity
  8
0
  6
SLD-Durchgehend
 62
     7
370
    15
100
AcDbCircle
 10
62.6368386466
 20
111.9187708191
 30
0.0
 40
7.000000000000019
100
AcDbArc
 50
46.8411165021
 51
50.4024336472
  0
LINE
  5
410
330
1F
100
AcDbEntity
  8
0
  6
SLD-Durchgehend
 62
     7
370
    15
100
AcDbLine
 10
67.4250054899
 20
117.0249885126
 30
0.0
 11
66.6841579396
 21
116.5226936519
 31
0.0
  0
LWPOLYLINE
  5
411
330
1F
100
AcDbEntity
  8
0
  6
SLD-Durchgehend
 62
     7
370
    15
100
AcDbPolyline
 90
        9
 70
   128
 43
0.0
 10
66.6841579396
 20
116.5226936519
 10
66.6754063014
 20
116.5152300327
 10
66.666869333
 20
116.4991847418
 10
66.6664846968
 20
116.4839413195
 10
66.6715515572
 20
116.4676846183
 10
66.686258072
 20
116.4443065591
 10
66.7206178214
 20
116.4100413389
 10
66.7990458924
 20
116.3589447915
 10
66.9090052861
 20
116.3148475989
  0
LINE
  5
412
330
1F
100
AcDbEntity
  8
0
  6
SLD-Durchgehend
 62
     7
370
    15
100
AcDbLine
 10
66.9090052861
 20
116.3148475989
 30
0.0
 11
68.4539222885
 21
115.812552971
 31
0.0
  0
ARC
  5
413
330
1F
100
AcDbEntity
  8
0
  6
SLD-Durchgehend
 62
     7
370
    15
100
AcDbCircle
 10
62.6368386466
 20
111.9187708191
 30
0.0
 40
7.000000000000019
100
AcDbArc
 50
31.0090840211
 51
33.7971722285
  0
LINE
  5
414
330
1F
100
AcDbEntity
  8
0
  6
SLD-Durchgehend
 62
     7
370
    15
100
AcDbLine
 10
68.63643823
 20
115.5249884996
 30
0.0
 11
67.9229110274
 21
115.0226938717
 31
0.0
  0
LWPOLYLINE
  5
415
330
1F
100
AcDbEntity
  8
0
  6
SLD-Durchgehend
 62
     7
370
    15
100
AcDbPolyline
 90
        9
 70
   128
 43
0.0
 10
67.9229110274
 20
115.0226938717
 10
67.9091623779
 20
115.0095044814
 10
67.899548335
 20
114.9895413491
 10
67.8978896495
 20
114.9642994806
 10
67.9034468513
 20
114.9407570429
 10
67.9187200758
 20
114.9104487795
 10
67.9501894656
 20
114.8726298652
 10
68.0078667383
 20
114.829989494
 10
68.039582463
 20
114.8148478187
  0
LINE
  5
416
330
1F
100
AcDbEntity
  8
0
  6
SLD-Durchgehend
 62
     7
370
    15
100
AcDbLine
 10
68.039582463
 20
114.8148478187
 30
0.0
 11
69.2148174885
 21
114.3125529579
 31
0.0
  0
ARC
  5
417
330
1F
100
AcDbEntity
  8
0
  6
SLD-Durchgehend
 62
     7
370
    15
100
AcDbCircle
 10
62.6368386466
 20
111.9187708191
 30
0.0
 40
7.000000000000012
100
AcDbArc
 50
17.5109615604
 51
19.9968748572
  0
LINE
  5
418
330
1F
100
AcDbEntity
  8
0
  6
SLD-Durchgehend
 62
     7
370
    15
100
AcDbLine
 10
69.3124545533
 20
114.0249884866
 30
0.0
 11
68.5532846283
 21
113.5226938586
 31
0.0
  0
LWPOLYLINE
  5
419
330
1F
100
AcDbEntity
  8
0
  6
SLD-Durchgehend
 62
     7
370
    15
100
AcDbPolyline
 90
        9
 70
   128
 43
0.0
 10
68.5532846283
 20
113.5226938586
 10
68.5330721345
 20
113.504117815
 10
68.5198142919
 20
113.4794446352
 10
68.5147846844
 20
113.4481455611
 10
68.5183744672
 20
113.4195937721
 10
68.5280653443
 20
113.3928211584
 10
68.5502224397
 20
113.3586319575
 10
68.5895461384
 20
113.3240444997
 10
68.6057469602
 20
113.3148478057
  0
LINE
  5
41A
330
1F
100
AcDbEntity
  8
0
  6
SLD-Durchgehend
 62
     7
370
    15
100
AcDbLine
 10
68.6057469602
 20
113.3148478057
 30
0.0
 11
69.5795438979
 21
112.8125530613
 31
0.0
  0
ARC
  5
41B
330
1F
100
AcDbEntity
  8
0
  6
SLD-Durchgehend
 62
     7
370
    15
100
AcDbCircle
 10
62.6368386466
 20
111.9187708191
 30
0.0
 40
7.000000000000021
100
AcDbArc
 50
4.9681835361
 51
7.3357322291
  0
LINE
  5
41C
330
1F
100
AcDbEntity
  8
0
  6
SLD-Durchgehend
 62
     7
370
    15
100
AcDbLine
 10
69.6105392445
 20
112.5249885899
 30
0.0
 11
68.7659577261
 21
112.0226938674
 31
0.0
  0
ARC
  5
41D
330
1F
100
AcDbEntity
  8
0
  6
SLD-Durchgehend
 62
     7
370
    15
100
AcDbCircle
 10
68.8274974121
 20
111.9187708191
 30
0.0
 40
0.1207772036096465
100
AcDbArc
 50
120.6325710054
 51
239.3674289946
  0
LINE
  5
41E
330
1F
100
AcDbEntity
  8
0
  6
SLD-Durchgehend
 62
     7
370
    15
100
AcDbLine
 10
68.7659577261
 20
111.8148477708
 30
0.0
 11
69.6105392445
 21
111.3125530483
 31
0.0
  0
ARC
  5
41F
330
1F
100
AcDbEntity
  8
0
  6
SLD-Durchgehend
 62
     7
370
    15
100
AcDbCircle
 10
62.6368386466
 20
111.9187708191
 30
0.0
 40
7.000000000000023
100
AcDbArc
 50
352.6642677709
 51
355.0318164639
  0
LINE
  5
420
330
1F
100
AcDbEntity
  8
0
  6
SLD-Durchgehend
 62
     7
370
    15
100
AcDbLine
 10
69.5795438979
 20
111.0249885769
 30
0.0
 11
68.6057469602
 21
110.5226938325
 31
0.0
  0
LWPOLYLINE
  5
421
330
1F
100
AcDbEntity
  8
0
  6
SLD-Durchgehend
 62
     7
370
    15
100
AcDbPolyline
 90
        9
 70
   128
 43
0.0
 10
68.6057469602
 20
110.5226938325
 10
68.5709290001
 20
110.499710072
 10
68.5406661387
 20
110.4663878159
 10
68.5234962757
 20
110.4341328555
 10
68.5158347506
 20
110.4047330973
 10
68.515773749
 20
110.3751392748
 10
68.5225439984
 20
110.3510910125
 10
68.5393087361
 20
110.3263011846
 10
68.5532846283
 20
110.3148477796
  0
LINE
  5
422
330
1F
100
AcDbEntity
  8
0
  6
SLD-Durchgehend
 62
     7
370
    15
100
AcDbLine
 10
68.5532846283
 20
110.3148477796
 30
0.0
 11
69.3124545533
 21
109.8125531516
 31
0.0
  0
ARC
  5
423
330
1F
100
AcDbEntity
  8
0
  6
SLD-Durchgehend
 62
     7
370
    15
100
AcDbCircle
 10
62.6368386466
 20
111.9187708191
 30
0.0
 40
7.000000000000016
100
AcDbArc
 50
340.0031251428
 51
342.4890384396
  0
LINE
  5
424
330
1F
100
AcDbEntity
  8
0
  6
SLD-Durchgehend
 62
     7
370
    15
100
AcDbLine
 10
69.2148174885
 20
109.5249886803
 30
0.0
 11
68.039582463
 21
109.0226938195
 31
0.0
  0
LWPOLYLINE
  5
425
330
1F
100
AcDbEntity
  8
0
  6
SLD-Durchgehend
 62
     7
370
    15
100
AcDbPolyline
 90
        9
 70
   128
 43
0.0
 10
68.039582463
 20
109.0226938195
 10
67.9710417781
 20
108.9830720975
 10
67.9337101783
 20
108.9472783442
 10
67.9108960349
 20
108.9136874016
 10
67.9003162104
 20
108.8866024456
 10
67.8976563532
 20
108.8593847762
 10
67.9026580211
 20
108.8390989407
 10
67.9168797824
 20
108.8196429137
 10
67.9229110274
 20
108.8148477666
  0
LINE
  5
426
330
1F
100
AcDbEntity
  8
0
  6
SLD-Durchgehend
 62
     7
370
    15
100
AcDbLine
 10
67.9229110274
 20
108.8148477666
 30
0.0
 11
68.63643823
 21
108.3125531386
 31
0.0
  0
ARC
  5
427
330
1F
100
AcDbEntity
  8
0
  6
SLD-Durchgehend
 62
     7
370
    15
100
AcDbCircle
 10
62.6368386466
 20
111.9187708191
 30
0.0
 40
7.000000000000024
100
AcDbArc
 50
326.2028277715
 51
328.9909159789
  0
LINE
  5
428
330
1F
100
AcDbEntity
  8
0
  6
SLD-Durchgehend
 62
     7
370
    15
100
AcDbLine
 10
68.4539222885
 20
108.0249886672
 30
0.0
 11
66.9090052861
 21
107.5226940393
 31
0.0
  0
LWPOLYLINE
  5
429
330
1F
100
AcDbEntity
  8
0
  6
SLD-Durchgehend
 62
     7
370
    15
100
AcDbPolyline
 90
        9
 70
   128
 43
0.0
 10
66.9090052861
 20
107.5226940393
 10
66.7793693747
 20
107.4677688248
 10
66.7159775067
 20
107.4235845535
 10
66.6896033827
 20
107.3973277762
 10
66.6729164105
 20
107.3727138519
 10
66.6667063515
 20
107.3549106895
 10
66.6669289376
 20
107.338101714
 10
66.6727315429
 20
107.3255879983
 10
66.6841579396
 20
107.3148479863
  0
LINE
  5
42A
330
1F
100
AcDbEntity
  8
0
  6
SLD-Durchgehend
 62
     7
370
    15
100
AcDbLine
 10
66.6841579396
 20
107.3148479863
 30
0.0
 11
67.4250054899
 21
106.8125531256
 31
0.0
  0
ARC
  5
42B
330
1F
100
AcDbEntity
  8
0
  6
SLD-Durchgehend
 62
     7
370
    15
100
AcDbCircle
 10
62.6368386466
 20
111.9187708191
 30
0.0
 40
7.000000000000006
100
AcDbArc
 50
309.5975663528
 51
313.1588834979
  0
LWPOLYLINE
  5
42C
330
1F
100
AcDbEntity
  8
0
  6
SLD-Durchgehend
 62
     7
370
    15
100
AcDbPolyline
 90
        3
 70
   128
 43
0.0
 10
67.0985773932
 20
106.5249886542
 10
65.7522113789
 20
106.228809449
 10
64.3140913481
 20
106.0226937934
  0
LWPOLYLINE
  5
42D
330
1F
100
AcDbEntity
  8
0
  6
SLD-Durchgehend
 62
     7
370
    15
100
AcDbPolyline
 90
       16
 70
   128
 43
0.0
 10
64.3140913481
 20
106.0226937934
 10
64.1121075051
 20
105.9990349404
 10
63.2313311826
 20
105.8653417222
 10
63.1937379976
 20
105.8574487633
 10
63.1716504022
 20
105.8520186871
 10
63.1575071048
 20
105.8478775612
 10
63.1482459167
 20
105.8445727631
 10
63.1399742006
 20
105.8406369939
 10
63.1367797642
 20
105.8383892469
 10
63.1348156631
 20
105.836123339
 10
63.134233179
 20
105.834392476
 10
63.1345075699
 20
105.8326509028
 10
63.135856125
 20
105.8307505391
 10
63.1395805422
 20
105.8281651876
 10
63.1549404962
 20
105.8228384882
 10
63.2016602349
 20
105.8148477405
  0
ARC
  5
42E
330
1F
100
AcDbEntity
  8
0
  6
SLD-Durchgehend
 62
     7
370
    15
100
AcDbCircle
 10
62.6368386466
 20
111.9187708191
 30
0.0
 40
7.000000000005925
100
AcDbArc
 50
279.9939673009
 51
289.3096281732
  0
LINE
  5
42F
330
1F
100
AcDbEntity
  8
0
  6
SLD-Durchgehend
 62
     7
370
    15
100
AcDbLine
 10
63.8516499921
 20
105.0249884083
 30
0.0
 11
61.422027301
 21
105.0249884083
 31
0.0
  0
ARC
  5
430
330
1F
100
AcDbEntity
  8
0
  6
SLD-Durchgehend
 62
     7
370
    15
100
AcDbCircle
 10
62.6368386466
 20
111.9187708191
 30
0.0
 40
6.99999999999999
100
AcDbArc
 50
250.6903718269
 51
260.0060326991
  0
LWPOLYLINE
  5
431
330
1F
100
AcDbEntity
  8
0
  6
SLD-Durchgehend
 62
     7
370
    15
100
AcDbPolyline
 90
       16
 70
   128
 43
0.0
 10
62.0720170582
 20
105.8148477405
 10
62.0798288756
 20
105.8158642791
 10
62.1020059362
 20
105.8193045847
 10
62.1161632035
 20
105.8222084484
 10
62.1254257886
 20
105.8247192941
 10
62.1337056537
 20
105.827961228
 10
62.1368925231
 20
105.8299379602
 10
62.1388600003
 20
105.8320418178
 10
62.1394437649
 20
105.8337247177
 10
62.1391714113
 20
105.8354877114
 10
62.1378243114
 20
105.8375002995
 10
62.1340980315
 20
105.8403985753
 10
62.1187090901
 20
105.8470370426
 10
62.0391311268
 20
105.8659698992
 10
61.7154554375
 20
105.9191074401
 10
60.9595859451
 20
106.0226937934
  0
LWPOLYLINE
  5
432
330
1F
100
AcDbEntity
  8
0
  6
SLD-Durchgehend
 62
     7
370
    15
100
AcDbPolyline
 90
        3
 70
   128
 43
0.0
 10
60.9595859451
 20
106.0226937934
 10
59.5471354928
 20
106.2241030104
 10
58.1750999
 20
106.5249886542
  0
ARC
  5
433
330
1F
100
AcDbEntity
  8
0
  6
SLD-Durchgehend
 62
     7
370
    15
100
AcDbCircle
 10
62.6368386466
 20
111.9187708191
 30
0.0
 40
6.999999999999988
100
AcDbArc
 50
226.8411165021
 51
230.4024336472
  0
LINE
  5
434
330
1F
100
AcDbEntity
  8
0
  6
SLD-Durchgehend
 62
     7
370
    15
100
AcDbLine
 10
57.8486718032
 20
106.8125531256
 30
0.0
 11
58.5895193536
 21
107.3148479863
 31
0.0
  0
LWPOLYLINE
  5
435
330
1F
100
AcDbEntity
  8
0
  6
SLD-Durchgehend
 62
     7
370
    15
100
AcDbPolyline
 90
        9
 70
   128
 43
0.0
 10
58.5895193536
 20
107.3148479863
 10
58.5982709918
 20
107.3223116055
 10
58.6068079602
 20
107.3383568964
 10
58.6071925964
 20
107.3536003187
 10
58.6021257359
 20
107.3698570199
 10
58.5874192212
 20
107.3932350791
 10
58.5530594717
 20
107.4275002993
 10
58.4746314008
 20
107.4785968467
 10
58.364672007
 20
107.5226940393
  0
LINE
  5
436
330
1F
100
AcDbEntity
  8
0
  6
SLD-Durchgehend
 62
     7
370
    15
100
AcDbLine
 10
58.364672007
 20
107.5226940393
 30
0.0
 11
56.8197550047
 21
108.0249886672
 31
0.0
  0
ARC
  5
437
330
1F
100
AcDbEntity
  8
0
  6
SLD-Durchgehend
 62
     7
370
    15
100
AcDbCircle
 10
62.6368386466
 20
111.9187708191
 30
0.0
 40
7.0
100
AcDbArc
 50
211.0090840211
 51
213.7971722285
  0
LINE
  5
438
330
1F
100
AcDbEntity
  8
0
  6
SLD-Durchgehend
 62
     7
370
    15
100
AcDbLine
 10
56.6372390631
 20
108.3125531386
 30
0.0
 11
57.3507662657
 21
108.8148477666
 31
0.0
  0
LWPOLYLINE
  5
439
330
1F
100
AcDbEntity
  8
0
  6
SLD-Durchgehend
 62
     7
370
    15
100
AcDbPolyline
 90
        9
 70
   128
 43
0.0
 10
57.3507662657
 20
108.8148477666
 10
57.3645149152
 20
108.8280371569
 10
57.3741289582
 20
108.8480002891
 10
57.3757876437
 20
108.8732421576
 10
57.3702304419
 20
108.8967845953
 10
57.3549572173
 20
108.9270928587
 10
57.3234878275
 20
108.964911773
 10
57.2658105548
 20
109.0075521442
 10
57.2340948302
 20
109.0226938195
  0
LINE
  5
43A
330
1F
100
AcDbEntity
  8
0
  6
SLD-Durchgehend
 62
     7
370
    15
100
AcDbLine
 10
57.2340948302
 20
109.0226938195
 30
0.0
 11
56.0588598046
 21
109.5249886803
 31
0.0
  0
ARC
  5
43B
330
1F
100
AcDbEntity
  8
0
  6
SLD-Durchgehend
 62
     7
370
    15
100
AcDbCircle
 10
62.6368386466
 20
111.9187708191
 30
0.0
 40
6.999999999999996
100
AcDbArc
 50
197.5109615604
 51
199.9968748572
  0
LINE
  5
43C
330
1F
100
AcDbEntity
  8
0
  6
SLD-Durchgehend
 62
     7
370
    15
100
AcDbLine
 10
55.9612227399
 20
109.8125531516
 30
0.0
 11
56.7203926649
 21
110.3148477796
 31
0.0
  0
LWPOLYLINE
  5
43D
330
1F
100
AcDbEntity
  8
0
  6
SLD-Durchgehend
 62
     7
370
    15
100
AcDbPolyline
 90
        9
 70
   128
 43
0.0
 10
56.7203926649
 20
110.3148477796
 10
56.7406051587
 20
110.3334238232
 10
56.7538630012
 20
110.358097003
 10
56.7588926088
 20
110.3893960772
 10
56.7553028259
 20
110.4179478662
 10
56.7456119489
 20
110.4447204798
 10
56.7234548535
 20
110.4789096808
 10
56.6841311548
 20
110.5134971385
 10
56.6679303329
 20
110.5226938325
  0
LINE
  5
43E
330
1F
100
AcDbEntity
  8
0
  6
SLD-Durchgehend
 62
     7
370
    15
100
AcDbLine
 10
56.6679303329
 20
110.5226938325
 30
0.0
 11
55.6941333953
 21
111.0249885769
 31
0.0
  0
ARC
  5
43F
330
1F
100
AcDbEntity
  8
0
  6
SLD-Durchgehend
 62
     7
370
    15
100
AcDbCircle
 10
62.6368386466
 20
111.9187708191
 30
0.0
 40
6.999999999999999
100
AcDbArc
 50
184.9681835361
 51
187.3357322291
  0
LINE
  5
440
330
1F
100
AcDbEntity
  8
0
  6
SLD-Durchgehend
 62
     7
370
    15
100
AcDbLine
 10
55.6631380487
 20
111.3125530483
 30
0.0
 11
56.507719567
 21
111.8148477708
 31
0.0
  0
ARC
  5
441
330
1F
100
AcDbEntity
  8
0
  6
SLD-Durchgehend
 62
     7
370
    15
100
AcDbCircle
 10
56.4461798811
 20
111.9187708191
 30
0.0
 40
0.1207772036096392
100
AcDbArc
 50
300.6325710054
 51
59.3674289946
  0
LINE
  5
442
330
1F
100
AcDbEntity
  8
0
  6
SLD-Durchgehend
 62
     7
370
    15
100
AcDbLine
 10
56.507719567
 20
112.0226938674
 30
0.0
 11
55.6631380487
 21
112.5249885899
 31
0.0
  0
ARC
  5
443
330
1F
100
AcDbEntity
  8
0
  6
SLD-Durchgehend
 62
     7
370
    15
100
AcDbCircle
 10
62.6368386466
 20
111.9187708191
 30
0.0
 40
6.999999999999993
100
AcDbArc
 50
172.6642677709
 51
175.0318164639
  0
LINE
  5
444
330
1F
100
AcDbEntity
  8
0
  6
SLD-Durchgehend
 62
     7
370
    15
100
AcDbLine
 10
61.422027301
 20
118.8125532299
 30
0.0
 11
56.7330525983
 21
118.8125532299
 31
0.0
  0
LINE
  5
445
330
1F
100
AcDbEntity
  8
0
  6
SLD-Durchgehend
 62
     7
370
    15
100
AcDbLine
 10
68.5406246949
 20
118.8125532299
 30
0.0
 11
63.8516499921
 21
118.8125532299
 31
0.0
  0
LINE
  5
446
330
1F
100
AcDbEntity
  8
0
  6
SLD-Durchgehend
 62
     7
370
    15
100
AcDbLine
 10
68.5406246949
 20
105.0249884083
 30
0.0
 11
63.8516499921
 21
105.0249884083
 31
0.0
  0
LINE
  5
447
330
1F
100
AcDbEntity
  8
0
  6
SLD-Durchgehend
 62
     7
370
    15
100
AcDbLine
 10
61.422027301
 20
105.0249884083
 30
0.0
 11
56.7330525983
 21
105.0249884083
 31
0.0
  0
LINE
  5
448
330
1F
100
AcDbEntity
  8
0
  6
SLD-Durchgehend
 62
     7
370
    15
100
AcDbLine
 10
81.3846340198
 20
109.5249886803
 30
0.0
 11
69.2148174885
 21
109.5249886803
 31
0.0
  0
LINE
  5
449
330
1F
100
AcDbEntity
  8
0
  6
SLD-Durchgehend
 62
     7
370
    15
100
AcDbLine
 10
81.1313906479
 20
108.0249886672
 30
0.0
 11
68.4539222885
 21
108.0249886672
 31
0.0
  0
LINE
  5
44A
330
1F
100
AcDbEntity
  8
0
  6
SLD-Durchgehend
 62
     7
370
    15
100
AcDbLine
 10
81.5156934578
 20
112.8125530613
 30
0.0
 11
69.5795438979
 21
112.8125530613
 31
0.0
  0
LINE
  5
44B
330
1F
100
AcDbEntity
  8
0
  6
SLD-Durchgehend
 62
     7
370
    15
100
AcDbLine
 10
81.5271133352
 20
112.5249885899
 30
0.0
 11
69.6105392445
 21
112.5249885899
 31
0.0
  0
LINE
  5
44C
330
1F
100
AcDbEntity
  8
0
  6
SLD-Durchgehend
 62
     7
370
    15
100
AcDbLine
 10
81.1896057594
 20
115.5249884996
 30
0.0
 11
68.63643823
 21
115.5249884996
 31
0.0
  0
LINE
  5
44D
330
1F
100
AcDbEntity
  8
0
  6
SLD-Durchgehend
 62
     7
370
    15
100
AcDbLine
 10
81.4191134441
 20
114.0249884866
 30
0.0
 11
69.3124545533
 21
114.0249884866
 31
0.0
  0
LINE
  5
44E
330
1F
100
AcDbEntity
  8
0
  6
SLD-Durchgehend
 62
     7
370
    15
100
AcDbLine
 10
80.8339969981
 20
106.8125531256
 30
0.0
 11
73.9591805059
 21
106.8125531256
 31
0.0
  0
LINE
  5
44F
330
1F
100
AcDbEntity
  8
0
  6
SLD-Durchgehend
 62
     7
370
    15
100
AcDbLine
 10
71.113486195
 20
106.8125531256
 30
0.0
 11
67.4250054899
 21
106.8125531256
 31
0.0
  0
LINE
  5
450
330
1F
100
AcDbEntity
  8
0
  6
SLD-Durchgehend
 62
     7
370
    15
100
AcDbLine
 10
80.7508410681
 20
106.5249886542
 30
0.0
 11
74.703947993
 21
106.5249886542
 31
0.0
  0
LINE
  5
451
330
1F
100
AcDbEntity
  8
0
  6
SLD-Durchgehend
 62
     7
370
    15
100
AcDbLine
 10
70.3687191736
 20
106.5249886542
 30
0.0
 11
67.0985773932
 21
106.5249886542
 31
0.0
  0
LINE
  5
452
330
1F
100
AcDbEntity
  8
0
  6
SLD-Durchgehend
 62
     7
370
    15
100
AcDbLine
 10
81.4191134441
 20
109.8125531516
 30
0.0
 11
69.3124545533
 21
109.8125531516
 31
0.0
  0
LINE
  5
453
330
1F
100
AcDbEntity
  8
0
  6
SLD-Durchgehend
 62
     7
370
    15
100
AcDbLine
 10
80.8339969981
 20
117.0249885126
 30
0.0
 11
73.9591805059
 21
117.0249885126
 31
0.0
  0
LINE
  5
454
330
1F
100
AcDbEntity
  8
0
  6
SLD-Durchgehend
 62
     7
370
    15
100
AcDbLine
 10
71.113486195
 20
117.0249885126
 30
0.0
 11
67.4250054899
 21
117.0249885126
 31
0.0
  0
LINE
  5
455
330
1F
100
AcDbEntity
  8
0
  6
SLD-Durchgehend
 62
     7
370
    15
100
AcDbLine
 10
80.7508410681
 20
117.312552984
 30
0.0
 11
74.703947993
 21
117.312552984
 31
0.0
  0
LINE
  5
456
330
1F
100
AcDbEntity
  8
0
  6
SLD-Durchgehend
 62
     7
370
    15
100
AcDbLine
 10
70.3687191736
 20
117.312552984
 30
0.0
 11
67.0985773932
 21
117.312552984
 31
0.0
  0
LINE
  5
457
330
1F
100
AcDbEntity
  8
0
  6
SLD-Durchgehend
 62
     7
370
    15
100
AcDbLine
 10
81.1313906479
 20
115.812552971
 30
0.0
 11
68.4539222885
 21
115.812552971
 31
0.0
  0
LINE
  5
458
330
1F
100
AcDbEntity
  8
0
  6
SLD-Durchgehend
 62
     7
370
    15
100
AcDbLine
 10
81.5156934578
 20
111.0249885769
 30
0.0
 11
69.5795438979
 21
111.0249885769
 31
0.0
  0
LINE
  5
459
330
1F
100
AcDbEntity
  8
0
  6
SLD-Durchgehend
 62
     7
370
    15
100
AcDbLine
 10
81.3846340198
 20
114.3125529579
 30
0.0
 11
69.2148174885
 21
114.3125529579
 31
0.0
  0
LINE
  5
45A
330
1F
100
AcDbEntity
  8
0
  6
SLD-Durchgehend
 62
     7
370
    15
100
AcDbLine
 10
80.2347300369
 20
118.8125532299
 30
0.0
 11
76.5320429373
 21
118.8125532299
 31
0.0
  0
LINE
  5
45B
330
1F
100
AcDbEntity
  8
0
  6
SLD-Durchgehend
 62
     7
370
    15
100
AcDbLine
 10
81.5271133352
 20
111.3125530483
 30
0.0
 11
69.6105392445
 21
111.3125530483
 31
0.0
  0
LINE
  5
45C
330
1F
100
AcDbEntity
  8
0
  6
SLD-Durchgehend
 62
     7
370
    15
100
AcDbLine
 10
81.1896057594
 20
108.3125531386
 30
0.0
 11
68.63643823
 21
108.3125531386
 31
0.0
  0
LINE
  5
45D
330
1F
100
AcDbEntity
  8
0
  6
SLD-Durchgehend
 62
     7
370
    15
100
AcDbLine
 10
79.7101868111
 20
120.0249885387
 30
0.0
 11
77.2036839071
 21
120.0249885387
 31
0.0
  0
LINE
  5
45E
330
1F
100
AcDbEntity
  8
0
  6
SLD-Durchgehend
 62
     7
370
    15
100
AcDbLine
 10
80.2347300369
 20
105.0249884083
 30
0.0
 11
76.5320429373
 21
105.0249884083
 31
0.0
  0
LINE
  5
45F
330
1F
100
AcDbEntity
  8
0
  6
SLD-Durchgehend
 62
     7
370
    15
100
AcDbLine
 10
79.7101868111
 20
103.8125530995
 30
0.0
 11
77.2036839071
 21
103.8125530995
 31
0.0
  0
LINE
  5
460
330
1F
100
AcDbEntity
  8
0
  6
SLD-Durchgehend
 62
     7
370
    15
100
AcDbLine
 10
78.9135260302
 20
102.3125528536
 30
0.0
 11
77.5277245585
 21
102.3125528536
 31
0.0
  0
LINE
  5
461
330
1F
100
AcDbEntity
  8
0
  6
SLD-Durchgehend
 62
     7
370
    15
100
AcDbLine
 10
79.5706635136
 20
103.5249886281
 30
0.0
 11
77.3042294923
 21
103.5249886281
 31
0.0
  0
LINE
  5
462
330
1F
100
AcDbEntity
  8
0
  6
SLD-Durchgehend
 62
     7
370
    15
100
AcDbLine
 10
77.7163518388
 20
123.3125535018
 30
0.0
 11
77.3078225348
 21
123.3125535018
 31
0.0
  0
LINE
  5
463
330
1F
100
AcDbEntity
  8
0
  6
SLD-Durchgehend
 62
     7
370
    15
100
AcDbLine
 10
79.5706635136
 20
120.3125530101
 30
0.0
 11
77.3042294923
 21
120.3125530101
 31
0.0
  0
LINE
  5
464
330
1F
100
AcDbEntity
  8
0
  6
SLD-Durchgehend
 62
     7
370
    15
100
AcDbLine
 10
78.9135260302
 20
121.5249887846
 30
0.0
 11
77.5277245585
 21
121.5249887846
 31
0.0
  0
LINE
  5
465
330
1F
100
AcDbEntity
  8
0
  6
SLD-Durchgehend
 62
     7
370
    15
100
AcDbLine
 10
78.7403503228
 20
121.812553256
 30
0.0
 11
77.5363299791
 21
121.812553256
 31
0.0
  0
LINE
  5
466
330
1F
100
AcDbEntity
  8
0
  6
SLD-Durchgehend
 62
     7
370
    15
100
AcDbLine
 10
77.9293834958
 20
123.0249890305
 30
0.0
 11
77.3885309491
 21
123.0249890305
 31
0.0
  0
LINE
  5
467
330
1F
100
AcDbEntity
  8
0
  6
SLD-Durchgehend
 62
     7
370
    15
100
AcDbLine
 10
69.8338378016
 20
97.8125530473
 30
0.0
 11
55.4398394916
 21
97.8125530473
 31
0.0
  0
LINE
  5
468
330
1F
100
AcDbEntity
  8
0
  6
SLD-Durchgehend
 62
     7
370
    15
100
AcDbLine
 10
77.7163518388
 20
100.5249881364
 30
0.0
 11
77.3078225348
 21
100.5249881364
 31
0.0
  0
LINE
  5
469
330
1F
100
AcDbEntity
  8
0
  6
SLD-Durchgehend
 62
     7
370
    15
100
AcDbLine
 10
78.7403503228
 20
102.0249883823
 30
0.0
 11
77.5363299791
 21
102.0249883823
 31
0.0
  0
LINE
  5
46A
330
1F
100
AcDbEntity
  8
0
  6
SLD-Durchgehend
 62
     7
370
    15
100
AcDbLine
 10
77.9293834958
 20
100.8125526077
 30
0.0
 11
77.3885309491
 21
100.8125526077
 31
0.0
  0
LINE
  5
46B
330
1F
100
AcDbEntity
  8
0
  6
SLD-Durchgehend
 62
     7
370
    15
100
AcDbLine
 10
69.8338378016
 20
126.0249885909
 30
0.0
 11
55.4398394916
 21
126.0249885909
 31
0.0
  0
LINE
  5
46C
330
1F
100
AcDbEntity
  8
0
  6
SLD-Durchgehend
 62
     7
370
    15
100
AcDbLine
 10
74.8854730073
 20
126.3125530622
 30
0.0
 11
74.7275393251
 21
126.3125530622
 31
0.0
  0
LINE
  5
46D
330
1F
100
AcDbEntity
  8
0
  6
SLD-Durchgehend
 62
     7
370
    15
100
AcDbLine
 10
70.3451278414
 20
126.3125530622
 30
0.0
 11
54.9285494517
 21
126.3125530622
 31
0.0
  0
LINE
  5
46E
330
1F
100
AcDbEntity
  8
0
  6
SLD-Durchgehend
 62
     7
370
    15
100
AcDbLine
 10
50.5461379681
 20
126.3125530622
 30
0.0
 11
50.3882042859
 21
126.3125530622
 31
0.0
  0
LINE
  5
46F
330
1F
100
AcDbEntity
  8
0
  6
SLD-Durchgehend
 62
     7
370
    15
100
AcDbLine
 10
72.8641398046
 20
127.8125523768
 30
0.0
 11
52.4095374886
 21
127.8125523768
 31
0.0
  0
LINE
  5
470
330
1F
100
AcDbEntity
  8
0
  6
SLD-Durchgehend
 62
     7
370
    15
100
AcDbLine
 10
73.297794329
 20
127.5249888367
 30
0.0
 11
51.9758829642
 21
127.5249888367
 31
0.0
  0
LINE
  5
471
330
1F
100
AcDbEntity
  8
0
  6
SLD-Durchgehend
 62
     7
370
    15
100
AcDbLine
 10
73.297794329
 20
96.3125528015
 30
0.0
 11
51.9758829642
 21
96.3125528015
 31
0.0
  0
LINE
  5
472
330
1F
100
AcDbEntity
  8
0
  6
SLD-Durchgehend
 62
     7
370
    15
100
AcDbLine
 10
74.8854730073
 20
97.524988576
 30
0.0
 11
74.7275393251
 21
97.524988576
 31
0.0
  0
LINE
  5
473
330
1F
100
AcDbEntity
  8
0
  6
SLD-Durchgehend
 62
     7
370
    15
100
AcDbLine
 10
70.3451278414
 20
97.524988576
 30
0.0
 11
54.9285494517
 21
97.524988576
 31
0.0
  0
LINE
  5
474
330
1F
100
AcDbEntity
  8
0
  6
SLD-Durchgehend
 62
     7
370
    15
100
AcDbLine
 10
50.5461379681
 20
97.524988576
 30
0.0
 11
50.3882042859
 21
97.524988576
 31
0.0
  0
LINE
  5
475
330
1F
100
AcDbEntity
  8
0
  6
SLD-Durchgehend
 62
     7
370
    15
100
AcDbLine
 10
72.8641398046
 20
96.0249892614
 30
0.0
 11
52.4095374886
 21
96.0249892614
 31
0.0
  0
LINE
  5
476
330
1F
100
AcDbEntity
  8
0
  6
SLD-Durchgehend
 62
     7
370
    15
100
AcDbLine
 10
70.6734623555
 20
94.8125525556
 30
0.0
 11
54.6002149377
 21
94.8125525556
 31
0.0
  0
LINE
  5
477
330
1F
100
AcDbEntity
  8
0
  6
SLD-Durchgehend
 62
     7
370
    15
100
AcDbLine
 10
70.6734623555
 20
129.0249890826
 30
0.0
 11
54.6002149377
 21
129.0249890826
 31
0.0
  0
LINE
  5
478
330
1F
100
AcDbEntity
  8
0
  6
SLD-Durchgehend
 62
     7
370
    15
100
AcDbLine
 10
67.7648446318
 20
100.5249881364
 30
0.0
 11
57.5088326614
 21
100.5249881364
 31
0.0
  0
LINE
  5
479
330
1F
100
AcDbEntity
  8
0
  6
SLD-Durchgehend
 62
     7
370
    15
100
AcDbLine
 10
68.3323292788
 20
124.524988345
 30
0.0
 11
56.9413480144
 21
124.524988345
 31
0.0
  0
LINE
  5
47A
330
1F
100
AcDbEntity
  8
0
  6
SLD-Durchgehend
 62
     7
370
    15
100
AcDbLine
 10
68.3323292788
 20
99.3125532932
 30
0.0
 11
56.9413480144
 21
99.3125532932
 31
0.0
  0
LINE
  5
47B
330
1F
100
AcDbEntity
  8
0
  6
SLD-Durchgehend
 62
     7
370
    15
100
AcDbLine
 10
67.8689832594
 20
103.8125530995
 30
0.0
 11
57.4046940338
 21
103.8125530995
 31
0.0
  0
LINE
  5
47C
330
1F
100
AcDbEntity
  8
0
  6
SLD-Durchgehend
 62
     7
370
    15
100
AcDbLine
 10
67.7684376742
 20
103.5249886281
 30
0.0
 11
57.5052396189
 21
103.5249886281
 31
0.0
  0
LINE
  5
47D
330
1F
100
AcDbEntity
  8
0
  6
SLD-Durchgehend
 62
     7
370
    15
100
AcDbLine
 10
67.5363367218
 20
102.0249883823
 30
0.0
 11
57.7373405713
 21
102.0249883823
 31
0.0
  0
LINE
  5
47E
330
1F
100
AcDbEntity
  8
0
  6
SLD-Durchgehend
 62
     7
370
    15
100
AcDbLine
 10
67.8689832594
 20
120.0249885387
 30
0.0
 11
57.4046940338
 21
120.0249885387
 31
0.0
  0
LINE
  5
47F
330
1F
100
AcDbEntity
  8
0
  6
SLD-Durchgehend
 62
     7
370
    15
100
AcDbLine
 10
70.030507518
 20
129.312553554
 30
0.0
 11
55.2431697752
 21
129.312553554
 31
0.0
  0
LINE
  5
480
330
1F
100
AcDbEntity
  8
0
  6
SLD-Durchgehend
 62
     7
370
    15
100
AcDbLine
 10
67.5449421424
 20
102.3125528536
 30
0.0
 11
57.7287351507
 21
102.3125528536
 31
0.0
  0
LINE
  5
481
330
1F
100
AcDbEntity
  8
0
  6
SLD-Durchgehend
 62
     7
370
    15
100
AcDbLine
 10
67.7648446318
 20
123.3125535018
 30
0.0
 11
57.5088326614
 21
123.3125535018
 31
0.0
  0
LINE
  5
482
330
1F
100
AcDbEntity
  8
0
  6
SLD-Durchgehend
 62
     7
370
    15
100
AcDbLine
 10
67.7684376742
 20
120.3125530101
 30
0.0
 11
57.5052396189
 21
120.3125530101
 31
0.0
  0
LINE
  5
483
330
1F
100
AcDbEntity
  8
0
  6
SLD-Durchgehend
 62
     7
370
    15
100
AcDbLine
 10
70.030507518
 20
94.5249880842
 30
0.0
 11
55.2431697752
 21
94.5249880842
 31
0.0
  0
LINE
  5
484
330
1F
100
AcDbEntity
  8
0
  6
SLD-Durchgehend
 62
     7
370
    15
100
AcDbLine
 10
67.6841362174
 20
100.8125526077
 30
0.0
 11
57.5895410757
 21
100.8125526077
 31
0.0
  0
LINE
  5
485
330
1F
100
AcDbEntity
  8
0
  6
SLD-Durchgehend
 62
     7
370
    15
100
AcDbLine
 10
65.9562753308
 20
130.5249883972
 30
0.0
 11
59.3174019623
 21
130.5249883972
 31
0.0
  0
LINE
  5
486
330
1F
100
AcDbEntity
  8
0
  6
SLD-Durchgehend
 62
     7
370
    15
100
AcDbLine
 10
67.6841362174
 20
123.0249890305
 30
0.0
 11
57.5895410757
 21
123.0249890305
 31
0.0
  0
LINE
  5
487
330
1F
100
AcDbEntity
  8
0
  6
SLD-Durchgehend
 62
     7
370
    15
100
AcDbLine
 10
67.5363367218
 20
121.812553256
 30
0.0
 11
57.7373405713
 21
121.812553256
 31
0.0
  0
LINE
  5
488
330
1F
100
AcDbEntity
  8
0
  6
SLD-Durchgehend
 62
     7
370
    15
100
AcDbLine
 10
67.5449421424
 20
121.5249887846
 30
0.0
 11
57.7287351507
 21
121.5249887846
 31
0.0
  0
LINE
  5
489
330
1F
100
AcDbEntity
  8
0
  6
SLD-Durchgehend
 62
     7
370
    15
100
AcDbLine
 10
65.9562753308
 20
93.312553241
 30
0.0
 11
59.3174019623
 21
93.312553241
 31
0.0
  0
LINE
  5
48A
330
1F
100
AcDbEntity
  8
0
  6
SLD-Durchgehend
 62
     7
370
    15
100
AcDbLine
 10
58.1750999
 20
117.312552984
 30
0.0
 11
54.9049581196
 21
117.312552984
 31
0.0
  0
LINE
  5
48B
330
1F
100
AcDbEntity
  8
0
  6
SLD-Durchgehend
 62
     7
370
    15
100
AcDbLine
 10
50.5697293002
 20
117.312552984
 30
0.0
 11
44.5228362251
 21
117.312552984
 31
0.0
  0
LINE
  5
48C
330
1F
100
AcDbEntity
  8
0
  6
SLD-Durchgehend
 62
     7
370
    15
100
AcDbLine
 10
58.1750999
 20
106.5249886542
 30
0.0
 11
54.9049581196
 21
106.5249886542
 31
0.0
  0
LINE
  5
48D
330
1F
100
AcDbEntity
  8
0
  6
SLD-Durchgehend
 62
     7
370
    15
100
AcDbLine
 10
50.5697293002
 20
106.5249886542
 30
0.0
 11
44.5228362251
 21
106.5249886542
 31
0.0
  0
LINE
  5
48E
330
1F
100
AcDbEntity
  8
0
  6
SLD-Durchgehend
 62
     7
370
    15
100
AcDbLine
 10
56.0588598046
 20
114.3125529579
 30
0.0
 11
43.8890432734
 21
114.3125529579
 31
0.0
  0
LINE
  5
48F
330
1F
100
AcDbEntity
  8
0
  6
SLD-Durchgehend
 62
     7
370
    15
100
AcDbLine
 10
56.8197550047
 20
108.0249886672
 30
0.0
 11
44.1422866452
 21
108.0249886672
 31
0.0
  0
LINE
  5
490
330
1F
100
AcDbEntity
  8
0
  6
SLD-Durchgehend
 62
     7
370
    15
100
AcDbLine
 10
56.6372390631
 20
108.3125531386
 30
0.0
 11
44.0840715337
 21
108.3125531386
 31
0.0
  0
LINE
  5
491
330
1F
100
AcDbEntity
  8
0
  6
SLD-Durchgehend
 62
     7
370
    15
100
AcDbLine
 10
57.8486718032
 20
117.0249885126
 30
0.0
 11
54.1601910982
 21
117.0249885126
 31
0.0
  0
LINE
  5
492
330
1F
100
AcDbEntity
  8
0
  6
SLD-Durchgehend
 62
     7
370
    15
100
AcDbLine
 10
51.3144967872
 20
117.0249885126
 30
0.0
 11
44.439680295
 21
117.0249885126
 31
0.0
  0
LINE
  5
493
330
1F
100
AcDbEntity
  8
0
  6
SLD-Durchgehend
 62
     7
370
    15
100
AcDbLine
 10
57.8486718032
 20
106.8125531256
 30
0.0
 11
54.1601910982
 21
106.8125531256
 31
0.0
  0
LINE
  5
494
330
1F
100
AcDbEntity
  8
0
  6
SLD-Durchgehend
 62
     7
370
    15
100
AcDbLine
 10
51.3144967872
 20
106.8125531256
 30
0.0
 11
44.439680295
 21
106.8125531256
 31
0.0
  0
LINE
  5
495
330
1F
100
AcDbEntity
  8
0
  6
SLD-Durchgehend
 62
     7
370
    15
100
AcDbLine
 10
56.0588598046
 20
109.5249886803
 30
0.0
 11
43.8890432734
 21
109.5249886803
 31
0.0
  0
LINE
  5
496
330
1F
100
AcDbEntity
  8
0
  6
SLD-Durchgehend
 62
     7
370
    15
100
AcDbLine
 10
56.8197550047
 20
115.812552971
 30
0.0
 11
44.1422866452
 21
115.812552971
 31
0.0
  0
LINE
  5
497
330
1F
100
AcDbEntity
  8
0
  6
SLD-Durchgehend
 62
     7
370
    15
100
AcDbLine
 10
55.9612227399
 20
114.0249884866
 30
0.0
 11
43.854563849
 21
114.0249884866
 31
0.0
  0
LINE
  5
498
330
1F
100
AcDbEntity
  8
0
  6
SLD-Durchgehend
 62
     7
370
    15
100
AcDbLine
 10
55.9612227399
 20
109.8125531516
 30
0.0
 11
43.854563849
 21
109.8125531516
 31
0.0
  0
LINE
  5
499
330
1F
100
AcDbEntity
  8
0
  6
SLD-Durchgehend
 62
     7
370
    15
100
AcDbLine
 10
56.6372390631
 20
115.5249884996
 30
0.0
 11
44.0840715337
 21
115.5249884996
 31
0.0
  0
LINE
  5
49A
330
1F
100
AcDbEntity
  8
0
  6
SLD-Durchgehend
 62
     7
370
    15
100
AcDbLine
 10
55.6631380487
 20
111.3125530483
 30
0.0
 11
43.746563958
 21
111.3125530483
 31
0.0
  0
LINE
  5
49B
330
1F
100
AcDbEntity
  8
0
  6
SLD-Durchgehend
 62
     7
370
    15
100
AcDbLine
 10
55.6941333953
 20
111.0249885769
 30
0.0
 11
43.7579838354
 21
111.0249885769
 31
0.0
  0
LINE
  5
49C
330
1F
100
AcDbEntity
  8
0
  6
SLD-Durchgehend
 62
     7
370
    15
100
AcDbLine
 10
55.6941333953
 20
112.8125530613
 30
0.0
 11
43.7579838354
 21
112.8125530613
 31
0.0
  0
LINE
  5
49D
330
1F
100
AcDbEntity
  8
0
  6
SLD-Durchgehend
 62
     7
370
    15
100
AcDbLine
 10
55.6631380487
 20
112.5249885899
 30
0.0
 11
43.746563958
 21
112.5249885899
 31
0.0
  0
LINE
  5
49E
330
1F
100
AcDbEntity
  8
0
  6
SLD-Durchgehend
 62
     7
370
    15
100
AcDbLine
 10
47.9658547584
 20
100.5249881364
 30
0.0
 11
47.5573254544
 21
100.5249881364
 31
0.0
  0
LINE
  5
49F
330
1F
100
AcDbEntity
  8
0
  6
SLD-Durchgehend
 62
     7
370
    15
100
AcDbLine
 10
47.8851463441
 20
100.8125526077
 30
0.0
 11
47.3442937974
 21
100.8125526077
 31
0.0
  0
LINE
  5
4A0
330
1F
100
AcDbEntity
  8
0
  6
SLD-Durchgehend
 62
     7
370
    15
100
AcDbLine
 10
47.9694478009
 20
120.3125530101
 30
0.0
 11
45.7030137796
 21
120.3125530101
 31
0.0
  0
LINE
  5
4A1
330
1F
100
AcDbEntity
  8
0
  6
SLD-Durchgehend
 62
     7
370
    15
100
AcDbLine
 10
47.9658547584
 20
123.3125535018
 30
0.0
 11
47.5573254544
 21
123.3125535018
 31
0.0
  0
LINE
  5
4A2
330
1F
100
AcDbEntity
  8
0
  6
SLD-Durchgehend
 62
     7
370
    15
100
AcDbLine
 10
47.9694478009
 20
103.5249886281
 30
0.0
 11
45.7030137796
 21
103.5249886281
 31
0.0
  0
LINE
  5
4A3
330
1F
100
AcDbEntity
  8
0
  6
SLD-Durchgehend
 62
     7
370
    15
100
AcDbLine
 10
47.8851463441
 20
123.0249890305
 30
0.0
 11
47.3442937974
 21
123.0249890305
 31
0.0
  0
LINE
  5
4A4
330
1F
100
AcDbEntity
  8
0
  6
SLD-Durchgehend
 62
     7
370
    15
100
AcDbLine
 10
47.7373473141
 20
102.0249883823
 30
0.0
 11
46.5333269704
 21
102.0249883823
 31
0.0
  0
LINE
  5
4A5
330
1F
100
AcDbEntity
  8
0
  6
SLD-Durchgehend
 62
     7
370
    15
100
AcDbLine
 10
48.7416343558
 20
118.8125532299
 30
0.0
 11
45.0389472563
 21
118.8125532299
 31
0.0
  0
LINE
  5
4A6
330
1F
100
AcDbEntity
  8
0
  6
SLD-Durchgehend
 62
     7
370
    15
100
AcDbLine
 10
47.7459527347
 20
102.3125528536
 30
0.0
 11
46.3601512629
 21
102.3125528536
 31
0.0
  0
LINE
  5
4A7
330
1F
100
AcDbEntity
  8
0
  6
SLD-Durchgehend
 62
     7
370
    15
100
AcDbLine
 10
48.069993386
 20
103.8125530995
 30
0.0
 11
45.563490482
 21
103.8125530995
 31
0.0
  0
LINE
  5
4A8
330
1F
100
AcDbEntity
  8
0
  6
SLD-Durchgehend
 62
     7
370
    15
100
AcDbLine
 10
47.7459527347
 20
121.5249887846
 30
0.0
 11
46.3601512629
 21
121.5249887846
 31
0.0
  0
LINE
  5
4A9
330
1F
100
AcDbEntity
  8
0
  6
SLD-Durchgehend
 62
     7
370
    15
100
AcDbLine
 10
47.7373473141
 20
121.812553256
 30
0.0
 11
46.5333269704
 21
121.812553256
 31
0.0
  0
LINE
  5
4AA
330
1F
100
AcDbEntity
  8
0
  6
SLD-Durchgehend
 62
     7
370
    15
100
AcDbLine
 10
48.069993386
 20
120.0249885387
 30
0.0
 11
45.563490482
 21
120.0249885387
 31
0.0
  0
LINE
  5
4AB
330
1F
100
AcDbEntity
  8
0
  6
SLD-Durchgehend
 62
     7
370
    15
100
AcDbLine
 10
48.7416343558
 20
105.0249884083
 30
0.0
 11
45.0389472563
 21
105.0249884083
 31
0.0
  0
CIRCLE
  5
4AC
330
1F
100
AcDbEntity
  8
0
  6
SLD-Durchgehend
 62
     7
370
    15
100
AcDbCircle
 10
62.6368386466
 20
111.9187708191
 30
0.0
 40
3.249999999999979
  0
CIRCLE
  5
4AD
330
1F
100
AcDbEntity
  8
0
  6
SLD-Durchgehend
 62
     7
370
    15
100
AcDbCircle
 10
62.6368386466
 20
111.9187708191
 30
0.0
 40
3.000000000000007
  0
CIRCLE
  5
4AE
330
1F
100
AcDbEntity
  8
0
  6
SLD-Durchgehend
 62
     7
370
    15
100
AcDbCircle
 10
62.6368386466
 20
111.9187708191
 30
0.0
 40
24.99999999999999
  0
INSERT
  5
4BA
330
1F
100
AcDbEntity
  8
VERMASSUNG
100
AcDbBlockReference
  2
SW_CENTERMARKSYMBOL_0
 10
62.6368386466
 20
111.9187708191
 30
0.0
  0
OLE2FRAME
  5
4BB
330
1F
100
AcDbEntity
  8
0
100
AcDbOle2Frame
 70
     2
  3
Paintbrush-Bild
 10
13.8511154363
 20
38.264191557
 30
0.0
 11
51.6290888628
 21
31.9806341108
 31
0.0
 71
     2
 72
     0
 73
     1
 90
    12928
310
80552BED0767C5B32B40DDAF6807D121434000000000000000006FFBDDFB85D0
310
4940DDAF6807D121434000000000000000006FFBDDFB85D04940416F4BD60AFB
310
3F4000000000000000002BED0767C5B32B40416F4BD60AFB3F40000000000000
310
0000000000000100000000010000010000000100000000000100000000320000
310
D0CF11E0A1B11AE1000000000000000000000000000000003E000300FEFF0900
310
0600000000000000000000000100000001000000000000000010000002000000
310
01000000FEFFFFFF0000000000000000FFFFFFFFFFFFFFFFFFFFFFFFFFFFFFFF
310
FFFFFFFFFFFFFFFFFFFFFFFFFFFFFFFFFFFFFFFFFFFFFFFFFFFFFFFFFFFFFFFF
310
FFFFFFFFFFFFFFFFFFFFFFFFFFFFFFFFFFFFFFFFFFFFFFFFFFFFFFFFFFFFFFFF
310
FFFFFFFFFFFFFFFFFFFFFFFFFFFFFFFFFFFFFFFFFFFFFFFFFFFFFFFFFFFFFFFF
310
FFFFFFFFFFFFFFFFFFFFFFFFFFFFFFFFFFFFFFFFFFFFFFFFFFFFFFFFFFFFFFFF
310
FFFFFFFFFFFFFFFFFFFFFFFFFFFFFFFFFFFFFFFFFFFFFFFFFFFFFFFFFFFFFFFF
310
FFFFFFFFFFFFFFFFFFFFFFFFFFFFFFFFFFFFFFFFFFFFFFFFFFFFFFFFFFFFFFFF
310
FFFFFFFFFFFFFFFFFFFFFFFFFFFFFFFFFFFFFFFFFFFFFFFFFFFFFFFFFFFFFFFF
310
FFFFFFFFFFFFFFFFFFFFFFFFFFFFFFFFFFFFFFFFFFFFFFFFFFFFFFFFFFFFFFFF
310
FFFFFFFFFFFFFFFFFFFFFFFFFFFFFFFFFFFFFFFFFFFFFFFFFFFFFFFFFFFFFFFF
310
FFFFFFFFFFFFFFFFFFFFFFFFFFFFFFFFFFFFFFFFFFFFFFFFFFFFFFFFFFFFFFFF
310
FFFFFFFFFFFFFFFFFFFFFFFFFFFFFFFFFFFFFFFFFFFFFFFFFFFFFFFFFFFFFFFF
310
FFFFFFFFFFFFFFFFFFFFFFFFFFFFFFFFFFFFFFFFFFFFFFFFFFFFFFFFFFFFFFFF
310
FFFFFFFFFFFFFFFFFFFFFFFFFFFFFFFFFFFFFFFFFFFFFFFFFFFFFFFFFFFFFFFF
310
FDFFFFFFFEFFFFFFFEFFFFFFFEFFFFFF05000000060000000700000008000000
310
090000000A0000000B0000000C0000000D0000000E0000000F00000010000000
310
11000000120000001300000014000000150000001600000017000000FEFFFFFF
310
FFFFFFFFFFFFFFFFFFFFFFFFFFFFFFFFFFFFFFFFFFFFFFFFFFFFFFFFFFFFFFFF
310
FFFFFFFFFFFFFFFFFFFFFFFFFFFFFFFFFFFFFFFFFFFFFFFFFFFFFFFFFFFFFFFF
310
FFFFFFFFFFFFFFFFFFFFFFFFFFFFFFFFFFFFFFFFFFFFFFFFFFFFFFFFFFFFFFFF
310
FFFFFFFFFFFFFFFFFFFFFFFFFFFFFFFFFFFFFFFFFFFFFFFFFFFFFFFFFFFFFFFF
310
FFFFFFFFFFFFFFFFFFFFFFFFFFFFFFFFFFFFFFFFFFFFFFFFFFFFFFFFFFFFFFFF
310
FFFFFFFFFFFFFFFFFFFFFFFFFFFFFFFFFFFFFFFFFFFFFFFFFFFFFFFFFFFFFFFF
310
FFFFFFFFFFFFFFFFFFFFFFFFFFFFFFFFFFFFFFFFFFFFFFFFFFFFFFFFFFFFFFFF
310
FFFFFFFFFFFFFFFFFFFFFFFFFFFFFFFFFFFFFFFFFFFFFFFFFFFFFFFFFFFFFFFF
310
FFFFFFFFFFFFFFFFFFFFFFFFFFFFFFFFFFFFFFFFFFFFFFFFFFFFFFFFFFFFFFFF
310
FFFFFFFFFFFFFFFFFFFFFFFFFFFFFFFFFFFFFFFFFFFFFFFFFFFFFFFFFFFFFFFF
310
FFFFFFFFFFFFFFFFFFFFFFFFFFFFFFFFFFFFFFFFFFFFFFFFFFFFFFFFFFFFFFFF
310
FFFFFFFFFFFFFFFFFFFFFFFFFFFFFFFFFFFFFFFFFFFFFFFFFFFFFFFFFFFFFFFF
310
FFFFFFFFFFFFFFFFFFFFFFFFFFFFFFFFFFFFFFFFFFFFFFFFFFFFFFFFFFFFFFFF
310
52006F006F007400200045006E00740072007900000000000000000000000000
310
0000000000000000000000000000000000000000000000000000000000000000
310
16000500FFFFFFFFFFFFFFFF020000000A00030000000000C000000000000046
310
000000000000000000000000603A66BDDD87D00103000000C000000000000000
310
01004F006C006500000000000000000000000000000000000000000000000000
310
0000000000000000000000000000000000000000000000000000000000000000
310
0A000200FFFFFFFFFFFFFFFFFFFFFFFF00000000000000000000000000000000
310
0000000000000000000000000000000000000000000000001400000000000000
310
010043006F006D0070004F0062006A0000000000000000000000000000000000
310
0000000000000000000000000000000000000000000000000000000000000000
310
120002010100000003000000FFFFFFFF00000000000000000000000000000000
310
0000000000000000000000000000000000000000010000004D00000000000000
310
01004F006C006500310030004E00610074006900760065000000000000000000
310
0000000000000000000000000000000000000000000000000000000000000000
310
1A000200FFFFFFFFFFFFFFFFFFFFFFFF00000000000000000000000000000000
310
0000000000000000000000000000000000000000040000002426000000000000
310
FEFFFFFF02000000FEFFFFFFFFFFFFFFFFFFFFFFFFFFFFFFFFFFFFFFFFFFFFFF
310
FFFFFFFFFFFFFFFFFFFFFFFFFFFFFFFFFFFFFFFFFFFFFFFFFFFFFFFFFFFFFFFF
310
FFFFFFFFFFFFFFFFFFFFFFFFFFFFFFFFFFFFFFFFFFFFFFFFFFFFFFFFFFFFFFFF
310
FFFFFFFFFFFFFFFFFFFFFFFFFFFFFFFFFFFFFFFFFFFFFFFFFFFFFFFFFFFFFFFF
310
FFFFFFFFFFFFFFFFFFFFFFFFFFFFFFFFFFFFFFFFFFFFFFFFFFFFFFFFFFFFFFFF
310
FFFFFFFFFFFFFFFFFFFFFFFFFFFFFFFFFFFFFFFFFFFFFFFFFFFFFFFFFFFFFFFF
310
FFFFFFFFFFFFFFFFFFFFFFFFFFFFFFFFFFFFFFFFFFFFFFFFFFFFFFFFFFFFFFFF
310
FFFFFFFFFFFFFFFFFFFFFFFFFFFFFFFFFFFFFFFFFFFFFFFFFFFFFFFFFFFFFFFF
310
FFFFFFFFFFFFFFFFFFFFFFFFFFFFFFFFFFFFFFFFFFFFFFFFFFFFFFFFFFFFFFFF
310
FFFFFFFFFFFFFFFFFFFFFFFFFFFFFFFFFFFFFFFFFFFFFFFFFFFFFFFFFFFFFFFF
310
FFFFFFFFFFFFFFFFFFFFFFFFFFFFFFFFFFFFFFFFFFFFFFFFFFFFFFFFFFFFFFFF
310
FFFFFFFFFFFFFFFFFFFFFFFFFFFFFFFFFFFFFFFFFFFFFFFFFFFFFFFFFFFFFFFF
310
FFFFFFFFFFFFFFFFFFFFFFFFFFFFFFFFFFFFFFFFFFFFFFFFFFFFFFFFFFFFFFFF
310
FFFFFFFFFFFFFFFFFFFFFFFFFFFFFFFFFFFFFFFFFFFFFFFFFFFFFFFFFFFFFFFF
310
FFFFFFFFFFFFFFFFFFFFFFFFFFFFFFFFFFFFFFFFFFFFFFFFFFFFFFFFFFFFFFFF
310
FFFFFFFFFFFFFFFFFFFFFFFFFFFFFFFFFFFFFFFFFFFFFFFFFFFFFFFFFFFFFFFF
310
0100000200000000000000000000000000000000000000000000000000000000
310
0000000000000000000000000000000000000000000000000000000000000000
310
0100FEFF030A0000FFFFFFFF0A00030000000000C00000000000004607000000
310
5042727573680007000000504272757368000700000050427275736800F439B2
310
7100000000000000000000000000000000000000000000000000000000000000
310
0000000000000000000000000000000000000000000000000000000000000000
310
0000000000000000000000000000000000000000000000000000000000000000
310
0000000000000000000000000000000000000000000000000000000000000000
310
0000000000000000000000000000000000000000000000000000000000000000
310
0000000000000000000000000000000000000000000000000000000000000000
310
0000000000000000000000000000000000000000000000000000000000000000
310
0000000000000000000000000000000000000000000000000000000000000000
310
0000000000000000000000000000000000000000000000000000000000000000
310
0000000000000000000000000000000000000000000000000000000000000000
310
0000000000000000000000000000000000000000000000000000000000000000
310
0000000000000000000000000000000000000000000000000000000000000000
310
20260000424D0E260000000000003E00000028000000B40200006E0000000100
310
01000000000000000000130B0000130B00000200000002000000000000FFFFFF
310
FFFFFFFFFFFFFFFFFFFFFFFFFFFFFFFFFFFFFFFFFFFFFFFFFFFFFFFFFFFFFFFF
310
FFFFFFFFFFFFFFFFFFFFFFFFFFFFFFFFFFFFFFFFFFFFFFFFFFFFFFFFFFFFFFFF
310
FFFFFFFFFFFFFFFFFFFFFFFFFFFFFFFFFFFFFFFFFFFFFFFFF000FFFFFFFFFFFF
310
FFFFFFFFFFFFFFFFFFFFFFFFFFFFFFFFFFFFFFFFFFFFFFFFFFFFFFFFFFFFFFFF
310
FFFFFFFFFFFFFFFFFFFFFFFFFFFFFFFFFFFFFFFFFFFFFFFFFFFFFFFFFFFFFFFF
310
FFFFFFFFFFFFFFFFFFFFFFFFFFFFFFFFF000FFFFFFFFFFFFFFFFFFFFFFFFFFFF
310
FFFFFFFFFFFFFFFFFFFFFFFFFFFFFFFFFFFFFFFFFFFFFFFFFFFFFFFFFFFFFFFF
310
FFFFFFFFFFFFFFFFFFFFFFFFFFFFFFFFFFFFFFFFFFFFFFFFFFFFFFFFFFFFFFFF
310
FFFFFFFFFFFFFFFFF000FFFFFFFFFFFFFFFFFFFFFFFFFFFFFFFFFFFFFFFFFFFF
310
FFFFFFFFFFFFFFFFFFFFFFFFFFFFFFFFFFFFFFFFFFFFFFFFFFFFFFFFFFFFFFFF
310
FFFFFFFFFFFFFFFFFFFFFFFFFFFFFFFFFFFFFFFFFFFFFFFFFFFFFFFFFFFFFFFF
310
F000FFFFFFFFFFFFFFFFFFFFFFFFFFFFFFFFFFFFFFFFFFFFFFFFFFFFFFFFFFFF
310
FFFFFFFFFFFFFFFFFFFFFFFFFFFFFFFFFFFFFFFFFFFFFFFFFFFFFFFFFFFFFFFF
310
FFFFFFFFFFFFFFFFFFFFFFFFFFFFFFFFFFFFFFFFFFFFFFFFF000FFFFFFFFFFFF
310
FFFFFFFFFFFFFFFFFFFFFFFFFFFFFFFFFFFFFFFFFFFFFFFFFFFFFFFFFFFFFFFF
310
FFFFFFFFFFFFFFFFFFFFFFFFFFFFFFFFFFFFFFFFFFFFFFFFFFFFFFFFFFFFFFFF
310
FFFFFFFFFFFFFFFFFFFFFFFFFFFFFFFFF000FFFFFFFFFFFFFFFFFFFFFFFFFFFF
310
FFFFFFFFFFFFFFFFFFFFFFFFFFFFFFFFFFFFFFFFFFFFFFFFFFFFFFFFFFFFFFFF
310
FFFFFFFFFFFFFFFFFFFFFFFFFFFFFFFFFFFFFFFFFFFFFFFFFFFFFFFFFFFFFFFF
310
FFFFFFFFFFFFFFFFF000FFFFFFFFFFFFFFFFFFFFFFFFFFFFFFFFFFFFFFFFFFFF
310
FFFFFFFFFFFFFFFFFFFFFFFFFFFFFFFFFFFFFFFFFFFFFFFFFFFFFFFFFFFFFFFF
310
FFFFFFFFFFFFFFFFFFFFFFFFFFFFFFFFFFFFFFFFFFFFFFFFFFFFFFFFFFFFFFFF
310
F000FFFFFFFFFFFFFFFFFFFFFFFFFFFFFFFFFFFFFFFFFFFFFFFFFFFFFFFFFFFF
310
FFFFFFFFFFFFFFFFFFFFFFFFFFFFFFFFFFFFFFFFFFFFFFFFFFFFFFFFFFFFFFFF
310
FFFFFFFFFFFFFFFFFFFFFFFFFFFFFFFFFFFFFFFFFFFFFFFFF000FFFFFFFFFFFF
310
FFFFFFFFFFFFFFFFFFFFFFFFFFFFFFFFFFFFFFFFFFFFFFFFFFFFFFFFFFFFFFFF
310
FFFFFFFFFFFFFFFFFFFFFFFFFFFFFFFFFFFFFFFFFFFFFFFFFFFFFFFFFFFFFFFF
310
FFFFFFFFFFFFFFFFFFFFFFFFFFFFFFFFF000FFFFFFFFFFFFFFFFFFFFFFFFFFFF
310
FFFFFFFFFFFFFFFFFFFFFFFFFFFFFFFFFFFFFFFFFFFFFFFFFFFFFFFFFFFFFFFF
310
FFFFFFFFFFFFFFFFFFFFFFFFFFFFFFFFFFFFFFFFFFFFFFFFFFFFFFFFFFFFFFFF
310
FFFFFFFFFFFFFFFFF000FFFFFFFFFFFFFFFFFFFFFFFFFFFFFFFFFFFFFFFFFFFF
310
FFFFFFFFFFFFFFFFFFFFFFFFFFFFFFFFFFFFFFFFFFFFFFFFFFFFFFFFFFFFFFFF
310
FFFFFFFFFFFFFFFFFFFFFFFFFFFFFFFFFFFFFFFFFFFFFFFFFFFFFFFFFFFFFFFF
310
F000FFFFFFFFFFFFFFFFFFFFFFFFFFFFFFFFFFFFFFFFFFFFFFFFFFFFFFFFFFFF
310
FFFFFFFFFFFFFFFFFFFFFFFFFFFFFFFFFFFFFFFFFFFFFFFFFFFFFFFFFFFFFFFF
310
FFFFFFFFFFFFFFFFFFFFFFFFFFFFFFFFFFFFFFFFFFFFFFFFF000FFFFFFFFFFFF
310
FFFFFFFFFFFFFFFFFFFFFFFFFFFFFFFFFFFFFFFFFFFFFFFFFFFFFFFFFFFFFFFF
310
FFFFFFFFFFFFFFFFFFFFFFFFFFFFFFFFFFFFFFFFFFFFFFFFFFFFFFFFFFFFFFFF
310
FFFFFFFFFFFFFFFFFFFFFFFFFFFFFFFFF000FFFFFFFFFFFFFFFFFFFFFFFFFFFF
310
FFFFFFFFFFFFFFFFFFFFFFFFFFFFFFFFFFFFFFFFFFFFFFFFFFFFFFFFFFFFFFFF
310
FFFFFFFFFFFFFFFFFFFFFFFFFFFFFFFFFFFFFFFFFFFFFFFFFFFFFFFFFFFFFFFF
310
FFFFFFFFFFFFFFFFF000FFFFFFFFFFFFFFFFFFFFFFFFFFFFFFFFFFFFFFFFFFFF
310
FFFFFFFFFFFFFFFFFFFFFFFFFFFFFFFFFFFFFFFFFFFFFFFFFFFFFFFFFFFFFFFF
310
FFFFFFFFFFFFFFFFFFFFFFFFFFFFFFFFFFFFFFFFFFFFFFFFFFFFFFFFFFFFFFFF
310
F000FFFFFFFFFFFFFFFFFFFFFFFFFFFFFFFFFFFFFFFFFFFFFFFFFFFFFFFFFFFF
310
FFFFFFFFFFFFFFFFFFFFFFFFFFFFFFFFFFFFFFFFFFFFFFFFFFFFFFFFFFFFFFFF
310
FFFFFFFFFFFFFFFFFFFFFFFFFFFFFFFFFFFFFFFFFFFFFFFFF000FFFFFFFFFFFF
310
FFFFFFFFFFFFFFFFFFFFFFFFFFFFFFFFFFFFFFFFFFFFFFFFFFFFFFFFFFFFFFFF
310
FFFFFFFFFFFFFFFFFFFFFFFFFFFFFFFFFFFFFFFFFFFFFFFFFFFFFFFFFFFFFFFF
310
FFFFFFFFFFFFFFFFFFFFFFFFFFFFFFFFF000FFFFFFFFFFFFFFFFFFFFFFFFFFFF
310
FFFFFFFFFFFFFFFFFFFFFFFFFFFFFFFFFFFFFFFFFFFFFFFFFFFFFFFFFFFFFFFF
310
FFFFFFFFFFFFFFFFFFFFFFFFFFFFFFFFFFFFFFFFFFFFFFFFFFFFFFFFFFFFFFFF
310
FFFFFFFFFFFFFFFFF000FFFFF80003FFFFFFFFFFFFFFFFFFFFFFFFFFFFFFFFFF
310
FFFFF00007FFFFFFFFFF00007FFFFFF800000000000000007FFFFFFFFFFFFFFF
310
FFFFFFFC001FFFFFFFFFFFFFFC001FFFFFFFFFFFFFFFFFFFFFFFFFFE0007FFFF
310
F000FFFF8000007FFFFFFFF8000FFFFFC0007FFFFF80007FFFFF0000007FFFFF
310
FFF8000007FFFFF800000000000000007FFFFFF0001FFFFFFFFFFFC00001FFFF
310
FFFFFFFFC00001FFFFFFFF000000000003FFFFE000007FFFF000FFFE0000000F
310
FFFFFFF0000FFFFF80007FFFFF80007FFFFC0000001FFFFFFFC0000001FFFFF8
310
00000000000000007FFFFFF0001FFFFFFFFFFE0000003FFFFFFFFFFE0000003F
310
FFFFFF000000000003FFFF0000000FFFF000FFF800000003FFFFFFF00007FFFF
310
80007FFFFF80007FFFF000000007FFFFFF000000003FFFF80000000000000000
310
7FFFFFF0001FFFFFFFFFF80000000FFFFFFFFFF80000000FFFFFFF0000000000
310
03FFFC00000003FFF000FFE000000000FFFFFFF00007FFFF80003FFFFF80007F
310
FFC000000001FFFFFC000000001FFFF800000000000000007FFFFFF0001FFFFF
310
FFFFE000000003FFFFFFFFE000000003FFFFFF000000000003FFF000000000FF
310
F000FF80000000007FFFFFF00007FFFF80003FFFFF80007FFF8000000000FFFF
310
F80000000007FFF800000000000000007FFFFFF0001FFFFFFFFFC000000001FF
310
FFFFFFC000000001FFFFFF000000000003FFC0000000007FF000FF0000000000
310
3FFFFFE00007FFFF00003FFFFF80007FFE00000000003FFFF00000000003FFF8
310
00000000000000007FFFFFF0001FFFFFFFFF8000000000FFFFFFFF8000000000
310
FFFFFF000000000003FF80000000003FF000FE00000000001FFFFFE00003FFFF
310
00003FFFFF80007FFC00000000001FFFE00000000001FFF8000001FFFE000000
310
7FFFFFF0001FFFFFFFFE00000000003FFFFFFE00000000003FFFFF0000000000
310
03FF00000000001FF000FC00000000000FFFFFE00003FFFF00001FFFFF80007F
310
F800000000001FFFC00000000000FFF8000001FFFE0000007FFFFFF0001FFFFF
310
FFFC00000000001FFFFFFC00000000001FFFFF000000000003FE00000000000F
310
F000F8000000000007FFFFE00003FFFF00001FFFFF80007FF800000000000FFF
310
800000000000FFF8000001FFFE0000007FFFFFF0001FFFFFFFF800000000000F
310
FFFFF800000000000FFFFF000000000003FC000000000007F000F80000000000
310
03FFFFC00003FFFE00001FFFFF80007FF0000000000007FF0000000000007FF8
310
000001FFFE0000007FFFFFF0001FFFFFFFF0000000000007FFFFF00000000000
310
07FFFF000000000003F8000000000003F000F0000000000003FFFFC00001FFFE
310
00001FFFFF80007FE0000000000007FE0000000000003FF8000001FFFE000000
310
7FFFFFF0001FFFFFFFF0000000000007FFFFF0000000000007FFFF0000000000
310
03F800001F800003F000E00001FFF00001FFFFC00001FFFE00000FFFFF80007F
310
E00001FFE00003FE00001FFF00003FF8000001FFFE0000007FFFFFF0001FFFFF
310
FFE000003E000003FFFFE000003E000003FFFF000000000003F00001FFF80001
310
F000E00007FFFC0001FFFFC00001FFFE00000FFFFF80007FC0000FFFFC0003FC
310
0000FFFFC0001FF8000001FFFE0000007FFFFFF0001FFFFFFFC00003FFE00001
310
FFFFC00003FFE00001FFFF0001FFFFFFFFF00007FFFE0001F000E0000FFFFF00
310
00FFFF800001FFFC00000FFFFF80007FC0001FFFFE0001FC0001FFFFE0001FF8
310
000001FFFE0000007FFFFFF0001FFFFFFF80000FFFF80000FFFF80000FFFF800
310
00FFFF0003FFFFFFFFE0000FFFFF8000F000C0003FFFFF8000FFFF800000FFFC
310
000007FFFF80007F80003FFFFF0001FC0003FFFFF0001FF8000001FFFE000000
310
7FFFFFF0001FFFFFFF80003FFFFE0000FFFF80003FFFFE0000FFFF0003FFFFFF
310
FFE0003FFFFF8000F000C0003FFFFF8000FFFF800000FFFC000007FFFF80007F
310
80007FFFFF8001F80007FFFFF8000FF8000001FFFE0000007FFFFFF0001FFFFF
310
FF00007FFFFF00007FFF00007FFFFF00007FFF0003FFFFFFFFE0003FFFFFC000
310
F000C0007FFFFFC000FFFF000000FFFC000007FFFF80007F8000FFFFFF8000F8
310
000FFFFFF8000FF8000001FFFE0000007FFFFFF0001FFFFFFF0000FFFFFF8000
310
7FFF0000FFFFFF80007FFF0003FFFFFFFFC0007FFFFFC00070008000FFFFFFC0
310
00FFFF000000FFF8000007FFFF80007F8000FFFFFF8000F8000FFFFFF8000FF8
310
000001FFFE0000007FFFFFF0001FFFFFFE0001FFFFFFC0003FFE0001FFFFFFC0
310
003FFF0003FFFFFFFFC0007FFFFFE00070008000FFFFFFC0007FFF0000007FF8
310
000003FFFF80007F0001FFFFFF8000F8000FFFFFF8000FF8000001FFFE000000
310
7FFFFFF0001FFFFFFE0001FFFFFFC0003FFE0001FFFFFFC0003FFF0003FFFFFF
310
FFC000FFFFFFE00070008000FFFFFFC0007FFF0000007FF8000003FFFF80007F
310
0001FFFFFF8000F8001FFFFFF8000FF8000001FFFE0000007FFFFFF0001FFFFF
310
FE0003FFFFFFE0003FFE0003FFFFFFE0003FFF0003FFFFFFFFC000FFFFFFE000
310
70008000FFFFFFC0007FFE0000007FF8000003FFFF80007F0001FFFFFF8000F0
310
001FFFFFF8000FF8000001FFFE0000007FFFFFF0001FFFFFFC0003FFFFFFE000
310
1FFC0003FFFFFFE0001FFF0003FFFFFFFFC000FFFFFFC00070008000FFFFFF80
310
007FFE0000007FF0000003FFFF80007F0001FFFFFF0000F0001FFFFFF8000FF8
310
000001FFFE0000007FFFFFF0001FFFFFFC0007FFFFFFF0001FFC0007FFFFFFF0
310
001FFF0003FFFFFFFFC000FFFFFFC00070008001FFFFFF0000FFFE0000003FF0
310
000001FFFF80007F0001FFFFFF0000F8001FFFFFF0000FF8000001FFFE000000
310
7FFFFFF0001FFFFFFC0007FFFFFFF0001FFC0007FFFFFFF0001FFF0003FFFFFF
310
FFC001FFFFFF80007000FFFFFFFFFE0000FFFE0008003FF0008001FFFF80007F
310
FFFFFFFFFC0000FFFFFFFFFFE0000FF8000001FFFE0000007FFFFFF0001FFFFF
310
F8000FFFFFFFF8000FF8000FFFFFFFF8000FFF0003FFFFFFFFFFFFFFFFFF0000
310
7000FFFFFFFFFC0000FFFC0008003FF0008001FFFF80007FFFFFFFFFF80001FF
310
FFFFFFFF80000FF8000001FFFE0000007FFFFFF0001FFFFFF8000FFFFFFFF800
310
0FF8000FFFFFFFF8000FFF0003FFFFFFFFFFFFFFFFFE0000F000FFFFFFFFE000
310
00FFFC000C003FE000C001FFFF80007FFFFFFFFFC00001FFFFFFFFFE00001FF8
310
000001FFFE0000007FFFFFF0001FFFFFF8000FFFFFFFF8000FF8000FFFFFFFF8
310
000FFF0003FFFFFFFFFFFFFFFFF00000F000FFFFFFFE000001FFFC000C001FE0
310
00C000FFFF80007FFFFFFFFE000001FFFFFFFFE000001FF80FFFFFFFFFFFFFC0
310
7FFFFFF0001FFFFFF8000FFFFFFFF8000FF8000FFFFFFFF8000FFF0003FFFFFF
310
FFFFFFFFFF800000F000FFFFFFC0000001FFFC001C001FE001C000FFFF80007F
310
FFFFFF80000003FFFFFFF80000001FF80FFFFFFFFFFFFFC07FFFFFF0001FFFFF
310
F8001FFFFFFFFC000FF8001FFFFFFFFC000FFF0003FFFFFFFFFFFFFFF0000001
310
F000FFFFF800000001FFF8001C001FE001C000FFFF80007FFFFFF800000003FF
310
FFFF800000003FF80FFFFFFFFFFFFFC07FFFFFF0001FFFFFF8001FFFFFFFFC00
310
0FF8001FFFFFFFFC000FFF0003FFFFFFFFFFFFFE00000001F000FFFFC0000000
310
03FFF8001E001FC001E000FFFF80007FFFFF8000000007FFFFFC000000003FF8
310
0FFFFFFFFFFFFFC07FFFFFF0001FFFFFF8001FFFFFFFFC000FF8001FFFFFFFFC
310
000FFF0003FFFFFFFFFFFFE000000003F000FFFE0000000007FFF8001E000FC0
310
01E0007FFF80007FFFFE0000000007FFFFE0000000007FF80FFFFFFFFFFFFFC0
310
7FFFFFF0001FFFFFF0001FFFFFFFFC0007F0001FFFFFFFFC0007FF0003FFFFFF
310
FFFFFF0000000003F000FFF80000000007FFF8001E000FC003E0007FFF80007F
310
FFF0000000000FFFFF8000000000FFF80FFFFFFFFFFFFFC07FFFFFF0001FFFFF
310
F0001FFFFFFFFC0007F0001FFFFFFFFC0007FF0003FFFFFFFFFFFC0000000007
310
F000FFE0000000000FFFF0003E000FC003E0007FFF80007FFFC0000000001FFF
310
FE0000000001FFF80FFFFFFFFFFFFFC07FFFFFF0001FFFFFF0001FFFFFFFFC00
310
07F0001FFFFFFFFC0007FF0003FFFFFFFFFFF0000000000FF000FFC000000000
310
1FFFF0003F000F8003F0003FFF80007FFF80000000003FFFF80000000003FFF8
310
0FFFFFFFFFFFFFC07FFFFFF0001FFFFFF0001FFFFFFFFC0007F0001FFFFFFFFC
310
0007FF0003FFFFFFFFFFE0000000001FF000FF00000000007FFFF0003F000780
310
03F0003FFF80007FFF00000000007FFFF00000000007FFF80FFFFFFFFFFFFFC0
310
7FFFFFF0001FFFFFF0001FFFFFFFFC0007F0001FFFFFFFFC0007FF0003FFFFFF
310
FFFF80000000007FF000FE0000000000FFFFE0003F00078007F0003FFF80007F
310
FE0000000001FFFFE0000000001FFFF80FFFFFFFFFFFFFC07FFFFFF0001FFFFF
310
F0001FFFFFFFFC0007F0001FFFFFFFFC0007FF0003FFFFFFFFFF0000000000FF
310
F000FC0000000003FFFFE0007F00078007F0003FFF80007FFC0000000007FFFF
310
C0000000007FFFF80FFFFFFFFFFFFFC07FFFFFF0001FFFFFF8001FFFFFFFFC00
310
0FF8001FFFFFFFFC000FFF0003FFFFFFFFFE0000000003FFF000FC000000000F
310
FFFFE0007F80070007F8001FFF80007FF8000000001FFFFF8000000001FFFFF8
310
0FFFFFFFFFFFFFC07FFFFFF0001FFFFFF8001FFFFFFFFC000FF8001FFFFFFFFC
310
000FFF0003FFFFFFFFFC000000000FFFF000F8000000007FFFFFE0007F800700
310
07F8001FFF80007FF000000000FFFFFF800000000FFFFFF80FFFFFFFFFFFFFC0
310
7FFFFFF0001FFFFFF8000FFFFFFFF8000FF8000FFFFFFFF8000FFF0003FFFFFF
310
FFFC000000007FFFF000F800000007FFFFFFC0007F8003000FF8001FFF80007F
310
F000000007FFFFFF000000007FFFFFF80FFFFFFFFFFFFFC07FFFFFF0001FFFFF
310
F8000FFFFFFFF8000FF8000FFFFFFFF8000FFF0003FFFFFFFFF80000000FFFFF
310
F000F0000000FFFFFFFFC000FF8003000FF8001FFF80007FE0000000FFFFFFFF
310
0000000FFFFFFFF8000001FFFE0000007FFFFFF0001FFFFFF8000FFFFFFFF800
310
0FF8000FFFFFFFF8000FFF0003FFFFFFFFF8000000FFFFFFF000F000000FFFFF
310
FFFFC000FFC002000FF8000FFF80007FE000001FFFFFFFFE000001FFFFFFFFF8
310
000001FFFE0000007FFFFFF0001FFFFFF8000FFFFFFFF8000FF8000FFFFFFFF8
310
000FFF0003FFFFFFFFF000001FFFFFFFF000E00000FFFFFFFFFFC000FFC00200
310
0FFC000FFF80007FE00001FFFFFFFFFE00001FFFFFFFFFF8000001FFFE000000
310
7FFFFFF0001FFFFFFC000FFFFFFFF8001FFC000FFFFFFFF8001FFF0003FFFFFF
310
FFF00001FFFFFFFFF000E00007FFFFFFFFFF8000FFC000001FFC000FFF80007F
310
C0000FFFFFFFFFFE0000FFFFFFFFFFF8000001FFFE0000007FFFFFF0001FFFFF
310
FC0007FFFFFFF0001FFC0007FFFFFFF0001FFF0003FFFFFFFFF00007FFFFFFFF
310
F000E0001FFFFFFFFFFF8000FFC000001FFC000FFF80007FC0003FFFFFFFFFFE
310
0001FFFFFFFFFFF8000001FFFE0000007FFFFFF0001FFFFFFC0007FFFFFFF000
310
1FFC0007FFFFFFF0001FFF0003FFFFFFFFF0001FFFFFFFFFF000E0003FFFFF00
310
03FF8001FFE000001FFC0007FF80007FC0007FFFFF0007FC0003FFFFF0003FF8
310
000001FFFE0000007FFFFFF0001FFFFFFC0003FFFFFFE0001FFC0003FFFFFFE0
310
001FFF0003FFFFFFFFF0003FFFFFFFFFF000E0003FFFFF0001FF8001FFE00000
310
1FFE0007FF80007FC0007FFFFE0003FC0007FFFFE0003FF8000001FFFE000000
310
7FFFFFF0001FFFFFFE0003FFFFFFE0003FFE0003FFFFFFE0003FFF0003FFFFFF
310
FFF0003FFFFF8001F000E0003FFFFF0001FF0001FFE000001FFE0007FF80007F
310
C0007FFFFE0003FC0007FFFFE0003FF8000001FFFE0000007FFFFFF0001FFFFF
310
FE0001FFFFFFC0003FFE0001FFFFFFC0003FFF0003FFFFFFFFF0003FFFFF0001
310
F000E0003FFFFF0003FF0001FFE000003FFE0007FF80007FC0007FFFFE0003FC
310
0007FFFFE0003FF8000001FFFE0000007FFFFFF0001FFFFFFF0001FFFFFFC000
310
7FFF0001FFFFFFC0007FFF0003FFFFFFFFF0003FFFFF0001F000E0003FFFFE00
310
03FF0003FFF000003FFE0003FF80007FC0007FFFFC0003FE0007FFFFE0003FF8
310
000001FFFE0000007FFFFFF0001FFFFFFF0000FFFFFF80007FFF0000FFFFFF80
310
007FFF0003FFFFFFFFF0003FFFFF0001F000E0003FFFFE0003FF0003FFF00000
310
3FFF0003FF80007FC0007FFFFC0007FE0007FFFFC0003FF8000001FFFE000000
310
7FFFFFF0001FFFFFFF80007FFFFF0000FFFF80007FFFFF0000FFFF0003FFFFFF
310
FFF0003FFFFF0003F000E0003FFFFC0003FE0003FFF000003FFF0003FF80007F
310
E0003FFFF80007FE0003FFFFC0007FF8000001FFFE0000007FFFFFF0001FFFFF
310
FF80003FFFFE0000FFFF80003FFFFE0000FFFF0003FFFFFFFFF0001FFFFE0003
310
F000F0001FFFF80003FE0003FFF000007FFF0001FF80007FE0003FFFF00007FE
310
0001FFFF80007FF8000001FFFE0000007FFFFFF0001FFFFFFFC0000FFFF80001
310
FFFFC0000FFFF80001FFFF0003FFFFFFFFF0001FFFFC0003F000F0000FFFF000
310
07FE0007FFF800007FFF0001FF80007FE0001FFFE00007FF0000FFFE00007FF8
310
000001FFFE0000007FFFFFF0001FFFFFFFC00003FFE00001FFFFC00003FFE000
310
01FFFF0003FFFFFFFFF8000FFFF80003F000F00003FFC00007FC0007FFF80000
310
7FFF8001FF80007FF00007FF80000FFF00007FF80000FFF8000001FFFE000000
310
7F80000000000001FFE000003E000003FFFFE000003E000003FFFF0003FFFFFF
310
FFF80003FFE00007F000F800000000000FFC0007FFF800007FFF8001FF80007F
310
F000000000000FFF000000000000FFF8000001FFFE0000007F80000000000001
310
FFF0000000000007FFFFF0000000000007FFFF0003FFFFFFFFFC00007E000007
310
F000F800000000000FFC0007FFF80000FFFF8000FF80007FF800000000001FFF
310
800000000001FFF8000001FFFE0000007F80000000000001FFF800000000000F
310
FFFFF800000000000FFFFF0003FFFFFFFFFC00000000000FF000FC0000000000
310
1FFC0007FFFC0000FFFF8000FF80007FF800000000003FFFC00000000001FFF8
310
000001FFFE0000007F80000000000001FFF800000000000FFFFFF80000000000
310
0FFFFF0003FFFFFFFFFE00000000001FF000FE00000000003FF8000FFFFC0000
310
FFFF8000FF80007FFC00000000003FFFC00000000003FFF8000001FFFE000000
310
7F80000000000001FFFC00000000001FFFFFFC00000000001FFFFF0003FFFFFF
310
FFFF00000000001FF000FF00000000003FF8000FFFFC0000FFFFC000FF80007F
310
FE00000000007FFFE00000000007FFF8000001FFFE0000007F80000000000001
310
FFFE00000000003FFFFFFE00000000003FFFFF0003FFFFFFFFFF80000000003F
310
F000FF80000000007FF8000FFFFC0001FFFFC0007F80007FFF0000000000FFFF
310
F0000000000FFFF800000000000000007F80000000000001FFFF8000000000FF
310
FFFFFF8000000000FFFFFF0003FFFFFFFFFFC0000000007FF000FFC000000000
310
FFF8000FFFFE0001FFFFC0007F80007FFF8000000001FFFFF8000000001FFFF8
310
00000000000000007F80000000000001FFFFC000000001FFFFFFFFC000000001
310
FFFFFF0003FFFFFFFFFFE000000000FFF000FFE000000003FFF0001FFFFE0001
310
FFFFC0007F80007FFFC000000007FFFFFE000000003FFFF80000000000000000
310
7F80000000000001FFFFE000000003FFFFFFFFE000000003FFFFFF0003FFFFFF
310
FFFFF000000003FFF000FFF80000000FFFF0001FFFFE0001FFFFE0007F80007F
310
FFF00000000FFFFFFF00000000FFFFF800000000000000007F80000000000001
310
FFFFF80000000FFFFFFFFFF80000000FFFFFFF0003FFFFFFFFFFFC0000000FFF
310
F000FFFE0000003FFFF0001FFFFE0003FFFFE0003F80007FFFFC0000003FFFFF
310
FFC0000003FFFFF800000000000000007F80000000000001FFFFFE0000003FFF
310
FFFFFFFE0000003FFFFFFF0003FFFFFFFFFFFF0000003FFFF000FFFF800000FF
310
FFF0001FFFFF0003FFFFE0003F80007FFFFF000001FFFFFFFFF800001FFFFFF8
310
00000000000000007F80000000000001FFFFFFC00001FFFFFFFFFFFFC00001FF
310
FFFFFF0003FFFFFFFFFFFFC00000FFFFF000FFFFF8000FFFFFFFFFFFFFFFFFFF
310
FFFFFFFFFFFFFFFFFFFFF0001FFFFFFFFFFF0000FFFFFFF80000000000000000
310
7FFFFFFFFFFFFFFFFFFFFFFC001FFFFFFFFFFFFFFC001FFFFFFFFFFFFFFFFFFF
310
FFFFFFFC001FFFFFF000FFFFFFFFFFFFFFFFFFFFFFFFFFFFFFFFFFFFFFFFFFFF
310
FFFFFFFFFFFFFFFFFFFFFFFFFFFFFFFFFFFFFFFFFFFFFFFFFFFFFFFFFFFFFFFF
310
FFFFFFFFFFFFFFFFFFFFFFFFFFFFFFFFFFFFFFFFFFFFFFFFFFFFFFFFFFFFFFFF
310
F000FFFFFFFFFFFFFFFFFFFFFFFFFFFFFFFFFFFFFFFFFFFFFFFFFFFFFFFFFFFF
310
FFFFFFFFFFFFFFFFFFFFFFFFFFFFFFFFFFFFFFFFFFFFFFFFFFFFFFFFFFFFFFFF
310
FFFFFFFFFFFFFFFFFFFFFFFFFFFFFFFFFFFFFFFFFFFFFFFFF000FFFFFFFFFFFF
310
FFFFFFFFFFFFFFFFFFFFFFFFFFFFFFFFFFFFFFFFFFFFFFFFFFFFFFFFFFFFFFFF
310
FFFFFFFFFFFFFFFFFFFFFFFFFFFFFFFFFFFFFFFFFFFFFFFFFFFFFFFFFFFFFFFF
310
FFFFFFFFFFFFFFFFFFFFFFFFFFFFFFFFF000FFFFFFFFFFFFFFFFFFFFFFFFFFFF
310
FFFFFFFFFFFFFFFFFFFFFFFFFFFFFFFFFFFFFFFFFFFFFFFFFFFFFFFFFFFFFFFF
310
FFFFFFFFFFFFFFFFFFFFFFFFFFFFFFFFFFFFFFFFFFFFFFFFFFFFFFFFFFFFFFFF
310
FFFFFFFFFFFFFFFFF000FFFFFFFFFFFFFFFFFFFFFFFFFFFFFFFFFFFFFFFFFFFF
310
FFFFFFFFFFFFFFFFFFFFFFFFFFFFFFFFFFFFFFFFFFFFFFFFFFFFFFFFFFFFFFFF
310
FFFFFFFFFFFFFFFFFFFFFFFFFFFFFFFFFFFFFFFFFFFFFFFFFFFFFFFFFFFFFFFF
310
F000FFFFFFFFFFFFFFFFFFFFFFFFFFFFFFFFFFFFFFFFFFFFFFFFFFFFFFFFFFFF
310
FFFFFFFFFFFFFFFFFFFFFFFFFFFFFFFFFFFFFFFFFFFFFFFFFFFFFFFFFFFFFFFF
310
FFFFFFFFFFFFFFFFFFFFFFFFFFFFFFFFFFFFFFFFFFFFFFFFF000FFFFFFFFFFFF
310
FFFFFFFFFFFFFFFFFFFFFFFFFFFFFFFFFFFFFFFFFFFFFFFFFFFFFFFFFFFFFFFF
310
FFFFFFFFFFFFFFFFFFFFFFFFFFFFFFFFFFFFFFFFFFFFFFFFFFFFFFFFFFFFFFFF
310
FFFFFFFFFFFFFFFFFFFFFFFFFFFFFFFFF000FFFFFFFFFFFFFFFFFFFFFFFFFFFF
310
FFFFFFFFFFFFFFFFFFFFFFFFFFFFFFFFFFFFFFFFFFFFFFFFFFFFFFFFFFFFFFFF
310
FFFFFFFFFFFFFFFFFFFFFFFFFFFFFFFFFFFFFFFFFFFFFFFFFFFFFFFFFFFFFFFF
310
FFFFFFFFFFFFFFFFF000FFFFFFFFFFFFFFFFFFFFFFFFFFFFFFFFFFFFFFFFFFFF
310
FFFFFFFFFFFFFFFFFFFFFFFFFFFFFFFFFFFFFFFFFFFFFFFFFFFFFFFFFFFFFFFF
310
FFFFFFFFFFFFFFFFFFFFFFFFFFFFFFFFFFFFFFFFFFFFFFFFFFFFFFFFFFFFFFFF
310
F000FFFFFFFFFFFFFFFFFFFFFFFFFFFFFFFFFFFFFFFFFFFFFFFFFFFFFFFFFFFF
310
FFFFFFFFFFFFFFFFFFFFFFFFFFFFFFFFFFFFFFFFFFFFFFFFFFFFFFFFFFFFFFFF
310
FFFFFFFFFFFFFFFFFFFFFFFFFFFFFFFFFFFFFFFFFFFFFFFFF000FFFFFFFFFFFF
310
FFFFFFFFFFFFFFFFFFFFFFFFFFFFFFFFFFFFFFFFFFFFFFFFFFFFFFFFFFFFFFFF
310
FFFFFFFFFFFFFFFFFFFFFFFFFFFFFFFFFFFFFFFFFFFFFFFFFFFFFFFFFFFFFFFF
310
FFFFFFFFFFFFFFFFFFFFFFFFFFFFFFFFF000FFFFFFFFFFFFFFFFFFFFFFFFFFFF
310
FFFFFFFFFFFFFFFFFFFFFFFFFFFFFFFFFFFFFFFFFFFFFFFFFFFFFFFFFFFFFFFF
310
FFFFFFFFFFFFFFFFFFFFFFFFFFFFFFFFFFFFFFFFFFFFFFFFFFFFFFFFFFFFFFFF
310
FFFFFFFFFFFFFFFFF000FFFFFFFFFFFFFFFFFFFFFFFFFFFFFFFFFFFFFFFFFFFF
310
FFFFFFFFFFFFFFFFFFFFFFFFFFFFFFFFFFFFFFFFFFFFFFFFFFFFFFFFFFFFFFFF
310
FFFFFFFFFFFFFFFFFFFFFFFFFFFFFFFFFFFFFFFFFFFFFFFFFFFFFFFFFFFFFFFF
310
F000FFFFFFFFFFFFFFFFFFFFFFFFFFFFFFFFFFFFFFFFFFFFFFFFFFFFFFFFFFFF
310
FFFFFFFFFFFFFFFFFFFFFFFFFFFFFFFFFFFFFFFFFFFFFFFFFFFFFFFFFFFFFFFF
310
FFFFFFFFFFFFFFFFFFFFFFFFFFFFFFFFFFFFFFFFFFFFFFFFF000FFFFFFFFFFFF
310
FFFFFFFFFFFFFFFFFFFFFFFFFFFFFFFFFFFFFFFFFFFFFFFFFFFFFFFFFFFFFFFF
310
FFFFFFFFFFFFFFFFFFFFFFFFFFFFFFFFFFFFFFFFFFFFFFFFFFFFFFFFFFFFFFFF
310
FFFFFFFFFFFFFFFFFFFFFFFFFFFFFFFFF000FFFFFFFFFFFFFFFFFFFFFFFFFFFF
310
FFFFFFFFFFFFFFFFFFFFFFFFFFFFFFFFFFFFFFFFFFFFFFFFFFFFFFFFFFFFFFFF
310
FFFFFFFFFFFFFFFFFFFFFFFFFFFFFFFFFFFFFFFFFFFFFFFFFFFFFFFFFFFFFFFF
310
FFFFFFFFFFFFFFFFF000FFFFFFFFFFFFFFFFFFFFFFFFFFFFFFFFFFFFFFFFFFFF
310
FFFFFFFFFFFFFFFFFFFFFFFFFFFFFFFFFFFFFFFFFFFFFFFFFFFFFFFFFFFFFFFF
310
FFFFFFFFFFFFFFFFFFFFFFFFFFFFFFFFFFFFFFFFFFFFFFFFFFFFFFFFFFFFFFFF
310
F000FFFFFFFFFFFFFFFFFFFFFFFFFFFFFFFFFFFFFFFFFFFFFFFFFFFFFFFFFFFF
310
FFFFFFFFFFFFFFFFFFFFFFFFFFFFFFFFFFFFFFFFFFFFFFFFFFFFFFFFFFFFFFFF
310
FFFFFFFFFFFFFFFFFFFFFFFFFFFFFFFFFFFFFFFFFFFFFFFFF000FFFFFFFFFFFF
310
FFFFFFFFFFFFFFFFFFFFFFFFFFFFFFFFFFFFFFFFFFFFFFFFFFFFFFFFFFFFFFFF
310
FFFFFFFFFFFFFFFFFFFFFFFFFFFFFFFFFFFFFFFFFFFFFFFFFFFFFFFFFFFFFFFF
310
FFFFFFFFFFFFFFFFFFFFFFFFFFFFFFFFF000FFFFFFFFFFFFFFFFFFFFFFFFFFFF
310
FFFFFFFFFFFFFFFFFFFFFFFFFFFFFFFFFFFFFFFFFFFFFFFFFFFFFFFFFFFFFFFF
310
FFFFFFFFFFFFFFFFFFFFFFFFFFFFFFFFFFFFFFFFFFFFFFFFFFFFFFFFFFFFFFFF
310
FFFFFFFFFFFFFFFFF000FFFFFFFFFFFFFFFFFFFFFFFFFFFFFFFFFFFFFFFFFFFF
310
FFFFFFFFFFFFFFFFFFFFFFFFFFFFFFFFFFFFFFFFFFFFFFFFFFFFFFFFFFFFFFFF
310
FFFFFFFFFFFFFFFFFFFFFFFFFFFFFFFFFFFFFFFFFFFFFFFFFFFFFFFFFFFFFFFF
310
F000FFFFFFFFFFFFFFFFFFFFFFFFFFFFFFFFFFFFFFFFFFFFFFFFFFFFFFFFFFFF
310
FFFFFFFFFFFFFFFFFFFFFFFFFFFFFFFFFFFFFFFFFFFFFFFFFFFFFFFFFFFFFFFF
310
FFFFFFFFFFFFFFFFFFFFFFFFFFFFFFFFFFFFFFFFFFFFFFFFF000FFFFFFFFFFFF
310
FFFFFFFFFFFFFFFFFFFFFFFFFFFFFFFFFFFFFFFFFFFFFFFFFFFFFFFFFFFFFFFF
310
FFFFFFFFFFFFFFFFFFFFFFFFFFFFFFFFFFFFFFFFFFFFFFFFFFFFFFFFFFFFFFFF
310
FFFFFFFFFFFFFFFFFFFFFFFFFFFFFFFFF0000000000000000000000000000000
310
0000000000000000000000000000000000000000000000000000000000000000
310
0000000000000000000000000000000000000000000000000000000000000000
310
0000000000000000000000000000000000000000000000000000000000000000
310
0000000000000000000000000000000000000000000000000000000000000000
310
0000000000000000000000000000000000000000000000000000000000000000
310
0000000000000000000000000000000000000000000000000000000000000000
310
0000000000000000000000000000000000000000000000000000000000000000
310
0000000000000000000000000000000000000000000000000000000000000000
310
0000000000000000000000000000000000000000000000000000000000000000
310
0000000000000000000000000000000000000000000000000000000000000000
310
0000000000000000000000000000000000000000000000000000000000000000
310
0000000000000000000000000000000000000000000000000000000000000000
310
0000000000000000000000000000000000000000000000000000000000000000
310
0000000000000000000000000000000000000000000000000000000000000000
310
0000000000000000000000000000000000000000000000000000000000000000
  1
OLE
  0
ENDSEC
  0
SECTION
  2
OBJECTS
  0
DICTIONARY
  5
C
330
0
100
AcDbDictionary
281
     1
  3
ACAD_GROUP
350
D
  3
ACAD_LAYOUT
350
1A
  3
ACAD_MLINESTYLE
350
17
  3
ACAD_PLOTSETTINGS
350
19
  3
ACAD_PLOTSTYLENAME
350
E
  0
DICTIONARY
  5
D
102
{ACAD_REACTORS
330
C
102
}
330
C
100
AcDbDictionary
281
     1
  0
DICTIONARY
  5
1A
102
{ACAD_REACTORS
330
C
102
}
330
C
100
AcDbDictionary
281
     1
  3
Layout1
350
1E
  3
Layout2
350
26
  3
Model
350
22
  0
DICTIONARY
  5
17
102
{ACAD_REACTORS
330
C
102
}
330
C
100
AcDbDictionary
281
     1
  3
Standard
350
18
  0
DICTIONARY
  5
19
102
{ACAD_REACTORS
330
C
102
}
330
C
100
AcDbDictionary
281
     1
  0
ACDBDICTIONARYWDFLT
  5
E
102
{ACAD_REACTORS
330
C
102
}
330
C
100
AcDbDictionary
281
     1
  3
Normal
350
F
100
AcDbDictionaryWithDefault
340
F
  0
LAYOUT
  5
1E
102
{ACAD_REACTORS
330
1A
102
}
330
1A
100
AcDbPlotSettings
  1

  2
none_device
  4

  6

 40
0.0
 41
0.0
 42
0.0
 43
0.0
 44
0.0
 45
0.0
 46
0.0
 47
0.0
 48
0.0
 49
0.0
140
0.0
141
0.0
142
1.0
143
1.0
 70
   688
 72
     0
 73
     0
 74
     5
  7

 75
    16
147
1.0
148
0.0
149
0.0
100
AcDbLayout
  1
Layout1
 70
     1
 71
     1
 10
0.0
 20
0.0
 11
420.0
 21
297.0
 12
0.0
 22
0.0
 32
0.0
 14
1.0000000000E+20
 24
1.0000000000E+20
 34
1.0000000000E+20
 15
-1.0000000000E+20
 25
-1.0000000000E+20
 35
-1.0000000000E+20
146
0.0
 13
0.0
 23
0.0
 33
0.0
 16
1.0
 26
0.0
 36
0.0
 17
0.0
 27
1.0
 37
0.0
 76
     0
330
1B
  0
LAYOUT
  5
26
102
{ACAD_REACTORS
330
1A
102
}
330
1A
100
AcDbPlotSettings
  1

  2
none_device
  4

  6

 40
0.0
 41
0.0
 42
0.0
 43
0.0
 44
0.0
 45
0.0
 46
0.0
 47
0.0
 48
0.0
 49
0.0
140
0.0
141
0.0
142
1.0
143
1.0
 70
   688
 72
     0
 73
     0
 74
     5
  7

 75
    16
147
1.0
148
0.0
149
0.0
100
AcDbLayout
  1
Layout2
 70
     1
 71
     2
 10
0.0
 20
0.0
 11
0.0
 21
0.0
 12
0.0
 22
0.0
 32
0.0
 14
0.0
 24
0.0
 34
0.0
 15
0.0
 25
0.0
 35
0.0
146
0.0
 13
0.0
 23
0.0
 33
0.0
 16
1.0
 26
0.0
 36
0.0
 17
0.0
 27
1.0
 37
0.0
 76
     0
330
23
  0
LAYOUT
  5
22
102
{ACAD_REACTORS
330
1A
102
}
330
1A
100
AcDbPlotSettings
  1

  2
none_device
  4

  6

 40
0.0
 41
0.0
 42
0.0
 43
0.0
 44
0.0
 45
0.0
 46
0.0
 47
0.0
 48
0.0
 49
0.0
140
0.0
141
0.0
142
1.0
143
1.0
 70
  1712
 72
     0
 73
     0
 74
     0
  7

 75
     0
147
1.0
148
0.0
149
0.0
100
AcDbLayout
  1
Model
 70
     1
 71
     0
 10
0.0
 20
0.0
 11
297.0
 21
210.0
 12
0.0
 22
0.0
 32
0.0
 14
0.0
 24
0.0
 34
0.0
 15
297.0
 25
210.0
 35
0.0
146
0.0
 13
0.0
 23
0.0
 33
0.0
 16
1.0
 26
0.0
 36
0.0
 17
0.0
 27
1.0
 37
0.0
 76
     0
330
1F
331
29
  0
MLINESTYLE
  5
18
102
{ACAD_REACTORS
330
17
102
}
330
17
100
AcDbMlineStyle
  2
Standard
 70
     0
  3

 62
   256
 51
90.0
 52
90.0
 71
     2
 49
0.5
 62
   256
  6
BYLAYER
 49
-0.5
 62
   256
  6
BYLAYER
  0
ACDBPLACEHOLDER
  5
F
102
{ACAD_REACTORS
330
E
102
}
330
E
  0
ENDSEC
  0
EOF
