  0
SECTION
  2
HEADER
  9
$ACADVER
  1
AC1015
  9
$ACADMAINTVER
 70
     6
  9
$DWGCODEPAGE
  3
ANSI_1252
  9
$INSBASE
 10
0.0
 20
0.0
 30
0.0
  9
$EXTMIN
 10
0.0
 20
0.0
 30
0.0
  9
$EXTMAX
 10
297.0
 20
210.0
 30
0.0
  9
$LIMMIN
 10
0.0
 20
0.0
  9
$LIMMAX
 10
297.0
 20
210.0
  9
$ORTHOMODE
 70
     0
  9
$REGENMODE
 70
     1
  9
$FILLMODE
 70
     1
  9
$QTEXTMODE
 70
     0
  9
$MIRRTEXT
 70
     1
  9
$LTSCALE
 40
1.0
  9
$ATTMODE
 70
     1
  9
$TEXTSIZE
 40
2.0
  9
$TRACEWID
 40
1.0
  9
$TEXTSTYLE
  7
Standard
  9
$CLAYER
  8
0
  9
$CELTYPE
  6
ByLayer
  9
$CECOLOR
 62
   256
  9
$CELTSCALE
 40
1.0
  9
$DISPSILH
 70
     0
  9
$DIMSCALE
 40
1.0
  9
$DIMASZ
 40
3.0
  9
$DIMEXO
 40
0.0
  9
$DIMDLI
 40
3.75
  9
$DIMRND
 40
0.0
  9
$DIMDLE
 40
0.0
  9
$DIMEXE
 40
1.0
  9
$DIMTP
 40
0.0
  9
$DIMTM
 40
0.0
  9
$DIMTXT
 40
2.0
  9
$DIMCEN
 40
2.5
  9
$DIMTSZ
 40
0.0
  9
$DIMTOL
 70
     0
  9
$DIMLIM
 70
     0
  9
$DIMTIH
 70
     1
  9
$DIMTOH
 70
     1
  9
$DIMSE1
 70
     0
  9
$DIMSE2
 70
     0
  9
$DIMTAD
 70
     1
  9
$DIMZIN
 70
     0
  9
$DIMBLK
  1

  9
$DIMASO
 70
     1
  9
$DIMSHO
 70
     1
  9
$DIMPOST
  1

  9
$DIMAPOST
  1

  9
$DIMALT
 70
     0
  9
$DIMALTD
 70
     3
  9
$DIMALTF
 40
0.0393700787
  9
$DIMLFAC
 40
2.0
  9
$DIMTOFL
 70
     1
  9
$DIMTVP
 40
0.0
  9
$DIMTIX
 70
     0
  9
$DIMSOXD
 70
     0
  9
$DIMSAH
 70
     0
  9
$DIMBLK1
  1

  9
$DIMBLK2
  1

  9
$DIMSTYLE
  2
ISO-25
  9
$DIMCLRD
 70
     0
  9
$DIMCLRE
 70
     0
  9
$DIMCLRT
 70
     0
  9
$DIMTFAC
 40
1.0
  9
$DIMGAP
 40
1.524
  9
$DIMJUST
 70
     0
  9
$DIMSD1
 70
     0
  9
$DIMSD2
 70
     0
  9
$DIMTOLJ
 70
     0
  9
$DIMTZIN
 70
     0
  9
$DIMALTZ
 70
     0
  9
$DIMALTTZ
 70
     0
  9
$DIMUPT
 70
     0
  9
$DIMDEC
 70
     2
  9
$DIMTDEC
 70
     3
  9
$DIMALTU
 70
     2
  9
$DIMALTTD
 70
     3
  9
$DIMTXSTY
  7
Standard
  9
$DIMAUNIT
 70
     0
  9
$DIMADEC
 70
     2
  9
$DIMALTRND
 40
0.0
  9
$DIMAZIN
 70
     0
  9
$DIMDSEP
 70
    44
  9
$DIMATFIT
 70
     3
  9
$DIMFRAC
 70
     0
  9
$DIMLDRBLK
  1

  9
$DIMLUNIT
 70
     2
  9
$DIMLWD
 70
    -2
  9
$DIMLWE
 70
    -2
  9
$DIMTMOVE
 70
     0
  9
$LUNITS
 70
     2
  9
$LUPREC
 70
     2
  9
$SKETCHINC
 40
1.0
  9
$FILLETRAD
 40
10.0
  9
$AUNITS
 70
     0
  9
$AUPREC
 70
     2
  9
$MENU
  1
.
  9
$ELEVATION
 40
0.0
  9
$PELEVATION
 40
0.0
  9
$THICKNESS
 40
0.0
  9
$LIMCHECK
 70
     0
  9
$CHAMFERA
 40
0.0
  9
$CHAMFERB
 40
0.0
  9
$CHAMFERC
 40
0.0
  9
$CHAMFERD
 40
0.0
  9
$SKPOLY
 70
     0
  9
$TDCREATE
 40
2458162.651585903
  9
$TDUCREATE
 40
2458162.609919236
  9
$TDUPDATE
 40
2458162.651587824
  9
$TDUUPDATE
 40
2458162.609921157
  9
$TDINDWG
 40
0.0000000116
  9
$TDUSRTIMER
 40
0.0000000116
  9
$USRTIMER
 70
     1
  9
$ANGBASE
 50
0.0
  9
$ANGDIR
 70
     0
  9
$PDMODE
 70
     0
  9
$PDSIZE
 40
-1.0
  9
$PLINEWID
 40
0.0
  9
$SPLFRAME
 70
     0
  9
$SPLINETYPE
 70
     6
  9
$SPLINESEGS
 70
     8
  9
$HANDSEED
  5
1D2
  9
$SURFTAB1
 70
     6
  9
$SURFTAB2
 70
     6
  9
$SURFTYPE
 70
     6
  9
$SURFU
 70
     6
  9
$SURFV
 70
     6
  9
$UCSBASE
  2

  9
$UCSNAME
  2

  9
$UCSORG
 10
0.0
 20
0.0
 30
0.0
  9
$UCSXDIR
 10
1.0
 20
0.0
 30
0.0
  9
$UCSYDIR
 10
0.0
 20
1.0
 30
0.0
  9
$UCSORTHOREF
  2

  9
$UCSORTHOVIEW
 70
     0
  9
$UCSORGTOP
 10
0.0
 20
0.0
 30
0.0
  9
$UCSORGBOTTOM
 10
0.0
 20
0.0
 30
0.0
  9
$UCSORGLEFT
 10
0.0
 20
0.0
 30
0.0
  9
$UCSORGRIGHT
 10
0.0
 20
0.0
 30
0.0
  9
$UCSORGFRONT
 10
0.0
 20
0.0
 30
0.0
  9
$UCSORGBACK
 10
0.0
 20
0.0
 30
0.0
  9
$PUCSBASE
  2

  9
$PUCSNAME
  2

  9
$PUCSORG
 10
0.0
 20
0.0
 30
0.0
  9
$PUCSXDIR
 10
1.0
 20
0.0
 30
0.0
  9
$PUCSYDIR
 10
0.0
 20
1.0
 30
0.0
  9
$PUCSORTHOREF
  2

  9
$PUCSORTHOVIEW
 70
     0
  9
$PUCSORGTOP
 10
0.0
 20
0.0
 30
0.0
  9
$PUCSORGBOTTOM
 10
0.0
 20
0.0
 30
0.0
  9
$PUCSORGLEFT
 10
0.0
 20
0.0
 30
0.0
  9
$PUCSORGRIGHT
 10
0.0
 20
0.0
 30
0.0
  9
$PUCSORGFRONT
 10
0.0
 20
0.0
 30
0.0
  9
$PUCSORGBACK
 10
0.0
 20
0.0
 30
0.0
  9
$USERI1
 70
     0
  9
$USERI2
 70
     0
  9
$USERI3
 70
     0
  9
$USERI4
 70
     0
  9
$USERI5
 70
     0
  9
$USERR1
 40
0.0
  9
$USERR2
 40
0.0
  9
$USERR3
 40
0.0
  9
$USERR4
 40
0.0
  9
$USERR5
 40
0.0
  9
$WORLDVIEW
 70
     1
  9
$SHADEDGE
 70
     3
  9
$SHADEDIF
 70
    70
  9
$TILEMODE
 70
     1
  9
$MAXACTVP
 70
    64
  9
$PINSBASE
 10
0.0
 20
0.0
 30
0.0
  9
$PLIMCHECK
 70
     0
  9
$PEXTMIN
 10
1.0000000000E+20
 20
1.0000000000E+20
 30
1.0000000000E+20
  9
$PEXTMAX
 10
-1.0000000000E+20
 20
-1.0000000000E+20
 30
-1.0000000000E+20
  9
$PLIMMIN
 10
0.0
 20
0.0
  9
$PLIMMAX
 10
420.0
 20
297.0
  9
$UNITMODE
 70
     0
  9
$VISRETAIN
 70
     1
  9
$PLINEGEN
 70
     0
  9
$PSLTSCALE
 70
     1
  9
$TREEDEPTH
 70
  3020
  9
$CMLSTYLE
  2
Standard
  9
$CMLJUST
 70
     0
  9
$CMLSCALE
 40
20.0
  9
$PROXYGRAPHICS
 70
     1
  9
$MEASUREMENT
 70
     1
  9
$CELWEIGHT
370
    -1
  9
$ENDCAPS
280
     0
  9
$JOINSTYLE
280
     0
  9
$LWDISPLAY
290
     1
  9
$INSUNITS
 70
     4
  9
$HYPERLINKBASE
  1

  9
$STYLESHEET
  1

  9
$XEDIT
290
     1
  9
$CEPSNTYPE
380
     0
  9
$PSTYLEMODE
290
     1
  9
$FINGERPRINTGUID
  2
{F847C879-5E45-4C36-9727-430345669BCC}
  9
$VERSIONGUID
  2
{FAEB1C32-E019-11D5-929B-00C0DF256EC4}
  9
$EXTNAMES
290
     1
  9
$PSVPSCALE
 40
0.0
  9
$OLESTARTUP
290
     0
  0
ENDSEC
  0
SECTION
  2
CLASSES
  0
CLASS
  1
ACDBDICTIONARYWDFLT
  2
AcDbDictionaryWithDefault
  3
ObjectDBX Classes
 90
        0
280
     0
281
     0
  0
CLASS
  1
VISUALSTYLE
  2
AcDbVisualStyle
  3
ObjectDBX Classes
 90
     4095
280
     0
281
     0
  0
CLASS
  1
MATERIAL
  2
AcDbMaterial
  3
ObjectDBX Classes
 90
     1153
280
     0
281
     0
  0
CLASS
  1
SCALE
  2
AcDbScale
  3
ObjectDBX Classes
 90
     1153
280
     0
281
     0
  0
CLASS
  1
TABLESTYLE
  2
AcDbTableStyle
  3
ObjectDBX Classes
 90
     4095
280
     0
281
     0
  0
CLASS
  1
MLEADERSTYLE
  2
AcDbMLeaderStyle
  3
ACDB_MLEADERSTYLE_CLASS
 90
     4095
280
     0
281
     0
  0
CLASS
  1
SUN
  2
AcDbSun
  3
SCENEOE
 90
     1153
280
     0
281
     0
  0
CLASS
  1
ACDBPLACEHOLDER
  2
AcDbPlaceHolder
  3
ObjectDBX Classes
 90
        0
280
     0
281
     0
  0
CLASS
  1
LAYOUT
  2
AcDbLayout
  3
ObjectDBX Classes
 90
        0
280
     0
281
     0
  0
ENDSEC
  0
SECTION
  2
TABLES
  0
TABLE
  2
VPORT
  5
8
330
0
100
AcDbSymbolTable
 70
     1
  0
VPORT
  5
29
330
8
100
AcDbSymbolTableRecord
100
AcDbViewportTableRecord
  2
*Active
 70
     0
 10
0.0
 20
0.0
 11
1.0
 21
1.0
 12
148.5
 22
105.0
 13
0.0
 23
0.0
 14
10.0
 24
10.0
 15
10.0
 25
10.0
 16
0.0
 26
0.0
 36
1.0
 17
0.0
 27
0.0
 37
0.0
 40
210.0
 41
1.4142857143
 42
50.0
 43
0.0
 44
0.0
 50
0.0
 51
0.0
 71
     0
 72
  2000
 73
     1
 74
     3
 75
     0
 76
     0
 77
     0
 78
     0
281
     0
 65
     1
110
0.0
120
0.0
130
0.0
111
1.0
121
0.0
131
0.0
112
0.0
122
1.0
132
0.0
 79
     0
146
0.0
  0
ENDTAB
  0
TABLE
  2
LTYPE
  5
5
330
0
100
AcDbSymbolTable
 70
     6
  0
LTYPE
  5
14
330
5
100
AcDbSymbolTableRecord
100
AcDbLinetypeTableRecord
  2
ByBlock
 70
     0
  3

 72
    65
 73
     0
 40
0.0
  0
LTYPE
  5
15
330
5
100
AcDbSymbolTableRecord
100
AcDbLinetypeTableRecord
  2
ByLayer
 70
     0
  3

 72
    65
 73
     0
 40
0.0
  0
LTYPE
  5
16
330
5
100
AcDbSymbolTableRecord
100
AcDbLinetypeTableRecord
  2
Continuous
 70
     0
  3
Solid line
 72
    65
 73
     0
 40
0.0
  0
LTYPE
  5
6E
330
5
100
AcDbSymbolTableRecord
100
AcDbLinetypeTableRecord
  2
HIDDEN
 70
     0
  3
Hidden __ __ __ __ __ __ __ __ __ __ __ __ __ __
 72
    65
 73
     2
 40
1.905
 49
1.27
 74
     0
 49
-0.635
 74
     0
  0
LTYPE
  5
6F
330
5
100
AcDbSymbolTableRecord
100
AcDbLinetypeTableRecord
  2
PHANTOM
 70
     0
  3
Phantom ______  __  __  ______  __  __  ______
 72
    65
 73
     6
 40
12.7
 49
6.35
 74
     0
 49
-1.27
 74
     0
 49
1.27
 74
     0
 49
-1.27
 74
     0
 49
1.27
 74
     0
 49
-1.27
 74
     0
  0
LTYPE
  5
70
330
5
100
AcDbSymbolTableRecord
100
AcDbLinetypeTableRecord
  2
CENTER
 70
     0
  3
Center ____ _ ____ _ ____ _ ____ _ ____ _ ____
 72
    65
 73
     4
 40
10.16
 49
6.35
 74
     0
 49
-1.27
 74
     0
 49
1.27
 74
     0
 49
-1.27
 74
     0
  0
LTYPE
  5
71
330
5
100
AcDbSymbolTableRecord
100
AcDbLinetypeTableRecord
  2
CENTERX2
 70
     0
  3
Center (2x) ________  __  ________  __  _____
 72
    65
 73
     4
 40
20.32
 49
12.7
 74
     0
 49
-2.54
 74
     0
 49
2.54
 74
     0
 49
-2.54
 74
     0
  0
LTYPE
  5
72
330
5
100
AcDbSymbolTableRecord
100
AcDbLinetypeTableRecord
  2
DOT2
 70
     0
  3
Dot (.5x) ........................................
 72
    65
 73
     2
 40
0.635
 49
0.0
 74
     0
 49
-0.635
 74
     0
  0
ENDTAB
  0
TABLE
  2
LAYER
  5
2
330
0
100
AcDbSymbolTable
 70
     5
  0
LAYER
  5
10
330
2
100
AcDbSymbolTableRecord
100
AcDbLayerTableRecord
  2
0
 70
     0
 62
     7
  6
Continuous
370
    -3
390
F
  0
LAYER
  5
73
330
2
100
AcDbSymbolTableRecord
100
AcDbLayerTableRecord
  2
FORMAT
 70
     0
 62
     7
  6
Continuous
370
    -3
390
F
  0
LAYER
  5
74
330
2
100
AcDbSymbolTableRecord
100
AcDbLayerTableRecord
  2
VERMASSUNG
 70
     0
 62
     7
  6
Continuous
370
    -3
390
F
  0
LAYER
  5
75
330
2
100
AcDbSymbolTableRecord
100
AcDbLayerTableRecord
  2
KOPF_DÜNN
 70
     0
 62
     7
  6
Continuous
370
    -3
390
F
  0
LAYER
  5
76
330
2
100
AcDbSymbolTableRecord
100
AcDbLayerTableRecord
  2
KOPF_DICK
 70
     0
 62
     7
  6
Continuous
370
    25
390
F
  0
ENDTAB
  0
TABLE
  2
STYLE
  5
3
330
0
100
AcDbSymbolTable
 70
     2
  0
STYLE
  5
11
330
3
100
AcDbSymbolTableRecord
100
AcDbTextStyleTableRecord
  2
Standard
 70
     0
 40
0.0
 41
1.0
 50
0.0
 71
     0
 42
2.0
  3
txt
  4

  0
STYLE
  5
77
330
3
100
AcDbSymbolTableRecord
100
AcDbTextStyleTableRecord
  2
SLDTEXTSTYLE0
 70
     0
 40
0.0
 41
0.7
 50
0.0
 71
     0
 42
2.0
  3
TXT
  4

  0
ENDTAB
  0
TABLE
  2
VIEW
  5
6
330
0
100
AcDbSymbolTable
 70
     0
  0
ENDTAB
  0
TABLE
  2
UCS
  5
7
330
0
100
AcDbSymbolTable
 70
     0
  0
ENDTAB
  0
TABLE
  2
APPID
  5
9
330
0
100
AcDbSymbolTable
 70
     1
  0
APPID
  5
12
330
9
100
AcDbSymbolTableRecord
100
AcDbRegAppTableRecord
  2
ACAD
 70
     0
  0
ENDTAB
  0
TABLE
  2
DIMSTYLE
  5
A
330
0
100
AcDbSymbolTable
 70
     3
100
AcDbDimStyleTable
  0
DIMSTYLE
105
27
330
A
100
AcDbSymbolTableRecord
100
AcDbDimStyleTableRecord
  2
ISO-25
 70
     0
 41
2.5
 42
0.625
 43
3.75
 44
1.25
 73
     0
 74
     0
 77
     1
 78
     8
140
2.5
141
2.5
143
0.0393700787
147
0.625
171
     3
172
     1
178
     0
271
     2
272
     2
274
     3
278
    44
283
     0
284
     8
340
11
  0
DIMSTYLE
105
E2
102
{ACAD_REACTORS
330
E1
330
EC
330
F6
330
100
330
143
330
14C
102
}
330
A
100
AcDbSymbolTableRecord
100
AcDbDimStyleTableRecord
  2
SLDDIMSTYLE0
 70
     0
 41
3.0
 44
0.0
 45
0.000000001
 73
     0
 74
     0
 77
     1
 78
    12
 79
     3
140
2.0
147
0.5
173
     1
178
     0
271
     2
272
     3
276
     2
284
    12
340
77
  0
DIMSTYLE
105
12B
102
{ACAD_REACTORS
330
12A
330
138
102
}
330
A
100
AcDbSymbolTableRecord
100
AcDbDimStyleTableRecord
  2
SLDDIMSTYLE1
 70
     0
 41
3.0
 44
0.0
 45
0.000000001
 73
     0
 74
     0
 77
     1
 78
    12
 79
     3
140
2.0
147
0.5
172
     1
173
     1
178
     0
271
     2
272
     3
276
     2
284
    12
289
     0
340
77
  0
ENDTAB
  0
TABLE
  2
BLOCK_RECORD
  5
1
330
0
100
AcDbSymbolTable
 70
    10
  0
BLOCK_RECORD
  5
1F
330
1
100
AcDbSymbolTableRecord
100
AcDbBlockTableRecord
  2
*Model_Space
340
22
  0
BLOCK_RECORD
  5
1B
330
1
100
AcDbSymbolTableRecord
100
AcDbBlockTableRecord
  2
*Paper_Space
340
1E
  0
BLOCK_RECORD
  5
23
330
1
100
AcDbSymbolTableRecord
100
AcDbBlockTableRecord
  2
*Paper_Space0
340
26
  0
BLOCK_RECORD
  5
E3
330
1
100
AcDbSymbolTableRecord
100
AcDbBlockTableRecord
  2
_D
340
0
  0
BLOCK_RECORD
  5
ED
330
1
100
AcDbSymbolTableRecord
100
AcDbBlockTableRecord
  2
_D_1
340
0
  0
BLOCK_RECORD
  5
F7
330
1
100
AcDbSymbolTableRecord
100
AcDbBlockTableRecord
  2
_D_2
340
0
  0
BLOCK_RECORD
  5
101
330
1
100
AcDbSymbolTableRecord
100
AcDbBlockTableRecord
  2
_D_3
340
0
  0
BLOCK_RECORD
  5
12C
330
1
100
AcDbSymbolTableRecord
100
AcDbBlockTableRecord
  2
_D_4
340
0
  0
BLOCK_RECORD
  5
139
330
1
100
AcDbSymbolTableRecord
100
AcDbBlockTableRecord
  2
_D_5
340
0
  0
BLOCK_RECORD
  5
144
330
1
100
AcDbSymbolTableRecord
100
AcDbBlockTableRecord
  2
_D_6
340
0
  0
BLOCK_RECORD
  5
14D
330
1
100
AcDbSymbolTableRecord
100
AcDbBlockTableRecord
  2
_D_7
340
0
  0
BLOCK_RECORD
  5
156
330
1
100
AcDbSymbolTableRecord
100
AcDbBlockTableRecord
  2
SW_CENTERMARKSYMBOL_0
340
0
102
{BLKREFS
331
161
102
}
  0
ENDTAB
  0
ENDSEC
  0
SECTION
  2
BLOCKS
  0
BLOCK
  5
20
330
1F
100
AcDbEntity
  8
0
100
AcDbBlockBegin
  2
*Model_Space
 70
     0
 10
0.0
 20
0.0
 30
0.0
  3
*Model_Space
  1

  0
ENDBLK
  5
21
330
1F
100
AcDbEntity
  8
0
100
AcDbBlockEnd
  0
BLOCK
  5
1C
330
1B
100
AcDbEntity
 67
     1
  8
0
100
AcDbBlockBegin
  2
*Paper_Space
 70
     0
 10
0.0
 20
0.0
 30
0.0
  3
*Paper_Space
  1

  0
ENDBLK
  5
1D
330
1B
100
AcDbEntity
 67
     1
  8
0
100
AcDbBlockEnd
  0
BLOCK
  5
24
330
23
100
AcDbEntity
  8
0
100
AcDbBlockBegin
  2
*Paper_Space0
 70
     0
 10
0.0
 20
0.0
 30
0.0
  3
*Paper_Space0
  1

  0
ENDBLK
  5
25
330
23
100
AcDbEntity
  8
0
100
AcDbBlockEnd
  0
BLOCK
  5
E4
330
E3
100
AcDbEntity
  8
0
100
AcDbBlockBegin
  2
_D
 70
     0
 10
0.0
 20
0.0
 30
0.0
  3
_D
  1

  0
SOLID
  5
E6
330
E3
100
AcDbEntity
  8
VERMASSUNG
100
AcDbTrace
 10
170.7946702743
 20
166.9381089922
 30
0.0
 11
173.7946702743
 21
166.4881089922
 31
0.0
 12
173.7946702743
 22
167.3881089922
 32
0.0
 13
173.7946702743
 23
167.3881089922
 33
0.0
  0
SOLID
  5
E7
330
E3
100
AcDbEntity
  8
VERMASSUNG
100
AcDbTrace
 10
268.7946702743
 20
166.9381089922
 30
0.0
 11
265.7946702743
 21
167.3881089922
 31
0.0
 12
265.7946702743
 22
166.4881089922
 32
0.0
 13
265.7946702743
 23
166.4881089922
 33
0.0
  0
LINE
  5
E8
330
E3
100
AcDbEntity
  8
VERMASSUNG
100
AcDbLine
 10
170.7946702743
 20
143.4846854372
 30
0.0
 11
170.7946702743
 21
167.9381089922
 31
0.0
  0
LINE
  5
E9
330
E3
100
AcDbEntity
  8
VERMASSUNG
100
AcDbLine
 10
268.7946702743
 20
133.7846854372
 30
0.0
 11
268.7946702743
 21
167.9381089922
 31
0.0
  0
LINE
  5
EA
330
E3
100
AcDbEntity
  8
VERMASSUNG
100
AcDbLine
 10
170.7946702743
 20
166.9381089922
 30
0.0
 11
268.7946702743
 21
166.9381089922
 31
0.0
  0
MTEXT
  5
EB
330
E3
100
AcDbEntity
  8
VERMASSUNG
100
AcDbMText
 10
218.3946703242
 20
169.5162445882
 30
0.0
 40
2.0
 41
0.0
 71
     1
 72
     1
  1
98
  7
SLDTEXTSTYLE0
 73
     1
 44
1.0
  0
ENDBLK
  5
E5
330
E3
100
AcDbEntity
  8
0
100
AcDbBlockEnd
  0
BLOCK
  5
EE
330
ED
100
AcDbEntity
  8
0
100
AcDbBlockBegin
  2
_D_1
 70
     0
 10
0.0
 20
0.0
 30
0.0
  3
_D_1
  1

  0
SOLID
  5
F0
330
ED
100
AcDbEntity
  8
VERMASSUNG
100
AcDbTrace
 10
140.7946702743
 20
174.7846854372
 30
0.0
 11
143.7946702743
 21
174.3346854372
 31
0.0
 12
143.7946702743
 22
175.2346854372
 32
0.0
 13
143.7946702743
 23
175.2346854372
 33
0.0
  0
SOLID
  5
F1
330
ED
100
AcDbEntity
  8
VERMASSUNG
100
AcDbTrace
 10
268.7946702743
 20
174.7846854372
 30
0.0
 11
265.7946702743
 21
175.2346854372
 31
0.0
 12
265.7946702743
 22
174.3346854372
 32
0.0
 13
265.7946702743
 23
174.3346854372
 33
0.0
  0
LINE
  5
F2
330
ED
100
AcDbEntity
  8
VERMASSUNG
100
AcDbLine
 10
140.7946702743
 20
130.5480975057
 30
0.0
 11
140.7946702743
 21
175.7846854372
 31
0.0
  0
LINE
  5
F3
330
ED
100
AcDbEntity
  8
VERMASSUNG
100
AcDbLine
 10
268.7946702743
 20
133.7846854372
 30
0.0
 11
268.7946702743
 21
175.7846854372
 31
0.0
  0
LINE
  5
F4
330
ED
100
AcDbEntity
  8
VERMASSUNG
100
AcDbLine
 10
140.7946702743
 20
174.7846854372
 30
0.0
 11
268.7946702743
 21
174.7846854372
 31
0.0
  0
MTEXT
  5
F5
330
ED
100
AcDbEntity
  8
VERMASSUNG
100
AcDbMText
 10
202.8946702423
 20
177.3628210332
 30
0.0
 40
2.0
 41
0.0
 71
     1
 72
     1
  1
128
  7
SLDTEXTSTYLE0
 73
     1
 44
1.0
  0
ENDBLK
  5
EF
330
ED
100
AcDbEntity
  8
0
100
AcDbBlockEnd
  0
BLOCK
  5
F8
330
F7
100
AcDbEntity
  8
0
100
AcDbBlockBegin
  2
_D_2
 70
     0
 10
0.0
 20
0.0
 30
0.0
  3
_D_2
  1

  0
SOLID
  5
FA
330
F7
100
AcDbEntity
  8
VERMASSUNG
100
AcDbTrace
 10
278.7946702743
 20
118.7846854372
 30
0.0
 11
279.2446702743
 21
121.7846854372
 31
0.0
 12
278.3446702743
 22
121.7846854372
 32
0.0
 13
278.3446702743
 23
121.7846854372
 33
0.0
  0
SOLID
  5
FB
330
F7
100
AcDbEntity
  8
VERMASSUNG
100
AcDbTrace
 10
278.7946702743
 20
133.7846854372
 30
0.0
 11
278.3446702743
 21
130.7846854372
 31
0.0
 12
279.2446702743
 22
130.7846854372
 32
0.0
 13
279.2446702743
 23
130.7846854372
 33
0.0
  0
LINE
  5
FC
330
F7
100
AcDbEntity
  8
VERMASSUNG
100
AcDbLine
 10
261.3180757161
 20
118.7846854372
 30
0.0
 11
279.7946702743
 21
118.7846854372
 31
0.0
  0
LINE
  5
FD
330
F7
100
AcDbEntity
  8
VERMASSUNG
100
AcDbLine
 10
268.7946702743
 20
133.7846854372
 30
0.0
 11
279.7946702743
 21
133.7846854372
 31
0.0
  0
LINE
  5
FE
330
F7
100
AcDbEntity
  8
VERMASSUNG
100
AcDbLine
 10
278.7946702743
 20
118.7846854372
 30
0.0
 11
278.7946702743
 21
133.7846854372
 31
0.0
  0
MTEXT
  5
FF
330
F7
100
AcDbEntity
  8
VERMASSUNG
100
AcDbMText
 10
276.2165346783
 20
125.0846853802
 30
0.0
 40
2.0
 41
0.0
 71
     1
 72
     1
  1
15
  7
SLDTEXTSTYLE0
 11
6.123233995736766E-17
 21
1.0
 31
0.0
 73
     1
 44
1.0
  0
ENDBLK
  5
F9
330
F7
100
AcDbEntity
  8
0
100
AcDbBlockEnd
  0
BLOCK
  5
102
330
101
100
AcDbEntity
  8
0
100
AcDbBlockBegin
  2
_D_3
 70
     0
 10
0.0
 20
0.0
 30
0.0
  3
_D_3
  1

  0
SOLID
  5
104
330
101
100
AcDbEntity
  8
VERMASSUNG
100
AcDbTrace
 10
137.1384921452
 20
143.7846854372
 30
0.0
 11
136.6884921452
 21
140.7846854372
 31
0.0
 12
137.5884921452
 22
140.7846854372
 32
0.0
 13
137.5884921452
 23
140.7846854372
 33
0.0
  0
SOLID
  5
105
330
101
100
AcDbEntity
  8
VERMASSUNG
100
AcDbTrace
 10
137.1384921452
 20
93.7846854372
 30
0.0
 11
137.5884921452
 21
96.7846854372
 31
0.0
 12
136.6884921452
 22
96.7846854372
 32
0.0
 13
136.6884921452
 23
96.7846854372
 33
0.0
  0
LINE
  5
106
330
101
100
AcDbEntity
  8
VERMASSUNG
100
AcDbLine
 10
171.0946702743
 20
143.7846854372
 30
0.0
 11
136.1384921452
 21
143.7846854372
 31
0.0
  0
LINE
  5
107
330
101
100
AcDbEntity
  8
VERMASSUNG
100
AcDbLine
 10
171.0946702743
 20
93.7846854372
 30
0.0
 11
136.1384921452
 21
93.7846854372
 31
0.0
  0
LINE
  5
108
330
101
100
AcDbEntity
  8
VERMASSUNG
100
AcDbLine
 10
137.1384921452
 20
143.7846854372
 30
0.0
 11
137.1384921452
 21
93.7846854372
 31
0.0
  0
MTEXT
  5
109
330
101
100
AcDbEntity
  8
VERMASSUNG
100
AcDbMText
 10
134.5603568403
 20
115.57968548
 30
0.0
 40
2.0
 41
0.0
 71
     1
 72
     1
  1
%%c
  7
SLDTEXTSTYLE0
 11
-7.044195017643634E-15
 21
1.0
 31
0.0
 73
     1
 44
1.0
  0
MTEXT
  5
10A
330
101
100
AcDbEntity
  8
VERMASSUNG
100
AcDbMText
 10
134.360356889
 20
119.1896854943
 30
0.0
 40
2.0
 41
0.0
 71
     1
 72
     1
  1
50
  7
SLDTEXTSTYLE0
 11
-7.044195017643634E-15
 21
1.0
 31
0.0
 73
     1
 44
1.0
  0
ENDBLK
  5
103
330
101
100
AcDbEntity
  8
0
100
AcDbBlockEnd
  0
BLOCK
  5
12D
330
12C
100
AcDbEntity
  8
0
100
AcDbBlockBegin
  2
_D_4
 70
     0
 10
0.0
 20
0.0
 30
0.0
  3
_D_4
  1

  0
SOLID
  5
12F
330
12C
100
AcDbEntity
  8
VERMASSUNG
100
AcDbTrace
 10
88.469483764
 20
88.2115844564
 30
0.0
 11
90.0600210425
 21
85.6284291832
 31
0.0
 12
90.7479158146
 22
86.2087745826
 32
0.0
 13
90.7479158146
 23
86.2087745826
 33
0.0
  0
SOLID
  5
130
330
12C
100
AcDbEntity
  8
VERMASSUNG
100
AcDbTrace
 10
36.8832260429
 20
149.357786418
 30
0.0
 11
35.2926887643
 21
151.9409416913
 31
0.0
 12
34.6047939923
 22
151.3605962919
 32
0.0
 13
34.6047939923
 23
151.3605962919
 33
0.0
  0
LINE
  5
131
330
12C
100
AcDbEntity
  8
VERMASSUNG
100
AcDbLine
 10
88.469483764
 20
88.2115844564
 30
0.0
 11
87.7051562395
 21
87.5667562349
 31
0.0
  0
LINE
  5
132
330
12C
100
AcDbEntity
  8
VERMASSUNG
100
AcDbLine
 10
36.8832260429
 20
149.357786418
 30
0.0
 11
36.1188985183
 21
148.7129581965
 31
0.0
  0
LINE
  5
133
330
12C
100
AcDbEntity
  8
VERMASSUNG
100
AcDbLine
 10
88.469483764
 20
88.2115844564
 30
0.0
 11
92.3384530931
 21
83.6256193093
 31
0.0
  0
LINE
  5
134
330
12C
100
AcDbEntity
  8
VERMASSUNG
100
AcDbLine
 10
88.469483764
 20
88.2115844564
 30
0.0
 11
36.8832260429
 21
149.357786418
 31
0.0
  0
LINE
  5
135
330
12C
100
AcDbEntity
  8
VERMASSUNG
100
AcDbLine
 10
36.8832260429
 20
149.357786418
 30
0.0
 11
28.2654067234
 21
159.5726564988
 31
0.0
  0
MTEXT
  5
136
330
12C
100
AcDbEntity
  8
VERMASSUNG
100
AcDbMText
 10
30.2359464989
 20
161.2351109023
 30
0.0
 40
2.0
 41
0.0
 71
     1
 72
     1
  1
%%c
  7
SLDTEXTSTYLE0
 11
0.6448282215145265
 21
-0.7643275245197001
 31
0.0
 73
     1
 44
1.0
  0
MTEXT
  5
137
330
12C
100
AcDbEntity
  8
VERMASSUNG
100
AcDbMText
 10
32.7166418555
 20
158.6048541407
 30
0.0
 40
2.0
 41
0.0
 71
     1
 72
     1
  1
80
  7
SLDTEXTSTYLE0
 11
0.6448282215145265
 21
-0.7643275245197001
 31
0.0
 73
     1
 44
1.0
  0
ENDBLK
  5
12E
330
12C
100
AcDbEntity
  8
0
100
AcDbBlockEnd
  0
BLOCK
  5
13A
330
139
100
AcDbEntity
  8
0
100
AcDbBlockBegin
  2
_D_5
 70
     0
 10
0.0
 20
0.0
 30
0.0
  3
_D_5
  1

  0
SOLID
  5
13C
330
139
100
AcDbEntity
  8
VERMASSUNG
100
AcDbTrace
 10
62.6763549034
 20
78.3889198777
 30
0.0
 11
65.6763549034
 21
77.9389198777
 31
0.0
 12
65.6763549034
 22
78.8389198777
 32
0.0
 13
65.6763549034
 23
78.8389198777
 33
0.0
  0
SOLID
  5
13D
330
139
100
AcDbEntity
  8
VERMASSUNG
100
AcDbTrace
 10
61.6763549034
 20
78.3889198777
 30
0.0
 11
58.6763549034
 21
78.8389198777
 31
0.0
 12
58.6763549034
 22
77.9389198777
 32
0.0
 13
58.6763549034
 23
77.9389198777
 33
0.0
  0
LINE
  5
13E
330
139
100
AcDbEntity
  8
VERMASSUNG
100
AcDbLine
 10
61.6763549034
 20
86.7846854372
 30
0.0
 11
61.6763549034
 21
77.3889198777
 31
0.0
  0
LINE
  5
13F
330
139
100
AcDbEntity
  8
VERMASSUNG
100
AcDbLine
 10
62.6763549034
 20
78.3889198777
 30
0.0
 11
68.6763549034
 21
78.3889198777
 31
0.0
  0
LINE
  5
140
330
139
100
AcDbEntity
  8
VERMASSUNG
100
AcDbLine
 10
62.6763549034
 20
78.3889198777
 30
0.0
 11
61.6763549034
 21
78.3889198777
 31
0.0
  0
LINE
  5
141
330
139
100
AcDbEntity
  8
VERMASSUNG
100
AcDbLine
 10
61.6763549034
 20
78.3889198777
 30
0.0
 11
54.038089599
 21
78.3889198777
 31
0.0
  0
MTEXT
  5
142
330
139
100
AcDbEntity
  8
VERMASSUNG
100
AcDbMText
 10
54.038089599
 20
80.9670554737
 30
0.0
 40
2.0
 41
0.0
 71
     1
 72
     1
  1
1
  7
SLDTEXTSTYLE0
 73
     1
 44
1.0
  0
ENDBLK
  5
13B
330
139
100
AcDbEntity
  8
0
100
AcDbBlockEnd
  0
BLOCK
  5
145
330
144
100
AcDbEntity
  8
0
100
AcDbBlockBegin
  2
_D_6
 70
     0
 10
0.0
 20
0.0
 30
0.0
  3
_D_6
  1

  0
SOLID
  5
147
330
144
100
AcDbEntity
  8
VERMASSUNG
100
AcDbTrace
 10
62.6763549034
 20
78.3889198777
 30
0.0
 11
65.6763549034
 21
77.9389198777
 31
0.0
 12
65.6763549034
 22
78.8389198777
 32
0.0
 13
65.6763549034
 23
78.8389198777
 33
0.0
  0
SOLID
  5
148
330
144
100
AcDbEntity
  8
VERMASSUNG
100
AcDbTrace
 10
82.6763549034
 20
78.3889198777
 30
0.0
 11
79.6763549034
 21
78.8389198777
 31
0.0
 12
79.6763549034
 22
77.9389198777
 32
0.0
 13
79.6763549034
 23
77.9389198777
 33
0.0
  0
LINE
  5
149
330
144
100
AcDbEntity
  8
VERMASSUNG
100
AcDbLine
 10
82.6763549034
 20
86.7846854372
 30
0.0
 11
82.6763549034
 21
77.3889198777
 31
0.0
  0
LINE
  5
14A
330
144
100
AcDbEntity
  8
VERMASSUNG
100
AcDbLine
 10
62.6763549034
 20
78.3889198777
 30
0.0
 11
82.6763549034
 21
78.3889198777
 31
0.0
  0
MTEXT
  5
14B
330
144
100
AcDbEntity
  8
VERMASSUNG
100
AcDbMText
 10
71.2763549534
 20
80.9670554737
 30
0.0
 40
2.0
 41
0.0
 71
     1
 72
     1
  1
20
  7
SLDTEXTSTYLE0
 73
     1
 44
1.0
  0
ENDBLK
  5
146
330
144
100
AcDbEntity
  8
0
100
AcDbBlockEnd
  0
BLOCK
  5
14E
330
14D
100
AcDbEntity
  8
0
100
AcDbBlockBegin
  2
_D_7
 70
     0
 10
0.0
 20
0.0
 30
0.0
  3
_D_7
  1

  0
SOLID
  5
150
330
14D
100
AcDbEntity
  8
VERMASSUNG
100
AcDbTrace
 10
62.6763549034
 20
67.7784220734
 30
0.0
 11
59.6763549034
 21
68.2284220734
 31
0.0
 12
59.6763549034
 22
67.3284220734
 32
0.0
 13
59.6763549034
 23
67.3284220734
 33
0.0
  0
SOLID
  5
151
330
14D
100
AcDbEntity
  8
VERMASSUNG
100
AcDbTrace
 10
35.6763549034
 20
67.7784220734
 30
0.0
 11
38.6763549034
 21
67.3284220734
 31
0.0
 12
38.6763549034
 22
68.2284220734
 32
0.0
 13
38.6763549034
 23
68.2284220734
 33
0.0
  0
LINE
  5
152
330
14D
100
AcDbEntity
  8
VERMASSUNG
100
AcDbLine
 10
62.6763549034
 20
76.2846854372
 30
0.0
 11
62.6763549034
 21
66.7784220734
 31
0.0
  0
LINE
  5
153
330
14D
100
AcDbEntity
  8
VERMASSUNG
100
AcDbLine
 10
35.6763549034
 20
89.2719763105
 30
0.0
 11
35.6763549034
 21
66.7784220734
 31
0.0
  0
LINE
  5
154
330
14D
100
AcDbEntity
  8
VERMASSUNG
100
AcDbLine
 10
62.6763549034
 20
67.7784220734
 30
0.0
 11
35.6763549034
 21
67.7784220734
 31
0.0
  0
MTEXT
  5
155
330
14D
100
AcDbEntity
  8
VERMASSUNG
100
AcDbMText
 10
47.7763549534
 20
70.3565576694
 30
0.0
 40
2.0
 41
0.0
 71
     1
 72
     1
  1
27
  7
SLDTEXTSTYLE0
 73
     1
 44
1.0
  0
ENDBLK
  5
14F
330
14D
100
AcDbEntity
  8
0
100
AcDbBlockEnd
  0
BLOCK
  5
157
330
156
100
AcDbEntity
  8
0
100
AcDbBlockBegin
  2
SW_CENTERMARKSYMBOL_0
 70
     0
 10
0.0
 20
0.0
 30
0.0
  3
SW_CENTERMARKSYMBOL_0
  1

  0
LINE
  5
159
330
156
100
AcDbEntity
  8
VERMASSUNG
 62
     0
100
AcDbLine
 10
0.0
 20
0.0
 30
0.0
 11
0.0
 21
2.5
 31
0.0
  0
LINE
  5
15A
330
156
100
AcDbEntity
  8
VERMASSUNG
 62
     0
100
AcDbLine
 10
0.0
 20
0.0
 30
0.0
 11
-2.5
 21
0.0
 31
0.0
  0
LINE
  5
15B
330
156
100
AcDbEntity
  8
VERMASSUNG
 62
     0
100
AcDbLine
 10
0.0
 20
0.0
 30
0.0
 11
0.0
 21
-2.5
 31
0.0
  0
LINE
  5
15C
330
156
100
AcDbEntity
  8
VERMASSUNG
 62
     0
100
AcDbLine
 10
0.0
 20
0.0
 30
0.0
 11
2.5
 21
0.0
 31
0.0
  0
LINE
  5
15D
330
156
100
AcDbEntity
  8
VERMASSUNG
 62
     0
100
AcDbLine
 10
0.0
 20
5.0
 30
0.0
 11
0.0
 21
42.5
 31
0.0
  0
LINE
  5
15E
330
156
100
AcDbEntity
  8
VERMASSUNG
 62
     0
100
AcDbLine
 10
-5.0
 20
0.0
 30
0.0
 11
-42.5
 21
0.0
 31
0.0
  0
LINE
  5
15F
330
156
100
AcDbEntity
  8
VERMASSUNG
 62
     0
100
AcDbLine
 10
0.0
 20
-5.0
 30
0.0
 11
0.0
 21
-42.5
 31
0.0
  0
LINE
  5
160
330
156
100
AcDbEntity
  8
VERMASSUNG
 62
     0
100
AcDbLine
 10
5.0
 20
0.0
 30
0.0
 11
42.5
 21
0.0
 31
0.0
  0
ENDBLK
  5
158
330
156
100
AcDbEntity
  8
0
100
AcDbBlockEnd
  0
ENDSEC
  0
SECTION
  2
ENTITIES
  0
MTEXT
  5
78
330
1F
100
AcDbEntity
  8
KOPF_DÜNN
100
AcDbMText
 10
13.8892156294
 20
23.8442973028
 30
0.0
 40
3.0
 41
0.0
 71
     1
 72
     1
  1
PS5.V20.R12.098
  7
SLDTEXTSTYLE0
 73
     1
 44
1.0
  0
MTEXT
  5
79
330
1F
100
AcDbEntity
  8
VERMASSUNG
100
AcDbMText
 10
13.9329988022
 20
28.8834360957
 30
0.0
 40
3.0
 41
0.0
 71
     1
 72
     1
  1
Werkzeughalter_Toolhoder diagonal 45°
  7
SLDTEXTSTYLE0
 73
     1
 44
1.0
  0
MTEXT
  5
7A
330
1F
100
AcDbEntity
  8
VERMASSUNG
100
AcDbMText
 10
98.8601118557
 20
13.8365368761
 30
0.0
 40
2.0
 41
0.0
 71
     1
 72
     1
  1
Datum: 12.02.2018
  7
SLDTEXTSTYLE0
 73
     1
 44
1.0
  0
MTEXT
  5
7B
330
1F
100
AcDbEntity
  8
VERMASSUNG
100
AcDbMText
 10
13.933048693
 20
18.0482802738
 30
0.0
 40
2.0
 41
0.0
 71
     1
 72
     1
  1
PSC Ø63 / rechts / right / 20x20
  7
SLDTEXTSTYLE0
 73
     1
 44
1.0
  0
MTEXT
  5
7C
330
1F
100
AcDbEntity
  8
VERMASSUNG
100
AcDbMText
 10
13.9808475933
 20
13.9090974274
 30
0.0
 40
2.0
 41
0.0
 71
     1
 72
     1
  1
Gewicht: 2078g
  7
SLDTEXTSTYLE0
 73
     1
 44
1.0
  0
ARC
  5
7D
330
1F
100
AcDbEntity
  8
0
  6
Continuous
 62
     7
370
    25
100
AcDbCircle
 10
192.7946702743
 20
157.7846854372
 30
0.0
 40
0.9999999999999716
100
AcDbArc
 50
90.0
 51
180.0
  0
LINE
  5
7E
330
1F
100
AcDbEntity
  8
0
  6
Continuous
 62
     7
370
    25
100
AcDbLine
 10
243.7946702743
 20
158.7846854372
 30
0.0
 11
192.7946702743
 21
158.7846854372
 31
0.0
  0
ARC
  5
7F
330
1F
100
AcDbEntity
  8
0
  6
Continuous
 62
     7
370
    25
100
AcDbCircle
 10
190.7946702743
 20
92.7846854372
 30
0.0
 40
1.0
100
AcDbArc
 50
0.0
 51
90.0
  0
ARC
  5
80
330
1F
100
AcDbEntity
  8
0
  6
Continuous
 62
     7
370
    25
100
AcDbCircle
 10
190.7946702743
 20
144.7846854372
 30
0.0
 40
1.0
100
AcDbArc
 50
270.0
 51
0.0
  0
LINE
  5
81
330
1F
100
AcDbEntity
  8
0
  6
Continuous
 62
     7
370
    25
100
AcDbLine
 10
171.0946702743
 20
93.7846854372
 30
0.0
 11
190.7946702743
 21
93.7846854372
 31
0.0
  0
LINE
  5
82
330
1F
100
AcDbEntity
  8
0
  6
Continuous
 62
     7
370
    25
100
AcDbLine
 10
190.7946702743
 20
143.7846854372
 30
0.0
 11
171.0946702743
 21
143.7846854372
 31
0.0
  0
ARC
  5
83
330
1F
100
AcDbEntity
  8
0
  6
Continuous
 62
     7
370
    25
100
AcDbCircle
 10
171.0946702743
 20
94.0846854372
 30
0.0
 40
0.3000000000000114
100
AcDbArc
 50
180.0
 51
270.0
  0
ARC
  5
84
330
1F
100
AcDbEntity
  8
0
  6
Continuous
 62
     7
370
    25
100
AcDbCircle
 10
171.0946702743
 20
143.4846854372
 30
0.0
 40
0.3000000000000114
100
AcDbArc
 50
90.0
 51
180.0
  0
LWPOLYLINE
  5
85
330
1F
100
AcDbEntity
  8
0
  6
Continuous
 62
     7
370
    25
100
AcDbPolyline
 90
        3
 70
   128
 43
0.0
 10
170.5946702743
 20
100.9448651584
 10
170.7201252178
 20
100.8765630434
 10
170.7946702743
 20
100.8238252853
  0
LWPOLYLINE
  5
86
330
1F
100
AcDbEntity
  8
0
  6
Continuous
 62
     7
370
    25
100
AcDbPolyline
 90
        3
 70
   128
 43
0.0
 10
170.7946702743
 20
136.7455455892
 10
170.7201252178
 20
136.6928078311
 10
170.5946702743
 20
136.6245057161
  0
LINE
  5
87
330
1F
100
AcDbEntity
  8
0
  6
Continuous
 62
     7
370
    25
100
AcDbLine
 10
236.9999913867
 20
115.0755178464
 30
0.0
 11
234.4999913867
 21
116.5188935194
 31
0.0
  0
LINE
  5
88
330
1F
100
AcDbEntity
  8
0
  6
Continuous
 62
     7
370
    25
100
AcDbLine
 10
231.9999913867
 20
115.0755178464
 30
0.0
 11
234.4999913867
 21
116.5188935194
 31
0.0
  0
LINE
  5
89
330
1F
100
AcDbEntity
  8
0
  6
Continuous
 62
     7
370
    25
100
AcDbLine
 10
231.9999913867
 20
112.1887665004
 30
0.0
 11
231.9999913867
 21
115.0755178464
 31
0.0
  0
LINE
  5
8A
330
1F
100
AcDbEntity
  8
0
  6
Continuous
 62
     7
370
    25
100
AcDbLine
 10
231.9999913867
 20
112.1887665004
 30
0.0
 11
234.4999913867
 21
110.7453908275
 31
0.0
  0
LINE
  5
8B
330
1F
100
AcDbEntity
  8
0
  6
Continuous
 62
     7
370
    25
100
AcDbLine
 10
236.9999913867
 20
112.1887665004
 30
0.0
 11
234.4999913867
 21
110.7453908275
 31
0.0
  0
LINE
  5
8C
330
1F
100
AcDbEntity
  8
0
  6
Continuous
 62
     7
370
    25
100
AcDbLine
 10
236.9999913867
 20
112.1887665004
 30
0.0
 11
236.9999913867
 21
115.0755178464
 31
0.0
  0
CIRCLE
  5
8D
330
1F
100
AcDbEntity
  8
0
  6
Continuous
 62
     7
370
    25
100
AcDbCircle
 10
234.4999913867
 20
113.6321421734
 30
0.0
 40
4.171999999999997
  0
LINE
  5
8E
330
1F
100
AcDbEntity
  8
0
  6
Continuous
 62
     7
370
    25
100
AcDbLine
 10
221.7971955912
 20
99.8727220509
 30
0.0
 11
219.2971955912
 21
101.3160977238
 31
0.0
  0
LINE
  5
8F
330
1F
100
AcDbEntity
  8
0
  6
Continuous
 62
     7
370
    25
100
AcDbLine
 10
216.7971955912
 20
99.8727220509
 30
0.0
 11
219.2971955912
 21
101.3160977238
 31
0.0
  0
LINE
  5
90
330
1F
100
AcDbEntity
  8
0
  6
Continuous
 62
     7
370
    25
100
AcDbLine
 10
216.7971955912
 20
96.9859707049
 30
0.0
 11
216.7971955912
 21
99.8727220509
 31
0.0
  0
LINE
  5
91
330
1F
100
AcDbEntity
  8
0
  6
Continuous
 62
     7
370
    25
100
AcDbLine
 10
216.7971955912
 20
96.9859707049
 30
0.0
 11
219.2971955912
 21
95.542595032
 31
0.0
  0
LINE
  5
92
330
1F
100
AcDbEntity
  8
0
  6
Continuous
 62
     7
370
    25
100
AcDbLine
 10
221.7971955912
 20
96.9859707049
 30
0.0
 11
219.2971955912
 21
95.542595032
 31
0.0
  0
LINE
  5
93
330
1F
100
AcDbEntity
  8
0
  6
Continuous
 62
     7
370
    25
100
AcDbLine
 10
221.7971955912
 20
96.9859707049
 30
0.0
 11
221.7971955912
 21
99.8727220509
 31
0.0
  0
CIRCLE
  5
94
330
1F
100
AcDbEntity
  8
0
  6
Continuous
 62
     7
370
    25
100
AcDbCircle
 10
219.2971955912
 20
98.4293463779
 30
0.0
 40
4.172000000000011
  0
LINE
  5
95
330
1F
100
AcDbEntity
  8
0
  6
Continuous
 62
     7
370
    25
100
AcDbLine
 10
251.0388520485
 20
131.3938955705
 30
0.0
 11
252.5869419055
 21
128.9573506544
 31
0.0
  0
LINE
  5
96
330
1F
100
AcDbEntity
  8
0
  6
Continuous
 62
     7
370
    25
100
AcDbLine
 10
248.1546973252
 20
131.271482885
 30
0.0
 11
251.0388520485
 21
131.3938955705
 31
0.0
  0
LINE
  5
97
330
1F
100
AcDbEntity
  8
0
  6
Continuous
 62
     7
370
    25
100
AcDbLine
 10
248.1546973252
 20
131.271482885
 30
0.0
 11
246.818632459
 21
128.7125252834
 31
0.0
  0
LINE
  5
98
330
1F
100
AcDbEntity
  8
0
  6
Continuous
 62
     7
370
    25
100
AcDbLine
 10
248.366722316
 20
126.2759803674
 30
0.0
 11
246.818632459
 21
128.7125252834
 31
0.0
  0
CIRCLE
  5
99
330
1F
100
AcDbEntity
  8
0
  6
Continuous
 62
     7
370
    25
100
AcDbCircle
 10
249.7027871823
 20
128.8349379689
 30
0.0
 40
4.172000000000007
  0
LINE
  5
9A
330
1F
100
AcDbEntity
  8
0
  6
Continuous
 62
     7
370
    25
100
AcDbLine
 10
248.366722316
 20
126.2759803674
 30
0.0
 11
251.2508770393
 21
126.3983930529
 31
0.0
  0
LINE
  5
9B
330
1F
100
AcDbEntity
  8
0
  6
Continuous
 62
     7
370
    25
100
AcDbLine
 10
251.2508770393
 20
126.3983930529
 30
0.0
 11
252.5869419055
 21
128.9573506544
 31
0.0
  0
CIRCLE
  5
9C
330
1F
100
AcDbEntity
  8
0
  6
Continuous
 62
     7
370
    25
100
AcDbCircle
 10
219.2971955912
 20
98.4293463779
 30
0.0
 40
5.500000000000014
  0
CIRCLE
  5
9D
330
1F
100
AcDbEntity
  8
0
  6
Continuous
 62
     7
370
    25
100
AcDbCircle
 10
219.2971955912
 20
98.4293463779
 30
0.0
 40
4.250000000000014
  0
CIRCLE
  5
9E
330
1F
100
AcDbEntity
  8
0
  6
Continuous
 62
     7
370
    25
100
AcDbCircle
 10
249.7027871823
 20
128.8349379689
 30
0.0
 40
5.500000000000028
  0
CIRCLE
  5
9F
330
1F
100
AcDbEntity
  8
0
  6
Continuous
 62
     7
370
    25
100
AcDbCircle
 10
234.4999913867
 20
113.6321421734
 30
0.0
 40
5.5
  0
LINE
  5
A0
330
1F
100
AcDbEntity
  8
0
  6
Continuous
 62
     7
370
    25
100
AcDbLine
 10
191.7946702743
 20
90.6421908783
 30
0.0
 11
191.7946702743
 21
146.9271799962
 31
0.0
  0
SPLINE
  5
A1
330
1F
100
AcDbEntity
  8
0
  6
Continuous
 62
     7
370
    25
100
AcDbSpline
210
0.0
220
0.0
230
1.0
 70
     8
 71
     3
 72
    14
 73
    10
 74
     0
 42
0.000000001
 43
0.00000001
 40
0.0
 40
0.0
 40
0.0
 40
0.0
 40
0.4999999999999971
 40
0.4999999999999971
 40
0.6249999999999978
 40
0.6249999999999978
 40
0.7499999999999986
 40
0.7499999999999986
 40
1.0
 40
1.0
 40
1.0
 40
1.0
 10
191.7946702742945
 20
146.9271799961687
 30
0.0
 10
191.7946702742945
 20
147.2378377364628
 30
0.0
 10
191.8682211265109
 20
147.5546608487576
 30
0.0
 10
192.0752258001433
 20
147.8860853072416
 30
0.0
 10
192.1219350503311
 20
147.9480868907571
 30
0.0
 10
192.2278682497665
 20
148.061991880078
 30
0.0
 10
192.2880009563283
 20
148.1144200925226
 30
0.0
 10
192.4829817663875
 20
148.2447995898446
 30
0.0
 10
192.6365754461757
 20
148.2973945639756
 30
0.0
 10
192.7946702742945
 20
148.2973945639756
 30
0.0
  0
LINE
  5
A2
330
1F
100
AcDbEntity
  8
0
  6
Continuous
 62
     7
370
    25
100
AcDbLine
 10
192.7946702743
 20
148.297394564
 30
0.0
 11
254.2819611475
 21
148.297394564
 31
0.0
  0
LINE
  5
A3
330
1F
100
AcDbEntity
  8
0
  6
Continuous
 62
     7
370
    25
100
AcDbLine
 10
254.2819611475
 20
148.297394564
 30
0.0
 11
268.7946702743
 21
133.7846854372
 31
0.0
  0
LINE
  5
A4
330
1F
100
AcDbEntity
  8
0
  6
Continuous
 62
     7
370
    25
100
AcDbLine
 10
268.7946702743
 20
133.7846854372
 30
0.0
 11
224.2819611475
 21
89.2719763105
 31
0.0
  0
LINE
  5
A5
330
1F
100
AcDbEntity
  8
0
  6
Continuous
 62
     7
370
    25
100
AcDbLine
 10
224.2819611475
 20
89.2719763105
 30
0.0
 11
192.7946702743
 21
89.2719763105
 31
0.0
  0
SPLINE
  5
A6
330
1F
100
AcDbEntity
  8
0
  6
Continuous
 62
     7
370
    25
100
AcDbSpline
210
0.0
220
0.0
230
1.0
 70
     8
 71
     3
 72
    14
 73
    10
 74
     0
 42
0.000000001
 43
0.00000001
 40
0.0
 40
0.0
 40
0.0
 40
0.0
 40
0.2499999999999973
 40
0.2499999999999973
 40
0.3749999999999982
 40
0.3749999999999982
 40
0.4999999999999992
 40
0.4999999999999992
 40
1.0
 40
1.0
 40
1.0
 40
1.0
 10
192.7946702742945
 20
89.27197631048058
 30
0.0
 10
192.6386282211394
 20
89.27197631048058
 30
0.0
 10
192.4826468704153
 20
89.32472432202457
 30
0.0
 10
192.2877344903862
 20
89.45516453069146
 30
0.0
 10
192.2277456009934
 20
89.50748379731418
 30
0.0
 10
192.1216969785567
 20
89.62156713885553
 30
0.0
 10
192.0748798900606
 20
89.68374368837968
 30
0.0
 10
191.8673071197761
 20
90.01655884655699
 30
0.0
 10
191.7946702742945
 20
90.33065889633012
 30
0.0
 10
191.7946702742945
 20
90.64219087828762
 30
0.0
  0
CIRCLE
  5
A7
330
1F
100
AcDbEntity
  8
0
  6
Continuous
 62
     7
370
    25
100
AcDbCircle
 10
249.7027871823
 20
128.8349379689
 30
0.0
 40
4.250000000000028
  0
CIRCLE
  5
A8
330
1F
100
AcDbEntity
  8
0
  6
Continuous
 62
     7
370
    25
100
AcDbCircle
 10
234.4999913867
 20
113.6321421734
 30
0.0
 40
4.25
  0
LINE
  5
A9
330
1F
100
AcDbEntity
  8
0
  6
Continuous
 62
     7
370
    25
100
AcDbLine
 10
221.7946702743
 20
86.7846854372
 30
0.0
 11
192.7946702743
 21
86.7846854372
 31
0.0
  0
LINE
  5
AA
330
1F
100
AcDbEntity
  8
0
  6
Continuous
 62
     7
370
    25
100
AcDbLine
 10
221.7946702743
 20
86.7846854372
 30
0.0
 11
224.2819611475
 21
89.2719763105
 31
0.0
  0
LINE
  5
AB
330
1F
100
AcDbEntity
  8
0
  6
Continuous
 62
     7
370
    25
100
AcDbLine
 10
191.7946702743
 20
146.9271799962
 30
0.0
 11
191.7946702743
 21
157.7846854372
 31
0.0
  0
SPLINE
  5
AC
330
1F
100
AcDbEntity
  8
0
  6
Continuous
 62
     7
370
    25
100
AcDbSpline
210
0.0
220
0.0
230
1.0
 70
    11
 71
     3
 72
    68
 73
    64
 74
     0
 42
0.000000001
 43
0.00000001
 40
0.0
 40
0.0
 40
0.0
 40
0.0
 40
0.0312499999999999
 40
0.0312499999999999
 40
0.0624999999999998
 40
0.0624999999999998
 40
0.0937499999999997
 40
0.0937499999999997
 40
0.1249999999999996
 40
0.1249999999999996
 40
0.1562499999999995
 40
0.1562499999999995
 40
0.1874999999999994
 40
0.1874999999999994
 40
0.2187499999999993
 40
0.2187499999999993
 40
0.2499999999999992
 40
0.2499999999999992
 40
0.2812499999999991
 40
0.2812499999999991
 40
0.3124999999999989
 40
0.3124999999999989
 40
0.3437499999999988
 40
0.3437499999999988
 40
0.3749999999999988
 40
0.3749999999999988
 40
0.4062499999999987
 40
0.4062499999999987
 40
0.4374999999999986
 40
0.4374999999999986
 40
0.4687499999999984
 40
0.4687499999999984
 40
0.4999999999999983
 40
0.4999999999999983
 40
0.5312499999999982
 40
0.5312499999999982
 40
0.5624999999999983
 40
0.5624999999999983
 40
0.5937499999999984
 40
0.5937499999999984
 40
0.6249999999999986
 40
0.6249999999999986
 40
0.6562499999999987
 40
0.6562499999999987
 40
0.6874999999999988
 40
0.6874999999999988
 40
0.7187499999999989
 40
0.7187499999999989
 40
0.749999999999999
 40
0.749999999999999
 40
0.7812499999999992
 40
0.7812499999999992
 40
0.8124999999999993
 40
0.8124999999999993
 40
0.8437499999999994
 40
0.8437499999999994
 40
0.8749999999999996
 40
0.8749999999999996
 40
0.9062499999999997
 40
0.9062499999999997
 40
0.9374999999999998
 40
0.9374999999999998
 40
1.0
 40
1.0
 40
1.0
 40
1.0
 10
212.7946702742946
 20
155.3265037429322
 30
0.0
 10
212.7946702742946
 20
155.2458604740385
 30
0.0
 10
212.8141321314696
 20
155.1652248013332
 30
0.0
 10
212.8903746252096
 20
155.0041147397824
 30
0.0
 10
212.9480854467684
 20
154.9227698985785
 30
0.0
 10
213.0986895791628
 20
154.7654777850036
 30
0.0
 10
213.1908403433586
 20
154.6897526110011
 30
0.0
 10
213.4085420141811
 20
154.544718230435
 30
0.0
 10
213.5352113875301
 20
154.4751383720799
 30
0.0
 10
213.8118989197819
 20
154.3491986146884
 30
0.0
 10
213.9628832740349
 20
154.2920222316445
 30
0.0
 10
214.2907882728093
 20
154.1903050462018
 30
0.0
 10
214.4653034249712
 20
154.1466908614255
 30
0.0
 10
214.8262561776741
 20
154.0763330108285
 30
0.0
 10
215.0153589668387
 20
154.0490560051173
 30
0.0
 10
215.4026347506785
 20
154.0125068140603
 30
0.0
 10
215.5973284464144
 20
154.0034254510373
 30
0.0
 10
215.9887735712002
 20
154.0033249966268
 30
0.0
 10
216.1875840851048
 20
154.0126010860376
 30
0.0
 10
216.5723937194663
 20
154.0488947878912
 30
0.0
 10
216.7594330960034
 20
154.0757096800029
 30
0.0
 10
217.1227259006988
 20
154.1463480885764
 30
0.0
 10
217.298335825782
 20
154.1903075249164
 30
0.0
 10
217.623379340231
 20
154.2909985265343
 30
0.0
 10
217.774902661881
 20
154.3480880028991
 30
0.0
 10
218.0550883526279
 20
154.4755301714585
 30
0.0
 10
218.1793167159951
 20
154.5438798834923
 30
0.0
 10
218.3966371865198
 20
154.6883648791365
 30
0.0
 10
218.4906069032873
 20
154.7654342920618
 30
0.0
 10
218.6412716009611
 20
154.9227846007979
 30
0.0
 10
218.6980562238232
 20
155.0026192913246
 30
0.0
 10
218.7749048456378
 20
155.164163157793
 30
0.0
 10
218.7945993173509
 20
155.2464142963933
 30
0.0
 10
218.7947408394654
 20
155.4057112591165
 30
0.0
 10
218.7758247500118
 20
155.4835764771784
 30
0.0
 10
218.6991844658148
 20
155.6358129688376
 30
0.0
 10
218.6416366845403
 20
155.7090878353293
 30
0.0
 10
218.492293773481
 20
155.8465130059044
 30
0.0
 10
218.3994682157161
 20
155.911711120339
 30
0.0
 10
218.1802705997922
 20
156.0327769215315
 30
0.0
 10
218.0561967890977
 20
156.0875716437651
 30
0.0
 10
217.7798819588918
 20
156.1867577167716
 30
0.0
 10
217.6257342896083
 20
156.2315046988666
 30
0.0
 10
217.2997263313336
 20
156.3077647114984
 30
0.0
 10
217.127540215454
 20
156.3396295499144
 30
0.0
 10
216.7646821449676
 20
156.3914088826641
 30
0.0
 10
216.5739783636531
 20
156.4111201608371
 30
0.0
 10
216.1904766320525
 20
156.437113188466
 30
0.0
 10
215.9956482228222
 20
156.4437285168206
 30
0.0
 10
215.5995962864355
 20
156.443860250332
 30
0.0
 10
215.4040653375656
 20
156.4373437659712
 30
0.0
 10
215.0205504618195
 20
156.4115905169206
 30
0.0
 10
214.830188794713
 20
156.3920577191424
 30
0.0
 10
214.4664771703974
 20
156.3404333846983
 30
0.0
 10
214.2940973529075
 20
156.3086569145771
 30
0.0
 10
213.9680208221585
 20
156.2326896362336
 30
0.0
 10
213.8135284216459
 20
156.1880296897296
 30
0.0
 10
213.5365360107085
 20
156.0889732360788
 30
0.0
 10
213.4122901624613
 20
156.0342902585572
 30
0.0
 10
213.1928740646343
 20
155.9136268212847
 30
0.0
 10
213.0993688904429
 20
155.8482840683718
 30
0.0
 10
212.8744268068256
 20
155.6423753010519
 30
0.0
 10
212.7946702742946
 20
155.4877902807195
 30
0.0
 10
212.7946702742946
 20
155.3265037429322
 30
0.0
  0
LINE
  5
AD
330
1F
100
AcDbEntity
  8
0
  6
Continuous
 62
     7
370
    25
100
AcDbLine
 10
254.2819611475
 20
148.297394564
 30
0.0
 11
243.7946702743
 21
158.7846854372
 31
0.0
  0
SPLINE
  5
AE
330
1F
100
AcDbEntity
  8
0
  6
Continuous
 62
     7
370
    25
100
AcDbSpline
210
0.0
220
0.0
230
1.0
 70
    24
 71
     3
 72
    18
 73
    14
 74
     0
 42
0.000000001
 43
0.00000001
 40
0.0
 40
0.0
 40
0.0
 40
0.0
 40
0.125
 40
0.125
 40
0.25
 40
0.25
 40
0.375
 40
0.375
 40
0.5
 40
0.5
 40
0.75
 40
0.75
 40
1.0
 40
1.0
 40
1.0
 40
1.0
 10
192.7946702742945
 20
86.78468543722818
 30
0.0
 10
192.7044869067362
 20
86.78468543722816
 30
0.0
 10
192.6136495241356
 20
86.78468543722818
 30
0.0
 10
192.4484007012186
 20
86.78468543722818
 30
0.0
 10
192.3735610125035
 20
86.78468543722818
 30
0.0
 10
192.2414004178566
 20
86.78468543722818
 30
0.0
 10
192.1833106794013
 20
86.78468543722818
 30
0.0
 10
192.0829220716225
 20
86.78468543722818
 30
0.0
 10
192.0397362308613
 20
86.78468543722818
 30
0.0
 10
191.9272212836517
 20
86.78468543722816
 30
0.0
 10
191.8770370904356
 20
86.78468543722818
 30
0.0
 10
191.8103460046648
 20
86.78468543722818
 30
0.0
 10
191.7946702742945
 20
86.78468543722818
 30
0.0
 10
191.7946702742945
 20
86.78468543722818
 30
0.0
  0
LINE
  5
AF
330
1F
100
AcDbEntity
  8
0
  6
Continuous
 62
     7
370
    25
100
AcDbLine
 10
191.7946702743
 20
86.7846854372
 30
0.0
 11
191.7946702743
 21
90.6421908783
 31
0.0
  0
SPLINE
  5
B0
330
1F
100
AcDbEntity
  8
0
  6
Continuous
 62
     7
370
    25
100
AcDbSpline
210
0.0
220
0.0
230
1.0
 70
     8
 71
     3
 72
    12
 73
     8
 74
     0
 42
0.000000001
 43
0.00000001
 40
0.0
 40
0.0
 40
0.0
 40
0.0
 40
0.2500000000000002
 40
0.2500000000000002
 40
0.5000000000000004
 40
0.5000000000000004
 40
1.0
 40
1.0
 40
1.0
 40
1.0
 10
179.322427087861
 20
126.3534954064086
 30
0.0
 10
179.2587618513305
 20
126.3534954064086
 30
0.0
 10
179.1991556191072
 20
126.3795675548882
 30
0.0
 10
179.1004950941763
 20
126.4551063057094
 30
0.0
 10
179.0615281041611
 20
126.5023572428056
 30
0.0
 10
178.9621412722366
 20
126.654181060772
 30
0.0
 10
178.9200650248131
 20
126.7669843105371
 30
0.0
 10
178.8894143859688
 20
126.8811384352722
 30
0.0
  0
LINE
  5
B1
330
1F
100
AcDbEntity
  8
0
  6
Continuous
 62
     7
370
    25
100
AcDbLine
 10
182.2669134607
 20
126.3534954064
 30
0.0
 11
179.3224270879
 21
126.3534954064
 31
0.0
  0
SPLINE
  5
B2
330
1F
100
AcDbEntity
  8
0
  6
Continuous
 62
     7
370
    25
100
AcDbSpline
210
0.0
220
0.0
230
1.0
 70
     8
 71
     3
 72
    12
 73
     8
 74
     0
 42
0.000000001
 43
0.00000001
 40
0.0
 40
0.0
 40
0.0
 40
0.0
 40
0.5000000000000032
 40
0.5000000000000032
 40
0.7500000000000016
 40
0.7500000000000016
 40
1.0
 40
1.0
 40
1.0
 40
1.0
 10
182.6999261626204
 20
126.8811384352722
 30
0.0
 10
182.6692267792531
 20
126.7668027682083
 30
0.0
 10
182.6278767111465
 20
126.655449415367
 30
0.0
 10
182.5281207829271
 20
126.5027126431182
 30
0.0
 10
182.4884238651944
 20
126.4548527572661
 30
0.0
 10
182.3911657135468
 20
126.3802496439167
 30
0.0
 10
182.3303895555561
 20
126.3534954064086
 30
0.0
 10
182.2669134607281
 20
126.3534954064086
 30
0.0
  0
ELLIPSE
  5
B3
330
1F
100
AcDbEntity
  8
0
  6
Continuous
 62
     7
370
    25
100
AcDbEllipse
 10
169.7384126193
 20
118.7846854372
 30
0.0
 11
11.70927234972708
 21
24.67718644093743
 31
0.0
210
0.0
220
0.0
230
1.0
 40
0.3419987131
 41
5.20306880937045
 42
6.114256032590495
  0
SPLINE
  5
B4
330
1F
100
AcDbEntity
  8
0
  6
Continuous
 62
     7
370
    25
100
AcDbSpline
210
0.0
220
0.0
230
1.0
 70
     8
 71
     3
 72
    12
 73
     8
 74
     0
 42
0.000000001
 43
0.00000001
 40
0.0
 40
0.0
 40
0.0
 40
0.0
 40
0.2499999999999991
 40
0.2499999999999991
 40
0.4999999999999982
 40
0.4999999999999982
 40
1.0
 40
1.0
 40
1.0
 40
1.0
 10
182.2669134607281
 20
142.61141655273
 30
0.0
 10
182.3305786972586
 20
142.61141655273
 30
0.0
 10
182.390184929482
 20
142.6031517770642
 30
0.0
 10
182.4888454544129
 20
142.578932995481
 30
0.0
 10
182.5278124444281
 20
142.5636756761719
 30
0.0
 10
182.6271992763526
 20
142.51404232191
 30
0.0
 10
182.669275523776
 20
142.4764026137358
 30
0.0
 10
182.6999261626204
 20
142.4373269144597
 30
0.0
  0
LINE
  5
B5
330
1F
100
AcDbEntity
  8
0
  6
Continuous
 62
     7
370
    25
100
AcDbLine
 10
179.3224270879
 20
142.6114165527
 30
0.0
 11
182.2669134607
 21
142.6114165527
 31
0.0
  0
SPLINE
  5
B6
330
1F
100
AcDbEntity
  8
0
  6
Continuous
 62
     7
370
    25
100
AcDbSpline
210
0.0
220
0.0
230
1.0
 70
     8
 71
     3
 72
    12
 73
     8
 74
     0
 42
0.000000001
 43
0.00000001
 40
0.0
 40
0.0
 40
0.0
 40
0.0
 40
0.5000000000000018
 40
0.5000000000000018
 40
0.7500000000000009
 40
0.7500000000000009
 40
1.0
 40
1.0
 40
1.0
 40
1.0
 10
178.8894143859688
 20
142.4373269144597
 30
0.0
 10
178.9201137693361
 20
142.4764647568556
 30
0.0
 10
178.9614638374426
 20
142.5136245395811
 30
0.0
 10
179.0612197656621
 20
142.5635610452088
 30
0.0
 10
179.1009166833948
 20
142.5790139153526
 30
0.0
 10
179.1981748350424
 20
142.6029334589517
 30
0.0
 10
179.2589509930331
 20
142.6114165527301
 30
0.0
 10
179.322427087861
 20
142.61141655273
 30
0.0
  0
ELLIPSE
  5
B7
330
1F
100
AcDbEntity
  8
0
  6
Continuous
 62
     7
370
    25
100
AcDbEllipse
 10
191.8509279293
 20
118.7846854372
 30
0.0
 11
-11.70927234972697
 21
24.67718644093743
 31
0.0
210
0.0
220
0.0
230
1.0
 40
0.3419987131
 41
0.1689292745891326
 42
1.080116497809152
  0
SPLINE
  5
B8
330
1F
100
AcDbEntity
  8
0
  6
Continuous
 62
     7
370
    25
100
AcDbSpline
210
0.0
220
0.0
230
1.0
 70
     8
 71
     3
 72
    12
 73
     8
 74
     0
 42
0.000000001
 43
0.00000001
 40
0.0
 40
0.0
 40
0.0
 40
0.0
 40
0.2500000000000026
 40
0.2500000000000026
 40
0.5000000000000051
 40
0.5000000000000051
 40
1.0
 40
1.0
 40
1.0
 40
1.0
 10
179.322427087861
 20
94.95795432172616
 30
0.0
 10
179.2587905336473
 20
94.95795432172616
 30
0.0
 10
179.1992104067811
 20
94.9662110926579
 30
0.0
 10
179.1005736654147
 20
94.99041315466573
 30
0.0
 10
179.0616150410344
 20
95.00565997369986
 30
0.0
 10
178.9622361015265
 20
95.05526484575996
 30
0.0
 10
178.9202781963611
 20
95.0926964938788
 30
0.0
 10
178.8894143859686
 20
95.13204395999647
 30
0.0
  0
LINE
  5
B9
330
1F
100
AcDbEntity
  8
0
  6
Continuous
 62
     7
370
    25
100
AcDbLine
 10
182.2669134607
 20
94.9579543217
 30
0.0
 11
179.3224270879
 21
94.9579543217
 31
0.0
  0
SPLINE
  5
BA
330
1F
100
AcDbEntity
  8
0
  6
Continuous
 62
     7
370
    25
100
AcDbSpline
210
0.0
220
0.0
230
1.0
 70
     8
 71
     3
 72
    12
 73
     8
 74
     0
 42
0.000000001
 43
0.00000001
 40
0.0
 40
0.0
 40
0.0
 40
0.0
 40
0.5000000000000018
 40
0.5000000000000018
 40
0.7500000000000009
 40
0.7500000000000009
 40
1.0
 40
1.0
 40
1.0
 40
1.0
 10
182.6999261626204
 20
95.1320439599965
 30
0.0
 10
182.6690744520561
 20
95.092711919634
 30
0.0
 10
182.6271815885955
 20
95.05530015410574
 30
0.0
 10
182.5276607108023
 20
95.00562922948983
 30
0.0
 10
182.488046546078
 20
94.99024014688202
 30
0.0
 10
182.3909435122985
 20
94.96640693121475
 30
0.0
 10
182.3304448396482
 20
94.95795432172595
 30
0.0
 10
182.2669134607282
 20
94.95795432172595
 30
0.0
  0
ELLIPSE
  5
BB
330
1F
100
AcDbEntity
  8
0
  6
Continuous
 62
     7
370
    25
100
AcDbEllipse
 10
169.7384126193
 20
118.7846854372
 30
0.0
 11
-11.7092723497272
 21
24.67718644093743
 31
0.0
210
0.0
220
0.0
230
1.0
 40
0.3419987131
 41
3.310521928178952
 42
4.221709151398942
  0
SPLINE
  5
BC
330
1F
100
AcDbEntity
  8
0
  6
Continuous
 62
     7
370
    25
100
AcDbSpline
210
0.0
220
0.0
230
1.0
 70
     8
 71
     3
 72
    12
 73
     8
 74
     0
 42
0.000000001
 43
0.00000001
 40
0.0
 40
0.0
 40
0.0
 40
0.0
 40
0.2500000000000007
 40
0.2500000000000007
 40
0.5000000000000014
 40
0.5000000000000014
 40
1.0
 40
1.0
 40
1.0
 40
1.0
 10
182.2669134607281
 20
111.2158754680474
 30
0.0
 10
182.3305500149418
 20
111.2158754680474
 30
0.0
 10
182.390130141808
 20
111.1898285649895
 30
0.0
 10
182.4887668831744
 20
111.1143414060895
 30
0.0
 10
182.5277255075547
 20
111.0671223675588
 30
0.0
 10
182.6271044470626
 20
110.9153827164653
 30
0.0
 10
182.6690623522281
 20
110.8031804922811
 30
0.0
 10
182.6999261626205
 20
110.6882324391838
 30
0.0
  0
LINE
  5
BD
330
1F
100
AcDbEntity
  8
0
  6
Continuous
 62
     7
370
    25
100
AcDbLine
 10
179.3224270879
 20
111.215875468
 30
0.0
 11
182.2669134607
 21
111.215875468
 31
0.0
  0
SPLINE
  5
BE
330
1F
100
AcDbEntity
  8
0
  6
Continuous
 62
     7
370
    25
100
AcDbSpline
210
0.0
220
0.0
230
1.0
 70
     8
 71
     3
 72
    12
 73
     8
 74
     0
 42
0.000000001
 43
0.00000001
 40
0.0
 40
0.0
 40
0.0
 40
0.0
 40
0.5000000000000004
 40
0.5000000000000004
 40
0.7500000000000002
 40
0.7500000000000002
 40
1.0
 40
1.0
 40
1.0
 40
1.0
 10
178.8894143859688
 20
110.6882324391838
 30
0.0
 10
178.920266096533
 20
110.8031354281206
 30
0.0
 10
178.9621589599936
 20
110.9152743241695
 30
0.0
 10
179.0616798377868
 20
111.0672166057703
 30
0.0
 10
179.1012940025111
 20
111.1148812152953
 30
0.0
 10
179.1983970362906
 20
111.1892175459106
 30
0.0
 10
179.258895708941
 20
111.2158754680478
 30
0.0
 10
179.3224270878609
 20
111.2158754680478
 30
0.0
  0
ELLIPSE
  5
BF
330
1F
100
AcDbEntity
  8
0
  6
Continuous
 62
     7
370
    25
100
AcDbEllipse
 10
191.8509279293
 20
118.7846854372
 30
0.0
 11
11.70927234972711
 21
24.67718644093743
 31
0.0
210
0.0
220
0.0
230
1.0
 40
0.3419987131
 41
2.061476155780658
 42
2.97266337900068
  0
LINE
  5
C0
330
1F
100
AcDbEntity
  8
0
  6
Continuous
 62
     7
370
    25
100
AcDbLine
 10
170.7946702743
 20
94.0846854372
 30
0.0
 11
170.7946702743
 21
143.4846854352
 31
0.0
  0
SPLINE
  5
C1
330
1F
100
AcDbEntity
  8
0
  6
Continuous
 62
     7
370
    25
100
AcDbSpline
210
0.0
220
0.0
230
1.0
 70
     8
 71
     3
 72
    16
 73
    12
 74
     0
 42
0.000000001
 43
0.00000001
 40
0.0
 40
0.0
 40
0.0
 40
0.0
 40
0.2499999999999996
 40
0.2499999999999996
 40
0.4999999999999992
 40
0.4999999999999992
 40
0.6249999999999994
 40
0.6249999999999994
 40
0.7499999999999997
 40
0.7499999999999997
 40
1.0
 40
1.0
 40
1.0
 40
1.0
 10
169.7538092461655
 20
101.4355281560356
 30
0.0
 10
169.7855372073582
 20
101.4347310392147
 30
0.0
 10
169.8201647977087
 20
101.4341399643594
 30
0.0
 10
169.8998585597724
 20
101.4331284389249
 30
0.0
 10
169.9449000197761
 20
101.43272833075
 30
0.0
 10
170.0277527466265
 20
101.4317704588462
 30
0.0
 10
170.0576672078264
 20
101.4313887775858
 30
0.0
 10
170.1236535383843
 20
101.4303125635273
 30
0.0
 10
170.1603871638461
 20
101.4295949976331
 30
0.0
 10
170.2728838834159
 20
101.4268341199515
 30
0.0
 10
170.3432252315142
 20
101.4243470280799
 30
0.0
 10
170.3996933854193
 20
101.4221737496728
 30
0.0
  0
SPLINE
  5
C2
330
1F
100
AcDbEntity
  8
0
  6
Continuous
 62
     7
370
    25
100
AcDbSpline
210
0.0
220
0.0
230
1.0
 70
     8
 71
     3
 72
    14
 73
    10
 74
     0
 42
0.000000001
 43
0.00000001
 40
0.0
 40
0.0
 40
0.0
 40
0.0
 40
0.1249999999999961
 40
0.1249999999999961
 40
0.2499999999999922
 40
0.2499999999999922
 40
0.4999999999999938
 40
0.4999999999999938
 40
1.0
 40
1.0
 40
1.0
 40
1.0
 10
170.3996933853877
 20
101.4221737496954
 30
0.0
 10
170.4122851793325
 20
101.4216891318731
 30
0.0
 10
170.4271562876266
 20
101.4199789539408
 30
0.0
 10
170.4593403790597
 20
101.4118634051899
 30
0.0
 10
170.4749445105356
 20
101.4056476169286
 30
0.0
 10
170.5108316502476
 20
101.387428505227
 30
0.0
 10
170.5246836915163
 20
101.3756634768934
 30
0.0
 10
170.5581734334489
 20
101.3438683404761
 30
0.0
 10
170.5688356940246
 20
101.3260749086329
 30
0.0
 10
170.5769736509196
 20
101.3096437777886
 30
0.0
  0
LINE
  5
C3
330
1F
100
AcDbEntity
  8
0
  6
Continuous
 62
     7
370
    25
100
AcDbLine
 10
170.5946702743
 20
112.8002052047
 30
0.0
 11
170.5946702743
 21
100.9448651584
 31
0.0
  0
SPLINE
  5
C4
330
1F
100
AcDbEntity
  8
0
  6
Continuous
 62
     7
370
    25
100
AcDbSpline
210
0.0
220
0.0
230
1.0
 70
     8
 71
     3
 72
    16
 73
    12
 74
     0
 42
0.000000001
 43
0.00000001
 40
0.0
 40
0.0
 40
0.0
 40
0.0
 40
0.5000000000000022
 40
0.5000000000000022
 40
0.7499999999999999
 40
0.7499999999999999
 40
0.8749999999999988
 40
0.8749999999999988
 40
0.9374999999999993
 40
0.9374999999999993
 40
1.0
 40
1.0
 40
1.0
 40
1.0
 10
170.5946702742946
 20
112.8002052046536
 30
0.0
 10
170.5946702742946
 20
112.9147349353525
 30
0.0
 10
170.5906129721795
 20
113.030051010542
 30
0.0
 10
170.5649557293847
 20
113.2049741003696
 30
0.0
 10
170.5536402836426
 20
113.2648034033645
 30
0.0
 10
170.5196089163339
 20
113.3493945896127
 30
0.0
 10
170.5057299351301
 20
113.3780641757567
 30
0.0
 10
170.4697942533628
 20
113.407871962703
 30
0.0
 10
170.4548439341
 20
113.4142071160626
 30
0.0
 10
170.4249454213582
 20
113.4129816531924
 30
0.0
 10
170.4114125609929
 20
113.4063830671576
 30
0.0
 10
170.3996933854189
 20
113.3977353791011
 30
0.0
  0
SPLINE
  5
C5
330
1F
100
AcDbEntity
  8
0
  6
Continuous
 62
     7
370
    25
100
AcDbSpline
210
0.0
220
0.0
230
1.0
 70
     8
 71
     3
 72
    14
 73
    10
 74
     0
 42
0.000000001
 43
0.00000001
 40
0.0
 40
0.0
 40
0.0
 40
0.0
 40
0.25
 40
0.25
 40
0.5
 40
0.5
 40
0.75
 40
0.75
 40
1.0
 40
1.0
 40
1.0
 40
1.0
 10
170.3996933854258
 20
113.3977353790925
 30
0.0
 10
170.343233719542
 20
113.3560732693937
 30
0.0
 10
170.2723612446798
 20
113.3252397888055
 30
0.0
 10
170.1238948867978
 20
113.3309542974186
 30
0.0
 10
170.0546996835901
 20
113.3665252248516
 30
0.0
 10
169.9449824975205
 20
113.4534691373255
 30
0.0
 10
169.8997366085885
 20
113.5059014506906
 30
0.0
 10
169.8201194776217
 20
113.6144545322091
 30
0.0
 10
169.7855168581648
 20
113.6714376184516
 30
0.0
 10
169.753809246166
 20
113.7300037011095
 30
0.0
  0
SPLINE
  5
C6
330
1F
100
AcDbEntity
  8
0
  6
Continuous
 62
     7
370
    25
100
AcDbSpline
210
0.0
220
0.0
230
1.0
 70
     8
 71
     3
 72
    10
 73
     6
 74
     0
 42
0.000000001
 43
0.00000001
 40
0.0
 40
0.0
 40
0.0
 40
0.0
 40
0.5
 40
0.5
 40
1.0
 40
1.0
 40
1.0
 40
1.0
 10
169.473349930735
 20
114.5828222927558
 30
0.0
 10
169.5042285143469
 20
114.4331937408961
 30
0.0
 10
169.5402212220703
 20
114.2866983233725
 30
0.0
 10
169.6295614735674
 20
114.0015066848317
 30
0.0
 10
169.6820197764129
 20
113.8626036591158
 30
0.0
 10
169.7538092461661
 20
113.7300037011093
 30
0.0
  0
SPLINE
  5
C7
330
1F
100
AcDbEntity
  8
0
  6
Continuous
 62
     7
370
    25
100
AcDbSpline
210
0.0
220
0.0
230
1.0
 70
     8
 71
     3
 72
    10
 73
     6
 74
     0
 42
0.000000001
 43
0.00000001
 40
0.0
 40
0.0
 40
0.0
 40
0.0
 40
0.5
 40
0.5
 40
1.0
 40
1.0
 40
1.0
 40
1.0
 10
169.7538092461654
 20
123.8393671733457
 30
0.0
 10
169.6820197764125
 20
123.7067672153394
 30
0.0
 10
169.6295614735671
 20
123.5678641896236
 30
0.0
 10
169.5402212220701
 20
123.2826725510833
 30
0.0
 10
169.5042285143469
 20
123.13617713356
 30
0.0
 10
169.473349930735
 20
122.9865485817005
 30
0.0
  0
SPLINE
  5
C8
330
1F
100
AcDbEntity
  8
0
  6
Continuous
 62
     7
370
    25
100
AcDbSpline
210
0.0
220
0.0
230
1.0
 70
     8
 71
     3
 72
    14
 73
    10
 74
     0
 42
0.000000001
 43
0.00000001
 40
0.0
 40
0.0
 40
0.0
 40
0.0
 40
0.25
 40
0.25
 40
0.5
 40
0.5
 40
0.75
 40
0.75
 40
1.0
 40
1.0
 40
1.0
 40
1.0
 10
169.7538092461647
 20
123.8393671733446
 30
0.0
 10
169.7855179456501
 20
123.8979352646631
 30
0.0
 10
169.8201257642907
 20
123.9549295266031
 30
0.0
 10
169.89978417478
 20
124.0635296613671
 30
0.0
 10
169.9448464446749
 20
124.1158577967457
 30
0.0
 10
170.0554282902533
 20
124.203358808108
 30
0.0
 10
170.1230724110686
 20
124.2384042643622
 30
0.0
 10
170.2733207014657
 20
124.2441486531182
 30
0.0
 10
170.343273099696
 20
124.2132685460682
 30
0.0
 10
170.3996933854195
 20
124.1716354953552
 30
0.0
  0
SPLINE
  5
C9
330
1F
100
AcDbEntity
  8
0
  6
Continuous
 62
     7
370
    25
100
AcDbSpline
210
0.0
220
0.0
230
1.0
 70
     8
 71
     3
 72
    16
 73
    12
 74
     0
 42
0.000000001
 43
0.00000001
 40
0.0
 40
0.0
 40
0.0
 40
0.0
 40
0.0625000000000013
 40
0.0625000000000013
 40
0.1250000000000026
 40
0.1250000000000026
 40
0.2500000000000028
 40
0.2500000000000028
 40
0.5000000000000031
 40
0.5000000000000031
 40
1.0
 40
1.0
 40
1.0
 40
1.0
 10
170.3996933853877
 20
124.1716354953018
 30
0.0
 10
170.4114276198346
 20
124.1629766951575
 30
0.0
 10
170.4249593753135
 20
124.1563726099222
 30
0.0
 10
170.4549468357434
 20
124.1551756427481
 30
0.0
 10
170.4699415421517
 20
124.161597389814
 30
0.0
 10
170.5056819645464
 20
124.1913145432233
 30
0.0
 10
170.5196953015477
 20
124.2201219406066
 30
0.0
 10
170.553839390329
 20
124.3052016622325
 30
0.0
 10
170.5648112944474
 20
124.3635766115023
 30
0.0
 10
170.5906568347137
 20
124.5392921362909
 30
0.0
 10
170.5946702742946
 20
124.6550871441553
 30
0.0
 10
170.5946702742946
 20
124.7691656698027
 30
0.0
  0
LINE
  5
CA
330
1F
100
AcDbEntity
  8
0
  6
Continuous
 62
     7
370
    25
100
AcDbLine
 10
170.5946702743
 20
136.6245057161
 30
0.0
 11
170.5946702743
 21
124.7691656698
 31
0.0
  0
SPLINE
  5
CB
330
1F
100
AcDbEntity
  8
0
  6
Continuous
 62
     7
370
    25
100
AcDbSpline
210
0.0
220
0.0
230
1.0
 70
     8
 71
     3
 72
    16
 73
    12
 74
     0
 42
0.000000001
 43
0.00000001
 40
0.0
 40
0.0
 40
0.0
 40
0.0
 40
0.5000000000000011
 40
0.5000000000000011
 40
0.7499999999999999
 40
0.7499999999999999
 40
0.875
 40
0.875
 40
0.9375000000000001
 40
0.9375000000000001
 40
1.0
 40
1.0
 40
1.0
 40
1.0
 10
170.5946702742947
 20
136.3314399028957
 30
0.0
 10
170.5946702742944
 20
136.3094248883164
 30
0.0
 10
170.5905457314405
 20
136.2840712536127
 30
0.0
 10
170.5646292858073
 20
136.2369107514241
 30
0.0
 10
170.5533517047876
 20
136.2197117631954
 30
0.0
 10
170.5196163262462
 20
136.1897337976261
 30
0.0
 10
170.5052275110018
 20
136.1783823890842
 30
0.0
 10
170.4699808215627
 20
136.1616945296068
 30
0.0
 10
170.4547753971058
 20
136.1561315027215
 30
0.0
 10
170.4251288179364
 20
136.1491619196864
 30
0.0
 10
170.411423481939
 20
136.147648578631
 30
0.0
 10
170.3996933854153
 20
136.1471971247811
 30
0.0
  0
SPLINE
  5
CC
330
1F
100
AcDbEntity
  8
0
  6
Continuous
 62
     7
370
    25
100
AcDbSpline
210
0.0
220
0.0
230
1.0
 70
     8
 71
     3
 72
    14
 73
    10
 74
     0
 42
0.000000001
 43
0.00000001
 40
0.0
 40
0.0
 40
0.0
 40
0.0
 40
0.25
 40
0.25
 40
0.5
 40
0.5
 40
0.75
 40
0.75
 40
1.0
 40
1.0
 40
1.0
 40
1.0
 10
170.3996933854258
 20
136.1471971247837
 30
0.0
 10
170.3432463033675
 20
136.1450246573644
 30
0.0
 10
170.2723959193247
 20
136.142526559447
 30
0.0
 10
170.1239594845082
 20
136.1388801006588
 30
0.0
 10
170.0547702328214
 20
136.1379123538075
 30
0.0
 10
169.9450586845804
 20
136.1366447944448
 30
0.0
 10
169.8998170352381
 20
136.1362419535165
 30
0.0
 10
169.8201690170542
 20
136.1352309185888
 30
0.0
 10
169.7855421012882
 20
136.1346399581942
 30
0.0
 10
169.7538092461668
 20
136.1338427184208
 30
0.0
  0
SPLINE
  5
CD
330
1F
100
AcDbEntity
  8
0
  6
Continuous
 62
     7
370
    25
100
AcDbSpline
210
0.0
220
0.0
230
1.0
 70
     8
 71
     3
 72
    18
 73
    14
 74
     0
 42
0.000000001
 43
0.00000001
 40
0.0
 40
0.0
 40
0.0
 40
0.0
 40
0.2499999999999999
 40
0.2499999999999999
 40
0.3749999999999999
 40
0.3749999999999999
 40
0.5
 40
0.5
 40
0.625
 40
0.625
 40
0.7500000000000001
 40
0.7500000000000001
 40
1.0
 40
1.0
 40
1.0
 40
1.0
 10
169.4733499307349
 20
122.9865485817005
 30
0.0
 10
169.3380643244326
 20
122.3309942462793
 30
0.0
 10
169.2368965781896
 20
121.6513731524817
 30
0.0
 10
169.1340352353207
 20
120.5960091459877
 30
0.0
 10
169.1079323897974
 20
120.237195081403
 30
0.0
 10
169.0730424062526
 20
119.5110821372801
 30
0.0
 10
169.0644561479626
 20
119.148992458264
 30
0.0
 10
169.064356438397
 20
118.4266828008456
 30
0.0
 10
169.0728448095455
 20
118.0664629987373
 30
0.0
 10
169.1069881890661
 20
117.3478969296433
 30
0.0
 10
169.1327851709199
 20
116.988131213728
 30
0.0
 10
169.2361863023079
 20
115.9214866267336
 30
0.0
 10
169.3380442944792
 20
115.2384736874513
 30
0.0
 10
169.4733499307349
 20
114.5828222927558
 30
0.0
  0
LINE
  5
CE
330
1F
100
AcDbEntity
  8
0
  6
Continuous
 62
     7
370
    25
100
AcDbLine
 10
168.5946702743
 20
123.924837925
 30
0.0
 11
168.5946702743
 21
113.6445329494
 31
0.0
  0
LINE
  5
CF
330
1F
100
AcDbEntity
  8
0
  6
Continuous
 62
     7
370
    25
100
AcDbLine
 10
142.2946702743
 20
123.5944641537
 30
0.0
 11
142.2946702743
 21
113.9749067207
 31
0.0
  0
LINE
  5
D0
330
1F
100
AcDbEntity
  8
0
  6
Continuous
 62
     7
370
    25
100
AcDbLine
 10
140.7946702743
 20
123.1614514518
 30
0.0
 11
140.7946702743
 21
114.4079194226
 31
0.0
  0
LINE
  5
D1
330
1F
100
AcDbEntity
  8
0
  6
Continuous
 62
     7
370
    25
100
AcDbLine
 10
142.2946702743
 20
101.9253341953
 30
0.0
 11
142.2946702743
 21
113.9749067207
 31
0.0
  0
LINE
  5
D2
330
1F
100
AcDbEntity
  8
0
  6
Continuous
 62
     7
370
    25
100
AcDbLine
 10
168.5946702743
 20
101.2645866527
 30
0.0
 11
168.5946702743
 21
113.6445329494
 31
0.0
  0
LINE
  5
D3
330
1F
100
AcDbEntity
  8
0
  6
Continuous
 62
     7
370
    25
100
AcDbLine
 10
142.2946702743
 20
101.9253341953
 30
0.0
 11
168.5946702743
 21
101.2645866527
 31
0.0
  0
LINE
  5
D4
330
1F
100
AcDbEntity
  8
0
  6
Continuous
 62
     7
370
    25
100
AcDbLine
 10
168.5946702743
 20
123.924837925
 30
0.0
 11
168.5946702743
 21
136.3047842218
 31
0.0
  0
ARC
  5
D5
330
1F
100
AcDbEntity
  8
0
  6
Continuous
 62
     7
370
    25
100
AcDbCircle
 10
168.7946071852
 20
136.3098073329
 30
0.0
 40
0.2000000000000059
100
AcDbArc
 50
181.4391666667
 51
271.4391666667
  0
ARC
  5
D6
330
1F
100
AcDbEntity
  8
0
  6
Continuous
 62
     7
370
    25
100
AcDbCircle
 10
168.7946071852
 20
101.2595635415
 30
0.0
 40
0.2000000000000059
100
AcDbArc
 50
88.5608333333
 51
178.5608333333
  0
LINE
  5
D7
330
1F
100
AcDbEntity
  8
0
  6
Continuous
 62
     7
370
    25
100
AcDbLine
 10
142.2946702743
 20
123.5944641537
 30
0.0
 11
142.2946702743
 21
135.6440366792
 31
0.0
  0
LINE
  5
D8
330
1F
100
AcDbEntity
  8
0
  6
Continuous
 62
     7
370
    25
100
AcDbLine
 10
142.2946702743
 20
135.6440366792
 30
0.0
 11
168.5946702743
 21
136.3047842218
 31
0.0
  0
LINE
  5
D9
330
1F
100
AcDbEntity
  8
0
  6
Continuous
 62
     7
370
    25
100
AcDbLine
 10
168.7996302964
 20
101.4595004525
 30
0.0
 11
169.7538092462
 21
101.435528156
 31
0.0
  0
LINE
  5
DA
330
1F
100
AcDbEntity
  8
0
  6
Continuous
 62
     7
370
    25
100
AcDbLine
 10
168.7996302964
 20
136.109870422
 30
0.0
 11
169.7538092462
 21
136.1338427184
 31
0.0
  0
LINE
  5
DB
330
1F
100
AcDbEntity
  8
0
  6
Continuous
 62
     7
370
    25
100
AcDbLine
 10
140.7946702743
 20
134.7780112754
 30
0.0
 11
142.2946702743
 21
135.6440366792
 31
0.0
  0
LINE
  5
DC
330
1F
100
AcDbEntity
  8
0
  6
Continuous
 62
     7
370
    25
100
AcDbLine
 10
140.7946702743
 20
123.1614514518
 30
0.0
 11
140.7946702743
 21
134.7780112754
 31
0.0
  0
LINE
  5
DD
330
1F
100
AcDbEntity
  8
0
  6
Continuous
 62
     7
370
    25
100
AcDbLine
 10
140.7946702743
 20
102.7913595991
 30
0.0
 11
142.2946702743
 21
101.9253341953
 31
0.0
  0
LINE
  5
DE
330
1F
100
AcDbEntity
  8
0
  6
Continuous
 62
     7
370
    25
100
AcDbLine
 10
140.7946702743
 20
102.7913595991
 30
0.0
 11
140.7946702743
 21
114.4079194226
 31
0.0
  0
ARC
  5
DF
330
1F
100
AcDbEntity
  8
0
  6
Continuous
 62
     7
370
    25
100
AcDbCircle
 10
215.7955439689
 20
149.3879086664
 30
0.0
 40
5.57832657502926
100
AcDbArc
 50
66.213658955
 51
113.9148759521
  0
ARC
  5
E0
330
1F
100
AcDbEntity
  8
0
  6
Continuous
 62
     7
370
    25
100
AcDbCircle
 10
215.7934734024
 20
149.924435711
 30
0.0
 40
4.887424683120967
100
AcDbArc
 50
65.6424294047
 51
114.1855692272
  0
DIMENSION
  5
E1
330
1F
100
AcDbEntity
  8
VERMASSUNG
100
AcDbDimension
  2
_D
 10
268.7946702743
 20
166.9381089922
 30
0.0
 11
219.7946702743
 21
166.9381089922
 31
0.0
 70
   160
  1
<>
 71
     2
 42
-1.0
  3
SLDDIMSTYLE0
100
AcDbAlignedDimension
 13
170.7946702743
 23
143.4846854372
 33
0.0
 14
268.7946702743
 24
133.7846854372
 34
0.0
100
AcDbRotatedDimension
  0
DIMENSION
  5
EC
330
1F
100
AcDbEntity
  8
VERMASSUNG
100
AcDbDimension
  2
_D_1
 10
268.7946702743
 20
174.7846854372
 30
0.0
 11
204.7946702743
 21
174.7846854372
 31
0.0
 70
   160
  1
<>
 71
     2
 42
-1.0
  3
SLDDIMSTYLE0
100
AcDbAlignedDimension
 13
140.7946702743
 23
130.5480975057
 33
0.0
 14
268.7946702743
 24
133.7846854372
 34
0.0
100
AcDbRotatedDimension
  0
DIMENSION
  5
F6
330
1F
100
AcDbEntity
  8
VERMASSUNG
100
AcDbDimension
  2
_D_2
 10
278.7946702743
 20
133.7846854372
 30
0.0
 11
278.7946702743
 21
126.2846854372
 31
0.0
 70
   160
  1
<>
 71
     2
 42
-1.0
  3
SLDDIMSTYLE0
100
AcDbAlignedDimension
 13
261.3180757161
 23
118.7846854372
 33
0.0
 14
268.7946702743
 24
133.7846854372
 34
0.0
 50
90.0
100
AcDbRotatedDimension
  0
DIMENSION
  5
100
330
1F
100
AcDbEntity
  8
VERMASSUNG
100
AcDbDimension
  2
_D_3
 10
137.1384921452
 20
93.7846854372
 30
0.0
 11
137.1384921452
 21
118.7846854372
 31
0.0
 70
   160
  1
%%c<>
 71
     2
 42
-1.0
  3
SLDDIMSTYLE0
100
AcDbAlignedDimension
 13
171.0946702743
 23
143.7846854372
 33
0.0
 14
171.0946702743
 24
93.7846854372
 34
0.0
 50
90.0
100
AcDbRotatedDimension
  0
LINE
  5
10B
330
1F
100
AcDbEntity
  8
VERMASSUNG
  6
CENTERX2
370
    18
100
AcDbLine
 10
261.3180757161
 20
118.7846854372
 30
0.0
 11
139.3112622839
 21
118.7846854372
 31
0.0
  0
LINE
  5
10C
330
1F
100
AcDbEntity
  8
0
  6
Continuous
 62
     7
370
    25
100
AcDbLine
 10
61.6763549034
 20
109.1321421734
 30
0.0
 11
62.6763549034
 21
110.1321421734
 31
0.0
  0
LINE
  5
10D
330
1F
100
AcDbEntity
  8
0
  6
Continuous
 62
     7
370
    25
100
AcDbLine
 10
62.6763549034
 20
117.1321421734
 30
0.0
 11
61.6763549034
 21
118.1321421734
 31
0.0
  0
LINE
  5
10E
330
1F
100
AcDbEntity
  8
0
  6
Continuous
 62
     7
370
    25
100
AcDbLine
 10
61.6763549034
 20
93.9293463779
 30
0.0
 11
62.6763549034
 21
94.9293463779
 31
0.0
  0
LINE
  5
10F
330
1F
100
AcDbEntity
  8
0
  6
Continuous
 62
     7
370
    25
100
AcDbLine
 10
62.6763549034
 20
101.9293463779
 30
0.0
 11
61.6763549034
 21
102.9293463779
 31
0.0
  0
LINE
  5
110
330
1F
100
AcDbEntity
  8
0
  6
Continuous
 62
     7
370
    25
100
AcDbLine
 10
61.6763549034
 20
124.3349379689
 30
0.0
 11
62.6763549034
 21
125.3349379689
 31
0.0
  0
LINE
  5
111
330
1F
100
AcDbEntity
  8
0
  6
Continuous
 62
     7
370
    25
100
AcDbLine
 10
62.6763549034
 20
132.3349379689
 30
0.0
 11
61.6763549034
 21
133.3349379689
 31
0.0
  0
LINE
  5
112
330
1F
100
AcDbEntity
  8
0
  6
Continuous
 62
     7
370
    25
100
AcDbLine
 10
62.6763549034
 20
110.1321421734
 30
0.0
 11
62.6763549034
 21
117.1321421734
 31
0.0
  0
LINE
  5
113
330
1F
100
AcDbEntity
  8
0
  6
Continuous
 62
     7
370
    25
100
AcDbLine
 10
62.6763549034
 20
94.9293463779
 30
0.0
 11
62.6763549034
 21
101.9293463779
 31
0.0
  0
LINE
  5
114
330
1F
100
AcDbEntity
  8
0
  6
Continuous
 62
     7
370
    25
100
AcDbLine
 10
62.6763549034
 20
125.3349379689
 30
0.0
 11
62.6763549034
 21
132.3349379689
 31
0.0
  0
CIRCLE
  5
115
330
1F
100
AcDbEntity
  8
0
  6
Continuous
 62
     7
370
    25
100
AcDbCircle
 10
51.6763549034
 20
143.7846854372
 30
0.0
 40
3.250000000000003
  0
CIRCLE
  5
116
330
1F
100
AcDbEntity
  8
0
  6
Continuous
 62
     7
370
    25
100
AcDbCircle
 10
51.6763549034
 20
143.7846854372
 30
0.0
 40
2.500000000000011
  0
CIRCLE
  5
117
330
1F
100
AcDbEntity
  8
0
  6
Continuous
 62
     7
370
    25
100
AcDbCircle
 10
51.6763549034
 20
143.7846854372
 30
0.0
 40
2.1
  0
CIRCLE
  5
118
330
1F
100
AcDbEntity
  8
0
  6
Continuous
 62
     7
370
    25
100
AcDbCircle
 10
51.6763549034
 20
143.7846854372
 30
0.0
 40
4.582575694955868
  0
CIRCLE
  5
119
330
1F
100
AcDbEntity
  8
0
  6
Continuous
 62
     7
370
    25
100
AcDbCircle
 10
51.6763549034
 20
143.7846854372
 30
0.0
 40
6.000000000000025
  0
LINE
  5
11A
330
1F
100
AcDbEntity
  8
0
  6
Continuous
 62
     7
370
    25
100
AcDbLine
 10
99.7573473389
 20
133.7846854372
 30
0.0
 11
82.6763549034
 21
133.7846854372
 31
0.0
  0
LINE
  5
11B
330
1F
100
AcDbEntity
  8
0
  6
Continuous
 62
     7
370
    25
100
AcDbLine
 10
82.6763549034
 20
86.7846854372
 30
0.0
 11
86.6763549034
 21
86.7846854372
 31
0.0
  0
LINE
  5
11C
330
1F
100
AcDbEntity
  8
0
  6
Continuous
 62
     7
370
    25
100
AcDbLine
 10
82.6763549034
 20
133.7846854372
 30
0.0
 11
82.6763549034
 21
86.7846854372
 31
0.0
  0
ARC
  5
11D
330
1F
100
AcDbEntity
  8
0
  6
Continuous
 62
     7
370
    25
100
AcDbCircle
 10
62.6763549034
 20
118.7846854372
 30
0.0
 40
39.99999999999999
100
AcDbArc
 50
306.8698976458
 51
22.024312837
  0
LINE
  5
11E
330
1F
100
AcDbEntity
  8
0
  6
Continuous
 62
     7
370
    25
100
AcDbLine
 10
61.6763549034
 20
147.926821061
 30
0.0
 11
82.6763549034
 21
147.926821061
 31
0.0
  0
LINE
  5
11F
330
1F
100
AcDbEntity
  8
0
  6
Continuous
 62
     7
370
    25
100
AcDbLine
 10
61.6763549034
 20
147.926821061
 30
0.0
 11
61.6763549034
 21
133.7846854372
 31
0.0
  0
LINE
  5
120
330
1F
100
AcDbEntity
  8
0
  6
Continuous
 62
     7
370
    25
100
AcDbLine
 10
61.6763549034
 20
133.7846854372
 30
0.0
 11
35.6763549034
 21
133.7846854372
 31
0.0
  0
LINE
  5
121
330
1F
100
AcDbEntity
  8
0
  6
Continuous
 62
     7
370
    25
100
AcDbLine
 10
35.6763549034
 20
148.297394564
 30
0.0
 11
35.6763549034
 21
133.7846854372
 31
0.0
  0
LINE
  5
122
330
1F
100
AcDbEntity
  8
0
  6
Continuous
 62
     7
370
    25
100
AcDbLine
 10
82.6763549034
 20
147.926821061
 30
0.0
 11
82.6763549034
 21
133.7846854372
 31
0.0
  0
CIRCLE
  5
123
330
1F
100
AcDbEntity
  8
0
  6
Continuous
 62
     7
370
    25
100
AcDbCircle
 10
51.6763549034
 20
143.7846854372
 30
0.0
 40
7.000000000000028
  0
ARC
  5
124
330
1F
100
AcDbEntity
  8
0
  6
Continuous
 62
     7
370
    25
100
AcDbCircle
 10
62.6763549034
 20
118.7846854372
 30
0.0
 40
39.99999999999999
100
AcDbArc
 50
22.024312837
 51
132.4541502044
  0
LINE
  5
125
330
1F
100
AcDbEntity
  8
0
  6
Continuous
 62
     7
370
    25
100
AcDbLine
 10
38.6763549034
 20
86.7846854372
 30
0.0
 11
61.6763549034
 21
86.7846854372
 31
0.0
  0
ARC
  5
126
330
1F
100
AcDbEntity
  8
0
  6
Continuous
 62
     7
370
    25
100
AcDbCircle
 10
62.6763549034
 20
118.7846854372
 30
0.0
 40
40.0
100
AcDbArc
 50
227.5458497956
 51
233.1301023542
  0
LINE
  5
127
330
1F
100
AcDbEntity
  8
0
  6
Continuous
 62
     7
370
    25
100
AcDbLine
 10
35.6763549034
 20
133.7846854372
 30
0.0
 11
35.6763549034
 21
89.2719763105
 31
0.0
  0
LINE
  5
128
330
1F
100
AcDbEntity
  8
0
  6
Continuous
 62
     7
370
    25
100
AcDbLine
 10
61.6763549034
 20
133.7846854372
 30
0.0
 11
61.6763549034
 21
86.7846854372
 31
0.0
  0
LINE
  5
129
330
1F
100
AcDbEntity
  8
0
  6
Continuous
 62
     7
370
    25
100
AcDbLine
 10
82.6763549034
 20
86.7846854372
 30
0.0
 11
61.6763549034
 21
86.7846854372
 31
0.0
  0
DIMENSION
  5
12A
330
1F
100
AcDbEntity
  8
VERMASSUNG
100
AcDbDimension
  2
_D_4
 10
36.8832260429
 20
149.357786418
 30
0.0
 11
30.3320811458
 21
157.1229868154
 31
0.0
 70
   160
  1
%%c<>
 71
     2
 42
-1.0
  3
SLDDIMSTYLE1
100
AcDbAlignedDimension
 13
88.469483764
 23
88.2115844564
 33
0.0
 14
36.8832260429
 24
149.357786418
 34
0.0
 50
-49.847202669
100
AcDbRotatedDimension
  0
DIMENSION
  5
138
330
1F
100
AcDbEntity
  8
VERMASSUNG
100
AcDbDimension
  2
_D_5
 10
61.6763549034
 20
78.3889198777
 30
0.0
 11
54.5380896227
 21
78.3889198777
 31
0.0
 70
   160
  1
<>
 71
     2
 42
-1.0
  3
SLDDIMSTYLE1
100
AcDbAlignedDimension
 13
62.6763549034
 23
76.2846854372
 33
0.0
 14
61.6763549034
 24
86.7846854372
 34
0.0
100
AcDbRotatedDimension
  0
DIMENSION
  5
143
330
1F
100
AcDbEntity
  8
VERMASSUNG
100
AcDbDimension
  2
_D_6
 10
82.6763549034
 20
78.3889198777
 30
0.0
 11
72.6763549034
 21
78.3889198777
 31
0.0
 70
   160
  1
<>
 71
     2
 42
-1.0
  3
SLDDIMSTYLE0
100
AcDbAlignedDimension
 13
62.6763549034
 23
76.2846854372
 33
0.0
 14
82.6763549034
 24
86.7846854372
 34
0.0
100
AcDbRotatedDimension
  0
DIMENSION
  5
14C
330
1F
100
AcDbEntity
  8
VERMASSUNG
100
AcDbDimension
  2
_D_7
 10
35.6763549034
 20
67.7784220734
 30
0.0
 11
49.1763549034
 21
67.7784220734
 31
0.0
 70
   160
  1
<>
 71
     2
 42
-1.0
  3
SLDDIMSTYLE0
100
AcDbAlignedDimension
 13
62.6763549034
 23
76.2846854372
 33
0.0
 14
35.6763549034
 24
89.2719763105
 34
0.0
100
AcDbRotatedDimension
  0
INSERT
  5
161
330
1F
100
AcDbEntity
  8
VERMASSUNG
100
AcDbBlockReference
  2
SW_CENTERMARKSYMBOL_0
 10
62.6763549034
 20
118.7846854372
 30
0.0
  0
LINE
  5
162
330
1F
100
AcDbEntity
  8
0
  6
Continuous
 62
     7
370
    25
100
AcDbLine
 10
234.840184488
 20
31.956261877
 30
0.0
 11
246.4077539879
 21
25.2784461461
 31
0.0
  0
SPLINE
  5
163
330
1F
100
AcDbEntity
  8
0
  6
Continuous
 62
     7
370
    25
100
AcDbSpline
210
0.0
220
0.0
230
1.0
 70
     8
 71
     3
 72
    10
 73
     6
 74
     0
 42
0.000000001
 43
0.00000001
 40
0.0
 40
0.0
 40
0.0
 40
0.0
 40
0.2078707849714952
 40
0.8288433403484091
 40
1.0
 40
1.0
 40
1.0
 40
1.0
 10
234.3240652588291
 20
54.56434608332711
 30
0.0
 10
234.2433090245374
 20
54.41777500968878
 30
0.0
 10
233.9213096296079
 20
53.83335205535442
 30
0.0
 10
233.5581819894452
 20
53.11526628258375
 30
0.0
 10
233.2945580679421
 20
52.54019824092681
 30
0.0
 10
233.2375964145241
 20
52.41594234527871
 30
0.0
  0
LINE
  5
164
330
1F
100
AcDbEntity
  8
0
  6
Continuous
 62
     7
370
    25
100
AcDbLine
 10
230.9177711596
 20
42.8806423515
 30
0.0
 11
233.1531128156
 21
41.5902070812
 31
0.0
  0
LINE
  5
165
330
1F
100
AcDbEntity
  8
0
  6
Continuous
 62
     7
370
    25
100
AcDbLine
 10
245.6520969735
 20
63.2414286407
 30
0.0
 11
243.4167553175
 21
64.531863911
 31
0.0
  0
LINE
  5
166
330
1F
100
AcDbEntity
  8
0
  6
Continuous
 62
     7
370
    25
100
AcDbLine
 10
221.9782278041
 20
52.2600281777
 30
0.0
 11
231.1085995664
 21
46.6077645241
 31
0.0
  0
LINE
  5
167
330
1F
100
AcDbEntity
  8
0
  6
Continuous
 62
     7
370
    25
100
AcDbLine
 10
236.5692762775
 20
63.5517708166
 30
0.0
 11
230.3415701135
 21
66.8958754936
 31
0.0
  0
LINE
  5
168
330
1F
100
AcDbEntity
  8
0
  6
Continuous
 62
     7
370
    25
100
AcDbLine
 10
228.1981135458
 20
67.3668216485
 30
0.0
 11
227.5585630932
 21
67.279610583
 31
0.0
  0
LINE
  5
169
330
1F
100
AcDbEntity
  8
0
  6
Continuous
 62
     7
370
    25
100
AcDbLine
 10
221.0038766159
 20
53.7620196947
 30
0.0
 11
221.2481809087
 21
53.1645701455
 31
0.0
  0
LWPOLYLINE
  5
16A
330
1F
100
AcDbEntity
  8
0
  6
Continuous
 62
     7
370
    25
100
AcDbPolyline
 90
       14
 70
   128
 43
0.0
 10
259.8458070647
 20
49.9839447983
 10
259.8230482369
 20
50.1085959789
 10
259.6771665076
 20
50.398468422
 10
259.4109937142
 20
50.6582903889
 10
259.0412544723
 20
50.8717363099
 10
258.5911808583
 20
51.0253945928
 10
258.0890526525
 20
51.1096103226
 10
257.5664204168
 20
51.1190919151
 10
257.0561230568
 20
51.0532436072
 10
256.5902244322
 20
50.9162028901
 10
256.1979986671
 20
50.7165805361
 10
255.9040907489
 20
50.4669195519
 10
255.726967993
 20
50.1829070553
 10
255.6796536521
 20
49.9839447984
  0
LINE
  5
16B
330
1F
100
AcDbEntity
  8
0
  6
Continuous
 62
     7
370
    25
100
AcDbLine
 10
259.156924198
 20
49.7045549604
 30
0.0
 11
258.7833510846
 21
50.5094059322
 31
0.0
  0
LINE
  5
16C
330
1F
100
AcDbEntity
  8
0
  6
Continuous
 62
     7
370
    25
100
AcDbLine
 10
257.389157245
 20
50.7250651002
 30
0.0
 11
258.7833510846
 21
50.5094059322
 31
0.0
  0
LINE
  5
16D
330
1F
100
AcDbEntity
  8
0
  6
Continuous
 62
     7
370
    25
100
AcDbLine
 10
256.3685365188
 20
50.1358732963
 30
0.0
 11
257.389157245
 21
50.7250651002
 31
0.0
  0
LINE
  5
16E
330
1F
100
AcDbEntity
  8
0
  6
Continuous
 62
     7
370
    25
100
AcDbLine
 10
256.3685365188
 20
50.1358732963
 30
0.0
 11
256.7421096322
 21
49.3310223244
 31
0.0
  0
LINE
  5
16F
330
1F
100
AcDbEntity
  8
0
  6
Continuous
 62
     7
370
    25
100
AcDbLine
 10
257.9039289072
 20
49.1513077316
 30
0.0
 11
256.7421096322
 21
49.3310223244
 31
0.0
  0
LINE
  5
170
330
1F
100
AcDbEntity
  8
0
  6
Continuous
 62
     7
370
    25
100
AcDbLine
 10
258.2359651333
 20
49.1728966091
 30
0.0
 11
259.156924198
 21
49.7045549604
 31
0.0
  0
LINE
  5
171
330
1F
100
AcDbEntity
  8
0
  6
Continuous
 62
     7
370
    25
100
AcDbLine
 10
258.7833510846
 20
49.4888957925
 30
0.0
 11
258.7833510846
 21
50.5094059322
 31
0.0
  0
LINE
  5
172
330
1F
100
AcDbEntity
  8
0
  6
Continuous
 62
     7
370
    25
100
AcDbLine
 10
257.389157245
 20
49.2309345563
 30
0.0
 11
257.389157245
 21
50.7250651002
 31
0.0
  0
LWPOLYLINE
  5
173
330
1F
100
AcDbEntity
  8
0
  6
Continuous
 62
     7
370
    25
100
AcDbPolyline
 90
       14
 70
   128
 43
0.0
 10
249.0958070646
 20
49.9839447985
 10
249.0730482369
 20
50.1085959789
 10
248.9271665076
 20
50.398468422
 10
248.6609937142
 20
50.6582903889
 10
248.2912544723
 20
50.8717363099
 10
247.8411808583
 20
51.0253945928
 10
247.3390526525
 20
51.1096103226
 10
246.8164204168
 20
51.1190919151
 10
246.3061230568
 20
51.0532436072
 10
245.8402244322
 20
50.9162028901
 10
245.4479986671
 20
50.7165805361
 10
245.1540907489
 20
50.4669195519
 10
244.976967993
 20
50.1829070553
 10
244.9296536521
 20
49.9839447985
  0
LINE
  5
174
330
1F
100
AcDbEntity
  8
0
  6
Continuous
 62
     7
370
    25
100
AcDbLine
 10
248.406924198
 20
49.7045549604
 30
0.0
 11
248.0333510846
 21
50.5094059322
 31
0.0
  0
LINE
  5
175
330
1F
100
AcDbEntity
  8
0
  6
Continuous
 62
     7
370
    25
100
AcDbLine
 10
246.639157245
 20
50.7250651002
 30
0.0
 11
248.0333510846
 21
50.5094059322
 31
0.0
  0
LINE
  5
176
330
1F
100
AcDbEntity
  8
0
  6
Continuous
 62
     7
370
    25
100
AcDbLine
 10
245.6185365188
 20
50.1358732963
 30
0.0
 11
246.639157245
 21
50.7250651002
 31
0.0
  0
LINE
  5
177
330
1F
100
AcDbEntity
  8
0
  6
Continuous
 62
     7
370
    25
100
AcDbLine
 10
245.6185365188
 20
50.1358732963
 30
0.0
 11
245.9921096322
 21
49.3310223244
 31
0.0
  0
LINE
  5
178
330
1F
100
AcDbEntity
  8
0
  6
Continuous
 62
     7
370
    25
100
AcDbLine
 10
247.1539289072
 20
49.1513077316
 30
0.0
 11
245.9921096322
 21
49.3310223244
 31
0.0
  0
LINE
  5
179
330
1F
100
AcDbEntity
  8
0
  6
Continuous
 62
     7
370
    25
100
AcDbLine
 10
247.4859651333
 20
49.1728966091
 30
0.0
 11
248.406924198
 21
49.7045549604
 31
0.0
  0
LINE
  5
17A
330
1F
100
AcDbEntity
  8
0
  6
Continuous
 62
     7
370
    25
100
AcDbLine
 10
248.0333510846
 20
49.4888957925
 30
0.0
 11
248.0333510846
 21
50.5094059322
 31
0.0
  0
LINE
  5
17B
330
1F
100
AcDbEntity
  8
0
  6
Continuous
 62
     7
370
    25
100
AcDbLine
 10
246.639157245
 20
49.2309345563
 30
0.0
 11
246.639157245
 21
50.7250651002
 31
0.0
  0
ARC
  5
17C
330
1F
100
AcDbEntity
  8
0
  6
Continuous
 62
     7
370
    25
100
AcDbCircle
 10
267.4501781134
 20
49.8153355498
 30
0.0
 40
1.034359345021055
100
AcDbArc
 50
117.2554819354
 51
170.6184428929
  0
LWPOLYLINE
  5
17D
330
1F
100
AcDbEntity
  8
0
  6
Continuous
 62
     7
370
    25
100
AcDbPolyline
 90
       11
 70
   128
 43
0.0
 10
270.5958070647
 20
49.983944798
 10
270.5792800715
 20
50.0842779182
 10
270.4436785398
 20
50.375809035
 10
270.1867484323
 20
50.6387134484
 10
269.8246336127
 20
50.8564719069
 10
269.3800870867
 20
51.015401846
 10
268.8810413476
 20
51.1055171129
 10
268.3588532745
 20
51.1211554341
 10
267.8463338645
 20
51.0613341962
 10
267.375686597
 20
50.9298121878
 10
266.9764839708
 20
50.7348534202
  0
LINE
  5
17E
330
1F
100
AcDbEntity
  8
0
  6
Continuous
 62
     7
370
    25
100
AcDbLine
 10
268.43531242
 20
49.1498429467
 30
0.0
 11
269.5757124598
 21
49.3565369777
 31
0.0
  0
LINE
  5
17F
330
1F
100
AcDbEntity
  8
0
  6
Continuous
 62
     7
370
    25
100
AcDbLine
 10
269.8898287583
 20
50.1698090156
 30
0.0
 11
269.5757124598
 21
49.3565369777
 31
0.0
  0
LINE
  5
180
330
1F
100
AcDbEntity
  8
0
  6
Continuous
 62
     7
370
    25
100
AcDbLine
 10
268.8268466569
 20
50.7334861662
 30
0.0
 11
269.8898287583
 21
50.1698090156
 31
0.0
  0
LINE
  5
181
330
1F
100
AcDbEntity
  8
0
  6
Continuous
 62
     7
370
    25
100
AcDbLine
 10
268.8268466569
 20
50.7334861662
 30
0.0
 11
267.449748257
 21
50.4838912789
 31
0.0
  0
LINE
  5
182
330
1F
100
AcDbEntity
  8
0
  6
Continuous
 62
     7
370
    25
100
AcDbLine
 10
267.1356319585
 20
49.6706192411
 30
0.0
 11
267.449748257
 21
50.4838912789
 31
0.0
  0
LINE
  5
183
330
1F
100
AcDbEntity
  8
0
  6
Continuous
 62
     7
370
    25
100
AcDbLine
 10
267.1356319585
 20
49.6706192411
 30
0.0
 11
268.0819363719
 21
49.1688138253
 31
0.0
  0
LINE
  5
184
330
1F
100
AcDbEntity
  8
0
  6
Continuous
 62
     7
370
    25
100
AcDbLine
 10
267.449748257
 20
49.5040499453
 30
0.0
 11
267.449748257
 21
50.4838912789
 31
0.0
  0
LINE
  5
185
330
1F
100
AcDbEntity
  8
0
  6
Continuous
 62
     7
370
    25
100
AcDbLine
 10
268.8268466569
 20
49.2208073337
 30
0.0
 11
268.8268466569
 21
50.7334861662
 31
0.0
  0
LINE
  5
186
330
1F
100
AcDbEntity
  8
0
  6
Continuous
 62
     7
370
    25
100
AcDbLine
 10
243.7787116426
 20
46.625505162
 30
0.0
 11
243.7787116426
 21
37.2352858253
 31
0.0
  0
ELLIPSE
  5
187
330
1F
100
AcDbEntity
  8
0
  6
Continuous
 62
     7
370
    25
100
AcDbEllipse
 10
266.4061286406
 20
36.8270154193
 30
0.0
 11
28.28427124746185
 21
7.105427357601002E-15
 31
0.0
210
0.0
220
0.0
230
1.0
 40
0.5773815452
 41
2.400627951386773
 42
2.498091544796508
  0
LINE
  5
188
330
1F
100
AcDbEntity
  8
0
  6
Continuous
 62
     7
370
    25
100
AcDbLine
 10
277.0127303584
 20
47.8503163798
 30
0.0
 11
245.5374918859
 21
47.8503163798
 31
0.0
  0
LINE
  5
189
330
1F
100
AcDbEntity
  8
0
  6
Continuous
 62
     7
370
    25
100
AcDbLine
 10
277.0127303584
 20
37.2352858253
 30
0.0
 11
277.0127303584
 21
47.8503163798
 31
0.0
  0
LINE
  5
18A
330
1F
100
AcDbEntity
  8
0
  6
Continuous
 62
     7
370
    25
100
AcDbLine
 10
277.0127303584
 20
37.2352858253
 30
0.0
 11
243.7787116426
 21
37.2352858253
 31
0.0
  0
LINE
  5
18B
330
1F
100
AcDbEntity
  8
0
  6
Continuous
 62
     7
370
    25
100
AcDbLine
 10
233.5256633154
 20
32.9474844874
 30
0.0
 11
243.7787116426
 21
27.0285256767
 31
0.0
  0
ELLIPSE
  5
18C
330
1F
100
AcDbEntity
  8
0
  6
Continuous
 62
     7
370
    25
100
AcDbEllipse
 10
266.4061286406
 20
36.8270154193
 30
0.0
 11
28.28427124746185
 21
7.105427357601002E-15
 31
0.0
210
0.0
220
0.0
230
1.0
 40
0.5773815452
 41
3.785093762383096
 42
5.096785754880338
  0
LINE
  5
18D
330
1F
100
AcDbEntity
  8
0
  6
Continuous
 62
     7
370
    25
100
AcDbLine
 10
255.2736901918
 20
66.3241438683
 30
0.0
 11
277.0127303584
 21
53.7744631076
 31
0.0
  0
LWPOLYLINE
  5
18E
330
1F
100
AcDbEntity
  8
0
  6
Continuous
 62
     7
370
    25
100
AcDbPolyline
 90
        3
 70
   128
 43
0.0
 10
234.840184488
 20
31.956261877
 10
234.249092976
 20
32.3404463582
 10
233.5256633154
 20
32.9474844874
  0
LWPOLYLINE
  5
18F
330
1F
100
AcDbEntity
  8
0
  6
Continuous
 62
     7
370
    25
100
AcDbPolyline
 90
       30
 70
   128
 43
0.0
 10
266.5681867101
 20
49.6141937865
 10
267.0316684641
 20
49.399121177
 10
267.5644030262
 20
49.2465948357
 10
268.1414803203
 20
49.1637467247
 10
268.7359168536
 20
49.1544507295
 10
269.3199174344
 20
49.2191415206
 10
269.8661748447
 20
49.3547942286
 10
270.3491466951
 20
49.5550658834
 10
270.7462497585
 20
49.8105920052
 10
271.0389159372
 20
50.1094244765
 10
271.2134604859
 20
50.4375902231
 10
271.2617218955
 20
50.7797445793
 10
271.1814435161
 20
51.1198887878
 10
270.9763790755
 20
51.4421180834
 10
270.656117159
 20
51.7313653823
 10
270.2356328579
 20
51.9741058025
 10
269.7345875509
 20
52.1589890715
 10
269.1764095595
 20
52.2773702532
 10
268.5871986663
 20
52.3237139752
 10
267.9945057177
 20
52.2958532565
 10
267.4260443774
 20
52.1950908333
 10
266.9083952659
 20
52.0261382446
 10
266.4657630801
 20
51.7968955257
 10
266.1188448092
 20
51.5180818112
 10
265.8838619661
 20
51.2027341206
 10
265.7718020871
 20
50.8655977614
 10
265.7879049678
 20
50.5224368551
 10
265.9314176553
 20
50.1892972243
 10
266.195629656
 20
49.8817561078
 10
266.5681867101
 20
49.6141937865
  0
LWPOLYLINE
  5
190
330
1F
100
AcDbEntity
  8
0
  6
Continuous
 62
     7
370
    25
100
AcDbPolyline
 90
       30
 70
   128
 43
0.0
 10
255.8181867101
 20
49.6141937865
 10
256.2816684641
 20
49.399121177
 10
256.8144030262
 20
49.2465948357
 10
257.3914803203
 20
49.1637467247
 10
257.9859168536
 20
49.1544507295
 10
258.5699174344
 20
49.2191415206
 10
259.1161748447
 20
49.3547942286
 10
259.5991466951
 20
49.5550658834
 10
259.9962497585
 20
49.8105920052
 10
260.2889159372
 20
50.1094244765
 10
260.4634604859
 20
50.4375902231
 10
260.5117218955
 20
50.7797445793
 10
260.4314435161
 20
51.1198887878
 10
260.2263790755
 20
51.4421180834
 10
259.906117159
 20
51.7313653823
 10
259.4856328579
 20
51.9741058025
 10
258.9845875509
 20
52.1589890715
 10
258.4264095595
 20
52.2773702532
 10
257.8371986663
 20
52.3237139752
 10
257.2445057177
 20
52.2958532565
 10
256.6760443774
 20
52.1950908333
 10
256.1583952659
 20
52.0261382446
 10
255.7157630801
 20
51.7968955257
 10
255.3688448092
 20
51.5180818112
 10
255.1338619661
 20
51.2027341206
 10
255.0218020871
 20
50.8655977614
 10
255.0379049678
 20
50.5224368551
 10
255.1814176553
 20
50.1892972243
 10
255.445629656
 20
49.8817561078
 10
255.8181867101
 20
49.6141937865
  0
LINE
  5
191
330
1F
100
AcDbEntity
  8
0
  6
Continuous
 62
     7
370
    25
100
AcDbLine
 10
234.5359440528
 20
54.7607019018
 30
0.0
 11
254.4356927949
 21
66.2485823243
 31
0.0
  0
SPLINE
  5
192
330
1F
100
AcDbEntity
  8
0
  6
Continuous
 62
     7
370
    25
100
AcDbSpline
210
0.0
220
0.0
230
1.0
 70
     8
 71
     3
 72
    14
 73
    10
 74
     0
 42
0.000000001
 43
0.00000001
 40
0.0
 40
0.0
 40
0.0
 40
0.0
 40
0.4999999999999971
 40
0.4999999999999971
 40
0.6249999999999978
 40
0.6249999999999978
 40
0.7499999999999986
 40
0.7499999999999986
 40
1.0
 40
1.0
 40
1.0
 40
1.0
 10
254.4356927948829
 20
66.24858232425387
 30
0.0
 10
254.5455268922779
 20
66.31198819904803
 30
0.0
 10
254.6835449310301
 20
66.36164056067538
 30
0.0
 10
254.8739083762841
 20
66.38703489108141
 30
0.0
 10
254.9123434601341
 20
66.39015608732579
 30
0.0
 10
254.9900679971508
 20
66.39178314580786
 30
0.0
 10
255.0298642917138
 20
66.39021064293414
 30
0.0
 10
255.1448965315529
 20
66.37702538399589
 30
0.0
 10
255.2177952292479
 20
66.35641134335035
 30
0.0
 10
255.2736901917646
 20
66.324143868322
 30
0.0
  0
LINE
  5
193
330
1F
100
AcDbEntity
  8
0
  6
Continuous
 62
     7
370
    25
100
AcDbLine
 10
277.0127303584
 20
53.7744631076
 30
0.0
 11
277.0127303584
 21
47.8503163798
 31
0.0
  0
LINE
  5
194
330
1F
100
AcDbEntity
  8
0
  6
Continuous
 62
     7
370
    25
100
AcDbLine
 10
245.5374918859
 20
47.8503163798
 30
0.0
 11
234.4050534371
 21
54.2769363019
 31
0.0
  0
SPLINE
  5
195
330
1F
100
AcDbEntity
  8
0
  6
Continuous
 62
     7
370
    25
100
AcDbSpline
210
0.0
220
0.0
230
1.0
 70
     8
 71
     3
 72
    14
 73
    10
 74
     0
 42
0.000000001
 43
0.00000001
 40
0.0
 40
0.0
 40
0.0
 40
0.0
 40
0.2499999999999973
 40
0.2499999999999973
 40
0.3749999999999982
 40
0.3749999999999982
 40
0.4999999999999992
 40
0.4999999999999992
 40
1.0
 40
1.0
 40
1.0
 40
1.0
 10
234.4050534370552
 20
54.27693630185164
 30
0.0
 10
234.3498842400871
 20
54.30878480134698
 30
0.0
 10
234.3133857429977
 20
54.35138688747978
 30
0.0
 10
234.2905913882137
 20
54.41779201063326
 30
0.0
 10
234.2878797670788
 20
54.44071433303198
 30
0.0
 10
234.2907204692607
 20
54.48564371329777
 30
0.0
 10
234.2961508587848
 20
54.50788953585198
 30
0.0
 10
234.3404307296703
 20
54.6181838079338
 30
0.0
 10
234.4258008642511
 20
54.69711759254057
 30
0.0
 10
234.5359440527504
 20
54.76070190183115
 30
0.0
  0
LWPOLYLINE
  5
196
330
1F
100
AcDbEntity
  8
0
  6
Continuous
 62
     7
370
    25
100
AcDbPolyline
 90
       30
 70
   128
 43
0.0
 10
245.0681867101
 20
49.6141937865
 10
245.5316684641
 20
49.399121177
 10
246.0644030262
 20
49.2465948357
 10
246.6414803203
 20
49.1637467247
 10
247.2359168536
 20
49.1544507295
 10
247.8199174344
 20
49.2191415206
 10
248.3661748447
 20
49.3547942286
 10
248.8491466951
 20
49.5550658834
 10
249.2462497585
 20
49.8105920052
 10
249.5389159372
 20
50.1094244765
 10
249.7134604859
 20
50.4375902231
 10
249.7617218955
 20
50.7797445793
 10
249.6814435161
 20
51.1198887878
 10
249.4763790755
 20
51.4421180834
 10
249.156117159
 20
51.7313653823
 10
248.7356328579
 20
51.9741058025
 10
248.2345875509
 20
52.1589890715
 10
247.6764095595
 20
52.2773702532
 10
247.0871986663
 20
52.3237139752
 10
246.4945057177
 20
52.2958532565
 10
245.9260443774
 20
52.1950908333
 10
245.4083952659
 20
52.0261382446
 10
244.9657630801
 20
51.7968955257
 10
244.6188448092
 20
51.5180818112
 10
244.3838619661
 20
51.2027341206
 10
244.2718020871
 20
50.8655977614
 10
244.2879049678
 20
50.5224368551
 10
244.4314176553
 20
50.1892972243
 10
244.695629656
 20
49.8817561078
 10
245.0681867101
 20
49.6141937865
  0
LINE
  5
197
330
1F
100
AcDbEntity
  8
0
  6
Continuous
 62
     7
370
    25
100
AcDbLine
 10
233.7787116426
 20
34.4344844213
 30
0.0
 11
233.7787116426
 21
43.0081629461
 31
0.0
  0
LINE
  5
198
330
1F
100
AcDbEntity
  8
0
  6
Continuous
 62
     7
370
    25
100
AcDbLine
 10
277.0127303584
 20
37.2352858253
 30
0.0
 11
277.0127303584
 21
34.4344844213
 31
0.0
  0
LINE
  5
199
330
1F
100
AcDbEntity
  8
0
  6
Continuous
 62
     7
370
    25
100
AcDbLine
 10
277.0127303584
 20
34.4344844213
 30
0.0
 11
233.7787116426
 21
34.4344844213
 31
0.0
  0
LINE
  5
19A
330
1F
100
AcDbEntity
  8
0
  6
Continuous
 62
     7
370
    25
100
AcDbLine
 10
243.7787116426
 20
46.625505162
 30
0.0
 11
233.5256633154
 21
52.5444639727
 31
0.0
  0
LINE
  5
19B
330
1F
100
AcDbEntity
  8
0
  6
Continuous
 62
     7
370
    25
100
AcDbLine
 10
277.0127303584
 20
21.6879435849
 30
0.0
 11
277.0127303584
 21
28.6616073005
 31
0.0
  0
LINE
  5
19C
330
1F
100
AcDbEntity
  8
0
  6
Continuous
 62
     7
370
    25
100
AcDbLine
 10
243.7787116426
 20
28.6616073005
 30
0.0
 11
243.7787116426
 21
27.0285256767
 31
0.0
  0
LINE
  5
19D
330
1F
100
AcDbEntity
  8
0
  6
Continuous
 62
     7
370
    25
100
AcDbLine
 10
277.0127303584
 20
28.6616073005
 30
0.0
 11
243.7787116426
 21
28.6616073005
 31
0.0
  0
LINE
  5
19E
330
1F
100
AcDbEntity
  8
0
  6
Continuous
 62
     7
370
    25
100
AcDbLine
 10
243.7787116426
 20
28.6616073005
 30
0.0
 11
233.7787116426
 21
34.4344844213
 31
0.0
  0
LINE
  5
19F
330
1F
100
AcDbEntity
  8
0
  6
Continuous
 62
     7
370
    25
100
AcDbLine
 10
277.0127303584
 20
34.4344844213
 30
0.0
 11
277.0127303584
 21
28.6616073005
 31
0.0
  0
SPLINE
  5
1A0
330
1F
100
AcDbEntity
  8
0
  6
Continuous
 62
     7
370
    25
100
AcDbSpline
210
0.0
220
0.0
230
1.0
 70
     8
 71
     3
 72
    18
 73
    14
 74
     0
 42
0.000000001
 43
0.00000001
 40
0.0
 40
0.0
 40
0.0
 40
0.0
 40
0.2500000000000022
 40
0.2500000000000022
 40
0.5000000000000044
 40
0.5000000000000044
 40
0.6250000000000033
 40
0.6250000000000033
 40
0.7500000000000022
 40
0.7500000000000022
 40
0.8750000000000011
 40
0.8750000000000011
 40
1.0
 40
1.0
 40
1.0
 40
1.0
 10
233.1721099248319
 20
33.8483012656584
 30
0.0
 10
233.1721099248319
 20
33.77512923635037
 30
0.0
 10
233.1776542629594
 20
33.69801339062648
 30
0.0
 10
233.2012632950616
 20
33.54011521807796
 30
0.0
 10
233.2190978741949
 20
33.4593612659385
 30
0.0
 10
233.2588449015398
 20
33.33533650686081
 30
0.0
 10
233.2740715054676
 20
33.29424137230494
 30
0.0
 10
233.3096310946677
 20
33.21268747060419
 30
0.0
 10
233.3302003618737
 20
33.17184131507305
 30
0.0
 10
233.376739829633
 20
33.09474160461243
 30
0.0
 10
233.4033600759767
 20
33.05752401573857
 30
0.0
 10
233.4613675474303
 20
32.99344485032409
 30
0.0
 10
233.4937392552752
 20
32.96591385506299
 30
0.0
 10
233.5256633154252
 20
32.94748448741855
 30
0.0
  0
LINE
  5
1A1
330
1F
100
AcDbEntity
  8
0
  6
Continuous
 62
     7
370
    25
100
AcDbLine
 10
233.1721099248
 20
52.0518512503
 30
0.0
 11
233.1721099248
 21
33.8483012657
 31
0.0
  0
SPLINE
  5
1A2
330
1F
100
AcDbEntity
  8
0
  6
Continuous
 62
     7
370
    25
100
AcDbSpline
210
0.0
220
0.0
230
1.0
 70
     8
 71
     3
 72
    18
 73
    14
 74
     0
 42
0.000000001
 43
0.00000001
 40
0.0
 40
0.0
 40
0.0
 40
0.0
 40
0.125
 40
0.125
 40
0.25
 40
0.25
 40
0.375
 40
0.375
 40
0.5
 40
0.5
 40
0.75
 40
0.75
 40
1.0
 40
1.0
 40
1.0
 40
1.0
 10
233.5256633154252
 20
52.54446397267656
 30
0.0
 10
233.4937786800498
 20
52.56287058088307
 30
0.0
 10
233.4616628154387
 20
52.57270770381048
 30
0.0
 10
233.4032385338049
 20
52.57565426280355
 30
0.0
 10
233.3767787081087
 20
52.56918028464257
 30
0.0
 10
233.3300528817685
 20
52.5456992843338
 30
0.0
 10
233.3095150577789
 20
52.5285737094723
 30
0.0
 10
233.2740223251218
 20
52.48811333042442
 30
0.0
 10
233.258753824695
 20
52.46452839721439
 30
0.0
 10
233.2189737836167
 20
52.38622880098955
 30
0.0
 10
233.2012309919509
 20
52.32623786083413
 30
0.0
 10
233.1776521324543
 20
52.19568684681212
 30
0.0
 10
233.1721099248319
 20
52.12482034917626
 30
0.0
 10
233.1721099248319
 20
52.05185125034806
 30
0.0
  0
LINE
  5
1A3
330
1F
100
AcDbEntity
  8
0
  6
Continuous
 62
     7
370
    25
100
AcDbLine
 10
233.7787116426
 20
43.0081629461
 30
0.0
 11
243.7787116426
 21
37.2352858253
 31
0.0
  0
LWPOLYLINE
  5
1A4
330
1F
100
AcDbEntity
  8
0
  6
Continuous
 62
     7
370
    25
100
AcDbPolyline
 90
       20
 70
   128
 43
0.0
 10
270.2080028634
 20
49.4867502522
 10
270.2702765787
 20
49.5368888
 10
270.5121019924
 20
49.8108748
 10
270.6282995332
 20
50.1109708404
 10
270.6115680822
 20
50.4183207834
 10
270.462958938
 20
50.7136127017
 10
270.1918097597
 20
50.9782923181
 10
269.8151578474
 20
51.1957288388
 10
269.356669626
 20
51.3522599275
 10
268.8451535966
 20
51.4380501604
 10
268.3127501926
 20
51.4477090215
 10
267.7929122779
 20
51.380629609
 10
267.3183031805
 20
51.2410267692
 10
266.9187443354
 20
51.0376722619
 10
266.6193414945
 20
50.7833435987
 10
266.4389072393
 20
50.4940211848
 10
266.3887789176
 20
50.1878842116
 10
266.4721062763
 20
49.884168391
 10
266.683653551
 20
49.601957305
 10
266.8174578535
 20
49.4867502522
  0
LWPOLYLINE
  5
1A5
330
1F
100
AcDbEntity
  8
0
  6
Continuous
 62
     7
370
    25
100
AcDbPolyline
 90
       20
 70
   128
 43
0.0
 10
259.4580028633
 20
49.4867502521
 10
259.5202765787
 20
49.5368888
 10
259.7621019924
 20
49.8108748
 10
259.8782995332
 20
50.1109708404
 10
259.8615680822
 20
50.4183207834
 10
259.712958938
 20
50.7136127017
 10
259.4418097597
 20
50.9782923181
 10
259.0651578474
 20
51.1957288388
 10
258.606669626
 20
51.3522599275
 10
258.0951535966
 20
51.4380501604
 10
257.5627501926
 20
51.4477090215
 10
257.0429122779
 20
51.380629609
 10
256.5683031805
 20
51.2410267692
 10
256.1687443354
 20
51.0376722619
 10
255.8693414945
 20
50.7833435987
 10
255.6889072393
 20
50.4940211848
 10
255.6387789176
 20
50.1878842116
 10
255.7221062763
 20
49.884168391
 10
255.933653551
 20
49.601957305
 10
256.0674578535
 20
49.4867502521
  0
LWPOLYLINE
  5
1A6
330
1F
100
AcDbEntity
  8
0
  6
Continuous
 62
     7
370
    25
100
AcDbPolyline
 90
       20
 70
   128
 43
0.0
 10
248.7080028633
 20
49.4867502521
 10
248.7702765787
 20
49.5368888
 10
249.0121019924
 20
49.8108748
 10
249.1282995332
 20
50.1109708404
 10
249.1115680822
 20
50.4183207834
 10
248.962958938
 20
50.7136127017
 10
248.6918097597
 20
50.9782923181
 10
248.3151578474
 20
51.1957288388
 10
247.856669626
 20
51.3522599275
 10
247.3451535966
 20
51.4380501604
 10
246.8127501926
 20
51.4477090215
 10
246.2929122779
 20
51.380629609
 10
245.8183031805
 20
51.2410267692
 10
245.4187443354
 20
51.0376722619
 10
245.1193414945
 20
50.7833435987
 10
244.9389072393
 20
50.4940211848
 10
244.8887789176
 20
50.1878842116
 10
244.9721062763
 20
49.884168391
 10
245.183653551
 20
49.601957305
 10
245.3174578535
 20
49.4867502521
  0
ELLIPSE
  5
1A7
330
1F
100
AcDbEntity
  8
0
  6
Continuous
 62
     7
370
    25
100
AcDbEllipse
 10
236.6877537461
 20
53.9830680691
 30
0.0
 11
-0.5921461341247607
 21
14.23394750841461
 31
0.0
210
0.0
220
0.0
230
1.0
 40
0.4444802122
 41
2.411191917655857
 42
2.461991209132773
  0
SPLINE
  5
1A8
330
1F
100
AcDbEntity
  8
0
  6
Continuous
 62
     7
370
    25
100
AcDbSpline
210
0.0
220
0.0
230
1.0
 70
     8
 71
     3
 72
    12
 73
     8
 74
     0
 42
0.000000001
 43
0.00000001
 40
0.0
 40
0.0
 40
0.0
 40
0.0
 40
0.2499999999999993
 40
0.2499999999999993
 40
0.4999999999999987
 40
0.4999999999999987
 40
1.0
 40
1.0
 40
1.0
 40
1.0
 10
232.6932261249921
 20
43.4727703812518
 30
0.0
 10
232.7157351852304
 20
43.45977617736564
 30
0.0
 10
232.7397312101926
 20
43.43865279532046
 30
0.0
 10
232.7831756056444
 20
43.39261884807649
 30
0.0
 10
232.8023467940586
 20
43.36848849693376
 30
0.0
 10
232.8550333861517
 20
43.29634853945203
 30
0.0
 10
232.8832172325376
 20
43.24938880422087
 30
0.0
 10
232.9078692157937
 20
43.20450262529499
 30
0.0
  0
LINE
  5
1A9
330
1F
100
AcDbEntity
  8
0
  6
Continuous
 62
     7
370
    25
100
AcDbLine
 10
231.6521929843
 20
44.0737460212
 30
0.0
 11
232.693226125
 21
43.4727703813
 31
0.0
  0
SPLINE
  5
1AA
330
1F
100
AcDbEntity
  8
0
  6
Continuous
 62
     7
370
    25
100
AcDbSpline
210
0.0
220
0.0
230
1.0
 70
     8
 71
     3
 72
    12
 73
     8
 74
     0
 42
0.000000001
 43
0.00000001
 40
0.0
 40
0.0
 40
0.0
 40
0.0
 40
0.5
 40
0.5
 40
0.75
 40
0.75
 40
1.0
 40
1.0
 40
1.0
 40
1.0
 10
231.5606498572629
 20
43.98223580645858
 30
0.0
 10
231.557666411462
 20
44.01466175625942
 30
0.0
 10
231.559147901066
 20
44.04410001505776
 30
0.0
 10
231.5767617268407
 20
44.0759053897483
 30
0.0
 10
231.5853332920675
 20
44.08418898122662
 30
0.0
 10
231.6112624056044
 20
44.08991461125557
 30
0.0
 10
231.6297507957612
 20
44.08670162092292
 30
0.0
 10
231.6521929843092
 20
44.07374602124183
 30
0.0
  0
ELLIPSE
  5
1AB
330
1F
100
AcDbEntity
  8
0
  6
Continuous
 62
     7
370
    25
100
AcDbEllipse
 10
244.5057085085
 20
49.4698588511
 30
0.0
 11
12.6227902852558
 21
6.604924588173802
 31
0.0
210
0.0
220
0.0
230
1.0
 40
0.4445305117
 41
2.960695352983359
 42
3.416370228655496
  0
SPLINE
  5
1AC
330
1F
100
AcDbEntity
  8
0
  6
Continuous
 62
     7
370
    25
100
AcDbSpline
210
0.0
220
0.0
230
1.0
 70
     8
 71
     3
 72
    12
 73
     8
 74
     0
 42
0.000000001
 43
0.00000001
 40
0.0
 40
0.0
 40
0.0
 40
0.0
 40
0.2500000000000002
 40
0.2500000000000002
 40
0.5000000000000004
 40
0.5000000000000004
 40
1.0
 40
1.0
 40
1.0
 40
1.0
 10
242.7521929843091
 20
63.29950992883099
 30
0.0
 10
242.7296839240709
 20
63.31250413271714
 30
0.0
 10
242.7178278350628
 20
63.32661700065445
 30
0.0
 10
242.7096530534298
 20
63.35228361431544
 30
0.0
 10
242.7125818710078
 20
63.36365175613709
 30
0.0
 10
242.7311211452154
 20
63.39466052953107
 30
0.0
 10
242.7561269166998
 20
63.41090457006018
 30
0.0
 10
242.7856498572628
 20
63.42450606435841
 30
0.0
  0
LINE
  5
1AD
330
1F
100
AcDbEntity
  8
0
  6
Continuous
 62
     7
370
    25
100
AcDbLine
 10
243.793226125
 20
62.6985342888
 30
0.0
 11
242.7521929843
 21
63.2995099288
 31
0.0
  0
SPLINE
  5
1AE
330
1F
100
AcDbEntity
  8
0
  6
Continuous
 62
     7
370
    25
100
AcDbSpline
210
0.0
220
0.0
230
1.0
 70
     8
 71
     3
 72
    12
 73
     8
 74
     0
 42
0.000000001
 43
0.00000001
 40
0.0
 40
0.0
 40
0.0
 40
0.0
 40
0.5000000000000032
 40
0.5000000000000032
 40
0.7500000000000016
 40
0.7500000000000016
 40
1.0
 40
1.0
 40
1.0
 40
1.0
 10
244.1328692157936
 20
62.64677288319484
 30
0.0
 10
244.0815915819588
 20
62.6456813708844
 30
0.0
 10
244.0276027697275
 20
62.64656479808456
 30
0.0
 10
243.9383331193769
 20
62.65613889779938
 30
0.0
 10
243.9073771146
 20
62.66078176901864
 30
0.0
 10
243.8466149816486
 20
62.67517135005385
 30
0.0
 10
243.81566831354
 20
62.68557868915986
 30
0.0
 10
243.793226124992
 20
62.69853428884095
 30
0.0
  0
ELLIPSE
  5
1AF
330
1F
100
AcDbEntity
  8
0
  6
Continuous
 62
     7
370
    25
100
AcDbEllipse
 10
236.6877537461
 20
53.9830680691
 30
0.0
 11
12.6227902852558
 21
6.604924588173802
 31
0.0
210
0.0
220
0.0
230
1.0
 40
0.4445305117
 41
0.3719441266914016
 42
0.7302899226136015
  0
ELLIPSE
  5
1B0
330
1F
100
AcDbEntity
  8
0
  6
Continuous
 62
     7
370
    25
100
AcDbEllipse
 10
244.5057085085
 20
49.4698588511
 30
0.0
 11
-0.5921461341247323
 21
14.23394750841459
 31
0.0
210
0.0
220
0.0
230
1.0
 40
0.4444802122
 41
5.829499913454024
 42
6.463971794465682
  0
SPLINE
  5
1B1
330
1F
100
AcDbEntity
  8
0
  6
Continuous
 62
     7
370
    25
100
AcDbSpline
210
0.0
220
0.0
230
1.0
 70
     8
 71
     3
 72
    12
 73
     8
 74
     0
 42
0.000000001
 43
0.00000001
 40
0.0
 40
0.0
 40
0.0
 40
0.0
 40
0.2500000000000026
 40
0.2500000000000026
 40
0.5000000000000051
 40
0.5000000000000051
 40
1.0
 40
1.0
 40
1.0
 40
1.0
 10
231.6521929843092
 20
50.25398825848564
 30
0.0
 10
231.6296940648013
 20
50.26697660825277
 30
0.0
 10
231.6115485182941
 20
50.29145643634857
 30
0.0
 10
231.5852318850291
 20
50.34734725823644
 30
0.0
 10
231.5768484958519
 20
50.37768883519272
 30
0.0
 10
231.5592507055421
 20
50.47004754221592
 30
0.0
 10
231.5576504320166
 20
50.53205995865511
 30
0.0
 10
231.5606498572629
 20
50.59332011087654
 30
0.0
  0
LINE
  5
1B2
330
1F
100
AcDbEntity
  8
0
  6
Continuous
 62
     7
370
    25
100
AcDbLine
 10
232.693226125
 20
49.6530126185
 30
0.0
 11
231.6521929843
 21
50.2539882585
 31
0.0
  0
SPLINE
  5
1B3
330
1F
100
AcDbEntity
  8
0
  6
Continuous
 62
     7
370
    25
100
AcDbSpline
210
0.0
220
0.0
230
1.0
 70
     8
 71
     3
 72
    12
 73
     8
 74
     0
 42
0.000000001
 43
0.00000001
 40
0.0
 40
0.0
 40
0.0
 40
0.0
 40
0.5000000000000018
 40
0.5000000000000018
 40
0.7500000000000009
 40
0.7500000000000009
 40
1.0
 40
1.0
 40
1.0
 40
1.0
 10
232.9078692157937
 20
49.81558692971296
 30
0.0
 10
232.883055512689
 20
49.7669445872661
 30
0.0
 10
232.8550170922202
 20
49.72207619582971
 30
0.0
 10
232.8022698246297
 20
49.67021713537762
 30
0.0
 10
232.7828232400418
 20
49.65570147428515
 30
0.0
 10
232.7400658190043
 20
49.64030666887314
 30
0.0
 10
232.7156878594183
 20
49.64004573521901
 30
0.0
 10
232.693226124992
 20
49.65301261849538
 30
0.0
  0
ELLIPSE
  5
1B4
330
1F
100
AcDbEntity
  8
0
  6
Continuous
 62
     7
370
    25
100
AcDbEllipse
 10
236.6877537461
 20
53.9830680691
 30
0.0
 11
6.249911489441843
 21
10.82536865912822
 31
0.0
210
0.0
220
0.0
230
1.0
 40
0.1059897947
 41
1.115125557425493
 42
1.473471353347663
  0
ELLIPSE
  5
1B5
330
1F
100
AcDbEntity
  8
0
  6
Continuous
 62
     7
370
    25
100
AcDbEllipse
 10
236.6877537461
 20
53.9830680691
 30
0.0
 11
6.249911489441843
 21
10.82536865912822
 31
0.0
210
0.0
220
0.0
230
1.0
 40
0.1059897947
 41
1.975513489168589
 42
2.026312780645519
  0
SPLINE
  5
1B6
330
1F
100
AcDbEntity
  8
0
  6
Continuous
 62
     7
370
    25
100
AcDbSpline
210
0.0
220
0.0
230
1.0
 70
     8
 71
     3
 72
    12
 73
     8
 74
     0
 42
0.000000001
 43
0.00000001
 40
0.0
 40
0.0
 40
0.0
 40
0.0
 40
0.2500000000000007
 40
0.2500000000000007
 40
0.5000000000000014
 40
0.5000000000000014
 40
1.0
 40
1.0
 40
1.0
 40
1.0
 10
238.4412692702721
 20
59.6089153609991
 30
0.0
 10
238.46376818978
 20
59.59592701123196
 30
0.0
 10
238.4756239747549
 20
59.57507936555655
 30
0.0
 10
238.4838085881267
 20
59.52965933871604
 30
0.0
 10
238.4808880906962
 20
59.50584547795503
 30
0.0
 10
238.4623757835812
 20
59.43433946310318
 30
0.0
 10
238.4375406664222
 20
59.38759283390042
 30
0.0
 10
238.4078123973185
 20
59.34176793089749
 30
0.0
  0
LINE
  5
1B7
330
1F
100
AcDbEntity
  8
0
  6
Continuous
 62
     7
370
    25
100
AcDbLine
 10
237.4002361296
 20
60.209891001
 30
0.0
 11
238.4412692703
 21
59.608915361
 31
0.0
  0
SPLINE
  5
1B8
330
1F
100
AcDbEntity
  8
0
  6
Continuous
 62
     7
370
    25
100
AcDbSpline
210
0.0
220
0.0
230
1.0
 70
     8
 71
     3
 72
    12
 73
     8
 74
     0
 42
0.000000001
 43
0.00000001
 40
0.0
 40
0.0
 40
0.0
 40
0.0
 40
0.5000000000000004
 40
0.5000000000000004
 40
0.7500000000000002
 40
0.7500000000000002
 40
1.0
 40
1.0
 40
1.0
 40
1.0
 10
237.0605930387876
 20
60.11950111206108
 30
0.0
 10
237.1121251069911
 20
60.15271425651456
 30
0.0
 10
237.1665835578247
 20
60.18232573092092
 30
0.0
 10
237.2554892104378
 20
60.21330421430285
 30
0.0
 10
237.2863469170005
 20
60.22123023341597
 30
0.0
 10
237.3469598855634
 20
60.22631389976572
 30
0.0
 10
237.3777743951631
 20
60.22285788426569
 30
0.0
 10
237.4002361295893
 20
60.20989100098932
 30
0.0
  0
ELLIPSE
  5
1B9
330
1F
100
AcDbEntity
  8
0
  6
Continuous
 62
     7
370
    25
100
AcDbEllipse
 10
244.5057085085
 20
49.4698588511
 30
0.0
 11
11.35109810003738
 21
-6.558652466109357
 31
0.0
210
0.0
220
0.0
230
1.0
 40
0.9534948969
 41
2.686319833441776
 42
3.59750705666181
  0
LWPOLYLINE
  5
1BA
330
1F
100
AcDbEntity
  8
0
  6
Continuous
 62
     7
370
    25
100
AcDbPolyline
 90
       19
 70
   128
 43
0.0
 10
228.3284284737
 20
48.7261636491
 10
228.373233486
 20
49.7722386198
 10
228.507188763
 20
50.8593102118
 10
228.7289197422
 20
51.9762235996
 10
229.0361511636
 20
53.1115177404
 10
229.4257304173
 20
54.25354298
 10
229.8936598928
 20
55.3905805941
 10
230.4351380005
 20
56.510963038
 10
231.0446084423
 20
57.6031936718
 10
231.7158172267
 20
58.6560647312
 10
232.4418768433
 20
59.6587723343
 10
233.215336938
 20
60.6010273442
 10
234.0282607634
 20
61.4731609495
 10
234.8723066211
 20
62.2662238791
 10
235.7388134584
 20
62.9720782343
 10
236.6188897426
 20
63.5834809942
 10
237.5035047001
 20
64.0941583391
 10
238.3835809843
 20
64.4988700283
 10
239.1414817
 20
64.762381441
  0
ARC
  5
1BB
330
1F
100
AcDbEntity
  8
0
  6
Continuous
 62
     7
370
    25
100
AcDbCircle
 10
239.445025757
 20
53.6063016045
 30
0.0
 40
18.43949451315392
100
AcDbArc
 50
140.1701749221
 51
177.4184653376
  0
LINE
  5
1BC
330
1F
100
AcDbEntity
  8
0
  6
Continuous
 62
     7
370
    25
100
AcDbLine
 10
231.6521929843
 20
44.0737460212
 30
0.0
 11
232.6947555543
 21
43.4716918067
 31
0.0
  0
ARC
  5
1BD
330
1F
100
AcDbEntity
  8
0
  6
Continuous
 62
     7
370
    25
100
AcDbCircle
 10
228.9480635647
 20
62.998036154
 30
0.0
 40
4.390171036897355
100
AcDbArc
 50
93.4295381122
 51
146.5650853551
  0
ARC
  5
1BE
330
1F
100
AcDbEntity
  8
0
  6
Continuous
 62
     7
370
    25
100
AcDbCircle
 10
223.4639113198
 20
54.2085716479
 30
0.0
 40
2.450321849060627
100
AcDbArc
 50
174.6547638622
 51
232.6759834224
  0
ARC
  5
1BF
330
1F
100
AcDbEntity
  8
0
  6
Continuous
 62
     7
370
    25
100
AcDbCircle
 10
228.345418667
 20
63.1450753382
 30
0.0
 40
4.248896610008778
100
AcDbArc
 50
61.9783823651
 51
85.409962841
  0
ARC
  5
1C0
330
1F
100
AcDbEntity
  8
0
  6
Continuous
 62
     7
370
    25
100
AcDbCircle
 10
238.55891383
 20
54.1190582048
 30
0.0
 40
17.77685396521753
100
AcDbArc
 50
140.1701749221
 51
177.4184653376
  0
ARC
  5
1C1
330
1F
100
AcDbEntity
  8
0
  6
Continuous
 62
     7
370
    25
100
AcDbCircle
 10
228.6284042021
 20
62.8127546952
 30
0.0
 40
4.593186423519342
100
AcDbArc
 50
103.4689958683
 51
144.1118487458
  0
ARC
  5
1C2
330
1F
100
AcDbEntity
  8
0
  6
Continuous
 62
     7
370
    25
100
AcDbCircle
 10
223.8452511938
 20
54.8589373602
 30
0.0
 40
3.045757353594539
100
AcDbArc
 50
178.8560094402
 51
201.1091694604
  0
ARC
  5
1C3
330
1F
100
AcDbEntity
  8
0
  6
Continuous
 62
     7
370
    18
100
AcDbCircle
 10
264.5603385944
 20
37.8809147997
 30
0.0
 40
34.32449189747468
100
AcDbArc
 50
151.4662049286
 51
154.7097710486
  0
LWPOLYLINE
  5
1C4
330
1F
100
AcDbEntity
  8
0
  6
Continuous
 62
     7
370
    18
100
AcDbPolyline
 90
       25
 70
   128
 43
0.0
 10
228.3284284737
 20
48.6037024324
 10
228.3737776765
 20
49.662482767
 10
228.5093599406
 20
50.7627576578
 10
228.7337840086
 20
51.8932367952
 10
229.0447469858
 20
53.0423199337
 10
229.4390579712
 20
54.1982159252
 10
229.9126708007
 20
55.3490637127
 10
230.4607255656
 20
56.4830540406
 10
231.0775984824
 20
57.5885506335
 10
231.7569596002
 20
58.6542096005
 10
232.4918377547
 20
59.6690958384
 10
233.2746921015
 20
60.6227952411
 10
234.0974894957
 20
61.5055215623
 10
234.9517869225
 20
62.3082168352
 10
235.8288181344
 20
63.0226443202
 10
236.7195836042
 20
63.6414730245
 10
237.6149428729
 20
64.1583529282
 10
238.5057083427
 20
64.5679801441
 10
239.3827395546
 20
64.8661513425
 10
240.2370369814
 20
65.0498068835
 10
241.0598343756
 20
65.1170622128
 10
241.8426887224
 20
65.0672271996
 10
242.5775668768
 20
64.9008132185
 10
243.2569279947
 20
64.6195279024
 10
243.4167553175
 20
64.531863911
  0
LWPOLYLINE
  5
1C5
330
1F
100
AcDbEntity
  8
0
  6
Continuous
 62
     7
370
    18
100
AcDbPolyline
 90
        9
 70
   128
 43
0.0
 10
230.9177711596
 20
42.8806423515
 10
230.4607255656
 20
43.1862486435
 10
229.9126708007
 20
43.6874684087
 10
229.4390579712
 20
44.2914944628
 10
229.0447469858
 20
44.992128681
 10
228.7337840086
 20
45.7821816082
 10
228.5093599406
 20
46.6535462321
 10
228.3737776765
 20
47.5972811727
 10
228.3284284737
 20
48.6037024324
  0
LINE
  5
1C6
330
1F
100
AcDbEntity
  8
0
  6
Continuous
 62
     7
370
    18
100
AcDbLine
 10
238.4412692703
 20
59.608915361
 30
0.0
 11
236.9014579548
 21
56.9418839364
 31
0.0
  0
LINE
  5
1C7
330
1F
100
AcDbEntity
  8
0
  6
Continuous
 62
     7
370
    18
100
AcDbLine
 10
233.1721099248
 20
50.4824636883
 30
0.0
 11
232.693226125
 21
49.6530126185
 31
0.0
  0
LINE
  5
1C8
330
1F
100
AcDbEntity
  8
0
  6
Continuous
 62
     7
370
    18
100
AcDbLine
 10
237.4002361296
 20
60.209891001
 30
0.0
 11
231.6521929843
 21
50.2539882585
 31
0.0
  0
LINE
  5
1C9
330
1F
100
AcDbEntity
  8
0
  6
Continuous
 62
     7
370
    18
100
AcDbLine
 10
237.0605930388
 20
60.1195011121
 30
0.0
 11
231.5606498573
 21
50.5933201109
 31
0.0
  0
LINE
  5
1CA
330
1F
100
AcDbEntity
  8
0
  6
Continuous
 62
     7
370
    18
100
AcDbLine
 10
225.2844120162
 20
65.416973744
 30
0.0
 11
233.4060176305
 21
60.8158305508
 31
0.0
  0
LINE
  5
1CB
330
1F
100
AcDbEntity
  8
0
  6
Continuous
 62
     7
370
    18
100
AcDbLine
 10
221.0242447947
 20
54.4368355519
 30
0.0
 11
228.3907777582
 21
49.9650391619
 31
0.0
  0
LINE
  5
1CC
330
1F
100
AcDbEntity
  8
0
  6
Continuous
 62
     7
370
    18
100
AcDbLine
 10
231.5606498573
 20
43.9822358065
 30
0.0
 11
232.9080725761
 21
43.2041323622
 31
0.0
  0
LINE
  5
1CD
330
1F
100
AcDbEntity
  8
0
  6
Continuous
 62
     7
370
    18
100
AcDbLine
 10
244.1324028421
 20
62.6467893749
 30
0.0
 11
242.7856498573
 21
63.4245060644
 31
0.0
  0
LINE
  5
1CE
330
1F
100
AcDbEntity
  8
0
  6
Continuous
 62
     7
370
    18
100
AcDbLine
 10
228.6854391627
 20
67.3803449241
 30
0.0
 11
236.225181922
 21
63.3228246775
 31
0.0
  0
LINE
  5
1CF
330
1F
100
AcDbEntity
  8
0
  6
Continuous
 62
     7
370
    18
100
AcDbLine
 10
224.9071750393
 20
65.505302752
 30
0.0
 11
225.2844120162
 21
65.416973744
 31
0.0
  0
LINE
  5
1D0
330
1F
100
AcDbEntity
  8
0
  6
Continuous
 62
     7
370
    18
100
AcDbLine
 10
220.8001009266
 20
54.919746135
 30
0.0
 11
221.0242447947
 21
54.4368355519
 31
0.0
  0
OLE2FRAME
  5
1D1
330
1F
100
AcDbEntity
  8
0
100
AcDbOle2Frame
 70
     2
  3
Paintbrush-Bild
 10
13.8511154363
 20
38.264191557
 30
0.0
 11
51.6290888628
 21
31.9806341108
 31
0.0
 71
     2
 72
     0
 73
     1
 90
    12928
310
80552BED0767C5B32B40DDAF6807D121434000000000000000006FFBDDFB85D0
310
4940DDAF6807D121434000000000000000006FFBDDFB85D04940416F4BD60AFB
310
3F4000000000000000002BED0767C5B32B40416F4BD60AFB3F40000000000000
310
0000000000000100000000010000010000000100000000000100000000320000
310
D0CF11E0A1B11AE1000000000000000000000000000000003E000300FEFF0900
310
0600000000000000000000000100000001000000000000000010000002000000
310
01000000FEFFFFFF0000000000000000FFFFFFFFFFFFFFFFFFFFFFFFFFFFFFFF
310
FFFFFFFFFFFFFFFFFFFFFFFFFFFFFFFFFFFFFFFFFFFFFFFFFFFFFFFFFFFFFFFF
310
FFFFFFFFFFFFFFFFFFFFFFFFFFFFFFFFFFFFFFFFFFFFFFFFFFFFFFFFFFFFFFFF
310
FFFFFFFFFFFFFFFFFFFFFFFFFFFFFFFFFFFFFFFFFFFFFFFFFFFFFFFFFFFFFFFF
310
FFFFFFFFFFFFFFFFFFFFFFFFFFFFFFFFFFFFFFFFFFFFFFFFFFFFFFFFFFFFFFFF
310
FFFFFFFFFFFFFFFFFFFFFFFFFFFFFFFFFFFFFFFFFFFFFFFFFFFFFFFFFFFFFFFF
310
FFFFFFFFFFFFFFFFFFFFFFFFFFFFFFFFFFFFFFFFFFFFFFFFFFFFFFFFFFFFFFFF
310
FFFFFFFFFFFFFFFFFFFFFFFFFFFFFFFFFFFFFFFFFFFFFFFFFFFFFFFFFFFFFFFF
310
FFFFFFFFFFFFFFFFFFFFFFFFFFFFFFFFFFFFFFFFFFFFFFFFFFFFFFFFFFFFFFFF
310
FFFFFFFFFFFFFFFFFFFFFFFFFFFFFFFFFFFFFFFFFFFFFFFFFFFFFFFFFFFFFFFF
310
FFFFFFFFFFFFFFFFFFFFFFFFFFFFFFFFFFFFFFFFFFFFFFFFFFFFFFFFFFFFFFFF
310
FFFFFFFFFFFFFFFFFFFFFFFFFFFFFFFFFFFFFFFFFFFFFFFFFFFFFFFFFFFFFFFF
310
FFFFFFFFFFFFFFFFFFFFFFFFFFFFFFFFFFFFFFFFFFFFFFFFFFFFFFFFFFFFFFFF
310
FFFFFFFFFFFFFFFFFFFFFFFFFFFFFFFFFFFFFFFFFFFFFFFFFFFFFFFFFFFFFFFF
310
FDFFFFFFFEFFFFFFFEFFFFFFFEFFFFFF05000000060000000700000008000000
310
090000000A0000000B0000000C0000000D0000000E0000000F00000010000000
310
11000000120000001300000014000000150000001600000017000000FEFFFFFF
310
FFFFFFFFFFFFFFFFFFFFFFFFFFFFFFFFFFFFFFFFFFFFFFFFFFFFFFFFFFFFFFFF
310
FFFFFFFFFFFFFFFFFFFFFFFFFFFFFFFFFFFFFFFFFFFFFFFFFFFFFFFFFFFFFFFF
310
FFFFFFFFFFFFFFFFFFFFFFFFFFFFFFFFFFFFFFFFFFFFFFFFFFFFFFFFFFFFFFFF
310
FFFFFFFFFFFFFFFFFFFFFFFFFFFFFFFFFFFFFFFFFFFFFFFFFFFFFFFFFFFFFFFF
310
FFFFFFFFFFFFFFFFFFFFFFFFFFFFFFFFFFFFFFFFFFFFFFFFFFFFFFFFFFFFFFFF
310
FFFFFFFFFFFFFFFFFFFFFFFFFFFFFFFFFFFFFFFFFFFFFFFFFFFFFFFFFFFFFFFF
310
FFFFFFFFFFFFFFFFFFFFFFFFFFFFFFFFFFFFFFFFFFFFFFFFFFFFFFFFFFFFFFFF
310
FFFFFFFFFFFFFFFFFFFFFFFFFFFFFFFFFFFFFFFFFFFFFFFFFFFFFFFFFFFFFFFF
310
FFFFFFFFFFFFFFFFFFFFFFFFFFFFFFFFFFFFFFFFFFFFFFFFFFFFFFFFFFFFFFFF
310
FFFFFFFFFFFFFFFFFFFFFFFFFFFFFFFFFFFFFFFFFFFFFFFFFFFFFFFFFFFFFFFF
310
FFFFFFFFFFFFFFFFFFFFFFFFFFFFFFFFFFFFFFFFFFFFFFFFFFFFFFFFFFFFFFFF
310
FFFFFFFFFFFFFFFFFFFFFFFFFFFFFFFFFFFFFFFFFFFFFFFFFFFFFFFFFFFFFFFF
310
FFFFFFFFFFFFFFFFFFFFFFFFFFFFFFFFFFFFFFFFFFFFFFFFFFFFFFFFFFFFFFFF
310
52006F006F007400200045006E00740072007900000000000000000000000000
310
0000000000000000000000000000000000000000000000000000000000000000
310
16000500FFFFFFFFFFFFFFFF020000000A00030000000000C000000000000046
310
0000000000000000000000002074C91E0FA4D30103000000C000000000000000
310
01004F006C006500000000000000000000000000000000000000000000000000
310
0000000000000000000000000000000000000000000000000000000000000000
310
0A000200FFFFFFFFFFFFFFFFFFFFFFFF00000000000000000000000000000000
310
0000000000000000000000000000000000000000000000001400000000000000
310
010043006F006D0070004F0062006A0000000000000000000000000000000000
310
0000000000000000000000000000000000000000000000000000000000000000
310
120002010100000003000000FFFFFFFF00000000000000000000000000000000
310
0000000000000000000000000000000000000000010000004D00000000000000
310
01004F006C006500310030004E00610074006900760065000000000000000000
310
0000000000000000000000000000000000000000000000000000000000000000
310
1A000200FFFFFFFFFFFFFFFFFFFFFFFF00000000000000000000000000000000
310
0000000000000000000000000000000000000000040000002426000000000000
310
FEFFFFFF02000000FEFFFFFFFFFFFFFFFFFFFFFFFFFFFFFFFFFFFFFFFFFFFFFF
310
FFFFFFFFFFFFFFFFFFFFFFFFFFFFFFFFFFFFFFFFFFFFFFFFFFFFFFFFFFFFFFFF
310
FFFFFFFFFFFFFFFFFFFFFFFFFFFFFFFFFFFFFFFFFFFFFFFFFFFFFFFFFFFFFFFF
310
FFFFFFFFFFFFFFFFFFFFFFFFFFFFFFFFFFFFFFFFFFFFFFFFFFFFFFFFFFFFFFFF
310
FFFFFFFFFFFFFFFFFFFFFFFFFFFFFFFFFFFFFFFFFFFFFFFFFFFFFFFFFFFFFFFF
310
FFFFFFFFFFFFFFFFFFFFFFFFFFFFFFFFFFFFFFFFFFFFFFFFFFFFFFFFFFFFFFFF
310
FFFFFFFFFFFFFFFFFFFFFFFFFFFFFFFFFFFFFFFFFFFFFFFFFFFFFFFFFFFFFFFF
310
FFFFFFFFFFFFFFFFFFFFFFFFFFFFFFFFFFFFFFFFFFFFFFFFFFFFFFFFFFFFFFFF
310
FFFFFFFFFFFFFFFFFFFFFFFFFFFFFFFFFFFFFFFFFFFFFFFFFFFFFFFFFFFFFFFF
310
FFFFFFFFFFFFFFFFFFFFFFFFFFFFFFFFFFFFFFFFFFFFFFFFFFFFFFFFFFFFFFFF
310
FFFFFFFFFFFFFFFFFFFFFFFFFFFFFFFFFFFFFFFFFFFFFFFFFFFFFFFFFFFFFFFF
310
FFFFFFFFFFFFFFFFFFFFFFFFFFFFFFFFFFFFFFFFFFFFFFFFFFFFFFFFFFFFFFFF
310
FFFFFFFFFFFFFFFFFFFFFFFFFFFFFFFFFFFFFFFFFFFFFFFFFFFFFFFFFFFFFFFF
310
FFFFFFFFFFFFFFFFFFFFFFFFFFFFFFFFFFFFFFFFFFFFFFFFFFFFFFFFFFFFFFFF
310
FFFFFFFFFFFFFFFFFFFFFFFFFFFFFFFFFFFFFFFFFFFFFFFFFFFFFFFFFFFFFFFF
310
FFFFFFFFFFFFFFFFFFFFFFFFFFFFFFFFFFFFFFFFFFFFFFFFFFFFFFFFFFFFFFFF
310
0100000200000000000000000000000000000000000000000000000000000000
310
0000000000000000000000000000000000000000000000000000000000000000
310
0100FEFF030A0000FFFFFFFF0A00030000000000C00000000000004607000000
310
5042727573680007000000504272757368000700000050427275736800F439B2
310
7100000000000000000000000000000000000000000000000000000000000000
310
0000000000000000000000000000000000000000000000000000000000000000
310
0000000000000000000000000000000000000000000000000000000000000000
310
0000000000000000000000000000000000000000000000000000000000000000
310
0000000000000000000000000000000000000000000000000000000000000000
310
0000000000000000000000000000000000000000000000000000000000000000
310
0000000000000000000000000000000000000000000000000000000000000000
310
0000000000000000000000000000000000000000000000000000000000000000
310
0000000000000000000000000000000000000000000000000000000000000000
310
0000000000000000000000000000000000000000000000000000000000000000
310
0000000000000000000000000000000000000000000000000000000000000000
310
0000000000000000000000000000000000000000000000000000000000000000
310
20260000424D0E260000000000003E00000028000000B40200006E0000000100
310
01000000000000000000130B0000130B00000200000002000000000000FFFFFF
310
FFFFFFFFFFFFFFFFFFFFFFFFFFFFFFFFFFFFFFFFFFFFFFFFFFFFFFFFFFFFFFFF
310
FFFFFFFFFFFFFFFFFFFFFFFFFFFFFFFFFFFFFFFFFFFFFFFFFFFFFFFFFFFFFFFF
310
FFFFFFFFFFFFFFFFFFFFFFFFFFFFFFFFFFFFFFFFFFFFFFFFF000FFFFFFFFFFFF
310
FFFFFFFFFFFFFFFFFFFFFFFFFFFFFFFFFFFFFFFFFFFFFFFFFFFFFFFFFFFFFFFF
310
FFFFFFFFFFFFFFFFFFFFFFFFFFFFFFFFFFFFFFFFFFFFFFFFFFFFFFFFFFFFFFFF
310
FFFFFFFFFFFFFFFFFFFFFFFFFFFFFFFFF000FFFFFFFFFFFFFFFFFFFFFFFFFFFF
310
FFFFFFFFFFFFFFFFFFFFFFFFFFFFFFFFFFFFFFFFFFFFFFFFFFFFFFFFFFFFFFFF
310
FFFFFFFFFFFFFFFFFFFFFFFFFFFFFFFFFFFFFFFFFFFFFFFFFFFFFFFFFFFFFFFF
310
FFFFFFFFFFFFFFFFF000FFFFFFFFFFFFFFFFFFFFFFFFFFFFFFFFFFFFFFFFFFFF
310
FFFFFFFFFFFFFFFFFFFFFFFFFFFFFFFFFFFFFFFFFFFFFFFFFFFFFFFFFFFFFFFF
310
FFFFFFFFFFFFFFFFFFFFFFFFFFFFFFFFFFFFFFFFFFFFFFFFFFFFFFFFFFFFFFFF
310
F000FFFFFFFFFFFFFFFFFFFFFFFFFFFFFFFFFFFFFFFFFFFFFFFFFFFFFFFFFFFF
310
FFFFFFFFFFFFFFFFFFFFFFFFFFFFFFFFFFFFFFFFFFFFFFFFFFFFFFFFFFFFFFFF
310
FFFFFFFFFFFFFFFFFFFFFFFFFFFFFFFFFFFFFFFFFFFFFFFFF000FFFFFFFFFFFF
310
FFFFFFFFFFFFFFFFFFFFFFFFFFFFFFFFFFFFFFFFFFFFFFFFFFFFFFFFFFFFFFFF
310
FFFFFFFFFFFFFFFFFFFFFFFFFFFFFFFFFFFFFFFFFFFFFFFFFFFFFFFFFFFFFFFF
310
FFFFFFFFFFFFFFFFFFFFFFFFFFFFFFFFF000FFFFFFFFFFFFFFFFFFFFFFFFFFFF
310
FFFFFFFFFFFFFFFFFFFFFFFFFFFFFFFFFFFFFFFFFFFFFFFFFFFFFFFFFFFFFFFF
310
FFFFFFFFFFFFFFFFFFFFFFFFFFFFFFFFFFFFFFFFFFFFFFFFFFFFFFFFFFFFFFFF
310
FFFFFFFFFFFFFFFFF000FFFFFFFFFFFFFFFFFFFFFFFFFFFFFFFFFFFFFFFFFFFF
310
FFFFFFFFFFFFFFFFFFFFFFFFFFFFFFFFFFFFFFFFFFFFFFFFFFFFFFFFFFFFFFFF
310
FFFFFFFFFFFFFFFFFFFFFFFFFFFFFFFFFFFFFFFFFFFFFFFFFFFFFFFFFFFFFFFF
310
F000FFFFFFFFFFFFFFFFFFFFFFFFFFFFFFFFFFFFFFFFFFFFFFFFFFFFFFFFFFFF
310
FFFFFFFFFFFFFFFFFFFFFFFFFFFFFFFFFFFFFFFFFFFFFFFFFFFFFFFFFFFFFFFF
310
FFFFFFFFFFFFFFFFFFFFFFFFFFFFFFFFFFFFFFFFFFFFFFFFF000FFFFFFFFFFFF
310
FFFFFFFFFFFFFFFFFFFFFFFFFFFFFFFFFFFFFFFFFFFFFFFFFFFFFFFFFFFFFFFF
310
FFFFFFFFFFFFFFFFFFFFFFFFFFFFFFFFFFFFFFFFFFFFFFFFFFFFFFFFFFFFFFFF
310
FFFFFFFFFFFFFFFFFFFFFFFFFFFFFFFFF000FFFFFFFFFFFFFFFFFFFFFFFFFFFF
310
FFFFFFFFFFFFFFFFFFFFFFFFFFFFFFFFFFFFFFFFFFFFFFFFFFFFFFFFFFFFFFFF
310
FFFFFFFFFFFFFFFFFFFFFFFFFFFFFFFFFFFFFFFFFFFFFFFFFFFFFFFFFFFFFFFF
310
FFFFFFFFFFFFFFFFF000FFFFFFFFFFFFFFFFFFFFFFFFFFFFFFFFFFFFFFFFFFFF
310
FFFFFFFFFFFFFFFFFFFFFFFFFFFFFFFFFFFFFFFFFFFFFFFFFFFFFFFFFFFFFFFF
310
FFFFFFFFFFFFFFFFFFFFFFFFFFFFFFFFFFFFFFFFFFFFFFFFFFFFFFFFFFFFFFFF
310
F000FFFFFFFFFFFFFFFFFFFFFFFFFFFFFFFFFFFFFFFFFFFFFFFFFFFFFFFFFFFF
310
FFFFFFFFFFFFFFFFFFFFFFFFFFFFFFFFFFFFFFFFFFFFFFFFFFFFFFFFFFFFFFFF
310
FFFFFFFFFFFFFFFFFFFFFFFFFFFFFFFFFFFFFFFFFFFFFFFFF000FFFFFFFFFFFF
310
FFFFFFFFFFFFFFFFFFFFFFFFFFFFFFFFFFFFFFFFFFFFFFFFFFFFFFFFFFFFFFFF
310
FFFFFFFFFFFFFFFFFFFFFFFFFFFFFFFFFFFFFFFFFFFFFFFFFFFFFFFFFFFFFFFF
310
FFFFFFFFFFFFFFFFFFFFFFFFFFFFFFFFF000FFFFFFFFFFFFFFFFFFFFFFFFFFFF
310
FFFFFFFFFFFFFFFFFFFFFFFFFFFFFFFFFFFFFFFFFFFFFFFFFFFFFFFFFFFFFFFF
310
FFFFFFFFFFFFFFFFFFFFFFFFFFFFFFFFFFFFFFFFFFFFFFFFFFFFFFFFFFFFFFFF
310
FFFFFFFFFFFFFFFFF000FFFFFFFFFFFFFFFFFFFFFFFFFFFFFFFFFFFFFFFFFFFF
310
FFFFFFFFFFFFFFFFFFFFFFFFFFFFFFFFFFFFFFFFFFFFFFFFFFFFFFFFFFFFFFFF
310
FFFFFFFFFFFFFFFFFFFFFFFFFFFFFFFFFFFFFFFFFFFFFFFFFFFFFFFFFFFFFFFF
310
F000FFFFFFFFFFFFFFFFFFFFFFFFFFFFFFFFFFFFFFFFFFFFFFFFFFFFFFFFFFFF
310
FFFFFFFFFFFFFFFFFFFFFFFFFFFFFFFFFFFFFFFFFFFFFFFFFFFFFFFFFFFFFFFF
310
FFFFFFFFFFFFFFFFFFFFFFFFFFFFFFFFFFFFFFFFFFFFFFFFF000FFFFFFFFFFFF
310
FFFFFFFFFFFFFFFFFFFFFFFFFFFFFFFFFFFFFFFFFFFFFFFFFFFFFFFFFFFFFFFF
310
FFFFFFFFFFFFFFFFFFFFFFFFFFFFFFFFFFFFFFFFFFFFFFFFFFFFFFFFFFFFFFFF
310
FFFFFFFFFFFFFFFFFFFFFFFFFFFFFFFFF000FFFFFFFFFFFFFFFFFFFFFFFFFFFF
310
FFFFFFFFFFFFFFFFFFFFFFFFFFFFFFFFFFFFFFFFFFFFFFFFFFFFFFFFFFFFFFFF
310
FFFFFFFFFFFFFFFFFFFFFFFFFFFFFFFFFFFFFFFFFFFFFFFFFFFFFFFFFFFFFFFF
310
FFFFFFFFFFFFFFFFF000FFFFF80003FFFFFFFFFFFFFFFFFFFFFFFFFFFFFFFFFF
310
FFFFF00007FFFFFFFFFF00007FFFFFF800000000000000007FFFFFFFFFFFFFFF
310
FFFFFFFC001FFFFFFFFFFFFFFC001FFFFFFFFFFFFFFFFFFFFFFFFFFE0007FFFF
310
F000FFFF8000007FFFFFFFF8000FFFFFC0007FFFFF80007FFFFF0000007FFFFF
310
FFF8000007FFFFF800000000000000007FFFFFF0001FFFFFFFFFFFC00001FFFF
310
FFFFFFFFC00001FFFFFFFF000000000003FFFFE000007FFFF000FFFE0000000F
310
FFFFFFF0000FFFFF80007FFFFF80007FFFFC0000001FFFFFFFC0000001FFFFF8
310
00000000000000007FFFFFF0001FFFFFFFFFFE0000003FFFFFFFFFFE0000003F
310
FFFFFF000000000003FFFF0000000FFFF000FFF800000003FFFFFFF00007FFFF
310
80007FFFFF80007FFFF000000007FFFFFF000000003FFFF80000000000000000
310
7FFFFFF0001FFFFFFFFFF80000000FFFFFFFFFF80000000FFFFFFF0000000000
310
03FFFC00000003FFF000FFE000000000FFFFFFF00007FFFF80003FFFFF80007F
310
FFC000000001FFFFFC000000001FFFF800000000000000007FFFFFF0001FFFFF
310
FFFFE000000003FFFFFFFFE000000003FFFFFF000000000003FFF000000000FF
310
F000FF80000000007FFFFFF00007FFFF80003FFFFF80007FFF8000000000FFFF
310
F80000000007FFF800000000000000007FFFFFF0001FFFFFFFFFC000000001FF
310
FFFFFFC000000001FFFFFF000000000003FFC0000000007FF000FF0000000000
310
3FFFFFE00007FFFF00003FFFFF80007FFE00000000003FFFF00000000003FFF8
310
00000000000000007FFFFFF0001FFFFFFFFF8000000000FFFFFFFF8000000000
310
FFFFFF000000000003FF80000000003FF000FE00000000001FFFFFE00003FFFF
310
00003FFFFF80007FFC00000000001FFFE00000000001FFF8000001FFFE000000
310
7FFFFFF0001FFFFFFFFE00000000003FFFFFFE00000000003FFFFF0000000000
310
03FF00000000001FF000FC00000000000FFFFFE00003FFFF00001FFFFF80007F
310
F800000000001FFFC00000000000FFF8000001FFFE0000007FFFFFF0001FFFFF
310
FFFC00000000001FFFFFFC00000000001FFFFF000000000003FE00000000000F
310
F000F8000000000007FFFFE00003FFFF00001FFFFF80007FF800000000000FFF
310
800000000000FFF8000001FFFE0000007FFFFFF0001FFFFFFFF800000000000F
310
FFFFF800000000000FFFFF000000000003FC000000000007F000F80000000000
310
03FFFFC00003FFFE00001FFFFF80007FF0000000000007FF0000000000007FF8
310
000001FFFE0000007FFFFFF0001FFFFFFFF0000000000007FFFFF00000000000
310
07FFFF000000000003F8000000000003F000F0000000000003FFFFC00001FFFE
310
00001FFFFF80007FE0000000000007FE0000000000003FF8000001FFFE000000
310
7FFFFFF0001FFFFFFFF0000000000007FFFFF0000000000007FFFF0000000000
310
03F800001F800003F000E00001FFF00001FFFFC00001FFFE00000FFFFF80007F
310
E00001FFE00003FE00001FFF00003FF8000001FFFE0000007FFFFFF0001FFFFF
310
FFE000003E000003FFFFE000003E000003FFFF000000000003F00001FFF80001
310
F000E00007FFFC0001FFFFC00001FFFE00000FFFFF80007FC0000FFFFC0003FC
310
0000FFFFC0001FF8000001FFFE0000007FFFFFF0001FFFFFFFC00003FFE00001
310
FFFFC00003FFE00001FFFF0001FFFFFFFFF00007FFFE0001F000E0000FFFFF00
310
00FFFF800001FFFC00000FFFFF80007FC0001FFFFE0001FC0001FFFFE0001FF8
310
000001FFFE0000007FFFFFF0001FFFFFFF80000FFFF80000FFFF80000FFFF800
310
00FFFF0003FFFFFFFFE0000FFFFF8000F000C0003FFFFF8000FFFF800000FFFC
310
000007FFFF80007F80003FFFFF0001FC0003FFFFF0001FF8000001FFFE000000
310
7FFFFFF0001FFFFFFF80003FFFFE0000FFFF80003FFFFE0000FFFF0003FFFFFF
310
FFE0003FFFFF8000F000C0003FFFFF8000FFFF800000FFFC000007FFFF80007F
310
80007FFFFF8001F80007FFFFF8000FF8000001FFFE0000007FFFFFF0001FFFFF
310
FF00007FFFFF00007FFF00007FFFFF00007FFF0003FFFFFFFFE0003FFFFFC000
310
F000C0007FFFFFC000FFFF000000FFFC000007FFFF80007F8000FFFFFF8000F8
310
000FFFFFF8000FF8000001FFFE0000007FFFFFF0001FFFFFFF0000FFFFFF8000
310
7FFF0000FFFFFF80007FFF0003FFFFFFFFC0007FFFFFC00070008000FFFFFFC0
310
00FFFF000000FFF8000007FFFF80007F8000FFFFFF8000F8000FFFFFF8000FF8
310
000001FFFE0000007FFFFFF0001FFFFFFE0001FFFFFFC0003FFE0001FFFFFFC0
310
003FFF0003FFFFFFFFC0007FFFFFE00070008000FFFFFFC0007FFF0000007FF8
310
000003FFFF80007F0001FFFFFF8000F8000FFFFFF8000FF8000001FFFE000000
310
7FFFFFF0001FFFFFFE0001FFFFFFC0003FFE0001FFFFFFC0003FFF0003FFFFFF
310
FFC000FFFFFFE00070008000FFFFFFC0007FFF0000007FF8000003FFFF80007F
310
0001FFFFFF8000F8001FFFFFF8000FF8000001FFFE0000007FFFFFF0001FFFFF
310
FE0003FFFFFFE0003FFE0003FFFFFFE0003FFF0003FFFFFFFFC000FFFFFFE000
310
70008000FFFFFFC0007FFE0000007FF8000003FFFF80007F0001FFFFFF8000F0
310
001FFFFFF8000FF8000001FFFE0000007FFFFFF0001FFFFFFC0003FFFFFFE000
310
1FFC0003FFFFFFE0001FFF0003FFFFFFFFC000FFFFFFC00070008000FFFFFF80
310
007FFE0000007FF0000003FFFF80007F0001FFFFFF0000F0001FFFFFF8000FF8
310
000001FFFE0000007FFFFFF0001FFFFFFC0007FFFFFFF0001FFC0007FFFFFFF0
310
001FFF0003FFFFFFFFC000FFFFFFC00070008001FFFFFF0000FFFE0000003FF0
310
000001FFFF80007F0001FFFFFF0000F8001FFFFFF0000FF8000001FFFE000000
310
7FFFFFF0001FFFFFFC0007FFFFFFF0001FFC0007FFFFFFF0001FFF0003FFFFFF
310
FFC001FFFFFF80007000FFFFFFFFFE0000FFFE0008003FF0008001FFFF80007F
310
FFFFFFFFFC0000FFFFFFFFFFE0000FF8000001FFFE0000007FFFFFF0001FFFFF
310
F8000FFFFFFFF8000FF8000FFFFFFFF8000FFF0003FFFFFFFFFFFFFFFFFF0000
310
7000FFFFFFFFFC0000FFFC0008003FF0008001FFFF80007FFFFFFFFFF80001FF
310
FFFFFFFF80000FF8000001FFFE0000007FFFFFF0001FFFFFF8000FFFFFFFF800
310
0FF8000FFFFFFFF8000FFF0003FFFFFFFFFFFFFFFFFE0000F000FFFFFFFFE000
310
00FFFC000C003FE000C001FFFF80007FFFFFFFFFC00001FFFFFFFFFE00001FF8
310
000001FFFE0000007FFFFFF0001FFFFFF8000FFFFFFFF8000FF8000FFFFFFFF8
310
000FFF0003FFFFFFFFFFFFFFFFF00000F000FFFFFFFE000001FFFC000C001FE0
310
00C000FFFF80007FFFFFFFFE000001FFFFFFFFE000001FF80FFFFFFFFFFFFFC0
310
7FFFFFF0001FFFFFF8000FFFFFFFF8000FF8000FFFFFFFF8000FFF0003FFFFFF
310
FFFFFFFFFF800000F000FFFFFFC0000001FFFC001C001FE001C000FFFF80007F
310
FFFFFF80000003FFFFFFF80000001FF80FFFFFFFFFFFFFC07FFFFFF0001FFFFF
310
F8001FFFFFFFFC000FF8001FFFFFFFFC000FFF0003FFFFFFFFFFFFFFF0000001
310
F000FFFFF800000001FFF8001C001FE001C000FFFF80007FFFFFF800000003FF
310
FFFF800000003FF80FFFFFFFFFFFFFC07FFFFFF0001FFFFFF8001FFFFFFFFC00
310
0FF8001FFFFFFFFC000FFF0003FFFFFFFFFFFFFE00000001F000FFFFC0000000
310
03FFF8001E001FC001E000FFFF80007FFFFF8000000007FFFFFC000000003FF8
310
0FFFFFFFFFFFFFC07FFFFFF0001FFFFFF8001FFFFFFFFC000FF8001FFFFFFFFC
310
000FFF0003FFFFFFFFFFFFE000000003F000FFFE0000000007FFF8001E000FC0
310
01E0007FFF80007FFFFE0000000007FFFFE0000000007FF80FFFFFFFFFFFFFC0
310
7FFFFFF0001FFFFFF0001FFFFFFFFC0007F0001FFFFFFFFC0007FF0003FFFFFF
310
FFFFFF0000000003F000FFF80000000007FFF8001E000FC003E0007FFF80007F
310
FFF0000000000FFFFF8000000000FFF80FFFFFFFFFFFFFC07FFFFFF0001FFFFF
310
F0001FFFFFFFFC0007F0001FFFFFFFFC0007FF0003FFFFFFFFFFFC0000000007
310
F000FFE0000000000FFFF0003E000FC003E0007FFF80007FFFC0000000001FFF
310
FE0000000001FFF80FFFFFFFFFFFFFC07FFFFFF0001FFFFFF0001FFFFFFFFC00
310
07F0001FFFFFFFFC0007FF0003FFFFFFFFFFF0000000000FF000FFC000000000
310
1FFFF0003F000F8003F0003FFF80007FFF80000000003FFFF80000000003FFF8
310
0FFFFFFFFFFFFFC07FFFFFF0001FFFFFF0001FFFFFFFFC0007F0001FFFFFFFFC
310
0007FF0003FFFFFFFFFFE0000000001FF000FF00000000007FFFF0003F000780
310
03F0003FFF80007FFF00000000007FFFF00000000007FFF80FFFFFFFFFFFFFC0
310
7FFFFFF0001FFFFFF0001FFFFFFFFC0007F0001FFFFFFFFC0007FF0003FFFFFF
310
FFFF80000000007FF000FE0000000000FFFFE0003F00078007F0003FFF80007F
310
FE0000000001FFFFE0000000001FFFF80FFFFFFFFFFFFFC07FFFFFF0001FFFFF
310
F0001FFFFFFFFC0007F0001FFFFFFFFC0007FF0003FFFFFFFFFF0000000000FF
310
F000FC0000000003FFFFE0007F00078007F0003FFF80007FFC0000000007FFFF
310
C0000000007FFFF80FFFFFFFFFFFFFC07FFFFFF0001FFFFFF8001FFFFFFFFC00
310
0FF8001FFFFFFFFC000FFF0003FFFFFFFFFE0000000003FFF000FC000000000F
310
FFFFE0007F80070007F8001FFF80007FF8000000001FFFFF8000000001FFFFF8
310
0FFFFFFFFFFFFFC07FFFFFF0001FFFFFF8001FFFFFFFFC000FF8001FFFFFFFFC
310
000FFF0003FFFFFFFFFC000000000FFFF000F8000000007FFFFFE0007F800700
310
07F8001FFF80007FF000000000FFFFFF800000000FFFFFF80FFFFFFFFFFFFFC0
310
7FFFFFF0001FFFFFF8000FFFFFFFF8000FF8000FFFFFFFF8000FFF0003FFFFFF
310
FFFC000000007FFFF000F800000007FFFFFFC0007F8003000FF8001FFF80007F
310
F000000007FFFFFF000000007FFFFFF80FFFFFFFFFFFFFC07FFFFFF0001FFFFF
310
F8000FFFFFFFF8000FF8000FFFFFFFF8000FFF0003FFFFFFFFF80000000FFFFF
310
F000F0000000FFFFFFFFC000FF8003000FF8001FFF80007FE0000000FFFFFFFF
310
0000000FFFFFFFF8000001FFFE0000007FFFFFF0001FFFFFF8000FFFFFFFF800
310
0FF8000FFFFFFFF8000FFF0003FFFFFFFFF8000000FFFFFFF000F000000FFFFF
310
FFFFC000FFC002000FF8000FFF80007FE000001FFFFFFFFE000001FFFFFFFFF8
310
000001FFFE0000007FFFFFF0001FFFFFF8000FFFFFFFF8000FF8000FFFFFFFF8
310
000FFF0003FFFFFFFFF000001FFFFFFFF000E00000FFFFFFFFFFC000FFC00200
310
0FFC000FFF80007FE00001FFFFFFFFFE00001FFFFFFFFFF8000001FFFE000000
310
7FFFFFF0001FFFFFFC000FFFFFFFF8001FFC000FFFFFFFF8001FFF0003FFFFFF
310
FFF00001FFFFFFFFF000E00007FFFFFFFFFF8000FFC000001FFC000FFF80007F
310
C0000FFFFFFFFFFE0000FFFFFFFFFFF8000001FFFE0000007FFFFFF0001FFFFF
310
FC0007FFFFFFF0001FFC0007FFFFFFF0001FFF0003FFFFFFFFF00007FFFFFFFF
310
F000E0001FFFFFFFFFFF8000FFC000001FFC000FFF80007FC0003FFFFFFFFFFE
310
0001FFFFFFFFFFF8000001FFFE0000007FFFFFF0001FFFFFFC0007FFFFFFF000
310
1FFC0007FFFFFFF0001FFF0003FFFFFFFFF0001FFFFFFFFFF000E0003FFFFF00
310
03FF8001FFE000001FFC0007FF80007FC0007FFFFF0007FC0003FFFFF0003FF8
310
000001FFFE0000007FFFFFF0001FFFFFFC0003FFFFFFE0001FFC0003FFFFFFE0
310
001FFF0003FFFFFFFFF0003FFFFFFFFFF000E0003FFFFF0001FF8001FFE00000
310
1FFE0007FF80007FC0007FFFFE0003FC0007FFFFE0003FF8000001FFFE000000
310
7FFFFFF0001FFFFFFE0003FFFFFFE0003FFE0003FFFFFFE0003FFF0003FFFFFF
310
FFF0003FFFFF8001F000E0003FFFFF0001FF0001FFE000001FFE0007FF80007F
310
C0007FFFFE0003FC0007FFFFE0003FF8000001FFFE0000007FFFFFF0001FFFFF
310
FE0001FFFFFFC0003FFE0001FFFFFFC0003FFF0003FFFFFFFFF0003FFFFF0001
310
F000E0003FFFFF0003FF0001FFE000003FFE0007FF80007FC0007FFFFE0003FC
310
0007FFFFE0003FF8000001FFFE0000007FFFFFF0001FFFFFFF0001FFFFFFC000
310
7FFF0001FFFFFFC0007FFF0003FFFFFFFFF0003FFFFF0001F000E0003FFFFE00
310
03FF0003FFF000003FFE0003FF80007FC0007FFFFC0003FE0007FFFFE0003FF8
310
000001FFFE0000007FFFFFF0001FFFFFFF0000FFFFFF80007FFF0000FFFFFF80
310
007FFF0003FFFFFFFFF0003FFFFF0001F000E0003FFFFE0003FF0003FFF00000
310
3FFF0003FF80007FC0007FFFFC0007FE0007FFFFC0003FF8000001FFFE000000
310
7FFFFFF0001FFFFFFF80007FFFFF0000FFFF80007FFFFF0000FFFF0003FFFFFF
310
FFF0003FFFFF0003F000E0003FFFFC0003FE0003FFF000003FFF0003FF80007F
310
E0003FFFF80007FE0003FFFFC0007FF8000001FFFE0000007FFFFFF0001FFFFF
310
FF80003FFFFE0000FFFF80003FFFFE0000FFFF0003FFFFFFFFF0001FFFFE0003
310
F000F0001FFFF80003FE0003FFF000007FFF0001FF80007FE0003FFFF00007FE
310
0001FFFF80007FF8000001FFFE0000007FFFFFF0001FFFFFFFC0000FFFF80001
310
FFFFC0000FFFF80001FFFF0003FFFFFFFFF0001FFFFC0003F000F0000FFFF000
310
07FE0007FFF800007FFF0001FF80007FE0001FFFE00007FF0000FFFE00007FF8
310
000001FFFE0000007FFFFFF0001FFFFFFFC00003FFE00001FFFFC00003FFE000
310
01FFFF0003FFFFFFFFF8000FFFF80003F000F00003FFC00007FC0007FFF80000
310
7FFF8001FF80007FF00007FF80000FFF00007FF80000FFF8000001FFFE000000
310
7F80000000000001FFE000003E000003FFFFE000003E000003FFFF0003FFFFFF
310
FFF80003FFE00007F000F800000000000FFC0007FFF800007FFF8001FF80007F
310
F000000000000FFF000000000000FFF8000001FFFE0000007F80000000000001
310
FFF0000000000007FFFFF0000000000007FFFF0003FFFFFFFFFC00007E000007
310
F000F800000000000FFC0007FFF80000FFFF8000FF80007FF800000000001FFF
310
800000000001FFF8000001FFFE0000007F80000000000001FFF800000000000F
310
FFFFF800000000000FFFFF0003FFFFFFFFFC00000000000FF000FC0000000000
310
1FFC0007FFFC0000FFFF8000FF80007FF800000000003FFFC00000000001FFF8
310
000001FFFE0000007F80000000000001FFF800000000000FFFFFF80000000000
310
0FFFFF0003FFFFFFFFFE00000000001FF000FE00000000003FF8000FFFFC0000
310
FFFF8000FF80007FFC00000000003FFFC00000000003FFF8000001FFFE000000
310
7F80000000000001FFFC00000000001FFFFFFC00000000001FFFFF0003FFFFFF
310
FFFF00000000001FF000FF00000000003FF8000FFFFC0000FFFFC000FF80007F
310
FE00000000007FFFE00000000007FFF8000001FFFE0000007F80000000000001
310
FFFE00000000003FFFFFFE00000000003FFFFF0003FFFFFFFFFF80000000003F
310
F000FF80000000007FF8000FFFFC0001FFFFC0007F80007FFF0000000000FFFF
310
F0000000000FFFF800000000000000007F80000000000001FFFF8000000000FF
310
FFFFFF8000000000FFFFFF0003FFFFFFFFFFC0000000007FF000FFC000000000
310
FFF8000FFFFE0001FFFFC0007F80007FFF8000000001FFFFF8000000001FFFF8
310
00000000000000007F80000000000001FFFFC000000001FFFFFFFFC000000001
310
FFFFFF0003FFFFFFFFFFE000000000FFF000FFE000000003FFF0001FFFFE0001
310
FFFFC0007F80007FFFC000000007FFFFFE000000003FFFF80000000000000000
310
7F80000000000001FFFFE000000003FFFFFFFFE000000003FFFFFF0003FFFFFF
310
FFFFF000000003FFF000FFF80000000FFFF0001FFFFE0001FFFFE0007F80007F
310
FFF00000000FFFFFFF00000000FFFFF800000000000000007F80000000000001
310
FFFFF80000000FFFFFFFFFF80000000FFFFFFF0003FFFFFFFFFFFC0000000FFF
310
F000FFFE0000003FFFF0001FFFFE0003FFFFE0003F80007FFFFC0000003FFFFF
310
FFC0000003FFFFF800000000000000007F80000000000001FFFFFE0000003FFF
310
FFFFFFFE0000003FFFFFFF0003FFFFFFFFFFFF0000003FFFF000FFFF800000FF
310
FFF0001FFFFF0003FFFFE0003F80007FFFFF000001FFFFFFFFF800001FFFFFF8
310
00000000000000007F80000000000001FFFFFFC00001FFFFFFFFFFFFC00001FF
310
FFFFFF0003FFFFFFFFFFFFC00000FFFFF000FFFFF8000FFFFFFFFFFFFFFFFFFF
310
FFFFFFFFFFFFFFFFFFFFF0001FFFFFFFFFFF0000FFFFFFF80000000000000000
310
7FFFFFFFFFFFFFFFFFFFFFFC001FFFFFFFFFFFFFFC001FFFFFFFFFFFFFFFFFFF
310
FFFFFFFC001FFFFFF000FFFFFFFFFFFFFFFFFFFFFFFFFFFFFFFFFFFFFFFFFFFF
310
FFFFFFFFFFFFFFFFFFFFFFFFFFFFFFFFFFFFFFFFFFFFFFFFFFFFFFFFFFFFFFFF
310
FFFFFFFFFFFFFFFFFFFFFFFFFFFFFFFFFFFFFFFFFFFFFFFFFFFFFFFFFFFFFFFF
310
F000FFFFFFFFFFFFFFFFFFFFFFFFFFFFFFFFFFFFFFFFFFFFFFFFFFFFFFFFFFFF
310
FFFFFFFFFFFFFFFFFFFFFFFFFFFFFFFFFFFFFFFFFFFFFFFFFFFFFFFFFFFFFFFF
310
FFFFFFFFFFFFFFFFFFFFFFFFFFFFFFFFFFFFFFFFFFFFFFFFF000FFFFFFFFFFFF
310
FFFFFFFFFFFFFFFFFFFFFFFFFFFFFFFFFFFFFFFFFFFFFFFFFFFFFFFFFFFFFFFF
310
FFFFFFFFFFFFFFFFFFFFFFFFFFFFFFFFFFFFFFFFFFFFFFFFFFFFFFFFFFFFFFFF
310
FFFFFFFFFFFFFFFFFFFFFFFFFFFFFFFFF000FFFFFFFFFFFFFFFFFFFFFFFFFFFF
310
FFFFFFFFFFFFFFFFFFFFFFFFFFFFFFFFFFFFFFFFFFFFFFFFFFFFFFFFFFFFFFFF
310
FFFFFFFFFFFFFFFFFFFFFFFFFFFFFFFFFFFFFFFFFFFFFFFFFFFFFFFFFFFFFFFF
310
FFFFFFFFFFFFFFFFF000FFFFFFFFFFFFFFFFFFFFFFFFFFFFFFFFFFFFFFFFFFFF
310
FFFFFFFFFFFFFFFFFFFFFFFFFFFFFFFFFFFFFFFFFFFFFFFFFFFFFFFFFFFFFFFF
310
FFFFFFFFFFFFFFFFFFFFFFFFFFFFFFFFFFFFFFFFFFFFFFFFFFFFFFFFFFFFFFFF
310
F000FFFFFFFFFFFFFFFFFFFFFFFFFFFFFFFFFFFFFFFFFFFFFFFFFFFFFFFFFFFF
310
FFFFFFFFFFFFFFFFFFFFFFFFFFFFFFFFFFFFFFFFFFFFFFFFFFFFFFFFFFFFFFFF
310
FFFFFFFFFFFFFFFFFFFFFFFFFFFFFFFFFFFFFFFFFFFFFFFFF000FFFFFFFFFFFF
310
FFFFFFFFFFFFFFFFFFFFFFFFFFFFFFFFFFFFFFFFFFFFFFFFFFFFFFFFFFFFFFFF
310
FFFFFFFFFFFFFFFFFFFFFFFFFFFFFFFFFFFFFFFFFFFFFFFFFFFFFFFFFFFFFFFF
310
FFFFFFFFFFFFFFFFFFFFFFFFFFFFFFFFF000FFFFFFFFFFFFFFFFFFFFFFFFFFFF
310
FFFFFFFFFFFFFFFFFFFFFFFFFFFFFFFFFFFFFFFFFFFFFFFFFFFFFFFFFFFFFFFF
310
FFFFFFFFFFFFFFFFFFFFFFFFFFFFFFFFFFFFFFFFFFFFFFFFFFFFFFFFFFFFFFFF
310
FFFFFFFFFFFFFFFFF000FFFFFFFFFFFFFFFFFFFFFFFFFFFFFFFFFFFFFFFFFFFF
310
FFFFFFFFFFFFFFFFFFFFFFFFFFFFFFFFFFFFFFFFFFFFFFFFFFFFFFFFFFFFFFFF
310
FFFFFFFFFFFFFFFFFFFFFFFFFFFFFFFFFFFFFFFFFFFFFFFFFFFFFFFFFFFFFFFF
310
F000FFFFFFFFFFFFFFFFFFFFFFFFFFFFFFFFFFFFFFFFFFFFFFFFFFFFFFFFFFFF
310
FFFFFFFFFFFFFFFFFFFFFFFFFFFFFFFFFFFFFFFFFFFFFFFFFFFFFFFFFFFFFFFF
310
FFFFFFFFFFFFFFFFFFFFFFFFFFFFFFFFFFFFFFFFFFFFFFFFF000FFFFFFFFFFFF
310
FFFFFFFFFFFFFFFFFFFFFFFFFFFFFFFFFFFFFFFFFFFFFFFFFFFFFFFFFFFFFFFF
310
FFFFFFFFFFFFFFFFFFFFFFFFFFFFFFFFFFFFFFFFFFFFFFFFFFFFFFFFFFFFFFFF
310
FFFFFFFFFFFFFFFFFFFFFFFFFFFFFFFFF000FFFFFFFFFFFFFFFFFFFFFFFFFFFF
310
FFFFFFFFFFFFFFFFFFFFFFFFFFFFFFFFFFFFFFFFFFFFFFFFFFFFFFFFFFFFFFFF
310
FFFFFFFFFFFFFFFFFFFFFFFFFFFFFFFFFFFFFFFFFFFFFFFFFFFFFFFFFFFFFFFF
310
FFFFFFFFFFFFFFFFF000FFFFFFFFFFFFFFFFFFFFFFFFFFFFFFFFFFFFFFFFFFFF
310
FFFFFFFFFFFFFFFFFFFFFFFFFFFFFFFFFFFFFFFFFFFFFFFFFFFFFFFFFFFFFFFF
310
FFFFFFFFFFFFFFFFFFFFFFFFFFFFFFFFFFFFFFFFFFFFFFFFFFFFFFFFFFFFFFFF
310
F000FFFFFFFFFFFFFFFFFFFFFFFFFFFFFFFFFFFFFFFFFFFFFFFFFFFFFFFFFFFF
310
FFFFFFFFFFFFFFFFFFFFFFFFFFFFFFFFFFFFFFFFFFFFFFFFFFFFFFFFFFFFFFFF
310
FFFFFFFFFFFFFFFFFFFFFFFFFFFFFFFFFFFFFFFFFFFFFFFFF000FFFFFFFFFFFF
310
FFFFFFFFFFFFFFFFFFFFFFFFFFFFFFFFFFFFFFFFFFFFFFFFFFFFFFFFFFFFFFFF
310
FFFFFFFFFFFFFFFFFFFFFFFFFFFFFFFFFFFFFFFFFFFFFFFFFFFFFFFFFFFFFFFF
310
FFFFFFFFFFFFFFFFFFFFFFFFFFFFFFFFF000FFFFFFFFFFFFFFFFFFFFFFFFFFFF
310
FFFFFFFFFFFFFFFFFFFFFFFFFFFFFFFFFFFFFFFFFFFFFFFFFFFFFFFFFFFFFFFF
310
FFFFFFFFFFFFFFFFFFFFFFFFFFFFFFFFFFFFFFFFFFFFFFFFFFFFFFFFFFFFFFFF
310
FFFFFFFFFFFFFFFFF000FFFFFFFFFFFFFFFFFFFFFFFFFFFFFFFFFFFFFFFFFFFF
310
FFFFFFFFFFFFFFFFFFFFFFFFFFFFFFFFFFFFFFFFFFFFFFFFFFFFFFFFFFFFFFFF
310
FFFFFFFFFFFFFFFFFFFFFFFFFFFFFFFFFFFFFFFFFFFFFFFFFFFFFFFFFFFFFFFF
310
F000FFFFFFFFFFFFFFFFFFFFFFFFFFFFFFFFFFFFFFFFFFFFFFFFFFFFFFFFFFFF
310
FFFFFFFFFFFFFFFFFFFFFFFFFFFFFFFFFFFFFFFFFFFFFFFFFFFFFFFFFFFFFFFF
310
FFFFFFFFFFFFFFFFFFFFFFFFFFFFFFFFFFFFFFFFFFFFFFFFF000FFFFFFFFFFFF
310
FFFFFFFFFFFFFFFFFFFFFFFFFFFFFFFFFFFFFFFFFFFFFFFFFFFFFFFFFFFFFFFF
310
FFFFFFFFFFFFFFFFFFFFFFFFFFFFFFFFFFFFFFFFFFFFFFFFFFFFFFFFFFFFFFFF
310
FFFFFFFFFFFFFFFFFFFFFFFFFFFFFFFFF000FFFFFFFFFFFFFFFFFFFFFFFFFFFF
310
FFFFFFFFFFFFFFFFFFFFFFFFFFFFFFFFFFFFFFFFFFFFFFFFFFFFFFFFFFFFFFFF
310
FFFFFFFFFFFFFFFFFFFFFFFFFFFFFFFFFFFFFFFFFFFFFFFFFFFFFFFFFFFFFFFF
310
FFFFFFFFFFFFFFFFF000FFFFFFFFFFFFFFFFFFFFFFFFFFFFFFFFFFFFFFFFFFFF
310
FFFFFFFFFFFFFFFFFFFFFFFFFFFFFFFFFFFFFFFFFFFFFFFFFFFFFFFFFFFFFFFF
310
FFFFFFFFFFFFFFFFFFFFFFFFFFFFFFFFFFFFFFFFFFFFFFFFFFFFFFFFFFFFFFFF
310
F000FFFFFFFFFFFFFFFFFFFFFFFFFFFFFFFFFFFFFFFFFFFFFFFFFFFFFFFFFFFF
310
FFFFFFFFFFFFFFFFFFFFFFFFFFFFFFFFFFFFFFFFFFFFFFFFFFFFFFFFFFFFFFFF
310
FFFFFFFFFFFFFFFFFFFFFFFFFFFFFFFFFFFFFFFFFFFFFFFFF000FFFFFFFFFFFF
310
FFFFFFFFFFFFFFFFFFFFFFFFFFFFFFFFFFFFFFFFFFFFFFFFFFFFFFFFFFFFFFFF
310
FFFFFFFFFFFFFFFFFFFFFFFFFFFFFFFFFFFFFFFFFFFFFFFFFFFFFFFFFFFFFFFF
310
FFFFFFFFFFFFFFFFFFFFFFFFFFFFFFFFF0000000000000000000000000000000
310
0000000000000000000000000000000000000000000000000000000000000000
310
0000000000000000000000000000000000000000000000000000000000000000
310
0000000000000000000000000000000000000000000000000000000000000000
310
0000000000000000000000000000000000000000000000000000000000000000
310
0000000000000000000000000000000000000000000000000000000000000000
310
0000000000000000000000000000000000000000000000000000000000000000
310
0000000000000000000000000000000000000000000000000000000000000000
310
0000000000000000000000000000000000000000000000000000000000000000
310
0000000000000000000000000000000000000000000000000000000000000000
310
0000000000000000000000000000000000000000000000000000000000000000
310
0000000000000000000000000000000000000000000000000000000000000000
310
0000000000000000000000000000000000000000000000000000000000000000
310
0000000000000000000000000000000000000000000000000000000000000000
310
0000000000000000000000000000000000000000000000000000000000000000
310
0000000000000000000000000000000000000000000000000000000000000000
  1
OLE
  0
ENDSEC
  0
SECTION
  2
OBJECTS
  0
DICTIONARY
  5
C
330
0
100
AcDbDictionary
281
     1
  3
ACAD_GROUP
350
D
  3
ACAD_LAYOUT
350
1A
  3
ACAD_MLINESTYLE
350
17
  3
ACAD_PLOTSETTINGS
350
19
  3
ACAD_PLOTSTYLENAME
350
E
  3
ACAD_SCALELIST
350
47
  0
DICTIONARY
  5
D
102
{ACAD_REACTORS
330
C
102
}
330
C
100
AcDbDictionary
281
     1
  0
DICTIONARY
  5
1A
102
{ACAD_REACTORS
330
C
102
}
330
C
100
AcDbDictionary
281
     1
  3
Layout1
350
1E
  3
Layout2
350
26
  3
Model
350
22
  0
DICTIONARY
  5
17
102
{ACAD_REACTORS
330
C
102
}
330
C
100
AcDbDictionary
281
     1
  3
Standard
350
18
  0
DICTIONARY
  5
19
102
{ACAD_REACTORS
330
C
102
}
330
C
100
AcDbDictionary
281
     1
  0
ACDBDICTIONARYWDFLT
  5
E
102
{ACAD_REACTORS
330
C
102
}
330
C
100
AcDbDictionary
281
     1
  3
Normal
350
F
100
AcDbDictionaryWithDefault
340
F
  0
DICTIONARY
  5
47
102
{ACAD_REACTORS
330
C
102
}
330
C
100
AcDbDictionary
281
     1
  3
A0
350
48
  3
A1
350
49
  3
A2
350
4A
  3
A3
350
4B
  3
A4
350
4C
  3
A5
350
4D
  3
A6
350
4E
  3
A7
350
4F
  3
A8
350
50
  3
A9
350
51
  3
B0
350
52
  3
B1
350
53
  3
B2
350
54
  3
B3
350
55
  3
B4
350
56
  3
B5
350
57
  3
B6
350
58
  3
B7
350
59
  3
B8
350
5A
  3
B9
350
5B
  3
C0
350
5C
  3
C1
350
5D
  3
C2
350
5E
  3
C3
350
5F
  3
C4
350
60
  3
C5
350
61
  3
C6
350
62
  3
C7
350
63
  3
C8
350
64
  3
C9
350
65
  3
D0
350
66
  3
D1
350
67
  3
D2
350
68
  0
LAYOUT
  5
1E
102
{ACAD_REACTORS
330
1A
102
}
330
1A
100
AcDbPlotSettings
  1

  2
none_device
  4

  6

 40
0.0
 41
0.0
 42
0.0
 43
0.0
 44
0.0
 45
0.0
 46
0.0
 47
0.0
 48
0.0
 49
0.0
140
0.0
141
0.0
142
1.0
143
1.0
 70
   688
 72
     1
 73
     0
 74
     5
  7

 75
    16
147
1.0
148
0.0
149
0.0
100
AcDbLayout
  1
Layout1
 70
     1
 71
     1
 10
0.0
 20
0.0
 11
420.0
 21
297.0
 12
0.0
 22
0.0
 32
0.0
 14
1.0000000000E+20
 24
1.0000000000E+20
 34
1.0000000000E+20
 15
-1.0000000000E+20
 25
-1.0000000000E+20
 35
-1.0000000000E+20
146
0.0
 13
0.0
 23
0.0
 33
0.0
 16
1.0
 26
0.0
 36
0.0
 17
0.0
 27
1.0
 37
0.0
 76
     0
330
1B
  0
LAYOUT
  5
26
102
{ACAD_REACTORS
330
1A
102
}
330
1A
100
AcDbPlotSettings
  1

  2
none_device
  4

  6

 40
0.0
 41
0.0
 42
0.0
 43
0.0
 44
0.0
 45
0.0
 46
0.0
 47
0.0
 48
0.0
 49
0.0
140
0.0
141
0.0
142
1.0
143
1.0
 70
   688
 72
     1
 73
     0
 74
     5
  7

 75
    16
147
1.0
148
0.0
149
0.0
100
AcDbLayout
  1
Layout2
 70
     1
 71
     2
 10
0.0
 20
0.0
 11
0.0
 21
0.0
 12
0.0
 22
0.0
 32
0.0
 14
0.0
 24
0.0
 34
0.0
 15
0.0
 25
0.0
 35
0.0
146
0.0
 13
0.0
 23
0.0
 33
0.0
 16
1.0
 26
0.0
 36
0.0
 17
0.0
 27
1.0
 37
0.0
 76
     0
330
23
  0
LAYOUT
  5
22
102
{ACAD_REACTORS
330
1A
102
}
330
1A
100
AcDbPlotSettings
  1

  2
none_device
  4
Letter_(8.50_x_11.00_Inches)
  6

 40
6.35
 41
6.35
 42
6.35000508
 43
6.35000508
 44
215.9
 45
279.4
 46
0.0
 47
0.0
 48
0.0
 49
0.0
140
0.0
141
0.0
142
1.0
143
1.0
 70
  1712
 72
     1
 73
     0
 74
     0
  7

 75
     0
147
1.0
148
0.0
149
0.0
100
AcDbLayout
  1
Model
 70
     1
 71
     0
 10
0.0
 20
0.0
 11
297.0
 21
210.0
 12
0.0
 22
0.0
 32
0.0
 14
0.0
 24
0.0
 34
0.0
 15
297.0
 25
210.0
 35
0.0
146
0.0
 13
0.0
 23
0.0
 33
0.0
 16
1.0
 26
0.0
 36
0.0
 17
0.0
 27
1.0
 37
0.0
 76
     0
330
1F
331
29
  0
MLINESTYLE
  5
18
102
{ACAD_REACTORS
330
17
102
}
330
17
100
AcDbMlineStyle
  2
Standard
 70
     0
  3

 62
   256
 51
90.0
 52
90.0
 71
     2
 49
0.5
 62
   256
  6
BYLAYER
 49
-0.5
 62
   256
  6
BYLAYER
  0
ACDBPLACEHOLDER
  5
F
102
{ACAD_REACTORS
330
E
102
}
330
E
  0
SCALE
  5
48
102
{ACAD_REACTORS
330
47
102
}
330
47
100
AcDbScale
 70
     0
300
1:1
140
1.0
141
1.0
290
     1
  0
SCALE
  5
49
102
{ACAD_REACTORS
330
47
102
}
330
47
100
AcDbScale
 70
     0
300
1:2
140
1.0
141
2.0
290
     0
  0
SCALE
  5
4A
102
{ACAD_REACTORS
330
47
102
}
330
47
100
AcDbScale
 70
     0
300
1:4
140
1.0
141
4.0
290
     0
  0
SCALE
  5
4B
102
{ACAD_REACTORS
330
47
102
}
330
47
100
AcDbScale
 70
     0
300
1:5
140
1.0
141
5.0
290
     0
  0
SCALE
  5
4C
102
{ACAD_REACTORS
330
47
102
}
330
47
100
AcDbScale
 70
     0
300
1:8
140
1.0
141
8.0
290
     0
  0
SCALE
  5
4D
102
{ACAD_REACTORS
330
47
102
}
330
47
100
AcDbScale
 70
     0
300
1:10
140
1.0
141
10.0
290
     0
  0
SCALE
  5
4E
102
{ACAD_REACTORS
330
47
102
}
330
47
100
AcDbScale
 70
     0
300
1:16
140
1.0
141
16.0
290
     0
  0
SCALE
  5
4F
102
{ACAD_REACTORS
330
47
102
}
330
47
100
AcDbScale
 70
     0
300
1:20
140
1.0
141
20.0
290
     0
  0
SCALE
  5
50
102
{ACAD_REACTORS
330
47
102
}
330
47
100
AcDbScale
 70
     0
300
1:30
140
1.0
141
30.0
290
     0
  0
SCALE
  5
51
102
{ACAD_REACTORS
330
47
102
}
330
47
100
AcDbScale
 70
     0
300
1:40
140
1.0
141
40.0
290
     0
  0
SCALE
  5
52
102
{ACAD_REACTORS
330
47
102
}
330
47
100
AcDbScale
 70
     0
300
1:50
140
1.0
141
50.0
290
     0
  0
SCALE
  5
53
102
{ACAD_REACTORS
330
47
102
}
330
47
100
AcDbScale
 70
     0
300
1:100
140
1.0
141
100.0
290
     0
  0
SCALE
  5
54
102
{ACAD_REACTORS
330
47
102
}
330
47
100
AcDbScale
 70
     0
300
2:1
140
2.0
141
1.0
290
     0
  0
SCALE
  5
55
102
{ACAD_REACTORS
330
47
102
}
330
47
100
AcDbScale
 70
     0
300
4:1
140
4.0
141
1.0
290
     0
  0
SCALE
  5
56
102
{ACAD_REACTORS
330
47
102
}
330
47
100
AcDbScale
 70
     0
300
8:1
140
8.0
141
1.0
290
     0
  0
SCALE
  5
57
102
{ACAD_REACTORS
330
47
102
}
330
47
100
AcDbScale
 70
     0
300
10:1
140
10.0
141
1.0
290
     0
  0
SCALE
  5
58
102
{ACAD_REACTORS
330
47
102
}
330
47
100
AcDbScale
 70
     0
300
100:1
140
100.0
141
1.0
290
     0
  0
SCALE
  5
59
102
{ACAD_REACTORS
330
47
102
}
330
47
100
AcDbScale
 70
     0
300
1/128" = 1'-0"
140
0.0078125
141
12.0
290
     0
  0
SCALE
  5
5A
102
{ACAD_REACTORS
330
47
102
}
330
47
100
AcDbScale
 70
     0
300
1/64" = 1'-0"
140
0.015625
141
12.0
290
     0
  0
SCALE
  5
5B
102
{ACAD_REACTORS
330
47
102
}
330
47
100
AcDbScale
 70
     0
300
1/32" = 1'-0"
140
0.03125
141
12.0
290
     0
  0
SCALE
  5
5C
102
{ACAD_REACTORS
330
47
102
}
330
47
100
AcDbScale
 70
     0
300
1/16" = 1'-0"
140
0.0625
141
12.0
290
     0
  0
SCALE
  5
5D
102
{ACAD_REACTORS
330
47
102
}
330
47
100
AcDbScale
 70
     0
300
3/32" = 1'-0"
140
0.09375
141
12.0
290
     0
  0
SCALE
  5
5E
102
{ACAD_REACTORS
330
47
102
}
330
47
100
AcDbScale
 70
     0
300
1/8" = 1'-0"
140
0.125
141
12.0
290
     0
  0
SCALE
  5
5F
102
{ACAD_REACTORS
330
47
102
}
330
47
100
AcDbScale
 70
     0
300
3/16" = 1'-0"
140
0.1875
141
12.0
290
     0
  0
SCALE
  5
60
102
{ACAD_REACTORS
330
47
102
}
330
47
100
AcDbScale
 70
     0
300
1/4" = 1'-0"
140
0.25
141
12.0
290
     0
  0
SCALE
  5
61
102
{ACAD_REACTORS
330
47
102
}
330
47
100
AcDbScale
 70
     0
300
3/8" = 1'-0"
140
0.375
141
12.0
290
     0
  0
SCALE
  5
62
102
{ACAD_REACTORS
330
47
102
}
330
47
100
AcDbScale
 70
     0
300
1/2" = 1'-0"
140
0.5
141
12.0
290
     0
  0
SCALE
  5
63
102
{ACAD_REACTORS
330
47
102
}
330
47
100
AcDbScale
 70
     0
300
3/4" = 1'-0"
140
0.75
141
12.0
290
     0
  0
SCALE
  5
64
102
{ACAD_REACTORS
330
47
102
}
330
47
100
AcDbScale
 70
     0
300
1" = 1'-0"
140
1.0
141
12.0
290
     0
  0
SCALE
  5
65
102
{ACAD_REACTORS
330
47
102
}
330
47
100
AcDbScale
 70
     0
300
1-1/2" = 1'-0"
140
1.5
141
12.0
290
     0
  0
SCALE
  5
66
102
{ACAD_REACTORS
330
47
102
}
330
47
100
AcDbScale
 70
     0
300
3" = 1'-0"
140
3.0
141
12.0
290
     0
  0
SCALE
  5
67
102
{ACAD_REACTORS
330
47
102
}
330
47
100
AcDbScale
 70
     0
300
6" = 1'-0"
140
6.0
141
12.0
290
     0
  0
SCALE
  5
68
102
{ACAD_REACTORS
330
47
102
}
330
47
100
AcDbScale
 70
     0
300
1'-0" = 1'-0"
140
12.0
141
12.0
290
     0
  0
ENDSEC
  0
EOF
