  0
SECTION
  2
HEADER
  9
$ACADVER
  1
AC1015
  9
$ACADMAINTVER
 70
     6
  9
$DWGCODEPAGE
  3
ANSI_1252
  9
$INSBASE
 10
0.0
 20
0.0
 30
0.0
  9
$EXTMIN
 10
0.0
 20
0.0
 30
0.0
  9
$EXTMAX
 10
297.0
 20
210.0
 30
0.0
  9
$LIMMIN
 10
0.0
 20
0.0
  9
$LIMMAX
 10
297.0
 20
210.0
  9
$ORTHOMODE
 70
     0
  9
$REGENMODE
 70
     1
  9
$FILLMODE
 70
     1
  9
$QTEXTMODE
 70
     0
  9
$MIRRTEXT
 70
     1
  9
$LTSCALE
 40
1.0
  9
$ATTMODE
 70
     1
  9
$TEXTSIZE
 40
2.0
  9
$TRACEWID
 40
1.0
  9
$TEXTSTYLE
  7
Standard
  9
$CLAYER
  8
0
  9
$CELTYPE
  6
ByLayer
  9
$CECOLOR
 62
   256
  9
$CELTSCALE
 40
1.0
  9
$DISPSILH
 70
     0
  9
$DIMSCALE
 40
1.0
  9
$DIMASZ
 40
3.0
  9
$DIMEXO
 40
0.0
  9
$DIMDLI
 40
3.75
  9
$DIMRND
 40
0.0
  9
$DIMDLE
 40
0.0
  9
$DIMEXE
 40
1.0
  9
$DIMTP
 40
0.0
  9
$DIMTM
 40
0.0
  9
$DIMTXT
 40
2.0
  9
$DIMCEN
 40
2.5
  9
$DIMTSZ
 40
0.0
  9
$DIMTOL
 70
     0
  9
$DIMLIM
 70
     0
  9
$DIMTIH
 70
     1
  9
$DIMTOH
 70
     1
  9
$DIMSE1
 70
     0
  9
$DIMSE2
 70
     0
  9
$DIMTAD
 70
     1
  9
$DIMZIN
 70
     0
  9
$DIMBLK
  1

  9
$DIMASO
 70
     1
  9
$DIMSHO
 70
     1
  9
$DIMPOST
  1

  9
$DIMAPOST
  1

  9
$DIMALT
 70
     0
  9
$DIMALTD
 70
     3
  9
$DIMALTF
 40
0.0393700787
  9
$DIMLFAC
 40
1.0
  9
$DIMTOFL
 70
     1
  9
$DIMTVP
 40
0.0
  9
$DIMTIX
 70
     0
  9
$DIMSOXD
 70
     0
  9
$DIMSAH
 70
     0
  9
$DIMBLK1
  1

  9
$DIMBLK2
  1

  9
$DIMSTYLE
  2
ISO-25
  9
$DIMCLRD
 70
     0
  9
$DIMCLRE
 70
     0
  9
$DIMCLRT
 70
     0
  9
$DIMTFAC
 40
1.0
  9
$DIMGAP
 40
1.524
  9
$DIMJUST
 70
     0
  9
$DIMSD1
 70
     0
  9
$DIMSD2
 70
     0
  9
$DIMTOLJ
 70
     0
  9
$DIMTZIN
 70
     0
  9
$DIMALTZ
 70
     0
  9
$DIMALTTZ
 70
     0
  9
$DIMUPT
 70
     0
  9
$DIMDEC
 70
     2
  9
$DIMTDEC
 70
     3
  9
$DIMALTU
 70
     2
  9
$DIMALTTD
 70
     3
  9
$DIMTXSTY
  7
Standard
  9
$DIMAUNIT
 70
     0
  9
$DIMADEC
 70
     2
  9
$DIMALTRND
 40
0.0
  9
$DIMAZIN
 70
     0
  9
$DIMDSEP
 70
    44
  9
$DIMATFIT
 70
     3
  9
$DIMFRAC
 70
     0
  9
$DIMLDRBLK
  1

  9
$DIMLUNIT
 70
     2
  9
$DIMLWD
 70
    -2
  9
$DIMLWE
 70
    -2
  9
$DIMTMOVE
 70
     0
  9
$LUNITS
 70
     2
  9
$LUPREC
 70
     2
  9
$SKETCHINC
 40
1.0
  9
$FILLETRAD
 40
10.0
  9
$AUNITS
 70
     0
  9
$AUPREC
 70
     2
  9
$MENU
  1
.
  9
$ELEVATION
 40
0.0
  9
$PELEVATION
 40
0.0
  9
$THICKNESS
 40
0.0
  9
$LIMCHECK
 70
     0
  9
$CHAMFERA
 40
10.0
  9
$CHAMFERB
 40
10.0
  9
$CHAMFERC
 40
20.0
  9
$CHAMFERD
 40
0.0
  9
$SKPOLY
 70
     0
  9
$TDCREATE
 40
2456056.447439051
  9
$TDUCREATE
 40
2456056.364105718
  9
$TDUPDATE
 40
2456056.447440683
  9
$TDUUPDATE
 40
2456056.364107349
  9
$TDINDWG
 40
0.0000000116
  9
$TDUSRTIMER
 40
0.0000000116
  9
$USRTIMER
 70
     1
  9
$ANGBASE
 50
0.0
  9
$ANGDIR
 70
     0
  9
$PDMODE
 70
     0
  9
$PDSIZE
 40
-1.0
  9
$PLINEWID
 40
0.0
  9
$SPLFRAME
 70
     0
  9
$SPLINETYPE
 70
     6
  9
$SPLINESEGS
 70
     8
  9
$HANDSEED
  5
2B6
  9
$SURFTAB1
 70
     6
  9
$SURFTAB2
 70
     6
  9
$SURFTYPE
 70
     6
  9
$SURFU
 70
     6
  9
$SURFV
 70
     6
  9
$UCSBASE
  2

  9
$UCSNAME
  2

  9
$UCSORG
 10
0.0
 20
0.0
 30
0.0
  9
$UCSXDIR
 10
1.0
 20
0.0
 30
0.0
  9
$UCSYDIR
 10
0.0
 20
1.0
 30
0.0
  9
$UCSORTHOREF
  2

  9
$UCSORTHOVIEW
 70
     0
  9
$UCSORGTOP
 10
0.0
 20
0.0
 30
0.0
  9
$UCSORGBOTTOM
 10
0.0
 20
0.0
 30
0.0
  9
$UCSORGLEFT
 10
0.0
 20
0.0
 30
0.0
  9
$UCSORGRIGHT
 10
0.0
 20
0.0
 30
0.0
  9
$UCSORGFRONT
 10
0.0
 20
0.0
 30
0.0
  9
$UCSORGBACK
 10
0.0
 20
0.0
 30
0.0
  9
$PUCSBASE
  2

  9
$PUCSNAME
  2

  9
$PUCSORG
 10
0.0
 20
0.0
 30
0.0
  9
$PUCSXDIR
 10
1.0
 20
0.0
 30
0.0
  9
$PUCSYDIR
 10
0.0
 20
1.0
 30
0.0
  9
$PUCSORTHOREF
  2

  9
$PUCSORTHOVIEW
 70
     0
  9
$PUCSORGTOP
 10
0.0
 20
0.0
 30
0.0
  9
$PUCSORGBOTTOM
 10
0.0
 20
0.0
 30
0.0
  9
$PUCSORGLEFT
 10
0.0
 20
0.0
 30
0.0
  9
$PUCSORGRIGHT
 10
0.0
 20
0.0
 30
0.0
  9
$PUCSORGFRONT
 10
0.0
 20
0.0
 30
0.0
  9
$PUCSORGBACK
 10
0.0
 20
0.0
 30
0.0
  9
$USERI1
 70
     0
  9
$USERI2
 70
     0
  9
$USERI3
 70
     0
  9
$USERI4
 70
     0
  9
$USERI5
 70
     0
  9
$USERR1
 40
0.0
  9
$USERR2
 40
0.0
  9
$USERR3
 40
0.0
  9
$USERR4
 40
0.0
  9
$USERR5
 40
0.0
  9
$WORLDVIEW
 70
     1
  9
$SHADEDGE
 70
     3
  9
$SHADEDIF
 70
    70
  9
$TILEMODE
 70
     1
  9
$MAXACTVP
 70
    64
  9
$PINSBASE
 10
0.0
 20
0.0
 30
0.0
  9
$PLIMCHECK
 70
     0
  9
$PEXTMIN
 10
1.0000000000E+20
 20
1.0000000000E+20
 30
1.0000000000E+20
  9
$PEXTMAX
 10
-1.0000000000E+20
 20
-1.0000000000E+20
 30
-1.0000000000E+20
  9
$PLIMMIN
 10
0.0
 20
0.0
  9
$PLIMMAX
 10
420.0
 20
297.0
  9
$UNITMODE
 70
     0
  9
$VISRETAIN
 70
     1
  9
$PLINEGEN
 70
     0
  9
$PSLTSCALE
 70
     1
  9
$TREEDEPTH
 70
  3020
  9
$CMLSTYLE
  2
Standard
  9
$CMLJUST
 70
     0
  9
$CMLSCALE
 40
20.0
  9
$PROXYGRAPHICS
 70
     1
  9
$MEASUREMENT
 70
     1
  9
$CELWEIGHT
370
    -1
  9
$ENDCAPS
280
     0
  9
$JOINSTYLE
280
     0
  9
$LWDISPLAY
290
     1
  9
$INSUNITS
 70
     4
  9
$HYPERLINKBASE
  1

  9
$STYLESHEET
  1

  9
$XEDIT
290
     1
  9
$CEPSNTYPE
380
     0
  9
$PSTYLEMODE
290
     1
  9
$FINGERPRINTGUID
  2
{36579AF8-1307-4C3E-9AF5-192DFF852BAB}
  9
$VERSIONGUID
  2
{FAEB1C32-E019-11D5-929B-00C0DF256EC4}
  9
$EXTNAMES
290
     1
  9
$PSVPSCALE
 40
0.0
  9
$OLESTARTUP
290
     0
  0
ENDSEC
  0
SECTION
  2
CLASSES
  0
CLASS
  1
ACDBDICTIONARYWDFLT
  2
AcDbDictionaryWithDefault
  3
ObjectDBX Classes
 90
        0
280
     0
281
     0
  0
CLASS
  1
VISUALSTYLE
  2
AcDbVisualStyle
  3
ObjectDBX Classes
 90
     4095
280
     0
281
     0
  0
CLASS
  1
MATERIAL
  2
AcDbMaterial
  3
ObjectDBX Classes
 90
     1153
280
     0
281
     0
  0
CLASS
  1
ACDBPLACEHOLDER
  2
AcDbPlaceHolder
  3
ObjectDBX Classes
 90
        0
280
     0
281
     0
  0
CLASS
  1
LAYOUT
  2
AcDbLayout
  3
ObjectDBX Classes
 90
        0
280
     0
281
     0
  0
ENDSEC
  0
SECTION
  2
TABLES
  0
TABLE
  2
VPORT
  5
8
330
0
100
AcDbSymbolTable
 70
     1
  0
VPORT
  5
29
330
8
100
AcDbSymbolTableRecord
100
AcDbViewportTableRecord
  2
*Active
 70
     0
 10
0.0
 20
0.0
 11
1.0
 21
1.0
 12
148.5
 22
105.0
 13
0.0
 23
0.0
 14
10.0
 24
10.0
 15
10.0
 25
10.0
 16
0.0
 26
0.0
 36
1.0
 17
0.0
 27
0.0
 37
0.0
 40
210.0
 41
1.4142857143
 42
50.0
 43
0.0
 44
0.0
 50
0.0
 51
0.0
 71
     0
 72
  2000
 73
     1
 74
     3
 75
     0
 76
     0
 77
     0
 78
     0
281
     0
 65
     1
110
0.0
120
0.0
130
0.0
111
1.0
121
0.0
131
0.0
112
0.0
122
1.0
132
0.0
 79
     0
146
0.0
  0
ENDTAB
  0
TABLE
  2
LTYPE
  5
5
330
0
100
AcDbSymbolTable
 70
     6
  0
LTYPE
  5
14
330
5
100
AcDbSymbolTableRecord
100
AcDbLinetypeTableRecord
  2
ByBlock
 70
     0
  3

 72
    65
 73
     0
 40
0.0
  0
LTYPE
  5
15
330
5
100
AcDbSymbolTableRecord
100
AcDbLinetypeTableRecord
  2
ByLayer
 70
     0
  3

 72
    65
 73
     0
 40
0.0
  0
LTYPE
  5
16
330
5
100
AcDbSymbolTableRecord
100
AcDbLinetypeTableRecord
  2
Continuous
 70
     0
  3
Solid line
 72
    65
 73
     0
 40
0.0
  0
LTYPE
  5
3F
330
5
100
AcDbSymbolTableRecord
100
AcDbLinetypeTableRecord
  2
HIDDEN
 70
     0
  3
Hidden __ __ __ __ __ __ __ __ __ __ __ __ __ __
 72
    65
 73
     2
 40
1.905
 49
1.27
 74
     0
 49
-0.635
 74
     0
  0
LTYPE
  5
40
330
5
100
AcDbSymbolTableRecord
100
AcDbLinetypeTableRecord
  2
PHANTOM
 70
     0
  3
Phantom ______  __  __  ______  __  __  ______
 72
    65
 73
     6
 40
12.7
 49
6.35
 74
     0
 49
-1.27
 74
     0
 49
1.27
 74
     0
 49
-1.27
 74
     0
 49
1.27
 74
     0
 49
-1.27
 74
     0
  0
LTYPE
  5
41
330
5
100
AcDbSymbolTableRecord
100
AcDbLinetypeTableRecord
  2
CENTER
 70
     0
  3
Center ____ _ ____ _ ____ _ ____ _ ____ _ ____
 72
    65
 73
     4
 40
10.16
 49
6.35
 74
     0
 49
-1.27
 74
     0
 49
1.27
 74
     0
 49
-1.27
 74
     0
  0
LTYPE
  5
42
330
5
100
AcDbSymbolTableRecord
100
AcDbLinetypeTableRecord
  2
CENTERX2
 70
     0
  3
Center (2x) ________  __  ________  __  _____
 72
    65
 73
     4
 40
20.32
 49
12.7
 74
     0
 49
-2.54
 74
     0
 49
2.54
 74
     0
 49
-2.54
 74
     0
  0
LTYPE
  5
43
330
5
100
AcDbSymbolTableRecord
100
AcDbLinetypeTableRecord
  2
DOT2
 70
     0
  3
Dot (.5x) ........................................
 72
    65
 73
     2
 40
0.635
 49
0.0
 74
     0
 49
-0.635
 74
     0
  0
ENDTAB
  0
TABLE
  2
LAYER
  5
2
330
0
100
AcDbSymbolTable
 70
     5
  0
LAYER
  5
10
330
2
100
AcDbSymbolTableRecord
100
AcDbLayerTableRecord
  2
0
 70
     0
 62
     7
  6
Continuous
370
    -3
390
F
  0
LAYER
  5
44
330
2
100
AcDbSymbolTableRecord
100
AcDbLayerTableRecord
  2
FORMAT
 70
     0
 62
     7
  6
Continuous
370
    -3
390
F
  0
LAYER
  5
45
330
2
100
AcDbSymbolTableRecord
100
AcDbLayerTableRecord
  2
VERMASSUNG
 70
     0
 62
     7
  6
Continuous
370
    -3
390
F
  0
LAYER
  5
46
330
2
100
AcDbSymbolTableRecord
100
AcDbLayerTableRecord
  2
KOPF_DÜNN
 70
     0
 62
     7
  6
Continuous
370
    -3
390
F
  0
LAYER
  5
47
330
2
100
AcDbSymbolTableRecord
100
AcDbLayerTableRecord
  2
KOPF_DICK
 70
     0
 62
     7
  6
Continuous
370
    15
390
F
  0
ENDTAB
  0
TABLE
  2
STYLE
  5
3
330
0
100
AcDbSymbolTable
 70
     2
  0
STYLE
  5
11
330
3
100
AcDbSymbolTableRecord
100
AcDbTextStyleTableRecord
  2
Standard
 70
     0
 40
0.0
 41
1.0
 50
0.0
 71
     0
 42
2.0
  3
txt
  4

  0
STYLE
  5
48
330
3
100
AcDbSymbolTableRecord
100
AcDbTextStyleTableRecord
  2
SLDTEXTSTYLE0
 70
     0
 40
0.0
 41
0.7
 50
0.0
 71
     0
 42
0.2
  3
TXT
  4

  0
ENDTAB
  0
TABLE
  2
VIEW
  5
6
330
0
100
AcDbSymbolTable
 70
     0
  0
ENDTAB
  0
TABLE
  2
UCS
  5
7
330
0
100
AcDbSymbolTable
 70
     0
  0
ENDTAB
  0
TABLE
  2
APPID
  5
9
330
0
100
AcDbSymbolTable
 70
     1
  0
APPID
  5
12
330
9
100
AcDbSymbolTableRecord
100
AcDbRegAppTableRecord
  2
ACAD
 70
     0
  0
ENDTAB
  0
TABLE
  2
DIMSTYLE
  5
A
330
0
100
AcDbSymbolTable
 70
     5
100
AcDbDimStyleTable
  0
DIMSTYLE
105
27
330
A
100
AcDbSymbolTableRecord
100
AcDbDimStyleTableRecord
  2
ISO-25
 70
     0
 41
2.5
 42
0.625
 43
3.75
 44
1.25
 73
     0
 74
     0
 77
     1
 78
     8
140
2.5
141
2.5
143
0.0393700787
147
0.625
171
     3
172
     1
178
     0
271
     2
272
     2
274
     3
278
    44
283
     0
284
     8
340
11
  0
DIMSTYLE
105
16B
102
{ACAD_REACTORS
330
16A
102
}
330
A
100
AcDbSymbolTableRecord
100
AcDbDimStyleTableRecord
  2
SLDDIMSTYLE0
 70
     0
 41
3.0
 44
0.0
 73
     0
 74
     0
 77
     1
 78
    12
 79
     3
140
2.0
147
0.5
173
     1
178
     0
179
     2
272
     3
276
     2
284
    12
340
48
  0
DIMSTYLE
105
175
102
{ACAD_REACTORS
330
174
330
17F
330
189
330
1D0
330
1DA
330
1E4
330
1F9
330
203
330
20D
330
2AB
102
}
330
A
100
AcDbSymbolTableRecord
100
AcDbDimStyleTableRecord
  2
SLDDIMSTYLE1
 70
     0
 41
3.0
 44
0.0
 45
0.000000001
 73
     0
 74
     0
 77
     1
 78
    12
 79
     3
140
2.0
147
0.5
173
     1
178
     0
271
     2
272
     3
276
     2
284
    12
340
48
  0
DIMSTYLE
105
1EE
102
{ACAD_REACTORS
330
1ED
102
}
330
A
100
AcDbSymbolTableRecord
100
AcDbDimStyleTableRecord
  2
SLDDIMSTYLE2
 70
     0
 41
3.0
 44
0.0
 45
0.000000001
 73
     0
 74
     0
 77
     1
 78
    12
 79
     3
140
2.0
147
0.5
172
     1
173
     1
178
     0
271
     2
272
     3
276
     2
284
    12
289
     0
340
48
  0
DIMSTYLE
105
218
102
{ACAD_REACTORS
330
217
102
}
330
A
100
AcDbSymbolTableRecord
100
AcDbDimStyleTableRecord
  2
SLDDIMSTYLE3
 70
     0
 41
3.0
 44
0.0
 45
0.000000001
 73
     0
 74
     0
 77
     1
 78
    12
 79
     3
140
2.0
141
0.0
147
0.5
173
     1
178
     0
271
     2
272
     3
276
     2
284
    12
340
48
  0
ENDTAB
  0
TABLE
  2
BLOCK_RECORD
  5
1
330
0
100
AcDbSymbolTable
 70
    15
  0
BLOCK_RECORD
  5
1F
330
1
100
AcDbSymbolTableRecord
100
AcDbBlockTableRecord
  2
*Model_Space
340
22
  0
BLOCK_RECORD
  5
1B
330
1
100
AcDbSymbolTableRecord
100
AcDbBlockTableRecord
  2
*Paper_Space
340
1E
  0
BLOCK_RECORD
  5
23
330
1
100
AcDbSymbolTableRecord
100
AcDbBlockTableRecord
  2
*Paper_Space0
340
26
  0
BLOCK_RECORD
  5
16C
330
1
100
AcDbSymbolTableRecord
100
AcDbBlockTableRecord
  2
_D
340
0
  0
BLOCK_RECORD
  5
176
330
1
100
AcDbSymbolTableRecord
100
AcDbBlockTableRecord
  2
_D_1
340
0
  0
BLOCK_RECORD
  5
180
330
1
100
AcDbSymbolTableRecord
100
AcDbBlockTableRecord
  2
_D_2
340
0
  0
BLOCK_RECORD
  5
18A
330
1
100
AcDbSymbolTableRecord
100
AcDbBlockTableRecord
  2
_D_3
340
0
  0
BLOCK_RECORD
  5
1D1
330
1
100
AcDbSymbolTableRecord
100
AcDbBlockTableRecord
  2
_D_4
340
0
  0
BLOCK_RECORD
  5
1DB
330
1
100
AcDbSymbolTableRecord
100
AcDbBlockTableRecord
  2
_D_5
340
0
  0
BLOCK_RECORD
  5
1E5
330
1
100
AcDbSymbolTableRecord
100
AcDbBlockTableRecord
  2
_D_6
340
0
  0
BLOCK_RECORD
  5
1EF
330
1
100
AcDbSymbolTableRecord
100
AcDbBlockTableRecord
  2
_D_7
340
0
  0
BLOCK_RECORD
  5
1FA
330
1
100
AcDbSymbolTableRecord
100
AcDbBlockTableRecord
  2
_D_8
340
0
  0
BLOCK_RECORD
  5
204
330
1
100
AcDbSymbolTableRecord
100
AcDbBlockTableRecord
  2
_D_9
340
0
  0
BLOCK_RECORD
  5
20E
330
1
100
AcDbSymbolTableRecord
100
AcDbBlockTableRecord
  2
_D_10
340
0
  0
BLOCK_RECORD
  5
219
330
1
100
AcDbSymbolTableRecord
100
AcDbBlockTableRecord
  2
_D_11
340
0
  0
BLOCK_RECORD
  5
220
330
1
100
AcDbSymbolTableRecord
100
AcDbBlockTableRecord
  2
SW_CENTERMARKSYMBOL_0
340
0
102
{BLKREFS
331
22B
102
}
  0
BLOCK_RECORD
  5
2AC
330
1
100
AcDbSymbolTableRecord
100
AcDbBlockTableRecord
  2
_D_12
340
0
  0
ENDTAB
  0
ENDSEC
  0
SECTION
  2
BLOCKS
  0
BLOCK
  5
20
330
1F
100
AcDbEntity
  8
0
100
AcDbBlockBegin
  2
*Model_Space
 70
     0
 10
0.0
 20
0.0
 30
0.0
  3
*Model_Space
  1

  0
ENDBLK
  5
21
330
1F
100
AcDbEntity
  8
0
100
AcDbBlockEnd
  0
BLOCK
  5
1C
330
1B
100
AcDbEntity
 67
     1
  8
0
100
AcDbBlockBegin
  2
*Paper_Space
 70
     0
 10
0.0
 20
0.0
 30
0.0
  3
*Paper_Space
  1

  0
ENDBLK
  5
1D
330
1B
100
AcDbEntity
 67
     1
  8
0
100
AcDbBlockEnd
  0
BLOCK
  5
24
330
23
100
AcDbEntity
  8
0
100
AcDbBlockBegin
  2
*Paper_Space0
 70
     0
 10
0.0
 20
0.0
 30
0.0
  3
*Paper_Space0
  1

  0
ENDBLK
  5
25
330
23
100
AcDbEntity
  8
0
100
AcDbBlockEnd
  0
BLOCK
  5
16D
330
16C
100
AcDbEntity
  8
0
100
AcDbBlockBegin
  2
_D
 70
     0
 10
0.0
 20
0.0
 30
0.0
  3
_D
  1

  0
ARC
  5
16F
330
16C
100
AcDbEntity
  8
VERMASSUNG
100
AcDbCircle
 10
268.0512174055
 20
146.7621678167
 30
0.0
 40
34.07075543129019
100
AcDbArc
 50
180.0
 51
210.0
  0
ARC
  5
170
330
16C
100
AcDbEntity
  8
VERMASSUNG
100
AcDbCircle
 10
268.0512174055
 20
146.7621678167
 30
0.0
 40
34.07075543129019
100
AcDbArc
 50
210.0
 51
221.458243877
  0
SOLID
  5
171
330
16C
100
AcDbEntity
  8
VERMASSUNG
100
AcDbTrace
 10
233.9804619742
 20
146.7621678167
 30
0.0
 11
233.6625917633
 21
143.7453054517
 31
0.0
 12
234.5617241535
 22
143.784814247
 32
0.0
 13
234.5617241535
 23
143.784814247
 33
0.0
  0
SOLID
  5
172
330
16C
100
AcDbEntity
  8
VERMASSUNG
100
AcDbTrace
 10
238.5450776759
 20
129.726790101
 30
0.0
 11
237.5597887045
 21
132.595885018
 31
0.0
 12
236.7613628156
 22
132.1805344433
 32
0.0
 13
236.7613628156
 23
132.1805344433
 33
0.0
  0
MTEXT
  5
173
330
16C
100
AcDbEntity
  8
VERMASSUNG
100
AcDbMText
 10
241.0373662211
 20
130.3168960317
 30
0.1
 40
2.0
 41
0.0
 71
     1
 72
     1
  1
30°
  7
SLDTEXTSTYLE0
 11
0.5961285534299959
 21
-0.8028890009119943
 31
0.0
 73
     1
 44
1.0
  0
ENDBLK
  5
16E
330
16C
100
AcDbEntity
  8
0
100
AcDbBlockEnd
  0
BLOCK
  5
177
330
176
100
AcDbEntity
  8
0
100
AcDbBlockBegin
  2
_D_1
 70
     0
 10
0.0
 20
0.0
 30
0.0
  3
_D_1
  1

  0
SOLID
  5
179
330
176
100
AcDbEntity
  8
VERMASSUNG
100
AcDbTrace
 10
170.0512174055
 20
186.7621678167
 30
0.0
 11
173.0512174055
 21
186.3121678167
 31
0.0
 12
173.0512174055
 22
187.2121678167
 32
0.0
 13
173.0512174055
 23
187.2121678167
 33
0.0
  0
SOLID
  5
17A
330
176
100
AcDbEntity
  8
VERMASSUNG
100
AcDbTrace
 10
268.0512174055
 20
186.7621678167
 30
0.0
 11
265.0512174055
 21
187.2121678167
 31
0.0
 12
265.0512174055
 22
186.3121678167
 32
0.0
 13
265.0512174055
 23
186.3121678167
 33
0.0
  0
LINE
  5
17B
330
176
100
AcDbEntity
  8
VERMASSUNG
100
AcDbLine
 10
170.0512174055
 20
171.4621678167
 30
0.0
 11
170.0512174055
 21
187.7621678167
 31
0.0
  0
LINE
  5
17C
330
176
100
AcDbEntity
  8
VERMASSUNG
100
AcDbLine
 10
268.0512174055
 20
175.7621678167
 30
0.0
 11
268.0512174055
 21
187.7621678167
 31
0.0
  0
LINE
  5
17D
330
176
100
AcDbEntity
  8
VERMASSUNG
100
AcDbLine
 10
170.0512174055
 20
186.7621678167
 30
0.0
 11
268.0512174055
 21
186.7621678167
 31
0.0
  0
MTEXT
  5
17E
330
176
100
AcDbEntity
  8
VERMASSUNG
100
AcDbMText
 10
216.7512173545
 20
189.3403031798
 30
4.6
 40
2.0
 41
0.0
 71
     1
 72
     1
  1
98
  7
SLDTEXTSTYLE0
 73
     1
 44
1.0
  0
ENDBLK
  5
178
330
176
100
AcDbEntity
  8
0
100
AcDbBlockEnd
  0
BLOCK
  5
181
330
180
100
AcDbEntity
  8
0
100
AcDbBlockBegin
  2
_D_2
 70
     0
 10
0.0
 20
0.0
 30
0.0
  3
_D_2
  1

  0
SOLID
  5
183
330
180
100
AcDbEntity
  8
VERMASSUNG
100
AcDbTrace
 10
140.0512174055
 20
192.7621678167
 30
0.0
 11
143.0512174055
 21
192.3121678167
 31
0.0
 12
143.0512174055
 22
193.2121678167
 32
0.0
 13
143.0512174055
 23
193.2121678167
 33
0.0
  0
SOLID
  5
184
330
180
100
AcDbEntity
  8
VERMASSUNG
100
AcDbTrace
 10
268.0512174055
 20
192.7621678167
 30
0.0
 11
265.0512174055
 21
193.2121678167
 31
0.0
 12
265.0512174055
 22
192.3121678167
 32
0.0
 13
265.0512174055
 23
192.3121678167
 33
0.0
  0
LINE
  5
185
330
180
100
AcDbEntity
  8
VERMASSUNG
100
AcDbLine
 10
140.0512174055
 20
162.7554936548
 30
0.0
 11
140.0512174055
 21
193.7621678167
 31
0.0
  0
LINE
  5
186
330
180
100
AcDbEntity
  8
VERMASSUNG
100
AcDbLine
 10
268.0512174055
 20
175.7621678167
 30
0.0
 11
268.0512174055
 21
193.7621678167
 31
0.0
  0
LINE
  5
187
330
180
100
AcDbEntity
  8
VERMASSUNG
100
AcDbLine
 10
140.0512174055
 20
192.7621678167
 30
0.0
 11
268.0512174055
 21
192.7621678167
 31
0.0
  0
MTEXT
  5
188
330
180
100
AcDbEntity
  8
VERMASSUNG
100
AcDbMText
 10
201.2512172725
 20
195.3403031798
 30
4.6
 40
2.0
 41
0.0
 71
     1
 72
     1
  1
128
  7
SLDTEXTSTYLE0
 73
     1
 44
1.0
  0
ENDBLK
  5
182
330
180
100
AcDbEntity
  8
0
100
AcDbBlockEnd
  0
BLOCK
  5
18B
330
18A
100
AcDbEntity
  8
0
100
AcDbBlockBegin
  2
_D_3
 70
     0
 10
0.0
 20
0.0
 30
0.0
  3
_D_3
  1

  0
SOLID
  5
18D
330
18A
100
AcDbEntity
  8
VERMASSUNG
100
AcDbTrace
 10
130.0512174055
 20
171.7621678167
 30
0.0
 11
129.6012174055
 21
168.7621678167
 31
0.0
 12
130.5012174055
 22
168.7621678167
 32
0.0
 13
130.5012174055
 23
168.7621678167
 33
0.0
  0
SOLID
  5
18E
330
18A
100
AcDbEntity
  8
VERMASSUNG
100
AcDbTrace
 10
130.0512174055
 20
121.7621678167
 30
0.0
 11
130.5012174055
 21
124.7621678167
 31
0.0
 12
129.6012174055
 22
124.7621678167
 32
0.0
 13
129.6012174055
 23
124.7621678167
 33
0.0
  0
LINE
  5
18F
330
18A
100
AcDbEntity
  8
VERMASSUNG
100
AcDbLine
 10
170.3512174055
 20
171.7621678167
 30
0.0
 11
129.0512174055
 21
171.7621678167
 31
0.0
  0
LINE
  5
190
330
18A
100
AcDbEntity
  8
VERMASSUNG
100
AcDbLine
 10
170.3512174055
 20
121.7621678167
 30
0.0
 11
129.0512174055
 21
121.7621678167
 31
0.0
  0
LINE
  5
191
330
18A
100
AcDbEntity
  8
VERMASSUNG
100
AcDbLine
 10
130.0512174055
 20
171.7621678167
 30
0.0
 11
130.0512174055
 21
121.7621678167
 31
0.0
  0
MTEXT
  5
192
330
18A
100
AcDbEntity
  8
VERMASSUNG
100
AcDbMText
 10
127.2730819165
 20
140.3571677074
 30
4.6
 40
2.0
 41
0.0
 71
     1
 72
     1
  1
PSC
  7
SLDTEXTSTYLE0
 11
-7.044195017643634E-15
 21
1.0
 31
0.0
 73
     1
 44
1.0
  0
MTEXT
  5
193
330
18A
100
AcDbEntity
  8
VERMASSUNG
100
AcDbMText
 10
127.473081926
 20
144.9571678095
 30
4.6
 40
2.0
 41
0.0
 71
     1
 72
     1
  1
%%c
  7
SLDTEXTSTYLE0
 11
-7.044195017643634E-15
 21
1.0
 31
0.0
 73
     1
 44
1.0
  0
MTEXT
  5
194
330
18A
100
AcDbEntity
  8
VERMASSUNG
100
AcDbMText
 10
127.2730819165
 20
148.5671682895
 30
4.6
 40
2.0
 41
0.0
 71
     1
 72
     1
  1
50
  7
SLDTEXTSTYLE0
 11
-7.044195017643634E-15
 21
1.0
 31
0.0
 73
     1
 44
1.0
  0
ENDBLK
  5
18C
330
18A
100
AcDbEntity
  8
0
100
AcDbBlockEnd
  0
BLOCK
  5
1D2
330
1D1
100
AcDbEntity
  8
0
100
AcDbBlockBegin
  2
_D_4
 70
     0
 10
0.0
 20
0.0
 30
0.0
  3
_D_4
  1

  0
SOLID
  5
1D4
330
1D1
100
AcDbEntity
  8
VERMASSUNG
100
AcDbTrace
 10
22.1521911991
 20
198.7621678167
 30
0.0
 11
25.1521911991
 21
198.3121678167
 31
0.0
 12
25.1521911991
 22
199.2121678167
 32
0.0
 13
25.1521911991
 23
199.2121678167
 33
0.0
  0
SOLID
  5
1D5
330
1D1
100
AcDbEntity
  8
VERMASSUNG
100
AcDbTrace
 10
83.1521911991
 20
198.7621678167
 30
0.0
 11
80.1521911991
 21
199.2121678167
 31
0.0
 12
80.1521911991
 22
198.3121678167
 32
0.0
 13
80.1521911991
 23
198.3121678167
 33
0.0
  0
LINE
  5
1D6
330
1D1
100
AcDbEntity
  8
VERMASSUNG
100
AcDbLine
 10
22.1521911991
 20
174.7621678167
 30
0.0
 11
22.1521911991
 21
199.7621678167
 31
0.0
  0
LINE
  5
1D7
330
1D1
100
AcDbEntity
  8
VERMASSUNG
100
AcDbLine
 10
83.1521911991
 20
166.1270845477
 30
0.0
 11
83.1521911991
 21
199.7621678167
 31
0.0
  0
LINE
  5
1D8
330
1D1
100
AcDbEntity
  8
VERMASSUNG
100
AcDbLine
 10
22.1521911991
 20
198.7621678167
 30
0.0
 11
83.1521911991
 21
198.7621678167
 31
0.0
  0
MTEXT
  5
1D9
330
1D1
100
AcDbEntity
  8
VERMASSUNG
100
AcDbMText
 10
50.5521910412
 20
201.3403031798
 30
-33.9
 40
2.0
 41
0.0
 71
     1
 72
     1
  1
61
  7
SLDTEXTSTYLE0
 73
     1
 44
1.0
  0
ENDBLK
  5
1D3
330
1D1
100
AcDbEntity
  8
0
100
AcDbBlockEnd
  0
BLOCK
  5
1DC
330
1DB
100
AcDbEntity
  8
0
100
AcDbBlockBegin
  2
_D_5
 70
     0
 10
0.0
 20
0.0
 30
0.0
  3
_D_5
  1

  0
SOLID
  5
1DE
330
1DB
100
AcDbEntity
  8
VERMASSUNG
100
AcDbTrace
 10
96.1199170023
 20
156.7621678167
 30
0.0
 11
96.5699170023
 21
159.7621678167
 31
0.0
 12
95.6699170023
 22
159.7621678167
 32
0.0
 13
95.6699170023
 23
159.7621678167
 33
0.0
  0
SOLID
  5
1DF
330
1DB
100
AcDbEntity
  8
VERMASSUNG
100
AcDbTrace
 10
96.1199170023
 20
176.7621678167
 30
0.0
 11
95.6699170023
 21
173.7621678167
 31
0.0
 12
96.5699170023
 22
173.7621678167
 32
0.0
 13
96.5699170023
 23
173.7621678167
 33
0.0
  0
LINE
  5
1E0
330
1DB
100
AcDbEntity
  8
VERMASSUNG
100
AcDbLine
 10
72.4021911991
 20
156.7621678167
 30
0.0
 11
97.1199170023
 21
156.7621678167
 31
0.0
  0
LINE
  5
1E1
330
1DB
100
AcDbEntity
  8
VERMASSUNG
100
AcDbLine
 10
74.6097043098
 20
176.7621678167
 30
0.0
 11
97.1199170023
 21
176.7621678167
 31
0.0
  0
LINE
  5
1E2
330
1DB
100
AcDbEntity
  8
VERMASSUNG
100
AcDbLine
 10
96.1199170023
 20
156.7621678167
 30
0.0
 11
96.1199170023
 21
176.7621678167
 31
0.0
  0
MTEXT
  5
1E3
330
1DB
100
AcDbEntity
  8
VERMASSUNG
100
AcDbMText
 10
93.5417816391
 20
164.4621677656
 30
-33.9
 40
2.0
 41
0.0
 71
     1
 72
     1
  1
20
  7
SLDTEXTSTYLE0
 11
-1.608122649676637E-16
 21
1.0
 31
0.0
 73
     1
 44
1.0
  0
ENDBLK
  5
1DD
330
1DB
100
AcDbEntity
  8
0
100
AcDbBlockEnd
  0
BLOCK
  5
1E6
330
1E5
100
AcDbEntity
  8
0
100
AcDbBlockBegin
  2
_D_6
 70
     0
 10
0.0
 20
0.0
 30
0.0
  3
_D_6
  1

  0
SOLID
  5
1E8
330
1E5
100
AcDbEntity
  8
VERMASSUNG
100
AcDbTrace
 10
48.1521911991
 20
185.1327695516
 30
0.0
 11
51.1521911991
 21
184.6827695516
 31
0.0
 12
51.1521911991
 22
185.5827695516
 32
0.0
 13
51.1521911991
 23
185.5827695516
 33
0.0
  0
SOLID
  5
1E9
330
1E5
100
AcDbEntity
  8
VERMASSUNG
100
AcDbTrace
 10
68.1521911991
 20
185.1327695516
 30
0.0
 11
65.1521911991
 21
185.5827695516
 31
0.0
 12
65.1521911991
 22
184.6827695516
 32
0.0
 13
65.1521911991
 23
184.6827695516
 33
0.0
  0
LINE
  5
1EA
330
1E5
100
AcDbEntity
  8
VERMASSUNG
100
AcDbLine
 10
68.1521911991
 20
176.7621678167
 30
0.0
 11
68.1521911991
 21
186.1327695516
 31
0.0
  0
LINE
  5
1EB
330
1E5
100
AcDbEntity
  8
VERMASSUNG
100
AcDbLine
 10
48.1521911991
 20
185.1327695516
 30
0.0
 11
68.1521911991
 21
185.1327695516
 31
0.0
  0
MTEXT
  5
1EC
330
1E5
100
AcDbEntity
  8
VERMASSUNG
100
AcDbMText
 10
55.8521911481
 20
187.7109049147
 30
-33.9
 40
2.0
 41
0.0
 71
     1
 72
     1
  1
20
  7
SLDTEXTSTYLE0
 73
     1
 44
1.0
  0
ENDBLK
  5
1E7
330
1E5
100
AcDbEntity
  8
0
100
AcDbBlockEnd
  0
BLOCK
  5
1F0
330
1EF
100
AcDbEntity
  8
0
100
AcDbBlockBegin
  2
_D_7
 70
     0
 10
0.0
 20
0.0
 30
0.0
  3
_D_7
  1

  0
SOLID
  5
1F2
330
1EF
100
AcDbEntity
  8
VERMASSUNG
100
AcDbTrace
 10
47.1521911991
 20
185.0133869829
 30
0.0
 11
44.1521911991
 21
185.4633869829
 31
0.0
 12
44.1521911991
 22
184.5633869829
 32
0.0
 13
44.1521911991
 23
184.5633869829
 33
0.0
  0
SOLID
  5
1F3
330
1EF
100
AcDbEntity
  8
VERMASSUNG
100
AcDbTrace
 10
48.1521911991
 20
185.0133869829
 30
0.0
 11
51.1521911991
 21
184.5633869829
 31
0.0
 12
51.1521911991
 22
185.4633869829
 32
0.0
 13
51.1521911991
 23
185.4633869829
 33
0.0
  0
LINE
  5
1F4
330
1EF
100
AcDbEntity
  8
VERMASSUNG
100
AcDbLine
 10
47.1521911991
 20
176.7621678167
 30
0.0
 11
47.1521911991
 21
186.0133869829
 31
0.0
  0
LINE
  5
1F5
330
1EF
100
AcDbEntity
  8
VERMASSUNG
100
AcDbLine
 10
47.1521911991
 20
185.0133869829
 30
0.0
 11
39.3264050604
 21
185.0133869829
 31
0.0
  0
LINE
  5
1F6
330
1EF
100
AcDbEntity
  8
VERMASSUNG
100
AcDbLine
 10
47.1521911991
 20
185.0133869829
 30
0.0
 11
48.1521911991
 21
185.0133869829
 31
0.0
  0
LINE
  5
1F7
330
1EF
100
AcDbEntity
  8
VERMASSUNG
100
AcDbLine
 10
48.1521911991
 20
185.0133869829
 30
0.0
 11
54.1521911991
 21
185.0133869829
 31
0.0
  0
MTEXT
  5
1F8
330
1EF
100
AcDbEntity
  8
VERMASSUNG
100
AcDbMText
 10
39.3264050604
 20
187.5915223461
 30
-33.9
 40
2.0
 41
0.0
 71
     1
 72
     1
  1
1
  7
SLDTEXTSTYLE0
 73
     1
 44
1.0
  0
ENDBLK
  5
1F1
330
1EF
100
AcDbEntity
  8
0
100
AcDbBlockEnd
  0
BLOCK
  5
1FB
330
1FA
100
AcDbEntity
  8
0
100
AcDbBlockBegin
  2
_D_8
 70
     0
 10
0.0
 20
0.0
 30
0.0
  3
_D_8
  1

  0
SOLID
  5
1FD
330
1FA
100
AcDbEntity
  8
VERMASSUNG
100
AcDbTrace
 10
48.1521911991
 20
191.3299441161
 30
0.0
 11
51.1521911991
 21
190.8799441161
 31
0.0
 12
51.1521911991
 22
191.7799441161
 32
0.0
 13
51.1521911991
 23
191.7799441161
 33
0.0
  0
SOLID
  5
1FE
330
1FA
100
AcDbEntity
  8
VERMASSUNG
100
AcDbTrace
 10
83.1521911991
 20
191.3299441161
 30
0.0
 11
80.1521911991
 21
191.7799441161
 31
0.0
 12
80.1521911991
 22
190.8799441161
 32
0.0
 13
80.1521911991
 23
190.8799441161
 33
0.0
  0
LINE
  5
1FF
330
1FA
100
AcDbEntity
  8
VERMASSUNG
100
AcDbLine
 10
48.1521911991
 20
189.2621678167
 30
0.0
 11
48.1521911991
 21
192.3299441161
 31
0.0
  0
LINE
  5
200
330
1FA
100
AcDbEntity
  8
VERMASSUNG
100
AcDbLine
 10
83.1521911991
 20
166.1270845477
 30
0.0
 11
83.1521911991
 21
192.3299441161
 31
0.0
  0
LINE
  5
201
330
1FA
100
AcDbEntity
  8
VERMASSUNG
100
AcDbLine
 10
48.1521911991
 20
191.3299441161
 30
0.0
 11
83.1521911991
 21
191.3299441161
 31
0.0
  0
MTEXT
  5
202
330
1FA
100
AcDbEntity
  8
VERMASSUNG
100
AcDbMText
 10
63.3521911481
 20
193.9080794792
 30
-33.9
 40
2.0
 41
0.0
 71
     1
 72
     1
  1
35
  7
SLDTEXTSTYLE0
 73
     1
 44
1.0
  0
ENDBLK
  5
1FC
330
1FA
100
AcDbEntity
  8
0
100
AcDbBlockEnd
  0
BLOCK
  5
205
330
204
100
AcDbEntity
  8
0
100
AcDbBlockBegin
  2
_D_9
 70
     0
 10
0.0
 20
0.0
 30
0.0
  3
_D_9
  1

  0
SOLID
  5
207
330
204
100
AcDbEntity
  8
VERMASSUNG
100
AcDbTrace
 10
103.3315217275
 20
146.7621678167
 30
0.0
 11
103.7815217275
 21
149.7621678167
 31
0.0
 12
102.8815217275
 22
149.7621678167
 32
0.0
 13
102.8815217275
 23
149.7621678167
 33
0.0
  0
SOLID
  5
208
330
204
100
AcDbEntity
  8
VERMASSUNG
100
AcDbTrace
 10
103.3315217275
 20
176.7621678167
 30
0.0
 11
102.8815217275
 21
173.7621678167
 31
0.0
 12
103.7815217275
 22
173.7621678167
 32
0.0
 13
103.7815217275
 23
173.7621678167
 33
0.0
  0
LINE
  5
209
330
204
100
AcDbEntity
  8
VERMASSUNG
100
AcDbLine
 10
90.6521911991
 20
146.7621678167
 30
0.0
 11
104.3315217275
 21
146.7621678167
 31
0.0
  0
LINE
  5
20A
330
204
100
AcDbEntity
  8
VERMASSUNG
100
AcDbLine
 10
74.6097043098
 20
176.7621678167
 30
0.0
 11
104.3315217275
 21
176.7621678167
 31
0.0
  0
LINE
  5
20B
330
204
100
AcDbEntity
  8
VERMASSUNG
100
AcDbLine
 10
103.3315217275
 20
146.7621678167
 30
0.0
 11
103.3315217275
 21
176.7621678167
 31
0.0
  0
MTEXT
  5
20C
330
204
100
AcDbEntity
  8
VERMASSUNG
100
AcDbMText
 10
100.7533863644
 20
159.4621677656
 30
-33.9
 40
2.0
 41
0.0
 71
     1
 72
     1
  1
30
  7
SLDTEXTSTYLE0
 11
6.123233995736766E-17
 21
1.0
 31
0.0
 73
     1
 44
1.0
  0
ENDBLK
  5
206
330
204
100
AcDbEntity
  8
0
100
AcDbBlockEnd
  0
BLOCK
  5
20F
330
20E
100
AcDbEntity
  8
0
100
AcDbBlockBegin
  2
_D_10
 70
     0
 10
0.0
 20
0.0
 30
0.0
  3
_D_10
  1

  0
SOLID
  5
211
330
20E
100
AcDbEntity
  8
VERMASSUNG
100
AcDbTrace
 10
109.2279487692
 20
176.7621678167
 30
0.0
 11
108.7779487692
 21
173.7621678167
 31
0.0
 12
109.6779487692
 22
173.7621678167
 32
0.0
 13
109.6779487692
 23
173.7621678167
 33
0.0
  0
SOLID
  5
212
330
20E
100
AcDbEntity
  8
VERMASSUNG
100
AcDbTrace
 10
109.2279487692
 20
120.7621678167
 30
0.0
 11
109.6779487692
 21
123.7621678167
 31
0.0
 12
108.7779487692
 22
123.7621678167
 32
0.0
 13
108.7779487692
 23
123.7621678167
 33
0.0
  0
LINE
  5
213
330
20E
100
AcDbEntity
  8
VERMASSUNG
100
AcDbLine
 10
74.6097043098
 20
176.7621678167
 30
0.0
 11
110.2279487692
 21
176.7621678167
 31
0.0
  0
LINE
  5
214
330
20E
100
AcDbEntity
  8
VERMASSUNG
100
AcDbLine
 10
68.1521911991
 20
120.7621678167
 30
0.0
 11
110.2279487692
 21
120.7621678167
 31
0.0
  0
LINE
  5
215
330
20E
100
AcDbEntity
  8
VERMASSUNG
100
AcDbLine
 10
109.2279487692
 20
176.7621678167
 30
0.0
 11
109.2279487692
 21
120.7621678167
 31
0.0
  0
MTEXT
  5
216
330
20E
100
AcDbEntity
  8
VERMASSUNG
100
AcDbMText
 10
106.6498134061
 20
146.4621677656
 30
-33.9
 40
2.0
 41
0.0
 71
     1
 72
     1
  1
56
  7
SLDTEXTSTYLE0
 11
-7.044195017643634E-15
 21
1.0
 31
0.0
 73
     1
 44
1.0
  0
ENDBLK
  5
210
330
20E
100
AcDbEntity
  8
0
100
AcDbBlockEnd
  0
BLOCK
  5
21A
330
219
100
AcDbEntity
  8
0
100
AcDbBlockBegin
  2
_D_11
 70
     0
 10
0.0
 20
0.0
 30
0.0
  3
_D_11
  1

  0
SOLID
  5
21C
330
219
100
AcDbEntity
  8
VERMASSUNG
100
AcDbTrace
 10
78.5335537472
 20
172.7808689703
 30
0.0
 11
81.1048663263
 21
174.3904812281
 31
0.0
 12
80.5194455504
 22
175.0740618855
 32
0.0
 13
80.5194455504
 23
175.0740618855
 33
0.0
  0
LINE
  5
21D
330
219
100
AcDbEntity
  8
VERMASSUNG
100
AcDbLine
 10
78.5335537472
 20
172.7808689703
 30
0.0
 11
90.1812233288
 21
182.7559724074
 31
0.0
  0
LINE
  5
21E
330
219
100
AcDbEntity
  8
VERMASSUNG
100
AcDbLine
 10
78.5335537472
 20
172.7808689703
 30
0.0
 11
48.1521911991
 21
146.7621678167
 31
0.0
  0
MTEXT
  5
21F
330
219
100
AcDbEntity
  8
VERMASSUNG
100
AcDbMText
 10
83.6440305662
 20
180.5502055457
 30
-33.9
 40
2.0
 41
0.0
 71
     1
 72
     1
  1
R40
  7
SLDTEXTSTYLE0
 11
0.7595340637024858
 21
0.650467528840286
 31
0.0
 73
     1
 44
1.0
  0
ENDBLK
  5
21B
330
219
100
AcDbEntity
  8
0
100
AcDbBlockEnd
  0
BLOCK
  5
221
330
220
100
AcDbEntity
  8
0
100
AcDbBlockBegin
  2
SW_CENTERMARKSYMBOL_0
 70
     0
 10
0.0
 20
0.0
 30
0.0
  3
SW_CENTERMARKSYMBOL_0
  1

  0
LINE
  5
223
330
220
100
AcDbEntity
  8
VERMASSUNG
 62
     0
100
AcDbLine
 10
0.0
 20
0.0
 30
0.0
 11
0.0
 21
2.5
 31
0.0
  0
LINE
  5
224
330
220
100
AcDbEntity
  8
VERMASSUNG
 62
     0
100
AcDbLine
 10
0.0
 20
0.0
 30
0.0
 11
-2.5
 21
0.0
 31
0.0
  0
LINE
  5
225
330
220
100
AcDbEntity
  8
VERMASSUNG
 62
     0
100
AcDbLine
 10
0.0
 20
0.0
 30
0.0
 11
0.0
 21
-2.5
 31
0.0
  0
LINE
  5
226
330
220
100
AcDbEntity
  8
VERMASSUNG
 62
     0
100
AcDbLine
 10
0.0
 20
0.0
 30
0.0
 11
2.5
 21
0.0
 31
0.0
  0
LINE
  5
227
330
220
100
AcDbEntity
  8
VERMASSUNG
 62
     0
100
AcDbLine
 10
0.0
 20
5.0
 30
0.0
 11
0.0
 21
42.5
 31
0.0
  0
LINE
  5
228
330
220
100
AcDbEntity
  8
VERMASSUNG
 62
     0
100
AcDbLine
 10
-5.0
 20
0.0
 30
0.0
 11
-42.5
 21
0.0
 31
0.0
  0
LINE
  5
229
330
220
100
AcDbEntity
  8
VERMASSUNG
 62
     0
100
AcDbLine
 10
0.0
 20
-5.0
 30
0.0
 11
0.0
 21
-42.5
 31
0.0
  0
LINE
  5
22A
330
220
100
AcDbEntity
  8
VERMASSUNG
 62
     0
100
AcDbLine
 10
5.0
 20
0.0
 30
0.0
 11
42.5
 21
0.0
 31
0.0
  0
ENDBLK
  5
222
330
220
100
AcDbEntity
  8
0
100
AcDbBlockEnd
  0
BLOCK
  5
2AD
330
2AC
100
AcDbEntity
  8
0
100
AcDbBlockBegin
  2
_D_12
 70
     0
 10
0.0
 20
0.0
 30
0.0
  3
_D_12
  1

  0
SOLID
  5
2AF
330
2AC
100
AcDbEntity
  8
VERMASSUNG
100
AcDbTrace
 10
193.0512174055
 20
33.4215062069
 30
0.0
 11
196.0512174055
 21
32.9715062069
 31
0.0
 12
196.0512174055
 22
33.8715062069
 32
0.0
 13
196.0512174055
 23
33.8715062069
 33
0.0
  0
SOLID
  5
2B0
330
2AC
100
AcDbEntity
  8
VERMASSUNG
100
AcDbTrace
 10
268.0512174055
 20
33.4215062069
 30
0.0
 11
265.0512174055
 21
33.8715062069
 31
0.0
 12
265.0512174055
 22
32.9715062069
 32
0.0
 13
265.0512174055
 23
32.9715062069
 33
0.0
  0
LINE
  5
2B1
330
2AC
100
AcDbEntity
  8
VERMASSUNG
100
AcDbLine
 10
193.0512174055
 20
74.4215062069
 30
0.0
 11
193.0512174055
 21
32.4215062069
 31
0.0
  0
LINE
  5
2B2
330
2AC
100
AcDbEntity
  8
VERMASSUNG
100
AcDbLine
 10
268.0512174055
 20
95.4215062069
 30
0.0
 11
268.0512174055
 21
32.4215062069
 31
0.0
  0
LINE
  5
2B3
330
2AC
100
AcDbEntity
  8
VERMASSUNG
100
AcDbLine
 10
193.0512174055
 20
33.4215062069
 30
0.0
 11
268.0512174055
 21
33.4215062069
 31
0.0
  0
MTEXT
  5
2B4
330
2AC
100
AcDbEntity
  8
VERMASSUNG
100
AcDbMText
 10
228.2512173545
 20
35.99964157
 30
-1.9
 40
2.0
 41
0.0
 71
     1
 72
     1
  1
75
  7
SLDTEXTSTYLE0
 73
     1
 44
1.0
  0
ENDBLK
  5
2AE
330
2AC
100
AcDbEntity
  8
0
100
AcDbBlockEnd
  0
ENDSEC
  0
SECTION
  2
ENTITIES
  0
MTEXT
  5
49
330
1F
100
AcDbEntity
  8
KOPF_DÜNN
100
AcDbMText
 10
13.8892156294
 20
23.8442973028
 30
0.0
 40
3.0
 41
0.0
 71
     1
 72
     1
  1
PS5.V20.R11.098
  7
SLDTEXTSTYLE0
 73
     1
 44
1.0
  0
MTEXT
  5
4A
330
1F
100
AcDbEntity
  8
VERMASSUNG
100
AcDbMText
 10
13.9329988022
 20
28.8834360957
 30
0.0
 40
3.0
 41
0.0
 71
     1
 72
     1
  1
Werkzeughalter axial rechts_Tool holder axial right
  7
SLDTEXTSTYLE0
 73
     1
 44
1.0
  0
MTEXT
  5
4B
330
1F
100
AcDbEntity
  8
VERMASSUNG
100
AcDbMText
 10
98.8601118557
 20
13.8365368179
 30
0.0
 40
2.0
 41
0.0
 71
     1
 72
     1
  1
Datum: 08.05.2012
  7
SLDTEXTSTYLE0
 73
     1
 44
1.0
  0
MTEXT
  5
4C
330
1F
100
AcDbEntity
  8
VERMASSUNG
100
AcDbMText
 10
13.933048693
 20
18.0482802738
 30
0.0
 40
2.0
 41
0.0
 71
     1
 72
     1
  1
PSC ø50 / 20x20
  7
SLDTEXTSTYLE0
 73
     1
 44
1.0
  0
MTEXT
  5
4D
330
1F
100
AcDbEntity
  8
VERMASSUNG
100
AcDbMText
 10
13.9808475933
 20
13.9090973692
 30
0.0
 40
2.0
 41
0.0
 71
     1
 72
     1
  1
Gewicht: 1717g
  7
SLDTEXTSTYLE0
 73
     1
 44
1.0
  0
ARC
  5
4E
330
1F
100
AcDbEntity
  8
0
  6
Continuous
 62
     7
370
    15
100
AcDbCircle
 10
256.0512174055
 20
151.7621678167
 30
0.0
 40
5.000000000000022
100
AcDbArc
 50
44.7464248226
 51
66.4218215218
  0
ARC
  5
4F
330
1F
100
AcDbEntity
  8
0
  6
Continuous
 62
     7
370
    15
100
AcDbCircle
 10
256.0512174055
 20
151.7621678167
 30
0.0
 40
5.000000000000025
100
AcDbArc
 50
293.5781784782
 51
324.396505774
  0
ARC
  5
50
330
1F
100
AcDbEntity
  8
0
  6
Continuous
 62
     7
370
    15
100
AcDbCircle
 10
190.0512174055
 20
120.7621678167
 30
0.0
 40
1.0
100
AcDbArc
 50
0.0
 51
90.0
  0
ARC
  5
51
330
1F
100
AcDbEntity
  8
0
  6
Continuous
 62
     7
370
    15
100
AcDbCircle
 10
190.0512174055
 20
172.7621678167
 30
0.0
 40
1.0
100
AcDbArc
 50
270.0
 51
0.0
  0
LINE
  5
52
330
1F
100
AcDbEntity
  8
0
  6
Continuous
 62
     7
370
    15
100
AcDbLine
 10
170.3512174055
 20
121.7621678167
 30
0.0
 11
190.0512174055
 21
121.7621678167
 31
0.0
  0
LINE
  5
53
330
1F
100
AcDbEntity
  8
0
  6
Continuous
 62
     7
370
    15
100
AcDbLine
 10
190.0512174055
 20
171.7621678167
 30
0.0
 11
170.3512174055
 21
171.7621678167
 31
0.0
  0
ARC
  5
54
330
1F
100
AcDbEntity
  8
0
  6
Continuous
 62
     7
370
    15
100
AcDbCircle
 10
170.3512174055
 20
122.0621678167
 30
0.0
 40
0.2999999999999972
100
AcDbArc
 50
180.0
 51
270.0
  0
ARC
  5
55
330
1F
100
AcDbEntity
  8
0
  6
Continuous
 62
     7
370
    15
100
AcDbCircle
 10
170.3512174055
 20
171.4621678167
 30
0.0
 40
0.2999999999999829
100
AcDbArc
 50
90.0
 51
180.0
  0
LWPOLYLINE
  5
56
330
1F
100
AcDbEntity
  8
0
  6
Continuous
 62
     7
370
    15
100
AcDbPolyline
 90
        3
 70
   128
 43
0.0
 10
169.8512174055
 20
128.9223475378
 10
169.976672349
 20
128.8540454228
 10
170.0512174055
 20
128.8013076647
  0
LWPOLYLINE
  5
57
330
1F
100
AcDbEntity
  8
0
  6
Continuous
 62
     7
370
    15
100
AcDbPolyline
 90
        3
 70
   128
 43
0.0
 10
170.0512174055
 20
164.7230279686
 10
169.976672349
 20
164.6702902105
 10
169.8512174055
 20
164.6019880955
  0
LWPOLYLINE
  5
58
330
1F
100
AcDbEntity
  8
0
  6
Continuous
 62
     7
370
    15
100
AcDbPolyline
 90
       29
 70
   128
 43
0.0
 10
259.7697973878
 20
149.7181180175
 10
259.6770567486
 20
150.2742875845
 10
259.5913965933
 20
150.9201691471
 10
259.5171122798
 20
151.6233755069
 10
259.4579287338
 20
152.3486449606
 10
259.4168136654
 20
153.0596094694
 10
259.3958287557
 20
153.7206183041
 10
259.3960262759
 20
154.2985257216
 10
259.4173963214
 20
154.7643530307
 10
259.4588673089
 20
155.0947417052
 10
259.5183597099
 20
155.2731246773
 10
259.592890327
 20
155.29055708
 10
259.6787218838
 20
155.1461647796
 10
259.7715504278
 20
154.8471882092
 10
259.8667211481
 20
154.4086193024
 10
259.9594617873
 20
153.8524497355
 10
260.0451219426
 20
153.2065681729
 10
260.1194062561
 20
152.5033618131
 10
260.1785898021
 20
151.7780923593
 10
260.2197048705
 20
151.0671278505
 10
260.2406897801
 20
150.4061190159
 10
260.24049226
 20
149.8282115984
 10
260.2191222145
 20
149.3623842892
 10
260.177651227
 20
149.0319956147
 10
260.118158826
 20
148.8536126426
 10
260.0436282089
 20
148.83618024
 10
259.957796652
 20
148.9805725403
 10
259.8649681081
 20
149.2795491107
 10
259.7697973878
 20
149.7181180175
  0
LWPOLYLINE
  5
59
330
1F
100
AcDbEntity
  8
0
  6
Continuous
 62
     7
370
    15
100
AcDbPolyline
 90
       26
 70
   128
 43
0.0
 10
259.7809808986
 20
150.2593297043
 10
259.7013789324
 20
150.7435922573
 10
259.6291209875
 20
151.3107812156
 10
259.5687472964
 20
151.9252580108
 10
259.5240513601
 20
152.548412806
 10
259.4978415887
 20
153.1410904936
 10
259.4917648385
 20
153.6660509549
 10
259.506202934
 20
154.0903089933
 10
259.5402486767
 20
154.3872069161
 10
259.5917628472
 20
154.5380895347
 10
259.6575086209
 20
154.5334763393
 10
259.7333549489
 20
154.3736571941
 10
259.8145361276
 20
154.0686741236
 10
259.8959512448
 20
153.6376903358
 10
259.9724846894
 20
153.1077861272
 10
260.0393275836
 20
152.512257328
 10
260.0922799425
 20
151.8885232029
 10
260.1280145746
 20
151.2757752609
 10
260.1442861416
 20
150.7125147088
 10
260.140072241
 20
150.2341332785
 10
260.1156376479
 20
149.8706894346
 10
260.0725176774
 20
149.6450196907
 10
260.013421716
 20
149.5713037065
 10
259.9420629802
 20
149.6541733285
 10
259.8629252019
 20
149.8884215536
 10
259.7809808986
 20
150.2593297043
  0
ARC
  5
5A
330
1F
100
AcDbEntity
  8
0
  6
Continuous
 62
     7
370
    15
100
AcDbCircle
 10
242.1314676597
 20
150.6491883183
 30
0.0
 40
17.56532049997154
100
AcDbArc
 50
0.4234141574
 51
8.7195164392
  0
CIRCLE
  5
5B
330
1F
100
AcDbEntity
  8
0
  6
Continuous
 62
     7
370
    15
100
AcDbCircle
 10
250.0512174055
 20
166.7621678167
 30
0.0
 40
4.171999999999993
  0
LINE
  5
5C
330
1F
100
AcDbEntity
  8
0
  6
Continuous
 62
     7
370
    15
100
AcDbLine
 10
248.3348671398
 20
169.0832613302
 30
0.0
 11
251.2031682199
 21
169.4091175053
 31
0.0
  0
LINE
  5
5D
330
1F
100
AcDbEntity
  8
0
  6
Continuous
 62
     7
370
    15
100
AcDbLine
 10
247.1829163253
 20
166.4363116415
 30
0.0
 11
248.8992665911
 21
164.115218128
 31
0.0
  0
LINE
  5
5E
330
1F
100
AcDbEntity
  8
0
  6
Continuous
 62
     7
370
    15
100
AcDbLine
 10
252.9195184857
 20
167.0880239918
 30
0.0
 11
251.2031682199
 21
169.4091175053
 31
0.0
  0
LINE
  5
5F
330
1F
100
AcDbEntity
  8
0
  6
Continuous
 62
     7
370
    15
100
AcDbLine
 10
247.1829163253
 20
166.4363116415
 30
0.0
 11
248.3348671398
 21
169.0832613302
 31
0.0
  0
LINE
  5
60
330
1F
100
AcDbEntity
  8
0
  6
Continuous
 62
     7
370
    15
100
AcDbLine
 10
251.7675676712
 20
164.4410743031
 30
0.0
 11
248.8992665911
 21
164.115218128
 31
0.0
  0
LINE
  5
61
330
1F
100
AcDbEntity
  8
0
  6
Continuous
 62
     7
370
    15
100
AcDbLine
 10
251.7675676712
 20
164.4410743031
 30
0.0
 11
252.9195184857
 21
167.0880239918
 31
0.0
  0
CIRCLE
  5
62
330
1F
100
AcDbEntity
  8
0
  6
Continuous
 62
     7
370
    15
100
AcDbCircle
 10
210.0512174055
 20
166.7621678167
 30
0.0
 40
4.171999999999993
  0
LINE
  5
63
330
1F
100
AcDbEntity
  8
0
  6
Continuous
 62
     7
370
    15
100
AcDbLine
 10
212.8763345742
 20
167.3555027273
 30
0.0
 11
210.9499328843
 21
169.5054585088
 31
0.0
  0
LINE
  5
64
330
1F
100
AcDbEntity
  8
0
  6
Continuous
 62
     7
370
    15
100
AcDbLine
 10
207.2261002368
 20
166.168832906
 30
0.0
 11
208.1248157156
 21
168.9121235981
 31
0.0
  0
LINE
  5
65
330
1F
100
AcDbEntity
  8
0
  6
Continuous
 62
     7
370
    15
100
AcDbLine
 10
211.9776190955
 20
164.6122120352
 30
0.0
 11
209.1525019267
 21
164.0188771245
 31
0.0
  0
LINE
  5
66
330
1F
100
AcDbEntity
  8
0
  6
Continuous
 62
     7
370
    15
100
AcDbLine
 10
211.9776190955
 20
164.6122120352
 30
0.0
 11
212.8763345742
 21
167.3555027273
 31
0.0
  0
LINE
  5
67
330
1F
100
AcDbEntity
  8
0
  6
Continuous
 62
     7
370
    15
100
AcDbLine
 10
208.1248157156
 20
168.9121235981
 30
0.0
 11
210.9499328843
 21
169.5054585088
 31
0.0
  0
LINE
  5
68
330
1F
100
AcDbEntity
  8
0
  6
Continuous
 62
     7
370
    15
100
AcDbLine
 10
207.2261002368
 20
166.168832906
 30
0.0
 11
209.1525019267
 21
164.0188771245
 31
0.0
  0
LINE
  5
69
330
1F
100
AcDbEntity
  8
0
  6
Continuous
 62
     7
370
    15
100
AcDbLine
 10
231.9562552845
 20
168.9310763009
 30
0.0
 11
229.1254064992
 21
169.4964332572
 31
0.0
  0
LINE
  5
6A
330
1F
100
AcDbEntity
  8
0
  6
Continuous
 62
     7
370
    15
100
AcDbLine
 10
227.2203686202
 20
167.3275247729
 30
0.0
 11
229.1254064992
 21
169.4964332572
 31
0.0
  0
LINE
  5
6B
330
1F
100
AcDbEntity
  8
0
  6
Continuous
 62
     7
370
    15
100
AcDbLine
 10
228.1461795265
 20
164.5932593324
 30
0.0
 11
227.2203686202
 21
167.3275247729
 31
0.0
  0
LINE
  5
6C
330
1F
100
AcDbEntity
  8
0
  6
Continuous
 62
     7
370
    15
100
AcDbLine
 10
228.1461795265
 20
164.5932593324
 30
0.0
 11
230.9770283118
 21
164.0279023762
 31
0.0
  0
LINE
  5
6D
330
1F
100
AcDbEntity
  8
0
  6
Continuous
 62
     7
370
    15
100
AcDbLine
 10
232.8820661908
 20
166.1968108604
 30
0.0
 11
230.9770283118
 21
164.0279023762
 31
0.0
  0
LINE
  5
6E
330
1F
100
AcDbEntity
  8
0
  6
Continuous
 62
     7
370
    15
100
AcDbLine
 10
232.8820661908
 20
166.1968108604
 30
0.0
 11
231.9562552845
 21
168.9310763009
 31
0.0
  0
CIRCLE
  5
6F
330
1F
100
AcDbEntity
  8
0
  6
Continuous
 62
     7
370
    15
100
AcDbCircle
 10
230.0512174055
 20
166.7621678167
 30
0.0
 40
4.171999999999991
  0
LINE
  5
70
330
1F
100
AcDbEntity
  8
0
  6
Continuous
 62
     7
370
    15
100
AcDbLine
 10
257.0512174055
 20
141.5660153939
 30
0.0
 11
257.0512174055
 21
155.7621678167
 31
0.0
  0
LINE
  5
71
330
1F
100
AcDbEntity
  8
0
  6
Continuous
 62
     7
370
    15
100
AcDbLine
 10
246.9986585222
 20
135.7621678167
 30
0.0
 11
257.0512174055
 21
141.5660153939
 31
0.0
  0
LINE
  5
72
330
1F
100
AcDbEntity
  8
0
  6
Continuous
 62
     7
370
    15
100
AcDbLine
 10
191.0512174055
 20
135.7621678167
 30
0.0
 11
246.9986585222
 21
135.7621678167
 31
0.0
  0
LINE
  5
73
330
1F
100
AcDbEntity
  8
0
  6
Continuous
 62
     7
370
    15
100
AcDbLine
 10
195.0512174055
 20
174.7621678167
 30
0.0
 11
191.0512174055
 21
174.7621678167
 31
0.0
  0
ARC
  5
74
330
1F
100
AcDbEntity
  8
0
  6
Continuous
 62
     7
370
    15
100
AcDbCircle
 10
214.0512174055
 20
174.7621678167
 30
0.0
 40
19.00000000000003
100
AcDbArc
 50
180.0
 51
270.0
  0
LINE
  5
75
330
1F
100
AcDbEntity
  8
0
  6
Continuous
 62
     7
370
    15
100
AcDbLine
 10
257.0512174055
 20
155.7621678167
 30
0.0
 11
214.0512174055
 21
155.7621678167
 31
0.0
  0
LINE
  5
76
330
1F
100
AcDbEntity
  8
0
  6
Continuous
 62
     7
370
    15
100
AcDbLine
 10
191.0512174055
 20
146.7621678166
 30
0.0
 11
191.0512174055
 21
174.7621678167
 31
0.0
  0
LINE
  5
77
330
1F
100
AcDbEntity
  8
0
  6
Continuous
 62
     7
370
    15
100
AcDbLine
 10
191.0512174055
 20
135.7621678167
 30
0.0
 11
191.0512174055
 21
146.7621678166
 31
0.0
  0
LINE
  5
78
330
1F
100
AcDbEntity
  8
0
  6
Continuous
 62
     7
370
    15
100
AcDbLine
 10
257.0512174055
 20
155.7621678167
 30
0.0
 11
258.0512174055
 21
155.7621678167
 31
0.0
  0
LINE
  5
79
330
1F
100
AcDbEntity
  8
0
  6
Continuous
 62
     7
370
    15
100
AcDbLine
 10
258.0512174055
 20
155.7621678167
 30
0.0
 11
258.0512174055
 21
140.9886651248
 31
0.0
  0
LINE
  5
7A
330
1F
100
AcDbEntity
  8
0
  6
Continuous
 62
     7
370
    15
100
AcDbLine
 10
257.0512174055
 20
141.5660153939
 30
0.0
 11
258.0512174055
 21
140.9886651248
 31
0.0
  0
LINE
  5
7B
330
1F
100
AcDbEntity
  8
0
  6
Continuous
 62
     7
370
    15
100
AcDbLine
 10
214.0512174055
 20
156.7621678167
 30
0.0
 11
257.0512174055
 21
156.7621678167
 31
0.0
  0
LINE
  5
7C
330
1F
100
AcDbEntity
  8
0
  6
Continuous
 62
     7
370
    15
100
AcDbLine
 10
257.0512174055
 20
156.7621678167
 30
0.0
 11
257.0512174055
 21
155.7621678167
 31
0.0
  0
SPLINE
  5
7D
330
1F
100
AcDbEntity
  8
0
  6
Continuous
 62
     7
370
    15
100
AcDbSpline
210
0.0
220
0.0
230
1.0
 70
    24
 71
     3
 72
     8
 73
     4
 74
     0
 42
0.00000001
 43
0.00000001
 12
1.0
 22
0.0
 32
0.0
 13
1.0
 23
0.0
 33
0.0
 40
0.0
 40
0.0
 40
0.0
 40
0.0
 40
1.0
 40
1.0
 40
1.0
 40
1.0
 10
196.0512174055023
 20
175.7358520271822
 30
0.0
 10
196.0512174055023
 20
175.4115270116649
 30
0.0
 10
196.0512174055023
 20
175.0869662993491
 30
0.0
 10
196.0512174055023
 20
174.7621678166558
 30
0.0
  0
ARC
  5
7E
330
1F
100
AcDbEntity
  8
0
  6
Continuous
 62
     7
370
    15
100
AcDbCircle
 10
214.0512174055
 20
174.7621678167
 30
0.0
 40
18.0
100
AcDbArc
 50
180.0
 51
270.0
  0
SPLINE
  5
7F
330
1F
100
AcDbEntity
  8
0
  6
Continuous
 62
     7
370
    15
100
AcDbSpline
210
0.0
220
0.0
230
1.0
 70
     8
 71
     3
 72
     8
 73
     4
 74
     0
 42
0.00000001
 43
0.00000001
 12
1.0
 22
0.0
 32
0.0
 13
1.0
 23
0.0
 33
0.0
 40
0.0
 40
0.0
 40
0.0
 40
0.0
 40
1.0
 40
1.0
 40
1.0
 40
1.0
 10
195.0512174055023
 20
174.7621678166559
 30
0.0
 10
195.3787549994873
 20
175.0897054106408
 30
0.0
 10
195.7118795281898
 20
175.4143740381492
 30
0.0
 10
196.0512174055023
 20
175.7358520271822
 30
0.0
  0
LINE
  5
80
330
1F
100
AcDbEntity
  8
0
  6
Continuous
 62
     7
370
    15
100
AcDbLine
 10
191.0512174055
 20
176.7621678167
 30
0.0
 11
195.0512174055
 21
176.7621678167
 31
0.0
  0
LINE
  5
81
330
1F
100
AcDbEntity
  8
0
  6
Continuous
 62
     7
370
    15
100
AcDbLine
 10
196.0512174055
 20
175.7621678167
 30
0.0
 11
195.0512174055
 21
176.7621678167
 31
0.0
  0
LINE
  5
82
330
1F
100
AcDbEntity
  8
0
  6
Continuous
 62
     7
370
    15
100
AcDbLine
 10
196.0512174055
 20
175.7621678167
 30
0.0
 11
196.0512174055
 21
175.7358520272
 31
0.0
  0
LINE
  5
83
330
1F
100
AcDbEntity
  8
0
  6
Continuous
 62
     7
370
    15
100
AcDbLine
 10
191.0512174055
 20
174.7621678167
 30
0.0
 11
191.0512174055
 21
176.7621678167
 31
0.0
  0
LINE
  5
84
330
1F
100
AcDbEntity
  8
0
  6
Continuous
 62
     7
370
    15
100
AcDbLine
 10
191.0512174055
 20
120.7621678167
 30
0.0
 11
223.0178964087
 21
120.7621678167
 31
0.0
  0
LINE
  5
85
330
1F
100
AcDbEntity
  8
0
  6
Continuous
 62
     7
370
    15
100
AcDbLine
 10
247.2666077147
 20
134.7621678167
 30
0.0
 11
246.9986585222
 21
135.7621678167
 31
0.0
  0
LINE
  5
86
330
1F
100
AcDbEntity
  8
0
  6
Continuous
 62
     7
370
    15
100
AcDbLine
 10
247.2666077147
 20
134.7621678167
 30
0.0
 11
223.0178964087
 21
120.7621678167
 31
0.0
  0
LINE
  5
87
330
1F
100
AcDbEntity
  8
0
  6
Continuous
 62
     7
370
    15
100
AcDbLine
 10
191.0512174055
 20
120.7621678167
 30
0.0
 11
191.0512174055
 21
135.7621678167
 31
0.0
  0
LINE
  5
88
330
1F
100
AcDbEntity
  8
0
  6
Continuous
 62
     7
370
    15
100
AcDbLine
 10
258.0512174055
 20
140.9886651248
 30
0.0
 11
247.2666077147
 21
134.7621678167
 31
0.0
  0
LINE
  5
89
330
1F
100
AcDbEntity
  8
0
  6
Continuous
 62
     7
370
    15
100
AcDbLine
 10
257.0512174055
 20
156.7621678167
 30
0.0
 11
258.0512174055
 21
155.7621678167
 31
0.0
  0
SPLINE
  5
8A
330
1F
100
AcDbEntity
  8
0
  6
Continuous
 62
     7
370
    15
100
AcDbSpline
210
0.0
220
0.0
230
1.0
 70
     8
 71
     3
 72
    12
 73
     8
 74
     0
 42
0.00000001
 43
0.00000001
 12
1.0
 22
0.0
 32
0.0
 13
1.0
 23
0.0
 33
0.0
 40
0.0
 40
0.0
 40
0.0
 40
0.0
 40
0.2500000000000002
 40
0.2500000000000002
 40
0.5000000000000004
 40
0.5000000000000004
 40
1.0
 40
1.0
 40
1.0
 40
1.0
 10
178.5789742190688
 20
154.3309777858363
 30
0.0
 10
178.5153089825382
 20
154.3309777858363
 30
0.0
 10
178.4557027503149
 20
154.357049934316
 30
0.0
 10
178.3570422253841
 20
154.4325886851371
 30
0.0
 10
178.3180752353688
 20
154.4798396222333
 30
0.0
 10
178.2186884034444
 20
154.6316634401997
 30
0.0
 10
178.1766121560209
 20
154.7444666899648
 30
0.0
 10
178.1459615171766
 20
154.8586208146999
 30
0.0
  0
LINE
  5
8B
330
1F
100
AcDbEntity
  8
0
  6
Continuous
 62
     7
370
    15
100
AcDbLine
 10
181.5234605919
 20
154.3309777858
 30
0.0
 11
178.5789742191
 21
154.3309777858
 31
0.0
  0
SPLINE
  5
8C
330
1F
100
AcDbEntity
  8
0
  6
Continuous
 62
     7
370
    15
100
AcDbSpline
210
0.0
220
0.0
230
1.0
 70
     8
 71
     3
 72
    12
 73
     8
 74
     0
 42
0.00000001
 43
0.00000001
 12
1.0
 22
0.0
 32
0.0
 13
1.0
 23
0.0
 33
0.0
 40
0.0
 40
0.0
 40
0.0
 40
0.0
 40
0.5
 40
0.5
 40
0.75
 40
0.75
 40
1.0
 40
1.0
 40
1.0
 40
1.0
 10
181.9564732938281
 20
154.8586208146999
 30
0.0
 10
181.9257739104608
 20
154.744285147636
 30
0.0
 10
181.8844238423543
 20
154.6329317947947
 30
0.0
 10
181.7846679141348
 20
154.480195022546
 30
0.0
 10
181.7449709964021
 20
154.4323351366939
 30
0.0
 10
181.6477128447545
 20
154.3577320233444
 30
0.0
 10
181.5869366867638
 20
154.3309777858363
 30
0.0
 10
181.5234605919359
 20
154.3309777858363
 30
0.0
  0
ELLIPSE
  5
8D
330
1F
100
AcDbEntity
  8
0
  6
Continuous
 62
     7
370
    15
100
AcDbEllipse
 10
168.9949597505
 20
146.7621678167
 30
0.0
 11
11.70927234972708
 21
24.67718644093742
 31
0.0
210
0.0
220
0.0
230
1.0
 40
0.3419987131
 41
5.203068809370451
 42
6.114256032590495
  0
SPLINE
  5
8E
330
1F
100
AcDbEntity
  8
0
  6
Continuous
 62
     7
370
    15
100
AcDbSpline
210
0.0
220
0.0
230
1.0
 70
     8
 71
     3
 72
    12
 73
     8
 74
     0
 42
0.00000001
 43
0.00000001
 12
1.0
 22
0.0
 32
0.0
 13
1.0
 23
0.0
 33
0.0
 40
0.0
 40
0.0
 40
0.0
 40
0.0
 40
0.2499999999999991
 40
0.2499999999999991
 40
0.4999999999999982
 40
0.4999999999999982
 40
1.0
 40
1.0
 40
1.0
 40
1.0
 10
181.5234605919359
 20
170.5888989321578
 30
0.0
 10
181.5871258284664
 20
170.5888989321578
 30
0.0
 10
181.6467320606898
 20
170.5806341564919
 30
0.0
 10
181.7453925856206
 20
170.5564153749088
 30
0.0
 10
181.7843595756358
 20
170.5411580555996
 30
0.0
 10
181.8837464075603
 20
170.4915247013377
 30
0.0
 10
181.9258226549838
 20
170.4538849931635
 30
0.0
 10
181.9564732938281
 20
170.4148092938874
 30
0.0
  0
LINE
  5
8F
330
1F
100
AcDbEntity
  8
0
  6
Continuous
 62
     7
370
    15
100
AcDbLine
 10
178.5789742191
 20
170.5888989322
 30
0.0
 11
181.5234605919
 21
170.5888989322
 31
0.0
  0
SPLINE
  5
90
330
1F
100
AcDbEntity
  8
0
  6
Continuous
 62
     7
370
    15
100
AcDbSpline
210
0.0
220
0.0
230
1.0
 70
     8
 71
     3
 72
    12
 73
     8
 74
     0
 42
0.00000001
 43
0.00000001
 12
1.0
 22
0.0
 32
0.0
 13
1.0
 23
0.0
 33
0.0
 40
0.0
 40
0.0
 40
0.0
 40
0.0
 40
0.5000000000000018
 40
0.5000000000000018
 40
0.7500000000000009
 40
0.7500000000000009
 40
1.0
 40
1.0
 40
1.0
 40
1.0
 10
178.1459615171765
 20
170.4148092938874
 30
0.0
 10
178.1766609005439
 20
170.4539471362833
 30
0.0
 10
178.2180109686504
 20
170.4911069190088
 30
0.0
 10
178.3177668968698
 20
170.5410434246365
 30
0.0
 10
178.3574638146025
 20
170.5564962947803
 30
0.0
 10
178.4547219662501
 20
170.5804158383794
 30
0.0
 10
178.5154981242408
 20
170.5888989321578
 30
0.0
 10
178.5789742190688
 20
170.5888989321578
 30
0.0
  0
ELLIPSE
  5
91
330
1F
100
AcDbEntity
  8
0
  6
Continuous
 62
     7
370
    15
100
AcDbEllipse
 10
191.1074750605
 20
146.7621678167
 30
0.0
 11
-11.70927234972694
 21
24.67718644093745
 31
0.0
210
0.0
220
0.0
230
1.0
 40
0.3419987131
 41
0.1689292745891367
 42
1.080116497809153
  0
SPLINE
  5
92
330
1F
100
AcDbEntity
  8
0
  6
Continuous
 62
     7
370
    15
100
AcDbSpline
210
0.0
220
0.0
230
1.0
 70
     8
 71
     3
 72
    12
 73
     8
 74
     0
 42
0.00000001
 43
0.00000001
 12
1.0
 22
0.0
 32
0.0
 13
1.0
 23
0.0
 33
0.0
 40
0.0
 40
0.0
 40
0.0
 40
0.0
 40
0.2500000000000026
 40
0.2500000000000026
 40
0.5000000000000051
 40
0.5000000000000051
 40
1.0
 40
1.0
 40
1.0
 40
1.0
 10
178.5789742190688
 20
122.9354367011539
 30
0.0
 10
178.5153376648551
 20
122.9354367011539
 30
0.0
 10
178.4557575379889
 20
122.9436934720856
 30
0.0
 10
178.3571207966225
 20
122.9678955340934
 30
0.0
 10
178.3181621722422
 20
122.9831423531276
 30
0.0
 10
178.2187832327343
 20
123.0327472251877
 30
0.0
 10
178.1768253275688
 20
123.0701788733065
 30
0.0
 10
178.1459615171764
 20
123.1095263394242
 30
0.0
  0
LINE
  5
93
330
1F
100
AcDbEntity
  8
0
  6
Continuous
 62
     7
370
    15
100
AcDbLine
 10
181.5234605919
 20
122.9354367012
 30
0.0
 11
178.5789742191
 21
122.9354367012
 31
0.0
  0
SPLINE
  5
94
330
1F
100
AcDbEntity
  8
0
  6
Continuous
 62
     7
370
    15
100
AcDbSpline
210
0.0
220
0.0
230
1.0
 70
     8
 71
     3
 72
    12
 73
     8
 74
     0
 42
0.00000001
 43
0.00000001
 12
1.0
 22
0.0
 32
0.0
 13
1.0
 23
0.0
 33
0.0
 40
0.0
 40
0.0
 40
0.0
 40
0.0
 40
0.5000000000000051
 40
0.5000000000000051
 40
0.7500000000000026
 40
0.7500000000000026
 40
1.0
 40
1.0
 40
1.0
 40
1.0
 10
181.9564732938281
 20
123.1095263394242
 30
0.0
 10
181.9256215832639
 20
123.0701942990617
 30
0.0
 10
181.8837287198033
 20
123.0327825335335
 30
0.0
 10
181.7842078420101
 20
122.9831116089176
 30
0.0
 10
181.7445936772858
 20
122.9677225263097
 30
0.0
 10
181.6474906435063
 20
122.9438893106425
 30
0.0
 10
181.5869919708559
 20
122.9354367011537
 30
0.0
 10
181.523460591936
 20
122.9354367011537
 30
0.0
  0
ELLIPSE
  5
95
330
1F
100
AcDbEntity
  8
0
  6
Continuous
 62
     7
370
    15
100
AcDbEllipse
 10
168.9949597505
 20
146.7621678167
 30
0.0
 11
-11.7092723497272
 21
24.67718644093742
 31
0.0
210
0.0
220
0.0
230
1.0
 40
0.3419987131
 41
3.31052192817895
 42
4.221709151398944
  0
SPLINE
  5
96
330
1F
100
AcDbEntity
  8
0
  6
Continuous
 62
     7
370
    15
100
AcDbSpline
210
0.0
220
0.0
230
1.0
 70
     8
 71
     3
 72
    12
 73
     8
 74
     0
 42
0.00000001
 43
0.00000001
 12
1.0
 22
0.0
 32
0.0
 13
1.0
 23
0.0
 33
0.0
 40
0.0
 40
0.0
 40
0.0
 40
0.0
 40
0.2499999999999996
 40
0.2499999999999996
 40
0.4999999999999991
 40
0.4999999999999991
 40
1.0
 40
1.0
 40
1.0
 40
1.0
 10
181.5234605919359
 20
139.1933578474751
 30
0.0
 10
181.5870971461496
 20
139.1933578474751
 30
0.0
 10
181.6466772730158
 20
139.1673109444172
 30
0.0
 10
181.7453140143822
 20
139.0918237855172
 30
0.0
 10
181.7842726387624
 20
139.0446047469865
 30
0.0
 10
181.8836515782704
 20
138.892865095893
 30
0.0
 10
181.9256094834358
 20
138.7806628717088
 30
0.0
 10
181.9564732938283
 20
138.6657148186116
 30
0.0
  0
LINE
  5
97
330
1F
100
AcDbEntity
  8
0
  6
Continuous
 62
     7
370
    15
100
AcDbLine
 10
178.5789742191
 20
139.1933578475
 30
0.0
 11
181.5234605919
 21
139.1933578475
 31
0.0
  0
SPLINE
  5
98
330
1F
100
AcDbEntity
  8
0
  6
Continuous
 62
     7
370
    15
100
AcDbSpline
210
0.0
220
0.0
230
1.0
 70
     8
 71
     3
 72
    12
 73
     8
 74
     0
 42
0.00000001
 43
0.00000001
 12
1.0
 22
0.0
 32
0.0
 13
1.0
 23
0.0
 33
0.0
 40
0.0
 40
0.0
 40
0.0
 40
0.0
 40
0.5000000000000004
 40
0.5000000000000004
 40
0.7500000000000002
 40
0.7500000000000002
 40
1.0
 40
1.0
 40
1.0
 40
1.0
 10
178.1459615171765
 20
138.6657148186115
 30
0.0
 10
178.1768132277408
 20
138.7806178075483
 30
0.0
 10
178.2187060912014
 20
138.8927567035972
 30
0.0
 10
178.3182269689946
 20
139.0446989851981
 30
0.0
 10
178.3578411337189
 20
139.092363594723
 30
0.0
 10
178.4549441674984
 20
139.1666999253383
 30
0.0
 10
178.5154428401488
 20
139.1933578474755
 30
0.0
 10
178.5789742190687
 20
139.1933578474755
 30
0.0
  0
ELLIPSE
  5
99
330
1F
100
AcDbEntity
  8
0
  6
Continuous
 62
     7
370
    15
100
AcDbEllipse
 10
191.1074750605
 20
146.7621678167
 30
0.0
 11
11.70927234972711
 21
24.67718644093745
 31
0.0
210
0.0
220
0.0
230
1.0
 40
0.3419987131
 41
2.061476155780656
 42
2.972663379000678
  0
LINE
  5
9A
330
1F
100
AcDbEntity
  8
0
  6
Continuous
 62
     7
370
    15
100
AcDbLine
 10
170.0512174055
 20
122.0621678167
 30
0.0
 11
170.0512174055
 21
171.4621678165
 31
0.0
  0
LINE
  5
9B
330
1F
100
AcDbEntity
  8
0
  6
Continuous
 62
     7
370
    15
100
AcDbLine
 10
196.8512174055
 20
175.7621678167
 30
0.0
 11
196.0512174055
 21
175.7621678167
 31
0.0
  0
LINE
  5
9C
330
1F
100
AcDbEntity
  8
0
  6
Continuous
 62
     7
370
    15
100
AcDbLine
 10
257.0512174055
 20
156.7621678167
 30
0.0
 11
257.0512174055
 21
157.5621678167
 31
0.0
  0
LINE
  5
9D
330
1F
100
AcDbEntity
  8
0
  6
Continuous
 62
     7
370
    15
100
AcDbLine
 10
258.0512174055
 20
157.5621678167
 30
0.0
 11
258.0512174055
 21
155.7621678167
 31
0.0
  0
LINE
  5
9E
330
1F
100
AcDbEntity
  8
0
  6
Continuous
 62
     7
370
    15
100
AcDbLine
 10
195.0512174055
 20
176.7621678167
 30
0.0
 11
196.8512174055
 21
176.7621678167
 31
0.0
  0
LINE
  5
9F
330
1F
100
AcDbEntity
  8
0
  6
Continuous
 62
     7
370
    15
100
AcDbLine
 10
257.0512174055
 20
175.7621678167
 30
0.0
 11
257.0512174055
 21
176.7621678167
 31
0.0
  0
LINE
  5
A0
330
1F
100
AcDbEntity
  8
0
  6
Continuous
 62
     7
370
    15
100
AcDbLine
 10
258.0512174055
 20
175.7621678167
 30
0.0
 11
257.0512174055
 21
176.7621678167
 31
0.0
  0
LINE
  5
A1
330
1F
100
AcDbEntity
  8
0
  6
Continuous
 62
     7
370
    15
100
AcDbLine
 10
257.0512174055
 20
175.7621678167
 30
0.0
 11
258.0512174055
 21
175.7621678167
 31
0.0
  0
LINE
  5
A2
330
1F
100
AcDbEntity
  8
0
  6
Continuous
 62
     7
370
    15
100
AcDbLine
 10
257.0512174055
 20
157.5621678167
 30
0.0
 11
257.0512174055
 21
175.7621678167
 31
0.0
  0
LINE
  5
A3
330
1F
100
AcDbEntity
  8
0
  6
Continuous
 62
     7
370
    15
100
AcDbLine
 10
258.0512174055
 20
175.7621678167
 30
0.0
 11
258.0512174055
 21
157.5621678167
 31
0.0
  0
LINE
  5
A4
330
1F
100
AcDbEntity
  8
0
  6
Continuous
 62
     7
370
    15
100
AcDbLine
 10
257.0512174055
 20
175.7621678167
 30
0.0
 11
196.8512174055
 21
175.7621678167
 31
0.0
  0
LINE
  5
A5
330
1F
100
AcDbEntity
  8
0
  6
Continuous
 62
     7
370
    15
100
AcDbLine
 10
196.8512174055
 20
176.7621678167
 30
0.0
 11
257.0512174055
 21
176.7621678167
 31
0.0
  0
CIRCLE
  5
A6
330
1F
100
AcDbEntity
  8
0
  6
Continuous
 62
     7
370
    15
100
AcDbCircle
 10
210.0512174055
 20
166.7621678167
 30
0.0
 40
5.499999999999972
  0
CIRCLE
  5
A7
330
1F
100
AcDbEntity
  8
0
  6
Continuous
 62
     7
370
    15
100
AcDbCircle
 10
250.0512174055
 20
166.7621678167
 30
0.0
 40
5.5
  0
CIRCLE
  5
A8
330
1F
100
AcDbEntity
  8
0
  6
Continuous
 62
     7
370
    15
100
AcDbCircle
 10
230.0512174055
 20
166.7621678167
 30
0.0
 40
5.5
  0
SPLINE
  5
A9
330
1F
100
AcDbEntity
  8
0
  6
Continuous
 62
     7
370
    15
100
AcDbSpline
210
0.0
220
0.0
230
1.0
 70
     8
 71
     3
 72
    16
 73
    12
 74
     0
 42
0.00000001
 43
0.00000001
 12
1.0
 22
0.0
 32
0.0
 13
1.0
 23
0.0
 33
0.0
 40
0.0
 40
0.0
 40
0.0
 40
0.0
 40
0.2499999999999995
 40
0.2499999999999995
 40
0.499999999999999
 40
0.499999999999999
 40
0.6249999999999992
 40
0.6249999999999992
 40
0.7499999999999993
 40
0.7499999999999993
 40
1.0
 40
1.0
 40
1.0
 40
1.0
 10
169.0103563773733
 20
129.4130105354633
 30
0.0
 10
169.042084338566
 20
129.4122134186424
 30
0.0
 10
169.0767119289166
 20
129.4116223437871
 30
0.0
 10
169.1564056909802
 20
129.4106108183526
 30
0.0
 10
169.2014471509839
 20
129.4102107101778
 30
0.0
 10
169.2842998778343
 20
129.4092528382739
 30
0.0
 10
169.3142143390342
 20
129.4088711570135
 30
0.0
 10
169.3802006695921
 20
129.407794942955
 30
0.0
 10
169.4169342950539
 20
129.4070773770608
 30
0.0
 10
169.5294310146236
 20
129.4043164993792
 30
0.0
 10
169.599772362722
 20
129.4018294075076
 30
0.0
 10
169.6562405166271
 20
129.3996561291005
 30
0.0
  0
SPLINE
  5
AA
330
1F
100
AcDbEntity
  8
0
  6
Continuous
 62
     7
370
    15
100
AcDbSpline
210
0.0
220
0.0
230
1.0
 70
     8
 71
     3
 72
    14
 73
    10
 74
     0
 42
0.00000001
 43
0.00000001
 12
1.0
 22
0.0
 32
0.0
 13
1.0
 23
0.0
 33
0.0
 40
0.0
 40
0.0
 40
0.0
 40
0.0
 40
0.1250000000000003
 40
0.1250000000000003
 40
0.2500000000000007
 40
0.2500000000000007
 40
0.4999999999999994
 40
0.4999999999999994
 40
1.0
 40
1.0
 40
1.0
 40
1.0
 10
169.6562405165955
 20
129.3996561291232
 30
0.0
 10
169.6688323105402
 20
129.3991715113008
 30
0.0
 10
169.6837034188343
 20
129.3974613333685
 30
0.0
 10
169.7158875102675
 20
129.3893457846176
 30
0.0
 10
169.7314916417434
 20
129.3831299963563
 30
0.0
 10
169.7673787814554
 20
129.3649108846547
 30
0.0
 10
169.7812308227241
 20
129.3531458563211
 30
0.0
 10
169.8147205646567
 20
129.3213507199038
 30
0.0
 10
169.8253828252324
 20
129.3035572880606
 30
0.0
 10
169.8335207821274
 20
129.2871261572162
 30
0.0
  0
LINE
  5
AB
330
1F
100
AcDbEntity
  8
0
  6
Continuous
 62
     7
370
    15
100
AcDbLine
 10
169.8512174055
 20
140.7776875841
 30
0.0
 11
169.8512174055
 21
128.9223475378
 31
0.0
  0
SPLINE
  5
AC
330
1F
100
AcDbEntity
  8
0
  6
Continuous
 62
     7
370
    15
100
AcDbSpline
210
0.0
220
0.0
230
1.0
 70
     8
 71
     3
 72
    16
 73
    12
 74
     0
 42
0.00000001
 43
0.00000001
 12
1.0
 22
0.0
 32
0.0
 13
1.0
 23
0.0
 33
0.0
 40
0.0
 40
0.0
 40
0.0
 40
0.0
 40
0.5000000000000014
 40
0.5000000000000014
 40
0.7499999999999986
 40
0.7499999999999986
 40
0.8749999999999982
 40
0.8749999999999982
 40
0.9374999999999991
 40
0.9374999999999991
 40
1.0
 40
1.0
 40
1.0
 40
1.0
 10
169.8512174055023
 20
140.7776875840813
 30
0.0
 10
169.8512174055023
 20
140.8922173147802
 30
0.0
 10
169.8471601033873
 20
141.0075333899697
 30
0.0
 10
169.8215028605925
 20
141.1824564797973
 30
0.0
 10
169.8101874148504
 20
141.2422857827922
 30
0.0
 10
169.7761560475417
 20
141.3268769690404
 30
0.0
 10
169.7622770663379
 20
141.3555465551844
 30
0.0
 10
169.7263413845706
 20
141.3853543421307
 30
0.0
 10
169.7113910653078
 20
141.3916894954903
 30
0.0
 10
169.6814925525659
 20
141.3904640326201
 30
0.0
 10
169.6679596922007
 20
141.3838654465853
 30
0.0
 10
169.6562405166267
 20
141.3752177585289
 30
0.0
  0
SPLINE
  5
AD
330
1F
100
AcDbEntity
  8
0
  6
Continuous
 62
     7
370
    15
100
AcDbSpline
210
0.0
220
0.0
230
1.0
 70
     8
 71
     3
 72
    14
 73
    10
 74
     0
 42
0.00000001
 43
0.00000001
 12
1.0
 22
0.0
 32
0.0
 13
1.0
 23
0.0
 33
0.0
 40
0.0
 40
0.0
 40
0.0
 40
0.0
 40
0.25
 40
0.25
 40
0.5
 40
0.5
 40
0.75
 40
0.75
 40
1.0
 40
1.0
 40
1.0
 40
1.0
 10
169.6562405166335
 20
141.3752177585202
 30
0.0
 10
169.5997808507498
 20
141.3335556488214
 30
0.0
 10
169.5289083758876
 20
141.3027221682332
 30
0.0
 10
169.3804420180056
 20
141.3084366768464
 30
0.0
 10
169.3112468147979
 20
141.3440076042793
 30
0.0
 10
169.2015296287283
 20
141.4309515167532
 30
0.0
 10
169.1562837397963
 20
141.4833838301183
 30
0.0
 10
169.0766666088294
 20
141.5919369116368
 30
0.0
 10
169.0420639893725
 20
141.6489199978793
 30
0.0
 10
169.0103563773738
 20
141.7074860805372
 30
0.0
  0
SPLINE
  5
AE
330
1F
100
AcDbEntity
  8
0
  6
Continuous
 62
     7
370
    15
100
AcDbSpline
210
0.0
220
0.0
230
1.0
 70
     8
 71
     3
 72
    10
 73
     6
 74
     0
 42
0.00000001
 43
0.00000001
 12
1.0
 22
0.0
 32
0.0
 13
1.0
 23
0.0
 33
0.0
 40
0.0
 40
0.0
 40
0.0
 40
0.0
 40
0.5
 40
0.5
 40
1.0
 40
1.0
 40
1.0
 40
1.0
 10
168.7298970619428
 20
142.5603046721835
 30
0.0
 10
168.7607756455547
 20
142.4106761203238
 30
0.0
 10
168.7967683532781
 20
142.2641807028002
 30
0.0
 10
168.8861086047752
 20
141.9789890642595
 30
0.0
 10
168.9385669076208
 20
141.8400860385435
 30
0.0
 10
169.0103563773739
 20
141.707486080537
 30
0.0
  0
SPLINE
  5
AF
330
1F
100
AcDbEntity
  8
0
  6
Continuous
 62
     7
370
    15
100
AcDbSpline
210
0.0
220
0.0
230
1.0
 70
     8
 71
     3
 72
    10
 73
     6
 74
     0
 42
0.00000001
 43
0.00000001
 12
1.0
 22
0.0
 32
0.0
 13
1.0
 23
0.0
 33
0.0
 40
0.0
 40
0.0
 40
0.0
 40
0.0
 40
0.5
 40
0.5
 40
1.0
 40
1.0
 40
1.0
 40
1.0
 10
169.0103563773732
 20
151.8168495527734
 30
0.0
 10
168.9385669076203
 20
151.6842495947671
 30
0.0
 10
168.8861086047748
 20
151.5453465690514
 30
0.0
 10
168.7967683532779
 20
151.2601549305111
 30
0.0
 10
168.7607756455546
 20
151.1136595129877
 30
0.0
 10
168.7298970619428
 20
150.9640309611283
 30
0.0
  0
SPLINE
  5
B0
330
1F
100
AcDbEntity
  8
0
  6
Continuous
 62
     7
370
    15
100
AcDbSpline
210
0.0
220
0.0
230
1.0
 70
     8
 71
     3
 72
    14
 73
    10
 74
     0
 42
0.00000001
 43
0.00000001
 12
1.0
 22
0.0
 32
0.0
 13
1.0
 23
0.0
 33
0.0
 40
0.0
 40
0.0
 40
0.0
 40
0.0
 40
0.25
 40
0.25
 40
0.5
 40
0.5
 40
0.75
 40
0.75
 40
1.0
 40
1.0
 40
1.0
 40
1.0
 10
169.0103563773725
 20
151.8168495527723
 30
0.0
 10
169.0420650768579
 20
151.8754176440908
 30
0.0
 10
169.0766728954985
 20
151.9324119060309
 30
0.0
 10
169.1563313059878
 20
152.0410120407948
 30
0.0
 10
169.2013935758827
 20
152.0933401761734
 30
0.0
 10
169.3119754214611
 20
152.1808411875357
 30
0.0
 10
169.3796195422763
 20
152.2158866437899
 30
0.0
 10
169.5298678326735
 20
152.2216310325459
 30
0.0
 10
169.5998202309038
 20
152.1907509254959
 30
0.0
 10
169.6562405166273
 20
152.1491178747829
 30
0.0
  0
SPLINE
  5
B1
330
1F
100
AcDbEntity
  8
0
  6
Continuous
 62
     7
370
    15
100
AcDbSpline
210
0.0
220
0.0
230
1.0
 70
     8
 71
     3
 72
    16
 73
    12
 74
     0
 42
0.00000001
 43
0.00000001
 12
1.0
 22
0.0
 32
0.0
 13
1.0
 23
0.0
 33
0.0
 40
0.0
 40
0.0
 40
0.0
 40
0.0
 40
0.0625000000000001
 40
0.0625000000000001
 40
0.1250000000000003
 40
0.1250000000000003
 40
0.2500000000000027
 40
0.2500000000000027
 40
0.5000000000000041
 40
0.5000000000000041
 40
1.0
 40
1.0
 40
1.0
 40
1.0
 10
169.6562405165955
 20
152.1491178747295
 30
0.0
 10
169.6679747510424
 20
152.1404590745852
 30
0.0
 10
169.6815065065213
 20
152.1338549893499
 30
0.0
 10
169.7114939669512
 20
152.1326580221758
 30
0.0
 10
169.7264886733594
 20
152.1390797692417
 30
0.0
 10
169.7622290957542
 20
152.168796922651
 30
0.0
 10
169.7762424327554
 20
152.1976043200343
 30
0.0
 10
169.8103865215368
 20
152.2826840416602
 30
0.0
 10
169.8213584256551
 20
152.34105899093
 30
0.0
 10
169.8472039659214
 20
152.5167745157186
 30
0.0
 10
169.8512174055024
 20
152.6325695235831
 30
0.0
 10
169.8512174055024
 20
152.7466480492305
 30
0.0
  0
LINE
  5
B2
330
1F
100
AcDbEntity
  8
0
  6
Continuous
 62
     7
370
    15
100
AcDbLine
 10
169.8512174055
 20
164.6019880955
 30
0.0
 11
169.8512174055
 21
152.7466480492
 31
0.0
  0
SPLINE
  5
B3
330
1F
100
AcDbEntity
  8
0
  6
Continuous
 62
     7
370
    15
100
AcDbSpline
210
0.0
220
0.0
230
1.0
 70
     8
 71
     3
 72
    15
 73
    11
 74
     0
 42
0.00000001
 43
0.00000001
 12
1.0
 22
0.0
 32
0.0
 13
1.0
 23
0.0
 33
0.0
 40
0.0
 40
0.0
 40
0.0
 40
0.0
 40
0.1996694923082758
 40
0.601563055965657
 40
0.6942115021434024
 40
0.7879215009338449
 40
0.8400751529137067
 40
0.8923333793106527
 40
0.959241154495334
 40
1.0
 40
1.0
 40
1.0
 40
1.0
 10
169.8280514948945
 20
164.2294946665014
 30
0.0
 10
169.8249233867304
 20
164.2233622800061
 30
0.0
 10
169.8154990411043
 20
164.2048866625352
 30
0.0
 10
169.7922439441696
 20
164.177927217875
 30
0.0
 10
169.7534325146754
 20
164.1520972707371
 30
0.0
 10
169.7313880839854
 20
164.1410430755302
 30
0.0
 10
169.7085638353058
 20
164.1330243326306
 30
0.0
 10
169.6879796749028
 20
164.1279477143821
 30
0.0
 10
169.670293202
 20
164.125434645833
 30
0.0
 10
169.6600994988268
 20
164.1248868722694
 30
0.0
 10
169.656240516627
 20
164.1246795042113
 30
0.0
  0
SPLINE
  5
B4
330
1F
100
AcDbEntity
  8
0
  6
Continuous
 62
     7
370
    15
100
AcDbSpline
210
0.0
220
0.0
230
1.0
 70
     8
 71
     3
 72
    14
 73
    10
 74
     0
 42
0.00000001
 43
0.00000001
 12
1.0
 22
0.0
 32
0.0
 13
1.0
 23
0.0
 33
0.0
 40
0.0
 40
0.0
 40
0.0
 40
0.0
 40
0.2500000000000005
 40
0.2500000000000005
 40
0.500000000000001
 40
0.500000000000001
 40
0.7500000000000004
 40
0.7500000000000004
 40
1.0
 40
1.0
 40
1.0
 40
1.0
 10
169.6562405166335
 20
164.1246795042114
 30
0.0
 10
169.5997934345753
 20
164.1225070367921
 30
0.0
 10
169.5289430505324
 20
164.1200089388747
 30
0.0
 10
169.380506615716
 20
164.1163624800865
 30
0.0
 10
169.3113173640291
 20
164.1153947332352
 30
0.0
 10
169.2016058157882
 20
164.1141271738725
 30
0.0
 10
169.1563641664459
 20
164.1137243329442
 30
0.0
 10
169.076716148262
 20
164.1127132980166
 30
0.0
 10
169.042089232496
 20
164.1121223376219
 30
0.0
 10
169.0103563773746
 20
164.1113250978485
 30
0.0
  0
SPLINE
  5
B5
330
1F
100
AcDbEntity
  8
0
  6
Continuous
 62
     7
370
    15
100
AcDbSpline
210
0.0
220
0.0
230
1.0
 70
     8
 71
     3
 72
    18
 73
    14
 74
     0
 42
0.00000001
 43
0.00000001
 12
1.0
 22
0.0
 32
0.0
 13
1.0
 23
0.0
 33
0.0
 40
0.0
 40
0.0
 40
0.0
 40
0.0
 40
0.2499999999999998
 40
0.2499999999999998
 40
0.3749999999999998
 40
0.3749999999999998
 40
0.4999999999999998
 40
0.4999999999999998
 40
0.6249999999999999
 40
0.6249999999999999
 40
0.75
 40
0.75
 40
1.0
 40
1.0
 40
1.0
 40
1.0
 10
168.7298970619427
 20
150.9640309611283
 30
0.0
 10
168.5946114556404
 20
150.308476625707
 30
0.0
 10
168.4934437093974
 20
149.6288555319094
 30
0.0
 10
168.3905823665285
 20
148.5734915254154
 30
0.0
 10
168.3644795210052
 20
148.2146774608308
 30
0.0
 10
168.3295895374604
 20
147.4885645167079
 30
0.0
 10
168.3210032791704
 20
147.1264748376917
 30
0.0
 10
168.3209035696047
 20
146.4041651802734
 30
0.0
 10
168.3293919407533
 20
146.043945378165
 30
0.0
 10
168.3635353202739
 20
145.3253793090711
 30
0.0
 10
168.3893323021277
 20
144.9656135931557
 30
0.0
 10
168.4927334335156
 20
143.8989690061613
 30
0.0
 10
168.594591425687
 20
143.215956066879
 30
0.0
 10
168.7298970619427
 20
142.5603046721835
 30
0.0
  0
LINE
  5
B6
330
1F
100
AcDbEntity
  8
0
  6
Continuous
 62
     7
370
    15
100
AcDbLine
 10
167.8512174055
 20
151.9023203045
 30
0.0
 11
167.8512174055
 21
141.6220153288
 31
0.0
  0
LINE
  5
B7
330
1F
100
AcDbEntity
  8
0
  6
Continuous
 62
     7
370
    15
100
AcDbLine
 10
141.5512174055
 20
151.5719465332
 30
0.0
 11
141.5512174055
 21
141.9523891002
 31
0.0
  0
LINE
  5
B8
330
1F
100
AcDbEntity
  8
0
  6
Continuous
 62
     7
370
    15
100
AcDbLine
 10
140.0512174055
 20
151.1389338313
 30
0.0
 11
140.0512174055
 21
142.3854018021
 31
0.0
  0
LINE
  5
B9
330
1F
100
AcDbEntity
  8
0
  6
Continuous
 62
     7
370
    15
100
AcDbLine
 10
167.8512174055
 20
129.2420690321
 30
0.0
 11
167.8512174055
 21
141.6220153288
 31
0.0
  0
ARC
  5
BA
330
1F
100
AcDbEntity
  8
0
  6
Continuous
 62
     7
370
    15
100
AcDbCircle
 10
168.0511543164
 20
129.237045921
 30
0.0
 40
0.2000000000000059
100
AcDbArc
 50
88.5608333333
 51
178.5608333333
  0
LINE
  5
BB
330
1F
100
AcDbEntity
  8
0
  6
Continuous
 62
     7
370
    15
100
AcDbLine
 10
141.5512174055
 20
129.9028165747
 30
0.0
 11
141.5512174055
 21
141.9523891002
 31
0.0
  0
LINE
  5
BC
330
1F
100
AcDbEntity
  8
0
  6
Continuous
 62
     7
370
    15
100
AcDbLine
 10
141.5512174055
 20
129.9028165747
 30
0.0
 11
167.8512174055
 21
129.2420690321
 31
0.0
  0
LINE
  5
BD
330
1F
100
AcDbEntity
  8
0
  6
Continuous
 62
     7
370
    15
100
AcDbLine
 10
141.5512174055
 20
151.5719465332
 30
0.0
 11
141.5512174055
 21
163.6215190586
 31
0.0
  0
LINE
  5
BE
330
1F
100
AcDbEntity
  8
0
  6
Continuous
 62
     7
370
    15
100
AcDbLine
 10
141.5512174055
 20
163.6215190586
 30
0.0
 11
167.8512174055
 21
164.2822666012
 31
0.0
  0
LINE
  5
BF
330
1F
100
AcDbEntity
  8
0
  6
Continuous
 62
     7
370
    15
100
AcDbLine
 10
167.8512174055
 20
151.9023203045
 30
0.0
 11
167.8512174055
 21
164.2822666012
 31
0.0
  0
ARC
  5
C0
330
1F
100
AcDbEntity
  8
0
  6
Continuous
 62
     7
370
    15
100
AcDbCircle
 10
168.0511543164
 20
164.2872897123
 30
0.0
 40
0.2000000000000052
100
AcDbArc
 50
181.4391666667
 51
271.4391666667
  0
LINE
  5
C1
330
1F
100
AcDbEntity
  8
0
  6
Continuous
 62
     7
370
    15
100
AcDbLine
 10
168.0561774276
 20
129.4369828319
 30
0.0
 11
169.0103563774
 21
129.4130105355
 31
0.0
  0
LINE
  5
C2
330
1F
100
AcDbEntity
  8
0
  6
Continuous
 62
     7
370
    15
100
AcDbLine
 10
168.0561774276
 20
164.0873528014
 30
0.0
 11
169.0103563774
 21
164.1113250978
 31
0.0
  0
LINE
  5
C3
330
1F
100
AcDbEntity
  8
0
  6
Continuous
 62
     7
370
    15
100
AcDbLine
 10
140.0512174055
 20
162.7554936548
 30
0.0
 11
141.5512174055
 21
163.6215190586
 31
0.0
  0
LINE
  5
C4
330
1F
100
AcDbEntity
  8
0
  6
Continuous
 62
     7
370
    15
100
AcDbLine
 10
140.0512174055
 20
151.1389338313
 30
0.0
 11
140.0512174055
 21
162.7554936548
 31
0.0
  0
LINE
  5
C5
330
1F
100
AcDbEntity
  8
0
  6
Continuous
 62
     7
370
    15
100
AcDbLine
 10
140.0512174055
 20
130.7688419785
 30
0.0
 11
141.5512174055
 21
129.9028165747
 31
0.0
  0
LINE
  5
C6
330
1F
100
AcDbEntity
  8
0
  6
Continuous
 62
     7
370
    15
100
AcDbLine
 10
140.0512174055
 20
130.7688419785
 30
0.0
 11
140.0512174055
 21
142.3854018021
 31
0.0
  0
LINE
  5
C7
330
1F
100
AcDbEntity
  8
0
  6
Continuous
 62
     7
370
    15
100
AcDbLine
 10
268.0512174055
 20
175.7621678167
 30
0.0
 11
267.0512174055
 21
176.7621678167
 31
0.0
  0
LINE
  5
C8
330
1F
100
AcDbEntity
  8
0
  6
Continuous
 62
     7
370
    15
100
AcDbLine
 10
268.0512174055
 20
175.7621678167
 30
0.0
 11
268.0512174055
 21
146.7621678167
 31
0.0
  0
LINE
  5
C9
330
1F
100
AcDbEntity
  8
0
  6
Continuous
 62
     7
370
    15
100
AcDbLine
 10
257.0512174055
 20
176.7621678167
 30
0.0
 11
267.0512174055
 21
176.7621678167
 31
0.0
  0
LINE
  5
CA
330
1F
100
AcDbEntity
  8
0
  6
Continuous
 62
     7
370
    15
100
AcDbLine
 10
258.0512174055
 20
140.9886651248
 30
0.0
 11
268.0512174055
 21
146.7621678167
 31
0.0
  0
LINE
  5
CB
330
1F
100
AcDbEntity
  8
0
  6
HIDDEN
 62
     7
370
     0
100
AcDbLine
 10
191.0512174055
 20
120.7621678167
 30
0.0
 11
191.0512174055
 21
172.753547972
 31
0.0
  0
LINE
  5
CC
330
1F
100
AcDbEntity
  8
0
  6
HIDDEN
 62
     7
370
     0
100
AcDbLine
 10
191.0512174055
 20
120.7621678167
 30
0.0
 11
191.0512174055
 21
146.7621678166
 31
0.0
  0
SPLINE
  5
CD
330
1F
100
AcDbEntity
  8
0
  6
HIDDEN
 62
     7
370
     0
100
AcDbSpline
210
0.0
220
0.0
230
1.0
 70
     8
 71
     3
 72
    58
 73
    54
 74
     0
 42
0.00000001
 43
0.00000001
 12
1.0
 22
0.0
 32
0.0
 13
1.0
 23
0.0
 33
0.0
 40
-0.0624999999999997
 40
-0.0624999999999997
 40
0.0
 40
0.0
 40
0.03125
 40
0.03125
 40
0.0625000000000001
 40
0.0625000000000001
 40
0.0937500000000001
 40
0.0937500000000001
 40
0.1250000000000002
 40
0.1250000000000002
 40
0.1875000000000004
 40
0.1875000000000004
 40
0.2500000000000005
 40
0.2500000000000005
 40
0.2812500000000006
 40
0.2812500000000006
 40
0.3125000000000006
 40
0.3125000000000006
 40
0.3437500000000007
 40
0.3437500000000007
 40
0.3750000000000007
 40
0.3750000000000007
 40
0.4062500000000007
 40
0.4062500000000007
 40
0.4375000000000008
 40
0.4375000000000008
 40
0.4687500000000008
 40
0.4687500000000008
 40
0.5000000000000009
 40
0.5000000000000009
 40
0.562500000000001
 40
0.562500000000001
 40
0.6250000000000011
 40
0.6250000000000011
 40
0.656250000000001
 40
0.656250000000001
 40
0.687500000000001
 40
0.687500000000001
 40
0.7187500000000009
 40
0.7187500000000009
 40
0.7500000000000008
 40
0.7500000000000008
 40
0.7812500000000008
 40
0.7812500000000008
 40
0.8125000000000007
 40
0.8125000000000007
 40
0.8437500000000007
 40
0.8437500000000007
 40
0.8750000000000006
 40
0.8750000000000006
 40
0.9375000000000003
 40
0.9375000000000003
 40
1.0
 40
1.0
 40
1.03125
 40
1.03125
 10
180.0512174055023
 20
146.4977954461124
 30
0.0
 10
180.0512174055023
 20
146.8943540019276
 30
0.0
 10
180.0641932975128
 20
147.0243207414723
 30
0.0
 10
180.1150255996187
 20
147.2800000796045
 30
0.0
 10
180.1535026709402
 20
147.4070411714459
 30
0.0
 10
180.2539076320965
 20
147.6492193573865
 30
0.0
 10
180.3153418744158
 20
147.764073015976
 30
0.0
 10
180.4604761405975
 20
147.9814381377818
 30
0.0
 10
180.5449180617449
 20
148.0843136098661
 30
0.0
 10
180.8215900913547
 20
148.3609315622832
 30
0.0
 10
181.0446362463229
 20
148.5099236821161
 30
0.0
 10
181.5259002448674
 20
148.7094474771074
 30
0.0
 10
181.7891581001872
 20
148.7620263416096
 30
0.0
 10
182.180624131472
 20
148.7622381151971
 30
0.0
 10
182.3131728750855
 20
148.7492471436077
 30
0.0
 10
182.5697171841007
 20
148.6982109203179
 30
0.0
 10
182.6944130704724
 20
148.6604493789151
 30
0.0
 10
182.9366160409062
 20
148.5602898396217
 30
0.0
 10
183.0536794041568
 20
148.4976920298712
 30
0.0
 10
183.2703657234029
 20
148.3529700458355
 30
0.0
 10
183.3713796914707
 20
148.2703459406673
 30
0.0
 10
183.5581728857561
 20
148.0837255700563
 30
0.0
 10
183.6409732497104
 20
147.9826772021651
 30
0.0
 10
183.785851688605
 20
147.7661651812912
 30
0.0
 10
183.8485024719324
 20
147.6492758260923
 30
0.0
 10
183.9489428663063
 20
147.4070184240333
 30
0.0
 10
183.9868018780762
 20
147.2823557592179
 30
0.0
 10
184.0380395825397
 20
147.0260245635631
 30
0.0
 10
184.0511699573128
 20
146.8934366242127
 30
0.0
 10
184.0513119077517
 20
146.5018049556434
 30
0.0
 10
183.9989709915037
 20
146.2385921226092
 30
0.0
 10
183.7998407647656
 20
145.7570847919178
 30
0.0
 10
183.6510036771232
 20
145.5338843106422
 30
0.0
 10
183.3746916405839
 20
145.2570382306805
 30
0.0
 10
183.2719261033326
 20
145.1725261364618
 30
0.0
 10
183.0546091709788
 20
145.0271475397303
 30
0.0
 10
182.939822260442
 20
144.9656321081285
 30
0.0
 10
182.697902770336
 20
144.8650760478829
 30
0.0
 10
182.570775867836
 20
144.8264373220483
 30
0.0
 10
182.3151070321998
 20
144.7753724551609
 30
0.0
 10
182.1852118268219
 20
144.7622979747846
 30
0.0
 10
181.9211370443975
 20
144.762039573511
 30
0.0
 10
181.7908079049122
 20
144.774915641474
 30
0.0
 10
181.5351185907683
 20
144.8255144328019
 30
0.0
 10
181.4081907243807
 20
144.8638197786395
 30
0.0
 10
181.1657384355385
 20
144.9640756110595
 30
0.0
 10
181.0508217415569
 20
145.0254266299715
 30
0.0
 10
180.8334309497865
 20
145.1702954655418
 30
0.0
 10
180.7304456701049
 20
145.2546594188111
 30
0.0
 10
180.4534813024476
 20
145.5311854725972
 30
0.0
 10
180.3043490240892
 20
145.7540453145929
 30
0.0
 10
180.1043969053747
 20
146.2351478346536
 30
0.0
 10
180.0512174055023
 20
146.4977954461124
 30
0.0
 10
180.0512174055023
 20
146.8943540019276
 30
0.0
  0
SPLINE
  5
CE
330
1F
100
AcDbEntity
  8
0
  6
HIDDEN
 62
     7
370
     0
100
AcDbSpline
210
0.0
220
0.0
230
1.0
 70
     8
 71
     3
 72
    12
 73
     8
 74
     0
 42
0.00000001
 43
0.00000001
 12
1.0
 22
0.0
 32
0.0
 13
1.0
 23
0.0
 33
0.0
 40
0.0
 40
0.0
 40
0.0
 40
0.0
 40
0.2499999999999986
 40
0.2499999999999986
 40
0.4999999999999972
 40
0.4999999999999972
 40
1.0
 40
1.0
 40
1.0
 40
1.0
 10
178.5789742190688
 20
139.1933578474753
 30
0.0
 10
178.5153089825382
 20
139.1933578474753
 30
0.0
 10
178.4557027503149
 20
139.1672856989956
 30
0.0
 10
178.3570422253841
 20
139.0917469481745
 30
0.0
 10
178.3180752353688
 20
139.0444960110783
 30
0.0
 10
178.2186884034444
 20
138.8926721931118
 30
0.0
 10
178.1766121560209
 20
138.7798689433468
 30
0.0
 10
178.1459615171765
 20
138.6657148186116
 30
0.0
  0
LINE
  5
CF
330
1F
100
AcDbEntity
  8
0
  6
HIDDEN
 62
     7
370
     0
100
AcDbLine
 10
181.5234605919
 20
139.1933578475
 30
0.0
 11
178.5789742191
 21
139.1933578475
 31
0.0
  0
SPLINE
  5
D0
330
1F
100
AcDbEntity
  8
0
  6
HIDDEN
 62
     7
370
     0
100
AcDbSpline
210
0.0
220
0.0
230
1.0
 70
     8
 71
     3
 72
    12
 73
     8
 74
     0
 42
0.00000001
 43
0.00000001
 12
1.0
 22
0.0
 32
0.0
 13
1.0
 23
0.0
 33
0.0
 40
0.0
 40
0.0
 40
0.0
 40
0.0
 40
0.5000000000000037
 40
0.5000000000000037
 40
0.7500000000000018
 40
0.7500000000000018
 40
1.0
 40
1.0
 40
1.0
 40
1.0
 10
181.9564732938281
 20
138.6657148186117
 30
0.0
 10
181.9257739104608
 20
138.7800504856755
 30
0.0
 10
181.8844238423543
 20
138.8914038385169
 30
0.0
 10
181.7846679141348
 20
139.0441406107656
 30
0.0
 10
181.7449709964021
 20
139.0920004966177
 30
0.0
 10
181.6477128447545
 20
139.1666036099672
 30
0.0
 10
181.5869366867638
 20
139.1933578474753
 30
0.0
 10
181.5234605919359
 20
139.1933578474753
 30
0.0
  0
ELLIPSE
  5
D1
330
1F
100
AcDbEntity
  8
0
  6
HIDDEN
 62
     7
370
     0
100
AcDbEllipse
 10
168.9949597505
 20
146.7621678167
 30
0.0
 11
-11.70927234972714
 21
24.67718644093745
 31
0.0
210
0.0
220
0.0
230
1.0
 40
0.3419987131
 41
3.310521928178959
 42
4.221709151398949
  0
SPLINE
  5
D2
330
1F
100
AcDbEntity
  8
0
  6
HIDDEN
 62
     7
370
     0
100
AcDbSpline
210
0.0
220
0.0
230
1.0
 70
     8
 71
     3
 72
    12
 73
     8
 74
     0
 42
0.00000001
 43
0.00000001
 12
1.0
 22
0.0
 32
0.0
 13
1.0
 23
0.0
 33
0.0
 40
0.0
 40
0.0
 40
0.0
 40
0.0
 40
0.2499999999999984
 40
0.2499999999999984
 40
0.4999999999999968
 40
0.4999999999999968
 40
1.0
 40
1.0
 40
1.0
 40
1.0
 10
181.5234605919359
 20
122.9354367011539
 30
0.0
 10
181.5871258284664
 20
122.9354367011539
 30
0.0
 10
181.6467320606898
 20
122.9437014768198
 30
0.0
 10
181.7453925856206
 20
122.9679202584029
 30
0.0
 10
181.7843595756358
 20
122.9831775777121
 30
0.0
 10
181.8837464075603
 20
123.032810931974
 30
0.0
 10
181.9258226549838
 20
123.0704506401481
 30
0.0
 10
181.9564732938281
 20
123.1095263394243
 30
0.0
  0
LINE
  5
D3
330
1F
100
AcDbEntity
  8
0
  6
HIDDEN
 62
     7
370
     0
100
AcDbLine
 10
178.5789742191
 20
122.9354367012
 30
0.0
 11
181.5234605919
 21
122.9354367012
 31
0.0
  0
SPLINE
  5
D4
330
1F
100
AcDbEntity
  8
0
  6
HIDDEN
 62
     7
370
     0
100
AcDbSpline
210
0.0
220
0.0
230
1.0
 70
     8
 71
     3
 72
    12
 73
     8
 74
     0
 42
0.00000001
 43
0.00000001
 12
1.0
 22
0.0
 32
0.0
 13
1.0
 23
0.0
 33
0.0
 40
0.0
 40
0.0
 40
0.0
 40
0.0
 40
0.5000000000000032
 40
0.5000000000000032
 40
0.7500000000000016
 40
0.7500000000000016
 40
1.0
 40
1.0
 40
1.0
 40
1.0
 10
178.1459615171765
 20
123.1095263394243
 30
0.0
 10
178.1766609005439
 20
123.0703884970284
 30
0.0
 10
178.2180109686504
 20
123.0332287143029
 30
0.0
 10
178.3177668968698
 20
122.9832922086751
 30
0.0
 10
178.3574638146025
 20
122.9678393385314
 30
0.0
 10
178.4547219662501
 20
122.9439197949323
 30
0.0
 10
178.5154981242408
 20
122.9354367011539
 30
0.0
 10
178.5789742190688
 20
122.9354367011539
 30
0.0
  0
ELLIPSE
  5
D5
330
1F
100
AcDbEntity
  8
0
  6
HIDDEN
 62
     7
370
     0
100
AcDbEllipse
 10
191.1074750605
 20
146.7621678167
 30
0.0
 11
11.70927234972703
 21
24.67718644093742
 31
0.0
210
0.0
220
0.0
230
1.0
 40
0.3419987131
 41
2.06147615578065
 42
2.972663379000669
  0
SPLINE
  5
D6
330
1F
100
AcDbEntity
  8
0
  6
HIDDEN
 62
     7
370
     0
100
AcDbSpline
210
0.0
220
0.0
230
1.0
 70
     8
 71
     3
 72
    12
 73
     8
 74
     0
 42
0.00000001
 43
0.00000001
 12
1.0
 22
0.0
 32
0.0
 13
1.0
 23
0.0
 33
0.0
 40
0.0
 40
0.0
 40
0.0
 40
0.0
 40
0.2499999999999996
 40
0.2499999999999996
 40
0.4999999999999991
 40
0.4999999999999991
 40
1.0
 40
1.0
 40
1.0
 40
1.0
 10
178.5789742190688
 20
170.5888989321579
 30
0.0
 10
178.5153089825382
 20
170.5888989321579
 30
0.0
 10
178.4557027503149
 20
170.5806341564921
 30
0.0
 10
178.3570422253841
 20
170.5564153749089
 30
0.0
 10
178.3180752353688
 20
170.5411580555998
 30
0.0
 10
178.2186884034444
 20
170.4915247013379
 30
0.0
 10
178.1766121560209
 20
170.4538849931637
 30
0.0
 10
178.1459615171766
 20
170.4148092938876
 30
0.0
  0
LINE
  5
D7
330
1F
100
AcDbEntity
  8
0
  6
HIDDEN
 62
     7
370
     0
100
AcDbLine
 10
181.5234605919
 20
170.5888989322
 30
0.0
 11
178.5789742191
 21
170.5888989322
 31
0.0
  0
SPLINE
  5
D8
330
1F
100
AcDbEntity
  8
0
  6
HIDDEN
 62
     7
370
     0
100
AcDbSpline
210
0.0
220
0.0
230
1.0
 70
     8
 71
     3
 72
    12
 73
     8
 74
     0
 42
0.00000001
 43
0.00000001
 12
1.0
 22
0.0
 32
0.0
 13
1.0
 23
0.0
 33
0.0
 40
0.0
 40
0.0
 40
0.0
 40
0.0
 40
0.4999999999999953
 40
0.4999999999999953
 40
0.7499999999999977
 40
0.7499999999999977
 40
1.0
 40
1.0
 40
1.0
 40
1.0
 10
181.9564732938281
 20
170.4148092938876
 30
0.0
 10
181.9257739104608
 20
170.4539471362835
 30
0.0
 10
181.8844238423543
 20
170.491106919009
 30
0.0
 10
181.7846679141348
 20
170.5410434246367
 30
0.0
 10
181.7449709964021
 20
170.5564962947805
 30
0.0
 10
181.6477128447545
 20
170.5804158383795
 30
0.0
 10
181.5869366867638
 20
170.5888989321579
 30
0.0
 10
181.5234605919359
 20
170.5888989321579
 30
0.0
  0
ELLIPSE
  5
D9
330
1F
100
AcDbEntity
  8
0
  6
HIDDEN
 62
     7
370
     0
100
AcDbEllipse
 10
168.9949597505
 20
146.7621678167
 30
0.0
 11
11.70927234972726
 21
24.67718644093742
 31
0.0
210
0.0
220
0.0
230
1.0
 40
0.3419987131
 41
5.20306880937047
 42
6.114256032590515
  0
SPLINE
  5
DA
330
1F
100
AcDbEntity
  8
0
  6
HIDDEN
 62
     7
370
     0
100
AcDbSpline
210
0.0
220
0.0
230
1.0
 70
     8
 71
     3
 72
    12
 73
     8
 74
     0
 42
0.00000001
 43
0.00000001
 12
1.0
 22
0.0
 32
0.0
 13
1.0
 23
0.0
 33
0.0
 40
0.0
 40
0.0
 40
0.0
 40
0.0
 40
0.2500000000000016
 40
0.2500000000000016
 40
0.5000000000000032
 40
0.5000000000000032
 40
1.0
 40
1.0
 40
1.0
 40
1.0
 10
181.5234605919359
 20
154.3309777858368
 30
0.0
 10
181.5871258284664
 20
154.3309777858368
 30
0.0
 10
181.6467320606898
 20
154.3570499343165
 30
0.0
 10
181.7453925856206
 20
154.4325886851376
 30
0.0
 10
181.7843595756358
 20
154.4798396222338
 30
0.0
 10
181.8837464075603
 20
154.6316634402002
 30
0.0
 10
181.9258226549838
 20
154.7444666899653
 30
0.0
 10
181.9564732938281
 20
154.8586208147004
 30
0.0
  0
LINE
  5
DB
330
1F
100
AcDbEntity
  8
0
  6
HIDDEN
 62
     7
370
     0
100
AcDbLine
 10
178.5789742191
 20
154.3309777858
 30
0.0
 11
181.5234605919
 21
154.3309777858
 31
0.0
  0
SPLINE
  5
DC
330
1F
100
AcDbEntity
  8
0
  6
HIDDEN
 62
     7
370
     0
100
AcDbSpline
210
0.0
220
0.0
230
1.0
 70
     8
 71
     3
 72
    12
 73
     8
 74
     0
 42
0.00000001
 43
0.00000001
 12
1.0
 22
0.0
 32
0.0
 13
1.0
 23
0.0
 33
0.0
 40
0.0
 40
0.0
 40
0.0
 40
0.0
 40
0.5000000000000013
 40
0.5000000000000013
 40
0.7500000000000007
 40
0.7500000000000007
 40
1.0
 40
1.0
 40
1.0
 40
1.0
 10
178.1459615171765
 20
154.8586208147004
 30
0.0
 10
178.1766609005439
 20
154.7442851476366
 30
0.0
 10
178.2180109686504
 20
154.6329317947952
 30
0.0
 10
178.3177668968698
 20
154.4801950225465
 30
0.0
 10
178.3574638146025
 20
154.4323351366943
 30
0.0
 10
178.4547219662501
 20
154.3577320233449
 30
0.0
 10
178.5154981242408
 20
154.3309777858368
 30
0.0
 10
178.5789742190688
 20
154.3309777858368
 30
0.0
  0
ELLIPSE
  5
DD
330
1F
100
AcDbEntity
  8
0
  6
HIDDEN
 62
     7
370
     0
100
AcDbEllipse
 10
191.1074750605
 20
146.7621678167
 30
0.0
 11
-11.70927234972711
 21
24.67718644093745
 31
0.0
210
0.0
220
0.0
230
1.0
 40
0.3419987131
 41
0.1689292745891157
 42
1.080116497809133
  0
LINE
  5
DE
330
1F
100
AcDbEntity
  8
0
  6
HIDDEN
 62
     7
370
     0
100
AcDbLine
 10
170.0512174055
 20
171.4621678165
 30
0.0
 11
170.0512174055
 21
122.0621678167
 31
0.0
  0
LINE
  5
DF
330
1F
100
AcDbEntity
  8
0
  6
HIDDEN
 62
     7
370
     0
100
AcDbLine
 10
196.0512174055
 20
174.7621678167
 30
0.0
 11
196.0512174055
 21
175.7621678167
 31
0.0
  0
LINE
  5
E0
330
1F
100
AcDbEntity
  8
0
  6
HIDDEN
 62
     7
370
     0
100
AcDbLine
 10
257.0512174055
 20
156.7621678167
 30
0.0
 11
214.0512174055
 21
156.7621678167
 31
0.0
  0
LINE
  5
E1
330
1F
100
AcDbEntity
  8
0
  6
HIDDEN
 62
     7
370
     0
100
AcDbLine
 10
257.0512174055
 20
156.7621678167
 30
0.0
 11
258.0512174055
 21
155.7621678167
 31
0.0
  0
ARC
  5
E2
330
1F
100
AcDbEntity
  8
0
  6
HIDDEN
 62
     7
370
     0
100
AcDbCircle
 10
214.0512174055
 20
174.7621678167
 30
0.0
 40
18.0
100
AcDbArc
 50
180.0
 51
270.0
  0
LINE
  5
E3
330
1F
100
AcDbEntity
  8
0
  6
HIDDEN
 62
     7
370
     0
100
AcDbLine
 10
196.0512174055
 20
175.7621678167
 30
0.0
 11
195.0512174055
 21
176.7621678167
 31
0.0
  0
CIRCLE
  5
E4
330
1F
100
AcDbEntity
  8
0
  6
HIDDEN
 62
     7
370
     0
100
AcDbCircle
 10
210.0512174055
 20
166.7621678167
 30
0.0
 40
4.249999999999972
  0
CIRCLE
  5
E5
330
1F
100
AcDbEntity
  8
0
  6
HIDDEN
 62
     7
370
     0
100
AcDbCircle
 10
250.0512174055
 20
166.7621678167
 30
0.0
 40
4.249999999999972
  0
CIRCLE
  5
E6
330
1F
100
AcDbEntity
  8
0
  6
HIDDEN
 62
     7
370
     0
100
AcDbCircle
 10
230.0512174055
 20
166.7621678167
 30
0.0
 40
4.249999999999972
  0
LINE
  5
E7
330
1F
100
AcDbEntity
  8
0
  6
HIDDEN
 62
     7
370
     0
100
AcDbLine
 10
170.0512174055
 20
127.2121678167
 30
0.0
 11
170.0512174055
 21
166.2930327951
 31
0.0
  0
SPLINE
  5
E8
330
1F
100
AcDbEntity
  8
0
  6
HIDDEN
 62
     7
370
     0
100
AcDbSpline
210
0.0
220
0.0
230
1.0
 70
     8
 71
     3
 72
    14
 73
    10
 74
     0
 42
0.00000001
 43
0.00000001
 12
1.0
 22
0.0
 32
0.0
 13
1.0
 23
0.0
 33
0.0
 40
0.0
 40
0.0
 40
0.0
 40
0.0
 40
0.25
 40
0.25
 40
0.5
 40
0.5
 40
0.75
 40
0.75
 40
1.0
 40
1.0
 40
1.0
 40
1.0
 10
169.010356377374
 20
159.0566433617293
 30
0.0
 10
169.0420715117047
 20
158.9988601793861
 30
0.0
 10
169.0766860370051
 20
158.9424475183112
 30
0.0
 10
169.1563572324204
 20
158.8348480682958
 30
0.0
 10
169.2014131094508
 20
158.7829354413747
 30
0.0
 10
169.3119675219562
 20
158.6967368166775
 30
0.0
 10
169.3793529361604
 20
158.6626473967058
 30
0.0
 10
169.5299824560584
 20
158.6605450046889
 30
0.0
 10
169.5998096928238
 20
158.6939167775337
 30
0.0
 10
169.6562405166272
 20
158.7377294460844
 30
0.0
  0
SPLINE
  5
E9
330
1F
100
AcDbEntity
  8
0
  6
HIDDEN
 62
     7
370
     0
100
AcDbSpline
210
0.0
220
0.0
230
1.0
 70
     8
 71
     3
 72
    16
 73
    12
 74
     0
 42
0.00000001
 43
0.00000001
 12
1.0
 22
0.0
 32
0.0
 13
1.0
 23
0.0
 33
0.0
 40
0.0
 40
0.0
 40
0.0
 40
0.0
 40
0.0625000000000005
 40
0.0625000000000005
 40
0.1250000000000009
 40
0.1250000000000009
 40
0.2499999999999976
 40
0.2499999999999976
 40
0.5
 40
0.5
 40
1.0
 40
1.0
 40
1.0
 40
1.0
 10
169.6562405165955
 20
158.737729446115
 30
0.0
 10
169.6679747510424
 20
158.7468398593629
 30
0.0
 10
169.6815065065213
 20
158.7549172153093
 30
0.0
 10
169.7114939669512
 20
158.7631640569862
 30
0.0
 10
169.7264886733594
 20
158.7622367393986
 30
0.0
 10
169.7622290957542
 20
158.7494702198669
 30
0.0
 10
169.7762424327554
 20
158.7318215733565
 30
0.0
 10
169.8103865215368
 20
158.677168653325
 30
0.0
 10
169.8213584256551
 20
158.6357689856665
 30
0.0
 10
169.8472039659214
 20
158.5072792419437
 30
0.0
 10
169.8512174055024
 20
158.416661154305
 30
0.0
 10
169.8512174055024
 20
158.3244420497509
 30
0.0
  0
LINE
  5
EA
330
1F
100
AcDbEntity
  8
0
  6
HIDDEN
 62
     7
370
     0
100
AcDbLine
 10
169.8512174055
 20
135.1998935836
 30
0.0
 11
169.8512174055
 21
158.3244420498
 31
0.0
  0
SPLINE
  5
EB
330
1F
100
AcDbEntity
  8
0
  6
HIDDEN
 62
     7
370
     0
100
AcDbSpline
210
0.0
220
0.0
230
1.0
 70
     8
 71
     3
 72
    16
 73
    12
 74
     0
 42
0.00000001
 43
0.00000001
 12
1.0
 22
0.0
 32
0.0
 13
1.0
 23
0.0
 33
0.0
 40
0.0
 40
0.0
 40
0.0
 40
0.0
 40
0.4999999999999951
 40
0.4999999999999951
 40
0.7499999999999976
 40
0.7499999999999976
 40
0.8749999999999988
 40
0.8749999999999988
 40
0.9374999999999993
 40
0.9374999999999993
 40
1.0
 40
1.0
 40
1.0
 40
1.0
 10
169.8512174055023
 20
135.1998935835608
 30
0.0
 10
169.8512174055023
 20
135.1073097326569
 30
0.0
 10
169.8471601033873
 20
135.0170972767967
 30
0.0
 10
169.8215028605925
 20
134.8891561496783
 30
0.0
 10
169.8101874148504
 20
134.8467429352664
 30
0.0
 10
169.7761560475417
 20
134.7924288918152
 30
0.0
 10
169.7622770663379
 20
134.7748475564253
 30
0.0
 10
169.7263413845706
 20
134.7620638684904
 30
0.0
 10
169.7113910653078
 20
134.7611883703422
 30
0.0
 10
169.6814925525659
 20
134.7694338054616
 30
0.0
 10
169.6679596922007
 20
134.7775074656334
 30
0.0
 10
169.6562405166267
 20
134.7866061872275
 30
0.0
  0
SPLINE
  5
EC
330
1F
100
AcDbEntity
  8
0
  6
HIDDEN
 62
     7
370
     0
100
AcDbSpline
210
0.0
220
0.0
230
1.0
 70
     8
 71
     3
 72
    14
 73
    10
 74
     0
 42
0.00000001
 43
0.00000001
 12
1.0
 22
0.0
 32
0.0
 13
1.0
 23
0.0
 33
0.0
 40
0.0
 40
0.0
 40
0.0
 40
0.0
 40
0.25
 40
0.25
 40
0.5
 40
0.5
 40
0.75
 40
0.75
 40
1.0
 40
1.0
 40
1.0
 40
1.0
 10
169.6562405166335
 20
134.786606187236
 30
0.0
 10
169.5997847520248
 20
134.8304382197308
 30
0.0
 10
169.5289191257749
 20
134.8637692561526
 30
0.0
 10
169.3804620446023
 20
134.8617102460051
 30
0.0
 10
169.3112686852947
 20
134.8271142216035
 30
0.0
 10
169.2015532471606
 20
134.7414488649406
 30
0.0
 10
169.1563086678292
 20
134.6894264202326
 30
0.0
 10
169.0766819584054
 20
134.5818781599027
 30
0.0
 10
169.042071809872
 20
134.5254759971697
 30
0.0
 10
169.0103563773727
 20
134.4676922715802
 30
0.0
  0
SPLINE
  5
ED
330
1F
100
AcDbEntity
  8
0
  6
HIDDEN
 62
     7
370
     0
100
AcDbSpline
210
0.0
220
0.0
230
1.0
 70
     8
 71
     3
 72
    10
 73
     6
 74
     0
 42
0.00000001
 43
0.00000001
 12
1.0
 22
0.0
 32
0.0
 13
1.0
 23
0.0
 33
0.0
 40
0.0
 40
0.0
 40
0.0
 40
0.0
 40
0.5
 40
0.5
 40
1.0
 40
1.0
 40
1.0
 40
1.0
 10
169.0103563773733
 20
134.4676922715812
 30
0.0
 10
168.9385765894498
 20
134.3369135546793
 30
0.0
 10
168.8861170751418
 20
134.2028134051761
 30
0.0
 10
168.7967740110406
 20
133.9347208421873
 30
0.0
 10
168.7607784015408
 20
133.8004754705985
 30
0.0
 10
168.7298970619428
 20
133.6671210931234
 30
0.0
  0
SPLINE
  5
EE
330
1F
100
AcDbEntity
  8
0
  6
HIDDEN
 62
     7
370
     0
100
AcDbSpline
210
0.0
220
0.0
230
1.0
 70
     8
 71
     3
 72
    10
 73
     6
 74
     0
 42
0.00000001
 43
0.00000001
 12
1.0
 22
0.0
 32
0.0
 13
1.0
 23
0.0
 33
0.0
 40
0.0
 40
0.0
 40
0.0
 40
0.0
 40
0.5
 40
0.5
 40
1.0
 40
1.0
 40
1.0
 40
1.0
 10
168.7298970619428
 20
129.465257948651
 30
0.0
 10
168.760770093755
 20
129.4489748012839
 30
0.0
 10
168.7967569566679
 20
129.4367172115583
 30
0.0
 10
168.8860915425591
 20
129.4196142227296
 30
0.0
 10
168.9385474019817
 20
129.4148146268713
 30
0.0
 10
169.010356377374
 20
129.4130105354633
 30
0.0
  0
SPLINE
  5
EF
330
1F
100
AcDbEntity
  8
0
  6
HIDDEN
 62
     7
370
     0
100
AcDbSpline
210
0.0
220
0.0
230
1.0
 70
     8
 71
     3
 72
     8
 73
     4
 74
     0
 42
0.00000001
 43
0.00000001
 12
1.0
 22
0.0
 32
0.0
 13
1.0
 23
0.0
 33
0.0
 40
0.0
 40
0.0
 40
0.0
 40
0.0
 40
1.0
 40
1.0
 40
1.0
 40
1.0
 10
169.8335207821274
 20
129.2871261572162
 30
0.0
 10
169.8475075906694
 20
129.2588857666346
 30
0.0
 10
169.8512174055021
 20
129.2357537238238
 30
0.0
 10
169.8512174055024
 20
129.2154133509886
 30
0.0
  0
LINE
  5
F0
330
1F
100
AcDbEntity
  8
0
  6
HIDDEN
 62
     7
370
     0
100
AcDbLine
 10
169.8512174055
 20
128.9223475378
 30
0.0
 11
169.8512174055
 21
129.215413351
 31
0.0
  0
LINE
  5
F1
330
1F
100
AcDbEntity
  8
0
  6
HIDDEN
 62
     7
370
     0
100
AcDbLine
 10
169.8512174055
 20
164.3089222823
 30
0.0
 11
169.8512174055
 21
164.6019880955
 31
0.0
  0
SPLINE
  5
F2
330
1F
100
AcDbEntity
  8
0
  6
HIDDEN
 62
     7
370
     0
100
AcDbSpline
210
0.0
220
0.0
230
1.0
 70
     8
 71
     3
 72
    10
 73
     6
 74
     0
 42
0.00000001
 43
0.00000001
 12
1.0
 22
0.0
 32
0.0
 13
1.0
 23
0.0
 33
0.0
 40
0.0
 40
0.0
 40
0.0
 40
0.0
 40
0.478679935432302
 40
0.7990601559725276
 40
1.0
 40
1.0
 40
1.0
 40
1.0
 10
169.8512174055023
 20
164.3089222823255
 30
0.0
 10
169.8481252788431
 20
164.296552937196
 30
0.0
 10
169.842963593492
 20
164.2759047960961
 30
0.0
 10
169.8425314643303
 20
164.2530981041785
 30
0.0
 10
169.8320799654842
 20
164.2360613761151
 30
0.0
 10
169.8280514948945
 20
164.2294946665014
 30
0.0
  0
SPLINE
  5
F3
330
1F
100
AcDbEntity
  8
0
  6
HIDDEN
 62
     7
370
     0
100
AcDbSpline
210
0.0
220
0.0
230
1.0
 70
     8
 71
     3
 72
    10
 73
     6
 74
     0
 42
0.00000001
 43
0.00000001
 12
1.0
 22
0.0
 32
0.0
 13
1.0
 23
0.0
 33
0.0
 40
0.0
 40
0.0
 40
0.0
 40
0.0
 40
0.5
 40
0.5
 40
1.0
 40
1.0
 40
1.0
 40
1.0
 10
169.0103563773748
 20
164.1113250978484
 30
0.0
 10
168.9385474019822
 20
164.1095210064406
 30
0.0
 10
168.8860915425595
 20
164.1047214105822
 30
0.0
 10
168.7967569566681
 20
164.0876184217535
 30
0.0
 10
168.7607700937551
 20
164.0753608320279
 30
0.0
 10
168.7298970619428
 20
164.0590776846607
 30
0.0
  0
SPLINE
  5
F4
330
1F
100
AcDbEntity
  8
0
  6
HIDDEN
 62
     7
370
     0
100
AcDbSpline
210
0.0
220
0.0
230
1.0
 70
     8
 71
     3
 72
    10
 73
     6
 74
     0
 42
0.00000001
 43
0.00000001
 12
1.0
 22
0.0
 32
0.0
 13
1.0
 23
0.0
 33
0.0
 40
0.0
 40
0.0
 40
0.0
 40
0.0
 40
0.5
 40
0.5
 40
1.0
 40
1.0
 40
1.0
 40
1.0
 10
168.7298970619428
 20
159.8572145401883
 30
0.0
 10
168.7607784015409
 20
159.723860162713
 30
0.0
 10
168.7967740110407
 20
159.5896147911239
 30
0.0
 10
168.8861170751421
 20
159.3215222281348
 30
0.0
 10
168.9385765894503
 20
159.1874220786313
 30
0.0
 10
169.010356377374
 20
159.0566433617293
 30
0.0
  0
LINE
  5
F5
330
1F
100
AcDbEntity
  8
0
  6
HIDDEN
 62
     7
370
     0
100
AcDbLine
 10
250.0512174055
 20
145.7621678167
 30
0.0
 11
250.0512174055
 21
157.7621678167
 31
0.0
  0
LINE
  5
F6
330
1F
100
AcDbEntity
  8
0
  6
HIDDEN
 62
     7
370
     0
100
AcDbLine
 10
258.0512174055
 20
157.7621678167
 30
0.0
 11
258.0512174055
 21
145.7816239679
 31
0.0
  0
LINE
  5
F7
330
1F
100
AcDbEntity
  8
0
  6
HIDDEN
 62
     7
370
     0
100
AcDbLine
 10
169.8512174055
 20
129.215413351
 30
0.0
 11
169.8512174055
 21
140.7776875841
 31
0.0
  0
LINE
  5
F8
330
1F
100
AcDbEntity
  8
0
  6
HIDDEN
 62
     7
370
     0
100
AcDbLine
 10
169.8512174055
 20
152.7466480492
 30
0.0
 11
169.8512174055
 21
164.3089222823
 31
0.0
  0
CIRCLE
  5
F9
330
1F
100
AcDbEntity
  8
0
  6
HIDDEN
 62
     7
370
     0
100
AcDbCircle
 10
156.0512174055
 20
146.7621678167
 30
0.0
 40
3.050000000000011
  0
SPLINE
  5
FA
330
1F
100
AcDbEntity
  8
0
  6
HIDDEN
 62
     7
370
     0
100
AcDbSpline
210
0.0
220
0.0
230
1.0
 70
     8
 71
     3
 72
    34
 73
    30
 74
     0
 42
0.00000001
 43
0.00000001
 12
1.0
 22
0.0
 32
0.0
 13
1.0
 23
0.0
 33
0.0
 40
0.0
 40
0.0
 40
0.0
 40
0.0
 40
0.1250000000000006
 40
0.1250000000000006
 40
0.1875000000000008
 40
0.1875000000000008
 40
0.250000000000001
 40
0.250000000000001
 40
0.3125000000000012
 40
0.3125000000000012
 40
0.3750000000000013
 40
0.3750000000000013
 40
0.4375000000000016
 40
0.4375000000000016
 40
0.5000000000000017
 40
0.5000000000000017
 40
0.5625000000000019
 40
0.5625000000000019
 40
0.625000000000002
 40
0.625000000000002
 40
0.7500000000000012
 40
0.7500000000000012
 40
0.8125000000000009
 40
0.8125000000000009
 40
0.8750000000000007
 40
0.8750000000000007
 40
0.9375000000000003
 40
0.9375000000000003
 40
1.0
 40
1.0
 40
1.0
 40
1.0
 10
228.0512174055023
 20
146.2647816801683
 30
0.0
 10
228.1788057877719
 20
146.2088317731254
 30
0.0
 10
228.3100486322214
 20
146.2005993170804
 30
0.0
 10
228.5107434508182
 20
146.256641297335
 30
0.0
 10
228.5767007338046
 20
146.2864010820397
 30
0.0
 10
228.7064411963923
 20
146.3669726644923
 30
0.0
 10
228.7707716343245
 20
146.4183456162362
 30
0.0
 10
228.8931882943129
 20
146.5403580810328
 30
0.0
 10
228.9509463799915
 20
146.6104048210232
 30
0.0
 10
229.0573386136197
 20
146.76843593081
 30
0.0
 10
229.1064353163334
 20
146.8575435781826
 30
0.0
 10
229.1884627094055
 20
147.0495937651702
 30
0.0
 10
229.2214000910614
 20
147.1520354480449
 30
0.0
 10
229.2670824585605
 20
147.3699961925109
 30
0.0
 10
229.2796754473271
 20
147.487368765353
 30
0.0
 10
229.2801598848874
 20
147.7258877390766
 30
0.0
 10
229.2684970568363
 20
147.846904133188
 30
0.0
 10
229.2235085343921
 20
148.0927117877265
 30
0.0
 10
229.1900127376306
 20
148.2173812540335
 30
0.0
 10
229.0676357911544
 20
148.5823865266613
 30
0.0
 10
228.9555391054195
 20
148.8214423264541
 30
0.0
 10
228.772727699382
 20
149.1548129122675
 30
0.0
 10
228.7081316739765
 20
149.2635918025988
 30
0.0
 10
228.5777787515139
 20
149.468496552023
 30
0.0
 10
228.5119231867142
 20
149.5649461736689
 30
0.0
 10
228.3792417067516
 20
149.7458815321622
 30
0.0
 10
228.3118219965881
 20
149.8309853956935
 30
0.0
 10
228.1798678573478
 20
149.9832079216715
 30
0.0
 10
228.115080175593
 20
150.0507972176698
 30
0.0
 10
228.0512174055023
 20
150.1094122065884
 30
0.0
  0
SPLINE
  5
FB
330
1F
100
AcDbEntity
  8
0
  6
HIDDEN
 62
     7
370
     0
100
AcDbSpline
210
0.0
220
0.0
230
1.0
 70
     8
 71
     3
 72
    36
 73
    32
 74
     0
 42
0.00000001
 43
0.00000001
 12
1.0
 22
0.0
 32
0.0
 13
1.0
 23
0.0
 33
0.0
 40
0.0
 40
0.0
 40
0.0
 40
0.0
 40
0.124999999999999
 40
0.124999999999999
 40
0.2499999999999979
 40
0.2499999999999979
 40
0.3124999999999982
 40
0.3124999999999982
 40
0.3749999999999984
 40
0.3749999999999984
 40
0.4062499999999986
 40
0.4062499999999986
 40
0.4374999999999986
 40
0.4374999999999986
 40
0.4687499999999987
 40
0.4687499999999987
 40
0.4999999999999988
 40
0.4999999999999988
 40
0.5624999999999989
 40
0.5624999999999989
 40
0.593749999999999
 40
0.593749999999999
 40
0.6249999999999991
 40
0.6249999999999991
 40
0.6874999999999992
 40
0.6874999999999992
 40
0.7499999999999993
 40
0.7499999999999993
 40
0.8749999999999997
 40
0.8749999999999997
 40
1.0
 40
1.0
 40
1.0
 40
1.0
 10
228.0512174055023
 20
150.1094122065884
 30
0.0
 10
227.5161192008788
 20
150.1251362227078
 30
0.0
 10
226.9817668816454
 20
150.1272347460654
 30
0.0
 10
225.9153195999481
 20
150.0901506877932
 30
0.0
 10
225.3794863353394
 20
150.0518885068598
 30
0.0
 10
224.6007078825361
 20
149.9295496884461
 30
0.0
 10
224.3443597344538
 20
149.8776107504872
 30
0.0
 10
223.8462934887427
 20
149.7354717400223
 30
0.0
 10
223.609108482677
 20
149.6471335179252
 30
0.0
 10
223.2819912435535
 20
149.4662150033874
 30
0.0
 10
223.1796027091256
 20
149.3984815138984
 30
0.0
 10
222.9936647720627
 20
149.2450343680576
 30
0.0
 10
222.9087928644958
 20
149.1578256370715
 30
0.0
 10
222.768355599533
 20
148.9652682399656
 30
0.0
 10
222.7121534826754
 20
148.8594297885448
 30
0.0
 10
222.636026488707
 20
148.6299819303349
 30
0.0
 10
222.6171437215297
 20
148.5105132666535
 30
0.0
 10
222.6207026900338
 20
148.1366413822383
 30
0.0
 10
222.7083801350808
 20
147.8808867987507
 30
0.0
 10
222.9248814825437
 20
147.5478976260186
 30
0.0
 10
223.011318900549
 20
147.4438382079962
 30
0.0
 10
223.1996870028669
 20
147.2558967839855
 30
0.0
 10
223.3025450363454
 20
147.170584949153
 30
0.0
 10
223.6323109805172
 20
146.9361478054751
 30
0.0
 10
223.8701712641383
 20
146.8147044637344
 30
0.0
 10
224.3656795848958
 20
146.6153392728494
 30
0.0
 10
224.6245525231118
 20
146.5378584541485
 30
0.0
 10
225.4004303381611
 20
146.3553980552647
 30
0.0
 10
225.9257023236996
 20
146.2949562263174
 30
0.0
 10
226.9844772723377
 20
146.236195850018
 30
0.0
 10
227.5188310428127
 20
146.2395678989423
 30
0.0
 10
228.0512174055023
 20
146.2647816801683
 30
0.0
  0
LINE
  5
FC
330
1F
100
AcDbEntity
  8
0
  6
HIDDEN
 62
     7
370
     0
100
AcDbLine
 10
250.0512174055
 20
153.4930863939
 30
0.0
 11
250.0512174055
 21
149.2620184702
 31
0.0
  0
LINE
  5
FD
330
1F
100
AcDbEntity
  8
0
  6
HIDDEN
 62
     7
370
     0
100
AcDbLine
 10
145.0792572611
 20
157.5508429513
 30
0.0
 11
145.0792572611
 21
135.9734926821
 31
0.0
  0
LINE
  5
FE
330
1F
100
AcDbEntity
  8
0
  6
HIDDEN
 62
     7
370
     0
100
AcDbLine
 10
141.0792572611
 20
157.9320407977
 30
0.0
 11
141.0792572611
 21
135.5922948356
 31
0.0
  0
LINE
  5
FF
330
1F
100
AcDbEntity
  8
0
  6
HIDDEN
 62
     7
370
     0
100
AcDbLine
 10
140.0512174055
 20
134.9987557482
 30
0.0
 11
140.0512174055
 21
158.5063949826
 31
0.0
  0
LINE
  5
100
330
1F
100
AcDbEntity
  8
0
  6
HIDDEN
 62
     7
370
     0
100
AcDbLine
 10
149.6792572611
 20
157.2621678167
 30
0.0
 11
149.6792572611
 21
136.2621678167
 31
0.0
  0
LINE
  5
101
330
1F
100
AcDbEntity
  8
0
  6
HIDDEN
 62
     7
370
     0
100
AcDbLine
 10
143.5792572611
 20
157.2621678167
 30
0.0
 11
143.5792572611
 21
136.2621678167
 31
0.0
  0
LINE
  5
102
330
1F
100
AcDbEntity
  8
0
  6
HIDDEN
 62
     7
370
     0
100
AcDbLine
 10
144.5792572611
 20
157.2621678167
 30
0.0
 11
144.5792572611
 21
136.2621678167
 31
0.0
  0
LINE
  5
103
330
1F
100
AcDbEntity
  8
0
  6
HIDDEN
 62
     7
370
     0
100
AcDbLine
 10
160.0512174055
 20
156.7621678167
 30
0.0
 11
160.0512174055
 21
136.7621678167
 31
0.0
  0
SPLINE
  5
104
330
1F
100
AcDbEntity
  8
0
  6
HIDDEN
 62
     7
370
     0
100
AcDbSpline
210
0.0
220
0.0
230
1.0
 70
     8
 71
     3
 72
    66
 73
    62
 74
     0
 42
0.00000001
 43
0.00000001
 12
1.0
 22
0.0
 32
0.0
 13
1.0
 23
0.0
 33
0.0
 40
-0.0312499999999999
 40
-0.0312499999999999
 40
0.0
 40
0.0
 40
0.0312499999999998
 40
0.0312499999999998
 40
0.0624999999999996
 40
0.0624999999999996
 40
0.0937499999999995
 40
0.0937499999999995
 40
0.1249999999999993
 40
0.1249999999999993
 40
0.1874999999999991
 40
0.1874999999999991
 40
0.218749999999999
 40
0.218749999999999
 40
0.249999999999999
 40
0.249999999999999
 40
0.281249999999999
 40
0.281249999999999
 40
0.3124999999999989
 40
0.3124999999999989
 40
0.3437499999999989
 40
0.3437499999999989
 40
0.3749999999999989
 40
0.3749999999999989
 40
0.4062499999999989
 40
0.4062499999999989
 40
0.4374999999999989
 40
0.4374999999999989
 40
0.4687499999999989
 40
0.4687499999999989
 40
0.4999999999999989
 40
0.4999999999999989
 40
0.5312499999999988
 40
0.5312499999999988
 40
0.5624999999999988
 40
0.5624999999999988
 40
0.5937499999999987
 40
0.5937499999999987
 40
0.6249999999999988
 40
0.6249999999999988
 40
0.656249999999999
 40
0.656249999999999
 40
0.6874999999999991
 40
0.6874999999999991
 40
0.7187499999999993
 40
0.7187499999999993
 40
0.7499999999999994
 40
0.7499999999999994
 40
0.7812499999999996
 40
0.7812499999999996
 40
0.8124999999999998
 40
0.8124999999999998
 40
0.875
 40
0.875
 40
0.9062500000000002
 40
0.9062500000000002
 40
0.9375000000000001
 40
0.9375000000000001
 40
0.9687500000000001
 40
0.9687500000000001
 40
1.0
 40
1.0
 40
1.03125
 40
1.03125
 10
155.8485387585545
 20
149.8121678166559
 30
0.0
 10
156.2538960524501
 20
149.8121678166559
 30
0.0
 10
156.452955943786
 20
149.7921682570393
 30
0.0
 10
156.8442099283657
 20
149.7140247543391
 30
0.0
 10
157.0384826871133
 20
149.6548636528184
 30
0.0
 10
157.4072461136646
 20
149.501431965924
 30
0.0
 10
157.5819712720429
 20
149.4077051560818
 30
0.0
 10
157.9126485755767
 20
149.186451053677
 30
0.0
 10
158.0682961195796
 20
149.0584696866824
 30
0.0
 10
158.4877634892482
 20
148.6389145896823
 30
0.0
 10
158.7146516307785
 20
148.3004360309789
 30
0.0
 10
158.9434482541632
 20
147.7505571432607
 30
0.0
 10
159.0026405090121
 20
147.5571572975173
 30
0.0
 10
159.0814479192726
 20
147.1629291471594
 30
0.0
 10
159.101087335553
 20
146.964290319727
 30
0.0
 10
159.1013461999746
 20
146.5639900338286
 30
0.0
 10
159.0812755153417
 20
146.3606507071075
 30
0.0
 10
159.0029378327118
 20
145.9685591865
 30
0.0
 10
158.9449880646733
 20
145.7778533181848
 30
0.0
 10
158.7910449227933
 20
145.4071295015982
 30
0.0
 10
158.6961063090706
 20
145.2304028417894
 30
0.0
 10
158.4757488931934
 20
144.901149730865
 30
0.0
 10
158.3484688672652
 20
144.7460285072685
 30
0.0
 10
158.0667132759346
 20
144.4643518123382
 30
0.0
 10
157.9139249464771
 20
144.3389186274338
 30
0.0
 10
157.5844978643202
 20
144.1181430340797
 30
0.0
 10
157.4059518611685
 20
144.0223117813795
 30
0.0
 10
157.0383795356183
 20
143.8694826508844
 30
0.0
 10
156.8482255089073
 20
143.8113108929402
 30
0.0
 10
156.4546850862048
 20
143.7323176005953
 30
0.0
 10
156.2522510149437
 20
143.712254474953
 30
0.0
 10
155.8528219395783
 20
143.7120817288342
 30
0.0
 10
155.6528029610224
 20
143.7315651029236
 30
0.0
 10
155.256687013573
 20
143.8105566745247
 30
0.0
 10
155.0659541853812
 20
143.8688368943767
 30
0.0
 10
154.6983227448015
 20
144.0214045149847
 30
0.0
 10
154.5198363126337
 20
144.117013301758
 30
0.0
 10
154.1896310536696
 20
144.338025346843
 30
0.0
 10
154.0367424756077
 20
144.4634752456132
 30
0.0
 10
153.7551460810696
 20
144.7447057346185
 30
0.0
 10
153.6275151581941
 20
144.9000886125324
 30
0.0
 10
153.4071897231943
 20
145.2289394705754
 30
0.0
 10
153.312963266229
 20
145.4038275769894
 30
0.0
 10
153.1580287456258
 20
145.7759714283502
 30
0.0
 10
153.1000164600236
 20
145.9667774701591
 30
0.0
 10
153.0215972057455
 20
146.3576504880779
 30
0.0
 10
153.0012831257789
 20
146.5601080494602
 30
0.0
 10
153.0011520094749
 20
146.9622386543796
 30
0.0
 10
153.0207767028343
 20
147.1609626995547
 30
0.0
 10
153.0989431532479
 20
147.5538021706914
 30
0.0
 10
153.1582305985879
 20
147.7484464480939
 30
0.0
 10
153.3873114416708
 20
148.2998862015082
 30
0.0
 10
153.6141422925649
 20
148.6382257672073
 30
0.0
 10
154.0334809938856
 20
149.0578914298588
 30
0.0
 10
154.1888339896356
 20
149.1857374356321
 30
0.0
 10
154.5198018227728
 20
149.4073385103339
 30
0.0
 10
154.6943631229692
 20
149.5009792443108
 30
0.0
 10
155.0619364305439
 20
149.6541333650101
 30
0.0
 10
155.256623292182
 20
149.7136371106561
 30
0.0
 10
155.6490992421185
 20
149.7921598597191
 30
0.0
 10
155.8485387585545
 20
149.8121678166559
 30
0.0
 10
156.2538960524501
 20
149.8121678166559
 30
0.0
  0
SPLINE
  5
105
330
1F
100
AcDbEntity
  8
0
  6
HIDDEN
 62
     7
370
     0
100
AcDbSpline
210
0.0
220
0.0
230
1.0
 70
     8
 71
     3
 72
    66
 73
    62
 74
     0
 42
0.00000001
 43
0.00000001
 12
1.0
 22
0.0
 32
0.0
 13
1.0
 23
0.0
 33
0.0
 40
-0.0312500000000002
 40
-0.0312500000000002
 40
0.0
 40
0.0
 40
0.0312499999999999
 40
0.0312499999999999
 40
0.0624999999999997
 40
0.0624999999999997
 40
0.0937499999999996
 40
0.0937499999999996
 40
0.1249999999999995
 40
0.1249999999999995
 40
0.1874999999999992
 40
0.1874999999999992
 40
0.2187499999999991
 40
0.2187499999999991
 40
0.2499999999999989
 40
0.2499999999999989
 40
0.2812499999999988
 40
0.2812499999999988
 40
0.3124999999999987
 40
0.3124999999999987
 40
0.3437499999999986
 40
0.3437499999999986
 40
0.3749999999999984
 40
0.3749999999999984
 40
0.4062499999999983
 40
0.4062499999999983
 40
0.4374999999999984
 40
0.4374999999999984
 40
0.4687499999999984
 40
0.4687499999999984
 40
0.4999999999999986
 40
0.4999999999999986
 40
0.5312499999999987
 40
0.5312499999999987
 40
0.5624999999999988
 40
0.5624999999999988
 40
0.5937499999999988
 40
0.5937499999999988
 40
0.6249999999999989
 40
0.6249999999999989
 40
0.656249999999999
 40
0.656249999999999
 40
0.6874999999999991
 40
0.6874999999999991
 40
0.7187499999999992
 40
0.7187499999999992
 40
0.7499999999999992
 40
0.7499999999999992
 40
0.7812499999999993
 40
0.7812499999999993
 40
0.8124999999999994
 40
0.8124999999999994
 40
0.8749999999999996
 40
0.8749999999999996
 40
0.9062499999999997
 40
0.9062499999999997
 40
0.9374999999999997
 40
0.9374999999999997
 40
0.9687499999999998
 40
0.9687499999999998
 40
1.0
 40
1.0
 40
1.03125
 40
1.03125
 10
156.2538960524501
 20
149.8121678166559
 30
0.0
 10
155.8485387585545
 20
149.8121678166559
 30
0.0
 10
155.6494788672187
 20
149.7921682570393
 30
0.0
 10
155.258224882639
 20
149.7140247543391
 30
0.0
 10
155.0639521238913
 20
149.6548636528184
 30
0.0
 10
154.69518869734
 20
149.501431965924
 30
0.0
 10
154.5204635389618
 20
149.4077051560818
 30
0.0
 10
154.189786235428
 20
149.186451053677
 30
0.0
 10
154.0341386914251
 20
149.0584696866824
 30
0.0
 10
153.6146713217565
 20
148.6389145896823
 30
0.0
 10
153.3877831802262
 20
148.3004360309789
 30
0.0
 10
153.1589865568414
 20
147.7505571432607
 30
0.0
 10
153.0997943019925
 20
147.5571572975173
 30
0.0
 10
153.020986891732
 20
147.1629291471594
 30
0.0
 10
153.0013474754516
 20
146.964290319727
 30
0.0
 10
153.00108861103
 20
146.5639900338286
 30
0.0
 10
153.021159295663
 20
146.3606507071075
 30
0.0
 10
153.099496978293
 20
145.9685591865
 30
0.0
 10
153.1574467463314
 20
145.7778533181848
 30
0.0
 10
153.3113898882114
 20
145.4071295015982
 30
0.0
 10
153.4063285019341
 20
145.2304028417893
 30
0.0
 10
153.6266859178112
 20
144.901149730865
 30
0.0
 10
153.7539659437395
 20
144.7460285072685
 30
0.0
 10
154.0357215350701
 20
144.4643518123382
 30
0.0
 10
154.1885098645276
 20
144.3389186274338
 30
0.0
 10
154.5179369466845
 20
144.1181430340797
 30
0.0
 10
154.6964829498362
 20
144.0223117813795
 30
0.0
 10
155.0640552753864
 20
143.8694826508844
 30
0.0
 10
155.2542093020974
 20
143.8113108929402
 30
0.0
 10
155.6477497247998
 20
143.7323176005953
 30
0.0
 10
155.850183796061
 20
143.712254474953
 30
0.0
 10
156.2496128714264
 20
143.7120817288342
 30
0.0
 10
156.4496318499823
 20
143.7315651029236
 30
0.0
 10
156.8457477974317
 20
143.8105566745247
 30
0.0
 10
157.0364806256235
 20
143.8688368943767
 30
0.0
 10
157.4041120662032
 20
144.0214045149847
 30
0.0
 10
157.582598498371
 20
144.117013301758
 30
0.0
 10
157.912803757335
 20
144.338025346843
 30
0.0
 10
158.065692335397
 20
144.4634752456132
 30
0.0
 10
158.347288729935
 20
144.7447057346185
 30
0.0
 10
158.4749196528105
 20
144.9000886125324
 30
0.0
 10
158.6952450878103
 20
145.2289394705754
 30
0.0
 10
158.7894715447757
 20
145.4038275769894
 30
0.0
 10
158.9444060653788
 20
145.7759714283502
 30
0.0
 10
159.0024183509811
 20
145.9667774701591
 30
0.0
 10
159.0808376052592
 20
146.3576504880779
 30
0.0
 10
159.1011516852257
 20
146.5601080494602
 30
0.0
 10
159.1012828015297
 20
146.9622386543796
 30
0.0
 10
159.0816581081704
 20
147.1609626995547
 30
0.0
 10
159.0034916577567
 20
147.5538021706914
 30
0.0
 10
158.9442042124168
 20
147.7484464480939
 30
0.0
 10
158.7151233693339
 20
148.2998862015082
 30
0.0
 10
158.4882925184397
 20
148.6382257672073
 30
0.0
 10
158.0689538171191
 20
149.0578914298588
 30
0.0
 10
157.9136008213691
 20
149.1857374356321
 30
0.0
 10
157.5826329882319
 20
149.4073385103339
 30
0.0
 10
157.4080716880356
 20
149.5009792443108
 30
0.0
 10
157.0404983804607
 20
149.6541333650101
 30
0.0
 10
156.8458115188226
 20
149.7136371106561
 30
0.0
 10
156.4533355688862
 20
149.7921598597191
 30
0.0
 10
156.2538960524501
 20
149.8121678166559
 30
0.0
 10
155.8485387585545
 20
149.8121678166559
 30
0.0
  0
LINE
  5
106
330
1F
100
AcDbEntity
  8
0
  6
HIDDEN
 62
     7
370
     0
100
AcDbLine
 10
161.0512174055
 20
154.0121678167
 30
0.0
 11
161.0512174055
 21
139.5121678167
 31
0.0
  0
LINE
  5
107
330
1F
100
AcDbEntity
  8
0
  6
HIDDEN
 62
     7
370
     0
100
AcDbLine
 10
160.0512174055
 20
138.5121678167
 30
0.0
 11
160.0512174055
 21
155.0121678167
 31
0.0
  0
LINE
  5
108
330
1F
100
AcDbEntity
  8
0
  6
HIDDEN
 62
     7
370
     0
100
AcDbLine
 10
185.0512174055
 20
154.0121678167
 30
0.0
 11
185.0512174055
 21
139.5121678167
 31
0.0
  0
LINE
  5
109
330
1F
100
AcDbEntity
  8
0
  6
HIDDEN
 62
     7
370
     0
100
AcDbLine
 10
186.8537992626
 20
151.0121678167
 30
0.0
 11
186.8537992626
 21
142.5121678167
 31
0.0
  0
LINE
  5
10A
330
1F
100
AcDbEntity
  8
0
  6
HIDDEN
 62
     7
370
     0
100
AcDbLine
 10
193.0512174055
 20
176.7621678167
 30
0.0
 11
193.0512174055
 21
156.7621678167
 31
0.0
  0
LINE
  5
10B
330
1F
100
AcDbEntity
  8
0
  6
HIDDEN
 62
     7
370
     0
100
AcDbLine
 10
193.0512174055
 20
156.7621678167
 30
0.0
 11
201.5512174055
 21
156.7621678167
 31
0.0
  0
LINE
  5
10C
330
1F
100
AcDbEntity
  8
0
  6
HIDDEN
 62
     7
370
     0
100
AcDbLine
 10
201.5512174055
 20
176.7621678167
 30
0.0
 11
201.5512174055
 21
156.7621678167
 31
0.0
  0
LINE
  5
10D
330
1F
100
AcDbEntity
  8
0
  6
HIDDEN
 62
     7
370
     0
100
AcDbLine
 10
201.5512174055
 20
176.7621678167
 30
0.0
 11
193.0512174055
 21
176.7621678167
 31
0.0
  0
LINE
  5
10E
330
1F
100
AcDbEntity
  8
0
  6
HIDDEN
 62
     7
370
     0
100
AcDbLine
 10
228.0512174055
 20
142.5121678167
 30
0.0
 11
228.0512174055
 21
151.0121678167
 31
0.0
  0
LINE
  5
10F
330
1F
100
AcDbEntity
  8
0
  6
HIDDEN
 62
     7
370
     0
100
AcDbLine
 10
201.5512174055
 20
156.7621678167
 30
0.0
 11
258.0512174055
 21
156.7621678167
 31
0.0
  0
CIRCLE
  5
110
330
1F
100
AcDbEntity
  8
0
  6
HIDDEN
 62
     7
370
     0
100
AcDbCircle
 10
250.0512174055
 20
166.7621678167
 30
0.0
 40
4.25
  0
CIRCLE
  5
111
330
1F
100
AcDbEntity
  8
0
  6
HIDDEN
 62
     7
370
     0
100
AcDbCircle
 10
210.0512174055
 20
166.7621678167
 30
0.0
 40
4.25
  0
CIRCLE
  5
112
330
1F
100
AcDbEntity
  8
0
  6
HIDDEN
 62
     7
370
     0
100
AcDbCircle
 10
230.0512174055
 20
166.7621678167
 30
0.0
 40
4.25
  0
LINE
  5
113
330
1F
100
AcDbEntity
  8
0
  6
HIDDEN
 62
     7
370
     0
100
AcDbLine
 10
257.0512174055
 20
176.7621678167
 30
0.0
 11
258.0512174055
 21
175.7621678167
 31
0.0
  0
LINE
  5
114
330
1F
100
AcDbEntity
  8
0
  6
HIDDEN
 62
     7
370
     0
100
AcDbLine
 10
257.0512174055
 20
176.7621678167
 30
0.0
 11
201.5512174055
 21
176.7621678167
 31
0.0
  0
LINE
  5
115
330
1F
100
AcDbEntity
  8
0
  6
HIDDEN
 62
     7
370
     0
100
AcDbLine
 10
258.0512174055
 20
175.7621678167
 30
0.0
 11
258.0512174055
 21
156.7621678167
 31
0.0
  0
LINE
  5
116
330
1F
100
AcDbEntity
  8
0
  6
HIDDEN
 62
     7
370
     0
100
AcDbLine
 10
141.5512174055
 20
163.6215190586
 30
0.0
 11
141.5512174055
 21
158.8117403421
 31
0.0
  0
LINE
  5
117
330
1F
100
AcDbEntity
  8
0
  6
HIDDEN
 62
     7
370
     0
100
AcDbLine
 10
140.0512174055
 20
162.7554936548
 30
0.0
 11
140.0512174055
 21
158.3787276402
 31
0.0
  0
LINE
  5
118
330
1F
100
AcDbEntity
  8
0
  6
HIDDEN
 62
     7
370
     0
100
AcDbLine
 10
167.8512174055
 20
164.2822666012
 30
0.0
 11
167.8512174055
 21
159.1421141134
 31
0.0
  0
SPLINE
  5
119
330
1F
100
AcDbEntity
  8
0
  6
HIDDEN
 62
     7
370
     0
100
AcDbSpline
210
0.0
220
0.0
230
1.0
 70
     8
 71
     3
 72
    18
 73
    14
 74
     0
 42
0.00000001
 43
0.00000001
 12
1.0
 22
0.0
 32
0.0
 13
1.0
 23
0.0
 33
0.0
 40
0.0
 40
0.0
 40
0.0
 40
0.0
 40
0.2499999999999999
 40
0.2499999999999999
 40
0.3749999999999998
 40
0.3749999999999998
 40
0.4999999999999998
 40
0.4999999999999998
 40
0.6249999999999998
 40
0.6249999999999998
 40
0.7499999999999997
 40
0.7499999999999997
 40
1.0
 40
1.0
 40
1.0
 40
1.0
 10
168.7298970619427
 20
133.6671210931234
 30
0.0
 10
168.5946114556404
 20
133.0829194993918
 30
0.0
 10
168.4934437093974
 20
132.5487018121836
 30
0.0
 10
168.3905823665285
 20
131.8228050412952
 30
0.0
 10
168.3644795210052
 20
131.5929245535153
 30
0.0
 10
168.3295895374604
 20
131.1623536087285
 30
0.0
 10
168.3210032791704
 20
130.9646587032343
 30
0.0
 10
168.3209035696047
 20
130.6033106605565
 30
0.0
 10
168.3293919407533
 20
130.4396606506104
 30
0.0
 10
168.3635353202739
 20
130.1464493776414
 30
0.0
 10
168.3893323021277
 20
130.0164533115256
 30
0.0
 10
168.4927334335156
 20
129.6823974189637
 30
0.0
 10
168.594591425687
 20
129.5366212545989
 30
0.0
 10
168.7298970619427
 20
129.465257948651
 30
0.0
  0
LINE
  5
11A
330
1F
100
AcDbEntity
  8
0
  6
HIDDEN
 62
     7
370
     0
100
AcDbLine
 10
167.8512174055
 20
134.3822215199
 30
0.0
 11
167.8512174055
 21
129.2420690321
 31
0.0
  0
SPLINE
  5
11B
330
1F
100
AcDbEntity
  8
0
  6
HIDDEN
 62
     7
370
     0
100
AcDbSpline
210
0.0
220
0.0
230
1.0
 70
     8
 71
     3
 72
    18
 73
    14
 74
     0
 42
0.00000001
 43
0.00000001
 12
1.0
 22
0.0
 32
0.0
 13
1.0
 23
0.0
 33
0.0
 40
0.0
 40
0.0
 40
0.0
 40
0.0
 40
0.2500000000000005
 40
0.2500000000000005
 40
0.3750000000000004
 40
0.3750000000000004
 40
0.5000000000000003
 40
0.5000000000000003
 40
0.6250000000000002
 40
0.6250000000000002
 40
0.7500000000000001
 40
0.7500000000000001
 40
1.0
 40
1.0
 40
1.0
 40
1.0
 10
168.7298970619427
 20
164.0590776846607
 30
0.0
 10
168.5946114556404
 20
163.9877249429711
 30
0.0
 10
168.4934437093974
 20
163.8423215363817
 30
0.0
 10
168.3905823665285
 20
163.5128543007761
 30
0.0
 10
168.3644795210052
 20
163.3839207239714
 30
0.0
 10
168.3295895374604
 20
163.0883787246352
 30
0.0
 10
168.3210032791704
 20
162.9239839511133
 30
0.0
 10
168.3209035696047
 20
162.5630223363727
 30
0.0
 10
168.3293919407533
 20
162.3664525442105
 30
0.0
 10
168.3635353202739
 20
161.9410977480855
 30
0.0
 10
168.3893323021277
 20
161.7113280982859
 30
0.0
 10
168.4927334335156
 20
160.9787394038535
 30
0.0
 10
168.594591425687
 20
160.4415026289359
 30
0.0
 10
168.7298970619427
 20
159.8572145401883
 30
0.0
  0
LINE
  5
11C
330
1F
100
AcDbEntity
  8
0
  6
HIDDEN
 62
     7
370
     0
100
AcDbLine
 10
141.5512174055
 20
134.7125952912
 30
0.0
 11
141.5512174055
 21
129.9028165747
 31
0.0
  0
LINE
  5
11D
330
1F
100
AcDbEntity
  8
0
  6
HIDDEN
 62
     7
370
     0
100
AcDbLine
 10
140.0512174055
 20
135.1456079931
 30
0.0
 11
140.0512174055
 21
130.7688419785
 31
0.0
  0
LINE
  5
11E
330
1F
100
AcDbEntity
  8
0
  6
HIDDEN
 62
     7
370
     0
100
AcDbLine
 10
140.0512174055
 20
158.3787276402
 30
0.0
 11
140.0512174055
 21
149.1013387449
 31
0.0
  0
LINE
  5
11F
330
1F
100
AcDbEntity
  8
0
  6
HIDDEN
 62
     7
370
     0
100
AcDbLine
 10
140.0512174055
 20
144.4229968884
 30
0.0
 11
140.0512174055
 21
135.1456079931
 31
0.0
  0
LINE
  5
120
330
1F
100
AcDbEntity
  8
0
  6
HIDDEN
 62
     7
370
     0
100
AcDbLine
 10
141.5512174055
 20
143.6136906983
 30
0.0
 11
141.5512174055
 21
134.7125952912
 31
0.0
  0
LINE
  5
121
330
1F
100
AcDbEntity
  8
0
  6
HIDDEN
 62
     7
370
     0
100
AcDbLine
 10
141.5512174055
 20
158.8117403421
 30
0.0
 11
141.5512174055
 21
149.910644935
 31
0.0
  0
LINE
  5
122
330
1F
100
AcDbEntity
  8
0
  6
HIDDEN
 62
     7
370
     0
100
AcDbLine
 10
167.8512174055
 20
159.1421141134
 30
0.0
 11
167.8512174055
 21
134.3822215199
 31
0.0
  0
LINE
  5
123
330
1F
100
AcDbEntity
  8
0
  6
HIDDEN
 62
     7
370
     0
100
AcDbLine
 10
169.8512174055
 20
158.3244420498
 30
0.0
 11
169.8512174055
 21
135.1998935836
 31
0.0
  0
SPLINE
  5
124
330
1F
100
AcDbEntity
  8
0
  6
HIDDEN
 62
     7
370
     0
100
AcDbSpline
210
0.0
220
0.0
230
1.0
 70
     8
 71
     3
 72
    26
 73
    22
 74
     0
 42
0.00000001
 43
0.00000001
 12
1.0
 22
0.0
 32
0.0
 13
1.0
 23
0.0
 33
0.0
 40
0.0
 40
0.0
 40
0.0
 40
0.0
 40
0.1250000000000002
 40
0.1250000000000002
 40
0.2500000000000005
 40
0.2500000000000005
 40
0.3750000000000006
 40
0.3750000000000006
 40
0.4375000000000007
 40
0.4375000000000007
 40
0.5000000000000008
 40
0.5000000000000008
 40
0.5625000000000009
 40
0.5625000000000009
 40
0.625000000000001
 40
0.625000000000001
 40
0.7500000000000007
 40
0.7500000000000007
 40
0.8750000000000004
 40
0.8750000000000004
 40
1.0
 40
1.0
 40
1.0
 40
1.0
 10
145.5512174055024
 20
143.5436700562068
 30
0.0
 10
145.7618607675023
 20
143.7782870871519
 30
0.0
 10
145.9690572052593
 20
144.0161702231113
 30
0.0
 10
146.3705563398917
 20
144.5034845293802
 30
0.0
 10
146.5658327589377
 20
144.7536097541692
 30
0.0
 10
146.9256132516331
 20
145.2721998996201
 30
0.0
 10
147.0908721117825
 20
145.539630883507
 30
0.0
 10
147.2835300212086
 20
145.9710460159055
 30
0.0
 10
147.3384947614187
 20
146.1210648978299
 30
0.0
 10
147.4162305463829
 20
146.4338020765599
 30
0.0
 10
147.4374966846911
 20
146.5915563233671
 30
0.0
 10
147.4393906139769
 20
146.9102616032129
 30
0.0
 10
147.4191648769098
 20
147.0726984033934
 30
0.0
 10
147.344700466624
 20
147.3836504029761
 30
0.0
 10
147.2910613408781
 20
147.5343216413038
 30
0.0
 10
147.0963170354774
 20
147.9764053992724
 30
0.0
 10
146.9292669222991
 20
148.2464494124401
 30
0.0
 10
146.5690108035955
 20
148.7665570407215
 30
0.0
 10
146.3742584285751
 20
149.0162182535312
 30
0.0
 10
145.9712492041028
 20
149.5056423653739
 30
0.0
 10
145.7628126857393
 20
149.7449882885379
 30
0.0
 10
145.5512174055033
 20
149.9806655771058
 30
0.0
  0
LINE
  5
125
330
1F
100
AcDbEntity
  8
0
  6
HIDDEN
 62
     7
370
     0
100
AcDbLine
 10
145.5512174055
 20
143.5436700562
 30
0.0
 11
145.5512174055
 21
149.9806655771
 31
0.0
  0
SPLINE
  5
126
330
1F
100
AcDbEntity
  8
0
  6
HIDDEN
 62
     7
370
     0
100
AcDbSpline
210
0.0
220
0.0
230
1.0
 70
     8
 71
     3
 72
     8
 73
     4
 74
     0
 42
0.00000001
 43
0.00000001
 12
1.0
 22
0.0
 32
0.0
 13
1.0
 23
0.0
 33
0.0
 40
0.0000202085968836
 40
0.0000202085968836
 40
0.0000202085968836
 40
0.0000202085968836
 40
0.0040218806502652
 40
0.0040218806502652
 40
0.0040218806502652
 40
0.0040218806502652
 10
141.5512174055023
 20
143.6136906983191
 30
0.0
 10
142.884540531293
 20
143.5896924671555
 30
0.0
 10
144.2178744045156
 20
143.5663647269872
 30
0.0
 10
145.5512174055024
 20
143.5436700562068
 30
0.0
  0
SPLINE
  5
127
330
1F
100
AcDbEntity
  8
0
  6
HIDDEN
 62
     7
370
     0
100
AcDbSpline
210
0.0
220
0.0
230
1.0
 70
     8
 71
     3
 72
     8
 73
     4
 74
     0
 42
0.00000001
 43
0.00000001
 12
1.0
 22
0.0
 32
0.0
 13
1.0
 23
0.0
 33
0.0
 40
0.0000202082942178
 40
0.0000202082942178
 40
0.0000202082942178
 40
0.0000202082942178
 40
0.0040218803475995
 40
0.0040218803475995
 40
0.0040218803475995
 40
0.0040218803475995
 10
145.5512174055024
 20
149.980665577105
 30
0.0
 10
144.2178744045156
 20
149.9579709063245
 30
0.0
 10
142.884540531293
 20
149.9346431661562
 30
0.0
 10
141.5512174055023
 20
149.9106449349926
 30
0.0
  0
SPLINE
  5
128
330
1F
100
AcDbEntity
  8
0
  6
HIDDEN
 62
     7
370
     0
100
AcDbSpline
210
0.0
220
0.0
230
1.0
 70
     8
 71
     3
 72
     8
 73
     4
 74
     0
 42
0.00000001
 43
0.00000001
 12
1.0
 22
0.0
 32
0.0
 13
1.0
 23
0.0
 33
0.0
 40
0.0
 40
0.0
 40
0.0
 40
0.0
 40
1.0
 40
1.0
 40
1.0
 40
1.0
 10
140.0512174055014
 20
144.4229968884215
 30
0.0
 10
140.5254288159394
 20
144.0882676611264
 30
0.0
 10
141.0301651630413
 20
143.8292092472934
 30
0.0
 10
141.5512174055023
 20
143.6136906983191
 30
0.0
  0
SPLINE
  5
129
330
1F
100
AcDbEntity
  8
0
  6
HIDDEN
 62
     7
370
     0
100
AcDbSpline
210
0.0
220
0.0
230
1.0
 70
     8
 71
     3
 72
     8
 73
     4
 74
     0
 42
0.00000001
 43
0.00000001
 12
1.0
 22
0.0
 32
0.0
 13
1.0
 23
0.0
 33
0.0
 40
0.0
 40
0.0
 40
0.0
 40
0.0
 40
1.0
 40
1.0
 40
1.0
 40
1.0
 10
141.5512174055023
 20
149.9106449349926
 30
0.0
 10
141.0301651630416
 20
149.6951263860184
 30
0.0
 10
140.52542881594
 20
149.4360679721857
 30
0.0
 10
140.0512174055023
 20
149.1013387448909
 30
0.0
  0
LINE
  5
12A
330
1F
100
AcDbEntity
  8
0
  6
HIDDEN
 62
     7
370
     0
100
AcDbLine
 10
140.0512174055
 20
144.4229968884
 30
0.0
 11
140.0512174055
 21
149.1013387449
 31
0.0
  0
SPLINE
  5
12B
330
1F
100
AcDbEntity
  8
0
  6
HIDDEN
 62
     7
370
     0
100
AcDbSpline
210
0.0
220
0.0
230
1.0
 70
     8
 71
     3
 72
    68
 73
    64
 74
     0
 42
0.00000001
 43
0.00000001
 12
1.0
 22
0.0
 32
0.0
 13
1.0
 23
0.0
 33
0.0
 40
-0.0312500000000001
 40
-0.0312500000000001
 40
0.0
 40
0.0
 40
0.0312499999999999
 40
0.0312499999999999
 40
0.0624999999999999
 40
0.0624999999999999
 40
0.0937499999999998
 40
0.0937499999999998
 40
0.1249999999999998
 40
0.1249999999999998
 40
0.1874999999999996
 40
0.1874999999999996
 40
0.2187499999999996
 40
0.2187499999999996
 40
0.2499999999999995
 40
0.2499999999999995
 40
0.2812499999999994
 40
0.2812499999999994
 40
0.3124999999999994
 40
0.3124999999999994
 40
0.3437499999999993
 40
0.3437499999999993
 40
0.3749999999999992
 40
0.3749999999999992
 40
0.4062499999999992
 40
0.4062499999999992
 40
0.4374999999999991
 40
0.4374999999999991
 40
0.4687499999999991
 40
0.4687499999999991
 40
0.499999999999999
 40
0.499999999999999
 40
0.5312499999999989
 40
0.5312499999999989
 40
0.5624999999999989
 40
0.5624999999999989
 40
0.5937499999999988
 40
0.5937499999999988
 40
0.6249999999999988
 40
0.6249999999999988
 40
0.6562499999999987
 40
0.6562499999999987
 40
0.6874999999999987
 40
0.6874999999999987
 40
0.7187499999999986
 40
0.7187499999999986
 40
0.7499999999999987
 40
0.7499999999999987
 40
0.7812499999999989
 40
0.7812499999999989
 40
0.812499999999999
 40
0.812499999999999
 40
0.8437499999999992
 40
0.8437499999999992
 40
0.8749999999999993
 40
0.8749999999999993
 40
0.9062499999999996
 40
0.9062499999999996
 40
0.9374999999999997
 40
0.9374999999999997
 40
0.9687499999999999
 40
0.9687499999999999
 40
1.0
 40
1.0
 40
1.03125
 40
1.03125
 10
153.4350436928388
 20
148.6589853932725
 30
0.0
 10
153.7255081751306
 20
148.977417634273
 30
0.0
 10
153.8844244735121
 20
149.1199351599767
 30
0.0
 10
154.2280051591499
 20
149.3736496970664
 30
0.0
 10
154.4141765120556
 20
149.4852135235754
 30
0.0
 10
154.7987065846414
 20
149.6694625602444
 30
0.0
 10
154.9983170868061
 20
149.7433768263332
 30
0.0
 10
155.4121566717796
 20
149.8550187158934
 30
0.0
 10
155.6249664814509
 20
149.8919427701822
 30
0.0
 10
156.2608979557916
 20
149.9445445907577
 30
0.0
 10
156.6959641764193
 20
149.9023362000975
 30
0.0
 10
157.308207043407
 20
149.7285015949021
 30
0.0
 10
157.508052131519
 20
149.6518833670901
 30
0.0
 10
157.8924294402471
 20
149.4617084987471
 30
0.0
 10
158.0729778311097
 20
149.3503490645285
 30
0.0
 10
158.4110377588192
 20
149.0952437958062
 30
0.0
 10
158.5700695752305
 20
148.9497380076135
 30
0.0
 10
158.8548662554529
 20
148.6314993534406
 30
0.0
 10
158.9798117843278
 20
148.4604470349215
 30
0.0
 10
159.1941139247415
 20
148.0938864488084
 30
0.0
 10
159.2840127039162
 20
147.8958177150057
 30
0.0
 10
159.4176649930452
 20
147.4912349617963
 30
0.0
 10
159.4626729283592
 20
147.2836197817792
 30
0.0
 10
159.5074524089766
 20
146.8573300253504
 30
0.0
 10
159.5063787479608
 20
146.640691727402
 30
0.0
 10
159.4583589542453
 20
146.2177317004447
 30
0.0
 10
159.4109459770205
 20
146.0067350151853
 30
0.0
 10
159.2726307282038
 20
145.6009462997535
 30
0.0
 10
159.1829498699816
 20
145.407999641091
 30
0.0
 10
158.9642671596544
 20
145.0410930181075
 30
0.0
 10
158.8348194418258
 20
144.8675878698855
 30
0.0
 10
158.5483138377963
 20
144.5535857718948
 30
0.0
 10
158.3894550195583
 20
144.4104828454405
 30
0.0
 10
158.0444571976054
 20
144.1551519295875
 30
0.0
 10
157.8622400934851
 20
144.045619751987
 30
0.0
 10
157.4794000168461
 20
143.8606929251987
 30
0.0
 10
157.2766557917729
 20
143.7848770983573
 30
0.0
 10
156.8648272173096
 20
143.6722966061152
 30
0.0
 10
156.65560844071
 20
143.6349563865305
 30
0.0
 10
156.2306156064756
 20
143.5977253670004
 30
0.0
 10
156.0134583294024
 20
143.598291330932
 30
0.0
 10
155.5890804902492
 20
143.6376890348214
 30
0.0
 10
155.3799638423995
 20
143.6761182694557
 30
0.0
 10
154.9680228535055
 20
143.791323303993
 30
0.0
 10
154.7654547486125
 20
143.8685882344975
 30
0.0
 10
154.3838543061451
 20
144.0562705046294
 30
0.0
 10
154.2025433702659
 20
144.1671838564414
 30
0.0
 10
153.8599514733319
 20
144.4251372951722
 30
0.0
 10
153.7011278563777
 20
144.5708529907816
 30
0.0
 10
153.4180830772774
 20
144.8871741484911
 30
0.0
 10
153.2920731452915
 20
145.0592078598903
 30
0.0
 10
153.0749661014766
 20
145.4317504378793
 30
0.0
 10
152.9875308052027
 20
145.6258722231533
 30
0.0
 10
152.8543375246552
 20
146.0296469522328
 30
0.0
 10
152.8084369425506
 20
146.2421438788404
 30
0.0
 10
152.7641204016167
 20
146.6677397396985
 30
0.0
 10
152.7649625890992
 20
146.8805735779677
 30
0.0
 10
152.8128012835201
 20
147.3063133077976
 30
0.0
 10
152.8603371389893
 20
147.5180754732108
 30
0.0
 10
152.9970757342172
 20
147.9215650076681
 30
0.0
 10
153.0873592794929
 20
148.1173236286211
 30
0.0
 10
153.3070701717579
 20
148.4869238553693
 30
0.0
 10
153.4350436928388
 20
148.6589853932725
 30
0.0
 10
153.7255081751306
 20
148.977417634273
 30
0.0
  0
CIRCLE
  5
12C
330
1F
100
AcDbEntity
  8
0
  6
HIDDEN
 62
     7
370
     0
100
AcDbCircle
 10
156.0512174055
 20
146.7621678167
 30
0.0
 40
3.050000000000011
  0
LINE
  5
12D
330
1F
100
AcDbEntity
  8
0
  6
HIDDEN
 62
     7
370
     0
100
AcDbLine
 10
201.5512174055
 20
156.7621678167
 30
0.0
 11
193.0512174055
 21
156.7621678167
 31
0.0
  0
LINE
  5
12E
330
1F
100
AcDbEntity
  8
0
  6
HIDDEN
 62
     7
370
     0
100
AcDbLine
 10
193.0512174055
 20
176.7621678167
 30
0.0
 11
201.5512174055
 21
176.7621678167
 31
0.0
  0
LINE
  5
12F
330
1F
100
AcDbEntity
  8
0
  6
HIDDEN
 62
     7
370
     0
100
AcDbLine
 10
258.0512174055
 20
140.9886651248
 30
0.0
 11
258.0512174055
 21
156.7621678167
 31
0.0
  0
LINE
  5
130
330
1F
100
AcDbEntity
  8
0
  6
HIDDEN
 62
     7
370
     0
100
AcDbLine
 10
191.0512174055
 20
120.7621678167
 30
0.0
 11
223.0178964087
 21
120.7621678167
 31
0.0
  0
LINE
  5
131
330
1F
100
AcDbEntity
  8
0
  6
HIDDEN
 62
     7
370
     0
100
AcDbLine
 10
223.0178964087
 20
120.7621678167
 30
0.0
 11
248.9986585222
 21
135.7621678167
 31
0.0
  0
LINE
  5
132
330
1F
100
AcDbEntity
  8
0
  6
HIDDEN
 62
     7
370
     0
100
AcDbLine
 10
191.0512174055
 20
135.7621678167
 30
0.0
 11
191.0512174055
 21
120.7621678167
 31
0.0
  0
CIRCLE
  5
133
330
1F
100
AcDbEntity
  8
0
  6
HIDDEN
 62
     7
370
     0
100
AcDbCircle
 10
182.0512174055
 20
146.7621678167
 30
0.0
 40
2.0
  0
SPLINE
  5
134
330
1F
100
AcDbEntity
  8
0
  6
HIDDEN
 62
     7
370
     0
100
AcDbSpline
210
0.0
220
0.0
230
1.0
 70
     8
 71
     3
 72
    18
 73
    14
 74
     0
 42
0.00000001
 43
0.00000001
 12
1.0
 22
0.0
 32
0.0
 13
1.0
 23
0.0
 33
0.0
 40
0.0
 40
0.0
 40
0.0
 40
0.0
 40
0.1250000000000013
 40
0.1250000000000013
 40
0.2500000000000026
 40
0.2500000000000026
 40
0.3750000000000038
 40
0.3750000000000038
 40
0.5000000000000051
 40
0.5000000000000051
 40
0.7500000000000026
 40
0.7500000000000026
 40
1.0
 40
1.0
 40
1.0
 40
1.0
 10
192.0512174055023
 20
166.127084547693
 30
0.0
 10
191.9423167011361
 20
166.127084547693
 30
0.0
 10
191.836036367466
 20
166.0880877916065
 30
0.0
 10
191.6567139985012
 20
165.9690647527885
 30
0.0
 10
191.5803196652216
 20
165.8895895829919
 30
0.0
 10
191.4511966118479
 20
165.7182881944868
 30
0.0
 10
191.3966425999836
 20
165.6240315610181
 30
0.0
 10
191.3036222361904
 20
165.430480853652
 30
0.0
 10
191.2649365852823
 20
165.3308971053146
 30
0.0
 10
191.1654753078217
 20
165.0261893108603
 30
0.0
 10
191.1210795636356
 20
164.8139644828857
 30
0.0
 10
191.0641021225366
 20
164.3914605668854
 30
0.0
 10
191.0512174055023
 20
164.1794518844217
 30
0.0
 10
191.0512174055023
 20
163.9668183507411
 30
0.0
  0
SPLINE
  5
135
330
1F
100
AcDbEntity
  8
0
  6
HIDDEN
 62
     7
370
     0
100
AcDbSpline
210
0.0
220
0.0
230
1.0
 70
    24
 71
     3
 72
    16
 73
    12
 74
     0
 42
0.00000001
 43
0.00000001
 12
1.0
 22
0.0
 32
0.0
 13
1.0
 23
0.0
 33
0.0
 40
0.0
 40
0.0
 40
0.0
 40
0.0
 40
0.2499999999999987
 40
0.2499999999999987
 40
0.4999999999999973
 40
0.4999999999999973
 40
0.6249999999999978
 40
0.6249999999999978
 40
0.7499999999999982
 40
0.7499999999999982
 40
1.0
 40
1.0
 40
1.0
 40
1.0
 10
191.0512174055023
 20
176.7621678166559
 30
0.0
 10
191.0512174055023
 20
176.7621678166559
 30
0.0
 10
191.0682521589955
 20
176.7621678166559
 30
0.0
 10
191.139824138961
 20
176.7621678166559
 30
0.0
 10
191.1941238524769
 20
176.7621678166559
 30
0.0
 10
191.3119683085754
 20
176.7621678166559
 30
0.0
 10
191.3568092851244
 20
176.7621678166559
 30
0.0
 10
191.4604229693557
 20
176.7621678166559
 30
0.0
 10
191.5196555615173
 20
176.7621678166559
 30
0.0
 10
191.7163551235267
 20
176.7621678166559
 30
0.0
 10
191.8806440926093
 20
176.7621678166559
 30
0.0
 10
192.0512174055023
 20
176.7621678166559
 30
0.0
  0
LINE
  5
136
330
1F
100
AcDbEntity
  8
0
  6
HIDDEN
 62
     7
370
     0
100
AcDbLine
 10
191.0512174055
 20
176.7621678167
 30
0.0
 11
191.0512174055
 21
163.9668183507
 31
0.0
  0
LINE
  5
137
330
1F
100
AcDbEntity
  8
0
  6
HIDDEN
 62
     7
370
     0
100
AcDbLine
 10
267.0512174055
 20
176.7621678167
 30
0.0
 11
268.0512174055
 21
175.7621678167
 31
0.0
  0
LINE
  5
138
330
1F
100
AcDbEntity
  8
0
  6
HIDDEN
 62
     7
370
     0
100
AcDbLine
 10
268.0512174055
 20
175.7621678167
 30
0.0
 11
268.0512174055
 21
166.1270845477
 31
0.0
  0
LINE
  5
139
330
1F
100
AcDbEntity
  8
0
  6
HIDDEN
 62
     7
370
     0
100
AcDbLine
 10
192.0512174055
 20
176.7621678167
 30
0.0
 11
267.0512174055
 21
176.7621678167
 31
0.0
  0
LINE
  5
13A
330
1F
100
AcDbEntity
  8
0
  6
HIDDEN
 62
     7
370
     0
100
AcDbLine
 10
268.0512174055
 20
166.1270845477
 30
0.0
 11
192.0512174055
 21
166.1270845477
 31
0.0
  0
LINE
  5
13B
330
1F
100
AcDbEntity
  8
0
  6
HIDDEN
 62
     7
370
     0
100
AcDbLine
 10
191.0512174055
 20
135.7621678167
 30
0.0
 11
248.9986585222
 21
135.7621678167
 31
0.0
  0
LINE
  5
13C
330
1F
100
AcDbEntity
  8
0
  6
HIDDEN
 62
     7
370
     0
100
AcDbLine
 10
268.0512174055
 20
146.7621678167
 30
0.0
 11
268.0512174055
 21
166.1270845477
 31
0.0
  0
LINE
  5
13D
330
1F
100
AcDbEntity
  8
0
  6
HIDDEN
 62
     7
370
     0
100
AcDbLine
 10
268.0512174055
 20
146.7621678167
 30
0.0
 11
248.9986585222
 21
135.7621678167
 31
0.0
  0
LINE
  5
13E
330
1F
100
AcDbEntity
  8
0
  6
HIDDEN
 62
     7
370
     0
100
AcDbLine
 10
191.0512174055
 20
163.9668183507
 30
0.0
 11
191.0512174055
 21
135.7621678167
 31
0.0
  0
LINE
  5
13F
330
1F
100
AcDbEntity
  8
0
  6
HIDDEN
 62
     7
370
     0
100
AcDbLine
 10
170.0512174055
 20
127.2121678167
 30
0.0
 11
170.1441106243
 21
127.3050610355
 31
0.0
  0
LINE
  5
140
330
1F
100
AcDbEntity
  8
0
  6
HIDDEN
 62
     7
370
     0
100
AcDbLine
 10
170.1441106243
 20
166.2192745978
 30
0.0
 11
170.0512174055
 21
166.3121678167
 31
0.0
  0
ARC
  5
141
330
1F
100
AcDbEntity
  8
0
  6
HIDDEN
 62
     7
370
     0
100
AcDbCircle
 10
169.4370038431
 20
128.0121678167
 30
0.0
 40
1.0
100
AcDbArc
 50
315.0
 51
0.0
  0
ARC
  5
142
330
1F
100
AcDbEntity
  8
0
  6
HIDDEN
 62
     7
370
     0
100
AcDbCircle
 10
169.4370038431
 20
128.0121678167
 30
0.0
 40
1.000000000000004
100
AcDbArc
 50
0.0
 51
52.1052014664
  0
ARC
  5
143
330
1F
100
AcDbEntity
  8
0
  6
HIDDEN
 62
     7
370
     0
100
AcDbCircle
 10
169.4370038431
 20
165.5121678167
 30
0.0
 40
1.000000000000006
100
AcDbArc
 50
351.8087250651
 51
45.0
  0
ARC
  5
144
330
1F
100
AcDbEntity
  8
0
  6
HIDDEN
 62
     7
370
     0
100
AcDbCircle
 10
169.4370038431
 20
165.5121678167
 30
0.0
 40
1.000000000000006
100
AcDbArc
 50
307.8947985336
 51
351.8087250651
  0
LINE
  5
145
330
1F
100
AcDbEntity
  8
0
  6
HIDDEN
 62
     7
370
     0
100
AcDbLine
 10
170.4370038431
 20
128.0121678167
 30
0.0
 11
170.4370038431
 21
165.5121678167
 31
0.0
  0
LINE
  5
146
330
1F
100
AcDbEntity
  8
0
  6
HIDDEN
 62
     7
370
     0
100
AcDbLine
 10
170.4370038431
 20
128.0121678167
 30
0.0
 11
170.4370038431
 21
165.5121678167
 31
0.0
  0
LINE
  5
147
330
1F
100
AcDbEntity
  8
0
  6
HIDDEN
 62
     7
370
     0
100
AcDbLine
 10
258.0512174055
 20
157.7621678167
 30
0.0
 11
250.0512174055
 21
157.7621678167
 31
0.0
  0
LINE
  5
148
330
1F
100
AcDbEntity
  8
0
  6
HIDDEN
 62
     7
370
     0
100
AcDbLine
 10
250.0512174055
 20
145.7621678167
 30
0.0
 11
258.0512174055
 21
145.7621678167
 31
0.0
  0
LINE
  5
149
330
1F
100
AcDbEntity
  8
0
  6
HIDDEN
 62
     7
370
     0
100
AcDbLine
 10
250.0512174055
 20
153.4980292332
 30
0.0
 11
225.0193366647
 21
149.9938525034
 31
0.0
  0
LINE
  5
14A
330
1F
100
AcDbEntity
  8
0
  6
HIDDEN
 62
     7
370
     0
100
AcDbLine
 10
228.3629396816
 20
146.2209650448
 30
0.0
 11
250.0512174055
 21
149.2570756309
 31
0.0
  0
LINE
  5
14B
330
1F
100
AcDbEntity
  8
0
  6
HIDDEN
 62
     7
370
     0
100
AcDbLine
 10
146.5512174055
 20
134.7621678167
 30
0.0
 11
147.5579369176
 21
134.7621678167
 31
0.0
  0
LINE
  5
14C
330
1F
100
AcDbEntity
  8
0
  6
HIDDEN
 62
     7
370
     0
100
AcDbLine
 10
147.5579369176
 20
158.7621678167
 30
0.0
 11
146.5512174055
 21
158.7621678167
 31
0.0
  0
ARC
  5
14D
330
1F
100
AcDbEntity
  8
0
  6
HIDDEN
 62
     7
370
     0
100
AcDbCircle
 10
147.5579369176
 20
136.2621678167
 30
0.0
 40
1.5
100
AcDbArc
 50
270.0
 51
315.0
  0
ARC
  5
14E
330
1F
100
AcDbEntity
  8
0
  6
HIDDEN
 62
     7
370
     0
100
AcDbCircle
 10
147.5579369176
 20
157.2621678167
 30
0.0
 40
1.500000000000012
100
AcDbArc
 50
45.0
 51
90.0
  0
ARC
  5
14F
330
1F
100
AcDbEntity
  8
0
  6
HIDDEN
 62
     7
370
     0
100
AcDbCircle
 10
146.5512174055
 20
136.2621678167
 30
0.0
 40
1.5
100
AcDbArc
 50
191.0958032831
 51
270.0
  0
ARC
  5
150
330
1F
100
AcDbEntity
  8
0
  6
HIDDEN
 62
     7
370
     0
100
AcDbCircle
 10
146.5512174055
 20
157.2621678167
 30
0.0
 40
1.5
100
AcDbArc
 50
90.0
 51
168.9041967169
  0
LINE
  5
151
330
1F
100
AcDbEntity
  8
0
  6
HIDDEN
 62
     7
370
     0
100
AcDbLine
 10
140.0512174055
 20
134.9987557482
 30
0.0
 11
141.0792572611
 21
135.5922948356
 31
0.0
  0
LINE
  5
152
330
1F
100
AcDbEntity
  8
0
  6
HIDDEN
 62
     7
370
     0
100
AcDbLine
 10
141.0792572611
 20
157.9320407977
 30
0.0
 11
140.0512174055
 21
158.5255798851
 31
0.0
  0
LINE
  5
153
330
1F
100
AcDbEntity
  8
0
  6
HIDDEN
 62
     7
370
     0
100
AcDbLine
 10
148.6185970893
 20
135.2015076449
 30
0.0
 11
149.6792572611
 21
136.2621678167
 31
0.0
  0
LINE
  5
154
330
1F
100
AcDbEntity
  8
0
  6
HIDDEN
 62
     7
370
     0
100
AcDbLine
 10
149.6792572611
 20
157.2621678167
 30
0.0
 11
148.6185970893
 21
158.3228279884
 31
0.0
  0
LINE
  5
155
330
1F
100
AcDbEntity
  8
0
  6
HIDDEN
 62
     7
370
     0
100
AcDbLine
 10
141.0792572611
 20
135.5922948356
 30
0.0
 11
143.5792572611
 21
136.2621678167
 31
0.0
  0
LINE
  5
156
330
1F
100
AcDbEntity
  8
0
  6
HIDDEN
 62
     7
370
     0
100
AcDbLine
 10
143.5792572611
 20
157.2621678167
 30
0.0
 11
141.0792572611
 21
157.9320407977
 31
0.0
  0
LINE
  5
157
330
1F
100
AcDbEntity
  8
0
  6
HIDDEN
 62
     7
370
     0
100
AcDbLine
 10
145.0792572611
 20
157.5508429513
 30
0.0
 11
144.5792572611
 21
157.2621678167
 31
0.0
  0
LINE
  5
158
330
1F
100
AcDbEntity
  8
0
  6
HIDDEN
 62
     7
370
     0
100
AcDbLine
 10
144.5792572611
 20
136.2621678167
 30
0.0
 11
145.0792572611
 21
135.9734926821
 31
0.0
  0
LINE
  5
159
330
1F
100
AcDbEntity
  8
0
  6
HIDDEN
 62
     7
370
     0
100
AcDbLine
 10
143.5792572611
 20
136.2621678167
 30
0.0
 11
144.5792572611
 21
136.2621678167
 31
0.0
  0
LINE
  5
15A
330
1F
100
AcDbEntity
  8
0
  6
HIDDEN
 62
     7
370
     0
100
AcDbLine
 10
144.5792572611
 20
157.2621678167
 30
0.0
 11
143.5792572611
 21
157.2621678167
 31
0.0
  0
ARC
  5
15B
330
1F
100
AcDbEntity
  8
0
  6
HIDDEN
 62
     7
370
     0
100
AcDbCircle
 10
159.5512174055
 20
136.7621678167
 30
0.0
 40
0.5
100
AcDbArc
 50
270.0
 51
0.0
  0
ARC
  5
15C
330
1F
100
AcDbEntity
  8
0
  6
HIDDEN
 62
     7
370
     0
100
AcDbCircle
 10
159.5512174055
 20
156.7621678167
 30
0.0
 40
0.5
100
AcDbArc
 50
0.0
 51
90.0
  0
LINE
  5
15D
330
1F
100
AcDbEntity
  8
0
  6
HIDDEN
 62
     7
370
     0
100
AcDbLine
 10
149.6792572611
 20
136.2621678167
 30
0.0
 11
159.5512174055
 21
136.2621678167
 31
0.0
  0
LINE
  5
15E
330
1F
100
AcDbEntity
  8
0
  6
HIDDEN
 62
     7
370
     0
100
AcDbLine
 10
159.5512174055
 20
157.2621678167
 30
0.0
 11
149.6792572611
 21
157.2621678167
 31
0.0
  0
LINE
  5
15F
330
1F
100
AcDbEntity
  8
0
  6
HIDDEN
 62
     7
370
     0
100
AcDbLine
 10
160.0512174055
 20
138.5121678167
 30
0.0
 11
161.0512174055
 21
139.5121678167
 31
0.0
  0
LINE
  5
160
330
1F
100
AcDbEntity
  8
0
  6
HIDDEN
 62
     7
370
     0
100
AcDbLine
 10
161.0512174055
 20
154.0121678167
 30
0.0
 11
160.0512174055
 21
155.0121678167
 31
0.0
  0
LINE
  5
161
330
1F
100
AcDbEntity
  8
0
  6
HIDDEN
 62
     7
370
     0
100
AcDbLine
 10
161.0512174055
 20
139.5121678167
 30
0.0
 11
185.0512174055
 21
139.5121678167
 31
0.0
  0
LINE
  5
162
330
1F
100
AcDbEntity
  8
0
  6
HIDDEN
 62
     7
370
     0
100
AcDbLine
 10
185.0512174055
 20
154.0121678167
 30
0.0
 11
161.0512174055
 21
154.0121678167
 31
0.0
  0
LINE
  5
163
330
1F
100
AcDbEntity
  8
0
  6
HIDDEN
 62
     7
370
     0
100
AcDbLine
 10
185.0512174055
 20
139.5121678167
 30
0.0
 11
186.8537992626
 21
142.5121678167
 31
0.0
  0
LINE
  5
164
330
1F
100
AcDbEntity
  8
0
  6
HIDDEN
 62
     7
370
     0
100
AcDbLine
 10
186.8537992626
 20
151.0121678167
 30
0.0
 11
185.0512174055
 21
154.0121678167
 31
0.0
  0
LINE
  5
165
330
1F
100
AcDbEntity
  8
0
  6
HIDDEN
 62
     7
370
     0
100
AcDbLine
 10
228.0512174055
 20
142.5121678167
 30
0.0
 11
230.6048750364
 21
146.7621678167
 31
0.0
  0
LINE
  5
166
330
1F
100
AcDbEntity
  8
0
  6
HIDDEN
 62
     7
370
     0
100
AcDbLine
 10
230.6048750364
 20
146.7621678167
 30
0.0
 11
228.0512174055
 21
151.0121678167
 31
0.0
  0
LINE
  5
167
330
1F
100
AcDbEntity
  8
0
  6
HIDDEN
 62
     7
370
     0
100
AcDbLine
 10
186.8537992626
 20
142.5121678167
 30
0.0
 11
228.0512174055
 21
142.5121678167
 31
0.0
  0
LINE
  5
168
330
1F
100
AcDbEntity
  8
0
  6
HIDDEN
 62
     7
370
     0
100
AcDbLine
 10
228.0512174055
 20
151.0121678167
 30
0.0
 11
186.8537992626
 21
151.0121678167
 31
0.0
  0
LINE
  5
169
330
1F
100
AcDbEntity
  8
VERMASSUNG
  6
CENTERX2
100
AcDbLine
 10
136.5706935888
 20
146.7621678167
 30
0.0
 11
273.8271869541
 21
146.7621678167
 31
0.0
  0
DIMENSION
  5
16A
330
1F
100
AcDbEntity
  8
VERMASSUNG
100
AcDbDimension
  2
_D
 10
247.2666077147
 20
134.7621678167
 30
0.0
 11
240.696182617
 21
126.4516176671
 31
0.0
 70
   162
  1
<>
 71
     1
 42
-1.0
  3
SLDDIMSTYLE0
100
AcDb2LineAngularDimension
 13
273.8271869541
 23
146.7621678167
 33
0.0
 14
136.5706935888
 24
146.7621678167
 34
0.0
 15
223.0178964087
 25
120.7621678167
 35
0.0
 16
235.1413948132
 26
137.94400743
 36
0.0
  0
DIMENSION
  5
174
330
1F
100
AcDbEntity
  8
VERMASSUNG
100
AcDbDimension
  2
_D_1
 10
268.0512174055
 20
186.7621678167
 30
0.0
 11
219.0512174055
 21
186.7621678167
 31
0.0
 70
   160
  1
<>
 71
     2
 42
-1.0
  3
SLDDIMSTYLE1
100
AcDbAlignedDimension
 13
170.0512174055
 23
171.4621678167
 33
0.0
 14
268.0512174055
 24
175.7621678167
 34
0.0
100
AcDbRotatedDimension
  0
DIMENSION
  5
17F
330
1F
100
AcDbEntity
  8
VERMASSUNG
100
AcDbDimension
  2
_D_2
 10
268.0512174055
 20
192.7621678167
 30
0.0
 11
204.0512174055
 21
192.7621678167
 31
0.0
 70
   160
  1
<>
 71
     2
 42
-1.0
  3
SLDDIMSTYLE1
100
AcDbAlignedDimension
 13
140.0512174055
 23
162.7554936548
 33
0.0
 14
268.0512174055
 24
175.7621678167
 34
0.0
100
AcDbRotatedDimension
  0
DIMENSION
  5
189
330
1F
100
AcDbEntity
  8
VERMASSUNG
100
AcDbDimension
  2
_D_3
 10
130.0512174055
 20
121.7621678167
 30
0.0
 11
130.0512174055
 21
146.7621678167
 31
0.0
 70
   160
  1
PSC%%c<>
 71
     2
 42
-1.0
  3
SLDDIMSTYLE1
100
AcDbAlignedDimension
 13
170.3512174055
 23
171.7621678167
 33
0.0
 14
170.3512174055
 24
121.7621678167
 34
0.0
 50
90.0
100
AcDbRotatedDimension
  0
LINE
  5
195
330
1F
100
AcDbEntity
  8
0
  6
Continuous
 62
     7
370
    15
100
AcDbLine
 10
47.1521911991
 20
162.2621678167
 30
0.0
 11
48.1521911991
 21
163.2621678167
 31
0.0
  0
LINE
  5
196
330
1F
100
AcDbEntity
  8
0
  6
Continuous
 62
     7
370
    15
100
AcDbLine
 10
48.1521911991
 20
170.2621678167
 30
0.0
 11
47.1521911991
 21
171.2621678167
 31
0.0
  0
CIRCLE
  5
197
330
1F
100
AcDbEntity
  8
0
  6
Continuous
 62
     7
370
    15
100
AcDbCircle
 10
35.7459022586
 20
152.0486767942
 30
0.0
 40
3.231352231505653
  0
CIRCLE
  5
198
330
1F
100
AcDbEntity
  8
0
  6
Continuous
 62
     7
370
    15
100
AcDbCircle
 10
35.747566423
 20
152.0515039143
 30
0.0
 40
2.484627564214371
  0
CIRCLE
  5
199
330
1F
100
AcDbEntity
  8
0
  6
Continuous
 62
     7
370
    15
100
AcDbCircle
 10
35.7904671567
 20
152.0218302278
 30
0.0
 40
2.087038826909085
  0
ARC
  5
19A
330
1F
100
AcDbEntity
  8
0
  6
Continuous
 62
     7
370
    15
100
AcDbCircle
 10
36.3916456703
 20
151.5796626171
 30
0.0
 40
2.10250433174556
100
AcDbArc
 50
63.138758387
 51
222.2340607761
  0
CIRCLE
  5
19B
330
1F
100
AcDbEntity
  8
0
  6
Continuous
 62
     7
370
    15
100
AcDbCircle
 10
36.1521911991
 20
151.7621678167
 30
0.0
 40
4.582575694955848
  0
CIRCLE
  5
19C
330
1F
100
AcDbEntity
  8
0
  6
Continuous
 62
     7
370
    15
100
AcDbCircle
 10
36.1521911991
 20
151.7621678167
 30
0.0
 40
6.000000000000011
  0
LINE
  5
19D
330
1F
100
AcDbEntity
  8
0
  6
Continuous
 62
     7
370
    15
100
AcDbLine
 10
48.1521911991
 20
163.2621678167
 30
0.0
 11
48.1521911991
 21
170.2621678167
 31
0.0
  0
LINE
  5
19E
330
1F
100
AcDbEntity
  8
0
  6
Continuous
 62
     7
370
    15
100
AcDbLine
 10
83.1521911991
 20
146.7621678167
 30
0.0
 11
83.1521911991
 21
166.1270845477
 31
0.0
  0
LINE
  5
19F
330
1F
100
AcDbEntity
  8
0
  6
Continuous
 62
     7
370
    15
100
AcDbLine
 10
83.1521911991
 20
146.7621678167
 30
0.0
 11
68.1521911991
 21
146.7621678167
 31
0.0
  0
LINE
  5
1A0
330
1F
100
AcDbEntity
  8
0
  6
Continuous
 62
     7
370
    15
100
AcDbLine
 10
68.1521911991
 20
175.7621678167
 30
0.0
 11
68.1521911991
 21
146.7621678167
 31
0.0
  0
LINE
  5
1A1
330
1F
100
AcDbEntity
  8
0
  6
Continuous
 62
     7
370
    15
100
AcDbLine
 10
75.7021458271
 20
175.7621678167
 30
0.0
 11
68.1521911991
 21
175.7621678167
 31
0.0
  0
ARC
  5
1A2
330
1F
100
AcDbEntity
  8
0
  6
Continuous
 62
     7
370
    15
100
AcDbCircle
 10
48.1521911991
 20
146.7621678167
 30
0.0
 40
40.0
100
AcDbArc
 50
28.9550243719
 51
46.4688478326
  0
LINE
  5
1A3
330
1F
100
AcDbEntity
  8
0
  6
Continuous
 62
     7
370
    15
100
AcDbLine
 10
68.1521911991
 20
140.9886651248
 30
0.0
 11
68.1521911991
 21
146.7621678167
 31
0.0
  0
LINE
  5
1A4
330
1F
100
AcDbEntity
  8
0
  6
Continuous
 62
     7
370
    15
100
AcDbLine
 10
83.1521911991
 20
146.7621678167
 30
0.0
 11
83.1521911991
 21
135.7621678167
 31
0.0
  0
LINE
  5
1A5
330
1F
100
AcDbEntity
  8
0
  6
Continuous
 62
     7
370
    15
100
AcDbLine
 10
68.1521911991
 20
120.7621678167
 30
0.0
 11
83.1521911991
 21
135.7621678167
 31
0.0
  0
LINE
  5
1A6
330
1F
100
AcDbEntity
  8
0
  6
Continuous
 62
     7
370
    15
100
AcDbLine
 10
37.1521911991
 20
120.7621678167
 30
0.0
 11
68.1521911991
 21
120.7621678167
 31
0.0
  0
LINE
  5
1A7
330
1F
100
AcDbEntity
  8
0
  6
Continuous
 62
     7
370
    15
100
AcDbLine
 10
23.1521911991
 20
134.7621678167
 30
0.0
 11
37.1521911991
 21
120.7621678167
 31
0.0
  0
LINE
  5
1A8
330
1F
100
AcDbEntity
  8
0
  6
Continuous
 62
     7
370
    15
100
AcDbLine
 10
23.1521911991
 20
140.9886651248
 30
0.0
 11
23.1521911991
 21
134.7621678167
 31
0.0
  0
LINE
  5
1A9
330
1F
100
AcDbEntity
  8
0
  6
Continuous
 62
     7
370
    15
100
AcDbLine
 10
23.1521911991
 20
140.9886651248
 30
0.0
 11
68.1521911991
 21
140.9886651248
 31
0.0
  0
LINE
  5
1AA
330
1F
100
AcDbEntity
  8
0
  6
Continuous
 62
     7
370
    15
100
AcDbLine
 10
68.1521911991
 20
175.7621678167
 30
0.0
 11
68.1521911991
 21
176.7621678167
 31
0.0
  0
LINE
  5
1AB
330
1F
100
AcDbEntity
  8
0
  6
Continuous
 62
     7
370
    15
100
AcDbLine
 10
68.1521911991
 20
176.7621678167
 30
0.0
 11
74.6097043098
 21
176.7621678167
 31
0.0
  0
ARC
  5
1AC
330
1F
100
AcDbEntity
  8
0
  6
Continuous
 62
     7
370
    15
100
AcDbCircle
 10
48.1521911991
 20
146.7621678167
 30
0.0
 40
40.0
100
AcDbArc
 50
46.4688478326
 51
48.5903778907
  0
LINE
  5
1AD
330
1F
100
AcDbEntity
  8
0
  6
Continuous
 62
     7
370
    15
100
AcDbLine
 10
23.1521911991
 20
155.7621678167
 30
0.0
 11
23.1521911991
 21
140.9886651248
 31
0.0
  0
LINE
  5
1AE
330
1F
100
AcDbEntity
  8
0
  6
Continuous
 62
     7
370
    15
100
AcDbLine
 10
26.3521911991
 20
155.7621678167
 30
0.0
 11
23.1521911991
 21
155.7621678167
 31
0.0
  0
ARC
  5
1AF
330
1F
100
AcDbEntity
  8
0
  6
Continuous
 62
     7
370
    15
100
AcDbCircle
 10
26.3521911991
 20
157.5621678167
 30
0.0
 40
1.800000000000011
100
AcDbArc
 50
270.0
 51
0.0
  0
LINE
  5
1B0
330
1F
100
AcDbEntity
  8
0
  6
Continuous
 62
     7
370
    15
100
AcDbLine
 10
28.1521911991
 20
175.7621678167
 30
0.0
 11
28.1521911991
 21
157.5621678167
 31
0.0
  0
LINE
  5
1B1
330
1F
100
AcDbEntity
  8
0
  6
Continuous
 62
     7
370
    15
100
AcDbLine
 10
47.1521911991
 20
175.7621678167
 30
0.0
 11
28.1521911991
 21
175.7621678167
 31
0.0
  0
LINE
  5
1B2
330
1F
100
AcDbEntity
  8
0
  6
Continuous
 62
     7
370
    15
100
AcDbLine
 10
47.1521911991
 20
175.7621678167
 30
0.0
 11
47.1521911991
 21
156.7621678167
 31
0.0
  0
LINE
  5
1B3
330
1F
100
AcDbEntity
  8
0
  6
Continuous
 62
     7
370
    15
100
AcDbLine
 10
47.1521911991
 20
156.7621678167
 30
0.0
 11
68.1521911991
 21
156.7621678167
 31
0.0
  0
LINE
  5
1B4
330
1F
100
AcDbEntity
  8
0
  6
Continuous
 62
     7
370
    15
100
AcDbLine
 10
28.1521911991
 20
175.7621678167
 30
0.0
 11
28.1521911991
 21
176.7621678167
 31
0.0
  0
LINE
  5
1B5
330
1F
100
AcDbEntity
  8
0
  6
Continuous
 62
     7
370
    15
100
AcDbLine
 10
47.1521911991
 20
176.7621678167
 30
0.0
 11
47.1521911991
 21
175.7621678167
 31
0.0
  0
LINE
  5
1B6
330
1F
100
AcDbEntity
  8
0
  6
Continuous
 62
     7
370
    15
100
AcDbLine
 10
28.1521911991
 20
176.7621678167
 30
0.0
 11
47.1521911991
 21
176.7621678167
 31
0.0
  0
ARC
  5
1B7
330
1F
100
AcDbEntity
  8
0
  6
Continuous
 62
     7
370
    15
100
AcDbCircle
 10
26.3521911991
 20
157.5621678167
 30
0.0
 40
0.7999999999999972
100
AcDbArc
 50
270.0
 51
0.0
  0
LINE
  5
1B8
330
1F
100
AcDbEntity
  8
0
  6
Continuous
 62
     7
370
    15
100
AcDbLine
 10
23.1521911991
 20
156.7621678167
 30
0.0
 11
26.3521911991
 21
156.7621678167
 31
0.0
  0
LINE
  5
1B9
330
1F
100
AcDbEntity
  8
0
  6
Continuous
 62
     7
370
    15
100
AcDbLine
 10
23.1521911991
 20
156.7621678167
 30
0.0
 11
23.1521911991
 21
155.7621678167
 31
0.0
  0
LINE
  5
1BA
330
1F
100
AcDbEntity
  8
0
  6
Continuous
 62
     7
370
    15
100
AcDbLine
 10
27.1521911991
 20
157.5621678167
 30
0.0
 11
27.1521911991
 21
175.7621678167
 31
0.0
  0
LINE
  5
1BB
330
1F
100
AcDbEntity
  8
0
  6
Continuous
 62
     7
370
    15
100
AcDbLine
 10
27.1521911991
 20
175.7621678167
 30
0.0
 11
28.1521911991
 21
175.7621678167
 31
0.0
  0
LINE
  5
1BC
330
1F
100
AcDbEntity
  8
0
  6
Continuous
 62
     7
370
    15
100
AcDbLine
 10
27.1521911991
 20
175.7621678167
 30
0.0
 11
28.1521911991
 21
176.7621678167
 31
0.0
  0
LINE
  5
1BD
330
1F
100
AcDbEntity
  8
0
  6
Continuous
 62
     7
370
    15
100
AcDbLine
 10
22.1521911991
 20
155.7621678167
 30
0.0
 11
23.1521911991
 21
155.7621678167
 31
0.0
  0
LINE
  5
1BE
330
1F
100
AcDbEntity
  8
0
  6
Continuous
 62
     7
370
    15
100
AcDbLine
 10
23.1521911991
 20
156.7621678167
 30
0.0
 11
22.1521911991
 21
155.7621678167
 31
0.0
  0
LINE
  5
1BF
330
1F
100
AcDbEntity
  8
0
  6
Continuous
 62
     7
370
    15
100
AcDbLine
 10
22.1521911991
 20
141.5660153939
 30
0.0
 11
22.1521911991
 21
155.7621678167
 31
0.0
  0
LINE
  5
1C0
330
1F
100
AcDbEntity
  8
0
  6
Continuous
 62
     7
370
    15
100
AcDbLine
 10
22.1521911991
 20
141.5660153939
 30
0.0
 11
23.1521911991
 21
140.9886651248
 31
0.0
  0
LINE
  5
1C1
330
1F
100
AcDbEntity
  8
0
  6
Continuous
 62
     7
370
    15
100
AcDbLine
 10
22.1521911991
 20
135.7621678167
 30
0.0
 11
22.1521911991
 21
141.5660153939
 31
0.0
  0
LINE
  5
1C2
330
1F
100
AcDbEntity
  8
0
  6
Continuous
 62
     7
370
    15
100
AcDbLine
 10
23.1521911991
 20
134.7621678167
 30
0.0
 11
22.1521911991
 21
135.7621678167
 31
0.0
  0
ELLIPSE
  5
1C3
330
1F
100
AcDbEntity
  8
0
  6
Continuous
 62
     7
370
    15
100
AcDbEllipse
 10
37.0752681222
 20
151.377552432
 30
0.0
 11
-2.062867682030237
 21
0.8595282008459152
 31
0.0
210
0.0
220
0.0
230
1.0
 40
0.9396926208
 41
0.0
 42
1.150961867335617
  0
ELLIPSE
  5
1C4
330
1F
100
AcDbEntity
  8
0
  6
Continuous
 62
     7
370
    15
100
AcDbEllipse
 10
37.0752681222
 20
151.377552432
 30
0.0
 11
-2.062867682030237
 21
0.8595282008459152
 31
0.0
210
0.0
220
0.0
230
1.0
 40
0.9396926208
 41
4.983255119357153
 42
6.283185307179586
  0
LINE
  5
1C5
330
1F
100
AcDbEntity
  8
0
  6
Continuous
 62
     7
370
    15
100
AcDbLine
 10
23.1521911991
 20
174.7621678167
 30
0.0
 11
23.1521911991
 21
156.7621678167
 31
0.0
  0
SPLINE
  5
1C6
330
1F
100
AcDbEntity
  8
0
  6
Continuous
 62
     7
370
    15
100
AcDbSpline
210
0.0
220
0.0
230
1.0
 70
     8
 71
     3
 72
     8
 73
     4
 74
     0
 42
0.00000001
 43
0.00000001
 12
1.0
 22
0.0
 32
0.0
 13
1.0
 23
0.0
 33
0.0
 40
0.0
 40
0.0
 40
0.0
 40
0.0
 40
1.0
 40
1.0
 40
1.0
 40
1.0
 10
23.12587540966759
 20
175.7358520271822
 30
0.0
 10
23.14339369517728
 20
175.4115270116649
 30
0.0
 10
23.15219119914128
 20
175.0869662993491
 30
0.0
 10
23.15219119914128
 20
174.7621678166558
 30
0.0
  0
SPLINE
  5
1C7
330
1F
100
AcDbEntity
  8
0
  6
Continuous
 62
     7
370
    15
100
AcDbSpline
210
0.0
220
0.0
230
1.0
 70
    24
 71
     3
 72
     8
 73
     4
 74
     0
 42
0.00000001
 43
0.00000001
 12
1.0
 22
0.0
 32
0.0
 13
1.0
 23
0.0
 33
0.0
 40
0.0
 40
0.0
 40
0.0
 40
0.0
 40
1.0
 40
1.0
 40
1.0
 40
1.0
 10
22.15219119914129
 20
174.7621678166559
 30
0.0
 10
22.47972879312625
 20
175.0897054106408
 30
0.0
 10
22.80439742063465
 20
175.4143740381492
 30
0.0
 10
23.1258754096676
 20
175.7358520271822
 30
0.0
  0
LINE
  5
1C8
330
1F
100
AcDbEntity
  8
0
  6
Continuous
 62
     7
370
    15
100
AcDbLine
 10
22.1521911991
 20
155.7621678167
 30
0.0
 11
22.1521911991
 21
174.7621678167
 31
0.0
  0
LINE
  5
1C9
330
1F
100
AcDbEntity
  8
0
  6
Continuous
 62
     7
370
    15
100
AcDbLine
 10
27.1521911991
 20
175.7621678167
 30
0.0
 11
26.3521911991
 21
175.7621678167
 31
0.0
  0
LINE
  5
1CA
330
1F
100
AcDbEntity
  8
0
  6
Continuous
 62
     7
370
    15
100
AcDbLine
 10
26.3521911991
 20
176.7621678167
 30
0.0
 11
28.1521911991
 21
176.7621678167
 31
0.0
  0
LINE
  5
1CB
330
1F
100
AcDbEntity
  8
0
  6
Continuous
 62
     7
370
    15
100
AcDbLine
 10
23.1521911991
 20
175.7621678167
 30
0.0
 11
23.1258754097
 21
175.7358520272
 31
0.0
  0
LINE
  5
1CC
330
1F
100
AcDbEntity
  8
0
  6
Continuous
 62
     7
370
    15
100
AcDbLine
 10
26.3521911991
 20
175.7621678167
 30
0.0
 11
23.1521911991
 21
175.7621678167
 31
0.0
  0
LINE
  5
1CD
330
1F
100
AcDbEntity
  8
0
  6
Continuous
 62
     7
370
    15
100
AcDbLine
 10
23.1521911991
 20
175.7621678167
 30
0.0
 11
24.1521911991
 21
176.7621678167
 31
0.0
  0
LINE
  5
1CE
330
1F
100
AcDbEntity
  8
0
  6
Continuous
 62
     7
370
    15
100
AcDbLine
 10
24.1521911991
 20
176.7621678167
 30
0.0
 11
26.3521911991
 21
176.7621678167
 31
0.0
  0
LINE
  5
1CF
330
1F
100
AcDbEntity
  8
0
  6
Continuous
 62
     7
370
    15
100
AcDbLine
 10
47.1521911991
 20
176.7621678167
 30
0.0
 11
68.1521911991
 21
176.7621678167
 31
0.0
  0
DIMENSION
  5
1D0
330
1F
100
AcDbEntity
  8
VERMASSUNG
100
AcDbDimension
  2
_D_4
 10
83.1521911991
 20
198.7621678167
 30
0.0
 11
52.6521911991
 21
198.7621678167
 31
0.0
 70
   160
  1
<>
 71
     2
 42
-1.0
  3
SLDDIMSTYLE1
100
AcDbAlignedDimension
 13
22.1521911991
 23
174.7621678167
 33
0.0
 14
83.1521911991
 24
166.1270845477
 34
0.0
 50
0.0
100
AcDbRotatedDimension
  0
DIMENSION
  5
1DA
330
1F
100
AcDbEntity
  8
VERMASSUNG
100
AcDbDimension
  2
_D_5
 10
96.1199170023
 20
176.7621678167
 30
0.0
 11
96.1199170023
 21
166.7621678167
 31
0.0
 70
   160
  1
<>
 71
     2
 42
-1.0
  3
SLDDIMSTYLE1
100
AcDbAlignedDimension
 13
72.4021911991
 23
156.7621678167
 33
0.0
 14
74.6097043098
 24
176.7621678167
 34
0.0
 50
90.0
100
AcDbRotatedDimension
  0
DIMENSION
  5
1E4
330
1F
100
AcDbEntity
  8
VERMASSUNG
100
AcDbDimension
  2
_D_6
 10
68.1521911991
 20
185.1327695516
 30
0.0
 11
58.1521911991
 21
185.1327695516
 31
0.0
 70
   160
  1
<>
 71
     2
 42
-1.0
  3
SLDDIMSTYLE1
100
AcDbAlignedDimension
 13
48.1521911991
 23
189.2621678167
 33
0.0
 14
68.1521911991
 24
176.7621678167
 34
0.0
100
AcDbRotatedDimension
  0
DIMENSION
  5
1ED
330
1F
100
AcDbEntity
  8
VERMASSUNG
100
AcDbDimension
  2
_D_7
 10
48.1521911991
 20
185.0133869829
 30
0.0
 11
40.7264051269
 21
185.0133869829
 31
0.0
 70
   160
  1
<>
 71
     2
 42
-1.0
  3
SLDDIMSTYLE2
100
AcDbAlignedDimension
 13
47.1521911991
 23
176.7621678167
 33
0.0
 14
48.1521911991
 24
189.2621678167
 34
0.0
100
AcDbRotatedDimension
  0
DIMENSION
  5
1F9
330
1F
100
AcDbEntity
  8
VERMASSUNG
100
AcDbDimension
  2
_D_8
 10
83.1521911991
 20
191.3299441161
 30
0.0
 11
65.6521911991
 21
191.3299441161
 31
0.0
 70
   160
  1
<>
 71
     2
 42
-1.0
  3
SLDDIMSTYLE1
100
AcDbAlignedDimension
 13
48.1521911991
 23
189.2621678167
 33
0.0
 14
83.1521911991
 24
166.1270845477
 34
0.0
100
AcDbRotatedDimension
  0
DIMENSION
  5
203
330
1F
100
AcDbEntity
  8
VERMASSUNG
100
AcDbDimension
  2
_D_9
 10
103.3315217275
 20
176.7621678167
 30
0.0
 11
103.3315217275
 21
161.7621678167
 31
0.0
 70
   160
  1
<>
 71
     2
 42
-1.0
  3
SLDDIMSTYLE1
100
AcDbAlignedDimension
 13
90.6521911991
 23
146.7621678167
 33
0.0
 14
74.6097043098
 24
176.7621678167
 34
0.0
 50
90.0
100
AcDbRotatedDimension
  0
DIMENSION
  5
20D
330
1F
100
AcDbEntity
  8
VERMASSUNG
100
AcDbDimension
  2
_D_10
 10
109.2279487692
 20
120.7621678167
 30
0.0
 11
109.2279487692
 21
148.7621678167
 31
0.0
 70
   160
  1
<>
 71
     2
 42
-1.0
  3
SLDDIMSTYLE1
100
AcDbAlignedDimension
 13
74.6097043098
 23
176.7621678167
 33
0.0
 14
68.1521911991
 24
120.7621678167
 34
0.0
 50
90.0
100
AcDbRotatedDimension
  0
DIMENSION
  5
217
330
1F
100
AcDbEntity
  8
VERMASSUNG
100
AcDbDimension
  2
_D_11
 10
48.1521911991
 20
146.7621678167
 30
0.0
 11
87.7769768596
 21
180.6969690741
 31
0.0
 70
   164
  1
<>
 71
     1
 42
-1.0
  3
SLDDIMSTYLE3
100
AcDbRadialDimension
 15
78.5335537472
 25
172.7808689703
 35
0.0
 40
0.0
  0
INSERT
  5
22B
330
1F
100
AcDbEntity
  8
VERMASSUNG
100
AcDbBlockReference
  2
SW_CENTERMARKSYMBOL_0
 10
48.1521911991
 20
146.7621678167
 30
0.0
  0
ARC
  5
22C
330
1F
100
AcDbEntity
  8
0
  6
Continuous
 62
     7
370
    15
100
AcDbCircle
 10
256.0512174055
 20
63.4215062069
 30
0.0
 40
4.999999999999989
100
AcDbArc
 50
34.3408746466
 51
66.4218215218
  0
ARC
  5
22D
330
1F
100
AcDbEntity
  8
0
  6
Continuous
 62
     7
370
    15
100
AcDbCircle
 10
256.0512174055
 20
63.4215062069
 30
0.0
 40
5.000000000000007
100
AcDbArc
 50
293.5781784782
 51
313.6815083391
  0
LINE
  5
22E
330
1F
100
AcDbEntity
  8
0
  6
Continuous
 62
     7
370
    15
100
AcDbLine
 10
254.5512174055
 20
74.4215062069
 30
0.0
 11
253.5512174055
 21
75.4215062069
 31
0.0
  0
LINE
  5
22F
330
1F
100
AcDbEntity
  8
0
  6
Continuous
 62
     7
370
    15
100
AcDbLine
 10
246.5512174055
 20
75.4215062069
 30
0.0
 11
245.5512174055
 21
74.4215062069
 31
0.0
  0
LINE
  5
230
330
1F
100
AcDbEntity
  8
0
  6
Continuous
 62
     7
370
    15
100
AcDbLine
 10
214.5512174055
 20
74.4215062069
 30
0.0
 11
213.5512174055
 21
75.4215062069
 31
0.0
  0
LINE
  5
231
330
1F
100
AcDbEntity
  8
0
  6
Continuous
 62
     7
370
    15
100
AcDbLine
 10
206.5512174055
 20
75.4215062069
 30
0.0
 11
205.5512174055
 21
74.4215062069
 31
0.0
  0
LINE
  5
232
330
1F
100
AcDbEntity
  8
0
  6
Continuous
 62
     7
370
    15
100
AcDbLine
 10
234.5512174055
 20
74.4215062069
 30
0.0
 11
233.5512174055
 21
75.4215062069
 31
0.0
  0
LINE
  5
233
330
1F
100
AcDbEntity
  8
0
  6
Continuous
 62
     7
370
    15
100
AcDbLine
 10
226.5512174055
 20
75.4215062069
 30
0.0
 11
225.5512174055
 21
74.4215062069
 31
0.0
  0
ARC
  5
234
330
1F
100
AcDbEntity
  8
0
  6
Continuous
 62
     7
370
    15
100
AcDbCircle
 10
190.0512174055
 20
49.4215062069
 30
0.0
 40
1.0
100
AcDbArc
 50
0.0
 51
90.0
  0
ARC
  5
235
330
1F
100
AcDbEntity
  8
0
  6
Continuous
 62
     7
370
    15
100
AcDbCircle
 10
190.0512174055
 20
101.4215062069
 30
0.0
 40
1.0
100
AcDbArc
 50
270.0
 51
0.0
  0
LINE
  5
236
330
1F
100
AcDbEntity
  8
0
  6
Continuous
 62
     7
370
    15
100
AcDbLine
 10
170.3512174055
 20
50.4215062069
 30
0.0
 11
190.0512174055
 21
50.4215062069
 31
0.0
  0
LINE
  5
237
330
1F
100
AcDbEntity
  8
0
  6
Continuous
 62
     7
370
    15
100
AcDbLine
 10
180.0512174055
 20
100.4215062069
 30
0.0
 11
170.3512174055
 21
100.4215062069
 31
0.0
  0
LINE
  5
238
330
1F
100
AcDbEntity
  8
0
  6
Continuous
 62
     7
370
    15
100
AcDbLine
 10
190.0512174055
 20
100.4215062069
 30
0.0
 11
184.0264841338
 21
100.4215062069
 31
0.0
  0
ARC
  5
239
330
1F
100
AcDbEntity
  8
0
  6
Continuous
 62
     7
370
    15
100
AcDbCircle
 10
170.3512174055
 20
50.7215062069
 30
0.0
 40
0.2999999999999972
100
AcDbArc
 50
180.0
 51
270.0
  0
ARC
  5
23A
330
1F
100
AcDbEntity
  8
0
  6
Continuous
 62
     7
370
    15
100
AcDbCircle
 10
170.3512174055
 20
100.1215062069
 30
0.0
 40
0.2999999999999972
100
AcDbArc
 50
90.0
 51
180.0
  0
ARC
  5
23B
330
1F
100
AcDbEntity
  8
0
  6
Continuous
 62
     7
370
    15
100
AcDbCircle
 10
169.4370038431
 20
56.6715062069
 30
0.0
 40
1.000000000000008
100
AcDbArc
 50
52.1052014664
 51
135.0
  0
LWPOLYLINE
  5
23C
330
1F
100
AcDbEntity
  8
0
  6
Continuous
 62
     7
370
    15
100
AcDbPolyline
 90
        3
 70
   128
 43
0.0
 10
170.0512174055
 20
93.3823663588
 10
169.976672349
 20
93.3296286007
 10
169.8512174055
 20
93.2613264858
  0
LINE
  5
23D
330
1F
100
AcDbEntity
  8
0
  6
Continuous
 62
     7
370
    15
100
AcDbLine
 10
152.7713755475
 20
91.4427468755
 30
0.0
 11
147.4291284986
 21
91.3085310348
 31
0.0
  0
LINE
  5
23E
330
1F
100
AcDbEntity
  8
0
  6
Continuous
 62
     7
370
    15
100
AcDbLine
 10
167.8512174055
 20
91.8216049915
 30
0.0
 11
159.4920346425
 21
91.6115932246
 31
0.0
  0
ARC
  5
23F
330
1F
100
AcDbEntity
  8
0
  6
Continuous
 62
     7
370
    15
100
AcDbCircle
 10
168.0511543164
 20
91.8266281026
 30
0.0
 40
0.2000000000000052
100
AcDbArc
 50
181.4391666667
 51
271.4391666667
  0
LINE
  5
240
330
1F
100
AcDbEntity
  8
0
  6
Continuous
 62
     7
370
    15
100
AcDbLine
 10
169.6562405166
 20
91.6668903458
 30
0.0
 11
168.0561774276
 21
91.6266911917
 31
0.0
  0
ARC
  5
241
330
1F
100
AcDbEntity
  8
0
  6
Continuous
 62
     7
370
    15
100
AcDbCircle
 10
169.6512174055
 20
91.8668272567
 30
0.0
 40
0.1999999999999917
100
AcDbArc
 50
271.4391666667
 51
0.0
  0
LINE
  5
242
330
1F
100
AcDbEntity
  8
0
  6
Continuous
 62
     7
370
    15
100
AcDbLine
 10
141.5512174055
 20
57.4421549649
 30
0.0
 11
167.8512174055
 21
56.7814074223
 31
0.0
  0
ARC
  5
243
330
1F
100
AcDbEntity
  8
0
  6
Continuous
 62
     7
370
    15
100
AcDbCircle
 10
168.0511543164
 20
56.7763843112
 30
0.0
 40
0.200000000000005
100
AcDbArc
 50
88.5608333333
 51
178.5608333333
  0
LINE
  5
244
330
1F
100
AcDbEntity
  8
0
  6
Continuous
 62
     7
370
    15
100
AcDbLine
 10
168.0561774276
 20
56.9763212221
 30
0.0
 11
168.3304911231
 21
56.9694295073
 31
0.0
  0
LINE
  5
245
330
1F
100
AcDbEntity
  8
0
  6
Continuous
 62
     7
370
    15
100
AcDbLine
 10
140.0512174055
 20
58.3081803687
 30
0.0
 11
141.5512174055
 21
57.4421549649
 31
0.0
  0
LINE
  5
246
330
1F
100
AcDbEntity
  8
0
  6
Continuous
 62
     7
370
    15
100
AcDbLine
 10
168.3373360397
 20
56.9860519658
 30
0.0
 11
168.7298970619
 21
57.3786129881
 31
0.0
  0
LWPOLYLINE
  5
247
330
1F
100
AcDbEntity
  8
0
  6
Continuous
 62
     7
370
    15
100
AcDbPolyline
 90
       29
 70
   128
 43
0.0
 10
259.7697973878
 20
60.7768846207
 10
259.6770567486
 20
60.3167515511
 10
259.5913965933
 20
59.9924874611
 10
259.5171122798
 20
59.8203523064
 10
259.4579287338
 20
59.8089776623
 10
259.4168136654
 20
59.958933901
 10
259.3958287557
 20
60.2627015906
 10
259.3960262759
 20
60.7050485505
 10
259.4173963214
 20
61.2637936573
 10
259.4588673089
 20
61.9109190981
 10
259.5183597099
 20
62.6139753011
 10
259.592890327
 20
63.3377080927
 10
259.6787218838
 20
64.0458264886
 10
259.7715504278
 20
64.7028224756
 10
259.8667211481
 20
65.2757515316
 10
259.9594617873
 20
65.7358846012
 10
260.0451219426
 20
66.0601486912
 10
260.1194062561
 20
66.2322838459
 10
260.1785898021
 20
66.24365849
 10
260.2197048705
 20
66.0937022513
 10
260.2406897801
 20
65.7899345617
 10
260.24049226
 20
65.3475876018
 10
260.2191222145
 20
64.788842495
 10
260.177651227
 20
64.1417170542
 10
260.118158826
 20
63.4386608512
 10
260.0436282089
 20
62.7149280596
 10
259.957796652
 20
62.0068096637
 10
259.8649681081
 20
61.3498136767
 10
259.7697973878
 20
60.7768846207
  0
LWPOLYLINE
  5
248
330
1F
100
AcDbEntity
  8
0
  6
Continuous
 62
     7
370
    15
100
AcDbPolyline
 90
       26
 70
   128
 43
0.0
 10
259.7809808986
 20
61.2959846489
 10
259.7013789324
 20
60.9062875966
 10
259.6291209875
 20
60.6497998563
 10
259.5687472964
 20
60.5426374959
 10
259.5240513601
 20
60.5915339207
 10
259.4978415887
 20
60.7934167886
 10
259.4917648385
 20
61.1356010563
 10
259.506202934
 20
61.596586028
 10
259.5402486767
 20
62.1474063225
 10
259.5917628472
 20
62.7534518748
 10
259.6575086209
 20
63.3766426141
 10
259.7333549489
 20
63.9778211743
 10
259.8145361276
 20
64.5192132955
 10
259.8959512448
 20
64.9668013195
 10
259.9724846894
 20
65.2924616448
 10
260.0393275836
 20
65.4757318353
 10
260.0922799425
 20
65.505096351
 10
260.1280145746
 20
65.3787101115
 10
260.1442861416
 20
65.1045144288
 10
260.140072241
 20
64.6997380263
 10
260.1156376479
 20
64.1898144938
 10
260.0725176774
 20
63.6067842024
 10
260.013421716
 20
62.9872810895
 10
259.9420629802
 20
62.370230814
 10
259.8629252019
 20
61.7944049142
 10
259.7809808986
 20
61.2959846489
  0
LINE
  5
249
330
1F
100
AcDbEntity
  8
0
  6
Continuous
 62
     7
370
    15
100
AcDbLine
 10
253.5512174055
 20
75.4215062069
 30
0.0
 11
246.5512174055
 21
75.4215062069
 31
0.0
  0
LINE
  5
24A
330
1F
100
AcDbEntity
  8
0
  6
Continuous
 62
     7
370
    15
100
AcDbLine
 10
213.5512174055
 20
75.4215062069
 30
0.0
 11
206.5512174055
 21
75.4215062069
 31
0.0
  0
LINE
  5
24B
330
1F
100
AcDbEntity
  8
0
  6
Continuous
 62
     7
370
    15
100
AcDbLine
 10
233.5512174055
 20
75.4215062069
 30
0.0
 11
226.5512174055
 21
75.4215062069
 31
0.0
  0
SPLINE
  5
24C
330
1F
100
AcDbEntity
  8
0
  6
Continuous
 62
     7
370
    15
100
AcDbSpline
210
0.0
220
0.0
230
1.0
 70
     8
 71
     3
 72
    16
 73
    12
 74
     0
 42
0.00000001
 43
0.00000001
 12
1.0
 22
0.0
 32
0.0
 13
1.0
 23
0.0
 33
0.0
 40
0.0
 40
0.0
 40
0.0
 40
0.0
 40
0.2499999999999987
 40
0.2499999999999987
 40
0.4999999999999973
 40
0.4999999999999973
 40
0.6249999999999978
 40
0.6249999999999978
 40
0.7499999999999982
 40
0.7499999999999982
 40
1.0
 40
1.0
 40
1.0
 40
1.0
 10
191.0512174055023
 20
100.3413777956508
 30
0.0
 10
191.0512174055023
 20
100.5078404228976
 30
0.0
 10
191.0682521589955
 20
100.6768584257717
 30
0.0
 10
191.1398241389609
 20
101.0038491421852
 30
0.0
 10
191.1941238524769
 20
101.163409957421
 30
0.0
 10
191.3119683085754
 20
101.3871507763767
 30
0.0
 10
191.3568092851244
 20
101.458008473338
 30
0.0
 10
191.4604229693556
 20
101.5903953286259
 30
0.0
 10
191.5196555615173
 20
101.6521061205169
 30
0.0
 10
191.7163551235267
 20
101.8093154886778
 30
0.0
 10
191.8806440926092
 20
101.8790193175425
 30
0.0
 10
192.0512174055023
 20
101.8790193175425
 30
0.0
  0
SPLINE
  5
24D
330
1F
100
AcDbEntity
  8
0
  6
Continuous
 62
     7
370
    15
100
AcDbSpline
210
0.0
220
0.0
230
1.0
 70
    24
 71
     3
 72
    18
 73
    14
 74
     0
 42
0.00000001
 43
0.00000001
 12
1.0
 22
0.0
 32
0.0
 13
1.0
 23
0.0
 33
0.0
 40
0.0
 40
0.0
 40
0.0
 40
0.0
 40
0.1250000000000013
 40
0.1250000000000013
 40
0.2500000000000026
 40
0.2500000000000026
 40
0.3750000000000038
 40
0.3750000000000038
 40
0.5000000000000051
 40
0.5000000000000051
 40
0.7500000000000026
 40
0.7500000000000026
 40
1.0
 40
1.0
 40
1.0
 40
1.0
 10
192.0512174055023
 20
110.4215062068966
 30
0.0
 10
191.942316701136
 20
110.4215062068966
 30
0.0
 10
191.8360363674659
 20
110.4215062068966
 30
0.0
 10
191.6567139985012
 20
110.4215062068966
 30
0.0
 10
191.5803196652215
 20
110.4215062068966
 30
0.0
 10
191.4511966118479
 20
110.4215062068966
 30
0.0
 10
191.3966425999836
 20
110.4215062068966
 30
0.0
 10
191.3036222361903
 20
110.4215062068966
 30
0.0
 10
191.2649365852823
 20
110.4215062068966
 30
0.0
 10
191.1654753078216
 20
110.4215062068966
 30
0.0
 10
191.1210795636356
 20
110.4215062068966
 30
0.0
 10
191.0641021225366
 20
110.4215062068966
 30
0.0
 10
191.0512174055023
 20
110.4215062068966
 30
0.0
 10
191.0512174055023
 20
110.4215062068966
 30
0.0
  0
LINE
  5
24E
330
1F
100
AcDbEntity
  8
0
  6
Continuous
 62
     7
370
    15
100
AcDbLine
 10
191.0512174055
 20
100.3413777957
 30
0.0
 11
191.0512174055
 21
110.4215062069
 31
0.0
  0
LINE
  5
24F
330
1F
100
AcDbEntity
  8
0
  6
Continuous
 62
     7
370
    15
100
AcDbLine
 10
268.0512174055
 20
110.4215062069
 30
0.0
 11
192.0512174055
 21
110.4215062069
 31
0.0
  0
LINE
  5
250
330
1F
100
AcDbEntity
  8
0
  6
Continuous
 62
     7
370
    15
100
AcDbLine
 10
268.0512174055
 20
102.9714608348
 30
0.0
 11
268.0512174055
 21
110.4215062069
 31
0.0
  0
ARC
  5
251
330
1F
100
AcDbEntity
  8
0
  6
Continuous
 62
     7
370
    15
100
AcDbCircle
 10
297.0512174055
 20
75.4215062069
 30
0.0
 40
40.00000000000034
100
AcDbArc
 50
136.4688478326
 51
138.5903778907
  0
LINE
  5
252
330
1F
100
AcDbEntity
  8
0
  6
Continuous
 62
     7
370
    15
100
AcDbLine
 10
192.0512174055
 20
101.8790193175
 30
0.0
 11
267.0512174055
 21
101.8790193175
 31
0.0
  0
ARC
  5
253
330
1F
100
AcDbEntity
  8
0
  6
Continuous
 62
     7
370
    15
100
AcDbCircle
 10
197.3012174055
 20
95.4215062069
 30
0.0
 40
4.25
100
AcDbArc
 50
0.0
 51
180.0
  0
LINE
  5
254
330
1F
100
AcDbEntity
  8
0
  6
Continuous
 62
     7
370
    15
100
AcDbLine
 10
193.0512174055
 20
74.4215062069
 30
0.0
 11
193.0512174055
 21
95.4215062069
 31
0.0
  0
ARC
  5
255
330
1F
100
AcDbEntity
  8
0
  6
Continuous
 62
     7
370
    15
100
AcDbCircle
 10
197.3012174055
 20
74.4215062069
 30
0.0
 40
4.25
100
AcDbArc
 50
180.0
 51
0.0
  0
LINE
  5
256
330
1F
100
AcDbEntity
  8
0
  6
Continuous
 62
     7
370
    15
100
AcDbLine
 10
257.0512174055
 20
74.4215062069
 30
0.0
 11
201.5512174055
 21
74.4215062069
 31
0.0
  0
LINE
  5
257
330
1F
100
AcDbEntity
  8
0
  6
Continuous
 62
     7
370
    15
100
AcDbLine
 10
257.0512174055
 20
55.4215062069
 30
0.0
 11
257.0512174055
 21
74.4215062069
 31
0.0
  0
LINE
  5
258
330
1F
100
AcDbEntity
  8
0
  6
Continuous
 62
     7
370
    15
100
AcDbLine
 10
196.8512174055
 20
55.4215062069
 30
0.0
 11
257.0512174055
 21
55.4215062069
 31
0.0
  0
ARC
  5
259
330
1F
100
AcDbEntity
  8
0
  6
Continuous
 62
     7
370
    15
100
AcDbCircle
 10
196.8512174055
 20
53.6215062069
 30
0.0
 40
1.800000000000011
100
AcDbArc
 50
90.0
 51
180.0
  0
LINE
  5
25A
330
1F
100
AcDbEntity
  8
0
  6
Continuous
 62
     7
370
    15
100
AcDbLine
 10
195.0512174055
 20
51.4215062069
 30
0.0
 11
195.0512174055
 21
53.6215062069
 31
0.0
  0
LINE
  5
25B
330
1F
100
AcDbEntity
  8
0
  6
Continuous
 62
     7
370
    15
100
AcDbLine
 10
191.0512174055
 20
51.4215062069
 30
0.0
 11
195.0512174055
 21
51.4215062069
 31
0.0
  0
LINE
  5
25C
330
1F
100
AcDbEntity
  8
0
  6
Continuous
 62
     7
370
    15
100
AcDbLine
 10
267.0512174055
 20
95.4215062069
 30
0.0
 11
267.0512174055
 21
101.8790193175
 31
0.0
  0
LINE
  5
25D
330
1F
100
AcDbEntity
  8
0
  6
Continuous
 62
     7
370
    15
100
AcDbLine
 10
201.5512174055
 20
95.4215062069
 30
0.0
 11
267.0512174055
 21
95.4215062069
 31
0.0
  0
LINE
  5
25E
330
1F
100
AcDbEntity
  8
0
  6
Continuous
 62
     7
370
    15
100
AcDbLine
 10
191.0512174055
 20
51.4215062069
 30
0.0
 11
191.0512174055
 21
100.3413777957
 31
0.0
  0
LINE
  5
25F
330
1F
100
AcDbEntity
  8
0
  6
Continuous
 62
     7
370
    15
100
AcDbLine
 10
268.0512174055
 20
102.9714608348
 30
0.0
 11
268.0512174055
 21
95.4215062069
 31
0.0
  0
LINE
  5
260
330
1F
100
AcDbEntity
  8
0
  6
Continuous
 62
     7
370
    15
100
AcDbLine
 10
268.0512174055
 20
95.4215062069
 30
0.0
 11
267.0512174055
 21
95.4215062069
 31
0.0
  0
LINE
  5
261
330
1F
100
AcDbEntity
  8
0
  6
Continuous
 62
     7
370
    15
100
AcDbLine
 10
258.0512174055
 20
74.4215062069
 30
0.0
 11
258.0512174055
 21
55.4215062069
 31
0.0
  0
LINE
  5
262
330
1F
100
AcDbEntity
  8
0
  6
Continuous
 62
     7
370
    15
100
AcDbLine
 10
258.0512174055
 20
55.4215062069
 30
0.0
 11
257.0512174055
 21
55.4215062069
 31
0.0
  0
LINE
  5
263
330
1F
100
AcDbEntity
  8
0
  6
Continuous
 62
     7
370
    15
100
AcDbLine
 10
257.0512174055
 20
74.4215062069
 30
0.0
 11
258.0512174055
 21
74.4215062069
 31
0.0
  0
LINE
  5
264
330
1F
100
AcDbEntity
  8
0
  6
Continuous
 62
     7
370
    15
100
AcDbLine
 10
257.0512174055
 20
54.4215062069
 30
0.0
 11
196.8512174055
 21
54.4215062069
 31
0.0
  0
LINE
  5
265
330
1F
100
AcDbEntity
  8
0
  6
Continuous
 62
     7
370
    15
100
AcDbLine
 10
257.0512174055
 20
54.4215062069
 30
0.0
 11
257.0512174055
 21
55.4215062069
 31
0.0
  0
ARC
  5
266
330
1F
100
AcDbEntity
  8
0
  6
Continuous
 62
     7
370
    15
100
AcDbCircle
 10
196.8512174055
 20
53.6215062069
 30
0.0
 40
0.8000000000000114
100
AcDbArc
 50
90.0
 51
180.0
  0
LINE
  5
267
330
1F
100
AcDbEntity
  8
0
  6
Continuous
 62
     7
370
    15
100
AcDbLine
 10
257.0512174055
 20
54.4215062069
 30
0.0
 11
258.0512174055
 21
55.4215062069
 31
0.0
  0
LINE
  5
268
330
1F
100
AcDbEntity
  8
0
  6
Continuous
 62
     7
370
    15
100
AcDbLine
 10
196.0512174055
 20
53.6215062069
 30
0.0
 11
196.0512174055
 21
50.4215062069
 31
0.0
  0
LINE
  5
269
330
1F
100
AcDbEntity
  8
0
  6
Continuous
 62
     7
370
    15
100
AcDbLine
 10
196.0512174055
 20
50.4215062069
 30
0.0
 11
195.0512174055
 21
51.4215062069
 31
0.0
  0
SPLINE
  5
26A
330
1F
100
AcDbEntity
  8
0
  6
Continuous
 62
     7
370
    15
100
AcDbSpline
210
0.0
220
0.0
230
1.0
 70
     8
 71
     3
 72
     8
 73
     4
 74
     0
 42
0.00000001
 43
0.00000001
 12
1.0
 22
0.0
 32
0.0
 13
1.0
 23
0.0
 33
0.0
 40
0.0
 40
0.0
 40
0.0
 40
0.0
 40
1.0
 40
1.0
 40
1.0
 40
1.0
 10
195.0512174055023
 20
49.42150620689656
 30
0.0
 10
195.3787549994873
 20
49.74904380088152
 30
0.0
 10
195.7118795281897
 20
50.07371242838992
 30
0.0
 10
196.0512174055023
 20
50.39519041742287
 30
0.0
  0
LINE
  5
26B
330
1F
100
AcDbEntity
  8
0
  6
Continuous
 62
     7
370
    15
100
AcDbLine
 10
195.0512174055
 20
49.4215062069
 30
0.0
 11
191.0512174055
 21
49.4215062069
 31
0.0
  0
LINE
  5
26C
330
1F
100
AcDbEntity
  8
0
  6
Continuous
 62
     7
370
    15
100
AcDbLine
 10
196.0512174055
 20
50.4215062069
 30
0.0
 11
196.0512174055
 21
50.3951904174
 31
0.0
  0
LINE
  5
26D
330
1F
100
AcDbEntity
  8
0
  6
Continuous
 62
     7
370
    15
100
AcDbLine
 10
191.0512174055
 20
49.4215062069
 30
0.0
 11
191.0512174055
 21
51.4215062069
 31
0.0
  0
LINE
  5
26E
330
1F
100
AcDbEntity
  8
0
  6
Continuous
 62
     7
370
    15
100
AcDbLine
 10
196.0512174055
 20
50.4215062069
 30
0.0
 11
214.0512174055
 21
50.4215062069
 31
0.0
  0
LINE
  5
26F
330
1F
100
AcDbEntity
  8
0
  6
Continuous
 62
     7
370
    15
100
AcDbLine
 10
214.0512174055
 20
49.4215062069
 30
0.0
 11
195.0512174055
 21
49.4215062069
 31
0.0
  0
SPLINE
  5
270
330
1F
100
AcDbEntity
  8
0
  6
Continuous
 62
     7
370
    15
100
AcDbSpline
210
0.0
220
0.0
230
1.0
 70
     8
 71
     3
 72
    17
 73
    13
 74
     0
 42
0.00000001
 43
0.00000001
 12
1.0
 22
0.0
 32
0.0
 13
1.0
 23
0.0
 33
0.0
 40
0.0
 40
0.0
 40
0.0
 40
0.0
 40
0.1071373279366291
 40
0.214266410157493
 40
0.3216097375823306
 40
0.4290956010880195
 40
0.5363476705217688
 40
0.6433543613523625
 40
0.7504869858601467
 40
0.8579199544451589
 40
0.9653598746021116
 40
1.0
 40
1.0
 40
1.0
 40
1.0
 10
180.0512174055023
 20
100.4215062068966
 30
0.0
 10
180.073258114851
 20
100.4196929518135
 30
0.0
 10
180.1173378372077
 20
100.4160665812028
 30
0.0
 10
180.4608656150075
 20
100.39084044671
 30
0.0
 10
180.9673532124144
 20
100.3627220740405
 30
0.0
 10
181.600793219806
 20
100.3424242085578
 30
0.0
 10
182.2837515059357
 20
100.3393723551753
 30
0.0
 10
182.9387373779509
 20
100.3546146235676
 30
0.0
 10
183.4982699516195
 20
100.3818789226088
 30
0.0
 10
183.8800990567809
 20
100.4078085740609
 30
0.0
 10
184.0619316558141
 20
100.4223518822533
 30
0.0
 10
184.0334324442029
 20
100.4200965866926
 30
0.0
 10
184.0264841337622
 20
100.4195467295981
 30
0.0
  0
SPLINE
  5
271
330
1F
100
AcDbEntity
  8
0
  6
Continuous
 62
     7
370
    15
100
AcDbSpline
210
0.0
220
0.0
230
1.0
 70
     8
 71
     3
 72
    12
 73
     8
 74
     0
 42
0.00000001
 43
0.00000001
 12
1.0
 22
0.0
 32
0.0
 13
1.0
 23
0.0
 33
0.0
 40
0.0
 40
0.0
 40
0.0
 40
0.0
 40
0.2499999999999996
 40
0.2499999999999996
 40
0.4999999999999991
 40
0.4999999999999991
 40
1.0
 40
1.0
 40
1.0
 40
1.0
 10
178.5789742190688
 20
82.99031617607706
 30
0.0
 10
178.5153089825382
 20
82.99031617607706
 30
0.0
 10
178.4557027503149
 20
83.01638832455676
 30
0.0
 10
178.357042225384
 20
83.09192707537785
 30
0.0
 10
178.3180752353688
 20
83.13917801247408
 30
0.0
 10
178.2186884034443
 20
83.2910018304405
 30
0.0
 10
178.1766121560209
 20
83.40380508020557
 30
0.0
 10
178.1459615171765
 20
83.51795920494068
 30
0.0
  0
LINE
  5
272
330
1F
100
AcDbEntity
  8
0
  6
Continuous
 62
     7
370
    15
100
AcDbLine
 10
181.5234605919
 20
82.9903161761
 30
0.0
 11
178.5789742191
 21
82.9903161761
 31
0.0
  0
SPLINE
  5
273
330
1F
100
AcDbEntity
  8
0
  6
Continuous
 62
     7
370
    15
100
AcDbSpline
210
0.0
220
0.0
230
1.0
 70
     8
 71
     3
 72
    12
 73
     8
 74
     0
 42
0.00000001
 43
0.00000001
 12
1.0
 22
0.0
 32
0.0
 13
1.0
 23
0.0
 33
0.0
 40
0.0
 40
0.0
 40
0.0
 40
0.0
 40
0.4999999999999953
 40
0.4999999999999953
 40
0.7499999999999977
 40
0.7499999999999977
 40
1.0
 40
1.0
 40
1.0
 40
1.0
 10
181.9564732938281
 20
83.5179592049407
 30
0.0
 10
181.9257739104608
 20
83.40362353787684
 30
0.0
 10
181.8844238423543
 20
83.29227018503546
 30
0.0
 10
181.7846679141348
 20
83.13953341278675
 30
0.0
 10
181.7449709964021
 20
83.09167352693463
 30
0.0
 10
181.6477128447545
 20
83.01707041358516
 30
0.0
 10
181.5869366867638
 20
82.99031617607707
 30
0.0
 10
181.5234605919359
 20
82.99031617607707
 30
0.0
  0
ELLIPSE
  5
274
330
1F
100
AcDbEntity
  8
0
  6
Continuous
 62
     7
370
    15
100
AcDbEllipse
 10
168.9949597505
 20
75.4215062069
 30
0.0
 11
11.70927234972711
 21
24.67718644093743
 31
0.0
210
0.0
220
0.0
230
1.0
 40
0.3419987131
 41
5.203068809370453
 42
6.114256032590498
  0
SPLINE
  5
275
330
1F
100
AcDbEntity
  8
0
  6
Continuous
 62
     7
370
    15
100
AcDbSpline
210
0.0
220
0.0
230
1.0
 70
     8
 71
     3
 72
    12
 73
     8
 74
     0
 42
0.00000001
 43
0.00000001
 12
1.0
 22
0.0
 32
0.0
 13
1.0
 23
0.0
 33
0.0
 40
0.0
 40
0.0
 40
0.0
 40
0.0
 40
0.2500000000000016
 40
0.2500000000000016
 40
0.5000000000000032
 40
0.5000000000000032
 40
1.0
 40
1.0
 40
1.0
 40
1.0
 10
181.5234605919359
 20
99.24823732239847
 30
0.0
 10
181.5871258284664
 20
99.24823732239848
 30
0.0
 10
181.6467320606897
 20
99.23997254673263
 30
0.0
 10
181.7453925856206
 20
99.21575376514947
 30
0.0
 10
181.7843595756358
 20
99.20049644584032
 30
0.0
 10
181.8837464075603
 20
99.15086309157839
 30
0.0
 10
181.9258226549838
 20
99.11322338340426
 30
0.0
 10
181.9564732938281
 20
99.07414768412815
 30
0.0
  0
LINE
  5
276
330
1F
100
AcDbEntity
  8
0
  6
Continuous
 62
     7
370
    15
100
AcDbLine
 10
178.5789742191
 20
99.2482373224
 30
0.0
 11
181.5234605919
 21
99.2482373224
 31
0.0
  0
SPLINE
  5
277
330
1F
100
AcDbEntity
  8
0
  6
Continuous
 62
     7
370
    15
100
AcDbSpline
210
0.0
220
0.0
230
1.0
 70
     8
 71
     3
 72
    12
 73
     8
 74
     0
 42
0.00000001
 43
0.00000001
 12
1.0
 22
0.0
 32
0.0
 13
1.0
 23
0.0
 33
0.0
 40
0.0
 40
0.0
 40
0.0
 40
0.0
 40
0.5000000000000013
 40
0.5000000000000013
 40
0.7500000000000007
 40
0.7500000000000007
 40
1.0
 40
1.0
 40
1.0
 40
1.0
 10
178.1459615171765
 20
99.07414768412815
 30
0.0
 10
178.1766609005438
 20
99.11328552652404
 30
0.0
 10
178.2180109686503
 20
99.15044530924955
 30
0.0
 10
178.3177668968698
 20
99.20038181487729
 30
0.0
 10
178.3574638146025
 20
99.21583468502104
 30
0.0
 10
178.4547219662501
 20
99.2397542286201
 30
0.0
 10
178.5154981242408
 20
99.24823732239848
 30
0.0
 10
178.5789742190688
 20
99.24823732239848
 30
0.0
  0
ELLIPSE
  5
278
330
1F
100
AcDbEntity
  8
0
  6
Continuous
 62
     7
370
    15
100
AcDbEllipse
 10
191.1074750605
 20
75.4215062069
 30
0.0
 11
-11.70927234972697
 21
24.67718644093745
 31
0.0
210
0.0
220
0.0
230
1.0
 40
0.3419987131
 41
0.1689292745891287
 42
1.080116497809148
  0
SPLINE
  5
279
330
1F
100
AcDbEntity
  8
0
  6
Continuous
 62
     7
370
    15
100
AcDbSpline
210
0.0
220
0.0
230
1.0
 70
     8
 71
     3
 72
    12
 73
     8
 74
     0
 42
0.00000001
 43
0.00000001
 12
1.0
 22
0.0
 32
0.0
 13
1.0
 23
0.0
 33
0.0
 40
0.0
 40
0.0
 40
0.0
 40
0.0
 40
0.2500000000000002
 40
0.2500000000000002
 40
0.5000000000000004
 40
0.5000000000000004
 40
1.0
 40
1.0
 40
1.0
 40
1.0
 10
178.5789742190688
 20
51.59477509139447
 30
0.0
 10
178.5153089825382
 20
51.59477509139447
 30
0.0
 10
178.4557027503149
 20
51.60303986706034
 30
0.0
 10
178.357042225384
 20
51.62725864864348
 30
0.0
 10
178.3180752353688
 20
51.64251596795263
 30
0.0
 10
178.2186884034443
 20
51.69214932221455
 30
0.0
 10
178.1766121560209
 20
51.72978903038866
 30
0.0
 10
178.1459615171765
 20
51.7688647296648
 30
0.0
  0
LINE
  5
27A
330
1F
100
AcDbEntity
  8
0
  6
Continuous
 62
     7
370
    15
100
AcDbLine
 10
181.5234605919
 20
51.5947750914
 30
0.0
 11
178.5789742191
 21
51.5947750914
 31
0.0
  0
SPLINE
  5
27B
330
1F
100
AcDbEntity
  8
0
  6
Continuous
 62
     7
370
    15
100
AcDbSpline
210
0.0
220
0.0
230
1.0
 70
     8
 71
     3
 72
    12
 73
     8
 74
     0
 42
0.00000001
 43
0.00000001
 12
1.0
 22
0.0
 32
0.0
 13
1.0
 23
0.0
 33
0.0
 40
0.0
 40
0.0
 40
0.0
 40
0.0
 40
0.5
 40
0.5
 40
0.75
 40
0.75
 40
1.0
 40
1.0
 40
1.0
 40
1.0
 10
181.9564732938281
 20
51.76886472966481
 30
0.0
 10
181.9257739104608
 20
51.72972688726892
 30
0.0
 10
181.8844238423543
 20
51.69256710454341
 30
0.0
 10
181.7846679141348
 20
51.64263059891567
 30
0.0
 10
181.7449709964021
 20
51.62717772877191
 30
0.0
 10
181.6477128447545
 20
51.60325818517288
 30
0.0
 10
181.5869366867638
 20
51.59477509139447
 30
0.0
 10
181.5234605919359
 20
51.59477509139447
 30
0.0
  0
ELLIPSE
  5
27C
330
1F
100
AcDbEntity
  8
0
  6
Continuous
 62
     7
370
    15
100
AcDbEllipse
 10
168.9949597505
 20
75.4215062069
 30
0.0
 11
-11.70927234972729
 21
24.67718644093745
 31
0.0
210
0.0
220
0.0
230
1.0
 40
0.3419987131
 41
3.310521928178941
 42
4.221709151398933
  0
SPLINE
  5
27D
330
1F
100
AcDbEntity
  8
0
  6
Continuous
 62
     7
370
    15
100
AcDbSpline
210
0.0
220
0.0
230
1.0
 70
     8
 71
     3
 72
    12
 73
     8
 74
     0
 42
0.00000001
 43
0.00000001
 12
1.0
 22
0.0
 32
0.0
 13
1.0
 23
0.0
 33
0.0
 40
0.0
 40
0.0
 40
0.0
 40
0.0
 40
0.2499999999999991
 40
0.2499999999999991
 40
0.4999999999999982
 40
0.4999999999999982
 40
1.0
 40
1.0
 40
1.0
 40
1.0
 10
181.5234605919359
 20
67.85269623771555
 30
0.0
 10
181.5871258284664
 20
67.85269623771555
 30
0.0
 10
181.6467320606897
 20
67.82662408923586
 30
0.0
 10
181.7453925856206
 20
67.75108533841475
 30
0.0
 10
181.7843595756358
 20
67.70383440131855
 30
0.0
 10
181.8837464075603
 20
67.5520105833521
 30
0.0
 10
181.9258226549838
 20
67.43920733358702
 30
0.0
 10
181.9564732938281
 20
67.32505320885193
 30
0.0
  0
LINE
  5
27E
330
1F
100
AcDbEntity
  8
0
  6
Continuous
 62
     7
370
    15
100
AcDbLine
 10
178.5789742191
 20
67.8526962377
 30
0.0
 11
181.5234605919
 21
67.8526962377
 31
0.0
  0
SPLINE
  5
27F
330
1F
100
AcDbEntity
  8
0
  6
Continuous
 62
     7
370
    15
100
AcDbSpline
210
0.0
220
0.0
230
1.0
 70
     8
 71
     3
 72
    12
 73
     8
 74
     0
 42
0.00000001
 43
0.00000001
 12
1.0
 22
0.0
 32
0.0
 13
1.0
 23
0.0
 33
0.0
 40
0.0
 40
0.0
 40
0.0
 40
0.0
 40
0.5000000000000018
 40
0.5000000000000018
 40
0.7500000000000009
 40
0.7500000000000009
 40
1.0
 40
1.0
 40
1.0
 40
1.0
 10
178.1459615171765
 20
67.32505320885193
 30
0.0
 10
178.1766609005438
 20
67.43938887591578
 30
0.0
 10
178.2180109686503
 20
67.55074222875712
 30
0.0
 10
178.3177668968698
 20
67.70347900100587
 30
0.0
 10
178.3574638146025
 20
67.751338886858
 30
0.0
 10
178.4547219662501
 20
67.82594200020746
 30
0.0
 10
178.5154981242408
 20
67.85269623771555
 30
0.0
 10
178.5789742190688
 20
67.85269623771555
 30
0.0
  0
ELLIPSE
  5
280
330
1F
100
AcDbEntity
  8
0
  6
Continuous
 62
     7
370
    15
100
AcDbEllipse
 10
191.1074750605
 20
75.4215062069
 30
0.0
 11
11.70927234972717
 21
24.67718644093745
 31
0.0
210
0.0
220
0.0
230
1.0
 40
0.3419987131
 41
2.061476155780665
 42
2.972663379000687
  0
LINE
  5
281
330
1F
100
AcDbEntity
  8
0
  6
Continuous
 62
     7
370
    15
100
AcDbLine
 10
170.0512174055
 20
50.7215062069
 30
0.0
 11
170.0512174055
 21
100.1215062069
 31
0.0
  0
SPLINE
  5
282
330
1F
100
AcDbEntity
  8
0
  6
Continuous
 62
     7
370
    15
100
AcDbSpline
210
0.0
220
0.0
230
1.0
 70
     8
 71
     3
 72
    14
 73
    10
 74
     0
 42
0.00000001
 43
0.00000001
 12
1.0
 22
0.0
 32
0.0
 13
1.0
 23
0.0
 33
0.0
 40
0.0
 40
0.0
 40
0.0
 40
0.0
 40
0.25
 40
0.25
 40
0.5
 40
0.5
 40
0.75
 40
0.75
 40
1.0
 40
1.0
 40
1.0
 40
1.0
 10
169.010356377374
 20
88.35636869442251
 30
0.0
 10
169.0420715117047
 20
88.39064988941672
 30
0.0
 10
169.076686037005
 20
88.42390215778453
 30
0.0
 10
169.1563572324204
 20
88.48719261488934
 30
0.0
 10
169.2014131094508
 20
88.5176265236583
 30
0.0
 10
169.3119675219562
 20
88.56886922110856
 30
0.0
 10
169.3793529361603
 20
88.58962672155863
 30
0.0
 10
169.5299824560584
 20
88.5951124995025
 30
0.0
 10
169.5998096928238
 20
88.5787014988971
 30
0.0
 10
169.6562405166272
 20
88.55591406968537
 30
0.0
  0
SPLINE
  5
283
330
1F
100
AcDbEntity
  8
0
  6
Continuous
 62
     7
370
    15
100
AcDbSpline
210
0.0
220
0.0
230
1.0
 70
     8
 71
     3
 72
    16
 73
    12
 74
     0
 42
0.00000001
 43
0.00000001
 12
1.0
 22
0.0
 32
0.0
 13
1.0
 23
0.0
 33
0.0
 40
0.0
 40
0.0
 40
0.0
 40
0.0
 40
0.0625000000000005
 40
0.0625000000000005
 40
0.1250000000000009
 40
0.1250000000000009
 40
0.2499999999999976
 40
0.2499999999999976
 40
0.5
 40
0.5
 40
1.0
 40
1.0
 40
1.0
 40
1.0
 10
169.6562405165955
 20
88.55591406964146
 30
0.0
 10
169.6679747510424
 20
88.55117564799431
 30
0.0
 10
169.6815065065213
 20
88.5482133708476
 30
0.0
 10
169.7114939669511
 20
88.55159254846934
 30
0.0
 10
169.7264886733594
 20
88.55847235620487
 30
0.0
 10
169.7622290957542
 20
88.58541601575737
 30
0.0
 10
169.7762424327554
 20
88.60849048221168
 30
0.0
 10
169.8103865215367
 20
88.67517820448604
 30
0.0
 10
169.8213584256551
 20
88.71868168056871
 30
0.0
 10
169.8472039659214
 20
88.84739690351725
 30
0.0
 10
169.8512174055023
 20
88.92878708414828
 30
0.0
 10
169.8512174055023
 20
89.00727089429213
 30
0.0
  0
LINE
  5
284
330
1F
100
AcDbEntity
  8
0
  6
Continuous
 62
     7
370
    15
100
AcDbLine
 10
169.8512174055
 20
93.2613264858
 30
0.0
 11
169.8512174055
 21
89.0072708943
 31
0.0
  0
SPLINE
  5
285
330
1F
100
AcDbEntity
  8
0
  6
Continuous
 62
     7
370
    15
100
AcDbSpline
210
0.0
220
0.0
230
1.0
 70
     8
 71
     3
 72
    10
 73
     6
 74
     0
 42
0.00000001
 43
0.00000001
 12
1.0
 22
0.0
 32
0.0
 13
1.0
 23
0.0
 33
0.0
 40
0.0
 40
0.0
 40
0.0
 40
0.0
 40
0.5
 40
0.5
 40
1.0
 40
1.0
 40
1.0
 40
1.0
 10
169.0103563773731
 20
58.30674681489262
 30
0.0
 10
168.9385669076203
 20
58.23227281290269
 30
0.0
 10
168.8861086047748
 20
58.15761732999368
 30
0.0
 10
168.7967683532779
 20
58.01270929107256
 30
0.0
 10
168.7607756455546
 20
57.94228443210349
 30
0.0
 10
168.7298970619427
 20
57.8747018875731
 30
0.0
  0
SPLINE
  5
286
330
1F
100
AcDbEntity
  8
0
  6
Continuous
 62
     7
370
    15
100
AcDbSpline
210
0.0
220
0.0
230
1.0
 70
     8
 71
     3
 72
    14
 73
    10
 74
     0
 42
0.00000001
 43
0.00000001
 12
1.0
 22
0.0
 32
0.0
 13
1.0
 23
0.0
 33
0.0
 40
0.0
 40
0.0
 40
0.0
 40
0.0
 40
0.25
 40
0.25
 40
0.5
 40
0.5
 40
0.75
 40
0.75
 40
1.0
 40
1.0
 40
1.0
 40
1.0
 10
169.0103563773725
 20
58.30674681489195
 30
0.0
 10
169.0420650768579
 20
58.33964124574236
 30
0.0
 10
169.0766728954985
 20
58.37186455539992
 30
0.0
 10
169.1563313059878
 20
58.43339706514229
 30
0.0
 10
169.2013935758827
 20
58.46314651100582
 30
0.0
 10
169.3119754214611
 20
58.51218900449648
 30
0.0
 10
169.3796195422763
 20
58.53133961593547
 30
0.0
 10
169.5298678326734
 20
58.53039390850005
 30
0.0
 10
169.5998202309038
 20
58.50970589131733
 30
0.0
 10
169.6562405166273
 20
58.48316167983098
 30
0.0
  0
SPLINE
  5
287
330
1F
100
AcDbEntity
  8
0
  6
Continuous
 62
     7
370
    15
100
AcDbSpline
210
0.0
220
0.0
230
1.0
 70
     8
 71
     3
 72
    16
 73
    12
 74
     0
 42
0.00000001
 43
0.00000001
 12
1.0
 22
0.0
 32
0.0
 13
1.0
 23
0.0
 33
0.0
 40
0.0
 40
0.0
 40
0.0
 40
0.0
 40
0.0625000000000001
 40
0.0625000000000001
 40
0.1250000000000003
 40
0.1250000000000003
 40
0.2500000000000027
 40
0.2500000000000027
 40
0.5000000000000041
 40
0.5000000000000041
 40
1.0
 40
1.0
 40
1.0
 40
1.0
 10
169.6562405165954
 20
58.48316167982637
 30
0.0
 10
169.6679747510424
 20
58.47764104133826
 30
0.0
 10
169.6815065065213
 20
58.47212698446664
 30
0.0
 10
169.7114939669511
 20
58.46329542126255
 30
0.0
 10
169.7264886733594
 20
58.460658597983
 30
0.0
 10
169.7622290957542
 20
58.45824289843919
 30
0.0
 10
169.7762424327554
 20
58.4619898414324
 30
0.0
 10
169.8103865215367
 20
58.47597679743355
 30
0.0
 10
169.8213584256551
 20
58.49007822329268
 30
0.0
 10
169.8472039659214
 20
58.53699599400809
 30
0.0
 10
169.8512174055023
 20
58.57477846963007
 30
0.0
 10
169.8512174055023
 20
58.61540065181622
 30
0.0
  0
LINE
  5
288
330
1F
100
AcDbEntity
  8
0
  6
Continuous
 62
     7
370
    15
100
AcDbLine
 10
169.8512174055
 20
78.6418470746
 30
0.0
 11
169.8512174055
 21
58.6154006518
 31
0.0
  0
SPLINE
  5
289
330
1F
100
AcDbEntity
  8
0
  6
Continuous
 62
     7
370
    15
100
AcDbSpline
210
0.0
220
0.0
230
1.0
 70
     8
 71
     3
 72
    16
 73
    12
 74
     0
 42
0.00000001
 43
0.00000001
 12
1.0
 22
0.0
 32
0.0
 13
1.0
 23
0.0
 33
0.0
 40
0.0
 40
0.0
 40
0.0
 40
0.0
 40
0.4999999999999997
 40
0.4999999999999997
 40
0.7499999999999986
 40
0.7499999999999986
 40
0.8749999999999988
 40
0.8749999999999988
 40
0.9374999999999993
 40
0.9374999999999993
 40
1.0
 40
1.0
 40
1.0
 40
1.0
 10
169.8512174055024
 20
78.64184707458092
 30
0.0
 10
169.8512174055022
 20
78.76180085315634
 30
0.0
 10
169.8470928626482
 20
78.88153217481025
 30
0.0
 10
169.8211764170151
 20
79.05666532102332
 30
0.0
 10
169.8098988359953
 20
79.11475703216216
 30
0.0
 10
169.7761634574539
 20
79.19410259550236
 30
0.0
 10
169.7617746422095
 20
79.2212429094783
 30
0.0
 10
169.7265279527705
 20
79.2453247635959
 30
0.0
 10
169.7113225283135
 20
79.24959974904095
 30
0.0
 10
169.6816759491442
 20
79.2442088043545
 30
0.0
 10
169.6679706131468
 20
79.23569831358554
 30
0.0
 10
169.656240516623
 20
79.22544287117807
 30
0.0
  0
SPLINE
  5
28A
330
1F
100
AcDbEntity
  8
0
  6
Continuous
 62
     7
370
    15
100
AcDbSpline
210
0.0
220
0.0
230
1.0
 70
     8
 71
     3
 72
    14
 73
    10
 74
     0
 42
0.00000001
 43
0.00000001
 12
1.0
 22
0.0
 32
0.0
 13
1.0
 23
0.0
 33
0.0
 40
0.0
 40
0.0
 40
0.0
 40
0.0
 40
0.2500000000000005
 40
0.2500000000000005
 40
0.500000000000001
 40
0.500000000000001
 40
0.7500000000000004
 40
0.7500000000000004
 40
1.0
 40
1.0
 40
1.0
 40
1.0
 10
169.6562405166335
 20
79.22544287116335
 30
0.0
 10
169.5997934345752
 20
79.17609205824213
 30
0.0
 10
169.5289430505324
 20
79.13905008635345
 30
0.0
 10
169.380506615716
 20
79.14351001817309
 30
0.0
 10
169.3113173640291
 20
79.1839975518026
 30
0.0
 10
169.2016058157882
 20
79.28361841011322
 30
0.0
 10
169.1563641664458
 20
79.3439035680365
 30
0.0
 10
169.076716148262
 20
79.46868906186128
 30
0.0
 10
169.042089232496
 20
79.53418327202782
 30
0.0
 10
169.0103563773746
 20
79.60140311137013
 30
0.0
  0
SPLINE
  5
28B
330
1F
100
AcDbEntity
  8
0
  6
Continuous
 62
     7
370
    15
100
AcDbSpline
210
0.0
220
0.0
230
1.0
 70
     8
 71
     3
 72
    10
 73
     6
 74
     0
 42
0.00000001
 43
0.00000001
 12
1.0
 22
0.0
 32
0.0
 13
1.0
 23
0.0
 33
0.0
 40
0.0
 40
0.0
 40
0.0
 40
0.0
 40
0.5
 40
0.5
 40
1.0
 40
1.0
 40
1.0
 40
1.0
 10
169.0103563773748
 20
79.601403111372
 30
0.0
 10
168.9385474019822
 20
79.75351636341841
 30
0.0
 10
168.8860915425594
 20
79.91115000498812
 30
0.0
 10
168.796756956668
 20
80.23058164549266
 30
0.0
 10
168.760770093755
 20
80.39264411455184
 30
0.0
 10
168.7298970619427
 20
80.55598814021967
 30
0.0
  0
SPLINE
  5
28C
330
1F
100
AcDbEntity
  8
0
  6
Continuous
 62
     7
370
    15
100
AcDbSpline
210
0.0
220
0.0
230
1.0
 70
     8
 71
     3
 72
    10
 73
     6
 74
     0
 42
0.00000001
 43
0.00000001
 12
1.0
 22
0.0
 32
0.0
 13
1.0
 23
0.0
 33
0.0
 40
0.0
 40
0.0
 40
0.0
 40
0.0
 40
0.5
 40
0.5
 40
1.0
 40
1.0
 40
1.0
 40
1.0
 10
168.7298970619427
 20
87.83382859289694
 30
0.0
 10
168.7607784015409
 20
87.92962799723274
 30
0.0
 10
168.7967740110407
 20
88.02128913888367
 30
0.0
 10
168.8861170751421
 20
88.1958191875939
 30
0.0
 10
168.9385765894503
 20
88.27878122842611
 30
0.0
 10
169.010356377374
 20
88.35636869442251
 30
0.0
  0
SPLINE
  5
28D
330
1F
100
AcDbEntity
  8
0
  6
Continuous
 62
     7
370
    15
100
AcDbSpline
210
0.0
220
0.0
230
1.0
 70
     8
 71
     3
 72
    18
 73
    14
 74
     0
 42
0.00000001
 43
0.00000001
 12
1.0
 22
0.0
 32
0.0
 13
1.0
 23
0.0
 33
0.0
 40
0.0
 40
0.0
 40
0.0
 40
0.0
 40
0.2500000000000005
 40
0.2500000000000005
 40
0.3750000000000004
 40
0.3750000000000004
 40
0.5000000000000003
 40
0.5000000000000003
 40
0.6250000000000002
 40
0.6250000000000002
 40
0.7500000000000001
 40
0.7500000000000001
 40
1.0
 40
1.0
 40
1.0
 40
1.0
 10
168.7298970619427
 20
80.55598814021965
 30
0.0
 10
168.5946114556403
 20
81.27176155964551
 30
0.0
 10
168.4934437093974
 20
81.97257170661202
 30
0.0
 10
168.3905823665285
 20
83.00098309593066
 30
0.0
 10
168.3644795210052
 20
83.34086605420882
 30
0.0
 10
168.3295895374603
 20
84.00867780883813
 30
0.0
 10
168.3210032791704
 20
84.33186958939335
 30
0.0
 10
168.3209035696047
 20
84.9575196542533
 30
0.0
 10
168.3293919407533
 20
85.25997603126326
 30
0.0
 10
168.3635353202739
 20
85.84412595206325
 30
0.0
 10
168.3893323021276
 20
86.12689004875776
 30
0.0
 10
168.4927334335156
 20
86.93558484768361
 30
0.0
 10
168.594591425687
 20
87.41408645977572
 30
0.0
 10
168.7298970619427
 20
87.83382859289695
 30
0.0
  0
LINE
  5
28E
330
1F
100
AcDbEntity
  8
0
  6
Continuous
 62
     7
370
    15
100
AcDbLine
 10
167.8512174055
 20
79.6014031114
 30
0.0
 11
167.8512174055
 21
88.5044083789
 31
0.0
  0
LINE
  5
28F
330
1F
100
AcDbEntity
  8
0
  6
Continuous
 62
     7
370
    15
100
AcDbLine
 10
141.5512174055
 20
79.6014031114
 30
0.0
 11
141.5512174055
 21
87.9321842215
 31
0.0
  0
LINE
  5
290
330
1F
100
AcDbEntity
  8
0
  6
Continuous
 62
     7
370
    15
100
AcDbLine
 10
167.8512174055
 20
58.1587071304
 30
0.0
 11
167.8512174055
 21
79.6014031114
 31
0.0
  0
LINE
  5
291
330
1F
100
AcDbEntity
  8
0
  6
Continuous
 62
     7
370
    15
100
AcDbLine
 10
141.5512174055
 20
58.7309312878
 30
0.0
 11
141.5512174055
 21
79.6014031114
 31
0.0
  0
LINE
  5
292
330
1F
100
AcDbEntity
  8
0
  6
Continuous
 62
     7
370
    15
100
AcDbLine
 10
140.0512174055
 20
79.6014031114
 30
0.0
 11
140.0512174055
 21
87.1821842215
 31
0.0
  0
LINE
  5
293
330
1F
100
AcDbEntity
  8
0
  6
Continuous
 62
     7
370
    15
100
AcDbLine
 10
140.0512174055
 20
59.4809312878
 30
0.0
 11
140.0512174055
 21
79.6014031114
 31
0.0
  0
LINE
  5
294
330
1F
100
AcDbEntity
  8
0
  6
Continuous
 62
     7
370
    15
100
AcDbLine
 10
167.8512174055
 20
88.5044083789
 30
0.0
 11
167.8512174055
 21
91.8216049915
 31
0.0
  0
LINE
  5
295
330
1F
100
AcDbEntity
  8
0
  6
Continuous
 62
     7
370
    15
100
AcDbLine
 10
141.5512174055
 20
87.9321842215
 30
0.0
 11
141.5512174055
 21
90.9543029653
 31
0.0
  0
SPLINE
  5
296
330
1F
100
AcDbEntity
  8
0
  6
Continuous
 62
     7
370
    15
100
AcDbSpline
210
0.0
220
0.0
230
1.0
 70
     8
 71
     3
 72
     8
 73
     4
 74
     0
 42
0.00000001
 43
0.00000001
 12
1.0
 22
0.0
 32
0.0
 13
1.0
 23
0.0
 33
0.0
 40
0.0000202082942178
 40
0.0000202082942178
 40
0.0000202082942178
 40
0.0000202082942178
 40
0.0040218803475995
 40
0.0040218803475995
 40
0.0040218803475995
 40
0.0040218803475995
 10
145.5512174055023
 20
91.04636996533391
 30
0.0
 10
144.2178744045155
 20
91.01561688860396
 30
0.0
 10
142.8845405312929
 20
90.98492787712031
 30
0.0
 10
141.5512174055023
 20
90.954302965307
 30
0.0
  0
SPLINE
  5
297
330
1F
100
AcDbEntity
  8
0
  6
Continuous
 62
     7
370
    15
100
AcDbSpline
210
0.0
220
0.0
230
1.0
 70
     8
 71
     3
 72
    14
 73
    10
 74
     0
 42
0.00000001
 43
0.00000001
 12
1.0
 22
0.0
 32
0.0
 13
1.0
 23
0.0
 33
0.0
 40
0.0
 40
0.0
 40
0.0
 40
0.0
 40
0.0581152347113017
 40
0.154684620111428
 40
0.2537782824752864
 40
0.3909362575851159
 40
0.529680741498228
 40
0.8121000209871801
 40
1.0
 40
1.0
 40
1.0
 40
1.0
 10
147.4291468487868
 20
91.30780063579184
 30
0.0
 10
147.4302773027375
 20
91.30791853675663
 30
0.0
 10
147.4332862183992
 20
91.30823235233424
 30
0.0
 10
147.3570106782203
 20
91.30030486820252
 30
0.0
 10
147.208585309413
 20
91.28423189587805
 30
0.0
 10
146.9799798923342
 20
91.25793420434783
 30
0.0
 10
146.5855940675337
 20
91.20822726033515
 30
0.0
 10
146.1023537150082
 20
91.13976347585657
 30
0.0
 10
145.7085487247454
 20
91.07303074591731
 30
0.0
 10
145.5512174055023
 20
91.04636996533392
 30
0.0
  0
SPLINE
  5
298
330
1F
100
AcDbEntity
  8
0
  6
Continuous
 62
     7
370
    15
100
AcDbSpline
210
0.0
220
0.0
230
1.0
 70
     8
 71
     3
 72
    22
 73
    18
 74
     0
 42
0.00000001
 43
0.00000001
 12
1.0
 22
0.0
 32
0.0
 13
1.0
 23
0.0
 33
0.0
 40
0.0
 40
0.0
 40
0.0
 40
0.0
 40
0.0590732554725936
 40
0.1193975166078277
 40
0.1883060884322869
 40
0.259053144582259
 40
0.3309221188202044
 40
0.4047811275823819
 40
0.4782910730341869
 40
0.5539400782635596
 40
0.6271979930086614
 40
0.7027383041671417
 40
0.7732007814857377
 40
0.8460064499098859
 40
0.911659110811547
 40
0.9794716210683062
 40
1.0
 40
1.0
 40
1.0
 40
1.0
 10
153.5802759339847
 20
91.37629531789655
 30
0.0
 10
153.6912067401044
 20
91.36916114118618
 30
0.0
 10
153.9154175553039
 20
91.35474170593673
 30
0.0
 10
154.3293402244901
 20
91.33472396092644
 30
0.0
 10
154.8069678278825
 20
91.31909451358753
 30
0.0
 10
155.3474280721397
 20
91.31174517108339
 30
0.0
 10
155.9206980100947
 20
91.31569287338803
 30
0.0
 10
156.506947316523
 20
91.3322857306778
 30
0.0
 10
157.0924576909796
 20
91.36143937203997
 30
0.0
 10
157.6493186595377
 20
91.40083344952777
 30
0.0
 10
158.1668882750771
 20
91.44748342335255
 30
0.0
 10
158.6136608774648
 20
91.4955421453986
 30
0.0
 10
158.9848272230658
 20
91.54079829045466
 30
0.0
 10
159.2581373163414
 20
91.57726602913688
 30
0.0
 10
159.4301055004462
 20
91.60148973645515
 30
0.0
 10
159.5053311790514
 20
91.61242040582943
 30
0.0
 10
159.4945641969329
 20
91.61085916505951
 30
0.0
 10
159.4920621993765
 20
91.61049636882298
 30
0.0
  0
SPLINE
  5
299
330
1F
100
AcDbEntity
  8
0
  6
Continuous
 62
     7
370
    15
100
AcDbSpline
210
0.0
220
0.0
230
1.0
 70
     8
 71
     3
 72
    12
 73
     8
 74
     0
 42
0.00000001
 43
0.00000001
 12
1.0
 22
0.0
 32
0.0
 13
1.0
 23
0.0
 33
0.0
 40
0.0
 40
0.0
 40
0.0
 40
0.0
 40
0.2242535478257892
 40
0.4415254162113478
 40
0.6648557241215909
 40
0.8312142302999095
 40
1.0
 40
1.0
 40
1.0
 40
1.0
 10
152.7713787568077
 20
91.44261913503244
 30
0.0
 10
152.7793211248004
 20
91.44184744117713
 30
0.0
 10
152.7949585912648
 20
91.44032807858973
 30
0.0
 10
152.9260043675502
 20
91.42795733630244
 30
0.0
 10
153.1118757062246
 20
91.41162561593248
 30
0.0
 10
153.3341551039351
 20
91.3935881374148
 30
0.0
 10
153.4978404965591
 20
91.38208735565712
 30
0.0
 10
153.5802759339847
 20
91.37629531789655
 30
0.0
  0
SPLINE
  5
29A
330
1F
100
AcDbEntity
  8
0
  6
Continuous
 62
     7
370
    15
100
AcDbSpline
210
0.0
220
0.0
230
1.0
 70
     8
 71
     3
 72
     8
 73
     4
 74
     0
 42
0.00000001
 43
0.00000001
 12
1.0
 22
0.0
 32
0.0
 13
1.0
 23
0.0
 33
0.0
 40
0.0
 40
0.0
 40
0.0
 40
0.0
 40
1.0
 40
1.0
 40
1.0
 40
1.0
 10
141.5512174055023
 20
90.954302965307
 30
0.0
 10
141.0301651630416
 20
90.67927283865025
 30
0.0
 10
140.52542881594
 20
90.41808606449995
 30
0.0
 10
140.0512174055023
 20
90.17677519054098
 30
0.0
  0
LINE
  5
29B
330
1F
100
AcDbEntity
  8
0
  6
Continuous
 62
     7
370
    15
100
AcDbLine
 10
140.0512174055
 20
87.1821842215
 30
0.0
 11
140.0512174055
 21
90.1767751905
 31
0.0
  0
LINE
  5
29C
330
1F
100
AcDbEntity
  8
0
  6
Continuous
 62
     7
370
    15
100
AcDbLine
 10
257.0512174055
 20
53.6215062069
 30
0.0
 11
257.0512174055
 21
54.4215062069
 31
0.0
  0
LINE
  5
29D
330
1F
100
AcDbEntity
  8
0
  6
Continuous
 62
     7
370
    15
100
AcDbLine
 10
258.0512174055
 20
55.4215062069
 30
0.0
 11
258.0512174055
 21
53.6215062069
 31
0.0
  0
LINE
  5
29E
330
1F
100
AcDbEntity
  8
0
  6
Continuous
 62
     7
370
    15
100
AcDbLine
 10
258.0512174055
 20
74.4215062069
 30
0.0
 11
258.0512174055
 21
95.4215062069
 31
0.0
  0
LINE
  5
29F
330
1F
100
AcDbEntity
  8
0
  6
Continuous
 62
     7
370
    15
100
AcDbLine
 10
257.0512174055
 20
50.4215062069
 30
0.0
 11
257.0512174055
 21
53.6215062069
 31
0.0
  0
LINE
  5
2A0
330
1F
100
AcDbEntity
  8
0
  6
Continuous
 62
     7
370
    15
100
AcDbLine
 10
257.0512174055
 20
50.4215062069
 30
0.0
 11
258.0512174055
 21
50.4215062069
 31
0.0
  0
LINE
  5
2A1
330
1F
100
AcDbEntity
  8
0
  6
Continuous
 62
     7
370
    15
100
AcDbLine
 10
258.0512174055
 20
53.6215062069
 30
0.0
 11
258.0512174055
 21
50.4215062069
 31
0.0
  0
LINE
  5
2A2
330
1F
100
AcDbEntity
  8
0
  6
Continuous
 62
     7
370
    15
100
AcDbLine
 10
214.0512174055
 20
50.4215062069
 30
0.0
 11
257.0512174055
 21
50.4215062069
 31
0.0
  0
LINE
  5
2A3
330
1F
100
AcDbEntity
  8
0
  6
Continuous
 62
     7
370
    15
100
AcDbLine
 10
257.0512174055
 20
49.4215062069
 30
0.0
 11
258.0512174055
 21
50.4215062069
 31
0.0
  0
LINE
  5
2A4
330
1F
100
AcDbEntity
  8
0
  6
Continuous
 62
     7
370
    15
100
AcDbLine
 10
257.0512174055
 20
50.4215062069
 30
0.0
 11
257.0512174055
 21
49.4215062069
 31
0.0
  0
LINE
  5
2A5
330
1F
100
AcDbEntity
  8
0
  6
Continuous
 62
     7
370
    15
100
AcDbLine
 10
257.0512174055
 20
49.4215062069
 30
0.0
 11
214.0512174055
 21
49.4215062069
 31
0.0
  0
LINE
  5
2A6
330
1F
100
AcDbEntity
  8
0
  6
Continuous
 62
     7
370
    15
100
AcDbLine
 10
167.8512174055
 20
58.1587071304
 30
0.0
 11
167.8512174055
 21
56.7814074223
 31
0.0
  0
LINE
  5
2A7
330
1F
100
AcDbEntity
  8
0
  6
Continuous
 62
     7
370
    15
100
AcDbLine
 10
141.5512174055
 20
58.7309312878
 30
0.0
 11
141.5512174055
 21
57.4421549649
 31
0.0
  0
SPLINE
  5
2A8
330
1F
100
AcDbEntity
  8
0
  6
Continuous
 62
     7
370
    15
100
AcDbSpline
210
0.0
220
0.0
230
1.0
 70
     8
 71
     3
 72
    10
 73
     6
 74
     0
 42
0.00000001
 43
0.00000001
 12
1.0
 22
0.0
 32
0.0
 13
1.0
 23
0.0
 33
0.0
 40
0.0
 40
0.0
 40
0.0
 40
0.0
 40
0.3599412485529698
 40
0.730102394570938
 40
1.0
 40
1.0
 40
1.0
 40
1.0
 10
168.7298970619427
 20
57.8747018875731
 30
0.0
 10
168.6434335049057
 20
57.68455058168005
 30
0.0
 10
168.4680514104956
 20
57.29884895864732
 30
0.0
 10
168.3380135560932
 20
57.00775635422616
 30
0.0
 10
168.3331261399331
 20
56.99687107552061
 30
0.0
 10
168.3310652323752
 20
56.99228101148286
 30
0.0
  0
LINE
  5
2A9
330
1F
100
AcDbEntity
  8
0
  6
Continuous
 62
     7
370
    15
100
AcDbLine
 10
140.0512174055
 20
59.4809312878
 30
0.0
 11
140.0512174055
 21
58.3081803687
 31
0.0
  0
LINE
  5
2AA
330
1F
100
AcDbEntity
  8
VERMASSUNG
  6
CENTERX2
100
AcDbLine
 10
135.9862381073
 20
75.4215062069
 30
0.0
 11
271.5528455645
 21
75.4215062069
 31
0.0
  0
DIMENSION
  5
2AB
330
1F
100
AcDbEntity
  8
VERMASSUNG
100
AcDbDimension
  2
_D_12
 10
268.0512174055
 20
33.4215062069
 30
0.0
 11
230.5512174055
 21
33.4215062069
 31
0.0
 70
   160
  1
<>
 71
     2
 42
-1.0
  3
SLDDIMSTYLE1
100
AcDbAlignedDimension
 13
193.0512174055
 23
74.4215062069
 33
0.0
 14
268.0512174055
 24
95.4215062069
 34
0.0
100
AcDbRotatedDimension
  0
OLE2FRAME
  5
2B5
330
1F
100
AcDbEntity
  8
0
100
AcDbOle2Frame
 70
     2
  3
Paintbrush-Bild
 10
13.8511154363
 20
38.264191557
 30
0.0
 11
51.6290888628
 21
31.9806341108
 31
0.0
 71
     2
 72
     0
 73
     1
 90
    12928
310
80552BED0767C5B32B40DDAF6807D121434000000000000000006FFBDDFB85D0
310
4940DDAF6807D121434000000000000000006FFBDDFB85D04940416F4BD60AFB
310
3F4000000000000000002BED0767C5B32B40416F4BD60AFB3F40000000000000
310
0000000000000100000000010000010000000100000000000100000000320000
310
D0CF11E0A1B11AE1000000000000000000000000000000003E000300FEFF0900
310
0600000000000000000000000100000001000000000000000010000002000000
310
01000000FEFFFFFF0000000000000000FFFFFFFFFFFFFFFFFFFFFFFFFFFFFFFF
310
FFFFFFFFFFFFFFFFFFFFFFFFFFFFFFFFFFFFFFFFFFFFFFFFFFFFFFFFFFFFFFFF
310
FFFFFFFFFFFFFFFFFFFFFFFFFFFFFFFFFFFFFFFFFFFFFFFFFFFFFFFFFFFFFFFF
310
FFFFFFFFFFFFFFFFFFFFFFFFFFFFFFFFFFFFFFFFFFFFFFFFFFFFFFFFFFFFFFFF
310
FFFFFFFFFFFFFFFFFFFFFFFFFFFFFFFFFFFFFFFFFFFFFFFFFFFFFFFFFFFFFFFF
310
FFFFFFFFFFFFFFFFFFFFFFFFFFFFFFFFFFFFFFFFFFFFFFFFFFFFFFFFFFFFFFFF
310
FFFFFFFFFFFFFFFFFFFFFFFFFFFFFFFFFFFFFFFFFFFFFFFFFFFFFFFFFFFFFFFF
310
FFFFFFFFFFFFFFFFFFFFFFFFFFFFFFFFFFFFFFFFFFFFFFFFFFFFFFFFFFFFFFFF
310
FFFFFFFFFFFFFFFFFFFFFFFFFFFFFFFFFFFFFFFFFFFFFFFFFFFFFFFFFFFFFFFF
310
FFFFFFFFFFFFFFFFFFFFFFFFFFFFFFFFFFFFFFFFFFFFFFFFFFFFFFFFFFFFFFFF
310
FFFFFFFFFFFFFFFFFFFFFFFFFFFFFFFFFFFFFFFFFFFFFFFFFFFFFFFFFFFFFFFF
310
FFFFFFFFFFFFFFFFFFFFFFFFFFFFFFFFFFFFFFFFFFFFFFFFFFFFFFFFFFFFFFFF
310
FFFFFFFFFFFFFFFFFFFFFFFFFFFFFFFFFFFFFFFFFFFFFFFFFFFFFFFFFFFFFFFF
310
FFFFFFFFFFFFFFFFFFFFFFFFFFFFFFFFFFFFFFFFFFFFFFFFFFFFFFFFFFFFFFFF
310
FDFFFFFFFEFFFFFFFEFFFFFFFEFFFFFF05000000060000000700000008000000
310
090000000A0000000B0000000C0000000D0000000E0000000F00000010000000
310
11000000120000001300000014000000150000001600000017000000FEFFFFFF
310
FFFFFFFFFFFFFFFFFFFFFFFFFFFFFFFFFFFFFFFFFFFFFFFFFFFFFFFFFFFFFFFF
310
FFFFFFFFFFFFFFFFFFFFFFFFFFFFFFFFFFFFFFFFFFFFFFFFFFFFFFFFFFFFFFFF
310
FFFFFFFFFFFFFFFFFFFFFFFFFFFFFFFFFFFFFFFFFFFFFFFFFFFFFFFFFFFFFFFF
310
FFFFFFFFFFFFFFFFFFFFFFFFFFFFFFFFFFFFFFFFFFFFFFFFFFFFFFFFFFFFFFFF
310
FFFFFFFFFFFFFFFFFFFFFFFFFFFFFFFFFFFFFFFFFFFFFFFFFFFFFFFFFFFFFFFF
310
FFFFFFFFFFFFFFFFFFFFFFFFFFFFFFFFFFFFFFFFFFFFFFFFFFFFFFFFFFFFFFFF
310
FFFFFFFFFFFFFFFFFFFFFFFFFFFFFFFFFFFFFFFFFFFFFFFFFFFFFFFFFFFFFFFF
310
FFFFFFFFFFFFFFFFFFFFFFFFFFFFFFFFFFFFFFFFFFFFFFFFFFFFFFFFFFFFFFFF
310
FFFFFFFFFFFFFFFFFFFFFFFFFFFFFFFFFFFFFFFFFFFFFFFFFFFFFFFFFFFFFFFF
310
FFFFFFFFFFFFFFFFFFFFFFFFFFFFFFFFFFFFFFFFFFFFFFFFFFFFFFFFFFFFFFFF
310
FFFFFFFFFFFFFFFFFFFFFFFFFFFFFFFFFFFFFFFFFFFFFFFFFFFFFFFFFFFFFFFF
310
FFFFFFFFFFFFFFFFFFFFFFFFFFFFFFFFFFFFFFFFFFFFFFFFFFFFFFFFFFFFFFFF
310
FFFFFFFFFFFFFFFFFFFFFFFFFFFFFFFFFFFFFFFFFFFFFFFFFFFFFFFFFFFFFFFF
310
52006F006F007400200045006E00740072007900000000000000000000000000
310
0000000000000000000000000000000000000000000000000000000000000000
310
16000500FFFFFFFFFFFFFFFF020000000A00030000000000C000000000000046
310
000000000000000000000000B0E0CEC1F62CCD0103000000C000000000000000
310
01004F006C006500000000000000000000000000000000000000000000000000
310
0000000000000000000000000000000000000000000000000000000000000000
310
0A000200FFFFFFFFFFFFFFFFFFFFFFFF00000000000000000000000000000000
310
0000000000000000000000000000000000000000000000001400000000000000
310
010043006F006D0070004F0062006A0000000000000000000000000000000000
310
0000000000000000000000000000000000000000000000000000000000000000
310
120002010100000003000000FFFFFFFF00000000000000000000000000000000
310
0000000000000000000000000000000000000000010000004D00000000000000
310
01004F006C006500310030004E00610074006900760065000000000000000000
310
0000000000000000000000000000000000000000000000000000000000000000
310
1A000200FFFFFFFFFFFFFFFFFFFFFFFF00000000000000000000000000000000
310
0000000000000000000000000000000000000000040000002426000000000000
310
FEFFFFFF02000000FEFFFFFFFFFFFFFFFFFFFFFFFFFFFFFFFFFFFFFFFFFFFFFF
310
FFFFFFFFFFFFFFFFFFFFFFFFFFFFFFFFFFFFFFFFFFFFFFFFFFFFFFFFFFFFFFFF
310
FFFFFFFFFFFFFFFFFFFFFFFFFFFFFFFFFFFFFFFFFFFFFFFFFFFFFFFFFFFFFFFF
310
FFFFFFFFFFFFFFFFFFFFFFFFFFFFFFFFFFFFFFFFFFFFFFFFFFFFFFFFFFFFFFFF
310
FFFFFFFFFFFFFFFFFFFFFFFFFFFFFFFFFFFFFFFFFFFFFFFFFFFFFFFFFFFFFFFF
310
FFFFFFFFFFFFFFFFFFFFFFFFFFFFFFFFFFFFFFFFFFFFFFFFFFFFFFFFFFFFFFFF
310
FFFFFFFFFFFFFFFFFFFFFFFFFFFFFFFFFFFFFFFFFFFFFFFFFFFFFFFFFFFFFFFF
310
FFFFFFFFFFFFFFFFFFFFFFFFFFFFFFFFFFFFFFFFFFFFFFFFFFFFFFFFFFFFFFFF
310
FFFFFFFFFFFFFFFFFFFFFFFFFFFFFFFFFFFFFFFFFFFFFFFFFFFFFFFFFFFFFFFF
310
FFFFFFFFFFFFFFFFFFFFFFFFFFFFFFFFFFFFFFFFFFFFFFFFFFFFFFFFFFFFFFFF
310
FFFFFFFFFFFFFFFFFFFFFFFFFFFFFFFFFFFFFFFFFFFFFFFFFFFFFFFFFFFFFFFF
310
FFFFFFFFFFFFFFFFFFFFFFFFFFFFFFFFFFFFFFFFFFFFFFFFFFFFFFFFFFFFFFFF
310
FFFFFFFFFFFFFFFFFFFFFFFFFFFFFFFFFFFFFFFFFFFFFFFFFFFFFFFFFFFFFFFF
310
FFFFFFFFFFFFFFFFFFFFFFFFFFFFFFFFFFFFFFFFFFFFFFFFFFFFFFFFFFFFFFFF
310
FFFFFFFFFFFFFFFFFFFFFFFFFFFFFFFFFFFFFFFFFFFFFFFFFFFFFFFFFFFFFFFF
310
FFFFFFFFFFFFFFFFFFFFFFFFFFFFFFFFFFFFFFFFFFFFFFFFFFFFFFFFFFFFFFFF
310
0100000200000000000000000000000000000000000000000000000000000000
310
0000000000000000000000000000000000000000000000000000000000000000
310
0100FEFF030A0000FFFFFFFF0A00030000000000C00000000000004607000000
310
5042727573680007000000504272757368000700000050427275736800F439B2
310
7100000000000000000000000000000000000000000000000000000000000000
310
0000000000000000000000000000000000000000000000000000000000000000
310
0000000000000000000000000000000000000000000000000000000000000000
310
0000000000000000000000000000000000000000000000000000000000000000
310
0000000000000000000000000000000000000000000000000000000000000000
310
0000000000000000000000000000000000000000000000000000000000000000
310
0000000000000000000000000000000000000000000000000000000000000000
310
0000000000000000000000000000000000000000000000000000000000000000
310
0000000000000000000000000000000000000000000000000000000000000000
310
0000000000000000000000000000000000000000000000000000000000000000
310
0000000000000000000000000000000000000000000000000000000000000000
310
0000000000000000000000000000000000000000000000000000000000000000
310
20260000424D0E260000000000003E00000028000000B40200006E0000000100
310
01000000000000000000130B0000130B00000200000002000000000000FFFFFF
310
FFFFFFFFFFFFFFFFFFFFFFFFFFFFFFFFFFFFFFFFFFFFFFFFFFFFFFFFFFFFFFFF
310
FFFFFFFFFFFFFFFFFFFFFFFFFFFFFFFFFFFFFFFFFFFFFFFFFFFFFFFFFFFFFFFF
310
FFFFFFFFFFFFFFFFFFFFFFFFFFFFFFFFFFFFFFFFFFFFFFFFF000FFFFFFFFFFFF
310
FFFFFFFFFFFFFFFFFFFFFFFFFFFFFFFFFFFFFFFFFFFFFFFFFFFFFFFFFFFFFFFF
310
FFFFFFFFFFFFFFFFFFFFFFFFFFFFFFFFFFFFFFFFFFFFFFFFFFFFFFFFFFFFFFFF
310
FFFFFFFFFFFFFFFFFFFFFFFFFFFFFFFFF000FFFFFFFFFFFFFFFFFFFFFFFFFFFF
310
FFFFFFFFFFFFFFFFFFFFFFFFFFFFFFFFFFFFFFFFFFFFFFFFFFFFFFFFFFFFFFFF
310
FFFFFFFFFFFFFFFFFFFFFFFFFFFFFFFFFFFFFFFFFFFFFFFFFFFFFFFFFFFFFFFF
310
FFFFFFFFFFFFFFFFF000FFFFFFFFFFFFFFFFFFFFFFFFFFFFFFFFFFFFFFFFFFFF
310
FFFFFFFFFFFFFFFFFFFFFFFFFFFFFFFFFFFFFFFFFFFFFFFFFFFFFFFFFFFFFFFF
310
FFFFFFFFFFFFFFFFFFFFFFFFFFFFFFFFFFFFFFFFFFFFFFFFFFFFFFFFFFFFFFFF
310
F000FFFFFFFFFFFFFFFFFFFFFFFFFFFFFFFFFFFFFFFFFFFFFFFFFFFFFFFFFFFF
310
FFFFFFFFFFFFFFFFFFFFFFFFFFFFFFFFFFFFFFFFFFFFFFFFFFFFFFFFFFFFFFFF
310
FFFFFFFFFFFFFFFFFFFFFFFFFFFFFFFFFFFFFFFFFFFFFFFFF000FFFFFFFFFFFF
310
FFFFFFFFFFFFFFFFFFFFFFFFFFFFFFFFFFFFFFFFFFFFFFFFFFFFFFFFFFFFFFFF
310
FFFFFFFFFFFFFFFFFFFFFFFFFFFFFFFFFFFFFFFFFFFFFFFFFFFFFFFFFFFFFFFF
310
FFFFFFFFFFFFFFFFFFFFFFFFFFFFFFFFF000FFFFFFFFFFFFFFFFFFFFFFFFFFFF
310
FFFFFFFFFFFFFFFFFFFFFFFFFFFFFFFFFFFFFFFFFFFFFFFFFFFFFFFFFFFFFFFF
310
FFFFFFFFFFFFFFFFFFFFFFFFFFFFFFFFFFFFFFFFFFFFFFFFFFFFFFFFFFFFFFFF
310
FFFFFFFFFFFFFFFFF000FFFFFFFFFFFFFFFFFFFFFFFFFFFFFFFFFFFFFFFFFFFF
310
FFFFFFFFFFFFFFFFFFFFFFFFFFFFFFFFFFFFFFFFFFFFFFFFFFFFFFFFFFFFFFFF
310
FFFFFFFFFFFFFFFFFFFFFFFFFFFFFFFFFFFFFFFFFFFFFFFFFFFFFFFFFFFFFFFF
310
F000FFFFFFFFFFFFFFFFFFFFFFFFFFFFFFFFFFFFFFFFFFFFFFFFFFFFFFFFFFFF
310
FFFFFFFFFFFFFFFFFFFFFFFFFFFFFFFFFFFFFFFFFFFFFFFFFFFFFFFFFFFFFFFF
310
FFFFFFFFFFFFFFFFFFFFFFFFFFFFFFFFFFFFFFFFFFFFFFFFF000FFFFFFFFFFFF
310
FFFFFFFFFFFFFFFFFFFFFFFFFFFFFFFFFFFFFFFFFFFFFFFFFFFFFFFFFFFFFFFF
310
FFFFFFFFFFFFFFFFFFFFFFFFFFFFFFFFFFFFFFFFFFFFFFFFFFFFFFFFFFFFFFFF
310
FFFFFFFFFFFFFFFFFFFFFFFFFFFFFFFFF000FFFFFFFFFFFFFFFFFFFFFFFFFFFF
310
FFFFFFFFFFFFFFFFFFFFFFFFFFFFFFFFFFFFFFFFFFFFFFFFFFFFFFFFFFFFFFFF
310
FFFFFFFFFFFFFFFFFFFFFFFFFFFFFFFFFFFFFFFFFFFFFFFFFFFFFFFFFFFFFFFF
310
FFFFFFFFFFFFFFFFF000FFFFFFFFFFFFFFFFFFFFFFFFFFFFFFFFFFFFFFFFFFFF
310
FFFFFFFFFFFFFFFFFFFFFFFFFFFFFFFFFFFFFFFFFFFFFFFFFFFFFFFFFFFFFFFF
310
FFFFFFFFFFFFFFFFFFFFFFFFFFFFFFFFFFFFFFFFFFFFFFFFFFFFFFFFFFFFFFFF
310
F000FFFFFFFFFFFFFFFFFFFFFFFFFFFFFFFFFFFFFFFFFFFFFFFFFFFFFFFFFFFF
310
FFFFFFFFFFFFFFFFFFFFFFFFFFFFFFFFFFFFFFFFFFFFFFFFFFFFFFFFFFFFFFFF
310
FFFFFFFFFFFFFFFFFFFFFFFFFFFFFFFFFFFFFFFFFFFFFFFFF000FFFFFFFFFFFF
310
FFFFFFFFFFFFFFFFFFFFFFFFFFFFFFFFFFFFFFFFFFFFFFFFFFFFFFFFFFFFFFFF
310
FFFFFFFFFFFFFFFFFFFFFFFFFFFFFFFFFFFFFFFFFFFFFFFFFFFFFFFFFFFFFFFF
310
FFFFFFFFFFFFFFFFFFFFFFFFFFFFFFFFF000FFFFFFFFFFFFFFFFFFFFFFFFFFFF
310
FFFFFFFFFFFFFFFFFFFFFFFFFFFFFFFFFFFFFFFFFFFFFFFFFFFFFFFFFFFFFFFF
310
FFFFFFFFFFFFFFFFFFFFFFFFFFFFFFFFFFFFFFFFFFFFFFFFFFFFFFFFFFFFFFFF
310
FFFFFFFFFFFFFFFFF000FFFFFFFFFFFFFFFFFFFFFFFFFFFFFFFFFFFFFFFFFFFF
310
FFFFFFFFFFFFFFFFFFFFFFFFFFFFFFFFFFFFFFFFFFFFFFFFFFFFFFFFFFFFFFFF
310
FFFFFFFFFFFFFFFFFFFFFFFFFFFFFFFFFFFFFFFFFFFFFFFFFFFFFFFFFFFFFFFF
310
F000FFFFFFFFFFFFFFFFFFFFFFFFFFFFFFFFFFFFFFFFFFFFFFFFFFFFFFFFFFFF
310
FFFFFFFFFFFFFFFFFFFFFFFFFFFFFFFFFFFFFFFFFFFFFFFFFFFFFFFFFFFFFFFF
310
FFFFFFFFFFFFFFFFFFFFFFFFFFFFFFFFFFFFFFFFFFFFFFFFF000FFFFFFFFFFFF
310
FFFFFFFFFFFFFFFFFFFFFFFFFFFFFFFFFFFFFFFFFFFFFFFFFFFFFFFFFFFFFFFF
310
FFFFFFFFFFFFFFFFFFFFFFFFFFFFFFFFFFFFFFFFFFFFFFFFFFFFFFFFFFFFFFFF
310
FFFFFFFFFFFFFFFFFFFFFFFFFFFFFFFFF000FFFFFFFFFFFFFFFFFFFFFFFFFFFF
310
FFFFFFFFFFFFFFFFFFFFFFFFFFFFFFFFFFFFFFFFFFFFFFFFFFFFFFFFFFFFFFFF
310
FFFFFFFFFFFFFFFFFFFFFFFFFFFFFFFFFFFFFFFFFFFFFFFFFFFFFFFFFFFFFFFF
310
FFFFFFFFFFFFFFFFF000FFFFF80003FFFFFFFFFFFFFFFFFFFFFFFFFFFFFFFFFF
310
FFFFF00007FFFFFFFFFF00007FFFFFF800000000000000007FFFFFFFFFFFFFFF
310
FFFFFFFC001FFFFFFFFFFFFFFC001FFFFFFFFFFFFFFFFFFFFFFFFFFE0007FFFF
310
F000FFFF8000007FFFFFFFF8000FFFFFC0007FFFFF80007FFFFF0000007FFFFF
310
FFF8000007FFFFF800000000000000007FFFFFF0001FFFFFFFFFFFC00001FFFF
310
FFFFFFFFC00001FFFFFFFF000000000003FFFFE000007FFFF000FFFE0000000F
310
FFFFFFF0000FFFFF80007FFFFF80007FFFFC0000001FFFFFFFC0000001FFFFF8
310
00000000000000007FFFFFF0001FFFFFFFFFFE0000003FFFFFFFFFFE0000003F
310
FFFFFF000000000003FFFF0000000FFFF000FFF800000003FFFFFFF00007FFFF
310
80007FFFFF80007FFFF000000007FFFFFF000000003FFFF80000000000000000
310
7FFFFFF0001FFFFFFFFFF80000000FFFFFFFFFF80000000FFFFFFF0000000000
310
03FFFC00000003FFF000FFE000000000FFFFFFF00007FFFF80003FFFFF80007F
310
FFC000000001FFFFFC000000001FFFF800000000000000007FFFFFF0001FFFFF
310
FFFFE000000003FFFFFFFFE000000003FFFFFF000000000003FFF000000000FF
310
F000FF80000000007FFFFFF00007FFFF80003FFFFF80007FFF8000000000FFFF
310
F80000000007FFF800000000000000007FFFFFF0001FFFFFFFFFC000000001FF
310
FFFFFFC000000001FFFFFF000000000003FFC0000000007FF000FF0000000000
310
3FFFFFE00007FFFF00003FFFFF80007FFE00000000003FFFF00000000003FFF8
310
00000000000000007FFFFFF0001FFFFFFFFF8000000000FFFFFFFF8000000000
310
FFFFFF000000000003FF80000000003FF000FE00000000001FFFFFE00003FFFF
310
00003FFFFF80007FFC00000000001FFFE00000000001FFF8000001FFFE000000
310
7FFFFFF0001FFFFFFFFE00000000003FFFFFFE00000000003FFFFF0000000000
310
03FF00000000001FF000FC00000000000FFFFFE00003FFFF00001FFFFF80007F
310
F800000000001FFFC00000000000FFF8000001FFFE0000007FFFFFF0001FFFFF
310
FFFC00000000001FFFFFFC00000000001FFFFF000000000003FE00000000000F
310
F000F8000000000007FFFFE00003FFFF00001FFFFF80007FF800000000000FFF
310
800000000000FFF8000001FFFE0000007FFFFFF0001FFFFFFFF800000000000F
310
FFFFF800000000000FFFFF000000000003FC000000000007F000F80000000000
310
03FFFFC00003FFFE00001FFFFF80007FF0000000000007FF0000000000007FF8
310
000001FFFE0000007FFFFFF0001FFFFFFFF0000000000007FFFFF00000000000
310
07FFFF000000000003F8000000000003F000F0000000000003FFFFC00001FFFE
310
00001FFFFF80007FE0000000000007FE0000000000003FF8000001FFFE000000
310
7FFFFFF0001FFFFFFFF0000000000007FFFFF0000000000007FFFF0000000000
310
03F800001F800003F000E00001FFF00001FFFFC00001FFFE00000FFFFF80007F
310
E00001FFE00003FE00001FFF00003FF8000001FFFE0000007FFFFFF0001FFFFF
310
FFE000003E000003FFFFE000003E000003FFFF000000000003F00001FFF80001
310
F000E00007FFFC0001FFFFC00001FFFE00000FFFFF80007FC0000FFFFC0003FC
310
0000FFFFC0001FF8000001FFFE0000007FFFFFF0001FFFFFFFC00003FFE00001
310
FFFFC00003FFE00001FFFF0001FFFFFFFFF00007FFFE0001F000E0000FFFFF00
310
00FFFF800001FFFC00000FFFFF80007FC0001FFFFE0001FC0001FFFFE0001FF8
310
000001FFFE0000007FFFFFF0001FFFFFFF80000FFFF80000FFFF80000FFFF800
310
00FFFF0003FFFFFFFFE0000FFFFF8000F000C0003FFFFF8000FFFF800000FFFC
310
000007FFFF80007F80003FFFFF0001FC0003FFFFF0001FF8000001FFFE000000
310
7FFFFFF0001FFFFFFF80003FFFFE0000FFFF80003FFFFE0000FFFF0003FFFFFF
310
FFE0003FFFFF8000F000C0003FFFFF8000FFFF800000FFFC000007FFFF80007F
310
80007FFFFF8001F80007FFFFF8000FF8000001FFFE0000007FFFFFF0001FFFFF
310
FF00007FFFFF00007FFF00007FFFFF00007FFF0003FFFFFFFFE0003FFFFFC000
310
F000C0007FFFFFC000FFFF000000FFFC000007FFFF80007F8000FFFFFF8000F8
310
000FFFFFF8000FF8000001FFFE0000007FFFFFF0001FFFFFFF0000FFFFFF8000
310
7FFF0000FFFFFF80007FFF0003FFFFFFFFC0007FFFFFC00070008000FFFFFFC0
310
00FFFF000000FFF8000007FFFF80007F8000FFFFFF8000F8000FFFFFF8000FF8
310
000001FFFE0000007FFFFFF0001FFFFFFE0001FFFFFFC0003FFE0001FFFFFFC0
310
003FFF0003FFFFFFFFC0007FFFFFE00070008000FFFFFFC0007FFF0000007FF8
310
000003FFFF80007F0001FFFFFF8000F8000FFFFFF8000FF8000001FFFE000000
310
7FFFFFF0001FFFFFFE0001FFFFFFC0003FFE0001FFFFFFC0003FFF0003FFFFFF
310
FFC000FFFFFFE00070008000FFFFFFC0007FFF0000007FF8000003FFFF80007F
310
0001FFFFFF8000F8001FFFFFF8000FF8000001FFFE0000007FFFFFF0001FFFFF
310
FE0003FFFFFFE0003FFE0003FFFFFFE0003FFF0003FFFFFFFFC000FFFFFFE000
310
70008000FFFFFFC0007FFE0000007FF8000003FFFF80007F0001FFFFFF8000F0
310
001FFFFFF8000FF8000001FFFE0000007FFFFFF0001FFFFFFC0003FFFFFFE000
310
1FFC0003FFFFFFE0001FFF0003FFFFFFFFC000FFFFFFC00070008000FFFFFF80
310
007FFE0000007FF0000003FFFF80007F0001FFFFFF0000F0001FFFFFF8000FF8
310
000001FFFE0000007FFFFFF0001FFFFFFC0007FFFFFFF0001FFC0007FFFFFFF0
310
001FFF0003FFFFFFFFC000FFFFFFC00070008001FFFFFF0000FFFE0000003FF0
310
000001FFFF80007F0001FFFFFF0000F8001FFFFFF0000FF8000001FFFE000000
310
7FFFFFF0001FFFFFFC0007FFFFFFF0001FFC0007FFFFFFF0001FFF0003FFFFFF
310
FFC001FFFFFF80007000FFFFFFFFFE0000FFFE0008003FF0008001FFFF80007F
310
FFFFFFFFFC0000FFFFFFFFFFE0000FF8000001FFFE0000007FFFFFF0001FFFFF
310
F8000FFFFFFFF8000FF8000FFFFFFFF8000FFF0003FFFFFFFFFFFFFFFFFF0000
310
7000FFFFFFFFFC0000FFFC0008003FF0008001FFFF80007FFFFFFFFFF80001FF
310
FFFFFFFF80000FF8000001FFFE0000007FFFFFF0001FFFFFF8000FFFFFFFF800
310
0FF8000FFFFFFFF8000FFF0003FFFFFFFFFFFFFFFFFE0000F000FFFFFFFFE000
310
00FFFC000C003FE000C001FFFF80007FFFFFFFFFC00001FFFFFFFFFE00001FF8
310
000001FFFE0000007FFFFFF0001FFFFFF8000FFFFFFFF8000FF8000FFFFFFFF8
310
000FFF0003FFFFFFFFFFFFFFFFF00000F000FFFFFFFE000001FFFC000C001FE0
310
00C000FFFF80007FFFFFFFFE000001FFFFFFFFE000001FF80FFFFFFFFFFFFFC0
310
7FFFFFF0001FFFFFF8000FFFFFFFF8000FF8000FFFFFFFF8000FFF0003FFFFFF
310
FFFFFFFFFF800000F000FFFFFFC0000001FFFC001C001FE001C000FFFF80007F
310
FFFFFF80000003FFFFFFF80000001FF80FFFFFFFFFFFFFC07FFFFFF0001FFFFF
310
F8001FFFFFFFFC000FF8001FFFFFFFFC000FFF0003FFFFFFFFFFFFFFF0000001
310
F000FFFFF800000001FFF8001C001FE001C000FFFF80007FFFFFF800000003FF
310
FFFF800000003FF80FFFFFFFFFFFFFC07FFFFFF0001FFFFFF8001FFFFFFFFC00
310
0FF8001FFFFFFFFC000FFF0003FFFFFFFFFFFFFE00000001F000FFFFC0000000
310
03FFF8001E001FC001E000FFFF80007FFFFF8000000007FFFFFC000000003FF8
310
0FFFFFFFFFFFFFC07FFFFFF0001FFFFFF8001FFFFFFFFC000FF8001FFFFFFFFC
310
000FFF0003FFFFFFFFFFFFE000000003F000FFFE0000000007FFF8001E000FC0
310
01E0007FFF80007FFFFE0000000007FFFFE0000000007FF80FFFFFFFFFFFFFC0
310
7FFFFFF0001FFFFFF0001FFFFFFFFC0007F0001FFFFFFFFC0007FF0003FFFFFF
310
FFFFFF0000000003F000FFF80000000007FFF8001E000FC003E0007FFF80007F
310
FFF0000000000FFFFF8000000000FFF80FFFFFFFFFFFFFC07FFFFFF0001FFFFF
310
F0001FFFFFFFFC0007F0001FFFFFFFFC0007FF0003FFFFFFFFFFFC0000000007
310
F000FFE0000000000FFFF0003E000FC003E0007FFF80007FFFC0000000001FFF
310
FE0000000001FFF80FFFFFFFFFFFFFC07FFFFFF0001FFFFFF0001FFFFFFFFC00
310
07F0001FFFFFFFFC0007FF0003FFFFFFFFFFF0000000000FF000FFC000000000
310
1FFFF0003F000F8003F0003FFF80007FFF80000000003FFFF80000000003FFF8
310
0FFFFFFFFFFFFFC07FFFFFF0001FFFFFF0001FFFFFFFFC0007F0001FFFFFFFFC
310
0007FF0003FFFFFFFFFFE0000000001FF000FF00000000007FFFF0003F000780
310
03F0003FFF80007FFF00000000007FFFF00000000007FFF80FFFFFFFFFFFFFC0
310
7FFFFFF0001FFFFFF0001FFFFFFFFC0007F0001FFFFFFFFC0007FF0003FFFFFF
310
FFFF80000000007FF000FE0000000000FFFFE0003F00078007F0003FFF80007F
310
FE0000000001FFFFE0000000001FFFF80FFFFFFFFFFFFFC07FFFFFF0001FFFFF
310
F0001FFFFFFFFC0007F0001FFFFFFFFC0007FF0003FFFFFFFFFF0000000000FF
310
F000FC0000000003FFFFE0007F00078007F0003FFF80007FFC0000000007FFFF
310
C0000000007FFFF80FFFFFFFFFFFFFC07FFFFFF0001FFFFFF8001FFFFFFFFC00
310
0FF8001FFFFFFFFC000FFF0003FFFFFFFFFE0000000003FFF000FC000000000F
310
FFFFE0007F80070007F8001FFF80007FF8000000001FFFFF8000000001FFFFF8
310
0FFFFFFFFFFFFFC07FFFFFF0001FFFFFF8001FFFFFFFFC000FF8001FFFFFFFFC
310
000FFF0003FFFFFFFFFC000000000FFFF000F8000000007FFFFFE0007F800700
310
07F8001FFF80007FF000000000FFFFFF800000000FFFFFF80FFFFFFFFFFFFFC0
310
7FFFFFF0001FFFFFF8000FFFFFFFF8000FF8000FFFFFFFF8000FFF0003FFFFFF
310
FFFC000000007FFFF000F800000007FFFFFFC0007F8003000FF8001FFF80007F
310
F000000007FFFFFF000000007FFFFFF80FFFFFFFFFFFFFC07FFFFFF0001FFFFF
310
F8000FFFFFFFF8000FF8000FFFFFFFF8000FFF0003FFFFFFFFF80000000FFFFF
310
F000F0000000FFFFFFFFC000FF8003000FF8001FFF80007FE0000000FFFFFFFF
310
0000000FFFFFFFF8000001FFFE0000007FFFFFF0001FFFFFF8000FFFFFFFF800
310
0FF8000FFFFFFFF8000FFF0003FFFFFFFFF8000000FFFFFFF000F000000FFFFF
310
FFFFC000FFC002000FF8000FFF80007FE000001FFFFFFFFE000001FFFFFFFFF8
310
000001FFFE0000007FFFFFF0001FFFFFF8000FFFFFFFF8000FF8000FFFFFFFF8
310
000FFF0003FFFFFFFFF000001FFFFFFFF000E00000FFFFFFFFFFC000FFC00200
310
0FFC000FFF80007FE00001FFFFFFFFFE00001FFFFFFFFFF8000001FFFE000000
310
7FFFFFF0001FFFFFFC000FFFFFFFF8001FFC000FFFFFFFF8001FFF0003FFFFFF
310
FFF00001FFFFFFFFF000E00007FFFFFFFFFF8000FFC000001FFC000FFF80007F
310
C0000FFFFFFFFFFE0000FFFFFFFFFFF8000001FFFE0000007FFFFFF0001FFFFF
310
FC0007FFFFFFF0001FFC0007FFFFFFF0001FFF0003FFFFFFFFF00007FFFFFFFF
310
F000E0001FFFFFFFFFFF8000FFC000001FFC000FFF80007FC0003FFFFFFFFFFE
310
0001FFFFFFFFFFF8000001FFFE0000007FFFFFF0001FFFFFFC0007FFFFFFF000
310
1FFC0007FFFFFFF0001FFF0003FFFFFFFFF0001FFFFFFFFFF000E0003FFFFF00
310
03FF8001FFE000001FFC0007FF80007FC0007FFFFF0007FC0003FFFFF0003FF8
310
000001FFFE0000007FFFFFF0001FFFFFFC0003FFFFFFE0001FFC0003FFFFFFE0
310
001FFF0003FFFFFFFFF0003FFFFFFFFFF000E0003FFFFF0001FF8001FFE00000
310
1FFE0007FF80007FC0007FFFFE0003FC0007FFFFE0003FF8000001FFFE000000
310
7FFFFFF0001FFFFFFE0003FFFFFFE0003FFE0003FFFFFFE0003FFF0003FFFFFF
310
FFF0003FFFFF8001F000E0003FFFFF0001FF0001FFE000001FFE0007FF80007F
310
C0007FFFFE0003FC0007FFFFE0003FF8000001FFFE0000007FFFFFF0001FFFFF
310
FE0001FFFFFFC0003FFE0001FFFFFFC0003FFF0003FFFFFFFFF0003FFFFF0001
310
F000E0003FFFFF0003FF0001FFE000003FFE0007FF80007FC0007FFFFE0003FC
310
0007FFFFE0003FF8000001FFFE0000007FFFFFF0001FFFFFFF0001FFFFFFC000
310
7FFF0001FFFFFFC0007FFF0003FFFFFFFFF0003FFFFF0001F000E0003FFFFE00
310
03FF0003FFF000003FFE0003FF80007FC0007FFFFC0003FE0007FFFFE0003FF8
310
000001FFFE0000007FFFFFF0001FFFFFFF0000FFFFFF80007FFF0000FFFFFF80
310
007FFF0003FFFFFFFFF0003FFFFF0001F000E0003FFFFE0003FF0003FFF00000
310
3FFF0003FF80007FC0007FFFFC0007FE0007FFFFC0003FF8000001FFFE000000
310
7FFFFFF0001FFFFFFF80007FFFFF0000FFFF80007FFFFF0000FFFF0003FFFFFF
310
FFF0003FFFFF0003F000E0003FFFFC0003FE0003FFF000003FFF0003FF80007F
310
E0003FFFF80007FE0003FFFFC0007FF8000001FFFE0000007FFFFFF0001FFFFF
310
FF80003FFFFE0000FFFF80003FFFFE0000FFFF0003FFFFFFFFF0001FFFFE0003
310
F000F0001FFFF80003FE0003FFF000007FFF0001FF80007FE0003FFFF00007FE
310
0001FFFF80007FF8000001FFFE0000007FFFFFF0001FFFFFFFC0000FFFF80001
310
FFFFC0000FFFF80001FFFF0003FFFFFFFFF0001FFFFC0003F000F0000FFFF000
310
07FE0007FFF800007FFF0001FF80007FE0001FFFE00007FF0000FFFE00007FF8
310
000001FFFE0000007FFFFFF0001FFFFFFFC00003FFE00001FFFFC00003FFE000
310
01FFFF0003FFFFFFFFF8000FFFF80003F000F00003FFC00007FC0007FFF80000
310
7FFF8001FF80007FF00007FF80000FFF00007FF80000FFF8000001FFFE000000
310
7F80000000000001FFE000003E000003FFFFE000003E000003FFFF0003FFFFFF
310
FFF80003FFE00007F000F800000000000FFC0007FFF800007FFF8001FF80007F
310
F000000000000FFF000000000000FFF8000001FFFE0000007F80000000000001
310
FFF0000000000007FFFFF0000000000007FFFF0003FFFFFFFFFC00007E000007
310
F000F800000000000FFC0007FFF80000FFFF8000FF80007FF800000000001FFF
310
800000000001FFF8000001FFFE0000007F80000000000001FFF800000000000F
310
FFFFF800000000000FFFFF0003FFFFFFFFFC00000000000FF000FC0000000000
310
1FFC0007FFFC0000FFFF8000FF80007FF800000000003FFFC00000000001FFF8
310
000001FFFE0000007F80000000000001FFF800000000000FFFFFF80000000000
310
0FFFFF0003FFFFFFFFFE00000000001FF000FE00000000003FF8000FFFFC0000
310
FFFF8000FF80007FFC00000000003FFFC00000000003FFF8000001FFFE000000
310
7F80000000000001FFFC00000000001FFFFFFC00000000001FFFFF0003FFFFFF
310
FFFF00000000001FF000FF00000000003FF8000FFFFC0000FFFFC000FF80007F
310
FE00000000007FFFE00000000007FFF8000001FFFE0000007F80000000000001
310
FFFE00000000003FFFFFFE00000000003FFFFF0003FFFFFFFFFF80000000003F
310
F000FF80000000007FF8000FFFFC0001FFFFC0007F80007FFF0000000000FFFF
310
F0000000000FFFF800000000000000007F80000000000001FFFF8000000000FF
310
FFFFFF8000000000FFFFFF0003FFFFFFFFFFC0000000007FF000FFC000000000
310
FFF8000FFFFE0001FFFFC0007F80007FFF8000000001FFFFF8000000001FFFF8
310
00000000000000007F80000000000001FFFFC000000001FFFFFFFFC000000001
310
FFFFFF0003FFFFFFFFFFE000000000FFF000FFE000000003FFF0001FFFFE0001
310
FFFFC0007F80007FFFC000000007FFFFFE000000003FFFF80000000000000000
310
7F80000000000001FFFFE000000003FFFFFFFFE000000003FFFFFF0003FFFFFF
310
FFFFF000000003FFF000FFF80000000FFFF0001FFFFE0001FFFFE0007F80007F
310
FFF00000000FFFFFFF00000000FFFFF800000000000000007F80000000000001
310
FFFFF80000000FFFFFFFFFF80000000FFFFFFF0003FFFFFFFFFFFC0000000FFF
310
F000FFFE0000003FFFF0001FFFFE0003FFFFE0003F80007FFFFC0000003FFFFF
310
FFC0000003FFFFF800000000000000007F80000000000001FFFFFE0000003FFF
310
FFFFFFFE0000003FFFFFFF0003FFFFFFFFFFFF0000003FFFF000FFFF800000FF
310
FFF0001FFFFF0003FFFFE0003F80007FFFFF000001FFFFFFFFF800001FFFFFF8
310
00000000000000007F80000000000001FFFFFFC00001FFFFFFFFFFFFC00001FF
310
FFFFFF0003FFFFFFFFFFFFC00000FFFFF000FFFFF8000FFFFFFFFFFFFFFFFFFF
310
FFFFFFFFFFFFFFFFFFFFF0001FFFFFFFFFFF0000FFFFFFF80000000000000000
310
7FFFFFFFFFFFFFFFFFFFFFFC001FFFFFFFFFFFFFFC001FFFFFFFFFFFFFFFFFFF
310
FFFFFFFC001FFFFFF000FFFFFFFFFFFFFFFFFFFFFFFFFFFFFFFFFFFFFFFFFFFF
310
FFFFFFFFFFFFFFFFFFFFFFFFFFFFFFFFFFFFFFFFFFFFFFFFFFFFFFFFFFFFFFFF
310
FFFFFFFFFFFFFFFFFFFFFFFFFFFFFFFFFFFFFFFFFFFFFFFFFFFFFFFFFFFFFFFF
310
F000FFFFFFFFFFFFFFFFFFFFFFFFFFFFFFFFFFFFFFFFFFFFFFFFFFFFFFFFFFFF
310
FFFFFFFFFFFFFFFFFFFFFFFFFFFFFFFFFFFFFFFFFFFFFFFFFFFFFFFFFFFFFFFF
310
FFFFFFFFFFFFFFFFFFFFFFFFFFFFFFFFFFFFFFFFFFFFFFFFF000FFFFFFFFFFFF
310
FFFFFFFFFFFFFFFFFFFFFFFFFFFFFFFFFFFFFFFFFFFFFFFFFFFFFFFFFFFFFFFF
310
FFFFFFFFFFFFFFFFFFFFFFFFFFFFFFFFFFFFFFFFFFFFFFFFFFFFFFFFFFFFFFFF
310
FFFFFFFFFFFFFFFFFFFFFFFFFFFFFFFFF000FFFFFFFFFFFFFFFFFFFFFFFFFFFF
310
FFFFFFFFFFFFFFFFFFFFFFFFFFFFFFFFFFFFFFFFFFFFFFFFFFFFFFFFFFFFFFFF
310
FFFFFFFFFFFFFFFFFFFFFFFFFFFFFFFFFFFFFFFFFFFFFFFFFFFFFFFFFFFFFFFF
310
FFFFFFFFFFFFFFFFF000FFFFFFFFFFFFFFFFFFFFFFFFFFFFFFFFFFFFFFFFFFFF
310
FFFFFFFFFFFFFFFFFFFFFFFFFFFFFFFFFFFFFFFFFFFFFFFFFFFFFFFFFFFFFFFF
310
FFFFFFFFFFFFFFFFFFFFFFFFFFFFFFFFFFFFFFFFFFFFFFFFFFFFFFFFFFFFFFFF
310
F000FFFFFFFFFFFFFFFFFFFFFFFFFFFFFFFFFFFFFFFFFFFFFFFFFFFFFFFFFFFF
310
FFFFFFFFFFFFFFFFFFFFFFFFFFFFFFFFFFFFFFFFFFFFFFFFFFFFFFFFFFFFFFFF
310
FFFFFFFFFFFFFFFFFFFFFFFFFFFFFFFFFFFFFFFFFFFFFFFFF000FFFFFFFFFFFF
310
FFFFFFFFFFFFFFFFFFFFFFFFFFFFFFFFFFFFFFFFFFFFFFFFFFFFFFFFFFFFFFFF
310
FFFFFFFFFFFFFFFFFFFFFFFFFFFFFFFFFFFFFFFFFFFFFFFFFFFFFFFFFFFFFFFF
310
FFFFFFFFFFFFFFFFFFFFFFFFFFFFFFFFF000FFFFFFFFFFFFFFFFFFFFFFFFFFFF
310
FFFFFFFFFFFFFFFFFFFFFFFFFFFFFFFFFFFFFFFFFFFFFFFFFFFFFFFFFFFFFFFF
310
FFFFFFFFFFFFFFFFFFFFFFFFFFFFFFFFFFFFFFFFFFFFFFFFFFFFFFFFFFFFFFFF
310
FFFFFFFFFFFFFFFFF000FFFFFFFFFFFFFFFFFFFFFFFFFFFFFFFFFFFFFFFFFFFF
310
FFFFFFFFFFFFFFFFFFFFFFFFFFFFFFFFFFFFFFFFFFFFFFFFFFFFFFFFFFFFFFFF
310
FFFFFFFFFFFFFFFFFFFFFFFFFFFFFFFFFFFFFFFFFFFFFFFFFFFFFFFFFFFFFFFF
310
F000FFFFFFFFFFFFFFFFFFFFFFFFFFFFFFFFFFFFFFFFFFFFFFFFFFFFFFFFFFFF
310
FFFFFFFFFFFFFFFFFFFFFFFFFFFFFFFFFFFFFFFFFFFFFFFFFFFFFFFFFFFFFFFF
310
FFFFFFFFFFFFFFFFFFFFFFFFFFFFFFFFFFFFFFFFFFFFFFFFF000FFFFFFFFFFFF
310
FFFFFFFFFFFFFFFFFFFFFFFFFFFFFFFFFFFFFFFFFFFFFFFFFFFFFFFFFFFFFFFF
310
FFFFFFFFFFFFFFFFFFFFFFFFFFFFFFFFFFFFFFFFFFFFFFFFFFFFFFFFFFFFFFFF
310
FFFFFFFFFFFFFFFFFFFFFFFFFFFFFFFFF000FFFFFFFFFFFFFFFFFFFFFFFFFFFF
310
FFFFFFFFFFFFFFFFFFFFFFFFFFFFFFFFFFFFFFFFFFFFFFFFFFFFFFFFFFFFFFFF
310
FFFFFFFFFFFFFFFFFFFFFFFFFFFFFFFFFFFFFFFFFFFFFFFFFFFFFFFFFFFFFFFF
310
FFFFFFFFFFFFFFFFF000FFFFFFFFFFFFFFFFFFFFFFFFFFFFFFFFFFFFFFFFFFFF
310
FFFFFFFFFFFFFFFFFFFFFFFFFFFFFFFFFFFFFFFFFFFFFFFFFFFFFFFFFFFFFFFF
310
FFFFFFFFFFFFFFFFFFFFFFFFFFFFFFFFFFFFFFFFFFFFFFFFFFFFFFFFFFFFFFFF
310
F000FFFFFFFFFFFFFFFFFFFFFFFFFFFFFFFFFFFFFFFFFFFFFFFFFFFFFFFFFFFF
310
FFFFFFFFFFFFFFFFFFFFFFFFFFFFFFFFFFFFFFFFFFFFFFFFFFFFFFFFFFFFFFFF
310
FFFFFFFFFFFFFFFFFFFFFFFFFFFFFFFFFFFFFFFFFFFFFFFFF000FFFFFFFFFFFF
310
FFFFFFFFFFFFFFFFFFFFFFFFFFFFFFFFFFFFFFFFFFFFFFFFFFFFFFFFFFFFFFFF
310
FFFFFFFFFFFFFFFFFFFFFFFFFFFFFFFFFFFFFFFFFFFFFFFFFFFFFFFFFFFFFFFF
310
FFFFFFFFFFFFFFFFFFFFFFFFFFFFFFFFF000FFFFFFFFFFFFFFFFFFFFFFFFFFFF
310
FFFFFFFFFFFFFFFFFFFFFFFFFFFFFFFFFFFFFFFFFFFFFFFFFFFFFFFFFFFFFFFF
310
FFFFFFFFFFFFFFFFFFFFFFFFFFFFFFFFFFFFFFFFFFFFFFFFFFFFFFFFFFFFFFFF
310
FFFFFFFFFFFFFFFFF000FFFFFFFFFFFFFFFFFFFFFFFFFFFFFFFFFFFFFFFFFFFF
310
FFFFFFFFFFFFFFFFFFFFFFFFFFFFFFFFFFFFFFFFFFFFFFFFFFFFFFFFFFFFFFFF
310
FFFFFFFFFFFFFFFFFFFFFFFFFFFFFFFFFFFFFFFFFFFFFFFFFFFFFFFFFFFFFFFF
310
F000FFFFFFFFFFFFFFFFFFFFFFFFFFFFFFFFFFFFFFFFFFFFFFFFFFFFFFFFFFFF
310
FFFFFFFFFFFFFFFFFFFFFFFFFFFFFFFFFFFFFFFFFFFFFFFFFFFFFFFFFFFFFFFF
310
FFFFFFFFFFFFFFFFFFFFFFFFFFFFFFFFFFFFFFFFFFFFFFFFF000FFFFFFFFFFFF
310
FFFFFFFFFFFFFFFFFFFFFFFFFFFFFFFFFFFFFFFFFFFFFFFFFFFFFFFFFFFFFFFF
310
FFFFFFFFFFFFFFFFFFFFFFFFFFFFFFFFFFFFFFFFFFFFFFFFFFFFFFFFFFFFFFFF
310
FFFFFFFFFFFFFFFFFFFFFFFFFFFFFFFFF000FFFFFFFFFFFFFFFFFFFFFFFFFFFF
310
FFFFFFFFFFFFFFFFFFFFFFFFFFFFFFFFFFFFFFFFFFFFFFFFFFFFFFFFFFFFFFFF
310
FFFFFFFFFFFFFFFFFFFFFFFFFFFFFFFFFFFFFFFFFFFFFFFFFFFFFFFFFFFFFFFF
310
FFFFFFFFFFFFFFFFF000FFFFFFFFFFFFFFFFFFFFFFFFFFFFFFFFFFFFFFFFFFFF
310
FFFFFFFFFFFFFFFFFFFFFFFFFFFFFFFFFFFFFFFFFFFFFFFFFFFFFFFFFFFFFFFF
310
FFFFFFFFFFFFFFFFFFFFFFFFFFFFFFFFFFFFFFFFFFFFFFFFFFFFFFFFFFFFFFFF
310
F000FFFFFFFFFFFFFFFFFFFFFFFFFFFFFFFFFFFFFFFFFFFFFFFFFFFFFFFFFFFF
310
FFFFFFFFFFFFFFFFFFFFFFFFFFFFFFFFFFFFFFFFFFFFFFFFFFFFFFFFFFFFFFFF
310
FFFFFFFFFFFFFFFFFFFFFFFFFFFFFFFFFFFFFFFFFFFFFFFFF000FFFFFFFFFFFF
310
FFFFFFFFFFFFFFFFFFFFFFFFFFFFFFFFFFFFFFFFFFFFFFFFFFFFFFFFFFFFFFFF
310
FFFFFFFFFFFFFFFFFFFFFFFFFFFFFFFFFFFFFFFFFFFFFFFFFFFFFFFFFFFFFFFF
310
FFFFFFFFFFFFFFFFFFFFFFFFFFFFFFFFF0000000000000000000000000000000
310
0000000000000000000000000000000000000000000000000000000000000000
310
0000000000000000000000000000000000000000000000000000000000000000
310
0000000000000000000000000000000000000000000000000000000000000000
310
0000000000000000000000000000000000000000000000000000000000000000
310
0000000000000000000000000000000000000000000000000000000000000000
310
0000000000000000000000000000000000000000000000000000000000000000
310
0000000000000000000000000000000000000000000000000000000000000000
310
0000000000000000000000000000000000000000000000000000000000000000
310
0000000000000000000000000000000000000000000000000000000000000000
310
0000000000000000000000000000000000000000000000000000000000000000
310
0000000000000000000000000000000000000000000000000000000000000000
310
0000000000000000000000000000000000000000000000000000000000000000
310
0000000000000000000000000000000000000000000000000000000000000000
310
0000000000000000000000000000000000000000000000000000000000000000
310
0000000000000000000000000000000000000000000000000000000000000000
  1
OLE
  0
ENDSEC
  0
SECTION
  2
OBJECTS
  0
DICTIONARY
  5
C
330
0
100
AcDbDictionary
281
     1
  3
ACAD_GROUP
350
D
  3
ACAD_LAYOUT
350
1A
  3
ACAD_MLINESTYLE
350
17
  3
ACAD_PLOTSETTINGS
350
19
  3
ACAD_PLOTSTYLENAME
350
E
  0
DICTIONARY
  5
D
102
{ACAD_REACTORS
330
C
102
}
330
C
100
AcDbDictionary
281
     1
  0
DICTIONARY
  5
1A
102
{ACAD_REACTORS
330
C
102
}
330
C
100
AcDbDictionary
281
     1
  3
Layout1
350
1E
  3
Layout2
350
26
  3
Model
350
22
  0
DICTIONARY
  5
17
102
{ACAD_REACTORS
330
C
102
}
330
C
100
AcDbDictionary
281
     1
  3
Standard
350
18
  0
DICTIONARY
  5
19
102
{ACAD_REACTORS
330
C
102
}
330
C
100
AcDbDictionary
281
     1
  0
ACDBDICTIONARYWDFLT
  5
E
102
{ACAD_REACTORS
330
C
102
}
330
C
100
AcDbDictionary
281
     1
  3
Normal
350
F
100
AcDbDictionaryWithDefault
340
F
  0
LAYOUT
  5
1E
102
{ACAD_REACTORS
330
1A
102
}
330
1A
100
AcDbPlotSettings
  1

  2
none_device
  4

  6

 40
0.0
 41
0.0
 42
0.0
 43
0.0
 44
0.0
 45
0.0
 46
0.0
 47
0.0
 48
0.0
 49
0.0
140
0.0
141
0.0
142
1.0
143
1.0
 70
   688
 72
     0
 73
     0
 74
     5
  7

 75
    16
147
1.0
148
0.0
149
0.0
100
AcDbLayout
  1
Layout1
 70
     1
 71
     1
 10
0.0
 20
0.0
 11
420.0
 21
297.0
 12
0.0
 22
0.0
 32
0.0
 14
1.0000000000E+20
 24
1.0000000000E+20
 34
1.0000000000E+20
 15
-1.0000000000E+20
 25
-1.0000000000E+20
 35
-1.0000000000E+20
146
0.0
 13
0.0
 23
0.0
 33
0.0
 16
1.0
 26
0.0
 36
0.0
 17
0.0
 27
1.0
 37
0.0
 76
     0
330
1B
  0
LAYOUT
  5
26
102
{ACAD_REACTORS
330
1A
102
}
330
1A
100
AcDbPlotSettings
  1

  2
none_device
  4

  6

 40
0.0
 41
0.0
 42
0.0
 43
0.0
 44
0.0
 45
0.0
 46
0.0
 47
0.0
 48
0.0
 49
0.0
140
0.0
141
0.0
142
1.0
143
1.0
 70
   688
 72
     0
 73
     0
 74
     5
  7

 75
    16
147
1.0
148
0.0
149
0.0
100
AcDbLayout
  1
Layout2
 70
     1
 71
     2
 10
0.0
 20
0.0
 11
0.0
 21
0.0
 12
0.0
 22
0.0
 32
0.0
 14
0.0
 24
0.0
 34
0.0
 15
0.0
 25
0.0
 35
0.0
146
0.0
 13
0.0
 23
0.0
 33
0.0
 16
1.0
 26
0.0
 36
0.0
 17
0.0
 27
1.0
 37
0.0
 76
     0
330
23
  0
LAYOUT
  5
22
102
{ACAD_REACTORS
330
1A
102
}
330
1A
100
AcDbPlotSettings
  1

  2
none_device
  4

  6

 40
0.0
 41
0.0
 42
0.0
 43
0.0
 44
0.0
 45
0.0
 46
0.0
 47
0.0
 48
0.0
 49
0.0
140
0.0
141
0.0
142
1.0
143
1.0
 70
  1712
 72
     0
 73
     0
 74
     0
  7

 75
     0
147
1.0
148
0.0
149
0.0
100
AcDbLayout
  1
Model
 70
     1
 71
     0
 10
0.0
 20
0.0
 11
297.0
 21
210.0
 12
0.0
 22
0.0
 32
0.0
 14
0.0
 24
0.0
 34
0.0
 15
297.0
 25
210.0
 35
0.0
146
0.0
 13
0.0
 23
0.0
 33
0.0
 16
1.0
 26
0.0
 36
0.0
 17
0.0
 27
1.0
 37
0.0
 76
     0
330
1F
331
29
  0
MLINESTYLE
  5
18
102
{ACAD_REACTORS
330
17
102
}
330
17
100
AcDbMlineStyle
  2
Standard
 70
     0
  3

 62
   256
 51
90.0
 52
90.0
 71
     2
 49
0.5
 62
   256
  6
BYLAYER
 49
-0.5
 62
   256
  6
BYLAYER
  0
ACDBPLACEHOLDER
  5
F
102
{ACAD_REACTORS
330
E
102
}
330
E
  0
ENDSEC
  0
EOF
