  0
SECTION
  2
HEADER
  9
$ACADVER
  1
AC1015
  9
$ACADMAINTVER
 70
     6
  9
$DWGCODEPAGE
  3
ANSI_1252
  9
$INSBASE
 10
0.0
 20
0.0
 30
0.0
  9
$EXTMIN
 10
0.0
 20
0.0
 30
0.0
  9
$EXTMAX
 10
297.0
 20
210.0
 30
0.0
  9
$LIMMIN
 10
0.0
 20
0.0
  9
$LIMMAX
 10
297.0
 20
210.0
  9
$ORTHOMODE
 70
     0
  9
$REGENMODE
 70
     1
  9
$FILLMODE
 70
     1
  9
$QTEXTMODE
 70
     0
  9
$MIRRTEXT
 70
     1
  9
$LTSCALE
 40
1.0
  9
$ATTMODE
 70
     1
  9
$TEXTSIZE
 40
2.0
  9
$TRACEWID
 40
1.0
  9
$TEXTSTYLE
  7
Standard
  9
$CLAYER
  8
0
  9
$CELTYPE
  6
ByLayer
  9
$CECOLOR
 62
   256
  9
$CELTSCALE
 40
1.0
  9
$DISPSILH
 70
     0
  9
$DIMSCALE
 40
1.0
  9
$DIMASZ
 40
3.0
  9
$DIMEXO
 40
0.0
  9
$DIMDLI
 40
3.75
  9
$DIMRND
 40
0.0
  9
$DIMDLE
 40
0.0
  9
$DIMEXE
 40
1.0
  9
$DIMTP
 40
0.0
  9
$DIMTM
 40
0.0
  9
$DIMTXT
 40
2.0
  9
$DIMCEN
 40
2.5
  9
$DIMTSZ
 40
0.0
  9
$DIMTOL
 70
     0
  9
$DIMLIM
 70
     0
  9
$DIMTIH
 70
     1
  9
$DIMTOH
 70
     1
  9
$DIMSE1
 70
     0
  9
$DIMSE2
 70
     0
  9
$DIMTAD
 70
     1
  9
$DIMZIN
 70
     0
  9
$DIMBLK
  1

  9
$DIMASO
 70
     1
  9
$DIMSHO
 70
     1
  9
$DIMPOST
  1

  9
$DIMAPOST
  1

  9
$DIMALT
 70
     0
  9
$DIMALTD
 70
     3
  9
$DIMALTF
 40
0.0393700787
  9
$DIMLFAC
 40
1.0
  9
$DIMTOFL
 70
     1
  9
$DIMTVP
 40
0.0
  9
$DIMTIX
 70
     0
  9
$DIMSOXD
 70
     0
  9
$DIMSAH
 70
     0
  9
$DIMBLK1
  1

  9
$DIMBLK2
  1

  9
$DIMSTYLE
  2
ISO-25
  9
$DIMCLRD
 70
     0
  9
$DIMCLRE
 70
     0
  9
$DIMCLRT
 70
     0
  9
$DIMTFAC
 40
1.0
  9
$DIMGAP
 40
1.524
  9
$DIMJUST
 70
     0
  9
$DIMSD1
 70
     0
  9
$DIMSD2
 70
     0
  9
$DIMTOLJ
 70
     0
  9
$DIMTZIN
 70
     0
  9
$DIMALTZ
 70
     0
  9
$DIMALTTZ
 70
     0
  9
$DIMUPT
 70
     0
  9
$DIMDEC
 70
     2
  9
$DIMTDEC
 70
     3
  9
$DIMALTU
 70
     2
  9
$DIMALTTD
 70
     3
  9
$DIMTXSTY
  7
Standard
  9
$DIMAUNIT
 70
     0
  9
$DIMADEC
 70
     2
  9
$DIMALTRND
 40
0.0
  9
$DIMAZIN
 70
     0
  9
$DIMDSEP
 70
    44
  9
$DIMATFIT
 70
     3
  9
$DIMFRAC
 70
     0
  9
$DIMLDRBLK
  1

  9
$DIMLUNIT
 70
     2
  9
$DIMLWD
 70
    -2
  9
$DIMLWE
 70
    -2
  9
$DIMTMOVE
 70
     0
  9
$LUNITS
 70
     2
  9
$LUPREC
 70
     2
  9
$SKETCHINC
 40
1.0
  9
$FILLETRAD
 40
10.0
  9
$AUNITS
 70
     0
  9
$AUPREC
 70
     2
  9
$MENU
  1
.
  9
$ELEVATION
 40
0.0
  9
$PELEVATION
 40
0.0
  9
$THICKNESS
 40
0.0
  9
$LIMCHECK
 70
     0
  9
$CHAMFERA
 40
10.0
  9
$CHAMFERB
 40
10.0
  9
$CHAMFERC
 40
20.0
  9
$CHAMFERD
 40
0.0
  9
$SKPOLY
 70
     0
  9
$TDCREATE
 40
2456045.625454907
  9
$TDUCREATE
 40
2456045.542121574
  9
$TDUPDATE
 40
2456045.625456354
  9
$TDUUPDATE
 40
2456045.542123021
  9
$TDINDWG
 40
0.0000000116
  9
$TDUSRTIMER
 40
0.0000000116
  9
$USRTIMER
 70
     1
  9
$ANGBASE
 50
0.0
  9
$ANGDIR
 70
     0
  9
$PDMODE
 70
     0
  9
$PDSIZE
 40
-1.0
  9
$PLINEWID
 40
0.0
  9
$SPLFRAME
 70
     0
  9
$SPLINETYPE
 70
     6
  9
$SPLINESEGS
 70
     8
  9
$HANDSEED
  5
257
  9
$SURFTAB1
 70
     6
  9
$SURFTAB2
 70
     6
  9
$SURFTYPE
 70
     6
  9
$SURFU
 70
     6
  9
$SURFV
 70
     6
  9
$UCSBASE
  2

  9
$UCSNAME
  2

  9
$UCSORG
 10
0.0
 20
0.0
 30
0.0
  9
$UCSXDIR
 10
1.0
 20
0.0
 30
0.0
  9
$UCSYDIR
 10
0.0
 20
1.0
 30
0.0
  9
$UCSORTHOREF
  2

  9
$UCSORTHOVIEW
 70
     0
  9
$UCSORGTOP
 10
0.0
 20
0.0
 30
0.0
  9
$UCSORGBOTTOM
 10
0.0
 20
0.0
 30
0.0
  9
$UCSORGLEFT
 10
0.0
 20
0.0
 30
0.0
  9
$UCSORGRIGHT
 10
0.0
 20
0.0
 30
0.0
  9
$UCSORGFRONT
 10
0.0
 20
0.0
 30
0.0
  9
$UCSORGBACK
 10
0.0
 20
0.0
 30
0.0
  9
$PUCSBASE
  2

  9
$PUCSNAME
  2

  9
$PUCSORG
 10
0.0
 20
0.0
 30
0.0
  9
$PUCSXDIR
 10
1.0
 20
0.0
 30
0.0
  9
$PUCSYDIR
 10
0.0
 20
1.0
 30
0.0
  9
$PUCSORTHOREF
  2

  9
$PUCSORTHOVIEW
 70
     0
  9
$PUCSORGTOP
 10
0.0
 20
0.0
 30
0.0
  9
$PUCSORGBOTTOM
 10
0.0
 20
0.0
 30
0.0
  9
$PUCSORGLEFT
 10
0.0
 20
0.0
 30
0.0
  9
$PUCSORGRIGHT
 10
0.0
 20
0.0
 30
0.0
  9
$PUCSORGFRONT
 10
0.0
 20
0.0
 30
0.0
  9
$PUCSORGBACK
 10
0.0
 20
0.0
 30
0.0
  9
$USERI1
 70
     0
  9
$USERI2
 70
     0
  9
$USERI3
 70
     0
  9
$USERI4
 70
     0
  9
$USERI5
 70
     0
  9
$USERR1
 40
0.0
  9
$USERR2
 40
0.0
  9
$USERR3
 40
0.0
  9
$USERR4
 40
0.0
  9
$USERR5
 40
0.0
  9
$WORLDVIEW
 70
     1
  9
$SHADEDGE
 70
     3
  9
$SHADEDIF
 70
    70
  9
$TILEMODE
 70
     1
  9
$MAXACTVP
 70
    64
  9
$PINSBASE
 10
0.0
 20
0.0
 30
0.0
  9
$PLIMCHECK
 70
     0
  9
$PEXTMIN
 10
1.0000000000E+20
 20
1.0000000000E+20
 30
1.0000000000E+20
  9
$PEXTMAX
 10
-1.0000000000E+20
 20
-1.0000000000E+20
 30
-1.0000000000E+20
  9
$PLIMMIN
 10
0.0
 20
0.0
  9
$PLIMMAX
 10
420.0
 20
297.0
  9
$UNITMODE
 70
     0
  9
$VISRETAIN
 70
     1
  9
$PLINEGEN
 70
     0
  9
$PSLTSCALE
 70
     1
  9
$TREEDEPTH
 70
  3020
  9
$CMLSTYLE
  2
Standard
  9
$CMLJUST
 70
     0
  9
$CMLSCALE
 40
20.0
  9
$PROXYGRAPHICS
 70
     1
  9
$MEASUREMENT
 70
     1
  9
$CELWEIGHT
370
    -1
  9
$ENDCAPS
280
     0
  9
$JOINSTYLE
280
     0
  9
$LWDISPLAY
290
     1
  9
$INSUNITS
 70
     4
  9
$HYPERLINKBASE
  1

  9
$STYLESHEET
  1

  9
$XEDIT
290
     1
  9
$CEPSNTYPE
380
     0
  9
$PSTYLEMODE
290
     1
  9
$FINGERPRINTGUID
  2
{C4A50B08-2263-4ECD-A2AE-A1ABEDD2E588}
  9
$VERSIONGUID
  2
{FAEB1C32-E019-11D5-929B-00C0DF256EC4}
  9
$EXTNAMES
290
     1
  9
$PSVPSCALE
 40
0.0
  9
$OLESTARTUP
290
     0
  0
ENDSEC
  0
SECTION
  2
CLASSES
  0
CLASS
  1
ACDBDICTIONARYWDFLT
  2
AcDbDictionaryWithDefault
  3
ObjectDBX Classes
 90
        0
280
     0
281
     0
  0
CLASS
  1
VISUALSTYLE
  2
AcDbVisualStyle
  3
ObjectDBX Classes
 90
     4095
280
     0
281
     0
  0
CLASS
  1
MATERIAL
  2
AcDbMaterial
  3
ObjectDBX Classes
 90
     1153
280
     0
281
     0
  0
CLASS
  1
ACDBPLACEHOLDER
  2
AcDbPlaceHolder
  3
ObjectDBX Classes
 90
        0
280
     0
281
     0
  0
CLASS
  1
LAYOUT
  2
AcDbLayout
  3
ObjectDBX Classes
 90
        0
280
     0
281
     0
  0
ENDSEC
  0
SECTION
  2
TABLES
  0
TABLE
  2
VPORT
  5
8
330
0
100
AcDbSymbolTable
 70
     1
  0
VPORT
  5
29
330
8
100
AcDbSymbolTableRecord
100
AcDbViewportTableRecord
  2
*Active
 70
     0
 10
0.0
 20
0.0
 11
1.0
 21
1.0
 12
148.5
 22
105.0
 13
0.0
 23
0.0
 14
10.0
 24
10.0
 15
10.0
 25
10.0
 16
0.0
 26
0.0
 36
1.0
 17
0.0
 27
0.0
 37
0.0
 40
210.0
 41
1.4142857143
 42
50.0
 43
0.0
 44
0.0
 50
0.0
 51
0.0
 71
     0
 72
  2000
 73
     1
 74
     3
 75
     0
 76
     0
 77
     0
 78
     0
281
     0
 65
     1
110
0.0
120
0.0
130
0.0
111
1.0
121
0.0
131
0.0
112
0.0
122
1.0
132
0.0
 79
     0
146
0.0
  0
ENDTAB
  0
TABLE
  2
LTYPE
  5
5
330
0
100
AcDbSymbolTable
 70
     6
  0
LTYPE
  5
14
330
5
100
AcDbSymbolTableRecord
100
AcDbLinetypeTableRecord
  2
ByBlock
 70
     0
  3

 72
    65
 73
     0
 40
0.0
  0
LTYPE
  5
15
330
5
100
AcDbSymbolTableRecord
100
AcDbLinetypeTableRecord
  2
ByLayer
 70
     0
  3

 72
    65
 73
     0
 40
0.0
  0
LTYPE
  5
16
330
5
100
AcDbSymbolTableRecord
100
AcDbLinetypeTableRecord
  2
Continuous
 70
     0
  3
Solid line
 72
    65
 73
     0
 40
0.0
  0
LTYPE
  5
3F
330
5
100
AcDbSymbolTableRecord
100
AcDbLinetypeTableRecord
  2
HIDDEN
 70
     0
  3
Hidden __ __ __ __ __ __ __ __ __ __ __ __ __ __
 72
    65
 73
     2
 40
1.905
 49
1.27
 74
     0
 49
-0.635
 74
     0
  0
LTYPE
  5
40
330
5
100
AcDbSymbolTableRecord
100
AcDbLinetypeTableRecord
  2
PHANTOM
 70
     0
  3
Phantom ______  __  __  ______  __  __  ______
 72
    65
 73
     6
 40
12.7
 49
6.35
 74
     0
 49
-1.27
 74
     0
 49
1.27
 74
     0
 49
-1.27
 74
     0
 49
1.27
 74
     0
 49
-1.27
 74
     0
  0
LTYPE
  5
41
330
5
100
AcDbSymbolTableRecord
100
AcDbLinetypeTableRecord
  2
CENTER
 70
     0
  3
Center ____ _ ____ _ ____ _ ____ _ ____ _ ____
 72
    65
 73
     4
 40
10.16
 49
6.35
 74
     0
 49
-1.27
 74
     0
 49
1.27
 74
     0
 49
-1.27
 74
     0
  0
LTYPE
  5
42
330
5
100
AcDbSymbolTableRecord
100
AcDbLinetypeTableRecord
  2
CENTERX2
 70
     0
  3
Center (2x) ________  __  ________  __  _____
 72
    65
 73
     4
 40
20.32
 49
12.7
 74
     0
 49
-2.54
 74
     0
 49
2.54
 74
     0
 49
-2.54
 74
     0
  0
LTYPE
  5
43
330
5
100
AcDbSymbolTableRecord
100
AcDbLinetypeTableRecord
  2
DOT2
 70
     0
  3
Dot (.5x) ........................................
 72
    65
 73
     2
 40
0.635
 49
0.0
 74
     0
 49
-0.635
 74
     0
  0
ENDTAB
  0
TABLE
  2
LAYER
  5
2
330
0
100
AcDbSymbolTable
 70
     5
  0
LAYER
  5
10
330
2
100
AcDbSymbolTableRecord
100
AcDbLayerTableRecord
  2
0
 70
     0
 62
     7
  6
Continuous
370
    -3
390
F
  0
LAYER
  5
44
330
2
100
AcDbSymbolTableRecord
100
AcDbLayerTableRecord
  2
FORMAT
 70
     0
 62
     7
  6
Continuous
370
    -3
390
F
  0
LAYER
  5
45
330
2
100
AcDbSymbolTableRecord
100
AcDbLayerTableRecord
  2
VERMASSUNG
 70
     0
 62
     7
  6
Continuous
370
    -3
390
F
  0
LAYER
  5
46
330
2
100
AcDbSymbolTableRecord
100
AcDbLayerTableRecord
  2
KOPF_DÜNN
 70
     0
 62
     7
  6
Continuous
370
    -3
390
F
  0
LAYER
  5
47
330
2
100
AcDbSymbolTableRecord
100
AcDbLayerTableRecord
  2
KOPF_DICK
 70
     0
 62
     7
  6
Continuous
370
    15
390
F
  0
ENDTAB
  0
TABLE
  2
STYLE
  5
3
330
0
100
AcDbSymbolTable
 70
     2
  0
STYLE
  5
11
330
3
100
AcDbSymbolTableRecord
100
AcDbTextStyleTableRecord
  2
Standard
 70
     0
 40
0.0
 41
1.0
 50
0.0
 71
     0
 42
2.0
  3
txt
  4

  0
STYLE
  5
48
330
3
100
AcDbSymbolTableRecord
100
AcDbTextStyleTableRecord
  2
SLDTEXTSTYLE0
 70
     0
 40
0.0
 41
0.7
 50
0.0
 71
     0
 42
0.2
  3
TXT
  4

  0
ENDTAB
  0
TABLE
  2
VIEW
  5
6
330
0
100
AcDbSymbolTable
 70
     0
  0
ENDTAB
  0
TABLE
  2
UCS
  5
7
330
0
100
AcDbSymbolTable
 70
     0
  0
ENDTAB
  0
TABLE
  2
APPID
  5
9
330
0
100
AcDbSymbolTable
 70
     1
  0
APPID
  5
12
330
9
100
AcDbSymbolTableRecord
100
AcDbRegAppTableRecord
  2
ACAD
 70
     0
  0
ENDTAB
  0
TABLE
  2
DIMSTYLE
  5
A
330
0
100
AcDbSymbolTable
 70
     5
100
AcDbDimStyleTable
  0
DIMSTYLE
105
27
330
A
100
AcDbSymbolTableRecord
100
AcDbDimStyleTableRecord
  2
ISO-25
 70
     0
 41
2.5
 42
0.625
 43
3.75
 44
1.25
 73
     0
 74
     0
 77
     1
 78
     8
140
2.5
141
2.5
143
0.0393700787
147
0.625
171
     3
172
     1
178
     0
271
     2
272
     2
274
     3
278
    44
283
     0
284
     8
340
11
  0
DIMSTYLE
105
1AC
102
{ACAD_REACTORS
330
1AB
330
1B8
102
}
330
A
100
AcDbSymbolTableRecord
100
AcDbDimStyleTableRecord
  2
SLDDIMSTYLE0
 70
     0
 41
3.0
 44
0.0
 45
0.000000001
 47
0.1
 48
0.1
 71
     1
 73
     0
 74
     0
 77
     1
 78
    12
 79
     3
140
2.0
147
0.5
173
     1
178
     0
271
     2
272
     1
276
     2
284
     8
340
48
  0
DIMSTYLE
105
1C5
102
{ACAD_REACTORS
330
1C4
330
1D8
102
}
330
A
100
AcDbSymbolTableRecord
100
AcDbDimStyleTableRecord
  2
SLDDIMSTYLE1
 70
     0
 41
3.0
 44
0.0
 45
0.000000001
 73
     0
 74
     0
 77
     1
 78
    12
 79
     3
140
2.0
147
0.5
173
     1
178
     0
271
     2
272
     3
276
     2
284
    12
340
48
  0
DIMSTYLE
105
1D0
102
{ACAD_REACTORS
330
1CF
102
}
330
A
100
AcDbSymbolTableRecord
100
AcDbDimStyleTableRecord
  2
SLDDIMSTYLE2
 70
     0
 41
3.0
 44
0.0
 73
     0
 74
     0
 77
     1
 78
    12
 79
     3
140
2.0
147
0.5
173
     1
178
     0
179
     1
272
     3
276
     2
284
    12
340
48
  0
DIMSTYLE
105
23C
102
{ACAD_REACTORS
330
23B
102
}
330
A
100
AcDbSymbolTableRecord
100
AcDbDimStyleTableRecord
  2
SLDDIMSTYLE3
 70
     0
 41
3.0
 44
0.0
 45
0.000000001
 73
     0
 74
     0
 77
     1
 78
    12
 79
     3
140
2.0
147
0.5
172
     1
173
     1
178
     0
271
     2
272
     3
276
     2
284
    12
289
     0
340
48
  0
ENDTAB
  0
TABLE
  2
BLOCK_RECORD
  5
1
330
0
100
AcDbSymbolTable
 70
     8
  0
BLOCK_RECORD
  5
1F
330
1
100
AcDbSymbolTableRecord
100
AcDbBlockTableRecord
  2
*Model_Space
340
22
  0
BLOCK_RECORD
  5
1B
330
1
100
AcDbSymbolTableRecord
100
AcDbBlockTableRecord
  2
*Paper_Space
340
1E
  0
BLOCK_RECORD
  5
23
330
1
100
AcDbSymbolTableRecord
100
AcDbBlockTableRecord
  2
*Paper_Space0
340
26
  0
BLOCK_RECORD
  5
1AD
330
1
100
AcDbSymbolTableRecord
100
AcDbBlockTableRecord
  2
_D
340
0
  0
BLOCK_RECORD
  5
1B9
330
1
100
AcDbSymbolTableRecord
100
AcDbBlockTableRecord
  2
_D_1
340
0
  0
BLOCK_RECORD
  5
1C6
330
1
100
AcDbSymbolTableRecord
100
AcDbBlockTableRecord
  2
_D_2
340
0
  0
BLOCK_RECORD
  5
1D1
330
1
100
AcDbSymbolTableRecord
100
AcDbBlockTableRecord
  2
_D_3
340
0
  0
BLOCK_RECORD
  5
1D9
330
1
100
AcDbSymbolTableRecord
100
AcDbBlockTableRecord
  2
_D_4
340
0
  0
BLOCK_RECORD
  5
23D
330
1
100
AcDbSymbolTableRecord
100
AcDbBlockTableRecord
  2
_D_5
340
0
  0
BLOCK_RECORD
  5
24A
330
1
100
AcDbSymbolTableRecord
100
AcDbBlockTableRecord
  2
SW_CENTERMARKSYMBOL_0
340
0
102
{BLKREFS
331
255
102
}
  0
ENDTAB
  0
ENDSEC
  0
SECTION
  2
BLOCKS
  0
BLOCK
  5
20
330
1F
100
AcDbEntity
  8
0
100
AcDbBlockBegin
  2
*Model_Space
 70
     0
 10
0.0
 20
0.0
 30
0.0
  3
*Model_Space
  1

  0
ENDBLK
  5
21
330
1F
100
AcDbEntity
  8
0
100
AcDbBlockEnd
  0
BLOCK
  5
1C
330
1B
100
AcDbEntity
 67
     1
  8
0
100
AcDbBlockBegin
  2
*Paper_Space
 70
     0
 10
0.0
 20
0.0
 30
0.0
  3
*Paper_Space
  1

  0
ENDBLK
  5
1D
330
1B
100
AcDbEntity
 67
     1
  8
0
100
AcDbBlockEnd
  0
BLOCK
  5
24
330
23
100
AcDbEntity
  8
0
100
AcDbBlockBegin
  2
*Paper_Space0
 70
     0
 10
0.0
 20
0.0
 30
0.0
  3
*Paper_Space0
  1

  0
ENDBLK
  5
25
330
23
100
AcDbEntity
  8
0
100
AcDbBlockEnd
  0
BLOCK
  5
1AE
330
1AD
100
AcDbEntity
  8
0
100
AcDbBlockBegin
  2
_D
 70
     0
 10
0.0
 20
0.0
 30
0.0
  3
_D
  1

  0
SOLID
  5
1B0
330
1AD
100
AcDbEntity
  8
VERMASSUNG
100
AcDbTrace
 10
267.1632933851
 20
150.3946537513
 30
0.0
 11
266.7132933851
 21
147.3946537513
 31
0.0
 12
267.6132933851
 22
147.3946537513
 32
0.0
 13
267.6132933851
 23
147.3946537513
 33
0.0
  0
SOLID
  5
1B1
330
1AD
100
AcDbEntity
  8
VERMASSUNG
100
AcDbTrace
 10
267.1632933851
 20
115.3946537513
 30
0.0
 11
267.6132933851
 21
118.3946537513
 31
0.0
 12
266.7132933851
 22
118.3946537513
 32
0.0
 13
266.7132933851
 23
118.3946537513
 33
0.0
  0
LINE
  5
1B2
330
1AD
100
AcDbEntity
  8
VERMASSUNG
100
AcDbLine
 10
245.8702061361
 20
150.3946537513
 30
0.0
 11
268.1632933851
 21
150.3946537513
 31
0.0
  0
LINE
  5
1B3
330
1AD
100
AcDbEntity
  8
VERMASSUNG
100
AcDbLine
 10
245.8702061361
 20
115.3946537513
 30
0.0
 11
268.1632933851
 21
115.3946537513
 31
0.0
  0
LINE
  5
1B4
330
1AD
100
AcDbEntity
  8
VERMASSUNG
100
AcDbLine
 10
267.1632933851
 20
150.3946537513
 30
0.0
 11
267.1632933851
 21
115.3946537513
 31
0.0
  0
MTEXT
  5
1B5
330
1AD
100
AcDbEntity
  8
VERMASSUNG
100
AcDbMText
 10
264.585158022
 20
128.3446535643
 30
0.1
 40
2.0
 41
0.0
 71
     1
 72
     1
  1
35
  7
SLDTEXTSTYLE0
 11
-7.044195017643634E-15
 21
1.0
 31
0.0
 73
     1
 44
1.0
  0
MTEXT
  5
1B6
330
1AD
100
AcDbEntity
  8
VERMASSUNG
100
AcDbMText
 10
264.585158022
 20
134.1321536663
 30
0.1
 40
2.0
 41
0.0
 71
     1
 72
     1
  1

  7
SLDTEXTSTYLE0
 11
-7.044195017643634E-15
 21
1.0
 31
0.0
 73
     1
 44
1.0
  0
MTEXT
  5
1B7
330
1AD
100
AcDbEntity
  8
VERMASSUNG
100
AcDbMText
 10
265.0796918848
 20
134.1446539562
 30
0.1
 40
1.5
 41
0.0
 71
     1
 72
     1
  1
±0.1
  7
SLDTEXTSTYLE0
 11
-7.044195017643634E-15
 21
1.0
 31
0.0
 73
     1
 44
1.0
  0
ENDBLK
  5
1AF
330
1AD
100
AcDbEntity
  8
0
100
AcDbBlockEnd
  0
BLOCK
  5
1BA
330
1B9
100
AcDbEntity
  8
0
100
AcDbBlockBegin
  2
_D_1
 70
     0
 10
0.0
 20
0.0
 30
0.0
  3
_D_1
  1

  0
SOLID
  5
1BC
330
1B9
100
AcDbEntity
  8
VERMASSUNG
100
AcDbTrace
 10
185.8702061361
 20
154.362873036
 30
0.0
 11
188.8702061361
 21
153.912873036
 31
0.0
 12
188.8702061361
 22
154.812873036
 32
0.0
 13
188.8702061361
 23
154.812873036
 33
0.0
  0
SOLID
  5
1BD
330
1B9
100
AcDbEntity
  8
VERMASSUNG
100
AcDbTrace
 10
245.8702061361
 20
154.362873036
 30
0.0
 11
242.8702061361
 21
154.812873036
 31
0.0
 12
242.8702061361
 22
153.912873036
 32
0.0
 13
242.8702061361
 23
153.912873036
 33
0.0
  0
LINE
  5
1BE
330
1B9
100
AcDbEntity
  8
VERMASSUNG
100
AcDbLine
 10
185.8702061361
 20
140.0946537513
 30
0.0
 11
185.8702061361
 21
155.362873036
 31
0.0
  0
LINE
  5
1BF
330
1B9
100
AcDbEntity
  8
VERMASSUNG
100
AcDbLine
 10
245.8702061361
 20
150.3946537513
 30
0.0
 11
245.8702061361
 21
155.362873036
 31
0.0
  0
LINE
  5
1C0
330
1B9
100
AcDbEntity
  8
VERMASSUNG
100
AcDbLine
 10
185.8702061361
 20
154.362873036
 30
0.0
 11
245.8702061361
 21
154.362873036
 31
0.0
  0
MTEXT
  5
1C1
330
1B9
100
AcDbEntity
  8
VERMASSUNG
100
AcDbMText
 10
211.3202059491
 20
156.9410083991
 30
0.1
 40
2.0
 41
0.0
 71
     1
 72
     1
  1
60
  7
SLDTEXTSTYLE0
 73
     1
 44
1.0
  0
MTEXT
  5
1C2
330
1B9
100
AcDbEntity
  8
VERMASSUNG
100
AcDbMText
 10
217.1077060512
 20
156.9410083991
 30
0.1
 40
2.0
 41
0.0
 71
     1
 72
     1
  1

  7
SLDTEXTSTYLE0
 73
     1
 44
1.0
  0
MTEXT
  5
1C3
330
1B9
100
AcDbEntity
  8
VERMASSUNG
100
AcDbMText
 10
217.120206341
 20
156.4464745364
 30
0.1
 40
1.5
 41
0.0
 71
     1
 72
     1
  1
±0.1
  7
SLDTEXTSTYLE0
 73
     1
 44
1.0
  0
ENDBLK
  5
1BB
330
1B9
100
AcDbEntity
  8
0
100
AcDbBlockEnd
  0
BLOCK
  5
1C7
330
1C6
100
AcDbEntity
  8
0
100
AcDbBlockBegin
  2
_D_2
 70
     0
 10
0.0
 20
0.0
 30
0.0
  3
_D_2
  1

  0
SOLID
  5
1C9
330
1C6
100
AcDbEntity
  8
VERMASSUNG
100
AcDbTrace
 10
155.8702061361
 20
162.4021713083
 30
0.0
 11
158.8702061361
 21
161.9521713083
 31
0.0
 12
158.8702061361
 22
162.8521713083
 32
0.0
 13
158.8702061361
 23
162.8521713083
 33
0.0
  0
SOLID
  5
1CA
330
1C6
100
AcDbEntity
  8
VERMASSUNG
100
AcDbTrace
 10
245.8702061361
 20
162.4021713083
 30
0.0
 11
242.8702061361
 21
162.8521713083
 31
0.0
 12
242.8702061361
 22
161.9521713083
 32
0.0
 13
242.8702061361
 23
161.9521713083
 33
0.0
  0
LINE
  5
1CB
330
1C6
100
AcDbEntity
  8
VERMASSUNG
100
AcDbLine
 10
155.8702061361
 20
131.3879795894
 30
0.0
 11
155.8702061361
 21
163.4021713083
 31
0.0
  0
LINE
  5
1CC
330
1C6
100
AcDbEntity
  8
VERMASSUNG
100
AcDbLine
 10
245.8702061361
 20
150.3946537513
 30
0.0
 11
245.8702061361
 21
163.4021713083
 31
0.0
  0
LINE
  5
1CD
330
1C6
100
AcDbEntity
  8
VERMASSUNG
100
AcDbLine
 10
155.8702061361
 20
162.4021713083
 30
0.0
 11
245.8702061361
 21
162.4021713083
 31
0.0
  0
MTEXT
  5
1CE
330
1C6
100
AcDbEntity
  8
VERMASSUNG
100
AcDbMText
 10
198.5702060851
 20
164.9803066714
 30
0.1
 40
2.0
 41
0.0
 71
     1
 72
     1
  1
90
  7
SLDTEXTSTYLE0
 73
     1
 44
1.0
  0
ENDBLK
  5
1C8
330
1C6
100
AcDbEntity
  8
0
100
AcDbBlockEnd
  0
BLOCK
  5
1D2
330
1D1
100
AcDbEntity
  8
0
100
AcDbBlockBegin
  2
_D_3
 70
     0
 10
0.0
 20
0.0
 30
0.0
  3
_D_3
  1

  0
ARC
  5
1D4
330
1D1
100
AcDbEntity
  8
VERMASSUNG
100
AcDbCircle
 10
245.8929629976
 20
150.3946537513
 30
0.0
 40
10.97113597422785
100
AcDbArc
 50
266.9675391515
 51
0.0
  0
SOLID
  5
1D5
330
1D1
100
AcDbEntity
  8
VERMASSUNG
100
AcDbTrace
 10
245.3125710335
 20
139.4388803996
 30
0.0
 11
248.3390487295
 21
139.2316781893
 31
0.0
 12
248.2666469366
 22
140.1287612292
 32
0.0
 13
248.2666469366
 23
140.1287612292
 33
0.0
  0
SOLID
  5
1D6
330
1D1
100
AcDbEntity
  8
VERMASSUNG
100
AcDbTrace
 10
256.8640989718
 20
150.3946537513
 30
0.0
 11
256.0189084696
 21
147.4812102534
 31
0.0
 12
256.9109051659
 22
147.3614526072
 32
0.0
 13
256.9109051659
 23
147.3614526072
 33
0.0
  0
MTEXT
  5
1D7
330
1D1
100
AcDbEntity
  8
VERMASSUNG
100
AcDbMText
 10
249.564447333
 20
142.309317446
 30
0.1
 40
2.0
 41
0.0
 71
     1
 72
     1
  1
93°
  7
SLDTEXTSTYLE0
 11
0.7255693350955912
 21
0.6881490681305481
 31
0.0
 73
     1
 44
1.0
  0
ENDBLK
  5
1D3
330
1D1
100
AcDbEntity
  8
0
100
AcDbBlockEnd
  0
BLOCK
  5
1DA
330
1D9
100
AcDbEntity
  8
0
100
AcDbBlockBegin
  2
_D_4
 70
     0
 10
0.0
 20
0.0
 30
0.0
  3
_D_4
  1

  0
SOLID
  5
1DC
330
1D9
100
AcDbEntity
  8
VERMASSUNG
100
AcDbTrace
 10
148.478697256
 20
140.3946537513
 30
0.0
 11
148.028697256
 21
137.3946537513
 31
0.0
 12
148.928697256
 22
137.3946537513
 32
0.0
 13
148.928697256
 23
137.3946537513
 33
0.0
  0
SOLID
  5
1DD
330
1D9
100
AcDbEntity
  8
VERMASSUNG
100
AcDbTrace
 10
148.478697256
 20
90.3946537513
 30
0.0
 11
148.928697256
 21
93.3946537513
 31
0.0
 12
148.028697256
 22
93.3946537513
 32
0.0
 13
148.028697256
 23
93.3946537513
 33
0.0
  0
LINE
  5
1DE
330
1D9
100
AcDbEntity
  8
VERMASSUNG
100
AcDbLine
 10
186.1702061361
 20
140.3946537513
 30
0.0
 11
147.478697256
 21
140.3946537513
 31
0.0
  0
LINE
  5
1DF
330
1D9
100
AcDbEntity
  8
VERMASSUNG
100
AcDbLine
 10
186.1702061361
 20
90.3946537513
 30
0.0
 11
147.478697256
 21
90.3946537513
 31
0.0
  0
LINE
  5
1E0
330
1D9
100
AcDbEntity
  8
VERMASSUNG
100
AcDbLine
 10
148.478697256
 20
140.3946537513
 30
0.0
 11
148.478697256
 21
90.3946537513
 31
0.0
  0
MTEXT
  5
1E1
330
1D9
100
AcDbEntity
  8
VERMASSUNG
100
AcDbMText
 10
145.7005617669
 20
108.989653642
 30
0.35
 40
2.0
 41
0.0
 71
     1
 72
     1
  1
PSC
  7
SLDTEXTSTYLE0
 11
-7.044195017643634E-15
 21
1.0
 31
0.0
 73
     1
 44
1.0
  0
MTEXT
  5
1E2
330
1D9
100
AcDbEntity
  8
VERMASSUNG
100
AcDbMText
 10
145.9005617764
 20
113.5896537441
 30
0.35
 40
2.0
 41
0.0
 71
     1
 72
     1
  1
%%c
  7
SLDTEXTSTYLE0
 11
-7.044195017643634E-15
 21
1.0
 31
0.0
 73
     1
 44
1.0
  0
MTEXT
  5
1E3
330
1D9
100
AcDbEntity
  8
VERMASSUNG
100
AcDbMText
 10
145.7005617669
 20
117.1996542241
 30
0.35
 40
2.0
 41
0.0
 71
     1
 72
     1
  1
50
  7
SLDTEXTSTYLE0
 11
-7.044195017643634E-15
 21
1.0
 31
0.0
 73
     1
 44
1.0
  0
ENDBLK
  5
1DB
330
1D9
100
AcDbEntity
  8
0
100
AcDbBlockEnd
  0
BLOCK
  5
23E
330
23D
100
AcDbEntity
  8
0
100
AcDbBlockBegin
  2
_D_5
 70
     0
 10
0.0
 20
0.0
 30
0.0
  3
_D_5
  1

  0
SOLID
  5
240
330
23D
100
AcDbEntity
  8
VERMASSUNG
100
AcDbTrace
 10
111.3500695421
 20
101.3550785272
 30
0.0
 11
113.7231457534
 21
99.4653670955
 31
0.0
 12
114.1731457534
 22
100.2447899589
 32
0.0
 13
114.1731457534
 23
100.2447899589
 33
0.0
  0
SOLID
  5
241
330
23D
100
AcDbEntity
  8
VERMASSUNG
100
AcDbTrace
 10
55.0584182961
 20
133.8550785272
 30
0.0
 11
52.6853420847
 21
135.7447899589
 31
0.0
 12
52.2353420847
 22
134.9653670955
 32
0.0
 13
52.2353420847
 23
134.9653670955
 33
0.0
  0
LINE
  5
242
330
23D
100
AcDbEntity
  8
VERMASSUNG
100
AcDbLine
 10
111.3500695421
 20
101.3550785272
 30
0.0
 11
110.8500695421
 21
100.4890531234
 31
0.0
  0
LINE
  5
243
330
23D
100
AcDbEntity
  8
VERMASSUNG
100
AcDbLine
 10
55.0584182961
 20
133.8550785272
 30
0.0
 11
54.5584182961
 21
132.9890531234
 31
0.0
  0
LINE
  5
244
330
23D
100
AcDbEntity
  8
VERMASSUNG
100
AcDbLine
 10
111.3500695421
 20
101.3550785272
 30
0.0
 11
116.5462219648
 21
98.3550785272
 31
0.0
  0
LINE
  5
245
330
23D
100
AcDbEntity
  8
VERMASSUNG
100
AcDbLine
 10
111.3500695421
 20
101.3550785272
 30
0.0
 11
55.0584182961
 21
133.8550785272
 31
0.0
  0
LINE
  5
246
330
23D
100
AcDbEntity
  8
VERMASSUNG
100
AcDbLine
 10
55.0584182961
 20
133.8550785272
 30
0.0
 11
37.9502920174
 21
143.7324598396
 31
0.0
  0
MTEXT
  5
247
330
23D
100
AcDbEntity
  8
VERMASSUNG
100
AcDbMText
 10
39.2393597572
 20
145.9651906592
 30
0.1
 40
2.0
 41
0.0
 71
     1
 72
     1
  1
%%c
  7
SLDTEXTSTYLE0
 11
0.866025403784438
 21
-0.500000000000001
 31
0.0
 73
     1
 44
1.0
  0
MTEXT
  5
248
330
23D
100
AcDbEntity
  8
VERMASSUNG
100
AcDbMText
 10
42.465711482
 20
144.3333957411
 30
0.1
 40
2.0
 41
0.0
 71
     1
 72
     1
  1
65
  7
SLDTEXTSTYLE0
 11
0.866025403784438
 21
-0.500000000000001
 31
0.0
 73
     1
 44
1.0
  0
MTEXT
  5
249
330
23D
100
AcDbEntity
  8
VERMASSUNG
100
AcDbMText
 10
47.4778339981
 20
141.4396454572
 30
0.1
 40
2.0
 41
0.0
 71
     1
 72
     1
  1
min.
  7
SLDTEXTSTYLE0
 11
0.866025403784438
 21
-0.500000000000001
 31
0.0
 73
     1
 44
1.0
  0
ENDBLK
  5
23F
330
23D
100
AcDbEntity
  8
0
100
AcDbBlockEnd
  0
BLOCK
  5
24B
330
24A
100
AcDbEntity
  8
0
100
AcDbBlockBegin
  2
SW_CENTERMARKSYMBOL_0
 70
     0
 10
0.0
 20
0.0
 30
0.0
  3
SW_CENTERMARKSYMBOL_0
  1

  0
LINE
  5
24D
330
24A
100
AcDbEntity
  8
VERMASSUNG
 62
     0
100
AcDbLine
 10
0.0
 20
0.0
 30
0.0
 11
0.0
 21
2.5
 31
0.0
  0
LINE
  5
24E
330
24A
100
AcDbEntity
  8
VERMASSUNG
 62
     0
100
AcDbLine
 10
0.0
 20
0.0
 30
0.0
 11
-2.5
 21
0.0
 31
0.0
  0
LINE
  5
24F
330
24A
100
AcDbEntity
  8
VERMASSUNG
 62
     0
100
AcDbLine
 10
0.0
 20
0.0
 30
0.0
 11
0.0
 21
-2.5
 31
0.0
  0
LINE
  5
250
330
24A
100
AcDbEntity
  8
VERMASSUNG
 62
     0
100
AcDbLine
 10
0.0
 20
0.0
 30
0.0
 11
2.5
 21
0.0
 31
0.0
  0
LINE
  5
251
330
24A
100
AcDbEntity
  8
VERMASSUNG
 62
     0
100
AcDbLine
 10
0.0
 20
5.0
 30
0.0
 11
0.0
 21
28.0
 31
0.0
  0
LINE
  5
252
330
24A
100
AcDbEntity
  8
VERMASSUNG
 62
     0
100
AcDbLine
 10
-5.0
 20
0.0
 30
0.0
 11
-28.0
 21
0.0
 31
0.0
  0
LINE
  5
253
330
24A
100
AcDbEntity
  8
VERMASSUNG
 62
     0
100
AcDbLine
 10
0.0
 20
-5.0
 30
0.0
 11
0.0
 21
-28.0
 31
0.0
  0
LINE
  5
254
330
24A
100
AcDbEntity
  8
VERMASSUNG
 62
     0
100
AcDbLine
 10
5.0
 20
0.0
 30
0.0
 11
28.0
 21
0.0
 31
0.0
  0
ENDBLK
  5
24C
330
24A
100
AcDbEntity
  8
0
100
AcDbBlockEnd
  0
ENDSEC
  0
SECTION
  2
ENTITIES
  0
MTEXT
  5
49
330
1F
100
AcDbEntity
  8
KOPF_DÜNN
100
AcDbMText
 10
13.8892156294
 20
23.8442973028
 30
0.0
 40
3.0
 41
0.0
 71
     1
 72
     1
  1
PS5.PDF.RUA.060
  7
SLDTEXTSTYLE0
 73
     1
 44
1.0
  0
MTEXT
  5
4A
330
1F
100
AcDbEntity
  8
VERMASSUNG
100
AcDbMText
 10
13.9329988022
 20
28.8834360957
 30
0.0
 40
3.0
 41
0.0
 71
     1
 72
     1
  1
Klemmhalter rechts_Turning tool right 93° /55°
  7
SLDTEXTSTYLE0
 73
     1
 44
1.0
  0
MTEXT
  5
4B
330
1F
100
AcDbEntity
  8
VERMASSUNG
100
AcDbMText
 10
98.8601118557
 20
13.8365368179
 30
0.0
 40
2.0
 41
0.0
 71
     1
 72
     1
  1
Datum: 27.04.2012
  7
SLDTEXTSTYLE0
 73
     1
 44
1.0
  0
MTEXT
  5
4C
330
1F
100
AcDbEntity
  8
VERMASSUNG
100
AcDbMText
 10
13.933048693
 20
18.0482802738
 30
0.0
 40
2.0
 41
0.0
 71
     1
 72
     1
  1
PSC ø50 / DN..15 06..
  7
SLDTEXTSTYLE0
 73
     1
 44
1.0
  0
MTEXT
  5
4D
330
1F
100
AcDbEntity
  8
VERMASSUNG
100
AcDbMText
 10
13.9808475933
 20
13.9090973692
 30
0.0
 40
2.0
 41
0.0
 71
     1
 72
     1
  1
Gewicht: 785g
  7
SLDTEXTSTYLE0
 73
     1
 44
1.0
  0
ARC
  5
4E
330
1F
100
AcDbEntity
  8
0
  6
Continuous
 62
     7
370
    15
100
AcDbCircle
 10
186.1702061361
 20
90.6946537513
 30
0.0
 40
0.3000000000000398
100
AcDbArc
 50
180.0
 51
270.0
  0
ARC
  5
4F
330
1F
100
AcDbEntity
  8
0
  6
Continuous
 62
     7
370
    15
100
AcDbCircle
 10
186.1702061361
 20
140.0946537513
 30
0.0
 40
0.3000000000000398
100
AcDbArc
 50
90.0
 51
180.0
  0
LINE
  5
50
330
1F
100
AcDbEntity
  8
0
  6
Continuous
 62
     7
370
    15
100
AcDbLine
 10
218.1028791482
 20
140.3946537513
 30
0.0
 11
186.1702061361
 21
140.3946537513
 31
0.0
  0
LINE
  5
51
330
1F
100
AcDbEntity
  8
0
  6
Continuous
 62
     7
370
    15
100
AcDbLine
 10
186.1702061361
 20
90.3946537513
 30
0.0
 11
218.1028791482
 21
90.3946537513
 31
0.0
  0
LWPOLYLINE
  5
52
330
1F
100
AcDbEntity
  8
0
  6
Continuous
 62
     7
370
    15
100
AcDbPolyline
 90
        3
 70
   128
 43
0.0
 10
185.6702061361
 20
97.5548334724
 10
185.7956610796
 20
97.4865313574
 10
185.8702061361
 20
97.4337935993
  0
LWPOLYLINE
  5
53
330
1F
100
AcDbEntity
  8
0
  6
Continuous
 62
     7
370
    15
100
AcDbPolyline
 90
        3
 70
   128
 43
0.0
 10
185.8702061361
 20
133.3555139032
 10
185.7956610796
 20
133.3027761451
 10
185.6702061361
 20
133.2344740301
  0
ARC
  5
54
330
1F
100
AcDbEntity
  8
0
  6
Continuous
 62
     7
370
    15
100
AcDbCircle
 10
218.1028791482
 20
141.3946537513
 30
0.0
 40
1.0
100
AcDbArc
 50
270.0
 51
345.0
  0
ARC
  5
55
330
1F
100
AcDbEntity
  8
0
  6
Continuous
 62
     7
370
    15
100
AcDbCircle
 10
218.1028791482
 20
89.3946537513
 30
0.0
 40
1.000000000000028
100
AcDbArc
 50
30.0
 51
90.0
  0
LINE
  5
56
330
1F
100
AcDbEntity
  8
0
  6
Continuous
 62
     7
370
    15
100
AcDbLine
 10
218.9689045519
 20
89.8946537513
 30
0.0
 11
222.5455593561
 21
89.8946537513
 31
0.0
  0
LINE
  5
57
330
1F
100
AcDbEntity
  8
0
  6
Continuous
 62
     7
370
    15
100
AcDbLine
 10
219.1107662819
 20
141.2924364375
 30
0.0
 11
219.0688049744
 21
141.1358347062
 31
0.0
  0
LINE
  5
58
330
1F
100
AcDbEntity
  8
0
  6
Continuous
 62
     7
370
    15
100
AcDbLine
 10
236.9994559875
 20
139.9324360946
 30
0.0
 11
236.4037996142
 21
139.1870899985
 31
0.0
  0
LINE
  5
59
330
1F
100
AcDbEntity
  8
0
  6
Continuous
 62
     7
370
    15
100
AcDbLine
 10
232.8789536514
 20
142.8518335761
 30
0.0
 11
232.7966104209
 21
142.715790039
 31
0.0
  0
LINE
  5
5A
330
1F
100
AcDbEntity
  8
0
  6
Continuous
 62
     7
370
    15
100
AcDbLine
 10
244.6400594336
 20
134.8291607949
 30
0.0
 11
245.0595106351
 21
135.5221579571
 31
0.0
  0
LINE
  5
5B
330
1F
100
AcDbEntity
  8
0
  6
Continuous
 62
     7
370
    15
100
AcDbLine
 10
185.8702061361
 20
90.6946537513
 30
0.0
 11
185.8702061361
 21
140.0946537455
 31
0.0
  0
SPLINE
  5
5C
330
1F
100
AcDbEntity
  8
0
  6
Continuous
 62
     7
370
    15
100
AcDbSpline
210
0.0
220
0.0
230
1.0
 70
     8
 71
     3
 72
    70
 73
    66
 74
     0
 42
0.00000001
 43
0.00000001
 12
1.0
 22
0.0
 32
0.0
 13
1.0
 23
0.0
 33
0.0
 40
-0.0312499999999997
 40
-0.0312499999999997
 40
0.0
 40
0.0
 40
0.0312500000000003
 40
0.0312500000000003
 40
0.0625000000000007
 40
0.0625000000000007
 40
0.093750000000001
 40
0.093750000000001
 40
0.1250000000000014
 40
0.1250000000000014
 40
0.1562500000000017
 40
0.1562500000000017
 40
0.1875000000000021
 40
0.1875000000000021
 40
0.2187500000000024
 40
0.2187500000000024
 40
0.2500000000000027
 40
0.2500000000000027
 40
0.2812500000000031
 40
0.2812500000000031
 40
0.3125000000000034
 40
0.3125000000000034
 40
0.3437500000000037
 40
0.3437500000000037
 40
0.3750000000000041
 40
0.3750000000000041
 40
0.4062500000000041
 40
0.4062500000000041
 40
0.4375000000000039
 40
0.4375000000000039
 40
0.4687500000000037
 40
0.4687500000000037
 40
0.5000000000000036
 40
0.5000000000000036
 40
0.5312500000000033
 40
0.5312500000000033
 40
0.5625000000000031
 40
0.5625000000000031
 40
0.5937500000000029
 40
0.5937500000000029
 40
0.6250000000000027
 40
0.6250000000000027
 40
0.6562500000000024
 40
0.6562500000000024
 40
0.6875000000000022
 40
0.6875000000000022
 40
0.718750000000002
 40
0.718750000000002
 40
0.7500000000000018
 40
0.7500000000000018
 40
0.7812500000000017
 40
0.7812500000000017
 40
0.8125000000000014
 40
0.8125000000000014
 40
0.8437500000000012
 40
0.8437500000000012
 40
0.875000000000001
 40
0.875000000000001
 40
0.9062500000000008
 40
0.9062500000000008
 40
0.9375000000000006
 40
0.9375000000000006
 40
0.9687500000000003
 40
0.9687500000000003
 40
1.0
 40
1.0
 40
1.03125
 40
1.03125
 10
204.0685920500754
 20
126.3962274062374
 30
0.0
 10
203.6718202221963
 20
126.3962274062374
 30
0.0
 10
203.4767855330551
 20
126.4138630684971
 30
0.0
 10
203.0931333533698
 20
126.4827876855302
 30
0.0
 10
202.9025142244984
 20
126.5349225955318
 30
0.0
 10
202.5392998629171
 20
126.670410606633
 30
0.0
 10
202.367060221406
 20
126.7531176271187
 30
0.0
 10
202.0410901599289
 20
126.9475847043636
 30
0.0
 10
201.8868909380265
 20
127.0602680409238
 30
0.0
 10
201.6104376937842
 20
127.3049932868086
 30
0.0
 10
201.4863191391551
 20
127.4379302971789
 30
0.0
 10
201.2670017361498
 20
127.7248409553999
 30
0.0
 10
201.1739125105684
 20
127.8765119214349
 30
0.0
 10
201.0242355632874
 20
128.1882354021628
 30
0.0
 10
200.9665484028381
 20
128.3505955242672
 30
0.0
 10
200.8894145118417
 20
128.6803789593546
 30
0.0
 10
200.8703149621523
 20
128.8449832388974
 30
0.0
 10
200.8700982286649
 20
129.1734915495542
 30
0.0
 10
200.8896110432907
 20
129.3390599595131
 30
0.0
 10
200.9662120863699
 20
129.6569435300713
 30
0.0
 10
201.0228872513829
 20
129.8102537940929
 30
0.0
 10
201.1732364643272
 20
130.1059606270377
 30
0.0
 10
201.2670923683685
 20
130.2476030590391
 30
0.0
 10
201.4841224357098
 20
130.5082564935199
 30
0.0
 10
201.6081402826373
 20
130.6290108876737
 30
0.0
 10
201.8879555049595
 20
130.8508858564574
 30
0.0
 10
202.0392838611171
 20
130.9485003569676
 30
0.0
 10
202.3639495308533
 20
131.1188728415827
 30
0.0
 10
202.5393711491199
 20
131.192214747761
 30
0.0
 10
202.902552536759
 20
131.3093843054141
 30
0.0
 10
203.089540254838
 20
131.3534154856312
 30
0.0
 10
203.4742644566221
 20
131.4129764443565
 30
0.0
 10
203.6732203231409
 20
131.4281940749029
 30
0.0
 10
204.0649493727235
 20
131.4283072290237
 30
0.0
 10
204.2597380378974
 20
131.4136949745446
 30
0.0
 10
204.6471126156013
 20
131.3542641980563
 30
0.0
 10
204.8364363034437
 20
131.3096957505393
 30
0.0
 10
205.1975767024359
 20
131.1934782343098
 30
0.0
 10
205.3721635865608
 20
131.1209232019722
 30
0.0
 10
205.7000727657477
 20
130.949256664104
 30
0.0
 10
205.8510844380689
 20
130.8516656025542
 30
0.0
 10
206.1279035027014
 20
130.6327768943077
 30
0.0
 10
206.2546499819416
 20
130.5100121980828
 30
0.0
 10
206.4725309320312
 20
130.2487620076973
 30
0.0
 10
206.5648289564856
 20
130.1098054303457
 30
0.0
 10
206.7158007768371
 20
129.8143954643343
 30
0.0
 10
206.7737200509316
 20
129.6582746112175
 30
0.0
 10
206.8503626254472
 20
129.3415336174301
 30
0.0
 10
206.8700232768982
 20
129.1792917336714
 30
0.0
 10
206.8703864812203
 20
128.8465739271841
 30
0.0
 10
206.8510781836032
 20
128.6816857542657
 30
0.0
 10
206.7751108425359
 20
128.3549806016674
 30
0.0
 10
206.7175144483945
 20
128.1914074096811
 30
0.0
 10
206.5671983828827
 20
127.8775861119917
 30
0.0
 10
206.4751914807759
 20
127.7276668062887
 30
0.0
 10
206.25776081415
 20
127.4422445906844
 30
0.0
 10
206.1313075893129
 20
127.3063349516952
 30
0.0
 10
205.8550506445018
 20
127.0614618597253
 30
0.0
 10
205.7042470821889
 20
126.9508651352733
 30
0.0
 10
205.3765400122452
 20
126.7546855713361
 30
0.0
 10
205.2023176297903
 20
126.6710263793623
 30
0.0
 10
204.8415508528666
 20
126.536121210041
 30
0.0
 10
204.6525764749235
 20
126.4839386979572
 30
0.0
 10
204.2647328528174
 20
126.4138657635342
 30
0.0
 10
204.0685920500754
 20
126.3962274062374
 30
0.0
 10
203.6718202221963
 20
126.3962274062374
 30
0.0
  0
SPLINE
  5
5D
330
1F
100
AcDbEntity
  8
0
  6
Continuous
 62
     7
370
    15
100
AcDbSpline
210
0.0
220
0.0
230
1.0
 70
     8
 71
     3
 72
    12
 73
     8
 74
     0
 42
0.00000001
 43
0.00000001
 12
1.0
 22
0.0
 32
0.0
 13
1.0
 23
0.0
 33
0.0
 40
0.0
 40
0.0
 40
0.0
 40
0.0
 40
0.4999999999999972
 40
0.4999999999999972
 40
0.7499999999999986
 40
0.7499999999999986
 40
1.0
 40
1.0
 40
1.0
 40
1.0
 10
193.9649502478097
 20
123.4911067493101
 30
0.0
 10
193.995649631177
 20
123.3767710822463
 30
0.0
 10
194.0369996992835
 20
123.2654177294049
 30
0.0
 10
194.136755627503
 20
123.1126809571561
 30
0.0
 10
194.1764525452357
 20
123.064821071304
 30
0.0
 10
194.2737106968833
 20
122.9902179579545
 30
0.0
 10
194.334486854874
 20
122.9634637204464
 30
0.0
 10
194.3979629497019
 20
122.9634637204464
 30
0.0
  0
LINE
  5
5E
330
1F
100
AcDbEntity
  8
0
  6
Continuous
 62
     7
370
    15
100
AcDbLine
 10
194.3979629497
 20
122.9634637204
 30
0.0
 11
197.3424493226
 21
122.9634637204
 31
0.0
  0
SPLINE
  5
5F
330
1F
100
AcDbEntity
  8
0
  6
Continuous
 62
     7
370
    15
100
AcDbSpline
210
0.0
220
0.0
230
1.0
 70
     8
 71
     3
 72
    12
 73
     8
 74
     0
 42
0.00000001
 43
0.00000001
 12
1.0
 22
0.0
 32
0.0
 13
1.0
 23
0.0
 33
0.0
 40
0.0
 40
0.0
 40
0.0
 40
0.0
 40
0.2500000000000005
 40
0.2500000000000005
 40
0.500000000000001
 40
0.500000000000001
 40
1.0
 40
1.0
 40
1.0
 40
1.0
 10
197.3424493225691
 20
122.9634637204464
 30
0.0
 10
197.4061145590996
 20
122.9634637204464
 30
0.0
 10
197.4657207913229
 20
122.9895358689261
 30
0.0
 10
197.5643813162538
 20
123.0650746197473
 30
0.0
 10
197.603348306269
 20
123.1123255568435
 30
0.0
 10
197.7027351381935
 20
123.2641493748099
 30
0.0
 10
197.7448113856169
 20
123.376952624575
 30
0.0
 10
197.7754620244613
 20
123.4911067493101
 30
0.0
  0
ELLIPSE
  5
60
330
1F
100
AcDbEntity
  8
0
  6
Continuous
 62
     7
370
    15
100
AcDbEllipse
 10
184.8139484812
 20
115.3946537513
 30
0.0
 11
11.70927234972709
 21
24.67718644093739
 31
0.0
210
0.0
220
0.0
230
1.0
 40
0.3419987131
 41
5.20306880937045
 42
6.114256032590494
  0
SPLINE
  5
61
330
1F
100
AcDbEntity
  8
0
  6
Continuous
 62
     7
370
    15
100
AcDbSpline
210
0.0
220
0.0
230
1.0
 70
     8
 71
     3
 72
    12
 73
     8
 74
     0
 42
0.00000001
 43
0.00000001
 12
1.0
 22
0.0
 32
0.0
 13
1.0
 23
0.0
 33
0.0
 40
0.0
 40
0.0
 40
0.0
 40
0.0
 40
0.5000000000000004
 40
0.5000000000000004
 40
0.7500000000000002
 40
0.7500000000000002
 40
1.0
 40
1.0
 40
1.0
 40
1.0
 10
197.7754620244613
 20
139.0472952284976
 30
0.0
 10
197.744762641094
 20
139.0864330708935
 30
0.0
 10
197.7034125729874
 20
139.123592853619
 30
0.0
 10
197.603656644768
 20
139.1735293592467
 30
0.0
 10
197.5639597270353
 20
139.1889822293905
 30
0.0
 10
197.4667015753876
 20
139.2129017729895
 30
0.0
 10
197.405925417397
 20
139.2213848667679
 30
0.0
 10
197.3424493225691
 20
139.2213848667679
 30
0.0
  0
LINE
  5
62
330
1F
100
AcDbEntity
  8
0
  6
Continuous
 62
     7
370
    15
100
AcDbLine
 10
197.3424493226
 20
139.2213848668
 30
0.0
 11
194.3979629497
 21
139.2213848668
 31
0.0
  0
SPLINE
  5
63
330
1F
100
AcDbEntity
  8
0
  6
Continuous
 62
     7
370
    15
100
AcDbSpline
210
0.0
220
0.0
230
1.0
 70
     8
 71
     3
 72
    12
 73
     8
 74
     0
 42
0.00000001
 43
0.00000001
 12
1.0
 22
0.0
 32
0.0
 13
1.0
 23
0.0
 33
0.0
 40
0.0
 40
0.0
 40
0.0
 40
0.0
 40
0.2499999999999991
 40
0.2499999999999991
 40
0.4999999999999982
 40
0.4999999999999982
 40
1.0
 40
1.0
 40
1.0
 40
1.0
 10
194.3979629497019
 20
139.2213848667679
 30
0.0
 10
194.3342977131714
 20
139.2213848667679
 30
0.0
 10
194.2746914809481
 20
139.2131200911021
 30
0.0
 10
194.1760309560172
 20
139.1889013095189
 30
0.0
 10
194.137063966002
 20
139.1736439902098
 30
0.0
 10
194.0376771340775
 20
139.1240106359478
 30
0.0
 10
193.995600886654
 20
139.0863709277737
 30
0.0
 10
193.9649502478097
 20
139.0472952284976
 30
0.0
  0
ELLIPSE
  5
64
330
1F
100
AcDbEntity
  8
0
  6
Continuous
 62
     7
370
    15
100
AcDbEllipse
 10
206.9264637911
 20
115.3946537513
 30
0.0
 11
-11.70927234972698
 21
24.67718644093743
 31
0.0
210
0.0
220
0.0
230
1.0
 40
0.3419987131
 41
0.1689292745891323
 42
1.080116497809151
  0
SPLINE
  5
65
330
1F
100
AcDbEntity
  8
0
  6
Continuous
 62
     7
370
    15
100
AcDbSpline
210
0.0
220
0.0
230
1.0
 70
     8
 71
     3
 72
    12
 73
     8
 74
     0
 42
0.00000001
 43
0.00000001
 12
1.0
 22
0.0
 32
0.0
 13
1.0
 23
0.0
 33
0.0
 40
0.0
 40
0.0
 40
0.0
 40
0.0
 40
0.4999999999999982
 40
0.4999999999999982
 40
0.7499999999999991
 40
0.7499999999999991
 40
1.0
 40
1.0
 40
1.0
 40
1.0
 10
193.9649502478097
 20
91.74201227403435
 30
0.0
 10
193.9958019583739
 20
91.70268023367186
 30
0.0
 10
194.0376948218345
 20
91.6652684681436
 30
0.0
 10
194.1372156996277
 20
91.61559754352768
 30
0.0
 10
194.1768298643521
 20
91.60020846091986
 30
0.0
 10
194.2739328981315
 20
91.57637524525259
 30
0.0
 10
194.3344315707819
 20
91.56792263576382
 30
0.0
 10
194.3979629497018
 20
91.56792263576381
 30
0.0
  0
LINE
  5
66
330
1F
100
AcDbEntity
  8
0
  6
Continuous
 62
     7
370
    15
100
AcDbLine
 10
194.3979629497
 20
91.5679226358
 30
0.0
 11
197.3424493226
 21
91.5679226358
 31
0.0
  0
SPLINE
  5
67
330
1F
100
AcDbEntity
  8
0
  6
Continuous
 62
     7
370
    15
100
AcDbSpline
210
0.0
220
0.0
230
1.0
 70
     8
 71
     3
 72
    12
 73
     8
 74
     0
 42
0.00000001
 43
0.00000001
 12
1.0
 22
0.0
 32
0.0
 13
1.0
 23
0.0
 33
0.0
 40
0.0
 40
0.0
 40
0.0
 40
0.0
 40
0.25
 40
0.25
 40
0.5
 40
0.5
 40
1.0
 40
1.0
 40
1.0
 40
1.0
 10
197.3424493225691
 20
91.56792263576402
 30
0.0
 10
197.4060858767827
 20
91.56792263576402
 30
0.0
 10
197.465666003649
 20
91.57617940669577
 30
0.0
 10
197.5643027450153
 20
91.60038146870359
 30
0.0
 10
197.6032613693957
 20
91.61562828773772
 30
0.0
 10
197.7026403089035
 20
91.66523315979785
 30
0.0
 10
197.744598214069
 20
91.70266480791666
 30
0.0
 10
197.7754620244614
 20
91.74201227403434
 30
0.0
  0
ELLIPSE
  5
68
330
1F
100
AcDbEntity
  8
0
  6
Continuous
 62
     7
370
    15
100
AcDbEllipse
 10
184.8139484812
 20
115.3946537513
 30
0.0
 11
-11.7092723497272
 21
24.67718644093742
 31
0.0
210
0.0
220
0.0
230
1.0
 40
0.3419987131
 41
3.310521928178954
 42
4.221709151398943
  0
SPLINE
  5
69
330
1F
100
AcDbEntity
  8
0
  6
Continuous
 62
     7
370
    15
100
AcDbSpline
210
0.0
220
0.0
230
1.0
 70
     8
 71
     3
 72
    12
 73
     8
 74
     0
 42
0.00000001
 43
0.00000001
 12
1.0
 22
0.0
 32
0.0
 13
1.0
 23
0.0
 33
0.0
 40
0.0
 40
0.0
 40
0.0
 40
0.0
 40
0.5000000000000051
 40
0.5000000000000051
 40
0.7500000000000026
 40
0.7500000000000026
 40
1.0
 40
1.0
 40
1.0
 40
1.0
 10
197.7754620244613
 20
107.2982007532216
 30
0.0
 10
197.7446103138971
 20
107.4131037421585
 30
0.0
 10
197.7027174504364
 20
107.5252426382073
 30
0.0
 10
197.6031965726432
 20
107.6771849198082
 30
0.0
 10
197.5635824079189
 20
107.7248495293331
 30
0.0
 10
197.4664793741395
 20
107.7991858599485
 30
0.0
 10
197.4059807014891
 20
107.8258437820856
 30
0.0
 10
197.3424493225691
 20
107.8258437820857
 30
0.0
  0
LINE
  5
6A
330
1F
100
AcDbEntity
  8
0
  6
Continuous
 62
     7
370
    15
100
AcDbLine
 10
197.3424493226
 20
107.8258437821
 30
0.0
 11
194.3979629497
 21
107.8258437821
 31
0.0
  0
SPLINE
  5
6B
330
1F
100
AcDbEntity
  8
0
  6
Continuous
 62
     7
370
    15
100
AcDbSpline
210
0.0
220
0.0
230
1.0
 70
     8
 71
     3
 72
    12
 73
     8
 74
     0
 42
0.00000001
 43
0.00000001
 12
1.0
 22
0.0
 32
0.0
 13
1.0
 23
0.0
 33
0.0
 40
0.0
 40
0.0
 40
0.0
 40
0.0
 40
0.2500000000000009
 40
0.2500000000000009
 40
0.5000000000000019
 40
0.5000000000000019
 40
1.0
 40
1.0
 40
1.0
 40
1.0
 10
194.3979629497019
 20
107.8258437820852
 30
0.0
 10
194.3343263954883
 20
107.8258437820852
 30
0.0
 10
194.274746268622
 20
107.7997968790273
 30
0.0
 10
194.1761095272556
 20
107.7243097201274
 30
0.0
 10
194.1371509028753
 20
107.6770906815967
 30
0.0
 10
194.0377719633674
 20
107.5253510305031
 30
0.0
 10
193.995814058202
 20
107.4131488063189
 30
0.0
 10
193.9649502478095
 20
107.2982007532217
 30
0.0
  0
ELLIPSE
  5
6C
330
1F
100
AcDbEntity
  8
0
  6
Continuous
 62
     7
370
    15
100
AcDbEllipse
 10
206.9264637911
 20
115.3946537513
 30
0.0
 11
11.70927234972708
 21
24.67718644093742
 31
0.0
210
0.0
220
0.0
230
1.0
 40
0.3419987131
 41
2.061476155780654
 42
2.972663379000673
  0
ELLIPSE
  5
6D
330
1F
100
AcDbEntity
  8
0
  6
Continuous
 62
     7
370
    15
100
AcDbEllipse
 10
300.8254961858
 20
115.3946537513
 30
0.0
 11
237.8586779710879
 21
-4.388194929981979
 31
0.0
210
0.0
220
0.0
230
1.0
 40
0.1034726254
 41
1.927907407182851
 42
1.94221477276653
  0
SPLINE
  5
6E
330
1F
100
AcDbEntity
  8
0
  6
Continuous
 62
     7
370
    15
100
AcDbSpline
210
0.0
220
0.0
230
1.0
 70
     8
 71
     3
 72
    18
 73
    14
 74
     0
 42
0.00000001
 43
0.00000001
 12
1.0
 22
0.0
 32
0.0
 13
1.0
 23
0.0
 33
0.0
 40
0.0
 40
0.0
 40
0.0
 40
0.0
 40
0.2500000000000009
 40
0.2500000000000009
 40
0.3750000000000004
 40
0.3750000000000004
 40
0.4999999999999999
 40
0.4999999999999999
 40
0.6249999999999993
 40
0.6249999999999993
 40
0.7499999999999988
 40
0.7499999999999988
 40
1.0
 40
1.0
 40
1.0
 40
1.0
 10
212.3365619318682
 20
139.3392232802192
 30
0.0
 10
212.410300733296
 20
139.4277896471163
 30
0.0
 10
212.5220898931038
 20
139.5062949777698
 30
0.0
 10
212.7511995751068
 20
139.6109792754347
 30
0.0
 10
212.838410535616
 20
139.6437193371955
 30
0.0
 10
213.028811411109
 20
139.7030217922106
 30
0.0
 10
213.1325658098001
 20
139.7298967559052
 30
0.0
 10
213.3577473578287
 20
139.7786257773704
 30
0.0
 10
213.4802893930369
 20
139.8006389396122
 30
0.0
 10
213.7393485502819
 20
139.8390930300556
 30
0.0
 10
213.8745600139647
 20
139.8554173756162
 30
0.0
 10
214.2971142013628
 20
139.8966818739033
 30
0.0
 10
214.6051912400809
 20
139.9140679201939
 30
0.0
 10
214.9207540209325
 20
139.9209589207603
 30
0.0
  0
ELLIPSE
  5
6F
330
1F
100
AcDbEntity
  8
0
  6
Continuous
 62
     7
370
    15
100
AcDbEllipse
 10
215.3472553444
 20
115.3946537513
 30
0.0
 11
-1.249956161015689
 21
24.99783415330239
 31
0.0
210
0.0
220
0.0
230
1.0
 40
0.263265937
 41
0.2784449395548498
 42
2.487755432987236
  0
SPLINE
  5
70
330
1F
100
AcDbEntity
  8
0
  6
Continuous
 62
     7
370
    15
100
AcDbSpline
210
0.0
220
0.0
230
1.0
 70
     8
 71
     3
 72
    14
 73
    10
 74
     0
 42
0.00000001
 43
0.00000001
 12
1.0
 22
0.0
 32
0.0
 13
1.0
 23
0.0
 33
0.0
 40
0.0
 40
0.0
 40
0.0
 40
0.0
 40
0.25
 40
0.25
 40
0.5
 40
0.5
 40
0.75
 40
0.75
 40
1.0
 40
1.0
 40
1.0
 40
1.0
 10
214.9207540209325
 20
94.00407078405846
 30
0.0
 10
214.6056712659529
 20
94.02245255308198
 30
0.0
 10
214.3054868960542
 20
94.06722567461917
 30
0.0
 10
213.7340352169721
 20
94.21064194885953
 30
0.0
 10
213.4769030541159
 20
94.30601235959435
 30
0.0
 10
213.020689808116
 20
94.54423524091159
 30
0.0
 10
212.8302538642336
 20
94.68283541135116
 30
0.0
 10
212.5233874508323
 20
94.99637536881687
 30
0.0
 10
212.4102348408995
 20
95.16835046144514
 30
0.0
 10
212.3365619318682
 20
95.35232718011756
 30
0.0
  0
ELLIPSE
  5
71
330
1F
100
AcDbEntity
  8
0
  6
Continuous
 62
     7
370
    15
100
AcDbEllipse
 10
300.8254961858
 20
115.3946537513
 30
0.0
 11
237.8586779710879
 21
-4.388194929981979
 31
0.0
210
0.0
220
0.0
230
1.0
 40
0.1034726254
 41
4.344788410661773
 42
4.359095776245452
  0
ELLIPSE
  5
72
330
1F
100
AcDbEntity
  8
0
  6
Continuous
 62
     7
370
    15
100
AcDbEllipse
 10
211.5369260429
 20
129.1821470842
 30
0.0
 11
0.05583088282006088
 21
2.992158382973912
 31
0.0
210
0.0
220
0.0
230
1.0
 40
0.2323720873
 41
0.0
 42
6.283185307179586
  0
ARC
  5
73
330
1F
100
AcDbEntity
  8
0
  6
Continuous
 62
     7
370
    15
100
AcDbCircle
 10
203.8659782735
 20
124.3096207154
 30
0.0
 40
3.409345027313754
100
AcDbArc
 50
76.8563169268
 51
125.611210011
  0
SPLINE
  5
74
330
1F
100
AcDbEntity
  8
0
  6
Continuous
 62
     7
370
    15
100
AcDbSpline
210
0.0
220
0.0
230
1.0
 70
     8
 71
     3
 72
    17
 73
    13
 74
     0
 42
0.00000001
 43
0.00000001
 12
1.0
 22
0.0
 32
0.0
 13
1.0
 23
0.0
 33
0.0
 40
0.0
 40
0.0
 40
0.0
 40
0.0
 40
0.1061087350623501
 40
0.2128474906621741
 40
0.3216538967687551
 40
0.43125729296291
 40
0.5115260376620033
 40
0.5922222570782624
 40
0.6744303721398408
 40
0.7572501769109655
 40
0.8569879807766589
 40
1.0
 40
1.0
 40
1.0
 40
1.0
 10
204.6412422420458
 20
127.6296507295145
 30
0.0
 10
204.6913697650099
 20
127.6540235373012
 30
0.0
 10
204.7919224430692
 20
127.7029138664033
 30
0.0
 10
204.9566782167579
 20
127.7557370583124
 30
0.0
 10
205.1300024160425
 20
127.7911693388323
 30
0.0
 10
205.2946626109899
 20
127.8037729581094
 30
0.0
 10
205.4462503880023
 20
127.7981219469103
 30
0.0
 10
205.5834151977507
 20
127.7789334514352
 30
0.0
 10
205.7219029747939
 20
127.7443502029188
 30
0.0
 10
205.8691261544376
 20
127.6885309453108
 30
0.0
 10
206.0472736833003
 20
127.5981636978405
 30
0.0
 10
206.1670714456154
 20
127.4921287364446
 30
0.0
 10
206.2376483040003
 20
127.4296600032257
 30
0.0
  0
SPLINE
  5
75
330
1F
100
AcDbEntity
  8
0
  6
Continuous
 62
     7
370
    15
100
AcDbSpline
210
0.0
220
0.0
230
1.0
 70
     8
 71
     3
 72
    16
 73
    12
 74
     0
 42
0.00000001
 43
0.00000001
 12
1.0
 22
0.0
 32
0.0
 13
1.0
 23
0.0
 33
0.0
 40
0.0
 40
0.0
 40
0.0
 40
0.0
 40
0.2500000000000007
 40
0.2500000000000007
 40
0.5000000000000013
 40
0.5000000000000013
 40
0.625000000000001
 40
0.625000000000001
 40
0.7500000000000007
 40
0.7500000000000007
 40
1.0
 40
1.0
 40
1.0
 40
1.0
 10
184.8293451080064
 20
98.04549647007343
 30
0.0
 10
184.8610730691991
 20
98.04469935325251
 30
0.0
 10
184.8957006595496
 20
98.04410827839725
 30
0.0
 10
184.9753944216133
 20
98.04309675296278
 30
0.0
 10
185.020435881617
 20
98.0426966447879
 30
0.0
 10
185.1032886084674
 20
98.04173877288406
 30
0.0
 10
185.1332030696673
 20
98.04135709162364
 30
0.0
 10
185.1991894002252
 20
98.04028087756511
 30
0.0
 10
185.235923025687
 20
98.03956331167096
 30
0.0
 10
185.3484197452568
 20
98.0368024339893
 30
0.0
 10
185.4187610933551
 20
98.03431534211771
 30
0.0
 10
185.4752292472602
 20
98.03214206371061
 30
0.0
  0
SPLINE
  5
76
330
1F
100
AcDbEntity
  8
0
  6
Continuous
 62
     7
370
    15
100
AcDbSpline
210
0.0
220
0.0
230
1.0
 70
     8
 71
     3
 72
    14
 73
    10
 74
     0
 42
0.00000001
 43
0.00000001
 12
1.0
 22
0.0
 32
0.0
 13
1.0
 23
0.0
 33
0.0
 40
0.0
 40
0.0
 40
0.0
 40
0.0
 40
0.1250000000000007
 40
0.1250000000000007
 40
0.2500000000000014
 40
0.2500000000000014
 40
0.5000000000000028
 40
0.5000000000000028
 40
1.0
 40
1.0
 40
1.0
 40
1.0
 10
185.4752292472286
 20
98.03214206373332
 30
0.0
 10
185.4878210411734
 20
98.03165744591098
 30
0.0
 10
185.5026921494675
 20
98.02994726797863
 30
0.0
 10
185.5348762409006
 20
98.02183171922776
 30
0.0
 10
185.5504803723765
 20
98.01561593096645
 30
0.0
 10
185.5863675120886
 20
97.99739681926486
 30
0.0
 10
185.6002195533572
 20
97.98563179093124
 30
0.0
 10
185.6337092952899
 20
97.95383665451394
 30
0.0
 10
185.6443715558656
 20
97.93604322267079
 30
0.0
 10
185.6525095127605
 20
97.91961209182638
 30
0.0
  0
LINE
  5
77
330
1F
100
AcDbEntity
  8
0
  6
Continuous
 62
     7
370
    15
100
AcDbLine
 10
185.6702061361
 20
109.4101735187
 30
0.0
 11
185.6702061361
 21
97.5548334724
 31
0.0
  0
SPLINE
  5
78
330
1F
100
AcDbEntity
  8
0
  6
Continuous
 62
     7
370
    15
100
AcDbSpline
210
0.0
220
0.0
230
1.0
 70
     8
 71
     3
 72
    16
 73
    12
 74
     0
 42
0.00000001
 43
0.00000001
 12
1.0
 22
0.0
 32
0.0
 13
1.0
 23
0.0
 33
0.0
 40
0.0
 40
0.0
 40
0.0
 40
0.0
 40
0.4999999999999978
 40
0.4999999999999978
 40
0.7499999999999984
 40
0.7499999999999984
 40
0.8749999999999992
 40
0.8749999999999992
 40
0.9374999999999996
 40
0.9374999999999996
 40
1.0
 40
1.0
 40
1.0
 40
1.0
 10
185.6702061361355
 20
109.4101735186914
 30
0.0
 10
185.6702061361355
 20
109.5247032493904
 30
0.0
 10
185.6661488340204
 20
109.6400193245799
 30
0.0
 10
185.6404915912256
 20
109.8149424144074
 30
0.0
 10
185.6291761454835
 20
109.8747717174023
 30
0.0
 10
185.5951447781749
 20
109.9593629036505
 30
0.0
 10
185.5812657969711
 20
109.9880324897946
 30
0.0
 10
185.5453301152037
 20
110.0178402767409
 30
0.0
 10
185.530379795941
 20
110.0241754301005
 30
0.0
 10
185.5004812831991
 20
110.0229499672302
 30
0.0
 10
185.4869484228338
 20
110.0163513811954
 30
0.0
 10
185.4752292472598
 20
110.007703693139
 30
0.0
  0
SPLINE
  5
79
330
1F
100
AcDbEntity
  8
0
  6
Continuous
 62
     7
370
    15
100
AcDbSpline
210
0.0
220
0.0
230
1.0
 70
     8
 71
     3
 72
    14
 73
    10
 74
     0
 42
0.00000001
 43
0.00000001
 12
1.0
 22
0.0
 32
0.0
 13
1.0
 23
0.0
 33
0.0
 40
0.0
 40
0.0
 40
0.0
 40
0.0
 40
0.25
 40
0.25
 40
0.5
 40
0.5
 40
0.75
 40
0.75
 40
1.0
 40
1.0
 40
1.0
 40
1.0
 10
185.4752292472667
 20
110.0077036931304
 30
0.0
 10
185.4187695813829
 20
109.9660415834316
 30
0.0
 10
185.3478971065207
 20
109.9352081028434
 30
0.0
 10
185.1994307486387
 20
109.9409226114565
 30
0.0
 10
185.130235545431
 20
109.9764935388894
 30
0.0
 10
185.0205183593615
 20
110.0634374513633
 30
0.0
 10
184.9752724704295
 20
110.1158697647284
 30
0.0
 10
184.8956553394626
 20
110.2244228462469
 30
0.0
 10
184.8610527200057
 20
110.2814059324894
 30
0.0
 10
184.8293451080069
 20
110.3399720151473
 30
0.0
  0
SPLINE
  5
7A
330
1F
100
AcDbEntity
  8
0
  6
Continuous
 62
     7
370
    15
100
AcDbSpline
210
0.0
220
0.0
230
1.0
 70
     8
 71
     3
 72
    10
 73
     6
 74
     0
 42
0.00000001
 43
0.00000001
 12
1.0
 22
0.0
 32
0.0
 13
1.0
 23
0.0
 33
0.0
 40
0.0
 40
0.0
 40
0.0
 40
0.0
 40
0.5
 40
0.5
 40
1.0
 40
1.0
 40
1.0
 40
1.0
 10
184.5488857925759
 20
111.1927906067937
 30
0.0
 10
184.5797643761878
 20
111.0431620549339
 30
0.0
 10
184.6157570839112
 20
110.8966666374103
 30
0.0
 10
184.7050973354083
 20
110.6114749988696
 30
0.0
 10
184.7575556382538
 20
110.4725719731536
 30
0.0
 10
184.829345108007
 20
110.3399720151471
 30
0.0
  0
SPLINE
  5
7B
330
1F
100
AcDbEntity
  8
0
  6
Continuous
 62
     7
370
    15
100
AcDbSpline
210
0.0
220
0.0
230
1.0
 70
     8
 71
     3
 72
    10
 73
     6
 74
     0
 42
0.00000001
 43
0.00000001
 12
1.0
 22
0.0
 32
0.0
 13
1.0
 23
0.0
 33
0.0
 40
0.0
 40
0.0
 40
0.0
 40
0.0
 40
0.5
 40
0.5
 40
1.0
 40
1.0
 40
1.0
 40
1.0
 10
184.8293451080063
 20
120.4493354873836
 30
0.0
 10
184.7575556382534
 20
120.3167355293773
 30
0.0
 10
184.705097335408
 20
120.1778325036615
 30
0.0
 10
184.6157570839111
 20
119.8926408651212
 30
0.0
 10
184.5797643761878
 20
119.7461454475978
 30
0.0
 10
184.5488857925759
 20
119.5965168957384
 30
0.0
  0
SPLINE
  5
7C
330
1F
100
AcDbEntity
  8
0
  6
Continuous
 62
     7
370
    15
100
AcDbSpline
210
0.0
220
0.0
230
1.0
 70
     8
 71
     3
 72
    14
 73
    10
 74
     0
 42
0.00000001
 43
0.00000001
 12
1.0
 22
0.0
 32
0.0
 13
1.0
 23
0.0
 33
0.0
 40
0.0
 40
0.0
 40
0.0
 40
0.0
 40
0.25
 40
0.25
 40
0.5
 40
0.5
 40
0.75
 40
0.75
 40
1.0
 40
1.0
 40
1.0
 40
1.0
 10
184.8293451080056
 20
120.4493354873824
 30
0.0
 10
184.861053807491
 20
120.507903578701
 30
0.0
 10
184.8956616261316
 20
120.564897840641
 30
0.0
 10
184.9753200366209
 20
120.673497975405
 30
0.0
 10
185.0203823065158
 20
120.7258261107836
 30
0.0
 10
185.1309641520942
 20
120.8133271221458
 30
0.0
 10
185.1986082729095
 20
120.8483725784
 30
0.0
 10
185.3488565633066
 20
120.8541169671561
 30
0.0
 10
185.4188089615369
 20
120.8232368601061
 30
0.0
 10
185.4752292472605
 20
120.781603809393
 30
0.0
  0
SPLINE
  5
7D
330
1F
100
AcDbEntity
  8
0
  6
Continuous
 62
     7
370
    15
100
AcDbSpline
210
0.0
220
0.0
230
1.0
 70
     8
 71
     3
 72
    16
 73
    12
 74
     0
 42
0.00000001
 43
0.00000001
 12
1.0
 22
0.0
 32
0.0
 13
1.0
 23
0.0
 33
0.0
 40
0.0
 40
0.0
 40
0.0
 40
0.0
 40
0.062500000000002
 40
0.062500000000002
 40
0.1250000000000041
 40
0.1250000000000041
 40
0.2500000000000059
 40
0.2500000000000059
 40
0.5000000000000062
 40
0.5000000000000062
 40
1.0
 40
1.0
 40
1.0
 40
1.0
 10
185.4752292472286
 20
120.7816038093396
 30
0.0
 10
185.4869634816755
 20
120.7729450091954
 30
0.0
 10
185.5004952371544
 20
120.7663409239601
 30
0.0
 10
185.5304826975843
 20
120.7651439567859
 30
0.0
 10
185.5454774039926
 20
120.7715657038518
 30
0.0
 10
185.5812178263874
 20
120.8012828572611
 30
0.0
 10
185.5952311633886
 20
120.8300902546445
 30
0.0
 10
185.62937525217
 20
120.9151699762704
 30
0.0
 10
185.6403471562883
 20
120.9735449255401
 30
0.0
 10
185.6661926965546
 20
121.1492604503287
 30
0.0
 10
185.6702061361355
 20
121.2650554581932
 30
0.0
 10
185.6702061361355
 20
121.3791339838406
 30
0.0
  0
LINE
  5
7E
330
1F
100
AcDbEntity
  8
0
  6
Continuous
 62
     7
370
    15
100
AcDbLine
 10
185.6702061361
 20
133.2344740301
 30
0.0
 11
185.6702061361
 21
121.3791339838
 31
0.0
  0
SPLINE
  5
7F
330
1F
100
AcDbEntity
  8
0
  6
Continuous
 62
     7
370
    15
100
AcDbSpline
210
0.0
220
0.0
230
1.0
 70
     8
 71
     3
 72
    16
 73
    12
 74
     0
 42
0.00000001
 43
0.00000001
 12
1.0
 22
0.0
 32
0.0
 13
1.0
 23
0.0
 33
0.0
 40
0.0
 40
0.0
 40
0.0
 40
0.0
 40
0.5000000000000026
 40
0.5000000000000026
 40
0.7500000000000011
 40
0.7500000000000011
 40
0.8750000000000012
 40
0.8750000000000012
 40
0.9375000000000007
 40
0.9375000000000007
 40
1.0
 40
1.0
 40
1.0
 40
1.0
 10
185.6702061361356
 20
132.9414082169336
 30
0.0
 10
185.6702061361354
 20
132.9193932023543
 30
0.0
 10
185.6660815932814
 20
132.8940395676505
 30
0.0
 10
185.6401651476483
 20
132.846879065462
 30
0.0
 10
185.6288875666285
 20
132.8296800772332
 30
0.0
 10
185.5951521880871
 20
132.799702111664
 30
0.0
 10
185.5807633728427
 20
132.7883507031221
 30
0.0
 10
185.5455166834037
 20
132.7716628436447
 30
0.0
 10
185.5303112589468
 20
132.7660998167594
 30
0.0
 10
185.5006646797774
 20
132.7591302337243
 30
0.0
 10
185.48695934378
 20
132.7576168926689
 30
0.0
 10
185.4752292472562
 20
132.757165438819
 30
0.0
  0
SPLINE
  5
80
330
1F
100
AcDbEntity
  8
0
  6
Continuous
 62
     7
370
    15
100
AcDbSpline
210
0.0
220
0.0
230
1.0
 70
     8
 71
     3
 72
    14
 73
    10
 74
     0
 42
0.00000001
 43
0.00000001
 12
1.0
 22
0.0
 32
0.0
 13
1.0
 23
0.0
 33
0.0
 40
0.0
 40
0.0
 40
0.0
 40
0.0
 40
0.25
 40
0.25
 40
0.5
 40
0.5
 40
0.75
 40
0.75
 40
1.0
 40
1.0
 40
1.0
 40
1.0
 10
185.4752292472667
 20
132.7571654388215
 30
0.0
 10
185.4187821652084
 20
132.7549929714023
 30
0.0
 10
185.3479317811656
 20
132.7524948734848
 30
0.0
 10
185.1994953463492
 20
132.7488484146967
 30
0.0
 10
185.1303060946623
 20
132.7478806678454
 30
0.0
 10
185.0205945464213
 20
132.7466131084827
 30
0.0
 10
184.975352897079
 20
132.7462102675543
 30
0.0
 10
184.8957048788951
 20
132.7451992326267
 30
0.0
 10
184.8610779631291
 20
132.7446082722321
 30
0.0
 10
184.8293451080077
 20
132.7438110324586
 30
0.0
  0
SPLINE
  5
81
330
1F
100
AcDbEntity
  8
0
  6
Continuous
 62
     7
370
    15
100
AcDbSpline
210
0.0
220
0.0
230
1.0
 70
     8
 71
     3
 72
    18
 73
    14
 74
     0
 42
0.00000001
 43
0.00000001
 12
1.0
 22
0.0
 32
0.0
 13
1.0
 23
0.0
 33
0.0
 40
0.0
 40
0.0
 40
0.0
 40
0.0
 40
0.2500000000000002
 40
0.2500000000000002
 40
0.3750000000000001
 40
0.3750000000000001
 40
0.5000000000000001
 40
0.5000000000000001
 40
0.625
 40
0.625
 40
0.7499999999999998
 40
0.7499999999999998
 40
1.0
 40
1.0
 40
1.0
 40
1.0
 10
184.5488857925759
 20
119.5965168957384
 30
0.0
 10
184.4136001862735
 20
118.9409625603172
 30
0.0
 10
184.3124324400306
 20
118.2613414665196
 30
0.0
 10
184.2095710971616
 20
117.2059774600255
 30
0.0
 10
184.1834682516383
 20
116.8471633954409
 30
0.0
 10
184.1485782680935
 20
116.121050451318
 30
0.0
 10
184.1399920098035
 20
115.7589607723019
 30
0.0
 10
184.1398923002379
 20
115.0366511148835
 30
0.0
 10
184.1483806713864
 20
114.6764313127752
 30
0.0
 10
184.182524050907
 20
113.9578652436812
 30
0.0
 10
184.2083210327608
 20
113.5980995277658
 30
0.0
 10
184.3117221641488
 20
112.5314549407715
 30
0.0
 10
184.4135801563201
 20
111.8484420014891
 30
0.0
 10
184.5488857925759
 20
111.1927906067937
 30
0.0
  0
LINE
  5
82
330
1F
100
AcDbEntity
  8
0
  6
Continuous
 62
     7
370
    15
100
AcDbLine
 10
183.6702061361
 20
120.5348062391
 30
0.0
 11
183.6702061361
 21
110.2545012635
 31
0.0
  0
LINE
  5
83
330
1F
100
AcDbEntity
  8
0
  6
Continuous
 62
     7
370
    15
100
AcDbLine
 10
157.3702061361
 20
120.2044324678
 30
0.0
 11
157.3702061361
 21
110.5848750348
 31
0.0
  0
LINE
  5
84
330
1F
100
AcDbEntity
  8
0
  6
Continuous
 62
     7
370
    15
100
AcDbLine
 10
155.8702061361
 20
119.7714197659
 30
0.0
 11
155.8702061361
 21
111.0178877367
 31
0.0
  0
LINE
  5
85
330
1F
100
AcDbEntity
  8
0
  6
Continuous
 62
     7
370
    15
100
AcDbLine
 10
157.3702061361
 20
98.5353025093
 30
0.0
 11
157.3702061361
 21
110.5848750348
 31
0.0
  0
LINE
  5
86
330
1F
100
AcDbEntity
  8
0
  6
Continuous
 62
     7
370
    15
100
AcDbLine
 10
183.6702061361
 20
97.8745549667
 30
0.0
 11
183.6702061361
 21
110.2545012635
 31
0.0
  0
LINE
  5
87
330
1F
100
AcDbEntity
  8
0
  6
Continuous
 62
     7
370
    15
100
AcDbLine
 10
157.3702061361
 20
98.5353025093
 30
0.0
 11
183.6702061361
 21
97.8745549667
 31
0.0
  0
ARC
  5
88
330
1F
100
AcDbEntity
  8
0
  6
Continuous
 62
     7
370
    15
100
AcDbCircle
 10
183.8701430471
 20
97.8695318556
 30
0.0
 40
0.2000000000000059
100
AcDbArc
 50
88.5608333333
 51
178.5608333333
  0
LINE
  5
89
330
1F
100
AcDbEntity
  8
0
  6
Continuous
 62
     7
370
    15
100
AcDbLine
 10
157.3702061361
 20
120.2044324678
 30
0.0
 11
157.3702061361
 21
132.2540049932
 31
0.0
  0
LINE
  5
8A
330
1F
100
AcDbEntity
  8
0
  6
Continuous
 62
     7
370
    15
100
AcDbLine
 10
157.3702061361
 20
132.2540049932
 30
0.0
 11
183.6702061361
 21
132.9147525358
 31
0.0
  0
LINE
  5
8B
330
1F
100
AcDbEntity
  8
0
  6
Continuous
 62
     7
370
    15
100
AcDbLine
 10
183.6702061361
 20
120.5348062391
 30
0.0
 11
183.6702061361
 21
132.9147525358
 31
0.0
  0
ARC
  5
8C
330
1F
100
AcDbEntity
  8
0
  6
Continuous
 62
     7
370
    15
100
AcDbCircle
 10
183.8701430471
 20
132.919775647
 30
0.0
 40
0.2000000000000059
100
AcDbArc
 50
181.4391666667
 51
271.4391666667
  0
LINE
  5
8D
330
1F
100
AcDbEntity
  8
0
  6
Continuous
 62
     7
370
    15
100
AcDbLine
 10
183.8751661582
 20
98.0694687665
 30
0.0
 11
184.829345108
 21
98.0454964701
 31
0.0
  0
LINE
  5
8E
330
1F
100
AcDbEntity
  8
0
  6
Continuous
 62
     7
370
    15
100
AcDbLine
 10
183.8751661582
 20
132.719838736
 30
0.0
 11
184.829345108
 21
132.7438110325
 31
0.0
  0
SPLINE
  5
8F
330
1F
100
AcDbEntity
  8
0
  6
Continuous
 62
     7
370
    15
100
AcDbSpline
210
0.0
220
0.0
230
1.0
 70
     8
 71
     3
 72
     8
 73
     4
 74
     0
 42
0.00000001
 43
0.00000001
 12
1.0
 22
0.0
 32
0.0
 13
1.0
 23
0.0
 33
0.0
 40
0.0
 40
0.0
 40
0.0
 40
0.0
 40
1.0
 40
1.0
 40
1.0
 40
1.0
 10
203.8720566591999
 20
127.1312061531424
 30
0.0
 10
204.1260031457392
 20
127.2991268350792
 30
0.0
 10
204.382651402051
 20
127.4669907293826
 30
0.0
 10
204.6412422420458
 20
127.6296507295145
 30
0.0
  0
ARC
  5
90
330
1F
100
AcDbEntity
  8
0
  6
Continuous
 62
     7
370
    15
100
AcDbCircle
 10
203.8526156032
 20
124.2966214541
 30
0.0
 40
2.834651366646344
100
AcDbArc
 50
89.6070419092
 51
119.8930230155
  0
LINE
  5
91
330
1F
100
AcDbEntity
  8
0
  6
Continuous
 62
     7
370
    15
100
AcDbLine
 10
155.8702061361
 20
131.3879795894
 30
0.0
 11
157.3702061361
 21
132.2540049932
 31
0.0
  0
LINE
  5
92
330
1F
100
AcDbEntity
  8
0
  6
Continuous
 62
     7
370
    15
100
AcDbLine
 10
155.8702061361
 20
119.7714197659
 30
0.0
 11
155.8702061361
 21
131.3879795894
 31
0.0
  0
LINE
  5
93
330
1F
100
AcDbEntity
  8
0
  6
Continuous
 62
     7
370
    15
100
AcDbLine
 10
155.8702061361
 20
99.4013279131
 30
0.0
 11
157.3702061361
 21
98.5353025093
 31
0.0
  0
LINE
  5
94
330
1F
100
AcDbEntity
  8
0
  6
Continuous
 62
     7
370
    15
100
AcDbLine
 10
155.8702061361
 20
99.4013279131
 30
0.0
 11
155.8702061361
 21
111.0178877367
 31
0.0
  0
SPLINE
  5
95
330
1F
100
AcDbEntity
  8
0
  6
Continuous
 62
     7
370
    15
100
AcDbSpline
210
0.0
220
0.0
230
1.0
 70
     8
 71
     3
 72
    13
 73
     9
 74
     0
 42
0.00000001
 43
0.00000001
 12
1.0
 22
0.0
 32
0.0
 13
1.0
 23
0.0
 33
0.0
 40
0.0
 40
0.0
 40
0.0
 40
0.0
 40
0.021098417661794
 40
0.166648881271136
 40
0.3639504264798148
 40
0.5660453754587808
 40
0.782275864375614
 40
1.0
 40
1.0
 40
1.0
 40
1.0
 10
203.3129941427769
 20
126.4452792904273
 30
0.0
 10
203.3125590284617
 20
126.4502233376753
 30
0.0
 10
203.3091222155682
 20
126.4892746047438
 30
0.0
 10
203.3427493592669
 20
126.5818689356205
 30
0.0
 10
203.4193539377891
 20
126.717839205987
 30
0.0
 10
203.5456828771157
 20
126.8645990860828
 30
0.0
 10
203.6968610786917
 20
127.0055095261381
 30
0.0
 10
203.8135242830309
 20
127.0892112453162
 30
0.0
 10
203.8720566591999
 20
127.1312061531424
 30
0.0
  0
LWPOLYLINE
  5
96
330
1F
100
AcDbEntity
  8
0
  6
Continuous
 62
     7
370
    15
100
AcDbPolyline
 90
       34
 70
   128
 43
0.0
 10
236.7776214597
 20
120.5125513372
 10
237.4363722316
 20
120.5628170288
 10
238.0713140342
 20
120.7358433007
 10
238.6594984164
 20
121.0253765325
 10
239.1796668623
 20
121.4209522389
 10
239.6130191289
 20
121.9082732832
 10
239.9438927361
 20
122.4697266132
 10
240.1603290498
 20
123.0850198426
 10
240.2545054976
 20
123.731914671
 10
240.2230182973
 20
124.3870306339
 10
240.0670054785
 20
125.0266901334
 10
239.7921057508
 20
125.6277742086
 10
239.4082547066
 20
126.168558115
 10
238.9293257229
 20
126.6294965132
 10
238.3726285409
 20
126.9939298885
 10
237.7582836472
 20
127.2486866691
 10
237.108495067
 20
127.3845592813
 10
236.4467478525
 20
127.3966369349
 10
235.7969592723
 20
127.284483112
 10
235.1826143786
 20
127.0521513439
 10
234.6259171966
 20
126.7080387061
 10
234.1469882128
 20
126.2645823259
 10
233.7631371687
 20
125.7378098724
 10
233.488237441
 20
125.1467602743
 10
233.3322246221
 20
124.5127956043
 10
233.3007374219
 20
123.8588289972
 10
233.3949138697
 20
123.2084965102
 10
233.6113501833
 20
122.5853028536
 10
233.9422237906
 20
122.0117718701
 10
234.3755760571
 20
121.5086324636
 10
234.895744503
 20
121.0940694033
 10
235.4839288853
 20
120.7830660782
 10
236.1188706879
 20
120.5868629589
 10
236.7776214597
 20
120.5125513372
  0
LINE
  5
97
330
1F
100
AcDbEntity
  8
0
  6
Continuous
 62
     7
370
    15
100
AcDbLine
 10
232.8192565454
 20
143.1432697827
 30
0.0
 11
232.2622296603
 21
132.6285475221
 31
0.0
  0
LINE
  5
98
330
1F
100
AcDbEntity
  8
0
  6
Continuous
 62
     7
370
    15
100
AcDbLine
 10
232.2622296603
 20
132.6285475221
 30
0.0
 11
229.611723629
 21
131.036879721
 31
0.0
  0
ARC
  5
99
330
1F
100
AcDbEntity
  8
0
  6
Continuous
 62
     7
370
    15
100
AcDbCircle
 10
230.7356285822
 20
129.2735473337
 30
0.0
 40
2.0910531920876
100
AcDbArc
 50
122.512440411
 51
301.4033610933
  0
LINE
  5
9A
330
1F
100
AcDbEntity
  8
0
  6
Continuous
 62
     7
370
    15
100
AcDbLine
 10
231.8251921355
 20
127.4887911275
 30
0.0
 11
244.6594918313
 21
135.1959765987
 31
0.0
  0
LINE
  5
9B
330
1F
100
AcDbEntity
  8
0
  6
Continuous
 62
     7
370
    15
100
AcDbLine
 10
244.6594918313
 20
135.1959765987
 30
0.0
 11
243.8532034876
 21
119.9760685085
 31
0.0
  0
LINE
  5
9C
330
1F
100
AcDbEntity
  8
0
  6
Continuous
 62
     7
370
    15
100
AcDbLine
 10
243.8532034876
 20
119.9760685085
 30
0.0
 11
224.4931796917
 21
92.9504975542
 31
0.0
  0
ELLIPSE
  5
9D
330
1F
100
AcDbEntity
  8
0
  6
Continuous
 62
     7
370
    15
100
AcDbEllipse
 10
300.8254961858
 20
115.3946537513
 30
0.0
 11
242.6158515305095
 21
-4.475958828581625
 31
0.0
210
0.0
220
0.0
230
1.0
 40
0.1034726254
 41
4.370153745737475
 42
4.394239978423409
  0
SPLINE
  5
9E
330
1F
100
AcDbEntity
  8
0
  6
Continuous
 62
     7
370
    15
100
AcDbSpline
210
0.0
220
0.0
230
1.0
 70
     8
 71
     3
 72
    10
 73
     6
 74
     0
 42
0.00000001
 43
0.00000001
 12
1.0
 22
0.0
 32
0.0
 13
1.0
 23
0.0
 33
0.0
 40
0.0
 40
0.0
 40
0.0
 40
0.0
 40
0.5
 40
0.5
 40
1.0
 40
1.0
 40
1.0
 40
1.0
 10
218.968904551941
 20
93.24852228292556
 30
0.0
 10
218.8841422582866
 20
93.4068016641825
 30
0.0
 10
218.7603541916426
 20
93.54631164856166
 30
0.0
 10
218.4599232742294
 20
93.7486288106967
 30
0.0
 10
218.2845860386616
 20
93.81083652421232
 30
0.0
 10
218.1028791481572
 20
93.82112943967266
 30
0.0
  0
SPLINE
  5
9F
330
1F
100
AcDbEntity
  8
0
  6
Continuous
 62
     7
370
    15
100
AcDbSpline
210
0.0
220
0.0
230
1.0
 70
     8
 71
     3
 72
    10
 73
     6
 74
     0
 42
0.00000001
 43
0.00000001
 12
1.0
 22
0.0
 32
0.0
 13
1.0
 23
0.0
 33
0.0
 40
0.0
 40
0.0
 40
0.0
 40
0.0
 40
0.5
 40
0.5
 40
1.0
 40
1.0
 40
1.0
 40
1.0
 10
218.1028791481565
 20
139.9877453223565
 30
0.0
 10
218.3312672708749
 20
139.9923458334196
 30
0.0
 10
218.5484323966886
 20
140.0790659777782
 30
0.0
 10
218.8924063385954
 20
140.3688159022772
 30
0.0
 10
219.0131318087784
 20
140.5646461317679
 30
0.0
 10
219.0688049744456
 20
140.7827413001564
 30
0.0
  0
SPLINE
  5
A0
330
1F
100
AcDbEntity
  8
0
  6
Continuous
 62
     7
370
    15
100
AcDbSpline
210
0.0
220
0.0
230
1.0
 70
     8
 71
     3
 72
     8
 73
     4
 74
     0
 42
0.00000001
 43
0.00000001
 12
1.0
 22
0.0
 32
0.0
 13
1.0
 23
0.0
 33
0.0
 40
0.0
 40
0.0
 40
0.0
 40
0.0
 40
1.0
 40
1.0
 40
1.0
 40
1.0
 10
219.0688049744456
 20
140.7827413001564
 30
0.0
 10
219.1718704673725
 20
141.1864921155729
 30
0.0
 10
219.2752524341962
 20
141.590156803703
 30
0.0
 10
219.3789117627493
 20
141.993746008789
 30
0.0
  0
LINE
  5
A1
330
1F
100
AcDbEntity
  8
0
  6
Continuous
 62
     7
370
    15
100
AcDbLine
 10
219.3789117627
 20
141.9937460088
 30
0.0
 11
224.4013578967
 21
141.9020805462
 31
0.0
  0
ARC
  5
A2
330
1F
100
AcDbEntity
  8
0
  6
Continuous
 62
     7
370
    15
100
AcDbCircle
 10
224.887618053
 20
167.7704127359
 30
0.0
 40
25.87290202535071
100
AcDbArc
 50
268.9231090081
 51
287.852138779
  0
LINE
  5
A3
330
1F
100
AcDbEntity
  8
0
  6
Continuous
 62
     7
370
    15
100
AcDbLine
 10
218.9689045519
 20
93.2485222829
 30
0.0
 11
218.9689045519
 21
89.8946537513
 31
0.0
  0
ELLIPSE
  5
A4
330
1F
100
AcDbEntity
  8
0
  6
Continuous
 62
     7
370
    15
100
AcDbEllipse
 10
240.6918518776
 20
115.3946537513
 30
0.0
 11
18.14981673841444
 21
25.49899923923996
 31
0.0
210
0.0
220
0.0
230
1.0
 40
0.0124472587
 41
2.655861334187349
 42
4.688216321114629
  0
LINE
  5
A5
330
1F
100
AcDbEntity
  8
0
  6
Continuous
 62
     7
370
    15
100
AcDbLine
 10
243.8532034876
 20
119.9760685085
 30
0.0
 11
240.5704651827
 21
114.5524856914
 31
0.0
  0
LINE
  5
A6
330
1F
100
AcDbEntity
  8
0
  6
Continuous
 62
     7
370
    15
100
AcDbLine
 10
231.2984772289
 20
131.0362819678
 30
0.0
 11
232.2622296603
 21
132.6285475221
 31
0.0
  0
LINE
  5
A7
330
1F
100
AcDbEntity
  8
0
  6
Continuous
 62
     7
370
    15
100
AcDbLine
 10
231.2984772289
 20
131.0362819678
 30
0.0
 11
228.6479711977
 21
129.4446141667
 31
0.0
  0
SPLINE
  5
A8
330
1F
100
AcDbEntity
  8
0
  6
Continuous
 62
     7
370
    15
100
AcDbSpline
210
0.0
220
0.0
230
1.0
 70
     8
 71
     3
 72
     9
 73
     5
 74
     0
 42
0.00000001
 43
0.00000001
 12
1.0
 22
0.0
 32
0.0
 13
1.0
 23
0.0
 33
0.0
 40
0.0
 40
0.0
 40
0.0
 40
0.0
 40
0.907855764251996
 40
1.0
 40
1.0
 40
1.0
 40
1.0
 10
219.1273484628997
 20
141.2879932555308
 30
0.0
 10
219.1875206796946
 20
141.5017656332808
 30
0.0
 10
219.2538001694155
 20
141.7372351716893
 30
0.0
 10
219.3683560945751
 20
141.9721041832206
 30
0.0
 10
219.3789117627493
 20
141.993746008789
 30
0.0
  0
ARC
  5
A9
330
1F
100
AcDbEntity
  8
0
  6
Continuous
 62
     7
370
    15
100
AcDbCircle
 10
232.1556605269
 20
127.8882075651
 30
0.0
 40
0.9939519164426411
100
AcDbArc
 50
177.1341110944
 51
217.3795488676
  0
LINE
  5
AA
330
1F
100
AcDbEntity
  8
0
  6
Continuous
 62
     7
370
    15
100
AcDbLine
 10
231.6308777421
 20
131.5854581568
 30
0.0
 11
231.4639937196
 21
128.4352706282
 31
0.0
  0
LINE
  5
AB
330
1F
100
AcDbEntity
  8
0
  6
Continuous
 62
     7
370
    15
100
AcDbLine
 10
231.3298357679
 20
131.0880910423
 30
0.0
 11
231.1629517454
 21
127.9379035136
 31
0.0
  0
CIRCLE
  5
AC
330
1F
100
AcDbEntity
  8
0
  6
Continuous
 62
     7
370
    15
100
AcDbCircle
 10
236.7071913501
 20
123.9456339037
 30
0.0
 40
3.460707218882489
  0
CIRCLE
  5
AD
330
1F
100
AcDbEntity
  8
0
  6
Continuous
 62
     7
370
    15
100
AcDbCircle
 10
236.7371606616
 20
123.9527631979
 30
0.0
 40
1.976290716509951
  0
SPLINE
  5
AE
330
1F
100
AcDbEntity
  8
0
  6
Continuous
 62
     7
370
    15
100
AcDbSpline
210
0.0
220
0.0
230
1.0
 70
     8
 71
     3
 72
    11
 73
     7
 74
     0
 42
0.00000001
 43
0.00000001
 12
1.0
 22
0.0
 32
0.0
 13
1.0
 23
0.0
 33
0.0
 40
0.0
 40
0.0
 40
0.0
 40
0.0
 40
0.1081100880371215
 40
0.4711580666043533
 40
0.8135808430835951
 40
0.9999999999999999
 40
0.9999999999999999
 40
0.9999999999999999
 40
0.9999999999999999
 10
236.1229069512681
 20
122.3357022857366
 30
0.0
 10
236.17754962783
 20
122.3385084225833
 30
0.0
 10
236.4156896415001
 20
122.3507379382125
 30
0.0
 10
236.8799812828654
 20
122.3920697029275
 30
0.0
 10
237.4236247412752
 20
122.4795110097636
 30
0.0
 10
237.7209871519361
 20
122.540205331312
 30
0.0
 10
237.8258087373541
 20
122.5616003522779
 30
0.0
  0
SPLINE
  5
AF
330
1F
100
AcDbEntity
  8
0
  6
Continuous
 62
     7
370
    15
100
AcDbSpline
210
0.0
220
0.0
230
1.0
 70
     8
 71
     3
 72
    11
 73
     7
 74
     0
 42
0.00000001
 43
0.00000001
 12
1.0
 22
0.0
 32
0.0
 13
1.0
 23
0.0
 33
0.0
 40
0.0
 40
0.0
 40
0.0
 40
0.0
 40
0.2164499953511901
 40
0.4402998152333221
 40
0.751891476001034
 40
1.0
 40
1.0
 40
1.0
 40
1.0
 10
237.8258087373541
 20
122.5616003522779
 30
0.0
 10
237.8630588278256
 20
122.6602689461106
 30
0.0
 10
237.9388324859651
 20
122.8609793391202
 30
0.0
 10
238.0912580440216
 20
123.2529575646875
 30
0.0
 10
238.2708994696379
 20
123.700090058931
 30
0.0
 10
238.3967339707696
 20
124.0041959621219
 30
0.0
 10
238.4525149284925
 20
124.1390025404179
 30
0.0
  0
SPLINE
  5
B0
330
1F
100
AcDbEntity
  8
0
  6
Continuous
 62
     7
370
    15
100
AcDbSpline
210
0.0
220
0.0
230
1.0
 70
     8
 71
     3
 72
    11
 73
     7
 74
     0
 42
0.00000001
 43
0.00000001
 12
1.0
 22
0.0
 32
0.0
 13
1.0
 23
0.0
 33
0.0
 40
0.0
 40
0.0
 40
0.0
 40
0.0
 40
0.2164499953511802
 40
0.440299815233287
 40
0.7518914760010275
 40
1.0
 40
1.0
 40
1.0
 40
1.0
 10
238.4525149284925
 20
124.1390025404179
 30
0.0
 10
238.3731175536132
 20
124.2221972900718
 30
0.0
 10
238.2116084279943
 20
124.3914309869428
 30
0.0
 10
237.9236954410666
 20
124.7249961984722
 30
0.0
 10
237.6309833350403
 20
125.1094687375769
 30
0.0
 10
237.4545362540126
 20
125.3734755431458
 30
0.0
 10
237.3763193335448
 20
125.4905066620165
 30
0.0
  0
SPLINE
  5
B1
330
1F
100
AcDbEntity
  8
0
  6
Continuous
 62
     7
370
    15
100
AcDbSpline
210
0.0
220
0.0
230
1.0
 70
     8
 71
     3
 72
    11
 73
     7
 74
     0
 42
0.00000001
 43
0.00000001
 12
1.0
 22
0.0
 32
0.0
 13
1.0
 23
0.0
 33
0.0
 40
0.0
 40
0.0
 40
0.0
 40
0.0
 40
0.186419156916373
 40
0.528841933395649
 40
0.89188991196288
 40
1.0
 40
1.0
 40
1.0
 40
1.0
 10
237.3763193335448
 20
125.4905066620165
 30
0.0
 10
237.2714977481268
 20
125.4691116410505
 30
0.0
 10
236.9741353374658
 20
125.4084173195021
 30
0.0
 10
236.430491879056
 20
125.3209760126662
 30
0.0
 10
235.9662002376907
 20
125.279644247951
 30
0.0
 10
235.7280602240207
 20
125.2674147323218
 30
0.0
 10
235.6734175474587
 20
125.264608595475
 30
0.0
  0
SPLINE
  5
B2
330
1F
100
AcDbEntity
  8
0
  6
Continuous
 62
     7
370
    15
100
AcDbSpline
210
0.0
220
0.0
230
1.0
 70
     8
 71
     3
 72
    11
 73
     7
 74
     0
 42
0.00000001
 43
0.00000001
 12
1.0
 22
0.0
 32
0.0
 13
1.0
 23
0.0
 33
0.0
 40
0.0
 40
0.0
 40
0.0
 40
0.0
 40
0.2164499953511913
 40
0.4402998152333304
 40
0.7518914760010581
 40
1.0
 40
1.0
 40
1.0
 40
1.0
 10
235.6734175474587
 20
125.264608595475
 30
0.0
 10
235.6248098517522
 20
125.1471755108801
 30
0.0
 10
235.5259326981457
 20
124.9082946304922
 30
0.0
 10
235.3542492622563
 20
124.4844994626015
 30
0.0
 10
235.1862172223736
 20
124.056547438787
 30
0.0
 10
235.0895588697726
 20
123.8006449691771
 30
0.0
 10
235.0467113563203
 20
123.6872064073351
 30
0.0
  0
SPLINE
  5
B3
330
1F
100
AcDbEntity
  8
0
  6
Continuous
 62
     7
370
    15
100
AcDbSpline
210
0.0
220
0.0
230
1.0
 70
     8
 71
     3
 72
    11
 73
     7
 74
     0
 42
0.00000001
 43
0.00000001
 12
1.0
 22
0.0
 32
0.0
 13
1.0
 23
0.0
 33
0.0
 40
0.0
 40
0.0
 40
0.0
 40
0.0
 40
0.2164499953511989
 40
0.4402998152333403
 40
0.7518914760010802
 40
1.0
 40
1.0
 40
1.0
 40
1.0
 10
235.0467113563203
 20
123.6872064073351
 30
0.0
 10
235.1147511259647
 20
123.5852471669189
 30
0.0
 10
235.2531567561163
 20
123.3778429826697
 30
0.0
 10
235.5218118652112
 20
123.0124608288167
 30
0.0
 10
235.8261333569711
 20
122.6471687601411
 30
0.0
 10
236.0317565865296
 20
122.4313653881532
 30
0.0
 10
236.1229069512681
 20
122.3357022857366
 30
0.0
  0
LINE
  5
B4
330
1F
100
AcDbEntity
  8
0
  6
Continuous
 62
     7
370
    15
100
AcDbLine
 10
237.6802847718
 20
122.5326917545
 30
0.0
 11
237.7490562972
 21
122.7057877861
 31
0.0
  0
LINE
  5
B5
330
1F
100
AcDbEntity
  8
0
  6
Continuous
 62
     7
370
    15
100
AcDbLine
 10
237.7490562972
 20
122.7057877861
 30
0.0
 11
238.0624093927
 21
123.4944888801
 31
0.0
  0
LINE
  5
B6
330
1F
100
AcDbEntity
  8
0
  6
Continuous
 62
     7
370
    15
100
AcDbLine
 10
238.0624093927
 20
123.4944888801
 30
0.0
 11
238.4525149285
 21
124.1390025404
 31
0.0
  0
LINE
  5
B7
330
1F
100
AcDbEntity
  8
0
  6
Continuous
 62
     7
370
    15
100
AcDbLine
 10
238.0624093927
 20
123.4944888801
 30
0.0
 11
237.5243115953
 21
124.1702409409
 31
0.0
  0
LINE
  5
B8
330
1F
100
AcDbEntity
  8
0
  6
Continuous
 62
     7
370
    15
100
AcDbLine
 10
237.5243115953
 20
124.1702409409
 30
0.0
 11
236.9862137978
 21
124.8459930017
 31
0.0
  0
LINE
  5
B9
330
1F
100
AcDbEntity
  8
0
  6
Continuous
 62
     7
370
    15
100
AcDbLine
 10
236.9862137978
 20
124.8459930017
 30
0.0
 11
237.3763193335
 21
125.490506662
 31
0.0
  0
LINE
  5
BA
330
1F
100
AcDbEntity
  8
0
  6
Continuous
 62
     7
370
    15
100
AcDbLine
 10
236.9862137978
 20
124.8459930017
 30
0.0
 11
236.1347629047
 21
124.7330439685
 31
0.0
  0
LINE
  5
BB
330
1F
100
AcDbEntity
  8
0
  6
Continuous
 62
     7
370
    15
100
AcDbLine
 10
236.1347629047
 20
124.7330439685
 30
0.0
 11
235.4169750359
 21
124.6378259746
 31
0.0
  0
ARC
  5
BC
330
1F
100
AcDbEntity
  8
0
  6
Continuous
 62
     7
370
    15
100
AcDbCircle
 10
236.3740156242
 20
123.2442369015
 30
0.0
 40
1.476707250037831
100
AcDbArc
 50
338.6152963378
 51
38.8345419652
  0
LWPOLYLINE
  5
BD
330
1F
100
AcDbEntity
  8
0
  6
Continuous
 62
     7
370
    15
100
AcDbPolyline
 90
        3
 70
   128
 43
0.0
 10
237.7490562972
 20
122.7057877861
 10
237.6663262754
 20
122.5322946807
 10
237.6519403014
 20
122.5072734834
  0
ARC
  5
BE
330
1F
100
AcDbEntity
  8
0
  6
Continuous
 62
     7
370
    15
100
AcDbCircle
 10
236.3247717114
 20
123.2792577252
 30
0.0
 40
1.466150670162407
100
AcDbArc
 50
97.4463082021
 51
134.9662195314
  0
ARC
  5
BF
330
1F
100
AcDbEntity
  8
0
  6
Continuous
 62
     7
370
    15
100
AcDbCircle
 10
236.3311885804
 20
123.2212302014
 30
0.0
 40
1.524520879609914
100
AcDbArc
 50
38.4987599794
 51
97.4028082648
  0
ELLIPSE
  5
C0
330
1F
100
AcDbEntity
  8
0
  6
Continuous
 62
     7
370
    15
100
AcDbEllipse
 10
238.8412226212
 20
138.4728171687
 30
0.0
 11
1.980360473108362
 21
-1.266117462755062
 31
0.0
210
0.0
220
0.0
230
1.0
 40
0.9803342941
 41
1.990847558494008
 42
3.696040273639909
  0
ELLIPSE
  5
C1
330
1F
100
AcDbEntity
  8
0
  6
Continuous
 62
     7
370
    15
100
AcDbEllipse
 10
238.8412226212
 20
138.4728171687
 30
0.0
 11
1.980360473108362
 21
-1.266117462755062
 31
0.0
210
0.0
220
0.0
230
1.0
 40
0.9803342941
 41
0.2149108425334704
 42
1.99084755849402
  0
SPLINE
  5
C2
330
1F
100
AcDbEntity
  8
0
  6
Continuous
 62
     7
370
    15
100
AcDbSpline
210
0.0
220
0.0
230
1.0
 70
     8
 71
     3
 72
    12
 73
     8
 74
     0
 42
0.00000001
 43
0.00000001
 12
1.0
 22
0.0
 32
0.0
 13
1.0
 23
0.0
 33
0.0
 40
0.0
 40
0.0
 40
0.0
 40
0.0
 40
0.0676241565166112
 40
0.3406850176201656
 40
0.6196638763622057
 40
0.9006905961227126
 40
1.0
 40
1.0
 40
1.0
 40
1.0
 10
237.0051210948471
 20
139.950543665502
 30
0.0
 10
236.9913739160805
 20
139.9438019825161
 30
0.0
 10
236.9221167440643
 20
139.9098379302432
 30
0.0
 10
236.8044811910825
 20
139.835486306369
 30
0.0
 10
236.6548490301637
 20
139.7268445620752
 30
0.0
 10
236.5435656631018
 20
139.6330077605455
 30
0.0
 10
236.4867710374203
 20
139.5734272605625
 30
0.0
 10
236.4719414168049
 20
139.5578702214902
 30
0.0
  0
LINE
  5
C3
330
1F
100
AcDbEntity
  8
0
  6
Continuous
 62
     7
370
    15
100
AcDbLine
 10
232.6758281484
 20
128.0336876185
 30
0.0
 11
244.9281183421
 21
135.3913678355
 31
0.0
  0
ARC
  5
C4
330
1F
100
AcDbEntity
  8
0
  6
Continuous
 62
     7
370
    15
100
AcDbCircle
 10
232.4708946761
 20
128.3813233869
 30
0.0
 40
0.4035447379891509
100
AcDbArc
 50
177.4229820073
 51
300.5196171078
  0
LINE
  5
C5
330
1F
100
AcDbEntity
  8
0
  6
Continuous
 62
     7
370
    15
100
AcDbLine
 10
232.8238888938
 20
142.6725773612
 30
0.0
 11
232.0677580489
 21
128.3994676807
 31
0.0
  0
ARC
  5
C6
330
1F
100
AcDbEntity
  8
0
  6
Continuous
 62
     7
370
    15
100
AcDbCircle
 10
233.2081277623
 20
142.6525914295
 30
0.0
 40
0.3847582949293599
100
AcDbArc
 50
120.933424075
 51
177.0224810537
  0
LINE
  5
C7
330
1F
100
AcDbEntity
  8
0
  6
Continuous
 62
     7
370
    15
100
AcDbLine
 10
245.2626361382
 20
150.3403039147
 30
0.0
 11
233.0103459444
 21
142.9826236977
 31
0.0
  0
ARC
  5
C8
330
1F
100
AcDbEntity
  8
0
  6
Continuous
 62
     7
370
    15
100
AcDbCircle
 10
245.4675696105
 20
149.9926681463
 30
0.0
 40
0.4035447379891308
100
AcDbArc
 50
357.4229820073
 51
120.5196171078
  0
LINE
  5
C9
330
1F
100
AcDbEntity
  8
0
  6
Continuous
 62
     7
370
    15
100
AcDbLine
 10
245.1145753928
 20
135.701414172
 30
0.0
 11
245.8707062377
 21
149.9745238525
 31
0.0
  0
ARC
  5
CA
330
1F
100
AcDbEntity
  8
0
  6
Continuous
 62
     7
370
    15
100
AcDbCircle
 10
244.7303365243
 20
135.7214001037
 30
0.0
 40
0.384758294929366
100
AcDbArc
 50
300.933424075
 51
357.0224810537
  0
ARC
  5
CB
330
1F
100
AcDbEntity
  8
0
  6
Continuous
 62
     7
370
    15
100
AcDbCircle
 10
245.4678632631
 20
149.9931542748
 30
0.0
 40
0.3833675010896924
100
AcDbArc
 50
357.4229820073
 51
120.5196171078
  0
LINE
  5
CC
330
1F
100
AcDbEntity
  8
0
  6
Continuous
 62
     7
370
    15
100
AcDbLine
 10
245.2731764644
 20
150.3234082548
 30
0.0
 11
233.0208862708
 21
142.9657280375
 31
0.0
  0
ARC
  5
CD
330
1F
100
AcDbEntity
  8
0
  6
Continuous
 62
     7
370
    15
100
AcDbCircle
 10
233.2087789987
 20
142.6521973819
 30
0.0
 40
0.365520381323879
100
AcDbArc
 50
120.9334241416
 51
177.0224808999
  0
LINE
  5
CE
330
1F
100
AcDbEntity
  8
0
  6
Continuous
 62
     7
370
    15
100
AcDbLine
 10
232.8437520726
 20
142.671184018
 30
0.0
 11
232.0876212277
 21
128.3980743376
 31
0.0
  0
ARC
  5
CF
330
1F
100
AcDbEntity
  8
0
  6
Continuous
 62
     7
370
    15
100
AcDbCircle
 10
232.4706010235
 20
128.3808372585
 30
0.0
 40
0.3833675010896925
100
AcDbArc
 50
177.4229820073
 51
300.5196171078
  0
LINE
  5
D0
330
1F
100
AcDbEntity
  8
0
  6
Continuous
 62
     7
370
    15
100
AcDbLine
 10
232.6652878222
 20
128.0505832785
 30
0.0
 11
244.9175780159
 21
135.4082634955
 31
0.0
  0
ARC
  5
D1
330
1F
100
AcDbEntity
  8
0
  6
Continuous
 62
     7
370
    15
100
AcDbCircle
 10
244.729685289
 20
135.7217941503
 30
0.0
 40
0.3655203801827133
100
AcDbArc
 50
300.933424075
 51
357.0224810537
  0
LINE
  5
D2
330
1F
100
AcDbEntity
  8
0
  6
Continuous
 62
     7
370
    15
100
AcDbLine
 10
245.0947122141
 20
135.7028075152
 30
0.0
 11
245.8508430589
 21
149.9759171957
 31
0.0
  0
LINE
  5
D3
330
1F
100
AcDbEntity
  8
0
  6
Continuous
 62
     7
370
    15
100
AcDbLine
 10
232.4420888001
 20
128.333712306
 30
0.0
 11
232.6652878222
 21
128.0505832785
 31
0.0
  0
LINE
  5
D4
330
1F
100
AcDbEntity
  8
0
  6
Continuous
 62
     7
370
    15
100
AcDbLine
 10
232.4420888001
 20
128.333712306
 30
0.0
 11
232.0876212277
 21
128.3980743376
 31
0.0
  0
LINE
  5
D5
330
1F
100
AcDbEntity
  8
0
  6
Continuous
 62
     7
370
    15
100
AcDbLine
 10
244.6943789939
 20
135.691392523
 30
0.0
 11
244.9175780159
 21
135.4082634955
 31
0.0
  0
LINE
  5
D6
330
1F
100
AcDbEntity
  8
0
  6
Continuous
 62
     7
370
    15
100
AcDbLine
 10
233.4807095204
 20
130.061409801
 30
0.0
 11
232.4420888001
 21
128.333712306
 31
0.0
  0
LINE
  5
D7
330
1F
100
AcDbEntity
  8
0
  6
Continuous
 62
     7
370
    15
100
AcDbLine
 10
233.4807095204
 20
130.061409801
 30
0.0
 11
234.0501982447
 21
130.4033961443
 31
0.0
  0
LINE
  5
D8
330
1F
100
AcDbEntity
  8
0
  6
Continuous
 62
     7
370
    15
100
AcDbLine
 10
244.2508206409
 20
135.8994361078
 30
0.0
 11
244.6943789939
 21
135.691392523
 31
0.0
  0
LINE
  5
D9
330
1F
100
AcDbEntity
  8
0
  6
Continuous
 62
     7
370
    15
100
AcDbLine
 10
231.6308777421
 20
131.5854581568
 30
0.0
 11
231.4040023071
 21
127.3028422719
 31
0.0
  0
LINE
  5
DA
330
1F
100
AcDbEntity
  8
0
  6
Continuous
 62
     7
370
    15
100
AcDbLine
 10
233.198219645
 20
142.6068219865
 30
0.0
 11
232.8437520726
 21
142.671184018
 31
0.0
  0
LINE
  5
DB
330
1F
100
AcDbEntity
  8
0
  6
Continuous
 62
     7
370
    15
100
AcDbLine
 10
233.5896186199
 20
142.3126031781
 30
0.0
 11
233.198219645
 21
142.6068219865
 31
0.0
  0
LINE
  5
DC
330
1F
100
AcDbEntity
  8
0
  6
Continuous
 62
     7
370
    15
100
AcDbLine
 10
233.5158546225
 20
130.7248265905
 30
0.0
 11
233.4807095204
 21
130.061409801
 31
0.0
  0
ARC
  5
DD
330
1F
100
AcDbEntity
  8
0
  6
Continuous
 62
     7
370
    15
100
AcDbCircle
 10
235.343743172
 20
133.1583164448
 30
0.0
 40
1.008861844972806
100
AcDbArc
 50
177.4229820073
 51
300.5196171078
  0
LINE
  5
DE
330
1F
100
AcDbEntity
  8
0
  6
Continuous
 62
     7
370
    15
100
AcDbLine
 10
234.0402715336
 20
130.9941195568
 30
0.0
 11
234.0422618214
 21
130.9929223139
 31
0.0
  0
SPLINE
  5
DF
330
1F
100
AcDbEntity
  8
0
  6
Continuous
 62
     7
370
    15
100
AcDbSpline
210
0.0
220
0.0
230
1.0
 70
     8
 71
     3
 72
    14
 73
    10
 74
     0
 42
0.00000001
 43
0.00000001
 12
1.0
 22
0.0
 32
0.0
 13
1.0
 23
0.0
 33
0.0
 40
0.0
 40
0.0
 40
0.0
 40
0.0
 40
0.2210591904779582
 40
0.3460797326519253
 40
0.4396016244131513
 40
0.5338897453199885
 40
0.6146561933587661
 40
0.7517253237593913
 40
0.9999999999999999
 40
0.9999999999999999
 40
0.9999999999999999
 40
0.9999999999999999
 10
234.0402715335864
 20
130.9941195568144
 30
0.0
 10
233.9886772327647
 20
131.0230008441902
 30
0.0
 10
233.907903654448
 20
131.0682160111873
 30
0.0
 10
233.7931051890273
 20
131.0967253955363
 30
0.0
 10
233.709009566447
 20
131.0929083453258
 30
0.0
 10
233.6431740259815
 20
131.062342913266
 30
0.0
 10
233.5858925372861
 20
131.002925120807
 30
0.0
 10
233.5323853101946
 20
130.8910625135862
 30
0.0
 10
233.5223319448188
 20
130.7899638475244
 30
0.0
 10
233.5158546225139
 20
130.7248265904769
 30
0.0
  0
SPLINE
  5
E0
330
1F
100
AcDbEntity
  8
0
  6
Continuous
 62
     7
370
    15
100
AcDbSpline
210
0.0
220
0.0
230
1.0
 70
     8
 71
     3
 72
    14
 73
    10
 74
     0
 42
0.00000001
 43
0.00000001
 12
1.0
 22
0.0
 32
0.0
 13
1.0
 23
0.0
 33
0.0
 40
0.0
 40
0.0
 40
0.0
 40
0.0
 40
0.2234968253973707
 40
0.3567622963774688
 40
0.4531212562341396
 40
0.534461904150042
 40
0.6157317558035366
 40
0.7396161778922258
 40
0.9999999999999999
 40
0.9999999999999999
 40
0.9999999999999999
 40
0.9999999999999999
 10
234.0501982447232
 20
130.4033961443168
 30
0.0
 10
234.099251160507
 20
130.435841849096
 30
0.0
 10
234.1775530820125
 20
130.4876341021807
 30
0.0
 10
234.2538474515397
 20
130.5800785503359
 30
0.0
 10
234.2854381090104
 20
130.6562629396074
 30
0.0
 10
234.2878573233163
 20
130.7255384970434
 30
0.0
 10
234.2638539453811
 20
130.7985588543298
 30
0.0
 10
234.1876037825996
 20
130.898862797708
 30
0.0
 10
234.1009674353987
 20
130.9549303836798
 30
0.0
 10
234.0422618213951
 20
130.9929223139322
 30
0.0
  0
LINE
  5
E1
330
1F
100
AcDbEntity
  8
0
  6
Continuous
 62
     7
370
    15
100
AcDbLine
 10
235.8560768528
 20
132.2892270238
 30
0.0
 11
242.7132409444
 21
136.4070547754
 31
0.0
  0
LINE
  5
E2
330
1F
100
AcDbEntity
  8
0
  6
Continuous
 62
     7
370
    15
100
AcDbLine
 10
234.7590807156
 20
141.1918209164
 30
0.0
 11
234.3359016041
 21
133.2036771793
 31
0.0
  0
ARC
  5
E3
330
1F
100
AcDbEntity
  8
0
  6
Continuous
 62
     7
370
    15
100
AcDbCircle
 10
235.7196778868
 20
141.1418560873
 30
0.0
 40
0.9618957373233494
100
AcDbArc
 50
120.933424075
 51
177.0224810537
  0
LINE
  5
E4
330
1F
100
AcDbEntity
  8
0
  6
Continuous
 62
     7
370
    15
100
AcDbLine
 10
242.0823874338
 20
146.0847645095
 30
0.0
 11
235.2252233422
 21
141.9669367578
 31
0.0
  0
ARC
  5
E5
330
1F
100
AcDbEntity
  8
0
  6
Continuous
 62
     7
370
    15
100
AcDbCircle
 10
242.5947211149
 20
145.2156750887
 30
0.0
 40
1.008861844953758
100
AcDbArc
 50
357.4229819929
 51
120.5196171286
  0
LINE
  5
E6
330
1F
100
AcDbEntity
  8
0
  6
Continuous
 62
     7
370
    15
100
AcDbLine
 10
243.179383571
 20
137.1821706168
 30
0.0
 11
243.6025626828
 21
145.1703143539
 31
0.0
  0
ARC
  5
E7
330
1F
100
AcDbEntity
  8
0
  6
Continuous
 62
     7
370
    15
100
AcDbCircle
 10
242.2187863998
 20
137.2321354459
 30
0.0
 40
0.9618957373232178
100
AcDbArc
 50
300.933424075
 51
357.0224810537
  0
CIRCLE
  5
E8
330
1F
100
AcDbEntity
  8
0
  6
Continuous
 62
     7
370
    15
100
AcDbCircle
 10
238.9894937061
 20
139.1471755606
 30
0.0
 40
2.545936335816868
  0
ARC
  5
E9
330
1F
100
AcDbEntity
  8
0
  6
Continuous
 62
     7
370
    15
100
AcDbCircle
 10
238.2469007669
 20
138.1057223753
 30
0.0
 40
2.524849421814494
100
AcDbArc
 50
98.2401076223
 51
133.7054881943
  0
SPLINE
  5
EA
330
1F
100
AcDbEntity
  8
0
  6
Continuous
 62
     7
370
    15
100
AcDbSpline
210
0.0
220
0.0
230
1.0
 70
     8
 71
     3
 72
    11
 73
     7
 74
     0
 42
0.00000001
 43
0.00000001
 12
1.0
 22
0.0
 32
0.0
 13
1.0
 23
0.0
 33
0.0
 40
0.0
 40
0.0
 40
0.0
 40
0.0
 40
0.3280455501579975
 40
0.6557028173712034
 40
0.9906967996087795
 40
0.9999999999999999
 40
0.9999999999999999
 40
0.9999999999999999
 40
0.9999999999999999
 10
244.2508206408525
 20
135.8994361077977
 30
0.0
 10
244.1840028818938
 20
135.9327799876378
 30
0.0
 10
244.0504464511527
 20
135.999428280665
 30
0.0
 10
243.8417490214903
 20
136.1279286777988
 30
0.0
 10
243.7152541245785
 20
136.217370583513
 30
0.0
 10
243.6578404711506
 20
136.2616412639262
 30
0.0
 10
243.6562891057895
 20
136.2628374950664
 30
0.0
  0
LINE
  5
EB
330
1F
100
AcDbEntity
  8
0
  6
Continuous
 62
     7
370
    15
100
AcDbLine
 10
244.290509225
 20
148.0362666686
 30
0.0
 11
245.4505098388
 21
149.9645022035
 31
0.0
  0
LINE
  5
EC
330
1F
100
AcDbEntity
  8
0
  6
Continuous
 62
     7
370
    15
100
AcDbLine
 10
245.4505098388
 20
149.9645022035
 30
0.0
 11
245.8508430589
 21
149.9759171957
 31
0.0
  0
LINE
  5
ED
330
1F
100
AcDbEntity
  8
0
  6
Continuous
 62
     7
370
    15
100
AcDbLine
 10
244.6943789939
 20
135.691392523
 30
0.0
 11
245.0947122141
 21
135.7028075152
 31
0.0
  0
LINE
  5
EE
330
1F
100
AcDbEntity
  8
0
  6
Continuous
 62
     7
370
    15
100
AcDbLine
 10
244.2553641229
 20
147.3728498791
 30
0.0
 11
244.290509225
 21
148.0362666686
 31
0.0
  0
SPLINE
  5
EF
330
1F
100
AcDbEntity
  8
0
  6
Continuous
 62
     7
370
    15
100
AcDbSpline
210
0.0
220
0.0
230
1.0
 70
     8
 71
     3
 72
    11
 73
     7
 74
     0
 42
0.00000001
 43
0.00000001
 12
1.0
 22
0.0
 32
0.0
 13
1.0
 23
0.0
 33
0.0
 40
0.0
 40
0.0
 40
0.0
 40
0.0
 40
0.3280455501579956
 40
0.6557028173711935
 40
0.9906967996087636
 40
1.0
 40
1.0
 40
1.0
 40
1.0
 10
233.589618619898
 20
142.312603178136
 30
0.0
 10
233.6503576068812
 20
142.2692162427204
 30
0.0
 10
233.7717636886584
 20
142.1824937257547
 30
0.0
 10
233.9830879204013
 20
142.058333205061
 30
0.0
 10
234.1214298862512
 20
141.9884644585688
 30
0.0
 10
234.1874817309346
 20
141.9584653835395
 30
0.0
 10
234.1892665075123
 20
141.9576547832191
 30
0.0
  0
LINE
  5
F0
330
1F
100
AcDbEntity
  8
0
  6
Continuous
 62
     7
370
    15
100
AcDbLine
 10
233.198219645
 20
142.6068219865
 30
0.0
 11
233.0208862708
 21
142.9657280375
 31
0.0
  0
LINE
  5
F1
330
1F
100
AcDbEntity
  8
0
  6
Continuous
 62
     7
370
    15
100
AcDbLine
 10
245.4505098388
 20
149.9645022035
 30
0.0
 11
245.2731764644
 21
150.3234082548
 31
0.0
  0
LINE
  5
F2
330
1F
100
AcDbEntity
  8
0
  6
Continuous
 62
     7
370
    15
100
AcDbLine
 10
244.290509225
 20
148.0362666686
 30
0.0
 11
243.7210205007
 21
147.6942803253
 31
0.0
  0
LINE
  5
F3
330
1F
100
AcDbEntity
  8
0
  6
Continuous
 62
     7
370
    15
100
AcDbLine
 10
243.7309472118
 20
147.1035569128
 30
0.0
 11
243.728956924
 21
147.1047541557
 31
0.0
  0
SPLINE
  5
F4
330
1F
100
AcDbEntity
  8
0
  6
Continuous
 62
     7
370
    15
100
AcDbSpline
210
0.0
220
0.0
230
1.0
 70
     8
 71
     3
 72
    14
 73
    10
 74
     0
 42
0.00000001
 43
0.00000001
 12
1.0
 22
0.0
 32
0.0
 13
1.0
 23
0.0
 33
0.0
 40
0.0
 40
0.0
 40
0.0
 40
0.0
 40
0.2234968253973811
 40
0.3567622963774713
 40
0.4531212562341344
 40
0.5344619041500408
 40
0.6157317558035419
 40
0.7396161778921917
 40
1.0
 40
1.0
 40
1.0
 40
1.0
 10
243.7210205006502
 20
147.6942803252945
 30
0.0
 10
243.6719675848665
 20
147.6618346205154
 30
0.0
 10
243.5936656633609
 20
147.6100423674307
 30
0.0
 10
243.5173712938338
 20
147.5175979192754
 30
0.0
 10
243.485780636363
 20
147.441413530004
 30
0.0
 10
243.4833614220572
 20
147.372137972568
 30
0.0
 10
243.5073647999924
 20
147.2991176152816
 30
0.0
 10
243.5836149627739
 20
147.1988136719033
 30
0.0
 10
243.6702513099747
 20
147.1427460859315
 30
0.0
 10
243.7289569239783
 20
147.1047541556792
 30
0.0
  0
SPLINE
  5
F5
330
1F
100
AcDbEntity
  8
0
  6
Continuous
 62
     7
370
    15
100
AcDbSpline
210
0.0
220
0.0
230
1.0
 70
     8
 71
     3
 72
    14
 73
    10
 74
     0
 42
0.00000001
 43
0.00000001
 12
1.0
 22
0.0
 32
0.0
 13
1.0
 23
0.0
 33
0.0
 40
0.0
 40
0.0
 40
0.0
 40
0.0
 40
0.2210591904779467
 40
0.3460797326519288
 40
0.4396016244131369
 40
0.5338897453199738
 40
0.6146561933587462
 40
0.7517253237593683
 40
0.9999999999999999
 40
0.9999999999999999
 40
0.9999999999999999
 40
0.9999999999999999
 10
243.7309472117871
 20
147.103556912797
 30
0.0
 10
243.7825415126087
 20
147.0746756254211
 30
0.0
 10
243.8633150909255
 20
147.0294604584241
 30
0.0
 10
243.9781135563461
 20
147.0009510740751
 30
0.0
 10
244.0622091789265
 20
147.0047681242856
 30
0.0
 10
244.1280447193919
 20
147.0353335563453
 30
0.0
 10
244.1853262080874
 20
147.0947513488043
 30
0.0
 10
244.2388334351788
 20
147.2066139560251
 30
0.0
 10
244.2488868005547
 20
147.3077126220869
 30
0.0
 10
244.2553641228596
 20
147.3728498791345
 30
0.0
  0
LINE
  5
F6
330
1F
100
AcDbEntity
  8
0
  6
HIDDEN
 62
     7
370
     0
100
AcDbLine
 10
185.8702061361
 20
90.6946537513
 30
0.0
 11
185.8702061361
 21
140.0946537513
 31
0.0
  0
SPLINE
  5
F7
330
1F
100
AcDbEntity
  8
0
  6
HIDDEN
 62
     7
370
     0
100
AcDbSpline
210
0.0
220
0.0
230
1.0
 70
     8
 71
     3
 72
    58
 73
    54
 74
     0
 42
0.00000001
 43
0.00000001
 12
1.0
 22
0.0
 32
0.0
 13
1.0
 23
0.0
 33
0.0
 40
-0.0625000000000001
 40
-0.0625000000000001
 40
0.0
 40
0.0
 40
0.03125
 40
0.03125
 40
0.0625
 40
0.0625
 40
0.09375
 40
0.09375
 40
0.125
 40
0.125
 40
0.1875000000000001
 40
0.1875000000000001
 40
0.2500000000000002
 40
0.2500000000000002
 40
0.2812500000000003
 40
0.2812500000000003
 40
0.3125000000000003
 40
0.3125000000000003
 40
0.3437500000000004
 40
0.3437500000000004
 40
0.3750000000000004
 40
0.3750000000000004
 40
0.4062500000000004
 40
0.4062500000000004
 40
0.4375000000000005
 40
0.4375000000000005
 40
0.4687500000000006
 40
0.4687500000000006
 40
0.5000000000000006
 40
0.5000000000000006
 40
0.5625000000000007
 40
0.5625000000000007
 40
0.6250000000000008
 40
0.6250000000000008
 40
0.6562500000000007
 40
0.6562500000000007
 40
0.6875000000000006
 40
0.6875000000000006
 40
0.7187500000000004
 40
0.7187500000000004
 40
0.7500000000000002
 40
0.7500000000000002
 40
0.7812500000000001
 40
0.7812500000000001
 40
0.8125
 40
0.8125
 40
0.8437499999999999
 40
0.8437499999999999
 40
0.8749999999999998
 40
0.8749999999999998
 40
0.9374999999999999
 40
0.9374999999999999
 40
1.0
 40
1.0
 40
1.03125
 40
1.03125
 10
195.8702061361355
 20
115.6590261218095
 30
0.0
 10
195.8702061361355
 20
115.2624675659943
 30
0.0
 10
195.883182028146
 20
115.1325008264495
 30
0.0
 10
195.9340143302519
 20
114.8768214883174
 30
0.0
 10
195.9724914015733
 20
114.749780396476
 30
0.0
 10
196.0728963627297
 20
114.5076022105354
 30
0.0
 10
196.134330605049
 20
114.3927485519459
 30
0.0
 10
196.2794648712307
 20
114.1753834301401
 30
0.0
 10
196.3639067923781
 20
114.0725079580558
 30
0.0
 10
196.6405788219879
 20
113.7958900056387
 30
0.0
 10
196.8636249769561
 20
113.6468978858058
 30
0.0
 10
197.3448889755005
 20
113.4473740908145
 30
0.0
 10
197.6081468308203
 20
113.3947952263123
 30
0.0
 10
197.9996128621052
 20
113.3945834527248
 30
0.0
 10
198.1321616057186
 20
113.4075744243142
 30
0.0
 10
198.3887059147339
 20
113.458610647604
 30
0.0
 10
198.5134018011056
 20
113.4963721890068
 30
0.0
 10
198.7556047715394
 20
113.5965317283002
 30
0.0
 10
198.87266813479
 20
113.6591295380507
 30
0.0
 10
199.0893544540361
 20
113.8038515220863
 30
0.0
 10
199.1903684221038
 20
113.8864756272546
 30
0.0
 10
199.3771616163893
 20
114.0730959978657
 30
0.0
 10
199.4599619803436
 20
114.1741443657568
 30
0.0
 10
199.6048404192382
 20
114.3906563866307
 30
0.0
 10
199.6674912025655
 20
114.5075457418296
 30
0.0
 10
199.7679315969395
 20
114.7498031438886
 30
0.0
 10
199.8057906087094
 20
114.8744658087039
 30
0.0
 10
199.8570283131729
 20
115.1307970043587
 30
0.0
 10
199.870158687946
 20
115.2633849437092
 30
0.0
 10
199.8703006383849
 20
115.6550166122785
 30
0.0
 10
199.8179597221368
 20
115.9182294453127
 30
0.0
 10
199.6188294953987
 20
116.399736776004
 30
0.0
 10
199.4699924077564
 20
116.6229372572796
 30
0.0
 10
199.193680371217
 20
116.8997833372414
 30
0.0
 10
199.0909148339658
 20
116.9842954314601
 30
0.0
 10
198.873597901612
 20
117.1296740281916
 30
0.0
 10
198.7588109910751
 20
117.1911894597934
 30
0.0
 10
198.5168915009692
 20
117.291745520039
 30
0.0
 10
198.3897645984692
 20
117.3303842458736
 30
0.0
 10
198.134095762833
 20
117.381449112761
 30
0.0
 10
198.0042005574551
 20
117.3945235931373
 30
0.0
 10
197.7401257750306
 20
117.3947819944109
 30
0.0
 10
197.6097966355453
 20
117.3819059264479
 30
0.0
 10
197.3541073214015
 20
117.33130713512
 30
0.0
 10
197.2271794550138
 20
117.2930017892823
 30
0.0
 10
196.9847271661717
 20
117.1927459568624
 30
0.0
 10
196.8698104721901
 20
117.1313949379503
 30
0.0
 10
196.6524196804196
 20
116.9865261023801
 30
0.0
 10
196.5494344007381
 20
116.9021621491108
 30
0.0
 10
196.2724700330808
 20
116.6256360953247
 30
0.0
 10
196.1233377547223
 20
116.402776253329
 30
0.0
 10
195.9233856360079
 20
115.9216737332682
 30
0.0
 10
195.8702061361355
 20
115.6590261218095
 30
0.0
 10
195.8702061361355
 20
115.2624675659943
 30
0.0
  0
SPLINE
  5
F8
330
1F
100
AcDbEntity
  8
0
  6
HIDDEN
 62
     7
370
     0
100
AcDbSpline
210
0.0
220
0.0
230
1.0
 70
     8
 71
     3
 72
    12
 73
     8
 74
     0
 42
0.00000001
 43
0.00000001
 12
1.0
 22
0.0
 32
0.0
 13
1.0
 23
0.0
 33
0.0
 40
0.0
 40
0.0
 40
0.0
 40
0.0
 40
0.4999999999999987
 40
0.4999999999999987
 40
0.7499999999999993
 40
0.7499999999999993
 40
1.0
 40
1.0
 40
1.0
 40
1.0
 10
193.9649502478097
 20
107.2982007532218
 30
0.0
 10
193.995649631177
 20
107.4125364202857
 30
0.0
 10
194.0369996992835
 20
107.523889773127
 30
0.0
 10
194.136755627503
 20
107.6766265453757
 30
0.0
 10
194.1764525452357
 20
107.7244864312279
 30
0.0
 10
194.2737106968833
 20
107.7990895445773
 30
0.0
 10
194.334486854874
 20
107.8258437820854
 30
0.0
 10
194.3979629497019
 20
107.8258437820854
 30
0.0
  0
LINE
  5
F9
330
1F
100
AcDbEntity
  8
0
  6
HIDDEN
 62
     7
370
     0
100
AcDbLine
 10
194.3979629497
 20
107.8258437821
 30
0.0
 11
197.3424493226
 21
107.8258437821
 31
0.0
  0
SPLINE
  5
FA
330
1F
100
AcDbEntity
  8
0
  6
HIDDEN
 62
     7
370
     0
100
AcDbSpline
210
0.0
220
0.0
230
1.0
 70
     8
 71
     3
 72
    12
 73
     8
 74
     0
 42
0.00000001
 43
0.00000001
 12
1.0
 22
0.0
 32
0.0
 13
1.0
 23
0.0
 33
0.0
 40
0.0
 40
0.0
 40
0.0
 40
0.0
 40
0.25
 40
0.25
 40
0.5
 40
0.5
 40
1.0
 40
1.0
 40
1.0
 40
1.0
 10
197.3424493225691
 20
107.8258437820854
 30
0.0
 10
197.4061145590996
 20
107.8258437820854
 30
0.0
 10
197.4657207913229
 20
107.7997716336057
 30
0.0
 10
197.5643813162538
 20
107.7242328827846
 30
0.0
 10
197.603348306269
 20
107.6769819456884
 30
0.0
 10
197.7027351381935
 20
107.525158127722
 30
0.0
 10
197.7448113856169
 20
107.4123548779569
 30
0.0
 10
197.7754620244613
 20
107.2982007532218
 30
0.0
  0
ELLIPSE
  5
FB
330
1F
100
AcDbEntity
  8
0
  6
HIDDEN
 62
     7
370
     0
100
AcDbEllipse
 10
184.8139484812
 20
115.3946537513
 30
0.0
 11
-11.70927234972715
 21
24.67718644093742
 31
0.0
210
0.0
220
0.0
230
1.0
 40
0.3419987131
 41
3.31052192817896
 42
4.221709151398949
  0
SPLINE
  5
FC
330
1F
100
AcDbEntity
  8
0
  6
HIDDEN
 62
     7
370
     0
100
AcDbSpline
210
0.0
220
0.0
230
1.0
 70
     8
 71
     3
 72
    12
 73
     8
 74
     0
 42
0.00000001
 43
0.00000001
 12
1.0
 22
0.0
 32
0.0
 13
1.0
 23
0.0
 33
0.0
 40
0.0
 40
0.0
 40
0.0
 40
0.0
 40
0.5
 40
0.5
 40
0.75
 40
0.75
 40
1.0
 40
1.0
 40
1.0
 40
1.0
 10
197.7754620244613
 20
91.74201227403442
 30
0.0
 10
197.744762641094
 20
91.70287443163852
 30
0.0
 10
197.7034125729874
 20
91.66571464891301
 30
0.0
 10
197.603656644768
 20
91.61577814328525
 30
0.0
 10
197.5639597270353
 20
91.60032527314151
 30
0.0
 10
197.4667015753876
 20
91.57640572954249
 30
0.0
 10
197.405925417397
 20
91.56792263576408
 30
0.0
 10
197.3424493225691
 20
91.56792263576408
 30
0.0
  0
LINE
  5
FD
330
1F
100
AcDbEntity
  8
0
  6
HIDDEN
 62
     7
370
     0
100
AcDbLine
 10
197.3424493226
 20
91.5679226358
 30
0.0
 11
194.3979629497
 21
91.5679226358
 31
0.0
  0
SPLINE
  5
FE
330
1F
100
AcDbEntity
  8
0
  6
HIDDEN
 62
     7
370
     0
100
AcDbSpline
210
0.0
220
0.0
230
1.0
 70
     8
 71
     3
 72
    12
 73
     8
 74
     0
 42
0.00000001
 43
0.00000001
 12
1.0
 22
0.0
 32
0.0
 13
1.0
 23
0.0
 33
0.0
 40
0.0
 40
0.0
 40
0.0
 40
0.0
 40
0.2500000000000009
 40
0.2500000000000009
 40
0.5000000000000019
 40
0.5000000000000019
 40
1.0
 40
1.0
 40
1.0
 40
1.0
 10
194.3979629497019
 20
91.56792263576406
 30
0.0
 10
194.3342977131714
 20
91.56792263576405
 30
0.0
 10
194.2746914809481
 20
91.57618741142993
 30
0.0
 10
194.1760309560172
 20
91.60040619301309
 30
0.0
 10
194.137063966002
 20
91.61566351232223
 30
0.0
 10
194.0376771340775
 20
91.66529686658417
 30
0.0
 10
193.9956008866541
 20
91.70293657475828
 30
0.0
 10
193.9649502478097
 20
91.74201227403442
 30
0.0
  0
ELLIPSE
  5
FF
330
1F
100
AcDbEntity
  8
0
  6
HIDDEN
 62
     7
370
     0
100
AcDbEllipse
 10
206.9264637911
 20
115.3946537513
 30
0.0
 11
11.70927234972703
 21
24.67718644093742
 31
0.0
210
0.0
220
0.0
230
1.0
 40
0.3419987131
 41
2.06147615578065
 42
2.972663379000668
  0
SPLINE
  5
100
330
1F
100
AcDbEntity
  8
0
  6
HIDDEN
 62
     7
370
     0
100
AcDbSpline
210
0.0
220
0.0
230
1.0
 70
     8
 71
     3
 72
    12
 73
     8
 74
     0
 42
0.00000001
 43
0.00000001
 12
1.0
 22
0.0
 32
0.0
 13
1.0
 23
0.0
 33
0.0
 40
0.0
 40
0.0
 40
0.0
 40
0.0
 40
0.4999999999999996
 40
0.4999999999999996
 40
0.7499999999999998
 40
0.7499999999999998
 40
1.0
 40
1.0
 40
1.0
 40
1.0
 10
193.9649502478097
 20
139.0472952284977
 30
0.0
 10
193.995649631177
 20
139.0864330708936
 30
0.0
 10
194.0369996992835
 20
139.1235928536191
 30
0.0
 10
194.136755627503
 20
139.1735293592469
 30
0.0
 10
194.1764525452357
 20
139.1889822293906
 30
0.0
 10
194.2737106968833
 20
139.2129017729897
 30
0.0
 10
194.334486854874
 20
139.2213848667681
 30
0.0
 10
194.3979629497019
 20
139.2213848667681
 30
0.0
  0
LINE
  5
101
330
1F
100
AcDbEntity
  8
0
  6
HIDDEN
 62
     7
370
     0
100
AcDbLine
 10
194.3979629497
 20
139.2213848668
 30
0.0
 11
197.3424493226
 21
139.2213848668
 31
0.0
  0
SPLINE
  5
102
330
1F
100
AcDbEntity
  8
0
  6
HIDDEN
 62
     7
370
     0
100
AcDbSpline
210
0.0
220
0.0
230
1.0
 70
     8
 71
     3
 72
    12
 73
     8
 74
     0
 42
0.00000001
 43
0.00000001
 12
1.0
 22
0.0
 32
0.0
 13
1.0
 23
0.0
 33
0.0
 40
0.0
 40
0.0
 40
0.0
 40
0.0
 40
0.2499999999999991
 40
0.2499999999999991
 40
0.4999999999999982
 40
0.4999999999999982
 40
1.0
 40
1.0
 40
1.0
 40
1.0
 10
197.3424493225691
 20
139.2213848667681
 30
0.0
 10
197.4061145590996
 20
139.2213848667681
 30
0.0
 10
197.4657207913229
 20
139.2131200911022
 30
0.0
 10
197.5643813162538
 20
139.1889013095191
 30
0.0
 10
197.603348306269
 20
139.1736439902099
 30
0.0
 10
197.7027351381935
 20
139.124010635948
 30
0.0
 10
197.7448113856169
 20
139.0863709277739
 30
0.0
 10
197.7754620244613
 20
139.0472952284977
 30
0.0
  0
ELLIPSE
  5
103
330
1F
100
AcDbEntity
  8
0
  6
HIDDEN
 62
     7
370
     0
100
AcDbEllipse
 10
184.8139484812
 20
115.3946537513
 30
0.0
 11
11.70927234972729
 21
24.67718644093742
 31
0.0
210
0.0
220
0.0
230
1.0
 40
0.3419987131
 41
5.203068809370469
 42
6.114256032590515
  0
SPLINE
  5
104
330
1F
100
AcDbEntity
  8
0
  6
HIDDEN
 62
     7
370
     0
100
AcDbSpline
210
0.0
220
0.0
230
1.0
 70
     8
 71
     3
 72
    12
 73
     8
 74
     0
 42
0.00000001
 43
0.00000001
 12
1.0
 22
0.0
 32
0.0
 13
1.0
 23
0.0
 33
0.0
 40
0.0
 40
0.0
 40
0.0
 40
0.0
 40
0.5000000000000004
 40
0.5000000000000004
 40
0.7500000000000002
 40
0.7500000000000002
 40
1.0
 40
1.0
 40
1.0
 40
1.0
 10
197.7754620244613
 20
123.4911067493106
 30
0.0
 10
197.744762641094
 20
123.3767710822467
 30
0.0
 10
197.7034125729874
 20
123.2654177294054
 30
0.0
 10
197.603656644768
 20
123.1126809571566
 30
0.0
 10
197.5639597270353
 20
123.0648210713045
 30
0.0
 10
197.4667015753876
 20
122.990217957955
 30
0.0
 10
197.405925417397
 20
122.963463720447
 30
0.0
 10
197.3424493225691
 20
122.963463720447
 30
0.0
  0
LINE
  5
105
330
1F
100
AcDbEntity
  8
0
  6
HIDDEN
 62
     7
370
     0
100
AcDbLine
 10
197.3424493226
 20
122.9634637204
 30
0.0
 11
194.3979629497
 21
122.9634637204
 31
0.0
  0
SPLINE
  5
106
330
1F
100
AcDbEntity
  8
0
  6
HIDDEN
 62
     7
370
     0
100
AcDbSpline
210
0.0
220
0.0
230
1.0
 70
     8
 71
     3
 72
    12
 73
     8
 74
     0
 42
0.00000001
 43
0.00000001
 12
1.0
 22
0.0
 32
0.0
 13
1.0
 23
0.0
 33
0.0
 40
0.0
 40
0.0
 40
0.0
 40
0.0
 40
0.2500000000000009
 40
0.2500000000000009
 40
0.5000000000000019
 40
0.5000000000000019
 40
1.0
 40
1.0
 40
1.0
 40
1.0
 10
194.3979629497019
 20
122.963463720447
 30
0.0
 10
194.3342977131714
 20
122.963463720447
 30
0.0
 10
194.2746914809481
 20
122.9895358689266
 30
0.0
 10
194.1760309560172
 20
123.0650746197477
 30
0.0
 10
194.137063966002
 20
123.112325556844
 30
0.0
 10
194.0376771340775
 20
123.2641493748104
 30
0.0
 10
193.9956008866541
 20
123.3769526245755
 30
0.0
 10
193.9649502478098
 20
123.4911067493105
 30
0.0
  0
ELLIPSE
  5
107
330
1F
100
AcDbEntity
  8
0
  6
HIDDEN
 62
     7
370
     0
100
AcDbEllipse
 10
206.9264637911
 20
115.3946537513
 30
0.0
 11
-11.70927234972711
 21
24.67718644093742
 31
0.0
210
0.0
220
0.0
230
1.0
 40
0.3419987131
 41
0.168929274589115
 42
1.080116497809132
  0
LWPOLYLINE
  5
108
330
1F
100
AcDbEntity
  8
0
  6
HIDDEN
 62
     7
370
     0
100
AcDbPolyline
 90
       21
 70
   128
 43
0.0
 10
201.880777884
 20
127.0813733972
 10
201.7954083293
 20
127.0154248904
 10
201.3982198681
 20
126.623719695
 10
201.104277745
 20
126.1724736381
 10
200.9258589084
 20
125.6805337109
 10
200.8704152975
 20
125.1684465468
 10
200.9402626008
 20
124.6576002599
 10
201.1324835373
 20
124.1693311374
 10
201.4390497016
 20
123.7240324959
 10
201.8471568828
 20
123.3403029234
 10
202.3397598517
 20
123.0341694803
 10
202.896284282
 20
122.8184183043
 10
203.4934860681
 20
122.7020605778
 10
204.1064221518
 20
122.6899561615
 10
204.7094923074
 20
122.7826106151
 10
205.2775083752
 20
122.9761540818
 10
205.7867462836
 20
123.2625029187
 10
206.2159369221
 20
123.6296973228
 10
206.5471544784
 20
124.0624008506
 10
206.7665651379
 20
124.5425409686
 10
206.7665651379
 20
124.5425409686
  0
SPLINE
  5
109
330
1F
100
AcDbEntity
  8
0
  6
HIDDEN
 62
     7
370
     0
100
AcDbSpline
210
0.0
220
0.0
230
1.0
 70
     8
 71
     3
 72
    21
 73
    17
 74
     0
 42
0.00000001
 43
0.00000001
 12
1.0
 22
0.0
 32
0.0
 13
1.0
 23
0.0
 33
0.0
 40
0.0
 40
0.0
 40
0.0
 40
0.0
 40
0.0199249018755895
 40
0.11977558423638
 40
0.1711728035977172
 40
0.2229876796812852
 40
0.3178511475251057
 40
0.414931781982245
 40
0.4821800358600859
 40
0.5499566151948205
 40
0.6191752787979048
 40
0.6888040837759379
 40
0.7656503251891772
 40
0.8429029170706936
 40
0.9212816039803936
 40
1.0
 40
1.0
 40
1.0
 40
1.0
 10
206.2376483040003
 20
127.4296600032257
 30
0.0
 10
206.2511472350002
 20
127.4191682977529
 30
0.0
 10
206.3322940510389
 20
127.3560989707124
 30
0.0
 10
206.4288253115939
 20
127.2244300278289
 30
0.0
 10
206.5339258491988
 20
127.0623087972906
 30
0.0
 10
206.6247074352133
 20
126.8902784118726
 30
0.0
 10
206.7172814030908
 20
126.6618281048628
 30
0.0
 10
206.7880845636124
 20
126.4021360383155
 30
0.0
 10
206.8317546847786
 20
126.1622946420843
 30
0.0
 10
206.8568995496801
 20
125.9478381414563
 30
0.0
 10
206.8698219023877
 20
125.7292073135377
 30
0.0
 10
206.8713222049737
 20
125.5007161634084
 30
0.0
 10
206.8611770264529
 20
125.2646835776411
 30
0.0
 10
206.8393197054846
 20
125.0218615606592
 30
0.0
 10
206.807980361384
 20
124.7800941165227
 30
0.0
 10
206.7803900995781
 20
124.6218394220177
 30
0.0
 10
206.7665651378752
 20
124.5425409685918
 30
0.0
  0
LINE
  5
10A
330
1F
100
AcDbEntity
  8
0
  6
HIDDEN
 62
     7
370
     0
100
AcDbLine
 10
185.8702061361
 20
95.8446537513
 30
0.0
 11
185.8702061361
 21
134.9446537513
 31
0.0
  0
SPLINE
  5
10B
330
1F
100
AcDbEntity
  8
0
  6
HIDDEN
 62
     7
370
     0
100
AcDbSpline
210
0.0
220
0.0
230
1.0
 70
     8
 71
     3
 72
    14
 73
    10
 74
     0
 42
0.00000001
 43
0.00000001
 12
1.0
 22
0.0
 32
0.0
 13
1.0
 23
0.0
 33
0.0
 40
0.0
 40
0.0
 40
0.0
 40
0.0
 40
0.25
 40
0.25
 40
0.5
 40
0.5
 40
0.75
 40
0.75
 40
1.0
 40
1.0
 40
1.0
 40
1.0
 10
184.8293451080071
 20
127.6891292963395
 30
0.0
 10
184.8610602423378
 20
127.6313461139963
 30
0.0
 10
184.8956747676382
 20
127.5749334529213
 30
0.0
 10
184.9753459630535
 20
127.4673340029059
 30
0.0
 10
185.0204018400839
 20
127.4154213759849
 30
0.0
 10
185.1309562525894
 20
127.3292227512876
 30
0.0
 10
185.1983416667935
 20
127.2951333313159
 30
0.0
 10
185.3489711866916
 20
127.2930309392991
 30
0.0
 10
185.418798423457
 20
127.3264027121438
 30
0.0
 10
185.4752292472604
 20
127.3702153806945
 30
0.0
  0
SPLINE
  5
10C
330
1F
100
AcDbEntity
  8
0
  6
HIDDEN
 62
     7
370
     0
100
AcDbSpline
210
0.0
220
0.0
230
1.0
 70
     8
 71
     3
 72
    16
 73
    12
 74
     0
 42
0.00000001
 43
0.00000001
 12
1.0
 22
0.0
 32
0.0
 13
1.0
 23
0.0
 33
0.0
 40
0.0
 40
0.0
 40
0.0
 40
0.0
 40
0.0625000000000015
 40
0.0625000000000015
 40
0.1250000000000029
 40
0.1250000000000029
 40
0.2500000000000018
 40
0.2500000000000018
 40
0.4999999999999996
 40
0.4999999999999996
 40
1.0
 40
1.0
 40
1.0
 40
1.0
 10
185.4752292472286
 20
127.3702153807251
 30
0.0
 10
185.4869634816755
 20
127.3793257939731
 30
0.0
 10
185.5004952371545
 20
127.3874031499195
 30
0.0
 10
185.5304826975843
 20
127.3956499915964
 30
0.0
 10
185.5454774039926
 20
127.3947226740088
 30
0.0
 10
185.5812178263874
 20
127.381956154477
 30
0.0
 10
185.5952311633886
 20
127.3643075079667
 30
0.0
 10
185.62937525217
 20
127.3096545879351
 30
0.0
 10
185.6403471562883
 20
127.2682549202767
 30
0.0
 10
185.6661926965546
 20
127.1397651765539
 30
0.0
 10
185.6702061361355
 20
127.0491470889151
 30
0.0
 10
185.6702061361355
 20
126.9569279843611
 30
0.0
  0
LINE
  5
10D
330
1F
100
AcDbEntity
  8
0
  6
HIDDEN
 62
     7
370
     0
100
AcDbLine
 10
185.6702061361
 20
103.8323795182
 30
0.0
 11
185.6702061361
 21
126.9569279844
 31
0.0
  0
SPLINE
  5
10E
330
1F
100
AcDbEntity
  8
0
  6
HIDDEN
 62
     7
370
     0
100
AcDbSpline
210
0.0
220
0.0
230
1.0
 70
     8
 71
     3
 72
    16
 73
    12
 74
     0
 42
0.00000001
 43
0.00000001
 12
1.0
 22
0.0
 32
0.0
 13
1.0
 23
0.0
 33
0.0
 40
0.0
 40
0.0
 40
0.0
 40
0.0
 40
0.4999999999999953
 40
0.4999999999999953
 40
0.749999999999993
 40
0.749999999999993
 40
0.8749999999999964
 40
0.8749999999999964
 40
0.9374999999999982
 40
0.9374999999999982
 40
1.0
 40
1.0
 40
1.0
 40
1.0
 10
185.6702061361355
 20
103.8323795181709
 30
0.0
 10
185.6702061361355
 20
103.739795667267
 30
0.0
 10
185.6661488340204
 20
103.6495832114068
 30
0.0
 10
185.6404915912256
 20
103.5216420842884
 30
0.0
 10
185.6291761454835
 20
103.4792288698765
 30
0.0
 10
185.5951447781749
 20
103.4249148264253
 30
0.0
 10
185.5812657969711
 20
103.4073334910355
 30
0.0
 10
185.5453301152037
 20
103.3945498031005
 30
0.0
 10
185.5303797959409
 20
103.3936743049524
 30
0.0
 10
185.5004812831991
 20
103.4019197400718
 30
0.0
 10
185.4869484228338
 20
103.4099934002435
 30
0.0
 10
185.4752292472598
 20
103.4190921218376
 30
0.0
  0
SPLINE
  5
10F
330
1F
100
AcDbEntity
  8
0
  6
HIDDEN
 62
     7
370
     0
100
AcDbSpline
210
0.0
220
0.0
230
1.0
 70
     8
 71
     3
 72
    14
 73
    10
 74
     0
 42
0.00000001
 43
0.00000001
 12
1.0
 22
0.0
 32
0.0
 13
1.0
 23
0.0
 33
0.0
 40
0.0
 40
0.0
 40
0.0
 40
0.0
 40
0.25
 40
0.25
 40
0.5
 40
0.5
 40
0.75
 40
0.75
 40
1.0
 40
1.0
 40
1.0
 40
1.0
 10
185.4752292472667
 20
103.4190921218462
 30
0.0
 10
185.4187734826579
 20
103.4629241543409
 30
0.0
 10
185.347907856408
 20
103.4962551907628
 30
0.0
 10
185.1994507752354
 20
103.4941961806153
 30
0.0
 10
185.1302574159278
 20
103.4596001562136
 30
0.0
 10
185.0205419777937
 20
103.3739347995508
 30
0.0
 10
184.9752973984623
 20
103.3219123548428
 30
0.0
 10
184.8956706890385
 20
103.2143640945128
 30
0.0
 10
184.8610605405051
 20
103.1579619317798
 30
0.0
 10
184.8293451080059
 20
103.1001782061903
 30
0.0
  0
SPLINE
  5
110
330
1F
100
AcDbEntity
  8
0
  6
HIDDEN
 62
     7
370
     0
100
AcDbSpline
210
0.0
220
0.0
230
1.0
 70
     8
 71
     3
 72
    10
 73
     6
 74
     0
 42
0.00000001
 43
0.00000001
 12
1.0
 22
0.0
 32
0.0
 13
1.0
 23
0.0
 33
0.0
 40
0.0
 40
0.0
 40
0.0
 40
0.0
 40
0.5
 40
0.5
 40
1.0
 40
1.0
 40
1.0
 40
1.0
 10
184.8293451080064
 20
103.1001782061913
 30
0.0
 10
184.7575653200829
 20
102.9693994892895
 30
0.0
 10
184.7051058057749
 20
102.8352993397862
 30
0.0
 10
184.6157627416737
 20
102.5672067767975
 30
0.0
 10
184.579767132174
 20
102.4329614052086
 30
0.0
 10
184.5488857925759
 20
102.2996070277336
 30
0.0
  0
SPLINE
  5
111
330
1F
100
AcDbEntity
  8
0
  6
HIDDEN
 62
     7
370
     0
100
AcDbSpline
210
0.0
220
0.0
230
1.0
 70
     8
 71
     3
 72
    10
 73
     6
 74
     0
 42
0.00000001
 43
0.00000001
 12
1.0
 22
0.0
 32
0.0
 13
1.0
 23
0.0
 33
0.0
 40
0.0
 40
0.0
 40
0.0
 40
0.0
 40
0.5
 40
0.5
 40
1.0
 40
1.0
 40
1.0
 40
1.0
 10
184.5488857925759
 20
98.0977438832612
 30
0.0
 10
184.5797588243881
 20
98.08146073589408
 30
0.0
 10
184.6157456873011
 20
98.06920314616849
 30
0.0
 10
184.7050802731922
 20
98.05210015733975
 30
0.0
 10
184.7575361326148
 20
98.0473005614814
 30
0.0
 10
184.8293451080071
 20
98.04549647007349
 30
0.0
  0
SPLINE
  5
112
330
1F
100
AcDbEntity
  8
0
  6
HIDDEN
 62
     7
370
     0
100
AcDbSpline
210
0.0
220
0.0
230
1.0
 70
     8
 71
     3
 72
     8
 73
     4
 74
     0
 42
0.00000001
 43
0.00000001
 12
1.0
 22
0.0
 32
0.0
 13
1.0
 23
0.0
 33
0.0
 40
0.0
 40
0.0
 40
0.0
 40
0.0
 40
1.0
 40
1.0
 40
1.0
 40
1.0
 10
185.6525095127605
 20
97.91961209182638
 30
0.0
 10
185.6664963213026
 20
97.8913717012447
 30
0.0
 10
185.6702061361353
 20
97.86823965843392
 30
0.0
 10
185.6702061361356
 20
97.84789928559879
 30
0.0
  0
LINE
  5
113
330
1F
100
AcDbEntity
  8
0
  6
HIDDEN
 62
     7
370
     0
100
AcDbLine
 10
185.6702061361
 20
97.5548334724
 30
0.0
 11
185.6702061361
 21
97.8478992856
 31
0.0
  0
LINE
  5
114
330
1F
100
AcDbEntity
  8
0
  6
HIDDEN
 62
     7
370
     0
100
AcDbLine
 10
185.6702061361
 20
132.9414082169
 30
0.0
 11
185.6702061361
 21
133.2344740301
 31
0.0
  0
SPLINE
  5
115
330
1F
100
AcDbEntity
  8
0
  6
HIDDEN
 62
     7
370
     0
100
AcDbSpline
210
0.0
220
0.0
230
1.0
 70
     8
 71
     3
 72
    10
 73
     6
 74
     0
 42
0.00000001
 43
0.00000001
 12
1.0
 22
0.0
 32
0.0
 13
1.0
 23
0.0
 33
0.0
 40
0.0
 40
0.0
 40
0.0
 40
0.0
 40
0.5
 40
0.5
 40
1.0
 40
1.0
 40
1.0
 40
1.0
 10
184.8293451080079
 20
132.7438110324586
 30
0.0
 10
184.7575361326153
 20
132.7420069410507
 30
0.0
 10
184.7050802731926
 20
132.7372073451923
 30
0.0
 10
184.6157456873012
 20
132.7201043563636
 30
0.0
 10
184.5797588243882
 20
132.707846766638
 30
0.0
 10
184.5488857925759
 20
132.6915636192709
 30
0.0
  0
SPLINE
  5
116
330
1F
100
AcDbEntity
  8
0
  6
HIDDEN
 62
     7
370
     0
100
AcDbSpline
210
0.0
220
0.0
230
1.0
 70
     8
 71
     3
 72
    10
 73
     6
 74
     0
 42
0.00000001
 43
0.00000001
 12
1.0
 22
0.0
 32
0.0
 13
1.0
 23
0.0
 33
0.0
 40
0.0
 40
0.0
 40
0.0
 40
0.0
 40
0.5
 40
0.5
 40
1.0
 40
1.0
 40
1.0
 40
1.0
 10
184.5488857925759
 20
128.4897004747985
 30
0.0
 10
184.579767132174
 20
128.3563460973232
 30
0.0
 10
184.6157627416738
 20
128.2221007257341
 30
0.0
 10
184.7051058057752
 20
127.9540081627449
 30
0.0
 10
184.7575653200834
 20
127.8199080132415
 30
0.0
 10
184.8293451080071
 20
127.6891292963395
 30
0.0
  0
LINE
  5
117
330
1F
100
AcDbEntity
  8
0
  6
HIDDEN
 62
     7
370
     0
100
AcDbLine
 10
185.6702061361
 20
97.8478992856
 30
0.0
 11
185.6702061361
 21
109.4101735187
 31
0.0
  0
LINE
  5
118
330
1F
100
AcDbEntity
  8
0
  6
HIDDEN
 62
     7
370
     0
100
AcDbLine
 10
185.6702061361
 20
121.3791339838
 30
0.0
 11
185.6702061361
 21
132.9414082169
 31
0.0
  0
LWPOLYLINE
  5
119
330
1F
100
AcDbEntity
  8
0
  6
HIDDEN
 62
     7
370
     0
100
AcDbPolyline
 90
       18
 70
   128
 43
0.0
 10
202.4398758958
 20
126.7541435577
 10
202.3032318966
 20
126.6682364067
 10
201.9064899582
 20
126.3321189529
 10
201.6096694573
 20
125.9299751944
 10
201.4278737633
 20
125.4822677536
 10
201.370353341
 20
125.0117777082
 10
201.4400350507
 20
124.5424454026
 10
201.6333732189
 20
124.0981522711
 10
201.9405300555
 20
123.7015056581
 10
202.3458762383
 20
123.37268847
 10
202.8287861934
 20
123.1284321911
 10
203.3646876036
 20
122.9811655209
 10
203.9263117425
 20
122.9383819543
 10
204.4850810122
 20
123.002258484
 10
205.0125630815
 20
123.1695448262
 10
205.4819176326
 20
123.4317288081
 10
205.8692620993
 20
123.7754694993
 10
205.8692620993
 20
123.7754694993
  0
SPLINE
  5
11A
330
1F
100
AcDbEntity
  8
0
  6
HIDDEN
 62
     7
370
     0
100
AcDbSpline
210
0.0
220
0.0
230
1.0
 70
     8
 71
     3
 72
     8
 73
     4
 74
     0
 42
0.00000001
 43
0.00000001
 12
1.0
 22
0.0
 32
0.0
 13
1.0
 23
0.0
 33
0.0
 40
0.0
 40
0.0
 40
0.0
 40
0.0
 40
1.0
 40
1.0
 40
1.0
 40
1.0
 10
206.7665651378752
 20
124.5425409685918
 30
0.0
 10
206.4828102879953
 20
124.2630004641365
 30
0.0
 10
206.1850106437231
 20
124.0043622380943
 30
0.0
 10
205.869262099263
 20
123.7754694993179
 30
0.0
  0
SPLINE
  5
11B
330
1F
100
AcDbEntity
  8
0
  6
HIDDEN
 62
     7
370
     0
100
AcDbSpline
210
0.0
220
0.0
230
1.0
 70
     8
 71
     3
 72
    12
 73
     8
 74
     0
 42
0.00000001
 43
0.00000001
 12
1.0
 22
0.0
 32
0.0
 13
1.0
 23
0.0
 33
0.0
 40
0.0
 40
0.0
 40
0.0
 40
0.0
 40
0.2499999999999991
 40
0.2499999999999991
 40
0.5
 40
0.5
 40
1.0
 40
1.0
 40
1.0
 40
1.0
 10
204.4793175158529
 20
122.9031064900739
 30
0.0
 10
204.4402600324197
 20
122.7903754649864
 30
0.0
 10
204.4100760370765
 20
122.6797678705369
 30
0.0
 10
204.384593969617
 20
122.4627167589046
 30
0.0
 10
204.3908034650247
 20
122.3546999045531
 30
0.0
 10
204.4765661972448
 20
122.0542210161504
 30
0.0
 10
204.6175303036346
 20
121.8846326619488
 30
0.0
 10
204.7739678354394
 20
121.7417607689635
 30
0.0
  0
SPLINE
  5
11C
330
1F
100
AcDbEntity
  8
0
  6
HIDDEN
 62
     7
370
     0
100
AcDbSpline
210
0.0
220
0.0
230
1.0
 70
     8
 71
     3
 72
    18
 73
    14
 74
     0
 42
0.00000001
 43
0.00000001
 12
1.0
 22
0.0
 32
0.0
 13
1.0
 23
0.0
 33
0.0
 40
0.0
 40
0.0
 40
0.0
 40
0.0
 40
0.2499999999999962
 40
0.2499999999999962
 40
0.3749999999999952
 40
0.3749999999999952
 40
0.4999999999999943
 40
0.4999999999999943
 40
0.6249999999999946
 40
0.6249999999999946
 40
0.7499999999999947
 40
0.7499999999999947
 40
1.0
 40
1.0
 40
1.0
 40
1.0
 10
205.869262099263
 20
123.7754694993179
 30
0.0
 10
205.7941988526519
 20
123.6426908715392
 30
0.0
 10
205.7106630647898
 20
123.5154874930788
 30
0.0
 10
205.5638895301397
 20
123.3373238501682
 30
0.0
 10
205.511755498608
 20
123.2807757048035
 30
0.0
 10
205.4003064189171
 20
123.176569473604
 30
0.0
 10
205.3398662596248
 20
123.1281523003504
 30
0.0
 10
205.2141139546996
 20
123.045806465315
 30
0.0
 10
205.1494729246522
 20
123.0120944471758
 30
0.0
 10
205.0166721802538
 20
122.9585727127398
 30
0.0
 10
204.9482270731502
 20
122.938819727601
 30
0.0
 10
204.7467146730107
 20
122.8984508804347
 30
0.0
 10
204.6132023364447
 20
122.8943416215215
 30
0.0
 10
204.479317515853
 20
122.903106490074
 30
0.0
  0
SPLINE
  5
11D
330
1F
100
AcDbEntity
  8
0
  6
HIDDEN
 62
     7
370
     0
100
AcDbSpline
210
0.0
220
0.0
230
1.0
 70
     8
 71
     3
 72
    45
 73
    41
 74
     0
 42
0.00000001
 43
0.00000001
 12
1.0
 22
0.0
 32
0.0
 13
1.0
 23
0.0
 33
0.0
 40
0.0
 40
0.0
 40
0.0
 40
0.0
 40
0.0249818109337981
 40
0.0504495750173035
 40
0.0685161091926371
 40
0.0871118517224045
 40
0.1051825215853781
 40
0.1236733167006054
 40
0.1410326397209107
 40
0.1585322585623681
 40
0.194180199117929
 40
0.2242815942758879
 40
0.2545933055798286
 40
0.2855581929222393
 40
0.3167662397795908
 40
0.339797879663035
 40
0.3629572940458476
 40
0.3865621431986123
 40
0.4103437598929493
 40
0.4486746654129558
 40
0.46830996286978
 40
0.4880949954699885
 40
0.5264628931768782
 40
0.5462376479885235
 40
0.5661859154967149
 40
0.6016954503862915
 40
0.6381330030256738
 40
0.6758361189851169
 40
0.7143339442845154
 40
0.7418032584871762
 40
0.7694829154122108
 40
0.7977562025067622
 40
0.8262096779292195
 40
0.8542137319413222
 40
0.8823881002637048
 40
0.9112202149534424
 40
0.9404341744236079
 40
0.9611309395512907
 40
0.982375654562014
 40
1.0
 40
1.0
 40
1.0
 40
1.0
 10
204.7739678354394
 20
121.7417607689635
 30
0.0
 10
204.8329147864459
 20
121.782461699842
 30
0.0
 10
204.9519553409808
 20
121.8646552874514
 30
0.0
 10
205.1186554969731
 20
121.9808421975356
 30
0.0
 10
205.2707963414507
 20
122.0832456757834
 30
0.0
 10
205.4023059857261
 20
122.1681900552159
 30
0.0
 10
205.5275963101602
 20
122.2459423591807
 30
0.0
 10
205.640500435706
 20
122.3146892639527
 30
0.0
 10
205.7425056927056
 20
122.3776008315503
 30
0.0
 10
205.865566173783
 20
122.4567954313638
 30
0.0
 10
205.9915966786272
 20
122.5475127916459
 30
0.0
 10
206.1127101613157
 20
122.6559236479839
 30
0.0
 10
206.2077238213376
 20
122.7656585810652
 30
0.0
 10
206.2831202583983
 20
122.8857609301833
 30
0.0
 10
206.3324750065982
 20
123.0062943779889
 30
0.0
 10
206.3604173736955
 20
123.1242933714886
 30
0.0
 10
206.3719992249813
 20
123.2374846068273
 30
0.0
 10
206.3690352746305
 20
123.3589200300717
 30
0.0
 10
206.346496728457
 20
123.5148889267698
 30
0.0
 10
206.3001528488214
 20
123.6739712847556
 30
0.0
 10
206.2332964526848
 20
123.8323383657721
 30
0.0
 10
206.1509884520145
 20
123.9948076531248
 30
0.0
 10
206.0457716151893
 20
124.1624124245344
 30
0.0
 10
205.9202347122266
 20
124.3308326743145
 30
0.0
 10
205.7871651060734
 20
124.4923537300354
 30
0.0
 10
205.606076184456
 20
124.6863859970306
 30
0.0
 10
205.3691109733307
 20
124.907222632623
 30
0.0
 10
205.1115289059612
 20
125.1190448810906
 30
0.0
 10
204.8679416314227
 20
125.2978239392409
 30
0.0
 10
204.6474749905673
 20
125.4462531205185
 30
0.0
 10
204.4526387351457
 20
125.5691234483155
 30
0.0
 10
204.2590632907815
 20
125.6844005974769
 30
0.0
 10
204.0703304153199
 20
125.7918933831227
 30
0.0
 10
203.8896177004351
 20
125.8925102230284
 30
0.0
 10
203.718717690853
 20
125.9889230956859
 30
0.0
 10
203.5609990329357
 20
126.0852497357637
 30
0.0
 10
203.438309869453
 20
126.1768934310739
 30
0.0
 10
203.3566082921442
 20
126.2686544027516
 30
0.0
 10
203.3127001579922
 20
126.3540697387823
 30
0.0
 10
203.3129024278358
 20
126.4168244890181
 30
0.0
 10
203.3129941427769
 20
126.4452792904273
 30
0.0
  0
SPLINE
  5
11E
330
1F
100
AcDbEntity
  8
0
  6
HIDDEN
 62
     7
370
     0
100
AcDbSpline
210
0.0
220
0.0
230
1.0
 70
     8
 71
     3
 72
    66
 73
    62
 74
     0
 42
0.00000001
 43
0.00000001
 12
1.0
 22
0.0
 32
0.0
 13
1.0
 23
0.0
 33
0.0
 40
-0.03125
 40
-0.03125
 40
0.0
 40
0.0
 40
0.0312499999999999
 40
0.0312499999999999
 40
0.0624999999999998
 40
0.0624999999999998
 40
0.0937499999999998
 40
0.0937499999999998
 40
0.1249999999999997
 40
0.1249999999999997
 40
0.1874999999999996
 40
0.1874999999999996
 40
0.2187499999999995
 40
0.2187499999999995
 40
0.2499999999999994
 40
0.2499999999999994
 40
0.2812499999999993
 40
0.2812499999999993
 40
0.3124999999999993
 40
0.3124999999999993
 40
0.3437499999999992
 40
0.3437499999999992
 40
0.3749999999999991
 40
0.3749999999999991
 40
0.406249999999999
 40
0.406249999999999
 40
0.4374999999999989
 40
0.4374999999999989
 40
0.4687499999999988
 40
0.4687499999999988
 40
0.4999999999999988
 40
0.4999999999999988
 40
0.5312499999999987
 40
0.5312499999999987
 40
0.5624999999999986
 40
0.5624999999999986
 40
0.5937499999999986
 40
0.5937499999999986
 40
0.6249999999999984
 40
0.6249999999999984
 40
0.6874999999999987
 40
0.6874999999999987
 40
0.7187499999999989
 40
0.7187499999999989
 40
0.749999999999999
 40
0.749999999999999
 40
0.7812499999999991
 40
0.7812499999999991
 40
0.8124999999999992
 40
0.8124999999999992
 40
0.8437499999999994
 40
0.8437499999999994
 40
0.8749999999999996
 40
0.8749999999999996
 40
0.9062499999999997
 40
0.9062499999999997
 40
0.9374999999999998
 40
0.9374999999999998
 40
0.96875
 40
0.96875
 40
1.0
 40
1.0
 40
1.03125
 40
1.03125
 10
203.7036532283788
 20
117.0044250389488
 30
0.0
 10
204.0367590438923
 20
117.0044250389488
 30
0.0
 10
204.2002499974822
 20
117.021572627027
 30
0.0
 10
204.5214521428512
 20
117.0880696799158
 30
0.0
 10
204.6808645004075
 20
117.1382901491777
 30
0.0
 10
204.9829032275479
 20
117.2668718454271
 30
0.0
 10
205.1259512649095
 20
117.3448554271211
 30
0.0
 10
205.3966844868604
 20
117.5264458825764
 30
0.0
 10
205.5237540018269
 20
117.6300889256753
 30
0.0
 10
205.8667620127997
 20
117.9647694497283
 30
0.0
 10
206.0525942742036
 20
118.2279365221773
 30
0.0
 10
206.2403996373623
 20
118.6386883766581
 30
0.0
 10
206.2891397141407
 20
118.7808892818408
 30
0.0
 10
206.3539037662555
 20
119.0640303385871
 30
0.0
 10
206.3700958767895
 20
119.2038859947682
 30
0.0
 10
206.3703152839563
 20
119.4798912172556
 30
0.0
 10
206.3537671899229
 20
119.6168702667406
 30
0.0
 10
206.2893380362193
 20
119.8748514312135
 30
0.0
 10
206.2416795670344
 20
119.9974348152687
 30
0.0
 10
206.1149835992357
 20
120.2306102494188
 30
0.0
 10
206.0374100134367
 20
120.338264854002
 30
0.0
 10
205.8568033872566
 20
120.5356175946101
 30
0.0
 10
205.7522503381409
 20
120.6265635168176
 30
0.0
 10
205.5222416977967
 20
120.7878229642321
 30
0.0
 10
205.3973616394219
 20
120.8581966058908
 30
0.0
 10
205.1274620677921
 20
120.9804988712988
 30
0.0
 10
204.9813657013091
 20
121.0324634791155
 30
0.0
 10
204.6806530775004
 20
121.1145560261945
 30
0.0
 10
204.524705389143
 20
121.1454472150629
 30
0.0
 10
204.2009255253946
 20
121.1872919323761
 30
0.0
 10
204.0352271816446
 20
121.1977358913912
 30
0.0
 10
203.7071833016372
 20
121.1978196109805
 30
0.0
 10
203.5418577503005
 20
121.1875037362916
 30
0.0
 10
203.2175292942902
 20
121.1457761447035
 30
0.0
 10
203.0611764934284
 20
121.1148946544422
 30
0.0
 10
202.7594603151992
 20
121.0326244212321
 30
0.0
 10
202.6133697854847
 20
120.9806536834316
 30
0.0
 10
202.3436560080795
 20
120.8585061083584
 30
0.0
 10
202.2184746744365
 20
120.7880592468562
 30
0.0
 10
201.8718641340089
 20
120.5449807083728
 30
0.0
 10
201.6887212991205
 20
120.3469509881814
 30
0.0
 10
201.4990547389812
 20
119.998099875969
 30
0.0
 10
201.4514169915527
 20
119.8757979926799
 30
0.0
 10
201.3868987566205
 20
119.6183079486679
 30
0.0
 10
201.3702016508788
 20
119.4813981857594
 30
0.0
 10
201.3702106232462
 20
119.2050611353733
 30
0.0
 10
201.3863414591927
 20
119.0650771622896
 30
0.0
 10
201.4510011358614
 20
118.7817615317589
 30
0.0
 10
201.4996714905006
 20
118.6395200357665
 30
0.0
 10
201.6251008628194
 20
118.3650208587365
 30
0.0
 10
201.7028445153096
 20
118.2302789119725
 30
0.0
 10
201.8851440023224
 20
117.9733657833043
 30
0.0
 10
201.9881071556167
 20
117.8530462889831
 30
0.0
 10
202.2173081279091
 20
117.6295000256037
 30
0.0
 10
202.3449391060172
 20
117.5255652646111
 30
0.0
 10
202.6147847674538
 20
117.3447068003449
 30
0.0
 10
202.7576395108408
 20
117.2667927057226
 30
0.0
 10
203.060037038087
 20
117.1381055094207
 30
0.0
 10
203.2192522690317
 20
117.0879997811124
 30
0.0
 10
203.5401400003498
 20
117.021586664767
 30
0.0
 10
203.7036532283788
 20
117.0044250389488
 30
0.0
 10
204.0367590438923
 20
117.0044250389488
 30
0.0
  0
ARC
  5
11F
330
1F
100
AcDbEntity
  8
0
  6
HIDDEN
 62
     7
370
     0
100
AcDbCircle
 10
203.2188117801
 20
121.9652464322
 30
0.0
 40
1.571132138940831
100
AcDbArc
 50
351.8222254118
 51
36.6505287048
  0
CIRCLE
  5
120
330
1F
100
AcDbEntity
  8
0
  6
HIDDEN
 62
     7
370
     0
100
AcDbCircle
 10
171.8702061361
 20
115.3946537513
 30
0.0
 40
3.049999999999997
  0
LINE
  5
121
330
1F
100
AcDbEntity
  8
0
  6
HIDDEN
 62
     7
370
     0
100
AcDbLine
 10
218.9689045519
 20
89.8946537513
 30
0.0
 11
218.9689045519
 21
115.3946537513
 31
0.0
  0
SPLINE
  5
122
330
1F
100
AcDbEntity
  8
0
  6
HIDDEN
 62
     7
370
     0
100
AcDbSpline
210
0.0
220
0.0
230
1.0
 70
     8
 71
     3
 72
    10
 73
     6
 74
     0
 42
0.00000001
 43
0.00000001
 12
1.0
 22
0.0
 32
0.0
 13
1.0
 23
0.0
 33
0.0
 40
0.0
 40
0.0
 40
0.0
 40
0.0
 40
0.5
 40
0.5
 40
1.0
 40
1.0
 40
1.0
 40
1.0
 10
219.0688049744456
 20
118.910104924697
 30
0.0
 10
219.0473657809531
 20
118.3242320532578
 30
0.0
 10
219.0208441890264
 20
117.7383970228693
 30
0.0
 10
218.9814165705218
 20
116.5666255872581
 30
0.0
 10
218.968904551941
 20
115.9806862484447
 30
0.0
 10
218.968904551941
 20
115.394653751266
 30
0.0
  0
SPLINE
  5
123
330
1F
100
AcDbEntity
  8
0
  6
HIDDEN
 62
     7
370
     0
100
AcDbSpline
210
0.0
220
0.0
230
1.0
 70
     8
 71
     3
 72
    14
 73
    10
 74
     0
 42
0.00000001
 43
0.00000001
 12
1.0
 22
0.0
 32
0.0
 13
1.0
 23
0.0
 33
0.0
 40
0.0
 40
0.0
 40
0.0
 40
0.0
 40
0.2499999999999999
 40
0.2499999999999999
 40
0.4999999999999998
 40
0.4999999999999998
 40
0.7499999999999999
 40
0.7499999999999999
 40
1.0
 40
1.0
 40
1.0
 40
1.0
 10
219.0688049744456
 20
139.896799763134
 30
0.0
 10
219.0473637992012
 20
139.9985449236436
 30
0.0
 10
219.0208452721119
 20
140.1002568084435
 30
0.0
 10
218.9814113885061
 20
140.3037697298628
 30
0.0
 10
218.9689010437567
 20
140.4055449138202
 30
0.0
 10
218.9689080617091
 20
140.6090498481679
 30
0.0
 10
218.981421056139
 20
140.7107908160474
 30
0.0
 10
219.0208493729626
 20
140.9142595125245
 30
0.0
 10
219.0473660151229
 20
141.0159684977608
 30
0.0
 10
219.0688049744456
 20
141.1177031430207
 30
0.0
  0
ELLIPSE
  5
124
330
1F
100
AcDbEntity
  8
0
  6
HIDDEN
 62
     7
370
     0
100
AcDbEllipse
 10
243.0343271836
 20
115.3946537513
 30
0.0
 11
1.804698192636863
 21
25.4994370252997
 31
0.0
210
0.0
220
0.0
230
1.0
 40
0.0938906935
 41
1.577441252748316
 42
1.610473457900851
  0
SPLINE
  5
125
330
1F
100
AcDbEntity
  8
0
  6
HIDDEN
 62
     7
370
     0
100
AcDbSpline
210
0.0
220
0.0
230
1.0
 70
     8
 71
     3
 72
    22
 73
    18
 74
     0
 42
0.00000001
 43
0.00000001
 12
1.0
 22
0.0
 32
0.0
 13
1.0
 23
0.0
 33
0.0
 40
0.0
 40
0.0
 40
0.0
 40
0.0
 40
0.125
 40
0.125
 40
0.25
 40
0.25
 40
0.375
 40
0.375
 40
0.5
 40
0.5
 40
0.625
 40
0.625
 40
0.75
 40
0.75
 40
0.875
 40
0.875
 40
1.0
 40
1.0
 40
1.0
 40
1.0
 10
230.5614679979528
 20
115.394653751266
 30
0.0
 10
230.7538560559078
 20
115.2116420696479
 30
0.0
 10
230.9608052958292
 20
115.050383674097
 30
0.0
 10
231.4024416878591
 20
114.7692718270918
 30
0.0
 10
231.6396732674433
 20
114.6485165511122
 30
0.0
 10
232.1304751991854
 20
114.4556245789492
 30
0.0
 10
232.3822211940038
 20
114.3835580647036
 30
0.0
 10
232.8980963967411
 20
114.2869607265786
 30
0.0
 10
233.1644781533458
 20
114.262798630822
 30
0.0
 10
233.6894709284727
 20
114.2645883092618
 30
0.0
 10
233.9500749277287
 20
114.2897809796213
 30
0.0
 10
234.4674842672724
 20
114.3889583100512
 30
0.0
 10
234.7233830782258
 20
114.4634031164348
 30
0.0
 10
235.2106612832719
 20
114.655344302337
 30
0.0
 10
235.4447583687661
 20
114.7732546121056
 30
0.0
 10
235.8934017842797
 20
115.0540798519692
 30
0.0
 10
236.1044685730168
 20
115.2150471082415
 30
0.0
 10
236.299833198222
 20
115.394653751266
 30
0.0
  0
LINE
  5
126
330
1F
100
AcDbEntity
  8
0
  6
HIDDEN
 62
     7
370
     0
100
AcDbLine
 10
160.8982459917
 20
126.1833288859
 30
0.0
 11
160.8982459917
 21
104.6059786167
 31
0.0
  0
LINE
  5
127
330
1F
100
AcDbEntity
  8
0
  6
HIDDEN
 62
     7
370
     0
100
AcDbLine
 10
156.8982459917
 20
126.5645267323
 30
0.0
 11
156.8982459917
 21
104.2247807702
 31
0.0
  0
LINE
  5
128
330
1F
100
AcDbEntity
  8
0
  6
HIDDEN
 62
     7
370
     0
100
AcDbLine
 10
155.8702061361
 20
103.6312416828
 30
0.0
 11
155.8702061361
 21
127.1424685927
 31
0.0
  0
LINE
  5
129
330
1F
100
AcDbEntity
  8
0
  6
HIDDEN
 62
     7
370
     0
100
AcDbLine
 10
165.4982459917
 20
125.8946537513
 30
0.0
 11
165.4982459917
 21
104.8946537513
 31
0.0
  0
LINE
  5
12A
330
1F
100
AcDbEntity
  8
0
  6
HIDDEN
 62
     7
370
     0
100
AcDbLine
 10
159.3982459917
 20
125.8946537513
 30
0.0
 11
159.3982459917
 21
104.8946537513
 31
0.0
  0
LINE
  5
12B
330
1F
100
AcDbEntity
  8
0
  6
HIDDEN
 62
     7
370
     0
100
AcDbLine
 10
160.3982459917
 20
125.8946537513
 30
0.0
 11
160.3982459917
 21
104.8946537513
 31
0.0
  0
SPLINE
  5
12C
330
1F
100
AcDbEntity
  8
0
  6
HIDDEN
 62
     7
370
     0
100
AcDbSpline
210
0.0
220
0.0
230
1.0
 70
     8
 71
     3
 72
    66
 73
    62
 74
     0
 42
0.00000001
 43
0.00000001
 12
1.0
 22
0.0
 32
0.0
 13
1.0
 23
0.0
 33
0.0
 40
-0.0312499999999997
 40
-0.0312499999999997
 40
0.0
 40
0.0
 40
0.03125
 40
0.03125
 40
0.0625
 40
0.0625
 40
0.09375
 40
0.09375
 40
0.125
 40
0.125
 40
0.1875000000000002
 40
0.1875000000000002
 40
0.2187500000000002
 40
0.2187500000000002
 40
0.2500000000000003
 40
0.2500000000000003
 40
0.2812500000000003
 40
0.2812500000000003
 40
0.3125000000000004
 40
0.3125000000000004
 40
0.3437500000000004
 40
0.3437500000000004
 40
0.3750000000000004
 40
0.3750000000000004
 40
0.4062500000000005
 40
0.4062500000000005
 40
0.4375000000000006
 40
0.4375000000000006
 40
0.4687500000000006
 40
0.4687500000000006
 40
0.5000000000000007
 40
0.5000000000000007
 40
0.5312500000000008
 40
0.5312500000000008
 40
0.5625000000000009
 40
0.5625000000000009
 40
0.593750000000001
 40
0.593750000000001
 40
0.6250000000000013
 40
0.6250000000000013
 40
0.6562500000000013
 40
0.6562500000000013
 40
0.6875000000000013
 40
0.6875000000000013
 40
0.7187500000000013
 40
0.7187500000000013
 40
0.7500000000000012
 40
0.7500000000000012
 40
0.7812500000000012
 40
0.7812500000000012
 40
0.8125000000000012
 40
0.8125000000000012
 40
0.8750000000000011
 40
0.8750000000000011
 40
0.906250000000001
 40
0.906250000000001
 40
0.9375000000000007
 40
0.9375000000000007
 40
0.9687500000000003
 40
0.9687500000000003
 40
1.0
 40
1.0
 40
1.03125
 40
1.03125
 10
171.6675274891877
 20
118.444653751266
 30
0.0
 10
172.0728847830833
 20
118.444653751266
 30
0.0
 10
172.2719446744191
 20
118.4246541916494
 30
0.0
 10
172.6631986589989
 20
118.3465106889493
 30
0.0
 10
172.8574714177465
 20
118.2873495874285
 30
0.0
 10
173.2262348442978
 20
118.1339179005342
 30
0.0
 10
173.4009600026761
 20
118.040191090692
 30
0.0
 10
173.7316373062098
 20
117.8189369882871
 30
0.0
 10
173.8872848502127
 20
117.6909556212925
 30
0.0
 10
174.3067522198813
 20
117.2714005242925
 30
0.0
 10
174.5336403614116
 20
116.9329219655891
 30
0.0
 10
174.7624369847964
 20
116.3830430778709
 30
0.0
 10
174.8216292396453
 20
116.1896432321275
 30
0.0
 10
174.9004366499058
 20
115.7954150817696
 30
0.0
 10
174.9200760661862
 20
115.5967762543372
 30
0.0
 10
174.9203349306078
 20
115.1964759684388
 30
0.0
 10
174.9002642459748
 20
114.9931366417177
 30
0.0
 10
174.8219265633449
 20
114.6010451211101
 30
0.0
 10
174.7639767953064
 20
114.4103392527949
 30
0.0
 10
174.6100336534264
 20
114.0396154362083
 30
0.0
 10
174.5150950397037
 20
113.8628887763995
 30
0.0
 10
174.2947376238266
 20
113.5336356654751
 30
0.0
 10
174.1674575978983
 20
113.3785144418787
 30
0.0
 10
173.8857020065678
 20
113.0968377469483
 30
0.0
 10
173.7329136771102
 20
112.9714045620439
 30
0.0
 10
173.4034865949533
 20
112.7506289686898
 30
0.0
 10
173.2249405918016
 20
112.6547977159896
 30
0.0
 10
172.8573682662515
 20
112.5019685854945
 30
0.0
 10
172.6672142395404
 20
112.4437968275503
 30
0.0
 10
172.273673816838
 20
112.3648035352054
 30
0.0
 10
172.0712397455768
 20
112.3447404095632
 30
0.0
 10
171.6718106702114
 20
112.3445676634444
 30
0.0
 10
171.4717916916555
 20
112.3640510375337
 30
0.0
 10
171.0756757442062
 20
112.4430426091349
 30
0.0
 10
170.8849429160143
 20
112.5013228289869
 30
0.0
 10
170.5173114754346
 20
112.6538904495949
 30
0.0
 10
170.3388250432668
 20
112.7494992363682
 30
0.0
 10
170.0086197843028
 20
112.9705112814532
 30
0.0
 10
169.8557312062409
 20
113.0959611802233
 30
0.0
 10
169.5741348117028
 20
113.3771916692287
 30
0.0
 10
169.4465038888273
 20
113.5325745471426
 30
0.0
 10
169.2261784538275
 20
113.8614254051855
 30
0.0
 10
169.1319519968621
 20
114.0363135115995
 30
0.0
 10
168.977017476259
 20
114.4084573629603
 30
0.0
 10
168.9190051906567
 20
114.5992634047693
 30
0.0
 10
168.8405859363786
 20
114.990136422688
 30
0.0
 10
168.8202718564121
 20
115.1925939840703
 30
0.0
 10
168.8201407401081
 20
115.5947245889897
 30
0.0
 10
168.8397654334674
 20
115.7934486341648
 30
0.0
 10
168.9179318838811
 20
116.1862881053015
 30
0.0
 10
168.977219329221
 20
116.3809323827041
 30
0.0
 10
169.2063001723039
 20
116.9323721361183
 30
0.0
 10
169.4331310231981
 20
117.2707117018175
 30
0.0
 10
169.8524697245188
 20
117.690377364469
 30
0.0
 10
170.0078227202687
 20
117.8182233702423
 30
0.0
 10
170.3387905534059
 20
118.0398244449441
 30
0.0
 10
170.5133518536023
 20
118.133465178921
 30
0.0
 10
170.8809251611771
 20
118.2866192996202
 30
0.0
 10
171.0756120228152
 20
118.3461230452663
 30
0.0
 10
171.4680879727516
 20
118.4246457943293
 30
0.0
 10
171.6675274891877
 20
118.444653751266
 30
0.0
 10
172.0728847830833
 20
118.444653751266
 30
0.0
  0
SPLINE
  5
12D
330
1F
100
AcDbEntity
  8
0
  6
HIDDEN
 62
     7
370
     0
100
AcDbSpline
210
0.0
220
0.0
230
1.0
 70
     8
 71
     3
 72
    66
 73
    62
 74
     0
 42
0.00000001
 43
0.00000001
 12
1.0
 22
0.0
 32
0.0
 13
1.0
 23
0.0
 33
0.0
 40
-0.0312500000000001
 40
-0.0312500000000001
 40
0.0
 40
0.0
 40
0.0312499999999998
 40
0.0312499999999998
 40
0.0624999999999997
 40
0.0624999999999997
 40
0.0937499999999995
 40
0.0937499999999995
 40
0.1249999999999994
 40
0.1249999999999994
 40
0.1874999999999992
 40
0.1874999999999992
 40
0.2187499999999991
 40
0.2187499999999991
 40
0.2499999999999989
 40
0.2499999999999989
 40
0.2812499999999988
 40
0.2812499999999988
 40
0.3124999999999987
 40
0.3124999999999987
 40
0.3437499999999987
 40
0.3437499999999987
 40
0.3749999999999986
 40
0.3749999999999986
 40
0.4062499999999984
 40
0.4062499999999984
 40
0.4374999999999986
 40
0.4374999999999986
 40
0.4687499999999987
 40
0.4687499999999987
 40
0.4999999999999988
 40
0.4999999999999988
 40
0.5312499999999989
 40
0.5312499999999989
 40
0.5624999999999989
 40
0.5624999999999989
 40
0.593749999999999
 40
0.593749999999999
 40
0.624999999999999
 40
0.624999999999999
 40
0.6562499999999991
 40
0.6562499999999991
 40
0.6874999999999992
 40
0.6874999999999992
 40
0.7187499999999992
 40
0.7187499999999992
 40
0.7499999999999993
 40
0.7499999999999993
 40
0.7812499999999994
 40
0.7812499999999994
 40
0.8124999999999994
 40
0.8124999999999994
 40
0.8749999999999997
 40
0.8749999999999997
 40
0.9062499999999998
 40
0.9062499999999998
 40
0.9374999999999999
 40
0.9374999999999999
 40
0.9687499999999999
 40
0.9687499999999999
 40
1.0
 40
1.0
 40
1.03125
 40
1.03125
 10
172.0728847830833
 20
118.444653751266
 30
0.0
 10
171.6675274891877
 20
118.444653751266
 30
0.0
 10
171.4684675978518
 20
118.4246541916494
 30
0.0
 10
171.0772136132721
 20
118.3465106889493
 30
0.0
 10
170.8829408545245
 20
118.2873495874285
 30
0.0
 10
170.5141774279732
 20
118.1339179005342
 30
0.0
 10
170.3394522695949
 20
118.040191090692
 30
0.0
 10
170.0087749660611
 20
117.8189369882871
 30
0.0
 10
169.8531274220583
 20
117.6909556212925
 30
0.0
 10
169.4336600523896
 20
117.2714005242925
 30
0.0
 10
169.2067719108593
 20
116.9329219655891
 30
0.0
 10
168.9779752874745
 20
116.3830430778709
 30
0.0
 10
168.9187830326257
 20
116.1896432321275
 30
0.0
 10
168.8399756223652
 20
115.7954150817696
 30
0.0
 10
168.8203362060848
 20
115.5967762543372
 30
0.0
 10
168.8200773416632
 20
115.1964759684388
 30
0.0
 10
168.8401480262962
 20
114.9931366417177
 30
0.0
 10
168.9184857089261
 20
114.6010451211101
 30
0.0
 10
168.9764354769645
 20
114.4103392527949
 30
0.0
 10
169.1303786188445
 20
114.0396154362083
 30
0.0
 10
169.2253172325672
 20
113.8628887763995
 30
0.0
 10
169.4456746484444
 20
113.5336356654751
 30
0.0
 10
169.5729546743727
 20
113.3785144418787
 30
0.0
 10
169.8547102657032
 20
113.0968377469483
 30
0.0
 10
170.0074985951607
 20
112.9714045620439
 30
0.0
 10
170.3369256773176
 20
112.7506289686898
 30
0.0
 10
170.5154716804693
 20
112.6547977159896
 30
0.0
 10
170.8830440060195
 20
112.5019685854945
 30
0.0
 10
171.0731980327305
 20
112.4437968275503
 30
0.0
 10
171.466738455433
 20
112.3648035352054
 30
0.0
 10
171.6691725266941
 20
112.3447404095632
 30
0.0
 10
172.0686016020595
 20
112.3445676634444
 30
0.0
 10
172.2686205806154
 20
112.3640510375337
 30
0.0
 10
172.6647365280648
 20
112.4430426091349
 30
0.0
 10
172.8554693562566
 20
112.5013228289869
 30
0.0
 10
173.2231007968363
 20
112.6538904495949
 30
0.0
 10
173.4015872290041
 20
112.7494992363682
 30
0.0
 10
173.7317924879682
 20
112.9705112814532
 30
0.0
 10
173.8846810660301
 20
113.0959611802233
 30
0.0
 10
174.1662774605682
 20
113.3771916692287
 30
0.0
 10
174.2939083834437
 20
113.5325745471426
 30
0.0
 10
174.5142338184435
 20
113.8614254051855
 30
0.0
 10
174.6084602754089
 20
114.0363135115995
 30
0.0
 10
174.763394796012
 20
114.4084573629603
 30
0.0
 10
174.8214070816142
 20
114.5992634047693
 30
0.0
 10
174.8998263358924
 20
114.990136422688
 30
0.0
 10
174.9201404158589
 20
115.1925939840703
 30
0.0
 10
174.9202715321629
 20
115.5947245889897
 30
0.0
 10
174.9006468388035
 20
115.7934486341648
 30
0.0
 10
174.8224803883899
 20
116.1862881053015
 30
0.0
 10
174.7631929430499
 20
116.3809323827041
 30
0.0
 10
174.534112099967
 20
116.9323721361183
 30
0.0
 10
174.3072812490729
 20
117.2707117018175
 30
0.0
 10
173.8879425477522
 20
117.690377364469
 30
0.0
 10
173.7325895520023
 20
117.8182233702423
 30
0.0
 10
173.4016217188651
 20
118.0398244449441
 30
0.0
 10
173.2270604186687
 20
118.133465178921
 30
0.0
 10
172.8594871110939
 20
118.2866192996202
 30
0.0
 10
172.6648002494558
 20
118.3461230452663
 30
0.0
 10
172.2723242995194
 20
118.4246457943293
 30
0.0
 10
172.0728847830833
 20
118.444653751266
 30
0.0
 10
171.6675274891877
 20
118.444653751266
 30
0.0
  0
LINE
  5
12E
330
1F
100
AcDbEntity
  8
0
  6
HIDDEN
 62
     7
370
     0
100
AcDbLine
 10
175.8702061361
 20
125.3946537513
 30
0.0
 11
175.8702061361
 21
105.3946537513
 31
0.0
  0
LINE
  5
12F
330
1F
100
AcDbEntity
  8
0
  6
HIDDEN
 62
     7
370
     0
100
AcDbLine
 10
176.8702061361
 20
122.6446537513
 30
0.0
 11
176.8702061361
 21
108.1446537513
 31
0.0
  0
LINE
  5
130
330
1F
100
AcDbEntity
  8
0
  6
HIDDEN
 62
     7
370
     0
100
AcDbLine
 10
175.8702061361
 20
107.1446537513
 30
0.0
 11
175.8702061361
 21
123.6290062133
 31
0.0
  0
LINE
  5
131
330
1F
100
AcDbEntity
  8
0
  6
HIDDEN
 62
     7
370
     0
100
AcDbLine
 10
209.8702061361
 20
108.1446537513
 30
0.0
 11
209.8702061361
 21
122.6446537513
 31
0.0
  0
LWPOLYLINE
  5
132
330
1F
100
AcDbEntity
  8
0
  6
HIDDEN
 62
     7
370
     0
100
AcDbPolyline
 90
       34
 70
   128
 43
0.0
 10
236.2989440694
 20
119.7217035059
 10
236.9576948412
 20
119.7719691975
 10
237.5926366438
 20
119.9449954694
 10
238.1808210261
 20
120.2345287012
 10
238.700989472
 20
120.6301044076
 10
239.1343417385
 20
121.1174254519
 10
239.4652153458
 20
121.6788787818
 10
239.6816516594
 20
122.2941720112
 10
239.7758281072
 20
122.9410668397
 10
239.744340907
 20
123.5961828025
 10
239.5883280881
 20
124.2358423021
 10
239.3134283604
 20
124.8369263773
 10
238.9295773163
 20
125.3777102837
 10
238.4506483325
 20
125.8386486819
 10
237.8939511505
 20
126.2030820571
 10
237.2796062568
 20
126.4578388378
 10
236.6298176766
 20
126.59371145
 10
235.9680704622
 20
126.6057891036
 10
235.3182818819
 20
126.4936352807
 10
234.7039369883
 20
126.2613035126
 10
234.1472398062
 20
125.9171908748
 10
233.6683108225
 20
125.4737344946
 10
233.2844597784
 20
124.946962041
 10
233.0095600507
 20
124.355912443
 10
232.8535472318
 20
123.721947773
 10
232.8220600315
 20
123.0679811659
 10
232.9162364793
 20
122.4176486788
 10
233.132672793
 20
121.7944550223
 10
233.4635464002
 20
121.2209240388
 10
233.8968986668
 20
120.7177846323
 10
234.4170671127
 20
120.303221572
 10
235.0052514949
 20
119.9922182469
 10
235.6401932975
 20
119.7960151275
 10
236.2989440694
 20
119.7217035059
  0
ARC
  5
133
330
1F
100
AcDbEntity
  8
0
  6
HIDDEN
 62
     7
370
     0
100
AcDbCircle
 10
229.7718761509
 20
127.6812817794
 30
0.0
 40
2.091053192087576
100
AcDbArc
 50
122.512440411
 51
301.4033610933
  0
LINE
  5
134
330
1F
100
AcDbEntity
  8
0
  6
HIDDEN
 62
     7
370
     0
100
AcDbLine
 10
244.6594918313
 20
135.1959765987
 30
0.0
 11
243.6957393999
 21
133.6037110444
 31
0.0
  0
LINE
  5
135
330
1F
100
AcDbEntity
  8
0
  6
HIDDEN
 62
     7
370
     0
100
AcDbLine
 10
219.0688049744
 20
141.117703143
 30
0.0
 11
219.1273484629
 21
141.2879932555
 31
0.0
  0
SPLINE
  5
136
330
1F
100
AcDbEntity
  8
0
  6
HIDDEN
 62
     7
370
     0
100
AcDbSpline
210
0.0
220
0.0
230
1.0
 70
     8
 71
     3
 72
    36
 73
    32
 74
     0
 42
0.00000001
 43
0.00000001
 12
1.0
 22
0.0
 32
0.0
 13
1.0
 23
0.0
 33
0.0
 40
0.0
 40
0.0
 40
0.0
 40
0.0
 40
0.1250000000000011
 40
0.1250000000000011
 40
0.2500000000000021
 40
0.2500000000000021
 40
0.3125000000000027
 40
0.3125000000000027
 40
0.3750000000000032
 40
0.3750000000000032
 40
0.4375000000000037
 40
0.4375000000000037
 40
0.4687500000000033
 40
0.4687500000000033
 40
0.5000000000000029
 40
0.5000000000000029
 40
0.5312500000000024
 40
0.5312500000000024
 40
0.5625000000000021
 40
0.5625000000000021
 40
0.5937500000000017
 40
0.5937500000000017
 40
0.6250000000000012
 40
0.6250000000000012
 40
0.687500000000001
 40
0.687500000000001
 40
0.7500000000000008
 40
0.7500000000000008
 40
0.8750000000000003
 40
0.8750000000000003
 40
1.0
 40
1.0
 40
1.0
 40
1.0
 10
233.5924132560023
 20
125.6632958667245
 30
0.0
 10
233.6507574402583
 20
125.7596893302981
 30
0.0
 10
233.7675528449693
 20
125.8863336064997
 30
0.0
 10
234.0754884536529
 20
126.1647830235156
 30
0.0
 10
234.2689668651285
 20
126.3179728432926
 30
0.0
 10
234.6194103725197
 20
126.5444142139937
 30
0.0
 10
234.7466848301614
 20
126.6195843437766
 30
0.0
 10
235.0298992555915
 20
126.7653728088698
 30
0.0
 10
235.1870169697378
 20
126.8367130098065
 30
0.0
 10
235.539617056223
 20
126.9635863202203
 30
0.0
 10
235.7341595724172
 20
127.0204780708813
 30
0.0
 10
236.0859867791339
 20
127.0753236737723
 30
0.0
 10
236.2119641688074
 20
127.0877743186844
 30
0.0
 10
236.479727383216
 20
127.0923028590924
 30
0.0
 10
236.6205692994506
 20
127.0839215867638
 30
0.0
 10
236.8993184196574
 20
127.0405403914718
 30
0.0
 10
237.0327376443357
 20
127.0060240883402
 30
0.0
 10
237.2693176708563
 20
126.9230020092334
 30
0.0
 10
237.3749562767171
 20
126.87416586473
 30
0.0
 10
237.5596758849795
 20
126.7728085312836
 30
0.0
 10
237.6413903479408
 20
126.7189738108978
 30
0.0
 10
237.7863751254168
 20
126.6107726948277
 30
0.0
 10
237.8500431069932
 20
126.5562071051779
 30
0.0
 10
238.0230580091409
 20
126.3920869665302
 30
0.0
 10
238.1151046765663
 20
126.2815128819011
 30
0.0
 10
238.2679278408905
 20
126.0664213981894
 30
0.0
 10
238.3288219932677
 20
125.9615175591347
 30
0.0
 10
238.479035026195
 20
125.6563995960116
 30
0.0
 10
238.5369818373111
 20
125.4645498480581
 30
0.0
 10
238.5845336991016
 20
125.1280380389817
 30
0.0
 10
238.5748375949107
 20
124.9842978600187
 30
0.0
 10
238.5166296392401
 20
124.8881294667816
 30
0.0
  0
ELLIPSE
  5
137
330
1F
100
AcDbEntity
  8
0
  6
HIDDEN
 62
     7
370
     0
100
AcDbEllipse
 10
237.2091956633
 20
130.11169932
 30
0.0
 11
3.105839292631288
 21
2.305055007060076
 31
0.0
210
0.0
220
0.0
230
1.0
 40
0.0904236958
 41
6.065479689651025
 42
9.207072343240498
  0
LINE
  5
138
330
1F
100
AcDbEntity
  8
0
  6
HIDDEN
 62
     7
370
     0
100
AcDbLine
 10
231.8555041141
 20
141.5510042284
 30
0.0
 11
232.8192565454
 21
143.1432697827
 31
0.0
  0
LINE
  5
139
330
1F
100
AcDbEntity
  8
0
  6
HIDDEN
 62
     7
370
     0
100
AcDbLine
 10
238.5166296392
 20
124.8881294668
 30
0.0
 11
238.0784635977
 21
124.1642125433
 31
0.0
  0
LINE
  5
13A
330
1F
100
AcDbEntity
  8
0
  6
HIDDEN
 62
     7
370
     0
100
AcDbLine
 10
233.1542472144
 20
124.9393789433
 30
0.0
 11
233.592413256
 21
125.6632958667
 31
0.0
  0
ELLIPSE
  5
13B
330
1F
100
AcDbEntity
  8
0
  6
HIDDEN
 62
     7
370
     0
100
AcDbEllipse
 10
235.3871811124
 20
121.6621596036
 30
0.0
 11
3.953222233227706
 21
-1.478682026362549
 31
0.0
210
0.0
220
0.0
230
1.0
 40
0.8454008504
 41
1.170661207113726
 42
2.445785048352137
  0
ELLIPSE
  5
13C
330
1F
100
AcDbEntity
  8
0
  6
HIDDEN
 62
     7
370
     0
100
AcDbEllipse
 10
233.4877654532
 20
118.5240361302
 30
0.0
 11
2.220506159017873
 21
3.668613800738144
 31
0.0
210
0.0
220
0.0
230
1.0
 40
0.9794128731
 41
4.423648625671048
 42
9.212954465229314
  0
LWPOLYLINE
  5
13D
330
1F
100
AcDbEntity
  8
0
  6
HIDDEN
 62
     7
370
     0
100
AcDbPolyline
 90
       37
 70
   128
 43
0.0
 10
236.2549791434
 20
118.9597013362
 10
236.9803061855
 20
119.0093013361
 10
237.6835945324
 20
119.1830703831
 10
238.3434751237
 20
119.4757285926
 10
238.9398978214
 20
119.8783836931
 10
239.4547406237
 20
120.378801213
 10
239.8723602926
 20
120.9617762193
 10
240.1800676658
 20
121.6095953113
 10
240.3685132104
 20
122.3025748339
 10
240.4319711039
 20
123.0196589547
 10
240.3685132104
 20
123.7390594358
 10
240.1800676658
 20
124.4389176575
 10
239.8723602926
 20
125.0979687819
 10
239.4547406237
 20
125.6961878741
 10
238.9398978214
 20
126.2153983496
 10
238.3434751237
 20
126.639824261
 10
237.6835945324
 20
126.9565696416
 10
236.9803061855
 20
127.1560103434
 10
236.2549791434
 20
127.2320864615
 10
235.5296521013
 20
127.1824864616
 10
234.8263637544
 20
127.0087174146
 10
234.1664831631
 20
126.7160592051
 10
233.5700604654
 20
126.3134041046
 10
233.0552176631
 20
125.8129865847
 10
232.6375979941
 20
125.2300115784
 10
232.329890621
 20
124.5821924863
 10
232.1414450764
 20
123.8892129638
 10
232.0779871828
 20
123.1721288429
 10
232.1414450764
 20
122.4527283618
 10
232.329890621
 20
121.7528701401
 10
232.6375979941
 20
121.0938190157
 10
233.0552176631
 20
120.4955999236
 10
233.5700604654
 20
119.976389448
 10
234.1664831631
 20
119.5519635367
 10
234.8263637544
 20
119.2352181561
 10
235.5296521013
 20
119.0357774543
 10
236.2549791434
 20
118.9597013362
  0
LINE
  5
13E
330
1F
100
AcDbEntity
  8
0
  6
HIDDEN
 62
     7
370
     0
100
AcDbLine
 10
238.0784635977
 20
124.1642125433
 30
0.0
 11
238.4531679007
 21
128.8888222642
 31
0.0
  0
LINE
  5
13F
330
1F
100
AcDbEntity
  8
0
  6
HIDDEN
 62
     7
370
     0
100
AcDbLine
 10
240.1587089309
 20
135.2106492022
 30
0.0
 11
239.8348600873
 21
134.6756016716
 31
0.0
  0
LINE
  5
140
330
1F
100
AcDbEntity
  8
0
  6
HIDDEN
 62
     7
370
     0
100
AcDbLine
 10
239.578202184
 20
131.1310694699
 30
0.0
 11
240.1587089309
 21
135.2106492022
 31
0.0
  0
LINE
  5
141
330
1F
100
AcDbEntity
  8
0
  6
HIDDEN
 62
     7
370
     0
100
AcDbLine
 10
240.2867425616
 20
132.3016859065
 30
0.0
 11
239.578202184
 21
131.1310694699
 31
0.0
  0
ARC
  5
142
330
1F
100
AcDbEntity
  8
0
  6
HIDDEN
 62
     7
370
     0
100
AcDbCircle
 10
238.0022853938
 20
137.5400830602
 30
0.0
 40
3.174338446052334
100
AcDbArc
 50
312.7913139736
 51
209.3165992458
  0
LINE
  5
143
330
1F
100
AcDbEntity
  8
0
  6
HIDDEN
 62
     7
370
     0
100
AcDbLine
 10
235.2344925477
 20
135.9858156022
 30
0.0
 11
234.0732839803
 21
127.825285235
 31
0.0
  0
LINE
  5
144
330
1F
100
AcDbEntity
  8
0
  6
HIDDEN
 62
     7
370
     0
100
AcDbLine
 10
244.0555852077
 20
148.1033513531
 30
0.0
 11
237.1400295528
 21
143.9504586101
 31
0.0
  0
LINE
  5
145
330
1F
100
AcDbEntity
  8
0
  6
HIDDEN
 62
     7
370
     0
100
AcDbLine
 10
244.4512617805
 20
147.865335043
 30
0.0
 11
244.0555852077
 21
148.1033513531
 31
0.0
  0
ARC
  5
146
330
1F
100
AcDbEntity
  8
0
  6
HIDDEN
 62
     7
370
     0
100
AcDbCircle
 10
224.0502099197
 20
165.7602875517
 30
0.0
 40
25.43643089132271
100
AcDbArc
 50
287.8697957377
 51
300.9713324331
  0
LINE
  5
147
330
1F
100
AcDbEntity
  8
0
  6
HIDDEN
 62
     7
370
     0
100
AcDbLine
 10
231.8555041141
 20
141.5510042284
 30
0.0
 11
231.2984772289
 21
131.0362819678
 31
0.0
  0
LINE
  5
148
330
1F
100
AcDbEntity
  8
0
  6
HIDDEN
 62
     7
370
     0
100
AcDbLine
 10
230.8614397041
 20
125.8965255732
 30
0.0
 11
234.0732839803
 21
127.825285235
 31
0.0
  0
LINE
  5
149
330
1F
100
AcDbEntity
  8
0
  6
HIDDEN
 62
     7
370
     0
100
AcDbLine
 10
239.578202184
 20
131.1310694699
 30
0.0
 11
243.6957393999
 21
133.6037110444
 31
0.0
  0
LINE
  5
14A
330
1F
100
AcDbEntity
  8
0
  6
HIDDEN
 62
     7
370
     0
100
AcDbLine
 10
243.6957393999
 20
133.6037110444
 30
0.0
 11
244.4512617805
 21
147.865335043
 31
0.0
  0
LINE
  5
14B
330
1F
100
AcDbEntity
  8
0
  6
HIDDEN
 62
     7
370
     0
100
AcDbLine
 10
234.0732839803
 20
127.825285235
 30
0.0
 11
234.131648765
 21
127.9217127335
 31
0.0
  0
LINE
  5
14C
330
1F
100
AcDbEntity
  8
0
  6
HIDDEN
 62
     7
370
     0
100
AcDbLine
 10
157.3702061361
 20
132.2540049932
 30
0.0
 11
157.3702061361
 21
127.4442262767
 31
0.0
  0
LINE
  5
14D
330
1F
100
AcDbEntity
  8
0
  6
HIDDEN
 62
     7
370
     0
100
AcDbLine
 10
183.6702061361
 20
132.9147525358
 30
0.0
 11
183.6702061361
 21
127.774600048
 31
0.0
  0
LINE
  5
14E
330
1F
100
AcDbEntity
  8
0
  6
HIDDEN
 62
     7
370
     0
100
AcDbLine
 10
155.8702061361
 20
131.3879795894
 30
0.0
 11
155.8702061361
 21
127.0112135748
 31
0.0
  0
SPLINE
  5
14F
330
1F
100
AcDbEntity
  8
0
  6
HIDDEN
 62
     7
370
     0
100
AcDbSpline
210
0.0
220
0.0
230
1.0
 70
     8
 71
     3
 72
    18
 73
    14
 74
     0
 42
0.00000001
 43
0.00000001
 12
1.0
 22
0.0
 32
0.0
 13
1.0
 23
0.0
 33
0.0
 40
0.0
 40
0.0
 40
0.0
 40
0.0
 40
0.2499999999999999
 40
0.2499999999999999
 40
0.3749999999999998
 40
0.3749999999999998
 40
0.4999999999999998
 40
0.4999999999999998
 40
0.6249999999999998
 40
0.6249999999999998
 40
0.7499999999999997
 40
0.7499999999999997
 40
1.0
 40
1.0
 40
1.0
 40
1.0
 10
184.5488857925759
 20
132.6915636192709
 30
0.0
 10
184.4136001862735
 20
132.6202108775813
 30
0.0
 10
184.3124324400306
 20
132.4748074709919
 30
0.0
 10
184.2095710971616
 20
132.1453402353862
 30
0.0
 10
184.1834682516383
 20
132.0164066585815
 30
0.0
 10
184.1485782680935
 20
131.7208646592454
 30
0.0
 10
184.1399920098035
 20
131.5564698857234
 30
0.0
 10
184.1398923002379
 20
131.1955082709829
 30
0.0
 10
184.1483806713864
 20
130.9989384788207
 30
0.0
 10
184.182524050907
 20
130.5735836826957
 30
0.0
 10
184.2083210327608
 20
130.3438140328961
 30
0.0
 10
184.3117221641488
 20
129.6112253384637
 30
0.0
 10
184.4135801563201
 20
129.0739885635461
 30
0.0
 10
184.5488857925759
 20
128.4897004747985
 30
0.0
  0
LINE
  5
150
330
1F
100
AcDbEntity
  8
0
  6
HIDDEN
 62
     7
370
     0
100
AcDbLine
 10
157.3702061361
 20
103.3450812258
 30
0.0
 11
157.3702061361
 21
98.5353025093
 31
0.0
  0
LINE
  5
151
330
1F
100
AcDbEntity
  8
0
  6
HIDDEN
 62
     7
370
     0
100
AcDbLine
 10
155.8702061361
 20
103.7780939277
 30
0.0
 11
155.8702061361
 21
99.4013279131
 31
0.0
  0
LINE
  5
152
330
1F
100
AcDbEntity
  8
0
  6
HIDDEN
 62
     7
370
     0
100
AcDbLine
 10
183.6702061361
 20
103.0147074545
 30
0.0
 11
183.6702061361
 21
97.8745549667
 31
0.0
  0
SPLINE
  5
153
330
1F
100
AcDbEntity
  8
0
  6
HIDDEN
 62
     7
370
     0
100
AcDbSpline
210
0.0
220
0.0
230
1.0
 70
     8
 71
     3
 72
    18
 73
    14
 74
     0
 42
0.00000001
 43
0.00000001
 12
1.0
 22
0.0
 32
0.0
 13
1.0
 23
0.0
 33
0.0
 40
0.0
 40
0.0
 40
0.0
 40
0.0
 40
0.2499999999999996
 40
0.2499999999999996
 40
0.3749999999999996
 40
0.3749999999999996
 40
0.4999999999999996
 40
0.4999999999999996
 40
0.6249999999999996
 40
0.6249999999999996
 40
0.7499999999999996
 40
0.7499999999999996
 40
1.0
 40
1.0
 40
1.0
 40
1.0
 10
184.5488857925759
 20
102.2996070277336
 30
0.0
 10
184.4136001862735
 20
101.7154054340019
 30
0.0
 10
184.3124324400305
 20
101.1811877467937
 30
0.0
 10
184.2095710971616
 20
100.4552909759053
 30
0.0
 10
184.1834682516383
 20
100.2254104881254
 30
0.0
 10
184.1485782680935
 20
99.79483954333865
 30
0.0
 10
184.1399920098035
 20
99.59714463784447
 30
0.0
 10
184.1398923002379
 20
99.23579659516666
 30
0.0
 10
184.1483806713864
 20
99.07214658522054
 30
0.0
 10
184.182524050907
 20
98.77893531225158
 30
0.0
 10
184.2083210327608
 20
98.64893924613575
 30
0.0
 10
184.3117221641488
 20
98.31488335357383
 30
0.0
 10
184.4135801563201
 20
98.16910718920904
 30
0.0
 10
184.5488857925759
 20
98.0977438832612
 30
0.0
  0
SPLINE
  5
154
330
1F
100
AcDbEntity
  8
0
  6
HIDDEN
 62
     7
370
     0
100
AcDbSpline
210
0.0
220
0.0
230
1.0
 70
     8
 71
     3
 72
    10
 73
     6
 74
     0
 42
0.00000001
 43
0.00000001
 12
1.0
 22
0.0
 32
0.0
 13
1.0
 23
0.0
 33
0.0
 40
0.0
 40
0.0
 40
0.0
 40
0.0
 40
0.5
 40
0.5
 40
1.0
 40
1.0
 40
1.0
 40
1.0
 10
239.8348600873116
 20
134.6756016716066
 30
0.0
 10
239.7902075794367
 20
134.6018289392221
 30
0.0
 10
239.7093820603667
 20
134.4947270799504
 30
0.0
 10
239.5117391433693
 20
134.2573182129191
 30
0.0
 10
239.3933933164325
 20
134.1257368505176
 30
0.0
 10
239.2572370715463
 20
133.9896639702775
 30
0.0
  0
ARC
  5
155
330
1F
100
AcDbEntity
  8
0
  6
HIDDEN
 62
     7
370
     0
100
AcDbCircle
 10
237.421842258
 20
136.5756781922
 30
0.0
 40
3.171142330017836
100
AcDbArc
 50
305.3648034033
 51
216.7431098161
  0
SPLINE
  5
156
330
1F
100
AcDbEntity
  8
0
  6
HIDDEN
 62
     7
370
     0
100
AcDbSpline
210
0.0
220
0.0
230
1.0
 70
     8
 71
     3
 72
    10
 73
     6
 74
     0
 42
0.00000001
 43
0.00000001
 12
1.0
 22
0.0
 32
0.0
 13
1.0
 23
0.0
 33
0.0
 40
0.0
 40
0.0
 40
0.0
 40
0.0
 40
0.5
 40
0.5
 40
1.0
 40
1.0
 40
1.0
 40
1.0
 10
234.880724222711
 20
134.6786112961674
 30
0.0
 10
234.852384880548
 20
134.8406000943928
 30
0.0
 10
234.8402931733603
 20
134.9927240430536
 30
0.0
 10
234.8475721656328
 20
135.2600933407542
 30
0.0
 10
234.8659387430834
 20
135.376908678644
 30
0.0
 10
234.9106437040732
 20
135.45076807155
 30
0.0
  0
LINE
  5
157
330
1F
100
AcDbEntity
  8
0
  6
HIDDEN
 62
     7
370
     0
100
AcDbLine
 10
234.9106437041
 20
135.4507680715
 30
0.0
 11
235.2344925477
 21
135.9858156022
 31
0.0
  0
SPLINE
  5
158
330
1F
100
AcDbEntity
  8
0
  6
HIDDEN
 62
     7
370
     0
100
AcDbSpline
210
0.0
220
0.0
230
1.0
 70
     8
 71
     3
 72
     8
 73
     4
 74
     0
 42
0.00000001
 43
0.00000001
 12
1.0
 22
0.0
 32
0.0
 13
1.0
 23
0.0
 33
0.0
 40
0.0
 40
0.0
 40
0.0
 40
0.0
 40
1.0
 40
1.0
 40
1.0
 40
1.0
 10
220.8088580159546
 20
137.0830136401471
 30
0.0
 10
219.9291741887754
 20
138.0149373383347
 30
0.0
 10
219.2680664359359
 20
138.9512410821561
 30
0.0
 10
219.0688049744456
 20
139.896799763134
 30
0.0
  0
ELLIPSE
  5
159
330
1F
100
AcDbEntity
  8
0
  6
HIDDEN
 62
     7
370
     0
100
AcDbEllipse
 10
236.8776742064
 20
132.9897090242
 30
0.0
 11
0.3124824774540116
 21
2.947022789647605
 31
0.0
210
0.0
220
0.0
230
1.0
 40
0.8407155321
 41
5.146056947021486
 42
7.335381317564615
  0
LWPOLYLINE
  5
15A
330
1F
100
AcDbEntity
  8
0
  6
HIDDEN
 62
     7
370
     0
100
AcDbPolyline
 90
       15
 70
   128
 43
0.0
 10
238.4531679007
 20
128.8888222642
 10
238.4227553557
 20
129.2934209267
 10
238.2704074371
 20
129.6971663628
 10
238.0037635057
 20
130.0798130905
 10
237.6361942016
 20
130.4221736051
 10
237.1861309846
 20
130.7070805208
 10
236.6761419036
 20
130.9202474152
 10
236.1317999408
 20
131.05098521
 10
235.580400675
 20
131.0927381664
 10
235.049593568
 20
131.0434126168
 10
234.5659955045
 20
130.9054819502
 10
234.1538561108
 20
130.6858625861
 10
233.833841777
 20
130.3955671566
 10
233.6219993581
 20
130.0491522866
 10
233.5289515175
 20
129.6639886642
  0
LINE
  5
15B
330
1F
100
AcDbEntity
  8
0
  6
HIDDEN
 62
     7
370
     0
100
AcDbLine
 10
244.0555852077
 20
148.1033513531
 30
0.0
 11
243.8532022585
 21
147.768983949
 31
0.0
  0
LINE
  5
15C
330
1F
100
AcDbEntity
  8
0
  6
HIDDEN
 62
     7
370
     0
100
AcDbLine
 10
244.1666766961
 20
147.3951572126
 30
0.0
 11
244.4512617805
 21
147.865335043
 31
0.0
  0
LINE
  5
15D
330
1F
100
AcDbEntity
  8
0
  6
HIDDEN
 62
     7
370
     0
100
AcDbLine
 10
233.5289515175
 20
129.6639886642
 30
0.0
 11
233.1542472144
 21
124.9393789433
 31
0.0
  0
ELLIPSE
  5
15E
330
1F
100
AcDbEntity
  8
0
  6
HIDDEN
 62
     7
370
     0
100
AcDbEllipse
 10
299.135596664
 20
117.8946537513
 30
0.0
 11
56.33892397535107
 21
-32.48604477005648
 31
0.0
210
0.0
220
0.0
230
1.0
 40
0.102974212
 41
3.40362407863644
 42
3.429575682968274
  0
SPLINE
  5
15F
330
1F
100
AcDbEntity
  8
0
  6
HIDDEN
 62
     7
370
     0
100
AcDbSpline
210
0.0
220
0.0
230
1.0
 70
     8
 71
     3
 72
     8
 73
     4
 74
     0
 42
0.00000001
 43
0.00000001
 12
1.0
 22
0.0
 32
0.0
 13
1.0
 23
0.0
 33
0.0
 40
0.0
 40
0.0
 40
0.0
 40
0.0
 40
1.0
 40
1.0
 40
1.0
 40
1.0
 10
220.8088580159546
 20
137.0830136401471
 30
0.0
 10
220.7770730089479
 20
136.2596421567148
 30
0.0
 10
220.7454809965774
 20
135.4089298569816
 30
0.0
 10
220.7140942240415
 20
134.5304585108801
 30
0.0
  0
ELLIPSE
  5
160
330
1F
100
AcDbEntity
  8
0
  6
HIDDEN
 62
     7
370
     0
100
AcDbEllipse
 10
193.499869274
 20
117.8946537513
 30
0.0
 11
53.19069264813958
 21
32.89700749363956
 31
0.0
210
0.0
220
0.0
230
1.0
 40
0.0489778835
 41
5.602524119495503
 42
5.923460485455481
  0
SPLINE
  5
161
330
1F
100
AcDbEntity
  8
0
  6
HIDDEN
 62
     7
370
     0
100
AcDbSpline
210
0.0
220
0.0
230
1.0
 70
     8
 71
     3
 72
    18
 73
    14
 74
     0
 42
0.00000001
 43
0.00000001
 12
1.0
 22
0.0
 32
0.0
 13
1.0
 23
0.0
 33
0.0
 40
0.0
 40
0.0
 40
0.0
 40
0.0
 40
0.2499999999999999
 40
0.2499999999999999
 40
0.3749999999999999
 40
0.3749999999999999
 40
0.5
 40
0.5
 40
0.75
 40
0.75
 40
0.875
 40
0.875
 40
1.0
 40
1.0
 40
1.0
 40
1.0
 10
221.4845156431899
 20
137.0830136401471
 30
0.0
 10
222.8394734230984
 20
137.0830136401471
 30
0.0
 10
224.1676855291527
 20
137.2036449696783
 30
0.0
 10
226.123350816022
 20
137.5451115858542
 30
0.0
 10
226.7690662023978
 20
137.6858822311344
 30
0.0
 10
228.0480772516567
 20
138.0196971400478
 30
0.0
 10
228.681882060493
 20
138.2133172706305
 30
0.0
 10
230.52123545155
 20
138.8540641283137
 30
0.0
 10
231.6804159139998
 20
139.3644025947187
 30
0.0
 10
233.3248634264199
 20
140.2264426068183
 30
0.0
 10
233.8589864320773
 20
140.5310734379584
 30
0.0
 10
234.8861399391203
 20
141.1620915975842
 30
0.0
 10
235.3786922176097
 20
141.4879622541916
 30
0.0
 10
235.851333377086
 20
141.8213365826336
 30
0.0
  0
LINE
  5
162
330
1F
100
AcDbEntity
  8
0
  6
HIDDEN
 62
     7
370
     0
100
AcDbLine
 10
220.808858016
 20
137.0830136401
 30
0.0
 11
221.4845156432
 21
137.0830136401
 31
0.0
  0
ELLIPSE
  5
163
330
1F
100
AcDbEntity
  8
0
  6
HIDDEN
 62
     7
370
     0
100
AcDbEllipse
 10
243.4927652435
 20
117.8946537513
 30
0.0
 11
2.33549177870654
 21
32.9992714445055
 31
0.0
210
0.0
220
0.0
230
1.0
 40
0.0938906935
 41
0.4713480540576349
 42
1.049083988458063
  0
LINE
  5
164
330
1F
100
AcDbEntity
  8
0
  6
HIDDEN
 62
     7
370
     0
100
AcDbLine
 10
155.8702061361
 20
127.0112135748
 30
0.0
 11
155.8702061361
 21
117.7338246795
 31
0.0
  0
LINE
  5
165
330
1F
100
AcDbEntity
  8
0
  6
HIDDEN
 62
     7
370
     0
100
AcDbLine
 10
155.8702061361
 20
113.055482823
 30
0.0
 11
155.8702061361
 21
103.7780939277
 31
0.0
  0
LINE
  5
166
330
1F
100
AcDbEntity
  8
0
  6
HIDDEN
 62
     7
370
     0
100
AcDbLine
 10
157.3702061361
 20
112.2461766329
 30
0.0
 11
157.3702061361
 21
103.3450812258
 31
0.0
  0
LINE
  5
167
330
1F
100
AcDbEntity
  8
0
  6
HIDDEN
 62
     7
370
     0
100
AcDbLine
 10
157.3702061361
 20
127.4442262767
 30
0.0
 11
157.3702061361
 21
118.5431308696
 31
0.0
  0
LINE
  5
168
330
1F
100
AcDbEntity
  8
0
  6
HIDDEN
 62
     7
370
     0
100
AcDbLine
 10
183.6702061361
 20
127.774600048
 30
0.0
 11
183.6702061361
 21
103.0147074545
 31
0.0
  0
LINE
  5
169
330
1F
100
AcDbEntity
  8
0
  6
HIDDEN
 62
     7
370
     0
100
AcDbLine
 10
185.6702061361
 20
126.9569279844
 30
0.0
 11
185.6702061361
 21
103.8323795182
 31
0.0
  0
SPLINE
  5
16A
330
1F
100
AcDbEntity
  8
0
  6
HIDDEN
 62
     7
370
     0
100
AcDbSpline
210
0.0
220
0.0
230
1.0
 70
     8
 71
     3
 72
     8
 73
     4
 74
     0
 42
0.00000001
 43
0.00000001
 12
1.0
 22
0.0
 32
0.0
 13
1.0
 23
0.0
 33
0.0
 40
0.0000202085968836
 40
0.0000202085968836
 40
0.0000202085968836
 40
0.0000202085968836
 40
0.0040218806502652
 40
0.0040218806502652
 40
0.0040218806502652
 40
0.0040218806502652
 10
157.3702061361355
 20
112.2461766329293
 30
0.0
 10
158.7035292619261
 20
112.2221784017657
 30
0.0
 10
160.0368631351487
 20
112.1988506615973
 30
0.0
 10
161.3702061361355
 20
112.176155990817
 30
0.0
  0
SPLINE
  5
16B
330
1F
100
AcDbEntity
  8
0
  6
HIDDEN
 62
     7
370
     0
100
AcDbSpline
210
0.0
220
0.0
230
1.0
 70
     8
 71
     3
 72
     8
 73
     4
 74
     0
 42
0.00000001
 43
0.00000001
 12
1.0
 22
0.0
 32
0.0
 13
1.0
 23
0.0
 33
0.0
 40
0.0000202082942178
 40
0.0000202082942178
 40
0.0000202082942178
 40
0.0000202082942178
 40
0.0040218803475994
 40
0.0040218803475994
 40
0.0040218803475994
 40
0.0040218803475994
 10
161.3702061361355
 20
118.6131515117151
 30
0.0
 10
160.0368631351487
 20
118.5904568409347
 30
0.0
 10
158.7035292619261
 20
118.5671291007664
 30
0.0
 10
157.3702061361355
 20
118.5431308696027
 30
0.0
  0
SPLINE
  5
16C
330
1F
100
AcDbEntity
  8
0
  6
HIDDEN
 62
     7
370
     0
100
AcDbSpline
210
0.0
220
0.0
230
1.0
 70
     8
 71
     3
 72
     8
 73
     4
 74
     0
 42
0.00000001
 43
0.00000001
 12
1.0
 22
0.0
 32
0.0
 13
1.0
 23
0.0
 33
0.0
 40
0.0
 40
0.0
 40
0.0
 40
0.0
 40
1.0
 40
1.0
 40
1.0
 40
1.0
 10
155.8702061361355
 20
113.055482823031
 30
0.0
 10
156.3444175465732
 20
112.7207535957362
 30
0.0
 10
156.8491538936748
 20
112.4616951819035
 30
0.0
 10
157.3702061361355
 20
112.2461766329293
 30
0.0
  0
SPLINE
  5
16D
330
1F
100
AcDbEntity
  8
0
  6
HIDDEN
 62
     7
370
     0
100
AcDbSpline
210
0.0
220
0.0
230
1.0
 70
     8
 71
     3
 72
     8
 73
     4
 74
     0
 42
0.00000001
 43
0.00000001
 12
1.0
 22
0.0
 32
0.0
 13
1.0
 23
0.0
 33
0.0
 40
0.0
 40
0.0
 40
0.0
 40
0.0
 40
1.0
 40
1.0
 40
1.0
 40
1.0
 10
157.3702061361355
 20
118.5431308696027
 30
0.0
 10
156.8491538936748
 20
118.3276123206286
 30
0.0
 10
156.3444175465732
 20
118.0685539067958
 30
0.0
 10
155.8702061361355
 20
117.733824679501
 30
0.0
  0
LINE
  5
16E
330
1F
100
AcDbEntity
  8
0
  6
HIDDEN
 62
     7
370
     0
100
AcDbLine
 10
155.8702061361
 20
113.055482823
 30
0.0
 11
155.8702061361
 21
117.7338246795
 31
0.0
  0
LINE
  5
16F
330
1F
100
AcDbEntity
  8
0
  6
HIDDEN
 62
     7
370
     0
100
AcDbLine
 10
161.3702061361
 20
112.1761559908
 30
0.0
 11
161.3702061361
 21
118.6131515117
 31
0.0
  0
SPLINE
  5
170
330
1F
100
AcDbEntity
  8
0
  6
HIDDEN
 62
     7
370
     0
100
AcDbSpline
210
0.0
220
0.0
230
1.0
 70
     8
 71
     3
 72
    26
 73
    22
 74
     0
 42
0.00000001
 43
0.00000001
 12
1.0
 22
0.0
 32
0.0
 13
1.0
 23
0.0
 33
0.0
 40
0.0
 40
0.0
 40
0.0
 40
0.0
 40
0.1250000000000002
 40
0.1250000000000002
 40
0.2500000000000003
 40
0.2500000000000003
 40
0.3750000000000005
 40
0.3750000000000005
 40
0.4375000000000006
 40
0.4375000000000006
 40
0.5000000000000007
 40
0.5000000000000007
 40
0.5625000000000008
 40
0.5625000000000008
 40
0.6250000000000009
 40
0.6250000000000009
 40
0.7500000000000006
 40
0.7500000000000006
 40
0.8750000000000002
 40
0.8750000000000002
 40
1.0
 40
1.0
 40
1.0
 40
1.0
 10
161.3702061361355
 20
112.1761559908169
 30
0.0
 10
161.5808494981354
 20
112.410773021762
 30
0.0
 10
161.7880459358924
 20
112.6486561577214
 30
0.0
 10
162.1895450705248
 20
113.1359704639903
 30
0.0
 10
162.3848214895708
 20
113.3860956887793
 30
0.0
 10
162.7446019822662
 20
113.9046858342303
 30
0.0
 10
162.9098608424156
 20
114.1721168181171
 30
0.0
 10
163.1025187518418
 20
114.6035319505156
 30
0.0
 10
163.1574834920518
 20
114.75355083244
 30
0.0
 10
163.2352192770159
 20
115.06628801117
 30
0.0
 10
163.2564854153243
 20
115.2240422579773
 30
0.0
 10
163.25837934461
 20
115.5427475378231
 30
0.0
 10
163.238153607543
 20
115.7051843380036
 30
0.0
 10
163.1636891972572
 20
116.0161363375863
 30
0.0
 10
163.1100500715112
 20
116.1668075759139
 30
0.0
 10
162.9153057661105
 20
116.6088913338825
 30
0.0
 10
162.7482556529323
 20
116.8789353470503
 30
0.0
 10
162.3879995342286
 20
117.3990429753317
 30
0.0
 10
162.1932471592083
 20
117.6487041881413
 30
0.0
 10
161.790237934736
 20
118.1381282999841
 30
0.0
 10
161.5818014163725
 20
118.377474223148
 30
0.0
 10
161.3702061361364
 20
118.6131515117159
 30
0.0
  0
SPLINE
  5
171
330
1F
100
AcDbEntity
  8
0
  6
HIDDEN
 62
     7
370
     0
100
AcDbSpline
210
0.0
220
0.0
230
1.0
 70
     8
 71
     3
 72
    68
 73
    64
 74
     0
 42
0.00000001
 43
0.00000001
 12
1.0
 22
0.0
 32
0.0
 13
1.0
 23
0.0
 33
0.0
 40
-0.0312500000000001
 40
-0.0312500000000001
 40
0.0
 40
0.0
 40
0.0312500000000003
 40
0.0312500000000003
 40
0.0625000000000004
 40
0.0625000000000004
 40
0.0937500000000004
 40
0.0937500000000004
 40
0.1250000000000005
 40
0.1250000000000005
 40
0.1562500000000006
 40
0.1562500000000006
 40
0.1875000000000006
 40
0.1875000000000006
 40
0.2500000000000005
 40
0.2500000000000005
 40
0.2812500000000005
 40
0.2812500000000005
 40
0.3125000000000005
 40
0.3125000000000005
 40
0.3437500000000006
 40
0.3437500000000006
 40
0.3750000000000006
 40
0.3750000000000006
 40
0.4062500000000006
 40
0.4062500000000006
 40
0.4375000000000006
 40
0.4375000000000006
 40
0.4687500000000006
 40
0.4687500000000006
 40
0.5000000000000006
 40
0.5000000000000006
 40
0.5312500000000006
 40
0.5312500000000006
 40
0.5625000000000004
 40
0.5625000000000004
 40
0.5937500000000004
 40
0.5937500000000004
 40
0.6250000000000003
 40
0.6250000000000003
 40
0.6562500000000003
 40
0.6562500000000003
 40
0.6875000000000003
 40
0.6875000000000003
 40
0.7187500000000002
 40
0.7187500000000002
 40
0.7500000000000002
 40
0.7500000000000002
 40
0.7812500000000002
 40
0.7812500000000002
 40
0.8125000000000001
 40
0.8125000000000001
 40
0.8437500000000001
 40
0.8437500000000001
 40
0.875
 40
0.875
 40
0.90625
 40
0.90625
 40
0.9375
 40
0.9375
 40
0.9687499999999999
 40
0.9687499999999999
 40
1.0
 40
1.0
 40
1.03125
 40
1.03125
 10
169.5899668008791
 20
117.6525414422578
 30
0.0
 10
169.924854320552
 20
117.9237826790047
 30
0.0
 10
170.1031205424877
 20
118.0414239718764
 30
0.0
 10
170.480145239381
 20
118.2427554958862
 30
0.0
 10
170.6803339607574
 20
118.3265636990998
 30
0.0
 10
171.0870020003882
 20
118.4546557226682
 30
0.0
 10
171.2949171664084
 20
118.4999605196283
 30
0.0
 10
171.7199054656318
 20
118.5531182309339
 30
0.0
 10
171.9359421166158
 20
118.5604004149694
 30
0.0
 10
172.3604530854673
 20
118.5368529774321
 30
0.0
 10
172.5709800588571
 20
118.5063487749552
 30
0.0
 10
172.9884652696441
 20
118.4064891614879
 30
0.0
 10
173.1913288032225
 20
118.3378932737272
 30
0.0
 10
173.7726453222373
 20
118.0805518305083
 30
0.0
 10
174.1330525750131
 20
117.8340019391983
 30
0.0
 10
174.5777915717747
 20
117.3807633831235
 30
0.0
 10
174.7129807919173
 20
117.213182803647
 30
0.0
 10
174.9459206665195
 20
116.8543207287357
 30
0.0
 10
175.0426040121743
 20
116.6655622083815
 30
0.0
 10
175.1958352768236
 20
116.2690485321732
 30
0.0
 10
175.2524522341918
 20
116.0587041230863
 30
0.0
 10
175.3179044360267
 20
115.6373155948035
 30
0.0
 10
175.3278627946539
 20
115.4247994756398
 30
0.0
 10
175.3010287854867
 20
114.9960247005396
 30
0.0
 10
175.2640091217139
 20
114.7834584723927
 30
0.0
 10
175.1468458426771
 20
114.3741638283147
 30
0.0
 10
175.0653069651822
 20
114.173315156607
 30
0.0
 10
174.8640677537783
 20
113.7961883980959
 30
0.0
 10
174.7451360186074
 20
113.6199680765663
 30
0.0
 10
174.4719622055152
 20
113.2912119555842
 30
0.0
 10
174.318101430805
 20
113.1399137876847
 30
0.0
 10
173.9881788327891
 20
112.8723266342054
 30
0.0
 10
173.8098570077175
 20
112.7538554734945
 30
0.0
 10
173.4318330077951
 20
112.5509686695597
 30
0.0
 10
173.2359040090139
 20
112.4683497151117
 30
0.0
 10
172.8308187211796
 20
112.3389095385809
 30
0.0
 10
172.6194839233096
 20
112.2919343081504
 30
0.0
 10
172.1955991336571
 20
112.2372193532322
 30
0.0
 10
171.9831638603949
 20
112.2289896047891
 30
0.0
 10
171.5573117930999
 20
112.2504811025898
 30
0.0
 10
171.3421676296903
 20
112.2808787248083
 30
0.0
 10
170.9270380899499
 20
112.3786211816964
 30
0.0
 10
170.7254131242062
 20
112.4457396954453
 30
0.0
 10
170.3343266249351
 20
112.6173827956056
 30
0.0
 10
170.1445070160442
 20
112.7227288543902
 30
0.0
 10
169.7939163958725
 20
112.9634317960848
 30
0.0
 10
169.630909916226
 20
113.0995546724175
 30
0.0
 10
169.3308475935374
 20
113.4052081416516
 30
0.0
 10
169.1955786963331
 20
113.5736598211404
 30
0.0
 10
168.9646347435002
 20
113.9299405074239
 30
0.0
 10
168.8671525240279
 20
114.1196941868305
 30
0.0
 10
168.7121699646234
 20
114.5223025491148
 30
0.0
 10
168.6573034438063
 20
114.7281422927878
 30
0.0
 10
168.5918955731421
 20
115.1487219291102
 30
0.0
 10
168.5817493273091
 20
115.3662237464079
 30
0.0
 10
168.6084176898486
 20
115.7929638853685
 30
0.0
 10
168.6444550816751
 20
116.0028665944557
 30
0.0
 10
168.761866227243
 20
116.4157554151142
 30
0.0
 10
168.8429937618612
 20
116.6160783598981
 30
0.0
 10
169.0427508060506
 20
116.9923168783632
 30
0.0
 10
169.1632533051767
 20
117.171771623611
 30
0.0
 10
169.4373337505426
 20
117.5021195517007
 30
0.0
 10
169.5899668008791
 20
117.6525414422578
 30
0.0
 10
169.924854320552
 20
117.9237826790047
 30
0.0
  0
CIRCLE
  5
172
330
1F
100
AcDbEntity
  8
0
  6
HIDDEN
 62
     7
370
     0
100
AcDbCircle
 10
171.8702061361
 20
115.3946537513
 30
0.0
 40
3.049999999999997
  0
CIRCLE
  5
173
330
1F
100
AcDbEntity
  8
0
  6
HIDDEN
 62
     7
370
     0
100
AcDbCircle
 10
197.8702061361
 20
115.3946537513
 30
0.0
 40
2.0
  0
LINE
  5
174
330
1F
100
AcDbEntity
  8
0
  6
HIDDEN
 62
     7
370
     0
100
AcDbLine
 10
220.714094224
 20
134.5304585109
 30
0.0
 11
241.9705482279
 21
134.5304585109
 31
0.0
  0
SPLINE
  5
175
330
1F
100
AcDbEntity
  8
0
  6
HIDDEN
 62
     7
370
     0
100
AcDbSpline
210
0.0
220
0.0
230
1.0
 70
     8
 71
     3
 72
     8
 73
     4
 74
     0
 42
0.00000001
 43
0.00000001
 12
1.0
 22
0.0
 32
0.0
 13
1.0
 23
0.0
 33
0.0
 40
0.0
 40
0.0
 40
0.0
 40
0.0
 40
1.0
 40
1.0
 40
1.0
 40
1.0
 10
220.7140942240415
 20
134.5304585108801
 30
0.0
 10
219.8829625085798
 20
129.3626168330046
 30
0.0
 10
219.2611349753087
 20
124.1659430190221
 30
0.0
 10
219.0688049744456
 20
118.910104924697
 30
0.0
  0
LINE
  5
176
330
1F
100
AcDbEntity
  8
0
  6
HIDDEN
 62
     7
370
     0
100
AcDbLine
 10
241.9705482279
 20
134.5304585109
 30
0.0
 11
240.6282282171
 21
115.3946537513
 31
0.0
  0
LINE
  5
177
330
1F
100
AcDbEntity
  8
0
  6
HIDDEN
 62
     7
370
     0
100
AcDbLine
 10
200.8702061361
 20
129.01025981
 30
0.0
 11
200.8702061361
 21
125.1981563815
 31
0.0
  0
LINE
  5
178
330
1F
100
AcDbEntity
  8
0
  6
HIDDEN
 62
     7
370
     0
100
AcDbLine
 10
206.8702061361
 20
125.5855270699
 30
0.0
 11
206.8702061361
 21
129.0106251416
 31
0.0
  0
LINE
  5
179
330
1F
100
AcDbEntity
  8
0
  6
HIDDEN
 62
     7
370
     0
100
AcDbLine
 10
185.8702061361
 20
95.8446537513
 30
0.0
 11
185.9630993549
 21
95.9375469701
 31
0.0
  0
LINE
  5
17A
330
1F
100
AcDbEntity
  8
0
  6
HIDDEN
 62
     7
370
     0
100
AcDbLine
 10
185.9630993549
 20
134.8517605325
 30
0.0
 11
185.8702061361
 21
134.9446537513
 31
0.0
  0
ARC
  5
17B
330
1F
100
AcDbEntity
  8
0
  6
HIDDEN
 62
     7
370
     0
100
AcDbCircle
 10
185.2559925738
 20
96.6446537513
 30
0.0
 40
1.000000000000018
100
AcDbArc
 50
315.0
 51
0.0
  0
ARC
  5
17C
330
1F
100
AcDbEntity
  8
0
  6
HIDDEN
 62
     7
370
     0
100
AcDbCircle
 10
185.2559925738
 20
96.6446537513
 30
0.0
 40
1.0
100
AcDbArc
 50
0.0
 51
52.1052014664
  0
ARC
  5
17D
330
1F
100
AcDbEntity
  8
0
  6
HIDDEN
 62
     7
370
     0
100
AcDbCircle
 10
185.2559925738
 20
134.1446537513
 30
0.0
 40
1.000000000000008
100
AcDbArc
 50
351.8087250651
 51
45.0
  0
ARC
  5
17E
330
1F
100
AcDbEntity
  8
0
  6
HIDDEN
 62
     7
370
     0
100
AcDbCircle
 10
185.2559925738
 20
134.1446537513
 30
0.0
 40
1.000000000000006
100
AcDbArc
 50
307.8947985336
 51
351.8087250651
  0
LINE
  5
17F
330
1F
100
AcDbEntity
  8
0
  6
HIDDEN
 62
     7
370
     0
100
AcDbLine
 10
186.2559925738
 20
96.6446537513
 30
0.0
 11
186.2559925738
 21
134.1446537513
 31
0.0
  0
LINE
  5
180
330
1F
100
AcDbEntity
  8
0
  6
HIDDEN
 62
     7
370
     0
100
AcDbLine
 10
186.2559925738
 20
96.6446537513
 30
0.0
 11
186.2559925738
 21
134.1446537513
 31
0.0
  0
LINE
  5
181
330
1F
100
AcDbEntity
  8
0
  6
HIDDEN
 62
     7
370
     0
100
AcDbLine
 10
201.3702061361
 20
125.0345303077
 30
0.0
 11
201.3702061361
 21
119.3432460149
 31
0.0
  0
LINE
  5
182
330
1F
100
AcDbEntity
  8
0
  6
HIDDEN
 62
     7
370
     0
100
AcDbLine
 10
206.3702061361
 20
119.3431773373
 30
0.0
 11
206.3702061361
 21
123.274009773
 31
0.0
  0
LINE
  5
183
330
1F
100
AcDbEntity
  8
0
  6
HIDDEN
 62
     7
370
     0
100
AcDbLine
 10
211.4827576079
 20
132.1391395231
 30
0.0
 11
203.9953618535
 21
127.2125839378
 31
0.0
  0
LINE
  5
184
330
1F
100
AcDbEntity
  8
0
  6
HIDDEN
 62
     7
370
     0
100
AcDbLine
 10
205.8152204057
 20
122.424745851
 30
0.0
 11
211.591094478
 21
126.2251546452
 31
0.0
  0
ARC
  5
185
330
1F
100
AcDbEntity
  8
0
  6
HIDDEN
 62
     7
370
     0
100
AcDbCircle
 10
163.3769256482
 20
104.8946537513
 30
0.0
 40
1.5
100
AcDbArc
 50
270.0
 51
315.0
  0
ARC
  5
186
330
1F
100
AcDbEntity
  8
0
  6
HIDDEN
 62
     7
370
     0
100
AcDbCircle
 10
163.3769256482
 20
125.8946537513
 30
0.0
 40
1.5
100
AcDbArc
 50
45.0
 51
90.0
  0
LINE
  5
187
330
1F
100
AcDbEntity
  8
0
  6
HIDDEN
 62
     7
370
     0
100
AcDbLine
 10
162.3702061361
 20
103.3946537513
 30
0.0
 11
163.3769256482
 21
103.3946537513
 31
0.0
  0
LINE
  5
188
330
1F
100
AcDbEntity
  8
0
  6
HIDDEN
 62
     7
370
     0
100
AcDbLine
 10
163.3769256482
 20
127.3946537513
 30
0.0
 11
162.3702061361
 21
127.3946537513
 31
0.0
  0
ARC
  5
189
330
1F
100
AcDbEntity
  8
0
  6
HIDDEN
 62
     7
370
     0
100
AcDbCircle
 10
162.3702061361
 20
104.8946537513
 30
0.0
 40
1.50000000000004
100
AcDbArc
 50
191.0958032831
 51
270.0
  0
ARC
  5
18A
330
1F
100
AcDbEntity
  8
0
  6
HIDDEN
 62
     7
370
     0
100
AcDbCircle
 10
162.3702061361
 20
125.8946537513
 30
0.0
 40
1.500000000000042
100
AcDbArc
 50
90.0
 51
168.9041967169
  0
LINE
  5
18B
330
1F
100
AcDbEntity
  8
0
  6
HIDDEN
 62
     7
370
     0
100
AcDbLine
 10
155.8702061361
 20
103.6312416828
 30
0.0
 11
156.8982459917
 21
104.2247807702
 31
0.0
  0
LINE
  5
18C
330
1F
100
AcDbEntity
  8
0
  6
HIDDEN
 62
     7
370
     0
100
AcDbLine
 10
156.8982459917
 20
126.5645267323
 30
0.0
 11
155.8702061361
 21
127.1580658197
 31
0.0
  0
LINE
  5
18D
330
1F
100
AcDbEntity
  8
0
  6
HIDDEN
 62
     7
370
     0
100
AcDbLine
 10
164.43758582
 20
103.8339935795
 30
0.0
 11
165.4982459917
 21
104.8946537513
 31
0.0
  0
LINE
  5
18E
330
1F
100
AcDbEntity
  8
0
  6
HIDDEN
 62
     7
370
     0
100
AcDbLine
 10
165.4982459917
 20
125.8946537513
 30
0.0
 11
164.43758582
 21
126.955313923
 31
0.0
  0
LINE
  5
18F
330
1F
100
AcDbEntity
  8
0
  6
HIDDEN
 62
     7
370
     0
100
AcDbLine
 10
156.8982459917
 20
104.2247807702
 30
0.0
 11
159.3982459917
 21
104.8946537513
 31
0.0
  0
LINE
  5
190
330
1F
100
AcDbEntity
  8
0
  6
HIDDEN
 62
     7
370
     0
100
AcDbLine
 10
159.3982459917
 20
125.8946537513
 30
0.0
 11
156.8982459917
 21
126.5645267323
 31
0.0
  0
LINE
  5
191
330
1F
100
AcDbEntity
  8
0
  6
HIDDEN
 62
     7
370
     0
100
AcDbLine
 10
160.8982459917
 20
126.1833288859
 30
0.0
 11
160.3982459917
 21
125.8946537513
 31
0.0
  0
LINE
  5
192
330
1F
100
AcDbEntity
  8
0
  6
HIDDEN
 62
     7
370
     0
100
AcDbLine
 10
160.3982459917
 20
104.8946537513
 30
0.0
 11
160.8982459917
 21
104.6059786167
 31
0.0
  0
LINE
  5
193
330
1F
100
AcDbEntity
  8
0
  6
HIDDEN
 62
     7
370
     0
100
AcDbLine
 10
165.4982459917
 20
104.8946537513
 30
0.0
 11
175.3702061361
 21
104.8946537513
 31
0.0
  0
LINE
  5
194
330
1F
100
AcDbEntity
  8
0
  6
HIDDEN
 62
     7
370
     0
100
AcDbLine
 10
175.3702061361
 20
125.8946537513
 30
0.0
 11
165.4982459917
 21
125.8946537513
 31
0.0
  0
LINE
  5
195
330
1F
100
AcDbEntity
  8
0
  6
HIDDEN
 62
     7
370
     0
100
AcDbLine
 10
159.3982459917
 20
104.8946537513
 30
0.0
 11
160.3982459917
 21
104.8946537513
 31
0.0
  0
LINE
  5
196
330
1F
100
AcDbEntity
  8
0
  6
HIDDEN
 62
     7
370
     0
100
AcDbLine
 10
160.3982459917
 20
125.8946537513
 30
0.0
 11
159.3982459917
 21
125.8946537513
 31
0.0
  0
ARC
  5
197
330
1F
100
AcDbEntity
  8
0
  6
HIDDEN
 62
     7
370
     0
100
AcDbCircle
 10
175.3702061361
 20
105.3946537513
 30
0.0
 40
0.5
100
AcDbArc
 50
270.0
 51
0.0
  0
ARC
  5
198
330
1F
100
AcDbEntity
  8
0
  6
HIDDEN
 62
     7
370
     0
100
AcDbCircle
 10
175.3702061361
 20
125.3946537513
 30
0.0
 40
0.5
100
AcDbArc
 50
0.0
 51
90.0
  0
LINE
  5
199
330
1F
100
AcDbEntity
  8
0
  6
HIDDEN
 62
     7
370
     0
100
AcDbLine
 10
175.8702061361
 20
107.1446537513
 30
0.0
 11
176.8702061361
 21
108.1446537513
 31
0.0
  0
LINE
  5
19A
330
1F
100
AcDbEntity
  8
0
  6
HIDDEN
 62
     7
370
     0
100
AcDbLine
 10
176.8702061361
 20
122.6446537513
 30
0.0
 11
175.8702061361
 21
123.6446537513
 31
0.0
  0
LINE
  5
19B
330
1F
100
AcDbEntity
  8
0
  6
HIDDEN
 62
     7
370
     0
100
AcDbLine
 10
209.8702061361
 20
122.6446537513
 30
0.0
 11
176.8702061361
 21
122.6446537513
 31
0.0
  0
LINE
  5
19C
330
1F
100
AcDbEntity
  8
0
  6
HIDDEN
 62
     7
370
     0
100
AcDbLine
 10
176.8702061361
 20
108.1446537513
 30
0.0
 11
209.8702061361
 21
108.1446537513
 31
0.0
  0
LINE
  5
19D
330
1F
100
AcDbEntity
  8
0
  6
HIDDEN
 62
     7
370
     0
100
AcDbLine
 10
209.8702061361
 20
108.1446537513
 30
0.0
 11
214.2264456241
 21
115.3946537513
 31
0.0
  0
LINE
  5
19E
330
1F
100
AcDbEntity
  8
0
  6
HIDDEN
 62
     7
370
     0
100
AcDbLine
 10
214.2264456241
 20
115.3946537513
 30
0.0
 11
209.8702061361
 21
122.6446537513
 31
0.0
  0
LINE
  5
19F
330
1F
100
AcDbEntity
  8
0
  6
HIDDEN
 62
     7
370
     0
100
AcDbLine
 10
233.7833818073
 20
125.7717054035
 30
0.0
 11
233.304704417
 21
124.9808575722
 31
0.0
  0
LINE
  5
1A0
330
1F
100
AcDbEntity
  8
0
  6
HIDDEN
 62
     7
370
     0
100
AcDbLine
 10
239.2931837218
 20
121.3562037106
 30
0.0
 11
239.7718611121
 21
122.1470515419
 31
0.0
  0
LINE
  5
1A1
330
1F
100
AcDbEntity
  8
0
  6
HIDDEN
 62
     7
370
     0
100
AcDbLine
 10
228.9219140908
 20
130.3502315827
 30
0.0
 11
227.9581616595
 21
128.7579660284
 31
0.0
  0
LINE
  5
1A2
330
1F
100
AcDbEntity
  8
0
  6
HIDDEN
 62
     7
370
     0
100
AcDbLine
 10
238.5586451354
 20
124.9986612895
 30
0.0
 11
240.3194836206
 21
132.3733746912
 31
0.0
  0
LINE
  5
1A3
330
1F
100
AcDbEntity
  8
0
  6
HIDDEN
 62
     7
370
     0
100
AcDbLine
 10
232.6618915605
 20
125.2706862158
 30
0.0
 11
229.8946778703
 21
120.6988284471
 31
0.0
  0
LINE
  5
1A4
330
1F
100
AcDbEntity
  8
0
  6
HIDDEN
 62
     7
370
     0
100
AcDbLine
 10
237.0808530361
 20
116.3492438133
 30
0.0
 11
239.8480667263
 21
120.9211015819
 31
0.0
  0
LINE
  5
1A5
330
1F
100
AcDbEntity
  8
0
  6
HIDDEN
 62
     7
370
     0
100
AcDbLine
 10
235.235485349
 20
139.1981787912
 30
0.0
 11
234.6501259547
 21
138.2310760684
 31
0.0
  0
LINE
  5
1A6
330
1F
100
AcDbEntity
  8
0
  6
HIDDEN
 62
     7
370
     0
100
AcDbLine
 10
240.1253070334
 20
134.9171068235
 30
0.0
 11
240.7106664277
 21
135.8842095463
 31
0.0
  0
LINE
  5
1A7
330
1F
100
AcDbEntity
  8
0
  6
HIDDEN
 62
     7
370
     0
100
AcDbLine
 10
234.8628127731
 20
135.3158801451
 30
0.0
 11
233.5594127459
 21
129.8570026104
 31
0.0
  0
LINE
  5
1A8
330
1F
100
AcDbEntity
  8
VERMASSUNG
  6
CENTERX2
100
AcDbLine
 10
245.8702061361
 20
150.3946537513
 30
0.0
 11
260.2045513053
 21
150.3946537513
 31
0.0
  0
LINE
  5
1A9
330
1F
100
AcDbEntity
  8
VERMASSUNG
  6
CENTERX2
100
AcDbLine
 10
245.8702061361
 20
150.3946537513
 30
0.0
 11
245.8702061361
 21
115.3946537513
 31
0.0
  0
LINE
  5
1AA
330
1F
100
AcDbEntity
  8
VERMASSUNG
  6
CENTERX2
100
AcDbLine
 10
151.5578470192
 20
115.3946537513
 30
0.0
 11
245.8702061361
 21
115.3946537513
 31
0.0
  0
DIMENSION
  5
1AB
330
1F
100
AcDbEntity
  8
VERMASSUNG
100
AcDbDimension
  2
_D
 10
267.1632933851
 20
115.3946537513
 30
0.0
 11
267.1632933851
 21
132.8946537513
 31
0.0
 70
   160
  1
<>
 71
     2
 42
-1.0
  3
SLDDIMSTYLE0
100
AcDbAlignedDimension
 13
245.8702061361
 23
150.3946537513
 33
0.0
 14
245.8702061361
 24
115.3946537513
 34
0.0
 50
90.0
100
AcDbRotatedDimension
  0
DIMENSION
  5
1B8
330
1F
100
AcDbEntity
  8
VERMASSUNG
100
AcDbDimension
  2
_D_1
 10
245.8702061361
 20
154.362873036
 30
0.0
 11
215.8702061361
 21
154.362873036
 31
0.0
 70
   160
  1
<>
 71
     2
 42
-1.0
  3
SLDDIMSTYLE0
100
AcDbAlignedDimension
 13
185.8702061361
 23
140.0946537513
 33
0.0
 14
245.8702061361
 24
150.3946537513
 34
0.0
100
AcDbRotatedDimension
  0
DIMENSION
  5
1C4
330
1F
100
AcDbEntity
  8
VERMASSUNG
100
AcDbDimension
  2
_D_2
 10
245.8702061361
 20
162.4021713083
 30
0.0
 11
200.8702061361
 21
162.4021713083
 31
0.0
 70
   160
  1
<>
 71
     2
 42
-1.0
  3
SLDDIMSTYLE1
100
AcDbAlignedDimension
 13
155.8702061361
 23
131.3879795894
 33
0.0
 14
245.8702061361
 24
150.3946537513
 34
0.0
100
AcDbRotatedDimension
  0
DIMENSION
  5
1CF
330
1F
100
AcDbEntity
  8
VERMASSUNG
100
AcDbDimension
  2
_D_3
 10
260.2045513053
 20
150.3946537513
 30
0.0
 11
253.4427399946
 21
142.4343339172
 31
0.0
 70
   162
  1
<>
 71
     1
 42
-1.0
  3
SLDDIMSTYLE2
100
AcDb2LineAngularDimension
 13
245.8707062377
 23
149.9745238525
 33
0.0
 14
245.1145753928
 24
135.701414172
 34
0.0
 15
245.8702061361
 25
150.3946537513
 35
0.0
 16
253.4427399946
 26
142.4343339172
 36
0.0
  0
DIMENSION
  5
1D8
330
1F
100
AcDbEntity
  8
VERMASSUNG
100
AcDbDimension
  2
_D_4
 10
148.478697256
 20
90.3946537513
 30
0.0
 11
148.478697256
 21
115.3946537513
 31
0.0
 70
   160
  1
PSC%%c<>
 71
     2
 42
-1.0
  3
SLDDIMSTYLE1
100
AcDbAlignedDimension
 13
186.1702061361
 23
140.3946537513
 33
0.0
 14
186.1702061361
 24
90.3946537513
 34
0.0
 50
90.0
100
AcDbRotatedDimension
  0
LINE
  5
1E4
330
1F
100
AcDbEntity
  8
0
  6
Continuous
 62
     7
370
    15
100
AcDbLine
 10
92.0338440968
 20
148.3025792974
 30
0.0
 11
89.3216115704
 21
148.7808171648
 31
0.0
  0
LINE
  5
1E5
330
1F
100
AcDbEntity
  8
0
  6
Continuous
 62
     7
370
    15
100
AcDbLine
 10
92.2824736966
 20
147.9501742858
 30
0.0
 11
92.0437021462
 21
148.2952143985
 31
0.0
  0
LINE
  5
1E6
330
1F
100
AcDbEntity
  8
0
  6
Continuous
 62
     7
370
    15
100
AcDbLine
 10
89.3712533919
 20
149.2996867734
 30
0.0
 11
83.1519815996
 21
150.3963153798
 31
0.0
  0
LINE
  5
1E7
330
1F
100
AcDbEntity
  8
0
  6
Continuous
 62
     7
370
    15
100
AcDbLine
 10
82.5307855897
 20
146.7483956355
 30
0.0
 11
82.0891213419
 21
146.2116371828
 31
0.0
  0
LINE
  5
1E8
330
1F
100
AcDbEntity
  8
0
  6
Continuous
 62
     7
370
    15
100
AcDbLine
 10
78.8360197378
 20
132.1689635503
 30
0.0
 11
79.0691912456
 21
131.5086297679
 31
0.0
  0
LINE
  5
1E9
330
1F
100
AcDbEntity
  8
0
  6
Continuous
 62
     7
370
    15
100
AcDbLine
 10
77.8106391711
 20
127.9776776198
 30
0.0
 11
78.1260641573
 21
127.9220599669
 31
0.0
  0
ARC
  5
1EA
330
1F
100
AcDbEntity
  8
0
  6
Continuous
 62
     7
370
    15
100
AcDbCircle
 10
83.2042439191
 20
115.3946537513
 30
0.0
 40
25.5
100
AcDbArc
 50
358.1073940568
 51
0.0
  0
LINE
  5
1EB
330
1F
100
AcDbEntity
  8
0
  6
Continuous
 62
     7
370
    15
100
AcDbLine
 10
77.931666868
 20
119.97606838
 30
0.0
 11
108.6903332083
 21
114.5524856972
 31
0.0
  0
LINE
  5
1EC
330
1F
100
AcDbEntity
  8
0
  6
Continuous
 62
     7
370
    15
100
AcDbLine
 10
80.7013987845
 20
135.195976122
 30
0.0
 11
77.931666868
 21
119.97606838
 31
0.0
  0
LINE
  5
1ED
330
1F
100
AcDbEntity
  8
0
  6
Continuous
 62
     7
370
    15
100
AcDbLine
 10
80.7013987845
 20
135.195976122
 30
0.0
 11
89.7315853557
 21
133.60371068
 31
0.0
  0
LINE
  5
1EE
330
1F
100
AcDbEntity
  8
0
  6
Continuous
 62
     7
370
    15
100
AcDbLine
 10
89.7315853557
 20
133.60371068
 30
0.0
 11
89.8102732657
 21
134.0361069876
 31
0.0
  0
LINE
  5
1EF
330
1F
100
AcDbEntity
  8
0
  6
Continuous
 62
     7
370
    15
100
AcDbLine
 10
92.2747129856
 20
147.5784089404
 30
0.0
 11
92.326928517
 21
147.8653345245
 31
0.0
  0
LINE
  5
1F0
330
1F
100
AcDbEntity
  8
0
  6
Continuous
 62
     7
370
    15
100
AcDbLine
 10
94.9934391586
 20
147.3951581854
 30
0.0
 11
92.326928517
 21
147.8653345245
 31
0.0
  0
ARC
  5
1F1
330
1F
100
AcDbEntity
  8
0
  6
Continuous
 62
     7
370
    15
100
AcDbCircle
 10
80.2042439191
 20
117.8946537513
 30
0.0
 40
32.99999999999999
100
AcDbArc
 50
30.2726413189
 51
63.3744720331
  0
LINE
  5
1F2
330
1F
100
AcDbEntity
  8
0
  6
Continuous
 62
     7
370
    15
100
AcDbLine
 10
108.7042434422
 20
134.5304585981
 30
0.0
 11
108.7042434422
 21
115.3946537513
 31
0.0
  0
LWPOLYLINE
  5
1F3
330
1F
100
AcDbEntity
  8
0
  6
Continuous
 62
     7
370
    15
100
AcDbPolyline
 90
       34
 70
   128
 43
0.0
 10
77.2711170187
 20
120.5125511612
 10
77.3502859568
 20
120.5628169689
 10
77.4485595806
 20
120.7358431991
 10
77.5623862913
 20
121.0253764863
 10
77.6876524372
 20
121.4209520246
 10
77.8198299279
 20
121.908273081
 10
77.95414201
 20
122.4697264831
 10
78.0857341645
 20
123.0850196432
 10
78.2098505927
 20
123.7319149065
 10
78.3220046481
 20
124.3870304886
 10
78.4181432148
 20
125.0266898412
 10
78.4947915284
 20
125.6277738127
 10
78.5491798354
 20
126.1685583729
 10
78.5793416483
 20
126.6294969234
 10
78.5841873197
 20
126.9939299661
 10
78.5635412952
 20
127.2486867371
 10
78.5181500299
 20
127.3845592502
 10
78.4496545142
 20
127.3966366413
 10
78.3605297377
 20
127.2844830516
 10
78.2539966798
 20
127.0521515969
 10
78.1339068247
 20
126.7080390814
 10
78.0045992045
 20
126.2645823869
 10
77.8707485927
 20
125.7378095749
 10
77.7371913476
 20
125.1467606041
 10
77.608755911
 20
124.5127953577
 10
77.4900835289
 20
123.8588290277
 10
77.3854634075
 20
123.2084967184
 10
77.2986767164
 20
122.5853026833
 10
77.2328606157
 20
122.0117718901
 10
77.1903932376
 20
121.5086323197
 10
77.1728098674
 20
121.0940694425
 10
77.1807461327
 20
120.7830659102
 10
77.2139147205
 20
120.5868627864
 10
77.2711170187
 20
120.5125511612
  0
LWPOLYLINE
  5
1F4
330
1F
100
AcDbEntity
  8
0
  6
Continuous
 62
     7
370
    15
100
AcDbPolyline
 90
       13
 70
   128
 43
0.0
 10
78.2679329908
 20
130.7366304088
 10
78.2579580603
 20
130.701150744
 10
78.1476871392
 20
130.2674030873
 10
78.0387568569
 20
129.7651967022
 10
77.93859032
 20
129.2287539679
 10
77.8540145887
 20
128.6946348834
 10
77.7907922214
 20
128.1992364663
 10
77.7532329133
 20
127.7763219538
 10
77.7438954731
 20
127.4547101918
 10
77.76341646
 20
127.2563189256
 10
77.8104654795
 20
127.1946690965
 10
77.8818364536
 20
127.2739609692
 10
77.9726650847
 20
127.4887910101
  0
LINE
  5
1F5
330
1F
100
AcDbEntity
  8
0
  6
Continuous
 62
     7
370
    15
100
AcDbLine
 10
77.931666868
 20
119.97606838
 30
0.0
 11
71.1001182256
 21
92.9504968214
 31
0.0
  0
ARC
  5
1F6
330
1F
100
AcDbEntity
  8
0
  6
Continuous
 62
     7
370
    15
100
AcDbCircle
 10
83.2042439191
 20
115.3946537513
 30
0.0
 40
25.5
100
AcDbArc
 50
240.2819913562
 51
241.6620308334
  0
SPLINE
  5
1F7
330
1F
100
AcDbEntity
  8
0
  6
Continuous
 62
     7
370
    15
100
AcDbSpline
210
0.0
220
0.0
230
1.0
 70
     8
 71
     3
 72
    10
 73
     6
 74
     0
 42
0.00000001
 43
0.00000001
 12
1.0
 22
0.0
 32
0.0
 13
1.0
 23
0.0
 33
0.0
 40
0.0
 40
0.0
 40
0.0
 40
0.0
 40
0.5
 40
0.5
 40
1.0
 40
1.0
 40
1.0
 40
1.0
 10
70.56308649631269
 20
93.24852228292556
 30
0.0
 10
70.581949111891
 20
93.4068016641825
 30
0.0
 10
70.59333712588648
 20
93.54631164856166
 30
0.0
 10
70.59694741904242
 20
93.7486288106967
 30
0.0
 10
70.58920333909808
 20
93.81083652421232
 30
0.0
 10
70.57162547407472
 20
93.82112943967266
 30
0.0
  0
ARC
  5
1F8
330
1F
100
AcDbEntity
  8
0
  6
Continuous
 62
     7
370
    15
100
AcDbCircle
 10
83.2042439191
 20
115.3946537513
 30
0.0
 40
25.0
100
AcDbArc
 50
238.8286647104
 51
239.6484163743
  0
ARC
  5
1F9
330
1F
100
AcDbEntity
  8
0
  6
Continuous
 62
     7
370
    15
100
AcDbCircle
 10
83.2042439191
 20
115.3946537513
 30
0.0
 40
25.0
100
AcDbArc
 50
100.3515836257
 51
101.1713352896
  0
SPLINE
  5
1FA
330
1F
100
AcDbEntity
  8
0
  6
Continuous
 62
     7
370
    15
100
AcDbSpline
210
0.0
220
0.0
230
1.0
 70
     8
 71
     3
 72
    10
 73
     6
 74
     0
 42
0.00000001
 43
0.00000001
 12
1.0
 22
0.0
 32
0.0
 13
1.0
 23
0.0
 33
0.0
 40
0.0
 40
0.0
 40
0.0
 40
0.0
 40
0.5
 40
0.5
 40
1.0
 40
1.0
 40
1.0
 40
1.0
 10
78.71204546219577
 20
139.9877453223565
 30
0.0
 10
78.73723152441823
 20
139.9923458334196
 30
0.0
 10
78.77569971213713
 20
140.0790659777782
 30
0.0
 10
78.8635012797216
 20
140.3688159022772
 30
0.0
 10
78.9109159355882
 20
140.5646461317679
 30
0.0
 10
78.95531375223531
 20
140.7827413001564
 30
0.0
  0
SPLINE
  5
1FB
330
1F
100
AcDbEntity
  8
0
  6
Continuous
 62
     7
370
    15
100
AcDbSpline
210
0.0
220
0.0
230
1.0
 70
     8
 71
     3
 72
     8
 73
     4
 74
     0
 42
0.00000001
 43
0.00000001
 12
1.0
 22
0.0
 32
0.0
 13
1.0
 23
0.0
 33
0.0
 40
0.0
 40
0.0
 40
0.0
 40
0.0
 40
1.0
 40
1.0
 40
1.0
 40
1.0
 10
78.95531375223531
 20
140.7827413001564
 30
0.0
 10
79.03750564491426
 20
141.1864921155729
 30
0.0
 10
79.11971612690722
 20
141.590156803703
 30
0.0
 10
79.20194290081032
 20
141.993746008789
 30
0.0
  0
LINE
  5
1FC
330
1F
100
AcDbEntity
  8
0
  6
Continuous
 62
     7
370
    15
100
AcDbLine
 10
79.2019428967
 20
141.9937461603
 30
0.0
 11
79.7218036654
 21
141.9020798046
 31
0.0
  0
ARC
  5
1FD
330
1F
100
AcDbEntity
  8
0
  6
Continuous
 62
     7
370
    15
100
AcDbCircle
 10
79.5770789744
 20
142.807384545
 30
0.0
 40
0.9167998195798468
100
AcDbArc
 50
279.0826206494
 51
331.93677829
  0
LINE
  5
1FE
330
1F
100
AcDbEntity
  8
0
  6
Continuous
 62
     7
370
    15
100
AcDbLine
 10
77.9726650847
 20
127.4887910101
 30
0.0
 11
80.7013987845
 21
135.195976122
 31
0.0
  0
LINE
  5
1FF
330
1F
100
AcDbEntity
  8
0
  6
Continuous
 62
     7
370
    15
100
AcDbLine
 10
92.326928517
 20
147.8653345245
 30
0.0
 11
92.3266677467
 21
148.1033507723
 31
0.0
  0
LINE
  5
200
330
1F
100
AcDbEntity
  8
0
  6
Continuous
 62
     7
370
    15
100
AcDbLine
 10
92.3266677467
 20
148.1033507723
 30
0.0
 11
94.2229597179
 21
147.7689836162
 31
0.0
  0
ARC
  5
201
330
1F
100
AcDbEntity
  8
0
  6
Continuous
 62
     7
370
    15
100
AcDbCircle
 10
80.2042439191
 20
117.8946537513
 30
0.0
 40
33.0
100
AcDbArc
 50
63.3744720331
 51
64.8613894329
  0
LINE
  5
202
330
1F
100
AcDbEntity
  8
0
  6
Continuous
 62
     7
370
    15
100
AcDbLine
 10
92.3266677467
 20
148.1033507723
 30
0.0
 11
92.2758324353
 21
147.9597706336
 31
0.0
  0
ARC
  5
203
330
1F
100
AcDbEntity
  8
0
  6
Continuous
 62
     7
370
    15
100
AcDbCircle
 10
83.2042439191
 20
115.3946537513
 30
0.0
 40
25.50000000000001
100
AcDbArc
 50
241.6620308334
 51
358.1073940568
  0
SPLINE
  5
204
330
1F
100
AcDbEntity
  8
0
  6
Continuous
 62
     7
370
    15
100
AcDbSpline
210
0.0
220
0.0
230
1.0
 70
     8
 71
     3
 72
    18
 73
    14
 74
     0
 42
0.00000001
 43
0.00000001
 12
1.0
 22
0.0
 32
0.0
 13
1.0
 23
0.0
 33
0.0
 40
0.0
 40
0.0
 40
0.0
 40
0.0
 40
0.2500000000000009
 40
0.2500000000000009
 40
0.3750000000000004
 40
0.3750000000000004
 40
0.4999999999999999
 40
0.4999999999999999
 40
0.6249999999999993
 40
0.6249999999999993
 40
0.7499999999999988
 40
0.7499999999999988
 40
1.0
 40
1.0
 40
1.0
 40
1.0
 10
76.01692243794102
 20
139.3392232802192
 30
0.0
 10
76.31198138801861
 20
139.4277896471163
 30
0.0
 10
76.59331571823999
 20
139.5062949777698
 30
0.0
 10
76.99228113058531
 20
139.6109792754347
 30
0.0
 10
77.12162294800876
 20
139.6437193371955
 30
0.0
 10
77.36312220707956
 20
139.7030217922106
 30
0.0
 10
77.47644456365694
 20
139.7298967559052
 30
0.0
 10
77.6875741101298
 20
139.7786257773704
 30
0.0
 10
77.78612432330362
 20
139.8006389396122
 30
0.0
 10
77.96234337505247
 20
139.8390930300556
 30
0.0
 10
78.03940207833146
 20
139.8554173756162
 30
0.0
 10
78.23747321948447
 20
139.8966818739033
 30
0.0
 10
78.32576117652329
 20
139.9140679201939
 30
0.0
 10
78.36065488480824
 20
139.9209589207603
 30
0.0
  0
SPLINE
  5
205
330
1F
100
AcDbEntity
  8
0
  6
Continuous
 62
     7
370
    15
100
AcDbSpline
210
0.0
220
0.0
230
1.0
 70
     8
 71
     3
 72
    14
 73
    10
 74
     0
 42
0.00000001
 43
0.00000001
 12
1.0
 22
0.0
 32
0.0
 13
1.0
 23
0.0
 33
0.0
 40
0.0
 40
0.0
 40
0.0
 40
0.0
 40
0.25
 40
0.25
 40
0.5
 40
0.5
 40
0.75
 40
0.75
 40
1.0
 40
1.0
 40
1.0
 40
1.0
 10
70.26426863613524
 20
94.00407078405846
 30
0.0
 10
70.23388243007344
 20
94.02245255308198
 30
0.0
 10
70.15972907249174
 20
94.06722567461917
 30
0.0
 10
69.92809237192934
 20
94.21064194885953
 30
0.0
 10
69.77602501305063
 20
94.30601235959435
 30
0.0
 10
69.40903073921764
 20
94.54423524091159
 30
0.0
 10
69.20080008523871
 20
94.68283541135116
 30
0.0
 10
68.74789247117668
 20
94.99637536881687
 30
0.0
 10
68.5075984011715
 20
95.16835046144514
 30
0.0
 10
68.26084585787312
 20
95.35232718011756
 30
0.0
  0
ELLIPSE
  5
206
330
1F
100
AcDbEntity
  8
0
  6
Continuous
 62
     7
370
    15
100
AcDbEllipse
 10
71.1956367378
 20
129.1821470842
 30
0.0
 11
1.88934295266202
 21
2.635290221741657
 31
0.0
210
0.0
220
0.0
230
1.0
 40
0.7500963819
 41
0.0
 42
6.283185307179586
  0
ARC
  5
207
330
1F
100
AcDbEntity
  8
0
  6
Continuous
 62
     7
370
    15
100
AcDbCircle
 10
83.2042439191
 20
115.3946537513
 30
0.0
 40
25.00000000000001
100
AcDbArc
 50
106.7079165462
 51
233.2920834538
  0
SPLINE
  5
208
330
1F
100
AcDbEntity
  8
0
  6
Continuous
 62
     7
370
    15
100
AcDbSpline
210
0.0
220
0.0
230
1.0
 70
     8
 71
     3
 72
     8
 73
     4
 74
     0
 42
0.00000001
 43
0.00000001
 12
1.0
 22
0.0
 32
0.0
 13
1.0
 23
0.0
 33
0.0
 40
0.0
 40
0.0
 40
0.0
 40
0.0
 40
1.0
 40
1.0
 40
1.0
 40
1.0
 10
69.7217329688833
 20
127.1312061531424
 30
0.0
 10
69.72750003609815
 20
127.2991268350792
 30
0.0
 10
69.71366301325125
 20
127.4669907293826
 30
0.0
 10
69.68720458844793
 20
127.6296507295145
 30
0.0
  0
SPLINE
  5
209
330
1F
100
AcDbEntity
  8
0
  6
Continuous
 62
     7
370
    15
100
AcDbSpline
210
0.0
220
0.0
230
1.0
 70
     8
 71
     3
 72
     9
 73
     5
 74
     0
 42
0.00000001
 43
0.00000001
 12
1.0
 22
0.0
 32
0.0
 13
1.0
 23
0.0
 33
0.0
 40
0.0
 40
0.0
 40
0.0
 40
0.0
 40
0.67076438687836
 40
1.0
 40
1.0
 40
1.0
 40
1.0
 10
69.68720502239192
 20
127.6296507555366
 30
0.0
 10
69.42993364759353
 20
127.722410325794
 30
0.0
 10
69.04638410347464
 20
127.8606996745906
 30
0.0
 10
68.6977838366905
 20
127.7613720833833
 30
0.0
 10
68.58301221412147
 20
127.7286699029923
 30
0.0
  0
SPLINE
  5
20A
330
1F
100
AcDbEntity
  8
0
  6
Continuous
 62
     7
370
    15
100
AcDbSpline
210
0.0
220
0.0
230
1.0
 70
     8
 71
     3
 72
    11
 73
     7
 74
     0
 42
0.00000001
 43
0.00000001
 12
1.0
 22
0.0
 32
0.0
 13
1.0
 23
0.0
 33
0.0
 40
0.0
 40
0.0
 40
0.0
 40
0.0
 40
0.129996989717927
 40
0.3515550389533234
 40
0.6620454289553127
 40
1.0
 40
1.0
 40
1.0
 40
1.0
 10
70.9759440554353
 20
126.2594116839886
 30
0.0
 10
70.91558479788861
 20
126.2921669969723
 30
0.0
 10
70.75235331703608
 20
126.3807482430218
 30
0.0
 10
70.43428253812603
 20
126.5982515824851
 30
0.0
 10
70.0854036632946
 20
126.8780872730357
 30
0.0
 10
69.84633168268422
 20
127.0444838965296
 30
0.0
 10
69.72173287552322
 20
127.1312059822798
 30
0.0
  0
LWPOLYLINE
  5
20B
330
1F
100
AcDbEntity
  8
0
  6
Continuous
 62
     7
370
    15
100
AcDbPolyline
 90
        6
 70
   128
 43
0.0
 10
69.7420906557
 20
127.7141682792
 10
69.7238600163
 20
127.6860954228
 10
69.6406360997
 20
127.5579417113
 10
69.4934070392
 20
127.3312289256
 10
69.2883214263
 20
127.0154248911
 10
69.0974543152
 20
126.7215153191
  0
LWPOLYLINE
  5
20C
330
1F
100
AcDbEntity
  8
0
  6
Continuous
 62
     7
370
    15
100
AcDbPolyline
 90
        5
 70
   128
 43
0.0
 10
69.7217328755
 20
127.1312059823
 10
69.6873167811
 20
127.0782109338
 10
69.5853695555
 20
126.9212244067
 10
69.4210768027
 20
126.6682362172
 10
69.3309648244
 20
126.5294766042
  0
LINE
  5
20D
330
1F
100
AcDbEntity
  8
0
  6
Continuous
 62
     7
370
    15
100
AcDbLine
 10
86.7976915373
 20
134.9116656917
 30
0.0
 11
89.1331984943
 21
147.7454695839
 31
0.0
  0
LINE
  5
20E
330
1F
100
AcDbEntity
  8
0
  6
Continuous
 62
     7
370
    15
100
AcDbLine
 10
89.6184003262
 20
134.4142984587
 30
0.0
 11
91.9539077489
 21
147.2481023508
 31
0.0
  0
LINE
  5
20F
330
1F
100
AcDbEntity
  8
0
  6
Continuous
 62
     7
370
    15
100
AcDbLine
 10
92.2196178047
 20
147.2171936172
 30
0.0
 11
89.8841108477
 21
134.3833897251
 31
0.0
  0
ARC
  5
210
330
1F
100
AcDbEntity
  8
0
  6
Continuous
 62
     7
370
    15
100
AcDbCircle
 10
89.4321769213
 20
147.9695346026
 30
0.0
 40
2.62289741710276
100
AcDbArc
 50
344.0349080515
 51
7.2948744274
  0
ARC
  5
211
330
1F
100
AcDbEntity
  8
0
  6
Continuous
 62
     7
370
    15
100
AcDbCircle
 10
90.1587060384
 20
147.7631100733
 30
0.0
 40
2.131990170090404
100
AcDbArc
 50
345.163622121
 51
5.033695799
  0
ARC
  5
212
330
1F
100
AcDbEntity
  8
0
  6
Continuous
 62
     7
370
    15
100
AcDbCircle
 10
83.9040264045
 20
135.3745396503
 30
0.0
 40
5.794491562080379
100
AcDbArc
 50
342.7428032458
 51
350.461156808
  0
ARC
  5
213
330
1F
100
AcDbEntity
  8
0
  6
Continuous
 62
     7
370
    15
100
AcDbCircle
 10
85.9769627479
 20
135.0361132473
 30
0.0
 40
3.961294519484129
100
AcDbArc
 50
342.4375004652
 51
350.5158181277
  0
LINE
  5
214
330
1F
100
AcDbEntity
  8
0
  6
Continuous
 62
     7
370
    15
100
AcDbLine
 10
89.7536148598
 20
133.8408086437
 30
0.0
 11
89.6733083112
 21
133.6139868933
 31
0.0
  0
LWPOLYLINE
  5
215
330
1F
100
AcDbEntity
  8
0
  6
Continuous
 62
     7
370
    15
100
AcDbPolyline
 90
       34
 70
   128
 43
0.0
 10
78.4254377989
 20
127.3764362547
 10
78.5002965761
 20
127.4010743934
 10
78.5526960438
 20
127.3013204324
 10
78.5807423575
 20
127.0807804528
 10
78.5834217725
 20
126.7474247131
 10
78.5606374314
 20
126.3133026648
 10
78.5132126233
 20
125.7941024366
 10
78.442861913
 20
125.2085911098
 10
78.3521273455
 20
124.5779292646
 10
78.2442885732
 20
123.9249119523
 10
78.1232431812
 20
123.2731407496
 10
77.9933665229
 20
122.6461715984
 10
77.8593515327
 20
122.066664974
 10
77.7260429507
 20
121.5555658552
 10
77.5982585086
 20
121.1313470255
 10
77.4806166349
 20
120.8093408483
 10
77.377369283
 20
120.601184665
 10
77.2922477966
 20
120.5144026305
 10
77.2283292657
 20
120.5521314393
 10
77.1879233701
 20
120.7130062382
 10
77.1724904237
 20
120.9912137117
 10
77.1825887544
 20
121.3766988355
 10
77.2178532837
 20
121.8555280927
 10
77.2770085653
 20
122.4103961128
 10
77.3579176797
 20
123.0212487269
 10
77.4576562738
 20
123.6660080019
 10
77.5726187324
 20
124.3213694531
 10
77.6986504255
 20
124.9636486161
 10
77.83119672
 20
125.5696304131
 10
77.9654659612
 20
126.117412931
 10
78.0966064243
 20
126.587199046
 10
78.2198776772
 20
126.9620088849
 10
78.3308247386
 20
127.2282963607
 10
78.4254377989
 20
127.3764362547
  0
LWPOLYLINE
  5
216
330
1F
100
AcDbEntity
  8
0
  6
Continuous
 62
     7
370
    15
100
AcDbPolyline
 90
       26
 70
   128
 43
0.0
 10
78.1912013238
 20
125.9119827289
 10
78.2450173331
 20
125.9155077848
 10
78.2758278122
 20
125.796121544
 10
78.2816974727
 20
125.5613258097
 10
78.2622565797
 20
125.2258745942
 10
78.2187270282
 20
124.8108446586
 10
78.1538441127
 20
124.3423130351
 10
78.0716846978
 20
123.8497216243
 10
77.9774111046
 20
123.3640192065
 10
77.8769465445
 20
122.9157261539
 10
77.7766039876
 20
122.5330089207
 10
77.6826880222
 20
122.2399161185
 10
77.6010999737
 20
122.05486372
 10
77.5369663073
 20
121.9894788216
 10
77.49431639
 20
122.0478694874
 10
77.4758305682
 20
122.2263677034
 10
77.4826702012
 20
122.5137575518
 10
77.5144054836
 20
122.8919806878
 10
77.5690424537
 20
123.3372725535
 10
77.643147791
 20
123.8216534245
 10
77.7320658138
 20
124.3146881449
 10
77.8302090524
 20
124.7853981319
 10
77.9314102886
 20
125.2042055118
 10
78.029311849
 20
125.5447957653
 10
78.1177609509
 20
125.7857689622
 10
78.1912013238
 20
125.9119827289
  0
LINE
  5
217
330
1F
100
AcDbEntity
  8
0
  6
Continuous
 62
     7
370
    15
100
AcDbLine
 10
78.0798100216
 20
123.9155679929
 30
0.0
 11
77.9197436107
 21
123.6872067663
 31
0.0
  0
LINE
  5
218
330
1F
100
AcDbEntity
  8
0
  6
Continuous
 62
     7
370
    15
100
AcDbLine
 10
77.9197436107
 20
123.6872067663
 30
0.0
 11
77.9895113131
 21
123.4276993188
 31
0.0
  0
LINE
  5
219
330
1F
100
AcDbEntity
  8
0
  6
Continuous
 62
     7
370
    15
100
AcDbLine
 10
78.26540445
 20
125.2644965413
 30
0.0
 11
78.2647674253
 21
125.2646083
 31
0.0
  0
LINE
  5
21A
330
1F
100
AcDbEntity
  8
0
  6
Continuous
 62
     7
370
    15
100
AcDbLine
 10
78.0376946835
 20
123.6664084706
 30
0.0
 11
77.9197436107
 21
123.6872067663
 31
0.0
  0
ELLIPSE
  5
21B
330
1F
100
AcDbEntity
  8
0
  6
Continuous
 62
     7
370
    15
100
AcDbEllipse
 10
80.6786560804
 20
138.4728171687
 30
0.0
 11
0.4087148498875735
 21
2.317396459798886
 31
0.0
210
0.0
220
0.0
230
1.0
 40
0.1043907487
 41
0.4110192178896898
 42
1.64582191758296
  0
LINE
  5
21C
330
1F
100
AcDbEntity
  8
0
  6
Continuous
 62
     7
370
    15
100
AcDbLine
 10
77.8430138065
 20
128.0336873594
 30
0.0
 11
80.4480047712
 21
135.3913675982
 31
0.0
  0
LWPOLYLINE
  5
21D
330
1F
100
AcDbEntity
  8
0
  6
Continuous
 62
     7
370
    15
100
AcDbPolyline
 90
        9
 70
   128
 43
0.0
 10
77.8426138034
 20
128.3994680259
 10
77.8247361353
 20
128.2925866532
 10
77.8109502329
 20
128.1915446732
 10
77.8022749631
 20
128.1038112927
 10
77.7993520072
 20
128.0358703795
 10
77.8023965007
 20
127.9927426937
 10
77.8111839948
 20
127.9776161525
 10
77.8250653578
 20
127.9916092742
 10
77.8430138065
 20
128.0336873594
  0
LINE
  5
21E
330
1F
100
AcDbEntity
  8
0
  6
Continuous
 62
     7
370
    15
100
AcDbLine
 10
80.4400468526
 20
142.6725778717
 30
0.0
 11
77.8426138034
 21
128.3994680259
 31
0.0
  0
ARC
  5
21F
330
1F
100
AcDbEntity
  8
0
  6
Continuous
 62
     7
370
    15
100
AcDbCircle
 10
82.6727633186
 20
142.2995790591
 30
0.0
 40
2.26365874892962
100
AcDbArc
 50
162.4376189627
 51
170.5157219899
  0
LINE
  5
220
330
1F
100
AcDbEntity
  8
0
  6
Continuous
 62
     7
370
    15
100
AcDbLine
 10
83.1196070843
 20
150.3403056401
 30
0.0
 11
80.5146159885
 21
142.98262447
 31
0.0
  0
LWPOLYLINE
  5
221
330
1F
100
AcDbEntity
  8
0
  6
Continuous
 62
     7
370
    15
100
AcDbPolyline
 90
        9
 70
   128
 43
0.0
 10
83.1200068545
 20
149.974523111
 10
83.1378845736
 20
150.081405415
 10
83.1516704796
 20
150.1824464637
 10
83.1603456657
 20
150.2701807755
 10
83.1632689527
 20
150.33812262
 10
83.1602242773
 20
150.3812503058
 10
83.1514366704
 20
150.3963749844
 10
83.1375556275
 20
150.382382794
 10
83.1196070843
 20
150.3403056401
  0
LINE
  5
222
330
1F
100
AcDbEntity
  8
0
  6
Continuous
 62
     7
370
    15
100
AcDbLine
 10
80.5225739071
 20
135.7014141965
 30
0.0
 11
83.1200068545
 21
149.974523111
 31
0.0
  0
ARC
  5
223
330
1F
100
AcDbEntity
  8
0
  6
Continuous
 62
     7
370
    15
100
AcDbCircle
 10
78.2898574411
 20
136.0744130091
 30
0.0
 40
2.263658748929621
100
AcDbArc
 50
342.4376189627
 51
350.5157219899
  0
LWPOLYLINE
  5
224
330
1F
100
AcDbEntity
  8
0
  6
Continuous
 62
     7
370
    15
100
AcDbPolyline
 90
        9
 70
   128
 43
0.0
 10
83.1181326333
 20
149.9759163696
 10
83.1351164573
 20
150.0774528819
 10
83.1482130719
 20
150.1734424371
 10
83.1564544981
 20
150.2567920822
 10
83.159231622
 20
150.3213364619
 10
83.1563391778
 20
150.3623072046
 10
83.1479909514
 20
150.3766756493
 10
83.1348039622
 20
150.3633838135
 10
83.1177528429
 20
150.3234077233
  0
LINE
  5
225
330
1F
100
AcDbEntity
  8
0
  6
Continuous
 62
     7
370
    15
100
AcDbLine
 10
83.1177528429
 20
150.3234077233
 30
0.0
 11
80.5127617253
 21
142.9657284159
 31
0.0
  0
ARC
  5
226
330
1F
100
AcDbEntity
  8
0
  6
Continuous
 62
     7
370
    15
100
AcDbCircle
 10
82.5630333525
 20
142.3168260939
 30
0.0
 40
2.150508769790932
100
AcDbArc
 50
162.437640294
 51
170.5156080921
  0
LINE
  5
227
330
1F
100
AcDbEntity
  8
0
  6
Continuous
 62
     7
370
    15
100
AcDbLine
 10
80.4419209065
 20
142.6711846131
 30
0.0
 11
77.8444880901
 21
128.3980747673
 31
0.0
  0
LWPOLYLINE
  5
228
330
1F
100
AcDbEntity
  8
0
  6
Continuous
 62
     7
370
    15
100
AcDbPolyline
 90
        9
 70
   128
 43
0.0
 10
77.8444880901
 20
128.3980747673
 10
77.8275044916
 20
128.2965373236
 10
77.8144077679
 20
128.2005477685
 10
77.8061660288
 20
128.1172009173
 10
77.8033892905
 20
128.0526565376
 10
77.8062815128
 20
128.0116857949
 10
77.8146298884
 20
127.9973154876
 10
77.8278169503
 20
128.010609186
 10
77.8448680697
 20
128.0505834136
  0
LINE
  5
229
330
1F
100
AcDbEntity
  8
0
  6
Continuous
 62
     7
370
    15
100
AcDbLine
 10
77.8448680697
 20
128.0505834136
 30
0.0
 11
80.4498590345
 21
135.4082636523
 31
0.0
  0
ARC
  5
22A
330
1F
100
AcDbEntity
  8
0
  6
Continuous
 62
     7
370
    15
100
AcDbCircle
 10
78.399667814
 20
136.0571466357
 30
0.0
 40
2.150426275565873
100
AcDbArc
 50
342.4374850941
 51
350.5157632919
  0
LINE
  5
22B
330
1F
100
AcDbEntity
  8
0
  6
Continuous
 62
     7
370
    15
100
AcDbLine
 10
80.5206998533
 20
135.7028074551
 30
0.0
 11
83.1181326333
 21
149.9759163696
 31
0.0
  0
ARC
  5
22C
330
1F
100
AcDbEntity
  8
0
  6
Continuous
 62
     7
370
    15
100
AcDbCircle
 10
88.3305905728
 20
149.1664703404
 30
0.0
 40
1.049154765138126
100
AcDbArc
 50
344.0348872984
 51
7.2948242522
  0
LINE
  5
22D
330
1F
100
AcDbEntity
  8
0
  6
Continuous
 62
     7
370
    15
100
AcDbLine
 10
86.7418457104
 20
134.6047893155
 30
0.0
 11
89.3392787596
 21
148.87789823
 31
0.0
  0
LINE
  5
22E
330
1F
100
AcDbEntity
  8
0
  6
Continuous
 62
     7
370
    15
100
AcDbLine
 10
80.7667874081
 20
142.5173673767
 30
0.0
 11
80.6924077964
 21
142.6068227726
 31
0.0
  0
ARC
  5
22F
330
1F
100
AcDbEntity
  8
0
  6
Continuous
 62
     7
370
    15
100
AcDbCircle
 10
84.5091875264
 20
134.9777757313
 30
0.0
 40
2.263599220893903
100
AcDbArc
 50
342.4374712031
 51
350.5157884021
  0
LINE
  5
230
330
1F
100
AcDbEntity
  8
0
  6
Continuous
 62
     7
370
    15
100
AcDbLine
 10
86.6170524435
 20
134.1528873879
 30
0.0
 11
86.6672763417
 21
134.2947427172
 31
0.0
  0
LWPOLYLINE
  5
231
330
1F
100
AcDbEntity
  8
0
  6
Continuous
 62
     7
370
    15
100
AcDbPolyline
 90
        9
 70
   128
 43
0.0
 10
82.0308260202
 20
145.1703142363
 10
82.075520307
 20
145.4375181335
 10
82.109985063
 20
145.6901207554
 10
82.1316730047
 20
145.9094546723
 10
82.1389813257
 20
146.0793074209
 10
82.1313696263
 20
146.1871266353
 10
82.1094005417
 20
146.2249420571
 10
82.0746979492
 20
146.1899597186
 10
82.0298265947
 20
146.0847649711
  0
LINE
  5
232
330
1F
100
AcDbEntity
  8
0
  6
Continuous
 62
     7
370
    15
100
AcDbLine
 10
80.5771366043
 20
137.182170524
 30
0.0
 11
82.0308260202
 21
145.1703142363
 31
0.0
  0
ARC
  5
233
330
1F
100
AcDbEntity
  8
0
  6
Continuous
 62
     7
370
    15
100
AcDbCircle
 10
74.9955202335
 20
138.1146291881
 30
0.0
 40
5.658968145430605
100
AcDbArc
 50
342.4374635836
 51
350.5158135263
  0
LINE
  5
234
330
1F
100
AcDbEntity
  8
0
  6
Continuous
 62
     7
370
    15
100
AcDbLine
 10
78.9327939322
 20
132.289227097
 30
0.0
 11
80.3907135317
 21
136.4070549595
 31
0.0
  0
LWPOLYLINE
  5
235
330
1F
100
AcDbEntity
  8
0
  6
Continuous
 62
     7
370
    15
100
AcDbPolyline
 90
        9
 70
   128
 43
0.0
 10
78.9317946231
 20
133.2036778319
 10
78.8871004527
 20
132.9364739347
 10
78.8526354639
 20
132.6838694501
 10
78.8309477551
 20
132.4645373958
 10
78.8236396669
 20
132.2946827847
 10
78.8312513663
 20
132.1868654329
 10
78.8532203345
 20
132.1490481484
 10
78.8879228106
 20
132.1840323496
 10
78.9327939322
 20
132.289227097
  0
LINE
  5
236
330
1F
100
AcDbEntity
  8
0
  6
Continuous
 62
     7
370
    15
100
AcDbLine
 10
80.3854841555
 20
141.1918215442
 30
0.0
 11
78.9317946231
 21
133.2036778319
 31
0.0
  0
ARC
  5
237
330
1F
100
AcDbEntity
  8
0
  6
Continuous
 62
     7
370
    15
100
AcDbCircle
 10
85.9671808147
 20
140.2593435699
 30
0.0
 40
5.6590505182464
100
AcDbArc
 50
162.4375224751
 51
170.5157546347
  0
LINE
  5
238
330
1F
100
AcDbEntity
  8
0
  6
Continuous
 62
     7
370
    15
100
AcDbLine
 10
82.0298265947
 20
146.0847649711
 30
0.0
 11
80.571907228
 21
141.9669371086
 31
0.0
  0
LWPOLYLINE
  5
239
330
1F
100
AcDbEntity
  8
0
  6
Continuous
 62
     7
370
    15
100
AcDbPolyline
 90
       29
 70
   128
 43
0.0
 10
80.723085562
 20
139.0072535712
 10
80.8196723277
 20
139.5758222777
 10
80.8992920259
 20
140.1248946774
 10
80.9579525424
 20
140.6269352871
 10
80.992712062
 20
141.0567704576
 10
81.0018278474
 20
141.3928493846
 10
80.9848428519
 20
141.6183169919
 10
80.9426083045
 20
141.7218670237
 10
80.8772427311
 20
141.6983082879
 10
80.7920232231
 20
141.5488217014
 10
80.6912233869
 20
141.2809044111
 10
80.5798975101
 20
140.9079898137
 10
80.4636281731
 20
140.4487770039
 10
80.3482454551
 20
139.926292001
 10
80.2395351978
 20
139.3667366344
 10
80.1429484321
 20
138.7981679279
 10
80.0633287339
 20
138.2490973908
 10
80.0046682173
 20
137.7470567811
 10
79.9699086977
 20
137.3172197479
 10
79.9607929124
 20
136.9811426836
 10
79.9777779078
 20
136.7556750763
 10
80.0200124553
 20
136.6521250445
 10
80.0853780286
 20
136.6756837803
 10
80.1705975367
 20
136.8251685041
 10
80.2713973729
 20
137.0930876571
 10
80.3827232497
 20
137.4660022545
 10
80.4989925867
 20
137.9252150643
 10
80.6143753046
 20
138.4476982045
 10
80.723085562
 20
139.0072535712
  0
CIRCLE
  5
23A
330
1F
100
AcDbEntity
  8
VERMASSUNG
  6
CENTERX2
100
AcDbCircle
 10
83.2042439191
 20
117.6050785272
 30
0.0
 40
32.50000000000001
  0
DIMENSION
  5
23B
330
1F
100
AcDbEntity
  8
VERMASSUNG
100
AcDbDimension
  2
_D_5
 10
55.0584182961
 20
133.8550785272
 30
0.0
 11
43.9301971928
 21
140.2799599768
 31
0.0
 70
   160
  1
%%c<> min. 
 71
     2
 42
-1.0
  3
SLDDIMSTYLE3
100
AcDbAlignedDimension
 13
111.3500695421
 23
101.3550785272
 33
0.0
 14
55.0584182961
 24
133.8550785272
 34
0.0
 50
-30.0
100
AcDbRotatedDimension
  0
INSERT
  5
255
330
1F
100
AcDbEntity
  8
VERMASSUNG
100
AcDbBlockReference
  2
SW_CENTERMARKSYMBOL_0
 10
83.2042439191
 20
115.3946537513
 30
0.0
  0
OLE2FRAME
  5
256
330
1F
100
AcDbEntity
  8
0
100
AcDbOle2Frame
 70
     2
  3
Paintbrush-Bild
 10
13.8511154363
 20
38.264191557
 30
0.0
 11
51.6290888628
 21
31.9806341108
 31
0.0
 71
     2
 72
     0
 73
     1
 90
    12928
310
80552BED0767C5B32B40DDAF6807D121434000000000000000006FFBDDFB85D0
310
4940DDAF6807D121434000000000000000006FFBDDFB85D04940416F4BD60AFB
310
3F4000000000000000002BED0767C5B32B40416F4BD60AFB3F40000000000000
310
0000000000000100000000010000010000000100000000000100000000320000
310
D0CF11E0A1B11AE1000000000000000000000000000000003E000300FEFF0900
310
0600000000000000000000000100000001000000000000000010000002000000
310
01000000FEFFFFFF0000000000000000FFFFFFFFFFFFFFFFFFFFFFFFFFFFFFFF
310
FFFFFFFFFFFFFFFFFFFFFFFFFFFFFFFFFFFFFFFFFFFFFFFFFFFFFFFFFFFFFFFF
310
FFFFFFFFFFFFFFFFFFFFFFFFFFFFFFFFFFFFFFFFFFFFFFFFFFFFFFFFFFFFFFFF
310
FFFFFFFFFFFFFFFFFFFFFFFFFFFFFFFFFFFFFFFFFFFFFFFFFFFFFFFFFFFFFFFF
310
FFFFFFFFFFFFFFFFFFFFFFFFFFFFFFFFFFFFFFFFFFFFFFFFFFFFFFFFFFFFFFFF
310
FFFFFFFFFFFFFFFFFFFFFFFFFFFFFFFFFFFFFFFFFFFFFFFFFFFFFFFFFFFFFFFF
310
FFFFFFFFFFFFFFFFFFFFFFFFFFFFFFFFFFFFFFFFFFFFFFFFFFFFFFFFFFFFFFFF
310
FFFFFFFFFFFFFFFFFFFFFFFFFFFFFFFFFFFFFFFFFFFFFFFFFFFFFFFFFFFFFFFF
310
FFFFFFFFFFFFFFFFFFFFFFFFFFFFFFFFFFFFFFFFFFFFFFFFFFFFFFFFFFFFFFFF
310
FFFFFFFFFFFFFFFFFFFFFFFFFFFFFFFFFFFFFFFFFFFFFFFFFFFFFFFFFFFFFFFF
310
FFFFFFFFFFFFFFFFFFFFFFFFFFFFFFFFFFFFFFFFFFFFFFFFFFFFFFFFFFFFFFFF
310
FFFFFFFFFFFFFFFFFFFFFFFFFFFFFFFFFFFFFFFFFFFFFFFFFFFFFFFFFFFFFFFF
310
FFFFFFFFFFFFFFFFFFFFFFFFFFFFFFFFFFFFFFFFFFFFFFFFFFFFFFFFFFFFFFFF
310
FFFFFFFFFFFFFFFFFFFFFFFFFFFFFFFFFFFFFFFFFFFFFFFFFFFFFFFFFFFFFFFF
310
FDFFFFFFFEFFFFFFFEFFFFFFFEFFFFFF05000000060000000700000008000000
310
090000000A0000000B0000000C0000000D0000000E0000000F00000010000000
310
11000000120000001300000014000000150000001600000017000000FEFFFFFF
310
FFFFFFFFFFFFFFFFFFFFFFFFFFFFFFFFFFFFFFFFFFFFFFFFFFFFFFFFFFFFFFFF
310
FFFFFFFFFFFFFFFFFFFFFFFFFFFFFFFFFFFFFFFFFFFFFFFFFFFFFFFFFFFFFFFF
310
FFFFFFFFFFFFFFFFFFFFFFFFFFFFFFFFFFFFFFFFFFFFFFFFFFFFFFFFFFFFFFFF
310
FFFFFFFFFFFFFFFFFFFFFFFFFFFFFFFFFFFFFFFFFFFFFFFFFFFFFFFFFFFFFFFF
310
FFFFFFFFFFFFFFFFFFFFFFFFFFFFFFFFFFFFFFFFFFFFFFFFFFFFFFFFFFFFFFFF
310
FFFFFFFFFFFFFFFFFFFFFFFFFFFFFFFFFFFFFFFFFFFFFFFFFFFFFFFFFFFFFFFF
310
FFFFFFFFFFFFFFFFFFFFFFFFFFFFFFFFFFFFFFFFFFFFFFFFFFFFFFFFFFFFFFFF
310
FFFFFFFFFFFFFFFFFFFFFFFFFFFFFFFFFFFFFFFFFFFFFFFFFFFFFFFFFFFFFFFF
310
FFFFFFFFFFFFFFFFFFFFFFFFFFFFFFFFFFFFFFFFFFFFFFFFFFFFFFFFFFFFFFFF
310
FFFFFFFFFFFFFFFFFFFFFFFFFFFFFFFFFFFFFFFFFFFFFFFFFFFFFFFFFFFFFFFF
310
FFFFFFFFFFFFFFFFFFFFFFFFFFFFFFFFFFFFFFFFFFFFFFFFFFFFFFFFFFFFFFFF
310
FFFFFFFFFFFFFFFFFFFFFFFFFFFFFFFFFFFFFFFFFFFFFFFFFFFFFFFFFFFFFFFF
310
FFFFFFFFFFFFFFFFFFFFFFFFFFFFFFFFFFFFFFFFFFFFFFFFFFFFFFFFFFFFFFFF
310
52006F006F007400200045006E00740072007900000000000000000000000000
310
0000000000000000000000000000000000000000000000000000000000000000
310
16000500FFFFFFFFFFFFFFFF020000000A00030000000000C000000000000046
310
00000000000000000000000050EBC9BE7524CD0103000000C000000000000000
310
01004F006C006500000000000000000000000000000000000000000000000000
310
0000000000000000000000000000000000000000000000000000000000000000
310
0A000200FFFFFFFFFFFFFFFFFFFFFFFF00000000000000000000000000000000
310
0000000000000000000000000000000000000000000000001400000000000000
310
010043006F006D0070004F0062006A0000000000000000000000000000000000
310
0000000000000000000000000000000000000000000000000000000000000000
310
120002010100000003000000FFFFFFFF00000000000000000000000000000000
310
0000000000000000000000000000000000000000010000004D00000000000000
310
01004F006C006500310030004E00610074006900760065000000000000000000
310
0000000000000000000000000000000000000000000000000000000000000000
310
1A000200FFFFFFFFFFFFFFFFFFFFFFFF00000000000000000000000000000000
310
0000000000000000000000000000000000000000040000002426000000000000
310
FEFFFFFF02000000FEFFFFFFFFFFFFFFFFFFFFFFFFFFFFFFFFFFFFFFFFFFFFFF
310
FFFFFFFFFFFFFFFFFFFFFFFFFFFFFFFFFFFFFFFFFFFFFFFFFFFFFFFFFFFFFFFF
310
FFFFFFFFFFFFFFFFFFFFFFFFFFFFFFFFFFFFFFFFFFFFFFFFFFFFFFFFFFFFFFFF
310
FFFFFFFFFFFFFFFFFFFFFFFFFFFFFFFFFFFFFFFFFFFFFFFFFFFFFFFFFFFFFFFF
310
FFFFFFFFFFFFFFFFFFFFFFFFFFFFFFFFFFFFFFFFFFFFFFFFFFFFFFFFFFFFFFFF
310
FFFFFFFFFFFFFFFFFFFFFFFFFFFFFFFFFFFFFFFFFFFFFFFFFFFFFFFFFFFFFFFF
310
FFFFFFFFFFFFFFFFFFFFFFFFFFFFFFFFFFFFFFFFFFFFFFFFFFFFFFFFFFFFFFFF
310
FFFFFFFFFFFFFFFFFFFFFFFFFFFFFFFFFFFFFFFFFFFFFFFFFFFFFFFFFFFFFFFF
310
FFFFFFFFFFFFFFFFFFFFFFFFFFFFFFFFFFFFFFFFFFFFFFFFFFFFFFFFFFFFFFFF
310
FFFFFFFFFFFFFFFFFFFFFFFFFFFFFFFFFFFFFFFFFFFFFFFFFFFFFFFFFFFFFFFF
310
FFFFFFFFFFFFFFFFFFFFFFFFFFFFFFFFFFFFFFFFFFFFFFFFFFFFFFFFFFFFFFFF
310
FFFFFFFFFFFFFFFFFFFFFFFFFFFFFFFFFFFFFFFFFFFFFFFFFFFFFFFFFFFFFFFF
310
FFFFFFFFFFFFFFFFFFFFFFFFFFFFFFFFFFFFFFFFFFFFFFFFFFFFFFFFFFFFFFFF
310
FFFFFFFFFFFFFFFFFFFFFFFFFFFFFFFFFFFFFFFFFFFFFFFFFFFFFFFFFFFFFFFF
310
FFFFFFFFFFFFFFFFFFFFFFFFFFFFFFFFFFFFFFFFFFFFFFFFFFFFFFFFFFFFFFFF
310
FFFFFFFFFFFFFFFFFFFFFFFFFFFFFFFFFFFFFFFFFFFFFFFFFFFFFFFFFFFFFFFF
310
0100000200000000000000000000000000000000000000000000000000000000
310
0000000000000000000000000000000000000000000000000000000000000000
310
0100FEFF030A0000FFFFFFFF0A00030000000000C00000000000004607000000
310
5042727573680007000000504272757368000700000050427275736800F439B2
310
7100000000000000000000000000000000000000000000000000000000000000
310
0000000000000000000000000000000000000000000000000000000000000000
310
0000000000000000000000000000000000000000000000000000000000000000
310
0000000000000000000000000000000000000000000000000000000000000000
310
0000000000000000000000000000000000000000000000000000000000000000
310
0000000000000000000000000000000000000000000000000000000000000000
310
0000000000000000000000000000000000000000000000000000000000000000
310
0000000000000000000000000000000000000000000000000000000000000000
310
0000000000000000000000000000000000000000000000000000000000000000
310
0000000000000000000000000000000000000000000000000000000000000000
310
0000000000000000000000000000000000000000000000000000000000000000
310
0000000000000000000000000000000000000000000000000000000000000000
310
20260000424D0E260000000000003E00000028000000B40200006E0000000100
310
01000000000000000000130B0000130B00000200000002000000000000FFFFFF
310
FFFFFFFFFFFFFFFFFFFFFFFFFFFFFFFFFFFFFFFFFFFFFFFFFFFFFFFFFFFFFFFF
310
FFFFFFFFFFFFFFFFFFFFFFFFFFFFFFFFFFFFFFFFFFFFFFFFFFFFFFFFFFFFFFFF
310
FFFFFFFFFFFFFFFFFFFFFFFFFFFFFFFFFFFFFFFFFFFFFFFFF000FFFFFFFFFFFF
310
FFFFFFFFFFFFFFFFFFFFFFFFFFFFFFFFFFFFFFFFFFFFFFFFFFFFFFFFFFFFFFFF
310
FFFFFFFFFFFFFFFFFFFFFFFFFFFFFFFFFFFFFFFFFFFFFFFFFFFFFFFFFFFFFFFF
310
FFFFFFFFFFFFFFFFFFFFFFFFFFFFFFFFF000FFFFFFFFFFFFFFFFFFFFFFFFFFFF
310
FFFFFFFFFFFFFFFFFFFFFFFFFFFFFFFFFFFFFFFFFFFFFFFFFFFFFFFFFFFFFFFF
310
FFFFFFFFFFFFFFFFFFFFFFFFFFFFFFFFFFFFFFFFFFFFFFFFFFFFFFFFFFFFFFFF
310
FFFFFFFFFFFFFFFFF000FFFFFFFFFFFFFFFFFFFFFFFFFFFFFFFFFFFFFFFFFFFF
310
FFFFFFFFFFFFFFFFFFFFFFFFFFFFFFFFFFFFFFFFFFFFFFFFFFFFFFFFFFFFFFFF
310
FFFFFFFFFFFFFFFFFFFFFFFFFFFFFFFFFFFFFFFFFFFFFFFFFFFFFFFFFFFFFFFF
310
F000FFFFFFFFFFFFFFFFFFFFFFFFFFFFFFFFFFFFFFFFFFFFFFFFFFFFFFFFFFFF
310
FFFFFFFFFFFFFFFFFFFFFFFFFFFFFFFFFFFFFFFFFFFFFFFFFFFFFFFFFFFFFFFF
310
FFFFFFFFFFFFFFFFFFFFFFFFFFFFFFFFFFFFFFFFFFFFFFFFF000FFFFFFFFFFFF
310
FFFFFFFFFFFFFFFFFFFFFFFFFFFFFFFFFFFFFFFFFFFFFFFFFFFFFFFFFFFFFFFF
310
FFFFFFFFFFFFFFFFFFFFFFFFFFFFFFFFFFFFFFFFFFFFFFFFFFFFFFFFFFFFFFFF
310
FFFFFFFFFFFFFFFFFFFFFFFFFFFFFFFFF000FFFFFFFFFFFFFFFFFFFFFFFFFFFF
310
FFFFFFFFFFFFFFFFFFFFFFFFFFFFFFFFFFFFFFFFFFFFFFFFFFFFFFFFFFFFFFFF
310
FFFFFFFFFFFFFFFFFFFFFFFFFFFFFFFFFFFFFFFFFFFFFFFFFFFFFFFFFFFFFFFF
310
FFFFFFFFFFFFFFFFF000FFFFFFFFFFFFFFFFFFFFFFFFFFFFFFFFFFFFFFFFFFFF
310
FFFFFFFFFFFFFFFFFFFFFFFFFFFFFFFFFFFFFFFFFFFFFFFFFFFFFFFFFFFFFFFF
310
FFFFFFFFFFFFFFFFFFFFFFFFFFFFFFFFFFFFFFFFFFFFFFFFFFFFFFFFFFFFFFFF
310
F000FFFFFFFFFFFFFFFFFFFFFFFFFFFFFFFFFFFFFFFFFFFFFFFFFFFFFFFFFFFF
310
FFFFFFFFFFFFFFFFFFFFFFFFFFFFFFFFFFFFFFFFFFFFFFFFFFFFFFFFFFFFFFFF
310
FFFFFFFFFFFFFFFFFFFFFFFFFFFFFFFFFFFFFFFFFFFFFFFFF000FFFFFFFFFFFF
310
FFFFFFFFFFFFFFFFFFFFFFFFFFFFFFFFFFFFFFFFFFFFFFFFFFFFFFFFFFFFFFFF
310
FFFFFFFFFFFFFFFFFFFFFFFFFFFFFFFFFFFFFFFFFFFFFFFFFFFFFFFFFFFFFFFF
310
FFFFFFFFFFFFFFFFFFFFFFFFFFFFFFFFF000FFFFFFFFFFFFFFFFFFFFFFFFFFFF
310
FFFFFFFFFFFFFFFFFFFFFFFFFFFFFFFFFFFFFFFFFFFFFFFFFFFFFFFFFFFFFFFF
310
FFFFFFFFFFFFFFFFFFFFFFFFFFFFFFFFFFFFFFFFFFFFFFFFFFFFFFFFFFFFFFFF
310
FFFFFFFFFFFFFFFFF000FFFFFFFFFFFFFFFFFFFFFFFFFFFFFFFFFFFFFFFFFFFF
310
FFFFFFFFFFFFFFFFFFFFFFFFFFFFFFFFFFFFFFFFFFFFFFFFFFFFFFFFFFFFFFFF
310
FFFFFFFFFFFFFFFFFFFFFFFFFFFFFFFFFFFFFFFFFFFFFFFFFFFFFFFFFFFFFFFF
310
F000FFFFFFFFFFFFFFFFFFFFFFFFFFFFFFFFFFFFFFFFFFFFFFFFFFFFFFFFFFFF
310
FFFFFFFFFFFFFFFFFFFFFFFFFFFFFFFFFFFFFFFFFFFFFFFFFFFFFFFFFFFFFFFF
310
FFFFFFFFFFFFFFFFFFFFFFFFFFFFFFFFFFFFFFFFFFFFFFFFF000FFFFFFFFFFFF
310
FFFFFFFFFFFFFFFFFFFFFFFFFFFFFFFFFFFFFFFFFFFFFFFFFFFFFFFFFFFFFFFF
310
FFFFFFFFFFFFFFFFFFFFFFFFFFFFFFFFFFFFFFFFFFFFFFFFFFFFFFFFFFFFFFFF
310
FFFFFFFFFFFFFFFFFFFFFFFFFFFFFFFFF000FFFFFFFFFFFFFFFFFFFFFFFFFFFF
310
FFFFFFFFFFFFFFFFFFFFFFFFFFFFFFFFFFFFFFFFFFFFFFFFFFFFFFFFFFFFFFFF
310
FFFFFFFFFFFFFFFFFFFFFFFFFFFFFFFFFFFFFFFFFFFFFFFFFFFFFFFFFFFFFFFF
310
FFFFFFFFFFFFFFFFF000FFFFFFFFFFFFFFFFFFFFFFFFFFFFFFFFFFFFFFFFFFFF
310
FFFFFFFFFFFFFFFFFFFFFFFFFFFFFFFFFFFFFFFFFFFFFFFFFFFFFFFFFFFFFFFF
310
FFFFFFFFFFFFFFFFFFFFFFFFFFFFFFFFFFFFFFFFFFFFFFFFFFFFFFFFFFFFFFFF
310
F000FFFFFFFFFFFFFFFFFFFFFFFFFFFFFFFFFFFFFFFFFFFFFFFFFFFFFFFFFFFF
310
FFFFFFFFFFFFFFFFFFFFFFFFFFFFFFFFFFFFFFFFFFFFFFFFFFFFFFFFFFFFFFFF
310
FFFFFFFFFFFFFFFFFFFFFFFFFFFFFFFFFFFFFFFFFFFFFFFFF000FFFFFFFFFFFF
310
FFFFFFFFFFFFFFFFFFFFFFFFFFFFFFFFFFFFFFFFFFFFFFFFFFFFFFFFFFFFFFFF
310
FFFFFFFFFFFFFFFFFFFFFFFFFFFFFFFFFFFFFFFFFFFFFFFFFFFFFFFFFFFFFFFF
310
FFFFFFFFFFFFFFFFFFFFFFFFFFFFFFFFF000FFFFFFFFFFFFFFFFFFFFFFFFFFFF
310
FFFFFFFFFFFFFFFFFFFFFFFFFFFFFFFFFFFFFFFFFFFFFFFFFFFFFFFFFFFFFFFF
310
FFFFFFFFFFFFFFFFFFFFFFFFFFFFFFFFFFFFFFFFFFFFFFFFFFFFFFFFFFFFFFFF
310
FFFFFFFFFFFFFFFFF000FFFFF80003FFFFFFFFFFFFFFFFFFFFFFFFFFFFFFFFFF
310
FFFFF00007FFFFFFFFFF00007FFFFFF800000000000000007FFFFFFFFFFFFFFF
310
FFFFFFFC001FFFFFFFFFFFFFFC001FFFFFFFFFFFFFFFFFFFFFFFFFFE0007FFFF
310
F000FFFF8000007FFFFFFFF8000FFFFFC0007FFFFF80007FFFFF0000007FFFFF
310
FFF8000007FFFFF800000000000000007FFFFFF0001FFFFFFFFFFFC00001FFFF
310
FFFFFFFFC00001FFFFFFFF000000000003FFFFE000007FFFF000FFFE0000000F
310
FFFFFFF0000FFFFF80007FFFFF80007FFFFC0000001FFFFFFFC0000001FFFFF8
310
00000000000000007FFFFFF0001FFFFFFFFFFE0000003FFFFFFFFFFE0000003F
310
FFFFFF000000000003FFFF0000000FFFF000FFF800000003FFFFFFF00007FFFF
310
80007FFFFF80007FFFF000000007FFFFFF000000003FFFF80000000000000000
310
7FFFFFF0001FFFFFFFFFF80000000FFFFFFFFFF80000000FFFFFFF0000000000
310
03FFFC00000003FFF000FFE000000000FFFFFFF00007FFFF80003FFFFF80007F
310
FFC000000001FFFFFC000000001FFFF800000000000000007FFFFFF0001FFFFF
310
FFFFE000000003FFFFFFFFE000000003FFFFFF000000000003FFF000000000FF
310
F000FF80000000007FFFFFF00007FFFF80003FFFFF80007FFF8000000000FFFF
310
F80000000007FFF800000000000000007FFFFFF0001FFFFFFFFFC000000001FF
310
FFFFFFC000000001FFFFFF000000000003FFC0000000007FF000FF0000000000
310
3FFFFFE00007FFFF00003FFFFF80007FFE00000000003FFFF00000000003FFF8
310
00000000000000007FFFFFF0001FFFFFFFFF8000000000FFFFFFFF8000000000
310
FFFFFF000000000003FF80000000003FF000FE00000000001FFFFFE00003FFFF
310
00003FFFFF80007FFC00000000001FFFE00000000001FFF8000001FFFE000000
310
7FFFFFF0001FFFFFFFFE00000000003FFFFFFE00000000003FFFFF0000000000
310
03FF00000000001FF000FC00000000000FFFFFE00003FFFF00001FFFFF80007F
310
F800000000001FFFC00000000000FFF8000001FFFE0000007FFFFFF0001FFFFF
310
FFFC00000000001FFFFFFC00000000001FFFFF000000000003FE00000000000F
310
F000F8000000000007FFFFE00003FFFF00001FFFFF80007FF800000000000FFF
310
800000000000FFF8000001FFFE0000007FFFFFF0001FFFFFFFF800000000000F
310
FFFFF800000000000FFFFF000000000003FC000000000007F000F80000000000
310
03FFFFC00003FFFE00001FFFFF80007FF0000000000007FF0000000000007FF8
310
000001FFFE0000007FFFFFF0001FFFFFFFF0000000000007FFFFF00000000000
310
07FFFF000000000003F8000000000003F000F0000000000003FFFFC00001FFFE
310
00001FFFFF80007FE0000000000007FE0000000000003FF8000001FFFE000000
310
7FFFFFF0001FFFFFFFF0000000000007FFFFF0000000000007FFFF0000000000
310
03F800001F800003F000E00001FFF00001FFFFC00001FFFE00000FFFFF80007F
310
E00001FFE00003FE00001FFF00003FF8000001FFFE0000007FFFFFF0001FFFFF
310
FFE000003E000003FFFFE000003E000003FFFF000000000003F00001FFF80001
310
F000E00007FFFC0001FFFFC00001FFFE00000FFFFF80007FC0000FFFFC0003FC
310
0000FFFFC0001FF8000001FFFE0000007FFFFFF0001FFFFFFFC00003FFE00001
310
FFFFC00003FFE00001FFFF0001FFFFFFFFF00007FFFE0001F000E0000FFFFF00
310
00FFFF800001FFFC00000FFFFF80007FC0001FFFFE0001FC0001FFFFE0001FF8
310
000001FFFE0000007FFFFFF0001FFFFFFF80000FFFF80000FFFF80000FFFF800
310
00FFFF0003FFFFFFFFE0000FFFFF8000F000C0003FFFFF8000FFFF800000FFFC
310
000007FFFF80007F80003FFFFF0001FC0003FFFFF0001FF8000001FFFE000000
310
7FFFFFF0001FFFFFFF80003FFFFE0000FFFF80003FFFFE0000FFFF0003FFFFFF
310
FFE0003FFFFF8000F000C0003FFFFF8000FFFF800000FFFC000007FFFF80007F
310
80007FFFFF8001F80007FFFFF8000FF8000001FFFE0000007FFFFFF0001FFFFF
310
FF00007FFFFF00007FFF00007FFFFF00007FFF0003FFFFFFFFE0003FFFFFC000
310
F000C0007FFFFFC000FFFF000000FFFC000007FFFF80007F8000FFFFFF8000F8
310
000FFFFFF8000FF8000001FFFE0000007FFFFFF0001FFFFFFF0000FFFFFF8000
310
7FFF0000FFFFFF80007FFF0003FFFFFFFFC0007FFFFFC00070008000FFFFFFC0
310
00FFFF000000FFF8000007FFFF80007F8000FFFFFF8000F8000FFFFFF8000FF8
310
000001FFFE0000007FFFFFF0001FFFFFFE0001FFFFFFC0003FFE0001FFFFFFC0
310
003FFF0003FFFFFFFFC0007FFFFFE00070008000FFFFFFC0007FFF0000007FF8
310
000003FFFF80007F0001FFFFFF8000F8000FFFFFF8000FF8000001FFFE000000
310
7FFFFFF0001FFFFFFE0001FFFFFFC0003FFE0001FFFFFFC0003FFF0003FFFFFF
310
FFC000FFFFFFE00070008000FFFFFFC0007FFF0000007FF8000003FFFF80007F
310
0001FFFFFF8000F8001FFFFFF8000FF8000001FFFE0000007FFFFFF0001FFFFF
310
FE0003FFFFFFE0003FFE0003FFFFFFE0003FFF0003FFFFFFFFC000FFFFFFE000
310
70008000FFFFFFC0007FFE0000007FF8000003FFFF80007F0001FFFFFF8000F0
310
001FFFFFF8000FF8000001FFFE0000007FFFFFF0001FFFFFFC0003FFFFFFE000
310
1FFC0003FFFFFFE0001FFF0003FFFFFFFFC000FFFFFFC00070008000FFFFFF80
310
007FFE0000007FF0000003FFFF80007F0001FFFFFF0000F0001FFFFFF8000FF8
310
000001FFFE0000007FFFFFF0001FFFFFFC0007FFFFFFF0001FFC0007FFFFFFF0
310
001FFF0003FFFFFFFFC000FFFFFFC00070008001FFFFFF0000FFFE0000003FF0
310
000001FFFF80007F0001FFFFFF0000F8001FFFFFF0000FF8000001FFFE000000
310
7FFFFFF0001FFFFFFC0007FFFFFFF0001FFC0007FFFFFFF0001FFF0003FFFFFF
310
FFC001FFFFFF80007000FFFFFFFFFE0000FFFE0008003FF0008001FFFF80007F
310
FFFFFFFFFC0000FFFFFFFFFFE0000FF8000001FFFE0000007FFFFFF0001FFFFF
310
F8000FFFFFFFF8000FF8000FFFFFFFF8000FFF0003FFFFFFFFFFFFFFFFFF0000
310
7000FFFFFFFFFC0000FFFC0008003FF0008001FFFF80007FFFFFFFFFF80001FF
310
FFFFFFFF80000FF8000001FFFE0000007FFFFFF0001FFFFFF8000FFFFFFFF800
310
0FF8000FFFFFFFF8000FFF0003FFFFFFFFFFFFFFFFFE0000F000FFFFFFFFE000
310
00FFFC000C003FE000C001FFFF80007FFFFFFFFFC00001FFFFFFFFFE00001FF8
310
000001FFFE0000007FFFFFF0001FFFFFF8000FFFFFFFF8000FF8000FFFFFFFF8
310
000FFF0003FFFFFFFFFFFFFFFFF00000F000FFFFFFFE000001FFFC000C001FE0
310
00C000FFFF80007FFFFFFFFE000001FFFFFFFFE000001FF80FFFFFFFFFFFFFC0
310
7FFFFFF0001FFFFFF8000FFFFFFFF8000FF8000FFFFFFFF8000FFF0003FFFFFF
310
FFFFFFFFFF800000F000FFFFFFC0000001FFFC001C001FE001C000FFFF80007F
310
FFFFFF80000003FFFFFFF80000001FF80FFFFFFFFFFFFFC07FFFFFF0001FFFFF
310
F8001FFFFFFFFC000FF8001FFFFFFFFC000FFF0003FFFFFFFFFFFFFFF0000001
310
F000FFFFF800000001FFF8001C001FE001C000FFFF80007FFFFFF800000003FF
310
FFFF800000003FF80FFFFFFFFFFFFFC07FFFFFF0001FFFFFF8001FFFFFFFFC00
310
0FF8001FFFFFFFFC000FFF0003FFFFFFFFFFFFFE00000001F000FFFFC0000000
310
03FFF8001E001FC001E000FFFF80007FFFFF8000000007FFFFFC000000003FF8
310
0FFFFFFFFFFFFFC07FFFFFF0001FFFFFF8001FFFFFFFFC000FF8001FFFFFFFFC
310
000FFF0003FFFFFFFFFFFFE000000003F000FFFE0000000007FFF8001E000FC0
310
01E0007FFF80007FFFFE0000000007FFFFE0000000007FF80FFFFFFFFFFFFFC0
310
7FFFFFF0001FFFFFF0001FFFFFFFFC0007F0001FFFFFFFFC0007FF0003FFFFFF
310
FFFFFF0000000003F000FFF80000000007FFF8001E000FC003E0007FFF80007F
310
FFF0000000000FFFFF8000000000FFF80FFFFFFFFFFFFFC07FFFFFF0001FFFFF
310
F0001FFFFFFFFC0007F0001FFFFFFFFC0007FF0003FFFFFFFFFFFC0000000007
310
F000FFE0000000000FFFF0003E000FC003E0007FFF80007FFFC0000000001FFF
310
FE0000000001FFF80FFFFFFFFFFFFFC07FFFFFF0001FFFFFF0001FFFFFFFFC00
310
07F0001FFFFFFFFC0007FF0003FFFFFFFFFFF0000000000FF000FFC000000000
310
1FFFF0003F000F8003F0003FFF80007FFF80000000003FFFF80000000003FFF8
310
0FFFFFFFFFFFFFC07FFFFFF0001FFFFFF0001FFFFFFFFC0007F0001FFFFFFFFC
310
0007FF0003FFFFFFFFFFE0000000001FF000FF00000000007FFFF0003F000780
310
03F0003FFF80007FFF00000000007FFFF00000000007FFF80FFFFFFFFFFFFFC0
310
7FFFFFF0001FFFFFF0001FFFFFFFFC0007F0001FFFFFFFFC0007FF0003FFFFFF
310
FFFF80000000007FF000FE0000000000FFFFE0003F00078007F0003FFF80007F
310
FE0000000001FFFFE0000000001FFFF80FFFFFFFFFFFFFC07FFFFFF0001FFFFF
310
F0001FFFFFFFFC0007F0001FFFFFFFFC0007FF0003FFFFFFFFFF0000000000FF
310
F000FC0000000003FFFFE0007F00078007F0003FFF80007FFC0000000007FFFF
310
C0000000007FFFF80FFFFFFFFFFFFFC07FFFFFF0001FFFFFF8001FFFFFFFFC00
310
0FF8001FFFFFFFFC000FFF0003FFFFFFFFFE0000000003FFF000FC000000000F
310
FFFFE0007F80070007F8001FFF80007FF8000000001FFFFF8000000001FFFFF8
310
0FFFFFFFFFFFFFC07FFFFFF0001FFFFFF8001FFFFFFFFC000FF8001FFFFFFFFC
310
000FFF0003FFFFFFFFFC000000000FFFF000F8000000007FFFFFE0007F800700
310
07F8001FFF80007FF000000000FFFFFF800000000FFFFFF80FFFFFFFFFFFFFC0
310
7FFFFFF0001FFFFFF8000FFFFFFFF8000FF8000FFFFFFFF8000FFF0003FFFFFF
310
FFFC000000007FFFF000F800000007FFFFFFC0007F8003000FF8001FFF80007F
310
F000000007FFFFFF000000007FFFFFF80FFFFFFFFFFFFFC07FFFFFF0001FFFFF
310
F8000FFFFFFFF8000FF8000FFFFFFFF8000FFF0003FFFFFFFFF80000000FFFFF
310
F000F0000000FFFFFFFFC000FF8003000FF8001FFF80007FE0000000FFFFFFFF
310
0000000FFFFFFFF8000001FFFE0000007FFFFFF0001FFFFFF8000FFFFFFFF800
310
0FF8000FFFFFFFF8000FFF0003FFFFFFFFF8000000FFFFFFF000F000000FFFFF
310
FFFFC000FFC002000FF8000FFF80007FE000001FFFFFFFFE000001FFFFFFFFF8
310
000001FFFE0000007FFFFFF0001FFFFFF8000FFFFFFFF8000FF8000FFFFFFFF8
310
000FFF0003FFFFFFFFF000001FFFFFFFF000E00000FFFFFFFFFFC000FFC00200
310
0FFC000FFF80007FE00001FFFFFFFFFE00001FFFFFFFFFF8000001FFFE000000
310
7FFFFFF0001FFFFFFC000FFFFFFFF8001FFC000FFFFFFFF8001FFF0003FFFFFF
310
FFF00001FFFFFFFFF000E00007FFFFFFFFFF8000FFC000001FFC000FFF80007F
310
C0000FFFFFFFFFFE0000FFFFFFFFFFF8000001FFFE0000007FFFFFF0001FFFFF
310
FC0007FFFFFFF0001FFC0007FFFFFFF0001FFF0003FFFFFFFFF00007FFFFFFFF
310
F000E0001FFFFFFFFFFF8000FFC000001FFC000FFF80007FC0003FFFFFFFFFFE
310
0001FFFFFFFFFFF8000001FFFE0000007FFFFFF0001FFFFFFC0007FFFFFFF000
310
1FFC0007FFFFFFF0001FFF0003FFFFFFFFF0001FFFFFFFFFF000E0003FFFFF00
310
03FF8001FFE000001FFC0007FF80007FC0007FFFFF0007FC0003FFFFF0003FF8
310
000001FFFE0000007FFFFFF0001FFFFFFC0003FFFFFFE0001FFC0003FFFFFFE0
310
001FFF0003FFFFFFFFF0003FFFFFFFFFF000E0003FFFFF0001FF8001FFE00000
310
1FFE0007FF80007FC0007FFFFE0003FC0007FFFFE0003FF8000001FFFE000000
310
7FFFFFF0001FFFFFFE0003FFFFFFE0003FFE0003FFFFFFE0003FFF0003FFFFFF
310
FFF0003FFFFF8001F000E0003FFFFF0001FF0001FFE000001FFE0007FF80007F
310
C0007FFFFE0003FC0007FFFFE0003FF8000001FFFE0000007FFFFFF0001FFFFF
310
FE0001FFFFFFC0003FFE0001FFFFFFC0003FFF0003FFFFFFFFF0003FFFFF0001
310
F000E0003FFFFF0003FF0001FFE000003FFE0007FF80007FC0007FFFFE0003FC
310
0007FFFFE0003FF8000001FFFE0000007FFFFFF0001FFFFFFF0001FFFFFFC000
310
7FFF0001FFFFFFC0007FFF0003FFFFFFFFF0003FFFFF0001F000E0003FFFFE00
310
03FF0003FFF000003FFE0003FF80007FC0007FFFFC0003FE0007FFFFE0003FF8
310
000001FFFE0000007FFFFFF0001FFFFFFF0000FFFFFF80007FFF0000FFFFFF80
310
007FFF0003FFFFFFFFF0003FFFFF0001F000E0003FFFFE0003FF0003FFF00000
310
3FFF0003FF80007FC0007FFFFC0007FE0007FFFFC0003FF8000001FFFE000000
310
7FFFFFF0001FFFFFFF80007FFFFF0000FFFF80007FFFFF0000FFFF0003FFFFFF
310
FFF0003FFFFF0003F000E0003FFFFC0003FE0003FFF000003FFF0003FF80007F
310
E0003FFFF80007FE0003FFFFC0007FF8000001FFFE0000007FFFFFF0001FFFFF
310
FF80003FFFFE0000FFFF80003FFFFE0000FFFF0003FFFFFFFFF0001FFFFE0003
310
F000F0001FFFF80003FE0003FFF000007FFF0001FF80007FE0003FFFF00007FE
310
0001FFFF80007FF8000001FFFE0000007FFFFFF0001FFFFFFFC0000FFFF80001
310
FFFFC0000FFFF80001FFFF0003FFFFFFFFF0001FFFFC0003F000F0000FFFF000
310
07FE0007FFF800007FFF0001FF80007FE0001FFFE00007FF0000FFFE00007FF8
310
000001FFFE0000007FFFFFF0001FFFFFFFC00003FFE00001FFFFC00003FFE000
310
01FFFF0003FFFFFFFFF8000FFFF80003F000F00003FFC00007FC0007FFF80000
310
7FFF8001FF80007FF00007FF80000FFF00007FF80000FFF8000001FFFE000000
310
7F80000000000001FFE000003E000003FFFFE000003E000003FFFF0003FFFFFF
310
FFF80003FFE00007F000F800000000000FFC0007FFF800007FFF8001FF80007F
310
F000000000000FFF000000000000FFF8000001FFFE0000007F80000000000001
310
FFF0000000000007FFFFF0000000000007FFFF0003FFFFFFFFFC00007E000007
310
F000F800000000000FFC0007FFF80000FFFF8000FF80007FF800000000001FFF
310
800000000001FFF8000001FFFE0000007F80000000000001FFF800000000000F
310
FFFFF800000000000FFFFF0003FFFFFFFFFC00000000000FF000FC0000000000
310
1FFC0007FFFC0000FFFF8000FF80007FF800000000003FFFC00000000001FFF8
310
000001FFFE0000007F80000000000001FFF800000000000FFFFFF80000000000
310
0FFFFF0003FFFFFFFFFE00000000001FF000FE00000000003FF8000FFFFC0000
310
FFFF8000FF80007FFC00000000003FFFC00000000003FFF8000001FFFE000000
310
7F80000000000001FFFC00000000001FFFFFFC00000000001FFFFF0003FFFFFF
310
FFFF00000000001FF000FF00000000003FF8000FFFFC0000FFFFC000FF80007F
310
FE00000000007FFFE00000000007FFF8000001FFFE0000007F80000000000001
310
FFFE00000000003FFFFFFE00000000003FFFFF0003FFFFFFFFFF80000000003F
310
F000FF80000000007FF8000FFFFC0001FFFFC0007F80007FFF0000000000FFFF
310
F0000000000FFFF800000000000000007F80000000000001FFFF8000000000FF
310
FFFFFF8000000000FFFFFF0003FFFFFFFFFFC0000000007FF000FFC000000000
310
FFF8000FFFFE0001FFFFC0007F80007FFF8000000001FFFFF8000000001FFFF8
310
00000000000000007F80000000000001FFFFC000000001FFFFFFFFC000000001
310
FFFFFF0003FFFFFFFFFFE000000000FFF000FFE000000003FFF0001FFFFE0001
310
FFFFC0007F80007FFFC000000007FFFFFE000000003FFFF80000000000000000
310
7F80000000000001FFFFE000000003FFFFFFFFE000000003FFFFFF0003FFFFFF
310
FFFFF000000003FFF000FFF80000000FFFF0001FFFFE0001FFFFE0007F80007F
310
FFF00000000FFFFFFF00000000FFFFF800000000000000007F80000000000001
310
FFFFF80000000FFFFFFFFFF80000000FFFFFFF0003FFFFFFFFFFFC0000000FFF
310
F000FFFE0000003FFFF0001FFFFE0003FFFFE0003F80007FFFFC0000003FFFFF
310
FFC0000003FFFFF800000000000000007F80000000000001FFFFFE0000003FFF
310
FFFFFFFE0000003FFFFFFF0003FFFFFFFFFFFF0000003FFFF000FFFF800000FF
310
FFF0001FFFFF0003FFFFE0003F80007FFFFF000001FFFFFFFFF800001FFFFFF8
310
00000000000000007F80000000000001FFFFFFC00001FFFFFFFFFFFFC00001FF
310
FFFFFF0003FFFFFFFFFFFFC00000FFFFF000FFFFF8000FFFFFFFFFFFFFFFFFFF
310
FFFFFFFFFFFFFFFFFFFFF0001FFFFFFFFFFF0000FFFFFFF80000000000000000
310
7FFFFFFFFFFFFFFFFFFFFFFC001FFFFFFFFFFFFFFC001FFFFFFFFFFFFFFFFFFF
310
FFFFFFFC001FFFFFF000FFFFFFFFFFFFFFFFFFFFFFFFFFFFFFFFFFFFFFFFFFFF
310
FFFFFFFFFFFFFFFFFFFFFFFFFFFFFFFFFFFFFFFFFFFFFFFFFFFFFFFFFFFFFFFF
310
FFFFFFFFFFFFFFFFFFFFFFFFFFFFFFFFFFFFFFFFFFFFFFFFFFFFFFFFFFFFFFFF
310
F000FFFFFFFFFFFFFFFFFFFFFFFFFFFFFFFFFFFFFFFFFFFFFFFFFFFFFFFFFFFF
310
FFFFFFFFFFFFFFFFFFFFFFFFFFFFFFFFFFFFFFFFFFFFFFFFFFFFFFFFFFFFFFFF
310
FFFFFFFFFFFFFFFFFFFFFFFFFFFFFFFFFFFFFFFFFFFFFFFFF000FFFFFFFFFFFF
310
FFFFFFFFFFFFFFFFFFFFFFFFFFFFFFFFFFFFFFFFFFFFFFFFFFFFFFFFFFFFFFFF
310
FFFFFFFFFFFFFFFFFFFFFFFFFFFFFFFFFFFFFFFFFFFFFFFFFFFFFFFFFFFFFFFF
310
FFFFFFFFFFFFFFFFFFFFFFFFFFFFFFFFF000FFFFFFFFFFFFFFFFFFFFFFFFFFFF
310
FFFFFFFFFFFFFFFFFFFFFFFFFFFFFFFFFFFFFFFFFFFFFFFFFFFFFFFFFFFFFFFF
310
FFFFFFFFFFFFFFFFFFFFFFFFFFFFFFFFFFFFFFFFFFFFFFFFFFFFFFFFFFFFFFFF
310
FFFFFFFFFFFFFFFFF000FFFFFFFFFFFFFFFFFFFFFFFFFFFFFFFFFFFFFFFFFFFF
310
FFFFFFFFFFFFFFFFFFFFFFFFFFFFFFFFFFFFFFFFFFFFFFFFFFFFFFFFFFFFFFFF
310
FFFFFFFFFFFFFFFFFFFFFFFFFFFFFFFFFFFFFFFFFFFFFFFFFFFFFFFFFFFFFFFF
310
F000FFFFFFFFFFFFFFFFFFFFFFFFFFFFFFFFFFFFFFFFFFFFFFFFFFFFFFFFFFFF
310
FFFFFFFFFFFFFFFFFFFFFFFFFFFFFFFFFFFFFFFFFFFFFFFFFFFFFFFFFFFFFFFF
310
FFFFFFFFFFFFFFFFFFFFFFFFFFFFFFFFFFFFFFFFFFFFFFFFF000FFFFFFFFFFFF
310
FFFFFFFFFFFFFFFFFFFFFFFFFFFFFFFFFFFFFFFFFFFFFFFFFFFFFFFFFFFFFFFF
310
FFFFFFFFFFFFFFFFFFFFFFFFFFFFFFFFFFFFFFFFFFFFFFFFFFFFFFFFFFFFFFFF
310
FFFFFFFFFFFFFFFFFFFFFFFFFFFFFFFFF000FFFFFFFFFFFFFFFFFFFFFFFFFFFF
310
FFFFFFFFFFFFFFFFFFFFFFFFFFFFFFFFFFFFFFFFFFFFFFFFFFFFFFFFFFFFFFFF
310
FFFFFFFFFFFFFFFFFFFFFFFFFFFFFFFFFFFFFFFFFFFFFFFFFFFFFFFFFFFFFFFF
310
FFFFFFFFFFFFFFFFF000FFFFFFFFFFFFFFFFFFFFFFFFFFFFFFFFFFFFFFFFFFFF
310
FFFFFFFFFFFFFFFFFFFFFFFFFFFFFFFFFFFFFFFFFFFFFFFFFFFFFFFFFFFFFFFF
310
FFFFFFFFFFFFFFFFFFFFFFFFFFFFFFFFFFFFFFFFFFFFFFFFFFFFFFFFFFFFFFFF
310
F000FFFFFFFFFFFFFFFFFFFFFFFFFFFFFFFFFFFFFFFFFFFFFFFFFFFFFFFFFFFF
310
FFFFFFFFFFFFFFFFFFFFFFFFFFFFFFFFFFFFFFFFFFFFFFFFFFFFFFFFFFFFFFFF
310
FFFFFFFFFFFFFFFFFFFFFFFFFFFFFFFFFFFFFFFFFFFFFFFFF000FFFFFFFFFFFF
310
FFFFFFFFFFFFFFFFFFFFFFFFFFFFFFFFFFFFFFFFFFFFFFFFFFFFFFFFFFFFFFFF
310
FFFFFFFFFFFFFFFFFFFFFFFFFFFFFFFFFFFFFFFFFFFFFFFFFFFFFFFFFFFFFFFF
310
FFFFFFFFFFFFFFFFFFFFFFFFFFFFFFFFF000FFFFFFFFFFFFFFFFFFFFFFFFFFFF
310
FFFFFFFFFFFFFFFFFFFFFFFFFFFFFFFFFFFFFFFFFFFFFFFFFFFFFFFFFFFFFFFF
310
FFFFFFFFFFFFFFFFFFFFFFFFFFFFFFFFFFFFFFFFFFFFFFFFFFFFFFFFFFFFFFFF
310
FFFFFFFFFFFFFFFFF000FFFFFFFFFFFFFFFFFFFFFFFFFFFFFFFFFFFFFFFFFFFF
310
FFFFFFFFFFFFFFFFFFFFFFFFFFFFFFFFFFFFFFFFFFFFFFFFFFFFFFFFFFFFFFFF
310
FFFFFFFFFFFFFFFFFFFFFFFFFFFFFFFFFFFFFFFFFFFFFFFFFFFFFFFFFFFFFFFF
310
F000FFFFFFFFFFFFFFFFFFFFFFFFFFFFFFFFFFFFFFFFFFFFFFFFFFFFFFFFFFFF
310
FFFFFFFFFFFFFFFFFFFFFFFFFFFFFFFFFFFFFFFFFFFFFFFFFFFFFFFFFFFFFFFF
310
FFFFFFFFFFFFFFFFFFFFFFFFFFFFFFFFFFFFFFFFFFFFFFFFF000FFFFFFFFFFFF
310
FFFFFFFFFFFFFFFFFFFFFFFFFFFFFFFFFFFFFFFFFFFFFFFFFFFFFFFFFFFFFFFF
310
FFFFFFFFFFFFFFFFFFFFFFFFFFFFFFFFFFFFFFFFFFFFFFFFFFFFFFFFFFFFFFFF
310
FFFFFFFFFFFFFFFFFFFFFFFFFFFFFFFFF000FFFFFFFFFFFFFFFFFFFFFFFFFFFF
310
FFFFFFFFFFFFFFFFFFFFFFFFFFFFFFFFFFFFFFFFFFFFFFFFFFFFFFFFFFFFFFFF
310
FFFFFFFFFFFFFFFFFFFFFFFFFFFFFFFFFFFFFFFFFFFFFFFFFFFFFFFFFFFFFFFF
310
FFFFFFFFFFFFFFFFF000FFFFFFFFFFFFFFFFFFFFFFFFFFFFFFFFFFFFFFFFFFFF
310
FFFFFFFFFFFFFFFFFFFFFFFFFFFFFFFFFFFFFFFFFFFFFFFFFFFFFFFFFFFFFFFF
310
FFFFFFFFFFFFFFFFFFFFFFFFFFFFFFFFFFFFFFFFFFFFFFFFFFFFFFFFFFFFFFFF
310
F000FFFFFFFFFFFFFFFFFFFFFFFFFFFFFFFFFFFFFFFFFFFFFFFFFFFFFFFFFFFF
310
FFFFFFFFFFFFFFFFFFFFFFFFFFFFFFFFFFFFFFFFFFFFFFFFFFFFFFFFFFFFFFFF
310
FFFFFFFFFFFFFFFFFFFFFFFFFFFFFFFFFFFFFFFFFFFFFFFFF000FFFFFFFFFFFF
310
FFFFFFFFFFFFFFFFFFFFFFFFFFFFFFFFFFFFFFFFFFFFFFFFFFFFFFFFFFFFFFFF
310
FFFFFFFFFFFFFFFFFFFFFFFFFFFFFFFFFFFFFFFFFFFFFFFFFFFFFFFFFFFFFFFF
310
FFFFFFFFFFFFFFFFFFFFFFFFFFFFFFFFF000FFFFFFFFFFFFFFFFFFFFFFFFFFFF
310
FFFFFFFFFFFFFFFFFFFFFFFFFFFFFFFFFFFFFFFFFFFFFFFFFFFFFFFFFFFFFFFF
310
FFFFFFFFFFFFFFFFFFFFFFFFFFFFFFFFFFFFFFFFFFFFFFFFFFFFFFFFFFFFFFFF
310
FFFFFFFFFFFFFFFFF000FFFFFFFFFFFFFFFFFFFFFFFFFFFFFFFFFFFFFFFFFFFF
310
FFFFFFFFFFFFFFFFFFFFFFFFFFFFFFFFFFFFFFFFFFFFFFFFFFFFFFFFFFFFFFFF
310
FFFFFFFFFFFFFFFFFFFFFFFFFFFFFFFFFFFFFFFFFFFFFFFFFFFFFFFFFFFFFFFF
310
F000FFFFFFFFFFFFFFFFFFFFFFFFFFFFFFFFFFFFFFFFFFFFFFFFFFFFFFFFFFFF
310
FFFFFFFFFFFFFFFFFFFFFFFFFFFFFFFFFFFFFFFFFFFFFFFFFFFFFFFFFFFFFFFF
310
FFFFFFFFFFFFFFFFFFFFFFFFFFFFFFFFFFFFFFFFFFFFFFFFF000FFFFFFFFFFFF
310
FFFFFFFFFFFFFFFFFFFFFFFFFFFFFFFFFFFFFFFFFFFFFFFFFFFFFFFFFFFFFFFF
310
FFFFFFFFFFFFFFFFFFFFFFFFFFFFFFFFFFFFFFFFFFFFFFFFFFFFFFFFFFFFFFFF
310
FFFFFFFFFFFFFFFFFFFFFFFFFFFFFFFFF0000000000000000000000000000000
310
0000000000000000000000000000000000000000000000000000000000000000
310
0000000000000000000000000000000000000000000000000000000000000000
310
0000000000000000000000000000000000000000000000000000000000000000
310
0000000000000000000000000000000000000000000000000000000000000000
310
0000000000000000000000000000000000000000000000000000000000000000
310
0000000000000000000000000000000000000000000000000000000000000000
310
0000000000000000000000000000000000000000000000000000000000000000
310
0000000000000000000000000000000000000000000000000000000000000000
310
0000000000000000000000000000000000000000000000000000000000000000
310
0000000000000000000000000000000000000000000000000000000000000000
310
0000000000000000000000000000000000000000000000000000000000000000
310
0000000000000000000000000000000000000000000000000000000000000000
310
0000000000000000000000000000000000000000000000000000000000000000
310
0000000000000000000000000000000000000000000000000000000000000000
310
0000000000000000000000000000000000000000000000000000000000000000
  1
OLE
  0
ENDSEC
  0
SECTION
  2
OBJECTS
  0
DICTIONARY
  5
C
330
0
100
AcDbDictionary
281
     1
  3
ACAD_GROUP
350
D
  3
ACAD_LAYOUT
350
1A
  3
ACAD_MLINESTYLE
350
17
  3
ACAD_PLOTSETTINGS
350
19
  3
ACAD_PLOTSTYLENAME
350
E
  0
DICTIONARY
  5
D
102
{ACAD_REACTORS
330
C
102
}
330
C
100
AcDbDictionary
281
     1
  0
DICTIONARY
  5
1A
102
{ACAD_REACTORS
330
C
102
}
330
C
100
AcDbDictionary
281
     1
  3
Layout1
350
1E
  3
Layout2
350
26
  3
Model
350
22
  0
DICTIONARY
  5
17
102
{ACAD_REACTORS
330
C
102
}
330
C
100
AcDbDictionary
281
     1
  3
Standard
350
18
  0
DICTIONARY
  5
19
102
{ACAD_REACTORS
330
C
102
}
330
C
100
AcDbDictionary
281
     1
  0
ACDBDICTIONARYWDFLT
  5
E
102
{ACAD_REACTORS
330
C
102
}
330
C
100
AcDbDictionary
281
     1
  3
Normal
350
F
100
AcDbDictionaryWithDefault
340
F
  0
LAYOUT
  5
1E
102
{ACAD_REACTORS
330
1A
102
}
330
1A
100
AcDbPlotSettings
  1

  2
none_device
  4

  6

 40
0.0
 41
0.0
 42
0.0
 43
0.0
 44
0.0
 45
0.0
 46
0.0
 47
0.0
 48
0.0
 49
0.0
140
0.0
141
0.0
142
1.0
143
1.0
 70
   688
 72
     0
 73
     0
 74
     5
  7

 75
    16
147
1.0
148
0.0
149
0.0
100
AcDbLayout
  1
Layout1
 70
     1
 71
     1
 10
0.0
 20
0.0
 11
420.0
 21
297.0
 12
0.0
 22
0.0
 32
0.0
 14
1.0000000000E+20
 24
1.0000000000E+20
 34
1.0000000000E+20
 15
-1.0000000000E+20
 25
-1.0000000000E+20
 35
-1.0000000000E+20
146
0.0
 13
0.0
 23
0.0
 33
0.0
 16
1.0
 26
0.0
 36
0.0
 17
0.0
 27
1.0
 37
0.0
 76
     0
330
1B
  0
LAYOUT
  5
26
102
{ACAD_REACTORS
330
1A
102
}
330
1A
100
AcDbPlotSettings
  1

  2
none_device
  4

  6

 40
0.0
 41
0.0
 42
0.0
 43
0.0
 44
0.0
 45
0.0
 46
0.0
 47
0.0
 48
0.0
 49
0.0
140
0.0
141
0.0
142
1.0
143
1.0
 70
   688
 72
     0
 73
     0
 74
     5
  7

 75
    16
147
1.0
148
0.0
149
0.0
100
AcDbLayout
  1
Layout2
 70
     1
 71
     2
 10
0.0
 20
0.0
 11
0.0
 21
0.0
 12
0.0
 22
0.0
 32
0.0
 14
0.0
 24
0.0
 34
0.0
 15
0.0
 25
0.0
 35
0.0
146
0.0
 13
0.0
 23
0.0
 33
0.0
 16
1.0
 26
0.0
 36
0.0
 17
0.0
 27
1.0
 37
0.0
 76
     0
330
23
  0
LAYOUT
  5
22
102
{ACAD_REACTORS
330
1A
102
}
330
1A
100
AcDbPlotSettings
  1

  2
none_device
  4

  6

 40
0.0
 41
0.0
 42
0.0
 43
0.0
 44
0.0
 45
0.0
 46
0.0
 47
0.0
 48
0.0
 49
0.0
140
0.0
141
0.0
142
1.0
143
1.0
 70
  1712
 72
     0
 73
     0
 74
     0
  7

 75
     0
147
1.0
148
0.0
149
0.0
100
AcDbLayout
  1
Model
 70
     1
 71
     0
 10
0.0
 20
0.0
 11
297.0
 21
210.0
 12
0.0
 22
0.0
 32
0.0
 14
0.0
 24
0.0
 34
0.0
 15
297.0
 25
210.0
 35
0.0
146
0.0
 13
0.0
 23
0.0
 33
0.0
 16
1.0
 26
0.0
 36
0.0
 17
0.0
 27
1.0
 37
0.0
 76
     0
330
1F
331
29
  0
MLINESTYLE
  5
18
102
{ACAD_REACTORS
330
17
102
}
330
17
100
AcDbMlineStyle
  2
Standard
 70
     0
  3

 62
   256
 51
90.0
 52
90.0
 71
     2
 49
0.5
 62
   256
  6
BYLAYER
 49
-0.5
 62
   256
  6
BYLAYER
  0
ACDBPLACEHOLDER
  5
F
102
{ACAD_REACTORS
330
E
102
}
330
E
  0
ENDSEC
  0
EOF
