  0
SECTION
  2
HEADER
  9
$ACADVER
  1
AC1015
  9
$ACADMAINTVER
 70
     6
  9
$DWGCODEPAGE
  3
ANSI_1252
  9
$INSBASE
 10
0.0
 20
0.0
 30
0.0
  9
$EXTMIN
 10
0.0
 20
0.0
 30
0.0
  9
$EXTMAX
 10
297.0
 20
210.0
 30
0.0
  9
$LIMMIN
 10
0.0
 20
0.0
  9
$LIMMAX
 10
297.0
 20
210.0
  9
$ORTHOMODE
 70
     0
  9
$REGENMODE
 70
     1
  9
$FILLMODE
 70
     1
  9
$QTEXTMODE
 70
     0
  9
$MIRRTEXT
 70
     1
  9
$LTSCALE
 40
1.0
  9
$ATTMODE
 70
     1
  9
$TEXTSIZE
 40
2.0
  9
$TRACEWID
 40
1.0
  9
$TEXTSTYLE
  7
Standard
  9
$CLAYER
  8
0
  9
$CELTYPE
  6
ByLayer
  9
$CECOLOR
 62
   256
  9
$CELTSCALE
 40
1.0
  9
$DISPSILH
 70
     0
  9
$DIMSCALE
 40
1.0
  9
$DIMASZ
 40
3.0
  9
$DIMEXO
 40
0.0
  9
$DIMDLI
 40
3.75
  9
$DIMRND
 40
0.0
  9
$DIMDLE
 40
0.0
  9
$DIMEXE
 40
1.0
  9
$DIMTP
 40
0.0
  9
$DIMTM
 40
0.0
  9
$DIMTXT
 40
2.0
  9
$DIMCEN
 40
2.5
  9
$DIMTSZ
 40
0.0
  9
$DIMTOL
 70
     0
  9
$DIMLIM
 70
     0
  9
$DIMTIH
 70
     1
  9
$DIMTOH
 70
     1
  9
$DIMSE1
 70
     0
  9
$DIMSE2
 70
     0
  9
$DIMTAD
 70
     1
  9
$DIMZIN
 70
     0
  9
$DIMBLK
  1

  9
$DIMASO
 70
     1
  9
$DIMSHO
 70
     1
  9
$DIMPOST
  1

  9
$DIMAPOST
  1

  9
$DIMALT
 70
     0
  9
$DIMALTD
 70
     3
  9
$DIMALTF
 40
0.0393700787
  9
$DIMLFAC
 40
1.0
  9
$DIMTOFL
 70
     1
  9
$DIMTVP
 40
0.0
  9
$DIMTIX
 70
     0
  9
$DIMSOXD
 70
     0
  9
$DIMSAH
 70
     0
  9
$DIMBLK1
  1

  9
$DIMBLK2
  1

  9
$DIMSTYLE
  2
ISO-25
  9
$DIMCLRD
 70
     0
  9
$DIMCLRE
 70
     0
  9
$DIMCLRT
 70
     0
  9
$DIMTFAC
 40
1.0
  9
$DIMGAP
 40
1.524
  9
$DIMJUST
 70
     0
  9
$DIMSD1
 70
     0
  9
$DIMSD2
 70
     0
  9
$DIMTOLJ
 70
     0
  9
$DIMTZIN
 70
     0
  9
$DIMALTZ
 70
     0
  9
$DIMALTTZ
 70
     0
  9
$DIMUPT
 70
     0
  9
$DIMDEC
 70
     2
  9
$DIMTDEC
 70
     3
  9
$DIMALTU
 70
     2
  9
$DIMALTTD
 70
     3
  9
$DIMTXSTY
  7
Standard
  9
$DIMAUNIT
 70
     0
  9
$DIMADEC
 70
     2
  9
$DIMALTRND
 40
0.0
  9
$DIMAZIN
 70
     0
  9
$DIMDSEP
 70
    44
  9
$DIMATFIT
 70
     3
  9
$DIMFRAC
 70
     0
  9
$DIMLDRBLK
  1

  9
$DIMLUNIT
 70
     2
  9
$DIMLWD
 70
    -2
  9
$DIMLWE
 70
    -2
  9
$DIMTMOVE
 70
     0
  9
$LUNITS
 70
     2
  9
$LUPREC
 70
     2
  9
$SKETCHINC
 40
1.0
  9
$FILLETRAD
 40
10.0
  9
$AUNITS
 70
     0
  9
$AUPREC
 70
     2
  9
$MENU
  1
.
  9
$ELEVATION
 40
0.0
  9
$PELEVATION
 40
0.0
  9
$THICKNESS
 40
0.0
  9
$LIMCHECK
 70
     0
  9
$CHAMFERA
 40
10.0
  9
$CHAMFERB
 40
10.0
  9
$CHAMFERC
 40
20.0
  9
$CHAMFERD
 40
0.0
  9
$SKPOLY
 70
     0
  9
$TDCREATE
 40
2456087.386749132
  9
$TDUCREATE
 40
2456087.303415799
  9
$TDUPDATE
 40
2456087.386750764
  9
$TDUUPDATE
 40
2456087.303417431
  9
$TDINDWG
 40
0.0000000116
  9
$TDUSRTIMER
 40
0.0000000116
  9
$USRTIMER
 70
     1
  9
$ANGBASE
 50
0.0
  9
$ANGDIR
 70
     0
  9
$PDMODE
 70
     0
  9
$PDSIZE
 40
-1.0
  9
$PLINEWID
 40
0.0
  9
$SPLFRAME
 70
     0
  9
$SPLINETYPE
 70
     6
  9
$SPLINESEGS
 70
     8
  9
$HANDSEED
  5
278
  9
$SURFTAB1
 70
     6
  9
$SURFTAB2
 70
     6
  9
$SURFTYPE
 70
     6
  9
$SURFU
 70
     6
  9
$SURFV
 70
     6
  9
$UCSBASE
  2

  9
$UCSNAME
  2

  9
$UCSORG
 10
0.0
 20
0.0
 30
0.0
  9
$UCSXDIR
 10
1.0
 20
0.0
 30
0.0
  9
$UCSYDIR
 10
0.0
 20
1.0
 30
0.0
  9
$UCSORTHOREF
  2

  9
$UCSORTHOVIEW
 70
     0
  9
$UCSORGTOP
 10
0.0
 20
0.0
 30
0.0
  9
$UCSORGBOTTOM
 10
0.0
 20
0.0
 30
0.0
  9
$UCSORGLEFT
 10
0.0
 20
0.0
 30
0.0
  9
$UCSORGRIGHT
 10
0.0
 20
0.0
 30
0.0
  9
$UCSORGFRONT
 10
0.0
 20
0.0
 30
0.0
  9
$UCSORGBACK
 10
0.0
 20
0.0
 30
0.0
  9
$PUCSBASE
  2

  9
$PUCSNAME
  2

  9
$PUCSORG
 10
0.0
 20
0.0
 30
0.0
  9
$PUCSXDIR
 10
1.0
 20
0.0
 30
0.0
  9
$PUCSYDIR
 10
0.0
 20
1.0
 30
0.0
  9
$PUCSORTHOREF
  2

  9
$PUCSORTHOVIEW
 70
     0
  9
$PUCSORGTOP
 10
0.0
 20
0.0
 30
0.0
  9
$PUCSORGBOTTOM
 10
0.0
 20
0.0
 30
0.0
  9
$PUCSORGLEFT
 10
0.0
 20
0.0
 30
0.0
  9
$PUCSORGRIGHT
 10
0.0
 20
0.0
 30
0.0
  9
$PUCSORGFRONT
 10
0.0
 20
0.0
 30
0.0
  9
$PUCSORGBACK
 10
0.0
 20
0.0
 30
0.0
  9
$USERI1
 70
     0
  9
$USERI2
 70
     0
  9
$USERI3
 70
     0
  9
$USERI4
 70
     0
  9
$USERI5
 70
     0
  9
$USERR1
 40
0.0
  9
$USERR2
 40
0.0
  9
$USERR3
 40
0.0
  9
$USERR4
 40
0.0
  9
$USERR5
 40
0.0
  9
$WORLDVIEW
 70
     1
  9
$SHADEDGE
 70
     3
  9
$SHADEDIF
 70
    70
  9
$TILEMODE
 70
     1
  9
$MAXACTVP
 70
    64
  9
$PINSBASE
 10
0.0
 20
0.0
 30
0.0
  9
$PLIMCHECK
 70
     0
  9
$PEXTMIN
 10
1.0000000000E+20
 20
1.0000000000E+20
 30
1.0000000000E+20
  9
$PEXTMAX
 10
-1.0000000000E+20
 20
-1.0000000000E+20
 30
-1.0000000000E+20
  9
$PLIMMIN
 10
0.0
 20
0.0
  9
$PLIMMAX
 10
420.0
 20
297.0
  9
$UNITMODE
 70
     0
  9
$VISRETAIN
 70
     1
  9
$PLINEGEN
 70
     0
  9
$PSLTSCALE
 70
     1
  9
$TREEDEPTH
 70
  3020
  9
$CMLSTYLE
  2
Standard
  9
$CMLJUST
 70
     0
  9
$CMLSCALE
 40
20.0
  9
$PROXYGRAPHICS
 70
     1
  9
$MEASUREMENT
 70
     1
  9
$CELWEIGHT
370
    -1
  9
$ENDCAPS
280
     0
  9
$JOINSTYLE
280
     0
  9
$LWDISPLAY
290
     1
  9
$INSUNITS
 70
     4
  9
$HYPERLINKBASE
  1

  9
$STYLESHEET
  1

  9
$XEDIT
290
     1
  9
$CEPSNTYPE
380
     0
  9
$PSTYLEMODE
290
     1
  9
$FINGERPRINTGUID
  2
{84B8A965-6B14-4431-B419-317BAAA74070}
  9
$VERSIONGUID
  2
{FAEB1C32-E019-11D5-929B-00C0DF256EC4}
  9
$EXTNAMES
290
     1
  9
$PSVPSCALE
 40
0.0
  9
$OLESTARTUP
290
     0
  0
ENDSEC
  0
SECTION
  2
CLASSES
  0
CLASS
  1
ACDBDICTIONARYWDFLT
  2
AcDbDictionaryWithDefault
  3
ObjectDBX Classes
 90
        0
280
     0
281
     0
  0
CLASS
  1
VISUALSTYLE
  2
AcDbVisualStyle
  3
ObjectDBX Classes
 90
     4095
280
     0
281
     0
  0
CLASS
  1
MATERIAL
  2
AcDbMaterial
  3
ObjectDBX Classes
 90
     1153
280
     0
281
     0
  0
CLASS
  1
ACDBPLACEHOLDER
  2
AcDbPlaceHolder
  3
ObjectDBX Classes
 90
        0
280
     0
281
     0
  0
CLASS
  1
LAYOUT
  2
AcDbLayout
  3
ObjectDBX Classes
 90
        0
280
     0
281
     0
  0
ENDSEC
  0
SECTION
  2
TABLES
  0
TABLE
  2
VPORT
  5
8
330
0
100
AcDbSymbolTable
 70
     1
  0
VPORT
  5
29
330
8
100
AcDbSymbolTableRecord
100
AcDbViewportTableRecord
  2
*Active
 70
     0
 10
0.0
 20
0.0
 11
1.0
 21
1.0
 12
148.5
 22
105.0
 13
0.0
 23
0.0
 14
10.0
 24
10.0
 15
10.0
 25
10.0
 16
0.0
 26
0.0
 36
1.0
 17
0.0
 27
0.0
 37
0.0
 40
210.0
 41
1.4142857143
 42
50.0
 43
0.0
 44
0.0
 50
0.0
 51
0.0
 71
     0
 72
  2000
 73
     1
 74
     3
 75
     0
 76
     0
 77
     0
 78
     0
281
     0
 65
     1
110
0.0
120
0.0
130
0.0
111
1.0
121
0.0
131
0.0
112
0.0
122
1.0
132
0.0
 79
     0
146
0.0
  0
ENDTAB
  0
TABLE
  2
LTYPE
  5
5
330
0
100
AcDbSymbolTable
 70
     6
  0
LTYPE
  5
14
330
5
100
AcDbSymbolTableRecord
100
AcDbLinetypeTableRecord
  2
ByBlock
 70
     0
  3

 72
    65
 73
     0
 40
0.0
  0
LTYPE
  5
15
330
5
100
AcDbSymbolTableRecord
100
AcDbLinetypeTableRecord
  2
ByLayer
 70
     0
  3

 72
    65
 73
     0
 40
0.0
  0
LTYPE
  5
16
330
5
100
AcDbSymbolTableRecord
100
AcDbLinetypeTableRecord
  2
Continuous
 70
     0
  3
Solid line
 72
    65
 73
     0
 40
0.0
  0
LTYPE
  5
3F
330
5
100
AcDbSymbolTableRecord
100
AcDbLinetypeTableRecord
  2
HIDDEN
 70
     0
  3
Hidden __ __ __ __ __ __ __ __ __ __ __ __ __ __
 72
    65
 73
     2
 40
1.905
 49
1.27
 74
     0
 49
-0.635
 74
     0
  0
LTYPE
  5
40
330
5
100
AcDbSymbolTableRecord
100
AcDbLinetypeTableRecord
  2
PHANTOM
 70
     0
  3
Phantom ______  __  __  ______  __  __  ______
 72
    65
 73
     6
 40
12.7
 49
6.35
 74
     0
 49
-1.27
 74
     0
 49
1.27
 74
     0
 49
-1.27
 74
     0
 49
1.27
 74
     0
 49
-1.27
 74
     0
  0
LTYPE
  5
41
330
5
100
AcDbSymbolTableRecord
100
AcDbLinetypeTableRecord
  2
CENTER
 70
     0
  3
Center ____ _ ____ _ ____ _ ____ _ ____ _ ____
 72
    65
 73
     4
 40
10.16
 49
6.35
 74
     0
 49
-1.27
 74
     0
 49
1.27
 74
     0
 49
-1.27
 74
     0
  0
LTYPE
  5
42
330
5
100
AcDbSymbolTableRecord
100
AcDbLinetypeTableRecord
  2
CENTERX2
 70
     0
  3
Center (2x) ________  __  ________  __  _____
 72
    65
 73
     4
 40
20.32
 49
12.7
 74
     0
 49
-2.54
 74
     0
 49
2.54
 74
     0
 49
-2.54
 74
     0
  0
LTYPE
  5
43
330
5
100
AcDbSymbolTableRecord
100
AcDbLinetypeTableRecord
  2
DOT2
 70
     0
  3
Dot (.5x) ........................................
 72
    65
 73
     2
 40
0.635
 49
0.0
 74
     0
 49
-0.635
 74
     0
  0
ENDTAB
  0
TABLE
  2
LAYER
  5
2
330
0
100
AcDbSymbolTable
 70
     5
  0
LAYER
  5
10
330
2
100
AcDbSymbolTableRecord
100
AcDbLayerTableRecord
  2
0
 70
     0
 62
     7
  6
Continuous
370
    -3
390
F
  0
LAYER
  5
44
330
2
100
AcDbSymbolTableRecord
100
AcDbLayerTableRecord
  2
FORMAT
 70
     0
 62
     7
  6
Continuous
370
    -3
390
F
  0
LAYER
  5
45
330
2
100
AcDbSymbolTableRecord
100
AcDbLayerTableRecord
  2
VERMASSUNG
 70
     0
 62
     7
  6
Continuous
370
    -3
390
F
  0
LAYER
  5
46
330
2
100
AcDbSymbolTableRecord
100
AcDbLayerTableRecord
  2
KOPF_DÜNN
 70
     0
 62
     7
  6
Continuous
370
    -3
390
F
  0
LAYER
  5
47
330
2
100
AcDbSymbolTableRecord
100
AcDbLayerTableRecord
  2
KOPF_DICK
 70
     0
 62
     7
  6
Continuous
370
    15
390
F
  0
ENDTAB
  0
TABLE
  2
STYLE
  5
3
330
0
100
AcDbSymbolTable
 70
     2
  0
STYLE
  5
11
330
3
100
AcDbSymbolTableRecord
100
AcDbTextStyleTableRecord
  2
Standard
 70
     0
 40
0.0
 41
1.0
 50
0.0
 71
     0
 42
2.0
  3
txt
  4

  0
STYLE
  5
48
330
3
100
AcDbSymbolTableRecord
100
AcDbTextStyleTableRecord
  2
SLDTEXTSTYLE0
 70
     0
 40
0.0
 41
0.7
 50
0.0
 71
     0
 42
0.2
  3
TXT
  4

  0
ENDTAB
  0
TABLE
  2
VIEW
  5
6
330
0
100
AcDbSymbolTable
 70
     0
  0
ENDTAB
  0
TABLE
  2
UCS
  5
7
330
0
100
AcDbSymbolTable
 70
     0
  0
ENDTAB
  0
TABLE
  2
APPID
  5
9
330
0
100
AcDbSymbolTable
 70
     1
  0
APPID
  5
12
330
9
100
AcDbSymbolTableRecord
100
AcDbRegAppTableRecord
  2
ACAD
 70
     0
  0
ENDTAB
  0
TABLE
  2
DIMSTYLE
  5
A
330
0
100
AcDbSymbolTable
 70
     5
100
AcDbDimStyleTable
  0
DIMSTYLE
105
27
330
A
100
AcDbSymbolTableRecord
100
AcDbDimStyleTableRecord
  2
ISO-25
 70
     0
 41
2.5
 42
0.625
 43
3.75
 44
1.25
 73
     0
 74
     0
 77
     1
 78
     8
140
2.5
141
2.5
143
0.0393700787
147
0.625
171
     3
172
     1
178
     0
271
     2
272
     2
274
     3
278
    44
283
     0
284
     8
340
11
  0
DIMSTYLE
105
1BB
102
{ACAD_REACTORS
330
1BA
330
1C5
330
1CF
330
1E2
330
1EE
102
}
330
A
100
AcDbSymbolTableRecord
100
AcDbDimStyleTableRecord
  2
SLDDIMSTYLE0
 70
     0
 41
3.0
 44
0.0
 45
0.000000001
 73
     0
 74
     0
 77
     1
 78
    12
 79
     3
140
2.0
147
0.5
173
     1
178
     0
271
     2
272
     3
276
     2
284
    12
340
48
  0
DIMSTYLE
105
1DA
102
{ACAD_REACTORS
330
1D9
102
}
330
A
100
AcDbSymbolTableRecord
100
AcDbDimStyleTableRecord
  2
SLDDIMSTYLE1
 70
     0
 41
3.0
 44
0.0
 73
     0
 74
     0
 77
     1
 78
    12
 79
     3
140
2.0
147
0.5
173
     1
178
     0
179
     1
272
     3
276
     2
284
    12
340
48
  0
DIMSTYLE
105
252
102
{ACAD_REACTORS
330
251
102
}
330
A
100
AcDbSymbolTableRecord
100
AcDbDimStyleTableRecord
  2
SLDDIMSTYLE2
 70
     0
 41
3.0
 44
0.0
 45
0.000000001
 73
     0
 74
     0
 77
     1
 78
    12
 79
     3
140
2.0
147
0.5
172
     1
173
     1
178
     0
271
     2
272
     3
276
     2
284
    12
289
     0
340
48
  0
DIMSTYLE
105
261
102
{ACAD_REACTORS
330
260
102
}
330
A
100
AcDbSymbolTableRecord
100
AcDbDimStyleTableRecord
  2
SLDDIMSTYLE3
 70
     0
 41
3.0
 44
0.0
 73
     0
 74
     0
 77
     1
 78
    12
 79
     3
140
2.0
147
0.5
173
     1
178
     0
179
     2
272
     3
276
     2
284
    12
340
48
  0
ENDTAB
  0
TABLE
  2
BLOCK_RECORD
  5
1
330
0
100
AcDbSymbolTable
 70
    10
  0
BLOCK_RECORD
  5
1F
330
1
100
AcDbSymbolTableRecord
100
AcDbBlockTableRecord
  2
*Model_Space
340
22
  0
BLOCK_RECORD
  5
1B
330
1
100
AcDbSymbolTableRecord
100
AcDbBlockTableRecord
  2
*Paper_Space
340
1E
  0
BLOCK_RECORD
  5
23
330
1
100
AcDbSymbolTableRecord
100
AcDbBlockTableRecord
  2
*Paper_Space0
340
26
  0
BLOCK_RECORD
  5
1BC
330
1
100
AcDbSymbolTableRecord
100
AcDbBlockTableRecord
  2
_D
340
0
  0
BLOCK_RECORD
  5
1C6
330
1
100
AcDbSymbolTableRecord
100
AcDbBlockTableRecord
  2
_D_1
340
0
  0
BLOCK_RECORD
  5
1D0
330
1
100
AcDbSymbolTableRecord
100
AcDbBlockTableRecord
  2
_D_2
340
0
  0
BLOCK_RECORD
  5
1DB
330
1
100
AcDbSymbolTableRecord
100
AcDbBlockTableRecord
  2
_D_3
340
0
  0
BLOCK_RECORD
  5
1E3
330
1
100
AcDbSymbolTableRecord
100
AcDbBlockTableRecord
  2
_D_4
340
0
  0
BLOCK_RECORD
  5
1EF
330
1
100
AcDbSymbolTableRecord
100
AcDbBlockTableRecord
  2
_D_5
340
0
  0
BLOCK_RECORD
  5
253
330
1
100
AcDbSymbolTableRecord
100
AcDbBlockTableRecord
  2
_D_6
340
0
  0
BLOCK_RECORD
  5
262
330
1
100
AcDbSymbolTableRecord
100
AcDbBlockTableRecord
  2
_D_7
340
0
  0
BLOCK_RECORD
  5
26B
330
1
100
AcDbSymbolTableRecord
100
AcDbBlockTableRecord
  2
SW_CENTERMARKSYMBOL_0
340
0
102
{BLKREFS
331
276
102
}
  0
ENDTAB
  0
ENDSEC
  0
SECTION
  2
BLOCKS
  0
BLOCK
  5
20
330
1F
100
AcDbEntity
  8
0
100
AcDbBlockBegin
  2
*Model_Space
 70
     0
 10
0.0
 20
0.0
 30
0.0
  3
*Model_Space
  1

  0
ENDBLK
  5
21
330
1F
100
AcDbEntity
  8
0
100
AcDbBlockEnd
  0
BLOCK
  5
1C
330
1B
100
AcDbEntity
 67
     1
  8
0
100
AcDbBlockBegin
  2
*Paper_Space
 70
     0
 10
0.0
 20
0.0
 30
0.0
  3
*Paper_Space
  1

  0
ENDBLK
  5
1D
330
1B
100
AcDbEntity
 67
     1
  8
0
100
AcDbBlockEnd
  0
BLOCK
  5
24
330
23
100
AcDbEntity
  8
0
100
AcDbBlockBegin
  2
*Paper_Space0
 70
     0
 10
0.0
 20
0.0
 30
0.0
  3
*Paper_Space0
  1

  0
ENDBLK
  5
25
330
23
100
AcDbEntity
  8
0
100
AcDbBlockEnd
  0
BLOCK
  5
1BD
330
1BC
100
AcDbEntity
  8
0
100
AcDbBlockBegin
  2
_D
 70
     0
 10
0.0
 20
0.0
 30
0.0
  3
_D
  1

  0
SOLID
  5
1BF
330
1BC
100
AcDbEntity
  8
VERMASSUNG
100
AcDbTrace
 10
155.0948948853
 20
149.5821880436
 30
0.0
 11
158.0948948853
 21
149.1321880436
 31
0.0
 12
158.0948948853
 22
150.0321880436
 32
0.0
 13
158.0948948853
 23
150.0321880436
 33
0.0
  0
SOLID
  5
1C0
330
1BC
100
AcDbEntity
  8
VERMASSUNG
100
AcDbTrace
 10
265.0948948853
 20
149.5821880436
 30
0.0
 11
262.0948948853
 21
150.0321880436
 31
0.0
 12
262.0948948853
 22
149.1321880436
 32
0.0
 13
262.0948948853
 23
149.1321880436
 33
0.0
  0
LINE
  5
1C1
330
1BC
100
AcDbEntity
  8
VERMASSUNG
100
AcDbLine
 10
155.0948948853
 20
140.6354175368
 30
0.0
 11
155.0948948853
 21
150.5821880436
 31
0.0
  0
LINE
  5
1C2
330
1BC
100
AcDbEntity
  8
VERMASSUNG
100
AcDbLine
 10
265.0948948853
 20
137.9354175368
 30
0.0
 11
265.0948948853
 21
150.5821880436
 31
0.0
  0
LINE
  5
1C3
330
1BC
100
AcDbEntity
  8
VERMASSUNG
100
AcDbLine
 10
155.0948948853
 20
149.5821880436
 30
0.0
 11
265.0948948853
 21
149.5821880436
 31
0.0
  0
MTEXT
  5
1C4
330
1BC
100
AcDbEntity
  8
VERMASSUNG
100
AcDbMText
 10
207.4948946454
 20
152.1603234067
 30
0.1
 40
2.0
 41
0.0
 71
     1
 72
     1
  1
110
  7
SLDTEXTSTYLE0
 73
     1
 44
1.0
  0
ENDBLK
  5
1BE
330
1BC
100
AcDbEntity
  8
0
100
AcDbBlockEnd
  0
BLOCK
  5
1C7
330
1C6
100
AcDbEntity
  8
0
100
AcDbBlockBegin
  2
_D_1
 70
     0
 10
0.0
 20
0.0
 30
0.0
  3
_D_1
  1

  0
SOLID
  5
1C9
330
1C6
100
AcDbEntity
  8
VERMASSUNG
100
AcDbTrace
 10
265.0948948853
 20
158.3927577069
 30
0.0
 11
262.0948948853
 21
158.8427577069
 31
0.0
 12
262.0948948853
 22
157.9427577069
 32
0.0
 13
262.0948948853
 23
157.9427577069
 33
0.0
  0
SOLID
  5
1CA
330
1C6
100
AcDbEntity
  8
VERMASSUNG
100
AcDbTrace
 10
125.0948948853
 20
158.3927577069
 30
0.0
 11
128.0948948853
 21
157.9427577069
 31
0.0
 12
128.0948948853
 22
158.8427577069
 32
0.0
 13
128.0948948853
 23
158.8427577069
 33
0.0
  0
LINE
  5
1CB
330
1C6
100
AcDbEntity
  8
VERMASSUNG
100
AcDbLine
 10
265.0948948853
 20
137.9354175368
 30
0.0
 11
265.0948948853
 21
159.3927577069
 31
0.0
  0
LINE
  5
1CC
330
1C6
100
AcDbEntity
  8
VERMASSUNG
100
AcDbLine
 10
125.0948948853
 20
131.928743375
 30
0.0
 11
125.0948948853
 21
159.3927577069
 31
0.0
  0
LINE
  5
1CD
330
1C6
100
AcDbEntity
  8
VERMASSUNG
100
AcDbLine
 10
265.0948948853
 20
158.3927577069
 30
0.0
 11
125.0948948853
 21
158.3927577069
 31
0.0
  0
MTEXT
  5
1CE
330
1C6
100
AcDbEntity
  8
VERMASSUNG
100
AcDbMText
 10
192.1948946894
 20
160.97089307
 30
0.1
 40
2.0
 41
0.0
 71
     1
 72
     1
  1
140
  7
SLDTEXTSTYLE0
 73
     1
 44
1.0
  0
ENDBLK
  5
1C8
330
1C6
100
AcDbEntity
  8
0
100
AcDbBlockEnd
  0
BLOCK
  5
1D1
330
1D0
100
AcDbEntity
  8
0
100
AcDbBlockBegin
  2
_D_2
 70
     0
 10
0.0
 20
0.0
 30
0.0
  3
_D_2
  1

  0
SOLID
  5
1D3
330
1D0
100
AcDbEntity
  8
VERMASSUNG
100
AcDbTrace
 10
283.6441959298
 20
115.9354175368
 30
0.0
 11
284.0941959298
 21
118.9354175368
 31
0.0
 12
283.1941959298
 22
118.9354175368
 32
0.0
 13
283.1941959298
 23
118.9354175368
 33
0.0
  0
SOLID
  5
1D4
330
1D0
100
AcDbEntity
  8
VERMASSUNG
100
AcDbTrace
 10
283.6441959298
 20
137.9354175368
 30
0.0
 11
283.1941959298
 21
134.9354175368
 31
0.0
 12
284.0941959298
 22
134.9354175368
 32
0.0
 13
284.0941959298
 23
134.9354175368
 33
0.0
  0
LINE
  5
1D5
330
1D0
100
AcDbEntity
  8
VERMASSUNG
100
AcDbLine
 10
265.0948948853
 20
115.9354175368
 30
0.0
 11
284.6441959298
 21
115.9354175368
 31
0.0
  0
LINE
  5
1D6
330
1D0
100
AcDbEntity
  8
VERMASSUNG
100
AcDbLine
 10
265.0948948853
 20
137.9354175368
 30
0.0
 11
284.6441959298
 21
137.9354175368
 31
0.0
  0
LINE
  5
1D7
330
1D0
100
AcDbEntity
  8
VERMASSUNG
100
AcDbLine
 10
283.6441959298
 20
115.9354175368
 30
0.0
 11
283.6441959298
 21
137.9354175368
 31
0.0
  0
MTEXT
  5
1D8
330
1D0
100
AcDbEntity
  8
VERMASSUNG
100
AcDbMText
 10
281.0660605667
 20
124.6354174858
 30
0.1
 40
2.0
 41
0.0
 71
     1
 72
     1
  1
22
  7
SLDTEXTSTYLE0
 11
2.503722994132712E-15
 21
1.0
 31
0.0
 73
     1
 44
1.0
  0
ENDBLK
  5
1D2
330
1D0
100
AcDbEntity
  8
0
100
AcDbBlockEnd
  0
BLOCK
  5
1DC
330
1DB
100
AcDbEntity
  8
0
100
AcDbBlockBegin
  2
_D_3
 70
     0
 10
0.0
 20
0.0
 30
0.0
  3
_D_3
  1

  0
ARC
  5
1DE
330
1DB
100
AcDbEntity
  8
VERMASSUNG
100
AcDbCircle
 10
265.2400820245
 20
137.9354175368
 30
0.0
 40
11.04543898794884
100
AcDbArc
 50
252.4906330447
 51
0.0
  0
SOLID
  5
1DF
330
1DB
100
AcDbEntity
  8
VERMASSUNG
100
AcDbTrace
 10
261.9169323281
 20
127.4017382873
 30
0.0
 11
264.7946957585
 21
126.4420624885
 31
0.0
 12
264.9496134947
 22
127.328629178
 32
0.0
 13
264.9496134947
 23
127.328629178
 33
0.0
  0
SOLID
  5
1E0
330
1DB
100
AcDbEntity
  8
VERMASSUNG
100
AcDbTrace
 10
276.2855210124
 20
137.9354175368
 30
0.0
 11
275.4428251629
 21
135.0212514974
 31
0.0
 12
276.3349240627
 22
134.9022575775
 32
0.0
 13
276.3349240627
 23
134.9022575775
 33
0.0
  0
MTEXT
  5
1E1
330
1DB
100
AcDbEntity
  8
VERMASSUNG
100
AcDbMText
 10
266.6977532668
 20
128.5051245925
 30
0.1
 40
2.0
 41
0.0
 71
     1
 72
     1
  1
107.5°
  7
SLDTEXTSTYLE0
 11
0.8064929364690432
 21
0.5912437259079709
 31
0.0
 73
     1
 44
1.0
  0
ENDBLK
  5
1DD
330
1DB
100
AcDbEntity
  8
0
100
AcDbBlockEnd
  0
BLOCK
  5
1E4
330
1E3
100
AcDbEntity
  8
0
100
AcDbBlockBegin
  2
_D_4
 70
     0
 10
0.0
 20
0.0
 30
0.0
  3
_D_4
  1

  0
SOLID
  5
1E6
330
1E3
100
AcDbEntity
  8
VERMASSUNG
100
AcDbTrace
 10
117.907456123
 20
140.9354175368
 30
0.0
 11
117.457456123
 21
137.9354175368
 31
0.0
 12
118.357456123
 22
137.9354175368
 32
0.0
 13
118.357456123
 23
137.9354175368
 33
0.0
  0
SOLID
  5
1E7
330
1E3
100
AcDbEntity
  8
VERMASSUNG
100
AcDbTrace
 10
117.907456123
 20
90.9354175368
 30
0.0
 11
118.357456123
 21
93.9354175368
 31
0.0
 12
117.457456123
 22
93.9354175368
 32
0.0
 13
117.457456123
 23
93.9354175368
 33
0.0
  0
LINE
  5
1E8
330
1E3
100
AcDbEntity
  8
VERMASSUNG
100
AcDbLine
 10
155.3948948853
 20
140.9354175368
 30
0.0
 11
116.907456123
 21
140.9354175368
 31
0.0
  0
LINE
  5
1E9
330
1E3
100
AcDbEntity
  8
VERMASSUNG
100
AcDbLine
 10
155.3948948853
 20
90.9354175368
 30
0.0
 11
116.907456123
 21
90.9354175368
 31
0.0
  0
LINE
  5
1EA
330
1E3
100
AcDbEntity
  8
VERMASSUNG
100
AcDbLine
 10
117.907456123
 20
140.9354175368
 30
0.0
 11
117.907456123
 21
90.9354175368
 31
0.0
  0
MTEXT
  5
1EB
330
1E3
100
AcDbEntity
  8
VERMASSUNG
100
AcDbMText
 10
115.1293206339
 20
109.5304174276
 30
0.1
 40
2.0
 41
0.0
 71
     1
 72
     1
  1
PSC
  7
SLDTEXTSTYLE0
 11
-7.044195017643634E-15
 21
1.0
 31
0.0
 73
     1
 44
1.0
  0
MTEXT
  5
1EC
330
1E3
100
AcDbEntity
  8
VERMASSUNG
100
AcDbMText
 10
115.3293206434
 20
114.1304175296
 30
0.1
 40
2.0
 41
0.0
 71
     1
 72
     1
  1
%%c
  7
SLDTEXTSTYLE0
 11
-7.044195017643634E-15
 21
1.0
 31
0.0
 73
     1
 44
1.0
  0
MTEXT
  5
1ED
330
1E3
100
AcDbEntity
  8
VERMASSUNG
100
AcDbMText
 10
115.1293206339
 20
117.7404180096
 30
0.1
 40
2.0
 41
0.0
 71
     1
 72
     1
  1
50
  7
SLDTEXTSTYLE0
 11
-7.044195017643634E-15
 21
1.0
 31
0.0
 73
     1
 44
1.0
  0
ENDBLK
  5
1E5
330
1E3
100
AcDbEntity
  8
0
100
AcDbBlockEnd
  0
BLOCK
  5
1F0
330
1EF
100
AcDbEntity
  8
0
100
AcDbBlockBegin
  2
_D_5
 70
     0
 10
0.0
 20
0.0
 30
0.0
  3
_D_5
  1

  0
SOLID
  5
1F2
330
1EF
100
AcDbEntity
  8
VERMASSUNG
100
AcDbTrace
 10
193.0056950113
 20
99.9354175368
 30
0.0
 11
193.4556950113
 21
102.9354175368
 31
0.0
 12
192.5556950113
 22
102.9354175368
 32
0.0
 13
192.5556950113
 23
102.9354175368
 33
0.0
  0
SOLID
  5
1F3
330
1EF
100
AcDbEntity
  8
VERMASSUNG
100
AcDbTrace
 10
193.0056950113
 20
131.9354175368
 30
0.0
 11
192.5556950113
 21
128.9354175368
 31
0.0
 12
193.4556950113
 22
128.9354175368
 32
0.0
 13
193.4556950113
 23
128.9354175368
 33
0.0
  0
LINE
  5
1F4
330
1EF
100
AcDbEntity
  8
VERMASSUNG
100
AcDbLine
 10
193.0056950113
 20
99.9354175368
 30
0.0
 11
193.0056950113
 21
131.9354175368
 31
0.0
  0
MTEXT
  5
1F5
330
1EF
100
AcDbEntity
  8
VERMASSUNG
100
AcDbMText
 10
190.4275595317
 20
120.3053997821
 30
0.1
 40
2.0
 41
0.0
 71
     1
 72
     1
  1
%%c
  7
SLDTEXTSTYLE0
 11
6.123233995736766E-17
 21
1.0
 31
0.0
 73
     1
 44
1.0
  0
MTEXT
  5
1F6
330
1EF
100
AcDbEntity
  8
VERMASSUNG
100
AcDbMText
 10
190.2275595222
 20
123.9153997964
 30
0.1
 40
2.0
 41
0.0
 71
     1
 72
     1
  1
32
  7
SLDTEXTSTYLE0
 11
6.123233995736766E-17
 21
1.0
 31
0.0
 73
     1
 44
1.0
  0
ENDBLK
  5
1F1
330
1EF
100
AcDbEntity
  8
0
100
AcDbBlockEnd
  0
BLOCK
  5
254
330
253
100
AcDbEntity
  8
0
100
AcDbBlockBegin
  2
_D_6
 70
     0
 10
0.0
 20
0.0
 30
0.0
  3
_D_6
  1

  0
SOLID
  5
256
330
253
100
AcDbEntity
  8
VERMASSUNG
100
AcDbTrace
 10
85.1308203108
 20
103.7842131221
 30
0.0
 11
86.9339426028
 21
101.344694727
 31
0.0
 12
87.5703387059
 22
101.98109083
 32
0.0
 13
87.5703387059
 23
101.98109083
 33
0.0
  0
SOLID
  5
257
330
253
100
AcDbEntity
  8
VERMASSUNG
100
AcDbTrace
 10
56.8465490633
 20
132.0684843695
 30
0.0
 11
55.0434267713
 21
134.5080027646
 31
0.0
 12
54.4070306682
 22
133.8716066616
 32
0.0
 13
54.4070306682
 23
133.8716066616
 33
0.0
  0
LINE
  5
258
330
253
100
AcDbEntity
  8
VERMASSUNG
100
AcDbLine
 10
85.1308203108
 20
103.7842131221
 30
0.0
 11
85.8379270919
 21
104.4913199033
 31
0.0
  0
LINE
  5
259
330
253
100
AcDbEntity
  8
VERMASSUNG
100
AcDbLine
 10
56.8465490633
 20
132.0684843695
 30
0.0
 11
57.5536558445
 21
132.7755911507
 31
0.0
  0
LINE
  5
25A
330
253
100
AcDbEntity
  8
VERMASSUNG
100
AcDbLine
 10
85.1308203108
 20
103.7842131221
 30
0.0
 11
89.3734609979
 21
99.541572435
 31
0.0
  0
LINE
  5
25B
330
253
100
AcDbEntity
  8
VERMASSUNG
100
AcDbLine
 10
85.1308203108
 20
103.7842131221
 30
0.0
 11
56.8465490633
 21
132.0684843695
 31
0.0
  0
LINE
  5
25C
330
253
100
AcDbEntity
  8
VERMASSUNG
100
AcDbLine
 10
56.8465490633
 20
132.0684843695
 30
0.0
 11
43.5271277812
 21
145.3879056517
 31
0.0
  0
MTEXT
  5
25D
330
253
100
AcDbEntity
  8
VERMASSUNG
100
AcDbMText
 10
45.3501448616
 20
147.2109227321
 30
0.1
 40
2.0
 41
0.0
 71
     1
 72
     1
  1
%%c
  7
SLDTEXTSTYLE0
 11
0.7071067811865464
 21
-0.7071067811865488
 31
0.0
 73
     1
 44
1.0
  0
MTEXT
  5
25E
330
253
100
AcDbEntity
  8
VERMASSUNG
100
AcDbMText
 10
48.0442217147
 20
144.7996886048
 30
0.1
 40
2.0
 41
0.0
 71
     1
 72
     1
  1
40
  7
SLDTEXTSTYLE0
 11
0.7071067811865464
 21
-0.7071067811865488
 31
0.0
 73
     1
 44
1.0
  0
MTEXT
  5
25F
330
253
100
AcDbEntity
  8
VERMASSUNG
100
AcDbMText
 10
52.2780237283
 20
140.5658865913
 30
0.1
 40
2.0
 41
0.0
 71
     1
 72
     1
  1
min.
  7
SLDTEXTSTYLE0
 11
0.7071067811865464
 21
-0.7071067811865488
 31
0.0
 73
     1
 44
1.0
  0
ENDBLK
  5
255
330
253
100
AcDbEntity
  8
0
100
AcDbBlockEnd
  0
BLOCK
  5
263
330
262
100
AcDbEntity
  8
0
100
AcDbBlockBegin
  2
_D_7
 70
     0
 10
0.0
 20
0.0
 30
0.0
  3
_D_7
  1

  0
ARC
  5
265
330
262
100
AcDbEntity
  8
VERMASSUNG
100
AcDbCircle
 10
70.988684687
 20
137.9263487458
 30
0.0
 40
53.34699701145513
100
AcDbArc
 50
258.0
 51
270.0
  0
SOLID
  5
266
330
262
100
AcDbEntity
  8
VERMASSUNG
100
AcDbTrace
 10
59.8972203383
 20
85.7451116127
 30
0.0
 11
62.7668614612
 21
84.7614145933
 31
0.0
 12
62.9291844492
 22
85.6466553784
 32
0.0
 13
62.9291844492
 23
85.6466553784
 33
0.0
  0
SOLID
  5
267
330
262
100
AcDbEntity
  8
VERMASSUNG
100
AcDbTrace
 10
70.988684687
 20
84.5793517344
 30
0.0
 11
68.0025060643
 21
85.1134277898
 31
0.0
 12
67.9772299972
 22
84.2137827929
 32
0.0
 13
67.9772299972
 23
84.2137827929
 33
0.0
  0
LINE
  5
268
330
262
100
AcDbEntity
  8
VERMASSUNG
100
AcDbLine
 10
60.7192792806
 20
89.6125948644
 30
0.0
 11
59.6893086475
 21
84.766964012
 31
0.0
  0
LINE
  5
269
330
262
100
AcDbEntity
  8
VERMASSUNG
100
AcDbLine
 10
70.988684687
 20
88.4354175368
 30
0.0
 11
70.988684687
 21
83.5793517344
 31
0.0
  0
MTEXT
  5
26A
330
262
100
AcDbEntity
  8
VERMASSUNG
100
AcDbMText
 10
62.9966844099
 20
87.7178310918
 30
0.1
 40
2.0
 41
0.0
 71
     1
 72
     1
  1
12°
  7
SLDTEXTSTYLE0
 11
0.9945218953682752
 21
-0.1045284632676357
 31
0.0
 73
     1
 44
1.0
  0
ENDBLK
  5
264
330
262
100
AcDbEntity
  8
0
100
AcDbBlockEnd
  0
BLOCK
  5
26C
330
26B
100
AcDbEntity
  8
0
100
AcDbBlockBegin
  2
SW_CENTERMARKSYMBOL_0
 70
     0
 10
0.0
 20
0.0
 30
0.0
  3
SW_CENTERMARKSYMBOL_0
  1

  0
LINE
  5
26E
330
26B
100
AcDbEntity
  8
VERMASSUNG
 62
     0
100
AcDbLine
 10
0.0
 20
0.0
 30
0.0
 11
0.0
 21
2.5
 31
0.0
  0
LINE
  5
26F
330
26B
100
AcDbEntity
  8
VERMASSUNG
 62
     0
100
AcDbLine
 10
0.0
 20
0.0
 30
0.0
 11
-2.5
 21
0.0
 31
0.0
  0
LINE
  5
270
330
26B
100
AcDbEntity
  8
VERMASSUNG
 62
     0
100
AcDbLine
 10
0.0
 20
0.0
 30
0.0
 11
0.0
 21
-2.5
 31
0.0
  0
LINE
  5
271
330
26B
100
AcDbEntity
  8
VERMASSUNG
 62
     0
100
AcDbLine
 10
0.0
 20
0.0
 30
0.0
 11
2.5
 21
0.0
 31
0.0
  0
LINE
  5
272
330
26B
100
AcDbEntity
  8
VERMASSUNG
 62
     0
100
AcDbLine
 10
0.0
 20
5.0
 30
0.0
 11
0.0
 21
27.5
 31
0.0
  0
LINE
  5
273
330
26B
100
AcDbEntity
  8
VERMASSUNG
 62
     0
100
AcDbLine
 10
-5.0
 20
0.0
 30
0.0
 11
-27.5
 21
0.0
 31
0.0
  0
LINE
  5
274
330
26B
100
AcDbEntity
  8
VERMASSUNG
 62
     0
100
AcDbLine
 10
0.0
 20
-5.0
 30
0.0
 11
0.0
 21
-27.5
 31
0.0
  0
LINE
  5
275
330
26B
100
AcDbEntity
  8
VERMASSUNG
 62
     0
100
AcDbLine
 10
5.0
 20
0.0
 30
0.0
 11
27.5
 21
0.0
 31
0.0
  0
ENDBLK
  5
26D
330
26B
100
AcDbEntity
  8
0
100
AcDbBlockEnd
  0
ENDSEC
  0
SECTION
  2
ENTITIES
  0
MTEXT
  5
49
330
1F
100
AcDbEntity
  8
KOPF_DÜNN
100
AcDbMText
 10
13.8892156294
 20
23.8442973028
 30
0.0
 40
3.0
 41
0.0
 71
     1
 72
     1
  1
PS5.PDF.RQB.110
  7
SLDTEXTSTYLE0
 73
     1
 44
1.0
  0
MTEXT
  5
4A
330
1F
100
AcDbEntity
  8
VERMASSUNG
100
AcDbMText
 10
13.9329988022
 20
28.8834360957
 30
0.0
 40
3.0
 41
0.0
 71
     1
 72
     1
  1
Bohrstange rechts_Boring bar right
  7
SLDTEXTSTYLE0
 73
     1
 44
1.0
  0
MTEXT
  5
4B
330
1F
100
AcDbEntity
  8
VERMASSUNG
100
AcDbMText
 10
98.8601118557
 20
13.8365368179
 30
0.0
 40
2.0
 41
0.0
 71
     1
 72
     1
  1
Datum: 08.06.2012
  7
SLDTEXTSTYLE0
 73
     1
 44
1.0
  0
MTEXT
  5
4C
330
1F
100
AcDbEntity
  8
VERMASSUNG
100
AcDbMText
 10
13.933048693
 20
18.0482802738
 30
0.0
 40
2.0
 41
0.0
 71
     1
 72
     1
  1
PSC ø50 / Wp.: DN..15 06..
  7
SLDTEXTSTYLE0
 73
     1
 44
1.0
  0
MTEXT
  5
4D
330
1F
100
AcDbEntity
  8
VERMASSUNG
100
AcDbMText
 10
13.9808475933
 20
13.9090973692
 30
0.0
 40
2.0
 41
0.0
 71
     1
 72
     1
  1
Gewicht: 875g
  7
SLDTEXTSTYLE0
 73
     1
 44
1.0
  0
ARC
  5
4E
330
1F
100
AcDbEntity
  8
0
  6
Continuous
 62
     7
370
    15
100
AcDbCircle
 10
174.4948948853
 20
91.5354175368
 30
0.0
 40
0.6000000000000227
100
AcDbArc
 50
270.0
 51
0.0
  0
ARC
  5
4F
330
1F
100
AcDbEntity
  8
0
  6
Continuous
 62
     7
370
    15
100
AcDbCircle
 10
174.4948948853
 20
140.3354175368
 30
0.0
 40
0.6000000000000227
100
AcDbArc
 50
0.0
 51
90.0
  0
ARC
  5
50
330
1F
100
AcDbEntity
  8
0
  6
Continuous
 62
     7
370
    15
100
AcDbCircle
 10
155.3948948853
 20
91.2354175368
 30
0.0
 40
0.2999999999999972
100
AcDbArc
 50
180.0
 51
270.0
  0
ARC
  5
51
330
1F
100
AcDbEntity
  8
0
  6
Continuous
 62
     7
370
    15
100
AcDbCircle
 10
155.3948948853
 20
140.6354175368
 30
0.0
 40
0.3000000000000114
100
AcDbArc
 50
90.0
 51
180.0
  0
LINE
  5
52
330
1F
100
AcDbEntity
  8
0
  6
Continuous
 62
     7
370
    15
100
AcDbLine
 10
155.3948948853
 20
90.9354175368
 30
0.0
 11
174.4948948853
 21
90.9354175368
 31
0.0
  0
LINE
  5
53
330
1F
100
AcDbEntity
  8
0
  6
Continuous
 62
     7
370
    15
100
AcDbLine
 10
174.4948948853
 20
140.9354175368
 30
0.0
 11
155.3948948853
 21
140.9354175368
 31
0.0
  0
ARC
  5
54
330
1F
100
AcDbEntity
  8
0
  6
Continuous
 62
     7
370
    15
100
AcDbCircle
 10
179.0948948853
 20
95.9354175368
 30
0.0
 40
4.0
100
AcDbArc
 50
90.0
 51
180.0
  0
ARC
  5
55
330
1F
100
AcDbEntity
  8
0
  6
Continuous
 62
     7
370
    15
100
AcDbCircle
 10
179.0948948853
 20
135.9354175368
 30
0.0
 40
4.0
100
AcDbArc
 50
180.0
 51
270.0
  0
LWPOLYLINE
  5
56
330
1F
100
AcDbEntity
  8
0
  6
Continuous
 62
     7
370
    15
100
AcDbPolyline
 90
        3
 70
   128
 43
0.0
 10
154.8948948853
 20
98.0955972579
 10
155.0203498288
 20
98.027295143
 10
155.0948948853
 20
97.9745573849
  0
LWPOLYLINE
  5
57
330
1F
100
AcDbEntity
  8
0
  6
Continuous
 62
     7
370
    15
100
AcDbPolyline
 90
        3
 70
   128
 43
0.0
 10
155.0948948853
 20
133.8962776887
 10
155.0203498288
 20
133.8435399306
 10
154.8948948853
 20
133.7752378157
  0
LINE
  5
58
330
1F
100
AcDbEntity
  8
0
  6
Continuous
 62
     7
370
    15
100
AcDbLine
 10
179.0948948853
 20
99.9354175368
 30
0.0
 11
238.6806813229
 21
99.9354175368
 31
0.0
  0
LINE
  5
59
330
1F
100
AcDbEntity
  8
0
  6
Continuous
 62
     7
370
    15
100
AcDbLine
 10
238.6806813229
 20
131.9354175368
 30
0.0
 11
179.0948948853
 21
131.9354175368
 31
0.0
  0
ARC
  5
5A
330
1F
100
AcDbEntity
  8
0
  6
Continuous
 62
     7
370
    15
100
AcDbCircle
 10
238.6806813229
 20
98.9354175368
 30
0.0
 40
1.0
100
AcDbArc
 50
45.0
 51
90.0
  0
ARC
  5
5B
330
1F
100
AcDbEntity
  8
0
  6
Continuous
 62
     7
370
    15
100
AcDbCircle
 10
238.6806813229
 20
132.9354175368
 30
0.0
 40
1.0
100
AcDbArc
 50
270.0
 51
315.0
  0
LINE
  5
5C
330
1F
100
AcDbEntity
  8
0
  6
Continuous
 62
     7
370
    15
100
AcDbLine
 10
239.5948948853
 20
99.4354175368
 30
0.0
 11
252.3092826612
 21
99.4354175368
 31
0.0
  0
LINE
  5
5D
330
1F
100
AcDbEntity
  8
0
  6
Continuous
 62
     7
370
    15
100
AcDbLine
 10
239.9669005829
 20
132.8074232343
 30
0.0
 11
239.3877881041
 21
132.2283107556
 31
0.0
  0
LINE
  5
5E
330
1F
100
AcDbEntity
  8
0
  6
Continuous
 62
     7
370
    15
100
AcDbLine
 10
239.3877881041
 20
99.642524318
 30
0.0
 11
239.5948948853
 21
99.4354175368
 31
0.0
  0
LINE
  5
5F
330
1F
100
AcDbEntity
  8
0
  6
Continuous
 62
     7
370
    15
100
AcDbLine
 10
259.8922654419
 20
122.1750975166
 30
0.0
 11
260.0213623724
 21
122.4304702999
 31
0.0
  0
LINE
  5
60
330
1F
100
AcDbEntity
  8
0
  6
Continuous
 62
     7
370
    15
100
AcDbLine
 10
260.1366118157
 20
122.566030848
 30
0.0
 11
260.8003675574
 21
123.8790376761
 31
0.0
  0
LINE
  5
61
330
1F
100
AcDbEntity
  8
0
  6
Continuous
 62
     7
370
    15
100
AcDbLine
 10
250.5907566578
 20
133.666024884
 30
0.0
 11
250.5444453322
 21
133.5744142466
 31
0.0
  0
LINE
  5
62
330
1F
100
AcDbEntity
  8
0
  6
Continuous
 62
     7
370
    15
100
AcDbLine
 10
257.4252373431
 20
126.8707083235
 30
0.0
 11
257.4892519448
 21
126.9911381976
 31
0.0
  0
LINE
  5
63
330
1F
100
AcDbEntity
  8
0
  6
Continuous
 62
     7
370
    15
100
AcDbLine
 10
253.3372293184
 20
129.1935742194
 30
0.0
 11
253.1298236907
 21
128.8033845916
 31
0.0
  0
LINE
  5
64
330
1F
100
AcDbEntity
  8
0
  6
Continuous
 62
     7
370
    15
100
AcDbLine
 10
175.0948948853
 20
91.5354175368
 30
0.0
 11
175.0948948853
 21
140.335417535
 31
0.0
  0
LINE
  5
65
330
1F
100
AcDbEntity
  8
0
  6
Continuous
 62
     7
370
    15
100
AcDbLine
 10
155.0948948853
 20
91.2354175368
 30
0.0
 11
155.0948948853
 21
140.6354175368
 31
0.0
  0
SPLINE
  5
66
330
1F
100
AcDbEntity
  8
0
  6
Continuous
 62
     7
370
    15
100
AcDbSpline
210
0.0
220
0.0
230
1.0
 70
     8
 71
     3
 72
    12
 73
     8
 74
     0
 42
0.00000001
 43
0.00000001
 12
1.0
 22
0.0
 32
0.0
 13
1.0
 23
0.0
 33
0.0
 40
0.0
 40
0.0
 40
0.0
 40
0.0
 40
0.2499999999999977
 40
0.2499999999999977
 40
0.4999999999999954
 40
0.4999999999999954
 40
1.0
 40
1.0
 40
1.0
 40
1.0
 10
163.6226516988727
 20
123.5042275059707
 30
0.0
 10
163.5589864623422
 20
123.5042275059707
 30
0.0
 10
163.4993802301189
 20
123.5302996544504
 30
0.0
 10
163.400719705188
 20
123.6058384052715
 30
0.0
 10
163.3617527151728
 20
123.6530893423677
 30
0.0
 10
163.2623658832483
 20
123.8049131603342
 30
0.0
 10
163.2202896358249
 20
123.9177164100993
 30
0.0
 10
163.1896389969805
 20
124.0318705348344
 30
0.0
  0
LINE
  5
67
330
1F
100
AcDbEntity
  8
0
  6
Continuous
 62
     7
370
    15
100
AcDbLine
 10
166.5671380717
 20
123.504227506
 30
0.0
 11
163.6226516989
 21
123.504227506
 31
0.0
  0
SPLINE
  5
68
330
1F
100
AcDbEntity
  8
0
  6
Continuous
 62
     7
370
    15
100
AcDbSpline
210
0.0
220
0.0
230
1.0
 70
     8
 71
     3
 72
    12
 73
     8
 74
     0
 42
0.00000001
 43
0.00000001
 12
1.0
 22
0.0
 32
0.0
 13
1.0
 23
0.0
 33
0.0
 40
0.0
 40
0.0
 40
0.0
 40
0.0
 40
0.4999999999999987
 40
0.4999999999999987
 40
0.7499999999999993
 40
0.7499999999999993
 40
1.0
 40
1.0
 40
1.0
 40
1.0
 10
167.0001507736321
 20
124.0318705348344
 30
0.0
 10
166.9694513902648
 20
123.9175348677705
 30
0.0
 10
166.9281013221583
 20
123.8061815149292
 30
0.0
 10
166.8283453939388
 20
123.6534447426804
 30
0.0
 10
166.7886484762061
 20
123.6055848568283
 30
0.0
 10
166.6913903245585
 20
123.5309817434788
 30
0.0
 10
166.6306141665678
 20
123.5042275059707
 30
0.0
 10
166.5671380717398
 20
123.5042275059707
 30
0.0
  0
ELLIPSE
  5
69
330
1F
100
AcDbEntity
  8
0
  6
Continuous
 62
     7
370
    15
100
AcDbEllipse
 10
154.0386372303
 20
115.9354175368
 30
0.0
 11
11.70927234972711
 21
24.67718644093743
 31
0.0
210
0.0
220
0.0
230
1.0
 40
0.3419987131
 41
5.203068809370451
 42
6.114256032590497
  0
SPLINE
  5
6A
330
1F
100
AcDbEntity
  8
0
  6
Continuous
 62
     7
370
    15
100
AcDbSpline
210
0.0
220
0.0
230
1.0
 70
     8
 71
     3
 72
    12
 73
     8
 74
     0
 42
0.00000001
 43
0.00000001
 12
1.0
 22
0.0
 32
0.0
 13
1.0
 23
0.0
 33
0.0
 40
0.0
 40
0.0
 40
0.0
 40
0.0
 40
0.2500000000000023
 40
0.2500000000000023
 40
0.5000000000000047
 40
0.5000000000000047
 40
1.0
 40
1.0
 40
1.0
 40
1.0
 10
166.5671380717398
 20
139.7621486522922
 30
0.0
 10
166.6308033082703
 20
139.7621486522922
 30
0.0
 10
166.6904095404937
 20
139.7538838766264
 30
0.0
 10
166.7890700654246
 20
139.7296650950432
 30
0.0
 10
166.8280370554398
 20
139.7144077757341
 30
0.0
 10
166.9274238873643
 20
139.6647744214721
 30
0.0
 10
166.9695001347877
 20
139.627134713298
 30
0.0
 10
167.0001507736321
 20
139.5880590140219
 30
0.0
  0
LINE
  5
6B
330
1F
100
AcDbEntity
  8
0
  6
Continuous
 62
     7
370
    15
100
AcDbLine
 10
163.6226516989
 20
139.7621486523
 30
0.0
 11
166.5671380717
 21
139.7621486523
 31
0.0
  0
SPLINE
  5
6C
330
1F
100
AcDbEntity
  8
0
  6
Continuous
 62
     7
370
    15
100
AcDbSpline
210
0.0
220
0.0
230
1.0
 70
     8
 71
     3
 72
    12
 73
     8
 74
     0
 42
0.00000001
 43
0.00000001
 12
1.0
 22
0.0
 32
0.0
 13
1.0
 23
0.0
 33
0.0
 40
0.0
 40
0.0
 40
0.0
 40
0.0
 40
0.5000000000000018
 40
0.5000000000000018
 40
0.7500000000000009
 40
0.7500000000000009
 40
1.0
 40
1.0
 40
1.0
 40
1.0
 10
163.1896389969805
 20
139.5880590140219
 30
0.0
 10
163.2203383803478
 20
139.6271968564178
 30
0.0
 10
163.2616884484544
 20
139.6643566391433
 30
0.0
 10
163.3614443766738
 20
139.714293144771
 30
0.0
 10
163.4011412944065
 20
139.7297460149148
 30
0.0
 10
163.4983994460541
 20
139.7536655585138
 30
0.0
 10
163.5591756040448
 20
139.7621486522922
 30
0.0
 10
163.6226516988727
 20
139.7621486522922
 30
0.0
  0
ELLIPSE
  5
6D
330
1F
100
AcDbEntity
  8
0
  6
Continuous
 62
     7
370
    15
100
AcDbEllipse
 10
176.1511525403
 20
115.9354175368
 30
0.0
 11
-11.70927234972697
 21
24.67718644093743
 31
0.0
210
0.0
220
0.0
230
1.0
 40
0.3419987131
 41
0.1689292745891316
 42
1.080116497809152
  0
SPLINE
  5
6E
330
1F
100
AcDbEntity
  8
0
  6
Continuous
 62
     7
370
    15
100
AcDbSpline
210
0.0
220
0.0
230
1.0
 70
     8
 71
     3
 72
    12
 73
     8
 74
     0
 42
0.00000001
 43
0.00000001
 12
1.0
 22
0.0
 32
0.0
 13
1.0
 23
0.0
 33
0.0
 40
0.0
 40
0.0
 40
0.0
 40
0.0
 40
0.2500000000000018
 40
0.2500000000000018
 40
0.5000000000000037
 40
0.5000000000000037
 40
1.0
 40
1.0
 40
1.0
 40
1.0
 10
163.6226516988727
 20
92.10868642128833
 30
0.0
 10
163.559015144659
 20
92.10868642128833
 30
0.0
 10
163.4994350177928
 20
92.11694319222006
 30
0.0
 10
163.4007982764265
 20
92.1411452542279
 30
0.0
 10
163.3618396520462
 20
92.15639207326203
 30
0.0
 10
163.2624607125383
 20
92.20599694532216
 30
0.0
 10
163.2205028073728
 20
92.24342859344097
 30
0.0
 10
163.1896389969803
 20
92.28277605955863
 30
0.0
  0
LINE
  5
6F
330
1F
100
AcDbEntity
  8
0
  6
Continuous
 62
     7
370
    15
100
AcDbLine
 10
166.5671380717
 20
92.1086864213
 30
0.0
 11
163.6226516989
 21
92.1086864213
 31
0.0
  0
SPLINE
  5
70
330
1F
100
AcDbEntity
  8
0
  6
Continuous
 62
     7
370
    15
100
AcDbSpline
210
0.0
220
0.0
230
1.0
 70
     8
 71
     3
 72
    12
 73
     8
 74
     0
 42
0.00000001
 43
0.00000001
 12
1.0
 22
0.0
 32
0.0
 13
1.0
 23
0.0
 33
0.0
 40
0.0
 40
0.0
 40
0.0
 40
0.0
 40
0.4999999999999963
 40
0.4999999999999963
 40
0.7499999999999981
 40
0.7499999999999981
 40
1.0
 40
1.0
 40
1.0
 40
1.0
 10
167.0001507736321
 20
92.28277605955866
 30
0.0
 10
166.9692990630679
 20
92.24344401919616
 30
0.0
 10
166.9274061996072
 20
92.20603225366791
 30
0.0
 10
166.827885321814
 20
92.15636132905199
 30
0.0
 10
166.7882711570897
 20
92.14097224644416
 30
0.0
 10
166.6911681233103
 20
92.11713903077691
 30
0.0
 10
166.6306694506599
 20
92.10868642128813
 30
0.0
 10
166.5671380717399
 20
92.10868642128811
 30
0.0
  0
ELLIPSE
  5
71
330
1F
100
AcDbEntity
  8
0
  6
Continuous
 62
     7
370
    15
100
AcDbEllipse
 10
154.0386372303
 20
115.9354175368
 30
0.0
 11
-11.7092723497272
 21
24.67718644093743
 31
0.0
210
0.0
220
0.0
230
1.0
 40
0.3419987131
 41
3.310521928178951
 42
4.221709151398942
  0
SPLINE
  5
72
330
1F
100
AcDbEntity
  8
0
  6
Continuous
 62
     7
370
    15
100
AcDbSpline
210
0.0
220
0.0
230
1.0
 70
     8
 71
     3
 72
    12
 73
     8
 74
     0
 42
0.00000001
 43
0.00000001
 12
1.0
 22
0.0
 32
0.0
 13
1.0
 23
0.0
 33
0.0
 40
0.0
 40
0.0
 40
0.0
 40
0.0
 40
0.2499999999999974
 40
0.2499999999999974
 40
0.4999999999999949
 40
0.4999999999999949
 40
1.0
 40
1.0
 40
1.0
 40
1.0
 10
166.5671380717398
 20
108.3666075676096
 30
0.0
 10
166.6307746259535
 20
108.3666075676096
 30
0.0
 10
166.6903547528197
 20
108.3405606645516
 30
0.0
 10
166.7889914941861
 20
108.2650735056517
 30
0.0
 10
166.8279501185664
 20
108.217854467121
 30
0.0
 10
166.9273290580743
 20
108.0661148160275
 30
0.0
 10
166.9692869632398
 20
107.9539125918432
 30
0.0
 10
167.0001507736323
 20
107.838964538746
 30
0.0
  0
LINE
  5
73
330
1F
100
AcDbEntity
  8
0
  6
Continuous
 62
     7
370
    15
100
AcDbLine
 10
163.6226516989
 20
108.3666075676
 30
0.0
 11
166.5671380717
 21
108.3666075676
 31
0.0
  0
SPLINE
  5
74
330
1F
100
AcDbEntity
  8
0
  6
Continuous
 62
     7
370
    15
100
AcDbSpline
210
0.0
220
0.0
230
1.0
 70
     8
 71
     3
 72
    12
 73
     8
 74
     0
 42
0.00000001
 43
0.00000001
 12
1.0
 22
0.0
 32
0.0
 13
1.0
 23
0.0
 33
0.0
 40
0.0
 40
0.0
 40
0.0
 40
0.0
 40
0.5
 40
0.5
 40
0.75
 40
0.75
 40
1.0
 40
1.0
 40
1.0
 40
1.0
 10
163.1896389969805
 20
107.8389645387459
 30
0.0
 10
163.2204907075447
 20
107.9538675276828
 30
0.0
 10
163.2623835710054
 20
108.0660064237316
 30
0.0
 10
163.3619044487986
 20
108.2179487053325
 30
0.0
 10
163.4015186135229
 20
108.2656133148574
 30
0.0
 10
163.4986216473023
 20
108.3399496454728
 30
0.0
 10
163.5591203199527
 20
108.3666075676099
 30
0.0
 10
163.6226516988727
 20
108.36660756761
 30
0.0
  0
ELLIPSE
  5
75
330
1F
100
AcDbEntity
  8
0
  6
Continuous
 62
     7
370
    15
100
AcDbEllipse
 10
176.1511525403
 20
115.9354175368
 30
0.0
 11
11.70927234972708
 21
24.67718644093743
 31
0.0
210
0.0
220
0.0
230
1.0
 40
0.3419987131
 41
2.061476155780655
 42
2.972663379000674
  0
SPLINE
  5
76
330
1F
100
AcDbEntity
  8
0
  6
Continuous
 62
     7
370
    15
100
AcDbSpline
210
0.0
220
0.0
230
1.0
 70
     8
 71
     3
 72
    16
 73
    12
 74
     0
 42
0.00000001
 43
0.00000001
 12
1.0
 22
0.0
 32
0.0
 13
1.0
 23
0.0
 33
0.0
 40
0.0
 40
0.0
 40
0.0
 40
0.0
 40
0.2500000000000006
 40
0.2500000000000006
 40
0.5000000000000011
 40
0.5000000000000011
 40
0.6250000000000009
 40
0.6250000000000009
 40
0.7500000000000008
 40
0.7500000000000008
 40
1.0
 40
1.0
 40
1.0
 40
1.0
 10
154.0540338571772
 20
98.58626025559775
 30
0.0
 10
154.0857618183699
 20
98.5854631387768
 30
0.0
 10
154.1203894087205
 20
98.58487206392155
 30
0.0
 10
154.2000831707841
 20
98.5838605384871
 30
0.0
 10
154.2451246307878
 20
98.58346043031221
 30
0.0
 10
154.3279773576382
 20
98.58250255840838
 30
0.0
 10
154.3578918188381
 20
98.58212087714794
 30
0.0
 10
154.423878149396
 20
98.5810446630894
 30
0.0
 10
154.4606117748578
 20
98.58032709719528
 30
0.0
 10
154.5731084944276
 20
98.57756621951361
 30
0.0
 10
154.6434498425259
 20
98.57507912764201
 30
0.0
 10
154.6999179964311
 20
98.57290584923491
 30
0.0
  0
SPLINE
  5
77
330
1F
100
AcDbEntity
  8
0
  6
Continuous
 62
     7
370
    15
100
AcDbSpline
210
0.0
220
0.0
230
1.0
 70
     8
 71
     3
 72
    14
 73
    10
 74
     0
 42
0.00000001
 43
0.00000001
 12
1.0
 22
0.0
 32
0.0
 13
1.0
 23
0.0
 33
0.0
 40
0.0
 40
0.0
 40
0.0
 40
0.0
 40
0.1250000000000004
 40
0.1250000000000004
 40
0.2500000000000007
 40
0.2500000000000007
 40
0.5000000000000014
 40
0.5000000000000014
 40
1.0
 40
1.0
 40
1.0
 40
1.0
 10
154.6999179963994
 20
98.57290584925762
 30
0.0
 10
154.7125097903442
 20
98.57242123143529
 30
0.0
 10
154.7273808986383
 20
98.57071105350293
 30
0.0
 10
154.7595649900715
 20
98.56259550475208
 30
0.0
 10
154.7751691215473
 20
98.55637971649074
 30
0.0
 10
154.8110562612594
 20
98.53816060478918
 30
0.0
 10
154.8249083025281
 20
98.52639557645554
 30
0.0
 10
154.8583980444607
 20
98.49460044003821
 30
0.0
 10
154.8690603050364
 20
98.47680700819508
 30
0.0
 10
154.8771982619314
 20
98.46037587735069
 30
0.0
  0
LINE
  5
78
330
1F
100
AcDbEntity
  8
0
  6
Continuous
 62
     7
370
    15
100
AcDbLine
 10
154.8948948853
 20
109.9509373042
 30
0.0
 11
154.8948948853
 21
98.0955972579
 31
0.0
  0
SPLINE
  5
79
330
1F
100
AcDbEntity
  8
0
  6
Continuous
 62
     7
370
    15
100
AcDbSpline
210
0.0
220
0.0
230
1.0
 70
     8
 71
     3
 72
    16
 73
    12
 74
     0
 42
0.00000001
 43
0.00000001
 12
1.0
 22
0.0
 32
0.0
 13
1.0
 23
0.0
 33
0.0
 40
0.0
 40
0.0
 40
0.0
 40
0.0
 40
0.4999999999999983
 40
0.4999999999999983
 40
0.7499999999999992
 40
0.7499999999999992
 40
0.8750000000000004
 40
0.8750000000000004
 40
0.9375000000000002
 40
0.9375000000000002
 40
1.0
 40
1.0
 40
1.0
 40
1.0
 10
154.8948948853063
 20
109.9509373042157
 30
0.0
 10
154.8948948853063
 20
110.0654670349147
 30
0.0
 10
154.8908375831913
 20
110.1807831101042
 30
0.0
 10
154.8651803403964
 20
110.3557061999317
 30
0.0
 10
154.8538648946543
 20
110.4155355029266
 30
0.0
 10
154.8198335273457
 20
110.5001266891748
 30
0.0
 10
154.8059545461419
 20
110.5287962753189
 30
0.0
 10
154.7700188643745
 20
110.5586040622652
 30
0.0
 10
154.7550685451118
 20
110.5649392156248
 30
0.0
 10
154.7251700323699
 20
110.5637137527545
 30
0.0
 10
154.7116371720047
 20
110.5571151667197
 30
0.0
 10
154.6999179964307
 20
110.5484674786633
 30
0.0
  0
SPLINE
  5
7A
330
1F
100
AcDbEntity
  8
0
  6
Continuous
 62
     7
370
    15
100
AcDbSpline
210
0.0
220
0.0
230
1.0
 70
     8
 71
     3
 72
    14
 73
    10
 74
     0
 42
0.00000001
 43
0.00000001
 12
1.0
 22
0.0
 32
0.0
 13
1.0
 23
0.0
 33
0.0
 40
0.0
 40
0.0
 40
0.0
 40
0.0
 40
0.25
 40
0.25
 40
0.5
 40
0.5
 40
0.75
 40
0.75
 40
1.0
 40
1.0
 40
1.0
 40
1.0
 10
154.6999179964375
 20
110.5484674786546
 30
0.0
 10
154.6434583305538
 20
110.5068053689559
 30
0.0
 10
154.5725858556916
 20
110.4759718883677
 30
0.0
 10
154.4241194978096
 20
110.4816863969808
 30
0.0
 10
154.3549242946018
 20
110.5172573244137
 30
0.0
 10
154.2452071085322
 20
110.6042012368876
 30
0.0
 10
154.1999612196003
 20
110.6566335502527
 30
0.0
 10
154.1203440886334
 20
110.7651866317712
 30
0.0
 10
154.0857414691765
 20
110.8221697180137
 30
0.0
 10
154.0540338571777
 20
110.8807358006716
 30
0.0
  0
SPLINE
  5
7B
330
1F
100
AcDbEntity
  8
0
  6
Continuous
 62
     7
370
    15
100
AcDbSpline
210
0.0
220
0.0
230
1.0
 70
     8
 71
     3
 72
    10
 73
     6
 74
     0
 42
0.00000001
 43
0.00000001
 12
1.0
 22
0.0
 32
0.0
 13
1.0
 23
0.0
 33
0.0
 40
0.0
 40
0.0
 40
0.0
 40
0.0
 40
0.5
 40
0.5
 40
1.0
 40
1.0
 40
1.0
 40
1.0
 10
153.7735745417467
 20
111.7335543923179
 30
0.0
 10
153.8044531253586
 20
111.5839258404582
 30
0.0
 10
153.840445833082
 20
111.4374304229346
 30
0.0
 10
153.9297860845791
 20
111.1522387843939
 30
0.0
 10
153.9822443874247
 20
111.0133357586779
 30
0.0
 10
154.0540338571778
 20
110.8807358006714
 30
0.0
  0
SPLINE
  5
7C
330
1F
100
AcDbEntity
  8
0
  6
Continuous
 62
     7
370
    15
100
AcDbSpline
210
0.0
220
0.0
230
1.0
 70
     8
 71
     3
 72
    10
 73
     6
 74
     0
 42
0.00000001
 43
0.00000001
 12
1.0
 22
0.0
 32
0.0
 13
1.0
 23
0.0
 33
0.0
 40
0.0
 40
0.0
 40
0.0
 40
0.0
 40
0.5
 40
0.5
 40
1.0
 40
1.0
 40
1.0
 40
1.0
 10
154.0540338571771
 20
120.9900992729079
 30
0.0
 10
153.9822443874242
 20
120.8574993149016
 30
0.0
 10
153.9297860845788
 20
120.7185962891858
 30
0.0
 10
153.8404458330819
 20
120.4334046506455
 30
0.0
 10
153.8044531253586
 20
120.2869092331222
 30
0.0
 10
153.7735745417467
 20
120.1372806812627
 30
0.0
  0
SPLINE
  5
7D
330
1F
100
AcDbEntity
  8
0
  6
Continuous
 62
     7
370
    15
100
AcDbSpline
210
0.0
220
0.0
230
1.0
 70
     8
 71
     3
 72
    14
 73
    10
 74
     0
 42
0.00000001
 43
0.00000001
 12
1.0
 22
0.0
 32
0.0
 13
1.0
 23
0.0
 33
0.0
 40
0.0
 40
0.0
 40
0.0
 40
0.0
 40
0.25
 40
0.25
 40
0.5
 40
0.5
 40
0.75
 40
0.75
 40
1.0
 40
1.0
 40
1.0
 40
1.0
 10
154.0540338571764
 20
120.9900992729067
 30
0.0
 10
154.0857425566618
 20
121.0486673642253
 30
0.0
 10
154.1203503753024
 20
121.1056616261653
 30
0.0
 10
154.2000087857917
 20
121.2142617609292
 30
0.0
 10
154.2450710556866
 20
121.2665898963079
 30
0.0
 10
154.355652901265
 20
121.3540909076701
 30
0.0
 10
154.4232970220803
 20
121.3891363639244
 30
0.0
 10
154.5735453124774
 20
121.3948807526804
 30
0.0
 10
154.6434977107077
 20
121.3640006456304
 30
0.0
 10
154.6999179964313
 20
121.3223675949174
 30
0.0
  0
SPLINE
  5
7E
330
1F
100
AcDbEntity
  8
0
  6
Continuous
 62
     7
370
    15
100
AcDbSpline
210
0.0
220
0.0
230
1.0
 70
     8
 71
     3
 72
    16
 73
    12
 74
     0
 42
0.00000001
 43
0.00000001
 12
1.0
 22
0.0
 32
0.0
 13
1.0
 23
0.0
 33
0.0
 40
0.0
 40
0.0
 40
0.0
 40
0.0
 40
0.0625000000000005
 40
0.0625000000000005
 40
0.1250000000000011
 40
0.1250000000000011
 40
0.249999999999999
 40
0.249999999999999
 40
0.4999999999999982
 40
0.4999999999999982
 40
1.0
 40
1.0
 40
1.0
 40
1.0
 10
154.6999179963994
 20
121.3223675948639
 30
0.0
 10
154.7116522308463
 20
121.3137087947197
 30
0.0
 10
154.7251839863253
 20
121.3071047094844
 30
0.0
 10
154.7551714467552
 20
121.3059077423103
 30
0.0
 10
154.7701661531634
 20
121.3123294893762
 30
0.0
 10
154.8059065755581
 20
121.3420466427855
 30
0.0
 10
154.8199199125594
 20
121.3708540401688
 30
0.0
 10
154.8540640013407
 20
121.4559337617948
 30
0.0
 10
154.8650359054591
 20
121.5143087110645
 30
0.0
 10
154.8908814457254
 20
121.6900242358531
 30
0.0
 10
154.8948948853063
 20
121.8058192437175
 30
0.0
 10
154.8948948853063
 20
121.919897769365
 30
0.0
  0
LINE
  5
7F
330
1F
100
AcDbEntity
  8
0
  6
Continuous
 62
     7
370
    15
100
AcDbLine
 10
154.8948948853
 20
133.7752378157
 30
0.0
 11
154.8948948853
 21
121.9198977694
 31
0.0
  0
SPLINE
  5
80
330
1F
100
AcDbEntity
  8
0
  6
Continuous
 62
     7
370
    15
100
AcDbSpline
210
0.0
220
0.0
230
1.0
 70
     8
 71
     3
 72
    16
 73
    12
 74
     0
 42
0.00000001
 43
0.00000001
 12
1.0
 22
0.0
 32
0.0
 13
1.0
 23
0.0
 33
0.0
 40
0.0
 40
0.0
 40
0.0
 40
0.0
 40
0.5000000000000011
 40
0.5000000000000011
 40
0.7499999999999998
 40
0.7499999999999998
 40
0.8749999999999999
 40
0.8749999999999999
 40
0.9375
 40
0.9375
 40
1.0
 40
1.0
 40
1.0
 40
1.0
 10
154.8948948853065
 20
133.4821720024579
 30
0.0
 10
154.8948948853062
 20
133.4601569878785
 30
0.0
 10
154.8907703424522
 20
133.4348033531748
 30
0.0
 10
154.8648538968191
 20
133.3876428509863
 30
0.0
 10
154.8535763157993
 20
133.3704438627575
 30
0.0
 10
154.8198409372579
 20
133.3404658971883
 30
0.0
 10
154.8054521220135
 20
133.3291144886464
 30
0.0
 10
154.7702054325745
 20
133.312426629169
 30
0.0
 10
154.7550000081175
 20
133.3068636022837
 30
0.0
 10
154.7253534289482
 20
133.2998940192485
 30
0.0
 10
154.7116480929508
 20
133.2983806781932
 30
0.0
 10
154.699917996427
 20
133.2979292243433
 30
0.0
  0
SPLINE
  5
81
330
1F
100
AcDbEntity
  8
0
  6
Continuous
 62
     7
370
    15
100
AcDbSpline
210
0.0
220
0.0
230
1.0
 70
     8
 71
     3
 72
    14
 73
    10
 74
     0
 42
0.00000001
 43
0.00000001
 12
1.0
 22
0.0
 32
0.0
 13
1.0
 23
0.0
 33
0.0
 40
0.0
 40
0.0
 40
0.0
 40
0.0
 40
0.2500000000000005
 40
0.2500000000000005
 40
0.500000000000001
 40
0.500000000000001
 40
0.7500000000000004
 40
0.7500000000000004
 40
1.0
 40
1.0
 40
1.0
 40
1.0
 10
154.6999179964375
 20
133.2979292243459
 30
0.0
 10
154.6434709143792
 20
133.2957567569266
 30
0.0
 10
154.5726205303364
 20
133.2932586590091
 30
0.0
 10
154.42418409552
 20
133.2896122002209
 30
0.0
 10
154.3549948438331
 20
133.2886444533697
 30
0.0
 10
154.2452832955921
 20
133.287376894007
 30
0.0
 10
154.2000416462498
 20
133.2869740530787
 30
0.0
 10
154.1203936280659
 20
133.285963018151
 30
0.0
 10
154.0857667122999
 20
133.2853720577564
 30
0.0
 10
154.0540338571786
 20
133.284574817983
 30
0.0
  0
SPLINE
  5
82
330
1F
100
AcDbEntity
  8
0
  6
Continuous
 62
     7
370
    15
100
AcDbSpline
210
0.0
220
0.0
230
1.0
 70
     8
 71
     3
 72
    18
 73
    14
 74
     0
 42
0.00000001
 43
0.00000001
 12
1.0
 22
0.0
 32
0.0
 13
1.0
 23
0.0
 33
0.0
 40
0.0
 40
0.0
 40
0.0
 40
0.0
 40
0.25
 40
0.25
 40
0.375
 40
0.375
 40
0.5
 40
0.5
 40
0.625
 40
0.625
 40
0.75
 40
0.75
 40
1.0
 40
1.0
 40
1.0
 40
1.0
 10
153.7735745417467
 20
120.1372806812627
 30
0.0
 10
153.6382889354443
 20
119.4817263458415
 30
0.0
 10
153.5371211892014
 20
118.8021052520439
 30
0.0
 10
153.4342598463325
 20
117.7467412455499
 30
0.0
 10
153.4081570008092
 20
117.3879271809652
 30
0.0
 10
153.3732670172643
 20
116.6618142368423
 30
0.0
 10
153.3646807589743
 20
116.2997245578262
 30
0.0
 10
153.3645810494087
 20
115.5774149004078
 30
0.0
 10
153.3730694205572
 20
115.2171950982995
 30
0.0
 10
153.4072128000778
 20
114.4986290292055
 30
0.0
 10
153.4330097819316
 20
114.1388633132901
 30
0.0
 10
153.5364109133196
 20
113.0722187262957
 30
0.0
 10
153.6382689054909
 20
112.3892057870134
 30
0.0
 10
153.7735745417467
 20
111.7335543923179
 30
0.0
  0
LINE
  5
83
330
1F
100
AcDbEntity
  8
0
  6
Continuous
 62
     7
370
    15
100
AcDbLine
 10
152.8948948853
 20
121.0755700246
 30
0.0
 11
152.8948948853
 21
110.795265049
 31
0.0
  0
LINE
  5
84
330
1F
100
AcDbEntity
  8
0
  6
Continuous
 62
     7
370
    15
100
AcDbLine
 10
126.5948948853
 20
120.7451962533
 30
0.0
 11
126.5948948853
 21
111.1256388203
 31
0.0
  0
LINE
  5
85
330
1F
100
AcDbEntity
  8
0
  6
Continuous
 62
     7
370
    15
100
AcDbLine
 10
125.0948948853
 20
120.3121835514
 30
0.0
 11
125.0948948853
 21
111.5586515222
 31
0.0
  0
LINE
  5
86
330
1F
100
AcDbEntity
  8
0
  6
Continuous
 62
     7
370
    15
100
AcDbLine
 10
152.8948948853
 20
121.0755700246
 30
0.0
 11
152.8948948853
 21
133.4555163214
 31
0.0
  0
ARC
  5
87
330
1F
100
AcDbEntity
  8
0
  6
Continuous
 62
     7
370
    15
100
AcDbCircle
 10
153.0948317962
 20
133.4605394325
 30
0.0
 40
0.2000000000000059
100
AcDbArc
 50
181.4391666667
 51
271.4391666667
  0
LINE
  5
88
330
1F
100
AcDbEntity
  8
0
  6
Continuous
 62
     7
370
    15
100
AcDbLine
 10
126.5948948853
 20
120.7451962533
 30
0.0
 11
126.5948948853
 21
132.7947687787
 31
0.0
  0
LINE
  5
89
330
1F
100
AcDbEntity
  8
0
  6
Continuous
 62
     7
370
    15
100
AcDbLine
 10
126.5948948853
 20
132.7947687787
 30
0.0
 11
152.8948948853
 21
133.4555163214
 31
0.0
  0
LINE
  5
8A
330
1F
100
AcDbEntity
  8
0
  6
Continuous
 62
     7
370
    15
100
AcDbLine
 10
126.5948948853
 20
99.0760662948
 30
0.0
 11
126.5948948853
 21
111.1256388203
 31
0.0
  0
LINE
  5
8B
330
1F
100
AcDbEntity
  8
0
  6
Continuous
 62
     7
370
    15
100
AcDbLine
 10
152.8948948853
 20
98.4153187522
 30
0.0
 11
152.8948948853
 21
110.795265049
 31
0.0
  0
LINE
  5
8C
330
1F
100
AcDbEntity
  8
0
  6
Continuous
 62
     7
370
    15
100
AcDbLine
 10
126.5948948853
 20
99.0760662948
 30
0.0
 11
152.8948948853
 21
98.4153187522
 31
0.0
  0
ARC
  5
8D
330
1F
100
AcDbEntity
  8
0
  6
Continuous
 62
     7
370
    15
100
AcDbCircle
 10
153.0948317962
 20
98.4102956411
 30
0.0
 40
0.2000000000000059
100
AcDbArc
 50
88.5608333333
 51
178.5608333333
  0
LINE
  5
8E
330
1F
100
AcDbEntity
  8
0
  6
Continuous
 62
     7
370
    15
100
AcDbLine
 10
153.0998549074
 20
133.2606025215
 30
0.0
 11
154.0540338572
 21
133.284574818
 31
0.0
  0
LINE
  5
8F
330
1F
100
AcDbEntity
  8
0
  6
Continuous
 62
     7
370
    15
100
AcDbLine
 10
153.0998549074
 20
98.610232552
 30
0.0
 11
154.0540338572
 21
98.5862602556
 31
0.0
  0
LINE
  5
90
330
1F
100
AcDbEntity
  8
0
  6
Continuous
 62
     7
370
    15
100
AcDbLine
 10
125.0948948853
 20
131.928743375
 30
0.0
 11
126.5948948853
 21
132.7947687787
 31
0.0
  0
LINE
  5
91
330
1F
100
AcDbEntity
  8
0
  6
Continuous
 62
     7
370
    15
100
AcDbLine
 10
125.0948948853
 20
120.3121835514
 30
0.0
 11
125.0948948853
 21
131.928743375
 31
0.0
  0
LINE
  5
92
330
1F
100
AcDbEntity
  8
0
  6
Continuous
 62
     7
370
    15
100
AcDbLine
 10
125.0948948853
 20
99.9420916986
 30
0.0
 11
126.5948948853
 21
99.0760662948
 31
0.0
  0
LINE
  5
93
330
1F
100
AcDbEntity
  8
0
  6
Continuous
 62
     7
370
    15
100
AcDbLine
 10
125.0948948853
 20
99.9420916986
 30
0.0
 11
125.0948948853
 21
111.5586515222
 31
0.0
  0
ELLIPSE
  5
94
330
1F
100
AcDbEntity
  8
0
  6
Continuous
 62
     7
370
    15
100
AcDbEllipse
 10
237.084560127
 20
115.9354175368
 30
0.0
 11
-0.9567516492558923
 21
15.99804791108561
 31
0.0
210
0.0
220
0.0
230
1.0
 40
0.2612235458
 41
0.4042282772435429
 42
2.287243328004824
  0
ELLIPSE
  5
95
330
1F
100
AcDbEntity
  8
0
  6
Continuous
 62
     7
370
    15
100
AcDbEllipse
 10
234.2912635535
 20
123.9896805874
 30
0.0
 11
-0.009879580437370807
 21
2.202529431431699
 31
0.0
210
0.0
220
0.0
230
1.0
 40
0.2522252297
 41
5.75798854800789
 42
9.914410566750275
  0
SPLINE
  5
96
330
1F
100
AcDbEntity
  8
0
  6
Continuous
 62
     7
370
    15
100
AcDbSpline
210
0.0
220
0.0
230
1.0
 70
     8
 71
     3
 72
    14
 73
    10
 74
     0
 42
0.00000001
 43
0.00000001
 12
1.0
 22
0.0
 32
0.0
 13
1.0
 23
0.0
 33
0.0
 40
0.0
 40
0.0
 40
0.0
 40
0.0
 40
0.25
 40
0.25
 40
0.5
 40
0.5
 40
0.75
 40
0.75
 40
1.0
 40
1.0
 40
1.0
 40
1.0
 10
237.1454427701033
 20
103.4631815945875
 30
0.0
 10
236.8188099069342
 20
103.4872700415233
 30
0.0
 10
236.5079128655775
 20
103.5474675789362
 30
0.0
 10
235.9245565849885
 20
103.7396267301598
 30
0.0
 10
235.664544258068
 20
103.8680092695748
 30
0.0
 10
235.2132803770733
 20
104.1846417443704
 30
0.0
 10
235.0283342124094
 20
104.3685629433767
 30
0.0
 10
234.7352700637166
 20
104.7804209356557
 30
0.0
 10
234.6306513746324
 20
105.0025759322591
 30
0.0
 10
234.5612506810391
 20
105.2408696990856
 30
0.0
  0
ELLIPSE
  5
97
330
1F
100
AcDbEntity
  8
0
  6
Continuous
 62
     7
370
    15
100
AcDbEllipse
 10
305.7441104314
 20
115.9354175368
 30
0.0
 11
152.2294392357668
 21
-3.362096597003841
 31
0.0
210
0.0
220
0.0
230
1.0
 40
0.1027578619
 41
4.247192394088641
 42
4.25845763170912
  0
ELLIPSE
  5
98
330
1F
100
AcDbEntity
  8
0
  6
Continuous
 62
     7
370
    15
100
AcDbEllipse
 10
305.7441104314
 20
115.9354175368
 30
0.0
 11
152.2294392357668
 21
-3.362096597003841
 31
0.0
210
0.0
220
0.0
230
1.0
 40
0.1027578619
 41
2.029266630176572
 42
2.040531867797053
  0
SPLINE
  5
99
330
1F
100
AcDbEntity
  8
0
  6
Continuous
 62
     7
370
    15
100
AcDbSpline
210
0.0
220
0.0
230
1.0
 70
     8
 71
     3
 72
    18
 73
    14
 74
     0
 42
0.00000001
 43
0.00000001
 12
1.0
 22
0.0
 32
0.0
 13
1.0
 23
0.0
 33
0.0
 40
0.0
 40
0.0
 40
0.0
 40
0.0
 40
0.2499999999999907
 40
0.2499999999999907
 40
0.3749999999999885
 40
0.3749999999999885
 40
0.4999999999999862
 40
0.4999999999999862
 40
0.7499999999999883
 40
0.7499999999999883
 40
0.8749999999999942
 40
0.8749999999999942
 40
1.0
 40
1.0
 40
1.0
 40
1.0
 10
234.5612506810391
 20
130.545823665451
 30
0.0
 10
234.63074975204
 20
130.6766014198762
 30
0.0
 10
234.7354123092219
 20
130.7928726654387
 30
0.0
 10
234.9540859879887
 20
130.9477496434766
 30
0.0
 10
235.0381691559104
 20
130.9963781104043
 30
0.0
 10
235.2236690327465
 20
131.0844265838531
 30
0.0
 10
235.3254084137805
 20
131.1242283957954
 30
0.0
 10
235.6589657478604
 20
131.2322266611482
 30
0.0
 10
235.9249359218823
 20
131.289642641154
 30
0.0
 10
236.3566057913764
 20
131.3503707315419
 30
0.0
 10
236.50662001975
 20
131.3667081893338
 30
0.0
 10
236.8196772661813
 20
131.3920073218939
 30
0.0
 10
236.981665928001
 20
131.4008240848891
 30
0.0
 10
237.1454427701033
 20
131.40574442872
 30
0.0
  0
SPLINE
  5
9A
330
1F
100
AcDbEntity
  8
0
  6
Continuous
 62
     7
370
    15
100
AcDbSpline
210
0.0
220
0.0
230
1.0
 70
     8
 71
     3
 72
    26
 73
    22
 74
     0
 42
0.00000001
 43
0.00000001
 12
1.0
 22
0.0
 32
0.0
 13
1.0
 23
0.0
 33
0.0
 40
0.0
 40
0.0
 40
0.0
 40
0.0
 40
0.1249999999999979
 40
0.1249999999999979
 40
0.2499999999999958
 40
0.2499999999999958
 40
0.3124999999999962
 40
0.3124999999999962
 40
0.3749999999999966
 40
0.3749999999999966
 40
0.4374999999999969
 40
0.4374999999999969
 40
0.4999999999999973
 40
0.4999999999999973
 40
0.6249999999999981
 40
0.6249999999999981
 40
0.7499999999999989
 40
0.7499999999999989
 40
0.8749999999999997
 40
0.8749999999999997
 40
1.0
 40
1.0
 40
1.0
 40
1.0
 10
234.5612506810391
 20
125.8966141767111
 30
0.0
 10
234.6105942667057
 20
125.7846236366478
 30
0.0
 10
234.6739348779074
 20
125.6560706754041
 30
0.0
 10
234.813752930651
 20
125.3568964382002
 30
0.0
 10
234.8877073331659
 20
125.1914705726082
 30
0.0
 10
234.9836358613061
 20
124.9163619109922
 30
0.0
 10
235.0130448853607
 20
124.8195712241739
 30
0.0
 10
235.0609037258315
 20
124.6248721793672
 30
0.0
 10
235.0797911587563
 20
124.5257998051231
 30
0.0
 10
235.1060067875009
 20
124.3239779747246
 30
0.0
 10
235.1131325179549
 20
124.2216430977276
 30
0.0
 10
235.1159564933435
 20
124.0220179830204
 30
0.0
 10
235.1118300264606
 20
123.9233722810704
 30
0.0
 10
235.0859690501357
 20
123.6322682482307
 30
0.0
 10
235.0519367113483
 20
123.4509796151708
 30
0.0
 10
234.967559716889
 20
123.1057994463338
 30
0.0
 10
234.9167667952766
 20
122.9417849591656
 30
0.0
 10
234.8123557901298
 20
122.640535155059
 30
0.0
 10
234.7582023422668
 20
122.5016209193677
 30
0.0
 10
234.6537304921274
 20
122.2498147861539
 30
0.0
 10
234.603261797076
 20
122.136910835466
 30
0.0
 10
234.5612506810391
 20
122.0471077356629
 30
0.0
  0
LINE
  5
9B
330
1F
100
AcDbEntity
  8
0
  6
Continuous
 62
     7
370
    15
100
AcDbLine
 10
244.5824607071
 20
123.2265873387
 30
0.0
 11
247.5570480785
 21
124.1049989818
 31
0.0
  0
ARC
  5
9C
330
1F
100
AcDbEntity
  8
0
  6
Continuous
 62
     7
370
    15
100
AcDbCircle
 10
245.2161216045
 20
121.2552223813
 30
0.0
 40
2.070701796035151
100
AcDbArc
 50
107.8190963693
 51
288.2444436243
  0
LINE
  5
9D
330
1F
100
AcDbEntity
  8
0
  6
Continuous
 62
     7
370
    15
100
AcDbLine
 10
260.2679684801
 20
123.5420671023
 30
0.0
 11
245.8643997484
 21
119.2886158176
 31
0.0
  0
LINE
  5
9E
330
1F
100
AcDbEntity
  8
0
  6
Continuous
 62
     7
370
    15
100
AcDbLine
 10
253.4282965107
 20
101.8617585758
 30
0.0
 11
260.2679684801
 21
123.5420671023
 31
0.0
  0
ELLIPSE
  5
9F
330
1F
100
AcDbEntity
  8
0
  6
Continuous
 62
     7
370
    15
100
AcDbEllipse
 10
305.7441104314
 20
115.9354175368
 30
0.0
 11
156.9866092118845
 21
-3.467162115660201
 31
0.0
210
0.0
220
0.0
230
1.0
 40
0.1027578619
 41
4.279705833564712
 42
4.374910667118913
  0
SPLINE
  5
A0
330
1F
100
AcDbEntity
  8
0
  6
Continuous
 62
     7
370
    15
100
AcDbSpline
210
0.0
220
0.0
230
1.0
 70
     8
 71
     3
 72
     8
 73
     4
 74
     0
 42
0.00000001
 43
0.00000001
 12
1.0
 22
0.0
 32
0.0
 13
1.0
 23
0.0
 33
0.0
 40
0.0
 40
0.0
 40
0.0
 40
0.0
 40
1.0
 40
1.0
 40
1.0
 40
1.0
 10
239.5948948853047
 20
102.744243929169
 30
0.0
 10
239.5257799758811
 20
102.8236012057574
 30
0.0
 10
239.4567432811788
 20
102.9030264952385
 30
0.0
 10
239.3877881041197
 20
102.9825226697224
 30
0.0
  0
SPLINE
  5
A1
330
1F
100
AcDbEntity
  8
0
  6
Continuous
 62
     7
370
    15
100
AcDbSpline
210
0.0
220
0.0
230
1.0
 70
     8
 71
     3
 72
    10
 73
     6
 74
     0
 42
0.00000001
 43
0.00000001
 12
1.0
 22
0.0
 32
0.0
 13
1.0
 23
0.0
 33
0.0
 40
0.0
 40
0.0
 40
0.0
 40
0.0
 40
0.5
 40
0.5
 40
1.0
 40
1.0
 40
1.0
 40
1.0
 10
239.3877881041197
 20
102.9825226697224
 30
0.0
 10
239.2979660223458
 20
103.0860756180253
 30
0.0
 10
239.1911675566359
 20
103.1727884359263
 30
0.0
 10
238.9497139475106
 20
103.3011448667356
 30
0.0
 10
238.8176967229385
 20
103.3411669806454
 30
0.0
 10
238.6806813229332
 20
103.3510735610572
 30
0.0
  0
SPLINE
  5
A2
330
1F
100
AcDbEntity
  8
0
  6
Continuous
 62
     7
370
    15
100
AcDbSpline
210
0.0
220
0.0
230
1.0
 70
     8
 71
     3
 72
     8
 73
     4
 74
     0
 42
0.00000001
 43
0.00000001
 12
1.0
 22
0.0
 32
0.0
 13
1.0
 23
0.0
 33
0.0
 40
0.0
 40
0.0
 40
0.0
 40
0.0
 40
1.0
 40
1.0
 40
1.0
 40
1.0
 10
238.6806813229332
 20
131.4507551705999
 30
0.0
 10
238.95429572106
 20
131.4585799623063
 30
0.0
 10
239.2083318796055
 20
131.5893559728341
 30
0.0
 10
239.3877881041205
 20
131.7884021025211
 30
0.0
  0
SPLINE
  5
A3
330
1F
100
AcDbEntity
  8
0
  6
Continuous
 62
     7
370
    15
100
AcDbSpline
210
0.0
220
0.0
230
1.0
 70
     8
 71
     3
 72
     8
 73
     4
 74
     0
 42
0.00000001
 43
0.00000001
 12
1.0
 22
0.0
 32
0.0
 13
1.0
 23
0.0
 33
0.0
 40
0.0
 40
0.0
 40
0.0
 40
0.0
 40
1.0
 40
1.0
 40
1.0
 40
1.0
 10
239.3877881041197
 20
131.7884021025218
 30
0.0
 10
239.9028170985321
 20
132.3596529927675
 30
0.0
 10
240.4223544877273
 20
132.9267864959506
 30
0.0
 10
240.945238336615
 20
133.4908637739123
 30
0.0
  0
LINE
  5
A4
330
1F
100
AcDbEntity
  8
0
  6
Continuous
 62
     7
370
    15
100
AcDbLine
 10
246.3811828275
 20
133.3720753445
 30
0.0
 11
240.9452383366
 21
133.4908637739
 31
0.0
  0
ARC
  5
A5
330
1F
100
AcDbEntity
  8
0
  6
Continuous
 62
     7
370
    15
100
AcDbCircle
 10
246.9567390864
 20
159.5283006471
 30
0.0
 40
26.16255696770203
100
AcDbArc
 50
268.7394349459
 51
277.9099582852
  0
LINE
  5
A6
330
1F
100
AcDbEntity
  8
0
  6
Continuous
 62
     7
370
    15
100
AcDbLine
 10
247.5570480785
 20
124.1049989818
 30
0.0
 11
250.5571438222
 21
133.6146657646
 31
0.0
  0
LWPOLYLINE
  5
A7
330
1F
100
AcDbEntity
  8
0
  6
Continuous
 62
     7
370
    15
100
AcDbPolyline
 90
       32
 70
   128
 43
0.0
 10
249.8193879669
 20
118.6134540376
 10
250.6201711098
 20
118.5158640493
 10
251.3881700968
 20
118.2620874957
 10
252.0919429591
 20
117.8625140188
 10
252.7026771529
 20
117.3335022037
 10
253.1953691487
 20
116.6967098563
 10
253.5498480783
 20
115.9782073301
 10
253.7516015326
 20
115.2074102029
 10
253.7923697015
 20
114.4158749996
 10
253.6704835314
 20
113.6360072646
 10
253.3909330564
 20
112.8997348745
 10
252.9651631058
 20
112.2372009075
 10
252.4106047513
 20
111.6755295819
 10
251.7499616773
 20
111.237715788
 10
251.0102806888
 20
110.9416836738
 10
250.2218444123
 20
110.7995528289
 10
249.4169315216
 20
110.8171421068
 10
248.6284952451
 20
110.9937314003
 10
247.8888142565
 20
111.3220911231
 10
247.2281711825
 20
111.7887781895
 10
246.6736128281
 20
112.3746863761
 10
246.2478428775
 20
113.0558285331
 10
245.9682924024
 20
113.8043186204
 10
245.8464062323
 20
114.5895133659
 10
245.8871744012
 20
115.3792668045
 10
246.0889278555
 20
116.1412463377
 10
246.4434067851
 20
116.8442564337
 10
246.9360987809
 20
117.4595157767
 10
247.5468329748
 20
117.9618355769
 10
248.250605837
 20
118.3306508026
 10
249.018604824
 20
118.5508621152
 10
249.8193879669
 20
118.6134540376
  0
ELLIPSE
  5
A8
330
1F
100
AcDbEntity
  8
0
  6
Continuous
 62
     7
370
    15
100
AcDbEllipse
 10
257.6707696138
 20
115.9354175368
 30
0.0
 11
5.368298186719871
 21
16.49894757830377
 31
0.0
210
0.0
220
0.0
230
1.0
 40
0.0347142918
 41
3.152887237351082
 42
3.702074538209118
  0
LINE
  5
A9
330
1F
100
AcDbEntity
  8
0
  6
Continuous
 62
     7
370
    15
100
AcDbLine
 10
239.5948948853
 20
102.7442439292
 30
0.0
 11
239.5948948853
 21
99.4354175368
 31
0.0
  0
SPLINE
  5
AA
330
1F
100
AcDbEntity
  8
0
  6
Continuous
 62
     7
370
    15
100
AcDbSpline
210
0.0
220
0.0
230
1.0
 70
     8
 71
     3
 72
    10
 73
     6
 74
     0
 42
0.00000001
 43
0.00000001
 12
1.0
 22
0.0
 32
0.0
 13
1.0
 23
0.0
 33
0.0
 40
0.0
 40
0.0
 40
0.0
 40
0.0
 40
0.516345603607396
 40
0.9463998595627546
 40
1.0
 40
1.0
 40
1.0
 40
1.0
 10
240.945238336615
 20
133.4908637739123
 30
0.0
 10
240.7474615383925
 20
133.3745759708533
 30
0.0
 10
240.3849602742103
 20
133.1614343081473
 30
0.0
 10
240.0750771828082
 20
132.9305795941138
 30
0.0
 10
239.980720178413
 20
132.8166829769301
 30
0.0
 10
239.9702632307981
 20
132.8040605863928
 30
0.0
  0
LINE
  5
AB
330
1F
100
AcDbEntity
  8
0
  6
Continuous
 62
     7
370
    15
100
AcDbLine
 10
243.6187082758
 20
121.3201427789
 30
0.0
 11
243.1439878112
 21
121.111986476
 31
0.0
  0
LINE
  5
AC
330
1F
100
AcDbEntity
  8
0
  6
Continuous
 62
     7
370
    15
100
AcDbLine
 10
246.5932956471
 20
122.198554422
 30
0.0
 11
247.5570480785
 21
124.1049989818
 31
0.0
  0
LINE
  5
AD
330
1F
100
AcDbEntity
  8
0
  6
Continuous
 62
     7
370
    15
100
AcDbLine
 10
246.5932956471
 20
122.198554422
 30
0.0
 11
243.6187082758
 21
121.3201427789
 31
0.0
  0
LWPOLYLINE
  5
AE
330
1F
100
AcDbEntity
  8
0
  6
Continuous
 62
     7
370
    15
100
AcDbPolyline
 90
       30
 70
   128
 43
0.0
 10
250.278648606
 20
118.0844148472
 10
251.0096445307
 20
117.8919986859
 10
251.6849853814
 20
117.5503685963
 10
252.2730929704
 20
117.0754988217
 10
252.7464680406
 20
116.489593745
 10
253.0829760998
 20
115.8200496363
 10
253.266882405
 20
115.0981736341
 10
253.289587702
 20
114.3577198579
 10
253.1500303162
 20
113.6333111033
 10
252.8547357959
 20
112.9588199186
 10
252.4175117846
 20
112.3657847619
 10
251.8588023913
 20
111.8819352981
 10
251.2047322461
 20
111.5298957902
 10
250.4858849421
 20
111.3261272145
 10
249.7358729803
 20
111.2801575631
 10
248.9897660865
 20
111.3941363257
 10
248.2824513897
 20
111.6627339821
 10
247.6470021391
 20
112.0733912045
 10
247.1131312354
 20
112.6069061174
 10
246.7058018887
 20
113.2383321566
 10
246.4440603664
 20
113.9381445422
 10
246.3401454114
 20
114.6736208249
 10
246.3989159714
 20
115.4103709511
 10
246.6176240003
 20
116.1139453038
 10
246.9860429537
 20
116.7514455281
 10
247.486945971
 20
117.2930628222
 10
248.0969113836
 20
117.7134717632
 10
248.7874178869
 20
117.9930144965
 10
249.5261781642
 20
118.1186199144
 10
250.278648606
 20
118.0844148472
  0
LWPOLYLINE
  5
AF
330
1F
100
AcDbEntity
  8
0
  6
Continuous
 62
     7
370
    15
100
AcDbPolyline
 90
       23
 70
   128
 43
0.0
 10
250.0818226178
 20
116.6343214705
 10
250.6266715617
 20
116.471145225
 10
251.1061191899
 20
116.1645512934
 10
251.4813235069
 20
115.7393780926
 10
251.7218876903
 20
115.2300706267
 10
251.8083226607
 20
114.6778899576
 10
251.7336259709
 20
114.1275704792
 10
251.5038491025
 20
113.6236958028
 10
251.1376072107
 20
113.2070868579
 10
250.6645710355
 20
112.9114948237
 10
250.1230631546
 20
112.7608668087
 10
249.556953316
 20
112.767405799
 10
249.0121043721
 20
112.9305820444
 10
248.5326567439
 20
113.237175976
 10
248.157452427
 20
113.6623491768
 10
247.9168882436
 20
114.1716566427
 10
247.8304532731
 20
114.7238373118
 10
247.9051499629
 20
115.2741567902
 10
248.1349268314
 20
115.7780314667
 10
248.5011687232
 20
116.1946404115
 10
248.9742048984
 20
116.4902324458
 10
249.5157127792
 20
116.6408604607
 10
250.0818226178
 20
116.6343214705
  0
SPLINE
  5
B0
330
1F
100
AcDbEntity
  8
0
  6
Continuous
 62
     7
370
    15
100
AcDbSpline
210
0.0
220
0.0
230
1.0
 70
     8
 71
     3
 72
    11
 73
     7
 74
     0
 42
0.00000001
 43
0.00000001
 12
1.0
 22
0.0
 32
0.0
 13
1.0
 23
0.0
 33
0.0
 40
0.0
 40
0.0
 40
0.0
 40
0.0
 40
0.1081100880371273
 40
0.4711580666043588
 40
0.8135808430835979
 40
1.0
 40
1.0
 40
1.0
 40
1.0
 10
248.7408020228434
 20
113.3257887471938
 30
0.0
 10
248.7956002520824
 20
113.311187476664
 30
0.0
 10
249.0344181848983
 20
113.2475532079509
 30
0.0
 10
249.500000437026
 20
113.1480182450808
 30
0.0
 10
250.0450856483867
 20
113.0862391221107
 30
0.0
 10
250.3432137907494
 20
113.0704931301448
 30
0.0
 10
250.4483053000317
 20
113.0649425972507
 30
0.0
  0
SPLINE
  5
B1
330
1F
100
AcDbEntity
  8
0
  6
Continuous
 62
     7
370
    15
100
AcDbSpline
210
0.0
220
0.0
230
1.0
 70
     8
 71
     3
 72
    10
 73
     6
 74
     0
 42
0.00000001
 43
0.00000001
 12
1.0
 22
0.0
 32
0.0
 13
1.0
 23
0.0
 33
0.0
 40
0.0
 40
0.0
 40
0.0
 40
0.0
 40
0.4391165375904074
 40
0.7513669429073281
 40
0.9999999999999999
 40
0.9999999999999999
 40
0.9999999999999999
 40
0.9999999999999999
 10
250.4483053000317
 20
113.0649425972507
 30
0.0
 10
250.5879649028777
 20
113.2326208734707
 30
0.0
 10
250.8269347431253
 20
113.5195331234324
 30
0.0
 10
251.2091981547593
 20
114.0056056572996
 30
0.0
 10
251.4099098067549
 20
114.2682054794461
 30
0.0
 10
251.4988829267955
 20
114.3846128990761
 30
0.0
  0
SPLINE
  5
B2
330
1F
100
AcDbEntity
  8
0
  6
Continuous
 62
     7
370
    15
100
AcDbSpline
210
0.0
220
0.0
230
1.0
 70
     8
 71
     3
 72
    10
 73
     6
 74
     0
 42
0.00000001
 43
0.00000001
 12
1.0
 22
0.0
 32
0.0
 13
1.0
 23
0.0
 33
0.0
 40
0.0
 40
0.0
 40
0.0
 40
0.0
 40
0.4391165375903757
 40
0.7513669429073173
 40
1.0
 40
1.0
 40
1.0
 40
1.0
 10
251.4988829267955
 20
114.3846128990761
 30
0.0
 10
251.394100272
 20
114.5896333125799
 30
0.0
 10
251.2148079514798
 20
114.9404412374493
 30
0.0
 10
250.9890534389068
 20
115.5193974200595
 30
0.0
 10
250.8871360561695
 20
115.828228262448
 30
0.0
 10
250.8419572763709
 20
115.9651293508446
 30
0.0
  0
SPLINE
  5
B3
330
1F
100
AcDbEntity
  8
0
  6
Continuous
 62
     7
370
    15
100
AcDbSpline
210
0.0
220
0.0
230
1.0
 70
     8
 71
     3
 72
    11
 73
     7
 74
     0
 42
0.00000001
 43
0.00000001
 12
1.0
 22
0.0
 32
0.0
 13
1.0
 23
0.0
 33
0.0
 40
0.0
 40
0.0
 40
0.0
 40
0.0
 40
0.186419156916378
 40
0.528841933395643
 40
0.891889911962875
 40
1.0
 40
1.0
 40
1.0
 40
1.0
 10
250.8419572763709
 20
115.9651293508446
 30
0.0
 10
250.7368657670887
 20
115.9706798837387
 30
0.0
 10
250.4387376247259
 20
115.9864258757046
 30
0.0
 10
249.8936524133652
 20
116.0482049986748
 30
0.0
 10
249.4280701612375
 20
116.1477399615448
 30
0.0
 10
249.1892522284216
 20
116.2113742302579
 30
0.0
 10
249.1344539991826
 20
116.2259755007877
 30
0.0
  0
SPLINE
  5
B4
330
1F
100
AcDbEntity
  8
0
  6
Continuous
 62
     7
370
    15
100
AcDbSpline
210
0.0
220
0.0
230
1.0
 70
     8
 71
     3
 72
    10
 73
     6
 74
     0
 42
0.00000001
 43
0.00000001
 12
1.0
 22
0.0
 32
0.0
 13
1.0
 23
0.0
 33
0.0
 40
0.0
 40
0.0
 40
0.0
 40
0.0
 40
0.4391165375904108
 40
0.7513669429073496
 40
1.0
 40
1.0
 40
1.0
 40
1.0
 10
249.1344539991826
 20
116.2259755007877
 30
0.0
 10
248.973317029226
 20
116.0158118223477
 30
0.0
 10
248.6975975284984
 20
115.6562033196798
 30
0.0
 10
248.3316690785096
 20
115.2024437509993
 30
0.0
 10
248.1599828588912
 20
114.9972605182697
 30
0.0
 10
248.0838763724188
 20
114.9063051989623
 30
0.0
  0
SPLINE
  5
B5
330
1F
100
AcDbEntity
  8
0
  6
Continuous
 62
     7
370
    15
100
AcDbSpline
210
0.0
220
0.0
230
1.0
 70
     8
 71
     3
 72
    10
 73
     6
 74
     0
 42
0.00000001
 43
0.00000001
 12
1.0
 22
0.0
 32
0.0
 13
1.0
 23
0.0
 33
0.0
 40
0.0
 40
0.0
 40
0.0
 40
0.0
 40
0.4391165375904313
 40
0.7513669429073824
 40
1.0
 40
1.0
 40
1.0
 40
1.0
 10
248.0838763724188
 20
114.9063051989623
 30
0.0
 10
248.1671816601037
 20
114.6587993832386
 30
0.0
 10
248.3097243201439
 20
114.2352952056629
 30
0.0
 10
248.5518137943622
 20
113.6886519882394
 30
0.0
 10
248.6827566094765
 20
113.4372377352677
 30
0.0
 10
248.7408020228434
 20
113.3257887471938
 30
0.0
  0
LINE
  5
B6
330
1F
100
AcDbEntity
  8
0
  6
Continuous
 62
     7
370
    15
100
AcDbLine
 10
248.7443484634
 20
115.4542891712
 30
0.0
 11
249.1344539992
 21
116.2259755008
 31
0.0
  0
LINE
  5
B7
330
1F
100
AcDbEntity
  8
0
  6
Continuous
 62
     7
370
    15
100
AcDbLine
 10
248.7443484634
 20
115.4542891712
 30
0.0
 11
248.21905965
 21
114.7944540203
 31
0.0
  0
LINE
  5
B8
330
1F
100
AcDbEntity
  8
0
  6
Continuous
 62
     7
370
    15
100
AcDbLine
 10
248.21905965
 20
114.7944540203
 30
0.0
 11
248.153267922
 21
114.7118105417
 31
0.0
  0
LINE
  5
B9
330
1F
100
AcDbEntity
  8
0
  6
Continuous
 62
     7
370
    15
100
AcDbLine
 10
251.0360013176
 20
113.7880206327
 30
0.0
 11
250.7803145658
 21
114.4031847954
 31
0.0
  0
LINE
  5
BA
330
1F
100
AcDbEntity
  8
0
  6
Continuous
 62
     7
370
    15
100
AcDbLine
 10
250.7803145658
 20
114.4031847954
 30
0.0
 11
250.4518517406
 21
115.1934430213
 31
0.0
  0
LINE
  5
BB
330
1F
100
AcDbEntity
  8
0
  6
Continuous
 62
     7
370
    15
100
AcDbLine
 10
250.4518517406
 20
115.1934430213
 30
0.0
 11
250.8419572764
 21
115.9651293508
 31
0.0
  0
LINE
  5
BC
330
1F
100
AcDbEntity
  8
0
  6
Continuous
 62
     7
370
    15
100
AcDbLine
 10
250.4518517406
 20
115.1934430213
 30
0.0
 11
249.598100102
 21
115.3238660962
 31
0.0
  0
LINE
  5
BD
330
1F
100
AcDbEntity
  8
0
  6
Continuous
 62
     7
370
    15
100
AcDbLine
 10
249.598100102
 20
115.3238660962
 30
0.0
 11
248.7443484634
 21
115.4542891712
 31
0.0
  0
ARC
  5
BE
330
1F
100
AcDbEntity
  8
0
  6
Continuous
 62
     7
370
    15
100
AcDbCircle
 10
249.441600051
 20
113.8425137403
 30
0.0
 40
1.451381612234521
100
AcDbArc
 50
347.1390212218
 51
22.724569667
  0
LINE
  5
BF
330
1F
100
AcDbEntity
  8
0
  6
Continuous
 62
     7
370
    15
100
AcDbLine
 10
248.1506176435
 20
114.7009016703
 30
0.0
 11
248.21905965
 21
114.7944540203
 31
0.0
  0
ARC
  5
C0
330
1F
100
AcDbEntity
  8
0
  6
Continuous
 62
     7
370
    15
100
AcDbCircle
 10
249.365447138
 20
113.8690881575
 30
0.0
 40
1.473263809556433
100
AcDbArc
 50
80.914005133
 51
141.0894743065
  0
ARC
  5
C1
330
1F
100
AcDbEntity
  8
0
  6
Continuous
 62
     7
370
    15
100
AcDbCircle
 10
249.3686829134
 20
113.809918908
 30
0.0
 40
1.531230986930914
100
AcDbArc
 50
22.7955357591
 51
81.3831956574
  0
LINE
  5
C2
330
1F
100
AcDbEntity
  8
0
  6
Continuous
 62
     7
370
    15
100
AcDbLine
 10
245.685599052
 20
119.2839807659
 30
0.0
 11
245.6733837993
 21
119.241897288
 31
0.0
  0
LINE
  5
C3
330
1F
100
AcDbEntity
  8
0
  6
Continuous
 62
     7
370
    15
100
AcDbLine
 10
246.9256961603
 20
122.8560916997
 30
0.0
 11
245.9866410263
 21
119.8794862249
 31
0.0
  0
LINE
  5
C4
330
1F
100
AcDbEntity
  8
0
  6
Continuous
 62
     7
370
    15
100
AcDbLine
 10
246.6246541861
 20
122.2605862407
 30
0.0
 11
245.685599052
 21
119.2839807659
 31
0.0
  0
ARC
  5
C5
330
1F
100
AcDbEntity
  8
0
  6
Continuous
 62
     7
370
    15
100
AcDbCircle
 10
259.0466287287
 20
122.6026700956
 30
0.0
 40
0.9475862816264101
100
AcDbArc
 50
321.0687785875
 51
333.1778324055
  0
LINE
  5
C6
330
1F
100
AcDbEntity
  8
0
  6
Continuous
 62
     7
370
    15
100
AcDbLine
 10
246.8150822359
 20
119.6238879899
 30
0.0
 11
260.5654782925
 21
123.684453872
 31
0.0
  0
ARC
  5
C7
330
1F
100
AcDbEntity
  8
0
  6
Continuous
 62
     7
370
    15
100
AcDbCircle
 10
246.6993769757
 20
120.0095988079
 30
0.0
 40
0.4026916218562691
100
AcDbArc
 50
163.7232760755
 51
286.6981559959
  0
LINE
  5
C8
330
1F
100
AcDbEntity
  8
0
  6
Continuous
 62
     7
370
    15
100
AcDbLine
 10
250.5675680951
 20
133.6090947998
 30
0.0
 11
246.3128255434
 21
120.1224639152
 31
0.0
  0
ARC
  5
C9
330
1F
100
AcDbEntity
  8
0
  6
Continuous
 62
     7
370
    15
100
AcDbCircle
 10
250.9323799408
 20
133.4929256759
 30
0.0
 40
0.3828615259866003
100
AcDbArc
 50
106.1873863896
 51
162.3366664714
  0
LINE
  5
CA
330
1F
100
AcDbEntity
  8
0
  6
Continuous
 62
     7
370
    15
100
AcDbLine
 10
264.5760419793
 20
137.9211745701
 30
0.0
 11
250.8256459227
 21
133.8606086881
 31
0.0
  0
ARC
  5
CB
330
1F
100
AcDbEntity
  8
0
  6
Continuous
 62
     7
370
    15
100
AcDbCircle
 10
264.6917472394
 20
137.5354637522
 30
0.0
 40
0.4026916218562031
100
AcDbArc
 50
343.7232760755
 51
106.6981559959
  0
LINE
  5
CC
330
1F
100
AcDbEntity
  8
0
  6
Continuous
 62
     7
370
    15
100
AcDbLine
 10
260.8235561201
 20
123.9359677603
 30
0.0
 11
265.0782986718
 21
137.4225986449
 31
0.0
  0
ARC
  5
CD
330
1F
100
AcDbEntity
  8
0
  6
Continuous
 62
     7
370
    15
100
AcDbCircle
 10
260.4587442744
 20
124.0521368842
 30
0.0
 40
0.3828615259863731
100
AcDbArc
 50
286.1873863895
 51
342.3366664714
  0
ARC
  5
CE
330
1F
100
AcDbEntity
  8
0
  6
Continuous
 62
     7
370
    15
100
AcDbCircle
 10
264.6920664481
 20
137.5359970478
 30
0.0
 40
0.3825570407634376
100
AcDbArc
 50
343.7232760755
 51
106.6981559959
  0
LINE
  5
CF
330
1F
100
AcDbEntity
  8
0
  6
Continuous
 62
     7
370
    15
100
AcDbLine
 10
264.5821464509
 20
137.9024223248
 30
0.0
 11
250.8317503944
 21
133.8418564425
 31
0.0
  0
ARC
  5
D0
330
1F
100
AcDbEntity
  8
0
  6
Continuous
 62
     7
370
    15
100
AcDbCircle
 10
250.9331477123
 20
133.4925575799
 30
0.0
 40
0.3637184508709144
100
AcDbArc
 50
106.187386458
 51
162.3366663112
  0
LINE
  5
D1
330
1F
100
AcDbEntity
  8
0
  6
Continuous
 62
     7
370
    15
100
AcDbLine
 10
250.5865764581
 20
133.6029182489
 30
0.0
 11
246.3318339064
 21
120.1162873643
 31
0.0
  0
ARC
  5
D2
330
1F
100
AcDbEntity
  8
0
  6
Continuous
 62
     7
370
    15
100
AcDbCircle
 10
246.6990577671
 20
120.0090655124
 30
0.0
 40
0.3825570407634505
100
AcDbArc
 50
163.7232760755
 51
286.6981559959
  0
LINE
  5
D3
330
1F
100
AcDbEntity
  8
0
  6
Continuous
 62
     7
370
    15
100
AcDbLine
 10
246.8089777643
 20
119.6426402353
 30
0.0
 11
260.5593738209
 21
123.7032061174
 31
0.0
  0
ARC
  5
D4
330
1F
100
AcDbEntity
  8
0
  6
Continuous
 62
     7
370
    15
100
AcDbCircle
 10
260.4579765037
 20
124.052504979
 30
0.0
 40
0.363718449686925
100
AcDbArc
 50
286.1873863895
 51
342.3366664714
  0
LINE
  5
D5
330
1F
100
AcDbEntity
  8
0
  6
Continuous
 62
     7
370
    15
100
AcDbLine
 10
260.8045477571
 20
123.9421443113
 30
0.0
 11
265.0592903088
 21
137.4287751959
 31
0.0
  0
LINE
  5
D6
330
1F
100
AcDbEntity
  8
0
  6
Continuous
 62
     7
370
    15
100
AcDbLine
 10
246.6700599796
 20
119.9535683863
 30
0.0
 11
246.8089777643
 21
119.6426402353
 31
0.0
  0
LINE
  5
D7
330
1F
100
AcDbEntity
  8
0
  6
Continuous
 62
     7
370
    15
100
AcDbLine
 10
246.6700599796
 20
119.9535683863
 30
0.0
 11
246.3318339064
 21
120.1162873643
 31
0.0
  0
LINE
  5
D8
330
1F
100
AcDbEntity
  8
0
  6
Continuous
 62
     7
370
    15
100
AcDbLine
 10
260.4204560362
 20
124.0141342684
 30
0.0
 11
260.5593738209
 21
123.7032061174
 31
0.0
  0
LINE
  5
D9
330
1F
100
AcDbEntity
  8
0
  6
Continuous
 62
     7
370
    15
100
AcDbLine
 10
248.130941396
 20
121.316386503
 30
0.0
 11
246.6700599796
 21
119.9535683863
 31
0.0
  0
LINE
  5
DA
330
1F
100
AcDbEntity
  8
0
  6
Continuous
 62
     7
370
    15
100
AcDbLine
 10
248.130941396
 20
121.316386503
 30
0.0
 11
248.7700623592
 21
121.5051223596
 31
0.0
  0
LINE
  5
DB
330
1F
100
AcDbEntity
  8
0
  6
Continuous
 62
     7
370
    15
100
AcDbLine
 10
260.0495452937
 20
124.3048487674
 30
0.0
 11
260.4204560362
 21
124.0141342684
 31
0.0
  0
LINE
  5
DC
330
1F
100
AcDbEntity
  8
0
  6
Continuous
 62
     7
370
    15
100
AcDbLine
 10
259.898348659
 20
122.3704507156
 30
0.0
 11
259.9017225508
 21
122.371447044
 31
0.0
  0
LINE
  5
DD
330
1F
100
AcDbEntity
  8
0
  6
Continuous
 62
     7
370
    15
100
AcDbLine
 10
246.9256961603
 20
122.8560916997
 30
0.0
 11
245.7941065059
 21
119.269192658
 31
0.0
  0
LINE
  5
DE
330
1F
100
AcDbEntity
  8
0
  6
Continuous
 62
     7
370
    15
100
AcDbLine
 10
250.9248025313
 20
133.4401992709
 30
0.0
 11
250.5865764581
 21
133.6029182489
 31
0.0
  0
LINE
  5
DF
330
1F
100
AcDbEntity
  8
0
  6
Continuous
 62
     7
370
    15
100
AcDbLine
 10
251.2435538957
 20
133.0463058231
 30
0.0
 11
250.9248025313
 21
133.4401992709
 31
0.0
  0
LINE
  5
E0
330
1F
100
AcDbEntity
  8
0
  6
Continuous
 62
     7
370
    15
100
AcDbLine
 10
248.3287026203
 20
121.943247612
 30
0.0
 11
248.130941396
 21
121.316386503
 31
0.0
  0
ARC
  5
E1
330
1F
100
AcDbEntity
  8
0
  6
Continuous
 62
     7
370
    15
100
AcDbCircle
 10
250.6731098018
 20
123.8889300721
 30
0.0
 40
1.00672905464059
100
AcDbArc
 50
163.7232760755
 51
286.6981559959
  0
LINE
  5
E2
330
1F
100
AcDbEntity
  8
0
  6
Continuous
 62
     7
370
    15
100
AcDbLine
 10
248.9059944713
 20
122.0733439329
 30
0.0
 11
248.9076384189
 21
122.0717120329
 31
0.0
  0
SPLINE
  5
E3
330
1F
100
AcDbEntity
  8
0
  6
Continuous
 62
     7
370
    15
100
AcDbSpline
210
0.0
220
0.0
230
1.0
 70
     8
 71
     3
 72
    14
 73
    10
 74
     0
 42
0.00000001
 43
0.00000001
 12
1.0
 22
0.0
 32
0.0
 13
1.0
 23
0.0
 33
0.0
 40
0.0
 40
0.0
 40
0.0
 40
0.0
 40
0.2234968253973657
 40
0.3567622963774672
 40
0.4531212562341344
 40
0.5344619041500351
 40
0.6157317558035384
 40
0.7396161778921949
 40
1.0
 40
1.0
 40
1.0
 40
1.0
 10
248.7700623591923
 20
121.5051223595511
 30
0.0
 10
248.8258497141246
 20
121.5242417437638
 30
0.0
 10
248.9149016495115
 20
121.5547615303644
 30
0.0
 10
249.0120177912405
 20
121.6247078382923
 30
0.0
 10
249.0615732968901
 20
121.6899773691981
 30
0.0
 10
249.0810054730257
 20
121.755740580262
 30
0.0
 10
249.0756183397412
 20
121.8315315644639
 30
0.0
 10
249.0260544618377
 20
121.9461911355539
 30
0.0
 10
248.955468284763
 20
122.0210124187663
 30
0.0
 10
248.9076384189016
 20
122.0717120328825
 30
0.0
  0
SPLINE
  5
E4
330
1F
100
AcDbEntity
  8
0
  6
Continuous
 62
     7
370
    15
100
AcDbSpline
210
0.0
220
0.0
230
1.0
 70
     8
 71
     3
 72
    14
 73
    10
 74
     0
 42
0.00000001
 43
0.00000001
 12
1.0
 22
0.0
 32
0.0
 13
1.0
 23
0.0
 33
0.0
 40
0.0
 40
0.0
 40
0.0
 40
0.0
 40
0.2210591904779619
 40
0.3460797326518991
 40
0.4396016244131439
 40
0.5338897453199726
 40
0.6146561933587595
 40
0.7517253237593857
 40
1.0
 40
1.0
 40
1.0
 40
1.0
 10
248.9059944713159
 20
122.0733439328666
 30
0.0
 10
248.8628472185769
 20
122.1135837624834
 30
0.0
 10
248.7952979361413
 20
122.1765813218504
 30
0.0
 10
248.6904820513752
 20
122.2318720379745
 30
0.0
 10
248.6076106448701
 20
122.2487157737014
 30
0.0
 10
248.5359361915452
 20
122.2354883893244
 30
0.0
 10
248.4654839493338
 20
122.1925406811041
 30
0.0
 10
248.3857820463361
 20
122.0984406772336
 30
0.0
 10
248.3510684072575
 20
122.0040578772568
 30
0.0
 10
248.3287026202516
 20
121.9432476119741
 30
0.0
  0
LINE
  5
E5
330
1F
100
AcDbEntity
  8
0
  6
Continuous
 62
     7
370
    15
100
AcDbLine
 10
250.9623729522
 20
122.9246530272
 30
0.0
 11
258.6579727621
 21
125.1972050251
 31
0.0
  0
LINE
  5
E6
330
1F
100
AcDbEntity
  8
0
  6
Continuous
 62
     7
370
    15
100
AcDbLine
 10
252.0879568843
 20
131.7190728143
 30
0.0
 11
249.7067312209
 21
124.1710928403
 31
0.0
  0
ARC
  5
E7
330
1F
100
AcDbEntity
  8
0
  6
Continuous
 62
     7
370
    15
100
AcDbCircle
 10
252.9999864985
 20
131.4286500046
 30
0.0
 40
0.9571538149657958
100
AcDbArc
 50
106.1873863895
 51
162.3366664714
  0
LINE
  5
E8
330
1F
100
AcDbEntity
  8
0
  6
Continuous
 62
     7
370
    15
100
AcDbLine
 10
260.428751263
 20
134.620409533
 30
0.0
 11
252.7331514531
 21
132.3478575351
 31
0.0
  0
ARC
  5
E9
330
1F
100
AcDbEntity
  8
0
  6
Continuous
 62
     7
370
    15
100
AcDbCircle
 10
260.7180144137
 20
133.6561324882
 30
0.0
 40
1.006729054633015
100
AcDbArc
 50
343.7232760613
 51
106.6981560162
  0
LINE
  5
EA
330
1F
100
AcDbEntity
  8
0
  6
Continuous
 62
     7
370
    15
100
AcDbLine
 10
259.3031673309
 20
125.8259897458
 30
0.0
 11
261.6843929946
 21
133.3739697198
 31
0.0
  0
ARC
  5
EB
330
1F
100
AcDbEntity
  8
0
  6
Continuous
 62
     7
370
    15
100
AcDbCircle
 10
258.3911377168
 20
126.1164125555
 30
0.0
 40
0.9571538149658673
100
AcDbArc
 50
286.1873863895
 51
342.3366664714
  0
LWPOLYLINE
  5
EC
330
1F
100
AcDbEntity
  8
0
  6
Continuous
 62
     7
370
    15
100
AcDbPolyline
 90
       26
 70
   128
 43
0.0
 10
258.1476409348
 20
127.975756211
 10
258.2585224968
 20
128.5964489459
 10
258.2083638316
 20
129.2282055815
 10
258.0003165926
 20
129.8313305249
 10
257.6474531531
 20
130.3679272177
 10
257.1719452206
 20
130.8042793163
 10
256.6036707073
 20
131.1129692135
 10
255.978336391
 20
131.2746007879
 10
255.3352343264
 20
131.2790181331
 10
254.7147729815
 20
131.1259436911
 10
254.1559382246
 20
130.8249956921
 10
253.6938436985
 20
130.3950838056
 10
253.3575245019
 20
129.8632209766
 10
253.1681128067
 20
129.2628261027
 10
253.1375100464
 20
128.631624202
 10
253.267639105
 20
128.0092760111
 10
253.5503234951
 20
127.4348859559
 10
253.9678011169
 20
126.9445450759
 10
254.493840316
 20
126.5690632919
 10
255.0953881148
 20
126.3320335055
 10
255.734647053
 20
126.2483491697
 10
256.3714501402
 20
126.3232684793
 10
256.9657846966
 20
126.5520839783
 10
257.4803064962
 20
126.9204183476
 10
257.8826862421
 20
127.405127784
 10
258.1476409348
 20
127.975756211
  0
LINE
  5
ED
330
1F
100
AcDbEntity
  8
0
  6
Continuous
 62
     7
370
    15
100
AcDbLine
 10
257.5650744077
 20
127.0031735117
 30
0.0
 11
257.5899390432
 21
127.2078327149
 31
0.0
  0
LWPOLYLINE
  5
EE
330
1F
100
AcDbEntity
  8
0
  6
Continuous
 62
     7
370
    15
100
AcDbPolyline
 90
        3
 70
   128
 43
0.0
 10
253.6041939227
 20
129.5876580287
 10
253.4921824828
 20
129.5119888641
 10
253.1622940657
 20
129.2288822204
  0
SPLINE
  5
EF
330
1F
100
AcDbEntity
  8
0
  6
Continuous
 62
     7
370
    15
100
AcDbSpline
210
0.0
220
0.0
230
1.0
 70
     8
 71
     3
 72
    11
 73
     7
 74
     0
 42
0.00000001
 43
0.00000001
 12
1.0
 22
0.0
 32
0.0
 13
1.0
 23
0.0
 33
0.0
 40
0.0
 40
0.0
 40
0.0
 40
0.0
 40
0.3280455501579957
 40
0.6557028173711829
 40
0.9906967996087676
 40
0.9999999999999999
 40
0.9999999999999999
 40
0.9999999999999999
 40
0.9999999999999999
 10
260.0495452936899
 20
124.3048487673508
 30
0.0
 10
259.9938259375958
 20
124.3511303203846
 30
0.0
 10
259.8824531762357
 20
124.4436386464447
 30
0.0
 10
259.7103008118753
 20
124.6184312763045
 30
0.0
 10
259.6068487275921
 20
124.7387229658736
 30
0.0
 10
259.5601775074854
 20
124.7978834098509
 30
0.0
 10
259.5589164117371
 20
124.7994819749665
 30
0.0
  0
LINE
  5
F0
330
1F
100
AcDbEntity
  8
0
  6
Continuous
 62
     7
370
    15
100
AcDbLine
 10
260.4204560362
 20
124.0141342684
 30
0.0
 11
260.8045477571
 21
123.9421443113
 31
0.0
  0
ARC
  5
F1
330
1F
100
AcDbEntity
  8
0
  6
Continuous
 62
     7
370
    15
100
AcDbCircle
 10
259.7946047344
 20
122.7398165354
 30
0.0
 40
0.383627825843562
100
AcDbArc
 50
286.2138525714
 51
333.0632932926
  0
LINE
  5
F2
330
1F
100
AcDbEntity
  8
0
  6
Continuous
 62
     7
370
    15
100
AcDbLine
 10
263.092937278
 20
135.897839691
 30
0.0
 11
264.675198588
 21
137.500765153
 31
0.0
  0
LINE
  5
F3
330
1F
100
AcDbEntity
  8
0
  6
Continuous
 62
     7
370
    15
100
AcDbLine
 10
264.675198588
 20
137.500765153
 30
0.0
 11
265.0592903088
 21
137.4287751959
 31
0.0
  0
LINE
  5
F4
330
1F
100
AcDbEntity
  8
0
  6
Continuous
 62
     7
370
    15
100
AcDbLine
 10
262.8951760537
 20
135.2709785821
 30
0.0
 11
263.092937278
 21
135.897839691
 31
0.0
  0
SPLINE
  5
F5
330
1F
100
AcDbEntity
  8
0
  6
Continuous
 62
     7
370
    15
100
AcDbSpline
210
0.0
220
0.0
230
1.0
 70
     8
 71
     3
 72
    11
 73
     7
 74
     0
 42
0.00000001
 43
0.00000001
 12
1.0
 22
0.0
 32
0.0
 13
1.0
 23
0.0
 33
0.0
 40
0.0
 40
0.0
 40
0.0
 40
0.0
 40
0.3280455501579904
 40
0.6557028173711842
 40
0.9906967996087622
 40
1.0
 40
1.0
 40
1.0
 40
1.0
 10
251.2435538956703
 20
133.0463058231137
 30
0.0
 10
251.2931944797889
 20
132.9879995618812
 30
0.0
 10
251.3924168921851
 20
132.8714560521701
 30
0.0
 10
251.5671960586263
 20
132.7018596245435
 30
0.0
 10
251.6824952118469
 20
132.6050031859698
 30
0.0
 10
251.7378046232095
 20
132.5629303592994
 30
0.0
 10
251.7392991301744
 20
132.5617935160219
 30
0.0
  0
LINE
  5
F6
330
1F
100
AcDbEntity
  8
0
  6
Continuous
 62
     7
370
    15
100
AcDbLine
 10
250.9248025313
 20
133.4401992709
 30
0.0
 11
250.8317503944
 21
133.8418564425
 31
0.0
  0
LINE
  5
F7
330
1F
100
AcDbEntity
  8
0
  6
Continuous
 62
     7
370
    15
100
AcDbLine
 10
264.675198588
 20
137.500765153
 30
0.0
 11
264.5821464509
 21
137.9024223248
 31
0.0
  0
LINE
  5
F8
330
1F
100
AcDbEntity
  8
0
  6
Continuous
 62
     7
370
    15
100
AcDbLine
 10
263.092937278
 20
135.897839691
 30
0.0
 11
262.4538163148
 21
135.7091038345
 31
0.0
  0
LINE
  5
F9
330
1F
100
AcDbEntity
  8
0
  6
Continuous
 62
     7
370
    15
100
AcDbLine
 10
262.3178842027
 20
135.1408822612
 30
0.0
 11
262.3162402551
 21
135.1425141612
 31
0.0
  0
SPLINE
  5
FA
330
1F
100
AcDbEntity
  8
0
  6
Continuous
 62
     7
370
    15
100
AcDbSpline
210
0.0
220
0.0
230
1.0
 70
     8
 71
     3
 72
    14
 73
    10
 74
     0
 42
0.00000001
 43
0.00000001
 12
1.0
 22
0.0
 32
0.0
 13
1.0
 23
0.0
 33
0.0
 40
0.0
 40
0.0
 40
0.0
 40
0.0
 40
0.2210591904779483
 40
0.3460797326519356
 40
0.4396016244131647
 40
0.5338897453199604
 40
0.6146561933587531
 40
0.7517253237593668
 40
1.0
 40
1.0
 40
1.0
 40
1.0
 10
262.3178842026673
 20
135.1408822611833
 30
0.0
 10
262.3610314554063
 20
135.1006424315664
 30
0.0
 10
262.4285807378418
 20
135.0376448721994
 30
0.0
 10
262.533396622608
 20
134.9823541560754
 30
0.0
 10
262.6162680291131
 20
134.9655104203485
 30
0.0
 10
262.687942482438
 20
134.9787378047255
 30
0.0
 10
262.7583947246494
 20
135.0216855129458
 30
0.0
 10
262.838096627647
 20
135.1157855168162
 30
0.0
 10
262.8728102667257
 20
135.210168316793
 30
0.0
 10
262.8951760537316
 20
135.2709785820758
 30
0.0
  0
SPLINE
  5
FB
330
1F
100
AcDbEntity
  8
0
  6
Continuous
 62
     7
370
    15
100
AcDbSpline
210
0.0
220
0.0
230
1.0
 70
     8
 71
     3
 72
    14
 73
    10
 74
     0
 42
0.00000001
 43
0.00000001
 12
1.0
 22
0.0
 32
0.0
 13
1.0
 23
0.0
 33
0.0
 40
0.0
 40
0.0
 40
0.0
 40
0.0
 40
0.2234968253973714
 40
0.3567622963774752
 40
0.4531212562341558
 40
0.5344619041500412
 40
0.6157317558035321
 40
0.7396161778921818
 40
0.9999999999999999
 40
0.9999999999999999
 40
0.9999999999999999
 40
0.9999999999999999
 10
262.4538163147909
 20
135.7091038344988
 30
0.0
 10
262.3980289598587
 20
135.6899844502861
 30
0.0
 10
262.3089770244716
 20
135.6594646636854
 30
0.0
 10
262.2118608827427
 20
135.5895183557576
 30
0.0
 10
262.162305377093
 20
135.5242488248518
 30
0.0
 10
262.1428732009575
 20
135.4584856137879
 30
0.0
 10
262.1482603342419
 20
135.382694629586
 30
0.0
 10
262.1978242121455
 20
135.2680350584961
 30
0.0
 10
262.2684103892202
 20
135.1932137752836
 30
0.0
 10
262.3162402550816
 20
135.1425141611674
 30
0.0
  0
ELLIPSE
  5
FC
330
1F
100
AcDbEntity
  8
0
  6
Continuous
 62
     7
370
    15
100
AcDbEllipse
 10
255.4132406316
 20
128.0923562085
 30
0.0
 11
2.09333716601634
 21
-1.067951011005476
 31
0.0
210
0.0
220
0.0
230
1.0
 40
0.9741101241
 41
0.0
 42
6.283185307179586
  0
LINE
  5
FD
330
1F
100
AcDbEntity
  8
0
  6
HIDDEN
 62
     7
370
     0
100
AcDbLine
 10
175.0948948853
 20
140.335417535
 30
0.0
 11
175.0948948853
 21
91.5354175368
 31
0.0
  0
LINE
  5
FE
330
1F
100
AcDbEntity
  8
0
  6
HIDDEN
 62
     7
370
     0
100
AcDbLine
 10
155.0948948853
 20
140.6354175359
 30
0.0
 11
155.0948948853
 21
91.2354175368
 31
0.0
  0
SPLINE
  5
FF
330
1F
100
AcDbEntity
  8
0
  6
HIDDEN
 62
     7
370
     0
100
AcDbSpline
210
0.0
220
0.0
230
1.0
 70
    11
 71
     3
 72
    47
 73
    43
 74
     0
 42
0.00000001
 43
0.00000001
 12
1.0
 22
0.0
 32
0.0
 13
1.0
 23
0.0
 33
0.0
 40
0.0
 40
0.0
 40
0.0
 40
0.0
 40
0.0156521047409896
 40
0.0420565304595355
 40
0.0618128187915929
 40
0.0692281765809932
 40
0.095632177314066
 40
0.1227990102820183
 40
0.1492556000557972
 40
0.1764772581732483
 40
0.2029670425338828
 40
0.2302281774107669
 40
0.2566601519958463
 40
0.2838622217640303
 40
0.3102355771286444
 40
0.3373721823333291
 40
0.3637775685170347
 40
0.3909444813574669
 40
0.4174224897085826
 40
0.4446680571180068
 40
0.4711461546895072
 40
0.4983962339307041
 40
0.5248019377986191
 40
0.5519755095678626
 40
0.5783493055887462
 40
0.6054848045493451
 40
0.6319164092458073
 40
0.6591110189686696
 40
0.6856006254743131
 40
0.7128600311053865
 40
0.7393171804447447
 40
0.7665458520963845
 40
0.7929303591964961
 40
0.8200802702506363
 40
0.846465466717929
 40
0.8736117241265913
 40
0.9000696575032047
 40
0.9272927918582071
 40
0.9537822222676449
 40
0.9810430569021089
 40
0.998244566814424
 40
1.0
 40
1.0
 40
1.0
 40
1.0
 10
165.1056347802718
 20
115.7391726650982
 30
0.0
 10
165.1009167187718
 20
115.8044884950535
 30
0.0
 10
165.0882394909826
 20
115.9799893134713
 30
0.0
 10
165.1058369410668
 20
116.2410882068265
 30
0.0
 10
165.173043369539
 20
116.4555277726415
 30
0.0
 10
165.2236142744925
 20
116.6742114863461
 30
0.0
 10
165.3384660543407
 20
116.9054259181098
 30
0.0
 10
165.5213088461697
 20
117.186337989584
 30
0.0
 10
165.7553933275453
 20
117.433102120014
 30
0.0
 10
166.0242088075687
 20
117.6359854282591
 30
0.0
 10
166.3265508570052
 20
117.7922465903164
 30
0.0
 10
166.6478283007681
 20
117.8945713596679
 30
0.0
 10
166.9846481267914
 20
117.9418859234912
 30
0.0
 10
167.3210529015088
 20
117.9321243581849
 30
0.0
 10
167.6537877397916
 20
117.8655766691158
 30
0.0
 10
167.9676087531407
 20
117.7454644490601
 30
0.0
 10
168.2595738245051
 20
117.5729299911867
 30
0.0
 10
168.5164673102747
 20
117.3556822514916
 30
0.0
 10
168.7354970206708
 20
117.0958335336245
 30
0.0
 10
168.9064136940373
 20
116.8052215324803
 30
0.0
 10
169.0272269376741
 20
116.4870342591274
 30
0.0
 10
169.0922193023792
 20
116.1563150380004
 30
0.0
 10
169.1008524676016
 20
115.8165610919801
 30
0.0
 10
169.0529263927464
 20
115.4837005026473
 30
0.0
 10
168.9490549355898
 20
115.1608528151919
 30
0.0
 10
168.7940517973431
 20
114.8626699612574
 30
0.0
 10
168.5893470698486
 20
114.5920607768319
 30
0.0
 10
168.3440786798649
 20
114.3613719594326
 30
0.0
 10
168.0607518639587
 20
114.1732287878317
 30
0.0
 10
167.7524690267111
 20
114.0365334365715
 30
0.0
 10
167.4226378230037
 20
113.9528122477627
 30
0.0
 10
167.0869017902829
 20
113.9259452433156
 30
0.0
 10
166.7486609756826
 20
113.9560125314124
 30
0.0
 10
166.4235914363273
 20
114.0414127816083
 30
0.0
 10
166.1146919253895
 20
114.1812544987546
 30
0.0
 10
165.8359476167009
 20
114.3692199182264
 30
0.0
 10
165.5901174857808
 20
114.6035408391674
 30
0.0
 10
165.3889704568341
 20
114.8737185681242
 30
0.0
 10
165.2333100891016
 20
115.1767132371748
 30
0.0
 10
165.1474693964329
 20
115.461815111109
 30
0.0
 10
165.1099880285763
 20
115.6525750443075
 30
0.0
 10
165.1060037305281
 20
115.7318332688239
 30
0.0
 10
165.1056347802718
 20
115.7391726650982
 30
0.0
  0
SPLINE
  5
100
330
1F
100
AcDbEntity
  8
0
  6
HIDDEN
 62
     7
370
     0
100
AcDbSpline
210
0.0
220
0.0
230
1.0
 70
     8
 71
     3
 72
    12
 73
     8
 74
     0
 42
0.00000001
 43
0.00000001
 12
1.0
 22
0.0
 32
0.0
 13
1.0
 23
0.0
 33
0.0
 40
0.0
 40
0.0
 40
0.0
 40
0.0
 40
0.2500000000000016
 40
0.2500000000000016
 40
0.5000000000000032
 40
0.5000000000000032
 40
1.0
 40
1.0
 40
1.0
 40
1.0
 10
163.6226516988727
 20
108.3666075676097
 30
0.0
 10
163.5589864623422
 20
108.3666075676097
 30
0.0
 10
163.4993802301189
 20
108.34053541913
 30
0.0
 10
163.400719705188
 20
108.264996668309
 30
0.0
 10
163.3617527151728
 20
108.2177457312127
 30
0.0
 10
163.2623658832483
 20
108.0659219132463
 30
0.0
 10
163.2202896358249
 20
107.9531186634812
 30
0.0
 10
163.1896389969805
 20
107.8389645387461
 30
0.0
  0
LINE
  5
101
330
1F
100
AcDbEntity
  8
0
  6
HIDDEN
 62
     7
370
     0
100
AcDbLine
 10
166.5671380717
 20
108.3666075676
 30
0.0
 11
163.6226516989
 21
108.3666075676
 31
0.0
  0
SPLINE
  5
102
330
1F
100
AcDbEntity
  8
0
  6
HIDDEN
 62
     7
370
     0
100
AcDbSpline
210
0.0
220
0.0
230
1.0
 70
     8
 71
     3
 72
    12
 73
     8
 74
     0
 42
0.00000001
 43
0.00000001
 12
1.0
 22
0.0
 32
0.0
 13
1.0
 23
0.0
 33
0.0
 40
0.0
 40
0.0
 40
0.0
 40
0.0
 40
0.5000000000000004
 40
0.5000000000000004
 40
0.7500000000000002
 40
0.7500000000000002
 40
1.0
 40
1.0
 40
1.0
 40
1.0
 10
167.0001507736321
 20
107.8389645387461
 30
0.0
 10
166.9694513902648
 20
107.95330020581
 30
0.0
 10
166.9281013221583
 20
108.0646535586513
 30
0.0
 10
166.8283453939388
 20
108.2173903309001
 30
0.0
 10
166.7886484762061
 20
108.2652502167522
 30
0.0
 10
166.6913903245585
 20
108.3398533301016
 30
0.0
 10
166.6306141665678
 20
108.3666075676097
 30
0.0
 10
166.5671380717398
 20
108.3666075676097
 30
0.0
  0
ELLIPSE
  5
103
330
1F
100
AcDbEntity
  8
0
  6
HIDDEN
 62
     7
370
     0
100
AcDbEllipse
 10
154.0386372303
 20
115.9354175368
 30
0.0
 11
-11.70927234972714
 21
24.6771864409374
 31
0.0
210
0.0
220
0.0
230
1.0
 40
0.3419987131
 41
3.310521928178956
 42
4.221709151398947
  0
SPLINE
  5
104
330
1F
100
AcDbEntity
  8
0
  6
HIDDEN
 62
     7
370
     0
100
AcDbSpline
210
0.0
220
0.0
230
1.0
 70
     8
 71
     3
 72
    12
 73
     8
 74
     0
 42
0.00000001
 43
0.00000001
 12
1.0
 22
0.0
 32
0.0
 13
1.0
 23
0.0
 33
0.0
 40
0.0
 40
0.0
 40
0.0
 40
0.0
 40
0.2500000000000002
 40
0.2500000000000002
 40
0.5000000000000004
 40
0.5000000000000004
 40
1.0
 40
1.0
 40
1.0
 40
1.0
 10
166.5671380717398
 20
92.10868642128837
 30
0.0
 10
166.6308033082704
 20
92.10868642128835
 30
0.0
 10
166.6904095404937
 20
92.11695119695423
 30
0.0
 10
166.7890700654246
 20
92.14116997853739
 30
0.0
 10
166.8280370554398
 20
92.15642729784652
 30
0.0
 10
166.9274238873643
 20
92.20606065210846
 30
0.0
 10
166.9695001347877
 20
92.24370036028256
 30
0.0
 10
167.0001507736321
 20
92.28277605955871
 30
0.0
  0
LINE
  5
105
330
1F
100
AcDbEntity
  8
0
  6
HIDDEN
 62
     7
370
     0
100
AcDbLine
 10
163.6226516989
 20
92.1086864213
 30
0.0
 11
166.5671380717
 21
92.1086864213
 31
0.0
  0
SPLINE
  5
106
330
1F
100
AcDbEntity
  8
0
  6
HIDDEN
 62
     7
370
     0
100
AcDbSpline
210
0.0
220
0.0
230
1.0
 70
     8
 71
     3
 72
    12
 73
     8
 74
     0
 42
0.00000001
 43
0.00000001
 12
1.0
 22
0.0
 32
0.0
 13
1.0
 23
0.0
 33
0.0
 40
0.0
 40
0.0
 40
0.0
 40
0.0
 40
0.5000000000000018
 40
0.5000000000000018
 40
0.7500000000000009
 40
0.7500000000000009
 40
1.0
 40
1.0
 40
1.0
 40
1.0
 10
163.1896389969805
 20
92.2827760595587
 30
0.0
 10
163.2203383803478
 20
92.24363821716283
 30
0.0
 10
163.2616884484544
 20
92.2064784344373
 30
0.0
 10
163.3614443766738
 20
92.15654192880956
 30
0.0
 10
163.4011412944065
 20
92.1410890586658
 30
0.0
 10
163.4983994460541
 20
92.11716951506676
 30
0.0
 10
163.5591756040448
 20
92.10868642128835
 30
0.0
 10
163.6226516988727
 20
92.10868642128835
 30
0.0
  0
ELLIPSE
  5
107
330
1F
100
AcDbEntity
  8
0
  6
HIDDEN
 62
     7
370
     0
100
AcDbEllipse
 10
176.1511525403
 20
115.9354175368
 30
0.0
 11
11.70927234972703
 21
24.67718644093743
 31
0.0
210
0.0
220
0.0
230
1.0
 40
0.3419987131
 41
2.061476155780649
 42
2.972663379000668
  0
SPLINE
  5
108
330
1F
100
AcDbEntity
  8
0
  6
HIDDEN
 62
     7
370
     0
100
AcDbSpline
210
0.0
220
0.0
230
1.0
 70
     8
 71
     3
 72
    12
 73
     8
 74
     0
 42
0.00000001
 43
0.00000001
 12
1.0
 22
0.0
 32
0.0
 13
1.0
 23
0.0
 33
0.0
 40
0.0
 40
0.0
 40
0.0
 40
0.0
 40
0.25
 40
0.25
 40
0.5
 40
0.5
 40
1.0
 40
1.0
 40
1.0
 40
1.0
 10
163.6226516988727
 20
139.7621486522924
 30
0.0
 10
163.5589864623422
 20
139.7621486522924
 30
0.0
 10
163.4993802301189
 20
139.7538838766265
 30
0.0
 10
163.400719705188
 20
139.7296650950434
 30
0.0
 10
163.3617527151728
 20
139.7144077757342
 30
0.0
 10
163.2623658832483
 20
139.6647744214723
 30
0.0
 10
163.2202896358249
 20
139.6271347132982
 30
0.0
 10
163.1896389969805
 20
139.588059014022
 30
0.0
  0
LINE
  5
109
330
1F
100
AcDbEntity
  8
0
  6
HIDDEN
 62
     7
370
     0
100
AcDbLine
 10
166.5671380717
 20
139.7621486523
 30
0.0
 11
163.6226516989
 21
139.7621486523
 31
0.0
  0
SPLINE
  5
10A
330
1F
100
AcDbEntity
  8
0
  6
HIDDEN
 62
     7
370
     0
100
AcDbSpline
210
0.0
220
0.0
230
1.0
 70
     8
 71
     3
 72
    12
 73
     8
 74
     0
 42
0.00000001
 43
0.00000001
 12
1.0
 22
0.0
 32
0.0
 13
1.0
 23
0.0
 33
0.0
 40
0.0
 40
0.0
 40
0.0
 40
0.0
 40
0.5000000000000013
 40
0.5000000000000013
 40
0.7500000000000007
 40
0.7500000000000007
 40
1.0
 40
1.0
 40
1.0
 40
1.0
 10
167.0001507736321
 20
139.588059014022
 30
0.0
 10
166.9694513902648
 20
139.627196856418
 30
0.0
 10
166.9281013221583
 20
139.6643566391434
 30
0.0
 10
166.8283453939388
 20
139.7142931447712
 30
0.0
 10
166.7886484762061
 20
139.729746014915
 30
0.0
 10
166.6913903245585
 20
139.753665558514
 30
0.0
 10
166.6306141665678
 20
139.7621486522924
 30
0.0
 10
166.5671380717398
 20
139.7621486522924
 30
0.0
  0
ELLIPSE
  5
10B
330
1F
100
AcDbEntity
  8
0
  6
HIDDEN
 62
     7
370
     0
100
AcDbEllipse
 10
154.0386372303
 20
115.9354175368
 30
0.0
 11
11.70927234972726
 21
24.67718644093744
 31
0.0
210
0.0
220
0.0
230
1.0
 40
0.3419987131
 41
5.203068809370469
 42
6.114256032590515
  0
SPLINE
  5
10C
330
1F
100
AcDbEntity
  8
0
  6
HIDDEN
 62
     7
370
     0
100
AcDbSpline
210
0.0
220
0.0
230
1.0
 70
     8
 71
     3
 72
    12
 73
     8
 74
     0
 42
0.00000001
 43
0.00000001
 12
1.0
 22
0.0
 32
0.0
 13
1.0
 23
0.0
 33
0.0
 40
0.0
 40
0.0
 40
0.0
 40
0.0
 40
0.2500000000000002
 40
0.2500000000000002
 40
0.5000000000000004
 40
0.5000000000000004
 40
1.0
 40
1.0
 40
1.0
 40
1.0
 10
166.5671380717398
 20
123.5042275059712
 30
0.0
 10
166.6308033082704
 20
123.5042275059712
 30
0.0
 10
166.6904095404937
 20
123.5302996544509
 30
0.0
 10
166.7890700654246
 20
123.605838405272
 30
0.0
 10
166.8280370554398
 20
123.6530893423682
 30
0.0
 10
166.9274238873643
 20
123.8049131603347
 30
0.0
 10
166.9695001347877
 20
123.9177164100998
 30
0.0
 10
167.0001507736321
 20
124.0318705348349
 30
0.0
  0
LINE
  5
10D
330
1F
100
AcDbEntity
  8
0
  6
HIDDEN
 62
     7
370
     0
100
AcDbLine
 10
163.6226516989
 20
123.504227506
 30
0.0
 11
166.5671380717
 21
123.504227506
 31
0.0
  0
SPLINE
  5
10E
330
1F
100
AcDbEntity
  8
0
  6
HIDDEN
 62
     7
370
     0
100
AcDbSpline
210
0.0
220
0.0
230
1.0
 70
     8
 71
     3
 72
    12
 73
     8
 74
     0
 42
0.00000001
 43
0.00000001
 12
1.0
 22
0.0
 32
0.0
 13
1.0
 23
0.0
 33
0.0
 40
0.0
 40
0.0
 40
0.0
 40
0.0
 40
0.5
 40
0.5
 40
0.75
 40
0.75
 40
1.0
 40
1.0
 40
1.0
 40
1.0
 10
163.1896389969805
 20
124.0318705348349
 30
0.0
 10
163.2203383803478
 20
123.917534867771
 30
0.0
 10
163.2616884484544
 20
123.8061815149297
 30
0.0
 10
163.3614443766738
 20
123.6534447426809
 30
0.0
 10
163.4011412944065
 20
123.6055848568288
 30
0.0
 10
163.4983994460541
 20
123.5309817434793
 30
0.0
 10
163.5591756040448
 20
123.5042275059712
 30
0.0
 10
163.6226516988727
 20
123.5042275059712
 30
0.0
  0
ELLIPSE
  5
10F
330
1F
100
AcDbEntity
  8
0
  6
HIDDEN
 62
     7
370
     0
100
AcDbEllipse
 10
176.1511525403
 20
115.9354175368
 30
0.0
 11
-11.70927234972711
 21
24.67718644093743
 31
0.0
210
0.0
220
0.0
230
1.0
 40
0.3419987131
 41
0.1689292745891156
 42
1.080116497809132
  0
LINE
  5
110
330
1F
100
AcDbEntity
  8
0
  6
HIDDEN
 62
     7
370
     0
100
AcDbLine
 10
175.0948948853
 20
95.9354175368
 30
0.0
 11
175.0948948853
 21
135.9354175368
 31
0.0
  0
LINE
  5
111
330
1F
100
AcDbEntity
  8
0
  6
HIDDEN
 62
     7
370
     0
100
AcDbLine
 10
155.0948948853
 20
96.3854175368
 30
0.0
 11
155.0948948853
 21
135.4651573566
 31
0.0
  0
SPLINE
  5
112
330
1F
100
AcDbEntity
  8
0
  6
HIDDEN
 62
     7
370
     0
100
AcDbSpline
210
0.0
220
0.0
230
1.0
 70
     8
 71
     3
 72
    14
 73
    10
 74
     0
 42
0.00000001
 43
0.00000001
 12
1.0
 22
0.0
 32
0.0
 13
1.0
 23
0.0
 33
0.0
 40
0.0
 40
0.0
 40
0.0
 40
0.0
 40
0.25
 40
0.25
 40
0.5
 40
0.5
 40
0.75
 40
0.75
 40
1.0
 40
1.0
 40
1.0
 40
1.0
 10
154.0540338571779
 20
128.2298930818637
 30
0.0
 10
154.0857489915086
 20
128.1721098995206
 30
0.0
 10
154.120363516809
 20
128.1156972384456
 30
0.0
 10
154.2000347122244
 20
128.0080977884302
 30
0.0
 10
154.2450905892547
 20
127.9561851615091
 30
0.0
 10
154.3556450017602
 20
127.8699865368119
 30
0.0
 10
154.4230304159643
 20
127.8358971168402
 30
0.0
 10
154.5736599358624
 20
127.8337947248233
 30
0.0
 10
154.6434871726278
 20
127.8671664976681
 30
0.0
 10
154.6999179964312
 20
127.9109791662188
 30
0.0
  0
SPLINE
  5
113
330
1F
100
AcDbEntity
  8
0
  6
HIDDEN
 62
     7
370
     0
100
AcDbSpline
210
0.0
220
0.0
230
1.0
 70
     8
 71
     3
 72
    16
 73
    12
 74
     0
 42
0.00000001
 43
0.00000001
 12
1.0
 22
0.0
 32
0.0
 13
1.0
 23
0.0
 33
0.0
 40
0.0
 40
0.0
 40
0.0
 40
0.0
 40
0.0624999999999999
 40
0.0624999999999999
 40
0.1249999999999998
 40
0.1249999999999998
 40
0.2499999999999998
 40
0.2499999999999998
 40
0.4999999999999999
 40
0.4999999999999999
 40
1.0
 40
1.0
 40
1.0
 40
1.0
 10
154.6999179963994
 20
127.9109791662494
 30
0.0
 10
154.7116522308463
 20
127.9200895794973
 30
0.0
 10
154.7251839863253
 20
127.9281669354437
 30
0.0
 10
154.7551714467551
 20
127.9364137771207
 30
0.0
 10
154.7701661531634
 20
127.9354864595331
 30
0.0
 10
154.8059065755581
 20
127.9227199400013
 30
0.0
 10
154.8199199125594
 20
127.9050712934909
 30
0.0
 10
154.8540640013407
 20
127.8504183734594
 30
0.0
 10
154.8650359054591
 20
127.8090187058009
 30
0.0
 10
154.8908814457254
 20
127.6805289620782
 30
0.0
 10
154.8948948853063
 20
127.5899108744394
 30
0.0
 10
154.8948948853063
 20
127.4976917698853
 30
0.0
  0
LINE
  5
114
330
1F
100
AcDbEntity
  8
0
  6
HIDDEN
 62
     7
370
     0
100
AcDbLine
 10
154.8948948853
 20
104.3731433037
 30
0.0
 11
154.8948948853
 21
127.4976917699
 31
0.0
  0
SPLINE
  5
115
330
1F
100
AcDbEntity
  8
0
  6
HIDDEN
 62
     7
370
     0
100
AcDbSpline
210
0.0
220
0.0
230
1.0
 70
     8
 71
     3
 72
    16
 73
    12
 74
     0
 42
0.00000001
 43
0.00000001
 12
1.0
 22
0.0
 32
0.0
 13
1.0
 23
0.0
 33
0.0
 40
0.0
 40
0.0
 40
0.0
 40
0.0
 40
0.5000000000000067
 40
0.5000000000000067
 40
0.75000000000001
 40
0.75000000000001
 40
0.8750000000000071
 40
0.8750000000000071
 40
0.9375000000000036
 40
0.9375000000000036
 40
1.0
 40
1.0
 40
1.0
 40
1.0
 10
154.8948948853063
 20
104.3731433036953
 30
0.0
 10
154.8948948853063
 20
104.2805594527914
 30
0.0
 10
154.8908375831913
 20
104.1903469969311
 30
0.0
 10
154.8651803403964
 20
104.0624058698127
 30
0.0
 10
154.8538648946543
 20
104.0199926554008
 30
0.0
 10
154.8198335273457
 20
103.9656786119497
 30
0.0
 10
154.8059545461419
 20
103.9480972765598
 30
0.0
 10
154.7700188643745
 20
103.9353135886248
 30
0.0
 10
154.7550685451118
 20
103.9344380904767
 30
0.0
 10
154.7251700323699
 20
103.9426835255961
 30
0.0
 10
154.7116371720047
 20
103.9507571857679
 30
0.0
 10
154.6999179964306
 20
103.959855907362
 30
0.0
  0
SPLINE
  5
116
330
1F
100
AcDbEntity
  8
0
  6
HIDDEN
 62
     7
370
     0
100
AcDbSpline
210
0.0
220
0.0
230
1.0
 70
     8
 71
     3
 72
    14
 73
    10
 74
     0
 42
0.00000001
 43
0.00000001
 12
1.0
 22
0.0
 32
0.0
 13
1.0
 23
0.0
 33
0.0
 40
0.0
 40
0.0
 40
0.0
 40
0.0
 40
0.25
 40
0.25
 40
0.5
 40
0.5
 40
0.75
 40
0.75
 40
1.0
 40
1.0
 40
1.0
 40
1.0
 10
154.6999179964375
 20
103.9598559073705
 30
0.0
 10
154.6434622318287
 20
104.0036879398652
 30
0.0
 10
154.5725966055788
 20
104.0370189762871
 30
0.0
 10
154.4241395244062
 20
104.0349599661397
 30
0.0
 10
154.3549461650987
 20
104.0003639417379
 30
0.0
 10
154.2452307269645
 20
103.9146985850751
 30
0.0
 10
154.1999861476331
 20
103.8626761403671
 30
0.0
 10
154.1203594382094
 20
103.7551278800372
 30
0.0
 10
154.0857492896759
 20
103.6987257173041
 30
0.0
 10
154.0540338571767
 20
103.6409419917146
 30
0.0
  0
SPLINE
  5
117
330
1F
100
AcDbEntity
  8
0
  6
HIDDEN
 62
     7
370
     0
100
AcDbSpline
210
0.0
220
0.0
230
1.0
 70
     8
 71
     3
 72
    10
 73
     6
 74
     0
 42
0.00000001
 43
0.00000001
 12
1.0
 22
0.0
 32
0.0
 13
1.0
 23
0.0
 33
0.0
 40
0.0
 40
0.0
 40
0.0
 40
0.0
 40
0.5
 40
0.5
 40
1.0
 40
1.0
 40
1.0
 40
1.0
 10
154.0540338571772
 20
103.6409419917156
 30
0.0
 10
153.9822540692537
 20
103.5101632748138
 30
0.0
 10
153.9297945549457
 20
103.3760631253106
 30
0.0
 10
153.8404514908445
 20
103.1079705623218
 30
0.0
 10
153.8044558813448
 20
102.973725190733
 30
0.0
 10
153.7735745417467
 20
102.8403708132579
 30
0.0
  0
SPLINE
  5
118
330
1F
100
AcDbEntity
  8
0
  6
HIDDEN
 62
     7
370
     0
100
AcDbSpline
210
0.0
220
0.0
230
1.0
 70
     8
 71
     3
 72
    10
 73
     6
 74
     0
 42
0.00000001
 43
0.00000001
 12
1.0
 22
0.0
 32
0.0
 13
1.0
 23
0.0
 33
0.0
 40
0.0
 40
0.0
 40
0.0
 40
0.0
 40
0.5
 40
0.5
 40
1.0
 40
1.0
 40
1.0
 40
1.0
 10
153.7735745417467
 20
98.6385076687855
 30
0.0
 10
153.8044475735589
 20
98.62222452141837
 30
0.0
 10
153.8404344364719
 20
98.60996693169278
 30
0.0
 10
153.929769022363
 20
98.59286394286407
 30
0.0
 10
153.9822248817856
 20
98.5880643470057
 30
0.0
 10
154.0540338571779
 20
98.58626025559778
 30
0.0
  0
SPLINE
  5
119
330
1F
100
AcDbEntity
  8
0
  6
HIDDEN
 62
     7
370
     0
100
AcDbSpline
210
0.0
220
0.0
230
1.0
 70
     8
 71
     3
 72
     8
 73
     4
 74
     0
 42
0.00000001
 43
0.00000001
 12
1.0
 22
0.0
 32
0.0
 13
1.0
 23
0.0
 33
0.0
 40
0.0
 40
0.0
 40
0.0
 40
0.0
 40
1.0
 40
1.0
 40
1.0
 40
1.0
 10
154.8771982619314
 20
98.46037587735069
 30
0.0
 10
154.8911850704734
 20
98.43213548676898
 30
0.0
 10
154.8948948853061
 20
98.40900344395823
 30
0.0
 10
154.8948948853064
 20
98.38866307112308
 30
0.0
  0
LINE
  5
11A
330
1F
100
AcDbEntity
  8
0
  6
HIDDEN
 62
     7
370
     0
100
AcDbLine
 10
154.8948948853
 20
98.0955972579
 30
0.0
 11
154.8948948853
 21
98.3886630711
 31
0.0
  0
LINE
  5
11B
330
1F
100
AcDbEntity
  8
0
  6
HIDDEN
 62
     7
370
     0
100
AcDbLine
 10
154.8948948853
 20
133.4821720025
 30
0.0
 11
154.8948948853
 21
133.7752378157
 31
0.0
  0
SPLINE
  5
11C
330
1F
100
AcDbEntity
  8
0
  6
HIDDEN
 62
     7
370
     0
100
AcDbSpline
210
0.0
220
0.0
230
1.0
 70
     8
 71
     3
 72
    10
 73
     6
 74
     0
 42
0.00000001
 43
0.00000001
 12
1.0
 22
0.0
 32
0.0
 13
1.0
 23
0.0
 33
0.0
 40
0.0
 40
0.0
 40
0.0
 40
0.0
 40
0.5
 40
0.5
 40
1.0
 40
1.0
 40
1.0
 40
1.0
 10
154.0540338571787
 20
133.2845748179829
 30
0.0
 10
153.9822248817861
 20
133.282770726575
 30
0.0
 10
153.9297690223634
 20
133.2779711307167
 30
0.0
 10
153.840434436472
 20
133.2608681418879
 30
0.0
 10
153.804447573559
 20
133.2486105521623
 30
0.0
 10
153.7735745417467
 20
133.2323274047951
 30
0.0
  0
SPLINE
  5
11D
330
1F
100
AcDbEntity
  8
0
  6
HIDDEN
 62
     7
370
     0
100
AcDbSpline
210
0.0
220
0.0
230
1.0
 70
     8
 71
     3
 72
    10
 73
     6
 74
     0
 42
0.00000001
 43
0.00000001
 12
1.0
 22
0.0
 32
0.0
 13
1.0
 23
0.0
 33
0.0
 40
0.0
 40
0.0
 40
0.0
 40
0.0
 40
0.5
 40
0.5
 40
1.0
 40
1.0
 40
1.0
 40
1.0
 10
153.7735745417467
 20
129.0304642603228
 30
0.0
 10
153.8044558813448
 20
128.8971098828475
 30
0.0
 10
153.8404514908447
 20
128.7628645112584
 30
0.0
 10
153.929794554946
 20
128.4947719482692
 30
0.0
 10
153.9822540692542
 20
128.3606717987658
 30
0.0
 10
154.0540338571779
 20
128.2298930818637
 30
0.0
  0
LINE
  5
11E
330
1F
100
AcDbEntity
  8
0
  6
HIDDEN
 62
     7
370
     0
100
AcDbLine
 10
154.8948948853
 20
98.3886630711
 30
0.0
 11
154.8948948853
 21
109.9509373042
 31
0.0
  0
LINE
  5
11F
330
1F
100
AcDbEntity
  8
0
  6
HIDDEN
 62
     7
370
     0
100
AcDbLine
 10
154.8948948853
 20
121.9198977694
 30
0.0
 11
154.8948948853
 21
133.4821720025
 31
0.0
  0
SPLINE
  5
120
330
1F
100
AcDbEntity
  8
0
  6
HIDDEN
 62
     7
370
     0
100
AcDbSpline
210
0.0
220
0.0
230
1.0
 70
     8
 71
     3
 72
    66
 73
    62
 74
     0
 42
0.00000001
 43
0.00000001
 12
1.0
 22
0.0
 32
0.0
 13
1.0
 23
0.0
 33
0.0
 40
-0.0312499999999996
 40
-0.0312499999999996
 40
0.0
 40
0.0
 40
0.0312499999999994
 40
0.0312499999999994
 40
0.0624999999999988
 40
0.0624999999999988
 40
0.0937499999999982
 40
0.0937499999999982
 40
0.1249999999999976
 40
0.1249999999999976
 40
0.1562499999999971
 40
0.1562499999999971
 40
0.1874999999999964
 40
0.1874999999999964
 40
0.2187499999999959
 40
0.2187499999999959
 40
0.2499999999999953
 40
0.2499999999999953
 40
0.2812499999999947
 40
0.2812499999999947
 40
0.3124999999999941
 40
0.3124999999999941
 40
0.3437499999999935
 40
0.3437499999999935
 40
0.3749999999999929
 40
0.3749999999999929
 40
0.4062499999999923
 40
0.4062499999999923
 40
0.4374999999999917
 40
0.4374999999999917
 40
0.4687499999999912
 40
0.4687499999999912
 40
0.4999999999999906
 40
0.4999999999999906
 40
0.562499999999992
 40
0.562499999999992
 40
0.5937499999999928
 40
0.5937499999999928
 40
0.6249999999999936
 40
0.6249999999999936
 40
0.6562499999999942
 40
0.6562499999999942
 40
0.687499999999995
 40
0.687499999999995
 40
0.7187499999999958
 40
0.7187499999999958
 40
0.7499999999999964
 40
0.7499999999999964
 40
0.7812499999999972
 40
0.7812499999999972
 40
0.812499999999998
 40
0.812499999999998
 40
0.8437499999999988
 40
0.8437499999999988
 40
0.8749999999999994
 40
0.8749999999999994
 40
0.937500000000001
 40
0.937500000000001
 40
0.9687500000000004
 40
0.9687500000000004
 40
1.0
 40
1.0
 40
1.031249999999999
 40
1.031249999999999
 10
225.2603286330277
 20
113.4295147428059
 30
0.0
 10
224.929461137585
 20
113.4295147428059
 30
0.0
 10
224.7668433898576
 20
113.4132495887316
 30
0.0
 10
224.4469935311225
 20
113.3496585829243
 30
0.0
 10
224.2880850392658
 20
113.3015441504345
 30
0.0
 10
223.9854619899403
 20
113.1764631362144
 30
0.0
 10
223.8419719364145
 20
113.1000707494095
 30
0.0
 10
223.5704119610643
 20
112.9201952866153
 30
0.0
 10
223.4420344045046
 20
112.8159166738185
 30
0.0
 10
223.2118272880067
 20
112.5890188793961
 30
0.0
 10
223.1084326440947
 20
112.4655532964426
 30
0.0
 10
222.925662676979
 20
112.1983787234868
 30
0.0
 10
222.8481544528036
 20
112.0570010061124
 30
0.0
 10
222.7233868790028
 20
111.765439264396
 30
0.0
 10
222.6752510992748
 20
111.613096195517
 30
0.0
 10
222.6109294643827
 20
111.3030303184295
 30
0.0
 10
222.5949881835434
 20
111.1478266515326
 30
0.0
 10
222.5948023958827
 20
110.8371694121821
 30
0.0
 10
222.6110904076697
 20
110.6801579081465
 30
0.0
 10
222.6749743020989
 20
110.378066433253
 30
0.0
 10
222.7222387348669
 20
110.2319561074118
 30
0.0
 10
222.8476468456919
 20
109.9494014635683
 30
0.0
 10
222.9258136484516
 20
109.8139022411639
 30
0.0
 10
223.1066212819676
 20
109.563833460523
 30
0.0
 10
223.2101577592935
 20
109.4474648121924
 30
0.0
 10
223.4429909657335
 20
109.2338893282745
 30
0.0
 10
223.568961300526
 20
109.1396269781106
 30
0.0
 10
223.8394165159688
 20
108.9747666409998
 30
0.0
 10
223.9856777683537
 20
108.9036008791075
 30
0.0
 10
224.2881198591514
 20
108.7899238595558
 30
0.0
 10
224.443939339775
 20
108.7470902707861
 30
0.0
 10
224.7647901009754
 20
108.6891058026115
 30
0.0
 10
224.9306508565701
 20
108.6742894064806
 30
0.0
 10
225.42047689001
 20
108.6741181789606
 30
0.0
 10
225.7499191460366
 20
108.7331658806242
 30
0.0
 10
226.2013770595734
 20
108.9024344857871
 30
0.0
 10
226.3470964379126
 20
108.9729541705063
 30
0.0
 10
226.6199194727947
 20
109.1388907354026
 30
0.0
 10
226.7456646943398
 20
109.2331216676834
 30
0.0
 10
226.9763306430682
 20
109.4441690502145
 30
0.0
 10
227.0819013499708
 20
109.5622768003279
 30
0.0
 10
227.2632867375719
 20
109.8127550043408
 30
0.0
 10
227.3402321374211
 20
109.9457993804636
 30
0.0
 10
227.4661919036942
 20
110.2282088512742
 30
0.0
 10
227.5144040204793
 20
110.376763630502
 30
0.0
 10
227.5783229691386
 20
110.677743088146
 30
0.0
 10
227.5947568564878
 20
110.8320406966051
 30
0.0
 10
227.5950311910948
 20
111.1463028623902
 30
0.0
 10
227.5789475851647
 20
111.3016965682493
 30
0.0
 10
227.5155616988117
 20
111.6090618452848
 30
0.0
 10
227.467435676618
 20
111.7626772561404
 30
0.0
 10
227.3422299116483
 20
112.0559555953121
 30
0.0
 10
227.2655692008903
 20
112.1958281138296
 30
0.0
 10
227.0842228022036
 20
112.4617963784207
 30
0.0
 10
226.9789857745627
 20
112.5878651655829
 30
0.0
 10
226.6340412188
 20
112.9282842405805
 30
0.0
 10
226.355645691541
 20
113.1136140571101
 30
0.0
 10
225.9047293476652
 20
113.3004454384004
 30
0.0
 10
225.7467811663655
 20
113.3487005252417
 30
0.0
 10
225.4237805861485
 20
113.4132470747063
 30
0.0
 10
225.2603286330277
 20
113.4295147428059
 30
0.0
 10
224.929461137585
 20
113.4295147428059
 30
0.0
  0
CIRCLE
  5
121
330
1F
100
AcDbEntity
  8
0
  6
HIDDEN
 62
     7
370
     0
100
AcDbCircle
 10
141.0948948853
 20
115.9354175368
 30
0.0
 40
3.049999999999997
  0
SPLINE
  5
122
330
1F
100
AcDbEntity
  8
0
  6
HIDDEN
 62
     7
370
     0
100
AcDbSpline
210
0.0
220
0.0
230
1.0
 70
     8
 71
     3
 72
    62
 73
    58
 74
     0
 42
0.00000001
 43
0.00000001
 12
1.0
 22
0.0
 32
0.0
 13
1.0
 23
0.0
 33
0.0
 40
-0.0312499999999982
 40
-0.0312499999999982
 40
0.0
 40
0.0
 40
0.0312500000000027
 40
0.0312500000000027
 40
0.0625000000000053
 40
0.0625000000000053
 40
0.1250000000000079
 40
0.1250000000000079
 40
0.1875000000000105
 40
0.1875000000000105
 40
0.2187500000000112
 40
0.2187500000000112
 40
0.2500000000000118
 40
0.2500000000000118
 40
0.2812500000000125
 40
0.2812500000000125
 40
0.3125000000000132
 40
0.3125000000000132
 40
0.3437500000000139
 40
0.3437500000000139
 40
0.3750000000000147
 40
0.3750000000000147
 40
0.4375000000000162
 40
0.4375000000000162
 40
0.4687500000000155
 40
0.4687500000000155
 40
0.5000000000000148
 40
0.5000000000000148
 40
0.5312500000000141
 40
0.5312500000000141
 40
0.5625000000000134
 40
0.5625000000000134
 40
0.5937500000000128
 40
0.5937500000000128
 40
0.6250000000000121
 40
0.6250000000000121
 40
0.6562500000000114
 40
0.6562500000000114
 40
0.6875000000000108
 40
0.6875000000000108
 40
0.7187500000000101
 40
0.7187500000000101
 40
0.7500000000000094
 40
0.7500000000000094
 40
0.7812500000000089
 40
0.7812500000000089
 40
0.8125000000000082
 40
0.8125000000000082
 40
0.875000000000007
 40
0.875000000000007
 40
0.9062500000000053
 40
0.9062500000000053
 40
0.9375000000000036
 40
0.9375000000000036
 40
0.9687500000000018
 40
0.9687500000000018
 40
1.0
 40
1.0
 40
1.031250000000003
 40
1.031250000000003
 10
225.2360931092861
 20
119.0744320618451
 30
0.0
 10
224.9536966613264
 20
119.0744320618451
 30
0.0
 10
224.8154187843126
 20
119.0635365573236
 30
0.0
 10
224.5442527131048
 20
119.0208927553048
 30
0.0
 10
224.4100493856453
 20
118.9885531419699
 30
0.0
 10
224.0309862058551
 20
118.8626924812386
 30
0.0
 10
223.8019792841613
 20
118.7383552101024
 30
0.0
 10
223.4209486651586
 20
118.4205698386295
 30
0.0
 10
223.2653255882369
 20
118.2234976962111
 30
0.0
 10
223.1062551116683
 20
117.8867813768867
 30
0.0
 10
223.0645279665249
 20
117.7650892892877
 30
0.0
 10
223.0092572653829
 20
117.5145240569957
 30
0.0
 10
222.9951773338931
 20
117.3855539584289
 30
0.0
 10
222.9946207675719
 20
117.1198802164858
 30
0.0
 10
223.0086100449925
 20
116.9833621187489
 30
0.0
 10
223.0630915642282
 20
116.7166635088285
 30
0.0
 10
223.1039420223831
 20
116.5836482203758
 30
0.0
 10
223.2105559892425
 20
116.3256871041604
 30
0.0
 10
223.2753081315155
 20
116.2025536701602
 30
0.0
 10
223.4268666734681
 20
115.9677510004799
 30
0.0
 10
223.5142047966411
 20
115.8559011926594
 30
0.0
 10
223.7999812176027
 20
115.5509859794166
 30
0.0
 10
224.0295175660685
 20
115.3808405151893
 30
0.0
 10
224.4058357020627
 20
115.2052042102866
 30
0.0
 10
224.5381686104234
 20
115.158992113585
 30
0.0
 10
224.8122012694142
 20
115.0962739438115
 30
0.0
 10
224.9502264290364
 20
115.0804233819842
 30
0.0
 10
225.2282978102551
 20
115.0795830274817
 30
0.0
 10
225.3700107489254
 20
115.0952021674304
 30
0.0
 10
225.6424330046058
 20
115.1562662288432
 30
0.0
 10
225.7742611491029
 20
115.2013200098359
 30
0.0
 10
226.0296600447074
 20
115.3192773229347
 30
0.0
 10
226.1498260478968
 20
115.3906510233292
 30
0.0
 10
226.3749974604531
 20
115.5548520457203
 30
0.0
 10
226.4811485217874
 20
115.6488957030976
 30
0.0
 10
226.6725958104896
 20
115.8522752937362
 30
0.0
 10
226.7585298244092
 20
115.9617697834391
 30
0.0
 10
226.9109421424492
 20
116.1962869672367
 30
0.0
 10
226.9771256327367
 20
116.321580003026
 30
0.0
 10
227.0833073312877
 20
116.5765504552175
 30
0.0
 10
227.1242873945036
 20
116.7075601890144
 30
0.0
 10
227.1803675353009
 20
116.9768402888752
 30
0.0
 10
227.1945917107422
 20
117.1121504839282
 30
0.0
 10
227.1951883946137
 20
117.3767581265571
 30
0.0
 10
227.1814198271153
 20
117.5087036121596
 30
0.0
 10
227.1265697601732
 20
117.76088752982
 30
0.0
 10
227.0860732468967
 20
117.8803885938444
 30
0.0
 10
226.9266107757206
 20
118.2209246888931
 30
0.0
 10
226.7719423514065
 20
118.4176533778356
 30
0.0
 10
226.4836343200618
 20
118.6585998429973
 30
0.0
 10
226.379609504714
 20
118.7289115913778
 30
0.0
 10
226.1551902465352
 20
118.8515790990956
 30
0.0
 10
226.0332594586747
 20
118.9043177697167
 30
0.0
 10
225.7808023072487
 20
118.988259338282
 30
0.0
 10
225.6499157773315
 20
119.0199844387488
 30
0.0
 10
225.3779748596187
 20
119.0631831699331
 30
0.0
 10
225.2360931092861
 20
119.0744320618451
 30
0.0
 10
224.9536966613264
 20
119.0744320618451
 30
0.0
  0
SPLINE
  5
123
330
1F
100
AcDbEntity
  8
0
  6
HIDDEN
 62
     7
370
     0
100
AcDbSpline
210
0.0
220
0.0
230
1.0
 70
     8
 71
     3
 72
    56
 73
    52
 74
     0
 42
0.00000001
 43
0.00000001
 12
1.0
 22
0.0
 32
0.0
 13
1.0
 23
0.0
 33
0.0
 40
0.0
 40
0.0
 40
0.0
 40
0.0
 40
0.0625000000000031
 40
0.0625000000000031
 40
0.1250000000000061
 40
0.1250000000000061
 40
0.1562500000000078
 40
0.1562500000000078
 40
0.1718750000000085
 40
0.1718750000000085
 40
0.1875000000000091
 40
0.1875000000000091
 40
0.2187500000000105
 40
0.2187500000000105
 40
0.2500000000000118
 40
0.2500000000000118
 40
0.3125000000000119
 40
0.3125000000000119
 40
0.3750000000000119
 40
0.3750000000000119
 40
0.4062500000000119
 40
0.4062500000000119
 40
0.4375000000000119
 40
0.4375000000000119
 40
0.4687500000000119
 40
0.4687500000000119
 40
0.5000000000000119
 40
0.5000000000000119
 40
0.5312500000000119
 40
0.5312500000000119
 40
0.5625000000000119
 40
0.5625000000000119
 40
0.6250000000000112
 40
0.6250000000000112
 40
0.6875000000000107
 40
0.6875000000000107
 40
0.75000000000001
 40
0.75000000000001
 40
0.7812500000000089
 40
0.7812500000000089
 40
0.8125000000000078
 40
0.8125000000000078
 40
0.8437500000000067
 40
0.8437500000000067
 40
0.8750000000000056
 40
0.8750000000000056
 40
0.9062500000000044
 40
0.9062500000000044
 40
0.9375000000000032
 40
0.9375000000000032
 40
1.0
 40
1.0
 40
1.0
 40
1.0
 10
225.9847635394559
 20
121.7616804052704
 30
0.0
 10
225.7991110680872
 20
121.8063451369628
 30
0.0
 10
225.6166480352161
 20
121.8144510735931
 30
0.0
 10
225.2605620890042
 20
121.7777378905092
 30
0.0
 10
225.084751027465
 20
121.731450232218
 30
0.0
 10
224.8528950738686
 20
121.6310578562262
 30
0.0
 10
224.7797544248724
 20
121.5919531135896
 30
0.0
 10
224.6930697033445
 20
121.5292046148169
 30
0.0
 10
224.6680084590493
 20
121.5074231506891
 30
0.0
 10
224.6335733850907
 20
121.4654268694174
 30
0.0
 10
224.6242974237641
 20
121.4447988694298
 30
0.0
 10
224.6279879465752
 20
121.390835575946
 30
0.0
 10
224.6713169043126
 20
121.3652415473959
 30
0.0
 10
224.7839791640097
 20
121.3202195623848
 30
0.0
 10
224.8534839798411
 20
121.2997028607189
 30
0.0
 10
225.0727324566174
 20
121.2314957675374
 30
0.0
 10
225.2372583807471
 20
121.1766672965583
 30
0.0
 10
225.5800305387701
 20
121.028321859433
 30
0.0
 10
225.7552488044889
 20
120.9375594363139
 30
0.0
 10
226.0215423870679
 20
120.7660019336514
 30
0.0
 10
226.1117892798938
 20
120.7021396012073
 30
0.0
 10
226.2879821555644
 20
120.5634955274433
 30
0.0
 10
226.3741070758782
 20
120.4887492891076
 30
0.0
 10
226.5415167920633
 20
120.3262428874308
 30
0.0
 10
226.6225370184103
 20
120.2384253932019
 30
0.0
 10
226.7703378037678
 20
120.0569952482568
 30
0.0
 10
226.8382241049626
 20
119.9623999242476
 30
0.0
 10
226.9602997967687
 20
119.7643737514914
 30
0.0
 10
227.0115744546385
 20
119.6656255728192
 30
0.0
 10
227.0956710930014
 20
119.4691054929222
 30
0.0
 10
227.1284685958527
 20
119.3706484737635
 30
0.0
 10
227.196805608282
 20
119.0905691375829
 30
0.0
 10
227.2041513259256
 20
118.9188195900852
 30
0.0
 10
227.1652837907831
 20
118.6233553646847
 30
0.0
 10
227.1188523111712
 20
118.4957103235031
 30
0.0
 10
226.9967827655375
 20
118.2888346931888
 30
0.0
 10
226.918934499403
 20
118.2058511179943
 30
0.0
 10
226.8007374000766
 20
118.1256405805324
 30
0.0
 10
226.7609915837249
 20
118.1063019319776
 30
0.0
 10
226.6938787152603
 20
118.0926303042708
 30
0.0
 10
226.6665407748434
 20
118.098794501125
 30
0.0
 10
226.6513026315487
 20
118.1551826506463
 30
0.0
 10
226.6654971197985
 20
118.206739942391
 30
0.0
 10
226.7216855303976
 20
118.3378105698086
 30
0.0
 10
226.7608534621929
 20
118.4151078369922
 30
0.0
 10
226.8414052280946
 20
118.5809021734478
 30
0.0
 10
226.8836259980777
 20
118.6706863053707
 30
0.0
 10
226.9627730375773
 20
118.8568007173678
 30
0.0
 10
227.0001316234836
 20
118.953721104129
 30
0.0
 10
227.1008476394495
 20
119.2559681208666
 30
0.0
 10
227.1534346688083
 20
119.4750069614837
 30
0.0
 10
227.1785847192861
 20
119.7042020471443
 30
0.0
  0
LWPOLYLINE
  5
124
330
1F
100
AcDbEntity
  8
0
  6
HIDDEN
 62
     7
370
     0
100
AcDbPolyline
 90
       19
 70
   128
 43
0.0
 10
227.1785847193
 20
119.7042020471
 10
227.0259231041
 20
119.1677258003
 10
226.7237285747
 20
118.6920307874
 10
226.2954021504
 20
118.3139533742
 10
225.7741121183
 20
118.0627707181
 10
225.2002255828
 20
117.9579336352
 10
224.6181825605
 20
118.0075603883
 10
224.0730546815
 20
118.2078080335
 10
223.6070549798
 20
118.5431700062
 10
223.2562690461
 20
118.9876769017
 10
223.0478606691
 20
119.5069074668
 10
222.9979683558
 20
120.0606540758
 10
223.110455614
 20
120.6060362865
 10
223.3766117749
 20
121.1008213698
 10
223.77582652
 20
121.5066946836
 10
224.2771858816
 20
121.7922266409
 10
224.8418661254
 20
121.9353065207
 10
225.4261401418
 20
121.9248546554
 10
225.9847635395
 20
121.7616804053
  0
SPLINE
  5
125
330
1F
100
AcDbEntity
  8
0
  6
HIDDEN
 62
     7
370
     0
100
AcDbSpline
210
0.0
220
0.0
230
1.0
 70
     8
 71
     3
 72
    26
 73
    22
 74
     0
 42
0.00000001
 43
0.00000001
 12
1.0
 22
0.0
 32
0.0
 13
1.0
 23
0.0
 33
0.0
 40
0.0
 40
0.0
 40
0.0
 40
0.0
 40
0.1250000000000035
 40
0.1250000000000035
 40
0.250000000000007
 40
0.250000000000007
 40
0.3125000000000087
 40
0.3125000000000087
 40
0.3750000000000102
 40
0.3750000000000102
 40
0.5000000000000058
 40
0.5000000000000058
 40
0.6250000000000014
 40
0.6250000000000014
 40
0.6875000000000008
 40
0.6875000000000008
 40
0.75
 40
0.75
 40
0.875
 40
0.875
 40
1.0
 40
1.0
 40
1.0
 40
1.0
 10
227.1785847192861
 20
119.7042020471443
 30
0.0
 10
227.0420471779507
 20
119.7090814822106
 30
0.0
 10
226.9055814560983
 20
119.7201533204722
 30
0.0
 10
226.6332413020689
 20
119.7661776116886
 30
0.0
 10
226.4967718806402
 20
119.8008242324846
 30
0.0
 10
226.3042829571569
 20
119.89176895872
 30
0.0
 10
226.2422288633668
 20
119.9291929185902
 30
0.0
 10
226.1294079937387
 20
120.0178406014851
 30
0.0
 10
226.0773845675441
 20
120.0703174404567
 30
0.0
 10
225.9388250889193
 20
120.2378647081024
 30
0.0
 10
225.8642262291793
 20
120.3625463633425
 30
0.0
 10
225.7188829513105
 20
120.5998047689101
 30
0.0
 10
225.6469170147589
 20
120.7126513755146
 30
0.0
 10
225.5769635483629
 20
120.8904298925003
 30
0.0
 10
225.5621524676675
 20
120.9499320091163
 30
0.0
 10
225.5556405363398
 20
121.0674978004485
 30
0.0
 10
225.5639043477067
 20
121.1263345624892
 30
0.0
 10
225.6130243820095
 20
121.2934438634687
 30
0.0
 10
225.6757678664927
 20
121.3962125999426
 30
0.0
 10
225.8174594562312
 20
121.5865142266521
 30
0.0
 10
225.8984957025629
 20
121.6757252934023
 30
0.0
 10
225.984763539456
 20
121.7616804052706
 30
0.0
  0
LINE
  5
126
330
1F
100
AcDbEntity
  8
0
  6
HIDDEN
 62
     7
370
     0
100
AcDbLine
 10
130.1229347409
 20
126.7240926714
 30
0.0
 11
130.1229347409
 21
105.1467424022
 31
0.0
  0
LINE
  5
127
330
1F
100
AcDbEntity
  8
0
  6
HIDDEN
 62
     7
370
     0
100
AcDbLine
 10
126.1229347409
 20
127.1052905179
 30
0.0
 11
126.1229347409
 21
104.7655445557
 31
0.0
  0
LINE
  5
128
330
1F
100
AcDbEntity
  8
0
  6
HIDDEN
 62
     7
370
     0
100
AcDbLine
 10
125.0948948853
 20
104.1720054683
 30
0.0
 11
125.0948948853
 21
127.6781698983
 31
0.0
  0
LINE
  5
129
330
1F
100
AcDbEntity
  8
0
  6
HIDDEN
 62
     7
370
     0
100
AcDbLine
 10
134.7229347409
 20
126.4354175368
 30
0.0
 11
134.7229347409
 21
105.4354175368
 31
0.0
  0
LINE
  5
12A
330
1F
100
AcDbEntity
  8
0
  6
HIDDEN
 62
     7
370
     0
100
AcDbLine
 10
128.6229347409
 20
126.4354175368
 30
0.0
 11
128.6229347409
 21
105.4354175368
 31
0.0
  0
LINE
  5
12B
330
1F
100
AcDbEntity
  8
0
  6
HIDDEN
 62
     7
370
     0
100
AcDbLine
 10
129.6229347409
 20
126.4354175368
 30
0.0
 11
129.6229347409
 21
105.4354175368
 31
0.0
  0
SPLINE
  5
12C
330
1F
100
AcDbEntity
  8
0
  6
HIDDEN
 62
     7
370
     0
100
AcDbSpline
210
0.0
220
0.0
230
1.0
 70
     8
 71
     3
 72
    66
 73
    62
 74
     0
 42
0.00000001
 43
0.00000001
 12
1.0
 22
0.0
 32
0.0
 13
1.0
 23
0.0
 33
0.0
 40
-0.0312500000000007
 40
-0.0312500000000007
 40
0.0
 40
0.0
 40
0.0312499999999998
 40
0.0312499999999998
 40
0.0624999999999996
 40
0.0624999999999996
 40
0.0937499999999994
 40
0.0937499999999994
 40
0.1249999999999992
 40
0.1249999999999992
 40
0.1874999999999988
 40
0.1874999999999988
 40
0.2187499999999987
 40
0.2187499999999987
 40
0.2499999999999986
 40
0.2499999999999986
 40
0.2812499999999984
 40
0.2812499999999984
 40
0.3124999999999983
 40
0.3124999999999983
 40
0.3437499999999981
 40
0.3437499999999981
 40
0.374999999999998
 40
0.374999999999998
 40
0.4062499999999978
 40
0.4062499999999978
 40
0.4374999999999977
 40
0.4374999999999977
 40
0.4687499999999976
 40
0.4687499999999976
 40
0.4999999999999974
 40
0.4999999999999974
 40
0.5312499999999973
 40
0.5312499999999973
 40
0.5624999999999971
 40
0.5624999999999971
 40
0.593749999999997
 40
0.593749999999997
 40
0.624999999999997
 40
0.624999999999997
 40
0.656249999999997
 40
0.656249999999997
 40
0.687499999999997
 40
0.687499999999997
 40
0.7187499999999971
 40
0.7187499999999971
 40
0.7499999999999971
 40
0.7499999999999971
 40
0.7812499999999972
 40
0.7812499999999972
 40
0.8124999999999973
 40
0.8124999999999973
 40
0.8749999999999978
 40
0.8749999999999978
 40
0.9062499999999981
 40
0.9062499999999981
 40
0.9374999999999987
 40
0.9374999999999987
 40
0.9687499999999993
 40
0.9687499999999993
 40
1.0
 40
1.0
 40
1.03125
 40
1.03125
 10
140.8922162383585
 20
118.9854175367903
 30
0.0
 10
141.2975735322541
 20
118.9854175367903
 30
0.0
 10
141.4966334235899
 20
118.9654179771737
 30
0.0
 10
141.8878874081697
 20
118.8872744744736
 30
0.0
 10
142.0821601669173
 20
118.8281133729528
 30
0.0
 10
142.4509235934686
 20
118.6746816860585
 30
0.0
 10
142.6256487518469
 20
118.5809548762163
 30
0.0
 10
142.9563260553807
 20
118.3597007738114
 30
0.0
 10
143.1119735993835
 20
118.2317194068168
 30
0.0
 10
143.5314409690521
 20
117.8121643098168
 30
0.0
 10
143.7583291105825
 20
117.4736857511134
 30
0.0
 10
143.9871257339672
 20
116.9238068633952
 30
0.0
 10
144.0463179888161
 20
116.7304070176518
 30
0.0
 10
144.1251253990766
 20
116.3361788672939
 30
0.0
 10
144.144764815357
 20
116.1375400398615
 30
0.0
 10
144.1450236797786
 20
115.7372397539631
 30
0.0
 10
144.1249529951456
 20
115.533900427242
 30
0.0
 10
144.0466153125157
 20
115.1418089066344
 30
0.0
 10
143.9886655444772
 20
114.9511030383192
 30
0.0
 10
143.8347224025972
 20
114.5803792217326
 30
0.0
 10
143.7397837888745
 20
114.4036525619238
 30
0.0
 10
143.5194263729974
 20
114.0743994509994
 30
0.0
 10
143.3921463470691
 20
113.919278227403
 30
0.0
 10
143.1103907557386
 20
113.6376015324726
 30
0.0
 10
142.9576024262811
 20
113.5121683475682
 30
0.0
 10
142.6281753441241
 20
113.2913927542141
 30
0.0
 10
142.4496293409725
 20
113.1955615015139
 30
0.0
 10
142.0820570154223
 20
113.0427323710188
 30
0.0
 10
141.8919029887113
 20
112.9845606130746
 30
0.0
 10
141.4983625660088
 20
112.9055673207297
 30
0.0
 10
141.2959284947476
 20
112.8855041950875
 30
0.0
 10
140.8964994193823
 20
112.8853314489687
 30
0.0
 10
140.6964804408264
 20
112.904814823058
 30
0.0
 10
140.300364493377
 20
112.9838063946592
 30
0.0
 10
140.1096316651851
 20
113.0420866145112
 30
0.0
 10
139.7420002246054
 20
113.1946542351192
 30
0.0
 10
139.5635137924376
 20
113.2902630218925
 30
0.0
 10
139.2333085334736
 20
113.5112750669775
 30
0.0
 10
139.0804199554117
 20
113.6367249657477
 30
0.0
 10
138.7988235608736
 20
113.917955454753
 30
0.0
 10
138.6711926379981
 20
114.0733383326669
 30
0.0
 10
138.4508672029983
 20
114.4021891907098
 30
0.0
 10
138.3566407460329
 20
114.5770772971239
 30
0.0
 10
138.2017062254299
 20
114.9492211484846
 30
0.0
 10
138.1436939398276
 20
115.1400271902936
 30
0.0
 10
138.0652746855494
 20
115.5309002082123
 30
0.0
 10
138.0449606055829
 20
115.7333577695946
 30
0.0
 10
138.0448294892789
 20
116.135488374514
 30
0.0
 10
138.0644541826383
 20
116.3342124196892
 30
0.0
 10
138.1426206330519
 20
116.7270518908258
 30
0.0
 10
138.2019080783918
 20
116.9216961682284
 30
0.0
 10
138.4309889214747
 20
117.4731359216426
 30
0.0
 10
138.6578197723689
 20
117.8114754873418
 30
0.0
 10
139.0771584736896
 20
118.2311411499933
 30
0.0
 10
139.2325114694395
 20
118.3589871557666
 30
0.0
 10
139.5634793025767
 20
118.5805882304684
 30
0.0
 10
139.7380406027731
 20
118.6742289644453
 30
0.0
 10
140.1056139103479
 20
118.8273830851445
 30
0.0
 10
140.300300771986
 20
118.8868868307906
 30
0.0
 10
140.6927767219224
 20
118.9654095798535
 30
0.0
 10
140.8922162383585
 20
118.9854175367903
 30
0.0
 10
141.2975735322541
 20
118.9854175367903
 30
0.0
  0
SPLINE
  5
12D
330
1F
100
AcDbEntity
  8
0
  6
HIDDEN
 62
     7
370
     0
100
AcDbSpline
210
0.0
220
0.0
230
1.0
 70
     8
 71
     3
 72
    66
 73
    62
 74
     0
 42
0.00000001
 43
0.00000001
 12
1.0
 22
0.0
 32
0.0
 13
1.0
 23
0.0
 33
0.0
 40
-0.03125
 40
-0.03125
 40
0.0
 40
0.0
 40
0.0312499999999999
 40
0.0312499999999999
 40
0.0624999999999998
 40
0.0624999999999998
 40
0.0937499999999998
 40
0.0937499999999998
 40
0.1249999999999997
 40
0.1249999999999997
 40
0.1874999999999996
 40
0.1874999999999996
 40
0.2187499999999996
 40
0.2187499999999996
 40
0.2499999999999996
 40
0.2499999999999996
 40
0.2812499999999996
 40
0.2812499999999996
 40
0.3124999999999996
 40
0.3124999999999996
 40
0.3437499999999996
 40
0.3437499999999996
 40
0.3749999999999995
 40
0.3749999999999995
 40
0.4062499999999995
 40
0.4062499999999995
 40
0.4374999999999995
 40
0.4374999999999995
 40
0.4687499999999994
 40
0.4687499999999994
 40
0.4999999999999994
 40
0.4999999999999994
 40
0.5312499999999994
 40
0.5312499999999994
 40
0.5624999999999996
 40
0.5624999999999996
 40
0.5937499999999996
 40
0.5937499999999996
 40
0.6249999999999996
 40
0.6249999999999996
 40
0.6562499999999997
 40
0.6562499999999997
 40
0.6874999999999997
 40
0.6874999999999997
 40
0.7187499999999997
 40
0.7187499999999997
 40
0.7499999999999997
 40
0.7499999999999997
 40
0.7812499999999998
 40
0.7812499999999998
 40
0.8124999999999998
 40
0.8124999999999998
 40
0.8749999999999999
 40
0.8749999999999999
 40
0.9062499999999999
 40
0.9062499999999999
 40
0.9374999999999999
 40
0.9374999999999999
 40
0.96875
 40
0.96875
 40
1.0
 40
1.0
 40
1.03125
 40
1.03125
 10
141.2975735322541
 20
118.9854175367903
 30
0.0
 10
140.8922162383585
 20
118.9854175367903
 30
0.0
 10
140.6931563470226
 20
118.9654179771737
 30
0.0
 10
140.3019023624429
 20
118.8872744744736
 30
0.0
 10
140.1076296036953
 20
118.8281133729528
 30
0.0
 10
139.738866177144
 20
118.6746816860585
 30
0.0
 10
139.5641410187657
 20
118.5809548762163
 30
0.0
 10
139.2334637152319
 20
118.3597007738114
 30
0.0
 10
139.0778161712291
 20
118.2317194068168
 30
0.0
 10
138.6583488015604
 20
117.8121643098168
 30
0.0
 10
138.4314606600302
 20
117.4736857511134
 30
0.0
 10
138.2026640366454
 20
116.9238068633952
 30
0.0
 10
138.1434717817965
 20
116.7304070176518
 30
0.0
 10
138.064664371536
 20
116.3361788672939
 30
0.0
 10
138.0450249552556
 20
116.1375400398615
 30
0.0
 10
138.044766090834
 20
115.7372397539631
 30
0.0
 10
138.064836775467
 20
115.533900427242
 30
0.0
 10
138.1431744580969
 20
115.1418089066344
 30
0.0
 10
138.2011242261353
 20
114.9511030383192
 30
0.0
 10
138.3550673680154
 20
114.5803792217326
 30
0.0
 10
138.450005981738
 20
114.4036525619238
 30
0.0
 10
138.6703633976152
 20
114.0743994509994
 30
0.0
 10
138.7976434235435
 20
113.919278227403
 30
0.0
 10
139.079399014874
 20
113.6376015324726
 30
0.0
 10
139.2321873443315
 20
113.5121683475682
 30
0.0
 10
139.5616144264885
 20
113.2913927542141
 30
0.0
 10
139.7401604296402
 20
113.1955615015139
 30
0.0
 10
140.1077327551903
 20
113.0427323710188
 30
0.0
 10
140.2978867819013
 20
112.9845606130746
 30
0.0
 10
140.6914272046038
 20
112.9055673207297
 30
0.0
 10
140.893861275865
 20
112.8855041950875
 30
0.0
 10
141.2932903512303
 20
112.8853314489687
 30
0.0
 10
141.4933093297862
 20
112.904814823058
 30
0.0
 10
141.8894252772356
 20
112.9838063946592
 30
0.0
 10
142.0801581054274
 20
113.0420866145112
 30
0.0
 10
142.4477895460072
 20
113.1946542351192
 30
0.0
 10
142.626275978175
 20
113.2902630218925
 30
0.0
 10
142.956481237139
 20
113.5112750669775
 30
0.0
 10
143.1093698152009
 20
113.6367249657477
 30
0.0
 10
143.390966209739
 20
113.917955454753
 30
0.0
 10
143.5185971326145
 20
114.0733383326669
 30
0.0
 10
143.7389225676143
 20
114.4021891907098
 30
0.0
 10
143.8331490245797
 20
114.5770772971238
 30
0.0
 10
143.9880835451828
 20
114.9492211484846
 30
0.0
 10
144.046095830785
 20
115.1400271902936
 30
0.0
 10
144.1245150850631
 20
115.5309002082123
 30
0.0
 10
144.1448291650297
 20
115.7333577695946
 30
0.0
 10
144.1449602813337
 20
116.135488374514
 30
0.0
 10
144.1253355879743
 20
116.3342124196892
 30
0.0
 10
144.0471691375607
 20
116.7270518908258
 30
0.0
 10
143.9878816922208
 20
116.9216961682284
 30
0.0
 10
143.7588008491379
 20
117.4731359216426
 30
0.0
 10
143.5319699982437
 20
117.8114754873418
 30
0.0
 10
143.112631296923
 20
118.2311411499933
 30
0.0
 10
142.9572783011731
 20
118.3589871557665
 30
0.0
 10
142.6263104680359
 20
118.5805882304684
 30
0.0
 10
142.4517491678395
 20
118.6742289644453
 30
0.0
 10
142.0841758602647
 20
118.8273830851445
 30
0.0
 10
141.8894889986266
 20
118.8868868307906
 30
0.0
 10
141.4970130486902
 20
118.9654095798535
 30
0.0
 10
141.2975735322541
 20
118.9854175367903
 30
0.0
 10
140.8922162383585
 20
118.9854175367903
 30
0.0
  0
LINE
  5
12E
330
1F
100
AcDbEntity
  8
0
  6
HIDDEN
 62
     7
370
     0
100
AcDbLine
 10
145.0948948853
 20
125.9354175274
 30
0.0
 11
145.0948948853
 21
105.9354175368
 31
0.0
  0
SPLINE
  5
12F
330
1F
100
AcDbEntity
  8
0
  6
HIDDEN
 62
     7
370
     0
100
AcDbSpline
210
0.0
220
0.0
230
1.0
 70
     8
 71
     3
 72
    70
 73
    66
 74
     0
 42
0.00000001
 43
0.00000001
 12
1.0
 22
0.0
 32
0.0
 13
1.0
 23
0.0
 33
0.0
 40
-0.0312500000000001
 40
-0.0312500000000001
 40
0.0
 40
0.0
 40
0.03125
 40
0.03125
 40
0.0624999999999999
 40
0.0624999999999999
 40
0.0937499999999999
 40
0.0937499999999999
 40
0.1249999999999998
 40
0.1249999999999998
 40
0.1562499999999998
 40
0.1562499999999998
 40
0.1874999999999998
 40
0.1874999999999998
 40
0.2187499999999997
 40
0.2187499999999997
 40
0.2499999999999997
 40
0.2499999999999997
 40
0.2812499999999997
 40
0.2812499999999997
 40
0.3124999999999997
 40
0.3124999999999997
 40
0.3437499999999998
 40
0.3437499999999998
 40
0.3749999999999998
 40
0.3749999999999998
 40
0.4062499999999998
 40
0.4062499999999998
 40
0.4374999999999998
 40
0.4374999999999998
 40
0.4687499999999998
 40
0.4687499999999998
 40
0.4999999999999999
 40
0.4999999999999999
 40
0.53125
 40
0.53125
 40
0.5625
 40
0.5625
 40
0.5937500000000001
 40
0.5937500000000001
 40
0.6250000000000001
 40
0.6250000000000001
 40
0.6562500000000002
 40
0.6562500000000002
 40
0.6875000000000003
 40
0.6875000000000003
 40
0.7187500000000002
 40
0.7187500000000002
 40
0.7500000000000002
 40
0.7500000000000002
 40
0.7812500000000002
 40
0.7812500000000002
 40
0.8125000000000001
 40
0.8125000000000001
 40
0.8437500000000001
 40
0.8437500000000001
 40
0.875
 40
0.875
 40
0.90625
 40
0.90625
 40
0.9375
 40
0.9375
 40
0.9687499999999999
 40
0.9687499999999999
 40
1.0
 40
1.0
 40
1.03125
 40
1.03125
 10
247.7576150925866
 20
114.1744605235314
 30
0.0
 10
247.1953395885383
 20
114.1744605235314
 30
0.0
 10
246.9189517539106
 20
114.1468232184381
 30
0.0
 10
246.3752204292264
 20
114.0390149980244
 30
0.0
 10
246.1050768109714
 20
113.9575512368692
 30
0.0
 10
245.5898107839916
 20
113.7455378003316
 30
0.0
 10
245.3453709653745
 20
113.6160530491475
 30
0.0
 10
244.8827088895279
 20
113.3109093242523
 30
0.0
 10
244.6635842582798
 20
113.1335880807901
 30
0.0
 10
244.2714967510179
 20
112.7473956412038
 30
0.0
 10
244.0958808708446
 20
112.5371743698905
 30
0.0
 10
243.7871620554833
 20
112.0818867003246
 30
0.0
 10
243.6569882482651
 20
111.8401751677186
 30
0.0
 10
243.4515212774155
 20
111.3438627047107
 30
0.0
 10
243.3744047201237
 20
111.0847779980103
 30
0.0
 10
243.277416939432
 20
110.5607592316369
 30
0.0
 10
243.2577086002884
 20
110.2998597096607
 30
0.0
 10
243.2734619255298
 20
109.7805088571823
 30
0.0
 10
243.3098707563713
 20
109.5206419112881
 30
0.0
 10
243.4340437440847
 20
109.024958939824
 30
0.0
 10
243.5215742173326
 20
108.7863677029999
 30
0.0
 10
243.7469423957774
 20
108.3267074985271
 30
0.0
 10
243.8822753705512
 20
108.1110703998093
 30
0.0
 10
244.1931833874841
 20
107.709251713423
 30
0.0
 10
244.3708993340406
 20
107.5208864907425
 30
0.0
 10
244.7607994082695
 20
107.1794124069574
 30
0.0
 10
244.9712075648532
 20
107.0271922157353
 30
0.0
 10
245.42329809091
 20
106.7580976370645
 30
0.0
 10
245.6679557906369
 20
106.6403074091108
 30
0.0
 10
246.1734218506227
 20
106.4495451639787
 30
0.0
 10
246.4346008277636
 20
106.375657850423
 30
0.0
 10
246.974813953
 20
106.271760950621
 30
0.0
 10
247.256522879024
 20
106.242176031229
 30
0.0
 10
247.8113082072466
 20
106.2325372847466
 30
0.0
 10
248.0872826847174
 20
106.2515049100907
 30
0.0
 10
248.6362865651537
 20
106.3393008617887
 30
0.0
 10
248.9048836775626
 20
106.4079670171878
 30
0.0
 10
249.4139276128921
 20
106.5897348748017
 30
0.0
 10
249.6595407981399
 20
106.7048077481191
 30
0.0
 10
250.1144973274737
 20
106.9753353118484
 30
0.0
 10
250.3232060391495
 20
107.1296050824711
 30
0.0
 10
250.7049501370778
 20
107.4765897320336
 30
0.0
 10
250.8772131361079
 20
107.6695552934122
 30
0.0
 10
251.1729717157039
 20
108.0796878231959
 30
0.0
 10
251.2986086274554
 20
108.2986192425861
 30
0.0
 10
251.5043516554118
 20
108.7663939251341
 30
0.0
 10
251.5811851410859
 20
109.00781078245
 30
0.0
 10
251.6848227499609
 20
109.5059444210479
 30
0.0
 10
251.7115307513308
 20
109.7654579970295
 30
0.0
 10
251.711022692014
 20
110.286940312408
 30
0.0
 10
251.6844496294931
 20
110.5470168398289
 30
0.0
 10
251.5786709588366
 20
111.0655196953209
 30
0.0
 10
251.4980997185523
 20
111.326120563323
 30
0.0
 10
251.288963170212
 20
111.8228940276817
 30
0.0
 10
251.1603682892759
 20
112.0614432273221
 30
0.0
 10
250.8537784251062
 20
112.5174308607974
 30
0.0
 10
250.6768014544398
 20
112.7322875180102
 30
0.0
 10
250.2878107292629
 20
113.1211443487496
 30
0.0
 10
250.0730147401291
 20
113.2983233514798
 30
0.0
 10
249.6089068330291
 20
113.609660314332
 30
0.0
 10
249.364774601371
 20
113.7407165590675
 30
0.0
 10
248.8529392276599
 20
113.9543292069528
 30
0.0
 10
248.5823735876736
 20
114.0372070334666
 30
0.0
 10
248.0351937974217
 20
114.1467794376848
 30
0.0
 10
247.7576150925866
 20
114.1744605235314
 30
0.0
 10
247.1953395885383
 20
114.1744605235314
 30
0.0
  0
ELLIPSE
  5
130
330
1F
100
AcDbEntity
  8
0
  6
HIDDEN
 62
     7
370
     0
100
AcDbEllipse
 10
257.6707696138
 20
115.9354175368
 30
0.0
 11
5.368298186719871
 21
16.49894757830377
 31
0.0
210
0.0
220
0.0
230
1.0
 40
0.0347142918
 41
1.582090910555886
 42
3.152887237351082
  0
LINE
  5
131
330
1F
100
AcDbEntity
  8
0
  6
HIDDEN
 62
     7
370
     0
100
AcDbLine
 10
239.5948948853
 20
99.4354175368
 30
0.0
 11
239.5948948853
 21
115.9354175368
 31
0.0
  0
SPLINE
  5
132
330
1F
100
AcDbEntity
  8
0
  6
HIDDEN
 62
     7
370
     0
100
AcDbSpline
210
0.0
220
0.0
230
1.0
 70
     8
 71
     3
 72
    12
 73
     8
 74
     0
 42
0.00000001
 43
0.00000001
 12
1.0
 22
0.0
 32
0.0
 13
1.0
 23
0.0
 33
0.0
 40
0.0
 40
0.0
 40
0.0
 40
0.0
 40
0.25
 40
0.25
 40
0.5
 40
0.5
 40
1.0
 40
1.0
 40
1.0
 40
1.0
 10
240.5516987164776
 20
121.6354175367904
 30
0.0
 10
240.4015168972529
 20
121.175471123244
 30
0.0
 10
240.265065608473
 20
120.7073629336272
 30
0.0
 10
240.0279843145439
 20
119.7676776827433
 30
0.0
 10
239.9270069452859
 20
119.2953289479643
 30
0.0
 10
239.6815430011698
 20
117.8700825942058
 30
0.0
 10
239.5948948853063
 20
116.9089319882527
 30
0.0
 10
239.5948948853063
 20
115.9354175367903
 30
0.0
  0
SPLINE
  5
133
330
1F
100
AcDbEntity
  8
0
  6
HIDDEN
 62
     7
370
     0
100
AcDbSpline
210
0.0
220
0.0
230
1.0
 70
     8
 71
     3
 72
    14
 73
    10
 74
     0
 42
0.00000001
 43
0.00000001
 12
1.0
 22
0.0
 32
0.0
 13
1.0
 23
0.0
 33
0.0
 40
0.0
 40
0.0
 40
0.0
 40
0.0
 40
0.4999999999999979
 40
0.4999999999999979
 40
0.6249999999999984
 40
0.6249999999999984
 40
0.749999999999999
 40
0.749999999999999
 40
1.0
 40
1.0
 40
1.0
 40
1.0
 10
240.5516987164777
 20
121.6354175367903
 30
0.0
 10
241.0111773343052
 20
123.0426154483751
 30
0.0
 10
241.451329828222
 20
124.4307251689004
 30
0.0
 10
241.9817201476669
 20
126.1404117443449
 30
0.0
 10
242.0871267689288
 20
126.4821250099136
 30
0.0
 10
242.2941609342151
 20
127.1567678734926
 30
0.0
 10
242.3957415786558
 20
127.4895287118483
 30
0.0
 10
242.6949762183867
 20
128.4742839690485
 30
0.0
 10
242.8871411184988
 20
129.1128011333307
 30
0.0
 10
243.0725440184713
 20
129.7331316143927
 30
0.0
  0
SPLINE
  5
134
330
1F
100
AcDbEntity
  8
0
  6
HIDDEN
 62
     7
370
     0
100
AcDbSpline
210
0.0
220
0.0
230
1.0
 70
     8
 71
     3
 72
    18
 73
    14
 74
     0
 42
0.00000001
 43
0.00000001
 12
1.0
 22
0.0
 32
0.0
 13
1.0
 23
0.0
 33
0.0
 40
0.0
 40
0.0
 40
0.0
 40
0.0
 40
0.0845585765348918
 40
0.1831307815884693
 40
0.2825294502025195
 40
0.3785134518456544
 40
0.4752074020444211
 40
0.5737995684961394
 40
0.6729012023660323
 40
0.7543371125135993
 40
0.8359349561910161
 40
0.9179204484034812
 40
1.0
 40
1.0
 40
1.0
 40
1.0
 10
239.9702632307981
 20
132.8040605863928
 30
0.0
 10
239.8875279165442
 20
132.715105195235
 30
0.0
 10
239.7083458230753
 20
132.5224521140598
 30
0.0
 10
239.5880232237519
 20
132.2202936197895
 30
0.0
 10
239.5915768418289
 20
131.9051337081488
 30
0.0
 10
239.7353465354146
 20
131.5933326502866
 30
0.0
 10
240.0049812000759
 20
131.286140036992
 30
0.0
 10
240.3944692932317
 20
130.981142118601
 30
0.0
 10
240.8603434206438
 20
130.6981192834296
 30
0.0
 10
241.3672110187266
 20
130.4378181950901
 30
0.0
 10
241.8919310364563
 20
130.1991070679668
 30
0.0
 10
242.4589713393968
 20
129.963832194035
 30
0.0
 10
242.8679416371461
 20
129.8100611935245
 30
0.0
 10
243.0725440184713
 20
129.7331316143927
 30
0.0
  0
LINE
  5
135
330
1F
100
AcDbEntity
  8
0
  6
HIDDEN
 62
     7
370
     0
100
AcDbLine
 10
146.0948948853
 20
123.1854175368
 30
0.0
 11
146.0948948853
 21
108.6854175368
 31
0.0
  0
LINE
  5
136
330
1F
100
AcDbEntity
  8
0
  6
HIDDEN
 62
     7
370
     0
100
AcDbLine
 10
145.0948948853
 20
107.6854175368
 30
0.0
 11
145.0948948853
 21
124.1653209514
 31
0.0
  0
LINE
  5
137
330
1F
100
AcDbEntity
  8
0
  6
HIDDEN
 62
     7
370
     0
100
AcDbLine
 10
170.0948948853
 20
123.1854175368
 30
0.0
 11
170.0948948853
 21
108.6854175368
 31
0.0
  0
LINE
  5
138
330
1F
100
AcDbEntity
  8
0
  6
HIDDEN
 62
     7
370
     0
100
AcDbLine
 10
171.8974767424
 20
120.1854175368
 30
0.0
 11
171.8974767424
 21
111.6854175368
 31
0.0
  0
LWPOLYLINE
  5
139
330
1F
100
AcDbEntity
  8
0
  6
HIDDEN
 62
     7
370
     0
100
AcDbPolyline
 90
       30
 70
   128
 43
0.0
 10
249.7671237353
 20
118.0209938729
 10
250.515398569
 20
117.9246023567
 10
251.2286849032
 20
117.6726381694
 10
251.8736302616
 20
117.2768828763
 10
252.420077716
 20
116.7558415549
 10
252.8424759909
 20
116.1338775184
 10
253.1210742122
 20
115.440073114
 10
253.2428454369
 20
114.7068698643
 10
253.2020957779
 20
113.9685515386
 10
253.0007306438
 20
113.259641081
 10
252.6481656446
 20
112.6132863568
 10
252.1608863277
 20
112.0597101944
 10
251.5616773325
 20
111.6247971999
 10
250.8785570056
 20
111.3288834217
 10
250.1434672942
 20
111.185805459
 10
249.3907801763
 20
111.2022534784
 10
248.655690465
 20
111.3774583888
 10
247.9725701381
 20
111.7032278034
 10
247.3733611429
 20
112.1643291062
 10
246.886081826
 20
112.739201713
 10
246.5335168268
 20
113.4009652195
 10
246.3321516927
 20
114.1186762996
 10
246.2914020336
 20
114.858775581
 10
246.4131732583
 20
115.5866568438
 10
246.6917714797
 20
116.2682851692
 10
247.1141697545
 20
116.8717883741
 10
247.660617209
 20
117.3689473196
 10
248.3055625673
 20
117.7365154058
 10
249.0188489015
 20
117.9573055576
 10
249.7671237353
 20
118.0209938729
  0
LWPOLYLINE
  5
13A
330
1F
100
AcDbEntity
  8
0
  6
HIDDEN
 62
     7
370
     0
100
AcDbPolyline
 90
       30
 70
   128
 43
0.0
 10
249.3407105766
 20
117.177485706
 10
250.0889854103
 20
117.0810941899
 10
250.8022717445
 20
116.8291300026
 10
251.4472171029
 20
116.4333747094
 10
251.9936645573
 20
115.9123333881
 10
252.4160628322
 20
115.2903693516
 10
252.6946610535
 20
114.5965649472
 10
252.8164322782
 20
113.8633616975
 10
252.7756826192
 20
113.1250433717
 10
252.5743174851
 20
112.4161329142
 10
252.2217524859
 20
111.76977819
 10
251.734473169
 20
111.2162020276
 10
251.1352641738
 20
110.7812890331
 10
250.4521438469
 20
110.4853752549
 10
249.7170541355
 20
110.3422972922
 10
248.9643670176
 20
110.3587453116
 10
248.2292773063
 20
110.533950222
 10
247.5461569794
 20
110.8597196366
 10
246.9469479842
 20
111.3208209394
 10
246.4596686673
 20
111.8956935462
 10
246.1071036681
 20
112.5574570527
 10
245.905738534
 20
113.2751681328
 10
245.8649888749
 20
114.0152674142
 10
245.9867600996
 20
114.743148677
 10
246.265358321
 20
115.4247770024
 10
246.6877565958
 20
116.0282802073
 10
247.2342040502
 20
116.5254391528
 10
247.8791494086
 20
116.893007239
 10
248.5924357428
 20
117.1137973908
 10
249.3407105766
 20
117.177485706
  0
ARC
  5
13B
330
1F
100
AcDbEntity
  8
0
  6
HIDDEN
 62
     7
370
     0
100
AcDbCircle
 10
244.2676151724
 20
119.3626085514
 30
0.0
 40
2.079149241825355
100
AcDbArc
 50
122.7126777105
 51
287.7260948044
  0
LINE
  5
13C
330
1F
100
AcDbEntity
  8
0
  6
HIDDEN
 62
     7
370
     0
100
AcDbLine
 10
260.2679684801
 20
123.5420671023
 30
0.0
 11
259.3042160487
 21
121.6356225426
 31
0.0
  0
LINE
  5
13D
330
1F
100
AcDbEntity
  8
0
  6
HIDDEN
 62
     7
370
     0
100
AcDbLine
 10
228.0948948853
 20
120.1854175368
 30
0.0
 11
228.0948948853
 21
111.6854175368
 31
0.0
  0
SPLINE
  5
13E
330
1F
100
AcDbEntity
  8
0
  6
HIDDEN
 62
     7
370
     0
100
AcDbSpline
210
0.0
220
0.0
230
1.0
 70
     8
 71
     3
 72
    62
 73
    58
 74
     0
 42
0.00000001
 43
0.00000001
 12
1.0
 22
0.0
 32
0.0
 13
1.0
 23
0.0
 33
0.0
 40
-0.0312500000000002
 40
-0.0312500000000002
 40
0.0
 40
0.0
 40
0.0312500000000017
 40
0.0312500000000017
 40
0.0625000000000034
 40
0.0625000000000034
 40
0.1250000000000039
 40
0.1250000000000039
 40
0.1875000000000045
 40
0.1875000000000045
 40
0.2187500000000042
 40
0.2187500000000042
 40
0.2500000000000039
 40
0.2500000000000039
 40
0.2812500000000037
 40
0.2812500000000037
 40
0.3125000000000034
 40
0.3125000000000034
 40
0.3437500000000032
 40
0.3437500000000032
 40
0.3750000000000029
 40
0.3750000000000029
 40
0.4375000000000023
 40
0.4375000000000023
 40
0.468750000000002
 40
0.468750000000002
 40
0.5000000000000017
 40
0.5000000000000017
 40
0.5312500000000013
 40
0.5312500000000013
 40
0.562500000000001
 40
0.562500000000001
 40
0.5937500000000007
 40
0.5937500000000007
 40
0.6250000000000003
 40
0.6250000000000003
 40
0.6562500000000001
 40
0.6562500000000001
 40
0.6874999999999998
 40
0.6874999999999998
 40
0.7187499999999994
 40
0.7187499999999994
 40
0.7499999999999991
 40
0.7499999999999991
 40
0.7812499999999988
 40
0.7812499999999988
 40
0.8124999999999984
 40
0.8124999999999984
 40
0.874999999999999
 40
0.874999999999999
 40
0.9062499999999993
 40
0.9062499999999993
 40
0.9374999999999996
 40
0.9374999999999996
 40
0.9687499999999998
 40
0.9687499999999998
 40
1.0
 40
1.0
 40
1.031250000000002
 40
1.031250000000002
 10
224.9536966613265
 20
116.7908403801752
 30
0.0
 10
225.2360931092862
 20
116.7908403801752
 30
0.0
 10
225.3743709863
 20
116.7749363181575
 30
0.0
 10
225.6455370575078
 20
116.7135844599605
 30
0.0
 10
225.7797403849673
 20
116.6673206471286
 30
0.0
 10
226.1588035647575
 20
116.4912229796692
 30
0.0
 10
226.3878104864513
 20
116.3214651266643
 30
0.0
 10
226.768841105454
 20
115.9159427291989
 30
0.0
 10
226.9244641823757
 20
115.6759529371885
 30
0.0
 10
227.0835346589443
 20
115.2936163651508
 30
0.0
 10
227.1252618040877
 20
115.1594835776961
 30
0.0
 10
227.1805325052297
 20
114.8922967071063
 30
0.0
 10
227.1946124367196
 20
114.7589957606868
 30
0.0
 10
227.1951690030407
 20
114.4931520539403
 30
0.0
 10
227.1811797256201
 20
114.3609369042286
 30
0.0
 10
227.1266982063844
 20
114.1106289299529
 30
0.0
 10
227.0858477482296
 20
113.9898070178805
 30
0.0
 10
226.9792337813701
 20
113.7624471583524
 30
0.0
 10
226.9144816390971
 20
113.6574315104165
 30
0.0
 10
226.7629230971446
 20
113.4626066854375
 30
0.0
 10
226.6755849739715
 20
113.3727217314958
 30
0.0
 10
226.3898085530099
 20
113.1336864795127
 30
0.0
 10
226.1602722045442
 20
113.0090465779992
 30
0.0
 10
225.7839540685499
 20
112.8834769057038
 30
0.0
 10
225.6516211601893
 20
112.851157714437
 30
0.0
 10
225.3775885011984
 20
112.8075545292123
 30
0.0
 10
225.2395633415762
 20
112.7966980521066
 30
0.0
 10
224.9614919603575
 20
112.7961196870161
 30
0.0
 10
224.8197790216871
 20
112.8068181420985
 30
0.0
 10
224.5473567660069
 20
112.8492544028867
 30
0.0
 10
224.4155286215097
 20
112.8807300289048
 30
0.0
 10
224.1601297259051
 20
112.9650041127759
 30
0.0
 10
224.0399637227158
 20
113.0167363026501
 30
0.0
 10
223.8147923101595
 20
113.1390080364389
 30
0.0
 10
223.7086412488252
 20
113.2104946336658
 30
0.0
 10
223.5171939601229
 20
113.3698283203858
 30
0.0
 10
223.4312599462035
 20
113.4577459280727
 30
0.0
 10
223.2788476281634
 20
113.6521348926687
 30
0.0
 10
223.2126641378759
 20
113.7589305000073
 30
0.0
 10
223.1064824393249
 20
113.9834524533475
 30
0.0
 10
223.0655023761091
 20
114.1022457131845
 30
0.0
 10
223.0094222353117
 20
114.3546643142827
 30
0.0
 10
222.9951980598705
 20
114.4855986154848
 30
0.0
 10
222.994601375999
 20
114.7500240422147
 30
0.0
 10
223.0083699434973
 20
114.8862059928054
 30
0.0
 10
223.0632200104394
 20
115.1548917642039
 30
0.0
 10
223.1037165237159
 20
115.2864803222456
 30
0.0
 10
223.2631789948921
 20
115.6727937143853
 30
0.0
 10
223.4178474192062
 20
115.9122757837202
 30
0.0
 10
223.7061554505508
 20
116.2196631258909
 30
0.0
 10
223.8101802658987
 20
116.312125848069
 30
0.0
 10
224.0345995240775
 20
116.4767448241917
 30
0.0
 10
224.156530311938
 20
116.5494680662331
 30
0.0
 10
224.408987463364
 20
116.666904454939
 30
0.0
 10
224.5398739932811
 20
116.7122836760238
 30
0.0
 10
224.8118149109939
 20
116.7744220553043
 30
0.0
 10
224.9536966613265
 20
116.7908403801752
 30
0.0
 10
225.2360931092862
 20
116.7908403801752
 30
0.0
  0
SPLINE
  5
13F
330
1F
100
AcDbEntity
  8
0
  6
HIDDEN
 62
     7
370
     0
100
AcDbSpline
210
0.0
220
0.0
230
1.0
 70
     8
 71
     3
 72
    34
 73
    30
 74
     0
 42
0.00000001
 43
0.00000001
 12
1.0
 22
0.0
 32
0.0
 13
1.0
 23
0.0
 33
0.0
 40
0.0
 40
0.0
 40
0.0
 40
0.0
 40
0.1250000000000018
 40
0.1250000000000018
 40
0.2500000000000036
 40
0.2500000000000036
 40
0.3125000000000052
 40
0.3125000000000052
 40
0.3750000000000068
 40
0.3750000000000068
 40
0.4375000000000084
 40
0.4375000000000084
 40
0.4687500000000079
 40
0.4687500000000079
 40
0.5000000000000074
 40
0.5000000000000074
 40
0.531250000000007
 40
0.531250000000007
 40
0.5625000000000066
 40
0.5625000000000066
 40
0.6250000000000056
 40
0.6250000000000056
 40
0.6875000000000047
 40
0.6875000000000047
 40
0.7500000000000037
 40
0.7500000000000037
 40
0.8750000000000018
 40
0.8750000000000018
 40
1.0
 40
1.0
 40
1.0
 40
1.0
 10
247.5902190130901
 20
116.3482394397969
 30
0.0
 10
247.6489998856429
 20
116.4645166818061
 30
0.0
 10
247.7732879135347
 20
116.594836585307
 30
0.0
 10
248.1009005159654
 20
116.8602544504316
 30
0.0
 10
248.3069436813823
 20
116.9964097828489
 30
0.0
 10
248.6764817292163
 20
117.1806635977578
 30
0.0
 10
248.8101112898105
 20
117.2388829298595
 30
0.0
 10
249.1052839956754
 20
117.3428940349131
 30
0.0
 10
249.2670841806932
 20
117.3890249098717
 30
0.0
 10
249.6289798578707
 20
117.4542572495248
 30
0.0
 10
249.8279458870453
 20
117.4745965978921
 30
0.0
 10
250.1754238290727
 20
117.4557915382975
 30
0.0
 10
250.2980256519637
 20
117.4409708126501
 30
0.0
 10
250.5583942722056
 20
117.3836052283113
 30
0.0
 10
250.6910250078884
 20
117.3416763821875
 30
0.0
 10
250.9494553283787
 20
117.2290801709178
 30
0.0
 10
251.0700603928723
 20
117.1603554095413
 30
0.0
 10
251.2808529808665
 20
117.0144669616921
 30
0.0
 10
251.3726828400876
 20
116.9368284539311
 30
0.0
 10
251.6117618407697
 20
116.7052533990723
 30
0.0
 10
251.7273192915214
 20
116.550750857917
 30
0.0
 10
251.9134129463513
 20
116.2549423655953
 30
0.0
 10
251.9832795741257
 20
116.1131724152875
 30
0.0
 10
252.0970090712534
 20
115.8390063463749
 30
0.0
 10
252.1403881744059
 20
115.706656700056
 30
0.0
 10
252.2419291616445
 20
115.3241709525336
 30
0.0
 10
252.2711207050131
 20
115.0937173563487
 30
0.0
 10
252.2774648833996
 20
114.6928325306215
 30
0.0
 10
252.2551350460449
 20
114.5212138151291
 30
0.0
 10
252.1965954221643
 20
114.405413798602
 30
0.0
  0
ELLIPSE
  5
140
330
1F
100
AcDbEntity
  8
0
  6
HIDDEN
 62
     7
370
     0
100
AcDbEllipse
 10
251.9776675784
 20
120.1173435839
 30
0.0
 11
3.434281587992587
 21
1.718550178042065
 31
0.0
210
0.0
220
0.0
230
1.0
 40
0.1647216549
 41
6.064908987715111
 42
9.206501641304765
  0
LINE
  5
141
330
1F
100
AcDbEntity
  8
0
  6
HIDDEN
 62
     7
370
     0
100
AcDbLine
 10
249.5933913908
 20
131.7082212048
 30
0.0
 11
250.5571438222
 21
133.6146657646
 31
0.0
  0
LINE
  5
142
330
1F
100
AcDbEntity
  8
0
  6
HIDDEN
 62
     7
370
     0
100
AcDbLine
 10
247.1520529715
 20
115.481482336
 30
0.0
 11
247.5902190131
 21
116.3482394398
 31
0.0
  0
ELLIPSE
  5
143
330
1F
100
AcDbEntity
  8
0
  6
HIDDEN
 62
     7
370
     0
100
AcDbEllipse
 10
248.4289476196
 20
111.9503673976
 30
0.0
 11
3.809839114181642
 21
-1.769635718921222
 31
0.0
210
0.0
220
0.0
230
1.0
 40
0.816602865
 41
0.976953180021771
 42
2.252077021260166
  0
LINE
  5
144
330
1F
100
AcDbEntity
  8
0
  6
HIDDEN
 62
     7
370
     0
100
AcDbLine
 10
252.1965954222
 20
114.4054137986
 30
0.0
 11
251.7584293806
 21
113.5386566948
 31
0.0
  0
LWPOLYLINE
  5
145
330
1F
100
AcDbEntity
  8
0
  6
HIDDEN
 62
     7
370
     0
100
AcDbPolyline
 90
       33
 70
   128
 43
0.0
 10
249.2967456506
 20
117.7752199137
 10
250.1116363572
 20
117.6784743027
 10
250.895211271
 20
117.4275699836
 10
251.6173580474
 20
117.0321490687
 10
252.2503249908
 20
116.5074073618
 10
252.7697875366
 20
115.8735103926
 10
253.1557830304
 20
115.1548184661
 10
253.3934778818
 20
114.3789505099
 10
253.4737376111
 20
113.5757226945
 10
253.3934778818
 20
112.7760026145
 10
253.1557830304
 20
112.0105230639
 10
252.7697875366
 20
111.3087009927
 10
252.2503249908
 20
110.6975070294
 10
251.6173580474
 20
110.2004290153
 10
250.895211271
 20
109.8365693797
 10
250.1116363572
 20
109.6199110443
 10
249.2967456506
 20
109.5587800675
 10
248.4818549439
 20
109.6555256785
 10
247.6982800302
 20
109.9064299976
 10
246.9761332537
 20
110.3018509125
 10
246.3431663103
 20
110.8265926194
 10
245.8237037645
 20
111.4604895886
 10
245.4377082708
 20
112.1791815151
 10
245.2000134193
 20
112.9550494713
 10
245.11975369
 20
113.7582772866
 10
245.2000134193
 20
114.5579973667
 10
245.4377082708
 20
115.3234769173
 10
245.8237037645
 20
116.0252989885
 10
246.3431663103
 20
116.6364929518
 10
246.9761332537
 20
117.1335709659
 10
247.6982800302
 20
117.4974306015
 10
248.4818549439
 20
117.7140889369
 10
249.2967456506
 20
117.7752199137
  0
LINE
  5
146
330
1F
100
AcDbEntity
  8
0
  6
HIDDEN
 62
     7
370
     0
100
AcDbLine
 10
251.7584293806
 20
113.5386566948
 30
0.0
 11
253.4364387489
 21
117.7238180519
 31
0.0
  0
LINE
  5
147
330
1F
100
AcDbEntity
  8
0
  6
HIDDEN
 62
     7
370
     0
100
AcDbLine
 10
256.2020655906
 20
123.9335921327
 30
0.0
 11
255.9304809786
 21
123.3963576841
 31
0.0
  0
SPLINE
  5
148
330
1F
100
AcDbEntity
  8
0
  6
HIDDEN
 62
     7
370
     0
100
AcDbSpline
210
0.0
220
0.0
230
1.0
 70
     8
 71
     3
 72
     8
 73
     4
 74
     0
 42
0.00000001
 43
0.00000001
 12
1.0
 22
0.0
 32
0.0
 13
1.0
 23
0.0
 33
0.0
 40
0.0
 40
0.0
 40
0.0
 40
0.0
 40
1.0
 40
1.0
 40
1.0
 40
1.0
 10
255.9808196805236
 20
123.3813723169536
 30
0.0
 10
256.0515086493266
 20
123.5584825646063
 30
0.0
 10
256.1245874653486
 20
123.7410314954267
 30
0.0
 10
256.20206559055
 20
123.9335921326833
 30
0.0
  0
LINE
  5
149
330
1F
100
AcDbEntity
  8
0
  6
HIDDEN
 62
     7
370
     0
100
AcDbLine
 10
254.6832213938
 20
120.271017977
 30
0.0
 11
255.9808196805
 21
123.381372317
 31
0.0
  0
LINE
  5
14A
330
1F
100
AcDbEntity
  8
0
  6
HIDDEN
 62
     7
370
     0
100
AcDbLine
 10
255.3917617713
 20
121.6726154249
 30
0.0
 11
254.6832213938
 21
120.271017977
 31
0.0
  0
LWPOLYLINE
  5
14B
330
1F
100
AcDbEntity
  8
0
  6
HIDDEN
 62
     7
370
     0
100
AcDbPolyline
 90
       23
 70
   128
 43
0.0
 10
225.0948948853
 20
114.8424662773
 10
225.6865332547
 20
114.7615648873
 10
226.230240602
 20
114.525414867
 10
226.6819689915
 20
114.1531476864
 10
227.0051220756
 20
113.6749222187
 10
227.1735199133
 20
113.1294814471
 10
227.1735199133
 20
112.561013739
 10
227.0051220756
 20
112.0155729674
 10
226.6819689915
 20
111.5373474996
 10
226.230240602
 20
111.1650803191
 10
225.6865332547
 20
110.9289302988
 10
225.0948948853
 20
110.8480289088
 10
224.5032565159
 20
110.9289302988
 10
223.9595491686
 20
111.1650803191
 10
223.5078207792
 20
111.5373474996
 10
223.1846676951
 20
112.0155729674
 10
223.0162698574
 20
112.561013739
 10
223.0162698574
 20
113.1294814471
 10
223.1846676951
 20
113.6749222187
 10
223.5078207792
 20
114.1531476864
 10
223.9595491686
 20
114.525414867
 10
224.5032565159
 20
114.7615648873
 10
225.0948948853
 20
114.8424662773
  0
LINE
  5
14C
330
1F
100
AcDbEntity
  8
0
  6
HIDDEN
 62
     7
370
     0
100
AcDbLine
 10
262.7554486829
 20
135.2960712011
 30
0.0
 11
253.3532435086
 21
132.5195494639
 31
0.0
  0
LINE
  5
14D
330
1F
100
AcDbEntity
  8
0
  6
HIDDEN
 62
     7
370
     0
100
AcDbLine
 10
263.4090943956
 20
134.647215704
 30
0.0
 11
262.7554486829
 21
135.2960712011
 31
0.0
  0
ARC
  5
14E
330
1F
100
AcDbEntity
  8
0
  6
HIDDEN
 62
     7
370
     0
100
AcDbCircle
 10
254.7164036097
 20
126.8156800828
 30
0.0
 40
3.659674552588893
100
AcDbArc
 50
290.2122957963
 51
204.0507095723
  0
LINE
  5
14F
330
1F
100
AcDbEntity
  8
0
  6
HIDDEN
 62
     7
370
     0
100
AcDbLine
 10
251.3744432714
 20
125.3241979581
 30
0.0
 11
248.5052086008
 21
118.4466175842
 31
0.0
  0
ARC
  5
150
330
1F
100
AcDbEntity
  8
0
  6
HIDDEN
 62
     7
370
     0
100
AcDbCircle
 10
246.0356293946
 20
157.313183795
 30
0.0
 40
25.85095316748792
100
AcDbArc
 50
277.9104934198
 51
286.4434825558
  0
LINE
  5
151
330
1F
100
AcDbEntity
  8
0
  6
HIDDEN
 62
     7
370
     0
100
AcDbLine
 10
249.5933913908
 20
131.7082212048
 30
0.0
 11
246.5932956471
 21
122.198554422
 31
0.0
  0
LINE
  5
152
330
1F
100
AcDbEntity
  8
0
  6
HIDDEN
 62
     7
370
     0
100
AcDbLine
 10
244.900647317
 20
117.3821712579
 30
0.0
 11
248.5052086008
 21
118.4466175842
 31
0.0
  0
LINE
  5
153
330
1F
100
AcDbEntity
  8
0
  6
HIDDEN
 62
     7
370
     0
100
AcDbLine
 10
254.6832213938
 20
120.271017977
 30
0.0
 11
259.3042160487
 21
121.6356225426
 31
0.0
  0
LINE
  5
154
330
1F
100
AcDbEntity
  8
0
  6
HIDDEN
 62
     7
370
     0
100
AcDbLine
 10
259.3042160487
 20
121.6356225426
 30
0.0
 11
263.4090943956
 21
134.647215704
 31
0.0
  0
LINE
  5
155
330
1F
100
AcDbEntity
  8
0
  6
HIDDEN
 62
     7
370
     0
100
AcDbLine
 10
248.5052086008
 20
118.4466175842
 30
0.0
 11
248.5635733854
 21
118.5620717429
 31
0.0
  0
LINE
  5
156
330
1F
100
AcDbEntity
  8
0
  6
HIDDEN
 62
     7
370
     0
100
AcDbLine
 10
126.5948948853
 20
132.7947687787
 30
0.0
 11
126.5948948853
 21
127.9849900622
 31
0.0
  0
LINE
  5
157
330
1F
100
AcDbEntity
  8
0
  6
HIDDEN
 62
     7
370
     0
100
AcDbLine
 10
125.0948948853
 20
131.928743375
 30
0.0
 11
125.0948948853
 21
127.5519773603
 31
0.0
  0
LINE
  5
158
330
1F
100
AcDbEntity
  8
0
  6
HIDDEN
 62
     7
370
     0
100
AcDbLine
 10
152.8948948853
 20
133.4555163214
 30
0.0
 11
152.8948948853
 21
128.3153638336
 31
0.0
  0
LINE
  5
159
330
1F
100
AcDbEntity
  8
0
  6
HIDDEN
 62
     7
370
     0
100
AcDbLine
 10
152.8948948853
 20
103.55547124
 30
0.0
 11
152.8948948853
 21
98.4153187522
 31
0.0
  0
SPLINE
  5
15A
330
1F
100
AcDbEntity
  8
0
  6
HIDDEN
 62
     7
370
     0
100
AcDbSpline
210
0.0
220
0.0
230
1.0
 70
     8
 71
     3
 72
    18
 73
    14
 74
     0
 42
0.00000001
 43
0.00000001
 12
1.0
 22
0.0
 32
0.0
 13
1.0
 23
0.0
 33
0.0
 40
0.0
 40
0.0
 40
0.0
 40
0.0
 40
0.2499999999999997
 40
0.2499999999999997
 40
0.3749999999999997
 40
0.3749999999999997
 40
0.4999999999999998
 40
0.4999999999999998
 40
0.6249999999999998
 40
0.6249999999999998
 40
0.7499999999999999
 40
0.7499999999999999
 40
1.0
 40
1.0
 40
1.0
 40
1.0
 10
153.7735745417467
 20
102.8403708132579
 30
0.0
 10
153.6382889354443
 20
102.2561692195263
 30
0.0
 10
153.5371211892014
 20
101.7219515323181
 30
0.0
 10
153.4342598463325
 20
100.9960547614297
 30
0.0
 10
153.4081570008092
 20
100.7661742736497
 30
0.0
 10
153.3732670172643
 20
100.3356033288629
 30
0.0
 10
153.3646807589743
 20
100.1379084233688
 30
0.0
 10
153.3645810494087
 20
99.77656038069097
 30
0.0
 10
153.3730694205572
 20
99.61291037074486
 30
0.0
 10
153.4072128000778
 20
99.31969909777588
 30
0.0
 10
153.4330097819316
 20
99.18970303166006
 30
0.0
 10
153.5364109133196
 20
98.85564713909811
 30
0.0
 10
153.6382689054909
 20
98.70987097473333
 30
0.0
 10
153.7735745417467
 20
98.6385076687855
 30
0.0
  0
SPLINE
  5
15B
330
1F
100
AcDbEntity
  8
0
  6
HIDDEN
 62
     7
370
     0
100
AcDbSpline
210
0.0
220
0.0
230
1.0
 70
     8
 71
     3
 72
    18
 73
    14
 74
     0
 42
0.00000001
 43
0.00000001
 12
1.0
 22
0.0
 32
0.0
 13
1.0
 23
0.0
 33
0.0
 40
0.0
 40
0.0
 40
0.0
 40
0.0
 40
0.2499999999999994
 40
0.2499999999999994
 40
0.3749999999999994
 40
0.3749999999999994
 40
0.4999999999999994
 40
0.4999999999999994
 40
0.6249999999999994
 40
0.6249999999999994
 40
0.7499999999999994
 40
0.7499999999999994
 40
1.0
 40
1.0
 40
1.0
 40
1.0
 10
153.7735745417467
 20
133.2323274047951
 30
0.0
 10
153.6382889354443
 20
133.1609746631056
 30
0.0
 10
153.5371211892014
 20
133.0155712565162
 30
0.0
 10
153.4342598463325
 20
132.6861040209105
 30
0.0
 10
153.4081570008092
 20
132.5571704441058
 30
0.0
 10
153.3732670172643
 20
132.2616284447697
 30
0.0
 10
153.3646807589743
 20
132.0972336712477
 30
0.0
 10
153.3645810494087
 20
131.7362720565071
 30
0.0
 10
153.3730694205572
 20
131.539702264345
 30
0.0
 10
153.4072128000778
 20
131.11434746822
 30
0.0
 10
153.4330097819316
 20
130.8845778184204
 30
0.0
 10
153.5364109133196
 20
130.151989123988
 30
0.0
 10
153.6382689054909
 20
129.6147523490704
 30
0.0
 10
153.7735745417467
 20
129.0304642603227
 30
0.0
  0
LINE
  5
15C
330
1F
100
AcDbEntity
  8
0
  6
HIDDEN
 62
     7
370
     0
100
AcDbLine
 10
126.5948948853
 20
103.8858450113
 30
0.0
 11
126.5948948853
 21
99.0760662948
 31
0.0
  0
LINE
  5
15D
330
1F
100
AcDbEntity
  8
0
  6
HIDDEN
 62
     7
370
     0
100
AcDbLine
 10
125.0948948853
 20
104.3188577132
 30
0.0
 11
125.0948948853
 21
99.9420916986
 31
0.0
  0
ARC
  5
15E
330
1F
100
AcDbEntity
  8
0
  6
HIDDEN
 62
     7
370
     0
100
AcDbCircle
 10
254.6541952018
 20
126.6958389295
 30
0.0
 40
3.166371757507154
100
AcDbArc
 50
299.2648067495
 51
194.998198619
  0
SPLINE
  5
15F
330
1F
100
AcDbEntity
  8
0
  6
HIDDEN
 62
     7
370
     0
100
AcDbSpline
210
0.0
220
0.0
230
1.0
 70
     8
 71
     3
 72
     8
 73
     4
 74
     0
 42
0.00000001
 43
0.00000001
 12
1.0
 22
0.0
 32
0.0
 13
1.0
 23
0.0
 33
0.0
 40
0.0
 40
0.0
 40
0.0
 40
0.0
 40
1.0
 40
1.0
 40
1.0
 40
1.0
 10
251.5956891814758
 20
125.8764177738779
 30
0.0
 10
251.5182110562743
 20
125.6838571366214
 30
0.0
 10
251.4451322402523
 20
125.501308205801
 30
0.0
 10
251.3744432714494
 20
125.3241979581484
 30
0.0
  0
SPLINE
  5
160
330
1F
100
AcDbEntity
  8
0
  6
HIDDEN
 62
     7
370
     0
100
AcDbSpline
210
0.0
220
0.0
230
1.0
 70
     8
 71
     3
 72
    12
 73
     8
 74
     0
 42
0.00000001
 43
0.00000001
 12
1.0
 22
0.0
 32
0.0
 13
1.0
 23
0.0
 33
0.0
 40
0.0
 40
0.0
 40
0.0
 40
0.0
 40
0.5000000000000001
 40
0.5000000000000001
 40
0.75
 40
0.75
 40
1.0
 40
1.0
 40
1.0
 40
1.0
 10
255.021486069392
 20
122.5001123891685
 30
0.0
 10
255.242225277976
 20
122.6567170553012
 30
0.0
 10
255.4313742922709
 20
122.8198114493655
 30
0.0
 10
255.6665815194291
 20
123.0537619413326
 30
0.0
 10
255.7366607099842
 20
123.1299430424951
 30
0.0
 10
255.8543655862426
 20
123.2731191267806
 30
0.0
 10
255.9018995957956
 20
123.3398194903381
 30
0.0
 10
255.9304809785584
 20
123.396357684076
 30
0.0
  0
ARC
  5
161
330
1F
100
AcDbEntity
  8
0
  6
HIDDEN
 62
     7
370
     0
100
AcDbCircle
 10
254.0578675455
 20
125.5157169818
 30
0.0
 40
3.165822439555477
100
AcDbArc
 50
287.7209714224
 51
206.5420339461
  0
SPLINE
  5
162
330
1F
100
AcDbEntity
  8
0
  6
HIDDEN
 62
     7
370
     0
100
AcDbSpline
210
0.0
220
0.0
230
1.0
 70
     8
 71
     3
 72
    12
 73
     8
 74
     0
 42
0.00000001
 43
0.00000001
 12
1.0
 22
0.0
 32
0.0
 13
1.0
 23
0.0
 33
0.0
 40
0.0
 40
0.0
 40
0.0
 40
0.0
 40
0.2500000000000003
 40
0.2500000000000003
 40
0.5000000000000006
 40
0.5000000000000006
 40
1.0
 40
1.0
 40
1.0
 40
1.0
 10
251.3241045694842
 20
125.3391833252708
 30
0.0
 10
251.2956338007955
 20
125.2828639424981
 30
0.0
 10
251.273237650203
 20
125.2062306500039
 30
0.0
 10
251.2372302642498
 20
125.0290340491147
 30
0.0
 10
251.223826701531
 20
124.9284547642754
 30
0.0
 10
251.1977044593012
 20
124.605761102325
 30
0.0
 10
251.19823222081
 20
124.3624069828222
 30
0.0
 10
251.2257013383392
 20
124.101055787849
 30
0.0
  0
LINE
  5
163
330
1F
100
AcDbEntity
  8
0
  6
HIDDEN
 62
     7
370
     0
100
AcDbLine
 10
251.3241045695
 20
125.3391833253
 30
0.0
 11
251.5956891815
 21
125.8764177739
 31
0.0
  0
ELLIPSE
  5
164
330
1F
100
AcDbEntity
  8
0
  6
HIDDEN
 62
     7
370
     0
100
AcDbEllipse
 10
252.4836062134
 20
121.766528527
 30
0.0
 11
1.101654435681468
 21
2.719284888726094
 31
0.0
210
0.0
220
0.0
230
1.0
 40
0.8519509261
 41
5.3025916281401
 42
7.239561653762308
  0
LWPOLYLINE
  5
165
330
1F
100
AcDbEntity
  8
0
  6
HIDDEN
 62
     7
370
     0
100
AcDbPolyline
 90
       13
 70
   128
 43
0.0
 10
248.8300623399
 20
119.6666436931
 10
249.0716664502
 20
120.0403970683
 10
249.4537641097
 20
120.3224795903
 10
249.9503159942
 20
120.4936678014
 10
250.5274829134
 20
120.5422955078
 10
251.1459318956
 20
120.4650488117
 10
251.7635166646
 20
120.2671919478
 10
252.3381498392
 20
119.9622085344
 10
252.8306711179
 20
119.5708826872
 10
253.2075159897
 20
119.1198826158
 10
253.4430030993
 20
118.6399432299
 10
253.5210843894
 20
118.1637716055
 10
253.4364387489
 20
117.7238180519
  0
LWPOLYLINE
  5
166
330
1F
100
AcDbEntity
  8
0
  6
HIDDEN
 62
     7
370
     0
100
AcDbPolyline
 90
       25
 70
   128
 43
0.0
 10
225.0948948853
 20
115.1778996886
 10
225.7419424981
 20
115.0968835263
 10
226.3448948853
 20
114.8593561568
 10
226.8626618383
 20
114.4815046778
 10
227.2599583948
 20
113.9890790433
 10
227.509709451
 20
113.4156372464
 10
227.5948948853
 20
112.8002583979
 10
227.509709451
 20
112.1848795494
 10
227.2599583948
 20
111.6114377525
 10
226.8626618383
 20
111.119012118
 10
226.3448948853
 20
110.741160639
 10
225.7419424981
 20
110.5036332695
 10
225.0948948853
 20
110.4226171072
 10
224.4478472725
 20
110.5036332695
 10
223.8448948853
 20
110.741160639
 10
223.3271279323
 20
111.119012118
 10
222.9298313758
 20
111.6114377525
 10
222.6800803196
 20
112.1848795494
 10
222.5948948853
 20
112.8002583979
 10
222.6800803196
 20
113.4156372464
 10
222.9298313758
 20
113.9890790433
 10
223.3271279323
 20
114.4815046778
 10
223.8448948853
 20
114.8593561568
 10
224.4478472726
 20
115.0968835263
 10
225.0948948853
 20
115.1778996886
  0
LINE
  5
167
330
1F
100
AcDbEntity
  8
0
  6
HIDDEN
 62
     7
370
     0
100
AcDbLine
 10
262.7554486829
 20
135.2960712011
 30
0.0
 11
262.6590373341
 21
135.1053553228
 31
0.0
  0
LINE
  5
168
330
1F
100
AcDbEntity
  8
0
  6
HIDDEN
 62
     7
370
     0
100
AcDbLine
 10
263.1912807961
 20
134.2163482549
 30
0.0
 11
263.4090943956
 21
134.647215704
 31
0.0
  0
LINE
  5
169
330
1F
100
AcDbEntity
  8
0
  6
HIDDEN
 62
     7
370
     0
100
AcDbLine
 10
248.8300623399
 20
119.6666436931
 30
0.0
 11
247.1520529715
 21
115.481482336
 31
0.0
  0
ELLIPSE
  5
16A
330
1F
100
AcDbEntity
  8
0
  6
HIDDEN
 62
     7
370
     0
100
AcDbEllipse
 10
279.0491738714
 20
121.6354175368
 30
0.0
 11
17.20799578203889
 21
-16.78295253849008
 31
0.0
210
0.0
220
0.0
230
1.0
 40
0.1573605504
 41
3.637771462858619
 42
3.719269982452879
  0
ELLIPSE
  5
16B
330
1F
100
AcDbEntity
  8
0
  6
HIDDEN
 62
     7
370
     0
100
AcDbEllipse
 10
215.6234787827
 20
121.6354175368
 30
0.0
 11
53.03216677918586
 21
16.7838880883792
 31
0.0
210
0.0
220
0.0
230
1.0
 40
0.0509512444
 41
5.470047812492077
 42
5.786660632975072
  0
SPLINE
  5
16C
330
1F
100
AcDbEntity
  8
0
  6
HIDDEN
 62
     7
370
     0
100
AcDbSpline
210
0.0
220
0.0
230
1.0
 70
     8
 71
     3
 72
    12
 73
     8
 74
     0
 42
0.00000001
 43
0.00000001
 12
1.0
 22
0.0
 32
0.0
 13
1.0
 23
0.0
 33
0.0
 40
0.0
 40
0.0
 40
0.0
 40
0.0
 40
0.5
 40
0.5
 40
0.75
 40
0.75
 40
1.0
 40
1.0
 40
1.0
 40
1.0
 10
244.5416114382266
 20
129.7331316143928
 30
0.0
 10
245.950538263846
 20
129.7331316143928
 30
0.0
 10
247.3348848531563
 20
129.8626761341434
 30
0.0
 10
249.3761150044515
 20
130.2348267092015
 30
0.0
 10
250.0505680595407
 20
130.3887542885882
 30
0.0
 10
251.3869778090661
 20
130.7558616183453
 30
0.0
 10
252.0465619115199
 20
130.9686422111533
 30
0.0
 10
252.6896104231043
 20
131.206785268104
 30
0.0
  0
LINE
  5
16D
330
1F
100
AcDbEntity
  8
0
  6
HIDDEN
 62
     7
370
     0
100
AcDbLine
 10
243.0725440185
 20
129.7331316144
 30
0.0
 11
244.5416114382
 21
129.7331316144
 31
0.0
  0
ELLIPSE
  5
16E
330
1F
100
AcDbEntity
  8
0
  6
HIDDEN
 62
     7
370
     0
100
AcDbEllipse
 10
259.5421118991
 20
121.6354175368
 30
0.0
 11
5.530973889347762
 21
16.99891568673717
 31
0.0
210
0.0
220
0.0
230
1.0
 40
0.0347142918
 41
0.7489391516584752
 42
1.582090910555886
  0
LINE
  5
16F
330
1F
100
AcDbEntity
  8
0
  6
HIDDEN
 62
     7
370
     0
100
AcDbLine
 10
125.0948948853
 20
127.5519773603
 30
0.0
 11
125.0948948853
 21
118.274588465
 31
0.0
  0
LINE
  5
170
330
1F
100
AcDbEntity
  8
0
  6
HIDDEN
 62
     7
370
     0
100
AcDbLine
 10
125.0948948853
 20
113.5962466086
 30
0.0
 11
125.0948948853
 21
104.3188577132
 31
0.0
  0
LINE
  5
171
330
1F
100
AcDbEntity
  8
0
  6
HIDDEN
 62
     7
370
     0
100
AcDbLine
 10
126.5948948853
 20
112.7869404185
 30
0.0
 11
126.5948948853
 21
103.8858450113
 31
0.0
  0
LINE
  5
172
330
1F
100
AcDbEntity
  8
0
  6
HIDDEN
 62
     7
370
     0
100
AcDbLine
 10
126.5948948853
 20
127.9849900622
 30
0.0
 11
126.5948948853
 21
119.0838946551
 31
0.0
  0
LINE
  5
173
330
1F
100
AcDbEntity
  8
0
  6
HIDDEN
 62
     7
370
     0
100
AcDbLine
 10
152.8948948853
 20
128.3153638336
 30
0.0
 11
152.8948948853
 21
103.55547124
 31
0.0
  0
LINE
  5
174
330
1F
100
AcDbEntity
  8
0
  6
HIDDEN
 62
     7
370
     0
100
AcDbLine
 10
154.8948948853
 20
127.4976917699
 30
0.0
 11
154.8948948853
 21
104.3731433037
 31
0.0
  0
SPLINE
  5
175
330
1F
100
AcDbEntity
  8
0
  6
HIDDEN
 62
     7
370
     0
100
AcDbSpline
210
0.0
220
0.0
230
1.0
 70
     8
 71
     3
 72
    26
 73
    22
 74
     0
 42
0.00000001
 43
0.00000001
 12
1.0
 22
0.0
 32
0.0
 13
1.0
 23
0.0
 33
0.0
 40
0.0
 40
0.0
 40
0.0
 40
0.0
 40
0.1250000000000002
 40
0.1250000000000002
 40
0.2500000000000003
 40
0.2500000000000003
 40
0.3750000000000005
 40
0.3750000000000005
 40
0.4375000000000006
 40
0.4375000000000006
 40
0.5000000000000007
 40
0.5000000000000007
 40
0.5625000000000008
 40
0.5625000000000008
 40
0.6250000000000009
 40
0.6250000000000009
 40
0.7500000000000006
 40
0.7500000000000006
 40
0.8750000000000002
 40
0.8750000000000002
 40
1.0
 40
1.0
 40
1.0
 40
1.0
 10
130.5948948853063
 20
112.7169197763413
 30
0.0
 10
130.8055382473062
 20
112.9515368072863
 30
0.0
 10
131.0127346850632
 20
113.1894199432458
 30
0.0
 10
131.4142338196956
 20
113.6767342495146
 30
0.0
 10
131.6095102387416
 20
113.9268594743037
 30
0.0
 10
131.969290731437
 20
114.4454496197546
 30
0.0
 10
132.1345495915864
 20
114.7128806036414
 30
0.0
 10
132.3272075010126
 20
115.1442957360399
 30
0.0
 10
132.3821722412226
 20
115.2943146179643
 30
0.0
 10
132.4599080261868
 20
115.6070517966943
 30
0.0
 10
132.4811741644951
 20
115.7648060435016
 30
0.0
 10
132.4830680937808
 20
116.0835113233474
 30
0.0
 10
132.4628423567138
 20
116.2459481235279
 30
0.0
 10
132.388377946428
 20
116.5569001231106
 30
0.0
 10
132.334738820682
 20
116.7075713614382
 30
0.0
 10
132.1399945152814
 20
117.1496551194068
 30
0.0
 10
131.9729444021031
 20
117.4196991325746
 30
0.0
 10
131.6126882833995
 20
117.939806760856
 30
0.0
 10
131.4179359083791
 20
118.1894679736656
 30
0.0
 10
131.0149266839068
 20
118.6788920855084
 30
0.0
 10
130.8064901655433
 20
118.9182380086723
 30
0.0
 10
130.5948948853072
 20
119.1539152972402
 30
0.0
  0
LINE
  5
176
330
1F
100
AcDbEntity
  8
0
  6
HIDDEN
 62
     7
370
     0
100
AcDbLine
 10
130.5948948853
 20
112.7169197763
 30
0.0
 11
130.5948948853
 21
119.1539152972
 31
0.0
  0
SPLINE
  5
177
330
1F
100
AcDbEntity
  8
0
  6
HIDDEN
 62
     7
370
     0
100
AcDbSpline
210
0.0
220
0.0
230
1.0
 70
     8
 71
     3
 72
     8
 73
     4
 74
     0
 42
0.00000001
 43
0.00000001
 12
1.0
 22
0.0
 32
0.0
 13
1.0
 23
0.0
 33
0.0
 40
0.0000202085968836
 40
0.0000202085968836
 40
0.0000202085968836
 40
0.0000202085968836
 40
0.0040218806502652
 40
0.0040218806502652
 40
0.0040218806502652
 40
0.0040218806502652
 10
126.5948948853063
 20
112.7869404184536
 30
0.0
 10
127.9282180110969
 20
112.76294218729
 30
0.0
 10
129.2615518843195
 20
112.7396144471217
 30
0.0
 10
130.5948948853063
 20
112.7169197763413
 30
0.0
  0
SPLINE
  5
178
330
1F
100
AcDbEntity
  8
0
  6
HIDDEN
 62
     7
370
     0
100
AcDbSpline
210
0.0
220
0.0
230
1.0
 70
     8
 71
     3
 72
     8
 73
     4
 74
     0
 42
0.00000001
 43
0.00000001
 12
1.0
 22
0.0
 32
0.0
 13
1.0
 23
0.0
 33
0.0
 40
0.0000202082942178
 40
0.0000202082942178
 40
0.0000202082942178
 40
0.0000202082942178
 40
0.0040218803475994
 40
0.0040218803475994
 40
0.0040218803475994
 40
0.0040218803475994
 10
130.5948948853063
 20
119.1539152972394
 30
0.0
 10
129.2615518843195
 20
119.131220626459
 30
0.0
 10
127.9282180110969
 20
119.1078928862907
 30
0.0
 10
126.5948948853063
 20
119.083894655127
 30
0.0
  0
SPLINE
  5
179
330
1F
100
AcDbEntity
  8
0
  6
HIDDEN
 62
     7
370
     0
100
AcDbSpline
210
0.0
220
0.0
230
1.0
 70
     8
 71
     3
 72
     8
 73
     4
 74
     0
 42
0.00000001
 43
0.00000001
 12
1.0
 22
0.0
 32
0.0
 13
1.0
 23
0.0
 33
0.0
 40
0.0
 40
0.0
 40
0.0
 40
0.0
 40
1.0
 40
1.0
 40
1.0
 40
1.0
 10
125.0948948853054
 20
113.5962466085559
 30
0.0
 10
125.5691062957433
 20
113.2615173812608
 30
0.0
 10
126.0738426428452
 20
113.0024589674279
 30
0.0
 10
126.5948948853063
 20
112.7869404184536
 30
0.0
  0
SPLINE
  5
17A
330
1F
100
AcDbEntity
  8
0
  6
HIDDEN
 62
     7
370
     0
100
AcDbSpline
210
0.0
220
0.0
230
1.0
 70
     8
 71
     3
 72
     8
 73
     4
 74
     0
 42
0.00000001
 43
0.00000001
 12
1.0
 22
0.0
 32
0.0
 13
1.0
 23
0.0
 33
0.0
 40
0.0
 40
0.0
 40
0.0
 40
0.0
 40
1.0
 40
1.0
 40
1.0
 40
1.0
 10
126.5948948853063
 20
119.083894655127
 30
0.0
 10
126.0738426428456
 20
118.8683761061529
 30
0.0
 10
125.569106295744
 20
118.6093176923201
 30
0.0
 10
125.0948948853063
 20
118.2745884650254
 30
0.0
  0
LINE
  5
17B
330
1F
100
AcDbEntity
  8
0
  6
HIDDEN
 62
     7
370
     0
100
AcDbLine
 10
125.0948948853
 20
113.5962466086
 30
0.0
 11
125.0948948853
 21
118.274588465
 31
0.0
  0
SPLINE
  5
17C
330
1F
100
AcDbEntity
  8
0
  6
HIDDEN
 62
     7
370
     0
100
AcDbSpline
210
0.0
220
0.0
230
1.0
 70
     8
 71
     3
 72
    68
 73
    64
 74
     0
 42
0.00000001
 43
0.00000001
 12
1.0
 22
0.0
 32
0.0
 13
1.0
 23
0.0
 33
0.0
 40
-0.03125
 40
-0.03125
 40
0.0
 40
0.0
 40
0.0312500000000006
 40
0.0312500000000006
 40
0.0625000000000011
 40
0.0625000000000011
 40
0.0937500000000012
 40
0.0937500000000012
 40
0.1250000000000013
 40
0.1250000000000013
 40
0.1875000000000013
 40
0.1875000000000013
 40
0.2187500000000013
 40
0.2187500000000013
 40
0.2500000000000012
 40
0.2500000000000012
 40
0.2812500000000012
 40
0.2812500000000012
 40
0.3125000000000012
 40
0.3125000000000012
 40
0.3437500000000011
 40
0.3437500000000011
 40
0.3750000000000011
 40
0.3750000000000011
 40
0.4062500000000011
 40
0.4062500000000011
 40
0.437500000000001
 40
0.437500000000001
 40
0.468750000000001
 40
0.468750000000001
 40
0.500000000000001
 40
0.500000000000001
 40
0.5312500000000009
 40
0.5312500000000009
 40
0.5625000000000008
 40
0.5625000000000008
 40
0.5937500000000007
 40
0.5937500000000007
 40
0.6250000000000006
 40
0.6250000000000006
 40
0.6562500000000004
 40
0.6562500000000004
 40
0.6875000000000003
 40
0.6875000000000003
 40
0.7187500000000002
 40
0.7187500000000002
 40
0.7500000000000001
 40
0.7500000000000001
 40
0.7812500000000001
 40
0.7812500000000001
 40
0.8125000000000001
 40
0.8125000000000001
 40
0.8437500000000001
 40
0.8437500000000001
 40
0.875
 40
0.875
 40
0.90625
 40
0.90625
 40
0.9375
 40
0.9375
 40
0.96875
 40
0.96875
 40
1.0
 40
1.0
 40
1.031250000000001
 40
1.031250000000001
 10
138.4787211726428
 20
117.8322351134069
 30
0.0
 10
138.7691856549346
 20
118.1506673544075
 30
0.0
 10
138.9281019533161
 20
118.2931848801111
 30
0.0
 10
139.2716826389539
 20
118.5468994172008
 30
0.0
 10
139.4578539918596
 20
118.6584632437098
 30
0.0
 10
139.8423840644453
 20
118.8427122803789
 30
0.0
 10
140.04199456661
 20
118.9166265464677
 30
0.0
 10
140.4558341515836
 20
119.0282684360278
 30
0.0
 10
140.6686439612548
 20
119.0651924903166
 30
0.0
 10
141.3045754355956
 20
119.1177943108921
 30
0.0
 10
141.7396416562233
 20
119.0755859202319
 30
0.0
 10
142.3518845232109
 20
118.9017513150365
 30
0.0
 10
142.551729611323
 20
118.8251330872245
 30
0.0
 10
142.9361069200511
 20
118.6349582188815
 30
0.0
 10
143.1166553109136
 20
118.523598784663
 30
0.0
 10
143.4547152386232
 20
118.2684935159406
 30
0.0
 10
143.6137470550345
 20
118.1229877277479
 30
0.0
 10
143.8985437352569
 20
117.8047490735751
 30
0.0
 10
144.0234892641317
 20
117.633696755056
 30
0.0
 10
144.2377914045454
 20
117.2671361689428
 30
0.0
 10
144.3276901837202
 20
117.0690674351402
 30
0.0
 10
144.4613424728492
 20
116.6644846819308
 30
0.0
 10
144.5063504081632
 20
116.4568695019137
 30
0.0
 10
144.5511298887806
 20
116.0305797454848
 30
0.0
 10
144.5500562277648
 20
115.8139414475365
 30
0.0
 10
144.5020364340493
 20
115.3909814205791
 30
0.0
 10
144.4546234568245
 20
115.1799847353198
 30
0.0
 10
144.3163082080078
 20
114.774196019888
 30
0.0
 10
144.2266273497856
 20
114.5812493612254
 30
0.0
 10
144.0079446394584
 20
114.214342738242
 30
0.0
 10
143.8784969216297
 20
114.0408375900199
 30
0.0
 10
143.5919913176002
 20
113.7268354920293
 30
0.0
 10
143.4331324993622
 20
113.5837325655749
 30
0.0
 10
143.0881346774094
 20
113.3284016497219
 30
0.0
 10
142.9059175732891
 20
113.2188694721214
 30
0.0
 10
142.52307749665
 20
113.0339426453332
 30
0.0
 10
142.3203332715768
 20
112.9581268184917
 30
0.0
 10
141.9085046971135
 20
112.8455463262496
 30
0.0
 10
141.699285920514
 20
112.8082061066649
 30
0.0
 10
141.2742930862795
 20
112.7709750871348
 30
0.0
 10
141.0571358092064
 20
112.7715410510665
 30
0.0
 10
140.6327579700532
 20
112.8109387549559
 30
0.0
 10
140.4236413222035
 20
112.8493679895901
 30
0.0
 10
140.0117003333095
 20
112.9645730241275
 30
0.0
 10
139.8091322284164
 20
113.0418379546319
 30
0.0
 10
139.4275317859491
 20
113.2295202247638
 30
0.0
 10
139.2462208500699
 20
113.3404335765758
 30
0.0
 10
138.9036289531358
 20
113.5983870153067
 30
0.0
 10
138.7448053361817
 20
113.7441027109161
 30
0.0
 10
138.4617605570813
 20
114.0604238686255
 30
0.0
 10
138.3357506250955
 20
114.2324575800247
 30
0.0
 10
138.1186435812806
 20
114.6050001580137
 30
0.0
 10
138.0312082850067
 20
114.7991219432877
 30
0.0
 10
137.8980150044592
 20
115.2028966723673
 30
0.0
 10
137.8521144223545
 20
115.4153935989748
 30
0.0
 10
137.8077978814207
 20
115.840989459833
 30
0.0
 10
137.8086400689031
 20
116.0538232981022
 30
0.0
 10
137.8564787633241
 20
116.4795630279321
 30
0.0
 10
137.9040146187933
 20
116.6913251933452
 30
0.0
 10
138.0407532140212
 20
117.0948147278025
 30
0.0
 10
138.1310367592968
 20
117.2905733487556
 30
0.0
 10
138.3507476515618
 20
117.6601735755037
 30
0.0
 10
138.4787211726428
 20
117.8322351134069
 30
0.0
 10
138.7691856549346
 20
118.1506673544075
 30
0.0
  0
CIRCLE
  5
17D
330
1F
100
AcDbEntity
  8
0
  6
HIDDEN
 62
     7
370
     0
100
AcDbCircle
 10
141.0948948853
 20
115.9354175368
 30
0.0
 40
3.049999999999983
  0
LINE
  5
17E
330
1F
100
AcDbEntity
  8
0
  6
HIDDEN
 62
     7
370
     0
100
AcDbLine
 10
258.8895754985
 20
121.6354175368
 30
0.0
 11
257.0374254603
 21
115.9354175368
 31
0.0
  0
CIRCLE
  5
17F
330
1F
100
AcDbEntity
  8
0
  6
HIDDEN
 62
     7
370
     0
100
AcDbCircle
 10
167.0948948853
 20
115.9354175368
 30
0.0
 40
2.000000000000014
  0
LINE
  5
180
330
1F
100
AcDbEntity
  8
0
  6
HIDDEN
 62
     7
370
     0
100
AcDbLine
 10
155.0948948853
 20
96.3854175368
 30
0.0
 11
155.1877881041
 21
96.4783107556
 31
0.0
  0
LINE
  5
181
330
1F
100
AcDbEntity
  8
0
  6
HIDDEN
 62
     7
370
     0
100
AcDbLine
 10
155.1877881041
 20
135.392524318
 30
0.0
 11
155.0948948853
 21
135.4854175368
 31
0.0
  0
ARC
  5
182
330
1F
100
AcDbEntity
  8
0
  6
HIDDEN
 62
     7
370
     0
100
AcDbCircle
 10
154.4806813229
 20
97.1854175368
 30
0.0
 40
1.000000000000008
100
AcDbArc
 50
315.0
 51
0.0
  0
ARC
  5
183
330
1F
100
AcDbEntity
  8
0
  6
HIDDEN
 62
     7
370
     0
100
AcDbCircle
 10
154.4806813229
 20
97.1854175368
 30
0.0
 40
1.00000000000001
100
AcDbArc
 50
0.0
 51
52.1052014664
  0
ARC
  5
184
330
1F
100
AcDbEntity
  8
0
  6
HIDDEN
 62
     7
370
     0
100
AcDbCircle
 10
154.4806813229
 20
134.6854175368
 30
0.0
 40
1.00000000000003
100
AcDbArc
 50
351.8087250651
 51
45.0
  0
ARC
  5
185
330
1F
100
AcDbEntity
  8
0
  6
HIDDEN
 62
     7
370
     0
100
AcDbCircle
 10
154.4806813229
 20
134.6854175368
 30
0.0
 40
1.00000000000003
100
AcDbArc
 50
307.8947985336
 51
351.8087250651
  0
LINE
  5
186
330
1F
100
AcDbEntity
  8
0
  6
HIDDEN
 62
     7
370
     0
100
AcDbLine
 10
155.4806813229
 20
97.1854175368
 30
0.0
 11
155.4806813229
 21
134.6854175368
 31
0.0
  0
LINE
  5
187
330
1F
100
AcDbEntity
  8
0
  6
HIDDEN
 62
     7
370
     0
100
AcDbLine
 10
155.4806813229
 20
97.1854175368
 30
0.0
 11
155.4806813229
 21
134.6854175368
 31
0.0
  0
LINE
  5
188
330
1F
100
AcDbEntity
  8
0
  6
HIDDEN
 62
     7
370
     0
100
AcDbLine
 10
227.1948948853
 20
117.2483359844
 30
0.0
 11
227.1948948853
 21
118.9296888054
 31
0.0
  0
LINE
  5
189
330
1F
100
AcDbEntity
  8
0
  6
HIDDEN
 62
     7
370
     0
100
AcDbLine
 10
222.9948948853
 20
119.9526384637
 30
0.0
 11
222.9948948853
 21
117.2476810488
 31
0.0
  0
LINE
  5
18A
330
1F
100
AcDbEntity
  8
0
  6
HIDDEN
 62
     7
370
     0
100
AcDbLine
 10
234.2146571853
 20
126.1759301763
 30
0.0
 11
224.8753823562
 21
121.6394639464
 31
0.0
  0
LINE
  5
18B
330
1F
100
AcDbEntity
  8
0
  6
HIDDEN
 62
     7
370
     0
100
AcDbLine
 10
226.7869318393
 20
118.1210605542
 30
0.0
 11
234.3678699217
 21
121.8034309985
 31
0.0
  0
LINE
  5
18C
330
1F
100
AcDbEntity
  8
0
  6
HIDDEN
 62
     7
370
     0
100
AcDbLine
 10
131.5948948853
 20
103.9354175368
 30
0.0
 11
132.6016143974
 21
103.9354175368
 31
0.0
  0
LINE
  5
18D
330
1F
100
AcDbEntity
  8
0
  6
HIDDEN
 62
     7
370
     0
100
AcDbLine
 10
132.6016143974
 20
127.9354175368
 30
0.0
 11
131.5948948853
 21
127.9354175368
 31
0.0
  0
ARC
  5
18E
330
1F
100
AcDbEntity
  8
0
  6
HIDDEN
 62
     7
370
     0
100
AcDbCircle
 10
132.6016143974
 20
105.4354175368
 30
0.0
 40
1.500000000000022
100
AcDbArc
 50
270.0
 51
315.0
  0
ARC
  5
18F
330
1F
100
AcDbEntity
  8
0
  6
HIDDEN
 62
     7
370
     0
100
AcDbCircle
 10
132.6016143974
 20
126.4354175368
 30
0.0
 40
1.500000000000012
100
AcDbArc
 50
45.0
 51
90.0
  0
ARC
  5
190
330
1F
100
AcDbEntity
  8
0
  6
HIDDEN
 62
     7
370
     0
100
AcDbCircle
 10
131.5948948853
 20
105.4354175368
 30
0.0
 40
1.50000000000002
100
AcDbArc
 50
191.0958032831
 51
270.0
  0
ARC
  5
191
330
1F
100
AcDbEntity
  8
0
  6
HIDDEN
 62
     7
370
     0
100
AcDbCircle
 10
131.5948948853
 20
126.4354175368
 30
0.0
 40
1.50000000000002
100
AcDbArc
 50
90.0
 51
168.9041967169
  0
LINE
  5
192
330
1F
100
AcDbEntity
  8
0
  6
HIDDEN
 62
     7
370
     0
100
AcDbLine
 10
125.0948948853
 20
104.1720054683
 30
0.0
 11
126.1229347409
 21
104.7655445557
 31
0.0
  0
LINE
  5
193
330
1F
100
AcDbEntity
  8
0
  6
HIDDEN
 62
     7
370
     0
100
AcDbLine
 10
126.1229347409
 20
127.1052905179
 30
0.0
 11
125.0948948853
 21
127.6988296052
 31
0.0
  0
LINE
  5
194
330
1F
100
AcDbEntity
  8
0
  6
HIDDEN
 62
     7
370
     0
100
AcDbLine
 10
133.6622745691
 20
104.374757365
 30
0.0
 11
134.7229347409
 21
105.4354175368
 31
0.0
  0
LINE
  5
195
330
1F
100
AcDbEntity
  8
0
  6
HIDDEN
 62
     7
370
     0
100
AcDbLine
 10
134.7229347409
 20
126.4354175368
 30
0.0
 11
133.6622745691
 21
127.4960777086
 31
0.0
  0
LINE
  5
196
330
1F
100
AcDbEntity
  8
0
  6
HIDDEN
 62
     7
370
     0
100
AcDbLine
 10
126.1229347409
 20
104.7655445557
 30
0.0
 11
128.6229347409
 21
105.4354175368
 31
0.0
  0
LINE
  5
197
330
1F
100
AcDbEntity
  8
0
  6
HIDDEN
 62
     7
370
     0
100
AcDbLine
 10
128.6229347409
 20
126.4354175368
 30
0.0
 11
126.1229347409
 21
127.1052905179
 31
0.0
  0
LINE
  5
198
330
1F
100
AcDbEntity
  8
0
  6
HIDDEN
 62
     7
370
     0
100
AcDbLine
 10
130.1229347409
 20
126.7240926714
 30
0.0
 11
129.6229347409
 21
126.4354175368
 31
0.0
  0
LINE
  5
199
330
1F
100
AcDbEntity
  8
0
  6
HIDDEN
 62
     7
370
     0
100
AcDbLine
 10
129.6229347409
 20
105.4354175368
 30
0.0
 11
130.1229347409
 21
105.1467424022
 31
0.0
  0
LINE
  5
19A
330
1F
100
AcDbEntity
  8
0
  6
HIDDEN
 62
     7
370
     0
100
AcDbLine
 10
134.7229347409
 20
105.4354175368
 30
0.0
 11
144.5948948853
 21
105.4354175368
 31
0.0
  0
LINE
  5
19B
330
1F
100
AcDbEntity
  8
0
  6
HIDDEN
 62
     7
370
     0
100
AcDbLine
 10
144.5948948853
 20
126.4354175368
 30
0.0
 11
134.7229347409
 21
126.4354175368
 31
0.0
  0
LINE
  5
19C
330
1F
100
AcDbEntity
  8
0
  6
HIDDEN
 62
     7
370
     0
100
AcDbLine
 10
128.6229347409
 20
105.4354175368
 30
0.0
 11
129.6229347409
 21
105.4354175368
 31
0.0
  0
LINE
  5
19D
330
1F
100
AcDbEntity
  8
0
  6
HIDDEN
 62
     7
370
     0
100
AcDbLine
 10
129.6229347409
 20
126.4354175368
 30
0.0
 11
128.6229347409
 21
126.4354175368
 31
0.0
  0
ARC
  5
19E
330
1F
100
AcDbEntity
  8
0
  6
HIDDEN
 62
     7
370
     0
100
AcDbCircle
 10
144.5948948853
 20
105.9354175368
 30
0.0
 40
0.5
100
AcDbArc
 50
270.0
 51
0.0
  0
ARC
  5
19F
330
1F
100
AcDbEntity
  8
0
  6
HIDDEN
 62
     7
370
     0
100
AcDbCircle
 10
144.5948948853
 20
125.9354175368
 30
0.0
 40
0.5
100
AcDbArc
 50
0.0
 51
90.0
  0
LINE
  5
1A0
330
1F
100
AcDbEntity
  8
0
  6
HIDDEN
 62
     7
370
     0
100
AcDbLine
 10
145.0948948853
 20
107.6854175368
 30
0.0
 11
146.0948948853
 21
108.6854175368
 31
0.0
  0
LINE
  5
1A1
330
1F
100
AcDbEntity
  8
0
  6
HIDDEN
 62
     7
370
     0
100
AcDbLine
 10
146.0948948853
 20
123.1854175368
 30
0.0
 11
145.0948948853
 21
124.1854175368
 31
0.0
  0
LINE
  5
1A2
330
1F
100
AcDbEntity
  8
0
  6
HIDDEN
 62
     7
370
     0
100
AcDbLine
 10
146.0948948853
 20
108.6854175368
 30
0.0
 11
170.0948948853
 21
108.6854175368
 31
0.0
  0
LINE
  5
1A3
330
1F
100
AcDbEntity
  8
0
  6
HIDDEN
 62
     7
370
     0
100
AcDbLine
 10
170.0948948853
 20
123.1854175368
 30
0.0
 11
146.0948948853
 21
123.1854175368
 31
0.0
  0
LINE
  5
1A4
330
1F
100
AcDbEntity
  8
0
  6
HIDDEN
 62
     7
370
     0
100
AcDbLine
 10
170.0948948853
 20
108.6854175368
 30
0.0
 11
171.8974767424
 21
111.6854175368
 31
0.0
  0
LINE
  5
1A5
330
1F
100
AcDbEntity
  8
0
  6
HIDDEN
 62
     7
370
     0
100
AcDbLine
 10
171.8974767424
 20
120.1854175368
 30
0.0
 11
170.0948948853
 21
123.1854175368
 31
0.0
  0
LINE
  5
1A6
330
1F
100
AcDbEntity
  8
0
  6
HIDDEN
 62
     7
370
     0
100
AcDbLine
 10
252.4642741789
 20
112.1749344545
 30
0.0
 11
252.8906873376
 21
113.0184426214
 31
0.0
  0
LINE
  5
1A7
330
1F
100
AcDbEntity
  8
0
  6
HIDDEN
 62
     7
370
     0
100
AcDbLine
 10
246.643560133
 20
116.1765119192
 30
0.0
 11
246.2171469743
 21
115.3330037524
 31
0.0
  0
LINE
  5
1A8
330
1F
100
AcDbEntity
  8
0
  6
HIDDEN
 62
     7
370
     0
100
AcDbLine
 10
243.3492920664
 20
122.2050223675
 30
0.0
 11
242.385539635
 21
120.2985778078
 31
0.0
  0
LINE
  5
1A9
330
1F
100
AcDbEntity
  8
0
  6
HIDDEN
 62
     7
370
     0
100
AcDbLine
 10
171.8974767424
 20
111.6854175368
 30
0.0
 11
228.0948948853
 21
111.6854175368
 31
0.0
  0
LINE
  5
1AA
330
1F
100
AcDbEntity
  8
0
  6
HIDDEN
 62
     7
370
     0
100
AcDbLine
 10
228.0948948853
 20
120.1854175368
 30
0.0
 11
171.8974767424
 21
120.1854175368
 31
0.0
  0
LINE
  5
1AB
330
1F
100
AcDbEntity
  8
0
  6
HIDDEN
 62
     7
370
     0
100
AcDbLine
 10
228.0948948853
 20
111.6854175368
 30
0.0
 11
230.6485525162
 21
115.9354175368
 31
0.0
  0
LINE
  5
1AC
330
1F
100
AcDbEntity
  8
0
  6
HIDDEN
 62
     7
370
     0
100
AcDbLine
 10
230.6485525162
 20
115.9354175368
 30
0.0
 11
228.0948948853
 21
120.1854175368
 31
0.0
  0
LINE
  5
1AD
330
1F
100
AcDbEntity
  8
0
  6
HIDDEN
 62
     7
370
     0
100
AcDbLine
 10
252.2074060321
 20
114.4284584023
 30
0.0
 11
255.4013306076
 21
121.6928356936
 31
0.0
  0
LINE
  5
1AE
330
1F
100
AcDbEntity
  8
0
  6
HIDDEN
 62
     7
370
     0
100
AcDbLine
 10
251.3188461577
 20
108.3575278638
 30
0.0
 11
253.0450219733
 21
111.7721584119
 31
0.0
  0
LINE
  5
1AF
330
1F
100
AcDbEntity
  8
0
  6
HIDDEN
 62
     7
370
     0
100
AcDbLine
 10
245.5484693278
 20
115.5618415693
 30
0.0
 11
243.6792836413
 21
111.8643163881
 31
0.0
  0
LINE
  5
1B0
330
1F
100
AcDbEntity
  8
0
  6
HIDDEN
 62
     7
370
     0
100
AcDbLine
 10
227.1948948853
 20
112.845247593
 30
0.0
 11
227.1948948853
 21
114.6231540247
 31
0.0
  0
LINE
  5
1B1
330
1F
100
AcDbEntity
  8
0
  6
HIDDEN
 62
     7
370
     0
100
AcDbLine
 10
222.9948948853
 20
114.6224990892
 30
0.0
 11
222.9948948853
 21
112.845247593
 31
0.0
  0
LINE
  5
1B2
330
1F
100
AcDbEntity
  8
0
  6
HIDDEN
 62
     7
370
     0
100
AcDbLine
 10
251.7913120418
 20
128.1422896319
 30
0.0
 11
251.1850469548
 21
126.9430078047
 31
0.0
  0
LINE
  5
1B3
330
1F
100
AcDbEntity
  8
0
  6
HIDDEN
 62
     7
370
     0
100
AcDbLine
 10
256.8967061133
 20
124.0556301609
 30
0.0
 11
257.5029712002
 21
125.2549119881
 31
0.0
  0
LINE
  5
1B4
330
1F
100
AcDbEntity
  8
0
  6
HIDDEN
 62
     7
370
     0
100
AcDbLine
 10
251.3234259671
 20
125.3391833253
 30
0.0
 11
248.8446841634
 21
119.7014435338
 31
0.0
  0
LINE
  5
1B5
330
1F
100
AcDbEntity
  8
0
  6
HIDDEN
 62
     7
370
     0
100
AcDbLine
 10
227.5948948853
 20
110.9911828993
 30
0.0
 11
227.5948948853
 21
112.8002583979
 31
0.0
  0
LINE
  5
1B6
330
1F
100
AcDbEntity
  8
0
  6
HIDDEN
 62
     7
370
     0
100
AcDbLine
 10
222.5948948853
 20
112.8002583979
 30
0.0
 11
222.5948948853
 21
110.9913566566
 31
0.0
  0
LINE
  5
1B7
330
1F
100
AcDbEntity
  8
VERMASSUNG
  6
CENTERX2
100
AcDbLine
 10
121.5039151393
 20
115.9354175368
 30
0.0
 11
265.0948948853
 21
115.9354175368
 31
0.0
  0
LINE
  5
1B8
330
1F
100
AcDbEntity
  8
VERMASSUNG
  6
CENTERX2
100
AcDbLine
 10
265.0948948853
 20
115.9354175368
 30
0.0
 11
265.0948948853
 21
137.9354175368
 31
0.0
  0
LINE
  5
1B9
330
1F
100
AcDbEntity
  8
VERMASSUNG
  6
CENTERX2
100
AcDbLine
 10
265.0948948853
 20
137.9354175368
 30
0.0
 11
284.8605976211
 21
137.9354175368
 31
0.0
  0
DIMENSION
  5
1BA
330
1F
100
AcDbEntity
  8
VERMASSUNG
100
AcDbDimension
  2
_D
 10
265.0948948853
 20
149.5821880436
 30
0.0
 11
210.0948948853
 21
149.5821880436
 31
0.0
 70
   160
  1
<>
 71
     2
 42
-1.0
  3
SLDDIMSTYLE0
100
AcDbAlignedDimension
 13
155.0948948853
 23
140.6354175368
 33
0.0
 14
265.0948948853
 24
137.9354175368
 34
0.0
100
AcDbRotatedDimension
  0
DIMENSION
  5
1C5
330
1F
100
AcDbEntity
  8
VERMASSUNG
100
AcDbDimension
  2
_D_1
 10
125.0948948853
 20
158.3927577069
 30
0.0
 11
195.0948948853
 21
158.3927577069
 31
0.0
 70
   160
  1
<>
 71
     2
 42
-1.0
  3
SLDDIMSTYLE0
100
AcDbAlignedDimension
 13
265.0948948853
 23
137.9354175368
 33
0.0
 14
125.0948948853
 24
131.928743375
 34
0.0
 50
0.0
100
AcDbRotatedDimension
  0
DIMENSION
  5
1CF
330
1F
100
AcDbEntity
  8
VERMASSUNG
100
AcDbDimension
  2
_D_2
 10
283.6441959298
 20
137.9354175368
 30
0.0
 11
283.6441959298
 21
126.9354175368
 31
0.0
 70
   160
  1
<>
 71
     2
 42
-1.0
  3
SLDDIMSTYLE0
100
AcDbAlignedDimension
 13
265.0948948853
 23
115.9354175368
 33
0.0
 14
265.0948948853
 24
137.9354175368
 34
0.0
 50
90.0
100
AcDbRotatedDimension
  0
DIMENSION
  5
1D9
330
1F
100
AcDbEntity
  8
VERMASSUNG
100
AcDbDimension
  2
_D_3
 10
265.0948948853
 20
137.9354175368
 30
0.0
 11
271.770628526
 21
129.0273490128
 31
0.0
 70
   162
  1
<>
 71
     1
 42
-1.0
  3
SLDDIMSTYLE1
100
AcDb2LineAngularDimension
 13
265.0782986718
 23
137.4225986449
 33
0.0
 14
260.8235561201
 24
123.9359677603
 34
0.0
 15
284.8605976211
 25
137.9354175368
 35
0.0
 16
271.770628526
 26
129.0273490128
 36
0.0
  0
DIMENSION
  5
1E2
330
1F
100
AcDbEntity
  8
VERMASSUNG
100
AcDbDimension
  2
_D_4
 10
117.907456123
 20
90.9354175368
 30
0.0
 11
117.907456123
 21
115.9354175368
 31
0.0
 70
   160
  1
PSC%%c<>
 71
     2
 42
-1.0
  3
SLDDIMSTYLE0
100
AcDbAlignedDimension
 13
155.3948948853
 23
140.9354175368
 33
0.0
 14
155.3948948853
 24
90.9354175368
 34
0.0
 50
90.0
100
AcDbRotatedDimension
  0
DIMENSION
  5
1EE
330
1F
100
AcDbEntity
  8
VERMASSUNG
100
AcDbDimension
  2
_D_5
 10
193.0056950113
 20
131.9354175368
 30
0.0
 11
193.0056950113
 21
124.4103996074
 31
0.0
 70
   160
  1
%%c<>
 71
     2
 42
-1.0
  3
SLDDIMSTYLE0
100
AcDbAlignedDimension
 13
179.0948948853
 23
99.9354175368
 33
0.0
 14
179.0948948853
 24
131.9354175368
 34
0.0
 50
90.0
100
AcDbRotatedDimension
  0
LINE
  5
1F7
330
1F
100
AcDbEntity
  8
0
  6
Continuous
 62
     7
370
    15
100
AcDbLine
 10
65.6422944493
 20
118.2706465027
 30
0.0
 11
65.4030789446
 21
118.1134127924
 31
0.0
  0
LINE
  5
1F8
330
1F
100
AcDbEntity
  8
0
  6
Continuous
 62
     7
370
    15
100
AcDbLine
 10
63.9557581621
 20
111.304303861
 30
0.0
 11
64.1103396884
 21
111.0633660079
 31
0.0
  0
LINE
  5
1F9
330
1F
100
AcDbEntity
  8
0
  6
Continuous
 62
     7
370
    15
100
AcDbLine
 10
79.7541788585
 20
135.731032367
 30
0.0
 11
77.0860448836
 21
136.2981617508
 31
0.0
  0
LINE
  5
1FA
330
1F
100
AcDbEntity
  8
0
  6
Continuous
 62
     7
370
    15
100
AcDbLine
 10
79.9903584215
 20
135.3701649024
 30
0.0
 11
79.7637735849
 21
135.7233304159
 31
0.0
  0
LINE
  5
1FB
330
1F
100
AcDbEntity
  8
0
  6
Continuous
 62
     7
370
    15
100
AcDbLine
 10
77.113402251
 20
136.6243818757
 30
0.0
 11
70.936190794
 21
137.9373887037
 31
0.0
  0
LINE
  5
1FC
330
1F
100
AcDbEntity
  8
0
  6
Continuous
 62
     7
370
    15
100
AcDbLine
 10
70.2820429292
 20
135.2037699179
 30
0.0
 11
69.7917159687
 21
134.6485564042
 31
0.0
  0
LINE
  5
1FD
330
1F
100
AcDbEntity
  8
0
  6
Continuous
 62
     7
370
    15
100
AcDbLine
 10
66.2126441303
 20
122.9044188489
 30
0.0
 11
66.4751866737
 21
122.0691363806
 31
0.0
  0
LINE
  5
1FE
330
1F
100
AcDbEntity
  8
0
  6
Continuous
 62
     7
370
    15
100
AcDbLine
 10
65.105395599
 20
119.6076738564
 30
0.0
 11
65.4133912848
 21
119.5422073524
 31
0.0
  0
LINE
  5
1FF
330
1F
100
AcDbEntity
  8
0
  6
Continuous
 62
     7
370
    15
100
AcDbLine
 10
68.5666002141
 20
130.3430524096
 30
0.0
 11
68.253094345
 21
130.3938915088
 31
0.0
  0
LINE
  5
200
330
1F
100
AcDbEntity
  8
0
  6
Continuous
 62
     7
370
    15
100
AcDbLine
 10
67.2767562043
 20
125.7908209082
 30
0.0
 11
67.3543203917
 21
125.7782428553
 31
0.0
  0
LINE
  5
201
330
1F
100
AcDbEntity
  8
0
  6
Continuous
 62
     7
370
    15
100
AcDbLine
 10
87.488684687
 20
121.6354175368
 30
0.0
 11
87.488684687
 21
115.9354175368
 31
0.0
  0
ARC
  5
202
330
1F
100
AcDbEntity
  8
0
  6
Continuous
 62
     7
370
    15
100
AcDbCircle
 10
70.988684687
 20
115.9354175368
 30
0.0
 40
16.50000000000002
100
AcDbArc
 50
238.5338854986
 51
0.0
  0
LINE
  5
203
330
1F
100
AcDbEntity
  8
0
  6
Continuous
 62
     7
370
    15
100
AcDbLine
 10
62.3757802146
 20
101.8617585758
 30
0.0
 11
67.7190107159
 21
123.5420671023
 31
0.0
  0
LINE
  5
204
330
1F
100
AcDbEntity
  8
0
  6
Continuous
 62
     7
370
    15
100
AcDbLine
 10
67.7190107159
 20
123.5420671023
 30
0.0
 11
76.6881271938
 21
121.6356225426
 31
0.0
  0
LINE
  5
205
330
1F
100
AcDbEntity
  8
0
  6
Continuous
 62
     7
370
    15
100
AcDbLine
 10
76.6881271938
 20
121.6356225426
 30
0.0
 11
76.7888217181
 21
122.0441934161
 31
0.0
  0
LINE
  5
206
330
1F
100
AcDbEntity
  8
0
  6
Continuous
 62
     7
370
    15
100
AcDbLine
 10
81.9219774003
 20
134.2163482549
 30
0.0
 11
79.9031862083
 21
134.6454555694
 31
0.0
  0
ARC
  5
207
330
1F
100
AcDbEntity
  8
0
  6
Continuous
 62
     7
370
    15
100
AcDbCircle
 10
70.488684687
 20
121.6354175368
 30
0.0
 40
17.0
100
AcDbArc
 50
0.0
 51
47.7360794787
  0
LINE
  5
208
330
1F
100
AcDbEntity
  8
0
  6
Continuous
 62
     7
370
    15
100
AcDbLine
 10
80.000204087
 20
135.2880756905
 30
0.0
 11
80.8598358305
 21
135.1053553228
 31
0.0
  0
ARC
  5
209
330
1F
100
AcDbEntity
  8
0
  6
Continuous
 62
     7
370
    15
100
AcDbCircle
 10
70.488684687
 20
121.6354175368
 30
0.0
 40
16.99999999999999
100
AcDbArc
 50
47.7360794787
 51
52.405600688
  0
LWPOLYLINE
  5
20A
330
1F
100
AcDbEntity
  8
0
  6
Continuous
 62
     7
370
    15
100
AcDbPolyline
 90
        5
 70
   128
 43
0.0
 10
65.2672147669
 20
119.2886158176
 10
65.1860537032
 20
119.2030021576
 10
65.1397941612
 20
119.2838399235
 10
65.1321838136
 20
119.5245801203
 10
65.1360543587
 20
119.6011571359
  0
ARC
  5
20B
330
1F
100
AcDbEntity
  8
0
  6
Continuous
 62
     7
370
    15
100
AcDbCircle
 10
78.3711965996
 20
118.5486499676
 30
0.0
 40
13.27025193943508
100
AcDbArc
 50
159.866942664
 51
172.4431693754
  0
ARC
  5
20C
330
1F
100
AcDbEntity
  8
0
  6
Continuous
 62
     7
370
    15
100
AcDbCircle
 10
70.988684687
 20
115.9354175368
 30
0.0
 40
16.50000000000002
100
AcDbArc
 50
233.0790503467
 51
238.5338854986
  0
SPLINE
  5
20D
330
1F
100
AcDbEntity
  8
0
  6
Continuous
 62
     7
370
    15
100
AcDbSpline
210
0.0
220
0.0
230
1.0
 70
     8
 71
     3
 72
     8
 73
     4
 74
     0
 42
0.00000001
 43
0.00000001
 12
1.0
 22
0.0
 32
0.0
 13
1.0
 23
0.0
 33
0.0
 40
0.0
 40
0.0
 40
0.0
 40
0.0
 40
1.0
 40
1.0
 40
1.0
 40
1.0
 10
61.07692708034789
 20
102.744243929169
 30
0.0
 10
61.08636843239623
 20
102.8236012057574
 30
0.0
 10
61.09583264538495
 20
102.9030264952385
 30
0.0
 10
61.10532068470655
 20
102.9825226697224
 30
0.0
  0
SPLINE
  5
20E
330
1F
100
AcDbEntity
  8
0
  6
Continuous
 62
     7
370
    15
100
AcDbSpline
210
0.0
220
0.0
230
1.0
 70
     8
 71
     3
 72
    10
 73
     6
 74
     0
 42
0.00000001
 43
0.00000001
 12
1.0
 22
0.0
 32
0.0
 13
1.0
 23
0.0
 33
0.0
 40
0.0
 40
0.0
 40
0.0
 40
0.0
 40
0.5
 40
0.5
 40
1.0
 40
1.0
 40
1.0
 40
1.0
 10
61.10532068470655
 20
102.9825226697224
 30
0.0
 10
61.11767995169949
 20
103.0860756180253
 30
0.0
 10
61.12463558652831
 20
103.1727884359263
 30
0.0
 10
61.12597383611013
 20
103.3011448667356
 30
0.0
 10
61.12029524112784
 20
103.3411669806454
 30
0.0
 10
61.10767832631429
 20
103.3510735610572
 30
0.0
  0
ARC
  5
20F
330
1F
100
AcDbEntity
  8
0
  6
Continuous
 62
     7
370
    15
100
AcDbCircle
 10
70.988684687
 20
115.9354175368
 30
0.0
 40
16.00000000000001
100
AcDbArc
 50
231.2161674873
 51
231.8616180582
  0
ARC
  5
210
330
1F
100
AcDbEntity
  8
0
  6
Continuous
 62
     7
370
    15
100
AcDbCircle
 10
70.988684687
 20
115.9354175368
 30
0.0
 40
16.0
100
AcDbArc
 50
104.1383819418
 51
104.7838325127
  0
SPLINE
  5
211
330
1F
100
AcDbEntity
  8
0
  6
Continuous
 62
     7
370
    15
100
AcDbSpline
210
0.0
220
0.0
230
1.0
 70
     8
 71
     3
 72
     8
 73
     4
 74
     0
 42
0.00000001
 43
0.00000001
 12
1.0
 22
0.0
 32
0.0
 13
1.0
 23
0.0
 33
0.0
 40
0.0
 40
0.0
 40
0.0
 40
0.0
 40
1.0
 40
1.0
 40
1.0
 40
1.0
 10
67.08045003326065
 20
131.4507551705999
 30
0.0
 10
67.11151374769798
 20
131.4585799623063
 30
0.0
 10
67.16660782307123
 20
131.5893559728341
 30
0.0
 10
67.22819937282311
 20
131.7884021025211
 30
0.0
  0
SPLINE
  5
212
330
1F
100
AcDbEntity
  8
0
  6
Continuous
 62
     7
370
    15
100
AcDbSpline
210
0.0
220
0.0
230
1.0
 70
     8
 71
     3
 72
     8
 73
     4
 74
     0
 42
0.00000001
 43
0.00000001
 12
1.0
 22
0.0
 32
0.0
 13
1.0
 23
0.0
 33
0.0
 40
0.0
 40
0.0
 40
0.0
 40
0.0
 40
1.0
 40
1.0
 40
1.0
 40
1.0
 10
67.2281993728232
 20
131.7884021025218
 30
0.0
 10
67.40496356152
 20
132.3596529927675
 30
0.0
 10
67.58133701008755
 20
132.9267864959506
 30
0.0
 10
67.75742042280952
 20
133.4908637739123
 30
0.0
  0
LINE
  5
213
330
1F
100
AcDbEntity
  8
0
  6
Continuous
 62
     7
370
    15
100
AcDbLine
 10
68.3162760444
 20
133.3720753445
 30
0.0
 11
67.7574204228
 21
133.4908637739
 31
0.0
  0
ARC
  5
214
330
1F
100
AcDbEntity
  8
0
  6
Continuous
 62
     7
370
    15
100
AcDbCircle
 10
68.3779732398
 20
133.6779111689
 30
0.0
 40
0.3119969477745549
100
AcDbArc
 50
258.594621762
 51
281.3534316649
  0
LWPOLYLINE
  5
215
330
1F
100
AcDbEntity
  8
0
  6
Continuous
 62
     7
370
    15
100
AcDbPolyline
 90
       32
 70
   128
 43
0.0
 10
65.5486773855
 20
118.6134540376
 10
65.6139800047
 20
118.5158640493
 10
65.6425614109
 20
118.2620874957
 10
65.6332514778
 20
117.8625140188
 10
65.5864313553
 20
117.3335022037
 10
65.5040178646
 20
116.6967098563
 10
65.3893850237
 20
115.9782073301
 10
65.2472259146
 20
115.2074102029
 10
65.083360548
 20
114.4158749996
 10
64.9044975911
 20
113.6360072646
 10
64.7179597145
 20
112.8997348745
 10
64.5313838008
 20
112.2372009075
 10
64.3524082897
 20
111.6755295819
 10
64.1883604598
 20
111.237715788
 10
64.0459564485
 20
110.9416836738
 10
63.9310262926
 20
110.7995528289
 10
63.8482752464
 20
110.8171421068
 10
63.8010911473
 20
110.9937314003
 10
63.791405718
 20
111.3220911231
 10
63.819615481
 20
111.7887781895
 10
63.8845655253
 20
112.3746863761
 10
63.9835967884
 20
113.0558285331
 10
64.112654919
 20
113.8043186204
 10
64.2664562618
 20
114.5895133659
 10
64.4387041718
 20
115.3792668045
 10
64.6223467995
 20
116.1412463377
 10
64.809865794
 20
116.8442564337
 10
64.9935841056
 20
117.4595157767
 10
65.1659802851
 20
117.9618355769
 10
65.3199964127
 20
118.3306508026
 10
65.44932705
 20
118.5508621152
 10
65.5486773855
 20
118.6134540376
  0
LINE
  5
216
330
1F
100
AcDbEntity
  8
0
  6
Continuous
 62
     7
370
    15
100
AcDbLine
 10
67.7190107159
 20
123.5420671023
 30
0.0
 11
65.2672147669
 21
119.2886158176
 31
0.0
  0
SPLINE
  5
217
330
1F
100
AcDbEntity
  8
0
  6
Continuous
 62
     7
370
    15
100
AcDbSpline
210
0.0
220
0.0
230
1.0
 70
     8
 71
     3
 72
    26
 73
    22
 74
     0
 42
0.00000001
 43
0.00000001
 12
1.0
 22
0.0
 32
0.0
 13
1.0
 23
0.0
 33
0.0
 40
0.0
 40
0.0
 40
0.0
 40
0.0
 40
0.1249999999999979
 40
0.1249999999999979
 40
0.2499999999999958
 40
0.2499999999999958
 40
0.3124999999999962
 40
0.3124999999999962
 40
0.3749999999999966
 40
0.3749999999999966
 40
0.4374999999999969
 40
0.4374999999999969
 40
0.4999999999999973
 40
0.4999999999999973
 40
0.6249999999999981
 40
0.6249999999999981
 40
0.7499999999999989
 40
0.7499999999999989
 40
0.8749999999999997
 40
0.8749999999999997
 40
1.0
 40
1.0
 40
1.0
 40
1.0
 10
63.47849929772824
 20
125.8966141767111
 30
0.0
 10
63.64296182472796
 20
125.7846236366478
 30
0.0
 10
63.78581163492317
 20
125.6560706754041
 30
0.0
 10
64.0264214748451
 20
125.3568964382002
 30
0.0
 10
64.11923499307684
 20
125.1914705726082
 30
0.0
 10
64.21004803843387
 20
124.9163619109922
 30
0.0
 10
64.23205168669828
 20
124.8195712241739
 30
0.0
 10
64.25761179244405
 20
124.6248721793672
 30
0.0
 10
64.26162781932848
 20
124.5257998051231
 30
0.0
 10
64.25311381913711
 20
124.3239779747246
 30
0.0
 10
64.24041332513342
 20
124.2216430977276
 30
0.0
 10
64.20159795242921
 20
124.0220179830204
 30
0.0
 10
64.17539385009957
 20
123.9233722810704
 30
0.0
 10
64.07998532813983
 20
123.6322682482307
 30
0.0
 10
63.99688990993625
 20
123.4509796151708
 30
0.0
 10
63.80155800976473
 20
123.1057994463338
 30
0.0
 10
63.68844391430949
 20
122.9417849591656
 30
0.0
 10
63.44054696020434
 20
122.640535155059
 30
0.0
 10
63.30495564417608
 20
122.5016209193677
 30
0.0
 10
63.00473374184344
 20
122.2498147861539
 30
0.0
 10
62.83964003083431
 20
122.136910835466
 30
0.0
 10
62.66026144449248
 20
122.0471077356629
 30
0.0
  0
SPLINE
  5
218
330
1F
100
AcDbEntity
  8
0
  6
Continuous
 62
     7
370
    15
100
AcDbSpline
210
0.0
220
0.0
230
1.0
 70
     8
 71
     3
 72
    14
 73
    10
 74
     0
 42
0.00000001
 43
0.00000001
 12
1.0
 22
0.0
 32
0.0
 13
1.0
 23
0.0
 33
0.0
 40
0.0
 40
0.0
 40
0.0
 40
0.0
 40
0.25
 40
0.25
 40
0.5
 40
0.5
 40
0.75
 40
0.75
 40
1.0
 40
1.0
 40
1.0
 40
1.0
 10
60.96654267036987
 20
103.4631815945875
 30
0.0
 10
60.93656536679889
 20
103.4872700415233
 30
0.0
 10
60.86143323769255
 20
103.5474675789362
 30
0.0
 10
60.6308271538664
 20
103.7396267301598
 30
0.0
 10
60.47993327172726
 20
103.8680092695748
 30
0.0
 10
60.12703348325031
 20
104.1846417443704
 30
0.0
 10
59.93004988398358
 20
104.3685629433767
 30
0.0
 10
59.51473245944065
 20
104.7804209356557
 30
0.0
 10
59.30212765220249
 20
105.0025759322591
 30
0.0
 10
59.08798527282993
 20
105.2408696990856
 30
0.0
  0
SPLINE
  5
219
330
1F
100
AcDbEntity
  8
0
  6
Continuous
 62
     7
370
    15
100
AcDbSpline
210
0.0
220
0.0
230
1.0
 70
     8
 71
     3
 72
    18
 73
    14
 74
     0
 42
0.00000001
 43
0.00000001
 12
1.0
 22
0.0
 32
0.0
 13
1.0
 23
0.0
 33
0.0
 40
0.0
 40
0.0
 40
0.0
 40
0.0
 40
0.2499999999999907
 40
0.2499999999999907
 40
0.3749999999999885
 40
0.3749999999999885
 40
0.4999999999999862
 40
0.4999999999999862
 40
0.7499999999999883
 40
0.7499999999999883
 40
0.8749999999999942
 40
0.8749999999999942
 40
1.0
 40
1.0
 40
1.0
 40
1.0
 10
64.46671928113837
 20
130.545823665451
 30
0.0
 10
64.75968558589997
 20
130.6766014198762
 30
0.0
 10
65.04386812639659
 20
130.7928726654387
 30
0.0
 10
65.45234212822506
 20
130.9477496434766
 30
0.0
 10
65.5863436316171
 20
130.9963781104043
 30
0.0
 10
65.83840827008295
 20
131.0844265838531
 30
0.0
 10
65.95740939311702
 20
131.1242283957954
 30
0.0
 10
66.29161579378219
 20
131.2322266611482
 30
0.0
 10
66.48647940962424
 20
131.289642641154
 30
0.0
 10
66.70094189711286
 20
131.3503707315419
 30
0.0
 10
66.76049221462915
 20
131.3667081893338
 30
0.0
 10
66.85393257813936
 20
131.3920073218939
 30
0.0
 10
66.88727369657924
 20
131.4008240848891
 30
0.0
 10
66.90591775064124
 20
131.40574442872
 30
0.0
  0
ELLIPSE
  5
21A
330
1F
100
AcDbEntity
  8
0
  6
Continuous
 62
     7
370
    15
100
AcDbEllipse
 10
62.0430518631
 20
123.9896805874
 30
0.0
 11
1.614316171349245
 21
1.765473475606057
 31
0.0
210
0.0
220
0.0
230
1.0
 40
0.8157680509
 41
0.1168214343412163
 42
4.273243453083539
  0
ARC
  5
21B
330
1F
100
AcDbEntity
  8
0
  6
Continuous
 62
     7
370
    15
100
AcDbCircle
 10
70.988684687
 20
115.9354175368
 30
0.0
 40
16.0
100
AcDbArc
 50
114.0555924159
 51
221.9444075841
  0
CIRCLE
  5
21C
330
1F
100
AcDbEntity
  8
0
  6
Continuous
 62
     7
370
    15
100
AcDbCircle
 10
70.988684687
 20
115.9354175368
 30
0.0
 40
25.0
  0
LWPOLYLINE
  5
21D
330
1F
100
AcDbEntity
  8
0
  6
Continuous
 62
     7
370
    15
100
AcDbPolyline
 90
       30
 70
   128
 43
0.0
 10
65.4855752581
 20
118.0844148472
 10
65.5232231532
 20
117.8919986859
 10
65.5231743815
 20
117.5503685963
 10
65.4854312236
 20
117.0754988217
 10
65.4117585076
 20
116.489593745
 10
65.3056010877
 20
115.8200496363
 10
65.1719227671
 20
115.0981736341
 10
65.0169741953
 20
114.3577198579
 10
64.8480005955
 20
113.6333111033
 10
64.6729029852
 20
112.9588199186
 10
64.4998687341
 20
112.3657847619
 10
64.3369887316
 20
111.8819352981
 10
64.1918790656
 20
111.5298957902
 10
64.0713249026
 20
111.3261272145
 10
63.9809632214
 20
111.2801575631
 10
63.9250192338
 20
111.3941363257
 10
63.9061088185
 20
111.6627339821
 10
63.9251162054
 20
112.0733912045
 10
63.9811526303
 20
112.6069061174
 10
64.0715978922
 20
113.2383321566
 10
64.1922228712
 20
113.9381445422
 10
64.3373872774
 20
114.6736208249
 10
64.5003033844
 20
115.4103709511
 10
64.6733534162
 20
116.1139453038
 10
64.8484457456
 20
116.7514455281
 10
65.0173932499
 20
117.2930628222
 10
65.1722961315
 20
117.7134717632
 10
65.3059113039
 20
117.9930144965
 10
65.4119910701
 20
118.1186199144
 10
65.4855752581
 20
118.0844148472
  0
LWPOLYLINE
  5
21E
330
1F
100
AcDbEntity
  8
0
  6
Continuous
 62
     7
370
    15
100
AcDbPolyline
 90
       23
 70
   128
 43
0.0
 10
65.1561989855
 20
116.6343214705
 10
65.1800600904
 20
116.471145225
 10
65.1664093015
 20
116.1645512934
 10
65.1163525246
 20
115.7393780926
 10
65.033945062
 20
115.2300706267
 10
64.9258630762
 20
114.6778899576
 10
64.8008627269
 20
114.1275704792
 10
64.6690707991
 20
113.6236958028
 10
64.5411642909
 20
113.2070868579
 10
64.427505427
 20
112.9114948237
 10
64.3373021725
 20
112.7608668087
 10
64.2778622586
 20
112.767405799
 10
64.2540011537
 20
112.9305820444
 10
64.2676519426
 20
113.237175976
 10
64.3177087196
 20
113.6623491768
 10
64.4001161822
 20
114.1716566427
 10
64.508198168
 20
114.7238373118
 10
64.6331985172
 20
115.2741567902
 10
64.764990445
 20
115.7780314667
 10
64.8928969532
 20
116.1946404115
 10
65.0065558172
 20
116.4902324458
 10
65.0967590717
 20
116.6408604607
 10
65.1561989855
 20
116.6343214705
  0
LINE
  5
21F
330
1F
100
AcDbEntity
  8
0
  6
Continuous
 62
     7
370
    15
100
AcDbLine
 10
65.0051166347
 20
115.0779508112
 30
0.0
 11
64.8496580655
 21
114.906305199
 31
0.0
  0
LINE
  5
220
330
1F
100
AcDbEntity
  8
0
  6
Continuous
 62
     7
370
    15
100
AcDbLine
 10
64.96769328
 20
114.8812160396
 30
0.0
 11
64.8496580655
 21
114.906305199
 31
0.0
  0
LINE
  5
221
330
1F
100
AcDbEntity
  8
0
  6
Continuous
 62
     7
370
    15
100
AcDbLine
 10
73.7924402421
 20
122.9129281863
 30
0.0
 11
76.7811155749
 21
135.0395626791
 31
0.0
  0
LINE
  5
222
330
1F
100
AcDbEntity
  8
0
  6
Continuous
 62
     7
370
    15
100
AcDbLine
 10
73.5894602664
 20
122.2841434655
 30
0.0
 11
73.5944995953
 21
122.293193388
 31
0.0
  0
LINE
  5
223
330
1F
100
AcDbEntity
  8
0
  6
Continuous
 62
     7
370
    15
100
AcDbLine
 10
76.5940731549
 20
122.3174227273
 30
0.0
 11
79.5827484877
 21
134.4440572201
 31
0.0
  0
LINE
  5
224
330
1F
100
AcDbEntity
  8
0
  6
Continuous
 62
     7
370
    15
100
AcDbLine
 10
79.8636408534
 20
134.4746736653
 30
0.0
 11
76.8749655206
 21
122.3480391725
 31
0.0
  0
ARC
  5
225
330
1F
100
AcDbEntity
  8
0
  6
Continuous
 62
     7
370
    15
100
AcDbCircle
 10
76.8843003151
 20
135.4584067782
 30
0.0
 40
2.88279856490591
100
AcDbArc
 50
339.398705673
 51
5.4265577983
  0
ARC
  5
226
330
1F
100
AcDbEntity
  8
0
  6
Continuous
 62
     7
370
    15
100
AcDbCircle
 10
77.0266151013
 20
135.3328416974
 30
0.0
 40
2.963978321352176
100
AcDbArc
 50
343.1700308756
 51
0.7215027947
  0
ARC
  5
227
330
1F
100
AcDbEntity
  8
0
  6
Continuous
 62
     7
370
    15
100
AcDbCircle
 10
73.414007111
 20
122.9916441373
 30
0.0
 40
3.250752920997875
100
AcDbArc
 50
336.5437840906
 51
348.0296961975
  0
ARC
  5
228
330
1F
100
AcDbEntity
  8
0
  6
Continuous
 62
     7
370
    15
100
AcDbCircle
 10
74.7308234447
 20
122.7971881636
 30
0.0
 40
2.190680272921078
100
AcDbArc
 50
336.0495665456
 51
348.1689100562
  0
LINE
  5
229
330
1F
100
AcDbEntity
  8
0
  6
Continuous
 62
     7
370
    15
100
AcDbLine
 10
76.7328795377
 20
121.9078898679
 30
0.0
 11
76.5881832507
 21
121.6568662835
 31
0.0
  0
LINE
  5
22A
330
1F
100
AcDbEntity
  8
0
  6
Continuous
 62
     7
370
    15
100
AcDbLine
 10
65.121960813
 20
119.6238879899
 30
0.0
 11
67.4625727806
 21
123.684453872
 31
0.0
  0
LWPOLYLINE
  5
22B
330
1F
100
AcDbEntity
  8
0
  6
Continuous
 62
     7
370
    15
100
AcDbPolyline
 90
        9
 70
   128
 43
0.0
 10
65.1739677473
 20
120.1224639152
 10
65.149856814
 20
120.0178799687
 10
65.128606443
 20
119.9118956493
 10
65.1117872433
 20
119.812344229
 10
65.1006423174
 20
119.7265835262
 10
65.0959953837
 20
119.6609520909
 10
65.0981898959
 20
119.6203007245
 10
65.1070636581
 20
119.6076339584
 10
65.121960813
 20
119.6238879899
  0
LINE
  5
22C
330
1F
100
AcDbEntity
  8
0
  6
Continuous
 62
     7
370
    15
100
AcDbLine
 10
68.4978216221
 20
133.6090947998
 30
0.0
 11
65.1739677473
 21
120.1224639152
 31
0.0
  0
ARC
  5
22D
330
1F
100
AcDbEntity
  8
0
  6
Continuous
 62
     7
370
    15
100
AcDbCircle
 10
69.7230456655
 20
133.3524382334
 30
0.0
 40
1.251817298813589
100
AcDbArc
 50
156.0495665456
 51
168.1689100562
  0
LINE
  5
22E
330
1F
100
AcDbEntity
  8
0
  6
Continuous
 62
     7
370
    15
100
AcDbLine
 10
70.91962558
 20
137.9211745701
 30
0.0
 11
68.5790136124
 21
133.8606086881
 31
0.0
  0
LWPOLYLINE
  5
22F
330
1F
100
AcDbEntity
  8
0
  6
Continuous
 62
     7
370
    15
100
AcDbPolyline
 90
        9
 70
   128
 43
0.0
 10
70.8676186457
 20
137.4225986449
 10
70.8917295789
 20
137.5271825914
 10
70.91297995
 20
137.6331669108
 10
70.9297991497
 20
137.7327183311
 10
70.9409440756
 20
137.8184790339
 10
70.9455910092
 20
137.8841104692
 10
70.9433964971
 20
137.9247618356
 10
70.9345227349
 20
137.9374286016
 10
70.91962558
 20
137.9211745701
  0
LINE
  5
230
330
1F
100
AcDbEntity
  8
0
  6
Continuous
 62
     7
370
    15
100
AcDbLine
 10
67.5437647709
 20
123.9359677603
 30
0.0
 11
70.8676186457
 21
137.4225986449
 31
0.0
  0
ARC
  5
231
330
1F
100
AcDbEntity
  8
0
  6
Continuous
 62
     7
370
    15
100
AcDbCircle
 10
66.3185407275
 20
124.1926243267
 30
0.0
 40
1.251817298811605
100
AcDbArc
 50
336.0495665456
 51
348.1689100562
  0
LWPOLYLINE
  5
232
330
1F
100
AcDbEntity
  8
0
  6
Continuous
 62
     7
370
    15
100
AcDbPolyline
 90
        9
 70
   128
 43
0.0
 10
70.8668890191
 20
137.4287751959
 10
70.8897944057
 20
137.5281299451
 10
70.9099822582
 20
137.6288150485
 10
70.9259604979
 20
137.7233888977
 10
70.9365481775
 20
137.8048615654
 10
70.9409627645
 20
137.867211429
 10
70.9388779779
 20
137.905830227
 10
70.9304479039
 20
137.9178636548
 10
70.9162956067
 20
137.9024223248
  0
LINE
  5
233
330
1F
100
AcDbEntity
  8
0
  6
Continuous
 62
     7
370
    15
100
AcDbLine
 10
70.9162956067
 20
137.9024223248
 30
0.0
 11
68.5756836392
 21
133.8418564425
 31
0.0
  0
ARC
  5
234
330
1F
100
AcDbEntity
  8
0
  6
Continuous
 62
     7
370
    15
100
AcDbCircle
 10
69.6625141029
 20
133.3590945054
 30
0.0
 40
1.189226447982314
100
AcDbArc
 50
156.0495665769
 51
168.1689099304
  0
LINE
  5
235
330
1F
100
AcDbEntity
  8
0
  6
Continuous
 62
     7
370
    15
100
AcDbLine
 10
68.4985512483
 20
133.6029182489
 30
0.0
 11
65.1746973736
 21
120.1162873643
 31
0.0
  0
LWPOLYLINE
  5
236
330
1F
100
AcDbEntity
  8
0
  6
Continuous
 62
     7
370
    15
100
AcDbPolyline
 90
        9
 70
   128
 43
0.0
 10
65.1746973736
 20
120.1162873643
 10
65.1517919869
 20
120.0169326151
 10
65.1316041344
 20
119.9162475117
 10
65.1156258947
 20
119.8216736624
 10
65.1050382151
 20
119.7402009947
 10
65.1006236282
 20
119.6778511312
 10
65.1027084147
 20
119.6392323331
 10
65.1111384888
 20
119.6271989054
 10
65.125290786
 20
119.6426402353
  0
LINE
  5
237
330
1F
100
AcDbEntity
  8
0
  6
Continuous
 62
     7
370
    15
100
AcDbLine
 10
65.125290786
 20
119.6426402353
 30
0.0
 11
67.4659027535
 21
123.7032061174
 31
0.0
  0
ARC
  5
238
330
1F
100
AcDbEntity
  8
0
  6
Continuous
 62
     7
370
    15
100
AcDbCircle
 10
66.3790723031
 20
124.1859680493
 30
0.0
 40
1.189226433871774
100
AcDbArc
 50
336.0495665456
 51
348.1689100562
  0
LINE
  5
239
330
1F
100
AcDbEntity
  8
0
  6
Continuous
 62
     7
370
    15
100
AcDbLine
 10
67.5430351443
 20
123.9421443113
 30
0.0
 11
70.8668890191
 21
137.4287751959
 31
0.0
  0
ARC
  5
23A
330
1F
100
AcDbEntity
  8
0
  6
Continuous
 62
     7
370
    15
100
AcDbCircle
 10
75.9654508337
 20
136.5153316401
 30
0.0
 40
1.153119425962543
100
AcDbArc
 50
339.398705673
 51
5.4265577983
  0
LINE
  5
23B
330
1F
100
AcDbEntity
  8
0
  6
Continuous
 62
     7
370
    15
100
AcDbLine
 10
70.9396436937
 20
137.8399668321
 30
0.0
 11
70.9162956067
 21
137.9024223248
 31
0.0
  0
LINE
  5
23C
330
1F
100
AcDbEntity
  8
0
  6
Continuous
 62
     7
370
    15
100
AcDbLine
 10
73.7209762279
 20
122.6229609323
 30
0.0
 11
77.0448301027
 21
136.1095918169
 31
0.0
  0
LINE
  5
23D
330
1F
100
AcDbEntity
  8
0
  6
Continuous
 62
     7
370
    15
100
AcDbLine
 10
68.7258373917
 20
133.4401992709
 30
0.0
 11
68.5756836392
 21
133.8418564425
 31
0.0
  0
LINE
  5
23E
330
1F
100
AcDbEntity
  8
0
  6
Continuous
 62
     7
370
    15
100
AcDbLine
 10
68.9005048283
 20
133.107835747
 30
0.0
 11
68.7258373917
 21
133.4401992709
 31
0.0
  0
LWPOLYLINE
  5
23F
330
1F
100
AcDbEntity
  8
0
  6
Continuous
 62
     7
370
    15
100
AcDbPolyline
 90
        9
 70
   128
 43
0.0
 10
69.6423729412
 20
133.3739697198
 10
69.7026502745
 20
133.6354295861
 10
69.7557762021
 20
133.9003903847
 10
69.7978242013
 20
134.1492689354
 10
69.825686516
 20
134.3636706926
 10
69.8373038501
 20
134.5277492809
 10
69.8318175697
 20
134.6293776969
 10
69.8096331641
 20
134.661044612
 10
69.7723902769
 20
134.620409533
  0
LWPOLYLINE
  5
240
330
1F
100
AcDbEntity
  8
0
  6
Continuous
 62
     7
370
    15
100
AcDbPolyline
 90
        3
 70
   128
 43
0.0
 10
70.2456804745
 20
135.1522603176
 10
70.2987495205
 20
135.2208846754
 10
70.3206934877
 20
135.2561948237
  0
LINE
  5
241
330
1F
100
AcDbEntity
  8
0
  6
Continuous
 62
     7
370
    15
100
AcDbLine
 10
67.782132033
 20
125.8259897458
 30
0.0
 11
69.6423729412
 21
133.3739697198
 31
0.0
  0
LINE
  5
242
330
1F
100
AcDbEntity
  8
0
  6
Continuous
 62
     7
370
    15
100
AcDbLine
 10
66.2691961158
 20
122.9246530272
 30
0.0
 11
67.5791520573
 21
125.1972050251
 31
0.0
  0
LWPOLYLINE
  5
243
330
1F
100
AcDbEntity
  8
0
  6
Continuous
 62
     7
370
    15
100
AcDbPolyline
 90
        9
 70
   128
 43
0.0
 10
66.3992134516
 20
124.1710928403
 10
66.3389361184
 20
123.909632974
 10
66.2858101908
 20
123.6446721755
 10
66.2437621915
 20
123.3957936249
 10
66.2158998768
 20
123.1813918678
 10
66.2042825426
 20
123.0173132795
 10
66.209768823
 20
122.9156848636
 10
66.2319532285
 20
122.8840179485
 10
66.2691961158
 20
122.9246530272
  0
LINE
  5
244
330
1F
100
AcDbEntity
  8
0
  6
Continuous
 62
     7
370
    15
100
AcDbLine
 10
68.2594543597
 20
131.7190728143
 30
0.0
 11
66.3992134516
 21
124.1710928403
 31
0.0
  0
ARC
  5
245
330
1F
100
AcDbEntity
  8
0
  6
Continuous
 62
     7
370
    15
100
AcDbCircle
 10
71.3225144682
 20
131.0774313984
 30
0.0
 40
3.129543247031612
100
AcDbArc
 50
156.0495665456
 51
168.1689100562
  0
LINE
  5
246
330
1F
100
AcDbEntity
  8
0
  6
Continuous
 62
     7
370
    15
100
AcDbLine
 10
69.7723902769
 20
134.620409533
 30
0.0
 11
68.4624343354
 21
132.3478575351
 31
0.0
  0
ARC
  5
247
330
1F
100
AcDbEntity
  8
0
  6
Continuous
 62
     7
370
    15
100
AcDbCircle
 10
64.7190719245
 20
126.4676311618
 30
0.0
 40
3.129543247029299
100
AcDbArc
 50
336.0495665456
 51
348.1689100562
  0
LWPOLYLINE
  5
248
330
1F
100
AcDbEntity
  8
0
  6
Continuous
 62
     7
370
    15
100
AcDbPolyline
 90
       13
 70
   128
 43
0.0
 10
68.1149150019
 20
127.975756211
 10
68.2587617973
 20
128.5964489459
 10
68.3876561503
 20
129.2282055815
 10
68.4934991547
 20
129.8313305249
 10
68.5696403052
 20
130.3679272177
 10
68.6112953734
 20
130.8042793163
 10
68.6158470181
 20
131.1129692135
 10
68.5830092427
 20
131.2746007879
 10
68.5148453655
 20
131.2790181331
 10
68.4156383735
 20
131.1259436911
 10
68.2916218068
 20
130.8249956921
 10
68.1505880826
 20
130.3950838056
 10
68.0677136892
 20
130.1087278067
  0
ARC
  5
249
330
1F
100
AcDbEntity
  8
0
  6
Continuous
 62
     7
370
    15
100
AcDbCircle
 10
55.0031135955
 20
131.0875851781
 30
0.0
 40
13.47600889146978
100
AcDbArc
 50
341.732446793
 51
346.6489808526
  0
ARC
  5
24A
330
1F
100
AcDbEntity
  8
0
  6
Continuous
 62
     7
370
    15
100
AcDbCircle
 10
72.4957521845
 20
122.8796174987
 30
0.0
 40
1.251817298811381
100
AcDbArc
 50
336.0495665456
 51
348.1689100562
  0
LINE
  5
24B
330
1F
100
AcDbEntity
  8
0
  6
Continuous
 62
     7
370
    15
100
AcDbLine
 10
73.5946575193
 20
122.2931598202
 30
0.0
 11
73.6397842376
 21
122.371447044
 31
0.0
  0
LINE
  5
24C
330
1F
100
AcDbEntity
  8
0
  6
Continuous
 62
     7
370
    15
100
AcDbLine
 10
65.3329896198
 20
120.0029625828
 30
0.0
 11
65.1746973736
 21
120.1162873643
 31
0.0
  0
LINE
  5
24D
330
1F
100
AcDbEntity
  8
0
  6
Continuous
 62
     7
370
    15
100
AcDbLine
 10
68.7258373917
 20
133.4401992709
 30
0.0
 11
68.4985512483
 21
133.6029182489
 31
0.0
  0
ELLIPSE
  5
24E
330
1F
100
AcDbEntity
  8
0
  6
Continuous
 62
     7
370
    15
100
AcDbEllipse
 10
67.7649252746
 20
128.0923562085
 30
0.0
 11
0.4894004466115831
 21
2.301304685160517
 31
0.0
210
0.0
220
0.0
230
1.0
 40
0.10442579
 41
0.0
 42
6.283185307179586
  0
LINE
  5
24F
330
1F
100
AcDbEntity
  8
VERMASSUNG
100
AcDbLine
 10
70.988684687
 20
137.9263487458
 30
0.0
 11
60.7192792806
 21
89.6125948644
 31
0.0
  0
CIRCLE
  5
250
330
1F
100
AcDbEntity
  8
VERMASSUNG
  6
CENTERX2
100
AcDbCircle
 10
70.988684687
 20
117.9263487458
 30
0.0
 40
20.00000000000039
  0
DIMENSION
  5
251
330
1F
100
AcDbEntity
  8
VERMASSUNG
100
AcDbDimension
  2
_D_6
 10
56.8465490633
 20
132.0684843695
 30
0.0
 11
48.4804107984
 21
140.4346226344
 31
0.0
 70
   160
  1
%%c<> min. 
 71
     2
 42
-1.0
  3
SLDDIMSTYLE2
100
AcDbAlignedDimension
 13
85.1308203108
 23
103.7842131221
 33
0.0
 14
56.8465490633
 24
132.0684843695
 34
0.0
 50
-45.0
100
AcDbRotatedDimension
  0
DIMENSION
  5
260
330
1F
100
AcDbEntity
  8
VERMASSUNG
100
AcDbDimension
  2
_D_7
 10
70.988684687
 20
143.4354175368
 30
0.0
 11
65.4124050695
 21
84.8715921658
 31
0.0
 70
   162
  1
<>
 71
     1
 42
-1.0
  3
SLDDIMSTYLE3
100
AcDb2LineAngularDimension
 13
60.7192792806
 23
89.6125948644
 33
0.0
 14
70.988684687
 24
137.9263487458
 34
0.0
 15
70.988684687
 25
88.4354175368
 35
0.0
 16
65.4124050695
 26
84.8715921658
 36
0.0
  0
INSERT
  5
276
330
1F
100
AcDbEntity
  8
VERMASSUNG
100
AcDbBlockReference
  2
SW_CENTERMARKSYMBOL_0
 10
70.988684687
 20
115.9354175368
 30
0.0
  0
OLE2FRAME
  5
277
330
1F
100
AcDbEntity
  8
0
100
AcDbOle2Frame
 70
     2
  3
Paintbrush-Bild
 10
13.8511154363
 20
38.264191557
 30
0.0
 11
51.6290888628
 21
31.9806341108
 31
0.0
 71
     2
 72
     0
 73
     1
 90
    12928
310
80552BED0767C5B32B40DDAF6807D121434000000000000000006FFBDDFB85D0
310
4940DDAF6807D121434000000000000000006FFBDDFB85D04940416F4BD60AFB
310
3F4000000000000000002BED0767C5B32B40416F4BD60AFB3F40000000000000
310
0000000000000100000000010000010000000100000000000100000000320000
310
D0CF11E0A1B11AE1000000000000000000000000000000003E000300FEFF0900
310
0600000000000000000000000100000001000000000000000010000002000000
310
01000000FEFFFFFF0000000000000000FFFFFFFFFFFFFFFFFFFFFFFFFFFFFFFF
310
FFFFFFFFFFFFFFFFFFFFFFFFFFFFFFFFFFFFFFFFFFFFFFFFFFFFFFFFFFFFFFFF
310
FFFFFFFFFFFFFFFFFFFFFFFFFFFFFFFFFFFFFFFFFFFFFFFFFFFFFFFFFFFFFFFF
310
FFFFFFFFFFFFFFFFFFFFFFFFFFFFFFFFFFFFFFFFFFFFFFFFFFFFFFFFFFFFFFFF
310
FFFFFFFFFFFFFFFFFFFFFFFFFFFFFFFFFFFFFFFFFFFFFFFFFFFFFFFFFFFFFFFF
310
FFFFFFFFFFFFFFFFFFFFFFFFFFFFFFFFFFFFFFFFFFFFFFFFFFFFFFFFFFFFFFFF
310
FFFFFFFFFFFFFFFFFFFFFFFFFFFFFFFFFFFFFFFFFFFFFFFFFFFFFFFFFFFFFFFF
310
FFFFFFFFFFFFFFFFFFFFFFFFFFFFFFFFFFFFFFFFFFFFFFFFFFFFFFFFFFFFFFFF
310
FFFFFFFFFFFFFFFFFFFFFFFFFFFFFFFFFFFFFFFFFFFFFFFFFFFFFFFFFFFFFFFF
310
FFFFFFFFFFFFFFFFFFFFFFFFFFFFFFFFFFFFFFFFFFFFFFFFFFFFFFFFFFFFFFFF
310
FFFFFFFFFFFFFFFFFFFFFFFFFFFFFFFFFFFFFFFFFFFFFFFFFFFFFFFFFFFFFFFF
310
FFFFFFFFFFFFFFFFFFFFFFFFFFFFFFFFFFFFFFFFFFFFFFFFFFFFFFFFFFFFFFFF
310
FFFFFFFFFFFFFFFFFFFFFFFFFFFFFFFFFFFFFFFFFFFFFFFFFFFFFFFFFFFFFFFF
310
FFFFFFFFFFFFFFFFFFFFFFFFFFFFFFFFFFFFFFFFFFFFFFFFFFFFFFFFFFFFFFFF
310
FDFFFFFFFEFFFFFFFEFFFFFFFEFFFFFF05000000060000000700000008000000
310
090000000A0000000B0000000C0000000D0000000E0000000F00000010000000
310
11000000120000001300000014000000150000001600000017000000FEFFFFFF
310
FFFFFFFFFFFFFFFFFFFFFFFFFFFFFFFFFFFFFFFFFFFFFFFFFFFFFFFFFFFFFFFF
310
FFFFFFFFFFFFFFFFFFFFFFFFFFFFFFFFFFFFFFFFFFFFFFFFFFFFFFFFFFFFFFFF
310
FFFFFFFFFFFFFFFFFFFFFFFFFFFFFFFFFFFFFFFFFFFFFFFFFFFFFFFFFFFFFFFF
310
FFFFFFFFFFFFFFFFFFFFFFFFFFFFFFFFFFFFFFFFFFFFFFFFFFFFFFFFFFFFFFFF
310
FFFFFFFFFFFFFFFFFFFFFFFFFFFFFFFFFFFFFFFFFFFFFFFFFFFFFFFFFFFFFFFF
310
FFFFFFFFFFFFFFFFFFFFFFFFFFFFFFFFFFFFFFFFFFFFFFFFFFFFFFFFFFFFFFFF
310
FFFFFFFFFFFFFFFFFFFFFFFFFFFFFFFFFFFFFFFFFFFFFFFFFFFFFFFFFFFFFFFF
310
FFFFFFFFFFFFFFFFFFFFFFFFFFFFFFFFFFFFFFFFFFFFFFFFFFFFFFFFFFFFFFFF
310
FFFFFFFFFFFFFFFFFFFFFFFFFFFFFFFFFFFFFFFFFFFFFFFFFFFFFFFFFFFFFFFF
310
FFFFFFFFFFFFFFFFFFFFFFFFFFFFFFFFFFFFFFFFFFFFFFFFFFFFFFFFFFFFFFFF
310
FFFFFFFFFFFFFFFFFFFFFFFFFFFFFFFFFFFFFFFFFFFFFFFFFFFFFFFFFFFFFFFF
310
FFFFFFFFFFFFFFFFFFFFFFFFFFFFFFFFFFFFFFFFFFFFFFFFFFFFFFFFFFFFFFFF
310
FFFFFFFFFFFFFFFFFFFFFFFFFFFFFFFFFFFFFFFFFFFFFFFFFFFFFFFFFFFFFFFF
310
52006F006F007400200045006E00740072007900000000000000000000000000
310
0000000000000000000000000000000000000000000000000000000000000000
310
16000500FFFFFFFFFFFFFFFF020000000A00030000000000C000000000000046
310
00000000000000000000000020E42DAF4645CD0103000000C000000000000000
310
01004F006C006500000000000000000000000000000000000000000000000000
310
0000000000000000000000000000000000000000000000000000000000000000
310
0A000200FFFFFFFFFFFFFFFFFFFFFFFF00000000000000000000000000000000
310
0000000000000000000000000000000000000000000000001400000000000000
310
010043006F006D0070004F0062006A0000000000000000000000000000000000
310
0000000000000000000000000000000000000000000000000000000000000000
310
120002010100000003000000FFFFFFFF00000000000000000000000000000000
310
0000000000000000000000000000000000000000010000004D00000000000000
310
01004F006C006500310030004E00610074006900760065000000000000000000
310
0000000000000000000000000000000000000000000000000000000000000000
310
1A000200FFFFFFFFFFFFFFFFFFFFFFFF00000000000000000000000000000000
310
0000000000000000000000000000000000000000040000002426000000000000
310
FEFFFFFF02000000FEFFFFFFFFFFFFFFFFFFFFFFFFFFFFFFFFFFFFFFFFFFFFFF
310
FFFFFFFFFFFFFFFFFFFFFFFFFFFFFFFFFFFFFFFFFFFFFFFFFFFFFFFFFFFFFFFF
310
FFFFFFFFFFFFFFFFFFFFFFFFFFFFFFFFFFFFFFFFFFFFFFFFFFFFFFFFFFFFFFFF
310
FFFFFFFFFFFFFFFFFFFFFFFFFFFFFFFFFFFFFFFFFFFFFFFFFFFFFFFFFFFFFFFF
310
FFFFFFFFFFFFFFFFFFFFFFFFFFFFFFFFFFFFFFFFFFFFFFFFFFFFFFFFFFFFFFFF
310
FFFFFFFFFFFFFFFFFFFFFFFFFFFFFFFFFFFFFFFFFFFFFFFFFFFFFFFFFFFFFFFF
310
FFFFFFFFFFFFFFFFFFFFFFFFFFFFFFFFFFFFFFFFFFFFFFFFFFFFFFFFFFFFFFFF
310
FFFFFFFFFFFFFFFFFFFFFFFFFFFFFFFFFFFFFFFFFFFFFFFFFFFFFFFFFFFFFFFF
310
FFFFFFFFFFFFFFFFFFFFFFFFFFFFFFFFFFFFFFFFFFFFFFFFFFFFFFFFFFFFFFFF
310
FFFFFFFFFFFFFFFFFFFFFFFFFFFFFFFFFFFFFFFFFFFFFFFFFFFFFFFFFFFFFFFF
310
FFFFFFFFFFFFFFFFFFFFFFFFFFFFFFFFFFFFFFFFFFFFFFFFFFFFFFFFFFFFFFFF
310
FFFFFFFFFFFFFFFFFFFFFFFFFFFFFFFFFFFFFFFFFFFFFFFFFFFFFFFFFFFFFFFF
310
FFFFFFFFFFFFFFFFFFFFFFFFFFFFFFFFFFFFFFFFFFFFFFFFFFFFFFFFFFFFFFFF
310
FFFFFFFFFFFFFFFFFFFFFFFFFFFFFFFFFFFFFFFFFFFFFFFFFFFFFFFFFFFFFFFF
310
FFFFFFFFFFFFFFFFFFFFFFFFFFFFFFFFFFFFFFFFFFFFFFFFFFFFFFFFFFFFFFFF
310
FFFFFFFFFFFFFFFFFFFFFFFFFFFFFFFFFFFFFFFFFFFFFFFFFFFFFFFFFFFFFFFF
310
0100000200000000000000000000000000000000000000000000000000000000
310
0000000000000000000000000000000000000000000000000000000000000000
310
0100FEFF030A0000FFFFFFFF0A00030000000000C00000000000004607000000
310
5042727573680007000000504272757368000700000050427275736800F439B2
310
7100000000000000000000000000000000000000000000000000000000000000
310
0000000000000000000000000000000000000000000000000000000000000000
310
0000000000000000000000000000000000000000000000000000000000000000
310
0000000000000000000000000000000000000000000000000000000000000000
310
0000000000000000000000000000000000000000000000000000000000000000
310
0000000000000000000000000000000000000000000000000000000000000000
310
0000000000000000000000000000000000000000000000000000000000000000
310
0000000000000000000000000000000000000000000000000000000000000000
310
0000000000000000000000000000000000000000000000000000000000000000
310
0000000000000000000000000000000000000000000000000000000000000000
310
0000000000000000000000000000000000000000000000000000000000000000
310
0000000000000000000000000000000000000000000000000000000000000000
310
20260000424D0E260000000000003E00000028000000B40200006E0000000100
310
01000000000000000000130B0000130B00000200000002000000000000FFFFFF
310
FFFFFFFFFFFFFFFFFFFFFFFFFFFFFFFFFFFFFFFFFFFFFFFFFFFFFFFFFFFFFFFF
310
FFFFFFFFFFFFFFFFFFFFFFFFFFFFFFFFFFFFFFFFFFFFFFFFFFFFFFFFFFFFFFFF
310
FFFFFFFFFFFFFFFFFFFFFFFFFFFFFFFFFFFFFFFFFFFFFFFFF000FFFFFFFFFFFF
310
FFFFFFFFFFFFFFFFFFFFFFFFFFFFFFFFFFFFFFFFFFFFFFFFFFFFFFFFFFFFFFFF
310
FFFFFFFFFFFFFFFFFFFFFFFFFFFFFFFFFFFFFFFFFFFFFFFFFFFFFFFFFFFFFFFF
310
FFFFFFFFFFFFFFFFFFFFFFFFFFFFFFFFF000FFFFFFFFFFFFFFFFFFFFFFFFFFFF
310
FFFFFFFFFFFFFFFFFFFFFFFFFFFFFFFFFFFFFFFFFFFFFFFFFFFFFFFFFFFFFFFF
310
FFFFFFFFFFFFFFFFFFFFFFFFFFFFFFFFFFFFFFFFFFFFFFFFFFFFFFFFFFFFFFFF
310
FFFFFFFFFFFFFFFFF000FFFFFFFFFFFFFFFFFFFFFFFFFFFFFFFFFFFFFFFFFFFF
310
FFFFFFFFFFFFFFFFFFFFFFFFFFFFFFFFFFFFFFFFFFFFFFFFFFFFFFFFFFFFFFFF
310
FFFFFFFFFFFFFFFFFFFFFFFFFFFFFFFFFFFFFFFFFFFFFFFFFFFFFFFFFFFFFFFF
310
F000FFFFFFFFFFFFFFFFFFFFFFFFFFFFFFFFFFFFFFFFFFFFFFFFFFFFFFFFFFFF
310
FFFFFFFFFFFFFFFFFFFFFFFFFFFFFFFFFFFFFFFFFFFFFFFFFFFFFFFFFFFFFFFF
310
FFFFFFFFFFFFFFFFFFFFFFFFFFFFFFFFFFFFFFFFFFFFFFFFF000FFFFFFFFFFFF
310
FFFFFFFFFFFFFFFFFFFFFFFFFFFFFFFFFFFFFFFFFFFFFFFFFFFFFFFFFFFFFFFF
310
FFFFFFFFFFFFFFFFFFFFFFFFFFFFFFFFFFFFFFFFFFFFFFFFFFFFFFFFFFFFFFFF
310
FFFFFFFFFFFFFFFFFFFFFFFFFFFFFFFFF000FFFFFFFFFFFFFFFFFFFFFFFFFFFF
310
FFFFFFFFFFFFFFFFFFFFFFFFFFFFFFFFFFFFFFFFFFFFFFFFFFFFFFFFFFFFFFFF
310
FFFFFFFFFFFFFFFFFFFFFFFFFFFFFFFFFFFFFFFFFFFFFFFFFFFFFFFFFFFFFFFF
310
FFFFFFFFFFFFFFFFF000FFFFFFFFFFFFFFFFFFFFFFFFFFFFFFFFFFFFFFFFFFFF
310
FFFFFFFFFFFFFFFFFFFFFFFFFFFFFFFFFFFFFFFFFFFFFFFFFFFFFFFFFFFFFFFF
310
FFFFFFFFFFFFFFFFFFFFFFFFFFFFFFFFFFFFFFFFFFFFFFFFFFFFFFFFFFFFFFFF
310
F000FFFFFFFFFFFFFFFFFFFFFFFFFFFFFFFFFFFFFFFFFFFFFFFFFFFFFFFFFFFF
310
FFFFFFFFFFFFFFFFFFFFFFFFFFFFFFFFFFFFFFFFFFFFFFFFFFFFFFFFFFFFFFFF
310
FFFFFFFFFFFFFFFFFFFFFFFFFFFFFFFFFFFFFFFFFFFFFFFFF000FFFFFFFFFFFF
310
FFFFFFFFFFFFFFFFFFFFFFFFFFFFFFFFFFFFFFFFFFFFFFFFFFFFFFFFFFFFFFFF
310
FFFFFFFFFFFFFFFFFFFFFFFFFFFFFFFFFFFFFFFFFFFFFFFFFFFFFFFFFFFFFFFF
310
FFFFFFFFFFFFFFFFFFFFFFFFFFFFFFFFF000FFFFFFFFFFFFFFFFFFFFFFFFFFFF
310
FFFFFFFFFFFFFFFFFFFFFFFFFFFFFFFFFFFFFFFFFFFFFFFFFFFFFFFFFFFFFFFF
310
FFFFFFFFFFFFFFFFFFFFFFFFFFFFFFFFFFFFFFFFFFFFFFFFFFFFFFFFFFFFFFFF
310
FFFFFFFFFFFFFFFFF000FFFFFFFFFFFFFFFFFFFFFFFFFFFFFFFFFFFFFFFFFFFF
310
FFFFFFFFFFFFFFFFFFFFFFFFFFFFFFFFFFFFFFFFFFFFFFFFFFFFFFFFFFFFFFFF
310
FFFFFFFFFFFFFFFFFFFFFFFFFFFFFFFFFFFFFFFFFFFFFFFFFFFFFFFFFFFFFFFF
310
F000FFFFFFFFFFFFFFFFFFFFFFFFFFFFFFFFFFFFFFFFFFFFFFFFFFFFFFFFFFFF
310
FFFFFFFFFFFFFFFFFFFFFFFFFFFFFFFFFFFFFFFFFFFFFFFFFFFFFFFFFFFFFFFF
310
FFFFFFFFFFFFFFFFFFFFFFFFFFFFFFFFFFFFFFFFFFFFFFFFF000FFFFFFFFFFFF
310
FFFFFFFFFFFFFFFFFFFFFFFFFFFFFFFFFFFFFFFFFFFFFFFFFFFFFFFFFFFFFFFF
310
FFFFFFFFFFFFFFFFFFFFFFFFFFFFFFFFFFFFFFFFFFFFFFFFFFFFFFFFFFFFFFFF
310
FFFFFFFFFFFFFFFFFFFFFFFFFFFFFFFFF000FFFFFFFFFFFFFFFFFFFFFFFFFFFF
310
FFFFFFFFFFFFFFFFFFFFFFFFFFFFFFFFFFFFFFFFFFFFFFFFFFFFFFFFFFFFFFFF
310
FFFFFFFFFFFFFFFFFFFFFFFFFFFFFFFFFFFFFFFFFFFFFFFFFFFFFFFFFFFFFFFF
310
FFFFFFFFFFFFFFFFF000FFFFFFFFFFFFFFFFFFFFFFFFFFFFFFFFFFFFFFFFFFFF
310
FFFFFFFFFFFFFFFFFFFFFFFFFFFFFFFFFFFFFFFFFFFFFFFFFFFFFFFFFFFFFFFF
310
FFFFFFFFFFFFFFFFFFFFFFFFFFFFFFFFFFFFFFFFFFFFFFFFFFFFFFFFFFFFFFFF
310
F000FFFFFFFFFFFFFFFFFFFFFFFFFFFFFFFFFFFFFFFFFFFFFFFFFFFFFFFFFFFF
310
FFFFFFFFFFFFFFFFFFFFFFFFFFFFFFFFFFFFFFFFFFFFFFFFFFFFFFFFFFFFFFFF
310
FFFFFFFFFFFFFFFFFFFFFFFFFFFFFFFFFFFFFFFFFFFFFFFFF000FFFFFFFFFFFF
310
FFFFFFFFFFFFFFFFFFFFFFFFFFFFFFFFFFFFFFFFFFFFFFFFFFFFFFFFFFFFFFFF
310
FFFFFFFFFFFFFFFFFFFFFFFFFFFFFFFFFFFFFFFFFFFFFFFFFFFFFFFFFFFFFFFF
310
FFFFFFFFFFFFFFFFFFFFFFFFFFFFFFFFF000FFFFFFFFFFFFFFFFFFFFFFFFFFFF
310
FFFFFFFFFFFFFFFFFFFFFFFFFFFFFFFFFFFFFFFFFFFFFFFFFFFFFFFFFFFFFFFF
310
FFFFFFFFFFFFFFFFFFFFFFFFFFFFFFFFFFFFFFFFFFFFFFFFFFFFFFFFFFFFFFFF
310
FFFFFFFFFFFFFFFFF000FFFFF80003FFFFFFFFFFFFFFFFFFFFFFFFFFFFFFFFFF
310
FFFFF00007FFFFFFFFFF00007FFFFFF800000000000000007FFFFFFFFFFFFFFF
310
FFFFFFFC001FFFFFFFFFFFFFFC001FFFFFFFFFFFFFFFFFFFFFFFFFFE0007FFFF
310
F000FFFF8000007FFFFFFFF8000FFFFFC0007FFFFF80007FFFFF0000007FFFFF
310
FFF8000007FFFFF800000000000000007FFFFFF0001FFFFFFFFFFFC00001FFFF
310
FFFFFFFFC00001FFFFFFFF000000000003FFFFE000007FFFF000FFFE0000000F
310
FFFFFFF0000FFFFF80007FFFFF80007FFFFC0000001FFFFFFFC0000001FFFFF8
310
00000000000000007FFFFFF0001FFFFFFFFFFE0000003FFFFFFFFFFE0000003F
310
FFFFFF000000000003FFFF0000000FFFF000FFF800000003FFFFFFF00007FFFF
310
80007FFFFF80007FFFF000000007FFFFFF000000003FFFF80000000000000000
310
7FFFFFF0001FFFFFFFFFF80000000FFFFFFFFFF80000000FFFFFFF0000000000
310
03FFFC00000003FFF000FFE000000000FFFFFFF00007FFFF80003FFFFF80007F
310
FFC000000001FFFFFC000000001FFFF800000000000000007FFFFFF0001FFFFF
310
FFFFE000000003FFFFFFFFE000000003FFFFFF000000000003FFF000000000FF
310
F000FF80000000007FFFFFF00007FFFF80003FFFFF80007FFF8000000000FFFF
310
F80000000007FFF800000000000000007FFFFFF0001FFFFFFFFFC000000001FF
310
FFFFFFC000000001FFFFFF000000000003FFC0000000007FF000FF0000000000
310
3FFFFFE00007FFFF00003FFFFF80007FFE00000000003FFFF00000000003FFF8
310
00000000000000007FFFFFF0001FFFFFFFFF8000000000FFFFFFFF8000000000
310
FFFFFF000000000003FF80000000003FF000FE00000000001FFFFFE00003FFFF
310
00003FFFFF80007FFC00000000001FFFE00000000001FFF8000001FFFE000000
310
7FFFFFF0001FFFFFFFFE00000000003FFFFFFE00000000003FFFFF0000000000
310
03FF00000000001FF000FC00000000000FFFFFE00003FFFF00001FFFFF80007F
310
F800000000001FFFC00000000000FFF8000001FFFE0000007FFFFFF0001FFFFF
310
FFFC00000000001FFFFFFC00000000001FFFFF000000000003FE00000000000F
310
F000F8000000000007FFFFE00003FFFF00001FFFFF80007FF800000000000FFF
310
800000000000FFF8000001FFFE0000007FFFFFF0001FFFFFFFF800000000000F
310
FFFFF800000000000FFFFF000000000003FC000000000007F000F80000000000
310
03FFFFC00003FFFE00001FFFFF80007FF0000000000007FF0000000000007FF8
310
000001FFFE0000007FFFFFF0001FFFFFFFF0000000000007FFFFF00000000000
310
07FFFF000000000003F8000000000003F000F0000000000003FFFFC00001FFFE
310
00001FFFFF80007FE0000000000007FE0000000000003FF8000001FFFE000000
310
7FFFFFF0001FFFFFFFF0000000000007FFFFF0000000000007FFFF0000000000
310
03F800001F800003F000E00001FFF00001FFFFC00001FFFE00000FFFFF80007F
310
E00001FFE00003FE00001FFF00003FF8000001FFFE0000007FFFFFF0001FFFFF
310
FFE000003E000003FFFFE000003E000003FFFF000000000003F00001FFF80001
310
F000E00007FFFC0001FFFFC00001FFFE00000FFFFF80007FC0000FFFFC0003FC
310
0000FFFFC0001FF8000001FFFE0000007FFFFFF0001FFFFFFFC00003FFE00001
310
FFFFC00003FFE00001FFFF0001FFFFFFFFF00007FFFE0001F000E0000FFFFF00
310
00FFFF800001FFFC00000FFFFF80007FC0001FFFFE0001FC0001FFFFE0001FF8
310
000001FFFE0000007FFFFFF0001FFFFFFF80000FFFF80000FFFF80000FFFF800
310
00FFFF0003FFFFFFFFE0000FFFFF8000F000C0003FFFFF8000FFFF800000FFFC
310
000007FFFF80007F80003FFFFF0001FC0003FFFFF0001FF8000001FFFE000000
310
7FFFFFF0001FFFFFFF80003FFFFE0000FFFF80003FFFFE0000FFFF0003FFFFFF
310
FFE0003FFFFF8000F000C0003FFFFF8000FFFF800000FFFC000007FFFF80007F
310
80007FFFFF8001F80007FFFFF8000FF8000001FFFE0000007FFFFFF0001FFFFF
310
FF00007FFFFF00007FFF00007FFFFF00007FFF0003FFFFFFFFE0003FFFFFC000
310
F000C0007FFFFFC000FFFF000000FFFC000007FFFF80007F8000FFFFFF8000F8
310
000FFFFFF8000FF8000001FFFE0000007FFFFFF0001FFFFFFF0000FFFFFF8000
310
7FFF0000FFFFFF80007FFF0003FFFFFFFFC0007FFFFFC00070008000FFFFFFC0
310
00FFFF000000FFF8000007FFFF80007F8000FFFFFF8000F8000FFFFFF8000FF8
310
000001FFFE0000007FFFFFF0001FFFFFFE0001FFFFFFC0003FFE0001FFFFFFC0
310
003FFF0003FFFFFFFFC0007FFFFFE00070008000FFFFFFC0007FFF0000007FF8
310
000003FFFF80007F0001FFFFFF8000F8000FFFFFF8000FF8000001FFFE000000
310
7FFFFFF0001FFFFFFE0001FFFFFFC0003FFE0001FFFFFFC0003FFF0003FFFFFF
310
FFC000FFFFFFE00070008000FFFFFFC0007FFF0000007FF8000003FFFF80007F
310
0001FFFFFF8000F8001FFFFFF8000FF8000001FFFE0000007FFFFFF0001FFFFF
310
FE0003FFFFFFE0003FFE0003FFFFFFE0003FFF0003FFFFFFFFC000FFFFFFE000
310
70008000FFFFFFC0007FFE0000007FF8000003FFFF80007F0001FFFFFF8000F0
310
001FFFFFF8000FF8000001FFFE0000007FFFFFF0001FFFFFFC0003FFFFFFE000
310
1FFC0003FFFFFFE0001FFF0003FFFFFFFFC000FFFFFFC00070008000FFFFFF80
310
007FFE0000007FF0000003FFFF80007F0001FFFFFF0000F0001FFFFFF8000FF8
310
000001FFFE0000007FFFFFF0001FFFFFFC0007FFFFFFF0001FFC0007FFFFFFF0
310
001FFF0003FFFFFFFFC000FFFFFFC00070008001FFFFFF0000FFFE0000003FF0
310
000001FFFF80007F0001FFFFFF0000F8001FFFFFF0000FF8000001FFFE000000
310
7FFFFFF0001FFFFFFC0007FFFFFFF0001FFC0007FFFFFFF0001FFF0003FFFFFF
310
FFC001FFFFFF80007000FFFFFFFFFE0000FFFE0008003FF0008001FFFF80007F
310
FFFFFFFFFC0000FFFFFFFFFFE0000FF8000001FFFE0000007FFFFFF0001FFFFF
310
F8000FFFFFFFF8000FF8000FFFFFFFF8000FFF0003FFFFFFFFFFFFFFFFFF0000
310
7000FFFFFFFFFC0000FFFC0008003FF0008001FFFF80007FFFFFFFFFF80001FF
310
FFFFFFFF80000FF8000001FFFE0000007FFFFFF0001FFFFFF8000FFFFFFFF800
310
0FF8000FFFFFFFF8000FFF0003FFFFFFFFFFFFFFFFFE0000F000FFFFFFFFE000
310
00FFFC000C003FE000C001FFFF80007FFFFFFFFFC00001FFFFFFFFFE00001FF8
310
000001FFFE0000007FFFFFF0001FFFFFF8000FFFFFFFF8000FF8000FFFFFFFF8
310
000FFF0003FFFFFFFFFFFFFFFFF00000F000FFFFFFFE000001FFFC000C001FE0
310
00C000FFFF80007FFFFFFFFE000001FFFFFFFFE000001FF80FFFFFFFFFFFFFC0
310
7FFFFFF0001FFFFFF8000FFFFFFFF8000FF8000FFFFFFFF8000FFF0003FFFFFF
310
FFFFFFFFFF800000F000FFFFFFC0000001FFFC001C001FE001C000FFFF80007F
310
FFFFFF80000003FFFFFFF80000001FF80FFFFFFFFFFFFFC07FFFFFF0001FFFFF
310
F8001FFFFFFFFC000FF8001FFFFFFFFC000FFF0003FFFFFFFFFFFFFFF0000001
310
F000FFFFF800000001FFF8001C001FE001C000FFFF80007FFFFFF800000003FF
310
FFFF800000003FF80FFFFFFFFFFFFFC07FFFFFF0001FFFFFF8001FFFFFFFFC00
310
0FF8001FFFFFFFFC000FFF0003FFFFFFFFFFFFFE00000001F000FFFFC0000000
310
03FFF8001E001FC001E000FFFF80007FFFFF8000000007FFFFFC000000003FF8
310
0FFFFFFFFFFFFFC07FFFFFF0001FFFFFF8001FFFFFFFFC000FF8001FFFFFFFFC
310
000FFF0003FFFFFFFFFFFFE000000003F000FFFE0000000007FFF8001E000FC0
310
01E0007FFF80007FFFFE0000000007FFFFE0000000007FF80FFFFFFFFFFFFFC0
310
7FFFFFF0001FFFFFF0001FFFFFFFFC0007F0001FFFFFFFFC0007FF0003FFFFFF
310
FFFFFF0000000003F000FFF80000000007FFF8001E000FC003E0007FFF80007F
310
FFF0000000000FFFFF8000000000FFF80FFFFFFFFFFFFFC07FFFFFF0001FFFFF
310
F0001FFFFFFFFC0007F0001FFFFFFFFC0007FF0003FFFFFFFFFFFC0000000007
310
F000FFE0000000000FFFF0003E000FC003E0007FFF80007FFFC0000000001FFF
310
FE0000000001FFF80FFFFFFFFFFFFFC07FFFFFF0001FFFFFF0001FFFFFFFFC00
310
07F0001FFFFFFFFC0007FF0003FFFFFFFFFFF0000000000FF000FFC000000000
310
1FFFF0003F000F8003F0003FFF80007FFF80000000003FFFF80000000003FFF8
310
0FFFFFFFFFFFFFC07FFFFFF0001FFFFFF0001FFFFFFFFC0007F0001FFFFFFFFC
310
0007FF0003FFFFFFFFFFE0000000001FF000FF00000000007FFFF0003F000780
310
03F0003FFF80007FFF00000000007FFFF00000000007FFF80FFFFFFFFFFFFFC0
310
7FFFFFF0001FFFFFF0001FFFFFFFFC0007F0001FFFFFFFFC0007FF0003FFFFFF
310
FFFF80000000007FF000FE0000000000FFFFE0003F00078007F0003FFF80007F
310
FE0000000001FFFFE0000000001FFFF80FFFFFFFFFFFFFC07FFFFFF0001FFFFF
310
F0001FFFFFFFFC0007F0001FFFFFFFFC0007FF0003FFFFFFFFFF0000000000FF
310
F000FC0000000003FFFFE0007F00078007F0003FFF80007FFC0000000007FFFF
310
C0000000007FFFF80FFFFFFFFFFFFFC07FFFFFF0001FFFFFF8001FFFFFFFFC00
310
0FF8001FFFFFFFFC000FFF0003FFFFFFFFFE0000000003FFF000FC000000000F
310
FFFFE0007F80070007F8001FFF80007FF8000000001FFFFF8000000001FFFFF8
310
0FFFFFFFFFFFFFC07FFFFFF0001FFFFFF8001FFFFFFFFC000FF8001FFFFFFFFC
310
000FFF0003FFFFFFFFFC000000000FFFF000F8000000007FFFFFE0007F800700
310
07F8001FFF80007FF000000000FFFFFF800000000FFFFFF80FFFFFFFFFFFFFC0
310
7FFFFFF0001FFFFFF8000FFFFFFFF8000FF8000FFFFFFFF8000FFF0003FFFFFF
310
FFFC000000007FFFF000F800000007FFFFFFC0007F8003000FF8001FFF80007F
310
F000000007FFFFFF000000007FFFFFF80FFFFFFFFFFFFFC07FFFFFF0001FFFFF
310
F8000FFFFFFFF8000FF8000FFFFFFFF8000FFF0003FFFFFFFFF80000000FFFFF
310
F000F0000000FFFFFFFFC000FF8003000FF8001FFF80007FE0000000FFFFFFFF
310
0000000FFFFFFFF8000001FFFE0000007FFFFFF0001FFFFFF8000FFFFFFFF800
310
0FF8000FFFFFFFF8000FFF0003FFFFFFFFF8000000FFFFFFF000F000000FFFFF
310
FFFFC000FFC002000FF8000FFF80007FE000001FFFFFFFFE000001FFFFFFFFF8
310
000001FFFE0000007FFFFFF0001FFFFFF8000FFFFFFFF8000FF8000FFFFFFFF8
310
000FFF0003FFFFFFFFF000001FFFFFFFF000E00000FFFFFFFFFFC000FFC00200
310
0FFC000FFF80007FE00001FFFFFFFFFE00001FFFFFFFFFF8000001FFFE000000
310
7FFFFFF0001FFFFFFC000FFFFFFFF8001FFC000FFFFFFFF8001FFF0003FFFFFF
310
FFF00001FFFFFFFFF000E00007FFFFFFFFFF8000FFC000001FFC000FFF80007F
310
C0000FFFFFFFFFFE0000FFFFFFFFFFF8000001FFFE0000007FFFFFF0001FFFFF
310
FC0007FFFFFFF0001FFC0007FFFFFFF0001FFF0003FFFFFFFFF00007FFFFFFFF
310
F000E0001FFFFFFFFFFF8000FFC000001FFC000FFF80007FC0003FFFFFFFFFFE
310
0001FFFFFFFFFFF8000001FFFE0000007FFFFFF0001FFFFFFC0007FFFFFFF000
310
1FFC0007FFFFFFF0001FFF0003FFFFFFFFF0001FFFFFFFFFF000E0003FFFFF00
310
03FF8001FFE000001FFC0007FF80007FC0007FFFFF0007FC0003FFFFF0003FF8
310
000001FFFE0000007FFFFFF0001FFFFFFC0003FFFFFFE0001FFC0003FFFFFFE0
310
001FFF0003FFFFFFFFF0003FFFFFFFFFF000E0003FFFFF0001FF8001FFE00000
310
1FFE0007FF80007FC0007FFFFE0003FC0007FFFFE0003FF8000001FFFE000000
310
7FFFFFF0001FFFFFFE0003FFFFFFE0003FFE0003FFFFFFE0003FFF0003FFFFFF
310
FFF0003FFFFF8001F000E0003FFFFF0001FF0001FFE000001FFE0007FF80007F
310
C0007FFFFE0003FC0007FFFFE0003FF8000001FFFE0000007FFFFFF0001FFFFF
310
FE0001FFFFFFC0003FFE0001FFFFFFC0003FFF0003FFFFFFFFF0003FFFFF0001
310
F000E0003FFFFF0003FF0001FFE000003FFE0007FF80007FC0007FFFFE0003FC
310
0007FFFFE0003FF8000001FFFE0000007FFFFFF0001FFFFFFF0001FFFFFFC000
310
7FFF0001FFFFFFC0007FFF0003FFFFFFFFF0003FFFFF0001F000E0003FFFFE00
310
03FF0003FFF000003FFE0003FF80007FC0007FFFFC0003FE0007FFFFE0003FF8
310
000001FFFE0000007FFFFFF0001FFFFFFF0000FFFFFF80007FFF0000FFFFFF80
310
007FFF0003FFFFFFFFF0003FFFFF0001F000E0003FFFFE0003FF0003FFF00000
310
3FFF0003FF80007FC0007FFFFC0007FE0007FFFFC0003FF8000001FFFE000000
310
7FFFFFF0001FFFFFFF80007FFFFF0000FFFF80007FFFFF0000FFFF0003FFFFFF
310
FFF0003FFFFF0003F000E0003FFFFC0003FE0003FFF000003FFF0003FF80007F
310
E0003FFFF80007FE0003FFFFC0007FF8000001FFFE0000007FFFFFF0001FFFFF
310
FF80003FFFFE0000FFFF80003FFFFE0000FFFF0003FFFFFFFFF0001FFFFE0003
310
F000F0001FFFF80003FE0003FFF000007FFF0001FF80007FE0003FFFF00007FE
310
0001FFFF80007FF8000001FFFE0000007FFFFFF0001FFFFFFFC0000FFFF80001
310
FFFFC0000FFFF80001FFFF0003FFFFFFFFF0001FFFFC0003F000F0000FFFF000
310
07FE0007FFF800007FFF0001FF80007FE0001FFFE00007FF0000FFFE00007FF8
310
000001FFFE0000007FFFFFF0001FFFFFFFC00003FFE00001FFFFC00003FFE000
310
01FFFF0003FFFFFFFFF8000FFFF80003F000F00003FFC00007FC0007FFF80000
310
7FFF8001FF80007FF00007FF80000FFF00007FF80000FFF8000001FFFE000000
310
7F80000000000001FFE000003E000003FFFFE000003E000003FFFF0003FFFFFF
310
FFF80003FFE00007F000F800000000000FFC0007FFF800007FFF8001FF80007F
310
F000000000000FFF000000000000FFF8000001FFFE0000007F80000000000001
310
FFF0000000000007FFFFF0000000000007FFFF0003FFFFFFFFFC00007E000007
310
F000F800000000000FFC0007FFF80000FFFF8000FF80007FF800000000001FFF
310
800000000001FFF8000001FFFE0000007F80000000000001FFF800000000000F
310
FFFFF800000000000FFFFF0003FFFFFFFFFC00000000000FF000FC0000000000
310
1FFC0007FFFC0000FFFF8000FF80007FF800000000003FFFC00000000001FFF8
310
000001FFFE0000007F80000000000001FFF800000000000FFFFFF80000000000
310
0FFFFF0003FFFFFFFFFE00000000001FF000FE00000000003FF8000FFFFC0000
310
FFFF8000FF80007FFC00000000003FFFC00000000003FFF8000001FFFE000000
310
7F80000000000001FFFC00000000001FFFFFFC00000000001FFFFF0003FFFFFF
310
FFFF00000000001FF000FF00000000003FF8000FFFFC0000FFFFC000FF80007F
310
FE00000000007FFFE00000000007FFF8000001FFFE0000007F80000000000001
310
FFFE00000000003FFFFFFE00000000003FFFFF0003FFFFFFFFFF80000000003F
310
F000FF80000000007FF8000FFFFC0001FFFFC0007F80007FFF0000000000FFFF
310
F0000000000FFFF800000000000000007F80000000000001FFFF8000000000FF
310
FFFFFF8000000000FFFFFF0003FFFFFFFFFFC0000000007FF000FFC000000000
310
FFF8000FFFFE0001FFFFC0007F80007FFF8000000001FFFFF8000000001FFFF8
310
00000000000000007F80000000000001FFFFC000000001FFFFFFFFC000000001
310
FFFFFF0003FFFFFFFFFFE000000000FFF000FFE000000003FFF0001FFFFE0001
310
FFFFC0007F80007FFFC000000007FFFFFE000000003FFFF80000000000000000
310
7F80000000000001FFFFE000000003FFFFFFFFE000000003FFFFFF0003FFFFFF
310
FFFFF000000003FFF000FFF80000000FFFF0001FFFFE0001FFFFE0007F80007F
310
FFF00000000FFFFFFF00000000FFFFF800000000000000007F80000000000001
310
FFFFF80000000FFFFFFFFFF80000000FFFFFFF0003FFFFFFFFFFFC0000000FFF
310
F000FFFE0000003FFFF0001FFFFE0003FFFFE0003F80007FFFFC0000003FFFFF
310
FFC0000003FFFFF800000000000000007F80000000000001FFFFFE0000003FFF
310
FFFFFFFE0000003FFFFFFF0003FFFFFFFFFFFF0000003FFFF000FFFF800000FF
310
FFF0001FFFFF0003FFFFE0003F80007FFFFF000001FFFFFFFFF800001FFFFFF8
310
00000000000000007F80000000000001FFFFFFC00001FFFFFFFFFFFFC00001FF
310
FFFFFF0003FFFFFFFFFFFFC00000FFFFF000FFFFF8000FFFFFFFFFFFFFFFFFFF
310
FFFFFFFFFFFFFFFFFFFFF0001FFFFFFFFFFF0000FFFFFFF80000000000000000
310
7FFFFFFFFFFFFFFFFFFFFFFC001FFFFFFFFFFFFFFC001FFFFFFFFFFFFFFFFFFF
310
FFFFFFFC001FFFFFF000FFFFFFFFFFFFFFFFFFFFFFFFFFFFFFFFFFFFFFFFFFFF
310
FFFFFFFFFFFFFFFFFFFFFFFFFFFFFFFFFFFFFFFFFFFFFFFFFFFFFFFFFFFFFFFF
310
FFFFFFFFFFFFFFFFFFFFFFFFFFFFFFFFFFFFFFFFFFFFFFFFFFFFFFFFFFFFFFFF
310
F000FFFFFFFFFFFFFFFFFFFFFFFFFFFFFFFFFFFFFFFFFFFFFFFFFFFFFFFFFFFF
310
FFFFFFFFFFFFFFFFFFFFFFFFFFFFFFFFFFFFFFFFFFFFFFFFFFFFFFFFFFFFFFFF
310
FFFFFFFFFFFFFFFFFFFFFFFFFFFFFFFFFFFFFFFFFFFFFFFFF000FFFFFFFFFFFF
310
FFFFFFFFFFFFFFFFFFFFFFFFFFFFFFFFFFFFFFFFFFFFFFFFFFFFFFFFFFFFFFFF
310
FFFFFFFFFFFFFFFFFFFFFFFFFFFFFFFFFFFFFFFFFFFFFFFFFFFFFFFFFFFFFFFF
310
FFFFFFFFFFFFFFFFFFFFFFFFFFFFFFFFF000FFFFFFFFFFFFFFFFFFFFFFFFFFFF
310
FFFFFFFFFFFFFFFFFFFFFFFFFFFFFFFFFFFFFFFFFFFFFFFFFFFFFFFFFFFFFFFF
310
FFFFFFFFFFFFFFFFFFFFFFFFFFFFFFFFFFFFFFFFFFFFFFFFFFFFFFFFFFFFFFFF
310
FFFFFFFFFFFFFFFFF000FFFFFFFFFFFFFFFFFFFFFFFFFFFFFFFFFFFFFFFFFFFF
310
FFFFFFFFFFFFFFFFFFFFFFFFFFFFFFFFFFFFFFFFFFFFFFFFFFFFFFFFFFFFFFFF
310
FFFFFFFFFFFFFFFFFFFFFFFFFFFFFFFFFFFFFFFFFFFFFFFFFFFFFFFFFFFFFFFF
310
F000FFFFFFFFFFFFFFFFFFFFFFFFFFFFFFFFFFFFFFFFFFFFFFFFFFFFFFFFFFFF
310
FFFFFFFFFFFFFFFFFFFFFFFFFFFFFFFFFFFFFFFFFFFFFFFFFFFFFFFFFFFFFFFF
310
FFFFFFFFFFFFFFFFFFFFFFFFFFFFFFFFFFFFFFFFFFFFFFFFF000FFFFFFFFFFFF
310
FFFFFFFFFFFFFFFFFFFFFFFFFFFFFFFFFFFFFFFFFFFFFFFFFFFFFFFFFFFFFFFF
310
FFFFFFFFFFFFFFFFFFFFFFFFFFFFFFFFFFFFFFFFFFFFFFFFFFFFFFFFFFFFFFFF
310
FFFFFFFFFFFFFFFFFFFFFFFFFFFFFFFFF000FFFFFFFFFFFFFFFFFFFFFFFFFFFF
310
FFFFFFFFFFFFFFFFFFFFFFFFFFFFFFFFFFFFFFFFFFFFFFFFFFFFFFFFFFFFFFFF
310
FFFFFFFFFFFFFFFFFFFFFFFFFFFFFFFFFFFFFFFFFFFFFFFFFFFFFFFFFFFFFFFF
310
FFFFFFFFFFFFFFFFF000FFFFFFFFFFFFFFFFFFFFFFFFFFFFFFFFFFFFFFFFFFFF
310
FFFFFFFFFFFFFFFFFFFFFFFFFFFFFFFFFFFFFFFFFFFFFFFFFFFFFFFFFFFFFFFF
310
FFFFFFFFFFFFFFFFFFFFFFFFFFFFFFFFFFFFFFFFFFFFFFFFFFFFFFFFFFFFFFFF
310
F000FFFFFFFFFFFFFFFFFFFFFFFFFFFFFFFFFFFFFFFFFFFFFFFFFFFFFFFFFFFF
310
FFFFFFFFFFFFFFFFFFFFFFFFFFFFFFFFFFFFFFFFFFFFFFFFFFFFFFFFFFFFFFFF
310
FFFFFFFFFFFFFFFFFFFFFFFFFFFFFFFFFFFFFFFFFFFFFFFFF000FFFFFFFFFFFF
310
FFFFFFFFFFFFFFFFFFFFFFFFFFFFFFFFFFFFFFFFFFFFFFFFFFFFFFFFFFFFFFFF
310
FFFFFFFFFFFFFFFFFFFFFFFFFFFFFFFFFFFFFFFFFFFFFFFFFFFFFFFFFFFFFFFF
310
FFFFFFFFFFFFFFFFFFFFFFFFFFFFFFFFF000FFFFFFFFFFFFFFFFFFFFFFFFFFFF
310
FFFFFFFFFFFFFFFFFFFFFFFFFFFFFFFFFFFFFFFFFFFFFFFFFFFFFFFFFFFFFFFF
310
FFFFFFFFFFFFFFFFFFFFFFFFFFFFFFFFFFFFFFFFFFFFFFFFFFFFFFFFFFFFFFFF
310
FFFFFFFFFFFFFFFFF000FFFFFFFFFFFFFFFFFFFFFFFFFFFFFFFFFFFFFFFFFFFF
310
FFFFFFFFFFFFFFFFFFFFFFFFFFFFFFFFFFFFFFFFFFFFFFFFFFFFFFFFFFFFFFFF
310
FFFFFFFFFFFFFFFFFFFFFFFFFFFFFFFFFFFFFFFFFFFFFFFFFFFFFFFFFFFFFFFF
310
F000FFFFFFFFFFFFFFFFFFFFFFFFFFFFFFFFFFFFFFFFFFFFFFFFFFFFFFFFFFFF
310
FFFFFFFFFFFFFFFFFFFFFFFFFFFFFFFFFFFFFFFFFFFFFFFFFFFFFFFFFFFFFFFF
310
FFFFFFFFFFFFFFFFFFFFFFFFFFFFFFFFFFFFFFFFFFFFFFFFF000FFFFFFFFFFFF
310
FFFFFFFFFFFFFFFFFFFFFFFFFFFFFFFFFFFFFFFFFFFFFFFFFFFFFFFFFFFFFFFF
310
FFFFFFFFFFFFFFFFFFFFFFFFFFFFFFFFFFFFFFFFFFFFFFFFFFFFFFFFFFFFFFFF
310
FFFFFFFFFFFFFFFFFFFFFFFFFFFFFFFFF000FFFFFFFFFFFFFFFFFFFFFFFFFFFF
310
FFFFFFFFFFFFFFFFFFFFFFFFFFFFFFFFFFFFFFFFFFFFFFFFFFFFFFFFFFFFFFFF
310
FFFFFFFFFFFFFFFFFFFFFFFFFFFFFFFFFFFFFFFFFFFFFFFFFFFFFFFFFFFFFFFF
310
FFFFFFFFFFFFFFFFF000FFFFFFFFFFFFFFFFFFFFFFFFFFFFFFFFFFFFFFFFFFFF
310
FFFFFFFFFFFFFFFFFFFFFFFFFFFFFFFFFFFFFFFFFFFFFFFFFFFFFFFFFFFFFFFF
310
FFFFFFFFFFFFFFFFFFFFFFFFFFFFFFFFFFFFFFFFFFFFFFFFFFFFFFFFFFFFFFFF
310
F000FFFFFFFFFFFFFFFFFFFFFFFFFFFFFFFFFFFFFFFFFFFFFFFFFFFFFFFFFFFF
310
FFFFFFFFFFFFFFFFFFFFFFFFFFFFFFFFFFFFFFFFFFFFFFFFFFFFFFFFFFFFFFFF
310
FFFFFFFFFFFFFFFFFFFFFFFFFFFFFFFFFFFFFFFFFFFFFFFFF000FFFFFFFFFFFF
310
FFFFFFFFFFFFFFFFFFFFFFFFFFFFFFFFFFFFFFFFFFFFFFFFFFFFFFFFFFFFFFFF
310
FFFFFFFFFFFFFFFFFFFFFFFFFFFFFFFFFFFFFFFFFFFFFFFFFFFFFFFFFFFFFFFF
310
FFFFFFFFFFFFFFFFFFFFFFFFFFFFFFFFF000FFFFFFFFFFFFFFFFFFFFFFFFFFFF
310
FFFFFFFFFFFFFFFFFFFFFFFFFFFFFFFFFFFFFFFFFFFFFFFFFFFFFFFFFFFFFFFF
310
FFFFFFFFFFFFFFFFFFFFFFFFFFFFFFFFFFFFFFFFFFFFFFFFFFFFFFFFFFFFFFFF
310
FFFFFFFFFFFFFFFFF000FFFFFFFFFFFFFFFFFFFFFFFFFFFFFFFFFFFFFFFFFFFF
310
FFFFFFFFFFFFFFFFFFFFFFFFFFFFFFFFFFFFFFFFFFFFFFFFFFFFFFFFFFFFFFFF
310
FFFFFFFFFFFFFFFFFFFFFFFFFFFFFFFFFFFFFFFFFFFFFFFFFFFFFFFFFFFFFFFF
310
F000FFFFFFFFFFFFFFFFFFFFFFFFFFFFFFFFFFFFFFFFFFFFFFFFFFFFFFFFFFFF
310
FFFFFFFFFFFFFFFFFFFFFFFFFFFFFFFFFFFFFFFFFFFFFFFFFFFFFFFFFFFFFFFF
310
FFFFFFFFFFFFFFFFFFFFFFFFFFFFFFFFFFFFFFFFFFFFFFFFF000FFFFFFFFFFFF
310
FFFFFFFFFFFFFFFFFFFFFFFFFFFFFFFFFFFFFFFFFFFFFFFFFFFFFFFFFFFFFFFF
310
FFFFFFFFFFFFFFFFFFFFFFFFFFFFFFFFFFFFFFFFFFFFFFFFFFFFFFFFFFFFFFFF
310
FFFFFFFFFFFFFFFFFFFFFFFFFFFFFFFFF0000000000000000000000000000000
310
0000000000000000000000000000000000000000000000000000000000000000
310
0000000000000000000000000000000000000000000000000000000000000000
310
0000000000000000000000000000000000000000000000000000000000000000
310
0000000000000000000000000000000000000000000000000000000000000000
310
0000000000000000000000000000000000000000000000000000000000000000
310
0000000000000000000000000000000000000000000000000000000000000000
310
0000000000000000000000000000000000000000000000000000000000000000
310
0000000000000000000000000000000000000000000000000000000000000000
310
0000000000000000000000000000000000000000000000000000000000000000
310
0000000000000000000000000000000000000000000000000000000000000000
310
0000000000000000000000000000000000000000000000000000000000000000
310
0000000000000000000000000000000000000000000000000000000000000000
310
0000000000000000000000000000000000000000000000000000000000000000
310
0000000000000000000000000000000000000000000000000000000000000000
310
0000000000000000000000000000000000000000000000000000000000000000
  1
OLE
  0
ENDSEC
  0
SECTION
  2
OBJECTS
  0
DICTIONARY
  5
C
330
0
100
AcDbDictionary
281
     1
  3
ACAD_GROUP
350
D
  3
ACAD_LAYOUT
350
1A
  3
ACAD_MLINESTYLE
350
17
  3
ACAD_PLOTSETTINGS
350
19
  3
ACAD_PLOTSTYLENAME
350
E
  0
DICTIONARY
  5
D
102
{ACAD_REACTORS
330
C
102
}
330
C
100
AcDbDictionary
281
     1
  0
DICTIONARY
  5
1A
102
{ACAD_REACTORS
330
C
102
}
330
C
100
AcDbDictionary
281
     1
  3
Layout1
350
1E
  3
Layout2
350
26
  3
Model
350
22
  0
DICTIONARY
  5
17
102
{ACAD_REACTORS
330
C
102
}
330
C
100
AcDbDictionary
281
     1
  3
Standard
350
18
  0
DICTIONARY
  5
19
102
{ACAD_REACTORS
330
C
102
}
330
C
100
AcDbDictionary
281
     1
  0
ACDBDICTIONARYWDFLT
  5
E
102
{ACAD_REACTORS
330
C
102
}
330
C
100
AcDbDictionary
281
     1
  3
Normal
350
F
100
AcDbDictionaryWithDefault
340
F
  0
LAYOUT
  5
1E
102
{ACAD_REACTORS
330
1A
102
}
330
1A
100
AcDbPlotSettings
  1

  2
none_device
  4

  6

 40
0.0
 41
0.0
 42
0.0
 43
0.0
 44
0.0
 45
0.0
 46
0.0
 47
0.0
 48
0.0
 49
0.0
140
0.0
141
0.0
142
1.0
143
1.0
 70
   688
 72
     0
 73
     0
 74
     5
  7

 75
    16
147
1.0
148
0.0
149
0.0
100
AcDbLayout
  1
Layout1
 70
     1
 71
     1
 10
0.0
 20
0.0
 11
420.0
 21
297.0
 12
0.0
 22
0.0
 32
0.0
 14
1.0000000000E+20
 24
1.0000000000E+20
 34
1.0000000000E+20
 15
-1.0000000000E+20
 25
-1.0000000000E+20
 35
-1.0000000000E+20
146
0.0
 13
0.0
 23
0.0
 33
0.0
 16
1.0
 26
0.0
 36
0.0
 17
0.0
 27
1.0
 37
0.0
 76
     0
330
1B
  0
LAYOUT
  5
26
102
{ACAD_REACTORS
330
1A
102
}
330
1A
100
AcDbPlotSettings
  1

  2
none_device
  4

  6

 40
0.0
 41
0.0
 42
0.0
 43
0.0
 44
0.0
 45
0.0
 46
0.0
 47
0.0
 48
0.0
 49
0.0
140
0.0
141
0.0
142
1.0
143
1.0
 70
   688
 72
     0
 73
     0
 74
     5
  7

 75
    16
147
1.0
148
0.0
149
0.0
100
AcDbLayout
  1
Layout2
 70
     1
 71
     2
 10
0.0
 20
0.0
 11
0.0
 21
0.0
 12
0.0
 22
0.0
 32
0.0
 14
0.0
 24
0.0
 34
0.0
 15
0.0
 25
0.0
 35
0.0
146
0.0
 13
0.0
 23
0.0
 33
0.0
 16
1.0
 26
0.0
 36
0.0
 17
0.0
 27
1.0
 37
0.0
 76
     0
330
23
  0
LAYOUT
  5
22
102
{ACAD_REACTORS
330
1A
102
}
330
1A
100
AcDbPlotSettings
  1

  2
none_device
  4

  6

 40
0.0
 41
0.0
 42
0.0
 43
0.0
 44
0.0
 45
0.0
 46
0.0
 47
0.0
 48
0.0
 49
0.0
140
0.0
141
0.0
142
1.0
143
1.0
 70
  1712
 72
     0
 73
     0
 74
     0
  7

 75
     0
147
1.0
148
0.0
149
0.0
100
AcDbLayout
  1
Model
 70
     1
 71
     0
 10
0.0
 20
0.0
 11
297.0
 21
210.0
 12
0.0
 22
0.0
 32
0.0
 14
0.0
 24
0.0
 34
0.0
 15
297.0
 25
210.0
 35
0.0
146
0.0
 13
0.0
 23
0.0
 33
0.0
 16
1.0
 26
0.0
 36
0.0
 17
0.0
 27
1.0
 37
0.0
 76
     0
330
1F
331
29
  0
MLINESTYLE
  5
18
102
{ACAD_REACTORS
330
17
102
}
330
17
100
AcDbMlineStyle
  2
Standard
 70
     0
  3

 62
   256
 51
90.0
 52
90.0
 71
     2
 49
0.5
 62
   256
  6
BYLAYER
 49
-0.5
 62
   256
  6
BYLAYER
  0
ACDBPLACEHOLDER
  5
F
102
{ACAD_REACTORS
330
E
102
}
330
E
  0
ENDSEC
  0
EOF
