  0
SECTION
  2
HEADER
  9
$ACADVER
  1
AC1015
  9
$ACADMAINTVER
 70
     6
  9
$DWGCODEPAGE
  3
ANSI_1252
  9
$INSBASE
 10
0.0
 20
0.0
 30
0.0
  9
$EXTMIN
 10
0.0
 20
0.0
 30
0.0
  9
$EXTMAX
 10
297.0
 20
210.0
 30
0.0
  9
$LIMMIN
 10
0.0
 20
0.0
  9
$LIMMAX
 10
297.0
 20
210.0
  9
$ORTHOMODE
 70
     0
  9
$REGENMODE
 70
     1
  9
$FILLMODE
 70
     1
  9
$QTEXTMODE
 70
     0
  9
$MIRRTEXT
 70
     1
  9
$LTSCALE
 40
1.0
  9
$ATTMODE
 70
     1
  9
$TEXTSIZE
 40
2.0
  9
$TRACEWID
 40
1.0
  9
$TEXTSTYLE
  7
Standard
  9
$CLAYER
  8
0
  9
$CELTYPE
  6
ByLayer
  9
$CECOLOR
 62
   256
  9
$CELTSCALE
 40
1.0
  9
$DISPSILH
 70
     0
  9
$DIMSCALE
 40
1.0
  9
$DIMASZ
 40
3.0
  9
$DIMEXO
 40
0.0
  9
$DIMDLI
 40
3.75
  9
$DIMRND
 40
0.0
  9
$DIMDLE
 40
0.0
  9
$DIMEXE
 40
1.0
  9
$DIMTP
 40
0.0
  9
$DIMTM
 40
0.0
  9
$DIMTXT
 40
2.0
  9
$DIMCEN
 40
2.5
  9
$DIMTSZ
 40
0.0
  9
$DIMTOL
 70
     0
  9
$DIMLIM
 70
     0
  9
$DIMTIH
 70
     1
  9
$DIMTOH
 70
     1
  9
$DIMSE1
 70
     0
  9
$DIMSE2
 70
     0
  9
$DIMTAD
 70
     1
  9
$DIMZIN
 70
     0
  9
$DIMBLK
  1

  9
$DIMASO
 70
     1
  9
$DIMSHO
 70
     1
  9
$DIMPOST
  1

  9
$DIMAPOST
  1

  9
$DIMALT
 70
     0
  9
$DIMALTD
 70
     3
  9
$DIMALTF
 40
0.0393700787
  9
$DIMLFAC
 40
1.0
  9
$DIMTOFL
 70
     1
  9
$DIMTVP
 40
0.0
  9
$DIMTIX
 70
     0
  9
$DIMSOXD
 70
     0
  9
$DIMSAH
 70
     0
  9
$DIMBLK1
  1

  9
$DIMBLK2
  1

  9
$DIMSTYLE
  2
ISO-25
  9
$DIMCLRD
 70
     0
  9
$DIMCLRE
 70
     0
  9
$DIMCLRT
 70
     0
  9
$DIMTFAC
 40
1.0
  9
$DIMGAP
 40
1.524
  9
$DIMJUST
 70
     0
  9
$DIMSD1
 70
     0
  9
$DIMSD2
 70
     0
  9
$DIMTOLJ
 70
     0
  9
$DIMTZIN
 70
     0
  9
$DIMALTZ
 70
     0
  9
$DIMALTTZ
 70
     0
  9
$DIMUPT
 70
     0
  9
$DIMDEC
 70
     2
  9
$DIMTDEC
 70
     3
  9
$DIMALTU
 70
     2
  9
$DIMALTTD
 70
     3
  9
$DIMTXSTY
  7
Standard
  9
$DIMAUNIT
 70
     0
  9
$DIMADEC
 70
     2
  9
$DIMALTRND
 40
0.0
  9
$DIMAZIN
 70
     0
  9
$DIMDSEP
 70
    44
  9
$DIMATFIT
 70
     3
  9
$DIMFRAC
 70
     0
  9
$DIMLDRBLK
  1

  9
$DIMLUNIT
 70
     2
  9
$DIMLWD
 70
    -2
  9
$DIMLWE
 70
    -2
  9
$DIMTMOVE
 70
     0
  9
$LUNITS
 70
     2
  9
$LUPREC
 70
     2
  9
$SKETCHINC
 40
1.0
  9
$FILLETRAD
 40
10.0
  9
$AUNITS
 70
     0
  9
$AUPREC
 70
     2
  9
$MENU
  1
.
  9
$ELEVATION
 40
0.0
  9
$PELEVATION
 40
0.0
  9
$THICKNESS
 40
0.0
  9
$LIMCHECK
 70
     0
  9
$CHAMFERA
 40
10.0
  9
$CHAMFERB
 40
10.0
  9
$CHAMFERC
 40
20.0
  9
$CHAMFERD
 40
0.0
  9
$SKPOLY
 70
     0
  9
$TDCREATE
 40
2456071.391709097
  9
$TDUCREATE
 40
2456071.308375764
  9
$TDUPDATE
 40
2456071.391710359
  9
$TDUUPDATE
 40
2456071.308377026
  9
$TDINDWG
 40
0.0000000116
  9
$TDUSRTIMER
 40
0.0000000116
  9
$USRTIMER
 70
     1
  9
$ANGBASE
 50
0.0
  9
$ANGDIR
 70
     0
  9
$PDMODE
 70
     0
  9
$PDSIZE
 40
-1.0
  9
$PLINEWID
 40
0.0
  9
$SPLFRAME
 70
     0
  9
$SPLINETYPE
 70
     6
  9
$SPLINESEGS
 70
     8
  9
$HANDSEED
  5
24C
  9
$SURFTAB1
 70
     6
  9
$SURFTAB2
 70
     6
  9
$SURFTYPE
 70
     6
  9
$SURFU
 70
     6
  9
$SURFV
 70
     6
  9
$UCSBASE
  2

  9
$UCSNAME
  2

  9
$UCSORG
 10
0.0
 20
0.0
 30
0.0
  9
$UCSXDIR
 10
1.0
 20
0.0
 30
0.0
  9
$UCSYDIR
 10
0.0
 20
1.0
 30
0.0
  9
$UCSORTHOREF
  2

  9
$UCSORTHOVIEW
 70
     0
  9
$UCSORGTOP
 10
0.0
 20
0.0
 30
0.0
  9
$UCSORGBOTTOM
 10
0.0
 20
0.0
 30
0.0
  9
$UCSORGLEFT
 10
0.0
 20
0.0
 30
0.0
  9
$UCSORGRIGHT
 10
0.0
 20
0.0
 30
0.0
  9
$UCSORGFRONT
 10
0.0
 20
0.0
 30
0.0
  9
$UCSORGBACK
 10
0.0
 20
0.0
 30
0.0
  9
$PUCSBASE
  2

  9
$PUCSNAME
  2

  9
$PUCSORG
 10
0.0
 20
0.0
 30
0.0
  9
$PUCSXDIR
 10
1.0
 20
0.0
 30
0.0
  9
$PUCSYDIR
 10
0.0
 20
1.0
 30
0.0
  9
$PUCSORTHOREF
  2

  9
$PUCSORTHOVIEW
 70
     0
  9
$PUCSORGTOP
 10
0.0
 20
0.0
 30
0.0
  9
$PUCSORGBOTTOM
 10
0.0
 20
0.0
 30
0.0
  9
$PUCSORGLEFT
 10
0.0
 20
0.0
 30
0.0
  9
$PUCSORGRIGHT
 10
0.0
 20
0.0
 30
0.0
  9
$PUCSORGFRONT
 10
0.0
 20
0.0
 30
0.0
  9
$PUCSORGBACK
 10
0.0
 20
0.0
 30
0.0
  9
$USERI1
 70
     0
  9
$USERI2
 70
     0
  9
$USERI3
 70
     0
  9
$USERI4
 70
     0
  9
$USERI5
 70
     0
  9
$USERR1
 40
0.0
  9
$USERR2
 40
0.0
  9
$USERR3
 40
0.0
  9
$USERR4
 40
0.0
  9
$USERR5
 40
0.0
  9
$WORLDVIEW
 70
     1
  9
$SHADEDGE
 70
     3
  9
$SHADEDIF
 70
    70
  9
$TILEMODE
 70
     1
  9
$MAXACTVP
 70
    64
  9
$PINSBASE
 10
0.0
 20
0.0
 30
0.0
  9
$PLIMCHECK
 70
     0
  9
$PEXTMIN
 10
1.0000000000E+20
 20
1.0000000000E+20
 30
1.0000000000E+20
  9
$PEXTMAX
 10
-1.0000000000E+20
 20
-1.0000000000E+20
 30
-1.0000000000E+20
  9
$PLIMMIN
 10
0.0
 20
0.0
  9
$PLIMMAX
 10
420.0
 20
297.0
  9
$UNITMODE
 70
     0
  9
$VISRETAIN
 70
     1
  9
$PLINEGEN
 70
     0
  9
$PSLTSCALE
 70
     1
  9
$TREEDEPTH
 70
  3020
  9
$CMLSTYLE
  2
Standard
  9
$CMLJUST
 70
     0
  9
$CMLSCALE
 40
20.0
  9
$PROXYGRAPHICS
 70
     1
  9
$MEASUREMENT
 70
     1
  9
$CELWEIGHT
370
    -1
  9
$ENDCAPS
280
     0
  9
$JOINSTYLE
280
     0
  9
$LWDISPLAY
290
     1
  9
$INSUNITS
 70
     4
  9
$HYPERLINKBASE
  1

  9
$STYLESHEET
  1

  9
$XEDIT
290
     1
  9
$CEPSNTYPE
380
     0
  9
$PSTYLEMODE
290
     1
  9
$FINGERPRINTGUID
  2
{DD4190B3-710B-4A50-A730-37AC199AFB3C}
  9
$VERSIONGUID
  2
{FAEB1C32-E019-11D5-929B-00C0DF256EC4}
  9
$EXTNAMES
290
     1
  9
$PSVPSCALE
 40
0.0
  9
$OLESTARTUP
290
     0
  0
ENDSEC
  0
SECTION
  2
CLASSES
  0
CLASS
  1
ACDBDICTIONARYWDFLT
  2
AcDbDictionaryWithDefault
  3
ObjectDBX Classes
 90
        0
280
     0
281
     0
  0
CLASS
  1
VISUALSTYLE
  2
AcDbVisualStyle
  3
ObjectDBX Classes
 90
     4095
280
     0
281
     0
  0
CLASS
  1
MATERIAL
  2
AcDbMaterial
  3
ObjectDBX Classes
 90
     1153
280
     0
281
     0
  0
CLASS
  1
ACDBPLACEHOLDER
  2
AcDbPlaceHolder
  3
ObjectDBX Classes
 90
        0
280
     0
281
     0
  0
CLASS
  1
LAYOUT
  2
AcDbLayout
  3
ObjectDBX Classes
 90
        0
280
     0
281
     0
  0
ENDSEC
  0
SECTION
  2
TABLES
  0
TABLE
  2
VPORT
  5
8
330
0
100
AcDbSymbolTable
 70
     1
  0
VPORT
  5
29
330
8
100
AcDbSymbolTableRecord
100
AcDbViewportTableRecord
  2
*Active
 70
     0
 10
0.0
 20
0.0
 11
1.0
 21
1.0
 12
148.5
 22
105.0
 13
0.0
 23
0.0
 14
10.0
 24
10.0
 15
10.0
 25
10.0
 16
0.0
 26
0.0
 36
1.0
 17
0.0
 27
0.0
 37
0.0
 40
210.0
 41
1.4142857143
 42
50.0
 43
0.0
 44
0.0
 50
0.0
 51
0.0
 71
     0
 72
  2000
 73
     1
 74
     3
 75
     0
 76
     0
 77
     0
 78
     0
281
     0
 65
     1
110
0.0
120
0.0
130
0.0
111
1.0
121
0.0
131
0.0
112
0.0
122
1.0
132
0.0
 79
     0
146
0.0
  0
ENDTAB
  0
TABLE
  2
LTYPE
  5
5
330
0
100
AcDbSymbolTable
 70
     6
  0
LTYPE
  5
14
330
5
100
AcDbSymbolTableRecord
100
AcDbLinetypeTableRecord
  2
ByBlock
 70
     0
  3

 72
    65
 73
     0
 40
0.0
  0
LTYPE
  5
15
330
5
100
AcDbSymbolTableRecord
100
AcDbLinetypeTableRecord
  2
ByLayer
 70
     0
  3

 72
    65
 73
     0
 40
0.0
  0
LTYPE
  5
16
330
5
100
AcDbSymbolTableRecord
100
AcDbLinetypeTableRecord
  2
Continuous
 70
     0
  3
Solid line
 72
    65
 73
     0
 40
0.0
  0
LTYPE
  5
3F
330
5
100
AcDbSymbolTableRecord
100
AcDbLinetypeTableRecord
  2
HIDDEN
 70
     0
  3
Hidden __ __ __ __ __ __ __ __ __ __ __ __ __ __
 72
    65
 73
     2
 40
1.905
 49
1.27
 74
     0
 49
-0.635
 74
     0
  0
LTYPE
  5
40
330
5
100
AcDbSymbolTableRecord
100
AcDbLinetypeTableRecord
  2
PHANTOM
 70
     0
  3
Phantom ______  __  __  ______  __  __  ______
 72
    65
 73
     6
 40
12.7
 49
6.35
 74
     0
 49
-1.27
 74
     0
 49
1.27
 74
     0
 49
-1.27
 74
     0
 49
1.27
 74
     0
 49
-1.27
 74
     0
  0
LTYPE
  5
41
330
5
100
AcDbSymbolTableRecord
100
AcDbLinetypeTableRecord
  2
CENTER
 70
     0
  3
Center ____ _ ____ _ ____ _ ____ _ ____ _ ____
 72
    65
 73
     4
 40
10.16
 49
6.35
 74
     0
 49
-1.27
 74
     0
 49
1.27
 74
     0
 49
-1.27
 74
     0
  0
LTYPE
  5
42
330
5
100
AcDbSymbolTableRecord
100
AcDbLinetypeTableRecord
  2
CENTERX2
 70
     0
  3
Center (2x) ________  __  ________  __  _____
 72
    65
 73
     4
 40
20.32
 49
12.7
 74
     0
 49
-2.54
 74
     0
 49
2.54
 74
     0
 49
-2.54
 74
     0
  0
LTYPE
  5
43
330
5
100
AcDbSymbolTableRecord
100
AcDbLinetypeTableRecord
  2
DOT2
 70
     0
  3
Dot (.5x) ........................................
 72
    65
 73
     2
 40
0.635
 49
0.0
 74
     0
 49
-0.635
 74
     0
  0
ENDTAB
  0
TABLE
  2
LAYER
  5
2
330
0
100
AcDbSymbolTable
 70
     5
  0
LAYER
  5
10
330
2
100
AcDbSymbolTableRecord
100
AcDbLayerTableRecord
  2
0
 70
     0
 62
     7
  6
Continuous
370
    -3
390
F
  0
LAYER
  5
44
330
2
100
AcDbSymbolTableRecord
100
AcDbLayerTableRecord
  2
FORMAT
 70
     0
 62
     7
  6
Continuous
370
    -3
390
F
  0
LAYER
  5
45
330
2
100
AcDbSymbolTableRecord
100
AcDbLayerTableRecord
  2
VERMASSUNG
 70
     0
 62
     7
  6
Continuous
370
    -3
390
F
  0
LAYER
  5
46
330
2
100
AcDbSymbolTableRecord
100
AcDbLayerTableRecord
  2
KOPF_DÜNN
 70
     0
 62
     7
  6
Continuous
370
    -3
390
F
  0
LAYER
  5
47
330
2
100
AcDbSymbolTableRecord
100
AcDbLayerTableRecord
  2
KOPF_DICK
 70
     0
 62
     7
  6
Continuous
370
    15
390
F
  0
ENDTAB
  0
TABLE
  2
STYLE
  5
3
330
0
100
AcDbSymbolTable
 70
     2
  0
STYLE
  5
11
330
3
100
AcDbSymbolTableRecord
100
AcDbTextStyleTableRecord
  2
Standard
 70
     0
 40
0.0
 41
1.0
 50
0.0
 71
     0
 42
2.0
  3
txt
  4

  0
STYLE
  5
48
330
3
100
AcDbSymbolTableRecord
100
AcDbTextStyleTableRecord
  2
SLDTEXTSTYLE0
 70
     0
 40
0.0
 41
0.7
 50
0.0
 71
     0
 42
0.2
  3
TXT
  4

  0
ENDTAB
  0
TABLE
  2
VIEW
  5
6
330
0
100
AcDbSymbolTable
 70
     0
  0
ENDTAB
  0
TABLE
  2
UCS
  5
7
330
0
100
AcDbSymbolTable
 70
     0
  0
ENDTAB
  0
TABLE
  2
APPID
  5
9
330
0
100
AcDbSymbolTable
 70
     1
  0
APPID
  5
12
330
9
100
AcDbSymbolTableRecord
100
AcDbRegAppTableRecord
  2
ACAD
 70
     0
  0
ENDTAB
  0
TABLE
  2
DIMSTYLE
  5
A
330
0
100
AcDbSymbolTable
 70
     4
100
AcDbDimStyleTable
  0
DIMSTYLE
105
27
330
A
100
AcDbSymbolTableRecord
100
AcDbDimStyleTableRecord
  2
ISO-25
 70
     0
 41
2.5
 42
0.625
 43
3.75
 44
1.25
 73
     0
 74
     0
 77
     1
 78
     8
140
2.5
141
2.5
143
0.0393700787
147
0.625
171
     3
172
     1
178
     0
271
     2
272
     2
274
     3
278
    44
283
     0
284
     8
340
11
  0
DIMSTYLE
105
1A6
102
{ACAD_REACTORS
330
1A5
102
}
330
A
100
AcDbSymbolTableRecord
100
AcDbDimStyleTableRecord
  2
SLDDIMSTYLE0
 70
     0
 41
3.0
 44
0.0
 73
     0
 74
     0
 77
     1
 78
    12
 79
     3
140
2.0
147
0.5
173
     1
178
     0
179
     1
272
     3
276
     2
284
    12
340
48
  0
DIMSTYLE
105
1B0
102
{ACAD_REACTORS
330
1AF
330
1BC
102
}
330
A
100
AcDbSymbolTableRecord
100
AcDbDimStyleTableRecord
  2
SLDDIMSTYLE1
 70
     0
 41
3.0
 44
0.0
 45
0.000000001
 47
0.1
 48
0.1
 71
     1
 73
     0
 74
     0
 77
     1
 78
    12
 79
     3
140
2.0
147
0.5
173
     1
178
     0
271
     2
272
     1
276
     2
284
     8
340
48
  0
DIMSTYLE
105
1C9
102
{ACAD_REACTORS
330
1C8
330
1D3
102
}
330
A
100
AcDbSymbolTableRecord
100
AcDbDimStyleTableRecord
  2
SLDDIMSTYLE2
 70
     0
 41
3.0
 44
0.0
 45
0.000000001
 73
     0
 74
     0
 77
     1
 78
    12
 79
     3
140
2.0
147
0.5
173
     1
178
     0
271
     2
272
     3
276
     2
284
    12
340
48
  0
ENDTAB
  0
TABLE
  2
BLOCK_RECORD
  5
1
330
0
100
AcDbSymbolTable
 70
     7
  0
BLOCK_RECORD
  5
1F
330
1
100
AcDbSymbolTableRecord
100
AcDbBlockTableRecord
  2
*Model_Space
340
22
  0
BLOCK_RECORD
  5
1B
330
1
100
AcDbSymbolTableRecord
100
AcDbBlockTableRecord
  2
*Paper_Space
340
1E
  0
BLOCK_RECORD
  5
23
330
1
100
AcDbSymbolTableRecord
100
AcDbBlockTableRecord
  2
*Paper_Space0
340
26
  0
BLOCK_RECORD
  5
1A7
330
1
100
AcDbSymbolTableRecord
100
AcDbBlockTableRecord
  2
_D
340
0
  0
BLOCK_RECORD
  5
1B1
330
1
100
AcDbSymbolTableRecord
100
AcDbBlockTableRecord
  2
_D_1
340
0
  0
BLOCK_RECORD
  5
1BD
330
1
100
AcDbSymbolTableRecord
100
AcDbBlockTableRecord
  2
_D_2
340
0
  0
BLOCK_RECORD
  5
1CA
330
1
100
AcDbSymbolTableRecord
100
AcDbBlockTableRecord
  2
_D_3
340
0
  0
BLOCK_RECORD
  5
1D4
330
1
100
AcDbSymbolTableRecord
100
AcDbBlockTableRecord
  2
_D_4
340
0
  0
BLOCK_RECORD
  5
23F
330
1
100
AcDbSymbolTableRecord
100
AcDbBlockTableRecord
  2
SW_CENTERMARKSYMBOL_0
340
0
102
{BLKREFS
331
24A
102
}
  0
ENDTAB
  0
ENDSEC
  0
SECTION
  2
BLOCKS
  0
BLOCK
  5
20
330
1F
100
AcDbEntity
  8
0
100
AcDbBlockBegin
  2
*Model_Space
 70
     0
 10
0.0
 20
0.0
 30
0.0
  3
*Model_Space
  1

  0
ENDBLK
  5
21
330
1F
100
AcDbEntity
  8
0
100
AcDbBlockEnd
  0
BLOCK
  5
1C
330
1B
100
AcDbEntity
 67
     1
  8
0
100
AcDbBlockBegin
  2
*Paper_Space
 70
     0
 10
0.0
 20
0.0
 30
0.0
  3
*Paper_Space
  1

  0
ENDBLK
  5
1D
330
1B
100
AcDbEntity
 67
     1
  8
0
100
AcDbBlockEnd
  0
BLOCK
  5
24
330
23
100
AcDbEntity
  8
0
100
AcDbBlockBegin
  2
*Paper_Space0
 70
     0
 10
0.0
 20
0.0
 30
0.0
  3
*Paper_Space0
  1

  0
ENDBLK
  5
25
330
23
100
AcDbEntity
  8
0
100
AcDbBlockEnd
  0
BLOCK
  5
1A8
330
1A7
100
AcDbEntity
  8
0
100
AcDbBlockBegin
  2
_D
 70
     0
 10
0.0
 20
0.0
 30
0.0
  3
_D
  1

  0
ARC
  5
1AA
330
1A7
100
AcDbEntity
  8
VERMASSUNG
100
AcDbCircle
 10
240.9560148142
 20
147.0128167543
 30
0.0
 40
10.48484108652921
100
AcDbArc
 50
90.0
 51
183.0076247934
  0
SOLID
  5
1AB
330
1A7
100
AcDbEntity
  8
VERMASSUNG
100
AcDbTrace
 10
240.9560148142
 20
157.4976578408
 30
0.0
 11
237.9225908614
 21
157.5266254481
 31
0.0
 12
238.0475921285
 22
156.6353484523
 32
0.0
 13
238.0475921285
 23
156.6353484523
 33
0.0
  0
SOLID
  5
1AC
330
1A7
100
AcDbEntity
  8
VERMASSUNG
100
AcDbTrace
 10
230.485615955
 20
146.4626891879
 30
0.0
 11
231.194135968
 21
149.4123500822
 31
0.0
 12
230.2975279789
 22
149.4904148877
 32
0.0
 13
230.2975279789
 23
149.4904148877
 33
0.0
  0
LINE
  5
1AD
330
1A7
100
AcDbEntity
  8
VERMASSUNG
100
AcDbLine
 10
240.9560148142
 20
156.1664578074
 30
0.0
 11
240.9560148142
 21
158.4976578408
 31
0.0
  0
MTEXT
  5
1AE
330
1A7
100
AcDbEntity
  8
VERMASSUNG
100
AcDbMText
 10
229.4837797649
 20
153.9004272131
 30
0.1
 40
2.0
 41
0.0
 71
     1
 72
     1
  1
93°
  7
SLDTEXTSTYLE0
 11
0.6883063085752748
 21
0.7254201717456433
 31
0.0
 73
     1
 44
1.0
  0
ENDBLK
  5
1A9
330
1A7
100
AcDbEntity
  8
0
100
AcDbBlockEnd
  0
BLOCK
  5
1B2
330
1B1
100
AcDbEntity
  8
0
100
AcDbBlockBegin
  2
_D_1
 70
     0
 10
0.0
 20
0.0
 30
0.0
  3
_D_1
  1

  0
SOLID
  5
1B4
330
1B1
100
AcDbEntity
  8
VERMASSUNG
100
AcDbTrace
 10
251.1025517961
 20
146.9893255395
 30
0.0
 11
250.6525517961
 21
143.9893255395
 31
0.0
 12
251.5525517961
 22
143.9893255395
 32
0.0
 13
251.5525517961
 23
143.9893255395
 33
0.0
  0
SOLID
  5
1B5
330
1B1
100
AcDbEntity
  8
VERMASSUNG
100
AcDbTrace
 10
251.1025517961
 20
111.9893255395
 30
0.0
 11
251.5525517961
 21
114.9893255395
 31
0.0
 12
250.6525517961
 22
114.9893255395
 32
0.0
 13
250.6525517961
 23
114.9893255395
 33
0.0
  0
LINE
  5
1B6
330
1B1
100
AcDbEntity
  8
VERMASSUNG
100
AcDbLine
 10
240.9560148142
 20
146.9893255395
 30
0.0
 11
252.1025517961
 21
146.9893255395
 31
0.0
  0
LINE
  5
1B7
330
1B1
100
AcDbEntity
  8
VERMASSUNG
100
AcDbLine
 10
240.9560148142
 20
111.9893255395
 30
0.0
 11
252.1025517961
 21
111.9893255395
 31
0.0
  0
LINE
  5
1B8
330
1B1
100
AcDbEntity
  8
VERMASSUNG
100
AcDbLine
 10
251.1025517961
 20
146.9893255395
 30
0.0
 11
251.1025517961
 21
111.9893255395
 31
0.0
  0
MTEXT
  5
1B9
330
1B1
100
AcDbEntity
  8
VERMASSUNG
100
AcDbMText
 10
248.524416433
 20
124.9393253525
 30
0.1
 40
2.0
 41
0.0
 71
     1
 72
     1
  1
35
  7
SLDTEXTSTYLE0
 11
-7.044195017643634E-15
 21
1.0
 31
0.0
 73
     1
 44
1.0
  0
MTEXT
  5
1BA
330
1B1
100
AcDbEntity
  8
VERMASSUNG
100
AcDbMText
 10
248.524416433
 20
130.7268254545
 30
0.1
 40
2.0
 41
0.0
 71
     1
 72
     1
  1

  7
SLDTEXTSTYLE0
 11
-7.044195017643634E-15
 21
1.0
 31
0.0
 73
     1
 44
1.0
  0
MTEXT
  5
1BB
330
1B1
100
AcDbEntity
  8
VERMASSUNG
100
AcDbMText
 10
249.0189502957
 20
130.7393257444
 30
0.1
 40
1.5
 41
0.0
 71
     1
 72
     1
  1
±0.1
  7
SLDTEXTSTYLE0
 11
-7.044195017643634E-15
 21
1.0
 31
0.0
 73
     1
 44
1.0
  0
ENDBLK
  5
1B3
330
1B1
100
AcDbEntity
  8
0
100
AcDbBlockEnd
  0
BLOCK
  5
1BE
330
1BD
100
AcDbEntity
  8
0
100
AcDbBlockBegin
  2
_D_2
 70
     0
 10
0.0
 20
0.0
 30
0.0
  3
_D_2
  1

  0
SOLID
  5
1C0
330
1BD
100
AcDbEntity
  8
VERMASSUNG
100
AcDbTrace
 10
180.9560148142
 20
161.4213365767
 30
0.0
 11
183.9560148142
 21
160.9713365767
 31
0.0
 12
183.9560148142
 22
161.8713365767
 32
0.0
 13
183.9560148142
 23
161.8713365767
 33
0.0
  0
SOLID
  5
1C1
330
1BD
100
AcDbEntity
  8
VERMASSUNG
100
AcDbTrace
 10
240.9560148142
 20
161.4213365767
 30
0.0
 11
237.9560148142
 21
161.8713365767
 31
0.0
 12
237.9560148142
 22
160.9713365767
 32
0.0
 13
237.9560148142
 23
160.9713365767
 33
0.0
  0
LINE
  5
1C2
330
1BD
100
AcDbEntity
  8
VERMASSUNG
100
AcDbLine
 10
180.9560148142
 20
136.6893255395
 30
0.0
 11
180.9560148142
 21
162.4213365767
 31
0.0
  0
LINE
  5
1C3
330
1BD
100
AcDbEntity
  8
VERMASSUNG
100
AcDbLine
 10
240.9560148142
 20
146.9893255395
 30
0.0
 11
240.9560148142
 21
162.4213365767
 31
0.0
  0
LINE
  5
1C4
330
1BD
100
AcDbEntity
  8
VERMASSUNG
100
AcDbLine
 10
180.9560148142
 20
161.4213365767
 30
0.0
 11
240.9560148142
 21
161.4213365767
 31
0.0
  0
MTEXT
  5
1C5
330
1BD
100
AcDbEntity
  8
VERMASSUNG
100
AcDbMText
 10
206.4060146272
 20
163.9994719398
 30
0.1
 40
2.0
 41
0.0
 71
     1
 72
     1
  1
60
  7
SLDTEXTSTYLE0
 73
     1
 44
1.0
  0
MTEXT
  5
1C6
330
1BD
100
AcDbEntity
  8
VERMASSUNG
100
AcDbMText
 10
212.1935147293
 20
163.9994719398
 30
0.1
 40
2.0
 41
0.0
 71
     1
 72
     1
  1

  7
SLDTEXTSTYLE0
 73
     1
 44
1.0
  0
MTEXT
  5
1C7
330
1BD
100
AcDbEntity
  8
VERMASSUNG
100
AcDbMText
 10
212.2060150191
 20
163.504938077
 30
0.1
 40
1.5
 41
0.0
 71
     1
 72
     1
  1
±0.1
  7
SLDTEXTSTYLE0
 73
     1
 44
1.0
  0
ENDBLK
  5
1BF
330
1BD
100
AcDbEntity
  8
0
100
AcDbBlockEnd
  0
BLOCK
  5
1CB
330
1CA
100
AcDbEntity
  8
0
100
AcDbBlockBegin
  2
_D_3
 70
     0
 10
0.0
 20
0.0
 30
0.0
  3
_D_3
  1

  0
SOLID
  5
1CD
330
1CA
100
AcDbEntity
  8
VERMASSUNG
100
AcDbTrace
 10
150.9560148142
 20
169.353142242
 30
0.0
 11
153.9560148142
 21
168.903142242
 31
0.0
 12
153.9560148142
 22
169.803142242
 32
0.0
 13
153.9560148142
 23
169.803142242
 33
0.0
  0
SOLID
  5
1CE
330
1CA
100
AcDbEntity
  8
VERMASSUNG
100
AcDbTrace
 10
240.9560148142
 20
169.353142242
 30
0.0
 11
237.9560148142
 21
169.803142242
 31
0.0
 12
237.9560148142
 22
168.903142242
 32
0.0
 13
237.9560148142
 23
168.903142242
 33
0.0
  0
LINE
  5
1CF
330
1CA
100
AcDbEntity
  8
VERMASSUNG
100
AcDbLine
 10
150.9560148142
 20
127.9826513776
 30
0.0
 11
150.9560148142
 21
170.353142242
 31
0.0
  0
LINE
  5
1D0
330
1CA
100
AcDbEntity
  8
VERMASSUNG
100
AcDbLine
 10
240.9560148142
 20
146.9893255395
 30
0.0
 11
240.9560148142
 21
170.353142242
 31
0.0
  0
LINE
  5
1D1
330
1CA
100
AcDbEntity
  8
VERMASSUNG
100
AcDbLine
 10
150.9560148142
 20
169.353142242
 30
0.0
 11
240.9560148142
 21
169.353142242
 31
0.0
  0
MTEXT
  5
1D2
330
1CA
100
AcDbEntity
  8
VERMASSUNG
100
AcDbMText
 10
193.6560147632
 20
171.9312776051
 30
0.1
 40
2.0
 41
0.0
 71
     1
 72
     1
  1
90
  7
SLDTEXTSTYLE0
 73
     1
 44
1.0
  0
ENDBLK
  5
1CC
330
1CA
100
AcDbEntity
  8
0
100
AcDbBlockEnd
  0
BLOCK
  5
1D5
330
1D4
100
AcDbEntity
  8
0
100
AcDbBlockBegin
  2
_D_4
 70
     0
 10
0.0
 20
0.0
 30
0.0
  3
_D_4
  1

  0
SOLID
  5
1D7
330
1D4
100
AcDbEntity
  8
VERMASSUNG
100
AcDbTrace
 10
142.9643906578
 20
136.9893255395
 30
0.0
 11
142.5143906578
 21
133.9893255395
 31
0.0
 12
143.4143906578
 22
133.9893255395
 32
0.0
 13
143.4143906578
 23
133.9893255395
 33
0.0
  0
SOLID
  5
1D8
330
1D4
100
AcDbEntity
  8
VERMASSUNG
100
AcDbTrace
 10
142.9643906578
 20
86.9893255395
 30
0.0
 11
143.4143906578
 21
89.9893255395
 31
0.0
 12
142.5143906578
 22
89.9893255395
 32
0.0
 13
142.5143906578
 23
89.9893255395
 33
0.0
  0
LINE
  5
1D9
330
1D4
100
AcDbEntity
  8
VERMASSUNG
100
AcDbLine
 10
181.2560148142
 20
136.9893255395
 30
0.0
 11
141.9643906578
 21
136.9893255395
 31
0.0
  0
LINE
  5
1DA
330
1D4
100
AcDbEntity
  8
VERMASSUNG
100
AcDbLine
 10
181.2560148142
 20
86.9893255395
 30
0.0
 11
141.9643906578
 21
86.9893255395
 31
0.0
  0
LINE
  5
1DB
330
1D4
100
AcDbEntity
  8
VERMASSUNG
100
AcDbLine
 10
142.9643906578
 20
136.9893255395
 30
0.0
 11
142.9643906578
 21
86.9893255395
 31
0.0
  0
MTEXT
  5
1DC
330
1D4
100
AcDbEntity
  8
VERMASSUNG
100
AcDbMText
 10
140.1862551688
 20
105.5843254303
 30
0.467415379
 40
2.0
 41
0.0
 71
     1
 72
     1
  1
PSC
  7
SLDTEXTSTYLE0
 11
-7.044195017643634E-15
 21
1.0
 31
0.0
 73
     1
 44
1.0
  0
MTEXT
  5
1DD
330
1D4
100
AcDbEntity
  8
VERMASSUNG
100
AcDbMText
 10
140.3862551783
 20
110.1843255323
 30
0.467415379
 40
2.0
 41
0.0
 71
     1
 72
     1
  1
%%c
  7
SLDTEXTSTYLE0
 11
-7.044195017643634E-15
 21
1.0
 31
0.0
 73
     1
 44
1.0
  0
MTEXT
  5
1DE
330
1D4
100
AcDbEntity
  8
VERMASSUNG
100
AcDbMText
 10
140.1862551688
 20
113.7943260123
 30
0.467415379
 40
2.0
 41
0.0
 71
     1
 72
     1
  1
50
  7
SLDTEXTSTYLE0
 11
-7.044195017643634E-15
 21
1.0
 31
0.0
 73
     1
 44
1.0
  0
ENDBLK
  5
1D6
330
1D4
100
AcDbEntity
  8
0
100
AcDbBlockEnd
  0
BLOCK
  5
240
330
23F
100
AcDbEntity
  8
0
100
AcDbBlockBegin
  2
SW_CENTERMARKSYMBOL_0
 70
     0
 10
0.0
 20
0.0
 30
0.0
  3
SW_CENTERMARKSYMBOL_0
  1

  0
LINE
  5
242
330
23F
100
AcDbEntity
  8
VERMASSUNG
 62
     0
100
AcDbLine
 10
0.0
 20
0.0
 30
0.0
 11
0.0
 21
2.5
 31
0.0
  0
LINE
  5
243
330
23F
100
AcDbEntity
  8
VERMASSUNG
 62
     0
100
AcDbLine
 10
0.0
 20
0.0
 30
0.0
 11
-2.5
 21
0.0
 31
0.0
  0
LINE
  5
244
330
23F
100
AcDbEntity
  8
VERMASSUNG
 62
     0
100
AcDbLine
 10
0.0
 20
0.0
 30
0.0
 11
0.0
 21
-2.5
 31
0.0
  0
LINE
  5
245
330
23F
100
AcDbEntity
  8
VERMASSUNG
 62
     0
100
AcDbLine
 10
0.0
 20
0.0
 30
0.0
 11
2.5
 21
0.0
 31
0.0
  0
LINE
  5
246
330
23F
100
AcDbEntity
  8
VERMASSUNG
 62
     0
100
AcDbLine
 10
0.0
 20
5.0
 30
0.0
 11
0.0
 21
37.4333109949
 31
0.0
  0
LINE
  5
247
330
23F
100
AcDbEntity
  8
VERMASSUNG
 62
     0
100
AcDbLine
 10
-5.0
 20
0.0
 30
0.0
 11
-27.5
 21
0.0
 31
0.0
  0
LINE
  5
248
330
23F
100
AcDbEntity
  8
VERMASSUNG
 62
     0
100
AcDbLine
 10
0.0
 20
-5.0
 30
0.0
 11
0.0
 21
-27.5
 31
0.0
  0
LINE
  5
249
330
23F
100
AcDbEntity
  8
VERMASSUNG
 62
     0
100
AcDbLine
 10
5.0
 20
0.0
 30
0.0
 11
27.5
 21
0.0
 31
0.0
  0
ENDBLK
  5
241
330
23F
100
AcDbEntity
  8
0
100
AcDbBlockEnd
  0
ENDSEC
  0
SECTION
  2
ENTITIES
  0
MTEXT
  5
49
330
1F
100
AcDbEntity
  8
KOPF_DÜNN
100
AcDbMText
 10
13.8892156294
 20
23.8442973028
 30
0.0
 40
3.0
 41
0.0
 71
     1
 72
     1
  1
PS5.PDF.RJA.060
  7
SLDTEXTSTYLE0
 73
     1
 44
1.0
  0
MTEXT
  5
4A
330
1F
100
AcDbEntity
  8
VERMASSUNG
100
AcDbMText
 10
13.9329988022
 20
28.8834360957
 30
0.0
 40
3.0
 41
0.0
 71
     1
 72
     1
  1
Klemmhalter rechts_Turning tool right 55°/93°
  7
SLDTEXTSTYLE0
 73
     1
 44
1.0
  0
MTEXT
  5
4B
330
1F
100
AcDbEntity
  8
VERMASSUNG
100
AcDbMText
 10
98.8601118557
 20
13.8365368179
 30
0.0
 40
2.0
 41
0.0
 71
     1
 72
     1
  1
Datum: 23.05.2012
  7
SLDTEXTSTYLE0
 73
     1
 44
1.0
  0
MTEXT
  5
4C
330
1F
100
AcDbEntity
  8
VERMASSUNG
100
AcDbMText
 10
13.933048693
 20
18.0482802738
 30
0.0
 40
2.0
 41
0.0
 71
     1
 72
     1
  1
PSC ø50 / DN..15 06 ..
  7
SLDTEXTSTYLE0
 73
     1
 44
1.0
  0
MTEXT
  5
4D
330
1F
100
AcDbEntity
  8
VERMASSUNG
100
AcDbMText
 10
13.9808475933
 20
13.9090973692
 30
0.0
 40
2.0
 41
0.0
 71
     1
 72
     1
  1
Gewicht: 716g
  7
SLDTEXTSTYLE0
 73
     1
 44
1.0
  0
LINE
  5
4E
330
1F
100
AcDbEntity
  8
0
  6
Continuous
 62
     7
370
    15
100
AcDbLine
 10
233.3373142503
 20
133.8774493647
 30
0.0
 11
233.6380643867
 21
134.1736285698
 31
0.0
  0
LINE
  5
4F
330
1F
100
AcDbEntity
  8
0
  6
Continuous
 62
     7
370
    15
100
AcDbLine
 10
226.0258546196
 20
146.1328292948
 30
0.0
 11
224.977613809
 21
145.1005141002
 31
0.0
  0
LINE
  5
50
330
1F
100
AcDbEntity
  8
0
  6
Continuous
 62
     7
370
    15
100
AcDbLine
 10
227.7561960839
 20
141.2281810057
 30
0.0
 11
227.3780195139
 21
140.8870468599
 31
0.0
  0
LINE
  5
51
330
1F
100
AcDbEntity
  8
0
  6
Continuous
 62
     7
370
    15
100
AcDbLine
 10
213.1886867903
 20
136.989325912
 30
0.0
 11
181.2560148285
 21
136.989325912
 31
0.0
  0
LINE
  5
52
330
1F
100
AcDbEntity
  8
0
  6
Continuous
 62
     7
370
    15
100
AcDbLine
 10
181.2560148285
 20
86.9893251669
 30
0.0
 11
209.9172281198
 21
86.9893251669
 31
0.0
  0
ARC
  5
53
330
1F
100
AcDbEntity
  8
0
  6
Continuous
 62
     7
370
    15
100
AcDbCircle
 10
181.2560148142
 20
87.2893255395
 30
0.0
 40
0.3000000000000114
100
AcDbArc
 50
180.0
 51
270.0
  0
ARC
  5
54
330
1F
100
AcDbEntity
  8
0
  6
Continuous
 62
     7
370
    15
100
AcDbCircle
 10
181.2560148142
 20
136.6893255395
 30
0.0
 40
0.2999999999999829
100
AcDbArc
 50
90.0
 51
180.0
  0
LWPOLYLINE
  5
55
330
1F
100
AcDbEntity
  8
0
  6
Continuous
 62
     7
370
    15
100
AcDbPolyline
 90
        3
 70
   128
 43
0.0
 10
180.7560148193
 20
94.1495044839
 10
180.8814697545
 20
94.081203149
 10
180.9560148142
 20
94.0284660769
  0
LWPOLYLINE
  5
56
330
1F
100
AcDbEntity
  8
0
  6
Continuous
 62
     7
370
    15
100
AcDbPolyline
 90
        3
 70
   128
 43
0.0
 10
180.9560148142
 20
129.9501850021
 10
180.8814697545
 20
129.89744793
 10
180.7560148193
 20
129.829146595
  0
ARC
  5
57
330
1F
100
AcDbEntity
  8
0
  6
Continuous
 62
     7
370
    15
100
AcDbCircle
 10
213.1886878262
 20
137.9893255395
 30
0.0
 40
1.0
100
AcDbArc
 50
270.0
 51
345.0
  0
LINE
  5
58
330
1F
100
AcDbEntity
  8
0
  6
Continuous
 62
     7
370
    15
100
AcDbLine
 10
215.8686829828
 20
144.1274943513
 30
0.0
 11
214.1546135865
 21
137.7305059445
 31
0.0
  0
LINE
  5
59
330
1F
100
AcDbEntity
  8
0
  6
Continuous
 62
     7
370
    15
100
AcDbLine
 10
225.2663908623
 20
145.1308677656
 30
0.0
 11
215.875243219
 21
144.1438185734
 31
0.0
  0
LINE
  5
5A
330
1F
100
AcDbEntity
  8
0
  6
Continuous
 62
     7
370
    15
100
AcDbLine
 10
219.1327376388
 20
133.3159642977
 30
0.0
 11
233.3900382839
 21
134.065060572
 31
0.0
  0
ARC
  5
5B
330
1F
100
AcDbEntity
  8
0
  6
Continuous
 62
     7
370
    15
100
AcDbCircle
 10
219.1115525353
 20
133.7194985129
 30
0.0
 40
0.4040899299887422
100
AcDbArc
 50
150.5170468302
 51
273.0052066595
  0
LINE
  5
5C
330
1F
100
AcDbEntity
  8
0
  6
Continuous
 62
     7
370
    15
100
AcDbLine
 10
225.9662276231
 20
146.0566769105
 30
0.0
 11
218.7597913764
 21
133.9183772665
 31
0.0
  0
ARC
  5
5D
330
1F
100
AcDbEntity
  8
0
  6
Continuous
 62
     7
370
    15
100
AcDbCircle
 10
226.2921811974
 20
145.8623621499
 30
0.0
 40
0.3794785353606533
100
AcDbArc
 50
92.764179627
 51
149.1990359992
  0
LINE
  5
5E
330
1F
100
AcDbEntity
  8
0
  6
Continuous
 62
     7
370
    15
100
AcDbLine
 10
240.5311813675
 20
146.9904954296
 30
0.0
 11
226.2738807224
 21
146.2413991553
 31
0.0
  0
ARC
  5
5F
330
1F
100
AcDbEntity
  8
0
  6
Continuous
 62
     7
370
    15
100
AcDbCircle
 10
240.5523659395
 20
146.5869608853
 30
0.0
 40
0.404090230703687
100
AcDbArc
 50
330.5171245303
 51
93.0051289594
  0
LINE
  5
60
330
1F
100
AcDbEntity
  8
0
  6
Continuous
 62
     7
370
    15
100
AcDbLine
 10
233.6976913832
 20
134.2497828168
 30
0.0
 11
240.9041276298
 21
146.3880824608
 31
0.0
  0
ARC
  5
61
330
1F
100
AcDbEntity
  8
0
  6
Continuous
 62
     7
370
    15
100
AcDbCircle
 10
233.3717435647
 20
134.4440879911
 30
0.0
 40
0.3794686827462838
100
AcDbArc
 50
272.7633813752
 51
329.1998342511
  0
ARC
  5
62
330
1F
100
AcDbEntity
  8
0
  6
Continuous
 62
     7
370
    15
100
AcDbCircle
 10
240.5529400458
 20
146.5874619722
 30
0.0
 40
0.3838844649570974
100
AcDbArc
 50
330.5165010076
 51
93.0053865549
  0
LINE
  5
63
330
1F
100
AcDbEntity
  8
0
  6
Continuous
 62
     7
370
    15
100
AcDbLine
 10
240.5328130446
 20
146.9708184463
 30
0.0
 11
226.2755123995
 21
146.2217221719
 31
0.0
  0
ARC
  5
64
330
1F
100
AcDbEntity
  8
0
  6
Continuous
 62
     7
370
    15
100
AcDbCircle
 10
226.2929055391
 20
145.8616237443
 30
0.0
 40
0.3605182365475203
100
AcDbArc
 50
92.7652983581
 51
149.1980781878
  0
LINE
  5
65
330
1F
100
AcDbEntity
  8
0
  6
Continuous
 62
     7
370
    15
100
AcDbLine
 10
225.9832410239
 20
146.0462349218
 30
0.0
 11
218.7768085025
 21
133.9079352778
 31
0.0
  0
ARC
  5
66
330
1F
100
AcDbEntity
  8
0
  6
Continuous
 62
     7
370
    15
100
AcDbCircle
 10
219.1109782776
 20
133.7189985801
 30
0.0
 40
0.3838834644778246
100
AcDbArc
 50
150.5165580213
 51
273.0054964612
  0
LINE
  5
67
330
1F
100
AcDbEntity
  8
0
  6
Continuous
 62
     7
370
    15
100
AcDbLine
 10
219.1311059616
 20
133.3356431437
 30
0.0
 11
233.3884066068
 21
134.084739418
 31
0.0
  0
ARC
  5
68
330
1F
100
AcDbEntity
  8
0
  6
Continuous
 62
     7
370
    15
100
AcDbCircle
 10
233.3710200855
 20
134.4448287822
 30
0.0
 40
0.3605088644402924
100
AcDbArc
 50
272.7643172161
 51
329.1985225507
  0
LINE
  5
69
330
1F
100
AcDbEntity
  8
0
  6
Continuous
 62
     7
370
    15
100
AcDbLine
 10
233.6806779824
 20
134.2602248055
 30
0.0
 11
240.8871105038
 21
146.3985244495
 31
0.0
  0
LINE
  5
6A
330
1F
100
AcDbEntity
  8
0
  6
Continuous
 62
     7
370
    15
100
AcDbLine
 10
220.775020691
 20
134.6618073744
 30
0.0
 11
219.061994376
 21
133.6720126432
 31
0.0
  0
LINE
  5
6B
330
1F
100
AcDbEntity
  8
0
  6
Continuous
 62
     7
370
    15
100
AcDbLine
 10
220.775020691
 20
134.6618073744
 30
0.0
 11
221.4377051316
 21
134.6966258001
 31
0.0
  0
LINE
  5
6C
330
1F
100
AcDbEntity
  8
0
  6
Continuous
 62
     7
370
    15
100
AcDbLine
 10
233.0199232422
 20
134.7920379353
 30
0.0
 11
233.3192950211
 21
134.4211089176
 31
0.0
  0
LINE
  5
6D
330
1F
100
AcDbEntity
  8
0
  6
Continuous
 62
     7
370
    15
100
AcDbLine
 10
219.8194017731
 20
136.4745336336
 30
0.0
 11
217.8751578651
 21
133.199705438
 31
0.0
  0
LINE
  5
6E
330
1F
100
AcDbEntity
  8
0
  6
Continuous
 62
     7
370
    15
100
AcDbLine
 10
226.4811521493
 20
145.3540536326
 30
0.0
 11
226.2684268974
 21
145.8103122872
 31
0.0
  0
LINE
  5
6F
330
1F
100
AcDbEntity
  8
0
  6
Continuous
 62
     7
370
    15
100
AcDbLine
 10
221.1099764429
 20
135.2259970021
 30
0.0
 11
220.775020691
 21
134.6618073744
 31
0.0
  0
ARC
  5
70
330
1F
100
AcDbEntity
  8
0
  6
Continuous
 62
     7
370
    15
100
AcDbCircle
 10
223.8543736307
 20
136.5718379439
 30
0.0
 40
1.01022173001335
100
AcDbArc
 50
150.5167532161
 51
273.0050904445
  0
ARC
  5
71
330
1F
100
AcDbEntity
  8
0
  6
Continuous
 62
     7
370
    15
100
AcDbCircle
 10
221.6080674695
 20
135.1604151277
 30
0.0
 40
0.1079789872839723
100
AcDbArc
 50
31.0828747301
 51
32.3130731759
  0
SPLINE
  5
72
330
1F
100
AcDbEntity
  8
0
  6
Continuous
 62
     7
370
    15
100
AcDbSpline
210
0.0
220
0.0
230
1.0
 70
     8
 71
     3
 72
    14
 73
    10
 74
     0
 42
0.00000001
 43
0.00000001
 12
1.0
 22
0.0
 32
0.0
 13
1.0
 23
0.0
 33
0.0
 40
0.0
 40
0.0
 40
0.0
 40
0.0
 40
0.2234950016498166
 40
0.3567603379483666
 40
0.4531195717220051
 40
0.5344604768849441
 40
0.6157315846294403
 40
0.7396145227666344
 40
1.0
 40
1.0
 40
1.0
 40
1.0
 10
221.4377051316169
 20
134.6966258001393
 30
0.0
 10
221.4961531721352
 20
134.7022395789025
 30
0.0
 10
221.5894525413997
 20
134.7112007350532
 30
0.0
 10
221.6995775646407
 20
134.7566676721313
 30
0.0
 10
221.7625333577955
 20
134.8086609620642
 30
0.0
 10
221.7963961004875
 20
134.8681575886705
 30
0.0
 10
221.8084972371526
 20
134.9431972207759
 30
0.0
 10
221.78665084382
 20
135.0663718040112
 30
0.0
 10
221.7353232563403
 20
135.1556596102275
 30
0.0
 10
221.7005429886249
 20
135.2161622357434
 30
0.0
  0
SPLINE
  5
73
330
1F
100
AcDbEntity
  8
0
  6
Continuous
 62
     7
370
    15
100
AcDbSpline
210
0.0
220
0.0
230
1.0
 70
     8
 71
     3
 72
    14
 73
    10
 74
     0
 42
0.00000001
 43
0.00000001
 12
1.0
 22
0.0
 32
0.0
 13
1.0
 23
0.0
 33
0.0
 40
0.0
 40
0.0
 40
0.0
 40
0.0
 40
0.22105786362076
 40
0.3460794755777395
 40
0.4396022086273673
 40
0.533887519437384
 40
0.6146556005319287
 40
0.7517230441916795
 40
1.0
 40
1.0
 40
1.0
 40
1.0
 10
221.6993248186973
 20
135.2181347769565
 30
0.0
 10
221.6666940447908
 20
135.2673628754435
 30
0.0
 10
221.615608591705
 20
135.3444324455054
 30
0.0
 10
221.5266379100856
 20
135.4226853166114
 30
0.0
 10
221.4501518002294
 20
135.4583906131024
 30
0.0
 10
221.3776499919561
 20
135.4622157797271
 30
0.0
 10
221.2995396030475
 20
135.4368232655242
 30
0.0
 10
221.200777044653
 20
135.3637803550388
 30
0.0
 10
221.1455555735608
 20
135.2799857623524
 30
0.0
 10
221.1099764429
 20
135.2259970021314
 30
0.0
  0
LINE
  5
74
330
1F
100
AcDbEntity
  8
0
  6
Continuous
 62
     7
370
    15
100
AcDbLine
 10
223.9073341809
 20
135.563005389
 30
0.0
 11
231.886634054
 21
135.9822476965
 31
0.0
  0
LINE
  5
75
330
1F
100
AcDbEntity
  8
0
  6
Continuous
 62
     7
370
    15
100
AcDbLine
 10
227.0081577919
 20
143.8624064189
 30
0.0
 11
222.9749759756
 21
137.0690378112
 31
0.0
  0
ARC
  5
76
330
1F
100
AcDbEntity
  8
0
  6
Continuous
 62
     7
370
    15
100
AcDbCircle
 10
227.8230280127
 20
143.3766429131
 30
0.0
 40
0.9486725780390762
100
AcDbArc
 50
92.7637574999
 51
149.1998255453
  0
LINE
  5
77
330
1F
100
AcDbEntity
  8
0
  6
Continuous
 62
     7
370
    15
100
AcDbLine
 10
235.7565848254
 20
144.7434524757
 30
0.0
 11
227.7772849522
 21
144.3242120308
 31
0.0
  0
ARC
  5
78
330
1F
100
AcDbEntity
  8
0
  6
Continuous
 62
     7
370
    15
100
AcDbCircle
 10
235.8095490772
 20
143.7346228273
 30
0.0
 40
1.01021902155097
100
AcDbArc
 50
330.5165983526
 51
93.0053087378
  0
LINE
  5
79
330
1F
100
AcDbEntity
  8
0
  6
Continuous
 62
     7
370
    15
100
AcDbLine
 10
232.6557612143
 20
136.4440533084
 30
0.0
 11
236.6889430307
 21
143.2374219161
 31
0.0
  0
ARC
  5
7A
330
1F
100
AcDbEntity
  8
0
  6
Continuous
 62
     7
370
    15
100
AcDbCircle
 10
231.8408884618
 20
136.9298210308
 30
0.0
 40
0.9486769117956412
100
AcDbArc
 50
272.7638979493
 51
329.199685096
  0
LWPOLYLINE
  5
7B
330
1F
100
AcDbEntity
  8
0
  6
Continuous
 62
     7
370
    15
100
AcDbPolyline
 90
       29
 70
   128
 43
0.0
 10
232.0268800579
 20
138.8061779302
 10
232.2566410623
 20
139.3196477306
 10
232.3648197673
 20
139.8749152881
 10
232.3459884249
 20
140.4441396457
 10
232.2010932587
 20
140.9987776291
 10
231.9374023102
 20
141.5110143584
 10
231.5681329094
 20
141.9551676822
 10
231.1118071996
 20
142.3089640898
 10
230.5913021885
 20
142.5546618861
 10
230.0327209853
 20
142.6799433988
 10
229.4640740477
 20
142.6785240632
 10
228.9138710223
 20
142.5504746598
 10
228.4097088598
 20
142.3022194517
 10
227.9768636547
 20
141.9462046337
 10
227.6370389484
 20
141.5002817971
 10
227.4072779439
 20
140.9868119967
 10
227.299099239
 20
140.4315444392
 10
227.3179305814
 20
139.8623200816
 10
227.4628257476
 20
139.3076820982
 10
227.7265166961
 20
138.7954453689
 10
228.0957860969
 20
138.3512920451
 10
228.5521118067
 20
137.9974956375
 10
229.0726168178
 20
137.7517978412
 10
229.631198021
 20
137.6265163285
 10
230.1998449586
 20
137.6279356641
 10
230.750047984
 20
137.7559850675
 10
231.2542101465
 20
138.0042402756
 10
231.6870553516
 20
138.3602550936
 10
232.0268800579
 20
138.8061779302
  0
LWPOLYLINE
  5
7C
330
1F
100
AcDbEntity
  8
0
  6
Continuous
 62
     7
370
    15
100
AcDbPolyline
 90
        3
 70
   128
 43
0.0
 10
228.285697671
 20
141.5826796305
 10
227.8112074457
 20
141.464561851
 10
227.5590462707
 20
141.358409704
  0
SPLINE
  5
7D
330
1F
100
AcDbEntity
  8
0
  6
Continuous
 62
     7
370
    15
100
AcDbSpline
210
0.0
220
0.0
230
1.0
 70
     8
 71
     3
 72
    11
 73
     7
 74
     0
 42
0.00000001
 43
0.00000001
 12
1.0
 22
0.0
 32
0.0
 13
1.0
 23
0.0
 33
0.0
 40
0.0
 40
0.0
 40
0.0
 40
0.0
 40
0.3280454223831084
 40
0.6557033980730769
 40
0.990697971189437
 40
1.0
 40
1.0
 40
1.0
 40
1.0
 10
233.0199232421783
 20
134.7920379352636
 30
0.0
 10
232.9757570581075
 20
134.8502502755243
 30
0.0
 10
232.8874768536017
 20
134.966606202827
 30
0.0
 10
232.7608480707511
 20
135.1768074283966
 30
0.0
 10
232.6894875474163
 20
135.3176964899033
 30
0.0
 10
232.6587921727801
 20
135.3859135051787
 30
0.0
 10
232.6579628609088
 20
135.3877565574712
 30
0.0
  0
LINE
  5
7E
330
1F
100
AcDbEntity
  8
0
  6
Continuous
 62
     7
370
    15
100
AcDbLine
 10
238.6110587142
 20
145.3710372311
 30
0.0
 11
240.5257312678
 21
146.5594085616
 31
0.0
  0
LINE
  5
7F
330
1F
100
AcDbEntity
  8
0
  6
Continuous
 62
     7
370
    15
100
AcDbLine
 10
238.2761029623
 20
144.8068457407
 30
0.0
 11
238.6110587142
 21
145.3710372311
 31
0.0
  0
SPLINE
  5
80
330
1F
100
AcDbEntity
  8
0
  6
Continuous
 62
     7
370
    15
100
AcDbSpline
210
0.0
220
0.0
230
1.0
 70
     8
 71
     3
 72
    11
 73
     7
 74
     0
 42
0.00000001
 43
0.00000001
 12
1.0
 22
0.0
 32
0.0
 13
1.0
 23
0.0
 33
0.0
 40
0.0
 40
0.0
 40
0.0
 40
0.0
 40
0.3280457138590117
 40
0.6557059671555051
 40
0.990693686175091
 40
1.0
 40
1.0
 40
1.0
 40
1.0
 10
226.4811521492866
 20
145.3540536326236
 30
0.0
 10
226.5152198976136
 20
145.2858960349438
 30
0.0
 10
226.583315363952
 20
145.1496609261846
 30
0.0
 10
226.7143093731733
 20
144.9437527473221
 30
0.0
 10
226.8053430873264
 20
144.8222537282304
 30
0.0
 10
226.850395860523
 20
144.7681640633141
 30
0.0
 10
226.8516136430171
 20
144.7667020124263
 30
0.0
  0
LINE
  5
81
330
1F
100
AcDbEntity
  8
0
  6
Continuous
 62
     7
370
    15
100
AcDbLine
 10
238.6110587142
 20
145.3710372311
 30
0.0
 11
237.9483779989
 21
145.3362169427
 31
0.0
  0
ARC
  5
82
330
1F
100
AcDbEntity
  8
0
  6
Continuous
 62
     7
370
    15
100
AcDbCircle
 10
237.8801230181
 20
144.9359674068
 30
0.0
 40
0.2282395888450753
100
AcDbArc
 50
211.5094343041
 51
212.0915207224
  0
SPLINE
  5
83
330
1F
100
AcDbEntity
  8
0
  6
Continuous
 62
     7
370
    15
100
AcDbSpline
210
0.0
220
0.0
230
1.0
 70
     8
 71
     3
 72
    14
 73
    10
 74
     0
 42
0.00000001
 43
0.00000001
 12
1.0
 22
0.0
 32
0.0
 13
1.0
 23
0.0
 33
0.0
 40
0.0
 40
0.0
 40
0.0
 40
0.0
 40
0.2210618337729401
 40
0.3460820806259191
 40
0.4395997131420212
 40
0.5338898322346455
 40
0.6146580309870636
 40
0.7517255765764045
 40
1.0
 40
1.0
 40
1.0
 40
1.0
 10
237.6867583118347
 20
144.8147098285026
 30
0.0
 10
237.7193885989466
 20
144.765480101284
 30
0.0
 10
237.770472756996
 20
144.6884087853828
 30
0.0
 10
237.85944466295
 20
144.6101579342191
 30
0.0
 10
237.9359300858496
 20
144.5744539858689
 30
0.0
 10
238.0084320006999
 20
144.5706262326928
 30
0.0
 10
238.0865434440134
 20
144.5960196440845
 30
0.0
 10
238.1853059076328
 20
144.6690616086272
 30
0.0
 10
238.2405253057729
 20
144.752856802973
 30
0.0
 10
238.2761029623416
 20
144.8068457406825
 30
0.0
  0
SPLINE
  5
84
330
1F
100
AcDbEntity
  8
0
  6
Continuous
 62
     7
370
    15
100
AcDbSpline
210
0.0
220
0.0
230
1.0
 70
     8
 71
     3
 72
    14
 73
    10
 74
     0
 42
0.00000001
 43
0.00000001
 12
1.0
 22
0.0
 32
0.0
 13
1.0
 23
0.0
 33
0.0
 40
0.0
 40
0.0
 40
0.0
 40
0.0
 40
0.223495278534968
 40
0.3567597988851632
 40
0.4531191486551412
 40
0.5344621064946664
 40
0.6157310894964959
 40
0.7396141387964398
 40
1.0
 40
1.0
 40
1.0
 40
1.0
 10
237.948377998915
 20
145.3362169426746
 30
0.0
 10
237.8899301017613
 20
145.3306028126854
 30
0.0
 10
237.7966312179076
 20
145.3216411205236
 30
0.0
 10
237.6865053096325
 20
145.2761770739132
 30
0.0
 10
237.6235491239023
 20
145.2241834472344
 30
0.0
 10
237.5896877594224
 20
145.1646859535656
 30
0.0
 10
237.5775855687018
 20
145.0896469629979
 30
0.0
 10
237.599433004288
 20
144.9664728485186
 30
0.0
 10
237.6507579395841
 20
144.8771839106618
 30
0.0
 10
237.6855364166168
 20
144.8166805070705
 30
0.0
  0
LINE
  5
85
330
1F
100
AcDbEntity
  8
0
  6
Continuous
 62
     7
370
    15
100
AcDbLine
 10
217.7287800334
 20
133.3030058754
 30
0.0
 11
217.6710976385
 21
133.1889821899
 31
0.0
  0
LINE
  5
86
330
1F
100
AcDbEntity
  8
0
  6
Continuous
 62
     7
370
    15
100
AcDbLine
 10
219.8194017731
 20
136.4745336336
 30
0.0
 11
218.2288853548
 21
133.7955153298
 31
0.0
  0
LINE
  5
87
330
1F
100
AcDbEntity
  8
0
  6
Continuous
 62
     7
370
    15
100
AcDbLine
 10
219.3192964517
 20
135.9820241791
 30
0.0
 11
217.7287800334
 21
133.3030058754
 31
0.0
  0
LWPOLYLINE
  5
88
330
1F
100
AcDbEntity
  8
0
  6
Continuous
 62
     7
370
    15
100
AcDbPolyline
 90
       34
 70
   128
 43
0.0
 10
218.6432568453
 20
130.4891451013
 10
219.1752990805
 20
130.8553802532
 10
219.7701199077
 20
131.1120918703
 10
220.406224402
 20
131.2500002545
 10
221.0606163464
 20
131.2641209674
 10
221.7096475981
 20
131.1539436442
 10
222.329860004
 20
130.9234506202
 10
222.8988347672
 20
130.5809716445
 10
223.3960120104
 20
130.1388877195
 10
223.8034209333
 20
129.61317289
 10
224.1063354634
 20
129.0228317243
 10
224.2938106976
 20
128.3891970974
 10
224.3590666078
 20
127.7351739568
 10
224.2997450851
 20
127.0843974066
 10
224.117995622
 20
126.4603889299
 10
223.8203784548
 20
125.8857023653
 10
223.4176559471
 20
125.3811080691
 10
222.9243828081
 20
124.9648431999
 10
222.3583882771
 20
124.6519532737
 10
221.7401279233
 20
124.4537464094
 10
221.0919460379
 20
124.3773863402
 10
220.4372672461
 20
124.4256325749
 10
219.7997583173
 20
124.5967426089
 10
219.202460172
 20
124.884531529
 10
218.6669571422
 20
125.2785973933
 10
218.2126095615
 20
125.7646974859
 10
217.8558310591
 20
126.3252633375
 10
217.6095223151
 20
126.9400349569
 10
217.4825830482
 20
127.5867928502
 10
217.4795990907
 20
128.2421598893
 10
217.6006859265
 20
128.88245161
 10
217.8414588891
 20
129.4845255774
 10
218.1932194255
 20
130.0266205084
 10
218.6432568453
 20
130.4891451013
  0
LWPOLYLINE
  5
89
330
1F
100
AcDbEntity
  8
0
  6
Continuous
 62
     7
370
    15
100
AcDbPolyline
 90
       26
 70
   128
 43
0.0
 10
219.6156917237
 20
129.3473808777
 10
220.025145831
 20
129.6107104731
 10
220.4903451823
 20
129.7618399125
 10
220.9820536993
 20
129.7912715685
 10
221.4693775497
 20
129.6971576971
 10
221.9216948472
 20
129.4854103339
 10
222.3105890773
 20
129.1693343532
 10
222.6116223358
 20
128.7687911403
 10
222.8058775984
 20
128.3089487565
 10
222.8811508141
 20
127.8187005532
 10
222.8327145897
 20
127.328848162
 10
222.6636087619
 20
126.8701736566
 10
222.3844578586
 20
126.4714958829
 10
222.0128079973
 20
126.1578655553
 10
221.5720055722
 20
125.9489894596
 10
221.0897518419
 20
125.8579908621
 10
220.5963445924
 20
125.8905899462
 10
220.122789415
 20
126.0447359395
 10
219.6988402031
 20
126.3107440186
 10
219.3511365078
 20
126.6719006684
 10
219.1015234314
 20
127.1055132833
 10
218.9656881712
 20
127.5843350899
 10
218.9521616422
 20
128.0782806438
 10
219.0617969356
 20
128.5563136202
 10
219.2877059899
 20
128.9883970034
 10
219.6156917237
 20
129.3473808777
  0
SPLINE
  5
8A
330
1F
100
AcDbEntity
  8
0
  6
Continuous
 62
     7
370
    15
100
AcDbSpline
210
0.0
220
0.0
230
1.0
 70
     8
 71
     3
 72
    11
 73
     7
 74
     0
 42
0.00000001
 43
0.00000001
 12
1.0
 22
0.0
 32
0.0
 13
1.0
 23
0.0
 33
0.0
 40
0.0
 40
0.0
 40
0.0
 40
0.0
 40
0.1081102185492925
 40
0.4711577058175541
 40
0.8135803823178512
 40
1.0
 40
1.0
 40
1.0
 40
1.0
 10
221.1961759351161
 20
126.095663451857
 30
0.0
 10
221.2347253589503
 20
126.1275095205786
 30
0.0
 10
221.4027285166354
 20
126.266298627469
 30
0.0
 10
221.7407131407258
 20
126.5484009740502
 30
0.0
 10
222.1597778307132
 20
126.9044051992099
 30
0.0
 10
222.3966808432788
 20
127.1075960584437
 30
0.0
 10
222.4801903687385
 20
127.1792218771643
 30
0.0
  0
SPLINE
  5
8B
330
1F
100
AcDbEntity
  8
0
  6
Continuous
 62
     7
370
    15
100
AcDbSpline
210
0.0
220
0.0
230
1.0
 70
     8
 71
     3
 72
    10
 73
     6
 74
     0
 42
0.00000001
 43
0.00000001
 12
1.0
 22
0.0
 32
0.0
 13
1.0
 23
0.0
 33
0.0
 40
0.0
 40
0.0
 40
0.0
 40
0.0
 40
0.4391159858040453
 40
0.7513664042611164
 40
1.0
 40
1.0
 40
1.0
 40
1.0
 10
222.4801903687385
 20
127.1792218771643
 30
0.0
 10
222.4150479544103
 20
127.4026652348906
 30
0.0
 10
222.3035835049231
 20
127.7849966408936
 30
0.0
 10
222.1994886613621
 20
128.3978446362087
 30
0.0
 10
222.165034145283
 20
128.7199705201942
 30
0.0
 10
222.1497608445552
 20
128.8627653133935
 30
0.0
  0
SPLINE
  5
8C
330
1F
100
AcDbEntity
  8
0
  6
Continuous
 62
     7
370
    15
100
AcDbSpline
210
0.0
220
0.0
230
1.0
 70
     8
 71
     3
 72
    10
 73
     6
 74
     0
 42
0.00000001
 43
0.00000001
 12
1.0
 22
0.0
 32
0.0
 13
1.0
 23
0.0
 33
0.0
 40
0.0
 40
0.0
 40
0.0
 40
0.0
 40
0.4391162068453017
 40
0.7513677361381873
 40
1.0
 40
1.0
 40
1.0
 40
1.0
 10
222.1497608445552
 20
128.8627653133935
 30
0.0
 10
221.9008011652971
 20
128.9310885518438
 30
0.0
 10
221.4748085290023
 20
129.0479958219463
 30
0.0
 10
220.9134964037497
 20
129.2750062516545
 30
0.0
 10
220.6514697766681
 20
129.4050865438735
 30
0.0
 10
220.5353168867496
 20
129.4627493929929
 30
0.0
  0
SPLINE
  5
8D
330
1F
100
AcDbEntity
  8
0
  6
Continuous
 62
     7
370
    15
100
AcDbSpline
210
0.0
220
0.0
230
1.0
 70
     8
 71
     3
 72
    11
 73
     7
 74
     0
 42
0.00000001
 43
0.00000001
 12
1.0
 22
0.0
 32
0.0
 13
1.0
 23
0.0
 33
0.0
 40
0.0
 40
0.0
 40
0.0
 40
0.0
 40
0.1864192865753247
 40
0.5288419864319837
 40
0.8918907664614906
 40
1.0
 40
1.0
 40
1.0
 40
1.0
 10
220.5353168867496
 20
129.4627493929929
 30
0.0
 10
220.4518072717565
 20
129.3911239542183
 30
0.0
 10
220.2149037222879
 20
129.187933930179
 30
0.0
 10
219.7958410190254
 20
128.831927651357
 30
0.0
 10
219.4578492674669
 20
128.5498297442028
 30
0.0
 10
219.2898504944667
 20
128.4110374555258
 30
0.0
 10
219.2513024531272
 20
128.3791909676856
 30
0.0
  0
SPLINE
  5
8E
330
1F
100
AcDbEntity
  8
0
  6
Continuous
 62
     7
370
    15
100
AcDbSpline
210
0.0
220
0.0
230
1.0
 70
     8
 71
     3
 72
    10
 73
     6
 74
     0
 42
0.00000001
 43
0.00000001
 12
1.0
 22
0.0
 32
0.0
 13
1.0
 23
0.0
 33
0.0
 40
0.0
 40
0.0
 40
0.0
 40
0.0
 40
0.4391160821138128
 40
0.7513666847621832
 40
1.0
 40
1.0
 40
1.0
 40
1.0
 10
219.2513024531272
 20
128.3791909676856
 30
0.0
 10
219.2807659657229
 20
128.1206103333717
 30
0.0
 10
219.3311806571499
 20
127.6781558620783
 30
0.0
 10
219.4624083724523
 20
127.0920314700344
 30
0.0
 10
219.5450831917775
 20
126.8173920091809
 30
0.0
 10
219.5817319773105
 20
126.6956475314564
 30
0.0
  0
SPLINE
  5
8F
330
1F
100
AcDbEntity
  8
0
  6
Continuous
 62
     7
370
    15
100
AcDbSpline
210
0.0
220
0.0
230
1.0
 70
     8
 71
     3
 72
    10
 73
     6
 74
     0
 42
0.00000001
 43
0.00000001
 12
1.0
 22
0.0
 32
0.0
 13
1.0
 23
0.0
 33
0.0
 40
0.0
 40
0.0
 40
0.0
 40
0.0
 40
0.4391162818105614
 40
0.7513667878977278
 40
1.0
 40
1.0
 40
1.0
 40
1.0
 10
219.5817319773105
 20
126.6956475314564
 30
0.0
 10
219.7950123577612
 20
126.5921868119466
 30
0.0
 10
220.1599539484488
 20
126.415156372148
 30
0.0
 10
220.7484025781392
 20
126.2148714469771
 30
0.0
 10
221.0586478317831
 20
126.1322767277823
 30
0.0
 10
221.1961759351161
 20
126.095663451857
 30
0.0
  0
LINE
  5
90
330
1F
100
AcDbEntity
  8
0
  6
Continuous
 62
     7
370
    15
100
AcDbLine
 10
219.8872542106
 20
128.8245326591
 30
0.0
 11
220.5353168867
 21
129.462749393
 31
0.0
  0
LINE
  5
91
330
1F
100
AcDbEntity
  8
0
  6
Continuous
 62
     7
370
    15
100
AcDbLine
 10
219.8872542106
 20
128.8245326591
 30
0.0
 11
219.2452451311
 21
128.2827525151
 31
0.0
  0
LINE
  5
92
330
1F
100
AcDbEntity
  8
0
  6
Continuous
 62
     7
370
    15
100
AcDbLine
 10
221.8176512144
 20
126.6147603032
 30
0.0
 11
221.6669110678
 21
127.3827754644
 31
0.0
  0
LINE
  5
93
330
1F
100
AcDbEntity
  8
0
  6
Continuous
 62
     7
370
    15
100
AcDbLine
 10
221.6669110678
 20
127.3827754644
 30
0.0
 11
221.5016981684
 21
128.2245467168
 31
0.0
  0
LINE
  5
94
330
1F
100
AcDbEntity
  8
0
  6
Continuous
 62
     7
370
    15
100
AcDbLine
 10
221.5016981684
 20
128.2245467168
 30
0.0
 11
222.1497608446
 21
128.8627653134
 31
0.0
  0
LINE
  5
95
330
1F
100
AcDbEntity
  8
0
  6
Continuous
 62
     7
370
    15
100
AcDbLine
 10
221.5016981684
 20
128.2245467168
 30
0.0
 11
220.6944761895
 21
128.5245387566
 31
0.0
  0
LINE
  5
96
330
1F
100
AcDbEntity
  8
0
  6
Continuous
 62
     7
370
    15
100
AcDbLine
 10
220.6944761895
 20
128.5245387566
 30
0.0
 11
219.8872542106
 21
128.8245326591
 31
0.0
  0
ARC
  5
97
330
1F
100
AcDbEntity
  8
0
  6
Continuous
 62
     7
370
    15
100
AcDbCircle
 10
220.1576442724
 20
127.0823303801
 30
0.0
 40
1.53888060236154
100
AcDbArc
 50
11.25851763
 51
69.5832693474
  0
ARC
  5
98
330
1F
100
AcDbEntity
  8
0
  6
Continuous
 62
     7
370
    15
100
AcDbCircle
 10
220.2418208448
 20
127.096660503
 30
0.0
 40
1.453528092228742
100
AcDbArc
 50
326.9381844406
 51
11.3523315335
  0
ARC
  5
99
330
1F
100
AcDbEntity
  8
0
  6
Continuous
 62
     7
370
    15
100
AcDbCircle
 10
220.1767040051
 20
127.1638571449
 30
0.0
 40
1.455864857478847
100
AcDbArc
 50
69.1669724264
 51
129.7767303483
  0
ELLIPSE
  5
9A
330
1F
100
AcDbEntity
  8
0
  6
Continuous
 62
     7
370
    15
100
AcDbEllipse
 10
229.3338436694
 20
139.4864717127
 30
0.0
 11
-1.636441407150755
 21
1.686705215780677
 31
0.0
210
0.0
220
0.0
230
1.0
 40
0.9711043057
 41
4.882443948612095
 42
6.53646871351046
  0
ELLIPSE
  5
9B
330
1F
100
AcDbEntity
  8
0
  6
Continuous
 62
     7
370
    15
100
AcDbEllipse
 10
229.3338436694
 20
139.4864717127
 30
0.0
 11
-1.636441407150755
 21
1.686705215780677
 31
0.0
210
0.0
220
0.0
230
1.0
 40
0.9711043057
 41
3.197179087206236
 42
4.882443948612122
  0
ELLIPSE
  5
9C
330
1F
100
AcDbEntity
  8
0
  6
Continuous
 62
     7
370
    15
100
AcDbEllipse
 10
211.0620412849
 20
111.9893255395
 30
0.0
 11
-1.249956161015689
 21
24.99783415330238
 31
0.0
210
0.0
220
0.0
230
1.0
 40
0.263265937
 41
0.3797941896939601
 42
2.386406182848129
  0
ELLIPSE
  5
9D
330
1F
100
AcDbEntity
  8
0
  6
Continuous
 62
     7
370
    15
100
AcDbEllipse
 10
206.9095216416
 20
126.7418022306
 30
0.0
 11
0.07455845344540536
 21
2.977883509886141
 31
0.0
210
0.0
220
0.0
230
1.0
 40
0.2376870849
 41
5.500860314983348
 42
10.41700416947429
  0
ELLIPSE
  5
9E
330
1F
100
AcDbEntity
  8
0
  6
Continuous
 62
     7
370
    15
100
AcDbEllipse
 10
273.6966550247
 20
111.9893255395
 30
0.0
 11
141.7799191695017
 21
-4.475976195143418
 31
0.0
210
0.0
220
0.0
230
1.0
 40
0.1734804855
 41
2.017188420989878
 42
2.043485005878179
  0
SPLINE
  5
9F
330
1F
100
AcDbEntity
  8
0
  6
Continuous
 62
     7
370
    15
100
AcDbSpline
210
0.0
220
0.0
230
1.0
 70
     8
 71
     3
 72
    20
 73
    16
 74
     0
 42
0.00000001
 43
0.00000001
 12
1.0
 22
0.0
 32
0.0
 13
1.0
 23
0.0
 33
0.0
 40
0.0
 40
0.0
 40
0.0
 40
0.0
 40
0.2500000000000012
 40
0.2500000000000012
 40
0.3750000000000012
 40
0.3750000000000012
 40
0.5000000000000012
 40
0.5000000000000012
 40
0.6250000000000012
 40
0.6250000000000012
 40
0.7500000000000008
 40
0.7500000000000008
 40
0.8750000000000004
 40
0.8750000000000004
 40
1.0
 40
1.0
 40
1.0
 40
1.0
 10
207.4613570645283
 20
135.0838416802785
 30
0.0
 10
207.5290732400043
 20
135.1986022453776
 30
0.0
 10
207.6294263709274
 20
135.3033234351542
 30
0.0
 10
207.8338528833947
 20
135.4466026628199
 30
0.0
 10
207.9118454348738
 20
135.4923864091993
 30
0.0
 10
208.0836537013565
 20
135.5771792391481
 30
0.0
 10
208.1773552320013
 20
135.6162908033457
 30
0.0
 10
208.3808227525092
 20
135.6883871434631
 30
0.0
 10
208.4905785108024
 20
135.7213734921258
 30
0.0
 10
208.7275801768305
 20
135.781346818698
 30
0.0
 10
208.8548981919812
 20
135.8082178897412
 30
0.0
 10
209.1176728920499
 20
135.8540908200026
 30
0.0
 10
209.2542970233752
 20
135.8734193927843
 30
0.0
 10
209.5383833254171
 20
135.9051323803139
 30
0.0
 10
209.6868402346246
 20
135.9175605237071
 30
0.0
 10
209.8381900103948
 20
135.9261844788023
 30
0.0
  0
SPLINE
  5
A0
330
1F
100
AcDbEntity
  8
0
  6
Continuous
 62
     7
370
    15
100
AcDbSpline
210
0.0
220
0.0
230
1.0
 70
     8
 71
     3
 72
    12
 73
     8
 74
     0
 42
0.00000001
 43
0.00000001
 12
1.0
 22
0.0
 32
0.0
 13
1.0
 23
0.0
 33
0.0
 40
0.0
 40
0.0
 40
0.0
 40
0.0
 40
0.2499999999999997
 40
0.2499999999999997
 40
0.4999999999999993
 40
0.4999999999999993
 40
1.0
 40
1.0
 40
1.0
 40
1.0
 10
209.8381900103948
 20
91.96301325645814
 30
0.0
 10
209.5366184841259
 20
91.99866444344045
 30
0.0
 10
209.2538108373013
 20
92.06340013317873
 30
0.0
 10
208.7234394903246
 20
92.25036529023437
 30
0.0
 10
208.4875762424767
 20
92.36892823270803
 30
0.0
 10
207.8692447704439
 20
92.79363445322706
 30
0.0
 10
207.5964855324208
 20
93.15760587837916
 30
0.0
 10
207.4613570645283
 20
93.56175575179371
 30
0.0
  0
ELLIPSE
  5
A1
330
1F
100
AcDbEntity
  8
0
  6
Continuous
 62
     7
370
    15
100
AcDbEllipse
 10
273.6966550247
 20
111.9893255395
 30
0.0
 11
141.7799191695017
 21
-4.475976195143418
 31
0.0
210
0.0
220
0.0
230
1.0
 40
0.1734804855
 41
4.25065371084859
 42
4.276950295736889
  0
ELLIPSE
  5
A2
330
1F
100
AcDbEntity
  8
0
  6
Continuous
 62
     7
370
    15
100
AcDbEllipse
 10
228.1878874119
 20
111.9893255395
 30
0.0
 11
18.29544563105
 21
24.99284387523326
 31
0.0
210
0.0
220
0.0
230
1.0
 40
0.0326926316
 41
3.165519987239036
 42
3.708064214086924
  0
SPLINE
  5
A3
330
1F
100
AcDbEntity
  8
0
  6
Continuous
 62
     7
370
    15
100
AcDbSpline
210
0.0
220
0.0
230
1.0
 70
     8
 71
     3
 72
    12
 73
     8
 74
     0
 42
0.00000001
 43
0.00000001
 12
1.0
 22
0.0
 32
0.0
 13
1.0
 23
0.0
 33
0.0
 40
0.0
 40
0.0
 40
0.0
 40
0.0
 40
0.5000000000000032
 40
0.5000000000000032
 40
0.7500000000000016
 40
0.7500000000000016
 40
1.0
 40
1.0
 40
1.0
 40
1.0
 10
189.0507589258988
 20
120.0857785375204
 30
0.0
 10
189.0814583092661
 20
119.9714428704565
 30
0.0
 10
189.1228083773726
 20
119.8600895176152
 30
0.0
 10
189.222564305592
 20
119.7073527453664
 30
0.0
 10
189.2622612233248
 20
119.6594928595143
 30
0.0
 10
189.3595193749724
 20
119.5848897461648
 30
0.0
 10
189.4202955329631
 20
119.5581355086567
 30
0.0
 10
189.483771627791
 20
119.5581355086567
 30
0.0
  0
LINE
  5
A4
330
1F
100
AcDbEntity
  8
0
  6
Continuous
 62
     7
370
    15
100
AcDbLine
 10
189.4837714829
 20
119.5581356746
 30
0.0
 11
192.4282576986
 21
119.5581356746
 31
0.0
  0
SPLINE
  5
A5
330
1F
100
AcDbEntity
  8
0
  6
Continuous
 62
     7
370
    15
100
AcDbSpline
210
0.0
220
0.0
230
1.0
 70
     8
 71
     3
 72
    12
 73
     8
 74
     0
 42
0.00000001
 43
0.00000001
 12
1.0
 22
0.0
 32
0.0
 13
1.0
 23
0.0
 33
0.0
 40
0.0
 40
0.0
 40
0.0
 40
0.0
 40
0.2500000000000007
 40
0.2500000000000007
 40
0.5000000000000013
 40
0.5000000000000013
 40
1.0
 40
1.0
 40
1.0
 40
1.0
 10
192.4282580006581
 20
119.5581355086567
 30
0.0
 10
192.4919232371886
 20
119.5581355086567
 30
0.0
 10
192.551529469412
 20
119.5842076571364
 30
0.0
 10
192.6501899943428
 20
119.6597464079575
 30
0.0
 10
192.6891569843581
 20
119.7069973450538
 30
0.0
 10
192.7885438162826
 20
119.8588211630202
 30
0.0
 10
192.830620063706
 20
119.9716244127852
 30
0.0
 10
192.8612707025503
 20
120.0857785375204
 30
0.0
  0
ELLIPSE
  5
A6
330
1F
100
AcDbEntity
  8
0
  6
Continuous
 62
     7
370
    15
100
AcDbEllipse
 10
179.8997571592
 20
111.9893255395
 30
0.0
 11
11.70927234972706
 21
24.6771864409374
 31
0.0
210
0.0
220
0.0
230
1.0
 40
0.3419987131
 41
5.203068809370452
 42
6.114256032590495
  0
SPLINE
  5
A7
330
1F
100
AcDbEntity
  8
0
  6
Continuous
 62
     7
370
    15
100
AcDbSpline
210
0.0
220
0.0
230
1.0
 70
     8
 71
     3
 72
    12
 73
     8
 74
     0
 42
0.00000001
 43
0.00000001
 12
1.0
 22
0.0
 32
0.0
 13
1.0
 23
0.0
 33
0.0
 40
0.0
 40
0.0
 40
0.0
 40
0.0
 40
0.4999999999999982
 40
0.4999999999999982
 40
0.7499999999999991
 40
0.7499999999999991
 40
1.0
 40
1.0
 40
1.0
 40
1.0
 10
192.8612707025503
 20
135.6419670167078
 30
0.0
 10
192.830571319183
 20
135.6811048591037
 30
0.0
 10
192.7892212510765
 20
135.7182646418292
 30
0.0
 10
192.6894653228571
 20
135.768201147457
 30
0.0
 10
192.6497684051244
 20
135.7836540176008
 30
0.0
 10
192.5525102534768
 20
135.8075735611998
 30
0.0
 10
192.4917340954861
 20
135.8160566549782
 30
0.0
 10
192.4282580006581
 20
135.8160566549782
 30
0.0
  0
LINE
  5
A8
330
1F
100
AcDbEntity
  8
0
  6
Continuous
 62
     7
370
    15
100
AcDbLine
 10
192.4282576986
 20
135.8160569084
 30
0.0
 11
189.4837714829
 21
135.8160569084
 31
0.0
  0
SPLINE
  5
A9
330
1F
100
AcDbEntity
  8
0
  6
Continuous
 62
     7
370
    15
100
AcDbSpline
210
0.0
220
0.0
230
1.0
 70
     8
 71
     3
 72
    12
 73
     8
 74
     0
 42
0.00000001
 43
0.00000001
 12
1.0
 22
0.0
 32
0.0
 13
1.0
 23
0.0
 33
0.0
 40
0.0
 40
0.0
 40
0.0
 40
0.0
 40
0.2500000000000007
 40
0.2500000000000007
 40
0.5000000000000014
 40
0.5000000000000014
 40
1.0
 40
1.0
 40
1.0
 40
1.0
 10
189.483771627791
 20
135.8160566549782
 30
0.0
 10
189.4201063912605
 20
135.8160566549782
 30
0.0
 10
189.3605001590372
 20
135.8077918793123
 30
0.0
 10
189.2618396341063
 20
135.7835730977292
 30
0.0
 10
189.222872644091
 20
135.76831577842
 30
0.0
 10
189.1234858121666
 20
135.7186824241581
 30
0.0
 10
189.0814095647431
 20
135.681042715984
 30
0.0
 10
189.0507589258988
 20
135.6419670167078
 30
0.0
  0
ELLIPSE
  5
AA
330
1F
100
AcDbEntity
  8
0
  6
Continuous
 62
     7
370
    15
100
AcDbEllipse
 10
202.0122724692
 20
111.9893255395
 30
0.0
 11
-11.70927234972697
 21
24.67718644093743
 31
0.0
210
0.0
220
0.0
230
1.0
 40
0.3419987131
 41
0.1689292745891354
 42
1.08011649780915
  0
SPLINE
  5
AB
330
1F
100
AcDbEntity
  8
0
  6
Continuous
 62
     7
370
    15
100
AcDbSpline
210
0.0
220
0.0
230
1.0
 70
     8
 71
     3
 72
    12
 73
     8
 74
     0
 42
0.00000001
 43
0.00000001
 12
1.0
 22
0.0
 32
0.0
 13
1.0
 23
0.0
 33
0.0
 40
0.0
 40
0.0
 40
0.0
 40
0.0
 40
0.5000000000000018
 40
0.5000000000000018
 40
0.7500000000000009
 40
0.7500000000000009
 40
1.0
 40
1.0
 40
1.0
 40
1.0
 10
189.0507589258988
 20
88.33668406224464
 30
0.0
 10
189.081610636463
 20
88.29735202188213
 30
0.0
 10
189.1235034999236
 20
88.25994025635386
 30
0.0
 10
189.2230243777168
 20
88.21026933173795
 30
0.0
 10
189.2626385424412
 20
88.19488024913014
 30
0.0
 10
189.3597415762206
 20
88.17104703346286
 30
0.0
 10
189.420240248871
 20
88.16259442397408
 30
0.0
 10
189.4837716277909
 20
88.16259442397408
 30
0.0
  0
LINE
  5
AC
330
1F
100
AcDbEntity
  8
0
  6
Continuous
 62
     7
370
    15
100
AcDbLine
 10
189.4837714829
 20
88.1625941706
 30
0.0
 11
192.4282576986
 21
88.1625941706
 31
0.0
  0
SPLINE
  5
AD
330
1F
100
AcDbEntity
  8
0
  6
Continuous
 62
     7
370
    15
100
AcDbSpline
210
0.0
220
0.0
230
1.0
 70
     8
 71
     3
 72
    12
 73
     8
 74
     0
 42
0.00000001
 43
0.00000001
 12
1.0
 22
0.0
 32
0.0
 13
1.0
 23
0.0
 33
0.0
 40
0.0
 40
0.0
 40
0.0
 40
0.0
 40
0.2499999999999993
 40
0.2499999999999993
 40
0.4999999999999987
 40
0.4999999999999987
 40
1.0
 40
1.0
 40
1.0
 40
1.0
 10
192.4282580006581
 20
88.16259442397431
 30
0.0
 10
192.4918945548718
 20
88.16259442397431
 30
0.0
 10
192.5514746817381
 20
88.17085119490605
 30
0.0
 10
192.6501114231044
 20
88.19505325691387
 30
0.0
 10
192.6890700474847
 20
88.21030007594798
 30
0.0
 10
192.7884489869926
 20
88.25990494800811
 30
0.0
 10
192.8304068921581
 20
88.29733659612693
 30
0.0
 10
192.8612707025505
 20
88.3366840622446
 30
0.0
  0
ELLIPSE
  5
AE
330
1F
100
AcDbEntity
  8
0
  6
Continuous
 62
     7
370
    15
100
AcDbEllipse
 10
179.8997571592
 20
111.9893255395
 30
0.0
 11
-11.7092723497272
 21
24.6771864409374
 31
0.0
210
0.0
220
0.0
230
1.0
 40
0.3419987131
 41
3.310521928178949
 42
4.22170915139894
  0
SPLINE
  5
AF
330
1F
100
AcDbEntity
  8
0
  6
Continuous
 62
     7
370
    15
100
AcDbSpline
210
0.0
220
0.0
230
1.0
 70
     8
 71
     3
 72
    12
 73
     8
 74
     0
 42
0.00000001
 43
0.00000001
 12
1.0
 22
0.0
 32
0.0
 13
1.0
 23
0.0
 33
0.0
 40
0.0
 40
0.0
 40
0.0
 40
0.0
 40
0.5000000000000004
 40
0.5000000000000004
 40
0.7500000000000002
 40
0.7500000000000002
 40
1.0
 40
1.0
 40
1.0
 40
1.0
 10
192.8612707025503
 20
103.8928725414319
 30
0.0
 10
192.8304189919861
 20
104.0077755303687
 30
0.0
 10
192.7885261285255
 20
104.1199144264176
 30
0.0
 10
192.6890052507323
 20
104.2718567080185
 30
0.0
 10
192.649391086008
 20
104.3195213175434
 30
0.0
 10
192.5522880522286
 20
104.3938576481588
 30
0.0
 10
192.4917893795781
 20
104.4205155702959
 30
0.0
 10
192.4282580006582
 20
104.4205155702959
 30
0.0
  0
LINE
  5
B0
330
1F
100
AcDbEntity
  8
0
  6
Continuous
 62
     7
370
    15
100
AcDbLine
 10
192.4282576986
 20
104.4205154044
 30
0.0
 11
189.4837714829
 21
104.4205154044
 31
0.0
  0
SPLINE
  5
B1
330
1F
100
AcDbEntity
  8
0
  6
Continuous
 62
     7
370
    15
100
AcDbSpline
210
0.0
220
0.0
230
1.0
 70
     8
 71
     3
 72
    12
 73
     8
 74
     0
 42
0.00000001
 43
0.00000001
 12
1.0
 22
0.0
 32
0.0
 13
1.0
 23
0.0
 33
0.0
 40
0.0
 40
0.0
 40
0.0
 40
0.0
 40
0.2499999999999998
 40
0.2499999999999998
 40
0.4999999999999996
 40
0.4999999999999996
 40
1.0
 40
1.0
 40
1.0
 40
1.0
 10
189.483771627791
 20
104.4205155702955
 30
0.0
 10
189.4201350735773
 20
104.4205155702955
 30
0.0
 10
189.3605549467111
 20
104.3944686672376
 30
0.0
 10
189.2619182053447
 20
104.3189815083377
 30
0.0
 10
189.2229595809644
 20
104.271762469807
 30
0.0
 10
189.1235806414565
 20
104.1200228187134
 30
0.0
 10
189.0816227362911
 20
104.0078205945292
 30
0.0
 10
189.0507589258986
 20
103.892872541432
 30
0.0
  0
ELLIPSE
  5
B2
330
1F
100
AcDbEntity
  8
0
  6
Continuous
 62
     7
370
    15
100
AcDbEllipse
 10
202.0122724692
 20
111.9893255395
 30
0.0
 11
11.70927234972706
 21
24.67718644093743
 31
0.0
210
0.0
220
0.0
230
1.0
 40
0.3419987131
 41
2.061476155780654
 42
2.972663379000668
  0
LINE
  5
B3
330
1F
100
AcDbEntity
  8
0
  6
Continuous
 62
     7
370
    15
100
AcDbLine
 10
180.9560148142
 20
87.2893246573
 30
0.0
 11
180.9560148142
 21
136.6893264216
 31
0.0
  0
SPLINE
  5
B4
330
1F
100
AcDbEntity
  8
0
  6
Continuous
 62
     7
370
    15
100
AcDbSpline
210
0.0
220
0.0
230
1.0
 70
     8
 71
     3
 72
    16
 73
    12
 74
     0
 42
0.00000001
 43
0.00000001
 12
1.0
 22
0.0
 32
0.0
 13
1.0
 23
0.0
 33
0.0
 40
0.0
 40
0.0
 40
0.0
 40
0.0
 40
0.2499999999999996
 40
0.2499999999999996
 40
0.4999999999999991
 40
0.4999999999999991
 40
0.6249999999999993
 40
0.6249999999999993
 40
0.7499999999999996
 40
0.7499999999999996
 40
1.0
 40
1.0
 40
1.0
 40
1.0
 10
179.9151537860955
 20
94.6401682582837
 30
0.0
 10
179.9468817472882
 20
94.63937114146279
 30
0.0
 10
179.9815093376387
 20
94.63878006660752
 30
0.0
 10
180.0612030997024
 20
94.63776854117306
 30
0.0
 10
180.1062445597061
 20
94.63736843299817
 30
0.0
 10
180.1890972865565
 20
94.63641056109434
 30
0.0
 10
180.2190117477564
 20
94.63602887983392
 30
0.0
 10
180.2849980783143
 20
94.63495266577537
 30
0.0
 10
180.3217317037761
 20
94.63423509988122
 30
0.0
 10
180.4342284233459
 20
94.63147422219957
 30
0.0
 10
180.5045697714442
 20
94.62898713032799
 30
0.0
 10
180.5610379253493
 20
94.62681385192087
 30
0.0
  0
SPLINE
  5
B5
330
1F
100
AcDbEntity
  8
0
  6
Continuous
 62
     7
370
    15
100
AcDbSpline
210
0.0
220
0.0
230
1.0
 70
     8
 71
     3
 72
    14
 73
    10
 74
     0
 42
0.00000001
 43
0.00000001
 12
1.0
 22
0.0
 32
0.0
 13
1.0
 23
0.0
 33
0.0
 40
0.0
 40
0.0
 40
0.0
 40
0.0
 40
0.1249999999999968
 40
0.1249999999999968
 40
0.2499999999999936
 40
0.2499999999999936
 40
0.4999999999999967
 40
0.4999999999999967
 40
1.0
 40
1.0
 40
1.0
 40
1.0
 10
180.5610379253177
 20
94.62681385194361
 30
0.0
 10
180.5736297192625
 20
94.62632923412126
 30
0.0
 10
180.5885008275566
 20
94.6246190561889
 30
0.0
 10
180.6206849189897
 20
94.61650350743804
 30
0.0
 10
180.6362890504656
 20
94.61028771917672
 30
0.0
 10
180.6721761901777
 20
94.59206860747514
 30
0.0
 10
180.6860282314463
 20
94.58030357914149
 30
0.0
 10
180.7195179733789
 20
94.5485084427242
 30
0.0
 10
180.7301802339547
 20
94.53071501088107
 30
0.0
 10
180.7383181908496
 20
94.51428388003666
 30
0.0
  0
LINE
  5
B6
330
1F
100
AcDbEntity
  8
0
  6
Continuous
 62
     7
370
    15
100
AcDbLine
 10
180.7560148193
 20
106.0048455124
 30
0.0
 11
180.7560148193
 21
94.1495044839
 31
0.0
  0
SPLINE
  5
B7
330
1F
100
AcDbEntity
  8
0
  6
Continuous
 62
     7
370
    15
100
AcDbSpline
210
0.0
220
0.0
230
1.0
 70
     8
 71
     3
 72
    16
 73
    12
 74
     0
 42
0.00000001
 43
0.00000001
 12
1.0
 22
0.0
 32
0.0
 13
1.0
 23
0.0
 33
0.0
 40
0.0
 40
0.0
 40
0.0
 40
0.0
 40
0.5000000000000031
 40
0.5000000000000031
 40
0.750000000000003
 40
0.750000000000003
 40
0.875000000000003
 40
0.875000000000003
 40
0.9375000000000014
 40
0.9375000000000014
 40
1.0
 40
1.0
 40
1.0
 40
1.0
 10
180.7560148142246
 20
106.0048453069017
 30
0.0
 10
180.7560148142246
 20
106.1193750376007
 30
0.0
 10
180.7519575121095
 20
106.2346911127902
 30
0.0
 10
180.7263002693147
 20
106.4096142026177
 30
0.0
 10
180.7149848235726
 20
106.4694435056126
 30
0.0
 10
180.6809534562639
 20
106.5540346918608
 30
0.0
 10
180.6670744750602
 20
106.5827042780048
 30
0.0
 10
180.6311387932928
 20
106.6125120649511
 30
0.0
 10
180.6161884740301
 20
106.6188472183107
 30
0.0
 10
180.5862899612882
 20
106.6176217554405
 30
0.0
 10
180.572757100923
 20
106.6110231694057
 30
0.0
 10
180.561037925349
 20
106.6023754813492
 30
0.0
  0
SPLINE
  5
B8
330
1F
100
AcDbEntity
  8
0
  6
Continuous
 62
     7
370
    15
100
AcDbSpline
210
0.0
220
0.0
230
1.0
 70
     8
 71
     3
 72
    14
 73
    10
 74
     0
 42
0.00000001
 43
0.00000001
 12
1.0
 22
0.0
 32
0.0
 13
1.0
 23
0.0
 33
0.0
 40
0.0
 40
0.0
 40
0.0
 40
0.0
 40
0.25
 40
0.25
 40
0.5
 40
0.5
 40
0.75
 40
0.75
 40
1.0
 40
1.0
 40
1.0
 40
1.0
 10
180.5610379253558
 20
106.6023754813406
 30
0.0
 10
180.504578259472
 20
106.5607133716418
 30
0.0
 10
180.4337057846098
 20
106.5298798910536
 30
0.0
 10
180.2852394267279
 20
106.5355943996667
 30
0.0
 10
180.21604422352
 20
106.5711653270997
 30
0.0
 10
180.1063270374505
 20
106.6581092395736
 30
0.0
 10
180.0610811485185
 20
106.7105415529387
 30
0.0
 10
179.9814640175516
 20
106.8190946344572
 30
0.0
 10
179.9468613980947
 20
106.8760777206997
 30
0.0
 10
179.915153786096
 20
106.9346438033576
 30
0.0
  0
SPLINE
  5
B9
330
1F
100
AcDbEntity
  8
0
  6
Continuous
 62
     7
370
    15
100
AcDbSpline
210
0.0
220
0.0
230
1.0
 70
     8
 71
     3
 72
    10
 73
     6
 74
     0
 42
0.00000001
 43
0.00000001
 12
1.0
 22
0.0
 32
0.0
 13
1.0
 23
0.0
 33
0.0
 40
0.0
 40
0.0
 40
0.0
 40
0.0
 40
0.5
 40
0.5
 40
1.0
 40
1.0
 40
1.0
 40
1.0
 10
179.6346944706649
 20
107.7874623950039
 30
0.0
 10
179.6655730542769
 20
107.6378338431442
 30
0.0
 10
179.7015657620003
 20
107.4913384256206
 30
0.0
 10
179.7909060134973
 20
107.2061467870798
 30
0.0
 10
179.8433643163429
 20
107.0672437613639
 30
0.0
 10
179.9151537860961
 20
106.9346438033574
 30
0.0
  0
SPLINE
  5
BA
330
1F
100
AcDbEntity
  8
0
  6
Continuous
 62
     7
370
    15
100
AcDbSpline
210
0.0
220
0.0
230
1.0
 70
     8
 71
     3
 72
    10
 73
     6
 74
     0
 42
0.00000001
 43
0.00000001
 12
1.0
 22
0.0
 32
0.0
 13
1.0
 23
0.0
 33
0.0
 40
0.0
 40
0.0
 40
0.0
 40
0.0
 40
0.5
 40
0.5
 40
1.0
 40
1.0
 40
1.0
 40
1.0
 10
179.9151537860953
 20
117.0440072755939
 30
0.0
 10
179.8433643163424
 20
116.9114073175875
 30
0.0
 10
179.790906013497
 20
116.7725042918718
 30
0.0
 10
179.7015657620001
 20
116.4873126533315
 30
0.0
 10
179.6655730542768
 20
116.3408172358082
 30
0.0
 10
179.6346944706649
 20
116.1911886839487
 30
0.0
  0
SPLINE
  5
BB
330
1F
100
AcDbEntity
  8
0
  6
Continuous
 62
     7
370
    15
100
AcDbSpline
210
0.0
220
0.0
230
1.0
 70
     8
 71
     3
 72
    14
 73
    10
 74
     0
 42
0.00000001
 43
0.00000001
 12
1.0
 22
0.0
 32
0.0
 13
1.0
 23
0.0
 33
0.0
 40
0.0
 40
0.0
 40
0.0
 40
0.0
 40
0.25
 40
0.25
 40
0.5
 40
0.5
 40
0.75
 40
0.75
 40
1.0
 40
1.0
 40
1.0
 40
1.0
 10
179.9151537860947
 20
117.0440072755927
 30
0.0
 10
179.9468624855801
 20
117.1025753669113
 30
0.0
 10
179.9814703042207
 20
117.1595696288513
 30
0.0
 10
180.06112871471
 20
117.2681697636152
 30
0.0
 10
180.1061909846049
 20
117.3204978989938
 30
0.0
 10
180.2167728301833
 20
117.4079989103561
 30
0.0
 10
180.2844169509986
 20
117.4430443666103
 30
0.0
 10
180.4346652413957
 20
117.4487887553664
 30
0.0
 10
180.504617639626
 20
117.4179086483164
 30
0.0
 10
180.5610379253496
 20
117.3762755976033
 30
0.0
  0
SPLINE
  5
BC
330
1F
100
AcDbEntity
  8
0
  6
Continuous
 62
     7
370
    15
100
AcDbSpline
210
0.0
220
0.0
230
1.0
 70
     8
 71
     3
 72
    16
 73
    12
 74
     0
 42
0.00000001
 43
0.00000001
 12
1.0
 22
0.0
 32
0.0
 13
1.0
 23
0.0
 33
0.0
 40
0.0
 40
0.0
 40
0.0
 40
0.0
 40
0.0624999999999986
 40
0.0624999999999986
 40
0.1249999999999971
 40
0.1249999999999971
 40
0.249999999999997
 40
0.249999999999997
 40
0.4999999999999968
 40
0.4999999999999968
 40
1.0
 40
1.0
 40
1.0
 40
1.0
 10
180.5610379253177
 20
117.3762755975499
 30
0.0
 10
180.5727721597646
 20
117.3676167974057
 30
0.0
 10
180.5863039152435
 20
117.3610127121704
 30
0.0
 10
180.6162913756734
 20
117.3598157449962
 30
0.0
 10
180.6312860820817
 20
117.3662374920621
 30
0.0
 10
180.6670265044764
 20
117.3959546454714
 30
0.0
 10
180.6810398414777
 20
117.4247620428548
 30
0.0
 10
180.715183930259
 20
117.5098417644807
 30
0.0
 10
180.7261558343774
 20
117.5682167137504
 30
0.0
 10
180.7520013746437
 20
117.743932238539
 30
0.0
 10
180.7560148142246
 20
117.8597272464035
 30
0.0
 10
180.7560148142246
 20
117.9738057720509
 30
0.0
  0
LINE
  5
BD
330
1F
100
AcDbEntity
  8
0
  6
Continuous
 62
     7
370
    15
100
AcDbLine
 10
180.7560148193
 20
129.829146595
 30
0.0
 11
180.7560148193
 21
117.9738055666
 31
0.0
  0
SPLINE
  5
BE
330
1F
100
AcDbEntity
  8
0
  6
Continuous
 62
     7
370
    15
100
AcDbSpline
210
0.0
220
0.0
230
1.0
 70
     8
 71
     3
 72
    16
 73
    12
 74
     0
 42
0.00000001
 43
0.00000001
 12
1.0
 22
0.0
 32
0.0
 13
1.0
 23
0.0
 33
0.0
 40
0.0
 40
0.0
 40
0.0
 40
0.0
 40
0.4999999999999978
 40
0.4999999999999978
 40
0.7499999999999984
 40
0.7499999999999984
 40
0.8749999999999988
 40
0.8749999999999988
 40
0.9374999999999993
 40
0.9374999999999993
 40
1.0
 40
1.0
 40
1.0
 40
1.0
 10
180.7560148142247
 20
129.5360800051439
 30
0.0
 10
180.7560148142244
 20
129.5140649905645
 30
0.0
 10
180.7518902713705
 20
129.4887113558608
 30
0.0
 10
180.7259738257374
 20
129.4415508536723
 30
0.0
 10
180.7146962447176
 20
129.4243518654435
 30
0.0
 10
180.6809608661762
 20
129.3943738998742
 30
0.0
 10
180.6665720509318
 20
129.3830224913324
 30
0.0
 10
180.6313253614928
 20
129.366334631855
 30
0.0
 10
180.6161199370358
 20
129.3607716049697
 30
0.0
 10
180.5864733578665
 20
129.3538020219345
 30
0.0
 10
180.5727680218691
 20
129.3522886808792
 30
0.0
 10
180.5610379253453
 20
129.3518372270293
 30
0.0
  0
SPLINE
  5
BF
330
1F
100
AcDbEntity
  8
0
  6
Continuous
 62
     7
370
    15
100
AcDbSpline
210
0.0
220
0.0
230
1.0
 70
     8
 71
     3
 72
    14
 73
    10
 74
     0
 42
0.00000001
 43
0.00000001
 12
1.0
 22
0.0
 32
0.0
 13
1.0
 23
0.0
 33
0.0
 40
0.0
 40
0.0
 40
0.0
 40
0.0
 40
0.25
 40
0.25
 40
0.5
 40
0.5
 40
0.75
 40
0.75
 40
1.0
 40
1.0
 40
1.0
 40
1.0
 10
180.5610379253557
 20
129.3518372270318
 30
0.0
 10
180.5045908432975
 20
129.3496647596126
 30
0.0
 10
180.4337404592547
 20
129.3471666616951
 30
0.0
 10
180.2853040244383
 20
129.3435202029069
 30
0.0
 10
180.2161147727514
 20
129.3425524560556
 30
0.0
 10
180.1064032245104
 20
129.3412848966929
 30
0.0
 10
180.0611615751681
 20
129.3408820557646
 30
0.0
 10
179.9815135569842
 20
129.339871020837
 30
0.0
 10
179.9468866412182
 20
129.3392800604424
 30
0.0
 10
179.9151537860968
 20
129.3384828206689
 30
0.0
  0
SPLINE
  5
C0
330
1F
100
AcDbEntity
  8
0
  6
Continuous
 62
     7
370
    15
100
AcDbSpline
210
0.0
220
0.0
230
1.0
 70
     8
 71
     3
 72
    18
 73
    14
 74
     0
 42
0.00000001
 43
0.00000001
 12
1.0
 22
0.0
 32
0.0
 13
1.0
 23
0.0
 33
0.0
 40
0.0
 40
0.0
 40
0.0
 40
0.0
 40
0.2500000000000002
 40
0.2500000000000002
 40
0.3750000000000001
 40
0.3750000000000001
 40
0.5000000000000001
 40
0.5000000000000001
 40
0.6250000000000001
 40
0.6250000000000001
 40
0.75
 40
0.75
 40
1.0
 40
1.0
 40
1.0
 40
1.0
 10
179.6346944706649
 20
116.1911886839487
 30
0.0
 10
179.4994088643626
 20
115.5356343485275
 30
0.0
 10
179.3982411181196
 20
114.8560132547299
 30
0.0
 10
179.2953797752507
 20
113.8006492482359
 30
0.0
 10
179.2692769297274
 20
113.4418351836512
 30
0.0
 10
179.2343869461826
 20
112.7157222395283
 30
0.0
 10
179.2258006878926
 20
112.3536325605122
 30
0.0
 10
179.225700978327
 20
111.6313229030938
 30
0.0
 10
179.2341893494755
 20
111.2711031009854
 30
0.0
 10
179.2683327289961
 20
110.5525370318915
 30
0.0
 10
179.2941297108499
 20
110.1927713159761
 30
0.0
 10
179.3975308422379
 20
109.1261267289817
 30
0.0
 10
179.4993888344092
 20
108.4431137896993
 30
0.0
 10
179.6346944706649
 20
107.7874623950039
 30
0.0
  0
LINE
  5
C1
330
1F
100
AcDbEntity
  8
0
  6
Continuous
 62
     7
370
    15
100
AcDbLine
 10
178.7560148261
 20
117.1294778337
 30
0.0
 11
178.7560148261
 21
106.8491732453
 31
0.0
  0
LINE
  5
C2
330
1F
100
AcDbEntity
  8
0
  6
Continuous
 62
     7
370
    15
100
AcDbLine
 10
152.4560147993
 20
116.7991041888
 30
0.0
 11
152.4560147993
 21
107.1795468901
 31
0.0
  0
LINE
  5
C3
330
1F
100
AcDbEntity
  8
0
  6
Continuous
 62
     7
370
    15
100
AcDbLine
 10
150.9560154848
 20
116.3660913457
 30
0.0
 11
150.9560154848
 21
107.6125597332
 31
0.0
  0
SPLINE
  5
C4
330
1F
100
AcDbEntity
  8
0
  6
Continuous
 62
     7
370
    15
100
AcDbSpline
210
0.0
220
0.0
230
1.0
 70
     8
 71
     3
 72
    16
 73
    12
 74
     0
 42
0.00000001
 43
0.00000001
 12
1.0
 22
0.0
 32
0.0
 13
1.0
 23
0.0
 33
0.0
 40
0.0
 40
0.0
 40
0.0
 40
0.0
 40
0.1250000000000006
 40
0.1250000000000006
 40
0.2500000000000011
 40
0.2500000000000011
 40
0.5000000000000008
 40
0.5000000000000008
 40
0.7500000000000004
 40
0.7500000000000004
 40
1.0
 40
1.0
 40
1.0
 40
1.0
 10
207.4613570645283
 20
128.8414525393125
 30
0.0
 10
207.4919420668053
 20
128.6977534840684
 30
0.0
 10
207.5255178787054
 20
128.5476339289195
 30
0.0
 10
207.5890587335794
 20
128.232419690923
 30
0.0
 10
207.6191814248551
 20
128.0652846547798
 30
0.0
 10
207.6886561192049
 20
127.5619608385604
 30
0.0
 10
207.7060276377596
 20
127.2135062650971
 30
0.0
 10
207.6846027562192
 20
126.5527711067271
 30
0.0
 10
207.648430408189
 20
126.231545525773
 30
0.0
 10
207.5602652649877
 20
125.6351828867681
 30
0.0
 10
207.5080213345713
 20
125.3564180763301
 30
0.0
 10
207.4613570645283
 20
125.0985768168595
 30
0.0
  0
LINE
  5
C5
330
1F
100
AcDbEntity
  8
0
  6
Continuous
 62
     7
370
    15
100
AcDbLine
 10
178.7560148261
 20
117.1294778337
 30
0.0
 11
178.7560148261
 21
129.5094235551
 31
0.0
  0
ARC
  5
C6
330
1F
100
AcDbEntity
  8
0
  6
Continuous
 62
     7
370
    15
100
AcDbCircle
 10
178.9559517252
 20
129.5144474352
 30
0.0
 40
0.2000000000000052
100
AcDbArc
 50
181.4391666667
 51
271.4391666667
  0
LINE
  5
C7
330
1F
100
AcDbEntity
  8
0
  6
Continuous
 62
     7
370
    15
100
AcDbLine
 10
152.4560147993
 20
116.7991041888
 30
0.0
 11
152.4560147993
 21
128.8486762655
 31
0.0
  0
LINE
  5
C8
330
1F
100
AcDbEntity
  8
0
  6
Continuous
 62
     7
370
    15
100
AcDbLine
 10
152.4560147993
 20
128.8486762655
 30
0.0
 11
178.7560148261
 21
129.5094235551
 31
0.0
  0
LINE
  5
C9
330
1F
100
AcDbEntity
  8
0
  6
Continuous
 62
     7
370
    15
100
AcDbLine
 10
152.4560147993
 20
95.1299748135
 30
0.0
 11
152.4560147993
 21
107.1795468901
 31
0.0
  0
LINE
  5
CA
330
1F
100
AcDbEntity
  8
0
  6
Continuous
 62
     7
370
    15
100
AcDbLine
 10
178.7560148261
 20
94.4692275238
 30
0.0
 11
178.7560148261
 21
106.8491732453
 31
0.0
  0
LINE
  5
CB
330
1F
100
AcDbEntity
  8
0
  6
Continuous
 62
     7
370
    15
100
AcDbLine
 10
152.4560147993
 20
95.1299748135
 30
0.0
 11
178.7560148261
 21
94.4692275238
 31
0.0
  0
ARC
  5
CC
330
1F
100
AcDbEntity
  8
0
  6
Continuous
 62
     7
370
    15
100
AcDbCircle
 10
178.9559517252
 20
94.4642036438
 30
0.0
 40
0.2000000000000055
100
AcDbArc
 50
88.5608333333
 51
178.5608333333
  0
LINE
  5
CD
330
1F
100
AcDbEntity
  8
0
  6
Continuous
 62
     7
370
    15
100
AcDbLine
 10
178.9609749433
 20
94.6641403002
 30
0.0
 11
179.9151538037
 21
94.6401680571
 31
0.0
  0
LINE
  5
CE
330
1F
100
AcDbEntity
  8
0
  6
Continuous
 62
     7
370
    15
100
AcDbLine
 10
178.9609749433
 20
129.3145107788
 30
0.0
 11
179.9151538037
 21
129.3384830219
 31
0.0
  0
LINE
  5
CF
330
1F
100
AcDbEntity
  8
0
  6
Continuous
 62
     7
370
    15
100
AcDbLine
 10
150.9560154848
 20
127.9826505792
 30
0.0
 11
152.4560147993
 21
128.8486762655
 31
0.0
  0
LINE
  5
D0
330
1F
100
AcDbEntity
  8
0
  6
Continuous
 62
     7
370
    15
100
AcDbLine
 10
150.9560154848
 20
116.3660913457
 30
0.0
 11
150.9560154848
 21
127.9826505792
 31
0.0
  0
LINE
  5
D1
330
1F
100
AcDbEntity
  8
0
  6
Continuous
 62
     7
370
    15
100
AcDbLine
 10
150.9560154848
 20
95.9960004997
 30
0.0
 11
152.4560147993
 21
95.1299748135
 31
0.0
  0
LINE
  5
D2
330
1F
100
AcDbEntity
  8
0
  6
Continuous
 62
     7
370
    15
100
AcDbLine
 10
150.9560154848
 20
95.9960004997
 30
0.0
 11
150.9560154848
 21
107.6125597332
 31
0.0
  0
LINE
  5
D3
330
1F
100
AcDbEntity
  8
0
  6
Continuous
 62
     7
370
    15
100
AcDbLine
 10
220.8682386301
 20
137.5074355614
 30
0.0
 11
217.1951396488
 21
137.3144450349
 31
0.0
  0
ARC
  5
D4
330
1F
100
AcDbEntity
  8
0
  6
Continuous
 62
     7
370
    15
100
AcDbCircle
 10
217.3741721841
 20
135.2488493968
 30
0.0
 40
2.073339815076111
100
AcDbArc
 50
94.9536497086
 51
274.5298740114
  0
LINE
  5
D5
330
1F
100
AcDbEntity
  8
0
  6
Continuous
 62
     7
370
    15
100
AcDbLine
 10
217.5379222356
 20
133.1819860947
 30
0.0
 11
233.392772647
 21
134.0150187475
 31
0.0
  0
ARC
  5
D6
330
1F
100
AcDbEntity
  8
0
  6
Continuous
 62
     7
370
    15
100
AcDbCircle
 10
256.7235383171
 20
124.5560877883
 30
0.0
 40
25.17530539326626
100
AcDbArc
 50
157.9310196208
 51
180.0612518447
  0
LINE
  5
D7
330
1F
100
AcDbEntity
  8
0
  6
Continuous
 62
     7
370
    15
100
AcDbLine
 10
231.5482473098
 20
124.5291742247
 30
0.0
 11
231.5482473098
 21
116.1191656005
 31
0.0
  0
LINE
  5
D8
330
1F
100
AcDbEntity
  8
0
  6
Continuous
 62
     7
370
    15
100
AcDbLine
 10
231.5482473098
 20
116.1191656005
 30
0.0
 11
213.7854224168
 21
91.2950995129
 31
0.0
  0
SPLINE
  5
D9
330
1F
100
AcDbEntity
  8
0
  6
Continuous
 62
     7
370
    15
100
AcDbSpline
210
0.0
220
0.0
230
1.0
 70
     8
 71
     3
 72
     8
 73
     4
 74
     0
 42
0.00000001
 43
0.00000001
 12
1.0
 22
0.0
 32
0.0
 13
1.0
 23
0.0
 33
0.0
 40
0.0
 40
0.0
 40
0.0
 40
0.0
 40
1.0
 40
1.0
 40
1.0
 40
1.0
 10
213.7854210082494
 20
91.29509901155417
 30
0.0
 10
213.6204968696515
 20
91.44641270290411
 30
0.0
 10
213.4112653655072
 20
91.55140382793415
 30
0.0
 10
213.1886878262459
 20
91.57645789226981
 30
0.0
  0
SPLINE
  5
DA
330
1F
100
AcDbEntity
  8
0
  6
Continuous
 62
     7
370
    15
100
AcDbSpline
210
0.0
220
0.0
230
1.0
 70
     8
 71
     3
 72
    10
 73
     6
 74
     0
 42
0.00000001
 43
0.00000001
 12
1.0
 22
0.0
 32
0.0
 13
1.0
 23
0.0
 33
0.0
 40
0.0
 40
0.0
 40
0.0
 40
0.0
 40
0.5
 40
0.5
 40
1.0
 40
1.0
 40
1.0
 40
1.0
 10
213.1886878262456
 20
136.1075630034329
 30
0.0
 10
213.4224944291071
 20
136.1195632655713
 30
0.0
 10
213.6398307847675
 20
136.2193181255589
 30
0.0
 10
213.9801946722935
 20
136.528845027427
 30
0.0
 10
214.099200698585
 20
136.7325258369013
 30
0.0
 10
214.1546136525347
 20
136.9581861203997
 30
0.0
  0
SPLINE
  5
DB
330
1F
100
AcDbEntity
  8
0
  6
Continuous
 62
     7
370
    15
100
AcDbSpline
210
0.0
220
0.0
230
1.0
 70
     8
 71
     3
 72
     8
 73
     4
 74
     0
 42
0.00000001
 43
0.00000001
 12
1.0
 22
0.0
 32
0.0
 13
1.0
 23
0.0
 33
0.0
 40
0.0
 40
0.0
 40
0.0
 40
0.0
 40
1.0
 40
1.0
 40
1.0
 40
1.0
 10
214.1546136525347
 20
136.9581861203997
 30
0.0
 10
214.7267357102979
 20
139.2880605730037
 30
0.0
 10
215.314578516306
 20
141.6135083580468
 30
0.0
 10
215.9102332748012
 20
143.9367564439329
 30
0.0
  0
ELLIPSE
  5
DC
330
1F
100
AcDbEntity
  8
0
  6
Continuous
 62
     7
370
    15
100
AcDbEllipse
 10
264.1286230106
 20
116.0336780504
 30
0.0
 11
169.6090200775227
 21
12.49565224517559
 31
0.0
210
0.0
220
0.0
230
1.0
 40
0.1916117708
 41
1.787206343589608
 42
1.844918330815116
  0
LINE
  5
DD
330
1F
100
AcDbEntity
  8
0
  6
Continuous
 62
     7
370
    15
100
AcDbLine
 10
225.3709001563
 20
145.0915808541
 30
0.0
 11
220.8682386301
 21
137.5074355614
 31
0.0
  0
LWPOLYLINE
  5
DE
330
1F
100
AcDbEntity
  8
0
  6
Continuous
 62
     7
370
    15
100
AcDbPolyline
 90
       34
 70
   128
 43
0.0
 10
224.3574870847
 20
127.8250279588
 10
224.3151901387
 20
127.1724064586
 10
224.1499064587
 20
126.5433716339
 10
223.8676039599
 20
125.9606598628
 10
223.4784862123
 20
125.4453311426
 10
222.9966236375
 20
125.0160100621
 10
222.439424517
 20
124.6882152495
 10
221.8270277701
 20
124.4737921965
 10
221.1815727971
 20
124.380492301
 10
220.5263836406
 20
124.4116860193
 10
219.885141971
 20
124.5662473825
 10
219.2810228191
 20
124.8385893864
 10
218.7358638369
 20
125.218869814
 10
218.2693643592
 20
125.6933432755
 10
217.8983850501
 20
126.244860397
 10
217.6363369547
 20
126.853489944
 10
217.4926897608
 20
127.4972331461
 10
217.4726365231
 20
128.1528237027
 10
217.576899948
 20
128.7965669048
 10
217.8017100416
 20
129.4051955205
 10
218.1389456712
 20
129.9567135733
 10
218.5764176868
 20
130.4311870349
 10
219.0983122312
 20
130.8114665312
 10
219.6857681595
 20
131.0838094664
 10
220.3175550424
 20
131.2383717609
 10
220.9708368503
 20
131.2695654792
 10
221.621998968
 20
131.1762655836
 10
222.247512462
 20
130.9618415994
 10
222.8247648202
 20
130.6340477181
 10
223.3328981422
 20
130.2047266376
 10
223.7535392962
 20
129.6893979174
 10
224.0714928232
 20
129.1066842836
 10
224.2752624772
 20
128.4776503903
 10
224.3574870847
 20
127.8250279588
  0
SPLINE
  5
DF
330
1F
100
AcDbEntity
  8
0
  6
Continuous
 62
     7
370
    15
100
AcDbSpline
210
0.0
220
0.0
230
1.0
 70
     8
 71
     3
 72
    10
 73
     6
 74
     0
 42
0.00000001
 43
0.00000001
 12
1.0
 22
0.0
 32
0.0
 13
1.0
 23
0.0
 33
0.0
 40
0.0
 40
0.0
 40
0.0
 40
0.0
 40
0.5
 40
0.5
 40
1.0
 40
1.0
 40
1.0
 40
1.0
 10
213.7854210082494
 20
91.29509901155411
 30
0.0
 10
213.6986416001586
 20
91.19410698928898
 30
0.0
 10
213.6052083925231
 20
91.08351203161241
 30
0.0
 10
213.4066257702696
 20
90.84541298364002
 30
0.0
 10
213.3015745430908
 20
90.71805059999335
 30
0.0
 10
213.1886878262457
 20
90.57937983522127
 30
0.0
  0
LINE
  5
E0
330
1F
100
AcDbEntity
  8
0
  6
Continuous
 62
     7
370
    15
100
AcDbLine
 10
215.3369909249
 20
135.7078409505
 30
0.0
 11
215.5941030107
 21
135.7377326799
 31
0.0
  0
SPLINE
  5
E1
330
1F
100
AcDbEntity
  8
0
  6
Continuous
 62
     7
370
    15
100
AcDbSpline
210
0.0
220
0.0
230
1.0
 70
     8
 71
     3
 72
    10
 73
     6
 74
     0
 42
0.00000001
 43
0.00000001
 12
1.0
 22
0.0
 32
0.0
 13
1.0
 23
0.0
 33
0.0
 40
0.0
 40
0.0
 40
0.0
 40
0.0
 40
0.498736075930213
 40
0.9974722431054474
 40
1.0
 40
1.0
 40
1.0
 40
1.0
 10
215.9102348707584
 20
143.9367557627029
 30
0.0
 10
215.9031409426314
 20
144.0046756818793
 30
0.0
 10
215.8889530850796
 20
144.1405155326584
 30
0.0
 10
215.8754730150063
 20
144.1812945125316
 30
0.0
 10
215.8688245428801
 20
144.1277346388854
 30
0.0
 10
215.868791016188
 20
144.127464548952
 30
0.0
  0
LINE
  5
E2
330
1F
100
AcDbEntity
  8
0
  6
Continuous
 62
     7
370
    15
100
AcDbLine
 10
219.2672019921
 20
135.9307213438
 30
0.0
 11
220.8682386301
 21
137.5074355614
 31
0.0
  0
LINE
  5
E3
330
1F
100
AcDbEntity
  8
0
  6
Continuous
 62
     7
370
    15
100
AcDbLine
 10
215.5941030107
 20
135.7377326799
 30
0.0
 11
219.2672019921
 21
135.9307213438
 31
0.0
  0
ELLIPSE
  5
E4
330
1F
100
AcDbEntity
  8
0
  6
Continuous
 62
     7
370
    15
100
AcDbEllipse
 10
203.4981683048
 20
109.6611604747
 30
0.0
 11
21.84550201690431
 21
35.45530065444136
 31
0.0
210
0.0
220
0.0
230
1.0
 40
0.047805889
 41
6.264984927128726
 42
6.32003593352531
  0
SPLINE
  5
E5
330
1F
100
AcDbEntity
  8
0
  6
HIDDEN
 62
     7
370
     0
100
AcDbSpline
210
0.0
220
0.0
230
1.0
 70
     8
 71
     3
 72
    70
 73
    66
 74
     0
 42
0.00000001
 43
0.00000001
 12
1.0
 22
0.0
 32
0.0
 13
1.0
 23
0.0
 33
0.0
 40
-0.0312499999999999
 40
-0.0312499999999999
 40
0.0
 40
0.0
 40
0.0312500000000001
 40
0.0312500000000001
 40
0.0625000000000002
 40
0.0625000000000002
 40
0.0937500000000004
 40
0.0937500000000004
 40
0.1250000000000005
 40
0.1250000000000005
 40
0.1562500000000005
 40
0.1562500000000005
 40
0.1875000000000005
 40
0.1875000000000005
 40
0.2187500000000004
 40
0.2187500000000004
 40
0.2500000000000004
 40
0.2500000000000004
 40
0.2812500000000004
 40
0.2812500000000004
 40
0.3125000000000003
 40
0.3125000000000003
 40
0.3437500000000003
 40
0.3437500000000003
 40
0.3750000000000003
 40
0.3750000000000003
 40
0.4062500000000002
 40
0.4062500000000002
 40
0.4375000000000002
 40
0.4375000000000002
 40
0.4687500000000002
 40
0.4687500000000002
 40
0.5000000000000001
 40
0.5000000000000001
 40
0.5312500000000001
 40
0.5312500000000001
 40
0.5625000000000001
 40
0.5625000000000001
 40
0.5937500000000001
 40
0.5937500000000001
 40
0.6250000000000001
 40
0.6250000000000001
 40
0.6562500000000002
 40
0.6562500000000002
 40
0.6875000000000002
 40
0.6875000000000002
 40
0.7187500000000002
 40
0.7187500000000002
 40
0.7500000000000002
 40
0.7500000000000002
 40
0.7812500000000002
 40
0.7812500000000002
 40
0.8125000000000002
 40
0.8125000000000002
 40
0.8437500000000002
 40
0.8437500000000002
 40
0.8750000000000002
 40
0.8750000000000002
 40
0.9062500000000003
 40
0.9062500000000003
 40
0.9375000000000002
 40
0.9375000000000002
 40
0.9687500000000001
 40
0.9687500000000001
 40
1.0
 40
1.0
 40
1.03125
 40
1.03125
 10
198.757628900285
 20
95.95572847683223
 30
0.0
 10
199.1544007281641
 20
95.95572847683223
 30
0.0
 10
199.3494354173053
 20
95.970774790308
 30
0.0
 10
199.7330875969906
 20
96.0298478625587
 30
0.0
 10
199.923706725862
 20
96.0746040338546
 30
0.0
 10
200.2869210874433
 20
96.1917908541037
 30
0.0
 10
200.4591607289544
 20
96.26366171884264
 30
0.0
 10
200.7851307904316
 20
96.43434622093943
 30
0.0
 10
200.9393300123339
 20
96.53400328562677
 30
0.0
 10
201.2157832565762
 20
96.75308128025647
 30
0.0
 10
201.3399018112053
 20
96.87327102998776
 30
0.0
 10
201.5592192142106
 20
97.13630038725518
 30
0.0
 10
201.6523084397921
 20
97.27706779357983
 30
0.0
 10
201.801985387073
 20
97.5706999530627
 30
0.0
 10
201.8596725475223
 20
97.72574136389424
 30
0.0
 10
201.9368064385187
 20
98.04563382322138
 30
0.0
 10
201.9559059882081
 20
98.20771750136943
 30
0.0
 10
201.9561227216955
 20
98.53619748206638
 30
0.0
 10
201.9366099070697
 20
98.70433990969798
 30
0.0
 10
201.8600088639905
 20
99.03204635836167
 30
0.0
 10
201.8033336989776
 20
99.19255207569186
 30
0.0
 10
201.6529844860332
 20
99.50643804195552
 30
0.0
 10
201.559128581992
 20
99.65906739569252
 30
0.0
 10
201.3420985146506
 20
99.94336294513828
 30
0.0
 10
201.2180806677231
 20
100.0768819924615
 30
0.0
 10
200.9382654454009
 20
100.3247235993179
 30
0.0
 10
200.7869370892433
 20
100.4351125576998
 30
0.0
 10
200.4622714195071
 20
100.6292072451466
 30
0.0
 10
200.2868498012405
 20
100.7135990223786
 30
0.0
 10
199.9236684136014
 20
100.849067238769
 30
0.0
 10
199.7366806955224
 20
100.9003574053495
 30
0.0
 10
199.3519564937382
 20
100.9698490118877
 30
0.0
 10
199.1530006272195
 20
100.9876854791416
 30
0.0
 10
198.7612715776369
 20
100.9878179107946
 30
0.0
 10
198.566482912463
 20
100.970689240885
 30
0.0
 10
198.1791083347591
 20
100.9013457760114
 30
0.0
 10
197.9897846469167
 20
100.849430966037
 30
0.0
 10
197.6286442479245
 20
100.7150562367826
 30
0.0
 10
197.4540573637996
 20
100.6315524376888
 30
0.0
 10
197.1261481846127
 20
100.4359649770121
 30
0.0
 10
196.9751365122915
 20
100.3256132704564
 30
0.0
 10
196.698317447659
 20
100.081070459713
 30
0.0
 10
196.5715709684188
 20
99.94529153545025
 30
0.0
 10
196.3536900183292
 20
99.6603179784372
 30
0.0
 10
196.2613919938748
 20
99.51055990072841
 30
0.0
 10
196.1104201735233
 20
99.19690875922791
 30
0.0
 10
196.0525008994288
 20
99.03343824813624
 30
0.0
 10
195.9758583249132
 20
98.70687056366955
 30
0.0
 10
195.9561976734623
 20
98.5420356732675
 30
0.0
 10
195.9558344691401
 20
98.20927039113941
 30
0.0
 10
195.9751427667572
 20
98.04692921241697
 30
0.0
 10
196.0511101078245
 20
97.72996761438563
 30
0.0
 10
196.1087065019659
 20
97.57370695019777
 30
0.0
 10
196.2590225674778
 20
97.2780608167421
 30
0.0
 10
196.3510294695845
 20
97.13891934801455
 30
0.0
 10
196.5684601362104
 20
96.8771985961617
 30
0.0
 10
196.6949133610475
 20
96.75429065225671
 30
0.0
 10
196.9711703058586
 20
96.53506376379187
 30
0.0
 10
197.1219738681715
 20
96.43723799593243
 30
0.0
 10
197.4496809381152
 20
96.26502568719009
 30
0.0
 10
197.6239033205701
 20
96.19232660265425
 30
0.0
 10
197.9846700974938
 20
96.07563763431637
 30
0.0
 10
198.1736444754369
 20
96.03083539021837
 30
0.0
 10
198.561488097543
 20
95.97077608505731
 30
0.0
 10
198.757628900285
 20
95.95572847683223
 30
0.0
 10
199.1544007281641
 20
95.95572847683223
 30
0.0
  0
SPLINE
  5
E6
330
1F
100
AcDbEntity
  8
0
  6
HIDDEN
 62
     7
370
     0
100
AcDbSpline
210
0.0
220
0.0
230
1.0
 70
     8
 71
     3
 72
    70
 73
    66
 74
     0
 42
0.00000001
 43
0.00000001
 12
1.0
 22
0.0
 32
0.0
 13
1.0
 23
0.0
 33
0.0
 40
-0.0312499999999999
 40
-0.0312499999999999
 40
0.0
 40
0.0
 40
0.0312500000000001
 40
0.0312500000000001
 40
0.0625000000000002
 40
0.0625000000000002
 40
0.0937500000000004
 40
0.0937500000000004
 40
0.1250000000000005
 40
0.1250000000000005
 40
0.1562500000000005
 40
0.1562500000000005
 40
0.1875000000000005
 40
0.1875000000000005
 40
0.2187500000000004
 40
0.2187500000000004
 40
0.2500000000000004
 40
0.2500000000000004
 40
0.2812500000000004
 40
0.2812500000000004
 40
0.3125000000000003
 40
0.3125000000000003
 40
0.3437500000000003
 40
0.3437500000000003
 40
0.3750000000000003
 40
0.3750000000000003
 40
0.4062500000000002
 40
0.4062500000000002
 40
0.4375000000000002
 40
0.4375000000000002
 40
0.4687500000000002
 40
0.4687500000000002
 40
0.5000000000000001
 40
0.5000000000000001
 40
0.5312500000000001
 40
0.5312500000000001
 40
0.5625000000000001
 40
0.5625000000000001
 40
0.5937500000000001
 40
0.5937500000000001
 40
0.6250000000000001
 40
0.6250000000000001
 40
0.6562500000000002
 40
0.6562500000000002
 40
0.6875000000000002
 40
0.6875000000000002
 40
0.7187500000000002
 40
0.7187500000000002
 40
0.7500000000000002
 40
0.7500000000000002
 40
0.7812500000000002
 40
0.7812500000000002
 40
0.8125000000000002
 40
0.8125000000000002
 40
0.8437500000000002
 40
0.8437500000000002
 40
0.8750000000000002
 40
0.8750000000000002
 40
0.9062500000000003
 40
0.9062500000000003
 40
0.9375000000000002
 40
0.9375000000000002
 40
0.9687500000000001
 40
0.9687500000000001
 40
1.0
 40
1.0
 40
1.03125
 40
1.03125
 10
198.757628900285
 20
95.95572847683223
 30
0.0
 10
199.1544007281641
 20
95.95572847683223
 30
0.0
 10
199.3494354173053
 20
95.970774790308
 30
0.0
 10
199.7330875969906
 20
96.0298478625587
 30
0.0
 10
199.923706725862
 20
96.0746040338546
 30
0.0
 10
200.2869210874433
 20
96.1917908541037
 30
0.0
 10
200.4591607289544
 20
96.26366171884264
 30
0.0
 10
200.7851307904316
 20
96.43434622093943
 30
0.0
 10
200.9393300123339
 20
96.53400328562677
 30
0.0
 10
201.2157832565762
 20
96.75308128025647
 30
0.0
 10
201.3399018112053
 20
96.87327102998776
 30
0.0
 10
201.5592192142106
 20
97.13630038725518
 30
0.0
 10
201.6523084397921
 20
97.27706779357983
 30
0.0
 10
201.801985387073
 20
97.5706999530627
 30
0.0
 10
201.8596725475223
 20
97.72574136389424
 30
0.0
 10
201.9368064385187
 20
98.04563382322138
 30
0.0
 10
201.9559059882081
 20
98.20771750136943
 30
0.0
 10
201.9561227216955
 20
98.53619748206638
 30
0.0
 10
201.9366099070697
 20
98.70433990969798
 30
0.0
 10
201.8600088639905
 20
99.03204635836167
 30
0.0
 10
201.8033336989776
 20
99.19255207569186
 30
0.0
 10
201.6529844860332
 20
99.50643804195552
 30
0.0
 10
201.559128581992
 20
99.65906739569252
 30
0.0
 10
201.3420985146506
 20
99.94336294513828
 30
0.0
 10
201.2180806677231
 20
100.0768819924615
 30
0.0
 10
200.9382654454009
 20
100.3247235993179
 30
0.0
 10
200.7869370892433
 20
100.4351125576998
 30
0.0
 10
200.4622714195071
 20
100.6292072451466
 30
0.0
 10
200.2868498012405
 20
100.7135990223786
 30
0.0
 10
199.9236684136014
 20
100.849067238769
 30
0.0
 10
199.7366806955224
 20
100.9003574053495
 30
0.0
 10
199.3519564937382
 20
100.9698490118877
 30
0.0
 10
199.1530006272195
 20
100.9876854791416
 30
0.0
 10
198.7612715776369
 20
100.9878179107946
 30
0.0
 10
198.566482912463
 20
100.970689240885
 30
0.0
 10
198.1791083347591
 20
100.9013457760114
 30
0.0
 10
197.9897846469167
 20
100.849430966037
 30
0.0
 10
197.6286442479245
 20
100.7150562367826
 30
0.0
 10
197.4540573637996
 20
100.6315524376888
 30
0.0
 10
197.1261481846127
 20
100.4359649770121
 30
0.0
 10
196.9751365122915
 20
100.3256132704564
 30
0.0
 10
196.698317447659
 20
100.081070459713
 30
0.0
 10
196.5715709684188
 20
99.94529153545025
 30
0.0
 10
196.3536900183292
 20
99.6603179784372
 30
0.0
 10
196.2613919938748
 20
99.51055990072841
 30
0.0
 10
196.1104201735233
 20
99.19690875922791
 30
0.0
 10
196.0525008994288
 20
99.03343824813624
 30
0.0
 10
195.9758583249132
 20
98.70687056366955
 30
0.0
 10
195.9561976734623
 20
98.5420356732675
 30
0.0
 10
195.9558344691401
 20
98.20927039113941
 30
0.0
 10
195.9751427667572
 20
98.04692921241697
 30
0.0
 10
196.0511101078245
 20
97.72996761438563
 30
0.0
 10
196.1087065019659
 20
97.57370695019777
 30
0.0
 10
196.2590225674778
 20
97.2780608167421
 30
0.0
 10
196.3510294695845
 20
97.13891934801455
 30
0.0
 10
196.5684601362104
 20
96.8771985961617
 30
0.0
 10
196.6949133610475
 20
96.75429065225671
 30
0.0
 10
196.9711703058586
 20
96.53506376379187
 30
0.0
 10
197.1219738681715
 20
96.43723799593243
 30
0.0
 10
197.4496809381152
 20
96.26502568719009
 30
0.0
 10
197.6239033205701
 20
96.19232660265425
 30
0.0
 10
197.9846700974938
 20
96.07563763431637
 30
0.0
 10
198.1736444754369
 20
96.03083539021837
 30
0.0
 10
198.561488097543
 20
95.97077608505731
 30
0.0
 10
198.757628900285
 20
95.95572847683223
 30
0.0
 10
199.1544007281641
 20
95.95572847683223
 30
0.0
  0
SPLINE
  5
E7
330
1F
100
AcDbEntity
  8
0
  6
HIDDEN
 62
     7
370
     0
100
AcDbSpline
210
0.0
220
0.0
230
1.0
 70
     8
 71
     3
 72
    26
 73
    22
 74
     0
 42
0.00000001
 43
0.00000001
 12
1.0
 22
0.0
 32
0.0
 13
1.0
 23
0.0
 33
0.0
 40
0.0
 40
0.0
 40
0.0
 40
0.0
 40
0.124999999999999
 40
0.124999999999999
 40
0.1874999999999986
 40
0.1874999999999986
 40
0.2499999999999982
 40
0.2499999999999982
 40
0.3124999999999983
 40
0.3124999999999983
 40
0.3749999999999983
 40
0.3749999999999983
 40
0.4999999999999988
 40
0.4999999999999988
 40
0.6249999999999991
 40
0.6249999999999991
 40
0.7499999999999993
 40
0.7499999999999993
 40
0.8749999999999997
 40
0.8749999999999997
 40
1.0
 40
1.0
 40
1.0
 40
1.0
 10
213.1886878262456
 20
118.6956214107219
 30
0.0
 10
212.8615076015598
 20
118.9006451956302
 30
0.0
 10
212.5764791334759
 20
119.1484177778518
 30
0.0
 10
212.2085207071497
 20
119.578721551336
 30
0.0
 10
212.0968110687031
 20
119.7314342604318
 30
0.0
 10
211.8997987161148
 20
120.0458161264087
 30
0.0
 10
211.8135012105511
 20
120.2086132612214
 30
0.0
 10
211.6640196525889
 20
120.5445138879251
 30
0.0
 10
211.6007486569166
 20
120.718425854408
 30
0.0
 10
211.499119881272
 20
121.0670479866749
 30
0.0
 10
211.4602307118085
 20
121.242708244164
 30
0.0
 10
211.3762796481591
 20
121.7730310233519
 30
0.0
 10
211.3645986726643
 20
122.1325335463667
 30
0.0
 10
211.416328280758
 20
122.8279737791345
 30
0.0
 10
211.4788591959467
 20
123.1680472872143
 30
0.0
 10
211.6693429174566
 20
123.8341870613632
 30
0.0
 10
211.796228524468
 20
124.155248973567
 30
0.0
 10
212.1031007971999
 20
124.7662179887613
 30
0.0
 10
212.2845170437384
 20
125.0590699173573
 30
0.0
 10
212.6993206441658
 20
125.6123191865897
 30
0.0
 10
212.9306553591165
 20
125.8705904180553
 30
0.0
 10
213.1886878262456
 20
126.1099424456355
 30
0.0
  0
ELLIPSE
  5
E8
330
1F
100
AcDbEntity
  8
0
  6
HIDDEN
 62
     7
370
     0
100
AcDbEllipse
 10
228.1878874119
 20
111.9893255395
 30
0.0
 11
18.29544563105
 21
24.99284387523326
 31
0.0
210
0.0
220
0.0
230
1.0
 40
0.0326926316
 41
2.485859616038613
 42
3.165519987239036
  0
SPLINE
  5
E9
330
1F
100
AcDbEntity
  8
0
  6
HIDDEN
 62
     7
370
     0
100
AcDbSpline
210
0.0
220
0.0
230
1.0
 70
     8
 71
     3
 72
    58
 73
    54
 74
     0
 42
0.00000001
 43
0.00000001
 12
1.0
 22
0.0
 32
0.0
 13
1.0
 23
0.0
 33
0.0
 40
-0.0625000000000004
 40
-0.0625000000000004
 40
0.0
 40
0.0
 40
0.03125
 40
0.03125
 40
0.0624999999999999
 40
0.0624999999999999
 40
0.0937499999999999
 40
0.0937499999999999
 40
0.1249999999999999
 40
0.1249999999999999
 40
0.1874999999999999
 40
0.1874999999999999
 40
0.2499999999999998
 40
0.2499999999999998
 40
0.2812499999999998
 40
0.2812499999999998
 40
0.3124999999999998
 40
0.3124999999999998
 40
0.3437499999999997
 40
0.3437499999999997
 40
0.3749999999999997
 40
0.3749999999999997
 40
0.4062499999999997
 40
0.4062499999999997
 40
0.4374999999999997
 40
0.4374999999999997
 40
0.4687499999999996
 40
0.4687499999999996
 40
0.4999999999999996
 40
0.4999999999999996
 40
0.5624999999999996
 40
0.5624999999999996
 40
0.6249999999999994
 40
0.6249999999999994
 40
0.6562499999999994
 40
0.6562499999999994
 40
0.6874999999999993
 40
0.6874999999999993
 40
0.7187499999999993
 40
0.7187499999999993
 40
0.7499999999999993
 40
0.7499999999999993
 40
0.7812499999999993
 40
0.7812499999999993
 40
0.8124999999999993
 40
0.8124999999999993
 40
0.8437499999999992
 40
0.8437499999999992
 40
0.8749999999999992
 40
0.8749999999999992
 40
0.9374999999999996
 40
0.9374999999999996
 40
1.0
 40
1.0
 40
1.03125
 40
1.03125
 10
190.9560148142246
 20
112.2536979100197
 30
0.0
 10
190.9560148142246
 20
111.8571393542046
 30
0.0
 10
190.9689907062351
 20
111.7271726146598
 30
0.0
 10
191.019823008341
 20
111.4714932765277
 30
0.0
 10
191.0583000796624
 20
111.3444521846862
 30
0.0
 10
191.1587050408188
 20
111.1022739987457
 30
0.0
 10
191.2201392831381
 20
110.9874203401562
 30
0.0
 10
191.3652735493198
 20
110.7700552183504
 30
0.0
 10
191.4497154704671
 20
110.6671797462661
 30
0.0
 10
191.726387500077
 20
110.390561793849
 30
0.0
 10
191.9494336550451
 20
110.2415696740161
 30
0.0
 10
192.4306976535896
 20
110.0420458790248
 30
0.0
 10
192.6939555089094
 20
109.9894670145226
 30
0.0
 10
193.0854215401942
 20
109.989255240935
 30
0.0
 10
193.2179702838077
 20
110.0022462125244
 30
0.0
 10
193.474514592823
 20
110.0532824358143
 30
0.0
 10
193.5992104791947
 20
110.0910439772171
 30
0.0
 10
193.8414134496284
 20
110.1912035165105
 30
0.0
 10
193.9584768128791
 20
110.253801326261
 30
0.0
 10
194.1751631321252
 20
110.3985233102966
 30
0.0
 10
194.2761771001929
 20
110.4811474154649
 30
0.0
 10
194.4629702944784
 20
110.6677677860759
 30
0.0
 10
194.5457706584327
 20
110.7688161539671
 30
0.0
 10
194.6906490973273
 20
110.985328174841
 30
0.0
 10
194.7532998806546
 20
111.1022175300399
 30
0.0
 10
194.8537402750285
 20
111.3444749320988
 30
0.0
 10
194.8915992867985
 20
111.4691375969142
 30
0.0
 10
194.942836991262
 20
111.725468792569
 30
0.0
 10
194.9559673660351
 20
111.8580567319194
 30
0.0
 10
194.956109316474
 20
112.2496884004888
 30
0.0
 10
194.9037684002259
 20
112.512901233523
 30
0.0
 10
194.7046381734878
 20
112.9944085642143
 30
0.0
 10
194.5558010858455
 20
113.2176090454899
 30
0.0
 10
194.2794890493061
 20
113.4944551254516
 30
0.0
 10
194.1767235120549
 20
113.5789672196704
 30
0.0
 10
193.959406579701
 20
113.7243458164018
 30
0.0
 10
193.8446196691642
 20
113.7858612480037
 30
0.0
 10
193.6027001790583
 20
113.8864173082493
 30
0.0
 10
193.4755732765583
 20
113.9250560340839
 30
0.0
 10
193.2199044409221
 20
113.9761209009712
 30
0.0
 10
193.0900092355442
 20
113.9891953813475
 30
0.0
 10
192.8259344531197
 20
113.9894537826212
 30
0.0
 10
192.6956053136344
 20
113.9765777146582
 30
0.0
 10
192.4399159994906
 20
113.9259789233302
 30
0.0
 10
192.3129881331029
 20
113.8876735774926
 30
0.0
 10
192.0705358442608
 20
113.7874177450727
 30
0.0
 10
191.9556191502792
 20
113.7260667261606
 30
0.0
 10
191.7382283585087
 20
113.5811978905904
 30
0.0
 10
191.6352430788272
 20
113.496833937321
 30
0.0
 10
191.3582787111699
 20
113.2203078835349
 30
0.0
 10
191.2091464328114
 20
112.9974480415392
 30
0.0
 10
191.009194314097
 20
112.5163455214785
 30
0.0
 10
190.9560148142246
 20
112.2536979100197
 30
0.0
 10
190.9560148142246
 20
111.8571393542046
 30
0.0
  0
SPLINE
  5
EA
330
1F
100
AcDbEntity
  8
0
  6
HIDDEN
 62
     7
370
     0
100
AcDbSpline
210
0.0
220
0.0
230
1.0
 70
     8
 71
     3
 72
    12
 73
     8
 74
     0
 42
0.00000001
 43
0.00000001
 12
1.0
 22
0.0
 32
0.0
 13
1.0
 23
0.0
 33
0.0
 40
0.0
 40
0.0
 40
0.0
 40
0.0
 40
0.4999999999999972
 40
0.4999999999999972
 40
0.7499999999999986
 40
0.7499999999999986
 40
1.0
 40
1.0
 40
1.0
 40
1.0
 10
189.0507589258988
 20
103.8928725414321
 30
0.0
 10
189.0814583092661
 20
104.0072082084959
 30
0.0
 10
189.1228083773726
 20
104.1185615613373
 30
0.0
 10
189.2225643055921
 20
104.271298333586
 30
0.0
 10
189.2622612233248
 20
104.3191582194381
 30
0.0
 10
189.3595193749724
 20
104.3937613327876
 30
0.0
 10
189.4202955329631
 20
104.4205155702957
 30
0.0
 10
189.483771627791
 20
104.4205155702957
 30
0.0
  0
LINE
  5
EB
330
1F
100
AcDbEntity
  8
0
  6
HIDDEN
 62
     7
370
     0
100
AcDbLine
 10
189.4837714829
 20
104.4205154044
 30
0.0
 11
192.4282576986
 21
104.4205154044
 31
0.0
  0
SPLINE
  5
EC
330
1F
100
AcDbEntity
  8
0
  6
HIDDEN
 62
     7
370
     0
100
AcDbSpline
210
0.0
220
0.0
230
1.0
 70
     8
 71
     3
 72
    12
 73
     8
 74
     0
 42
0.00000001
 43
0.00000001
 12
1.0
 22
0.0
 32
0.0
 13
1.0
 23
0.0
 33
0.0
 40
0.0
 40
0.0
 40
0.0
 40
0.0
 40
0.2500000000000014
 40
0.2500000000000014
 40
0.5000000000000028
 40
0.5000000000000028
 40
1.0
 40
1.0
 40
1.0
 40
1.0
 10
192.4282580006581
 20
104.4205155702957
 30
0.0
 10
192.4919232371886
 20
104.4205155702957
 30
0.0
 10
192.551529469412
 20
104.394443421816
 30
0.0
 10
192.6501899943428
 20
104.3189046709949
 30
0.0
 10
192.6891569843581
 20
104.2716537338987
 30
0.0
 10
192.7885438162826
 20
104.1198299159322
 30
0.0
 10
192.830620063706
 20
104.0070266661672
 30
0.0
 10
192.8612707025503
 20
103.8928725414321
 30
0.0
  0
ELLIPSE
  5
ED
330
1F
100
AcDbEntity
  8
0
  6
HIDDEN
 62
     7
370
     0
100
AcDbEllipse
 10
179.8997571592
 20
111.9893255395
 30
0.0
 11
-11.70927234972717
 21
24.6771864409374
 31
0.0
210
0.0
220
0.0
230
1.0
 40
0.3419987131
 41
3.310521928178953
 42
4.221709151398947
  0
SPLINE
  5
EE
330
1F
100
AcDbEntity
  8
0
  6
HIDDEN
 62
     7
370
     0
100
AcDbSpline
210
0.0
220
0.0
230
1.0
 70
     8
 71
     3
 72
    12
 73
     8
 74
     0
 42
0.00000001
 43
0.00000001
 12
1.0
 22
0.0
 32
0.0
 13
1.0
 23
0.0
 33
0.0
 40
0.0
 40
0.0
 40
0.0
 40
0.0
 40
0.5
 40
0.5
 40
0.75
 40
0.75
 40
1.0
 40
1.0
 40
1.0
 40
1.0
 10
192.8612707025503
 20
88.33668406224469
 30
0.0
 10
192.830571319183
 20
88.29754621984878
 30
0.0
 10
192.7892212510765
 20
88.26038643712329
 30
0.0
 10
192.6894653228571
 20
88.21044993149555
 30
0.0
 10
192.6497684051244
 20
88.19499706135178
 30
0.0
 10
192.5525102534768
 20
88.17107751775275
 30
0.0
 10
192.4917340954861
 20
88.16259442397434
 30
0.0
 10
192.4282580006581
 20
88.16259442397434
 30
0.0
  0
LINE
  5
EF
330
1F
100
AcDbEntity
  8
0
  6
HIDDEN
 62
     7
370
     0
100
AcDbLine
 10
192.4282576986
 20
88.1625941706
 30
0.0
 11
189.4837714829
 21
88.1625941706
 31
0.0
  0
SPLINE
  5
F0
330
1F
100
AcDbEntity
  8
0
  6
HIDDEN
 62
     7
370
     0
100
AcDbSpline
210
0.0
220
0.0
230
1.0
 70
     8
 71
     3
 72
    12
 73
     8
 74
     0
 42
0.00000001
 43
0.00000001
 12
1.0
 22
0.0
 32
0.0
 13
1.0
 23
0.0
 33
0.0
 40
0.0
 40
0.0
 40
0.0
 40
0.0
 40
0.2500000000000009
 40
0.2500000000000009
 40
0.5000000000000019
 40
0.5000000000000019
 40
1.0
 40
1.0
 40
1.0
 40
1.0
 10
189.483771627791
 20
88.16259442397435
 30
0.0
 10
189.4201063912605
 20
88.16259442397434
 30
0.0
 10
189.3605001590372
 20
88.1708591996402
 30
0.0
 10
189.2618396341063
 20
88.19507798122336
 30
0.0
 10
189.2228726440911
 20
88.2103353005325
 30
0.0
 10
189.1234858121666
 20
88.25996865479443
 30
0.0
 10
189.0814095647432
 20
88.29760836296855
 30
0.0
 10
189.0507589258988
 20
88.33668406224469
 30
0.0
  0
ELLIPSE
  5
F1
330
1F
100
AcDbEntity
  8
0
  6
HIDDEN
 62
     7
370
     0
100
AcDbEllipse
 10
202.0122724692
 20
111.9893255395
 30
0.0
 11
11.709272349727
 21
24.6771864409374
 31
0.0
210
0.0
220
0.0
230
1.0
 40
0.3419987131
 41
2.061476155780648
 42
2.972663379000664
  0
SPLINE
  5
F2
330
1F
100
AcDbEntity
  8
0
  6
HIDDEN
 62
     7
370
     0
100
AcDbSpline
210
0.0
220
0.0
230
1.0
 70
     8
 71
     3
 72
    12
 73
     8
 74
     0
 42
0.00000001
 43
0.00000001
 12
1.0
 22
0.0
 32
0.0
 13
1.0
 23
0.0
 33
0.0
 40
0.0
 40
0.0
 40
0.0
 40
0.0
 40
0.4999999999999982
 40
0.4999999999999982
 40
0.7499999999999991
 40
0.7499999999999991
 40
1.0
 40
1.0
 40
1.0
 40
1.0
 10
189.0507589258988
 20
135.641967016708
 30
0.0
 10
189.0814583092661
 20
135.6811048591039
 30
0.0
 10
189.1228083773726
 20
135.7182646418294
 30
0.0
 10
189.222564305592
 20
135.7682011474571
 30
0.0
 10
189.2622612233248
 20
135.7836540176009
 30
0.0
 10
189.3595193749724
 20
135.8075735611999
 30
0.0
 10
189.4202955329631
 20
135.8160566549784
 30
0.0
 10
189.483771627791
 20
135.8160566549784
 30
0.0
  0
LINE
  5
F3
330
1F
100
AcDbEntity
  8
0
  6
HIDDEN
 62
     7
370
     0
100
AcDbLine
 10
189.4837714829
 20
135.8160569084
 30
0.0
 11
192.4282576986
 21
135.8160569084
 31
0.0
  0
SPLINE
  5
F4
330
1F
100
AcDbEntity
  8
0
  6
HIDDEN
 62
     7
370
     0
100
AcDbSpline
210
0.0
220
0.0
230
1.0
 70
     8
 71
     3
 72
    12
 73
     8
 74
     0
 42
0.00000001
 43
0.00000001
 12
1.0
 22
0.0
 32
0.0
 13
1.0
 23
0.0
 33
0.0
 40
0.0
 40
0.0
 40
0.0
 40
0.0
 40
0.2500000000000009
 40
0.2500000000000009
 40
0.5000000000000019
 40
0.5000000000000019
 40
1.0
 40
1.0
 40
1.0
 40
1.0
 10
192.4282580006581
 20
135.8160566549784
 30
0.0
 10
192.4919232371886
 20
135.8160566549784
 30
0.0
 10
192.551529469412
 20
135.8077918793125
 30
0.0
 10
192.6501899943428
 20
135.7835730977293
 30
0.0
 10
192.6891569843581
 20
135.7683157784202
 30
0.0
 10
192.7885438162826
 20
135.7186824241582
 30
0.0
 10
192.830620063706
 20
135.6810427159841
 30
0.0
 10
192.8612707025503
 20
135.641967016708
 30
0.0
  0
ELLIPSE
  5
F5
330
1F
100
AcDbEntity
  8
0
  6
HIDDEN
 62
     7
370
     0
100
AcDbEllipse
 10
179.8997571592
 20
111.9893255395
 30
0.0
 11
11.70927234972723
 21
24.6771864409374
 31
0.0
210
0.0
220
0.0
230
1.0
 40
0.3419987131
 41
5.203068809370468
 42
6.114256032590515
  0
SPLINE
  5
F6
330
1F
100
AcDbEntity
  8
0
  6
HIDDEN
 62
     7
370
     0
100
AcDbSpline
210
0.0
220
0.0
230
1.0
 70
     8
 71
     3
 72
    12
 73
     8
 74
     0
 42
0.00000001
 43
0.00000001
 12
1.0
 22
0.0
 32
0.0
 13
1.0
 23
0.0
 33
0.0
 40
0.0
 40
0.0
 40
0.0
 40
0.0
 40
0.5
 40
0.5
 40
0.75
 40
0.75
 40
1.0
 40
1.0
 40
1.0
 40
1.0
 10
192.8612707025503
 20
120.0857785375208
 30
0.0
 10
192.830571319183
 20
119.971442870457
 30
0.0
 10
192.7892212510765
 20
119.8600895176156
 30
0.0
 10
192.6894653228571
 20
119.7073527453669
 30
0.0
 10
192.6497684051244
 20
119.6594928595148
 30
0.0
 10
192.5525102534768
 20
119.5848897461653
 30
0.0
 10
192.4917340954861
 20
119.5581355086572
 30
0.0
 10
192.4282580006581
 20
119.5581355086572
 30
0.0
  0
LINE
  5
F7
330
1F
100
AcDbEntity
  8
0
  6
HIDDEN
 62
     7
370
     0
100
AcDbLine
 10
192.4282576986
 20
119.5581356746
 30
0.0
 11
189.4837714829
 21
119.5581356746
 31
0.0
  0
SPLINE
  5
F8
330
1F
100
AcDbEntity
  8
0
  6
HIDDEN
 62
     7
370
     0
100
AcDbSpline
210
0.0
220
0.0
230
1.0
 70
     8
 71
     3
 72
    12
 73
     8
 74
     0
 42
0.00000001
 43
0.00000001
 12
1.0
 22
0.0
 32
0.0
 13
1.0
 23
0.0
 33
0.0
 40
0.0
 40
0.0
 40
0.0
 40
0.0
 40
0.2500000000000009
 40
0.2500000000000009
 40
0.5000000000000019
 40
0.5000000000000019
 40
1.0
 40
1.0
 40
1.0
 40
1.0
 10
189.483771627791
 20
119.5581355086572
 30
0.0
 10
189.4201063912605
 20
119.5581355086572
 30
0.0
 10
189.3605001590372
 20
119.5842076571369
 30
0.0
 10
189.2618396341063
 20
119.659746407958
 30
0.0
 10
189.2228726440911
 20
119.7069973450542
 30
0.0
 10
189.1234858121666
 20
119.8588211630207
 30
0.0
 10
189.0814095647432
 20
119.9716244127857
 30
0.0
 10
189.0507589258988
 20
120.0857785375208
 30
0.0
  0
ELLIPSE
  5
F9
330
1F
100
AcDbEntity
  8
0
  6
HIDDEN
 62
     7
370
     0
100
AcDbEllipse
 10
202.0122724692
 20
111.9893255395
 30
0.0
 11
-11.70927234972714
 21
24.67718644093743
 31
0.0
210
0.0
220
0.0
230
1.0
 40
0.3419987131
 41
0.1689292745891156
 42
1.080116497809134
  0
LINE
  5
FA
330
1F
100
AcDbEntity
  8
0
  6
HIDDEN
 62
     7
370
     0
100
AcDbLine
 10
180.9560148142
 20
136.6893264216
 30
0.0
 11
180.9560148142
 21
87.2893246573
 31
0.0
  0
LINE
  5
FB
330
1F
100
AcDbEntity
  8
0
  6
HIDDEN
 62
     7
370
     0
100
AcDbLine
 10
180.9560148142
 20
92.4393261534
 30
0.0
 11
180.9560148142
 21
131.5238686961
 31
0.0
  0
SPLINE
  5
FC
330
1F
100
AcDbEntity
  8
0
  6
HIDDEN
 62
     7
370
     0
100
AcDbSpline
210
0.0
220
0.0
230
1.0
 70
     8
 71
     3
 72
    14
 73
    10
 74
     0
 42
0.00000001
 43
0.00000001
 12
1.0
 22
0.0
 32
0.0
 13
1.0
 23
0.0
 33
0.0
 40
0.0
 40
0.0
 40
0.0
 40
0.0
 40
0.25
 40
0.25
 40
0.5
 40
0.5
 40
0.75
 40
0.75
 40
1.0
 40
1.0
 40
1.0
 40
1.0
 10
179.9151537860962
 20
124.2838010845497
 30
0.0
 10
179.9468689204269
 20
124.2260179022066
 30
0.0
 10
179.9814834457273
 20
124.1696052411316
 30
0.0
 10
180.0611546411426
 20
124.0620057911162
 30
0.0
 10
180.106210518173
 20
124.0100931641951
 30
0.0
 10
180.2167649306784
 20
123.9238945394979
 30
0.0
 10
180.2841503448826
 20
123.8898051195262
 30
0.0
 10
180.4347798647806
 20
123.8877027275093
 30
0.0
 10
180.504607101546
 20
123.9210745003541
 30
0.0
 10
180.5610379253495
 20
123.9648871689048
 30
0.0
  0
SPLINE
  5
FD
330
1F
100
AcDbEntity
  8
0
  6
HIDDEN
 62
     7
370
     0
100
AcDbSpline
210
0.0
220
0.0
230
1.0
 70
     8
 71
     3
 72
    16
 73
    12
 74
     0
 42
0.00000001
 43
0.00000001
 12
1.0
 22
0.0
 32
0.0
 13
1.0
 23
0.0
 33
0.0
 40
0.0
 40
0.0
 40
0.0
 40
0.0
 40
0.0624999999999992
 40
0.0624999999999992
 40
0.1249999999999984
 40
0.1249999999999984
 40
0.2499999999999987
 40
0.2499999999999987
 40
0.4999999999999991
 40
0.4999999999999991
 40
1.0
 40
1.0
 40
1.0
 40
1.0
 10
180.5610379253177
 20
123.9648871689354
 30
0.0
 10
180.5727721597646
 20
123.9739975821833
 30
0.0
 10
180.5863039152435
 20
123.9820749381297
 30
0.0
 10
180.6162913756734
 20
123.9903217798066
 30
0.0
 10
180.6312860820817
 20
123.9893944622191
 30
0.0
 10
180.6670265044764
 20
123.9766279426873
 30
0.0
 10
180.6810398414777
 20
123.958979296177
 30
0.0
 10
180.715183930259
 20
123.9043263761454
 30
0.0
 10
180.7261558343774
 20
123.862926708487
 30
0.0
 10
180.7520013746437
 20
123.7344369647642
 30
0.0
 10
180.7560148142246
 20
123.6438188771254
 30
0.0
 10
180.7560148142246
 20
123.5515997725714
 30
0.0
  0
LINE
  5
FE
330
1F
100
AcDbEntity
  8
0
  6
HIDDEN
 62
     7
370
     0
100
AcDbLine
 10
180.7560148193
 20
100.4270517019
 30
0.0
 11
180.7560148193
 21
123.5515993771
 31
0.0
  0
SPLINE
  5
FF
330
1F
100
AcDbEntity
  8
0
  6
HIDDEN
 62
     7
370
     0
100
AcDbSpline
210
0.0
220
0.0
230
1.0
 70
     8
 71
     3
 72
    16
 73
    12
 74
     0
 42
0.00000001
 43
0.00000001
 12
1.0
 22
0.0
 32
0.0
 13
1.0
 23
0.0
 33
0.0
 40
0.0
 40
0.0
 40
0.0
 40
0.0
 40
0.5000000000000042
 40
0.5000000000000042
 40
0.7500000000000063
 40
0.7500000000000063
 40
0.8750000000000052
 40
0.8750000000000052
 40
0.9375000000000027
 40
0.9375000000000027
 40
1.0
 40
1.0
 40
1.0
 40
1.0
 10
180.7560148142246
 20
100.4270513063812
 30
0.0
 10
180.7560148142246
 20
100.3344674554773
 30
0.0
 10
180.7519575121095
 20
100.244254999617
 30
0.0
 10
180.7263002693147
 20
100.1163138724986
 30
0.0
 10
180.7149848235726
 20
100.0739006580867
 30
0.0
 10
180.6809534562639
 20
100.0195866146356
 30
0.0
 10
180.6670744750601
 20
100.0020052792457
 30
0.0
 10
180.6311387932928
 20
99.98922159131074
 30
0.0
 10
180.61618847403
 20
99.98834609316263
 30
0.0
 10
180.5862899612882
 20
99.99659152828202
 30
0.0
 10
180.5727571009229
 20
100.0046651884538
 30
0.0
 10
180.5610379253489
 20
100.0137639100479
 30
0.0
  0
SPLINE
  5
100
330
1F
100
AcDbEntity
  8
0
  6
HIDDEN
 62
     7
370
     0
100
AcDbSpline
210
0.0
220
0.0
230
1.0
 70
     8
 71
     3
 72
    14
 73
    10
 74
     0
 42
0.00000001
 43
0.00000001
 12
1.0
 22
0.0
 32
0.0
 13
1.0
 23
0.0
 33
0.0
 40
0.0
 40
0.0
 40
0.0
 40
0.0
 40
0.25
 40
0.25
 40
0.5
 40
0.5
 40
0.75
 40
0.75
 40
1.0
 40
1.0
 40
1.0
 40
1.0
 10
180.5610379253557
 20
100.0137639100564
 30
0.0
 10
180.504582160747
 20
100.0575959425512
 30
0.0
 10
180.4337165344971
 20
100.090926978973
 30
0.0
 10
180.2852594533245
 20
100.0888679688256
 30
0.0
 10
180.216066094017
 20
100.0542719444239
 30
0.0
 10
180.1063506558827
 20
99.96860658776104
 30
0.0
 10
180.0611060765514
 20
99.91658414305304
 30
0.0
 10
179.9814793671276
 20
99.80903588272311
 30
0.0
 10
179.9468692185941
 20
99.75263371999009
 30
0.0
 10
179.9151537860949
 20
99.69484999440058
 30
0.0
  0
SPLINE
  5
101
330
1F
100
AcDbEntity
  8
0
  6
HIDDEN
 62
     7
370
     0
100
AcDbSpline
210
0.0
220
0.0
230
1.0
 70
     8
 71
     3
 72
    10
 73
     6
 74
     0
 42
0.00000001
 43
0.00000001
 12
1.0
 22
0.0
 32
0.0
 13
1.0
 23
0.0
 33
0.0
 40
0.0
 40
0.0
 40
0.0
 40
0.0
 40
0.5
 40
0.5
 40
1.0
 40
1.0
 40
1.0
 40
1.0
 10
179.9151537860955
 20
99.6948499944016
 30
0.0
 10
179.843373998172
 20
99.56407127749972
 30
0.0
 10
179.790914483864
 20
99.42997112799654
 30
0.0
 10
179.7015714197628
 20
99.1618785650078
 30
0.0
 10
179.6655758102631
 20
99.02763319341892
 30
0.0
 10
179.6346944706649
 20
98.89427881594389
 30
0.0
  0
SPLINE
  5
102
330
1F
100
AcDbEntity
  8
0
  6
HIDDEN
 62
     7
370
     0
100
AcDbSpline
210
0.0
220
0.0
230
1.0
 70
     8
 71
     3
 72
    10
 73
     6
 74
     0
 42
0.00000001
 43
0.00000001
 12
1.0
 22
0.0
 32
0.0
 13
1.0
 23
0.0
 33
0.0
 40
0.0
 40
0.0
 40
0.0
 40
0.0
 40
0.5
 40
0.5
 40
1.0
 40
1.0
 40
1.0
 40
1.0
 10
179.6346944706649
 20
94.69241567147147
 30
0.0
 10
179.6655675024772
 20
94.67613252410433
 30
0.0
 10
179.7015543653901
 20
94.66387493437875
 30
0.0
 10
179.7908889512813
 20
94.64677194555003
 30
0.0
 10
179.8433448107039
 20
94.64197234969168
 30
0.0
 10
179.9151537860962
 20
94.64016825828375
 30
0.0
  0
SPLINE
  5
103
330
1F
100
AcDbEntity
  8
0
  6
HIDDEN
 62
     7
370
     0
100
AcDbSpline
210
0.0
220
0.0
230
1.0
 70
     8
 71
     3
 72
     8
 73
     4
 74
     0
 42
0.00000001
 43
0.00000001
 12
1.0
 22
0.0
 32
0.0
 13
1.0
 23
0.0
 33
0.0
 40
0.0
 40
0.0
 40
0.0
 40
0.0
 40
1.0
 40
1.0
 40
1.0
 40
1.0
 10
180.7383181908496
 20
94.51428388003666
 30
0.0
 10
180.7523049993917
 20
94.48604348945497
 30
0.0
 10
180.7560148142244
 20
94.4629114466442
 30
0.0
 10
180.7560148142246
 20
94.44257107380905
 30
0.0
  0
LINE
  5
104
330
1F
100
AcDbEntity
  8
0
  6
HIDDEN
 62
     7
370
     0
100
AcDbLine
 10
180.7560148193
 20
94.1495044839
 30
0.0
 11
180.7560148193
 21
94.4425712091
 31
0.0
  0
LINE
  5
105
330
1F
100
AcDbEntity
  8
0
  6
HIDDEN
 62
     7
370
     0
100
AcDbLine
 10
180.7560148193
 20
129.5360798699
 30
0.0
 11
180.7560148193
 21
129.829146595
 31
0.0
  0
SPLINE
  5
106
330
1F
100
AcDbEntity
  8
0
  6
HIDDEN
 62
     7
370
     0
100
AcDbSpline
210
0.0
220
0.0
230
1.0
 70
     8
 71
     3
 72
    10
 73
     6
 74
     0
 42
0.00000001
 43
0.00000001
 12
1.0
 22
0.0
 32
0.0
 13
1.0
 23
0.0
 33
0.0
 40
0.0
 40
0.0
 40
0.0
 40
0.0
 40
0.5
 40
0.5
 40
1.0
 40
1.0
 40
1.0
 40
1.0
 10
179.915153786097
 20
129.3384828206688
 30
0.0
 10
179.8433448107044
 20
129.3366787292609
 30
0.0
 10
179.7908889512817
 20
129.3318791334026
 30
0.0
 10
179.7015543653903
 20
129.3147761445739
 30
0.0
 10
179.6655675024772
 20
129.3025185548483
 30
0.0
 10
179.634694470665
 20
129.2862354074811
 30
0.0
  0
SPLINE
  5
107
330
1F
100
AcDbEntity
  8
0
  6
HIDDEN
 62
     7
370
     0
100
AcDbSpline
210
0.0
220
0.0
230
1.0
 70
     8
 71
     3
 72
    10
 73
     6
 74
     0
 42
0.00000001
 43
0.00000001
 12
1.0
 22
0.0
 32
0.0
 13
1.0
 23
0.0
 33
0.0
 40
0.0
 40
0.0
 40
0.0
 40
0.0
 40
0.5
 40
0.5
 40
1.0
 40
1.0
 40
1.0
 40
1.0
 10
179.634694470665
 20
125.0843722630087
 30
0.0
 10
179.6655758102631
 20
124.9510178855334
 30
0.0
 10
179.7015714197629
 20
124.8167725139444
 30
0.0
 10
179.7909144838643
 20
124.5486799509552
 30
0.0
 10
179.8433739981725
 20
124.4145798014518
 30
0.0
 10
179.9151537860962
 20
124.2838010845497
 30
0.0
  0
LWPOLYLINE
  5
108
330
1F
100
AcDbEntity
  8
0
  6
HIDDEN
 62
     7
370
     0
100
AcDbPolyline
 90
       29
 70
   128
 43
0.0
 10
198.9560140394
 20
121.3300690737
 10
199.5123172276
 20
121.3826366451
 10
200.0407235794
 20
121.5377046478
 10
200.5147388302
 20
121.7874974695
 10
200.9105937652
 20
122.1194888216
 10
201.2084363125
 20
122.5170313132
 10
201.3933355086
 20
122.9601909158
 10
201.4560153805
 20
123.4267453414
 10
201.3933355086
 20
123.8932997671
 10
201.2084363125
 20
124.3364593697
 10
200.9105937652
 20
124.7340018612
 10
200.5147388302
 20
125.0659932134
 10
200.0407235794
 20
125.3157851037
 10
199.5123172276
 20
125.4708540377
 10
198.9560140394
 20
125.5234216091
 10
198.3997127138
 20
125.4708540377
 10
197.871306362
 20
125.3157851037
 10
197.3972911112
 20
125.0659932134
 10
197.0014361761
 20
124.7340018612
 10
196.7035917662
 20
124.3364593697
 10
196.5186953641
 20
123.8932997671
 10
196.4560145609
 20
123.4267453414
 10
196.5186953641
 20
122.9601909158
 10
196.7035917662
 20
122.5170313132
 10
197.0014361761
 20
122.1194888216
 10
197.3972911112
 20
121.7874974695
 10
197.871306362
 20
121.5377046478
 10
198.3997127138
 20
121.3826366451
 10
198.9560140394
 20
121.3300690737
  0
SPLINE
  5
109
330
1F
100
AcDbEntity
  8
0
  6
HIDDEN
 62
     7
370
     0
100
AcDbSpline
210
0.0
220
0.0
230
1.0
 70
     8
 71
     3
 72
    12
 73
     8
 74
     0
 42
0.00000001
 43
0.00000001
 12
1.0
 22
0.0
 32
0.0
 13
1.0
 23
0.0
 33
0.0
 40
0.0
 40
0.0
 40
0.0
 40
0.0
 40
0.4999999999999998
 40
0.4999999999999998
 40
0.7499999999999999
 40
0.7499999999999999
 40
1.0
 40
1.0
 40
1.0
 40
1.0
 10
200.2673458893233
 20
119.5277947746378
 30
0.0
 10
200.1608780438004
 20
119.6598836358927
 30
0.0
 10
200.0753632479899
 20
119.815767795932
 30
0.0
 10
200.0284249546463
 20
120.0940205356182
 30
0.0
 10
200.0265571075515
 20
120.1942885340148
 30
0.0
 10
200.0470897356705
 20
120.4004471314505
 30
0.0
 10
200.068967821622
 20
120.5072300458192
 30
0.0
 10
200.0981461650429
 20
120.6170836055448
 30
0.0
  0
SPLINE
  5
10A
330
1F
100
AcDbEntity
  8
0
  6
HIDDEN
 62
     7
370
     0
100
AcDbSpline
210
0.0
220
0.0
230
1.0
 70
     8
 71
     3
 72
    70
 73
    66
 74
     0
 42
0.00000001
 43
0.00000001
 12
1.0
 22
0.0
 32
0.0
 13
1.0
 23
0.0
 33
0.0
 40
0.0
 40
0.0
 40
0.0
 40
0.0
 40
0.0156249999999998
 40
0.0156249999999998
 40
0.0312499999999996
 40
0.0312499999999996
 40
0.0624999999999994
 40
0.0624999999999994
 40
0.0937499999999993
 40
0.0937499999999993
 40
0.1249999999999991
 40
0.1249999999999991
 40
0.1874999999999986
 40
0.1874999999999986
 40
0.2187499999999983
 40
0.2187499999999983
 40
0.2499999999999981
 40
0.2499999999999981
 40
0.2812499999999978
 40
0.2812499999999978
 40
0.3124999999999976
 40
0.3124999999999976
 40
0.3437499999999973
 40
0.3437499999999973
 40
0.374999999999997
 40
0.374999999999997
 40
0.406249999999997
 40
0.406249999999997
 40
0.4374999999999969
 40
0.4374999999999969
 40
0.4687499999999969
 40
0.4687499999999969
 40
0.4999999999999969
 40
0.4999999999999969
 40
0.515624999999997
 40
0.515624999999997
 40
0.5312499999999971
 40
0.5312499999999971
 40
0.5624999999999974
 40
0.5624999999999974
 40
0.5937499999999979
 40
0.5937499999999979
 40
0.6249999999999982
 40
0.6249999999999982
 40
0.6874999999999987
 40
0.6874999999999987
 40
0.7187499999999988
 40
0.7187499999999988
 40
0.7499999999999989
 40
0.7499999999999989
 40
0.7812499999999991
 40
0.7812499999999991
 40
0.8124999999999992
 40
0.8124999999999992
 40
0.8437499999999993
 40
0.8437499999999993
 40
0.8749999999999994
 40
0.8749999999999994
 40
0.9062499999999996
 40
0.9062499999999996
 40
0.9374999999999998
 40
0.9374999999999998
 40
0.9687499999999999
 40
0.9687499999999999
 40
1.0
 40
1.0
 40
1.0
 40
1.0
 10
200.0981461650434
 20
120.6170836055446
 30
0.0
 10
200.1768119305263
 20
120.6423634723228
 30
0.0
 10
200.2532524322544
 20
120.6758844112789
 30
0.0
 10
200.4017009578855
 20
120.7611847079029
 30
0.0
 10
200.4738946115858
 20
120.8134617886595
 30
0.0
 10
200.6733569431734
 20
120.9873331585492
 30
0.0
 10
200.7880008794246
 20
121.1280217667829
 30
0.0
 10
200.9835805632274
 20
121.422501449707
 30
0.0
 10
201.0673068531989
 20
121.5801335830932
 30
0.0
 10
201.2101774490323
 20
121.9033904071662
 30
0.0
 10
201.2692559313008
 20
122.0688143703074
 30
0.0
 10
201.4127966183098
 20
122.5759592540459
 30
0.0
 10
201.4645448996673
 20
122.9346436189909
 30
0.0
 10
201.4500317069231
 20
123.4605654683047
 30
0.0
 10
201.429281435526
 20
123.6368201008327
 30
0.0
 10
201.3523087964345
 20
123.9692454459088
 30
0.0
 10
201.2950369161694
 20
124.1293678178289
 30
0.0
 10
201.1451444878022
 20
124.4147761666828
 30
0.0
 10
201.0535699428788
 20
124.5395363040579
 30
0.0
 10
200.838737634057
 20
124.7487663424524
 30
0.0
 10
200.7207964108779
 20
124.8283845506947
 30
0.0
 10
200.4675692610928
 20
124.9440346935267
 30
0.0
 10
200.3369160955118
 20
124.9778637900162
 30
0.0
 10
200.0730146404667
 20
125.0071915948145
 30
0.0
 10
199.9385135873057
 20
125.0023222641494
 30
0.0
 10
199.6784721793057
 20
124.9616724195871
 30
0.0
 10
199.5514817887118
 20
124.9261496349028
 30
0.0
 10
199.3050871101902
 20
124.8297743895512
 30
0.0
 10
199.1854217968119
 20
124.7685269257472
 30
0.0
 10
198.9643149512944
 20
124.627312197416
 30
0.0
 10
198.8616466717914
 20
124.5470454620131
 30
0.0
 10
198.683483729827
 20
124.3694713776191
 30
0.0
 10
198.6072133171579
 20
124.2710061002624
 30
0.0
 10
198.5440719781829
 20
124.1212817472644
 30
0.0
 10
198.5317923661922
 20
124.0704269238717
 30
0.0
 10
198.5300978657616
 20
123.9734065553423
 30
0.0
 10
198.5405902087412
 20
123.9262594319025
 30
0.0
 10
198.6031315273689
 20
123.7924537825167
 30
0.0
 10
198.6836349457805
 20
123.7145479151484
 30
0.0
 10
198.8773855358173
 20
123.5635998335626
 30
0.0
 10
198.9898291863833
 20
123.4908869597591
 30
0.0
 10
199.2318003760392
 20
123.3368594994903
 30
0.0
 10
199.3616539621955
 20
123.2558389475377
 30
0.0
 10
199.7590042077844
 20
122.9970405831189
 30
0.0
 10
200.0431266509907
 20
122.7975023288107
 30
0.0
 10
200.4473543081125
 20
122.4562575893548
 30
0.0
 10
200.5806698439431
 20
122.3335352221199
 30
0.0
 10
200.8238079147981
 20
122.0836656061282
 30
0.0
 10
200.9360893628567
 20
121.9544424020302
 30
0.0
 10
201.1343687824217
 20
121.6901145384106
 30
0.0
 10
201.2162378115879
 20
121.5607173681204
 30
0.0
 10
201.3463146025313
 20
121.3060581167407
 30
0.0
 10
201.392958716344
 20
121.1831240537996
 30
0.0
 10
201.4497392360297
 20
120.952583908941
 30
0.0
 10
201.4601621661266
 20
120.8435395238277
 30
0.0
 10
201.4488757212322
 20
120.6440497531027
 30
0.0
 10
201.4276166417193
 20
120.5521395646342
 30
0.0
 10
201.3556769852371
 20
120.3794475274419
 30
0.0
 10
201.3059809399343
 20
120.3009653692472
 30
0.0
 10
201.1798397471436
 20
120.152641924163
 30
0.0
 10
201.1027955958688
 20
120.0825373191419
 30
0.0
 10
200.9192849800017
 20
119.9428988234888
 30
0.0
 10
200.8113631930125
 20
119.8724949988702
 30
0.0
 10
200.561903956602
 20
119.7151526138797
 30
0.0
 10
200.4174817384774
 20
119.6249095134902
 30
0.0
 10
200.2673458893234
 20
119.5277947746373
 30
0.0
  0
SPLINE
  5
10B
330
1F
100
AcDbEntity
  8
0
  6
HIDDEN
 62
     7
370
     0
100
AcDbSpline
210
0.0
220
0.0
230
1.0
 70
     8
 71
     3
 72
    66
 73
    62
 74
     0
 42
0.00000001
 43
0.00000001
 12
1.0
 22
0.0
 32
0.0
 13
1.0
 23
0.0
 33
0.0
 40
-0.0312499999999998
 40
-0.0312499999999998
 40
0.0
 40
0.0
 40
0.0312500000000002
 40
0.0312500000000002
 40
0.0625000000000005
 40
0.0625000000000005
 40
0.0937500000000007
 40
0.0937500000000007
 40
0.1250000000000009
 40
0.1250000000000009
 40
0.1875000000000014
 40
0.1875000000000014
 40
0.2187500000000014
 40
0.2187500000000014
 40
0.2500000000000014
 40
0.2500000000000014
 40
0.2812500000000014
 40
0.2812500000000014
 40
0.3125000000000013
 40
0.3125000000000013
 40
0.3437500000000013
 40
0.3437500000000013
 40
0.3750000000000013
 40
0.3750000000000013
 40
0.4062500000000012
 40
0.4062500000000012
 40
0.4375000000000012
 40
0.4375000000000012
 40
0.4687500000000012
 40
0.4687500000000012
 40
0.5000000000000011
 40
0.5000000000000011
 40
0.5312500000000011
 40
0.5312500000000011
 40
0.5625000000000011
 40
0.5625000000000011
 40
0.5937500000000011
 40
0.5937500000000011
 40
0.6250000000000011
 40
0.6250000000000011
 40
0.6875000000000011
 40
0.6875000000000011
 40
0.718750000000001
 40
0.718750000000001
 40
0.7500000000000009
 40
0.7500000000000009
 40
0.7812500000000008
 40
0.7812500000000008
 40
0.8125000000000007
 40
0.8125000000000007
 40
0.8437500000000006
 40
0.8437500000000006
 40
0.8750000000000004
 40
0.8750000000000004
 40
0.9062500000000004
 40
0.9062500000000004
 40
0.9375000000000003
 40
0.9375000000000003
 40
0.9687500000000002
 40
0.9687500000000002
 40
1.0
 40
1.0
 40
1.03125
 40
1.03125
 10
198.7894619064678
 20
113.5990968271591
 30
0.0
 10
199.1225677219813
 20
113.5990968271591
 30
0.0
 10
199.2860586755712
 20
113.6162444152372
 30
0.0
 10
199.6072608209402
 20
113.6827414681261
 30
0.0
 10
199.7666731784964
 20
113.732961937388
 30
0.0
 10
200.0687119056368
 20
113.8615436336374
 30
0.0
 10
200.2117599429985
 20
113.9395272153314
 30
0.0
 10
200.4824931649494
 20
114.1211176707867
 30
0.0
 10
200.6095626799159
 20
114.2247607138856
 30
0.0
 10
200.9525706908887
 20
114.5594412379386
 30
0.0
 10
201.1384029522926
 20
114.8226083103876
 30
0.0
 10
201.3262083154513
 20
115.2333601648684
 30
0.0
 10
201.3749483922297
 20
115.3755610700511
 30
0.0
 10
201.4397124443444
 20
115.6587021267974
 30
0.0
 10
201.4559045548785
 20
115.7985577829785
 30
0.0
 10
201.4561239620453
 20
116.0745630054659
 30
0.0
 10
201.4395758680119
 20
116.2115420549509
 30
0.0
 10
201.3751467143082
 20
116.4695232194238
 30
0.0
 10
201.3274882451234
 20
116.592106603479
 30
0.0
 10
201.2007922773247
 20
116.8252820376292
 30
0.0
 10
201.1232186915257
 20
116.9329366422123
 30
0.0
 10
200.9426120653455
 20
117.1302893828204
 30
0.0
 10
200.8380590162299
 20
117.2212353050279
 30
0.0
 10
200.6080503758857
 20
117.3824947524424
 30
0.0
 10
200.4831703175108
 20
117.4528683941011
 30
0.0
 10
200.213270745881
 20
117.5751706595091
 30
0.0
 10
200.067174379398
 20
117.6271352673258
 30
0.0
 10
199.7664617555894
 20
117.7092278144048
 30
0.0
 10
199.6105140672319
 20
117.7401190032733
 30
0.0
 10
199.2867342034835
 20
117.7819637205864
 30
0.0
 10
199.1210358597335
 20
117.7924076796015
 30
0.0
 10
198.7929919797262
 20
117.7924913991908
 30
0.0
 10
198.6276664283894
 20
117.7821755245019
 30
0.0
 10
198.3033379723791
 20
117.7404479329138
 30
0.0
 10
198.1469851715174
 20
117.7095664426525
 30
0.0
 10
197.8452689932882
 20
117.6272962094424
 30
0.0
 10
197.6991784635736
 20
117.5753254716419
 30
0.0
 10
197.4294646861685
 20
117.4531778965687
 30
0.0
 10
197.3042833525254
 20
117.3827310350665
 30
0.0
 10
196.9576728120978
 20
117.1396524965831
 30
0.0
 10
196.7745299772095
 20
116.9416227763917
 30
0.0
 10
196.5848634170702
 20
116.5927716641793
 30
0.0
 10
196.5372256696417
 20
116.4704697808902
 30
0.0
 10
196.4727074347095
 20
116.2129797368782
 30
0.0
 10
196.4560103289677
 20
116.0760699739697
 30
0.0
 10
196.4560193013352
 20
115.7997329235836
 30
0.0
 10
196.4721501372817
 20
115.6597489504999
 30
0.0
 10
196.5368098139504
 20
115.3764333199692
 30
0.0
 10
196.5854801685896
 20
115.2341918239768
 30
0.0
 10
196.7109095409084
 20
114.9596926469468
 30
0.0
 10
196.7886531933985
 20
114.8249507001828
 30
0.0
 10
196.9709526804114
 20
114.5680375715146
 30
0.0
 10
197.0739158337057
 20
114.4477180771934
 30
0.0
 10
197.3031168059981
 20
114.224171813814
 30
0.0
 10
197.4307477841062
 20
114.1202370528214
 30
0.0
 10
197.7005934455428
 20
113.9393785885552
 30
0.0
 10
197.8434481889298
 20
113.8614644939328
 30
0.0
 10
198.1458457161759
 20
113.732777297631
 30
0.0
 10
198.3050609471207
 20
113.6826715693227
 30
0.0
 10
198.6259486784388
 20
113.6162584529773
 30
0.0
 10
198.7894619064678
 20
113.5990968271591
 30
0.0
 10
199.1225677219813
 20
113.5990968271591
 30
0.0
  0
ARC
  5
10C
330
1F
100
AcDbEntity
  8
0
  6
HIDDEN
 62
     7
370
     0
100
AcDbCircle
 10
199.0219220979
 20
119.8921287526
 30
0.0
 40
1.29762095792786
100
AcDbArc
 50
343.6937817422
 51
33.9645744694
  0
LINE
  5
10D
330
1F
100
AcDbEntity
  8
0
  6
HIDDEN
 62
     7
370
     0
100
AcDbLine
 10
180.7560148193
 20
94.4425712091
 30
0.0
 11
180.7560148193
 21
106.0048455124
 31
0.0
  0
LINE
  5
10E
330
1F
100
AcDbEntity
  8
0
  6
HIDDEN
 62
     7
370
     0
100
AcDbLine
 10
180.7560148193
 20
117.9738055666
 30
0.0
 11
180.7560148193
 21
129.5360798699
 31
0.0
  0
CIRCLE
  5
10F
330
1F
100
AcDbEntity
  8
0
  6
HIDDEN
 62
     7
370
     0
100
AcDbCircle
 10
166.9560148142
 20
111.9893255395
 30
0.0
 40
3.050000000000011
  0
LINE
  5
110
330
1F
100
AcDbEntity
  8
0
  6
HIDDEN
 62
     7
370
     0
100
AcDbLine
 10
155.9840547018
 20
122.7780009371
 30
0.0
 11
155.9840547018
 21
101.2006501418
 31
0.0
  0
LINE
  5
111
330
1F
100
AcDbEntity
  8
0
  6
HIDDEN
 62
     7
370
     0
100
AcDbLine
 10
151.9840540461
 20
123.1591987175
 30
0.0
 11
151.9840540461
 21
100.8194523615
 31
0.0
  0
LINE
  5
112
330
1F
100
AcDbEntity
  8
0
  6
HIDDEN
 62
     7
370
     0
100
AcDbLine
 10
150.9560154848
 20
100.2259130341
 30
0.0
 11
150.9560154848
 21
123.7371402544
 31
0.0
  0
LINE
  5
113
330
1F
100
AcDbEntity
  8
0
  6
HIDDEN
 62
     7
370
     0
100
AcDbLine
 10
160.5840543382
 20
122.4893253979
 30
0.0
 11
160.5840543382
 21
101.489325681
 31
0.0
  0
LINE
  5
114
330
1F
100
AcDbEntity
  8
0
  6
HIDDEN
 62
     7
370
     0
100
AcDbLine
 10
154.4840553872
 20
122.4893253979
 30
0.0
 11
154.4840553872
 21
101.489325681
 31
0.0
  0
LINE
  5
115
330
1F
100
AcDbEntity
  8
0
  6
HIDDEN
 62
     7
370
     0
100
AcDbLine
 10
155.4840555511
 20
122.4893253979
 30
0.0
 11
155.4840555511
 21
101.489325681
 31
0.0
  0
SPLINE
  5
116
330
1F
100
AcDbEntity
  8
0
  6
HIDDEN
 62
     7
370
     0
100
AcDbSpline
210
0.0
220
0.0
230
1.0
 70
     8
 71
     3
 72
    66
 73
    62
 74
     0
 42
0.00000001
 43
0.00000001
 12
1.0
 22
0.0
 32
0.0
 13
1.0
 23
0.0
 33
0.0
 40
-0.0312499999999997
 40
-0.0312499999999997
 40
0.0
 40
0.0
 40
0.03125
 40
0.03125
 40
0.0625000000000001
 40
0.0625000000000001
 40
0.0937500000000001
 40
0.0937500000000001
 40
0.1250000000000001
 40
0.1250000000000001
 40
0.1875000000000001
 40
0.1875000000000001
 40
0.2187500000000001
 40
0.2187500000000001
 40
0.2500000000000001
 40
0.2500000000000001
 40
0.2812500000000001
 40
0.2812500000000001
 40
0.3125000000000002
 40
0.3125000000000002
 40
0.3437500000000002
 40
0.3437500000000002
 40
0.3750000000000002
 40
0.3750000000000002
 40
0.4062500000000002
 40
0.4062500000000002
 40
0.4375000000000003
 40
0.4375000000000003
 40
0.4687500000000003
 40
0.4687500000000003
 40
0.5000000000000003
 40
0.5000000000000003
 40
0.5312500000000003
 40
0.5312500000000003
 40
0.5625000000000003
 40
0.5625000000000003
 40
0.5937500000000004
 40
0.5937500000000004
 40
0.6250000000000004
 40
0.6250000000000004
 40
0.6562500000000004
 40
0.6562500000000004
 40
0.6875000000000004
 40
0.6875000000000004
 40
0.7187500000000006
 40
0.7187500000000006
 40
0.7500000000000006
 40
0.7500000000000006
 40
0.7812500000000006
 40
0.7812500000000006
 40
0.8125000000000006
 40
0.8125000000000006
 40
0.8750000000000007
 40
0.8750000000000007
 40
0.9062500000000007
 40
0.9062500000000007
 40
0.9375000000000004
 40
0.9375000000000004
 40
0.9687500000000003
 40
0.9687500000000003
 40
1.0
 40
1.0
 40
1.03125
 40
1.03125
 10
166.7533361672768
 20
115.0393255394763
 30
0.0
 10
167.1586934611724
 20
115.0393255394763
 30
0.0
 10
167.3577533525082
 20
115.0193259798597
 30
0.0
 10
167.749007337088
 20
114.9411824771596
 30
0.0
 10
167.9432800958356
 20
114.8820213756388
 30
0.0
 10
168.3120435223869
 20
114.7285896887445
 30
0.0
 10
168.4867686807652
 20
114.6348628789022
 30
0.0
 10
168.817445984299
 20
114.4136087764974
 30
0.0
 10
168.9730935283018
 20
114.2856274095028
 30
0.0
 10
169.3925608979704
 20
113.8660723125028
 30
0.0
 10
169.6194490395008
 20
113.5275937537994
 30
0.0
 10
169.8482456628855
 20
112.9777148660812
 30
0.0
 10
169.9074379177343
 20
112.7843150203378
 30
0.0
 10
169.9862453279949
 20
112.3900868699799
 30
0.0
 10
170.0058847442753
 20
112.1914480425475
 30
0.0
 10
170.0061436086969
 20
111.7911477566491
 30
0.0
 10
169.9860729240639
 20
111.587808429928
 30
0.0
 10
169.907735241434
 20
111.1957169093204
 30
0.0
 10
169.8497854733955
 20
111.0050110410052
 30
0.0
 10
169.6958423315156
 20
110.6342872244186
 30
0.0
 10
169.6009037177928
 20
110.4575605646098
 30
0.0
 10
169.3805463019157
 20
110.1283074536854
 30
0.0
 10
169.2532662759874
 20
109.973186230089
 30
0.0
 10
168.9715106846569
 20
109.6915095351586
 30
0.0
 10
168.8187223551994
 20
109.5660763502542
 30
0.0
 10
168.4892952730425
 20
109.3453007569001
 30
0.0
 10
168.3107492698907
 20
109.2494695041999
 30
0.0
 10
167.9431769443406
 20
109.0966403737048
 30
0.0
 10
167.7530229176296
 20
109.0384686157606
 30
0.0
 10
167.3594824949271
 20
108.9594753234157
 30
0.0
 10
167.157048423666
 20
108.9394121977734
 30
0.0
 10
166.7576193483006
 20
108.9392394516547
 30
0.0
 10
166.5576003697447
 20
108.958722825744
 30
0.0
 10
166.1614844222953
 20
109.0377143973452
 30
0.0
 10
165.9707515941034
 20
109.0959946171971
 30
0.0
 10
165.6031201535237
 20
109.2485622378052
 30
0.0
 10
165.424633721356
 20
109.3441710245784
 30
0.0
 10
165.0944284623919
 20
109.5651830696634
 30
0.0
 10
164.94153988433
 20
109.6906329684336
 30
0.0
 10
164.6599434897919
 20
109.9718634574389
 30
0.0
 10
164.5323125669164
 20
110.1272463353529
 30
0.0
 10
164.3119871319166
 20
110.4560971933958
 30
0.0
 10
164.2177606749512
 20
110.6309852998098
 30
0.0
 10
164.0628261543481
 20
111.0031291511706
 30
0.0
 10
164.0048138687459
 20
111.1939351929795
 30
0.0
 10
163.9263946144677
 20
111.5848082108983
 30
0.0
 10
163.9060805345012
 20
111.7872657722806
 30
0.0
 10
163.9059494181972
 20
112.1893963772
 30
0.0
 10
163.9255741115566
 20
112.3881204223751
 30
0.0
 10
164.0037405619702
 20
112.7809598935118
 30
0.0
 10
164.0630280073101
 20
112.9756041709144
 30
0.0
 10
164.292108850393
 20
113.5270439243286
 30
0.0
 10
164.5189397012872
 20
113.8653834900278
 30
0.0
 10
164.9382784026079
 20
114.2850491526793
 30
0.0
 10
165.0936313983578
 20
114.4128951584525
 30
0.0
 10
165.424599231495
 20
114.6344962331543
 30
0.0
 10
165.5991605316914
 20
114.7281369671313
 30
0.0
 10
165.9667338392662
 20
114.8812910878305
 30
0.0
 10
166.1614207009042
 20
114.9407948334766
 30
0.0
 10
166.5538966508407
 20
115.0193175825395
 30
0.0
 10
166.7533361672768
 20
115.0393255394763
 30
0.0
 10
167.1586934611724
 20
115.0393255394763
 30
0.0
  0
SPLINE
  5
117
330
1F
100
AcDbEntity
  8
0
  6
HIDDEN
 62
     7
370
     0
100
AcDbSpline
210
0.0
220
0.0
230
1.0
 70
     8
 71
     3
 72
    66
 73
    62
 74
     0
 42
0.00000001
 43
0.00000001
 12
1.0
 22
0.0
 32
0.0
 13
1.0
 23
0.0
 33
0.0
 40
-0.0312499999999997
 40
-0.0312499999999997
 40
0.0
 40
0.0
 40
0.0312500000000002
 40
0.0312500000000002
 40
0.0625000000000003
 40
0.0625000000000003
 40
0.0937500000000005
 40
0.0937500000000005
 40
0.1250000000000006
 40
0.1250000000000006
 40
0.1875000000000009
 40
0.1875000000000009
 40
0.218750000000001
 40
0.218750000000001
 40
0.2500000000000011
 40
0.2500000000000011
 40
0.2812500000000013
 40
0.2812500000000013
 40
0.3125000000000014
 40
0.3125000000000014
 40
0.3437500000000016
 40
0.3437500000000016
 40
0.3750000000000017
 40
0.3750000000000017
 40
0.4062500000000019
 40
0.4062500000000019
 40
0.4375000000000018
 40
0.4375000000000018
 40
0.4687500000000017
 40
0.4687500000000017
 40
0.5000000000000017
 40
0.5000000000000017
 40
0.5312500000000016
 40
0.5312500000000016
 40
0.5625000000000016
 40
0.5625000000000016
 40
0.5937500000000014
 40
0.5937500000000014
 40
0.6250000000000013
 40
0.6250000000000013
 40
0.6562500000000013
 40
0.6562500000000013
 40
0.6875000000000012
 40
0.6875000000000012
 40
0.7187500000000012
 40
0.7187500000000012
 40
0.7500000000000011
 40
0.7500000000000011
 40
0.781250000000001
 40
0.781250000000001
 40
0.812500000000001
 40
0.812500000000001
 40
0.8750000000000008
 40
0.8750000000000008
 40
0.9062500000000007
 40
0.9062500000000007
 40
0.9375000000000004
 40
0.9375000000000004
 40
0.9687500000000003
 40
0.9687500000000003
 40
1.0
 40
1.0
 40
1.03125
 40
1.03125
 10
167.1586934611723
 20
115.0393255394763
 30
0.0
 10
166.7533361672768
 20
115.0393255394763
 30
0.0
 10
166.5542762759409
 20
115.0193259798597
 30
0.0
 10
166.1630222913612
 20
114.9411824771596
 30
0.0
 10
165.9687495326136
 20
114.8820213756388
 30
0.0
 10
165.5999861060623
 20
114.7285896887445
 30
0.0
 10
165.425260947684
 20
114.6348628789022
 30
0.0
 10
165.0945836441502
 20
114.4136087764974
 30
0.0
 10
164.9389361001473
 20
114.2856274095028
 30
0.0
 10
164.5194687304787
 20
113.8660723125027
 30
0.0
 10
164.2925805889484
 20
113.5275937537994
 30
0.0
 10
164.0637839655637
 20
112.9777148660811
 30
0.0
 10
164.0045917107148
 20
112.7843150203377
 30
0.0
 10
163.9257843004543
 20
112.3900868699798
 30
0.0
 10
163.9061448841739
 20
112.1914480425475
 30
0.0
 10
163.9058860197523
 20
111.7911477566491
 30
0.0
 10
163.9259567043852
 20
111.587808429928
 30
0.0
 10
164.0042943870152
 20
111.1957169093204
 30
0.0
 10
164.0622441550537
 20
111.0050110410052
 30
0.0
 10
164.2161872969336
 20
110.6342872244186
 30
0.0
 10
164.3111259106563
 20
110.4575605646098
 30
0.0
 10
164.5314833265335
 20
110.1283074536854
 30
0.0
 10
164.6587633524618
 20
109.9731862300889
 30
0.0
 10
164.9405189437923
 20
109.6915095351586
 30
0.0
 10
165.0933072732498
 20
109.5660763502542
 30
0.0
 10
165.4227343554068
 20
109.3453007569001
 30
0.0
 10
165.6012803585585
 20
109.2494695041999
 30
0.0
 10
165.9688526841086
 20
109.0966403737048
 30
0.0
 10
166.1590067108196
 20
109.0384686157606
 30
0.0
 10
166.5525471335221
 20
108.9594753234157
 30
0.0
 10
166.7549812047832
 20
108.9394121977734
 30
0.0
 10
167.1544102801486
 20
108.9392394516547
 30
0.0
 10
167.3544292587045
 20
108.958722825744
 30
0.0
 10
167.7505452061539
 20
109.0377143973452
 30
0.0
 10
167.9412780343457
 20
109.0959946171971
 30
0.0
 10
168.3089094749255
 20
109.2485622378052
 30
0.0
 10
168.4873959070933
 20
109.3441710245785
 30
0.0
 10
168.8176011660573
 20
109.5651830696634
 30
0.0
 10
168.9704897441192
 20
109.6906329684336
 30
0.0
 10
169.2520861386573
 20
109.9718634574389
 30
0.0
 10
169.3797170615328
 20
110.1272463353529
 30
0.0
 10
169.6000424965326
 20
110.4560971933958
 30
0.0
 10
169.694268953498
 20
110.6309852998098
 30
0.0
 10
169.8492034741011
 20
111.0031291511706
 30
0.0
 10
169.9072157597033
 20
111.1939351929796
 30
0.0
 10
169.9856350139814
 20
111.5848082108983
 30
0.0
 10
170.005949093948
 20
111.7872657722806
 30
0.0
 10
170.006080210252
 20
112.1893963772
 30
0.0
 10
169.9864555168926
 20
112.3881204223751
 30
0.0
 10
169.9082890664789
 20
112.7809598935118
 30
0.0
 10
169.8490016211391
 20
112.9756041709144
 30
0.0
 10
169.6199207780562
 20
113.5270439243286
 30
0.0
 10
169.393089927162
 20
113.8653834900278
 30
0.0
 10
168.9737512258413
 20
114.2850491526793
 30
0.0
 10
168.8183982300913
 20
114.4128951584525
 30
0.0
 10
168.4874303969542
 20
114.6344962331544
 30
0.0
 10
168.3128690967578
 20
114.7281369671313
 30
0.0
 10
167.9452957891829
 20
114.8812910878305
 30
0.0
 10
167.7506089275449
 20
114.9407948334766
 30
0.0
 10
167.3581329776084
 20
115.0193175825395
 30
0.0
 10
167.1586934611723
 20
115.0393255394763
 30
0.0
 10
166.7533361672768
 20
115.0393255394763
 30
0.0
  0
LINE
  5
118
330
1F
100
AcDbEntity
  8
0
  6
HIDDEN
 62
     7
370
     0
100
AcDbLine
 10
170.9560150377
 20
121.989325316
 30
0.0
 11
170.9560150377
 21
101.989325763
 31
0.0
  0
LINE
  5
119
330
1F
100
AcDbEntity
  8
0
  6
HIDDEN
 62
     7
370
     0
100
AcDbLine
 10
171.9560152017
 20
119.2393253309
 30
0.0
 11
171.9560152017
 21
104.7393257481
 31
0.0
  0
LINE
  5
11A
330
1F
100
AcDbEntity
  8
0
  6
HIDDEN
 62
     7
370
     0
100
AcDbLine
 10
170.9560150377
 20
103.7393255842
 30
0.0
 11
170.9560150377
 21
120.2236783442
 31
0.0
  0
LWPOLYLINE
  5
11B
330
1F
100
AcDbEntity
  8
0
  6
HIDDEN
 62
     7
370
     0
100
AcDbPolyline
 90
       34
 70
   128
 43
0.0
 10
223.5622828923
 20
127.0419058141
 10
223.5199896716
 20
126.3892833826
 10
223.3547022663
 20
125.7602485579
 10
223.0723997675
 20
125.1775367868
 10
222.6832857452
 20
124.6622080666
 10
222.2014194451
 20
124.2328869861
 10
221.6442203246
 20
123.9050921735
 10
221.031827303
 20
123.6906691206
 10
220.3863686047
 20
123.597369225
 10
219.7311794482
 20
123.6285629433
 10
219.0899377786
 20
123.7831243065
 10
218.4858186267
 20
124.0554663104
 10
217.9406596445
 20
124.435746738
 10
217.4741601668
 20
124.9102201995
 10
217.1031808577
 20
125.461737321
 10
216.8411327623
 20
126.0703668681
 10
216.6974855684
 20
126.7141100702
 10
216.6774323307
 20
127.3697006267
 10
216.7816957556
 20
128.0134438288
 10
217.0065058492
 20
128.6220724446
 10
217.3437414788
 20
129.1735904974
 10
217.7812134944
 20
129.6480639589
 10
218.3031080388
 20
130.0283434552
 10
218.8905639671
 20
130.3006863904
 10
219.52235085
 20
130.4552486849
 10
220.1756326579
 20
130.4864424032
 10
220.8267947756
 20
130.3931425077
 10
221.4523082696
 20
130.1787185234
 10
222.0295606278
 20
129.8509246421
 10
222.5376939498
 20
129.4216035616
 10
222.9583351038
 20
128.9062748414
 10
223.2762886308
 20
128.3235612077
 10
223.4800620101
 20
127.6945273143
 10
223.5622828923
 20
127.0419058141
  0
SPLINE
  5
11C
330
1F
100
AcDbEntity
  8
0
  6
HIDDEN
 62
     7
370
     0
100
AcDbSpline
210
0.0
220
0.0
230
1.0
 70
     8
 71
     3
 72
    66
 73
    62
 74
     0
 42
0.00000001
 43
0.00000001
 12
1.0
 22
0.0
 32
0.0
 13
1.0
 23
0.0
 33
0.0
 40
-0.03125
 40
-0.03125
 40
0.0
 40
0.0
 40
0.0312499999999998
 40
0.0312499999999998
 40
0.0624999999999997
 40
0.0624999999999997
 40
0.0937499999999995
 40
0.0937499999999995
 40
0.1249999999999994
 40
0.1249999999999994
 40
0.1874999999999996
 40
0.1874999999999996
 40
0.2187499999999997
 40
0.2187499999999997
 40
0.2499999999999998
 40
0.2499999999999998
 40
0.2812499999999999
 40
0.2812499999999999
 40
0.3124999999999999
 40
0.3124999999999999
 40
0.3437500000000001
 40
0.3437500000000001
 40
0.3750000000000001
 40
0.3750000000000001
 40
0.4062500000000002
 40
0.4062500000000002
 40
0.4375000000000002
 40
0.4375000000000002
 40
0.4687500000000003
 40
0.4687500000000003
 40
0.5000000000000004
 40
0.5000000000000004
 40
0.5312500000000006
 40
0.5312500000000006
 40
0.5625000000000006
 40
0.5625000000000006
 40
0.5937500000000007
 40
0.5937500000000007
 40
0.6250000000000007
 40
0.6250000000000007
 40
0.6875000000000004
 40
0.6875000000000004
 40
0.7187500000000003
 40
0.7187500000000003
 40
0.7500000000000003
 40
0.7500000000000003
 40
0.7812500000000003
 40
0.7812500000000003
 40
0.8125000000000002
 40
0.8125000000000002
 40
0.8437500000000002
 40
0.8437500000000002
 40
0.8750000000000001
 40
0.8750000000000001
 40
0.9062500000000001
 40
0.9062500000000001
 40
0.9375000000000001
 40
0.9375000000000001
 40
0.96875
 40
0.96875
 40
1.0
 40
1.0
 40
1.03125
 40
1.03125
 10
199.1225677219813
 20
106.1862014120663
 30
0.0
 10
198.7894619064678
 20
106.1862014120663
 30
0.0
 10
198.625970952878
 20
106.1966878201735
 30
0.0
 10
198.304768807509
 20
106.2380249333728
 30
0.0
 10
198.1453564499527
 20
106.2694350574445
 30
0.0
 10
197.8433177228123
 20
106.351981736888
 30
0.0
 10
197.7002696854506
 20
106.4028716263521
 30
0.0
 10
197.4295364634998
 20
106.5254006383677
 30
0.0
 10
197.3024669485332
 20
106.5971324051375
 30
0.0
 10
196.9594589375604
 20
106.837869439123
 30
0.0
 10
196.7736266761565
 20
107.0389364674059
 30
0.0
 10
196.5858213129978
 20
107.3839947004656
 30
0.0
 10
196.5370812362194
 20
107.5083780101022
 30
0.0
 10
196.4723171841047
 20
107.7676116790901
 30
0.0
 10
196.4561250735706
 20
107.9013331901103
 30
0.0
 10
196.4559056664039
 20
108.1772560004017
 30
0.0
 10
196.4724537604372
 20
108.3205018912104
 30
0.0
 10
196.5368829141409
 20
108.6022670821889
 30
0.0
 10
196.5845413833258
 20
108.7422888085056
 30
0.0
 10
196.7112373511245
 20
109.0197912166797
 30
0.0
 10
196.7888109369235
 20
109.1537970174665
 30
0.0
 10
196.9694175631036
 20
109.4085747930804
 30
0.0
 10
197.0739706122193
 20
109.5310401511581
 30
0.0
 10
197.3039792525635
 20
109.7552664969046
 30
0.0
 10
197.4288593109383
 20
109.8569813263422
 30
0.0
 10
197.6987588825681
 20
110.038207615234
 30
0.0
 10
197.8448552490511
 20
110.1178280831208
 30
0.0
 10
198.1455678728597
 20
110.2457126679256
 30
0.0
 10
198.3015155612171
 20
110.2950968272226
 30
0.0
 10
198.6252954249656
 20
110.3624044109337
 30
0.0
 10
198.7909937687156
 20
110.3794859543398
 30
0.0
 10
199.1190376487229
 20
110.3796221344906
 30
0.0
 10
199.2843632000597
 20
110.3627483276131
 30
0.0
 10
199.60869165607
 20
110.2956227266306
 30
0.0
 10
199.7650444569317
 20
110.2462455924641
 30
0.0
 10
200.0667606351609
 20
110.1180734269821
 30
0.0
 10
200.2128511648755
 20
110.038443607291
 30
0.0
 10
200.4825649422806
 20
109.8574333760872
 30
0.0
 10
200.6077462759237
 20
109.7555898562298
 30
0.0
 10
200.9543568163513
 20
109.4176121273213
 30
0.0
 10
201.1374996512396
 20
109.1582726986503
 30
0.0
 10
201.327166211379
 20
108.7430682227734
 30
0.0
 10
201.3748039588075
 20
108.6033388835953
 30
0.0
 10
201.4393221937397
 20
108.3220344934348
 30
0.0
 10
201.4560192994814
 20
108.1788022815305
 30
0.0
 10
201.4560103271139
 20
107.9024686012833
 30
0.0
 10
201.4398794911674
 20
107.7685958901668
 30
0.0
 10
201.3752198144988
 20
107.5091510071485
 30
0.0
 10
201.3265494598596
 20
107.3847050789253
 30
0.0
 10
201.2011200875408
 20
107.1540845245332
 30
0.0
 10
201.1233764350507
 20
107.0457696783423
 30
0.0
 10
200.9410769480378
 20
106.8468022572714
 30
0.0
 10
200.8381137947435
 20
106.7575002840088
 30
0.0
 10
200.608912822451
 20
106.5967150685922
 30
0.0
 10
200.4812818443429
 20
106.5247998192653
 30
0.0
 10
200.2114361829064
 20
106.4027779955052
 30
0.0
 10
200.0685814395193
 20
106.3519297546939
 30
0.0
 10
199.7661839122732
 20
106.2693177013193
 30
0.0
 10
199.6069686813285
 20
106.2379813549531
 30
0.0
 10
199.2860809500104
 20
106.1966966733248
 30
0.0
 10
199.1225677219813
 20
106.1862014120663
 30
0.0
 10
198.7894619064678
 20
106.1862014120663
 30
0.0
  0
LINE
  5
11D
330
1F
100
AcDbEntity
  8
0
  6
HIDDEN
 62
     7
370
     0
100
AcDbLine
 10
204.9560150228
 20
104.7393257481
 30
0.0
 11
204.9560150228
 21
119.2393253309
 31
0.0
  0
LINE
  5
11E
330
1F
100
AcDbEntity
  8
0
  6
HIDDEN
 62
     7
370
     0
100
AcDbLine
 10
225.7702959798
 20
110.4289942172
 30
0.0
 11
231.5482473098
 21
116.1191656005
 31
0.0
  0
SPLINE
  5
11F
330
1F
100
AcDbEntity
  8
0
  6
HIDDEN
 62
     7
370
     0
100
AcDbSpline
210
0.0
220
0.0
230
1.0
 70
     8
 71
     3
 72
    14
 73
    10
 74
     0
 42
0.00000001
 43
0.00000001
 12
1.0
 22
0.0
 32
0.0
 13
1.0
 23
0.0
 33
0.0
 40
0.0
 40
0.0
 40
0.0
 40
0.0
 40
0.25
 40
0.25
 40
0.5
 40
0.5
 40
0.75
 40
0.75
 40
1.0
 40
1.0
 40
1.0
 40
1.0
 10
213.1886878262456
 20
126.1099424456355
 30
0.0
 10
213.2716690319968
 20
126.1869161694019
 30
0.0
 10
213.3593763575441
 20
126.2637502374279
 30
0.0
 10
213.5512059833735
 20
126.4176202350029
 30
0.0
 10
213.6554519081371
 20
126.4940180130206
 30
0.0
 10
213.8541063987403
 20
126.62189081614
 30
0.0
 10
213.9469002559067
 20
126.671886299233
 30
0.0
 10
214.0822692029712
 20
126.732013083152
 30
0.0
 10
214.1273432633083
 20
126.7446240922629
 30
0.0
 10
214.1546136525347
 20
126.7472464451027
 30
0.0
  0
ARC
  5
120
330
1F
100
AcDbEntity
  8
0
  6
HIDDEN
 62
     7
370
     0
100
AcDbCircle
 10
215.7768650674
 20
133.6770180326
 30
0.0
 40
2.077915057249447
100
AcDbArc
 50
102.2214175466
 51
274.4167289931
  0
SPLINE
  5
121
330
1F
100
AcDbEntity
  8
0
  6
HIDDEN
 62
     7
370
     0
100
AcDbSpline
210
0.0
220
0.0
230
1.0
 70
     8
 71
     3
 72
    10
 73
     6
 74
     0
 42
0.00000001
 43
0.00000001
 12
1.0
 22
0.0
 32
0.0
 13
1.0
 23
0.0
 33
0.0
 40
0.0
 40
0.0
 40
0.0
 40
0.0
 40
0.5
 40
0.5
 40
1.0
 40
1.0
 40
1.0
 40
1.0
 10
214.1546136525347
 20
126.7472464451027
 30
0.0
 10
214.3203786082357
 20
126.7631865990444
 30
0.0
 10
214.4811186796506
 20
126.7362972818428
 30
0.0
 10
214.7977243562664
 20
126.6210007329781
 30
0.0
 10
214.9534772040359
 20
126.5320698758215
 30
0.0
 10
215.10764944494
 20
126.4157041164441
 30
0.0
  0
SPLINE
  5
122
330
1F
100
AcDbEntity
  8
0
  6
HIDDEN
 62
     7
370
     0
100
AcDbSpline
210
0.0
220
0.0
230
1.0
 70
     8
 71
     3
 72
     8
 73
     4
 74
     0
 42
0.00000001
 43
0.00000001
 12
1.0
 22
0.0
 32
0.0
 13
1.0
 23
0.0
 33
0.0
 40
0.0
 40
0.0
 40
0.0
 40
0.0
 40
1.0
 40
1.0
 40
1.0
 40
1.0
 10
215.7354510166103
 20
130.7216367631423
 30
0.0
 10
215.5081900034558
 20
129.2890181636745
 30
0.0
 10
215.2974077146171
 20
127.8539339744065
 30
0.0
 10
215.10764944494
 20
126.4157041164441
 30
0.0
  0
SPLINE
  5
123
330
1F
100
AcDbEntity
  8
0
  6
HIDDEN
 62
     7
370
     0
100
AcDbSpline
210
0.0
220
0.0
230
1.0
 70
     8
 71
     3
 72
    19
 73
    15
 74
     0
 42
0.00000001
 43
0.00000001
 12
1.0
 22
0.0
 32
0.0
 13
1.0
 23
0.0
 33
0.0
 40
0.0
 40
0.0
 40
0.0
 40
0.0
 40
0.0605548255021854
 40
0.0802714034139658
 40
0.1609431844299519
 40
0.2525275450608975
 40
0.3441120672322917
 40
0.4383447345734876
 40
0.5325776789761293
 40
0.6243873476646842
 40
0.7161973372422877
 40
0.8106508757079708
 40
0.9051046597394609
 40
1.0
 40
1.0
 40
1.0
 40
1.0
 10
215.868791016188
 20
144.127464548952
 30
0.0
 10
215.8638747933499
 20
144.0853474264262
 30
0.0
 10
215.8573578543044
 20
144.0295170197681
 30
0.0
 10
215.8442004571653
 20
143.9328706998797
 30
0.0
 10
215.8296718173409
 20
143.6318383359234
 30
0.0
 10
215.8108302825979
 20
143.0746646583804
 30
0.0
 10
215.7929546312369
 20
142.2510112687133
 30
0.0
 10
215.7769737631548
 20
141.2024821415202
 30
0.0
 10
215.7632847531657
 20
139.9369195490705
 30
0.0
 10
215.752173116828
 20
138.4791867817707
 30
0.0
 10
215.7435885661795
 20
136.8323993484194
 30
0.0
 10
215.7377848650602
 20
134.9840237691279
 30
0.0
 10
215.7346417079046
 20
132.9532257731055
 30
0.0
 10
215.7351812835671
 20
131.4666552986698
 30
0.0
 10
215.7354517005352
 20
130.7216367435521
 30
0.0
  0
LINE
  5
124
330
1F
100
AcDbEntity
  8
0
  6
HIDDEN
 62
     7
370
     0
100
AcDbLine
 10
233.392772647
 20
134.0150187475
 30
0.0
 11
231.791736009
 21
132.4383063924
 31
0.0
  0
ELLIPSE
  5
125
330
1F
100
AcDbEntity
  8
0
  6
HIDDEN
 62
     7
370
     0
100
AcDbEllipse
 10
216.0130773505
 20
110.9765304194
 30
0.0
 11
169.6090200775226
 21
12.49565224517552
 31
0.0
210
0.0
220
0.0
230
1.0
 40
0.1916117708
 41
1.424627929998618
 42
1.508571132716847
  0
LINE
  5
126
330
1F
100
AcDbEntity
  8
0
  6
HIDDEN
 62
     7
370
     0
100
AcDbLine
 10
215.7354517005
 20
130.7216367436
 30
0.0
 11
229.4287284933
 21
132.1608579469
 31
0.0
  0
SPLINE
  5
127
330
1F
100
AcDbEntity
  8
0
  6
HIDDEN
 62
     7
370
     0
100
AcDbSpline
210
0.0
220
0.0
230
1.0
 70
     8
 71
     3
 72
     9
 73
     5
 74
     0
 42
0.00000001
 43
0.00000001
 12
1.0
 22
0.0
 32
0.0
 13
1.0
 23
0.0
 33
0.0
 40
0.0
 40
0.0
 40
0.0
 40
0.0
 40
0.503313675501371
 40
1.0
 40
1.0
 40
1.0
 40
1.0
 10
229.8786430459878
 20
132.8615892695316
 30
0.0
 10
229.8023915962284
 20
132.7450541567733
 30
0.0
 10
229.6508927328535
 20
132.5135183999866
 30
0.0
 10
229.5024547463988
 20
132.2778910310292
 30
0.0
 10
229.4287276284906
 20
132.1608581391905
 30
0.0
  0
SPLINE
  5
128
330
1F
100
AcDbEntity
  8
0
  6
HIDDEN
 62
     7
370
     0
100
AcDbSpline
210
0.0
220
0.0
230
1.0
 70
     8
 71
     3
 72
    25
 73
    21
 74
     0
 42
0.00000001
 43
0.00000001
 12
1.0
 22
0.0
 32
0.0
 13
1.0
 23
0.0
 33
0.0
 40
0.0
 40
0.0
 40
0.0
 40
0.0
 40
0.0233108620835838
 40
0.0467463048815557
 40
0.0703084233414717
 40
0.0939992788056181
 40
0.1178208991964752
 40
0.1772168392029928
 40
0.2375311829129709
 40
0.2978894117102578
 40
0.3592807068873776
 40
0.4831371554584802
 40
0.6091641911968806
 40
0.6725744630262152
 40
0.7373724741027149
 40
0.8017645989860473
 40
0.8676833328184695
 40
0.9110396015127351
 40
0.955144274926382
 40
1.0
 40
1.0
 40
1.0
 40
1.0
 10
238.3475890013195
 20
144.9490306814885
 30
0.0
 10
238.3029447205221
 20
144.8936343676519
 30
0.0
 10
238.2134175655894
 20
144.7825456843319
 30
0.0
 10
238.0736856045961
 20
144.6065586821927
 30
0.0
 10
237.9295357363887
 20
144.4231704291225
 30
0.0
 10
237.7805971230285
 20
144.2317190708086
 30
0.0
 10
237.5507884412478
 20
143.9335148362652
 30
0.0
 10
237.2288159015792
 20
143.5093279411055
 30
0.0
 10
236.8020337715373
 20
142.9362472167539
 30
0.0
 10
236.3484719948806
 20
142.3170745316206
 30
0.0
 10
235.7084203303944
 20
141.4304802144251
 30
0.0
 10
234.8458282715451
 20
140.2126256852395
 30
0.0
 10
233.916840487149
 20
138.8730979023871
 30
0.0
 10
233.130688128322
 20
137.7243247352654
 30
0.0
 10
232.5196388017208
 20
136.8240962462245
 30
0.0
 10
231.8859924087755
 20
135.8835228583926
 30
0.0
 10
231.3098965849809
 20
135.0222976010368
 30
0.0
 10
230.7927302644632
 20
134.2448385999684
 30
0.0
 10
230.3415295956458
 20
133.563858846525
 30
0.0
 10
230.03380455612
 20
133.0969929730237
 30
0.0
 10
229.8786430459878
 20
132.8615892695317
 30
0.0
  0
ELLIPSE
  5
129
330
1F
100
AcDbEntity
  8
0
  6
HIDDEN
 62
     7
370
     0
100
AcDbEllipse
 10
203.4981683048
 20
109.6611604747
 30
0.0
 11
21.84550201690431
 21
35.45530065444136
 31
0.0
210
0.0
220
0.0
230
1.0
 40
0.047805889
 41
0.0368506263457317
 42
0.2604348308215942
  0
SPLINE
  5
12A
330
1F
100
AcDbEntity
  8
0
  6
HIDDEN
 62
     7
370
     0
100
AcDbSpline
210
0.0
220
0.0
230
1.0
 70
     8
 71
     3
 72
    36
 73
    32
 74
     0
 42
0.00000001
 43
0.00000001
 12
1.0
 22
0.0
 32
0.0
 13
1.0
 23
0.0
 33
0.0
 40
0.0
 40
0.0
 40
0.0
 40
0.0
 40
0.1249999999999993
 40
0.1249999999999993
 40
0.2499999999999988
 40
0.2499999999999988
 40
0.3124999999999985
 40
0.3124999999999985
 40
0.3749999999999982
 40
0.3749999999999982
 40
0.437499999999998
 40
0.437499999999998
 40
0.4687499999999982
 40
0.4687499999999982
 40
0.4999999999999984
 40
0.4999999999999984
 40
0.5312499999999986
 40
0.5312499999999986
 40
0.5624999999999988
 40
0.5624999999999988
 40
0.5937499999999989
 40
0.5937499999999989
 40
0.6249999999999991
 40
0.6249999999999991
 40
0.6874999999999994
 40
0.6874999999999994
 40
0.7499999999999998
 40
0.7499999999999998
 40
0.8749999999999999
 40
0.8749999999999999
 40
1.0
 40
1.0
 40
1.0
 40
1.0
 10
222.8637354066668
 20
127.0510483834283
 30
0.0
 10
222.9602609743316
 20
127.1461075108284
 30
0.0
 10
223.0368646936423
 20
127.3080913991669
 30
0.0
 10
223.1496784963232
 20
127.6982541480732
 30
0.0
 10
223.1865798534709
 20
127.9276120384331
 30
0.0
 10
223.194196262172
 20
128.3169411682253
 30
0.0
 10
223.1886270256864
 20
128.4545005628564
 30
0.0
 10
223.1521172673537
 20
128.7488279632138
 30
0.0
 10
223.1212777234455
 20
128.9058565486105
 30
0.0
 10
223.0164198453443
 20
129.2379886440127
 30
0.0
 10
222.9427045437636
 20
129.416096705119
 30
0.0
 10
222.7641595268364
 20
129.6983355551939
 30
0.0
 10
222.6925498403141
 20
129.7952148000859
 30
0.0
 10
222.518791059579
 20
129.9859735063118
 30
0.0
 10
222.4158788682808
 20
130.0798783343806
 30
0.0
 10
222.1858154379846
 20
130.2473774826517
 30
0.0
 10
222.0634883482868
 20
130.3175169993714
 30
0.0
 10
221.8237468322981
 20
130.4286336365069
 30
0.0
 10
221.7062391478188
 20
130.4702315604819
 30
0.0
 10
221.4822615933816
 20
130.5336091440754
 30
0.0
 10
221.3764208966147
 20
130.5553811020519
 30
0.0
 10
221.1726895375176
 20
130.5867204576215
 30
0.0
 10
221.0745191569083
 20
130.5961412304042
 30
0.0
 10
220.7947486354125
 20
130.6112067897388
 30
0.0
 10
220.6252391542105
 20
130.6045011251753
 30
0.0
 10
220.3071875505984
 20
130.5738144645755
 30
0.0
 10
220.1589852186612
 20
130.5494417541386
 30
0.0
 10
219.7406409633571
 20
130.4595624737387
 30
0.0
 10
219.5009581124914
 20
130.378875321389
 30
0.0
 10
219.1012901753777
 20
130.2048843447254
 30
0.0
 10
218.9392247985443
 20
130.1111779812982
 30
0.0
 10
218.8423730801722
 20
130.0157976581527
 30
0.0
  0
ELLIPSE
  5
12B
330
1F
100
AcDbEntity
  8
0
  6
HIDDEN
 62
     7
370
     0
100
AcDbEllipse
 10
224.103075701
 20
132.6281992
 30
0.0
 11
3.820382603360059
 21
0.8609686982689482
 31
0.0
210
0.0
220
0.0
230
1.0
 40
0.1511474516
 41
6.044622274063539
 42
9.186214927654165
  0
SPLINE
  5
12C
330
1F
100
AcDbEntity
  8
0
  6
HIDDEN
 62
     7
370
     0
100
AcDbSpline
210
0.0
220
0.0
230
1.0
 70
     8
 71
     3
 72
    14
 73
    10
 74
     0
 42
0.00000001
 43
0.00000001
 12
1.0
 22
0.0
 32
0.0
 13
1.0
 23
0.0
 33
0.0
 40
0.0
 40
0.0
 40
0.0
 40
0.0
 40
0.25
 40
0.25
 40
0.5
 40
0.5
 40
0.75
 40
0.75
 40
1.0
 40
1.0
 40
1.0
 40
1.0
 10
214.1546136525347
 20
118.0859793861751
 30
0.0
 10
214.124946965147
 20
118.1195120484771
 30
0.0
 10
214.0779516542146
 20
118.1560623860893
 30
0.0
 10
213.9542115917703
 20
118.2388842164399
 30
0.0
 10
213.8768632346082
 20
118.2853688357683
 30
0.0
 10
213.7042755585115
 20
118.3867464910111
 30
0.0
 10
213.6068551055517
 20
118.4430090109582
 30
0.0
 10
213.4044403041194
 20
118.5627687331237
 30
0.0
 10
213.2975863251535
 20
118.6273813988497
 30
0.0
 10
213.1886878262456
 20
118.6956214107219
 30
0.0
  0
SPLINE
  5
12D
330
1F
100
AcDbEntity
  8
0
  6
HIDDEN
 62
     7
370
     0
100
AcDbSpline
210
0.0
220
0.0
230
1.0
 70
     8
 71
     3
 72
     8
 73
     4
 74
     0
 42
0.00000001
 43
0.00000001
 12
1.0
 22
0.0
 32
0.0
 13
1.0
 23
0.0
 33
0.0
 40
0.0
 40
0.0
 40
0.0
 40
0.0
 40
1.0
 40
1.0
 40
1.0
 40
1.0
 10
214.2745723836889
 20
117.9564916014105
 30
0.0
 10
214.2343148190122
 20
117.9979367194198
 30
0.0
 10
214.194322828188
 20
118.0410955621042
 30
0.0
 10
214.1546136525347
 20
118.0859793861751
 30
0.0
  0
ELLIPSE
  5
12E
330
1F
100
AcDbEntity
  8
0
  6
HIDDEN
 62
     7
370
     0
100
AcDbEllipse
 10
215.1543655154
 20
122.1545946567
 30
0.0
 11
-3.085533036944696
 21
-3.038656856958439
 31
0.0
210
0.0
220
0.0
230
1.0
 40
0.9698463104
 41
0.6006680037850564
 42
3.960894976059829
  0
LINE
  5
12F
330
1F
100
AcDbEntity
  8
0
  6
HIDDEN
 62
     7
370
     0
100
AcDbLine
 10
218.8423736118
 20
130.0157985401
 30
0.0
 11
218.1144667886
 21
129.2989521039
 31
0.0
  0
ELLIPSE
  5
130
330
1F
100
AcDbEntity
  8
0
  6
HIDDEN
 62
     7
370
     0
100
AcDbEllipse
 10
218.6024024454
 20
125.550248158
 30
0.0
 11
3.169172162257808
 21
-2.762630819039387
 31
0.0
210
0.0
220
0.0
230
1.0
 40
0.8059898683
 41
1.034452344719682
 42
2.309576185958078
  0
LINE
  5
131
330
1F
100
AcDbEntity
  8
0
  6
HIDDEN
 62
     7
370
     0
100
AcDbLine
 10
222.1358319841
 20
126.3342021716
 30
0.0
 11
222.863735082
 21
127.0510486078
 31
0.0
  0
LWPOLYLINE
  5
132
330
1F
100
AcDbEntity
  8
0
  6
HIDDEN
 62
     7
370
     0
100
AcDbPolyline
 90
       37
 70
   128
 43
0.0
 10
224.1782894455
 20
126.969977909
 10
224.1374602638
 20
126.2513992128
 10
223.9722585402
 20
125.554654443
 10
223.6876985155
 20
124.9009125617
 10
223.2924265884
 20
124.3100386795
 10
222.7984530948
 20
123.7999859017
 10
222.2207872294
 20
123.3862514359
 10
221.5769862853
 20
123.0814072055
 10
220.8866043113
 20
122.8947152135
 10
220.1706221424
 20
122.8318472144
 10
219.4507917486
 20
122.8947152135
 10
218.7489880346
 20
123.0814072055
 10
218.086534562
 20
123.3862514359
 10
217.483555349
 20
123.7999859017
 10
216.9583788238
 20
124.3100386795
 10
216.5269566797
 20
124.9009125617
 10
216.2024019383
 20
125.554654443
 10
215.9945679925
 20
126.2513992128
 10
215.9097803853
 20
126.969977909
 10
215.9506058417
 20
127.6885575366
 10
216.1158112906
 20
128.3853023064
 10
216.4003713153
 20
129.0390441877
 10
216.7956432424
 20
129.6299180698
 10
217.289616736
 20
130.1399699164
 10
217.8672788762
 20
130.5537043822
 10
218.5110835455
 20
130.8585486126
 10
219.2014655195
 20
131.0452415359
 10
219.9174476884
 20
131.108109535
 10
220.6372780822
 20
131.0452415359
 10
221.3390817963
 20
130.8585486126
 10
222.0015352689
 20
130.5537043822
 10
222.6045107566
 20
130.1399699164
 10
223.129691007
 20
129.6299180698
 10
223.5611094259
 20
129.0390441877
 10
223.8856678925
 20
128.3853023064
 10
224.093498113
 20
127.6885575366
 10
224.1782894455
 20
126.969977909
  0
LINE
  5
133
330
1F
100
AcDbEntity
  8
0
  6
HIDDEN
 62
     7
370
     0
100
AcDbLine
 10
222.1358319841
 20
126.3342021716
 30
0.0
 11
224.625551524
 21
130.0396925521
 31
0.0
  0
LINE
  5
134
330
1F
100
AcDbEntity
  8
0
  6
HIDDEN
 62
     7
370
     0
100
AcDbLine
 10
229.052548679
 20
135.4693553162
 30
0.0
 11
228.5145534299
 21
134.9395333541
 31
0.0
  0
LINE
  5
135
330
1F
100
AcDbEntity
  8
0
  6
HIDDEN
 62
     7
370
     0
100
AcDbLine
 10
229.052548679
 20
135.4693553162
 30
0.0
 11
226.6689477585
 21
132.1691485804
 31
0.0
  0
LINE
  5
136
330
1F
100
AcDbEntity
  8
0
  6
HIDDEN
 62
     7
370
     0
100
AcDbLine
 10
227.8460091077
 20
133.3283303988
 30
0.0
 11
226.6689477585
 21
132.1691485804
 31
0.0
  0
ARC
  5
137
330
1F
100
AcDbEntity
  8
0
  6
HIDDEN
 62
     7
370
     0
100
AcDbCircle
 10
228.1960246325
 20
138.5172225277
 30
0.0
 40
3.165932403097511
100
AcDbArc
 50
285.6966411472
 51
181.5043961573
  0
LINE
  5
138
330
1F
100
AcDbEntity
  8
0
  6
HIDDEN
 62
     7
370
     0
100
AcDbLine
 10
220.2631807052
 20
131.8325816405
 30
0.0
 11
225.0311834834
 21
138.4341052485
 31
0.0
  0
LINE
  5
139
330
1F
100
AcDbEntity
  8
0
  6
HIDDEN
 62
     7
370
     0
100
AcDbLine
 10
238.6243393742
 20
144.4877969784
 30
0.0
 11
238.3475875579
 21
144.9490288955
 31
0.0
  0
LINE
  5
13A
330
1F
100
AcDbEntity
  8
0
  6
HIDDEN
 62
     7
370
     0
100
AcDbLine
 10
238.6243393742
 20
144.4877969784
 30
0.0
 11
233.43284932
 21
135.7434081596
 31
0.0
  0
LINE
  5
13B
330
1F
100
AcDbEntity
  8
0
  6
HIDDEN
 62
     7
370
     0
100
AcDbLine
 10
224.1705408417
 20
144.1897588533
 30
0.0
 11
219.2672019921
 21
135.9307213438
 31
0.0
  0
ARC
  5
13C
330
1F
100
AcDbEntity
  8
0
  6
HIDDEN
 62
     7
370
     0
100
AcDbCircle
 10
254.6658895219
 20
123.1403771066
 30
0.0
 40
24.69166636616238
100
AcDbArc
 50
149.3084311719
 51
157.8791481084
  0
LINE
  5
13D
330
1F
100
AcDbEntity
  8
0
  6
HIDDEN
 62
     7
370
     0
100
AcDbLine
 10
215.9368855976
 20
131.6052737397
 30
0.0
 11
220.2631807052
 21
131.8325816405
 31
0.0
  0
LINE
  5
13E
330
1F
100
AcDbEntity
  8
0
  6
HIDDEN
 62
     7
370
     0
100
AcDbLine
 10
226.6689477585
 20
132.1691485804
 30
0.0
 11
231.791736009
 21
132.4383063924
 31
0.0
  0
LINE
  5
13F
330
1F
100
AcDbEntity
  8
0
  6
HIDDEN
 62
     7
370
     0
100
AcDbLine
 10
220.2631807052
 20
131.8325816405
 30
0.0
 11
220.3601388358
 21
131.9280682814
 31
0.0
  0
LINE
  5
140
330
1F
100
AcDbEntity
  8
0
  6
HIDDEN
 62
     7
370
     0
100
AcDbLine
 10
152.4560147993
 20
128.8486762655
 30
0.0
 11
152.4560147993
 21
124.0388980818
 31
0.0
  0
LINE
  5
141
330
1F
100
AcDbEntity
  8
0
  6
HIDDEN
 62
     7
370
     0
100
AcDbLine
 10
150.9560154848
 20
127.9826505792
 30
0.0
 11
150.9560154848
 21
123.6058852387
 31
0.0
  0
SPLINE
  5
142
330
1F
100
AcDbEntity
  8
0
  6
HIDDEN
 62
     7
370
     0
100
AcDbSpline
210
0.0
220
0.0
230
1.0
 70
     8
 71
     3
 72
    18
 73
    14
 74
     0
 42
0.00000001
 43
0.00000001
 12
1.0
 22
0.0
 32
0.0
 13
1.0
 23
0.0
 33
0.0
 40
0.0
 40
0.0
 40
0.0
 40
0.0
 40
0.2500000000000001
 40
0.2500000000000001
 40
0.3749999999999999
 40
0.3749999999999999
 40
0.4999999999999998
 40
0.4999999999999998
 40
0.6249999999999996
 40
0.6249999999999996
 40
0.7499999999999994
 40
0.7499999999999994
 40
1.0
 40
1.0
 40
1.0
 40
1.0
 10
179.634694470665
 20
129.2862354074811
 30
0.0
 10
179.4994088643626
 20
129.2148826657916
 30
0.0
 10
179.3982411181196
 20
129.0694792592022
 30
0.0
 10
179.2953797752507
 20
128.7400120235965
 30
0.0
 10
179.2692769297274
 20
128.6110784467918
 30
0.0
 10
179.2343869461826
 20
128.3155364474557
 30
0.0
 10
179.2258006878926
 20
128.1511416739337
 30
0.0
 10
179.225700978327
 20
127.7901800591931
 30
0.0
 10
179.2341893494755
 20
127.5936102670309
 30
0.0
 10
179.2683327289961
 20
127.1682554709059
 30
0.0
 10
179.2941297108499
 20
126.9384858211063
 30
0.0
 10
179.3975308422379
 20
126.2058971266739
 30
0.0
 10
179.4993888344092
 20
125.6686603517563
 30
0.0
 10
179.6346944706649
 20
125.0843722630087
 30
0.0
  0
LINE
  5
143
330
1F
100
AcDbEntity
  8
0
  6
HIDDEN
 62
     7
370
     0
100
AcDbLine
 10
178.7560148261
 20
129.5094235551
 30
0.0
 11
178.7560148261
 21
124.3692717266
 31
0.0
  0
LINE
  5
144
330
1F
100
AcDbEntity
  8
0
  6
HIDDEN
 62
     7
370
     0
100
AcDbLine
 10
152.4560147993
 20
99.9397529972
 30
0.0
 11
152.4560147993
 21
95.1299748135
 31
0.0
  0
LINE
  5
145
330
1F
100
AcDbEntity
  8
0
  6
HIDDEN
 62
     7
370
     0
100
AcDbLine
 10
150.9560154848
 20
100.3727658403
 30
0.0
 11
150.9560154848
 21
95.9960004997
 31
0.0
  0
LINE
  5
146
330
1F
100
AcDbEntity
  8
0
  6
HIDDEN
 62
     7
370
     0
100
AcDbLine
 10
178.7560148261
 20
99.6093793523
 30
0.0
 11
178.7560148261
 21
94.4692275238
 31
0.0
  0
SPLINE
  5
147
330
1F
100
AcDbEntity
  8
0
  6
HIDDEN
 62
     7
370
     0
100
AcDbSpline
210
0.0
220
0.0
230
1.0
 70
     8
 71
     3
 72
    18
 73
    14
 74
     0
 42
0.00000001
 43
0.00000001
 12
1.0
 22
0.0
 32
0.0
 13
1.0
 23
0.0
 33
0.0
 40
0.0
 40
0.0
 40
0.0
 40
0.0
 40
0.2500000000000001
 40
0.2500000000000001
 40
0.3750000000000002
 40
0.3750000000000002
 40
0.5000000000000002
 40
0.5000000000000002
 40
0.6250000000000002
 40
0.6250000000000002
 40
0.7500000000000003
 40
0.7500000000000003
 40
1.0
 40
1.0
 40
1.0
 40
1.0
 10
179.6346944706649
 20
98.89427881594389
 30
0.0
 10
179.4994088643626
 20
98.31007722221221
 30
0.0
 10
179.3982411181196
 20
97.77585953500403
 30
0.0
 10
179.2953797752507
 20
97.04996276411563
 30
0.0
 10
179.2692769297274
 20
96.82008227633571
 30
0.0
 10
179.2343869461826
 20
96.38951133154892
 30
0.0
 10
179.2258006878926
 20
96.19181642605474
 30
0.0
 10
179.2257009783269
 20
95.83046838337694
 30
0.0
 10
179.2341893494755
 20
95.6668183734308
 30
0.0
 10
179.2683327289961
 20
95.37360710046184
 30
0.0
 10
179.2941297108499
 20
95.24361103434603
 30
0.0
 10
179.3975308422379
 20
94.9095551417841
 30
0.0
 10
179.4993888344092
 20
94.7637789774193
 30
0.0
 10
179.6346944706649
 20
94.69241567147147
 30
0.0
  0
LWPOLYLINE
  5
148
330
1F
100
AcDbEntity
  8
0
  6
HIDDEN
 62
     7
370
     0
100
AcDbPolyline
 90
       29
 70
   128
 43
0.0
 10
198.9560140394
 20
100.2527723771
 10
199.5123172276
 20
100.3053408799
 10
200.0407235794
 20
100.4604088825
 10
200.5147388302
 20
100.7102017042
 10
200.9105937652
 20
101.0421930564
 10
201.2084363125
 20
101.4397355479
 10
201.3933355086
 20
101.8828942192
 10
201.4560153805
 20
102.3494486448
 10
201.3933355086
 20
102.8160030705
 10
201.2084363125
 20
103.2591626731
 10
200.9105937652
 20
103.6567051646
 10
200.5147388302
 20
103.9886965168
 10
200.0407235794
 20
104.2384893385
 10
199.5123172276
 20
104.3935573411
 10
198.9560140394
 20
104.4461253782
 10
198.3997127138
 20
104.3935573411
 10
197.871306362
 20
104.2384893385
 10
197.3972911112
 20
103.9886965168
 10
197.0014361761
 20
103.6567051646
 10
196.7035917662
 20
103.2591626731
 10
196.5186953641
 20
102.8160030705
 10
196.4560145609
 20
102.3494486448
 10
196.5186953641
 20
101.8828942192
 10
196.7035917662
 20
101.4397355479
 10
197.0014361761
 20
101.0421930564
 10
197.3972911112
 20
100.7102017042
 10
197.871306362
 20
100.4604088825
 10
198.3997127138
 20
100.3053408799
 10
198.9560140394
 20
100.2527723771
  0
SPLINE
  5
149
330
1F
100
AcDbEntity
  8
0
  6
HIDDEN
 62
     7
370
     0
100
AcDbSpline
210
0.0
220
0.0
230
1.0
 70
     8
 71
     3
 72
    10
 73
     6
 74
     0
 42
0.00000001
 43
0.00000001
 12
1.0
 22
0.0
 32
0.0
 13
1.0
 23
0.0
 33
0.0
 40
0.0
 40
0.0
 40
0.0
 40
0.0
 40
0.5
 40
0.5
 40
1.0
 40
1.0
 40
1.0
 40
1.0
 10
227.6829511566432
 20
134.4363246024212
 30
0.0
 10
227.8669674197641
 20
134.5201740553421
 30
0.0
 10
228.0330876875384
 20
134.6085610681193
 30
0.0
 10
228.318822718382
 20
134.7814811431626
 30
0.0
 10
228.440286467057
 20
134.8663962419877
 30
0.0
 10
228.5145526981481
 20
134.9395342021533
 30
0.0
  0
ARC
  5
14A
330
1F
100
AcDbEntity
  8
0
  6
HIDDEN
 62
     7
370
     0
100
AcDbCircle
 10
227.2299160667
 20
137.5632524419
 30
0.0
 40
3.159575175629553
100
AcDbArc
 50
278.2437266402
 51
188.957226592
  0
SPLINE
  5
14B
330
1F
100
AcDbEntity
  8
0
  6
HIDDEN
 62
     7
370
     0
100
AcDbSpline
210
0.0
220
0.0
230
1.0
 70
     8
 71
     3
 72
    10
 73
     6
 74
     0
 42
0.00000001
 43
0.00000001
 12
1.0
 22
0.0
 32
0.0
 13
1.0
 23
0.0
 33
0.0
 40
0.0
 40
0.0
 40
0.0
 40
0.0
 40
0.5
 40
0.5
 40
1.0
 40
1.0
 40
1.0
 40
1.0
 10
224.4931903716188
 20
137.9042834768353
 30
0.0
 10
224.419011278401
 20
137.8312313307229
 30
0.0
 10
224.3483977897665
 20
137.7086422381932
 30
0.0
 10
224.2181183701993
 20
137.4211042617515
 30
0.0
 10
224.1585303458025
 20
137.2541897259943
 30
0.0
 10
224.1088710346365
 20
137.0713150830368
 30
0.0
  0
LINE
  5
14C
330
1F
100
AcDbEntity
  8
0
  6
HIDDEN
 62
     7
370
     0
100
AcDbLine
 10
224.4931919597
 20
137.9042832863
 30
0.0
 11
225.0311834834
 21
138.4341052485
 31
0.0
  0
LWPOLYLINE
  5
14D
330
1F
100
AcDbEntity
  8
0
  6
HIDDEN
 62
     7
370
     0
100
AcDbPolyline
 90
       15
 70
   128
 43
0.0
 10
220.6041900538
 20
133.0044424844
 10
220.8626916729
 20
133.2769791347
 10
221.2090542637
 20
133.4615188402
 10
221.6259105228
 20
133.5488042545
 10
222.0923578463
 20
133.5344618869
 10
222.5850088619
 20
133.4192107183
 10
223.0791537188
 20
133.2088268113
 10
223.5500192367
 20
132.9138620508
 10
223.9739908002
 20
132.5491077018
 10
224.3298119031
 20
132.1328530771
 10
224.5996384047
 20
131.6859709781
 10
224.7699400507
 20
131.2308708888
 10
224.8321784757
 20
130.7903720748
 10
224.7832281612
 20
130.386563645
 10
224.625551524
 20
130.0396925521
  0
ELLIPSE
  5
14E
330
1F
100
AcDbEntity
  8
0
  6
HIDDEN
 62
     7
370
     0
100
AcDbEllipse
 10
225.1103935378
 20
134.6662341206
 30
0.0
 11
1.651289096609531
 21
2.417222755667893
 31
0.0
210
0.0
220
0.0
230
1.0
 40
0.8531826433
 41
5.157827243245055
 42
7.347151613788647
  0
SPLINE
  5
14F
330
1F
100
AcDbEntity
  8
0
  6
HIDDEN
 62
     7
370
     0
100
AcDbSpline
210
0.0
220
0.0
230
1.0
 70
     8
 71
     3
 72
    25
 73
    21
 74
     0
 42
0.00000001
 43
0.00000001
 12
1.0
 22
0.0
 32
0.0
 13
1.0
 23
0.0
 33
0.0
 40
0.0
 40
0.0
 40
0.0
 40
0.0
 40
0.0266457473498256
 40
0.0532047129982343
 40
0.079681648134887
 40
0.1060813482389045
 40
0.1324086509941833
 40
0.1978438141581992
 40
0.2627864092435315
 40
0.3271671240295804
 40
0.391036678150805
 40
0.5170795735299176
 40
0.6409245998833216
 40
0.7020300138031456
 40
0.7626346478767833
 40
0.8226920467509289
 40
0.882277261217696
 40
0.9217101728742256
 40
0.9609405478128519
 40
1.0
 40
1.0
 40
1.0
 40
1.0
 10
230.1566437402937
 20
132.5169737851113
 30
0.0
 10
230.2487786460895
 20
132.6554484428322
 30
0.0
 10
230.4327483863872
 20
132.9319467644908
 30
0.0
 10
230.7059995373409
 20
133.3413815698732
 30
0.0
 10
230.9766727028959
 20
133.7460254107824
 30
0.0
 10
231.2446108250507
 20
134.1455533025579
 30
0.0
 10
231.6414058202009
 20
134.7357066138389
 30
0.0
 10
232.160634982026
 20
135.5043773564485
 30
0.0
 10
232.792445777884
 20
136.4331571642034
 30
0.0
 10
233.4048412410446
 20
137.3266524100641
 30
0.0
 10
234.1906101970661
 20
138.4638513055595
 30
0.0
 10
235.1205428929699
 20
139.7919169595622
 30
0.0
 10
235.9823667046433
 20
140.9972139139402
 30
0.0
 10
236.6226552587748
 20
141.8758986092142
 30
0.0
 10
237.0758729115458
 20
142.4889354041393
 30
0.0
 10
237.5036077929226
 20
143.0580876861833
 30
0.0
 10
237.8610879184658
 20
143.5249059616536
 30
0.0
 10
238.1562406772192
 20
143.9033207242026
 30
0.0
 10
238.397665992006
 20
144.2082034445066
 30
0.0
 10
238.548892820134
 20
144.3947347344771
 30
0.0
 10
238.6243411546053
 20
144.4877967614287
 30
0.0
  0
LINE
  5
150
330
1F
100
AcDbEntity
  8
0
  6
HIDDEN
 62
     7
370
     0
100
AcDbLine
 10
220.6041900538
 20
133.0044424844
 30
0.0
 11
218.1144667886
 21
129.2989521039
 31
0.0
  0
LINE
  5
151
330
1F
100
AcDbEntity
  8
0
  6
HIDDEN
 62
     7
370
     0
100
AcDbLine
 10
150.9560154848
 20
123.6058852387
 30
0.0
 11
150.9560154848
 21
114.3284965523
 31
0.0
  0
LINE
  5
152
330
1F
100
AcDbEntity
  8
0
  6
HIDDEN
 62
     7
370
     0
100
AcDbLine
 10
150.9560154848
 20
109.6501545266
 30
0.0
 11
150.9560154848
 21
100.3727658403
 31
0.0
  0
LINE
  5
153
330
1F
100
AcDbEntity
  8
0
  6
HIDDEN
 62
     7
370
     0
100
AcDbLine
 10
152.4560147993
 20
108.8408484806
 30
0.0
 11
152.4560147993
 21
99.9397529972
 31
0.0
  0
LINE
  5
154
330
1F
100
AcDbEntity
  8
0
  6
HIDDEN
 62
     7
370
     0
100
AcDbLine
 10
152.4560147993
 20
124.0388980818
 30
0.0
 11
152.4560147993
 21
115.1378025983
 31
0.0
  0
LINE
  5
155
330
1F
100
AcDbEntity
  8
0
  6
HIDDEN
 62
     7
370
     0
100
AcDbLine
 10
178.7560148261
 20
124.3692717266
 30
0.0
 11
178.7560148261
 21
99.6093793523
 31
0.0
  0
LINE
  5
156
330
1F
100
AcDbEntity
  8
0
  6
HIDDEN
 62
     7
370
     0
100
AcDbLine
 10
180.7560148193
 20
123.5515993771
 30
0.0
 11
180.7560148193
 21
100.4270517019
 31
0.0
  0
LWPOLYLINE
  5
157
330
1F
100
AcDbEntity
  8
0
  6
HIDDEN
 62
     7
370
     0
100
AcDbPolyline
 90
       31
 70
   128
 43
0.0
 10
198.9560140394
 20
99.6698110116
 10
199.5797505699
 20
99.7247916398
 10
200.176225426
 20
99.8873316434
 10
200.7193708889
 20
100.1503268939
 10
201.1854494087
 20
100.5022820768
 10
201.5540910982
 20
100.927817331
 10
201.8091840766
 20
101.408332282
 10
201.939580413
 20
101.9228283998
 10
201.939580413
 20
102.4488179696
 10
201.8091840766
 20
102.9633131561
 10
201.5540910982
 20
103.4438290384
 10
201.1854494087
 20
103.8693633613
 10
200.7193708889
 20
104.2213190098
 10
200.176225426
 20
104.4843137947
 10
199.5797505699
 20
104.6468537983
 10
198.9560140394
 20
104.7018344265
 10
198.3322793715
 20
104.6468537983
 10
197.7358045153
 20
104.4843137947
 10
197.1926590525
 20
104.2213190098
 10
196.7265805326
 20
103.8693633613
 10
196.3579388432
 20
103.4438290384
 10
196.1028449334
 20
102.9633131561
 10
195.9724495284
 20
102.4488179696
 10
195.9724495284
 20
101.9228283998
 10
196.1028449334
 20
101.408332282
 10
196.3579388432
 20
100.927817331
 10
196.7265805326
 20
100.5022820768
 10
197.1926590525
 20
100.1503268939
 10
197.7358045153
 20
99.8873316434
 10
198.3322793715
 20
99.7247916398
 10
198.9560140394
 20
99.6698110116
  0
SPLINE
  5
158
330
1F
100
AcDbEntity
  8
0
  6
HIDDEN
 62
     7
370
     0
100
AcDbSpline
210
0.0
220
0.0
230
1.0
 70
     8
 71
     3
 72
     8
 73
     4
 74
     0
 42
0.00000001
 43
0.00000001
 12
1.0
 22
0.0
 32
0.0
 13
1.0
 23
0.0
 33
0.0
 40
0.0000202085968835
 40
0.0000202085968835
 40
0.0000202085968835
 40
0.0000202085968835
 40
0.0040218806502652
 40
0.0040218806502652
 40
0.0040218806502652
 40
0.0040218806502652
 10
152.4560148142246
 20
108.8408484211396
 30
0.0
 10
153.7893379400152
 20
108.8168501899759
 30
0.0
 10
155.1226718132378
 20
108.7935224498076
 30
0.0
 10
156.4560148142246
 20
108.7708277790272
 30
0.0
  0
SPLINE
  5
159
330
1F
100
AcDbEntity
  8
0
  6
HIDDEN
 62
     7
370
     0
100
AcDbSpline
210
0.0
220
0.0
230
1.0
 70
     8
 71
     3
 72
     8
 73
     4
 74
     0
 42
0.00000001
 43
0.00000001
 12
1.0
 22
0.0
 32
0.0
 13
1.0
 23
0.0
 33
0.0
 40
0.0000202082942178
 40
0.0000202082942178
 40
0.0000202082942178
 40
0.0000202082942178
 40
0.0040218803475995
 40
0.0040218803475995
 40
0.0040218803475995
 40
0.0040218803475995
 10
156.4560148142246
 20
115.2078232999254
 30
0.0
 10
155.1226718132378
 20
115.1851286291449
 30
0.0
 10
153.7893379400152
 20
115.1618008889766
 30
0.0
 10
152.4560148142245
 20
115.137802657813
 30
0.0
  0
SPLINE
  5
15A
330
1F
100
AcDbEntity
  8
0
  6
HIDDEN
 62
     7
370
     0
100
AcDbSpline
210
0.0
220
0.0
230
1.0
 70
     8
 71
     3
 72
     8
 73
     4
 74
     0
 42
0.00000001
 43
0.00000001
 12
1.0
 22
0.0
 32
0.0
 13
1.0
 23
0.0
 33
0.0
 40
0.0
 40
0.0
 40
0.0
 40
0.0
 40
1.0
 40
1.0
 40
1.0
 40
1.0
 10
150.9560148142237
 20
109.6501546112419
 30
0.0
 10
151.4302262246616
 20
109.3154253839468
 30
0.0
 10
151.9349625717635
 20
109.0563669701139
 30
0.0
 10
152.4560148142245
 20
108.8408484211396
 30
0.0
  0
SPLINE
  5
15B
330
1F
100
AcDbEntity
  8
0
  6
HIDDEN
 62
     7
370
     0
100
AcDbSpline
210
0.0
220
0.0
230
1.0
 70
     8
 71
     3
 72
     8
 73
     4
 74
     0
 42
0.00000001
 43
0.00000001
 12
1.0
 22
0.0
 32
0.0
 13
1.0
 23
0.0
 33
0.0
 40
0.0
 40
0.0
 40
0.0
 40
0.0
 40
1.0
 40
1.0
 40
1.0
 40
1.0
 10
152.4560148142245
 20
115.137802657813
 30
0.0
 10
151.9349625717638
 20
114.9222841088388
 30
0.0
 10
151.4302262246622
 20
114.6632256950061
 30
0.0
 10
150.9560148142246
 20
114.3284964677113
 30
0.0
  0
LINE
  5
15C
330
1F
100
AcDbEntity
  8
0
  6
HIDDEN
 62
     7
370
     0
100
AcDbLine
 10
150.9560154848
 20
109.6501545266
 30
0.0
 11
150.9560154848
 21
114.3284965523
 31
0.0
  0
LINE
  5
15D
330
1F
100
AcDbEntity
  8
0
  6
HIDDEN
 62
     7
370
     0
100
AcDbLine
 10
156.456015455
 20
108.7708276913
 30
0.0
 11
156.456015455
 21
115.2078233876
 31
0.0
  0
SPLINE
  5
15E
330
1F
100
AcDbEntity
  8
0
  6
HIDDEN
 62
     7
370
     0
100
AcDbSpline
210
0.0
220
0.0
230
1.0
 70
     8
 71
     3
 72
    26
 73
    22
 74
     0
 42
0.00000001
 43
0.00000001
 12
1.0
 22
0.0
 32
0.0
 13
1.0
 23
0.0
 33
0.0
 40
0.0
 40
0.0
 40
0.0
 40
0.0
 40
0.1249999999999998
 40
0.1249999999999998
 40
0.2499999999999997
 40
0.2499999999999997
 40
0.3749999999999995
 40
0.3749999999999995
 40
0.4374999999999994
 40
0.4374999999999994
 40
0.4999999999999993
 40
0.4999999999999993
 40
0.5624999999999992
 40
0.5624999999999992
 40
0.6249999999999991
 40
0.6249999999999991
 40
0.7499999999999994
 40
0.7499999999999994
 40
0.8749999999999997
 40
0.8749999999999997
 40
1.0
 40
1.0
 40
1.0
 40
1.0
 10
156.4560148142246
 20
108.7708277790272
 30
0.0
 10
156.6666581762245
 20
109.0054448099723
 30
0.0
 10
156.8738546139815
 20
109.2433279459317
 30
0.0
 10
157.2753537486139
 20
109.7306422522006
 30
0.0
 10
157.4706301676599
 20
109.9807674769896
 30
0.0
 10
157.8304106603553
 20
110.4993576224406
 30
0.0
 10
157.9956695205047
 20
110.7667886063274
 30
0.0
 10
158.1883274299309
 20
111.1982037387259
 30
0.0
 10
158.2432921701409
 20
111.3482226206503
 30
0.0
 10
158.3210279551051
 20
111.6609597993803
 30
0.0
 10
158.3422940934134
 20
111.8187140461875
 30
0.0
 10
158.3441880226991
 20
112.1374193260333
 30
0.0
 10
158.3239622856321
 20
112.2998561262139
 30
0.0
 10
158.2494978753463
 20
112.6108081257965
 30
0.0
 10
158.1958587496003
 20
112.7614793641242
 30
0.0
 10
158.0011144441996
 20
113.2035631220928
 30
0.0
 10
157.8340643310214
 20
113.4736071352605
 30
0.0
 10
157.4738082123177
 20
113.9937147635419
 30
0.0
 10
157.2790558372973
 20
114.2433759763516
 30
0.0
 10
156.8760466128251
 20
114.7328000881944
 30
0.0
 10
156.6676100944616
 20
114.9721460113583
 30
0.0
 10
156.4560148142255
 20
115.2078232999262
 30
0.0
  0
SPLINE
  5
15F
330
1F
100
AcDbEntity
  8
0
  6
HIDDEN
 62
     7
370
     0
100
AcDbSpline
210
0.0
220
0.0
230
1.0
 70
     8
 71
     3
 72
    68
 73
    64
 74
     0
 42
0.00000001
 43
0.00000001
 12
1.0
 22
0.0
 32
0.0
 13
1.0
 23
0.0
 33
0.0
 40
-0.0312499999999999
 40
-0.0312499999999999
 40
0.0
 40
0.0
 40
0.03125
 40
0.03125
 40
0.0625000000000001
 40
0.0625000000000001
 40
0.0937500000000001
 40
0.0937500000000001
 40
0.1250000000000001
 40
0.1250000000000001
 40
0.1562500000000002
 40
0.1562500000000002
 40
0.1875000000000002
 40
0.1875000000000002
 40
0.2500000000000001
 40
0.2500000000000001
 40
0.28125
 40
0.28125
 40
0.3124999999999999
 40
0.3124999999999999
 40
0.3437499999999998
 40
0.3437499999999998
 40
0.3749999999999997
 40
0.3749999999999997
 40
0.4062499999999997
 40
0.4062499999999997
 40
0.4374999999999996
 40
0.4374999999999996
 40
0.4687499999999994
 40
0.4687499999999994
 40
0.4999999999999993
 40
0.4999999999999993
 40
0.5312499999999991
 40
0.5312499999999991
 40
0.5624999999999991
 40
0.5624999999999991
 40
0.593749999999999
 40
0.593749999999999
 40
0.6249999999999989
 40
0.6249999999999989
 40
0.6562499999999989
 40
0.6562499999999989
 40
0.6874999999999988
 40
0.6874999999999988
 40
0.7187499999999989
 40
0.7187499999999989
 40
0.749999999999999
 40
0.749999999999999
 40
0.7812499999999992
 40
0.7812499999999992
 40
0.8124999999999993
 40
0.8124999999999993
 40
0.8437499999999994
 40
0.8437499999999994
 40
0.8749999999999997
 40
0.8749999999999997
 40
0.9062499999999998
 40
0.9062499999999998
 40
0.9374999999999999
 40
0.9374999999999999
 40
0.9687500000000001
 40
0.9687500000000001
 40
1.0
 40
1.0
 40
1.03125
 40
1.03125
 10
164.6757754789682
 20
114.247213230468
 30
0.0
 10
165.0106629986411
 20
114.518454467215
 30
0.0
 10
165.1889292205768
 20
114.6360957600866
 30
0.0
 10
165.5659539174701
 20
114.8374272840965
 30
0.0
 10
165.7661426388464
 20
114.9212354873101
 30
0.0
 10
166.1728106784773
 20
115.0493275108785
 30
0.0
 10
166.3807258444975
 20
115.0946323078386
 30
0.0
 10
166.8057141437209
 20
115.1477900191441
 30
0.0
 10
167.0217507947049
 20
115.1550722031797
 30
0.0
 10
167.4462617635564
 20
115.1315247656424
 30
0.0
 10
167.6567887369462
 20
115.1010205631654
 30
0.0
 10
168.0742739477332
 20
115.0011609496982
 30
0.0
 10
168.2771374813116
 20
114.9325650619374
 30
0.0
 10
168.8584540003264
 20
114.6752236187185
 30
0.0
 10
169.2188612531022
 20
114.4286737274086
 30
0.0
 10
169.6636002498638
 20
113.9754351713337
 30
0.0
 10
169.7987894700064
 20
113.8078545918573
 30
0.0
 10
170.0317293446086
 20
113.4489925169459
 30
0.0
 10
170.1284126902634
 20
113.2602339965918
 30
0.0
 10
170.2816439549127
 20
112.8637203203835
 30
0.0
 10
170.3382609122809
 20
112.6533759112966
 30
0.0
 10
170.4037131141158
 20
112.2319873830137
 30
0.0
 10
170.4136714727429
 20
112.0194712638501
 30
0.0
 10
170.3868374635758
 20
111.5906964887498
 30
0.0
 10
170.349817799803
 20
111.3781302606029
 30
0.0
 10
170.2326545207662
 20
110.9688356165249
 30
0.0
 10
170.1511156432713
 20
110.7679869448173
 30
0.0
 10
169.9498764318674
 20
110.3908601863062
 30
0.0
 10
169.8309446966965
 20
110.2146398647766
 30
0.0
 10
169.5577708836043
 20
109.8858837437944
 30
0.0
 10
169.4039101088941
 20
109.7345855758949
 30
0.0
 10
169.0739875108781
 20
109.4669984224156
 30
0.0
 10
168.8956656858066
 20
109.3485272617048
 30
0.0
 10
168.5176416858841
 20
109.14564045777
 30
0.0
 10
168.3217126871029
 20
109.063021503322
 30
0.0
 10
167.9166273992686
 20
108.9335813267912
 30
0.0
 10
167.7052926013987
 20
108.8866060963607
 30
0.0
 10
167.2814078117462
 20
108.8318911414425
 30
0.0
 10
167.068972538484
 20
108.8236613929994
 30
0.0
 10
166.643120471189
 20
108.8451528908001
 30
0.0
 10
166.4279763077794
 20
108.8755505130186
 30
0.0
 10
166.012846768039
 20
108.9732929699067
 30
0.0
 10
165.8112218022953
 20
109.0404114836556
 30
0.0
 10
165.4201353030242
 20
109.2120545838159
 30
0.0
 10
165.2303156941333
 20
109.3174006426005
 30
0.0
 10
164.8797250739616
 20
109.5581035842951
 30
0.0
 10
164.716718594315
 20
109.6942264606278
 30
0.0
 10
164.4166562716264
 20
109.9998799298619
 30
0.0
 10
164.2813873744222
 20
110.1683316093507
 30
0.0
 10
164.0504434215893
 20
110.5246122956342
 30
0.0
 10
163.952961202117
 20
110.7143659750408
 30
0.0
 10
163.7979786427125
 20
111.1169743373251
 30
0.0
 10
163.7431121218954
 20
111.3228140809981
 30
0.0
 10
163.6777042512312
 20
111.7433937173205
 30
0.0
 10
163.6675580053982
 20
111.9608955346182
 30
0.0
 10
163.6942263679377
 20
112.3876356735788
 30
0.0
 10
163.7302637597642
 20
112.597538382666
 30
0.0
 10
163.8476749053322
 20
113.0104272033245
 30
0.0
 10
163.9288024399503
 20
113.2107501481084
 30
0.0
 10
164.1285594841397
 20
113.5869886665734
 30
0.0
 10
164.2490619832658
 20
113.7664434118212
 30
0.0
 10
164.5231424286318
 20
114.096791339911
 30
0.0
 10
164.6757754789682
 20
114.247213230468
 30
0.0
 10
165.0106629986411
 20
114.518454467215
 30
0.0
  0
CIRCLE
  5
160
330
1F
100
AcDbEntity
  8
0
  6
HIDDEN
 62
     7
370
     0
100
AcDbCircle
 10
166.9560148142
 20
111.9893255395
 30
0.0
 40
3.050000000000011
  0
SPLINE
  5
161
330
1F
100
AcDbEntity
  8
0
  6
HIDDEN
 62
     7
370
     0
100
AcDbSpline
210
0.0
220
0.0
230
1.0
 70
     8
 71
     3
 72
    10
 73
     6
 74
     0
 42
0.00000001
 43
0.00000001
 12
1.0
 22
0.0
 32
0.0
 13
1.0
 23
0.0
 33
0.0
 40
0.0
 40
0.0
 40
0.0
 40
0.0
 40
0.5
 40
0.5
 40
1.0
 40
1.0
 40
1.0
 40
1.0
 10
213.1886878262457
 20
92.54466978644061
 30
0.0
 10
213.3679014057486
 20
92.81266201815357
 30
0.0
 10
213.5282794384624
 20
93.05651292368779
 30
0.0
 10
213.8206122173742
 20
93.50778490139194
 30
0.0
 10
213.9537721330179
 20
93.71699166206079
 30
0.0
 10
214.05471323003
 20
93.88370160582257
 30
0.0
  0
LINE
  5
162
330
1F
100
AcDbEntity
  8
0
  6
HIDDEN
 62
     7
370
     0
100
AcDbLine
 10
214.0547124766
 20
93.8837012959
 30
0.0
 11
214.0547124766
 21
111.9893255395
 31
0.0
  0
ELLIPSE
  5
163
330
1F
100
AcDbEntity
  8
0
  6
HIDDEN
 62
     7
370
     0
100
AcDbEllipse
 10
230.2378019407
 20
111.9893255395
 30
0.0
 11
0.8050200755768061
 21
25.49961757369236
 31
0.0
210
0.0
220
0.0
230
1.0
 40
0.1734804855
 41
1.576273031568479
 42
1.637500741895105
  0
ELLIPSE
  5
164
330
1F
100
AcDbEntity
  8
0
  6
HIDDEN
 62
     7
370
     0
100
AcDbEllipse
 10
228.1878874119
 20
111.9893255395
 30
0.0
 11
18.66135454367037
 21
25.49270075273704
 31
0.0
210
0.0
220
0.0
230
1.0
 40
0.0326926316
 41
1.655951370770337
 42
2.38425661610741
  0
CIRCLE
  5
165
330
1F
100
AcDbEntity
  8
0
  6
HIDDEN
 62
     7
370
     0
100
AcDbCircle
 10
192.9560148142
 20
111.9893255395
 30
0.0
 40
2.0
  0
LINE
  5
166
330
1F
100
AcDbEntity
  8
0
  6
HIDDEN
 62
     7
370
     0
100
AcDbLine
 10
229.8786429785
 20
132.8615887773
 30
0.0
 11
230.156642767
 21
132.5169733477
 31
0.0
  0
SPLINE
  5
167
330
1F
100
AcDbEntity
  8
0
  6
HIDDEN
 62
     7
370
     0
100
AcDbSpline
210
0.0
220
0.0
230
1.0
 70
     8
 71
     3
 72
     9
 73
     5
 74
     0
 42
0.00000001
 43
0.00000001
 12
1.0
 22
0.0
 32
0.0
 13
1.0
 23
0.0
 33
0.0
 40
0.0
 40
0.0
 40
0.0
 40
0.0
 40
0.4975972562969722
 40
1.0
 40
1.0
 40
1.0
 40
1.0
 10
229.5073555260858
 20
131.5048920283122
 30
0.0
 10
229.6134239323576
 20
131.6749253813789
 30
0.0
 10
229.8265850881507
 20
132.0166341647672
 30
0.0
 10
230.0462722882216
 20
132.34966046044
 30
0.0
 10
230.1566437402937
 20
132.5169737851113
 30
0.0
  0
SPLINE
  5
168
330
1F
100
AcDbEntity
  8
0
  6
HIDDEN
 62
     7
370
     0
100
AcDbSpline
210
0.0
220
0.0
230
1.0
 70
     8
 71
     3
 72
     8
 73
     4
 74
     0
 42
0.00000001
 43
0.00000001
 12
1.0
 22
0.0
 32
0.0
 13
1.0
 23
0.0
 33
0.0
 40
0.0
 40
0.0
 40
0.0
 40
0.0
 40
1.0
 40
1.0
 40
1.0
 40
1.0
 10
214.2745723836889
 20
117.9564916014105
 30
0.0
 10
214.2246990374874
 20
117.1395994163458
 30
0.0
 10
214.1845322349936
 20
116.3223674408768
 30
0.0
 10
214.1546136525347
 20
115.5047767129073
 30
0.0
  0
LINE
  5
169
330
1F
100
AcDbEntity
  8
0
  6
HIDDEN
 62
     7
370
     0
100
AcDbLine
 10
229.4287284933
 20
132.1608579469
 30
0.0
 11
229.5073544703
 21
131.5048920673
 31
0.0
  0
SPLINE
  5
16A
330
1F
100
AcDbEntity
  8
0
  6
HIDDEN
 62
     7
370
     0
100
AcDbSpline
210
0.0
220
0.0
230
1.0
 70
     8
 71
     3
 72
    12
 73
     8
 74
     0
 42
0.00000001
 43
0.00000001
 12
1.0
 22
0.0
 32
0.0
 13
1.0
 23
0.0
 33
0.0
 40
0.0
 40
0.0
 40
0.0
 40
0.0
 40
0.25
 40
0.25
 40
0.5
 40
0.5
 40
1.0
 40
1.0
 40
1.0
 40
1.0
 10
214.1546136525347
 20
115.5047767129073
 30
0.0
 10
214.1437036970835
 20
115.2066383090677
 30
0.0
 10
214.1317527239955
 20
114.9166817765016
 30
0.0
 10
214.108224583173
 20
114.3313633243618
 30
0.0
 10
214.0967433012139
 20
114.0386936034432
 30
0.0
 10
214.0672074553792
 20
113.1605022949265
 30
0.0
 10
214.05471323003
 20
112.5748456084948
 30
0.0
 10
214.05471323003
 20
111.9893255394763
 30
0.0
  0
ELLIPSE
  5
16B
330
1F
100
AcDbEntity
  8
0
  6
HIDDEN
 62
     7
370
     0
100
AcDbEllipse
 10
252.4283427838
 20
119.0920547907
 30
0.0
 11
19.1009188001336
 21
18.81073292402907
 31
0.0
210
-1.917574046654325E-16
220
1.947155717234150E-16
230
1.0
 40
0.9698463104
 41
1.859064031727196
 42
2.3485403734237
  0
LINE
  5
16C
330
1F
100
AcDbEntity
  8
0
  6
HIDDEN
 62
     7
370
     0
100
AcDbLine
 10
226.0272516035
 20
119.0920548265
 30
0.0
 11
225.8097728811
 21
111.9893255395
 31
0.0
  0
LINE
  5
16D
330
1F
100
AcDbEntity
  8
0
  6
HIDDEN
 62
     7
370
     0
100
AcDbLine
 10
180.9560148142
 20
92.4393261534
 30
0.0
 11
181.0489080347
 21
92.5322181296
 31
0.0
  0
LINE
  5
16E
330
1F
100
AcDbEntity
  8
0
  6
HIDDEN
 62
     7
370
     0
100
AcDbLine
 10
181.0489080347
 20
131.4464329493
 30
0.0
 11
180.9560148142
 21
131.5393249255
 31
0.0
  0
ARC
  5
16F
330
1F
100
AcDbEntity
  8
0
  6
HIDDEN
 62
     7
370
     0
100
AcDbCircle
 10
180.3418012519
 20
93.2393255395
 30
0.0
 40
1.0
100
AcDbArc
 50
315.0
 51
0.0
  0
ARC
  5
170
330
1F
100
AcDbEntity
  8
0
  6
HIDDEN
 62
     7
370
     0
100
AcDbCircle
 10
180.3418012519
 20
93.2393255395
 30
0.0
 40
1.0
100
AcDbArc
 50
0.0
 51
52.1052014664
  0
ARC
  5
171
330
1F
100
AcDbEntity
  8
0
  6
HIDDEN
 62
     7
370
     0
100
AcDbCircle
 10
180.3418012519
 20
130.7393255395
 30
0.0
 40
0.999999999999988
100
AcDbArc
 50
351.8087250651
 51
45.0
  0
ARC
  5
172
330
1F
100
AcDbEntity
  8
0
  6
HIDDEN
 62
     7
370
     0
100
AcDbCircle
 10
180.3418012519
 20
130.7393255395
 30
0.0
 40
0.9999999999999989
100
AcDbArc
 50
307.8947985336
 51
351.8087250651
  0
LINE
  5
173
330
1F
100
AcDbEntity
  8
0
  6
HIDDEN
 62
     7
370
     0
100
AcDbLine
 10
181.34180125
 20
93.2393247944
 30
0.0
 11
181.34180125
 21
130.7393262845
 31
0.0
  0
LINE
  5
174
330
1F
100
AcDbEntity
  8
0
  6
HIDDEN
 62
     7
370
     0
100
AcDbLine
 10
181.34180125
 20
93.2393247944
 30
0.0
 11
181.34180125
 21
130.7393262845
 31
0.0
  0
LINE
  5
175
330
1F
100
AcDbEntity
  8
0
  6
HIDDEN
 62
     7
370
     0
100
AcDbLine
 10
196.4560145609
 20
123.4267453414
 30
0.0
 11
196.4560145609
 21
115.9333802511
 31
0.0
  0
LINE
  5
176
330
1F
100
AcDbEntity
  8
0
  6
HIDDEN
 62
     7
370
     0
100
AcDbLine
 10
201.4560153805
 20
123.1912194502
 30
0.0
 11
201.4560153805
 21
123.4267453414
 31
0.0
  0
LINE
  5
177
330
1F
100
AcDbEntity
  8
0
  6
HIDDEN
 62
     7
370
     0
100
AcDbLine
 10
201.4560153805
 20
115.9329504457
 30
0.0
 11
201.4560153805
 21
120.8051710141
 31
0.0
  0
LINE
  5
178
330
1F
100
AcDbEntity
  8
0
  6
HIDDEN
 62
     7
370
     0
100
AcDbLine
 10
200.728766071
 20
119.8204277766
 30
0.0
 11
206.9481177352
 21
123.7987686631
 31
0.0
  0
LINE
  5
179
330
1F
100
AcDbEntity
  8
0
  6
HIDDEN
 62
     7
370
     0
100
AcDbLine
 10
206.870925995
 20
129.6848362994
 30
0.0
 11
199.0746216945
 21
124.6977622372
 31
0.0
  0
ARC
  5
17A
330
1F
100
AcDbEntity
  8
0
  6
HIDDEN
 62
     7
370
     0
100
AcDbCircle
 10
158.4627343263
 20
101.4893255395
 30
0.0
 40
1.500000000000012
100
AcDbArc
 50
270.0
 51
315.0
  0
ARC
  5
17B
330
1F
100
AcDbEntity
  8
0
  6
HIDDEN
 62
     7
370
     0
100
AcDbCircle
 10
158.4627343263
 20
122.4893255395
 30
0.0
 40
1.500000000000014
100
AcDbArc
 50
45.0
 51
90.0
  0
LINE
  5
17C
330
1F
100
AcDbEntity
  8
0
  6
HIDDEN
 62
     7
370
     0
100
AcDbLine
 10
157.4560156189
 20
99.9893254352
 30
0.0
 11
158.4627343439
 21
99.9893254352
 31
0.0
  0
LINE
  5
17D
330
1F
100
AcDbEntity
  8
0
  6
HIDDEN
 62
     7
370
     0
100
AcDbLine
 10
158.4627343439
 20
123.9893256438
 30
0.0
 11
157.4560156189
 21
123.9893256438
 31
0.0
  0
ARC
  5
17E
330
1F
100
AcDbEntity
  8
0
  6
HIDDEN
 62
     7
370
     0
100
AcDbCircle
 10
157.4560148142
 20
101.4893255395
 30
0.0
 40
1.500000000000012
100
AcDbArc
 50
191.0958032831
 51
270.0
  0
ARC
  5
17F
330
1F
100
AcDbEntity
  8
0
  6
HIDDEN
 62
     7
370
     0
100
AcDbCircle
 10
157.4560148142
 20
122.4893255395
 30
0.0
 40
1.500000000000009
100
AcDbArc
 50
90.0
 51
168.9041967169
  0
LINE
  5
180
330
1F
100
AcDbEntity
  8
0
  6
HIDDEN
 62
     7
370
     0
100
AcDbLine
 10
150.9560154848
 20
100.2259130341
 30
0.0
 11
151.9840540461
 21
100.8194523615
 31
0.0
  0
LINE
  5
181
330
1F
100
AcDbEntity
  8
0
  6
HIDDEN
 62
     7
370
     0
100
AcDbLine
 10
151.9840540461
 20
123.1591987175
 30
0.0
 11
150.9560154848
 21
123.7527380449
 31
0.0
  0
LINE
  5
182
330
1F
100
AcDbEntity
  8
0
  6
HIDDEN
 62
     7
370
     0
100
AcDbLine
 10
159.5233952723
 20
100.4286656839
 30
0.0
 11
160.5840543382
 21
101.489325681
 31
0.0
  0
LINE
  5
183
330
1F
100
AcDbEntity
  8
0
  6
HIDDEN
 62
     7
370
     0
100
AcDbLine
 10
160.5840543382
 20
122.4893253979
 30
0.0
 11
159.5233952723
 21
123.5499853951
 31
0.0
  0
LINE
  5
184
330
1F
100
AcDbEntity
  8
0
  6
HIDDEN
 62
     7
370
     0
100
AcDbLine
 10
151.9840540461
 20
100.8194523615
 30
0.0
 11
154.4840553872
 21
101.489325681
 31
0.0
  0
LINE
  5
185
330
1F
100
AcDbEntity
  8
0
  6
HIDDEN
 62
     7
370
     0
100
AcDbLine
 10
154.4840553872
 20
122.4893253979
 30
0.0
 11
151.9840540461
 21
123.1591987175
 31
0.0
  0
LINE
  5
186
330
1F
100
AcDbEntity
  8
0
  6
HIDDEN
 62
     7
370
     0
100
AcDbLine
 10
155.9840547018
 20
122.7780009371
 30
0.0
 11
155.4840555511
 21
122.4893253979
 31
0.0
  0
LINE
  5
187
330
1F
100
AcDbEntity
  8
0
  6
HIDDEN
 62
     7
370
     0
100
AcDbLine
 10
155.4840555511
 20
101.489325681
 30
0.0
 11
155.9840547018
 21
101.2006501418
 31
0.0
  0
LINE
  5
188
330
1F
100
AcDbEntity
  8
0
  6
HIDDEN
 62
     7
370
     0
100
AcDbLine
 10
160.5840543382
 20
101.489325681
 30
0.0
 11
170.4560149558
 21
101.489325681
 31
0.0
  0
LINE
  5
189
330
1F
100
AcDbEntity
  8
0
  6
HIDDEN
 62
     7
370
     0
100
AcDbLine
 10
170.4560149558
 20
122.4893253979
 30
0.0
 11
160.5840543382
 21
122.4893253979
 31
0.0
  0
ARC
  5
18A
330
1F
100
AcDbEntity
  8
0
  6
HIDDEN
 62
     7
370
     0
100
AcDbCircle
 10
170.4560148142
 20
101.9893255395
 30
0.0
 40
0.5
100
AcDbArc
 50
270.0
 51
0.0
  0
ARC
  5
18B
330
1F
100
AcDbEntity
  8
0
  6
HIDDEN
 62
     7
370
     0
100
AcDbCircle
 10
170.4560148142
 20
121.9893255395
 30
0.0
 40
0.5
100
AcDbArc
 50
0.0
 51
90.0
  0
LINE
  5
18C
330
1F
100
AcDbEntity
  8
0
  6
HIDDEN
 62
     7
370
     0
100
AcDbLine
 10
154.4840553872
 20
101.489325681
 30
0.0
 11
155.4840555511
 21
101.489325681
 31
0.0
  0
LINE
  5
18D
330
1F
100
AcDbEntity
  8
0
  6
HIDDEN
 62
     7
370
     0
100
AcDbLine
 10
155.4840555511
 20
122.4893253979
 30
0.0
 11
154.4840553872
 21
122.4893253979
 31
0.0
  0
LINE
  5
18E
330
1F
100
AcDbEntity
  8
0
  6
HIDDEN
 62
     7
370
     0
100
AcDbLine
 10
170.9560150377
 20
103.7393255842
 30
0.0
 11
171.9560152017
 21
104.7393257481
 31
0.0
  0
LINE
  5
18F
330
1F
100
AcDbEntity
  8
0
  6
HIDDEN
 62
     7
370
     0
100
AcDbLine
 10
171.9560152017
 20
119.2393253309
 30
0.0
 11
170.9560150377
 21
120.2393254948
 31
0.0
  0
LINE
  5
190
330
1F
100
AcDbEntity
  8
0
  6
HIDDEN
 62
     7
370
     0
100
AcDbLine
 10
222.5729277454
 20
124.5481610981
 30
0.0
 11
223.3681319378
 21
125.331284174
 31
0.0
  0
LINE
  5
191
330
1F
100
AcDbEntity
  8
0
  6
HIDDEN
 62
     7
370
     0
100
AcDbLine
 10
218.4564149104
 20
130.3187726748
 30
0.0
 11
217.661210718
 21
129.5356495988
 31
0.0
  0
LINE
  5
192
330
1F
100
AcDbEntity
  8
0
  6
HIDDEN
 62
     7
370
     0
100
AcDbLine
 10
204.9560150228
 20
119.2393253309
 30
0.0
 11
171.9560152017
 21
119.2393253309
 31
0.0
  0
LINE
  5
193
330
1F
100
AcDbEntity
  8
0
  6
HIDDEN
 62
     7
370
     0
100
AcDbLine
 10
171.9560152017
 20
104.7393257481
 30
0.0
 11
204.9560150228
 21
104.7393257481
 31
0.0
  0
LINE
  5
194
330
1F
100
AcDbEntity
  8
0
  6
HIDDEN
 62
     7
370
     0
100
AcDbLine
 10
204.9560150228
 20
104.7393257481
 30
0.0
 11
209.3122540139
 21
111.9893255395
 31
0.0
  0
LINE
  5
195
330
1F
100
AcDbEntity
  8
0
  6
HIDDEN
 62
     7
370
     0
100
AcDbLine
 10
209.3122540139
 20
111.9893255395
 30
0.0
 11
204.9560150228
 21
119.2393253309
 31
0.0
  0
LINE
  5
196
330
1F
100
AcDbEntity
  8
0
  6
HIDDEN
 62
     7
370
     0
100
AcDbLine
 10
215.893016579
 20
136.7444625807
 30
0.0
 11
214.291979941
 21
135.1677502257
 31
0.0
  0
LINE
  5
197
330
1F
100
AcDbEntity
  8
0
  6
HIDDEN
 62
     7
370
     0
100
AcDbLine
 10
222.9094555698
 20
127.1029763606
 30
0.0
 11
227.8819618843
 21
133.3679488611
 31
0.0
  0
LINE
  5
198
330
1F
100
AcDbEntity
  8
0
  6
HIDDEN
 62
     7
370
     0
100
AcDbLine
 10
218.101394745
 20
119.1621019256
 30
0.0
 11
222.9910655044
 21
123.9774857399
 31
0.0
  0
LINE
  5
199
330
1F
100
AcDbEntity
  8
0
  6
HIDDEN
 62
     7
370
     0
100
AcDbLine
 10
217.0970043264
 20
129.9624710095
 30
0.0
 11
213.0642248414
 21
125.9909595114
 31
0.0
  0
LINE
  5
19A
330
1F
100
AcDbEntity
  8
0
  6
HIDDEN
 62
     7
370
     0
100
AcDbLine
 10
196.4560145609
 20
108.0457006332
 30
0.0
 11
196.4560145609
 21
102.3494486448
 31
0.0
  0
LINE
  5
19B
330
1F
100
AcDbEntity
  8
0
  6
HIDDEN
 62
     7
370
     0
100
AcDbLine
 10
201.4560153805
 20
102.3494486448
 30
0.0
 11
201.4560153805
 21
108.0452708279
 31
0.0
  0
LINE
  5
19C
330
1F
100
AcDbEntity
  8
0
  6
HIDDEN
 62
     7
370
     0
100
AcDbLine
 10
225.9317351602
 20
140.8034979117
 30
0.0
 11
224.9593077324
 21
139.84584126
 31
0.0
  0
LINE
  5
19D
330
1F
100
AcDbEntity
  8
0
  6
HIDDEN
 62
     7
370
     0
100
AcDbLine
 10
229.4500185274
 20
135.285853104
 30
0.0
 11
230.4224496804
 21
136.2435097557
 31
0.0
  0
LINE
  5
19E
330
1F
100
AcDbEntity
  8
0
  6
HIDDEN
 62
     7
370
     0
100
AcDbLine
 10
224.4422039114
 20
137.8457198602
 30
0.0
 11
220.6566942953
 21
133.0762716693
 31
0.0
  0
LINE
  5
19F
330
1F
100
AcDbEntity
  8
0
  6
HIDDEN
 62
     7
370
     0
100
AcDbLine
 10
195.9560144789
 20
102.185822719
 30
0.0
 11
195.9560144789
 21
98.3733671469
 31
0.0
  0
LINE
  5
1A0
330
1F
100
AcDbEntity
  8
0
  6
HIDDEN
 62
     7
370
     0
100
AcDbLine
 10
201.9560145311
 20
98.3757913795
 30
0.0
 11
201.9560145311
 21
102.185822719
 31
0.0
  0
LINE
  5
1A1
330
1F
100
AcDbEntity
  8
VERMASSUNG
  6
CENTERX2
100
AcDbLine
 10
147.1197751348
 20
111.9893255395
 30
0.0
 11
240.9560148142
 21
111.9893255395
 31
0.0
  0
LINE
  5
1A2
330
1F
100
AcDbEntity
  8
VERMASSUNG
  6
CENTERX2
100
AcDbLine
 10
240.9560148142
 20
146.9893255395
 30
0.0
 11
240.9560148142
 21
111.9893255395
 31
0.0
  0
LINE
  5
1A3
330
1F
100
AcDbEntity
  8
VERMASSUNG
  6
CENTERX2
100
AcDbLine
 10
240.9560148142
 20
146.9893255395
 30
0.0
 11
251.1137569384
 21
146.9893255395
 31
0.0
  0
LINE
  5
1A4
330
1F
100
AcDbEntity
  8
VERMASSUNG
100
AcDbLine
 10
240.9560148142
 20
146.9893255395
 30
0.0
 11
240.9560148142
 21
156.1664578074
 31
0.0
  0
DIMENSION
  5
1A5
330
1F
100
AcDbEntity
  8
VERMASSUNG
100
AcDbDimension
  2
_D
 10
226.2738796341
 20
146.2413994087
 30
0.0
 11
233.3500995925
 21
154.2295990185
 31
0.0
 70
   162
  1
<>
 71
     1
 42
-1.0
  3
SLDDIMSTYLE0
100
AcDb2LineAngularDimension
 13
240.9560148142
 23
156.1664578074
 33
0.0
 14
240.9560148142
 24
146.9893255395
 34
0.0
 15
240.531182206
 25
146.9904955293
 35
0.0
 16
233.3500995925
 26
154.2295990185
 36
0.0
  0
DIMENSION
  5
1AF
330
1F
100
AcDbEntity
  8
VERMASSUNG
100
AcDbDimension
  2
_D_1
 10
251.1025517961
 20
111.9893255395
 30
0.0
 11
251.1025517961
 21
129.4893255395
 31
0.0
 70
   160
  1
<>
 71
     2
 42
-1.0
  3
SLDDIMSTYLE1
100
AcDbAlignedDimension
 13
240.9560148142
 23
146.9893255395
 33
0.0
 14
240.9560148142
 24
111.9893255395
 34
0.0
 50
90.0
100
AcDbRotatedDimension
  0
DIMENSION
  5
1BC
330
1F
100
AcDbEntity
  8
VERMASSUNG
100
AcDbDimension
  2
_D_2
 10
240.9560148142
 20
161.4213365767
 30
0.0
 11
210.9560148142
 21
161.4213365767
 31
0.0
 70
   160
  1
<>
 71
     2
 42
-1.0
  3
SLDDIMSTYLE1
100
AcDbAlignedDimension
 13
180.9560148142
 23
136.6893255395
 33
0.0
 14
240.9560148142
 24
146.9893255395
 34
0.0
100
AcDbRotatedDimension
  0
DIMENSION
  5
1C8
330
1F
100
AcDbEntity
  8
VERMASSUNG
100
AcDbDimension
  2
_D_3
 10
240.9560148142
 20
169.353142242
 30
0.0
 11
195.9560148142
 21
169.353142242
 31
0.0
 70
   160
  1
<>
 71
     2
 42
-1.0
  3
SLDDIMSTYLE2
100
AcDbAlignedDimension
 13
150.9560148142
 23
127.9826513776
 33
0.0
 14
240.9560148142
 24
146.9893255395
 34
0.0
100
AcDbRotatedDimension
  0
DIMENSION
  5
1D3
330
1F
100
AcDbEntity
  8
VERMASSUNG
100
AcDbDimension
  2
_D_4
 10
142.9643906578
 20
86.9893255395
 30
0.0
 11
142.9643906578
 21
111.9893255395
 31
0.0
 70
   160
  1
PSC%%c<>
 71
     2
 42
-1.0
  3
SLDDIMSTYLE2
100
AcDbAlignedDimension
 13
181.2560148142
 23
136.9893255395
 33
0.0
 14
181.2560148142
 24
86.9893255395
 34
0.0
 50
90.0
100
AcDbRotatedDimension
  0
LINE
  5
1DF
330
1F
100
AcDbEntity
  8
0
  6
Continuous
 62
     7
370
    15
100
AcDbLine
 10
87.1239838793
 20
145.9049383861
 30
0.0
 11
80.9654597229
 21
146.9908493322
 31
0.0
  0
LINE
  5
1E0
330
1F
100
AcDbEntity
  8
0
  6
Continuous
 62
     7
370
    15
100
AcDbLine
 10
78.6098133444
 20
144.85399674
 30
0.0
 11
78.1601112008
 21
144.287257151
 31
0.0
  0
SPLINE
  5
1E1
330
1F
100
AcDbEntity
  8
0
  6
Continuous
 62
     7
370
    15
100
AcDbSpline
210
0.0
220
0.0
230
1.0
 70
     8
 71
     3
 72
    10
 73
     6
 74
     0
 42
0.00000001
 43
0.00000001
 12
1.0
 22
0.0
 32
0.0
 13
1.0
 23
0.0
 33
0.0
 40
0.0
 40
0.0
 40
0.0
 40
0.0
 40
0.3713542303087798
 40
0.9594216515527078
 40
1.0
 40
1.0
 40
1.0
 40
1.0
 10
78.68522742274808
 20
144.9422563177413
 30
0.0
 10
78.68484092822911
 20
144.943469827231
 30
0.0
 10
78.6838423905003
 20
144.9466050204877
 30
0.0
 10
78.67557702980972
 20
144.89204450297
 30
0.0
 10
78.62900103448034
 20
144.8494274269189
 30
0.0
 10
78.62599460851061
 20
144.8466765445537
 30
0.0
  0
LINE
  5
1E2
330
1F
100
AcDbEntity
  8
0
  6
Continuous
 62
     7
370
    15
100
AcDbLine
 10
75.9094244472
 20
135.618378104
 30
0.0
 11
76.1564526379
 21
134.8771552306
 31
0.0
  0
SPLINE
  5
1E3
330
1F
100
AcDbEntity
  8
0
  6
Continuous
 62
     7
370
    15
100
AcDbSpline
210
0.0
220
0.0
230
1.0
 70
     8
 71
     3
 72
    11
 73
     7
 74
     0
 42
0.00000001
 43
0.00000001
 12
1.0
 22
0.0
 32
0.0
 13
1.0
 23
0.0
 33
0.0
 40
0.0
 40
0.0
 40
0.0
 40
0.0
 40
0.2371123162230212
 40
0.5521682611127967
 40
0.8974270944718467
 40
1.0
 40
1.0
 40
1.0
 40
1.0
 10
76.1640210307728
 20
134.882460044033
 30
0.0
 10
76.17665269952909
 20
134.840328365586
 30
0.0
 10
76.20606832282189
 20
134.7422154712566
 30
0.0
 10
76.197029482674
 20
134.6450540544151
 30
0.0
 10
76.18821755817787
 20
134.6053450129573
 30
0.0
 10
76.1906694313895
 20
134.6129741614933
 30
0.0
 10
76.19123101677405
 20
134.6147215676374
 30
0.0
  0
LINE
  5
1E4
330
1F
100
AcDbEntity
  8
0
  6
Continuous
 62
     7
370
    15
100
AcDbLine
 10
74.7111252181
 20
133.3156085324
 30
0.0
 11
75.0146171681
 21
133.2620947373
 31
0.0
  0
LINE
  5
1E5
330
1F
100
AcDbEntity
  8
0
  6
Continuous
 62
     7
370
    15
100
AcDbLine
 10
89.7129893906
 20
145.3535283667
 30
0.0
 11
87.1516986422
 21
145.8051527602
 31
0.0
  0
LINE
  5
1E6
330
1F
100
AcDbEntity
  8
0
  6
Continuous
 62
     7
370
    15
100
AcDbLine
 10
89.9710523568
 20
144.9922608894
 30
0.0
 11
89.7404224284
 21
145.332782225
 31
0.0
  0
LINE
  5
1E7
330
1F
100
AcDbEntity
  8
0
  6
Continuous
 62
     7
370
    15
100
AcDbLine
 10
86.3347075551
 20
132.4948060077
 30
0.0
 11
86.6470959641
 21
132.720862211
 31
0.0
  0
LINE
  5
1E8
330
1F
100
AcDbEntity
  8
0
  6
Continuous
 62
     7
370
    15
100
AcDbLine
 10
78.4658737152
 20
141.7916218501
 30
0.0
 11
78.3777373049
 21
141.8032633823
 31
0.0
  0
LINE
  5
1E9
330
1F
100
AcDbEntity
  8
0
  6
Continuous
 62
     7
370
    15
100
AcDbLine
 10
74.7170335285
 20
133.3159642977
 30
0.0
 11
77.4018479183
 21
134.065060572
 31
0.0
  0
ARC
  5
1EA
330
1F
100
AcDbEntity
  8
0
  6
Continuous
 62
     7
370
    15
100
AcDbCircle
 10
75.5705071066
 20
133.5625753109
 30
0.0
 40
0.8883885075884561
100
AcDbArc
 50
156.3903943937
 51
196.1166389044
  0
LINE
  5
1EB
330
1F
100
AcDbEntity
  8
0
  6
Continuous
 62
     7
370
    15
100
AcDbLine
 10
78.187081604
 20
146.0566769105
 30
0.0
 11
74.7564806275
 21
133.9183772665
 31
0.0
  0
ARC
  5
1EC
330
1F
100
AcDbEntity
  8
0
  6
Continuous
 62
     7
370
    15
100
AcDbCircle
 10
78.5213784656
 20
146.0112027461
 30
0.0
 40
0.3373755938201689
100
AcDbArc
 50
136.9751931875
 51
172.2536417861
  0
LINE
  5
1ED
330
1F
100
AcDbEntity
  8
0
  6
Continuous
 62
     7
370
    15
100
AcDbLine
 10
80.9595518708
 20
146.9904954296
 30
0.0
 11
78.2747372191
 21
146.2413991553
 31
0.0
  0
ARC
  5
1EE
330
1F
100
AcDbEntity
  8
0
  6
Continuous
 62
     7
370
    15
100
AcDbCircle
 10
80.1060719894
 20
146.7438848685
 30
0.0
 40
0.8883944376623802
100
AcDbArc
 50
336.3905297395
 51
16.1164980461
  0
LINE
  5
1EF
330
1F
100
AcDbEntity
  8
0
  6
Continuous
 62
     7
370
    15
100
AcDbLine
 10
77.4895037662
 20
134.2497828168
 30
0.0
 11
80.9201047428
 21
146.3880824608
 31
0.0
  0
ARC
  5
1F0
330
1F
100
AcDbEntity
  8
0
  6
Continuous
 62
     7
370
    15
100
AcDbCircle
 10
77.1552209211
 20
134.2952506409
 30
0.0
 40
0.3373608506393699
100
AcDbArc
 50
316.9743291717
 51
352.2543879124
  0
ARC
  5
1F1
330
1F
100
AcDbEntity
  8
0
  6
Continuous
 62
     7
370
    15
100
AcDbCircle
 10
80.1455683131
 20
146.7365374158
 30
0.0
 40
0.8439750883375697
100
AcDbArc
 50
336.3904904861
 51
16.1165612166
  0
LINE
  5
1F2
330
1F
100
AcDbEntity
  8
0
  6
Continuous
 62
     7
370
    15
100
AcDbLine
 10
80.9563743001
 20
146.9708184463
 30
0.0
 11
78.2715595465
 21
146.2217221719
 31
0.0
  0
ARC
  5
1F3
330
1F
100
AcDbEntity
  8
0
  6
Continuous
 62
     7
370
    15
100
AcDbCircle
 10
78.5058755246
 20
146.0030326765
 30
0.0
 40
0.3205137641125729
100
AcDbArc
 50
136.9756420026
 51
172.2534880318
  0
LINE
  5
1F4
330
1F
100
AcDbEntity
  8
0
  6
Continuous
 62
     7
370
    15
100
AcDbLine
 10
78.1882867354
 20
146.0462349218
 30
0.0
 11
74.7576857589
 21
133.9079352778
 31
0.0
  0
ARC
  5
1F5
330
1F
100
AcDbEntity
  8
0
  6
Continuous
 62
     7
370
    15
100
AcDbCircle
 10
75.5310111432
 20
133.5699230854
 30
0.0
 40
0.843969426189875
100
AcDbArc
 50
156.3903798108
 51
196.11659535
  0
LINE
  5
1F6
330
1F
100
AcDbEntity
  8
0
  6
Continuous
 62
     7
370
    15
100
AcDbLine
 10
74.7202107355
 20
133.3356431437
 30
0.0
 11
77.4050255909
 21
134.084739418
 31
0.0
  0
ARC
  5
1F7
330
1F
100
AcDbEntity
  8
0
  6
Continuous
 62
     7
370
    15
100
AcDbCircle
 10
77.1707305056
 20
134.3034194577
 30
0.0
 40
0.3204920385240531
100
AcDbArc
 50
316.9743293214
 51
352.2543296258
  0
LINE
  5
1F8
330
1F
100
AcDbEntity
  8
0
  6
Continuous
 62
     7
370
    15
100
AcDbLine
 10
77.4882984019
 20
134.2602248055
 30
0.0
 11
80.9188995386
 21
146.3985244495
 31
0.0
  0
ARC
  5
1F9
330
1F
100
AcDbEntity
  8
0
  6
Continuous
 62
     7
370
    15
100
AcDbCircle
 10
86.1778703477
 20
145.6730362223
 30
0.0
 40
0.9741198223494165
100
AcDbArc
 50
337.6216141671
 51
13.7722619499
  0
LINE
  5
1FA
330
1F
100
AcDbEntity
  8
0
  6
Continuous
 62
     7
370
    15
100
AcDbLine
 10
83.6480277262
 20
133.1638681454
 30
0.0
 11
87.0786289356
 21
145.3021677893
 31
0.0
  0
LINE
  5
1FB
330
1F
100
AcDbEntity
  8
0
  6
Continuous
 62
     7
370
    15
100
AcDbLine
 10
78.6388554748
 20
145.3540536326
 30
0.0
 11
78.4239635009
 21
145.8103122872
 31
0.0
  0
ARC
  5
1FC
330
1F
100
AcDbEntity
  8
0
  6
Continuous
 62
     7
370
    15
100
AcDbCircle
 10
77.5747761383
 20
144.12692618
 30
0.0
 40
2.220970631401198
100
AcDbArc
 50
336.390404808
 51
16.1166104292
  0
LINE
  5
1FD
330
1F
100
AcDbEntity
  8
0
  6
Continuous
 62
     7
370
    15
100
AcDbLine
 10
77.6898584932
 20
136.4440533084
 30
0.0
 11
79.6098419137
 21
143.2374219161
 31
0.0
  0
LINE
  5
1FE
330
1F
100
AcDbEntity
  8
0
  6
Continuous
 62
     7
370
    15
100
AcDbLine
 10
75.9681252434
 20
135.563005389
 30
0.0
 11
77.4707192227
 21
135.9822476965
 31
0.0
  0
ARC
  5
1FF
330
1F
100
AcDbEntity
  8
0
  6
Continuous
 62
     7
370
    15
100
AcDbCircle
 10
78.1018191866
 20
136.1795316381
 30
0.0
 40
2.220980517462845
100
AcDbArc
 50
156.3904625304
 51
196.1165354876
  0
LINE
  5
200
330
1F
100
AcDbEntity
  8
0
  6
Continuous
 62
     7
370
    15
100
AcDbLine
 10
77.9867266442
 20
143.8624064189
 30
0.0
 11
76.0667434565
 21
137.0690378112
 31
0.0
  0
ARC
  5
201
330
1F
100
AcDbEntity
  8
0
  6
Continuous
 62
     7
370
    15
100
AcDbCircle
 10
78.8224428719
 20
143.7487329996
 30
0.0
 40
0.8434116784752436
100
AcDbArc
 50
136.9745762144
 51
172.2542116034
  0
LINE
  5
202
330
1F
100
AcDbEntity
  8
0
  6
Continuous
 62
     7
370
    15
100
AcDbLine
 10
79.7084597775
 20
144.7434524757
 30
0.0
 11
78.2058659147
 21
144.3242120308
 31
0.0
  0
ARC
  5
203
330
1F
100
AcDbEntity
  8
0
  6
Continuous
 62
     7
370
    15
100
AcDbCircle
 10
76.8541328899
 20
136.5577311767
 30
0.0
 40
0.8434215681908696
100
AcDbArc
 50
316.9747898465
 51
352.2539979714
  0
LWPOLYLINE
  5
204
330
1F
100
AcDbEntity
  8
0
  6
Continuous
 62
     7
370
    15
100
AcDbPolyline
 90
       29
 70
   128
 43
0.0
 10
77.9937653474
 20
138.8061779302
 10
78.1254417866
 20
139.3196477306
 10
78.2427195131
 20
139.8749152881
 10
78.3397176906
 20
140.4441396457
 10
78.411572254
 20
140.9987776291
 10
78.4546801492
 20
141.5110143584
 10
78.4668797765
 20
141.9551676822
 10
78.4475592568
 20
142.3089640898
 10
78.3976878643
 20
142.5546618861
 10
78.3197659671
 20
142.6799433988
 10
78.2177009292
 20
142.6785240632
 10
78.0966108337
 20
142.5504746598
 10
77.9625674381
 20
142.3022194517
 10
77.8222925633
 20
141.9462046337
 10
77.68281979
 20
141.5002817971
 10
77.5511433508
 20
140.9868119967
 10
77.4338656243
 20
140.4315444392
 10
77.3368674468
 20
139.8623200816
 10
77.2650131162
 20
139.3076820982
 10
77.221905221
 20
138.7954453689
 10
77.2097055938
 20
138.3512920451
 10
77.2290258806
 20
137.9974956375
 10
77.2788972731
 20
137.7517978412
 10
77.3568191703
 20
137.6265163285
 10
77.4588842082
 20
137.6279356641
 10
77.5799743037
 20
137.7559850675
 10
77.7140176992
 20
138.0042402756
 10
77.8542925741
 20
138.3602550936
 10
77.9937653474
 20
138.8061779302
  0
ARC
  5
205
330
1F
100
AcDbEntity
  8
0
  6
Continuous
 62
     7
370
    15
100
AcDbCircle
 10
83.2567531862
 20
133.229391454
 30
0.0
 40
0.3967229129129602
100
AcDbArc
 50
321.5584818553
 51
350.4933898006
  0
LINE
  5
206
330
1F
100
AcDbEntity
  8
0
  6
Continuous
 62
     7
370
    15
100
AcDbLine
 10
76.0732608519
 20
134.6618073744
 30
0.0
 11
74.9933625243
 21
133.6720126432
 31
0.0
  0
LINE
  5
207
330
1F
100
AcDbEntity
  8
0
  6
Continuous
 62
     7
370
    15
100
AcDbLine
 10
76.0732608519
 20
134.6618073744
 30
0.0
 11
76.1980515576
 21
134.6966258001
 31
0.0
  0
SPLINE
  5
208
330
1F
100
AcDbEntity
  8
0
  6
Continuous
 62
     7
370
    15
100
AcDbSpline
210
0.0
220
0.0
230
1.0
 70
     8
 71
     3
 72
    10
 73
     6
 74
     0
 42
0.00000001
 43
0.00000001
 12
1.0
 22
0.0
 32
0.0
 13
1.0
 23
0.0
 33
0.0
 40
0.0
 40
0.0
 40
0.0
 40
0.0
 40
0.4996427606926545
 40
0.9986984307102651
 40
1.0
 40
1.0
 40
1.0
 40
1.0
 10
78.63885547477412
 20
145.3540536326236
 30
0.0
 10
78.66131602582351
 20
145.2866989725325
 30
0.0
 10
78.70621073630589
 20
145.1520687954821
 30
0.0
 10
78.70512935569487
 20
145.0075782111544
 30
0.0
 10
78.67413380976157
 20
144.9493517222599
 30
0.0
 10
78.6740531816672
 20
144.9492002588576
 30
0.0
  0
LINE
  5
209
330
1F
100
AcDbEntity
  8
0
  6
Continuous
 62
     7
370
    15
100
AcDbLine
 10
76.1443701244
 20
134.9134078932
 30
0.0
 11
76.0732608519
 21
134.6618073744
 31
0.0
  0
LINE
  5
20A
330
1F
100
AcDbEntity
  8
0
  6
Continuous
 62
     7
370
    15
100
AcDbLine
 10
83.7217868443
 20
133.4248470825
 30
0.0
 11
86.8064447909
 21
144.3391169173
 31
0.0
  0
LINE
  5
20B
330
1F
100
AcDbEntity
  8
0
  6
Continuous
 62
     7
370
    15
100
AcDbLine
 10
86.5149440847
 20
132.932337628
 30
0.0
 11
89.5996027298
 21
143.8466074628
 31
0.0
  0
LINE
  5
20C
330
1F
100
AcDbEntity
  8
0
  6
Continuous
 62
     7
370
    15
100
AcDbLine
 10
89.8724783815
 20
143.9519363207
 30
0.0
 11
86.9997896857
 21
133.7876698685
 31
0.0
  0
ARC
  5
20D
330
1F
100
AcDbEntity
  8
0
  6
Continuous
 62
     7
370
    15
100
AcDbCircle
 10
87.3477515949
 20
144.7737718879
 30
0.0
 40
2.435255100607593
100
AcDbArc
 50
337.6213529171
 51
13.7725442234
  0
LWPOLYLINE
  5
20E
330
1F
100
AcDbEntity
  8
0
  6
Continuous
 62
     7
370
    15
100
AcDbPolyline
 90
        3
 70
   128
 43
0.0
 10
89.9710523568
 20
144.9922608894
 10
89.9722444497
 20
144.9904317719
 10
89.9901221178
 20
144.9381324214
  0
LWPOLYLINE
  5
20F
330
1F
100
AcDbEntity
  8
0
  6
Continuous
 62
     7
370
    15
100
AcDbPolyline
 90
        3
 70
   128
 43
0.0
 10
89.9515970282
 20
144.3054142159
 10
89.9154421545
 20
144.1229792994
 10
89.8724783815
 20
143.9519363207
  0
ARC
  5
210
330
1F
100
AcDbEntity
  8
0
  6
Continuous
 62
     7
370
    15
100
AcDbCircle
 10
85.2156679298
 20
133.2215564954
 30
0.0
 40
1.331077037603906
100
AcDbArc
 50
326.9393560285
 51
347.4505676597
  0
LWPOLYLINE
  5
211
330
1F
100
AcDbEntity
  8
0
  6
Continuous
 62
     7
370
    15
100
AcDbPolyline
 90
       34
 70
   128
 43
0.0
 10
74.4505867965
 20
130.4891451013
 10
74.6104250334
 20
130.8553802532
 10
74.7621910318
 20
131.1120918703
 10
74.9004002332
 20
131.2500002545
 10
75.0200570233
 20
131.2641209674
 10
75.1168372713
 20
131.1539436442
 10
75.1872424639
 20
130.9234506202
 10
75.2287277624
 20
130.5809716445
 10
75.2397946685
 20
130.1388877195
 10
75.220042248
 20
129.61317289
 10
75.170185291
 20
129.0228317243
 10
75.0920249752
 20
128.3891970974
 10
74.9883869335
 20
127.7351739568
 10
74.8630160138
 20
127.0843974066
 10
74.7204444974
 20
126.4603889299
 10
74.5658244609
 20
125.8857023653
 10
74.4047447711
 20
125.3811080691
 10
74.2430271253
 20
124.9648431999
 10
74.0865160383
 20
124.6519532737
 10
73.9408688292
 20
124.4537464094
 10
73.811349333
 20
124.3773863402
 10
73.7026388429
 20
124.4256325749
 10
73.6186661429
 20
124.5967426089
 10
73.5624664135
 20
124.884531529
 10
73.5360704034
 20
125.2785973933
 10
73.540433184
 20
125.7646974859
 10
73.5753959648
 20
126.3252633375
 10
73.6396958723
 20
126.9400349569
 10
73.7310083255
 20
127.5867928502
 10
73.8460336484
 20
128.2421598893
 10
73.980614417
 20
128.88245161
 10
74.1298858679
 20
129.4845255774
 10
74.2884537808
 20
130.0266205084
 10
74.4505867965
 20
130.4891451013
  0
LWPOLYLINE
  5
212
330
1F
100
AcDbEntity
  8
0
  6
Continuous
 62
     7
370
    15
100
AcDbPolyline
 90
       26
 70
   128
 43
0.0
 10
74.4233749479
 20
129.3473808777
 10
74.5431188166
 20
129.6107104731
 10
74.6530591182
 20
129.7618399125
 10
74.7462877675
 20
129.7912715685
 10
74.8169467456
 20
129.6971576971
 10
74.8605964377
 20
129.4854103339
 10
74.8744940988
 20
129.1693343532
 10
74.8577666141
 20
128.7687911403
 10
74.8114649809
 20
128.3089487565
 10
74.7384981855
 20
127.8187005532
 10
74.6434515945
 20
127.328848162
 10
74.5322968483
 20
126.8701736566
 10
74.4120188661
 20
126.4714958829
 10
74.2901739336
 20
126.1578655553
 10
74.1744193852
 20
125.9489894596
 10
74.072027453
 20
125.8579908621
 10
73.9894326448
 20
125.8905899462
 10
73.9318238243
 20
126.0447359395
 10
73.902821508
 20
126.3107440186
 10
73.9042473629
 20
126.6719006684
 10
73.9360124476
 20
127.1055132833
 10
73.9961209379
 20
127.5843350899
 10
74.0807949237
 20
128.0782806438
 10
74.1847151562
 20
128.5563136202
 10
74.3013512015
 20
128.9883970034
 10
74.4233749479
 20
129.3473808777
  0
SPLINE
  5
213
330
1F
100
AcDbEntity
  8
0
  6
Continuous
 62
     7
370
    15
100
AcDbSpline
210
0.0
220
0.0
230
1.0
 70
     8
 71
     3
 72
     9
 73
     5
 74
     0
 42
0.00000001
 43
0.00000001
 12
1.0
 22
0.0
 32
0.0
 13
1.0
 23
0.0
 33
0.0
 40
0.0
 40
0.0
 40
0.0
 40
0.0
 40
0.7499590518749871
 40
1.0
 40
1.0
 40
1.0
 40
1.0
 10
74.85363806109535
 20
128.8090335887736
 30
0.0
 10
74.77653062368991
 20
128.6927091934765
 30
0.0
 10
74.67371509367842
 20
128.5376015312564
 30
0.0
 10
74.50570390687129
 20
128.4108772316977
 30
0.0
 10
74.46369423042643
 20
128.3791909676856
 30
0.0
  0
SPLINE
  5
214
330
1F
100
AcDbEntity
  8
0
  6
Continuous
 62
     7
370
    15
100
AcDbSpline
210
0.0
220
0.0
230
1.0
 70
     8
 71
     3
 72
    10
 73
     6
 74
     0
 42
0.00000001
 43
0.00000001
 12
1.0
 22
0.0
 32
0.0
 13
1.0
 23
0.0
 33
0.0
 40
0.0
 40
0.0
 40
0.0
 40
0.0
 40
0.4391160821138128
 40
0.7513666847621832
 40
1.0
 40
1.0
 40
1.0
 40
1.0
 10
74.46369423042643
 20
128.3791909676856
 30
0.0
 10
74.52930352176901
 20
128.1206103333717
 30
0.0
 10
74.64156685653091
 20
127.6781558620783
 30
0.0
 10
74.48114742558192
 20
127.0920314700344
 30
0.0
 10
74.30436717634484
 20
126.8173920091809
 30
0.0
 10
74.22600254859435
 20
126.6956475314564
 30
0.0
  0
LINE
  5
215
330
1F
100
AcDbEntity
  8
0
  6
Continuous
 62
     7
370
    15
100
AcDbLine
 10
74.2260025486
 20
126.6956475315
 30
0.0
 11
74.4144570686
 21
126.5072176915
 31
0.0
  0
LINE
  5
216
330
1F
100
AcDbEntity
  8
0
  6
Continuous
 62
     7
370
    15
100
AcDbLine
 10
74.4700956761
 20
126.65260739
 30
0.0
 11
74.2260025486
 21
126.6956475315
 31
0.0
  0
LINE
  5
217
330
1F
100
AcDbEntity
  8
0
  6
Continuous
 62
     7
370
    15
100
AcDbLine
 10
74.8125569567
 20
128.3176771116
 30
0.0
 11
74.4636942304
 21
128.3791909677
 31
0.0
  0
ELLIPSE
  5
218
330
1F
100
AcDbEntity
  8
0
  6
Continuous
 62
     7
370
    15
100
AcDbEllipse
 10
77.9717990159
 20
139.4864717127
 30
0.0
 11
0.4089826913515537
 21
2.316322506802891
 31
0.0
210
0.0
220
0.0
230
1.0
 40
0.1735685188
 41
6.045086366096233
 42
7.385751394916997
  0
SPLINE
  5
219
330
1F
100
AcDbEntity
  8
0
  6
Continuous
 62
     7
370
    15
100
AcDbSpline
210
0.0
220
0.0
230
1.0
 70
     8
 71
     3
 72
    25
 73
    21
 74
     0
 42
0.00000001
 43
0.00000001
 12
1.0
 22
0.0
 32
0.0
 13
1.0
 23
0.0
 33
0.0
 40
0.0
 40
0.0
 40
0.0
 40
0.0
 40
0.0233108620835838
 40
0.0467463048815557
 40
0.0703084233414717
 40
0.0939992788056181
 40
0.1178208991964752
 40
0.1772168392029928
 40
0.2375311829129709
 40
0.2978894117102578
 40
0.3592807068873776
 40
0.4831371554584802
 40
0.6091641911968806
 40
0.6725744630262152
 40
0.7373724741027149
 40
0.8017645989860473
 40
0.8676833328184695
 40
0.9110396015127351
 40
0.955144274926382
 40
1.0
 40
1.0
 40
1.0
 40
1.0
 10
90.03491956406452
 20
144.9490306814885
 30
0.0
 10
90.19134398370929
 20
144.8936343676519
 30
0.0
 10
90.50502880520649
 20
144.7825456843319
 30
0.0
 10
90.97211450933301
 20
144.6065586821927
 30
0.0
 10
91.43810398205821
 20
144.4231704291225
 30
0.0
 10
91.90254556792631
 20
144.2317190708086
 30
0.0
 10
92.59493059987726
 20
143.9335148362652
 30
0.0
 10
93.50960500624451
 20
143.5093279411055
 30
0.0
 10
94.62871041311483
 20
142.9362472167539
 30
0.0
 10
95.73015841778297
 20
142.3170745316206
 30
0.0
 10
97.17368529267422
 20
141.4304802144251
 30
0.0
 10
98.9199025827136
 20
140.2126256852395
 30
0.0
 10
100.559056322353
 20
138.8730979023871
 30
0.0
 10
101.8144090641315
 20
137.7243247352654
 30
0.0
 10
102.7270587058059
 20
136.8240962462245
 30
0.0
 10
103.6120743363146
 20
135.8835228583926
 30
0.0
 10
104.3644706777309
 20
135.0222976010368
 30
0.0
 10
105.0021591189326
 20
134.2448385999684
 30
0.0
 10
105.5353838486334
 20
133.563858846525
 30
0.0
 10
105.8780711445132
 20
133.0969929730237
 30
0.0
 10
106.0508613679338
 20
132.8615892695317
 30
0.0
  0
LINE
  5
21A
330
1F
100
AcDbEntity
  8
0
  6
Continuous
 62
     7
370
    15
100
AcDbLine
 10
106.0508609421
 20
132.8615887773
 30
0.0
 11
105.8297686882
 21
132.5169733477
 31
0.0
  0
SPLINE
  5
21B
330
1F
100
AcDbEntity
  8
0
  6
Continuous
 62
     7
370
    15
100
AcDbSpline
210
0.0
220
0.0
230
1.0
 70
     8
 71
     3
 72
    25
 73
    21
 74
     0
 42
0.00000001
 43
0.00000001
 12
1.0
 22
0.0
 32
0.0
 13
1.0
 23
0.0
 33
0.0
 40
0.0
 40
0.0
 40
0.0
 40
0.0
 40
0.0266457473498256
 40
0.0532047129982343
 40
0.079681648134887
 40
0.1060813482389045
 40
0.1324086509941833
 40
0.1978438141581992
 40
0.2627864092435315
 40
0.3271671240295804
 40
0.391036678150805
 40
0.5170795735299176
 40
0.6409245998833216
 40
0.7020300138031456
 40
0.7626346478767833
 40
0.8226920467509289
 40
0.882277261217696
 40
0.9217101728742256
 40
0.9609405478128519
 40
1.0
 40
1.0
 40
1.0
 40
1.0
 10
105.8297679456556
 20
132.5169737851113
 30
0.0
 10
105.7288093913747
 20
132.6554484428322
 30
0.0
 10
105.5272210915715
 20
132.9319467644908
 30
0.0
 10
105.2169750639621
 20
133.3413815698732
 30
0.0
 10
104.9016142903149
 20
133.7460254107824
 30
0.0
 10
104.5805403292505
 20
134.1455533025579
 30
0.0
 10
104.0919235272747
 20
134.7357066138389
 30
0.0
 10
103.421531448702
 20
135.5043773564485
 30
0.0
 10
102.5489650565156
 20
136.4331571642034
 30
0.0
 10
101.6447853099411
 20
137.3266524100641
 30
0.0
 10
100.4044714498137
 20
138.4638513055595
 30
0.0
 10
98.78260757584408
 20
139.7919169595622
 30
0.0
 10
97.05858952488683
 20
140.9972139139402
 30
0.0
 10
95.63230059640279
 20
141.8758986092142
 30
0.0
 10
94.54539192200795
 20
142.4889354041393
 30
0.0
 10
93.43801634567515
 20
143.0580876861833
 30
0.0
 10
92.4358324158807
 20
143.5249059616536
 30
0.0
 10
91.54762048259576
 20
143.9033207242026
 30
0.0
 10
90.7808190929312
 20
144.2082034445066
 30
0.0
 10
90.26199079692441
 20
144.3947347344771
 30
0.0
 10
90.0031430032173
 20
144.4877967614287
 30
0.0
  0
LINE
  5
21C
330
1F
100
AcDbEntity
  8
0
  6
Continuous
 62
     7
370
    15
100
AcDbLine
 10
90.0031429387
 20
144.4877969784
 30
0.0
 11
90.034919665
 21
144.9490288955
 31
0.0
  0
LINE
  5
21D
330
1F
100
AcDbEntity
  8
0
  6
Continuous
 62
     7
370
    15
100
AcDbLine
 10
90.0031429387
 20
144.4877969784
 30
0.0
 11
89.9515970282
 21
144.3054142159
 31
0.0
  0
ARC
  5
21E
330
1F
100
AcDbEntity
  8
0
  6
Continuous
 62
     7
370
    15
100
AcDbCircle
 10
199.1670890788
 20
104.419190186
 30
0.0
 40
115.9483102593879
100
AcDbArc
 50
165.3277514267
 51
166.0159493938
  0
ELLIPSE
  5
21F
330
1F
100
AcDbEntity
  8
0
  6
Continuous
 62
     7
370
    15
100
AcDbEllipse
 10
80.0457215316
 20
110.9765304194
 30
0.0
 11
27.83681865754386
 21
30.95727638660817
 31
0.0
210
0.0
220
0.0
230
1.0
 40
0.5725048794
 41
0.6963133799439465
 42
0.6977373712008035
  0
ARC
  5
220
330
1F
100
AcDbEntity
  8
0
  6
Continuous
 62
     7
370
    15
100
AcDbCircle
 10
214.0570040562
 20
100.2726302317
 30
0.0
 40
140.4570922621782
100
AcDbArc
 50
166.0997242496
 51
170.0553239163
  0
LINE
  5
221
330
1F
100
AcDbEntity
  8
0
  6
Continuous
 62
     7
370
    15
100
AcDbLine
 10
77.7131520349
 20
134.0150187475
 30
0.0
 11
86.6551351405
 21
132.4383063924
 31
0.0
  0
SPLINE
  5
222
330
1F
100
AcDbEntity
  8
0
  6
Continuous
 62
     7
370
    15
100
AcDbSpline
210
0.0
220
0.0
230
1.0
 70
     8
 71
     3
 72
     9
 73
     5
 74
     0
 42
0.00000001
 43
0.00000001
 12
1.0
 22
0.0
 32
0.0
 13
1.0
 23
0.0
 33
0.0
 40
0.0
 40
0.0
 40
0.0
 40
0.0
 40
0.4975972562969722
 40
1.0
 40
1.0
 40
1.0
 40
1.0
 10
106.5457214509032
 20
131.5048920283122
 30
0.0
 10
106.4285532734678
 20
131.6749253813789
 30
0.0
 10
106.1930853806033
 20
132.0166341647672
 30
0.0
 10
105.9512611184537
 20
132.34966046044
 30
0.0
 10
105.8297679456557
 20
132.5169737851113
 30
0.0
  0
LINE
  5
223
330
1F
100
AcDbEntity
  8
0
  6
Continuous
 62
     7
370
    15
100
AcDbLine
 10
106.5457210548
 20
131.5048920673
 30
0.0
 11
106.5457210548
 21
119.0920548265
 31
0.0
  0
LINE
  5
224
330
1F
100
AcDbEntity
  8
0
  6
Continuous
 62
     7
370
    15
100
AcDbLine
 10
75.7438213236
 20
137.4118297112
 30
0.0
 11
75.3947904937
 21
137.3144450349
 31
0.0
  0
ARC
  5
225
330
1F
100
AcDbEntity
  8
0
  6
Continuous
 62
     7
370
    15
100
AcDbCircle
 10
79.6407565316
 20
134.508721752
 30
0.0
 40
5.08923478879151
100
AcDbArc
 50
146.5433760362
 51
195.1112769149
  0
LINE
  5
226
330
1F
100
AcDbEntity
  8
0
  6
Continuous
 62
     7
370
    15
100
AcDbLine
 10
75.7102843977
 20
124.5291742247
 30
0.0
 11
74.2273729898
 21
116.1191656005
 31
0.0
  0
LINE
  5
227
330
1F
100
AcDbEntity
  8
0
  6
Continuous
 62
     7
370
    15
100
AcDbLine
 10
74.2273729898
 20
116.1191656005
 30
0.0
 11
66.6698374457
 21
91.2950995129
 31
0.0
  0
SPLINE
  5
228
330
1F
100
AcDbEntity
  8
0
  6
Continuous
 62
     7
370
    15
100
AcDbSpline
210
0.0
220
0.0
230
1.0
 70
     8
 71
     3
 72
     8
 73
     4
 74
     0
 42
0.00000001
 43
0.00000001
 12
1.0
 22
0.0
 32
0.0
 13
1.0
 23
0.0
 33
0.0
 40
0.0
 40
0.0
 40
0.0
 40
0.0
 40
1.0
 40
1.0
 40
1.0
 40
1.0
 10
66.66983782625842
 20
91.29509901155417
 30
0.0
 10
66.66698932243891
 20
91.44641270290411
 30
0.0
 10
66.64803979467055
 20
91.55140382793415
 30
0.0
 10
66.61260563734423
 20
91.57645789226981
 30
0.0
  0
ARC
  5
229
330
1F
100
AcDbEntity
  8
0
  6
Continuous
 62
     7
370
    15
100
AcDbCircle
 10
81.0457215316
 20
111.9893255395
 30
0.0
 40
25.0
100
AcDbArc
 50
233.2307257341
 51
234.7374090638
  0
ARC
  5
22A
330
1F
100
AcDbEntity
  8
0
  6
Continuous
 62
     7
370
    15
100
AcDbCircle
 10
81.0457215316
 20
111.9893255395
 30
0.0
 40
25.00000000000002
100
AcDbArc
 50
105.2625909362
 51
106.7692742659
  0
SPLINE
  5
22B
330
1F
100
AcDbEntity
  8
0
  6
Continuous
 62
     7
370
    15
100
AcDbSpline
210
0.0
220
0.0
230
1.0
 70
     8
 71
     3
 72
    10
 73
     6
 74
     0
 42
0.00000001
 43
0.00000001
 12
1.0
 22
0.0
 32
0.0
 13
1.0
 23
0.0
 33
0.0
 40
0.0
 40
0.0
 40
0.0
 40
0.0
 40
0.5
 40
0.5
 40
1.0
 40
1.0
 40
1.0
 40
1.0
 10
74.4646409492069
 20
136.1075630034329
 30
0.0
 10
74.50861931541253
 20
136.1195632655713
 30
0.0
 10
74.56512223476084
 20
136.2193181255589
 30
0.0
 10
74.68064134875031
 20
136.528845027427
 30
0.0
 10
74.73786345582724
 20
136.7325258369013
 30
0.0
 10
74.78757498146626
 20
136.9581861203997
 30
0.0
  0
SPLINE
  5
22C
330
1F
100
AcDbEntity
  8
0
  6
Continuous
 62
     7
370
    15
100
AcDbSpline
210
0.0
220
0.0
230
1.0
 70
     8
 71
     3
 72
     8
 73
     4
 74
     0
 42
0.00000001
 43
0.00000001
 12
1.0
 22
0.0
 32
0.0
 13
1.0
 23
0.0
 33
0.0
 40
0.0
 40
0.0
 40
0.0
 40
0.0
 40
1.0
 40
1.0
 40
1.0
 40
1.0
 10
74.78757498146626
 20
136.9581861203997
 30
0.0
 10
75.30083150933525
 20
139.2880605730037
 30
0.0
 10
75.816122250797
 20
141.6135083580468
 30
0.0
 10
76.33242383345329
 20
143.9367564439329
 30
0.0
  0
LWPOLYLINE
  5
22D
330
1F
100
AcDbEntity
  8
0
  6
Continuous
 62
     7
370
    15
100
AcDbPolyline
 90
       34
 70
   128
 43
0.0
 10
75.0039479367
 20
127.8250279588
 10
74.8813002042
 20
127.1724064586
 10
74.7407906361
 20
126.5433716339
 10
74.5874972686
 20
125.9606598628
 10
74.4269605398
 20
125.4453311426
 10
74.2649835206
 20
125.0160100621
 10
74.1074191078
 20
124.6882152495
 10
73.9599632702
 20
124.4737921965
 10
73.8279450357
 20
124.380492301
 10
73.7161355696
 20
124.4116860193
 10
73.6285768121
 20
124.5662473825
 10
73.5684320002
 20
124.8385893864
 10
73.5378762379
 20
125.218869814
 10
73.5380131423
 20
125.6933432755
 10
73.5688380569
 20
126.244860397
 10
73.6292371198
 20
126.853489944
 10
73.7170268453
 20
127.4972331461
 10
73.8290342174
 20
128.1528237027
 10
73.9612117081
 20
128.7965669048
 10
74.1087811671
 20
129.4051955205
 10
74.2664098411
 20
129.9567135733
 10
74.4284003645
 20
130.4311870349
 10
74.5888975121
 20
130.8114665312
 10
74.7421014726
 20
131.0838094664
 10
74.8824741363
 20
131.2383717609
 10
75.0049425892
 20
131.2695654792
 10
75.1050802551
 20
131.1762655836
 10
75.1792680144
 20
130.9618415994
 10
75.2248241238
 20
130.6340477181
 10
75.2401029363
 20
130.2047266376
 10
75.2245517119
 20
129.6893979174
 10
75.1787320382
 20
129.1066842836
 10
75.1043012037
 20
128.4776503903
 10
75.0039479367
 20
127.8250279588
  0
LINE
  5
22E
330
1F
100
AcDbEntity
  8
0
  6
Continuous
 62
     7
370
    15
100
AcDbLine
 10
74.7275006629
 20
133.1819860947
 30
0.0
 11
77.7131520349
 21
134.0150187475
 31
0.0
  0
ELLIPSE
  5
22F
330
1F
100
AcDbEntity
  8
0
  6
Continuous
 62
     7
370
    15
100
AcDbEllipse
 10
80.0457215316
 20
116.0336780504
 30
0.0
 11
27.83681865754387
 21
30.95727638660824
 31
0.0
210
0.0
220
0.0
230
1.0
 40
0.5725048794
 41
1.070381847963046
 42
1.116603780760444
  0
LINE
  5
230
330
1F
100
AcDbEntity
  8
0
  6
Continuous
 62
     7
370
    15
100
AcDbLine
 10
106.5457210548
 20
119.0920548265
 30
0.0
 11
106.5457210548
 21
111.9893255395
 31
0.0
  0
ARC
  5
231
330
1F
100
AcDbEntity
  8
0
  6
Continuous
 62
     7
370
    15
100
AcDbCircle
 10
81.0457215316
 20
111.9893255395
 30
0.0
 40
25.50000000000001
100
AcDbArc
 50
356.491910609
 51
0.0
  0
LINE
  5
232
330
1F
100
AcDbEntity
  8
0
  6
Continuous
 62
     7
370
    15
100
AcDbLine
 10
106.4979386188
 20
110.4289942172
 30
0.0
 11
74.2273729898
 21
116.1191656005
 31
0.0
  0
ARC
  5
233
330
1F
100
AcDbEntity
  8
0
  6
Continuous
 62
     7
370
    15
100
AcDbCircle
 10
81.0457215316
 20
111.9893255395
 30
0.0
 40
25.0
100
AcDbArc
 50
238.9145056024
 51
308.9416707721
  0
SPLINE
  5
234
330
1F
100
AcDbEntity
  8
0
  6
Continuous
 62
     7
370
    15
100
AcDbSpline
210
0.0
220
0.0
230
1.0
 70
     8
 71
     3
 72
    10
 73
     6
 74
     0
 42
0.00000001
 43
0.00000001
 12
1.0
 22
0.0
 32
0.0
 13
1.0
 23
0.0
 33
0.0
 40
0.0
 40
0.0
 40
0.0
 40
0.0
 40
0.5
 40
0.5
 40
1.0
 40
1.0
 40
1.0
 40
1.0
 10
66.66983782625837
 20
91.29509901155411
 30
0.0
 10
66.92832876451733
 20
91.19410698928898
 30
0.0
 10
67.17956064401011
 20
91.08351203161241
 30
0.0
 10
67.66924243767886
 20
90.84541298364002
 30
0.0
 10
67.90779947086058
 20
90.71805059999335
 30
0.0
 10
68.13780826336145
 20
90.57937983522127
 30
0.0
  0
ARC
  5
235
330
1F
100
AcDbEntity
  8
0
  6
Continuous
 62
     7
370
    15
100
AcDbCircle
 10
81.0457215316
 20
111.9893255395
 30
0.0
 40
25.50000000000001
100
AcDbArc
 50
314.763093854
 51
356.491910609
  0
SPLINE
  5
236
330
1F
100
AcDbEntity
  8
0
  6
Continuous
 62
     7
370
    15
100
AcDbSpline
210
0.0
220
0.0
230
1.0
 70
     8
 71
     3
 72
    10
 73
     6
 74
     0
 42
0.00000001
 43
0.00000001
 12
1.0
 22
0.0
 32
0.0
 13
1.0
 23
0.0
 33
0.0
 40
0.0
 40
0.0
 40
0.0
 40
0.0
 40
0.5
 40
0.5
 40
1.0
 40
1.0
 40
1.0
 40
1.0
 10
96.75894407334887
 20
92.54466978644061
 30
0.0
 10
97.0905766634371
 20
92.81266201815357
 30
0.0
 10
97.44597099687985
 20
93.05651292368779
 30
0.0
 10
98.19261669765142
 20
93.50778490139194
 30
0.0
 10
98.58585797092293
 20
93.71699166206079
 30
0.0
 10
99.00223516798776
 20
93.88370160582257
 30
0.0
  0
LINE
  5
237
330
1F
100
AcDbEntity
  8
0
  6
Continuous
 62
     7
370
    15
100
AcDbLine
 10
106.5457210548
 20
132.1608579469
 30
0.0
 11
106.5457210548
 21
131.5048920673
 31
0.0
  0
SPLINE
  5
238
330
1F
100
AcDbEntity
  8
0
  6
Continuous
 62
     7
370
    15
100
AcDbSpline
210
0.0
220
0.0
230
1.0
 70
     8
 71
     3
 72
     9
 73
     5
 74
     0
 42
0.00000001
 43
0.00000001
 12
1.0
 22
0.0
 32
0.0
 13
1.0
 23
0.0
 33
0.0
 40
0.0
 40
0.0
 40
0.0
 40
0.0
 40
0.503313675501371
 40
1.0
 40
1.0
 40
1.0
 40
1.0
 10
106.0508613679339
 20
132.8615892695316
 30
0.0
 10
106.1346408257058
 20
132.7450541567733
 30
0.0
 10
106.301096580536
 20
132.5135183999866
 30
0.0
 10
106.4645409443185
 20
132.2778910310292
 30
0.0
 10
106.5457215246256
 20
132.1608581391905
 30
0.0
  0
SPLINE
  5
239
330
1F
100
AcDbEntity
  8
0
  6
Continuous
 62
     7
370
    15
100
AcDbSpline
210
0.0
220
0.0
230
1.0
 70
     8
 71
     3
 72
    16
 73
    12
 74
     0
 42
0.00000001
 43
0.00000001
 12
1.0
 22
0.0
 32
0.0
 13
1.0
 23
0.0
 33
0.0
 40
0.0
 40
0.0
 40
0.0
 40
0.0
 40
0.1250000000000006
 40
0.1250000000000006
 40
0.2500000000000011
 40
0.2500000000000011
 40
0.5000000000000008
 40
0.5000000000000008
 40
0.7500000000000004
 40
0.7500000000000004
 40
1.0
 40
1.0
 40
1.0
 40
1.0
 10
70.37196792143929
 20
128.8414525393125
 30
0.0
 10
70.46253555060211
 20
128.6977534840684
 30
0.0
 10
70.53618538585427
 20
128.5476339289195
 30
0.0
 10
70.64920618443054
 20
128.232419690923
 30
0.0
 10
70.68850238097232
 20
128.0652846547798
 30
0.0
 10
70.75038063085067
 20
127.5619608385604
 30
0.0
 10
70.71864695016446
 20
127.2135062650971
 30
0.0
 10
70.56014331398035
 20
126.5527711067271
 30
0.0
 10
70.43338430062832
 20
126.231545525773
 30
0.0
 10
70.12062017136867
 20
125.6351828867681
 30
0.0
 10
69.93430234093745
 20
125.3564180763301
 30
0.0
 10
69.71199794613216
 20
125.0985768168595
 30
0.0
  0
SPLINE
  5
23A
330
1F
100
AcDbEntity
  8
0
  6
Continuous
 62
     7
370
    15
100
AcDbSpline
210
0.0
220
0.0
230
1.0
 70
     8
 71
     3
 72
    20
 73
    16
 74
     0
 42
0.00000001
 43
0.00000001
 12
1.0
 22
0.0
 32
0.0
 13
1.0
 23
0.0
 33
0.0
 40
0.0
 40
0.0
 40
0.0
 40
0.0
 40
0.2500000000000012
 40
0.2500000000000012
 40
0.3750000000000012
 40
0.3750000000000012
 40
0.5000000000000012
 40
0.5000000000000012
 40
0.6250000000000012
 40
0.6250000000000012
 40
0.7500000000000008
 40
0.7500000000000008
 40
0.8750000000000004
 40
0.8750000000000004
 40
1.0
 40
1.0
 40
1.0
 40
1.0
 10
71.47266955107315
 20
135.0838416802785
 30
0.0
 10
71.74952375894702
 20
135.1986022453776
 30
0.0
 10
72.01623839973342
 20
135.3033234351542
 30
0.0
 10
72.39848695426231
 20
135.4466026628199
 30
0.0
 10
72.52386495580302
 20
135.4923864091993
 30
0.0
 10
72.76145526431684
 20
135.5771792391481
 30
0.0
 10
72.87387991166506
 20
135.6162908033457
 30
0.0
 10
73.08538472139917
 20
135.6883871434631
 30
0.0
 10
73.1844741818725
 20
135.7213734921258
 30
0.0
 10
73.36789414558008
 20
135.781346818698
 30
0.0
 10
73.45189642314162
 20
135.8082178897412
 30
0.0
 10
73.59731293131823
 20
135.8540908200026
 30
0.0
 10
73.65972247330693
 20
135.8734193927843
 30
0.0
 10
73.7630637451538
 20
135.9051323803139
 30
0.0
 10
73.80414269957514
 20
135.9175605237071
 30
0.0
 10
73.83276207527848
 20
135.9261844788023
 30
0.0
  0
SPLINE
  5
23B
330
1F
100
AcDbEntity
  8
0
  6
Continuous
 62
     7
370
    15
100
AcDbSpline
210
0.0
220
0.0
230
1.0
 70
     8
 71
     3
 72
    12
 73
     8
 74
     0
 42
0.00000001
 43
0.00000001
 12
1.0
 22
0.0
 32
0.0
 13
1.0
 23
0.0
 33
0.0
 40
0.0
 40
0.0
 40
0.0
 40
0.0
 40
0.2499999999999997
 40
0.2499999999999997
 40
0.4999999999999993
 40
0.4999999999999993
 40
1.0
 40
1.0
 40
1.0
 40
1.0
 10
66.08086883127326
 20
91.96301325645814
 30
0.0
 10
66.03315958761655
 20
91.99866444344045
 30
0.0
 10
65.946679431093
 20
92.06340013317873
 30
0.0
 10
65.70306778692286
 20
92.25036529023437
 30
0.0
 10
65.55085087803526
 20
92.36892823270803
 30
0.0
 10
65.0229417506889
 20
92.79363445322706
 30
0.0
 10
64.59202902505757
 20
93.15760587837916
 30
0.0
 10
64.15120550658597
 20
93.56175575179371
 30
0.0
  0
SPLINE
  5
23C
330
1F
100
AcDbEntity
  8
0
  6
Continuous
 62
     7
370
    15
100
AcDbSpline
210
0.0
220
0.0
230
1.0
 70
     8
 71
     3
 72
    13
 73
     9
 74
     0
 42
0.00000001
 43
0.00000001
 12
1.0
 22
0.0
 32
0.0
 13
1.0
 23
0.0
 33
0.0
 40
0.0
 40
0.0
 40
0.0
 40
0.0
 40
0.2877835307862893
 40
0.4716942735546443
 40
0.6601962178053054
 40
0.8119888896300917
 40
0.9398979920234136
 40
0.9999999999999999
 40
0.9999999999999999
 40
0.9999999999999999
 40
0.9999999999999999
 10
65.29364815424788
 20
124.9643728819555
 30
0.0
 10
65.47813703367828
 20
124.9307280758158
 30
0.0
 10
65.78052524791717
 20
124.8755822432949
 30
0.0
 10
66.20056838239027
 20
124.6164354466232
 30
0.0
 10
66.54784081155161
 20
124.3696434235602
 30
0.0
 10
66.89303599253529
 20
124.1161878516973
 30
0.0
 10
67.1769650758624
 20
123.9322751067817
 30
0.0
 10
67.32067899260977
 20
123.8502049153962
 30
0.0
 10
67.36662039976227
 20
123.8239693206614
 30
0.0
  0
ELLIPSE
  5
23D
330
1F
100
AcDbEntity
  8
0
  6
Continuous
 62
     7
370
    15
100
AcDbEllipse
 10
67.9104943208
 20
126.7418022306
 30
0.0
 11
2.055430283751619
 21
2.557027882226549
 31
0.0
210
0.0
220
0.0
230
1.0
 40
0.7425888588
 41
6.033060616499302
 42
10.94920447099028
  0
ARC
  5
23E
330
1F
100
AcDbEntity
  8
0
  6
Continuous
 62
     7
370
    15
100
AcDbCircle
 10
81.0457215316
 20
111.9893255395
 30
0.0
 40
25.00000000000001
100
AcDbArc
 50
112.514800836
 51
227.485199164
  0
INSERT
  5
24A
330
1F
100
AcDbEntity
  8
VERMASSUNG
100
AcDbBlockReference
  2
SW_CENTERMARKSYMBOL_0
 10
81.0457215316
 20
111.9893255395
 30
0.0
  0
OLE2FRAME
  5
24B
330
1F
100
AcDbEntity
  8
0
100
AcDbOle2Frame
 70
     2
  3
Paintbrush-Bild
 10
13.8511154363
 20
38.264191557
 30
0.0
 11
51.6290888628
 21
31.9806341108
 31
0.0
 71
     2
 72
     0
 73
     1
 90
    12928
310
80552BED0767C5B32B40DDAF6807D121434000000000000000006FFBDDFB85D0
310
4940DDAF6807D121434000000000000000006FFBDDFB85D04940416F4BD60AFB
310
3F4000000000000000002BED0767C5B32B40416F4BD60AFB3F40000000000000
310
0000000000000100000000010000010000000100000000000100000000320000
310
D0CF11E0A1B11AE1000000000000000000000000000000003E000300FEFF0900
310
0600000000000000000000000100000001000000000000000010000002000000
310
01000000FEFFFFFF0000000000000000FFFFFFFFFFFFFFFFFFFFFFFFFFFFFFFF
310
FFFFFFFFFFFFFFFFFFFFFFFFFFFFFFFFFFFFFFFFFFFFFFFFFFFFFFFFFFFFFFFF
310
FFFFFFFFFFFFFFFFFFFFFFFFFFFFFFFFFFFFFFFFFFFFFFFFFFFFFFFFFFFFFFFF
310
FFFFFFFFFFFFFFFFFFFFFFFFFFFFFFFFFFFFFFFFFFFFFFFFFFFFFFFFFFFFFFFF
310
FFFFFFFFFFFFFFFFFFFFFFFFFFFFFFFFFFFFFFFFFFFFFFFFFFFFFFFFFFFFFFFF
310
FFFFFFFFFFFFFFFFFFFFFFFFFFFFFFFFFFFFFFFFFFFFFFFFFFFFFFFFFFFFFFFF
310
FFFFFFFFFFFFFFFFFFFFFFFFFFFFFFFFFFFFFFFFFFFFFFFFFFFFFFFFFFFFFFFF
310
FFFFFFFFFFFFFFFFFFFFFFFFFFFFFFFFFFFFFFFFFFFFFFFFFFFFFFFFFFFFFFFF
310
FFFFFFFFFFFFFFFFFFFFFFFFFFFFFFFFFFFFFFFFFFFFFFFFFFFFFFFFFFFFFFFF
310
FFFFFFFFFFFFFFFFFFFFFFFFFFFFFFFFFFFFFFFFFFFFFFFFFFFFFFFFFFFFFFFF
310
FFFFFFFFFFFFFFFFFFFFFFFFFFFFFFFFFFFFFFFFFFFFFFFFFFFFFFFFFFFFFFFF
310
FFFFFFFFFFFFFFFFFFFFFFFFFFFFFFFFFFFFFFFFFFFFFFFFFFFFFFFFFFFFFFFF
310
FFFFFFFFFFFFFFFFFFFFFFFFFFFFFFFFFFFFFFFFFFFFFFFFFFFFFFFFFFFFFFFF
310
FFFFFFFFFFFFFFFFFFFFFFFFFFFFFFFFFFFFFFFFFFFFFFFFFFFFFFFFFFFFFFFF
310
FDFFFFFFFEFFFFFFFEFFFFFFFEFFFFFF05000000060000000700000008000000
310
090000000A0000000B0000000C0000000D0000000E0000000F00000010000000
310
11000000120000001300000014000000150000001600000017000000FEFFFFFF
310
FFFFFFFFFFFFFFFFFFFFFFFFFFFFFFFFFFFFFFFFFFFFFFFFFFFFFFFFFFFFFFFF
310
FFFFFFFFFFFFFFFFFFFFFFFFFFFFFFFFFFFFFFFFFFFFFFFFFFFFFFFFFFFFFFFF
310
FFFFFFFFFFFFFFFFFFFFFFFFFFFFFFFFFFFFFFFFFFFFFFFFFFFFFFFFFFFFFFFF
310
FFFFFFFFFFFFFFFFFFFFFFFFFFFFFFFFFFFFFFFFFFFFFFFFFFFFFFFFFFFFFFFF
310
FFFFFFFFFFFFFFFFFFFFFFFFFFFFFFFFFFFFFFFFFFFFFFFFFFFFFFFFFFFFFFFF
310
FFFFFFFFFFFFFFFFFFFFFFFFFFFFFFFFFFFFFFFFFFFFFFFFFFFFFFFFFFFFFFFF
310
FFFFFFFFFFFFFFFFFFFFFFFFFFFFFFFFFFFFFFFFFFFFFFFFFFFFFFFFFFFFFFFF
310
FFFFFFFFFFFFFFFFFFFFFFFFFFFFFFFFFFFFFFFFFFFFFFFFFFFFFFFFFFFFFFFF
310
FFFFFFFFFFFFFFFFFFFFFFFFFFFFFFFFFFFFFFFFFFFFFFFFFFFFFFFFFFFFFFFF
310
FFFFFFFFFFFFFFFFFFFFFFFFFFFFFFFFFFFFFFFFFFFFFFFFFFFFFFFFFFFFFFFF
310
FFFFFFFFFFFFFFFFFFFFFFFFFFFFFFFFFFFFFFFFFFFFFFFFFFFFFFFFFFFFFFFF
310
FFFFFFFFFFFFFFFFFFFFFFFFFFFFFFFFFFFFFFFFFFFFFFFFFFFFFFFFFFFFFFFF
310
FFFFFFFFFFFFFFFFFFFFFFFFFFFFFFFFFFFFFFFFFFFFFFFFFFFFFFFFFFFFFFFF
310
52006F006F007400200045006E00740072007900000000000000000000000000
310
0000000000000000000000000000000000000000000000000000000000000000
310
16000500FFFFFFFFFFFFFFFF020000000A00030000000000C000000000000046
310
000000000000000000000000F02CFB07B538CD0103000000C000000000000000
310
01004F006C006500000000000000000000000000000000000000000000000000
310
0000000000000000000000000000000000000000000000000000000000000000
310
0A000200FFFFFFFFFFFFFFFFFFFFFFFF00000000000000000000000000000000
310
0000000000000000000000000000000000000000000000001400000000000000
310
010043006F006D0070004F0062006A0000000000000000000000000000000000
310
0000000000000000000000000000000000000000000000000000000000000000
310
120002010100000003000000FFFFFFFF00000000000000000000000000000000
310
0000000000000000000000000000000000000000010000004D00000000000000
310
01004F006C006500310030004E00610074006900760065000000000000000000
310
0000000000000000000000000000000000000000000000000000000000000000
310
1A000200FFFFFFFFFFFFFFFFFFFFFFFF00000000000000000000000000000000
310
0000000000000000000000000000000000000000040000002426000000000000
310
FEFFFFFF02000000FEFFFFFFFFFFFFFFFFFFFFFFFFFFFFFFFFFFFFFFFFFFFFFF
310
FFFFFFFFFFFFFFFFFFFFFFFFFFFFFFFFFFFFFFFFFFFFFFFFFFFFFFFFFFFFFFFF
310
FFFFFFFFFFFFFFFFFFFFFFFFFFFFFFFFFFFFFFFFFFFFFFFFFFFFFFFFFFFFFFFF
310
FFFFFFFFFFFFFFFFFFFFFFFFFFFFFFFFFFFFFFFFFFFFFFFFFFFFFFFFFFFFFFFF
310
FFFFFFFFFFFFFFFFFFFFFFFFFFFFFFFFFFFFFFFFFFFFFFFFFFFFFFFFFFFFFFFF
310
FFFFFFFFFFFFFFFFFFFFFFFFFFFFFFFFFFFFFFFFFFFFFFFFFFFFFFFFFFFFFFFF
310
FFFFFFFFFFFFFFFFFFFFFFFFFFFFFFFFFFFFFFFFFFFFFFFFFFFFFFFFFFFFFFFF
310
FFFFFFFFFFFFFFFFFFFFFFFFFFFFFFFFFFFFFFFFFFFFFFFFFFFFFFFFFFFFFFFF
310
FFFFFFFFFFFFFFFFFFFFFFFFFFFFFFFFFFFFFFFFFFFFFFFFFFFFFFFFFFFFFFFF
310
FFFFFFFFFFFFFFFFFFFFFFFFFFFFFFFFFFFFFFFFFFFFFFFFFFFFFFFFFFFFFFFF
310
FFFFFFFFFFFFFFFFFFFFFFFFFFFFFFFFFFFFFFFFFFFFFFFFFFFFFFFFFFFFFFFF
310
FFFFFFFFFFFFFFFFFFFFFFFFFFFFFFFFFFFFFFFFFFFFFFFFFFFFFFFFFFFFFFFF
310
FFFFFFFFFFFFFFFFFFFFFFFFFFFFFFFFFFFFFFFFFFFFFFFFFFFFFFFFFFFFFFFF
310
FFFFFFFFFFFFFFFFFFFFFFFFFFFFFFFFFFFFFFFFFFFFFFFFFFFFFFFFFFFFFFFF
310
FFFFFFFFFFFFFFFFFFFFFFFFFFFFFFFFFFFFFFFFFFFFFFFFFFFFFFFFFFFFFFFF
310
FFFFFFFFFFFFFFFFFFFFFFFFFFFFFFFFFFFFFFFFFFFFFFFFFFFFFFFFFFFFFFFF
310
0100000200000000000000000000000000000000000000000000000000000000
310
0000000000000000000000000000000000000000000000000000000000000000
310
0100FEFF030A0000FFFFFFFF0A00030000000000C00000000000004607000000
310
5042727573680007000000504272757368000700000050427275736800F439B2
310
7100000000000000000000000000000000000000000000000000000000000000
310
0000000000000000000000000000000000000000000000000000000000000000
310
0000000000000000000000000000000000000000000000000000000000000000
310
0000000000000000000000000000000000000000000000000000000000000000
310
0000000000000000000000000000000000000000000000000000000000000000
310
0000000000000000000000000000000000000000000000000000000000000000
310
0000000000000000000000000000000000000000000000000000000000000000
310
0000000000000000000000000000000000000000000000000000000000000000
310
0000000000000000000000000000000000000000000000000000000000000000
310
0000000000000000000000000000000000000000000000000000000000000000
310
0000000000000000000000000000000000000000000000000000000000000000
310
0000000000000000000000000000000000000000000000000000000000000000
310
20260000424D0E260000000000003E00000028000000B40200006E0000000100
310
01000000000000000000130B0000130B00000200000002000000000000FFFFFF
310
FFFFFFFFFFFFFFFFFFFFFFFFFFFFFFFFFFFFFFFFFFFFFFFFFFFFFFFFFFFFFFFF
310
FFFFFFFFFFFFFFFFFFFFFFFFFFFFFFFFFFFFFFFFFFFFFFFFFFFFFFFFFFFFFFFF
310
FFFFFFFFFFFFFFFFFFFFFFFFFFFFFFFFFFFFFFFFFFFFFFFFF000FFFFFFFFFFFF
310
FFFFFFFFFFFFFFFFFFFFFFFFFFFFFFFFFFFFFFFFFFFFFFFFFFFFFFFFFFFFFFFF
310
FFFFFFFFFFFFFFFFFFFFFFFFFFFFFFFFFFFFFFFFFFFFFFFFFFFFFFFFFFFFFFFF
310
FFFFFFFFFFFFFFFFFFFFFFFFFFFFFFFFF000FFFFFFFFFFFFFFFFFFFFFFFFFFFF
310
FFFFFFFFFFFFFFFFFFFFFFFFFFFFFFFFFFFFFFFFFFFFFFFFFFFFFFFFFFFFFFFF
310
FFFFFFFFFFFFFFFFFFFFFFFFFFFFFFFFFFFFFFFFFFFFFFFFFFFFFFFFFFFFFFFF
310
FFFFFFFFFFFFFFFFF000FFFFFFFFFFFFFFFFFFFFFFFFFFFFFFFFFFFFFFFFFFFF
310
FFFFFFFFFFFFFFFFFFFFFFFFFFFFFFFFFFFFFFFFFFFFFFFFFFFFFFFFFFFFFFFF
310
FFFFFFFFFFFFFFFFFFFFFFFFFFFFFFFFFFFFFFFFFFFFFFFFFFFFFFFFFFFFFFFF
310
F000FFFFFFFFFFFFFFFFFFFFFFFFFFFFFFFFFFFFFFFFFFFFFFFFFFFFFFFFFFFF
310
FFFFFFFFFFFFFFFFFFFFFFFFFFFFFFFFFFFFFFFFFFFFFFFFFFFFFFFFFFFFFFFF
310
FFFFFFFFFFFFFFFFFFFFFFFFFFFFFFFFFFFFFFFFFFFFFFFFF000FFFFFFFFFFFF
310
FFFFFFFFFFFFFFFFFFFFFFFFFFFFFFFFFFFFFFFFFFFFFFFFFFFFFFFFFFFFFFFF
310
FFFFFFFFFFFFFFFFFFFFFFFFFFFFFFFFFFFFFFFFFFFFFFFFFFFFFFFFFFFFFFFF
310
FFFFFFFFFFFFFFFFFFFFFFFFFFFFFFFFF000FFFFFFFFFFFFFFFFFFFFFFFFFFFF
310
FFFFFFFFFFFFFFFFFFFFFFFFFFFFFFFFFFFFFFFFFFFFFFFFFFFFFFFFFFFFFFFF
310
FFFFFFFFFFFFFFFFFFFFFFFFFFFFFFFFFFFFFFFFFFFFFFFFFFFFFFFFFFFFFFFF
310
FFFFFFFFFFFFFFFFF000FFFFFFFFFFFFFFFFFFFFFFFFFFFFFFFFFFFFFFFFFFFF
310
FFFFFFFFFFFFFFFFFFFFFFFFFFFFFFFFFFFFFFFFFFFFFFFFFFFFFFFFFFFFFFFF
310
FFFFFFFFFFFFFFFFFFFFFFFFFFFFFFFFFFFFFFFFFFFFFFFFFFFFFFFFFFFFFFFF
310
F000FFFFFFFFFFFFFFFFFFFFFFFFFFFFFFFFFFFFFFFFFFFFFFFFFFFFFFFFFFFF
310
FFFFFFFFFFFFFFFFFFFFFFFFFFFFFFFFFFFFFFFFFFFFFFFFFFFFFFFFFFFFFFFF
310
FFFFFFFFFFFFFFFFFFFFFFFFFFFFFFFFFFFFFFFFFFFFFFFFF000FFFFFFFFFFFF
310
FFFFFFFFFFFFFFFFFFFFFFFFFFFFFFFFFFFFFFFFFFFFFFFFFFFFFFFFFFFFFFFF
310
FFFFFFFFFFFFFFFFFFFFFFFFFFFFFFFFFFFFFFFFFFFFFFFFFFFFFFFFFFFFFFFF
310
FFFFFFFFFFFFFFFFFFFFFFFFFFFFFFFFF000FFFFFFFFFFFFFFFFFFFFFFFFFFFF
310
FFFFFFFFFFFFFFFFFFFFFFFFFFFFFFFFFFFFFFFFFFFFFFFFFFFFFFFFFFFFFFFF
310
FFFFFFFFFFFFFFFFFFFFFFFFFFFFFFFFFFFFFFFFFFFFFFFFFFFFFFFFFFFFFFFF
310
FFFFFFFFFFFFFFFFF000FFFFFFFFFFFFFFFFFFFFFFFFFFFFFFFFFFFFFFFFFFFF
310
FFFFFFFFFFFFFFFFFFFFFFFFFFFFFFFFFFFFFFFFFFFFFFFFFFFFFFFFFFFFFFFF
310
FFFFFFFFFFFFFFFFFFFFFFFFFFFFFFFFFFFFFFFFFFFFFFFFFFFFFFFFFFFFFFFF
310
F000FFFFFFFFFFFFFFFFFFFFFFFFFFFFFFFFFFFFFFFFFFFFFFFFFFFFFFFFFFFF
310
FFFFFFFFFFFFFFFFFFFFFFFFFFFFFFFFFFFFFFFFFFFFFFFFFFFFFFFFFFFFFFFF
310
FFFFFFFFFFFFFFFFFFFFFFFFFFFFFFFFFFFFFFFFFFFFFFFFF000FFFFFFFFFFFF
310
FFFFFFFFFFFFFFFFFFFFFFFFFFFFFFFFFFFFFFFFFFFFFFFFFFFFFFFFFFFFFFFF
310
FFFFFFFFFFFFFFFFFFFFFFFFFFFFFFFFFFFFFFFFFFFFFFFFFFFFFFFFFFFFFFFF
310
FFFFFFFFFFFFFFFFFFFFFFFFFFFFFFFFF000FFFFFFFFFFFFFFFFFFFFFFFFFFFF
310
FFFFFFFFFFFFFFFFFFFFFFFFFFFFFFFFFFFFFFFFFFFFFFFFFFFFFFFFFFFFFFFF
310
FFFFFFFFFFFFFFFFFFFFFFFFFFFFFFFFFFFFFFFFFFFFFFFFFFFFFFFFFFFFFFFF
310
FFFFFFFFFFFFFFFFF000FFFFFFFFFFFFFFFFFFFFFFFFFFFFFFFFFFFFFFFFFFFF
310
FFFFFFFFFFFFFFFFFFFFFFFFFFFFFFFFFFFFFFFFFFFFFFFFFFFFFFFFFFFFFFFF
310
FFFFFFFFFFFFFFFFFFFFFFFFFFFFFFFFFFFFFFFFFFFFFFFFFFFFFFFFFFFFFFFF
310
F000FFFFFFFFFFFFFFFFFFFFFFFFFFFFFFFFFFFFFFFFFFFFFFFFFFFFFFFFFFFF
310
FFFFFFFFFFFFFFFFFFFFFFFFFFFFFFFFFFFFFFFFFFFFFFFFFFFFFFFFFFFFFFFF
310
FFFFFFFFFFFFFFFFFFFFFFFFFFFFFFFFFFFFFFFFFFFFFFFFF000FFFFFFFFFFFF
310
FFFFFFFFFFFFFFFFFFFFFFFFFFFFFFFFFFFFFFFFFFFFFFFFFFFFFFFFFFFFFFFF
310
FFFFFFFFFFFFFFFFFFFFFFFFFFFFFFFFFFFFFFFFFFFFFFFFFFFFFFFFFFFFFFFF
310
FFFFFFFFFFFFFFFFFFFFFFFFFFFFFFFFF000FFFFFFFFFFFFFFFFFFFFFFFFFFFF
310
FFFFFFFFFFFFFFFFFFFFFFFFFFFFFFFFFFFFFFFFFFFFFFFFFFFFFFFFFFFFFFFF
310
FFFFFFFFFFFFFFFFFFFFFFFFFFFFFFFFFFFFFFFFFFFFFFFFFFFFFFFFFFFFFFFF
310
FFFFFFFFFFFFFFFFF000FFFFF80003FFFFFFFFFFFFFFFFFFFFFFFFFFFFFFFFFF
310
FFFFF00007FFFFFFFFFF00007FFFFFF800000000000000007FFFFFFFFFFFFFFF
310
FFFFFFFC001FFFFFFFFFFFFFFC001FFFFFFFFFFFFFFFFFFFFFFFFFFE0007FFFF
310
F000FFFF8000007FFFFFFFF8000FFFFFC0007FFFFF80007FFFFF0000007FFFFF
310
FFF8000007FFFFF800000000000000007FFFFFF0001FFFFFFFFFFFC00001FFFF
310
FFFFFFFFC00001FFFFFFFF000000000003FFFFE000007FFFF000FFFE0000000F
310
FFFFFFF0000FFFFF80007FFFFF80007FFFFC0000001FFFFFFFC0000001FFFFF8
310
00000000000000007FFFFFF0001FFFFFFFFFFE0000003FFFFFFFFFFE0000003F
310
FFFFFF000000000003FFFF0000000FFFF000FFF800000003FFFFFFF00007FFFF
310
80007FFFFF80007FFFF000000007FFFFFF000000003FFFF80000000000000000
310
7FFFFFF0001FFFFFFFFFF80000000FFFFFFFFFF80000000FFFFFFF0000000000
310
03FFFC00000003FFF000FFE000000000FFFFFFF00007FFFF80003FFFFF80007F
310
FFC000000001FFFFFC000000001FFFF800000000000000007FFFFFF0001FFFFF
310
FFFFE000000003FFFFFFFFE000000003FFFFFF000000000003FFF000000000FF
310
F000FF80000000007FFFFFF00007FFFF80003FFFFF80007FFF8000000000FFFF
310
F80000000007FFF800000000000000007FFFFFF0001FFFFFFFFFC000000001FF
310
FFFFFFC000000001FFFFFF000000000003FFC0000000007FF000FF0000000000
310
3FFFFFE00007FFFF00003FFFFF80007FFE00000000003FFFF00000000003FFF8
310
00000000000000007FFFFFF0001FFFFFFFFF8000000000FFFFFFFF8000000000
310
FFFFFF000000000003FF80000000003FF000FE00000000001FFFFFE00003FFFF
310
00003FFFFF80007FFC00000000001FFFE00000000001FFF8000001FFFE000000
310
7FFFFFF0001FFFFFFFFE00000000003FFFFFFE00000000003FFFFF0000000000
310
03FF00000000001FF000FC00000000000FFFFFE00003FFFF00001FFFFF80007F
310
F800000000001FFFC00000000000FFF8000001FFFE0000007FFFFFF0001FFFFF
310
FFFC00000000001FFFFFFC00000000001FFFFF000000000003FE00000000000F
310
F000F8000000000007FFFFE00003FFFF00001FFFFF80007FF800000000000FFF
310
800000000000FFF8000001FFFE0000007FFFFFF0001FFFFFFFF800000000000F
310
FFFFF800000000000FFFFF000000000003FC000000000007F000F80000000000
310
03FFFFC00003FFFE00001FFFFF80007FF0000000000007FF0000000000007FF8
310
000001FFFE0000007FFFFFF0001FFFFFFFF0000000000007FFFFF00000000000
310
07FFFF000000000003F8000000000003F000F0000000000003FFFFC00001FFFE
310
00001FFFFF80007FE0000000000007FE0000000000003FF8000001FFFE000000
310
7FFFFFF0001FFFFFFFF0000000000007FFFFF0000000000007FFFF0000000000
310
03F800001F800003F000E00001FFF00001FFFFC00001FFFE00000FFFFF80007F
310
E00001FFE00003FE00001FFF00003FF8000001FFFE0000007FFFFFF0001FFFFF
310
FFE000003E000003FFFFE000003E000003FFFF000000000003F00001FFF80001
310
F000E00007FFFC0001FFFFC00001FFFE00000FFFFF80007FC0000FFFFC0003FC
310
0000FFFFC0001FF8000001FFFE0000007FFFFFF0001FFFFFFFC00003FFE00001
310
FFFFC00003FFE00001FFFF0001FFFFFFFFF00007FFFE0001F000E0000FFFFF00
310
00FFFF800001FFFC00000FFFFF80007FC0001FFFFE0001FC0001FFFFE0001FF8
310
000001FFFE0000007FFFFFF0001FFFFFFF80000FFFF80000FFFF80000FFFF800
310
00FFFF0003FFFFFFFFE0000FFFFF8000F000C0003FFFFF8000FFFF800000FFFC
310
000007FFFF80007F80003FFFFF0001FC0003FFFFF0001FF8000001FFFE000000
310
7FFFFFF0001FFFFFFF80003FFFFE0000FFFF80003FFFFE0000FFFF0003FFFFFF
310
FFE0003FFFFF8000F000C0003FFFFF8000FFFF800000FFFC000007FFFF80007F
310
80007FFFFF8001F80007FFFFF8000FF8000001FFFE0000007FFFFFF0001FFFFF
310
FF00007FFFFF00007FFF00007FFFFF00007FFF0003FFFFFFFFE0003FFFFFC000
310
F000C0007FFFFFC000FFFF000000FFFC000007FFFF80007F8000FFFFFF8000F8
310
000FFFFFF8000FF8000001FFFE0000007FFFFFF0001FFFFFFF0000FFFFFF8000
310
7FFF0000FFFFFF80007FFF0003FFFFFFFFC0007FFFFFC00070008000FFFFFFC0
310
00FFFF000000FFF8000007FFFF80007F8000FFFFFF8000F8000FFFFFF8000FF8
310
000001FFFE0000007FFFFFF0001FFFFFFE0001FFFFFFC0003FFE0001FFFFFFC0
310
003FFF0003FFFFFFFFC0007FFFFFE00070008000FFFFFFC0007FFF0000007FF8
310
000003FFFF80007F0001FFFFFF8000F8000FFFFFF8000FF8000001FFFE000000
310
7FFFFFF0001FFFFFFE0001FFFFFFC0003FFE0001FFFFFFC0003FFF0003FFFFFF
310
FFC000FFFFFFE00070008000FFFFFFC0007FFF0000007FF8000003FFFF80007F
310
0001FFFFFF8000F8001FFFFFF8000FF8000001FFFE0000007FFFFFF0001FFFFF
310
FE0003FFFFFFE0003FFE0003FFFFFFE0003FFF0003FFFFFFFFC000FFFFFFE000
310
70008000FFFFFFC0007FFE0000007FF8000003FFFF80007F0001FFFFFF8000F0
310
001FFFFFF8000FF8000001FFFE0000007FFFFFF0001FFFFFFC0003FFFFFFE000
310
1FFC0003FFFFFFE0001FFF0003FFFFFFFFC000FFFFFFC00070008000FFFFFF80
310
007FFE0000007FF0000003FFFF80007F0001FFFFFF0000F0001FFFFFF8000FF8
310
000001FFFE0000007FFFFFF0001FFFFFFC0007FFFFFFF0001FFC0007FFFFFFF0
310
001FFF0003FFFFFFFFC000FFFFFFC00070008001FFFFFF0000FFFE0000003FF0
310
000001FFFF80007F0001FFFFFF0000F8001FFFFFF0000FF8000001FFFE000000
310
7FFFFFF0001FFFFFFC0007FFFFFFF0001FFC0007FFFFFFF0001FFF0003FFFFFF
310
FFC001FFFFFF80007000FFFFFFFFFE0000FFFE0008003FF0008001FFFF80007F
310
FFFFFFFFFC0000FFFFFFFFFFE0000FF8000001FFFE0000007FFFFFF0001FFFFF
310
F8000FFFFFFFF8000FF8000FFFFFFFF8000FFF0003FFFFFFFFFFFFFFFFFF0000
310
7000FFFFFFFFFC0000FFFC0008003FF0008001FFFF80007FFFFFFFFFF80001FF
310
FFFFFFFF80000FF8000001FFFE0000007FFFFFF0001FFFFFF8000FFFFFFFF800
310
0FF8000FFFFFFFF8000FFF0003FFFFFFFFFFFFFFFFFE0000F000FFFFFFFFE000
310
00FFFC000C003FE000C001FFFF80007FFFFFFFFFC00001FFFFFFFFFE00001FF8
310
000001FFFE0000007FFFFFF0001FFFFFF8000FFFFFFFF8000FF8000FFFFFFFF8
310
000FFF0003FFFFFFFFFFFFFFFFF00000F000FFFFFFFE000001FFFC000C001FE0
310
00C000FFFF80007FFFFFFFFE000001FFFFFFFFE000001FF80FFFFFFFFFFFFFC0
310
7FFFFFF0001FFFFFF8000FFFFFFFF8000FF8000FFFFFFFF8000FFF0003FFFFFF
310
FFFFFFFFFF800000F000FFFFFFC0000001FFFC001C001FE001C000FFFF80007F
310
FFFFFF80000003FFFFFFF80000001FF80FFFFFFFFFFFFFC07FFFFFF0001FFFFF
310
F8001FFFFFFFFC000FF8001FFFFFFFFC000FFF0003FFFFFFFFFFFFFFF0000001
310
F000FFFFF800000001FFF8001C001FE001C000FFFF80007FFFFFF800000003FF
310
FFFF800000003FF80FFFFFFFFFFFFFC07FFFFFF0001FFFFFF8001FFFFFFFFC00
310
0FF8001FFFFFFFFC000FFF0003FFFFFFFFFFFFFE00000001F000FFFFC0000000
310
03FFF8001E001FC001E000FFFF80007FFFFF8000000007FFFFFC000000003FF8
310
0FFFFFFFFFFFFFC07FFFFFF0001FFFFFF8001FFFFFFFFC000FF8001FFFFFFFFC
310
000FFF0003FFFFFFFFFFFFE000000003F000FFFE0000000007FFF8001E000FC0
310
01E0007FFF80007FFFFE0000000007FFFFE0000000007FF80FFFFFFFFFFFFFC0
310
7FFFFFF0001FFFFFF0001FFFFFFFFC0007F0001FFFFFFFFC0007FF0003FFFFFF
310
FFFFFF0000000003F000FFF80000000007FFF8001E000FC003E0007FFF80007F
310
FFF0000000000FFFFF8000000000FFF80FFFFFFFFFFFFFC07FFFFFF0001FFFFF
310
F0001FFFFFFFFC0007F0001FFFFFFFFC0007FF0003FFFFFFFFFFFC0000000007
310
F000FFE0000000000FFFF0003E000FC003E0007FFF80007FFFC0000000001FFF
310
FE0000000001FFF80FFFFFFFFFFFFFC07FFFFFF0001FFFFFF0001FFFFFFFFC00
310
07F0001FFFFFFFFC0007FF0003FFFFFFFFFFF0000000000FF000FFC000000000
310
1FFFF0003F000F8003F0003FFF80007FFF80000000003FFFF80000000003FFF8
310
0FFFFFFFFFFFFFC07FFFFFF0001FFFFFF0001FFFFFFFFC0007F0001FFFFFFFFC
310
0007FF0003FFFFFFFFFFE0000000001FF000FF00000000007FFFF0003F000780
310
03F0003FFF80007FFF00000000007FFFF00000000007FFF80FFFFFFFFFFFFFC0
310
7FFFFFF0001FFFFFF0001FFFFFFFFC0007F0001FFFFFFFFC0007FF0003FFFFFF
310
FFFF80000000007FF000FE0000000000FFFFE0003F00078007F0003FFF80007F
310
FE0000000001FFFFE0000000001FFFF80FFFFFFFFFFFFFC07FFFFFF0001FFFFF
310
F0001FFFFFFFFC0007F0001FFFFFFFFC0007FF0003FFFFFFFFFF0000000000FF
310
F000FC0000000003FFFFE0007F00078007F0003FFF80007FFC0000000007FFFF
310
C0000000007FFFF80FFFFFFFFFFFFFC07FFFFFF0001FFFFFF8001FFFFFFFFC00
310
0FF8001FFFFFFFFC000FFF0003FFFFFFFFFE0000000003FFF000FC000000000F
310
FFFFE0007F80070007F8001FFF80007FF8000000001FFFFF8000000001FFFFF8
310
0FFFFFFFFFFFFFC07FFFFFF0001FFFFFF8001FFFFFFFFC000FF8001FFFFFFFFC
310
000FFF0003FFFFFFFFFC000000000FFFF000F8000000007FFFFFE0007F800700
310
07F8001FFF80007FF000000000FFFFFF800000000FFFFFF80FFFFFFFFFFFFFC0
310
7FFFFFF0001FFFFFF8000FFFFFFFF8000FF8000FFFFFFFF8000FFF0003FFFFFF
310
FFFC000000007FFFF000F800000007FFFFFFC0007F8003000FF8001FFF80007F
310
F000000007FFFFFF000000007FFFFFF80FFFFFFFFFFFFFC07FFFFFF0001FFFFF
310
F8000FFFFFFFF8000FF8000FFFFFFFF8000FFF0003FFFFFFFFF80000000FFFFF
310
F000F0000000FFFFFFFFC000FF8003000FF8001FFF80007FE0000000FFFFFFFF
310
0000000FFFFFFFF8000001FFFE0000007FFFFFF0001FFFFFF8000FFFFFFFF800
310
0FF8000FFFFFFFF8000FFF0003FFFFFFFFF8000000FFFFFFF000F000000FFFFF
310
FFFFC000FFC002000FF8000FFF80007FE000001FFFFFFFFE000001FFFFFFFFF8
310
000001FFFE0000007FFFFFF0001FFFFFF8000FFFFFFFF8000FF8000FFFFFFFF8
310
000FFF0003FFFFFFFFF000001FFFFFFFF000E00000FFFFFFFFFFC000FFC00200
310
0FFC000FFF80007FE00001FFFFFFFFFE00001FFFFFFFFFF8000001FFFE000000
310
7FFFFFF0001FFFFFFC000FFFFFFFF8001FFC000FFFFFFFF8001FFF0003FFFFFF
310
FFF00001FFFFFFFFF000E00007FFFFFFFFFF8000FFC000001FFC000FFF80007F
310
C0000FFFFFFFFFFE0000FFFFFFFFFFF8000001FFFE0000007FFFFFF0001FFFFF
310
FC0007FFFFFFF0001FFC0007FFFFFFF0001FFF0003FFFFFFFFF00007FFFFFFFF
310
F000E0001FFFFFFFFFFF8000FFC000001FFC000FFF80007FC0003FFFFFFFFFFE
310
0001FFFFFFFFFFF8000001FFFE0000007FFFFFF0001FFFFFFC0007FFFFFFF000
310
1FFC0007FFFFFFF0001FFF0003FFFFFFFFF0001FFFFFFFFFF000E0003FFFFF00
310
03FF8001FFE000001FFC0007FF80007FC0007FFFFF0007FC0003FFFFF0003FF8
310
000001FFFE0000007FFFFFF0001FFFFFFC0003FFFFFFE0001FFC0003FFFFFFE0
310
001FFF0003FFFFFFFFF0003FFFFFFFFFF000E0003FFFFF0001FF8001FFE00000
310
1FFE0007FF80007FC0007FFFFE0003FC0007FFFFE0003FF8000001FFFE000000
310
7FFFFFF0001FFFFFFE0003FFFFFFE0003FFE0003FFFFFFE0003FFF0003FFFFFF
310
FFF0003FFFFF8001F000E0003FFFFF0001FF0001FFE000001FFE0007FF80007F
310
C0007FFFFE0003FC0007FFFFE0003FF8000001FFFE0000007FFFFFF0001FFFFF
310
FE0001FFFFFFC0003FFE0001FFFFFFC0003FFF0003FFFFFFFFF0003FFFFF0001
310
F000E0003FFFFF0003FF0001FFE000003FFE0007FF80007FC0007FFFFE0003FC
310
0007FFFFE0003FF8000001FFFE0000007FFFFFF0001FFFFFFF0001FFFFFFC000
310
7FFF0001FFFFFFC0007FFF0003FFFFFFFFF0003FFFFF0001F000E0003FFFFE00
310
03FF0003FFF000003FFE0003FF80007FC0007FFFFC0003FE0007FFFFE0003FF8
310
000001FFFE0000007FFFFFF0001FFFFFFF0000FFFFFF80007FFF0000FFFFFF80
310
007FFF0003FFFFFFFFF0003FFFFF0001F000E0003FFFFE0003FF0003FFF00000
310
3FFF0003FF80007FC0007FFFFC0007FE0007FFFFC0003FF8000001FFFE000000
310
7FFFFFF0001FFFFFFF80007FFFFF0000FFFF80007FFFFF0000FFFF0003FFFFFF
310
FFF0003FFFFF0003F000E0003FFFFC0003FE0003FFF000003FFF0003FF80007F
310
E0003FFFF80007FE0003FFFFC0007FF8000001FFFE0000007FFFFFF0001FFFFF
310
FF80003FFFFE0000FFFF80003FFFFE0000FFFF0003FFFFFFFFF0001FFFFE0003
310
F000F0001FFFF80003FE0003FFF000007FFF0001FF80007FE0003FFFF00007FE
310
0001FFFF80007FF8000001FFFE0000007FFFFFF0001FFFFFFFC0000FFFF80001
310
FFFFC0000FFFF80001FFFF0003FFFFFFFFF0001FFFFC0003F000F0000FFFF000
310
07FE0007FFF800007FFF0001FF80007FE0001FFFE00007FF0000FFFE00007FF8
310
000001FFFE0000007FFFFFF0001FFFFFFFC00003FFE00001FFFFC00003FFE000
310
01FFFF0003FFFFFFFFF8000FFFF80003F000F00003FFC00007FC0007FFF80000
310
7FFF8001FF80007FF00007FF80000FFF00007FF80000FFF8000001FFFE000000
310
7F80000000000001FFE000003E000003FFFFE000003E000003FFFF0003FFFFFF
310
FFF80003FFE00007F000F800000000000FFC0007FFF800007FFF8001FF80007F
310
F000000000000FFF000000000000FFF8000001FFFE0000007F80000000000001
310
FFF0000000000007FFFFF0000000000007FFFF0003FFFFFFFFFC00007E000007
310
F000F800000000000FFC0007FFF80000FFFF8000FF80007FF800000000001FFF
310
800000000001FFF8000001FFFE0000007F80000000000001FFF800000000000F
310
FFFFF800000000000FFFFF0003FFFFFFFFFC00000000000FF000FC0000000000
310
1FFC0007FFFC0000FFFF8000FF80007FF800000000003FFFC00000000001FFF8
310
000001FFFE0000007F80000000000001FFF800000000000FFFFFF80000000000
310
0FFFFF0003FFFFFFFFFE00000000001FF000FE00000000003FF8000FFFFC0000
310
FFFF8000FF80007FFC00000000003FFFC00000000003FFF8000001FFFE000000
310
7F80000000000001FFFC00000000001FFFFFFC00000000001FFFFF0003FFFFFF
310
FFFF00000000001FF000FF00000000003FF8000FFFFC0000FFFFC000FF80007F
310
FE00000000007FFFE00000000007FFF8000001FFFE0000007F80000000000001
310
FFFE00000000003FFFFFFE00000000003FFFFF0003FFFFFFFFFF80000000003F
310
F000FF80000000007FF8000FFFFC0001FFFFC0007F80007FFF0000000000FFFF
310
F0000000000FFFF800000000000000007F80000000000001FFFF8000000000FF
310
FFFFFF8000000000FFFFFF0003FFFFFFFFFFC0000000007FF000FFC000000000
310
FFF8000FFFFE0001FFFFC0007F80007FFF8000000001FFFFF8000000001FFFF8
310
00000000000000007F80000000000001FFFFC000000001FFFFFFFFC000000001
310
FFFFFF0003FFFFFFFFFFE000000000FFF000FFE000000003FFF0001FFFFE0001
310
FFFFC0007F80007FFFC000000007FFFFFE000000003FFFF80000000000000000
310
7F80000000000001FFFFE000000003FFFFFFFFE000000003FFFFFF0003FFFFFF
310
FFFFF000000003FFF000FFF80000000FFFF0001FFFFE0001FFFFE0007F80007F
310
FFF00000000FFFFFFF00000000FFFFF800000000000000007F80000000000001
310
FFFFF80000000FFFFFFFFFF80000000FFFFFFF0003FFFFFFFFFFFC0000000FFF
310
F000FFFE0000003FFFF0001FFFFE0003FFFFE0003F80007FFFFC0000003FFFFF
310
FFC0000003FFFFF800000000000000007F80000000000001FFFFFE0000003FFF
310
FFFFFFFE0000003FFFFFFF0003FFFFFFFFFFFF0000003FFFF000FFFF800000FF
310
FFF0001FFFFF0003FFFFE0003F80007FFFFF000001FFFFFFFFF800001FFFFFF8
310
00000000000000007F80000000000001FFFFFFC00001FFFFFFFFFFFFC00001FF
310
FFFFFF0003FFFFFFFFFFFFC00000FFFFF000FFFFF8000FFFFFFFFFFFFFFFFFFF
310
FFFFFFFFFFFFFFFFFFFFF0001FFFFFFFFFFF0000FFFFFFF80000000000000000
310
7FFFFFFFFFFFFFFFFFFFFFFC001FFFFFFFFFFFFFFC001FFFFFFFFFFFFFFFFFFF
310
FFFFFFFC001FFFFFF000FFFFFFFFFFFFFFFFFFFFFFFFFFFFFFFFFFFFFFFFFFFF
310
FFFFFFFFFFFFFFFFFFFFFFFFFFFFFFFFFFFFFFFFFFFFFFFFFFFFFFFFFFFFFFFF
310
FFFFFFFFFFFFFFFFFFFFFFFFFFFFFFFFFFFFFFFFFFFFFFFFFFFFFFFFFFFFFFFF
310
F000FFFFFFFFFFFFFFFFFFFFFFFFFFFFFFFFFFFFFFFFFFFFFFFFFFFFFFFFFFFF
310
FFFFFFFFFFFFFFFFFFFFFFFFFFFFFFFFFFFFFFFFFFFFFFFFFFFFFFFFFFFFFFFF
310
FFFFFFFFFFFFFFFFFFFFFFFFFFFFFFFFFFFFFFFFFFFFFFFFF000FFFFFFFFFFFF
310
FFFFFFFFFFFFFFFFFFFFFFFFFFFFFFFFFFFFFFFFFFFFFFFFFFFFFFFFFFFFFFFF
310
FFFFFFFFFFFFFFFFFFFFFFFFFFFFFFFFFFFFFFFFFFFFFFFFFFFFFFFFFFFFFFFF
310
FFFFFFFFFFFFFFFFFFFFFFFFFFFFFFFFF000FFFFFFFFFFFFFFFFFFFFFFFFFFFF
310
FFFFFFFFFFFFFFFFFFFFFFFFFFFFFFFFFFFFFFFFFFFFFFFFFFFFFFFFFFFFFFFF
310
FFFFFFFFFFFFFFFFFFFFFFFFFFFFFFFFFFFFFFFFFFFFFFFFFFFFFFFFFFFFFFFF
310
FFFFFFFFFFFFFFFFF000FFFFFFFFFFFFFFFFFFFFFFFFFFFFFFFFFFFFFFFFFFFF
310
FFFFFFFFFFFFFFFFFFFFFFFFFFFFFFFFFFFFFFFFFFFFFFFFFFFFFFFFFFFFFFFF
310
FFFFFFFFFFFFFFFFFFFFFFFFFFFFFFFFFFFFFFFFFFFFFFFFFFFFFFFFFFFFFFFF
310
F000FFFFFFFFFFFFFFFFFFFFFFFFFFFFFFFFFFFFFFFFFFFFFFFFFFFFFFFFFFFF
310
FFFFFFFFFFFFFFFFFFFFFFFFFFFFFFFFFFFFFFFFFFFFFFFFFFFFFFFFFFFFFFFF
310
FFFFFFFFFFFFFFFFFFFFFFFFFFFFFFFFFFFFFFFFFFFFFFFFF000FFFFFFFFFFFF
310
FFFFFFFFFFFFFFFFFFFFFFFFFFFFFFFFFFFFFFFFFFFFFFFFFFFFFFFFFFFFFFFF
310
FFFFFFFFFFFFFFFFFFFFFFFFFFFFFFFFFFFFFFFFFFFFFFFFFFFFFFFFFFFFFFFF
310
FFFFFFFFFFFFFFFFFFFFFFFFFFFFFFFFF000FFFFFFFFFFFFFFFFFFFFFFFFFFFF
310
FFFFFFFFFFFFFFFFFFFFFFFFFFFFFFFFFFFFFFFFFFFFFFFFFFFFFFFFFFFFFFFF
310
FFFFFFFFFFFFFFFFFFFFFFFFFFFFFFFFFFFFFFFFFFFFFFFFFFFFFFFFFFFFFFFF
310
FFFFFFFFFFFFFFFFF000FFFFFFFFFFFFFFFFFFFFFFFFFFFFFFFFFFFFFFFFFFFF
310
FFFFFFFFFFFFFFFFFFFFFFFFFFFFFFFFFFFFFFFFFFFFFFFFFFFFFFFFFFFFFFFF
310
FFFFFFFFFFFFFFFFFFFFFFFFFFFFFFFFFFFFFFFFFFFFFFFFFFFFFFFFFFFFFFFF
310
F000FFFFFFFFFFFFFFFFFFFFFFFFFFFFFFFFFFFFFFFFFFFFFFFFFFFFFFFFFFFF
310
FFFFFFFFFFFFFFFFFFFFFFFFFFFFFFFFFFFFFFFFFFFFFFFFFFFFFFFFFFFFFFFF
310
FFFFFFFFFFFFFFFFFFFFFFFFFFFFFFFFFFFFFFFFFFFFFFFFF000FFFFFFFFFFFF
310
FFFFFFFFFFFFFFFFFFFFFFFFFFFFFFFFFFFFFFFFFFFFFFFFFFFFFFFFFFFFFFFF
310
FFFFFFFFFFFFFFFFFFFFFFFFFFFFFFFFFFFFFFFFFFFFFFFFFFFFFFFFFFFFFFFF
310
FFFFFFFFFFFFFFFFFFFFFFFFFFFFFFFFF000FFFFFFFFFFFFFFFFFFFFFFFFFFFF
310
FFFFFFFFFFFFFFFFFFFFFFFFFFFFFFFFFFFFFFFFFFFFFFFFFFFFFFFFFFFFFFFF
310
FFFFFFFFFFFFFFFFFFFFFFFFFFFFFFFFFFFFFFFFFFFFFFFFFFFFFFFFFFFFFFFF
310
FFFFFFFFFFFFFFFFF000FFFFFFFFFFFFFFFFFFFFFFFFFFFFFFFFFFFFFFFFFFFF
310
FFFFFFFFFFFFFFFFFFFFFFFFFFFFFFFFFFFFFFFFFFFFFFFFFFFFFFFFFFFFFFFF
310
FFFFFFFFFFFFFFFFFFFFFFFFFFFFFFFFFFFFFFFFFFFFFFFFFFFFFFFFFFFFFFFF
310
F000FFFFFFFFFFFFFFFFFFFFFFFFFFFFFFFFFFFFFFFFFFFFFFFFFFFFFFFFFFFF
310
FFFFFFFFFFFFFFFFFFFFFFFFFFFFFFFFFFFFFFFFFFFFFFFFFFFFFFFFFFFFFFFF
310
FFFFFFFFFFFFFFFFFFFFFFFFFFFFFFFFFFFFFFFFFFFFFFFFF000FFFFFFFFFFFF
310
FFFFFFFFFFFFFFFFFFFFFFFFFFFFFFFFFFFFFFFFFFFFFFFFFFFFFFFFFFFFFFFF
310
FFFFFFFFFFFFFFFFFFFFFFFFFFFFFFFFFFFFFFFFFFFFFFFFFFFFFFFFFFFFFFFF
310
FFFFFFFFFFFFFFFFFFFFFFFFFFFFFFFFF000FFFFFFFFFFFFFFFFFFFFFFFFFFFF
310
FFFFFFFFFFFFFFFFFFFFFFFFFFFFFFFFFFFFFFFFFFFFFFFFFFFFFFFFFFFFFFFF
310
FFFFFFFFFFFFFFFFFFFFFFFFFFFFFFFFFFFFFFFFFFFFFFFFFFFFFFFFFFFFFFFF
310
FFFFFFFFFFFFFFFFF000FFFFFFFFFFFFFFFFFFFFFFFFFFFFFFFFFFFFFFFFFFFF
310
FFFFFFFFFFFFFFFFFFFFFFFFFFFFFFFFFFFFFFFFFFFFFFFFFFFFFFFFFFFFFFFF
310
FFFFFFFFFFFFFFFFFFFFFFFFFFFFFFFFFFFFFFFFFFFFFFFFFFFFFFFFFFFFFFFF
310
F000FFFFFFFFFFFFFFFFFFFFFFFFFFFFFFFFFFFFFFFFFFFFFFFFFFFFFFFFFFFF
310
FFFFFFFFFFFFFFFFFFFFFFFFFFFFFFFFFFFFFFFFFFFFFFFFFFFFFFFFFFFFFFFF
310
FFFFFFFFFFFFFFFFFFFFFFFFFFFFFFFFFFFFFFFFFFFFFFFFF000FFFFFFFFFFFF
310
FFFFFFFFFFFFFFFFFFFFFFFFFFFFFFFFFFFFFFFFFFFFFFFFFFFFFFFFFFFFFFFF
310
FFFFFFFFFFFFFFFFFFFFFFFFFFFFFFFFFFFFFFFFFFFFFFFFFFFFFFFFFFFFFFFF
310
FFFFFFFFFFFFFFFFFFFFFFFFFFFFFFFFF000FFFFFFFFFFFFFFFFFFFFFFFFFFFF
310
FFFFFFFFFFFFFFFFFFFFFFFFFFFFFFFFFFFFFFFFFFFFFFFFFFFFFFFFFFFFFFFF
310
FFFFFFFFFFFFFFFFFFFFFFFFFFFFFFFFFFFFFFFFFFFFFFFFFFFFFFFFFFFFFFFF
310
FFFFFFFFFFFFFFFFF000FFFFFFFFFFFFFFFFFFFFFFFFFFFFFFFFFFFFFFFFFFFF
310
FFFFFFFFFFFFFFFFFFFFFFFFFFFFFFFFFFFFFFFFFFFFFFFFFFFFFFFFFFFFFFFF
310
FFFFFFFFFFFFFFFFFFFFFFFFFFFFFFFFFFFFFFFFFFFFFFFFFFFFFFFFFFFFFFFF
310
F000FFFFFFFFFFFFFFFFFFFFFFFFFFFFFFFFFFFFFFFFFFFFFFFFFFFFFFFFFFFF
310
FFFFFFFFFFFFFFFFFFFFFFFFFFFFFFFFFFFFFFFFFFFFFFFFFFFFFFFFFFFFFFFF
310
FFFFFFFFFFFFFFFFFFFFFFFFFFFFFFFFFFFFFFFFFFFFFFFFF000FFFFFFFFFFFF
310
FFFFFFFFFFFFFFFFFFFFFFFFFFFFFFFFFFFFFFFFFFFFFFFFFFFFFFFFFFFFFFFF
310
FFFFFFFFFFFFFFFFFFFFFFFFFFFFFFFFFFFFFFFFFFFFFFFFFFFFFFFFFFFFFFFF
310
FFFFFFFFFFFFFFFFFFFFFFFFFFFFFFFFF0000000000000000000000000000000
310
0000000000000000000000000000000000000000000000000000000000000000
310
0000000000000000000000000000000000000000000000000000000000000000
310
0000000000000000000000000000000000000000000000000000000000000000
310
0000000000000000000000000000000000000000000000000000000000000000
310
0000000000000000000000000000000000000000000000000000000000000000
310
0000000000000000000000000000000000000000000000000000000000000000
310
0000000000000000000000000000000000000000000000000000000000000000
310
0000000000000000000000000000000000000000000000000000000000000000
310
0000000000000000000000000000000000000000000000000000000000000000
310
0000000000000000000000000000000000000000000000000000000000000000
310
0000000000000000000000000000000000000000000000000000000000000000
310
0000000000000000000000000000000000000000000000000000000000000000
310
0000000000000000000000000000000000000000000000000000000000000000
310
0000000000000000000000000000000000000000000000000000000000000000
310
0000000000000000000000000000000000000000000000000000000000000000
  1
OLE
  0
ENDSEC
  0
SECTION
  2
OBJECTS
  0
DICTIONARY
  5
C
330
0
100
AcDbDictionary
281
     1
  3
ACAD_GROUP
350
D
  3
ACAD_LAYOUT
350
1A
  3
ACAD_MLINESTYLE
350
17
  3
ACAD_PLOTSETTINGS
350
19
  3
ACAD_PLOTSTYLENAME
350
E
  0
DICTIONARY
  5
D
102
{ACAD_REACTORS
330
C
102
}
330
C
100
AcDbDictionary
281
     1
  0
DICTIONARY
  5
1A
102
{ACAD_REACTORS
330
C
102
}
330
C
100
AcDbDictionary
281
     1
  3
Layout1
350
1E
  3
Layout2
350
26
  3
Model
350
22
  0
DICTIONARY
  5
17
102
{ACAD_REACTORS
330
C
102
}
330
C
100
AcDbDictionary
281
     1
  3
Standard
350
18
  0
DICTIONARY
  5
19
102
{ACAD_REACTORS
330
C
102
}
330
C
100
AcDbDictionary
281
     1
  0
ACDBDICTIONARYWDFLT
  5
E
102
{ACAD_REACTORS
330
C
102
}
330
C
100
AcDbDictionary
281
     1
  3
Normal
350
F
100
AcDbDictionaryWithDefault
340
F
  0
LAYOUT
  5
1E
102
{ACAD_REACTORS
330
1A
102
}
330
1A
100
AcDbPlotSettings
  1

  2
none_device
  4

  6

 40
0.0
 41
0.0
 42
0.0
 43
0.0
 44
0.0
 45
0.0
 46
0.0
 47
0.0
 48
0.0
 49
0.0
140
0.0
141
0.0
142
1.0
143
1.0
 70
   688
 72
     0
 73
     0
 74
     5
  7

 75
    16
147
1.0
148
0.0
149
0.0
100
AcDbLayout
  1
Layout1
 70
     1
 71
     1
 10
0.0
 20
0.0
 11
420.0
 21
297.0
 12
0.0
 22
0.0
 32
0.0
 14
1.0000000000E+20
 24
1.0000000000E+20
 34
1.0000000000E+20
 15
-1.0000000000E+20
 25
-1.0000000000E+20
 35
-1.0000000000E+20
146
0.0
 13
0.0
 23
0.0
 33
0.0
 16
1.0
 26
0.0
 36
0.0
 17
0.0
 27
1.0
 37
0.0
 76
     0
330
1B
  0
LAYOUT
  5
26
102
{ACAD_REACTORS
330
1A
102
}
330
1A
100
AcDbPlotSettings
  1

  2
none_device
  4

  6

 40
0.0
 41
0.0
 42
0.0
 43
0.0
 44
0.0
 45
0.0
 46
0.0
 47
0.0
 48
0.0
 49
0.0
140
0.0
141
0.0
142
1.0
143
1.0
 70
   688
 72
     0
 73
     0
 74
     5
  7

 75
    16
147
1.0
148
0.0
149
0.0
100
AcDbLayout
  1
Layout2
 70
     1
 71
     2
 10
0.0
 20
0.0
 11
0.0
 21
0.0
 12
0.0
 22
0.0
 32
0.0
 14
0.0
 24
0.0
 34
0.0
 15
0.0
 25
0.0
 35
0.0
146
0.0
 13
0.0
 23
0.0
 33
0.0
 16
1.0
 26
0.0
 36
0.0
 17
0.0
 27
1.0
 37
0.0
 76
     0
330
23
  0
LAYOUT
  5
22
102
{ACAD_REACTORS
330
1A
102
}
330
1A
100
AcDbPlotSettings
  1

  2
none_device
  4

  6

 40
0.0
 41
0.0
 42
0.0
 43
0.0
 44
0.0
 45
0.0
 46
0.0
 47
0.0
 48
0.0
 49
0.0
140
0.0
141
0.0
142
1.0
143
1.0
 70
  1712
 72
     0
 73
     0
 74
     0
  7

 75
     0
147
1.0
148
0.0
149
0.0
100
AcDbLayout
  1
Model
 70
     1
 71
     0
 10
0.0
 20
0.0
 11
297.0
 21
210.0
 12
0.0
 22
0.0
 32
0.0
 14
0.0
 24
0.0
 34
0.0
 15
297.0
 25
210.0
 35
0.0
146
0.0
 13
0.0
 23
0.0
 33
0.0
 16
1.0
 26
0.0
 36
0.0
 17
0.0
 27
1.0
 37
0.0
 76
     0
330
1F
331
29
  0
MLINESTYLE
  5
18
102
{ACAD_REACTORS
330
17
102
}
330
17
100
AcDbMlineStyle
  2
Standard
 70
     0
  3

 62
   256
 51
90.0
 52
90.0
 71
     2
 49
0.5
 62
   256
  6
BYLAYER
 49
-0.5
 62
   256
  6
BYLAYER
  0
ACDBPLACEHOLDER
  5
F
102
{ACAD_REACTORS
330
E
102
}
330
E
  0
ENDSEC
  0
EOF
