  0
SECTION
  2
HEADER
  9
$ACADVER
  1
AC1015
  9
$ACADMAINTVER
 70
     6
  9
$DWGCODEPAGE
  3
ANSI_1252
  9
$INSBASE
 10
0.0
 20
0.0
 30
0.0
  9
$EXTMIN
 10
0.0
 20
0.0
 30
0.0
  9
$EXTMAX
 10
297.0
 20
210.0
 30
0.0
  9
$LIMMIN
 10
0.0
 20
0.0
  9
$LIMMAX
 10
297.0
 20
210.0
  9
$ORTHOMODE
 70
     0
  9
$REGENMODE
 70
     1
  9
$FILLMODE
 70
     1
  9
$QTEXTMODE
 70
     0
  9
$MIRRTEXT
 70
     1
  9
$LTSCALE
 40
1.0
  9
$ATTMODE
 70
     1
  9
$TEXTSIZE
 40
2.0
  9
$TRACEWID
 40
1.0
  9
$TEXTSTYLE
  7
Standard
  9
$CLAYER
  8
0
  9
$CELTYPE
  6
ByLayer
  9
$CECOLOR
 62
   256
  9
$CELTSCALE
 40
1.0
  9
$DISPSILH
 70
     0
  9
$DIMSCALE
 40
1.0
  9
$DIMASZ
 40
3.0
  9
$DIMEXO
 40
0.0
  9
$DIMDLI
 40
3.75
  9
$DIMRND
 40
0.0
  9
$DIMDLE
 40
0.0
  9
$DIMEXE
 40
1.0
  9
$DIMTP
 40
0.0
  9
$DIMTM
 40
0.0
  9
$DIMTXT
 40
2.0
  9
$DIMCEN
 40
2.5
  9
$DIMTSZ
 40
0.0
  9
$DIMTOL
 70
     0
  9
$DIMLIM
 70
     0
  9
$DIMTIH
 70
     1
  9
$DIMTOH
 70
     1
  9
$DIMSE1
 70
     0
  9
$DIMSE2
 70
     0
  9
$DIMTAD
 70
     1
  9
$DIMZIN
 70
     0
  9
$DIMBLK
  1

  9
$DIMASO
 70
     1
  9
$DIMSHO
 70
     1
  9
$DIMPOST
  1

  9
$DIMAPOST
  1

  9
$DIMALT
 70
     0
  9
$DIMALTD
 70
     3
  9
$DIMALTF
 40
0.0393700787
  9
$DIMLFAC
 40
1.0
  9
$DIMTOFL
 70
     1
  9
$DIMTVP
 40
0.0
  9
$DIMTIX
 70
     0
  9
$DIMSOXD
 70
     0
  9
$DIMSAH
 70
     0
  9
$DIMBLK1
  1

  9
$DIMBLK2
  1

  9
$DIMSTYLE
  2
ISO-25
  9
$DIMCLRD
 70
     0
  9
$DIMCLRE
 70
     0
  9
$DIMCLRT
 70
     0
  9
$DIMTFAC
 40
1.0
  9
$DIMGAP
 40
1.524
  9
$DIMJUST
 70
     0
  9
$DIMSD1
 70
     0
  9
$DIMSD2
 70
     0
  9
$DIMTOLJ
 70
     0
  9
$DIMTZIN
 70
     0
  9
$DIMALTZ
 70
     0
  9
$DIMALTTZ
 70
     0
  9
$DIMUPT
 70
     0
  9
$DIMDEC
 70
     2
  9
$DIMTDEC
 70
     3
  9
$DIMALTU
 70
     2
  9
$DIMALTTD
 70
     3
  9
$DIMTXSTY
  7
Standard
  9
$DIMAUNIT
 70
     0
  9
$DIMADEC
 70
     2
  9
$DIMALTRND
 40
0.0
  9
$DIMAZIN
 70
     0
  9
$DIMDSEP
 70
    44
  9
$DIMATFIT
 70
     3
  9
$DIMFRAC
 70
     0
  9
$DIMLDRBLK
  1

  9
$DIMLUNIT
 70
     2
  9
$DIMLWD
 70
    -2
  9
$DIMLWE
 70
    -2
  9
$DIMTMOVE
 70
     0
  9
$LUNITS
 70
     2
  9
$LUPREC
 70
     2
  9
$SKETCHINC
 40
1.0
  9
$FILLETRAD
 40
10.0
  9
$AUNITS
 70
     0
  9
$AUPREC
 70
     2
  9
$MENU
  1
.
  9
$ELEVATION
 40
0.0
  9
$PELEVATION
 40
0.0
  9
$THICKNESS
 40
0.0
  9
$LIMCHECK
 70
     0
  9
$CHAMFERA
 40
10.0
  9
$CHAMFERB
 40
10.0
  9
$CHAMFERC
 40
20.0
  9
$CHAMFERD
 40
0.0
  9
$SKPOLY
 70
     0
  9
$TDCREATE
 40
2456071.561666574
  9
$TDUCREATE
 40
2456071.478333241
  9
$TDUPDATE
 40
2456071.561667847
  9
$TDUUPDATE
 40
2456071.478334514
  9
$TDINDWG
 40
0.0000000116
  9
$TDUSRTIMER
 40
0.0000000116
  9
$USRTIMER
 70
     1
  9
$ANGBASE
 50
0.0
  9
$ANGDIR
 70
     0
  9
$PDMODE
 70
     0
  9
$PDSIZE
 40
-1.0
  9
$PLINEWID
 40
0.0
  9
$SPLFRAME
 70
     0
  9
$SPLINETYPE
 70
     6
  9
$SPLINESEGS
 70
     8
  9
$HANDSEED
  5
24E
  9
$SURFTAB1
 70
     6
  9
$SURFTAB2
 70
     6
  9
$SURFTYPE
 70
     6
  9
$SURFU
 70
     6
  9
$SURFV
 70
     6
  9
$UCSBASE
  2

  9
$UCSNAME
  2

  9
$UCSORG
 10
0.0
 20
0.0
 30
0.0
  9
$UCSXDIR
 10
1.0
 20
0.0
 30
0.0
  9
$UCSYDIR
 10
0.0
 20
1.0
 30
0.0
  9
$UCSORTHOREF
  2

  9
$UCSORTHOVIEW
 70
     0
  9
$UCSORGTOP
 10
0.0
 20
0.0
 30
0.0
  9
$UCSORGBOTTOM
 10
0.0
 20
0.0
 30
0.0
  9
$UCSORGLEFT
 10
0.0
 20
0.0
 30
0.0
  9
$UCSORGRIGHT
 10
0.0
 20
0.0
 30
0.0
  9
$UCSORGFRONT
 10
0.0
 20
0.0
 30
0.0
  9
$UCSORGBACK
 10
0.0
 20
0.0
 30
0.0
  9
$PUCSBASE
  2

  9
$PUCSNAME
  2

  9
$PUCSORG
 10
0.0
 20
0.0
 30
0.0
  9
$PUCSXDIR
 10
1.0
 20
0.0
 30
0.0
  9
$PUCSYDIR
 10
0.0
 20
1.0
 30
0.0
  9
$PUCSORTHOREF
  2

  9
$PUCSORTHOVIEW
 70
     0
  9
$PUCSORGTOP
 10
0.0
 20
0.0
 30
0.0
  9
$PUCSORGBOTTOM
 10
0.0
 20
0.0
 30
0.0
  9
$PUCSORGLEFT
 10
0.0
 20
0.0
 30
0.0
  9
$PUCSORGRIGHT
 10
0.0
 20
0.0
 30
0.0
  9
$PUCSORGFRONT
 10
0.0
 20
0.0
 30
0.0
  9
$PUCSORGBACK
 10
0.0
 20
0.0
 30
0.0
  9
$USERI1
 70
     0
  9
$USERI2
 70
     0
  9
$USERI3
 70
     0
  9
$USERI4
 70
     0
  9
$USERI5
 70
     0
  9
$USERR1
 40
0.0
  9
$USERR2
 40
0.0
  9
$USERR3
 40
0.0
  9
$USERR4
 40
0.0
  9
$USERR5
 40
0.0
  9
$WORLDVIEW
 70
     1
  9
$SHADEDGE
 70
     3
  9
$SHADEDIF
 70
    70
  9
$TILEMODE
 70
     1
  9
$MAXACTVP
 70
    64
  9
$PINSBASE
 10
0.0
 20
0.0
 30
0.0
  9
$PLIMCHECK
 70
     0
  9
$PEXTMIN
 10
1.0000000000E+20
 20
1.0000000000E+20
 30
1.0000000000E+20
  9
$PEXTMAX
 10
-1.0000000000E+20
 20
-1.0000000000E+20
 30
-1.0000000000E+20
  9
$PLIMMIN
 10
0.0
 20
0.0
  9
$PLIMMAX
 10
420.0
 20
297.0
  9
$UNITMODE
 70
     0
  9
$VISRETAIN
 70
     1
  9
$PLINEGEN
 70
     0
  9
$PSLTSCALE
 70
     1
  9
$TREEDEPTH
 70
  3020
  9
$CMLSTYLE
  2
Standard
  9
$CMLJUST
 70
     0
  9
$CMLSCALE
 40
20.0
  9
$PROXYGRAPHICS
 70
     1
  9
$MEASUREMENT
 70
     1
  9
$CELWEIGHT
370
    -1
  9
$ENDCAPS
280
     0
  9
$JOINSTYLE
280
     0
  9
$LWDISPLAY
290
     1
  9
$INSUNITS
 70
     4
  9
$HYPERLINKBASE
  1

  9
$STYLESHEET
  1

  9
$XEDIT
290
     1
  9
$CEPSNTYPE
380
     0
  9
$PSTYLEMODE
290
     1
  9
$FINGERPRINTGUID
  2
{4893114E-EDEB-4D13-96DF-482305F32BE4}
  9
$VERSIONGUID
  2
{FAEB1C32-E019-11D5-929B-00C0DF256EC4}
  9
$EXTNAMES
290
     1
  9
$PSVPSCALE
 40
0.0
  9
$OLESTARTUP
290
     0
  0
ENDSEC
  0
SECTION
  2
CLASSES
  0
CLASS
  1
ACDBDICTIONARYWDFLT
  2
AcDbDictionaryWithDefault
  3
ObjectDBX Classes
 90
        0
280
     0
281
     0
  0
CLASS
  1
VISUALSTYLE
  2
AcDbVisualStyle
  3
ObjectDBX Classes
 90
     4095
280
     0
281
     0
  0
CLASS
  1
MATERIAL
  2
AcDbMaterial
  3
ObjectDBX Classes
 90
     1153
280
     0
281
     0
  0
CLASS
  1
ACDBPLACEHOLDER
  2
AcDbPlaceHolder
  3
ObjectDBX Classes
 90
        0
280
     0
281
     0
  0
CLASS
  1
LAYOUT
  2
AcDbLayout
  3
ObjectDBX Classes
 90
        0
280
     0
281
     0
  0
ENDSEC
  0
SECTION
  2
TABLES
  0
TABLE
  2
VPORT
  5
8
330
0
100
AcDbSymbolTable
 70
     1
  0
VPORT
  5
29
330
8
100
AcDbSymbolTableRecord
100
AcDbViewportTableRecord
  2
*Active
 70
     0
 10
0.0
 20
0.0
 11
1.0
 21
1.0
 12
148.5
 22
105.0
 13
0.0
 23
0.0
 14
10.0
 24
10.0
 15
10.0
 25
10.0
 16
0.0
 26
0.0
 36
1.0
 17
0.0
 27
0.0
 37
0.0
 40
210.0
 41
1.4142857143
 42
50.0
 43
0.0
 44
0.0
 50
0.0
 51
0.0
 71
     0
 72
  2000
 73
     1
 74
     3
 75
     0
 76
     0
 77
     0
 78
     0
281
     0
 65
     1
110
0.0
120
0.0
130
0.0
111
1.0
121
0.0
131
0.0
112
0.0
122
1.0
132
0.0
 79
     0
146
0.0
  0
ENDTAB
  0
TABLE
  2
LTYPE
  5
5
330
0
100
AcDbSymbolTable
 70
     6
  0
LTYPE
  5
14
330
5
100
AcDbSymbolTableRecord
100
AcDbLinetypeTableRecord
  2
ByBlock
 70
     0
  3

 72
    65
 73
     0
 40
0.0
  0
LTYPE
  5
15
330
5
100
AcDbSymbolTableRecord
100
AcDbLinetypeTableRecord
  2
ByLayer
 70
     0
  3

 72
    65
 73
     0
 40
0.0
  0
LTYPE
  5
16
330
5
100
AcDbSymbolTableRecord
100
AcDbLinetypeTableRecord
  2
Continuous
 70
     0
  3
Solid line
 72
    65
 73
     0
 40
0.0
  0
LTYPE
  5
3F
330
5
100
AcDbSymbolTableRecord
100
AcDbLinetypeTableRecord
  2
HIDDEN
 70
     0
  3
Hidden __ __ __ __ __ __ __ __ __ __ __ __ __ __
 72
    65
 73
     2
 40
1.905
 49
1.27
 74
     0
 49
-0.635
 74
     0
  0
LTYPE
  5
40
330
5
100
AcDbSymbolTableRecord
100
AcDbLinetypeTableRecord
  2
PHANTOM
 70
     0
  3
Phantom ______  __  __  ______  __  __  ______
 72
    65
 73
     6
 40
12.7
 49
6.35
 74
     0
 49
-1.27
 74
     0
 49
1.27
 74
     0
 49
-1.27
 74
     0
 49
1.27
 74
     0
 49
-1.27
 74
     0
  0
LTYPE
  5
41
330
5
100
AcDbSymbolTableRecord
100
AcDbLinetypeTableRecord
  2
CENTER
 70
     0
  3
Center ____ _ ____ _ ____ _ ____ _ ____ _ ____
 72
    65
 73
     4
 40
10.16
 49
6.35
 74
     0
 49
-1.27
 74
     0
 49
1.27
 74
     0
 49
-1.27
 74
     0
  0
LTYPE
  5
42
330
5
100
AcDbSymbolTableRecord
100
AcDbLinetypeTableRecord
  2
CENTERX2
 70
     0
  3
Center (2x) ________  __  ________  __  _____
 72
    65
 73
     4
 40
20.32
 49
12.7
 74
     0
 49
-2.54
 74
     0
 49
2.54
 74
     0
 49
-2.54
 74
     0
  0
LTYPE
  5
43
330
5
100
AcDbSymbolTableRecord
100
AcDbLinetypeTableRecord
  2
DOT2
 70
     0
  3
Dot (.5x) ........................................
 72
    65
 73
     2
 40
0.635
 49
0.0
 74
     0
 49
-0.635
 74
     0
  0
ENDTAB
  0
TABLE
  2
LAYER
  5
2
330
0
100
AcDbSymbolTable
 70
     5
  0
LAYER
  5
10
330
2
100
AcDbSymbolTableRecord
100
AcDbLayerTableRecord
  2
0
 70
     0
 62
     7
  6
Continuous
370
    -3
390
F
  0
LAYER
  5
44
330
2
100
AcDbSymbolTableRecord
100
AcDbLayerTableRecord
  2
FORMAT
 70
     0
 62
     7
  6
Continuous
370
    -3
390
F
  0
LAYER
  5
45
330
2
100
AcDbSymbolTableRecord
100
AcDbLayerTableRecord
  2
VERMASSUNG
 70
     0
 62
     7
  6
Continuous
370
    -3
390
F
  0
LAYER
  5
46
330
2
100
AcDbSymbolTableRecord
100
AcDbLayerTableRecord
  2
KOPF_DÜNN
 70
     0
 62
     7
  6
Continuous
370
    -3
390
F
  0
LAYER
  5
47
330
2
100
AcDbSymbolTableRecord
100
AcDbLayerTableRecord
  2
KOPF_DICK
 70
     0
 62
     7
  6
Continuous
370
    15
390
F
  0
ENDTAB
  0
TABLE
  2
STYLE
  5
3
330
0
100
AcDbSymbolTable
 70
     2
  0
STYLE
  5
11
330
3
100
AcDbSymbolTableRecord
100
AcDbTextStyleTableRecord
  2
Standard
 70
     0
 40
0.0
 41
1.0
 50
0.0
 71
     0
 42
2.0
  3
txt
  4

  0
STYLE
  5
48
330
3
100
AcDbSymbolTableRecord
100
AcDbTextStyleTableRecord
  2
SLDTEXTSTYLE0
 70
     0
 40
0.0
 41
0.7
 50
0.0
 71
     0
 42
0.2
  3
TXT
  4

  0
ENDTAB
  0
TABLE
  2
VIEW
  5
6
330
0
100
AcDbSymbolTable
 70
     0
  0
ENDTAB
  0
TABLE
  2
UCS
  5
7
330
0
100
AcDbSymbolTable
 70
     0
  0
ENDTAB
  0
TABLE
  2
APPID
  5
9
330
0
100
AcDbSymbolTable
 70
     1
  0
APPID
  5
12
330
9
100
AcDbSymbolTableRecord
100
AcDbRegAppTableRecord
  2
ACAD
 70
     0
  0
ENDTAB
  0
TABLE
  2
DIMSTYLE
  5
A
330
0
100
AcDbSymbolTable
 70
     5
100
AcDbDimStyleTable
  0
DIMSTYLE
105
27
330
A
100
AcDbSymbolTableRecord
100
AcDbDimStyleTableRecord
  2
ISO-25
 70
     0
 41
2.5
 42
0.625
 43
3.75
 44
1.25
 73
     0
 74
     0
 77
     1
 78
     8
140
2.5
141
2.5
143
0.0393700787
147
0.625
171
     3
172
     1
178
     0
271
     2
272
     2
274
     3
278
    44
283
     0
284
     8
340
11
  0
DIMSTYLE
105
1A1
102
{ACAD_REACTORS
330
1A0
330
1AD
102
}
330
A
100
AcDbSymbolTableRecord
100
AcDbDimStyleTableRecord
  2
SLDDIMSTYLE0
 70
     0
 41
3.0
 44
0.0
 45
0.000000001
 47
0.1
 48
0.1
 71
     1
 73
     0
 74
     0
 77
     1
 78
    12
 79
     3
140
2.0
147
0.5
173
     1
178
     0
271
     2
272
     1
276
     2
284
     8
340
48
  0
DIMSTYLE
105
1BA
102
{ACAD_REACTORS
330
1B9
102
}
330
A
100
AcDbSymbolTableRecord
100
AcDbDimStyleTableRecord
  2
SLDDIMSTYLE1
 70
     0
 41
3.0
 44
0.0
 73
     0
 74
     0
 77
     1
 78
    12
 79
     3
140
2.0
147
0.5
173
     1
178
     0
179
     2
272
     3
276
     2
284
    12
340
48
  0
DIMSTYLE
105
1C3
102
{ACAD_REACTORS
330
1C2
330
1CD
102
}
330
A
100
AcDbSymbolTableRecord
100
AcDbDimStyleTableRecord
  2
SLDDIMSTYLE2
 70
     0
 41
3.0
 44
0.0
 45
0.000000001
 73
     0
 74
     0
 77
     1
 78
    12
 79
     3
140
2.0
147
0.5
173
     1
178
     0
271
     2
272
     3
276
     2
284
    12
340
48
  0
DIMSTYLE
105
233
102
{ACAD_REACTORS
330
232
102
}
330
A
100
AcDbSymbolTableRecord
100
AcDbDimStyleTableRecord
  2
SLDDIMSTYLE3
 70
     0
 41
3.0
 44
0.0
 45
0.000000001
 73
     0
 74
     0
 77
     1
 78
    12
 79
     3
140
2.0
147
0.5
172
     1
173
     1
178
     0
271
     2
272
     3
276
     2
284
    12
289
     0
340
48
  0
ENDTAB
  0
TABLE
  2
BLOCK_RECORD
  5
1
330
0
100
AcDbSymbolTable
 70
     8
  0
BLOCK_RECORD
  5
1F
330
1
100
AcDbSymbolTableRecord
100
AcDbBlockTableRecord
  2
*Model_Space
340
22
  0
BLOCK_RECORD
  5
1B
330
1
100
AcDbSymbolTableRecord
100
AcDbBlockTableRecord
  2
*Paper_Space
340
1E
  0
BLOCK_RECORD
  5
23
330
1
100
AcDbSymbolTableRecord
100
AcDbBlockTableRecord
  2
*Paper_Space0
340
26
  0
BLOCK_RECORD
  5
1A2
330
1
100
AcDbSymbolTableRecord
100
AcDbBlockTableRecord
  2
_D
340
0
  0
BLOCK_RECORD
  5
1AE
330
1
100
AcDbSymbolTableRecord
100
AcDbBlockTableRecord
  2
_D_1
340
0
  0
BLOCK_RECORD
  5
1BB
330
1
100
AcDbSymbolTableRecord
100
AcDbBlockTableRecord
  2
_D_2
340
0
  0
BLOCK_RECORD
  5
1C4
330
1
100
AcDbSymbolTableRecord
100
AcDbBlockTableRecord
  2
_D_3
340
0
  0
BLOCK_RECORD
  5
1CE
330
1
100
AcDbSymbolTableRecord
100
AcDbBlockTableRecord
  2
_D_4
340
0
  0
BLOCK_RECORD
  5
234
330
1
100
AcDbSymbolTableRecord
100
AcDbBlockTableRecord
  2
_D_5
340
0
  0
BLOCK_RECORD
  5
241
330
1
100
AcDbSymbolTableRecord
100
AcDbBlockTableRecord
  2
SW_CENTERMARKSYMBOL_0
340
0
102
{BLKREFS
331
24C
102
}
  0
ENDTAB
  0
ENDSEC
  0
SECTION
  2
BLOCKS
  0
BLOCK
  5
20
330
1F
100
AcDbEntity
  8
0
100
AcDbBlockBegin
  2
*Model_Space
 70
     0
 10
0.0
 20
0.0
 30
0.0
  3
*Model_Space
  1

  0
ENDBLK
  5
21
330
1F
100
AcDbEntity
  8
0
100
AcDbBlockEnd
  0
BLOCK
  5
1C
330
1B
100
AcDbEntity
 67
     1
  8
0
100
AcDbBlockBegin
  2
*Paper_Space
 70
     0
 10
0.0
 20
0.0
 30
0.0
  3
*Paper_Space
  1

  0
ENDBLK
  5
1D
330
1B
100
AcDbEntity
 67
     1
  8
0
100
AcDbBlockEnd
  0
BLOCK
  5
24
330
23
100
AcDbEntity
  8
0
100
AcDbBlockBegin
  2
*Paper_Space0
 70
     0
 10
0.0
 20
0.0
 30
0.0
  3
*Paper_Space0
  1

  0
ENDBLK
  5
25
330
23
100
AcDbEntity
  8
0
100
AcDbBlockEnd
  0
BLOCK
  5
1A3
330
1A2
100
AcDbEntity
  8
0
100
AcDbBlockBegin
  2
_D
 70
     0
 10
0.0
 20
0.0
 30
0.0
  3
_D
  1

  0
SOLID
  5
1A5
330
1A2
100
AcDbEntity
  8
VERMASSUNG
100
AcDbTrace
 10
183.6403575035
 20
153.5465400384
 30
0.0
 11
186.6403575035
 21
153.0965400384
 31
0.0
 12
186.6403575035
 22
153.9965400384
 32
0.0
 13
186.6403575035
 23
153.9965400384
 33
0.0
  0
SOLID
  5
1A6
330
1A2
100
AcDbEntity
  8
VERMASSUNG
100
AcDbTrace
 10
243.6403575035
 20
153.5465400384
 30
0.0
 11
240.6403575035
 21
153.9965400384
 31
0.0
 12
240.6403575035
 22
153.0965400384
 32
0.0
 13
240.6403575035
 23
153.0965400384
 33
0.0
  0
LINE
  5
1A7
330
1A2
100
AcDbEntity
  8
VERMASSUNG
100
AcDbLine
 10
183.6403575035
 20
136.9261072626
 30
0.0
 11
183.6403575035
 21
154.5465400384
 31
0.0
  0
LINE
  5
1A8
330
1A2
100
AcDbEntity
  8
VERMASSUNG
100
AcDbLine
 10
243.6403575035
 20
147.2261072626
 30
0.0
 11
243.6403575035
 21
154.5465400384
 31
0.0
  0
LINE
  5
1A9
330
1A2
100
AcDbEntity
  8
VERMASSUNG
100
AcDbLine
 10
183.6403575035
 20
153.5465400384
 30
0.0
 11
243.6403575035
 21
153.5465400384
 31
0.0
  0
MTEXT
  5
1AA
330
1A2
100
AcDbEntity
  8
VERMASSUNG
100
AcDbMText
 10
209.0903573165
 20
156.1246754015
 30
0.1
 40
2.0
 41
0.0
 71
     1
 72
     1
  1
60
  7
SLDTEXTSTYLE0
 73
     1
 44
1.0
  0
MTEXT
  5
1AB
330
1A2
100
AcDbEntity
  8
VERMASSUNG
100
AcDbMText
 10
214.8778574186
 20
156.1246754015
 30
0.1
 40
2.0
 41
0.0
 71
     1
 72
     1
  1

  7
SLDTEXTSTYLE0
 73
     1
 44
1.0
  0
MTEXT
  5
1AC
330
1A2
100
AcDbEntity
  8
VERMASSUNG
100
AcDbMText
 10
214.8903577084
 20
155.6301415387
 30
0.1
 40
1.5
 41
0.0
 71
     1
 72
     1
  1
±0.1
  7
SLDTEXTSTYLE0
 73
     1
 44
1.0
  0
ENDBLK
  5
1A4
330
1A2
100
AcDbEntity
  8
0
100
AcDbBlockEnd
  0
BLOCK
  5
1AF
330
1AE
100
AcDbEntity
  8
0
100
AcDbBlockBegin
  2
_D_1
 70
     0
 10
0.0
 20
0.0
 30
0.0
  3
_D_1
  1

  0
SOLID
  5
1B1
330
1AE
100
AcDbEntity
  8
VERMASSUNG
100
AcDbTrace
 10
259.1376581293
 20
147.2261072626
 30
0.0
 11
258.6876581293
 21
144.2261072626
 31
0.0
 12
259.5876581293
 22
144.2261072626
 32
0.0
 13
259.5876581293
 23
144.2261072626
 33
0.0
  0
SOLID
  5
1B2
330
1AE
100
AcDbEntity
  8
VERMASSUNG
100
AcDbTrace
 10
259.1376581293
 20
112.2261072626
 30
0.0
 11
259.5876581293
 21
115.2261072626
 31
0.0
 12
258.6876581293
 22
115.2261072626
 32
0.0
 13
258.6876581293
 23
115.2261072626
 33
0.0
  0
LINE
  5
1B3
330
1AE
100
AcDbEntity
  8
VERMASSUNG
100
AcDbLine
 10
243.6403575035
 20
147.2261072626
 30
0.0
 11
260.1376581293
 21
147.2261072626
 31
0.0
  0
LINE
  5
1B4
330
1AE
100
AcDbEntity
  8
VERMASSUNG
100
AcDbLine
 10
243.6403575035
 20
112.2261072626
 30
0.0
 11
260.1376581293
 21
112.2261072626
 31
0.0
  0
LINE
  5
1B5
330
1AE
100
AcDbEntity
  8
VERMASSUNG
100
AcDbLine
 10
259.1376581293
 20
147.2261072626
 30
0.0
 11
259.1376581293
 21
112.2261072626
 31
0.0
  0
MTEXT
  5
1B6
330
1AE
100
AcDbEntity
  8
VERMASSUNG
100
AcDbMText
 10
256.5595227662
 20
125.1761070756
 30
0.1
 40
2.0
 41
0.0
 71
     1
 72
     1
  1
35
  7
SLDTEXTSTYLE0
 11
-7.044195017643634E-15
 21
1.0
 31
0.0
 73
     1
 44
1.0
  0
MTEXT
  5
1B7
330
1AE
100
AcDbEntity
  8
VERMASSUNG
100
AcDbMText
 10
256.5595227662
 20
130.9636071777
 30
0.1
 40
2.0
 41
0.0
 71
     1
 72
     1
  1

  7
SLDTEXTSTYLE0
 11
-7.044195017643634E-15
 21
1.0
 31
0.0
 73
     1
 44
1.0
  0
MTEXT
  5
1B8
330
1AE
100
AcDbEntity
  8
VERMASSUNG
100
AcDbMText
 10
257.0540566289
 20
130.9761074675
 30
0.1
 40
1.5
 41
0.0
 71
     1
 72
     1
  1
±0.1
  7
SLDTEXTSTYLE0
 11
-7.044195017643634E-15
 21
1.0
 31
0.0
 73
     1
 44
1.0
  0
ENDBLK
  5
1B0
330
1AE
100
AcDbEntity
  8
0
100
AcDbBlockEnd
  0
BLOCK
  5
1BC
330
1BB
100
AcDbEntity
  8
0
100
AcDbBlockBegin
  2
_D_2
 70
     0
 10
0.0
 20
0.0
 30
0.0
  3
_D_2
  1

  0
ARC
  5
1BE
330
1BB
100
AcDbEntity
  8
VERMASSUNG
100
AcDbCircle
 10
243.7862469809
 20
147.2261072626
 30
0.0
 40
11.63479240344803
100
AcDbArc
 50
252.4959754718
 51
0.0
  0
SOLID
  5
1BF
330
1BB
100
AcDbEntity
  8
VERMASSUNG
100
AcDbTrace
 10
240.2868180197
 20
136.1300543059
 30
0.0
 11
243.1584440229
 21
135.1521667369
 31
0.0
 12
243.3189751726
 22
136.0377342103
 32
0.0
 13
243.3189751726
 23
136.0377342103
 33
0.0
  0
SOLID
  5
1C0
330
1BB
100
AcDbEntity
  8
VERMASSUNG
100
AcDbTrace
 10
255.4210393843
 20
147.2261072626
 30
0.0
 11
254.5970943105
 21
144.3065842681
 31
0.0
 12
255.4899397155
 22
144.1933275567
 32
0.0
 13
255.4899397155
 23
144.1933275567
 33
0.0
  0
MTEXT
  5
1C1
330
1BB
100
AcDbEntity
  8
VERMASSUNG
100
AcDbMText
 10
245.5928315442
 20
137.3205891665
 30
0.1
 40
2.0
 41
0.0
 71
     1
 72
     1
  1
107.5°
  7
SLDTEXTSTYLE0
 11
0.8064653709398222
 21
0.5912813251531753
 31
0.0
 73
     1
 44
1.0
  0
ENDBLK
  5
1BD
330
1BB
100
AcDbEntity
  8
0
100
AcDbBlockEnd
  0
BLOCK
  5
1C5
330
1C4
100
AcDbEntity
  8
0
100
AcDbBlockBegin
  2
_D_3
 70
     0
 10
0.0
 20
0.0
 30
0.0
  3
_D_3
  1

  0
SOLID
  5
1C7
330
1C4
100
AcDbEntity
  8
VERMASSUNG
100
AcDbTrace
 10
153.6403575035
 20
161.0131611069
 30
0.0
 11
156.6403575035
 21
160.5631611069
 31
0.0
 12
156.6403575035
 22
161.4631611069
 32
0.0
 13
156.6403575035
 23
161.4631611069
 33
0.0
  0
SOLID
  5
1C8
330
1C4
100
AcDbEntity
  8
VERMASSUNG
100
AcDbTrace
 10
243.6403575035
 20
161.0131611069
 30
0.0
 11
240.6403575035
 21
161.4631611069
 31
0.0
 12
240.6403575035
 22
160.5631611069
 32
0.0
 13
240.6403575035
 23
160.5631611069
 33
0.0
  0
LINE
  5
1C9
330
1C4
100
AcDbEntity
  8
VERMASSUNG
100
AcDbLine
 10
153.6403575035
 20
128.2194331008
 30
0.0
 11
153.6403575035
 21
162.0131611069
 31
0.0
  0
LINE
  5
1CA
330
1C4
100
AcDbEntity
  8
VERMASSUNG
100
AcDbLine
 10
243.6403575035
 20
147.2261072626
 30
0.0
 11
243.6403575035
 21
162.0131611069
 31
0.0
  0
LINE
  5
1CB
330
1C4
100
AcDbEntity
  8
VERMASSUNG
100
AcDbLine
 10
153.6403575035
 20
161.0131611069
 30
0.0
 11
243.6403575035
 21
161.0131611069
 31
0.0
  0
MTEXT
  5
1CC
330
1C4
100
AcDbEntity
  8
VERMASSUNG
100
AcDbMText
 10
196.3403574525
 20
163.59129647
 30
0.1
 40
2.0
 41
0.0
 71
     1
 72
     1
  1
90
  7
SLDTEXTSTYLE0
 73
     1
 44
1.0
  0
ENDBLK
  5
1C6
330
1C4
100
AcDbEntity
  8
0
100
AcDbBlockEnd
  0
BLOCK
  5
1CF
330
1CE
100
AcDbEntity
  8
0
100
AcDbBlockBegin
  2
_D_4
 70
     0
 10
0.0
 20
0.0
 30
0.0
  3
_D_4
  1

  0
SOLID
  5
1D1
330
1CE
100
AcDbEntity
  8
VERMASSUNG
100
AcDbTrace
 10
143.6403575035
 20
137.2261072626
 30
0.0
 11
143.1903575035
 21
134.2261072626
 31
0.0
 12
144.0903575035
 22
134.2261072626
 32
0.0
 13
144.0903575035
 23
134.2261072626
 33
0.0
  0
SOLID
  5
1D2
330
1CE
100
AcDbEntity
  8
VERMASSUNG
100
AcDbTrace
 10
143.6403575035
 20
87.2261072626
 30
0.0
 11
144.0903575035
 21
90.2261072626
 31
0.0
 12
143.1903575035
 22
90.2261072626
 32
0.0
 13
143.1903575035
 23
90.2261072626
 33
0.0
  0
LINE
  5
1D3
330
1CE
100
AcDbEntity
  8
VERMASSUNG
100
AcDbLine
 10
183.9403575035
 20
137.2261072626
 30
0.0
 11
142.6403575035
 21
137.2261072626
 31
0.0
  0
LINE
  5
1D4
330
1CE
100
AcDbEntity
  8
VERMASSUNG
100
AcDbLine
 10
183.9403575035
 20
87.2261072626
 30
0.0
 11
142.6403575035
 21
87.2261072626
 31
0.0
  0
LINE
  5
1D5
330
1CE
100
AcDbEntity
  8
VERMASSUNG
100
AcDbLine
 10
143.6403575035
 20
137.2261072626
 30
0.0
 11
143.6403575035
 21
87.2261072626
 31
0.0
  0
MTEXT
  5
1D6
330
1CE
100
AcDbEntity
  8
VERMASSUNG
100
AcDbMText
 10
140.8622220145
 20
105.8211071534
 30
0.35
 40
2.0
 41
0.0
 71
     1
 72
     1
  1
PSC
  7
SLDTEXTSTYLE0
 11
-7.044195017643634E-15
 21
1.0
 31
0.0
 73
     1
 44
1.0
  0
MTEXT
  5
1D7
330
1CE
100
AcDbEntity
  8
VERMASSUNG
100
AcDbMText
 10
141.062222024
 20
110.4211072554
 30
0.35
 40
2.0
 41
0.0
 71
     1
 72
     1
  1
%%c
  7
SLDTEXTSTYLE0
 11
-7.044195017643634E-15
 21
1.0
 31
0.0
 73
     1
 44
1.0
  0
MTEXT
  5
1D8
330
1CE
100
AcDbEntity
  8
VERMASSUNG
100
AcDbMText
 10
140.8622220145
 20
114.0311077354
 30
0.35
 40
2.0
 41
0.0
 71
     1
 72
     1
  1
50
  7
SLDTEXTSTYLE0
 11
-7.044195017643634E-15
 21
1.0
 31
0.0
 73
     1
 44
1.0
  0
ENDBLK
  5
1D0
330
1CE
100
AcDbEntity
  8
0
100
AcDbBlockEnd
  0
BLOCK
  5
235
330
234
100
AcDbEntity
  8
0
100
AcDbBlockBegin
  2
_D_5
 70
     0
 10
0.0
 20
0.0
 30
0.0
  3
_D_5
  1

  0
SOLID
  5
237
330
234
100
AcDbEntity
  8
VERMASSUNG
100
AcDbTrace
 10
104.8350583742
 20
91.5866082077
 30
0.0
 11
106.6381806662
 21
89.1470898126
 31
0.0
 12
107.2745767693
 22
89.7834859157
 32
0.0
 13
107.2745767693
 23
89.7834859157
 33
0.0
  0
SOLID
  5
238
330
234
100
AcDbEntity
  8
VERMASSUNG
100
AcDbTrace
 10
58.873117597
 20
137.5485489848
 30
0.0
 11
57.069995305
 21
139.9880673799
 31
0.0
 12
56.4335992019
 22
139.3516712768
 32
0.0
 13
56.4335992019
 23
139.3516712768
 33
0.0
  0
LINE
  5
239
330
234
100
AcDbEntity
  8
VERMASSUNG
100
AcDbLine
 10
104.8350583742
 20
91.5866082077
 30
0.0
 11
104.127951593
 21
90.8795014265
 31
0.0
  0
LINE
  5
23A
330
234
100
AcDbEntity
  8
VERMASSUNG
100
AcDbLine
 10
58.873117597
 20
137.5485489848
 30
0.0
 11
58.1660108159
 21
136.8414422036
 31
0.0
  0
LINE
  5
23B
330
234
100
AcDbEntity
  8
VERMASSUNG
100
AcDbLine
 10
104.8350583742
 20
91.5866082077
 30
0.0
 11
109.0776990613
 21
87.3439675206
 31
0.0
  0
LINE
  5
23C
330
234
100
AcDbEntity
  8
VERMASSUNG
100
AcDbLine
 10
104.8350583742
 20
91.5866082077
 30
0.0
 11
58.873117597
 21
137.5485489848
 31
0.0
  0
LINE
  5
23D
330
234
100
AcDbEntity
  8
VERMASSUNG
100
AcDbLine
 10
58.873117597
 20
137.5485489848
 30
0.0
 11
45.6071236871
 21
150.8145428948
 31
0.0
  0
MTEXT
  5
23E
330
234
100
AcDbEntity
  8
VERMASSUNG
100
AcDbMText
 10
47.4301407675
 20
152.6375599752
 30
0.1
 40
2.0
 41
0.0
 71
     1
 72
     1
  1
%%c
  7
SLDTEXTSTYLE0
 11
0.7071067811865464
 21
-0.7071067811865488
 31
0.0
 73
     1
 44
1.0
  0
MTEXT
  5
23F
330
234
100
AcDbEntity
  8
VERMASSUNG
100
AcDbMText
 10
50.1242176206
 20
150.226325848
 30
0.1
 40
2.0
 41
0.0
 71
     1
 72
     1
  1
65
  7
SLDTEXTSTYLE0
 11
0.7071067811865464
 21
-0.7071067811865488
 31
0.0
 73
     1
 44
1.0
  0
MTEXT
  5
240
330
234
100
AcDbEntity
  8
VERMASSUNG
100
AcDbMText
 10
54.2165985182
 20
146.1339449504
 30
0.1
 40
2.0
 41
0.0
 71
     1
 72
     1
  1
min.
  7
SLDTEXTSTYLE0
 11
0.7071067811865464
 21
-0.7071067811865488
 31
0.0
 73
     1
 44
1.0
  0
ENDBLK
  5
236
330
234
100
AcDbEntity
  8
0
100
AcDbBlockEnd
  0
BLOCK
  5
242
330
241
100
AcDbEntity
  8
0
100
AcDbBlockBegin
  2
SW_CENTERMARKSYMBOL_0
 70
     0
 10
0.0
 20
0.0
 30
0.0
  3
SW_CENTERMARKSYMBOL_0
  1

  0
LINE
  5
244
330
241
100
AcDbEntity
  8
VERMASSUNG
 62
     0
100
AcDbLine
 10
0.0
 20
0.0
 30
0.0
 11
0.0
 21
2.5
 31
0.0
  0
LINE
  5
245
330
241
100
AcDbEntity
  8
VERMASSUNG
 62
     0
100
AcDbLine
 10
0.0
 20
0.0
 30
0.0
 11
-2.5
 21
0.0
 31
0.0
  0
LINE
  5
246
330
241
100
AcDbEntity
  8
VERMASSUNG
 62
     0
100
AcDbLine
 10
0.0
 20
0.0
 30
0.0
 11
0.0
 21
-2.5
 31
0.0
  0
LINE
  5
247
330
241
100
AcDbEntity
  8
VERMASSUNG
 62
     0
100
AcDbLine
 10
0.0
 20
0.0
 30
0.0
 11
2.5
 21
0.0
 31
0.0
  0
LINE
  5
248
330
241
100
AcDbEntity
  8
VERMASSUNG
 62
     0
100
AcDbLine
 10
0.0
 20
5.0
 30
0.0
 11
0.0
 21
38.2060958715
 31
0.0
  0
LINE
  5
249
330
241
100
AcDbEntity
  8
VERMASSUNG
 62
     0
100
AcDbLine
 10
-5.0
 20
0.0
 30
0.0
 11
-27.5
 21
0.0
 31
0.0
  0
LINE
  5
24A
330
241
100
AcDbEntity
  8
VERMASSUNG
 62
     0
100
AcDbLine
 10
0.0
 20
-5.0
 30
0.0
 11
0.0
 21
-27.5
 31
0.0
  0
LINE
  5
24B
330
241
100
AcDbEntity
  8
VERMASSUNG
 62
     0
100
AcDbLine
 10
5.0
 20
0.0
 30
0.0
 11
27.5
 21
0.0
 31
0.0
  0
ENDBLK
  5
243
330
241
100
AcDbEntity
  8
0
100
AcDbBlockEnd
  0
ENDSEC
  0
SECTION
  2
ENTITIES
  0
MTEXT
  5
49
330
1F
100
AcDbEntity
  8
KOPF_DÜNN
100
AcDbMText
 10
13.8892156294
 20
23.8442973028
 30
0.0
 40
3.0
 41
0.0
 71
     1
 72
     1
  1
PS5.PDF.RHA.060
  7
SLDTEXTSTYLE0
 73
     1
 44
1.0
  0
MTEXT
  5
4A
330
1F
100
AcDbEntity
  8
VERMASSUNG
100
AcDbMText
 10
13.9329988022
 20
28.8834360957
 30
0.0
 40
3.0
 41
0.0
 71
     1
 72
     1
  1
Klemmhalter rechts_Turning tool right 107.5° /55°
  7
SLDTEXTSTYLE0
 73
     1
 44
1.0
  0
MTEXT
  5
4B
330
1F
100
AcDbEntity
  8
VERMASSUNG
100
AcDbMText
 10
98.8601118557
 20
13.8365368179
 30
0.0
 40
2.0
 41
0.0
 71
     1
 72
     1
  1
Datum: 23.05.2012
  7
SLDTEXTSTYLE0
 73
     1
 44
1.0
  0
MTEXT
  5
4C
330
1F
100
AcDbEntity
  8
VERMASSUNG
100
AcDbMText
 10
13.933048693
 20
18.0482802738
 30
0.0
 40
2.0
 41
0.0
 71
     1
 72
     1
  1
PSC ø50 / DN..15 06..
  7
SLDTEXTSTYLE0
 73
     1
 44
1.0
  0
MTEXT
  5
4D
330
1F
100
AcDbEntity
  8
VERMASSUNG
100
AcDbMText
 10
13.9808475933
 20
13.9090973692
 30
0.0
 40
2.0
 41
0.0
 71
     1
 72
     1
  1
Gewicht: 748g
  7
SLDTEXTSTYLE0
 73
     1
 44
1.0
  0
ARC
  5
4E
330
1F
100
AcDbEntity
  8
0
  6
Continuous
 62
     7
370
    15
100
AcDbCircle
 10
201.6403575035
 20
123.5545991909
 30
0.0
 40
2.500000000000008
100
AcDbArc
 50
67.1129523883
 51
156.2435108243
  0
ARC
  5
4F
330
1F
100
AcDbEntity
  8
0
  6
Continuous
 62
     7
370
    15
100
AcDbCircle
 10
201.6403575035
 20
123.5545991909
 30
0.0
 40
2.500000000000005
100
AcDbArc
 50
23.7564891757
 51
67.1129523883
  0
ARC
  5
50
330
1F
100
AcDbEntity
  8
0
  6
Continuous
 62
     7
370
    15
100
AcDbCircle
 10
183.9403575035
 20
87.5261072626
 30
0.0
 40
0.3000000000000398
100
AcDbArc
 50
180.0
 51
270.0
  0
ARC
  5
51
330
1F
100
AcDbEntity
  8
0
  6
Continuous
 62
     7
370
    15
100
AcDbCircle
 10
183.9403575035
 20
136.9261072626
 30
0.0
 40
0.3000000000000398
100
AcDbArc
 50
90.0
 51
180.0
  0
LINE
  5
52
330
1F
100
AcDbEntity
  8
0
  6
Continuous
 62
     7
370
    15
100
AcDbLine
 10
215.8730294796
 20
137.2261076351
 30
0.0
 11
183.9403575178
 21
137.2261076351
 31
0.0
  0
LINE
  5
53
330
1F
100
AcDbEntity
  8
0
  6
Continuous
 62
     7
370
    15
100
AcDbLine
 10
183.9403575178
 20
87.2261068901
 30
0.0
 11
215.8730294796
 21
87.2261068901
 31
0.0
  0
LWPOLYLINE
  5
54
330
1F
100
AcDbEntity
  8
0
  6
Continuous
 62
     7
370
    15
100
AcDbPolyline
 90
        3
 70
   128
 43
0.0
 10
183.4403575086
 20
94.3862862071
 10
183.5658124438
 20
94.3179848721
 10
183.6403575035
 20
94.2652478
  0
LWPOLYLINE
  5
55
330
1F
100
AcDbEntity
  8
0
  6
Continuous
 62
     7
370
    15
100
AcDbPolyline
 90
        3
 70
   128
 43
0.0
 10
183.6403575035
 20
130.1869667252
 10
183.5658124438
 20
130.1342296531
 10
183.4403575086
 20
130.0659283181
  0
ARC
  5
56
330
1F
100
AcDbEntity
  8
0
  6
Continuous
 62
     7
370
    15
100
AcDbCircle
 10
215.8730305156
 20
138.2261072626
 30
0.0
 40
1.0
100
AcDbArc
 50
270.0
 51
345.0
  0
ARC
  5
57
330
1F
100
AcDbEntity
  8
0
  6
Continuous
 62
     7
370
    15
100
AcDbCircle
 10
215.8730305156
 20
86.2261072626
 30
0.0
 40
1.000000000000008
100
AcDbArc
 50
30.0
 51
90.0
  0
LINE
  5
58
330
1F
100
AcDbEntity
  8
0
  6
Continuous
 62
     7
370
    15
100
AcDbLine
 10
216.7390551659
 20
86.7261077394
 30
0.0
 11
223.6589122804
 21
86.7261077394
 31
0.0
  0
LINE
  5
59
330
1F
100
AcDbEntity
  8
0
  6
Continuous
 62
     7
370
    15
100
AcDbLine
 10
217.009440461
 20
138.6035504868
 30
0.0
 11
216.8389562758
 21
137.9672876676
 31
0.0
  0
LINE
  5
5A
330
1F
100
AcDbEntity
  8
0
  6
Continuous
 62
     7
370
    15
100
AcDbLine
 10
231.9843549522
 20
138.632188656
 30
0.0
 11
231.6583771499
 21
138.1505328347
 31
0.0
  0
LINE
  5
5B
330
1F
100
AcDbEntity
  8
0
  6
Continuous
 62
     7
370
    15
100
AcDbLine
 10
238.6377122494
 20
131.9452813943
 30
0.0
 11
239.3014695736
 21
133.0419062754
 31
0.0
  0
LINE
  5
5C
330
1F
100
AcDbEntity
  8
0
  6
Continuous
 62
     7
370
    15
100
AcDbLine
 10
229.1415263208
 20
142.9305552622
 30
0.0
 11
228.8805585595
 21
142.4993938883
 31
0.0
  0
ARC
  5
5D
330
1F
100
AcDbEntity
  8
0
  6
Continuous
 62
     7
370
    15
100
AcDbCircle
 10
201.630721778
 20
124.862501484
 30
0.0
 40
3.071418287605384
100
AcDbArc
 50
12.2336996285
 51
164.6685423396
  0
LWPOLYLINE
  5
5E
330
1F
100
AcDbEntity
  8
0
  6
Continuous
 62
     7
370
    15
100
AcDbPolyline
 90
       19
 70
   128
 43
0.0
 10
198.8376243281
 20
124.9287809362
 10
198.7850465121
 20
125.2690796857
 10
198.8134062158
 20
125.7699589362
 10
198.965317035
 20
126.2549479609
 10
199.2341405022
 20
126.702849858
 10
199.6081270518
 20
127.0940891584
 10
200.0709329041
 20
127.4115667795
 10
200.6023288014
 20
127.641408809
 10
201.1790912839
 20
127.773568139
 10
201.7760131749
 20
127.8022696381
 10
202.367008129
 20
127.7262597462
 10
202.9262431207
 20
127.5488586282
 10
203.4292802455
 20
127.2778214072
 10
203.8541309776
 20
126.9249926438
 10
204.1822303327
 20
126.5057922458
 10
204.3992378058
 20
126.0385421222
 10
204.4956688079
 20
125.543663383
 10
204.4673081728
 20
125.0427850639
 10
204.4355593862
 20
124.8986824533
  0
LWPOLYLINE
  5
5F
330
1F
100
AcDbEntity
  8
0
  6
Continuous
 62
     7
370
    15
100
AcDbPolyline
 90
       29
 70
   128
 43
0.0
 10
200.5163323375
 20
123.5335684498
 10
200.0476107242
 20
123.7902912428
 10
199.6587556096
 20
124.128051207
 10
199.3692670258
 20
124.52991131
 10
199.1936605664
 20
124.9757205253
 10
199.1407418864
 20
125.4431252485
 10
199.2131633925
 20
125.9086859529
 10
199.4072947892
 20
126.3490590384
 10
199.713401893
 20
126.7421619152
 10
200.1161355766
 20
127.0682831412
 10
200.595297316
 20
127.3110686918
 10
201.1268645766
 20
127.4583443185
 10
201.6841810437
 20
127.5027264958
 10
202.2392995896
 20
127.4419875001
 10
202.7643829825
 20
127.2791755503
 10
203.2331045958
 20
127.0224527573
 10
203.6219597104
 20
126.6846927931
 10
203.9114482942
 20
126.2828326901
 10
204.0870547535
 20
125.8370225435
 10
204.1399725022
 20
125.3696187516
 10
204.0675509962
 20
124.9040571158
 10
203.8734186681
 20
124.4636840304
 10
203.567313427
 20
124.0705820849
 10
203.1645797434
 20
123.7444608589
 10
202.6854161414
 20
123.5016753083
 10
202.1538507434
 20
123.3543996816
 10
201.5965342762
 20
123.3100175043
 10
201.0414157304
 20
123.3707555687
 10
200.5163323375
 20
123.5335684498
  0
LINE
  5
60
330
1F
100
AcDbEntity
  8
0
  6
Continuous
 62
     7
370
    15
100
AcDbLine
 10
183.6403575035
 20
87.5261063804
 30
0.0
 11
183.6403575035
 21
136.9261081447
 31
0.0
  0
SPLINE
  5
61
330
1F
100
AcDbEntity
  8
0
  6
Continuous
 62
     7
370
    15
100
AcDbSpline
210
0.0
220
0.0
230
1.0
 70
     8
 71
     3
 72
    70
 73
    66
 74
     0
 42
0.00000001
 43
0.00000001
 12
1.0
 22
0.0
 32
0.0
 13
1.0
 23
0.0
 33
0.0
 40
-0.0312499999999999
 40
-0.0312499999999999
 40
0.0
 40
0.0
 40
0.0312500000000001
 40
0.0312500000000001
 40
0.0625000000000001
 40
0.0625000000000001
 40
0.0937500000000002
 40
0.0937500000000002
 40
0.1250000000000003
 40
0.1250000000000003
 40
0.1562500000000003
 40
0.1562500000000003
 40
0.1875000000000004
 40
0.1875000000000004
 40
0.2187500000000005
 40
0.2187500000000005
 40
0.2500000000000006
 40
0.2500000000000006
 40
0.2812500000000006
 40
0.2812500000000006
 40
0.3125000000000007
 40
0.3125000000000007
 40
0.3437500000000008
 40
0.3437500000000008
 40
0.3750000000000008
 40
0.3750000000000008
 40
0.4062500000000009
 40
0.4062500000000009
 40
0.4375000000000008
 40
0.4375000000000008
 40
0.4687500000000008
 40
0.4687500000000008
 40
0.5000000000000008
 40
0.5000000000000008
 40
0.5312500000000008
 40
0.5312500000000008
 40
0.5625000000000007
 40
0.5625000000000007
 40
0.5937500000000007
 40
0.5937500000000007
 40
0.6250000000000006
 40
0.6250000000000006
 40
0.6562500000000006
 40
0.6562500000000006
 40
0.6875000000000006
 40
0.6875000000000006
 40
0.7187500000000004
 40
0.7187500000000004
 40
0.7500000000000004
 40
0.7500000000000004
 40
0.7812500000000004
 40
0.7812500000000004
 40
0.8125000000000003
 40
0.8125000000000003
 40
0.8437500000000003
 40
0.8437500000000003
 40
0.8750000000000002
 40
0.8750000000000002
 40
0.9062500000000002
 40
0.9062500000000002
 40
0.9375000000000002
 40
0.9375000000000002
 40
0.9687500000000001
 40
0.9687500000000001
 40
1.0
 40
1.0
 40
1.03125
 40
1.03125
 10
201.8387434174693
 20
123.2276809175635
 30
0.0
 10
201.4419715895903
 20
123.2276809175635
 30
0.0
 10
201.2469369004491
 20
123.2453165798233
 30
0.0
 10
200.8632847207638
 20
123.3142411968563
 30
0.0
 10
200.6726655918924
 20
123.3663761068579
 30
0.0
 10
200.3094512303111
 20
123.5018641179592
 30
0.0
 10
200.1372115888001
 20
123.5845711384449
 30
0.0
 10
199.8112415273229
 20
123.7790382156898
 30
0.0
 10
199.6570423054205
 20
123.89172155225
 30
0.0
 10
199.3805890611782
 20
124.1364467981348
 30
0.0
 10
199.2564705065491
 20
124.269383808505
 30
0.0
 10
199.0371531035438
 20
124.5562944667261
 30
0.0
 10
198.9440638779624
 20
124.707965432761
 30
0.0
 10
198.7943869306814
 20
125.0196889134889
 30
0.0
 10
198.7366997702321
 20
125.1820490355934
 30
0.0
 10
198.6595658792357
 20
125.5118324706808
 30
0.0
 10
198.6404663295463
 20
125.6764367502235
 30
0.0
 10
198.6402495960589
 20
126.0049450608804
 30
0.0
 10
198.6597624106847
 20
126.1705134708393
 30
0.0
 10
198.7363634537639
 20
126.4883970413975
 30
0.0
 10
198.7930386187769
 20
126.641707305419
 30
0.0
 10
198.9433878317212
 20
126.9374141383638
 30
0.0
 10
199.0372437357624
 20
127.0790565703653
 30
0.0
 10
199.2542738031038
 20
127.3397100048461
 30
0.0
 10
199.3782916500313
 20
127.4604643989998
 30
0.0
 10
199.6581068723535
 20
127.6823393677835
 30
0.0
 10
199.8094352285111
 20
127.7799538682937
 30
0.0
 10
200.1341008982473
 20
127.9503263529088
 30
0.0
 10
200.3095225165139
 20
128.0236682590872
 30
0.0
 10
200.672703904153
 20
128.1408378167403
 30
0.0
 10
200.859691622232
 20
128.1848689969573
 30
0.0
 10
201.2444158240161
 20
128.2444299556827
 30
0.0
 10
201.4433716905349
 20
128.2596475862291
 30
0.0
 10
201.8351007401175
 20
128.2597607403499
 30
0.0
 10
202.0298894052914
 20
128.2451484858708
 30
0.0
 10
202.4172639829953
 20
128.1857177093824
 30
0.0
 10
202.6065876708377
 20
128.1411492618654
 30
0.0
 10
202.9677280698299
 20
128.024931745636
 30
0.0
 10
203.1423149539548
 20
127.9523767132984
 30
0.0
 10
203.4702241331417
 20
127.7807101754302
 30
0.0
 10
203.6212358054629
 20
127.6831191138804
 30
0.0
 10
203.8980548700954
 20
127.4642304056338
 30
0.0
 10
204.0248013493356
 20
127.341465709409
 30
0.0
 10
204.2426822994252
 20
127.0802155190234
 30
0.0
 10
204.3349803238796
 20
126.9412589416719
 30
0.0
 10
204.4859521442312
 20
126.6458489756604
 30
0.0
 10
204.5438714183256
 20
126.4897281225436
 30
0.0
 10
204.6205139928412
 20
126.1729871287562
 30
0.0
 10
204.6401746442921
 20
126.0107452449976
 30
0.0
 10
204.6405378486143
 20
125.6780274385103
 30
0.0
 10
204.6212295509972
 20
125.5131392655919
 30
0.0
 10
204.5452622099299
 20
125.1864341129935
 30
0.0
 10
204.4876658157885
 20
125.0228609210073
 30
0.0
 10
204.3373497502766
 20
124.7090396233179
 30
0.0
 10
204.2453428481699
 20
124.5591203176149
 30
0.0
 10
204.027912181544
 20
124.2736981020106
 30
0.0
 10
203.9014589567069
 20
124.1377884630213
 30
0.0
 10
203.6252020118958
 20
123.8929153710514
 30
0.0
 10
203.4743984495829
 20
123.7823186465994
 30
0.0
 10
203.1466913796393
 20
123.5861390826622
 30
0.0
 10
202.9724689971844
 20
123.5024798906885
 30
0.0
 10
202.6117022202606
 20
123.3675747213672
 30
0.0
 10
202.4227278423176
 20
123.3153922092833
 30
0.0
 10
202.0348842202114
 20
123.2453192748604
 30
0.0
 10
201.8387434174693
 20
123.2276809175635
 30
0.0
 10
201.4419715895903
 20
123.2276809175635
 30
0.0
  0
SPLINE
  5
62
330
1F
100
AcDbEntity
  8
0
  6
Continuous
 62
     7
370
    15
100
AcDbSpline
210
0.0
220
0.0
230
1.0
 70
     8
 71
     3
 72
    12
 73
     8
 74
     0
 42
0.00000001
 43
0.00000001
 12
1.0
 22
0.0
 32
0.0
 13
1.0
 23
0.0
 33
0.0
 40
0.0
 40
0.0
 40
0.0
 40
0.0
 40
0.4999999999999982
 40
0.4999999999999982
 40
0.7499999999999991
 40
0.7499999999999991
 40
1.0
 40
1.0
 40
1.0
 40
1.0
 10
191.7351016152037
 20
120.3225602606362
 30
0.0
 10
191.765800998571
 20
120.2082245935724
 30
0.0
 10
191.8071510666775
 20
120.096871240731
 30
0.0
 10
191.906906994897
 20
119.9441344684823
 30
0.0
 10
191.9466039126297
 20
119.8962745826302
 30
0.0
 10
192.0438620642773
 20
119.8216714692807
 30
0.0
 10
192.104638222268
 20
119.7949172317726
 30
0.0
 10
192.1681143170959
 20
119.7949172317726
 30
0.0
  0
LINE
  5
63
330
1F
100
AcDbEntity
  8
0
  6
Continuous
 62
     7
370
    15
100
AcDbLine
 10
192.1681141722
 20
119.7949173977
 30
0.0
 11
195.1126003879
 21
119.7949173977
 31
0.0
  0
SPLINE
  5
64
330
1F
100
AcDbEntity
  8
0
  6
Continuous
 62
     7
370
    15
100
AcDbSpline
210
0.0
220
0.0
230
1.0
 70
     8
 71
     3
 72
    12
 73
     8
 74
     0
 42
0.00000001
 43
0.00000001
 12
1.0
 22
0.0
 32
0.0
 13
1.0
 23
0.0
 33
0.0
 40
0.0
 40
0.0
 40
0.0
 40
0.0
 40
0.2499999999999982
 40
0.2499999999999982
 40
0.4999999999999963
 40
0.4999999999999963
 40
1.0
 40
1.0
 40
1.0
 40
1.0
 10
195.112600689963
 20
119.7949172317726
 30
0.0
 10
195.1762659264935
 20
119.7949172317726
 30
0.0
 10
195.2358721587169
 20
119.8209893802523
 30
0.0
 10
195.3345326836478
 20
119.8965281310734
 30
0.0
 10
195.373499673663
 20
119.9437790681696
 30
0.0
 10
195.4728865055875
 20
120.095602886136
 30
0.0
 10
195.5149627530109
 20
120.2084061359011
 30
0.0
 10
195.5456133918553
 20
120.3225602606362
 30
0.0
  0
ELLIPSE
  5
65
330
1F
100
AcDbEntity
  8
0
  6
Continuous
 62
     7
370
    15
100
AcDbEllipse
 10
182.5840998485
 20
112.2261072626
 30
0.0
 11
11.70927234972709
 21
24.67718644093745
 31
0.0
210
0.0
220
0.0
230
1.0
 40
0.3419987131
 41
5.203068809370449
 42
6.114256032590494
  0
SPLINE
  5
66
330
1F
100
AcDbEntity
  8
0
  6
Continuous
 62
     7
370
    15
100
AcDbSpline
210
0.0
220
0.0
230
1.0
 70
     8
 71
     3
 72
    12
 73
     8
 74
     0
 42
0.00000001
 43
0.00000001
 12
1.0
 22
0.0
 32
0.0
 13
1.0
 23
0.0
 33
0.0
 40
0.0
 40
0.0
 40
0.0
 40
0.0
 40
0.500000000000001
 40
0.500000000000001
 40
0.7500000000000004
 40
0.7500000000000004
 40
1.0
 40
1.0
 40
1.0
 40
1.0
 10
195.5456133918553
 20
135.8787487398237
 30
0.0
 10
195.514914008488
 20
135.9178865822196
 30
0.0
 10
195.4735639403814
 20
135.9550463649451
 30
0.0
 10
195.373808012162
 20
136.0049828705729
 30
0.0
 10
195.3341110944293
 20
136.0204357407166
 30
0.0
 10
195.2368529427816
 20
136.0443552843157
 30
0.0
 10
195.176076784791
 20
136.0528383780941
 30
0.0
 10
195.112600689963
 20
136.0528383780941
 30
0.0
  0
LINE
  5
67
330
1F
100
AcDbEntity
  8
0
  6
Continuous
 62
     7
370
    15
100
AcDbLine
 10
195.1126003879
 20
136.0528386315
 30
0.0
 11
192.1681141722
 21
136.0528386315
 31
0.0
  0
SPLINE
  5
68
330
1F
100
AcDbEntity
  8
0
  6
Continuous
 62
     7
370
    15
100
AcDbSpline
210
0.0
220
0.0
230
1.0
 70
     8
 71
     3
 72
    12
 73
     8
 74
     0
 42
0.00000001
 43
0.00000001
 12
1.0
 22
0.0
 32
0.0
 13
1.0
 23
0.0
 33
0.0
 40
0.0
 40
0.0
 40
0.0
 40
0.0
 40
0.2500000000000016
 40
0.2500000000000016
 40
0.5000000000000032
 40
0.5000000000000032
 40
1.0
 40
1.0
 40
1.0
 40
1.0
 10
192.1681143170959
 20
136.0528383780941
 30
0.0
 10
192.1044490805654
 20
136.0528383780941
 30
0.0
 10
192.0448428483421
 20
136.0445736024282
 30
0.0
 10
191.9461823234112
 20
136.020354820845
 30
0.0
 10
191.907215333396
 20
136.0050975015359
 30
0.0
 10
191.8078285014715
 20
135.955464147274
 30
0.0
 10
191.765752254048
 20
135.9178244390999
 30
0.0
 10
191.7351016152037
 20
135.8787487398237
 30
0.0
  0
ELLIPSE
  5
69
330
1F
100
AcDbEntity
  8
0
  6
Continuous
 62
     7
370
    15
100
AcDbEllipse
 10
204.6966151585
 20
112.2261072626
 30
0.0
 11
-11.70927234972694
 21
24.67718644093745
 31
0.0
210
0.0
220
0.0
230
1.0
 40
0.3419987131
 41
0.1689292745891352
 42
1.080116497809152
  0
SPLINE
  5
6A
330
1F
100
AcDbEntity
  8
0
  6
Continuous
 62
     7
370
    15
100
AcDbSpline
210
0.0
220
0.0
230
1.0
 70
     8
 71
     3
 72
    12
 73
     8
 74
     0
 42
0.00000001
 43
0.00000001
 12
1.0
 22
0.0
 32
0.0
 13
1.0
 23
0.0
 33
0.0
 40
0.0
 40
0.0
 40
0.0
 40
0.0
 40
0.4999999999999996
 40
0.4999999999999996
 40
0.7499999999999998
 40
0.7499999999999998
 40
1.0
 40
1.0
 40
1.0
 40
1.0
 10
191.7351016152037
 20
88.5734657853605
 30
0.0
 10
191.7659533257679
 20
88.53413374499802
 30
0.0
 10
191.8078461892285
 20
88.49672197946974
 30
0.0
 10
191.9073670670217
 20
88.44705105485383
 30
0.0
 10
191.9469812317461
 20
88.43166197224602
 30
0.0
 10
192.0440842655255
 20
88.40782875657877
 30
0.0
 10
192.1045829381759
 20
88.39937614708997
 30
0.0
 10
192.1681143170958
 20
88.39937614708995
 30
0.0
  0
LINE
  5
6B
330
1F
100
AcDbEntity
  8
0
  6
Continuous
 62
     7
370
    15
100
AcDbLine
 10
192.1681141722
 20
88.3993758937
 30
0.0
 11
195.1126003879
 21
88.3993758937
 31
0.0
  0
SPLINE
  5
6C
330
1F
100
AcDbEntity
  8
0
  6
Continuous
 62
     7
370
    15
100
AcDbSpline
210
0.0
220
0.0
230
1.0
 70
     8
 71
     3
 72
    12
 73
     8
 74
     0
 42
0.00000001
 43
0.00000001
 12
1.0
 22
0.0
 32
0.0
 13
1.0
 23
0.0
 33
0.0
 40
0.0
 40
0.0
 40
0.0
 40
0.0
 40
0.2500000000000009
 40
0.2500000000000009
 40
0.5000000000000019
 40
0.5000000000000019
 40
1.0
 40
1.0
 40
1.0
 40
1.0
 10
195.112600689963
 20
88.39937614709018
 30
0.0
 10
195.1762372441767
 20
88.39937614709018
 30
0.0
 10
195.2358173710429
 20
88.40763291802193
 30
0.0
 10
195.3344541124094
 20
88.43183498002975
 30
0.0
 10
195.3734127367896
 20
88.44708179906388
 30
0.0
 10
195.4727916762975
 20
88.49668667112401
 30
0.0
 10
195.514749581463
 20
88.53411831924282
 30
0.0
 10
195.5456133918555
 20
88.57346578536048
 30
0.0
  0
ELLIPSE
  5
6D
330
1F
100
AcDbEntity
  8
0
  6
Continuous
 62
     7
370
    15
100
AcDbEllipse
 10
182.5840998485
 20
112.2261072626
 30
0.0
 11
-11.70927234972717
 21
24.67718644093745
 31
0.0
210
0.0
220
0.0
230
1.0
 40
0.3419987131
 41
3.310521928178957
 42
4.221709151398946
  0
SPLINE
  5
6E
330
1F
100
AcDbEntity
  8
0
  6
Continuous
 62
     7
370
    15
100
AcDbSpline
210
0.0
220
0.0
230
1.0
 70
     8
 71
     3
 72
    12
 73
     8
 74
     0
 42
0.00000001
 43
0.00000001
 12
1.0
 22
0.0
 32
0.0
 13
1.0
 23
0.0
 33
0.0
 40
0.0
 40
0.0
 40
0.0
 40
0.0
 40
0.5000000000000018
 40
0.5000000000000018
 40
0.7500000000000009
 40
0.7500000000000009
 40
1.0
 40
1.0
 40
1.0
 40
1.0
 10
195.5456133918553
 20
104.1296542645478
 30
0.0
 10
195.514761681291
 20
104.2445572534846
 30
0.0
 10
195.4728688178304
 20
104.3566961495335
 30
0.0
 10
195.3733479400372
 20
104.5086384311343
 30
0.0
 10
195.3337337753129
 20
104.5563030406592
 30
0.0
 10
195.2366307415335
 20
104.6306393712746
 30
0.0
 10
195.1761320688831
 20
104.6572972934118
 30
0.0
 10
195.1126006899631
 20
104.6572972934118
 30
0.0
  0
LINE
  5
6F
330
1F
100
AcDbEntity
  8
0
  6
Continuous
 62
     7
370
    15
100
AcDbLine
 10
195.1126003879
 20
104.6572971275
 30
0.0
 11
192.1681141722
 21
104.6572971275
 31
0.0
  0
SPLINE
  5
70
330
1F
100
AcDbEntity
  8
0
  6
Continuous
 62
     7
370
    15
100
AcDbSpline
210
0.0
220
0.0
230
1.0
 70
     8
 71
     3
 72
    12
 73
     8
 74
     0
 42
0.00000001
 43
0.00000001
 12
1.0
 22
0.0
 32
0.0
 13
1.0
 23
0.0
 33
0.0
 40
0.0
 40
0.0
 40
0.0
 40
0.0
 40
0.2500000000000009
 40
0.2500000000000009
 40
0.5000000000000019
 40
0.5000000000000019
 40
1.0
 40
1.0
 40
1.0
 40
1.0
 10
192.1681143170959
 20
104.6572972934114
 30
0.0
 10
192.1044777628822
 20
104.6572972934114
 30
0.0
 10
192.044897636016
 20
104.6312503903535
 30
0.0
 10
191.9462608946496
 20
104.5557632314535
 30
0.0
 10
191.9073022702693
 20
104.5085441929228
 30
0.0
 10
191.8079233307614
 20
104.3568045418293
 30
0.0
 10
191.765965425596
 20
104.2446023176451
 30
0.0
 10
191.7351016152035
 20
104.1296542645478
 30
0.0
  0
ELLIPSE
  5
71
330
1F
100
AcDbEntity
  8
0
  6
Continuous
 62
     7
370
    15
100
AcDbEllipse
 10
204.6966151585
 20
112.2261072626
 30
0.0
 11
11.70927234972709
 21
24.67718644093745
 31
0.0
210
0.0
220
0.0
230
1.0
 40
0.3419987131
 41
2.061476155780655
 42
2.972663379000675
  0
ELLIPSE
  5
72
330
1F
100
AcDbEntity
  8
0
  6
Continuous
 62
     7
370
    15
100
AcDbEllipse
 10
298.5956475532
 20
112.2261072626
 30
0.0
 11
237.858677971088
 21
-4.38819492998195
 31
0.0
210
0.0
220
0.0
230
1.0
 40
0.1034726254
 41
1.92790740718285
 42
1.94221477276653
  0
SPLINE
  5
73
330
1F
100
AcDbEntity
  8
0
  6
Continuous
 62
     7
370
    15
100
AcDbSpline
210
0.0
220
0.0
230
1.0
 70
     8
 71
     3
 72
    18
 73
    14
 74
     0
 42
0.00000001
 43
0.00000001
 12
1.0
 22
0.0
 32
0.0
 13
1.0
 23
0.0
 33
0.0
 40
0.0
 40
0.0
 40
0.0
 40
0.0
 40
0.2499999999999997
 40
0.2499999999999997
 40
0.3749999999999993
 40
0.3749999999999993
 40
0.4999999999999988
 40
0.4999999999999988
 40
0.6249999999999983
 40
0.6249999999999983
 40
0.7499999999999979
 40
0.7499999999999979
 40
1.0
 40
1.0
 40
1.0
 40
1.0
 10
210.1067132992622
 20
136.1706767915454
 30
0.0
 10
210.18045210069
 20
136.2592431584424
 30
0.0
 10
210.2922412604978
 20
136.3377484890959
 30
0.0
 10
210.5213509425007
 20
136.4424327867609
 30
0.0
 10
210.60856190301
 20
136.4751728485217
 30
0.0
 10
210.798962778503
 20
136.5344753035368
 30
0.0
 10
210.902717177194
 20
136.5613502672314
 30
0.0
 10
211.1278987252227
 20
136.6100792886965
 30
0.0
 10
211.2504407604309
 20
136.6320924509384
 30
0.0
 10
211.5094999176759
 20
136.6705465413817
 30
0.0
 10
211.6447113813587
 20
136.6868708869424
 30
0.0
 10
212.0672655687568
 20
136.7281353852295
 30
0.0
 10
212.3753426074749
 20
136.7455214315201
 30
0.0
 10
212.6909053883265
 20
136.7524124320864
 30
0.0
  0
ELLIPSE
  5
74
330
1F
100
AcDbEntity
  8
0
  6
Continuous
 62
     7
370
    15
100
AcDbEllipse
 10
213.1174067118
 20
112.2261072626
 30
0.0
 11
-1.24995616101566
 21
24.99783415330239
 31
0.0
210
0.0
220
0.0
230
1.0
 40
0.263265937
 41
0.2784449395548485
 42
2.487755432987243
  0
SPLINE
  5
75
330
1F
100
AcDbEntity
  8
0
  6
Continuous
 62
     7
370
    15
100
AcDbSpline
210
0.0
220
0.0
230
1.0
 70
     8
 71
     3
 72
    14
 73
    10
 74
     0
 42
0.00000001
 43
0.00000001
 12
1.0
 22
0.0
 32
0.0
 13
1.0
 23
0.0
 33
0.0
 40
0.0
 40
0.0
 40
0.0
 40
0.0
 40
0.25
 40
0.25
 40
0.5
 40
0.5
 40
0.75
 40
0.75
 40
1.0
 40
1.0
 40
1.0
 40
1.0
 10
212.6909053883265
 20
90.83552429538459
 30
0.0
 10
212.3758226333469
 20
90.85390606440814
 30
0.0
 10
212.0756382634482
 20
90.89867918594534
 30
0.0
 10
211.504186584366
 20
91.04209546018568
 30
0.0
 10
211.2470544215099
 20
91.13746587092051
 30
0.0
 10
210.79084117551
 20
91.37568875223774
 30
0.0
 10
210.6004052316275
 20
91.51428892267732
 30
0.0
 10
210.2935388182262
 20
91.82782888014304
 30
0.0
 10
210.1803862082936
 20
91.9998039727713
 30
0.0
 10
210.1067132992622
 20
92.18378069144372
 30
0.0
  0
ELLIPSE
  5
76
330
1F
100
AcDbEntity
  8
0
  6
Continuous
 62
     7
370
    15
100
AcDbEllipse
 10
298.5956475532
 20
112.2261072626
 30
0.0
 11
237.858677971088
 21
-4.38819492998195
 31
0.0
210
0.0
220
0.0
230
1.0
 40
0.1034726254
 41
4.344788410661774
 42
4.359095776245452
  0
ELLIPSE
  5
77
330
1F
100
AcDbEntity
  8
0
  6
Continuous
 62
     7
370
    15
100
AcDbEllipse
 10
209.3070774103
 20
126.0136005955
 30
0.0
 11
0.05583088282011773
 21
2.992158382973912
 31
0.0
210
0.0
220
0.0
230
1.0
 40
0.2323720873
 41
0.0
 42
6.283185307179586
  0
SPLINE
  5
78
330
1F
100
AcDbEntity
  8
0
  6
Continuous
 62
     7
370
    15
100
AcDbSpline
210
0.0
220
0.0
230
1.0
 70
     8
 71
     3
 72
    16
 73
    12
 74
     0
 42
0.00000001
 43
0.00000001
 12
1.0
 22
0.0
 32
0.0
 13
1.0
 23
0.0
 33
0.0
 40
0.0
 40
0.0
 40
0.0
 40
0.0
 40
0.2500000000000001
 40
0.2500000000000001
 40
0.5000000000000001
 40
0.5000000000000001
 40
0.625
 40
0.625
 40
0.7499999999999999
 40
0.7499999999999999
 40
1.0
 40
1.0
 40
1.0
 40
1.0
 10
182.5994964754004
 20
94.87694998139959
 30
0.0
 10
182.6312244365931
 20
94.87615286457866
 30
0.0
 10
182.6658520269436
 20
94.87556178972339
 30
0.0
 10
182.7455457890073
 20
94.87455026428893
 30
0.0
 10
182.790587249011
 20
94.87415015611406
 30
0.0
 10
182.8734399758614
 20
94.87319228421022
 30
0.0
 10
182.9033544370613
 20
94.87281060294978
 30
0.0
 10
182.9693407676192
 20
94.87173438889126
 30
0.0
 10
183.006074393081
 20
94.87101682299712
 30
0.0
 10
183.1185711126508
 20
94.86825594531545
 30
0.0
 10
183.1889124607491
 20
94.86576885344385
 30
0.0
 10
183.2453806146542
 20
94.86359557503677
 30
0.0
  0
SPLINE
  5
79
330
1F
100
AcDbEntity
  8
0
  6
Continuous
 62
     7
370
    15
100
AcDbSpline
210
0.0
220
0.0
230
1.0
 70
     8
 71
     3
 72
    14
 73
    10
 74
     0
 42
0.00000001
 43
0.00000001
 12
1.0
 22
0.0
 32
0.0
 13
1.0
 23
0.0
 33
0.0
 40
0.0
 40
0.0
 40
0.0
 40
0.0
 40
0.1249999999999976
 40
0.1249999999999976
 40
0.2499999999999952
 40
0.2499999999999952
 40
0.4999999999999978
 40
0.4999999999999978
 40
1.0
 40
1.0
 40
1.0
 40
1.0
 10
183.2453806146226
 20
94.86359557505946
 30
0.0
 10
183.2579724085674
 20
94.86311095723713
 30
0.0
 10
183.2728435168615
 20
94.86140077930479
 30
0.0
 10
183.3050276082946
 20
94.85328523055392
 30
0.0
 10
183.3206317397705
 20
94.8470694422926
 30
0.0
 10
183.3565188794826
 20
94.82885033059102
 30
0.0
 10
183.3703709207512
 20
94.8170853022574
 30
0.0
 10
183.4038606626838
 20
94.78529016584008
 30
0.0
 10
183.4145229232596
 20
94.76749673399694
 30
0.0
 10
183.4226608801545
 20
94.75106560315255
 30
0.0
  0
LINE
  5
7A
330
1F
100
AcDbEntity
  8
0
  6
Continuous
 62
     7
370
    15
100
AcDbLine
 10
183.4403575086
 20
106.2416272355
 30
0.0
 11
183.4403575086
 21
94.3862862071
 31
0.0
  0
SPLINE
  5
7B
330
1F
100
AcDbEntity
  8
0
  6
Continuous
 62
     7
370
    15
100
AcDbSpline
210
0.0
220
0.0
230
1.0
 70
     8
 71
     3
 72
    16
 73
    12
 74
     0
 42
0.00000001
 43
0.00000001
 12
1.0
 22
0.0
 32
0.0
 13
1.0
 23
0.0
 33
0.0
 40
0.0
 40
0.0
 40
0.0
 40
0.0
 40
0.4999999999999972
 40
0.4999999999999972
 40
0.7499999999999958
 40
0.7499999999999958
 40
0.8749999999999968
 40
0.8749999999999968
 40
0.9374999999999983
 40
0.9374999999999983
 40
1.0
 40
1.0
 40
1.0
 40
1.0
 10
183.4403575035295
 20
106.2416270300176
 30
0.0
 10
183.4403575035295
 20
106.3561567607165
 30
0.0
 10
183.4363002014144
 20
106.471472835906
 30
0.0
 10
183.4106429586196
 20
106.6463959257336
 30
0.0
 10
183.3993275128775
 20
106.7062252287285
 30
0.0
 10
183.3652961455689
 20
106.7908164149767
 30
0.0
 10
183.3514171643651
 20
106.8194860011207
 30
0.0
 10
183.3154814825977
 20
106.849293788067
 30
0.0
 10
183.3005311633349
 20
106.8556289414266
 30
0.0
 10
183.2706326505931
 20
106.8544034785564
 30
0.0
 10
183.2570997902278
 20
106.8478048925216
 30
0.0
 10
183.2453806146538
 20
106.8391572044652
 30
0.0
  0
SPLINE
  5
7C
330
1F
100
AcDbEntity
  8
0
  6
Continuous
 62
     7
370
    15
100
AcDbSpline
210
0.0
220
0.0
230
1.0
 70
     8
 71
     3
 72
    14
 73
    10
 74
     0
 42
0.00000001
 43
0.00000001
 12
1.0
 22
0.0
 32
0.0
 13
1.0
 23
0.0
 33
0.0
 40
0.0
 40
0.0
 40
0.0
 40
0.0
 40
0.25
 40
0.25
 40
0.5
 40
0.5
 40
0.75
 40
0.75
 40
1.0
 40
1.0
 40
1.0
 40
1.0
 10
183.2453806146607
 20
106.8391572044565
 30
0.0
 10
183.1889209487769
 20
106.7974950947577
 30
0.0
 10
183.1180484739147
 20
106.7666616141695
 30
0.0
 10
182.9695821160328
 20
106.7723761227826
 30
0.0
 10
182.900386912825
 20
106.8079470502156
 30
0.0
 10
182.7906697267555
 20
106.8948909626895
 30
0.0
 10
182.7454238378234
 20
106.9473232760546
 30
0.0
 10
182.6658067068566
 20
107.0558763575731
 30
0.0
 10
182.6312040873997
 20
107.1128594438156
 30
0.0
 10
182.5994964754009
 20
107.1714255264735
 30
0.0
  0
SPLINE
  5
7D
330
1F
100
AcDbEntity
  8
0
  6
Continuous
 62
     7
370
    15
100
AcDbSpline
210
0.0
220
0.0
230
1.0
 70
     8
 71
     3
 72
    10
 73
     6
 74
     0
 42
0.00000001
 43
0.00000001
 12
1.0
 22
0.0
 32
0.0
 13
1.0
 23
0.0
 33
0.0
 40
0.0
 40
0.0
 40
0.0
 40
0.0
 40
0.5
 40
0.5
 40
1.0
 40
1.0
 40
1.0
 40
1.0
 10
182.3190371599699
 20
108.0242441181198
 30
0.0
 10
182.3499157435818
 20
107.8746155662601
 30
0.0
 10
182.3859084513052
 20
107.7281201487365
 30
0.0
 10
182.4752487028023
 20
107.4429285101957
 30
0.0
 10
182.5277070056478
 20
107.3040254844798
 30
0.0
 10
182.599496475401
 20
107.1714255264733
 30
0.0
  0
SPLINE
  5
7E
330
1F
100
AcDbEntity
  8
0
  6
Continuous
 62
     7
370
    15
100
AcDbSpline
210
0.0
220
0.0
230
1.0
 70
     8
 71
     3
 72
    10
 73
     6
 74
     0
 42
0.00000001
 43
0.00000001
 12
1.0
 22
0.0
 32
0.0
 13
1.0
 23
0.0
 33
0.0
 40
0.0
 40
0.0
 40
0.0
 40
0.0
 40
0.5
 40
0.5
 40
1.0
 40
1.0
 40
1.0
 40
1.0
 10
182.5994964754003
 20
117.2807889987098
 30
0.0
 10
182.5277070056474
 20
117.1481890407034
 30
0.0
 10
182.475248702802
 20
117.0092860149877
 30
0.0
 10
182.3859084513051
 20
116.7240943764473
 30
0.0
 10
182.3499157435818
 20
116.577598958924
 30
0.0
 10
182.3190371599699
 20
116.4279704070645
 30
0.0
  0
SPLINE
  5
7F
330
1F
100
AcDbEntity
  8
0
  6
Continuous
 62
     7
370
    15
100
AcDbSpline
210
0.0
220
0.0
230
1.0
 70
     8
 71
     3
 72
    14
 73
    10
 74
     0
 42
0.00000001
 43
0.00000001
 12
1.0
 22
0.0
 32
0.0
 13
1.0
 23
0.0
 33
0.0
 40
0.0
 40
0.0
 40
0.0
 40
0.0
 40
0.25
 40
0.25
 40
0.5
 40
0.5
 40
0.75
 40
0.75
 40
1.0
 40
1.0
 40
1.0
 40
1.0
 10
182.5994964753996
 20
117.2807889987086
 30
0.0
 10
182.631205174885
 20
117.3393570900272
 30
0.0
 10
182.6658129935256
 20
117.3963513519672
 30
0.0
 10
182.7454714040149
 20
117.5049514867311
 30
0.0
 10
182.7905336739098
 20
117.5572796221097
 30
0.0
 10
182.9011155194882
 20
117.644780633472
 30
0.0
 10
182.9687596403035
 20
117.6798260897262
 30
0.0
 10
183.1190079307006
 20
117.6855704784822
 30
0.0
 10
183.188960328931
 20
117.6546903714322
 30
0.0
 10
183.2453806146545
 20
117.6130573207192
 30
0.0
  0
SPLINE
  5
80
330
1F
100
AcDbEntity
  8
0
  6
Continuous
 62
     7
370
    15
100
AcDbSpline
210
0.0
220
0.0
230
1.0
 70
     8
 71
     3
 72
    16
 73
    12
 74
     0
 42
0.00000001
 43
0.00000001
 12
1.0
 22
0.0
 32
0.0
 13
1.0
 23
0.0
 33
0.0
 40
0.0
 40
0.0
 40
0.0
 40
0.0
 40
0.0625000000000016
 40
0.0625000000000016
 40
0.1250000000000032
 40
0.1250000000000032
 40
0.2500000000000056
 40
0.2500000000000056
 40
0.500000000000005
 40
0.500000000000005
 40
1.0
 40
1.0
 40
1.0
 40
1.0
 10
183.2453806146226
 20
117.6130573206657
 30
0.0
 10
183.2571148490695
 20
117.6043985205215
 30
0.0
 10
183.2706466045485
 20
117.5977944352862
 30
0.0
 10
183.3006340649783
 20
117.5965974681121
 30
0.0
 10
183.3156287713866
 20
117.603019215178
 30
0.0
 10
183.3513691937814
 20
117.6327363685873
 30
0.0
 10
183.3653825307826
 20
117.6615437659706
 30
0.0
 10
183.3995266195639
 20
117.7466234875965
 30
0.0
 10
183.4104985236823
 20
117.8049984368663
 30
0.0
 10
183.4363440639486
 20
117.9807139616549
 30
0.0
 10
183.4403575035295
 20
118.0965089695193
 30
0.0
 10
183.4403575035295
 20
118.2105874951667
 30
0.0
  0
LINE
  5
81
330
1F
100
AcDbEntity
  8
0
  6
Continuous
 62
     7
370
    15
100
AcDbLine
 10
183.4403575086
 20
130.0659283181
 30
0.0
 11
183.4403575086
 21
118.2105872897
 31
0.0
  0
SPLINE
  5
82
330
1F
100
AcDbEntity
  8
0
  6
Continuous
 62
     7
370
    15
100
AcDbSpline
210
0.0
220
0.0
230
1.0
 70
     8
 71
     3
 72
    16
 73
    12
 74
     0
 42
0.00000001
 43
0.00000001
 12
1.0
 22
0.0
 32
0.0
 13
1.0
 23
0.0
 33
0.0
 40
0.0
 40
0.0
 40
0.0
 40
0.0
 40
0.5000000000000018
 40
0.5000000000000018
 40
0.7500000000000009
 40
0.7500000000000009
 40
0.8750000000000004
 40
0.8750000000000004
 40
0.9375000000000002
 40
0.9375000000000002
 40
1.0
 40
1.0
 40
1.0
 40
1.0
 10
183.4403575035296
 20
129.7728617282598
 30
0.0
 10
183.4403575035294
 20
129.7508467136804
 30
0.0
 10
183.4362329606754
 20
129.7254930789767
 30
0.0
 10
183.4103165150423
 20
129.6783325767881
 30
0.0
 10
183.3990389340225
 20
129.6611335885594
 30
0.0
 10
183.3653035554811
 20
129.6311556229901
 30
0.0
 10
183.3509147402367
 20
129.6198042144482
 30
0.0
 10
183.3156680507977
 20
129.6031163549708
 30
0.0
 10
183.3004626263407
 20
129.5975533280856
 30
0.0
 10
183.2708160471714
 20
129.5905837450504
 30
0.0
 10
183.257110711174
 20
129.589070403995
 30
0.0
 10
183.2453806146502
 20
129.5886189501452
 30
0.0
  0
SPLINE
  5
83
330
1F
100
AcDbEntity
  8
0
  6
Continuous
 62
     7
370
    15
100
AcDbSpline
210
0.0
220
0.0
230
1.0
 70
     8
 71
     3
 72
    14
 73
    10
 74
     0
 42
0.00000001
 43
0.00000001
 12
1.0
 22
0.0
 32
0.0
 13
1.0
 23
0.0
 33
0.0
 40
0.0
 40
0.0
 40
0.0
 40
0.0
 40
0.25
 40
0.25
 40
0.5
 40
0.5
 40
0.75
 40
0.75
 40
1.0
 40
1.0
 40
1.0
 40
1.0
 10
183.2453806146607
 20
129.5886189501477
 30
0.0
 10
183.1889335326024
 20
129.5864464827284
 30
0.0
 10
183.1180831485596
 20
129.583948384811
 30
0.0
 10
182.9696467137432
 20
129.5803019260228
 30
0.0
 10
182.9004574620563
 20
129.5793341791715
 30
0.0
 10
182.7907459138154
 20
129.5780666198088
 30
0.0
 10
182.745504264473
 20
129.5776637788805
 30
0.0
 10
182.6658562462891
 20
129.5766527439528
 30
0.0
 10
182.6312293305231
 20
129.5760617835582
 30
0.0
 10
182.5994964754017
 20
129.5752645437848
 30
0.0
  0
SPLINE
  5
84
330
1F
100
AcDbEntity
  8
0
  6
Continuous
 62
     7
370
    15
100
AcDbSpline
210
0.0
220
0.0
230
1.0
 70
     8
 71
     3
 72
    18
 73
    14
 74
     0
 42
0.00000001
 43
0.00000001
 12
1.0
 22
0.0
 32
0.0
 13
1.0
 23
0.0
 33
0.0
 40
0.0
 40
0.0
 40
0.0
 40
0.0
 40
0.2499999999999998
 40
0.2499999999999998
 40
0.3749999999999998
 40
0.3749999999999998
 40
0.4999999999999999
 40
0.4999999999999999
 40
0.625
 40
0.625
 40
0.7500000000000001
 40
0.7500000000000001
 40
1.0
 40
1.0
 40
1.0
 40
1.0
 10
182.3190371599699
 20
116.4279704070645
 30
0.0
 10
182.1837515536675
 20
115.7724160716433
 30
0.0
 10
182.0825838074246
 20
115.0927949778457
 30
0.0
 10
181.9797224645556
 20
114.0374309713517
 30
0.0
 10
181.9536196190323
 20
113.678616906767
 30
0.0
 10
181.9187296354875
 20
112.9525039626442
 30
0.0
 10
181.9101433771975
 20
112.590414283628
 30
0.0
 10
181.9100436676319
 20
111.8681046262096
 30
0.0
 10
181.9185320387804
 20
111.5078848241013
 30
0.0
 10
181.952675418301
 20
110.7893187550074
 30
0.0
 10
181.9784724001548
 20
110.429553039092
 30
0.0
 10
182.0818735315428
 20
109.3629084520976
 30
0.0
 10
182.1837315237141
 20
108.6798955128153
 30
0.0
 10
182.3190371599699
 20
108.0242441181198
 30
0.0
  0
LINE
  5
85
330
1F
100
AcDbEntity
  8
0
  6
Continuous
 62
     7
370
    15
100
AcDbLine
 10
181.4403575155
 20
117.3662595568
 30
0.0
 11
181.4403575155
 21
107.0859549684
 31
0.0
  0
LINE
  5
86
330
1F
100
AcDbEntity
  8
0
  6
Continuous
 62
     7
370
    15
100
AcDbLine
 10
155.1403574886
 20
117.035885912
 30
0.0
 11
155.1403574886
 21
107.4163286132
 31
0.0
  0
LINE
  5
87
330
1F
100
AcDbEntity
  8
0
  6
Continuous
 62
     7
370
    15
100
AcDbLine
 10
153.6403581741
 20
116.6028730688
 30
0.0
 11
153.6403581741
 21
107.8493414564
 31
0.0
  0
LINE
  5
88
330
1F
100
AcDbEntity
  8
0
  6
Continuous
 62
     7
370
    15
100
AcDbLine
 10
181.4403575155
 20
117.3662595568
 30
0.0
 11
181.4403575155
 21
129.7462052783
 31
0.0
  0
ARC
  5
89
330
1F
100
AcDbEntity
  8
0
  6
Continuous
 62
     7
370
    15
100
AcDbCircle
 10
181.6402944145
 20
129.7512291583
 30
0.0
 40
0.2000000000000059
100
AcDbArc
 50
181.4391666667
 51
271.4391666667
  0
LINE
  5
8A
330
1F
100
AcDbEntity
  8
0
  6
Continuous
 62
     7
370
    15
100
AcDbLine
 10
181.4403575155
 20
94.7060092469
 30
0.0
 11
181.4403575155
 21
107.0859549684
 31
0.0
  0
ARC
  5
8B
330
1F
100
AcDbEntity
  8
0
  6
Continuous
 62
     7
370
    15
100
AcDbCircle
 10
181.6402944145
 20
94.7009853669
 30
0.0
 40
0.1999999999999917
100
AcDbArc
 50
88.5608333333
 51
178.5608333333
  0
LINE
  5
8C
330
1F
100
AcDbEntity
  8
0
  6
Continuous
 62
     7
370
    15
100
AcDbLine
 10
155.1403574886
 20
95.3667565366
 30
0.0
 11
155.1403574886
 21
107.4163286132
 31
0.0
  0
LINE
  5
8D
330
1F
100
AcDbEntity
  8
0
  6
Continuous
 62
     7
370
    15
100
AcDbLine
 10
155.1403574886
 20
95.3667565366
 30
0.0
 11
181.4403575155
 21
94.7060092469
 31
0.0
  0
LINE
  5
8E
330
1F
100
AcDbEntity
  8
0
  6
Continuous
 62
     7
370
    15
100
AcDbLine
 10
155.1403574886
 20
117.035885912
 30
0.0
 11
155.1403574886
 21
129.0854579886
 31
0.0
  0
LINE
  5
8F
330
1F
100
AcDbEntity
  8
0
  6
Continuous
 62
     7
370
    15
100
AcDbLine
 10
155.1403574886
 20
129.0854579886
 30
0.0
 11
181.4403575155
 21
129.7462052783
 31
0.0
  0
LINE
  5
90
330
1F
100
AcDbEntity
  8
0
  6
Continuous
 62
     7
370
    15
100
AcDbLine
 10
181.6453176326
 20
94.9009220233
 30
0.0
 11
182.599496493
 21
94.8769497802
 31
0.0
  0
LINE
  5
91
330
1F
100
AcDbEntity
  8
0
  6
Continuous
 62
     7
370
    15
100
AcDbLine
 10
181.6453176326
 20
129.5512925019
 30
0.0
 11
182.599496493
 21
129.575264745
 31
0.0
  0
LINE
  5
92
330
1F
100
AcDbEntity
  8
0
  6
Continuous
 62
     7
370
    15
100
AcDbLine
 10
153.6403581741
 20
96.2327822228
 30
0.0
 11
155.1403574886
 21
95.3667565366
 31
0.0
  0
LINE
  5
93
330
1F
100
AcDbEntity
  8
0
  6
Continuous
 62
     7
370
    15
100
AcDbLine
 10
153.6403581741
 20
96.2327822228
 30
0.0
 11
153.6403581741
 21
107.8493414564
 31
0.0
  0
LINE
  5
94
330
1F
100
AcDbEntity
  8
0
  6
Continuous
 62
     7
370
    15
100
AcDbLine
 10
153.6403581741
 20
128.2194323023
 30
0.0
 11
155.1403574886
 21
129.0854579886
 31
0.0
  0
LINE
  5
95
330
1F
100
AcDbEntity
  8
0
  6
Continuous
 62
     7
370
    15
100
AcDbLine
 10
153.6403581741
 20
116.6028730688
 30
0.0
 11
153.6403581741
 21
128.2194323023
 31
0.0
  0
LWPOLYLINE
  5
96
330
1F
100
AcDbEntity
  8
0
  6
Continuous
 62
     7
370
    15
100
AcDbPolyline
 90
       34
 70
   128
 43
0.0
 10
228.3145342263
 20
120.3740053927
 10
228.9732847604
 20
120.4242707347
 10
229.6082269641
 20
120.5972974306
 10
230.196409324
 20
120.8868307178
 10
230.716579059
 20
121.2824062561
 10
231.1499309036
 20
121.7697273125
 10
231.4808037373
 20
122.3311807146
 10
231.6972431036
 20
122.9464738747
 10
231.7914184424
 20
123.5933686724
 10
231.7599322888
 20
124.2484842544
 10
231.6039171311
 20
124.888143607
 10
231.3290167841
 20
125.4892285099
 10
230.945166597
 20
126.0300121387
 10
230.4662395509
 20
126.4909506892
 10
229.9095396193
 20
126.8553837319
 10
229.2951945456
 20
127.110140503
 10
228.64540706
 20
127.246013016
 10
227.9836613926
 20
127.2580904072
 10
227.3338701817
 20
127.1459368174
 10
226.7195288333
 20
126.9136053627
 10
226.1628289016
 20
126.5694928472
 10
225.6839018556
 20
126.1260361528
 10
225.3000516685
 20
125.5992633408
 10
225.0251513215
 20
125.0082143699
 10
224.8691361638
 20
124.3742491236
 10
224.8376500102
 20
123.7202827936
 10
224.931825349
 20
123.0699504843
 10
225.1482647153
 20
122.4467569148
 10
225.479137549
 20
121.8732261216
 10
225.9124893936
 20
121.3700865512
 10
226.4326554033
 20
120.9555232083
 10
227.0208414885
 20
120.6445201417
 10
227.6557836922
 20
120.4483165523
 10
228.3145342263
 20
120.3740053927
  0
LINE
  5
97
330
1F
100
AcDbEntity
  8
0
  6
Continuous
 62
     7
370
    15
100
AcDbLine
 10
228.9888043197
 20
142.5317312708
 30
0.0
 11
226.0725837442
 21
133.2849237253
 31
0.0
  0
LINE
  5
98
330
1F
100
AcDbEntity
  8
0
  6
Continuous
 62
     7
370
    15
100
AcDbLine
 10
226.0725837442
 20
133.2849237253
 30
0.0
 11
223.0959501358
 21
132.3957285961
 31
0.0
  0
ARC
  5
99
330
1F
100
AcDbEntity
  8
0
  6
Continuous
 62
     7
370
    15
100
AcDbCircle
 10
223.7365937123
 20
130.4157271725
 30
0.0
 40
2.081064590455695
100
AcDbArc
 50
107.9293573671
 51
287.7016254472
  0
LINE
  5
9A
330
1F
100
AcDbEntity
  8
0
  6
Continuous
 62
     7
370
    15
100
AcDbLine
 10
224.3693623933
 20
128.4331950476
 30
0.0
 11
238.7828532847
 21
132.7388613602
 31
0.0
  0
LINE
  5
9B
330
1F
100
AcDbEntity
  8
0
  6
Continuous
 62
     7
370
    15
100
AcDbLine
 10
238.7828532847
 20
132.7388613602
 30
0.0
 11
225.1874733957
 21
89.6303850343
 31
0.0
  0
ELLIPSE
  5
9C
330
1F
100
AcDbEntity
  8
0
  6
Continuous
 62
     7
370
    15
100
AcDbEllipse
 10
298.5956475532
 20
112.2261072626
 30
0.0
 11
242.6158515305098
 21
-4.475958828581597
 31
0.0
210
0.0
220
0.0
230
1.0
 40
0.1034726254
 41
4.370153745737475
 42
4.406911062369711
  0
SPLINE
  5
9D
330
1F
100
AcDbEntity
  8
0
  6
Continuous
 62
     7
370
    15
100
AcDbSpline
210
0.0
220
0.0
230
1.0
 70
     8
 71
     3
 72
    10
 73
     6
 74
     0
 42
0.00000001
 43
0.00000001
 12
1.0
 22
0.0
 32
0.0
 13
1.0
 23
0.0
 33
0.0
 40
0.0
 40
0.0
 40
0.0
 40
0.0
 40
0.5
 40
0.5
 40
1.0
 40
1.0
 40
1.0
 40
1.0
 10
216.739055919335
 20
90.07997579425171
 30
0.0
 10
216.6542936256806
 20
90.23825517550866
 30
0.0
 10
216.5305055590366
 20
90.37776515988783
 30
0.0
 10
216.2300746416233
 20
90.58008232202286
 30
0.0
 10
216.0547374060556
 20
90.64229003553848
 30
0.0
 10
215.8730305155512
 20
90.65258295099882
 30
0.0
  0
SPLINE
  5
9E
330
1F
100
AcDbEntity
  8
0
  6
Continuous
 62
     7
370
    15
100
AcDbSpline
210
0.0
220
0.0
230
1.0
 70
     8
 71
     3
 72
    10
 73
     6
 74
     0
 42
0.00000001
 43
0.00000001
 12
1.0
 22
0.0
 32
0.0
 13
1.0
 23
0.0
 33
0.0
 40
0.0
 40
0.0
 40
0.0
 40
0.0
 40
0.5
 40
0.5
 40
1.0
 40
1.0
 40
1.0
 40
1.0
 10
215.8730305155505
 20
136.8191988336826
 30
0.0
 10
216.1014186382689
 20
136.8237993447458
 30
0.0
 10
216.3185837640825
 20
136.9105194891044
 30
0.0
 10
216.6625577059894
 20
137.2002694136034
 30
0.0
 10
216.7832831761724
 20
137.3960996430941
 30
0.0
 10
216.8389563418396
 20
137.6141948114826
 30
0.0
  0
SPLINE
  5
9F
330
1F
100
AcDbEntity
  8
0
  6
Continuous
 62
     7
370
    15
100
AcDbSpline
210
0.0
220
0.0
230
1.0
 70
     8
 71
     3
 72
     8
 73
     4
 74
     0
 42
0.00000001
 43
0.00000001
 12
1.0
 22
0.0
 32
0.0
 13
1.0
 23
0.0
 33
0.0
 40
0.0
 40
0.0
 40
0.0
 40
0.0
 40
1.0
 40
1.0
 40
1.0
 40
1.0
 10
216.8389563418396
 20
137.6141948114826
 30
0.0
 10
216.9778728996646
 20
138.1583893028091
 30
0.0
 10
217.1173636038149
 20
138.7024275421809
 30
0.0
 10
217.2573354054175
 20
139.24633485253
 30
0.0
  0
ARC
  5
A0
330
1F
100
AcDbEntity
  8
0
  6
Continuous
 62
     7
370
    15
100
AcDbCircle
 10
213.0919499681
 20
164.6531971836
 30
0.0
 40
25.7460505211083
100
AcDbArc
 50
279.3106577355
 51
286.62738531
  0
LINE
  5
A1
330
1F
100
AcDbEntity
  8
0
  6
Continuous
 62
     7
370
    15
100
AcDbLine
 10
220.4590890797
 20
139.9836941739
 30
0.0
 11
228.9888043197
 21
142.5317312708
 31
0.0
  0
LINE
  5
A2
330
1F
100
AcDbEntity
  8
0
  6
Continuous
 62
     7
370
    15
100
AcDbLine
 10
216.7390551659
 20
90.0799754193
 30
0.0
 11
216.7390551659
 21
86.7261077394
 31
0.0
  0
ELLIPSE
  5
A3
330
1F
100
AcDbEntity
  8
0
  6
Continuous
 62
     7
370
    15
100
AcDbEllipse
 10
231.9649380053
 20
112.2261072626
 30
0.0
 11
8.323425961531456
 21
25.49730333680023
 31
0.0
210
0.0
220
0.0
230
1.0
 40
0.0445538091
 41
3.15613592433508
 42
3.638055705673792
  0
LINE
  5
A4
330
1F
100
AcDbEntity
  8
0
  6
Continuous
 62
     7
370
    15
100
AcDbLine
 10
222.1321951839
 20
130.8034631541
 30
0.0
 11
221.6486525031
 21
130.5880519678
 31
0.0
  0
LINE
  5
A5
330
1F
100
AcDbEntity
  8
0
  6
Continuous
 62
     7
370
    15
100
AcDbLine
 10
225.1088325175
 20
131.6926582833
 30
0.0
 11
226.0725837442
 21
133.2849237253
 31
0.0
  0
LINE
  5
A6
330
1F
100
AcDbEntity
  8
0
  6
Continuous
 62
     7
370
    15
100
AcDbLine
 10
225.1088325175
 20
131.6926582833
 30
0.0
 11
222.1321951839
 21
130.8034631541
 31
0.0
  0
LINE
  5
A7
330
1F
100
AcDbEntity
  8
0
  6
Continuous
 62
     7
370
    15
100
AcDbLine
 10
217.0438993963
 20
138.5943173548
 30
0.0
 11
217.2573361787
 21
139.2463344266
 31
0.0
  0
LWPOLYLINE
  5
A8
330
1F
100
AcDbEntity
  8
0
  6
Continuous
 62
     7
370
    15
100
AcDbPolyline
 90
        3
 70
   128
 43
0.0
 10
224.1946053001
 20
128.7461920758
 10
224.1502743455
 20
128.4828922828
 10
224.152680883
 20
128.3809553017
  0
LINE
  5
A9
330
1F
100
AcDbEntity
  8
0
  6
Continuous
 62
     7
370
    15
100
AcDbLine
 10
225.4412327203
 20
132.2418349912
 30
0.0
 11
224.4956497344
 21
129.2435593089
 31
0.0
  0
LINE
  5
AA
330
1F
100
AcDbEntity
  8
0
  6
Continuous
 62
     7
370
    15
100
AcDbLine
 10
225.1401920112
 20
131.7444677582
 30
0.0
 11
224.1946053001
 21
128.7461920758
 31
0.0
  0
CIRCLE
  5
AB
330
1F
100
AcDbEntity
  8
0
  6
Continuous
 62
     7
370
    15
100
AcDbCircle
 10
228.2441029969
 20
123.8070891725
 30
0.0
 40
3.460706141426558
  0
CIRCLE
  5
AC
330
1F
100
AcDbEntity
  8
0
  6
Continuous
 62
     7
370
    15
100
AcDbCircle
 10
228.2740690712
 20
123.8142171601
 30
0.0
 40
1.976289871627098
  0
SPLINE
  5
AD
330
1F
100
AcDbEntity
  8
0
  6
Continuous
 62
     7
370
    15
100
AcDbSpline
210
0.0
220
0.0
230
1.0
 70
     8
 71
     3
 72
    11
 73
     7
 74
     0
 42
0.00000001
 43
0.00000001
 12
1.0
 22
0.0
 32
0.0
 13
1.0
 23
0.0
 33
0.0
 40
0.0
 40
0.0
 40
0.0
 40
0.0
 40
0.1081107012053763
 40
0.4711586802949008
 40
0.8135811315785171
 40
1.0
 40
1.0
 40
1.0
 40
1.0
 10
227.65981818163
 20
122.1971559455203
 30
0.0
 10
227.7144614548777
 20
122.1999620762936
 30
0.0
 10
227.9526030284993
 20
122.2121915120218
 30
0.0
 10
228.416894771548
 20
122.2535237558687
 30
0.0
 10
228.960538748049
 20
122.3409657012401
 30
0.0
 10
229.2579012912888
 20
122.4016591270107
 30
0.0
 10
229.362722882863
 20
122.4230538239287
 30
0.0
  0
SPLINE
  5
AE
330
1F
100
AcDbEntity
  8
0
  6
Continuous
 62
     7
370
    15
100
AcDbSpline
210
0.0
220
0.0
230
1.0
 70
     8
 71
     3
 72
    10
 73
     6
 74
     0
 42
0.00000001
 43
0.00000001
 12
1.0
 22
0.0
 32
0.0
 13
1.0
 23
0.0
 33
0.0
 40
0.0
 40
0.0
 40
0.0
 40
0.0
 40
0.4391165408574028
 40
0.751366765606613
 40
1.0
 40
1.0
 40
1.0
 40
1.0
 10
229.362722882863
 20
122.4230538239287
 30
0.0
 10
229.4417020456798
 20
122.6311291799832
 30
0.0
 10
229.5768422934147
 20
122.9871642930671
 30
0.0
 10
229.8081697801984
 20
123.5623494340097
 30
0.0
 10
229.9337570616222
 20
123.8658970819442
 30
0.0
 10
229.9894284697732
 20
124.0004562889741
 30
0.0
  0
SPLINE
  5
AF
330
1F
100
AcDbEntity
  8
0
  6
Continuous
 62
     7
370
    15
100
AcDbSpline
210
0.0
220
0.0
230
1.0
 70
     8
 71
     3
 72
    10
 73
     6
 74
     0
 42
0.00000001
 43
0.00000001
 12
1.0
 22
0.0
 32
0.0
 13
1.0
 23
0.0
 33
0.0
 40
0.0
 40
0.0
 40
0.0
 40
0.0
 40
0.4391163843195727
 40
0.7513673719514532
 40
1.0
 40
1.0
 40
1.0
 40
1.0
 10
229.9894284697732
 20
124.0004562889741
 30
0.0
 10
229.8246247259445
 20
124.1761930245713
 30
0.0
 10
229.5426307937888
 20
124.4768942825888
 30
0.0
 10
229.1675772282902
 20
124.9716377291707
 30
0.0
 10
228.991351653807
 20
125.2351494538025
 30
0.0
 10
228.9132330807408
 20
125.3519608756112
 30
0.0
  0
SPLINE
  5
B0
330
1F
100
AcDbEntity
  8
0
  6
Continuous
 62
     7
370
    15
100
AcDbSpline
210
0.0
220
0.0
230
1.0
 70
     8
 71
     3
 72
    11
 73
     7
 74
     0
 42
0.00000001
 43
0.00000001
 12
1.0
 22
0.0
 32
0.0
 13
1.0
 23
0.0
 33
0.0
 40
0.0
 40
0.0
 40
0.0
 40
0.0
 40
0.1864191918241554
 40
0.5288421936981098
 40
0.8918907480070126
 40
1.0
 40
1.0
 40
1.0
 40
1.0
 10
228.9132330807408
 20
125.3519608756112
 30
0.0
 10
228.8084114769552
 20
125.3305658100846
 30
0.0
 10
228.5110489235048
 20
125.2698713436153
 30
0.0
 10
227.9674054490276
 20
125.182430011515
 30
0.0
 10
227.5031128387325
 20
125.141097822326
 30
0.0
 10
227.2649740971062
 20
125.1288682057413
 30
0.0
 10
227.2103321047982
 20
125.1260620658801
 30
0.0
  0
SPLINE
  5
B1
330
1F
100
AcDbEntity
  8
0
  6
Continuous
 62
     7
370
    15
100
AcDbSpline
210
0.0
220
0.0
230
1.0
 70
     8
 71
     3
 72
    10
 73
     6
 74
     0
 42
0.00000001
 43
0.00000001
 12
1.0
 22
0.0
 32
0.0
 13
1.0
 23
0.0
 33
0.0
 40
0.0
 40
0.0
 40
0.0
 40
0.0
 40
0.4391165197516356
 40
0.7513672670146082
 40
1.0
 40
1.0
 40
1.0
 40
1.0
 10
227.2103321047982
 20
125.1260620658801
 30
0.0
 10
227.1098744970961
 20
124.8825032520453
 30
0.0
 10
226.9379826306896
 20
124.4657525444838
 30
0.0
 10
226.7229885975719
 20
123.9175552671801
 30
0.0
 10
226.626427248406
 20
123.6619619147031
 30
0.0
 10
226.5836227925977
 20
123.5486605321573
 30
0.0
  0
SPLINE
  5
B2
330
1F
100
AcDbEntity
  8
0
  6
Continuous
 62
     7
370
    15
100
AcDbSpline
210
0.0
220
0.0
230
1.0
 70
     8
 71
     3
 72
    10
 73
     6
 74
     0
 42
0.00000001
 43
0.00000001
 12
1.0
 22
0.0
 32
0.0
 13
1.0
 23
0.0
 33
0.0
 40
0.0
 40
0.0
 40
0.0
 40
0.0
 40
0.4391166125317131
 40
0.7513670429286843
 40
1.0
 40
1.0
 40
1.0
 40
1.0
 10
226.5836227925977
 20
123.5486605321573
 30
0.0
 10
226.7269496433916
 20
123.3374401224975
 30
0.0
 10
226.9721944575933
 20
122.9760234735183
 30
0.0
 10
227.3635812024428
 20
122.5082666844904
 30
0.0
 10
227.5688326485695
 20
122.2927097703794
 30
0.0
 10
227.65981818163
 20
122.1971559455203
 30
0.0
  0
LINE
  5
B3
330
1F
100
AcDbEntity
  8
0
  6
Continuous
 62
     7
370
    15
100
AcDbLine
 10
229.2171981426
 20
122.3941455712
 30
0.0
 11
229.2859707268
 21
122.5672421163
 31
0.0
  0
LINE
  5
B4
330
1F
100
AcDbEntity
  8
0
  6
Continuous
 62
     7
370
    15
100
AcDbLine
 10
229.2859707268
 20
122.5672421163
 30
0.0
 11
229.5993235203
 21
123.3559428831
 31
0.0
  0
LINE
  5
B5
330
1F
100
AcDbEntity
  8
0
  6
Continuous
 62
     7
370
    15
100
AcDbLine
 10
229.5993235203
 20
123.3559428831
 30
0.0
 11
229.9894284698
 21
124.000456289
 31
0.0
  0
LINE
  5
B6
330
1F
100
AcDbEntity
  8
0
  6
Continuous
 62
     7
370
    15
100
AcDbLine
 10
229.5993235203
 20
123.3559428831
 30
0.0
 11
229.0612239631
 21
124.0316947108
 31
0.0
  0
LINE
  5
B7
330
1F
100
AcDbEntity
  8
0
  6
Continuous
 62
     7
370
    15
100
AcDbLine
 10
229.0612239631
 20
124.0316947108
 30
0.0
 11
228.5231281313
 21
124.7074465384
 31
0.0
  0
LINE
  5
B8
330
1F
100
AcDbEntity
  8
0
  6
Continuous
 62
     7
370
    15
100
AcDbLine
 10
228.5231281313
 20
124.7074465384
 30
0.0
 11
228.9132330807
 21
125.3519608756
 31
0.0
  0
LINE
  5
B9
330
1F
100
AcDbEntity
  8
0
  6
Continuous
 62
     7
370
    15
100
AcDbLine
 10
228.5231281313
 20
124.7074465384
 30
0.0
 11
227.6716757807
 21
124.5944975992
 31
0.0
  0
LINE
  5
BA
330
1F
100
AcDbEntity
  8
0
  6
Continuous
 62
     7
370
    15
100
AcDbLine
 10
227.6716757807
 20
124.5944975992
 30
0.0
 11
226.954285452
 21
124.4993322646
 31
0.0
  0
ARC
  5
BB
330
1F
100
AcDbEntity
  8
0
  6
Continuous
 62
     7
370
    15
100
AcDbCircle
 10
227.9109320631
 20
123.1056895662
 30
0.0
 40
1.476704771845106
100
AcDbArc
 50
338.6153280828
 51
38.8346744154
  0
LWPOLYLINE
  5
BC
330
1F
100
AcDbEntity
  8
0
  6
Continuous
 62
     7
370
    15
100
AcDbPolyline
 90
        3
 70
   128
 43
0.0
 10
229.2859707268
 20
122.5672421163
 10
229.2032394799
 20
122.3937488278
 10
229.1888524088
 20
122.3687269842
  0
ARC
  5
BD
330
1F
100
AcDbEntity
  8
0
  6
Continuous
 62
     7
370
    15
100
AcDbCircle
 10
227.8616819154
 20
123.1407127927
 30
0.0
 40
1.466148899335816
100
AcDbArc
 50
97.4462119404
 51
134.9662348315
  0
ARC
  5
BE
330
1F
100
AcDbEntity
  8
0
  6
Continuous
 62
     7
370
    15
100
AcDbCircle
 10
227.8681022458
 20
123.0826866239
 30
0.0
 40
1.524518212880582
100
AcDbArc
 50
38.4987123125
 51
97.4028512071
  0
ELLIPSE
  5
BF
330
1F
100
AcDbEntity
  8
0
  6
Continuous
 62
     7
370
    15
100
AcDbEllipse
 10
233.932576502
 20
137.3180566168
 30
0.0
 11
1.99799074153205
 21
-1.237287081237412
 31
0.0
210
0.0
220
0.0
230
1.0
 40
0.9806954655
 41
1.727757646136612
 42
3.452257127209619
  0
ELLIPSE
  5
C0
330
1F
100
AcDbEntity
  8
0
  6
Continuous
 62
     7
370
    15
100
AcDbEllipse
 10
233.932576502
 20
137.3180566168
 30
0.0
 11
1.99799074153205
 21
-1.237287081237412
 31
0.0
210
0.0
220
0.0
230
1.0
 40
0.9806954655
 41
6.243458494332772
 42
8.01094295331621
  0
LINE
  5
C1
330
1F
100
AcDbEntity
  8
0
  6
Continuous
 62
     7
370
    15
100
AcDbLine
 10
231.8421978744
 20
138.4221400251
 30
0.0
 11
231.7161526772
 21
138.324360468
 31
0.0
  0
LINE
  5
C2
330
1F
100
AcDbEntity
  8
0
  6
Continuous
 62
     7
370
    15
100
AcDbLine
 10
225.3206786009
 20
128.7612329354
 30
0.0
 11
239.080548683
 21
132.8716456076
 31
0.0
  0
ARC
  5
C3
330
1F
100
AcDbEntity
  8
0
  6
Continuous
 62
     7
370
    15
100
AcDbCircle
 10
225.2052266753
 20
129.1469599587
 30
0.0
 40
0.4026344293020477
100
AcDbArc
 50
163.3440638038
 51
286.6629634921
  0
LINE
  5
C4
330
1F
100
AcDbEntity
  8
0
  6
Continuous
 62
     7
370
    15
100
AcDbLine
 10
229.1038114818
 20
142.84717954
 30
0.0
 11
224.8194854947
 21
129.2623645743
 31
0.0
  0
ARC
  5
C5
330
1F
100
AcDbEntity
  8
0
  6
Continuous
 62
     7
370
    15
100
AcDbCircle
 10
229.471857406
 20
142.730564189
 30
0.0
 40
0.3860789328064735
100
AcDbArc
 50
106.4625246324
 51
162.4191948512
  0
LINE
  5
C6
330
1F
100
AcDbEntity
  8
0
  6
Continuous
 62
     7
370
    15
100
AcDbLine
 10
243.1223172935
 20
147.2112286022
 30
0.0
 11
229.3624472114
 21
143.10081593
 31
0.0
  0
ARC
  5
C7
330
1F
100
AcDbEntity
  8
0
  6
Continuous
 62
     7
370
    15
100
AcDbCircle
 10
243.2377695699
 20
146.8255015007
 30
0.0
 40
0.4026346047508119
100
AcDbArc
 50
343.3438062155
 51
106.6630081193
  0
LINE
  5
C8
330
1F
100
AcDbEntity
  8
0
  6
Continuous
 62
     7
370
    15
100
AcDbLine
 10
239.3391844126
 20
133.1252801349
 30
0.0
 11
243.6235103997
 21
146.7100951006
 31
0.0
  0
ARC
  5
C9
330
1F
100
AcDbEntity
  8
0
  6
Continuous
 62
     7
370
    15
100
AcDbCircle
 10
238.9711411504
 20
133.2418954905
 30
0.0
 40
0.3860763966077547
100
AcDbArc
 50
286.4622239234
 51
342.4190748722
  0
ARC
  5
CA
330
1F
100
AcDbEntity
  8
0
  6
Continuous
 62
     7
370
    15
100
AcDbCircle
 10
243.2380592663
 20
146.8259169986
 30
0.0
 40
0.3825043352192598
100
AcDbArc
 50
343.3441670585
 51
106.6625576141
  0
LINE
  5
CB
330
1F
100
AcDbEntity
  8
0
  6
Continuous
 62
     7
370
    15
100
AcDbLine
 10
243.1283820661
 20
147.1923600068
 30
0.0
 11
229.368511984
 21
143.0819473346
 31
0.0
  0
ARC
  5
CC
330
1F
100
AcDbEntity
  8
0
  6
Continuous
 62
     7
370
    15
100
AcDbCircle
 10
229.4724581897
 20
142.7302000675
 30
0.0
 40
0.3667846147748943
100
AcDbArc
 50
106.4631423513
 51
162.4184945589
  0
LINE
  5
CD
330
1F
100
AcDbEntity
  8
0
  6
Continuous
 62
     7
370
    15
100
AcDbLine
 10
229.1228067371
 20
142.8409918328
 30
0.0
 11
224.83848075
 21
129.2561787298
 31
0.0
  0
ARC
  5
CE
330
1F
100
AcDbEntity
  8
0
  6
Continuous
 62
     7
370
    15
100
AcDbCircle
 10
225.2049374216
 20
129.1465453325
 30
0.0
 40
0.3825048679194725
100
AcDbArc
 50
163.3443149986
 51
286.662409674
  0
LINE
  5
CF
330
1F
100
AcDbEntity
  8
0
  6
Continuous
 62
     7
370
    15
100
AcDbLine
 10
225.3146138283
 20
128.7801015308
 30
0.0
 11
239.0744839104
 21
132.8905142029
 31
0.0
  0
ARC
  5
D0
330
1F
100
AcDbEntity
  8
0
  6
Continuous
 62
     7
370
    15
100
AcDbCircle
 10
238.9705403666
 20
133.2422596121
 30
0.0
 40
0.3667820785559689
100
AcDbArc
 50
286.4628258221
 51
342.4183682603
  0
LINE
  5
D1
330
1F
100
AcDbEntity
  8
0
  6
Continuous
 62
     7
370
    15
100
AcDbLine
 10
239.3201891574
 20
133.1314678421
 30
0.0
 11
243.6045151445
 21
146.7162828078
 31
0.0
  0
LINE
  5
D2
330
1F
100
AcDbEntity
  8
0
  6
Continuous
 62
     7
370
    15
100
AcDbLine
 10
226.6406495365
 20
130.4958417197
 30
0.0
 11
225.1764688882
 21
129.1007279535
 31
0.0
  0
LINE
  5
D3
330
1F
100
AcDbEntity
  8
0
  6
Continuous
 62
     7
370
    15
100
AcDbLine
 10
226.6406495365
 20
130.4958417197
 30
0.0
 11
227.2802111002
 21
130.6868932327
 31
0.0
  0
LINE
  5
D4
330
1F
100
AcDbEntity
  8
0
  6
Continuous
 62
     7
370
    15
100
AcDbLine
 10
238.5661568733
 20
133.5121124168
 30
0.0
 11
238.936335245
 21
133.2111406257
 31
0.0
  0
LINE
  5
D5
330
1F
100
AcDbEntity
  8
0
  6
Continuous
 62
     7
370
    15
100
AcDbLine
 10
225.4412327203
 20
132.2418349912
 30
0.0
 11
224.2284905406
 21
128.3964450588
 31
0.0
  0
LINE
  5
D6
330
1F
100
AcDbEntity
  8
0
  6
Continuous
 62
     7
370
    15
100
AcDbLine
 10
229.7788154575
 20
142.2983958503
 30
0.0
 11
229.4607948753
 21
142.6855429193
 31
0.0
  0
LINE
  5
D7
330
1F
100
AcDbEntity
  8
0
  6
Continuous
 62
     7
370
    15
100
AcDbLine
 10
226.8397849294
 20
131.1272653868
 30
0.0
 11
226.6406495365
 21
130.4958417197
 31
0.0
  0
ARC
  5
D8
330
1F
100
AcDbEntity
  8
0
  6
Continuous
 62
     7
370
    15
100
AcDbCircle
 10
229.186718453
 20
133.0553968276
 30
0.0
 40
1.006585805179539
100
AcDbArc
 50
163.3438531855
 51
286.6630463336
  0
ARC
  5
D9
330
1F
100
AcDbEntity
  8
0
  6
Continuous
 62
     7
370
    15
100
AcDbCircle
 10
227.9122054139
 20
131.7529183913
 30
0.0
 40
0.6990141491663422
100
AcDbArc
 50
224.93733465
 51
225.1276633913
  0
SPLINE
  5
DA
330
1F
100
AcDbEntity
  8
0
  6
Continuous
 62
     7
370
    15
100
AcDbSpline
210
0.0
220
0.0
230
1.0
 70
     8
 71
     3
 72
    14
 73
    10
 74
     0
 42
0.00000001
 43
0.00000001
 12
1.0
 22
0.0
 32
0.0
 13
1.0
 23
0.0
 33
0.0
 40
0.0
 40
0.0
 40
0.0
 40
0.0
 40
0.2234974293349377
 40
0.356762595817025
 40
0.453124247967074
 40
0.5344623602600863
 40
0.6157339779787394
 40
0.7396167666910728
 40
1.0
 40
1.0
 40
1.0
 40
1.0
 10
227.2802111002168
 20
130.686893232684
 30
0.0
 10
227.3360433485391
 20
130.7062320492012
 30
0.0
 10
227.4251667800748
 20
130.7371020524995
 30
0.0
 10
227.5224353988266
 20
130.8076843248752
 30
0.0
 10
227.5721413777949
 20
130.8734722726879
 30
0.0
 10
227.5917126109465
 20
130.9397141482049
 30
0.0
 10
227.5864916408508
 20
131.0160080063204
 30
0.0
 10
227.5371767251612
 20
131.1313631943937
 30
0.0
 10
227.466751374384
 20
131.2065757366999
 30
0.0
 10
227.4190303178987
 20
131.257540651183
 30
0.0
  0
SPLINE
  5
DB
330
1F
100
AcDbEntity
  8
0
  6
Continuous
 62
     7
370
    15
100
AcDbSpline
210
0.0
220
0.0
230
1.0
 70
     8
 71
     3
 72
    14
 73
    10
 74
     0
 42
0.00000001
 43
0.00000001
 12
1.0
 22
0.0
 32
0.0
 13
1.0
 23
0.0
 33
0.0
 40
0.0
 40
0.0
 40
0.0
 40
0.0
 40
0.2210596364743107
 40
0.3460785818390675
 40
0.4396028012549214
 40
0.5338888570151855
 40
0.6146543242831359
 40
0.7517225398617431
 40
1.0
 40
1.0
 40
1.0
 40
1.0
 10
227.417387464877
 20
131.2591816415595
 30
0.0
 10
227.3743254689918
 20
131.2996230260428
 30
0.0
 10
227.3069100208131
 20
131.3629357918322
 30
0.0
 10
227.2022105696715
 20
131.41843210109
 30
0.0
 10
227.1193722177496
 20
131.4352538051463
 30
0.0
 10
227.0476659779723
 20
131.4218211640397
 30
0.0
 10
226.9771180534247
 20
131.3784682640515
 30
0.0
 10
226.897208263204
 20
131.2836013469897
 30
0.0
 10
226.8622855589687
 20
131.1885237167567
 30
0.0
 10
226.8397849293908
 20
131.1272653868006
 30
0.0
  0
LINE
  5
DC
330
1F
100
AcDbEntity
  8
0
  6
Continuous
 62
     7
370
    15
100
AcDbLine
 10
229.4753495845
 20
132.0910799434
 30
0.0
 11
237.176251063
 21
134.3915305217
 31
0.0
  0
LINE
  5
DD
330
1F
100
AcDbEntity
  8
0
  6
Continuous
 62
     7
370
    15
100
AcDbLine
 10
230.6201499196
 20
140.9468419035
 30
0.0
 11
228.222366819
 21
133.3439118346
 31
0.0
  0
ARC
  5
DE
330
1F
100
AcDbEntity
  8
0
  6
Continuous
 62
     7
370
    15
100
AcDbCircle
 10
231.5402583922
 20
140.6553048594
 30
0.0
 40
0.9651908875810228
100
AcDbArc
 50
106.4618994835
 51
162.4191566619
  0
LINE
  5
DF
330
1F
100
AcDbEntity
  8
0
  6
Continuous
 62
     7
370
    15
100
AcDbLine
 10
238.96764631
 20
143.8813815942
 30
0.0
 11
231.2667448314
 21
141.5809310158
 31
0.0
  0
ARC
  5
E0
330
1F
100
AcDbEntity
  8
0
  6
Continuous
 62
     7
370
    15
100
AcDbCircle
 10
239.2562754899
 20
142.9170627582
 30
0.0
 40
1.006587115417677
100
AcDbArc
 50
343.3439914614
 51
106.6629080578
  0
LINE
  5
E1
330
1F
100
AcDbEntity
  8
0
  6
Continuous
 62
     7
370
    15
100
AcDbLine
 10
237.8228459748
 20
135.025619634
 30
0.0
 11
240.2206290754
 21
142.628549703
 31
0.0
  0
ARC
  5
E2
330
1F
100
AcDbEntity
  8
0
  6
Continuous
 62
     7
370
    15
100
AcDbCircle
 10
236.9027375022
 20
135.3171566782
 30
0.0
 40
0.9651908875810313
100
AcDbArc
 50
286.4618994835
 51
342.4191566619
  0
CIRCLE
  5
E3
330
1F
100
AcDbEntity
  8
0
  6
Continuous
 62
     7
370
    15
100
AcDbCircle
 10
234.247495827
 20
137.9605349687
 30
0.0
 40
2.544545217523861
  0
LINE
  5
E4
330
1F
100
AcDbEntity
  8
0
  6
Continuous
 62
     7
370
    15
100
AcDbLine
 10
236.0246222707
 20
136.1456616899
 30
0.0
 11
236.075982848
 21
136.3563883235
 31
0.0
  0
ARC
  5
E5
330
1F
100
AcDbEntity
  8
0
  6
Continuous
 62
     7
370
    15
100
AcDbCircle
 10
233.4919207752
 20
136.9164707569
 30
0.0
 40
2.511522057491
100
AcDbArc
 50
109.1183339736
 51
133.7675043621
  0
SPLINE
  5
E6
330
1F
100
AcDbEntity
  8
0
  6
Continuous
 62
     7
370
    15
100
AcDbSpline
210
0.0
220
0.0
230
1.0
 70
     8
 71
     3
 72
    11
 73
     7
 74
     0
 42
0.00000001
 43
0.00000001
 12
1.0
 22
0.0
 32
0.0
 13
1.0
 23
0.0
 33
0.0
 40
0.0
 40
0.0
 40
0.0
 40
0.0
 40
0.3280480261580362
 40
0.655703865553832
 40
0.9906995290748003
 40
1.0
 40
1.0
 40
1.0
 40
1.0
 10
238.5661568733415
 20
133.5121124168442
 30
0.0
 10
238.510548048026
 20
133.5596531737548
 30
0.0
 10
238.3993968786521
 20
133.6546778518263
 30
0.0
 10
238.227617026636
 20
133.8299261569686
 30
0.0
 10
238.1243849780023
 20
133.9488449656378
 30
0.0
 10
238.0778293780827
 20
134.0068546518765
 30
0.0
 10
238.076571771737
 20
134.0084216674374
 30
0.0
  0
LINE
  5
E7
330
1F
100
AcDbEntity
  8
0
  6
Continuous
 62
     7
370
    15
100
AcDbLine
 10
241.63509945
 20
145.2003057232
 30
0.0
 11
243.2206612321
 21
146.7959555914
 31
0.0
  0
LINE
  5
E8
330
1F
100
AcDbEntity
  8
0
  6
Continuous
 62
     7
370
    15
100
AcDbLine
 10
241.4359640571
 20
144.5688801935
 30
0.0
 11
241.63509945
 21
145.2003057232
 31
0.0
  0
ARC
  5
E9
330
1F
100
AcDbEntity
  8
0
  6
Continuous
 62
     7
370
    15
100
AcDbCircle
 10
238.3078319105
 20
132.1452545644
 30
0.0
 40
0.3857593896856537
100
AcDbArc
 50
297.8566502779
 51
328.7757934342
  0
SPLINE
  5
EA
330
1F
100
AcDbEntity
  8
0
  6
Continuous
 62
     7
370
    15
100
AcDbSpline
210
0.0
220
0.0
230
1.0
 70
     8
 71
     3
 72
    11
 73
     7
 74
     0
 42
0.00000001
 43
0.00000001
 12
1.0
 22
0.0
 32
0.0
 13
1.0
 23
0.0
 33
0.0
 40
0.0
 40
0.0
 40
0.0
 40
0.0
 40
0.3280435409350372
 40
0.6557033628180707
 40
0.990697023444486
 40
1.0
 40
1.0
 40
1.0
 40
1.0
 10
229.7788154574594
 20
142.2983958502816
 30
0.0
 10
229.8283436386451
 20
142.2408121280462
 30
0.0
 10
229.9273420669183
 20
142.1257120404001
 30
0.0
 10
230.1017588497079
 20
141.9548111983068
 30
0.0
 10
230.2168173799774
 20
141.8554531216837
 30
0.0
 10
230.2720236949577
 20
141.8117209373384
 30
0.0
 10
230.2735153826436
 20
141.8105392833756
 30
0.0
  0
LINE
  5
EB
330
1F
100
AcDbEntity
  8
0
  6
Continuous
 62
     7
370
    15
100
AcDbLine
 10
241.63509945
 20
145.2003057232
 30
0.0
 11
240.9955378863
 21
145.0092542102
 31
0.0
  0
ARC
  5
EC
330
1F
100
AcDbEntity
  8
0
  6
Continuous
 62
     7
370
    15
100
AcDbCircle
 10
241.219791049
 20
144.79921303
 30
0.0
 40
0.5117183868126783
100
AcDbArc
 50
224.8050429111
 51
225.0648872708
  0
SPLINE
  5
ED
330
1F
100
AcDbEntity
  8
0
  6
Continuous
 62
     7
370
    15
100
AcDbSpline
210
0.0
220
0.0
230
1.0
 70
     8
 71
     3
 72
    14
 73
    10
 74
     0
 42
0.00000001
 43
0.00000001
 12
1.0
 22
0.0
 32
0.0
 13
1.0
 23
0.0
 33
0.0
 40
0.0
 40
0.0
 40
0.0
 40
0.0
 40
0.2210585215078348
 40
0.3460776801175635
 40
0.4396020494327837
 40
0.5338878358147441
 40
0.6146546154923653
 40
0.751726125013577
 40
1.0
 40
1.0
 40
1.0
 40
1.0
 10
240.8583615215978
 20
144.4369639386939
 30
0.0
 10
240.9014236214127
 20
144.3965233841262
 30
0.0
 10
240.9688393966711
 20
144.3332117632397
 30
0.0
 10
241.0735384793064
 20
144.2777150278018
 30
0.0
 10
241.1563764266445
 20
144.2608944800037
 30
0.0
 10
241.2280839404245
 20
144.2743233598953
 30
0.0
 10
241.298630378743
 20
144.3176809063103
 30
0.0
 10
241.3785456233493
 20
144.4125424789698
 30
0.0
 10
241.4134655347848
 20
144.507621685919
 30
0.0
 10
241.435964057084
 20
144.5688801934527
 30
0.0
  0
SPLINE
  5
EE
330
1F
100
AcDbEntity
  8
0
  6
Continuous
 62
     7
370
    15
100
AcDbSpline
210
0.0
220
0.0
230
1.0
 70
     8
 71
     3
 72
    14
 73
    10
 74
     0
 42
0.00000001
 43
0.00000001
 12
1.0
 22
0.0
 32
0.0
 13
1.0
 23
0.0
 33
0.0
 40
0.0
 40
0.0
 40
0.0
 40
0.0
 40
0.22349893827462
 40
0.3567612037285489
 40
0.453120069251555
 40
0.5344615713350942
 40
0.6157308151585478
 40
0.7396177654127754
 40
0.9999999999999999
 40
0.9999999999999999
 40
0.9999999999999999
 40
0.9999999999999999
 10
240.995537886258
 20
145.0092542102145
 30
0.0
 10
240.9397065466669
 20
144.9899130591877
 30
0.0
 10
240.8505855151662
 20
144.9590396582888
 30
0.0
 10
240.7533113002026
 20
144.88846472377
 30
0.0
 10
240.7036127771229
 20
144.82267280787
 30
0.0
 10
240.6840351750647
 20
144.7564332726806
 30
0.0
 10
240.6892585061841
 20
144.6801377728397
 30
0.0
 10
240.7385697454552
 20
144.5647808663036
 30
0.0
 10
240.8089991597456
 20
144.489569973519
 30
0.0
 10
240.8567223938664
 20
144.4386067917155
 30
0.0
  0
LINE
  5
EF
330
1F
100
AcDbEntity
  8
0
  6
HIDDEN
 62
     7
370
     0
100
AcDbLine
 10
183.6403575035
 20
87.5261063804
 30
0.0
 11
183.6403575035
 21
136.9261081447
 31
0.0
  0
SPLINE
  5
F0
330
1F
100
AcDbEntity
  8
0
  6
HIDDEN
 62
     7
370
     0
100
AcDbSpline
210
0.0
220
0.0
230
1.0
 70
     8
 71
     3
 72
    58
 73
    54
 74
     0
 42
0.00000001
 43
0.00000001
 12
1.0
 22
0.0
 32
0.0
 13
1.0
 23
0.0
 33
0.0
 40
-0.0625000000000001
 40
-0.0625000000000001
 40
0.0
 40
0.0
 40
0.0312499999999998
 40
0.0312499999999998
 40
0.0624999999999997
 40
0.0624999999999997
 40
0.0937499999999995
 40
0.0937499999999995
 40
0.1249999999999993
 40
0.1249999999999993
 40
0.1874999999999991
 40
0.1874999999999991
 40
0.2499999999999988
 40
0.2499999999999988
 40
0.2812499999999988
 40
0.2812499999999988
 40
0.3124999999999989
 40
0.3124999999999989
 40
0.3437499999999989
 40
0.3437499999999989
 40
0.374999999999999
 40
0.374999999999999
 40
0.4062499999999991
 40
0.4062499999999991
 40
0.4374999999999991
 40
0.4374999999999991
 40
0.4687499999999992
 40
0.4687499999999992
 40
0.4999999999999992
 40
0.4999999999999992
 40
0.5624999999999993
 40
0.5624999999999993
 40
0.6249999999999994
 40
0.6249999999999994
 40
0.6562499999999994
 40
0.6562499999999994
 40
0.6874999999999996
 40
0.6874999999999996
 40
0.7187499999999996
 40
0.7187499999999996
 40
0.7499999999999997
 40
0.7499999999999997
 40
0.7812499999999997
 40
0.7812499999999997
 40
0.8124999999999998
 40
0.8124999999999998
 40
0.8437499999999998
 40
0.8437499999999998
 40
0.8749999999999999
 40
0.8749999999999999
 40
0.9374999999999999
 40
0.9374999999999999
 40
1.0
 40
1.0
 40
1.03125
 40
1.03125
 10
193.6403575035295
 20
112.4904796331356
 30
0.0
 10
193.6403575035295
 20
112.0939210773204
 30
0.0
 10
193.65333339554
 20
111.9639543377757
 30
0.0
 10
193.7041656976459
 20
111.7082749996436
 30
0.0
 10
193.7426427689673
 20
111.5812339078021
 30
0.0
 10
193.8430477301237
 20
111.3390557218616
 30
0.0
 10
193.904481972443
 20
111.2242020632721
 30
0.0
 10
194.0496162386247
 20
111.0068369414662
 30
0.0
 10
194.134058159772
 20
110.903961469382
 30
0.0
 10
194.4107301893819
 20
110.6273435169648
 30
0.0
 10
194.6337763443501
 20
110.4783513971319
 30
0.0
 10
195.1150403428945
 20
110.2788276021407
 30
0.0
 10
195.3782981982143
 20
110.2262487376384
 30
0.0
 10
195.7697642294991
 20
110.2260369640509
 30
0.0
 10
195.9023129731126
 20
110.2390279356403
 30
0.0
 10
196.1588572821279
 20
110.2900641589301
 30
0.0
 10
196.2835531684996
 20
110.327825700333
 30
0.0
 10
196.5257561389333
 20
110.4279852396264
 30
0.0
 10
196.642819502184
 20
110.4905830493769
 30
0.0
 10
196.8595058214301
 20
110.6353050334125
 30
0.0
 10
196.9605197894978
 20
110.7179291385808
 30
0.0
 10
197.1473129837833
 20
110.9045495091918
 30
0.0
 10
197.2301133477376
 20
111.005597877083
 30
0.0
 10
197.3749917866322
 20
111.2221098979568
 30
0.0
 10
197.4376425699595
 20
111.3389992531558
 30
0.0
 10
197.5380829643334
 20
111.5812566552147
 30
0.0
 10
197.5759419761034
 20
111.7059193200301
 30
0.0
 10
197.6271796805669
 20
111.9622505156849
 30
0.0
 10
197.64031005534
 20
112.0948384550353
 30
0.0
 10
197.6404520057789
 20
112.4864701236046
 30
0.0
 10
197.5881110895308
 20
112.7496829566389
 30
0.0
 10
197.3889808627927
 20
113.2311902873302
 30
0.0
 10
197.2401437751504
 20
113.4543907686058
 30
0.0
 10
196.963831738611
 20
113.7312368485675
 30
0.0
 10
196.8610662013598
 20
113.8157489427863
 30
0.0
 10
196.6437492690059
 20
113.9611275395177
 30
0.0
 10
196.5289623584691
 20
114.0226429711196
 30
0.0
 10
196.2870428683632
 20
114.1231990313651
 30
0.0
 10
196.1599159658632
 20
114.1618377571998
 30
0.0
 10
195.904247130227
 20
114.2129026240871
 30
0.0
 10
195.774351924849
 20
114.2259771044634
 30
0.0
 10
195.5102771424246
 20
114.226235505737
 30
0.0
 10
195.3799480029393
 20
114.2133594377741
 30
0.0
 10
195.1242586887955
 20
114.1627606464461
 30
0.0
 10
194.9973308224078
 20
114.1244553006085
 30
0.0
 10
194.7548785335657
 20
114.0241994681886
 30
0.0
 10
194.6399618395841
 20
113.9628484492765
 30
0.0
 10
194.4225710478136
 20
113.8179796137063
 30
0.0
 10
194.3195857681321
 20
113.7336156604369
 30
0.0
 10
194.0426214004748
 20
113.4570896066508
 30
0.0
 10
193.8934891221163
 20
113.2342297646551
 30
0.0
 10
193.6935370034019
 20
112.7531272445944
 30
0.0
 10
193.6403575035295
 20
112.4904796331356
 30
0.0
 10
193.6403575035295
 20
112.0939210773204
 30
0.0
  0
SPLINE
  5
F1
330
1F
100
AcDbEntity
  8
0
  6
HIDDEN
 62
     7
370
     0
100
AcDbSpline
210
0.0
220
0.0
230
1.0
 70
     8
 71
     3
 72
    12
 73
     8
 74
     0
 42
0.00000001
 43
0.00000001
 12
1.0
 22
0.0
 32
0.0
 13
1.0
 23
0.0
 33
0.0
 40
0.0
 40
0.0
 40
0.0
 40
0.0
 40
0.5000000000000028
 40
0.5000000000000028
 40
0.7500000000000013
 40
0.7500000000000013
 40
1.0
 40
1.0
 40
1.0
 40
1.0
 10
191.7351016152037
 20
104.1296542645479
 30
0.0
 10
191.765800998571
 20
104.2439899316118
 30
0.0
 10
191.8071510666775
 20
104.3553432844531
 30
0.0
 10
191.906906994897
 20
104.5080800567019
 30
0.0
 10
191.9466039126297
 20
104.555939942554
 30
0.0
 10
192.0438620642773
 20
104.6305430559035
 30
0.0
 10
192.104638222268
 20
104.6572972934116
 30
0.0
 10
192.1681143170959
 20
104.6572972934116
 30
0.0
  0
LINE
  5
F2
330
1F
100
AcDbEntity
  8
0
  6
HIDDEN
 62
     7
370
     0
100
AcDbLine
 10
192.1681141722
 20
104.6572971275
 30
0.0
 11
195.1126003879
 21
104.6572971275
 31
0.0
  0
SPLINE
  5
F3
330
1F
100
AcDbEntity
  8
0
  6
HIDDEN
 62
     7
370
     0
100
AcDbSpline
210
0.0
220
0.0
230
1.0
 70
     8
 71
     3
 72
    12
 73
     8
 74
     0
 42
0.00000001
 43
0.00000001
 12
1.0
 22
0.0
 32
0.0
 13
1.0
 23
0.0
 33
0.0
 40
0.0
 40
0.0
 40
0.0
 40
0.0
 40
0.2500000000000002
 40
0.2500000000000002
 40
0.5000000000000004
 40
0.5000000000000004
 40
1.0
 40
1.0
 40
1.0
 40
1.0
 10
195.112600689963
 20
104.6572972934116
 30
0.0
 10
195.1762659264935
 20
104.6572972934116
 30
0.0
 10
195.2358721587169
 20
104.6312251449319
 30
0.0
 10
195.3345326836478
 20
104.5556863941108
 30
0.0
 10
195.373499673663
 20
104.5084354570145
 30
0.0
 10
195.4728865055875
 20
104.3566116390481
 30
0.0
 10
195.5149627530109
 20
104.243808389283
 30
0.0
 10
195.5456133918553
 20
104.1296542645479
 30
0.0
  0
ELLIPSE
  5
F4
330
1F
100
AcDbEntity
  8
0
  6
HIDDEN
 62
     7
370
     0
100
AcDbEllipse
 10
182.5840998485
 20
112.2261072626
 30
0.0
 11
-11.70927234972711
 21
24.67718644093745
 31
0.0
210
0.0
220
0.0
230
1.0
 40
0.3419987131
 41
3.310521928178963
 42
4.221709151398949
  0
SPLINE
  5
F5
330
1F
100
AcDbEntity
  8
0
  6
HIDDEN
 62
     7
370
     0
100
AcDbSpline
210
0.0
220
0.0
230
1.0
 70
     8
 71
     3
 72
    12
 73
     8
 74
     0
 42
0.00000001
 43
0.00000001
 12
1.0
 22
0.0
 32
0.0
 13
1.0
 23
0.0
 33
0.0
 40
0.0
 40
0.0
 40
0.0
 40
0.0
 40
0.5000000000000018
 40
0.5000000000000018
 40
0.7500000000000009
 40
0.7500000000000009
 40
1.0
 40
1.0
 40
1.0
 40
1.0
 10
195.5456133918553
 20
88.57346578536055
 30
0.0
 10
195.514914008488
 20
88.53432794296467
 30
0.0
 10
195.4735639403815
 20
88.49716816023917
 30
0.0
 10
195.373808012162
 20
88.44723165461143
 30
0.0
 10
195.3341110944293
 20
88.43177878446765
 30
0.0
 10
195.2368529427816
 20
88.4078592408686
 30
0.0
 10
195.176076784791
 20
88.39937614709021
 30
0.0
 10
195.112600689963
 20
88.39937614709024
 30
0.0
  0
LINE
  5
F6
330
1F
100
AcDbEntity
  8
0
  6
HIDDEN
 62
     7
370
     0
100
AcDbLine
 10
195.1126003879
 20
88.3993758937
 30
0.0
 11
192.1681141722
 21
88.3993758937
 31
0.0
  0
SPLINE
  5
F7
330
1F
100
AcDbEntity
  8
0
  6
HIDDEN
 62
     7
370
     0
100
AcDbSpline
210
0.0
220
0.0
230
1.0
 70
     8
 71
     3
 72
    12
 73
     8
 74
     0
 42
0.00000001
 43
0.00000001
 12
1.0
 22
0.0
 32
0.0
 13
1.0
 23
0.0
 33
0.0
 40
0.0
 40
0.0
 40
0.0
 40
0.0
 40
0.2499999999999991
 40
0.2499999999999991
 40
0.4999999999999982
 40
0.4999999999999982
 40
1.0
 40
1.0
 40
1.0
 40
1.0
 10
192.1681143170959
 20
88.39937614709024
 30
0.0
 10
192.1044490805654
 20
88.39937614709022
 30
0.0
 10
192.0448428483421
 20
88.40764092275607
 30
0.0
 10
191.9461823234112
 20
88.43185970433923
 30
0.0
 10
191.907215333396
 20
88.44711702364837
 30
0.0
 10
191.8078285014715
 20
88.49675037791032
 30
0.0
 10
191.765752254048
 20
88.53439008608444
 30
0.0
 10
191.7351016152037
 20
88.57346578536057
 30
0.0
  0
ELLIPSE
  5
F8
330
1F
100
AcDbEntity
  8
0
  6
HIDDEN
 62
     7
370
     0
100
AcDbEllipse
 10
204.6966151585
 20
112.2261072626
 30
0.0
 11
11.70927234972703
 21
24.67718644093745
 31
0.0
210
0.0
220
0.0
230
1.0
 40
0.3419987131
 41
2.06147615578065
 42
2.972663379000669
  0
SPLINE
  5
F9
330
1F
100
AcDbEntity
  8
0
  6
HIDDEN
 62
     7
370
     0
100
AcDbSpline
210
0.0
220
0.0
230
1.0
 70
     8
 71
     3
 72
    12
 73
     8
 74
     0
 42
0.00000001
 43
0.00000001
 12
1.0
 22
0.0
 32
0.0
 13
1.0
 23
0.0
 33
0.0
 40
0.0
 40
0.0
 40
0.0
 40
0.0
 40
0.4999999999999987
 40
0.4999999999999987
 40
0.7499999999999993
 40
0.7499999999999993
 40
1.0
 40
1.0
 40
1.0
 40
1.0
 10
191.7351016152037
 20
135.8787487398239
 30
0.0
 10
191.765800998571
 20
135.9178865822198
 30
0.0
 10
191.8071510666775
 20
135.9550463649453
 30
0.0
 10
191.906906994897
 20
136.004982870573
 30
0.0
 10
191.9466039126297
 20
136.0204357407168
 30
0.0
 10
192.0438620642773
 20
136.0443552843158
 30
0.0
 10
192.104638222268
 20
136.0528383780942
 30
0.0
 10
192.1681143170959
 20
136.0528383780942
 30
0.0
  0
LINE
  5
FA
330
1F
100
AcDbEntity
  8
0
  6
HIDDEN
 62
     7
370
     0
100
AcDbLine
 10
192.1681141722
 20
136.0528386315
 30
0.0
 11
195.1126003879
 21
136.0528386315
 31
0.0
  0
SPLINE
  5
FB
330
1F
100
AcDbEntity
  8
0
  6
HIDDEN
 62
     7
370
     0
100
AcDbSpline
210
0.0
220
0.0
230
1.0
 70
     8
 71
     3
 72
    12
 73
     8
 74
     0
 42
0.00000001
 43
0.00000001
 12
1.0
 22
0.0
 32
0.0
 13
1.0
 23
0.0
 33
0.0
 40
0.0
 40
0.0
 40
0.0
 40
0.0
 40
0.25
 40
0.25
 40
0.5
 40
0.5
 40
1.0
 40
1.0
 40
1.0
 40
1.0
 10
195.112600689963
 20
136.0528383780942
 30
0.0
 10
195.1762659264935
 20
136.0528383780942
 30
0.0
 10
195.2358721587169
 20
136.0445736024284
 30
0.0
 10
195.3345326836478
 20
136.0203548208452
 30
0.0
 10
195.373499673663
 20
136.0050975015361
 30
0.0
 10
195.4728865055875
 20
135.9554641472741
 30
0.0
 10
195.5149627530109
 20
135.9178244391
 30
0.0
 10
195.5456133918553
 20
135.8787487398239
 30
0.0
  0
ELLIPSE
  5
FC
330
1F
100
AcDbEntity
  8
0
  6
HIDDEN
 62
     7
370
     0
100
AcDbEllipse
 10
182.5840998485
 20
112.2261072626
 30
0.0
 11
11.70927234972726
 21
24.67718644093745
 31
0.0
210
0.0
220
0.0
230
1.0
 40
0.3419987131
 41
5.203068809370468
 42
6.114256032590515
  0
SPLINE
  5
FD
330
1F
100
AcDbEntity
  8
0
  6
HIDDEN
 62
     7
370
     0
100
AcDbSpline
210
0.0
220
0.0
230
1.0
 70
     8
 71
     3
 72
    12
 73
     8
 74
     0
 42
0.00000001
 43
0.00000001
 12
1.0
 22
0.0
 32
0.0
 13
1.0
 23
0.0
 33
0.0
 40
0.0
 40
0.0
 40
0.0
 40
0.0
 40
0.4999999999999969
 40
0.4999999999999969
 40
0.7499999999999984
 40
0.7499999999999984
 40
1.0
 40
1.0
 40
1.0
 40
1.0
 10
195.5456133918553
 20
120.3225602606367
 30
0.0
 10
195.514914008488
 20
120.2082245935729
 30
0.0
 10
195.4735639403815
 20
120.0968712407315
 30
0.0
 10
195.373808012162
 20
119.9441344684828
 30
0.0
 10
195.3341110944293
 20
119.8962745826306
 30
0.0
 10
195.2368529427816
 20
119.8216714692812
 30
0.0
 10
195.176076784791
 20
119.7949172317731
 30
0.0
 10
195.112600689963
 20
119.7949172317731
 30
0.0
  0
LINE
  5
FE
330
1F
100
AcDbEntity
  8
0
  6
HIDDEN
 62
     7
370
     0
100
AcDbLine
 10
195.1126003879
 20
119.7949173977
 30
0.0
 11
192.1681141722
 21
119.7949173977
 31
0.0
  0
SPLINE
  5
FF
330
1F
100
AcDbEntity
  8
0
  6
HIDDEN
 62
     7
370
     0
100
AcDbSpline
210
0.0
220
0.0
230
1.0
 70
     8
 71
     3
 72
    12
 73
     8
 74
     0
 42
0.00000001
 43
0.00000001
 12
1.0
 22
0.0
 32
0.0
 13
1.0
 23
0.0
 33
0.0
 40
0.0
 40
0.0
 40
0.0
 40
0.0
 40
0.2500000000000007
 40
0.2500000000000007
 40
0.5000000000000014
 40
0.5000000000000014
 40
1.0
 40
1.0
 40
1.0
 40
1.0
 10
192.1681143170959
 20
119.7949172317731
 30
0.0
 10
192.1044490805654
 20
119.7949172317731
 30
0.0
 10
192.0448428483421
 20
119.8209893802528
 30
0.0
 10
191.9461823234112
 20
119.8965281310739
 30
0.0
 10
191.907215333396
 20
119.9437790681701
 30
0.0
 10
191.8078285014715
 20
120.0956028861365
 30
0.0
 10
191.765752254048
 20
120.2084061359016
 30
0.0
 10
191.7351016152037
 20
120.3225602606367
 30
0.0
  0
ELLIPSE
  5
100
330
1F
100
AcDbEntity
  8
0
  6
HIDDEN
 62
     7
370
     0
100
AcDbEllipse
 10
204.6966151585
 20
112.2261072626
 30
0.0
 11
-11.70927234972711
 21
24.67718644093745
 31
0.0
210
0.0
220
0.0
230
1.0
 40
0.3419987131
 41
0.1689292745891138
 42
1.080116497809131
  0
LWPOLYLINE
  5
101
330
1F
100
AcDbEntity
  8
0
  6
HIDDEN
 62
     7
370
     0
100
AcDbPolyline
 90
       24
 70
   128
 43
0.0
 10
202.4113931003
 20
124.4611042669
 10
201.8058825525
 20
124.5417893981
 10
201.1934578659
 20
124.5175489341
 10
200.5996987464
 20
124.3893952226
 10
200.0494044515
 20
124.1626824369
 10
199.5655600222
 20
123.8468784025
 10
199.1683714333
 20
123.4551734408
 10
198.8744292649
 20
123.0039271643
 10
198.6960102113
 20
122.5119876792
 10
198.6405667158
 20
121.9998999616
 10
198.7104140463
 20
121.4890536969
 10
198.9026353004
 20
121.0007845541
 10
199.2092006149
 20
120.5554857036
 10
199.6173080298
 20
120.1717565884
 10
200.1099106165
 20
119.8656229419
 10
200.6664354595
 20
119.649871823
 10
201.2636367472
 20
119.5335142431
 10
201.8765736612
 20
119.5214098436
 10
202.4796441438
 20
119.6140643326
 10
203.0476596447
 20
119.8076075991
 10
203.5568975153
 20
120.0939566945
 10
203.9860882106
 20
120.4611511087
 10
204.3173056337
 20
120.8938547527
 10
204.536715919
 20
121.3739943808
  0
SPLINE
  5
102
330
1F
100
AcDbEntity
  8
0
  6
HIDDEN
 62
     7
370
     0
100
AcDbSpline
210
0.0
220
0.0
230
1.0
 70
     8
 71
     3
 72
    24
 73
    20
 74
     0
 42
0.00000001
 43
0.00000001
 12
1.0
 22
0.0
 32
0.0
 13
1.0
 23
0.0
 33
0.0
 40
0.0
 40
0.0
 40
0.0
 40
0.0
 40
0.1250000000000002
 40
0.1250000000000002
 40
0.2500000000000005
 40
0.2500000000000005
 40
0.3750000000000008
 40
0.3750000000000008
 40
0.500000000000001
 40
0.500000000000001
 40
0.6250000000000012
 40
0.6250000000000012
 40
0.687500000000001
 40
0.687500000000001
 40
0.7500000000000008
 40
0.7500000000000008
 40
0.8750000000000004
 40
0.8750000000000004
 40
1.0
 40
1.0
 40
1.0
 40
1.0
 10
202.4113936094398
 20
124.4611042408406
 30
0.0
 10
202.5467827104778
 20
124.532523927511
 30
0.0
 10
202.6946087953272
 20
124.5837751932078
 30
0.0
 10
203.0061711318639
 20
124.6382576302677
 30
0.0
 10
203.1719643912488
 20
124.6408601578652
 30
0.0
 10
203.4993575334635
 20
124.5816075771869
 30
0.0
 10
203.6654749590436
 20
124.5184035466124
 30
0.0
 10
203.9711234408567
 20
124.3175439576322
 30
0.0
 10
204.1136757392063
 20
124.1767625006736
 30
0.0
 10
204.3466619677468
 20
123.8365471638542
 30
0.0
 10
204.4400197445421
 20
123.6333697658756
 30
0.0
 10
204.5381759258869
 20
123.309984303172
 30
0.0
 10
204.5646578146206
 20
123.1973744027229
 30
0.0
 10
204.6050483143707
 20
122.970636368994
 30
0.0
 10
204.6191252821167
 20
122.8564170051982
 30
0.0
 10
204.6460211672965
 20
122.5115922397526
 30
0.0
 10
204.6432779317874
 20
122.2766403885349
 30
0.0
 10
204.6087034054149
 20
121.8187629344243
 30
0.0
 10
204.5770761001363
 20
121.5943219820533
 30
0.0
 10
204.5367165052692
 20
121.373994479918
 30
0.0
  0
LINE
  5
103
330
1F
100
AcDbEntity
  8
0
  6
HIDDEN
 62
     7
370
     0
100
AcDbLine
 10
183.6403575035
 20
92.6761078765
 30
0.0
 11
183.6403575035
 21
131.7606504192
 31
0.0
  0
SPLINE
  5
104
330
1F
100
AcDbEntity
  8
0
  6
HIDDEN
 62
     7
370
     0
100
AcDbSpline
210
0.0
220
0.0
230
1.0
 70
     8
 71
     3
 72
    14
 73
    10
 74
     0
 42
0.00000001
 43
0.00000001
 12
1.0
 22
0.0
 32
0.0
 13
1.0
 23
0.0
 33
0.0
 40
0.0
 40
0.0
 40
0.0
 40
0.0
 40
0.25
 40
0.25
 40
0.5
 40
0.5
 40
0.75
 40
0.75
 40
1.0
 40
1.0
 40
1.0
 40
1.0
 10
182.5994964754011
 20
124.5205828076656
 30
0.0
 10
182.6312116097318
 20
124.4627996253224
 30
0.0
 10
182.6658261350322
 20
124.4063869642475
 30
0.0
 10
182.7454973304475
 20
124.2987875142321
 30
0.0
 10
182.790553207478
 20
124.246874887311
 30
0.0
 10
182.9011076199833
 20
124.1606762626137
 30
0.0
 10
182.9684930341875
 20
124.1265868426421
 30
0.0
 10
183.1191225540855
 20
124.1244844506252
 30
0.0
 10
183.188949790851
 20
124.15785622347
 30
0.0
 10
183.2453806146544
 20
124.2016688920207
 30
0.0
  0
SPLINE
  5
105
330
1F
100
AcDbEntity
  8
0
  6
HIDDEN
 62
     7
370
     0
100
AcDbSpline
210
0.0
220
0.0
230
1.0
 70
     8
 71
     3
 72
    16
 73
    12
 74
     0
 42
0.00000001
 43
0.00000001
 12
1.0
 22
0.0
 32
0.0
 13
1.0
 23
0.0
 33
0.0
 40
0.0
 40
0.0
 40
0.0
 40
0.0
 40
0.0625000000000005
 40
0.0625000000000005
 40
0.1250000000000011
 40
0.1250000000000011
 40
0.250000000000002
 40
0.250000000000002
 40
0.4999999999999997
 40
0.4999999999999997
 40
1.0
 40
1.0
 40
1.0
 40
1.0
 10
183.2453806146226
 20
124.2016688920513
 30
0.0
 10
183.2571148490695
 20
124.2107793052992
 30
0.0
 10
183.2706466045485
 20
124.2188566612456
 30
0.0
 10
183.3006340649783
 20
124.2271035029225
 30
0.0
 10
183.3156287713866
 20
124.226176185335
 30
0.0
 10
183.3513691937814
 20
124.2134096658032
 30
0.0
 10
183.3653825307826
 20
124.1957610192928
 30
0.0
 10
183.3995266195639
 20
124.1411080992613
 30
0.0
 10
183.4104985236823
 20
124.0997084316028
 30
0.0
 10
183.4363440639486
 20
123.97121868788
 30
0.0
 10
183.4403575035295
 20
123.8806006002413
 30
0.0
 10
183.4403575035295
 20
123.7883814956872
 30
0.0
  0
LINE
  5
106
330
1F
100
AcDbEntity
  8
0
  6
HIDDEN
 62
     7
370
     0
100
AcDbLine
 10
183.4403575086
 20
100.663833425
 30
0.0
 11
183.4403575086
 21
123.7883811002
 31
0.0
  0
SPLINE
  5
107
330
1F
100
AcDbEntity
  8
0
  6
HIDDEN
 62
     7
370
     0
100
AcDbSpline
210
0.0
220
0.0
230
1.0
 70
     8
 71
     3
 72
    16
 73
    12
 74
     0
 42
0.00000001
 43
0.00000001
 12
1.0
 22
0.0
 32
0.0
 13
1.0
 23
0.0
 33
0.0
 40
0.0
 40
0.0
 40
0.0
 40
0.0
 40
0.4999999999999989
 40
0.4999999999999989
 40
0.7499999999999983
 40
0.7499999999999983
 40
0.8750000000000001
 40
0.8750000000000001
 40
0.9375
 40
0.9375
 40
1.0
 40
1.0
 40
1.0
 40
1.0
 10
183.4403575035295
 20
100.6638330294971
 30
0.0
 10
183.4403575035295
 20
100.5712491785932
 30
0.0
 10
183.4363002014144
 20
100.4810367227329
 30
0.0
 10
183.4106429586196
 20
100.3530955956145
 30
0.0
 10
183.3993275128775
 20
100.3106823812026
 30
0.0
 10
183.3652961455689
 20
100.2563683377515
 30
0.0
 10
183.3514171643651
 20
100.2387870023616
 30
0.0
 10
183.3154814825977
 20
100.2260033144266
 30
0.0
 10
183.3005311633349
 20
100.2251278162785
 30
0.0
 10
183.2706326505931
 20
100.2333732513979
 30
0.0
 10
183.2570997902278
 20
100.2414469115697
 30
0.0
 10
183.2453806146538
 20
100.2505456331638
 30
0.0
  0
SPLINE
  5
108
330
1F
100
AcDbEntity
  8
0
  6
HIDDEN
 62
     7
370
     0
100
AcDbSpline
210
0.0
220
0.0
230
1.0
 70
     8
 71
     3
 72
    14
 73
    10
 74
     0
 42
0.00000001
 43
0.00000001
 12
1.0
 22
0.0
 32
0.0
 13
1.0
 23
0.0
 33
0.0
 40
0.0
 40
0.0
 40
0.0
 40
0.0
 40
0.25
 40
0.25
 40
0.5
 40
0.5
 40
0.75
 40
0.75
 40
1.0
 40
1.0
 40
1.0
 40
1.0
 10
183.2453806146607
 20
100.2505456331723
 30
0.0
 10
183.1889248500519
 20
100.294377665667
 30
0.0
 10
183.118059223802
 20
100.3277087020889
 30
0.0
 10
182.9696021426294
 20
100.3256496919415
 30
0.0
 10
182.9004087833219
 20
100.2910536675398
 30
0.0
 10
182.7906933451877
 20
100.2053883108769
 30
0.0
 10
182.7454487658563
 20
100.1533658661689
 30
0.0
 10
182.6658220564325
 20
100.045817605839
 30
0.0
 10
182.6312119078991
 20
99.98941544310595
 30
0.0
 10
182.5994964753999
 20
99.93163171751645
 30
0.0
  0
SPLINE
  5
109
330
1F
100
AcDbEntity
  8
0
  6
HIDDEN
 62
     7
370
     0
100
AcDbSpline
210
0.0
220
0.0
230
1.0
 70
     8
 71
     3
 72
    10
 73
     6
 74
     0
 42
0.00000001
 43
0.00000001
 12
1.0
 22
0.0
 32
0.0
 13
1.0
 23
0.0
 33
0.0
 40
0.0
 40
0.0
 40
0.0
 40
0.0
 40
0.5
 40
0.5
 40
1.0
 40
1.0
 40
1.0
 40
1.0
 10
182.5994964754004
 20
99.93163171751746
 30
0.0
 10
182.527716687477
 20
99.8008530006156
 30
0.0
 10
182.4752571731689
 20
99.6667528511124
 30
0.0
 10
182.3859141090677
 20
99.39866028812365
 30
0.0
 10
182.349918499568
 20
99.26441491653476
 30
0.0
 10
182.3190371599699
 20
99.13106053905972
 30
0.0
  0
SPLINE
  5
10A
330
1F
100
AcDbEntity
  8
0
  6
HIDDEN
 62
     7
370
     0
100
AcDbSpline
210
0.0
220
0.0
230
1.0
 70
     8
 71
     3
 72
    10
 73
     6
 74
     0
 42
0.00000001
 43
0.00000001
 12
1.0
 22
0.0
 32
0.0
 13
1.0
 23
0.0
 33
0.0
 40
0.0
 40
0.0
 40
0.0
 40
0.0
 40
0.5
 40
0.5
 40
1.0
 40
1.0
 40
1.0
 40
1.0
 10
182.3190371599699
 20
94.92919739458735
 30
0.0
 10
182.3499101917821
 20
94.91291424722021
 30
0.0
 10
182.3858970546951
 20
94.90065665749464
 30
0.0
 10
182.4752316405862
 20
94.88355366866591
 30
0.0
 10
182.5276875000088
 20
94.87875407280755
 30
0.0
 10
182.5994964754011
 20
94.87694998139963
 30
0.0
  0
SPLINE
  5
10B
330
1F
100
AcDbEntity
  8
0
  6
HIDDEN
 62
     7
370
     0
100
AcDbSpline
210
0.0
220
0.0
230
1.0
 70
     8
 71
     3
 72
     8
 73
     4
 74
     0
 42
0.00000001
 43
0.00000001
 12
1.0
 22
0.0
 32
0.0
 13
1.0
 23
0.0
 33
0.0
 40
0.0
 40
0.0
 40
0.0
 40
0.0
 40
1.0
 40
1.0
 40
1.0
 40
1.0
 10
183.4226608801545
 20
94.75106560315255
 30
0.0
 10
183.4366476886966
 20
94.72282521257084
 30
0.0
 10
183.4403575035293
 20
94.69969316976008
 30
0.0
 10
183.4403575035296
 20
94.67935279692493
 30
0.0
  0
LINE
  5
10C
330
1F
100
AcDbEntity
  8
0
  6
HIDDEN
 62
     7
370
     0
100
AcDbLine
 10
183.4403575086
 20
94.3862862071
 30
0.0
 11
183.4403575086
 21
94.6793529322
 31
0.0
  0
LINE
  5
10D
330
1F
100
AcDbEntity
  8
0
  6
HIDDEN
 62
     7
370
     0
100
AcDbLine
 10
183.4403575086
 20
129.772861593
 30
0.0
 11
183.4403575086
 21
130.0659283181
 31
0.0
  0
SPLINE
  5
10E
330
1F
100
AcDbEntity
  8
0
  6
HIDDEN
 62
     7
370
     0
100
AcDbSpline
210
0.0
220
0.0
230
1.0
 70
     8
 71
     3
 72
    10
 73
     6
 74
     0
 42
0.00000001
 43
0.00000001
 12
1.0
 22
0.0
 32
0.0
 13
1.0
 23
0.0
 33
0.0
 40
0.0
 40
0.0
 40
0.0
 40
0.0
 40
0.5
 40
0.5
 40
1.0
 40
1.0
 40
1.0
 40
1.0
 10
182.5994964754019
 20
129.5752645437847
 30
0.0
 10
182.5276875000093
 20
129.5734604523768
 30
0.0
 10
182.4752316405866
 20
129.5686608565185
 30
0.0
 10
182.3858970546952
 20
129.5515578676897
 30
0.0
 10
182.3499101917822
 20
129.5393002779641
 30
0.0
 10
182.3190371599699
 20
129.523017130597
 30
0.0
  0
SPLINE
  5
10F
330
1F
100
AcDbEntity
  8
0
  6
HIDDEN
 62
     7
370
     0
100
AcDbSpline
210
0.0
220
0.0
230
1.0
 70
     8
 71
     3
 72
    10
 73
     6
 74
     0
 42
0.00000001
 43
0.00000001
 12
1.0
 22
0.0
 32
0.0
 13
1.0
 23
0.0
 33
0.0
 40
0.0
 40
0.0
 40
0.0
 40
0.0
 40
0.5
 40
0.5
 40
1.0
 40
1.0
 40
1.0
 40
1.0
 10
182.3190371599699
 20
125.3211539861246
 30
0.0
 10
182.349918499568
 20
125.1877996086494
 30
0.0
 10
182.3859141090678
 20
125.0535542370603
 30
0.0
 10
182.4752571731692
 20
124.7854616740711
 30
0.0
 10
182.5277166874774
 20
124.6513615245677
 30
0.0
 10
182.5994964754011
 20
124.5205828076656
 30
0.0
  0
LINE
  5
110
330
1F
100
AcDbEntity
  8
0
  6
HIDDEN
 62
     7
370
     0
100
AcDbLine
 10
183.4403575086
 20
94.6793529322
 30
0.0
 11
183.4403575086
 21
106.2416272355
 31
0.0
  0
LINE
  5
111
330
1F
100
AcDbEntity
  8
0
  6
HIDDEN
 62
     7
370
     0
100
AcDbLine
 10
183.4403575086
 20
118.2105872897
 30
0.0
 11
183.4403575086
 21
129.772861593
 31
0.0
  0
SPLINE
  5
112
330
1F
100
AcDbEntity
  8
0
  6
HIDDEN
 62
     7
370
     0
100
AcDbSpline
210
0.0
220
0.0
230
1.0
 70
     8
 71
     3
 72
     8
 73
     4
 74
     0
 42
0.00000001
 43
0.00000001
 12
1.0
 22
0.0
 32
0.0
 13
1.0
 23
0.0
 33
0.0
 40
0.0
 40
0.0
 40
0.0
 40
0.0
 40
1.0
 40
1.0
 40
1.0
 40
1.0
 10
201.6422080265939
 20
123.9626596644685
 30
0.0
 10
201.8961545131332
 20
124.1305803464053
 30
0.0
 10
202.1528027694449
 20
124.2984442407088
 30
0.0
 10
202.4113936094398
 20
124.4611042408406
 30
0.0
  0
LWPOLYLINE
  5
113
330
1F
100
AcDbEntity
  8
0
  6
HIDDEN
 62
     7
370
     0
100
AcDbPolyline
 90
       19
 70
   128
 43
0.0
 10
201.6422081979
 20
123.9626594936
 10
201.0818239542
 20
123.9096644451
 10
200.5498580875
 20
123.752677918
 10
200.0733841451
 20
123.4996897285
 10
199.6766407284
 20
123.1635726174
 10
199.3798207732
 20
122.761428461
 10
199.198024744
 20
122.3137212103
 10
199.1405043992
 20
121.8432310154
 10
199.2101859542
 20
121.3738984545
 10
199.4035247954
 20
120.9296054324
 10
199.7106805685
 20
120.5329588731
 10
200.1160275432
 20
120.2041423996
 10
200.5989369246
 20
119.959885825
 10
201.1348385605
 20
119.8126190459
 10
201.6964633259
 20
119.7698354838
 10
202.2552326562
 20
119.8337121052
 10
202.782715136
 20
120.0009981287
 10
203.252068186
 20
120.2631826629
 10
203.6394126954
 20
120.6069226494
  0
SPLINE
  5
114
330
1F
100
AcDbEntity
  8
0
  6
HIDDEN
 62
     7
370
     0
100
AcDbSpline
210
0.0
220
0.0
230
1.0
 70
     8
 71
     3
 72
     8
 73
     4
 74
     0
 42
0.00000001
 43
0.00000001
 12
1.0
 22
0.0
 32
0.0
 13
1.0
 23
0.0
 33
0.0
 40
0.0
 40
0.0
 40
0.0
 40
0.0
 40
1.0
 40
1.0
 40
1.0
 40
1.0
 10
204.5367165052692
 20
121.373994479918
 30
0.0
 10
204.2529616553893
 20
121.0944539754627
 30
0.0
 10
203.9551620111171
 20
120.8358157494205
 30
0.0
 10
203.6394134666569
 20
120.6069230106441
 30
0.0
  0
SPLINE
  5
115
330
1F
100
AcDbEntity
  8
0
  6
HIDDEN
 62
     7
370
     0
100
AcDbSpline
210
0.0
220
0.0
230
1.0
 70
     8
 71
     3
 72
    12
 73
     8
 74
     0
 42
0.00000001
 43
0.00000001
 12
1.0
 22
0.0
 32
0.0
 13
1.0
 23
0.0
 33
0.0
 40
0.0
 40
0.0
 40
0.0
 40
0.0
 40
0.2500000000000015
 40
0.2500000000000015
 40
0.5000000000000012
 40
0.5000000000000012
 40
1.0
 40
1.0
 40
1.0
 40
1.0
 10
202.2494688832469
 20
119.7345600014
 30
0.0
 10
202.2104113998137
 20
119.6218289763125
 30
0.0
 10
202.1802274044705
 20
119.511221381863
 30
0.0
 10
202.154745337011
 20
119.2941702702307
 30
0.0
 10
202.1609548324187
 20
119.1861534158792
 30
0.0
 10
202.2467175646388
 20
118.8856745274765
 30
0.0
 10
202.3876816710287
 20
118.7160861732749
 30
0.0
 10
202.5441192028334
 20
118.5732142802897
 30
0.0
  0
SPLINE
  5
116
330
1F
100
AcDbEntity
  8
0
  6
HIDDEN
 62
     7
370
     0
100
AcDbSpline
210
0.0
220
0.0
230
1.0
 70
     8
 71
     3
 72
    18
 73
    14
 74
     0
 42
0.00000001
 43
0.00000001
 12
1.0
 22
0.0
 32
0.0
 13
1.0
 23
0.0
 33
0.0
 40
0.0
 40
0.0
 40
0.0
 40
0.0
 40
0.2500000000000022
 40
0.2500000000000022
 40
0.3750000000000027
 40
0.3750000000000027
 40
0.5000000000000032
 40
0.5000000000000032
 40
0.6250000000000037
 40
0.6250000000000037
 40
0.7500000000000041
 40
0.7500000000000041
 40
1.0
 40
1.0
 40
1.0
 40
1.0
 10
203.6394134666569
 20
120.6069230106441
 30
0.0
 10
203.5643502200459
 20
120.4741443828653
 30
0.0
 10
203.4808144321838
 20
120.346941004405
 30
0.0
 10
203.3340408975337
 20
120.1687773614943
 30
0.0
 10
203.2819068660019
 20
120.1122292161297
 30
0.0
 10
203.1704577863111
 20
120.0080229849302
 30
0.0
 10
203.1100176270188
 20
119.9596058116765
 30
0.0
 10
202.9842653220936
 20
119.8772599766411
 30
0.0
 10
202.9196242920462
 20
119.8435479585019
 30
0.0
 10
202.7868235476478
 20
119.7900262240659
 30
0.0
 10
202.7183784405442
 20
119.7702732389271
 30
0.0
 10
202.5168660404047
 20
119.7299043917608
 30
0.0
 10
202.3833537038387
 20
119.7257951328477
 30
0.0
 10
202.249468883247
 20
119.7345600014001
 30
0.0
  0
SPLINE
  5
117
330
1F
100
AcDbEntity
  8
0
  6
HIDDEN
 62
     7
370
     0
100
AcDbSpline
210
0.0
220
0.0
230
1.0
 70
     8
 71
     3
 72
    48
 73
    44
 74
     0
 42
0.00000001
 43
0.00000001
 12
1.0
 22
0.0
 32
0.0
 13
1.0
 23
0.0
 33
0.0
 40
0.0
 40
0.0
 40
0.0
 40
0.0
 40
0.0312500000000001
 40
0.0312500000000001
 40
0.0625000000000002
 40
0.0625000000000002
 40
0.0937500000000004
 40
0.0937500000000004
 40
0.1250000000000005
 40
0.1250000000000005
 40
0.1875000000000004
 40
0.1875000000000004
 40
0.2500000000000004
 40
0.2500000000000004
 40
0.3125000000000003
 40
0.3125000000000003
 40
0.3750000000000003
 40
0.3750000000000003
 40
0.4062500000000005
 40
0.4062500000000005
 40
0.4375000000000007
 40
0.4375000000000007
 40
0.5000000000000007
 40
0.5000000000000007
 40
0.5625000000000007
 40
0.5625000000000007
 40
0.6250000000000007
 40
0.6250000000000007
 40
0.6875000000000007
 40
0.6875000000000007
 40
0.7500000000000007
 40
0.7500000000000007
 40
0.8125000000000008
 40
0.8125000000000008
 40
0.8437500000000006
 40
0.8437500000000006
 40
0.8750000000000003
 40
0.8750000000000003
 40
0.9062500000000001
 40
0.9062500000000001
 40
0.9374999999999999
 40
0.9374999999999999
 40
1.0
 40
1.0
 40
1.0
 40
1.0
 10
202.5441192028333
 20
118.5732142802898
 30
0.0
 10
202.6288982491347
 20
118.6311934314358
 30
0.0
 10
202.7138877316195
 20
118.6907320605687
 30
0.0
 10
202.8874263391403
 20
118.8110257357974
 30
0.0
 10
202.9768949992305
 20
118.8721814342077
 30
0.0
 10
203.1498562431536
 20
118.9854980475554
 30
0.0
 10
203.2350203921794
 20
119.0386882403287
 30
0.0
 10
203.3900152229641
 20
119.1337786862864
 30
0.0
 10
203.4617509352457
 20
119.1771742863939
 30
0.0
 10
203.6554449178731
 20
119.2999905166478
 30
0.0
 10
203.7614607614132
 20
119.3761267536893
 30
0.0
 10
203.9352331356184
 20
119.5399237621526
 30
0.0
 10
204.0028146415077
 20
119.6265101720947
 30
0.0
 10
204.1010514379358
 20
119.8206618046649
 30
0.0
 10
204.1312096428294
 20
119.9289649798255
 30
0.0
 10
204.1459134363605
 20
120.1645503837847
 30
0.0
 10
204.1305833368381
 20
120.2948714338392
 30
0.0
 10
204.0689433844895
 20
120.5034978509995
 30
0.0
 10
204.0421565023802
 20
120.574928197492
 30
0.0
 10
203.9753557132467
 20
120.7220681409488
 30
0.0
 10
203.9348366727024
 20
120.7985415762555
 30
0.0
 10
203.7960059212957
 20
121.0279220504244
 30
0.0
 10
203.6795433543555
 20
121.1829198767069
 30
0.0
 10
203.4069136449965
 20
121.4889872946475
 30
0.0
 10
203.2548571040122
 20
121.6356123535639
 30
0.0
 10
202.9312890822118
 20
121.9127375492608
 30
0.0
 10
202.7639615443887
 20
122.0398146780063
 30
0.0
 10
202.4244722676026
 20
122.2753756381849
 30
0.0
 10
202.2576338263385
 20
122.3801267068181
 30
0.0
 10
201.9322569127829
 20
122.5727269175053
 30
0.0
 10
201.7722292113852
 20
122.6608543105168
 30
0.0
 10
201.480419570985
 20
122.8250625194622
 30
0.0
 10
201.3458849710978
 20
122.9006997194643
 30
0.0
 10
201.1878714237642
 20
123.0301183392948
 30
0.0
 10
201.1435990389081
 20
123.0762841010752
 30
0.0
 10
201.0871775167982
 20
123.1778781202114
 30
0.0
 10
201.0755649052747
 20
123.2349011922948
 30
0.0
 10
201.0892264373317
 20
123.3528580983014
 30
0.0
 10
201.1138809031743
 20
123.4153943100012
 30
0.0
 10
201.1841774056423
 20
123.536604404453
 30
0.0
 10
201.2294485555214
 20
123.5958206463152
 30
0.0
 10
201.383396499603
 20
123.7673412686972
 30
0.0
 10
201.5079985274005
 20
123.8717577821013
 30
0.0
 10
201.6422080265939
 20
123.9626596644685
 30
0.0
  0
SPLINE
  5
118
330
1F
100
AcDbEntity
  8
0
  6
HIDDEN
 62
     7
370
     0
100
AcDbSpline
210
0.0
220
0.0
230
1.0
 70
     8
 71
     3
 72
    66
 73
    62
 74
     0
 42
0.00000001
 43
0.00000001
 12
1.0
 22
0.0
 32
0.0
 13
1.0
 23
0.0
 33
0.0
 40
-0.0312499999999999
 40
-0.0312499999999999
 40
0.0
 40
0.0
 40
0.0312500000000001
 40
0.0312500000000001
 40
0.0625000000000002
 40
0.0625000000000002
 40
0.0937500000000002
 40
0.0937500000000002
 40
0.1250000000000003
 40
0.1250000000000003
 40
0.1875000000000004
 40
0.1875000000000004
 40
0.2187500000000004
 40
0.2187500000000004
 40
0.2500000000000004
 40
0.2500000000000004
 40
0.2812500000000004
 40
0.2812500000000004
 40
0.3125000000000005
 40
0.3125000000000005
 40
0.3437500000000005
 40
0.3437500000000005
 40
0.3750000000000005
 40
0.3750000000000005
 40
0.4062500000000006
 40
0.4062500000000006
 40
0.4375000000000006
 40
0.4375000000000006
 40
0.4687500000000006
 40
0.4687500000000006
 40
0.5000000000000006
 40
0.5000000000000006
 40
0.5312500000000007
 40
0.5312500000000007
 40
0.5625000000000006
 40
0.5625000000000006
 40
0.5937500000000006
 40
0.5937500000000006
 40
0.6250000000000006
 40
0.6250000000000006
 40
0.6875000000000004
 40
0.6875000000000004
 40
0.7187500000000004
 40
0.7187500000000004
 40
0.7500000000000003
 40
0.7500000000000003
 40
0.7812500000000003
 40
0.7812500000000003
 40
0.8125000000000003
 40
0.8125000000000003
 40
0.8437500000000003
 40
0.8437500000000003
 40
0.8750000000000002
 40
0.8750000000000002
 40
0.9062500000000002
 40
0.9062500000000002
 40
0.9375000000000002
 40
0.9375000000000002
 40
0.9687500000000001
 40
0.9687500000000001
 40
1.0
 40
1.0
 40
1.03125
 40
1.03125
 10
201.4738045957728
 20
113.835878550275
 30
0.0
 10
201.8069104112863
 20
113.835878550275
 30
0.0
 10
201.9704013648762
 20
113.8530261383531
 30
0.0
 10
202.2916035102451
 20
113.919523191242
 30
0.0
 10
202.4510158678014
 20
113.9697436605038
 30
0.0
 10
202.7530545949419
 20
114.0983253567532
 30
0.0
 10
202.8961026323035
 20
114.1763089384472
 30
0.0
 10
203.1668358542544
 20
114.3578993939025
 30
0.0
 10
203.2939053692209
 20
114.4615424370015
 30
0.0
 10
203.6369133801937
 20
114.7962229610545
 30
0.0
 10
203.8227456415976
 20
115.0593900335034
 30
0.0
 10
204.0105510047563
 20
115.4701418879842
 30
0.0
 10
204.0592910815347
 20
115.6123427931669
 30
0.0
 10
204.1240551336494
 20
115.8954838499132
 30
0.0
 10
204.1402472441835
 20
116.0353395060944
 30
0.0
 10
204.1404666513503
 20
116.3113447285817
 30
0.0
 10
204.1239185573169
 20
116.4483237780668
 30
0.0
 10
204.0594894036133
 20
116.7063049425397
 30
0.0
 10
204.0118309344284
 20
116.8288883265948
 30
0.0
 10
203.8851349666297
 20
117.062063760745
 30
0.0
 10
203.8075613808307
 20
117.1697183653281
 30
0.0
 10
203.6269547546506
 20
117.3670711059362
 30
0.0
 10
203.5224017055349
 20
117.4580170281437
 30
0.0
 10
203.2923930651907
 20
117.6192764755583
 30
0.0
 10
203.1675130068159
 20
117.689650117217
 30
0.0
 10
202.8976134351861
 20
117.811952382625
 30
0.0
 10
202.7515170687031
 20
117.8639169904417
 30
0.0
 10
202.4508044448944
 20
117.9460095375207
 30
0.0
 10
202.294856756537
 20
117.9769007263891
 30
0.0
 10
201.9710768927885
 20
118.0187454437022
 30
0.0
 10
201.8053785490385
 20
118.0291894027174
 30
0.0
 10
201.4773346690312
 20
118.0292731223066
 30
0.0
 10
201.3120091176944
 20
118.0189572476177
 30
0.0
 10
200.9876806616841
 20
117.9772296560297
 30
0.0
 10
200.8313278608224
 20
117.9463481657683
 30
0.0
 10
200.5296116825932
 20
117.8640779325583
 30
0.0
 10
200.3835211528786
 20
117.8121071947578
 30
0.0
 10
200.1138073754736
 20
117.6899596196845
 30
0.0
 10
199.9886260418304
 20
117.6195127581824
 30
0.0
 10
199.6420155014029
 20
117.3764342196989
 30
0.0
 10
199.4588726665145
 20
117.1784044995076
 30
0.0
 10
199.2692061063752
 20
116.8295533872952
 30
0.0
 10
199.2215683589467
 20
116.7072515040061
 30
0.0
 10
199.1570501240145
 20
116.449761459994
 30
0.0
 10
199.1403530182728
 20
116.3128516970855
 30
0.0
 10
199.1403619906402
 20
116.0365146466994
 30
0.0
 10
199.1564928265867
 20
115.8965306736157
 30
0.0
 10
199.2211525032554
 20
115.6132150430851
 30
0.0
 10
199.2698228578946
 20
115.4709735470926
 30
0.0
 10
199.3952522302134
 20
115.1964743700627
 30
0.0
 10
199.4729958827035
 20
115.0617324232986
 30
0.0
 10
199.6552953697164
 20
114.8048192946304
 30
0.0
 10
199.7582585230107
 20
114.6844998003093
 30
0.0
 10
199.9874594953032
 20
114.4609535369298
 30
0.0
 10
200.1150904734112
 20
114.3570187759372
 30
0.0
 10
200.3849361348478
 20
114.176160311671
 30
0.0
 10
200.5277908782349
 20
114.0982462170487
 30
0.0
 10
200.830188405481
 20
113.9695590207468
 30
0.0
 10
200.9894036364257
 20
113.9194532924386
 30
0.0
 10
201.3102913677438
 20
113.8530401760932
 30
0.0
 10
201.4738045957728
 20
113.835878550275
 30
0.0
 10
201.8069104112863
 20
113.835878550275
 30
0.0
  0
ARC
  5
119
330
1F
100
AcDbEntity
  8
0
  6
HIDDEN
 62
     7
370
     0
100
AcDbCircle
 10
200.9889525839
 20
118.7966973988
 30
0.0
 40
1.571142600965213
100
AcDbArc
 50
351.8223820115
 51
36.6503503811
  0
CIRCLE
  5
11A
330
1F
100
AcDbEntity
  8
0
  6
HIDDEN
 62
     7
370
     0
100
AcDbCircle
 10
169.6403575035
 20
112.2261072626
 30
0.0
 40
3.050000000000011
  0
SPLINE
  5
11B
330
1F
100
AcDbEntity
  8
0
  6
HIDDEN
 62
     7
370
     0
100
AcDbSpline
210
0.0
220
0.0
230
1.0
 70
     8
 71
     3
 72
    10
 73
     6
 74
     0
 42
0.00000001
 43
0.00000001
 12
1.0
 22
0.0
 32
0.0
 13
1.0
 23
0.0
 33
0.0
 40
0.0
 40
0.0
 40
0.0
 40
0.0
 40
0.5
 40
0.5
 40
1.0
 40
1.0
 40
1.0
 40
1.0
 10
216.8389563418396
 20
115.7415584360231
 30
0.0
 10
216.8175171483471
 20
115.1556855645839
 30
0.0
 10
216.7909955564204
 20
114.5698505341954
 30
0.0
 10
216.7515679379158
 20
113.3980790985842
 30
0.0
 10
216.739055919335
 20
112.8121397597708
 30
0.0
 10
216.739055919335
 20
112.2261072625922
 30
0.0
  0
LINE
  5
11C
330
1F
100
AcDbEntity
  8
0
  6
HIDDEN
 62
     7
370
     0
100
AcDbLine
 10
216.7390551659
 20
86.7261077394
 30
0.0
 11
216.7390551659
 21
112.2261072626
 31
0.0
  0
ELLIPSE
  5
11D
330
1F
100
AcDbEntity
  8
0
  6
HIDDEN
 62
     7
370
     0
100
AcDbEllipse
 10
231.9649380053
 20
112.2261072626
 30
0.0
 11
8.323425961531456
 21
25.49730333680023
 31
0.0
210
0.0
220
0.0
230
1.0
 40
0.0445538091
 41
1.585339597539909
 42
3.15613592433508
  0
LINE
  5
11E
330
1F
100
AcDbEntity
  8
0
  6
HIDDEN
 62
     7
370
     0
100
AcDbLine
 10
158.6683973911
 20
123.0147826602
 30
0.0
 11
158.6683973911
 21
101.437431865
 31
0.0
  0
LINE
  5
11F
330
1F
100
AcDbEntity
  8
0
  6
HIDDEN
 62
     7
370
     0
100
AcDbLine
 10
154.6683967354
 20
123.3959804406
 30
0.0
 11
154.6683967354
 21
101.0562340846
 31
0.0
  0
LINE
  5
120
330
1F
100
AcDbEntity
  8
0
  6
HIDDEN
 62
     7
370
     0
100
AcDbLine
 10
153.6403581741
 20
100.4626947572
 30
0.0
 11
153.6403581741
 21
123.9739219775
 31
0.0
  0
LINE
  5
121
330
1F
100
AcDbEntity
  8
0
  6
HIDDEN
 62
     7
370
     0
100
AcDbLine
 10
163.2683970275
 20
122.726107121
 30
0.0
 11
163.2683970275
 21
101.7261074042
 31
0.0
  0
LINE
  5
122
330
1F
100
AcDbEntity
  8
0
  6
HIDDEN
 62
     7
370
     0
100
AcDbLine
 10
157.1683980765
 20
122.726107121
 30
0.0
 11
157.1683980765
 21
101.7261074042
 31
0.0
  0
LINE
  5
123
330
1F
100
AcDbEntity
  8
0
  6
HIDDEN
 62
     7
370
     0
100
AcDbLine
 10
158.1683982404
 20
122.726107121
 30
0.0
 11
158.1683982404
 21
101.7261074042
 31
0.0
  0
SPLINE
  5
124
330
1F
100
AcDbEntity
  8
0
  6
HIDDEN
 62
     7
370
     0
100
AcDbSpline
210
0.0
220
0.0
230
1.0
 70
     8
 71
     3
 72
    66
 73
    62
 74
     0
 42
0.00000001
 43
0.00000001
 12
1.0
 22
0.0
 32
0.0
 13
1.0
 23
0.0
 33
0.0
 40
-0.03125
 40
-0.03125
 40
0.0
 40
0.0
 40
0.0312499999999998
 40
0.0312499999999998
 40
0.0624999999999997
 40
0.0624999999999997
 40
0.0937499999999995
 40
0.0937499999999995
 40
0.1249999999999994
 40
0.1249999999999994
 40
0.1874999999999992
 40
0.1874999999999992
 40
0.2187499999999991
 40
0.2187499999999991
 40
0.249999999999999
 40
0.249999999999999
 40
0.2812499999999989
 40
0.2812499999999989
 40
0.3124999999999988
 40
0.3124999999999988
 40
0.3437499999999988
 40
0.3437499999999988
 40
0.3749999999999987
 40
0.3749999999999987
 40
0.4062499999999987
 40
0.4062499999999987
 40
0.4374999999999986
 40
0.4374999999999986
 40
0.4687499999999986
 40
0.4687499999999986
 40
0.4999999999999986
 40
0.4999999999999986
 40
0.5312499999999986
 40
0.5312499999999986
 40
0.5624999999999984
 40
0.5624999999999984
 40
0.5937499999999984
 40
0.5937499999999984
 40
0.6249999999999986
 40
0.6249999999999986
 40
0.6562499999999988
 40
0.6562499999999988
 40
0.687499999999999
 40
0.687499999999999
 40
0.7187499999999991
 40
0.7187499999999991
 40
0.7499999999999993
 40
0.7499999999999993
 40
0.7812499999999996
 40
0.7812499999999996
 40
0.8124999999999997
 40
0.8124999999999997
 40
0.8749999999999999
 40
0.8749999999999999
 40
0.9062500000000001
 40
0.9062500000000001
 40
0.9375000000000001
 40
0.9375000000000001
 40
0.96875
 40
0.96875
 40
1.0
 40
1.0
 40
1.03125
 40
1.03125
 10
169.4376788565817
 20
115.2761072625922
 30
0.0
 10
169.8430361504773
 20
115.2761072625922
 30
0.0
 10
170.0420960418132
 20
115.2561077029756
 30
0.0
 10
170.4333500263928
 20
115.1779642002754
 30
0.0
 10
170.6276227851405
 20
115.1188030987547
 30
0.0
 10
170.9963862116918
 20
114.9653714118603
 30
0.0
 10
171.1711113700701
 20
114.8716446020181
 30
0.0
 10
171.5017886736039
 20
114.6503904996132
 30
0.0
 10
171.6574362176067
 20
114.5224091326187
 30
0.0
 10
172.0769035872754
 20
114.1028540356186
 30
0.0
 10
172.3037917288056
 20
113.7643754769152
 30
0.0
 10
172.5325883521904
 20
113.214496589197
 30
0.0
 10
172.5917806070393
 20
113.0210967434536
 30
0.0
 10
172.6705880172998
 20
112.6268685930957
 30
0.0
 10
172.6902274335802
 20
112.4282297656633
 30
0.0
 10
172.6904862980018
 20
112.0279294797649
 30
0.0
 10
172.6704156133688
 20
111.8245901530439
 30
0.0
 10
172.5920779307389
 20
111.4324986324363
 30
0.0
 10
172.5341281627004
 20
111.241792764121
 30
0.0
 10
172.3801850208204
 20
110.8710689475345
 30
0.0
 10
172.2852464070978
 20
110.6943422877256
 30
0.0
 10
172.0648889912206
 20
110.3650891768013
 30
0.0
 10
171.9376089652923
 20
110.2099679532048
 30
0.0
 10
171.6558533739617
 20
109.9282912582744
 30
0.0
 10
171.5030650445042
 20
109.8028580733701
 30
0.0
 10
171.1736379623473
 20
109.582082480016
 30
0.0
 10
170.9950919591956
 20
109.4862512273158
 30
0.0
 10
170.6275196336454
 20
109.3334220968207
 30
0.0
 10
170.4373656069345
 20
109.2752503388765
 30
0.0
 10
170.043825184232
 20
109.1962570465315
 30
0.0
 10
169.8413911129708
 20
109.1761939208893
 30
0.0
 10
169.4419620376054
 20
109.1760211747706
 30
0.0
 10
169.2419430590496
 20
109.1955045488598
 30
0.0
 10
168.8458271116002
 20
109.274496120461
 30
0.0
 10
168.6550942834083
 20
109.332776340313
 30
0.0
 10
168.2874628428286
 20
109.485343960921
 30
0.0
 10
168.1089764106608
 20
109.5809527476943
 30
0.0
 10
167.7787711516968
 20
109.8019647927793
 30
0.0
 10
167.6258825736348
 20
109.9274146915495
 30
0.0
 10
167.3442861790967
 20
110.2086451805548
 30
0.0
 10
167.2166552562213
 20
110.3640280584687
 30
0.0
 10
166.9963298212215
 20
110.6928789165117
 30
0.0
 10
166.9021033642561
 20
110.8677670229257
 30
0.0
 10
166.747168843653
 20
111.2399108742865
 30
0.0
 10
166.6891565580508
 20
111.4307169160954
 30
0.0
 10
166.6107373037726
 20
111.8215899340141
 30
0.0
 10
166.5904232238061
 20
112.0240474953964
 30
0.0
 10
166.5902921075021
 20
112.4261781003159
 30
0.0
 10
166.6099168008615
 20
112.624902145491
 30
0.0
 10
166.6880832512751
 20
113.0177416166277
 30
0.0
 10
166.747370696615
 20
113.2123858940303
 30
0.0
 10
166.9764515396979
 20
113.7638256474445
 30
0.0
 10
167.2032823905921
 20
114.1021652131436
 30
0.0
 10
167.6226210919128
 20
114.5218308757951
 30
0.0
 10
167.7779740876627
 20
114.6496768815684
 30
0.0
 10
168.1089419207999
 20
114.8712779562702
 30
0.0
 10
168.2835032209963
 20
114.9649186902471
 30
0.0
 10
168.6510765285711
 20
115.1180728109464
 30
0.0
 10
168.8457633902092
 20
115.1775765565924
 30
0.0
 10
169.2382393401456
 20
115.2560993056554
 30
0.0
 10
169.4376788565817
 20
115.2761072625922
 30
0.0
 10
169.8430361504773
 20
115.2761072625922
 30
0.0
  0
SPLINE
  5
125
330
1F
100
AcDbEntity
  8
0
  6
HIDDEN
 62
     7
370
     0
100
AcDbSpline
210
0.0
220
0.0
230
1.0
 70
     8
 71
     3
 72
    66
 73
    62
 74
     0
 42
0.00000001
 43
0.00000001
 12
1.0
 22
0.0
 32
0.0
 13
1.0
 23
0.0
 33
0.0
 40
-0.0312499999999999
 40
-0.0312499999999999
 40
0.0
 40
0.0
 40
0.03125
 40
0.03125
 40
0.0625000000000001
 40
0.0625000000000001
 40
0.0937500000000001
 40
0.0937500000000001
 40
0.1250000000000001
 40
0.1250000000000001
 40
0.1874999999999999
 40
0.1874999999999999
 40
0.2187499999999998
 40
0.2187499999999998
 40
0.2499999999999996
 40
0.2499999999999996
 40
0.2812499999999995
 40
0.2812499999999995
 40
0.3124999999999993
 40
0.3124999999999993
 40
0.3437499999999992
 40
0.3437499999999992
 40
0.3749999999999991
 40
0.3749999999999991
 40
0.4062499999999989
 40
0.4062499999999989
 40
0.4374999999999991
 40
0.4374999999999991
 40
0.4687499999999991
 40
0.4687499999999991
 40
0.4999999999999992
 40
0.4999999999999992
 40
0.5312499999999992
 40
0.5312499999999992
 40
0.5624999999999993
 40
0.5624999999999993
 40
0.5937499999999993
 40
0.5937499999999993
 40
0.6249999999999993
 40
0.6249999999999993
 40
0.6562499999999994
 40
0.6562499999999994
 40
0.6874999999999994
 40
0.6874999999999994
 40
0.7187499999999994
 40
0.7187499999999994
 40
0.7499999999999994
 40
0.7499999999999994
 40
0.7812499999999997
 40
0.7812499999999997
 40
0.8124999999999998
 40
0.8124999999999998
 40
0.875
 40
0.875
 40
0.90625
 40
0.90625
 40
0.9375
 40
0.9375
 40
0.9687500000000001
 40
0.9687500000000001
 40
1.0
 40
1.0
 40
1.03125
 40
1.03125
 10
169.8430361504773
 20
115.2761072625922
 30
0.0
 10
169.4376788565817
 20
115.2761072625922
 30
0.0
 10
169.2386189652458
 20
115.2561077029756
 30
0.0
 10
168.8473649806661
 20
115.1779642002754
 30
0.0
 10
168.6530922219185
 20
115.1188030987547
 30
0.0
 10
168.2843287953672
 20
114.9653714118604
 30
0.0
 10
168.1096036369889
 20
114.8716446020181
 30
0.0
 10
167.7789263334551
 20
114.6503904996132
 30
0.0
 10
167.6232787894523
 20
114.5224091326187
 30
0.0
 10
167.2038114197836
 20
114.1028540356186
 30
0.0
 10
166.9769232782533
 20
113.7643754769152
 30
0.0
 10
166.7481266548685
 20
113.214496589197
 30
0.0
 10
166.6889344000197
 20
113.0210967434536
 30
0.0
 10
166.6101269897592
 20
112.6268685930957
 30
0.0
 10
166.5904875734788
 20
112.4282297656633
 30
0.0
 10
166.5902287090572
 20
112.0279294797649
 30
0.0
 10
166.6102993936902
 20
111.8245901530439
 30
0.0
 10
166.6886370763201
 20
111.4324986324363
 30
0.0
 10
166.7465868443585
 20
111.241792764121
 30
0.0
 10
166.9005299862385
 20
110.8710689475345
 30
0.0
 10
166.9954685999612
 20
110.6943422877256
 30
0.0
 10
167.2158260158384
 20
110.3650891768013
 30
0.0
 10
167.3431060417667
 20
110.2099679532048
 30
0.0
 10
167.6248616330972
 20
109.9282912582744
 30
0.0
 10
167.7776499625547
 20
109.8028580733701
 30
0.0
 10
168.1070770447116
 20
109.582082480016
 30
0.0
 10
168.2856230478633
 20
109.4862512273158
 30
0.0
 10
168.6531953734135
 20
109.3334220968207
 30
0.0
 10
168.8433494001245
 20
109.2752503388765
 30
0.0
 10
169.236889822827
 20
109.1962570465315
 30
0.0
 10
169.4393238940881
 20
109.1761939208893
 30
0.0
 10
169.8387529694535
 20
109.1760211747706
 30
0.0
 10
170.0387719480094
 20
109.1955045488598
 30
0.0
 10
170.4348878954588
 20
109.274496120461
 30
0.0
 10
170.6256207236507
 20
109.332776340313
 30
0.0
 10
170.9932521642304
 20
109.485343960921
 30
0.0
 10
171.1717385963981
 20
109.5809527476943
 30
0.0
 10
171.5019438553622
 20
109.8019647927793
 30
0.0
 10
171.6548324334241
 20
109.9274146915495
 30
0.0
 10
171.9364288279622
 20
110.2086451805548
 30
0.0
 10
172.0640597508377
 20
110.3640280584687
 30
0.0
 10
172.2843851858375
 20
110.6928789165117
 30
0.0
 10
172.3786116428029
 20
110.8677670229257
 30
0.0
 10
172.533546163406
 20
111.2399108742865
 30
0.0
 10
172.5915584490082
 20
111.4307169160954
 30
0.0
 10
172.6699777032863
 20
111.8215899340141
 30
0.0
 10
172.6902917832529
 20
112.0240474953964
 30
0.0
 10
172.6904228995569
 20
112.4261781003159
 30
0.0
 10
172.6707982061975
 20
112.624902145491
 30
0.0
 10
172.5926317557839
 20
113.0177416166277
 30
0.0
 10
172.533344310444
 20
113.2123858940303
 30
0.0
 10
172.304263467361
 20
113.7638256474445
 30
0.0
 10
172.0774326164669
 20
114.1021652131436
 30
0.0
 10
171.6580939151462
 20
114.5218308757951
 30
0.0
 10
171.5027409193962
 20
114.6496768815684
 30
0.0
 10
171.1717730862591
 20
114.8712779562702
 30
0.0
 10
170.9972117860627
 20
114.9649186902471
 30
0.0
 10
170.6296384784879
 20
115.1180728109464
 30
0.0
 10
170.4349516168498
 20
115.1775765565924
 30
0.0
 10
170.0424756669133
 20
115.2560993056554
 30
0.0
 10
169.8430361504773
 20
115.2761072625922
 30
0.0
 10
169.4376788565817
 20
115.2761072625922
 30
0.0
  0
LINE
  5
126
330
1F
100
AcDbEntity
  8
0
  6
HIDDEN
 62
     7
370
     0
100
AcDbLine
 10
173.640357727
 20
122.2261070391
 30
0.0
 11
173.640357727
 21
102.2261074861
 31
0.0
  0
LINE
  5
127
330
1F
100
AcDbEntity
  8
0
  6
HIDDEN
 62
     7
370
     0
100
AcDbLine
 10
174.640357891
 20
119.476107054
 30
0.0
 11
174.640357891
 21
104.9761074712
 31
0.0
  0
LINE
  5
128
330
1F
100
AcDbEntity
  8
0
  6
HIDDEN
 62
     7
370
     0
100
AcDbLine
 10
173.640357727
 20
103.9761073073
 30
0.0
 11
173.640357727
 21
120.4604600673
 31
0.0
  0
LINE
  5
129
330
1F
100
AcDbEntity
  8
0
  6
HIDDEN
 62
     7
370
     0
100
AcDbLine
 10
207.6403577121
 20
104.9761074712
 30
0.0
 11
207.6403577121
 21
119.476107054
 31
0.0
  0
LWPOLYLINE
  5
12A
330
1F
100
AcDbEntity
  8
0
  6
HIDDEN
 62
     7
370
     0
100
AcDbPolyline
 90
       34
 70
   128
 43
0.0
 10
227.8358567747
 20
119.5831574617
 10
228.4946073087
 20
119.6334232693
 10
229.1295495125
 20
119.8064494995
 10
229.7177355977
 20
120.0959823211
 10
230.2379016074
 20
120.4915587907
 10
230.6712534519
 20
120.9788798471
 10
231.0021262857
 20
121.5403323179
 10
231.218565652
 20
122.155625478
 10
231.3127409908
 20
122.802521207
 10
231.2812548372
 20
123.457636789
 10
231.1252396795
 20
124.0972961416
 10
230.8503393325
 20
124.6983801132
 10
230.4664891454
 20
125.2391646733
 10
229.9875620993
 20
125.7001022925
 10
229.4308621677
 20
126.0645362665
 10
228.8165208193
 20
126.3192930376
 10
228.1667296084
 20
126.4551655506
 10
227.504983941
 20
126.4672429418
 10
226.8551964554
 20
126.3550893521
 10
226.2408513817
 20
126.1227578973
 10
225.68415145
 20
125.7786444505
 10
225.205224404
 20
125.3351886874
 10
224.8213742169
 20
124.8084158754
 10
224.5464738699
 20
124.2173659732
 10
224.3904587122
 20
123.5834016582
 10
224.3589725586
 20
122.9294353282
 10
224.4531478974
 20
122.2791030189
 10
224.6695872637
 20
121.6559085181
 10
225.0004600974
 20
121.0823777249
 10
225.433811942
 20
120.5792381545
 10
225.9539816769
 20
120.1646757429
 10
226.5421640369
 20
119.8536722106
 10
227.1771062406
 20
119.6574690869
 10
227.8358567747
 20
119.5831574617
  0
ARC
  5
12B
330
1F
100
AcDbEntity
  8
0
  6
HIDDEN
 62
     7
370
     0
100
AcDbCircle
 10
222.7763999746
 20
128.8313681596
 30
0.0
 40
2.08752302058597
100
AcDbArc
 50
122.6994574592
 51
287.5426238249
  0
LINE
  5
12C
330
1F
100
AcDbEntity
  8
0
  6
HIDDEN
 62
     7
370
     0
100
AcDbLine
 10
238.7828532847
 20
132.7388613602
 30
0.0
 11
237.819102058
 21
131.1465959182
 31
0.0
  0
SPLINE
  5
12D
330
1F
100
AcDbEntity
  8
0
  6
HIDDEN
 62
     7
370
     0
100
AcDbSpline
210
0.0
220
0.0
230
1.0
 70
     8
 71
     3
 72
     8
 73
     4
 74
     0
 42
0.00000001
 43
0.00000001
 12
1.0
 22
0.0
 32
0.0
 13
1.0
 23
0.0
 33
0.0
 40
0.0
 40
0.0
 40
0.0
 40
0.0
 40
1.0
 40
1.0
 40
1.0
 40
1.0
 10
218.6509700008515
 20
135.7237048875081
 30
0.0
 10
218.4482752881987
 20
135.8298390326023
 30
0.0
 10
218.2572601266549
 20
135.9397757163771
 30
0.0
 10
218.0808402444669
 20
136.0544642192746
 30
0.0
  0
SPLINE
  5
12E
330
1F
100
AcDbEntity
  8
0
  6
HIDDEN
 62
     7
370
     0
100
AcDbSpline
210
0.0
220
0.0
230
1.0
 70
     8
 71
     3
 72
    11
 73
     7
 74
     0
 42
0.00000001
 43
0.00000001
 12
1.0
 22
0.0
 32
0.0
 13
1.0
 23
0.0
 33
0.0
 40
0.0
 40
0.0
 40
0.0
 40
0.0
 40
0.2999281196860758
 40
0.5998111900397047
 40
0.9041376706963352
 40
1.0
 40
1.0
 40
1.0
 40
1.0
 10
218.0808414014539
 20
136.0544647207068
 30
0.0
 10
217.8277314123675
 20
136.2488755852973
 30
0.0
 10
217.3215494514237
 20
136.6376681138831
 30
0.0
 10
216.9431667221886
 20
137.412431813006
 30
0.0
 10
216.8544944069173
 20
138.0729838703982
 30
0.0
 10
217.00729671156
 20
138.4935691895175
 30
0.0
 10
217.0438993962964
 20
138.5943173547791
 30
0.0
  0
SPLINE
  5
12F
330
1F
100
AcDbEntity
  8
0
  6
HIDDEN
 62
     7
370
     0
100
AcDbSpline
210
0.0
220
0.0
230
1.0
 70
     8
 71
     3
 72
     8
 73
     4
 74
     0
 42
0.00000001
 43
0.00000001
 12
1.0
 22
0.0
 32
0.0
 13
1.0
 23
0.0
 33
0.0
 40
0.0
 40
0.0
 40
0.0
 40
0.0
 40
1.0
 40
1.0
 40
1.0
 40
1.0
 10
218.4842455914355
 20
131.3619120222063
 30
0.0
 10
217.6531138759738
 20
126.1940703443308
 30
0.0
 10
217.0312863427027
 20
120.9973965303483
 30
0.0
 10
216.8389563418396
 20
115.7415584360231
 30
0.0
  0
SPLINE
  5
130
330
1F
100
AcDbEntity
  8
0
  6
HIDDEN
 62
     7
370
     0
100
AcDbSpline
210
0.0
220
0.0
230
1.0
 70
     8
 71
     3
 72
    10
 73
     6
 74
     0
 42
0.00000001
 43
0.00000001
 12
1.0
 22
0.0
 32
0.0
 13
1.0
 23
0.0
 33
0.0
 40
0.0
 40
0.0
 40
0.0
 40
0.0
 40
0.5
 40
0.5
 40
1.0
 40
1.0
 40
1.0
 40
1.0
 10
218.6509700008515
 20
135.7237048875081
 30
0.0
 10
218.6230539784362
 20
135.0429457729484
 30
0.0
 10
218.5949984231316
 20
134.3342273587374
 30
0.0
 10
218.5393173709091
 20
132.8776851033696
 30
0.0
 10
218.5116775610705
 20
132.1296940317752
 30
0.0
 10
218.4842455914355
 20
131.3619120222063
 30
0.0
  0
SPLINE
  5
131
330
1F
100
AcDbEntity
  8
0
  6
HIDDEN
 62
     7
370
     0
100
AcDbSpline
210
0.0
220
0.0
230
1.0
 70
     8
 71
     3
 72
    42
 73
    38
 74
     0
 42
0.00000001
 43
0.00000001
 12
1.0
 22
0.0
 32
0.0
 13
1.0
 23
0.0
 33
0.0
 40
0.0
 40
0.0
 40
0.0
 40
0.0
 40
0.1249999999999945
 40
0.1249999999999945
 40
0.1874999999999918
 40
0.1874999999999918
 40
0.249999999999989
 40
0.249999999999989
 40
0.3124999999999861
 40
0.3124999999999861
 40
0.3749999999999833
 40
0.3749999999999833
 40
0.406249999999982
 40
0.406249999999982
 40
0.4374999999999806
 40
0.4374999999999806
 40
0.4687499999999792
 40
0.4687499999999792
 40
0.4999999999999778
 40
0.4999999999999778
 40
0.5156249999999779
 40
0.5156249999999779
 40
0.531249999999978
 40
0.531249999999978
 40
0.5624999999999795
 40
0.5624999999999795
 40
0.6249999999999823
 40
0.6249999999999823
 40
0.6874999999999852
 40
0.6874999999999852
 40
0.7499999999999881
 40
0.7499999999999881
 40
0.8124999999999911
 40
0.8124999999999911
 40
0.874999999999994
 40
0.874999999999994
 40
1.0
 40
1.0
 40
1.0
 40
1.0
 10
226.0940387073458
 20
125.8816052366634
 30
0.0
 10
226.1523906420678
 20
125.9780115051854
 30
0.0
 10
226.2759356668614
 20
126.0895082920941
 30
0.0
 10
226.5221251790525
 20
126.2615925257919
 30
0.0
 10
226.6152421992304
 20
126.3198687877337
 30
0.0
 10
226.8200333070767
 20
126.4334884135512
 30
0.0
 10
226.9319306883584
 20
126.4890521048178
 30
0.0
 10
227.1767382742279
 20
126.5940605722913
 30
0.0
 10
227.3095308925855
 20
126.6435892023142
 30
0.0
 10
227.6028572005856
 20
126.7308385025203
 30
0.0
 10
227.7645463157048
 20
126.76909238177
 30
0.0
 10
228.0354645211747
 20
126.8069621740278
 30
0.0
 10
228.1304093334836
 20
126.8162939110705
 30
0.0
 10
228.3336303360317
 20
126.8248696708492
 30
0.0
 10
228.4421353638436
 20
126.8240834532665
 30
0.0
 10
228.6724163220819
 20
126.8061932442022
 30
0.0
 10
228.7968133260083
 20
126.7887313661844
 30
0.0
 10
229.054434612343
 20
126.7288951264636
 30
0.0
 10
229.1902482563922
 20
126.6852111237454
 30
0.0
 10
229.3825601586211
 20
126.6018704612242
 30
0.0
 10
229.4462566785037
 20
126.5705606938185
 30
0.0
 10
229.5658594872637
 20
126.5047354159503
 30
0.0
 10
229.6222400606213
 20
126.4701141531996
 30
0.0
 10
229.782722607915
 20
126.3619654378853
 30
0.0
 10
229.8753325451199
 20
126.2859925610583
 30
0.0
 10
230.1138867238876
 20
126.0631243922126
 30
0.0
 10
230.2271596945818
 20
125.9186047324488
 30
0.0
 10
230.4146928609666
 20
125.6353875557465
 30
0.0
 10
230.4847533571853
 20
125.5006037817874
 30
0.0
 10
230.5983507253054
 20
125.2419939762993
 30
0.0
 10
230.641476719041
 20
125.118075798306
 30
0.0
 10
230.7087231824312
 20
124.8805984110907
 30
0.0
 10
230.732666593932
 20
124.7670180989521
 30
0.0
 10
230.7647564714891
 20
124.5546490911918
 30
0.0
 10
230.773022068609
 20
124.4553627797977
 30
0.0
 10
230.7772477624269
 20
124.1815928938566
 30
0.0
 10
230.7544980990727
 20
124.0291296211821
 30
0.0
 10
230.6963901888241
 20
123.9331265181939
 30
0.0
  0
ELLIPSE
  5
132
330
1F
100
AcDbEntity
  8
0
  6
HIDDEN
 62
     7
370
     0
100
AcDbEllipse
 10
230.4872427294
 20
129.4753630657
 30
0.0
 11
3.441277585125079
 21
1.58410305049216
 31
0.0
210
0.0
220
0.0
230
1.0
 40
0.1362260441
 41
6.084609045937434
 42
9.226201699527019
  0
LINE
  5
133
330
1F
100
AcDbEntity
  8
0
  6
HIDDEN
 62
     7
370
     0
100
AcDbLine
 10
228.0250530931
 20
140.9394658288
 30
0.0
 11
228.9888043197
 21
142.5317312708
 31
0.0
  0
ELLIPSE
  5
134
330
1F
100
AcDbEntity
  8
0
  6
HIDDEN
 62
     7
370
     0
100
AcDbEllipse
 10
225.0106997582
 20
118.3623955387
 30
0.0
 11
2.220506159017873
 21
3.668613800738157
 31
0.0
210
0.0
220
0.0
230
1.0
 40
0.9794128731
 41
0.0
 42
6.283185307179586
  0
LINE
  5
135
330
1F
100
AcDbEntity
  8
0
  6
HIDDEN
 62
     7
370
     0
100
AcDbLine
 10
230.6963917109
 20
123.9331263234
 30
0.0
 11
230.258223066
 21
123.2092092862
 31
0.0
  0
LINE
  5
136
330
1F
100
AcDbEntity
  8
0
  6
HIDDEN
 62
     7
370
     0
100
AcDbLine
 10
225.6558727714
 20
125.1576879179
 30
0.0
 11
226.094037691
 21
125.8816049551
 31
0.0
  0
ELLIPSE
  5
137
330
1F
100
AcDbEntity
  8
0
  6
HIDDEN
 62
     7
370
     0
100
AcDbEllipse
 10
226.9240938653
 20
121.5236135336
 30
0.0
 11
3.737383068429494
 21
-1.922577779599805
 31
0.0
210
0.0
220
0.0
230
1.0
 40
0.8435519333
 41
1.021638851878168
 42
2.296762693116571
  0
LWPOLYLINE
  5
138
330
1F
100
AcDbEntity
  8
0
  6
HIDDEN
 62
     7
370
     0
100
AcDbPolyline
 90
       37
 70
   128
 43
0.0
 10
227.7918908986
 20
118.8211553847
 10
228.5172198209
 20
118.8707552967
 10
229.2205062004
 20
119.0445242567
 10
229.8803892227
 20
119.3371825968
 10
230.4768119248
 20
119.7398375837
 10
230.9916544946
 20
120.2402553638
 10
231.4092744383
 20
120.8232297679
 10
231.7169796916
 20
121.4710493689
 10
231.9054272267
 20
122.1640288015
 10
231.9688838216
 20
122.8811127251
 10
231.9054272267
 20
123.6005137791
 10
231.7169796916
 20
124.3003719603
 10
231.4092744383
 20
124.9594223802
 10
230.9916544946
 20
125.5576416036
 10
230.4768119248
 20
126.0768520763
 10
229.8803892227
 20
126.5012781253
 10
229.2205062004
 20
126.8180237269
 10
228.5172198209
 20
127.0174645936
 10
227.7918908986
 20
127.0935406094
 10
227.0665657016
 20
127.0439402317
 10
226.3632755967
 20
126.8701712718
 10
225.7033962997
 20
126.5775133973
 10
225.1069735976
 20
126.1748579448
 10
224.5921310278
 20
125.6744406303
 10
224.1745110842
 20
125.0914652949
 10
223.8668021055
 20
124.4436466252
 10
223.6783582958
 20
123.7506671926
 10
223.6149017009
 20
123.0335823377
 10
223.6783582958
 20
122.314182215
 10
223.8668021055
 20
121.6143240338
 10
224.1745110842
 20
120.9552726825
 10
224.5921310278
 20
120.3570534592
 10
225.1069735976
 20
119.8378434522
 10
225.7033962997
 20
119.4134174032
 10
226.3632755967
 20
119.0966722672
 10
227.0665657016
 20
118.8972314005
 10
227.7918908986
 20
118.8211553847
  0
LINE
  5
139
330
1F
100
AcDbEntity
  8
0
  6
HIDDEN
 62
     7
370
     0
100
AcDbLine
 10
230.258223066
 20
123.2092092862
 30
0.0
 11
231.947124401
 21
127.5580908289
 31
0.0
  0
LINE
  5
13A
330
1F
100
AcDbEntity
  8
0
  6
HIDDEN
 62
     7
370
     0
100
AcDbLine
 10
234.7743105384
 20
133.5592392018
 30
0.0
 11
234.4504598769
 21
133.02419252
 31
0.0
  0
LINE
  5
13B
330
1F
100
AcDbEntity
  8
0
  6
HIDDEN
 62
     7
370
     0
100
AcDbLine
 10
233.1949252876
 20
129.765239649
 30
0.0
 11
234.7743105384
 21
133.5592392018
 31
0.0
  0
LINE
  5
13C
330
1F
100
AcDbEntity
  8
0
  6
HIDDEN
 62
     7
370
     0
100
AcDbLine
 10
233.9034643265
 20
130.935856246
 30
0.0
 11
233.1949252876
 21
129.765239649
 31
0.0
  0
ARC
  5
13D
330
1F
100
AcDbEntity
  8
0
  6
HIDDEN
 62
     7
370
     0
100
AcDbCircle
 10
233.2378245279
 20
136.3396910374
 30
0.0
 40
3.176743878720178
100
AcDbArc
 50
298.925171212
 51
195.1825145875
  0
LINE
  5
13E
330
1F
100
AcDbEntity
  8
0
  6
HIDDEN
 62
     7
370
     0
100
AcDbLine
 10
230.1719602438
 20
135.5077187648
 30
0.0
 11
227.0126570257
 21
127.9184437474
 31
0.0
  0
LINE
  5
13F
330
1F
100
AcDbEntity
  8
0
  6
HIDDEN
 62
     7
370
     0
100
AcDbLine
 10
242.0999784263
 20
144.7204771569
 30
0.0
 11
241.7738478872
 21
145.0465704431
 31
0.0
  0
LINE
  5
140
330
1F
100
AcDbEntity
  8
0
  6
HIDDEN
 62
     7
370
     0
100
AcDbLine
 10
241.7738478872
 20
145.0465704431
 30
0.0
 11
228.0250530931
 21
140.9394658288
 31
0.0
  0
LINE
  5
141
330
1F
100
AcDbEntity
  8
0
  6
HIDDEN
 62
     7
370
     0
100
AcDbLine
 10
228.0250530931
 20
140.9394658288
 30
0.0
 11
225.1088325175
 21
131.6926582833
 31
0.0
  0
LINE
  5
142
330
1F
100
AcDbEntity
  8
0
  6
HIDDEN
 62
     7
370
     0
100
AcDbLine
 10
223.4056111666
 20
126.8409296056
 30
0.0
 11
227.0126570257
 21
127.9184437474
 31
0.0
  0
LINE
  5
143
330
1F
100
AcDbEntity
  8
0
  6
HIDDEN
 62
     7
370
     0
100
AcDbLine
 10
233.1949252876
 20
129.765239649
 30
0.0
 11
237.819102058
 21
131.1465959182
 31
0.0
  0
LINE
  5
144
330
1F
100
AcDbEntity
  8
0
  6
HIDDEN
 62
     7
370
     0
100
AcDbLine
 10
237.819102058
 20
131.1465959182
 30
0.0
 11
242.0999784263
 21
144.7204771569
 31
0.0
  0
LINE
  5
145
330
1F
100
AcDbEntity
  8
0
  6
HIDDEN
 62
     7
370
     0
100
AcDbLine
 10
227.0126570257
 20
127.9184437474
 30
0.0
 11
227.0710211488
 21
128.0148710241
 31
0.0
  0
LINE
  5
146
330
1F
100
AcDbEntity
  8
0
  6
HIDDEN
 62
     7
370
     0
100
AcDbLine
 10
155.1403574886
 20
129.0854579886
 30
0.0
 11
155.1403574886
 21
124.2756798049
 31
0.0
  0
LINE
  5
147
330
1F
100
AcDbEntity
  8
0
  6
HIDDEN
 62
     7
370
     0
100
AcDbLine
 10
153.6403581741
 20
128.2194323023
 30
0.0
 11
153.6403581741
 21
123.8426669618
 31
0.0
  0
LINE
  5
148
330
1F
100
AcDbEntity
  8
0
  6
HIDDEN
 62
     7
370
     0
100
AcDbLine
 10
181.4403575155
 20
129.7462052783
 30
0.0
 11
181.4403575155
 21
124.6060534497
 31
0.0
  0
SPLINE
  5
149
330
1F
100
AcDbEntity
  8
0
  6
HIDDEN
 62
     7
370
     0
100
AcDbSpline
210
0.0
220
0.0
230
1.0
 70
     8
 71
     3
 72
    18
 73
    14
 74
     0
 42
0.00000001
 43
0.00000001
 12
1.0
 22
0.0
 32
0.0
 13
1.0
 23
0.0
 33
0.0
 40
0.0
 40
0.0
 40
0.0
 40
0.0
 40
0.2500000000000002
 40
0.2500000000000002
 40
0.3750000000000003
 40
0.3750000000000003
 40
0.5000000000000004
 40
0.5000000000000004
 40
0.6250000000000006
 40
0.6250000000000006
 40
0.7500000000000007
 40
0.7500000000000007
 40
1.0
 40
1.0
 40
1.0
 40
1.0
 10
182.3190371599699
 20
129.523017130597
 30
0.0
 10
182.1837515536675
 20
129.4516643889074
 30
0.0
 10
182.0825838074246
 20
129.306260982318
 30
0.0
 10
181.9797224645556
 20
128.9767937467124
 30
0.0
 10
181.9536196190323
 20
128.8478601699076
 30
0.0
 10
181.9187296354875
 20
128.5523181705715
 30
0.0
 10
181.9101433771975
 20
128.3879233970496
 30
0.0
 10
181.9100436676319
 20
128.026961782309
 30
0.0
 10
181.9185320387804
 20
127.8303919901468
 30
0.0
 10
181.952675418301
 20
127.4050371940218
 30
0.0
 10
181.9784724001548
 20
127.1752675442222
 30
0.0
 10
182.0818735315428
 20
126.4426788497898
 30
0.0
 10
182.1837315237141
 20
125.9054420748723
 30
0.0
 10
182.3190371599699
 20
125.3211539861246
 30
0.0
  0
LINE
  5
14A
330
1F
100
AcDbEntity
  8
0
  6
HIDDEN
 62
     7
370
     0
100
AcDbLine
 10
155.1403574886
 20
100.1765347203
 30
0.0
 11
155.1403574886
 21
95.3667565366
 31
0.0
  0
LINE
  5
14B
330
1F
100
AcDbEntity
  8
0
  6
HIDDEN
 62
     7
370
     0
100
AcDbLine
 10
181.4403575155
 20
99.8461610755
 30
0.0
 11
181.4403575155
 21
94.7060092469
 31
0.0
  0
LINE
  5
14C
330
1F
100
AcDbEntity
  8
0
  6
HIDDEN
 62
     7
370
     0
100
AcDbLine
 10
153.6403581741
 20
100.6095475634
 30
0.0
 11
153.6403581741
 21
96.2327822228
 31
0.0
  0
SPLINE
  5
14D
330
1F
100
AcDbEntity
  8
0
  6
HIDDEN
 62
     7
370
     0
100
AcDbSpline
210
0.0
220
0.0
230
1.0
 70
     8
 71
     3
 72
    18
 73
    14
 74
     0
 42
0.00000001
 43
0.00000001
 12
1.0
 22
0.0
 32
0.0
 13
1.0
 23
0.0
 33
0.0
 40
0.0
 40
0.0
 40
0.0
 40
0.0
 40
0.2500000000000002
 40
0.2500000000000002
 40
0.375
 40
0.375
 40
0.4999999999999999
 40
0.4999999999999999
 40
0.6249999999999998
 40
0.6249999999999998
 40
0.7499999999999996
 40
0.7499999999999996
 40
1.0
 40
1.0
 40
1.0
 40
1.0
 10
182.3190371599699
 20
99.13106053905972
 30
0.0
 10
182.1837515536675
 20
98.54685894532805
 30
0.0
 10
182.0825838074246
 20
98.01264125811987
 30
0.0
 10
181.9797224645556
 20
97.2867444872315
 30
0.0
 10
181.9536196190323
 20
97.05686399945156
 30
0.0
 10
181.9187296354875
 20
96.62629305466479
 30
0.0
 10
181.9101433771975
 20
96.42859814917063
 30
0.0
 10
181.9100436676319
 20
96.0672501064928
 30
0.0
 10
181.9185320387804
 20
95.90360009654668
 30
0.0
 10
181.952675418301
 20
95.61038882357772
 30
0.0
 10
181.9784724001548
 20
95.4803927574619
 30
0.0
 10
182.0818735315428
 20
95.14633686489998
 30
0.0
 10
182.1837315237141
 20
95.00056070053519
 30
0.0
 10
182.3190371599699
 20
94.92919739458735
 30
0.0
  0
SPLINE
  5
14E
330
1F
100
AcDbEntity
  8
0
  6
HIDDEN
 62
     7
370
     0
100
AcDbSpline
210
0.0
220
0.0
230
1.0
 70
     8
 71
     3
 72
    10
 73
     6
 74
     0
 42
0.00000001
 43
0.00000001
 12
1.0
 22
0.0
 32
0.0
 13
1.0
 23
0.0
 33
0.0
 40
0.0
 40
0.0
 40
0.0
 40
0.0
 40
0.5
 40
0.5
 40
1.0
 40
1.0
 40
1.0
 40
1.0
 10
234.4504617356663
 20
133.0241919150155
 30
0.0
 10
234.4058092277915
 20
132.950419182631
 30
0.0
 10
234.3174112232091
 20
132.8534999524359
 30
0.0
 10
234.0993844739131
 20
132.6463774679796
 30
0.0
 10
233.9679917065486
 20
132.5352852343924
 30
0.0
 10
233.8180205864062
 20
132.42429604438
 30
0.0
  0
ARC
  5
14F
330
1F
100
AcDbEntity
  8
0
  6
HIDDEN
 62
     7
370
     0
100
AcDbCircle
 10
232.6559176327
 20
135.3761228398
 30
0.0
 40
3.172343956263295
100
AcDbArc
 50
291.4890421735
 51
202.6186418675
  0
SPLINE
  5
150
330
1F
100
AcDbEntity
  8
0
  6
HIDDEN
 62
     7
370
     0
100
AcDbSpline
210
0.0
220
0.0
230
1.0
 70
     8
 71
     3
 72
    10
 73
     6
 74
     0
 42
0.00000001
 43
0.00000001
 12
1.0
 22
0.0
 32
0.0
 13
1.0
 23
0.0
 33
0.0
 40
0.0
 40
0.0
 40
0.0
 40
0.0
 40
0.5
 40
0.5
 40
1.0
 40
1.0
 40
1.0
 40
1.0
 10
229.7275727210136
 20
134.1560522231076
 30
0.0
 10
229.7238033407315
 20
134.332153326751
 30
0.0
 10
229.73328546871
 20
134.4948686828383
 30
0.0
 10
229.7733897670097
 20
134.7773104234942
 30
0.0
 10
229.8034052931977
 20
134.8988112405795
 30
0.0
 10
229.8481102541875
 20
134.9726706334854
 30
0.0
  0
LINE
  5
151
330
1F
100
AcDbEntity
  8
0
  6
HIDDEN
 62
     7
370
     0
100
AcDbLine
 10
229.8481095823
 20
134.9726702204
 30
0.0
 11
230.1719602438
 21
135.5077187648
 31
0.0
  0
LINE
  5
152
330
1F
100
AcDbEntity
  8
0
  6
HIDDEN
 62
     7
370
     0
100
AcDbLine
 10
241.7738478872
 20
145.0465704431
 30
0.0
 11
241.615798721
 21
144.7854462197
 31
0.0
  0
LINE
  5
153
330
1F
100
AcDbEntity
  8
0
  6
HIDDEN
 62
     7
370
     0
100
AcDbLine
 10
241.8217588457
 20
144.2608173122
 30
0.0
 11
242.0999784263
 21
144.7204771569
 31
0.0
  0
ELLIPSE
  5
154
330
1F
100
AcDbEntity
  8
0
  6
HIDDEN
 62
     7
370
     0
100
AcDbEllipse
 10
231.2523087234
 20
132.0398584906
 30
0.0
 11
1.094277237973245
 21
2.744854198197714
 31
0.0
210
0.0
220
0.0
230
1.0
 40
0.8456184209
 41
5.17065378942084
 42
7.359978159963967
  0
LWPOLYLINE
  5
155
330
1F
100
AcDbEntity
  8
0
  6
HIDDEN
 62
     7
370
     0
100
AcDbPolyline
 90
       15
 70
   128
 43
0.0
 10
231.947124401
 20
127.5580908289
 10
232.0305858048
 20
127.9459941318
 10
231.9944728407
 20
128.363301151
 10
231.8405959996
 20
128.789081343
 10
231.5766666325
 20
129.2019887944
 10
231.2159281465
 20
129.5813146164
 10
230.7764593753
 20
129.9080430647
 10
230.2803065869
 20
130.1657847246
 10
229.7523398193
 20
130.3416202893
 10
229.2190421613
 20
130.4267282715
 10
228.7071500214
 20
130.4168450763
 10
228.2423306497
 20
130.3124643048
 10
227.8478969129
 20
130.1188181271
 10
227.5436263772
 20
129.8456221005
 10
227.3447741064
 20
129.5065703919
  0
LINE
  5
156
330
1F
100
AcDbEntity
  8
0
  6
HIDDEN
 62
     7
370
     0
100
AcDbLine
 10
227.3447741064
 20
129.5065703919
 30
0.0
 11
225.6558727714
 21
125.1576879179
 31
0.0
  0
ELLIPSE
  5
157
330
1F
100
AcDbEntity
  8
0
  6
HIDDEN
 62
     7
370
     0
100
AcDbEllipse
 10
274.9018371444
 20
114.7261072626
 30
0.0
 11
33.34062320151219
 21
-32.66934189173759
 31
0.0
210
0.0
220
0.0
230
1.0
 40
0.1397646068
 41
3.425274630360788
 42
3.462296617890477
  0
ELLIPSE
  5
158
330
1F
100
AcDbEntity
  8
0
  6
HIDDEN
 62
     7
370
     0
100
AcDbEllipse
 10
142.0607121048
 20
114.7261072626
 30
0.0
 11
103.7092882961986
 21
32.72900579455177
 31
0.0
210
0.0
220
0.0
230
1.0
 40
0.0406949838
 41
5.53031320415467
 42
5.986066150787879
  0
ELLIPSE
  5
159
330
1F
100
AcDbEntity
  8
0
  6
HIDDEN
 62
     7
370
     0
100
AcDbEllipse
 10
232.9271280102
 20
114.7261072626
 30
0.0
 11
10.77149242080529
 21
32.99651020056459
 31
0.0
210
0.0
220
0.0
230
1.0
 40
0.0445538091
 41
0.4769280081839479
 42
1.056982333249639
  0
LINE
  5
15A
330
1F
100
AcDbEntity
  8
0
  6
HIDDEN
 62
     7
370
     0
100
AcDbLine
 10
153.6403581741
 20
123.8426669618
 30
0.0
 11
153.6403581741
 21
114.5652782755
 31
0.0
  0
LINE
  5
15B
330
1F
100
AcDbEntity
  8
0
  6
HIDDEN
 62
     7
370
     0
100
AcDbLine
 10
153.6403581741
 20
109.8869362497
 30
0.0
 11
153.6403581741
 21
100.6095475634
 31
0.0
  0
LINE
  5
15C
330
1F
100
AcDbEntity
  8
0
  6
HIDDEN
 62
     7
370
     0
100
AcDbLine
 10
155.1403574886
 20
109.0776302037
 30
0.0
 11
155.1403574886
 21
100.1765347203
 31
0.0
  0
LINE
  5
15D
330
1F
100
AcDbEntity
  8
0
  6
HIDDEN
 62
     7
370
     0
100
AcDbLine
 10
155.1403574886
 20
124.2756798049
 30
0.0
 11
155.1403574886
 21
115.3745843214
 31
0.0
  0
LINE
  5
15E
330
1F
100
AcDbEntity
  8
0
  6
HIDDEN
 62
     7
370
     0
100
AcDbLine
 10
181.4403575155
 20
124.6060534497
 30
0.0
 11
181.4403575155
 21
99.8461610755
 31
0.0
  0
LINE
  5
15F
330
1F
100
AcDbEntity
  8
0
  6
HIDDEN
 62
     7
370
     0
100
AcDbLine
 10
183.4403575086
 20
123.7883811002
 30
0.0
 11
183.4403575086
 21
100.663833425
 31
0.0
  0
SPLINE
  5
160
330
1F
100
AcDbEntity
  8
0
  6
HIDDEN
 62
     7
370
     0
100
AcDbSpline
210
0.0
220
0.0
230
1.0
 70
     8
 71
     3
 72
     8
 73
     4
 74
     0
 42
0.00000001
 43
0.00000001
 12
1.0
 22
0.0
 32
0.0
 13
1.0
 23
0.0
 33
0.0
 40
0.0000202085968836
 40
0.0000202085968836
 40
0.0000202085968836
 40
0.0000202085968836
 40
0.0040218806502652
 40
0.0040218806502652
 40
0.0040218806502652
 40
0.0040218806502652
 10
155.1403575035295
 20
109.0776301442555
 30
0.0
 10
156.4736806293201
 20
109.0536319130918
 30
0.0
 10
157.8070145025427
 20
109.0303041729235
 30
0.0
 10
159.1403575035295
 20
109.0076095021431
 30
0.0
  0
SPLINE
  5
161
330
1F
100
AcDbEntity
  8
0
  6
HIDDEN
 62
     7
370
     0
100
AcDbSpline
210
0.0
220
0.0
230
1.0
 70
     8
 71
     3
 72
     8
 73
     4
 74
     0
 42
0.00000001
 43
0.00000001
 12
1.0
 22
0.0
 32
0.0
 13
1.0
 23
0.0
 33
0.0
 40
0.0000202082942178
 40
0.0000202082942178
 40
0.0000202082942178
 40
0.0000202082942178
 40
0.0040218803475994
 40
0.0040218803475994
 40
0.0040218803475994
 40
0.0040218803475994
 10
159.1403575035295
 20
115.4446050230412
 30
0.0
 10
157.8070145025427
 20
115.4219103522608
 30
0.0
 10
156.4736806293201
 20
115.3985826120925
 30
0.0
 10
155.1403575035295
 20
115.3745843809289
 30
0.0
  0
SPLINE
  5
162
330
1F
100
AcDbEntity
  8
0
  6
HIDDEN
 62
     7
370
     0
100
AcDbSpline
210
0.0
220
0.0
230
1.0
 70
     8
 71
     3
 72
     8
 73
     4
 74
     0
 42
0.00000001
 43
0.00000001
 12
1.0
 22
0.0
 32
0.0
 13
1.0
 23
0.0
 33
0.0
 40
0.0
 40
0.0
 40
0.0
 40
0.0
 40
1.0
 40
1.0
 40
1.0
 40
1.0
 10
153.6403575035295
 20
109.8869363343571
 30
0.0
 10
154.1145689139672
 20
109.5522071070623
 30
0.0
 10
154.6193052610688
 20
109.2931486932296
 30
0.0
 10
155.1403575035295
 20
109.0776301442555
 30
0.0
  0
SPLINE
  5
163
330
1F
100
AcDbEntity
  8
0
  6
HIDDEN
 62
     7
370
     0
100
AcDbSpline
210
0.0
220
0.0
230
1.0
 70
     8
 71
     3
 72
     8
 73
     4
 74
     0
 42
0.00000001
 43
0.00000001
 12
1.0
 22
0.0
 32
0.0
 13
1.0
 23
0.0
 33
0.0
 40
0.0
 40
0.0
 40
0.0
 40
0.0
 40
1.0
 40
1.0
 40
1.0
 40
1.0
 10
155.1403575035295
 20
115.3745843809289
 30
0.0
 10
154.6193052610688
 20
115.1590658319547
 30
0.0
 10
154.1145689139672
 20
114.900007418122
 30
0.0
 10
153.6403575035295
 20
114.5652781908272
 30
0.0
  0
LINE
  5
164
330
1F
100
AcDbEntity
  8
0
  6
HIDDEN
 62
     7
370
     0
100
AcDbLine
 10
153.6403581741
 20
109.8869362497
 30
0.0
 11
153.6403581741
 21
114.5652782755
 31
0.0
  0
LINE
  5
165
330
1F
100
AcDbEntity
  8
0
  6
HIDDEN
 62
     7
370
     0
100
AcDbLine
 10
159.1403581443
 20
109.0076094145
 30
0.0
 11
159.1403581443
 21
115.4446051107
 31
0.0
  0
SPLINE
  5
166
330
1F
100
AcDbEntity
  8
0
  6
HIDDEN
 62
     7
370
     0
100
AcDbSpline
210
0.0
220
0.0
230
1.0
 70
     8
 71
     3
 72
    26
 73
    22
 74
     0
 42
0.00000001
 43
0.00000001
 12
1.0
 22
0.0
 32
0.0
 13
1.0
 23
0.0
 33
0.0
 40
0.0
 40
0.0
 40
0.0
 40
0.0
 40
0.1250000000000001
 40
0.1250000000000001
 40
0.2500000000000002
 40
0.2500000000000002
 40
0.3750000000000004
 40
0.3750000000000004
 40
0.4375000000000005
 40
0.4375000000000005
 40
0.5000000000000007
 40
0.5000000000000007
 40
0.5625000000000008
 40
0.5625000000000008
 40
0.6250000000000008
 40
0.6250000000000008
 40
0.7500000000000004
 40
0.7500000000000004
 40
0.8750000000000002
 40
0.8750000000000002
 40
1.0
 40
1.0
 40
1.0
 40
1.0
 10
159.1403575035295
 20
109.0076095021431
 30
0.0
 10
159.3510008655294
 20
109.2422265330882
 30
0.0
 10
159.5581973032864
 20
109.4801096690476
 30
0.0
 10
159.9596964379188
 20
109.9674239753164
 30
0.0
 10
160.1549728569648
 20
110.2175492001055
 30
0.0
 10
160.5147533496602
 20
110.7361393455564
 30
0.0
 10
160.6800122098096
 20
111.0035703294433
 30
0.0
 10
160.8726701192357
 20
111.4349854618418
 30
0.0
 10
160.9276348594458
 20
111.5850043437662
 30
0.0
 10
161.00537064441
 20
111.8977415224962
 30
0.0
 10
161.0266367827183
 20
112.0554957693034
 30
0.0
 10
161.0285307120041
 20
112.3742010491492
 30
0.0
 10
161.0083049749369
 20
112.5366378493297
 30
0.0
 10
160.9338405646511
 20
112.8475898489124
 30
0.0
 10
160.8802014389052
 20
112.9982610872401
 30
0.0
 10
160.6854571335045
 20
113.4403448452087
 30
0.0
 10
160.5184070203263
 20
113.7103888583764
 30
0.0
 10
160.1581509016227
 20
114.2304964866578
 30
0.0
 10
159.9633985266022
 20
114.4801576994675
 30
0.0
 10
159.5603893021299
 20
114.9695818113102
 30
0.0
 10
159.3519527837664
 20
115.2089277344742
 30
0.0
 10
159.1403575035304
 20
115.4446050230421
 30
0.0
  0
SPLINE
  5
167
330
1F
100
AcDbEntity
  8
0
  6
HIDDEN
 62
     7
370
     0
100
AcDbSpline
210
0.0
220
0.0
230
1.0
 70
     8
 71
     3
 72
    68
 73
    64
 74
     0
 42
0.00000001
 43
0.00000001
 12
1.0
 22
0.0
 32
0.0
 13
1.0
 23
0.0
 33
0.0
 40
-0.03125
 40
-0.03125
 40
0.0
 40
0.0
 40
0.03125
 40
0.03125
 40
0.0625
 40
0.0625
 40
0.09375
 40
0.09375
 40
0.125
 40
0.125
 40
0.15625
 40
0.15625
 40
0.1875000000000001
 40
0.1875000000000001
 40
0.2499999999999998
 40
0.2499999999999998
 40
0.2812499999999998
 40
0.2812499999999998
 40
0.3124999999999998
 40
0.3124999999999998
 40
0.3437499999999998
 40
0.3437499999999998
 40
0.3749999999999998
 40
0.3749999999999998
 40
0.4062499999999999
 40
0.4062499999999999
 40
0.4374999999999999
 40
0.4374999999999999
 40
0.4687499999999999
 40
0.4687499999999999
 40
0.4999999999999999
 40
0.4999999999999999
 40
0.5312499999999999
 40
0.5312499999999999
 40
0.5624999999999999
 40
0.5624999999999999
 40
0.5937499999999999
 40
0.5937499999999999
 40
0.6249999999999999
 40
0.6249999999999999
 40
0.6562499999999999
 40
0.6562499999999999
 40
0.6874999999999999
 40
0.6874999999999999
 40
0.7187499999999999
 40
0.7187499999999999
 40
0.7499999999999999
 40
0.7499999999999999
 40
0.78125
 40
0.78125
 40
0.8125
 40
0.8125
 40
0.84375
 40
0.84375
 40
0.875
 40
0.875
 40
0.90625
 40
0.90625
 40
0.9375
 40
0.9375
 40
0.96875
 40
0.96875
 40
1.0
 40
1.0
 40
1.03125
 40
1.03125
 10
167.3601181682731
 20
114.4839949535839
 30
0.0
 10
167.695005687946
 20
114.7552361903308
 30
0.0
 10
167.8732719098817
 20
114.8728774832025
 30
0.0
 10
168.250296606775
 20
115.0742090072124
 30
0.0
 10
168.4504853281513
 20
115.158017210426
 30
0.0
 10
168.8571533677822
 20
115.2861092339944
 30
0.0
 10
169.0650685338024
 20
115.3314140309545
 30
0.0
 10
169.4900568330258
 20
115.38457174226
 30
0.0
 10
169.7060934840098
 20
115.3918539262956
 30
0.0
 10
170.1306044528613
 20
115.3683064887583
 30
0.0
 10
170.3411314262511
 20
115.3378022862813
 30
0.0
 10
170.7586166370381
 20
115.2379426728141
 30
0.0
 10
170.9614801706165
 20
115.1693467850533
 30
0.0
 10
171.5427966896313
 20
114.9120053418344
 30
0.0
 10
171.9032039424071
 20
114.6654554505245
 30
0.0
 10
172.3479429391687
 20
114.2122168944496
 30
0.0
 10
172.4831321593113
 20
114.0446363149731
 30
0.0
 10
172.7160720339135
 20
113.6857742400618
 30
0.0
 10
172.8127553795682
 20
113.4970157197077
 30
0.0
 10
172.9659866442177
 20
113.1005020434994
 30
0.0
 10
173.0226036015858
 20
112.8901576344125
 30
0.0
 10
173.0880558034207
 20
112.4687691061296
 30
0.0
 10
173.0980141620479
 20
112.256252986966
 30
0.0
 10
173.0711801528807
 20
111.8274782118657
 30
0.0
 10
173.0341604891079
 20
111.6149119837188
 30
0.0
 10
172.9169972100711
 20
111.2056173396408
 30
0.0
 10
172.8354583325763
 20
111.0047686679331
 30
0.0
 10
172.6342191211723
 20
110.6276419094221
 30
0.0
 10
172.5152873860014
 20
110.4514215878925
 30
0.0
 10
172.2421135729092
 20
110.1226654669103
 30
0.0
 10
172.088252798199
 20
109.9713672990108
 30
0.0
 10
171.7583302001831
 20
109.7037801455315
 30
0.0
 10
171.5800083751115
 20
109.5853089848207
 30
0.0
 10
171.2019843751891
 20
109.3824221808859
 30
0.0
 10
171.0060553764079
 20
109.2998032264379
 30
0.0
 10
170.6009700885735
 20
109.1703630499071
 30
0.0
 10
170.3896352907036
 20
109.1233878194765
 30
0.0
 10
169.9657505010511
 20
109.0686728645584
 30
0.0
 10
169.7533152277889
 20
109.0604431161153
 30
0.0
 10
169.3274631604939
 20
109.081934613916
 30
0.0
 10
169.1123189970843
 20
109.1123322361344
 30
0.0
 10
168.6971894573439
 20
109.2100746930226
 30
0.0
 10
168.4955644916001
 20
109.2771932067715
 30
0.0
 10
168.1044779923292
 20
109.4488363069318
 30
0.0
 10
167.9146583834382
 20
109.5541823657164
 30
0.0
 10
167.5640677632665
 20
109.794885307411
 30
0.0
 10
167.40106128362
 20
109.9310081837437
 30
0.0
 10
167.1009989609313
 20
110.2366616529777
 30
0.0
 10
166.9657300637271
 20
110.4051133324665
 30
0.0
 10
166.7347861108942
 20
110.76139401875
 30
0.0
 10
166.6373038914219
 20
110.9511476981567
 30
0.0
 10
166.4823213320174
 20
111.3537560604409
 30
0.0
 10
166.4274548112002
 20
111.559595804114
 30
0.0
 10
166.3620469405361
 20
111.9801754404364
 30
0.0
 10
166.3519006947031
 20
112.1976772577341
 30
0.0
 10
166.3785690572426
 20
112.6244173966947
 30
0.0
 10
166.4146064490691
 20
112.8343201057819
 30
0.0
 10
166.532017594637
 20
113.2472089264404
 30
0.0
 10
166.6131451292552
 20
113.4475318712243
 30
0.0
 10
166.8129021734446
 20
113.8237703896893
 30
0.0
 10
166.9334046725707
 20
114.0032251349371
 30
0.0
 10
167.2074851179366
 20
114.3335730630269
 30
0.0
 10
167.3601181682731
 20
114.4839949535839
 30
0.0
 10
167.695005687946
 20
114.7552361903308
 30
0.0
  0
CIRCLE
  5
168
330
1F
100
AcDbEntity
  8
0
  6
HIDDEN
 62
     7
370
     0
100
AcDbCircle
 10
169.6403575035
 20
112.2261072626
 30
0.0
 40
3.050000000000011
  0
CIRCLE
  5
169
330
1F
100
AcDbEntity
  8
0
  6
HIDDEN
 62
     7
370
     0
100
AcDbCircle
 10
195.6403575035
 20
112.2261072626
 30
0.0
 40
2.0
  0
LINE
  5
16A
330
1F
100
AcDbEntity
  8
0
  6
HIDDEN
 62
     7
370
     0
100
AcDbLine
 10
218.4842456373
 20
131.3619121095
 30
0.0
 11
236.9410474094
 21
131.3619121095
 31
0.0
  0
LINE
  5
16B
330
1F
100
AcDbEntity
  8
0
  6
HIDDEN
 62
     7
370
     0
100
AcDbLine
 10
236.9410474094
 20
131.3619121095
 30
0.0
 11
230.7080108913
 21
112.2261072626
 31
0.0
  0
LINE
  5
16C
330
1F
100
AcDbEntity
  8
0
  6
HIDDEN
 62
     7
370
     0
100
AcDbLine
 10
198.6403571683
 20
125.8396414226
 30
0.0
 11
198.6403571683
 21
122.029610083
 31
0.0
  0
LINE
  5
16D
330
1F
100
AcDbEntity
  8
0
  6
HIDDEN
 62
     7
370
     0
100
AcDbLine
 10
204.6403572204
 20
122.4126695772
 30
0.0
 11
204.6403572204
 21
125.8420656552
 31
0.0
  0
LINE
  5
16E
330
1F
100
AcDbEntity
  8
0
  6
HIDDEN
 62
     7
370
     0
100
AcDbLine
 10
183.6403575035
 20
92.6761078765
 30
0.0
 11
183.733250724
 21
92.7689998528
 31
0.0
  0
LINE
  5
16F
330
1F
100
AcDbEntity
  8
0
  6
HIDDEN
 62
     7
370
     0
100
AcDbLine
 10
183.733250724
 20
131.6832146724
 30
0.0
 11
183.6403575035
 21
131.7761066487
 31
0.0
  0
ARC
  5
170
330
1F
100
AcDbEntity
  8
0
  6
HIDDEN
 62
     7
370
     0
100
AcDbCircle
 10
183.0261439412
 20
93.4761072626
 30
0.0
 40
1.000000000000008
100
AcDbArc
 50
315.0
 51
0.0
  0
ARC
  5
171
330
1F
100
AcDbEntity
  8
0
  6
HIDDEN
 62
     7
370
     0
100
AcDbCircle
 10
183.0261439412
 20
93.4761072626
 30
0.0
 40
1.0
100
AcDbArc
 50
0.0
 51
52.1052014664
  0
ARC
  5
172
330
1F
100
AcDbEntity
  8
0
  6
HIDDEN
 62
     7
370
     0
100
AcDbCircle
 10
183.0261439412
 20
130.9761072626
 30
0.0
 40
1.000000000000008
100
AcDbArc
 50
351.8087250651
 51
45.0
  0
ARC
  5
173
330
1F
100
AcDbEntity
  8
0
  6
HIDDEN
 62
     7
370
     0
100
AcDbCircle
 10
183.0261439412
 20
130.9761072626
 30
0.0
 40
1.000000000000006
100
AcDbArc
 50
307.8947985336
 51
351.8087250651
  0
LINE
  5
174
330
1F
100
AcDbEntity
  8
0
  6
HIDDEN
 62
     7
370
     0
100
AcDbLine
 10
184.0261439393
 20
93.4761065175
 30
0.0
 11
184.0261439393
 21
130.9761080077
 31
0.0
  0
LINE
  5
175
330
1F
100
AcDbEntity
  8
0
  6
HIDDEN
 62
     7
370
     0
100
AcDbLine
 10
184.0261439393
 20
93.4761065175
 30
0.0
 11
184.0261439393
 21
130.9761080077
 31
0.0
  0
LINE
  5
176
330
1F
100
AcDbEntity
  8
0
  6
HIDDEN
 62
     7
370
     0
100
AcDbLine
 10
199.1403572502
 20
121.8659841572
 30
0.0
 11
199.1403572502
 21
116.1701619742
 31
0.0
  0
LINE
  5
177
330
1F
100
AcDbEntity
  8
0
  6
HIDDEN
 62
     7
370
     0
100
AcDbLine
 10
204.1403580698
 20
116.1697321688
 30
0.0
 11
204.1403580698
 21
120.1144001564
 31
0.0
  0
LINE
  5
178
330
1F
100
AcDbEntity
  8
0
  6
HIDDEN
 62
     7
370
     0
100
AcDbLine
 10
209.2529092225
 20
128.9705923875
 30
0.0
 11
201.7655134442
 21
124.0440375289
 31
0.0
  0
LINE
  5
179
330
1F
100
AcDbEntity
  8
0
  6
HIDDEN
 62
     7
370
     0
100
AcDbLine
 10
203.5565827283
 20
119.2372563412
 30
0.0
 11
209.3612462523
 21
123.0566083571
 31
0.0
  0
ARC
  5
17A
330
1F
100
AcDbEntity
  8
0
  6
HIDDEN
 62
     7
370
     0
100
AcDbCircle
 10
160.1403575035
 20
101.7261072626
 30
0.0
 40
1.5
100
AcDbArc
 50
191.0958032831
 51
270.0
  0
ARC
  5
17B
330
1F
100
AcDbEntity
  8
0
  6
HIDDEN
 62
     7
370
     0
100
AcDbCircle
 10
160.1403575035
 20
122.7261072626
 30
0.0
 40
1.5
100
AcDbArc
 50
90.0
 51
168.9041967169
  0
LINE
  5
17C
330
1F
100
AcDbEntity
  8
0
  6
HIDDEN
 62
     7
370
     0
100
AcDbLine
 10
160.1403583082
 20
100.2261071583
 30
0.0
 11
161.1470770332
 21
100.2261071583
 31
0.0
  0
LINE
  5
17D
330
1F
100
AcDbEntity
  8
0
  6
HIDDEN
 62
     7
370
     0
100
AcDbLine
 10
161.1470770332
 20
124.2261073669
 30
0.0
 11
160.1403583082
 21
124.2261073669
 31
0.0
  0
ARC
  5
17E
330
1F
100
AcDbEntity
  8
0
  6
HIDDEN
 62
     7
370
     0
100
AcDbCircle
 10
161.1470770156
 20
101.7261072626
 30
0.0
 40
1.500000000000002
100
AcDbArc
 50
270.0
 51
315.0
  0
ARC
  5
17F
330
1F
100
AcDbEntity
  8
0
  6
HIDDEN
 62
     7
370
     0
100
AcDbCircle
 10
161.1470770156
 20
122.7261072626
 30
0.0
 40
1.500000000000002
100
AcDbArc
 50
45.0
 51
90.0
  0
LINE
  5
180
330
1F
100
AcDbEntity
  8
0
  6
HIDDEN
 62
     7
370
     0
100
AcDbLine
 10
153.6403581741
 20
100.4626947572
 30
0.0
 11
154.6683967354
 21
101.0562340846
 31
0.0
  0
LINE
  5
181
330
1F
100
AcDbEntity
  8
0
  6
HIDDEN
 62
     7
370
     0
100
AcDbLine
 10
154.6683967354
 20
123.3959804406
 30
0.0
 11
153.6403581741
 21
123.989519768
 31
0.0
  0
LINE
  5
182
330
1F
100
AcDbEntity
  8
0
  6
HIDDEN
 62
     7
370
     0
100
AcDbLine
 10
162.2077379616
 20
100.665447407
 30
0.0
 11
163.2683970275
 21
101.7261074042
 31
0.0
  0
LINE
  5
183
330
1F
100
AcDbEntity
  8
0
  6
HIDDEN
 62
     7
370
     0
100
AcDbLine
 10
163.2683970275
 20
122.726107121
 30
0.0
 11
162.2077379616
 21
123.7867671182
 31
0.0
  0
LINE
  5
184
330
1F
100
AcDbEntity
  8
0
  6
HIDDEN
 62
     7
370
     0
100
AcDbLine
 10
154.6683967354
 20
101.0562340846
 30
0.0
 11
157.1683980765
 21
101.7261074042
 31
0.0
  0
LINE
  5
185
330
1F
100
AcDbEntity
  8
0
  6
HIDDEN
 62
     7
370
     0
100
AcDbLine
 10
157.1683980765
 20
122.726107121
 30
0.0
 11
154.6683967354
 21
123.3959804406
 31
0.0
  0
LINE
  5
186
330
1F
100
AcDbEntity
  8
0
  6
HIDDEN
 62
     7
370
     0
100
AcDbLine
 10
158.6683973911
 20
123.0147826602
 30
0.0
 11
158.1683982404
 21
122.726107121
 31
0.0
  0
LINE
  5
187
330
1F
100
AcDbEntity
  8
0
  6
HIDDEN
 62
     7
370
     0
100
AcDbLine
 10
158.1683982404
 20
101.7261074042
 30
0.0
 11
158.6683973911
 21
101.437431865
 31
0.0
  0
LINE
  5
188
330
1F
100
AcDbEntity
  8
0
  6
HIDDEN
 62
     7
370
     0
100
AcDbLine
 10
157.1683980765
 20
101.7261074042
 30
0.0
 11
158.1683982404
 21
101.7261074042
 31
0.0
  0
LINE
  5
189
330
1F
100
AcDbEntity
  8
0
  6
HIDDEN
 62
     7
370
     0
100
AcDbLine
 10
158.1683982404
 20
122.726107121
 30
0.0
 11
157.1683980765
 21
122.726107121
 31
0.0
  0
LINE
  5
18A
330
1F
100
AcDbEntity
  8
0
  6
HIDDEN
 62
     7
370
     0
100
AcDbLine
 10
163.2683970275
 20
101.7261074042
 30
0.0
 11
173.1403576451
 21
101.7261074042
 31
0.0
  0
LINE
  5
18B
330
1F
100
AcDbEntity
  8
0
  6
HIDDEN
 62
     7
370
     0
100
AcDbLine
 10
173.1403576451
 20
122.726107121
 30
0.0
 11
163.2683970275
 21
122.726107121
 31
0.0
  0
ARC
  5
18C
330
1F
100
AcDbEntity
  8
0
  6
HIDDEN
 62
     7
370
     0
100
AcDbCircle
 10
173.1403575035
 20
102.2261072626
 30
0.0
 40
0.5
100
AcDbArc
 50
270.0
 51
0.0
  0
ARC
  5
18D
330
1F
100
AcDbEntity
  8
0
  6
HIDDEN
 62
     7
370
     0
100
AcDbCircle
 10
173.1403575035
 20
122.2261072626
 30
0.0
 40
0.5
100
AcDbArc
 50
0.0
 51
90.0
  0
LINE
  5
18E
330
1F
100
AcDbEntity
  8
0
  6
HIDDEN
 62
     7
370
     0
100
AcDbLine
 10
173.640357727
 20
103.9761073073
 30
0.0
 11
174.640357891
 21
104.9761074712
 31
0.0
  0
LINE
  5
18F
330
1F
100
AcDbEntity
  8
0
  6
HIDDEN
 62
     7
370
     0
100
AcDbLine
 10
174.640357891
 20
119.476107054
 30
0.0
 11
173.640357727
 21
120.4761072179
 31
0.0
  0
LINE
  5
190
330
1F
100
AcDbEntity
  8
0
  6
HIDDEN
 62
     7
370
     0
100
AcDbLine
 10
207.6403577121
 20
119.476107054
 30
0.0
 11
174.640357891
 21
119.476107054
 31
0.0
  0
LINE
  5
191
330
1F
100
AcDbEntity
  8
0
  6
HIDDEN
 62
     7
370
     0
100
AcDbLine
 10
174.640357891
 20
104.9761074712
 30
0.0
 11
207.6403577121
 21
104.9761074712
 31
0.0
  0
LINE
  5
192
330
1F
100
AcDbEntity
  8
0
  6
HIDDEN
 62
     7
370
     0
100
AcDbLine
 10
207.6403577121
 20
104.9761074712
 30
0.0
 11
211.9965967032
 21
112.2261072626
 31
0.0
  0
LINE
  5
193
330
1F
100
AcDbEntity
  8
0
  6
HIDDEN
 62
     7
370
     0
100
AcDbLine
 10
211.9965967032
 20
112.2261072626
 30
0.0
 11
207.6403577121
 21
119.476107054
 31
0.0
  0
LINE
  5
194
330
1F
100
AcDbEntity
  8
0
  6
HIDDEN
 62
     7
370
     0
100
AcDbLine
 10
225.320294896
 20
125.6331597572
 30
0.0
 11
224.8416174444
 21
124.8423113605
 31
0.0
  0
LINE
  5
195
330
1F
100
AcDbEntity
  8
0
  6
HIDDEN
 62
     7
370
     0
100
AcDbLine
 10
230.830096105
 20
121.2176579168
 30
0.0
 11
231.3087735566
 21
122.0085053822
 31
0.0
  0
LINE
  5
196
330
1F
100
AcDbEntity
  8
0
  6
HIDDEN
 62
     7
370
     0
100
AcDbLine
 10
221.9361108037
 20
131.5018582275
 30
0.0
 11
220.9723595771
 21
129.9095927855
 31
0.0
  0
LINE
  5
197
330
1F
100
AcDbEntity
  8
0
  6
HIDDEN
 62
     7
370
     0
100
AcDbLine
 10
230.7188477608
 20
123.9770279383
 30
0.0
 11
233.919870505
 21
130.9665377369
 31
0.0
  0
LINE
  5
198
330
1F
100
AcDbEntity
  8
0
  6
HIDDEN
 62
     7
370
     0
100
AcDbLine
 10
224.1988037022
 20
125.132139877
 30
0.0
 11
221.4176137241
 21
120.5371880089
 31
0.0
  0
LINE
  5
199
330
1F
100
AcDbEntity
  8
0
  6
HIDDEN
 62
     7
370
     0
100
AcDbLine
 10
228.6037881168
 20
116.1876033177
 30
0.0
 11
231.3849780949
 21
120.7825551858
 31
0.0
  0
LINE
  5
19A
330
1F
100
AcDbEntity
  8
0
  6
HIDDEN
 62
     7
370
     0
100
AcDbLine
 10
230.4877493771
 20
137.9974140903
 30
0.0
 11
229.9023907872
 21
137.0303101023
 31
0.0
  0
LINE
  5
19B
330
1F
100
AcDbEntity
  8
0
  6
HIDDEN
 62
     7
370
     0
100
AcDbLine
 10
235.3775728735
 20
133.7163421442
 30
0.0
 11
235.9629314634
 21
134.6834442695
 31
0.0
  0
LINE
  5
19C
330
1F
100
AcDbEntity
  8
0
  6
HIDDEN
 62
     7
370
     0
100
AcDbLine
 10
229.8242043945
 20
134.9256067654
 30
0.0
 11
227.3729782792
 21
129.5732940664
 31
0.0
  0
LINE
  5
19D
330
1F
100
AcDbEntity
  8
VERMASSUNG
  6
CENTERX2
100
AcDbLine
 10
150.9369400113
 20
112.2261072626
 30
0.0
 11
243.6403575035
 21
112.2261072626
 31
0.0
  0
LINE
  5
19E
330
1F
100
AcDbEntity
  8
VERMASSUNG
  6
CENTERX2
100
AcDbLine
 10
243.6403575035
 20
147.2261072626
 30
0.0
 11
243.6403575035
 21
112.2261072626
 31
0.0
  0
LINE
  5
19F
330
1F
100
AcDbEntity
  8
VERMASSUNG
  6
CENTERX2
100
AcDbLine
 10
243.6403575035
 20
147.2261072626
 30
0.0
 11
257.4736792017
 21
147.2261072626
 31
0.0
  0
DIMENSION
  5
1A0
330
1F
100
AcDbEntity
  8
VERMASSUNG
100
AcDbDimension
  2
_D
 10
243.6403575035
 20
153.5465400384
 30
0.0
 11
213.6403575035
 21
153.5465400384
 31
0.0
 70
   160
  1
<>
 71
     2
 42
-1.0
  3
SLDDIMSTYLE0
100
AcDbAlignedDimension
 13
183.6403575035
 23
136.9261072626
 33
0.0
 14
243.6403575035
 24
147.2261072626
 34
0.0
100
AcDbRotatedDimension
  0
DIMENSION
  5
1AD
330
1F
100
AcDbEntity
  8
VERMASSUNG
100
AcDbDimension
  2
_D_1
 10
259.1376581293
 20
112.2261072626
 30
0.0
 11
259.1376581293
 21
129.7261072626
 31
0.0
 70
   160
  1
<>
 71
     2
 42
-1.0
  3
SLDDIMSTYLE0
100
AcDbAlignedDimension
 13
243.6403575035
 23
147.2261072626
 33
0.0
 14
243.6403575035
 24
112.2261072626
 34
0.0
 50
90.0
100
AcDbRotatedDimension
  0
DIMENSION
  5
1B9
330
1F
100
AcDbEntity
  8
VERMASSUNG
100
AcDbDimension
  2
_D_2
 10
257.4736792017
 20
147.2261072626
 30
0.0
 11
250.6656824511
 21
137.8430500911
 31
0.0
 70
   162
  1
<>
 71
     1
 42
-1.0
  3
SLDDIMSTYLE1
100
AcDb2LineAngularDimension
 13
243.6235093281
 23
146.7100957553
 33
0.0
 14
239.3391845975
 24
133.1252810266
 34
0.0
 15
243.6403575035
 25
147.2261072626
 35
0.0
 16
250.6656824511
 26
137.8430500911
 36
0.0
  0
DIMENSION
  5
1C2
330
1F
100
AcDbEntity
  8
VERMASSUNG
100
AcDbDimension
  2
_D_3
 10
243.6403575035
 20
161.0131611069
 30
0.0
 11
198.6403575035
 21
161.0131611069
 31
0.0
 70
   160
  1
<>
 71
     2
 42
-1.0
  3
SLDDIMSTYLE2
100
AcDbAlignedDimension
 13
153.6403575035
 23
128.2194331008
 33
0.0
 14
243.6403575035
 24
147.2261072626
 34
0.0
100
AcDbRotatedDimension
  0
DIMENSION
  5
1CD
330
1F
100
AcDbEntity
  8
VERMASSUNG
100
AcDbDimension
  2
_D_4
 10
143.6403575035
 20
87.2261072626
 30
0.0
 11
143.6403575035
 21
112.2261072626
 31
0.0
 70
   160
  1
PSC%%c<>
 71
     2
 42
-1.0
  3
SLDDIMSTYLE2
100
AcDbAlignedDimension
 13
183.9403575035
 23
137.2261072626
 33
0.0
 14
183.9403575035
 24
87.2261072626
 34
0.0
 50
90.0
100
AcDbRotatedDimension
  0
LINE
  5
1D9
330
1F
100
AcDbEntity
  8
0
  6
Continuous
 62
     7
370
    15
100
AcDbLine
 10
68.360533319
 20
123.9464442363
 30
0.0
 11
68.3613258745
 21
123.9615670522
 31
0.0
  0
LINE
  5
1DA
330
1F
100
AcDbEntity
  8
0
  6
Continuous
 62
     7
370
    15
100
AcDbLine
 10
68.3617188926
 20
123.9690623363
 30
0.0
 11
68.3672798197
 21
124.0751725738
 31
0.0
  0
LINE
  5
1DB
330
1F
100
AcDbEntity
  8
0
  6
Continuous
 62
     7
370
    15
100
AcDbLine
 10
90.6915792595
 20
145.3324641218
 30
0.0
 11
88.0054423916
 21
145.8061012556
 31
0.0
  0
LINE
  5
1DC
330
1F
100
AcDbEntity
  8
0
  6
Continuous
 62
     7
370
    15
100
AcDbLine
 10
90.9402088593
 20
144.9800591101
 30
0.0
 11
90.7014363776
 21
145.3250992229
 31
0.0
  0
LINE
  5
1DD
330
1F
100
AcDbEntity
  8
0
  6
Continuous
 62
     7
370
    15
100
AcDbLine
 10
88.0210974585
 20
146.1311402848
 30
0.0
 11
81.8018256661
 21
147.2277688911
 31
0.0
  0
LINE
  5
1DE
330
1F
100
AcDbEntity
  8
0
  6
Continuous
 62
     7
370
    15
100
AcDbLine
 10
81.2407236528
 20
144.4774913719
 30
0.0
 11
80.7734216661
 21
143.9095745911
 31
0.0
  0
LINE
  5
1DF
330
1F
100
AcDbEntity
  8
0
  6
Continuous
 62
     7
370
    15
100
AcDbLine
 10
77.6079075742
 20
132.0694937488
 30
0.0
 11
77.8989491384
 21
131.2452751329
 31
0.0
  0
LINE
  5
1E0
330
1F
100
AcDbEntity
  8
0
  6
Continuous
 62
     7
370
    15
100
AcDbLine
 10
76.6169831488
 20
128.7446945091
 30
0.0
 11
76.9270306784
 21
128.6900240114
 31
0.0
  0
LWPOLYLINE
  5
1E1
330
1F
100
AcDbEntity
  8
0
  6
Continuous
 62
     7
370
    15
100
AcDbPolyline
 90
        6
 70
   128
 43
0.0
 10
68.3567651878
 20
124.4914653828
 10
68.3383175503
 20
124.4630581816
 10
68.2174728583
 20
124.2769743433
 10
68.0328428145
 20
123.9926685696
 10
67.792497329
 20
123.622568429
 10
67.7472983818
 20
123.5529688304
  0
LWPOLYLINE
  5
1E2
330
1F
100
AcDbEntity
  8
0
  6
Continuous
 62
     7
370
    15
100
AcDbPolyline
 90
        6
 70
   128
 43
0.0
 10
68.360533319
 20
123.9464442363
 10
68.360325634
 20
123.9461238613
 10
68.3211914594
 20
123.8858626341
 10
68.2162891473
 20
123.7243275275
 10
68.0508797388
 20
123.4696191852
 10
67.9804549883
 20
123.3611750533
  0
ARC
  5
1E3
330
1F
100
AcDbEntity
  8
0
  6
Continuous
 62
     7
370
    15
100
AcDbCircle
 10
81.8540879856
 20
112.2261072626
 30
0.0
 40
25.50000000000001
100
AcDbArc
 50
242.3880304654
 51
0.0
  0
LINE
  5
1E4
330
1F
100
AcDbEntity
  8
0
  6
Continuous
 62
     7
370
    15
100
AcDbLine
 10
79.0874813548
 20
132.7388613602
 30
0.0
 11
70.0353185977
 21
89.6303850343
 31
0.0
  0
LINE
  5
1E5
330
1F
100
AcDbEntity
  8
0
  6
Continuous
 62
     7
370
    15
100
AcDbLine
 10
79.0874813548
 20
132.7388613602
 30
0.0
 11
88.1176681589
 21
131.1465959182
 31
0.0
  0
LINE
  5
1E6
330
1F
100
AcDbEntity
  8
0
  6
Continuous
 62
     7
370
    15
100
AcDbLine
 10
88.1176681589
 20
131.1465959182
 30
0.0
 11
88.2040869775
 21
131.5581399133
 31
0.0
  0
LINE
  5
1E7
330
1F
100
AcDbEntity
  8
0
  6
Continuous
 62
     7
370
    15
100
AcDbLine
 10
90.9106440242
 20
144.4473873009
 30
0.0
 11
90.9679892804
 21
144.7204771569
 31
0.0
  0
LINE
  5
1E8
330
1F
100
AcDbEntity
  8
0
  6
Continuous
 62
     7
370
    15
100
AcDbLine
 10
93.5748496424
 20
144.2608173122
 30
0.0
 11
90.9679892804
 21
144.7204771569
 31
0.0
  0
ARC
  5
1E9
330
1F
100
AcDbEntity
  8
0
  6
Continuous
 62
     7
370
    15
100
AcDbCircle
 10
78.8540879856
 20
114.7261072626
 30
0.0
 40
33.00000000000001
100
AcDbArc
 50
30.2726413189
 51
63.5073060335
  0
LINE
  5
1EA
330
1F
100
AcDbEntity
  8
0
  6
Continuous
 62
     7
370
    15
100
AcDbLine
 10
107.3540875088
 20
131.3619121095
 30
0.0
 11
107.3540875088
 21
112.2261072626
 31
0.0
  0
LINE
  5
1EB
330
1F
100
AcDbEntity
  8
0
  6
Continuous
 62
     7
370
    15
100
AcDbLine
 10
90.9679892804
 20
144.7204771569
 30
0.0
 11
90.9906818862
 21
145.0465704431
 31
0.0
  0
LINE
  5
1EC
330
1F
100
AcDbEntity
  8
0
  6
Continuous
 62
     7
370
    15
100
AcDbLine
 10
90.9906818862
 20
145.0465704431
 30
0.0
 11
92.4715788434
 21
144.7854462197
 31
0.0
  0
ARC
  5
1ED
330
1F
100
AcDbEntity
  8
0
  6
Continuous
 62
     7
370
    15
100
AcDbCircle
 10
78.8540879856
 20
114.7261072626
 30
0.0
 40
33.00000000000001
100
AcDbArc
 50
63.5073060335
 51
65.6285096681
  0
LINE
  5
1EE
330
1F
100
AcDbEntity
  8
0
  6
Continuous
 62
     7
370
    15
100
AcDbLine
 10
90.9906818862
 20
145.0465704431
 30
0.0
 11
90.9465902816
 21
144.963939779
 31
0.0
  0
LWPOLYLINE
  5
1EF
330
1F
100
AcDbEntity
  8
0
  6
Continuous
 62
     7
370
    15
100
AcDbPolyline
 90
       34
 70
   128
 43
0.0
 10
75.7899854663
 20
120.3740053927
 10
75.8691544044
 20
120.4242707347
 10
75.9674280281
 20
120.5972974306
 10
76.0812552045
 20
120.8868307178
 10
76.2065208848
 20
121.2824062561
 10
76.3386988412
 20
121.7697273125
 10
76.4730109233
 20
122.3311807146
 10
76.6046026121
 20
122.9464738747
 10
76.7287190403
 20
123.5933686724
 10
76.8408730957
 20
124.2484842544
 10
76.9370116624
 20
124.888143607
 10
77.013659976
 20
125.4892285099
 10
77.068048283
 20
126.0300121387
 10
77.0982100959
 20
126.4909506892
 10
77.1030557673
 20
126.8553837319
 10
77.0824097428
 20
127.110140503
 10
77.0370189431
 20
127.246013016
 10
76.9685229617
 20
127.2580904072
 10
76.8793981853
 20
127.1459368174
 10
76.772865593
 20
126.9136053627
 10
76.6527752723
 20
126.5694928472
 10
76.5234676521
 20
126.1260361528
 10
76.3896170403
 20
125.5992633408
 10
76.2560602608
 20
125.0082143699
 10
76.1276243585
 20
124.3742491236
 10
76.0089519764
 20
123.7202827936
 10
75.904331855
 20
123.0699504843
 10
75.8175451639
 20
122.4467569148
 10
75.7517290632
 20
121.8732261216
 10
75.7092616852
 20
121.3700865512
 10
75.691678315
 20
120.9555232083
 10
75.6996145803
 20
120.6445201417
 10
75.7327831681
 20
120.4483165523
 10
75.7899854663
 20
120.3740053927
  0
ARC
  5
1F0
330
1F
100
AcDbEntity
  8
0
  6
Continuous
 62
     7
370
    15
100
AcDbCircle
 10
90.9110128393
 20
127.9417755732
 30
0.0
 40
14.28489160291102
100
AcDbArc
 50
162.2981345968
 51
173.9838929764
  0
LWPOLYLINE
  5
1F1
330
1F
100
AcDbEntity
  8
0
  6
Continuous
 62
     7
370
    15
100
AcDbPolyline
 90
        5
 70
   128
 43
0.0
 10
76.6485982905
 20
128.7391196122
 10
76.64821412
 20
128.5933415522
 10
76.6691595647
 20
128.4015412559
 10
76.7175156954
 20
128.3469191869
 10
76.7899874929
 20
128.4331950476
  0
ARC
  5
1F2
330
1F
100
AcDbEntity
  8
0
  6
Continuous
 62
     7
370
    15
100
AcDbCircle
 10
81.8540879856
 20
112.2261072626
 30
0.0
 40
25.50000000000001
100
AcDbArc
 50
240.2819913562
 51
242.3880304654
  0
SPLINE
  5
1F3
330
1F
100
AcDbEntity
  8
0
  6
Continuous
 62
     7
370
    15
100
AcDbSpline
210
0.0
220
0.0
230
1.0
 70
     8
 71
     3
 72
    10
 73
     6
 74
     0
 42
0.00000001
 43
0.00000001
 12
1.0
 22
0.0
 32
0.0
 13
1.0
 23
0.0
 33
0.0
 40
0.0
 40
0.0
 40
0.0
 40
0.0
 40
0.5
 40
0.5
 40
1.0
 40
1.0
 40
1.0
 40
1.0
 10
69.21293056284755
 20
90.07997579425171
 30
0.0
 10
69.23179317842587
 20
90.23825517550866
 30
0.0
 10
69.24318119242133
 20
90.37776515988782
 30
0.0
 10
69.24679148557728
 20
90.58008232202286
 30
0.0
 10
69.23904740563295
 20
90.64229003553848
 30
0.0
 10
69.22146954060959
 20
90.65258295099882
 30
0.0
  0
ARC
  5
1F4
330
1F
100
AcDbEntity
  8
0
  6
Continuous
 62
     7
370
    15
100
AcDbCircle
 10
81.8540879856
 20
112.2261072626
 30
0.0
 40
25.00000000000002
100
AcDbArc
 50
238.8286647104
 51
239.6484163743
  0
ARC
  5
1F5
330
1F
100
AcDbEntity
  8
0
  6
Continuous
 62
     7
370
    15
100
AcDbCircle
 10
81.8540879856
 20
112.2261072626
 30
0.0
 40
25.00000000000001
100
AcDbArc
 50
100.3515836257
 51
101.1713352896
  0
SPLINE
  5
1F6
330
1F
100
AcDbEntity
  8
0
  6
Continuous
 62
     7
370
    15
100
AcDbSpline
210
0.0
220
0.0
230
1.0
 70
     8
 71
     3
 72
    10
 73
     6
 74
     0
 42
0.00000001
 43
0.00000001
 12
1.0
 22
0.0
 32
0.0
 13
1.0
 23
0.0
 33
0.0
 40
0.0
 40
0.0
 40
0.0
 40
0.0
 40
0.5
 40
0.5
 40
1.0
 40
1.0
 40
1.0
 40
1.0
 10
77.36188952873063
 20
136.8191988336826
 30
0.0
 10
77.3870755909531
 20
136.8237993447458
 30
0.0
 10
77.425543778672
 20
136.9105194891044
 30
0.0
 10
77.51334534625649
 20
137.2002694136034
 30
0.0
 10
77.56076000212306
 20
137.3960996430941
 30
0.0
 10
77.60515781877018
 20
137.6141948114826
 30
0.0
  0
SPLINE
  5
1F7
330
1F
100
AcDbEntity
  8
0
  6
Continuous
 62
     7
370
    15
100
AcDbSpline
210
0.0
220
0.0
230
1.0
 70
     8
 71
     3
 72
     8
 73
     4
 74
     0
 42
0.00000001
 43
0.00000001
 12
1.0
 22
0.0
 32
0.0
 13
1.0
 23
0.0
 33
0.0
 40
0.0
 40
0.0
 40
0.0
 40
0.0
 40
1.0
 40
1.0
 40
1.0
 40
1.0
 10
77.60515781877018
 20
137.6141948114826
 30
0.0
 10
77.71593994853863
 20
138.1583893028091
 30
0.0
 10
77.82675580300427
 20
138.7024275421809
 30
0.0
 10
77.93759991658291
 20
139.24633485253
 30
0.0
  0
ARC
  5
1F8
330
1F
100
AcDbEntity
  8
0
  6
Continuous
 62
     7
370
    15
100
AcDbCircle
 10
74.3794225942
 20
142.0422486552
 30
0.0
 40
4.525236183341354
100
AcDbArc
 50
321.8407479492
 51
332.9411508404
  0
LINE
  5
1F9
330
1F
100
AcDbEntity
  8
0
  6
Continuous
 62
     7
370
    15
100
AcDbLine
 10
76.7899874929
 20
128.4331950476
 30
0.0
 11
79.0874813548
 21
132.7388613602
 31
0.0
  0
LINE
  5
1FA
330
1F
100
AcDbEntity
  8
0
  6
Continuous
 62
     7
370
    15
100
AcDbLine
 10
78.409325318
 20
139.9836941739
 30
0.0
 11
79.2497861996
 21
141.5587767144
 31
0.0
  0
SPLINE
  5
1FB
330
1F
100
AcDbEntity
  8
0
  6
Continuous
 62
     7
370
    15
100
AcDbSpline
210
0.0
220
0.0
230
1.0
 70
     8
 71
     3
 72
    18
 73
    14
 74
     0
 42
0.00000001
 43
0.00000001
 12
1.0
 22
0.0
 32
0.0
 13
1.0
 23
0.0
 33
0.0
 40
0.0
 40
0.0
 40
0.0
 40
0.0
 40
0.2499999999999997
 40
0.2499999999999997
 40
0.3749999999999993
 40
0.3749999999999993
 40
0.4999999999999988
 40
0.4999999999999988
 40
0.6249999999999983
 40
0.6249999999999983
 40
0.7499999999999979
 40
0.7499999999999979
 40
1.0
 40
1.0
 40
1.0
 40
1.0
 10
74.6667665044759
 20
136.1706767915454
 30
0.0
 10
74.96182545455349
 20
136.2592431584424
 30
0.0
 10
75.24315978477487
 20
136.3377484890959
 30
0.0
 10
75.6421251971202
 20
136.4424327867609
 30
0.0
 10
75.77146701454366
 20
136.4751728485217
 30
0.0
 10
76.01296627361444
 20
136.5344753035368
 30
0.0
 10
76.12628863019184
 20
136.5613502672314
 30
0.0
 10
76.33741817666468
 20
136.6100792886965
 30
0.0
 10
76.43596838983851
 20
136.6320924509383
 30
0.0
 10
76.61218744158735
 20
136.6705465413817
 30
0.0
 10
76.68924614486635
 20
136.6868708869424
 30
0.0
 10
76.88731728601935
 20
136.7281353852295
 30
0.0
 10
76.97560524305817
 20
136.7455214315201
 30
0.0
 10
77.01049895134311
 20
136.7524124320864
 30
0.0
  0
SPLINE
  5
1FC
330
1F
100
AcDbEntity
  8
0
  6
Continuous
 62
     7
370
    15
100
AcDbSpline
210
0.0
220
0.0
230
1.0
 70
     8
 71
     3
 72
    14
 73
    10
 74
     0
 42
0.00000001
 43
0.00000001
 12
1.0
 22
0.0
 32
0.0
 13
1.0
 23
0.0
 33
0.0
 40
0.0
 40
0.0
 40
0.0
 40
0.0
 40
0.25
 40
0.25
 40
0.5
 40
0.5
 40
0.75
 40
0.75
 40
1.0
 40
1.0
 40
1.0
 40
1.0
 10
68.91411270267012
 20
90.83552429538457
 30
0.0
 10
68.88372649660832
 20
90.85390606440812
 30
0.0
 10
68.80957313902663
 20
90.89867918594533
 30
0.0
 10
68.57793643846422
 20
91.04209546018568
 30
0.0
 10
68.4258690795855
 20
91.13746587092051
 30
0.0
 10
68.05887480575252
 20
91.37568875223772
 30
0.0
 10
67.8506441517736
 20
91.51428892267732
 30
0.0
 10
67.39773653771158
 20
91.82782888014303
 30
0.0
 10
67.15744246770639
 20
91.99980397277129
 30
0.0
 10
66.910689924408
 20
92.1837806914437
 30
0.0
  0
ELLIPSE
  5
1FD
330
1F
100
AcDbEntity
  8
0
  6
Continuous
 62
     7
370
    15
100
AcDbEllipse
 10
69.8454808043
 20
126.0136005955
 30
0.0
 11
1.889342952662019
 21
2.635290221741627
 31
0.0
210
0.0
220
0.0
230
1.0
 40
0.7500963819
 41
0.0
 42
6.283185307179586
  0
ARC
  5
1FE
330
1F
100
AcDbEntity
  8
0
  6
Continuous
 62
     7
370
    15
100
AcDbCircle
 10
81.8540879856
 20
112.2261072626
 30
0.0
 40
25.0
100
AcDbArc
 50
106.7079165462
 51
233.2920834538
  0
SPLINE
  5
1FF
330
1F
100
AcDbEntity
  8
0
  6
Continuous
 62
     7
370
    15
100
AcDbSpline
210
0.0
220
0.0
230
1.0
 70
     8
 71
     3
 72
     8
 73
     4
 74
     0
 42
0.00000001
 43
0.00000001
 12
1.0
 22
0.0
 32
0.0
 13
1.0
 23
0.0
 33
0.0
 40
0.0
 40
0.0
 40
0.0
 40
0.0
 40
1.0
 40
1.0
 40
1.0
 40
1.0
 10
68.37157703541818
 20
123.9626596644685
 30
0.0
 10
68.37734410263303
 20
124.1305803464053
 30
0.0
 10
68.36350707978615
 20
124.2984442407088
 30
0.0
 10
68.33704865498281
 20
124.4611042408406
 30
0.0
  0
SPLINE
  5
200
330
1F
100
AcDbEntity
  8
0
  6
Continuous
 62
     7
370
    15
100
AcDbSpline
210
0.0
220
0.0
230
1.0
 70
     8
 71
     3
 72
     9
 73
     5
 74
     0
 42
0.00000001
 43
0.00000001
 12
1.0
 22
0.0
 32
0.0
 13
1.0
 23
0.0
 33
0.0
 40
0.0
 40
0.0
 40
0.0
 40
0.0
 40
0.6695522558086064
 40
1.0
 40
1.0
 40
1.0
 40
1.0
 10
68.3370490889268
 20
124.4611042668627
 30
0.0
 10
68.07978734238655
 20
124.5537994039184
 30
0.0
 10
67.6955578154028
 20
124.6922428730451
 30
0.0
 10
67.34633979012646
 20
124.5926394620546
 30
0.0
 10
67.23094148144294
 20
124.5597257395791
 30
0.0
  0
SPLINE
  5
201
330
1F
100
AcDbEntity
  8
0
  6
Continuous
 62
     7
370
    15
100
AcDbSpline
210
0.0
220
0.0
230
1.0
 70
     8
 71
     3
 72
    11
 73
     7
 74
     0
 42
0.00000001
 43
0.00000001
 12
1.0
 22
0.0
 32
0.0
 13
1.0
 23
0.0
 33
0.0
 40
0.0
 40
0.0
 40
0.0
 40
0.0
 40
0.1352139576162091
 40
0.3554434353216146
 40
0.6640719715389368
 40
1.0
 40
1.0
 40
1.0
 40
1.0
 10
69.63422683581878
 20
123.0861340766357
 30
0.0
 10
69.57107410704975
 20
123.1203742888919
 30
0.0
 10
69.4050614907538
 20
123.2103831820939
 30
0.0
 10
69.08414234156217
 20
123.4296299428224
 30
0.0
 10
68.73524280429598
 20
123.7095643060646
 30
0.0
 10
68.49617406166098
 20
123.8759454667272
 30
0.0
 10
68.3715769420581
 20
123.9626594936059
 30
0.0
  0
LWPOLYLINE
  5
202
330
1F
100
AcDbEntity
  8
0
  6
Continuous
 62
     7
370
    15
100
AcDbPolyline
 90
        5
 70
   128
 43
0.0
 10
68.3715769421
 20
123.9626594936
 10
68.3371608476
 20
123.9096644451
 10
68.235213622
 20
123.752677918
 10
68.0709208693
 20
123.4996897285
 10
67.9808088909
 20
123.3609301155
  0
LINE
  5
203
330
1F
100
AcDbEntity
  8
0
  6
Continuous
 62
     7
370
    15
100
AcDbLine
 10
85.1790802418
 20
132.3207347771
 30
0.0
 11
87.7440383057
 21
144.535650604
 31
0.0
  0
LINE
  5
204
330
1F
100
AcDbEntity
  8
0
  6
Continuous
 62
     7
370
    15
100
AcDbLine
 10
87.9997892636
 20
131.823367544
 30
0.0
 11
90.5647470947
 21
144.038283371
 31
0.0
  0
LINE
  5
205
330
1F
100
AcDbEntity
  8
0
  6
Continuous
 62
     7
370
    15
100
AcDbLine
 10
90.8445257093
 20
144.0792876413
 30
0.0
 11
88.2795683439
 21
131.8643699517
 31
0.0
  0
ARC
  5
206
330
1F
100
AcDbEntity
  8
0
  6
Continuous
 62
     7
370
    15
100
AcDbCircle
 10
87.8230306151
 20
144.9602820505
 30
0.0
 40
2.892592404614401
100
AcDbArc
 50
341.4129695686
 51
7.392587803
  0
ARC
  5
207
330
1F
100
AcDbEntity
  8
0
  6
Continuous
 62
     7
370
    15
100
AcDbCircle
 10
87.9726814898
 20
144.8398127878
 30
0.0
 40
2.970839564783638
100
AcDbArc
 50
345.1673472392
 51
2.7058041311
  0
ARC
  5
208
330
1F
100
AcDbEntity
  8
0
  6
Continuous
 62
     7
370
    15
100
AcDbCircle
 10
84.8187675384
 20
132.3824905753
 30
0.0
 40
3.229786026994659
100
AcDbArc
 50
338.4935801355
 51
350.0310434145
  0
ARC
  5
209
330
1F
100
AcDbEntity
  8
0
  6
Continuous
 62
     7
370
    15
100
AcDbCircle
 10
86.135299478
 20
132.2358451231
 30
0.0
 40
2.176208347604366
100
AcDbArc
 50
337.9967081095
 51
350.1715750026
  0
LINE
  5
20A
330
1F
100
AcDbEntity
  8
0
  6
Continuous
 62
     7
370
    15
100
AcDbLine
 10
88.1529978807
 20
131.4205072006
 30
0.0
 11
88.0163700651
 21
131.1644568225
 31
0.0
  0
LWPOLYLINE
  5
20B
330
1F
100
AcDbEntity
  8
0
  6
Continuous
 62
     7
370
    15
100
AcDbPolyline
 90
       34
 70
   128
 43
0.0
 10
76.9443062465
 20
127.2378900205
 10
77.0191650237
 20
127.2625281592
 10
77.0715649571
 20
127.1627741983
 10
77.0996112707
 20
126.9422342186
 10
77.1022902201
 20
126.6088794102
 10
77.079505879
 20
126.1747564306
 10
77.0320810708
 20
125.6555562025
 10
76.9617303605
 20
125.0700448757
 10
76.870995793
 20
124.4393839618
 10
76.7631570208
 20
123.7863666495
 10
76.6421116288
 20
123.1345945155
 10
76.5122349705
 20
122.5076253643
 10
76.3782199803
 20
121.9281192055
 10
76.2449113983
 20
121.4170196211
 10
76.1171269561
 20
120.992801257
 10
75.9994850825
 20
120.6707946142
 10
75.8962377305
 20
120.4626384308
 10
75.8111162442
 20
120.375856862
 10
75.7471977133
 20
120.4135847395
 10
75.7067918177
 20
120.5744604697
 10
75.691359337
 20
120.8526679432
 10
75.701457202
 20
121.2381526013
 10
75.7367217313
 20
121.7169818585
 10
75.7958774786
 20
122.2718498786
 10
75.8767865929
 20
122.8827024927
 10
75.9765247214
 20
123.5274617677
 10
76.09148718
 20
124.1828232189
 10
76.2175188731
 20
124.8251023819
 10
76.3500651675
 20
125.4310841789
 10
76.4843348745
 20
125.9788676282
 10
76.6154748718
 20
126.4486537432
 10
76.7387465905
 20
126.823463582
 10
76.8496936518
 20
127.0897501265
 10
76.9443062465
 20
127.2378900205
  0
LWPOLYLINE
  5
20C
330
1F
100
AcDbEntity
  8
0
  6
Continuous
 62
     7
370
    15
100
AcDbPolyline
 90
       26
 70
   128
 43
0.0
 10
76.7100697714
 20
125.7734364947
 10
76.7638857807
 20
125.7769615506
 10
76.7946962598
 20
125.6575753098
 10
76.8005659203
 20
125.4227795755
 10
76.7811250272
 20
125.08732836
 10
76.7375954758
 20
124.6722984245
 10
76.672713026
 20
124.2037677323
 10
76.5905531454
 20
123.7111753901
 10
76.4962795521
 20
123.2254729723
 10
76.395814992
 20
122.7771799197
 10
76.2954724352
 20
122.3944631522
 10
76.2015564698
 20
122.10137035
 10
76.1199684213
 20
121.9163174858
 10
76.0558347549
 20
121.8509321218
 10
76.0131848376
 20
121.9093232533
 10
75.9946990158
 20
122.0878214692
 10
76.0015386488
 20
122.3752117833
 10
76.0332739311
 20
122.7534349193
 10
76.0879109013
 20
123.1987263193
 10
76.1620167042
 20
123.6831071904
 10
76.2509342614
 20
124.1761419108
 10
76.3490775
 20
124.6468518978
 10
76.4502787362
 20
125.0656592777
 10
76.5481802966
 20
125.4062495311
 10
76.6366298641
 20
125.6472227281
 10
76.7100697714
 20
125.7734364947
  0
LINE
  5
20D
330
1F
100
AcDbEntity
  8
0
  6
Continuous
 62
     7
370
    15
100
AcDbLine
 10
76.5986784692
 20
123.7770217588
 30
0.0
 11
76.4386120583
 21
123.5486605322
 31
0.0
  0
LINE
  5
20E
330
1F
100
AcDbEntity
  8
0
  6
Continuous
 62
     7
370
    15
100
AcDbLine
 10
76.4386120583
 20
123.5486605322
 30
0.0
 11
76.5083802263
 21
123.2891530847
 31
0.0
  0
LINE
  5
20F
330
1F
100
AcDbEntity
  8
0
  6
Continuous
 62
     7
370
    15
100
AcDbLine
 10
76.7842728975
 20
125.1259503072
 30
0.0
 11
76.7836358729
 21
125.1260620659
 31
0.0
  0
LINE
  5
210
330
1F
100
AcDbEntity
  8
0
  6
Continuous
 62
     7
370
    15
100
AcDbLine
 10
76.5565631311
 20
123.5278622364
 30
0.0
 11
76.4386120583
 21
123.5486605322
 31
0.0
  0
ELLIPSE
  5
211
330
1F
100
AcDbEntity
  8
0
  6
Continuous
 62
     7
370
    15
100
AcDbEllipse
 10
79.3976885714
 20
137.3180566168
 30
0.0
 11
0.408788131129029
 21
2.316977682091732
 31
0.0
210
0.0
220
0.0
230
1.0
 40
0.1044262189
 41
0.3655693694708103
 42
1.39741043160213
  0
LINE
  5
212
330
1F
100
AcDbEntity
  8
0
  6
Continuous
 62
     7
370
    15
100
AcDbLine
 10
76.6328426409
 20
128.7612329354
 30
0.0
 11
78.8261501449
 21
132.8716456076
 31
0.0
  0
LWPOLYLINE
  5
213
330
1F
100
AcDbEntity
  8
0
  6
Continuous
 62
     7
370
    15
100
AcDbPolyline
 90
        9
 70
   128
 43
0.0
 10
76.6677160147
 20
129.2623645743
 10
76.6472525294
 20
129.1570450296
 10
76.6296854574
 20
129.0503638913
 10
76.6163135278
 20
128.9502038737
 10
76.6081248741
 20
128.8639708539
 10
76.6057243902
 20
128.7980350783
 10
76.6092899586
 20
128.7572729518
 10
76.6185575496
 20
128.7446963718
 10
76.6328426409
 20
128.7612329354
  0
LINE
  5
214
330
1F
100
AcDbEntity
  8
0
  6
Continuous
 62
     7
370
    15
100
AcDbLine
 10
79.5203326135
 20
142.84717954
 30
0.0
 11
76.6677160147
 21
129.2623645743
 31
0.0
  0
ARC
  5
215
330
1F
100
AcDbEntity
  8
0
  6
Continuous
 62
     7
370
    15
100
AcDbCircle
 10
80.7456380369
 20
142.6349061427
 30
0.0
 40
1.243556744078566
100
AcDbArc
 50
157.9967584335
 51
170.1715602906
  0
LINE
  5
216
330
1F
100
AcDbEntity
  8
0
  6
Continuous
 62
     7
370
    15
100
AcDbLine
 10
81.7859659666
 20
147.2112286022
 30
0.0
 11
79.592658659
 21
143.10081593
 31
0.0
  0
LWPOLYLINE
  5
217
330
1F
100
AcDbEntity
  8
0
  6
Continuous
 62
     7
370
    15
100
AcDbPolyline
 90
        9
 70
   128
 43
0.0
 10
81.7510929057
 20
146.7100951006
 10
81.7715563036
 20
146.8154165079
 10
81.7891231792
 20
146.9220976462
 10
81.8024951852
 20
147.0222558012
 10
81.8106839881
 20
147.1084925463
 10
81.8130843592
 20
147.1744264593
 10
81.809518889
 20
147.2151885857
 10
81.8002510979
 20
147.2277651658
 10
81.7859659666
 20
147.2112286022
  0
LINE
  5
218
330
1F
100
AcDbEntity
  8
0
  6
Continuous
 62
     7
370
    15
100
AcDbLine
 10
78.8984761904
 20
133.1252801349
 30
0.0
 11
81.7510929057
 21
146.7100951006
 31
0.0
  0
ARC
  5
219
330
1F
100
AcDbEntity
  8
0
  6
Continuous
 62
     7
370
    15
100
AcDbCircle
 10
77.6731783971
 20
133.337554778
 30
0.0
 40
1.243549438650092
100
AcDbArc
 50
337.9966530738
 51
350.1714437257
  0
LWPOLYLINE
  5
21A
330
1F
100
AcDbEntity
  8
0
  6
Continuous
 62
     7
370
    15
100
AcDbPolyline
 90
        9
 70
   128
 43
0.0
 10
81.7501565772
 20
146.7162828078
 10
81.7695968082
 20
146.8163366546
 10
81.7862853448
 20
146.9176869025
 10
81.7989887448
 20
147.0128382673
 10
81.8067681077
 20
147.094757401
 10
81.8090484619
 20
147.1573981573
 10
81.8056612635
 20
147.19612255
 10
81.7968568637
 20
147.208069556
 10
81.7832859913
 20
147.1923600068
  0
LINE
  5
21B
330
1F
100
AcDbEntity
  8
0
  6
Continuous
 62
     7
370
    15
100
AcDbLine
 10
81.7832859913
 20
147.1923600068
 30
0.0
 11
79.5899787783
 21
143.0819473346
 31
0.0
  0
ARC
  5
21C
330
1F
100
AcDbEntity
  8
0
  6
Continuous
 62
     7
370
    15
100
AcDbCircle
 10
80.6853343851
 20
142.6393256185
 30
0.0
 40
1.18140504864879
100
AcDbArc
 50
157.9968827205
 51
170.1714606439
  0
LINE
  5
21D
330
1F
100
AcDbEntity
  8
0
  6
Continuous
 62
     7
370
    15
100
AcDbLine
 10
79.5212688255
 20
142.8409918328
 30
0.0
 11
76.6686524595
 21
129.2561787298
 31
0.0
  0
LWPOLYLINE
  5
21E
330
1F
100
AcDbEntity
  8
0
  6
Continuous
 62
     7
370
    15
100
AcDbPolyline
 90
        9
 70
   128
 43
0.0
 10
76.6686524595
 20
129.2561787298
 10
76.6492120321
 20
129.1561230203
 10
76.6325236629
 20
129.0547764977
 10
76.6198199573
 20
128.9596251329
 10
76.6120406199
 20
128.8777022739
 10
76.6097602765
 20
128.8150652429
 10
76.6131474967
 20
128.7763408502
 10
76.6219517547
 20
128.7643919816
 10
76.6355229872
 20
128.7801015308
  0
LINE
  5
21F
330
1F
100
AcDbEntity
  8
0
  6
Continuous
 62
     7
370
    15
100
AcDbLine
 10
76.6355229872
 20
128.7801015308
 30
0.0
 11
78.8288302585
 21
132.8905142029
 31
0.0
  0
ARC
  5
220
330
1F
100
AcDbEntity
  8
0
  6
Continuous
 62
     7
370
    15
100
AcDbCircle
 10
77.7334556155
 20
133.3331417815
 30
0.0
 40
1.18142489465868
100
AcDbArc
 50
337.9969650008
 51
350.1712471614
  0
LINE
  5
221
330
1F
100
AcDbEntity
  8
0
  6
Continuous
 62
     7
370
    15
100
AcDbLine
 10
78.8975399784
 20
133.1314678421
 30
0.0
 11
81.7501565772
 21
146.7162828078
 31
0.0
  0
ARC
  5
222
330
1F
100
AcDbEntity
  8
0
  6
Continuous
 62
     7
370
    15
100
AcDbCircle
 10
86.8737164716
 20
145.9822652784
 30
0.0
 40
1.156999090940013
100
AcDbArc
 50
341.4125694607
 51
7.3929398829
  0
LINE
  5
223
330
1F
100
AcDbEntity
  8
0
  6
Continuous
 62
     7
370
    15
100
AcDbLine
 10
85.1177479937
 20
132.0286552539
 30
0.0
 11
87.9703645925
 21
145.6134702196
 31
0.0
  0
LINE
  5
224
330
1F
100
AcDbEntity
  8
0
  6
Continuous
 62
     7
370
    15
100
AcDbLine
 10
79.9415149824
 20
142.3560763826
 30
0.0
 11
79.7539355564
 21
142.6855429193
 31
0.0
  0
LWPOLYLINE
  5
225
330
1F
100
AcDbEntity
  8
0
  6
Continuous
 62
     7
370
    15
100
AcDbPolyline
 90
        9
 70
   128
 43
0.0
 10
80.6682313425
 20
142.628549703
 10
80.7193898228
 20
142.891849496
 10
80.7633070373
 20
143.1585542043
 10
80.796737094
 20
143.408953317
 10
80.8172090776
 20
143.6245377292
 10
80.8232099381
 20
143.7893743744
 10
80.8142962498
 20
143.8912796905
 10
80.7911268068
 20
143.9227248659
 10
80.7554139621
 20
143.8813815942
  0
LWPOLYLINE
  5
226
330
1F
100
AcDbEntity
  8
0
  6
Continuous
 62
     7
370
    15
100
AcDbPolyline
 90
        3
 70
   128
 43
0.0
 10
81.2100650957
 20
144.4298188319
 10
81.2607334675
 20
144.5003050496
 10
81.2808064376
 20
144.5351849427
  0
LINE
  5
227
330
1F
100
AcDbEntity
  8
0
  6
Continuous
 62
     7
370
    15
100
AcDbLine
 10
79.0717247739
 20
135.025619634
 30
0.0
 11
80.6682313425
 21
142.628549703
 31
0.0
  0
LINE
  5
228
330
1F
100
AcDbEntity
  8
0
  6
Continuous
 62
     7
370
    15
100
AcDbLine
 10
77.6633948419
 20
132.0910799434
 30
0.0
 11
78.8909096602
 21
134.3915305217
 31
0.0
  0
LWPOLYLINE
  5
229
330
1F
100
AcDbEntity
  8
0
  6
Continuous
 62
     7
370
    15
100
AcDbPolyline
 90
        9
 70
   128
 43
0.0
 10
77.750577345
 20
133.3439118346
 10
77.6994188647
 20
133.0806120416
 10
77.655501883
 20
132.8139054706
 10
77.6220715936
 20
132.5635082205
 10
77.6015997264
 20
132.3479238083
 10
77.5955987494
 20
132.1830871632
 10
77.6045124377
 20
132.0811799844
 10
77.6276818807
 20
132.0497366717
 10
77.6633948419
 20
132.0910799434
  0
LINE
  5
22A
330
1F
100
AcDbEntity
  8
0
  6
Continuous
 62
     7
370
    15
100
AcDbLine
 10
79.3470840301
 20
140.9468419035
 30
0.0
 11
77.750577345
 21
133.3439118346
 31
0.0
  0
ARC
  5
22B
330
1F
100
AcDbEntity
  8
0
  6
Continuous
 62
     7
370
    15
100
AcDbCircle
 10
82.410336532
 20
140.4161581414
 30
0.0
 40
3.108881011824664
100
AcDbArc
 50
157.9967093262
 51
170.1715206284
  0
LINE
  5
22C
330
1F
100
AcDbEntity
  8
0
  6
Continuous
 62
     7
370
    15
100
AcDbLine
 10
80.7554139621
 20
143.8813815942
 30
0.0
 11
79.5278991438
 21
141.5809310158
 31
0.0
  0
ARC
  5
22D
330
1F
100
AcDbEntity
  8
0
  6
Continuous
 62
     7
370
    15
100
AcDbCircle
 10
76.008472272
 20
135.5563033961
 30
0.0
 40
3.108881011824677
100
AcDbArc
 50
337.9967093262
 51
350.1715206284
  0
LWPOLYLINE
  5
22E
330
1F
100
AcDbEntity
  8
0
  6
Continuous
 62
     7
370
    15
100
AcDbPolyline
 90
       29
 70
   128
 43
0.0
 10
79.3301903042
 20
137.1880537947
 10
79.4398952141
 20
137.7449250897
 10
79.5380421779
 20
138.3138979902
 10
79.6197098545
 20
138.8664404979
 10
79.6808032184
 20
139.374845766
 10
79.7182586841
 20
139.8136197706
 10
79.7301980066
 20
140.1607609471
 10
79.7160225786
 20
140.3988628765
 10
79.6764429989
 20
140.5159841409
 10
79.6134443819
 20
140.5062518199
 10
79.5301855407
 20
140.3701576521
 10
79.4308413617
 20
140.1145226439
 10
79.3203932564
 20
139.7521655192
 10
79.2043800331
 20
139.3012563815
 10
79.0886184997
 20
138.7844077428
 10
78.9789135899
 20
138.2275345852
 10
78.880766626
 20
137.6585616847
 10
78.7990989494
 20
137.1060191771
 10
78.7380055855
 20
136.5976157715
 10
78.7005501199
 20
136.1588417669
 10
78.6886107973
 20
135.8117005905
 10
78.7027864582
 20
135.573598661
 10
78.742365805
 20
135.4564773967
 10
78.8053644221
 20
135.466207855
 10
78.8886232632
 20
135.6023038854
 10
78.9879674423
 20
135.8579388937
 10
79.0984155475
 20
136.2202960183
 10
79.2144290037
 20
136.6712032934
 10
79.3301903042
 20
137.1880537947
  0
ARC
  5
22F
330
1F
100
AcDbEntity
  8
0
  6
Continuous
 62
     7
370
    15
100
AcDbCircle
 10
83.8924368095
 20
132.2409337155
 30
0.0
 40
1.24356328482655
100
AcDbArc
 50
337.9967211087
 51
350.1713756908
  0
LINE
  5
230
330
1F
100
AcDbEntity
  8
0
  6
Continuous
 62
     7
370
    15
100
AcDbLine
 10
85.0031352467
 20
131.6957707634
 30
0.0
 11
85.0454219482
 21
131.7750207265
 31
0.0
  0
CIRCLE
  5
231
330
1F
100
AcDbEntity
  8
VERMASSUNG
  6
CENTERX2
100
AcDbCircle
 10
81.8540879856
 20
114.5675785963
 30
0.0
 40
32.50000000000001
  0
DIMENSION
  5
232
330
1F
100
AcDbEntity
  8
VERMASSUNG
100
AcDbDimension
  2
_D_5
 10
58.873117597
 20
137.5485489848
 30
0.0
 11
50.4896958171
 21
145.9319707648
 31
0.0
 70
   160
  1
%%c<> min. 
 71
     2
 42
-1.0
  3
SLDDIMSTYLE3
100
AcDbAlignedDimension
 13
104.8350583742
 23
91.5866082077
 33
0.0
 14
58.873117597
 24
137.5485489848
 34
0.0
 50
-45.0
100
AcDbRotatedDimension
  0
INSERT
  5
24C
330
1F
100
AcDbEntity
  8
VERMASSUNG
100
AcDbBlockReference
  2
SW_CENTERMARKSYMBOL_0
 10
81.8540879856
 20
112.2261072626
 30
0.0
  0
OLE2FRAME
  5
24D
330
1F
100
AcDbEntity
  8
0
100
AcDbOle2Frame
 70
     2
  3
Paintbrush-Bild
 10
13.8511154363
 20
38.264191557
 30
0.0
 11
51.6290888628
 21
31.9806341108
 31
0.0
 71
     2
 72
     0
 73
     1
 90
    12928
310
80552BED0767C5B32B40DDAF6807D121434000000000000000006FFBDDFB85D0
310
4940DDAF6807D121434000000000000000006FFBDDFB85D04940416F4BD60AFB
310
3F4000000000000000002BED0767C5B32B40416F4BD60AFB3F40000000000000
310
0000000000000100000000010000010000000100000000000100000000320000
310
D0CF11E0A1B11AE1000000000000000000000000000000003E000300FEFF0900
310
0600000000000000000000000100000001000000000000000010000002000000
310
01000000FEFFFFFF0000000000000000FFFFFFFFFFFFFFFFFFFFFFFFFFFFFFFF
310
FFFFFFFFFFFFFFFFFFFFFFFFFFFFFFFFFFFFFFFFFFFFFFFFFFFFFFFFFFFFFFFF
310
FFFFFFFFFFFFFFFFFFFFFFFFFFFFFFFFFFFFFFFFFFFFFFFFFFFFFFFFFFFFFFFF
310
FFFFFFFFFFFFFFFFFFFFFFFFFFFFFFFFFFFFFFFFFFFFFFFFFFFFFFFFFFFFFFFF
310
FFFFFFFFFFFFFFFFFFFFFFFFFFFFFFFFFFFFFFFFFFFFFFFFFFFFFFFFFFFFFFFF
310
FFFFFFFFFFFFFFFFFFFFFFFFFFFFFFFFFFFFFFFFFFFFFFFFFFFFFFFFFFFFFFFF
310
FFFFFFFFFFFFFFFFFFFFFFFFFFFFFFFFFFFFFFFFFFFFFFFFFFFFFFFFFFFFFFFF
310
FFFFFFFFFFFFFFFFFFFFFFFFFFFFFFFFFFFFFFFFFFFFFFFFFFFFFFFFFFFFFFFF
310
FFFFFFFFFFFFFFFFFFFFFFFFFFFFFFFFFFFFFFFFFFFFFFFFFFFFFFFFFFFFFFFF
310
FFFFFFFFFFFFFFFFFFFFFFFFFFFFFFFFFFFFFFFFFFFFFFFFFFFFFFFFFFFFFFFF
310
FFFFFFFFFFFFFFFFFFFFFFFFFFFFFFFFFFFFFFFFFFFFFFFFFFFFFFFFFFFFFFFF
310
FFFFFFFFFFFFFFFFFFFFFFFFFFFFFFFFFFFFFFFFFFFFFFFFFFFFFFFFFFFFFFFF
310
FFFFFFFFFFFFFFFFFFFFFFFFFFFFFFFFFFFFFFFFFFFFFFFFFFFFFFFFFFFFFFFF
310
FFFFFFFFFFFFFFFFFFFFFFFFFFFFFFFFFFFFFFFFFFFFFFFFFFFFFFFFFFFFFFFF
310
FDFFFFFFFEFFFFFFFEFFFFFFFEFFFFFF05000000060000000700000008000000
310
090000000A0000000B0000000C0000000D0000000E0000000F00000010000000
310
11000000120000001300000014000000150000001600000017000000FEFFFFFF
310
FFFFFFFFFFFFFFFFFFFFFFFFFFFFFFFFFFFFFFFFFFFFFFFFFFFFFFFFFFFFFFFF
310
FFFFFFFFFFFFFFFFFFFFFFFFFFFFFFFFFFFFFFFFFFFFFFFFFFFFFFFFFFFFFFFF
310
FFFFFFFFFFFFFFFFFFFFFFFFFFFFFFFFFFFFFFFFFFFFFFFFFFFFFFFFFFFFFFFF
310
FFFFFFFFFFFFFFFFFFFFFFFFFFFFFFFFFFFFFFFFFFFFFFFFFFFFFFFFFFFFFFFF
310
FFFFFFFFFFFFFFFFFFFFFFFFFFFFFFFFFFFFFFFFFFFFFFFFFFFFFFFFFFFFFFFF
310
FFFFFFFFFFFFFFFFFFFFFFFFFFFFFFFFFFFFFFFFFFFFFFFFFFFFFFFFFFFFFFFF
310
FFFFFFFFFFFFFFFFFFFFFFFFFFFFFFFFFFFFFFFFFFFFFFFFFFFFFFFFFFFFFFFF
310
FFFFFFFFFFFFFFFFFFFFFFFFFFFFFFFFFFFFFFFFFFFFFFFFFFFFFFFFFFFFFFFF
310
FFFFFFFFFFFFFFFFFFFFFFFFFFFFFFFFFFFFFFFFFFFFFFFFFFFFFFFFFFFFFFFF
310
FFFFFFFFFFFFFFFFFFFFFFFFFFFFFFFFFFFFFFFFFFFFFFFFFFFFFFFFFFFFFFFF
310
FFFFFFFFFFFFFFFFFFFFFFFFFFFFFFFFFFFFFFFFFFFFFFFFFFFFFFFFFFFFFFFF
310
FFFFFFFFFFFFFFFFFFFFFFFFFFFFFFFFFFFFFFFFFFFFFFFFFFFFFFFFFFFFFFFF
310
FFFFFFFFFFFFFFFFFFFFFFFFFFFFFFFFFFFFFFFFFFFFFFFFFFFFFFFFFFFFFFFF
310
52006F006F007400200045006E00740072007900000000000000000000000000
310
0000000000000000000000000000000000000000000000000000000000000000
310
16000500FFFFFFFFFFFFFFFF020000000A00030000000000C000000000000046
310
00000000000000000000000060A88538D738CD0103000000C000000000000000
310
01004F006C006500000000000000000000000000000000000000000000000000
310
0000000000000000000000000000000000000000000000000000000000000000
310
0A000200FFFFFFFFFFFFFFFFFFFFFFFF00000000000000000000000000000000
310
0000000000000000000000000000000000000000000000001400000000000000
310
010043006F006D0070004F0062006A0000000000000000000000000000000000
310
0000000000000000000000000000000000000000000000000000000000000000
310
120002010100000003000000FFFFFFFF00000000000000000000000000000000
310
0000000000000000000000000000000000000000010000004D00000000000000
310
01004F006C006500310030004E00610074006900760065000000000000000000
310
0000000000000000000000000000000000000000000000000000000000000000
310
1A000200FFFFFFFFFFFFFFFFFFFFFFFF00000000000000000000000000000000
310
0000000000000000000000000000000000000000040000002426000000000000
310
FEFFFFFF02000000FEFFFFFFFFFFFFFFFFFFFFFFFFFFFFFFFFFFFFFFFFFFFFFF
310
FFFFFFFFFFFFFFFFFFFFFFFFFFFFFFFFFFFFFFFFFFFFFFFFFFFFFFFFFFFFFFFF
310
FFFFFFFFFFFFFFFFFFFFFFFFFFFFFFFFFFFFFFFFFFFFFFFFFFFFFFFFFFFFFFFF
310
FFFFFFFFFFFFFFFFFFFFFFFFFFFFFFFFFFFFFFFFFFFFFFFFFFFFFFFFFFFFFFFF
310
FFFFFFFFFFFFFFFFFFFFFFFFFFFFFFFFFFFFFFFFFFFFFFFFFFFFFFFFFFFFFFFF
310
FFFFFFFFFFFFFFFFFFFFFFFFFFFFFFFFFFFFFFFFFFFFFFFFFFFFFFFFFFFFFFFF
310
FFFFFFFFFFFFFFFFFFFFFFFFFFFFFFFFFFFFFFFFFFFFFFFFFFFFFFFFFFFFFFFF
310
FFFFFFFFFFFFFFFFFFFFFFFFFFFFFFFFFFFFFFFFFFFFFFFFFFFFFFFFFFFFFFFF
310
FFFFFFFFFFFFFFFFFFFFFFFFFFFFFFFFFFFFFFFFFFFFFFFFFFFFFFFFFFFFFFFF
310
FFFFFFFFFFFFFFFFFFFFFFFFFFFFFFFFFFFFFFFFFFFFFFFFFFFFFFFFFFFFFFFF
310
FFFFFFFFFFFFFFFFFFFFFFFFFFFFFFFFFFFFFFFFFFFFFFFFFFFFFFFFFFFFFFFF
310
FFFFFFFFFFFFFFFFFFFFFFFFFFFFFFFFFFFFFFFFFFFFFFFFFFFFFFFFFFFFFFFF
310
FFFFFFFFFFFFFFFFFFFFFFFFFFFFFFFFFFFFFFFFFFFFFFFFFFFFFFFFFFFFFFFF
310
FFFFFFFFFFFFFFFFFFFFFFFFFFFFFFFFFFFFFFFFFFFFFFFFFFFFFFFFFFFFFFFF
310
FFFFFFFFFFFFFFFFFFFFFFFFFFFFFFFFFFFFFFFFFFFFFFFFFFFFFFFFFFFFFFFF
310
FFFFFFFFFFFFFFFFFFFFFFFFFFFFFFFFFFFFFFFFFFFFFFFFFFFFFFFFFFFFFFFF
310
0100000200000000000000000000000000000000000000000000000000000000
310
0000000000000000000000000000000000000000000000000000000000000000
310
0100FEFF030A0000FFFFFFFF0A00030000000000C00000000000004607000000
310
5042727573680007000000504272757368000700000050427275736800F439B2
310
7100000000000000000000000000000000000000000000000000000000000000
310
0000000000000000000000000000000000000000000000000000000000000000
310
0000000000000000000000000000000000000000000000000000000000000000
310
0000000000000000000000000000000000000000000000000000000000000000
310
0000000000000000000000000000000000000000000000000000000000000000
310
0000000000000000000000000000000000000000000000000000000000000000
310
0000000000000000000000000000000000000000000000000000000000000000
310
0000000000000000000000000000000000000000000000000000000000000000
310
0000000000000000000000000000000000000000000000000000000000000000
310
0000000000000000000000000000000000000000000000000000000000000000
310
0000000000000000000000000000000000000000000000000000000000000000
310
0000000000000000000000000000000000000000000000000000000000000000
310
20260000424D0E260000000000003E00000028000000B40200006E0000000100
310
01000000000000000000130B0000130B00000200000002000000000000FFFFFF
310
FFFFFFFFFFFFFFFFFFFFFFFFFFFFFFFFFFFFFFFFFFFFFFFFFFFFFFFFFFFFFFFF
310
FFFFFFFFFFFFFFFFFFFFFFFFFFFFFFFFFFFFFFFFFFFFFFFFFFFFFFFFFFFFFFFF
310
FFFFFFFFFFFFFFFFFFFFFFFFFFFFFFFFFFFFFFFFFFFFFFFFF000FFFFFFFFFFFF
310
FFFFFFFFFFFFFFFFFFFFFFFFFFFFFFFFFFFFFFFFFFFFFFFFFFFFFFFFFFFFFFFF
310
FFFFFFFFFFFFFFFFFFFFFFFFFFFFFFFFFFFFFFFFFFFFFFFFFFFFFFFFFFFFFFFF
310
FFFFFFFFFFFFFFFFFFFFFFFFFFFFFFFFF000FFFFFFFFFFFFFFFFFFFFFFFFFFFF
310
FFFFFFFFFFFFFFFFFFFFFFFFFFFFFFFFFFFFFFFFFFFFFFFFFFFFFFFFFFFFFFFF
310
FFFFFFFFFFFFFFFFFFFFFFFFFFFFFFFFFFFFFFFFFFFFFFFFFFFFFFFFFFFFFFFF
310
FFFFFFFFFFFFFFFFF000FFFFFFFFFFFFFFFFFFFFFFFFFFFFFFFFFFFFFFFFFFFF
310
FFFFFFFFFFFFFFFFFFFFFFFFFFFFFFFFFFFFFFFFFFFFFFFFFFFFFFFFFFFFFFFF
310
FFFFFFFFFFFFFFFFFFFFFFFFFFFFFFFFFFFFFFFFFFFFFFFFFFFFFFFFFFFFFFFF
310
F000FFFFFFFFFFFFFFFFFFFFFFFFFFFFFFFFFFFFFFFFFFFFFFFFFFFFFFFFFFFF
310
FFFFFFFFFFFFFFFFFFFFFFFFFFFFFFFFFFFFFFFFFFFFFFFFFFFFFFFFFFFFFFFF
310
FFFFFFFFFFFFFFFFFFFFFFFFFFFFFFFFFFFFFFFFFFFFFFFFF000FFFFFFFFFFFF
310
FFFFFFFFFFFFFFFFFFFFFFFFFFFFFFFFFFFFFFFFFFFFFFFFFFFFFFFFFFFFFFFF
310
FFFFFFFFFFFFFFFFFFFFFFFFFFFFFFFFFFFFFFFFFFFFFFFFFFFFFFFFFFFFFFFF
310
FFFFFFFFFFFFFFFFFFFFFFFFFFFFFFFFF000FFFFFFFFFFFFFFFFFFFFFFFFFFFF
310
FFFFFFFFFFFFFFFFFFFFFFFFFFFFFFFFFFFFFFFFFFFFFFFFFFFFFFFFFFFFFFFF
310
FFFFFFFFFFFFFFFFFFFFFFFFFFFFFFFFFFFFFFFFFFFFFFFFFFFFFFFFFFFFFFFF
310
FFFFFFFFFFFFFFFFF000FFFFFFFFFFFFFFFFFFFFFFFFFFFFFFFFFFFFFFFFFFFF
310
FFFFFFFFFFFFFFFFFFFFFFFFFFFFFFFFFFFFFFFFFFFFFFFFFFFFFFFFFFFFFFFF
310
FFFFFFFFFFFFFFFFFFFFFFFFFFFFFFFFFFFFFFFFFFFFFFFFFFFFFFFFFFFFFFFF
310
F000FFFFFFFFFFFFFFFFFFFFFFFFFFFFFFFFFFFFFFFFFFFFFFFFFFFFFFFFFFFF
310
FFFFFFFFFFFFFFFFFFFFFFFFFFFFFFFFFFFFFFFFFFFFFFFFFFFFFFFFFFFFFFFF
310
FFFFFFFFFFFFFFFFFFFFFFFFFFFFFFFFFFFFFFFFFFFFFFFFF000FFFFFFFFFFFF
310
FFFFFFFFFFFFFFFFFFFFFFFFFFFFFFFFFFFFFFFFFFFFFFFFFFFFFFFFFFFFFFFF
310
FFFFFFFFFFFFFFFFFFFFFFFFFFFFFFFFFFFFFFFFFFFFFFFFFFFFFFFFFFFFFFFF
310
FFFFFFFFFFFFFFFFFFFFFFFFFFFFFFFFF000FFFFFFFFFFFFFFFFFFFFFFFFFFFF
310
FFFFFFFFFFFFFFFFFFFFFFFFFFFFFFFFFFFFFFFFFFFFFFFFFFFFFFFFFFFFFFFF
310
FFFFFFFFFFFFFFFFFFFFFFFFFFFFFFFFFFFFFFFFFFFFFFFFFFFFFFFFFFFFFFFF
310
FFFFFFFFFFFFFFFFF000FFFFFFFFFFFFFFFFFFFFFFFFFFFFFFFFFFFFFFFFFFFF
310
FFFFFFFFFFFFFFFFFFFFFFFFFFFFFFFFFFFFFFFFFFFFFFFFFFFFFFFFFFFFFFFF
310
FFFFFFFFFFFFFFFFFFFFFFFFFFFFFFFFFFFFFFFFFFFFFFFFFFFFFFFFFFFFFFFF
310
F000FFFFFFFFFFFFFFFFFFFFFFFFFFFFFFFFFFFFFFFFFFFFFFFFFFFFFFFFFFFF
310
FFFFFFFFFFFFFFFFFFFFFFFFFFFFFFFFFFFFFFFFFFFFFFFFFFFFFFFFFFFFFFFF
310
FFFFFFFFFFFFFFFFFFFFFFFFFFFFFFFFFFFFFFFFFFFFFFFFF000FFFFFFFFFFFF
310
FFFFFFFFFFFFFFFFFFFFFFFFFFFFFFFFFFFFFFFFFFFFFFFFFFFFFFFFFFFFFFFF
310
FFFFFFFFFFFFFFFFFFFFFFFFFFFFFFFFFFFFFFFFFFFFFFFFFFFFFFFFFFFFFFFF
310
FFFFFFFFFFFFFFFFFFFFFFFFFFFFFFFFF000FFFFFFFFFFFFFFFFFFFFFFFFFFFF
310
FFFFFFFFFFFFFFFFFFFFFFFFFFFFFFFFFFFFFFFFFFFFFFFFFFFFFFFFFFFFFFFF
310
FFFFFFFFFFFFFFFFFFFFFFFFFFFFFFFFFFFFFFFFFFFFFFFFFFFFFFFFFFFFFFFF
310
FFFFFFFFFFFFFFFFF000FFFFFFFFFFFFFFFFFFFFFFFFFFFFFFFFFFFFFFFFFFFF
310
FFFFFFFFFFFFFFFFFFFFFFFFFFFFFFFFFFFFFFFFFFFFFFFFFFFFFFFFFFFFFFFF
310
FFFFFFFFFFFFFFFFFFFFFFFFFFFFFFFFFFFFFFFFFFFFFFFFFFFFFFFFFFFFFFFF
310
F000FFFFFFFFFFFFFFFFFFFFFFFFFFFFFFFFFFFFFFFFFFFFFFFFFFFFFFFFFFFF
310
FFFFFFFFFFFFFFFFFFFFFFFFFFFFFFFFFFFFFFFFFFFFFFFFFFFFFFFFFFFFFFFF
310
FFFFFFFFFFFFFFFFFFFFFFFFFFFFFFFFFFFFFFFFFFFFFFFFF000FFFFFFFFFFFF
310
FFFFFFFFFFFFFFFFFFFFFFFFFFFFFFFFFFFFFFFFFFFFFFFFFFFFFFFFFFFFFFFF
310
FFFFFFFFFFFFFFFFFFFFFFFFFFFFFFFFFFFFFFFFFFFFFFFFFFFFFFFFFFFFFFFF
310
FFFFFFFFFFFFFFFFFFFFFFFFFFFFFFFFF000FFFFFFFFFFFFFFFFFFFFFFFFFFFF
310
FFFFFFFFFFFFFFFFFFFFFFFFFFFFFFFFFFFFFFFFFFFFFFFFFFFFFFFFFFFFFFFF
310
FFFFFFFFFFFFFFFFFFFFFFFFFFFFFFFFFFFFFFFFFFFFFFFFFFFFFFFFFFFFFFFF
310
FFFFFFFFFFFFFFFFF000FFFFF80003FFFFFFFFFFFFFFFFFFFFFFFFFFFFFFFFFF
310
FFFFF00007FFFFFFFFFF00007FFFFFF800000000000000007FFFFFFFFFFFFFFF
310
FFFFFFFC001FFFFFFFFFFFFFFC001FFFFFFFFFFFFFFFFFFFFFFFFFFE0007FFFF
310
F000FFFF8000007FFFFFFFF8000FFFFFC0007FFFFF80007FFFFF0000007FFFFF
310
FFF8000007FFFFF800000000000000007FFFFFF0001FFFFFFFFFFFC00001FFFF
310
FFFFFFFFC00001FFFFFFFF000000000003FFFFE000007FFFF000FFFE0000000F
310
FFFFFFF0000FFFFF80007FFFFF80007FFFFC0000001FFFFFFFC0000001FFFFF8
310
00000000000000007FFFFFF0001FFFFFFFFFFE0000003FFFFFFFFFFE0000003F
310
FFFFFF000000000003FFFF0000000FFFF000FFF800000003FFFFFFF00007FFFF
310
80007FFFFF80007FFFF000000007FFFFFF000000003FFFF80000000000000000
310
7FFFFFF0001FFFFFFFFFF80000000FFFFFFFFFF80000000FFFFFFF0000000000
310
03FFFC00000003FFF000FFE000000000FFFFFFF00007FFFF80003FFFFF80007F
310
FFC000000001FFFFFC000000001FFFF800000000000000007FFFFFF0001FFFFF
310
FFFFE000000003FFFFFFFFE000000003FFFFFF000000000003FFF000000000FF
310
F000FF80000000007FFFFFF00007FFFF80003FFFFF80007FFF8000000000FFFF
310
F80000000007FFF800000000000000007FFFFFF0001FFFFFFFFFC000000001FF
310
FFFFFFC000000001FFFFFF000000000003FFC0000000007FF000FF0000000000
310
3FFFFFE00007FFFF00003FFFFF80007FFE00000000003FFFF00000000003FFF8
310
00000000000000007FFFFFF0001FFFFFFFFF8000000000FFFFFFFF8000000000
310
FFFFFF000000000003FF80000000003FF000FE00000000001FFFFFE00003FFFF
310
00003FFFFF80007FFC00000000001FFFE00000000001FFF8000001FFFE000000
310
7FFFFFF0001FFFFFFFFE00000000003FFFFFFE00000000003FFFFF0000000000
310
03FF00000000001FF000FC00000000000FFFFFE00003FFFF00001FFFFF80007F
310
F800000000001FFFC00000000000FFF8000001FFFE0000007FFFFFF0001FFFFF
310
FFFC00000000001FFFFFFC00000000001FFFFF000000000003FE00000000000F
310
F000F8000000000007FFFFE00003FFFF00001FFFFF80007FF800000000000FFF
310
800000000000FFF8000001FFFE0000007FFFFFF0001FFFFFFFF800000000000F
310
FFFFF800000000000FFFFF000000000003FC000000000007F000F80000000000
310
03FFFFC00003FFFE00001FFFFF80007FF0000000000007FF0000000000007FF8
310
000001FFFE0000007FFFFFF0001FFFFFFFF0000000000007FFFFF00000000000
310
07FFFF000000000003F8000000000003F000F0000000000003FFFFC00001FFFE
310
00001FFFFF80007FE0000000000007FE0000000000003FF8000001FFFE000000
310
7FFFFFF0001FFFFFFFF0000000000007FFFFF0000000000007FFFF0000000000
310
03F800001F800003F000E00001FFF00001FFFFC00001FFFE00000FFFFF80007F
310
E00001FFE00003FE00001FFF00003FF8000001FFFE0000007FFFFFF0001FFFFF
310
FFE000003E000003FFFFE000003E000003FFFF000000000003F00001FFF80001
310
F000E00007FFFC0001FFFFC00001FFFE00000FFFFF80007FC0000FFFFC0003FC
310
0000FFFFC0001FF8000001FFFE0000007FFFFFF0001FFFFFFFC00003FFE00001
310
FFFFC00003FFE00001FFFF0001FFFFFFFFF00007FFFE0001F000E0000FFFFF00
310
00FFFF800001FFFC00000FFFFF80007FC0001FFFFE0001FC0001FFFFE0001FF8
310
000001FFFE0000007FFFFFF0001FFFFFFF80000FFFF80000FFFF80000FFFF800
310
00FFFF0003FFFFFFFFE0000FFFFF8000F000C0003FFFFF8000FFFF800000FFFC
310
000007FFFF80007F80003FFFFF0001FC0003FFFFF0001FF8000001FFFE000000
310
7FFFFFF0001FFFFFFF80003FFFFE0000FFFF80003FFFFE0000FFFF0003FFFFFF
310
FFE0003FFFFF8000F000C0003FFFFF8000FFFF800000FFFC000007FFFF80007F
310
80007FFFFF8001F80007FFFFF8000FF8000001FFFE0000007FFFFFF0001FFFFF
310
FF00007FFFFF00007FFF00007FFFFF00007FFF0003FFFFFFFFE0003FFFFFC000
310
F000C0007FFFFFC000FFFF000000FFFC000007FFFF80007F8000FFFFFF8000F8
310
000FFFFFF8000FF8000001FFFE0000007FFFFFF0001FFFFFFF0000FFFFFF8000
310
7FFF0000FFFFFF80007FFF0003FFFFFFFFC0007FFFFFC00070008000FFFFFFC0
310
00FFFF000000FFF8000007FFFF80007F8000FFFFFF8000F8000FFFFFF8000FF8
310
000001FFFE0000007FFFFFF0001FFFFFFE0001FFFFFFC0003FFE0001FFFFFFC0
310
003FFF0003FFFFFFFFC0007FFFFFE00070008000FFFFFFC0007FFF0000007FF8
310
000003FFFF80007F0001FFFFFF8000F8000FFFFFF8000FF8000001FFFE000000
310
7FFFFFF0001FFFFFFE0001FFFFFFC0003FFE0001FFFFFFC0003FFF0003FFFFFF
310
FFC000FFFFFFE00070008000FFFFFFC0007FFF0000007FF8000003FFFF80007F
310
0001FFFFFF8000F8001FFFFFF8000FF8000001FFFE0000007FFFFFF0001FFFFF
310
FE0003FFFFFFE0003FFE0003FFFFFFE0003FFF0003FFFFFFFFC000FFFFFFE000
310
70008000FFFFFFC0007FFE0000007FF8000003FFFF80007F0001FFFFFF8000F0
310
001FFFFFF8000FF8000001FFFE0000007FFFFFF0001FFFFFFC0003FFFFFFE000
310
1FFC0003FFFFFFE0001FFF0003FFFFFFFFC000FFFFFFC00070008000FFFFFF80
310
007FFE0000007FF0000003FFFF80007F0001FFFFFF0000F0001FFFFFF8000FF8
310
000001FFFE0000007FFFFFF0001FFFFFFC0007FFFFFFF0001FFC0007FFFFFFF0
310
001FFF0003FFFFFFFFC000FFFFFFC00070008001FFFFFF0000FFFE0000003FF0
310
000001FFFF80007F0001FFFFFF0000F8001FFFFFF0000FF8000001FFFE000000
310
7FFFFFF0001FFFFFFC0007FFFFFFF0001FFC0007FFFFFFF0001FFF0003FFFFFF
310
FFC001FFFFFF80007000FFFFFFFFFE0000FFFE0008003FF0008001FFFF80007F
310
FFFFFFFFFC0000FFFFFFFFFFE0000FF8000001FFFE0000007FFFFFF0001FFFFF
310
F8000FFFFFFFF8000FF8000FFFFFFFF8000FFF0003FFFFFFFFFFFFFFFFFF0000
310
7000FFFFFFFFFC0000FFFC0008003FF0008001FFFF80007FFFFFFFFFF80001FF
310
FFFFFFFF80000FF8000001FFFE0000007FFFFFF0001FFFFFF8000FFFFFFFF800
310
0FF8000FFFFFFFF8000FFF0003FFFFFFFFFFFFFFFFFE0000F000FFFFFFFFE000
310
00FFFC000C003FE000C001FFFF80007FFFFFFFFFC00001FFFFFFFFFE00001FF8
310
000001FFFE0000007FFFFFF0001FFFFFF8000FFFFFFFF8000FF8000FFFFFFFF8
310
000FFF0003FFFFFFFFFFFFFFFFF00000F000FFFFFFFE000001FFFC000C001FE0
310
00C000FFFF80007FFFFFFFFE000001FFFFFFFFE000001FF80FFFFFFFFFFFFFC0
310
7FFFFFF0001FFFFFF8000FFFFFFFF8000FF8000FFFFFFFF8000FFF0003FFFFFF
310
FFFFFFFFFF800000F000FFFFFFC0000001FFFC001C001FE001C000FFFF80007F
310
FFFFFF80000003FFFFFFF80000001FF80FFFFFFFFFFFFFC07FFFFFF0001FFFFF
310
F8001FFFFFFFFC000FF8001FFFFFFFFC000FFF0003FFFFFFFFFFFFFFF0000001
310
F000FFFFF800000001FFF8001C001FE001C000FFFF80007FFFFFF800000003FF
310
FFFF800000003FF80FFFFFFFFFFFFFC07FFFFFF0001FFFFFF8001FFFFFFFFC00
310
0FF8001FFFFFFFFC000FFF0003FFFFFFFFFFFFFE00000001F000FFFFC0000000
310
03FFF8001E001FC001E000FFFF80007FFFFF8000000007FFFFFC000000003FF8
310
0FFFFFFFFFFFFFC07FFFFFF0001FFFFFF8001FFFFFFFFC000FF8001FFFFFFFFC
310
000FFF0003FFFFFFFFFFFFE000000003F000FFFE0000000007FFF8001E000FC0
310
01E0007FFF80007FFFFE0000000007FFFFE0000000007FF80FFFFFFFFFFFFFC0
310
7FFFFFF0001FFFFFF0001FFFFFFFFC0007F0001FFFFFFFFC0007FF0003FFFFFF
310
FFFFFF0000000003F000FFF80000000007FFF8001E000FC003E0007FFF80007F
310
FFF0000000000FFFFF8000000000FFF80FFFFFFFFFFFFFC07FFFFFF0001FFFFF
310
F0001FFFFFFFFC0007F0001FFFFFFFFC0007FF0003FFFFFFFFFFFC0000000007
310
F000FFE0000000000FFFF0003E000FC003E0007FFF80007FFFC0000000001FFF
310
FE0000000001FFF80FFFFFFFFFFFFFC07FFFFFF0001FFFFFF0001FFFFFFFFC00
310
07F0001FFFFFFFFC0007FF0003FFFFFFFFFFF0000000000FF000FFC000000000
310
1FFFF0003F000F8003F0003FFF80007FFF80000000003FFFF80000000003FFF8
310
0FFFFFFFFFFFFFC07FFFFFF0001FFFFFF0001FFFFFFFFC0007F0001FFFFFFFFC
310
0007FF0003FFFFFFFFFFE0000000001FF000FF00000000007FFFF0003F000780
310
03F0003FFF80007FFF00000000007FFFF00000000007FFF80FFFFFFFFFFFFFC0
310
7FFFFFF0001FFFFFF0001FFFFFFFFC0007F0001FFFFFFFFC0007FF0003FFFFFF
310
FFFF80000000007FF000FE0000000000FFFFE0003F00078007F0003FFF80007F
310
FE0000000001FFFFE0000000001FFFF80FFFFFFFFFFFFFC07FFFFFF0001FFFFF
310
F0001FFFFFFFFC0007F0001FFFFFFFFC0007FF0003FFFFFFFFFF0000000000FF
310
F000FC0000000003FFFFE0007F00078007F0003FFF80007FFC0000000007FFFF
310
C0000000007FFFF80FFFFFFFFFFFFFC07FFFFFF0001FFFFFF8001FFFFFFFFC00
310
0FF8001FFFFFFFFC000FFF0003FFFFFFFFFE0000000003FFF000FC000000000F
310
FFFFE0007F80070007F8001FFF80007FF8000000001FFFFF8000000001FFFFF8
310
0FFFFFFFFFFFFFC07FFFFFF0001FFFFFF8001FFFFFFFFC000FF8001FFFFFFFFC
310
000FFF0003FFFFFFFFFC000000000FFFF000F8000000007FFFFFE0007F800700
310
07F8001FFF80007FF000000000FFFFFF800000000FFFFFF80FFFFFFFFFFFFFC0
310
7FFFFFF0001FFFFFF8000FFFFFFFF8000FF8000FFFFFFFF8000FFF0003FFFFFF
310
FFFC000000007FFFF000F800000007FFFFFFC0007F8003000FF8001FFF80007F
310
F000000007FFFFFF000000007FFFFFF80FFFFFFFFFFFFFC07FFFFFF0001FFFFF
310
F8000FFFFFFFF8000FF8000FFFFFFFF8000FFF0003FFFFFFFFF80000000FFFFF
310
F000F0000000FFFFFFFFC000FF8003000FF8001FFF80007FE0000000FFFFFFFF
310
0000000FFFFFFFF8000001FFFE0000007FFFFFF0001FFFFFF8000FFFFFFFF800
310
0FF8000FFFFFFFF8000FFF0003FFFFFFFFF8000000FFFFFFF000F000000FFFFF
310
FFFFC000FFC002000FF8000FFF80007FE000001FFFFFFFFE000001FFFFFFFFF8
310
000001FFFE0000007FFFFFF0001FFFFFF8000FFFFFFFF8000FF8000FFFFFFFF8
310
000FFF0003FFFFFFFFF000001FFFFFFFF000E00000FFFFFFFFFFC000FFC00200
310
0FFC000FFF80007FE00001FFFFFFFFFE00001FFFFFFFFFF8000001FFFE000000
310
7FFFFFF0001FFFFFFC000FFFFFFFF8001FFC000FFFFFFFF8001FFF0003FFFFFF
310
FFF00001FFFFFFFFF000E00007FFFFFFFFFF8000FFC000001FFC000FFF80007F
310
C0000FFFFFFFFFFE0000FFFFFFFFFFF8000001FFFE0000007FFFFFF0001FFFFF
310
FC0007FFFFFFF0001FFC0007FFFFFFF0001FFF0003FFFFFFFFF00007FFFFFFFF
310
F000E0001FFFFFFFFFFF8000FFC000001FFC000FFF80007FC0003FFFFFFFFFFE
310
0001FFFFFFFFFFF8000001FFFE0000007FFFFFF0001FFFFFFC0007FFFFFFF000
310
1FFC0007FFFFFFF0001FFF0003FFFFFFFFF0001FFFFFFFFFF000E0003FFFFF00
310
03FF8001FFE000001FFC0007FF80007FC0007FFFFF0007FC0003FFFFF0003FF8
310
000001FFFE0000007FFFFFF0001FFFFFFC0003FFFFFFE0001FFC0003FFFFFFE0
310
001FFF0003FFFFFFFFF0003FFFFFFFFFF000E0003FFFFF0001FF8001FFE00000
310
1FFE0007FF80007FC0007FFFFE0003FC0007FFFFE0003FF8000001FFFE000000
310
7FFFFFF0001FFFFFFE0003FFFFFFE0003FFE0003FFFFFFE0003FFF0003FFFFFF
310
FFF0003FFFFF8001F000E0003FFFFF0001FF0001FFE000001FFE0007FF80007F
310
C0007FFFFE0003FC0007FFFFE0003FF8000001FFFE0000007FFFFFF0001FFFFF
310
FE0001FFFFFFC0003FFE0001FFFFFFC0003FFF0003FFFFFFFFF0003FFFFF0001
310
F000E0003FFFFF0003FF0001FFE000003FFE0007FF80007FC0007FFFFE0003FC
310
0007FFFFE0003FF8000001FFFE0000007FFFFFF0001FFFFFFF0001FFFFFFC000
310
7FFF0001FFFFFFC0007FFF0003FFFFFFFFF0003FFFFF0001F000E0003FFFFE00
310
03FF0003FFF000003FFE0003FF80007FC0007FFFFC0003FE0007FFFFE0003FF8
310
000001FFFE0000007FFFFFF0001FFFFFFF0000FFFFFF80007FFF0000FFFFFF80
310
007FFF0003FFFFFFFFF0003FFFFF0001F000E0003FFFFE0003FF0003FFF00000
310
3FFF0003FF80007FC0007FFFFC0007FE0007FFFFC0003FF8000001FFFE000000
310
7FFFFFF0001FFFFFFF80007FFFFF0000FFFF80007FFFFF0000FFFF0003FFFFFF
310
FFF0003FFFFF0003F000E0003FFFFC0003FE0003FFF000003FFF0003FF80007F
310
E0003FFFF80007FE0003FFFFC0007FF8000001FFFE0000007FFFFFF0001FFFFF
310
FF80003FFFFE0000FFFF80003FFFFE0000FFFF0003FFFFFFFFF0001FFFFE0003
310
F000F0001FFFF80003FE0003FFF000007FFF0001FF80007FE0003FFFF00007FE
310
0001FFFF80007FF8000001FFFE0000007FFFFFF0001FFFFFFFC0000FFFF80001
310
FFFFC0000FFFF80001FFFF0003FFFFFFFFF0001FFFFC0003F000F0000FFFF000
310
07FE0007FFF800007FFF0001FF80007FE0001FFFE00007FF0000FFFE00007FF8
310
000001FFFE0000007FFFFFF0001FFFFFFFC00003FFE00001FFFFC00003FFE000
310
01FFFF0003FFFFFFFFF8000FFFF80003F000F00003FFC00007FC0007FFF80000
310
7FFF8001FF80007FF00007FF80000FFF00007FF80000FFF8000001FFFE000000
310
7F80000000000001FFE000003E000003FFFFE000003E000003FFFF0003FFFFFF
310
FFF80003FFE00007F000F800000000000FFC0007FFF800007FFF8001FF80007F
310
F000000000000FFF000000000000FFF8000001FFFE0000007F80000000000001
310
FFF0000000000007FFFFF0000000000007FFFF0003FFFFFFFFFC00007E000007
310
F000F800000000000FFC0007FFF80000FFFF8000FF80007FF800000000001FFF
310
800000000001FFF8000001FFFE0000007F80000000000001FFF800000000000F
310
FFFFF800000000000FFFFF0003FFFFFFFFFC00000000000FF000FC0000000000
310
1FFC0007FFFC0000FFFF8000FF80007FF800000000003FFFC00000000001FFF8
310
000001FFFE0000007F80000000000001FFF800000000000FFFFFF80000000000
310
0FFFFF0003FFFFFFFFFE00000000001FF000FE00000000003FF8000FFFFC0000
310
FFFF8000FF80007FFC00000000003FFFC00000000003FFF8000001FFFE000000
310
7F80000000000001FFFC00000000001FFFFFFC00000000001FFFFF0003FFFFFF
310
FFFF00000000001FF000FF00000000003FF8000FFFFC0000FFFFC000FF80007F
310
FE00000000007FFFE00000000007FFF8000001FFFE0000007F80000000000001
310
FFFE00000000003FFFFFFE00000000003FFFFF0003FFFFFFFFFF80000000003F
310
F000FF80000000007FF8000FFFFC0001FFFFC0007F80007FFF0000000000FFFF
310
F0000000000FFFF800000000000000007F80000000000001FFFF8000000000FF
310
FFFFFF8000000000FFFFFF0003FFFFFFFFFFC0000000007FF000FFC000000000
310
FFF8000FFFFE0001FFFFC0007F80007FFF8000000001FFFFF8000000001FFFF8
310
00000000000000007F80000000000001FFFFC000000001FFFFFFFFC000000001
310
FFFFFF0003FFFFFFFFFFE000000000FFF000FFE000000003FFF0001FFFFE0001
310
FFFFC0007F80007FFFC000000007FFFFFE000000003FFFF80000000000000000
310
7F80000000000001FFFFE000000003FFFFFFFFE000000003FFFFFF0003FFFFFF
310
FFFFF000000003FFF000FFF80000000FFFF0001FFFFE0001FFFFE0007F80007F
310
FFF00000000FFFFFFF00000000FFFFF800000000000000007F80000000000001
310
FFFFF80000000FFFFFFFFFF80000000FFFFFFF0003FFFFFFFFFFFC0000000FFF
310
F000FFFE0000003FFFF0001FFFFE0003FFFFE0003F80007FFFFC0000003FFFFF
310
FFC0000003FFFFF800000000000000007F80000000000001FFFFFE0000003FFF
310
FFFFFFFE0000003FFFFFFF0003FFFFFFFFFFFF0000003FFFF000FFFF800000FF
310
FFF0001FFFFF0003FFFFE0003F80007FFFFF000001FFFFFFFFF800001FFFFFF8
310
00000000000000007F80000000000001FFFFFFC00001FFFFFFFFFFFFC00001FF
310
FFFFFF0003FFFFFFFFFFFFC00000FFFFF000FFFFF8000FFFFFFFFFFFFFFFFFFF
310
FFFFFFFFFFFFFFFFFFFFF0001FFFFFFFFFFF0000FFFFFFF80000000000000000
310
7FFFFFFFFFFFFFFFFFFFFFFC001FFFFFFFFFFFFFFC001FFFFFFFFFFFFFFFFFFF
310
FFFFFFFC001FFFFFF000FFFFFFFFFFFFFFFFFFFFFFFFFFFFFFFFFFFFFFFFFFFF
310
FFFFFFFFFFFFFFFFFFFFFFFFFFFFFFFFFFFFFFFFFFFFFFFFFFFFFFFFFFFFFFFF
310
FFFFFFFFFFFFFFFFFFFFFFFFFFFFFFFFFFFFFFFFFFFFFFFFFFFFFFFFFFFFFFFF
310
F000FFFFFFFFFFFFFFFFFFFFFFFFFFFFFFFFFFFFFFFFFFFFFFFFFFFFFFFFFFFF
310
FFFFFFFFFFFFFFFFFFFFFFFFFFFFFFFFFFFFFFFFFFFFFFFFFFFFFFFFFFFFFFFF
310
FFFFFFFFFFFFFFFFFFFFFFFFFFFFFFFFFFFFFFFFFFFFFFFFF000FFFFFFFFFFFF
310
FFFFFFFFFFFFFFFFFFFFFFFFFFFFFFFFFFFFFFFFFFFFFFFFFFFFFFFFFFFFFFFF
310
FFFFFFFFFFFFFFFFFFFFFFFFFFFFFFFFFFFFFFFFFFFFFFFFFFFFFFFFFFFFFFFF
310
FFFFFFFFFFFFFFFFFFFFFFFFFFFFFFFFF000FFFFFFFFFFFFFFFFFFFFFFFFFFFF
310
FFFFFFFFFFFFFFFFFFFFFFFFFFFFFFFFFFFFFFFFFFFFFFFFFFFFFFFFFFFFFFFF
310
FFFFFFFFFFFFFFFFFFFFFFFFFFFFFFFFFFFFFFFFFFFFFFFFFFFFFFFFFFFFFFFF
310
FFFFFFFFFFFFFFFFF000FFFFFFFFFFFFFFFFFFFFFFFFFFFFFFFFFFFFFFFFFFFF
310
FFFFFFFFFFFFFFFFFFFFFFFFFFFFFFFFFFFFFFFFFFFFFFFFFFFFFFFFFFFFFFFF
310
FFFFFFFFFFFFFFFFFFFFFFFFFFFFFFFFFFFFFFFFFFFFFFFFFFFFFFFFFFFFFFFF
310
F000FFFFFFFFFFFFFFFFFFFFFFFFFFFFFFFFFFFFFFFFFFFFFFFFFFFFFFFFFFFF
310
FFFFFFFFFFFFFFFFFFFFFFFFFFFFFFFFFFFFFFFFFFFFFFFFFFFFFFFFFFFFFFFF
310
FFFFFFFFFFFFFFFFFFFFFFFFFFFFFFFFFFFFFFFFFFFFFFFFF000FFFFFFFFFFFF
310
FFFFFFFFFFFFFFFFFFFFFFFFFFFFFFFFFFFFFFFFFFFFFFFFFFFFFFFFFFFFFFFF
310
FFFFFFFFFFFFFFFFFFFFFFFFFFFFFFFFFFFFFFFFFFFFFFFFFFFFFFFFFFFFFFFF
310
FFFFFFFFFFFFFFFFFFFFFFFFFFFFFFFFF000FFFFFFFFFFFFFFFFFFFFFFFFFFFF
310
FFFFFFFFFFFFFFFFFFFFFFFFFFFFFFFFFFFFFFFFFFFFFFFFFFFFFFFFFFFFFFFF
310
FFFFFFFFFFFFFFFFFFFFFFFFFFFFFFFFFFFFFFFFFFFFFFFFFFFFFFFFFFFFFFFF
310
FFFFFFFFFFFFFFFFF000FFFFFFFFFFFFFFFFFFFFFFFFFFFFFFFFFFFFFFFFFFFF
310
FFFFFFFFFFFFFFFFFFFFFFFFFFFFFFFFFFFFFFFFFFFFFFFFFFFFFFFFFFFFFFFF
310
FFFFFFFFFFFFFFFFFFFFFFFFFFFFFFFFFFFFFFFFFFFFFFFFFFFFFFFFFFFFFFFF
310
F000FFFFFFFFFFFFFFFFFFFFFFFFFFFFFFFFFFFFFFFFFFFFFFFFFFFFFFFFFFFF
310
FFFFFFFFFFFFFFFFFFFFFFFFFFFFFFFFFFFFFFFFFFFFFFFFFFFFFFFFFFFFFFFF
310
FFFFFFFFFFFFFFFFFFFFFFFFFFFFFFFFFFFFFFFFFFFFFFFFF000FFFFFFFFFFFF
310
FFFFFFFFFFFFFFFFFFFFFFFFFFFFFFFFFFFFFFFFFFFFFFFFFFFFFFFFFFFFFFFF
310
FFFFFFFFFFFFFFFFFFFFFFFFFFFFFFFFFFFFFFFFFFFFFFFFFFFFFFFFFFFFFFFF
310
FFFFFFFFFFFFFFFFFFFFFFFFFFFFFFFFF000FFFFFFFFFFFFFFFFFFFFFFFFFFFF
310
FFFFFFFFFFFFFFFFFFFFFFFFFFFFFFFFFFFFFFFFFFFFFFFFFFFFFFFFFFFFFFFF
310
FFFFFFFFFFFFFFFFFFFFFFFFFFFFFFFFFFFFFFFFFFFFFFFFFFFFFFFFFFFFFFFF
310
FFFFFFFFFFFFFFFFF000FFFFFFFFFFFFFFFFFFFFFFFFFFFFFFFFFFFFFFFFFFFF
310
FFFFFFFFFFFFFFFFFFFFFFFFFFFFFFFFFFFFFFFFFFFFFFFFFFFFFFFFFFFFFFFF
310
FFFFFFFFFFFFFFFFFFFFFFFFFFFFFFFFFFFFFFFFFFFFFFFFFFFFFFFFFFFFFFFF
310
F000FFFFFFFFFFFFFFFFFFFFFFFFFFFFFFFFFFFFFFFFFFFFFFFFFFFFFFFFFFFF
310
FFFFFFFFFFFFFFFFFFFFFFFFFFFFFFFFFFFFFFFFFFFFFFFFFFFFFFFFFFFFFFFF
310
FFFFFFFFFFFFFFFFFFFFFFFFFFFFFFFFFFFFFFFFFFFFFFFFF000FFFFFFFFFFFF
310
FFFFFFFFFFFFFFFFFFFFFFFFFFFFFFFFFFFFFFFFFFFFFFFFFFFFFFFFFFFFFFFF
310
FFFFFFFFFFFFFFFFFFFFFFFFFFFFFFFFFFFFFFFFFFFFFFFFFFFFFFFFFFFFFFFF
310
FFFFFFFFFFFFFFFFFFFFFFFFFFFFFFFFF000FFFFFFFFFFFFFFFFFFFFFFFFFFFF
310
FFFFFFFFFFFFFFFFFFFFFFFFFFFFFFFFFFFFFFFFFFFFFFFFFFFFFFFFFFFFFFFF
310
FFFFFFFFFFFFFFFFFFFFFFFFFFFFFFFFFFFFFFFFFFFFFFFFFFFFFFFFFFFFFFFF
310
FFFFFFFFFFFFFFFFF000FFFFFFFFFFFFFFFFFFFFFFFFFFFFFFFFFFFFFFFFFFFF
310
FFFFFFFFFFFFFFFFFFFFFFFFFFFFFFFFFFFFFFFFFFFFFFFFFFFFFFFFFFFFFFFF
310
FFFFFFFFFFFFFFFFFFFFFFFFFFFFFFFFFFFFFFFFFFFFFFFFFFFFFFFFFFFFFFFF
310
F000FFFFFFFFFFFFFFFFFFFFFFFFFFFFFFFFFFFFFFFFFFFFFFFFFFFFFFFFFFFF
310
FFFFFFFFFFFFFFFFFFFFFFFFFFFFFFFFFFFFFFFFFFFFFFFFFFFFFFFFFFFFFFFF
310
FFFFFFFFFFFFFFFFFFFFFFFFFFFFFFFFFFFFFFFFFFFFFFFFF000FFFFFFFFFFFF
310
FFFFFFFFFFFFFFFFFFFFFFFFFFFFFFFFFFFFFFFFFFFFFFFFFFFFFFFFFFFFFFFF
310
FFFFFFFFFFFFFFFFFFFFFFFFFFFFFFFFFFFFFFFFFFFFFFFFFFFFFFFFFFFFFFFF
310
FFFFFFFFFFFFFFFFFFFFFFFFFFFFFFFFF000FFFFFFFFFFFFFFFFFFFFFFFFFFFF
310
FFFFFFFFFFFFFFFFFFFFFFFFFFFFFFFFFFFFFFFFFFFFFFFFFFFFFFFFFFFFFFFF
310
FFFFFFFFFFFFFFFFFFFFFFFFFFFFFFFFFFFFFFFFFFFFFFFFFFFFFFFFFFFFFFFF
310
FFFFFFFFFFFFFFFFF000FFFFFFFFFFFFFFFFFFFFFFFFFFFFFFFFFFFFFFFFFFFF
310
FFFFFFFFFFFFFFFFFFFFFFFFFFFFFFFFFFFFFFFFFFFFFFFFFFFFFFFFFFFFFFFF
310
FFFFFFFFFFFFFFFFFFFFFFFFFFFFFFFFFFFFFFFFFFFFFFFFFFFFFFFFFFFFFFFF
310
F000FFFFFFFFFFFFFFFFFFFFFFFFFFFFFFFFFFFFFFFFFFFFFFFFFFFFFFFFFFFF
310
FFFFFFFFFFFFFFFFFFFFFFFFFFFFFFFFFFFFFFFFFFFFFFFFFFFFFFFFFFFFFFFF
310
FFFFFFFFFFFFFFFFFFFFFFFFFFFFFFFFFFFFFFFFFFFFFFFFF000FFFFFFFFFFFF
310
FFFFFFFFFFFFFFFFFFFFFFFFFFFFFFFFFFFFFFFFFFFFFFFFFFFFFFFFFFFFFFFF
310
FFFFFFFFFFFFFFFFFFFFFFFFFFFFFFFFFFFFFFFFFFFFFFFFFFFFFFFFFFFFFFFF
310
FFFFFFFFFFFFFFFFFFFFFFFFFFFFFFFFF0000000000000000000000000000000
310
0000000000000000000000000000000000000000000000000000000000000000
310
0000000000000000000000000000000000000000000000000000000000000000
310
0000000000000000000000000000000000000000000000000000000000000000
310
0000000000000000000000000000000000000000000000000000000000000000
310
0000000000000000000000000000000000000000000000000000000000000000
310
0000000000000000000000000000000000000000000000000000000000000000
310
0000000000000000000000000000000000000000000000000000000000000000
310
0000000000000000000000000000000000000000000000000000000000000000
310
0000000000000000000000000000000000000000000000000000000000000000
310
0000000000000000000000000000000000000000000000000000000000000000
310
0000000000000000000000000000000000000000000000000000000000000000
310
0000000000000000000000000000000000000000000000000000000000000000
310
0000000000000000000000000000000000000000000000000000000000000000
310
0000000000000000000000000000000000000000000000000000000000000000
310
0000000000000000000000000000000000000000000000000000000000000000
  1
OLE
  0
ENDSEC
  0
SECTION
  2
OBJECTS
  0
DICTIONARY
  5
C
330
0
100
AcDbDictionary
281
     1
  3
ACAD_GROUP
350
D
  3
ACAD_LAYOUT
350
1A
  3
ACAD_MLINESTYLE
350
17
  3
ACAD_PLOTSETTINGS
350
19
  3
ACAD_PLOTSTYLENAME
350
E
  0
DICTIONARY
  5
D
102
{ACAD_REACTORS
330
C
102
}
330
C
100
AcDbDictionary
281
     1
  0
DICTIONARY
  5
1A
102
{ACAD_REACTORS
330
C
102
}
330
C
100
AcDbDictionary
281
     1
  3
Layout1
350
1E
  3
Layout2
350
26
  3
Model
350
22
  0
DICTIONARY
  5
17
102
{ACAD_REACTORS
330
C
102
}
330
C
100
AcDbDictionary
281
     1
  3
Standard
350
18
  0
DICTIONARY
  5
19
102
{ACAD_REACTORS
330
C
102
}
330
C
100
AcDbDictionary
281
     1
  0
ACDBDICTIONARYWDFLT
  5
E
102
{ACAD_REACTORS
330
C
102
}
330
C
100
AcDbDictionary
281
     1
  3
Normal
350
F
100
AcDbDictionaryWithDefault
340
F
  0
LAYOUT
  5
1E
102
{ACAD_REACTORS
330
1A
102
}
330
1A
100
AcDbPlotSettings
  1

  2
none_device
  4

  6

 40
0.0
 41
0.0
 42
0.0
 43
0.0
 44
0.0
 45
0.0
 46
0.0
 47
0.0
 48
0.0
 49
0.0
140
0.0
141
0.0
142
1.0
143
1.0
 70
   688
 72
     0
 73
     0
 74
     5
  7

 75
    16
147
1.0
148
0.0
149
0.0
100
AcDbLayout
  1
Layout1
 70
     1
 71
     1
 10
0.0
 20
0.0
 11
420.0
 21
297.0
 12
0.0
 22
0.0
 32
0.0
 14
1.0000000000E+20
 24
1.0000000000E+20
 34
1.0000000000E+20
 15
-1.0000000000E+20
 25
-1.0000000000E+20
 35
-1.0000000000E+20
146
0.0
 13
0.0
 23
0.0
 33
0.0
 16
1.0
 26
0.0
 36
0.0
 17
0.0
 27
1.0
 37
0.0
 76
     0
330
1B
  0
LAYOUT
  5
26
102
{ACAD_REACTORS
330
1A
102
}
330
1A
100
AcDbPlotSettings
  1

  2
none_device
  4

  6

 40
0.0
 41
0.0
 42
0.0
 43
0.0
 44
0.0
 45
0.0
 46
0.0
 47
0.0
 48
0.0
 49
0.0
140
0.0
141
0.0
142
1.0
143
1.0
 70
   688
 72
     0
 73
     0
 74
     5
  7

 75
    16
147
1.0
148
0.0
149
0.0
100
AcDbLayout
  1
Layout2
 70
     1
 71
     2
 10
0.0
 20
0.0
 11
0.0
 21
0.0
 12
0.0
 22
0.0
 32
0.0
 14
0.0
 24
0.0
 34
0.0
 15
0.0
 25
0.0
 35
0.0
146
0.0
 13
0.0
 23
0.0
 33
0.0
 16
1.0
 26
0.0
 36
0.0
 17
0.0
 27
1.0
 37
0.0
 76
     0
330
23
  0
LAYOUT
  5
22
102
{ACAD_REACTORS
330
1A
102
}
330
1A
100
AcDbPlotSettings
  1

  2
none_device
  4

  6

 40
0.0
 41
0.0
 42
0.0
 43
0.0
 44
0.0
 45
0.0
 46
0.0
 47
0.0
 48
0.0
 49
0.0
140
0.0
141
0.0
142
1.0
143
1.0
 70
  1712
 72
     0
 73
     0
 74
     0
  7

 75
     0
147
1.0
148
0.0
149
0.0
100
AcDbLayout
  1
Model
 70
     1
 71
     0
 10
0.0
 20
0.0
 11
297.0
 21
210.0
 12
0.0
 22
0.0
 32
0.0
 14
0.0
 24
0.0
 34
0.0
 15
297.0
 25
210.0
 35
0.0
146
0.0
 13
0.0
 23
0.0
 33
0.0
 16
1.0
 26
0.0
 36
0.0
 17
0.0
 27
1.0
 37
0.0
 76
     0
330
1F
331
29
  0
MLINESTYLE
  5
18
102
{ACAD_REACTORS
330
17
102
}
330
17
100
AcDbMlineStyle
  2
Standard
 70
     0
  3

 62
   256
 51
90.0
 52
90.0
 71
     2
 49
0.5
 62
   256
  6
BYLAYER
 49
-0.5
 62
   256
  6
BYLAYER
  0
ACDBPLACEHOLDER
  5
F
102
{ACAD_REACTORS
330
E
102
}
330
E
  0
ENDSEC
  0
EOF
