  0
SECTION
  2
HEADER
  9
$ACADVER
  1
AC1015
  9
$ACADMAINTVER
 70
     6
  9
$DWGCODEPAGE
  3
ANSI_1252
  9
$INSBASE
 10
0.0
 20
0.0
 30
0.0
  9
$EXTMIN
 10
0.0
 20
0.0
 30
0.0
  9
$EXTMAX
 10
297.0
 20
210.0
 30
0.0
  9
$LIMMIN
 10
0.0
 20
0.0
  9
$LIMMAX
 10
297.0
 20
210.0
  9
$ORTHOMODE
 70
     0
  9
$REGENMODE
 70
     1
  9
$FILLMODE
 70
     1
  9
$QTEXTMODE
 70
     0
  9
$MIRRTEXT
 70
     1
  9
$LTSCALE
 40
1.0
  9
$ATTMODE
 70
     1
  9
$TEXTSIZE
 40
2.0
  9
$TRACEWID
 40
1.0
  9
$TEXTSTYLE
  7
Standard
  9
$CLAYER
  8
0
  9
$CELTYPE
  6
ByLayer
  9
$CECOLOR
 62
   256
  9
$CELTSCALE
 40
1.0
  9
$DISPSILH
 70
     0
  9
$DIMSCALE
 40
1.0
  9
$DIMASZ
 40
3.0
  9
$DIMEXO
 40
0.0
  9
$DIMDLI
 40
3.75
  9
$DIMRND
 40
0.0
  9
$DIMDLE
 40
0.0
  9
$DIMEXE
 40
1.0
  9
$DIMTP
 40
0.0
  9
$DIMTM
 40
0.0
  9
$DIMTXT
 40
2.0
  9
$DIMCEN
 40
2.5
  9
$DIMTSZ
 40
0.0
  9
$DIMTOL
 70
     0
  9
$DIMLIM
 70
     0
  9
$DIMTIH
 70
     1
  9
$DIMTOH
 70
     1
  9
$DIMSE1
 70
     0
  9
$DIMSE2
 70
     0
  9
$DIMTAD
 70
     1
  9
$DIMZIN
 70
     0
  9
$DIMBLK
  1

  9
$DIMASO
 70
     1
  9
$DIMSHO
 70
     1
  9
$DIMPOST
  1

  9
$DIMAPOST
  1

  9
$DIMALT
 70
     0
  9
$DIMALTD
 70
     3
  9
$DIMALTF
 40
0.0393700787
  9
$DIMLFAC
 40
1.0
  9
$DIMTOFL
 70
     1
  9
$DIMTVP
 40
0.0
  9
$DIMTIX
 70
     0
  9
$DIMSOXD
 70
     0
  9
$DIMSAH
 70
     0
  9
$DIMBLK1
  1

  9
$DIMBLK2
  1

  9
$DIMSTYLE
  2
ISO-25
  9
$DIMCLRD
 70
     0
  9
$DIMCLRE
 70
     0
  9
$DIMCLRT
 70
     0
  9
$DIMTFAC
 40
1.0
  9
$DIMGAP
 40
1.524
  9
$DIMJUST
 70
     0
  9
$DIMSD1
 70
     0
  9
$DIMSD2
 70
     0
  9
$DIMTOLJ
 70
     0
  9
$DIMTZIN
 70
     0
  9
$DIMALTZ
 70
     0
  9
$DIMALTTZ
 70
     0
  9
$DIMUPT
 70
     0
  9
$DIMDEC
 70
     2
  9
$DIMTDEC
 70
     3
  9
$DIMALTU
 70
     2
  9
$DIMALTTD
 70
     3
  9
$DIMTXSTY
  7
Standard
  9
$DIMAUNIT
 70
     0
  9
$DIMADEC
 70
     2
  9
$DIMALTRND
 40
0.0
  9
$DIMAZIN
 70
     0
  9
$DIMDSEP
 70
    44
  9
$DIMATFIT
 70
     3
  9
$DIMFRAC
 70
     0
  9
$DIMLDRBLK
  1

  9
$DIMLUNIT
 70
     2
  9
$DIMLWD
 70
    -2
  9
$DIMLWE
 70
    -2
  9
$DIMTMOVE
 70
     0
  9
$LUNITS
 70
     2
  9
$LUPREC
 70
     2
  9
$SKETCHINC
 40
1.0
  9
$FILLETRAD
 40
10.0
  9
$AUNITS
 70
     0
  9
$AUPREC
 70
     2
  9
$MENU
  1
.
  9
$ELEVATION
 40
0.0
  9
$PELEVATION
 40
0.0
  9
$THICKNESS
 40
0.0
  9
$LIMCHECK
 70
     0
  9
$CHAMFERA
 40
10.0
  9
$CHAMFERB
 40
10.0
  9
$CHAMFERC
 40
20.0
  9
$CHAMFERD
 40
0.0
  9
$SKPOLY
 70
     0
  9
$TDCREATE
 40
2456070.583684097
  9
$TDUCREATE
 40
2456070.500350764
  9
$TDUPDATE
 40
2456070.58368537
  9
$TDUUPDATE
 40
2456070.500352037
  9
$TDINDWG
 40
0.0000000116
  9
$TDUSRTIMER
 40
0.0000000116
  9
$USRTIMER
 70
     1
  9
$ANGBASE
 50
0.0
  9
$ANGDIR
 70
     0
  9
$PDMODE
 70
     0
  9
$PDSIZE
 40
-1.0
  9
$PLINEWID
 40
0.0
  9
$SPLFRAME
 70
     0
  9
$SPLINETYPE
 70
     6
  9
$SPLINESEGS
 70
     8
  9
$HANDSEED
  5
258
  9
$SURFTAB1
 70
     6
  9
$SURFTAB2
 70
     6
  9
$SURFTYPE
 70
     6
  9
$SURFU
 70
     6
  9
$SURFV
 70
     6
  9
$UCSBASE
  2

  9
$UCSNAME
  2

  9
$UCSORG
 10
0.0
 20
0.0
 30
0.0
  9
$UCSXDIR
 10
1.0
 20
0.0
 30
0.0
  9
$UCSYDIR
 10
0.0
 20
1.0
 30
0.0
  9
$UCSORTHOREF
  2

  9
$UCSORTHOVIEW
 70
     0
  9
$UCSORGTOP
 10
0.0
 20
0.0
 30
0.0
  9
$UCSORGBOTTOM
 10
0.0
 20
0.0
 30
0.0
  9
$UCSORGLEFT
 10
0.0
 20
0.0
 30
0.0
  9
$UCSORGRIGHT
 10
0.0
 20
0.0
 30
0.0
  9
$UCSORGFRONT
 10
0.0
 20
0.0
 30
0.0
  9
$UCSORGBACK
 10
0.0
 20
0.0
 30
0.0
  9
$PUCSBASE
  2

  9
$PUCSNAME
  2

  9
$PUCSORG
 10
0.0
 20
0.0
 30
0.0
  9
$PUCSXDIR
 10
1.0
 20
0.0
 30
0.0
  9
$PUCSYDIR
 10
0.0
 20
1.0
 30
0.0
  9
$PUCSORTHOREF
  2

  9
$PUCSORTHOVIEW
 70
     0
  9
$PUCSORGTOP
 10
0.0
 20
0.0
 30
0.0
  9
$PUCSORGBOTTOM
 10
0.0
 20
0.0
 30
0.0
  9
$PUCSORGLEFT
 10
0.0
 20
0.0
 30
0.0
  9
$PUCSORGRIGHT
 10
0.0
 20
0.0
 30
0.0
  9
$PUCSORGFRONT
 10
0.0
 20
0.0
 30
0.0
  9
$PUCSORGBACK
 10
0.0
 20
0.0
 30
0.0
  9
$USERI1
 70
     0
  9
$USERI2
 70
     0
  9
$USERI3
 70
     0
  9
$USERI4
 70
     0
  9
$USERI5
 70
     0
  9
$USERR1
 40
0.0
  9
$USERR2
 40
0.0
  9
$USERR3
 40
0.0
  9
$USERR4
 40
0.0
  9
$USERR5
 40
0.0
  9
$WORLDVIEW
 70
     1
  9
$SHADEDGE
 70
     3
  9
$SHADEDIF
 70
    70
  9
$TILEMODE
 70
     1
  9
$MAXACTVP
 70
    64
  9
$PINSBASE
 10
0.0
 20
0.0
 30
0.0
  9
$PLIMCHECK
 70
     0
  9
$PEXTMIN
 10
1.0000000000E+20
 20
1.0000000000E+20
 30
1.0000000000E+20
  9
$PEXTMAX
 10
-1.0000000000E+20
 20
-1.0000000000E+20
 30
-1.0000000000E+20
  9
$PLIMMIN
 10
0.0
 20
0.0
  9
$PLIMMAX
 10
420.0
 20
297.0
  9
$UNITMODE
 70
     0
  9
$VISRETAIN
 70
     1
  9
$PLINEGEN
 70
     0
  9
$PSLTSCALE
 70
     1
  9
$TREEDEPTH
 70
  3020
  9
$CMLSTYLE
  2
Standard
  9
$CMLJUST
 70
     0
  9
$CMLSCALE
 40
20.0
  9
$PROXYGRAPHICS
 70
     1
  9
$MEASUREMENT
 70
     1
  9
$CELWEIGHT
370
    -1
  9
$ENDCAPS
280
     0
  9
$JOINSTYLE
280
     0
  9
$LWDISPLAY
290
     1
  9
$INSUNITS
 70
     4
  9
$HYPERLINKBASE
  1

  9
$STYLESHEET
  1

  9
$XEDIT
290
     1
  9
$CEPSNTYPE
380
     0
  9
$PSTYLEMODE
290
     1
  9
$FINGERPRINTGUID
  2
{0CEE75E6-A497-4A2B-AA4D-8E98F058717F}
  9
$VERSIONGUID
  2
{FAEB1C32-E019-11D5-929B-00C0DF256EC4}
  9
$EXTNAMES
290
     1
  9
$PSVPSCALE
 40
0.0
  9
$OLESTARTUP
290
     0
  0
ENDSEC
  0
SECTION
  2
CLASSES
  0
CLASS
  1
ACDBDICTIONARYWDFLT
  2
AcDbDictionaryWithDefault
  3
ObjectDBX Classes
 90
        0
280
     0
281
     0
  0
CLASS
  1
VISUALSTYLE
  2
AcDbVisualStyle
  3
ObjectDBX Classes
 90
     4095
280
     0
281
     0
  0
CLASS
  1
MATERIAL
  2
AcDbMaterial
  3
ObjectDBX Classes
 90
     1153
280
     0
281
     0
  0
CLASS
  1
ACDBPLACEHOLDER
  2
AcDbPlaceHolder
  3
ObjectDBX Classes
 90
        0
280
     0
281
     0
  0
CLASS
  1
LAYOUT
  2
AcDbLayout
  3
ObjectDBX Classes
 90
        0
280
     0
281
     0
  0
ENDSEC
  0
SECTION
  2
TABLES
  0
TABLE
  2
VPORT
  5
8
330
0
100
AcDbSymbolTable
 70
     1
  0
VPORT
  5
29
330
8
100
AcDbSymbolTableRecord
100
AcDbViewportTableRecord
  2
*Active
 70
     0
 10
0.0
 20
0.0
 11
1.0
 21
1.0
 12
148.5
 22
105.0
 13
0.0
 23
0.0
 14
10.0
 24
10.0
 15
10.0
 25
10.0
 16
0.0
 26
0.0
 36
1.0
 17
0.0
 27
0.0
 37
0.0
 40
210.0
 41
1.4142857143
 42
50.0
 43
0.0
 44
0.0
 50
0.0
 51
0.0
 71
     0
 72
  2000
 73
     1
 74
     3
 75
     0
 76
     0
 77
     0
 78
     0
281
     0
 65
     1
110
0.0
120
0.0
130
0.0
111
1.0
121
0.0
131
0.0
112
0.0
122
1.0
132
0.0
 79
     0
146
0.0
  0
ENDTAB
  0
TABLE
  2
LTYPE
  5
5
330
0
100
AcDbSymbolTable
 70
     6
  0
LTYPE
  5
14
330
5
100
AcDbSymbolTableRecord
100
AcDbLinetypeTableRecord
  2
ByBlock
 70
     0
  3

 72
    65
 73
     0
 40
0.0
  0
LTYPE
  5
15
330
5
100
AcDbSymbolTableRecord
100
AcDbLinetypeTableRecord
  2
ByLayer
 70
     0
  3

 72
    65
 73
     0
 40
0.0
  0
LTYPE
  5
16
330
5
100
AcDbSymbolTableRecord
100
AcDbLinetypeTableRecord
  2
Continuous
 70
     0
  3
Solid line
 72
    65
 73
     0
 40
0.0
  0
LTYPE
  5
3F
330
5
100
AcDbSymbolTableRecord
100
AcDbLinetypeTableRecord
  2
HIDDEN
 70
     0
  3
Hidden __ __ __ __ __ __ __ __ __ __ __ __ __ __
 72
    65
 73
     2
 40
1.905
 49
1.27
 74
     0
 49
-0.635
 74
     0
  0
LTYPE
  5
40
330
5
100
AcDbSymbolTableRecord
100
AcDbLinetypeTableRecord
  2
PHANTOM
 70
     0
  3
Phantom ______  __  __  ______  __  __  ______
 72
    65
 73
     6
 40
12.7
 49
6.35
 74
     0
 49
-1.27
 74
     0
 49
1.27
 74
     0
 49
-1.27
 74
     0
 49
1.27
 74
     0
 49
-1.27
 74
     0
  0
LTYPE
  5
41
330
5
100
AcDbSymbolTableRecord
100
AcDbLinetypeTableRecord
  2
CENTER
 70
     0
  3
Center ____ _ ____ _ ____ _ ____ _ ____ _ ____
 72
    65
 73
     4
 40
10.16
 49
6.35
 74
     0
 49
-1.27
 74
     0
 49
1.27
 74
     0
 49
-1.27
 74
     0
  0
LTYPE
  5
42
330
5
100
AcDbSymbolTableRecord
100
AcDbLinetypeTableRecord
  2
CENTERX2
 70
     0
  3
Center (2x) ________  __  ________  __  _____
 72
    65
 73
     4
 40
20.32
 49
12.7
 74
     0
 49
-2.54
 74
     0
 49
2.54
 74
     0
 49
-2.54
 74
     0
  0
LTYPE
  5
43
330
5
100
AcDbSymbolTableRecord
100
AcDbLinetypeTableRecord
  2
DOT2
 70
     0
  3
Dot (.5x) ........................................
 72
    65
 73
     2
 40
0.635
 49
0.0
 74
     0
 49
-0.635
 74
     0
  0
ENDTAB
  0
TABLE
  2
LAYER
  5
2
330
0
100
AcDbSymbolTable
 70
     5
  0
LAYER
  5
10
330
2
100
AcDbSymbolTableRecord
100
AcDbLayerTableRecord
  2
0
 70
     0
 62
     7
  6
Continuous
370
    -3
390
F
  0
LAYER
  5
44
330
2
100
AcDbSymbolTableRecord
100
AcDbLayerTableRecord
  2
FORMAT
 70
     0
 62
     7
  6
Continuous
370
    -3
390
F
  0
LAYER
  5
45
330
2
100
AcDbSymbolTableRecord
100
AcDbLayerTableRecord
  2
VERMASSUNG
 70
     0
 62
     7
  6
Continuous
370
    -3
390
F
  0
LAYER
  5
46
330
2
100
AcDbSymbolTableRecord
100
AcDbLayerTableRecord
  2
KOPF_DÜNN
 70
     0
 62
     7
  6
Continuous
370
    -3
390
F
  0
LAYER
  5
47
330
2
100
AcDbSymbolTableRecord
100
AcDbLayerTableRecord
  2
KOPF_DICK
 70
     0
 62
     7
  6
Continuous
370
    15
390
F
  0
ENDTAB
  0
TABLE
  2
STYLE
  5
3
330
0
100
AcDbSymbolTable
 70
     2
  0
STYLE
  5
11
330
3
100
AcDbSymbolTableRecord
100
AcDbTextStyleTableRecord
  2
Standard
 70
     0
 40
0.0
 41
1.0
 50
0.0
 71
     0
 42
2.0
  3
txt
  4

  0
STYLE
  5
48
330
3
100
AcDbSymbolTableRecord
100
AcDbTextStyleTableRecord
  2
SLDTEXTSTYLE0
 70
     0
 40
0.0
 41
0.7
 50
0.0
 71
     0
 42
0.2
  3
TXT
  4

  0
ENDTAB
  0
TABLE
  2
VIEW
  5
6
330
0
100
AcDbSymbolTable
 70
     0
  0
ENDTAB
  0
TABLE
  2
UCS
  5
7
330
0
100
AcDbSymbolTable
 70
     0
  0
ENDTAB
  0
TABLE
  2
APPID
  5
9
330
0
100
AcDbSymbolTable
 70
     1
  0
APPID
  5
12
330
9
100
AcDbSymbolTableRecord
100
AcDbRegAppTableRecord
  2
ACAD
 70
     0
  0
ENDTAB
  0
TABLE
  2
DIMSTYLE
  5
A
330
0
100
AcDbSymbolTable
 70
     5
100
AcDbDimStyleTable
  0
DIMSTYLE
105
27
330
A
100
AcDbSymbolTableRecord
100
AcDbDimStyleTableRecord
  2
ISO-25
 70
     0
 41
2.5
 42
0.625
 43
3.75
 44
1.25
 73
     0
 74
     0
 77
     1
 78
     8
140
2.5
141
2.5
143
0.0393700787
147
0.625
171
     3
172
     1
178
     0
271
     2
272
     2
274
     3
278
    44
283
     0
284
     8
340
11
  0
DIMSTYLE
105
1AD
102
{ACAD_REACTORS
330
1AC
330
1CE
102
}
330
A
100
AcDbSymbolTableRecord
100
AcDbDimStyleTableRecord
  2
SLDDIMSTYLE0
 70
     0
 41
3.0
 44
0.0
 45
0.000000001
 47
0.1
 48
0.1
 71
     1
 73
     0
 74
     0
 77
     1
 78
    12
 79
     3
140
2.0
147
0.5
173
     1
178
     0
271
     2
272
     1
276
     2
284
     8
340
48
  0
DIMSTYLE
105
1BA
102
{ACAD_REACTORS
330
1B9
102
}
330
A
100
AcDbSymbolTableRecord
100
AcDbDimStyleTableRecord
  2
SLDDIMSTYLE1
 70
     0
 41
3.0
 44
0.0
 73
     0
 74
     0
 77
     1
 78
    12
 79
     3
140
2.0
147
0.5
173
     1
178
     0
179
     1
272
     3
276
     2
284
    12
340
48
  0
DIMSTYLE
105
1C4
102
{ACAD_REACTORS
330
1C3
330
1DA
102
}
330
A
100
AcDbSymbolTableRecord
100
AcDbDimStyleTableRecord
  2
SLDDIMSTYLE2
 70
     0
 41
3.0
 44
0.0
 45
0.000000001
 73
     0
 74
     0
 77
     1
 78
    12
 79
     3
140
2.0
147
0.5
173
     1
178
     0
271
     2
272
     3
276
     2
284
    12
340
48
  0
DIMSTYLE
105
23D
102
{ACAD_REACTORS
330
23C
102
}
330
A
100
AcDbSymbolTableRecord
100
AcDbDimStyleTableRecord
  2
SLDDIMSTYLE3
 70
     0
 41
3.0
 44
0.0
 45
0.000000001
 73
     0
 74
     0
 77
     1
 78
    12
 79
     3
140
2.0
147
0.5
172
     1
173
     1
178
     0
271
     2
272
     3
276
     2
284
    12
289
     0
340
48
  0
ENDTAB
  0
TABLE
  2
BLOCK_RECORD
  5
1
330
0
100
AcDbSymbolTable
 70
     8
  0
BLOCK_RECORD
  5
1F
330
1
100
AcDbSymbolTableRecord
100
AcDbBlockTableRecord
  2
*Model_Space
340
22
  0
BLOCK_RECORD
  5
1B
330
1
100
AcDbSymbolTableRecord
100
AcDbBlockTableRecord
  2
*Paper_Space
340
1E
  0
BLOCK_RECORD
  5
23
330
1
100
AcDbSymbolTableRecord
100
AcDbBlockTableRecord
  2
*Paper_Space0
340
26
  0
BLOCK_RECORD
  5
1AE
330
1
100
AcDbSymbolTableRecord
100
AcDbBlockTableRecord
  2
_D
340
0
  0
BLOCK_RECORD
  5
1BB
330
1
100
AcDbSymbolTableRecord
100
AcDbBlockTableRecord
  2
_D_1
340
0
  0
BLOCK_RECORD
  5
1C5
330
1
100
AcDbSymbolTableRecord
100
AcDbBlockTableRecord
  2
_D_2
340
0
  0
BLOCK_RECORD
  5
1CF
330
1
100
AcDbSymbolTableRecord
100
AcDbBlockTableRecord
  2
_D_3
340
0
  0
BLOCK_RECORD
  5
1DB
330
1
100
AcDbSymbolTableRecord
100
AcDbBlockTableRecord
  2
_D_4
340
0
  0
BLOCK_RECORD
  5
23E
330
1
100
AcDbSymbolTableRecord
100
AcDbBlockTableRecord
  2
_D_5
340
0
  0
BLOCK_RECORD
  5
24B
330
1
100
AcDbSymbolTableRecord
100
AcDbBlockTableRecord
  2
SW_CENTERMARKSYMBOL_0
340
0
102
{BLKREFS
331
256
102
}
  0
ENDTAB
  0
ENDSEC
  0
SECTION
  2
BLOCKS
  0
BLOCK
  5
20
330
1F
100
AcDbEntity
  8
0
100
AcDbBlockBegin
  2
*Model_Space
 70
     0
 10
0.0
 20
0.0
 30
0.0
  3
*Model_Space
  1

  0
ENDBLK
  5
21
330
1F
100
AcDbEntity
  8
0
100
AcDbBlockEnd
  0
BLOCK
  5
1C
330
1B
100
AcDbEntity
 67
     1
  8
0
100
AcDbBlockBegin
  2
*Paper_Space
 70
     0
 10
0.0
 20
0.0
 30
0.0
  3
*Paper_Space
  1

  0
ENDBLK
  5
1D
330
1B
100
AcDbEntity
 67
     1
  8
0
100
AcDbBlockEnd
  0
BLOCK
  5
24
330
23
100
AcDbEntity
  8
0
100
AcDbBlockBegin
  2
*Paper_Space0
 70
     0
 10
0.0
 20
0.0
 30
0.0
  3
*Paper_Space0
  1

  0
ENDBLK
  5
25
330
23
100
AcDbEntity
  8
0
100
AcDbBlockEnd
  0
BLOCK
  5
1AF
330
1AE
100
AcDbEntity
  8
0
100
AcDbBlockBegin
  2
_D
 70
     0
 10
0.0
 20
0.0
 30
0.0
  3
_D
  1

  0
SOLID
  5
1B1
330
1AE
100
AcDbEntity
  8
VERMASSUNG
100
AcDbTrace
 10
252.4185114839
 20
126.1354289976
 30
0.0
 11
251.9685114839
 21
123.1354289976
 31
0.0
 12
252.8685114839
 22
123.1354289976
 32
0.0
 13
252.8685114839
 23
123.1354289976
 33
0.0
  0
SOLID
  5
1B2
330
1AE
100
AcDbEntity
  8
VERMASSUNG
100
AcDbTrace
 10
252.4185114839
 20
91.1354289976
 30
0.0
 11
252.8685114839
 21
94.1354289976
 31
0.0
 12
251.9685114839
 22
94.1354289976
 32
0.0
 13
251.9685114839
 23
94.1354289976
 33
0.0
  0
LINE
  5
1B3
330
1AE
100
AcDbEntity
  8
VERMASSUNG
100
AcDbLine
 10
234.3783709273
 20
126.1354289976
 30
0.0
 11
253.4185114839
 21
126.1354289976
 31
0.0
  0
LINE
  5
1B4
330
1AE
100
AcDbEntity
  8
VERMASSUNG
100
AcDbLine
 10
243.2188365707
 20
91.1354289976
 30
0.0
 11
253.4185114839
 21
91.1354289976
 31
0.0
  0
LINE
  5
1B5
330
1AE
100
AcDbEntity
  8
VERMASSUNG
100
AcDbLine
 10
252.4185114839
 20
126.1354289976
 30
0.0
 11
252.4185114839
 21
91.1354289976
 31
0.0
  0
MTEXT
  5
1B6
330
1AE
100
AcDbEntity
  8
VERMASSUNG
100
AcDbMText
 10
249.8403761208
 20
104.0854288105
 30
0.1
 40
2.0
 41
0.0
 71
     1
 72
     1
  1
35
  7
SLDTEXTSTYLE0
 11
-7.044195017643634E-15
 21
1.0
 31
0.0
 73
     1
 44
1.0
  0
MTEXT
  5
1B7
330
1AE
100
AcDbEntity
  8
VERMASSUNG
100
AcDbMText
 10
249.8403761208
 20
109.8729289126
 30
0.1
 40
2.0
 41
0.0
 71
     1
 72
     1
  1

  7
SLDTEXTSTYLE0
 11
-7.044195017643634E-15
 21
1.0
 31
0.0
 73
     1
 44
1.0
  0
MTEXT
  5
1B8
330
1AE
100
AcDbEntity
  8
VERMASSUNG
100
AcDbMText
 10
250.3349099835
 20
109.8854292024
 30
0.1
 40
1.5
 41
0.0
 71
     1
 72
     1
  1
±0.1
  7
SLDTEXTSTYLE0
 11
-7.044195017643634E-15
 21
1.0
 31
0.0
 73
     1
 44
1.0
  0
ENDBLK
  5
1B0
330
1AE
100
AcDbEntity
  8
0
100
AcDbBlockEnd
  0
BLOCK
  5
1BC
330
1BB
100
AcDbEntity
  8
0
100
AcDbBlockBegin
  2
_D_1
 70
     0
 10
0.0
 20
0.0
 30
0.0
  3
_D_1
  1

  0
ARC
  5
1BE
330
1BB
100
AcDbEntity
  8
VERMASSUNG
100
AcDbCircle
 10
234.4011277887
 20
91.1354289976
 30
0.0
 40
12.87935033119228
100
AcDbArc
 50
0.0
 51
93.0324608485
  0
SOLID
  5
1BF
330
1BB
100
AcDbEntity
  8
VERMASSUNG
100
AcDbTrace
 10
247.2804781199
 20
91.1354289976
 30
0.0
 11
247.3850084669
 21
94.1671897742
 31
0.0
 12
246.490893945
 22
94.0644317
 32
0.0
 13
246.490893945
 23
94.0644317
 33
0.0
  0
SOLID
  5
1C0
330
1BB
100
AcDbEntity
  8
VERMASSUNG
100
AcDbTrace
 10
233.7197880029
 20
103.9967446787
 30
0.0
 11
236.686459653
 21
103.3632154209
 31
0.0
 12
236.7417736414
 22
104.2615140142
 32
0.0
 13
236.7417736414
 23
104.2615140142
 33
0.0
  0
LINE
  5
1C1
330
1BB
100
AcDbEntity
  8
VERMASSUNG
100
AcDbLine
 10
243.2188365707
 20
91.1354289976
 30
0.0
 11
248.2804781199
 21
91.1354289976
 31
0.0
  0
MTEXT
  5
1C2
330
1BB
100
AcDbEntity
  8
VERMASSUNG
100
AcDbMText
 10
242.934030951
 20
104.3465390475
 30
0.1
 40
2.0
 41
0.0
 71
     1
 72
     1
  1
93°
  7
SLDTEXTSTYLE0
 11
0.7255693350955876
 21
-0.6881490681305519
 31
0.0
 73
     1
 44
1.0
  0
ENDBLK
  5
1BD
330
1BB
100
AcDbEntity
  8
0
100
AcDbBlockEnd
  0
BLOCK
  5
1C6
330
1C5
100
AcDbEntity
  8
0
100
AcDbBlockBegin
  2
_D_2
 70
     0
 10
0.0
 20
0.0
 30
0.0
  3
_D_2
  1

  0
SOLID
  5
1C8
330
1C5
100
AcDbEntity
  8
VERMASSUNG
100
AcDbTrace
 10
144.3783709273
 20
72.9520935411
 30
0.0
 11
147.3783709273
 21
72.5020935411
 31
0.0
 12
147.3783709273
 22
73.4020935411
 32
0.0
 13
147.3783709273
 23
73.4020935411
 33
0.0
  0
SOLID
  5
1C9
330
1C5
100
AcDbEntity
  8
VERMASSUNG
100
AcDbTrace
 10
234.3783709273
 20
72.9520935411
 30
0.0
 11
231.3783709273
 21
73.4020935411
 31
0.0
 12
231.3783709273
 22
72.5020935411
 32
0.0
 13
231.3783709273
 23
72.5020935411
 33
0.0
  0
LINE
  5
1CA
330
1C5
100
AcDbEntity
  8
VERMASSUNG
100
AcDbLine
 10
144.3783709273
 20
110.1421031594
 30
0.0
 11
144.3783709273
 21
71.9520935411
 31
0.0
  0
LINE
  5
1CB
330
1C5
100
AcDbEntity
  8
VERMASSUNG
100
AcDbLine
 10
234.3783709273
 20
91.1354289976
 30
0.0
 11
234.3783709273
 21
71.9520935411
 31
0.0
  0
LINE
  5
1CC
330
1C5
100
AcDbEntity
  8
VERMASSUNG
100
AcDbLine
 10
144.3783709273
 20
72.9520935411
 30
0.0
 11
234.3783709273
 21
72.9520935411
 31
0.0
  0
MTEXT
  5
1CD
330
1C5
100
AcDbEntity
  8
VERMASSUNG
100
AcDbMText
 10
187.0783708762
 20
75.5302289042
 30
0.1
 40
2.0
 41
0.0
 71
     1
 72
     1
  1
90
  7
SLDTEXTSTYLE0
 73
     1
 44
1.0
  0
ENDBLK
  5
1C7
330
1C5
100
AcDbEntity
  8
0
100
AcDbBlockEnd
  0
BLOCK
  5
1D0
330
1CF
100
AcDbEntity
  8
0
100
AcDbBlockBegin
  2
_D_3
 70
     0
 10
0.0
 20
0.0
 30
0.0
  3
_D_3
  1

  0
SOLID
  5
1D2
330
1CF
100
AcDbEntity
  8
VERMASSUNG
100
AcDbTrace
 10
174.3783709273
 20
82.2347575749
 30
0.0
 11
177.3783709273
 21
81.7847575749
 31
0.0
 12
177.3783709273
 22
82.6847575749
 32
0.0
 13
177.3783709273
 23
82.6847575749
 33
0.0
  0
SOLID
  5
1D3
330
1CF
100
AcDbEntity
  8
VERMASSUNG
100
AcDbTrace
 10
234.3783709273
 20
82.2347575749
 30
0.0
 11
231.3783709273
 21
82.6847575749
 31
0.0
 12
231.3783709273
 22
81.7847575749
 32
0.0
 13
231.3783709273
 23
81.7847575749
 33
0.0
  0
LINE
  5
1D4
330
1CF
100
AcDbEntity
  8
VERMASSUNG
100
AcDbLine
 10
174.3783709273
 20
101.4354289976
 30
0.0
 11
174.3783709273
 21
81.2347575749
 31
0.0
  0
LINE
  5
1D5
330
1CF
100
AcDbEntity
  8
VERMASSUNG
100
AcDbLine
 10
234.3783709273
 20
91.1354289976
 30
0.0
 11
234.3783709273
 21
81.2347575749
 31
0.0
  0
LINE
  5
1D6
330
1CF
100
AcDbEntity
  8
VERMASSUNG
100
AcDbLine
 10
174.3783709273
 20
82.2347575749
 30
0.0
 11
234.3783709273
 21
82.2347575749
 31
0.0
  0
MTEXT
  5
1D7
330
1CF
100
AcDbEntity
  8
VERMASSUNG
100
AcDbMText
 10
199.8283707403
 20
84.812892938
 30
0.1
 40
2.0
 41
0.0
 71
     1
 72
     1
  1
60
  7
SLDTEXTSTYLE0
 73
     1
 44
1.0
  0
MTEXT
  5
1D8
330
1CF
100
AcDbEntity
  8
VERMASSUNG
100
AcDbMText
 10
205.6158708423
 20
84.812892938
 30
0.1
 40
2.0
 41
0.0
 71
     1
 72
     1
  1

  7
SLDTEXTSTYLE0
 73
     1
 44
1.0
  0
MTEXT
  5
1D9
330
1CF
100
AcDbEntity
  8
VERMASSUNG
100
AcDbMText
 10
205.6283711322
 20
84.3183590753
 30
0.1
 40
1.5
 41
0.0
 71
     1
 72
     1
  1
±0.1
  7
SLDTEXTSTYLE0
 73
     1
 44
1.0
  0
ENDBLK
  5
1D1
330
1CF
100
AcDbEntity
  8
0
100
AcDbBlockEnd
  0
BLOCK
  5
1DC
330
1DB
100
AcDbEntity
  8
0
100
AcDbBlockBegin
  2
_D_4
 70
     0
 10
0.0
 20
0.0
 30
0.0
  3
_D_4
  1

  0
SOLID
  5
1DE
330
1DB
100
AcDbEntity
  8
VERMASSUNG
100
AcDbTrace
 10
136.0215013619
 20
151.1354289976
 30
0.0
 11
135.5715013619
 21
148.1354289976
 31
0.0
 12
136.4715013619
 22
148.1354289976
 32
0.0
 13
136.4715013619
 23
148.1354289976
 33
0.0
  0
SOLID
  5
1DF
330
1DB
100
AcDbEntity
  8
VERMASSUNG
100
AcDbTrace
 10
136.0215013619
 20
101.1354289976
 30
0.0
 11
136.4715013619
 21
104.1354289976
 31
0.0
 12
135.5715013619
 22
104.1354289976
 32
0.0
 13
135.5715013619
 23
104.1354289976
 33
0.0
  0
LINE
  5
1E0
330
1DB
100
AcDbEntity
  8
VERMASSUNG
100
AcDbLine
 10
174.6783709273
 20
151.1354289976
 30
0.0
 11
135.0215013619
 21
151.1354289976
 31
0.0
  0
LINE
  5
1E1
330
1DB
100
AcDbEntity
  8
VERMASSUNG
100
AcDbLine
 10
174.6783709273
 20
101.1354289976
 30
0.0
 11
135.0215013619
 21
101.1354289976
 31
0.0
  0
LINE
  5
1E2
330
1DB
100
AcDbEntity
  8
VERMASSUNG
100
AcDbLine
 10
136.0215013619
 20
151.1354289976
 30
0.0
 11
136.0215013619
 21
101.1354289976
 31
0.0
  0
MTEXT
  5
1E3
330
1DB
100
AcDbEntity
  8
VERMASSUNG
100
AcDbMText
 10
133.2433658728
 20
119.7304288883
 30
0.35
 40
2.0
 41
0.0
 71
     1
 72
     1
  1
PSC
  7
SLDTEXTSTYLE0
 11
-7.044195017643634E-15
 21
1.0
 31
0.0
 73
     1
 44
1.0
  0
MTEXT
  5
1E4
330
1DB
100
AcDbEntity
  8
VERMASSUNG
100
AcDbMText
 10
133.4433658823
 20
124.3304289904
 30
0.35
 40
2.0
 41
0.0
 71
     1
 72
     1
  1
%%c
  7
SLDTEXTSTYLE0
 11
-7.044195017643634E-15
 21
1.0
 31
0.0
 73
     1
 44
1.0
  0
MTEXT
  5
1E5
330
1DB
100
AcDbEntity
  8
VERMASSUNG
100
AcDbMText
 10
133.2433658728
 20
127.9404294704
 30
0.35
 40
2.0
 41
0.0
 71
     1
 72
     1
  1
50
  7
SLDTEXTSTYLE0
 11
-7.044195017643634E-15
 21
1.0
 31
0.0
 73
     1
 44
1.0
  0
ENDBLK
  5
1DD
330
1DB
100
AcDbEntity
  8
0
100
AcDbBlockEnd
  0
BLOCK
  5
23F
330
23E
100
AcDbEntity
  8
0
100
AcDbBlockBegin
  2
_D_5
 70
     0
 10
0.0
 20
0.0
 30
0.0
  3
_D_5
  1

  0
SOLID
  5
241
330
23E
100
AcDbEntity
  8
VERMASSUNG
100
AcDbTrace
 10
53.8297871468
 20
100.6526883647
 30
0.0
 11
51.3902687517
 21
98.8495660726
 31
0.0
 12
52.0266648548
 22
98.2131699696
 32
0.0
 13
52.0266648548
 23
98.2131699696
 33
0.0
  0
SOLID
  5
242
330
23E
100
AcDbEntity
  8
VERMASSUNG
100
AcDbTrace
 10
99.791727924
 20
146.6146291418
 30
0.0
 11
102.231246319
 21
148.4177514338
 31
0.0
 12
101.594850216
 22
149.0541475369
 32
0.0
 13
101.594850216
 23
149.0541475369
 33
0.0
  0
LINE
  5
243
330
23E
100
AcDbEntity
  8
VERMASSUNG
100
AcDbLine
 10
53.8297871468
 20
100.6526883647
 30
0.0
 11
53.1226803656
 21
101.3597951459
 31
0.0
  0
LINE
  5
244
330
23E
100
AcDbEntity
  8
VERMASSUNG
100
AcDbLine
 10
99.791727924
 20
146.6146291418
 30
0.0
 11
99.0846211428
 21
147.321735923
 31
0.0
  0
LINE
  5
245
330
23E
100
AcDbEntity
  8
VERMASSUNG
100
AcDbLine
 10
53.8297871468
 20
100.6526883647
 30
0.0
 11
49.5871464597
 21
96.4100476776
 31
0.0
  0
LINE
  5
246
330
23E
100
AcDbEntity
  8
VERMASSUNG
100
AcDbLine
 10
53.8297871468
 20
100.6526883647
 30
0.0
 11
99.791727924
 21
146.6146291418
 31
0.0
  0
LINE
  5
247
330
23E
100
AcDbEntity
  8
VERMASSUNG
100
AcDbLine
 10
99.791727924
 20
146.6146291418
 30
0.0
 11
111.1578924115
 21
157.9807936294
 31
0.0
  0
MTEXT
  5
248
330
23E
100
AcDbEntity
  8
VERMASSUNG
100
AcDbMText
 10
99.5697310711
 20
150.0386664497
 30
0.1
 40
2.0
 41
0.0
 71
     1
 72
     1
  1
%%c
  7
SLDTEXTSTYLE0
 11
0.7071067811865462
 21
0.7071067811865488
 31
0.0
 73
     1
 44
1.0
  0
MTEXT
  5
249
330
23E
100
AcDbEntity
  8
VERMASSUNG
100
AcDbMText
 10
101.9809651983
 20
152.7327433029
 30
0.1
 40
2.0
 41
0.0
 71
     1
 72
     1
  1
65
  7
SLDTEXTSTYLE0
 11
0.7071067811865462
 21
0.7071067811865488
 31
0.0
 73
     1
 44
1.0
  0
MTEXT
  5
24A
330
23E
100
AcDbEntity
  8
VERMASSUNG
100
AcDbMText
 10
106.0733460959
 20
156.8251242005
 30
0.1
 40
2.0
 41
0.0
 71
     1
 72
     1
  1
min.
  7
SLDTEXTSTYLE0
 11
0.7071067811865462
 21
0.7071067811865488
 31
0.0
 73
     1
 44
1.0
  0
ENDBLK
  5
240
330
23E
100
AcDbEntity
  8
0
100
AcDbBlockEnd
  0
BLOCK
  5
24C
330
24B
100
AcDbEntity
  8
0
100
AcDbBlockBegin
  2
SW_CENTERMARKSYMBOL_0
 70
     0
 10
0.0
 20
0.0
 30
0.0
  3
SW_CENTERMARKSYMBOL_0
  1

  0
LINE
  5
24E
330
24B
100
AcDbEntity
  8
VERMASSUNG
 62
     0
100
AcDbLine
 10
0.0
 20
0.0
 30
0.0
 11
0.0
 21
2.5
 31
0.0
  0
LINE
  5
24F
330
24B
100
AcDbEntity
  8
VERMASSUNG
 62
     0
100
AcDbLine
 10
0.0
 20
0.0
 30
0.0
 11
-2.5
 21
0.0
 31
0.0
  0
LINE
  5
250
330
24B
100
AcDbEntity
  8
VERMASSUNG
 62
     0
100
AcDbLine
 10
0.0
 20
0.0
 30
0.0
 11
0.0
 21
-2.5
 31
0.0
  0
LINE
  5
251
330
24B
100
AcDbEntity
  8
VERMASSUNG
 62
     0
100
AcDbLine
 10
0.0
 20
0.0
 30
0.0
 11
2.5
 21
0.0
 31
0.0
  0
LINE
  5
252
330
24B
100
AcDbEntity
  8
VERMASSUNG
 62
     0
100
AcDbLine
 10
0.0
 20
5.0
 30
0.0
 11
0.0
 21
27.5
 31
0.0
  0
LINE
  5
253
330
24B
100
AcDbEntity
  8
VERMASSUNG
 62
     0
100
AcDbLine
 10
-5.0
 20
0.0
 30
0.0
 11
-27.5
 21
0.0
 31
0.0
  0
LINE
  5
254
330
24B
100
AcDbEntity
  8
VERMASSUNG
 62
     0
100
AcDbLine
 10
0.0
 20
-5.0
 30
0.0
 11
0.0
 21
-37.7864541525
 31
0.0
  0
LINE
  5
255
330
24B
100
AcDbEntity
  8
VERMASSUNG
 62
     0
100
AcDbLine
 10
5.0
 20
0.0
 30
0.0
 11
27.5
 21
0.0
 31
0.0
  0
ENDBLK
  5
24D
330
24B
100
AcDbEntity
  8
0
100
AcDbBlockEnd
  0
ENDSEC
  0
SECTION
  2
ENTITIES
  0
MTEXT
  5
49
330
1F
100
AcDbEntity
  8
KOPF_DÜNN
100
AcDbMText
 10
13.8892156294
 20
23.8442973028
 30
0.0
 40
3.0
 41
0.0
 71
     1
 72
     1
  1
PS5.PDF.LUA.060
  7
SLDTEXTSTYLE0
 73
     1
 44
1.0
  0
MTEXT
  5
4A
330
1F
100
AcDbEntity
  8
VERMASSUNG
100
AcDbMText
 10
13.9329988022
 20
28.8834360957
 30
0.0
 40
3.0
 41
0.0
 71
     1
 72
     1
  1
Klemmhalter links_Turning tool left 93° /55°
  7
SLDTEXTSTYLE0
 73
     1
 44
1.0
  0
MTEXT
  5
4B
330
1F
100
AcDbEntity
  8
VERMASSUNG
100
AcDbMText
 10
98.8601118557
 20
13.8365368179
 30
0.0
 40
2.0
 41
0.0
 71
     1
 72
     1
  1
Datum: 22.05.2012
  7
SLDTEXTSTYLE0
 73
     1
 44
1.0
  0
MTEXT
  5
4C
330
1F
100
AcDbEntity
  8
VERMASSUNG
100
AcDbMText
 10
13.933048693
 20
18.0482802738
 30
0.0
 40
2.0
 41
0.0
 71
     1
 72
     1
  1
PSC ø50 / DN..15 06..
  7
SLDTEXTSTYLE0
 73
     1
 44
1.0
  0
MTEXT
  5
4D
330
1F
100
AcDbEntity
  8
VERMASSUNG
100
AcDbMText
 10
13.9808475933
 20
13.9090973692
 30
0.0
 40
2.0
 41
0.0
 71
     1
 72
     1
  1
Gewicht: 785g
  7
SLDTEXTSTYLE0
 73
     1
 44
1.0
  0
LINE
  5
4E
330
1F
100
AcDbEntity
  8
0
  6
Continuous
 62
     7
370
    15
100
AcDbLine
 10
224.9119644054
 20
102.3429927503
 30
0.0
 11
225.5076207786
 21
101.5976466542
 31
0.0
  0
LINE
  5
4F
330
1F
100
AcDbEntity
  8
0
  6
Continuous
 62
     7
370
    15
100
AcDbLine
 10
221.304775212
 20
98.8142927098
 30
0.0
 11
221.3871184426
 21
98.6782491727
 31
0.0
  0
LINE
  5
50
330
1F
100
AcDbEntity
  8
0
  6
Continuous
 62
     7
370
    15
100
AcDbLine
 10
233.5676754263
 20
106.0079247917
 30
0.0
 11
233.1482242247
 21
106.7009219539
 31
0.0
  0
ARC
  5
51
330
1F
100
AcDbEntity
  8
0
  6
Continuous
 62
     7
370
    15
100
AcDbCircle
 10
174.6783709273
 20
101.4354289976
 30
0.0
 40
0.3000000000000114
100
AcDbArc
 50
180.0
 51
270.0
  0
ARC
  5
52
330
1F
100
AcDbEntity
  8
0
  6
Continuous
 62
     7
370
    15
100
AcDbCircle
 10
174.6783709273
 20
150.8354289976
 30
0.0
 40
0.3000000000000114
100
AcDbArc
 50
90.0
 51
180.0
  0
LINE
  5
53
330
1F
100
AcDbEntity
  8
0
  6
Continuous
 62
     7
370
    15
100
AcDbLine
 10
206.6110439393
 20
151.1354289976
 30
0.0
 11
174.6783709273
 21
151.1354289976
 31
0.0
  0
LINE
  5
54
330
1F
100
AcDbEntity
  8
0
  6
Continuous
 62
     7
370
    15
100
AcDbLine
 10
174.6783709273
 20
101.1354289976
 30
0.0
 11
206.6110439393
 21
101.1354289976
 31
0.0
  0
LWPOLYLINE
  5
55
330
1F
100
AcDbEntity
  8
0
  6
Continuous
 62
     7
370
    15
100
AcDbPolyline
 90
        3
 70
   128
 43
0.0
 10
174.1783709273
 20
108.2956087187
 10
174.3038258708
 20
108.2273066037
 10
174.3783709273
 20
108.1745688456
  0
LWPOLYLINE
  5
56
330
1F
100
AcDbEntity
  8
0
  6
Continuous
 62
     7
370
    15
100
AcDbPolyline
 90
        3
 70
   128
 43
0.0
 10
174.3783709273
 20
144.0962891495
 10
174.3038258708
 20
144.0435513914
 10
174.1783709273
 20
143.9752492764
  0
ARC
  5
57
330
1F
100
AcDbEntity
  8
0
  6
Continuous
 62
     7
370
    15
100
AcDbCircle
 10
206.6110439393
 20
152.1354289976
 30
0.0
 40
1.000000000000008
100
AcDbArc
 50
270.0
 51
330.0
  0
ARC
  5
58
330
1F
100
AcDbEntity
  8
0
  6
Continuous
 62
     7
370
    15
100
AcDbCircle
 10
206.6110439393
 20
100.1354289976
 30
0.0
 40
1.0
100
AcDbArc
 50
15.0
 51
90.0
  0
LINE
  5
59
330
1F
100
AcDbEntity
  8
0
  6
Continuous
 62
     7
370
    15
100
AcDbLine
 10
211.0392301092
 20
151.6354289976
 30
0.0
 11
207.4770693431
 21
151.6354289976
 31
0.0
  0
LINE
  5
5A
330
1F
100
AcDbEntity
  8
0
  6
Continuous
 62
     7
370
    15
100
AcDbLine
 10
207.5769697656
 20
100.3942480427
 30
0.0
 11
207.6178446623
 21
100.2417008512
 31
0.0
  0
ARC
  5
5B
330
1F
100
AcDbEntity
  8
0
  6
Continuous
 62
     7
370
    15
100
AcDbCircle
 10
220.663825318
 20
113.6418751837
 30
0.0
 40
0.9939519164425245
100
AcDbArc
 50
142.6204511325
 51
182.8658889056
  0
LINE
  5
5C
330
1F
100
AcDbEntity
  8
0
  6
Continuous
 62
     7
370
    15
100
AcDbLine
 10
219.9721585107
 20
113.0948121207
 30
0.0
 11
220.1390425333
 21
109.944624592
 31
0.0
  0
LINE
  5
5D
330
1F
100
AcDbEntity
  8
0
  6
Continuous
 62
     7
370
    15
100
AcDbLine
 10
219.6711165365
 20
113.5921792352
 30
0.0
 11
219.8380005591
 21
110.4419917066
 31
0.0
  0
CIRCLE
  5
5E
330
1F
100
AcDbEntity
  8
0
  6
Continuous
 62
     7
370
    15
100
AcDbCircle
 10
225.2172771459
 20
117.5920146668
 30
0.0
 40
3.468459991946017
  0
CIRCLE
  5
5F
330
1F
100
AcDbEntity
  8
0
  6
Continuous
 62
     7
370
    15
100
AcDbCircle
 10
225.2469529621
 20
117.5840812864
 30
0.0
 40
1.983211890898656
  0
SPLINE
  5
60
330
1F
100
AcDbEntity
  8
0
  6
Continuous
 62
     7
370
    15
100
AcDbSpline
210
0.0
220
0.0
230
1.0
 70
     8
 71
     3
 72
    14
 73
    10
 74
     0
 42
0.00000001
 43
0.00000001
 12
1.0
 22
0.0
 32
0.0
 13
1.0
 23
0.0
 33
0.0
 40
0.0
 40
0.0
 40
0.0
 40
0.0
 40
0.1077749207859761
 40
0.2867612133939438
 40
0.4711953518304289
 40
0.6394547261041736
 40
0.8140630833004763
 40
0.90682668604284
 40
1.0
 40
1.0
 40
1.0
 40
1.0
 10
226.6008464401893
 20
118.7095602304058
 30
0.0
 10
226.5435802590685
 20
118.7343100146837
 30
0.0
 10
226.3912097496319
 20
118.8001627948948
 30
0.0
 10
226.1313088188349
 20
118.9077671651844
 30
0.0
 10
225.8304187673405
 20
119.0244840991917
 30
0.0
 10
225.5367258177837
 20
119.1291579782524
 30
0.0
 10
225.3077277694525
 20
119.2038657279182
 30
0.0
 10
225.1281301611052
 20
119.2590861007673
 30
0.0
 10
225.0395837576623
 20
119.2850038265373
 30
0.0
 10
224.995213000127
 20
119.2979912442222
 30
0.0
  0
SPLINE
  5
61
330
1F
100
AcDbEntity
  8
0
  6
Continuous
 62
     7
370
    15
100
AcDbSpline
210
0.0
220
0.0
230
1.0
 70
     8
 71
     3
 72
    10
 73
     6
 74
     0
 42
0.00000001
 43
0.00000001
 12
1.0
 22
0.0
 32
0.0
 13
1.0
 23
0.0
 33
0.0
 40
0.0
 40
0.0
 40
0.0
 40
0.0
 40
0.439116537590409
 40
0.7513669429073248
 40
1.0
 40
1.0
 40
1.0
 40
1.0
 10
224.995213000127
 20
119.2979912442222
 30
0.0
 10
224.7922037058397
 20
119.159321652388
 30
0.0
 10
224.4448369824925
 20
118.9220458078879
 30
0.0
 10
223.9747566400819
 20
118.5194988056684
 30
0.0
 10
223.7512308522298
 20
118.3018780264664
 30
0.0
 10
223.6521444934808
 20
118.2054092887585
 30
0.0
  0
SPLINE
  5
62
330
1F
100
AcDbEntity
  8
0
  6
Continuous
 62
     7
370
    15
100
AcDbSpline
210
0.0
220
0.0
230
1.0
 70
     8
 71
     3
 72
    10
 73
     6
 74
     0
 42
0.00000001
 43
0.00000001
 12
1.0
 22
0.0
 32
0.0
 13
1.0
 23
0.0
 33
0.0
 40
0.0
 40
0.0
 40
0.0
 40
0.0
 40
0.4391165375903774
 40
0.75136694290732
 40
1.0
 40
1.0
 40
1.0
 40
1.0
 10
223.6521444934808
 20
118.2054092887585
 30
0.0
 10
223.6789940043139
 20
117.9825012609546
 30
0.0
 10
223.7249358742874
 20
117.601086057784
 30
0.0
 10
223.8265990384965
 20
116.98900703982
 30
0.0
 10
223.8876474032052
 20
116.6670957962323
 30
0.0
 10
223.914709426897
 20
116.5243963194784
 30
0.0
  0
SPLINE
  5
63
330
1F
100
AcDbEntity
  8
0
  6
Continuous
 62
     7
370
    15
100
AcDbSpline
210
0.0
220
0.0
230
1.0
 70
     8
 71
     3
 72
    14
 73
    10
 74
     0
 42
0.00000001
 43
0.00000001
 12
1.0
 22
0.0
 32
0.0
 13
1.0
 23
0.0
 33
0.0
 40
0.0
 40
0.0
 40
0.0
 40
0.0
 40
0.0927891276284353
 40
0.1859364241092271
 40
0.3545705453231298
 40
0.5287967792096624
 40
0.7072383843481047
 40
0.8922253340288142
 40
1.0
 40
1.0
 40
1.0
 40
1.0
 10
223.914709426897
 20
116.5243963194784
 30
0.0
 10
223.9588950422231
 20
116.5114636443406
 30
0.0
 10
224.0474368306932
 20
116.4855483735457
 30
0.0
 10
224.2240575007435
 20
116.4312469952614
 30
0.0
 10
224.452897744554
 20
116.3566901058287
 30
0.0
 10
224.7432167405608
 20
116.2533812143363
 30
0.0
 10
225.0473626621239
 20
116.1355652131915
 30
0.0
 10
225.3075241730492
 20
116.0279425510267
 30
0.0
 10
225.4630784824306
 20
115.9607141670035
 30
0.0
 10
225.5203428669594
 20
115.9359653056621
 30
0.0
  0
SPLINE
  5
64
330
1F
100
AcDbEntity
  8
0
  6
Continuous
 62
     7
370
    15
100
AcDbSpline
210
0.0
220
0.0
230
1.0
 70
     8
 71
     3
 72
    13
 73
     9
 74
     0
 42
0.00000001
 43
0.00000001
 12
1.0
 22
0.0
 32
0.0
 13
1.0
 23
0.0
 33
0.0
 40
0.0
 40
0.0
 40
0.0
 40
0.0
 40
0.2161241182544761
 40
0.439636920206517
 40
0.5932538221761652
 40
0.7520048557756922
 40
0.8754343578245686
 40
0.9999999999999999
 40
0.9999999999999999
 40
0.9999999999999999
 40
0.9999999999999999
 10
225.5203428669594
 20
115.9359653056621
 30
0.0
 10
225.6066239296048
 20
116.0201643622464
 30
0.0
 10
225.7821357649331
 20
116.1914410074445
 30
0.0
 10
226.0495094890153
 20
116.4276007977954
 30
0.0
 10
226.3018065543019
 20
116.6312188245283
 30
0.0
 10
226.5077376402097
 20
116.7848164852093
 30
0.0
 10
226.6960270194598
 20
116.9172258664535
 30
0.0
 10
226.8074464402969
 20
116.9913269697761
 30
0.0
 10
226.8634113736055
 20
117.0285472611257
 30
0.0
  0
SPLINE
  5
65
330
1F
100
AcDbEntity
  8
0
  6
Continuous
 62
     7
370
    15
100
AcDbSpline
210
0.0
220
0.0
230
1.0
 70
     8
 71
     3
 72
    10
 73
     6
 74
     0
 42
0.00000001
 43
0.00000001
 12
1.0
 22
0.0
 32
0.0
 13
1.0
 23
0.0
 33
0.0
 40
0.0
 40
0.0
 40
0.0
 40
0.0
 40
0.4391165375904309
 40
0.751366942907377
 40
1.0
 40
1.0
 40
1.0
 40
1.0
 10
226.8634113736055
 20
117.0285472611257
 30
0.0
 10
226.8150844956618
 20
117.2869391650115
 30
0.0
 10
226.7323929652083
 20
117.7290703950491
 30
0.0
 10
226.6470647626446
 20
118.3141615726584
 30
0.0
 10
226.6150418303128
 20
118.5881183886673
 30
0.0
 10
226.6008464401893
 20
118.7095602304058
 30
0.0
  0
LINE
  5
66
330
1F
100
AcDbEntity
  8
0
  6
Continuous
 62
     7
370
    15
100
AcDbLine
 10
226.4733058379
 20
117.6730609214
 30
0.0
 11
226.8634113736
 21
117.0285472611
 31
0.0
  0
LINE
  5
67
330
1F
100
AcDbEntity
  8
0
  6
Continuous
 62
     7
370
    15
100
AcDbLine
 10
226.4733058379
 20
117.6730609214
 30
0.0
 11
226.3420233711
 21
118.513567406
 31
0.0
  0
LINE
  5
68
330
1F
100
AcDbEntity
  8
0
  6
Continuous
 62
     7
370
    15
100
AcDbLine
 10
226.3420233711
 20
118.513567406
 30
0.0
 11
226.2909606143
 21
118.8404852292
 31
0.0
  0
LINE
  5
69
330
1F
100
AcDbEntity
  8
0
  6
Continuous
 62
     7
370
    15
100
AcDbLine
 10
223.8169899547
 20
117.0617566137
 30
0.0
 11
224.3274206112
 21
116.8746944728
 31
0.0
  0
LINE
  5
6A
330
1F
100
AcDbEntity
  8
0
  6
Continuous
 62
     7
370
    15
100
AcDbLine
 10
224.3274206112
 20
116.8746944728
 30
0.0
 11
225.1302373312
 21
116.5804789659
 31
0.0
  0
LINE
  5
6B
330
1F
100
AcDbEntity
  8
0
  6
Continuous
 62
     7
370
    15
100
AcDbLine
 10
225.1302373312
 20
116.5804789659
 30
0.0
 11
225.520342867
 21
115.9359653057
 31
0.0
  0
LINE
  5
6C
330
1F
100
AcDbEntity
  8
0
  6
Continuous
 62
     7
370
    15
100
AcDbLine
 10
225.1302373312
 20
116.5804789659
 30
0.0
 11
225.8017715845
 21
117.1267699437
 31
0.0
  0
LINE
  5
6D
330
1F
100
AcDbEntity
  8
0
  6
Continuous
 62
     7
370
    15
100
AcDbLine
 10
225.8017715845
 20
117.1267699437
 30
0.0
 11
226.4733058379
 21
117.6730609214
 31
0.0
  0
LWPOLYLINE
  5
6E
330
1F
100
AcDbEntity
  8
0
  6
Continuous
 62
     7
370
    15
100
AcDbPolyline
 90
        3
 70
   128
 43
0.0
 10
226.2421644988
 20
118.8607313554
 10
226.2997300171
 20
118.7014308877
 10
226.3420233711
 20
118.513567406
  0
ARC
  5
6F
330
1F
100
AcDbEntity
  8
0
  6
Continuous
 62
     7
370
    15
100
AcDbCircle
 10
224.8639177214
 20
118.2907588218
 30
0.0
 40
1.494804327292772
100
AcDbArc
 50
308.85922951
 51
8.5721867676
  0
ARC
  5
70
330
1F
100
AcDbEntity
  8
0
  6
Continuous
 62
     7
370
    15
100
AcDbCircle
 10
224.8425451812
 20
118.2994741445
 30
0.0
 40
1.515041397302381
100
AcDbArc
 50
250.1227038882
 51
309.2818303983
  0
ARC
  5
71
330
1F
100
AcDbEntity
  8
0
  6
Continuous
 62
     7
370
    15
100
AcDbCircle
 10
224.8268245161
 20
118.2416539368
 30
0.0
 40
1.455328978766923
100
AcDbArc
 50
223.8502405222
 51
249.9307687666
  0
ELLIPSE
  5
72
330
1F
100
AcDbEntity
  8
0
  6
Continuous
 62
     7
370
    15
100
AcDbEllipse
 10
227.3493874124
 20
103.0572655801
 30
0.0
 11
1.980360473108362
 21
1.266117462755034
 31
0.0
210
0.0
220
0.0
230
1.0
 40
0.9803342941
 41
4.292337748685607
 42
6.068274463826915
  0
ELLIPSE
  5
73
330
1F
100
AcDbEntity
  8
0
  6
Continuous
 62
     7
370
    15
100
AcDbEllipse
 10
227.3493874124
 20
103.0572655801
 30
0.0
 11
1.980360473108362
 21
1.266117462755034
 31
0.0
210
0.0
220
0.0
230
1.0
 40
0.9803342941
 41
2.587145034229468
 42
4.292337748685618
  0
SPLINE
  5
74
330
1F
100
AcDbEntity
  8
0
  6
Continuous
 62
     7
370
    15
100
AcDbSpline
210
0.0
220
0.0
230
1.0
 70
     8
 71
     3
 72
    12
 73
     8
 74
     0
 42
0.00000001
 43
0.00000001
 12
1.0
 22
0.0
 32
0.0
 13
1.0
 23
0.0
 33
0.0
 40
0.0
 40
0.0
 40
0.0
 40
0.0
 40
0.1889941455283569
 40
0.4453748306043134
 40
0.705611537319813
 40
0.9677427573611831
 40
1.0
 40
1.0
 40
1.0
 40
1.0
 10
224.9839435995998
 20
101.9750615401571
 30
0.0
 10
225.0123241610126
 20
101.943842796337
 30
0.0
 10
225.0792044746663
 20
101.8702741537652
 30
0.0
 10
225.2066139398839
 20
101.7700186915343
 30
0.0
 10
225.353903278032
 20
101.6680089022783
 30
0.0
 10
225.4642497672461
 20
101.6008339049334
 30
0.0
 10
225.52679532159
 20
101.5715301219293
 30
0.0
 10
225.5336486714261
 20
101.5683191970513
 30
0.0
  0
LINE
  5
75
330
1F
100
AcDbEntity
  8
0
  6
Continuous
 62
     7
370
    15
100
AcDbLine
 10
225.332920129
 20
101.6509941698
 30
0.0
 11
224.9710795814
 21
101.7531264911
 31
0.0
  0
LINE
  5
76
330
1F
100
AcDbEntity
  8
0
  6
Continuous
 62
     7
370
    15
100
AcDbLine
 10
220.57592284
 20
113.1306150681
 30
0.0
 11
221.3320536849
 21
98.8575053877
 31
0.0
  0
ARC
  5
77
330
1F
100
AcDbEntity
  8
0
  6
Continuous
 62
     7
370
    15
100
AcDbCircle
 10
220.9790594672
 20
113.1487593619
 30
0.0
 40
0.4035447379891386
100
AcDbArc
 50
59.4803828922
 51
182.5770179927
  0
LINE
  5
78
330
1F
100
AcDbEntity
  8
0
  6
Continuous
 62
     7
370
    15
100
AcDbLine
 10
233.4362831333
 20
106.1387149133
 30
0.0
 11
221.1839929395
 21
113.4963951303
 31
0.0
  0
ARC
  5
79
330
1F
100
AcDbEntity
  8
0
  6
Continuous
 62
     7
370
    15
100
AcDbCircle
 10
233.2385013154
 20
105.8086826451
 30
0.0
 40
0.3847582949293293
100
AcDbArc
 50
2.9775189463
 51
59.066575925
  0
LINE
  5
7A
330
1F
100
AcDbEntity
  8
0
  6
Continuous
 62
     7
370
    15
100
AcDbLine
 10
234.3788710288
 20
91.5555588963
 30
0.0
 11
233.6227401839
 21
105.8286685768
 31
0.0
  0
ARC
  5
7B
330
1F
100
AcDbEntity
  8
0
  6
Continuous
 62
     7
370
    15
100
AcDbCircle
 10
233.9757344017
 20
91.5374146025
 30
0.0
 40
0.403544737989166
100
AcDbArc
 50
239.4803828922
 51
2.5770179927
  0
LINE
  5
7C
330
1F
100
AcDbEntity
  8
0
  6
Continuous
 62
     7
370
    15
100
AcDbLine
 10
221.5185107356
 20
98.5474590511
 30
0.0
 11
233.7708009293
 21
91.1897788341
 31
0.0
  0
ARC
  5
7D
330
1F
100
AcDbEntity
  8
0
  6
Continuous
 62
     7
370
    15
100
AcDbCircle
 10
221.7162925534
 20
98.8774913193
 30
0.0
 40
0.3847582949293591
100
AcDbArc
 50
182.9775189463
 51
239.066575925
  0
ARC
  5
7E
330
1F
100
AcDbEntity
  8
0
  6
Continuous
 62
     7
370
    15
100
AcDbCircle
 10
233.9760280543
 20
91.536928474
 30
0.0
 40
0.3833675010897176
100
AcDbArc
 50
239.4803828922
 51
2.5770179927
  0
LINE
  5
7F
330
1F
100
AcDbEntity
  8
0
  6
Continuous
 62
     7
370
    15
100
AcDbLine
 10
234.3590078501
 20
91.5541655532
 30
0.0
 11
233.6028770049
 21
105.8272752336
 31
0.0
  0
ARC
  5
80
330
1F
100
AcDbEntity
  8
0
  6
Continuous
 62
     7
370
    15
100
AcDbCircle
 10
233.2378500787
 20
105.8082885981
 30
0.0
 40
0.3655203813246841
100
AcDbArc
 50
2.9775190128
 51
59.066575771
  0
LINE
  5
81
330
1F
100
AcDbEntity
  8
0
  6
Continuous
 62
     7
370
    15
100
AcDbLine
 10
233.4257428071
 20
106.1218192533
 30
0.0
 11
221.1734526133
 21
113.4794994703
 31
0.0
  0
ARC
  5
82
330
1F
100
AcDbEntity
  8
0
  6
Continuous
 62
     7
370
    15
100
AcDbCircle
 10
220.9787658146
 20
113.1492454903
 30
0.0
 40
0.3833675010897047
100
AcDbArc
 50
59.4803828922
 51
182.5770179927
  0
LINE
  5
83
330
1F
100
AcDbEntity
  8
0
  6
Continuous
 62
     7
370
    15
100
AcDbLine
 10
220.5957860188
 20
113.1320084112
 30
0.0
 11
221.3519168637
 21
98.8588987308
 31
0.0
  0
ARC
  5
84
330
1F
100
AcDbEntity
  8
0
  6
Continuous
 62
     7
370
    15
100
AcDbCircle
 10
221.7169437887
 20
98.8778853658
 30
0.0
 40
0.365520380182829
100
AcDbArc
 50
182.9775189463
 51
239.066575925
  0
LINE
  5
85
330
1F
100
AcDbEntity
  8
0
  6
Continuous
 62
     7
370
    15
100
AcDbLine
 10
221.5290510618
 20
98.564354711
 30
0.0
 11
233.7813412556
 21
91.2066744941
 31
0.0
  0
LINE
  5
86
330
1F
100
AcDbEntity
  8
0
  6
Continuous
 62
     7
370
    15
100
AcDbLine
 10
220.9502535913
 20
113.1963704428
 30
0.0
 11
220.5957860188
 21
113.1320084112
 31
0.0
  0
LINE
  5
87
330
1F
100
AcDbEntity
  8
0
  6
Continuous
 62
     7
370
    15
100
AcDbLine
 10
220.9502535913
 20
113.1963704428
 30
0.0
 11
221.1734526133
 21
113.4794994703
 31
0.0
  0
LINE
  5
88
330
1F
100
AcDbEntity
  8
0
  6
Continuous
 62
     7
370
    15
100
AcDbLine
 10
221.7063844362
 20
98.9232607624
 30
0.0
 11
221.3519168637
 21
98.8588987308
 31
0.0
  0
LINE
  5
89
330
1F
100
AcDbEntity
  8
0
  6
Continuous
 62
     7
370
    15
100
AcDbLine
 10
221.9888743115
 20
111.4686729478
 30
0.0
 11
220.9502535913
 21
113.1963704428
 31
0.0
  0
LINE
  5
8A
330
1F
100
AcDbEntity
  8
0
  6
Continuous
 62
     7
370
    15
100
AcDbLine
 10
221.9888743115
 20
111.4686729478
 30
0.0
 11
222.0240194137
 21
110.8052561583
 31
0.0
  0
LINE
  5
8B
330
1F
100
AcDbEntity
  8
0
  6
Continuous
 62
     7
370
    15
100
AcDbLine
 10
222.097783411
 20
99.2174795707
 30
0.0
 11
221.7063844362
 21
98.9232607624
 31
0.0
  0
LINE
  5
8C
330
1F
100
AcDbEntity
  8
0
  6
Continuous
 62
     7
370
    15
100
AcDbLine
 10
219.9121670983
 20
114.227240477
 30
0.0
 11
220.1390425333
 21
109.944624592
 31
0.0
  0
LINE
  5
8D
330
1F
100
AcDbEntity
  8
0
  6
Continuous
 62
     7
370
    15
100
AcDbLine
 10
233.202543785
 20
105.8386902258
 30
0.0
 11
233.4257428071
 21
106.1218192533
 31
0.0
  0
LINE
  5
8E
330
1F
100
AcDbEntity
  8
0
  6
Continuous
 62
     7
370
    15
100
AcDbLine
 10
232.758985432
 20
105.630646641
 30
0.0
 11
233.202543785
 21
105.8386902258
 31
0.0
  0
LINE
  5
8F
330
1F
100
AcDbEntity
  8
0
  6
Continuous
 62
     7
370
    15
100
AcDbLine
 10
222.5583630359
 20
111.1266866045
 30
0.0
 11
221.9888743115
 21
111.4686729478
 31
0.0
  0
ARC
  5
90
330
1F
100
AcDbEntity
  8
0
  6
Continuous
 62
     7
370
    15
100
AcDbCircle
 10
223.8519079631
 20
108.371766304
 30
0.0
 40
1.00886184497286
100
AcDbArc
 50
59.4803828922
 51
182.5770179927
  0
LINE
  5
91
330
1F
100
AcDbEntity
  8
0
  6
Continuous
 62
     7
370
    15
100
AcDbLine
 10
222.5504266125
 20
110.5371604349
 30
0.0
 11
222.5484363247
 21
110.535963192
 31
0.0
  0
SPLINE
  5
92
330
1F
100
AcDbEntity
  8
0
  6
Continuous
 62
     7
370
    15
100
AcDbSpline
210
0.0
220
0.0
230
1.0
 70
     8
 71
     3
 72
    14
 73
    10
 74
     0
 42
0.00000001
 43
0.00000001
 12
1.0
 22
0.0
 32
0.0
 13
1.0
 23
0.0
 33
0.0
 40
0.0
 40
0.0
 40
0.0
 40
0.0
 40
0.2210591904779618
 40
0.3460797326519224
 40
0.4396016244131496
 40
0.5338897453199797
 40
0.6146561933587604
 40
0.7517253237593926
 40
1.0
 40
1.0
 40
1.0
 40
1.0
 10
222.5504266125319
 20
110.5371604348863
 30
0.0
 10
222.6001176204411
 20
110.5692065743976
 30
0.0
 10
222.6779114940875
 20
110.619376483057
 30
0.0
 10
222.7568971379535
 20
110.7074364936027
 30
0.0
 10
222.7929404617986
 20
110.7835222367398
 30
0.0
 10
222.7968000530012
 20
110.8560122587753
 30
0.0
 10
222.7711666918676
 20
110.934467747839
 30
0.0
 10
222.6974426516237
 20
111.0341690809257
 30
0.0
 10
222.6128594678743
 20
111.0904348870518
 30
0.0
 10
222.55836303586
 20
111.1266866045016
 30
0.0
  0
SPLINE
  5
93
330
1F
100
AcDbEntity
  8
0
  6
Continuous
 62
     7
370
    15
100
AcDbSpline
210
0.0
220
0.0
230
1.0
 70
     8
 71
     3
 72
    14
 73
    10
 74
     0
 42
0.00000001
 43
0.00000001
 12
1.0
 22
0.0
 32
0.0
 13
1.0
 23
0.0
 33
0.0
 40
0.0
 40
0.0
 40
0.0
 40
0.0
 40
0.2234968253973692
 40
0.3567622963774661
 40
0.4531212562341377
 40
0.5344619041500376
 40
0.6157317558035381
 40
0.7396161778922065
 40
1.0
 40
1.0
 40
1.0
 40
1.0
 10
222.0240194136506
 20
110.8052561583414
 30
0.0
 10
222.0296864048823
 20
110.7467119721615
 30
0.0
 10
222.0387324788109
 20
110.6532593771908
 30
0.0
 10
222.0846253984511
 20
110.5425271621476
 30
0.0
 10
222.1371088238842
 20
110.478910662617
 30
0.0
 10
222.1971623890732
 20
110.4443046218525
 30
0.0
 10
222.272907524637
 20
110.4312872436701
 30
0.0
 10
222.397238315623
 20
110.4516412866156
 30
0.0
 10
222.4873653725578
 20
110.5019044164876
 30
0.0
 10
222.5484363247232
 20
110.535963192004
 30
0.0
  0
LINE
  5
94
330
1F
100
AcDbEntity
  8
0
  6
Continuous
 62
     7
370
    15
100
AcDbLine
 10
222.8440663952
 20
108.3264055695
 30
0.0
 11
223.2672455067
 21
100.3382618324
 31
0.0
  0
LINE
  5
95
330
1F
100
AcDbEntity
  8
0
  6
Continuous
 62
     7
370
    15
100
AcDbLine
 10
231.2214057356
 20
105.1230279734
 30
0.0
 11
224.3642416439
 21
109.2408557251
 31
0.0
  0
ARC
  5
96
330
1F
100
AcDbEntity
  8
0
  6
Continuous
 62
     7
370
    15
100
AcDbCircle
 10
230.726951191
 20
104.2979473029
 30
0.0
 40
0.9618957373234303
100
AcDbArc
 50
2.9775189463
 51
59.066575925
  0
LINE
  5
97
330
1F
100
AcDbEntity
  8
0
  6
Continuous
 62
     7
370
    15
100
AcDbLine
 10
232.1107274737
 20
96.3597683949
 30
0.0
 11
231.6875483622
 21
104.347912132
 31
0.0
  0
ARC
  5
98
330
1F
100
AcDbEntity
  8
0
  6
Continuous
 62
     7
370
    15
100
AcDbCircle
 10
231.1028859058
 20
96.31440766
 30
0.0
 40
1.008861844953956
100
AcDbArc
 50
239.4803828778
 51
2.5770180135
  0
LINE
  5
99
330
1F
100
AcDbEntity
  8
0
  6
Continuous
 62
     7
370
    15
100
AcDbLine
 10
223.7333881333
 20
99.563145991
 30
0.0
 11
230.5905522248
 21
95.4453182391
 31
0.0
  0
ARC
  5
9A
330
1F
100
AcDbEntity
  8
0
  6
Continuous
 62
     7
370
    15
100
AcDbCircle
 10
224.2278426779
 20
100.3882266615
 30
0.0
 40
0.9618957373232836
100
AcDbArc
 50
182.9775189463
 51
239.066575925
  0
CIRCLE
  5
9B
330
1F
100
AcDbEntity
  8
0
  6
Continuous
 62
     7
370
    15
100
AcDbCircle
 10
227.4329164787
 20
102.3433868567
 30
0.0
 40
2.54588106539404
  0
ARC
  5
9C
330
1F
100
AcDbEntity
  8
0
  6
Continuous
 62
     7
370
    15
100
AcDbCircle
 10
226.7539185089
 20
103.4220057376
 30
0.0
 40
2.522354823884321
100
AcDbArc
 50
226.2763910689
 51
261.7780126499
  0
SPLINE
  5
9D
330
1F
100
AcDbEntity
  8
0
  6
Continuous
 62
     7
370
    15
100
AcDbSpline
210
0.0
220
0.0
230
1.0
 70
     8
 71
     3
 72
    11
 73
     7
 74
     0
 42
0.00000001
 43
0.00000001
 12
1.0
 22
0.0
 32
0.0
 13
1.0
 23
0.0
 33
0.0
 40
0.0
 40
0.0
 40
0.0
 40
0.0
 40
0.3280455501580005
 40
0.6557028173711991
 40
0.990696799608775
 40
1.0
 40
1.0
 40
1.0
 40
1.0
 10
222.097783411035
 20
99.21747957068246
 30
0.0
 10
222.1585223980181
 20
99.26086650609807
 30
0.0
 10
222.2799284797953
 20
99.34758902306383
 30
0.0
 10
222.4912527115382
 20
99.47174954375721
 30
0.0
 10
222.629594677388
 20
99.5416182902501
 30
0.0
 10
222.6956465220715
 20
99.57161736527897
 30
0.0
 10
222.6974312986491
 20
99.57242796559935
 30
0.0
  0
LINE
  5
9E
330
1F
100
AcDbEntity
  8
0
  6
Continuous
 62
     7
370
    15
100
AcDbLine
 10
232.7986740161
 20
93.4938160802
 30
0.0
 11
233.9586746299
 21
91.5655805454
 31
0.0
  0
LINE
  5
9F
330
1F
100
AcDbEntity
  8
0
  6
Continuous
 62
     7
370
    15
100
AcDbLine
 10
233.9586746299
 20
91.5655805454
 30
0.0
 11
233.7813412556
 21
91.2066744941
 31
0.0
  0
LINE
  5
A0
330
1F
100
AcDbEntity
  8
0
  6
Continuous
 62
     7
370
    15
100
AcDbLine
 10
221.7063844362
 20
98.9232607624
 30
0.0
 11
221.5290510618
 21
98.564354711
 31
0.0
  0
LINE
  5
A1
330
1F
100
AcDbEntity
  8
0
  6
Continuous
 62
     7
370
    15
100
AcDbLine
 10
232.2291852918
 20
93.8358024235
 30
0.0
 11
232.7986740161
 21
93.4938160802
 31
0.0
  0
SPLINE
  5
A2
330
1F
100
AcDbEntity
  8
0
  6
Continuous
 62
     7
370
    15
100
AcDbSpline
210
0.0
220
0.0
230
1.0
 70
     8
 71
     3
 72
    11
 73
     7
 74
     0
 42
0.00000001
 43
0.00000001
 12
1.0
 22
0.0
 32
0.0
 13
1.0
 23
0.0
 33
0.0
 40
0.0
 40
0.0
 40
0.0
 40
0.0
 40
0.3280455501580013
 40
0.6557028173711984
 40
0.9906967996087728
 40
1.0
 40
1.0
 40
1.0
 40
1.0
 10
232.7589854319893
 20
105.6306466410208
 30
0.0
 10
232.6921676730307
 20
105.5973027611807
 30
0.0
 10
232.5586112422896
 20
105.5306544681534
 30
0.0
 10
232.349913812627
 20
105.4021540710201
 30
0.0
 10
232.2234189157159
 20
105.3127121653047
 30
0.0
 10
232.1660052622874
 20
105.2684414848923
 30
0.0
 10
232.1644538969264
 20
105.2672452537522
 30
0.0
  0
LINE
  5
A3
330
1F
100
AcDbEntity
  8
0
  6
Continuous
 62
     7
370
    15
100
AcDbLine
 10
233.202543785
 20
105.8386902258
 30
0.0
 11
233.6028770049
 21
105.8272752336
 31
0.0
  0
LINE
  5
A4
330
1F
100
AcDbEntity
  8
0
  6
Continuous
 62
     7
370
    15
100
AcDbLine
 10
233.9586746299
 20
91.5655805454
 30
0.0
 11
234.3590078501
 21
91.5541655532
 31
0.0
  0
LINE
  5
A5
330
1F
100
AcDbEntity
  8
0
  6
Continuous
 62
     7
370
    15
100
AcDbLine
 10
232.7986740161
 20
93.4938160802
 30
0.0
 11
232.763528914
 21
94.1572328697
 31
0.0
  0
LINE
  5
A6
330
1F
100
AcDbEntity
  8
0
  6
Continuous
 62
     7
370
    15
100
AcDbLine
 10
232.2371217151
 20
94.4253285931
 30
0.0
 11
232.2391120029
 21
94.426525836
 31
0.0
  0
SPLINE
  5
A7
330
1F
100
AcDbEntity
  8
0
  6
Continuous
 62
     7
370
    15
100
AcDbSpline
210
0.0
220
0.0
230
1.0
 70
     8
 71
     3
 72
    14
 73
    10
 74
     0
 42
0.00000001
 43
0.00000001
 12
1.0
 22
0.0
 32
0.0
 13
1.0
 23
0.0
 33
0.0
 40
0.0
 40
0.0
 40
0.0
 40
0.0
 40
0.2234968253973754
 40
0.356762296377467
 40
0.4531212562341381
 40
0.5344619041500394
 40
0.6157317558035309
 40
0.739616177892197
 40
1.0
 40
1.0
 40
1.0
 40
1.0
 10
232.7635289139966
 20
94.15723286968414
 30
0.0
 10
232.7578619227649
 20
94.21577705586407
 30
0.0
 10
232.7488158488363
 20
94.30922965083475
 30
0.0
 10
232.7029229291961
 20
94.41996186587804
 30
0.0
 10
232.650439503763
 20
94.48357836540858
 30
0.0
 10
232.590385938574
 20
94.51818440617312
 30
0.0
 10
232.5146408030102
 20
94.53120178435545
 30
0.0
 10
232.3903100120242
 20
94.51084774141
 30
0.0
 10
232.3001829550894
 20
94.46058461153797
 30
0.0
 10
232.239112002924
 20
94.42652583602155
 30
0.0
  0
SPLINE
  5
A8
330
1F
100
AcDbEntity
  8
0
  6
Continuous
 62
     7
370
    15
100
AcDbSpline
210
0.0
220
0.0
230
1.0
 70
     8
 71
     3
 72
    14
 73
    10
 74
     0
 42
0.00000001
 43
0.00000001
 12
1.0
 22
0.0
 32
0.0
 13
1.0
 23
0.0
 33
0.0
 40
0.0
 40
0.0
 40
0.0
 40
0.0
 40
0.2210591904779564
 40
0.346079732651922
 40
0.4396016244131468
 40
0.5338897453199786
 40
0.6146561933587522
 40
0.7517253237593715
 40
1.0
 40
1.0
 40
1.0
 40
1.0
 10
232.2371217151153
 20
94.42532859313933
 30
0.0
 10
232.1874307072061
 20
94.39328245362799
 30
0.0
 10
232.1096368335598
 20
94.34311254496855
 30
0.0
 10
232.0306511896937
 20
94.25505253442292
 30
0.0
 10
231.9946078658486
 20
94.17896679128576
 30
0.0
 10
231.990748274646
 20
94.10647676925032
 30
0.0
 10
232.0163816357796
 20
94.02802128018658
 30
0.0
 10
232.0901056760235
 20
93.92831994709994
 30
0.0
 10
232.1746888597729
 20
93.8720541409738
 30
0.0
 10
232.2291852917872
 20
93.83580242352402
 30
0.0
  0
LINE
  5
A9
330
1F
100
AcDbEntity
  8
0
  6
Continuous
 62
     7
370
    15
100
AcDbLine
 10
174.3783709273
 20
101.4354289976
 30
0.0
 11
174.3783709273
 21
150.8354289934
 31
0.0
  0
SPLINE
  5
AA
330
1F
100
AcDbEntity
  8
0
  6
Continuous
 62
     7
370
    15
100
AcDbSpline
210
0.0
220
0.0
230
1.0
 70
     8
 71
     3
 72
    70
 73
    66
 74
     0
 42
0.00000001
 43
0.00000001
 12
1.0
 22
0.0
 32
0.0
 13
1.0
 23
0.0
 33
0.0
 40
-0.03125
 40
-0.03125
 40
0.0
 40
0.0
 40
0.0312500000000001
 40
0.0312500000000001
 40
0.0625000000000002
 40
0.0625000000000002
 40
0.0937500000000003
 40
0.0937500000000003
 40
0.1250000000000002
 40
0.1250000000000002
 40
0.1562500000000002
 40
0.1562500000000002
 40
0.1875000000000002
 40
0.1875000000000002
 40
0.2187500000000002
 40
0.2187500000000002
 40
0.2500000000000002
 40
0.2500000000000002
 40
0.2812500000000002
 40
0.2812500000000002
 40
0.3125000000000001
 40
0.3125000000000001
 40
0.3437500000000001
 40
0.3437500000000001
 40
0.3750000000000001
 40
0.3750000000000001
 40
0.4062500000000001
 40
0.4062500000000001
 40
0.4375000000000001
 40
0.4375000000000001
 40
0.4687500000000001
 40
0.4687500000000001
 40
0.5
 40
0.5
 40
0.53125
 40
0.53125
 40
0.5625
 40
0.5625
 40
0.59375
 40
0.59375
 40
0.6249999999999999
 40
0.6249999999999999
 40
0.6562499999999999
 40
0.6562499999999999
 40
0.6874999999999999
 40
0.6874999999999999
 40
0.7187499999999999
 40
0.7187499999999999
 40
0.7499999999999999
 40
0.7499999999999999
 40
0.7812499999999999
 40
0.7812499999999999
 40
0.8124999999999999
 40
0.8124999999999999
 40
0.8437499999999999
 40
0.8437499999999999
 40
0.8749999999999998
 40
0.8749999999999998
 40
0.9062499999999998
 40
0.9062499999999998
 40
0.9374999999999999
 40
0.9374999999999999
 40
0.96875
 40
0.96875
 40
1.0
 40
1.0
 40
1.03125
 40
1.03125
 10
192.5767568412124
 20
110.1018319349087
 30
0.0
 10
192.1799850133334
 20
110.1018319349088
 30
0.0
 10
191.9849503241922
 20
110.1168782483845
 30
0.0
 10
191.6012981445069
 20
110.1759513206352
 30
0.0
 10
191.4106790156355
 20
110.2207074919311
 30
0.0
 10
191.0474646540542
 20
110.3378943121802
 30
0.0
 10
190.8752250125432
 20
110.4097651769192
 30
0.0
 10
190.549254951066
 20
110.580449679016
 30
0.0
 10
190.3950557291636
 20
110.6801067437033
 30
0.0
 10
190.1186024849213
 20
110.899184738333
 30
0.0
 10
189.9944839302922
 20
111.0193744880643
 30
0.0
 10
189.7751665272869
 20
111.2824038453317
 30
0.0
 10
189.6820773017055
 20
111.4231712516564
 30
0.0
 10
189.5324003544245
 20
111.7168034111392
 30
0.0
 10
189.4747131939752
 20
111.8718448219708
 30
0.0
 10
189.3975793029788
 20
112.1917372812979
 30
0.0
 10
189.3784797532894
 20
112.353820959446
 30
0.0
 10
189.378263019802
 20
112.6823009401429
 30
0.0
 10
189.3977758344278
 20
112.8504433677745
 30
0.0
 10
189.474376877507
 20
113.1781498164382
 30
0.0
 10
189.53105204252
 20
113.3386555337684
 30
0.0
 10
189.6814012554643
 20
113.6525415000321
 30
0.0
 10
189.7752571595055
 20
113.8051708537691
 30
0.0
 10
189.9922872268469
 20
114.0894664032148
 30
0.0
 10
190.1163050737744
 20
114.222985450538
 30
0.0
 10
190.3961202960966
 20
114.4708270573944
 30
0.0
 10
190.5474486522542
 20
114.5812160157763
 30
0.0
 10
190.8721143219904
 20
114.7753107032231
 30
0.0
 10
191.047535940257
 20
114.8597024804551
 30
0.0
 10
191.4107173278961
 20
114.9951706968455
 30
0.0
 10
191.5977050459751
 20
115.046460863426
 30
0.0
 10
191.9824292477593
 20
115.1159524699642
 30
0.0
 10
192.181385114278
 20
115.1337889372181
 30
0.0
 10
192.5731141638606
 20
115.1339213688711
 30
0.0
 10
192.7679028290345
 20
115.1167926989615
 30
0.0
 10
193.1552774067384
 20
115.0474492340879
 30
0.0
 10
193.3446010945808
 20
114.9955344241136
 30
0.0
 10
193.705741493573
 20
114.8611596948592
 30
0.0
 10
193.8803283776979
 20
114.7776558957653
 30
0.0
 10
194.2082375568848
 20
114.5820684350886
 30
0.0
 10
194.359249229206
 20
114.4717167285329
 30
0.0
 10
194.6360682938385
 20
114.2271739177895
 30
0.0
 10
194.7628147730787
 20
114.0913949935268
 30
0.0
 10
194.9806957231683
 20
113.8064214365137
 30
0.0
 10
195.0729937476227
 20
113.6566633588049
 30
0.0
 10
195.2239655679743
 20
113.3430122173044
 30
0.0
 10
195.2818848420687
 20
113.1795417062128
 30
0.0
 10
195.3585274165843
 20
112.8529740217461
 30
0.0
 10
195.3781880680353
 20
112.688139131344
 30
0.0
 10
195.3785512723574
 20
112.3553738492159
 30
0.0
 10
195.3592429747403
 20
112.1930326704935
 30
0.0
 10
195.283275633673
 20
111.8760710724621
 30
0.0
 10
195.2256792395316
 20
111.7198104082743
 30
0.0
 10
195.0753631740197
 20
111.4241642748186
 30
0.0
 10
194.983356271913
 20
111.2850228060911
 30
0.0
 10
194.7659256052871
 20
111.0233020542382
 30
0.0
 10
194.63947238045
 20
110.9003941103332
 30
0.0
 10
194.3632154356389
 20
110.6811672218684
 30
0.0
 10
194.212411873326
 20
110.583341454009
 30
0.0
 10
193.8847048033823
 20
110.4111291452666
 30
0.0
 10
193.7104824209274
 20
110.3384300607308
 30
0.0
 10
193.3497156440037
 20
110.2217410923929
 30
0.0
 10
193.1607412660607
 20
110.1769388482949
 30
0.0
 10
192.7728976439545
 20
110.1168795431338
 30
0.0
 10
192.5767568412124
 20
110.1018319349087
 30
0.0
 10
192.1799850133334
 20
110.1018319349088
 30
0.0
  0
SPLINE
  5
AB
330
1F
100
AcDbEntity
  8
0
  6
Continuous
 62
     7
370
    15
100
AcDbSpline
210
0.0
220
0.0
230
1.0
 70
     8
 71
     3
 72
    12
 73
     8
 74
     0
 42
0.00000001
 43
0.00000001
 12
1.0
 22
0.0
 32
0.0
 13
1.0
 23
0.0
 33
0.0
 40
0.0
 40
0.0
 40
0.0
 40
0.0
 40
0.4999999999999968
 40
0.4999999999999968
 40
0.7499999999999983
 40
0.7499999999999983
 40
1.0
 40
1.0
 40
1.0
 40
1.0
 10
182.4731150389468
 20
134.2318819955968
 30
0.0
 10
182.5038144223141
 20
134.1175463285329
 30
0.0
 10
182.5451644904206
 20
134.0061929756915
 30
0.0
 10
182.6449204186401
 20
133.8534562034428
 30
0.0
 10
182.6846173363728
 20
133.8055963175906
 30
0.0
 10
182.7818754880204
 20
133.7309932042412
 30
0.0
 10
182.8426516460111
 20
133.7042389667331
 30
0.0
 10
182.906127740839
 20
133.7042389667331
 30
0.0
  0
LINE
  5
AC
330
1F
100
AcDbEntity
  8
0
  6
Continuous
 62
     7
370
    15
100
AcDbLine
 10
182.9061277408
 20
133.7042389667
 30
0.0
 11
185.8506141137
 21
133.7042389667
 31
0.0
  0
SPLINE
  5
AD
330
1F
100
AcDbEntity
  8
0
  6
Continuous
 62
     7
370
    15
100
AcDbSpline
210
0.0
220
0.0
230
1.0
 70
     8
 71
     3
 72
    12
 73
     8
 74
     0
 42
0.00000001
 43
0.00000001
 12
1.0
 22
0.0
 32
0.0
 13
1.0
 23
0.0
 33
0.0
 40
0.0
 40
0.0
 40
0.0
 40
0.0
 40
0.2499999999999991
 40
0.2499999999999991
 40
0.4999999999999982
 40
0.4999999999999982
 40
1.0
 40
1.0
 40
1.0
 40
1.0
 10
185.8506141137061
 20
133.7042389667331
 30
0.0
 10
185.9142793502366
 20
133.7042389667331
 30
0.0
 10
185.97388558246
 20
133.7303111152128
 30
0.0
 10
186.0725461073908
 20
133.8058498660339
 30
0.0
 10
186.1115130974061
 20
133.8531008031301
 30
0.0
 10
186.2108999293306
 20
134.0049246210966
 30
0.0
 10
186.252976176754
 20
134.1177278708616
 30
0.0
 10
186.2836268155984
 20
134.2318819955968
 30
0.0
  0
ELLIPSE
  5
AE
330
1F
100
AcDbEntity
  8
0
  6
Continuous
 62
     7
370
    15
100
AcDbEllipse
 10
173.3221132723
 20
126.1354289976
 30
0.0
 11
11.70927234972712
 21
24.67718644093739
 31
0.0
210
0.0
220
0.0
230
1.0
 40
0.3419987131
 41
5.20306880937045
 42
6.114256032590494
  0
SPLINE
  5
AF
330
1F
100
AcDbEntity
  8
0
  6
Continuous
 62
     7
370
    15
100
AcDbSpline
210
0.0
220
0.0
230
1.0
 70
     8
 71
     3
 72
    12
 73
     8
 74
     0
 42
0.00000001
 43
0.00000001
 12
1.0
 22
0.0
 32
0.0
 13
1.0
 23
0.0
 33
0.0
 40
0.0
 40
0.0
 40
0.0
 40
0.0
 40
0.5000000000000013
 40
0.5000000000000013
 40
0.7500000000000007
 40
0.7500000000000007
 40
1.0
 40
1.0
 40
1.0
 40
1.0
 10
186.2836268155984
 20
149.7880704747842
 30
0.0
 10
186.252927432231
 20
149.8272083171801
 30
0.0
 10
186.2115773641245
 20
149.8643680999056
 30
0.0
 10
186.1118214359051
 20
149.9143046055333
 30
0.0
 10
186.0721245181724
 20
149.9297574756771
 30
0.0
 10
185.9748663665247
 20
149.9536770192761
 30
0.0
 10
185.914090208534
 20
149.9621601130546
 30
0.0
 10
185.8506141137061
 20
149.9621601130546
 30
0.0
  0
LINE
  5
B0
330
1F
100
AcDbEntity
  8
0
  6
Continuous
 62
     7
370
    15
100
AcDbLine
 10
185.8506141137
 20
149.9621601131
 30
0.0
 11
182.9061277408
 21
149.9621601131
 31
0.0
  0
SPLINE
  5
B1
330
1F
100
AcDbEntity
  8
0
  6
Continuous
 62
     7
370
    15
100
AcDbSpline
210
0.0
220
0.0
230
1.0
 70
     8
 71
     3
 72
    12
 73
     8
 74
     0
 42
0.00000001
 43
0.00000001
 12
1.0
 22
0.0
 32
0.0
 13
1.0
 23
0.0
 33
0.0
 40
0.0
 40
0.0
 40
0.0
 40
0.0
 40
0.2499999999999991
 40
0.2499999999999991
 40
0.4999999999999982
 40
0.4999999999999982
 40
1.0
 40
1.0
 40
1.0
 40
1.0
 10
182.906127740839
 20
149.9621601130546
 30
0.0
 10
182.8424625043085
 20
149.9621601130546
 30
0.0
 10
182.7828562720852
 20
149.9538953373887
 30
0.0
 10
182.6841957471543
 20
149.9296765558055
 30
0.0
 10
182.6452287571391
 20
149.9144192364964
 30
0.0
 10
182.5458419252146
 20
149.8647858822345
 30
0.0
 10
182.5037656777911
 20
149.8271461740603
 30
0.0
 10
182.4731150389468
 20
149.7880704747842
 30
0.0
  0
ELLIPSE
  5
B2
330
1F
100
AcDbEntity
  8
0
  6
Continuous
 62
     7
370
    15
100
AcDbEllipse
 10
195.4346285823
 20
126.1354289976
 30
0.0
 11
-11.70927234972698
 21
24.67718644093743
 31
0.0
210
0.0
220
0.0
230
1.0
 40
0.3419987131
 41
0.1689292745891356
 42
1.080116497809149
  0
SPLINE
  5
B3
330
1F
100
AcDbEntity
  8
0
  6
Continuous
 62
     7
370
    15
100
AcDbSpline
210
0.0
220
0.0
230
1.0
 70
     8
 71
     3
 72
    12
 73
     8
 74
     0
 42
0.00000001
 43
0.00000001
 12
1.0
 22
0.0
 32
0.0
 13
1.0
 23
0.0
 33
0.0
 40
0.0
 40
0.0
 40
0.0
 40
0.0
 40
0.5
 40
0.5
 40
0.75
 40
0.75
 40
1.0
 40
1.0
 40
1.0
 40
1.0
 10
182.4731150389468
 20
102.482787520321
 30
0.0
 10
182.503966749511
 20
102.4434554799585
 30
0.0
 10
182.5458596129716
 20
102.4060437144302
 30
0.0
 10
182.6453804907648
 20
102.3563727898143
 30
0.0
 10
182.6849946554892
 20
102.3409837072065
 30
0.0
 10
182.7820976892686
 20
102.3171504915392
 30
0.0
 10
182.842596361919
 20
102.3086978820505
 30
0.0
 10
182.9061277408389
 20
102.3086978820505
 30
0.0
  0
LINE
  5
B4
330
1F
100
AcDbEntity
  8
0
  6
Continuous
 62
     7
370
    15
100
AcDbLine
 10
182.9061277408
 20
102.3086978821
 30
0.0
 11
185.8506141137
 21
102.3086978821
 31
0.0
  0
SPLINE
  5
B5
330
1F
100
AcDbEntity
  8
0
  6
Continuous
 62
     7
370
    15
100
AcDbSpline
210
0.0
220
0.0
230
1.0
 70
     8
 71
     3
 72
    12
 73
     8
 74
     0
 42
0.00000001
 43
0.00000001
 12
1.0
 22
0.0
 32
0.0
 13
1.0
 23
0.0
 33
0.0
 40
0.0
 40
0.0
 40
0.0
 40
0.0
 40
0.2500000000000007
 40
0.2500000000000007
 40
0.5000000000000014
 40
0.5000000000000014
 40
1.0
 40
1.0
 40
1.0
 40
1.0
 10
185.8506141137061
 20
102.3086978820507
 30
0.0
 10
185.9142506679198
 20
102.3086978820507
 30
0.0
 10
185.9738307947861
 20
102.3169546529824
 30
0.0
 10
186.0724675361525
 20
102.3411567149902
 30
0.0
 10
186.1114261605327
 20
102.3564035340244
 30
0.0
 10
186.2108051000406
 20
102.4060084060845
 30
0.0
 10
186.2527630052061
 20
102.4434400542033
 30
0.0
 10
186.2836268155986
 20
102.482787520321
 30
0.0
  0
ELLIPSE
  5
B6
330
1F
100
AcDbEntity
  8
0
  6
Continuous
 62
     7
370
    15
100
AcDbEllipse
 10
173.3221132723
 20
126.1354289976
 30
0.0
 11
-11.7092723497272
 21
24.67718644093742
 31
0.0
210
0.0
220
0.0
230
1.0
 40
0.3419987131
 41
3.310521928178952
 42
4.221709151398942
  0
SPLINE
  5
B7
330
1F
100
AcDbEntity
  8
0
  6
Continuous
 62
     7
370
    15
100
AcDbSpline
210
0.0
220
0.0
230
1.0
 70
     8
 71
     3
 72
    12
 73
     8
 74
     0
 42
0.00000001
 43
0.00000001
 12
1.0
 22
0.0
 32
0.0
 13
1.0
 23
0.0
 33
0.0
 40
0.0
 40
0.0
 40
0.0
 40
0.0
 40
0.4999999999999982
 40
0.4999999999999982
 40
0.7499999999999991
 40
0.7499999999999991
 40
1.0
 40
1.0
 40
1.0
 40
1.0
 10
186.2836268155984
 20
118.0389759995083
 30
0.0
 10
186.2527751050341
 20
118.1538789884451
 30
0.0
 10
186.2108822415735
 20
118.266017884494
 30
0.0
 10
186.1113613637803
 20
118.4179601660948
 30
0.0
 10
186.071747199056
 20
118.4656247756198
 30
0.0
 10
185.9746441652766
 20
118.5399611062352
 30
0.0
 10
185.9141454926261
 20
118.5666190283723
 30
0.0
 10
185.8506141137062
 20
118.5666190283723
 30
0.0
  0
LINE
  5
B8
330
1F
100
AcDbEntity
  8
0
  6
Continuous
 62
     7
370
    15
100
AcDbLine
 10
185.8506141137
 20
118.5666190284
 30
0.0
 11
182.9061277408
 21
118.5666190284
 31
0.0
  0
SPLINE
  5
B9
330
1F
100
AcDbEntity
  8
0
  6
Continuous
 62
     7
370
    15
100
AcDbSpline
210
0.0
220
0.0
230
1.0
 70
     8
 71
     3
 72
    12
 73
     8
 74
     0
 42
0.00000001
 43
0.00000001
 12
1.0
 22
0.0
 32
0.0
 13
1.0
 23
0.0
 33
0.0
 40
0.0
 40
0.0
 40
0.0
 40
0.0
 40
0.25
 40
0.25
 40
0.5
 40
0.5
 40
1.0
 40
1.0
 40
1.0
 40
1.0
 10
182.906127740839
 20
118.5666190283719
 30
0.0
 10
182.8424911866253
 20
118.5666190283719
 30
0.0
 10
182.7829110597591
 20
118.540572125314
 30
0.0
 10
182.6842743183927
 20
118.465084966414
 30
0.0
 10
182.6453156940124
 20
118.4178659278833
 30
0.0
 10
182.5459367545045
 20
118.2661262767898
 30
0.0
 10
182.5039788493391
 20
118.1539240526056
 30
0.0
 10
182.4731150389466
 20
118.0389759995083
 30
0.0
  0
ELLIPSE
  5
BA
330
1F
100
AcDbEntity
  8
0
  6
Continuous
 62
     7
370
    15
100
AcDbEllipse
 10
195.4346285823
 20
126.1354289976
 30
0.0
 11
11.70927234972709
 21
24.67718644093745
 31
0.0
210
0.0
220
0.0
230
1.0
 40
0.3419987131
 41
2.061476155780656
 42
2.972663379000672
  0
ELLIPSE
  5
BB
330
1F
100
AcDbEntity
  8
0
  6
Continuous
 62
     7
370
    15
100
AcDbEllipse
 10
289.3336609769
 20
126.1354289976
 30
0.0
 11
237.8586779710878
 21
4.388194929981921
 31
0.0
210
0.0
220
0.0
230
1.0
 40
0.1034726254
 41
1.924089530934152
 42
1.938396896517832
  0
SPLINE
  5
BC
330
1F
100
AcDbEntity
  8
0
  6
Continuous
 62
     7
370
    15
100
AcDbSpline
210
0.0
220
0.0
230
1.0
 70
     8
 71
     3
 72
    18
 73
    14
 74
     0
 42
0.00000001
 43
0.00000001
 12
1.0
 22
0.0
 32
0.0
 13
1.0
 23
0.0
 33
0.0
 40
0.0
 40
0.0
 40
0.0
 40
0.0
 40
0.2500000000000011
 40
0.2500000000000011
 40
0.3750000000000014
 40
0.3750000000000014
 40
0.5000000000000018
 40
0.5000000000000018
 40
0.6250000000000021
 40
0.6250000000000021
 40
0.7500000000000023
 40
0.7500000000000023
 40
1.0
 40
1.0
 40
1.0
 40
1.0
 10
200.8447267230053
 20
146.1777555687011
 30
0.0
 10
200.9184655244331
 20
146.3618968345191
 30
0.0
 10
201.0302546842409
 20
146.5318897223713
 30
0.0
 10
201.2593643662439
 20
146.7667149919116
 30
0.0
 10
201.3465753267531
 20
146.8417180932854
 30
0.0
 10
201.5369762022461
 20
146.9800417838581
 30
0.0
 10
201.6407306009371
 20
147.0440545175643
 30
0.0
 10
201.8659121489658
 20
147.1620553771982
 30
0.0
 10
201.988454184174
 20
147.2164471413515
 30
0.0
 10
202.247513341419
 20
147.312852631716
 30
0.0
 10
202.3827248051018
 20
147.3545481275185
 30
0.0
 10
202.8052789924999
 20
147.4610683921451
 30
0.0
 10
203.113356031218
 20
147.5076021912694
 30
0.0
 10
203.4289188120696
 20
147.5260119647602
 30
0.0
  0
ELLIPSE
  5
BD
330
1F
100
AcDbEntity
  8
0
  6
Continuous
 62
     7
370
    15
100
AcDbEllipse
 10
203.8554201356
 20
126.1354289976
 30
0.0
 11
1.249956161015689
 21
24.99783415330236
 31
0.0
210
0.0
220
0.0
230
1.0
 40
0.263265937
 41
0.6538372206025537
 42
2.863147714034949
  0
SPLINE
  5
BE
330
1F
100
AcDbEntity
  8
0
  6
Continuous
 62
     7
370
    15
100
AcDbSpline
210
0.0
220
0.0
230
1.0
 70
     8
 71
     3
 72
    14
 73
    10
 74
     0
 42
0.00000001
 43
0.00000001
 12
1.0
 22
0.0
 32
0.0
 13
1.0
 23
0.0
 33
0.0
 40
0.0
 40
0.0
 40
0.0
 40
0.0
 40
0.25
 40
0.25
 40
0.5
 40
0.5
 40
0.75
 40
0.75
 40
1.0
 40
1.0
 40
1.0
 40
1.0
 10
203.4289188120696
 20
101.6091238280584
 30
0.0
 10
203.11383605709
 20
101.6160043462144
 30
0.0
 10
202.8136516871913
 20
101.6327153761443
 30
0.0
 10
202.2422000081091
 20
101.6882581732227
 30
0.0
 10
201.985067845253
 20
101.7258669445527
 30
0.0
 10
201.5288545992531
 20
101.8242037940928
 30
0.0
 10
201.3384186553706
 20
101.8832262733759
 30
0.0
 10
201.0315522419693
 20
102.0229539306532
 30
0.0
 10
200.9183996320367
 20
102.1023722438914
 30
0.0
 10
200.8447267230053
 20
102.1908594685994
 30
0.0
  0
ELLIPSE
  5
BF
330
1F
100
AcDbEntity
  8
0
  6
Continuous
 62
     7
370
    15
100
AcDbEllipse
 10
289.3336609769
 20
126.1354289976
 30
0.0
 11
237.8586779710878
 21
4.388194929981921
 31
0.0
210
0.0
220
0.0
230
1.0
 40
0.1034726254
 41
4.340970534413075
 42
4.355277899996754
  0
ELLIPSE
  5
C0
330
1F
100
AcDbEntity
  8
0
  6
Continuous
 62
     7
370
    15
100
AcDbEllipse
 10
200.045090834
 20
112.3479356647
 30
0.0
 11
-0.0558308828200893
 21
2.992158382973884
 31
0.0
210
0.0
220
0.0
230
1.0
 40
0.2323720873
 41
0.0
 42
6.283185307179586
  0
ARC
  5
C1
330
1F
100
AcDbEntity
  8
0
  6
Continuous
 62
     7
370
    15
100
AcDbCircle
 10
192.3773939185
 20
117.23801984
 30
0.0
 40
3.425711124737328
100
AcDbArc
 50
234.6793890522
 51
283.0239600404
  0
SPLINE
  5
C2
330
1F
100
AcDbEntity
  8
0
  6
Continuous
 62
     7
370
    15
100
AcDbSpline
210
0.0
220
0.0
230
1.0
 70
     8
 71
     3
 72
    16
 73
    12
 74
     0
 42
0.00000001
 43
0.00000001
 12
1.0
 22
0.0
 32
0.0
 13
1.0
 23
0.0
 33
0.0
 40
0.0
 40
0.0
 40
0.0
 40
0.0
 40
0.0653233768215776
 40
0.1915347009639743
 40
0.3207141903689685
 40
0.4089287562000128
 40
0.4978313884811767
 40
0.5886328222431523
 40
0.6799855714365167
 40
0.8388680293156515
 40
1.0
 40
1.0
 40
1.0
 40
1.0
 10
194.7484727606514
 20
114.0964902156567
 30
0.0
 10
194.7164954277107
 20
114.0676618873771
 30
0.0
 10
194.6227346761936
 20
113.9831343337664
 30
0.0
 10
194.4522550384467
 20
113.8742628540005
 30
0.0
 10
194.261717870987
 20
113.7939152236202
 30
0.0
 10
194.0890539332681
 20
113.7501765419888
 30
0.0
 10
193.9378490452461
 20
113.7300617132944
 30
0.0
 10
193.7861080943979
 20
113.7270323981058
 30
0.0
 10
193.5988860014966
 20
113.7439395266533
 30
0.0
 10
193.3795095480508
 20
113.7932304279124
 30
0.0
 10
193.2264664723432
 20
113.8645310883018
 30
0.0
 10
193.1494070331828
 20
113.9004320193042
 30
0.0
  0
SPLINE
  5
C3
330
1F
100
AcDbEntity
  8
0
  6
Continuous
 62
     7
370
    15
100
AcDbSpline
210
0.0
220
0.0
230
1.0
 70
     8
 71
     3
 72
    16
 73
    12
 74
     0
 42
0.00000001
 43
0.00000001
 12
1.0
 22
0.0
 32
0.0
 13
1.0
 23
0.0
 33
0.0
 40
0.0
 40
0.0
 40
0.0
 40
0.0
 40
0.2500000000000004
 40
0.2500000000000004
 40
0.5000000000000008
 40
0.5000000000000008
 40
0.6250000000000006
 40
0.6250000000000006
 40
0.7500000000000002
 40
0.7500000000000002
 40
1.0
 40
1.0
 40
1.0
 40
1.0
 10
173.3375098991435
 20
108.7862717163601
 30
0.0
 10
173.3692378603362
 20
108.7854745995391
 30
0.0
 10
173.4038654506867
 20
108.7848835246839
 30
0.0
 10
173.4835592127504
 20
108.7838719992494
 30
0.0
 10
173.528600672754
 20
108.7834718910746
 30
0.0
 10
173.6114533996045
 20
108.7825140191707
 30
0.0
 10
173.6413678608044
 20
108.7821323379103
 30
0.0
 10
173.7073541913623
 20
108.7810561238518
 30
0.0
 10
173.7440878168241
 20
108.7803385579576
 30
0.0
 10
173.8565845363939
 20
108.7775776802759
 30
0.0
 10
173.9269258844922
 20
108.7750905884043
 30
0.0
 10
173.9833940383974
 20
108.7729173099972
 30
0.0
  0
SPLINE
  5
C4
330
1F
100
AcDbEntity
  8
0
  6
Continuous
 62
     7
370
    15
100
AcDbSpline
210
0.0
220
0.0
230
1.0
 70
     8
 71
     3
 72
    14
 73
    10
 74
     0
 42
0.00000001
 43
0.00000001
 12
1.0
 22
0.0
 32
0.0
 13
1.0
 23
0.0
 33
0.0
 40
0.0
 40
0.0
 40
0.0
 40
0.0
 40
0.1250000000000035
 40
0.1250000000000035
 40
0.250000000000007
 40
0.250000000000007
 40
0.5000000000000029
 40
0.5000000000000029
 40
1.0
 40
1.0
 40
1.0
 40
1.0
 10
173.9833940383657
 20
108.77291731002
 30
0.0
 10
173.9959858323105
 20
108.7724326921976
 30
0.0
 10
174.0108569406046
 20
108.7707225142653
 30
0.0
 10
174.0430410320377
 20
108.7626069655144
 30
0.0
 10
174.0586451635136
 20
108.7563911772531
 30
0.0
 10
174.0945323032256
 20
108.7381720655515
 30
0.0
 10
174.1083843444943
 20
108.7264070372179
 30
0.0
 10
174.1418740864269
 20
108.6946119008006
 30
0.0
 10
174.1525363470027
 20
108.6768184689574
 30
0.0
 10
174.1606743038976
 20
108.660387338113
 30
0.0
  0
LINE
  5
C5
330
1F
100
AcDbEntity
  8
0
  6
Continuous
 62
     7
370
    15
100
AcDbLine
 10
174.1783709273
 20
120.150948765
 30
0.0
 11
174.1783709273
 21
108.2956087187
 31
0.0
  0
SPLINE
  5
C6
330
1F
100
AcDbEntity
  8
0
  6
Continuous
 62
     7
370
    15
100
AcDbSpline
210
0.0
220
0.0
230
1.0
 70
     8
 71
     3
 72
    16
 73
    12
 74
     0
 42
0.00000001
 43
0.00000001
 12
1.0
 22
0.0
 32
0.0
 13
1.0
 23
0.0
 33
0.0
 40
0.0
 40
0.0
 40
0.0
 40
0.0
 40
0.4999999999999972
 40
0.4999999999999972
 40
0.7499999999999993
 40
0.7499999999999993
 40
0.8749999999999993
 40
0.8749999999999993
 40
0.9374999999999997
 40
0.9374999999999997
 40
1.0
 40
1.0
 40
1.0
 40
1.0
 10
174.1783709272726
 20
120.1509487649781
 30
0.0
 10
174.1783709272726
 20
120.265478495677
 30
0.0
 10
174.1743136251575
 20
120.3807945708665
 30
0.0
 10
174.1486563823627
 20
120.5557176606941
 30
0.0
 10
174.1373409366206
 20
120.615546963689
 30
0.0
 10
174.103309569312
 20
120.7001381499372
 30
0.0
 10
174.0894305881082
 20
120.7288077360812
 30
0.0
 10
174.0534949063408
 20
120.7586155230275
 30
0.0
 10
174.038544587078
 20
120.7649506763872
 30
0.0
 10
174.0086460743362
 20
120.7637252135169
 30
0.0
 10
173.9951132139709
 20
120.7571266274821
 30
0.0
 10
173.9833940383969
 20
120.7484789394257
 30
0.0
  0
SPLINE
  5
C7
330
1F
100
AcDbEntity
  8
0
  6
Continuous
 62
     7
370
    15
100
AcDbSpline
210
0.0
220
0.0
230
1.0
 70
     8
 71
     3
 72
    14
 73
    10
 74
     0
 42
0.00000001
 43
0.00000001
 12
1.0
 22
0.0
 32
0.0
 13
1.0
 23
0.0
 33
0.0
 40
0.0
 40
0.0
 40
0.0
 40
0.0
 40
0.25
 40
0.25
 40
0.5
 40
0.5
 40
0.75
 40
0.75
 40
1.0
 40
1.0
 40
1.0
 40
1.0
 10
173.9833940384037
 20
120.748478939417
 30
0.0
 10
173.92693437252
 20
120.7068168297182
 30
0.0
 10
173.8560618976578
 20
120.67598334913
 30
0.0
 10
173.7075955397759
 20
120.6816978577431
 30
0.0
 10
173.6384003365681
 20
120.7172687851761
 30
0.0
 10
173.5286831504985
 20
120.8042126976499
 30
0.0
 10
173.4834372615665
 20
120.8566450110151
 30
0.0
 10
173.4038201305997
 20
120.9651980925336
 30
0.0
 10
173.3692175111428
 20
121.0221811787761
 30
0.0
 10
173.337509899144
 20
121.0807472614339
 30
0.0
  0
SPLINE
  5
C8
330
1F
100
AcDbEntity
  8
0
  6
Continuous
 62
     7
370
    15
100
AcDbSpline
210
0.0
220
0.0
230
1.0
 70
     8
 71
     3
 72
    10
 73
     6
 74
     0
 42
0.00000001
 43
0.00000001
 12
1.0
 22
0.0
 32
0.0
 13
1.0
 23
0.0
 33
0.0
 40
0.0
 40
0.0
 40
0.0
 40
0.0
 40
0.5
 40
0.5
 40
1.0
 40
1.0
 40
1.0
 40
1.0
 10
173.057050583713
 20
121.9335658530803
 30
0.0
 10
173.0879291673249
 20
121.7839373012206
 30
0.0
 10
173.1239218750483
 20
121.637441883697
 30
0.0
 10
173.2132621265454
 20
121.3522502451562
 30
0.0
 10
173.2657204293909
 20
121.2133472194403
 30
0.0
 10
173.3375098991441
 20
121.0807472614338
 30
0.0
  0
SPLINE
  5
C9
330
1F
100
AcDbEntity
  8
0
  6
Continuous
 62
     7
370
    15
100
AcDbSpline
210
0.0
220
0.0
230
1.0
 70
     8
 71
     3
 72
    10
 73
     6
 74
     0
 42
0.00000001
 43
0.00000001
 12
1.0
 22
0.0
 32
0.0
 13
1.0
 23
0.0
 33
0.0
 40
0.0
 40
0.0
 40
0.0
 40
0.0
 40
0.5
 40
0.5
 40
1.0
 40
1.0
 40
1.0
 40
1.0
 10
173.3375098991434
 20
131.1901107336703
 30
0.0
 10
173.2657204293905
 20
131.0575107756639
 30
0.0
 10
173.2132621265451
 20
130.9186077499482
 30
0.0
 10
173.1239218750482
 20
130.6334161114079
 30
0.0
 10
173.0879291673249
 20
130.4869206938845
 30
0.0
 10
173.057050583713
 20
130.337292142025
 30
0.0
  0
SPLINE
  5
CA
330
1F
100
AcDbEntity
  8
0
  6
Continuous
 62
     7
370
    15
100
AcDbSpline
210
0.0
220
0.0
230
1.0
 70
     8
 71
     3
 72
    14
 73
    10
 74
     0
 42
0.00000001
 43
0.00000001
 12
1.0
 22
0.0
 32
0.0
 13
1.0
 23
0.0
 33
0.0
 40
0.0
 40
0.0
 40
0.0
 40
0.0
 40
0.25
 40
0.25
 40
0.5
 40
0.5
 40
0.75
 40
0.75
 40
1.0
 40
1.0
 40
1.0
 40
1.0
 10
173.3375098991427
 20
131.1901107336691
 30
0.0
 10
173.3692185986281
 20
131.2486788249876
 30
0.0
 10
173.4038264172687
 20
131.3056730869276
 30
0.0
 10
173.483484827758
 20
131.4142732216916
 30
0.0
 10
173.5285470976529
 20
131.4666013570702
 30
0.0
 10
173.6391289432313
 20
131.5541023684325
 30
0.0
 10
173.7067730640466
 20
131.5891478246866
 30
0.0
 10
173.8570213544437
 20
131.5948922134427
 30
0.0
 10
173.926973752674
 20
131.5640121063927
 30
0.0
 10
173.9833940383975
 20
131.5223790556797
 30
0.0
  0
SPLINE
  5
CB
330
1F
100
AcDbEntity
  8
0
  6
Continuous
 62
     7
370
    15
100
AcDbSpline
210
0.0
220
0.0
230
1.0
 70
     8
 71
     3
 72
    16
 73
    12
 74
     0
 42
0.00000001
 43
0.00000001
 12
1.0
 22
0.0
 32
0.0
 13
1.0
 23
0.0
 33
0.0
 40
0.0
 40
0.0
 40
0.0
 40
0.0
 40
0.0625000000000009
 40
0.0625000000000009
 40
0.1250000000000018
 40
0.1250000000000018
 40
0.2500000000000012
 40
0.2500000000000012
 40
0.5000000000000031
 40
0.5000000000000031
 40
1.0
 40
1.0
 40
1.0
 40
1.0
 10
173.9833940383657
 20
131.5223790556263
 30
0.0
 10
173.9951282728126
 20
131.513720255482
 30
0.0
 10
174.0086600282916
 20
131.5071161702467
 30
0.0
 10
174.0386474887214
 20
131.5059192030725
 30
0.0
 10
174.0536421951297
 20
131.5123409501385
 30
0.0
 10
174.0893826175244
 20
131.5420581035477
 30
0.0
 10
174.1033959545256
 20
131.5708655009311
 30
0.0
 10
174.137540043307
 20
131.655945222557
 30
0.0
 10
174.1485119474254
 20
131.7143201718268
 30
0.0
 10
174.1743574876917
 20
131.8900356966154
 30
0.0
 10
174.1783709272726
 20
132.0058307044798
 30
0.0
 10
174.1783709272726
 20
132.1199092301272
 30
0.0
  0
LINE
  5
CC
330
1F
100
AcDbEntity
  8
0
  6
Continuous
 62
     7
370
    15
100
AcDbLine
 10
174.1783709273
 20
143.9752492764
 30
0.0
 11
174.1783709273
 21
132.1199092301
 31
0.0
  0
SPLINE
  5
CD
330
1F
100
AcDbEntity
  8
0
  6
Continuous
 62
     7
370
    15
100
AcDbSpline
210
0.0
220
0.0
230
1.0
 70
     8
 71
     3
 72
    16
 73
    12
 74
     0
 42
0.00000001
 43
0.00000001
 12
1.0
 22
0.0
 32
0.0
 13
1.0
 23
0.0
 33
0.0
 40
0.0
 40
0.0
 40
0.0
 40
0.0
 40
0.5000000000000056
 40
0.5000000000000056
 40
0.7500000000000057
 40
0.7500000000000057
 40
0.8750000000000033
 40
0.8750000000000033
 40
0.9375000000000018
 40
0.9375000000000018
 40
1.0
 40
1.0
 40
1.0
 40
1.0
 10
174.1783709272727
 20
143.6821834632202
 30
0.0
 10
174.1783709272725
 20
143.6601684486409
 30
0.0
 10
174.1742463844185
 20
143.6348148139372
 30
0.0
 10
174.1483299387854
 20
143.5876543117486
 30
0.0
 10
174.1370523577656
 20
143.5704553235199
 30
0.0
 10
174.1033169792242
 20
143.5404773579506
 30
0.0
 10
174.0889281639798
 20
143.5291259494088
 30
0.0
 10
174.0536814745408
 20
143.5124380899313
 30
0.0
 10
174.0384760500838
 20
143.506875063046
 30
0.0
 10
174.0088294709145
 20
143.4999054800109
 30
0.0
 10
173.9951241349171
 20
143.4983921389556
 30
0.0
 10
173.9833940383933
 20
143.4979406851056
 30
0.0
  0
SPLINE
  5
CE
330
1F
100
AcDbEntity
  8
0
  6
Continuous
 62
     7
370
    15
100
AcDbSpline
210
0.0
220
0.0
230
1.0
 70
     8
 71
     3
 72
    14
 73
    10
 74
     0
 42
0.00000001
 43
0.00000001
 12
1.0
 22
0.0
 32
0.0
 13
1.0
 23
0.0
 33
0.0
 40
0.0
 40
0.0
 40
0.0
 40
0.0
 40
0.25
 40
0.25
 40
0.5
 40
0.5
 40
0.75
 40
0.75
 40
1.0
 40
1.0
 40
1.0
 40
1.0
 10
173.9833940384038
 20
143.4979406851082
 30
0.0
 10
173.9269469563455
 20
143.4957682176889
 30
0.0
 10
173.8560965723027
 20
143.4932701197714
 30
0.0
 10
173.7076601374863
 20
143.4896236609833
 30
0.0
 10
173.6384708857994
 20
143.488655914132
 30
0.0
 10
173.5287593375585
 20
143.4873883547693
 30
0.0
 10
173.4835176882161
 20
143.486985513841
 30
0.0
 10
173.4038696700322
 20
143.4859744789133
 30
0.0
 10
173.3692427542662
 20
143.4853835185187
 30
0.0
 10
173.3375098991448
 20
143.4845862787453
 30
0.0
  0
SPLINE
  5
CF
330
1F
100
AcDbEntity
  8
0
  6
Continuous
 62
     7
370
    15
100
AcDbSpline
210
0.0
220
0.0
230
1.0
 70
     8
 71
     3
 72
    18
 73
    14
 74
     0
 42
0.00000001
 43
0.00000001
 12
1.0
 22
0.0
 32
0.0
 13
1.0
 23
0.0
 33
0.0
 40
0.0
 40
0.0
 40
0.0
 40
0.0
 40
0.2499999999999999
 40
0.2499999999999999
 40
0.3749999999999999
 40
0.3749999999999999
 40
0.5
 40
0.5
 40
0.625
 40
0.625
 40
0.7500000000000001
 40
0.7500000000000001
 40
1.0
 40
1.0
 40
1.0
 40
1.0
 10
173.0570505837129
 20
130.3372921420251
 30
0.0
 10
172.9217649774106
 20
129.6817378066038
 30
0.0
 10
172.8205972311676
 20
129.0021167128062
 30
0.0
 10
172.7177358882987
 20
127.9467527063122
 30
0.0
 10
172.6916330427754
 20
127.5879386417275
 30
0.0
 10
172.6567430592306
 20
126.8618256976047
 30
0.0
 10
172.6481568009406
 20
126.4997360185885
 30
0.0
 10
172.648057091375
 20
125.7774263611701
 30
0.0
 10
172.6565454625235
 20
125.4172065590618
 30
0.0
 10
172.6906888420441
 20
124.6986404899679
 30
0.0
 10
172.7164858238979
 20
124.3388747740525
 30
0.0
 10
172.8198869552858
 20
123.2722301870581
 30
0.0
 10
172.9217449474572
 20
122.5892172477758
 30
0.0
 10
173.0570505837129
 20
121.9335658530803
 30
0.0
  0
LINE
  5
D0
330
1F
100
AcDbEntity
  8
0
  6
Continuous
 62
     7
370
    15
100
AcDbLine
 10
172.1783709273
 20
131.2755814854
 30
0.0
 11
172.1783709273
 21
120.9952765097
 31
0.0
  0
LINE
  5
D1
330
1F
100
AcDbEntity
  8
0
  6
Continuous
 62
     7
370
    15
100
AcDbLine
 10
145.8783709273
 20
130.945207714
 30
0.0
 11
145.8783709273
 21
121.3256502811
 31
0.0
  0
LINE
  5
D2
330
1F
100
AcDbEntity
  8
0
  6
Continuous
 62
     7
370
    15
100
AcDbLine
 10
144.3783709273
 20
130.5121950122
 30
0.0
 11
144.3783709273
 21
121.7586629829
 31
0.0
  0
LINE
  5
D3
330
1F
100
AcDbEntity
  8
0
  6
Continuous
 62
     7
370
    15
100
AcDbLine
 10
145.8783709273
 20
109.2760777556
 30
0.0
 11
145.8783709273
 21
121.3256502811
 31
0.0
  0
LINE
  5
D4
330
1F
100
AcDbEntity
  8
0
  6
Continuous
 62
     7
370
    15
100
AcDbLine
 10
172.1783709273
 20
108.615330213
 30
0.0
 11
172.1783709273
 21
120.9952765097
 31
0.0
  0
LINE
  5
D5
330
1F
100
AcDbEntity
  8
0
  6
Continuous
 62
     7
370
    15
100
AcDbLine
 10
145.8783709273
 20
109.2760777556
 30
0.0
 11
172.1783709273
 21
108.615330213
 31
0.0
  0
ARC
  5
D6
330
1F
100
AcDbEntity
  8
0
  6
Continuous
 62
     7
370
    15
100
AcDbCircle
 10
172.3783078382
 20
108.6103071019
 30
0.0
 40
0.2000000000000059
100
AcDbArc
 50
88.5608333333
 51
178.5608333333
  0
LINE
  5
D7
330
1F
100
AcDbEntity
  8
0
  6
Continuous
 62
     7
370
    15
100
AcDbLine
 10
145.8783709273
 20
130.945207714
 30
0.0
 11
145.8783709273
 21
142.9947802395
 31
0.0
  0
LINE
  5
D8
330
1F
100
AcDbEntity
  8
0
  6
Continuous
 62
     7
370
    15
100
AcDbLine
 10
145.8783709273
 20
142.9947802395
 30
0.0
 11
172.1783709273
 21
143.6555277821
 31
0.0
  0
LINE
  5
D9
330
1F
100
AcDbEntity
  8
0
  6
Continuous
 62
     7
370
    15
100
AcDbLine
 10
172.1783709273
 20
131.2755814854
 30
0.0
 11
172.1783709273
 21
143.6555277821
 31
0.0
  0
ARC
  5
DA
330
1F
100
AcDbEntity
  8
0
  6
Continuous
 62
     7
370
    15
100
AcDbCircle
 10
172.3783078382
 20
143.6605508932
 30
0.0
 40
0.2000000000000059
100
AcDbArc
 50
181.4391666667
 51
271.4391666667
  0
LINE
  5
DB
330
1F
100
AcDbEntity
  8
0
  6
Continuous
 62
     7
370
    15
100
AcDbLine
 10
172.3833309493
 20
108.8102440128
 30
0.0
 11
173.3375098991
 21
108.7862717164
 31
0.0
  0
LINE
  5
DC
330
1F
100
AcDbEntity
  8
0
  6
Continuous
 62
     7
370
    15
100
AcDbLine
 10
172.3833309493
 20
143.4606139823
 30
0.0
 11
173.3375098992
 21
143.4845862787
 31
0.0
  0
ARC
  5
DD
330
1F
100
AcDbEntity
  8
0
  6
Continuous
 62
     7
370
    15
100
AcDbCircle
 10
192.3605667453
 20
117.2319951425
 30
0.0
 40
2.833186723083038
100
AcDbArc
 50
239.8654553739
 51
270.3974819845
  0
SPLINE
  5
DE
330
1F
100
AcDbEntity
  8
0
  6
Continuous
 62
     7
370
    15
100
AcDbSpline
210
0.0
220
0.0
230
1.0
 70
     8
 71
     3
 72
     8
 73
     4
 74
     0
 42
0.00000001
 43
0.00000001
 12
1.0
 22
0.0
 32
0.0
 13
1.0
 23
0.0
 33
0.0
 40
0.0
 40
0.0
 40
0.0
 40
0.0
 40
1.0
 40
1.0
 40
1.0
 40
1.0
 10
193.1494070331828
 20
113.9004320193042
 30
0.0
 10
192.8904510585284
 20
114.0633216981198
 30
0.0
 10
192.6347208012573
 20
114.2305903352857
 30
0.0
 10
192.3802214503368
 20
114.3988765956763
 30
0.0
  0
LINE
  5
DF
330
1F
100
AcDbEntity
  8
0
  6
Continuous
 62
     7
370
    15
100
AcDbLine
 10
144.3783709273
 20
142.1287548357
 30
0.0
 11
145.8783709273
 21
142.9947802395
 31
0.0
  0
LINE
  5
E0
330
1F
100
AcDbEntity
  8
0
  6
Continuous
 62
     7
370
    15
100
AcDbLine
 10
144.3783709273
 20
130.5121950122
 30
0.0
 11
144.3783709273
 21
142.1287548357
 31
0.0
  0
LINE
  5
E1
330
1F
100
AcDbEntity
  8
0
  6
Continuous
 62
     7
370
    15
100
AcDbLine
 10
144.3783709273
 20
110.1421031594
 30
0.0
 11
145.8783709273
 21
109.2760777556
 31
0.0
  0
LINE
  5
E2
330
1F
100
AcDbEntity
  8
0
  6
Continuous
 62
     7
370
    15
100
AcDbLine
 10
144.3783709273
 20
110.1421031594
 30
0.0
 11
144.3783709273
 21
121.7586629829
 31
0.0
  0
SPLINE
  5
E3
330
1F
100
AcDbEntity
  8
0
  6
Continuous
 62
     7
370
    15
100
AcDbSpline
210
0.0
220
0.0
230
1.0
 70
     8
 71
     3
 72
    13
 73
     9
 74
     0
 42
0.00000001
 43
0.00000001
 12
1.0
 22
0.0
 32
0.0
 13
1.0
 23
0.0
 33
0.0
 40
0.0
 40
0.0
 40
0.0
 40
0.0
 40
0.2380248342609415
 40
0.4778782183473827
 40
0.6661322211118473
 40
0.8579770279335207
 40
0.9815441086077571
 40
1.0
 40
1.0
 40
1.0
 40
1.0
 10
192.3802214503368
 20
114.3988765956763
 30
0.0
 10
192.3163027172778
 20
114.444982192545
 30
0.0
 10
192.187974215892
 20
114.537547577816
 30
0.0
 10
192.0324123568946
 20
114.6874935243837
 30
0.0
 10
191.9106180360295
 20
114.8370391292224
 30
0.0
 10
191.8449242644374
 20
114.9633089642593
 30
0.0
 10
191.8177380942436
 20
115.0477143246834
 30
0.0
 10
191.820334837401
 20
115.0810869821442
 30
0.0
 10
191.8206722842872
 20
115.0854237604315
 30
0.0
  0
LWPOLYLINE
  5
E4
330
1F
100
AcDbEntity
  8
0
  6
Continuous
 62
     7
370
    15
100
AcDbPolyline
 90
       34
 70
   128
 43
0.0
 10
225.2857862509
 20
121.0175314116
 10
225.9445370227
 20
120.96726572
 10
226.5794788253
 20
120.7942394481
 10
227.1676632076
 20
120.5047062163
 10
227.6878316534
 20
120.1091305099
 10
228.12118392
 20
119.6218094656
 10
228.4520575272
 20
119.0603561357
 10
228.6684938409
 20
118.4450629063
 10
228.7626702887
 20
117.7981680778
 10
228.7311830885
 20
117.143052115
 10
228.5751702696
 20
116.5033926154
 10
228.3002705419
 20
115.9023085402
 10
227.9164194977
 20
115.3615246338
 10
227.437490514
 20
114.9005862356
 10
226.880793332
 20
114.5361528603
 10
226.2664484383
 20
114.2813960797
 10
225.6166598581
 20
114.1455234675
 10
224.9549126436
 20
114.1334458139
 10
224.3051240634
 20
114.2455996368
 10
223.6907791697
 20
114.4779314049
 10
223.1340819877
 20
114.8220440427
 10
222.655153004
 20
115.2655004229
 10
222.2713019598
 20
115.7922728765
 10
221.9964022321
 20
116.3833224745
 10
221.8403894133
 20
117.0172871445
 10
221.808902213
 20
117.6712537516
 10
221.9030786608
 20
118.3215862386
 10
222.1195149745
 20
118.9447798952
 10
222.4503885817
 20
119.5183108787
 10
222.8837408483
 20
120.0214502852
 10
223.4039092941
 20
120.4360133455
 10
223.9920936764
 20
120.7470166706
 10
224.627035479
 20
120.94321979
 10
225.2857862509
 20
121.0175314116
  0
SPLINE
  5
E5
330
1F
100
AcDbEntity
  8
0
  6
Continuous
 62
     7
370
    15
100
AcDbSpline
210
0.0
220
0.0
230
1.0
 70
     8
 71
     3
 72
     8
 73
     4
 74
     0
 42
0.00000001
 43
0.00000001
 12
1.0
 22
0.0
 32
0.0
 13
1.0
 23
0.0
 33
0.0
 40
0.0
 40
0.0
 40
0.0
 40
0.0
 40
1.0
 40
1.0
 40
1.0
 40
1.0
 10
207.8870765538864
 20
99.53633674002977
 30
0.0
 10
207.7834172253333
 20
99.93992594511572
 30
0.0
 10
207.6800352585096
 20
100.3435906332458
 30
0.0
 10
207.5769697655827
 20
100.7473414486623
 30
0.0
  0
SPLINE
  5
E6
330
1F
100
AcDbEntity
  8
0
  6
Continuous
 62
     7
370
    15
100
AcDbSpline
210
0.0
220
0.0
230
1.0
 70
     8
 71
     3
 72
    12
 73
     8
 74
     0
 42
0.00000001
 43
0.00000001
 12
1.0
 22
0.0
 32
0.0
 13
1.0
 23
0.0
 33
0.0
 40
0.0
 40
0.0
 40
0.0
 40
0.0
 40
0.2500000000000029
 40
0.2500000000000029
 40
0.5000000000000059
 40
0.5000000000000059
 40
1.0
 40
1.0
 40
1.0
 40
1.0
 10
207.5769697655827
 20
100.7473414486623
 30
0.0
 10
207.5491192581711
 20
100.8564435812759
 30
0.0
 10
207.505654638645
 20
100.9584799663035
 30
0.0
 10
207.3876900957995
 20
101.1485085421551
 30
0.0
 10
207.3146114838825
 20
101.2335326424603
 30
0.0
 10
207.0588625063963
 20
101.4493929676381
 30
0.0
 10
206.8395693356033
 20
101.5377341502478
 30
0.0
 10
206.6110439392943
 20
101.5423374264666
 30
0.0
  0
SPLINE
  5
E7
330
1F
100
AcDbEntity
  8
0
  6
Continuous
 62
     7
370
    15
100
AcDbSpline
210
0.0
220
0.0
230
1.0
 70
     8
 71
     3
 72
    12
 73
     8
 74
     0
 42
0.00000001
 43
0.00000001
 12
1.0
 22
0.0
 32
0.0
 13
1.0
 23
0.0
 33
0.0
 40
0.0
 40
0.0
 40
0.0
 40
0.0
 40
0.2500000000000054
 40
0.2500000000000054
 40
0.5000000000000108
 40
0.5000000000000108
 40
1.0
 40
1.0
 40
1.0
 40
1.0
 10
206.6110439392936
 20
147.7089533091504
 30
0.0
 10
206.7018758352686
 20
147.7140985462064
 30
0.0
 10
206.7899600418914
 20
147.7318407833881
 30
0.0
 10
206.9610222846678
 20
147.79073490193
 30
0.0
 10
207.0429856163784
 20
147.8319482122905
 30
0.0
 10
207.2675566677968
 20
147.9830105302422
 30
0.0
 10
207.3919949864137
 20
148.1226983592521
 30
0.0
 10
207.4770693430781
 20
148.2815604658932
 30
0.0
  0
ELLIPSE
  5
E8
330
1F
100
AcDbEntity
  8
0
  6
Continuous
 62
     7
370
    15
100
AcDbEllipse
 10
289.3336609769
 20
126.1354289976
 30
0.0
 11
242.6158515305095
 21
4.475958828581554
 31
0.0
210
0.0
220
0.0
230
1.0
 40
0.1034726254
 41
1.889006103873412
 42
1.913031561442128
  0
LINE
  5
E9
330
1F
100
AcDbEntity
  8
0
  6
Continuous
 62
     7
370
    15
100
AcDbLine
 10
212.9873483843
 20
148.5788495235
 30
0.0
 11
232.3625280519
 21
121.5321217726
 31
0.0
  0
LINE
  5
EA
330
1F
100
AcDbEntity
  8
0
  6
Continuous
 62
     7
370
    15
100
AcDbLine
 10
232.3625280519
 20
121.5321217726
 30
0.0
 11
233.1676566224
 21
106.3341061501
 31
0.0
  0
LINE
  5
EB
330
1F
100
AcDbEntity
  8
0
  6
Continuous
 62
     7
370
    15
100
AcDbLine
 10
233.1676566224
 20
106.3341061501
 30
0.0
 11
220.3333569266
 21
114.0412916214
 31
0.0
  0
ARC
  5
EC
330
1F
100
AcDbEntity
  8
0
  6
Continuous
 62
     7
370
    15
100
AcDbCircle
 10
219.2437933733
 20
112.2565354152
 30
0.0
 40
2.091053192087561
100
AcDbArc
 50
58.5966389067
 51
237.487559589
  0
LINE
  5
ED
330
1F
100
AcDbEntity
  8
0
  6
Continuous
 62
     7
370
    15
100
AcDbLine
 10
218.1198884202
 20
110.4932030278
 30
0.0
 11
220.7703944514
 21
108.9015352267
 31
0.0
  0
LINE
  5
EE
330
1F
100
AcDbEntity
  8
0
  6
Continuous
 62
     7
370
    15
100
AcDbLine
 10
220.7703944514
 20
108.9015352267
 30
0.0
 11
221.3274213366
 21
98.3868129662
 31
0.0
  0
ARC
  5
EF
330
1F
100
AcDbEntity
  8
0
  6
Continuous
 62
     7
370
    15
100
AcDbCircle
 10
213.3957828441
 20
73.7596700129
 30
0.0
 40
25.87290202535169
100
AcDbArc
 50
72.147861221
 51
91.0768909919
  0
LINE
  5
F0
330
1F
100
AcDbEntity
  8
0
  6
Continuous
 62
     7
370
    15
100
AcDbLine
 10
212.9095226878
 20
99.6280022026
 30
0.0
 11
207.8870765539
 21
99.53633674
 31
0.0
  0
LINE
  5
F1
330
1F
100
AcDbEntity
  8
0
  6
Continuous
 62
     7
370
    15
100
AcDbLine
 10
207.4770693431
 20
148.2815604659
 30
0.0
 11
207.4770693431
 21
151.6354289976
 31
0.0
  0
ELLIPSE
  5
F2
330
1F
100
AcDbEntity
  8
0
  6
Continuous
 62
     7
370
    15
100
AcDbEllipse
 10
229.1855226308
 20
126.1354289976
 30
0.0
 11
-18.1498167384166
 21
25.49899923924275
 31
0.0
210
0.0
220
0.0
230
1.0
 40
0.0124472587
 41
4.735680159552782
 42
6.768977401699447
  0
LINE
  5
F3
330
1F
100
AcDbEntity
  8
0
  6
Continuous
 62
     7
370
    15
100
AcDbLine
 10
229.0801367716
 20
126.9551312525
 30
0.0
 11
232.3625280519
 21
121.5321217726
 31
0.0
  0
LINE
  5
F4
330
1F
100
AcDbEntity
  8
0
  6
Continuous
 62
     7
370
    15
100
AcDbLine
 10
219.8066420201
 20
110.493800781
 30
0.0
 11
217.1561359888
 21
112.0854685821
 31
0.0
  0
LINE
  5
F5
330
1F
100
AcDbEntity
  8
0
  6
Continuous
 62
     7
370
    15
100
AcDbLine
 10
219.8066420201
 20
110.493800781
 30
0.0
 11
220.7703944514
 21
108.9015352267
 31
0.0
  0
SPLINE
  5
F6
330
1F
100
AcDbEntity
  8
0
  6
Continuous
 62
     7
370
    15
100
AcDbSpline
210
0.0
220
0.0
230
1.0
 70
     8
 71
     3
 72
    11
 73
     7
 74
     0
 42
0.00000001
 43
0.00000001
 12
1.0
 22
0.0
 32
0.0
 13
1.0
 23
0.0
 33
0.0
 40
0.0
 40
0.0
 40
0.0
 40
0.0
 40
0.3101502702058592
 40
0.6203423649947161
 40
0.9306685598319836
 40
1.0
 40
1.0
 40
1.0
 40
1.0
 10
207.8870765538877
 20
99.53633674002701
 30
0.0
 10
207.8525832057294
 20
99.60921431118405
 30
0.0
 10
207.7835918578937
 20
99.75497928123106
 30
0.0
 10
207.6998736791642
 20
99.97391829748706
 30
0.0
 10
207.6447032065325
 20
100.1362869941975
 30
0.0
 10
207.6230925497609
 20
100.225718056697
 30
0.0
 10
207.6191461048095
 20
100.2420495716914
 30
0.0
  0
LINE
  5
F7
330
1F
100
AcDbEntity
  8
0
  6
HIDDEN
 62
     7
370
     0
100
AcDbLine
 10
174.3783709273
 20
101.4354289976
 30
0.0
 11
174.3783709273
 21
150.8354289976
 31
0.0
  0
SPLINE
  5
F8
330
1F
100
AcDbEntity
  8
0
  6
HIDDEN
 62
     7
370
     0
100
AcDbSpline
210
0.0
220
0.0
230
1.0
 70
     8
 71
     3
 72
    58
 73
    54
 74
     0
 42
0.00000001
 43
0.00000001
 12
1.0
 22
0.0
 32
0.0
 13
1.0
 23
0.0
 33
0.0
 40
-0.0625000000000003
 40
-0.0625000000000003
 40
0.0
 40
0.0
 40
0.03125
 40
0.03125
 40
0.0625
 40
0.0625
 40
0.0937499999999999
 40
0.0937499999999999
 40
0.1249999999999999
 40
0.1249999999999999
 40
0.1874999999999999
 40
0.1874999999999999
 40
0.2499999999999999
 40
0.2499999999999999
 40
0.2812499999999998
 40
0.2812499999999998
 40
0.3124999999999998
 40
0.3124999999999998
 40
0.3437499999999998
 40
0.3437499999999998
 40
0.3749999999999998
 40
0.3749999999999998
 40
0.4062499999999997
 40
0.4062499999999997
 40
0.4374999999999997
 40
0.4374999999999997
 40
0.4687499999999997
 40
0.4687499999999997
 40
0.4999999999999997
 40
0.4999999999999997
 40
0.5624999999999997
 40
0.5624999999999997
 40
0.6249999999999997
 40
0.6249999999999997
 40
0.6562499999999997
 40
0.6562499999999997
 40
0.6874999999999996
 40
0.6874999999999996
 40
0.7187499999999996
 40
0.7187499999999996
 40
0.7499999999999996
 40
0.7499999999999996
 40
0.7812499999999996
 40
0.7812499999999996
 40
0.8124999999999994
 40
0.8124999999999994
 40
0.8437499999999994
 40
0.8437499999999994
 40
0.8749999999999994
 40
0.8749999999999994
 40
0.9374999999999997
 40
0.9374999999999997
 40
1.0
 40
1.0
 40
1.03125
 40
1.03125
 10
184.3783709272726
 20
126.3998013680961
 30
0.0
 10
184.3783709272726
 20
126.0032428122809
 30
0.0
 10
184.3913468192831
 20
125.8732760727362
 30
0.0
 10
184.442179121389
 20
125.617596734604
 30
0.0
 10
184.4806561927104
 20
125.4905556427626
 30
0.0
 10
184.5810611538668
 20
125.248377456822
 30
0.0
 10
184.6424953961861
 20
125.1335237982326
 30
0.0
 10
184.7876296623678
 20
124.9161586764267
 30
0.0
 10
184.8720715835151
 20
124.8132832043425
 30
0.0
 10
185.148743613125
 20
124.5366652519253
 30
0.0
 10
185.3717897680932
 20
124.3876731320924
 30
0.0
 10
185.8530537666376
 20
124.1881493371012
 30
0.0
 10
186.1163116219574
 20
124.1355704725989
 30
0.0
 10
186.5077776532422
 20
124.1353586990114
 30
0.0
 10
186.6403263968557
 20
124.1483496706008
 30
0.0
 10
186.896870705871
 20
124.1993858938906
 30
0.0
 10
187.0215665922427
 20
124.2371474352934
 30
0.0
 10
187.2637695626764
 20
124.3373069745869
 30
0.0
 10
187.3808329259271
 20
124.3999047843374
 30
0.0
 10
187.5975192451732
 20
124.544626768373
 30
0.0
 10
187.6985332132409
 20
124.6272508735413
 30
0.0
 10
187.8853264075264
 20
124.8138712441523
 30
0.0
 10
187.9681267714807
 20
124.9149196120435
 30
0.0
 10
188.1130052103753
 20
125.1314316329173
 30
0.0
 10
188.1756559937026
 20
125.2483209881163
 30
0.0
 10
188.2760963880765
 20
125.4905783901752
 30
0.0
 10
188.3139553998465
 20
125.6152410549906
 30
0.0
 10
188.36519310431
 20
125.8715722506454
 30
0.0
 10
188.3783234790831
 20
126.0041601899958
 30
0.0
 10
188.378465429522
 20
126.3957918585651
 30
0.0
 10
188.3261245132739
 20
126.6590046915993
 30
0.0
 10
188.1269942865358
 20
127.1405120222907
 30
0.0
 10
187.9781571988935
 20
127.3637125035663
 30
0.0
 10
187.7018451623541
 20
127.640558583528
 30
0.0
 10
187.5990796251029
 20
127.7250706777468
 30
0.0
 10
187.381762692749
 20
127.8704492744782
 30
0.0
 10
187.2669757822122
 20
127.9319647060801
 30
0.0
 10
187.0250562921063
 20
128.0325207663256
 30
0.0
 10
186.8979293896063
 20
128.0711594921603
 30
0.0
 10
186.6422605539701
 20
128.1222243590476
 30
0.0
 10
186.5123653485921
 20
128.1352988394239
 30
0.0
 10
186.2482905661677
 20
128.1355572406975
 30
0.0
 10
186.1179614266824
 20
128.1226811727345
 30
0.0
 10
185.8622721125386
 20
128.0720823814066
 30
0.0
 10
185.7353442461509
 20
128.033777035569
 30
0.0
 10
185.4928919573088
 20
127.9335212031491
 30
0.0
 10
185.3779752633272
 20
127.872170184237
 30
0.0
 10
185.1605844715567
 20
127.7273013486667
 30
0.0
 10
185.0575991918752
 20
127.6429373953974
 30
0.0
 10
184.7806348242179
 20
127.3664113416113
 30
0.0
 10
184.6315025458594
 20
127.1435514996156
 30
0.0
 10
184.431550427145
 20
126.6624489795549
 30
0.0
 10
184.3783709272726
 20
126.3998013680961
 30
0.0
 10
184.3783709272726
 20
126.0032428122809
 30
0.0
  0
SPLINE
  5
F9
330
1F
100
AcDbEntity
  8
0
  6
HIDDEN
 62
     7
370
     0
100
AcDbSpline
210
0.0
220
0.0
230
1.0
 70
     8
 71
     3
 72
    12
 73
     8
 74
     0
 42
0.00000001
 43
0.00000001
 12
1.0
 22
0.0
 32
0.0
 13
1.0
 23
0.0
 33
0.0
 40
0.0
 40
0.0
 40
0.0
 40
0.0
 40
0.4999999999999982
 40
0.4999999999999982
 40
0.7499999999999991
 40
0.7499999999999991
 40
1.0
 40
1.0
 40
1.0
 40
1.0
 10
182.4731150389468
 20
118.0389759995084
 30
0.0
 10
182.5038144223141
 20
118.1533116665723
 30
0.0
 10
182.5451644904206
 20
118.2646650194136
 30
0.0
 10
182.6449204186401
 20
118.4174017916624
 30
0.0
 10
182.6846173363728
 20
118.4652616775145
 30
0.0
 10
182.7818754880204
 20
118.539864790864
 30
0.0
 10
182.8426516460111
 20
118.566619028372
 30
0.0
 10
182.906127740839
 20
118.566619028372
 30
0.0
  0
LINE
  5
FA
330
1F
100
AcDbEntity
  8
0
  6
HIDDEN
 62
     7
370
     0
100
AcDbLine
 10
182.9061277408
 20
118.5666190284
 30
0.0
 11
185.8506141137
 21
118.5666190284
 31
0.0
  0
SPLINE
  5
FB
330
1F
100
AcDbEntity
  8
0
  6
HIDDEN
 62
     7
370
     0
100
AcDbSpline
210
0.0
220
0.0
230
1.0
 70
     8
 71
     3
 72
    12
 73
     8
 74
     0
 42
0.00000001
 43
0.00000001
 12
1.0
 22
0.0
 32
0.0
 13
1.0
 23
0.0
 33
0.0
 40
0.0
 40
0.0
 40
0.0
 40
0.0
 40
0.2500000000000018
 40
0.2500000000000018
 40
0.5000000000000037
 40
0.5000000000000037
 40
1.0
 40
1.0
 40
1.0
 40
1.0
 10
185.8506141137061
 20
118.566619028372
 30
0.0
 10
185.9142793502366
 20
118.566619028372
 30
0.0
 10
185.97388558246
 20
118.5405468798924
 30
0.0
 10
186.0725461073909
 20
118.4650081290713
 30
0.0
 10
186.1115130974061
 20
118.417757191975
 30
0.0
 10
186.2108999293306
 20
118.2659333740086
 30
0.0
 10
186.252976176754
 20
118.1531301242435
 30
0.0
 10
186.2836268155984
 20
118.0389759995084
 30
0.0
  0
ELLIPSE
  5
FC
330
1F
100
AcDbEntity
  8
0
  6
HIDDEN
 62
     7
370
     0
100
AcDbEllipse
 10
173.3221132723
 20
126.1354289976
 30
0.0
 11
-11.70927234972711
 21
24.67718644093742
 31
0.0
210
0.0
220
0.0
230
1.0
 40
0.3419987131
 41
3.310521928178961
 42
4.221709151398947
  0
SPLINE
  5
FD
330
1F
100
AcDbEntity
  8
0
  6
HIDDEN
 62
     7
370
     0
100
AcDbSpline
210
0.0
220
0.0
230
1.0
 70
     8
 71
     3
 72
    12
 73
     8
 74
     0
 42
0.00000001
 43
0.00000001
 12
1.0
 22
0.0
 32
0.0
 13
1.0
 23
0.0
 33
0.0
 40
0.0
 40
0.0
 40
0.0
 40
0.0
 40
0.4999999999999982
 40
0.4999999999999982
 40
0.7499999999999991
 40
0.7499999999999991
 40
1.0
 40
1.0
 40
1.0
 40
1.0
 10
186.2836268155984
 20
102.4827875203211
 30
0.0
 10
186.2529274322311
 20
102.4436496779252
 30
0.0
 10
186.2115773641245
 20
102.4064898951997
 30
0.0
 10
186.1118214359051
 20
102.3565533895719
 30
0.0
 10
186.0721245181724
 20
102.3411005194282
 30
0.0
 10
185.9748663665247
 20
102.3171809758291
 30
0.0
 10
185.9140902085341
 20
102.3086978820507
 30
0.0
 10
185.8506141137061
 20
102.3086978820507
 30
0.0
  0
LINE
  5
FE
330
1F
100
AcDbEntity
  8
0
  6
HIDDEN
 62
     7
370
     0
100
AcDbLine
 10
185.8506141137
 20
102.3086978821
 30
0.0
 11
182.9061277408
 21
102.3086978821
 31
0.0
  0
SPLINE
  5
FF
330
1F
100
AcDbEntity
  8
0
  6
HIDDEN
 62
     7
370
     0
100
AcDbSpline
210
0.0
220
0.0
230
1.0
 70
     8
 71
     3
 72
    12
 73
     8
 74
     0
 42
0.00000001
 43
0.00000001
 12
1.0
 22
0.0
 32
0.0
 13
1.0
 23
0.0
 33
0.0
 40
0.0
 40
0.0
 40
0.0
 40
0.0
 40
0.25
 40
0.25
 40
0.5
 40
0.5
 40
1.0
 40
1.0
 40
1.0
 40
1.0
 10
182.906127740839
 20
102.3086978820507
 30
0.0
 10
182.8424625043085
 20
102.3086978820507
 30
0.0
 10
182.7828562720852
 20
102.3169626577166
 30
0.0
 10
182.6841957471543
 20
102.3411814392997
 30
0.0
 10
182.6452287571391
 20
102.3564387586089
 30
0.0
 10
182.5458419252146
 20
102.4060721128708
 30
0.0
 10
182.5037656777911
 20
102.4437118210449
 30
0.0
 10
182.4731150389468
 20
102.4827875203211
 30
0.0
  0
ELLIPSE
  5
100
330
1F
100
AcDbEntity
  8
0
  6
HIDDEN
 62
     7
370
     0
100
AcDbEllipse
 10
195.4346285823
 20
126.1354289976
 30
0.0
 11
11.70927234972703
 21
24.67718644093742
 31
0.0
210
0.0
220
0.0
230
1.0
 40
0.3419987131
 41
2.061476155780651
 42
2.972663379000669
  0
SPLINE
  5
101
330
1F
100
AcDbEntity
  8
0
  6
HIDDEN
 62
     7
370
     0
100
AcDbSpline
210
0.0
220
0.0
230
1.0
 70
     8
 71
     3
 72
    12
 73
     8
 74
     0
 42
0.00000001
 43
0.00000001
 12
1.0
 22
0.0
 32
0.0
 13
1.0
 23
0.0
 33
0.0
 40
0.0
 40
0.0
 40
0.0
 40
0.0
 40
0.5000000000000009
 40
0.5000000000000009
 40
0.7500000000000004
 40
0.7500000000000004
 40
1.0
 40
1.0
 40
1.0
 40
1.0
 10
182.4731150389468
 20
149.7880704747844
 30
0.0
 10
182.5038144223141
 20
149.8272083171803
 30
0.0
 10
182.5451644904206
 20
149.8643680999058
 30
0.0
 10
182.6449204186401
 20
149.9143046055335
 30
0.0
 10
182.6846173363728
 20
149.9297574756773
 30
0.0
 10
182.7818754880204
 20
149.9536770192763
 30
0.0
 10
182.8426516460111
 20
149.9621601130547
 30
0.0
 10
182.906127740839
 20
149.9621601130547
 30
0.0
  0
LINE
  5
102
330
1F
100
AcDbEntity
  8
0
  6
HIDDEN
 62
     7
370
     0
100
AcDbLine
 10
182.9061277408
 20
149.9621601131
 30
0.0
 11
185.8506141137
 21
149.9621601131
 31
0.0
  0
SPLINE
  5
103
330
1F
100
AcDbEntity
  8
0
  6
HIDDEN
 62
     7
370
     0
100
AcDbSpline
210
0.0
220
0.0
230
1.0
 70
     8
 71
     3
 72
    12
 73
     8
 74
     0
 42
0.00000001
 43
0.00000001
 12
1.0
 22
0.0
 32
0.0
 13
1.0
 23
0.0
 33
0.0
 40
0.0
 40
0.0
 40
0.0
 40
0.0
 40
0.2499999999999982
 40
0.2499999999999982
 40
0.4999999999999963
 40
0.4999999999999963
 40
1.0
 40
1.0
 40
1.0
 40
1.0
 10
185.8506141137061
 20
149.9621601130547
 30
0.0
 10
185.9142793502366
 20
149.9621601130547
 30
0.0
 10
185.97388558246
 20
149.9538953373888
 30
0.0
 10
186.0725461073908
 20
149.9296765558057
 30
0.0
 10
186.1115130974061
 20
149.9144192364965
 30
0.0
 10
186.2108999293306
 20
149.8647858822346
 30
0.0
 10
186.252976176754
 20
149.8271461740605
 30
0.0
 10
186.2836268155984
 20
149.7880704747844
 30
0.0
  0
ELLIPSE
  5
104
330
1F
100
AcDbEntity
  8
0
  6
HIDDEN
 62
     7
370
     0
100
AcDbEllipse
 10
173.3221132723
 20
126.1354289976
 30
0.0
 11
11.70927234972729
 21
24.67718644093742
 31
0.0
210
0.0
220
0.0
230
1.0
 40
0.3419987131
 41
5.20306880937047
 42
6.114256032590516
  0
SPLINE
  5
105
330
1F
100
AcDbEntity
  8
0
  6
HIDDEN
 62
     7
370
     0
100
AcDbSpline
210
0.0
220
0.0
230
1.0
 70
     8
 71
     3
 72
    12
 73
     8
 74
     0
 42
0.00000001
 43
0.00000001
 12
1.0
 22
0.0
 32
0.0
 13
1.0
 23
0.0
 33
0.0
 40
0.0
 40
0.0
 40
0.0
 40
0.0
 40
0.5000000000000046
 40
0.5000000000000046
 40
0.7500000000000022
 40
0.7500000000000022
 40
1.0
 40
1.0
 40
1.0
 40
1.0
 10
186.2836268155984
 20
134.2318819955972
 30
0.0
 10
186.252927432231
 20
134.1175463285334
 30
0.0
 10
186.2115773641246
 20
134.006192975692
 30
0.0
 10
186.1118214359051
 20
133.8534562034433
 30
0.0
 10
186.0721245181724
 20
133.8055963175911
 30
0.0
 10
185.9748663665247
 20
133.7309932042417
 30
0.0
 10
185.914090208534
 20
133.7042389667336
 30
0.0
 10
185.8506141137061
 20
133.7042389667336
 30
0.0
  0
LINE
  5
106
330
1F
100
AcDbEntity
  8
0
  6
HIDDEN
 62
     7
370
     0
100
AcDbLine
 10
185.8506141137
 20
133.7042389667
 30
0.0
 11
182.9061277408
 21
133.7042389667
 31
0.0
  0
SPLINE
  5
107
330
1F
100
AcDbEntity
  8
0
  6
HIDDEN
 62
     7
370
     0
100
AcDbSpline
210
0.0
220
0.0
230
1.0
 70
     8
 71
     3
 72
    12
 73
     8
 74
     0
 42
0.00000001
 43
0.00000001
 12
1.0
 22
0.0
 32
0.0
 13
1.0
 23
0.0
 33
0.0
 40
0.0
 40
0.0
 40
0.0
 40
0.0
 40
0.2499999999999991
 40
0.2499999999999991
 40
0.4999999999999982
 40
0.4999999999999982
 40
1.0
 40
1.0
 40
1.0
 40
1.0
 10
182.906127740839
 20
133.7042389667336
 30
0.0
 10
182.8424625043085
 20
133.7042389667336
 30
0.0
 10
182.7828562720852
 20
133.7303111152133
 30
0.0
 10
182.6841957471543
 20
133.8058498660344
 30
0.0
 10
182.6452287571391
 20
133.8531008031306
 30
0.0
 10
182.5458419252146
 20
134.004924621097
 30
0.0
 10
182.5037656777911
 20
134.1177278708621
 30
0.0
 10
182.4731150389468
 20
134.2318819955972
 30
0.0
  0
ELLIPSE
  5
108
330
1F
100
AcDbEntity
  8
0
  6
HIDDEN
 62
     7
370
     0
100
AcDbEllipse
 10
195.4346285823
 20
126.1354289976
 30
0.0
 11
-11.70927234972714
 21
24.67718644093745
 31
0.0
210
0.0
220
0.0
230
1.0
 40
0.3419987131
 41
0.1689292745891144
 42
1.080116497809135
  0
LWPOLYLINE
  5
109
330
1F
100
AcDbEntity
  8
0
  6
HIDDEN
 62
     7
370
     0
100
AcDbPolyline
 90
       20
 70
   128
 43
0.0
 10
195.274729929
 20
116.9875417802
 10
195.0553192695
 20
117.4676818982
 10
194.7241017133
 20
117.900385426
 10
194.2949110748
 20
118.2675798301
 10
193.7856731663
 20
118.553928667
 10
193.2176570986
 20
118.7474721337
 10
192.6145869429
 20
118.8401265874
 10
192.0016508593
 20
118.8280221711
 10
191.4044490731
 20
118.7116644445
 10
190.8479246429
 20
118.4959132685
 10
190.3553216739
 20
118.1897798254
 10
189.9472144927
 20
117.8060502529
 10
189.6406483284
 20
117.3607516114
 10
189.4484273919
 20
116.8724824889
 10
189.3785800887
 20
116.3616362021
 10
189.4340236995
 20
115.849549038
 10
189.6124425361
 20
115.3576091107
 10
189.9063846592
 20
114.9063630539
 10
190.3035731204
 20
114.5146578585
 10
190.3968150056
 20
114.442880509
  0
SPLINE
  5
10A
330
1F
100
AcDbEntity
  8
0
  6
HIDDEN
 62
     7
370
     0
100
AcDbSpline
210
0.0
220
0.0
230
1.0
 70
     8
 71
     3
 72
    21
 73
    17
 74
     0
 42
0.00000001
 43
0.00000001
 12
1.0
 22
0.0
 32
0.0
 13
1.0
 23
0.0
 33
0.0
 40
0.0
 40
0.0
 40
0.0
 40
0.0
 40
0.0984695310691872
 40
0.1976113380225375
 40
0.2991520475050689
 40
0.4017106754496623
 40
0.4608304011691232
 40
0.520244270722051
 40
0.5807026181929095
 40
0.6415848502929103
 40
0.741847032910367
 40
0.7932144395933775
 40
0.8449763553706983
 40
0.9453294511121125
 40
0.9970002883100281
 40
1.0
 40
1.0
 40
1.0
 40
1.0
 10
195.2747299290122
 20
116.9875417802271
 30
0.0
 10
195.2918261468046
 20
116.8882132029009
 30
0.0
 10
195.3261353025038
 20
116.6888779074427
 30
0.0
 10
195.3616138910938
 20
116.3783333384573
 30
0.0
 10
195.3806105179573
 20
116.0593274006525
 30
0.0
 10
195.3780851904296
 20
115.7801771851017
 30
0.0
 10
195.3612612372216
 20
115.5466741133714
 30
0.0
 10
195.3381275934169
 20
115.3590734905814
 30
0.0
 10
195.3043027140043
 20
115.1723045125956
 30
0.0
 10
195.2490457016222
 20
114.9485816336213
 30
0.0
 10
195.1774584037336
 20
114.7429877570557
 30
0.0
 10
195.0919107548767
 20
114.5597861065809
 30
0.0
 10
194.9952149110748
 20
114.3867423717536
 30
0.0
 10
194.8809637885741
 20
114.2337738364552
 30
0.0
 10
194.7864529002829
 20
114.1293552705968
 30
0.0
 10
194.7504482930609
 20
114.0981996875493
 30
0.0
 10
194.7484727606514
 20
114.0964902156567
 30
0.0
  0
LINE
  5
10B
330
1F
100
AcDbEntity
  8
0
  6
HIDDEN
 62
     7
370
     0
100
AcDbLine
 10
174.3783709273
 20
106.5854289976
 30
0.0
 11
174.3783709273
 21
145.6854289976
 31
0.0
  0
SPLINE
  5
10C
330
1F
100
AcDbEntity
  8
0
  6
HIDDEN
 62
     7
370
     0
100
AcDbSpline
210
0.0
220
0.0
230
1.0
 70
     8
 71
     3
 72
    14
 73
    10
 74
     0
 42
0.00000001
 43
0.00000001
 12
1.0
 22
0.0
 32
0.0
 13
1.0
 23
0.0
 33
0.0
 40
0.0
 40
0.0
 40
0.0
 40
0.0
 40
0.25
 40
0.25
 40
0.5
 40
0.5
 40
0.75
 40
0.75
 40
1.0
 40
1.0
 40
1.0
 40
1.0
 10
173.3375098991442
 20
138.4299045426261
 30
0.0
 10
173.3692250334749
 20
138.372121360283
 30
0.0
 10
173.4038395587753
 20
138.315708699208
 30
0.0
 10
173.4835107541906
 20
138.2081092491926
 30
0.0
 10
173.528566631221
 20
138.1561966222715
 30
0.0
 10
173.6391210437264
 20
138.0699979975742
 30
0.0
 10
173.7065064579306
 20
138.0359085776025
 30
0.0
 10
173.8571359778286
 20
138.0338061855857
 30
0.0
 10
173.9269632145941
 20
138.0671779584304
 30
0.0
 10
173.9833940383975
 20
138.1109906269812
 30
0.0
  0
SPLINE
  5
10D
330
1F
100
AcDbEntity
  8
0
  6
HIDDEN
 62
     7
370
     0
100
AcDbSpline
210
0.0
220
0.0
230
1.0
 70
     8
 71
     3
 72
    16
 73
    12
 74
     0
 42
0.00000001
 43
0.00000001
 12
1.0
 22
0.0
 32
0.0
 13
1.0
 23
0.0
 33
0.0
 40
0.0
 40
0.0
 40
0.0
 40
0.0
 40
0.0624999999999994
 40
0.0624999999999994
 40
0.1249999999999988
 40
0.1249999999999988
 40
0.2499999999999994
 40
0.2499999999999994
 40
0.4999999999999997
 40
0.4999999999999997
 40
1.0
 40
1.0
 40
1.0
 40
1.0
 10
173.9833940383657
 20
138.1109906270118
 30
0.0
 10
173.9951282728126
 20
138.1201010402597
 30
0.0
 10
174.0086600282916
 20
138.1281783962061
 30
0.0
 10
174.0386474887214
 20
138.136425237883
 30
0.0
 10
174.0536421951297
 20
138.1354979202954
 30
0.0
 10
174.0893826175244
 20
138.1227314007637
 30
0.0
 10
174.1033959545256
 20
138.1050827542533
 30
0.0
 10
174.137540043307
 20
138.0504298342217
 30
0.0
 10
174.1485119474254
 20
138.0090301665633
 30
0.0
 10
174.1743574876917
 20
137.8805404228405
 30
0.0
 10
174.1783709272726
 20
137.7899223352018
 30
0.0
 10
174.1783709272726
 20
137.6977032306477
 30
0.0
  0
LINE
  5
10E
330
1F
100
AcDbEntity
  8
0
  6
HIDDEN
 62
     7
370
     0
100
AcDbLine
 10
174.1783709273
 20
114.5731547645
 30
0.0
 11
174.1783709273
 21
137.6977032306
 31
0.0
  0
SPLINE
  5
10F
330
1F
100
AcDbEntity
  8
0
  6
HIDDEN
 62
     7
370
     0
100
AcDbSpline
210
0.0
220
0.0
230
1.0
 70
     8
 71
     3
 72
    16
 73
    12
 74
     0
 42
0.00000001
 43
0.00000001
 12
1.0
 22
0.0
 32
0.0
 13
1.0
 23
0.0
 33
0.0
 40
0.0
 40
0.0
 40
0.0
 40
0.0
 40
0.4999999999999986
 40
0.4999999999999986
 40
0.7500000000000002
 40
0.7500000000000002
 40
0.8749999999999991
 40
0.8749999999999991
 40
0.9374999999999996
 40
0.9374999999999996
 40
1.0
 40
1.0
 40
1.0
 40
1.0
 10
174.1783709272726
 20
114.5731547644576
 30
0.0
 10
174.1783709272726
 20
114.4805709135537
 30
0.0
 10
174.1743136251575
 20
114.3903584576934
 30
0.0
 10
174.1486563823627
 20
114.262417330575
 30
0.0
 10
174.1373409366206
 20
114.2200041161631
 30
0.0
 10
174.1033095693119
 20
114.165690072712
 30
0.0
 10
174.0894305881081
 20
114.1481087373221
 30
0.0
 10
174.0534949063408
 20
114.1353250493871
 30
0.0
 10
174.038544587078
 20
114.1344495512391
 30
0.0
 10
174.0086460743362
 20
114.1426949863584
 30
0.0
 10
173.9951132139709
 20
114.1507686465302
 30
0.0
 10
173.9833940383969
 20
114.1598673681243
 30
0.0
  0
SPLINE
  5
110
330
1F
100
AcDbEntity
  8
0
  6
HIDDEN
 62
     7
370
     0
100
AcDbSpline
210
0.0
220
0.0
230
1.0
 70
     8
 71
     3
 72
    14
 73
    10
 74
     0
 42
0.00000001
 43
0.00000001
 12
1.0
 22
0.0
 32
0.0
 13
1.0
 23
0.0
 33
0.0
 40
0.0
 40
0.0
 40
0.0
 40
0.0
 40
0.25
 40
0.25
 40
0.5
 40
0.5
 40
0.75
 40
0.75
 40
1.0
 40
1.0
 40
1.0
 40
1.0
 10
173.9833940384038
 20
114.1598673681328
 30
0.0
 10
173.926938273795
 20
114.2036994006276
 30
0.0
 10
173.8560726475451
 20
114.2370304370494
 30
0.0
 10
173.7076155663725
 20
114.234971426902
 30
0.0
 10
173.6384222070649
 20
114.2003754025003
 30
0.0
 10
173.5287067689307
 20
114.1147100458374
 30
0.0
 10
173.4834621895994
 20
114.0626876011294
 30
0.0
 10
173.4038354801756
 20
113.9551393407995
 30
0.0
 10
173.3692253316422
 20
113.8987371780665
 30
0.0
 10
173.3375098991429
 20
113.8409534524769
 30
0.0
  0
SPLINE
  5
111
330
1F
100
AcDbEntity
  8
0
  6
HIDDEN
 62
     7
370
     0
100
AcDbSpline
210
0.0
220
0.0
230
1.0
 70
     8
 71
     3
 72
    10
 73
     6
 74
     0
 42
0.00000001
 43
0.00000001
 12
1.0
 22
0.0
 32
0.0
 13
1.0
 23
0.0
 33
0.0
 40
0.0
 40
0.0
 40
0.0
 40
0.0
 40
0.5
 40
0.5
 40
1.0
 40
1.0
 40
1.0
 40
1.0
 10
173.3375098991435
 20
113.8409534524779
 30
0.0
 10
173.2657301112201
 20
113.7101747355761
 30
0.0
 10
173.213270596912
 20
113.5760745860729
 30
0.0
 10
173.1239275328108
 20
113.3079820230841
 30
0.0
 10
173.0879319233111
 20
113.1737366514952
 30
0.0
 10
173.057050583713
 20
113.0403822740202
 30
0.0
  0
SPLINE
  5
112
330
1F
100
AcDbEntity
  8
0
  6
HIDDEN
 62
     7
370
     0
100
AcDbSpline
210
0.0
220
0.0
230
1.0
 70
     8
 71
     3
 72
    10
 73
     6
 74
     0
 42
0.00000001
 43
0.00000001
 12
1.0
 22
0.0
 32
0.0
 13
1.0
 23
0.0
 33
0.0
 40
0.0
 40
0.0
 40
0.0
 40
0.0
 40
0.5
 40
0.5
 40
1.0
 40
1.0
 40
1.0
 40
1.0
 10
173.057050583713
 20
108.8385191295478
 30
0.0
 10
173.0879236155252
 20
108.8222359821807
 30
0.0
 10
173.1239104784381
 20
108.8099783924551
 30
0.0
 10
173.2132450643293
 20
108.7928754036264
 30
0.0
 10
173.2657009237519
 20
108.788075807768
 30
0.0
 10
173.3375098991442
 20
108.7862717163601
 30
0.0
  0
SPLINE
  5
113
330
1F
100
AcDbEntity
  8
0
  6
HIDDEN
 62
     7
370
     0
100
AcDbSpline
210
0.0
220
0.0
230
1.0
 70
     8
 71
     3
 72
     8
 73
     4
 74
     0
 42
0.00000001
 43
0.00000001
 12
1.0
 22
0.0
 32
0.0
 13
1.0
 23
0.0
 33
0.0
 40
0.0
 40
0.0
 40
0.0
 40
0.0
 40
1.0
 40
1.0
 40
1.0
 40
1.0
 10
174.1606743038976
 20
108.660387338113
 30
0.0
 10
174.1746611124397
 20
108.6321469475313
 30
0.0
 10
174.1783709272723
 20
108.6090149047206
 30
0.0
 10
174.1783709272727
 20
108.5886745318854
 30
0.0
  0
LINE
  5
114
330
1F
100
AcDbEntity
  8
0
  6
HIDDEN
 62
     7
370
     0
100
AcDbLine
 10
174.1783709273
 20
108.2956087187
 30
0.0
 11
174.1783709273
 21
108.5886745319
 31
0.0
  0
LINE
  5
115
330
1F
100
AcDbEntity
  8
0
  6
HIDDEN
 62
     7
370
     0
100
AcDbLine
 10
174.1783709273
 20
143.6821834632
 30
0.0
 11
174.1783709273
 21
143.9752492764
 31
0.0
  0
SPLINE
  5
116
330
1F
100
AcDbEntity
  8
0
  6
HIDDEN
 62
     7
370
     0
100
AcDbSpline
210
0.0
220
0.0
230
1.0
 70
     8
 71
     3
 72
    10
 73
     6
 74
     0
 42
0.00000001
 43
0.00000001
 12
1.0
 22
0.0
 32
0.0
 13
1.0
 23
0.0
 33
0.0
 40
0.0
 40
0.0
 40
0.0
 40
0.0
 40
0.5
 40
0.5
 40
1.0
 40
1.0
 40
1.0
 40
1.0
 10
173.337509899145
 20
143.4845862787452
 30
0.0
 10
173.2657009237524
 20
143.4827821873373
 30
0.0
 10
173.2132450643297
 20
143.477982591479
 30
0.0
 10
173.1239104784383
 20
143.4608796026502
 30
0.0
 10
173.0879236155253
 20
143.4486220129246
 30
0.0
 10
173.057050583713
 20
143.4323388655575
 30
0.0
  0
SPLINE
  5
117
330
1F
100
AcDbEntity
  8
0
  6
HIDDEN
 62
     7
370
     0
100
AcDbSpline
210
0.0
220
0.0
230
1.0
 70
     8
 71
     3
 72
    10
 73
     6
 74
     0
 42
0.00000001
 43
0.00000001
 12
1.0
 22
0.0
 32
0.0
 13
1.0
 23
0.0
 33
0.0
 40
0.0
 40
0.0
 40
0.0
 40
0.0
 40
0.5
 40
0.5
 40
1.0
 40
1.0
 40
1.0
 40
1.0
 10
173.057050583713
 20
139.2304757210851
 30
0.0
 10
173.0879319233111
 20
139.0971213436098
 30
0.0
 10
173.1239275328109
 20
138.9628759720208
 30
0.0
 10
173.2132705969123
 20
138.6947834090316
 30
0.0
 10
173.2657301112205
 20
138.5606832595282
 30
0.0
 10
173.3375098991442
 20
138.4299045426261
 30
0.0
  0
LINE
  5
118
330
1F
100
AcDbEntity
  8
0
  6
HIDDEN
 62
     7
370
     0
100
AcDbLine
 10
174.1783709273
 20
108.5886745319
 30
0.0
 11
174.1783709273
 21
120.150948765
 31
0.0
  0
LINE
  5
119
330
1F
100
AcDbEntity
  8
0
  6
HIDDEN
 62
     7
370
     0
100
AcDbLine
 10
174.1783709273
 20
132.1199092301
 30
0.0
 11
174.1783709273
 21
143.6821834632
 31
0.0
  0
SPLINE
  5
11A
330
1F
100
AcDbEntity
  8
0
  6
HIDDEN
 62
     7
370
     0
100
AcDbSpline
210
0.0
220
0.0
230
1.0
 70
     8
 71
     3
 72
     8
 73
     4
 74
     0
 42
0.00000001
 43
0.00000001
 12
1.0
 22
0.0
 32
0.0
 13
1.0
 23
0.0
 33
0.0
 40
0.0
 40
0.0
 40
0.0
 40
0.0
 40
1.0
 40
1.0
 40
1.0
 40
1.0
 10
194.3774268903997
 20
117.7546132495011
 30
0.0
 10
194.6920953519697
 20
117.5265034854531
 30
0.0
 10
194.9924589997053
 20
117.2656204033939
 30
0.0
 10
195.2747299290122
 20
116.9875417802271
 30
0.0
  0
LWPOLYLINE
  5
11B
330
1F
100
AcDbEntity
  8
0
  6
HIDDEN
 62
     7
370
     0
100
AcDbPolyline
 90
       17
 70
   128
 43
0.0
 10
194.3774268904
 20
117.7546132495
 10
193.9900824237
 20
118.0983539408
 10
193.5207278727
 20
118.3605379226
 10
192.9932458033
 20
118.5278242648
 10
192.4344765336
 20
118.5917007945
 10
191.8728523948
 20
118.548917228
 10
191.3369509845
 20
118.4016505577
 10
190.8540410294
 20
118.1573942788
 10
190.4486948466
 20
117.8285770907
 10
190.14153801
 20
117.4319304778
 10
189.9481998418
 20
116.9876373462
 10
189.8785181321
 20
116.5183050406
 10
189.9360385545
 20
116.0478149952
 10
190.1178342484
 20
115.6001075544
 10
190.4146547494
 20
115.1979637959
 10
190.8113966877
 20
114.8618463422
 10
190.9382156092
 20
114.7817167392
  0
SPLINE
  5
11C
330
1F
100
AcDbEntity
  8
0
  6
HIDDEN
 62
     7
370
     0
100
AcDbSpline
210
0.0
220
0.0
230
1.0
 70
     8
 71
     3
 72
    12
 73
     8
 74
     0
 42
0.00000001
 43
0.00000001
 12
1.0
 22
0.0
 32
0.0
 13
1.0
 23
0.0
 33
0.0
 40
0.0
 40
0.0
 40
0.0
 40
0.0
 40
0.5
 40
0.5
 40
0.75
 40
0.75
 40
1.0
 40
1.0
 40
1.0
 40
1.0
 10
193.2821326265765
 20
119.7883219798549
 30
0.0
 10
193.1259256370306
 20
119.6456606374233
 30
0.0
 10
192.985151373629
 20
119.4771925273114
 30
0.0
 10
192.8988149251926
 20
119.1749165976438
 30
0.0
 10
192.8927740396879
 20
119.0671565780736
 30
0.0
 10
192.9182460882051
 20
118.8503494076685
 30
0.0
 10
192.9484078099087
 20
118.7397563900681
 30
0.0
 10
192.9874823069901
 20
118.6269762587446
 30
0.0
  0
SPLINE
  5
11D
330
1F
100
AcDbEntity
  8
0
  6
HIDDEN
 62
     7
370
     0
100
AcDbSpline
210
0.0
220
0.0
230
1.0
 70
     8
 71
     3
 72
    46
 73
    42
 74
     0
 42
0.00000001
 43
0.00000001
 12
1.0
 22
0.0
 32
0.0
 13
1.0
 23
0.0
 33
0.0
 40
0.0
 40
0.0
 40
0.0
 40
0.0
 40
0.0161072031801247
 40
0.0344449330174121
 40
0.0532604736081476
 40
0.069582846874715
 40
0.0860381243624883
 40
0.1195665486557004
 40
0.149421812375965
 40
0.1794894221881519
 40
0.2101927546986022
 40
0.2411261571391782
 40
0.264697547456085
 40
0.2884000501420697
 40
0.3125601157804652
 40
0.3369022296983499
 40
0.375662131144856
 40
0.3955137558652698
 40
0.415516591364582
 40
0.4348579231545727
 40
0.4543562772466022
 40
0.474364265879926
 40
0.4945524064720352
 40
0.5301233789669353
 40
0.5666428077193373
 40
0.6040332545283521
 40
0.6422202729913072
 40
0.6693096180213307
 40
0.6966068133811861
 40
0.7244895920090522
 40
0.7525490849562321
 40
0.7801931899285742
 40
0.8079974029058755
 40
0.8363828069905561
 40
0.8650727535926774
 40
0.8870562969272249
 40
0.9095778161414005
 40
0.9277192778927656
 40
0.946429805895699
 40
0.972818647677468
 40
1.0
 40
1.0
 40
1.0
 40
1.0
 10
191.8206722842872
 20
115.0854237604315
 30
0.0
 10
191.8205293792721
 20
115.1114259950738
 30
0.0
 10
191.8202237797452
 20
115.1670312556855
 30
0.0
 10
191.8549597393887
 20
115.2446248432469
 30
0.0
 10
191.9106251215898
 20
115.3155133771736
 30
0.0
 10
191.9810604698459
 20
115.3785369705987
 30
0.0
 10
192.0859035005297
 20
115.4554870581754
 30
0.0
 10
192.2323151186131
 20
115.5444828805344
 30
0.0
 10
192.4215369146148
 20
115.6508014935573
 30
0.0
 10
192.616706634836
 20
115.7595821805205
 30
0.0
 10
192.8226803158649
 20
115.8779293156075
 30
0.0
 10
193.0195696411212
 20
115.9972485346296
 30
0.0
 10
193.202783319908
 20
116.1151319427058
 30
0.0
 10
193.3709573792009
 20
116.2297483428609
 30
0.0
 10
193.5404566348477
 20
116.3528510489155
 30
0.0
 10
193.742723116955
 20
116.5103273036741
 30
0.0
 10
193.9295260324664
 20
116.6706802019501
 30
0.0
 10
194.0968218024432
 20
116.8299877876815
 30
0.0
 10
194.2167471700103
 20
116.9532047064213
 30
0.0
 10
194.3287282995969
 20
117.0780688385164
 30
0.0
 10
194.4324584627786
 20
117.2044494335782
 30
0.0
 10
194.5280765377452
 20
117.3332321156479
 30
0.0
 10
194.6358123810798
 20
117.4960513651638
 30
0.0
 10
194.7425380410398
 20
117.6913256459064
 30
0.0
 10
194.8290695704074
 20
117.9125250961541
 30
0.0
 10
194.8760522737693
 20
118.1241107987869
 30
0.0
 10
194.8821249093958
 20
118.3018779394306
 30
0.0
 10
194.8610359258683
 20
118.4491813026623
 30
0.0
 10
194.823769042854
 20
118.5707944708398
 30
0.0
 10
194.768075203424
 20
118.6847858865941
 30
0.0
 10
194.6946478745753
 20
118.7909033396576
 30
0.0
 10
194.6043072126087
 20
118.8898789366171
 30
0.0
 10
194.4965218739967
 20
118.9840327263219
 30
0.0
 10
194.3689795399503
 20
119.0768468396549
 30
0.0
 10
194.2307616044038
 20
119.1652713301743
 30
0.0
 10
194.08467877566
 20
119.2542764340508
 30
0.0
 10
193.9453073121564
 20
119.3398621818753
 30
0.0
 10
193.8038538652847
 20
119.4304633666548
 30
0.0
 10
193.6491198823372
 20
119.5338756631419
 30
0.0
 10
193.4727682793657
 20
119.6565790236308
 30
0.0
 10
193.3463014886353
 20
119.743976677906
 30
0.0
 10
193.2821326265764
 20
119.7883219798549
 30
0.0
  0
SPLINE
  5
11E
330
1F
100
AcDbEntity
  8
0
  6
HIDDEN
 62
     7
370
     0
100
AcDbSpline
210
0.0
220
0.0
230
1.0
 70
     8
 71
     3
 72
    16
 73
    12
 74
     0
 42
0.00000001
 43
0.00000001
 12
1.0
 22
0.0
 32
0.0
 13
1.0
 23
0.0
 33
0.0
 40
0.0
 40
0.0
 40
0.0
 40
0.0
 40
0.2499999999999973
 40
0.2499999999999973
 40
0.3749999999999959
 40
0.3749999999999959
 40
0.4999999999999946
 40
0.4999999999999946
 40
0.7499999999999972
 40
0.7499999999999972
 40
1.0
 40
1.0
 40
1.0
 40
1.0
 10
192.98748230699
 20
118.6269762587446
 30
0.0
 10
193.1215032251101
 20
118.6357500370221
 30
0.0
 10
193.254604208814
 20
118.6318110206238
 30
0.0
 10
193.4581190553017
 20
118.5908542798099
 30
0.0
 10
193.5252060818078
 20
118.5713993549751
 30
0.0
 10
193.6582669235625
 20
118.5176963509658
 30
0.0
 10
193.7249097062162
 20
118.482752057422
 30
0.0
 10
193.9123634588032
 20
118.3593958820509
 30
0.0
 10
194.0250324323939
 20
118.2499775953198
 30
0.0
 10
194.2184711716961
 20
118.0148867493859
 30
0.0
 10
194.3025118184526
 20
117.8871297725955
 30
0.0
 10
194.3774268903997
 20
117.7546132495011
 30
0.0
  0
SPLINE
  5
11F
330
1F
100
AcDbEntity
  8
0
  6
HIDDEN
 62
     7
370
     0
100
AcDbSpline
210
0.0
220
0.0
230
1.0
 70
     8
 71
     3
 72
    66
 73
    62
 74
     0
 42
0.00000001
 43
0.00000001
 12
1.0
 22
0.0
 32
0.0
 13
1.0
 23
0.0
 33
0.0
 40
-0.0312499999999999
 40
-0.0312499999999999
 40
0.0
 40
0.0
 40
0.0312500000000002
 40
0.0312500000000002
 40
0.0625000000000005
 40
0.0625000000000005
 40
0.0937500000000007
 40
0.0937500000000007
 40
0.125000000000001
 40
0.125000000000001
 40
0.1875000000000011
 40
0.1875000000000011
 40
0.2187500000000011
 40
0.2187500000000011
 40
0.2500000000000011
 40
0.2500000000000011
 40
0.2812500000000011
 40
0.2812500000000011
 40
0.312500000000001
 40
0.312500000000001
 40
0.3437500000000009
 40
0.3437500000000009
 40
0.3750000000000008
 40
0.3750000000000008
 40
0.4062500000000007
 40
0.4062500000000007
 40
0.4375000000000006
 40
0.4375000000000006
 40
0.4687500000000006
 40
0.4687500000000006
 40
0.5000000000000004
 40
0.5000000000000004
 40
0.5312500000000003
 40
0.5312500000000003
 40
0.5625000000000002
 40
0.5625000000000002
 40
0.5937500000000002
 40
0.5937500000000002
 40
0.6250000000000001
 40
0.6250000000000001
 40
0.6874999999999999
 40
0.6874999999999999
 40
0.7187499999999999
 40
0.7187499999999999
 40
0.7499999999999999
 40
0.7499999999999999
 40
0.78125
 40
0.78125
 40
0.8125
 40
0.8125
 40
0.84375
 40
0.84375
 40
0.875
 40
0.875
 40
0.90625
 40
0.90625
 40
0.9375000000000001
 40
0.9375000000000001
 40
0.9687500000000001
 40
0.9687500000000001
 40
1.0
 40
1.0
 40
1.03125
 40
1.03125
 10
192.2118180195159
 20
120.3323048701427
 30
0.0
 10
192.5449238350294
 20
120.3323048701427
 30
0.0
 10
192.7084147886193
 20
120.34279127825
 30
0.0
 10
193.0296169339882
 20
120.3841283914492
 30
0.0
 10
193.1890292915445
 20
120.4155385155209
 30
0.0
 10
193.4910680186849
 20
120.4980851949644
 30
0.0
 10
193.6341160560466
 20
120.5489750844285
 30
0.0
 10
193.9048492779974
 20
120.6715040964442
 30
0.0
 10
194.031918792964
 20
120.743235863214
 30
0.0
 10
194.3749268039368
 20
120.9839728971995
 30
0.0
 10
194.5607590653407
 20
121.1850399254823
 30
0.0
 10
194.7485644284994
 20
121.530098158542
 30
0.0
 10
194.7973045052778
 20
121.6544814681786
 30
0.0
 10
194.8620685573925
 20
121.9137151371665
 30
0.0
 10
194.8782606679266
 20
122.0474366481868
 30
0.0
 10
194.8784800750934
 20
122.3233594584781
 30
0.0
 10
194.86193198106
 20
122.4666053492868
 30
0.0
 10
194.7975028273564
 20
122.7483705402653
 30
0.0
 10
194.7498443581715
 20
122.888392266582
 30
0.0
 10
194.6231483903728
 20
123.1658946747561
 30
0.0
 10
194.5455748045738
 20
123.2999004755429
 30
0.0
 10
194.3649681783937
 20
123.5546782511568
 30
0.0
 10
194.260415129278
 20
123.6771436092345
 30
0.0
 10
194.0304064889338
 20
123.901369954981
 30
0.0
 10
193.905526430559
 20
124.0030847844186
 30
0.0
 10
193.6356268589292
 20
124.1843110733104
 30
0.0
 10
193.4895304924462
 20
124.2639315411973
 30
0.0
 10
193.1888178686375
 20
124.391816126002
 30
0.0
 10
193.0328701802801
 20
124.441200285299
 30
0.0
 10
192.7090903165316
 20
124.5085078690101
 30
0.0
 10
192.5433919727816
 20
124.5255894124162
 30
0.0
 10
192.2153480927743
 20
124.525725592567
 30
0.0
 10
192.0500225414376
 20
124.5088517856896
 30
0.0
 10
191.7256940854273
 20
124.441726184707
 30
0.0
 10
191.5693412845656
 20
124.3923490505405
 30
0.0
 10
191.2676251063363
 20
124.2641768850586
 30
0.0
 10
191.1215345766217
 20
124.1845470653675
 30
0.0
 10
190.8518207992167
 20
124.0035368341636
 30
0.0
 10
190.7266394655736
 20
123.9016933143063
 30
0.0
 10
190.380028925146
 20
123.5637155853977
 30
0.0
 10
190.1968860902576
 20
123.3043761567267
 30
0.0
 10
190.0072195301183
 20
122.8891716808499
 30
0.0
 10
189.9595817826898
 20
122.7494423416717
 30
0.0
 10
189.8950635477576
 20
122.4681379515113
 30
0.0
 10
189.8783664420159
 20
122.3249057396069
 30
0.0
 10
189.8783754143833
 20
122.0485720593598
 30
0.0
 10
189.8945062503298
 20
121.9146993482433
 30
0.0
 10
189.9591659269985
 20
121.6552544652249
 30
0.0
 10
190.0078362816377
 20
121.5308085370017
 30
0.0
 10
190.1332656539565
 20
121.3001879826096
 30
0.0
 10
190.2110093064466
 20
121.1918731364187
 30
0.0
 10
190.3933087934595
 20
120.9929057153479
 30
0.0
 10
190.4962719467538
 20
120.9036037420852
 30
0.0
 10
190.7254729190462
 20
120.7428185266687
 30
0.0
 10
190.8531038971543
 20
120.6709032773417
 30
0.0
 10
191.1229495585909
 20
120.5488814535817
 30
0.0
 10
191.265804301978
 20
120.4980332127704
 30
0.0
 10
191.5682018292241
 20
120.4154211593957
 30
0.0
 10
191.7274170601688
 20
120.3840848130295
 30
0.0
 10
192.0483047914869
 20
120.3428001314012
 30
0.0
 10
192.2118180195159
 20
120.3323048701427
 30
0.0
 10
192.5449238350294
 20
120.3323048701427
 30
0.0
  0
ARC
  5
120
330
1F
100
AcDbEntity
  8
0
  6
HIDDEN
 62
     7
370
     0
100
AcDbCircle
 10
191.7269765713
 20
119.5648363167
 30
0.0
 40
1.57113213894019
100
AcDbArc
 50
323.3494712952
 51
8.1777745882
  0
CIRCLE
  5
121
330
1F
100
AcDbEntity
  8
0
  6
HIDDEN
 62
     7
370
     0
100
AcDbCircle
 10
160.3783709273
 20
126.1354289976
 30
0.0
 40
3.049999999999983
  0
SPLINE
  5
122
330
1F
100
AcDbEntity
  8
0
  6
HIDDEN
 62
     7
370
     0
100
AcDbSpline
210
0.0
220
0.0
230
1.0
 70
     8
 71
     3
 72
    10
 73
     6
 74
     0
 42
0.00000001
 43
0.00000001
 12
1.0
 22
0.0
 32
0.0
 13
1.0
 23
0.0
 33
0.0
 40
0.0
 40
0.0
 40
0.0
 40
0.0
 40
0.5
 40
0.5
 40
1.0
 40
1.0
 40
1.0
 40
1.0
 10
207.5769697655827
 20
122.6199778241217
 30
0.0
 10
207.5555305720902
 20
123.2058506955609
 30
0.0
 10
207.5290089801635
 20
123.7916857259494
 30
0.0
 10
207.4895813616589
 20
124.9634571615606
 30
0.0
 10
207.4770693430781
 20
125.549396500374
 30
0.0
 10
207.4770693430781
 20
126.1354289975527
 30
0.0
  0
LINE
  5
123
330
1F
100
AcDbEntity
  8
0
  6
HIDDEN
 62
     7
370
     0
100
AcDbLine
 10
207.4770693431
 20
151.6354289976
 30
0.0
 11
207.4770693431
 21
126.1354289976
 31
0.0
  0
SPLINE
  5
124
330
1F
100
AcDbEntity
  8
0
  6
HIDDEN
 62
     7
370
     0
100
AcDbSpline
210
0.0
220
0.0
230
1.0
 70
     8
 71
     3
 72
    14
 73
    10
 74
     0
 42
0.00000001
 43
0.00000001
 12
1.0
 22
0.0
 32
0.0
 13
1.0
 23
0.0
 33
0.0
 40
0.0
 40
0.0
 40
0.0
 40
0.0
 40
0.25
 40
0.25
 40
0.5
 40
0.5
 40
0.75
 40
0.75
 40
1.0
 40
1.0
 40
1.0
 40
1.0
 10
207.5769697655827
 20
100.412379605798
 30
0.0
 10
207.5555285903383
 20
100.5141247663076
 30
0.0
 10
207.529010063249
 20
100.6158366511075
 30
0.0
 10
207.4895761796432
 20
100.8193495725268
 30
0.0
 10
207.4770658348938
 20
100.9211247564842
 30
0.0
 10
207.4770728528462
 20
101.1246296908319
 30
0.0
 10
207.4895858472761
 20
101.2263706587115
 30
0.0
 10
207.5290141640997
 20
101.4298393551885
 30
0.0
 10
207.55553080626
 20
101.5315483404248
 30
0.0
 10
207.5769697655827
 20
101.6332829856847
 30
0.0
  0
ELLIPSE
  5
125
330
1F
100
AcDbEntity
  8
0
  6
HIDDEN
 62
     7
370
     0
100
AcDbEllipse
 10
231.5424919747
 20
126.1354289976
 30
0.0
 11
-1.804698192637233
 21
25.4994370252997
 31
0.0
210
0.0
220
0.0
230
1.0
 40
0.0938906935
 41
1.532000675790915
 42
1.564151400841477
  0
SPLINE
  5
126
330
1F
100
AcDbEntity
  8
0
  6
HIDDEN
 62
     7
370
     0
100
AcDbSpline
210
0.0
220
0.0
230
1.0
 70
     8
 71
     3
 72
    22
 73
    18
 74
     0
 42
0.00000001
 43
0.00000001
 12
1.0
 22
0.0
 32
0.0
 13
1.0
 23
0.0
 33
0.0
 40
0.0
 40
0.0
 40
0.0
 40
0.0
 40
0.125
 40
0.125
 40
0.25
 40
0.25
 40
0.375
 40
0.375
 40
0.5
 40
0.5
 40
0.625
 40
0.625
 40
0.75
 40
0.75
 40
0.875
 40
0.875
 40
1.0
 40
1.0
 40
1.0
 40
1.0
 10
224.8079979893585
 20
126.1354289975527
 30
0.0
 10
224.6125600538309
 20
126.3151030377371
 30
0.0
 10
224.4037838723006
 20
126.4741994935801
 30
0.0
 10
223.9603911404046
 20
126.7525601332935
 30
0.0
 10
223.7237863045694
 20
126.8725795282915
 30
0.0
 10
223.2322860334002
 20
127.0665915627758
 30
0.0
 10
222.9807573559044
 20
127.1397162293481
 30
0.0
 10
222.4663642964898
 20
127.2391625976034
 30
0.0
 10
222.2005978094698
 20
127.2653431299571
 30
0.0
 10
221.6741845160718
 20
127.2674188718245
 30
0.0
 10
221.4135243241338
 20
127.2440147275991
 30
0.0
 10
220.8973001586371
 20
127.1482740095484
 30
0.0
 10
220.6399072649674
 20
127.0747774970326
 30
0.0
 10
220.151423307626
 20
126.88315221279
 30
0.0
 10
219.9179015306998
 20
126.7649443387456
 30
0.0
 10
219.4728023858235
 20
126.4826358751394
 30
0.0
 10
219.262097197587
 20
126.3185133086329
 30
0.0
 10
219.0696327890894
 20
126.1354289975527
 30
0.0
  0
LINE
  5
127
330
1F
100
AcDbEntity
  8
0
  6
HIDDEN
 62
     7
370
     0
100
AcDbLine
 10
149.4064107829
 20
136.9241041321
 30
0.0
 11
149.4064107829
 21
115.346753863
 31
0.0
  0
LINE
  5
128
330
1F
100
AcDbEntity
  8
0
  6
HIDDEN
 62
     7
370
     0
100
AcDbLine
 10
145.4064107829
 20
137.3053019786
 30
0.0
 11
145.4064107829
 21
114.9655560165
 31
0.0
  0
LINE
  5
129
330
1F
100
AcDbEntity
  8
0
  6
HIDDEN
 62
     7
370
     0
100
AcDbLine
 10
144.3783709273
 20
114.3720169291
 30
0.0
 11
144.3783709273
 21
137.883243839
 31
0.0
  0
LINE
  5
12A
330
1F
100
AcDbEntity
  8
0
  6
HIDDEN
 62
     7
370
     0
100
AcDbLine
 10
154.0064107829
 20
136.6354289976
 30
0.0
 11
154.0064107829
 21
115.6354289976
 31
0.0
  0
LINE
  5
12B
330
1F
100
AcDbEntity
  8
0
  6
HIDDEN
 62
     7
370
     0
100
AcDbLine
 10
147.9064107829
 20
136.6354289976
 30
0.0
 11
147.9064107829
 21
115.6354289976
 31
0.0
  0
LINE
  5
12C
330
1F
100
AcDbEntity
  8
0
  6
HIDDEN
 62
     7
370
     0
100
AcDbLine
 10
148.9064107829
 20
136.6354289976
 30
0.0
 11
148.9064107829
 21
115.6354289976
 31
0.0
  0
SPLINE
  5
12D
330
1F
100
AcDbEntity
  8
0
  6
HIDDEN
 62
     7
370
     0
100
AcDbSpline
210
0.0
220
0.0
230
1.0
 70
     8
 71
     3
 72
    66
 73
    62
 74
     0
 42
0.00000001
 43
0.00000001
 12
1.0
 22
0.0
 32
0.0
 13
1.0
 23
0.0
 33
0.0
 40
-0.03125
 40
-0.03125
 40
0.0
 40
0.0
 40
0.0312499999999999
 40
0.0312499999999999
 40
0.0624999999999999
 40
0.0624999999999999
 40
0.0937499999999998
 40
0.0937499999999998
 40
0.1249999999999998
 40
0.1249999999999998
 40
0.1874999999999997
 40
0.1874999999999997
 40
0.2187499999999995
 40
0.2187499999999995
 40
0.2499999999999994
 40
0.2499999999999994
 40
0.2812499999999993
 40
0.2812499999999993
 40
0.3124999999999992
 40
0.3124999999999992
 40
0.3437499999999991
 40
0.3437499999999991
 40
0.3749999999999989
 40
0.3749999999999989
 40
0.4062499999999988
 40
0.4062499999999988
 40
0.4374999999999988
 40
0.4374999999999988
 40
0.4687499999999987
 40
0.4687499999999987
 40
0.4999999999999987
 40
0.4999999999999987
 40
0.5312499999999987
 40
0.5312499999999987
 40
0.5624999999999986
 40
0.5624999999999986
 40
0.5937499999999986
 40
0.5937499999999986
 40
0.6249999999999987
 40
0.6249999999999987
 40
0.6562499999999989
 40
0.6562499999999989
 40
0.687499999999999
 40
0.687499999999999
 40
0.7187499999999991
 40
0.7187499999999991
 40
0.7499999999999993
 40
0.7499999999999993
 40
0.7812499999999994
 40
0.7812499999999994
 40
0.8124999999999997
 40
0.8124999999999997
 40
0.875
 40
0.875
 40
0.9062500000000001
 40
0.9062500000000001
 40
0.9375000000000001
 40
0.9375000000000001
 40
0.96875
 40
0.96875
 40
1.0
 40
1.0
 40
1.03125
 40
1.03125
 10
160.1756922803248
 20
129.1854289975527
 30
0.0
 10
160.5810495742203
 20
129.1854289975527
 30
0.0
 10
160.7801094655562
 20
129.1654294379361
 30
0.0
 10
161.1713634501359
 20
129.0872859352359
 30
0.0
 10
161.3656362088836
 20
129.0281248337152
 30
0.0
 10
161.7343996354349
 20
128.8746931468208
 30
0.0
 10
161.9091247938131
 20
128.7809663369786
 30
0.0
 10
162.2398020973469
 20
128.5597122345737
 30
0.0
 10
162.3954496413498
 20
128.4317308675792
 30
0.0
 10
162.8149170110184
 20
128.0121757705791
 30
0.0
 10
163.0418051525487
 20
127.6736972118757
 30
0.0
 10
163.2706017759335
 20
127.1238183241575
 30
0.0
 10
163.3297940307824
 20
126.9304184784141
 30
0.0
 10
163.4086014410429
 20
126.5361903280562
 30
0.0
 10
163.4282408573233
 20
126.3375515006238
 30
0.0
 10
163.4284997217449
 20
125.9372512147254
 30
0.0
 10
163.4084290371119
 20
125.7339118880043
 30
0.0
 10
163.330091354482
 20
125.3418203673967
 30
0.0
 10
163.2721415864435
 20
125.1511144990815
 30
0.0
 10
163.1181984445635
 20
124.780390682495
 30
0.0
 10
163.0232598308408
 20
124.6036640226861
 30
0.0
 10
162.8029024149637
 20
124.2744109117618
 30
0.0
 10
162.6756223890354
 20
124.1192896881653
 30
0.0
 10
162.3938667977048
 20
123.8376129932349
 30
0.0
 10
162.2410784682473
 20
123.7121798083306
 30
0.0
 10
161.9116513860904
 20
123.4914042149765
 30
0.0
 10
161.7331053829387
 20
123.3955729622762
 30
0.0
 10
161.3655330573885
 20
123.2427438317812
 30
0.0
 10
161.1753790306776
 20
123.184572073837
 30
0.0
 10
160.7818386079751
 20
123.105578781492
 30
0.0
 10
160.5794045367139
 20
123.0855156558498
 30
0.0
 10
160.1799754613485
 20
123.0853429097311
 30
0.0
 10
159.9799564827926
 20
123.1048262838203
 30
0.0
 10
159.5838405353433
 20
123.1838178554215
 30
0.0
 10
159.3931077071514
 20
123.2420980752735
 30
0.0
 10
159.0254762665717
 20
123.3946656958815
 30
0.0
 10
158.8469898344039
 20
123.4902744826548
 30
0.0
 10
158.5167845754399
 20
123.7112865277398
 30
0.0
 10
158.3638959973779
 20
123.83673642651
 30
0.0
 10
158.0822996028398
 20
124.1179669155153
 30
0.0
 10
157.9546686799643
 20
124.2733497934292
 30
0.0
 10
157.7343432449645
 20
124.6022006514722
 30
0.0
 10
157.6401167879992
 20
124.7770887578862
 30
0.0
 10
157.4851822673961
 20
125.149232609247
 30
0.0
 10
157.4271699817938
 20
125.3400386510559
 30
0.0
 10
157.3487507275157
 20
125.7309116689746
 30
0.0
 10
157.3284366475492
 20
125.9333692303569
 30
0.0
 10
157.3283055312452
 20
126.3354998352764
 30
0.0
 10
157.3479302246045
 20
126.5342238804515
 30
0.0
 10
157.4260966750182
 20
126.9270633515882
 30
0.0
 10
157.4853841203581
 20
127.1217076289907
 30
0.0
 10
157.714464963441
 20
127.673147382405
 30
0.0
 10
157.9412958143352
 20
128.0114869481041
 30
0.0
 10
158.3606345156558
 20
128.4311526107556
 30
0.0
 10
158.5159875114058
 20
128.5589986165289
 30
0.0
 10
158.846955344543
 20
128.7805996912307
 30
0.0
 10
159.0215166447393
 20
128.8742404252076
 30
0.0
 10
159.3890899523142
 20
129.0273945459069
 30
0.0
 10
159.5837768139523
 20
129.0868982915529
 30
0.0
 10
159.9762527638887
 20
129.1654210406159
 30
0.0
 10
160.1756922803248
 20
129.1854289975527
 30
0.0
 10
160.5810495742203
 20
129.1854289975527
 30
0.0
  0
SPLINE
  5
12E
330
1F
100
AcDbEntity
  8
0
  6
HIDDEN
 62
     7
370
     0
100
AcDbSpline
210
0.0
220
0.0
230
1.0
 70
     8
 71
     3
 72
    66
 73
    62
 74
     0
 42
0.00000001
 43
0.00000001
 12
1.0
 22
0.0
 32
0.0
 13
1.0
 23
0.0
 33
0.0
 40
-0.0312500000000001
 40
-0.0312500000000001
 40
0.0
 40
0.0
 40
0.0312499999999999
 40
0.0312499999999999
 40
0.0624999999999997
 40
0.0624999999999997
 40
0.0937499999999996
 40
0.0937499999999996
 40
0.1249999999999995
 40
0.1249999999999995
 40
0.1874999999999993
 40
0.1874999999999993
 40
0.2187499999999992
 40
0.2187499999999992
 40
0.2499999999999991
 40
0.2499999999999991
 40
0.2812499999999989
 40
0.2812499999999989
 40
0.3124999999999988
 40
0.3124999999999988
 40
0.3437499999999987
 40
0.3437499999999987
 40
0.3749999999999985
 40
0.3749999999999985
 40
0.4062499999999984
 40
0.4062499999999984
 40
0.4374999999999985
 40
0.4374999999999985
 40
0.4687499999999986
 40
0.4687499999999986
 40
0.4999999999999987
 40
0.4999999999999987
 40
0.5312499999999988
 40
0.5312499999999988
 40
0.5624999999999989
 40
0.5624999999999989
 40
0.5937499999999989
 40
0.5937499999999989
 40
0.624999999999999
 40
0.624999999999999
 40
0.6562499999999991
 40
0.6562499999999991
 40
0.6874999999999992
 40
0.6874999999999992
 40
0.7187499999999993
 40
0.7187499999999993
 40
0.7499999999999993
 40
0.7499999999999993
 40
0.7812499999999994
 40
0.7812499999999994
 40
0.8124999999999996
 40
0.8124999999999996
 40
0.8749999999999997
 40
0.8749999999999997
 40
0.9062499999999998
 40
0.9062499999999998
 40
0.9374999999999998
 40
0.9374999999999998
 40
0.9687499999999999
 40
0.9687499999999999
 40
1.0
 40
1.0
 40
1.03125
 40
1.03125
 10
160.5810495742204
 20
129.1854289975527
 30
0.0
 10
160.1756922803248
 20
129.1854289975527
 30
0.0
 10
159.9766323889889
 20
129.1654294379361
 30
0.0
 10
159.5853784044092
 20
129.0872859352359
 30
0.0
 10
159.3911056456616
 20
129.0281248337152
 30
0.0
 10
159.0223422191103
 20
128.8746931468208
 30
0.0
 10
158.847617060732
 20
128.7809663369786
 30
0.0
 10
158.5169397571982
 20
128.5597122345737
 30
0.0
 10
158.3612922131953
 20
128.4317308675792
 30
0.0
 10
157.9418248435267
 20
128.0121757705791
 30
0.0
 10
157.7149367019964
 20
127.6736972118757
 30
0.0
 10
157.4861400786116
 20
127.1238183241575
 30
0.0
 10
157.4269478237628
 20
126.9304184784141
 30
0.0
 10
157.3481404135023
 20
126.5361903280562
 30
0.0
 10
157.3285009972219
 20
126.3375515006238
 30
0.0
 10
157.3282421328003
 20
125.9372512147255
 30
0.0
 10
157.3483128174332
 20
125.7339118880044
 30
0.0
 10
157.4266505000631
 20
125.3418203673968
 30
0.0
 10
157.4846002681016
 20
125.1511144990815
 30
0.0
 10
157.6385434099816
 20
124.780390682495
 30
0.0
 10
157.7334820237043
 20
124.6036640226861
 30
0.0
 10
157.9538394395815
 20
124.2744109117618
 30
0.0
 10
158.0811194655097
 20
124.1192896881653
 30
0.0
 10
158.3628750568403
 20
123.8376129932349
 30
0.0
 10
158.5156633862978
 20
123.7121798083306
 30
0.0
 10
158.8450904684547
 20
123.4914042149765
 30
0.0
 10
159.0236364716064
 20
123.3955729622763
 30
0.0
 10
159.3912087971566
 20
123.2427438317812
 30
0.0
 10
159.5813628238676
 20
123.184572073837
 30
0.0
 10
159.9749032465701
 20
123.105578781492
 30
0.0
 10
160.1773373178312
 20
123.0855156558498
 30
0.0
 10
160.5767663931966
 20
123.0853429097311
 30
0.0
 10
160.7767853717525
 20
123.1048262838203
 30
0.0
 10
161.1729013192019
 20
123.1838178554215
 30
0.0
 10
161.3636341473937
 20
123.2420980752735
 30
0.0
 10
161.7312655879734
 20
123.3946656958815
 30
0.0
 10
161.9097520201412
 20
123.4902744826548
 30
0.0
 10
162.2399572791053
 20
123.7112865277398
 30
0.0
 10
162.3928458571672
 20
123.83673642651
 30
0.0
 10
162.6744422517053
 20
124.1179669155153
 30
0.0
 10
162.8020731745808
 20
124.2733497934292
 30
0.0
 10
163.0223986095806
 20
124.6022006514722
 30
0.0
 10
163.116625066546
 20
124.7770887578862
 30
0.0
 10
163.2715595871491
 20
125.149232609247
 30
0.0
 10
163.3295718727513
 20
125.3400386510559
 30
0.0
 10
163.4079911270294
 20
125.7309116689746
 30
0.0
 10
163.428305206996
 20
125.9333692303569
 30
0.0
 10
163.4284363233
 20
126.3354998352764
 30
0.0
 10
163.4088116299406
 20
126.5342238804515
 30
0.0
 10
163.330645179527
 20
126.9270633515882
 30
0.0
 10
163.2713577341871
 20
127.1217076289907
 30
0.0
 10
163.0422768911041
 20
127.673147382405
 30
0.0
 10
162.81544604021
 20
128.0114869481041
 30
0.0
 10
162.3961073388893
 20
128.4311526107556
 30
0.0
 10
162.2407543431393
 20
128.5589986165289
 30
0.0
 10
161.9097865100022
 20
128.7805996912307
 30
0.0
 10
161.7352252098058
 20
128.8742404252077
 30
0.0
 10
161.367651902231
 20
129.0273945459069
 30
0.0
 10
161.1729650405929
 20
129.0868982915529
 30
0.0
 10
160.7804890906565
 20
129.1654210406159
 30
0.0
 10
160.5810495742204
 20
129.1854289975527
 30
0.0
 10
160.1756922803248
 20
129.1854289975527
 30
0.0
  0
LINE
  5
12F
330
1F
100
AcDbEntity
  8
0
  6
HIDDEN
 62
     7
370
     0
100
AcDbLine
 10
164.3783709273
 20
136.1354289976
 30
0.0
 11
164.3783709273
 21
116.1354289976
 31
0.0
  0
LINE
  5
130
330
1F
100
AcDbEntity
  8
0
  6
HIDDEN
 62
     7
370
     0
100
AcDbLine
 10
165.3783709273
 20
133.3854289976
 30
0.0
 11
165.3783709273
 21
118.8854289976
 31
0.0
  0
LINE
  5
131
330
1F
100
AcDbEntity
  8
0
  6
HIDDEN
 62
     7
370
     0
100
AcDbLine
 10
164.3783709273
 20
117.8854289976
 30
0.0
 11
164.3783709273
 21
134.3697814596
 31
0.0
  0
LINE
  5
132
330
1F
100
AcDbEntity
  8
0
  6
HIDDEN
 62
     7
370
     0
100
AcDbLine
 10
198.3783709273
 20
118.8854289976
 30
0.0
 11
198.3783709273
 21
133.3854289976
 31
0.0
  0
LWPOLYLINE
  5
133
330
1F
100
AcDbEntity
  8
0
  6
HIDDEN
 62
     7
370
     0
100
AcDbPolyline
 90
       34
 70
   128
 43
0.0
 10
224.8071088605
 20
121.808379243
 10
225.4658596324
 20
121.7581135513
 10
226.100801435
 20
121.5850872795
 10
226.6889858172
 20
121.2955540476
 10
227.2091542631
 20
120.8999783412
 10
227.6425065297
 20
120.4126572969
 10
227.9733801369
 20
119.851203967
 10
228.1898164506
 20
119.2359107376
 10
228.2839928984
 20
118.5890159092
 10
228.2525056981
 20
117.9338999463
 10
228.0964928793
 20
117.2942404468
 10
227.8215931516
 20
116.6931563715
 10
227.4377421074
 20
116.1523724651
 10
226.9588131237
 20
115.6914340669
 10
226.4021159417
 20
115.3270006917
 10
225.787771048
 20
115.072243911
 10
225.1379824678
 20
114.9363712988
 10
224.4762352533
 20
114.9242936452
 10
223.8264466731
 20
115.0364474682
 10
223.2121017794
 20
115.2687792362
 10
222.6554045974
 20
115.612891874
 10
222.1764756136
 20
116.0563482542
 10
221.7926245695
 20
116.5831207078
 10
221.5177248418
 20
117.1741703058
 10
221.3617120229
 20
117.8081349758
 10
221.3302248227
 20
118.4621015829
 10
221.4244012705
 20
119.11243407
 10
221.6408375841
 20
119.7356277265
 10
221.9717111914
 20
120.30915871
 10
222.4050634579
 20
120.8122981165
 10
222.9252319038
 20
121.2268611768
 10
223.5134162861
 20
121.5378645019
 10
224.1483580887
 20
121.7340676213
 10
224.8071088605
 20
121.808379243
  0
ARC
  5
134
330
1F
100
AcDbEntity
  8
0
  6
HIDDEN
 62
     7
370
     0
100
AcDbCircle
 10
218.280040942
 20
113.8488009695
 30
0.0
 40
2.091053192087564
100
AcDbArc
 50
58.5966389067
 51
237.487559589
  0
LINE
  5
135
330
1F
100
AcDbEntity
  8
0
  6
HIDDEN
 62
     7
370
     0
100
AcDbLine
 10
232.2039041911
 20
107.9263717044
 30
0.0
 11
233.1676566224
 21
106.3341061501
 31
0.0
  0
LINE
  5
136
330
1F
100
AcDbEntity
  8
0
  6
HIDDEN
 62
     7
370
     0
100
AcDbLine
 10
207.6191461048
 20
100.2420495717
 30
0.0
 11
207.5769697656
 21
100.4123796058
 31
0.0
  0
SPLINE
  5
137
330
1F
100
AcDbEntity
  8
0
  6
HIDDEN
 62
     7
370
     0
100
AcDbSpline
210
0.0
220
0.0
230
1.0
 70
     8
 71
     3
 72
    36
 73
    32
 74
     0
 42
0.00000001
 43
0.00000001
 12
1.0
 22
0.0
 32
0.0
 13
1.0
 23
0.0
 33
0.0
 40
0.0
 40
0.0
 40
0.0
 40
0.0
 40
0.1249999999999989
 40
0.1249999999999989
 40
0.2499999999999978
 40
0.2499999999999978
 40
0.3124999999999973
 40
0.3124999999999973
 40
0.3749999999999968
 40
0.3749999999999968
 40
0.4374999999999962
 40
0.4374999999999962
 40
0.4687499999999966
 40
0.4687499999999966
 40
0.499999999999997
 40
0.499999999999997
 40
0.5312499999999973
 40
0.5312499999999973
 40
0.5624999999999978
 40
0.5624999999999978
 40
0.5937499999999981
 40
0.5937499999999981
 40
0.6249999999999986
 40
0.6249999999999986
 40
0.6874999999999988
 40
0.6874999999999988
 40
0.749999999999999
 40
0.749999999999999
 40
0.8749999999999996
 40
0.8749999999999996
 40
1.0
 40
1.0
 40
1.0
 40
1.0
 10
222.1005780471391
 20
115.866786882094
 30
0.0
 10
222.1589222313951
 20
115.7703934185205
 30
0.0
 10
222.2757176361061
 20
115.6437491423189
 30
0.0
 10
222.5836532447897
 20
115.3652997253029
 30
0.0
 10
222.7771316562653
 20
115.212109905526
 30
0.0
 10
223.1275751636566
 20
114.9856685348249
 30
0.0
 10
223.2548496212982
 20
114.9104984050419
 30
0.0
 10
223.5380640467284
 20
114.7647099399488
 30
0.0
 10
223.6951817608746
 20
114.6933697390121
 30
0.0
 10
224.0477818473599
 20
114.5664964285983
 30
0.0
 10
224.2423243635541
 20
114.5096046779373
 30
0.0
 10
224.5941515702709
 20
114.4547590750463
 30
0.0
 10
224.7201289599443
 20
114.4423084301342
 30
0.0
 10
224.9878921743529
 20
114.4377798897262
 30
0.0
 10
225.1287340905876
 20
114.4461611620548
 30
0.0
 10
225.4074832107943
 20
114.4895423573469
 30
0.0
 10
225.5409024354726
 20
114.5240586604785
 30
0.0
 10
225.7774824619932
 20
114.6070807395853
 30
0.0
 10
225.883121067854
 20
114.6559168840887
 30
0.0
 10
226.0678406761164
 20
114.757274217535
 30
0.0
 10
226.1495551390777
 20
114.8111089379209
 30
0.0
 10
226.2945399165537
 20
114.919310053991
 30
0.0
 10
226.35820789813
 20
114.9738756436408
 30
0.0
 10
226.5312228002777
 20
115.1379957822885
 30
0.0
 10
226.6232694677031
 20
115.2485698669176
 30
0.0
 10
226.7760926320273
 20
115.4636613506293
 30
0.0
 10
226.8369867844044
 20
115.568565189684
 30
0.0
 10
226.9871998173318
 20
115.8736831528072
 30
0.0
 10
227.0451466284479
 20
116.0655329007606
 30
0.0
 10
227.0926984902383
 20
116.402044709837
 30
0.0
 10
227.0830023860474
 20
116.5457848887999
 30
0.0
 10
227.0247944303768
 20
116.641953282037
 30
0.0
  0
ELLIPSE
  5
138
330
1F
100
AcDbEntity
  8
0
  6
HIDDEN
 62
     7
370
     0
100
AcDbEllipse
 10
225.7173604544
 20
111.4183834288
 30
0.0
 11
3.10583929263126
 21
-2.305055007060077
 31
0.0
210
0.0
220
0.0
230
1.0
 40
0.0904236958
 41
3.359298271118789
 42
6.500890924708562
  0
LINE
  5
139
330
1F
100
AcDbEntity
  8
0
  6
HIDDEN
 62
     7
370
     0
100
AcDbLine
 10
221.3274213366
 20
98.3868129662
 30
0.0
 11
220.3636689052
 21
99.9790785205
 31
0.0
  0
ELLIPSE
  5
13A
330
1F
100
AcDbEntity
  8
0
  6
HIDDEN
 62
     7
370
     0
100
AcDbEllipse
 10
221.9959302443
 20
123.0060466186
 30
0.0
 11
-2.220506159018016
 21
3.668613800738072
 31
0.0
210
0.0
220
0.0
230
1.0
 40
0.9794128731
 41
0.2118234955400138
 42
5.00112933509835
  0
LINE
  5
13B
330
1F
100
AcDbEntity
  8
0
  6
HIDDEN
 62
     7
370
     0
100
AcDbLine
 10
227.0247944304
 20
116.641953282
 30
0.0
 11
226.5866283888
 21
117.3658702055
 31
0.0
  0
ELLIPSE
  5
13C
330
1F
100
AcDbEntity
  8
0
  6
HIDDEN
 62
     7
370
     0
100
AcDbEllipse
 10
223.8953459035
 20
119.8679231452
 30
0.0
 11
3.953222233227649
 21
1.478682026362619
 31
0.0
210
0.0
220
0.0
230
1.0
 40
0.8454008504
 41
3.837400258827496
 42
5.112524100065906
  0
LINE
  5
13D
330
1F
100
AcDbEntity
  8
0
  6
HIDDEN
 62
     7
370
     0
100
AcDbLine
 10
221.6624120056
 20
116.5907038055
 30
0.0
 11
222.1005780471
 21
115.8667868821
 31
0.0
  0
LWPOLYLINE
  5
13E
330
1F
100
AcDbEntity
  8
0
  6
HIDDEN
 62
     7
370
     0
100
AcDbPolyline
 90
       37
 70
   128
 43
0.0
 10
224.7631439345
 20
122.5703814126
 10
225.4884709766
 20
122.5207814128
 10
226.1917593235
 20
122.3470123658
 10
226.8516399148
 20
122.0543541562
 10
227.4480626125
 20
121.6516990558
 10
227.9629054149
 20
121.1512815358
 10
228.3805250838
 20
120.5683065295
 10
228.6882324569
 20
119.9204874375
 10
228.8766780015
 20
119.227507915
 10
228.9401358951
 20
118.5104237941
 10
228.8766780015
 20
117.791023313
 10
228.6882324569
 20
117.0911650913
 10
228.3805250838
 20
116.4321139669
 10
227.9629054149
 20
115.8338948747
 10
227.4480626125
 20
115.3146843992
 10
226.8516399148
 20
114.8902584878
 10
226.1917593235
 20
114.5735131072
 10
225.4884709766
 20
114.3740724055
 10
224.7631439345
 20
114.2979962873
 10
224.0378168924
 20
114.3475962872
 10
223.3345285455
 20
114.5213653342
 10
222.6746479543
 20
114.8140235438
 10
222.0782252565
 20
115.2166786442
 10
221.5633824542
 20
115.7170961642
 10
221.1457627853
 20
116.3000711704
 10
220.8380554121
 20
116.9478902625
 10
220.6496098675
 20
117.640869785
 10
220.586151974
 20
118.3579539059
 10
220.6496098675
 20
119.077354387
 10
220.8380554121
 20
119.7772126087
 10
221.1457627853
 20
120.4362637331
 10
221.5633824542
 20
121.0344828253
 10
222.0782252565
 20
121.5536933008
 10
222.6746479543
 20
121.9781192122
 10
223.3345285455
 20
122.2948645928
 10
224.0378168924
 20
122.4943052945
 10
224.7631439345
 20
122.5703814126
  0
LINE
  5
13F
330
1F
100
AcDbEntity
  8
0
  6
HIDDEN
 62
     7
370
     0
100
AcDbLine
 10
228.0863669752
 20
110.3990132789
 30
0.0
 11
228.6668737221
 21
106.3194335466
 31
0.0
  0
LINE
  5
140
330
1F
100
AcDbEntity
  8
0
  6
HIDDEN
 62
     7
370
     0
100
AcDbLine
 10
228.3430248784
 20
106.8544810772
 30
0.0
 11
228.6668737221
 21
106.3194335466
 31
0.0
  0
LINE
  5
141
330
1F
100
AcDbEntity
  8
0
  6
HIDDEN
 62
     7
370
     0
100
AcDbLine
 10
226.9613326918
 20
112.6412604846
 30
0.0
 11
226.5866283888
 21
117.3658702055
 31
0.0
  0
LINE
  5
142
330
1F
100
AcDbEntity
  8
0
  6
HIDDEN
 62
     7
370
     0
100
AcDbLine
 10
228.0863669752
 20
110.3990132789
 30
0.0
 11
228.7949073527
 21
109.2283968423
 31
0.0
  0
LINE
  5
143
330
1F
100
AcDbEntity
  8
0
  6
HIDDEN
 62
     7
370
     0
100
AcDbLine
 10
223.7426573388
 20
105.5442671467
 30
0.0
 11
222.5814487715
 21
113.7047975138
 31
0.0
  0
ARC
  5
144
330
1F
100
AcDbEntity
  8
0
  6
HIDDEN
 62
     7
370
     0
100
AcDbCircle
 10
226.510450185
 20
103.9899996886
 30
0.0
 40
3.174338446052335
100
AcDbArc
 50
150.6834007542
 51
47.2086860264
  0
LINE
  5
145
330
1F
100
AcDbEntity
  8
0
  6
HIDDEN
 62
     7
370
     0
100
AcDbLine
 10
232.5637499988
 20
93.4267313957
 30
0.0
 11
232.9594265716
 21
93.6647477059
 31
0.0
  0
LINE
  5
146
330
1F
100
AcDbEntity
  8
0
  6
HIDDEN
 62
     7
370
     0
100
AcDbLine
 10
232.5637499988
 20
93.4267313957
 30
0.0
 11
225.648194344
 21
97.5796241387
 31
0.0
  0
ARC
  5
147
330
1F
100
AcDbEntity
  8
0
  6
HIDDEN
 62
     7
370
     0
100
AcDbCircle
 10
212.5583747108
 20
75.7697951971
 30
0.0
 40
25.43643089132701
100
AcDbArc
 50
59.0286675669
 51
72.1302042623
  0
LINE
  5
148
330
1F
100
AcDbEntity
  8
0
  6
HIDDEN
 62
     7
370
     0
100
AcDbLine
 10
219.8066420201
 20
110.493800781
 30
0.0
 11
220.3636689052
 21
99.9790785205
 31
0.0
  0
LINE
  5
149
330
1F
100
AcDbEntity
  8
0
  6
HIDDEN
 62
     7
370
     0
100
AcDbLine
 10
222.5814487715
 20
113.7047975138
 30
0.0
 11
219.3696044953
 21
115.6335571756
 31
0.0
  0
LINE
  5
14A
330
1F
100
AcDbEntity
  8
0
  6
HIDDEN
 62
     7
370
     0
100
AcDbLine
 10
232.2039041911
 20
107.9263717044
 30
0.0
 11
228.0863669752
 21
110.3990132789
 31
0.0
  0
LINE
  5
14B
330
1F
100
AcDbEntity
  8
0
  6
HIDDEN
 62
     7
370
     0
100
AcDbLine
 10
232.2039041911
 20
107.9263717044
 30
0.0
 11
232.9594265716
 21
93.6647477059
 31
0.0
  0
LINE
  5
14C
330
1F
100
AcDbEntity
  8
0
  6
HIDDEN
 62
     7
370
     0
100
AcDbLine
 10
222.6398135561
 20
113.6083700153
 30
0.0
 11
222.5814487715
 21
113.7047975138
 31
0.0
  0
LINE
  5
14D
330
1F
100
AcDbEntity
  8
0
  6
HIDDEN
 62
     7
370
     0
100
AcDbLine
 10
172.1783709273
 20
143.6555277821
 30
0.0
 11
172.1783709273
 21
138.5153752943
 31
0.0
  0
SPLINE
  5
14E
330
1F
100
AcDbEntity
  8
0
  6
HIDDEN
 62
     7
370
     0
100
AcDbSpline
210
0.0
220
0.0
230
1.0
 70
     8
 71
     3
 72
    18
 73
    14
 74
     0
 42
0.00000001
 43
0.00000001
 12
1.0
 22
0.0
 32
0.0
 13
1.0
 23
0.0
 33
0.0
 40
0.0
 40
0.0
 40
0.0
 40
0.0
 40
0.2500000000000003
 40
0.2500000000000003
 40
0.3750000000000003
 40
0.3750000000000003
 40
0.5000000000000003
 40
0.5000000000000003
 40
0.6250000000000003
 40
0.6250000000000003
 40
0.7500000000000004
 40
0.7500000000000004
 40
1.0
 40
1.0
 40
1.0
 40
1.0
 10
173.0570505837129
 20
143.4323388655575
 30
0.0
 10
172.9217649774106
 20
143.3609861238679
 30
0.0
 10
172.8205972311676
 20
143.2155827172785
 30
0.0
 10
172.7177358882987
 20
142.8861154816728
 30
0.0
 10
172.6916330427754
 20
142.7571819048681
 30
0.0
 10
172.6567430592306
 20
142.4616399055321
 30
0.0
 10
172.6481568009406
 20
142.2972451320101
 30
0.0
 10
172.648057091375
 20
141.9362835172695
 30
0.0
 10
172.6565454625235
 20
141.7397137251073
 30
0.0
 10
172.6906888420441
 20
141.3143589289823
 30
0.0
 10
172.7164858238979
 20
141.0845892791827
 30
0.0
 10
172.8198869552859
 20
140.3520005847503
 30
0.0
 10
172.9217449474572
 20
139.8147638098327
 30
0.0
 10
173.0570505837129
 20
139.2304757210851
 30
0.0
  0
LINE
  5
14F
330
1F
100
AcDbEntity
  8
0
  6
HIDDEN
 62
     7
370
     0
100
AcDbLine
 10
145.8783709273
 20
142.9947802395
 30
0.0
 11
145.8783709273
 21
138.185001523
 31
0.0
  0
LINE
  5
150
330
1F
100
AcDbEntity
  8
0
  6
HIDDEN
 62
     7
370
     0
100
AcDbLine
 10
144.3783709273
 20
142.1287548357
 30
0.0
 11
144.3783709273
 21
137.7519888211
 31
0.0
  0
LINE
  5
151
330
1F
100
AcDbEntity
  8
0
  6
HIDDEN
 62
     7
370
     0
100
AcDbLine
 10
145.8783709273
 20
114.0858564721
 30
0.0
 11
145.8783709273
 21
109.2760777556
 31
0.0
  0
LINE
  5
152
330
1F
100
AcDbEntity
  8
0
  6
HIDDEN
 62
     7
370
     0
100
AcDbLine
 10
172.1783709273
 20
113.7554827008
 30
0.0
 11
172.1783709273
 21
108.615330213
 31
0.0
  0
LINE
  5
153
330
1F
100
AcDbEntity
  8
0
  6
HIDDEN
 62
     7
370
     0
100
AcDbLine
 10
144.3783709273
 20
114.518869174
 30
0.0
 11
144.3783709273
 21
110.1421031594
 31
0.0
  0
SPLINE
  5
154
330
1F
100
AcDbEntity
  8
0
  6
HIDDEN
 62
     7
370
     0
100
AcDbSpline
210
0.0
220
0.0
230
1.0
 70
     8
 71
     3
 72
    18
 73
    14
 74
     0
 42
0.00000001
 43
0.00000001
 12
1.0
 22
0.0
 32
0.0
 13
1.0
 23
0.0
 33
0.0
 40
0.0
 40
0.0
 40
0.0
 40
0.0
 40
0.2500000000000001
 40
0.2500000000000001
 40
0.3750000000000002
 40
0.3750000000000002
 40
0.5000000000000002
 40
0.5000000000000002
 40
0.6250000000000002
 40
0.6250000000000002
 40
0.7500000000000003
 40
0.7500000000000003
 40
1.0
 40
1.0
 40
1.0
 40
1.0
 10
173.0570505837129
 20
113.0403822740202
 30
0.0
 10
172.9217649774106
 20
112.4561806802886
 30
0.0
 10
172.8205972311676
 20
111.9219629930804
 30
0.0
 10
172.7177358882987
 20
111.196066222192
 30
0.0
 10
172.6916330427754
 20
110.9661857344121
 30
0.0
 10
172.6567430592306
 20
110.5356147896253
 30
0.0
 10
172.6481568009406
 20
110.3379198841311
 30
0.0
 10
172.648057091375
 20
109.9765718414533
 30
0.0
 10
172.6565454625235
 20
109.8129218315072
 30
0.0
 10
172.6906888420441
 20
109.5197105585382
 30
0.0
 10
172.7164858238979
 20
109.3897144924224
 30
0.0
 10
172.8198869552859
 20
109.0556585998605
 30
0.0
 10
172.9217449474572
 20
108.9098824354957
 30
0.0
 10
173.0570505837129
 20
108.8385191295478
 30
0.0
  0
SPLINE
  5
155
330
1F
100
AcDbEntity
  8
0
  6
HIDDEN
 62
     7
370
     0
100
AcDbSpline
210
0.0
220
0.0
230
1.0
 70
     8
 71
     3
 72
    10
 73
     6
 74
     0
 42
0.00000001
 43
0.00000001
 12
1.0
 22
0.0
 32
0.0
 13
1.0
 23
0.0
 33
0.0
 40
0.0
 40
0.0
 40
0.0
 40
0.0
 40
0.5
 40
0.5
 40
1.0
 40
1.0
 40
1.0
 40
1.0
 10
223.3888890138479
 20
106.851471452651
 30
0.0
 10
223.3605496716849
 20
106.6894826544257
 30
0.0
 10
223.3484579644972
 20
106.5373587057648
 30
0.0
 10
223.3557369567697
 20
106.2699894080642
 30
0.0
 10
223.3741035342203
 20
106.1531740701743
 30
0.0
 10
223.4188084952101
 20
106.0793146772684
 30
0.0
  0
ARC
  5
156
330
1F
100
AcDbEntity
  8
0
  6
HIDDEN
 62
     7
370
     0
100
AcDbCircle
 10
225.9300070492
 20
104.9544045567
 30
0.0
 40
3.171142330017842
100
AcDbArc
 50
143.2568901839
 51
54.6351965967
  0
SPLINE
  5
157
330
1F
100
AcDbEntity
  8
0
  6
HIDDEN
 62
     7
370
     0
100
AcDbSpline
210
0.0
220
0.0
230
1.0
 70
     8
 71
     3
 72
    10
 73
     6
 74
     0
 42
0.00000001
 43
0.00000001
 12
1.0
 22
0.0
 32
0.0
 13
1.0
 23
0.0
 33
0.0
 40
0.0
 40
0.0
 40
0.0
 40
0.0
 40
0.5
 40
0.5
 40
1.0
 40
1.0
 40
1.0
 40
1.0
 10
228.3430248784483
 20
106.8544810772122
 30
0.0
 10
228.2983723705735
 20
106.9282538095967
 30
0.0
 10
228.2175468515035
 20
107.0353556688684
 30
0.0
 10
228.0199039345061
 20
107.2727645358996
 30
0.0
 10
227.9015581075693
 20
107.4043458983011
 30
0.0
 10
227.7654018626831
 20
107.5404187785412
 30
0.0
  0
LINE
  5
158
330
1F
100
AcDbEntity
  8
0
  6
HIDDEN
 62
     7
370
     0
100
AcDbLine
 10
223.7426573388
 20
105.5442671467
 30
0.0
 11
223.4188084952
 21
106.0793146773
 31
0.0
  0
SPLINE
  5
159
330
1F
100
AcDbEntity
  8
0
  6
HIDDEN
 62
     7
370
     0
100
AcDbSpline
210
0.0
220
0.0
230
1.0
 70
     8
 71
     3
 72
    12
 73
     8
 74
     0
 42
0.00000001
 43
0.00000001
 12
1.0
 22
0.0
 32
0.0
 13
1.0
 23
0.0
 33
0.0
 40
0.0
 40
0.0
 40
0.0
 40
0.0
 40
0.2499999999999999
 40
0.2499999999999999
 40
0.4999999999999998
 40
0.4999999999999998
 40
1.0
 40
1.0
 40
1.0
 40
1.0
 10
207.5769697655827
 20
101.6332829856847
 30
0.0
 10
207.6263539692876
 20
101.8676266573967
 30
0.0
 10
207.7038531105841
 20
102.1023072617164
 30
0.0
 10
207.91022887269
 20
102.5722841839099
 30
0.0
 10
208.0392233499149
 20
102.8078451023189
 30
0.0
 10
208.4911101665032
 20
103.5133890298591
 30
0.0
 10
208.8771531073062
 20
103.9810778233034
 30
0.0
 10
209.3170228070916
 20
104.4470691086715
 30
0.0
  0
LWPOLYLINE
  5
15A
330
1F
100
AcDbEntity
  8
0
  6
HIDDEN
 62
     7
370
     0
100
AcDbPolyline
 90
       15
 70
   128
 43
0.0
 10
226.9613326918
 20
112.6412604846
 10
226.9309201469
 20
112.2366618221
 10
226.7785722283
 20
111.832916386
 10
226.5119282969
 20
111.4502696583
 10
226.1443589928
 20
111.1079091437
 10
225.6942957757
 20
110.823002228
 10
225.1843066948
 20
110.6098353337
 10
224.6399647319
 20
110.4790975388
 10
224.0885654662
 20
110.4373445824
 10
223.5577583592
 20
110.486670132
 10
223.0741602957
 20
110.6246007986
 10
222.662020902
 20
110.8442201627
 10
222.3420065681
 20
111.1345155922
 10
222.1301641492
 20
111.4809304623
 10
222.0371163086
 20
111.8660940847
  0
ELLIPSE
  5
15B
330
1F
100
AcDbEntity
  8
0
  6
HIDDEN
 62
     7
370
     0
100
AcDbEllipse
 10
225.3858389975
 20
108.5403737247
 30
0.0
 11
-0.3124824774540969
 21
2.947022789647605
 31
0.0
210
0.0
220
0.0
230
1.0
 40
0.8407155321
 41
2.089396643204791
 42
4.278721013747939
  0
LINE
  5
15C
330
1F
100
AcDbEntity
  8
0
  6
HIDDEN
 62
     7
370
     0
100
AcDbLine
 10
232.3613670497
 20
93.7610987999
 30
0.0
 11
232.5637499988
 21
93.4267313957
 31
0.0
  0
LINE
  5
15D
330
1F
100
AcDbEntity
  8
0
  6
HIDDEN
 62
     7
370
     0
100
AcDbLine
 10
232.9594265716
 20
93.6647477059
 30
0.0
 11
232.6748414872
 21
94.1349255362
 31
0.0
  0
LINE
  5
15E
330
1F
100
AcDbEntity
  8
0
  6
HIDDEN
 62
     7
370
     0
100
AcDbLine
 10
221.6624120056
 20
116.5907038055
 30
0.0
 11
222.0371163086
 21
111.8660940847
 31
0.0
  0
ELLIPSE
  5
15F
330
1F
100
AcDbEntity
  8
0
  6
HIDDEN
 62
     7
370
     0
100
AcDbEllipse
 10
287.6437614551
 20
123.6354289976
 30
0.0
 11
56.33892397535192
 21
32.4860447700564
 31
0.0
210
0.0
220
0.0
230
1.0
 40
0.102974212
 41
2.853609624211432
 42
2.879561228543273
  0
SPLINE
  5
160
330
1F
100
AcDbEntity
  8
0
  6
HIDDEN
 62
     7
370
     0
100
AcDbSpline
210
0.0
220
0.0
230
1.0
 70
     8
 71
     3
 72
     8
 73
     4
 74
     0
 42
0.00000001
 43
0.00000001
 12
1.0
 22
0.0
 32
0.0
 13
1.0
 23
0.0
 33
0.0
 40
0.0
 40
0.0
 40
0.0
 40
0.0
 40
1.0
 40
1.0
 40
1.0
 40
1.0
 10
209.2222590151787
 20
106.9996242379385
 30
0.0
 10
209.2536457877146
 20
106.121152891837
 30
0.0
 10
209.285237800085
 20
105.2704405921038
 30
0.0
 10
209.3170228070917
 20
104.4470691086716
 30
0.0
  0
ELLIPSE
  5
161
330
1F
100
AcDbEntity
  8
0
  6
HIDDEN
 62
     7
370
     0
100
AcDbEllipse
 10
182.0080340652
 20
123.6354289976
 30
0.0
 11
53.19069264814195
 21
-32.89700749364012
 31
0.0
210
0.0
220
0.0
230
1.0
 40
0.0489778835
 41
0.3597248217243731
 42
0.6806611876842642
  0
SPLINE
  5
162
330
1F
100
AcDbEntity
  8
0
  6
HIDDEN
 62
     7
370
     0
100
AcDbSpline
210
0.0
220
0.0
230
1.0
 70
     8
 71
     3
 72
    18
 73
    14
 74
     0
 42
0.00000001
 43
0.00000001
 12
1.0
 22
0.0
 32
0.0
 13
1.0
 23
0.0
 33
0.0
 40
0.0
 40
0.0
 40
0.0
 40
0.0
 40
0.2500000000000008
 40
0.2500000000000008
 40
0.3750000000000011
 40
0.3750000000000011
 40
0.5000000000000013
 40
0.5000000000000013
 40
0.7500000000000007
 40
0.7500000000000007
 40
0.8750000000000003
 40
0.8750000000000003
 40
1.0
 40
1.0
 40
1.0
 40
1.0
 10
224.3594981682225
 20
99.7087461661853
 30
0.0
 10
223.4144265123019
 20
100.3753462332874
 30
0.0
 10
222.39892715711
 20
101.0056022822725
 30
0.0
 10
220.7626185608988
 20
101.8654337221552
 30
0.0
 10
220.198289309045
 20
102.1377820703058
 30
0.0
 10
219.0296912213772
 20
102.6483142938034
 30
0.0
 10
218.4237431916185
 20
102.8867796299211
 30
0.0
 10
216.5847857341662
 20
103.528051336098
 30
0.0
 10
215.3185992409091
 20
103.8631881624619
 30
0.0
 10
213.3568700562382
 20
104.2084048732734
 30
0.0
 10
212.690287536643
 20
104.2973173462357
 30
0.0
 10
211.3449842043846
 20
104.4167164111827
 30
0.0
 10
210.6700197038686
 20
104.4470691086716
 30
0.0
 10
209.9926804343268
 20
104.4470691086716
 30
0.0
  0
LINE
  5
163
330
1F
100
AcDbEntity
  8
0
  6
HIDDEN
 62
     7
370
     0
100
AcDbLine
 10
209.9926804343
 20
104.4470691087
 30
0.0
 11
209.3170228071
 21
104.4470691087
 31
0.0
  0
ELLIPSE
  5
164
330
1F
100
AcDbEntity
  8
0
  6
HIDDEN
 62
     7
370
     0
100
AcDbEllipse
 10
232.0009300347
 20
123.6354289976
 30
0.0
 11
-2.335491778706938
 21
32.99927144450551
 31
0.0
210
0.0
220
0.0
230
1.0
 40
0.0938906935
 41
2.092508665131728
 42
2.670244599532147
  0
LINE
  5
165
330
1F
100
AcDbEntity
  8
0
  6
HIDDEN
 62
     7
370
     0
100
AcDbLine
 10
144.3783709273
 20
137.7519888211
 30
0.0
 11
144.3783709273
 21
128.4745999258
 31
0.0
  0
LINE
  5
166
330
1F
100
AcDbEntity
  8
0
  6
HIDDEN
 62
     7
370
     0
100
AcDbLine
 10
144.3783709273
 20
123.7962580693
 30
0.0
 11
144.3783709273
 21
114.518869174
 31
0.0
  0
LINE
  5
167
330
1F
100
AcDbEntity
  8
0
  6
HIDDEN
 62
     7
370
     0
100
AcDbLine
 10
145.8783709273
 20
122.9869518792
 30
0.0
 11
145.8783709273
 21
114.0858564721
 31
0.0
  0
LINE
  5
168
330
1F
100
AcDbEntity
  8
0
  6
HIDDEN
 62
     7
370
     0
100
AcDbLine
 10
145.8783709273
 20
138.185001523
 30
0.0
 11
145.8783709273
 21
129.2839061159
 31
0.0
  0
LINE
  5
169
330
1F
100
AcDbEntity
  8
0
  6
HIDDEN
 62
     7
370
     0
100
AcDbLine
 10
172.1783709273
 20
138.5153752943
 30
0.0
 11
172.1783709273
 21
113.7554827008
 31
0.0
  0
LINE
  5
16A
330
1F
100
AcDbEntity
  8
0
  6
HIDDEN
 62
     7
370
     0
100
AcDbLine
 10
174.1783709273
 20
137.6977032306
 30
0.0
 11
174.1783709273
 21
114.5731547645
 31
0.0
  0
SPLINE
  5
16B
330
1F
100
AcDbEntity
  8
0
  6
HIDDEN
 62
     7
370
     0
100
AcDbSpline
210
0.0
220
0.0
230
1.0
 70
     8
 71
     3
 72
     8
 73
     4
 74
     0
 42
0.00000001
 43
0.00000001
 12
1.0
 22
0.0
 32
0.0
 13
1.0
 23
0.0
 33
0.0
 40
0.0000202085968835
 40
0.0000202085968835
 40
0.0000202085968835
 40
0.0000202085968835
 40
0.0040218806502652
 40
0.0040218806502652
 40
0.0040218806502652
 40
0.0040218806502652
 10
145.8783709272726
 20
122.9869518792159
 30
0.0
 10
147.2116940530632
 20
122.9629536480523
 30
0.0
 10
148.5450279262858
 20
122.939625907884
 30
0.0
 10
149.8783709272726
 20
122.9169312371036
 30
0.0
  0
SPLINE
  5
16C
330
1F
100
AcDbEntity
  8
0
  6
HIDDEN
 62
     7
370
     0
100
AcDbSpline
210
0.0
220
0.0
230
1.0
 70
     8
 71
     3
 72
     8
 73
     4
 74
     0
 42
0.00000001
 43
0.00000001
 12
1.0
 22
0.0
 32
0.0
 13
1.0
 23
0.0
 33
0.0
 40
0.0000202082942178
 40
0.0000202082942178
 40
0.0000202082942178
 40
0.0000202082942178
 40
0.0040218803475994
 40
0.0040218803475994
 40
0.0040218803475994
 40
0.0040218803475994
 10
149.8783709272726
 20
129.3539267580017
 30
0.0
 10
148.5450279262858
 20
129.3312320872213
 30
0.0
 10
147.2116940530632
 20
129.307904347053
 30
0.0
 10
145.8783709272726
 20
129.2839061158894
 30
0.0
  0
SPLINE
  5
16D
330
1F
100
AcDbEntity
  8
0
  6
HIDDEN
 62
     7
370
     0
100
AcDbSpline
210
0.0
220
0.0
230
1.0
 70
     8
 71
     3
 72
     8
 73
     4
 74
     0
 42
0.00000001
 43
0.00000001
 12
1.0
 22
0.0
 32
0.0
 13
1.0
 23
0.0
 33
0.0
 40
0.0
 40
0.0
 40
0.0
 40
0.0
 40
1.0
 40
1.0
 40
1.0
 40
1.0
 10
144.3783709272726
 20
123.7962580693176
 30
0.0
 10
144.8525823377102
 20
123.4615288420228
 30
0.0
 10
145.3573186848118
 20
123.2024704281901
 30
0.0
 10
145.8783709272726
 20
122.9869518792159
 30
0.0
  0
SPLINE
  5
16E
330
1F
100
AcDbEntity
  8
0
  6
HIDDEN
 62
     7
370
     0
100
AcDbSpline
210
0.0
220
0.0
230
1.0
 70
     8
 71
     3
 72
     8
 73
     4
 74
     0
 42
0.00000001
 43
0.00000001
 12
1.0
 22
0.0
 32
0.0
 13
1.0
 23
0.0
 33
0.0
 40
0.0
 40
0.0
 40
0.0
 40
0.0
 40
1.0
 40
1.0
 40
1.0
 40
1.0
 10
145.8783709272726
 20
129.2839061158894
 30
0.0
 10
145.3573186848118
 20
129.0683875669152
 30
0.0
 10
144.8525823377102
 20
128.8093291530825
 30
0.0
 10
144.3783709272726
 20
128.4745999257877
 30
0.0
  0
LINE
  5
16F
330
1F
100
AcDbEntity
  8
0
  6
HIDDEN
 62
     7
370
     0
100
AcDbLine
 10
144.3783709273
 20
123.7962580693
 30
0.0
 11
144.3783709273
 21
128.4745999258
 31
0.0
  0
LINE
  5
170
330
1F
100
AcDbEntity
  8
0
  6
HIDDEN
 62
     7
370
     0
100
AcDbLine
 10
149.8783709273
 20
122.9169312371
 30
0.0
 11
149.8783709273
 21
129.353926758
 31
0.0
  0
SPLINE
  5
171
330
1F
100
AcDbEntity
  8
0
  6
HIDDEN
 62
     7
370
     0
100
AcDbSpline
210
0.0
220
0.0
230
1.0
 70
     8
 71
     3
 72
    26
 73
    22
 74
     0
 42
0.00000001
 43
0.00000001
 12
1.0
 22
0.0
 32
0.0
 13
1.0
 23
0.0
 33
0.0
 40
0.0
 40
0.0
 40
0.0
 40
0.0
 40
0.1249999999999998
 40
0.1249999999999998
 40
0.2499999999999997
 40
0.2499999999999997
 40
0.3749999999999995
 40
0.3749999999999995
 40
0.4374999999999994
 40
0.4374999999999994
 40
0.4999999999999993
 40
0.4999999999999993
 40
0.5624999999999992
 40
0.5624999999999992
 40
0.6249999999999991
 40
0.6249999999999991
 40
0.7499999999999994
 40
0.7499999999999994
 40
0.8749999999999997
 40
0.8749999999999997
 40
1.0
 40
1.0
 40
1.0
 40
1.0
 10
149.8783709272726
 20
122.9169312371036
 30
0.0
 10
150.0890142892725
 20
123.1515482680487
 30
0.0
 10
150.2962107270295
 20
123.3894314040081
 30
0.0
 10
150.6977098616619
 20
123.8767457102769
 30
0.0
 10
150.8929862807078
 20
124.126870935066
 30
0.0
 10
151.2527667734033
 20
124.6454610805169
 30
0.0
 10
151.4180256335527
 20
124.9128920644037
 30
0.0
 10
151.6106835429788
 20
125.3443071968023
 30
0.0
 10
151.6656482831889
 20
125.4943260787267
 30
0.0
 10
151.743384068153
 20
125.8070632574567
 30
0.0
 10
151.7646502064613
 20
125.9648175042639
 30
0.0
 10
151.7665441357471
 20
126.2835227841097
 30
0.0
 10
151.74631839868
 20
126.4459595842902
 30
0.0
 10
151.6718539883942
 20
126.7569115838729
 30
0.0
 10
151.6182148626483
 20
126.9075828222006
 30
0.0
 10
151.4234705572476
 20
127.3496665801691
 30
0.0
 10
151.2564204440693
 20
127.6197105933369
 30
0.0
 10
150.8961643253657
 20
128.1398182216183
 30
0.0
 10
150.7014119503453
 20
128.3894794344279
 30
0.0
 10
150.298402725873
 20
128.8789035462707
 30
0.0
 10
150.0899662075095
 20
129.1182494694347
 30
0.0
 10
149.8783709272735
 20
129.3539267580026
 30
0.0
  0
SPLINE
  5
172
330
1F
100
AcDbEntity
  8
0
  6
HIDDEN
 62
     7
370
     0
100
AcDbSpline
210
0.0
220
0.0
230
1.0
 70
     8
 71
     3
 72
    68
 73
    64
 74
     0
 42
0.00000001
 43
0.00000001
 12
1.0
 22
0.0
 32
0.0
 13
1.0
 23
0.0
 33
0.0
 40
-0.0312499999999999
 40
-0.0312499999999999
 40
0.0
 40
0.0
 40
0.0312499999999998
 40
0.0312499999999998
 40
0.0624999999999998
 40
0.0624999999999998
 40
0.0937499999999997
 40
0.0937499999999997
 40
0.1249999999999997
 40
0.1249999999999997
 40
0.1562499999999997
 40
0.1562499999999997
 40
0.1874999999999997
 40
0.1874999999999997
 40
0.2499999999999999
 40
0.2499999999999999
 40
0.28125
 40
0.28125
 40
0.3125000000000001
 40
0.3125000000000001
 40
0.3437500000000002
 40
0.3437500000000002
 40
0.3750000000000003
 40
0.3750000000000003
 40
0.4062500000000004
 40
0.4062500000000004
 40
0.4375000000000004
 40
0.4375000000000004
 40
0.4687500000000006
 40
0.4687500000000006
 40
0.5000000000000007
 40
0.5000000000000007
 40
0.5312500000000008
 40
0.5312500000000008
 40
0.5625000000000009
 40
0.5625000000000009
 40
0.593750000000001
 40
0.593750000000001
 40
0.625000000000001
 40
0.625000000000001
 40
0.6562500000000011
 40
0.6562500000000011
 40
0.6875000000000012
 40
0.6875000000000012
 40
0.7187500000000011
 40
0.7187500000000011
 40
0.750000000000001
 40
0.750000000000001
 40
0.7812500000000009
 40
0.7812500000000009
 40
0.8125000000000008
 40
0.8125000000000008
 40
0.8437500000000007
 40
0.8437500000000007
 40
0.8750000000000004
 40
0.8750000000000004
 40
0.9062500000000003
 40
0.9062500000000003
 40
0.9375000000000002
 40
0.9375000000000002
 40
0.9687500000000001
 40
0.9687500000000001
 40
1.0
 40
1.0
 40
1.03125
 40
1.03125
 10
158.0981315920162
 20
128.3933166885444
 30
0.0
 10
158.433019111689
 20
128.6645579252913
 30
0.0
 10
158.6112853336247
 20
128.782199218163
 30
0.0
 10
158.9883100305181
 20
128.9835307421729
 30
0.0
 10
159.1884987518944
 20
129.0673389453865
 30
0.0
 10
159.5951667915253
 20
129.1954309689549
 30
0.0
 10
159.8030819575455
 20
129.240735765915
 30
0.0
 10
160.2280702567689
 20
129.2938934772205
 30
0.0
 10
160.4441069077528
 20
129.3011756612561
 30
0.0
 10
160.8686178766044
 20
129.2776282237188
 30
0.0
 10
161.0791448499942
 20
129.2471240212418
 30
0.0
 10
161.4966300607812
 20
129.1472644077746
 30
0.0
 10
161.6994935943596
 20
129.0786685200138
 30
0.0
 10
162.2808101133744
 20
128.8213270767949
 30
0.0
 10
162.6412173661501
 20
128.574777185485
 30
0.0
 10
163.0859563629118
 20
128.1215386294101
 30
0.0
 10
163.2211455830544
 20
127.9539580499336
 30
0.0
 10
163.4540854576566
 20
127.5950959750223
 30
0.0
 10
163.5507688033113
 20
127.4063374546682
 30
0.0
 10
163.7040000679607
 20
127.0098237784599
 30
0.0
 10
163.7606170253289
 20
126.799479369373
 30
0.0
 10
163.8260692271637
 20
126.3780908410901
 30
0.0
 10
163.836027585791
 20
126.1655747219265
 30
0.0
 10
163.8091935766238
 20
125.7367999468262
 30
0.0
 10
163.772173912851
 20
125.5242337186793
 30
0.0
 10
163.6550106338142
 20
125.1149390746013
 30
0.0
 10
163.5734717563193
 20
124.9140904028936
 30
0.0
 10
163.3722325449153
 20
124.5369636443826
 30
0.0
 10
163.2533008097445
 20
124.360743322853
 30
0.0
 10
162.9801269966523
 20
124.0319872018708
 30
0.0
 10
162.8262662219421
 20
123.8806890339713
 30
0.0
 10
162.4963436239261
 20
123.613101880492
 30
0.0
 10
162.3180217988546
 20
123.4946307197812
 30
0.0
 10
161.9399977989322
 20
123.2917439158464
 30
0.0
 10
161.744068800151
 20
123.2091249613984
 30
0.0
 10
161.3389835123167
 20
123.0796847848676
 30
0.0
 10
161.1276487144467
 20
123.032709554437
 30
0.0
 10
160.7037639247942
 20
122.9779945995189
 30
0.0
 10
160.491328651532
 20
122.9697648510758
 30
0.0
 10
160.065476584237
 20
122.9912563488765
 30
0.0
 10
159.8503324208274
 20
123.0216539710949
 30
0.0
 10
159.435202881087
 20
123.1193964279831
 30
0.0
 10
159.2335779153432
 20
123.186514941732
 30
0.0
 10
158.8424914160722
 20
123.3581580418923
 30
0.0
 10
158.6526718071813
 20
123.4635041006769
 30
0.0
 10
158.3020811870096
 20
123.7042070423715
 30
0.0
 10
158.1390747073631
 20
123.8403299187042
 30
0.0
 10
157.8390123846744
 20
124.1459833879382
 30
0.0
 10
157.7037434874702
 20
124.314435067427
 30
0.0
 10
157.4727995346373
 20
124.6707157537105
 30
0.0
 10
157.375317315165
 20
124.8604694331172
 30
0.0
 10
157.2203347557604
 20
125.2630777954014
 30
0.0
 10
157.1654682349433
 20
125.4689175390744
 30
0.0
 10
157.1000603642792
 20
125.8894971753969
 30
0.0
 10
157.0899141184461
 20
126.1069989926946
 30
0.0
 10
157.1165824809857
 20
126.5337391316552
 30
0.0
 10
157.1526198728122
 20
126.7436418407424
 30
0.0
 10
157.2700310183801
 20
127.1565306614008
 30
0.0
 10
157.3511585529983
 20
127.3568536061848
 30
0.0
 10
157.5509155971877
 20
127.7330921246498
 30
0.0
 10
157.6714180963138
 20
127.9125468698976
 30
0.0
 10
157.9454985416797
 20
128.2428947979874
 30
0.0
 10
158.0981315920162
 20
128.3933166885444
 30
0.0
 10
158.433019111689
 20
128.6645579252913
 30
0.0
  0
CIRCLE
  5
173
330
1F
100
AcDbEntity
  8
0
  6
HIDDEN
 62
     7
370
     0
100
AcDbCircle
 10
160.3783709273
 20
126.1354289976
 30
0.0
 40
3.050000000000011
  0
CIRCLE
  5
174
330
1F
100
AcDbEntity
  8
0
  6
HIDDEN
 62
     7
370
     0
100
AcDbCircle
 10
186.3783709273
 20
126.1354289976
 30
0.0
 40
2.0
  0
LINE
  5
175
330
1F
100
AcDbEntity
  8
0
  6
HIDDEN
 62
     7
370
     0
100
AcDbLine
 10
209.2222590152
 20
106.9996242379
 30
0.0
 11
230.478713019
 21
106.9996242379
 31
0.0
  0
SPLINE
  5
176
330
1F
100
AcDbEntity
  8
0
  6
HIDDEN
 62
     7
370
     0
100
AcDbSpline
210
0.0
220
0.0
230
1.0
 70
     8
 71
     3
 72
     8
 73
     4
 74
     0
 42
0.00000001
 43
0.00000001
 12
1.0
 22
0.0
 32
0.0
 13
1.0
 23
0.0
 33
0.0
 40
0.0
 40
0.0
 40
0.0
 40
0.0
 40
1.0
 40
1.0
 40
1.0
 40
1.0
 10
209.2222590151787
 20
106.9996242379385
 30
0.0
 10
208.3911272997169
 20
112.167465915814
 30
0.0
 10
207.7692997664458
 20
117.3641397297965
 30
0.0
 10
207.5769697655827
 20
122.6199778241217
 30
0.0
  0
LINE
  5
177
330
1F
100
AcDbEntity
  8
0
  6
HIDDEN
 62
     7
370
     0
100
AcDbLine
 10
230.478713019
 20
106.9996242379
 30
0.0
 11
229.1363930083
 21
126.1354289976
 31
0.0
  0
LINE
  5
178
330
1F
100
AcDbEntity
  8
0
  6
HIDDEN
 62
     7
370
     0
100
AcDbLine
 10
195.3783709273
 20
112.5194621103
 30
0.0
 11
195.3783709273
 21
115.9456179181
 31
0.0
  0
LINE
  5
179
330
1F
100
AcDbEntity
  8
0
  6
HIDDEN
 62
     7
370
     0
100
AcDbLine
 10
189.3783709273
 20
116.3319263673
 30
0.0
 11
189.3783709273
 21
112.5196046681
 31
0.0
  0
LINE
  5
17A
330
1F
100
AcDbEntity
  8
0
  6
HIDDEN
 62
     7
370
     0
100
AcDbLine
 10
174.3783709273
 20
106.5854289976
 30
0.0
 11
174.4712641461
 21
106.6783222164
 31
0.0
  0
LINE
  5
17B
330
1F
100
AcDbEntity
  8
0
  6
HIDDEN
 62
     7
370
     0
100
AcDbLine
 10
174.4712641461
 20
145.5925357787
 30
0.0
 11
174.3783709273
 21
145.6854289976
 31
0.0
  0
ARC
  5
17C
330
1F
100
AcDbEntity
  8
0
  6
HIDDEN
 62
     7
370
     0
100
AcDbCircle
 10
173.7641573649
 20
107.3854289976
 30
0.0
 40
1.0
100
AcDbArc
 50
315.0
 51
0.0
  0
ARC
  5
17D
330
1F
100
AcDbEntity
  8
0
  6
HIDDEN
 62
     7
370
     0
100
AcDbCircle
 10
173.7641573649
 20
107.3854289976
 30
0.0
 40
1.00000000000001
100
AcDbArc
 50
0.0
 51
52.1052014664
  0
ARC
  5
17E
330
1F
100
AcDbEntity
  8
0
  6
HIDDEN
 62
     7
370
     0
100
AcDbCircle
 10
173.7641573649
 20
144.8854289976
 30
0.0
 40
1.00000000000003
100
AcDbArc
 50
351.8087250651
 51
45.0
  0
ARC
  5
17F
330
1F
100
AcDbEntity
  8
0
  6
HIDDEN
 62
     7
370
     0
100
AcDbCircle
 10
173.7641573649
 20
144.8854289976
 30
0.0
 40
1.00000000000003
100
AcDbArc
 50
307.8947985336
 51
351.8087250651
  0
LINE
  5
180
330
1F
100
AcDbEntity
  8
0
  6
HIDDEN
 62
     7
370
     0
100
AcDbLine
 10
174.7641573649
 20
107.3854289976
 30
0.0
 11
174.7641573649
 21
144.8854289976
 31
0.0
  0
LINE
  5
181
330
1F
100
AcDbEntity
  8
0
  6
HIDDEN
 62
     7
370
     0
100
AcDbLine
 10
174.7641573649
 20
107.3854289976
 30
0.0
 11
174.7641573649
 21
144.8854289976
 31
0.0
  0
LINE
  5
182
330
1F
100
AcDbEntity
  8
0
  6
HIDDEN
 62
     7
370
     0
100
AcDbLine
 10
194.8783709273
 20
118.2551267129
 30
0.0
 11
194.8783709273
 21
122.1869054116
 31
0.0
  0
LINE
  5
183
330
1F
100
AcDbEntity
  8
0
  6
HIDDEN
 62
     7
370
     0
100
AcDbLine
 10
189.8783709273
 20
122.1868367339
 30
0.0
 11
189.8783709273
 21
116.4955524411
 31
0.0
  0
LINE
  5
184
330
1F
100
AcDbEntity
  8
0
  6
HIDDEN
 62
     7
370
     0
100
AcDbLine
 10
200.0992592691
 20
115.3049281036
 30
0.0
 11
194.3200060596
 21
119.1075603021
 31
0.0
  0
LINE
  5
185
330
1F
100
AcDbEntity
  8
0
  6
HIDDEN
 62
     7
370
     0
100
AcDbLine
 10
192.5090139923
 20
114.3138882468
 30
0.0
 11
199.990922399
 21
109.3909432257
 31
0.0
  0
ARC
  5
186
330
1F
100
AcDbEntity
  8
0
  6
HIDDEN
 62
     7
370
     0
100
AcDbCircle
 10
151.8850904393
 20
115.6354289976
 30
0.0
 40
1.5
100
AcDbArc
 50
270.0
 51
315.0
  0
ARC
  5
187
330
1F
100
AcDbEntity
  8
0
  6
HIDDEN
 62
     7
370
     0
100
AcDbCircle
 10
151.8850904393
 20
136.6354289976
 30
0.0
 40
1.5
100
AcDbArc
 50
45.0
 51
90.0
  0
LINE
  5
188
330
1F
100
AcDbEntity
  8
0
  6
HIDDEN
 62
     7
370
     0
100
AcDbLine
 10
150.8783709273
 20
114.1354289976
 30
0.0
 11
151.8850904393
 21
114.1354289976
 31
0.0
  0
LINE
  5
189
330
1F
100
AcDbEntity
  8
0
  6
HIDDEN
 62
     7
370
     0
100
AcDbLine
 10
151.8850904393
 20
138.1354289976
 30
0.0
 11
150.8783709273
 21
138.1354289976
 31
0.0
  0
ARC
  5
18A
330
1F
100
AcDbEntity
  8
0
  6
HIDDEN
 62
     7
370
     0
100
AcDbCircle
 10
150.8783709273
 20
115.6354289976
 30
0.0
 40
1.500000000000014
100
AcDbArc
 50
191.0958032831
 51
270.0
  0
ARC
  5
18B
330
1F
100
AcDbEntity
  8
0
  6
HIDDEN
 62
     7
370
     0
100
AcDbCircle
 10
150.8783709273
 20
136.6354289976
 30
0.0
 40
1.500000000000014
100
AcDbArc
 50
90.0
 51
168.9041967169
  0
LINE
  5
18C
330
1F
100
AcDbEntity
  8
0
  6
HIDDEN
 62
     7
370
     0
100
AcDbLine
 10
144.3783709273
 20
114.3720169291
 30
0.0
 11
145.4064107829
 21
114.9655560165
 31
0.0
  0
LINE
  5
18D
330
1F
100
AcDbEntity
  8
0
  6
HIDDEN
 62
     7
370
     0
100
AcDbLine
 10
145.4064107829
 20
137.3053019786
 30
0.0
 11
144.3783709273
 21
137.898841066
 31
0.0
  0
LINE
  5
18E
330
1F
100
AcDbEntity
  8
0
  6
HIDDEN
 62
     7
370
     0
100
AcDbLine
 10
152.9457506111
 20
114.5747688258
 30
0.0
 11
154.0064107829
 21
115.6354289976
 31
0.0
  0
LINE
  5
18F
330
1F
100
AcDbEntity
  8
0
  6
HIDDEN
 62
     7
370
     0
100
AcDbLine
 10
154.0064107829
 20
136.6354289976
 30
0.0
 11
152.9457506111
 21
137.6960891693
 31
0.0
  0
LINE
  5
190
330
1F
100
AcDbEntity
  8
0
  6
HIDDEN
 62
     7
370
     0
100
AcDbLine
 10
145.4064107829
 20
114.9655560165
 30
0.0
 11
147.9064107829
 21
115.6354289976
 31
0.0
  0
LINE
  5
191
330
1F
100
AcDbEntity
  8
0
  6
HIDDEN
 62
     7
370
     0
100
AcDbLine
 10
147.9064107829
 20
136.6354289976
 30
0.0
 11
145.4064107829
 21
137.3053019786
 31
0.0
  0
LINE
  5
192
330
1F
100
AcDbEntity
  8
0
  6
HIDDEN
 62
     7
370
     0
100
AcDbLine
 10
149.4064107829
 20
136.9241041321
 30
0.0
 11
148.9064107829
 21
136.6354289976
 31
0.0
  0
LINE
  5
193
330
1F
100
AcDbEntity
  8
0
  6
HIDDEN
 62
     7
370
     0
100
AcDbLine
 10
148.9064107829
 20
115.6354289976
 30
0.0
 11
149.4064107829
 21
115.346753863
 31
0.0
  0
LINE
  5
194
330
1F
100
AcDbEntity
  8
0
  6
HIDDEN
 62
     7
370
     0
100
AcDbLine
 10
147.9064107829
 20
115.6354289976
 30
0.0
 11
148.9064107829
 21
115.6354289976
 31
0.0
  0
LINE
  5
195
330
1F
100
AcDbEntity
  8
0
  6
HIDDEN
 62
     7
370
     0
100
AcDbLine
 10
148.9064107829
 20
136.6354289976
 30
0.0
 11
147.9064107829
 21
136.6354289976
 31
0.0
  0
LINE
  5
196
330
1F
100
AcDbEntity
  8
0
  6
HIDDEN
 62
     7
370
     0
100
AcDbLine
 10
154.0064107829
 20
115.6354289976
 30
0.0
 11
163.8783709273
 21
115.6354289976
 31
0.0
  0
LINE
  5
197
330
1F
100
AcDbEntity
  8
0
  6
HIDDEN
 62
     7
370
     0
100
AcDbLine
 10
163.8783709273
 20
136.6354289976
 30
0.0
 11
154.0064107829
 21
136.6354289976
 31
0.0
  0
ARC
  5
198
330
1F
100
AcDbEntity
  8
0
  6
HIDDEN
 62
     7
370
     0
100
AcDbCircle
 10
163.8783709273
 20
116.1354289976
 30
0.0
 40
0.5
100
AcDbArc
 50
270.0
 51
0.0
  0
ARC
  5
199
330
1F
100
AcDbEntity
  8
0
  6
HIDDEN
 62
     7
370
     0
100
AcDbCircle
 10
163.8783709273
 20
136.1354289976
 30
0.0
 40
0.5
100
AcDbArc
 50
0.0
 51
90.0
  0
LINE
  5
19A
330
1F
100
AcDbEntity
  8
0
  6
HIDDEN
 62
     7
370
     0
100
AcDbLine
 10
164.3783709273
 20
117.8854289976
 30
0.0
 11
165.3783709273
 21
118.8854289976
 31
0.0
  0
LINE
  5
19B
330
1F
100
AcDbEntity
  8
0
  6
HIDDEN
 62
     7
370
     0
100
AcDbLine
 10
165.3783709273
 20
133.3854289976
 30
0.0
 11
164.3783709273
 21
134.3854289976
 31
0.0
  0
LINE
  5
19C
330
1F
100
AcDbEntity
  8
0
  6
HIDDEN
 62
     7
370
     0
100
AcDbLine
 10
198.3783709273
 20
133.3854289976
 30
0.0
 11
165.3783709273
 21
133.3854289976
 31
0.0
  0
LINE
  5
19D
330
1F
100
AcDbEntity
  8
0
  6
HIDDEN
 62
     7
370
     0
100
AcDbLine
 10
165.3783709273
 20
118.8854289976
 30
0.0
 11
198.3783709273
 21
118.8854289976
 31
0.0
  0
LINE
  5
19E
330
1F
100
AcDbEntity
  8
0
  6
HIDDEN
 62
     7
370
     0
100
AcDbLine
 10
198.3783709273
 20
118.8854289976
 30
0.0
 11
202.7346104152
 21
126.1354289976
 31
0.0
  0
LINE
  5
19F
330
1F
100
AcDbEntity
  8
0
  6
HIDDEN
 62
     7
370
     0
100
AcDbLine
 10
202.7346104152
 20
126.1354289976
 30
0.0
 11
198.3783709273
 21
133.3854289976
 31
0.0
  0
LINE
  5
1A0
330
1F
100
AcDbEntity
  8
0
  6
HIDDEN
 62
     7
370
     0
100
AcDbLine
 10
221.8128692081
 20
116.5492251766
 30
0.0
 11
222.2915465985
 21
115.7583773453
 31
0.0
  0
LINE
  5
1A1
330
1F
100
AcDbEntity
  8
0
  6
HIDDEN
 62
     7
370
     0
100
AcDbLine
 10
228.2800259033
 20
119.3830312069
 30
0.0
 11
227.8013485129
 21
120.1738790382
 31
0.0
  0
LINE
  5
1A2
330
1F
100
AcDbEntity
  8
0
  6
HIDDEN
 62
     7
370
     0
100
AcDbLine
 10
216.4663264506
 20
112.7721167204
 30
0.0
 11
217.430078882
 21
111.1798511661
 31
0.0
  0
LINE
  5
1A3
330
1F
100
AcDbEntity
  8
0
  6
HIDDEN
 62
     7
370
     0
100
AcDbLine
 10
228.8276484117
 20
109.1567080576
 30
0.0
 11
227.0647250644
 21
116.5401532432
 31
0.0
  0
LINE
  5
1A4
330
1F
100
AcDbEntity
  8
0
  6
HIDDEN
 62
     7
370
     0
100
AcDbLine
 10
218.4028426615
 20
120.8312543017
 30
0.0
 11
221.1700563517
 21
116.2593965331
 31
0.0
  0
LINE
  5
1A5
330
1F
100
AcDbEntity
  8
0
  6
HIDDEN
 62
     7
370
     0
100
AcDbLine
 10
228.3562315174
 20
120.6089811669
 30
0.0
 11
225.5890178272
 21
125.1808389356
 31
0.0
  0
LINE
  5
1A6
330
1F
100
AcDbEntity
  8
0
  6
HIDDEN
 62
     7
370
     0
100
AcDbLine
 10
229.2188312188
 20
105.6458732025
 30
0.0
 11
228.6334718245
 21
106.6129759253
 31
0.0
  0
LINE
  5
1A7
330
1F
100
AcDbEntity
  8
0
  6
HIDDEN
 62
     7
370
     0
100
AcDbLine
 10
223.1582907458
 20
103.2990066804
 30
0.0
 11
223.7436501401
 21
102.3319039576
 31
0.0
  0
LINE
  5
1A8
330
1F
100
AcDbEntity
  8
0
  6
HIDDEN
 62
     7
370
     0
100
AcDbLine
 10
222.067577537
 20
111.6730801384
 30
0.0
 11
223.3709775642
 21
106.2142026037
 31
0.0
  0
LINE
  5
1A9
330
1F
100
AcDbEntity
  8
VERMASSUNG
  6
CENTERX2
100
AcDbLine
 10
140.7575708915
 20
126.1354289976
 30
0.0
 11
234.3783709273
 21
126.1354289976
 31
0.0
  0
LINE
  5
1AA
330
1F
100
AcDbEntity
  8
VERMASSUNG
  6
CENTERX2
100
AcDbLine
 10
234.3783709273
 20
91.1354289976
 30
0.0
 11
243.2188365707
 21
91.1354289976
 31
0.0
  0
LINE
  5
1AB
330
1F
100
AcDbEntity
  8
VERMASSUNG
  6
CENTERX2
100
AcDbLine
 10
234.3783709273
 20
91.1354289976
 30
0.0
 11
234.3783709273
 21
126.1354289976
 31
0.0
  0
DIMENSION
  5
1AC
330
1F
100
AcDbEntity
  8
VERMASSUNG
100
AcDbDimension
  2
_D
 10
252.4185114839
 20
91.1354289976
 30
0.0
 11
252.4185114839
 21
108.6354289976
 31
0.0
 70
   160
  1
<>
 71
     2
 42
-1.0
  3
SLDDIMSTYLE0
100
AcDbAlignedDimension
 13
234.3783709273
 23
126.1354289976
 33
0.0
 14
243.2188365707
 24
91.1354289976
 34
0.0
 50
90.0
100
AcDbRotatedDimension
  0
DIMENSION
  5
1B9
330
1F
100
AcDbEntity
  8
VERMASSUNG
100
AcDbDimension
  2
_D_1
 10
234.3788710288
 20
91.5555588963
 30
0.0
 11
243.2640407173
 21
100.4802906538
 31
0.0
 70
   162
  1
<>
 71
     1
 42
-1.0
  3
SLDDIMSTYLE1
100
AcDb2LineAngularDimension
 13
243.2188365707
 23
91.1354289976
 33
0.0
 14
234.3783709273
 24
91.1354289976
 34
0.0
 15
233.6227401839
 25
105.8286685768
 35
0.0
 16
243.2640407173
 26
100.4802906538
 36
0.0
  0
DIMENSION
  5
1C3
330
1F
100
AcDbEntity
  8
VERMASSUNG
100
AcDbDimension
  2
_D_2
 10
234.3783709273
 20
72.9520935411
 30
0.0
 11
189.3783709273
 21
72.9520935411
 31
0.0
 70
   160
  1
<>
 71
     2
 42
-1.0
  3
SLDDIMSTYLE2
100
AcDbAlignedDimension
 13
144.3783709273
 23
110.1421031594
 33
0.0
 14
234.3783709273
 24
91.1354289976
 34
0.0
 50
0.0
100
AcDbRotatedDimension
  0
DIMENSION
  5
1CE
330
1F
100
AcDbEntity
  8
VERMASSUNG
100
AcDbDimension
  2
_D_3
 10
234.3783709273
 20
82.2347575749
 30
0.0
 11
204.3783709273
 21
82.2347575749
 31
0.0
 70
   160
  1
<>
 71
     2
 42
-1.0
  3
SLDDIMSTYLE0
100
AcDbAlignedDimension
 13
174.3783709273
 23
101.4354289976
 33
0.0
 14
234.3783709273
 24
91.1354289976
 34
0.0
100
AcDbRotatedDimension
  0
DIMENSION
  5
1DA
330
1F
100
AcDbEntity
  8
VERMASSUNG
100
AcDbDimension
  2
_D_4
 10
136.0215013619
 20
101.1354289976
 30
0.0
 11
136.0215013619
 21
126.1354289976
 31
0.0
 70
   160
  1
PSC%%c<>
 71
     2
 42
-1.0
  3
SLDDIMSTYLE2
100
AcDbAlignedDimension
 13
174.6783709273
 23
151.1354289976
 33
0.0
 14
174.6783709273
 24
101.1354289976
 34
0.0
 50
90.0
100
AcDbRotatedDimension
  0
LINE
  5
1E6
330
1F
100
AcDbEntity
  8
0
  6
Continuous
 62
     7
370
    15
100
AcDbLine
 10
82.9281251867
 20
92.749265584
 30
0.0
 11
85.6403577131
 21
93.2275034514
 31
0.0
  0
LINE
  5
1E7
330
1F
100
AcDbEntity
  8
0
  6
Continuous
 62
     7
370
    15
100
AcDbLine
 10
85.6502157625
 20
93.2348683503
 30
0.0
 11
85.8889873129
 21
93.579908463
 31
0.0
  0
LINE
  5
1E8
330
1F
100
AcDbEntity
  8
0
  6
Continuous
 62
     7
370
    15
100
AcDbLine
 10
76.7584952159
 20
91.1337673691
 30
0.0
 11
82.9777670082
 21
92.2303959754
 31
0.0
  0
LINE
  5
1E9
330
1F
100
AcDbEntity
  8
0
  6
Continuous
 62
     7
370
    15
100
AcDbLine
 10
75.6956349582
 20
95.318445566
 30
0.0
 11
76.137299206
 21
94.7816871133
 31
0.0
  0
LINE
  5
1EA
330
1F
100
AcDbEntity
  8
0
  6
Continuous
 62
     7
370
    15
100
AcDbLine
 10
72.6757048619
 20
110.0214529809
 30
0.0
 11
72.4425333542
 21
109.3611191985
 31
0.0
  0
LINE
  5
1EB
330
1F
100
AcDbEntity
  8
0
  6
Continuous
 62
     7
370
    15
100
AcDbLine
 10
71.7325777736
 20
113.6080227819
 30
0.0
 11
71.4171527874
 21
113.5524051291
 31
0.0
  0
LINE
  5
1EC
330
1F
100
AcDbEntity
  8
0
  6
Continuous
 62
     7
370
    15
100
AcDbLine
 10
82.7397121106
 20
93.7846131649
 30
0.0
 11
80.4042051536
 21
106.6184170571
 31
0.0
  0
ARC
  5
1ED
330
1F
100
AcDbEntity
  8
0
  6
Continuous
 62
     7
370
    15
100
AcDbCircle
 10
83.0386905376
 20
93.5605481462
 30
0.0
 40
2.622897417102761
100
AcDbArc
 50
352.7051255726
 51
15.9650919485
  0
LINE
  5
1EE
330
1F
100
AcDbEntity
  8
0
  6
Continuous
 62
     7
370
    15
100
AcDbLine
 10
85.5604213652
 20
94.281980398
 30
0.0
 11
83.2249139425
 21
107.1157842901
 31
0.0
  0
ARC
  5
1EF
330
1F
100
AcDbEntity
  8
0
  6
Continuous
 62
     7
370
    15
100
AcDbCircle
 10
83.7652196548
 20
93.7669726755
 30
0.0
 40
2.131990170090436
100
AcDbArc
 50
354.966304201
 51
14.836377879
  0
LINE
  5
1F0
330
1F
100
AcDbEntity
  8
0
  6
Continuous
 62
     7
370
    15
100
AcDbLine
 10
83.490624464
 20
107.1466930237
 30
0.0
 11
85.826131421
 21
94.3128891316
 31
0.0
  0
ARC
  5
1F1
330
1F
100
AcDbEntity
  8
0
  6
Continuous
 62
     7
370
    15
100
AcDbCircle
 10
77.5105400208
 20
106.1555430985
 30
0.0
 40
5.794491562080388
100
AcDbArc
 50
9.538843192
 51
17.2571967542
  0
ARC
  5
1F2
330
1F
100
AcDbEntity
  8
0
  6
Continuous
 62
     7
370
    15
100
AcDbCircle
 10
79.5834763642
 20
106.4939695015
 30
0.0
 40
3.961294519484142
100
AcDbArc
 50
9.4841818723
 51
17.5624995348
  0
LINE
  5
1F3
330
1F
100
AcDbEntity
  8
0
  6
Continuous
 62
     7
370
    15
100
AcDbLine
 10
83.2798219275
 20
107.9160958555
 30
0.0
 11
83.3601284762
 21
107.6892741051
 31
0.0
  0
LWPOLYLINE
  5
1F4
330
1F
100
AcDbEntity
  8
0
  6
Continuous
 62
     7
370
    15
100
AcDbPolyline
 90
       34
 70
   128
 43
0.0
 10
71.921431831
 20
114.3348436829
 10
71.8083399337
 20
114.6183503818
 10
71.6835762364
 20
115.0085633647
 10
71.5516497371
 20
115.4913777512
 10
71.4173288074
 20
116.0493452129
 10
71.285468432
 20
116.6622988906
 10
71.1608337228
 20
117.3080844831
 10
71.0479299527
 20
117.963361184
 10
70.950837246
 20
118.6044468571
 10
70.8730648261
 20
119.2081701968
 10
70.8174238902
 20
119.7527112466
 10
70.7859256294
 20
120.218388832
 10
70.7797081199
 20
120.5883725573
 10
70.7989958104
 20
120.8492895615
 10
70.8430920717
 20
120.9917097379
 10
70.9104029451
 20
121.0104861323
 10
70.9984958161
 20
120.9049398106
 10
71.1041864929
 20
120.67888547
 10
71.2236551557
 20
120.3404936035
 10
71.3525841933
 20
119.9019943391
 10
71.4863132675
 20
119.379235993
 10
71.6200092797
 20
118.7911123064
 10
71.7488405284
 20
118.1588802513
 10
71.8681499351
 20
117.5053898272
 10
71.973625942
 20
116.8542603057
 10
72.0614561801
 20
116.2290243459
 10
72.1284657706
 20
115.6522814211
 10
72.1722337407
 20
115.1448745307
 10
72.1911777732
 20
114.7251432788
 10
72.1846128803
 20
114.4082579788
 10
72.1527765495
 20
114.2056720358
 10
72.0968194295
 20
114.1247065764
 10
72.0187643532
 20
114.1682887476
 10
71.921431831
 20
114.3348436829
  0
LWPOLYLINE
  5
1F5
330
1F
100
AcDbEntity
  8
0
  6
Continuous
 62
     7
370
    15
100
AcDbPolyline
 90
       26
 70
   128
 43
0.0
 10
71.7345605594
 20
115.7216407385
 10
71.6477291648
 20
115.9487083581
 10
71.5506979254
 20
116.277690607
 10
71.4495637444
 20
116.6879186433
 10
71.3506810357
 20
117.1536153209
 10
71.2602631178
 20
117.6455184844
 10
71.1839915243
 20
118.1327212628
 10
71.1266583753
 20
118.5846106176
 10
71.0918664922
 20
118.9727923859
 10
71.0818016891
 20
119.2728756954
 10
71.0970963341
 20
119.4660054546
 10
71.1367893022
 20
119.5400465306
 10
71.1983869773
 20
119.4903460358
 10
71.2780183171
 20
119.3200280916
 10
71.3706802566
 20
119.0397931289
 10
71.4705506329
 20
118.6672505949
 10
71.5713541944
 20
118.2258069542
 10
71.6667565507
 20
117.7432021153
 10
71.7507637095
 20
117.2497576129
 10
71.8180969347
 20
116.7764799696
 10
71.8645256934
 20
116.3531063151
 10
71.8871321519
 20
116.0062380162
 10
71.8844969746
 20
115.7576717463
 10
71.8567845401
 20
115.6230248537
 10
71.8057364215
 20
115.6107574728
 10
71.7345605594
 20
115.7216407385
  0
LINE
  5
1F6
330
1F
100
AcDbEntity
  8
0
  6
Continuous
 62
     7
370
    15
100
AcDbLine
 10
71.543896011
 20
118.3428569723
 30
0.0
 11
71.4727136296
 21
118.2054091272
 31
0.0
  0
LINE
  5
1F7
330
1F
100
AcDbEntity
  8
0
  6
Continuous
 62
     7
370
    15
100
AcDbLine
 10
71.8467104238
 20
116.5331365567
 30
0.0
 11
71.7971440394
 21
116.5243960944
 31
0.0
  0
LINE
  5
1F8
330
1F
100
AcDbEntity
  8
0
  6
Continuous
 62
     7
370
    15
100
AcDbLine
 10
71.5719688673
 20
118.222910541
 30
0.0
 11
71.4727136296
 21
118.2054091272
 31
0.0
  0
ELLIPSE
  5
1F9
330
1F
100
AcDbEntity
  8
0
  6
Continuous
 62
     7
370
    15
100
AcDbEllipse
 10
74.2851696967
 20
103.0572655801
 30
0.0
 11
-0.4087148498875594
 21
2.317396459798886
 31
0.0
210
0.0
220
0.0
230
1.0
 40
0.1043907487
 41
1.495770736006527
 42
2.730573435699807
  0
LINE
  5
1FA
330
1F
100
AcDbEntity
  8
0
  6
Continuous
 62
     7
370
    15
100
AcDbLine
 10
71.4491274197
 20
113.1306147229
 30
0.0
 11
74.046560469
 21
98.8575048771
 31
0.0
  0
LWPOLYLINE
  5
1FB
330
1F
100
AcDbEntity
  8
0
  6
Continuous
 62
     7
370
    15
100
AcDbPolyline
 90
        9
 70
   128
 43
0.0
 10
71.4495274228
 20
113.4963953894
 10
71.4315789741
 20
113.5384734747
 10
71.4176976111
 20
113.5524665963
 10
71.408910117
 20
113.5373400551
 10
71.4058656235
 20
113.4942123693
 10
71.4087885794
 20
113.4262714562
 10
71.4174638492
 20
113.3385380757
 10
71.4312497516
 20
113.2374960956
 10
71.4491274197
 20
113.1306147229
  0
LINE
  5
1FC
330
1F
100
AcDbEntity
  8
0
  6
Continuous
 62
     7
370
    15
100
AcDbLine
 10
74.0545183875
 20
106.1387151506
 30
0.0
 11
71.4495274228
 21
113.4963953894
 31
0.0
  0
ARC
  5
1FD
330
1F
100
AcDbEntity
  8
0
  6
Continuous
 62
     7
370
    15
100
AcDbCircle
 10
71.8963710575
 20
105.4556697398
 30
0.0
 40
2.263658748929643
100
AcDbArc
 50
9.4842780101
 51
17.5623810373
  0
LINE
  5
1FE
330
1F
100
AcDbEntity
  8
0
  6
Continuous
 62
     7
370
    15
100
AcDbLine
 10
76.7265204708
 20
91.5555596378
 30
0.0
 11
74.1290875234
 21
105.8286685523
 31
0.0
  0
LWPOLYLINE
  5
1FF
330
1F
100
AcDbEntity
  8
0
  6
Continuous
 62
     7
370
    15
100
AcDbPolyline
 90
        9
 70
   128
 43
0.0
 10
76.7261207006
 20
91.1897771087
 10
76.7440692438
 20
91.1476999548
 10
76.7579502867
 20
91.1337077644
 10
76.7667378936
 20
91.148832443
 10
76.769782569
 20
91.1919601288
 10
76.766859282
 20
91.2599019733
 10
76.7581840959
 20
91.3476362851
 10
76.7443981899
 20
91.4486773339
 10
76.7265204708
 20
91.5555596378
  0
LINE
  5
200
330
1F
100
AcDbEntity
  8
0
  6
Continuous
 62
     7
370
    15
100
AcDbLine
 10
74.1211296049
 20
98.5474582788
 30
0.0
 11
76.7261207006
 21
91.1897771087
 31
0.0
  0
ARC
  5
201
330
1F
100
AcDbEntity
  8
0
  6
Continuous
 62
     7
370
    15
100
AcDbCircle
 10
76.2792769349
 20
99.2305036897
 30
0.0
 40
2.26365874892961
100
AcDbArc
 50
189.4842780101
 51
197.5623810373
  0
LWPOLYLINE
  5
202
330
1F
100
AcDbEntity
  8
0
  6
Continuous
 62
     7
370
    15
100
AcDbPolyline
 90
        9
 70
   128
 43
0.0
 10
76.7242664592
 20
91.2066750255
 10
76.7413175785
 20
91.1666989353
 10
76.7545045678
 20
91.1534070995
 10
76.7628527942
 20
91.1677755442
 10
76.7657452383
 20
91.2087462869
 10
76.7629681145
 20
91.2732906666
 10
76.7547266882
 20
91.3566403118
 10
76.7416300736
 20
91.4526298669
 10
76.7246462496
 20
91.5541663792
  0
LINE
  5
203
330
1F
100
AcDbEntity
  8
0
  6
Continuous
 62
     7
370
    15
100
AcDbLine
 10
76.7246462496
 20
91.5541663792
 30
0.0
 11
74.1272134696
 21
105.8272752937
 31
0.0
  0
ARC
  5
204
330
1F
100
AcDbEntity
  8
0
  6
Continuous
 62
     7
370
    15
100
AcDbCircle
 10
72.0061814303
 20
105.4729361132
 30
0.0
 40
2.150426275565901
100
AcDbArc
 50
9.4842367081
 51
17.5625149059
  0
LINE
  5
205
330
1F
100
AcDbEntity
  8
0
  6
Continuous
 62
     7
370
    15
100
AcDbLine
 10
74.0563726508
 20
106.1218190965
 30
0.0
 11
71.451381686
 21
113.4794993353
 31
0.0
  0
LWPOLYLINE
  5
206
330
1F
100
AcDbEntity
  8
0
  6
Continuous
 62
     7
370
    15
100
AcDbPolyline
 90
        9
 70
   128
 43
0.0
 10
71.451381686
 20
113.4794993353
 10
71.4343305667
 20
113.5194735628
 10
71.4211435047
 20
113.5327672612
 10
71.4127951291
 20
113.5183969539
 10
71.4099029069
 20
113.4774262112
 10
71.4126796451
 20
113.4128818315
 10
71.4209213842
 20
113.3295349803
 10
71.4340181079
 20
113.2335454252
 10
71.4510017064
 20
113.1320079815
  0
LINE
  5
207
330
1F
100
AcDbEntity
  8
0
  6
Continuous
 62
     7
370
    15
100
AcDbLine
 10
71.4510017064
 20
113.1320079815
 30
0.0
 11
74.0484345228
 21
98.8588981357
 31
0.0
  0
ARC
  5
208
330
1F
100
AcDbEntity
  8
0
  6
Continuous
 62
     7
370
    15
100
AcDbCircle
 10
76.1695469689
 20
99.2132566549
 30
0.0
 40
2.150508769790918
100
AcDbArc
 50
189.4843919079
 51
197.562359706
  0
LINE
  5
209
330
1F
100
AcDbEntity
  8
0
  6
Continuous
 62
     7
370
    15
100
AcDbLine
 10
74.1192753416
 20
98.564354333
 30
0.0
 11
76.7242664592
 21
91.2066750255
 31
0.0
  0
LINE
  5
20A
330
1F
100
AcDbEntity
  8
0
  6
Continuous
 62
     7
370
    15
100
AcDbLine
 10
82.9457923759
 20
92.6521845189
 30
0.0
 11
80.3483593267
 21
106.9252934333
 31
0.0
  0
LINE
  5
20B
330
1F
100
AcDbEntity
  8
0
  6
Continuous
 62
     7
370
    15
100
AcDbLine
 10
75.6373396366
 20
96.3597685125
 30
0.0
 11
74.1836502206
 21
104.3479122248
 31
0.0
  0
LINE
  5
20C
330
1F
100
AcDbEntity
  8
0
  6
Continuous
 62
     7
370
    15
100
AcDbLine
 10
72.5383082394
 20
108.3264049169
 30
0.0
 11
73.9919977718
 21
100.3382612046
 31
0.0
  0
LWPOLYLINE
  5
20D
330
1F
100
AcDbEntity
  8
0
  6
Continuous
 62
     7
370
    15
100
AcDbPolyline
 90
        9
 70
   128
 43
0.0
 10
72.5393075485
 20
109.2408556518
 10
72.4944364269
 20
109.3460503992
 10
72.4597339508
 20
109.3810346004
 10
72.4377649826
 20
109.3432173159
 10
72.4301532832
 20
109.2353999641
 10
72.4374613714
 20
109.065545353
 10
72.4591490802
 20
108.8462132987
 10
72.4936140691
 20
108.5936088142
 10
72.5383082394
 20
108.3264049169
  0
LINE
  5
20E
330
1F
100
AcDbEntity
  8
0
  6
Continuous
 62
     7
370
    15
100
AcDbLine
 10
73.997227148
 20
105.1230277893
 30
0.0
 11
72.5393075485
 21
109.2408556518
 31
0.0
  0
ARC
  5
20F
330
1F
100
AcDbEntity
  8
0
  6
Continuous
 62
     7
370
    15
100
AcDbCircle
 10
68.6020338498
 20
103.4154535607
 30
0.0
 40
5.658968145430632
100
AcDbArc
 50
9.4841864737
 51
17.5625364164
  0
LWPOLYLINE
  5
210
330
1F
100
AcDbEntity
  8
0
  6
Continuous
 62
     7
370
    15
100
AcDbPolyline
 90
        9
 70
   128
 43
0.0
 10
75.636340211
 20
95.4453177777
 10
75.6812115655
 20
95.3401230302
 10
75.715914158
 20
95.3051406917
 10
75.7378832427
 20
95.3429561135
 10
75.7454949421
 20
95.450775328
 10
75.738186621
 20
95.6206280765
 10
75.7164986794
 20
95.8399619934
 10
75.6820339233
 20
96.0925646153
 10
75.6373396366
 20
96.3597685125
  0
LINE
  5
211
330
1F
100
AcDbEntity
  8
0
  6
Continuous
 62
     7
370
    15
100
AcDbLine
 10
74.1784208444
 20
99.5631456402
 30
0.0
 11
75.636340211
 21
95.4453177777
 31
0.0
  0
ARC
  5
212
330
1F
100
AcDbEntity
  8
0
  6
Continuous
 62
     7
370
    15
100
AcDbCircle
 10
79.573694431
 20
101.2707391789
 30
0.0
 40
5.659050518246387
100
AcDbArc
 50
189.4842453653
 51
197.5624775249
  0
LWPOLYLINE
  5
213
330
1F
100
AcDbEntity
  8
0
  6
Continuous
 62
     7
370
    15
100
AcDbPolyline
 90
       29
 70
   128
 43
0.0
 10
74.3270205789
 20
100.1635469523
 10
74.4239705604
 20
99.927423152
 10
74.5040647675
 20
99.8124308911
 10
74.5632871044
 20
99.8243350562
 10
74.5986673505
 20
99.9625414636
 10
74.6084320348
 20
100.2201173481
 10
74.5920912818
 20
100.5841489908
 10
74.5504644223
 20
101.0363806066
 10
74.4856387832
 20
101.5541344908
 10
74.400864913
 20
102.1114509579
 10
74.3003940665
 20
102.6803828802
 10
74.1892640003
 20
103.2324019846
 10
74.073047283
 20
103.7398256388
 10
73.9575716656
 20
104.1772119727
 10
73.8486274135
 20
104.5226264772
 10
73.751677432
 20
104.7587502774
 10
73.6715832249
 20
104.873744401
 10
73.612360888
 20
104.8618383732
 10
73.5769806419
 20
104.7236319658
 10
73.5672159576
 20
104.4660560813
 10
73.5835567106
 20
104.1020244387
 10
73.6251835701
 20
103.6497946855
 10
73.6900092092
 20
103.1320389387
 10
73.7747830794
 20
102.5747224715
 10
73.8752539259
 20
102.0057905492
 10
73.9863839921
 20
101.4537714448
 10
74.1026007094
 20
100.9463477906
 10
74.2180763268
 20
100.5089614567
 10
74.3270205789
 20
100.1635469523
  0
LINE
  5
214
330
1F
100
AcDbEntity
  8
0
  6
Continuous
 62
     7
370
    15
100
AcDbLine
 10
74.3733010244
 20
99.0127153721
 30
0.0
 11
74.2989214127
 21
98.9232599762
 31
0.0
  0
ARC
  5
215
330
1F
100
AcDbEntity
  8
0
  6
Continuous
 62
     7
370
    15
100
AcDbCircle
 10
81.9371041891
 20
92.3636124085
 30
0.0
 40
1.049154765138136
100
AcDbArc
 50
352.7051757478
 51
15.9651127016
  0
ARC
  5
216
330
1F
100
AcDbEntity
  8
0
  6
Continuous
 62
     7
370
    15
100
AcDbCircle
 10
78.1157011427
 20
106.5523070175
 30
0.0
 40
2.263599220893928
100
AcDbArc
 50
9.4842115979
 51
17.5625287969
  0
LINE
  5
217
330
1F
100
AcDbEntity
  8
0
  6
Continuous
 62
     7
370
    15
100
AcDbLine
 10
80.273789958
 20
107.2353400317
 30
0.0
 11
80.2235660598
 21
107.3771953609
 31
0.0
  0
LINE
  5
218
330
1F
100
AcDbEntity
  8
0
  6
Continuous
 62
     7
370
    15
100
AcDbLine
 10
83.338098972
 20
107.9263720688
 30
0.0
 11
83.416786882
 21
107.4939757612
 31
0.0
  0
LINE
  5
219
330
1F
100
AcDbEntity
  8
0
  6
Continuous
 62
     7
370
    15
100
AcDbLine
 10
85.8812266019
 20
93.9516738084
 30
0.0
 11
85.9334421334
 21
93.6647482243
 31
0.0
  0
LINE
  5
21A
330
1F
100
AcDbEntity
  8
0
  6
Continuous
 62
     7
370
    15
100
AcDbLine
 10
83.338098972
 20
107.9263720688
 30
0.0
 11
74.3079124008
 21
106.3341066268
 31
0.0
  0
LINE
  5
21B
330
1F
100
AcDbEntity
  8
0
  6
Continuous
 62
     7
370
    15
100
AcDbLine
 10
71.5421642166
 20
121.532121769
 30
0.0
 11
74.3079124008
 21
106.3341066268
 31
0.0
  0
LINE
  5
21C
330
1F
100
AcDbEntity
  8
0
  6
Continuous
 62
     7
370
    15
100
AcDbLine
 10
102.2975788441
 20
126.955131281
 30
0.0
 11
71.5421642166
 21
121.532121769
 31
0.0
  0
ARC
  5
21D
330
1F
100
AcDbEntity
  8
0
  6
Continuous
 62
     7
370
    15
100
AcDbCircle
 10
76.8107575354
 20
126.1354289976
 30
0.0
 40
25.50000000000001
100
AcDbArc
 50
0.0
 51
1.8421008537
  0
LINE
  5
21E
330
1F
100
AcDbEntity
  8
0
  6
Continuous
 62
     7
370
    15
100
AcDbLine
 10
102.3107570586
 20
106.9996241507
 30
0.0
 11
102.3107570586
 21
126.1354289976
 31
0.0
  0
ARC
  5
21F
330
1F
100
AcDbEntity
  8
0
  6
Continuous
 62
     7
370
    15
100
AcDbCircle
 10
73.8107575354
 20
123.6354289976
 30
0.0
 40
33.00000000000003
100
AcDbArc
 50
296.6255279669
 51
329.7273586811
  0
LINE
  5
220
330
1F
100
AcDbEntity
  8
0
  6
Continuous
 62
     7
370
    15
100
AcDbLine
 10
85.9334421334
 20
93.6647482243
 30
0.0
 11
88.5999527749
 21
94.1349245634
 31
0.0
  0
LWPOLYLINE
  5
221
330
1F
100
AcDbEntity
  8
0
  6
Continuous
 62
     7
370
    15
100
AcDbPolyline
 90
       34
 70
   128
 43
0.0
 10
70.877630635
 20
121.0175315876
 10
70.9567995731
 20
120.9672657799
 10
71.0550731969
 20
120.7942395498
 10
71.1688999076
 20
120.5047062625
 10
71.2941660535
 20
120.1091307242
 10
71.4263435443
 20
119.6218096678
 10
71.5606556263
 20
119.0603562657
 10
71.6922477809
 20
118.4450631056
 10
71.816364209
 20
117.7981678423
 10
71.9285182644
 20
117.1430522603
 10
72.0246568312
 20
116.5033929077
 10
72.1013051447
 20
115.9023089361
 10
72.1556934518
 20
115.361524376
 10
72.1858552647
 20
114.9005858254
 10
72.190700936
 20
114.5361527827
 10
72.1700549115
 20
114.2813960117
 10
72.1246636462
 20
114.1455234986
 10
72.0561681305
 20
114.1334461075
 10
71.9670433541
 20
114.2455996972
 10
71.8605102961
 20
114.477931152
 10
71.740420441
 20
114.8220436674
 10
71.6111128208
 20
115.2655003619
 10
71.4772622091
 20
115.7922731739
 10
71.3437049639
 20
116.3833221447
 10
71.2152695273
 20
117.0172873911
 10
71.0965971452
 20
117.6712537211
 10
70.9919770238
 20
118.3215860304
 10
70.9051903327
 20
118.9447800655
 10
70.839374232
 20
119.5183108587
 10
70.7969068539
 20
120.0214504291
 10
70.7793234837
 20
120.4360133064
 10
70.787259749
 20
120.7470168386
 10
70.8204283369
 20
120.9432199624
 10
70.877630635
 20
121.0175315876
  0
SPLINE
  5
222
330
1F
100
AcDbEntity
  8
0
  6
Continuous
 62
     7
370
    15
100
AcDbSpline
210
0.0
220
0.0
230
1.0
 70
     8
 71
     3
 72
     8
 73
     4
 74
     0
 42
0.00000001
 43
0.00000001
 12
1.0
 22
0.0
 32
0.0
 13
1.0
 23
0.0
 33
0.0
 40
0.0
 40
0.0
 40
0.0
 40
0.0
 40
1.0
 40
1.0
 40
1.0
 40
1.0
 10
72.80845651712966
 20
99.53633674002977
 30
0.0
 10
72.72622974322655
 20
99.93992594511572
 30
0.0
 10
72.6440192612336
 20
100.3435906332458
 30
0.0
 10
72.56182736855466
 20
100.7473414486623
 30
0.0
  0
SPLINE
  5
223
330
1F
100
AcDbEntity
  8
0
  6
Continuous
 62
     7
370
    15
100
AcDbSpline
210
0.0
220
0.0
230
1.0
 70
     8
 71
     3
 72
    12
 73
     8
 74
     0
 42
0.00000001
 43
0.00000001
 12
1.0
 22
0.0
 32
0.0
 13
1.0
 23
0.0
 33
0.0
 40
0.0
 40
0.0
 40
0.0
 40
0.0
 40
0.2500000000000029
 40
0.2500000000000029
 40
0.5000000000000059
 40
0.5000000000000059
 40
1.0
 40
1.0
 40
1.0
 40
1.0
 10
72.56182736855466
 20
100.7473414486623
 30
0.0
 10
72.53961735576354
 20
100.8564435812759
 30
0.0
 10
72.51698679884112
 20
100.9584799663035
 30
0.0
 10
72.47088979277405
 20
101.1485085421551
 30
0.0
 10
72.44809838843453
 20
101.2335326424603
 30
0.0
 10
72.38274141637626
 20
101.4493929676381
 30
0.0
 10
72.34376027891987
 20
101.5377341502478
 30
0.0
 10
72.3185590785144
 20
101.5423374264666
 30
0.0
  0
ARC
  5
224
330
1F
100
AcDbEntity
  8
0
  6
Continuous
 62
     7
370
    15
100
AcDbCircle
 10
76.8107575354
 20
126.1354289976
 30
0.0
 40
24.99999999999998
100
AcDbArc
 50
258.8286647104
 51
259.6484163743
  0
ARC
  5
225
330
1F
100
AcDbEntity
  8
0
  6
Continuous
 62
     7
370
    15
100
AcDbCircle
 10
76.8107575354
 20
126.1354289976
 30
0.0
 40
25.00000000000002
100
AcDbArc
 50
120.3515836257
 51
121.1713352896
  0
SPLINE
  5
226
330
1F
100
AcDbEntity
  8
0
  6
Continuous
 62
     7
370
    15
100
AcDbSpline
210
0.0
220
0.0
230
1.0
 70
     8
 71
     3
 72
    12
 73
     8
 74
     0
 42
0.00000001
 43
0.00000001
 12
1.0
 22
0.0
 32
0.0
 13
1.0
 23
0.0
 33
0.0
 40
0.0
 40
0.0
 40
0.0
 40
0.0
 40
0.2500000000000054
 40
0.2500000000000054
 40
0.5000000000000108
 40
0.5000000000000108
 40
1.0
 40
1.0
 40
1.0
 40
1.0
 10
64.17813909039322
 20
147.7089533091504
 30
0.0
 10
64.18692593828233
 20
147.7140985462064
 30
0.0
 10
64.19319834627552
 20
147.7318407833881
 30
0.0
 10
64.20107045108587
 20
147.79073490193
 30
0.0
 10
64.20255102133429
 20
147.8319482122905
 30
0.0
 10
64.19988214754012
 20
147.9830105302422
 30
0.0
 10
64.18853217329423
 20
148.1226983592521
 30
0.0
 10
64.16960011263204
 20
148.2815604658932
 30
0.0
  0
ARC
  5
227
330
1F
100
AcDbEntity
  8
0
  6
Continuous
 62
     7
370
    15
100
AcDbCircle
 10
76.8107575354
 20
126.1354289976
 30
0.0
 40
25.50000000000003
100
AcDbArc
 50
118.3414513243
 51
119.7180086438
  0
LINE
  5
228
330
1F
100
AcDbEntity
  8
0
  6
Continuous
 62
     7
370
    15
100
AcDbLine
 10
64.7052683857
 20
148.5788501826
 30
0.0
 11
71.5421642166
 21
121.532121769
 31
0.0
  0
LWPOLYLINE
  5
229
330
1F
100
AcDbEntity
  8
0
  6
Continuous
 62
     7
370
    15
100
AcDbPolyline
 90
       13
 70
   128
 43
0.0
 10
71.579178701
 20
114.0412917387
 10
71.48835007
 20
114.2561217797
 10
71.4169790958
 20
114.3354136523
 10
71.3699300763
 20
114.2737638232
 10
71.3504090895
 20
114.075372557
 10
71.3597465296
 20
113.753760795
 10
71.3973058377
 20
113.3308462825
 10
71.460528205
 20
112.8354478654
 10
71.5451039363
 20
112.3013287809
 10
71.6452704732
 20
111.7648860466
 10
71.7542007555
 20
111.2626796615
 10
71.8644716766
 20
110.8289320048
 10
71.8744466071
 20
110.79345234
  0
ARC
  5
22A
330
1F
100
AcDbEntity
  8
0
  6
Continuous
 62
     7
370
    15
100
AcDbCircle
 10
73.1835925908
 20
98.7226982039
 30
0.0
 40
0.9167998195798794
100
AcDbArc
 50
28.06322171
 51
80.9173793506
  0
LINE
  5
22B
330
1F
100
AcDbEntity
  8
0
  6
Continuous
 62
     7
370
    15
100
AcDbLine
 10
73.3283172817
 20
99.6280029443
 30
0.0
 11
72.808456513
 21
99.5363365885
 31
0.0
  0
LINE
  5
22C
330
1F
100
AcDbEntity
  8
0
  6
Continuous
 62
     7
370
    15
100
AcDbLine
 10
74.3079124008
 20
106.3341066268
 30
0.0
 11
71.579178701
 21
114.0412917387
 31
0.0
  0
LINE
  5
22D
330
1F
100
AcDbEntity
  8
0
  6
Continuous
 62
     7
370
    15
100
AcDbLine
 10
87.8294733342
 20
93.7610991326
 30
0.0
 11
85.933181363
 21
93.4267319765
 31
0.0
  0
LINE
  5
22E
330
1F
100
AcDbEntity
  8
0
  6
Continuous
 62
     7
370
    15
100
AcDbLine
 10
85.933181363
 20
93.4267319765
 30
0.0
 11
85.9334421334
 21
93.6647482243
 31
0.0
  0
ARC
  5
22F
330
1F
100
AcDbEntity
  8
0
  6
Continuous
 62
     7
370
    15
100
AcDbCircle
 10
73.8107575354
 20
123.6354289976
 30
0.0
 40
33.00000000000003
100
AcDbArc
 50
295.1386105671
 51
296.6255279669
  0
LINE
  5
230
330
1F
100
AcDbEntity
  8
0
  6
Continuous
 62
     7
370
    15
100
AcDbLine
 10
85.933181363
 20
93.4267319765
 30
0.0
 11
85.8823460516
 21
93.5703121152
 31
0.0
  0
ARC
  5
231
330
1F
100
AcDbEntity
  8
0
  6
Continuous
 62
     7
370
    15
100
AcDbCircle
 10
76.8107575354
 20
126.1354289976
 30
0.0
 40
25.50000000000004
100
AcDbArc
 50
1.8421008537
 51
118.3414513243
  0
SPLINE
  5
232
330
1F
100
AcDbEntity
  8
0
  6
Continuous
 62
     7
370
    15
100
AcDbSpline
210
0.0
220
0.0
230
1.0
 70
     8
 71
     3
 72
    18
 73
    14
 74
     0
 42
0.00000001
 43
0.00000001
 12
1.0
 22
0.0
 32
0.0
 13
1.0
 23
0.0
 33
0.0
 40
0.0
 40
0.0
 40
0.0
 40
0.0
 40
0.2500000000000011
 40
0.2500000000000011
 40
0.3750000000000014
 40
0.3750000000000014
 40
0.5000000000000018
 40
0.5000000000000018
 40
0.6250000000000021
 40
0.6250000000000021
 40
0.7500000000000023
 40
0.7500000000000023
 40
1.0
 40
1.0
 40
1.0
 40
1.0
 10
61.86735947419248
 20
146.1777555687011
 30
0.0
 10
62.11433271077725
 20
146.3618968345191
 30
0.0
 10
62.35185010041811
 20
146.5318897223713
 30
0.0
 10
62.6909508158565
 20
146.7667149919116
 30
0.0
 10
62.80129460663245
 20
146.8417180932854
 30
0.0
 10
63.0079470441427
 20
146.9800417838581
 30
0.0
 10
63.10524344745386
 20
147.0440545175643
 30
0.0
 10
63.28697401739863
 20
147.1620553771982
 30
0.0
 10
63.37205198058994
 20
147.2164471413515
 30
0.0
 10
63.52449164963534
 20
147.312852631716
 30
0.0
 10
63.59131988946557
 20
147.3545481275185
 30
0.0
 10
63.76333258957928
 20
147.4610683921451
 30
0.0
 10
63.84034975326875
 20
147.5076021912694
 30
0.0
 10
63.87078225245459
 20
147.5260119647602
 30
0.0
  0
SPLINE
  5
233
330
1F
100
AcDbEntity
  8
0
  6
Continuous
 62
     7
370
    15
100
AcDbSpline
210
0.0
220
0.0
230
1.0
 70
     8
 71
     3
 72
    14
 73
    10
 74
     0
 42
0.00000001
 43
0.00000001
 12
1.0
 22
0.0
 32
0.0
 13
1.0
 23
0.0
 33
0.0
 40
0.0
 40
0.0
 40
0.0
 40
0.0
 40
0.25
 40
0.25
 40
0.5
 40
0.5
 40
0.75
 40
0.75
 40
1.0
 40
1.0
 40
1.0
 40
1.0
 10
71.9671685011276
 20
101.6091238280584
 30
0.0
 10
71.93232787224161
 20
101.6160043462144
 30
0.0
 10
71.84733319987032
 20
101.6327153761443
 30
0.0
 10
71.5806146469777
 20
101.6882581732227
 30
0.0
 10
71.40509947042842
 20
101.7258669445527
 30
0.0
 10
70.97876063542532
 20
101.8242037940928
 30
0.0
 10
70.73568377630117
 20
101.8832262733759
 30
0.0
 10
70.20285285227861
 20
102.0229539306532
 30
0.0
 10
69.91823134204694
 20
102.1023722438914
 30
0.0
 10
69.62343605426038
 20
102.1908594685994
 30
0.0
  0
ELLIPSE
  5
234
330
1F
100
AcDbEntity
  8
0
  6
Continuous
 62
     7
370
    15
100
AcDbEllipse
 10
64.8021503541
 20
112.3479356647
 30
0.0
 11
-1.889342952662041
 21
2.635290221741627
 31
0.0
210
0.0
220
0.0
230
1.0
 40
0.7500963819
 41
0.0
 42
6.283185307179586
  0
ARC
  5
235
330
1F
100
AcDbEntity
  8
0
  6
Continuous
 62
     7
370
    15
100
AcDbCircle
 10
76.8107575354
 20
126.1354289976
 30
0.0
 40
25.00000000000002
100
AcDbArc
 50
126.7079165462
 51
253.2920834538
  0
SPLINE
  5
236
330
1F
100
AcDbEntity
  8
0
  6
Continuous
 62
     7
370
    15
100
AcDbSpline
210
0.0
220
0.0
230
1.0
 70
     8
 71
     3
 72
     9
 73
     5
 74
     0
 42
0.00000001
 43
0.00000001
 12
1.0
 22
0.0
 32
0.0
 13
1.0
 23
0.0
 33
0.0
 40
0.0
 40
0.0
 40
0.0
 40
0.0
 40
0.4980655036111301
 40
1.0
 40
1.0
 40
1.0
 40
1.0
 10
62.19321945577175
 20
113.7858103987339
 30
0.0
 10
62.36949764567771
 20
113.7549858654749
 30
0.0
 10
62.72342336152811
 20
113.693097352748
 30
0.0
 10
63.10313051823457
 20
113.8311424146549
 30
0.0
 10
63.29371863871128
 20
113.9004319932821
 30
0.0
  0
SPLINE
  5
237
330
1F
100
AcDbEntity
  8
0
  6
Continuous
 62
     7
370
    15
100
AcDbSpline
210
0.0
220
0.0
230
1.0
 70
     8
 71
     3
 72
     8
 73
     4
 74
     0
 42
0.00000001
 43
0.00000001
 12
1.0
 22
0.0
 32
0.0
 13
1.0
 23
0.0
 33
0.0
 40
0.0
 40
0.0
 40
0.0
 40
0.0
 40
1.0
 40
1.0
 40
1.0
 40
1.0
 10
63.29371820476725
 20
113.9004320193042
 30
0.0
 10
63.32021398931592
 20
114.0633216981198
 30
0.0
 10
63.33402620784243
 20
114.2305903352857
 30
0.0
 10
63.32824658520266
 20
114.3988765956763
 30
0.0
  0
SPLINE
  5
238
330
1F
100
AcDbEntity
  8
0
  6
Continuous
 62
     7
370
    15
100
AcDbSpline
210
0.0
220
0.0
230
1.0
 70
     8
 71
     3
 72
    11
 73
     7
 74
     0
 42
0.00000001
 43
0.00000001
 12
1.0
 22
0.0
 32
0.0
 13
1.0
 23
0.0
 33
0.0
 40
0.0
 40
0.0
 40
0.0
 40
0.0
 40
0.3786630286334022
 40
0.6793419400270732
 40
0.8774217762210906
 40
1.0
 40
1.0
 40
1.0
 40
1.0
 10
63.32824649184257
 20
114.3988767665389
 30
0.0
 10
63.4653891340632
 20
114.4950715919984
 30
0.0
 10
63.7114304467386
 20
114.6676503081832
 30
0.0
 10
64.06342732454911
 20
114.9479755164885
 30
0.0
 10
64.3557121479525
 20
115.1462020196701
 30
0.0
 10
64.503237317343
 20
115.2274198182669
 30
0.0
 10
64.55963188677342
 20
115.2584670138123
 30
0.0
  0
LWPOLYLINE
  5
239
330
1F
100
AcDbEntity
  8
0
  6
Continuous
 62
     7
370
    15
100
AcDbPolyline
 90
        5
 70
   128
 43
0.0
 10
62.7039679316
 20
114.8085674298
 10
62.8948350426
 20
114.5146578577
 10
63.0999206555
 20
114.1988538232
 10
63.247149716
 20
113.9721410376
 10
63.3224797425
 20
113.8561438796
  0
LWPOLYLINE
  5
23A
330
1F
100
AcDbEntity
  8
0
  6
Continuous
 62
     7
370
    15
100
AcDbPolyline
 90
        5
 70
   128
 43
0.0
 10
62.9374784407
 20
115.0006061446
 10
63.027590419
 20
114.8618465316
 10
63.1918831718
 20
114.6088583421
 10
63.2938303974
 20
114.451871815
 10
63.3282464918
 20
114.3988767665
  0
CIRCLE
  5
23B
330
1F
100
AcDbEntity
  8
VERMASSUNG
  6
CENTERX2
100
AcDbCircle
 10
76.8107575354
 20
123.6336587532
 30
0.0
 40
32.50000000000001
  0
DIMENSION
  5
23C
330
1F
100
AcDbEntity
  8
VERMASSUNG
100
AcDbDimension
  2
_D_5
 10
99.791727924
 20
146.6146291418
 30
0.0
 11
106.2753202815
 21
153.0982214993
 31
0.0
 70
   160
  1
%%c<> min. 
 71
     2
 42
-1.0
  3
SLDDIMSTYLE3
100
AcDbAlignedDimension
 13
53.8297871468
 23
100.6526883647
 33
0.0
 14
99.791727924
 24
146.6146291418
 34
0.0
 50
45.0
100
AcDbRotatedDimension
  0
INSERT
  5
256
330
1F
100
AcDbEntity
  8
VERMASSUNG
100
AcDbBlockReference
  2
SW_CENTERMARKSYMBOL_0
 10
76.8107575354
 20
126.1354289976
 30
0.0
  0
OLE2FRAME
  5
257
330
1F
100
AcDbEntity
  8
0
100
AcDbOle2Frame
 70
     2
  3
Paintbrush-Bild
 10
13.8511154363
 20
38.264191557
 30
0.0
 11
51.6290888628
 21
31.9806341108
 31
0.0
 71
     2
 72
     0
 73
     1
 90
    12928
310
80552BED0767C5B32B40DDAF6807D121434000000000000000006FFBDDFB85D0
310
4940DDAF6807D121434000000000000000006FFBDDFB85D04940416F4BD60AFB
310
3F4000000000000000002BED0767C5B32B40416F4BD60AFB3F40000000000000
310
0000000000000100000000010000010000000100000000000100000000320000
310
D0CF11E0A1B11AE1000000000000000000000000000000003E000300FEFF0900
310
0600000000000000000000000100000001000000000000000010000002000000
310
01000000FEFFFFFF0000000000000000FFFFFFFFFFFFFFFFFFFFFFFFFFFFFFFF
310
FFFFFFFFFFFFFFFFFFFFFFFFFFFFFFFFFFFFFFFFFFFFFFFFFFFFFFFFFFFFFFFF
310
FFFFFFFFFFFFFFFFFFFFFFFFFFFFFFFFFFFFFFFFFFFFFFFFFFFFFFFFFFFFFFFF
310
FFFFFFFFFFFFFFFFFFFFFFFFFFFFFFFFFFFFFFFFFFFFFFFFFFFFFFFFFFFFFFFF
310
FFFFFFFFFFFFFFFFFFFFFFFFFFFFFFFFFFFFFFFFFFFFFFFFFFFFFFFFFFFFFFFF
310
FFFFFFFFFFFFFFFFFFFFFFFFFFFFFFFFFFFFFFFFFFFFFFFFFFFFFFFFFFFFFFFF
310
FFFFFFFFFFFFFFFFFFFFFFFFFFFFFFFFFFFFFFFFFFFFFFFFFFFFFFFFFFFFFFFF
310
FFFFFFFFFFFFFFFFFFFFFFFFFFFFFFFFFFFFFFFFFFFFFFFFFFFFFFFFFFFFFFFF
310
FFFFFFFFFFFFFFFFFFFFFFFFFFFFFFFFFFFFFFFFFFFFFFFFFFFFFFFFFFFFFFFF
310
FFFFFFFFFFFFFFFFFFFFFFFFFFFFFFFFFFFFFFFFFFFFFFFFFFFFFFFFFFFFFFFF
310
FFFFFFFFFFFFFFFFFFFFFFFFFFFFFFFFFFFFFFFFFFFFFFFFFFFFFFFFFFFFFFFF
310
FFFFFFFFFFFFFFFFFFFFFFFFFFFFFFFFFFFFFFFFFFFFFFFFFFFFFFFFFFFFFFFF
310
FFFFFFFFFFFFFFFFFFFFFFFFFFFFFFFFFFFFFFFFFFFFFFFFFFFFFFFFFFFFFFFF
310
FFFFFFFFFFFFFFFFFFFFFFFFFFFFFFFFFFFFFFFFFFFFFFFFFFFFFFFFFFFFFFFF
310
FDFFFFFFFEFFFFFFFEFFFFFFFEFFFFFF05000000060000000700000008000000
310
090000000A0000000B0000000C0000000D0000000E0000000F00000010000000
310
11000000120000001300000014000000150000001600000017000000FEFFFFFF
310
FFFFFFFFFFFFFFFFFFFFFFFFFFFFFFFFFFFFFFFFFFFFFFFFFFFFFFFFFFFFFFFF
310
FFFFFFFFFFFFFFFFFFFFFFFFFFFFFFFFFFFFFFFFFFFFFFFFFFFFFFFFFFFFFFFF
310
FFFFFFFFFFFFFFFFFFFFFFFFFFFFFFFFFFFFFFFFFFFFFFFFFFFFFFFFFFFFFFFF
310
FFFFFFFFFFFFFFFFFFFFFFFFFFFFFFFFFFFFFFFFFFFFFFFFFFFFFFFFFFFFFFFF
310
FFFFFFFFFFFFFFFFFFFFFFFFFFFFFFFFFFFFFFFFFFFFFFFFFFFFFFFFFFFFFFFF
310
FFFFFFFFFFFFFFFFFFFFFFFFFFFFFFFFFFFFFFFFFFFFFFFFFFFFFFFFFFFFFFFF
310
FFFFFFFFFFFFFFFFFFFFFFFFFFFFFFFFFFFFFFFFFFFFFFFFFFFFFFFFFFFFFFFF
310
FFFFFFFFFFFFFFFFFFFFFFFFFFFFFFFFFFFFFFFFFFFFFFFFFFFFFFFFFFFFFFFF
310
FFFFFFFFFFFFFFFFFFFFFFFFFFFFFFFFFFFFFFFFFFFFFFFFFFFFFFFFFFFFFFFF
310
FFFFFFFFFFFFFFFFFFFFFFFFFFFFFFFFFFFFFFFFFFFFFFFFFFFFFFFFFFFFFFFF
310
FFFFFFFFFFFFFFFFFFFFFFFFFFFFFFFFFFFFFFFFFFFFFFFFFFFFFFFFFFFFFFFF
310
FFFFFFFFFFFFFFFFFFFFFFFFFFFFFFFFFFFFFFFFFFFFFFFFFFFFFFFFFFFFFFFF
310
FFFFFFFFFFFFFFFFFFFFFFFFFFFFFFFFFFFFFFFFFFFFFFFFFFFFFFFFFFFFFFFF
310
52006F006F007400200045006E00740072007900000000000000000000000000
310
0000000000000000000000000000000000000000000000000000000000000000
310
16000500FFFFFFFFFFFFFFFF020000000A00030000000000C000000000000046
310
00000000000000000000000000FDF97B1238CD0103000000C000000000000000
310
01004F006C006500000000000000000000000000000000000000000000000000
310
0000000000000000000000000000000000000000000000000000000000000000
310
0A000200FFFFFFFFFFFFFFFFFFFFFFFF00000000000000000000000000000000
310
0000000000000000000000000000000000000000000000001400000000000000
310
010043006F006D0070004F0062006A0000000000000000000000000000000000
310
0000000000000000000000000000000000000000000000000000000000000000
310
120002010100000003000000FFFFFFFF00000000000000000000000000000000
310
0000000000000000000000000000000000000000010000004D00000000000000
310
01004F006C006500310030004E00610074006900760065000000000000000000
310
0000000000000000000000000000000000000000000000000000000000000000
310
1A000200FFFFFFFFFFFFFFFFFFFFFFFF00000000000000000000000000000000
310
0000000000000000000000000000000000000000040000002426000000000000
310
FEFFFFFF02000000FEFFFFFFFFFFFFFFFFFFFFFFFFFFFFFFFFFFFFFFFFFFFFFF
310
FFFFFFFFFFFFFFFFFFFFFFFFFFFFFFFFFFFFFFFFFFFFFFFFFFFFFFFFFFFFFFFF
310
FFFFFFFFFFFFFFFFFFFFFFFFFFFFFFFFFFFFFFFFFFFFFFFFFFFFFFFFFFFFFFFF
310
FFFFFFFFFFFFFFFFFFFFFFFFFFFFFFFFFFFFFFFFFFFFFFFFFFFFFFFFFFFFFFFF
310
FFFFFFFFFFFFFFFFFFFFFFFFFFFFFFFFFFFFFFFFFFFFFFFFFFFFFFFFFFFFFFFF
310
FFFFFFFFFFFFFFFFFFFFFFFFFFFFFFFFFFFFFFFFFFFFFFFFFFFFFFFFFFFFFFFF
310
FFFFFFFFFFFFFFFFFFFFFFFFFFFFFFFFFFFFFFFFFFFFFFFFFFFFFFFFFFFFFFFF
310
FFFFFFFFFFFFFFFFFFFFFFFFFFFFFFFFFFFFFFFFFFFFFFFFFFFFFFFFFFFFFFFF
310
FFFFFFFFFFFFFFFFFFFFFFFFFFFFFFFFFFFFFFFFFFFFFFFFFFFFFFFFFFFFFFFF
310
FFFFFFFFFFFFFFFFFFFFFFFFFFFFFFFFFFFFFFFFFFFFFFFFFFFFFFFFFFFFFFFF
310
FFFFFFFFFFFFFFFFFFFFFFFFFFFFFFFFFFFFFFFFFFFFFFFFFFFFFFFFFFFFFFFF
310
FFFFFFFFFFFFFFFFFFFFFFFFFFFFFFFFFFFFFFFFFFFFFFFFFFFFFFFFFFFFFFFF
310
FFFFFFFFFFFFFFFFFFFFFFFFFFFFFFFFFFFFFFFFFFFFFFFFFFFFFFFFFFFFFFFF
310
FFFFFFFFFFFFFFFFFFFFFFFFFFFFFFFFFFFFFFFFFFFFFFFFFFFFFFFFFFFFFFFF
310
FFFFFFFFFFFFFFFFFFFFFFFFFFFFFFFFFFFFFFFFFFFFFFFFFFFFFFFFFFFFFFFF
310
FFFFFFFFFFFFFFFFFFFFFFFFFFFFFFFFFFFFFFFFFFFFFFFFFFFFFFFFFFFFFFFF
310
0100000200000000000000000000000000000000000000000000000000000000
310
0000000000000000000000000000000000000000000000000000000000000000
310
0100FEFF030A0000FFFFFFFF0A00030000000000C00000000000004607000000
310
5042727573680007000000504272757368000700000050427275736800F439B2
310
7100000000000000000000000000000000000000000000000000000000000000
310
0000000000000000000000000000000000000000000000000000000000000000
310
0000000000000000000000000000000000000000000000000000000000000000
310
0000000000000000000000000000000000000000000000000000000000000000
310
0000000000000000000000000000000000000000000000000000000000000000
310
0000000000000000000000000000000000000000000000000000000000000000
310
0000000000000000000000000000000000000000000000000000000000000000
310
0000000000000000000000000000000000000000000000000000000000000000
310
0000000000000000000000000000000000000000000000000000000000000000
310
0000000000000000000000000000000000000000000000000000000000000000
310
0000000000000000000000000000000000000000000000000000000000000000
310
0000000000000000000000000000000000000000000000000000000000000000
310
20260000424D0E260000000000003E00000028000000B40200006E0000000100
310
01000000000000000000130B0000130B00000200000002000000000000FFFFFF
310
FFFFFFFFFFFFFFFFFFFFFFFFFFFFFFFFFFFFFFFFFFFFFFFFFFFFFFFFFFFFFFFF
310
FFFFFFFFFFFFFFFFFFFFFFFFFFFFFFFFFFFFFFFFFFFFFFFFFFFFFFFFFFFFFFFF
310
FFFFFFFFFFFFFFFFFFFFFFFFFFFFFFFFFFFFFFFFFFFFFFFFF000FFFFFFFFFFFF
310
FFFFFFFFFFFFFFFFFFFFFFFFFFFFFFFFFFFFFFFFFFFFFFFFFFFFFFFFFFFFFFFF
310
FFFFFFFFFFFFFFFFFFFFFFFFFFFFFFFFFFFFFFFFFFFFFFFFFFFFFFFFFFFFFFFF
310
FFFFFFFFFFFFFFFFFFFFFFFFFFFFFFFFF000FFFFFFFFFFFFFFFFFFFFFFFFFFFF
310
FFFFFFFFFFFFFFFFFFFFFFFFFFFFFFFFFFFFFFFFFFFFFFFFFFFFFFFFFFFFFFFF
310
FFFFFFFFFFFFFFFFFFFFFFFFFFFFFFFFFFFFFFFFFFFFFFFFFFFFFFFFFFFFFFFF
310
FFFFFFFFFFFFFFFFF000FFFFFFFFFFFFFFFFFFFFFFFFFFFFFFFFFFFFFFFFFFFF
310
FFFFFFFFFFFFFFFFFFFFFFFFFFFFFFFFFFFFFFFFFFFFFFFFFFFFFFFFFFFFFFFF
310
FFFFFFFFFFFFFFFFFFFFFFFFFFFFFFFFFFFFFFFFFFFFFFFFFFFFFFFFFFFFFFFF
310
F000FFFFFFFFFFFFFFFFFFFFFFFFFFFFFFFFFFFFFFFFFFFFFFFFFFFFFFFFFFFF
310
FFFFFFFFFFFFFFFFFFFFFFFFFFFFFFFFFFFFFFFFFFFFFFFFFFFFFFFFFFFFFFFF
310
FFFFFFFFFFFFFFFFFFFFFFFFFFFFFFFFFFFFFFFFFFFFFFFFF000FFFFFFFFFFFF
310
FFFFFFFFFFFFFFFFFFFFFFFFFFFFFFFFFFFFFFFFFFFFFFFFFFFFFFFFFFFFFFFF
310
FFFFFFFFFFFFFFFFFFFFFFFFFFFFFFFFFFFFFFFFFFFFFFFFFFFFFFFFFFFFFFFF
310
FFFFFFFFFFFFFFFFFFFFFFFFFFFFFFFFF000FFFFFFFFFFFFFFFFFFFFFFFFFFFF
310
FFFFFFFFFFFFFFFFFFFFFFFFFFFFFFFFFFFFFFFFFFFFFFFFFFFFFFFFFFFFFFFF
310
FFFFFFFFFFFFFFFFFFFFFFFFFFFFFFFFFFFFFFFFFFFFFFFFFFFFFFFFFFFFFFFF
310
FFFFFFFFFFFFFFFFF000FFFFFFFFFFFFFFFFFFFFFFFFFFFFFFFFFFFFFFFFFFFF
310
FFFFFFFFFFFFFFFFFFFFFFFFFFFFFFFFFFFFFFFFFFFFFFFFFFFFFFFFFFFFFFFF
310
FFFFFFFFFFFFFFFFFFFFFFFFFFFFFFFFFFFFFFFFFFFFFFFFFFFFFFFFFFFFFFFF
310
F000FFFFFFFFFFFFFFFFFFFFFFFFFFFFFFFFFFFFFFFFFFFFFFFFFFFFFFFFFFFF
310
FFFFFFFFFFFFFFFFFFFFFFFFFFFFFFFFFFFFFFFFFFFFFFFFFFFFFFFFFFFFFFFF
310
FFFFFFFFFFFFFFFFFFFFFFFFFFFFFFFFFFFFFFFFFFFFFFFFF000FFFFFFFFFFFF
310
FFFFFFFFFFFFFFFFFFFFFFFFFFFFFFFFFFFFFFFFFFFFFFFFFFFFFFFFFFFFFFFF
310
FFFFFFFFFFFFFFFFFFFFFFFFFFFFFFFFFFFFFFFFFFFFFFFFFFFFFFFFFFFFFFFF
310
FFFFFFFFFFFFFFFFFFFFFFFFFFFFFFFFF000FFFFFFFFFFFFFFFFFFFFFFFFFFFF
310
FFFFFFFFFFFFFFFFFFFFFFFFFFFFFFFFFFFFFFFFFFFFFFFFFFFFFFFFFFFFFFFF
310
FFFFFFFFFFFFFFFFFFFFFFFFFFFFFFFFFFFFFFFFFFFFFFFFFFFFFFFFFFFFFFFF
310
FFFFFFFFFFFFFFFFF000FFFFFFFFFFFFFFFFFFFFFFFFFFFFFFFFFFFFFFFFFFFF
310
FFFFFFFFFFFFFFFFFFFFFFFFFFFFFFFFFFFFFFFFFFFFFFFFFFFFFFFFFFFFFFFF
310
FFFFFFFFFFFFFFFFFFFFFFFFFFFFFFFFFFFFFFFFFFFFFFFFFFFFFFFFFFFFFFFF
310
F000FFFFFFFFFFFFFFFFFFFFFFFFFFFFFFFFFFFFFFFFFFFFFFFFFFFFFFFFFFFF
310
FFFFFFFFFFFFFFFFFFFFFFFFFFFFFFFFFFFFFFFFFFFFFFFFFFFFFFFFFFFFFFFF
310
FFFFFFFFFFFFFFFFFFFFFFFFFFFFFFFFFFFFFFFFFFFFFFFFF000FFFFFFFFFFFF
310
FFFFFFFFFFFFFFFFFFFFFFFFFFFFFFFFFFFFFFFFFFFFFFFFFFFFFFFFFFFFFFFF
310
FFFFFFFFFFFFFFFFFFFFFFFFFFFFFFFFFFFFFFFFFFFFFFFFFFFFFFFFFFFFFFFF
310
FFFFFFFFFFFFFFFFFFFFFFFFFFFFFFFFF000FFFFFFFFFFFFFFFFFFFFFFFFFFFF
310
FFFFFFFFFFFFFFFFFFFFFFFFFFFFFFFFFFFFFFFFFFFFFFFFFFFFFFFFFFFFFFFF
310
FFFFFFFFFFFFFFFFFFFFFFFFFFFFFFFFFFFFFFFFFFFFFFFFFFFFFFFFFFFFFFFF
310
FFFFFFFFFFFFFFFFF000FFFFFFFFFFFFFFFFFFFFFFFFFFFFFFFFFFFFFFFFFFFF
310
FFFFFFFFFFFFFFFFFFFFFFFFFFFFFFFFFFFFFFFFFFFFFFFFFFFFFFFFFFFFFFFF
310
FFFFFFFFFFFFFFFFFFFFFFFFFFFFFFFFFFFFFFFFFFFFFFFFFFFFFFFFFFFFFFFF
310
F000FFFFFFFFFFFFFFFFFFFFFFFFFFFFFFFFFFFFFFFFFFFFFFFFFFFFFFFFFFFF
310
FFFFFFFFFFFFFFFFFFFFFFFFFFFFFFFFFFFFFFFFFFFFFFFFFFFFFFFFFFFFFFFF
310
FFFFFFFFFFFFFFFFFFFFFFFFFFFFFFFFFFFFFFFFFFFFFFFFF000FFFFFFFFFFFF
310
FFFFFFFFFFFFFFFFFFFFFFFFFFFFFFFFFFFFFFFFFFFFFFFFFFFFFFFFFFFFFFFF
310
FFFFFFFFFFFFFFFFFFFFFFFFFFFFFFFFFFFFFFFFFFFFFFFFFFFFFFFFFFFFFFFF
310
FFFFFFFFFFFFFFFFFFFFFFFFFFFFFFFFF000FFFFFFFFFFFFFFFFFFFFFFFFFFFF
310
FFFFFFFFFFFFFFFFFFFFFFFFFFFFFFFFFFFFFFFFFFFFFFFFFFFFFFFFFFFFFFFF
310
FFFFFFFFFFFFFFFFFFFFFFFFFFFFFFFFFFFFFFFFFFFFFFFFFFFFFFFFFFFFFFFF
310
FFFFFFFFFFFFFFFFF000FFFFF80003FFFFFFFFFFFFFFFFFFFFFFFFFFFFFFFFFF
310
FFFFF00007FFFFFFFFFF00007FFFFFF800000000000000007FFFFFFFFFFFFFFF
310
FFFFFFFC001FFFFFFFFFFFFFFC001FFFFFFFFFFFFFFFFFFFFFFFFFFE0007FFFF
310
F000FFFF8000007FFFFFFFF8000FFFFFC0007FFFFF80007FFFFF0000007FFFFF
310
FFF8000007FFFFF800000000000000007FFFFFF0001FFFFFFFFFFFC00001FFFF
310
FFFFFFFFC00001FFFFFFFF000000000003FFFFE000007FFFF000FFFE0000000F
310
FFFFFFF0000FFFFF80007FFFFF80007FFFFC0000001FFFFFFFC0000001FFFFF8
310
00000000000000007FFFFFF0001FFFFFFFFFFE0000003FFFFFFFFFFE0000003F
310
FFFFFF000000000003FFFF0000000FFFF000FFF800000003FFFFFFF00007FFFF
310
80007FFFFF80007FFFF000000007FFFFFF000000003FFFF80000000000000000
310
7FFFFFF0001FFFFFFFFFF80000000FFFFFFFFFF80000000FFFFFFF0000000000
310
03FFFC00000003FFF000FFE000000000FFFFFFF00007FFFF80003FFFFF80007F
310
FFC000000001FFFFFC000000001FFFF800000000000000007FFFFFF0001FFFFF
310
FFFFE000000003FFFFFFFFE000000003FFFFFF000000000003FFF000000000FF
310
F000FF80000000007FFFFFF00007FFFF80003FFFFF80007FFF8000000000FFFF
310
F80000000007FFF800000000000000007FFFFFF0001FFFFFFFFFC000000001FF
310
FFFFFFC000000001FFFFFF000000000003FFC0000000007FF000FF0000000000
310
3FFFFFE00007FFFF00003FFFFF80007FFE00000000003FFFF00000000003FFF8
310
00000000000000007FFFFFF0001FFFFFFFFF8000000000FFFFFFFF8000000000
310
FFFFFF000000000003FF80000000003FF000FE00000000001FFFFFE00003FFFF
310
00003FFFFF80007FFC00000000001FFFE00000000001FFF8000001FFFE000000
310
7FFFFFF0001FFFFFFFFE00000000003FFFFFFE00000000003FFFFF0000000000
310
03FF00000000001FF000FC00000000000FFFFFE00003FFFF00001FFFFF80007F
310
F800000000001FFFC00000000000FFF8000001FFFE0000007FFFFFF0001FFFFF
310
FFFC00000000001FFFFFFC00000000001FFFFF000000000003FE00000000000F
310
F000F8000000000007FFFFE00003FFFF00001FFFFF80007FF800000000000FFF
310
800000000000FFF8000001FFFE0000007FFFFFF0001FFFFFFFF800000000000F
310
FFFFF800000000000FFFFF000000000003FC000000000007F000F80000000000
310
03FFFFC00003FFFE00001FFFFF80007FF0000000000007FF0000000000007FF8
310
000001FFFE0000007FFFFFF0001FFFFFFFF0000000000007FFFFF00000000000
310
07FFFF000000000003F8000000000003F000F0000000000003FFFFC00001FFFE
310
00001FFFFF80007FE0000000000007FE0000000000003FF8000001FFFE000000
310
7FFFFFF0001FFFFFFFF0000000000007FFFFF0000000000007FFFF0000000000
310
03F800001F800003F000E00001FFF00001FFFFC00001FFFE00000FFFFF80007F
310
E00001FFE00003FE00001FFF00003FF8000001FFFE0000007FFFFFF0001FFFFF
310
FFE000003E000003FFFFE000003E000003FFFF000000000003F00001FFF80001
310
F000E00007FFFC0001FFFFC00001FFFE00000FFFFF80007FC0000FFFFC0003FC
310
0000FFFFC0001FF8000001FFFE0000007FFFFFF0001FFFFFFFC00003FFE00001
310
FFFFC00003FFE00001FFFF0001FFFFFFFFF00007FFFE0001F000E0000FFFFF00
310
00FFFF800001FFFC00000FFFFF80007FC0001FFFFE0001FC0001FFFFE0001FF8
310
000001FFFE0000007FFFFFF0001FFFFFFF80000FFFF80000FFFF80000FFFF800
310
00FFFF0003FFFFFFFFE0000FFFFF8000F000C0003FFFFF8000FFFF800000FFFC
310
000007FFFF80007F80003FFFFF0001FC0003FFFFF0001FF8000001FFFE000000
310
7FFFFFF0001FFFFFFF80003FFFFE0000FFFF80003FFFFE0000FFFF0003FFFFFF
310
FFE0003FFFFF8000F000C0003FFFFF8000FFFF800000FFFC000007FFFF80007F
310
80007FFFFF8001F80007FFFFF8000FF8000001FFFE0000007FFFFFF0001FFFFF
310
FF00007FFFFF00007FFF00007FFFFF00007FFF0003FFFFFFFFE0003FFFFFC000
310
F000C0007FFFFFC000FFFF000000FFFC000007FFFF80007F8000FFFFFF8000F8
310
000FFFFFF8000FF8000001FFFE0000007FFFFFF0001FFFFFFF0000FFFFFF8000
310
7FFF0000FFFFFF80007FFF0003FFFFFFFFC0007FFFFFC00070008000FFFFFFC0
310
00FFFF000000FFF8000007FFFF80007F8000FFFFFF8000F8000FFFFFF8000FF8
310
000001FFFE0000007FFFFFF0001FFFFFFE0001FFFFFFC0003FFE0001FFFFFFC0
310
003FFF0003FFFFFFFFC0007FFFFFE00070008000FFFFFFC0007FFF0000007FF8
310
000003FFFF80007F0001FFFFFF8000F8000FFFFFF8000FF8000001FFFE000000
310
7FFFFFF0001FFFFFFE0001FFFFFFC0003FFE0001FFFFFFC0003FFF0003FFFFFF
310
FFC000FFFFFFE00070008000FFFFFFC0007FFF0000007FF8000003FFFF80007F
310
0001FFFFFF8000F8001FFFFFF8000FF8000001FFFE0000007FFFFFF0001FFFFF
310
FE0003FFFFFFE0003FFE0003FFFFFFE0003FFF0003FFFFFFFFC000FFFFFFE000
310
70008000FFFFFFC0007FFE0000007FF8000003FFFF80007F0001FFFFFF8000F0
310
001FFFFFF8000FF8000001FFFE0000007FFFFFF0001FFFFFFC0003FFFFFFE000
310
1FFC0003FFFFFFE0001FFF0003FFFFFFFFC000FFFFFFC00070008000FFFFFF80
310
007FFE0000007FF0000003FFFF80007F0001FFFFFF0000F0001FFFFFF8000FF8
310
000001FFFE0000007FFFFFF0001FFFFFFC0007FFFFFFF0001FFC0007FFFFFFF0
310
001FFF0003FFFFFFFFC000FFFFFFC00070008001FFFFFF0000FFFE0000003FF0
310
000001FFFF80007F0001FFFFFF0000F8001FFFFFF0000FF8000001FFFE000000
310
7FFFFFF0001FFFFFFC0007FFFFFFF0001FFC0007FFFFFFF0001FFF0003FFFFFF
310
FFC001FFFFFF80007000FFFFFFFFFE0000FFFE0008003FF0008001FFFF80007F
310
FFFFFFFFFC0000FFFFFFFFFFE0000FF8000001FFFE0000007FFFFFF0001FFFFF
310
F8000FFFFFFFF8000FF8000FFFFFFFF8000FFF0003FFFFFFFFFFFFFFFFFF0000
310
7000FFFFFFFFFC0000FFFC0008003FF0008001FFFF80007FFFFFFFFFF80001FF
310
FFFFFFFF80000FF8000001FFFE0000007FFFFFF0001FFFFFF8000FFFFFFFF800
310
0FF8000FFFFFFFF8000FFF0003FFFFFFFFFFFFFFFFFE0000F000FFFFFFFFE000
310
00FFFC000C003FE000C001FFFF80007FFFFFFFFFC00001FFFFFFFFFE00001FF8
310
000001FFFE0000007FFFFFF0001FFFFFF8000FFFFFFFF8000FF8000FFFFFFFF8
310
000FFF0003FFFFFFFFFFFFFFFFF00000F000FFFFFFFE000001FFFC000C001FE0
310
00C000FFFF80007FFFFFFFFE000001FFFFFFFFE000001FF80FFFFFFFFFFFFFC0
310
7FFFFFF0001FFFFFF8000FFFFFFFF8000FF8000FFFFFFFF8000FFF0003FFFFFF
310
FFFFFFFFFF800000F000FFFFFFC0000001FFFC001C001FE001C000FFFF80007F
310
FFFFFF80000003FFFFFFF80000001FF80FFFFFFFFFFFFFC07FFFFFF0001FFFFF
310
F8001FFFFFFFFC000FF8001FFFFFFFFC000FFF0003FFFFFFFFFFFFFFF0000001
310
F000FFFFF800000001FFF8001C001FE001C000FFFF80007FFFFFF800000003FF
310
FFFF800000003FF80FFFFFFFFFFFFFC07FFFFFF0001FFFFFF8001FFFFFFFFC00
310
0FF8001FFFFFFFFC000FFF0003FFFFFFFFFFFFFE00000001F000FFFFC0000000
310
03FFF8001E001FC001E000FFFF80007FFFFF8000000007FFFFFC000000003FF8
310
0FFFFFFFFFFFFFC07FFFFFF0001FFFFFF8001FFFFFFFFC000FF8001FFFFFFFFC
310
000FFF0003FFFFFFFFFFFFE000000003F000FFFE0000000007FFF8001E000FC0
310
01E0007FFF80007FFFFE0000000007FFFFE0000000007FF80FFFFFFFFFFFFFC0
310
7FFFFFF0001FFFFFF0001FFFFFFFFC0007F0001FFFFFFFFC0007FF0003FFFFFF
310
FFFFFF0000000003F000FFF80000000007FFF8001E000FC003E0007FFF80007F
310
FFF0000000000FFFFF8000000000FFF80FFFFFFFFFFFFFC07FFFFFF0001FFFFF
310
F0001FFFFFFFFC0007F0001FFFFFFFFC0007FF0003FFFFFFFFFFFC0000000007
310
F000FFE0000000000FFFF0003E000FC003E0007FFF80007FFFC0000000001FFF
310
FE0000000001FFF80FFFFFFFFFFFFFC07FFFFFF0001FFFFFF0001FFFFFFFFC00
310
07F0001FFFFFFFFC0007FF0003FFFFFFFFFFF0000000000FF000FFC000000000
310
1FFFF0003F000F8003F0003FFF80007FFF80000000003FFFF80000000003FFF8
310
0FFFFFFFFFFFFFC07FFFFFF0001FFFFFF0001FFFFFFFFC0007F0001FFFFFFFFC
310
0007FF0003FFFFFFFFFFE0000000001FF000FF00000000007FFFF0003F000780
310
03F0003FFF80007FFF00000000007FFFF00000000007FFF80FFFFFFFFFFFFFC0
310
7FFFFFF0001FFFFFF0001FFFFFFFFC0007F0001FFFFFFFFC0007FF0003FFFFFF
310
FFFF80000000007FF000FE0000000000FFFFE0003F00078007F0003FFF80007F
310
FE0000000001FFFFE0000000001FFFF80FFFFFFFFFFFFFC07FFFFFF0001FFFFF
310
F0001FFFFFFFFC0007F0001FFFFFFFFC0007FF0003FFFFFFFFFF0000000000FF
310
F000FC0000000003FFFFE0007F00078007F0003FFF80007FFC0000000007FFFF
310
C0000000007FFFF80FFFFFFFFFFFFFC07FFFFFF0001FFFFFF8001FFFFFFFFC00
310
0FF8001FFFFFFFFC000FFF0003FFFFFFFFFE0000000003FFF000FC000000000F
310
FFFFE0007F80070007F8001FFF80007FF8000000001FFFFF8000000001FFFFF8
310
0FFFFFFFFFFFFFC07FFFFFF0001FFFFFF8001FFFFFFFFC000FF8001FFFFFFFFC
310
000FFF0003FFFFFFFFFC000000000FFFF000F8000000007FFFFFE0007F800700
310
07F8001FFF80007FF000000000FFFFFF800000000FFFFFF80FFFFFFFFFFFFFC0
310
7FFFFFF0001FFFFFF8000FFFFFFFF8000FF8000FFFFFFFF8000FFF0003FFFFFF
310
FFFC000000007FFFF000F800000007FFFFFFC0007F8003000FF8001FFF80007F
310
F000000007FFFFFF000000007FFFFFF80FFFFFFFFFFFFFC07FFFFFF0001FFFFF
310
F8000FFFFFFFF8000FF8000FFFFFFFF8000FFF0003FFFFFFFFF80000000FFFFF
310
F000F0000000FFFFFFFFC000FF8003000FF8001FFF80007FE0000000FFFFFFFF
310
0000000FFFFFFFF8000001FFFE0000007FFFFFF0001FFFFFF8000FFFFFFFF800
310
0FF8000FFFFFFFF8000FFF0003FFFFFFFFF8000000FFFFFFF000F000000FFFFF
310
FFFFC000FFC002000FF8000FFF80007FE000001FFFFFFFFE000001FFFFFFFFF8
310
000001FFFE0000007FFFFFF0001FFFFFF8000FFFFFFFF8000FF8000FFFFFFFF8
310
000FFF0003FFFFFFFFF000001FFFFFFFF000E00000FFFFFFFFFFC000FFC00200
310
0FFC000FFF80007FE00001FFFFFFFFFE00001FFFFFFFFFF8000001FFFE000000
310
7FFFFFF0001FFFFFFC000FFFFFFFF8001FFC000FFFFFFFF8001FFF0003FFFFFF
310
FFF00001FFFFFFFFF000E00007FFFFFFFFFF8000FFC000001FFC000FFF80007F
310
C0000FFFFFFFFFFE0000FFFFFFFFFFF8000001FFFE0000007FFFFFF0001FFFFF
310
FC0007FFFFFFF0001FFC0007FFFFFFF0001FFF0003FFFFFFFFF00007FFFFFFFF
310
F000E0001FFFFFFFFFFF8000FFC000001FFC000FFF80007FC0003FFFFFFFFFFE
310
0001FFFFFFFFFFF8000001FFFE0000007FFFFFF0001FFFFFFC0007FFFFFFF000
310
1FFC0007FFFFFFF0001FFF0003FFFFFFFFF0001FFFFFFFFFF000E0003FFFFF00
310
03FF8001FFE000001FFC0007FF80007FC0007FFFFF0007FC0003FFFFF0003FF8
310
000001FFFE0000007FFFFFF0001FFFFFFC0003FFFFFFE0001FFC0003FFFFFFE0
310
001FFF0003FFFFFFFFF0003FFFFFFFFFF000E0003FFFFF0001FF8001FFE00000
310
1FFE0007FF80007FC0007FFFFE0003FC0007FFFFE0003FF8000001FFFE000000
310
7FFFFFF0001FFFFFFE0003FFFFFFE0003FFE0003FFFFFFE0003FFF0003FFFFFF
310
FFF0003FFFFF8001F000E0003FFFFF0001FF0001FFE000001FFE0007FF80007F
310
C0007FFFFE0003FC0007FFFFE0003FF8000001FFFE0000007FFFFFF0001FFFFF
310
FE0001FFFFFFC0003FFE0001FFFFFFC0003FFF0003FFFFFFFFF0003FFFFF0001
310
F000E0003FFFFF0003FF0001FFE000003FFE0007FF80007FC0007FFFFE0003FC
310
0007FFFFE0003FF8000001FFFE0000007FFFFFF0001FFFFFFF0001FFFFFFC000
310
7FFF0001FFFFFFC0007FFF0003FFFFFFFFF0003FFFFF0001F000E0003FFFFE00
310
03FF0003FFF000003FFE0003FF80007FC0007FFFFC0003FE0007FFFFE0003FF8
310
000001FFFE0000007FFFFFF0001FFFFFFF0000FFFFFF80007FFF0000FFFFFF80
310
007FFF0003FFFFFFFFF0003FFFFF0001F000E0003FFFFE0003FF0003FFF00000
310
3FFF0003FF80007FC0007FFFFC0007FE0007FFFFC0003FF8000001FFFE000000
310
7FFFFFF0001FFFFFFF80007FFFFF0000FFFF80007FFFFF0000FFFF0003FFFFFF
310
FFF0003FFFFF0003F000E0003FFFFC0003FE0003FFF000003FFF0003FF80007F
310
E0003FFFF80007FE0003FFFFC0007FF8000001FFFE0000007FFFFFF0001FFFFF
310
FF80003FFFFE0000FFFF80003FFFFE0000FFFF0003FFFFFFFFF0001FFFFE0003
310
F000F0001FFFF80003FE0003FFF000007FFF0001FF80007FE0003FFFF00007FE
310
0001FFFF80007FF8000001FFFE0000007FFFFFF0001FFFFFFFC0000FFFF80001
310
FFFFC0000FFFF80001FFFF0003FFFFFFFFF0001FFFFC0003F000F0000FFFF000
310
07FE0007FFF800007FFF0001FF80007FE0001FFFE00007FF0000FFFE00007FF8
310
000001FFFE0000007FFFFFF0001FFFFFFFC00003FFE00001FFFFC00003FFE000
310
01FFFF0003FFFFFFFFF8000FFFF80003F000F00003FFC00007FC0007FFF80000
310
7FFF8001FF80007FF00007FF80000FFF00007FF80000FFF8000001FFFE000000
310
7F80000000000001FFE000003E000003FFFFE000003E000003FFFF0003FFFFFF
310
FFF80003FFE00007F000F800000000000FFC0007FFF800007FFF8001FF80007F
310
F000000000000FFF000000000000FFF8000001FFFE0000007F80000000000001
310
FFF0000000000007FFFFF0000000000007FFFF0003FFFFFFFFFC00007E000007
310
F000F800000000000FFC0007FFF80000FFFF8000FF80007FF800000000001FFF
310
800000000001FFF8000001FFFE0000007F80000000000001FFF800000000000F
310
FFFFF800000000000FFFFF0003FFFFFFFFFC00000000000FF000FC0000000000
310
1FFC0007FFFC0000FFFF8000FF80007FF800000000003FFFC00000000001FFF8
310
000001FFFE0000007F80000000000001FFF800000000000FFFFFF80000000000
310
0FFFFF0003FFFFFFFFFE00000000001FF000FE00000000003FF8000FFFFC0000
310
FFFF8000FF80007FFC00000000003FFFC00000000003FFF8000001FFFE000000
310
7F80000000000001FFFC00000000001FFFFFFC00000000001FFFFF0003FFFFFF
310
FFFF00000000001FF000FF00000000003FF8000FFFFC0000FFFFC000FF80007F
310
FE00000000007FFFE00000000007FFF8000001FFFE0000007F80000000000001
310
FFFE00000000003FFFFFFE00000000003FFFFF0003FFFFFFFFFF80000000003F
310
F000FF80000000007FF8000FFFFC0001FFFFC0007F80007FFF0000000000FFFF
310
F0000000000FFFF800000000000000007F80000000000001FFFF8000000000FF
310
FFFFFF8000000000FFFFFF0003FFFFFFFFFFC0000000007FF000FFC000000000
310
FFF8000FFFFE0001FFFFC0007F80007FFF8000000001FFFFF8000000001FFFF8
310
00000000000000007F80000000000001FFFFC000000001FFFFFFFFC000000001
310
FFFFFF0003FFFFFFFFFFE000000000FFF000FFE000000003FFF0001FFFFE0001
310
FFFFC0007F80007FFFC000000007FFFFFE000000003FFFF80000000000000000
310
7F80000000000001FFFFE000000003FFFFFFFFE000000003FFFFFF0003FFFFFF
310
FFFFF000000003FFF000FFF80000000FFFF0001FFFFE0001FFFFE0007F80007F
310
FFF00000000FFFFFFF00000000FFFFF800000000000000007F80000000000001
310
FFFFF80000000FFFFFFFFFF80000000FFFFFFF0003FFFFFFFFFFFC0000000FFF
310
F000FFFE0000003FFFF0001FFFFE0003FFFFE0003F80007FFFFC0000003FFFFF
310
FFC0000003FFFFF800000000000000007F80000000000001FFFFFE0000003FFF
310
FFFFFFFE0000003FFFFFFF0003FFFFFFFFFFFF0000003FFFF000FFFF800000FF
310
FFF0001FFFFF0003FFFFE0003F80007FFFFF000001FFFFFFFFF800001FFFFFF8
310
00000000000000007F80000000000001FFFFFFC00001FFFFFFFFFFFFC00001FF
310
FFFFFF0003FFFFFFFFFFFFC00000FFFFF000FFFFF8000FFFFFFFFFFFFFFFFFFF
310
FFFFFFFFFFFFFFFFFFFFF0001FFFFFFFFFFF0000FFFFFFF80000000000000000
310
7FFFFFFFFFFFFFFFFFFFFFFC001FFFFFFFFFFFFFFC001FFFFFFFFFFFFFFFFFFF
310
FFFFFFFC001FFFFFF000FFFFFFFFFFFFFFFFFFFFFFFFFFFFFFFFFFFFFFFFFFFF
310
FFFFFFFFFFFFFFFFFFFFFFFFFFFFFFFFFFFFFFFFFFFFFFFFFFFFFFFFFFFFFFFF
310
FFFFFFFFFFFFFFFFFFFFFFFFFFFFFFFFFFFFFFFFFFFFFFFFFFFFFFFFFFFFFFFF
310
F000FFFFFFFFFFFFFFFFFFFFFFFFFFFFFFFFFFFFFFFFFFFFFFFFFFFFFFFFFFFF
310
FFFFFFFFFFFFFFFFFFFFFFFFFFFFFFFFFFFFFFFFFFFFFFFFFFFFFFFFFFFFFFFF
310
FFFFFFFFFFFFFFFFFFFFFFFFFFFFFFFFFFFFFFFFFFFFFFFFF000FFFFFFFFFFFF
310
FFFFFFFFFFFFFFFFFFFFFFFFFFFFFFFFFFFFFFFFFFFFFFFFFFFFFFFFFFFFFFFF
310
FFFFFFFFFFFFFFFFFFFFFFFFFFFFFFFFFFFFFFFFFFFFFFFFFFFFFFFFFFFFFFFF
310
FFFFFFFFFFFFFFFFFFFFFFFFFFFFFFFFF000FFFFFFFFFFFFFFFFFFFFFFFFFFFF
310
FFFFFFFFFFFFFFFFFFFFFFFFFFFFFFFFFFFFFFFFFFFFFFFFFFFFFFFFFFFFFFFF
310
FFFFFFFFFFFFFFFFFFFFFFFFFFFFFFFFFFFFFFFFFFFFFFFFFFFFFFFFFFFFFFFF
310
FFFFFFFFFFFFFFFFF000FFFFFFFFFFFFFFFFFFFFFFFFFFFFFFFFFFFFFFFFFFFF
310
FFFFFFFFFFFFFFFFFFFFFFFFFFFFFFFFFFFFFFFFFFFFFFFFFFFFFFFFFFFFFFFF
310
FFFFFFFFFFFFFFFFFFFFFFFFFFFFFFFFFFFFFFFFFFFFFFFFFFFFFFFFFFFFFFFF
310
F000FFFFFFFFFFFFFFFFFFFFFFFFFFFFFFFFFFFFFFFFFFFFFFFFFFFFFFFFFFFF
310
FFFFFFFFFFFFFFFFFFFFFFFFFFFFFFFFFFFFFFFFFFFFFFFFFFFFFFFFFFFFFFFF
310
FFFFFFFFFFFFFFFFFFFFFFFFFFFFFFFFFFFFFFFFFFFFFFFFF000FFFFFFFFFFFF
310
FFFFFFFFFFFFFFFFFFFFFFFFFFFFFFFFFFFFFFFFFFFFFFFFFFFFFFFFFFFFFFFF
310
FFFFFFFFFFFFFFFFFFFFFFFFFFFFFFFFFFFFFFFFFFFFFFFFFFFFFFFFFFFFFFFF
310
FFFFFFFFFFFFFFFFFFFFFFFFFFFFFFFFF000FFFFFFFFFFFFFFFFFFFFFFFFFFFF
310
FFFFFFFFFFFFFFFFFFFFFFFFFFFFFFFFFFFFFFFFFFFFFFFFFFFFFFFFFFFFFFFF
310
FFFFFFFFFFFFFFFFFFFFFFFFFFFFFFFFFFFFFFFFFFFFFFFFFFFFFFFFFFFFFFFF
310
FFFFFFFFFFFFFFFFF000FFFFFFFFFFFFFFFFFFFFFFFFFFFFFFFFFFFFFFFFFFFF
310
FFFFFFFFFFFFFFFFFFFFFFFFFFFFFFFFFFFFFFFFFFFFFFFFFFFFFFFFFFFFFFFF
310
FFFFFFFFFFFFFFFFFFFFFFFFFFFFFFFFFFFFFFFFFFFFFFFFFFFFFFFFFFFFFFFF
310
F000FFFFFFFFFFFFFFFFFFFFFFFFFFFFFFFFFFFFFFFFFFFFFFFFFFFFFFFFFFFF
310
FFFFFFFFFFFFFFFFFFFFFFFFFFFFFFFFFFFFFFFFFFFFFFFFFFFFFFFFFFFFFFFF
310
FFFFFFFFFFFFFFFFFFFFFFFFFFFFFFFFFFFFFFFFFFFFFFFFF000FFFFFFFFFFFF
310
FFFFFFFFFFFFFFFFFFFFFFFFFFFFFFFFFFFFFFFFFFFFFFFFFFFFFFFFFFFFFFFF
310
FFFFFFFFFFFFFFFFFFFFFFFFFFFFFFFFFFFFFFFFFFFFFFFFFFFFFFFFFFFFFFFF
310
FFFFFFFFFFFFFFFFFFFFFFFFFFFFFFFFF000FFFFFFFFFFFFFFFFFFFFFFFFFFFF
310
FFFFFFFFFFFFFFFFFFFFFFFFFFFFFFFFFFFFFFFFFFFFFFFFFFFFFFFFFFFFFFFF
310
FFFFFFFFFFFFFFFFFFFFFFFFFFFFFFFFFFFFFFFFFFFFFFFFFFFFFFFFFFFFFFFF
310
FFFFFFFFFFFFFFFFF000FFFFFFFFFFFFFFFFFFFFFFFFFFFFFFFFFFFFFFFFFFFF
310
FFFFFFFFFFFFFFFFFFFFFFFFFFFFFFFFFFFFFFFFFFFFFFFFFFFFFFFFFFFFFFFF
310
FFFFFFFFFFFFFFFFFFFFFFFFFFFFFFFFFFFFFFFFFFFFFFFFFFFFFFFFFFFFFFFF
310
F000FFFFFFFFFFFFFFFFFFFFFFFFFFFFFFFFFFFFFFFFFFFFFFFFFFFFFFFFFFFF
310
FFFFFFFFFFFFFFFFFFFFFFFFFFFFFFFFFFFFFFFFFFFFFFFFFFFFFFFFFFFFFFFF
310
FFFFFFFFFFFFFFFFFFFFFFFFFFFFFFFFFFFFFFFFFFFFFFFFF000FFFFFFFFFFFF
310
FFFFFFFFFFFFFFFFFFFFFFFFFFFFFFFFFFFFFFFFFFFFFFFFFFFFFFFFFFFFFFFF
310
FFFFFFFFFFFFFFFFFFFFFFFFFFFFFFFFFFFFFFFFFFFFFFFFFFFFFFFFFFFFFFFF
310
FFFFFFFFFFFFFFFFFFFFFFFFFFFFFFFFF000FFFFFFFFFFFFFFFFFFFFFFFFFFFF
310
FFFFFFFFFFFFFFFFFFFFFFFFFFFFFFFFFFFFFFFFFFFFFFFFFFFFFFFFFFFFFFFF
310
FFFFFFFFFFFFFFFFFFFFFFFFFFFFFFFFFFFFFFFFFFFFFFFFFFFFFFFFFFFFFFFF
310
FFFFFFFFFFFFFFFFF000FFFFFFFFFFFFFFFFFFFFFFFFFFFFFFFFFFFFFFFFFFFF
310
FFFFFFFFFFFFFFFFFFFFFFFFFFFFFFFFFFFFFFFFFFFFFFFFFFFFFFFFFFFFFFFF
310
FFFFFFFFFFFFFFFFFFFFFFFFFFFFFFFFFFFFFFFFFFFFFFFFFFFFFFFFFFFFFFFF
310
F000FFFFFFFFFFFFFFFFFFFFFFFFFFFFFFFFFFFFFFFFFFFFFFFFFFFFFFFFFFFF
310
FFFFFFFFFFFFFFFFFFFFFFFFFFFFFFFFFFFFFFFFFFFFFFFFFFFFFFFFFFFFFFFF
310
FFFFFFFFFFFFFFFFFFFFFFFFFFFFFFFFFFFFFFFFFFFFFFFFF000FFFFFFFFFFFF
310
FFFFFFFFFFFFFFFFFFFFFFFFFFFFFFFFFFFFFFFFFFFFFFFFFFFFFFFFFFFFFFFF
310
FFFFFFFFFFFFFFFFFFFFFFFFFFFFFFFFFFFFFFFFFFFFFFFFFFFFFFFFFFFFFFFF
310
FFFFFFFFFFFFFFFFFFFFFFFFFFFFFFFFF000FFFFFFFFFFFFFFFFFFFFFFFFFFFF
310
FFFFFFFFFFFFFFFFFFFFFFFFFFFFFFFFFFFFFFFFFFFFFFFFFFFFFFFFFFFFFFFF
310
FFFFFFFFFFFFFFFFFFFFFFFFFFFFFFFFFFFFFFFFFFFFFFFFFFFFFFFFFFFFFFFF
310
FFFFFFFFFFFFFFFFF000FFFFFFFFFFFFFFFFFFFFFFFFFFFFFFFFFFFFFFFFFFFF
310
FFFFFFFFFFFFFFFFFFFFFFFFFFFFFFFFFFFFFFFFFFFFFFFFFFFFFFFFFFFFFFFF
310
FFFFFFFFFFFFFFFFFFFFFFFFFFFFFFFFFFFFFFFFFFFFFFFFFFFFFFFFFFFFFFFF
310
F000FFFFFFFFFFFFFFFFFFFFFFFFFFFFFFFFFFFFFFFFFFFFFFFFFFFFFFFFFFFF
310
FFFFFFFFFFFFFFFFFFFFFFFFFFFFFFFFFFFFFFFFFFFFFFFFFFFFFFFFFFFFFFFF
310
FFFFFFFFFFFFFFFFFFFFFFFFFFFFFFFFFFFFFFFFFFFFFFFFF000FFFFFFFFFFFF
310
FFFFFFFFFFFFFFFFFFFFFFFFFFFFFFFFFFFFFFFFFFFFFFFFFFFFFFFFFFFFFFFF
310
FFFFFFFFFFFFFFFFFFFFFFFFFFFFFFFFFFFFFFFFFFFFFFFFFFFFFFFFFFFFFFFF
310
FFFFFFFFFFFFFFFFFFFFFFFFFFFFFFFFF0000000000000000000000000000000
310
0000000000000000000000000000000000000000000000000000000000000000
310
0000000000000000000000000000000000000000000000000000000000000000
310
0000000000000000000000000000000000000000000000000000000000000000
310
0000000000000000000000000000000000000000000000000000000000000000
310
0000000000000000000000000000000000000000000000000000000000000000
310
0000000000000000000000000000000000000000000000000000000000000000
310
0000000000000000000000000000000000000000000000000000000000000000
310
0000000000000000000000000000000000000000000000000000000000000000
310
0000000000000000000000000000000000000000000000000000000000000000
310
0000000000000000000000000000000000000000000000000000000000000000
310
0000000000000000000000000000000000000000000000000000000000000000
310
0000000000000000000000000000000000000000000000000000000000000000
310
0000000000000000000000000000000000000000000000000000000000000000
310
0000000000000000000000000000000000000000000000000000000000000000
310
0000000000000000000000000000000000000000000000000000000000000000
  1
OLE
  0
ENDSEC
  0
SECTION
  2
OBJECTS
  0
DICTIONARY
  5
C
330
0
100
AcDbDictionary
281
     1
  3
ACAD_GROUP
350
D
  3
ACAD_LAYOUT
350
1A
  3
ACAD_MLINESTYLE
350
17
  3
ACAD_PLOTSETTINGS
350
19
  3
ACAD_PLOTSTYLENAME
350
E
  0
DICTIONARY
  5
D
102
{ACAD_REACTORS
330
C
102
}
330
C
100
AcDbDictionary
281
     1
  0
DICTIONARY
  5
1A
102
{ACAD_REACTORS
330
C
102
}
330
C
100
AcDbDictionary
281
     1
  3
Layout1
350
1E
  3
Layout2
350
26
  3
Model
350
22
  0
DICTIONARY
  5
17
102
{ACAD_REACTORS
330
C
102
}
330
C
100
AcDbDictionary
281
     1
  3
Standard
350
18
  0
DICTIONARY
  5
19
102
{ACAD_REACTORS
330
C
102
}
330
C
100
AcDbDictionary
281
     1
  0
ACDBDICTIONARYWDFLT
  5
E
102
{ACAD_REACTORS
330
C
102
}
330
C
100
AcDbDictionary
281
     1
  3
Normal
350
F
100
AcDbDictionaryWithDefault
340
F
  0
LAYOUT
  5
1E
102
{ACAD_REACTORS
330
1A
102
}
330
1A
100
AcDbPlotSettings
  1

  2
none_device
  4

  6

 40
0.0
 41
0.0
 42
0.0
 43
0.0
 44
0.0
 45
0.0
 46
0.0
 47
0.0
 48
0.0
 49
0.0
140
0.0
141
0.0
142
1.0
143
1.0
 70
   688
 72
     0
 73
     0
 74
     5
  7

 75
    16
147
1.0
148
0.0
149
0.0
100
AcDbLayout
  1
Layout1
 70
     1
 71
     1
 10
0.0
 20
0.0
 11
420.0
 21
297.0
 12
0.0
 22
0.0
 32
0.0
 14
1.0000000000E+20
 24
1.0000000000E+20
 34
1.0000000000E+20
 15
-1.0000000000E+20
 25
-1.0000000000E+20
 35
-1.0000000000E+20
146
0.0
 13
0.0
 23
0.0
 33
0.0
 16
1.0
 26
0.0
 36
0.0
 17
0.0
 27
1.0
 37
0.0
 76
     0
330
1B
  0
LAYOUT
  5
26
102
{ACAD_REACTORS
330
1A
102
}
330
1A
100
AcDbPlotSettings
  1

  2
none_device
  4

  6

 40
0.0
 41
0.0
 42
0.0
 43
0.0
 44
0.0
 45
0.0
 46
0.0
 47
0.0
 48
0.0
 49
0.0
140
0.0
141
0.0
142
1.0
143
1.0
 70
   688
 72
     0
 73
     0
 74
     5
  7

 75
    16
147
1.0
148
0.0
149
0.0
100
AcDbLayout
  1
Layout2
 70
     1
 71
     2
 10
0.0
 20
0.0
 11
0.0
 21
0.0
 12
0.0
 22
0.0
 32
0.0
 14
0.0
 24
0.0
 34
0.0
 15
0.0
 25
0.0
 35
0.0
146
0.0
 13
0.0
 23
0.0
 33
0.0
 16
1.0
 26
0.0
 36
0.0
 17
0.0
 27
1.0
 37
0.0
 76
     0
330
23
  0
LAYOUT
  5
22
102
{ACAD_REACTORS
330
1A
102
}
330
1A
100
AcDbPlotSettings
  1

  2
none_device
  4

  6

 40
0.0
 41
0.0
 42
0.0
 43
0.0
 44
0.0
 45
0.0
 46
0.0
 47
0.0
 48
0.0
 49
0.0
140
0.0
141
0.0
142
1.0
143
1.0
 70
  1712
 72
     0
 73
     0
 74
     0
  7

 75
     0
147
1.0
148
0.0
149
0.0
100
AcDbLayout
  1
Model
 70
     1
 71
     0
 10
0.0
 20
0.0
 11
297.0
 21
210.0
 12
0.0
 22
0.0
 32
0.0
 14
0.0
 24
0.0
 34
0.0
 15
297.0
 25
210.0
 35
0.0
146
0.0
 13
0.0
 23
0.0
 33
0.0
 16
1.0
 26
0.0
 36
0.0
 17
0.0
 27
1.0
 37
0.0
 76
     0
330
1F
331
29
  0
MLINESTYLE
  5
18
102
{ACAD_REACTORS
330
17
102
}
330
17
100
AcDbMlineStyle
  2
Standard
 70
     0
  3

 62
   256
 51
90.0
 52
90.0
 71
     2
 49
0.5
 62
   256
  6
BYLAYER
 49
-0.5
 62
   256
  6
BYLAYER
  0
ACDBPLACEHOLDER
  5
F
102
{ACAD_REACTORS
330
E
102
}
330
E
  0
ENDSEC
  0
EOF
