  0
SECTION
  2
HEADER
  9
$ACADVER
  1
AC1015
  9
$ACADMAINTVER
 70
     6
  9
$DWGCODEPAGE
  3
ANSI_1252
  9
$INSBASE
 10
0.0
 20
0.0
 30
0.0
  9
$EXTMIN
 10
0.0
 20
0.0
 30
0.0
  9
$EXTMAX
 10
297.0
 20
210.0
 30
0.0
  9
$LIMMIN
 10
0.0
 20
0.0
  9
$LIMMAX
 10
297.0
 20
210.0
  9
$ORTHOMODE
 70
     0
  9
$REGENMODE
 70
     1
  9
$FILLMODE
 70
     1
  9
$QTEXTMODE
 70
     0
  9
$MIRRTEXT
 70
     1
  9
$LTSCALE
 40
1.0
  9
$ATTMODE
 70
     1
  9
$TEXTSIZE
 40
2.0
  9
$TRACEWID
 40
1.0
  9
$TEXTSTYLE
  7
Standard
  9
$CLAYER
  8
0
  9
$CELTYPE
  6
ByLayer
  9
$CECOLOR
 62
   256
  9
$CELTSCALE
 40
1.0
  9
$DISPSILH
 70
     0
  9
$DIMSCALE
 40
1.0
  9
$DIMASZ
 40
3.0
  9
$DIMEXO
 40
0.0
  9
$DIMDLI
 40
3.75
  9
$DIMRND
 40
0.0
  9
$DIMDLE
 40
0.0
  9
$DIMEXE
 40
1.0
  9
$DIMTP
 40
0.0
  9
$DIMTM
 40
0.0
  9
$DIMTXT
 40
2.0
  9
$DIMCEN
 40
2.5
  9
$DIMTSZ
 40
0.0
  9
$DIMTOL
 70
     0
  9
$DIMLIM
 70
     0
  9
$DIMTIH
 70
     1
  9
$DIMTOH
 70
     1
  9
$DIMSE1
 70
     0
  9
$DIMSE2
 70
     0
  9
$DIMTAD
 70
     1
  9
$DIMZIN
 70
     0
  9
$DIMBLK
  1

  9
$DIMASO
 70
     1
  9
$DIMSHO
 70
     1
  9
$DIMPOST
  1

  9
$DIMAPOST
  1

  9
$DIMALT
 70
     0
  9
$DIMALTD
 70
     3
  9
$DIMALTF
 40
0.0393700787
  9
$DIMLFAC
 40
1.0
  9
$DIMTOFL
 70
     1
  9
$DIMTVP
 40
0.0
  9
$DIMTIX
 70
     0
  9
$DIMSOXD
 70
     0
  9
$DIMSAH
 70
     0
  9
$DIMBLK1
  1

  9
$DIMBLK2
  1

  9
$DIMSTYLE
  2
ISO-25
  9
$DIMCLRD
 70
     0
  9
$DIMCLRE
 70
     0
  9
$DIMCLRT
 70
     0
  9
$DIMTFAC
 40
1.0
  9
$DIMGAP
 40
1.524
  9
$DIMJUST
 70
     0
  9
$DIMSD1
 70
     0
  9
$DIMSD2
 70
     0
  9
$DIMTOLJ
 70
     0
  9
$DIMTZIN
 70
     0
  9
$DIMALTZ
 70
     0
  9
$DIMALTTZ
 70
     0
  9
$DIMUPT
 70
     0
  9
$DIMDEC
 70
     2
  9
$DIMTDEC
 70
     3
  9
$DIMALTU
 70
     2
  9
$DIMALTTD
 70
     3
  9
$DIMTXSTY
  7
Standard
  9
$DIMAUNIT
 70
     0
  9
$DIMADEC
 70
     2
  9
$DIMALTRND
 40
0.0
  9
$DIMAZIN
 70
     0
  9
$DIMDSEP
 70
    44
  9
$DIMATFIT
 70
     3
  9
$DIMFRAC
 70
     0
  9
$DIMLDRBLK
  1

  9
$DIMLUNIT
 70
     2
  9
$DIMLWD
 70
    -2
  9
$DIMLWE
 70
    -2
  9
$DIMTMOVE
 70
     0
  9
$LUNITS
 70
     2
  9
$LUPREC
 70
     2
  9
$SKETCHINC
 40
1.0
  9
$FILLETRAD
 40
10.0
  9
$AUNITS
 70
     0
  9
$AUPREC
 70
     2
  9
$MENU
  1
.
  9
$ELEVATION
 40
0.0
  9
$PELEVATION
 40
0.0
  9
$THICKNESS
 40
0.0
  9
$LIMCHECK
 70
     0
  9
$CHAMFERA
 40
10.0
  9
$CHAMFERB
 40
10.0
  9
$CHAMFERC
 40
20.0
  9
$CHAMFERD
 40
0.0
  9
$SKPOLY
 70
     0
  9
$TDCREATE
 40
2456087.579957975
  9
$TDUCREATE
 40
2456087.496624641
  9
$TDUPDATE
 40
2456087.579959606
  9
$TDUUPDATE
 40
2456087.496626273
  9
$TDINDWG
 40
0.0000000116
  9
$TDUSRTIMER
 40
0.0000000116
  9
$USRTIMER
 70
     1
  9
$ANGBASE
 50
0.0
  9
$ANGDIR
 70
     0
  9
$PDMODE
 70
     0
  9
$PDSIZE
 40
-1.0
  9
$PLINEWID
 40
0.0
  9
$SPLFRAME
 70
     0
  9
$SPLINETYPE
 70
     6
  9
$SPLINESEGS
 70
     8
  9
$HANDSEED
  5
26D
  9
$SURFTAB1
 70
     6
  9
$SURFTAB2
 70
     6
  9
$SURFTYPE
 70
     6
  9
$SURFU
 70
     6
  9
$SURFV
 70
     6
  9
$UCSBASE
  2

  9
$UCSNAME
  2

  9
$UCSORG
 10
0.0
 20
0.0
 30
0.0
  9
$UCSXDIR
 10
1.0
 20
0.0
 30
0.0
  9
$UCSYDIR
 10
0.0
 20
1.0
 30
0.0
  9
$UCSORTHOREF
  2

  9
$UCSORTHOVIEW
 70
     0
  9
$UCSORGTOP
 10
0.0
 20
0.0
 30
0.0
  9
$UCSORGBOTTOM
 10
0.0
 20
0.0
 30
0.0
  9
$UCSORGLEFT
 10
0.0
 20
0.0
 30
0.0
  9
$UCSORGRIGHT
 10
0.0
 20
0.0
 30
0.0
  9
$UCSORGFRONT
 10
0.0
 20
0.0
 30
0.0
  9
$UCSORGBACK
 10
0.0
 20
0.0
 30
0.0
  9
$PUCSBASE
  2

  9
$PUCSNAME
  2

  9
$PUCSORG
 10
0.0
 20
0.0
 30
0.0
  9
$PUCSXDIR
 10
1.0
 20
0.0
 30
0.0
  9
$PUCSYDIR
 10
0.0
 20
1.0
 30
0.0
  9
$PUCSORTHOREF
  2

  9
$PUCSORTHOVIEW
 70
     0
  9
$PUCSORGTOP
 10
0.0
 20
0.0
 30
0.0
  9
$PUCSORGBOTTOM
 10
0.0
 20
0.0
 30
0.0
  9
$PUCSORGLEFT
 10
0.0
 20
0.0
 30
0.0
  9
$PUCSORGRIGHT
 10
0.0
 20
0.0
 30
0.0
  9
$PUCSORGFRONT
 10
0.0
 20
0.0
 30
0.0
  9
$PUCSORGBACK
 10
0.0
 20
0.0
 30
0.0
  9
$USERI1
 70
     0
  9
$USERI2
 70
     0
  9
$USERI3
 70
     0
  9
$USERI4
 70
     0
  9
$USERI5
 70
     0
  9
$USERR1
 40
0.0
  9
$USERR2
 40
0.0
  9
$USERR3
 40
0.0
  9
$USERR4
 40
0.0
  9
$USERR5
 40
0.0
  9
$WORLDVIEW
 70
     1
  9
$SHADEDGE
 70
     3
  9
$SHADEDIF
 70
    70
  9
$TILEMODE
 70
     1
  9
$MAXACTVP
 70
    64
  9
$PINSBASE
 10
0.0
 20
0.0
 30
0.0
  9
$PLIMCHECK
 70
     0
  9
$PEXTMIN
 10
1.0000000000E+20
 20
1.0000000000E+20
 30
1.0000000000E+20
  9
$PEXTMAX
 10
-1.0000000000E+20
 20
-1.0000000000E+20
 30
-1.0000000000E+20
  9
$PLIMMIN
 10
0.0
 20
0.0
  9
$PLIMMAX
 10
420.0
 20
297.0
  9
$UNITMODE
 70
     0
  9
$VISRETAIN
 70
     1
  9
$PLINEGEN
 70
     0
  9
$PSLTSCALE
 70
     1
  9
$TREEDEPTH
 70
  3020
  9
$CMLSTYLE
  2
Standard
  9
$CMLJUST
 70
     0
  9
$CMLSCALE
 40
20.0
  9
$PROXYGRAPHICS
 70
     1
  9
$MEASUREMENT
 70
     1
  9
$CELWEIGHT
370
    -1
  9
$ENDCAPS
280
     0
  9
$JOINSTYLE
280
     0
  9
$LWDISPLAY
290
     1
  9
$INSUNITS
 70
     4
  9
$HYPERLINKBASE
  1

  9
$STYLESHEET
  1

  9
$XEDIT
290
     1
  9
$CEPSNTYPE
380
     0
  9
$PSTYLEMODE
290
     1
  9
$FINGERPRINTGUID
  2
{19BC0410-F28F-4993-BBA7-C779BE01B86B}
  9
$VERSIONGUID
  2
{FAEB1C32-E019-11D5-929B-00C0DF256EC4}
  9
$EXTNAMES
290
     1
  9
$PSVPSCALE
 40
0.0
  9
$OLESTARTUP
290
     0
  0
ENDSEC
  0
SECTION
  2
CLASSES
  0
CLASS
  1
ACDBDICTIONARYWDFLT
  2
AcDbDictionaryWithDefault
  3
ObjectDBX Classes
 90
        0
280
     0
281
     0
  0
CLASS
  1
VISUALSTYLE
  2
AcDbVisualStyle
  3
ObjectDBX Classes
 90
     4095
280
     0
281
     0
  0
CLASS
  1
MATERIAL
  2
AcDbMaterial
  3
ObjectDBX Classes
 90
     1153
280
     0
281
     0
  0
CLASS
  1
ACDBPLACEHOLDER
  2
AcDbPlaceHolder
  3
ObjectDBX Classes
 90
        0
280
     0
281
     0
  0
CLASS
  1
LAYOUT
  2
AcDbLayout
  3
ObjectDBX Classes
 90
        0
280
     0
281
     0
  0
ENDSEC
  0
SECTION
  2
TABLES
  0
TABLE
  2
VPORT
  5
8
330
0
100
AcDbSymbolTable
 70
     1
  0
VPORT
  5
29
330
8
100
AcDbSymbolTableRecord
100
AcDbViewportTableRecord
  2
*Active
 70
     0
 10
0.0
 20
0.0
 11
1.0
 21
1.0
 12
148.5
 22
105.0
 13
0.0
 23
0.0
 14
10.0
 24
10.0
 15
10.0
 25
10.0
 16
0.0
 26
0.0
 36
1.0
 17
0.0
 27
0.0
 37
0.0
 40
210.0
 41
1.4142857143
 42
50.0
 43
0.0
 44
0.0
 50
0.0
 51
0.0
 71
     0
 72
  2000
 73
     1
 74
     3
 75
     0
 76
     0
 77
     0
 78
     0
281
     0
 65
     1
110
0.0
120
0.0
130
0.0
111
1.0
121
0.0
131
0.0
112
0.0
122
1.0
132
0.0
 79
     0
146
0.0
  0
ENDTAB
  0
TABLE
  2
LTYPE
  5
5
330
0
100
AcDbSymbolTable
 70
     6
  0
LTYPE
  5
14
330
5
100
AcDbSymbolTableRecord
100
AcDbLinetypeTableRecord
  2
ByBlock
 70
     0
  3

 72
    65
 73
     0
 40
0.0
  0
LTYPE
  5
15
330
5
100
AcDbSymbolTableRecord
100
AcDbLinetypeTableRecord
  2
ByLayer
 70
     0
  3

 72
    65
 73
     0
 40
0.0
  0
LTYPE
  5
16
330
5
100
AcDbSymbolTableRecord
100
AcDbLinetypeTableRecord
  2
Continuous
 70
     0
  3
Solid line
 72
    65
 73
     0
 40
0.0
  0
LTYPE
  5
3F
330
5
100
AcDbSymbolTableRecord
100
AcDbLinetypeTableRecord
  2
HIDDEN
 70
     0
  3
Hidden __ __ __ __ __ __ __ __ __ __ __ __ __ __
 72
    65
 73
     2
 40
1.905
 49
1.27
 74
     0
 49
-0.635
 74
     0
  0
LTYPE
  5
40
330
5
100
AcDbSymbolTableRecord
100
AcDbLinetypeTableRecord
  2
PHANTOM
 70
     0
  3
Phantom ______  __  __  ______  __  __  ______
 72
    65
 73
     6
 40
12.7
 49
6.35
 74
     0
 49
-1.27
 74
     0
 49
1.27
 74
     0
 49
-1.27
 74
     0
 49
1.27
 74
     0
 49
-1.27
 74
     0
  0
LTYPE
  5
41
330
5
100
AcDbSymbolTableRecord
100
AcDbLinetypeTableRecord
  2
CENTER
 70
     0
  3
Center ____ _ ____ _ ____ _ ____ _ ____ _ ____
 72
    65
 73
     4
 40
10.16
 49
6.35
 74
     0
 49
-1.27
 74
     0
 49
1.27
 74
     0
 49
-1.27
 74
     0
  0
LTYPE
  5
42
330
5
100
AcDbSymbolTableRecord
100
AcDbLinetypeTableRecord
  2
CENTERX2
 70
     0
  3
Center (2x) ________  __  ________  __  _____
 72
    65
 73
     4
 40
20.32
 49
12.7
 74
     0
 49
-2.54
 74
     0
 49
2.54
 74
     0
 49
-2.54
 74
     0
  0
LTYPE
  5
43
330
5
100
AcDbSymbolTableRecord
100
AcDbLinetypeTableRecord
  2
DOT2
 70
     0
  3
Dot (.5x) ........................................
 72
    65
 73
     2
 40
0.635
 49
0.0
 74
     0
 49
-0.635
 74
     0
  0
ENDTAB
  0
TABLE
  2
LAYER
  5
2
330
0
100
AcDbSymbolTable
 70
     5
  0
LAYER
  5
10
330
2
100
AcDbSymbolTableRecord
100
AcDbLayerTableRecord
  2
0
 70
     0
 62
     7
  6
Continuous
370
    -3
390
F
  0
LAYER
  5
44
330
2
100
AcDbSymbolTableRecord
100
AcDbLayerTableRecord
  2
FORMAT
 70
     0
 62
     7
  6
Continuous
370
    -3
390
F
  0
LAYER
  5
45
330
2
100
AcDbSymbolTableRecord
100
AcDbLayerTableRecord
  2
VERMASSUNG
 70
     0
 62
     7
  6
Continuous
370
    -3
390
F
  0
LAYER
  5
46
330
2
100
AcDbSymbolTableRecord
100
AcDbLayerTableRecord
  2
KOPF_DÜNN
 70
     0
 62
     7
  6
Continuous
370
    -3
390
F
  0
LAYER
  5
47
330
2
100
AcDbSymbolTableRecord
100
AcDbLayerTableRecord
  2
KOPF_DICK
 70
     0
 62
     7
  6
Continuous
370
    15
390
F
  0
ENDTAB
  0
TABLE
  2
STYLE
  5
3
330
0
100
AcDbSymbolTable
 70
     2
  0
STYLE
  5
11
330
3
100
AcDbSymbolTableRecord
100
AcDbTextStyleTableRecord
  2
Standard
 70
     0
 40
0.0
 41
1.0
 50
0.0
 71
     0
 42
2.0
  3
txt
  4

  0
STYLE
  5
48
330
3
100
AcDbSymbolTableRecord
100
AcDbTextStyleTableRecord
  2
SLDTEXTSTYLE0
 70
     0
 40
0.0
 41
0.7
 50
0.0
 71
     0
 42
0.2
  3
TXT
  4

  0
ENDTAB
  0
TABLE
  2
VIEW
  5
6
330
0
100
AcDbSymbolTable
 70
     0
  0
ENDTAB
  0
TABLE
  2
UCS
  5
7
330
0
100
AcDbSymbolTable
 70
     0
  0
ENDTAB
  0
TABLE
  2
APPID
  5
9
330
0
100
AcDbSymbolTable
 70
     1
  0
APPID
  5
12
330
9
100
AcDbSymbolTableRecord
100
AcDbRegAppTableRecord
  2
ACAD
 70
     0
  0
ENDTAB
  0
TABLE
  2
DIMSTYLE
  5
A
330
0
100
AcDbSymbolTable
 70
     5
100
AcDbDimStyleTable
  0
DIMSTYLE
105
27
330
A
100
AcDbSymbolTableRecord
100
AcDbDimStyleTableRecord
  2
ISO-25
 70
     0
 41
2.5
 42
0.625
 43
3.75
 44
1.25
 73
     0
 74
     0
 77
     1
 78
     8
140
2.5
141
2.5
143
0.0393700787
147
0.625
171
     3
172
     1
178
     0
271
     2
272
     2
274
     3
278
    44
283
     0
284
     8
340
11
  0
DIMSTYLE
105
1B0
102
{ACAD_REACTORS
330
1AF
330
1BA
330
1C4
330
1D7
330
1E3
102
}
330
A
100
AcDbSymbolTableRecord
100
AcDbDimStyleTableRecord
  2
SLDDIMSTYLE0
 70
     0
 41
3.0
 44
0.0
 45
0.000000001
 73
     0
 74
     0
 77
     1
 78
    12
 79
     3
140
2.0
147
0.5
173
     1
178
     0
271
     2
272
     3
276
     2
284
    12
340
48
  0
DIMSTYLE
105
1CF
102
{ACAD_REACTORS
330
1CE
102
}
330
A
100
AcDbSymbolTableRecord
100
AcDbDimStyleTableRecord
  2
SLDDIMSTYLE1
 70
     0
 41
3.0
 44
0.0
 73
     0
 74
     0
 77
     1
 78
    12
 79
     3
140
2.0
147
0.5
173
     1
178
     0
179
     1
272
     3
276
     2
284
    12
340
48
  0
DIMSTYLE
105
247
102
{ACAD_REACTORS
330
246
102
}
330
A
100
AcDbSymbolTableRecord
100
AcDbDimStyleTableRecord
  2
SLDDIMSTYLE2
 70
     0
 41
3.0
 44
0.0
 45
0.000000001
 73
     0
 74
     0
 77
     1
 78
    12
 79
     3
140
2.0
147
0.5
172
     1
173
     1
178
     0
271
     2
272
     3
276
     2
284
    12
289
     0
340
48
  0
DIMSTYLE
105
256
102
{ACAD_REACTORS
330
255
102
}
330
A
100
AcDbSymbolTableRecord
100
AcDbDimStyleTableRecord
  2
SLDDIMSTYLE3
 70
     0
 41
3.0
 44
0.0
 73
     0
 74
     0
 77
     1
 78
    12
 79
     3
140
2.0
147
0.5
173
     1
178
     0
179
     2
272
     3
276
     2
284
    12
340
48
  0
ENDTAB
  0
TABLE
  2
BLOCK_RECORD
  5
1
330
0
100
AcDbSymbolTable
 70
    10
  0
BLOCK_RECORD
  5
1F
330
1
100
AcDbSymbolTableRecord
100
AcDbBlockTableRecord
  2
*Model_Space
340
22
  0
BLOCK_RECORD
  5
1B
330
1
100
AcDbSymbolTableRecord
100
AcDbBlockTableRecord
  2
*Paper_Space
340
1E
  0
BLOCK_RECORD
  5
23
330
1
100
AcDbSymbolTableRecord
100
AcDbBlockTableRecord
  2
*Paper_Space0
340
26
  0
BLOCK_RECORD
  5
1B1
330
1
100
AcDbSymbolTableRecord
100
AcDbBlockTableRecord
  2
_D
340
0
  0
BLOCK_RECORD
  5
1BB
330
1
100
AcDbSymbolTableRecord
100
AcDbBlockTableRecord
  2
_D_1
340
0
  0
BLOCK_RECORD
  5
1C5
330
1
100
AcDbSymbolTableRecord
100
AcDbBlockTableRecord
  2
_D_2
340
0
  0
BLOCK_RECORD
  5
1D0
330
1
100
AcDbSymbolTableRecord
100
AcDbBlockTableRecord
  2
_D_3
340
0
  0
BLOCK_RECORD
  5
1D8
330
1
100
AcDbSymbolTableRecord
100
AcDbBlockTableRecord
  2
_D_4
340
0
  0
BLOCK_RECORD
  5
1E4
330
1
100
AcDbSymbolTableRecord
100
AcDbBlockTableRecord
  2
_D_5
340
0
  0
BLOCK_RECORD
  5
248
330
1
100
AcDbSymbolTableRecord
100
AcDbBlockTableRecord
  2
_D_6
340
0
  0
BLOCK_RECORD
  5
257
330
1
100
AcDbSymbolTableRecord
100
AcDbBlockTableRecord
  2
_D_7
340
0
  0
BLOCK_RECORD
  5
260
330
1
100
AcDbSymbolTableRecord
100
AcDbBlockTableRecord
  2
SW_CENTERMARKSYMBOL_0
340
0
102
{BLKREFS
331
26B
102
}
  0
ENDTAB
  0
ENDSEC
  0
SECTION
  2
BLOCKS
  0
BLOCK
  5
20
330
1F
100
AcDbEntity
  8
0
100
AcDbBlockBegin
  2
*Model_Space
 70
     0
 10
0.0
 20
0.0
 30
0.0
  3
*Model_Space
  1

  0
ENDBLK
  5
21
330
1F
100
AcDbEntity
  8
0
100
AcDbBlockEnd
  0
BLOCK
  5
1C
330
1B
100
AcDbEntity
 67
     1
  8
0
100
AcDbBlockBegin
  2
*Paper_Space
 70
     0
 10
0.0
 20
0.0
 30
0.0
  3
*Paper_Space
  1

  0
ENDBLK
  5
1D
330
1B
100
AcDbEntity
 67
     1
  8
0
100
AcDbBlockEnd
  0
BLOCK
  5
24
330
23
100
AcDbEntity
  8
0
100
AcDbBlockBegin
  2
*Paper_Space0
 70
     0
 10
0.0
 20
0.0
 30
0.0
  3
*Paper_Space0
  1

  0
ENDBLK
  5
25
330
23
100
AcDbEntity
  8
0
100
AcDbBlockEnd
  0
BLOCK
  5
1B2
330
1B1
100
AcDbEntity
  8
0
100
AcDbBlockBegin
  2
_D
 70
     0
 10
0.0
 20
0.0
 30
0.0
  3
_D
  1

  0
SOLID
  5
1B4
330
1B1
100
AcDbEntity
  8
VERMASSUNG
100
AcDbTrace
 10
152.4441534043
 20
89.4182378739
 30
0.0
 11
155.4441534043
 21
88.9682378739
 31
0.0
 12
155.4441534043
 22
89.8682378739
 32
0.0
 13
155.4441534043
 23
89.8682378739
 33
0.0
  0
SOLID
  5
1B5
330
1B1
100
AcDbEntity
  8
VERMASSUNG
100
AcDbTrace
 10
262.4441534043
 20
89.4182378739
 30
0.0
 11
259.4441534043
 21
89.8682378739
 31
0.0
 12
259.4441534043
 22
88.9682378739
 32
0.0
 13
259.4441534043
 23
88.9682378739
 33
0.0
  0
LINE
  5
1B6
330
1B1
100
AcDbEntity
  8
VERMASSUNG
100
AcDbLine
 10
152.4441534043
 20
99.7182378739
 30
0.0
 11
152.4441534043
 21
88.4182378739
 31
0.0
  0
LINE
  5
1B7
330
1B1
100
AcDbEntity
  8
VERMASSUNG
100
AcDbLine
 10
262.4441534043
 20
102.4182378739
 30
0.0
 11
262.4441534043
 21
88.4182378739
 31
0.0
  0
LINE
  5
1B8
330
1B1
100
AcDbEntity
  8
VERMASSUNG
100
AcDbLine
 10
152.4441534043
 20
89.4182378739
 30
0.0
 11
262.4441534043
 21
89.4182378739
 31
0.0
  0
MTEXT
  5
1B9
330
1B1
100
AcDbEntity
  8
VERMASSUNG
100
AcDbMText
 10
204.8441531644
 20
91.996373237
 30
0.1
 40
2.0
 41
0.0
 71
     1
 72
     1
  1
110
  7
SLDTEXTSTYLE0
 73
     1
 44
1.0
  0
ENDBLK
  5
1B3
330
1B1
100
AcDbEntity
  8
0
100
AcDbBlockEnd
  0
BLOCK
  5
1BC
330
1BB
100
AcDbEntity
  8
0
100
AcDbBlockBegin
  2
_D_1
 70
     0
 10
0.0
 20
0.0
 30
0.0
  3
_D_1
  1

  0
SOLID
  5
1BE
330
1BB
100
AcDbEntity
  8
VERMASSUNG
100
AcDbTrace
 10
122.4441534043
 20
81.2230837075
 30
0.0
 11
125.4441534043
 21
80.7730837075
 31
0.0
 12
125.4441534043
 22
81.6730837075
 32
0.0
 13
125.4441534043
 23
81.6730837075
 33
0.0
  0
SOLID
  5
1BF
330
1BB
100
AcDbEntity
  8
VERMASSUNG
100
AcDbTrace
 10
262.4441534043
 20
81.2230837075
 30
0.0
 11
259.4441534043
 21
81.6730837075
 31
0.0
 12
259.4441534043
 22
80.7730837075
 32
0.0
 13
259.4441534043
 23
80.7730837075
 33
0.0
  0
LINE
  5
1C0
330
1BB
100
AcDbEntity
  8
VERMASSUNG
100
AcDbLine
 10
122.4441534043
 20
108.4249120357
 30
0.0
 11
122.4441534043
 21
80.2230837075
 31
0.0
  0
LINE
  5
1C1
330
1BB
100
AcDbEntity
  8
VERMASSUNG
100
AcDbLine
 10
262.4441534043
 20
102.4182378739
 30
0.0
 11
262.4441534043
 21
80.2230837075
 31
0.0
  0
LINE
  5
1C2
330
1BB
100
AcDbEntity
  8
VERMASSUNG
100
AcDbLine
 10
122.4441534043
 20
81.2230837075
 30
0.0
 11
262.4441534043
 21
81.2230837075
 31
0.0
  0
MTEXT
  5
1C3
330
1BB
100
AcDbEntity
  8
VERMASSUNG
100
AcDbMText
 10
189.5441532084
 20
83.8012190706
 30
0.1
 40
2.0
 41
0.0
 71
     1
 72
     1
  1
140
  7
SLDTEXTSTYLE0
 73
     1
 44
1.0
  0
ENDBLK
  5
1BD
330
1BB
100
AcDbEntity
  8
0
100
AcDbBlockEnd
  0
BLOCK
  5
1C6
330
1C5
100
AcDbEntity
  8
0
100
AcDbBlockBegin
  2
_D_2
 70
     0
 10
0.0
 20
0.0
 30
0.0
  3
_D_2
  1

  0
SOLID
  5
1C8
330
1C5
100
AcDbEntity
  8
VERMASSUNG
100
AcDbTrace
 10
281.1393823291
 20
124.4182378739
 30
0.0
 11
280.6893823291
 21
121.4182378739
 31
0.0
 12
281.5893823291
 22
121.4182378739
 32
0.0
 13
281.5893823291
 23
121.4182378739
 33
0.0
  0
SOLID
  5
1C9
330
1C5
100
AcDbEntity
  8
VERMASSUNG
100
AcDbTrace
 10
281.1393823291
 20
102.4182378739
 30
0.0
 11
281.5893823291
 21
105.4182378739
 31
0.0
 12
280.6893823291
 22
105.4182378739
 32
0.0
 13
280.6893823291
 23
105.4182378739
 33
0.0
  0
LINE
  5
1CA
330
1C5
100
AcDbEntity
  8
VERMASSUNG
100
AcDbLine
 10
262.4441534043
 20
124.4182378739
 30
0.0
 11
282.1393823291
 21
124.4182378739
 31
0.0
  0
LINE
  5
1CB
330
1C5
100
AcDbEntity
  8
VERMASSUNG
100
AcDbLine
 10
262.4441534043
 20
102.4182378739
 30
0.0
 11
282.1393823291
 21
102.4182378739
 31
0.0
  0
LINE
  5
1CC
330
1C5
100
AcDbEntity
  8
VERMASSUNG
100
AcDbLine
 10
281.1393823291
 20
124.4182378739
 30
0.0
 11
281.1393823291
 21
102.4182378739
 31
0.0
  0
MTEXT
  5
1CD
330
1C5
100
AcDbEntity
  8
VERMASSUNG
100
AcDbMText
 10
278.561246966
 20
111.1182378228
 30
0.1
 40
2.0
 41
0.0
 71
     1
 72
     1
  1
22
  7
SLDTEXTSTYLE0
 11
-7.044195017643634E-15
 21
1.0
 31
0.0
 73
     1
 44
1.0
  0
ENDBLK
  5
1C7
330
1C5
100
AcDbEntity
  8
0
100
AcDbBlockEnd
  0
BLOCK
  5
1D1
330
1D0
100
AcDbEntity
  8
0
100
AcDbBlockBegin
  2
_D_3
 70
     0
 10
0.0
 20
0.0
 30
0.0
  3
_D_3
  1

  0
ARC
  5
1D3
330
1D0
100
AcDbEntity
  8
VERMASSUNG
100
AcDbCircle
 10
262.5893405435
 20
102.4182378739
 30
0.0
 40
12.06755468030906
100
AcDbArc
 50
0.0
 51
107.5093669553
  0
SOLID
  5
1D4
330
1D0
100
AcDbEntity
  8
VERMASSUNG
100
AcDbTrace
 10
274.6568952238
 20
102.4182378739
 30
0.0
 11
274.7389716597
 21
105.4506895979
 31
0.0
 12
273.8456426066
 22
105.3413131707
 32
0.0
 13
273.8456426066
 23
105.3413131707
 33
0.0
  0
SOLID
  5
1D5
330
1D0
100
AcDbEntity
  8
VERMASSUNG
100
AcDbTrace
 10
258.9586753689
 20
113.9266759239
 30
0.0
 11
261.9903929425
 21
114.032451885
 31
0.0
 12
261.8259332073
 22
114.9172981968
 32
0.0
 13
261.8259332073
 23
114.9172981968
 33
0.0
  0
MTEXT
  5
1D6
330
1D0
100
AcDbEntity
  8
VERMASSUNG
100
AcDbMText
 10
267.699943992
 20
116.8313558235
 30
0.1
 40
2.0
 41
0.0
 71
     1
 72
     1
  1
107.5°
  7
SLDTEXTSTYLE0
 11
0.8064929364690419
 21
-0.5912437259079727
 31
0.0
 73
     1
 44
1.0
  0
ENDBLK
  5
1D2
330
1D0
100
AcDbEntity
  8
0
100
AcDbBlockEnd
  0
BLOCK
  5
1D9
330
1D8
100
AcDbEntity
  8
0
100
AcDbBlockBegin
  2
_D_4
 70
     0
 10
0.0
 20
0.0
 30
0.0
  3
_D_4
  1

  0
SOLID
  5
1DB
330
1D8
100
AcDbEntity
  8
VERMASSUNG
100
AcDbTrace
 10
112.4441534043
 20
149.4182378739
 30
0.0
 11
111.9941534043
 21
146.4182378739
 31
0.0
 12
112.8941534043
 22
146.4182378739
 32
0.0
 13
112.8941534043
 23
146.4182378739
 33
0.0
  0
SOLID
  5
1DC
330
1D8
100
AcDbEntity
  8
VERMASSUNG
100
AcDbTrace
 10
112.4441534043
 20
99.4182378739
 30
0.0
 11
112.8941534043
 21
102.4182378739
 31
0.0
 12
111.9941534043
 22
102.4182378739
 32
0.0
 13
111.9941534043
 23
102.4182378739
 33
0.0
  0
LINE
  5
1DD
330
1D8
100
AcDbEntity
  8
VERMASSUNG
100
AcDbLine
 10
152.7441534043
 20
149.4182378739
 30
0.0
 11
111.4441534043
 21
149.4182378739
 31
0.0
  0
LINE
  5
1DE
330
1D8
100
AcDbEntity
  8
VERMASSUNG
100
AcDbLine
 10
152.7441534043
 20
99.4182378739
 30
0.0
 11
111.4441534043
 21
99.4182378739
 31
0.0
  0
LINE
  5
1DF
330
1D8
100
AcDbEntity
  8
VERMASSUNG
100
AcDbLine
 10
112.4441534043
 20
149.4182378739
 30
0.0
 11
112.4441534043
 21
99.4182378739
 31
0.0
  0
MTEXT
  5
1E0
330
1D8
100
AcDbEntity
  8
VERMASSUNG
100
AcDbMText
 10
109.6660179153
 20
118.0132377646
 30
0.1
 40
2.0
 41
0.0
 71
     1
 72
     1
  1
PSC
  7
SLDTEXTSTYLE0
 11
-7.044195017643634E-15
 21
1.0
 31
0.0
 73
     1
 44
1.0
  0
MTEXT
  5
1E1
330
1D8
100
AcDbEntity
  8
VERMASSUNG
100
AcDbMText
 10
109.8660179248
 20
122.6132378667
 30
0.1
 40
2.0
 41
0.0
 71
     1
 72
     1
  1
%%c
  7
SLDTEXTSTYLE0
 11
-7.044195017643634E-15
 21
1.0
 31
0.0
 73
     1
 44
1.0
  0
MTEXT
  5
1E2
330
1D8
100
AcDbEntity
  8
VERMASSUNG
100
AcDbMText
 10
109.6660179153
 20
126.2232383467
 30
0.1
 40
2.0
 41
0.0
 71
     1
 72
     1
  1
50
  7
SLDTEXTSTYLE0
 11
-7.044195017643634E-15
 21
1.0
 31
0.0
 73
     1
 44
1.0
  0
ENDBLK
  5
1DA
330
1D8
100
AcDbEntity
  8
0
100
AcDbBlockEnd
  0
BLOCK
  5
1E5
330
1E4
100
AcDbEntity
  8
0
100
AcDbBlockBegin
  2
_D_5
 70
     0
 10
0.0
 20
0.0
 30
0.0
  3
_D_5
  1

  0
SOLID
  5
1E7
330
1E4
100
AcDbEntity
  8
VERMASSUNG
100
AcDbTrace
 10
192.4441534043
 20
140.4182378739
 30
0.0
 11
191.9941534043
 21
137.4182378739
 31
0.0
 12
192.8941534043
 22
137.4182378739
 32
0.0
 13
192.8941534043
 23
137.4182378739
 33
0.0
  0
SOLID
  5
1E8
330
1E4
100
AcDbEntity
  8
VERMASSUNG
100
AcDbTrace
 10
192.4441534043
 20
108.4182378739
 30
0.0
 11
192.8941534043
 21
111.4182378739
 31
0.0
 12
191.9941534043
 22
111.4182378739
 32
0.0
 13
191.9941534043
 23
111.4182378739
 33
0.0
  0
LINE
  5
1E9
330
1E4
100
AcDbEntity
  8
VERMASSUNG
100
AcDbLine
 10
192.4441534043
 20
140.4182378739
 30
0.0
 11
192.4441534043
 21
108.4182378739
 31
0.0
  0
MTEXT
  5
1EA
330
1E4
100
AcDbEntity
  8
VERMASSUNG
100
AcDbMText
 10
189.8660179248
 20
111.7207823132
 30
0.1
 40
2.0
 41
0.0
 71
     1
 72
     1
  1
%%c
  7
SLDTEXTSTYLE0
 11
-7.044195017643634E-15
 21
1.0
 31
0.0
 73
     1
 44
1.0
  0
MTEXT
  5
1EB
330
1E4
100
AcDbEntity
  8
VERMASSUNG
100
AcDbMText
 10
189.6660179153
 20
115.3307823275
 30
0.1
 40
2.0
 41
0.0
 71
     1
 72
     1
  1
32
  7
SLDTEXTSTYLE0
 11
-7.044195017643634E-15
 21
1.0
 31
0.0
 73
     1
 44
1.0
  0
ENDBLK
  5
1E6
330
1E4
100
AcDbEntity
  8
0
100
AcDbBlockEnd
  0
BLOCK
  5
249
330
248
100
AcDbEntity
  8
0
100
AcDbBlockBegin
  2
_D_6
 70
     0
 10
0.0
 20
0.0
 30
0.0
  3
_D_6
  1

  0
SOLID
  5
24B
330
248
100
AcDbEntity
  8
VERMASSUNG
100
AcDbTrace
 10
64.9410424876
 20
138.3729597033
 30
0.0
 11
67.1360400465
 21
140.4668760618
 31
0.0
 12
66.4250866991
 22
141.0187323274
 32
0.0
 13
66.4250866991
 23
141.0187323274
 33
0.0
  0
SOLID
  5
24C
330
248
100
AcDbEntity
  8
VERMASSUNG
100
AcDbTrace
 10
40.4140973515
 20
106.7750331528
 30
0.0
 11
38.2190997926
 21
104.6811167943
 31
0.0
 12
38.93005314
 22
104.1292605288
 32
0.0
 13
38.93005314
 23
104.1292605288
 33
0.0
  0
LINE
  5
24D
330
248
100
AcDbEntity
  8
VERMASSUNG
100
AcDbLine
 10
64.9410424876
 20
138.3729597033
 30
0.0
 11
64.1510943238
 21
138.9861333317
 31
0.0
  0
LINE
  5
24E
330
248
100
AcDbEntity
  8
VERMASSUNG
100
AcDbLine
 10
40.4140973515
 20
106.7750331528
 30
0.0
 11
39.6241491877
 21
107.3882067812
 31
0.0
  0
LINE
  5
24F
330
248
100
AcDbEntity
  8
VERMASSUNG
100
AcDbLine
 10
64.9410424876
 20
138.3729597033
 30
0.0
 11
68.620084258
 21
143.1126486859
 31
0.0
  0
LINE
  5
250
330
248
100
AcDbEntity
  8
VERMASSUNG
100
AcDbLine
 10
64.9410424876
 20
138.3729597033
 30
0.0
 11
40.4140973515
 21
106.7750331528
 31
0.0
  0
LINE
  5
251
330
248
100
AcDbEntity
  8
VERMASSUNG
100
AcDbLine
 10
40.4140973515
 20
106.7750331528
 30
0.0
 11
28.5400114014
 21
91.4777144846
 31
0.0
  0
MTEXT
  5
252
330
248
100
AcDbEntity
  8
VERMASSUNG
100
AcDbMText
 10
26.5034180134
 20
93.0585591711
 30
0.1
 40
2.0
 41
0.0
 71
     1
 72
     1
  1
%%c
  7
SLDTEXTSTYLE0
 11
0.6131736284021416
 21
0.7899481637627576
 31
0.0
 73
     1
 44
1.0
  0
MTEXT
  5
253
330
248
100
AcDbEntity
  8
VERMASSUNG
100
AcDbMText
 10
28.5589851805
 20
96.0329067851
 30
0.1
 40
2.0
 41
0.0
 71
     1
 72
     1
  1
40
  7
SLDTEXTSTYLE0
 11
0.6131736284021416
 21
0.7899481637627576
 31
0.0
 73
     1
 44
1.0
  0
MTEXT
  5
254
330
248
100
AcDbEntity
  8
VERMASSUNG
100
AcDbMText
 10
32.2303624203
 20
100.7627215957
 30
0.1
 40
2.0
 41
0.0
 71
     1
 72
     1
  1
min.
  7
SLDTEXTSTYLE0
 11
0.6131736284021416
 21
0.7899481637627576
 31
0.0
 73
     1
 44
1.0
  0
ENDBLK
  5
24A
330
248
100
AcDbEntity
  8
0
100
AcDbBlockEnd
  0
BLOCK
  5
258
330
257
100
AcDbEntity
  8
0
100
AcDbBlockBegin
  2
_D_7
 70
     0
 10
0.0
 20
0.0
 30
0.0
  3
_D_7
  1

  0
ARC
  5
25A
330
257
100
AcDbEntity
  8
VERMASSUNG
100
AcDbCircle
 10
52.6775699195
 20
102.5739964281
 30
0.0
 40
54.26995056692702
100
AcDbArc
 50
90.0
 51
102.0
  0
SOLID
  5
25B
330
257
100
AcDbEntity
  8
VERMASSUNG
100
AcDbTrace
 10
52.6775699195
 20
156.843946995
 30
0.0
 11
49.6662898419
 21
157.2109514832
 31
0.0
 12
49.6911370371
 22
156.3112945392
 32
0.0
 13
49.6911370371
 23
156.3112945392
 33
0.0
  0
SOLID
  5
25C
330
257
100
AcDbEntity
  8
VERMASSUNG
100
AcDbTrace
 10
41.3942127366
 20
155.6580183671
 30
0.0
 11
44.426129568
 21
155.7579199555
 31
0.0
 12
44.2633845959
 22
156.6430832591
 32
0.0
 13
44.2633845959
 23
156.6430832591
 33
0.0
  0
LINE
  5
25D
330
257
100
AcDbEntity
  8
VERMASSUNG
100
AcDbLine
 10
52.6775699195
 20
151.9182378739
 30
0.0
 11
52.6775699195
 21
157.843946995
 31
0.0
  0
LINE
  5
25E
330
257
100
AcDbEntity
  8
VERMASSUNG
100
AcDbLine
 10
42.2546359585
 20
151.61004537
 30
0.0
 11
41.1863010457
 21
156.6361659678
 31
0.0
  0
MTEXT
  5
25F
330
257
100
AcDbEntity
  8
VERMASSUNG
100
AcDbMText
 10
44.0501176704
 20
158.8284357372
 30
0.1
 40
2.0
 41
0.0
 71
     1
 72
     1
  1
12°
  7
SLDTEXTSTYLE0
 11
0.9945218953682723
 21
0.1045284632676638
 31
0.0
 73
     1
 44
1.0
  0
ENDBLK
  5
259
330
257
100
AcDbEntity
  8
0
100
AcDbBlockEnd
  0
BLOCK
  5
261
330
260
100
AcDbEntity
  8
0
100
AcDbBlockBegin
  2
SW_CENTERMARKSYMBOL_0
 70
     0
 10
0.0
 20
0.0
 30
0.0
  3
SW_CENTERMARKSYMBOL_0
  1

  0
LINE
  5
263
330
260
100
AcDbEntity
  8
VERMASSUNG
 62
     0
100
AcDbLine
 10
0.0
 20
0.0
 30
0.0
 11
0.0
 21
2.5
 31
0.0
  0
LINE
  5
264
330
260
100
AcDbEntity
  8
VERMASSUNG
 62
     0
100
AcDbLine
 10
0.0
 20
0.0
 30
0.0
 11
-2.5
 21
0.0
 31
0.0
  0
LINE
  5
265
330
260
100
AcDbEntity
  8
VERMASSUNG
 62
     0
100
AcDbLine
 10
0.0
 20
0.0
 30
0.0
 11
0.0
 21
-2.5
 31
0.0
  0
LINE
  5
266
330
260
100
AcDbEntity
  8
VERMASSUNG
 62
     0
100
AcDbLine
 10
0.0
 20
0.0
 30
0.0
 11
2.5
 21
0.0
 31
0.0
  0
LINE
  5
267
330
260
100
AcDbEntity
  8
VERMASSUNG
 62
     0
100
AcDbLine
 10
0.0
 20
5.0
 30
0.0
 11
0.0
 21
27.5
 31
0.0
  0
LINE
  5
268
330
260
100
AcDbEntity
  8
VERMASSUNG
 62
     0
100
AcDbLine
 10
-5.0
 20
0.0
 30
0.0
 11
-27.5
 21
0.0
 31
0.0
  0
LINE
  5
269
330
260
100
AcDbEntity
  8
VERMASSUNG
 62
     0
100
AcDbLine
 10
0.0
 20
-5.0
 30
0.0
 11
0.0
 21
-27.5
 31
0.0
  0
LINE
  5
26A
330
260
100
AcDbEntity
  8
VERMASSUNG
 62
     0
100
AcDbLine
 10
5.0
 20
0.0
 30
0.0
 11
27.5
 21
0.0
 31
0.0
  0
ENDBLK
  5
262
330
260
100
AcDbEntity
  8
0
100
AcDbBlockEnd
  0
ENDSEC
  0
SECTION
  2
ENTITIES
  0
MTEXT
  5
49
330
1F
100
AcDbEntity
  8
KOPF_DÜNN
100
AcDbMText
 10
13.8892156294
 20
23.8442973028
 30
0.0
 40
3.0
 41
0.0
 71
     1
 72
     1
  1
PS5.PDF.LQB.110
  7
SLDTEXTSTYLE0
 73
     1
 44
1.0
  0
MTEXT
  5
4A
330
1F
100
AcDbEntity
  8
VERMASSUNG
100
AcDbMText
 10
13.9329988022
 20
28.8834360957
 30
0.0
 40
3.0
 41
0.0
 71
     1
 72
     1
  1
Bohrstange links_Boring bar left
  7
SLDTEXTSTYLE0
 73
     1
 44
1.0
  0
MTEXT
  5
4B
330
1F
100
AcDbEntity
  8
VERMASSUNG
100
AcDbMText
 10
98.8601118557
 20
13.8365368179
 30
0.0
 40
2.0
 41
0.0
 71
     1
 72
     1
  1
Datum: 08.06.2012
  7
SLDTEXTSTYLE0
 73
     1
 44
1.0
  0
MTEXT
  5
4C
330
1F
100
AcDbEntity
  8
VERMASSUNG
100
AcDbMText
 10
13.933048693
 20
18.0482802738
 30
0.0
 40
2.0
 41
0.0
 71
     1
 72
     1
  1
PSC ø50 / Wp.: DN..15 06..
  7
SLDTEXTSTYLE0
 73
     1
 44
1.0
  0
MTEXT
  5
4D
330
1F
100
AcDbEntity
  8
VERMASSUNG
100
AcDbMText
 10
13.9808475933
 20
13.9090973692
 30
0.0
 40
2.0
 41
0.0
 71
     1
 72
     1
  1
Gewicht: 875g
  7
SLDTEXTSTYLE0
 73
     1
 44
1.0
  0
ARC
  5
4E
330
1F
100
AcDbEntity
  8
0
  6
Continuous
 62
     7
370
    15
100
AcDbCircle
 10
171.8441534043
 20
100.0182378739
 30
0.0
 40
0.6000000000000085
100
AcDbArc
 50
270.0
 51
0.0
  0
ARC
  5
4F
330
1F
100
AcDbEntity
  8
0
  6
Continuous
 62
     7
370
    15
100
AcDbCircle
 10
171.8441534043
 20
148.8182378739
 30
0.0
 40
0.5999999999999943
100
AcDbArc
 50
0.0
 51
90.0
  0
LINE
  5
50
330
1F
100
AcDbEntity
  8
0
  6
Continuous
 62
     7
370
    15
100
AcDbLine
 10
152.7441534186
 20
99.4182375013
 30
0.0
 11
171.8441539765
 21
99.4182375013
 31
0.0
  0
LINE
  5
51
330
1F
100
AcDbEntity
  8
0
  6
Continuous
 62
     7
370
    15
100
AcDbLine
 10
171.8441539765
 20
149.4182382464
 30
0.0
 11
152.7441534186
 21
149.4182382464
 31
0.0
  0
ARC
  5
52
330
1F
100
AcDbEntity
  8
0
  6
Continuous
 62
     7
370
    15
100
AcDbCircle
 10
152.7441534043
 20
99.7182378739
 30
0.0
 40
0.2999999999999972
100
AcDbArc
 50
180.0
 51
270.0
  0
ARC
  5
53
330
1F
100
AcDbEntity
  8
0
  6
Continuous
 62
     7
370
    15
100
AcDbCircle
 10
152.7441534043
 20
149.1182378739
 30
0.0
 40
0.2999999999999829
100
AcDbArc
 50
90.0
 51
180.0
  0
ARC
  5
54
330
1F
100
AcDbEntity
  8
0
  6
Continuous
 62
     7
370
    15
100
AcDbCircle
 10
176.4441534043
 20
104.4182378739
 30
0.0
 40
4.0
100
AcDbArc
 50
90.0
 51
180.0
  0
ARC
  5
55
330
1F
100
AcDbEntity
  8
0
  6
Continuous
 62
     7
370
    15
100
AcDbCircle
 10
176.4441534043
 20
144.4182378739
 30
0.0
 40
4.0
100
AcDbArc
 50
180.0
 51
270.0
  0
LWPOLYLINE
  5
56
330
1F
100
AcDbEntity
  8
0
  6
Continuous
 62
     7
370
    15
100
AcDbPolyline
 90
        3
 70
   128
 43
0.0
 10
152.2441534094
 20
106.5784168183
 10
152.3696083446
 20
106.5101154833
 10
152.4441534043
 20
106.4573784112
  0
LWPOLYLINE
  5
57
330
1F
100
AcDbEntity
  8
0
  6
Continuous
 62
     7
370
    15
100
AcDbPolyline
 90
        3
 70
   128
 43
0.0
 10
152.4441534043
 20
142.3790973365
 10
152.3696083446
 20
142.3263602644
 10
152.2441534094
 20
142.2580589294
  0
LINE
  5
58
330
1F
100
AcDbEntity
  8
0
  6
Continuous
 62
     7
370
    15
100
AcDbLine
 10
176.4441536129
 20
108.4182371139
 30
0.0
 11
236.0299372435
 21
108.4182371139
 31
0.0
  0
LINE
  5
59
330
1F
100
AcDbEntity
  8
0
  6
Continuous
 62
     7
370
    15
100
AcDbLine
 10
236.0299372435
 20
140.4182386338
 30
0.0
 11
176.4441536129
 21
140.4182386338
 31
0.0
  0
ARC
  5
5A
330
1F
100
AcDbEntity
  8
0
  6
Continuous
 62
     7
370
    15
100
AcDbCircle
 10
236.0299398419
 20
107.4182378739
 30
0.0
 40
1.000000000000018
100
AcDbArc
 50
45.0
 51
90.0
  0
ARC
  5
5B
330
1F
100
AcDbEntity
  8
0
  6
Continuous
 62
     7
370
    15
100
AcDbCircle
 10
236.0299398419
 20
141.4182378739
 30
0.0
 40
1.000000000000028
100
AcDbArc
 50
270.0
 51
315.0
  0
LINE
  5
5C
330
1F
100
AcDbEntity
  8
0
  6
Continuous
 62
     7
370
    15
100
AcDbLine
 10
236.9441532851
 20
140.9182377844
 30
0.0
 11
236.7370494963
 21
140.7111302703
 31
0.0
  0
LINE
  5
5D
330
1F
100
AcDbEntity
  8
0
  6
Continuous
 62
     7
370
    15
100
AcDbLine
 10
236.7370494963
 20
108.1253454774
 30
0.0
 11
237.3254367472
 21
107.5369545012
 31
0.0
  0
LINE
  5
5E
330
1F
100
AcDbEntity
  8
0
  6
Continuous
 62
     7
370
    15
100
AcDbLine
 10
249.6585392714
 20
140.9182377844
 30
0.0
 11
236.9441532851
 21
140.9182377844
 31
0.0
  0
LINE
  5
5F
330
1F
100
AcDbEntity
  8
0
  6
Continuous
 62
     7
370
    15
100
AcDbLine
 10
257.3706203462
 20
117.9231849253
 30
0.0
 11
257.2415241362
 21
118.1785577662
 31
0.0
  0
LINE
  5
60
330
1F
100
AcDbEntity
  8
0
  6
Continuous
 62
     7
370
    15
100
AcDbLine
 10
258.149623251
 20
116.4746178999
 30
0.0
 11
257.4858733774
 21
117.7876244053
 31
0.0
  0
LINE
  5
61
330
1F
100
AcDbEntity
  8
0
  6
Continuous
 62
     7
370
    15
100
AcDbLine
 10
247.8937053443
 20
106.7792416304
 30
0.0
 11
247.9400181533
 21
106.687631154
 31
0.0
  0
LINE
  5
62
330
1F
100
AcDbEntity
  8
0
  6
Continuous
 62
     7
370
    15
100
AcDbLine
 10
250.4791015149
 20
111.5518814638
 30
0.0
 11
250.6695309044
 21
111.1936175018
 31
0.0
  0
LINE
  5
63
330
1F
100
AcDbEntity
  8
0
  6
Continuous
 62
     7
370
    15
100
AcDbLine
 10
254.8215606571
 20
113.3960538297
 30
0.0
 11
254.7761270166
 21
113.4815147831
 31
0.0
  0
LINE
  5
64
330
1F
100
AcDbEntity
  8
0
  6
Continuous
 62
     7
370
    15
100
AcDbLine
 10
172.4441529573
 20
100.0182383447
 30
0.0
 11
172.4441529573
 21
148.818237403
 31
0.0
  0
SPLINE
  5
65
330
1F
100
AcDbEntity
  8
0
  6
Continuous
 62
     7
370
    15
100
AcDbSpline
210
0.0
220
0.0
230
1.0
 70
     8
 71
     3
 72
    12
 73
     8
 74
     0
 42
0.00000001
 43
0.00000001
 12
1.0
 22
0.0
 32
0.0
 13
1.0
 23
0.0
 33
0.0
 40
0.0
 40
0.0
 40
0.0
 40
0.0
 40
0.2499999999999977
 40
0.2499999999999977
 40
0.4999999999999954
 40
0.4999999999999954
 40
1.0
 40
1.0
 40
1.0
 40
1.0
 10
160.9719102178859
 20
131.9870478430309
 30
0.0
 10
160.9082449813554
 20
131.9870478430309
 30
0.0
 10
160.848638749132
 20
132.0131199915106
 30
0.0
 10
160.7499782242012
 20
132.0886587423317
 30
0.0
 10
160.711011234186
 20
132.1359096794279
 30
0.0
 10
160.6116244022615
 20
132.2877334973943
 30
0.0
 10
160.569548154838
 20
132.4005367471594
 30
0.0
 10
160.5388975159937
 20
132.5146908718945
 30
0.0
  0
LINE
  5
66
330
1F
100
AcDbEntity
  8
0
  6
Continuous
 62
     7
370
    15
100
AcDbLine
 10
163.9163962887
 20
131.987048009
 30
0.0
 11
160.9719100729
 21
131.987048009
 31
0.0
  0
SPLINE
  5
67
330
1F
100
AcDbEntity
  8
0
  6
Continuous
 62
     7
370
    15
100
AcDbSpline
210
0.0
220
0.0
230
1.0
 70
     8
 71
     3
 72
    12
 73
     8
 74
     0
 42
0.00000001
 43
0.00000001
 12
1.0
 22
0.0
 32
0.0
 13
1.0
 23
0.0
 33
0.0
 40
0.0
 40
0.0
 40
0.0
 40
0.0
 40
0.4999999999999987
 40
0.4999999999999987
 40
0.7499999999999993
 40
0.7499999999999993
 40
1.0
 40
1.0
 40
1.0
 40
1.0
 10
164.3494092926452
 20
132.5146908718945
 30
0.0
 10
164.3187099092779
 20
132.4003552048307
 30
0.0
 10
164.2773598411714
 20
132.2890018519893
 30
0.0
 10
164.177603912952
 20
132.1362650797406
 30
0.0
 10
164.1379069952193
 20
132.0884051938885
 30
0.0
 10
164.0406488435716
 20
132.013802080539
 30
0.0
 10
163.9798726855809
 20
131.9870478430309
 30
0.0
 10
163.916396590753
 20
131.9870478430309
 30
0.0
  0
ELLIPSE
  5
68
330
1F
100
AcDbEntity
  8
0
  6
Continuous
 62
     7
370
    15
100
AcDbEllipse
 10
151.3878957493
 20
124.4182378739
 30
0.0
 11
11.70927234972711
 21
24.67718644093745
 31
0.0
210
0.0
220
0.0
230
1.0
 40
0.3419987131
 41
5.203068809370451
 42
6.114256032590495
  0
SPLINE
  5
69
330
1F
100
AcDbEntity
  8
0
  6
Continuous
 62
     7
370
    15
100
AcDbSpline
210
0.0
220
0.0
230
1.0
 70
     8
 71
     3
 72
    12
 73
     8
 74
     0
 42
0.00000001
 43
0.00000001
 12
1.0
 22
0.0
 32
0.0
 13
1.0
 23
0.0
 33
0.0
 40
0.0
 40
0.0
 40
0.0
 40
0.0
 40
0.2500000000000023
 40
0.2500000000000023
 40
0.5000000000000047
 40
0.5000000000000047
 40
1.0
 40
1.0
 40
1.0
 40
1.0
 10
163.916396590753
 20
148.2449689893524
 30
0.0
 10
163.9800618272835
 20
148.2449689893524
 30
0.0
 10
164.0396680595069
 20
148.2367042136865
 30
0.0
 10
164.1383285844377
 20
148.2124854321034
 30
0.0
 10
164.177295574453
 20
148.1972281127942
 30
0.0
 10
164.2766824063775
 20
148.1475947585323
 30
0.0
 10
164.3187586538009
 20
148.1099550503582
 30
0.0
 10
164.3494092926452
 20
148.070879351082
 30
0.0
  0
LINE
  5
6A
330
1F
100
AcDbEntity
  8
0
  6
Continuous
 62
     7
370
    15
100
AcDbLine
 10
160.9719100729
 20
148.2449692427
 30
0.0
 11
163.9163962887
 21
148.2449692427
 31
0.0
  0
SPLINE
  5
6B
330
1F
100
AcDbEntity
  8
0
  6
Continuous
 62
     7
370
    15
100
AcDbSpline
210
0.0
220
0.0
230
1.0
 70
     8
 71
     3
 72
    12
 73
     8
 74
     0
 42
0.00000001
 43
0.00000001
 12
1.0
 22
0.0
 32
0.0
 13
1.0
 23
0.0
 33
0.0
 40
0.0
 40
0.0
 40
0.0
 40
0.0
 40
0.5000000000000018
 40
0.5000000000000018
 40
0.7500000000000009
 40
0.7500000000000009
 40
1.0
 40
1.0
 40
1.0
 40
1.0
 10
160.5388975159937
 20
148.070879351082
 30
0.0
 10
160.569596899361
 20
148.1100171934779
 30
0.0
 10
160.6109469674675
 20
148.1471769762034
 30
0.0
 10
160.7107028956869
 20
148.1971134818312
 30
0.0
 10
160.7503998134196
 20
148.2125663519749
 30
0.0
 10
160.8476579650673
 20
148.236485895574
 30
0.0
 10
160.908434123058
 20
148.2449689893524
 30
0.0
 10
160.9719102178859
 20
148.2449689893524
 30
0.0
  0
ELLIPSE
  5
6C
330
1F
100
AcDbEntity
  8
0
  6
Continuous
 62
     7
370
    15
100
AcDbEllipse
 10
173.5004110593
 20
124.4182378739
 30
0.0
 11
-11.70927234972694
 21
24.67718644093745
 31
0.0
210
0.0
220
0.0
230
1.0
 40
0.3419987131
 41
0.1689292745891327
 42
1.08011649780915
  0
SPLINE
  5
6D
330
1F
100
AcDbEntity
  8
0
  6
Continuous
 62
     7
370
    15
100
AcDbSpline
210
0.0
220
0.0
230
1.0
 70
     8
 71
     3
 72
    12
 73
     8
 74
     0
 42
0.00000001
 43
0.00000001
 12
1.0
 22
0.0
 32
0.0
 13
1.0
 23
0.0
 33
0.0
 40
0.0
 40
0.0
 40
0.0
 40
0.0
 40
0.2500000000000018
 40
0.2500000000000018
 40
0.5000000000000037
 40
0.5000000000000037
 40
1.0
 40
1.0
 40
1.0
 40
1.0
 10
160.9719102178859
 20
100.5915067583485
 30
0.0
 10
160.9082736636722
 20
100.5915067583485
 30
0.0
 10
160.848693536806
 20
100.5997635292802
 30
0.0
 10
160.7500567954396
 20
100.6239655912881
 30
0.0
 10
160.7110981710593
 20
100.6392124103222
 30
0.0
 10
160.6117192315514
 20
100.6888172823823
 30
0.0
 10
160.569761326386
 20
100.7262489305011
 30
0.0
 10
160.5388975159935
 20
100.7655963966188
 30
0.0
  0
LINE
  5
6E
330
1F
100
AcDbEntity
  8
0
  6
Continuous
 62
     7
370
    15
100
AcDbLine
 10
163.9163962887
 20
100.591506505
 30
0.0
 11
160.9719100729
 21
100.591506505
 31
0.0
  0
SPLINE
  5
6F
330
1F
100
AcDbEntity
  8
0
  6
Continuous
 62
     7
370
    15
100
AcDbSpline
210
0.0
220
0.0
230
1.0
 70
     8
 71
     3
 72
    12
 73
     8
 74
     0
 42
0.00000001
 43
0.00000001
 12
1.0
 22
0.0
 32
0.0
 13
1.0
 23
0.0
 33
0.0
 40
0.0
 40
0.0
 40
0.0
 40
0.0
 40
0.4999999999999963
 40
0.4999999999999963
 40
0.7499999999999981
 40
0.7499999999999981
 40
1.0
 40
1.0
 40
1.0
 40
1.0
 10
164.3494092926452
 20
100.7655963966188
 30
0.0
 10
164.318557582081
 20
100.7262643562563
 30
0.0
 10
164.2766647186204
 20
100.6888525907281
 30
0.0
 10
164.1771438408272
 20
100.6391816661122
 30
0.0
 10
164.1375296761029
 20
100.6237925835043
 30
0.0
 10
164.0404266423234
 20
100.5999593678371
 30
0.0
 10
163.979927969673
 20
100.5915067583483
 30
0.0
 10
163.9163965907531
 20
100.5915067583483
 30
0.0
  0
ELLIPSE
  5
70
330
1F
100
AcDbEntity
  8
0
  6
Continuous
 62
     7
370
    15
100
AcDbEllipse
 10
151.3878957493
 20
124.4182378739
 30
0.0
 11
-11.70927234972717
 21
24.67718644093745
 31
0.0
210
0.0
220
0.0
230
1.0
 40
0.3419987131
 41
3.310521928178956
 42
4.221709151398944
  0
SPLINE
  5
71
330
1F
100
AcDbEntity
  8
0
  6
Continuous
 62
     7
370
    15
100
AcDbSpline
210
0.0
220
0.0
230
1.0
 70
     8
 71
     3
 72
    12
 73
     8
 74
     0
 42
0.00000001
 43
0.00000001
 12
1.0
 22
0.0
 32
0.0
 13
1.0
 23
0.0
 33
0.0
 40
0.0
 40
0.0
 40
0.0
 40
0.0
 40
0.2499999999999974
 40
0.2499999999999974
 40
0.4999999999999949
 40
0.4999999999999949
 40
1.0
 40
1.0
 40
1.0
 40
1.0
 10
163.916396590753
 20
116.8494279046697
 30
0.0
 10
163.9800331449667
 20
116.8494279046697
 30
0.0
 10
164.0396132718329
 20
116.8233810016118
 30
0.0
 10
164.1382500131993
 20
116.7478938427118
 30
0.0
 10
164.1772086375796
 20
116.7006748041811
 30
0.0
 10
164.2765875770875
 20
116.5489351530876
 30
0.0
 10
164.318545482253
 20
116.4367329289034
 30
0.0
 10
164.3494092926454
 20
116.3217848758061
 30
0.0
  0
LINE
  5
72
330
1F
100
AcDbEntity
  8
0
  6
Continuous
 62
     7
370
    15
100
AcDbLine
 10
160.9719100729
 20
116.8494277387
 30
0.0
 11
163.9163962887
 21
116.8494277387
 31
0.0
  0
SPLINE
  5
73
330
1F
100
AcDbEntity
  8
0
  6
Continuous
 62
     7
370
    15
100
AcDbSpline
210
0.0
220
0.0
230
1.0
 70
     8
 71
     3
 72
    12
 73
     8
 74
     0
 42
0.00000001
 43
0.00000001
 12
1.0
 22
0.0
 32
0.0
 13
1.0
 23
0.0
 33
0.0
 40
0.0
 40
0.0
 40
0.0
 40
0.0
 40
0.5
 40
0.5
 40
0.75
 40
0.75
 40
1.0
 40
1.0
 40
1.0
 40
1.0
 10
160.5388975159937
 20
116.3217848758061
 30
0.0
 10
160.5697492265579
 20
116.436687864743
 30
0.0
 10
160.6116420900185
 20
116.5488267607918
 30
0.0
 10
160.7111629678117
 20
116.7007690423927
 30
0.0
 10
160.7507771325361
 20
116.7484336519176
 30
0.0
 10
160.8478801663155
 20
116.822769982533
 30
0.0
 10
160.9083788389659
 20
116.8494279046701
 30
0.0
 10
160.9719102178858
 20
116.8494279046701
 30
0.0
  0
ELLIPSE
  5
74
330
1F
100
AcDbEntity
  8
0
  6
Continuous
 62
     7
370
    15
100
AcDbEllipse
 10
173.5004110593
 20
124.4182378739
 30
0.0
 11
11.70927234972709
 21
24.67718644093745
 31
0.0
210
0.0
220
0.0
230
1.0
 40
0.3419987131
 41
2.061476155780655
 42
2.972663379000676
  0
LINE
  5
75
330
1F
100
AcDbEntity
  8
0
  6
Continuous
 62
     7
370
    15
100
AcDbLine
 10
152.4441534043
 20
99.7182369917
 30
0.0
 11
152.4441534043
 21
149.118238756
 31
0.0
  0
SPLINE
  5
76
330
1F
100
AcDbEntity
  8
0
  6
Continuous
 62
     7
370
    15
100
AcDbSpline
210
0.0
220
0.0
230
1.0
 70
     8
 71
     3
 72
    16
 73
    12
 74
     0
 42
0.00000001
 43
0.00000001
 12
1.0
 22
0.0
 32
0.0
 13
1.0
 23
0.0
 33
0.0
 40
0.0
 40
0.0
 40
0.0
 40
0.0
 40
0.2500000000000006
 40
0.2500000000000006
 40
0.5000000000000011
 40
0.5000000000000011
 40
0.6250000000000009
 40
0.6250000000000009
 40
0.7500000000000008
 40
0.7500000000000008
 40
1.0
 40
1.0
 40
1.0
 40
1.0
 10
151.4032923761904
 20
107.0690805926579
 30
0.0
 10
151.4350203373831
 20
107.068283475837
 30
0.0
 10
151.4696479277336
 20
107.0676924009817
 30
0.0
 10
151.5493416897973
 20
107.0666808755472
 30
0.0
 10
151.594383149801
 20
107.0662807673724
 30
0.0
 10
151.6772358766514
 20
107.0653228954685
 30
0.0
 10
151.7071503378513
 20
107.0649412142081
 30
0.0
 10
151.7731366684092
 20
107.0638650001496
 30
0.0
 10
151.809870293871
 20
107.0631474342554
 30
0.0
 10
151.9223670134407
 20
107.0603865565738
 30
0.0
 10
151.9927083615391
 20
107.0578994647022
 30
0.0
 10
152.0491765154442
 20
107.0557261862951
 30
0.0
  0
SPLINE
  5
77
330
1F
100
AcDbEntity
  8
0
  6
Continuous
 62
     7
370
    15
100
AcDbSpline
210
0.0
220
0.0
230
1.0
 70
     8
 71
     3
 72
    14
 73
    10
 74
     0
 42
0.00000001
 43
0.00000001
 12
1.0
 22
0.0
 32
0.0
 13
1.0
 23
0.0
 33
0.0
 40
0.0
 40
0.0
 40
0.0
 40
0.0
 40
0.1250000000000004
 40
0.1250000000000004
 40
0.2500000000000007
 40
0.2500000000000007
 40
0.5000000000000014
 40
0.5000000000000014
 40
1.0
 40
1.0
 40
1.0
 40
1.0
 10
152.0491765154126
 20
107.0557261863178
 30
0.0
 10
152.0617683093574
 20
107.0552415684954
 30
0.0
 10
152.0766394176515
 20
107.0535313905631
 30
0.0
 10
152.1088235090846
 20
107.0454158418122
 30
0.0
 10
152.1244276405605
 20
107.0392000535509
 30
0.0
 10
152.1603147802725
 20
107.0209809418493
 30
0.0
 10
152.1741668215412
 20
107.0092159135157
 30
0.0
 10
152.2076565634738
 20
106.9774207770984
 30
0.0
 10
152.2183188240496
 20
106.9596273452552
 30
0.0
 10
152.2264567809445
 20
106.9431962144108
 30
0.0
  0
LINE
  5
78
330
1F
100
AcDbEntity
  8
0
  6
Continuous
 62
     7
370
    15
100
AcDbLine
 10
152.2441534094
 20
118.4337578467
 30
0.0
 11
152.2441534094
 21
106.5784168183
 31
0.0
  0
SPLINE
  5
79
330
1F
100
AcDbEntity
  8
0
  6
Continuous
 62
     7
370
    15
100
AcDbSpline
210
0.0
220
0.0
230
1.0
 70
     8
 71
     3
 72
    16
 73
    12
 74
     0
 42
0.00000001
 43
0.00000001
 12
1.0
 22
0.0
 32
0.0
 13
1.0
 23
0.0
 33
0.0
 40
0.0
 40
0.0
 40
0.0
 40
0.0
 40
0.4999999999999983
 40
0.4999999999999983
 40
0.7499999999999992
 40
0.7499999999999992
 40
0.8750000000000004
 40
0.8750000000000004
 40
0.9375000000000002
 40
0.9375000000000002
 40
1.0
 40
1.0
 40
1.0
 40
1.0
 10
152.2441534043195
 20
118.4337576412758
 30
0.0
 10
152.2441534043195
 20
118.5482873719748
 30
0.0
 10
152.2400961022044
 20
118.6636034471643
 30
0.0
 10
152.2144388594096
 20
118.8385265369919
 30
0.0
 10
152.2031234136675
 20
118.8983558399868
 30
0.0
 10
152.1690920463589
 20
118.982947026235
 30
0.0
 10
152.1552130651551
 20
119.011616612379
 30
0.0
 10
152.1192773833877
 20
119.0414243993253
 30
0.0
 10
152.1043270641249
 20
119.0477595526849
 30
0.0
 10
152.0744285513831
 20
119.0465340898147
 30
0.0
 10
152.0608956910178
 20
119.0399355037798
 30
0.0
 10
152.0491765154438
 20
119.0312878157234
 30
0.0
  0
SPLINE
  5
7A
330
1F
100
AcDbEntity
  8
0
  6
Continuous
 62
     7
370
    15
100
AcDbSpline
210
0.0
220
0.0
230
1.0
 70
     8
 71
     3
 72
    14
 73
    10
 74
     0
 42
0.00000001
 43
0.00000001
 12
1.0
 22
0.0
 32
0.0
 13
1.0
 23
0.0
 33
0.0
 40
0.0
 40
0.0
 40
0.0
 40
0.0
 40
0.25
 40
0.25
 40
0.5
 40
0.5
 40
0.75
 40
0.75
 40
1.0
 40
1.0
 40
1.0
 40
1.0
 10
152.0491765154507
 20
119.0312878157148
 30
0.0
 10
151.9927168495669
 20
118.989625706016
 30
0.0
 10
151.9218443747047
 20
118.9587922254278
 30
0.0
 10
151.7733780168228
 20
118.964506734041
 30
0.0
 10
151.704182813615
 20
119.0000776614739
 30
0.0
 10
151.5944656275454
 20
119.0870215739478
 30
0.0
 10
151.5492197386134
 20
119.1394538873129
 30
0.0
 10
151.4696026076466
 20
119.2480069688314
 30
0.0
 10
151.4349999881896
 20
119.3049900550739
 30
0.0
 10
151.4032923761908
 20
119.3635561377318
 30
0.0
  0
SPLINE
  5
7B
330
1F
100
AcDbEntity
  8
0
  6
Continuous
 62
     7
370
    15
100
AcDbSpline
210
0.0
220
0.0
230
1.0
 70
     8
 71
     3
 72
    10
 73
     6
 74
     0
 42
0.00000001
 43
0.00000001
 12
1.0
 22
0.0
 32
0.0
 13
1.0
 23
0.0
 33
0.0
 40
0.0
 40
0.0
 40
0.0
 40
0.0
 40
0.5
 40
0.5
 40
1.0
 40
1.0
 40
1.0
 40
1.0
 10
151.1228330607599
 20
120.2163747293781
 30
0.0
 10
151.1537116443718
 20
120.0667461775184
 30
0.0
 10
151.1897043520952
 20
119.9202507599948
 30
0.0
 10
151.2790446035923
 20
119.635059121454
 30
0.0
 10
151.3315029064378
 20
119.4961560957381
 30
0.0
 10
151.403292376191
 20
119.3635561377316
 30
0.0
  0
SPLINE
  5
7C
330
1F
100
AcDbEntity
  8
0
  6
Continuous
 62
     7
370
    15
100
AcDbSpline
210
0.0
220
0.0
230
1.0
 70
     8
 71
     3
 72
    10
 73
     6
 74
     0
 42
0.00000001
 43
0.00000001
 12
1.0
 22
0.0
 32
0.0
 13
1.0
 23
0.0
 33
0.0
 40
0.0
 40
0.0
 40
0.0
 40
0.0
 40
0.5
 40
0.5
 40
1.0
 40
1.0
 40
1.0
 40
1.0
 10
151.4032923761903
 20
129.4729196099681
 30
0.0
 10
151.3315029064374
 20
129.3403196519617
 30
0.0
 10
151.2790446035919
 20
129.201416626246
 30
0.0
 10
151.189704352095
 20
128.9162249877057
 30
0.0
 10
151.1537116443718
 20
128.7697295701823
 30
0.0
 10
151.1228330607599
 20
128.6201010183229
 30
0.0
  0
SPLINE
  5
7D
330
1F
100
AcDbEntity
  8
0
  6
Continuous
 62
     7
370
    15
100
AcDbSpline
210
0.0
220
0.0
230
1.0
 70
     8
 71
     3
 72
    14
 73
    10
 74
     0
 42
0.00000001
 43
0.00000001
 12
1.0
 22
0.0
 32
0.0
 13
1.0
 23
0.0
 33
0.0
 40
0.0
 40
0.0
 40
0.0
 40
0.0
 40
0.25
 40
0.25
 40
0.5
 40
0.5
 40
0.75
 40
0.75
 40
1.0
 40
1.0
 40
1.0
 40
1.0
 10
151.4032923761896
 20
129.4729196099669
 30
0.0
 10
151.435001075675
 20
129.5314877012854
 30
0.0
 10
151.4696088943156
 20
129.5884819632255
 30
0.0
 10
151.5492673048049
 20
129.6970820979894
 30
0.0
 10
151.5943295746998
 20
129.749410233368
 30
0.0
 10
151.7049114202782
 20
129.8369112447303
 30
0.0
 10
151.7725555410935
 20
129.8719567009845
 30
0.0
 10
151.9228038314906
 20
129.8777010897406
 30
0.0
 10
151.9927562297209
 20
129.8468209826906
 30
0.0
 10
152.0491765154445
 20
129.8051879319775
 30
0.0
  0
SPLINE
  5
7E
330
1F
100
AcDbEntity
  8
0
  6
Continuous
 62
     7
370
    15
100
AcDbSpline
210
0.0
220
0.0
230
1.0
 70
     8
 71
     3
 72
    16
 73
    12
 74
     0
 42
0.00000001
 43
0.00000001
 12
1.0
 22
0.0
 32
0.0
 13
1.0
 23
0.0
 33
0.0
 40
0.0
 40
0.0
 40
0.0
 40
0.0
 40
0.0625000000000005
 40
0.0625000000000005
 40
0.1250000000000011
 40
0.1250000000000011
 40
0.249999999999999
 40
0.249999999999999
 40
0.4999999999999982
 40
0.4999999999999982
 40
1.0
 40
1.0
 40
1.0
 40
1.0
 10
152.0491765154126
 20
129.8051879319241
 30
0.0
 10
152.0609107498595
 20
129.7965291317799
 30
0.0
 10
152.0744425053385
 20
129.7899250465446
 30
0.0
 10
152.1044299657683
 20
129.7887280793704
 30
0.0
 10
152.1194246721766
 20
129.7951498264363
 30
0.0
 10
152.1551650945713
 20
129.8248669798456
 30
0.0
 10
152.1691784315726
 20
129.853674377229
 30
0.0
 10
152.2033225203539
 20
129.9387540988549
 30
0.0
 10
152.2142944244723
 20
129.9971290481246
 30
0.0
 10
152.2401399647386
 20
130.1728445729132
 30
0.0
 10
152.2441534043195
 20
130.2886395807777
 30
0.0
 10
152.2441534043195
 20
130.4027181064251
 30
0.0
  0
LINE
  5
7F
330
1F
100
AcDbEntity
  8
0
  6
Continuous
 62
     7
370
    15
100
AcDbLine
 10
152.2441534094
 20
142.2580589294
 30
0.0
 11
152.2441534094
 21
130.402717901
 31
0.0
  0
SPLINE
  5
80
330
1F
100
AcDbEntity
  8
0
  6
Continuous
 62
     7
370
    15
100
AcDbSpline
210
0.0
220
0.0
230
1.0
 70
     8
 71
     3
 72
    16
 73
    12
 74
     0
 42
0.00000001
 43
0.00000001
 12
1.0
 22
0.0
 32
0.0
 13
1.0
 23
0.0
 33
0.0
 40
0.0
 40
0.0
 40
0.0
 40
0.0
 40
0.500000000000001
 40
0.500000000000001
 40
0.7499999999999996
 40
0.7499999999999996
 40
0.8749999999999998
 40
0.8749999999999998
 40
0.9374999999999999
 40
0.9374999999999999
 40
1.0
 40
1.0
 40
1.0
 40
1.0
 10
152.2441534043196
 20
141.9649923395181
 30
0.0
 10
152.2441534043193
 20
141.9429773249387
 30
0.0
 10
152.2400288614654
 20
141.917623690235
 30
0.0
 10
152.2141124158323
 20
141.8704631880464
 30
0.0
 10
152.2028348348124
 20
141.8532641998177
 30
0.0
 10
152.1690994562711
 20
141.8232862342485
 30
0.0
 10
152.1547106410267
 20
141.8119348257066
 30
0.0
 10
152.1194639515876
 20
141.7952469662291
 30
0.0
 10
152.1042585271307
 20
141.7896839393439
 30
0.0
 10
152.0746119479614
 20
141.7827143563087
 30
0.0
 10
152.0609066119639
 20
141.7812010152533
 30
0.0
 10
152.0491765154402
 20
141.7807495614035
 30
0.0
  0
SPLINE
  5
81
330
1F
100
AcDbEntity
  8
0
  6
Continuous
 62
     7
370
    15
100
AcDbSpline
210
0.0
220
0.0
230
1.0
 70
     8
 71
     3
 72
    14
 73
    10
 74
     0
 42
0.00000001
 43
0.00000001
 12
1.0
 22
0.0
 32
0.0
 13
1.0
 23
0.0
 33
0.0
 40
0.0
 40
0.0
 40
0.0
 40
0.0
 40
0.2500000000000005
 40
0.2500000000000005
 40
0.500000000000001
 40
0.500000000000001
 40
0.7500000000000004
 40
0.7500000000000004
 40
1.0
 40
1.0
 40
1.0
 40
1.0
 10
152.0491765154506
 20
141.780749561406
 30
0.0
 10
151.9927294333924
 20
141.7785770939867
 30
0.0
 10
151.9218790493496
 20
141.7760789960693
 30
0.0
 10
151.7734426145332
 20
141.7724325372811
 30
0.0
 10
151.7042533628463
 20
141.7714647904299
 30
0.0
 10
151.5945418146053
 20
141.7701972310672
 30
0.0
 10
151.549300165263
 20
141.7697943901388
 30
0.0
 10
151.4696521470791
 20
141.7687833552112
 30
0.0
 10
151.4350252313131
 20
141.7681923948166
 30
0.0
 10
151.4032923761917
 20
141.7673951550431
 30
0.0
  0
SPLINE
  5
82
330
1F
100
AcDbEntity
  8
0
  6
Continuous
 62
     7
370
    15
100
AcDbSpline
210
0.0
220
0.0
230
1.0
 70
     8
 71
     3
 72
    18
 73
    14
 74
     0
 42
0.00000001
 43
0.00000001
 12
1.0
 22
0.0
 32
0.0
 13
1.0
 23
0.0
 33
0.0
 40
0.0
 40
0.0
 40
0.0
 40
0.0
 40
0.25
 40
0.25
 40
0.375
 40
0.375
 40
0.5
 40
0.5
 40
0.625
 40
0.625
 40
0.75
 40
0.75
 40
1.0
 40
1.0
 40
1.0
 40
1.0
 10
151.1228330607599
 20
128.6201010183229
 30
0.0
 10
150.9875474544575
 20
127.9645466829017
 30
0.0
 10
150.8863797082145
 20
127.2849255891041
 30
0.0
 10
150.7835183653456
 20
126.22956158261
 30
0.0
 10
150.7574155198223
 20
125.8707475180254
 30
0.0
 10
150.7225255362775
 20
125.1446345739025
 30
0.0
 10
150.7139392779875
 20
124.7825448948863
 30
0.0
 10
150.7138395684219
 20
124.0602352374679
 30
0.0
 10
150.7223279395704
 20
123.7000154353596
 30
0.0
 10
150.756471319091
 20
122.9814493662657
 30
0.0
 10
150.7822683009448
 20
122.6216836503503
 30
0.0
 10
150.8856694323327
 20
121.5550390633559
 30
0.0
 10
150.9875274245041
 20
120.8720261240735
 30
0.0
 10
151.1228330607599
 20
120.2163747293781
 30
0.0
  0
LINE
  5
83
330
1F
100
AcDbEntity
  8
0
  6
Continuous
 62
     7
370
    15
100
AcDbLine
 10
150.2441534162
 20
129.558390168
 30
0.0
 11
150.2441534162
 21
119.2780855797
 31
0.0
  0
LINE
  5
84
330
1F
100
AcDbEntity
  8
0
  6
Continuous
 62
     7
370
    15
100
AcDbLine
 10
123.9441533894
 20
129.2280165232
 30
0.0
 11
123.9441533894
 21
119.6084592245
 31
0.0
  0
LINE
  5
85
330
1F
100
AcDbEntity
  8
0
  6
Continuous
 62
     7
370
    15
100
AcDbLine
 10
122.4441540749
 20
128.7950036801
 30
0.0
 11
122.4441540749
 21
120.0414720676
 31
0.0
  0
LINE
  5
86
330
1F
100
AcDbEntity
  8
0
  6
Continuous
 62
     7
370
    15
100
AcDbLine
 10
123.9441533894
 20
107.5588871478
 30
0.0
 11
123.9441533894
 21
119.6084592245
 31
0.0
  0
LINE
  5
87
330
1F
100
AcDbEntity
  8
0
  6
Continuous
 62
     7
370
    15
100
AcDbLine
 10
150.2441534162
 20
106.8981398582
 30
0.0
 11
150.2441534162
 21
119.2780855797
 31
0.0
  0
LINE
  5
88
330
1F
100
AcDbEntity
  8
0
  6
Continuous
 62
     7
370
    15
100
AcDbLine
 10
123.9441533894
 20
107.5588871478
 30
0.0
 11
150.2441534162
 21
106.8981398582
 31
0.0
  0
LINE
  5
89
330
1F
100
AcDbEntity
  8
0
  6
Continuous
 62
     7
370
    15
100
AcDbLine
 10
150.2441534162
 20
129.558390168
 30
0.0
 11
150.2441534162
 21
141.9383358895
 31
0.0
  0
ARC
  5
8A
330
1F
100
AcDbEntity
  8
0
  6
Continuous
 62
     7
370
    15
100
AcDbCircle
 10
150.4440903153
 20
141.9433597695
 30
0.0
 40
0.2000000000000059
100
AcDbArc
 50
181.4391666667
 51
271.4391666667
  0
LINE
  5
8B
330
1F
100
AcDbEntity
  8
0
  6
Continuous
 62
     7
370
    15
100
AcDbLine
 10
123.9441533894
 20
129.2280165232
 30
0.0
 11
123.9441533894
 21
141.2775885999
 31
0.0
  0
LINE
  5
8C
330
1F
100
AcDbEntity
  8
0
  6
Continuous
 62
     7
370
    15
100
AcDbLine
 10
123.9441533894
 20
141.2775885999
 30
0.0
 11
150.2441534162
 21
141.9383358895
 31
0.0
  0
ARC
  5
8D
330
1F
100
AcDbEntity
  8
0
  6
Continuous
 62
     7
370
    15
100
AcDbCircle
 10
150.4440903153
 20
106.8931159782
 30
0.0
 40
0.2000000000000063
100
AcDbArc
 50
88.5608333333
 51
178.5608333333
  0
LINE
  5
8E
330
1F
100
AcDbEntity
  8
0
  6
Continuous
 62
     7
370
    15
100
AcDbLine
 10
150.4491135334
 20
107.0930526345
 30
0.0
 11
151.4032923938
 21
107.0690803915
 31
0.0
  0
LINE
  5
8F
330
1F
100
AcDbEntity
  8
0
  6
Continuous
 62
     7
370
    15
100
AcDbLine
 10
150.4491135334
 20
141.7434231132
 30
0.0
 11
151.4032923938
 21
141.7673953562
 31
0.0
  0
LINE
  5
90
330
1F
100
AcDbEntity
  8
0
  6
Continuous
 62
     7
370
    15
100
AcDbLine
 10
122.4441540749
 20
140.4115629136
 30
0.0
 11
123.9441533894
 21
141.2775885999
 31
0.0
  0
LINE
  5
91
330
1F
100
AcDbEntity
  8
0
  6
Continuous
 62
     7
370
    15
100
AcDbLine
 10
122.4441540749
 20
128.7950036801
 30
0.0
 11
122.4441540749
 21
140.4115629136
 31
0.0
  0
LINE
  5
92
330
1F
100
AcDbEntity
  8
0
  6
Continuous
 62
     7
370
    15
100
AcDbLine
 10
122.4441540749
 20
108.4249128341
 30
0.0
 11
123.9441533894
 21
107.5588871478
 31
0.0
  0
LINE
  5
93
330
1F
100
AcDbEntity
  8
0
  6
Continuous
 62
     7
370
    15
100
AcDbLine
 10
122.4441540749
 20
108.4249128341
 30
0.0
 11
122.4441540749
 21
120.0414720676
 31
0.0
  0
ELLIPSE
  5
94
330
1F
100
AcDbEntity
  8
0
  6
Continuous
 62
     7
370
    15
100
AcDbEllipse
 10
234.433818646
 20
124.4182378739
 30
0.0
 11
0.9567516492558923
 21
15.99804791108562
 31
0.0
210
0.0
220
0.0
230
1.0
 40
0.2612235458
 41
0.8543493255849746
 42
2.737364376346245
  0
ELLIPSE
  5
95
330
1F
100
AcDbEntity
  8
0
  6
Continuous
 62
     7
370
    15
100
AcDbEllipse
 10
231.6405220725
 20
116.3639748232
 30
0.0
 11
0.009879580437370809
 21
2.202529431431714
 31
0.0
210
0.0
220
0.0
230
1.0
 40
0.2522252297
 41
5.793552701198799
 42
9.949974719941133
  0
SPLINE
  5
96
330
1F
100
AcDbEntity
  8
0
  6
Continuous
 62
     7
370
    15
100
AcDbSpline
210
0.0
220
0.0
230
1.0
 70
     8
 71
     3
 72
    14
 73
    10
 74
     0
 42
0.00000001
 43
0.00000001
 12
1.0
 22
0.0
 32
0.0
 13
1.0
 23
0.0
 33
0.0
 40
0.0
 40
0.0
 40
0.0
 40
0.0
 40
0.25
 40
0.25
 40
0.5
 40
0.5
 40
0.75
 40
0.75
 40
1.0
 40
1.0
 40
1.0
 40
1.0
 10
234.4947012891165
 20
108.9479109819208
 30
0.0
 10
234.1680684259474
 20
108.9577240053777
 30
0.0
 10
233.8571713845907
 20
108.9821582022627
 30
0.0
 10
233.2738151040016
 20
109.0639083775992
 30
0.0
 10
233.0138027770811
 20
109.1198175922405
 30
0.0
 10
232.5625388960864
 20
109.2655384760248
 30
0.0
 10
232.3775927314225
 20
109.3534384040345
 30
0.0
 10
232.0845285827298
 20
109.5607645870053
 30
0.0
 10
231.9799098936456
 20
109.6772391094471
 30
0.0
 10
231.9105092000522
 20
109.8078317451898
 30
0.0
  0
ELLIPSE
  5
97
330
1F
100
AcDbEntity
  8
0
  6
Continuous
 62
     7
370
    15
100
AcDbEllipse
 10
303.0933689504
 20
124.4182378739
 30
0.0
 11
152.2294392357668
 21
3.362096597003855
 31
0.0
210
0.0
220
0.0
230
1.0
 40
0.1027578619
 41
4.242653439382563
 42
4.253918677003043
  0
ELLIPSE
  5
98
330
1F
100
AcDbEntity
  8
0
  6
Continuous
 62
     7
370
    15
100
AcDbEllipse
 10
303.0933689504
 20
124.4182378739
 30
0.0
 11
152.2294392357668
 21
3.362096597003855
 31
0.0
210
0.0
220
0.0
230
1.0
 40
0.1027578619
 41
2.024727675470492
 42
2.035992913090974
  0
SPLINE
  5
99
330
1F
100
AcDbEntity
  8
0
  6
Continuous
 62
     7
370
    15
100
AcDbSpline
210
0.0
220
0.0
230
1.0
 70
     8
 71
     3
 72
    18
 73
    14
 74
     0
 42
0.00000001
 43
0.00000001
 12
1.0
 22
0.0
 32
0.0
 13
1.0
 23
0.0
 33
0.0
 40
0.0
 40
0.0
 40
0.0
 40
0.0
 40
0.2499999999999895
 40
0.2499999999999895
 40
0.3749999999999874
 40
0.3749999999999874
 40
0.4999999999999853
 40
0.4999999999999853
 40
0.7499999999999879
 40
0.7499999999999879
 40
0.8749999999999939
 40
0.8749999999999939
 40
1.0
 40
1.0
 40
1.0
 40
1.0
 10
231.9105092000522
 20
135.1127857115551
 30
0.0
 10
231.9800082710532
 20
135.351417266404
 30
0.0
 10
232.084670828235
 20
135.5732237871844
 30
0.0
 10
232.3033445070018
 20
135.8808522912518
 30
0.0
 10
232.3874276749236
 20
135.9797799279825
 30
0.0
 10
232.5729275517597
 20
136.1627401358418
 30
0.0
 10
232.6746669327936
 20
136.2475030176527
 30
0.0
 10
233.0082242668736
 20
136.4820983319001
 30
0.0
 10
233.2741944408954
 20
136.6138086125956
 30
0.0
 10
233.7058643103895
 20
136.7565162359476
 30
0.0
 10
233.8558785387632
 20
136.7956625425436
 30
0.0
 10
234.1689357851944
 20
136.856780069958
 30
0.0
 10
234.3309244470141
 20
136.8783956383341
 30
0.0
 10
234.4947012891165
 20
136.8904738160533
 30
0.0
  0
SPLINE
  5
9A
330
1F
100
AcDbEntity
  8
0
  6
Continuous
 62
     7
370
    15
100
AcDbSpline
210
0.0
220
0.0
230
1.0
 70
     8
 71
     3
 72
    24
 73
    20
 74
     0
 42
0.00000001
 43
0.00000001
 12
1.0
 22
0.0
 32
0.0
 13
1.0
 23
0.0
 33
0.0
 40
0.0
 40
0.0
 40
0.0
 40
0.0
 40
0.1249999999999989
 40
0.1249999999999989
 40
0.2499999999999977
 40
0.2499999999999977
 40
0.3749999999999966
 40
0.3749999999999966
 40
0.4999999999999954
 40
0.4999999999999954
 40
0.6249999999999953
 40
0.6249999999999953
 40
0.6874999999999953
 40
0.6874999999999953
 40
0.7499999999999952
 40
0.7499999999999952
 40
0.8749999999999977
 40
0.8749999999999977
 40
1.0
 40
1.0
 40
1.0
 40
1.0
 10
231.9105092000522
 20
118.3065476749779
 30
0.0
 10
231.9525841110913
 20
118.2166082067685
 30
0.0
 10
232.00195336072
 20
118.1061821093598
 30
0.0
 10
232.1057370993606
 20
117.8563398929197
 30
0.0
 10
232.1608124257833
 20
117.7153163188187
 30
0.0
 10
232.2658015005252
 20
117.4126326172705
 30
0.0
 10
232.3158346844153
 20
117.2513234436977
 30
0.0
 10
232.4005989686118
 20
116.9056609282226
 30
0.0
 10
232.4350629456652
 20
116.7216443284451
 30
0.0
 10
232.4694730487608
 20
116.3374803578086
 30
0.0
 10
232.4685387595065
 20
116.1347169881976
 30
0.0
 10
232.4298667176519
 20
115.8327677656116
 30
0.0
 10
232.4106395151934
 20
115.7310218577307
 30
0.0
 10
232.3627778410253
 20
115.5357231269631
 30
0.0
 10
232.3341026449525
 20
115.4410648058681
 30
0.0
 10
232.2381420945926
 20
115.1649626018744
 30
0.0
 10
232.163273302886
 20
114.9973306507975
 30
0.0
 10
232.0232241596384
 20
114.6976392025658
 30
0.0
 10
231.9598470788832
 20
114.5690188217197
 30
0.0
 10
231.9105092000522
 20
114.4570412339296
 30
0.0
  0
SPLINE
  5
9B
330
1F
100
AcDbEntity
  8
0
  6
Continuous
 62
     7
370
    15
100
AcDbSpline
210
0.0
220
0.0
230
1.0
 70
     8
 71
     3
 72
    10
 73
     6
 74
     0
 42
0.00000001
 43
0.00000001
 12
1.0
 22
0.0
 32
0.0
 13
1.0
 23
0.0
 33
0.0
 40
0.0
 40
0.0
 40
0.0
 40
0.0
 40
0.5
 40
0.5
 40
1.0
 40
1.0
 40
1.0
 40
1.0
 10
236.737046623133
 20
108.5652533081189
 30
0.0
 10
236.647224541359
 20
108.6648806004341
 30
0.0
 10
236.5404260756491
 20
108.7469258129077
 30
0.0
 10
236.2989724665238
 20
108.8647295623752
 30
0.0
 10
236.1669552419517
 20
108.8989818900824
 30
0.0
 10
236.0299398419464
 20
108.9029002400411
 30
0.0
  0
SPLINE
  5
9C
330
1F
100
AcDbEntity
  8
0
  6
Continuous
 62
     7
370
    15
100
AcDbSpline
210
0.0
220
0.0
230
1.0
 70
     8
 71
     3
 72
     8
 73
     4
 74
     0
 42
0.00000001
 43
0.00000001
 12
1.0
 22
0.0
 32
0.0
 13
1.0
 23
0.0
 33
0.0
 40
0.0
 40
0.0
 40
0.0
 40
0.0
 40
1.0
 40
1.0
 40
1.0
 40
1.0
 10
236.0299398419464
 20
137.0025818495838
 30
0.0
 10
236.3035542400732
 20
137.0223649034358
 30
0.0
 10
236.5575903986185
 20
137.1642435130927
 30
0.0
 10
236.7370466231337
 20
137.3711327409176
 30
0.0
  0
SPLINE
  5
9D
330
1F
100
AcDbEntity
  8
0
  6
Continuous
 62
     7
370
    15
100
AcDbSpline
210
0.0
220
0.0
230
1.0
 70
     8
 71
     3
 72
     8
 73
     4
 74
     0
 42
0.00000001
 43
0.00000001
 12
1.0
 22
0.0
 32
0.0
 13
1.0
 23
0.0
 33
0.0
 40
0.0
 40
0.0
 40
0.0
 40
0.0
 40
1.0
 40
1.0
 40
1.0
 40
1.0
 10
236.737046623133
 20
137.3711327409184
 30
0.0
 10
236.8060018001925
 20
137.4506289154029
 30
0.0
 10
236.8750384948954
 20
137.5300542048847
 30
0.0
 10
236.9441534043195
 20
137.6094114814736
 30
0.0
  0
ELLIPSE
  5
9E
330
1F
100
AcDbEntity
  8
0
  6
Continuous
 62
     7
370
    15
100
AcDbEllipse
 10
303.0933689504
 20
124.4182378739
 30
0.0
 11
156.9866092118844
 21
3.467162115660201
 31
0.0
210
0.0
220
0.0
230
1.0
 40
0.1027578619
 41
1.90827464006069
 42
2.003479473614873
  0
LINE
  5
9F
330
1F
100
AcDbEntity
  8
0
  6
Continuous
 62
     7
370
    15
100
AcDbLine
 10
257.6172271133
 20
116.8115881025
 30
0.0
 11
250.7775568725
 21
138.4918966084
 31
0.0
  0
LINE
  5
A0
330
1F
100
AcDbEntity
  8
0
  6
Continuous
 62
     7
370
    15
100
AcDbLine
 10
243.2136603952
 20
121.0650395821
 30
0.0
 11
257.6172271133
 21
116.8115881025
 31
0.0
  0
ARC
  5
A1
330
1F
100
AcDbEntity
  8
0
  6
Continuous
 62
     7
370
    15
100
AcDbCircle
 10
242.5772801644
 20
119.0945597784
 30
0.0
 40
2.07069323054624
100
AcDbArc
 50
72.1017747869
 51
251.8346747535
  0
LINE
  5
A2
330
1F
100
AcDbEntity
  8
0
  6
Continuous
 62
     7
370
    15
100
AcDbLine
 10
244.906305647
 20
116.2486566915
 30
0.0
 11
241.9317209483
 21
117.1270680367
 31
0.0
  0
LINE
  5
A3
330
1F
100
AcDbEntity
  8
0
  6
Continuous
 62
     7
370
    15
100
AcDbLine
 10
247.9064011336
 20
106.7389898687
 30
0.0
 11
244.906305647
 21
116.2486566915
 31
0.0
  0
ARC
  5
A4
330
1F
100
AcDbEntity
  8
0
  6
Continuous
 62
     7
370
    15
100
AcDbCircle
 10
244.305993474
 20
80.8253569154
 30
0.0
 40
26.16255545913749
100
AcDbArc
 50
82.0900347911
 51
91.2605587725
  0
LINE
  5
A5
330
1F
100
AcDbEntity
  8
0
  6
Continuous
 62
     7
370
    15
100
AcDbLine
 10
238.2944965125
 20
106.8627924412
 30
0.0
 11
243.730440116
 21
106.9815807729
 31
0.0
  0
SPLINE
  5
A6
330
1F
100
AcDbEntity
  8
0
  6
Continuous
 62
     7
370
    15
100
AcDbSpline
210
0.0
220
0.0
230
1.0
 70
     8
 71
     3
 72
     8
 73
     4
 74
     0
 42
0.00000001
 43
0.00000001
 12
1.0
 22
0.0
 32
0.0
 13
1.0
 23
0.0
 33
0.0
 40
0.0
 40
0.0
 40
0.0
 40
0.0
 40
1.0
 40
1.0
 40
1.0
 40
1.0
 10
238.2944968556282
 20
106.8627916367285
 30
0.0
 10
237.7716130067404
 20
107.4268689146902
 30
0.0
 10
237.2520756175452
 20
107.9940024178733
 30
0.0
 10
236.737046623133
 20
108.5652533081189
 30
0.0
  0
LWPOLYLINE
  5
A7
330
1F
100
AcDbEntity
  8
0
  6
Continuous
 62
     7
370
    15
100
AcDbPolyline
 90
       32
 70
   128
 43
0.0
 10
247.1686446429
 20
129.5653820723
 10
247.9694330455
 20
129.5027902103
 10
248.7374314428
 20
129.2825789876
 10
249.4411983848
 20
128.9137636065
 10
250.0519373775
 20
128.4114440657
 10
250.5446293712
 20
127.796184666
 10
250.8991056443
 20
127.0931744236
 10
251.1008599163
 20
126.3311949312
 10
251.1416294933
 20
125.541441537
 10
251.0197454453
 20
124.7562467631
 10
250.7401922108
 20
124.0077566633
 10
250.314421332
 20
123.3266145443
 10
249.759859717
 20
122.7407063577
 10
249.0992167354
 20
122.2740192185
 10
248.3595379949
 20
121.9456595588
 10
247.571102655
 20
121.7690703213
 10
246.7661866308
 20
121.7514808975
 10
245.9777512909
 20
121.8936118982
 10
245.2380725504
 20
122.1896439544
 10
244.5774295689
 20
122.6274577654
 10
244.0228679539
 20
123.189129097
 10
243.5971045256
 20
123.8516630126
 10
243.3175512911
 20
124.5879354116
 10
243.1956672431
 20
125.3678031368
 10
243.2364293695
 20
126.1593383258
 10
243.4381836415
 20
126.9301354639
 10
243.7926673652
 20
127.6486380245
 10
244.2853593589
 20
128.2854303005
 10
244.896090901
 20
128.8144422449
 10
245.5998652936
 20
129.2140154853
 10
246.3678636909
 20
129.4677920393
 10
247.1686446429
 20
129.5653820723
  0
LINE
  5
A8
330
1F
100
AcDbEntity
  8
0
  6
Continuous
 62
     7
370
    15
100
AcDbLine
 10
236.9441532851
 20
140.9182377844
 30
0.0
 11
236.9441532851
 21
137.6094116583
 31
0.0
  0
SPLINE
  5
A9
330
1F
100
AcDbEntity
  8
0
  6
Continuous
 62
     7
370
    15
100
AcDbSpline
210
0.0
220
0.0
230
1.0
 70
     8
 71
     3
 72
    10
 73
     6
 74
     0
 42
0.00000001
 43
0.00000001
 12
1.0
 22
0.0
 32
0.0
 13
1.0
 23
0.0
 33
0.0
 40
0.0
 40
0.0
 40
0.0
 40
0.0
 40
0.0969429163548796
 40
0.9802034981709076
 40
0.9999999999999999
 40
0.9999999999999999
 40
0.9999999999999999
 40
0.9999999999999999
 10
237.3379239202382
 20
107.549437949
 30
0.0
 10
237.3526861096612
 20
107.526507050306
 30
0.0
 10
237.5019486886835
 20
107.2946494998919
 30
0.0
 10
237.9184050926351
 20
107.0685607217922
 30
0.0
 10
238.2864288248392
 20
106.867206458977
 30
0.0
 10
238.2944965124967
 20
106.8627924411875
 30
0.0
  0
ELLIPSE
  5
AA
330
1F
100
AcDbEntity
  8
0
  6
Continuous
 62
     7
370
    15
100
AcDbEllipse
 10
255.0200281329
 20
124.4182378739
 30
0.0
 11
-5.368298186719898
 21
16.49894757830364
 31
0.0
210
0.0
220
0.0
230
1.0
 40
0.0347142918
 41
5.722703422560765
 42
6.271890723419028
  0
LINE
  5
AB
330
1F
100
AcDbEntity
  8
0
  6
Continuous
 62
     7
370
    15
100
AcDbLine
 10
240.493244803
 20
119.2416690043
 30
0.0
 11
240.9679659963
 21
119.033512821
 31
0.0
  0
LINE
  5
AC
330
1F
100
AcDbEntity
  8
0
  6
Continuous
 62
     7
370
    15
100
AcDbLine
 10
240.9679659963
 20
119.033512821
 30
0.0
 11
243.942550695
 21
118.1551010101
 31
0.0
  0
LINE
  5
AD
330
1F
100
AcDbEntity
  8
0
  6
Continuous
 62
     7
370
    15
100
AcDbLine
 10
243.942550695
 20
118.1551010101
 30
0.0
 11
244.906305647
 21
116.2486566915
 31
0.0
  0
LWPOLYLINE
  5
AE
330
1F
100
AcDbEntity
  8
0
  6
Continuous
 62
     7
370
    15
100
AcDbPolyline
 90
       30
 70
   128
 43
0.0
 10
247.7791601182
 20
129.0365794427
 10
248.5015609623
 20
128.8444848485
 10
249.1616376997
 20
128.5031500026
 10
249.728522575
 20
128.0285354457
 10
250.175713873
 20
127.4428338963
 10
250.482297814
 20
126.7734320588
 10
250.6339320303
 20
126.0516302879
 10
250.6235384704
 20
125.31117919
 10
250.4516014219
 20
124.5867015547
 10
250.1261526109
 20
123.9120731349
 10
249.6624135733
 20
123.3188386993
 10
249.0820729495
 20
122.8347374578
 10
248.4122583032
 20
122.4824052058
 10
247.6842918754
 20
122.2783168066
 10
246.9322228194
 20
122.2320149406
 10
246.1912029744
 20
122.3456649329
 10
245.4958849908
 20
122.6139524239
 10
244.8787906528
 20
123.0243327315
 10
244.3687611581
 20
123.5576168271
 10
243.9896532656
 20
124.1888689562
 10
243.7591919065
 20
124.8885725087
 10
243.6881506205
 20
125.6240101517
 10
243.7798598171
 20
126.3607935268
 10
244.0300205112
 20
127.0644715275
 10
244.4269352914
 20
127.7021408766
 10
244.9520596624
 20
128.243985049
 10
245.5808216096
 20
128.6646678797
 10
246.2838285924
 20
128.9445186719
 10
247.0282160998
 20
129.0704521104
 10
247.7791601182
 20
129.0365794427
  0
LWPOLYLINE
  5
AF
330
1F
100
AcDbEntity
  8
0
  6
Continuous
 62
     7
370
    15
100
AcDbPolyline
 90
       23
 70
   128
 43
0.0
 10
247.5175106288
 20
127.5863846983
 10
248.0550700189
 20
127.4234479512
 10
248.5208207131
 20
127.1170628476
 10
248.8770180703
 20
126.6920514624
 10
249.0948208929
 20
126.1828453732
 10
249.1565713049
 20
125.6306973971
 10
249.0572774173
 20
125.0803394812
 10
248.8049709559
 20
124.5763581989
 10
248.4201037646
 20
124.1595831686
 10
247.9338490725
 20
123.8637790536
 10
247.3856055499
 20
123.7129100934
 10
246.819778657
 20
123.7191987909
 10
246.282219267
 20
123.8821357126
 10
245.8164760233
 20
124.1885206416
 10
245.4602712155
 20
124.6135321141
 10
245.2424683929
 20
125.1227382324
 10
245.1807179809
 20
125.6748860921
 10
245.2800193191
 20
126.2252440662
 10
245.5323183299
 20
126.7292254358
 10
245.9171855212
 20
127.146000437
 10
246.4034402133
 20
127.441804552
 10
246.9516911865
 20
127.592673454
 10
247.5175106288
 20
127.5863846983
  0
SPLINE
  5
B0
330
1F
100
AcDbEntity
  8
0
  6
Continuous
 62
     7
370
    15
100
AcDbSpline
210
0.0
220
0.0
230
1.0
 70
     8
 71
     3
 72
    11
 73
     7
 74
     0
 42
0.00000001
 43
0.00000001
 12
1.0
 22
0.0
 32
0.0
 13
1.0
 23
0.0
 33
0.0
 40
0.0
 40
0.0
 40
0.0
 40
0.0
 40
0.1081079368311805
 40
0.4711591504062226
 40
0.8135801405982647
 40
1.0
 40
1.0
 40
1.0
 40
1.0
 10
246.0310601950528
 20
124.3880484341379
 30
0.0
 10
246.0854631251825
 20
124.3850393857256
 30
0.0
 10
246.3225635554638
 20
124.3719252635343
 30
0.0
 10
246.7848820970298
 20
124.3253502895082
 30
0.0
 10
247.3263181513192
 20
124.2239053760061
 30
0.0
 10
247.6225078429367
 20
124.1529625831883
 30
0.0
 10
247.726916647041
 20
124.1279547845797
 30
0.0
  0
SPLINE
  5
B1
330
1F
100
AcDbEntity
  8
0
  6
Continuous
 62
     7
370
    15
100
AcDbSpline
210
0.0
220
0.0
230
1.0
 70
     8
 71
     3
 72
    10
 73
     6
 74
     0
 42
0.00000001
 43
0.00000001
 12
1.0
 22
0.0
 32
0.0
 13
1.0
 23
0.0
 33
0.0
 40
0.0
 40
0.0
 40
0.0
 40
0.0
 40
0.4391170122550627
 40
0.7513672575687453
 40
1.0
 40
1.0
 40
1.0
 40
1.0
 10
247.726916647041
 20
124.1279547845797
 30
0.0
 10
247.8750243364248
 20
124.3381867506241
 30
0.0
 10
248.1284494265291
 20
124.6979118611793
 30
0.0
 10
248.531724203602
 20
125.1518418585983
 30
0.0
 10
248.7428931405294
 20
125.3571098881651
 30
0.0
 10
248.8365018130185
 20
125.4481027587634
 30
0.0
  0
SPLINE
  5
B2
330
1F
100
AcDbEntity
  8
0
  6
Continuous
 62
     7
370
    15
100
AcDbSpline
210
0.0
220
0.0
230
1.0
 70
     8
 71
     3
 72
    10
 73
     6
 74
     0
 42
0.00000001
 43
0.00000001
 12
1.0
 22
0.0
 32
0.0
 13
1.0
 23
0.0
 33
0.0
 40
0.0
 40
0.0
 40
0.0
 40
0.0
 40
0.4391166951770225
 40
0.7513674695279869
 40
0.9999999999999999
 40
0.9999999999999999
 40
0.9999999999999999
 40
0.9999999999999999
 10
248.8365018130185
 20
125.4481027587634
 30
0.0
 10
248.7418316235662
 20
125.6955692675246
 30
0.0
 10
248.5798425635514
 20
126.1190063322571
 30
0.0
 10
248.3792382964346
 20
126.6655506851487
 30
0.0
 10
248.2898433041178
 20
126.9169168806295
 30
0.0
 10
248.2502156258466
 20
127.0283443606776
 30
0.0
  0
SPLINE
  5
B3
330
1F
100
AcDbEntity
  8
0
  6
Continuous
 62
     7
370
    15
100
AcDbSpline
210
0.0
220
0.0
230
1.0
 70
     8
 71
     3
 72
    11
 73
     7
 74
     0
 42
0.00000001
 43
0.00000001
 12
1.0
 22
0.0
 32
0.0
 13
1.0
 23
0.0
 33
0.0
 40
0.0
 40
0.0
 40
0.0
 40
0.0
 40
0.1864198845003379
 40
0.5288408326621841
 40
0.8918920783468474
 40
0.9999999999999999
 40
0.9999999999999999
 40
0.9999999999999999
 40
0.9999999999999999
 10
248.2502156258466
 20
127.0283443606776
 30
0.0
 10
248.1458068289965
 20
127.0533521067094
 30
0.0
 10
247.8496172073185
 20
127.1242947385532
 30
0.0
 10
247.3081809630312
 20
127.2257399523532
 30
0.0
 10
246.8458625895243
 20
127.2723146234152
 30
0.0
 10
246.6087621064975
 20
127.2854287857876
 30
0.0
 10
246.5543591738584
 20
127.2884378428888
 30
0.0
  0
SPLINE
  5
B4
330
1F
100
AcDbEntity
  8
0
  6
Continuous
 62
     7
370
    15
100
AcDbSpline
210
0.0
220
0.0
230
1.0
 70
     8
 71
     3
 72
    10
 73
     6
 74
     0
 42
0.00000001
 43
0.00000001
 12
1.0
 22
0.0
 32
0.0
 13
1.0
 23
0.0
 33
0.0
 40
0.0
 40
0.0
 40
0.0
 40
0.0
 40
0.4391166431626407
 40
0.7513669009829567
 40
1.0
 40
1.0
 40
1.0
 40
1.0
 10
246.5543591738584
 20
127.2884378428888
 30
0.0
 10
246.3847756463061
 20
127.1206913374042
 30
0.0
 10
246.0946034300199
 20
126.8336624262042
 30
0.0
 10
245.7076662329102
 20
126.347419328996
 30
0.0
 10
245.5255233083434
 20
126.084734915536
 30
0.0
 10
245.4447814584615
 20
125.9682899560165
 30
0.0
  0
SPLINE
  5
B5
330
1F
100
AcDbEntity
  8
0
  6
Continuous
 62
     7
370
    15
100
AcDbSpline
210
0.0
220
0.0
230
1.0
 70
     8
 71
     3
 72
    10
 73
     6
 74
     0
 42
0.00000001
 43
0.00000001
 12
1.0
 22
0.0
 32
0.0
 13
1.0
 23
0.0
 33
0.0
 40
0.0
 40
0.0
 40
0.0
 40
0.0
 40
0.4391155092702824
 40
0.7513670604664421
 40
0.9999999999999999
 40
0.9999999999999999
 40
0.9999999999999999
 40
0.9999999999999999
 10
245.4447814584615
 20
125.9682899560165
 30
0.0
 10
245.5179695062871
 20
125.7633083302479
 30
0.0
 10
245.6432009936635
 20
125.4125658983548
 30
0.0
 10
245.8601452055399
 20
124.8337113504765
 30
0.0
 10
245.9785658389533
 20
124.5249281068762
 30
0.0
 10
246.0310601950528
 20
124.3880484341379
 30
0.0
  0
LINE
  5
B6
330
1F
100
AcDbEntity
  8
0
  6
Continuous
 62
     7
370
    15
100
AcDbLine
 10
248.446389413
 20
126.2197890771
 30
0.0
 11
248.836501813
 21
125.4481027588
 31
0.0
  0
LINE
  5
B7
330
1F
100
AcDbEntity
  8
0
  6
Continuous
 62
     7
370
    15
100
AcDbLine
 10
248.446389413
 20
126.2197890771
 30
0.0
 11
248.15325377
 21
127.0099097616
 31
0.0
  0
LINE
  5
B8
330
1F
100
AcDbEntity
  8
0
  6
Continuous
 62
     7
370
    15
100
AcDbLine
 10
247.3368116976
 20
124.899641132
 30
0.0
 11
247.726916647
 21
124.1279547846
 31
0.0
  0
LINE
  5
B9
330
1F
100
AcDbEntity
  8
0
  6
Continuous
 62
     7
370
    15
100
AcDbLine
 10
247.3368116976
 20
124.899641132
 30
0.0
 11
247.8916042806
 21
125.5597151337
 31
0.0
  0
LINE
  5
BA
330
1F
100
AcDbEntity
  8
0
  6
Continuous
 62
     7
370
    15
100
AcDbLine
 10
247.8916042806
 20
125.5597151337
 30
0.0
 11
248.446389413
 21
126.2197890771
 31
0.0
  0
LINE
  5
BB
330
1F
100
AcDbEntity
  8
0
  6
Continuous
 62
     7
370
    15
100
AcDbLine
 10
245.7449280978
 20
125.1437883345
 30
0.0
 11
246.4888834716
 21
125.0296879313
 31
0.0
  0
LINE
  5
BC
330
1F
100
AcDbEntity
  8
0
  6
Continuous
 62
     7
370
    15
100
AcDbLine
 10
246.4888834716
 20
125.0296879313
 30
0.0
 11
247.3368116976
 21
124.899641132
 31
0.0
  0
ARC
  5
BD
330
1F
100
AcDbEntity
  8
0
  6
Continuous
 62
     7
370
    15
100
AcDbCircle
 10
246.7777369815
 20
126.5093843992
 30
0.0
 40
1.463752736545149
100
AcDbArc
 50
319.5495069355
 51
19.995519703
  0
ARC
  5
BE
330
1F
100
AcDbEntity
  8
0
  6
Continuous
 62
     7
370
    15
100
AcDbCircle
 10
246.7171040611
 20
126.546869461
 30
0.0
 40
1.534250446174307
100
AcDbArc
 50
261.4454742592
 51
319.9533231955
  0
ARC
  5
BF
330
1F
100
AcDbEntity
  8
0
  6
Continuous
 62
     7
370
    15
100
AcDbCircle
 10
246.7043359274
 20
126.4693762324
 30
0.0
 40
1.455720496842443
100
AcDbArc
 50
219.4248719828
 51
261.4887269142
  0
LINE
  5
C0
330
1F
100
AcDbEntity
  8
0
  6
Continuous
 62
     7
370
    15
100
AcDbLine
 10
243.0226424099
 20
121.1117582149
 30
0.0
 11
243.0348539115
 21
121.0696745417
 31
0.0
  0
LINE
  5
C1
330
1F
100
AcDbEntity
  8
0
  6
Continuous
 62
     7
370
    15
100
AcDbLine
 10
243.3359020711
 20
120.4741691924
 30
0.0
 11
244.2749583484
 21
117.4975635237
 31
0.0
  0
LINE
  5
C2
330
1F
100
AcDbEntity
  8
0
  6
Continuous
 62
     7
370
    15
100
AcDbLine
 10
243.0348539115
 20
121.0696745417
 30
0.0
 11
243.9739101888
 21
118.0930693387
 31
0.0
  0
ARC
  5
C3
330
1F
100
AcDbEntity
  8
0
  6
Continuous
 62
     7
370
    15
100
AcDbCircle
 10
256.3980354016
 20
117.7523659819
 30
0.0
 40
0.9450463916675226
100
AcDbArc
 50
26.8062213716
 51
38.9479972507
  0
LINE
  5
C4
330
1F
100
AcDbEntity
  8
0
  6
Continuous
 62
     7
370
    15
100
AcDbLine
 10
243.662081039
 20
120.2311913236
 30
0.0
 11
247.9168244959
 21
106.7445610403
 31
0.0
  0
ARC
  5
C5
330
1F
100
AcDbEntity
  8
0
  6
Continuous
 62
     7
370
    15
100
AcDbCircle
 10
244.0486339459
 20
120.3440555014
 30
0.0
 40
0.4026927766946658
100
AcDbArc
 50
73.3018380046
 51
196.2765381744
  0
LINE
  5
C6
330
1F
100
AcDbEntity
  8
0
  6
Continuous
 62
     7
370
    15
100
AcDbLine
 10
257.9147362471
 20
116.6692014537
 30
0.0
 11
244.1643395782
 21
120.7297674134
 31
0.0
  0
ARC
  5
C7
330
1F
100
AcDbEntity
  8
0
  6
Continuous
 62
     7
370
    15
100
AcDbCircle
 10
257.8079991427
 20
116.3015109574
 30
0.0
 40
0.3828695738153776
100
AcDbArc
 50
17.6641958103
 51
73.812482294
  0
LINE
  5
C8
330
1F
100
AcDbEntity
  8
0
  6
Continuous
 62
     7
370
    15
100
AcDbLine
 10
262.4275603653
 20
102.9310558676
 30
0.0
 11
258.1728169084
 21
116.4176880136
 31
0.0
  0
ARC
  5
C9
330
1F
100
AcDbEntity
  8
0
  6
Continuous
 62
     7
370
    15
100
AcDbCircle
 10
262.0410055955
 20
102.8181950076
 30
0.0
 40
0.4026936351314619
100
AcDbArc
 50
253.3021513767
 51
16.2760107547
  0
LINE
  5
CA
330
1F
100
AcDbEntity
  8
0
  6
Continuous
 62
     7
370
    15
100
AcDbLine
 10
248.1749051572
 20
106.4930462032
 30
0.0
 11
261.9253018261
 21
102.4324816405
 31
0.0
  0
ARC
  5
CB
330
1F
100
AcDbEntity
  8
0
  6
Continuous
 62
     7
370
    15
100
AcDbCircle
 10
248.2816444795
 20
106.8607383301
 30
0.0
 40
0.3828717580119351
100
AcDbArc
 50
197.6641283993
 51
253.8122315729
  0
ARC
  5
CC
330
1F
100
AcDbEntity
  8
0
  6
Continuous
 62
     7
370
    15
100
AcDbCircle
 10
262.041326436
 20
102.8176544551
 30
0.0
 40
0.3825542294729308
100
AcDbArc
 50
253.3013131347
 51
16.277319512
  0
LINE
  5
CD
330
1F
100
AcDbEntity
  8
0
  6
Continuous
 62
     7
370
    15
100
AcDbLine
 10
262.4085464836
 20
102.9248793363
 30
0.0
 11
258.1538030268
 21
116.4115114822
 31
0.0
  0
ARC
  5
CE
330
1F
100
AcDbEntity
  8
0
  6
Continuous
 62
     7
370
    15
100
AcDbCircle
 10
257.8072458617
 20
116.3011668594
 30
0.0
 40
0.363700157363469
100
AcDbArc
 50
17.6615984768
 51
73.8132464265
  0
LINE
  5
CF
330
1F
100
AcDbEntity
  8
0
  6
Continuous
 62
     7
370
    15
100
AcDbLine
 10
257.9086342216
 20
116.6504492737
 30
0.0
 11
244.1582375527
 21
120.7110152333
 31
0.0
  0
ARC
  5
D0
330
1F
100
AcDbEntity
  8
0
  6
Continuous
 62
     7
370
    15
100
AcDbCircle
 10
244.0483140996
 20
120.3445943317
 30
0.0
 40
0.3825538428643129
100
AcDbArc
 50
73.3011599389
 51
196.2775853643
  0
LINE
  5
D1
330
1F
100
AcDbEntity
  8
0
  6
Continuous
 62
     7
370
    15
100
AcDbLine
 10
243.6810949207
 20
120.237367855
 30
0.0
 11
247.9358383776
 21
106.7507375717
 31
0.0
  0
ARC
  5
D2
330
1F
100
AcDbEntity
  8
0
  6
Continuous
 62
     7
370
    15
100
AcDbCircle
 10
248.282390385
 20
106.8610762217
 30
0.0
 40
0.3636934307096264
100
AcDbArc
 50
197.6609483905
 51
253.8137848872
  0
LINE
  5
D3
330
1F
100
AcDbEntity
  8
0
  6
Continuous
 62
     7
370
    15
100
AcDbLine
 10
248.1810071827
 20
106.5117993146
 30
0.0
 11
261.9314038516
 21
102.4512328892
 31
0.0
  0
LINE
  5
D4
330
1F
100
AcDbEntity
  8
0
  6
Continuous
 62
     7
370
    15
100
AcDbLine
 10
257.2509789229
 20
117.9822084247
 30
0.0
 11
257.2476038099
 21
117.9832044742
 31
0.0
  0
LINE
  5
D5
330
1F
100
AcDbEntity
  8
0
  6
Continuous
 62
     7
370
    15
100
AcDbLine
 10
245.4802015186
 20
119.0372688449
 30
0.0
 11
244.0193214775
 21
120.4000871382
 31
0.0
  0
LINE
  5
D6
330
1F
100
AcDbEntity
  8
0
  6
Continuous
 62
     7
370
    15
100
AcDbLine
 10
257.3988058926
 20
116.0488069742
 30
0.0
 11
257.7697181464
 21
116.3395211785
 31
0.0
  0
LINE
  5
D7
330
1F
100
AcDbEntity
  8
0
  6
Continuous
 62
     7
370
    15
100
AcDbLine
 10
246.1193197728
 20
118.8485330656
 30
0.0
 11
245.4802015186
 21
119.0372688449
 31
0.0
  0
LINE
  5
D8
330
1F
100
AcDbEntity
  8
0
  6
Continuous
 62
     7
370
    15
100
AcDbLine
 10
245.4802015186
 20
119.0372688449
 30
0.0
 11
245.6779622794
 21
118.4104077272
 31
0.0
  0
LINE
  5
D9
330
1F
100
AcDbEntity
  8
0
  6
Continuous
 62
     7
370
    15
100
AcDbLine
 10
248.5928156734
 20
107.307349959
 30
0.0
 11
248.2740574838
 21
106.9134563892
 31
0.0
  0
LINE
  5
DA
330
1F
100
AcDbEntity
  8
0
  6
Continuous
 62
     7
370
    15
100
AcDbLine
 10
243.1433641673
 20
121.0844627801
 30
0.0
 11
244.2749583484
 21
117.4975635237
 31
0.0
  0
SPLINE
  5
DB
330
1F
100
AcDbEntity
  8
0
  6
Continuous
 62
     7
370
    15
100
AcDbSpline
210
0.0
220
0.0
230
1.0
 70
     8
 71
     3
 72
    14
 73
    10
 74
     0
 42
0.00000001
 43
0.00000001
 12
1.0
 22
0.0
 32
0.0
 13
1.0
 23
0.0
 33
0.0
 40
0.0
 40
0.0
 40
0.0
 40
0.0
 40
0.2210578386331806
 40
0.3460810252538872
 40
0.4396023371632375
 40
0.5338902458850335
 40
0.6146554406979826
 40
0.7517215788520419
 40
1.0
 40
1.0
 40
1.0
 40
1.0
 10
246.2568947435262
 20
118.2819434195143
 30
0.0
 10
246.2974056270442
 20
118.3247513746402
 30
0.0
 10
246.3608281602081
 20
118.3917701290558
 30
0.0
 10
246.4160861247988
 20
118.4953647026038
 30
0.0
 10
246.4324416493783
 20
118.5770292056484
 30
0.0
 10
246.4183334091883
 20
118.6474003155122
 30
0.0
 10
246.3740247951376
 20
118.7162978615619
 30
0.0
 10
246.2776258323036
 20
118.793823960187
 30
0.0
 10
246.1813503173445
 20
118.8270958848939
 30
0.0
 10
246.119319772804
 20
118.8485330655557
 30
0.0
  0
ARC
  5
DC
330
1F
100
AcDbEntity
  8
0
  6
Continuous
 62
     7
370
    15
100
AcDbCircle
 10
248.0223671642
 20
116.4647279648
 30
0.0
 40
1.006726635369632
100
AcDbArc
 50
73.3017761329
 51
196.2769186069
  0
LINE
  5
DD
330
1F
100
AcDbEntity
  8
0
  6
Continuous
 62
     7
370
    15
100
AcDbLine
 10
246.2568947435
 20
118.2819434195
 30
0.0
 11
246.2552556158
 21
118.2803112767
 31
0.0
  0
SPLINE
  5
DE
330
1F
100
AcDbEntity
  8
0
  6
Continuous
 62
     7
370
    15
100
AcDbSpline
210
0.0
220
0.0
230
1.0
 70
     8
 71
     3
 72
    14
 73
    10
 74
     0
 42
0.00000001
 43
0.00000001
 12
1.0
 22
0.0
 32
0.0
 13
1.0
 23
0.0
 33
0.0
 40
0.0
 40
0.0
 40
0.0
 40
0.0
 40
0.2234956187942464
 40
0.3567581249530086
 40
0.4531226756738867
 40
0.5344588364484981
 40
0.615731620533643
 40
0.7396158494547875
 40
1.0
 40
1.0
 40
1.0
 40
1.0
 10
245.6779622794034
 20
118.4104077271503
 30
0.0
 10
245.6979139244798
 20
118.3557155445395
 30
0.0
 10
245.7297620274789
 20
118.2684123543333
 30
0.0
 10
245.8017615950389
 20
118.1735332635324
 30
0.0
 10
245.8685786162242
 20
118.1254003919212
 30
0.0
 10
245.9356152551695
 20
118.1068896507456
 30
0.0
 10
246.0126192435835
 20
118.1128872022306
 30
0.0
 10
246.128732888373
 20
118.1626898196911
 30
0.0
 10
246.2041513210458
 20
118.2328023292555
 30
0.0
 10
246.2552556157949
 20
118.2803112767023
 30
0.0
  0
LINE
  5
DF
330
1F
100
AcDbEntity
  8
0
  6
Continuous
 62
     7
370
    15
100
AcDbLine
 10
247.0559918643
 20
116.1825625911
 30
0.0
 11
249.4372123242
 21
108.634583348
 31
0.0
  0
LINE
  5
E0
330
1F
100
AcDbEntity
  8
0
  6
Continuous
 62
     7
370
    15
100
AcDbLine
 10
256.0072311521
 20
115.1564500048
 30
0.0
 11
248.3116307617
 21
117.4290023498
 31
0.0
  0
ARC
  5
E1
330
1F
100
AcDbEntity
  8
0
  6
Continuous
 62
     7
370
    15
100
AcDbCircle
 10
255.7403810962
 20
114.2372220047
 30
0.0
 40
0.9571776577931185
100
AcDbArc
 50
17.664191476
 51
73.812092294
  0
LINE
  5
E2
330
1F
100
AcDbEntity
  8
0
  6
Continuous
 62
     7
370
    15
100
AcDbLine
 10
259.03364954
 20
106.9796864628
 30
0.0
 11
256.6524290801
 21
114.5276657059
 31
0.0
  0
ARC
  5
E3
330
1F
100
AcDbEntity
  8
0
  6
Continuous
 62
     7
370
    15
100
AcDbCircle
 10
258.0672727273
 20
106.6975215323
 30
0.0
 40
1.006727963311311
100
AcDbArc
 50
253.3018886931
 51
16.2768702609
  0
LINE
  5
E4
330
1F
100
AcDbEntity
  8
0
  6
Continuous
 62
     7
370
    15
100
AcDbLine
 10
250.0824102522
 20
108.0057971864
 30
0.0
 11
257.7780106426
 21
105.7332453071
 31
0.0
  0
ARC
  5
E5
330
1F
100
AcDbEntity
  8
0
  6
Continuous
 62
     7
370
    15
100
AcDbCircle
 10
250.3492466701
 20
108.9250103321
 30
0.0
 40
0.9571595902203318
100
AcDbArc
 50
197.6634856901
 51
253.8126284094
  0
LWPOLYLINE
  5
E6
330
1F
100
AcDbEntity
  8
0
  6
Continuous
 62
     7
370
    15
100
AcDbPolyline
 90
       26
 70
   128
 43
0.0
 10
252.2573464871
 20
109.1620844542
 10
252.8893941403
 20
109.0587411761
 10
253.5312095047
 20
109.113888511
 10
254.1424625874
 20
109.3240610077
 10
254.6847530962
 20
109.6760534435
 10
255.1239946247
 20
110.1477478384
 10
255.432597673
 20
110.7095076456
 10
255.5911609293
 20
111.3260338768
 10
255.5897378684
 20
111.9585881695
 10
255.4284029961
 20
112.5674244701
 10
255.1172965527
 20
113.114288704
 10
254.6759688617
 20
113.5648187935
 10
254.1321584345
 20
113.8907053261
 10
253.5200187326
 20
114.0714722439
 10
252.8780245543
 20
114.095762068
 10
252.2465058924
 20
113.9620483606
 10
251.6651519895
 20
113.6787316515
 10
251.1704930426
 20
113.2636141717
 10
250.7935979725
 20
112.7427804037
 10
250.558152175
 20
112.1489551603
 10
250.4789599539
 20
111.5194509491
 10
250.5609908462
 20
110.8938229024
 10
250.7990815998
 20
110.3113793522
 10
251.1782863499
 20
109.8087184816
 10
251.6747706891
 20
109.4174251645
 10
252.2573464871
 20
109.1620844542
  0
LWPOLYLINE
  5
E7
330
1F
100
AcDbEntity
  8
0
  6
Continuous
 62
     7
370
    15
100
AcDbPolyline
 90
        3
 70
   128
 43
0.0
 10
254.9401664496
 20
113.133190827
 10
254.9259805442
 20
113.2715946748
 10
254.9143352867
 20
113.3504823535
  0
LWPOLYLINE
  5
E8
330
1F
100
AcDbEntity
  8
0
  6
Continuous
 62
     7
370
    15
100
AcDbPolyline
 90
        3
 70
   128
 43
0.0
 10
250.511556244
 20
111.1247732058
 10
250.5145290256
 20
111.1217259183
 10
250.9806000949
 20
110.7489547446
  0
LINE
  5
E9
330
1F
100
AcDbEntity
  8
0
  6
Continuous
 62
     7
370
    15
100
AcDbLine
 10
260.442196703
 20
104.4558153241
 30
0.0
 11
262.0244541527
 21
102.8528899639
 31
0.0
  0
LINE
  5
EA
330
1F
100
AcDbEntity
  8
0
  6
Continuous
 62
     7
370
    15
100
AcDbLine
 10
260.442196703
 20
104.4558153241
 30
0.0
 11
260.2444359423
 21
105.0826773732
 31
0.0
  0
ARC
  5
EB
330
1F
100
AcDbEntity
  8
0
  6
Continuous
 62
     7
370
    15
100
AcDbCircle
 10
257.1432878566
 20
117.6131379987
 30
0.0
 40
0.3844611100763219
100
AcDbArc
 50
26.9907534832
 51
73.7332820772
  0
SPLINE
  5
EC
330
1F
100
AcDbEntity
  8
0
  6
Continuous
 62
     7
370
    15
100
AcDbSpline
210
0.0
220
0.0
230
1.0
 70
     8
 71
     3
 72
    11
 73
     7
 74
     0
 42
0.00000001
 43
0.00000001
 12
1.0
 22
0.0
 32
0.0
 13
1.0
 23
0.0
 33
0.0
 40
0.0
 40
0.0
 40
0.0
 40
0.0
 40
0.3280465191661063
 40
0.6557054590734976
 40
0.9906985070839375
 40
1.0
 40
1.0
 40
1.0
 40
1.0
 10
257.3988058925511
 20
116.0488069742304
 30
0.0
 10
257.3430851097335
 20
116.0025261419889
 30
0.0
 10
257.2317093768945
 20
115.9100191572224
 30
0.0
 10
257.0595718875703
 20
115.7352159042984
 30
0.0
 10
256.9560795498084
 20
115.6149514149833
 30
0.0
 10
256.9094377877865
 20
115.555771970259
 30
0.0
 10
256.9081777096631
 20
115.554173172949
 30
0.0
  0
SPLINE
  5
ED
330
1F
100
AcDbEntity
  8
0
  6
Continuous
 62
     7
370
    15
100
AcDbSpline
210
0.0
220
0.0
230
1.0
 70
     8
 71
     3
 72
    11
 73
     7
 74
     0
 42
0.00000001
 43
0.00000001
 12
1.0
 22
0.0
 32
0.0
 13
1.0
 23
0.0
 33
0.0
 40
0.0
 40
0.0
 40
0.0
 40
0.0
 40
0.3280427619240134
 40
0.6557018748763433
 40
0.9906976344979311
 40
1.0
 40
1.0
 40
1.0
 40
1.0
 10
248.5928156734349
 20
107.3073499589545
 30
0.0
 10
248.6424541566776
 20
107.3656565545346
 30
0.0
 10
248.7416730705088
 20
107.4822015556048
 30
0.0
 10
248.9164498720828
 20
107.6517973728093
 30
0.0
 10
249.0317589846016
 20
107.7486469892185
 30
0.0
 10
249.0870607913234
 20
107.7907243544062
 30
0.0
 10
249.0885549546124
 20
107.7918612151724
 30
0.0
  0
LINE
  5
EE
330
1F
100
AcDbEntity
  8
0
  6
Continuous
 62
     7
370
    15
100
AcDbLine
 10
259.8030784489
 20
104.6445515692
 30
0.0
 11
260.442196703
 21
104.4558153241
 31
0.0
  0
ARC
  5
EF
330
1F
100
AcDbEntity
  8
0
  6
Continuous
 62
     7
370
    15
100
AcDbCircle
 10
259.513801561
 20
105.3658685971
 30
0.0
 40
0.216682915093319
100
AcDbArc
 50
314.4330863042
 51
315.0460465602
  0
SPLINE
  5
F0
330
1F
100
AcDbEntity
  8
0
  6
Continuous
 62
     7
370
    15
100
AcDbSpline
210
0.0
220
0.0
230
1.0
 70
     8
 71
     3
 72
    14
 73
    10
 74
     0
 42
0.00000001
 43
0.00000001
 12
1.0
 22
0.0
 32
0.0
 13
1.0
 23
0.0
 33
0.0
 40
0.0
 40
0.0
 40
0.0
 40
0.0
 40
0.2234965574297602
 40
0.3567648419960941
 40
0.4531220046002458
 40
0.534467007286302
 40
0.6157306576815363
 40
0.7396150777151392
 40
1.0
 40
1.0
 40
1.0
 40
1.0
 10
260.2444359422566
 20
105.0826773732287
 30
0.0
 10
260.2244856824979
 20
105.1373708682466
 30
0.0
 10
260.1926393249859
 20
105.2246774305161
 30
0.0
 10
260.1206290634437
 20
105.3195471738186
 30
0.0
 10
260.0538171089009
 20
105.3676889889064
 30
0.0
 10
259.9867796363273
 20
105.3861938834212
 30
0.0
 10
259.9097769330825
 20
105.380198268542
 30
0.0
 10
259.7936650390912
 20
105.3303951268835
 30
0.0
 10
259.7182467957415
 20
105.2602827219749
 30
0.0
 10
259.6671426058652
 20
105.2127738236767
 30
0.0
  0
SPLINE
  5
F1
330
1F
100
AcDbEntity
  8
0
  6
Continuous
 62
     7
370
    15
100
AcDbSpline
210
0.0
220
0.0
230
1.0
 70
     8
 71
     3
 72
    14
 73
    10
 74
     0
 42
0.00000001
 43
0.00000001
 12
1.0
 22
0.0
 32
0.0
 13
1.0
 23
0.0
 33
0.0
 40
0.0
 40
0.0
 40
0.0
 40
0.0
 40
0.221059156237288
 40
0.3460782464998859
 40
0.4395984545622477
 40
0.5338862207198499
 40
0.6146557902262575
 40
0.7517215404425183
 40
1.0
 40
1.0
 40
1.0
 40
1.0
 10
259.6654960275533
 20
105.211142146526
 30
0.0
 10
259.6249838415733
 20
105.1683345253462
 30
0.0
 10
259.5615601565993
 20
105.1013172313019
 30
0.0
 10
259.5063122300089
 20
104.9977176444507
 30
0.0
 10
259.4899595184478
 20
104.9160567288382
 30
0.0
 10
259.5040533305393
 20
104.8456804506664
 30
0.0
 10
259.5483770405829
 20
104.7767894758086
 30
0.0
 10
259.6447699166223
 20
104.6992593844419
 30
0.0
 10
259.741046895346
 20
104.6659882581583
 30
0.0
 10
259.8030784488561
 20
104.644551569162
 30
0.0
  0
ELLIPSE
  5
F2
330
1F
100
AcDbEntity
  8
0
  6
Continuous
 62
     7
370
    15
100
AcDbEllipse
 10
252.7455456682
 20
112.2948356928
 30
0.0
 11
2.09333716601634
 21
1.06795101100549
 31
0.0
210
0.0
220
0.0
230
1.0
 40
0.9741101241
 41
0.0
 42
6.283185307179586
  0
LINE
  5
F3
330
1F
100
AcDbEntity
  8
0
  6
HIDDEN
 62
     7
370
     0
100
AcDbLine
 10
172.4441529573
 20
148.818237403
 30
0.0
 11
172.4441529573
 21
100.0182383447
 31
0.0
  0
SPLINE
  5
F4
330
1F
100
AcDbEntity
  8
0
  6
HIDDEN
 62
     7
370
     0
100
AcDbSpline
210
0.0
220
0.0
230
1.0
 70
    11
 71
     3
 72
    28
 73
    24
 74
     0
 42
0.00000001
 43
0.00000001
 12
1.0
 22
0.0
 32
0.0
 13
1.0
 23
0.0
 33
0.0
 40
0.0
 40
0.0
 40
0.0
 40
0.0
 40
0.0201595763861451
 40
0.0566448959862804
 40
0.0737314804287113
 40
0.1272992441128892
 40
0.1809742064140662
 40
0.234720349506414
 40
0.2883496382249007
 40
0.3418562023024874
 40
0.3954257437920667
 40
0.4491454874993955
 40
0.5028686942906261
 40
0.556443609863526
 40
0.6099499165290059
 40
0.663573154719189
 40
0.7173178417694821
 40
0.7709987082466544
 40
0.824529260931028
 40
0.878057961494123
 40
0.9317356366101668
 40
0.9854811714281264
 40
1.0
 40
1.0
 40
1.0
 40
1.0
 10
162.4715173006894
 20
124.1674774661978
 30
0.0
 10
162.4575413375271
 20
124.2512595864634
 30
0.0
 10
162.4182713169436
 20
124.486672741832
 30
0.0
 10
162.5168222812574
 20
124.7870752008377
 30
0.0
 10
162.5647384655602
 20
125.2329765829919
 30
0.0
 10
162.8626555080128
 20
125.6873969379239
 30
0.0
 10
163.3578984736869
 20
126.1455111861489
 30
0.0
 10
163.9944166141219
 20
126.4059908606881
 30
0.0
 10
164.6763258738898
 20
126.4431495383588
 30
0.0
 10
165.3324331875674
 20
126.2525658687643
 30
0.0
 10
165.8885204763605
 20
125.856292449695
 30
0.0
 10
166.2830449412012
 20
125.2976287909006
 30
0.0
 10
166.4704033019995
 20
124.6393830066255
 30
0.0
 10
166.4293905336084
 20
123.9570110883651
 30
0.0
 10
166.165647710782
 20
123.3272346299721
 30
0.0
 10
165.7084940447667
 20
122.8195148733361
 30
0.0
 10
165.1082901006508
 20
122.4911113477993
 30
0.0
 10
164.4329749421369
 20
122.3800348200042
 30
0.0
 10
163.7606271092149
 20
122.4983923268945
 30
0.0
 10
163.1628078709042
 20
122.8317893177297
 30
0.0
 10
162.7179924545846
 20
123.3446483257517
 30
0.0
 10
162.5005669478609
 20
123.8228156026
 30
0.0
 10
162.4766121374233
 20
124.1070293680482
 30
0.0
 10
162.4715173006894
 20
124.1674774661978
 30
0.0
  0
SPLINE
  5
F5
330
1F
100
AcDbEntity
  8
0
  6
HIDDEN
 62
     7
370
     0
100
AcDbSpline
210
0.0
220
0.0
230
1.0
 70
     8
 71
     3
 72
    12
 73
     8
 74
     0
 42
0.00000001
 43
0.00000001
 12
1.0
 22
0.0
 32
0.0
 13
1.0
 23
0.0
 33
0.0
 40
0.0
 40
0.0
 40
0.0
 40
0.0
 40
0.2500000000000016
 40
0.2500000000000016
 40
0.5000000000000032
 40
0.5000000000000032
 40
1.0
 40
1.0
 40
1.0
 40
1.0
 10
160.9719102178859
 20
116.8494279046699
 30
0.0
 10
160.9082449813554
 20
116.8494279046699
 30
0.0
 10
160.848638749132
 20
116.8233557561902
 30
0.0
 10
160.7499782242012
 20
116.7478170053691
 30
0.0
 10
160.711011234186
 20
116.7005660682729
 30
0.0
 10
160.6116244022615
 20
116.5487422503064
 30
0.0
 10
160.569548154838
 20
116.4359390005414
 30
0.0
 10
160.5388975159937
 20
116.3217848758063
 30
0.0
  0
LINE
  5
F6
330
1F
100
AcDbEntity
  8
0
  6
HIDDEN
 62
     7
370
     0
100
AcDbLine
 10
163.9163962887
 20
116.8494277387
 30
0.0
 11
160.9719100729
 21
116.8494277387
 31
0.0
  0
SPLINE
  5
F7
330
1F
100
AcDbEntity
  8
0
  6
HIDDEN
 62
     7
370
     0
100
AcDbSpline
210
0.0
220
0.0
230
1.0
 70
     8
 71
     3
 72
    12
 73
     8
 74
     0
 42
0.00000001
 43
0.00000001
 12
1.0
 22
0.0
 32
0.0
 13
1.0
 23
0.0
 33
0.0
 40
0.0
 40
0.0
 40
0.0
 40
0.0
 40
0.5000000000000004
 40
0.5000000000000004
 40
0.7500000000000002
 40
0.7500000000000002
 40
1.0
 40
1.0
 40
1.0
 40
1.0
 10
164.3494092926452
 20
116.3217848758063
 30
0.0
 10
164.3187099092779
 20
116.4361205428701
 30
0.0
 10
164.2773598411714
 20
116.5474738957115
 30
0.0
 10
164.177603912952
 20
116.7002106679602
 30
0.0
 10
164.1379069952193
 20
116.7480705538123
 30
0.0
 10
164.0406488435717
 20
116.8226736671618
 30
0.0
 10
163.9798726855809
 20
116.8494279046699
 30
0.0
 10
163.916396590753
 20
116.8494279046699
 30
0.0
  0
ELLIPSE
  5
F8
330
1F
100
AcDbEntity
  8
0
  6
HIDDEN
 62
     7
370
     0
100
AcDbEllipse
 10
151.3878957493
 20
124.4182378739
 30
0.0
 11
-11.70927234972711
 21
24.67718644093742
 31
0.0
210
0.0
220
0.0
230
1.0
 40
0.3419987131
 41
3.310521928178963
 42
4.221709151398953
  0
SPLINE
  5
F9
330
1F
100
AcDbEntity
  8
0
  6
HIDDEN
 62
     7
370
     0
100
AcDbSpline
210
0.0
220
0.0
230
1.0
 70
     8
 71
     3
 72
    12
 73
     8
 74
     0
 42
0.00000001
 43
0.00000001
 12
1.0
 22
0.0
 32
0.0
 13
1.0
 23
0.0
 33
0.0
 40
0.0
 40
0.0
 40
0.0
 40
0.0
 40
0.2500000000000002
 40
0.2500000000000002
 40
0.5000000000000004
 40
0.5000000000000004
 40
1.0
 40
1.0
 40
1.0
 40
1.0
 10
163.916396590753
 20
100.5915067583485
 30
0.0
 10
163.9800618272835
 20
100.5915067583485
 30
0.0
 10
164.0396680595069
 20
100.5997715340144
 30
0.0
 10
164.1383285844377
 20
100.6239903155975
 30
0.0
 10
164.177295574453
 20
100.6392476349067
 30
0.0
 10
164.2766824063775
 20
100.6888809891686
 30
0.0
 10
164.3187586538009
 20
100.7265206973427
 30
0.0
 10
164.3494092926452
 20
100.7655963966189
 30
0.0
  0
LINE
  5
FA
330
1F
100
AcDbEntity
  8
0
  6
HIDDEN
 62
     7
370
     0
100
AcDbLine
 10
160.9719100729
 20
100.591506505
 30
0.0
 11
163.9163962887
 21
100.591506505
 31
0.0
  0
SPLINE
  5
FB
330
1F
100
AcDbEntity
  8
0
  6
HIDDEN
 62
     7
370
     0
100
AcDbSpline
210
0.0
220
0.0
230
1.0
 70
     8
 71
     3
 72
    12
 73
     8
 74
     0
 42
0.00000001
 43
0.00000001
 12
1.0
 22
0.0
 32
0.0
 13
1.0
 23
0.0
 33
0.0
 40
0.0
 40
0.0
 40
0.0
 40
0.0
 40
0.5000000000000018
 40
0.5000000000000018
 40
0.7500000000000009
 40
0.7500000000000009
 40
1.0
 40
1.0
 40
1.0
 40
1.0
 10
160.5388975159937
 20
100.7655963966189
 30
0.0
 10
160.569596899361
 20
100.726458554223
 30
0.0
 10
160.6109469674675
 20
100.6892987714975
 30
0.0
 10
160.7107028956869
 20
100.6393622658697
 30
0.0
 10
160.7503998134196
 20
100.623909395726
 30
0.0
 10
160.8476579650673
 20
100.5999898521269
 30
0.0
 10
160.908434123058
 20
100.5915067583485
 30
0.0
 10
160.9719102178859
 20
100.5915067583485
 30
0.0
  0
ELLIPSE
  5
FC
330
1F
100
AcDbEntity
  8
0
  6
HIDDEN
 62
     7
370
     0
100
AcDbEllipse
 10
173.5004110593
 20
124.4182378739
 30
0.0
 11
11.70927234972703
 21
24.67718644093745
 31
0.0
210
0.0
220
0.0
230
1.0
 40
0.3419987131
 41
2.061476155780647
 42
2.972663379000669
  0
SPLINE
  5
FD
330
1F
100
AcDbEntity
  8
0
  6
HIDDEN
 62
     7
370
     0
100
AcDbSpline
210
0.0
220
0.0
230
1.0
 70
     8
 71
     3
 72
    12
 73
     8
 74
     0
 42
0.00000001
 43
0.00000001
 12
1.0
 22
0.0
 32
0.0
 13
1.0
 23
0.0
 33
0.0
 40
0.0
 40
0.0
 40
0.0
 40
0.0
 40
0.25
 40
0.25
 40
0.5
 40
0.5
 40
1.0
 40
1.0
 40
1.0
 40
1.0
 10
160.9719102178859
 20
148.2449689893525
 30
0.0
 10
160.9082449813554
 20
148.2449689893525
 30
0.0
 10
160.848638749132
 20
148.2367042136867
 30
0.0
 10
160.7499782242012
 20
148.2124854321035
 30
0.0
 10
160.711011234186
 20
148.1972281127944
 30
0.0
 10
160.6116244022614
 20
148.1475947585324
 30
0.0
 10
160.569548154838
 20
148.1099550503583
 30
0.0
 10
160.5388975159937
 20
148.0708793510822
 30
0.0
  0
LINE
  5
FE
330
1F
100
AcDbEntity
  8
0
  6
HIDDEN
 62
     7
370
     0
100
AcDbLine
 10
163.9163962887
 20
148.2449692427
 30
0.0
 11
160.9719100729
 21
148.2449692427
 31
0.0
  0
SPLINE
  5
FF
330
1F
100
AcDbEntity
  8
0
  6
HIDDEN
 62
     7
370
     0
100
AcDbSpline
210
0.0
220
0.0
230
1.0
 70
     8
 71
     3
 72
    12
 73
     8
 74
     0
 42
0.00000001
 43
0.00000001
 12
1.0
 22
0.0
 32
0.0
 13
1.0
 23
0.0
 33
0.0
 40
0.0
 40
0.0
 40
0.0
 40
0.0
 40
0.5000000000000013
 40
0.5000000000000013
 40
0.7500000000000007
 40
0.7500000000000007
 40
1.0
 40
1.0
 40
1.0
 40
1.0
 10
164.3494092926452
 20
148.0708793510822
 30
0.0
 10
164.3187099092779
 20
148.1100171934781
 30
0.0
 10
164.2773598411715
 20
148.1471769762036
 30
0.0
 10
164.177603912952
 20
148.1971134818313
 30
0.0
 10
164.1379069952193
 20
148.2125663519751
 30
0.0
 10
164.0406488435717
 20
148.2364858955741
 30
0.0
 10
163.9798726855809
 20
148.2449689893525
 30
0.0
 10
163.916396590753
 20
148.2449689893525
 30
0.0
  0
ELLIPSE
  5
100
330
1F
100
AcDbEntity
  8
0
  6
HIDDEN
 62
     7
370
     0
100
AcDbEllipse
 10
151.3878957493
 20
124.4182378739
 30
0.0
 11
11.70927234972729
 21
24.67718644093745
 31
0.0
210
0.0
220
0.0
230
1.0
 40
0.3419987131
 41
5.203068809370468
 42
6.114256032590514
  0
SPLINE
  5
101
330
1F
100
AcDbEntity
  8
0
  6
HIDDEN
 62
     7
370
     0
100
AcDbSpline
210
0.0
220
0.0
230
1.0
 70
     8
 71
     3
 72
    12
 73
     8
 74
     0
 42
0.00000001
 43
0.00000001
 12
1.0
 22
0.0
 32
0.0
 13
1.0
 23
0.0
 33
0.0
 40
0.0
 40
0.0
 40
0.0
 40
0.0
 40
0.2500000000000002
 40
0.2500000000000002
 40
0.5000000000000004
 40
0.5000000000000004
 40
1.0
 40
1.0
 40
1.0
 40
1.0
 10
163.916396590753
 20
131.9870478430314
 30
0.0
 10
163.9800618272835
 20
131.9870478430314
 30
0.0
 10
164.0396680595069
 20
132.0131199915111
 30
0.0
 10
164.1383285844377
 20
132.0886587423322
 30
0.0
 10
164.177295574453
 20
132.1359096794284
 30
0.0
 10
164.2766824063775
 20
132.2877334973949
 30
0.0
 10
164.3187586538009
 20
132.4005367471599
 30
0.0
 10
164.3494092926452
 20
132.5146908718951
 30
0.0
  0
LINE
  5
102
330
1F
100
AcDbEntity
  8
0
  6
HIDDEN
 62
     7
370
     0
100
AcDbLine
 10
160.9719100729
 20
131.987048009
 30
0.0
 11
163.9163962887
 21
131.987048009
 31
0.0
  0
SPLINE
  5
103
330
1F
100
AcDbEntity
  8
0
  6
HIDDEN
 62
     7
370
     0
100
AcDbSpline
210
0.0
220
0.0
230
1.0
 70
     8
 71
     3
 72
    12
 73
     8
 74
     0
 42
0.00000001
 43
0.00000001
 12
1.0
 22
0.0
 32
0.0
 13
1.0
 23
0.0
 33
0.0
 40
0.0
 40
0.0
 40
0.0
 40
0.0
 40
0.5
 40
0.5
 40
0.75
 40
0.75
 40
1.0
 40
1.0
 40
1.0
 40
1.0
 10
160.5388975159937
 20
132.514690871895
 30
0.0
 10
160.569596899361
 20
132.4003552048312
 30
0.0
 10
160.6109469674675
 20
132.2890018519898
 30
0.0
 10
160.7107028956869
 20
132.1362650797411
 30
0.0
 10
160.7503998134196
 20
132.0884051938889
 30
0.0
 10
160.8476579650673
 20
132.0138020805395
 30
0.0
 10
160.908434123058
 20
131.9870478430314
 30
0.0
 10
160.9719102178859
 20
131.9870478430314
 30
0.0
  0
ELLIPSE
  5
104
330
1F
100
AcDbEntity
  8
0
  6
HIDDEN
 62
     7
370
     0
100
AcDbEllipse
 10
173.5004110593
 20
124.4182378739
 30
0.0
 11
-11.70927234972711
 21
24.67718644093745
 31
0.0
210
0.0
220
0.0
230
1.0
 40
0.3419987131
 41
0.1689292745891147
 42
1.080116497809133
  0
LINE
  5
105
330
1F
100
AcDbEntity
  8
0
  6
HIDDEN
 62
     7
370
     0
100
AcDbLine
 10
152.4441534043
 20
149.118238756
 30
0.0
 11
152.4441534043
 21
99.7182369917
 31
0.0
  0
LINE
  5
106
330
1F
100
AcDbEntity
  8
0
  6
HIDDEN
 62
     7
370
     0
100
AcDbLine
 10
172.4441529573
 20
104.4182383209
 30
0.0
 11
172.4441529573
 21
144.4182374268
 31
0.0
  0
LINE
  5
107
330
1F
100
AcDbEntity
  8
0
  6
HIDDEN
 62
     7
370
     0
100
AcDbLine
 10
152.4441534043
 20
104.8682384878
 30
0.0
 11
152.4441534043
 21
143.9479772686
 31
0.0
  0
SPLINE
  5
108
330
1F
100
AcDbEntity
  8
0
  6
HIDDEN
 62
     7
370
     0
100
AcDbSpline
210
0.0
220
0.0
230
1.0
 70
     8
 71
     3
 72
    14
 73
    10
 74
     0
 42
0.00000001
 43
0.00000001
 12
1.0
 22
0.0
 32
0.0
 13
1.0
 23
0.0
 33
0.0
 40
0.0
 40
0.0
 40
0.0
 40
0.0
 40
0.25
 40
0.25
 40
0.5
 40
0.5
 40
0.75
 40
0.75
 40
1.0
 40
1.0
 40
1.0
 40
1.0
 10
151.4032923761911
 20
136.7127134189239
 30
0.0
 10
151.4350075105218
 20
136.6549302365807
 30
0.0
 10
151.4696220358222
 20
136.5985175755058
 30
0.0
 10
151.5492932312375
 20
136.4909181254904
 30
0.0
 10
151.5943491082679
 20
136.4390054985693
 30
0.0
 10
151.7049035207733
 20
136.3528068738721
 30
0.0
 10
151.7722889349775
 20
136.3187174539003
 30
0.0
 10
151.9229184548755
 20
136.3166150618835
 30
0.0
 10
151.9927456916409
 20
136.3499868347282
 30
0.0
 10
152.0491765154444
 20
136.3937995032789
 30
0.0
  0
SPLINE
  5
109
330
1F
100
AcDbEntity
  8
0
  6
HIDDEN
 62
     7
370
     0
100
AcDbSpline
210
0.0
220
0.0
230
1.0
 70
     8
 71
     3
 72
    16
 73
    12
 74
     0
 42
0.00000001
 43
0.00000001
 12
1.0
 22
0.0
 32
0.0
 13
1.0
 23
0.0
 33
0.0
 40
0.0
 40
0.0
 40
0.0
 40
0.0
 40
0.0624999999999999
 40
0.0624999999999999
 40
0.1249999999999998
 40
0.1249999999999998
 40
0.2499999999999998
 40
0.2499999999999998
 40
0.4999999999999999
 40
0.4999999999999999
 40
1.0
 40
1.0
 40
1.0
 40
1.0
 10
152.0491765154126
 20
136.3937995033095
 30
0.0
 10
152.0609107498595
 20
136.4029099165575
 30
0.0
 10
152.0744425053385
 20
136.4109872725039
 30
0.0
 10
152.1044299657683
 20
136.4192341141808
 30
0.0
 10
152.1194246721766
 20
136.4183067965932
 30
0.0
 10
152.1551650945713
 20
136.4055402770614
 30
0.0
 10
152.1691784315726
 20
136.3878916305511
 30
0.0
 10
152.2033225203539
 20
136.3332387105195
 30
0.0
 10
152.2142944244723
 20
136.2918390428611
 30
0.0
 10
152.2401399647386
 20
136.1633492991383
 30
0.0
 10
152.2441534043195
 20
136.0727312114996
 30
0.0
 10
152.2441534043195
 20
135.9805121069455
 30
0.0
  0
LINE
  5
10A
330
1F
100
AcDbEntity
  8
0
  6
HIDDEN
 62
     7
370
     0
100
AcDbLine
 10
152.2441534094
 20
112.8559640362
 30
0.0
 11
152.2441534094
 21
135.9805117115
 31
0.0
  0
SPLINE
  5
10B
330
1F
100
AcDbEntity
  8
0
  6
HIDDEN
 62
     7
370
     0
100
AcDbSpline
210
0.0
220
0.0
230
1.0
 70
     8
 71
     3
 72
    16
 73
    12
 74
     0
 42
0.00000001
 43
0.00000001
 12
1.0
 22
0.0
 32
0.0
 13
1.0
 23
0.0
 33
0.0
 40
0.0
 40
0.0
 40
0.0
 40
0.0
 40
0.5000000000000067
 40
0.5000000000000067
 40
0.75000000000001
 40
0.75000000000001
 40
0.8750000000000071
 40
0.8750000000000071
 40
0.9375000000000036
 40
0.9375000000000036
 40
1.0
 40
1.0
 40
1.0
 40
1.0
 10
152.2441534043195
 20
112.8559636407554
 30
0.0
 10
152.2441534043195
 20
112.7633797898515
 30
0.0
 10
152.2400961022044
 20
112.6731673339913
 30
0.0
 10
152.2144388594096
 20
112.5452262068729
 30
0.0
 10
152.2031234136675
 20
112.502812992461
 30
0.0
 10
152.1690920463589
 20
112.4484989490098
 30
0.0
 10
152.1552130651551
 20
112.43091761362
 30
0.0
 10
152.1192773833877
 20
112.418133925685
 30
0.0
 10
152.1043270641249
 20
112.4172584275369
 30
0.0
 10
152.0744285513831
 20
112.4255038626563
 30
0.0
 10
152.0608956910178
 20
112.433577522828
 30
0.0
 10
152.0491765154438
 20
112.4426762444221
 30
0.0
  0
SPLINE
  5
10C
330
1F
100
AcDbEntity
  8
0
  6
HIDDEN
 62
     7
370
     0
100
AcDbSpline
210
0.0
220
0.0
230
1.0
 70
     8
 71
     3
 72
    14
 73
    10
 74
     0
 42
0.00000001
 43
0.00000001
 12
1.0
 22
0.0
 32
0.0
 13
1.0
 23
0.0
 33
0.0
 40
0.0
 40
0.0
 40
0.0
 40
0.0
 40
0.25
 40
0.25
 40
0.5
 40
0.5
 40
0.75
 40
0.75
 40
1.0
 40
1.0
 40
1.0
 40
1.0
 10
152.0491765154506
 20
112.4426762444307
 30
0.0
 10
151.9927207508419
 20
112.4865082769254
 30
0.0
 10
151.921855124592
 20
112.5198393133473
 30
0.0
 10
151.7733980434193
 20
112.5177803031998
 30
0.0
 10
151.7042046841118
 20
112.4831842787981
 30
0.0
 10
151.5944892459777
 20
112.3975189221352
 30
0.0
 10
151.5492446666463
 20
112.3454964774272
 30
0.0
 10
151.4696179572225
 20
112.2379482170973
 30
0.0
 10
151.4350078086891
 20
112.1815460543643
 30
0.0
 10
151.4032923761898
 20
112.1237623287748
 30
0.0
  0
SPLINE
  5
10D
330
1F
100
AcDbEntity
  8
0
  6
HIDDEN
 62
     7
370
     0
100
AcDbSpline
210
0.0
220
0.0
230
1.0
 70
     8
 71
     3
 72
    10
 73
     6
 74
     0
 42
0.00000001
 43
0.00000001
 12
1.0
 22
0.0
 32
0.0
 13
1.0
 23
0.0
 33
0.0
 40
0.0
 40
0.0
 40
0.0
 40
0.0
 40
0.5
 40
0.5
 40
1.0
 40
1.0
 40
1.0
 40
1.0
 10
151.4032923761904
 20
112.1237623287758
 30
0.0
 10
151.3315125882669
 20
111.9929836118739
 30
0.0
 10
151.2790530739589
 20
111.8588834623707
 30
0.0
 10
151.1897100098577
 20
111.590790899382
 30
0.0
 10
151.153714400358
 20
111.4565455277931
 30
0.0
 10
151.1228330607599
 20
111.3231911503181
 30
0.0
  0
SPLINE
  5
10E
330
1F
100
AcDbEntity
  8
0
  6
HIDDEN
 62
     7
370
     0
100
AcDbSpline
210
0.0
220
0.0
230
1.0
 70
     8
 71
     3
 72
    10
 73
     6
 74
     0
 42
0.00000001
 43
0.00000001
 12
1.0
 22
0.0
 32
0.0
 13
1.0
 23
0.0
 33
0.0
 40
0.0
 40
0.0
 40
0.0
 40
0.0
 40
0.5
 40
0.5
 40
1.0
 40
1.0
 40
1.0
 40
1.0
 10
151.1228330607599
 20
107.1213280058457
 30
0.0
 10
151.1537060925721
 20
107.1050448584785
 30
0.0
 10
151.189692955485
 20
107.0927872687529
 30
0.0
 10
151.2790275413762
 20
107.0756842799242
 30
0.0
 10
151.3314834007988
 20
107.0708846840659
 30
0.0
 10
151.4032923761911
 20
107.0690805926579
 30
0.0
  0
SPLINE
  5
10F
330
1F
100
AcDbEntity
  8
0
  6
HIDDEN
 62
     7
370
     0
100
AcDbSpline
210
0.0
220
0.0
230
1.0
 70
     8
 71
     3
 72
     8
 73
     4
 74
     0
 42
0.00000001
 43
0.00000001
 12
1.0
 22
0.0
 32
0.0
 13
1.0
 23
0.0
 33
0.0
 40
0.0
 40
0.0
 40
0.0
 40
0.0
 40
1.0
 40
1.0
 40
1.0
 40
1.0
 10
152.2264567809445
 20
106.9431962144108
 30
0.0
 10
152.2404435894866
 20
106.9149558238291
 30
0.0
 10
152.2441534043192
 20
106.8918237810184
 30
0.0
 10
152.2441534043195
 20
106.8714834081832
 30
0.0
  0
LINE
  5
110
330
1F
100
AcDbEntity
  8
0
  6
HIDDEN
 62
     7
370
     0
100
AcDbLine
 10
152.2441534094
 20
106.5784168183
 30
0.0
 11
152.2441534094
 21
106.8714835435
 31
0.0
  0
LINE
  5
111
330
1F
100
AcDbEntity
  8
0
  6
HIDDEN
 62
     7
370
     0
100
AcDbLine
 10
152.2441534094
 20
141.9649922042
 30
0.0
 11
152.2441534094
 21
142.2580589294
 31
0.0
  0
SPLINE
  5
112
330
1F
100
AcDbEntity
  8
0
  6
HIDDEN
 62
     7
370
     0
100
AcDbSpline
210
0.0
220
0.0
230
1.0
 70
     8
 71
     3
 72
    10
 73
     6
 74
     0
 42
0.00000001
 43
0.00000001
 12
1.0
 22
0.0
 32
0.0
 13
1.0
 23
0.0
 33
0.0
 40
0.0
 40
0.0
 40
0.0
 40
0.0
 40
0.5
 40
0.5
 40
1.0
 40
1.0
 40
1.0
 40
1.0
 10
151.4032923761919
 20
141.7673951550431
 30
0.0
 10
151.3314834007993
 20
141.7655910636351
 30
0.0
 10
151.2790275413766
 20
141.7607914677768
 30
0.0
 10
151.1896929554852
 20
141.7436884789481
 30
0.0
 10
151.1537060925722
 20
141.7314308892225
 30
0.0
 10
151.1228330607599
 20
141.7151477418553
 30
0.0
  0
SPLINE
  5
113
330
1F
100
AcDbEntity
  8
0
  6
HIDDEN
 62
     7
370
     0
100
AcDbSpline
210
0.0
220
0.0
230
1.0
 70
     8
 71
     3
 72
    10
 73
     6
 74
     0
 42
0.00000001
 43
0.00000001
 12
1.0
 22
0.0
 32
0.0
 13
1.0
 23
0.0
 33
0.0
 40
0.0
 40
0.0
 40
0.0
 40
0.0
 40
0.5
 40
0.5
 40
1.0
 40
1.0
 40
1.0
 40
1.0
 10
151.1228330607599
 20
137.5132845973829
 30
0.0
 10
151.153714400358
 20
137.3799302199076
 30
0.0
 10
151.1897100098578
 20
137.2456848483185
 30
0.0
 10
151.2790530739592
 20
136.9775922853294
 30
0.0
 10
151.3315125882674
 20
136.8434921358259
 30
0.0
 10
151.4032923761911
 20
136.7127134189239
 30
0.0
  0
LINE
  5
114
330
1F
100
AcDbEntity
  8
0
  6
HIDDEN
 62
     7
370
     0
100
AcDbLine
 10
152.2441534094
 20
106.8714835435
 30
0.0
 11
152.2441534094
 21
118.4337578467
 31
0.0
  0
LINE
  5
115
330
1F
100
AcDbEntity
  8
0
  6
HIDDEN
 62
     7
370
     0
100
AcDbLine
 10
152.2441534094
 20
130.402717901
 30
0.0
 11
152.2441534094
 21
141.9649922042
 31
0.0
  0
SPLINE
  5
116
330
1F
100
AcDbEntity
  8
0
  6
HIDDEN
 62
     7
370
     0
100
AcDbSpline
210
0.0
220
0.0
230
1.0
 70
     8
 71
     3
 72
    66
 73
    62
 74
     0
 42
0.00000001
 43
0.00000001
 12
1.0
 22
0.0
 32
0.0
 13
1.0
 23
0.0
 33
0.0
 40
-0.0312499999999993
 40
-0.0312499999999993
 40
0.0
 40
0.0
 40
0.0312499999999995
 40
0.0312499999999995
 40
0.0624999999999989
 40
0.0624999999999989
 40
0.0937499999999984
 40
0.0937499999999984
 40
0.1249999999999978
 40
0.1249999999999978
 40
0.1562499999999973
 40
0.1562499999999973
 40
0.1874999999999968
 40
0.1874999999999968
 40
0.2187499999999962
 40
0.2187499999999962
 40
0.2499999999999957
 40
0.2499999999999957
 40
0.2812499999999951
 40
0.2812499999999951
 40
0.3124999999999946
 40
0.3124999999999946
 40
0.3437499999999941
 40
0.3437499999999941
 40
0.3749999999999935
 40
0.3749999999999935
 40
0.406249999999993
 40
0.406249999999993
 40
0.4374999999999925
 40
0.4374999999999925
 40
0.4687499999999919
 40
0.4687499999999919
 40
0.4999999999999913
 40
0.4999999999999913
 40
0.5624999999999929
 40
0.5624999999999929
 40
0.5937499999999937
 40
0.5937499999999937
 40
0.6249999999999944
 40
0.6249999999999944
 40
0.6562499999999953
 40
0.6562499999999953
 40
0.6874999999999961
 40
0.6874999999999961
 40
0.7187499999999968
 40
0.7187499999999968
 40
0.7499999999999974
 40
0.7499999999999974
 40
0.7812499999999981
 40
0.7812499999999981
 40
0.8124999999999988
 40
0.8124999999999988
 40
0.8437499999999994
 40
0.8437499999999994
 40
0.8750000000000001
 40
0.8750000000000001
 40
0.9375000000000013
 40
0.9375000000000013
 40
0.9687500000000007
 40
0.9687500000000007
 40
1.0
 40
1.0
 40
1.03125
 40
1.03125
 10
222.6095871520408
 20
131.6794232493107
 30
0.0
 10
222.2787196565981
 20
131.6794232493107
 30
0.0
 10
222.1161019088707
 20
131.6647626630241
 30
0.0
 10
221.7962520501357
 20
131.6072726101939
 30
0.0
 10
221.637343558279
 20
131.5637272440727
 30
0.0
 10
221.3347205089535
 20
131.4499646404543
 30
0.0
 10
221.1912304554276
 20
131.3802703069241
 30
0.0
 10
220.9196704800775
 20
131.2150862859409
 30
0.0
 10
220.7912929235178
 20
131.11884517992
 30
0.0
 10
220.5610858070198
 20
130.9077653641685
 30
0.0
 10
220.4576911631078
 20
130.7921597866732
 30
0.0
 10
220.2749211959922
 20
130.5397102472494
 30
0.0
 10
220.1974129718167
 20
130.4050461335032
 30
0.0
 10
220.072645398016
 20
130.1246330200037
 30
0.0
 10
220.024509618288
 20
129.9768027670962
 30
0.0
 10
219.9601879833958
 20
129.6728313865675
 30
0.0
 10
219.9442467025566
 20
129.5191817989856
 30
0.0
 10
219.9440609148959
 20
129.2085425007399
 30
0.0
 10
219.9603489266829
 20
129.0499437967416
 30
0.0
 10
220.024232821112
 20
128.7417991616967
 30
0.0
 10
220.07149725388
 20
128.5912544353929
 30
0.0
 10
220.196905364705
 20
128.2974899944931
 30
0.0
 10
220.2750721674648
 20
128.155224475502
 30
0.0
 10
220.4558798009807
 20
127.8905830373754
 30
0.0
 10
220.5594162783066
 20
127.7663276089481
 30
0.0
 10
220.7922494847466
 20
127.5367505166529
 30
0.0
 10
220.9182198195391
 20
127.4346070071784
 30
0.0
 10
221.188675034982
 20
127.2550940535532
 30
0.0
 10
221.3349362873669
 20
127.1770935763833
 30
0.0
 10
221.6373783781646
 20
127.0521063881368
 30
0.0
 10
221.7931978587882
 20
127.0047786810692
 30
0.0
 10
222.1140486199886
 20
126.9406421708296
 30
0.0
 10
222.2799093755833
 20
126.9242041166577
 30
0.0
 10
222.7697354090232
 20
126.9240143331655
 30
0.0
 10
223.0991776650498
 20
126.9896970032084
 30
0.0
 10
223.5506355785865
 20
127.175813279491
 30
0.0
 10
223.6963549569257
 20
127.2531151744251
 30
0.0
 10
223.9691779918078
 20
127.4338105650477
 30
0.0
 10
224.094923213353
 20
127.5359148261122
 30
0.0
 10
224.3255891620814
 20
127.7627952346448
 30
0.0
 10
224.431159868984
 20
127.8889276486758
 30
0.0
 10
224.6125452565852
 20
128.1540183126207
 30
0.0
 10
224.6894906564343
 20
128.2937210646214
 30
0.0
 10
224.8154504227073
 20
128.5873818405056
 30
0.0
 10
224.8636625394925
 20
128.7404578512244
 30
0.0
 10
224.9275814881517
 20
129.0474928403166
 30
0.0
 10
224.944015375501
 20
129.2033915245268
 30
0.0
 10
224.944289710108
 20
129.5176801821954
 30
0.0
 10
224.9282061041779
 20
129.671506575864
 30
0.0
 10
224.8648202178248
 20
129.9728646909235
 30
0.0
 10
224.8166941956312
 20
130.1219652389249
 30
0.0
 10
224.6914884306615
 20
130.4040519353305
 30
0.0
 10
224.6148277199035
 20
130.5372833543683
 30
0.0
 10
224.4334813212168
 20
130.7886263892627
 30
0.0
 10
224.3282442935758
 20
130.9066870427967
 30
0.0
 10
223.9832997378132
 20
131.2233891418801
 30
0.0
 10
223.7049042105542
 20
131.3927986844355
 30
0.0
 10
223.2539878666783
 20
131.5627299351565
 30
0.0
 10
223.0960396853787
 20
131.6064058727279
 30
0.0
 10
222.7730391051617
 20
131.6647609777048
 30
0.0
 10
222.6095871520408
 20
131.6794232493107
 30
0.0
 10
222.2787196565981
 20
131.6794232493107
 30
0.0
  0
CIRCLE
  5
117
330
1F
100
AcDbEntity
  8
0
  6
HIDDEN
 62
     7
370
     0
100
AcDbCircle
 10
138.4441534043
 20
124.4182378739
 30
0.0
 40
3.049999999999997
  0
SPLINE
  5
118
330
1F
100
AcDbEntity
  8
0
  6
HIDDEN
 62
     7
370
     0
100
AcDbSpline
210
0.0
220
0.0
230
1.0
 70
     8
 71
     3
 72
    62
 73
    58
 74
     0
 42
0.00000001
 43
0.00000001
 12
1.0
 22
0.0
 32
0.0
 13
1.0
 23
0.0
 33
0.0
 40
-0.0312500000000006
 40
-0.0312500000000006
 40
0.0
 40
0.0
 40
0.0312500000000007
 40
0.0312500000000007
 40
0.0625000000000014
 40
0.0625000000000014
 40
0.1249999999999999
 40
0.1249999999999999
 40
0.1874999999999985
 40
0.1874999999999985
 40
0.2187499999999983
 40
0.2187499999999983
 40
0.2499999999999982
 40
0.2499999999999982
 40
0.2812499999999981
 40
0.2812499999999981
 40
0.3124999999999979
 40
0.3124999999999979
 40
0.3437499999999979
 40
0.3437499999999979
 40
0.3749999999999979
 40
0.3749999999999979
 40
0.4374999999999977
 40
0.4374999999999977
 40
0.4687499999999977
 40
0.4687499999999977
 40
0.4999999999999977
 40
0.4999999999999977
 40
0.5312499999999976
 40
0.5312499999999976
 40
0.5624999999999974
 40
0.5624999999999974
 40
0.5937499999999973
 40
0.5937499999999973
 40
0.6249999999999972
 40
0.6249999999999972
 40
0.6562499999999972
 40
0.6562499999999972
 40
0.6874999999999971
 40
0.6874999999999971
 40
0.718749999999997
 40
0.718749999999997
 40
0.7499999999999969
 40
0.7499999999999969
 40
0.7812499999999968
 40
0.7812499999999968
 40
0.8124999999999967
 40
0.8124999999999967
 40
0.8749999999999977
 40
0.8749999999999977
 40
0.9062499999999983
 40
0.9062499999999983
 40
0.9374999999999989
 40
0.9374999999999989
 40
0.9687499999999994
 40
0.9687499999999994
 40
1.0
 40
1.0
 40
1.031250000000001
 40
1.031250000000001
 10
222.5853516282994
 20
125.2736607172354
 30
0.0
 10
222.3029551803396
 20
125.2736607172354
 30
0.0
 10
222.1646773033258
 20
125.2577566552176
 30
0.0
 10
221.893511232118
 20
125.1964047970207
 30
0.0
 10
221.7593079046585
 20
125.1501409841888
 30
0.0
 10
221.3802447248683
 20
124.9740433167294
 30
0.0
 10
221.1512378031745
 20
124.8042854637244
 30
0.0
 10
220.7702071841718
 20
124.398763066259
 30
0.0
 10
220.6145841072501
 20
124.1587732742486
 30
0.0
 10
220.4555136306815
 20
123.7764367022109
 30
0.0
 10
220.4137864855381
 20
123.6423039147563
 30
0.0
 10
220.3585157843961
 20
123.3751170441665
 30
0.0
 10
220.3444358529063
 20
123.2418160977469
 30
0.0
 10
220.3438792865851
 20
122.9759723910005
 30
0.0
 10
220.3578685640057
 20
122.8437572412887
 30
0.0
 10
220.4123500832413
 20
122.5934492670131
 30
0.0
 10
220.4532005413963
 20
122.4726273549407
 30
0.0
 10
220.5598145082556
 20
122.2452674954125
 30
0.0
 10
220.6245666505287
 20
122.1402518474766
 30
0.0
 10
220.7761251924812
 20
121.9454270224977
 30
0.0
 10
220.8634633156543
 20
121.8555420685559
 30
0.0
 10
221.1492397366159
 20
121.6165068165728
 30
0.0
 10
221.3787760850816
 20
121.4918669150594
 30
0.0
 10
221.7550942210759
 20
121.3662972427639
 30
0.0
 10
221.8874271294366
 20
121.3339780514972
 30
0.0
 10
222.1614597884274
 20
121.2903748662724
 30
0.0
 10
222.2994849480496
 20
121.2795183891667
 30
0.0
 10
222.5775563292683
 20
121.2789400240763
 30
0.0
 10
222.7192692679387
 20
121.2896384791587
 30
0.0
 10
222.991691523619
 20
121.3320747399469
 30
0.0
 10
223.123519668116
 20
121.363550365965
 30
0.0
 10
223.3789185637207
 20
121.447824449836
 30
0.0
 10
223.4990845669099
 20
121.4995566397102
 30
0.0
 10
223.7242559794663
 20
121.6218283734991
 30
0.0
 10
223.8304070408007
 20
121.693314970726
 30
0.0
 10
224.0218543295028
 20
121.852648657446
 30
0.0
 10
224.1077883434223
 20
121.9405662651328
 30
0.0
 10
224.2602006614624
 20
122.1349552297288
 30
0.0
 10
224.3263841517498
 20
122.2417508370675
 30
0.0
 10
224.4325658503009
 20
122.4662727904076
 30
0.0
 10
224.4735459135167
 20
122.5850660502447
 30
0.0
 10
224.5296260543141
 20
122.8374846513428
 30
0.0
 10
224.5438502297553
 20
122.9684189525449
 30
0.0
 10
224.5444469136268
 20
123.2328443792749
 30
0.0
 10
224.5306783461284
 20
123.3690263298655
 30
0.0
 10
224.4758282791863
 20
123.6377121012641
 30
0.0
 10
224.4353317659099
 20
123.7693006593057
 30
0.0
 10
224.2758692947338
 20
124.1556140514455
 30
0.0
 10
224.1212008704195
 20
124.3950961207804
 30
0.0
 10
223.8328928390749
 20
124.7024834629511
 30
0.0
 10
223.7288680237271
 20
124.7949461851291
 30
0.0
 10
223.5044487655483
 20
124.9595651612519
 30
0.0
 10
223.3825179776878
 20
125.0322884032933
 30
0.0
 10
223.1300608262618
 20
125.1497247919991
 30
0.0
 10
222.9991742963447
 20
125.1951040130839
 30
0.0
 10
222.7272333786318
 20
125.2572423923644
 30
0.0
 10
222.5853516282994
 20
125.2736607172354
 30
0.0
 10
222.3029551803396
 20
125.2736607172354
 30
0.0
  0
SPLINE
  5
119
330
1F
100
AcDbEntity
  8
0
  6
HIDDEN
 62
     7
370
     0
100
AcDbSpline
210
0.0
220
0.0
230
1.0
 70
     8
 71
     3
 72
    54
 73
    50
 74
     0
 42
0.00000001
 43
0.00000001
 12
1.0
 22
0.0
 32
0.0
 13
1.0
 23
0.0
 33
0.0
 40
0.0
 40
0.0
 40
0.0
 40
0.0
 40
0.0624999999999981
 40
0.0624999999999981
 40
0.1249999999999962
 40
0.1249999999999962
 40
0.1562499999999952
 40
0.1562499999999952
 40
0.1874999999999943
 40
0.1874999999999943
 40
0.2187499999999933
 40
0.2187499999999933
 40
0.2499999999999923
 40
0.2499999999999923
 40
0.312499999999992
 40
0.312499999999992
 40
0.3749999999999917
 40
0.3749999999999917
 40
0.4374999999999914
 40
0.4374999999999914
 40
0.4687499999999917
 40
0.4687499999999917
 40
0.4999999999999921
 40
0.4999999999999921
 40
0.5312499999999925
 40
0.5312499999999925
 40
0.5624999999999929
 40
0.5624999999999929
 40
0.5937499999999932
 40
0.5937499999999932
 40
0.6249999999999936
 40
0.6249999999999936
 40
0.6874999999999944
 40
0.6874999999999944
 40
0.7499999999999953
 40
0.7499999999999953
 40
0.7812499999999958
 40
0.7812499999999958
 40
0.7968749999999962
 40
0.7968749999999962
 40
0.8124999999999967
 40
0.8124999999999967
 40
0.843749999999998
 40
0.843749999999998
 40
0.8749999999999993
 40
0.8749999999999993
 40
0.9374999999999997
 40
0.9374999999999997
 40
1.0
 40
1.0
 40
1.0
 40
1.0
 10
224.5278432382992
 20
120.6494533634965
 30
0.0
 10
224.5025687810775
 20
120.8797821810502
 30
0.0
 10
224.4510767007367
 20
121.0941403763539
 30
0.0
 10
224.31693942729
 20
121.4979428731504
 30
0.0
 10
224.2313714501966
 20
121.6889617191469
 30
0.0
 10
224.1100018779307
 20
121.9387769698446
 30
0.0
 10
224.070577088631
 20
122.0166156980956
 30
0.0
 10
224.0146512607015
 20
122.1472448218613
 30
0.0
 10
224.0004029466413
 20
122.1988905878201
 30
0.0
 10
224.0162086509347
 20
122.255356171121
 30
0.0
 10
224.0439206411494
 20
122.2610517923877
 30
0.0
 10
224.1111193802793
 20
122.2469854735685
 30
0.0
 10
224.1506727546717
 20
122.2276546353165
 30
0.0
 10
224.269145380563
 20
122.1469568466937
 30
0.0
 10
224.3459346096103
 20
122.0650249069742
 30
0.0
 10
224.4683061811203
 20
121.8575905982661
 30
0.0
 10
224.5145887781111
 20
121.7301225172002
 30
0.0
 10
224.5534094015729
 20
121.4346632673428
 30
0.0
 10
224.5460773898767
 20
121.2631439777481
 30
0.0
 10
224.4777229423228
 20
120.9829881618031
 30
0.0
 10
224.4449506402206
 20
120.8846905728463
 30
0.0
 10
224.3613571670431
 20
120.6891638710081
 30
0.0
 10
224.3101340190348
 20
120.5903371406619
 30
0.0
 10
224.1883205443081
 20
120.3924945292208
 30
0.0
 10
224.1202169571444
 20
120.2974105102633
 30
0.0
 10
223.9709525913151
 20
120.1142067919943
 30
0.0
 10
223.8896340811536
 20
120.0262283052262
 30
0.0
 10
223.7223432486901
 20
119.8639911280241
 30
0.0
 10
223.634701923066
 20
119.7880153515815
 30
0.0
 10
223.4579979278428
 20
119.6492674409909
 30
0.0
 10
223.3692747414296
 20
119.5865999804174
 30
0.0
 10
223.1025251852874
 20
119.4149615611267
 30
0.0
 10
222.9226718991492
 20
119.3221720861813
 30
0.0
 10
222.5827575511985
 20
119.175668052446
 30
0.0
 10
222.418663893235
 20
119.1210936514053
 30
0.0
 10
222.1978738066438
 20
119.0524541192324
 30
0.0
 10
222.1289079478225
 20
119.0320717292033
 30
0.0
 10
222.0452373852162
 20
118.9980671832653
 30
0.0
 10
222.0210762832179
 20
118.9861913657887
 30
0.0
 10
221.9857174434714
 20
118.9585644388264
 30
0.0
 10
221.9750580930543
 20
118.9426666109249
 30
0.0
 10
221.97392857215
 20
118.8881432405776
 30
0.0
 10
222.0165649107648
 20
118.8425765163025
 30
0.0
 10
222.1324816580154
 20
118.7597458938716
 30
0.0
 10
222.2053232195417
 20
118.7210388799954
 30
0.0
 10
222.4364296698159
 20
118.6215405700864
 30
0.0
 10
222.6079804770698
 20
118.5761983025458
 30
0.0
 10
222.9660161860597
 20
118.5391024116656
 30
0.0
 10
223.1497974727924
 20
118.5476537979567
 30
0.0
 10
223.334022058469
 20
118.5919750053703
 30
0.0
  0
LWPOLYLINE
  5
11A
330
1F
100
AcDbEntity
  8
0
  6
HIDDEN
 62
     7
370
     0
100
AcDbPolyline
 90
       19
 70
   128
 43
0.0
 10
223.3340212465
 20
118.5919751167
 10
222.7753990651
 20
118.4288008823
 10
222.1911245347
 20
118.4183491147
 10
221.6264450312
 20
118.5614286675
 10
221.1250880123
 20
118.8469605274
 10
220.7258710028
 20
119.252834165
 10
220.4597139121
 20
119.7476193062
 10
220.3472250462
 20
120.2930013403
 10
220.3971215845
 20
120.846748048
 10
220.605529225
 20
121.3659785441
 10
220.95631001
 20
121.8104853048
 10
221.4223140241
 20
122.1458473462
 10
221.967443204
 20
122.3460949711
 10
222.5494825602
 20
122.3957218915
 10
223.1233709813
 20
122.2908847719
 10
223.6446583033
 20
122.0397019512
 10
224.0729847313
 20
121.6616245671
 10
224.3751802803
 20
121.1859296761
 10
224.5278426767
 20
120.6494534142
  0
SPLINE
  5
11B
330
1F
100
AcDbEntity
  8
0
  6
HIDDEN
 62
     7
370
     0
100
AcDbSpline
210
0.0
220
0.0
230
1.0
 70
     8
 71
     3
 72
    26
 73
    22
 74
     0
 42
0.00000001
 43
0.00000001
 12
1.0
 22
0.0
 32
0.0
 13
1.0
 23
0.0
 33
0.0
 40
0.0
 40
0.0
 40
0.0
 40
0.0
 40
0.1249999999999995
 40
0.1249999999999995
 40
0.2499999999999991
 40
0.2499999999999991
 40
0.3124999999999973
 40
0.3124999999999973
 40
0.3749999999999955
 40
0.3749999999999955
 40
0.4999999999999962
 40
0.4999999999999962
 40
0.624999999999997
 40
0.624999999999997
 40
0.6875000000000011
 40
0.6875000000000011
 40
0.7500000000000051
 40
0.7500000000000051
 40
0.8750000000000026
 40
0.8750000000000026
 40
1.0
 40
1.0
 40
1.0
 40
1.0
 10
223.334022058469
 20
118.5919750053703
 30
0.0
 10
223.2479896886813
 20
118.6776955037126
 30
0.0
 10
223.1667926313009
 20
118.7670208692357
 30
0.0
 10
223.0247459060315
 20
118.9578395896326
 30
0.0
 10
222.9639699764604
 20
119.0573226503329
 30
0.0
 10
222.9141360749593
 20
119.2226621792407
 30
0.0
 10
222.9053073348255
 20
119.2812030813863
 30
0.0
 10
222.9104748711908
 20
119.3980792912087
 30
0.0
 10
222.9247871676372
 20
119.4582858658835
 30
0.0
 10
222.9927954778903
 20
119.6348319281958
 30
0.0
 10
223.0663641664302
 20
119.7508833485562
 30
0.0
 10
223.2117020576777
 20
119.9882634080776
 30
0.0
 10
223.2843964557651
 20
120.1104991249822
 30
0.0
 10
223.4240843952038
 20
120.2806411112627
 30
0.0
 10
223.4752896261677
 20
120.3327178601904
 30
0.0
 10
223.5881766124075
 20
120.4222792112539
 30
0.0
 10
223.650846056064
 20
120.4603864604104
 30
0.0
 10
223.8431979803425
 20
120.5519317395396
 30
0.0
 10
223.9804254316718
 20
120.5870286847729
 30
0.0
 10
224.2537526280464
 20
120.6334157518953
 30
0.0
 10
224.3907521284332
 20
120.6445541455802
 30
0.0
 10
224.5278432382992
 20
120.6494533634965
 30
0.0
  0
LINE
  5
11C
330
1F
100
AcDbEntity
  8
0
  6
HIDDEN
 62
     7
370
     0
100
AcDbLine
 10
127.4721932919
 20
135.2069132715
 30
0.0
 11
127.4721932919
 21
113.6295624762
 31
0.0
  0
LINE
  5
11D
330
1F
100
AcDbEntity
  8
0
  6
HIDDEN
 62
     7
370
     0
100
AcDbLine
 10
123.4721926362
 20
135.5881110519
 30
0.0
 11
123.4721926362
 21
113.2483646958
 31
0.0
  0
LINE
  5
11E
330
1F
100
AcDbEntity
  8
0
  6
HIDDEN
 62
     7
370
     0
100
AcDbLine
 10
122.4441540749
 20
112.6548253685
 30
0.0
 11
122.4441540749
 21
136.1609899192
 31
0.0
  0
LINE
  5
11F
330
1F
100
AcDbEntity
  8
0
  6
HIDDEN
 62
     7
370
     0
100
AcDbLine
 10
132.0721929283
 20
134.9182377323
 30
0.0
 11
132.0721929283
 21
113.9182380154
 31
0.0
  0
LINE
  5
120
330
1F
100
AcDbEntity
  8
0
  6
HIDDEN
 62
     7
370
     0
100
AcDbLine
 10
125.9721939773
 20
134.9182377323
 30
0.0
 11
125.9721939773
 21
113.9182380154
 31
0.0
  0
LINE
  5
121
330
1F
100
AcDbEntity
  8
0
  6
HIDDEN
 62
     7
370
     0
100
AcDbLine
 10
126.9721941412
 20
134.9182377323
 30
0.0
 11
126.9721941412
 21
113.9182380154
 31
0.0
  0
SPLINE
  5
122
330
1F
100
AcDbEntity
  8
0
  6
HIDDEN
 62
     7
370
     0
100
AcDbSpline
210
0.0
220
0.0
230
1.0
 70
     8
 71
     3
 72
    66
 73
    62
 74
     0
 42
0.00000001
 43
0.00000001
 12
1.0
 22
0.0
 32
0.0
 13
1.0
 23
0.0
 33
0.0
 40
-0.0312500000000007
 40
-0.0312500000000007
 40
0.0
 40
0.0
 40
0.0312499999999998
 40
0.0312499999999998
 40
0.0624999999999996
 40
0.0624999999999996
 40
0.0937499999999994
 40
0.0937499999999994
 40
0.1249999999999992
 40
0.1249999999999992
 40
0.1874999999999988
 40
0.1874999999999988
 40
0.2187499999999987
 40
0.2187499999999987
 40
0.2499999999999986
 40
0.2499999999999986
 40
0.2812499999999984
 40
0.2812499999999984
 40
0.3124999999999983
 40
0.3124999999999983
 40
0.3437499999999981
 40
0.3437499999999981
 40
0.374999999999998
 40
0.374999999999998
 40
0.4062499999999978
 40
0.4062499999999978
 40
0.4374999999999977
 40
0.4374999999999977
 40
0.4687499999999976
 40
0.4687499999999976
 40
0.4999999999999974
 40
0.4999999999999974
 40
0.5312499999999973
 40
0.5312499999999973
 40
0.5624999999999971
 40
0.5624999999999971
 40
0.593749999999997
 40
0.593749999999997
 40
0.624999999999997
 40
0.624999999999997
 40
0.656249999999997
 40
0.656249999999997
 40
0.687499999999997
 40
0.687499999999997
 40
0.7187499999999971
 40
0.7187499999999971
 40
0.7499999999999971
 40
0.7499999999999971
 40
0.7812499999999972
 40
0.7812499999999972
 40
0.8124999999999973
 40
0.8124999999999973
 40
0.8749999999999978
 40
0.8749999999999978
 40
0.9062499999999981
 40
0.9062499999999981
 40
0.9374999999999987
 40
0.9374999999999987
 40
0.9687499999999993
 40
0.9687499999999993
 40
1.0
 40
1.0
 40
1.03125
 40
1.03125
 10
138.2414747573717
 20
127.4682378738505
 30
0.0
 10
138.6468320512673
 20
127.4682378738505
 30
0.0
 10
138.8458919426031
 20
127.4482383142339
 30
0.0
 10
139.2371459271828
 20
127.3700948115337
 30
0.0
 10
139.4314186859305
 20
127.3109337100129
 30
0.0
 10
139.8001821124818
 20
127.1575020231187
 30
0.0
 10
139.97490727086
 20
127.0637752132764
 30
0.0
 10
140.3055845743939
 20
126.8425211108715
 30
0.0
 10
140.4612321183967
 20
126.714539743877
 30
0.0
 10
140.8806994880653
 20
126.2949846468769
 30
0.0
 10
141.1075876295956
 20
125.9565060881735
 30
0.0
 10
141.3363842529804
 20
125.4066272004553
 30
0.0
 10
141.3955765078292
 20
125.2132273547119
 30
0.0
 10
141.4743839180898
 20
124.818999204354
 30
0.0
 10
141.4940233343702
 20
124.6203603769217
 30
0.0
 10
141.4942821987917
 20
124.2200600910233
 30
0.0
 10
141.4742115141588
 20
124.0167207643022
 30
0.0
 10
141.3958738315289
 20
123.6246292436946
 30
0.0
 10
141.3379240634904
 20
123.4339233753794
 30
0.0
 10
141.1839809216104
 20
123.0631995587928
 30
0.0
 10
141.0890423078877
 20
122.886472898984
 30
0.0
 10
140.8686848920105
 20
122.5572197880596
 30
0.0
 10
140.7414048660823
 20
122.4020985644632
 30
0.0
 10
140.4596492747517
 20
122.1204218695328
 30
0.0
 10
140.3068609452942
 20
121.9949886846284
 30
0.0
 10
139.9774338631373
 20
121.7742130912743
 30
0.0
 10
139.7988878599856
 20
121.6783818385741
 30
0.0
 10
139.4313155344354
 20
121.525552708079
 30
0.0
 10
139.2411615077245
 20
121.4673809501348
 30
0.0
 10
138.847621085022
 20
121.3883876577899
 30
0.0
 10
138.6451870137608
 20
121.3683245321476
 30
0.0
 10
138.2457579383954
 20
121.3681517860289
 30
0.0
 10
138.0457389598396
 20
121.3876351601182
 30
0.0
 10
137.6496230123902
 20
121.4666267317194
 30
0.0
 10
137.4588901841983
 20
121.5249069515714
 30
0.0
 10
137.0912587436186
 20
121.6774745721793
 30
0.0
 10
136.9127723114508
 20
121.7730833589526
 30
0.0
 10
136.5825670524868
 20
121.9940954040377
 30
0.0
 10
136.4296784744248
 20
122.1195453028078
 30
0.0
 10
136.1480820798868
 20
122.4007757918131
 30
0.0
 10
136.0204511570113
 20
122.5561586697271
 30
0.0
 10
135.8001257220114
 20
122.88500952777
 30
0.0
 10
135.7058992650461
 20
123.059897634184
 30
0.0
 10
135.550964744443
 20
123.4320414855448
 30
0.0
 10
135.4929524588407
 20
123.6228475273537
 30
0.0
 10
135.4145332045626
 20
124.0137205452725
 30
0.0
 10
135.3942191245961
 20
124.2161781066548
 30
0.0
 10
135.3940880082921
 20
124.6183087115742
 30
0.0
 10
135.4137127016515
 20
124.8170327567493
 30
0.0
 10
135.4918791520651
 20
125.209872227886
 30
0.0
 10
135.551166597405
 20
125.4045165052886
 30
0.0
 10
135.7802474404879
 20
125.9559562587028
 30
0.0
 10
136.0070782913821
 20
126.2942958244019
 30
0.0
 10
136.4264169927027
 20
126.7139614870534
 30
0.0
 10
136.5817699884527
 20
126.8418074928267
 30
0.0
 10
136.9127378215899
 20
127.0634085675285
 30
0.0
 10
137.0872991217862
 20
127.1570493015054
 30
0.0
 10
137.4548724293611
 20
127.3102034222047
 30
0.0
 10
137.6495592909992
 20
127.3697071678507
 30
0.0
 10
138.0420352409356
 20
127.4482299169137
 30
0.0
 10
138.2414747573717
 20
127.4682378738505
 30
0.0
 10
138.6468320512673
 20
127.4682378738505
 30
0.0
  0
SPLINE
  5
123
330
1F
100
AcDbEntity
  8
0
  6
HIDDEN
 62
     7
370
     0
100
AcDbSpline
210
0.0
220
0.0
230
1.0
 70
     8
 71
     3
 72
    66
 73
    62
 74
     0
 42
0.00000001
 43
0.00000001
 12
1.0
 22
0.0
 32
0.0
 13
1.0
 23
0.0
 33
0.0
 40
-0.03125
 40
-0.03125
 40
0.0
 40
0.0
 40
0.0312499999999999
 40
0.0312499999999999
 40
0.0624999999999998
 40
0.0624999999999998
 40
0.0937499999999998
 40
0.0937499999999998
 40
0.1249999999999997
 40
0.1249999999999997
 40
0.1874999999999996
 40
0.1874999999999996
 40
0.2187499999999996
 40
0.2187499999999996
 40
0.2499999999999996
 40
0.2499999999999996
 40
0.2812499999999996
 40
0.2812499999999996
 40
0.3124999999999996
 40
0.3124999999999996
 40
0.3437499999999996
 40
0.3437499999999996
 40
0.3749999999999995
 40
0.3749999999999995
 40
0.4062499999999995
 40
0.4062499999999995
 40
0.4374999999999995
 40
0.4374999999999995
 40
0.4687499999999994
 40
0.4687499999999994
 40
0.4999999999999994
 40
0.4999999999999994
 40
0.5312499999999994
 40
0.5312499999999994
 40
0.5624999999999996
 40
0.5624999999999996
 40
0.5937499999999996
 40
0.5937499999999996
 40
0.6249999999999996
 40
0.6249999999999996
 40
0.6562499999999997
 40
0.6562499999999997
 40
0.6874999999999997
 40
0.6874999999999997
 40
0.7187499999999997
 40
0.7187499999999997
 40
0.7499999999999997
 40
0.7499999999999997
 40
0.7812499999999998
 40
0.7812499999999998
 40
0.8124999999999998
 40
0.8124999999999998
 40
0.8749999999999999
 40
0.8749999999999999
 40
0.9062499999999999
 40
0.9062499999999999
 40
0.9374999999999999
 40
0.9374999999999999
 40
0.96875
 40
0.96875
 40
1.0
 40
1.0
 40
1.03125
 40
1.03125
 10
138.6468320512673
 20
127.4682378738505
 30
0.0
 10
138.2414747573717
 20
127.4682378738505
 30
0.0
 10
138.0424148660358
 20
127.4482383142339
 30
0.0
 10
137.6511608814561
 20
127.3700948115337
 30
0.0
 10
137.4568881227084
 20
127.3109337100129
 30
0.0
 10
137.0881246961572
 20
127.1575020231187
 30
0.0
 10
136.9133995377789
 20
127.0637752132764
 30
0.0
 10
136.5827222342451
 20
126.8425211108715
 30
0.0
 10
136.4270746902422
 20
126.714539743877
 30
0.0
 10
136.0076073205736
 20
126.2949846468769
 30
0.0
 10
135.7807191790433
 20
125.9565060881735
 30
0.0
 10
135.5519225556586
 20
125.4066272004553
 30
0.0
 10
135.4927303008097
 20
125.2132273547119
 30
0.0
 10
135.4139228905491
 20
124.818999204354
 30
0.0
 10
135.3942834742688
 20
124.6203603769217
 30
0.0
 10
135.3940246098472
 20
124.2200600910233
 30
0.0
 10
135.4140952944801
 20
124.0167207643022
 30
0.0
 10
135.4924329771101
 20
123.6246292436946
 30
0.0
 10
135.5503827451485
 20
123.4339233753794
 30
0.0
 10
135.7043258870285
 20
123.0631995587928
 30
0.0
 10
135.7992645007512
 20
122.886472898984
 30
0.0
 10
136.0196219166284
 20
122.5572197880596
 30
0.0
 10
136.1469019425567
 20
122.4020985644632
 30
0.0
 10
136.4286575338872
 20
122.1204218695328
 30
0.0
 10
136.5814458633447
 20
121.9949886846284
 30
0.0
 10
136.9108729455016
 20
121.7742130912743
 30
0.0
 10
137.0894189486533
 20
121.6783818385741
 30
0.0
 10
137.4569912742035
 20
121.525552708079
 30
0.0
 10
137.6471453009145
 20
121.4673809501348
 30
0.0
 10
138.0406857236169
 20
121.3883876577899
 30
0.0
 10
138.2431197948781
 20
121.3683245321476
 30
0.0
 10
138.6425488702435
 20
121.3681517860289
 30
0.0
 10
138.8425678487994
 20
121.3876351601182
 30
0.0
 10
139.2386837962488
 20
121.4666267317194
 30
0.0
 10
139.4294166244406
 20
121.5249069515714
 30
0.0
 10
139.7970480650203
 20
121.6774745721793
 30
0.0
 10
139.9755344971881
 20
121.7730833589526
 30
0.0
 10
140.3057397561521
 20
121.9940954040377
 30
0.0
 10
140.4586283342141
 20
122.1195453028078
 30
0.0
 10
140.7402247287522
 20
122.4007757918131
 30
0.0
 10
140.8678556516277
 20
122.5561586697271
 30
0.0
 10
141.0881810866275
 20
122.88500952777
 30
0.0
 10
141.1824075435929
 20
123.059897634184
 30
0.0
 10
141.3373420641959
 20
123.4320414855448
 30
0.0
 10
141.3953543497982
 20
123.6228475273537
 30
0.0
 10
141.4737736040763
 20
124.0137205452725
 30
0.0
 10
141.4940876840429
 20
124.2161781066548
 30
0.0
 10
141.4942188003469
 20
124.6183087115742
 30
0.0
 10
141.4745941069875
 20
124.8170327567493
 30
0.0
 10
141.3964276565738
 20
125.209872227886
 30
0.0
 10
141.3371402112339
 20
125.4045165052886
 30
0.0
 10
141.108059368151
 20
125.9559562587028
 30
0.0
 10
140.8812285172569
 20
126.2942958244019
 30
0.0
 10
140.4618898159362
 20
126.7139614870534
 30
0.0
 10
140.3065368201862
 20
126.8418074928267
 30
0.0
 10
139.9755689870491
 20
127.0634085675285
 30
0.0
 10
139.8010076868527
 20
127.1570493015054
 30
0.0
 10
139.4334343792779
 20
127.3102034222047
 30
0.0
 10
139.2387475176398
 20
127.3697071678507
 30
0.0
 10
138.8462715677033
 20
127.4482299169137
 30
0.0
 10
138.6468320512673
 20
127.4682378738505
 30
0.0
 10
138.2414747573717
 20
127.4682378738505
 30
0.0
  0
LINE
  5
124
330
1F
100
AcDbEntity
  8
0
  6
HIDDEN
 62
     7
370
     0
100
AcDbLine
 10
142.4441536278
 20
134.4182376503
 30
0.0
 11
142.4441536278
 21
114.4182380974
 31
0.0
  0
SPLINE
  5
125
330
1F
100
AcDbEntity
  8
0
  6
HIDDEN
 62
     7
370
     0
100
AcDbSpline
210
0.0
220
0.0
230
1.0
 70
     8
 71
     3
 72
    12
 73
     8
 74
     0
 42
0.00000001
 43
0.00000001
 12
1.0
 22
0.0
 32
0.0
 13
1.0
 23
0.0
 33
0.0
 40
0.0
 40
0.0
 40
0.0
 40
0.0
 40
0.2500000000000001
 40
0.2500000000000001
 40
0.5000000000000001
 40
0.5000000000000001
 40
1.0
 40
1.0
 40
1.0
 40
1.0
 10
236.9441534043195
 20
124.4182378738505
 30
0.0
 10
236.9441534043195
 20
123.9322311146109
 30
0.0
 10
236.9659666546639
 20
123.4423441730828
 30
0.0
 10
237.0511872964132
 20
122.4751397988453
 30
0.0
 10
237.1144286932841
 20
121.9960748409779
 30
0.0
 10
237.3608147789043
 20
120.5713411694717
 30
0.0
 10
237.600594556453
 20
119.6381277626523
 30
0.0
 10
237.9009572354909
 20
118.7182378738505
 30
0.0
  0
LINE
  5
126
330
1F
100
AcDbEntity
  8
0
  6
HIDDEN
 62
     7
370
     0
100
AcDbLine
 10
236.9441532851
 20
124.4182378739
 30
0.0
 11
236.9441532851
 21
140.9182377844
 31
0.0
  0
SPLINE
  5
127
330
1F
100
AcDbEntity
  8
0
  6
HIDDEN
 62
     7
370
     0
100
AcDbSpline
210
0.0
220
0.0
230
1.0
 70
     8
 71
     3
 72
    12
 73
     8
 74
     0
 42
0.00000001
 43
0.00000001
 12
1.0
 22
0.0
 32
0.0
 13
1.0
 23
0.0
 33
0.0
 40
0.0
 40
0.0
 40
0.0
 40
0.0
 40
0.219179630801393
 40
0.4408851155317024
 40
0.632593478101954
 40
0.8297302071590014
 40
1.0
 40
1.0
 40
1.0
 40
1.0
 10
240.4218011856915
 20
110.620523498891
 30
0.0
 10
239.8889547781527
 20
110.4135689872393
 30
0.0
 10
238.8171213733356
 20
109.9972749938342
 30
0.0
 10
237.6625256018292
 20
109.3609823923378
 30
0.0
 10
236.9977975496725
 20
108.7205219135027
 30
0.0
 10
236.8531171150259
 20
108.1174227126712
 30
0.0
 10
237.1843966919996
 20
107.7293057344986
 30
0.0
 10
237.3379239202382
 20
107.549437949
 30
0.0
  0
SPLINE
  5
128
330
1F
100
AcDbEntity
  8
0
  6
HIDDEN
 62
     7
370
     0
100
AcDbSpline
210
0.0
220
0.0
230
1.0
 70
     8
 71
     3
 72
    12
 73
     8
 74
     0
 42
0.00000001
 43
0.00000001
 12
1.0
 22
0.0
 32
0.0
 13
1.0
 23
0.0
 33
0.0
 40
0.0
 40
0.0
 40
0.0
 40
0.0
 40
0.2499999999999999
 40
0.2499999999999999
 40
0.4999999999999998
 40
0.4999999999999998
 40
1.0
 40
1.0
 40
1.0
 40
1.0
 10
240.4218025374846
 20
110.620523796248
 30
0.0
 10
240.2357625892585
 20
111.2429857458554
 30
0.0
 10
240.0422708573838
 20
111.8859197201351
 30
0.0
 10
239.6389056328394
 20
113.213187288517
 30
0.0
 10
239.4319700994645
 20
113.8877902573273
 30
0.0
 10
238.7997616664209
 20
115.9254178927335
 30
0.0
 10
238.3609752716431
 20
117.3093879412346
 30
0.0
 10
237.9009572354909
 20
118.7182378738505
 30
0.0
  0
SPLINE
  5
129
330
1F
100
AcDbEntity
  8
0
  6
HIDDEN
 62
     7
370
     0
100
AcDbSpline
210
0.0
220
0.0
230
1.0
 70
     8
 71
     3
 72
    72
 73
    68
 74
     0
 42
0.00000001
 43
0.00000001
 12
1.0
 22
0.0
 32
0.0
 13
1.0
 23
0.0
 33
0.0
 40
-0.03125
 40
-0.03125
 40
0.0
 40
0.0
 40
0.0312500000000001
 40
0.0312500000000001
 40
0.0625000000000003
 40
0.0625000000000003
 40
0.0937500000000004
 40
0.0937500000000004
 40
0.1250000000000005
 40
0.1250000000000005
 40
0.1562500000000007
 40
0.1562500000000007
 40
0.1875000000000008
 40
0.1875000000000008
 40
0.2187500000000009
 40
0.2187500000000009
 40
0.2500000000000011
 40
0.2500000000000011
 40
0.2656250000000011
 40
0.2656250000000011
 40
0.2812500000000012
 40
0.2812500000000012
 40
0.3125000000000011
 40
0.3125000000000011
 40
0.343750000000001
 40
0.343750000000001
 40
0.3750000000000009
 40
0.3750000000000009
 40
0.4062500000000009
 40
0.4062500000000009
 40
0.4375000000000009
 40
0.4375000000000009
 40
0.4687500000000009
 40
0.4687500000000009
 40
0.5000000000000008
 40
0.5000000000000008
 40
0.5312500000000008
 40
0.5312500000000008
 40
0.5625000000000007
 40
0.5625000000000007
 40
0.5937500000000007
 40
0.5937500000000007
 40
0.6250000000000006
 40
0.6250000000000006
 40
0.6562500000000004
 40
0.6562500000000004
 40
0.6875000000000003
 40
0.6875000000000003
 40
0.7187500000000002
 40
0.7187500000000002
 40
0.7500000000000001
 40
0.7500000000000001
 40
0.7812500000000001
 40
0.7812500000000001
 40
0.8125
 40
0.8125
 40
0.8437499999999999
 40
0.8437499999999999
 40
0.8749999999999999
 40
0.8749999999999999
 40
0.9062499999999999
 40
0.9062499999999999
 40
0.9375
 40
0.9375
 40
0.96875
 40
0.96875
 40
1.0
 40
1.0
 40
1.03125
 40
1.03125
 10
245.2479865407421
 20
134.1170235525288
 30
0.0
 10
244.6851741490823
 20
134.1170235525288
 30
0.0
 10
244.4091519252454
 20
134.0925339699951
 30
0.0
 10
243.8669699896934
 20
133.9981658530535
 30
0.0
 10
243.5980331381698
 20
133.9270936478215
 30
0.0
 10
243.0870082618546
 20
133.7437817369366
 30
0.0
 10
242.8445635648431
 20
133.6321473616516
 30
0.0
 10
242.3843887655866
 20
133.3691593685587
 30
0.0
 10
242.1670912685822
 20
133.217358535909
 30
0.0
 10
241.7729792712337
 20
132.8841794957702
 30
0.0
 10
241.593796059568
 20
132.7016023727754
 30
0.0
 10
241.2720264695708
 20
132.3017721961353
 30
0.0
 10
241.1326673367333
 20
132.0880309627196
 30
0.0
 10
240.9013254687127
 20
131.6393524036201
 30
0.0
 10
240.8083153079299
 20
131.4029746740512
 30
0.0
 10
240.6724353272805
 20
130.9051584142984
 30
0.0
 10
240.6317746671472
 20
130.6519593011046
 30
0.0
 10
240.6114154582363
 20
130.2655915338092
 30
0.0
 10
240.6114476692562
 20
130.1357040568938
 30
0.0
 10
240.6256909634781
 20
129.8736660884879
 30
0.0
 10
240.6400775711631
 20
129.7407664327833
 30
0.0
 10
240.7041827497722
 20
129.3476505453422
 30
0.0
 10
240.7744306432516
 20
129.0910125182447
 30
0.0
 10
240.9696065272632
 20
128.5891797687552
 30
0.0
 10
241.0960127750903
 20
128.3428308443791
 30
0.0
 10
241.3929473108222
 20
127.8850332449822
 30
0.0
 10
241.5642666208783
 20
127.6706031147468
 30
0.0
 10
241.9534586519079
 20
127.2720902635797
 30
0.0
 10
242.1656711596446
 20
127.0939293441674
 30
0.0
 10
242.6214647104176
 20
126.7803667806705
 30
0.0
 10
242.8683084278001
 20
126.6435443740894
 30
0.0
 10
243.3792501066106
 20
126.4222590622769
 30
0.0
 10
243.642992495458
 20
126.3371222421981
 30
0.0
 10
244.187048006826
 20
126.2182418516982
 30
0.0
 10
244.4682589488051
 20
126.1851754189036
 30
0.0
 10
245.0231209028471
 20
126.1747223671451
 30
0.0
 10
245.2998035418099
 20
126.1964296289779
 30
0.0
 10
245.8516172527832
 20
126.2956126878416
 30
0.0
 10
246.120661265572
 20
126.3723267932968
 30
0.0
 10
246.6360718974666
 20
126.5752628905257
 30
0.0
 10
246.8862317396031
 20
126.7032579017393
 30
0.0
 10
247.3550796865822
 20
127.0046920499245
 30
0.0
 10
247.5715179090955
 20
127.1759886370569
 30
0.0
 10
247.9693050357916
 20
127.5580466952052
 30
0.0
 10
248.15168899011
 20
127.7710390011729
 30
0.0
 10
248.4657464486933
 20
128.2187477632429
 30
0.0
 10
248.5995038223034
 20
128.4548834079444
 30
0.0
 10
248.8201389356734
 20
128.9510576775885
 30
0.0
 10
248.9052815081351
 20
129.2085720099368
 30
0.0
 10
249.0216985788872
 20
129.7248113339101
 30
0.0
 10
249.0541116096635
 20
129.9874854647717
 30
0.0
 10
249.0652323533104
 20
130.5118484634236
 30
0.0
 10
249.0441686299521
 20
130.7682449838704
 30
0.0
 10
248.9509202751144
 20
131.2700864935222
 30
0.0
 10
248.8774754652567
 20
131.5178668594036
 30
0.0
 10
248.6834422058843
 20
131.9853525003204
 30
0.0
 10
248.5631906050041
 20
132.2064027555894
 30
0.0
 10
248.2753874115243
 20
132.6241642122839
 30
0.0
 10
248.107271291109
 20
132.8203645285364
 30
0.0
 10
247.7361638349371
 20
133.1723398815748
 30
0.0
 10
247.5317239133511
 20
133.3305419440576
 30
0.0
 10
247.0818664150847
 20
133.6107805597877
 30
0.0
 10
246.8417242314045
 20
133.7291559156701
 30
0.0
 10
246.3391775683718
 20
133.9201716085307
 30
0.0
 10
246.0728626989729
 20
133.9940353836973
 30
0.0
 10
245.5256704257702
 20
134.0924917844774
 30
0.0
 10
245.2479865407421
 20
134.1170235525288
 30
0.0
 10
244.6851741490823
 20
134.1170235525288
 30
0.0
  0
ELLIPSE
  5
12A
330
1F
100
AcDbEntity
  8
0
  6
HIDDEN
 62
     7
370
     0
100
AcDbEllipse
 10
255.0200281329
 20
124.4182378739
 30
0.0
 11
-5.368298186719898
 21
16.49894757830364
 31
0.0
210
0.0
220
0.0
230
1.0
 40
0.0347142918
 41
6.271890723419028
 42
7.842687050213508
  0
LINE
  5
12B
330
1F
100
AcDbEntity
  8
0
  6
HIDDEN
 62
     7
370
     0
100
AcDbLine
 10
143.4441537917
 20
131.6682376652
 30
0.0
 11
143.4441537917
 21
117.1682380825
 31
0.0
  0
LINE
  5
12C
330
1F
100
AcDbEntity
  8
0
  6
HIDDEN
 62
     7
370
     0
100
AcDbLine
 10
142.4441536278
 20
116.1682379186
 30
0.0
 11
142.4441536278
 21
132.6481417506
 31
0.0
  0
LINE
  5
12D
330
1F
100
AcDbEntity
  8
0
  6
HIDDEN
 62
     7
370
     0
100
AcDbLine
 10
167.444153069
 20
131.6682376652
 30
0.0
 11
167.444153069
 21
117.1682380825
 31
0.0
  0
LINE
  5
12E
330
1F
100
AcDbEntity
  8
0
  6
HIDDEN
 62
     7
370
     0
100
AcDbLine
 10
169.2467344315
 20
128.6682381048
 30
0.0
 11
169.2467344315
 21
120.1682376429
 31
0.0
  0
LWPOLYLINE
  5
12F
330
1F
100
AcDbEntity
  8
0
  6
HIDDEN
 62
     7
370
     0
100
AcDbPolyline
 90
       30
 70
   128
 43
0.0
 10
247.11637882
 20
129.1796948514
 10
247.8646555305
 20
129.1160063572
 10
248.5779443146
 20
128.8952163174
 10
249.2228889228
 20
128.5276479773
 10
249.7693368555
 20
128.0304893605
 10
250.1917326213
 20
127.4269860457
 10
250.4703321815
 20
126.7453578054
 10
250.5921044708
 20
126.0174764772
 10
250.5513572455
 20
125.2773771864
 10
250.3499904037
 20
124.5596660899
 10
249.9974214793
 20
123.8979025963
 10
249.5101460577
 20
123.3230300001
 10
248.9109331132
 20
122.861928701
 10
248.2278191806
 20
122.5361592821
 10
247.4927225471
 20
122.3609544556
 10
246.7400350929
 20
122.3445063676
 10
246.0049459101
 20
122.4875842906
 10
245.3218319775
 20
122.7834980688
 10
244.7226190329
 20
123.2184110429
 10
244.2353436113
 20
123.7719872021
 10
243.8827746869
 20
124.4183419511
 10
243.6814078451
 20
125.1272524111
 10
243.6406606198
 20
125.8655707804
 10
243.7624329091
 20
126.5987739186
 10
244.0410324694
 20
127.2925785031
 10
244.4634282351
 20
127.9145424939
 10
245.0098761679
 20
128.4355839468
 10
245.6548207761
 20
128.8313392303
 10
246.3681095601
 20
129.0833034306
 10
247.11637882
 20
129.1796948514
  0
LWPOLYLINE
  5
130
330
1F
100
AcDbEntity
  8
0
  6
HIDDEN
 62
     7
370
     0
100
AcDbPolyline
 90
       30
 70
   128
 43
0.0
 10
246.6899671913
 20
130.0232030205
 10
247.4382439018
 20
129.9595145262
 10
248.1515326858
 20
129.7387244865
 10
248.7964772941
 20
129.3711561463
 10
249.3429252268
 20
128.8739975295
 10
249.7653209926
 20
128.2704942148
 10
250.0439205528
 20
127.5888659745
 10
250.1656928421
 20
126.8609845299
 10
250.1249381662
 20
126.1208852972
 10
249.923578775
 20
125.4031742444
 10
249.5710098506
 20
124.7414107363
 10
249.083734429
 20
124.1665381401
 10
248.4845214845
 20
123.7054368118
 10
247.8014001013
 20
123.3796674512
 10
247.0663109184
 20
123.2044625082
 10
246.3136234642
 20
123.1880145367
 10
245.5785342813
 20
123.3310924596
 10
244.8954128981
 20
123.6270062379
 10
244.2962074042
 20
124.061919241
 10
243.808924532
 20
124.6154954003
 10
243.4563630582
 20
125.2618501182
 10
243.2549962164
 20
125.970760522
 10
243.2142489911
 20
126.709078833
 10
243.3360212804
 20
127.4422820877
 10
243.6146133901
 20
128.1360864393
 10
244.0370166064
 20
128.758050663
 10
244.5834645391
 20
129.2790921158
 10
245.2284091473
 20
129.6748473994
 10
245.9416979314
 20
129.9268115997
 10
246.6899671913
 20
130.0232030205
  0
ARC
  5
131
330
1F
100
AcDbEntity
  8
0
  6
HIDDEN
 62
     7
370
     0
100
AcDbCircle
 10
241.6055569574
 20
120.996376287
 30
0.0
 40
2.077555288461697
100
AcDbArc
 50
71.9318829488
 51
237.6293149577
  0
LINE
  5
132
330
1F
100
AcDbEntity
  8
0
  6
HIDDEN
 62
     7
370
     0
100
AcDbLine
 10
256.6534721614
 20
118.7180328868
 30
0.0
 11
257.6172271133
 21
116.8115881025
 31
0.0
  0
LINE
  5
133
330
1F
100
AcDbEntity
  8
0
  6
HIDDEN
 62
     7
370
     0
100
AcDbLine
 10
225.4441523314
 20
128.6682381048
 30
0.0
 11
225.4441523314
 21
120.1682376429
 31
0.0
  0
SPLINE
  5
134
330
1F
100
AcDbEntity
  8
0
  6
HIDDEN
 62
     7
370
     0
100
AcDbSpline
210
0.0
220
0.0
230
1.0
 70
     8
 71
     3
 72
    62
 73
    58
 74
     0
 42
0.00000001
 43
0.00000001
 12
1.0
 22
0.0
 32
0.0
 13
1.0
 23
0.0
 33
0.0
 40
-0.0312500000000003
 40
-0.0312500000000003
 40
0.0
 40
0.0
 40
0.0312500000000007
 40
0.0312500000000007
 40
0.0625000000000014
 40
0.0625000000000014
 40
0.125
 40
0.125
 40
0.1874999999999986
 40
0.1874999999999986
 40
0.2187499999999986
 40
0.2187499999999986
 40
0.2499999999999985
 40
0.2499999999999985
 40
0.2812499999999984
 40
0.2812499999999984
 40
0.3124999999999983
 40
0.3124999999999983
 40
0.3437499999999983
 40
0.3437499999999983
 40
0.3749999999999982
 40
0.3749999999999982
 40
0.4374999999999981
 40
0.4374999999999981
 40
0.468749999999998
 40
0.468749999999998
 40
0.4999999999999979
 40
0.4999999999999979
 40
0.5312499999999978
 40
0.5312499999999978
 40
0.5624999999999978
 40
0.5624999999999978
 40
0.5937499999999977
 40
0.5937499999999977
 40
0.6249999999999976
 40
0.6249999999999976
 40
0.6562499999999976
 40
0.6562499999999976
 40
0.6874999999999974
 40
0.6874999999999974
 40
0.7187499999999974
 40
0.7187499999999974
 40
0.7499999999999973
 40
0.7499999999999973
 40
0.7812499999999972
 40
0.7812499999999972
 40
0.8124999999999972
 40
0.8124999999999972
 40
0.8749999999999981
 40
0.8749999999999981
 40
0.9062499999999987
 40
0.9062499999999987
 40
0.9374999999999991
 40
0.9374999999999991
 40
0.9687499999999997
 40
0.9687499999999997
 40
1.0
 40
1.0
 40
1.031250000000001
 40
1.031250000000001
 10
222.3029551803396
 20
127.5572523989052
 30
0.0
 10
222.5853516282993
 20
127.5572523989052
 30
0.0
 10
222.7236295053132
 20
127.5463568943837
 30
0.0
 10
222.994795576521
 20
127.503713092365
 30
0.0
 10
223.1289989039805
 20
127.47137347903
 30
0.0
 10
223.5080620837707
 20
127.3455128182987
 30
0.0
 10
223.7370690054645
 20
127.2211755471625
 30
0.0
 10
224.1180996244672
 20
126.9033901756897
 30
0.0
 10
224.2737227013889
 20
126.7063180332712
 30
0.0
 10
224.4327931779575
 20
126.3696017139469
 30
0.0
 10
224.4745203231009
 20
126.2479096263478
 30
0.0
 10
224.5297910242429
 20
125.9973443940558
 30
0.0
 10
224.5438709557327
 20
125.868374295489
 30
0.0
 10
224.5444275220539
 20
125.602700553546
 30
0.0
 10
224.5304382446333
 20
125.4661824558091
 30
0.0
 10
224.4759567253976
 20
125.1994838458886
 30
0.0
 10
224.4351062672428
 20
125.066468557436
 30
0.0
 10
224.3284923003833
 20
124.8085074412205
 30
0.0
 10
224.2637401581103
 20
124.6853740072204
 30
0.0
 10
224.1121816161577
 20
124.45057133754
 30
0.0
 10
224.0248434929846
 20
124.3387215297196
 30
0.0
 10
223.7390670720231
 20
124.0338063164768
 30
0.0
 10
223.5095307235573
 20
123.8636608522495
 30
0.0
 10
223.133212587563
 20
123.6880245473468
 30
0.0
 10
223.0008796792024
 20
123.6418124506452
 30
0.0
 10
222.7268470202116
 20
123.5790942808717
 30
0.0
 10
222.5888218605894
 20
123.5632437190444
 30
0.0
 10
222.3107504793707
 20
123.5624033645418
 30
0.0
 10
222.1690375407003
 20
123.5780225044906
 30
0.0
 10
221.89661528502
 20
123.6390865659034
 30
0.0
 10
221.7647871405229
 20
123.684140346896
 30
0.0
 10
221.5093882449183
 20
123.8020976599948
 30
0.0
 10
221.389222241729
 20
123.8734713603894
 30
0.0
 10
221.1640508291727
 20
124.0376723827805
 30
0.0
 10
221.0578997678383
 20
124.1317160401577
 30
0.0
 10
220.8664524791361
 20
124.3350956307963
 30
0.0
 10
220.7805184652167
 20
124.4445901204993
 30
0.0
 10
220.6281061471766
 20
124.6791073042969
 30
0.0
 10
220.5619226568891
 20
124.8044003400861
 30
0.0
 10
220.455740958338
 20
125.0593707922777
 30
0.0
 10
220.4147608951222
 20
125.1903805260745
 30
0.0
 10
220.3586807543249
 20
125.4596606259353
 30
0.0
 10
220.3444565788836
 20
125.5949708209884
 30
0.0
 10
220.3438598950121
 20
125.8595784636173
 30
0.0
 10
220.3576284625105
 20
125.9915239492198
 30
0.0
 10
220.4124785294526
 20
126.2437078668802
 30
0.0
 10
220.452975042729
 20
126.3632089309046
 30
0.0
 10
220.6124375139052
 20
126.7037450259532
 30
0.0
 10
220.7671059382195
 20
126.9004737148958
 30
0.0
 10
221.055413969564
 20
127.1414201800575
 30
0.0
 10
221.1594387849119
 20
127.211731928438
 30
0.0
 10
221.3838580430906
 20
127.3343994361557
 30
0.0
 10
221.5057888309512
 20
127.3871381067768
 30
0.0
 10
221.7582459823771
 20
127.4710796753422
 30
0.0
 10
221.8891325122943
 20
127.502804775809
 30
0.0
 10
222.1610734300071
 20
127.5460035069933
 30
0.0
 10
222.3029551803396
 20
127.5572523989052
 30
0.0
 10
222.5853516282993
 20
127.5572523989052
 30
0.0
  0
SPLINE
  5
135
330
1F
100
AcDbEntity
  8
0
  6
HIDDEN
 62
     7
370
     0
100
AcDbSpline
210
0.0
220
0.0
230
1.0
 70
     8
 71
     3
 72
    34
 73
    30
 74
     0
 42
0.00000001
 43
0.00000001
 12
1.0
 22
0.0
 32
0.0
 13
1.0
 23
0.0
 33
0.0
 40
0.0
 40
0.0
 40
0.0
 40
0.0
 40
0.1250000000000043
 40
0.1250000000000043
 40
0.2500000000000085
 40
0.2500000000000085
 40
0.3125000000000108
 40
0.3125000000000108
 40
0.3750000000000129
 40
0.3750000000000129
 40
0.4375000000000152
 40
0.4375000000000152
 40
0.468750000000015
 40
0.468750000000015
 40
0.5000000000000149
 40
0.5000000000000149
 40
0.5312500000000148
 40
0.5312500000000148
 40
0.5625000000000145
 40
0.5625000000000145
 40
0.6250000000000124
 40
0.6250000000000124
 40
0.6875000000000104
 40
0.6875000000000104
 40
0.7500000000000083
 40
0.7500000000000083
 40
0.8750000000000041
 40
0.8750000000000041
 40
1.0
 40
1.0
 40
1.0
 40
1.0
 10
244.9394775321036
 20
124.0054159708441
 30
0.0
 10
244.9982584046563
 20
123.8891387288349
 30
0.0
 10
245.1225464325481
 20
123.758818825334
 30
0.0
 10
245.4501590349789
 20
123.4934009602094
 30
0.0
 10
245.6562022003957
 20
123.3572456277921
 30
0.0
 10
246.0257402482297
 20
123.1729918128833
 30
0.0
 10
246.1593698088239
 20
123.1147724807816
 30
0.0
 10
246.4545425146889
 20
123.0107613757279
 30
0.0
 10
246.6163426997066
 20
122.9646305007694
 30
0.0
 10
246.9782383768841
 20
122.8993981611163
 30
0.0
 10
247.1772044060587
 20
122.879058812749
 30
0.0
 10
247.5246823480861
 20
122.8978638723435
 30
0.0
 10
247.6472841709771
 20
122.9126845979909
 30
0.0
 10
247.907652791219
 20
122.9700501823298
 30
0.0
 10
248.0402835269018
 20
123.0119790284535
 30
0.0
 10
248.2987138473921
 20
123.1245752397233
 30
0.0
 10
248.4193189118857
 20
123.1933000010997
 30
0.0
 10
248.6301114998799
 20
123.3391884489489
 30
0.0
 10
248.721941359101
 20
123.41682695671
 30
0.0
 10
248.9610203597831
 20
123.6484020115688
 30
0.0
 10
249.0765778105347
 20
123.8029045527241
 30
0.0
 10
249.2626714653647
 20
124.0987130450457
 30
0.0
 10
249.3325380931391
 20
124.2404829953536
 30
0.0
 10
249.4462675902668
 20
124.5146490642662
 30
0.0
 10
249.4896466934193
 20
124.646998710585
 30
0.0
 10
249.591187680658
 20
125.0294844581074
 30
0.0
 10
249.6203792240265
 20
125.2599380542924
 30
0.0
 10
249.6267234024129
 20
125.6608228800196
 30
0.0
 10
249.6043935650583
 20
125.832441595512
 30
0.0
 10
249.5458539411777
 20
125.9482416120391
 30
0.0
  0
ELLIPSE
  5
136
330
1F
100
AcDbEntity
  8
0
  6
HIDDEN
 62
     7
370
     0
100
AcDbEllipse
 10
249.3269260974
 20
120.2363118268
 30
0.0
 11
3.434281587992615
 21
-1.718550178042108
 31
0.0
210
0.0
220
0.0
230
1.0
 40
0.1647216549
 41
3.35986897305444
 42
6.501461626644099
  0
LINE
  5
137
330
1F
100
AcDbEntity
  8
0
  6
HIDDEN
 62
     7
370
     0
100
AcDbLine
 10
247.9064011336
 20
106.7389898687
 30
0.0
 11
246.9426536322
 21
108.6454351186
 31
0.0
  0
ELLIPSE
  5
138
330
1F
100
AcDbEntity
  8
0
  6
HIDDEN
 62
     7
370
     0
100
AcDbEllipse
 10
245.7782061386
 20
128.403288013
 30
0.0
 11
3.809839114181585
 21
1.769635718921251
 31
0.0
210
0.0
220
0.0
230
1.0
 40
0.816602865
 41
4.031108285919448
 42
5.306232127157844
  0
LINE
  5
139
330
1F
100
AcDbEntity
  8
0
  6
HIDDEN
 62
     7
370
     0
100
AcDbLine
 10
244.5013144375
 20
124.8721730823
 30
0.0
 11
244.9394756318
 21
124.0054159586
 31
0.0
  0
LINE
  5
13A
330
1F
100
AcDbEntity
  8
0
  6
HIDDEN
 62
     7
370
     0
100
AcDbLine
 10
249.5458566905
 20
125.9482416078
 30
0.0
 11
249.1076880456
 21
126.8149986151
 31
0.0
  0
LWPOLYLINE
  5
13B
330
1F
100
AcDbEntity
  8
0
  6
HIDDEN
 62
     7
370
     0
100
AcDbPolyline
 90
       33
 70
   128
 43
0.0
 10
246.6460013152
 20
130.7948754854
 10
247.4608936668
 20
130.7337444029
 10
248.2444712282
 20
130.5170861758
 10
248.9666187526
 20
130.1532263621
 10
249.5995828272
 20
129.6561483047
 10
250.119044757
 20
129.044954361
 10
250.5050444365
 20
128.3431324861
 10
250.7427328587
 20
127.5776528507
 10
250.8229979635
 20
126.7779326751
 10
250.7427328587
 20
125.9747049059
 10
250.5050444365
 20
125.1988369492
 10
250.119044757
 20
124.4801450172
 10
249.5995828272
 20
123.8462480703
 10
248.9666187526
 20
123.3215063564
 10
248.2444712282
 20
122.9260854177
 10
247.4608936668
 20
122.6751810625
 10
246.6460013152
 20
122.5784355062
 10
245.8311164142
 20
122.6395664723
 10
245.0475388528
 20
122.8562248159
 10
244.3253913284
 20
123.2200843967
 10
243.6924272538
 20
123.7171624541
 10
243.172965324
 20
124.3283564197
 10
242.7869656444
 20
125.0301785055
 10
242.5492697717
 20
125.7956580245
 10
242.4690121175
 20
126.5953780837
 10
242.5492697717
 20
127.3986058529
 10
242.7869656444
 20
128.174473926
 10
243.172965324
 20
128.8931660108
 10
243.6924272538
 20
129.5270628049
 10
244.3253913284
 20
130.0518044024
 10
245.0475388528
 20
130.4472253411
 10
245.8311164142
 20
130.6981296963
 10
246.6460013152
 20
130.7948754854
  0
LINE
  5
13C
330
1F
100
AcDbEntity
  8
0
  6
HIDDEN
 62
     7
370
     0
100
AcDbLine
 10
252.0324805141
 20
120.0826374567
 30
0.0
 11
253.6035918952
 21
116.3166767671
 31
0.0
  0
LINE
  5
13D
330
1F
100
AcDbEntity
  8
0
  6
HIDDEN
 62
     7
370
     0
100
AcDbLine
 10
253.6035918952
 20
116.3166767671
 30
0.0
 11
253.2797375084
 21
116.9572977103
 31
0.0
  0
LINE
  5
13E
330
1F
100
AcDbEntity
  8
0
  6
HIDDEN
 62
     7
370
     0
100
AcDbLine
 10
253.2797375084
 20
116.9572977103
 30
0.0
 11
250.785700357
 21
122.629837411
 31
0.0
  0
LINE
  5
13F
330
1F
100
AcDbEntity
  8
0
  6
HIDDEN
 62
     7
370
     0
100
AcDbLine
 10
249.1076880456
 20
126.8149986151
 30
0.0
 11
250.785700357
 21
122.629837411
 31
0.0
  0
LINE
  5
140
330
1F
100
AcDbEntity
  8
0
  6
HIDDEN
 62
     7
370
     0
100
AcDbLine
 10
252.7410232783
 20
118.6810398228
 30
0.0
 11
252.0324805141
 21
120.0826374567
 31
0.0
  0
LWPOLYLINE
  5
141
330
1F
100
AcDbEntity
  8
0
  6
HIDDEN
 62
     7
370
     0
100
AcDbPolyline
 90
       23
 70
   128
 43
0.0
 10
222.4441537023
 20
129.5056265532
 10
223.0357894064
 20
129.4247248895
 10
223.5794955254
 20
129.1885750122
 10
224.031224227
 20
128.816307684
 10
224.3543782593
 20
128.3380823895
 10
224.5227762819
 20
127.7926416821
 10
224.5227762819
 20
127.2241740241
 10
224.3543782593
 20
126.6787330839
 10
224.031224227
 20
126.200507673
 10
223.5794955254
 20
125.8282405776
 10
223.0357894064
 20
125.5920904675
 10
222.4441537023
 20
125.511189153
 10
221.8525179983
 20
125.5920904675
 10
221.3088044287
 20
125.8282405776
 10
220.8570757271
 20
126.200507673
 10
220.5339291454
 20
126.6787330839
 10
220.3655311228
 20
127.2241740241
 10
220.3655311228
 20
127.7926416821
 10
220.5339291454
 20
128.3380823895
 10
220.8570757271
 20
128.816307684
 10
221.3088044287
 20
129.1885750122
 10
221.8525179983
 20
129.4247248895
 10
222.4441537023
 20
129.5056265532
  0
LINE
  5
142
330
1F
100
AcDbEntity
  8
0
  6
HIDDEN
 62
     7
370
     0
100
AcDbLine
 10
248.9972108365
 20
114.3738512635
 30
0.0
 11
245.8544665337
 21
121.9070378444
 31
0.0
  0
ARC
  5
143
330
1F
100
AcDbEntity
  8
0
  6
HIDDEN
 62
     7
370
     0
100
AcDbCircle
 10
252.0557184306
 20
113.5544298854
 30
0.0
 40
3.166373335232476
100
AcDbArc
 50
165.0018048617
 51
60.7351454476
  0
LINE
  5
144
330
1F
100
AcDbEntity
  8
0
  6
HIDDEN
 62
     7
370
     0
100
AcDbLine
 10
260.1047077537
 20
105.0575838178
 30
0.0
 11
260.7583546401
 21
105.7064399808
 31
0.0
  0
LINE
  5
145
330
1F
100
AcDbEntity
  8
0
  6
HIDDEN
 62
     7
370
     0
100
AcDbLine
 10
250.7024997235
 20
107.8341060072
 30
0.0
 11
260.1047077537
 21
105.0575838178
 31
0.0
  0
ARC
  5
146
330
1F
100
AcDbEntity
  8
0
  6
HIDDEN
 62
     7
370
     0
100
AcDbCircle
 10
243.3848236438
 20
83.0402378431
 30
0.0
 40
25.85119497709252
100
AcDbArc
 50
73.5565324259
 51
82.0894289042
  0
LINE
  5
147
330
1F
100
AcDbEntity
  8
0
  6
HIDDEN
 62
     7
370
     0
100
AcDbLine
 10
243.942550695
 20
118.1551010101
 30
0.0
 11
246.9426536322
 21
108.6454351186
 31
0.0
  0
LINE
  5
148
330
1F
100
AcDbEntity
  8
0
  6
HIDDEN
 62
     7
370
     0
100
AcDbLine
 10
245.8544665337
 20
121.9070378444
 30
0.0
 11
242.2499054433
 21
122.9714841335
 31
0.0
  0
LINE
  5
149
330
1F
100
AcDbEntity
  8
0
  6
HIDDEN
 62
     7
370
     0
100
AcDbLine
 10
256.6534721614
 20
118.7180328868
 30
0.0
 11
252.0324805141
 21
120.0826374567
 31
0.0
  0
LINE
  5
14A
330
1F
100
AcDbEntity
  8
0
  6
HIDDEN
 62
     7
370
     0
100
AcDbLine
 10
260.7583546401
 20
105.7064399808
 30
0.0
 11
256.6534721614
 21
118.7180328868
 31
0.0
  0
LINE
  5
14B
330
1F
100
AcDbEntity
  8
0
  6
HIDDEN
 62
     7
370
     0
100
AcDbLine
 10
245.8544665337
 20
121.9070378444
 30
0.0
 11
245.9128343821
 21
121.7915836475
 31
0.0
  0
LINE
  5
14C
330
1F
100
AcDbEntity
  8
0
  6
HIDDEN
 62
     7
370
     0
100
AcDbLine
 10
123.9441533894
 20
141.2775885999
 30
0.0
 11
123.9441533894
 21
136.4678104162
 31
0.0
  0
LINE
  5
14D
330
1F
100
AcDbEntity
  8
0
  6
HIDDEN
 62
     7
370
     0
100
AcDbLine
 10
122.4441540749
 20
140.4115629136
 30
0.0
 11
122.4441540749
 21
136.034797573
 31
0.0
  0
LINE
  5
14E
330
1F
100
AcDbEntity
  8
0
  6
HIDDEN
 62
     7
370
     0
100
AcDbLine
 10
150.2441534162
 20
141.9383358895
 30
0.0
 11
150.2441534162
 21
136.798184061
 31
0.0
  0
SPLINE
  5
14F
330
1F
100
AcDbEntity
  8
0
  6
HIDDEN
 62
     7
370
     0
100
AcDbSpline
210
0.0
220
0.0
230
1.0
 70
     8
 71
     3
 72
    18
 73
    14
 74
     0
 42
0.00000001
 43
0.00000001
 12
1.0
 22
0.0
 32
0.0
 13
1.0
 23
0.0
 33
0.0
 40
0.0
 40
0.0
 40
0.0
 40
0.0
 40
0.2499999999999997
 40
0.2499999999999997
 40
0.3749999999999997
 40
0.3749999999999997
 40
0.4999999999999998
 40
0.4999999999999998
 40
0.6249999999999998
 40
0.6249999999999998
 40
0.7499999999999999
 40
0.7499999999999999
 40
1.0
 40
1.0
 40
1.0
 40
1.0
 10
151.1228330607599
 20
111.3231911503181
 30
0.0
 10
150.9875474544575
 20
110.7389895565864
 30
0.0
 10
150.8863797082145
 20
110.2047718693782
 30
0.0
 10
150.7835183653456
 20
109.4788750984898
 30
0.0
 10
150.7574155198223
 20
109.2489946107099
 30
0.0
 10
150.7225255362775
 20
108.8184236659231
 30
0.0
 10
150.7139392779875
 20
108.6207287604289
 30
0.0
 10
150.7138395684218
 20
108.2593807177511
 30
0.0
 10
150.7223279395704
 20
108.095730707805
 30
0.0
 10
150.756471319091
 20
107.802519434836
 30
0.0
 10
150.7822683009448
 20
107.6725233687202
 30
0.0
 10
150.8856694323327
 20
107.3384674761583
 30
0.0
 10
150.9875274245041
 20
107.1926913117935
 30
0.0
 10
151.1228330607599
 20
107.1213280058457
 30
0.0
  0
LINE
  5
150
330
1F
100
AcDbEntity
  8
0
  6
HIDDEN
 62
     7
370
     0
100
AcDbLine
 10
150.2441534162
 20
112.0382916867
 30
0.0
 11
150.2441534162
 21
106.8981398582
 31
0.0
  0
SPLINE
  5
151
330
1F
100
AcDbEntity
  8
0
  6
HIDDEN
 62
     7
370
     0
100
AcDbSpline
210
0.0
220
0.0
230
1.0
 70
     8
 71
     3
 72
    18
 73
    14
 74
     0
 42
0.00000001
 43
0.00000001
 12
1.0
 22
0.0
 32
0.0
 13
1.0
 23
0.0
 33
0.0
 40
0.0
 40
0.0
 40
0.0
 40
0.0
 40
0.2499999999999994
 40
0.2499999999999994
 40
0.3749999999999994
 40
0.3749999999999994
 40
0.4999999999999994
 40
0.4999999999999994
 40
0.6249999999999994
 40
0.6249999999999994
 40
0.7499999999999994
 40
0.7499999999999994
 40
1.0
 40
1.0
 40
1.0
 40
1.0
 10
151.1228330607599
 20
141.7151477418553
 30
0.0
 10
150.9875474544575
 20
141.6437950001658
 30
0.0
 10
150.8863797082145
 20
141.4983915935763
 30
0.0
 10
150.7835183653456
 20
141.1689243579707
 30
0.0
 10
150.7574155198223
 20
141.039990781166
 30
0.0
 10
150.7225255362775
 20
140.7444487818298
 30
0.0
 10
150.7139392779875
 20
140.5800540083079
 30
0.0
 10
150.7138395684218
 20
140.2190923935673
 30
0.0
 10
150.7223279395704
 20
140.0225226014051
 30
0.0
 10
150.756471319091
 20
139.5971678052801
 30
0.0
 10
150.7822683009448
 20
139.3673981554805
 30
0.0
 10
150.8856694323327
 20
138.6348094610481
 30
0.0
 10
150.9875274245041
 20
138.0975726861305
 30
0.0
 10
151.1228330607599
 20
137.5132845973829
 30
0.0
  0
LINE
  5
152
330
1F
100
AcDbEntity
  8
0
  6
HIDDEN
 62
     7
370
     0
100
AcDbLine
 10
123.9441533894
 20
112.3686653315
 30
0.0
 11
123.9441533894
 21
107.5588871478
 31
0.0
  0
LINE
  5
153
330
1F
100
AcDbEntity
  8
0
  6
HIDDEN
 62
     7
370
     0
100
AcDbLine
 10
122.4441540749
 20
112.8016781747
 30
0.0
 11
122.4441540749
 21
108.4249128341
 31
0.0
  0
SPLINE
  5
154
330
1F
100
AcDbEntity
  8
0
  6
HIDDEN
 62
     7
370
     0
100
AcDbSpline
210
0.0
220
0.0
230
1.0
 70
     8
 71
     3
 72
    12
 73
     8
 74
     0
 42
0.00000001
 43
0.00000001
 12
1.0
 22
0.0
 32
0.0
 13
1.0
 23
0.0
 33
0.0
 40
0.0
 40
0.0
 40
0.0
 40
0.0
 40
0.4999999999999998
 40
0.4999999999999998
 40
0.7499999999999999
 40
0.7499999999999999
 40
1.0
 40
1.0
 40
1.0
 40
1.0
 10
248.5749598573526
 20
116.2525996227921
 30
0.0
 10
248.547425669745
 20
115.9906293273799
 30
0.0
 10
248.5470180733515
 20
115.7474961740382
 30
0.0
 10
248.5730155948949
 20
115.4259198560901
 30
0.0
 10
248.5862750115457
 20
115.3261070961136
 30
0.0
 10
248.6220490264766
 20
115.1491993934318
 30
0.0
 10
248.6443926726259
 20
115.0717798440196
 30
0.0
 10
248.6733630884975
 20
115.0144720853709
 30
0.0
  0
ARC
  5
155
330
1F
100
AcDbEntity
  8
0
  6
HIDDEN
 62
     7
370
     0
100
AcDbCircle
 10
251.4067489778
 20
114.8388262376
 30
0.0
 40
3.165091450807709
100
AcDbArc
 50
153.4693148193
 51
72.2676386136
  0
SPLINE
  5
156
330
1F
100
AcDbEntity
  8
0
  6
HIDDEN
 62
     7
370
     0
100
AcDbSpline
210
0.0
220
0.0
230
1.0
 70
     8
 71
     3
 72
    12
 73
     8
 74
     0
 42
0.00000001
 43
0.00000001
 12
1.0
 22
0.0
 32
0.0
 13
1.0
 23
0.0
 33
0.0
 40
0.0
 40
0.0
 40
0.0
 40
0.0
 40
0.2500000000000004
 40
0.2500000000000004
 40
0.5000000000000008
 40
0.5000000000000008
 40
1.0
 40
1.0
 40
1.0
 40
1.0
 10
253.2797394975723
 20
116.9572977265643
 30
0.0
 10
253.2507690817008
 20
117.014605485213
 30
0.0
 10
253.2030203028995
 20
117.0813099434666
 30
0.0
 10
253.0857705792753
 20
117.2238537379643
 30
0.0
 10
253.0159218498986
 20
117.2997988939898
 30
0.0
 10
252.7811748195322
 20
117.5333311915821
 30
0.0
 10
252.5920598703153
 20
117.6965296568967
 30
0.0
 10
252.3707445884056
 20
117.8535430214722
 30
0.0
  0
LINE
  5
157
330
1F
100
AcDbEntity
  8
0
  6
HIDDEN
 62
     7
370
     0
100
AcDbLine
 10
248.6733639003
 20
115.014471741
 30
0.0
 11
248.9972108365
 21
114.3738512635
 31
0.0
  0
LWPOLYLINE
  5
158
330
1F
100
AcDbEntity
  8
0
  6
HIDDEN
 62
     7
370
     0
100
AcDbPolyline
 90
       13
 70
   128
 43
0.0
 10
250.785700357
 20
122.629837411
 10
250.8703464032
 20
122.18988377
 10
250.7922643185
 20
121.7137122746
 10
250.5567738176
 20
121.2337728809
 10
250.1799309016
 20
120.7827727064
 10
249.6874102713
 20
120.391446793
 10
249.1127767921
 20
120.0864633299
 10
248.4951907159
 20
119.8886066429
 10
247.8767403723
 20
119.8113599546
 10
247.2995736957
 20
119.8599875658
 10
246.8030223013
 20
120.0311758309
 10
246.4209267259
 20
120.3132585376
 10
246.1793192984
 20
120.687011791
  0
ELLIPSE
  5
159
330
1F
100
AcDbEntity
  8
0
  6
HIDDEN
 62
     7
370
     0
100
AcDbEllipse
 10
249.8328647324
 20
118.5871268837
 30
0.0
 11
-1.101654435681411
 21
2.719284888726066
 31
0.0
210
0.0
220
0.0
230
1.0
 40
0.8519509261
 41
2.185216307006961
 42
4.122186332629227
  0
LWPOLYLINE
  5
15A
330
1F
100
AcDbEntity
  8
0
  6
HIDDEN
 62
     7
370
     0
100
AcDbPolyline
 90
       25
 70
   128
 43
0.0
 10
222.4441537023
 20
129.9310384072
 10
223.0911993743
 20
129.8500221907
 10
223.6941525102
 20
129.6124948874
 10
224.2119231583
 20
129.234643349
 10
224.609217918
 20
128.7422177135
 10
224.8589688302
 20
128.1687758616
 10
224.9441513182
 20
127.5533970199
 10
224.8589688302
 20
126.9380181781
 10
224.609217918
 20
126.3645763262
 10
224.2119231583
 20
125.8721506908
 10
223.6941525102
 20
125.4942992688
 10
223.0911993743
 20
125.2567719072
 10
222.4441537023
 20
125.175755749
 10
221.7971080304
 20
125.2567719072
 10
221.1941548944
 20
125.4942992688
 10
220.6763842464
 20
125.8721506908
 10
220.2790894867
 20
126.3645763262
 10
220.0293385745
 20
126.9380181781
 10
219.9441560865
 20
127.5533970199
 10
220.0293385745
 20
128.1687758616
 10
220.2790894867
 20
128.7422177135
 10
220.6763842464
 20
129.234643349
 10
221.1941548944
 20
129.6124948874
 10
221.7971080304
 20
129.8500221907
 10
222.4441537023
 20
129.9310384072
  0
LINE
  5
15B
330
1F
100
AcDbEntity
  8
0
  6
HIDDEN
 62
     7
370
     0
100
AcDbLine
 10
260.0082972408
 20
105.2483000546
 30
0.0
 11
260.1047077537
 21
105.0575838178
 31
0.0
  0
LINE
  5
15C
330
1F
100
AcDbEntity
  8
0
  6
HIDDEN
 62
     7
370
     0
100
AcDbLine
 10
260.7583546401
 20
105.7064399808
 30
0.0
 11
260.5405369163
 21
106.1373070567
 31
0.0
  0
LINE
  5
15D
330
1F
100
AcDbEntity
  8
0
  6
HIDDEN
 62
     7
370
     0
100
AcDbLine
 10
246.1793192984
 20
120.687011791
 30
0.0
 11
244.5013144375
 21
124.8721730823
 31
0.0
  0
ELLIPSE
  5
15E
330
1F
100
AcDbEntity
  8
0
  6
HIDDEN
 62
     7
370
     0
100
AcDbEllipse
 10
276.3984323905
 20
118.7182378739
 30
0.0
 11
17.20799578203878
 21
16.78295253849009
 31
0.0
210
0.0
220
0.0
230
1.0
 40
0.1573605504
 41
2.563915324726761
 42
2.645413844321025
  0
ELLIPSE
  5
15F
330
1F
100
AcDbEntity
  8
0
  6
HIDDEN
 62
     7
370
     0
100
AcDbEllipse
 10
212.9727373018
 20
118.7182378739
 30
0.0
 11
53.03216677918565
 21
-16.78388808837916
 31
0.0
210
0.0
220
0.0
230
1.0
 40
0.0509512444
 41
0.4965246742047195
 42
0.8131374946876345
  0
SPLINE
  5
160
330
1F
100
AcDbEntity
  8
0
  6
HIDDEN
 62
     7
370
     0
100
AcDbSpline
210
0.0
220
0.0
230
1.0
 70
     8
 71
     3
 72
    12
 73
     8
 74
     0
 42
0.00000001
 43
0.00000001
 12
1.0
 22
0.0
 32
0.0
 13
1.0
 23
0.0
 33
0.0
 40
0.0
 40
0.0
 40
0.0
 40
0.0
 40
0.5000000000000024
 40
0.5000000000000024
 40
0.7500000000000012
 40
0.7500000000000012
 40
1.0
 40
1.0
 40
1.0
 40
1.0
 10
250.0388689421175
 20
109.1468701425368
 30
0.0
 10
248.7521436773837
 20
109.6233889159718
 30
0.0
 10
247.4269345783138
 20
109.9896067589443
 30
0.0
 10
245.3861909629789
 20
110.3636265292614
 30
0.0
 10
244.6970293122101
 20
110.4589926126375
 30
0.0
 10
243.3004868812704
 20
110.5876572850192
 30
0.0
 10
242.5953663833234
 20
110.620523796248
 30
0.0
 10
241.8908699572397
 20
110.620523796248
 30
0.0
  0
LINE
  5
161
330
1F
100
AcDbEntity
  8
0
  6
HIDDEN
 62
     7
370
     0
100
AcDbLine
 10
241.8908694149
 20
110.6205234989
 30
0.0
 11
240.4218011857
 21
110.6205234989
 31
0.0
  0
ELLIPSE
  5
162
330
1F
100
AcDbEntity
  8
0
  6
HIDDEN
 62
     7
370
     0
100
AcDbEllipse
 10
256.8913704181
 20
118.7182378739
 30
0.0
 11
-5.530973889347763
 21
16.99891568673715
 31
0.0
210
0.0
220
0.0
230
1.0
 40
0.0347142918
 41
1.559501743033907
 42
2.392653501931361
  0
LINE
  5
163
330
1F
100
AcDbEntity
  8
0
  6
HIDDEN
 62
     7
370
     0
100
AcDbLine
 10
122.4441540749
 20
136.034797573
 30
0.0
 11
122.4441540749
 21
126.7574088867
 31
0.0
  0
LINE
  5
164
330
1F
100
AcDbEntity
  8
0
  6
HIDDEN
 62
     7
370
     0
100
AcDbLine
 10
122.4441540749
 20
122.079066861
 30
0.0
 11
122.4441540749
 21
112.8016781747
 31
0.0
  0
LINE
  5
165
330
1F
100
AcDbEntity
  8
0
  6
HIDDEN
 62
     7
370
     0
100
AcDbLine
 10
123.9441533894
 20
121.269760815
 30
0.0
 11
123.9441533894
 21
112.3686653315
 31
0.0
  0
LINE
  5
166
330
1F
100
AcDbEntity
  8
0
  6
HIDDEN
 62
     7
370
     0
100
AcDbLine
 10
123.9441533894
 20
136.4678104162
 30
0.0
 11
123.9441533894
 21
127.5667149327
 31
0.0
  0
LINE
  5
167
330
1F
100
AcDbEntity
  8
0
  6
HIDDEN
 62
     7
370
     0
100
AcDbLine
 10
150.2441534162
 20
136.798184061
 30
0.0
 11
150.2441534162
 21
112.0382916867
 31
0.0
  0
LINE
  5
168
330
1F
100
AcDbEntity
  8
0
  6
HIDDEN
 62
     7
370
     0
100
AcDbLine
 10
152.2441534094
 20
135.9805117115
 30
0.0
 11
152.2441534094
 21
112.8559640362
 31
0.0
  0
SPLINE
  5
169
330
1F
100
AcDbEntity
  8
0
  6
HIDDEN
 62
     7
370
     0
100
AcDbSpline
210
0.0
220
0.0
230
1.0
 70
     8
 71
     3
 72
    26
 73
    22
 74
     0
 42
0.00000001
 43
0.00000001
 12
1.0
 22
0.0
 32
0.0
 13
1.0
 23
0.0
 33
0.0
 40
0.0
 40
0.0
 40
0.0
 40
0.0
 40
0.1250000000000002
 40
0.1250000000000002
 40
0.2500000000000003
 40
0.2500000000000003
 40
0.3750000000000005
 40
0.3750000000000005
 40
0.4375000000000006
 40
0.4375000000000006
 40
0.5000000000000007
 40
0.5000000000000007
 40
0.5625000000000008
 40
0.5625000000000008
 40
0.6250000000000009
 40
0.6250000000000009
 40
0.7500000000000006
 40
0.7500000000000006
 40
0.8750000000000002
 40
0.8750000000000002
 40
1.0
 40
1.0
 40
1.0
 40
1.0
 10
127.9441534043195
 20
121.1997401134014
 30
0.0
 10
128.1547967663194
 20
121.4343571443465
 30
0.0
 10
128.3619932040764
 20
121.6722402803059
 30
0.0
 10
128.7634923387088
 20
122.1595545865748
 30
0.0
 10
128.9587687577548
 20
122.4096798113638
 30
0.0
 10
129.3185492504502
 20
122.9282699568147
 30
0.0
 10
129.4838081105996
 20
123.1957009407016
 30
0.0
 10
129.6764660200257
 20
123.6271160731001
 30
0.0
 10
129.7314307602358
 20
123.7771349550245
 30
0.0
 10
129.8091665452
 20
124.0898721337545
 30
0.0
 10
129.8304326835082
 20
124.2476263805617
 30
0.0
 10
129.832326612794
 20
124.5663316604075
 30
0.0
 10
129.812100875727
 20
124.7287684605881
 30
0.0
 10
129.7376364654411
 20
125.0397204601707
 30
0.0
 10
129.6839973396952
 20
125.1903916984984
 30
0.0
 10
129.4892530342945
 20
125.632475456467
 30
0.0
 10
129.3222029211163
 20
125.9025194696347
 30
0.0
 10
128.9619468024126
 20
126.4226270979161
 30
0.0
 10
128.7671944273922
 20
126.6722883107258
 30
0.0
 10
128.3641852029199
 20
127.1617124225685
 30
0.0
 10
128.1557486845564
 20
127.4010583457325
 30
0.0
 10
127.9441534043204
 20
127.6367356343004
 30
0.0
  0
LINE
  5
16A
330
1F
100
AcDbEntity
  8
0
  6
HIDDEN
 62
     7
370
     0
100
AcDbLine
 10
127.9441540451
 20
121.1997400257
 30
0.0
 11
127.9441540451
 21
127.636735722
 31
0.0
  0
SPLINE
  5
16B
330
1F
100
AcDbEntity
  8
0
  6
HIDDEN
 62
     7
370
     0
100
AcDbSpline
210
0.0
220
0.0
230
1.0
 70
     8
 71
     3
 72
     8
 73
     4
 74
     0
 42
0.00000001
 43
0.00000001
 12
1.0
 22
0.0
 32
0.0
 13
1.0
 23
0.0
 33
0.0
 40
0.0000202085968836
 40
0.0000202085968836
 40
0.0000202085968836
 40
0.0000202085968836
 40
0.0040218806502652
 40
0.0040218806502652
 40
0.0040218806502652
 40
0.0040218806502652
 10
123.9441534043195
 20
121.2697607555138
 30
0.0
 10
125.2774765301101
 20
121.2457625243501
 30
0.0
 10
126.6108104033327
 20
121.2224347841818
 30
0.0
 10
127.9441534043195
 20
121.1997401134014
 30
0.0
  0
SPLINE
  5
16C
330
1F
100
AcDbEntity
  8
0
  6
HIDDEN
 62
     7
370
     0
100
AcDbSpline
210
0.0
220
0.0
230
1.0
 70
     8
 71
     3
 72
     8
 73
     4
 74
     0
 42
0.00000001
 43
0.00000001
 12
1.0
 22
0.0
 32
0.0
 13
1.0
 23
0.0
 33
0.0
 40
0.0000202082942178
 40
0.0000202082942178
 40
0.0000202082942178
 40
0.0000202082942178
 40
0.0040218803475994
 40
0.0040218803475994
 40
0.0040218803475994
 40
0.0040218803475994
 10
127.9441534043195
 20
127.6367356342996
 30
0.0
 10
126.6108104033327
 20
127.6140409635191
 30
0.0
 10
125.2774765301101
 20
127.5907132233508
 30
0.0
 10
123.9441534043195
 20
127.5667149921872
 30
0.0
  0
SPLINE
  5
16D
330
1F
100
AcDbEntity
  8
0
  6
HIDDEN
 62
     7
370
     0
100
AcDbSpline
210
0.0
220
0.0
230
1.0
 70
     8
 71
     3
 72
     8
 73
     4
 74
     0
 42
0.00000001
 43
0.00000001
 12
1.0
 22
0.0
 32
0.0
 13
1.0
 23
0.0
 33
0.0
 40
0.0
 40
0.0
 40
0.0
 40
0.0
 40
1.0
 40
1.0
 40
1.0
 40
1.0
 10
122.4441534043186
 20
122.0790669456161
 30
0.0
 10
122.9183648147565
 20
121.744337718321
 30
0.0
 10
123.4231011618584
 20
121.4852793044881
 30
0.0
 10
123.9441534043195
 20
121.2697607555138
 30
0.0
  0
SPLINE
  5
16E
330
1F
100
AcDbEntity
  8
0
  6
HIDDEN
 62
     7
370
     0
100
AcDbSpline
210
0.0
220
0.0
230
1.0
 70
     8
 71
     3
 72
     8
 73
     4
 74
     0
 42
0.00000001
 43
0.00000001
 12
1.0
 22
0.0
 32
0.0
 13
1.0
 23
0.0
 33
0.0
 40
0.0
 40
0.0
 40
0.0
 40
0.0
 40
1.0
 40
1.0
 40
1.0
 40
1.0
 10
123.9441534043195
 20
127.5667149921872
 30
0.0
 10
123.4231011618587
 20
127.3511964432131
 30
0.0
 10
122.9183648147572
 20
127.0921380293803
 30
0.0
 10
122.4441534043195
 20
126.7574088020855
 30
0.0
  0
LINE
  5
16F
330
1F
100
AcDbEntity
  8
0
  6
HIDDEN
 62
     7
370
     0
100
AcDbLine
 10
122.4441540749
 20
122.079066861
 30
0.0
 11
122.4441540749
 21
126.7574088867
 31
0.0
  0
SPLINE
  5
170
330
1F
100
AcDbEntity
  8
0
  6
HIDDEN
 62
     7
370
     0
100
AcDbSpline
210
0.0
220
0.0
230
1.0
 70
     8
 71
     3
 72
    68
 73
    64
 74
     0
 42
0.00000001
 43
0.00000001
 12
1.0
 22
0.0
 32
0.0
 13
1.0
 23
0.0
 33
0.0
 40
-0.03125
 40
-0.03125
 40
0.0
 40
0.0
 40
0.0312500000000006
 40
0.0312500000000006
 40
0.0625000000000011
 40
0.0625000000000011
 40
0.0937500000000012
 40
0.0937500000000012
 40
0.1250000000000013
 40
0.1250000000000013
 40
0.1875000000000013
 40
0.1875000000000013
 40
0.2187500000000013
 40
0.2187500000000013
 40
0.2500000000000012
 40
0.2500000000000012
 40
0.2812500000000012
 40
0.2812500000000012
 40
0.3125000000000012
 40
0.3125000000000012
 40
0.3437500000000011
 40
0.3437500000000011
 40
0.3750000000000011
 40
0.3750000000000011
 40
0.4062500000000011
 40
0.4062500000000011
 40
0.437500000000001
 40
0.437500000000001
 40
0.468750000000001
 40
0.468750000000001
 40
0.500000000000001
 40
0.500000000000001
 40
0.5312500000000009
 40
0.5312500000000009
 40
0.5625000000000008
 40
0.5625000000000008
 40
0.5937500000000007
 40
0.5937500000000007
 40
0.6250000000000006
 40
0.6250000000000006
 40
0.6562500000000004
 40
0.6562500000000004
 40
0.6875000000000003
 40
0.6875000000000003
 40
0.7187500000000002
 40
0.7187500000000002
 40
0.7500000000000001
 40
0.7500000000000001
 40
0.7812500000000001
 40
0.7812500000000001
 40
0.8125000000000001
 40
0.8125000000000001
 40
0.8437500000000001
 40
0.8437500000000001
 40
0.875
 40
0.875
 40
0.90625
 40
0.90625
 40
0.9375
 40
0.9375
 40
0.96875
 40
0.96875
 40
1.0
 40
1.0
 40
1.031250000000001
 40
1.031250000000001
 10
135.827979691656
 20
126.3150554504671
 30
0.0
 10
136.1184441739478
 20
126.6334876914676
 30
0.0
 10
136.2773604723292
 20
126.7760052171713
 30
0.0
 10
136.6209411579671
 20
127.029719754261
 30
0.0
 10
136.8071125108728
 20
127.14128358077
 30
0.0
 10
137.1916425834585
 20
127.325532617439
 30
0.0
 10
137.3912530856232
 20
127.3994468835278
 30
0.0
 10
137.8050926705968
 20
127.5110887730879
 30
0.0
 10
138.017902480268
 20
127.5480128273768
 30
0.0
 10
138.6538339546087
 20
127.6006146479523
 30
0.0
 10
139.0889001752365
 20
127.5584062572921
 30
0.0
 10
139.7011430422241
 20
127.3845716520967
 30
0.0
 10
139.9009881303361
 20
127.3079534242846
 30
0.0
 10
140.2853654390643
 20
127.1177785559417
 30
0.0
 10
140.4659138299268
 20
127.0064191217232
 30
0.0
 10
140.8039737576364
 20
126.7513138530008
 30
0.0
 10
140.9630055740476
 20
126.6058080648081
 30
0.0
 10
141.24780225427
 20
126.2875694106352
 30
0.0
 10
141.3727477831449
 20
126.1165170921161
 30
0.0
 10
141.5870499235586
 20
125.749956506003
 30
0.0
 10
141.6769487027334
 20
125.5518877722003
 30
0.0
 10
141.8106009918624
 20
125.1473050189909
 30
0.0
 10
141.8556089271764
 20
124.9396898389738
 30
0.0
 10
141.9003884077938
 20
124.5134000825449
 30
0.0
 10
141.899314746778
 20
124.2967617845966
 30
0.0
 10
141.8512949530625
 20
123.8738017576393
 30
0.0
 10
141.8038819758376
 20
123.6628050723799
 30
0.0
 10
141.665566727021
 20
123.2570163569481
 30
0.0
 10
141.5758858687988
 20
123.0640696982856
 30
0.0
 10
141.3572031584715
 20
122.6971630753021
 30
0.0
 10
141.2277554406429
 20
122.5236579270801
 30
0.0
 10
140.9412498366134
 20
122.2096558290894
 30
0.0
 10
140.7823910183754
 20
122.0665529026351
 30
0.0
 10
140.4373931964225
 20
121.8112219867821
 30
0.0
 10
140.2551760923022
 20
121.7016898091816
 30
0.0
 10
139.8723360156632
 20
121.5167629823933
 30
0.0
 10
139.66959179059
 20
121.4409471555519
 30
0.0
 10
139.2577632161267
 20
121.3283666633098
 30
0.0
 10
139.0485444395271
 20
121.2910264437251
 30
0.0
 10
138.6235516052927
 20
121.253795424195
 30
0.0
 10
138.4063943282196
 20
121.2543613881266
 30
0.0
 10
137.9820164890663
 20
121.293759092016
 30
0.0
 10
137.7728998412167
 20
121.3321883266502
 30
0.0
 10
137.3609588523227
 20
121.4473933611876
 30
0.0
 10
137.1583907474296
 20
121.5246582916921
 30
0.0
 10
136.7767903049622
 20
121.712340561824
 30
0.0
 10
136.5954793690831
 20
121.823253913636
 30
0.0
 10
136.252887472149
 20
122.0812073523668
 30
0.0
 10
136.0940638551949
 20
122.2269230479762
 30
0.0
 10
135.8110190760945
 20
122.5432442056857
 30
0.0
 10
135.6850091441087
 20
122.7152779170848
 30
0.0
 10
135.4679021002937
 20
123.0878204950739
 30
0.0
 10
135.3804668040199
 20
123.2819422803479
 30
0.0
 10
135.2472735234723
 20
123.6857170094274
 30
0.0
 10
135.2013729413677
 20
123.898213936035
 30
0.0
 10
135.1570564004338
 20
124.3238097968931
 30
0.0
 10
135.1578985879163
 20
124.5366436351623
 30
0.0
 10
135.2057372823373
 20
124.9623833649922
 30
0.0
 10
135.2532731378064
 20
125.1741455304054
 30
0.0
 10
135.3900117330344
 20
125.5776350648627
 30
0.0
 10
135.48029527831
 20
125.7733936858157
 30
0.0
 10
135.700006170575
 20
126.1429939125639
 30
0.0
 10
135.827979691656
 20
126.3150554504671
 30
0.0
 10
136.1184441739478
 20
126.6334876914676
 30
0.0
  0
CIRCLE
  5
171
330
1F
100
AcDbEntity
  8
0
  6
HIDDEN
 62
     7
370
     0
100
AcDbCircle
 10
138.4441534043
 20
124.4182378739
 30
0.0
 40
3.049999999999997
  0
LINE
  5
172
330
1F
100
AcDbEntity
  8
0
  6
HIDDEN
 62
     7
370
     0
100
AcDbLine
 10
254.3866851688
 20
124.4182378739
 30
0.0
 11
256.23883245
 21
118.7182377777
 31
0.0
  0
CIRCLE
  5
173
330
1F
100
AcDbEntity
  8
0
  6
HIDDEN
 62
     7
370
     0
100
AcDbCircle
 10
164.4441534043
 20
124.4182378739
 30
0.0
 40
2.0
  0
LINE
  5
174
330
1F
100
AcDbEntity
  8
0
  6
HIDDEN
 62
     7
370
     0
100
AcDbLine
 10
152.4441534043
 20
104.8682384878
 30
0.0
 11
152.5370466247
 21
104.961130464
 31
0.0
  0
LINE
  5
175
330
1F
100
AcDbEntity
  8
0
  6
HIDDEN
 62
     7
370
     0
100
AcDbLine
 10
152.5370466247
 20
143.8753452837
 30
0.0
 11
152.4441534043
 21
143.9682372599
 31
0.0
  0
ARC
  5
176
330
1F
100
AcDbEntity
  8
0
  6
HIDDEN
 62
     7
370
     0
100
AcDbCircle
 10
151.8299398419
 20
105.6682378739
 30
0.0
 40
1.0
100
AcDbArc
 50
315.0
 51
0.0
  0
ARC
  5
177
330
1F
100
AcDbEntity
  8
0
  6
HIDDEN
 62
     7
370
     0
100
AcDbCircle
 10
151.8299398419
 20
105.6682378739
 30
0.0
 40
1.000000000000021
100
AcDbArc
 50
0.0
 51
52.1052014664
  0
ARC
  5
178
330
1F
100
AcDbEntity
  8
0
  6
HIDDEN
 62
     7
370
     0
100
AcDbCircle
 10
151.8299398419
 20
143.1682378739
 30
0.0
 40
1.000000000000008
100
AcDbArc
 50
351.8087250651
 51
45.0
  0
ARC
  5
179
330
1F
100
AcDbEntity
  8
0
  6
HIDDEN
 62
     7
370
     0
100
AcDbCircle
 10
151.8299398419
 20
143.1682378739
 30
0.0
 40
1.000000000000002
100
AcDbArc
 50
307.8947985336
 51
351.8087250651
  0
LINE
  5
17A
330
1F
100
AcDbEntity
  8
0
  6
HIDDEN
 62
     7
370
     0
100
AcDbLine
 10
152.8299398401
 20
105.6682371288
 30
0.0
 11
152.8299398401
 21
143.1682386189
 31
0.0
  0
LINE
  5
17B
330
1F
100
AcDbEntity
  8
0
  6
HIDDEN
 62
     7
370
     0
100
AcDbLine
 10
152.8299398401
 20
105.6682371288
 30
0.0
 11
152.8299398401
 21
143.1682386189
 31
0.0
  0
LINE
  5
17C
330
1F
100
AcDbEntity
  8
0
  6
HIDDEN
 62
     7
370
     0
100
AcDbLine
 10
220.344155407
 20
123.1075063567
 30
0.0
 11
220.344155407
 21
120.4010170638
 31
0.0
  0
LINE
  5
17D
330
1F
100
AcDbEntity
  8
0
  6
HIDDEN
 62
     7
370
     0
100
AcDbLine
 10
224.5441519976
 20
121.4227414909
 30
0.0
 11
224.5441519976
 21
123.1090577073
 31
0.0
  0
LINE
  5
17E
330
1F
100
AcDbEntity
  8
0
  6
HIDDEN
 62
     7
370
     0
100
AcDbLine
 10
231.7171314121
 20
118.5502243913
 30
0.0
 11
224.1435417295
 21
122.229024231
 31
0.0
  0
LINE
  5
17F
330
1F
100
AcDbEntity
  8
0
  6
HIDDEN
 62
     7
370
     0
100
AcDbLine
 10
222.2225883366
 20
118.7151900246
 30
0.0
 11
231.5639176727
 21
114.1777249738
 31
0.0
  0
LINE
  5
180
330
1F
100
AcDbEntity
  8
0
  6
HIDDEN
 62
     7
370
     0
100
AcDbLine
 10
128.944154209
 20
112.4182377695
 30
0.0
 11
129.9508729339
 21
112.4182377695
 31
0.0
  0
LINE
  5
181
330
1F
100
AcDbEntity
  8
0
  6
HIDDEN
 62
     7
370
     0
100
AcDbLine
 10
129.9508729339
 20
136.4182379782
 30
0.0
 11
128.944154209
 21
136.4182379782
 31
0.0
  0
ARC
  5
182
330
1F
100
AcDbEntity
  8
0
  6
HIDDEN
 62
     7
370
     0
100
AcDbCircle
 10
129.9508729164
 20
113.9182378739
 30
0.0
 40
1.500000000000014
100
AcDbArc
 50
270.0
 51
315.0
  0
ARC
  5
183
330
1F
100
AcDbEntity
  8
0
  6
HIDDEN
 62
     7
370
     0
100
AcDbCircle
 10
129.9508729164
 20
134.9182378739
 30
0.0
 40
1.5
100
AcDbArc
 50
45.0
 51
90.0
  0
ARC
  5
184
330
1F
100
AcDbEntity
  8
0
  6
HIDDEN
 62
     7
370
     0
100
AcDbCircle
 10
128.9441534043
 20
113.9182378739
 30
0.0
 40
1.500000000000034
100
AcDbArc
 50
191.0958032831
 51
270.0
  0
ARC
  5
185
330
1F
100
AcDbEntity
  8
0
  6
HIDDEN
 62
     7
370
     0
100
AcDbCircle
 10
128.9441534043
 20
134.9182378739
 30
0.0
 40
1.500000000000028
100
AcDbArc
 50
90.0
 51
168.9041967169
  0
LINE
  5
186
330
1F
100
AcDbEntity
  8
0
  6
HIDDEN
 62
     7
370
     0
100
AcDbLine
 10
122.4441540749
 20
112.6548253685
 30
0.0
 11
123.4721926362
 21
113.2483646958
 31
0.0
  0
LINE
  5
187
330
1F
100
AcDbEntity
  8
0
  6
HIDDEN
 62
     7
370
     0
100
AcDbLine
 10
123.4721926362
 20
135.5881110519
 30
0.0
 11
122.4441540749
 21
136.1816503792
 31
0.0
  0
LINE
  5
188
330
1F
100
AcDbEntity
  8
0
  6
HIDDEN
 62
     7
370
     0
100
AcDbLine
 10
131.0115338624
 20
112.8575780182
 30
0.0
 11
132.0721929283
 21
113.9182380154
 31
0.0
  0
LINE
  5
189
330
1F
100
AcDbEntity
  8
0
  6
HIDDEN
 62
     7
370
     0
100
AcDbLine
 10
132.0721929283
 20
134.9182377323
 30
0.0
 11
131.0115338624
 21
135.9788977295
 31
0.0
  0
LINE
  5
18A
330
1F
100
AcDbEntity
  8
0
  6
HIDDEN
 62
     7
370
     0
100
AcDbLine
 10
123.4721926362
 20
113.2483646958
 30
0.0
 11
125.9721939773
 21
113.9182380154
 31
0.0
  0
LINE
  5
18B
330
1F
100
AcDbEntity
  8
0
  6
HIDDEN
 62
     7
370
     0
100
AcDbLine
 10
125.9721939773
 20
134.9182377323
 30
0.0
 11
123.4721926362
 21
135.5881110519
 31
0.0
  0
LINE
  5
18C
330
1F
100
AcDbEntity
  8
0
  6
HIDDEN
 62
     7
370
     0
100
AcDbLine
 10
127.4721932919
 20
135.2069132715
 30
0.0
 11
126.9721941412
 21
134.9182377323
 31
0.0
  0
LINE
  5
18D
330
1F
100
AcDbEntity
  8
0
  6
HIDDEN
 62
     7
370
     0
100
AcDbLine
 10
126.9721941412
 20
113.9182380154
 30
0.0
 11
127.4721932919
 21
113.6295624762
 31
0.0
  0
LINE
  5
18E
330
1F
100
AcDbEntity
  8
0
  6
HIDDEN
 62
     7
370
     0
100
AcDbLine
 10
132.0721929283
 20
113.9182380154
 30
0.0
 11
141.9441535459
 21
113.9182380154
 31
0.0
  0
LINE
  5
18F
330
1F
100
AcDbEntity
  8
0
  6
HIDDEN
 62
     7
370
     0
100
AcDbLine
 10
141.9441535459
 20
134.9182377323
 30
0.0
 11
132.0721929283
 21
134.9182377323
 31
0.0
  0
LINE
  5
190
330
1F
100
AcDbEntity
  8
0
  6
HIDDEN
 62
     7
370
     0
100
AcDbLine
 10
125.9721939773
 20
113.9182380154
 30
0.0
 11
126.9721941412
 21
113.9182380154
 31
0.0
  0
LINE
  5
191
330
1F
100
AcDbEntity
  8
0
  6
HIDDEN
 62
     7
370
     0
100
AcDbLine
 10
126.9721941412
 20
134.9182377323
 30
0.0
 11
125.9721939773
 21
134.9182377323
 31
0.0
  0
ARC
  5
192
330
1F
100
AcDbEntity
  8
0
  6
HIDDEN
 62
     7
370
     0
100
AcDbCircle
 10
141.9441534043
 20
114.4182378739
 30
0.0
 40
0.5
100
AcDbArc
 50
270.0
 51
0.0
  0
ARC
  5
193
330
1F
100
AcDbEntity
  8
0
  6
HIDDEN
 62
     7
370
     0
100
AcDbCircle
 10
141.9441534043
 20
134.4182378739
 30
0.0
 40
0.5
100
AcDbArc
 50
0.0
 51
90.0
  0
LINE
  5
194
330
1F
100
AcDbEntity
  8
0
  6
HIDDEN
 62
     7
370
     0
100
AcDbLine
 10
142.4441536278
 20
116.1682379186
 30
0.0
 11
143.4441537917
 21
117.1682380825
 31
0.0
  0
LINE
  5
195
330
1F
100
AcDbEntity
  8
0
  6
HIDDEN
 62
     7
370
     0
100
AcDbLine
 10
143.4441537917
 20
131.6682376652
 30
0.0
 11
142.4441536278
 21
132.6682378291
 31
0.0
  0
LINE
  5
196
330
1F
100
AcDbEntity
  8
0
  6
HIDDEN
 62
     7
370
     0
100
AcDbLine
 10
143.4441537917
 20
117.1682380825
 30
0.0
 11
167.444153069
 21
117.1682380825
 31
0.0
  0
LINE
  5
197
330
1F
100
AcDbEntity
  8
0
  6
HIDDEN
 62
     7
370
     0
100
AcDbLine
 10
167.444153069
 20
131.6682376652
 30
0.0
 11
143.4441537917
 21
131.6682376652
 31
0.0
  0
LINE
  5
198
330
1F
100
AcDbEntity
  8
0
  6
HIDDEN
 62
     7
370
     0
100
AcDbLine
 10
167.444153069
 20
117.1682380825
 30
0.0
 11
169.2467344315
 21
120.1682376429
 31
0.0
  0
LINE
  5
199
330
1F
100
AcDbEntity
  8
0
  6
HIDDEN
 62
     7
370
     0
100
AcDbLine
 10
169.2467344315
 20
128.6682381048
 30
0.0
 11
167.444153069
 21
131.6682376652
 31
0.0
  0
LINE
  5
19A
330
1F
100
AcDbEntity
  8
0
  6
HIDDEN
 62
     7
370
     0
100
AcDbLine
 10
243.5664081336
 20
125.0206516576
 30
0.0
 11
243.9928197623
 21
124.1771434886
 31
0.0
  0
LINE
  5
19B
330
1F
100
AcDbEntity
  8
0
  6
HIDDEN
 62
     7
370
     0
100
AcDbLine
 10
250.2399453283
 20
127.3352128207
 30
0.0
 11
249.8135336996
 21
128.1787209898
 31
0.0
  0
LINE
  5
19C
330
1F
100
AcDbEntity
  8
0
  6
HIDDEN
 62
     7
370
     0
100
AcDbLine
 10
239.73479805
 20
120.0550777591
 30
0.0
 11
240.698553002
 21
118.1486329749
 31
0.0
  0
LINE
  5
19D
330
1F
100
AcDbEntity
  8
0
  6
HIDDEN
 62
     7
370
     0
100
AcDbLine
 10
169.2467344315
 20
120.1682376429
 30
0.0
 11
225.4441523314
 21
120.1682376429
 31
0.0
  0
LINE
  5
19E
330
1F
100
AcDbEntity
  8
0
  6
HIDDEN
 62
     7
370
     0
100
AcDbLine
 10
225.4441523314
 20
128.6682381048
 30
0.0
 11
169.2467344315
 21
128.6682381048
 31
0.0
  0
LINE
  5
19F
330
1F
100
AcDbEntity
  8
0
  6
HIDDEN
 62
     7
370
     0
100
AcDbLine
 10
225.4441523314
 20
120.1682376429
 30
0.0
 11
227.9978090287
 21
124.4182378739
 31
0.0
  0
LINE
  5
1A0
330
1F
100
AcDbEntity
  8
0
  6
HIDDEN
 62
     7
370
     0
100
AcDbLine
 10
227.9978090287
 20
124.4182378739
 30
0.0
 11
225.4441523314
 21
128.6682381048
 31
0.0
  0
LINE
  5
1A1
330
1F
100
AcDbEntity
  8
0
  6
HIDDEN
 62
     7
370
     0
100
AcDbLine
 10
252.7505898238
 20
118.6608198784
 30
0.0
 11
249.5585748316
 21
125.9208600256
 31
0.0
  0
LINE
  5
1A2
330
1F
100
AcDbEntity
  8
0
  6
HIDDEN
 62
     7
370
     0
100
AcDbLine
 10
241.0284870625
 20
128.4894423313
 30
0.0
 11
242.8977259756
 21
124.7918138558
 31
0.0
  0
LINE
  5
1A3
330
1F
100
AcDbEntity
  8
0
  6
HIDDEN
 62
     7
370
     0
100
AcDbLine
 10
250.3942841054
 20
128.5814970485
 30
0.0
 11
248.6681261421
 21
131.9960860289
 31
0.0
  0
LINE
  5
1A4
330
1F
100
AcDbEntity
  8
0
  6
HIDDEN
 62
     7
370
     0
100
AcDbLine
 10
220.344155407
 20
127.5084078531
 30
0.0
 11
220.344155407
 21
125.7274180404
 31
0.0
  0
LINE
  5
1A5
330
1F
100
AcDbEntity
  8
0
  6
HIDDEN
 62
     7
370
     0
100
AcDbLine
 10
224.5441519976
 20
125.728969391
 30
0.0
 11
224.5441519976
 21
127.5084078531
 31
0.0
  0
LINE
  5
1A6
330
1F
100
AcDbEntity
  8
0
  6
HIDDEN
 62
     7
370
     0
100
AcDbLine
 10
254.9044930697
 20
114.9953572764
 30
0.0
 11
254.2459660531
 21
116.2980251699
 31
0.0
  0
LINE
  5
1A7
330
1F
100
AcDbEntity
  8
0
  6
HIDDEN
 62
     7
370
     0
100
AcDbLine
 10
248.534306264
 20
113.4106476545
 30
0.0
 11
249.1928332806
 21
112.107979761
 31
0.0
  0
LINE
  5
1A8
330
1F
100
AcDbEntity
  8
0
  6
HIDDEN
 62
     7
370
     0
100
AcDbLine
 10
246.1939447881
 20
120.6522119916
 30
0.0
 11
248.6726858974
 21
115.014471741
 31
0.0
  0
LINE
  5
1A9
330
1F
100
AcDbEntity
  8
0
  6
HIDDEN
 62
     7
370
     0
100
AcDbLine
 10
253.2830455662
 20
116.9513195507
 30
0.0
 11
250.7863783599
 21
122.629837411
 31
0.0
  0
LINE
  5
1AA
330
1F
100
AcDbEntity
  8
0
  6
HIDDEN
 62
     7
370
     0
100
AcDbLine
 10
219.9441560865
 20
129.361025685
 30
0.0
 11
219.9441560865
 21
127.5533970199
 31
0.0
  0
LINE
  5
1AB
330
1F
100
AcDbEntity
  8
0
  6
HIDDEN
 62
     7
370
     0
100
AcDbLine
 10
224.9441513182
 20
127.5533970199
 30
0.0
 11
224.9441513182
 21
129.3623514227
 31
0.0
  0
LINE
  5
1AC
330
1F
100
AcDbEntity
  8
VERMASSUNG
  6
CENTERX2
100
AcDbLine
 10
118.4571085702
 20
124.4182378739
 30
0.0
 11
262.4441534043
 21
124.4182378739
 31
0.0
  0
LINE
  5
1AD
330
1F
100
AcDbEntity
  8
VERMASSUNG
  6
CENTERX2
100
AcDbLine
 10
262.4441534043
 20
124.4182378739
 30
0.0
 11
262.4441534043
 21
102.4182378739
 31
0.0
  0
LINE
  5
1AE
330
1F
100
AcDbEntity
  8
VERMASSUNG
  6
CENTERX2
100
AcDbLine
 10
262.4441534043
 20
102.4182378739
 30
0.0
 11
275.3683452468
 21
102.4182378739
 31
0.0
  0
DIMENSION
  5
1AF
330
1F
100
AcDbEntity
  8
VERMASSUNG
100
AcDbDimension
  2
_D
 10
262.4441534043
 20
89.4182378739
 30
0.0
 11
207.4441534043
 21
89.4182378739
 31
0.0
 70
   160
  1
<>
 71
     2
 42
-1.0
  3
SLDDIMSTYLE0
100
AcDbAlignedDimension
 13
152.4441534043
 23
99.7182378739
 33
0.0
 14
262.4441534043
 24
102.4182378739
 34
0.0
100
AcDbRotatedDimension
  0
DIMENSION
  5
1BA
330
1F
100
AcDbEntity
  8
VERMASSUNG
100
AcDbDimension
  2
_D_1
 10
262.4441534043
 20
81.2230837075
 30
0.0
 11
192.4441534043
 21
81.2230837075
 31
0.0
 70
   160
  1
<>
 71
     2
 42
-1.0
  3
SLDDIMSTYLE0
100
AcDbAlignedDimension
 13
122.4441534043
 23
108.4249120357
 33
0.0
 14
262.4441534043
 24
102.4182378739
 34
0.0
100
AcDbRotatedDimension
  0
DIMENSION
  5
1C4
330
1F
100
AcDbEntity
  8
VERMASSUNG
100
AcDbDimension
  2
_D_2
 10
281.1393823291
 20
102.4182378739
 30
0.0
 11
281.1393823291
 21
113.4182378739
 31
0.0
 70
   160
  1
<>
 71
     2
 42
-1.0
  3
SLDDIMSTYLE0
100
AcDbAlignedDimension
 13
262.4441534043
 23
124.4182378739
 33
0.0
 14
262.4441534043
 24
102.4182378739
 34
0.0
 50
90.0
100
AcDbRotatedDimension
  0
DIMENSION
  5
1CE
330
1F
100
AcDbEntity
  8
VERMASSUNG
100
AcDbDimension
  2
_D_3
 10
258.1728146391
 20
116.4176876503
 30
0.0
 11
269.7242065353
 21
112.150635484
 31
0.0
 70
   162
  1
<>
 71
     1
 42
-1.0
  3
SLDDIMSTYLE1
100
AcDb2LineAngularDimension
 13
275.3683452468
 23
102.4182378739
 33
0.0
 14
262.4441534043
 24
102.4182378739
 34
0.0
 15
262.4275571908
 25
102.9310567657
 35
0.0
 16
269.7242065353
 26
112.150635484
 36
0.0
  0
DIMENSION
  5
1D7
330
1F
100
AcDbEntity
  8
VERMASSUNG
100
AcDbDimension
  2
_D_4
 10
112.4441534043
 20
99.4182378739
 30
0.0
 11
112.4441534043
 21
124.4182378739
 31
0.0
 70
   160
  1
PSC%%c<>
 71
     2
 42
-1.0
  3
SLDDIMSTYLE0
100
AcDbAlignedDimension
 13
152.7441534043
 23
149.4182378739
 33
0.0
 14
152.7441534043
 24
99.4182378739
 34
0.0
 50
90.0
100
AcDbRotatedDimension
  0
DIMENSION
  5
1E3
330
1F
100
AcDbEntity
  8
VERMASSUNG
100
AcDbDimension
  2
_D_5
 10
192.4441534043
 20
108.4182378739
 30
0.0
 11
192.4441534043
 21
115.8257821386
 31
0.0
 70
   160
  1
%%c<>
 71
     2
 42
-1.0
  3
SLDDIMSTYLE0
100
AcDbAlignedDimension
 13
176.4441534043
 23
140.4182378739
 33
0.0
 14
176.4441534043
 24
108.4182378739
 34
0.0
 50
90.0
100
AcDbRotatedDimension
  0
LINE
  5
1EC
330
1F
100
AcDbEntity
  8
0
  6
Continuous
 62
     7
370
    15
100
AcDbLine
 10
45.7992249209
 20
129.2902894027
 30
0.0
 11
45.6446433946
 21
129.0493515496
 31
0.0
  0
LINE
  5
1ED
330
1F
100
AcDbEntity
  8
0
  6
Continuous
 62
     7
370
    15
100
AcDbLine
 10
47.0919641771
 20
122.2402426182
 30
0.0
 11
47.3311796818
 21
122.083008908
 31
0.0
  0
LINE
  5
1EE
330
1F
100
AcDbEntity
  8
0
  6
Continuous
 62
     7
370
    15
100
AcDbLine
 10
58.7749301161
 20
104.0554936598
 30
0.0
 11
61.443064091
 21
104.6226230436
 31
0.0
  0
LINE
  5
1EF
330
1F
100
AcDbEntity
  8
0
  6
Continuous
 62
     7
370
    15
100
AcDbLine
 10
61.4526588173
 20
104.6303249947
 30
0.0
 11
61.679243654
 21
104.9834905083
 31
0.0
  0
LINE
  5
1F0
330
1F
100
AcDbEntity
  8
0
  6
Continuous
 62
     7
370
    15
100
AcDbLine
 10
52.6250760265
 20
102.416266707
 30
0.0
 11
58.8022874835
 21
103.729273535
 31
0.0
  0
LINE
  5
1F1
330
1F
100
AcDbEntity
  8
0
  6
Continuous
 62
     7
370
    15
100
AcDbLine
 10
51.4806012012
 20
105.7050990064
 30
0.0
 11
51.972599319
 21
105.1479931858
 31
0.0
  0
LINE
  5
1F2
330
1F
100
AcDbEntity
  8
0
  6
Continuous
 62
     7
370
    15
100
AcDbLine
 10
51.9637278189
 20
105.1504946431
 30
0.0
 11
52.0058630301
 21
105.1010763631
 31
0.0
  0
LINE
  5
1F3
330
1F
100
AcDbEntity
  8
0
  6
Continuous
 62
     7
370
    15
100
AcDbLine
 10
48.1644552897
 20
118.2857387696
 30
0.0
 11
47.9015293628
 21
117.4492365617
 31
0.0
  0
LINE
  5
1F4
330
1F
100
AcDbEntity
  8
0
  6
Continuous
 62
     7
370
    15
100
AcDbLine
 10
47.1022765173
 20
120.8114480582
 30
0.0
 11
46.7942808315
 21
120.7459815542
 31
0.0
  0
LINE
  5
1F5
330
1F
100
AcDbEntity
  8
0
  6
Continuous
 62
     7
370
    15
100
AcDbLine
 10
50.0997563611
 20
109.9933003925
 30
0.0
 11
50.2545212705
 21
110.0183975576
 31
0.0
  0
LINE
  5
1F6
330
1F
100
AcDbEntity
  8
0
  6
Continuous
 62
     7
370
    15
100
AcDbLine
 10
58.3770124263
 20
118.7180328681
 30
0.0
 11
49.4078959484
 21
116.8115883083
 31
0.0
  0
LINE
  5
1F7
330
1F
100
AcDbEntity
  8
0
  6
Continuous
 62
     7
370
    15
100
AcDbLine
 10
49.4078959484
 20
116.8115883083
 30
0.0
 11
44.0646654471
 21
138.4918968348
 31
0.0
  0
ARC
  5
1F8
330
1F
100
AcDbEntity
  8
0
  6
Continuous
 62
     7
370
    15
100
AcDbCircle
 10
52.6775699195
 20
124.4182378739
 30
0.0
 40
16.50000000000001
100
AcDbArc
 50
0.0
 51
121.4661145014
  0
LINE
  5
1F9
330
1F
100
AcDbEntity
  8
0
  6
Continuous
 62
     7
370
    15
100
AcDbLine
 10
69.1775699195
 20
124.4182378739
 30
0.0
 11
69.1775699195
 21
118.7182378739
 31
0.0
  0
ARC
  5
1FA
330
1F
100
AcDbEntity
  8
0
  6
Continuous
 62
     7
370
    15
100
AcDbCircle
 10
52.1775699195
 20
118.7182378739
 30
0.0
 40
17.00000000000001
100
AcDbArc
 50
312.2639205213
 51
0.0
  0
LINE
  5
1FB
330
1F
100
AcDbEntity
  8
0
  6
Continuous
 62
     7
370
    15
100
AcDbLine
 10
61.5920714408
 20
105.7081998413
 30
0.0
 11
63.6108626328
 21
106.1373071558
 31
0.0
  0
LINE
  5
1FC
330
1F
100
AcDbEntity
  8
0
  6
Continuous
 62
     7
370
    15
100
AcDbLine
 10
58.4777069506
 20
118.3094619946
 30
0.0
 11
58.3770124263
 21
118.7180328681
 31
0.0
  0
ARC
  5
1FD
330
1F
100
AcDbEntity
  8
0
  6
Continuous
 62
     7
370
    15
100
AcDbCircle
 10
52.1775699195
 20
118.7182378739
 30
0.0
 40
17.00000000000001
100
AcDbArc
 50
307.594399312
 51
312.2639205213
  0
LINE
  5
1FE
330
1F
100
AcDbEntity
  8
0
  6
Continuous
 62
     7
370
    15
100
AcDbLine
 10
62.548721063
 20
105.2483000878
 30
0.0
 11
61.6890893195
 21
105.0655797201
 31
0.0
  0
SPLINE
  5
1FF
330
1F
100
AcDbEntity
  8
0
  6
Continuous
 62
     7
370
    15
100
AcDbSpline
210
0.0
220
0.0
230
1.0
 70
     8
 71
     3
 72
    10
 73
     6
 74
     0
 42
0.00000001
 43
0.00000001
 12
1.0
 22
0.0
 32
0.0
 13
1.0
 23
0.0
 33
0.0
 40
0.0
 40
0.0
 40
0.0
 40
0.0
 40
0.5
 40
0.5
 40
1.0
 40
1.0
 40
1.0
 40
1.0
 10
48.91708460532171
 20
108.5652533081189
 30
0.0
 10
48.88625657896961
 20
108.6648806004341
 30
0.0
 10
48.8573415871078
 20
108.7469258129077
 30
0.0
 10
48.80635687514991
 20
108.8647295623752
 30
0.0
 10
48.78489076023757
 20
108.8989818900824
 30
0.0
 10
48.76933526575913
 20
108.9029002400411
 30
0.0
  0
ARC
  5
200
330
1F
100
AcDbEntity
  8
0
  6
Continuous
 62
     7
370
    15
100
AcDbCircle
 10
52.6775699195
 20
124.4182378739
 30
0.0
 40
16.00000000000001
100
AcDbArc
 50
255.2161674873
 51
255.8616180582
  0
ARC
  5
201
330
1F
100
AcDbEntity
  8
0
  6
Continuous
 62
     7
370
    15
100
AcDbCircle
 10
52.6775699195
 20
124.4182378739
 30
0.0
 40
16.00000000000001
100
AcDbArc
 50
128.1383819418
 51
128.7838325127
  0
SPLINE
  5
202
330
1F
100
AcDbEntity
  8
0
  6
Continuous
 62
     7
370
    15
100
AcDbSpline
210
0.0
220
0.0
230
1.0
 70
     8
 71
     3
 72
     8
 73
     4
 74
     0
 42
0.00000001
 43
0.00000001
 12
1.0
 22
0.0
 32
0.0
 13
1.0
 23
0.0
 33
0.0
 40
0.0
 40
0.0
 40
0.0
 40
0.0
 40
1.0
 40
1.0
 40
1.0
 40
1.0
 10
42.79656355881279
 20
137.0025818495838
 30
0.0
 10
42.8217590445231
 20
137.0223649034358
 30
0.0
 10
42.81889859130644
 20
137.1642435130927
 30
0.0
 10
42.7942059172053
 20
137.3711327409176
 30
0.0
  0
SPLINE
  5
203
330
1F
100
AcDbEntity
  8
0
  6
Continuous
 62
     7
370
    15
100
AcDbSpline
210
0.0
220
0.0
230
1.0
 70
     8
 71
     3
 72
     8
 73
     4
 74
     0
 42
0.00000001
 43
0.00000001
 12
1.0
 22
0.0
 32
0.0
 13
1.0
 23
0.0
 33
0.0
 40
0.0
 40
0.0
 40
0.0
 40
0.0
 40
1.0
 40
1.0
 40
1.0
 40
1.0
 10
42.79420591720506
 20
137.3711327409184
 30
0.0
 10
42.78471787788339
 20
137.4506289154029
 30
0.0
 10
42.7752536648946
 20
137.5300542048847
 30
0.0
 10
42.76581231284618
 20
137.6094114814736
 30
0.0
  0
ARC
  5
204
330
1F
100
AcDbEntity
  8
0
  6
Continuous
 62
     7
370
    15
100
AcDbCircle
 10
52.6775699195
 20
124.4182378739
 30
0.0
 40
16.50000000000001
100
AcDbArc
 50
121.4661145014
 51
126.9209496533
  0
ARC
  5
205
330
1F
100
AcDbEntity
  8
0
  6
Continuous
 62
     7
370
    15
100
AcDbCircle
 10
61.3034265845
 20
122.1114345511
 30
0.0
 40
14.54377278410602
100
AcDbArc
 50
188.1093836214
 51
199.5805043392
  0
LWPOLYLINE
  5
206
330
1F
100
AcDbEntity
  8
0
  6
Continuous
 62
     7
370
    15
100
AcDbPolyline
 90
        5
 70
   128
 43
0.0
 10
46.8249395912
 20
120.7524982748
 10
46.8210690461
 20
120.8290752904
 10
46.8286793937
 20
121.0698154871
 10
46.8749389357
 20
121.150653253
 10
46.9560999994
 20
121.065039593
  0
ARC
  5
207
330
1F
100
AcDbEntity
  8
0
  6
Continuous
 62
     7
370
    15
100
AcDbCircle
 10
50.0668584723
 20
106.6757442417
 30
0.0
 40
0.3119969477751651
100
AcDbArc
 50
78.6465683351
 51
101.405378238
  0
LINE
  5
208
330
1F
100
AcDbEntity
  8
0
  6
Continuous
 62
     7
370
    15
100
AcDbLine
 10
49.4463056553
 20
106.8627916367
 30
0.0
 11
50.0051612769
 21
106.9815800661
 31
0.0
  0
SPLINE
  5
209
330
1F
100
AcDbEntity
  8
0
  6
Continuous
 62
     7
370
    15
100
AcDbSpline
210
0.0
220
0.0
230
1.0
 70
     8
 71
     3
 72
     8
 73
     4
 74
     0
 42
0.00000001
 43
0.00000001
 12
1.0
 22
0.0
 32
0.0
 13
1.0
 23
0.0
 33
0.0
 40
0.0
 40
0.0
 40
0.0
 40
0.0
 40
1.0
 40
1.0
 40
1.0
 40
1.0
 10
49.44630565530804
 20
106.8627916367285
 30
0.0
 10
49.27022224258607
 20
107.4268689146902
 30
0.0
 10
49.09384879401853
 20
107.9940024178733
 30
0.0
 10
48.91708460532171
 20
108.5652533081189
 30
0.0
  0
LWPOLYLINE
  5
20A
330
1F
100
AcDbEntity
  8
0
  6
Continuous
 62
     7
370
    15
100
AcDbPolyline
 90
       32
 70
   128
 43
0.0
 10
45.5742690914
 20
129.5653821789
 10
45.6736194269
 20
129.5027902564
 10
45.8029500642
 20
129.2825789439
 10
45.9569661917
 20
128.9137637181
 10
46.1293623713
 20
128.4114439179
 10
46.3130806829
 20
127.7961845749
 10
46.5005996774
 20
127.0931744789
 10
46.684242305
 20
126.3311949458
 10
46.8564902151
 20
125.5414415072
 10
47.0102915579
 20
124.7562467616
 10
47.1393496884
 20
124.0077566743
 10
47.2383809516
 20
123.3266145174
 10
47.3033309959
 20
122.7407063307
 10
47.3315407589
 20
122.2740192643
 10
47.3218553296
 20
121.9456595415
 10
47.2746712305
 20
121.769070248
 10
47.1919201843
 20
121.7514809701
 10
47.0769900284
 20
121.893611815
 10
46.9345860171
 20
122.1896439292
 10
46.7705381871
 20
122.6274577232
 10
46.5915626761
 20
123.1891290487
 10
46.4049867624
 20
123.8516630158
 10
46.2184488858
 20
124.5879354059
 10
46.0395859289
 20
125.3678031409
 10
45.8757205623
 20
126.1593383441
 10
45.7335614532
 20
126.9301354713
 10
45.6189286123
 20
127.6486379975
 10
45.5365151216
 20
128.285430345
 10
45.4896949991
 20
128.81444216
 10
45.480385066
 20
129.2140156369
 10
45.5089664721
 20
129.4677921905
 10
45.5742690914
 20
129.5653821789
  0
LINE
  5
20B
330
1F
100
AcDbEntity
  8
0
  6
Continuous
 62
     7
370
    15
100
AcDbLine
 10
46.9560999994
 20
121.065039593
 30
0.0
 11
49.4078959484
 21
116.8115883083
 31
0.0
  0
SPLINE
  5
20C
330
1F
100
AcDbEntity
  8
0
  6
Continuous
 62
     7
370
    15
100
AcDbSpline
210
0.0
220
0.0
230
1.0
 70
     8
 71
     3
 72
    24
 73
    20
 74
     0
 42
0.00000001
 43
0.00000001
 12
1.0
 22
0.0
 32
0.0
 13
1.0
 23
0.0
 33
0.0
 40
0.0
 40
0.0
 40
0.0
 40
0.0
 40
0.1249999999999989
 40
0.1249999999999989
 40
0.2499999999999977
 40
0.2499999999999977
 40
0.3749999999999966
 40
0.3749999999999966
 40
0.4999999999999954
 40
0.4999999999999954
 40
0.6249999999999953
 40
0.6249999999999953
 40
0.6874999999999953
 40
0.6874999999999953
 40
0.7499999999999952
 40
0.7499999999999952
 40
0.8749999999999977
 40
0.8749999999999977
 40
1.0
 40
1.0
 40
1.0
 40
1.0
 10
44.349146676991
 20
118.3065476749779
 30
0.0
 10
44.52879765450861
 20
118.2166082067685
 30
0.0
 10
44.69027990899086
 20
118.1061821093598
 30
0.0
 10
44.98924068045979
 20
117.8563398929197
 30
0.0
 10
45.12748040919871
 20
117.7153163188187
 30
0.0
 10
45.376845211974
 20
117.4126326172705
 30
0.0
 10
45.48822468518396
 20
117.2513234436977
 30
0.0
 10
45.68433752968954
 20
116.9056609282226
 30
0.0
 10
45.76859746462462
 20
116.7216443284451
 30
0.0
 10
45.89488154504517
 20
116.3374803578086
 30
0.0
 10
45.93705880070759
 20
116.1347169881976
 30
0.0
 10
45.95055164517585
 20
115.8327677656116
 30
0.0
 10
45.94666972757106
 20
115.7310218577307
 30
0.0
 10
45.9212708809907
 20
115.5357231269631
 30
0.0
 10
45.89993180686925
 20
115.4410648058681
 30
0.0
 10
45.80951633231259
 20
115.1649626018744
 30
0.0
 10
45.71570948449553
 20
114.9973306507975
 30
0.0
 10
45.47479754680106
 20
114.6976392025658
 30
0.0
 10
45.33182803630218
 20
114.5690188217197
 30
0.0
 10
45.16738453022676
 20
114.4570412339296
 30
0.0
  0
SPLINE
  5
20D
330
1F
100
AcDbEntity
  8
0
  6
Continuous
 62
     7
370
    15
100
AcDbSpline
210
0.0
220
0.0
230
1.0
 70
     8
 71
     3
 72
    14
 73
    10
 74
     0
 42
0.00000001
 43
0.00000001
 12
1.0
 22
0.0
 32
0.0
 13
1.0
 23
0.0
 33
0.0
 40
0.0
 40
0.0
 40
0.0
 40
0.0
 40
0.25
 40
0.25
 40
0.5
 40
0.5
 40
0.75
 40
0.75
 40
1.0
 40
1.0
 40
1.0
 40
1.0
 10
48.59480298313976
 20
108.9479109819208
 30
0.0
 10
48.55761969958652
 20
108.9577240053777
 30
0.0
 10
48.46449854002969
 20
108.9821582022627
 30
0.0
 10
48.17567123154057
 20
109.0639083775992
 30
0.0
 10
47.98560492781507
 20
109.1198175922405
 30
0.0
 10
47.53442889916179
 20
109.2655384760248
 30
0.0
 10
47.27966793574728
 20
109.3534384040345
 30
0.0
 10
46.73273885187276
 20
109.5607645870053
 30
0.0
 10
46.44815611838641
 20
109.6772391094471
 30
0.0
 10
46.1556045136369
 20
109.8078317451898
 30
0.0
  0
SPLINE
  5
20E
330
1F
100
AcDbEntity
  8
0
  6
Continuous
 62
     7
370
    15
100
AcDbSpline
210
0.0
220
0.0
230
1.0
 70
     8
 71
     3
 72
    18
 73
    14
 74
     0
 42
0.00000001
 43
0.00000001
 12
1.0
 22
0.0
 32
0.0
 13
1.0
 23
0.0
 33
0.0
 40
0.0
 40
0.0
 40
0.0
 40
0.0
 40
0.2499999999999895
 40
0.2499999999999895
 40
0.3749999999999874
 40
0.3749999999999874
 40
0.4999999999999853
 40
0.4999999999999853
 40
0.7499999999999879
 40
0.7499999999999879
 40
0.8749999999999939
 40
0.8749999999999939
 40
1.0
 40
1.0
 40
1.0
 40
1.0
 10
40.77687050532845
 20
135.1127857115551
 30
0.0
 10
40.99131643746187
 20
135.351417266404
 30
0.0
 10
41.20363833036757
 20
135.5732237871844
 30
0.0
 10
41.51380375716619
 20
135.8808522912518
 30
0.0
 10
41.61644124251117
 20
135.9797799279825
 30
0.0
 10
41.81090120749545
 20
136.1627401358418
 30
0.0
 10
41.90342528751987
 20
136.2475030176527
 30
0.0
 10
42.164811174855
 20
136.4820983319001
 30
0.0
 10
42.3194747630009
 20
136.6138086125956
 30
0.0
 10
42.49069565465606
 20
136.7565162359476
 30
0.0
 10
42.53845253398556
 20
136.7956625425436
 30
0.0
 10
42.61352446938057
 20
136.856780069958
 30
0.0
 10
42.64039699610058
 20
136.8783956383341
 30
0.0
 10
42.6554279028684
 20
136.8904738160533
 30
0.0
  0
ELLIPSE
  5
20F
330
1F
100
AcDbEntity
  8
0
  6
Continuous
 62
     7
370
    15
100
AcDbEllipse
 10
43.7319370956
 20
116.3639748232
 30
0.0
 11
-1.614316171349259
 21
1.765473475606072
 31
0.0
210
0.0
220
0.0
230
1.0
 40
0.8157680509
 41
5.15153450768587
 42
9.307956526428148
  0
ARC
  5
210
330
1F
100
AcDbEntity
  8
0
  6
Continuous
 62
     7
370
    15
100
AcDbCircle
 10
52.6775699195
 20
124.4182378739
 30
0.0
 40
16.00000000000001
100
AcDbArc
 50
138.0555924159
 51
245.9444075841
  0
CIRCLE
  5
211
330
1F
100
AcDbEntity
  8
0
  6
Continuous
 62
     7
370
    15
100
AcDbCircle
 10
52.6775699195
 20
124.4182378739
 30
0.0
 40
25.0
  0
LWPOLYLINE
  5
212
330
1F
100
AcDbEntity
  8
0
  6
Continuous
 62
     7
370
    15
100
AcDbPolyline
 90
       30
 70
   128
 43
0.0
 10
45.7522708312
 20
129.0365795235
 10
45.8707256022
 20
128.8444847188
 10
46.0142052745
 20
128.5031498994
 10
46.1760008983
 20
128.0285355021
 10
46.3485470898
 20
127.4428339687
 10
46.5237757811
 20
126.7734320518
 10
46.6934934731
 20
126.051630241
 10
46.8497643554
 20
125.311179187
 10
46.985281375
 20
124.5867015579
 10
47.0937079069
 20
123.9120731225
 10
47.1699740468
 20
123.3188387567
 10
47.2105136748
 20
122.8347374401
 10
47.213431203
 20
122.4824052122
 10
47.178590211
 20
122.2783167363
 10
47.1076198248
 20
122.2320149629
 10
47.0038385409
 20
122.3456649113
 10
46.8720990567
 20
122.6139524363
 10
46.7185613641
 20
123.0243327114
 10
46.550404715
 20
123.557616811
 10
46.3754919274
 20
124.1888689634
 10
46.2020017287
 20
124.8885725194
 10
46.038046328
 20
125.6240101185
 10
45.8912920974
 20
126.3607935159
 10
45.7686011018
 20
127.0644715389
 10
45.6757102357
 20
127.7021409851
 10
45.6169629728
 20
128.2439851399
 10
45.5951062698
 20
128.664667973
 10
45.6111621218
 20
128.9445188226
 10
45.664379775
 20
129.0704521739
 10
45.7522708312
 20
129.0365795235
  0
LWPOLYLINE
  5
213
330
1F
100
AcDbEntity
  8
0
  6
Continuous
 62
     7
370
    15
100
AcDbPolyline
 90
       23
 70
   128
 43
0.0
 10
46.0324044126
 20
127.5863847745
 10
46.124799807
 20
127.4234478575
 10
46.2399695517
 20
127.1170629152
 10
46.368583279
 20
126.6920514336
 10
46.5002214695
 20
126.1828453152
 10
46.6242195799
 20
125.6306974114
 10
46.7305320208
 20
125.0803394616
 10
46.8105459905
 20
124.5763581939
 10
46.857779233
 20
124.1595831731
 10
46.8684051919
 20
123.8637790329
 10
46.8415630153
 20
123.7129100655
 10
46.7794272965
 20
123.7191987773
 10
46.6870319021
 20
123.8821356944
 10
46.5718621574
 20
124.1885206366
 10
46.4432484302
 20
124.6135321183
 10
46.3116102397
 20
125.1227382367
 10
46.1876121293
 20
125.6748861404
 10
46.0812996883
 20
126.2252440902
 10
46.0012857187
 20
126.729225358
 10
45.9540524762
 20
127.1460003787
 10
45.9434265172
 20
127.4418045189
 10
45.9702686939
 20
127.5926734864
 10
46.0324044126
 20
127.5863847745
  0
LINE
  5
214
330
1F
100
AcDbEntity
  8
0
  6
Continuous
 62
     7
370
    15
100
AcDbLine
 10
46.500471119
 20
126.1727330783
 30
0.0
 11
46.4290652314
 21
125.9682900037
 31
0.0
  0
LINE
  5
215
330
1F
100
AcDbEntity
  8
0
  6
Continuous
 62
     7
370
    15
100
AcDbLine
 10
46.8345560449
 20
124.389451919
 30
0.0
 11
46.8279531655
 21
124.3880484337
 31
0.0
  0
LINE
  5
216
330
1F
100
AcDbEntity
  8
0
  6
Continuous
 62
     7
370
    15
100
AcDbLine
 10
46.5448699574
 20
125.992905058
 30
0.0
 11
46.4290652314
 21
125.9682900037
 31
0.0
  0
ARC
  5
217
330
1F
100
AcDbEntity
  8
0
  6
Continuous
 62
     7
370
    15
100
AcDbCircle
 10
57.6799328751
 20
104.7762637109
 30
0.0
 40
3.766266321328274
100
AcDbArc
 50
357.6620333144
 51
17.5127032143
  0
LINE
  5
218
330
1F
100
AcDbEntity
  8
0
  6
Continuous
 62
     7
370
    15
100
AcDbLine
 10
55.2833848278
 20
118.0604620227
 30
0.0
 11
55.2783454989
 21
118.0695119451
 31
0.0
  0
LINE
  5
219
330
1F
100
AcDbEntity
  8
0
  6
Continuous
 62
     7
370
    15
100
AcDbLine
 10
58.4700008074
 20
105.3140927315
 30
0.0
 11
55.4813254746
 21
117.4407272244
 31
0.0
  0
LINE
  5
21A
330
1F
100
AcDbEntity
  8
0
  6
Continuous
 62
     7
370
    15
100
AcDbLine
 10
61.2716337202
 20
105.9095981905
 30
0.0
 11
58.2829583874
 21
118.0362326834
 31
0.0
  0
ARC
  5
21B
330
1F
100
AcDbEntity
  8
0
  6
Continuous
 62
     7
370
    15
100
AcDbCircle
 10
59.3524199636
 20
105.110941794
 30
0.0
 40
2.330311635042967
100
AcDbArc
 50
356.8647685607
 51
19.243697769
  0
LINE
  5
21C
330
1F
100
AcDbEntity
  8
0
  6
Continuous
 62
     7
370
    15
100
AcDbLine
 10
58.5638507531
 20
118.0056162382
 30
0.0
 11
61.5525260859
 21
105.8789817453
 31
0.0
  0
ARC
  5
21D
330
1F
100
AcDbEntity
  8
0
  6
Continuous
 62
     7
370
    15
100
AcDbCircle
 10
55.1028923435
 20
117.3620112733
 30
0.0
 40
3.250752920996158
100
AcDbArc
 50
11.9703038025
 51
23.4562159094
  0
ARC
  5
21E
330
1F
100
AcDbEntity
  8
0
  6
Continuous
 62
     7
370
    15
100
AcDbCircle
 10
56.4197086772
 20
117.556467247
 30
0.0
 40
2.190680272921457
100
AcDbArc
 50
11.8310899438
 51
23.9504334544
  0
LINE
  5
21F
330
1F
100
AcDbEntity
  8
0
  6
Continuous
 62
     7
370
    15
100
AcDbLine
 10
58.2770684832
 20
118.6967891272
 30
0.0
 11
58.4217647702
 21
118.4457655427
 31
0.0
  0
LINE
  5
220
330
1F
100
AcDbEntity
  8
0
  6
Continuous
 62
     7
370
    15
100
AcDbLine
 10
46.8628529798
 20
120.2311914955
 30
0.0
 11
50.1867068546
 21
106.7445606109
 31
0.0
  0
LWPOLYLINE
  5
221
330
1F
100
AcDbEntity
  8
0
  6
Continuous
 62
     7
370
    15
100
AcDbPolyline
 90
        9
 70
   128
 43
0.0
 10
46.8108460455
 20
120.7297674207
 10
46.7959488906
 20
120.7460214522
 10
46.7870751284
 20
120.7333546861
 10
46.7848806162
 20
120.6927033198
 10
46.7895275499
 20
120.6270718845
 10
46.8006724758
 20
120.5413111816
 10
46.8174916755
 20
120.4417597614
 10
46.8387420465
 20
120.335775442
 10
46.8628529798
 20
120.2311914955
  0
LINE
  5
222
330
1F
100
AcDbEntity
  8
0
  6
Continuous
 62
     7
370
    15
100
AcDbLine
 10
49.1514580131
 20
116.6692015386
 30
0.0
 11
46.8108460455
 21
120.7297674207
 31
0.0
  0
ARC
  5
223
330
1F
100
AcDbEntity
  8
0
  6
Continuous
 62
     7
370
    15
100
AcDbCircle
 10
48.00742596
 20
116.1610310839
 30
0.0
 40
1.251817298811565
100
AcDbArc
 50
11.8310899438
 51
23.9504334544
  0
LINE
  5
224
330
1F
100
AcDbEntity
  8
0
  6
Continuous
 62
     7
370
    15
100
AcDbLine
 10
52.5565038782
 20
102.9310567657
 30
0.0
 11
49.2326500034
 21
116.4176876503
 31
0.0
  0
LWPOLYLINE
  5
225
330
1F
100
AcDbEntity
  8
0
  6
Continuous
 62
     7
370
    15
100
AcDbPolyline
 90
        9
 70
   128
 43
0.0
 10
52.6085108125
 20
102.4324808405
 10
52.6234079674
 20
102.416226809
 10
52.6322817296
 20
102.428893575
 10
52.6344762417
 20
102.4695449414
 10
52.6298293081
 20
102.5351763767
 10
52.6186843822
 20
102.6209370796
 10
52.6018651825
 20
102.7204884998
 10
52.5806148114
 20
102.8264728192
 10
52.5565038782
 20
102.9310567657
  0
LINE
  5
226
330
1F
100
AcDbEntity
  8
0
  6
Continuous
 62
     7
370
    15
100
AcDbLine
 10
50.2678988449
 20
106.4930467226
 30
0.0
 11
52.6085108125
 21
102.4324808405
 31
0.0
  0
ARC
  5
227
330
1F
100
AcDbEntity
  8
0
  6
Continuous
 62
     7
370
    15
100
AcDbCircle
 10
51.411930898
 20
107.0012171773
 30
0.0
 40
1.251817298813122
100
AcDbArc
 50
191.8310899438
 51
203.9504334544
  0
LWPOLYLINE
  5
228
330
1F
100
AcDbEntity
  8
0
  6
Continuous
 62
     7
370
    15
100
AcDbPolyline
 90
        9
 70
   128
 43
0.0
 10
52.6051808392
 20
102.4512330858
 10
52.6193331363
 20
102.4357917559
 10
52.6277632104
 20
102.4478251836
 10
52.629847997
 20
102.4864439817
 10
52.62543341
 20
102.5487938452
 10
52.6148457304
 20
102.6302665129
 10
52.5988674907
 20
102.7248403621
 10
52.5786796382
 20
102.8255254656
 10
52.5557742516
 20
102.9248802148
  0
LINE
  5
229
330
1F
100
AcDbEntity
  8
0
  6
Continuous
 62
     7
370
    15
100
AcDbLine
 10
52.5557742516
 20
102.9248802148
 30
0.0
 11
49.231920377
 21
116.4115110993
 31
0.0
  0
ARC
  5
22A
330
1F
100
AcDbEntity
  8
0
  6
Continuous
 62
     7
370
    15
100
AcDbCircle
 10
48.0679575443
 20
116.1676873634
 30
0.0
 40
1.189226425068389
100
AcDbArc
 50
11.8310899261
 51
23.9504335316
  0
LINE
  5
22B
330
1F
100
AcDbEntity
  8
0
  6
Continuous
 62
     7
370
    15
100
AcDbLine
 10
49.154787986
 20
116.6504492932
 30
0.0
 11
46.8141760185
 21
120.7110151753
 31
0.0
  0
LWPOLYLINE
  5
22C
330
1F
100
AcDbEntity
  8
0
  6
Continuous
 62
     7
370
    15
100
AcDbPolyline
 90
        9
 70
   128
 43
0.0
 10
46.8141760185
 20
120.7110151753
 10
46.8000237213
 20
120.7264565052
 10
46.7915936472
 20
120.7144230775
 10
46.7895088607
 20
120.6758042794
 10
46.7939234476
 20
120.6134544159
 10
46.8045111272
 20
120.5319817482
 10
46.8204893669
 20
120.437407899
 10
46.8406772194
 20
120.3367227955
 10
46.8635826061
 20
120.2373680464
  0
LINE
  5
22D
330
1F
100
AcDbEntity
  8
0
  6
Continuous
 62
     7
370
    15
100
AcDbLine
 10
46.8635826061
 20
120.2373680464
 30
0.0
 11
50.1874364808
 21
106.7507371618
 31
0.0
  0
ARC
  5
22E
330
1F
100
AcDbEntity
  8
0
  6
Continuous
 62
     7
370
    15
100
AcDbCircle
 10
51.3513993221
 20
106.9945608998
 30
0.0
 40
1.189226433870656
100
AcDbArc
 50
191.8310899438
 51
203.9504334544
  0
LINE
  5
22F
330
1F
100
AcDbEntity
  8
0
  6
Continuous
 62
     7
370
    15
100
AcDbLine
 10
50.2645688716
 20
106.5117989679
 30
0.0
 11
52.6051808392
 21
102.4512330858
 31
0.0
  0
LINE
  5
230
330
1F
100
AcDbEntity
  8
0
  6
Continuous
 62
     7
370
    15
100
AcDbLine
 10
58.7337153352
 20
104.2440635937
 30
0.0
 11
55.4098614604
 21
117.7306944783
 31
0.0
  0
ARC
  5
231
330
1F
100
AcDbEntity
  8
0
  6
Continuous
 62
     7
370
    15
100
AcDbCircle
 10
57.2970349972
 20
103.7907298019
 30
0.0
 40
1.506506528531699
100
AcDbArc
 50
357.6620333144
 51
17.5127032143
  0
LINE
  5
232
330
1F
100
AcDbEntity
  8
0
  6
Continuous
 62
     7
370
    15
100
AcDbLine
 10
52.6285289262
 20
102.5136885785
 30
0.0
 11
52.6051808392
 21
102.4512330858
 31
0.0
  0
LINE
  5
233
330
1F
100
AcDbEntity
  8
0
  6
Continuous
 62
     7
370
    15
100
AcDbLine
 10
50.4147226242
 20
106.9134561398
 30
0.0
 11
50.2645688716
 21
106.5117989679
 31
0.0
  0
LINE
  5
234
330
1F
100
AcDbEntity
  8
0
  6
Continuous
 62
     7
370
    15
100
AcDbLine
 10
50.5893900609
 20
107.2458196637
 30
0.0
 11
50.4147226242
 21
106.9134561398
 31
0.0
  0
LINE
  5
235
330
1F
100
AcDbEntity
  8
0
  6
Continuous
 62
     7
370
    15
100
AcDbLine
 10
51.3312581736
 20
106.9796856907
 30
0.0
 11
49.4710172655
 21
114.5276656648
 31
0.0
  0
LINE
  5
236
330
1F
100
AcDbEntity
  8
0
  6
Continuous
 62
     7
370
    15
100
AcDbLine
 10
48.0880986841
 20
116.1825625704
 30
0.0
 11
49.9483395922
 21
108.6345825963
 31
0.0
  0
LWPOLYLINE
  5
237
330
1F
100
AcDbEntity
  8
0
  6
Continuous
 62
     7
370
    15
100
AcDbPolyline
 90
        9
 70
   128
 43
0.0
 10
47.9580813483
 20
117.4290023834
 10
47.920838461
 20
117.4696374622
 10
47.8986540555
 20
117.4379705471
 10
47.8931677751
 20
117.3363421311
 10
47.9047851093
 20
117.1722635428
 10
47.932647424
 20
116.9578617858
 10
47.9746954233
 20
116.7089832351
 10
48.0278213509
 20
116.4440224366
 10
48.0880986841
 20
116.1825625704
  0
LINE
  5
238
330
1F
100
AcDbEntity
  8
0
  6
Continuous
 62
     7
370
    15
100
AcDbLine
 10
49.2680372898
 20
115.1564503856
 30
0.0
 11
47.9580813483
 21
117.4290023834
 31
0.0
  0
ARC
  5
239
330
1F
100
AcDbEntity
  8
0
  6
Continuous
 62
     7
370
    15
100
AcDbCircle
 10
46.407957157
 20
113.8860242489
 30
0.0
 40
3.129543247030479
100
AcDbArc
 50
11.8310899438
 51
23.9504334544
  0
LWPOLYLINE
  5
23A
330
1F
100
AcDbEntity
  8
0
  6
Continuous
 62
     7
370
    15
100
AcDbPolyline
 90
        9
 70
   128
 43
0.0
 10
51.4612755096
 20
105.7332458774
 10
51.4985183968
 20
105.6926107987
 10
51.5207028023
 20
105.7242777138
 10
51.5261890827
 20
105.8259061297
 10
51.5145717485
 20
105.9899847181
 10
51.4867094337
 20
106.2043864752
 10
51.4446614344
 20
106.4532650259
 10
51.3915355068
 20
106.7182258245
 10
51.3312581736
 20
106.9796856907
  0
LINE
  5
23B
330
1F
100
AcDbEntity
  8
0
  6
Continuous
 62
     7
370
    15
100
AcDbLine
 10
50.1513195679
 20
108.0057978755
 30
0.0
 11
51.4612755096
 21
105.7332458774
 31
0.0
  0
ARC
  5
23C
330
1F
100
AcDbEntity
  8
0
  6
Continuous
 62
     7
370
    15
100
AcDbCircle
 10
53.0113997007
 20
109.2762240122
 30
0.0
 40
3.129543247030927
100
AcDbArc
 50
191.8310899438
 51
203.9504334544
  0
LWPOLYLINE
  5
23D
330
1F
100
AcDbEntity
  8
0
  6
Continuous
 62
     7
370
    15
100
AcDbPolyline
 90
       26
 70
   128
 43
0.0
 10
50.1392449608
 20
109.1620844819
 10
50.2291265492
 20
109.0587410848
 10
50.2863693017
 20
109.1138882911
 10
50.3073764458
 20
109.3240609991
 10
50.2908280253
 20
109.6760532845
 10
50.2377638384
 20
110.1477481775
 10
50.151518103
 20
110.7095073533
 10
50.0375099559
 20
111.3260334167
 10
49.9029029483
 20
111.9585877679
 10
49.7561549336
 20
112.5674246905
 10
49.6064866291
 20
113.1142887216
 10
49.4633022449
 20
113.5648183828
 10
49.3355985825
 20
113.8907052387
 10
49.2313997326
 20
114.0714726195
 10
49.1572528922
 20
114.0957622459
 10
49.1178169799
 20
113.9620479113
 10
49.1155698992
 20
113.6787313791
 10
49.1506528424
 20
113.263614469
 10
49.2208614192
 20
112.7427805033
 10
49.3217841664
 20
112.1489553953
 10
49.4470797368
 20
111.5194513607
 10
49.5888753487
 20
110.893822453
 10
49.7382614624
 20
110.3113792374
 10
49.8858515991
 20
109.8087187633
 10
50.0223721275
 20
109.4174250368
 10
50.1392449608
 20
109.1620844819
  0
ARC
  5
23E
330
1F
100
AcDbEntity
  8
0
  6
Continuous
 62
     7
370
    15
100
AcDbCircle
 10
54.184637417
 20
117.474037912
 30
0.0
 40
1.251817298811784
100
AcDbArc
 50
11.8310899438
 51
23.9504334544
  0
LINE
  5
23F
330
1F
100
AcDbEntity
  8
0
  6
Continuous
 62
     7
370
    15
100
AcDbLine
 10
55.3286694701
 20
117.9822083666
 30
0.0
 11
55.2835427518
 21
118.0604955904
 31
0.0
  0
LINE
  5
240
330
1F
100
AcDbEntity
  8
0
  6
Continuous
 62
     7
370
    15
100
AcDbLine
 10
50.4147226242
 20
106.9134561398
 30
0.0
 11
50.1874364808
 21
106.7507371618
 31
0.0
  0
LINE
  5
241
330
1F
100
AcDbEntity
  8
0
  6
Continuous
 62
     7
370
    15
100
AcDbLine
 10
47.0218748523
 20
120.3506928279
 30
0.0
 11
46.8635826061
 21
120.2373680464
 31
0.0
  0
ELLIPSE
  5
242
330
1F
100
AcDbEntity
  8
0
  6
Continuous
 62
     7
370
    15
100
AcDbEllipse
 10
49.6115872907
 20
112.2948356928
 30
0.0
 11
-0.4894004466115689
 21
2.301304685160517
 31
0.0
210
0.0
220
0.0
230
1.0
 40
0.10442579
 41
3.527296312073375
 42
4.189612220809448
  0
ELLIPSE
  5
243
330
1F
100
AcDbEntity
  8
0
  6
Continuous
 62
     7
370
    15
100
AcDbEllipse
 10
49.6115872907
 20
112.2948356928
 30
0.0
 11
-0.4894004466115689
 21
2.301304685160517
 31
0.0
210
0.0
220
0.0
230
1.0
 40
0.10442579
 41
1.810254043209363
 42
3.52729631207339
  0
LINE
  5
244
330
1F
100
AcDbEntity
  8
VERMASSUNG
100
AcDbLine
 10
52.6775699195
 20
102.5739964281
 30
0.0
 11
42.2546359585
 21
151.61004537
 31
0.0
  0
CIRCLE
  5
245
330
1F
100
AcDbEntity
  8
VERMASSUNG
  6
CENTERX2
100
AcDbCircle
 10
52.6775699195
 20
122.5739964281
 30
0.0
 40
20.0
  0
DIMENSION
  5
246
330
1F
100
AcDbEntity
  8
VERMASSUNG
100
AcDbDimension
  2
_D_6
 10
40.4140973515
 20
106.7750331528
 30
0.0
 11
32.8352926814
 21
97.0113013886
 31
0.0
 70
   160
  1
%%c<> min. 
 71
     2
 42
-1.0
  3
SLDDIMSTYLE2
100
AcDbAlignedDimension
 13
64.9410424876
 23
138.3729597033
 33
0.0
 14
40.4140973515
 24
106.7750331528
 34
0.0
 50
52.1806675815
100
AcDbRotatedDimension
  0
DIMENSION
  5
255
330
1F
100
AcDbEntity
  8
VERMASSUNG
100
AcDbDimension
  2
_D_7
 10
42.2546359585
 20
151.61004537
 30
0.0
 11
47.0048153852
 21
156.5466505274
 31
0.0
 70
   162
  1
<>
 71
     1
 42
-1.0
  3
SLDDIMSTYLE3
100
AcDb2LineAngularDimension
 13
52.6775699195
 23
151.9182378739
 33
0.0
 14
52.6775699195
 24
96.9182378739
 34
0.0
 15
52.6775699195
 25
102.5739964281
 35
0.0
 16
47.0048153852
 26
156.5466505274
 36
0.0
  0
INSERT
  5
26B
330
1F
100
AcDbEntity
  8
VERMASSUNG
100
AcDbBlockReference
  2
SW_CENTERMARKSYMBOL_0
 10
52.6775699195
 20
124.4182378739
 30
0.0
  0
OLE2FRAME
  5
26C
330
1F
100
AcDbEntity
  8
0
100
AcDbOle2Frame
 70
     2
  3
Paintbrush-Bild
 10
13.8511154363
 20
38.264191557
 30
0.0
 11
51.6290888628
 21
31.9806341108
 31
0.0
 71
     2
 72
     0
 73
     1
 90
    12928
310
80552BED0767C5B32B40DDAF6807D121434000000000000000006FFBDDFB85D0
310
4940DDAF6807D121434000000000000000006FFBDDFB85D04940416F4BD60AFB
310
3F4000000000000000002BED0767C5B32B40416F4BD60AFB3F40000000000000
310
0000000000000100000000010000010000000100000000000100000000320000
310
D0CF11E0A1B11AE1000000000000000000000000000000003E000300FEFF0900
310
0600000000000000000000000100000001000000000000000010000002000000
310
01000000FEFFFFFF0000000000000000FFFFFFFFFFFFFFFFFFFFFFFFFFFFFFFF
310
FFFFFFFFFFFFFFFFFFFFFFFFFFFFFFFFFFFFFFFFFFFFFFFFFFFFFFFFFFFFFFFF
310
FFFFFFFFFFFFFFFFFFFFFFFFFFFFFFFFFFFFFFFFFFFFFFFFFFFFFFFFFFFFFFFF
310
FFFFFFFFFFFFFFFFFFFFFFFFFFFFFFFFFFFFFFFFFFFFFFFFFFFFFFFFFFFFFFFF
310
FFFFFFFFFFFFFFFFFFFFFFFFFFFFFFFFFFFFFFFFFFFFFFFFFFFFFFFFFFFFFFFF
310
FFFFFFFFFFFFFFFFFFFFFFFFFFFFFFFFFFFFFFFFFFFFFFFFFFFFFFFFFFFFFFFF
310
FFFFFFFFFFFFFFFFFFFFFFFFFFFFFFFFFFFFFFFFFFFFFFFFFFFFFFFFFFFFFFFF
310
FFFFFFFFFFFFFFFFFFFFFFFFFFFFFFFFFFFFFFFFFFFFFFFFFFFFFFFFFFFFFFFF
310
FFFFFFFFFFFFFFFFFFFFFFFFFFFFFFFFFFFFFFFFFFFFFFFFFFFFFFFFFFFFFFFF
310
FFFFFFFFFFFFFFFFFFFFFFFFFFFFFFFFFFFFFFFFFFFFFFFFFFFFFFFFFFFFFFFF
310
FFFFFFFFFFFFFFFFFFFFFFFFFFFFFFFFFFFFFFFFFFFFFFFFFFFFFFFFFFFFFFFF
310
FFFFFFFFFFFFFFFFFFFFFFFFFFFFFFFFFFFFFFFFFFFFFFFFFFFFFFFFFFFFFFFF
310
FFFFFFFFFFFFFFFFFFFFFFFFFFFFFFFFFFFFFFFFFFFFFFFFFFFFFFFFFFFFFFFF
310
FFFFFFFFFFFFFFFFFFFFFFFFFFFFFFFFFFFFFFFFFFFFFFFFFFFFFFFFFFFFFFFF
310
FDFFFFFFFEFFFFFFFEFFFFFFFEFFFFFF05000000060000000700000008000000
310
090000000A0000000B0000000C0000000D0000000E0000000F00000010000000
310
11000000120000001300000014000000150000001600000017000000FEFFFFFF
310
FFFFFFFFFFFFFFFFFFFFFFFFFFFFFFFFFFFFFFFFFFFFFFFFFFFFFFFFFFFFFFFF
310
FFFFFFFFFFFFFFFFFFFFFFFFFFFFFFFFFFFFFFFFFFFFFFFFFFFFFFFFFFFFFFFF
310
FFFFFFFFFFFFFFFFFFFFFFFFFFFFFFFFFFFFFFFFFFFFFFFFFFFFFFFFFFFFFFFF
310
FFFFFFFFFFFFFFFFFFFFFFFFFFFFFFFFFFFFFFFFFFFFFFFFFFFFFFFFFFFFFFFF
310
FFFFFFFFFFFFFFFFFFFFFFFFFFFFFFFFFFFFFFFFFFFFFFFFFFFFFFFFFFFFFFFF
310
FFFFFFFFFFFFFFFFFFFFFFFFFFFFFFFFFFFFFFFFFFFFFFFFFFFFFFFFFFFFFFFF
310
FFFFFFFFFFFFFFFFFFFFFFFFFFFFFFFFFFFFFFFFFFFFFFFFFFFFFFFFFFFFFFFF
310
FFFFFFFFFFFFFFFFFFFFFFFFFFFFFFFFFFFFFFFFFFFFFFFFFFFFFFFFFFFFFFFF
310
FFFFFFFFFFFFFFFFFFFFFFFFFFFFFFFFFFFFFFFFFFFFFFFFFFFFFFFFFFFFFFFF
310
FFFFFFFFFFFFFFFFFFFFFFFFFFFFFFFFFFFFFFFFFFFFFFFFFFFFFFFFFFFFFFFF
310
FFFFFFFFFFFFFFFFFFFFFFFFFFFFFFFFFFFFFFFFFFFFFFFFFFFFFFFFFFFFFFFF
310
FFFFFFFFFFFFFFFFFFFFFFFFFFFFFFFFFFFFFFFFFFFFFFFFFFFFFFFFFFFFFFFF
310
FFFFFFFFFFFFFFFFFFFFFFFFFFFFFFFFFFFFFFFFFFFFFFFFFFFFFFFFFFFFFFFF
310
52006F006F007400200045006E00740072007900000000000000000000000000
310
0000000000000000000000000000000000000000000000000000000000000000
310
16000500FFFFFFFFFFFFFFFF020000000A00030000000000C000000000000046
310
000000000000000000000000E0C7208D6D45CD0103000000C000000000000000
310
01004F006C006500000000000000000000000000000000000000000000000000
310
0000000000000000000000000000000000000000000000000000000000000000
310
0A000200FFFFFFFFFFFFFFFFFFFFFFFF00000000000000000000000000000000
310
0000000000000000000000000000000000000000000000001400000000000000
310
010043006F006D0070004F0062006A0000000000000000000000000000000000
310
0000000000000000000000000000000000000000000000000000000000000000
310
120002010100000003000000FFFFFFFF00000000000000000000000000000000
310
0000000000000000000000000000000000000000010000004D00000000000000
310
01004F006C006500310030004E00610074006900760065000000000000000000
310
0000000000000000000000000000000000000000000000000000000000000000
310
1A000200FFFFFFFFFFFFFFFFFFFFFFFF00000000000000000000000000000000
310
0000000000000000000000000000000000000000040000002426000000000000
310
FEFFFFFF02000000FEFFFFFFFFFFFFFFFFFFFFFFFFFFFFFFFFFFFFFFFFFFFFFF
310
FFFFFFFFFFFFFFFFFFFFFFFFFFFFFFFFFFFFFFFFFFFFFFFFFFFFFFFFFFFFFFFF
310
FFFFFFFFFFFFFFFFFFFFFFFFFFFFFFFFFFFFFFFFFFFFFFFFFFFFFFFFFFFFFFFF
310
FFFFFFFFFFFFFFFFFFFFFFFFFFFFFFFFFFFFFFFFFFFFFFFFFFFFFFFFFFFFFFFF
310
FFFFFFFFFFFFFFFFFFFFFFFFFFFFFFFFFFFFFFFFFFFFFFFFFFFFFFFFFFFFFFFF
310
FFFFFFFFFFFFFFFFFFFFFFFFFFFFFFFFFFFFFFFFFFFFFFFFFFFFFFFFFFFFFFFF
310
FFFFFFFFFFFFFFFFFFFFFFFFFFFFFFFFFFFFFFFFFFFFFFFFFFFFFFFFFFFFFFFF
310
FFFFFFFFFFFFFFFFFFFFFFFFFFFFFFFFFFFFFFFFFFFFFFFFFFFFFFFFFFFFFFFF
310
FFFFFFFFFFFFFFFFFFFFFFFFFFFFFFFFFFFFFFFFFFFFFFFFFFFFFFFFFFFFFFFF
310
FFFFFFFFFFFFFFFFFFFFFFFFFFFFFFFFFFFFFFFFFFFFFFFFFFFFFFFFFFFFFFFF
310
FFFFFFFFFFFFFFFFFFFFFFFFFFFFFFFFFFFFFFFFFFFFFFFFFFFFFFFFFFFFFFFF
310
FFFFFFFFFFFFFFFFFFFFFFFFFFFFFFFFFFFFFFFFFFFFFFFFFFFFFFFFFFFFFFFF
310
FFFFFFFFFFFFFFFFFFFFFFFFFFFFFFFFFFFFFFFFFFFFFFFFFFFFFFFFFFFFFFFF
310
FFFFFFFFFFFFFFFFFFFFFFFFFFFFFFFFFFFFFFFFFFFFFFFFFFFFFFFFFFFFFFFF
310
FFFFFFFFFFFFFFFFFFFFFFFFFFFFFFFFFFFFFFFFFFFFFFFFFFFFFFFFFFFFFFFF
310
FFFFFFFFFFFFFFFFFFFFFFFFFFFFFFFFFFFFFFFFFFFFFFFFFFFFFFFFFFFFFFFF
310
0100000200000000000000000000000000000000000000000000000000000000
310
0000000000000000000000000000000000000000000000000000000000000000
310
0100FEFF030A0000FFFFFFFF0A00030000000000C00000000000004607000000
310
5042727573680007000000504272757368000700000050427275736800F439B2
310
7100000000000000000000000000000000000000000000000000000000000000
310
0000000000000000000000000000000000000000000000000000000000000000
310
0000000000000000000000000000000000000000000000000000000000000000
310
0000000000000000000000000000000000000000000000000000000000000000
310
0000000000000000000000000000000000000000000000000000000000000000
310
0000000000000000000000000000000000000000000000000000000000000000
310
0000000000000000000000000000000000000000000000000000000000000000
310
0000000000000000000000000000000000000000000000000000000000000000
310
0000000000000000000000000000000000000000000000000000000000000000
310
0000000000000000000000000000000000000000000000000000000000000000
310
0000000000000000000000000000000000000000000000000000000000000000
310
0000000000000000000000000000000000000000000000000000000000000000
310
20260000424D0E260000000000003E00000028000000B40200006E0000000100
310
01000000000000000000130B0000130B00000200000002000000000000FFFFFF
310
FFFFFFFFFFFFFFFFFFFFFFFFFFFFFFFFFFFFFFFFFFFFFFFFFFFFFFFFFFFFFFFF
310
FFFFFFFFFFFFFFFFFFFFFFFFFFFFFFFFFFFFFFFFFFFFFFFFFFFFFFFFFFFFFFFF
310
FFFFFFFFFFFFFFFFFFFFFFFFFFFFFFFFFFFFFFFFFFFFFFFFF000FFFFFFFFFFFF
310
FFFFFFFFFFFFFFFFFFFFFFFFFFFFFFFFFFFFFFFFFFFFFFFFFFFFFFFFFFFFFFFF
310
FFFFFFFFFFFFFFFFFFFFFFFFFFFFFFFFFFFFFFFFFFFFFFFFFFFFFFFFFFFFFFFF
310
FFFFFFFFFFFFFFFFFFFFFFFFFFFFFFFFF000FFFFFFFFFFFFFFFFFFFFFFFFFFFF
310
FFFFFFFFFFFFFFFFFFFFFFFFFFFFFFFFFFFFFFFFFFFFFFFFFFFFFFFFFFFFFFFF
310
FFFFFFFFFFFFFFFFFFFFFFFFFFFFFFFFFFFFFFFFFFFFFFFFFFFFFFFFFFFFFFFF
310
FFFFFFFFFFFFFFFFF000FFFFFFFFFFFFFFFFFFFFFFFFFFFFFFFFFFFFFFFFFFFF
310
FFFFFFFFFFFFFFFFFFFFFFFFFFFFFFFFFFFFFFFFFFFFFFFFFFFFFFFFFFFFFFFF
310
FFFFFFFFFFFFFFFFFFFFFFFFFFFFFFFFFFFFFFFFFFFFFFFFFFFFFFFFFFFFFFFF
310
F000FFFFFFFFFFFFFFFFFFFFFFFFFFFFFFFFFFFFFFFFFFFFFFFFFFFFFFFFFFFF
310
FFFFFFFFFFFFFFFFFFFFFFFFFFFFFFFFFFFFFFFFFFFFFFFFFFFFFFFFFFFFFFFF
310
FFFFFFFFFFFFFFFFFFFFFFFFFFFFFFFFFFFFFFFFFFFFFFFFF000FFFFFFFFFFFF
310
FFFFFFFFFFFFFFFFFFFFFFFFFFFFFFFFFFFFFFFFFFFFFFFFFFFFFFFFFFFFFFFF
310
FFFFFFFFFFFFFFFFFFFFFFFFFFFFFFFFFFFFFFFFFFFFFFFFFFFFFFFFFFFFFFFF
310
FFFFFFFFFFFFFFFFFFFFFFFFFFFFFFFFF000FFFFFFFFFFFFFFFFFFFFFFFFFFFF
310
FFFFFFFFFFFFFFFFFFFFFFFFFFFFFFFFFFFFFFFFFFFFFFFFFFFFFFFFFFFFFFFF
310
FFFFFFFFFFFFFFFFFFFFFFFFFFFFFFFFFFFFFFFFFFFFFFFFFFFFFFFFFFFFFFFF
310
FFFFFFFFFFFFFFFFF000FFFFFFFFFFFFFFFFFFFFFFFFFFFFFFFFFFFFFFFFFFFF
310
FFFFFFFFFFFFFFFFFFFFFFFFFFFFFFFFFFFFFFFFFFFFFFFFFFFFFFFFFFFFFFFF
310
FFFFFFFFFFFFFFFFFFFFFFFFFFFFFFFFFFFFFFFFFFFFFFFFFFFFFFFFFFFFFFFF
310
F000FFFFFFFFFFFFFFFFFFFFFFFFFFFFFFFFFFFFFFFFFFFFFFFFFFFFFFFFFFFF
310
FFFFFFFFFFFFFFFFFFFFFFFFFFFFFFFFFFFFFFFFFFFFFFFFFFFFFFFFFFFFFFFF
310
FFFFFFFFFFFFFFFFFFFFFFFFFFFFFFFFFFFFFFFFFFFFFFFFF000FFFFFFFFFFFF
310
FFFFFFFFFFFFFFFFFFFFFFFFFFFFFFFFFFFFFFFFFFFFFFFFFFFFFFFFFFFFFFFF
310
FFFFFFFFFFFFFFFFFFFFFFFFFFFFFFFFFFFFFFFFFFFFFFFFFFFFFFFFFFFFFFFF
310
FFFFFFFFFFFFFFFFFFFFFFFFFFFFFFFFF000FFFFFFFFFFFFFFFFFFFFFFFFFFFF
310
FFFFFFFFFFFFFFFFFFFFFFFFFFFFFFFFFFFFFFFFFFFFFFFFFFFFFFFFFFFFFFFF
310
FFFFFFFFFFFFFFFFFFFFFFFFFFFFFFFFFFFFFFFFFFFFFFFFFFFFFFFFFFFFFFFF
310
FFFFFFFFFFFFFFFFF000FFFFFFFFFFFFFFFFFFFFFFFFFFFFFFFFFFFFFFFFFFFF
310
FFFFFFFFFFFFFFFFFFFFFFFFFFFFFFFFFFFFFFFFFFFFFFFFFFFFFFFFFFFFFFFF
310
FFFFFFFFFFFFFFFFFFFFFFFFFFFFFFFFFFFFFFFFFFFFFFFFFFFFFFFFFFFFFFFF
310
F000FFFFFFFFFFFFFFFFFFFFFFFFFFFFFFFFFFFFFFFFFFFFFFFFFFFFFFFFFFFF
310
FFFFFFFFFFFFFFFFFFFFFFFFFFFFFFFFFFFFFFFFFFFFFFFFFFFFFFFFFFFFFFFF
310
FFFFFFFFFFFFFFFFFFFFFFFFFFFFFFFFFFFFFFFFFFFFFFFFF000FFFFFFFFFFFF
310
FFFFFFFFFFFFFFFFFFFFFFFFFFFFFFFFFFFFFFFFFFFFFFFFFFFFFFFFFFFFFFFF
310
FFFFFFFFFFFFFFFFFFFFFFFFFFFFFFFFFFFFFFFFFFFFFFFFFFFFFFFFFFFFFFFF
310
FFFFFFFFFFFFFFFFFFFFFFFFFFFFFFFFF000FFFFFFFFFFFFFFFFFFFFFFFFFFFF
310
FFFFFFFFFFFFFFFFFFFFFFFFFFFFFFFFFFFFFFFFFFFFFFFFFFFFFFFFFFFFFFFF
310
FFFFFFFFFFFFFFFFFFFFFFFFFFFFFFFFFFFFFFFFFFFFFFFFFFFFFFFFFFFFFFFF
310
FFFFFFFFFFFFFFFFF000FFFFFFFFFFFFFFFFFFFFFFFFFFFFFFFFFFFFFFFFFFFF
310
FFFFFFFFFFFFFFFFFFFFFFFFFFFFFFFFFFFFFFFFFFFFFFFFFFFFFFFFFFFFFFFF
310
FFFFFFFFFFFFFFFFFFFFFFFFFFFFFFFFFFFFFFFFFFFFFFFFFFFFFFFFFFFFFFFF
310
F000FFFFFFFFFFFFFFFFFFFFFFFFFFFFFFFFFFFFFFFFFFFFFFFFFFFFFFFFFFFF
310
FFFFFFFFFFFFFFFFFFFFFFFFFFFFFFFFFFFFFFFFFFFFFFFFFFFFFFFFFFFFFFFF
310
FFFFFFFFFFFFFFFFFFFFFFFFFFFFFFFFFFFFFFFFFFFFFFFFF000FFFFFFFFFFFF
310
FFFFFFFFFFFFFFFFFFFFFFFFFFFFFFFFFFFFFFFFFFFFFFFFFFFFFFFFFFFFFFFF
310
FFFFFFFFFFFFFFFFFFFFFFFFFFFFFFFFFFFFFFFFFFFFFFFFFFFFFFFFFFFFFFFF
310
FFFFFFFFFFFFFFFFFFFFFFFFFFFFFFFFF000FFFFFFFFFFFFFFFFFFFFFFFFFFFF
310
FFFFFFFFFFFFFFFFFFFFFFFFFFFFFFFFFFFFFFFFFFFFFFFFFFFFFFFFFFFFFFFF
310
FFFFFFFFFFFFFFFFFFFFFFFFFFFFFFFFFFFFFFFFFFFFFFFFFFFFFFFFFFFFFFFF
310
FFFFFFFFFFFFFFFFF000FFFFF80003FFFFFFFFFFFFFFFFFFFFFFFFFFFFFFFFFF
310
FFFFF00007FFFFFFFFFF00007FFFFFF800000000000000007FFFFFFFFFFFFFFF
310
FFFFFFFC001FFFFFFFFFFFFFFC001FFFFFFFFFFFFFFFFFFFFFFFFFFE0007FFFF
310
F000FFFF8000007FFFFFFFF8000FFFFFC0007FFFFF80007FFFFF0000007FFFFF
310
FFF8000007FFFFF800000000000000007FFFFFF0001FFFFFFFFFFFC00001FFFF
310
FFFFFFFFC00001FFFFFFFF000000000003FFFFE000007FFFF000FFFE0000000F
310
FFFFFFF0000FFFFF80007FFFFF80007FFFFC0000001FFFFFFFC0000001FFFFF8
310
00000000000000007FFFFFF0001FFFFFFFFFFE0000003FFFFFFFFFFE0000003F
310
FFFFFF000000000003FFFF0000000FFFF000FFF800000003FFFFFFF00007FFFF
310
80007FFFFF80007FFFF000000007FFFFFF000000003FFFF80000000000000000
310
7FFFFFF0001FFFFFFFFFF80000000FFFFFFFFFF80000000FFFFFFF0000000000
310
03FFFC00000003FFF000FFE000000000FFFFFFF00007FFFF80003FFFFF80007F
310
FFC000000001FFFFFC000000001FFFF800000000000000007FFFFFF0001FFFFF
310
FFFFE000000003FFFFFFFFE000000003FFFFFF000000000003FFF000000000FF
310
F000FF80000000007FFFFFF00007FFFF80003FFFFF80007FFF8000000000FFFF
310
F80000000007FFF800000000000000007FFFFFF0001FFFFFFFFFC000000001FF
310
FFFFFFC000000001FFFFFF000000000003FFC0000000007FF000FF0000000000
310
3FFFFFE00007FFFF00003FFFFF80007FFE00000000003FFFF00000000003FFF8
310
00000000000000007FFFFFF0001FFFFFFFFF8000000000FFFFFFFF8000000000
310
FFFFFF000000000003FF80000000003FF000FE00000000001FFFFFE00003FFFF
310
00003FFFFF80007FFC00000000001FFFE00000000001FFF8000001FFFE000000
310
7FFFFFF0001FFFFFFFFE00000000003FFFFFFE00000000003FFFFF0000000000
310
03FF00000000001FF000FC00000000000FFFFFE00003FFFF00001FFFFF80007F
310
F800000000001FFFC00000000000FFF8000001FFFE0000007FFFFFF0001FFFFF
310
FFFC00000000001FFFFFFC00000000001FFFFF000000000003FE00000000000F
310
F000F8000000000007FFFFE00003FFFF00001FFFFF80007FF800000000000FFF
310
800000000000FFF8000001FFFE0000007FFFFFF0001FFFFFFFF800000000000F
310
FFFFF800000000000FFFFF000000000003FC000000000007F000F80000000000
310
03FFFFC00003FFFE00001FFFFF80007FF0000000000007FF0000000000007FF8
310
000001FFFE0000007FFFFFF0001FFFFFFFF0000000000007FFFFF00000000000
310
07FFFF000000000003F8000000000003F000F0000000000003FFFFC00001FFFE
310
00001FFFFF80007FE0000000000007FE0000000000003FF8000001FFFE000000
310
7FFFFFF0001FFFFFFFF0000000000007FFFFF0000000000007FFFF0000000000
310
03F800001F800003F000E00001FFF00001FFFFC00001FFFE00000FFFFF80007F
310
E00001FFE00003FE00001FFF00003FF8000001FFFE0000007FFFFFF0001FFFFF
310
FFE000003E000003FFFFE000003E000003FFFF000000000003F00001FFF80001
310
F000E00007FFFC0001FFFFC00001FFFE00000FFFFF80007FC0000FFFFC0003FC
310
0000FFFFC0001FF8000001FFFE0000007FFFFFF0001FFFFFFFC00003FFE00001
310
FFFFC00003FFE00001FFFF0001FFFFFFFFF00007FFFE0001F000E0000FFFFF00
310
00FFFF800001FFFC00000FFFFF80007FC0001FFFFE0001FC0001FFFFE0001FF8
310
000001FFFE0000007FFFFFF0001FFFFFFF80000FFFF80000FFFF80000FFFF800
310
00FFFF0003FFFFFFFFE0000FFFFF8000F000C0003FFFFF8000FFFF800000FFFC
310
000007FFFF80007F80003FFFFF0001FC0003FFFFF0001FF8000001FFFE000000
310
7FFFFFF0001FFFFFFF80003FFFFE0000FFFF80003FFFFE0000FFFF0003FFFFFF
310
FFE0003FFFFF8000F000C0003FFFFF8000FFFF800000FFFC000007FFFF80007F
310
80007FFFFF8001F80007FFFFF8000FF8000001FFFE0000007FFFFFF0001FFFFF
310
FF00007FFFFF00007FFF00007FFFFF00007FFF0003FFFFFFFFE0003FFFFFC000
310
F000C0007FFFFFC000FFFF000000FFFC000007FFFF80007F8000FFFFFF8000F8
310
000FFFFFF8000FF8000001FFFE0000007FFFFFF0001FFFFFFF0000FFFFFF8000
310
7FFF0000FFFFFF80007FFF0003FFFFFFFFC0007FFFFFC00070008000FFFFFFC0
310
00FFFF000000FFF8000007FFFF80007F8000FFFFFF8000F8000FFFFFF8000FF8
310
000001FFFE0000007FFFFFF0001FFFFFFE0001FFFFFFC0003FFE0001FFFFFFC0
310
003FFF0003FFFFFFFFC0007FFFFFE00070008000FFFFFFC0007FFF0000007FF8
310
000003FFFF80007F0001FFFFFF8000F8000FFFFFF8000FF8000001FFFE000000
310
7FFFFFF0001FFFFFFE0001FFFFFFC0003FFE0001FFFFFFC0003FFF0003FFFFFF
310
FFC000FFFFFFE00070008000FFFFFFC0007FFF0000007FF8000003FFFF80007F
310
0001FFFFFF8000F8001FFFFFF8000FF8000001FFFE0000007FFFFFF0001FFFFF
310
FE0003FFFFFFE0003FFE0003FFFFFFE0003FFF0003FFFFFFFFC000FFFFFFE000
310
70008000FFFFFFC0007FFE0000007FF8000003FFFF80007F0001FFFFFF8000F0
310
001FFFFFF8000FF8000001FFFE0000007FFFFFF0001FFFFFFC0003FFFFFFE000
310
1FFC0003FFFFFFE0001FFF0003FFFFFFFFC000FFFFFFC00070008000FFFFFF80
310
007FFE0000007FF0000003FFFF80007F0001FFFFFF0000F0001FFFFFF8000FF8
310
000001FFFE0000007FFFFFF0001FFFFFFC0007FFFFFFF0001FFC0007FFFFFFF0
310
001FFF0003FFFFFFFFC000FFFFFFC00070008001FFFFFF0000FFFE0000003FF0
310
000001FFFF80007F0001FFFFFF0000F8001FFFFFF0000FF8000001FFFE000000
310
7FFFFFF0001FFFFFFC0007FFFFFFF0001FFC0007FFFFFFF0001FFF0003FFFFFF
310
FFC001FFFFFF80007000FFFFFFFFFE0000FFFE0008003FF0008001FFFF80007F
310
FFFFFFFFFC0000FFFFFFFFFFE0000FF8000001FFFE0000007FFFFFF0001FFFFF
310
F8000FFFFFFFF8000FF8000FFFFFFFF8000FFF0003FFFFFFFFFFFFFFFFFF0000
310
7000FFFFFFFFFC0000FFFC0008003FF0008001FFFF80007FFFFFFFFFF80001FF
310
FFFFFFFF80000FF8000001FFFE0000007FFFFFF0001FFFFFF8000FFFFFFFF800
310
0FF8000FFFFFFFF8000FFF0003FFFFFFFFFFFFFFFFFE0000F000FFFFFFFFE000
310
00FFFC000C003FE000C001FFFF80007FFFFFFFFFC00001FFFFFFFFFE00001FF8
310
000001FFFE0000007FFFFFF0001FFFFFF8000FFFFFFFF8000FF8000FFFFFFFF8
310
000FFF0003FFFFFFFFFFFFFFFFF00000F000FFFFFFFE000001FFFC000C001FE0
310
00C000FFFF80007FFFFFFFFE000001FFFFFFFFE000001FF80FFFFFFFFFFFFFC0
310
7FFFFFF0001FFFFFF8000FFFFFFFF8000FF8000FFFFFFFF8000FFF0003FFFFFF
310
FFFFFFFFFF800000F000FFFFFFC0000001FFFC001C001FE001C000FFFF80007F
310
FFFFFF80000003FFFFFFF80000001FF80FFFFFFFFFFFFFC07FFFFFF0001FFFFF
310
F8001FFFFFFFFC000FF8001FFFFFFFFC000FFF0003FFFFFFFFFFFFFFF0000001
310
F000FFFFF800000001FFF8001C001FE001C000FFFF80007FFFFFF800000003FF
310
FFFF800000003FF80FFFFFFFFFFFFFC07FFFFFF0001FFFFFF8001FFFFFFFFC00
310
0FF8001FFFFFFFFC000FFF0003FFFFFFFFFFFFFE00000001F000FFFFC0000000
310
03FFF8001E001FC001E000FFFF80007FFFFF8000000007FFFFFC000000003FF8
310
0FFFFFFFFFFFFFC07FFFFFF0001FFFFFF8001FFFFFFFFC000FF8001FFFFFFFFC
310
000FFF0003FFFFFFFFFFFFE000000003F000FFFE0000000007FFF8001E000FC0
310
01E0007FFF80007FFFFE0000000007FFFFE0000000007FF80FFFFFFFFFFFFFC0
310
7FFFFFF0001FFFFFF0001FFFFFFFFC0007F0001FFFFFFFFC0007FF0003FFFFFF
310
FFFFFF0000000003F000FFF80000000007FFF8001E000FC003E0007FFF80007F
310
FFF0000000000FFFFF8000000000FFF80FFFFFFFFFFFFFC07FFFFFF0001FFFFF
310
F0001FFFFFFFFC0007F0001FFFFFFFFC0007FF0003FFFFFFFFFFFC0000000007
310
F000FFE0000000000FFFF0003E000FC003E0007FFF80007FFFC0000000001FFF
310
FE0000000001FFF80FFFFFFFFFFFFFC07FFFFFF0001FFFFFF0001FFFFFFFFC00
310
07F0001FFFFFFFFC0007FF0003FFFFFFFFFFF0000000000FF000FFC000000000
310
1FFFF0003F000F8003F0003FFF80007FFF80000000003FFFF80000000003FFF8
310
0FFFFFFFFFFFFFC07FFFFFF0001FFFFFF0001FFFFFFFFC0007F0001FFFFFFFFC
310
0007FF0003FFFFFFFFFFE0000000001FF000FF00000000007FFFF0003F000780
310
03F0003FFF80007FFF00000000007FFFF00000000007FFF80FFFFFFFFFFFFFC0
310
7FFFFFF0001FFFFFF0001FFFFFFFFC0007F0001FFFFFFFFC0007FF0003FFFFFF
310
FFFF80000000007FF000FE0000000000FFFFE0003F00078007F0003FFF80007F
310
FE0000000001FFFFE0000000001FFFF80FFFFFFFFFFFFFC07FFFFFF0001FFFFF
310
F0001FFFFFFFFC0007F0001FFFFFFFFC0007FF0003FFFFFFFFFF0000000000FF
310
F000FC0000000003FFFFE0007F00078007F0003FFF80007FFC0000000007FFFF
310
C0000000007FFFF80FFFFFFFFFFFFFC07FFFFFF0001FFFFFF8001FFFFFFFFC00
310
0FF8001FFFFFFFFC000FFF0003FFFFFFFFFE0000000003FFF000FC000000000F
310
FFFFE0007F80070007F8001FFF80007FF8000000001FFFFF8000000001FFFFF8
310
0FFFFFFFFFFFFFC07FFFFFF0001FFFFFF8001FFFFFFFFC000FF8001FFFFFFFFC
310
000FFF0003FFFFFFFFFC000000000FFFF000F8000000007FFFFFE0007F800700
310
07F8001FFF80007FF000000000FFFFFF800000000FFFFFF80FFFFFFFFFFFFFC0
310
7FFFFFF0001FFFFFF8000FFFFFFFF8000FF8000FFFFFFFF8000FFF0003FFFFFF
310
FFFC000000007FFFF000F800000007FFFFFFC0007F8003000FF8001FFF80007F
310
F000000007FFFFFF000000007FFFFFF80FFFFFFFFFFFFFC07FFFFFF0001FFFFF
310
F8000FFFFFFFF8000FF8000FFFFFFFF8000FFF0003FFFFFFFFF80000000FFFFF
310
F000F0000000FFFFFFFFC000FF8003000FF8001FFF80007FE0000000FFFFFFFF
310
0000000FFFFFFFF8000001FFFE0000007FFFFFF0001FFFFFF8000FFFFFFFF800
310
0FF8000FFFFFFFF8000FFF0003FFFFFFFFF8000000FFFFFFF000F000000FFFFF
310
FFFFC000FFC002000FF8000FFF80007FE000001FFFFFFFFE000001FFFFFFFFF8
310
000001FFFE0000007FFFFFF0001FFFFFF8000FFFFFFFF8000FF8000FFFFFFFF8
310
000FFF0003FFFFFFFFF000001FFFFFFFF000E00000FFFFFFFFFFC000FFC00200
310
0FFC000FFF80007FE00001FFFFFFFFFE00001FFFFFFFFFF8000001FFFE000000
310
7FFFFFF0001FFFFFFC000FFFFFFFF8001FFC000FFFFFFFF8001FFF0003FFFFFF
310
FFF00001FFFFFFFFF000E00007FFFFFFFFFF8000FFC000001FFC000FFF80007F
310
C0000FFFFFFFFFFE0000FFFFFFFFFFF8000001FFFE0000007FFFFFF0001FFFFF
310
FC0007FFFFFFF0001FFC0007FFFFFFF0001FFF0003FFFFFFFFF00007FFFFFFFF
310
F000E0001FFFFFFFFFFF8000FFC000001FFC000FFF80007FC0003FFFFFFFFFFE
310
0001FFFFFFFFFFF8000001FFFE0000007FFFFFF0001FFFFFFC0007FFFFFFF000
310
1FFC0007FFFFFFF0001FFF0003FFFFFFFFF0001FFFFFFFFFF000E0003FFFFF00
310
03FF8001FFE000001FFC0007FF80007FC0007FFFFF0007FC0003FFFFF0003FF8
310
000001FFFE0000007FFFFFF0001FFFFFFC0003FFFFFFE0001FFC0003FFFFFFE0
310
001FFF0003FFFFFFFFF0003FFFFFFFFFF000E0003FFFFF0001FF8001FFE00000
310
1FFE0007FF80007FC0007FFFFE0003FC0007FFFFE0003FF8000001FFFE000000
310
7FFFFFF0001FFFFFFE0003FFFFFFE0003FFE0003FFFFFFE0003FFF0003FFFFFF
310
FFF0003FFFFF8001F000E0003FFFFF0001FF0001FFE000001FFE0007FF80007F
310
C0007FFFFE0003FC0007FFFFE0003FF8000001FFFE0000007FFFFFF0001FFFFF
310
FE0001FFFFFFC0003FFE0001FFFFFFC0003FFF0003FFFFFFFFF0003FFFFF0001
310
F000E0003FFFFF0003FF0001FFE000003FFE0007FF80007FC0007FFFFE0003FC
310
0007FFFFE0003FF8000001FFFE0000007FFFFFF0001FFFFFFF0001FFFFFFC000
310
7FFF0001FFFFFFC0007FFF0003FFFFFFFFF0003FFFFF0001F000E0003FFFFE00
310
03FF0003FFF000003FFE0003FF80007FC0007FFFFC0003FE0007FFFFE0003FF8
310
000001FFFE0000007FFFFFF0001FFFFFFF0000FFFFFF80007FFF0000FFFFFF80
310
007FFF0003FFFFFFFFF0003FFFFF0001F000E0003FFFFE0003FF0003FFF00000
310
3FFF0003FF80007FC0007FFFFC0007FE0007FFFFC0003FF8000001FFFE000000
310
7FFFFFF0001FFFFFFF80007FFFFF0000FFFF80007FFFFF0000FFFF0003FFFFFF
310
FFF0003FFFFF0003F000E0003FFFFC0003FE0003FFF000003FFF0003FF80007F
310
E0003FFFF80007FE0003FFFFC0007FF8000001FFFE0000007FFFFFF0001FFFFF
310
FF80003FFFFE0000FFFF80003FFFFE0000FFFF0003FFFFFFFFF0001FFFFE0003
310
F000F0001FFFF80003FE0003FFF000007FFF0001FF80007FE0003FFFF00007FE
310
0001FFFF80007FF8000001FFFE0000007FFFFFF0001FFFFFFFC0000FFFF80001
310
FFFFC0000FFFF80001FFFF0003FFFFFFFFF0001FFFFC0003F000F0000FFFF000
310
07FE0007FFF800007FFF0001FF80007FE0001FFFE00007FF0000FFFE00007FF8
310
000001FFFE0000007FFFFFF0001FFFFFFFC00003FFE00001FFFFC00003FFE000
310
01FFFF0003FFFFFFFFF8000FFFF80003F000F00003FFC00007FC0007FFF80000
310
7FFF8001FF80007FF00007FF80000FFF00007FF80000FFF8000001FFFE000000
310
7F80000000000001FFE000003E000003FFFFE000003E000003FFFF0003FFFFFF
310
FFF80003FFE00007F000F800000000000FFC0007FFF800007FFF8001FF80007F
310
F000000000000FFF000000000000FFF8000001FFFE0000007F80000000000001
310
FFF0000000000007FFFFF0000000000007FFFF0003FFFFFFFFFC00007E000007
310
F000F800000000000FFC0007FFF80000FFFF8000FF80007FF800000000001FFF
310
800000000001FFF8000001FFFE0000007F80000000000001FFF800000000000F
310
FFFFF800000000000FFFFF0003FFFFFFFFFC00000000000FF000FC0000000000
310
1FFC0007FFFC0000FFFF8000FF80007FF800000000003FFFC00000000001FFF8
310
000001FFFE0000007F80000000000001FFF800000000000FFFFFF80000000000
310
0FFFFF0003FFFFFFFFFE00000000001FF000FE00000000003FF8000FFFFC0000
310
FFFF8000FF80007FFC00000000003FFFC00000000003FFF8000001FFFE000000
310
7F80000000000001FFFC00000000001FFFFFFC00000000001FFFFF0003FFFFFF
310
FFFF00000000001FF000FF00000000003FF8000FFFFC0000FFFFC000FF80007F
310
FE00000000007FFFE00000000007FFF8000001FFFE0000007F80000000000001
310
FFFE00000000003FFFFFFE00000000003FFFFF0003FFFFFFFFFF80000000003F
310
F000FF80000000007FF8000FFFFC0001FFFFC0007F80007FFF0000000000FFFF
310
F0000000000FFFF800000000000000007F80000000000001FFFF8000000000FF
310
FFFFFF8000000000FFFFFF0003FFFFFFFFFFC0000000007FF000FFC000000000
310
FFF8000FFFFE0001FFFFC0007F80007FFF8000000001FFFFF8000000001FFFF8
310
00000000000000007F80000000000001FFFFC000000001FFFFFFFFC000000001
310
FFFFFF0003FFFFFFFFFFE000000000FFF000FFE000000003FFF0001FFFFE0001
310
FFFFC0007F80007FFFC000000007FFFFFE000000003FFFF80000000000000000
310
7F80000000000001FFFFE000000003FFFFFFFFE000000003FFFFFF0003FFFFFF
310
FFFFF000000003FFF000FFF80000000FFFF0001FFFFE0001FFFFE0007F80007F
310
FFF00000000FFFFFFF00000000FFFFF800000000000000007F80000000000001
310
FFFFF80000000FFFFFFFFFF80000000FFFFFFF0003FFFFFFFFFFFC0000000FFF
310
F000FFFE0000003FFFF0001FFFFE0003FFFFE0003F80007FFFFC0000003FFFFF
310
FFC0000003FFFFF800000000000000007F80000000000001FFFFFE0000003FFF
310
FFFFFFFE0000003FFFFFFF0003FFFFFFFFFFFF0000003FFFF000FFFF800000FF
310
FFF0001FFFFF0003FFFFE0003F80007FFFFF000001FFFFFFFFF800001FFFFFF8
310
00000000000000007F80000000000001FFFFFFC00001FFFFFFFFFFFFC00001FF
310
FFFFFF0003FFFFFFFFFFFFC00000FFFFF000FFFFF8000FFFFFFFFFFFFFFFFFFF
310
FFFFFFFFFFFFFFFFFFFFF0001FFFFFFFFFFF0000FFFFFFF80000000000000000
310
7FFFFFFFFFFFFFFFFFFFFFFC001FFFFFFFFFFFFFFC001FFFFFFFFFFFFFFFFFFF
310
FFFFFFFC001FFFFFF000FFFFFFFFFFFFFFFFFFFFFFFFFFFFFFFFFFFFFFFFFFFF
310
FFFFFFFFFFFFFFFFFFFFFFFFFFFFFFFFFFFFFFFFFFFFFFFFFFFFFFFFFFFFFFFF
310
FFFFFFFFFFFFFFFFFFFFFFFFFFFFFFFFFFFFFFFFFFFFFFFFFFFFFFFFFFFFFFFF
310
F000FFFFFFFFFFFFFFFFFFFFFFFFFFFFFFFFFFFFFFFFFFFFFFFFFFFFFFFFFFFF
310
FFFFFFFFFFFFFFFFFFFFFFFFFFFFFFFFFFFFFFFFFFFFFFFFFFFFFFFFFFFFFFFF
310
FFFFFFFFFFFFFFFFFFFFFFFFFFFFFFFFFFFFFFFFFFFFFFFFF000FFFFFFFFFFFF
310
FFFFFFFFFFFFFFFFFFFFFFFFFFFFFFFFFFFFFFFFFFFFFFFFFFFFFFFFFFFFFFFF
310
FFFFFFFFFFFFFFFFFFFFFFFFFFFFFFFFFFFFFFFFFFFFFFFFFFFFFFFFFFFFFFFF
310
FFFFFFFFFFFFFFFFFFFFFFFFFFFFFFFFF000FFFFFFFFFFFFFFFFFFFFFFFFFFFF
310
FFFFFFFFFFFFFFFFFFFFFFFFFFFFFFFFFFFFFFFFFFFFFFFFFFFFFFFFFFFFFFFF
310
FFFFFFFFFFFFFFFFFFFFFFFFFFFFFFFFFFFFFFFFFFFFFFFFFFFFFFFFFFFFFFFF
310
FFFFFFFFFFFFFFFFF000FFFFFFFFFFFFFFFFFFFFFFFFFFFFFFFFFFFFFFFFFFFF
310
FFFFFFFFFFFFFFFFFFFFFFFFFFFFFFFFFFFFFFFFFFFFFFFFFFFFFFFFFFFFFFFF
310
FFFFFFFFFFFFFFFFFFFFFFFFFFFFFFFFFFFFFFFFFFFFFFFFFFFFFFFFFFFFFFFF
310
F000FFFFFFFFFFFFFFFFFFFFFFFFFFFFFFFFFFFFFFFFFFFFFFFFFFFFFFFFFFFF
310
FFFFFFFFFFFFFFFFFFFFFFFFFFFFFFFFFFFFFFFFFFFFFFFFFFFFFFFFFFFFFFFF
310
FFFFFFFFFFFFFFFFFFFFFFFFFFFFFFFFFFFFFFFFFFFFFFFFF000FFFFFFFFFFFF
310
FFFFFFFFFFFFFFFFFFFFFFFFFFFFFFFFFFFFFFFFFFFFFFFFFFFFFFFFFFFFFFFF
310
FFFFFFFFFFFFFFFFFFFFFFFFFFFFFFFFFFFFFFFFFFFFFFFFFFFFFFFFFFFFFFFF
310
FFFFFFFFFFFFFFFFFFFFFFFFFFFFFFFFF000FFFFFFFFFFFFFFFFFFFFFFFFFFFF
310
FFFFFFFFFFFFFFFFFFFFFFFFFFFFFFFFFFFFFFFFFFFFFFFFFFFFFFFFFFFFFFFF
310
FFFFFFFFFFFFFFFFFFFFFFFFFFFFFFFFFFFFFFFFFFFFFFFFFFFFFFFFFFFFFFFF
310
FFFFFFFFFFFFFFFFF000FFFFFFFFFFFFFFFFFFFFFFFFFFFFFFFFFFFFFFFFFFFF
310
FFFFFFFFFFFFFFFFFFFFFFFFFFFFFFFFFFFFFFFFFFFFFFFFFFFFFFFFFFFFFFFF
310
FFFFFFFFFFFFFFFFFFFFFFFFFFFFFFFFFFFFFFFFFFFFFFFFFFFFFFFFFFFFFFFF
310
F000FFFFFFFFFFFFFFFFFFFFFFFFFFFFFFFFFFFFFFFFFFFFFFFFFFFFFFFFFFFF
310
FFFFFFFFFFFFFFFFFFFFFFFFFFFFFFFFFFFFFFFFFFFFFFFFFFFFFFFFFFFFFFFF
310
FFFFFFFFFFFFFFFFFFFFFFFFFFFFFFFFFFFFFFFFFFFFFFFFF000FFFFFFFFFFFF
310
FFFFFFFFFFFFFFFFFFFFFFFFFFFFFFFFFFFFFFFFFFFFFFFFFFFFFFFFFFFFFFFF
310
FFFFFFFFFFFFFFFFFFFFFFFFFFFFFFFFFFFFFFFFFFFFFFFFFFFFFFFFFFFFFFFF
310
FFFFFFFFFFFFFFFFFFFFFFFFFFFFFFFFF000FFFFFFFFFFFFFFFFFFFFFFFFFFFF
310
FFFFFFFFFFFFFFFFFFFFFFFFFFFFFFFFFFFFFFFFFFFFFFFFFFFFFFFFFFFFFFFF
310
FFFFFFFFFFFFFFFFFFFFFFFFFFFFFFFFFFFFFFFFFFFFFFFFFFFFFFFFFFFFFFFF
310
FFFFFFFFFFFFFFFFF000FFFFFFFFFFFFFFFFFFFFFFFFFFFFFFFFFFFFFFFFFFFF
310
FFFFFFFFFFFFFFFFFFFFFFFFFFFFFFFFFFFFFFFFFFFFFFFFFFFFFFFFFFFFFFFF
310
FFFFFFFFFFFFFFFFFFFFFFFFFFFFFFFFFFFFFFFFFFFFFFFFFFFFFFFFFFFFFFFF
310
F000FFFFFFFFFFFFFFFFFFFFFFFFFFFFFFFFFFFFFFFFFFFFFFFFFFFFFFFFFFFF
310
FFFFFFFFFFFFFFFFFFFFFFFFFFFFFFFFFFFFFFFFFFFFFFFFFFFFFFFFFFFFFFFF
310
FFFFFFFFFFFFFFFFFFFFFFFFFFFFFFFFFFFFFFFFFFFFFFFFF000FFFFFFFFFFFF
310
FFFFFFFFFFFFFFFFFFFFFFFFFFFFFFFFFFFFFFFFFFFFFFFFFFFFFFFFFFFFFFFF
310
FFFFFFFFFFFFFFFFFFFFFFFFFFFFFFFFFFFFFFFFFFFFFFFFFFFFFFFFFFFFFFFF
310
FFFFFFFFFFFFFFFFFFFFFFFFFFFFFFFFF000FFFFFFFFFFFFFFFFFFFFFFFFFFFF
310
FFFFFFFFFFFFFFFFFFFFFFFFFFFFFFFFFFFFFFFFFFFFFFFFFFFFFFFFFFFFFFFF
310
FFFFFFFFFFFFFFFFFFFFFFFFFFFFFFFFFFFFFFFFFFFFFFFFFFFFFFFFFFFFFFFF
310
FFFFFFFFFFFFFFFFF000FFFFFFFFFFFFFFFFFFFFFFFFFFFFFFFFFFFFFFFFFFFF
310
FFFFFFFFFFFFFFFFFFFFFFFFFFFFFFFFFFFFFFFFFFFFFFFFFFFFFFFFFFFFFFFF
310
FFFFFFFFFFFFFFFFFFFFFFFFFFFFFFFFFFFFFFFFFFFFFFFFFFFFFFFFFFFFFFFF
310
F000FFFFFFFFFFFFFFFFFFFFFFFFFFFFFFFFFFFFFFFFFFFFFFFFFFFFFFFFFFFF
310
FFFFFFFFFFFFFFFFFFFFFFFFFFFFFFFFFFFFFFFFFFFFFFFFFFFFFFFFFFFFFFFF
310
FFFFFFFFFFFFFFFFFFFFFFFFFFFFFFFFFFFFFFFFFFFFFFFFF000FFFFFFFFFFFF
310
FFFFFFFFFFFFFFFFFFFFFFFFFFFFFFFFFFFFFFFFFFFFFFFFFFFFFFFFFFFFFFFF
310
FFFFFFFFFFFFFFFFFFFFFFFFFFFFFFFFFFFFFFFFFFFFFFFFFFFFFFFFFFFFFFFF
310
FFFFFFFFFFFFFFFFFFFFFFFFFFFFFFFFF000FFFFFFFFFFFFFFFFFFFFFFFFFFFF
310
FFFFFFFFFFFFFFFFFFFFFFFFFFFFFFFFFFFFFFFFFFFFFFFFFFFFFFFFFFFFFFFF
310
FFFFFFFFFFFFFFFFFFFFFFFFFFFFFFFFFFFFFFFFFFFFFFFFFFFFFFFFFFFFFFFF
310
FFFFFFFFFFFFFFFFF000FFFFFFFFFFFFFFFFFFFFFFFFFFFFFFFFFFFFFFFFFFFF
310
FFFFFFFFFFFFFFFFFFFFFFFFFFFFFFFFFFFFFFFFFFFFFFFFFFFFFFFFFFFFFFFF
310
FFFFFFFFFFFFFFFFFFFFFFFFFFFFFFFFFFFFFFFFFFFFFFFFFFFFFFFFFFFFFFFF
310
F000FFFFFFFFFFFFFFFFFFFFFFFFFFFFFFFFFFFFFFFFFFFFFFFFFFFFFFFFFFFF
310
FFFFFFFFFFFFFFFFFFFFFFFFFFFFFFFFFFFFFFFFFFFFFFFFFFFFFFFFFFFFFFFF
310
FFFFFFFFFFFFFFFFFFFFFFFFFFFFFFFFFFFFFFFFFFFFFFFFF000FFFFFFFFFFFF
310
FFFFFFFFFFFFFFFFFFFFFFFFFFFFFFFFFFFFFFFFFFFFFFFFFFFFFFFFFFFFFFFF
310
FFFFFFFFFFFFFFFFFFFFFFFFFFFFFFFFFFFFFFFFFFFFFFFFFFFFFFFFFFFFFFFF
310
FFFFFFFFFFFFFFFFFFFFFFFFFFFFFFFFF0000000000000000000000000000000
310
0000000000000000000000000000000000000000000000000000000000000000
310
0000000000000000000000000000000000000000000000000000000000000000
310
0000000000000000000000000000000000000000000000000000000000000000
310
0000000000000000000000000000000000000000000000000000000000000000
310
0000000000000000000000000000000000000000000000000000000000000000
310
0000000000000000000000000000000000000000000000000000000000000000
310
0000000000000000000000000000000000000000000000000000000000000000
310
0000000000000000000000000000000000000000000000000000000000000000
310
0000000000000000000000000000000000000000000000000000000000000000
310
0000000000000000000000000000000000000000000000000000000000000000
310
0000000000000000000000000000000000000000000000000000000000000000
310
0000000000000000000000000000000000000000000000000000000000000000
310
0000000000000000000000000000000000000000000000000000000000000000
310
0000000000000000000000000000000000000000000000000000000000000000
310
0000000000000000000000000000000000000000000000000000000000000000
  1
OLE
  0
ENDSEC
  0
SECTION
  2
OBJECTS
  0
DICTIONARY
  5
C
330
0
100
AcDbDictionary
281
     1
  3
ACAD_GROUP
350
D
  3
ACAD_LAYOUT
350
1A
  3
ACAD_MLINESTYLE
350
17
  3
ACAD_PLOTSETTINGS
350
19
  3
ACAD_PLOTSTYLENAME
350
E
  0
DICTIONARY
  5
D
102
{ACAD_REACTORS
330
C
102
}
330
C
100
AcDbDictionary
281
     1
  0
DICTIONARY
  5
1A
102
{ACAD_REACTORS
330
C
102
}
330
C
100
AcDbDictionary
281
     1
  3
Layout1
350
1E
  3
Layout2
350
26
  3
Model
350
22
  0
DICTIONARY
  5
17
102
{ACAD_REACTORS
330
C
102
}
330
C
100
AcDbDictionary
281
     1
  3
Standard
350
18
  0
DICTIONARY
  5
19
102
{ACAD_REACTORS
330
C
102
}
330
C
100
AcDbDictionary
281
     1
  0
ACDBDICTIONARYWDFLT
  5
E
102
{ACAD_REACTORS
330
C
102
}
330
C
100
AcDbDictionary
281
     1
  3
Normal
350
F
100
AcDbDictionaryWithDefault
340
F
  0
LAYOUT
  5
1E
102
{ACAD_REACTORS
330
1A
102
}
330
1A
100
AcDbPlotSettings
  1

  2
none_device
  4

  6

 40
0.0
 41
0.0
 42
0.0
 43
0.0
 44
0.0
 45
0.0
 46
0.0
 47
0.0
 48
0.0
 49
0.0
140
0.0
141
0.0
142
1.0
143
1.0
 70
   688
 72
     0
 73
     0
 74
     5
  7

 75
    16
147
1.0
148
0.0
149
0.0
100
AcDbLayout
  1
Layout1
 70
     1
 71
     1
 10
0.0
 20
0.0
 11
420.0
 21
297.0
 12
0.0
 22
0.0
 32
0.0
 14
1.0000000000E+20
 24
1.0000000000E+20
 34
1.0000000000E+20
 15
-1.0000000000E+20
 25
-1.0000000000E+20
 35
-1.0000000000E+20
146
0.0
 13
0.0
 23
0.0
 33
0.0
 16
1.0
 26
0.0
 36
0.0
 17
0.0
 27
1.0
 37
0.0
 76
     0
330
1B
  0
LAYOUT
  5
26
102
{ACAD_REACTORS
330
1A
102
}
330
1A
100
AcDbPlotSettings
  1

  2
none_device
  4

  6

 40
0.0
 41
0.0
 42
0.0
 43
0.0
 44
0.0
 45
0.0
 46
0.0
 47
0.0
 48
0.0
 49
0.0
140
0.0
141
0.0
142
1.0
143
1.0
 70
   688
 72
     0
 73
     0
 74
     5
  7

 75
    16
147
1.0
148
0.0
149
0.0
100
AcDbLayout
  1
Layout2
 70
     1
 71
     2
 10
0.0
 20
0.0
 11
0.0
 21
0.0
 12
0.0
 22
0.0
 32
0.0
 14
0.0
 24
0.0
 34
0.0
 15
0.0
 25
0.0
 35
0.0
146
0.0
 13
0.0
 23
0.0
 33
0.0
 16
1.0
 26
0.0
 36
0.0
 17
0.0
 27
1.0
 37
0.0
 76
     0
330
23
  0
LAYOUT
  5
22
102
{ACAD_REACTORS
330
1A
102
}
330
1A
100
AcDbPlotSettings
  1

  2
none_device
  4

  6

 40
0.0
 41
0.0
 42
0.0
 43
0.0
 44
0.0
 45
0.0
 46
0.0
 47
0.0
 48
0.0
 49
0.0
140
0.0
141
0.0
142
1.0
143
1.0
 70
  1712
 72
     0
 73
     0
 74
     0
  7

 75
     0
147
1.0
148
0.0
149
0.0
100
AcDbLayout
  1
Model
 70
     1
 71
     0
 10
0.0
 20
0.0
 11
297.0
 21
210.0
 12
0.0
 22
0.0
 32
0.0
 14
0.0
 24
0.0
 34
0.0
 15
297.0
 25
210.0
 35
0.0
146
0.0
 13
0.0
 23
0.0
 33
0.0
 16
1.0
 26
0.0
 36
0.0
 17
0.0
 27
1.0
 37
0.0
 76
     0
330
1F
331
29
  0
MLINESTYLE
  5
18
102
{ACAD_REACTORS
330
17
102
}
330
17
100
AcDbMlineStyle
  2
Standard
 70
     0
  3

 62
   256
 51
90.0
 52
90.0
 71
     2
 49
0.5
 62
   256
  6
BYLAYER
 49
-0.5
 62
   256
  6
BYLAYER
  0
ACDBPLACEHOLDER
  5
F
102
{ACAD_REACTORS
330
E
102
}
330
E
  0
ENDSEC
  0
EOF
