  0
SECTION
  2
HEADER
  9
$ACADVER
  1
AC1015
  9
$ACADMAINTVER
 70
     6
  9
$DWGCODEPAGE
  3
ANSI_1252
  9
$INSBASE
 10
0.0
 20
0.0
 30
0.0
  9
$EXTMIN
 10
0.0
 20
0.0
 30
0.0
  9
$EXTMAX
 10
297.0
 20
210.0
 30
0.0
  9
$LIMMIN
 10
0.0
 20
0.0
  9
$LIMMAX
 10
297.0
 20
210.0
  9
$ORTHOMODE
 70
     0
  9
$REGENMODE
 70
     1
  9
$FILLMODE
 70
     1
  9
$QTEXTMODE
 70
     0
  9
$MIRRTEXT
 70
     1
  9
$LTSCALE
 40
1.0
  9
$ATTMODE
 70
     1
  9
$TEXTSIZE
 40
2.0
  9
$TRACEWID
 40
1.0
  9
$TEXTSTYLE
  7
Standard
  9
$CLAYER
  8
0
  9
$CELTYPE
  6
ByLayer
  9
$CECOLOR
 62
   256
  9
$CELTSCALE
 40
1.0
  9
$DISPSILH
 70
     0
  9
$DIMSCALE
 40
1.0
  9
$DIMASZ
 40
3.0
  9
$DIMEXO
 40
0.0
  9
$DIMDLI
 40
3.75
  9
$DIMRND
 40
0.0
  9
$DIMDLE
 40
0.0
  9
$DIMEXE
 40
1.0
  9
$DIMTP
 40
0.0
  9
$DIMTM
 40
0.0
  9
$DIMTXT
 40
2.0
  9
$DIMCEN
 40
2.5
  9
$DIMTSZ
 40
0.0
  9
$DIMTOL
 70
     0
  9
$DIMLIM
 70
     0
  9
$DIMTIH
 70
     1
  9
$DIMTOH
 70
     1
  9
$DIMSE1
 70
     0
  9
$DIMSE2
 70
     0
  9
$DIMTAD
 70
     1
  9
$DIMZIN
 70
     0
  9
$DIMBLK
  1

  9
$DIMASO
 70
     1
  9
$DIMSHO
 70
     1
  9
$DIMPOST
  1

  9
$DIMAPOST
  1

  9
$DIMALT
 70
     0
  9
$DIMALTD
 70
     3
  9
$DIMALTF
 40
0.0393700787
  9
$DIMLFAC
 40
1.0
  9
$DIMTOFL
 70
     1
  9
$DIMTVP
 40
0.0
  9
$DIMTIX
 70
     0
  9
$DIMSOXD
 70
     0
  9
$DIMSAH
 70
     0
  9
$DIMBLK1
  1

  9
$DIMBLK2
  1

  9
$DIMSTYLE
  2
ISO-25
  9
$DIMCLRD
 70
     0
  9
$DIMCLRE
 70
     0
  9
$DIMCLRT
 70
     0
  9
$DIMTFAC
 40
1.0
  9
$DIMGAP
 40
1.524
  9
$DIMJUST
 70
     0
  9
$DIMSD1
 70
     0
  9
$DIMSD2
 70
     0
  9
$DIMTOLJ
 70
     0
  9
$DIMTZIN
 70
     0
  9
$DIMALTZ
 70
     0
  9
$DIMALTTZ
 70
     0
  9
$DIMUPT
 70
     0
  9
$DIMDEC
 70
     2
  9
$DIMTDEC
 70
     3
  9
$DIMALTU
 70
     2
  9
$DIMALTTD
 70
     3
  9
$DIMTXSTY
  7
Standard
  9
$DIMAUNIT
 70
     0
  9
$DIMADEC
 70
     2
  9
$DIMALTRND
 40
0.0
  9
$DIMAZIN
 70
     0
  9
$DIMDSEP
 70
    44
  9
$DIMATFIT
 70
     3
  9
$DIMFRAC
 70
     0
  9
$DIMLDRBLK
  1

  9
$DIMLUNIT
 70
     2
  9
$DIMLWD
 70
    -2
  9
$DIMLWE
 70
    -2
  9
$DIMTMOVE
 70
     0
  9
$LUNITS
 70
     2
  9
$LUPREC
 70
     2
  9
$SKETCHINC
 40
1.0
  9
$FILLETRAD
 40
10.0
  9
$AUNITS
 70
     0
  9
$AUPREC
 70
     2
  9
$MENU
  1
.
  9
$ELEVATION
 40
0.0
  9
$PELEVATION
 40
0.0
  9
$THICKNESS
 40
0.0
  9
$LIMCHECK
 70
     0
  9
$CHAMFERA
 40
10.0
  9
$CHAMFERB
 40
10.0
  9
$CHAMFERC
 40
20.0
  9
$CHAMFERD
 40
0.0
  9
$SKPOLY
 70
     0
  9
$TDCREATE
 40
2456045.489058148
  9
$TDUCREATE
 40
2456045.405724815
  9
$TDUPDATE
 40
2456045.48905941
  9
$TDUUPDATE
 40
2456045.405726077
  9
$TDINDWG
 40
0.0000000116
  9
$TDUSRTIMER
 40
0.0000000116
  9
$USRTIMER
 70
     1
  9
$ANGBASE
 50
0.0
  9
$ANGDIR
 70
     0
  9
$PDMODE
 70
     0
  9
$PDSIZE
 40
-1.0
  9
$PLINEWID
 40
0.0
  9
$SPLFRAME
 70
     0
  9
$SPLINETYPE
 70
     6
  9
$SPLINESEGS
 70
     8
  9
$HANDSEED
  5
1F6
  9
$SURFTAB1
 70
     6
  9
$SURFTAB2
 70
     6
  9
$SURFTYPE
 70
     6
  9
$SURFU
 70
     6
  9
$SURFV
 70
     6
  9
$UCSBASE
  2

  9
$UCSNAME
  2

  9
$UCSORG
 10
0.0
 20
0.0
 30
0.0
  9
$UCSXDIR
 10
1.0
 20
0.0
 30
0.0
  9
$UCSYDIR
 10
0.0
 20
1.0
 30
0.0
  9
$UCSORTHOREF
  2

  9
$UCSORTHOVIEW
 70
     0
  9
$UCSORGTOP
 10
0.0
 20
0.0
 30
0.0
  9
$UCSORGBOTTOM
 10
0.0
 20
0.0
 30
0.0
  9
$UCSORGLEFT
 10
0.0
 20
0.0
 30
0.0
  9
$UCSORGRIGHT
 10
0.0
 20
0.0
 30
0.0
  9
$UCSORGFRONT
 10
0.0
 20
0.0
 30
0.0
  9
$UCSORGBACK
 10
0.0
 20
0.0
 30
0.0
  9
$PUCSBASE
  2

  9
$PUCSNAME
  2

  9
$PUCSORG
 10
0.0
 20
0.0
 30
0.0
  9
$PUCSXDIR
 10
1.0
 20
0.0
 30
0.0
  9
$PUCSYDIR
 10
0.0
 20
1.0
 30
0.0
  9
$PUCSORTHOREF
  2

  9
$PUCSORTHOVIEW
 70
     0
  9
$PUCSORGTOP
 10
0.0
 20
0.0
 30
0.0
  9
$PUCSORGBOTTOM
 10
0.0
 20
0.0
 30
0.0
  9
$PUCSORGLEFT
 10
0.0
 20
0.0
 30
0.0
  9
$PUCSORGRIGHT
 10
0.0
 20
0.0
 30
0.0
  9
$PUCSORGFRONT
 10
0.0
 20
0.0
 30
0.0
  9
$PUCSORGBACK
 10
0.0
 20
0.0
 30
0.0
  9
$USERI1
 70
     0
  9
$USERI2
 70
     0
  9
$USERI3
 70
     0
  9
$USERI4
 70
     0
  9
$USERI5
 70
     0
  9
$USERR1
 40
0.0
  9
$USERR2
 40
0.0
  9
$USERR3
 40
0.0
  9
$USERR4
 40
0.0
  9
$USERR5
 40
0.0
  9
$WORLDVIEW
 70
     1
  9
$SHADEDGE
 70
     3
  9
$SHADEDIF
 70
    70
  9
$TILEMODE
 70
     1
  9
$MAXACTVP
 70
    64
  9
$PINSBASE
 10
0.0
 20
0.0
 30
0.0
  9
$PLIMCHECK
 70
     0
  9
$PEXTMIN
 10
1.0000000000E+20
 20
1.0000000000E+20
 30
1.0000000000E+20
  9
$PEXTMAX
 10
-1.0000000000E+20
 20
-1.0000000000E+20
 30
-1.0000000000E+20
  9
$PLIMMIN
 10
0.0
 20
0.0
  9
$PLIMMAX
 10
420.0
 20
297.0
  9
$UNITMODE
 70
     0
  9
$VISRETAIN
 70
     1
  9
$PLINEGEN
 70
     0
  9
$PSLTSCALE
 70
     1
  9
$TREEDEPTH
 70
  3020
  9
$CMLSTYLE
  2
Standard
  9
$CMLJUST
 70
     0
  9
$CMLSCALE
 40
20.0
  9
$PROXYGRAPHICS
 70
     1
  9
$MEASUREMENT
 70
     1
  9
$CELWEIGHT
370
    -1
  9
$ENDCAPS
280
     0
  9
$JOINSTYLE
280
     0
  9
$LWDISPLAY
290
     1
  9
$INSUNITS
 70
     4
  9
$HYPERLINKBASE
  1

  9
$STYLESHEET
  1

  9
$XEDIT
290
     1
  9
$CEPSNTYPE
380
     0
  9
$PSTYLEMODE
290
     1
  9
$FINGERPRINTGUID
  2
{13A822EC-BE39-459C-9E49-C9F46E9189B7}
  9
$VERSIONGUID
  2
{FAEB1C32-E019-11D5-929B-00C0DF256EC4}
  9
$EXTNAMES
290
     1
  9
$PSVPSCALE
 40
0.0
  9
$OLESTARTUP
290
     0
  0
ENDSEC
  0
SECTION
  2
CLASSES
  0
CLASS
  1
ACDBDICTIONARYWDFLT
  2
AcDbDictionaryWithDefault
  3
ObjectDBX Classes
 90
        0
280
     0
281
     0
  0
CLASS
  1
VISUALSTYLE
  2
AcDbVisualStyle
  3
ObjectDBX Classes
 90
     4095
280
     0
281
     0
  0
CLASS
  1
MATERIAL
  2
AcDbMaterial
  3
ObjectDBX Classes
 90
     1153
280
     0
281
     0
  0
CLASS
  1
ACDBPLACEHOLDER
  2
AcDbPlaceHolder
  3
ObjectDBX Classes
 90
        0
280
     0
281
     0
  0
CLASS
  1
LAYOUT
  2
AcDbLayout
  3
ObjectDBX Classes
 90
        0
280
     0
281
     0
  0
ENDSEC
  0
SECTION
  2
TABLES
  0
TABLE
  2
VPORT
  5
8
330
0
100
AcDbSymbolTable
 70
     1
  0
VPORT
  5
29
330
8
100
AcDbSymbolTableRecord
100
AcDbViewportTableRecord
  2
*Active
 70
     0
 10
0.0
 20
0.0
 11
1.0
 21
1.0
 12
148.5
 22
105.0
 13
0.0
 23
0.0
 14
10.0
 24
10.0
 15
10.0
 25
10.0
 16
0.0
 26
0.0
 36
1.0
 17
0.0
 27
0.0
 37
0.0
 40
210.0
 41
1.4142857143
 42
50.0
 43
0.0
 44
0.0
 50
0.0
 51
0.0
 71
     0
 72
  2000
 73
     1
 74
     3
 75
     0
 76
     0
 77
     0
 78
     0
281
     0
 65
     1
110
0.0
120
0.0
130
0.0
111
1.0
121
0.0
131
0.0
112
0.0
122
1.0
132
0.0
 79
     0
146
0.0
  0
ENDTAB
  0
TABLE
  2
LTYPE
  5
5
330
0
100
AcDbSymbolTable
 70
     6
  0
LTYPE
  5
14
330
5
100
AcDbSymbolTableRecord
100
AcDbLinetypeTableRecord
  2
ByBlock
 70
     0
  3

 72
    65
 73
     0
 40
0.0
  0
LTYPE
  5
15
330
5
100
AcDbSymbolTableRecord
100
AcDbLinetypeTableRecord
  2
ByLayer
 70
     0
  3

 72
    65
 73
     0
 40
0.0
  0
LTYPE
  5
16
330
5
100
AcDbSymbolTableRecord
100
AcDbLinetypeTableRecord
  2
Continuous
 70
     0
  3
Solid line
 72
    65
 73
     0
 40
0.0
  0
LTYPE
  5
3F
330
5
100
AcDbSymbolTableRecord
100
AcDbLinetypeTableRecord
  2
HIDDEN
 70
     0
  3
Hidden __ __ __ __ __ __ __ __ __ __ __ __ __ __
 72
    65
 73
     2
 40
1.905
 49
1.27
 74
     0
 49
-0.635
 74
     0
  0
LTYPE
  5
40
330
5
100
AcDbSymbolTableRecord
100
AcDbLinetypeTableRecord
  2
PHANTOM
 70
     0
  3
Phantom ______  __  __  ______  __  __  ______
 72
    65
 73
     6
 40
12.7
 49
6.35
 74
     0
 49
-1.27
 74
     0
 49
1.27
 74
     0
 49
-1.27
 74
     0
 49
1.27
 74
     0
 49
-1.27
 74
     0
  0
LTYPE
  5
41
330
5
100
AcDbSymbolTableRecord
100
AcDbLinetypeTableRecord
  2
CENTER
 70
     0
  3
Center ____ _ ____ _ ____ _ ____ _ ____ _ ____
 72
    65
 73
     4
 40
10.16
 49
6.35
 74
     0
 49
-1.27
 74
     0
 49
1.27
 74
     0
 49
-1.27
 74
     0
  0
LTYPE
  5
42
330
5
100
AcDbSymbolTableRecord
100
AcDbLinetypeTableRecord
  2
CENTERX2
 70
     0
  3
Center (2x) ________  __  ________  __  _____
 72
    65
 73
     4
 40
20.32
 49
12.7
 74
     0
 49
-2.54
 74
     0
 49
2.54
 74
     0
 49
-2.54
 74
     0
  0
LTYPE
  5
43
330
5
100
AcDbSymbolTableRecord
100
AcDbLinetypeTableRecord
  2
DOT2
 70
     0
  3
Dot (.5x) ........................................
 72
    65
 73
     2
 40
0.635
 49
0.0
 74
     0
 49
-0.635
 74
     0
  0
ENDTAB
  0
TABLE
  2
LAYER
  5
2
330
0
100
AcDbSymbolTable
 70
     5
  0
LAYER
  5
10
330
2
100
AcDbSymbolTableRecord
100
AcDbLayerTableRecord
  2
0
 70
     0
 62
     7
  6
Continuous
370
    -3
390
F
  0
LAYER
  5
44
330
2
100
AcDbSymbolTableRecord
100
AcDbLayerTableRecord
  2
FORMAT
 70
     0
 62
     7
  6
Continuous
370
    -3
390
F
  0
LAYER
  5
45
330
2
100
AcDbSymbolTableRecord
100
AcDbLayerTableRecord
  2
VERMASSUNG
 70
     0
 62
     7
  6
Continuous
370
    -3
390
F
  0
LAYER
  5
46
330
2
100
AcDbSymbolTableRecord
100
AcDbLayerTableRecord
  2
KOPF_DÜNN
 70
     0
 62
     7
  6
Continuous
370
    -3
390
F
  0
LAYER
  5
47
330
2
100
AcDbSymbolTableRecord
100
AcDbLayerTableRecord
  2
KOPF_DICK
 70
     0
 62
     7
  6
Continuous
370
    15
390
F
  0
ENDTAB
  0
TABLE
  2
STYLE
  5
3
330
0
100
AcDbSymbolTable
 70
     2
  0
STYLE
  5
11
330
3
100
AcDbSymbolTableRecord
100
AcDbTextStyleTableRecord
  2
Standard
 70
     0
 40
0.0
 41
1.0
 50
0.0
 71
     0
 42
2.0
  3
txt
  4

  0
STYLE
  5
48
330
3
100
AcDbSymbolTableRecord
100
AcDbTextStyleTableRecord
  2
SLDTEXTSTYLE0
 70
     0
 40
0.0
 41
0.7
 50
0.0
 71
     0
 42
0.2
  3
TXT
  4

  0
ENDTAB
  0
TABLE
  2
VIEW
  5
6
330
0
100
AcDbSymbolTable
 70
     0
  0
ENDTAB
  0
TABLE
  2
UCS
  5
7
330
0
100
AcDbSymbolTable
 70
     0
  0
ENDTAB
  0
TABLE
  2
APPID
  5
9
330
0
100
AcDbSymbolTable
 70
     1
  0
APPID
  5
12
330
9
100
AcDbSymbolTableRecord
100
AcDbRegAppTableRecord
  2
ACAD
 70
     0
  0
ENDTAB
  0
TABLE
  2
DIMSTYLE
  5
A
330
0
100
AcDbSymbolTable
 70
     5
100
AcDbDimStyleTable
  0
DIMSTYLE
105
27
330
A
100
AcDbSymbolTableRecord
100
AcDbDimStyleTableRecord
  2
ISO-25
 70
     0
 41
2.5
 42
0.625
 43
3.75
 44
1.25
 73
     0
 74
     0
 77
     1
 78
     8
140
2.5
141
2.5
143
0.0393700787
147
0.625
171
     3
172
     1
178
     0
271
     2
272
     2
274
     3
278
    44
283
     0
284
     8
340
11
  0
DIMSTYLE
105
186
102
{ACAD_REACTORS
330
185
330
192
102
}
330
A
100
AcDbSymbolTableRecord
100
AcDbDimStyleTableRecord
  2
SLDDIMSTYLE0
 70
     0
 41
3.0
 44
0.0
 45
0.000000001
 47
0.1
 48
0.1
 71
     1
 73
     0
 74
     0
 77
     1
 78
    12
 79
     3
140
2.0
147
0.5
173
     1
178
     0
271
     2
272
     1
276
     2
284
     8
340
48
  0
DIMSTYLE
105
19F
102
{ACAD_REACTORS
330
19E
330
1B2
102
}
330
A
100
AcDbSymbolTableRecord
100
AcDbDimStyleTableRecord
  2
SLDDIMSTYLE1
 70
     0
 41
3.0
 44
0.0
 45
0.000000001
 73
     0
 74
     0
 77
     1
 78
    12
 79
     3
140
2.0
147
0.5
173
     1
178
     0
271
     2
272
     3
276
     2
284
    12
340
48
  0
DIMSTYLE
105
1AA
102
{ACAD_REACTORS
330
1A9
102
}
330
A
100
AcDbSymbolTableRecord
100
AcDbDimStyleTableRecord
  2
SLDDIMSTYLE2
 70
     0
 41
3.0
 44
0.0
 73
     0
 74
     0
 77
     1
 78
    12
 79
     3
140
2.0
147
0.5
173
     1
178
     0
179
     2
272
     3
276
     2
284
    12
340
48
  0
DIMSTYLE
105
1DB
102
{ACAD_REACTORS
330
1DA
102
}
330
A
100
AcDbSymbolTableRecord
100
AcDbDimStyleTableRecord
  2
SLDDIMSTYLE3
 70
     0
 41
3.0
 44
0.0
 45
0.000000001
 73
     0
 74
     0
 77
     1
 78
    12
 79
     3
140
2.0
147
0.5
172
     1
173
     1
178
     0
271
     2
272
     3
276
     2
284
    12
289
     0
340
48
  0
ENDTAB
  0
TABLE
  2
BLOCK_RECORD
  5
1
330
0
100
AcDbSymbolTable
 70
     8
  0
BLOCK_RECORD
  5
1F
330
1
100
AcDbSymbolTableRecord
100
AcDbBlockTableRecord
  2
*Model_Space
340
22
  0
BLOCK_RECORD
  5
1B
330
1
100
AcDbSymbolTableRecord
100
AcDbBlockTableRecord
  2
*Paper_Space
340
1E
  0
BLOCK_RECORD
  5
23
330
1
100
AcDbSymbolTableRecord
100
AcDbBlockTableRecord
  2
*Paper_Space0
340
26
  0
BLOCK_RECORD
  5
187
330
1
100
AcDbSymbolTableRecord
100
AcDbBlockTableRecord
  2
_D
340
0
  0
BLOCK_RECORD
  5
193
330
1
100
AcDbSymbolTableRecord
100
AcDbBlockTableRecord
  2
_D_1
340
0
  0
BLOCK_RECORD
  5
1A0
330
1
100
AcDbSymbolTableRecord
100
AcDbBlockTableRecord
  2
_D_2
340
0
  0
BLOCK_RECORD
  5
1AB
330
1
100
AcDbSymbolTableRecord
100
AcDbBlockTableRecord
  2
_D_3
340
0
  0
BLOCK_RECORD
  5
1B3
330
1
100
AcDbSymbolTableRecord
100
AcDbBlockTableRecord
  2
_D_4
340
0
  0
BLOCK_RECORD
  5
1DC
330
1
100
AcDbSymbolTableRecord
100
AcDbBlockTableRecord
  2
_D_5
340
0
  0
BLOCK_RECORD
  5
1E9
330
1
100
AcDbSymbolTableRecord
100
AcDbBlockTableRecord
  2
SW_CENTERMARKSYMBOL_0
340
0
102
{BLKREFS
331
1F4
102
}
  0
ENDTAB
  0
ENDSEC
  0
SECTION
  2
BLOCKS
  0
BLOCK
  5
20
330
1F
100
AcDbEntity
  8
0
100
AcDbBlockBegin
  2
*Model_Space
 70
     0
 10
0.0
 20
0.0
 30
0.0
  3
*Model_Space
  1

  0
ENDBLK
  5
21
330
1F
100
AcDbEntity
  8
0
100
AcDbBlockEnd
  0
BLOCK
  5
1C
330
1B
100
AcDbEntity
 67
     1
  8
0
100
AcDbBlockBegin
  2
*Paper_Space
 70
     0
 10
0.0
 20
0.0
 30
0.0
  3
*Paper_Space
  1

  0
ENDBLK
  5
1D
330
1B
100
AcDbEntity
 67
     1
  8
0
100
AcDbBlockEnd
  0
BLOCK
  5
24
330
23
100
AcDbEntity
  8
0
100
AcDbBlockBegin
  2
*Paper_Space0
 70
     0
 10
0.0
 20
0.0
 30
0.0
  3
*Paper_Space0
  1

  0
ENDBLK
  5
25
330
23
100
AcDbEntity
  8
0
100
AcDbBlockEnd
  0
BLOCK
  5
188
330
187
100
AcDbEntity
  8
0
100
AcDbBlockBegin
  2
_D
 70
     0
 10
0.0
 20
0.0
 30
0.0
  3
_D
  1

  0
SOLID
  5
18A
330
187
100
AcDbEntity
  8
VERMASSUNG
100
AcDbTrace
 10
256.0779659902
 20
151.9417997607
 30
0.0
 11
255.6279659902
 21
148.9417997607
 31
0.0
 12
256.5279659902
 22
148.9417997607
 32
0.0
 13
256.5279659902
 23
148.9417997607
 33
0.0
  0
SOLID
  5
18B
330
187
100
AcDbEntity
  8
VERMASSUNG
100
AcDbTrace
 10
256.0779659902
 20
116.9417997607
 30
0.0
 11
256.5279659902
 21
119.9417997607
 31
0.0
 12
255.6279659902
 22
119.9417997607
 32
0.0
 13
255.6279659902
 23
119.9417997607
 33
0.0
  0
LINE
  5
18C
330
187
100
AcDbEntity
  8
VERMASSUNG
100
AcDbLine
 10
240.0299328059
 20
151.9417997607
 30
0.0
 11
257.0779659902
 21
151.9417997607
 31
0.0
  0
LINE
  5
18D
330
187
100
AcDbEntity
  8
VERMASSUNG
100
AcDbLine
 10
240.0299328059
 20
116.9417997607
 30
0.0
 11
257.0779659902
 21
116.9417997607
 31
0.0
  0
LINE
  5
18E
330
187
100
AcDbEntity
  8
VERMASSUNG
100
AcDbLine
 10
256.0779659902
 20
151.9417997607
 30
0.0
 11
256.0779659902
 21
116.9417997607
 31
0.0
  0
MTEXT
  5
18F
330
187
100
AcDbEntity
  8
VERMASSUNG
100
AcDbMText
 10
253.4998306271
 20
129.8917995737
 30
0.1
 40
2.0
 41
0.0
 71
     1
 72
     1
  1
35
  7
SLDTEXTSTYLE0
 11
-7.044195017643634E-15
 21
1.0
 31
0.0
 73
     1
 44
1.0
  0
MTEXT
  5
190
330
187
100
AcDbEntity
  8
VERMASSUNG
100
AcDbMText
 10
253.4998306271
 20
135.6792996758
 30
0.1
 40
2.0
 41
0.0
 71
     1
 72
     1
  1

  7
SLDTEXTSTYLE0
 11
-7.044195017643634E-15
 21
1.0
 31
0.0
 73
     1
 44
1.0
  0
MTEXT
  5
191
330
187
100
AcDbEntity
  8
VERMASSUNG
100
AcDbMText
 10
253.9943644898
 20
135.6917999656
 30
0.1
 40
1.5
 41
0.0
 71
     1
 72
     1
  1
±0.1
  7
SLDTEXTSTYLE0
 11
-7.044195017643634E-15
 21
1.0
 31
0.0
 73
     1
 44
1.0
  0
ENDBLK
  5
189
330
187
100
AcDbEntity
  8
0
100
AcDbBlockEnd
  0
BLOCK
  5
194
330
193
100
AcDbEntity
  8
0
100
AcDbBlockBegin
  2
_D_1
 70
     0
 10
0.0
 20
0.0
 30
0.0
  3
_D_1
  1

  0
SOLID
  5
196
330
193
100
AcDbEntity
  8
VERMASSUNG
100
AcDbTrace
 10
180.0299328059
 20
159.8050444563
 30
0.0
 11
183.0299328059
 21
159.3550444563
 31
0.0
 12
183.0299328059
 22
160.2550444563
 32
0.0
 13
183.0299328059
 23
160.2550444563
 33
0.0
  0
SOLID
  5
197
330
193
100
AcDbEntity
  8
VERMASSUNG
100
AcDbTrace
 10
240.0299328059
 20
159.8050444563
 30
0.0
 11
237.0299328059
 21
160.2550444563
 31
0.0
 12
237.0299328059
 22
159.3550444563
 32
0.0
 13
237.0299328059
 23
159.3550444563
 33
0.0
  0
LINE
  5
198
330
193
100
AcDbEntity
  8
VERMASSUNG
100
AcDbLine
 10
180.0299328059
 20
141.6417997607
 30
0.0
 11
180.0299328059
 21
160.8050444563
 31
0.0
  0
LINE
  5
199
330
193
100
AcDbEntity
  8
VERMASSUNG
100
AcDbLine
 10
240.0299328059
 20
151.9417997607
 30
0.0
 11
240.0299328059
 21
160.8050444563
 31
0.0
  0
LINE
  5
19A
330
193
100
AcDbEntity
  8
VERMASSUNG
100
AcDbLine
 10
180.0299328059
 20
159.8050444563
 30
0.0
 11
240.0299328059
 21
159.8050444563
 31
0.0
  0
MTEXT
  5
19B
330
193
100
AcDbEntity
  8
VERMASSUNG
100
AcDbMText
 10
205.4799326189
 20
162.3831798194
 30
0.1
 40
2.0
 41
0.0
 71
     1
 72
     1
  1
60
  7
SLDTEXTSTYLE0
 73
     1
 44
1.0
  0
MTEXT
  5
19C
330
193
100
AcDbEntity
  8
VERMASSUNG
100
AcDbMText
 10
211.267432721
 20
162.3831798194
 30
0.1
 40
2.0
 41
0.0
 71
     1
 72
     1
  1

  7
SLDTEXTSTYLE0
 73
     1
 44
1.0
  0
MTEXT
  5
19D
330
193
100
AcDbEntity
  8
VERMASSUNG
100
AcDbMText
 10
211.2799330108
 20
161.8886459566
 30
0.1
 40
1.5
 41
0.0
 71
     1
 72
     1
  1
±0.1
  7
SLDTEXTSTYLE0
 73
     1
 44
1.0
  0
ENDBLK
  5
195
330
193
100
AcDbEntity
  8
0
100
AcDbBlockEnd
  0
BLOCK
  5
1A1
330
1A0
100
AcDbEntity
  8
0
100
AcDbBlockBegin
  2
_D_2
 70
     0
 10
0.0
 20
0.0
 30
0.0
  3
_D_2
  1

  0
SOLID
  5
1A3
330
1A0
100
AcDbEntity
  8
VERMASSUNG
100
AcDbTrace
 10
240.0299328059
 20
168.4975985999
 30
0.0
 11
237.0299328059
 21
168.9475985999
 31
0.0
 12
237.0299328059
 22
168.0475985999
 32
0.0
 13
237.0299328059
 23
168.0475985999
 33
0.0
  0
SOLID
  5
1A4
330
1A0
100
AcDbEntity
  8
VERMASSUNG
100
AcDbTrace
 10
150.0299328059
 20
168.4975985999
 30
0.0
 11
153.0299328059
 21
168.0475985999
 31
0.0
 12
153.0299328059
 22
168.9475985999
 32
0.0
 13
153.0299328059
 23
168.9475985999
 33
0.0
  0
LINE
  5
1A5
330
1A0
100
AcDbEntity
  8
VERMASSUNG
100
AcDbLine
 10
240.0299328059
 20
151.9417997607
 30
0.0
 11
240.0299328059
 21
169.4975985999
 31
0.0
  0
LINE
  5
1A6
330
1A0
100
AcDbEntity
  8
VERMASSUNG
100
AcDbLine
 10
150.0299328059
 20
132.9351255989
 30
0.0
 11
150.0299328059
 21
169.4975985999
 31
0.0
  0
LINE
  5
1A7
330
1A0
100
AcDbEntity
  8
VERMASSUNG
100
AcDbLine
 10
240.0299328059
 20
168.4975985999
 30
0.0
 11
150.0299328059
 21
168.4975985999
 31
0.0
  0
MTEXT
  5
1A8
330
1A0
100
AcDbEntity
  8
VERMASSUNG
100
AcDbMText
 10
192.7299327549
 20
171.075733963
 30
0.1
 40
2.0
 41
0.0
 71
     1
 72
     1
  1
90
  7
SLDTEXTSTYLE0
 73
     1
 44
1.0
  0
ENDBLK
  5
1A2
330
1A0
100
AcDbEntity
  8
0
100
AcDbBlockEnd
  0
BLOCK
  5
1AC
330
1AB
100
AcDbEntity
  8
0
100
AcDbBlockBegin
  2
_D_3
 70
     0
 10
0.0
 20
0.0
 30
0.0
  3
_D_3
  1

  0
ARC
  5
1AE
330
1AB
100
AcDbEntity
  8
VERMASSUNG
100
AcDbCircle
 10
240.051444856
 20
151.9417997607
 30
0.0
 40
9.102391018850575
100
AcDbArc
 50
267.0
 51
0.0
  0
SOLID
  5
1AF
330
1AB
100
AcDbEntity
  8
VERMASSUNG
100
AcDbTrace
 10
239.575062518
 20
142.8518832524
 30
0.0
 11
242.605941444
 21
142.7243178361
 31
0.0
 12
242.5099806355
 22
143.6191873926
 32
0.0
 13
242.5099806355
 23
143.6191873926
 33
0.0
  0
SOLID
  5
1B0
330
1AB
100
AcDbEntity
  8
VERMASSUNG
100
AcDbTrace
 10
249.1538358749
 20
151.9417997607
 30
0.0
 11
248.2339815522
 21
149.0510614424
 31
0.0
 12
249.1226025204
 22
148.9083982908
 32
0.0
 13
249.1226025204
 23
148.9083982908
 33
0.0
  0
MTEXT
  5
1B1
330
1AB
100
AcDbEntity
  8
VERMASSUNG
100
AcDbMText
 10
242.4388602716
 20
145.2130435137
 30
0.1
 40
2.0
 41
0.0
 71
     1
 72
     1
  1
93°
  7
SLDTEXTSTYLE0
 11
0.7253743710122855
 21
0.6883545756937562
 31
0.0
 73
     1
 44
1.0
  0
ENDBLK
  5
1AD
330
1AB
100
AcDbEntity
  8
0
100
AcDbBlockEnd
  0
BLOCK
  5
1B4
330
1B3
100
AcDbEntity
  8
0
100
AcDbBlockBegin
  2
_D_4
 70
     0
 10
0.0
 20
0.0
 30
0.0
  3
_D_4
  1

  0
SOLID
  5
1B6
330
1B3
100
AcDbEntity
  8
VERMASSUNG
100
AcDbTrace
 10
140.0299328059
 20
141.9417997607
 30
0.0
 11
139.5799328059
 21
138.9417997607
 31
0.0
 12
140.4799328059
 22
138.9417997607
 32
0.0
 13
140.4799328059
 23
138.9417997607
 33
0.0
  0
SOLID
  5
1B7
330
1B3
100
AcDbEntity
  8
VERMASSUNG
100
AcDbTrace
 10
140.0299328059
 20
91.9417997607
 30
0.0
 11
140.4799328059
 21
94.9417997607
 31
0.0
 12
139.5799328059
 22
94.9417997607
 32
0.0
 13
139.5799328059
 23
94.9417997607
 33
0.0
  0
LINE
  5
1B8
330
1B3
100
AcDbEntity
  8
VERMASSUNG
100
AcDbLine
 10
180.3299328059
 20
141.9417997607
 30
0.0
 11
139.0299328059
 21
141.9417997607
 31
0.0
  0
LINE
  5
1B9
330
1B3
100
AcDbEntity
  8
VERMASSUNG
100
AcDbLine
 10
180.3299328059
 20
91.9417997607
 30
0.0
 11
139.0299328059
 21
91.9417997607
 31
0.0
  0
LINE
  5
1BA
330
1B3
100
AcDbEntity
  8
VERMASSUNG
100
AcDbLine
 10
140.0299328059
 20
141.9417997607
 30
0.0
 11
140.0299328059
 21
91.9417997607
 31
0.0
  0
MTEXT
  5
1BB
330
1B3
100
AcDbEntity
  8
VERMASSUNG
100
AcDbMText
 10
137.2517973169
 20
110.5367996515
 30
0.35
 40
2.0
 41
0.0
 71
     1
 72
     1
  1
PSC
  7
SLDTEXTSTYLE0
 11
-7.044195017643634E-15
 21
1.0
 31
0.0
 73
     1
 44
1.0
  0
MTEXT
  5
1BC
330
1B3
100
AcDbEntity
  8
VERMASSUNG
100
AcDbMText
 10
137.4517973264
 20
115.1367997536
 30
0.35
 40
2.0
 41
0.0
 71
     1
 72
     1
  1
%%c
  7
SLDTEXTSTYLE0
 11
-7.044195017643634E-15
 21
1.0
 31
0.0
 73
     1
 44
1.0
  0
MTEXT
  5
1BD
330
1B3
100
AcDbEntity
  8
VERMASSUNG
100
AcDbMText
 10
137.2517973169
 20
118.7468002335
 30
0.35
 40
2.0
 41
0.0
 71
     1
 72
     1
  1
50
  7
SLDTEXTSTYLE0
 11
-7.044195017643634E-15
 21
1.0
 31
0.0
 73
     1
 44
1.0
  0
ENDBLK
  5
1B5
330
1B3
100
AcDbEntity
  8
0
100
AcDbBlockEnd
  0
BLOCK
  5
1DD
330
1DC
100
AcDbEntity
  8
0
100
AcDbBlockBegin
  2
_D_5
 70
     0
 10
0.0
 20
0.0
 30
0.0
  3
_D_5
  1

  0
SOLID
  5
1DF
330
1DC
100
AcDbEntity
  8
VERMASSUNG
100
AcDbTrace
 10
89.5161310829
 20
94.6977400435
 30
0.0
 11
91.1893652471
 21
92.1673670608
 31
0.0
 12
91.8581343009
 22
92.7696526682
 32
0.0
 13
91.8581343009
 23
92.7696526682
 33
0.0
  0
SOLID
  5
1E0
330
1DC
100
AcDbEntity
  8
VERMASSUNG
100
AcDbTrace
 10
46.0177261094
 20
142.9977272564
 30
0.0
 11
44.3444919451
 21
145.5281002391
 31
0.0
 12
43.6757228914
 22
144.9258146317
 32
0.0
 13
43.6757228914
 23
144.9258146317
 33
0.0
  0
LINE
  5
1E1
330
1DC
100
AcDbEntity
  8
VERMASSUNG
100
AcDbLine
 10
89.8128618788
 20
94.9649723364
 30
0.0
 11
88.7730543566
 21
94.0285338132
 31
0.0
  0
LINE
  5
1E2
330
1DC
100
AcDbEntity
  8
VERMASSUNG
100
AcDbLine
 10
46.3144569053
 20
143.2649595492
 30
0.0
 11
45.274649383
 21
142.328521026
 31
0.0
  0
LINE
  5
1E3
330
1DC
100
AcDbEntity
  8
VERMASSUNG
100
AcDbLine
 10
89.5161310829
 20
94.6977400435
 30
0.0
 11
93.5313684651
 21
90.2392796854
 31
0.0
  0
LINE
  5
1E4
330
1DC
100
AcDbEntity
  8
VERMASSUNG
100
AcDbLine
 10
89.5161310829
 20
94.6977400435
 30
0.0
 11
46.0177261094
 21
142.9977272564
 31
0.0
  0
LINE
  5
1E5
330
1DC
100
AcDbEntity
  8
VERMASSUNG
100
AcDbLine
 10
46.0177261094
 20
142.9977272564
 30
0.0
 11
35.8533977138
 21
154.284047567
 31
0.0
  0
MTEXT
  5
1E6
330
1DC
100
AcDbEntity
  8
VERMASSUNG
100
AcDbMText
 10
37.7691501861
 20
156.0093518926
 30
0.1
 40
2.0
 41
0.0
 71
     1
 72
     1
  1
%%c
  7
SLDTEXTSTYLE0
 11
0.6692062303620888
 21
-0.7430767263510296
 31
0.0
 73
     1
 44
1.0
  0
MTEXT
  5
1E7
330
1DC
100
AcDbEntity
  8
VERMASSUNG
100
AcDbMText
 10
40.3336000396
 20
153.4606861523
 30
0.1
 40
2.0
 41
0.0
 71
     1
 72
     1
  1
65
  7
SLDTEXTSTYLE0
 11
0.6692062303620888
 21
-0.7430767263510296
 31
0.0
 73
     1
 44
1.0
  0
MTEXT
  5
1E8
330
1DC
100
AcDbEntity
  8
VERMASSUNG
100
AcDbMText
 10
44.2066314777
 20
149.1601291766
 30
0.1
 40
2.0
 41
0.0
 71
     1
 72
     1
  1
min.
  7
SLDTEXTSTYLE0
 11
0.6692062303620888
 21
-0.7430767263510296
 31
0.0
 73
     1
 44
1.0
  0
ENDBLK
  5
1DE
330
1DC
100
AcDbEntity
  8
0
100
AcDbBlockEnd
  0
BLOCK
  5
1EA
330
1E9
100
AcDbEntity
  8
0
100
AcDbBlockBegin
  2
SW_CENTERMARKSYMBOL_0
 70
     0
 10
0.0
 20
0.0
 30
0.0
  3
SW_CENTERMARKSYMBOL_0
  1

  0
LINE
  5
1EC
330
1E9
100
AcDbEntity
  8
VERMASSUNG
 62
     0
100
AcDbLine
 10
0.0
 20
0.0
 30
0.0
 11
0.0
 21
2.5
 31
0.0
  0
LINE
  5
1ED
330
1E9
100
AcDbEntity
  8
VERMASSUNG
 62
     0
100
AcDbLine
 10
0.0
 20
0.0
 30
0.0
 11
-2.5
 21
0.0
 31
0.0
  0
LINE
  5
1EE
330
1E9
100
AcDbEntity
  8
VERMASSUNG
 62
     0
100
AcDbLine
 10
0.0
 20
0.0
 30
0.0
 11
0.0
 21
-2.5
 31
0.0
  0
LINE
  5
1EF
330
1E9
100
AcDbEntity
  8
VERMASSUNG
 62
     0
100
AcDbLine
 10
0.0
 20
0.0
 30
0.0
 11
2.5
 21
0.0
 31
0.0
  0
LINE
  5
1F0
330
1E9
100
AcDbEntity
  8
VERMASSUNG
 62
     0
100
AcDbLine
 10
0.0
 20
5.0
 30
0.0
 11
0.0
 21
27.5
 31
0.0
  0
LINE
  5
1F1
330
1E9
100
AcDbEntity
  8
VERMASSUNG
 62
     0
100
AcDbLine
 10
-5.0
 20
0.0
 30
0.0
 11
-27.5
 21
0.0
 31
0.0
  0
LINE
  5
1F2
330
1E9
100
AcDbEntity
  8
VERMASSUNG
 62
     0
100
AcDbLine
 10
0.0
 20
-5.0
 30
0.0
 11
0.0
 21
-27.5
 31
0.0
  0
LINE
  5
1F3
330
1E9
100
AcDbEntity
  8
VERMASSUNG
 62
     0
100
AcDbLine
 10
5.0
 20
0.0
 30
0.0
 11
27.5
 21
0.0
 31
0.0
  0
ENDBLK
  5
1EB
330
1E9
100
AcDbEntity
  8
0
100
AcDbBlockEnd
  0
ENDSEC
  0
SECTION
  2
ENTITIES
  0
MTEXT
  5
49
330
1F
100
AcDbEntity
  8
KOPF_DÜNN
100
AcDbMText
 10
13.8892156294
 20
23.8442973028
 30
0.0
 40
3.0
 41
0.0
 71
     1
 72
     1
  1
PS5.KDB.RUA.060
  7
SLDTEXTSTYLE0
 73
     1
 44
1.0
  0
MTEXT
  5
4A
330
1F
100
AcDbEntity
  8
VERMASSUNG
100
AcDbMText
 10
13.9329988022
 20
28.8834360957
 30
0.0
 40
3.0
 41
0.0
 71
     1
 72
     1
  1
Klemmhalter rechts_Turning tool right 93° /55°
  7
SLDTEXTSTYLE0
 73
     1
 44
1.0
  0
MTEXT
  5
4B
330
1F
100
AcDbEntity
  8
VERMASSUNG
100
AcDbMText
 10
98.8601118557
 20
13.8365368179
 30
0.0
 40
2.0
 41
0.0
 71
     1
 72
     1
  1
Datum: 27.04.2012
  7
SLDTEXTSTYLE0
 73
     1
 44
1.0
  0
MTEXT
  5
4C
330
1F
100
AcDbEntity
  8
VERMASSUNG
100
AcDbMText
 10
13.933048693
 20
18.0482802738
 30
0.0
 40
2.0
 41
0.0
 71
     1
 72
     1
  1
PSC ø50 / DC..11 T3..
  7
SLDTEXTSTYLE0
 73
     1
 44
1.0
  0
MTEXT
  5
4D
330
1F
100
AcDbEntity
  8
VERMASSUNG
100
AcDbMText
 10
13.9808475933
 20
13.9090973692
 30
0.0
 40
2.0
 41
0.0
 71
     1
 72
     1
  1
Gewicht: 733g
  7
SLDTEXTSTYLE0
 73
     1
 44
1.0
  0
ARC
  5
4E
330
1F
100
AcDbEntity
  8
0
  6
Continuous
 62
     7
370
    15
100
AcDbCircle
 10
198.0299328059
 20
128.8721896368
 30
0.0
 40
2.500000000000005
100
AcDbArc
 50
25.3918321236
 51
154.6081678764
  0
LINE
  5
4F
330
1F
100
AcDbEntity
  8
0
  6
Continuous
 62
     7
370
    15
100
AcDbLine
 10
211.0365700897
 20
141.9417997607
 30
0.0
 11
180.3299328059
 21
141.9417997607
 31
0.0
  0
LINE
  5
50
330
1F
100
AcDbEntity
  8
0
  6
Continuous
 62
     7
370
    15
100
AcDbLine
 10
180.3299328059
 20
91.9417997607
 30
0.0
 11
211.0481894142
 21
91.9417997607
 31
0.0
  0
ARC
  5
51
330
1F
100
AcDbEntity
  8
0
  6
Continuous
 62
     7
370
    15
100
AcDbCircle
 10
180.3299328059
 20
92.2417997607
 30
0.0
 40
0.2999999999999972
100
AcDbArc
 50
180.0
 51
270.0
  0
ARC
  5
52
330
1F
100
AcDbEntity
  8
0
  6
Continuous
 62
     7
370
    15
100
AcDbCircle
 10
180.3299328059
 20
141.6417997607
 30
0.0
 40
0.3000000000000398
100
AcDbArc
 50
90.0
 51
180.0
  0
LWPOLYLINE
  5
53
330
1F
100
AcDbEntity
  8
0
  6
Continuous
 62
     7
370
    15
100
AcDbPolyline
 90
        3
 70
   128
 43
0.0
 10
179.8299328059
 20
99.1019794818
 10
179.9553877494
 20
99.0336773669
 10
180.0299328059
 20
98.9809396088
  0
LWPOLYLINE
  5
54
330
1F
100
AcDbEntity
  8
0
  6
Continuous
 62
     7
370
    15
100
AcDbPolyline
 90
        3
 70
   128
 43
0.0
 10
180.0299328059
 20
134.9026599126
 10
179.9553877494
 20
134.8499221545
 10
179.8299328059
 20
134.7816200396
  0
LWPOLYLINE
  5
55
330
1F
100
AcDbEntity
  8
0
  6
Continuous
 62
     7
370
    15
100
AcDbPolyline
 90
        3
 70
   128
 43
0.0
 10
200.849602543
 20
131.5812150465
 10
200.9981005456
 20
131.0990903771
 10
201.0255071201
 20
130.8754839566
  0
ARC
  5
56
330
1F
100
AcDbEntity
  8
0
  6
Continuous
 62
     7
370
    15
100
AcDbCircle
 10
198.0591489962
 20
130.1509590679
 30
0.0
 40
3.135643978651803
100
AcDbArc
 50
27.1375549962
 51
163.5440186719
  0
ARC
  5
57
330
1F
100
AcDbEntity
  8
0
  6
Continuous
 62
     7
370
    15
100
AcDbCircle
 10
198.9399444982
 20
130.8229949316
 30
0.0
 40
1.949492546624318
100
AcDbArc
 50
340.4015778503
 51
24.2070189335
  0
LWPOLYLINE
  5
58
330
1F
100
AcDbEntity
  8
0
  6
Continuous
 62
     7
370
    15
100
AcDbPolyline
 90
       16
 70
   128
 43
0.0
 10
195.235811139
 20
130.3224089343
 10
195.1975368157
 20
130.4976376557
 10
195.1770152709
 20
130.9871223942
 10
195.2811799123
 20
131.4694057674
 10
195.5054782451
 20
131.9234096777
 10
195.8401073558
 20
132.3292919757
 10
196.2704423467
 20
132.6693136572
 10
196.7776755136
 20
132.9286141433
 10
197.3396383332
 20
133.0958607583
 10
197.9317703337
 20
133.1637440228
 10
198.5281925052
 20
133.1292971122
 10
199.102838337
 20
132.9940255219
 10
199.6305930486
 20
132.7638412695
 10
200.0883912269
 20
132.4488045113
 10
200.4562248945
 20
132.0626838655
 10
200.7180179553
 20
131.6223546569
  0
LWPOLYLINE
  5
59
330
1F
100
AcDbEntity
  8
0
  6
Continuous
 62
     7
370
    15
100
AcDbPolyline
 90
       29
 70
   128
 43
0.0
 10
200.3796575868
 20
131.5216547097
 10
200.5107098681
 20
131.0758174119
 10
200.5173656286
 20
130.6172701757
 10
200.3992911207
 20
130.1690064741
 10
200.1624070934
 20
129.753504121
 10
199.8185919009
 20
129.3915981393
 10
199.3850858725
 20
129.1014360062
 10
198.8836268108
 20
128.8975676626
 10
198.3393599669
 20
128.7902159185
 10
197.7795771532
 20
128.7847638387
 10
197.2323482172
 20
128.8814848132
 10
196.725113503
 20
129.0755288484
 10
196.2833078771
 20
129.3571657662
 10
195.9290853183
 20
129.7122731156
 10
195.680208025
 20
130.1230443311
 10
195.5491557438
 20
130.5688816289
 10
195.5424999833
 20
131.0274288651
 10
195.6605744911
 20
131.4756925667
 10
195.8974585184
 20
131.8911949198
 10
196.241273711
 20
132.2531009015
 10
196.6747797393
 20
132.5432630346
 10
197.176238801
 20
132.7471313782
 10
197.7205056449
 20
132.8544831223
 10
198.2802884587
 20
132.8599352021
 10
198.8275173946
 20
132.7632142276
 10
199.3347521088
 20
132.5691701924
 10
199.7765577348
 20
132.2875332746
 10
200.1307802935
 20
131.9324259252
 10
200.3796575868
 20
131.5216547097
  0
SPLINE
  5
5A
330
1F
100
AcDbEntity
  8
0
  6
Continuous
 62
     7
370
    15
100
AcDbSpline
210
0.0
220
0.0
230
1.0
 70
     8
 71
     3
 72
    70
 73
    66
 74
     0
 42
0.00000001
 43
0.00000001
 12
1.0
 22
0.0
 32
0.0
 13
1.0
 23
0.0
 33
0.0
 40
-0.0312500000000002
 40
-0.0312500000000002
 40
0.0
 40
0.0
 40
0.03125
 40
0.03125
 40
0.0624999999999999
 40
0.0624999999999999
 40
0.0937499999999999
 40
0.0937499999999999
 40
0.1249999999999999
 40
0.1249999999999999
 40
0.1562499999999998
 40
0.1562499999999998
 40
0.1874999999999998
 40
0.1874999999999998
 40
0.2187499999999998
 40
0.2187499999999998
 40
0.2499999999999997
 40
0.2499999999999997
 40
0.2812499999999997
 40
0.2812499999999997
 40
0.3124999999999997
 40
0.3124999999999997
 40
0.3437499999999996
 40
0.3437499999999996
 40
0.3749999999999996
 40
0.3749999999999996
 40
0.4062499999999996
 40
0.4062499999999996
 40
0.4374999999999995
 40
0.4374999999999995
 40
0.4687499999999995
 40
0.4687499999999995
 40
0.4999999999999994
 40
0.4999999999999994
 40
0.5312499999999994
 40
0.5312499999999994
 40
0.5624999999999993
 40
0.5624999999999993
 40
0.5937499999999993
 40
0.5937499999999993
 40
0.6249999999999993
 40
0.6249999999999993
 40
0.6562499999999992
 40
0.6562499999999992
 40
0.6874999999999992
 40
0.6874999999999992
 40
0.7187499999999992
 40
0.7187499999999992
 40
0.7499999999999991
 40
0.7499999999999991
 40
0.7812499999999991
 40
0.7812499999999991
 40
0.8124999999999991
 40
0.8124999999999991
 40
0.8437499999999991
 40
0.8437499999999991
 40
0.8749999999999992
 40
0.8749999999999992
 40
0.9062499999999994
 40
0.9062499999999994
 40
0.9374999999999997
 40
0.9374999999999997
 40
0.9687499999999998
 40
0.9687499999999998
 40
1.0
 40
1.0
 40
1.03125
 40
1.03125
 10
197.8315468919785
 20
133.6350486658671
 30
0.0
 10
198.2283187198576
 20
133.6350486658671
 30
0.0
 10
198.4233534089987
 20
133.6204514467829
 30
0.0
 10
198.8070055886841
 20
133.5631295434802
 30
0.0
 10
198.9976247175555
 20
133.5196968746774
 30
0.0
 10
199.3608390791368
 20
133.4059365101143
 30
0.0
 10
199.5330787206478
 20
133.3361522738975
 30
0.0
 10
199.859048782125
 20
133.1703486894336
 30
0.0
 10
200.0132480040274
 20
133.0735085936302
 30
0.0
 10
200.2897012482697
 20
132.8605090214995
 30
0.0
 10
200.4138198028988
 20
132.7436034424867
 30
0.0
 10
200.6331372059041
 20
132.4876079320187
 30
0.0
 10
200.7262264314855
 20
132.3505331702027
 30
0.0
 10
200.8759033787665
 20
132.0644258914902
 30
0.0
 10
200.9335905392158
 20
131.9132723772221
 30
0.0
 10
201.0107244302122
 20
131.6012026874269
 30
0.0
 10
201.0298239799016
 20
131.4429875031168
 30
0.0
 10
201.0300407133889
 20
131.1221533754945
 30
0.0
 10
201.0105278987632
 20
130.9578258220767
 30
0.0
 10
200.9339268556839
 20
130.6373708855798
 30
0.0
 10
200.877251690671
 20
130.4803257627342
 30
0.0
 10
200.7269024777266
 20
130.1730504343911
 30
0.0
 10
200.6330465736854
 20
130.0235535245364
 30
0.0
 10
200.4160165063441
 20
129.7449712519576
 30
0.0
 10
200.2919986594166
 20
129.6140719777351
 30
0.0
 10
200.0121834370944
 20
129.3710064468761
 30
0.0
 10
199.8608550809368
 20
129.2626985765149
 30
0.0
 10
199.5361894112005
 20
129.0722148462998
 30
0.0
 10
199.360767792934
 20
128.9893650033482
 30
0.0
 10
198.9975864052949
 20
128.8563505119108
 30
0.0
 10
198.8105986872159
 20
128.8059767205054
 30
0.0
 10
198.4258744854317
 20
128.7377230308769
 30
0.0
 10
198.226918618913
 20
128.7202016293096
 30
0.0
 10
197.8351895693304
 20
128.7200715433159
 30
0.0
 10
197.6404009041565
 20
128.7368977075038
 30
0.0
 10
197.2530263264526
 20
128.8050060171034
 30
0.0
 10
197.0637026386102
 20
128.8559932524339
 30
0.0
 10
196.702562239618
 20
128.9879343021033
 30
0.0
 10
196.5279753554931
 20
129.0699129705718
 30
0.0
 10
196.2000661763062
 20
129.2618623240012
 30
0.0
 10
196.049054503985
 20
129.3701332818218
 30
0.0
 10
195.7722354393524
 20
129.6099648504504
 30
0.0
 10
195.6454889601123
 20
129.7430809414325
 30
0.0
 10
195.4276080100227
 20
130.0223285461892
 30
0.0
 10
195.3353099855683
 20
130.1690139201993
 30
0.0
 10
195.1843381652167
 20
130.4760622590469
 30
0.0
 10
195.1264188911223
 20
130.6360090664674
 30
0.0
 10
195.0497763166067
 20
130.9553518870703
 30
0.0
 10
195.0301156651557
 20
131.11644960556
 30
0.0
 10
195.0297524608336
 20
131.4414721980048
 30
0.0
 10
195.0490607584507
 20
131.5999378817698
 30
0.0
 10
195.125028099518
 20
131.9091505525278
 30
0.0
 10
195.1826244936594
 20
132.0614951804828
 30
0.0
 10
195.3329405591712
 20
132.349566358616
 30
0.0
 10
195.424947461278
 20
132.4850578264509
 30
0.0
 10
195.6423781279039
 20
132.7397820570887
 30
0.0
 10
195.768831352741
 20
132.8593328493074
 30
0.0
 10
196.0450882975521
 20
133.0724778900679
 30
0.0
 10
196.195891859865
 20
133.1675390627474
 30
0.0
 10
196.5235989298086
 20
133.3348278417571
 30
0.0
 10
196.6978213122636
 20
133.4054162872356
 30
0.0
 10
197.0585880891873
 20
133.5186936332848
 30
0.0
 10
197.2475624671303
 20
133.5621712442076
 30
0.0
 10
197.6354060892365
 20
133.6204502356607
 30
0.0
 10
197.8315468919785
 20
133.6350486658671
 30
0.0
 10
198.2283187198576
 20
133.6350486658671
 30
0.0
  0
SPLINE
  5
5B
330
1F
100
AcDbEntity
  8
0
  6
Continuous
 62
     7
370
    15
100
AcDbSpline
210
0.0
220
0.0
230
1.0
 70
     8
 71
     3
 72
    12
 73
     8
 74
     0
 42
0.00000001
 43
0.00000001
 12
1.0
 22
0.0
 32
0.0
 13
1.0
 23
0.0
 33
0.0
 40
0.0
 40
0.0
 40
0.0
 40
0.0
 40
0.5000000000000004
 40
0.5000000000000004
 40
0.7500000000000002
 40
0.7500000000000002
 40
1.0
 40
1.0
 40
1.0
 40
1.0
 10
188.1246769175923
 20
125.0382527587504
 30
0.0
 10
188.1553763009596
 20
124.9239170916865
 30
0.0
 10
188.1967263690661
 20
124.8125637388451
 30
0.0
 10
188.2964822972855
 20
124.6598269665964
 30
0.0
 10
188.3361792150182
 20
124.6119670807443
 30
0.0
 10
188.4334373666659
 20
124.5373639673948
 30
0.0
 10
188.4942135246566
 20
124.5106097298867
 30
0.0
 10
188.5576896194845
 20
124.5106097298867
 30
0.0
  0
LINE
  5
5C
330
1F
100
AcDbEntity
  8
0
  6
Continuous
 62
     7
370
    15
100
AcDbLine
 10
188.5576896195
 20
124.5106097299
 30
0.0
 11
191.5021759924
 21
124.5106097299
 31
0.0
  0
SPLINE
  5
5D
330
1F
100
AcDbEntity
  8
0
  6
Continuous
 62
     7
370
    15
100
AcDbSpline
210
0.0
220
0.0
230
1.0
 70
     8
 71
     3
 72
    12
 73
     8
 74
     0
 42
0.00000001
 43
0.00000001
 12
1.0
 22
0.0
 32
0.0
 13
1.0
 23
0.0
 33
0.0
 40
0.0
 40
0.0
 40
0.0
 40
0.0
 40
0.2500000000000009
 40
0.2500000000000009
 40
0.5000000000000018
 40
0.5000000000000018
 40
1.0
 40
1.0
 40
1.0
 40
1.0
 10
191.5021759923516
 20
124.5106097298867
 30
0.0
 10
191.5658412288821
 20
124.5106097298867
 30
0.0
 10
191.6254474611055
 20
124.5366818783664
 30
0.0
 10
191.7241079860363
 20
124.6122206291875
 30
0.0
 10
191.7630749760516
 20
124.6594715662838
 30
0.0
 10
191.862461807976
 20
124.8112953842502
 30
0.0
 10
191.9045380553995
 20
124.9240986340153
 30
0.0
 10
191.9351886942438
 20
125.0382527587504
 30
0.0
  0
ELLIPSE
  5
5E
330
1F
100
AcDbEntity
  8
0
  6
Continuous
 62
     7
370
    15
100
AcDbEllipse
 10
178.9736751509
 20
116.9417997607
 30
0.0
 11
11.70927234972706
 21
24.67718644093742
 31
0.0
210
0.0
220
0.0
230
1.0
 40
0.3419987131
 41
5.203068809370452
 42
6.114256032590495
  0
SPLINE
  5
5F
330
1F
100
AcDbEntity
  8
0
  6
Continuous
 62
     7
370
    15
100
AcDbSpline
210
0.0
220
0.0
230
1.0
 70
     8
 71
     3
 72
    12
 73
     8
 74
     0
 42
0.00000001
 43
0.00000001
 12
1.0
 22
0.0
 32
0.0
 13
1.0
 23
0.0
 33
0.0
 40
0.0
 40
0.0
 40
0.0
 40
0.0
 40
0.4999999999999972
 40
0.4999999999999972
 40
0.7499999999999986
 40
0.7499999999999986
 40
1.0
 40
1.0
 40
1.0
 40
1.0
 10
191.9351886942438
 20
140.5944412379378
 30
0.0
 10
191.9044893108765
 20
140.6335790803338
 30
0.0
 10
191.86313924277
 20
140.6707388630592
 30
0.0
 10
191.7633833145506
 20
140.720675368687
 30
0.0
 10
191.7236863968178
 20
140.7361282388308
 30
0.0
 10
191.6264282451702
 20
140.7600477824298
 30
0.0
 10
191.5656520871796
 20
140.7685308762082
 30
0.0
 10
191.5021759923516
 20
140.7685308762082
 30
0.0
  0
LINE
  5
60
330
1F
100
AcDbEntity
  8
0
  6
Continuous
 62
     7
370
    15
100
AcDbLine
 10
191.5021759924
 20
140.7685308762
 30
0.0
 11
188.5576896195
 21
140.7685308762
 31
0.0
  0
SPLINE
  5
61
330
1F
100
AcDbEntity
  8
0
  6
Continuous
 62
     7
370
    15
100
AcDbSpline
210
0.0
220
0.0
230
1.0
 70
     8
 71
     3
 72
    12
 73
     8
 74
     0
 42
0.00000001
 43
0.00000001
 12
1.0
 22
0.0
 32
0.0
 13
1.0
 23
0.0
 33
0.0
 40
0.0
 40
0.0
 40
0.0
 40
0.0
 40
0.2499999999999993
 40
0.2499999999999993
 40
0.4999999999999987
 40
0.4999999999999987
 40
1.0
 40
1.0
 40
1.0
 40
1.0
 10
188.5576896194845
 20
140.7685308762082
 30
0.0
 10
188.494024382954
 20
140.7685308762082
 30
0.0
 10
188.4344181507306
 20
140.7602661005423
 30
0.0
 10
188.3357576257998
 20
140.7360473189592
 30
0.0
 10
188.2967906357846
 20
140.72078999965
 30
0.0
 10
188.1974038038601
 20
140.6711566453881
 30
0.0
 10
188.1553275564366
 20
140.633516937214
 30
0.0
 10
188.1246769175923
 20
140.5944412379378
 30
0.0
  0
ELLIPSE
  5
62
330
1F
100
AcDbEntity
  8
0
  6
Continuous
 62
     7
370
    15
100
AcDbEllipse
 10
201.0861904609
 20
116.9417997607
 30
0.0
 11
-11.70927234972698
 21
24.67718644093743
 31
0.0
210
0.0
220
0.0
230
1.0
 40
0.3419987131
 41
0.1689292745891354
 42
1.08011649780915
  0
SPLINE
  5
63
330
1F
100
AcDbEntity
  8
0
  6
Continuous
 62
     7
370
    15
100
AcDbSpline
210
0.0
220
0.0
230
1.0
 70
     8
 71
     3
 72
    12
 73
     8
 74
     0
 42
0.00000001
 43
0.00000001
 12
1.0
 22
0.0
 32
0.0
 13
1.0
 23
0.0
 33
0.0
 40
0.0
 40
0.0
 40
0.0
 40
0.0
 40
0.5000000000000013
 40
0.5000000000000013
 40
0.7500000000000007
 40
0.7500000000000007
 40
1.0
 40
1.0
 40
1.0
 40
1.0
 10
188.1246769175923
 20
93.28915828347463
 30
0.0
 10
188.1555286281565
 20
93.24982624311215
 30
0.0
 10
188.1974214916171
 20
93.21241447758386
 30
0.0
 10
188.2969423694103
 20
93.16274355296797
 30
0.0
 10
188.3365565341346
 20
93.14735447036014
 30
0.0
 10
188.4336595679141
 20
93.12352125469288
 30
0.0
 10
188.4941582405645
 20
93.11506864520409
 30
0.0
 10
188.5576896194844
 20
93.11506864520408
 30
0.0
  0
LINE
  5
64
330
1F
100
AcDbEntity
  8
0
  6
Continuous
 62
     7
370
    15
100
AcDbLine
 10
188.5576896195
 20
93.1150686452
 30
0.0
 11
191.5021759924
 21
93.1150686452
 31
0.0
  0
SPLINE
  5
65
330
1F
100
AcDbEntity
  8
0
  6
Continuous
 62
     7
370
    15
100
AcDbSpline
210
0.0
220
0.0
230
1.0
 70
     8
 71
     3
 72
    12
 73
     8
 74
     0
 42
0.00000001
 43
0.00000001
 12
1.0
 22
0.0
 32
0.0
 13
1.0
 23
0.0
 33
0.0
 40
0.0
 40
0.0
 40
0.0
 40
0.0
 40
0.25
 40
0.25
 40
0.5
 40
0.5
 40
1.0
 40
1.0
 40
1.0
 40
1.0
 10
191.5021759923516
 20
93.1150686452043
 30
0.0
 10
191.5658125465653
 20
93.1150686452043
 30
0.0
 10
191.6253926734315
 20
93.12332541613605
 30
0.0
 10
191.7240294147979
 20
93.14752747814389
 30
0.0
 10
191.7629880391782
 20
93.162774297178
 30
0.0
 10
191.8623669786861
 20
93.21237916923813
 30
0.0
 10
191.9043248838515
 20
93.24981081735694
 30
0.0
 10
191.935188694244
 20
93.28915828347462
 30
0.0
  0
ELLIPSE
  5
66
330
1F
100
AcDbEntity
  8
0
  6
Continuous
 62
     7
370
    15
100
AcDbEllipse
 10
178.9736751509
 20
116.9417997607
 30
0.0
 11
-11.7092723497272
 21
24.67718644093742
 31
0.0
210
0.0
220
0.0
230
1.0
 40
0.3419987131
 41
3.310521928178952
 42
4.221709151398942
  0
SPLINE
  5
67
330
1F
100
AcDbEntity
  8
0
  6
Continuous
 62
     7
370
    15
100
AcDbSpline
210
0.0
220
0.0
230
1.0
 70
     8
 71
     3
 72
    12
 73
     8
 74
     0
 42
0.00000001
 43
0.00000001
 12
1.0
 22
0.0
 32
0.0
 13
1.0
 23
0.0
 33
0.0
 40
0.0
 40
0.0
 40
0.0
 40
0.0
 40
0.4999999999999996
 40
0.4999999999999996
 40
0.7499999999999998
 40
0.7499999999999998
 40
1.0
 40
1.0
 40
1.0
 40
1.0
 10
191.9351886942438
 20
108.8453467626619
 30
0.0
 10
191.9043369836796
 20
108.9602497515987
 30
0.0
 10
191.862444120219
 20
109.0723886476476
 30
0.0
 10
191.7629232424258
 20
109.2243309292485
 30
0.0
 10
191.7233090777015
 20
109.2719955387734
 30
0.0
 10
191.626206043922
 20
109.3463318693888
 30
0.0
 10
191.5657073712716
 20
109.3729897915259
 30
0.0
 10
191.5021759923517
 20
109.3729897915259
 30
0.0
  0
LINE
  5
68
330
1F
100
AcDbEntity
  8
0
  6
Continuous
 62
     7
370
    15
100
AcDbLine
 10
191.5021759924
 20
109.3729897915
 30
0.0
 11
188.5576896195
 21
109.3729897915
 31
0.0
  0
SPLINE
  5
69
330
1F
100
AcDbEntity
  8
0
  6
Continuous
 62
     7
370
    15
100
AcDbSpline
210
0.0
220
0.0
230
1.0
 70
     8
 71
     3
 72
    12
 73
     8
 74
     0
 42
0.00000001
 43
0.00000001
 12
1.0
 22
0.0
 32
0.0
 13
1.0
 23
0.0
 33
0.0
 40
0.0
 40
0.0
 40
0.0
 40
0.0
 40
0.2500000000000007
 40
0.2500000000000007
 40
0.5000000000000014
 40
0.5000000000000014
 40
1.0
 40
1.0
 40
1.0
 40
1.0
 10
188.5576896194845
 20
109.3729897915255
 30
0.0
 10
188.4940530652708
 20
109.3729897915255
 30
0.0
 10
188.4344729384046
 20
109.3469428884676
 30
0.0
 10
188.3358361970382
 20
109.2714557295676
 30
0.0
 10
188.2968775726579
 20
109.2242366910369
 30
0.0
 10
188.19749863315
 20
109.0724970399434
 30
0.0
 10
188.1555407279845
 20
108.9602948157592
 30
0.0
 10
188.1246769175921
 20
108.845346762662
 30
0.0
  0
ELLIPSE
  5
6A
330
1F
100
AcDbEntity
  8
0
  6
Continuous
 62
     7
370
    15
100
AcDbEllipse
 10
201.0861904609
 20
116.9417997607
 30
0.0
 11
11.70927234972706
 21
24.67718644093745
 31
0.0
210
0.0
220
0.0
230
1.0
 40
0.3419987131
 41
2.061476155780653
 42
2.972663379000666
  0
SPLINE
  5
6B
330
1F
100
AcDbEntity
  8
0
  6
Continuous
 62
     7
370
    15
100
AcDbSpline
210
0.0
220
0.0
230
1.0
 70
     8
 71
     3
 72
    18
 73
    14
 74
     0
 42
0.00000001
 43
0.00000001
 12
1.0
 22
0.0
 32
0.0
 13
1.0
 23
0.0
 33
0.0
 40
0.0
 40
0.0
 40
0.0
 40
0.0
 40
0.2500000000000002
 40
0.2500000000000002
 40
0.5000000000000003
 40
0.5000000000000003
 40
0.6250000000000016
 40
0.6250000000000016
 40
0.7500000000000028
 40
0.7500000000000028
 40
0.8750000000000013
 40
0.8750000000000013
 40
1.0
 40
1.0
 40
1.0
 40
1.0
 10
209.4341362909877
 20
141.8676895712565
 30
0.0
 10
209.5178866479347
 20
141.8918100216
 30
0.0
 10
209.6487984114605
 20
141.9084135363002
 30
0.0
 10
210.0047757781447
 20
141.9311133858901
 30
0.0
 10
210.2223252232492
 20
141.9367074094345
 30
0.0
 10
210.6029825769014
 20
141.9408184582321
 30
0.0
 10
210.7381491412083
 20
141.9414498717167
 30
0.0
 10
211.0181605080438
 20
141.9419200075733
 30
0.0
 10
211.1639258279097
 20
141.9417669343769
 30
0.0
 10
211.4672197237309
 20
141.94123138738
 30
0.0
 10
211.6243657166979
 20
141.9408508802764
 30
0.0
 10
211.9403492235703
 20
141.940263853321
 30
0.0
 10
212.1004121156728
 20
141.9400541526603
 30
0.0
 10
212.2626058179391
 20
141.9400092922348
 30
0.0
  0
ELLIPSE
  5
6C
330
1F
100
AcDbEntity
  8
0
  6
Continuous
 62
     7
370
    15
100
AcDbEllipse
 10
209.9495480482
 20
116.9417997607
 30
0.0
 11
0.0
 21
25.0
 31
0.0
210
0.0
220
0.0
230
1.0
 40
0.2679491924
 41
0.077017833721855
 42
3.064574819867939
  0
SPLINE
  5
6D
330
1F
100
AcDbEntity
  8
0
  6
Continuous
 62
     7
370
    15
100
AcDbSpline
210
0.0
220
0.0
230
1.0
 70
     8
 71
     3
 72
    18
 73
    14
 74
     0
 42
0.00000001
 43
0.00000001
 12
1.0
 22
0.0
 32
0.0
 13
1.0
 23
0.0
 33
0.0
 40
0.0
 40
0.0
 40
0.0
 40
0.0
 40
0.2499999999999982
 40
0.2499999999999982
 40
0.4999999999999989
 40
0.4999999999999989
 40
0.6249999999999992
 40
0.6249999999999992
 40
0.7499999999999994
 40
0.7499999999999994
 40
0.8749999999999998
 40
0.8749999999999998
 40
1.0
 40
1.0
 40
1.0
 40
1.0
 10
212.2626058179391
 20
91.94359022917779
 30
0.0
 10
211.9382122553981
 20
91.94350050662356
 30
0.0
 10
211.6237381187978
 20
91.94264796622318
 30
0.0
 10
211.0144707762213
 20
91.94156526704394
 30
0.0
 10
210.7330927772333
 20
91.9414025420215
 30
0.0
 10
210.3521857367581
 20
91.9454765493814
 30
0.0
 10
210.2330862293231
 20
91.94758307300467
 30
0.0
 10
210.0163259179023
 20
91.95387898686607
 30
0.0
 10
209.9176641476043
 20
91.95807451710662
 30
0.0
 10
209.7401489677876
 20
91.96932808794556
 30
0.0
 10
209.6616871196384
 20
91.97640923150736
 30
0.0
 10
209.5300134706671
 20
91.9936505462418
 30
0.0
 10
209.4760124375173
 20
92.00384944618013
 30
0.0
 10
209.4341362909877
 20
92.01590995015606
 30
0.0
  0
LINE
  5
6E
330
1F
100
AcDbEntity
  8
0
  6
Continuous
 62
     7
370
    15
100
AcDbLine
 10
180.0299328059
 20
92.2417997607
 30
0.0
 11
180.0299328059
 21
141.6417997607
 31
0.0
  0
ELLIPSE
  5
6F
330
1F
100
AcDbEntity
  8
0
  6
Continuous
 62
     7
370
    15
100
AcDbEllipse
 10
207.507295127
 20
130.9587922083
 30
0.0
 11
0.206987687708903
 21
3.097652266562733
 31
0.0
210
0.0
220
0.0
230
1.0
 40
0.2251679941
 41
0.0
 42
6.283185307179586
  0
SPLINE
  5
70
330
1F
100
AcDbEntity
  8
0
  6
Continuous
 62
     7
370
    15
100
AcDbSpline
210
0.0
220
0.0
230
1.0
 70
     8
 71
     3
 72
    16
 73
    12
 74
     0
 42
0.00000001
 43
0.00000001
 12
1.0
 22
0.0
 32
0.0
 13
1.0
 23
0.0
 33
0.0
 40
0.0
 40
0.0
 40
0.0
 40
0.0
 40
0.2499999999999998
 40
0.2499999999999998
 40
0.4999999999999997
 40
0.4999999999999997
 40
0.6249999999999999
 40
0.6249999999999999
 40
0.7500000000000001
 40
0.7500000000000001
 40
1.0
 40
1.0
 40
1.0
 40
1.0
 10
178.989071777789
 20
99.5926424795137
 30
0.0
 10
179.0207997389817
 20
99.59184536269278
 30
0.0
 10
179.0554273293322
 20
99.59125428783751
 30
0.0
 10
179.1351210913958
 20
99.59024276240305
 30
0.0
 10
179.1801625513995
 20
99.58984265422816
 30
0.0
 10
179.26301527825
 20
99.58888478232433
 30
0.0
 10
179.2929297394498
 20
99.5885031010639
 30
0.0
 10
179.3589160700078
 20
99.58742688700536
 30
0.0
 10
179.3956496954696
 20
99.58670932111123
 30
0.0
 10
179.5081464150393
 20
99.58394844342958
 30
0.0
 10
179.5784877631376
 20
99.58146135155799
 30
0.0
 10
179.6349559170428
 20
99.57928807315088
 30
0.0
  0
SPLINE
  5
71
330
1F
100
AcDbEntity
  8
0
  6
Continuous
 62
     7
370
    15
100
AcDbSpline
210
0.0
220
0.0
230
1.0
 70
     8
 71
     3
 72
    14
 73
    10
 74
     0
 42
0.00000001
 43
0.00000001
 12
1.0
 22
0.0
 32
0.0
 13
1.0
 23
0.0
 33
0.0
 40
0.0
 40
0.0
 40
0.0
 40
0.0
 40
0.1249999999999985
 40
0.1249999999999985
 40
0.249999999999997
 40
0.249999999999997
 40
0.5000000000000018
 40
0.5000000000000018
 40
1.0
 40
1.0
 40
1.0
 40
1.0
 10
179.6349559170112
 20
99.5792880731736
 30
0.0
 10
179.647547710956
 20
99.57880345535125
 30
0.0
 10
179.66241881925
 20
99.5770932774189
 30
0.0
 10
179.6946029106832
 20
99.56897772866805
 30
0.0
 10
179.710207042159
 20
99.5627619404067
 30
0.0
 10
179.7460941818711
 20
99.54454282870515
 30
0.0
 10
179.7599462231398
 20
99.5327778003715
 30
0.0
 10
179.7934359650724
 20
99.50098266395422
 30
0.0
 10
179.8040982256481
 20
99.48318923211107
 30
0.0
 10
179.8122361825431
 20
99.46675810126668
 30
0.0
  0
LINE
  5
72
330
1F
100
AcDbEntity
  8
0
  6
Continuous
 62
     7
370
    15
100
AcDbLine
 10
179.8299328059
 20
110.9573195281
 30
0.0
 11
179.8299328059
 21
99.1019794818
 31
0.0
  0
SPLINE
  5
73
330
1F
100
AcDbEntity
  8
0
  6
Continuous
 62
     7
370
    15
100
AcDbSpline
210
0.0
220
0.0
230
1.0
 70
     8
 71
     3
 72
    16
 73
    12
 74
     0
 42
0.00000001
 43
0.00000001
 12
1.0
 22
0.0
 32
0.0
 13
1.0
 23
0.0
 33
0.0
 40
0.0
 40
0.0
 40
0.0
 40
0.0
 40
0.499999999999997
 40
0.499999999999997
 40
0.7499999999999956
 40
0.7499999999999956
 40
0.8749999999999964
 40
0.8749999999999964
 40
0.9374999999999982
 40
0.9374999999999982
 40
1.0
 40
1.0
 40
1.0
 40
1.0
 10
179.829932805918
 20
110.9573195281317
 30
0.0
 10
179.829932805918
 20
111.0718492588307
 30
0.0
 10
179.825875503803
 20
111.1871653340202
 30
0.0
 10
179.8002182610082
 20
111.3620884238477
 30
0.0
 10
179.7889028152661
 20
111.4219177268426
 30
0.0
 10
179.7548714479574
 20
111.5065089130908
 30
0.0
 10
179.7409924667536
 20
111.5351784992349
 30
0.0
 10
179.7050567849863
 20
111.5649862861811
 30
0.0
 10
179.6901064657235
 20
111.5713214395408
 30
0.0
 10
179.6602079529817
 20
111.5700959766705
 30
0.0
 10
179.6466750926164
 20
111.5634973906357
 30
0.0
 10
179.6349559170424
 20
111.5548497025793
 30
0.0
  0
SPLINE
  5
74
330
1F
100
AcDbEntity
  8
0
  6
Continuous
 62
     7
370
    15
100
AcDbSpline
210
0.0
220
0.0
230
1.0
 70
     8
 71
     3
 72
    14
 73
    10
 74
     0
 42
0.00000001
 43
0.00000001
 12
1.0
 22
0.0
 32
0.0
 13
1.0
 23
0.0
 33
0.0
 40
0.0
 40
0.0
 40
0.0
 40
0.0
 40
0.25
 40
0.25
 40
0.5
 40
0.5
 40
0.75
 40
0.75
 40
1.0
 40
1.0
 40
1.0
 40
1.0
 10
179.6349559170492
 20
111.5548497025706
 30
0.0
 10
179.5784962511655
 20
111.5131875928718
 30
0.0
 10
179.5076237763033
 20
111.4823541122836
 30
0.0
 10
179.3591574184213
 20
111.4880686208968
 30
0.0
 10
179.2899622152135
 20
111.5236395483297
 30
0.0
 10
179.180245029144
 20
111.6105834608036
 30
0.0
 10
179.134999140212
 20
111.6630157741687
 30
0.0
 10
179.0553820092451
 20
111.7715688556872
 30
0.0
 10
179.0207793897882
 20
111.8285519419297
 30
0.0
 10
178.9890717777894
 20
111.8871180245876
 30
0.0
  0
SPLINE
  5
75
330
1F
100
AcDbEntity
  8
0
  6
Continuous
 62
     7
370
    15
100
AcDbSpline
210
0.0
220
0.0
230
1.0
 70
     8
 71
     3
 72
    10
 73
     6
 74
     0
 42
0.00000001
 43
0.00000001
 12
1.0
 22
0.0
 32
0.0
 13
1.0
 23
0.0
 33
0.0
 40
0.0
 40
0.0
 40
0.0
 40
0.0
 40
0.5
 40
0.5
 40
1.0
 40
1.0
 40
1.0
 40
1.0
 10
178.7086124623584
 20
112.7399366162339
 30
0.0
 10
178.7394910459704
 20
112.5903080643742
 30
0.0
 10
178.7754837536937
 20
112.4438126468506
 30
0.0
 10
178.8648240051908
 20
112.1586210083099
 30
0.0
 10
178.9172823080364
 20
112.0197179825939
 30
0.0
 10
178.9890717777895
 20
111.8871180245874
 30
0.0
  0
SPLINE
  5
76
330
1F
100
AcDbEntity
  8
0
  6
Continuous
 62
     7
370
    15
100
AcDbSpline
210
0.0
220
0.0
230
1.0
 70
     8
 71
     3
 72
    10
 73
     6
 74
     0
 42
0.00000001
 43
0.00000001
 12
1.0
 22
0.0
 32
0.0
 13
1.0
 23
0.0
 33
0.0
 40
0.0
 40
0.0
 40
0.0
 40
0.0
 40
0.5
 40
0.5
 40
1.0
 40
1.0
 40
1.0
 40
1.0
 10
178.9890717777888
 20
121.9964814968239
 30
0.0
 10
178.9172823080359
 20
121.8638815388175
 30
0.0
 10
178.8648240051905
 20
121.7249785131018
 30
0.0
 10
178.7754837536936
 20
121.4397868745615
 30
0.0
 10
178.7394910459703
 20
121.2932914570381
 30
0.0
 10
178.7086124623584
 20
121.1436629051787
 30
0.0
  0
SPLINE
  5
77
330
1F
100
AcDbEntity
  8
0
  6
Continuous
 62
     7
370
    15
100
AcDbSpline
210
0.0
220
0.0
230
1.0
 70
     8
 71
     3
 72
    14
 73
    10
 74
     0
 42
0.00000001
 43
0.00000001
 12
1.0
 22
0.0
 32
0.0
 13
1.0
 23
0.0
 33
0.0
 40
0.0
 40
0.0
 40
0.0
 40
0.0
 40
0.25
 40
0.25
 40
0.5
 40
0.5
 40
0.75
 40
0.75
 40
1.0
 40
1.0
 40
1.0
 40
1.0
 10
178.9890717777882
 20
121.9964814968227
 30
0.0
 10
179.0207804772735
 20
122.0550495881413
 30
0.0
 10
179.0553882959142
 20
122.1120438500813
 30
0.0
 10
179.1350467064035
 20
122.2206439848452
 30
0.0
 10
179.1801089762984
 20
122.2729721202238
 30
0.0
 10
179.2906908218768
 20
122.3604731315861
 30
0.0
 10
179.358334942692
 20
122.3955185878403
 30
0.0
 10
179.5085832330892
 20
122.4012629765963
 30
0.0
 10
179.5785356313195
 20
122.3703828695464
 30
0.0
 10
179.634955917043
 20
122.3287498188333
 30
0.0
  0
SPLINE
  5
78
330
1F
100
AcDbEntity
  8
0
  6
Continuous
 62
     7
370
    15
100
AcDbSpline
210
0.0
220
0.0
230
1.0
 70
     8
 71
     3
 72
    16
 73
    12
 74
     0
 42
0.00000001
 43
0.00000001
 12
1.0
 22
0.0
 32
0.0
 13
1.0
 23
0.0
 33
0.0
 40
0.0
 40
0.0
 40
0.0
 40
0.0
 40
0.0624999999999992
 40
0.0624999999999992
 40
0.1249999999999983
 40
0.1249999999999983
 40
0.2499999999999966
 40
0.2499999999999966
 40
0.4999999999999966
 40
0.4999999999999966
 40
1.0
 40
1.0
 40
1.0
 40
1.0
 10
179.6349559170112
 20
122.3287498187799
 30
0.0
 10
179.6466901514581
 20
122.3200910186356
 30
0.0
 10
179.660221906937
 20
122.3134869334003
 30
0.0
 10
179.6902093673669
 20
122.3122899662262
 30
0.0
 10
179.7052040737751
 20
122.3187117132921
 30
0.0
 10
179.7409444961699
 20
122.3484288667014
 30
0.0
 10
179.7549578331711
 20
122.3772362640847
 30
0.0
 10
179.7891019219525
 20
122.4623159857107
 30
0.0
 10
179.8000738260708
 20
122.5206909349804
 30
0.0
 10
179.8259193663372
 20
122.696406459769
 30
0.0
 10
179.829932805918
 20
122.8122014676334
 30
0.0
 10
179.829932805918
 20
122.9262799932808
 30
0.0
  0
LINE
  5
79
330
1F
100
AcDbEntity
  8
0
  6
Continuous
 62
     7
370
    15
100
AcDbLine
 10
179.8299328059
 20
134.7816200396
 30
0.0
 11
179.8299328059
 21
122.9262799933
 31
0.0
  0
SPLINE
  5
7A
330
1F
100
AcDbEntity
  8
0
  6
Continuous
 62
     7
370
    15
100
AcDbSpline
210
0.0
220
0.0
230
1.0
 70
     8
 71
     3
 72
    16
 73
    12
 74
     0
 42
0.00000001
 43
0.00000001
 12
1.0
 22
0.0
 32
0.0
 13
1.0
 23
0.0
 33
0.0
 40
0.0
 40
0.0
 40
0.0
 40
0.0
 40
0.4999999999999971
 40
0.4999999999999971
 40
0.7499999999999983
 40
0.7499999999999983
 40
0.8749999999999997
 40
0.8749999999999997
 40
0.9374999999999999
 40
0.9374999999999999
 40
1.0
 40
1.0
 40
1.0
 40
1.0
 10
179.8299328059182
 20
134.4885542263739
 30
0.0
 10
179.8299328059179
 20
134.4665392117945
 30
0.0
 10
179.825808263064
 20
134.4411855770908
 30
0.0
 10
179.7998918174308
 20
134.3940250749023
 30
0.0
 10
179.788614236411
 20
134.3768260866735
 30
0.0
 10
179.7548788578697
 20
134.3468481211042
 30
0.0
 10
179.7404900426253
 20
134.3354967125624
 30
0.0
 10
179.7052433531862
 20
134.318808853085
 30
0.0
 10
179.6900379287293
 20
134.3132458261997
 30
0.0
 10
179.6603913495599
 20
134.3062762431645
 30
0.0
 10
179.6466860135625
 20
134.3047629021092
 30
0.0
 10
179.6349559170388
 20
134.3043114482593
 30
0.0
  0
SPLINE
  5
7B
330
1F
100
AcDbEntity
  8
0
  6
Continuous
 62
     7
370
    15
100
AcDbSpline
210
0.0
220
0.0
230
1.0
 70
     8
 71
     3
 72
    14
 73
    10
 74
     0
 42
0.00000001
 43
0.00000001
 12
1.0
 22
0.0
 32
0.0
 13
1.0
 23
0.0
 33
0.0
 40
0.0
 40
0.0
 40
0.0
 40
0.0
 40
0.2500000000000005
 40
0.2500000000000005
 40
0.500000000000001
 40
0.500000000000001
 40
0.7500000000000004
 40
0.7500000000000004
 40
1.0
 40
1.0
 40
1.0
 40
1.0
 10
179.6349559170492
 20
134.3043114482618
 30
0.0
 10
179.5785088349907
 20
134.3021389808426
 30
0.0
 10
179.5076584509475
 20
134.2996408829251
 30
0.0
 10
179.3592220161306
 20
134.2959944241369
 30
0.0
 10
179.2900327644436
 20
134.2950266772856
 30
0.0
 10
179.1803212162026
 20
134.2937591179229
 30
0.0
 10
179.1350795668602
 20
134.2933562769946
 30
0.0
 10
179.0554315486762
 20
134.2923452420669
 30
0.0
 10
179.0208046329102
 20
134.2917542816723
 30
0.0
 10
178.9890717777888
 20
134.2909570418989
 30
0.0
  0
SPLINE
  5
7C
330
1F
100
AcDbEntity
  8
0
  6
Continuous
 62
     7
370
    15
100
AcDbSpline
210
0.0
220
0.0
230
1.0
 70
     8
 71
     3
 72
    18
 73
    14
 74
     0
 42
0.00000001
 43
0.00000001
 12
1.0
 22
0.0
 32
0.0
 13
1.0
 23
0.0
 33
0.0
 40
0.0
 40
0.0
 40
0.0
 40
0.0
 40
0.2499999999999998
 40
0.2499999999999998
 40
0.3749999999999998
 40
0.3749999999999998
 40
0.4999999999999998
 40
0.4999999999999998
 40
0.6249999999999998
 40
0.6249999999999998
 40
0.7499999999999998
 40
0.7499999999999998
 40
1.0
 40
1.0
 40
1.0
 40
1.0
 10
178.7086124623584
 20
121.1436629051787
 30
0.0
 10
178.5733268560561
 20
120.4881085697574
 30
0.0
 10
178.4721591098131
 20
119.8084874759599
 30
0.0
 10
178.3692977669442
 20
118.7531234694658
 30
0.0
 10
178.3431949214209
 20
118.3943094048812
 30
0.0
 10
178.308304937876
 20
117.6681964607583
 30
0.0
 10
178.2997186795861
 20
117.3061067817421
 30
0.0
 10
178.2996189700204
 20
116.5837971243238
 30
0.0
 10
178.308107341169
 20
116.2235773222154
 30
0.0
 10
178.3422507206896
 20
115.5050112531215
 30
0.0
 10
178.3680477025434
 20
115.1452455372061
 30
0.0
 10
178.4714488339313
 20
114.0786009502117
 30
0.0
 10
178.5733068261027
 20
113.3955880109294
 30
0.0
 10
178.7086124623584
 20
112.7399366162339
 30
0.0
  0
LINE
  5
7D
330
1F
100
AcDbEntity
  8
0
  6
Continuous
 62
     7
370
    15
100
AcDbLine
 10
177.8299328059
 20
122.0819522485
 30
0.0
 11
177.8299328059
 21
111.8016472729
 31
0.0
  0
LINE
  5
7E
330
1F
100
AcDbEntity
  8
0
  6
Continuous
 62
     7
370
    15
100
AcDbLine
 10
151.5299328059
 20
121.7515784772
 30
0.0
 11
151.5299328059
 21
112.1320210442
 31
0.0
  0
LINE
  5
7F
330
1F
100
AcDbEntity
  8
0
  6
Continuous
 62
     7
370
    15
100
AcDbLine
 10
150.0299328059
 20
121.3185657753
 30
0.0
 11
150.0299328059
 21
112.5650337461
 31
0.0
  0
LINE
  5
80
330
1F
100
AcDbEntity
  8
0
  6
Continuous
 62
     7
370
    15
100
AcDbLine
 10
177.8299328059
 20
99.4217009761
 30
0.0
 11
177.8299328059
 21
111.8016472729
 31
0.0
  0
ARC
  5
81
330
1F
100
AcDbEntity
  8
0
  6
Continuous
 62
     7
370
    15
100
AcDbCircle
 10
178.0298697169
 20
99.416677865
 30
0.0
 40
0.2000000000000063
100
AcDbArc
 50
88.5608333333
 51
178.5608333333
  0
LINE
  5
82
330
1F
100
AcDbEntity
  8
0
  6
Continuous
 62
     7
370
    15
100
AcDbLine
 10
151.5299328059
 20
100.0824485188
 30
0.0
 11
151.5299328059
 21
112.1320210442
 31
0.0
  0
LINE
  5
83
330
1F
100
AcDbEntity
  8
0
  6
Continuous
 62
     7
370
    15
100
AcDbLine
 10
151.5299328059
 20
100.0824485188
 30
0.0
 11
177.8299328059
 21
99.4217009761
 31
0.0
  0
LINE
  5
84
330
1F
100
AcDbEntity
  8
0
  6
Continuous
 62
     7
370
    15
100
AcDbLine
 10
177.8299328059
 20
122.0819522485
 30
0.0
 11
177.8299328059
 21
134.4618985453
 31
0.0
  0
ARC
  5
85
330
1F
100
AcDbEntity
  8
0
  6
Continuous
 62
     7
370
    15
100
AcDbCircle
 10
178.0298697169
 20
134.4669216564
 30
0.0
 40
0.2000000000000066
100
AcDbArc
 50
181.4391666667
 51
271.4391666667
  0
LINE
  5
86
330
1F
100
AcDbEntity
  8
0
  6
Continuous
 62
     7
370
    15
100
AcDbLine
 10
151.5299328059
 20
121.7515784772
 30
0.0
 11
151.5299328059
 21
133.8011510027
 31
0.0
  0
LINE
  5
87
330
1F
100
AcDbEntity
  8
0
  6
Continuous
 62
     7
370
    15
100
AcDbLine
 10
151.5299328059
 20
133.8011510027
 30
0.0
 11
177.8299328059
 21
134.4618985453
 31
0.0
  0
LINE
  5
88
330
1F
100
AcDbEntity
  8
0
  6
Continuous
 62
     7
370
    15
100
AcDbLine
 10
178.034892828
 20
99.616614776
 30
0.0
 11
178.9890717778
 21
99.5926424795
 31
0.0
  0
LINE
  5
89
330
1F
100
AcDbEntity
  8
0
  6
Continuous
 62
     7
370
    15
100
AcDbLine
 10
178.034892828
 20
134.2669847455
 30
0.0
 11
178.9890717778
 21
134.2909570419
 31
0.0
  0
LINE
  5
8A
330
1F
100
AcDbEntity
  8
0
  6
Continuous
 62
     7
370
    15
100
AcDbLine
 10
150.0299328059
 20
132.9351255989
 30
0.0
 11
151.5299328059
 21
133.8011510027
 31
0.0
  0
LINE
  5
8B
330
1F
100
AcDbEntity
  8
0
  6
Continuous
 62
     7
370
    15
100
AcDbLine
 10
150.0299328059
 20
121.3185657753
 30
0.0
 11
150.0299328059
 21
132.9351255989
 31
0.0
  0
LINE
  5
8C
330
1F
100
AcDbEntity
  8
0
  6
Continuous
 62
     7
370
    15
100
AcDbLine
 10
150.0299328059
 20
100.9484739225
 30
0.0
 11
151.5299328059
 21
100.0824485188
 31
0.0
  0
LINE
  5
8D
330
1F
100
AcDbEntity
  8
0
  6
Continuous
 62
     7
370
    15
100
AcDbLine
 10
150.0299328059
 20
100.9484739225
 30
0.0
 11
150.0299328059
 21
112.5650337461
 31
0.0
  0
SPLINE
  5
8E
330
1F
100
AcDbEntity
  8
0
  6
Continuous
 62
     7
370
    15
100
AcDbSpline
210
0.0
220
0.0
230
1.0
 70
     8
 71
     3
 72
     8
 73
     4
 74
     0
 42
0.00000001
 43
0.00000001
 12
1.0
 22
0.0
 32
0.0
 13
1.0
 23
0.0
 33
0.0
 40
0.0
 40
0.0
 40
0.0
 40
0.0
 40
1.0
 40
1.0
 40
1.0
 40
1.0
 10
212.2626058179391
 20
141.9400092922348
 30
0.0
 10
212.285626239928
 20
141.94000292512
 30
0.0
 10
212.3088634064971
 20
141.9408030167081
 30
0.0
 10
212.3319137698549
 20
141.9424045564012
 30
0.0
  0
SPLINE
  5
8F
330
1F
100
AcDbEntity
  8
0
  6
Continuous
 62
     7
370
    15
100
AcDbSpline
210
0.0
220
0.0
230
1.0
 70
     8
 71
     3
 72
     8
 73
     4
 74
     0
 42
0.00000001
 43
0.00000001
 12
1.0
 22
0.0
 32
0.0
 13
1.0
 23
0.0
 33
0.0
 40
0.0
 40
0.0
 40
0.0
 40
0.0
 40
1.0
 40
1.0
 40
1.0
 40
1.0
 10
212.3319137698549
 20
91.9411949650114
 30
0.0
 10
212.3089176287259
 20
91.94279273734297
 30
0.0
 10
212.2858157227197
 20
91.94359664870079
 30
0.0
 10
212.2626058179391
 20
91.94359022917779
 30
0.0
  0
LINE
  5
90
330
1F
100
AcDbEntity
  8
0
  6
Continuous
 62
     7
370
    15
100
AcDbLine
 10
229.7961689965
 20
138.2567271675
 30
0.0
 11
227.8333374064
 21
137.0302138639
 31
0.0
  0
ARC
  5
91
330
1F
100
AcDbEntity
  8
0
  6
Continuous
 62
     7
370
    15
100
AcDbCircle
 10
228.6369294988
 20
135.7441976913
 30
0.0
 40
1.516442497159276
100
AcDbArc
 50
122.0
 51
302.0
  0
LINE
  5
92
330
1F
100
AcDbEntity
  8
0
  6
Continuous
 62
     7
370
    15
100
AcDbLine
 10
229.4405215911
 20
134.4581815186
 30
0.0
 11
230.0889777419
 21
134.8633818933
 31
0.0
  0
LINE
  5
93
330
1F
100
AcDbEntity
  8
0
  6
Continuous
 62
     7
370
    15
100
AcDbLine
 10
239.2158532125
 20
140.5230511829
 30
0.0
 11
238.2143425117
 21
121.4130886057
 31
0.0
  0
LINE
  5
94
330
1F
100
AcDbEntity
  8
0
  6
Continuous
 62
     7
370
    15
100
AcDbLine
 10
238.2143425117
 20
121.4130886057
 30
0.0
 11
217.2294558357
 21
91.4435645277
 31
0.0
  0
LINE
  5
95
330
1F
100
AcDbEntity
  8
0
  6
Continuous
 62
     7
370
    15
100
AcDbLine
 10
217.2294558357
 20
91.4435645277
 30
0.0
 11
213.1286312217
 21
91.4435645277
 31
0.0
  0
LINE
  5
96
330
1F
100
AcDbEntity
  8
0
  6
Continuous
 62
     7
370
    15
100
AcDbLine
 10
217.7795294425
 20
142.5964649416
 30
0.0
 11
213.2017289332
 21
142.5964649416
 31
0.0
  0
ELLIPSE
  5
97
330
1F
100
AcDbEntity
  8
0
  6
Continuous
 62
     7
370
    15
100
AcDbEllipse
 10
217.7795294425
 20
168.7917204036
 30
0.0
 11
-1.563194018672220E-12
 21
-26.19525546193006
 31
0.0
210
0.0
220
0.0
230
1.0
 40
0.9925461516
 41
0.0
 42
0.4992761412626371
  0
SPLINE
  5
98
330
1F
100
AcDbEntity
  8
0
  6
Continuous
 62
     7
370
    15
100
AcDbSpline
210
0.0
220
0.0
230
1.0
 70
     8
 71
     3
 72
    12
 73
     8
 74
     0
 42
0.00000001
 43
0.00000001
 12
1.0
 22
0.0
 32
0.0
 13
1.0
 23
0.0
 33
0.0
 40
0.0
 40
0.0
 40
0.0
 40
0.0
 40
0.2500000000000014
 40
0.2500000000000014
 40
0.5000000000000029
 40
0.5000000000000029
 40
1.0
 40
1.0
 40
1.0
 40
1.0
 10
213.1286312217231
 20
91.44356452765616
 30
0.0
 10
213.0881205313901
 20
91.51373595788473
 30
0.0
 10
213.0382891621879
 20
91.5799114873087
 30
0.0
 10
212.9253101303445
 20
91.69686373592242
 30
0.0
 10
212.8623633718471
 20
91.74796569576871
 30
0.0
 10
212.653594653945
 20
91.87851331432323
 30
0.0
 10
212.4944111015069
 20
91.92990464725712
 30
0.0
 10
212.3319137698549
 20
91.9411949650114
 30
0.0
  0
SPLINE
  5
99
330
1F
100
AcDbEntity
  8
0
  6
Continuous
 62
     7
370
    15
100
AcDbSpline
210
0.0
220
0.0
230
1.0
 70
     8
 71
     3
 72
    10
 73
     6
 74
     0
 42
0.00000001
 43
0.00000001
 12
1.0
 22
0.0
 32
0.0
 13
1.0
 23
0.0
 33
0.0
 40
0.0
 40
0.0
 40
0.0
 40
0.0
 40
0.5
 40
0.5
 40
1.0
 40
1.0
 40
1.0
 40
1.0
 10
212.3319137698549
 20
141.9424045564012
 30
0.0
 10
212.5235046657544
 20
141.9557162955635
 30
0.0
 10
212.7099301410963
 20
142.0250397968759
 30
0.0
 10
213.0183399511491
 20
142.2572867485953
 30
0.0
 10
213.1361469694526
 20
142.4171948928659
 30
0.0
 10
213.2017289331703
 20
142.596464941636
 30
0.0
  0
LINE
  5
9A
330
1F
100
AcDbEntity
  8
0
  6
Continuous
 62
     7
370
    15
100
AcDbLine
 10
229.2993285791
 20
134.6841375711
 30
0.0
 11
229.7601476475
 21
134.9720892837
 31
0.0
  0
LINE
  5
9B
330
1F
100
AcDbEntity
  8
0
  6
Continuous
 62
     7
370
    15
100
AcDbLine
 10
227.9745304185
 20
136.8042578115
 30
0.0
 11
229.7791458773
 21
137.9319067037
 31
0.0
  0
ARC
  5
9C
330
1F
100
AcDbEntity
  8
0
  6
Continuous
 62
     7
370
    15
100
AcDbCircle
 10
228.6369294988
 20
135.7441976913
 30
0.0
 40
1.250000000000018
100
AcDbArc
 50
122.0
 51
302.0
  0
LINE
  5
9D
330
1F
100
AcDbEntity
  8
0
  6
Continuous
 62
     7
370
    15
100
AcDbLine
 10
230.597153494
 20
145.8974928061
 30
0.0
 11
230.3957841738
 21
146.2197510824
 31
0.0
  0
LINE
  5
9E
330
1F
100
AcDbEntity
  8
0
  6
Continuous
 62
     7
370
    15
100
AcDbLine
 10
239.4285634855
 20
151.8640580372
 30
0.0
 11
230.3957841738
 21
146.2197510824
 31
0.0
  0
LINE
  5
9F
330
1F
100
AcDbEntity
  8
0
  6
Continuous
 62
     7
370
    15
100
AcDbLine
 10
239.6299328059
 20
151.5417997607
 30
0.0
 11
239.4285634855
 21
151.8640580372
 31
0.0
  0
LINE
  5
A0
330
1F
100
AcDbEntity
  8
0
  6
Continuous
 62
     7
370
    15
100
AcDbLine
 10
238.6110708827
 20
149.81211545
 30
0.0
 11
239.6299328059
 21
151.5417997607
 31
0.0
  0
LINE
  5
A1
330
1F
100
AcDbEntity
  8
0
  6
Continuous
 62
     7
370
    15
100
AcDbLine
 10
230.8113226154
 20
145.7713375525
 30
0.0
 11
230.597153494
 21
145.8974928061
 31
0.0
  0
LINE
  5
A2
330
1F
100
AcDbEntity
  8
0
  6
Continuous
 62
     7
370
    15
100
AcDbLine
 10
239.0724890183
 20
140.9051386531
 30
0.0
 11
239.2738583387
 21
140.5828803765
 31
0.0
  0
LINE
  5
A3
330
1F
100
AcDbEntity
  8
0
  6
Continuous
 62
     7
370
    15
100
AcDbLine
 10
230.2410790268
 20
134.938573422
 30
0.0
 11
239.2738583387
 21
140.5828803765
 31
0.0
  0
LINE
  5
A4
330
1F
100
AcDbEntity
  8
0
  6
Continuous
 62
     7
370
    15
100
AcDbLine
 10
230.0397097064
 20
135.2608316985
 30
0.0
 11
230.2410790268
 21
134.938573422
 31
0.0
  0
LINE
  5
A5
330
1F
100
AcDbEntity
  8
0
  6
Continuous
 62
     7
370
    15
100
AcDbLine
 10
231.0585716296
 20
136.9905160092
 30
0.0
 11
230.0397097064
 21
135.2608316985
 31
0.0
  0
LINE
  5
A6
330
1F
100
AcDbEntity
  8
0
  6
Continuous
 62
     7
370
    15
100
AcDbLine
 10
238.8583198969
 20
141.0312939067
 30
0.0
 11
239.0724890183
 21
140.9051386531
 31
0.0
  0
SPLINE
  5
A7
330
1F
100
AcDbEntity
  8
0
  6
Continuous
 62
     7
370
    15
100
AcDbSpline
210
0.0
220
0.0
230
1.0
 70
    24
 71
     3
 72
    11
 73
     7
 74
     0
 42
0.00000001
 43
0.00000001
 12
1.0
 22
0.0
 32
0.0
 13
1.0
 23
0.0
 33
0.0
 40
0.0
 40
0.0
 40
0.0
 40
0.0
 40
0.0092138098390136
 40
0.344849043110977
 40
0.6722304962507478
 40
1.0
 40
1.0
 40
1.0
 40
1.0
 10
238.2582419384086
 20
141.3847668375986
 30
0.0
 10
238.2599022592527
 20
141.3837888338796
 30
0.0
 10
238.3220437690484
 20
141.3471846872215
 30
0.0
 10
238.4551766123864
 20
141.2687634493315
 30
0.0
 10
238.6662604741753
 20
141.1444255524979
 30
0.0
 10
238.7942748147433
 20
141.069019343156
 30
0.0
 10
238.8583198969332
 20
141.0312939066658
 30
0.0
  0
SPLINE
  5
A8
330
1F
100
AcDbEntity
  8
0
  6
Continuous
 62
     7
370
    15
100
AcDbSpline
210
0.0
220
0.0
230
1.0
 70
    24
 71
     3
 72
    11
 73
     7
 74
     0
 42
0.00000001
 43
0.00000001
 12
1.0
 22
0.0
 32
0.0
 13
1.0
 23
0.0
 33
0.0
 40
0.0
 40
0.0
 40
0.0
 40
0.0
 40
0.3277695037502085
 40
0.6551509568910037
 40
0.990786190160919
 40
1.0
 40
1.0
 40
1.0
 40
1.0
 10
230.8113226153535
 20
145.77133755253
 30
0.0
 10
230.8753676975435
 20
145.7336121160398
 30
0.0
 10
231.0033820381117
 20
145.6582059066978
 30
0.0
 10
231.2144658998999
 20
145.5338680098646
 30
0.0
 10
231.3475987432375
 20
145.4554467719748
 30
0.0
 10
231.4097402530325
 20
145.4188426253171
 30
0.0
 10
231.4114005738766
 20
145.4178646215982
 30
0.0
  0
LINE
  5
A9
330
1F
100
AcDbEntity
  8
0
  6
Continuous
 62
     7
370
    15
100
AcDbLine
 10
239.4253356342
 20
151.8856246199
 30
0.0
 11
230.383865346
 21
146.2358869406
 31
0.0
  0
LINE
  5
AA
330
1F
100
AcDbEntity
  8
0
  6
Continuous
 62
     7
370
    15
100
AcDbLine
 10
239.4718593432
 20
140.8826493673
 30
0.0
 11
240.0298394807
 21
151.5295446417
 31
0.0
  0
LINE
  5
AB
330
1F
100
AcDbEntity
  8
0
  6
Continuous
 62
     7
370
    15
100
AcDbLine
 10
230.2443068781
 20
134.9170068393
 30
0.0
 11
239.2857771663
 21
140.5667445186
 31
0.0
  0
LINE
  5
AC
330
1F
100
AcDbEntity
  8
0
  6
Continuous
 62
     7
370
    15
100
AcDbLine
 10
230.1977831691
 20
145.9199820919
 30
0.0
 11
229.6398030315
 21
135.2730868175
 31
0.0
  0
ARC
  5
AD
330
1F
100
AcDbEntity
  8
0
  6
Continuous
 62
     7
370
    15
100
AcDbCircle
 10
239.6299328059
 20
151.5417997607
 30
0.0
 40
0.37999999999998
100
AcDbArc
 50
357.0
 51
122.0
  0
ARC
  5
AE
330
1F
100
AcDbEntity
  8
0
  6
Continuous
 62
     7
370
    15
100
AcDbCircle
 10
230.597153494
 20
145.8974928061
 30
0.0
 40
0.3800000000000054
100
AcDbArc
 50
122.0
 51
177.0
  0
LINE
  5
AF
330
1F
100
AcDbEntity
  8
0
  6
Continuous
 62
     7
370
    15
100
AcDbLine
 10
230.2176742708
 20
145.9173804695
 30
0.0
 11
229.6602304832
 21
135.2807193619
 31
0.0
  0
ARC
  5
B0
330
1F
100
AcDbEntity
  8
0
  6
Continuous
 62
     7
370
    15
100
AcDbCircle
 10
230.0397097064
 20
135.2608316985
 30
0.0
 40
0.3799999999999977
100
AcDbArc
 50
177.0
 51
302.0
  0
ARC
  5
B1
330
1F
100
AcDbEntity
  8
0
  6
Continuous
 62
     7
370
    15
100
AcDbCircle
 10
239.0724890183
 20
140.9051386531
 30
0.0
 40
0.3800000000000369
100
AcDbArc
 50
302.0
 51
357.0
  0
LINE
  5
B2
330
1F
100
AcDbEntity
  8
0
  6
Continuous
 62
     7
370
    15
100
AcDbLine
 10
239.4519682415
 20
140.8852509897
 30
0.0
 11
240.0094120291
 21
151.5219120973
 31
0.0
  0
SPLINE
  5
B3
330
1F
100
AcDbEntity
  8
0
  6
Continuous
 62
     7
370
    15
100
AcDbSpline
210
0.0
220
0.0
230
1.0
 70
     8
 71
     3
 72
    10
 73
     6
 74
     0
 42
0.00000001
 43
0.00000001
 12
1.0
 22
0.0
 32
0.0
 13
1.0
 23
0.0
 33
0.0
 40
0.0
 40
0.0
 40
0.0
 40
0.0
 40
0.3518022785811049
 40
0.7034245935032565
 40
1.0
 40
1.0
 40
1.0
 40
1.0
 10
230.3838653459539
 20
146.2358869406337
 30
0.0
 10
230.3484269034614
 20
146.2084709611094
 30
0.0
 10
230.2775681469313
 20
146.1536530266431
 30
0.0
 10
230.2142404783891
 20
146.0388149548784
 30
0.0
 10
230.2029493122375
 20
145.9572851264437
 30
0.0
 10
230.1977831691293
 20
145.9199820918747
 30
0.0
  0
SPLINE
  5
B4
330
1F
100
AcDbEntity
  8
0
  6
Continuous
 62
     7
370
    15
100
AcDbSpline
210
0.0
220
0.0
230
1.0
 70
     8
 71
     3
 72
    10
 73
     6
 74
     0
 42
0.00000001
 43
0.00000001
 12
1.0
 22
0.0
 32
0.0
 13
1.0
 23
0.0
 33
0.0
 40
0.0
 40
0.0
 40
0.0
 40
0.0
 40
0.3518022785809647
 40
0.7034245935031354
 40
1.0
 40
1.0
 40
1.0
 40
1.0
 10
239.2857771663313
 20
140.566744518563
 30
0.0
 10
239.3212156088238
 20
140.5941604980873
 30
0.0
 10
239.3920743653538
 20
140.6489784325537
 30
0.0
 10
239.455402033896
 20
140.7638165043183
 30
0.0
 10
239.4666932000477
 20
140.845346332753
 30
0.0
 10
239.4718593431559
 20
140.8826493673221
 30
0.0
  0
SPLINE
  5
B5
330
1F
100
AcDbEntity
  8
0
  6
Continuous
 62
     7
370
    15
100
AcDbSpline
210
0.0
220
0.0
230
1.0
 70
     8
 71
     3
 72
    14
 73
    10
 74
     0
 42
0.00000001
 43
0.00000001
 12
1.0
 22
0.0
 32
0.0
 13
1.0
 23
0.0
 33
0.0
 40
0.0
 40
0.0
 40
0.0
 40
0.0
 40
0.1588501103508017
 40
0.3173321153184989
 40
0.4720153553660784
 40
0.6236441635915738
 40
0.774661834164434
 40
0.927741776110783
 40
1.0
 40
1.0
 40
1.0
 40
1.0
 10
229.6398030315401
 20
135.2730868174978
 30
0.0
 10
229.6418666245519
 20
135.2270403824808
 30
0.0
 10
229.6459890285852
 20
135.135054216437
 30
0.0
 10
229.7096519746225
 20
135.0106919982357
 30
0.0
 10
229.8069941488245
 20
134.9161177929728
 30
0.0
 10
229.9293344249693
 20
134.8608254764924
 30
0.0
 10
230.0619226334898
 20
134.8494557023837
 30
0.0
 10
230.1696638515711
 20
134.8749968084761
 30
0.0
 10
230.2261830946669
 20
134.9068065468023
 30
0.0
 10
230.2443068781215
 20
134.9170068392619
 30
0.0
  0
SPLINE
  5
B6
330
1F
100
AcDbEntity
  8
0
  6
Continuous
 62
     7
370
    15
100
AcDbSpline
210
0.0
220
0.0
230
1.0
 70
     8
 71
     3
 72
    14
 73
    10
 74
     0
 42
0.00000001
 43
0.00000001
 12
1.0
 22
0.0
 32
0.0
 13
1.0
 23
0.0
 33
0.0
 40
0.0
 40
0.0
 40
0.0
 40
0.0
 40
0.1588501103507752
 40
0.3173321153185097
 40
0.4720153553661017
 40
0.6236441635915558
 40
0.774661834164467
 40
0.9277417761108366
 40
0.9999999999999999
 40
0.9999999999999999
 40
0.9999999999999999
 40
0.9999999999999999
 10
240.0298394807451
 20
151.529544641699
 30
0.0
 10
240.0277758877333
 20
151.5755910767159
 30
0.0
 10
240.0236534837
 20
151.6675772427597
 30
0.0
 10
239.9599905376627
 20
151.791939460961
 30
0.0
 10
239.8626483634607
 20
151.886513666224
 30
0.0
 10
239.7403080873159
 20
151.9418059827043
 30
0.0
 10
239.6077198787954
 20
151.9531757568131
 30
0.0
 10
239.4999786607141
 20
151.9276346507206
 30
0.0
 10
239.4434594176183
 20
151.8958249123945
 30
0.0
 10
239.4253356341636
 20
151.8856246199349
 30
0.0
  0
LINE
  5
B7
330
1F
100
AcDbEntity
  8
0
  6
Continuous
 62
     7
370
    15
100
AcDbLine
 10
239.6299328059
 20
151.5417997607
 30
0.0
 11
240.0094120291
 21
151.5219120973
 31
0.0
  0
LINE
  5
B8
330
1F
100
AcDbEntity
  8
0
  6
Continuous
 62
     7
370
    15
100
AcDbLine
 10
239.0724890183
 20
140.9051386531
 30
0.0
 11
239.4519682415
 21
140.8852509897
 31
0.0
  0
ARC
  5
B9
330
1F
100
AcDbEntity
  8
0
  6
Continuous
 62
     7
370
    15
100
AcDbCircle
 10
237.1897843496
 20
147.3992497208
 30
0.0
 40
1.000000000295419
100
AcDbArc
 50
357.0
 51
122.0
  0
LINE
  5
BA
330
1F
100
AcDbEntity
  8
0
  6
Continuous
 62
     7
370
    15
100
AcDbLine
 10
237.914643497
 20
142.1230635816
 30
0.0
 11
238.1884138847
 21
147.3469137645
 31
0.0
  0
ARC
  5
BB
330
1F
100
AcDbEntity
  8
0
  6
Continuous
 62
     7
370
    15
100
AcDbCircle
 10
236.9160139622
 20
142.1753995379
 30
0.0
 40
1.000000000000024
100
AcDbArc
 50
302.0
 51
357.0
  0
LINE
  5
BC
330
1F
100
AcDbEntity
  8
0
  6
Continuous
 62
     7
370
    15
100
AcDbLine
 10
233.0097774269
 20
138.5553336422
 30
0.0
 11
237.4459332265
 21
141.3273514417
 31
0.0
  0
ARC
  5
BD
330
1F
100
AcDbEntity
  8
0
  6
Continuous
 62
     7
370
    15
100
AcDbCircle
 10
232.4798581626
 20
139.4033817384
 30
0.0
 40
1.000000000000039
100
AcDbArc
 50
177.0
 51
302.0
  0
LINE
  5
BE
330
1F
100
AcDbEntity
  8
0
  6
Continuous
 62
     7
370
    15
100
AcDbLine
 10
231.7549990153
 20
144.6795678776
 30
0.0
 11
231.4812286279
 21
139.4557176946
 31
0.0
  0
ARC
  5
BF
330
1F
100
AcDbEntity
  8
0
  6
Continuous
 62
     7
370
    15
100
AcDbCircle
 10
232.75362855
 20
144.6272319213
 30
0.0
 40
1.000000000000036
100
AcDbArc
 50
122.0
 51
177.0
  0
LINE
  5
C0
330
1F
100
AcDbEntity
  8
0
  6
Continuous
 62
     7
370
    15
100
AcDbLine
 10
236.6598650854
 20
148.247297817
 30
0.0
 11
232.2237092858
 21
145.4752800175
 31
0.0
  0
CIRCLE
  5
C1
330
1F
100
AcDbEntity
  8
0
  6
Continuous
 62
     7
370
    15
100
AcDbCircle
 10
234.8348212561
 20
143.4013157296
 30
0.0
 40
3.049999999999988
  0
LINE
  5
C2
330
1F
100
AcDbEntity
  8
0
  6
Continuous
 62
     7
370
    15
100
AcDbLine
 10
230.0397097064
 20
135.2608316985
 30
0.0
 11
229.6602304832
 21
135.2807193619
 31
0.0
  0
LINE
  5
C3
330
1F
100
AcDbEntity
  8
0
  6
Continuous
 62
     7
370
    15
100
AcDbLine
 10
230.597153494
 20
145.8974928061
 30
0.0
 11
230.2176742708
 21
145.9173804695
 31
0.0
  0
SPLINE
  5
C4
330
1F
100
AcDbEntity
  8
0
  6
Continuous
 62
     7
370
    15
100
AcDbSpline
210
0.0
220
0.0
230
1.0
 70
    24
 71
     3
 72
    11
 73
     7
 74
     0
 42
0.00000001
 43
0.00000001
 12
1.0
 22
0.0
 32
0.0
 13
1.0
 23
0.0
 33
0.0
 40
0.0
 40
0.0
 40
0.0
 40
0.0
 40
0.0072987238691042
 40
0.1268462096079028
 40
0.587429832838319
 40
1.0
 40
1.0
 40
1.0
 40
1.0
 10
238.2621133178993
 20
149.2197030620019
 30
0.0
 10
238.2628746318161
 20
149.2209955165607
 30
0.0
 10
238.2761056823946
 20
149.2434573831582
 30
0.0
 10
238.3387689273542
 20
149.349838463062
 30
0.0
 10
238.4563341180643
 20
149.549424551449
 30
0.0
 10
238.5614180995458
 20
149.7278217512404
 30
0.0
 10
238.61107088269
 20
149.8121154499553
 30
0.0
  0
SPLINE
  5
C5
330
1F
100
AcDbEntity
  8
0
  6
Continuous
 62
     7
370
    15
100
AcDbSpline
210
0.0
220
0.0
230
1.0
 70
    24
 71
     3
 72
    11
 73
     7
 74
     0
 42
0.00000001
 43
0.00000001
 12
1.0
 22
0.0
 32
0.0
 13
1.0
 23
0.0
 33
0.0
 40
0.0
 40
0.0
 40
0.0
 40
0.0
 40
0.4125701671613116
 40
0.8731537903910185
 40
0.9927012761302555
 40
1.0
 40
1.0
 40
1.0
 40
1.0
 10
231.0585716295956
 20
136.9905160092407
 30
0.0
 10
231.1082244127394
 20
137.074809707956
 30
0.0
 10
231.2133083942201
 20
137.2532069077482
 30
0.0
 10
231.3308735849312
 20
137.4527929961328
 30
0.0
 10
231.3935368298903
 20
137.5591740760395
 30
0.0
 10
231.406767880469
 20
137.5816359426362
 30
0.0
 10
231.4075291943859
 20
137.5829283971951
 30
0.0
  0
ARC
  5
C6
330
1F
100
AcDbEntity
  8
0
  6
Continuous
 62
     7
370
    15
100
AcDbCircle
 10
234.7697263011
 20
143.2908064251
 30
0.0
 40
1.674999999999987
100
AcDbArc
 50
149.07804828
 51
207.6779814073
  0
ARC
  5
C7
330
1F
100
AcDbEntity
  8
0
  6
Continuous
 62
     7
370
    15
100
AcDbCircle
 10
234.7697263011
 20
143.2908064251
 30
0.0
 40
1.675000000000023
100
AcDbArc
 50
207.6779814073
 51
267.784823142
  0
ARC
  5
C8
330
1F
100
AcDbEntity
  8
0
  6
Continuous
 62
     7
370
    15
100
AcDbCircle
 10
234.7697263011
 20
143.2908064251
 30
0.0
 40
1.675000000000048
100
AcDbArc
 50
267.784823142
 51
326.3847562692
  0
LINE
  5
C9
330
1F
100
AcDbEntity
  8
0
  6
Continuous
 62
     7
370
    15
100
AcDbLine
 10
236.2098502883
 20
142.4354305421
 30
0.0
 11
236.1646227169
 21
142.3635044305
 31
0.0
  0
ARC
  5
CA
330
1F
100
AcDbEntity
  8
0
  6
Continuous
 62
     7
370
    15
100
AcDbCircle
 10
234.7697263011
 20
143.2908064251
 30
0.0
 40
1.675000000000053
100
AcDbArc
 50
329.2913870411
 51
25.7351052074
  0
LINE
  5
CB
330
1F
100
AcDbEntity
  8
0
  6
Continuous
 62
     7
370
    15
100
AcDbLine
 10
236.2227363382
 20
144.1241051903
 30
0.0
 11
236.2785849751
 21
144.0181100082
 31
0.0
  0
ARC
  5
CC
330
1F
100
AcDbEntity
  8
0
  6
Continuous
 62
     7
370
    15
100
AcDbCircle
 10
234.7697263011
 20
143.2908064251
 30
0.0
 40
1.675000000000014
100
AcDbArc
 50
29.8341971076
 51
85.6286074416
  0
LINE
  5
CD
330
1F
100
AcDbEntity
  8
0
  6
Continuous
 62
     7
370
    15
100
AcDbLine
 10
234.7776867807
 20
144.9657875088
 30
0.0
 11
234.8973968045
 21
144.9609337384
 31
0.0
  0
ARC
  5
CE
330
1F
100
AcDbEntity
  8
0
  6
Continuous
 62
     7
370
    15
100
AcDbCircle
 10
234.7697263011
 20
143.2908064251
 30
0.0
 40
1.674999999999979
100
AcDbArc
 50
89.7276993419
 51
146.1714175082
  0
LINE
  5
CF
330
1F
100
AcDbEntity
  8
0
  6
Continuous
 62
     7
370
    15
100
AcDbLine
 10
233.3327972507
 20
144.1515386158
 30
0.0
 11
233.3782923222
 21
144.2232958259
 31
0.0
  0
CIRCLE
  5
D0
330
1F
100
AcDbEntity
  8
0
  6
Continuous
 62
     7
370
    15
100
AcDbCircle
 10
234.7697263011
 20
143.2908064251
 30
0.0
 40
1.799999999999949
  0
SPLINE
  5
D1
330
1F
100
AcDbEntity
  8
0
  6
Continuous
 62
     7
370
    15
100
AcDbSpline
210
0.0
220
0.0
230
1.0
 70
     8
 71
     3
 72
    11
 73
     7
 74
     0
 42
0.00000001
 43
0.00000001
 12
1.0
 22
0.0
 32
0.0
 13
1.0
 23
0.0
 33
0.0
 40
0.0
 40
0.0
 40
0.0
 40
0.0
 40
0.2669010467950658
 40
0.5546143410792701
 40
0.8439070439785943
 40
1.0
 40
1.0
 40
1.0
 40
1.0
 10
236.2227363381664
 20
144.1241051903459
 30
0.0
 10
236.1988336393263
 20
144.1494975934302
 30
0.0
 10
236.1491643715343
 20
144.2022624329621
 30
0.0
 10
236.0466691185042
 20
144.2467041273403
 30
0.0
 10
235.9509894699928
 20
144.257120286628
 30
0.0
 10
235.894907922271
 20
144.2457846059286
 30
0.0
 10
235.8752531929665
 20
144.2418118244225
 30
0.0
  0
SPLINE
  5
D2
330
1F
100
AcDbEntity
  8
0
  6
Continuous
 62
     7
370
    15
100
AcDbSpline
210
0.0
220
0.0
230
1.0
 70
     8
 71
     3
 72
    12
 73
     8
 74
     0
 42
0.00000001
 43
0.00000001
 12
1.0
 22
0.0
 32
0.0
 13
1.0
 23
0.0
 33
0.0
 40
0.0
 40
0.0
 40
0.0
 40
0.0
 40
0.2058401281337949
 40
0.4120619935509965
 40
0.6141387330969516
 40
0.8132772113524767
 40
1.0
 40
1.0
 40
1.0
 40
1.0
 10
235.8752531929666
 20
144.2418118244225
 30
0.0
 10
235.8104815282971
 20
144.2316082003281
 30
0.0
 10
235.6808180777771
 20
144.211182029183
 30
0.0
 10
235.4864376519058
 20
144.2639024556631
 30
0.0
 10
235.3227622929212
 20
144.3723003685299
 30
0.0
 10
235.2032668697383
 20
144.522817496182
 30
0.0
 10
235.1694338583822
 20
144.6407430102545
 30
0.0
 10
235.1530616677256
 20
144.6978085483869
 30
0.0
  0
SPLINE
  5
D3
330
1F
100
AcDbEntity
  8
0
  6
Continuous
 62
     7
370
    15
100
AcDbSpline
210
0.0
220
0.0
230
1.0
 70
     8
 71
     3
 72
    11
 73
     7
 74
     0
 42
0.00000001
 43
0.00000001
 12
1.0
 22
0.0
 32
0.0
 13
1.0
 23
0.0
 33
0.0
 40
0.0
 40
0.0
 40
0.0
 40
0.0
 40
0.2928993220620094
 40
0.5864344719079324
 40
0.8775178868032827
 40
1.0
 40
1.0
 40
1.0
 40
1.0
 10
235.1530616677256
 20
144.6978085483869
 30
0.0
 10
235.1422527795002
 20
144.7341416605251
 30
0.0
 10
235.1206115390435
 20
144.8068867569613
 30
0.0
 10
235.0442950545852
 20
144.8943666893887
 30
0.0
 10
234.9645484209685
 20
144.9428314855678
 30
0.0
 10
234.9127403509705
 20
144.9567975348089
 30
0.0
 10
234.8973968045118
 20
144.9609337384038
 30
0.0
  0
SPLINE
  5
D4
330
1F
100
AcDbEntity
  8
0
  6
Continuous
 62
     7
370
    15
100
AcDbSpline
210
0.0
220
0.0
230
1.0
 70
     8
 71
     3
 72
    12
 73
     8
 74
     0
 42
0.00000001
 43
0.00000001
 12
1.0
 22
0.0
 32
0.0
 13
1.0
 23
0.0
 33
0.0
 40
0.0
 40
0.0
 40
0.0
 40
0.0
 40
0.2057904614204437
 40
0.4120344203360237
 40
0.6141302471427799
 40
0.813263324211294
 40
1.0
 40
1.0
 40
1.0
 40
1.0
 10
234.5013917049795
 20
144.72362458676
 30
0.0
 10
234.4778503002556
 20
144.6624448821212
 30
0.0
 10
234.4307156129511
 20
144.5399506520041
 30
0.0
 10
234.2878850011062
 20
144.3979666785211
 30
0.0
 10
234.1121642160886
 20
144.3104040443085
 30
0.0
 10
233.9220515545226
 20
144.2821688393497
 30
0.0
 10
233.8030031371136
 20
144.3118317564404
 30
0.0
 10
233.7453911953633
 20
144.3261867414857
 30
0.0
  0
SPLINE
  5
D5
330
1F
100
AcDbEntity
  8
0
  6
Continuous
 62
     7
370
    15
100
AcDbSpline
210
0.0
220
0.0
230
1.0
 70
     8
 71
     3
 72
    11
 73
     7
 74
     0
 42
0.00000001
 43
0.00000001
 12
1.0
 22
0.0
 32
0.0
 13
1.0
 23
0.0
 33
0.0
 40
0.0
 40
0.0
 40
0.0
 40
0.0
 40
0.2802371411012788
 40
0.5612869875923562
 40
0.8399906057824179
 40
1.0
 40
1.0
 40
1.0
 40
1.0
 10
233.7453911953633
 20
144.3261867414857
 30
0.0
 10
233.7085458010889
 20
144.3349911525696
 30
0.0
 10
233.6347481585722
 20
144.352625508085
 30
0.0
 10
233.520916903092
 20
144.3302684049971
 30
0.0
 10
233.4336930044402
 20
144.2827642117953
 30
0.0
 10
233.3930982314521
 20
144.2391888345636
 30
0.0
 10
233.3782923222346
 20
144.223295825885
 30
0.0
  0
SPLINE
  5
D6
330
1F
100
AcDbEntity
  8
0
  6
Continuous
 62
     7
370
    15
100
AcDbSpline
210
0.0
220
0.0
230
1.0
 70
     8
 71
     3
 72
    11
 73
     7
 74
     0
 42
0.00000001
 43
0.00000001
 12
1.0
 22
0.0
 32
0.0
 13
1.0
 23
0.0
 33
0.0
 40
0.0
 40
0.0
 40
0.0
 40
0.0
 40
0.2657596322625042
 40
0.5530029385954163
 40
0.8418208483438622
 40
1.0
 40
1.0
 40
1.0
 40
1.0
 10
234.7776867807007
 20
144.9657875088307
 30
0.0
 10
234.7438201022739
 20
144.9578758911291
 30
0.0
 10
234.6733490057759
 20
144.941413090512
 30
0.0
 10
234.58351477496
 20
144.875171112075
 30
0.0
 10
234.5262516942381
 20
144.7974248390697
 30
0.0
 10
234.5078895347458
 20
144.7429142763585
 30
0.0
 10
234.5013917049795
 20
144.72362458676
 30
0.0
  0
SPLINE
  5
D7
330
1F
100
AcDbEntity
  8
0
  6
Continuous
 62
     7
370
    15
100
AcDbSpline
210
0.0
220
0.0
230
1.0
 70
     8
 71
     3
 72
    11
 73
     7
 74
     0
 42
0.00000001
 43
0.00000001
 12
1.0
 22
0.0
 32
0.0
 13
1.0
 23
0.0
 33
0.0
 40
0.0
 40
0.0
 40
0.0
 40
0.0
 40
0.2431090893442724
 40
0.5182793655622208
 40
0.7947794085751946
 40
1.0
 40
1.0
 40
1.0
 40
1.0
 10
236.2098502883282
 20
142.4354305420553
 30
0.0
 10
236.2211578602878
 20
142.466601220448
 30
0.0
 10
236.2452642449444
 20
142.5330533611929
 30
0.0
 10
236.2400422958942
 20
142.6427929240321
 30
0.0
 10
236.2047647649856
 20
142.7406692000593
 30
0.0
 10
236.162799647242
 20
142.7900636698436
 30
0.0
 10
236.1449218449082
 20
142.8111064933758
 30
0.0
  0
SPLINE
  5
D8
330
1F
100
AcDbEntity
  8
0
  6
Continuous
 62
     7
370
    15
100
AcDbSpline
210
0.0
220
0.0
230
1.0
 70
     8
 71
     3
 72
    12
 73
     8
 74
     0
 42
0.00000001
 43
0.00000001
 12
1.0
 22
0.0
 32
0.0
 13
1.0
 23
0.0
 33
0.0
 40
0.0
 40
0.0
 40
0.0
 40
0.0
 40
0.2058179564998906
 40
0.412021504590713
 40
0.6140779969167588
 40
0.8132130006454059
 40
0.9999999999999999
 40
0.9999999999999999
 40
0.9999999999999999
 40
0.9999999999999999
 10
236.1449218449082
 20
142.8111064933758
 30
0.0
 10
236.1037026223583
 20
142.8620936752742
 30
0.0
 10
236.0211869547175
 20
142.9641635614877
 30
0.0
 10
235.9696500858014
 20
143.1588450877389
 30
0.0
 10
235.9816743637676
 20
143.3547776767704
 30
0.0
 10
236.0522648376246
 20
143.5335367320837
 30
0.0
 10
236.1374843969736
 20
143.6218144672613
 30
0.0
 10
236.1787308292835
 20
143.6645410626145
 30
0.0
  0
SPLINE
  5
D9
330
1F
100
AcDbEntity
  8
0
  6
Continuous
 62
     7
370
    15
100
AcDbSpline
210
0.0
220
0.0
230
1.0
 70
     8
 71
     3
 72
    11
 73
     7
 74
     0
 42
0.00000001
 43
0.00000001
 12
1.0
 22
0.0
 32
0.0
 13
1.0
 23
0.0
 33
0.0
 40
0.0
 40
0.0
 40
0.0
 40
0.0
 40
0.2908641666076591
 40
0.5839560789892122
 40
0.8745988053617604
 40
1.0
 40
1.0
 40
1.0
 40
1.0
 10
236.1787308292835
 20
143.6645410626145
 30
0.0
 10
236.2046635205983
 20
143.6919050243749
 30
0.0
 10
236.2567275232372
 20
143.7468425300894
 30
0.0
 10
236.2944595455478
 20
143.8564066321635
 30
0.0
 10
236.2967506834724
 20
143.9501246740323
 30
0.0
 10
236.2827922372093
 20
144.0023642901434
 30
0.0
 10
236.2785849750712
 20
144.018110008172
 30
0.0
  0
SPLINE
  5
DA
330
1F
100
AcDbEntity
  8
0
  6
Continuous
 62
     7
370
    15
100
AcDbSpline
210
0.0
220
0.0
230
1.0
 70
     8
 71
     3
 72
    12
 73
     8
 74
     0
 42
0.00000001
 43
0.00000001
 12
1.0
 22
0.0
 32
0.0
 13
1.0
 23
0.0
 33
0.0
 40
0.0
 40
0.0
 40
0.0
 40
0.0
 40
0.2058585741214016
 40
0.4121026961456911
 40
0.6141937841967131
 40
0.8133180967416295
 40
1.0
 40
1.0
 40
1.0
 40
1.0
 10
233.3971988689341
 20
143.7747320180508
 30
0.0
 10
233.4384235977651
 20
143.7237363891739
 30
0.0
 10
233.5209502642965
 20
143.6216496228513
 30
0.0
 10
233.5724802652396
 20
143.4269357607223
 30
0.0
 10
233.5604301767299
 20
143.2309803813203
 30
0.0
 10
233.489816772751
 20
143.0522494933176
 30
0.0
 10
233.4046162634563
 20
142.9639994300234
 30
0.0
 10
233.3633898845588
 20
142.9212974488121
 30
0.0
  0
SPLINE
  5
DB
330
1F
100
AcDbEntity
  8
0
  6
Continuous
 62
     7
370
    15
100
AcDbSpline
210
0.0
220
0.0
230
1.0
 70
     8
 71
     3
 72
    11
 73
     7
 74
     0
 42
0.00000001
 43
0.00000001
 12
1.0
 22
0.0
 32
0.0
 13
1.0
 23
0.0
 33
0.0
 40
0.0
 40
0.0
 40
0.0
 40
0.0
 40
0.2524782265335385
 40
0.5068902417933355
 40
0.7591786113117002
 40
1.0
 40
1.0
 40
1.0
 40
1.0
 10
233.3633898845588
 20
142.9212974488121
 30
0.0
 10
233.3374468311258
 20
142.8939269300339
 30
0.0
 10
233.2853620204548
 20
142.8389762553876
 30
0.0
 10
233.2478024724955
 20
142.7295389631493
 30
0.0
 10
233.244371302921
 20
142.6152859319706
 30
0.0
 10
233.2726045299693
 20
142.5464053725793
 30
0.0
 10
233.2863928698507
 20
142.5127659815712
 30
0.0
  0
SPLINE
  5
DC
330
1F
100
AcDbEntity
  8
0
  6
Continuous
 62
     7
370
    15
100
AcDbSpline
210
0.0
220
0.0
230
1.0
 70
     8
 71
     3
 72
    11
 73
     7
 74
     0
 42
0.00000001
 43
0.00000001
 12
1.0
 22
0.0
 32
0.0
 13
1.0
 23
0.0
 33
0.0
 40
0.0
 40
0.0
 40
0.0
 40
0.0
 40
0.2423611237745469
 40
0.516684792845798
 40
0.7923341374633854
 40
1.0
 40
1.0
 40
1.0
 40
1.0
 10
233.3327972506622
 20
144.1515386158095
 30
0.0
 10
233.3213735858641
 20
144.1204100702016
 30
0.0
 10
233.2970197052259
 20
144.0540477514909
 30
0.0
 10
233.3018349233725
 20
143.9442927960038
 30
0.0
 10
233.3368832519109
 20
143.8458744215274
 30
0.0
 10
233.3790717520232
 20
143.7961129924782
 30
0.0
 10
233.3971988689341
 20
143.7747320180509
 30
0.0
  0
SPLINE
  5
DD
330
1F
100
AcDbEntity
  8
0
  6
Continuous
 62
     7
370
    15
100
AcDbSpline
210
0.0
220
0.0
230
1.0
 70
     8
 71
     3
 72
    12
 73
     8
 74
     0
 42
0.00000001
 43
0.00000001
 12
1.0
 22
0.0
 32
0.0
 13
1.0
 23
0.0
 33
0.0
 40
0.0
 40
0.0
 40
0.0
 40
0.0
 40
0.0091735205189998
 40
0.2576775215524982
 40
0.5061895192299354
 40
0.7560357430218572
 40
1.0
 40
1.0
 40
1.0
 40
1.0
 10
234.7049833658596
 20
141.6170581309266
 30
0.0
 10
234.7063541234878
 20
141.6170106226563
 30
0.0
 10
234.7448577086211
 20
141.615676149885
 30
0.0
 10
234.8215849157007
 20
141.6265754434771
 30
0.0
 10
234.9218801874461
 20
141.678603843362
 30
0.0
 10
235.0014763843275
 20
141.7594245635889
 30
0.0
 10
235.0277491155577
 20
141.8282239697149
 30
0.0
 10
235.0407290088629
 20
141.8622139246667
 30
0.0
  0
SPLINE
  5
DE
330
1F
100
AcDbEntity
  8
0
  6
Continuous
 62
     7
370
    15
100
AcDbSpline
210
0.0
220
0.0
230
1.0
 70
     8
 71
     3
 72
    12
 73
     8
 74
     0
 42
0.00000001
 43
0.00000001
 12
1.0
 22
0.0
 32
0.0
 13
1.0
 23
0.0
 33
0.0
 40
0.0
 40
0.0
 40
0.0
 40
0.0
 40
0.2057532787803989
 40
0.4119604088044083
 40
0.6140154573249014
 40
0.8131414684041057
 40
0.9999999999999999
 40
0.9999999999999999
 40
0.9999999999999999
 40
0.9999999999999999
 10
235.0407290088629
 20
141.8622139246667
 30
0.0
 10
235.0642661442837
 20
141.9233852560452
 30
0.0
 10
235.1113923334143
 20
142.0458628507215
 30
0.0
 10
235.2541928047197
 20
142.1878363971911
 30
0.0
 10
235.4298778364471
 20
142.2754067654377
 30
0.0
 10
235.619999958592
 20
142.3036772431166
 30
0.0
 10
235.7390812243244
 20
142.2740126580094
 30
0.0
 10
235.7967295184791
 20
142.2596517699409
 30
0.0
  0
SPLINE
  5
DF
330
1F
100
AcDbEntity
  8
0
  6
Continuous
 62
     7
370
    15
100
AcDbSpline
210
0.0
220
0.0
230
1.0
 70
     8
 71
     3
 72
    11
 73
     7
 74
     0
 42
0.00000001
 43
0.00000001
 12
1.0
 22
0.0
 32
0.0
 13
1.0
 23
0.0
 33
0.0
 40
0.0
 40
0.0
 40
0.0
 40
0.0
 40
0.2794069064556119
 40
0.5596240257155805
 40
0.837500739221964
 40
1.0
 40
1.0
 40
1.0
 40
1.0
 10
235.7967295184791
 20
142.2596517699409
 30
0.0
 10
235.8335781854925
 20
142.250846804692
 30
0.0
 10
235.9073823717881
 20
142.2332113419134
 30
0.0
 10
236.0212173284555
 20
142.2555770237312
 30
0.0
 10
236.1088198279859
 20
142.3032797016318
 30
0.0
 10
236.1495815812294
 20
142.3472714301506
 30
0.0
 10
236.1646227168883
 20
142.363504430546
 30
0.0
  0
SPLINE
  5
E0
330
1F
100
AcDbEntity
  8
0
  6
Continuous
 62
     7
370
    15
100
AcDbSpline
210
0.0
220
0.0
230
1.0
 70
     8
 71
     3
 72
    12
 73
     8
 74
     0
 42
0.00000001
 43
0.00000001
 12
1.0
 22
0.0
 32
0.0
 13
1.0
 23
0.0
 33
0.0
 40
0.0
 40
0.0
 40
0.0
 40
0.0
 40
0.2058435564095179
 40
0.41206916205532
 40
0.6141397217727201
 40
0.8132604579561435
 40
1.0
 40
1.0
 40
1.0
 40
1.0
 10
233.6668675208758
 20
142.3440266870042
 30
0.0
 10
233.7316398666402
 20
142.3542303674182
 30
0.0
 10
233.8613047767741
 20
142.3746566664554
 30
0.0
 10
234.0556856718285
 20
142.3219350197469
 30
0.0
 10
234.2193566893418
 20
142.2135381929216
 30
0.0
 10
234.3388515332236
 20
142.0630247260146
 30
0.0
 10
234.3726850836513
 20
141.9451002602021
 30
0.0
 10
234.3890590461167
 20
141.8880299630397
 30
0.0
  0
SPLINE
  5
E1
330
1F
100
AcDbEntity
  8
0
  6
Continuous
 62
     7
370
    15
100
AcDbSpline
210
0.0
220
0.0
230
1.0
 70
     8
 71
     3
 72
    11
 73
     7
 74
     0
 42
0.00000001
 43
0.00000001
 12
1.0
 22
0.0
 32
0.0
 13
1.0
 23
0.0
 33
0.0
 40
0.0
 40
0.0
 40
0.0
 40
0.0
 40
0.2535086227484166
 40
0.5075674742604559
 40
0.7595056251924509
 40
0.9999999999999999
 40
0.9999999999999999
 40
0.9999999999999999
 40
0.9999999999999999
 10
234.3890590461167
 20
141.8880299630397
 30
0.0
 10
234.3998695808598
 20
141.8516813142372
 30
0.0
 10
234.4215141141125
 20
141.7789051235678
 30
0.0
 10
234.4978165164563
 20
141.6916401424319
 30
0.0
 10
234.5951576109491
 20
141.6317222691708
 30
0.0
 10
234.6689463801176
 20
141.6218698560202
 30
0.0
 10
234.7049833658596
 20
141.6170581309266
 30
0.0
  0
SPLINE
  5
E2
330
1F
100
AcDbEntity
  8
0
  6
Continuous
 62
     7
370
    15
100
AcDbSpline
210
0.0
220
0.0
230
1.0
 70
     8
 71
     3
 72
    12
 73
     8
 74
     0
 42
0.00000001
 43
0.00000001
 12
1.0
 22
0.0
 32
0.0
 13
1.0
 23
0.0
 33
0.0
 40
0.0
 40
0.0
 40
0.0
 40
0.0
 40
0.009168177149184
 40
0.257326809700273
 40
0.5054934687429765
 40
0.7549925359452893
 40
1.0
 40
1.0
 40
1.0
 40
1.0
 10
233.2863928698507
 20
142.5127659815712
 30
0.0
 10
233.2870353689883
 20
142.5115529397187
 30
0.0
 10
233.3050686432852
 20
142.4775060201556
 30
0.0
 10
233.3527590547491
 20
142.4164182298035
 30
0.0
 10
233.4478506541218
 20
142.3553991120682
 30
0.0
 10
233.557796400963
 20
142.3266147114445
 30
0.0
 10
233.630731303494
 20
142.3382579469896
 30
0.0
 10
233.6668675208758
 20
142.3440266870042
 30
0.0
  0
CIRCLE
  5
E3
330
1F
100
AcDbEntity
  8
0
  6
Continuous
 62
     7
370
    15
100
AcDbCircle
 10
234.7697263011
 20
143.2908064251
 30
0.0
 40
2.624999999999995
  0
SPLINE
  5
E4
330
1F
100
AcDbEntity
  8
0
  6
HIDDEN
 62
     7
370
     0
100
AcDbSpline
210
0.0
220
0.0
230
1.0
 70
     8
 71
     3
 72
    58
 73
    54
 74
     0
 42
0.00000001
 43
0.00000001
 12
1.0
 22
0.0
 32
0.0
 13
1.0
 23
0.0
 33
0.0
 40
-0.0624999999999997
 40
-0.0624999999999997
 40
0.0
 40
0.0
 40
0.0312500000000002
 40
0.0312500000000002
 40
0.0625000000000004
 40
0.0625000000000004
 40
0.0937500000000006
 40
0.0937500000000006
 40
0.1250000000000008
 40
0.1250000000000008
 40
0.1875000000000012
 40
0.1875000000000012
 40
0.2500000000000017
 40
0.2500000000000017
 40
0.2812500000000017
 40
0.2812500000000017
 40
0.3125000000000016
 40
0.3125000000000016
 40
0.3437500000000016
 40
0.3437500000000016
 40
0.3750000000000016
 40
0.3750000000000016
 40
0.4062500000000016
 40
0.4062500000000016
 40
0.4375000000000016
 40
0.4375000000000016
 40
0.4687500000000016
 40
0.4687500000000016
 40
0.5000000000000017
 40
0.5000000000000017
 40
0.5625000000000018
 40
0.5625000000000018
 40
0.6250000000000017
 40
0.6250000000000017
 40
0.6562500000000016
 40
0.6562500000000016
 40
0.6875000000000014
 40
0.6875000000000014
 40
0.7187500000000013
 40
0.7187500000000013
 40
0.7500000000000012
 40
0.7500000000000012
 40
0.7812500000000011
 40
0.7812500000000011
 40
0.812500000000001
 40
0.812500000000001
 40
0.8437500000000009
 40
0.8437500000000009
 40
0.8750000000000007
 40
0.8750000000000007
 40
0.9375000000000003
 40
0.9375000000000003
 40
1.0
 40
1.0
 40
1.03125
 40
1.03125
 10
194.029932805918
 20
116.6774273901628
 30
0.0
 10
194.029932805918
 20
117.073985945978
 30
0.0
 10
194.0169569139075
 20
117.2039526855228
 30
0.0
 10
193.9661246118017
 20
117.4596320236549
 30
0.0
 10
193.9276475404802
 20
117.5866731154963
 30
0.0
 10
193.8272425793238
 20
117.8288513014369
 30
0.0
 10
193.7658083370046
 20
117.9437049600264
 30
0.0
 10
193.6206740708228
 20
118.1610700818322
 30
0.0
 10
193.5362321496755
 20
118.2639455539165
 30
0.0
 10
193.2595601200656
 20
118.5405635063336
 30
0.0
 10
193.0365139650975
 20
118.6895556261665
 30
0.0
 10
192.555249966553
 20
118.8890794211578
 30
0.0
 10
192.2919921112332
 20
118.94165828566
 30
0.0
 10
191.9005260799484
 20
118.9418700592475
 30
0.0
 10
191.7679773363349
 20
118.9288790876581
 30
0.0
 10
191.5114330273196
 20
118.8778428643683
 30
0.0
 10
191.386737140948
 20
118.8400813229655
 30
0.0
 10
191.1445341705142
 20
118.7399217836721
 30
0.0
 10
191.0274708072636
 20
118.6773239739216
 30
0.0
 10
190.8107844880174
 20
118.532601989886
 30
0.0
 10
190.7097705199497
 20
118.4499778847177
 30
0.0
 10
190.5229773256642
 20
118.2633575141067
 30
0.0
 10
190.4401769617099
 20
118.1623091462155
 30
0.0
 10
190.2952985228154
 20
117.9457971253416
 30
0.0
 10
190.232647739488
 20
117.8289077701427
 30
0.0
 10
190.1322073451141
 20
117.5866503680837
 30
0.0
 10
190.0943483333442
 20
117.4619877032684
 30
0.0
 10
190.0431106288806
 20
117.2056565076136
 30
0.0
 10
190.0299802541076
 20
117.0730685682632
 30
0.0
 10
190.0298383036686
 20
116.6814368996938
 30
0.0
 10
190.0821792199167
 20
116.4182240666596
 30
0.0
 10
190.2813094466548
 20
115.9367167359682
 30
0.0
 10
190.4301465342971
 20
115.7135162546927
 30
0.0
 10
190.7064585708365
 20
115.4366701747309
 30
0.0
 10
190.8092241080878
 20
115.3521580805122
 30
0.0
 10
191.0265410404416
 20
115.2067794837807
 30
0.0
 10
191.1413279509784
 20
115.1452640521789
 30
0.0
 10
191.3832474410843
 20
115.0447079919333
 30
0.0
 10
191.5103743435843
 20
115.0060692660987
 30
0.0
 10
191.7660431792205
 20
114.9550043992113
 30
0.0
 10
191.8959383845985
 20
114.941929918835
 30
0.0
 10
192.1600131670229
 20
114.9416715175614
 30
0.0
 10
192.2903423065082
 20
114.9545475855244
 30
0.0
 10
192.5460316206521
 20
115.0051463768523
 30
0.0
 10
192.6729594870397
 20
115.04345172269
 30
0.0
 10
192.9154117758818
 20
115.1437075551099
 30
0.0
 10
193.0303284698635
 20
115.2050585740219
 30
0.0
 10
193.2477192616339
 20
115.3499274095922
 30
0.0
 10
193.3507045413155
 20
115.4342913628615
 30
0.0
 10
193.6276689089728
 20
115.7108174166476
 30
0.0
 10
193.7768011873312
 20
115.9336772586433
 30
0.0
 10
193.9767533060457
 20
116.4147797787041
 30
0.0
 10
194.029932805918
 20
116.6774273901628
 30
0.0
 10
194.029932805918
 20
117.073985945978
 30
0.0
  0
SPLINE
  5
E5
330
1F
100
AcDbEntity
  8
0
  6
HIDDEN
 62
     7
370
     0
100
AcDbSpline
210
0.0
220
0.0
230
1.0
 70
     8
 71
     3
 72
    12
 73
     8
 74
     0
 42
0.00000001
 43
0.00000001
 12
1.0
 22
0.0
 32
0.0
 13
1.0
 23
0.0
 33
0.0
 40
0.0
 40
0.0
 40
0.0
 40
0.0
 40
0.5
 40
0.5
 40
0.75
 40
0.75
 40
1.0
 40
1.0
 40
1.0
 40
1.0
 10
188.1246769175923
 20
108.845346762662
 30
0.0
 10
188.1553763009595
 20
108.9596824297259
 30
0.0
 10
188.1967263690661
 20
109.0710357825673
 30
0.0
 10
188.2964822972855
 20
109.223772554816
 30
0.0
 10
188.3361792150182
 20
109.2716324406681
 30
0.0
 10
188.4334373666659
 20
109.3462355540176
 30
0.0
 10
188.4942135246566
 20
109.3729897915257
 30
0.0
 10
188.5576896194845
 20
109.3729897915257
 30
0.0
  0
LINE
  5
E6
330
1F
100
AcDbEntity
  8
0
  6
HIDDEN
 62
     7
370
     0
100
AcDbLine
 10
188.5576896195
 20
109.3729897915
 30
0.0
 11
191.5021759924
 21
109.3729897915
 31
0.0
  0
SPLINE
  5
E7
330
1F
100
AcDbEntity
  8
0
  6
HIDDEN
 62
     7
370
     0
100
AcDbSpline
210
0.0
220
0.0
230
1.0
 70
     8
 71
     3
 72
    12
 73
     8
 74
     0
 42
0.00000001
 43
0.00000001
 12
1.0
 22
0.0
 32
0.0
 13
1.0
 23
0.0
 33
0.0
 40
0.0
 40
0.0
 40
0.0
 40
0.0
 40
0.2500000000000016
 40
0.2500000000000016
 40
0.5000000000000032
 40
0.5000000000000032
 40
1.0
 40
1.0
 40
1.0
 40
1.0
 10
191.5021759923516
 20
109.3729897915257
 30
0.0
 10
191.5658412288821
 20
109.3729897915257
 30
0.0
 10
191.6254474611055
 20
109.346917643046
 30
0.0
 10
191.7241079860363
 20
109.2713788922249
 30
0.0
 10
191.7630749760516
 20
109.2241279551287
 30
0.0
 10
191.862461807976
 20
109.0723041371622
 30
0.0
 10
191.9045380553995
 20
108.9595008873972
 30
0.0
 10
191.9351886942438
 20
108.8453467626621
 30
0.0
  0
ELLIPSE
  5
E8
330
1F
100
AcDbEntity
  8
0
  6
HIDDEN
 62
     7
370
     0
100
AcDbEllipse
 10
178.9736751509
 20
116.9417997607
 30
0.0
 11
-11.70927234972715
 21
24.67718644093742
 31
0.0
210
0.0
220
0.0
230
1.0
 40
0.3419987131
 41
3.310521928178957
 42
4.221709151398947
  0
SPLINE
  5
E9
330
1F
100
AcDbEntity
  8
0
  6
HIDDEN
 62
     7
370
     0
100
AcDbSpline
210
0.0
220
0.0
230
1.0
 70
     8
 71
     3
 72
    12
 73
     8
 74
     0
 42
0.00000001
 43
0.00000001
 12
1.0
 22
0.0
 32
0.0
 13
1.0
 23
0.0
 33
0.0
 40
0.0
 40
0.0
 40
0.0
 40
0.0
 40
0.4999999999999987
 40
0.4999999999999987
 40
0.7499999999999993
 40
0.7499999999999993
 40
1.0
 40
1.0
 40
1.0
 40
1.0
 10
191.9351886942438
 20
93.28915828347469
 30
0.0
 10
191.9044893108765
 20
93.25002044107879
 30
0.0
 10
191.86313924277
 20
93.21286065835328
 30
0.0
 10
191.7633833145506
 20
93.16292415272554
 30
0.0
 10
191.7236863968178
 20
93.14747128258179
 30
0.0
 10
191.6264282451702
 20
93.12355173898274
 30
0.0
 10
191.5656520871796
 20
93.11506864520435
 30
0.0
 10
191.5021759923516
 20
93.11506864520436
 30
0.0
  0
LINE
  5
EA
330
1F
100
AcDbEntity
  8
0
  6
HIDDEN
 62
     7
370
     0
100
AcDbLine
 10
191.5021759924
 20
93.1150686452
 30
0.0
 11
188.5576896195
 21
93.1150686452
 31
0.0
  0
SPLINE
  5
EB
330
1F
100
AcDbEntity
  8
0
  6
HIDDEN
 62
     7
370
     0
100
AcDbSpline
210
0.0
220
0.0
230
1.0
 70
     8
 71
     3
 72
    12
 73
     8
 74
     0
 42
0.00000001
 43
0.00000001
 12
1.0
 22
0.0
 32
0.0
 13
1.0
 23
0.0
 33
0.0
 40
0.0
 40
0.0
 40
0.0
 40
0.0
 40
0.25
 40
0.25
 40
0.5
 40
0.5
 40
1.0
 40
1.0
 40
1.0
 40
1.0
 10
188.5576896194845
 20
93.11506864520435
 30
0.0
 10
188.494024382954
 20
93.11506864520435
 30
0.0
 10
188.4344181507306
 20
93.1233334208702
 30
0.0
 10
188.3357576257998
 20
93.14755220245335
 30
0.0
 10
188.2967906357845
 20
93.16280952176251
 30
0.0
 10
188.1974038038601
 20
93.21244287602444
 30
0.0
 10
188.1553275564366
 20
93.25008258419855
 30
0.0
 10
188.1246769175923
 20
93.2891582834747
 30
0.0
  0
ELLIPSE
  5
EC
330
1F
100
AcDbEntity
  8
0
  6
HIDDEN
 62
     7
370
     0
100
AcDbEllipse
 10
201.0861904609
 20
116.9417997607
 30
0.0
 11
11.709272349727
 21
24.67718644093745
 31
0.0
210
0.0
220
0.0
230
1.0
 40
0.3419987131
 41
2.061476155780646
 42
2.97266337900066
  0
SPLINE
  5
ED
330
1F
100
AcDbEntity
  8
0
  6
HIDDEN
 62
     7
370
     0
100
AcDbSpline
210
0.0
220
0.0
230
1.0
 70
     8
 71
     3
 72
    12
 73
     8
 74
     0
 42
0.00000001
 43
0.00000001
 12
1.0
 22
0.0
 32
0.0
 13
1.0
 23
0.0
 33
0.0
 40
0.0
 40
0.0
 40
0.0
 40
0.0
 40
0.4999999999999982
 40
0.4999999999999982
 40
0.7499999999999991
 40
0.7499999999999991
 40
1.0
 40
1.0
 40
1.0
 40
1.0
 10
188.1246769175923
 20
140.594441237938
 30
0.0
 10
188.1553763009596
 20
140.6335790803339
 30
0.0
 10
188.1967263690661
 20
140.6707388630594
 30
0.0
 10
188.2964822972855
 20
140.7206753686871
 30
0.0
 10
188.3361792150182
 20
140.7361282388309
 30
0.0
 10
188.4334373666659
 20
140.76004778243
 30
0.0
 10
188.4942135246566
 20
140.7685308762083
 30
0.0
 10
188.5576896194845
 20
140.7685308762083
 30
0.0
  0
LINE
  5
EE
330
1F
100
AcDbEntity
  8
0
  6
HIDDEN
 62
     7
370
     0
100
AcDbLine
 10
188.5576896195
 20
140.7685308762
 30
0.0
 11
191.5021759924
 21
140.7685308762
 31
0.0
  0
SPLINE
  5
EF
330
1F
100
AcDbEntity
  8
0
  6
HIDDEN
 62
     7
370
     0
100
AcDbSpline
210
0.0
220
0.0
230
1.0
 70
     8
 71
     3
 72
    12
 73
     8
 74
     0
 42
0.00000001
 43
0.00000001
 12
1.0
 22
0.0
 32
0.0
 13
1.0
 23
0.0
 33
0.0
 40
0.0
 40
0.0
 40
0.0
 40
0.0
 40
0.2500000000000009
 40
0.2500000000000009
 40
0.5000000000000019
 40
0.5000000000000019
 40
1.0
 40
1.0
 40
1.0
 40
1.0
 10
191.5021759923516
 20
140.7685308762083
 30
0.0
 10
191.5658412288821
 20
140.7685308762083
 30
0.0
 10
191.6254474611055
 20
140.7602661005425
 30
0.0
 10
191.7241079860363
 20
140.7360473189593
 30
0.0
 10
191.7630749760516
 20
140.7207899996502
 30
0.0
 10
191.862461807976
 20
140.6711566453882
 30
0.0
 10
191.9045380553995
 20
140.6335169372141
 30
0.0
 10
191.9351886942438
 20
140.594441237938
 30
0.0
  0
ELLIPSE
  5
F0
330
1F
100
AcDbEntity
  8
0
  6
HIDDEN
 62
     7
370
     0
100
AcDbEllipse
 10
178.9736751509
 20
116.9417997607
 30
0.0
 11
11.70927234972723
 21
24.67718644093742
 31
0.0
210
0.0
220
0.0
230
1.0
 40
0.3419987131
 41
5.203068809370469
 42
6.114256032590515
  0
SPLINE
  5
F1
330
1F
100
AcDbEntity
  8
0
  6
HIDDEN
 62
     7
370
     0
100
AcDbSpline
210
0.0
220
0.0
230
1.0
 70
     8
 71
     3
 72
    12
 73
     8
 74
     0
 42
0.00000001
 43
0.00000001
 12
1.0
 22
0.0
 32
0.0
 13
1.0
 23
0.0
 33
0.0
 40
0.0
 40
0.0
 40
0.0
 40
0.0
 40
0.5000000000000013
 40
0.5000000000000013
 40
0.7500000000000007
 40
0.7500000000000007
 40
1.0
 40
1.0
 40
1.0
 40
1.0
 10
191.9351886942438
 20
125.0382527587509
 30
0.0
 10
191.9044893108765
 20
124.923917091687
 30
0.0
 10
191.86313924277
 20
124.8125637388456
 30
0.0
 10
191.7633833145506
 20
124.6598269665969
 30
0.0
 10
191.7236863968178
 20
124.6119670807448
 30
0.0
 10
191.6264282451702
 20
124.5373639673953
 30
0.0
 10
191.5656520871796
 20
124.5106097298872
 30
0.0
 10
191.5021759923516
 20
124.5106097298872
 30
0.0
  0
LINE
  5
F2
330
1F
100
AcDbEntity
  8
0
  6
HIDDEN
 62
     7
370
     0
100
AcDbLine
 10
191.5021759924
 20
124.5106097299
 30
0.0
 11
188.5576896195
 21
124.5106097299
 31
0.0
  0
SPLINE
  5
F3
330
1F
100
AcDbEntity
  8
0
  6
HIDDEN
 62
     7
370
     0
100
AcDbSpline
210
0.0
220
0.0
230
1.0
 70
     8
 71
     3
 72
    12
 73
     8
 74
     0
 42
0.00000001
 43
0.00000001
 12
1.0
 22
0.0
 32
0.0
 13
1.0
 23
0.0
 33
0.0
 40
0.0
 40
0.0
 40
0.0
 40
0.0
 40
0.2500000000000014
 40
0.2500000000000014
 40
0.5000000000000028
 40
0.5000000000000028
 40
1.0
 40
1.0
 40
1.0
 40
1.0
 10
188.5576896194845
 20
124.5106097298872
 30
0.0
 10
188.494024382954
 20
124.5106097298872
 30
0.0
 10
188.4344181507306
 20
124.5366818783669
 30
0.0
 10
188.3357576257998
 20
124.612220629188
 30
0.0
 10
188.2967906357845
 20
124.6594715662842
 30
0.0
 10
188.1974038038601
 20
124.8112953842507
 30
0.0
 10
188.1553275564366
 20
124.9240986340157
 30
0.0
 10
188.1246769175923
 20
125.0382527587508
 30
0.0
  0
ELLIPSE
  5
F4
330
1F
100
AcDbEntity
  8
0
  6
HIDDEN
 62
     7
370
     0
100
AcDbEllipse
 10
201.0861904609
 20
116.9417997607
 30
0.0
 11
-11.70927234972714
 21
24.67718644093745
 31
0.0
210
0.0
220
0.0
230
1.0
 40
0.3419987131
 41
0.1689292745891175
 42
1.080116497809135
  0
LINE
  5
F5
330
1F
100
AcDbEntity
  8
0
  6
HIDDEN
 62
     7
370
     0
100
AcDbLine
 10
180.0299328059
 20
141.6417997605
 30
0.0
 11
180.0299328059
 21
92.2417997607
 31
0.0
  0
LWPOLYLINE
  5
F6
330
1F
100
AcDbEntity
  8
0
  6
HIDDEN
 62
     7
370
     0
100
AcDbPolyline
 90
       32
 70
   128
 43
0.0
 10
198.0299328059
 20
129.7236317479
 10
198.6338283662
 20
129.6733274765
 10
199.2130003713
 20
129.524474125
 10
199.7437374512
 20
129.2831657673
 10
200.2043111676
 20
128.9592815957
 10
200.5758655784
 20
128.5660814663
 10
200.8431892024
 20
128.1196630386
 10
200.9953377789
 20
127.6383027355
 10
201.0260823274
 20
127.1417075044
 10
200.9341641625
 20
126.6502080124
 10
200.7233464246
 20
126.1839263064
 10
200.4022600167
 20
125.7619520142
 10
199.9840502541
 20
125.4015608131
 10
199.4858386935
 20
125.1175071609
 10
198.9280221748
 20
124.9214202478
 10
198.3334377719
 20
124.8213278949
 10
197.72642784
 20
124.8213278949
 10
197.131843437
 20
124.9214202478
 10
196.5740269183
 20
125.1175071609
 10
196.0758153578
 20
125.4015608131
 10
195.6576055951
 20
125.7619520142
 10
195.3365191872
 20
126.1839263064
 10
195.1257014493
 20
126.6502080124
 10
195.0337832844
 20
127.1417075044
 10
195.0645278329
 20
127.6383027355
 10
195.2166764095
 20
128.1196630386
 10
195.4840000334
 20
128.5660814663
 10
195.8555544442
 20
128.9592815957
 10
196.3161281606
 20
129.2831657673
 10
196.8468652406
 20
129.524474125
 10
197.4260372457
 20
129.6733274765
 10
198.0299328059
 20
129.7236317479
  0
LINE
  5
F7
330
1F
100
AcDbEntity
  8
0
  6
HIDDEN
 62
     7
370
     0
100
AcDbLine
 10
180.0299328059
 20
97.3917997607
 30
0.0
 11
180.0299328059
 21
136.4917997607
 31
0.0
  0
SPLINE
  5
F8
330
1F
100
AcDbEntity
  8
0
  6
HIDDEN
 62
     7
370
     0
100
AcDbSpline
210
0.0
220
0.0
230
1.0
 70
     8
 71
     3
 72
    14
 73
    10
 74
     0
 42
0.00000001
 43
0.00000001
 12
1.0
 22
0.0
 32
0.0
 13
1.0
 23
0.0
 33
0.0
 40
0.0
 40
0.0
 40
0.0
 40
0.0
 40
0.25
 40
0.25
 40
0.5
 40
0.5
 40
0.75
 40
0.75
 40
1.0
 40
1.0
 40
1.0
 40
1.0
 10
178.9890717777897
 20
129.2362753057797
 30
0.0
 10
179.0207869121204
 20
129.1784921234365
 30
0.0
 10
179.0554014374208
 20
129.1220794623616
 30
0.0
 10
179.1350726328361
 20
129.0144800123462
 30
0.0
 10
179.1801285098665
 20
128.9625673854251
 30
0.0
 10
179.2906829223719
 20
128.8763687607279
 30
0.0
 10
179.3580683365761
 20
128.8422793407562
 30
0.0
 10
179.5086978564741
 20
128.8401769487394
 30
0.0
 10
179.5785250932395
 20
128.8735487215841
 30
0.0
 10
179.6349559170429
 20
128.9173613901348
 30
0.0
  0
SPLINE
  5
F9
330
1F
100
AcDbEntity
  8
0
  6
HIDDEN
 62
     7
370
     0
100
AcDbSpline
210
0.0
220
0.0
230
1.0
 70
     8
 71
     3
 72
    16
 73
    12
 74
     0
 42
0.00000001
 43
0.00000001
 12
1.0
 22
0.0
 32
0.0
 13
1.0
 23
0.0
 33
0.0
 40
0.0
 40
0.0
 40
0.0
 40
0.0
 40
0.0624999999999993
 40
0.0624999999999993
 40
0.1249999999999986
 40
0.1249999999999986
 40
0.2500000000000013
 40
0.2500000000000013
 40
0.4999999999999976
 40
0.4999999999999976
 40
1.0
 40
1.0
 40
1.0
 40
1.0
 10
179.6349559170112
 20
128.9173613901654
 30
0.0
 10
179.6466901514581
 20
128.9264718034133
 30
0.0
 10
179.660221906937
 20
128.9345491593597
 30
0.0
 10
179.6902093673669
 20
128.9427960010367
 30
0.0
 10
179.7052040737751
 20
128.9418686834491
 30
0.0
 10
179.7409444961699
 20
128.9291021639173
 30
0.0
 10
179.7549578331711
 20
128.911453517407
 30
0.0
 10
179.7891019219525
 20
128.8568005973754
 30
0.0
 10
179.8000738260708
 20
128.8154009297169
 30
0.0
 10
179.8259193663372
 20
128.6869111859942
 30
0.0
 10
179.829932805918
 20
128.5962930983555
 30
0.0
 10
179.829932805918
 20
128.5040739938014
 30
0.0
  0
LINE
  5
FA
330
1F
100
AcDbEntity
  8
0
  6
HIDDEN
 62
     7
370
     0
100
AcDbLine
 10
179.8299328059
 20
105.3795255276
 30
0.0
 11
179.8299328059
 21
128.5040739938
 31
0.0
  0
SPLINE
  5
FB
330
1F
100
AcDbEntity
  8
0
  6
HIDDEN
 62
     7
370
     0
100
AcDbSpline
210
0.0
220
0.0
230
1.0
 70
     8
 71
     3
 72
    16
 73
    12
 74
     0
 42
0.00000001
 43
0.00000001
 12
1.0
 22
0.0
 32
0.0
 13
1.0
 23
0.0
 33
0.0
 40
0.0
 40
0.0
 40
0.0
 40
0.0
 40
0.5000000000000036
 40
0.5000000000000036
 40
0.7500000000000053
 40
0.7500000000000053
 40
0.8750000000000037
 40
0.8750000000000037
 40
0.9375000000000019
 40
0.9375000000000019
 40
1.0
 40
1.0
 40
1.0
 40
1.0
 10
179.829932805918
 20
105.3795255276112
 30
0.0
 10
179.829932805918
 20
105.2869416767073
 30
0.0
 10
179.825875503803
 20
105.196729220847
 30
0.0
 10
179.8002182610082
 20
105.0687880937286
 30
0.0
 10
179.7889028152661
 20
105.0263748793167
 30
0.0
 10
179.7548714479574
 20
104.9720608358656
 30
0.0
 10
179.7409924667536
 20
104.9544795004757
 30
0.0
 10
179.7050567849863
 20
104.9416958125408
 30
0.0
 10
179.6901064657235
 20
104.9408203143926
 30
0.0
 10
179.6602079529817
 20
104.949065749512
 30
0.0
 10
179.6466750926164
 20
104.9571394096838
 30
0.0
 10
179.6349559170424
 20
104.9662381312779
 30
0.0
  0
SPLINE
  5
FC
330
1F
100
AcDbEntity
  8
0
  6
HIDDEN
 62
     7
370
     0
100
AcDbSpline
210
0.0
220
0.0
230
1.0
 70
     8
 71
     3
 72
    14
 73
    10
 74
     0
 42
0.00000001
 43
0.00000001
 12
1.0
 22
0.0
 32
0.0
 13
1.0
 23
0.0
 33
0.0
 40
0.0
 40
0.0
 40
0.0
 40
0.0
 40
0.25
 40
0.25
 40
0.5
 40
0.5
 40
0.75
 40
0.75
 40
1.0
 40
1.0
 40
1.0
 40
1.0
 10
179.6349559170493
 20
104.9662381312864
 30
0.0
 10
179.5785001524405
 20
105.0100701637812
 30
0.0
 10
179.5076345261906
 20
105.043401200203
 30
0.0
 10
179.3591774450179
 20
105.0413421900556
 30
0.0
 10
179.2899840857104
 20
105.0067461656539
 30
0.0
 10
179.1802686475762
 20
104.9210808089911
 30
0.0
 10
179.1350240682449
 20
104.869058364283
 30
0.0
 10
179.0553973588211
 20
104.7615101039531
 30
0.0
 10
179.0207872102876
 20
104.7051079412201
 30
0.0
 10
178.9890717777884
 20
104.6473242156306
 30
0.0
  0
SPLINE
  5
FD
330
1F
100
AcDbEntity
  8
0
  6
HIDDEN
 62
     7
370
     0
100
AcDbSpline
210
0.0
220
0.0
230
1.0
 70
     8
 71
     3
 72
    10
 73
     6
 74
     0
 42
0.00000001
 43
0.00000001
 12
1.0
 22
0.0
 32
0.0
 13
1.0
 23
0.0
 33
0.0
 40
0.0
 40
0.0
 40
0.0
 40
0.0
 40
0.5
 40
0.5
 40
1.0
 40
1.0
 40
1.0
 40
1.0
 10
178.989071777789
 20
104.6473242156316
 30
0.0
 10
178.9172919898655
 20
104.5165454987297
 30
0.0
 10
178.8648324755574
 20
104.3824453492265
 30
0.0
 10
178.7754894114563
 20
104.1143527862378
 30
0.0
 10
178.7394938019565
 20
103.9801074146489
 30
0.0
 10
178.7086124623584
 20
103.8467530371739
 30
0.0
  0
SPLINE
  5
FE
330
1F
100
AcDbEntity
  8
0
  6
HIDDEN
 62
     7
370
     0
100
AcDbSpline
210
0.0
220
0.0
230
1.0
 70
     8
 71
     3
 72
    10
 73
     6
 74
     0
 42
0.00000001
 43
0.00000001
 12
1.0
 22
0.0
 32
0.0
 13
1.0
 23
0.0
 33
0.0
 40
0.0
 40
0.0
 40
0.0
 40
0.0
 40
0.5
 40
0.5
 40
1.0
 40
1.0
 40
1.0
 40
1.0
 10
178.7086124623584
 20
99.64488989270147
 30
0.0
 10
178.7394854941707
 20
99.62860674533434
 30
0.0
 10
178.7754723570836
 20
99.61634915560876
 30
0.0
 10
178.8648069429748
 20
99.59924616678002
 30
0.0
 10
178.9172628023973
 20
99.59444657092168
 30
0.0
 10
178.9890717777896
 20
99.59264247951374
 30
0.0
  0
SPLINE
  5
FF
330
1F
100
AcDbEntity
  8
0
  6
HIDDEN
 62
     7
370
     0
100
AcDbSpline
210
0.0
220
0.0
230
1.0
 70
     8
 71
     3
 72
     8
 73
     4
 74
     0
 42
0.00000001
 43
0.00000001
 12
1.0
 22
0.0
 32
0.0
 13
1.0
 23
0.0
 33
0.0
 40
0.0
 40
0.0
 40
0.0
 40
0.0
 40
1.0
 40
1.0
 40
1.0
 40
1.0
 10
179.8122361825431
 20
99.46675810126668
 30
0.0
 10
179.8262229910851
 20
99.43851771068498
 30
0.0
 10
179.8299328059178
 20
99.4153856678742
 30
0.0
 10
179.8299328059181
 20
99.39504529503905
 30
0.0
  0
LINE
  5
100
330
1F
100
AcDbEntity
  8
0
  6
HIDDEN
 62
     7
370
     0
100
AcDbLine
 10
179.8299328059
 20
99.1019794818
 30
0.0
 11
179.8299328059
 21
99.395045295
 31
0.0
  0
LINE
  5
101
330
1F
100
AcDbEntity
  8
0
  6
HIDDEN
 62
     7
370
     0
100
AcDbLine
 10
179.8299328059
 20
134.4885542264
 30
0.0
 11
179.8299328059
 21
134.7816200396
 31
0.0
  0
SPLINE
  5
102
330
1F
100
AcDbEntity
  8
0
  6
HIDDEN
 62
     7
370
     0
100
AcDbSpline
210
0.0
220
0.0
230
1.0
 70
     8
 71
     3
 72
    10
 73
     6
 74
     0
 42
0.00000001
 43
0.00000001
 12
1.0
 22
0.0
 32
0.0
 13
1.0
 23
0.0
 33
0.0
 40
0.0
 40
0.0
 40
0.0
 40
0.0
 40
0.5
 40
0.5
 40
1.0
 40
1.0
 40
1.0
 40
1.0
 10
178.9890717777896
 20
134.2909570418988
 30
0.0
 10
178.9172628023973
 20
134.2891529504909
 30
0.0
 10
178.8648069429748
 20
134.2843533546325
 30
0.0
 10
178.7754723570836
 20
134.2672503658038
 30
0.0
 10
178.7394854941707
 20
134.2549927760782
 30
0.0
 10
178.7086124623584
 20
134.2387096287111
 30
0.0
  0
SPLINE
  5
103
330
1F
100
AcDbEntity
  8
0
  6
HIDDEN
 62
     7
370
     0
100
AcDbSpline
210
0.0
220
0.0
230
1.0
 70
     8
 71
     3
 72
    10
 73
     6
 74
     0
 42
0.00000001
 43
0.00000001
 12
1.0
 22
0.0
 32
0.0
 13
1.0
 23
0.0
 33
0.0
 40
0.0
 40
0.0
 40
0.0
 40
0.0
 40
0.5
 40
0.5
 40
1.0
 40
1.0
 40
1.0
 40
1.0
 10
178.7086124623584
 20
130.0368464842387
 30
0.0
 10
178.7394938019566
 20
129.9034921067635
 30
0.0
 10
178.7754894114564
 20
129.7692467351743
 30
0.0
 10
178.8648324755578
 20
129.5011541721852
 30
0.0
 10
178.917291989866
 20
129.3670540226817
 30
0.0
 10
178.9890717777897
 20
129.2362753057797
 30
0.0
  0
LINE
  5
104
330
1F
100
AcDbEntity
  8
0
  6
HIDDEN
 62
     7
370
     0
100
AcDbLine
 10
179.8299328059
 20
99.395045295
 30
0.0
 11
179.8299328059
 21
110.9573195281
 31
0.0
  0
LINE
  5
105
330
1F
100
AcDbEntity
  8
0
  6
HIDDEN
 62
     7
370
     0
100
AcDbLine
 10
179.8299328059
 20
122.9262799933
 30
0.0
 11
179.8299328059
 21
134.4885542264
 31
0.0
  0
LWPOLYLINE
  5
106
330
1F
100
AcDbEntity
  8
0
  6
HIDDEN
 62
     7
370
     0
100
AcDbPolyline
 90
       29
 70
   128
 43
0.0
 10
198.0299328059
 20
129.1417359794
 10
198.5862351408
 20
129.0903913495
 10
199.1146421537
 20
128.9389320937
 10
199.5886573106
 20
128.6949530116
 10
199.9845115121
 20
128.3706882332
 10
200.2823549757
 20
127.9823977484
 10
200.4672525864
 20
127.5495520636
 10
200.5299328059
 20
127.0938558687
 10
200.4672525864
 20
126.6381596739
 10
200.2823549757
 20
126.205313989
 10
199.9845115121
 20
125.8170235043
 10
199.5886573106
 20
125.4927587258
 10
199.1146421537
 20
125.2487796438
 10
198.5862351408
 20
125.097320388
 10
198.0299328059
 20
125.045975758
 10
197.473630471
 20
125.097320388
 10
196.9452234581
 20
125.2487796438
 10
196.4712083013
 20
125.4927587258
 10
196.0753540997
 20
125.8170235043
 10
195.7775106362
 20
126.205313989
 10
195.5926130255
 20
126.6381596739
 10
195.5299328059
 20
127.0938558687
 10
195.5926130255
 20
127.5495520636
 10
195.7775106362
 20
127.9823977484
 10
196.0753540997
 20
128.3706882332
 10
196.4712083013
 20
128.6949530116
 10
196.9452234581
 20
128.9389320937
 10
197.473630471
 20
129.0903913495
 10
198.0299328059
 20
129.1417359794
  0
SPLINE
  5
107
330
1F
100
AcDbEntity
  8
0
  6
HIDDEN
 62
     7
370
     0
100
AcDbSpline
210
0.0
220
0.0
230
1.0
 70
     8
 71
     3
 72
    74
 73
    70
 74
     0
 42
0.00000001
 43
0.00000001
 12
1.0
 22
0.0
 32
0.0
 13
1.0
 23
0.0
 33
0.0
 40
0.0
 40
0.0
 40
0.0
 40
0.0
 40
0.0156250000000001
 40
0.0156250000000001
 40
0.0312500000000001
 40
0.0312500000000001
 40
0.0625000000000003
 40
0.0625000000000003
 40
0.1250000000000006
 40
0.1250000000000006
 40
0.1562500000000006
 40
0.1562500000000006
 40
0.1875000000000006
 40
0.1875000000000006
 40
0.2187500000000006
 40
0.2187500000000006
 40
0.2500000000000006
 40
0.2500000000000006
 40
0.2812500000000006
 40
0.2812500000000006
 40
0.3125000000000006
 40
0.3125000000000006
 40
0.3437500000000006
 40
0.3437500000000006
 40
0.3750000000000006
 40
0.3750000000000006
 40
0.4062500000000007
 40
0.4062500000000007
 40
0.4375000000000007
 40
0.4375000000000007
 40
0.4531250000000005
 40
0.4531250000000005
 40
0.4687500000000003
 40
0.4687500000000003
 40
0.4843750000000002
 40
0.4843750000000002
 40
0.5
 40
0.5
 40
0.5312499999999999
 40
0.5312499999999999
 40
0.5624999999999998
 40
0.5624999999999998
 40
0.6249999999999994
 40
0.6249999999999994
 40
0.6562499999999994
 40
0.6562499999999994
 40
0.6874999999999994
 40
0.6874999999999994
 40
0.7187499999999994
 40
0.7187499999999994
 40
0.7499999999999994
 40
0.7499999999999994
 40
0.7812499999999996
 40
0.7812499999999996
 40
0.8124999999999996
 40
0.8124999999999996
 40
0.8437499999999996
 40
0.8437499999999996
 40
0.8749999999999996
 40
0.8749999999999996
 40
0.9062499999999996
 40
0.9062499999999996
 40
0.9374999999999997
 40
0.9374999999999997
 40
0.9687499999999998
 40
0.9687499999999998
 40
0.9843749999999999
 40
0.9843749999999999
 40
1.0
 40
1.0
 40
1.0
 40
1.0
 10
199.6109522521168
 20
122.782753168998
 30
0.0
 10
199.6821756108596
 20
122.8207344898209
 30
0.0
 10
199.7451868665283
 20
122.8502111852263
 30
0.0
 10
199.8622733719543
 20
122.9047684773135
 30
0.0
 10
199.9161709464737
 20
122.9295987808577
 30
0.0
 10
200.067772860981
 20
123.0043532955026
 30
0.0
 10
200.1532280031564
 20
123.0536433470127
 30
0.0
 10
200.3731798862986
 20
123.2197757327101
 30
0.0
 10
200.4731066793409
 20
123.3568343347649
 30
0.0
 10
200.5313891650891
 20
123.6134860589624
 30
0.0
 10
200.5356064440788
 20
123.708698145542
 30
0.0
 10
200.5080298516607
 20
123.9152607396294
 30
0.0
 10
200.4767982621079
 20
124.0254546073535
 30
0.0
 10
200.3741963531377
 20
124.2625991569432
 30
0.0
 10
200.3038439810626
 20
124.3863648130924
 30
0.0
 10
200.1279088605945
 20
124.6379049916311
 30
0.0
 10
200.0200122511282
 20
124.7682465911974
 30
0.0
 10
199.7811543027757
 20
125.0190270224878
 30
0.0
 10
199.6471426281677
 20
125.1429436695961
 30
0.0
 10
199.36674882833
 20
125.3757694947994
 30
0.0
 10
199.2195628828951
 20
125.4856357318173
 30
0.0
 10
198.9197138682104
 20
125.6900414366411
 30
0.0
 10
198.7699164315609
 20
125.7827660527831
 30
0.0
 10
198.4713577933414
 20
125.95349876894
 30
0.0
 10
198.3214381051199
 20
126.0319134387438
 30
0.0
 10
198.0325777116348
 20
126.1732146226716
 30
0.0
 10
197.8928190530542
 20
126.2363961054095
 30
0.0
 10
197.6267119321701
 20
126.355181396766
 30
0.0
 10
197.4993765208272
 20
126.4096781426636
 30
0.0
 10
197.3385991747459
 20
126.5008030963071
 30
0.0
 10
197.290383385861
 20
126.5328948322904
 30
0.0
 10
197.2177062129797
 20
126.6088035038454
 30
0.0
 10
197.1944446202919
 20
126.653504260394
 30
0.0
 10
197.188869158827
 20
126.7574729884428
 30
0.0
 10
197.2060203039899
 20
126.8150839124119
 30
0.0
 10
197.2621887506484
 20
126.9302907801755
 30
0.0
 10
197.2999821741315
 20
126.9870544484225
 30
0.0
 10
197.4271356468857
 20
127.15345449049
 30
0.0
 10
197.5305054124618
 20
127.2594163921726
 30
0.0
 10
197.7481791887108
 20
127.4530747818246
 30
0.0
 10
197.8639120603195
 20
127.5415839069243
 30
0.0
 10
198.22602424642
 20
127.7793132750992
 30
0.0
 10
198.4891204249506
 20
127.9017556221808
 30
0.0
 10
198.8943471069008
 20
127.9957681474027
 30
0.0
 10
199.0335151214055
 20
128.0123555485941
 30
0.0
 10
199.3089928319466
 20
128.0060736235487
 30
0.0
 10
199.4452496483052
 20
127.9837931972697
 30
0.0
 10
199.7133036270562
 20
127.8885296285006
 30
0.0
 10
199.8390367659541
 20
127.817587181089
 30
0.0
 10
200.0704669456561
 20
127.6205083253675
 30
0.0
 10
200.1710907847361
 20
127.4979655456132
 30
0.0
 10
200.3369578288843
 20
127.2112874708105
 30
0.0
 10
200.4006394261653
 20
127.0494183485115
 30
0.0
 10
200.489779992922
 20
126.7070837128879
 30
0.0
 10
200.5151990117625
 20
126.52786001729
 30
0.0
 10
200.5349455543492
 20
126.1677904193636
 30
0.0
 10
200.5293336584796
 20
125.9833716463738
 30
0.0
 10
200.4936659364562
 20
125.6222421810136
 30
0.0
 10
200.4638666069917
 20
125.4445099494309
 30
0.0
 10
200.3842207001607
 20
125.0936738905105
 30
0.0
 10
200.3339810488915
 20
124.9196193661554
 30
0.0
 10
200.2161109091335
 20
124.5814503704967
 30
0.0
 10
200.1487138216193
 20
124.4172750208153
 30
0.0
 10
199.9950993361306
 20
124.0982310742763
 30
0.0
 10
199.9090734322046
 20
123.942467824148
 30
0.0
 10
199.7571153334879
 20
123.7200856920906
 30
0.0
 10
199.702914899895
 20
123.6483311646649
 30
0.0
 10
199.5816728876156
 20
123.5124870321293
 30
0.0
 10
199.5146953868893
 20
123.4488470262166
 30
0.0
 10
199.4401181943372
 20
123.3963798788019
 30
0.0
  0
SPLINE
  5
108
330
1F
100
AcDbEntity
  8
0
  6
HIDDEN
 62
     7
370
     0
100
AcDbSpline
210
0.0
220
0.0
230
1.0
 70
     8
 71
     3
 72
    10
 73
     6
 74
     0
 42
0.00000001
 43
0.00000001
 12
1.0
 22
0.0
 32
0.0
 13
1.0
 23
0.0
 33
0.0
 40
0.0
 40
0.0
 40
0.0
 40
0.0
 40
0.5
 40
0.5
 40
1.0
 40
1.0
 40
1.0
 40
1.0
 10
199.4401181943374
 20
123.3963798788019
 30
0.0
 10
199.4439192527
 20
123.2777273492689
 30
0.0
 10
199.460046932047
 20
123.1654829348025
 30
0.0
 10
199.5186652838309
 20
122.9587106454409
 30
0.0
 10
199.5605479632451
 20
122.865670063736
 30
0.0
 10
199.6109522521168
 20
122.7827531689979
 30
0.0
  0
SPLINE
  5
109
330
1F
100
AcDbEntity
  8
0
  6
HIDDEN
 62
     7
370
     0
100
AcDbSpline
210
0.0
220
0.0
230
1.0
 70
     8
 71
     3
 72
    66
 73
    62
 74
     0
 42
0.00000001
 43
0.00000001
 12
1.0
 22
0.0
 32
0.0
 13
1.0
 23
0.0
 33
0.0
 40
-0.03125
 40
-0.03125
 40
0.0
 40
0.0
 40
0.0312500000000001
 40
0.0312500000000001
 40
0.0625000000000002
 40
0.0625000000000002
 40
0.0937500000000003
 40
0.0937500000000003
 40
0.1250000000000004
 40
0.1250000000000004
 40
0.1875000000000004
 40
0.1875000000000004
 40
0.2187500000000005
 40
0.2187500000000005
 40
0.2500000000000004
 40
0.2500000000000004
 40
0.2812500000000004
 40
0.2812500000000004
 40
0.3125000000000004
 40
0.3125000000000004
 40
0.3437500000000004
 40
0.3437500000000004
 40
0.3750000000000003
 40
0.3750000000000003
 40
0.4062500000000003
 40
0.4062500000000003
 40
0.4375000000000003
 40
0.4375000000000003
 40
0.4687500000000003
 40
0.4687500000000003
 40
0.5000000000000002
 40
0.5000000000000002
 40
0.5312500000000003
 40
0.5312500000000003
 40
0.5625000000000003
 40
0.5625000000000003
 40
0.5937500000000002
 40
0.5937500000000002
 40
0.6250000000000002
 40
0.6250000000000002
 40
0.6875000000000002
 40
0.6875000000000002
 40
0.7187500000000002
 40
0.7187500000000002
 40
0.7500000000000001
 40
0.7500000000000001
 40
0.7812500000000001
 40
0.7812500000000001
 40
0.8125000000000001
 40
0.8125000000000001
 40
0.8437500000000001
 40
0.8437500000000001
 40
0.8750000000000001
 40
0.8750000000000001
 40
0.9062500000000001
 40
0.9062500000000001
 40
0.9375
 40
0.9375
 40
0.96875
 40
0.96875
 40
1.0
 40
1.0
 40
1.03125
 40
1.03125
 10
198.1964857136749
 20
122.8930561095225
 30
0.0
 10
197.8633798981614
 20
122.8930561095225
 30
0.0
 10
197.6998889445716
 20
122.8830682254829
 30
0.0
 10
197.3786867992026
 20
122.8436543244302
 30
0.0
 10
197.2192744416463
 20
122.8136938111587
 30
0.0
 10
196.9172357145059
 20
122.7348268961726
 30
0.0
 10
196.7741876771442
 20
122.6861564159598
 30
0.0
 10
196.5034544551934
 20
122.5687353229445
 30
0.0
 10
196.3763849402268
 20
122.4998920645806
 30
0.0
 10
196.033376929254
 20
122.2683465979676
 30
0.0
 10
195.8475446678501
 20
122.0743313987789
 30
0.0
 10
195.6597393046914
 20
121.7398134095199
 30
0.0
 10
195.6109992279131
 20
121.6190055662672
 30
0.0
 10
195.5462351757983
 20
121.3667184029506
 30
0.0
 10
195.5300430652642
 20
121.23634335372
 30
0.0
 10
195.5298236580975
 20
120.9668452905452
 30
0.0
 10
195.5463717521309
 20
120.8266937783967
 30
0.0
 10
195.6108009058345
 20
120.5505775534786
 30
0.0
 10
195.6584593750194
 20
120.4131483927603
 30
0.0
 10
195.7851553428181
 20
120.1404109552494
 30
0.0
 10
195.8627289286171
 20
120.0085172192759
 30
0.0
 10
196.0433355547972
 20
119.7574751645943
 30
0.0
 10
196.1478886039129
 20
119.6366558502211
 30
0.0
 10
196.377897244257
 20
119.4152424850741
 30
0.0
 10
196.5027773026319
 20
119.3146975782158
 30
0.0
 10
196.7726768742617
 20
119.135437969178
 30
0.0
 10
196.9187732407447
 20
119.0566140058424
 30
0.0
 10
197.2194858645533
 20
118.9299563417548
 30
0.0
 10
197.3754335529107
 20
118.8810150352731
 30
0.0
 10
197.6992134166592
 20
118.8143011735565
 30
0.0
 10
197.8649117604092
 20
118.7973636011407
 30
0.0
 10
198.1929556404166
 20
118.7972285862221
 30
0.0
 10
198.3582811917533
 20
118.8139602139033
 30
0.0
 10
198.6826096477636
 20
118.8804938505227
 30
0.0
 10
198.8389624486254
 20
118.9294283975038
 30
0.0
 10
199.1406786268546
 20
119.0563711475738
 30
0.0
 10
199.2867691565691
 20
119.1352043681483
 30
0.0
 10
199.5564829339743
 20
119.3142506034744
 30
0.0
 10
199.6816642676173
 20
119.4149233248194
 30
0.0
 10
200.0282748080449
 20
119.7486606032923
 30
0.0
 10
200.2114176429333
 20
120.004306550186
 30
0.0
 10
200.4010842030726
 20
120.41238274937
 30
0.0
 10
200.4487219505011
 20
120.5495259118416
 30
0.0
 10
200.5132401854332
 20
120.8251932185167
 30
0.0
 10
200.529937291175
 20
120.9653334944509
 30
0.0
 10
200.5299283188075
 20
121.2352358849195
 30
0.0
 10
200.513797482861
 20
121.3657594895302
 30
0.0
 10
200.4491378061924
 20
121.618254350997
 30
0.0
 10
200.4004674515531
 20
121.739124197014
 30
0.0
 10
200.2750380792343
 20
121.9627012174362
 30
0.0
 10
200.1972944267442
 20
122.0674856588348
 30
0.0
 10
200.0149949397313
 20
122.2596088203552
 30
0.0
 10
199.9120317864371
 20
122.3456475142562
 30
0.0
 10
199.6828308141446
 20
122.5002931342675
 30
0.0
 10
199.5551998360365
 20
122.5693114701336
 30
0.0
 10
199.2853541746
 20
122.6862457667514
 30
0.0
 10
199.1424994312129
 20
122.734876631098
 30
0.0
 10
198.8401019039668
 20
122.8138058656482
 30
0.0
 10
198.680886673022
 20
122.8436958831438
 30
0.0
 10
198.3599989417039
 20
122.8830597764356
 30
0.0
 10
198.1964857136749
 20
122.8930561095225
 30
0.0
 10
197.8633798981614
 20
122.8930561095225
 30
0.0
  0
CIRCLE
  5
10A
330
1F
100
AcDbEntity
  8
0
  6
HIDDEN
 62
     7
370
     0
100
AcDbCircle
 10
166.0299328059
 20
116.9417997607
 30
0.0
 40
3.049999999999997
  0
ARC
  5
10B
330
1F
100
AcDbEntity
  8
0
  6
HIDDEN
 62
     7
370
     0
100
AcDbCircle
 10
197.9177111946
 20
122.641947314
 30
0.0
 40
1.699085509253376
100
AcDbArc
 50
4.7536419523
 51
26.3608294428
  0
LINE
  5
10C
330
1F
100
AcDbEntity
  8
0
  6
HIDDEN
 62
     7
370
     0
100
AcDbLine
 10
155.0579726615
 20
127.7304748953
 30
0.0
 11
155.0579726615
 21
106.1531246261
 31
0.0
  0
LINE
  5
10D
330
1F
100
AcDbEntity
  8
0
  6
HIDDEN
 62
     7
370
     0
100
AcDbLine
 10
151.0579726615
 20
128.1116727418
 30
0.0
 11
151.0579726615
 21
105.7719267796
 31
0.0
  0
LINE
  5
10E
330
1F
100
AcDbEntity
  8
0
  6
HIDDEN
 62
     7
370
     0
100
AcDbLine
 10
150.0299328059
 20
105.1783876923
 30
0.0
 11
150.0299328059
 21
128.7052118292
 31
0.0
  0
LINE
  5
10F
330
1F
100
AcDbEntity
  8
0
  6
HIDDEN
 62
     7
370
     0
100
AcDbLine
 10
159.6579726615
 20
127.4417997607
 30
0.0
 11
159.6579726615
 21
106.4417997607
 31
0.0
  0
LINE
  5
110
330
1F
100
AcDbEntity
  8
0
  6
HIDDEN
 62
     7
370
     0
100
AcDbLine
 10
153.5579726615
 20
127.4417997607
 30
0.0
 11
153.5579726615
 21
106.4417997607
 31
0.0
  0
LINE
  5
111
330
1F
100
AcDbEntity
  8
0
  6
HIDDEN
 62
     7
370
     0
100
AcDbLine
 10
154.5579726615
 20
127.4417997607
 30
0.0
 11
154.5579726615
 21
106.4417997607
 31
0.0
  0
LINE
  5
112
330
1F
100
AcDbEntity
  8
0
  6
HIDDEN
 62
     7
370
     0
100
AcDbLine
 10
170.0299328059
 20
126.9417997396
 30
0.0
 11
170.0299328059
 21
106.9417997607
 31
0.0
  0
SPLINE
  5
113
330
1F
100
AcDbEntity
  8
0
  6
HIDDEN
 62
     7
370
     0
100
AcDbSpline
210
0.0
220
0.0
230
1.0
 70
     8
 71
     3
 72
    66
 73
    62
 74
     0
 42
0.00000001
 43
0.00000001
 12
1.0
 22
0.0
 32
0.0
 13
1.0
 23
0.0
 33
0.0
 40
-0.03125
 40
-0.03125
 40
0.0
 40
0.0
 40
0.0312499999999999
 40
0.0312499999999999
 40
0.0624999999999997
 40
0.0624999999999997
 40
0.0937499999999996
 40
0.0937499999999996
 40
0.1249999999999994
 40
0.1249999999999994
 40
0.1874999999999993
 40
0.1874999999999993
 40
0.2187499999999993
 40
0.2187499999999993
 40
0.2499999999999992
 40
0.2499999999999992
 40
0.2812499999999991
 40
0.2812499999999991
 40
0.312499999999999
 40
0.312499999999999
 40
0.3437499999999989
 40
0.3437499999999989
 40
0.3749999999999988
 40
0.3749999999999988
 40
0.4062499999999987
 40
0.4062499999999987
 40
0.4374999999999987
 40
0.4374999999999987
 40
0.4687499999999986
 40
0.4687499999999986
 40
0.4999999999999986
 40
0.4999999999999986
 40
0.5312499999999986
 40
0.5312499999999986
 40
0.5624999999999984
 40
0.5624999999999984
 40
0.5937499999999984
 40
0.5937499999999984
 40
0.6249999999999987
 40
0.6249999999999987
 40
0.6562499999999989
 40
0.6562499999999989
 40
0.687499999999999
 40
0.687499999999999
 40
0.7187499999999991
 40
0.7187499999999991
 40
0.7499999999999992
 40
0.7499999999999992
 40
0.7812499999999993
 40
0.7812499999999993
 40
0.8124999999999993
 40
0.8124999999999993
 40
0.8749999999999996
 40
0.8749999999999996
 40
0.9062499999999999
 40
0.9062499999999999
 40
0.9374999999999999
 40
0.9374999999999999
 40
0.96875
 40
0.96875
 40
1.0
 40
1.0
 40
1.03125
 40
1.03125
 10
165.8272541589702
 20
119.9917997607063
 30
0.0
 10
166.2326114528658
 20
119.9917997607063
 30
0.0
 10
166.4316713442017
 20
119.9718002010897
 30
0.0
 10
166.8229253287814
 20
119.8936566983895
 30
0.0
 10
167.017198087529
 20
119.8344955968688
 30
0.0
 10
167.3859615140803
 20
119.6810639099745
 30
0.0
 10
167.5606866724586
 20
119.5873371001322
 30
0.0
 10
167.8913639759924
 20
119.3660829977274
 30
0.0
 10
168.0470115199953
 20
119.2381016307328
 30
0.0
 10
168.4664788896639
 20
118.8185465337327
 30
0.0
 10
168.6933670311942
 20
118.4800679750293
 30
0.0
 10
168.922163654579
 20
117.9301890873111
 30
0.0
 10
168.9813559094278
 20
117.7367892415677
 30
0.0
 10
169.0601633196883
 20
117.3425610912098
 30
0.0
 10
169.0798027359687
 20
117.1439222637775
 30
0.0
 10
169.0800616003903
 20
116.7436219778791
 30
0.0
 10
169.0599909157574
 20
116.540282651158
 30
0.0
 10
168.9816532331274
 20
116.1481911305504
 30
0.0
 10
168.923703465089
 20
115.9574852622352
 30
0.0
 10
168.769760323209
 20
115.5867614456486
 30
0.0
 10
168.6748217094863
 20
115.4100347858398
 30
0.0
 10
168.4544642936091
 20
115.0807816749154
 30
0.0
 10
168.3271842676808
 20
114.9256604513189
 30
0.0
 10
168.0454286763503
 20
114.6439837563886
 30
0.0
 10
167.8926403468928
 20
114.5185505714842
 30
0.0
 10
167.5632132647359
 20
114.2977749781301
 30
0.0
 10
167.3846672615842
 20
114.2019437254299
 30
0.0
 10
167.017094936034
 20
114.0491145949348
 30
0.0
 10
166.826940909323
 20
113.9909428369906
 30
0.0
 10
166.4334004866206
 20
113.9119495446457
 30
0.0
 10
166.2309664153594
 20
113.8918864190034
 30
0.0
 10
165.831537339994
 20
113.8917136728847
 30
0.0
 10
165.6315183614381
 20
113.911197046974
 30
0.0
 10
165.2354024139887
 20
113.9901886185752
 30
0.0
 10
165.0446695857969
 20
114.0484688384271
 30
0.0
 10
164.6770381452172
 20
114.2010364590352
 30
0.0
 10
164.4985517130494
 20
114.2966452458084
 30
0.0
 10
164.1683464540853
 20
114.5176572908935
 30
0.0
 10
164.0154578760234
 20
114.6431071896636
 30
0.0
 10
163.7338614814853
 20
114.9243376786689
 30
0.0
 10
163.6062305586098
 20
115.0797205565829
 30
0.0
 10
163.38590512361
 20
115.4085714146258
 30
0.0
 10
163.2916786666447
 20
115.5834595210398
 30
0.0
 10
163.1367441460416
 20
115.9556033724006
 30
0.0
 10
163.0787318604393
 20
116.1464094142095
 30
0.0
 10
163.0003126061612
 20
116.5372824321283
 30
0.0
 10
162.9799985261946
 20
116.7397399935106
 30
0.0
 10
162.9798674098907
 20
117.14187059843
 30
0.0
 10
162.99949210325
 20
117.3405946436051
 30
0.0
 10
163.0776585536637
 20
117.7334341147418
 30
0.0
 10
163.1369459990036
 20
117.9280783921444
 30
0.0
 10
163.3660268420865
 20
118.4795181455586
 30
0.0
 10
163.5928576929807
 20
118.8178577112578
 30
0.0
 10
164.0121963943013
 20
119.2375233739093
 30
0.0
 10
164.1675493900513
 20
119.3653693796825
 30
0.0
 10
164.4985172231885
 20
119.5869704543843
 30
0.0
 10
164.6730785233848
 20
119.6806111883613
 30
0.0
 10
165.0406518309597
 20
119.8337653090605
 30
0.0
 10
165.2353386925977
 20
119.8932690547066
 30
0.0
 10
165.6278146425342
 20
119.9717918037695
 30
0.0
 10
165.8272541589702
 20
119.9917997607063
 30
0.0
 10
166.2326114528658
 20
119.9917997607063
 30
0.0
  0
SPLINE
  5
114
330
1F
100
AcDbEntity
  8
0
  6
HIDDEN
 62
     7
370
     0
100
AcDbSpline
210
0.0
220
0.0
230
1.0
 70
     8
 71
     3
 72
    66
 73
    62
 74
     0
 42
0.00000001
 43
0.00000001
 12
1.0
 22
0.0
 32
0.0
 13
1.0
 23
0.0
 33
0.0
 40
-0.0312500000000001
 40
-0.0312500000000001
 40
0.0
 40
0.0
 40
0.0312499999999999
 40
0.0312499999999999
 40
0.0624999999999998
 40
0.0624999999999998
 40
0.0937499999999996
 40
0.0937499999999996
 40
0.1249999999999995
 40
0.1249999999999995
 40
0.1874999999999992
 40
0.1874999999999992
 40
0.2187499999999991
 40
0.2187499999999991
 40
0.249999999999999
 40
0.249999999999999
 40
0.2812499999999988
 40
0.2812499999999988
 40
0.3124999999999987
 40
0.3124999999999987
 40
0.3437499999999986
 40
0.3437499999999986
 40
0.3749999999999984
 40
0.3749999999999984
 40
0.4062499999999983
 40
0.4062499999999983
 40
0.4374999999999984
 40
0.4374999999999984
 40
0.4687499999999985
 40
0.4687499999999985
 40
0.4999999999999986
 40
0.4999999999999986
 40
0.5312499999999987
 40
0.5312499999999987
 40
0.5624999999999988
 40
0.5624999999999988
 40
0.5937499999999989
 40
0.5937499999999989
 40
0.6249999999999989
 40
0.6249999999999989
 40
0.656249999999999
 40
0.656249999999999
 40
0.6874999999999991
 40
0.6874999999999991
 40
0.7187499999999992
 40
0.7187499999999992
 40
0.7499999999999993
 40
0.7499999999999993
 40
0.7812499999999994
 40
0.7812499999999994
 40
0.8124999999999996
 40
0.8124999999999996
 40
0.8749999999999996
 40
0.8749999999999996
 40
0.9062499999999997
 40
0.9062499999999997
 40
0.9374999999999998
 40
0.9374999999999998
 40
0.9687499999999999
 40
0.9687499999999999
 40
1.0
 40
1.0
 40
1.03125
 40
1.03125
 10
166.2326114528658
 20
119.9917997607063
 30
0.0
 10
165.8272541589702
 20
119.9917997607063
 30
0.0
 10
165.6281942676344
 20
119.9718002010897
 30
0.0
 10
165.2369402830547
 20
119.8936566983895
 30
0.0
 10
165.042667524307
 20
119.8344955968688
 30
0.0
 10
164.6739040977557
 20
119.6810639099745
 30
0.0
 10
164.4991789393775
 20
119.5873371001322
 30
0.0
 10
164.1685016358437
 20
119.3660829977274
 30
0.0
 10
164.0128540918408
 20
119.2381016307328
 30
0.0
 10
163.5933867221722
 20
118.8185465337327
 30
0.0
 10
163.3664985806419
 20
118.4800679750293
 30
0.0
 10
163.1377019572571
 20
117.9301890873111
 30
0.0
 10
163.0785097024083
 20
117.7367892415677
 30
0.0
 10
162.9997022921477
 20
117.3425610912098
 30
0.0
 10
162.9800628758673
 20
117.1439222637775
 30
0.0
 10
162.9798040114458
 20
116.7436219778791
 30
0.0
 10
162.9998746960787
 20
116.540282651158
 30
0.0
 10
163.0782123787086
 20
116.1481911305504
 30
0.0
 10
163.1361621467471
 20
115.9574852622352
 30
0.0
 10
163.2901052886271
 20
115.5867614456486
 30
0.0
 10
163.3850439023498
 20
115.4100347858398
 30
0.0
 10
163.6054013182269
 20
115.0807816749154
 30
0.0
 10
163.7326813441552
 20
114.9256604513189
 30
0.0
 10
164.0144369354857
 20
114.6439837563886
 30
0.0
 10
164.1672252649433
 20
114.5185505714842
 30
0.0
 10
164.4966523471002
 20
114.2977749781301
 30
0.0
 10
164.6751983502519
 20
114.2019437254299
 30
0.0
 10
165.042770675802
 20
114.0491145949348
 30
0.0
 10
165.2329247025131
 20
113.9909428369906
 30
0.0
 10
165.6264651252155
 20
113.9119495446457
 30
0.0
 10
165.8288991964767
 20
113.8918864190034
 30
0.0
 10
166.2283282718421
 20
113.8917136728847
 30
0.0
 10
166.428347250398
 20
113.911197046974
 30
0.0
 10
166.8244631978473
 20
113.9901886185752
 30
0.0
 10
167.0151960260392
 20
114.0484688384271
 30
0.0
 10
167.3828274666189
 20
114.2010364590352
 30
0.0
 10
167.5613138987867
 20
114.2966452458084
 30
0.0
 10
167.8915191577507
 20
114.5176572908934
 30
0.0
 10
168.0444077358127
 20
114.6431071896636
 30
0.0
 10
168.3260041303508
 20
114.9243376786689
 30
0.0
 10
168.4536350532262
 20
115.0797205565829
 30
0.0
 10
168.673960488226
 20
115.4085714146258
 30
0.0
 10
168.7681869451914
 20
115.5834595210398
 30
0.0
 10
168.9231214657945
 20
115.9556033724006
 30
0.0
 10
168.9811337513968
 20
116.1464094142095
 30
0.0
 10
169.0595530056749
 20
116.5372824321283
 30
0.0
 10
169.0798670856414
 20
116.7397399935106
 30
0.0
 10
169.0799982019454
 20
117.14187059843
 30
0.0
 10
169.0603735085861
 20
117.3405946436051
 30
0.0
 10
168.9822070581724
 20
117.7334341147418
 30
0.0
 10
168.9229196128325
 20
117.9280783921444
 30
0.0
 10
168.6938387697496
 20
118.4795181455586
 30
0.0
 10
168.4670079188554
 20
118.8178577112578
 30
0.0
 10
168.0476692175347
 20
119.2375233739093
 30
0.0
 10
167.8923162217848
 20
119.3653693796825
 30
0.0
 10
167.5613483886476
 20
119.5869704543843
 30
0.0
 10
167.3867870884513
 20
119.6806111883613
 30
0.0
 10
167.0192137808764
 20
119.8337653090605
 30
0.0
 10
166.8245269192384
 20
119.8932690547066
 30
0.0
 10
166.4320509693019
 20
119.9717918037695
 30
0.0
 10
166.2326114528658
 20
119.9917997607063
 30
0.0
 10
165.8272541589702
 20
119.9917997607063
 30
0.0
  0
LINE
  5
115
330
1F
100
AcDbEntity
  8
0
  6
HIDDEN
 62
     7
370
     0
100
AcDbLine
 10
171.0299328059
 20
124.1917997607
 30
0.0
 11
171.0299328059
 21
109.6917997607
 31
0.0
  0
LINE
  5
116
330
1F
100
AcDbEntity
  8
0
  6
HIDDEN
 62
     7
370
     0
100
AcDbLine
 10
170.0299328059
 20
108.6917997607
 30
0.0
 11
170.0299328059
 21
125.1917997607
 31
0.0
  0
LINE
  5
117
330
1F
100
AcDbEntity
  8
0
  6
HIDDEN
 62
     7
370
     0
100
AcDbLine
 10
204.0299328059
 20
109.6917997607
 30
0.0
 11
204.0299328059
 21
124.1917997607
 31
0.0
  0
LINE
  5
118
330
1F
100
AcDbEntity
  8
0
  6
HIDDEN
 62
     7
370
     0
100
AcDbLine
 10
230.228073791
 20
145.7941363231
 30
0.0
 11
229.8343037532
 21
138.2805564082
 31
0.0
  0
LINE
  5
119
330
1F
100
AcDbEntity
  8
0
  6
HIDDEN
 62
     7
370
     0
100
AcDbLine
 10
229.8343037532
 20
138.2805564082
 30
0.0
 11
229.7961689965
 21
138.2567271675
 31
0.0
  0
LINE
  5
11A
330
1F
100
AcDbEntity
  8
0
  6
HIDDEN
 62
     7
370
     0
100
AcDbLine
 10
230.0889777419
 20
134.8633818933
 30
0.0
 11
239.2182066391
 21
140.5679572378
 31
0.0
  0
LINE
  5
11B
330
1F
100
AcDbEntity
  8
0
  6
HIDDEN
 62
     7
370
     0
100
AcDbLine
 10
239.2182066391
 20
140.5679572378
 30
0.0
 11
239.2158532125
 21
140.5230511829
 31
0.0
  0
LINE
  5
11C
330
1F
100
AcDbEntity
  8
0
  6
HIDDEN
 62
     7
370
     0
100
AcDbLine
 10
238.2143425117
 20
121.4130886057
 30
0.0
 11
235.1708465446
 21
122.4610483081
 31
0.0
  0
LINE
  5
11D
330
1F
100
AcDbEntity
  8
0
  6
HIDDEN
 62
     7
370
     0
100
AcDbLine
 10
229.7601476475
 20
134.9720892837
 30
0.0
 11
238.9593883513
 21
140.7204128604
 31
0.0
  0
LINE
  5
11E
330
1F
100
AcDbEntity
  8
0
  6
HIDDEN
 62
     7
370
     0
100
AcDbLine
 10
239.2182066391
 20
140.5679572378
 30
0.0
 11
238.9593883513
 21
140.7204128604
 31
0.0
  0
LINE
  5
11F
330
1F
100
AcDbEntity
  8
0
  6
HIDDEN
 62
     7
370
     0
100
AcDbLine
 10
230.4885205089
 20
145.6727529964
 30
0.0
 11
230.093122041
 21
138.1281007856
 31
0.0
  0
LINE
  5
120
330
1F
100
AcDbEntity
  8
0
  6
HIDDEN
 62
     7
370
     0
100
AcDbLine
 10
229.8343037532
 20
138.2805564082
 30
0.0
 11
230.093122041
 21
138.1281007856
 31
0.0
  0
ELLIPSE
  5
121
330
1F
100
AcDbEntity
  8
0
  6
HIDDEN
 62
     7
370
     0
100
AcDbEllipse
 10
217.7795294425
 20
183.1798199575
 30
0.0
 11
-21.75919211935645
 21
38.05970883280528
 31
0.0
210
0.0
220
0.0
230
1.0
 40
0.373927429
 41
2.649288539268438
 42
2.660734521327433
  0
LINE
  5
122
330
1F
100
AcDbEntity
  8
0
  6
HIDDEN
 62
     7
370
     0
100
AcDbLine
 10
229.7791458773
 20
137.9319067037
 30
0.0
 11
230.093122041
 21
138.1281007856
 31
0.0
  0
ELLIPSE
  5
123
330
1F
100
AcDbEntity
  8
0
  6
HIDDEN
 62
     7
370
     0
100
AcDbEllipse
 10
235.1284800385
 20
116.9417997607
 30
0.0
 11
18.08151684771605
 21
25.43571304338355
 31
0.0
210
0.0
220
0.0
230
1.0
 40
0.1000778042
 41
1.641819099524553
 42
3.200850449031485
  0
LINE
  5
124
330
1F
100
AcDbEntity
  8
0
  6
HIDDEN
 62
     7
370
     0
100
AcDbLine
 10
213.1286312217
 20
91.4435645277
 30
0.0
 11
213.1286312217
 21
116.9417997607
 31
0.0
  0
SPLINE
  5
125
330
1F
100
AcDbEntity
  8
0
  6
HIDDEN
 62
     7
370
     0
100
AcDbSpline
210
0.0
220
0.0
230
1.0
 70
     8
 71
     3
 72
    12
 73
     8
 74
     0
 42
0.00000001
 43
0.00000001
 12
1.0
 22
0.0
 32
0.0
 13
1.0
 23
0.0
 33
0.0
 40
0.0
 40
0.0
 40
0.0
 40
0.0
 40
0.2500000000000001
 40
0.2500000000000001
 40
0.5
 40
0.5
 40
1.0
 40
1.0
 40
1.0
 40
1.0
 10
213.2017289331703
 20
142.596464941636
 30
0.0
 10
213.1804156700148
 20
142.5320718899449
 30
0.0
 10
213.1591269305043
 20
142.4676787402894
 30
0.0
 10
213.1317316791565
 20
142.3388317927189
 30
0.0
 10
213.1258787159458
 20
142.2743821590186
 30
0.0
 10
213.1381161789245
 20
142.0810621346153
 30
0.0
 10
213.1898328143252
 20
141.9521814124693
 30
0.0
 10
213.2285316442282
 20
141.8233009012811
 30
0.0
  0
LINE
  5
126
330
1F
100
AcDbEntity
  8
0
  6
HIDDEN
 62
     7
370
     0
100
AcDbLine
 10
238.9593883513
 20
140.7204128604
 30
0.0
 11
238.7687145677
 21
140.6012666568
 31
0.0
  0
LINE
  5
127
330
1F
100
AcDbEntity
  8
0
  6
HIDDEN
 62
     7
370
     0
100
AcDbLine
 10
230.4885205089
 20
145.6727529964
 30
0.0
 11
230.4785740965
 21
145.4829641427
 31
0.0
  0
LINE
  5
128
330
1F
100
AcDbEntity
  8
0
  6
HIDDEN
 62
     7
370
     0
100
AcDbLine
 10
238.8779011451
 20
150.700428746
 30
0.0
 11
231.4833389879
 21
146.0797934832
 31
0.0
  0
LINE
  5
129
330
1F
100
AcDbEntity
  8
0
  6
HIDDEN
 62
     7
370
     0
100
AcDbLine
 10
239.2854651818
 20
150.4614557589
 30
0.0
 11
238.8779011451
 21
150.700428746
 31
0.0
  0
CIRCLE
  5
12A
330
1F
100
AcDbEntity
  8
0
  6
HIDDEN
 62
     7
370
     0
100
AcDbCircle
 10
234.7697263011
 20
143.2908064251
 30
0.0
 40
2.400000000000034
  0
LINE
  5
12B
330
1F
100
AcDbEntity
  8
0
  6
HIDDEN
 62
     7
370
     0
100
AcDbLine
 10
230.093122041
 20
138.1281007856
 30
0.0
 11
227.9745304185
 21
136.8042578115
 31
0.0
  0
ARC
  5
12C
330
1F
100
AcDbEntity
  8
0
  6
HIDDEN
 62
     7
370
     0
100
AcDbCircle
 10
228.6369294988
 20
135.7441976913
 30
0.0
 40
1.250000000000018
100
AcDbArc
 50
122.0
 51
302.0
  0
LINE
  5
12D
330
1F
100
AcDbEntity
  8
0
  6
HIDDEN
 62
     7
370
     0
100
AcDbLine
 10
230.4785740965
 20
145.4829641427
 30
0.0
 11
230.093122041
 21
138.1281007856
 31
0.0
  0
LINE
  5
12E
330
1F
100
AcDbEntity
  8
0
  6
HIDDEN
 62
     7
370
     0
100
AcDbLine
 10
229.2993285791
 20
134.6841375711
 30
0.0
 11
238.7687145677
 21
140.6012666568
 31
0.0
  0
ELLIPSE
  5
12F
330
1F
100
AcDbEntity
  8
0
  6
HIDDEN
 62
     7
370
     0
100
AcDbEllipse
 10
217.7795294425
 20
168.3411010651
 30
0.0
 11
-1.563194018672220E-12
 21
-26.19525546193003
 31
0.0
210
0.0
220
0.0
230
1.0
 40
0.9925461516
 41
0.5102836650881784
 42
0.5551486097793588
  0
LINE
  5
130
330
1F
100
AcDbEntity
  8
0
  6
HIDDEN
 62
     7
370
     0
100
AcDbLine
 10
239.2854651818
 20
150.4614557589
 30
0.0
 11
238.7687145677
 21
140.6012666568
 31
0.0
  0
LINE
  5
131
330
1F
100
AcDbEntity
  8
0
  6
HIDDEN
 62
     7
370
     0
100
AcDbLine
 10
238.3214053512
 20
148.9741455017
 30
0.0
 11
239.2854651818
 21
150.4614557589
 31
0.0
  0
LINE
  5
132
330
1F
100
AcDbEntity
  8
0
  6
HIDDEN
 62
     7
370
     0
100
AcDbLine
 10
238.8779011451
 20
150.700428746
 30
0.0
 11
238.0538541098
 21
149.4291242388
 31
0.0
  0
CIRCLE
  5
133
330
1F
100
AcDbEntity
  8
0
  6
HIDDEN
 62
     7
370
     0
100
AcDbCircle
 10
234.7697263011
 20
143.2908064251
 30
0.0
 40
1.650000000000034
  0
LINE
  5
134
330
1F
100
AcDbEntity
  8
0
  6
HIDDEN
 62
     7
370
     0
100
AcDbLine
 10
151.5299328059
 20
133.8011510027
 30
0.0
 11
151.5299328059
 21
128.9913722862
 31
0.0
  0
LINE
  5
135
330
1F
100
AcDbEntity
  8
0
  6
HIDDEN
 62
     7
370
     0
100
AcDbLine
 10
150.0299328059
 20
132.9351255989
 30
0.0
 11
150.0299328059
 21
128.5583595843
 31
0.0
  0
SPLINE
  5
136
330
1F
100
AcDbEntity
  8
0
  6
HIDDEN
 62
     7
370
     0
100
AcDbSpline
210
0.0
220
0.0
230
1.0
 70
     8
 71
     3
 72
    18
 73
    14
 74
     0
 42
0.00000001
 43
0.00000001
 12
1.0
 22
0.0
 32
0.0
 13
1.0
 23
0.0
 33
0.0
 40
0.0
 40
0.0
 40
0.0
 40
0.0
 40
0.2499999999999999
 40
0.2499999999999999
 40
0.3749999999999999
 40
0.3749999999999999
 40
0.4999999999999999
 40
0.4999999999999999
 40
0.6249999999999999
 40
0.6249999999999999
 40
0.7499999999999998
 40
0.7499999999999998
 40
1.0
 40
1.0
 40
1.0
 40
1.0
 10
178.7086124623584
 20
103.8467530371738
 30
0.0
 10
178.5733268560561
 20
103.2625514434422
 30
0.0
 10
178.4721591098131
 20
102.728333756234
 30
0.0
 10
178.3692977669442
 20
102.0024369853456
 30
0.0
 10
178.3431949214209
 20
101.7725564975657
 30
0.0
 10
178.308304937876
 20
101.3419855527789
 30
0.0
 10
178.2997186795861
 20
101.1442906472847
 30
0.0
 10
178.2996189700204
 20
100.7829426046069
 30
0.0
 10
178.308107341169
 20
100.6192925946608
 30
0.0
 10
178.3422507206896
 20
100.3260813216918
 30
0.0
 10
178.3680477025434
 20
100.196085255576
 30
0.0
 10
178.4714488339313
 20
99.8620293630141
 30
0.0
 10
178.5733068261027
 20
99.71625319864931
 30
0.0
 10
178.7086124623584
 20
99.64488989270147
 30
0.0
  0
LINE
  5
137
330
1F
100
AcDbEntity
  8
0
  6
HIDDEN
 62
     7
370
     0
100
AcDbLine
 10
177.8299328059
 20
104.5618534639
 30
0.0
 11
177.8299328059
 21
99.4217009761
 31
0.0
  0
LINE
  5
138
330
1F
100
AcDbEntity
  8
0
  6
HIDDEN
 62
     7
370
     0
100
AcDbLine
 10
177.8299328059
 20
134.4618985453
 30
0.0
 11
177.8299328059
 21
129.3217460575
 31
0.0
  0
SPLINE
  5
139
330
1F
100
AcDbEntity
  8
0
  6
HIDDEN
 62
     7
370
     0
100
AcDbSpline
210
0.0
220
0.0
230
1.0
 70
     8
 71
     3
 72
    18
 73
    14
 74
     0
 42
0.00000001
 43
0.00000001
 12
1.0
 22
0.0
 32
0.0
 13
1.0
 23
0.0
 33
0.0
 40
0.0
 40
0.0
 40
0.0
 40
0.0
 40
0.2499999999999995
 40
0.2499999999999995
 40
0.3749999999999996
 40
0.3749999999999996
 40
0.4999999999999997
 40
0.4999999999999997
 40
0.6249999999999998
 40
0.6249999999999998
 40
0.7499999999999998
 40
0.7499999999999998
 40
1.0
 40
1.0
 40
1.0
 40
1.0
 10
178.7086124623584
 20
134.2387096287111
 30
0.0
 10
178.5733268560561
 20
134.1673568870216
 30
0.0
 10
178.4721591098131
 20
134.0219534804321
 30
0.0
 10
178.3692977669442
 20
133.6924862448265
 30
0.0
 10
178.3431949214209
 20
133.5635526680218
 30
0.0
 10
178.308304937876
 20
133.2680106686857
 30
0.0
 10
178.2997186795861
 20
133.1036158951637
 30
0.0
 10
178.2996189700204
 20
132.7426542804231
 30
0.0
 10
178.308107341169
 20
132.5460844882609
 30
0.0
 10
178.3422507206896
 20
132.1207296921359
 30
0.0
 10
178.3680477025434
 20
131.8909600423364
 30
0.0
 10
178.4714488339313
 20
131.1583713479039
 30
0.0
 10
178.5733068261027
 20
130.6211345729864
 30
0.0
 10
178.7086124623584
 20
130.0368464842387
 30
0.0
  0
LINE
  5
13A
330
1F
100
AcDbEntity
  8
0
  6
HIDDEN
 62
     7
370
     0
100
AcDbLine
 10
151.5299328059
 20
104.8922272353
 30
0.0
 11
151.5299328059
 21
100.0824485188
 31
0.0
  0
LINE
  5
13B
330
1F
100
AcDbEntity
  8
0
  6
HIDDEN
 62
     7
370
     0
100
AcDbLine
 10
150.0299328059
 20
105.3252399371
 30
0.0
 11
150.0299328059
 21
100.9484739225
 31
0.0
  0
SPLINE
  5
13C
330
1F
100
AcDbEntity
  8
0
  6
HIDDEN
 62
     7
370
     0
100
AcDbSpline
210
0.0
220
0.0
230
1.0
 70
     8
 71
     3
 72
    12
 73
     8
 74
     0
 42
0.00000001
 43
0.00000001
 12
1.0
 22
0.0
 32
0.0
 13
1.0
 23
0.0
 33
0.0
 40
0.0
 40
0.0
 40
0.0
 40
0.0
 40
0.5000000000000002
 40
0.5000000000000002
 40
0.7500000000000001
 40
0.7500000000000001
 40
1.0
 40
1.0
 40
1.0
 40
1.0
 10
213.2285316442282
 20
141.8233009012811
 30
0.0
 10
213.3297723606666
 20
141.4861342396441
 30
0.0
 10
213.5501971126722
 20
141.1486780590542
 30
0.0
 10
214.0186064726267
 20
140.6421591152234
 30
0.0
 10
214.1975335682095
 20
140.4731538678639
 30
0.0
 10
214.5908294580134
 20
140.1362346551695
 30
0.0
 10
214.8052740397803
 20
139.9681785581509
 30
0.0
 10
215.0336777057223
 20
139.8004389602958
 30
0.0
  0
SPLINE
  5
13D
330
1F
100
AcDbEntity
  8
0
  6
HIDDEN
 62
     7
370
     0
100
AcDbSpline
210
0.0
220
0.0
230
1.0
 70
     8
 71
     3
 72
     8
 73
     4
 74
     0
 42
0.00000001
 43
0.00000001
 12
1.0
 22
0.0
 32
0.0
 13
1.0
 23
0.0
 33
0.0
 40
0.0
 40
0.0
 40
0.0
 40
0.0
 40
1.0
 40
1.0
 40
1.0
 40
1.0
 10
215.0336777057223
 20
139.8004389602958
 30
0.0
 10
214.9977993239735
 20
138.7237929466012
 30
0.0
 10
214.9622103307686
 20
137.5926906349349
 30
0.0
 10
214.926932054977
 20
136.4060489572793
 30
0.0
  0
ELLIPSE
  5
13E
330
1F
100
AcDbEntity
  8
0
  6
HIDDEN
 62
     7
370
     0
100
AcDbEllipse
 10
186.7821390552
 20
118.9417997607
 30
0.0
 11
53.17719480370474
 21
32.87131281590051
 31
0.0
210
0.0
220
0.0
230
1.0
 40
0.0547507893
 41
5.676076028609931
 42
5.978772727121583
  0
ELLIPSE
  5
13F
330
1F
100
AcDbEntity
  8
0
  6
HIDDEN
 62
     7
370
     0
100
AcDbEllipse
 10
296.1843516513
 20
118.9417997607
 30
0.0
 11
58.3932467079394
 21
-32.26196341354067
 31
0.0
210
0.0
220
0.0
230
1.0
 40
0.1188519716
 41
3.322457530496667
 42
3.35704380140848
  0
LINE
  5
140
330
1F
100
AcDbEntity
  8
0
  6
HIDDEN
 62
     7
370
     0
100
AcDbLine
 10
217.7795294425
 20
139.8004389603
 30
0.0
 11
215.0336777057
 21
139.8004389603
 31
0.0
  0
SPLINE
  5
141
330
1F
100
AcDbEntity
  8
0
  6
HIDDEN
 62
     7
370
     0
100
AcDbSpline
210
0.0
220
0.0
230
1.0
 70
     8
 71
     3
 72
    20
 73
    16
 74
     0
 42
0.00000001
 43
0.00000001
 12
1.0
 22
0.0
 32
0.0
 13
1.0
 23
0.0
 33
0.0
 40
0.0
 40
0.0
 40
0.0
 40
0.0
 40
0.2499999999999965
 40
0.2499999999999965
 40
0.3749999999999951
 40
0.3749999999999951
 40
0.4374999999999949
 40
0.4374999999999949
 40
0.4999999999999947
 40
0.4999999999999947
 40
0.7499999999999972
 40
0.7499999999999972
 40
0.8749999999999987
 40
0.8749999999999987
 40
1.0
 40
1.0
 40
1.0
 40
1.0
 10
231.4833389878765
 20
144.2780339621774
 30
0.0
 10
230.6231054006461
 20
143.6477709869882
 30
0.0
 10
229.6810217993054
 20
143.0492932815705
 30
0.0
 10
228.1386333318895
 20
142.2314449325771
 30
0.0
 10
227.6028905028105
 20
141.972138687219
 30
0.0
 10
226.765147663208
 20
141.6075020604657
 30
0.0
 10
226.480236710018
 20
141.4900850393185
 30
0.0
 10
225.9060268643748
 20
141.2668115207265
 30
0.0
 10
225.6158607905681
 20
141.1605645766946
 30
0.0
 10
224.149917774693
 20
140.656968682498
 30
0.0
 10
222.9292520902663
 20
140.3420895708151
 30
0.0
 10
221.0249654903301
 20
140.0193390196874
 30
0.0
 10
220.3779465350046
 20
139.9371368274466
 30
0.0
 10
219.08356757178
 20
139.8279872925442
 30
0.0
 10
218.4331703870137
 20
139.8004389602958
 30
0.0
 10
217.7795294424517
 20
139.8004389602958
 30
0.0
  0
ELLIPSE
  5
142
330
1F
100
AcDbEntity
  8
0
  6
HIDDEN
 62
     7
370
     0
100
AcDbEllipse
 10
238.42909633
 20
118.9417997607
 30
0.0
 11
1.755890694273234
 21
32.99929771149287
 31
0.0
210
0.0
220
0.0
230
1.0
 40
0.1226111485
 41
0.4338648258052885
 42
1.019639736509375
  0
LINE
  5
143
330
1F
100
AcDbEntity
  8
0
  6
HIDDEN
 62
     7
370
     0
100
AcDbLine
 10
150.0299328059
 20
128.5583595843
 30
0.0
 11
150.0299328059
 21
119.2809706889
 31
0.0
  0
LINE
  5
144
330
1F
100
AcDbEntity
  8
0
  6
HIDDEN
 62
     7
370
     0
100
AcDbLine
 10
150.0299328059
 20
114.6026288325
 30
0.0
 11
150.0299328059
 21
105.3252399371
 31
0.0
  0
LINE
  5
145
330
1F
100
AcDbEntity
  8
0
  6
HIDDEN
 62
     7
370
     0
100
AcDbLine
 10
151.5299328059
 20
113.7933226424
 30
0.0
 11
151.5299328059
 21
104.8922272353
 31
0.0
  0
LINE
  5
146
330
1F
100
AcDbEntity
  8
0
  6
HIDDEN
 62
     7
370
     0
100
AcDbLine
 10
151.5299328059
 20
128.9913722862
 30
0.0
 11
151.5299328059
 21
120.090276879
 31
0.0
  0
LINE
  5
147
330
1F
100
AcDbEntity
  8
0
  6
HIDDEN
 62
     7
370
     0
100
AcDbLine
 10
177.8299328059
 20
129.3217460575
 30
0.0
 11
177.8299328059
 21
104.5618534639
 31
0.0
  0
LINE
  5
148
330
1F
100
AcDbEntity
  8
0
  6
HIDDEN
 62
     7
370
     0
100
AcDbLine
 10
179.8299328059
 20
128.5040739938
 30
0.0
 11
179.8299328059
 21
105.3795255276
 31
0.0
  0
CIRCLE
  5
149
330
1F
100
AcDbEntity
  8
0
  6
HIDDEN
 62
     7
370
     0
100
AcDbCircle
 10
234.7697263011
 20
143.2908064251
 30
0.0
 40
1.650000000000034
  0
SPLINE
  5
14A
330
1F
100
AcDbEntity
  8
0
  6
HIDDEN
 62
     7
370
     0
100
AcDbSpline
210
0.0
220
0.0
230
1.0
 70
     8
 71
     3
 72
    26
 73
    22
 74
     0
 42
0.00000001
 43
0.00000001
 12
1.0
 22
0.0
 32
0.0
 13
1.0
 23
0.0
 33
0.0
 40
0.0
 40
0.0
 40
0.0
 40
0.0
 40
0.1250000000000002
 40
0.1250000000000002
 40
0.2500000000000005
 40
0.2500000000000005
 40
0.3750000000000007
 40
0.3750000000000007
 40
0.4375000000000008
 40
0.4375000000000008
 40
0.5000000000000009
 40
0.5000000000000009
 40
0.562500000000001
 40
0.562500000000001
 40
0.6250000000000011
 40
0.6250000000000011
 40
0.7500000000000008
 40
0.7500000000000008
 40
0.8750000000000004
 40
0.8750000000000004
 40
1.0
 40
1.0
 40
1.0
 40
1.0
 10
155.529932805918
 20
113.7233020002572
 30
0.0
 10
155.740576167918
 20
113.9579190312023
 30
0.0
 10
155.947772605675
 20
114.1958021671617
 30
0.0
 10
156.3492717403074
 20
114.6831164734306
 30
0.0
 10
156.5445481593534
 20
114.9332416982196
 30
0.0
 10
156.9043286520488
 20
115.4518318436705
 30
0.0
 10
157.0695875121982
 20
115.7192628275574
 30
0.0
 10
157.2622454216243
 20
116.1506779599559
 30
0.0
 10
157.3172101618344
 20
116.3006968418803
 30
0.0
 10
157.3949459467985
 20
116.6134340206103
 30
0.0
 10
157.4162120851069
 20
116.7711882674175
 30
0.0
 10
157.4181060143926
 20
117.0898935472633
 30
0.0
 10
157.3978802773256
 20
117.2523303474439
 30
0.0
 10
157.3234158670397
 20
117.5632823470265
 30
0.0
 10
157.2697767412938
 20
117.7139535853542
 30
0.0
 10
157.0750324358931
 20
118.1560373433228
 30
0.0
 10
156.9079823227148
 20
118.4260813564905
 30
0.0
 10
156.5477262040112
 20
118.9461889847719
 30
0.0
 10
156.3529738289908
 20
119.1958501975816
 30
0.0
 10
155.9499646045186
 20
119.6852743094244
 30
0.0
 10
155.7415280861551
 20
119.9246202325883
 30
0.0
 10
155.529932805919
 20
120.1602975211562
 30
0.0
  0
LINE
  5
14B
330
1F
100
AcDbEntity
  8
0
  6
HIDDEN
 62
     7
370
     0
100
AcDbLine
 10
155.5299328059
 20
113.7233020003
 30
0.0
 11
155.5299328059
 21
120.1602975212
 31
0.0
  0
SPLINE
  5
14C
330
1F
100
AcDbEntity
  8
0
  6
HIDDEN
 62
     7
370
     0
100
AcDbSpline
210
0.0
220
0.0
230
1.0
 70
     8
 71
     3
 72
     8
 73
     4
 74
     0
 42
0.00000001
 43
0.00000001
 12
1.0
 22
0.0
 32
0.0
 13
1.0
 23
0.0
 33
0.0
 40
0.0000202085968836
 40
0.0000202085968836
 40
0.0000202085968836
 40
0.0000202085968836
 40
0.0040218806502652
 40
0.0040218806502652
 40
0.0040218806502652
 40
0.0040218806502652
 10
151.529932805918
 20
113.7933226423696
 30
0.0
 10
152.8632559317087
 20
113.7693244112059
 30
0.0
 10
154.1965898049313
 20
113.7459966710376
 30
0.0
 10
155.529932805918
 20
113.7233020002572
 30
0.0
  0
SPLINE
  5
14D
330
1F
100
AcDbEntity
  8
0
  6
HIDDEN
 62
     7
370
     0
100
AcDbSpline
210
0.0
220
0.0
230
1.0
 70
     8
 71
     3
 72
     8
 73
     4
 74
     0
 42
0.00000001
 43
0.00000001
 12
1.0
 22
0.0
 32
0.0
 13
1.0
 23
0.0
 33
0.0
 40
0.0000202082942178
 40
0.0000202082942178
 40
0.0000202082942178
 40
0.0000202082942178
 40
0.0040218803475994
 40
0.0040218803475994
 40
0.0040218803475994
 40
0.0040218803475994
 10
155.529932805918
 20
120.1602975211554
 30
0.0
 10
154.1965898049313
 20
120.1376028503749
 30
0.0
 10
152.8632559317087
 20
120.1142751102066
 30
0.0
 10
151.529932805918
 20
120.090276879043
 30
0.0
  0
SPLINE
  5
14E
330
1F
100
AcDbEntity
  8
0
  6
HIDDEN
 62
     7
370
     0
100
AcDbSpline
210
0.0
220
0.0
230
1.0
 70
     8
 71
     3
 72
     8
 73
     4
 74
     0
 42
0.00000001
 43
0.00000001
 12
1.0
 22
0.0
 32
0.0
 13
1.0
 23
0.0
 33
0.0
 40
0.0
 40
0.0
 40
0.0
 40
0.0
 40
1.0
 40
1.0
 40
1.0
 40
1.0
 10
150.0299328059172
 20
114.6026288324719
 30
0.0
 10
150.5041442163551
 20
114.2678996051768
 30
0.0
 10
151.008880563457
 20
114.0088411913439
 30
0.0
 10
151.529932805918
 20
113.7933226423696
 30
0.0
  0
SPLINE
  5
14F
330
1F
100
AcDbEntity
  8
0
  6
HIDDEN
 62
     7
370
     0
100
AcDbSpline
210
0.0
220
0.0
230
1.0
 70
     8
 71
     3
 72
     8
 73
     4
 74
     0
 42
0.00000001
 43
0.00000001
 12
1.0
 22
0.0
 32
0.0
 13
1.0
 23
0.0
 33
0.0
 40
0.0
 40
0.0
 40
0.0
 40
0.0
 40
1.0
 40
1.0
 40
1.0
 40
1.0
 10
151.529932805918
 20
120.090276879043
 30
0.0
 10
151.0088805634573
 20
119.8747583300688
 30
0.0
 10
150.5041442163557
 20
119.6156999162361
 30
0.0
 10
150.029932805918
 20
119.2809706889414
 30
0.0
  0
LINE
  5
150
330
1F
100
AcDbEntity
  8
0
  6
HIDDEN
 62
     7
370
     0
100
AcDbLine
 10
150.0299328059
 20
114.6026288325
 30
0.0
 11
150.0299328059
 21
119.2809706889
 31
0.0
  0
SPLINE
  5
151
330
1F
100
AcDbEntity
  8
0
  6
HIDDEN
 62
     7
370
     0
100
AcDbSpline
210
0.0
220
0.0
230
1.0
 70
     8
 71
     3
 72
    68
 73
    64
 74
     0
 42
0.00000001
 43
0.00000001
 12
1.0
 22
0.0
 32
0.0
 13
1.0
 23
0.0
 33
0.0
 40
-0.03125
 40
-0.03125
 40
0.0
 40
0.0
 40
0.03125
 40
0.03125
 40
0.0625
 40
0.0625
 40
0.09375
 40
0.09375
 40
0.125
 40
0.125
 40
0.1875
 40
0.1875
 40
0.21875
 40
0.21875
 40
0.25
 40
0.25
 40
0.28125
 40
0.28125
 40
0.3125
 40
0.3125
 40
0.34375
 40
0.34375
 40
0.375
 40
0.375
 40
0.40625
 40
0.40625
 40
0.4375
 40
0.4375
 40
0.46875
 40
0.46875
 40
0.5
 40
0.5
 40
0.53125
 40
0.53125
 40
0.5625
 40
0.5625
 40
0.59375
 40
0.59375
 40
0.625
 40
0.625
 40
0.65625
 40
0.65625
 40
0.6875
 40
0.6875
 40
0.71875
 40
0.71875
 40
0.75
 40
0.75
 40
0.78125
 40
0.78125
 40
0.8125
 40
0.8125
 40
0.84375
 40
0.84375
 40
0.875
 40
0.875
 40
0.90625
 40
0.90625
 40
0.9375
 40
0.9375
 40
0.96875
 40
0.96875
 40
1.0
 40
1.0
 40
1.03125
 40
1.03125
 10
163.4137590932545
 20
118.8386173373229
 30
0.0
 10
163.7042235755463
 20
119.1570495783234
 30
0.0
 10
163.8631398739278
 20
119.2995671040271
 30
0.0
 10
164.2067205595657
 20
119.5532816411168
 30
0.0
 10
164.3928919124713
 20
119.6648454676258
 30
0.0
 10
164.7774219850571
 20
119.8490945042948
 30
0.0
 10
164.9770324872218
 20
119.9230087703836
 30
0.0
 10
165.3908720721953
 20
120.0346506599438
 30
0.0
 10
165.6036818818665
 20
120.0715747142326
 30
0.0
 10
166.2396133562073
 20
120.1241765348081
 30
0.0
 10
166.674679576835
 20
120.0819681441479
 30
0.0
 10
167.2869224438227
 20
119.9081335389525
 30
0.0
 10
167.4867675319347
 20
119.8315153111404
 30
0.0
 10
167.8711448406629
 20
119.6413404427975
 30
0.0
 10
168.0516932315254
 20
119.529981008579
 30
0.0
 10
168.3897531592349
 20
119.2748757398566
 30
0.0
 10
168.5487849756462
 20
119.1293699516639
 30
0.0
 10
168.8335816558686
 20
118.811131297491
 30
0.0
 10
168.9585271847435
 20
118.6400789789719
 30
0.0
 10
169.1728293251572
 20
118.2735183928588
 30
0.0
 10
169.262728104332
 20
118.0754496590561
 30
0.0
 10
169.3963803934609
 20
117.6708669058467
 30
0.0
 10
169.441388328775
 20
117.4632517258296
 30
0.0
 10
169.4861678093923
 20
117.0369619694008
 30
0.0
 10
169.4850941483765
 20
116.8203236714524
 30
0.0
 10
169.437074354661
 20
116.3973636444951
 30
0.0
 10
169.3896613774362
 20
116.1863669592357
 30
0.0
 10
169.2513461286195
 20
115.7805782438039
 30
0.0
 10
169.1616652703974
 20
115.5876315851414
 30
0.0
 10
168.9429825600701
 20
115.2207249621579
 30
0.0
 10
168.8135348422415
 20
115.0472198139359
 30
0.0
 10
168.527029238212
 20
114.7332177159452
 30
0.0
 10
168.368170419974
 20
114.5901147894909
 30
0.0
 10
168.0231725980211
 20
114.3347838736379
 30
0.0
 10
167.8409554939008
 20
114.2252516960374
 30
0.0
 10
167.4581154172618
 20
114.0403248692492
 30
0.0
 10
167.2553711921886
 20
113.9645090424077
 30
0.0
 10
166.8435426177253
 20
113.8519285501656
 30
0.0
 10
166.6343238411257
 20
113.8145883305809
 30
0.0
 10
166.2093310068913
 20
113.7773573110508
 30
0.0
 10
165.9921737298181
 20
113.7779232749824
 30
0.0
 10
165.5677958906649
 20
113.8173209788718
 30
0.0
 10
165.3586792428152
 20
113.8557502135061
 30
0.0
 10
164.9467382539213
 20
113.9709552480435
 30
0.0
 10
164.7441701490282
 20
114.0482201785479
 30
0.0
 10
164.3625697065608
 20
114.2359024486798
 30
0.0
 10
164.1812587706816
 20
114.3468158004918
 30
0.0
 10
163.8386668737476
 20
114.6047692392226
 30
0.0
 10
163.6798432567934
 20
114.750484934832
 30
0.0
 10
163.3967984776931
 20
115.0668060925415
 30
0.0
 10
163.2707885457072
 20
115.2388398039406
 30
0.0
 10
163.0536815018923
 20
115.6113823819297
 30
0.0
 10
162.9662462056185
 20
115.8055041672037
 30
0.0
 10
162.8330529250709
 20
116.2092788962833
 30
0.0
 10
162.7871523429663
 20
116.4217758228908
 30
0.0
 10
162.7428358020324
 20
116.8473716837489
 30
0.0
 10
162.7436779895148
 20
117.0602055220182
 30
0.0
 10
162.7915166839359
 20
117.485945251848
 30
0.0
 10
162.839052539405
 20
117.6977074172612
 30
0.0
 10
162.9757911346329
 20
118.1011969517185
 30
0.0
 10
163.0660746799086
 20
118.2969555726715
 30
0.0
 10
163.2857855721736
 20
118.6665557994197
 30
0.0
 10
163.4137590932545
 20
118.8386173373229
 30
0.0
 10
163.7042235755463
 20
119.1570495783234
 30
0.0
  0
CIRCLE
  5
152
330
1F
100
AcDbEntity
  8
0
  6
HIDDEN
 62
     7
370
     0
100
AcDbCircle
 10
166.0299328059
 20
116.9417997607
 30
0.0
 40
3.049999999999997
  0
CIRCLE
  5
153
330
1F
100
AcDbEntity
  8
0
  6
HIDDEN
 62
     7
370
     0
100
AcDbCircle
 10
192.0299328059
 20
116.9417997607
 30
0.0
 40
2.0
  0
LINE
  5
154
330
1F
100
AcDbEntity
  8
0
  6
HIDDEN
 62
     7
370
     0
100
AcDbLine
 10
214.926932055
 20
136.4060489573
 30
0.0
 11
235.9016730607
 21
136.4060489573
 31
0.0
  0
SPLINE
  5
155
330
1F
100
AcDbEntity
  8
0
  6
HIDDEN
 62
     7
370
     0
100
AcDbSpline
210
0.0
220
0.0
230
1.0
 70
     8
 71
     3
 72
     8
 73
     4
 74
     0
 42
0.00000001
 43
0.00000001
 12
1.0
 22
0.0
 32
0.0
 13
1.0
 23
0.0
 33
0.0
 40
0.0
 40
0.0
 40
0.0
 40
0.0
 40
1.0
 40
1.0
 40
1.0
 40
1.0
 10
214.926932054977
 20
136.4060489572793
 30
0.0
 10
214.0697331333875
 20
131.1334860156968
 30
0.0
 10
213.4251034672767
 20
125.8290061008461
 30
0.0
 10
213.2285316442282
 20
120.4572509341372
 30
0.0
  0
LINE
  5
156
330
1F
100
AcDbEntity
  8
0
  6
HIDDEN
 62
     7
370
     0
100
AcDbLine
 10
235.9016730607
 20
136.4060489573
 30
0.0
 11
235.1708465446
 21
122.4610483081
 31
0.0
  0
LINE
  5
157
330
1F
100
AcDbEntity
  8
0
  6
HIDDEN
 62
     7
370
     0
100
AcDbLine
 10
235.1708465446
 20
122.4610483081
 30
0.0
 11
231.3062271065
 21
116.9417997607
 31
0.0
  0
SPLINE
  5
158
330
1F
100
AcDbEntity
  8
0
  6
HIDDEN
 62
     7
370
     0
100
AcDbSpline
210
0.0
220
0.0
230
1.0
 70
     8
 71
     3
 72
    10
 73
     6
 74
     0
 42
0.00000001
 43
0.00000001
 12
1.0
 22
0.0
 32
0.0
 13
1.0
 23
0.0
 33
0.0
 40
0.0
 40
0.0
 40
0.0
 40
0.0
 40
0.5
 40
0.5
 40
1.0
 40
1.0
 40
1.0
 40
1.0
 10
213.2285316442282
 20
120.4572509341372
 30
0.0
 10
213.2070924507357
 20
119.8713780626981
 30
0.0
 10
213.180570858809
 20
119.2855430323096
 30
0.0
 10
213.1411432403044
 20
118.1137715966983
 30
0.0
 10
213.1286312217235
 20
117.5278322578849
 30
0.0
 10
213.1286312217235
 20
116.9417997607063
 30
0.0
  0
LINE
  5
159
330
1F
100
AcDbEntity
  8
0
  6
HIDDEN
 62
     7
370
     0
100
AcDbLine
 10
201.0299328059
 20
127.266175615
 30
0.0
 11
201.0299328059
 21
131.2805354729
 31
0.0
  0
LINE
  5
15A
330
1F
100
AcDbEntity
  8
0
  6
HIDDEN
 62
     7
370
     0
100
AcDbLine
 10
195.0299328059
 20
131.2812012376
 30
0.0
 11
195.0299328059
 21
127.266175615
 31
0.0
  0
LINE
  5
15B
330
1F
100
AcDbEntity
  8
0
  6
HIDDEN
 62
     7
370
     0
100
AcDbLine
 10
180.0299328059
 20
97.3917997607
 30
0.0
 11
180.1228260247
 21
97.4846929795
 31
0.0
  0
LINE
  5
15C
330
1F
100
AcDbEntity
  8
0
  6
HIDDEN
 62
     7
370
     0
100
AcDbLine
 10
180.1228260247
 20
136.3989065419
 30
0.0
 11
180.0299328059
 21
136.4917997607
 31
0.0
  0
ARC
  5
15D
330
1F
100
AcDbEntity
  8
0
  6
HIDDEN
 62
     7
370
     0
100
AcDbCircle
 10
179.4157192435
 20
98.1917997607
 30
0.0
 40
1.0
100
AcDbArc
 50
315.0
 51
0.0
  0
ARC
  5
15E
330
1F
100
AcDbEntity
  8
0
  6
HIDDEN
 62
     7
370
     0
100
AcDbCircle
 10
179.4157192435
 20
98.1917997607
 30
0.0
 40
1.000000000000005
100
AcDbArc
 50
0.0
 51
52.1052014664
  0
ARC
  5
15F
330
1F
100
AcDbEntity
  8
0
  6
HIDDEN
 62
     7
370
     0
100
AcDbCircle
 10
179.4157192435
 20
135.6917997607
 30
0.0
 40
1.000000000000006
100
AcDbArc
 50
351.8087250651
 51
45.0
  0
ARC
  5
160
330
1F
100
AcDbEntity
  8
0
  6
HIDDEN
 62
     7
370
     0
100
AcDbCircle
 10
179.4157192435
 20
135.6917997607
 30
0.0
 40
1.000000000000016
100
AcDbArc
 50
307.8947985336
 51
351.8087250651
  0
LINE
  5
161
330
1F
100
AcDbEntity
  8
0
  6
HIDDEN
 62
     7
370
     0
100
AcDbLine
 10
180.4157192435
 20
98.1917997607
 30
0.0
 11
180.4157192435
 21
135.6917997607
 31
0.0
  0
LINE
  5
162
330
1F
100
AcDbEntity
  8
0
  6
HIDDEN
 62
     7
370
     0
100
AcDbLine
 10
180.4157192435
 20
98.1917997607
 30
0.0
 11
180.4157192435
 21
135.6917997607
 31
0.0
  0
LINE
  5
163
330
1F
100
AcDbEntity
  8
0
  6
HIDDEN
 62
     7
370
     0
100
AcDbLine
 10
200.5299328059
 20
126.16493949
 30
0.0
 11
200.5299328059
 21
127.0938558687
 31
0.0
  0
LINE
  5
164
330
1F
100
AcDbEntity
  8
0
  6
HIDDEN
 62
     7
370
     0
100
AcDbLine
 10
200.5299328059
 20
121.0986395771
 30
0.0
 11
200.5299328059
 21
123.694087284
 31
0.0
  0
LINE
  5
165
330
1F
100
AcDbEntity
  8
0
  6
HIDDEN
 62
     7
370
     0
100
AcDbLine
 10
195.5299328059
 20
127.0938558687
 30
0.0
 11
195.5299328059
 21
121.0984528945
 31
0.0
  0
LINE
  5
166
330
1F
100
AcDbEntity
  8
0
  6
HIDDEN
 62
     7
370
     0
100
AcDbLine
 10
200.1690595585
 20
123.068375554
 30
0.0
 11
207.4220107688
 21
127.8983837033
 31
0.0
  0
LINE
  5
167
330
1F
100
AcDbEntity
  8
0
  6
HIDDEN
 62
     7
370
     0
100
AcDbLine
 10
207.5925794851
 20
134.0192007133
 30
0.0
 11
197.96804332
 21
127.6098665316
 31
0.0
  0
ARC
  5
168
330
1F
100
AcDbEntity
  8
0
  6
HIDDEN
 62
     7
370
     0
100
AcDbCircle
 10
157.536652318
 20
106.4417997607
 30
0.0
 40
1.500000000000022
100
AcDbArc
 50
270.0
 51
315.0
  0
ARC
  5
169
330
1F
100
AcDbEntity
  8
0
  6
HIDDEN
 62
     7
370
     0
100
AcDbCircle
 10
157.536652318
 20
127.4417997607
 30
0.0
 40
1.500000000000002
100
AcDbArc
 50
45.0
 51
90.0
  0
ARC
  5
16A
330
1F
100
AcDbEntity
  8
0
  6
HIDDEN
 62
     7
370
     0
100
AcDbCircle
 10
156.5299328059
 20
106.4417997607
 30
0.0
 40
1.500000000000014
100
AcDbArc
 50
191.0958032831
 51
270.0
  0
ARC
  5
16B
330
1F
100
AcDbEntity
  8
0
  6
HIDDEN
 62
     7
370
     0
100
AcDbCircle
 10
156.5299328059
 20
127.4417997607
 30
0.0
 40
1.499999999999987
100
AcDbArc
 50
90.0
 51
168.9041967169
  0
LINE
  5
16C
330
1F
100
AcDbEntity
  8
0
  6
HIDDEN
 62
     7
370
     0
100
AcDbLine
 10
156.5299328059
 20
104.9417997607
 30
0.0
 11
157.536652318
 21
104.9417997607
 31
0.0
  0
LINE
  5
16D
330
1F
100
AcDbEntity
  8
0
  6
HIDDEN
 62
     7
370
     0
100
AcDbLine
 10
157.536652318
 20
128.9417997607
 30
0.0
 11
156.5299328059
 21
128.9417997607
 31
0.0
  0
LINE
  5
16E
330
1F
100
AcDbEntity
  8
0
  6
HIDDEN
 62
     7
370
     0
100
AcDbLine
 10
150.0299328059
 20
105.1783876923
 30
0.0
 11
151.0579726615
 21
105.7719267796
 31
0.0
  0
LINE
  5
16F
330
1F
100
AcDbEntity
  8
0
  6
HIDDEN
 62
     7
370
     0
100
AcDbLine
 10
151.0579726615
 20
128.1116727418
 30
0.0
 11
150.0299328059
 21
128.7052118292
 31
0.0
  0
LINE
  5
170
330
1F
100
AcDbEntity
  8
0
  6
HIDDEN
 62
     7
370
     0
100
AcDbLine
 10
158.5973124898
 20
105.3811395889
 30
0.0
 11
159.6579726615
 21
106.4417997607
 31
0.0
  0
LINE
  5
171
330
1F
100
AcDbEntity
  8
0
  6
HIDDEN
 62
     7
370
     0
100
AcDbLine
 10
159.6579726615
 20
127.4417997607
 30
0.0
 11
158.5973124898
 21
128.5024599325
 31
0.0
  0
LINE
  5
172
330
1F
100
AcDbEntity
  8
0
  6
HIDDEN
 62
     7
370
     0
100
AcDbLine
 10
151.0579726615
 20
105.7719267796
 30
0.0
 11
153.5579726615
 21
106.4417997607
 31
0.0
  0
LINE
  5
173
330
1F
100
AcDbEntity
  8
0
  6
HIDDEN
 62
     7
370
     0
100
AcDbLine
 10
153.5579726615
 20
127.4417997607
 30
0.0
 11
151.0579726615
 21
128.1116727418
 31
0.0
  0
LINE
  5
174
330
1F
100
AcDbEntity
  8
0
  6
HIDDEN
 62
     7
370
     0
100
AcDbLine
 10
155.0579726615
 20
127.7304748953
 30
0.0
 11
154.5579726615
 21
127.4417997607
 31
0.0
  0
LINE
  5
175
330
1F
100
AcDbEntity
  8
0
  6
HIDDEN
 62
     7
370
     0
100
AcDbLine
 10
154.5579726615
 20
106.4417997607
 30
0.0
 11
155.0579726615
 21
106.1531246261
 31
0.0
  0
ARC
  5
176
330
1F
100
AcDbEntity
  8
0
  6
HIDDEN
 62
     7
370
     0
100
AcDbCircle
 10
169.5299328059
 20
106.9417997607
 30
0.0
 40
0.5
100
AcDbArc
 50
270.0
 51
0.0
  0
ARC
  5
177
330
1F
100
AcDbEntity
  8
0
  6
HIDDEN
 62
     7
370
     0
100
AcDbCircle
 10
169.5299328059
 20
126.9417997607
 30
0.0
 40
0.5
100
AcDbArc
 50
0.0
 51
90.0
  0
LINE
  5
178
330
1F
100
AcDbEntity
  8
0
  6
HIDDEN
 62
     7
370
     0
100
AcDbLine
 10
153.5579726615
 20
106.4417997607
 30
0.0
 11
154.5579726615
 21
106.4417997607
 31
0.0
  0
LINE
  5
179
330
1F
100
AcDbEntity
  8
0
  6
HIDDEN
 62
     7
370
     0
100
AcDbLine
 10
154.5579726615
 20
127.4417997607
 30
0.0
 11
153.5579726615
 21
127.4417997607
 31
0.0
  0
LINE
  5
17A
330
1F
100
AcDbEntity
  8
0
  6
HIDDEN
 62
     7
370
     0
100
AcDbLine
 10
159.6579726615
 20
106.4417997607
 30
0.0
 11
169.5299328059
 21
106.4417997607
 31
0.0
  0
LINE
  5
17B
330
1F
100
AcDbEntity
  8
0
  6
HIDDEN
 62
     7
370
     0
100
AcDbLine
 10
169.5299328059
 20
127.4417997607
 30
0.0
 11
159.6579726615
 21
127.4417997607
 31
0.0
  0
LINE
  5
17C
330
1F
100
AcDbEntity
  8
0
  6
HIDDEN
 62
     7
370
     0
100
AcDbLine
 10
170.0299328059
 20
108.6917997607
 30
0.0
 11
171.0299328059
 21
109.6917997607
 31
0.0
  0
LINE
  5
17D
330
1F
100
AcDbEntity
  8
0
  6
HIDDEN
 62
     7
370
     0
100
AcDbLine
 10
171.0299328059
 20
124.1917997607
 30
0.0
 11
170.0299328059
 21
125.1917997607
 31
0.0
  0
LINE
  5
17E
330
1F
100
AcDbEntity
  8
0
  6
HIDDEN
 62
     7
370
     0
100
AcDbLine
 10
204.0299328059
 20
124.1917997607
 30
0.0
 11
171.0299328059
 21
124.1917997607
 31
0.0
  0
LINE
  5
17F
330
1F
100
AcDbEntity
  8
0
  6
HIDDEN
 62
     7
370
     0
100
AcDbLine
 10
171.0299328059
 20
109.6917997607
 30
0.0
 11
204.0299328059
 21
109.6917997607
 31
0.0
  0
LINE
  5
180
330
1F
100
AcDbEntity
  8
0
  6
HIDDEN
 62
     7
370
     0
100
AcDbLine
 10
204.0299328059
 20
109.6917997607
 30
0.0
 11
208.3861722939
 21
116.9417997607
 31
0.0
  0
LINE
  5
181
330
1F
100
AcDbEntity
  8
0
  6
HIDDEN
 62
     7
370
     0
100
AcDbLine
 10
208.3861722939
 20
116.9417997607
 30
0.0
 11
204.0299328059
 21
124.1917997607
 31
0.0
  0
LINE
  5
182
330
1F
100
AcDbEntity
  8
VERMASSUNG
  6
CENTERX2
100
AcDbLine
 10
147.7691273997
 20
116.9417997607
 30
0.0
 11
240.0299328059
 21
116.9417997607
 31
0.0
  0
LINE
  5
183
330
1F
100
AcDbEntity
  8
VERMASSUNG
  6
CENTERX2
100
AcDbLine
 10
240.0299328059
 20
151.9417997607
 30
0.0
 11
240.0299328059
 21
116.9417997607
 31
0.0
  0
LINE
  5
184
330
1F
100
AcDbEntity
  8
VERMASSUNG
  6
CENTERX2
100
AcDbLine
 10
240.0299328059
 20
151.9417997607
 30
0.0
 11
255.7681481324
 21
151.9417997607
 31
0.0
  0
DIMENSION
  5
185
330
1F
100
AcDbEntity
  8
VERMASSUNG
100
AcDbDimension
  2
_D
 10
256.0779659902
 20
116.9417997607
 30
0.0
 11
256.0779659902
 21
134.4417997607
 31
0.0
 70
   160
  1
<>
 71
     2
 42
-1.0
  3
SLDDIMSTYLE0
100
AcDbAlignedDimension
 13
240.0299328059
 23
151.9417997607
 33
0.0
 14
240.0299328059
 24
116.9417997607
 34
0.0
 50
90.0
100
AcDbRotatedDimension
  0
DIMENSION
  5
192
330
1F
100
AcDbEntity
  8
VERMASSUNG
100
AcDbDimension
  2
_D_1
 10
240.0299328059
 20
159.8050444563
 30
0.0
 11
210.0299328059
 21
159.8050444563
 31
0.0
 70
   160
  1
<>
 71
     2
 42
-1.0
  3
SLDDIMSTYLE0
100
AcDbAlignedDimension
 13
180.0299328059
 23
141.6417997607
 33
0.0
 14
240.0299328059
 24
151.9417997607
 34
0.0
100
AcDbRotatedDimension
  0
DIMENSION
  5
19E
330
1F
100
AcDbEntity
  8
VERMASSUNG
100
AcDbDimension
  2
_D_2
 10
150.0299328059
 20
168.4975985999
 30
0.0
 11
195.0299328059
 21
168.4975985999
 31
0.0
 70
   160
  1
<>
 71
     2
 42
-1.0
  3
SLDDIMSTYLE1
100
AcDbAlignedDimension
 13
240.0299328059
 23
151.9417997607
 33
0.0
 14
150.0299328059
 24
132.9351255989
 34
0.0
100
AcDbRotatedDimension
  0
DIMENSION
  5
1A9
330
1F
100
AcDbEntity
  8
VERMASSUNG
100
AcDbDimension
  2
_D_3
 10
240.0299328059
 20
151.9417997607
 30
0.0
 11
246.3171173636
 21
145.3391586007
 31
0.0
 70
   162
  1
<>
 71
     1
 42
-1.0
  3
SLDDIMSTYLE2
100
AcDb2LineAngularDimension
 13
239.4718593432
 23
140.8826493673
 33
0.0
 14
240.0298394807
 24
151.5295446417
 34
0.0
 15
255.7681481324
 25
151.9417997607
 35
0.0
 16
246.3171173636
 26
145.3391586007
 36
0.0
  0
DIMENSION
  5
1B2
330
1F
100
AcDbEntity
  8
VERMASSUNG
100
AcDbDimension
  2
_D_4
 10
140.0299328059
 20
91.9417997607
 30
0.0
 11
140.0299328059
 21
116.9417997607
 31
0.0
 70
   160
  1
PSC%%c<>
 71
     2
 42
-1.0
  3
SLDDIMSTYLE1
100
AcDbAlignedDimension
 13
180.3299328059
 23
141.9417997607
 33
0.0
 14
180.3299328059
 24
91.9417997607
 34
0.0
 50
90.0
100
AcDbRotatedDimension
  0
SPLINE
  5
1BE
330
1F
100
AcDbEntity
  8
0
  6
Continuous
 62
     7
370
    15
100
AcDbSpline
210
0.0
220
0.0
230
1.0
 70
     8
 71
     3
 72
    10
 73
     6
 74
     0
 42
0.00000001
 43
0.00000001
 12
1.0
 22
0.0
 32
0.0
 13
1.0
 23
0.0
 33
0.0
 40
0.0
 40
0.0
 40
0.0
 40
0.0
 40
0.3323651549870943
 40
0.6672486351725235
 40
1.0
 40
1.0
 40
1.0
 40
1.0
 10
72.06700474078758
 20
151.2855450247802
 30
0.0
 10
71.62246584194554
 20
151.373843595633
 30
0.0
 10
70.73001978048951
 20
151.5511097741272
 30
0.0
 10
69.36746317543046
 20
151.704479077173
 30
0.0
 10
68.47182879867867
 20
151.872106095375
 30
0.0
 10
68.0254417302434
 20
151.9556519430869
 30
0.0
  0
LINE
  5
1BF
330
1F
100
AcDbEntity
  8
0
  6
Continuous
 62
     7
370
    15
100
AcDbLine
 10
68.0254417302
 20
134.8469795161
 30
0.0
 11
68.3636593921
 21
134.9060339024
 31
0.0
  0
LINE
  5
1C0
330
1F
100
AcDbEntity
  8
0
  6
Continuous
 62
     7
370
    15
100
AcDbLine
 10
68.3636593921
 20
121.4130886057
 30
0.0
 11
93.5636593921
 21
122.4610483081
 31
0.0
  0
LINE
  5
1C1
330
1F
100
AcDbEntity
  8
0
  6
Continuous
 62
     7
370
    15
100
AcDbLine
 10
68.3636593921
 20
140.5679572378
 30
0.0
 11
68.3636593921
 21
121.4130886057
 31
0.0
  0
LINE
  5
1C2
330
1F
100
AcDbEntity
  8
0
  6
Continuous
 62
     7
370
    15
100
AcDbLine
 10
70.5336593921
 20
140.7204128604
 30
0.0
 11
72.0336593921
 21
140.6012666568
 31
0.0
  0
LINE
  5
1C3
330
1F
100
AcDbEntity
  8
0
  6
Continuous
 62
     7
370
    15
100
AcDbLine
 10
72.0336593921
 20
140.8257969313
 30
0.0
 11
72.0336593921
 21
140.6012666568
 31
0.0
  0
LINE
  5
1C4
330
1F
100
AcDbEntity
  8
0
  6
Continuous
 62
     7
370
    15
100
AcDbLine
 10
79.2405819002
 20
148.9741455017
 30
0.0
 11
72.0336593921
 21
150.4614557589
 31
0.0
  0
ARC
  5
1C5
330
1F
100
AcDbEntity
  8
0
  6
Continuous
 62
     7
370
    15
100
AcDbCircle
 10
65.5636593921
 20
118.9417997607
 30
0.0
 40
33.00000000000002
100
AcDbArc
 50
31.9527464003
 51
65.5151765283
  0
LINE
  5
1C6
330
1F
100
AcDbEntity
  8
0
  6
Continuous
 62
     7
370
    15
100
AcDbLine
 10
93.5636593921
 20
136.4060489573
 30
0.0
 11
93.5636593921
 21
122.4610483081
 31
0.0
  0
LINE
  5
1C7
330
1F
100
AcDbEntity
  8
0
  6
Continuous
 62
     7
370
    15
100
AcDbLine
 10
72.0336593921
 20
150.700428746
 30
0.0
 11
78.193902706
 21
149.4291242388
 31
0.0
  0
ARC
  5
1C8
330
1F
100
AcDbEntity
  8
0
  6
Continuous
 62
     7
370
    15
100
AcDbCircle
 10
65.5636593921
 20
118.9417997607
 30
0.0
 40
33.0
100
AcDbArc
 50
65.5151765283
 51
67.4968238806
  0
LINE
  5
1C9
330
1F
100
AcDbEntity
  8
0
  6
Continuous
 62
     7
370
    15
100
AcDbLine
 10
93.5636593921
 20
122.4610483081
 30
0.0
 11
93.5636593921
 21
116.9417997607
 31
0.0
  0
ARC
  5
1CA
330
1F
100
AcDbEntity
  8
0
  6
Continuous
 62
     7
370
    15
100
AcDbCircle
 10
68.0636593921
 20
116.9417997607
 30
0.0
 40
25.5
100
AcDbArc
 50
270.6740835447
 51
0.0
  0
LINE
  5
1CB
330
1F
100
AcDbEntity
  8
0
  6
Continuous
 62
     7
370
    15
100
AcDbLine
 10
68.3636593921
 20
121.4130886057
 30
0.0
 11
68.3636593921
 21
91.4435645277
 31
0.0
  0
SPLINE
  5
1CC
330
1F
100
AcDbEntity
  8
0
  6
Continuous
 62
     7
370
    15
100
AcDbSpline
210
0.0
220
0.0
230
1.0
 70
     8
 71
     3
 72
    18
 73
    14
 74
     0
 42
0.00000001
 43
0.00000001
 12
1.0
 22
0.0
 32
0.0
 13
1.0
 23
0.0
 33
0.0
 40
0.0
 40
0.0
 40
0.0
 40
0.0
 40
0.2499999999999982
 40
0.2499999999999982
 40
0.4999999999999989
 40
0.4999999999999989
 40
0.6249999999999992
 40
0.6249999999999992
 40
0.7499999999999994
 40
0.7499999999999994
 40
0.8749999999999998
 40
0.8749999999999998
 40
1.0
 40
1.0
 40
1.0
 40
1.0
 10
68.36285868651527
 20
91.94359022917776
 30
0.0
 10
68.35536233458025
 20
91.94350050662354
 30
0.0
 10
68.29678514604795
 20
91.94264796622315
 30
0.0
 10
68.0782649619318
 20
91.94156526704391
 30
0.0
 10
67.9225685902995
 20
91.94140254202148
 30
0.0
 10
67.62346870433028
 20
91.94547654938137
 30
0.0
 10
67.5132014541821
 20
91.94758307300464
 30
0.0
 10
67.27772862320388
 20
91.95387898686604
 30
0.0
 10
67.15176532877233
 20
91.9580745171066
 30
0.0
 10
66.88309326367232
 20
91.96932808794553
 30
0.0
 10
66.74048792607242
 20
91.97640923150733
 30
0.0
 10
66.44768978324036
 20
91.99365054624177
 30
0.0
 10
66.29640043385116
 20
92.00384944618011
 30
0.0
 10
66.14011652737753
 20
92.01590995015603
 30
0.0
  0
SPLINE
  5
1CD
330
1F
100
AcDbEntity
  8
0
  6
Continuous
 62
     7
370
    15
100
AcDbSpline
210
0.0
220
0.0
230
1.0
 70
     8
 71
     3
 72
    13
 73
     9
 74
     0
 42
0.00000001
 43
0.00000001
 12
1.0
 22
0.0
 32
0.0
 13
1.0
 23
0.0
 33
0.0
 40
0.0
 40
0.0
 40
0.0
 40
0.0
 40
0.1920559039461827
 40
0.3896863335229833
 40
0.5817422042004562
 40
0.7793563463770267
 40
0.9716435838206042
 40
1.0
 40
1.0
 40
1.0
 40
1.0
 10
66.14011652737753
 20
141.8676895712565
 30
0.0
 10
66.2976927527752
 20
141.8789498050558
 30
0.0
 10
66.61741893803644
 20
141.9017971069804
 30
0.0
 10
67.05434356848532
 20
141.9224693986425
 30
0.0
 10
67.45123135371261
 20
141.9352158775172
 30
0.0
 10
67.77824736242435
 20
141.9407249100487
 30
0.0
 10
67.98472131976783
 20
141.9419739787211
 30
0.0
 10
68.05466983286959
 20
141.9417388401233
 30
0.0
 10
68.06365939189871
 20
141.9417086208633
 30
0.0
  0
ELLIPSE
  5
1CE
330
1F
100
AcDbEntity
  8
0
  6
Continuous
 62
     7
370
    15
100
AcDbEllipse
 10
58.9490474051
 20
130.9587922083
 30
0.0
 11
1.756445035685374
 21
2.815924377711184
 31
0.0
210
0.0
220
0.0
230
1.0
 40
0.7353403728
 41
0.0
 42
6.283185307179586
  0
ARC
  5
1CF
330
1F
100
AcDbEntity
  8
0
  6
Continuous
 62
     7
370
    15
100
AcDbCircle
 10
68.0636593921
 20
116.9417997607
 30
0.0
 40
25.0
100
AcDbArc
 50
94.4127968195
 51
265.5872031805
  0
SPLINE
  5
1D0
330
1F
100
AcDbEntity
  8
0
  6
Continuous
 62
     7
370
    15
100
AcDbSpline
210
0.0
220
0.0
230
1.0
 70
    24
 71
     3
 72
    14
 73
    10
 74
     0
 42
0.00000001
 43
0.00000001
 12
1.0
 22
0.0
 32
0.0
 13
1.0
 23
0.0
 33
0.0
 40
0.0
 40
0.0
 40
0.0
 40
0.0
 40
0.1583203796596281
 40
0.3168008057739497
 40
0.4713744813488118
 40
0.622125906900563
 40
0.7721262731744456
 40
0.9245922366698319
 40
1.0
 40
1.0
 40
1.0
 40
1.0
 10
72.03365939206932
 20
151.2775703269205
 30
0.0
 10
72.03365939206904
 20
151.2827258985662
 30
0.0
 10
72.03365939206847
 20
151.2930422536374
 30
0.0
 10
72.03365939206954
 20
151.2943640554949
 30
0.0
 10
72.03365939206927
 20
151.28460521752
 30
0.0
 10
72.03365939206934
 20
151.2645836891456
 30
0.0
 10
72.03365939206932
 20
151.2370114972024
 30
0.0
 10
72.03365939206932
 20
151.2101416725926
 30
0.0
 10
72.03365939206932
 20
151.1936578617631
 30
0.0
 10
72.03365939206932
 20
151.1882030542997
 30
0.0
  0
SPLINE
  5
1D1
330
1F
100
AcDbEntity
  8
0
  6
Continuous
 62
     7
370
    15
100
AcDbSpline
210
0.0
220
0.0
230
1.0
 70
    24
 71
     3
 72
    12
 73
     8
 74
     0
 42
0.00000001
 43
0.00000001
 12
1.0
 22
0.0
 32
0.0
 13
1.0
 23
0.0
 33
0.0
 40
0.0
 40
0.0
 40
0.0
 40
0.0
 40
0.2134906963518513
 40
0.4264866679950501
 40
0.6343771917019259
 40
0.8381626331068484
 40
1.0
 40
1.0
 40
1.0
 40
1.0
 10
68.06365939206933
 20
151.5295446416989
 30
0.0
 10
68.06365939206931
 20
151.5755719931911
 30
0.0
 10
68.0636593920693
 20
151.6675200364078
 30
0.0
 10
68.06365939206941
 20
151.7921653892099
 30
0.0
 10
68.06365939206897
 20
151.8856958751667
 30
0.0
 10
68.06365939206938
 20
151.940835283311
 30
0.0
 10
68.06365939206934
 20
151.9429032230967
 30
0.0
 10
68.06365939206933
 20
151.9438185651438
 30
0.0
  0
LINE
  5
1D2
330
1F
100
AcDbEntity
  8
0
  6
Continuous
 62
     7
370
    15
100
AcDbLine
 10
72.0336593921
 20
141.0067771978
 30
0.0
 11
72.0336593921
 21
151.1882030543
 31
0.0
  0
LINE
  5
1D3
330
1F
100
AcDbEntity
  8
0
  6
Continuous
 62
     7
370
    15
100
AcDbLine
 10
68.0636593921
 20
140.8826493673
 30
0.0
 11
68.0636593921
 21
151.5295446417
 31
0.0
  0
SPLINE
  5
1D4
330
1F
100
AcDbEntity
  8
0
  6
Continuous
 62
     7
370
    15
100
AcDbSpline
210
0.0
220
0.0
230
1.0
 70
    24
 71
     3
 72
    10
 73
     6
 74
     0
 42
0.00000001
 43
0.00000001
 12
1.0
 22
0.0
 32
0.0
 13
1.0
 23
0.0
 33
0.0
 40
0.0
 40
0.0
 40
0.0
 40
0.0
 40
0.265712295724515
 40
0.6165157621683434
 40
1.0
 40
1.0
 40
1.0
 40
1.0
 10
72.03365939206932
 20
141.0067771978228
 30
0.0
 10
72.0336593920692
 20
140.9984257369858
 30
0.0
 10
72.0336593920689
 20
140.9790483603044
 30
0.0
 10
72.03365939206947
 20
140.9498509961813
 30
0.0
 10
72.03365939206938
 20
140.9353646427071
 30
0.0
 10
72.03365939206932
 20
140.9277990955943
 30
0.0
  0
SPLINE
  5
1D5
330
1F
100
AcDbEntity
  8
0
  6
Continuous
 62
     7
370
    15
100
AcDbSpline
210
0.0
220
0.0
230
1.0
 70
    24
 71
     3
 72
    10
 73
     6
 74
     0
 42
0.00000001
 43
0.00000001
 12
1.0
 22
0.0
 32
0.0
 13
1.0
 23
0.0
 33
0.0
 40
0.0
 40
0.0
 40
0.0
 40
0.0
 40
0.3518022785809891
 40
0.7034245935031576
 40
1.0
 40
1.0
 40
1.0
 40
1.0
 10
68.06365939206933
 20
140.5667445185629
 30
0.0
 10
68.06365939206933
 20
140.5941604980873
 30
0.0
 10
68.06365939206933
 20
140.6489784325537
 30
0.0
 10
68.06365939206933
 20
140.7638165043183
 30
0.0
 10
68.06365939206933
 20
140.845346332753
 30
0.0
 10
68.06365939206933
 20
140.882649367322
 30
0.0
  0
LINE
  5
1D6
330
1F
100
AcDbEntity
  8
0
  6
Continuous
 62
     7
370
    15
100
AcDbLine
 10
72.0336593921
 20
140.8257969313
 30
0.0
 11
72.0336593921
 21
140.9277990956
 31
0.0
  0
LINE
  5
1D7
330
1F
100
AcDbEntity
  8
0
  6
Continuous
 62
     7
370
    15
100
AcDbLine
 10
68.0636593921
 20
134.9170068393
 30
0.0
 11
68.0636593921
 21
140.5667445186
 31
0.0
  0
SPLINE
  5
1D8
330
1F
100
AcDbEntity
  8
0
  6
Continuous
 62
     7
370
    15
100
AcDbSpline
210
0.0
220
0.0
230
1.0
 70
    24
 71
     3
 72
    10
 73
     6
 74
     0
 42
0.00000001
 43
0.00000001
 12
1.0
 22
0.0
 32
0.0
 13
1.0
 23
0.0
 33
0.0
 40
0.0
 40
0.0
 40
0.0
 40
0.0
 40
0.1195628476982589
 40
0.7176739917292666
 40
1.0
 40
1.0
 40
1.0
 40
1.0
 10
68.06365939206938
 20
134.8588128940529
 30
0.0
 10
68.06365939206938
 20
134.8578157958447
 30
0.0
 10
68.06365939206938
 20
134.8518307305424
 30
0.0
 10
68.06365939206938
 20
134.8759339304542
 30
0.0
 10
68.06365939206938
 20
134.9070340857512
 30
0.0
 10
68.06365939206938
 20
134.9170068392619
 30
0.0
  0
CIRCLE
  5
1D9
330
1F
100
AcDbEntity
  8
VERMASSUNG
  6
CENTERX2
100
AcDbCircle
 10
68.0636593921
 20
119.1149659428
 30
0.0
 40
32.50000000000001
  0
DIMENSION
  5
1DA
330
1F
100
AcDbEntity
  8
VERMASSUNG
100
AcDbDimension
  2
_D_5
 10
46.0177261094
 20
142.9977272564
 30
0.0
 11
40.4742665508
 21
149.1531029755
 31
0.0
 70
   160
  1
%%c<> min. 
 71
     2
 42
-1.0
  3
SLDDIMSTYLE3
100
AcDbAlignedDimension
 13
89.8128618788
 23
94.9649723364
 33
0.0
 14
46.3144569053
 24
143.2649595492
 34
0.0
 50
-47.9941691921
100
AcDbRotatedDimension
  0
INSERT
  5
1F4
330
1F
100
AcDbEntity
  8
VERMASSUNG
100
AcDbBlockReference
  2
SW_CENTERMARKSYMBOL_0
 10
68.0636593921
 20
116.9417997607
 30
0.0
  0
OLE2FRAME
  5
1F5
330
1F
100
AcDbEntity
  8
0
100
AcDbOle2Frame
 70
     2
  3
Paintbrush-Bild
 10
13.8511154363
 20
38.264191557
 30
0.0
 11
51.6290888628
 21
31.9806341108
 31
0.0
 71
     2
 72
     0
 73
     1
 90
    12928
310
80552BED0767C5B32B40DDAF6807D121434000000000000000006FFBDDFB85D0
310
4940DDAF6807D121434000000000000000006FFBDDFB85D04940416F4BD60AFB
310
3F4000000000000000002BED0767C5B32B40416F4BD60AFB3F40000000000000
310
0000000000000100000000010000010000000100000000000100000000320000
310
D0CF11E0A1B11AE1000000000000000000000000000000003E000300FEFF0900
310
0600000000000000000000000100000001000000000000000010000002000000
310
01000000FEFFFFFF0000000000000000FFFFFFFFFFFFFFFFFFFFFFFFFFFFFFFF
310
FFFFFFFFFFFFFFFFFFFFFFFFFFFFFFFFFFFFFFFFFFFFFFFFFFFFFFFFFFFFFFFF
310
FFFFFFFFFFFFFFFFFFFFFFFFFFFFFFFFFFFFFFFFFFFFFFFFFFFFFFFFFFFFFFFF
310
FFFFFFFFFFFFFFFFFFFFFFFFFFFFFFFFFFFFFFFFFFFFFFFFFFFFFFFFFFFFFFFF
310
FFFFFFFFFFFFFFFFFFFFFFFFFFFFFFFFFFFFFFFFFFFFFFFFFFFFFFFFFFFFFFFF
310
FFFFFFFFFFFFFFFFFFFFFFFFFFFFFFFFFFFFFFFFFFFFFFFFFFFFFFFFFFFFFFFF
310
FFFFFFFFFFFFFFFFFFFFFFFFFFFFFFFFFFFFFFFFFFFFFFFFFFFFFFFFFFFFFFFF
310
FFFFFFFFFFFFFFFFFFFFFFFFFFFFFFFFFFFFFFFFFFFFFFFFFFFFFFFFFFFFFFFF
310
FFFFFFFFFFFFFFFFFFFFFFFFFFFFFFFFFFFFFFFFFFFFFFFFFFFFFFFFFFFFFFFF
310
FFFFFFFFFFFFFFFFFFFFFFFFFFFFFFFFFFFFFFFFFFFFFFFFFFFFFFFFFFFFFFFF
310
FFFFFFFFFFFFFFFFFFFFFFFFFFFFFFFFFFFFFFFFFFFFFFFFFFFFFFFFFFFFFFFF
310
FFFFFFFFFFFFFFFFFFFFFFFFFFFFFFFFFFFFFFFFFFFFFFFFFFFFFFFFFFFFFFFF
310
FFFFFFFFFFFFFFFFFFFFFFFFFFFFFFFFFFFFFFFFFFFFFFFFFFFFFFFFFFFFFFFF
310
FFFFFFFFFFFFFFFFFFFFFFFFFFFFFFFFFFFFFFFFFFFFFFFFFFFFFFFFFFFFFFFF
310
FDFFFFFFFEFFFFFFFEFFFFFFFEFFFFFF05000000060000000700000008000000
310
090000000A0000000B0000000C0000000D0000000E0000000F00000010000000
310
11000000120000001300000014000000150000001600000017000000FEFFFFFF
310
FFFFFFFFFFFFFFFFFFFFFFFFFFFFFFFFFFFFFFFFFFFFFFFFFFFFFFFFFFFFFFFF
310
FFFFFFFFFFFFFFFFFFFFFFFFFFFFFFFFFFFFFFFFFFFFFFFFFFFFFFFFFFFFFFFF
310
FFFFFFFFFFFFFFFFFFFFFFFFFFFFFFFFFFFFFFFFFFFFFFFFFFFFFFFFFFFFFFFF
310
FFFFFFFFFFFFFFFFFFFFFFFFFFFFFFFFFFFFFFFFFFFFFFFFFFFFFFFFFFFFFFFF
310
FFFFFFFFFFFFFFFFFFFFFFFFFFFFFFFFFFFFFFFFFFFFFFFFFFFFFFFFFFFFFFFF
310
FFFFFFFFFFFFFFFFFFFFFFFFFFFFFFFFFFFFFFFFFFFFFFFFFFFFFFFFFFFFFFFF
310
FFFFFFFFFFFFFFFFFFFFFFFFFFFFFFFFFFFFFFFFFFFFFFFFFFFFFFFFFFFFFFFF
310
FFFFFFFFFFFFFFFFFFFFFFFFFFFFFFFFFFFFFFFFFFFFFFFFFFFFFFFFFFFFFFFF
310
FFFFFFFFFFFFFFFFFFFFFFFFFFFFFFFFFFFFFFFFFFFFFFFFFFFFFFFFFFFFFFFF
310
FFFFFFFFFFFFFFFFFFFFFFFFFFFFFFFFFFFFFFFFFFFFFFFFFFFFFFFFFFFFFFFF
310
FFFFFFFFFFFFFFFFFFFFFFFFFFFFFFFFFFFFFFFFFFFFFFFFFFFFFFFFFFFFFFFF
310
FFFFFFFFFFFFFFFFFFFFFFFFFFFFFFFFFFFFFFFFFFFFFFFFFFFFFFFFFFFFFFFF
310
FFFFFFFFFFFFFFFFFFFFFFFFFFFFFFFFFFFFFFFFFFFFFFFFFFFFFFFFFFFFFFFF
310
52006F006F007400200045006E00740072007900000000000000000000000000
310
0000000000000000000000000000000000000000000000000000000000000000
310
16000500FFFFFFFFFFFFFFFF020000000A00030000000000C000000000000046
310
000000000000000000000000D003904E5A24CD0103000000C000000000000000
310
01004F006C006500000000000000000000000000000000000000000000000000
310
0000000000000000000000000000000000000000000000000000000000000000
310
0A000200FFFFFFFFFFFFFFFFFFFFFFFF00000000000000000000000000000000
310
0000000000000000000000000000000000000000000000001400000000000000
310
010043006F006D0070004F0062006A0000000000000000000000000000000000
310
0000000000000000000000000000000000000000000000000000000000000000
310
120002010100000003000000FFFFFFFF00000000000000000000000000000000
310
0000000000000000000000000000000000000000010000004D00000000000000
310
01004F006C006500310030004E00610074006900760065000000000000000000
310
0000000000000000000000000000000000000000000000000000000000000000
310
1A000200FFFFFFFFFFFFFFFFFFFFFFFF00000000000000000000000000000000
310
0000000000000000000000000000000000000000040000002426000000000000
310
FEFFFFFF02000000FEFFFFFFFFFFFFFFFFFFFFFFFFFFFFFFFFFFFFFFFFFFFFFF
310
FFFFFFFFFFFFFFFFFFFFFFFFFFFFFFFFFFFFFFFFFFFFFFFFFFFFFFFFFFFFFFFF
310
FFFFFFFFFFFFFFFFFFFFFFFFFFFFFFFFFFFFFFFFFFFFFFFFFFFFFFFFFFFFFFFF
310
FFFFFFFFFFFFFFFFFFFFFFFFFFFFFFFFFFFFFFFFFFFFFFFFFFFFFFFFFFFFFFFF
310
FFFFFFFFFFFFFFFFFFFFFFFFFFFFFFFFFFFFFFFFFFFFFFFFFFFFFFFFFFFFFFFF
310
FFFFFFFFFFFFFFFFFFFFFFFFFFFFFFFFFFFFFFFFFFFFFFFFFFFFFFFFFFFFFFFF
310
FFFFFFFFFFFFFFFFFFFFFFFFFFFFFFFFFFFFFFFFFFFFFFFFFFFFFFFFFFFFFFFF
310
FFFFFFFFFFFFFFFFFFFFFFFFFFFFFFFFFFFFFFFFFFFFFFFFFFFFFFFFFFFFFFFF
310
FFFFFFFFFFFFFFFFFFFFFFFFFFFFFFFFFFFFFFFFFFFFFFFFFFFFFFFFFFFFFFFF
310
FFFFFFFFFFFFFFFFFFFFFFFFFFFFFFFFFFFFFFFFFFFFFFFFFFFFFFFFFFFFFFFF
310
FFFFFFFFFFFFFFFFFFFFFFFFFFFFFFFFFFFFFFFFFFFFFFFFFFFFFFFFFFFFFFFF
310
FFFFFFFFFFFFFFFFFFFFFFFFFFFFFFFFFFFFFFFFFFFFFFFFFFFFFFFFFFFFFFFF
310
FFFFFFFFFFFFFFFFFFFFFFFFFFFFFFFFFFFFFFFFFFFFFFFFFFFFFFFFFFFFFFFF
310
FFFFFFFFFFFFFFFFFFFFFFFFFFFFFFFFFFFFFFFFFFFFFFFFFFFFFFFFFFFFFFFF
310
FFFFFFFFFFFFFFFFFFFFFFFFFFFFFFFFFFFFFFFFFFFFFFFFFFFFFFFFFFFFFFFF
310
FFFFFFFFFFFFFFFFFFFFFFFFFFFFFFFFFFFFFFFFFFFFFFFFFFFFFFFFFFFFFFFF
310
0100000200000000000000000000000000000000000000000000000000000000
310
0000000000000000000000000000000000000000000000000000000000000000
310
0100FEFF030A0000FFFFFFFF0A00030000000000C00000000000004607000000
310
5042727573680007000000504272757368000700000050427275736800F439B2
310
7100000000000000000000000000000000000000000000000000000000000000
310
0000000000000000000000000000000000000000000000000000000000000000
310
0000000000000000000000000000000000000000000000000000000000000000
310
0000000000000000000000000000000000000000000000000000000000000000
310
0000000000000000000000000000000000000000000000000000000000000000
310
0000000000000000000000000000000000000000000000000000000000000000
310
0000000000000000000000000000000000000000000000000000000000000000
310
0000000000000000000000000000000000000000000000000000000000000000
310
0000000000000000000000000000000000000000000000000000000000000000
310
0000000000000000000000000000000000000000000000000000000000000000
310
0000000000000000000000000000000000000000000000000000000000000000
310
0000000000000000000000000000000000000000000000000000000000000000
310
20260000424D0E260000000000003E00000028000000B40200006E0000000100
310
01000000000000000000130B0000130B00000200000002000000000000FFFFFF
310
FFFFFFFFFFFFFFFFFFFFFFFFFFFFFFFFFFFFFFFFFFFFFFFFFFFFFFFFFFFFFFFF
310
FFFFFFFFFFFFFFFFFFFFFFFFFFFFFFFFFFFFFFFFFFFFFFFFFFFFFFFFFFFFFFFF
310
FFFFFFFFFFFFFFFFFFFFFFFFFFFFFFFFFFFFFFFFFFFFFFFFF000FFFFFFFFFFFF
310
FFFFFFFFFFFFFFFFFFFFFFFFFFFFFFFFFFFFFFFFFFFFFFFFFFFFFFFFFFFFFFFF
310
FFFFFFFFFFFFFFFFFFFFFFFFFFFFFFFFFFFFFFFFFFFFFFFFFFFFFFFFFFFFFFFF
310
FFFFFFFFFFFFFFFFFFFFFFFFFFFFFFFFF000FFFFFFFFFFFFFFFFFFFFFFFFFFFF
310
FFFFFFFFFFFFFFFFFFFFFFFFFFFFFFFFFFFFFFFFFFFFFFFFFFFFFFFFFFFFFFFF
310
FFFFFFFFFFFFFFFFFFFFFFFFFFFFFFFFFFFFFFFFFFFFFFFFFFFFFFFFFFFFFFFF
310
FFFFFFFFFFFFFFFFF000FFFFFFFFFFFFFFFFFFFFFFFFFFFFFFFFFFFFFFFFFFFF
310
FFFFFFFFFFFFFFFFFFFFFFFFFFFFFFFFFFFFFFFFFFFFFFFFFFFFFFFFFFFFFFFF
310
FFFFFFFFFFFFFFFFFFFFFFFFFFFFFFFFFFFFFFFFFFFFFFFFFFFFFFFFFFFFFFFF
310
F000FFFFFFFFFFFFFFFFFFFFFFFFFFFFFFFFFFFFFFFFFFFFFFFFFFFFFFFFFFFF
310
FFFFFFFFFFFFFFFFFFFFFFFFFFFFFFFFFFFFFFFFFFFFFFFFFFFFFFFFFFFFFFFF
310
FFFFFFFFFFFFFFFFFFFFFFFFFFFFFFFFFFFFFFFFFFFFFFFFF000FFFFFFFFFFFF
310
FFFFFFFFFFFFFFFFFFFFFFFFFFFFFFFFFFFFFFFFFFFFFFFFFFFFFFFFFFFFFFFF
310
FFFFFFFFFFFFFFFFFFFFFFFFFFFFFFFFFFFFFFFFFFFFFFFFFFFFFFFFFFFFFFFF
310
FFFFFFFFFFFFFFFFFFFFFFFFFFFFFFFFF000FFFFFFFFFFFFFFFFFFFFFFFFFFFF
310
FFFFFFFFFFFFFFFFFFFFFFFFFFFFFFFFFFFFFFFFFFFFFFFFFFFFFFFFFFFFFFFF
310
FFFFFFFFFFFFFFFFFFFFFFFFFFFFFFFFFFFFFFFFFFFFFFFFFFFFFFFFFFFFFFFF
310
FFFFFFFFFFFFFFFFF000FFFFFFFFFFFFFFFFFFFFFFFFFFFFFFFFFFFFFFFFFFFF
310
FFFFFFFFFFFFFFFFFFFFFFFFFFFFFFFFFFFFFFFFFFFFFFFFFFFFFFFFFFFFFFFF
310
FFFFFFFFFFFFFFFFFFFFFFFFFFFFFFFFFFFFFFFFFFFFFFFFFFFFFFFFFFFFFFFF
310
F000FFFFFFFFFFFFFFFFFFFFFFFFFFFFFFFFFFFFFFFFFFFFFFFFFFFFFFFFFFFF
310
FFFFFFFFFFFFFFFFFFFFFFFFFFFFFFFFFFFFFFFFFFFFFFFFFFFFFFFFFFFFFFFF
310
FFFFFFFFFFFFFFFFFFFFFFFFFFFFFFFFFFFFFFFFFFFFFFFFF000FFFFFFFFFFFF
310
FFFFFFFFFFFFFFFFFFFFFFFFFFFFFFFFFFFFFFFFFFFFFFFFFFFFFFFFFFFFFFFF
310
FFFFFFFFFFFFFFFFFFFFFFFFFFFFFFFFFFFFFFFFFFFFFFFFFFFFFFFFFFFFFFFF
310
FFFFFFFFFFFFFFFFFFFFFFFFFFFFFFFFF000FFFFFFFFFFFFFFFFFFFFFFFFFFFF
310
FFFFFFFFFFFFFFFFFFFFFFFFFFFFFFFFFFFFFFFFFFFFFFFFFFFFFFFFFFFFFFFF
310
FFFFFFFFFFFFFFFFFFFFFFFFFFFFFFFFFFFFFFFFFFFFFFFFFFFFFFFFFFFFFFFF
310
FFFFFFFFFFFFFFFFF000FFFFFFFFFFFFFFFFFFFFFFFFFFFFFFFFFFFFFFFFFFFF
310
FFFFFFFFFFFFFFFFFFFFFFFFFFFFFFFFFFFFFFFFFFFFFFFFFFFFFFFFFFFFFFFF
310
FFFFFFFFFFFFFFFFFFFFFFFFFFFFFFFFFFFFFFFFFFFFFFFFFFFFFFFFFFFFFFFF
310
F000FFFFFFFFFFFFFFFFFFFFFFFFFFFFFFFFFFFFFFFFFFFFFFFFFFFFFFFFFFFF
310
FFFFFFFFFFFFFFFFFFFFFFFFFFFFFFFFFFFFFFFFFFFFFFFFFFFFFFFFFFFFFFFF
310
FFFFFFFFFFFFFFFFFFFFFFFFFFFFFFFFFFFFFFFFFFFFFFFFF000FFFFFFFFFFFF
310
FFFFFFFFFFFFFFFFFFFFFFFFFFFFFFFFFFFFFFFFFFFFFFFFFFFFFFFFFFFFFFFF
310
FFFFFFFFFFFFFFFFFFFFFFFFFFFFFFFFFFFFFFFFFFFFFFFFFFFFFFFFFFFFFFFF
310
FFFFFFFFFFFFFFFFFFFFFFFFFFFFFFFFF000FFFFFFFFFFFFFFFFFFFFFFFFFFFF
310
FFFFFFFFFFFFFFFFFFFFFFFFFFFFFFFFFFFFFFFFFFFFFFFFFFFFFFFFFFFFFFFF
310
FFFFFFFFFFFFFFFFFFFFFFFFFFFFFFFFFFFFFFFFFFFFFFFFFFFFFFFFFFFFFFFF
310
FFFFFFFFFFFFFFFFF000FFFFFFFFFFFFFFFFFFFFFFFFFFFFFFFFFFFFFFFFFFFF
310
FFFFFFFFFFFFFFFFFFFFFFFFFFFFFFFFFFFFFFFFFFFFFFFFFFFFFFFFFFFFFFFF
310
FFFFFFFFFFFFFFFFFFFFFFFFFFFFFFFFFFFFFFFFFFFFFFFFFFFFFFFFFFFFFFFF
310
F000FFFFFFFFFFFFFFFFFFFFFFFFFFFFFFFFFFFFFFFFFFFFFFFFFFFFFFFFFFFF
310
FFFFFFFFFFFFFFFFFFFFFFFFFFFFFFFFFFFFFFFFFFFFFFFFFFFFFFFFFFFFFFFF
310
FFFFFFFFFFFFFFFFFFFFFFFFFFFFFFFFFFFFFFFFFFFFFFFFF000FFFFFFFFFFFF
310
FFFFFFFFFFFFFFFFFFFFFFFFFFFFFFFFFFFFFFFFFFFFFFFFFFFFFFFFFFFFFFFF
310
FFFFFFFFFFFFFFFFFFFFFFFFFFFFFFFFFFFFFFFFFFFFFFFFFFFFFFFFFFFFFFFF
310
FFFFFFFFFFFFFFFFFFFFFFFFFFFFFFFFF000FFFFFFFFFFFFFFFFFFFFFFFFFFFF
310
FFFFFFFFFFFFFFFFFFFFFFFFFFFFFFFFFFFFFFFFFFFFFFFFFFFFFFFFFFFFFFFF
310
FFFFFFFFFFFFFFFFFFFFFFFFFFFFFFFFFFFFFFFFFFFFFFFFFFFFFFFFFFFFFFFF
310
FFFFFFFFFFFFFFFFF000FFFFF80003FFFFFFFFFFFFFFFFFFFFFFFFFFFFFFFFFF
310
FFFFF00007FFFFFFFFFF00007FFFFFF800000000000000007FFFFFFFFFFFFFFF
310
FFFFFFFC001FFFFFFFFFFFFFFC001FFFFFFFFFFFFFFFFFFFFFFFFFFE0007FFFF
310
F000FFFF8000007FFFFFFFF8000FFFFFC0007FFFFF80007FFFFF0000007FFFFF
310
FFF8000007FFFFF800000000000000007FFFFFF0001FFFFFFFFFFFC00001FFFF
310
FFFFFFFFC00001FFFFFFFF000000000003FFFFE000007FFFF000FFFE0000000F
310
FFFFFFF0000FFFFF80007FFFFF80007FFFFC0000001FFFFFFFC0000001FFFFF8
310
00000000000000007FFFFFF0001FFFFFFFFFFE0000003FFFFFFFFFFE0000003F
310
FFFFFF000000000003FFFF0000000FFFF000FFF800000003FFFFFFF00007FFFF
310
80007FFFFF80007FFFF000000007FFFFFF000000003FFFF80000000000000000
310
7FFFFFF0001FFFFFFFFFF80000000FFFFFFFFFF80000000FFFFFFF0000000000
310
03FFFC00000003FFF000FFE000000000FFFFFFF00007FFFF80003FFFFF80007F
310
FFC000000001FFFFFC000000001FFFF800000000000000007FFFFFF0001FFFFF
310
FFFFE000000003FFFFFFFFE000000003FFFFFF000000000003FFF000000000FF
310
F000FF80000000007FFFFFF00007FFFF80003FFFFF80007FFF8000000000FFFF
310
F80000000007FFF800000000000000007FFFFFF0001FFFFFFFFFC000000001FF
310
FFFFFFC000000001FFFFFF000000000003FFC0000000007FF000FF0000000000
310
3FFFFFE00007FFFF00003FFFFF80007FFE00000000003FFFF00000000003FFF8
310
00000000000000007FFFFFF0001FFFFFFFFF8000000000FFFFFFFF8000000000
310
FFFFFF000000000003FF80000000003FF000FE00000000001FFFFFE00003FFFF
310
00003FFFFF80007FFC00000000001FFFE00000000001FFF8000001FFFE000000
310
7FFFFFF0001FFFFFFFFE00000000003FFFFFFE00000000003FFFFF0000000000
310
03FF00000000001FF000FC00000000000FFFFFE00003FFFF00001FFFFF80007F
310
F800000000001FFFC00000000000FFF8000001FFFE0000007FFFFFF0001FFFFF
310
FFFC00000000001FFFFFFC00000000001FFFFF000000000003FE00000000000F
310
F000F8000000000007FFFFE00003FFFF00001FFFFF80007FF800000000000FFF
310
800000000000FFF8000001FFFE0000007FFFFFF0001FFFFFFFF800000000000F
310
FFFFF800000000000FFFFF000000000003FC000000000007F000F80000000000
310
03FFFFC00003FFFE00001FFFFF80007FF0000000000007FF0000000000007FF8
310
000001FFFE0000007FFFFFF0001FFFFFFFF0000000000007FFFFF00000000000
310
07FFFF000000000003F8000000000003F000F0000000000003FFFFC00001FFFE
310
00001FFFFF80007FE0000000000007FE0000000000003FF8000001FFFE000000
310
7FFFFFF0001FFFFFFFF0000000000007FFFFF0000000000007FFFF0000000000
310
03F800001F800003F000E00001FFF00001FFFFC00001FFFE00000FFFFF80007F
310
E00001FFE00003FE00001FFF00003FF8000001FFFE0000007FFFFFF0001FFFFF
310
FFE000003E000003FFFFE000003E000003FFFF000000000003F00001FFF80001
310
F000E00007FFFC0001FFFFC00001FFFE00000FFFFF80007FC0000FFFFC0003FC
310
0000FFFFC0001FF8000001FFFE0000007FFFFFF0001FFFFFFFC00003FFE00001
310
FFFFC00003FFE00001FFFF0001FFFFFFFFF00007FFFE0001F000E0000FFFFF00
310
00FFFF800001FFFC00000FFFFF80007FC0001FFFFE0001FC0001FFFFE0001FF8
310
000001FFFE0000007FFFFFF0001FFFFFFF80000FFFF80000FFFF80000FFFF800
310
00FFFF0003FFFFFFFFE0000FFFFF8000F000C0003FFFFF8000FFFF800000FFFC
310
000007FFFF80007F80003FFFFF0001FC0003FFFFF0001FF8000001FFFE000000
310
7FFFFFF0001FFFFFFF80003FFFFE0000FFFF80003FFFFE0000FFFF0003FFFFFF
310
FFE0003FFFFF8000F000C0003FFFFF8000FFFF800000FFFC000007FFFF80007F
310
80007FFFFF8001F80007FFFFF8000FF8000001FFFE0000007FFFFFF0001FFFFF
310
FF00007FFFFF00007FFF00007FFFFF00007FFF0003FFFFFFFFE0003FFFFFC000
310
F000C0007FFFFFC000FFFF000000FFFC000007FFFF80007F8000FFFFFF8000F8
310
000FFFFFF8000FF8000001FFFE0000007FFFFFF0001FFFFFFF0000FFFFFF8000
310
7FFF0000FFFFFF80007FFF0003FFFFFFFFC0007FFFFFC00070008000FFFFFFC0
310
00FFFF000000FFF8000007FFFF80007F8000FFFFFF8000F8000FFFFFF8000FF8
310
000001FFFE0000007FFFFFF0001FFFFFFE0001FFFFFFC0003FFE0001FFFFFFC0
310
003FFF0003FFFFFFFFC0007FFFFFE00070008000FFFFFFC0007FFF0000007FF8
310
000003FFFF80007F0001FFFFFF8000F8000FFFFFF8000FF8000001FFFE000000
310
7FFFFFF0001FFFFFFE0001FFFFFFC0003FFE0001FFFFFFC0003FFF0003FFFFFF
310
FFC000FFFFFFE00070008000FFFFFFC0007FFF0000007FF8000003FFFF80007F
310
0001FFFFFF8000F8001FFFFFF8000FF8000001FFFE0000007FFFFFF0001FFFFF
310
FE0003FFFFFFE0003FFE0003FFFFFFE0003FFF0003FFFFFFFFC000FFFFFFE000
310
70008000FFFFFFC0007FFE0000007FF8000003FFFF80007F0001FFFFFF8000F0
310
001FFFFFF8000FF8000001FFFE0000007FFFFFF0001FFFFFFC0003FFFFFFE000
310
1FFC0003FFFFFFE0001FFF0003FFFFFFFFC000FFFFFFC00070008000FFFFFF80
310
007FFE0000007FF0000003FFFF80007F0001FFFFFF0000F0001FFFFFF8000FF8
310
000001FFFE0000007FFFFFF0001FFFFFFC0007FFFFFFF0001FFC0007FFFFFFF0
310
001FFF0003FFFFFFFFC000FFFFFFC00070008001FFFFFF0000FFFE0000003FF0
310
000001FFFF80007F0001FFFFFF0000F8001FFFFFF0000FF8000001FFFE000000
310
7FFFFFF0001FFFFFFC0007FFFFFFF0001FFC0007FFFFFFF0001FFF0003FFFFFF
310
FFC001FFFFFF80007000FFFFFFFFFE0000FFFE0008003FF0008001FFFF80007F
310
FFFFFFFFFC0000FFFFFFFFFFE0000FF8000001FFFE0000007FFFFFF0001FFFFF
310
F8000FFFFFFFF8000FF8000FFFFFFFF8000FFF0003FFFFFFFFFFFFFFFFFF0000
310
7000FFFFFFFFFC0000FFFC0008003FF0008001FFFF80007FFFFFFFFFF80001FF
310
FFFFFFFF80000FF8000001FFFE0000007FFFFFF0001FFFFFF8000FFFFFFFF800
310
0FF8000FFFFFFFF8000FFF0003FFFFFFFFFFFFFFFFFE0000F000FFFFFFFFE000
310
00FFFC000C003FE000C001FFFF80007FFFFFFFFFC00001FFFFFFFFFE00001FF8
310
000001FFFE0000007FFFFFF0001FFFFFF8000FFFFFFFF8000FF8000FFFFFFFF8
310
000FFF0003FFFFFFFFFFFFFFFFF00000F000FFFFFFFE000001FFFC000C001FE0
310
00C000FFFF80007FFFFFFFFE000001FFFFFFFFE000001FF80FFFFFFFFFFFFFC0
310
7FFFFFF0001FFFFFF8000FFFFFFFF8000FF8000FFFFFFFF8000FFF0003FFFFFF
310
FFFFFFFFFF800000F000FFFFFFC0000001FFFC001C001FE001C000FFFF80007F
310
FFFFFF80000003FFFFFFF80000001FF80FFFFFFFFFFFFFC07FFFFFF0001FFFFF
310
F8001FFFFFFFFC000FF8001FFFFFFFFC000FFF0003FFFFFFFFFFFFFFF0000001
310
F000FFFFF800000001FFF8001C001FE001C000FFFF80007FFFFFF800000003FF
310
FFFF800000003FF80FFFFFFFFFFFFFC07FFFFFF0001FFFFFF8001FFFFFFFFC00
310
0FF8001FFFFFFFFC000FFF0003FFFFFFFFFFFFFE00000001F000FFFFC0000000
310
03FFF8001E001FC001E000FFFF80007FFFFF8000000007FFFFFC000000003FF8
310
0FFFFFFFFFFFFFC07FFFFFF0001FFFFFF8001FFFFFFFFC000FF8001FFFFFFFFC
310
000FFF0003FFFFFFFFFFFFE000000003F000FFFE0000000007FFF8001E000FC0
310
01E0007FFF80007FFFFE0000000007FFFFE0000000007FF80FFFFFFFFFFFFFC0
310
7FFFFFF0001FFFFFF0001FFFFFFFFC0007F0001FFFFFFFFC0007FF0003FFFFFF
310
FFFFFF0000000003F000FFF80000000007FFF8001E000FC003E0007FFF80007F
310
FFF0000000000FFFFF8000000000FFF80FFFFFFFFFFFFFC07FFFFFF0001FFFFF
310
F0001FFFFFFFFC0007F0001FFFFFFFFC0007FF0003FFFFFFFFFFFC0000000007
310
F000FFE0000000000FFFF0003E000FC003E0007FFF80007FFFC0000000001FFF
310
FE0000000001FFF80FFFFFFFFFFFFFC07FFFFFF0001FFFFFF0001FFFFFFFFC00
310
07F0001FFFFFFFFC0007FF0003FFFFFFFFFFF0000000000FF000FFC000000000
310
1FFFF0003F000F8003F0003FFF80007FFF80000000003FFFF80000000003FFF8
310
0FFFFFFFFFFFFFC07FFFFFF0001FFFFFF0001FFFFFFFFC0007F0001FFFFFFFFC
310
0007FF0003FFFFFFFFFFE0000000001FF000FF00000000007FFFF0003F000780
310
03F0003FFF80007FFF00000000007FFFF00000000007FFF80FFFFFFFFFFFFFC0
310
7FFFFFF0001FFFFFF0001FFFFFFFFC0007F0001FFFFFFFFC0007FF0003FFFFFF
310
FFFF80000000007FF000FE0000000000FFFFE0003F00078007F0003FFF80007F
310
FE0000000001FFFFE0000000001FFFF80FFFFFFFFFFFFFC07FFFFFF0001FFFFF
310
F0001FFFFFFFFC0007F0001FFFFFFFFC0007FF0003FFFFFFFFFF0000000000FF
310
F000FC0000000003FFFFE0007F00078007F0003FFF80007FFC0000000007FFFF
310
C0000000007FFFF80FFFFFFFFFFFFFC07FFFFFF0001FFFFFF8001FFFFFFFFC00
310
0FF8001FFFFFFFFC000FFF0003FFFFFFFFFE0000000003FFF000FC000000000F
310
FFFFE0007F80070007F8001FFF80007FF8000000001FFFFF8000000001FFFFF8
310
0FFFFFFFFFFFFFC07FFFFFF0001FFFFFF8001FFFFFFFFC000FF8001FFFFFFFFC
310
000FFF0003FFFFFFFFFC000000000FFFF000F8000000007FFFFFE0007F800700
310
07F8001FFF80007FF000000000FFFFFF800000000FFFFFF80FFFFFFFFFFFFFC0
310
7FFFFFF0001FFFFFF8000FFFFFFFF8000FF8000FFFFFFFF8000FFF0003FFFFFF
310
FFFC000000007FFFF000F800000007FFFFFFC0007F8003000FF8001FFF80007F
310
F000000007FFFFFF000000007FFFFFF80FFFFFFFFFFFFFC07FFFFFF0001FFFFF
310
F8000FFFFFFFF8000FF8000FFFFFFFF8000FFF0003FFFFFFFFF80000000FFFFF
310
F000F0000000FFFFFFFFC000FF8003000FF8001FFF80007FE0000000FFFFFFFF
310
0000000FFFFFFFF8000001FFFE0000007FFFFFF0001FFFFFF8000FFFFFFFF800
310
0FF8000FFFFFFFF8000FFF0003FFFFFFFFF8000000FFFFFFF000F000000FFFFF
310
FFFFC000FFC002000FF8000FFF80007FE000001FFFFFFFFE000001FFFFFFFFF8
310
000001FFFE0000007FFFFFF0001FFFFFF8000FFFFFFFF8000FF8000FFFFFFFF8
310
000FFF0003FFFFFFFFF000001FFFFFFFF000E00000FFFFFFFFFFC000FFC00200
310
0FFC000FFF80007FE00001FFFFFFFFFE00001FFFFFFFFFF8000001FFFE000000
310
7FFFFFF0001FFFFFFC000FFFFFFFF8001FFC000FFFFFFFF8001FFF0003FFFFFF
310
FFF00001FFFFFFFFF000E00007FFFFFFFFFF8000FFC000001FFC000FFF80007F
310
C0000FFFFFFFFFFE0000FFFFFFFFFFF8000001FFFE0000007FFFFFF0001FFFFF
310
FC0007FFFFFFF0001FFC0007FFFFFFF0001FFF0003FFFFFFFFF00007FFFFFFFF
310
F000E0001FFFFFFFFFFF8000FFC000001FFC000FFF80007FC0003FFFFFFFFFFE
310
0001FFFFFFFFFFF8000001FFFE0000007FFFFFF0001FFFFFFC0007FFFFFFF000
310
1FFC0007FFFFFFF0001FFF0003FFFFFFFFF0001FFFFFFFFFF000E0003FFFFF00
310
03FF8001FFE000001FFC0007FF80007FC0007FFFFF0007FC0003FFFFF0003FF8
310
000001FFFE0000007FFFFFF0001FFFFFFC0003FFFFFFE0001FFC0003FFFFFFE0
310
001FFF0003FFFFFFFFF0003FFFFFFFFFF000E0003FFFFF0001FF8001FFE00000
310
1FFE0007FF80007FC0007FFFFE0003FC0007FFFFE0003FF8000001FFFE000000
310
7FFFFFF0001FFFFFFE0003FFFFFFE0003FFE0003FFFFFFE0003FFF0003FFFFFF
310
FFF0003FFFFF8001F000E0003FFFFF0001FF0001FFE000001FFE0007FF80007F
310
C0007FFFFE0003FC0007FFFFE0003FF8000001FFFE0000007FFFFFF0001FFFFF
310
FE0001FFFFFFC0003FFE0001FFFFFFC0003FFF0003FFFFFFFFF0003FFFFF0001
310
F000E0003FFFFF0003FF0001FFE000003FFE0007FF80007FC0007FFFFE0003FC
310
0007FFFFE0003FF8000001FFFE0000007FFFFFF0001FFFFFFF0001FFFFFFC000
310
7FFF0001FFFFFFC0007FFF0003FFFFFFFFF0003FFFFF0001F000E0003FFFFE00
310
03FF0003FFF000003FFE0003FF80007FC0007FFFFC0003FE0007FFFFE0003FF8
310
000001FFFE0000007FFFFFF0001FFFFFFF0000FFFFFF80007FFF0000FFFFFF80
310
007FFF0003FFFFFFFFF0003FFFFF0001F000E0003FFFFE0003FF0003FFF00000
310
3FFF0003FF80007FC0007FFFFC0007FE0007FFFFC0003FF8000001FFFE000000
310
7FFFFFF0001FFFFFFF80007FFFFF0000FFFF80007FFFFF0000FFFF0003FFFFFF
310
FFF0003FFFFF0003F000E0003FFFFC0003FE0003FFF000003FFF0003FF80007F
310
E0003FFFF80007FE0003FFFFC0007FF8000001FFFE0000007FFFFFF0001FFFFF
310
FF80003FFFFE0000FFFF80003FFFFE0000FFFF0003FFFFFFFFF0001FFFFE0003
310
F000F0001FFFF80003FE0003FFF000007FFF0001FF80007FE0003FFFF00007FE
310
0001FFFF80007FF8000001FFFE0000007FFFFFF0001FFFFFFFC0000FFFF80001
310
FFFFC0000FFFF80001FFFF0003FFFFFFFFF0001FFFFC0003F000F0000FFFF000
310
07FE0007FFF800007FFF0001FF80007FE0001FFFE00007FF0000FFFE00007FF8
310
000001FFFE0000007FFFFFF0001FFFFFFFC00003FFE00001FFFFC00003FFE000
310
01FFFF0003FFFFFFFFF8000FFFF80003F000F00003FFC00007FC0007FFF80000
310
7FFF8001FF80007FF00007FF80000FFF00007FF80000FFF8000001FFFE000000
310
7F80000000000001FFE000003E000003FFFFE000003E000003FFFF0003FFFFFF
310
FFF80003FFE00007F000F800000000000FFC0007FFF800007FFF8001FF80007F
310
F000000000000FFF000000000000FFF8000001FFFE0000007F80000000000001
310
FFF0000000000007FFFFF0000000000007FFFF0003FFFFFFFFFC00007E000007
310
F000F800000000000FFC0007FFF80000FFFF8000FF80007FF800000000001FFF
310
800000000001FFF8000001FFFE0000007F80000000000001FFF800000000000F
310
FFFFF800000000000FFFFF0003FFFFFFFFFC00000000000FF000FC0000000000
310
1FFC0007FFFC0000FFFF8000FF80007FF800000000003FFFC00000000001FFF8
310
000001FFFE0000007F80000000000001FFF800000000000FFFFFF80000000000
310
0FFFFF0003FFFFFFFFFE00000000001FF000FE00000000003FF8000FFFFC0000
310
FFFF8000FF80007FFC00000000003FFFC00000000003FFF8000001FFFE000000
310
7F80000000000001FFFC00000000001FFFFFFC00000000001FFFFF0003FFFFFF
310
FFFF00000000001FF000FF00000000003FF8000FFFFC0000FFFFC000FF80007F
310
FE00000000007FFFE00000000007FFF8000001FFFE0000007F80000000000001
310
FFFE00000000003FFFFFFE00000000003FFFFF0003FFFFFFFFFF80000000003F
310
F000FF80000000007FF8000FFFFC0001FFFFC0007F80007FFF0000000000FFFF
310
F0000000000FFFF800000000000000007F80000000000001FFFF8000000000FF
310
FFFFFF8000000000FFFFFF0003FFFFFFFFFFC0000000007FF000FFC000000000
310
FFF8000FFFFE0001FFFFC0007F80007FFF8000000001FFFFF8000000001FFFF8
310
00000000000000007F80000000000001FFFFC000000001FFFFFFFFC000000001
310
FFFFFF0003FFFFFFFFFFE000000000FFF000FFE000000003FFF0001FFFFE0001
310
FFFFC0007F80007FFFC000000007FFFFFE000000003FFFF80000000000000000
310
7F80000000000001FFFFE000000003FFFFFFFFE000000003FFFFFF0003FFFFFF
310
FFFFF000000003FFF000FFF80000000FFFF0001FFFFE0001FFFFE0007F80007F
310
FFF00000000FFFFFFF00000000FFFFF800000000000000007F80000000000001
310
FFFFF80000000FFFFFFFFFF80000000FFFFFFF0003FFFFFFFFFFFC0000000FFF
310
F000FFFE0000003FFFF0001FFFFE0003FFFFE0003F80007FFFFC0000003FFFFF
310
FFC0000003FFFFF800000000000000007F80000000000001FFFFFE0000003FFF
310
FFFFFFFE0000003FFFFFFF0003FFFFFFFFFFFF0000003FFFF000FFFF800000FF
310
FFF0001FFFFF0003FFFFE0003F80007FFFFF000001FFFFFFFFF800001FFFFFF8
310
00000000000000007F80000000000001FFFFFFC00001FFFFFFFFFFFFC00001FF
310
FFFFFF0003FFFFFFFFFFFFC00000FFFFF000FFFFF8000FFFFFFFFFFFFFFFFFFF
310
FFFFFFFFFFFFFFFFFFFFF0001FFFFFFFFFFF0000FFFFFFF80000000000000000
310
7FFFFFFFFFFFFFFFFFFFFFFC001FFFFFFFFFFFFFFC001FFFFFFFFFFFFFFFFFFF
310
FFFFFFFC001FFFFFF000FFFFFFFFFFFFFFFFFFFFFFFFFFFFFFFFFFFFFFFFFFFF
310
FFFFFFFFFFFFFFFFFFFFFFFFFFFFFFFFFFFFFFFFFFFFFFFFFFFFFFFFFFFFFFFF
310
FFFFFFFFFFFFFFFFFFFFFFFFFFFFFFFFFFFFFFFFFFFFFFFFFFFFFFFFFFFFFFFF
310
F000FFFFFFFFFFFFFFFFFFFFFFFFFFFFFFFFFFFFFFFFFFFFFFFFFFFFFFFFFFFF
310
FFFFFFFFFFFFFFFFFFFFFFFFFFFFFFFFFFFFFFFFFFFFFFFFFFFFFFFFFFFFFFFF
310
FFFFFFFFFFFFFFFFFFFFFFFFFFFFFFFFFFFFFFFFFFFFFFFFF000FFFFFFFFFFFF
310
FFFFFFFFFFFFFFFFFFFFFFFFFFFFFFFFFFFFFFFFFFFFFFFFFFFFFFFFFFFFFFFF
310
FFFFFFFFFFFFFFFFFFFFFFFFFFFFFFFFFFFFFFFFFFFFFFFFFFFFFFFFFFFFFFFF
310
FFFFFFFFFFFFFFFFFFFFFFFFFFFFFFFFF000FFFFFFFFFFFFFFFFFFFFFFFFFFFF
310
FFFFFFFFFFFFFFFFFFFFFFFFFFFFFFFFFFFFFFFFFFFFFFFFFFFFFFFFFFFFFFFF
310
FFFFFFFFFFFFFFFFFFFFFFFFFFFFFFFFFFFFFFFFFFFFFFFFFFFFFFFFFFFFFFFF
310
FFFFFFFFFFFFFFFFF000FFFFFFFFFFFFFFFFFFFFFFFFFFFFFFFFFFFFFFFFFFFF
310
FFFFFFFFFFFFFFFFFFFFFFFFFFFFFFFFFFFFFFFFFFFFFFFFFFFFFFFFFFFFFFFF
310
FFFFFFFFFFFFFFFFFFFFFFFFFFFFFFFFFFFFFFFFFFFFFFFFFFFFFFFFFFFFFFFF
310
F000FFFFFFFFFFFFFFFFFFFFFFFFFFFFFFFFFFFFFFFFFFFFFFFFFFFFFFFFFFFF
310
FFFFFFFFFFFFFFFFFFFFFFFFFFFFFFFFFFFFFFFFFFFFFFFFFFFFFFFFFFFFFFFF
310
FFFFFFFFFFFFFFFFFFFFFFFFFFFFFFFFFFFFFFFFFFFFFFFFF000FFFFFFFFFFFF
310
FFFFFFFFFFFFFFFFFFFFFFFFFFFFFFFFFFFFFFFFFFFFFFFFFFFFFFFFFFFFFFFF
310
FFFFFFFFFFFFFFFFFFFFFFFFFFFFFFFFFFFFFFFFFFFFFFFFFFFFFFFFFFFFFFFF
310
FFFFFFFFFFFFFFFFFFFFFFFFFFFFFFFFF000FFFFFFFFFFFFFFFFFFFFFFFFFFFF
310
FFFFFFFFFFFFFFFFFFFFFFFFFFFFFFFFFFFFFFFFFFFFFFFFFFFFFFFFFFFFFFFF
310
FFFFFFFFFFFFFFFFFFFFFFFFFFFFFFFFFFFFFFFFFFFFFFFFFFFFFFFFFFFFFFFF
310
FFFFFFFFFFFFFFFFF000FFFFFFFFFFFFFFFFFFFFFFFFFFFFFFFFFFFFFFFFFFFF
310
FFFFFFFFFFFFFFFFFFFFFFFFFFFFFFFFFFFFFFFFFFFFFFFFFFFFFFFFFFFFFFFF
310
FFFFFFFFFFFFFFFFFFFFFFFFFFFFFFFFFFFFFFFFFFFFFFFFFFFFFFFFFFFFFFFF
310
F000FFFFFFFFFFFFFFFFFFFFFFFFFFFFFFFFFFFFFFFFFFFFFFFFFFFFFFFFFFFF
310
FFFFFFFFFFFFFFFFFFFFFFFFFFFFFFFFFFFFFFFFFFFFFFFFFFFFFFFFFFFFFFFF
310
FFFFFFFFFFFFFFFFFFFFFFFFFFFFFFFFFFFFFFFFFFFFFFFFF000FFFFFFFFFFFF
310
FFFFFFFFFFFFFFFFFFFFFFFFFFFFFFFFFFFFFFFFFFFFFFFFFFFFFFFFFFFFFFFF
310
FFFFFFFFFFFFFFFFFFFFFFFFFFFFFFFFFFFFFFFFFFFFFFFFFFFFFFFFFFFFFFFF
310
FFFFFFFFFFFFFFFFFFFFFFFFFFFFFFFFF000FFFFFFFFFFFFFFFFFFFFFFFFFFFF
310
FFFFFFFFFFFFFFFFFFFFFFFFFFFFFFFFFFFFFFFFFFFFFFFFFFFFFFFFFFFFFFFF
310
FFFFFFFFFFFFFFFFFFFFFFFFFFFFFFFFFFFFFFFFFFFFFFFFFFFFFFFFFFFFFFFF
310
FFFFFFFFFFFFFFFFF000FFFFFFFFFFFFFFFFFFFFFFFFFFFFFFFFFFFFFFFFFFFF
310
FFFFFFFFFFFFFFFFFFFFFFFFFFFFFFFFFFFFFFFFFFFFFFFFFFFFFFFFFFFFFFFF
310
FFFFFFFFFFFFFFFFFFFFFFFFFFFFFFFFFFFFFFFFFFFFFFFFFFFFFFFFFFFFFFFF
310
F000FFFFFFFFFFFFFFFFFFFFFFFFFFFFFFFFFFFFFFFFFFFFFFFFFFFFFFFFFFFF
310
FFFFFFFFFFFFFFFFFFFFFFFFFFFFFFFFFFFFFFFFFFFFFFFFFFFFFFFFFFFFFFFF
310
FFFFFFFFFFFFFFFFFFFFFFFFFFFFFFFFFFFFFFFFFFFFFFFFF000FFFFFFFFFFFF
310
FFFFFFFFFFFFFFFFFFFFFFFFFFFFFFFFFFFFFFFFFFFFFFFFFFFFFFFFFFFFFFFF
310
FFFFFFFFFFFFFFFFFFFFFFFFFFFFFFFFFFFFFFFFFFFFFFFFFFFFFFFFFFFFFFFF
310
FFFFFFFFFFFFFFFFFFFFFFFFFFFFFFFFF000FFFFFFFFFFFFFFFFFFFFFFFFFFFF
310
FFFFFFFFFFFFFFFFFFFFFFFFFFFFFFFFFFFFFFFFFFFFFFFFFFFFFFFFFFFFFFFF
310
FFFFFFFFFFFFFFFFFFFFFFFFFFFFFFFFFFFFFFFFFFFFFFFFFFFFFFFFFFFFFFFF
310
FFFFFFFFFFFFFFFFF000FFFFFFFFFFFFFFFFFFFFFFFFFFFFFFFFFFFFFFFFFFFF
310
FFFFFFFFFFFFFFFFFFFFFFFFFFFFFFFFFFFFFFFFFFFFFFFFFFFFFFFFFFFFFFFF
310
FFFFFFFFFFFFFFFFFFFFFFFFFFFFFFFFFFFFFFFFFFFFFFFFFFFFFFFFFFFFFFFF
310
F000FFFFFFFFFFFFFFFFFFFFFFFFFFFFFFFFFFFFFFFFFFFFFFFFFFFFFFFFFFFF
310
FFFFFFFFFFFFFFFFFFFFFFFFFFFFFFFFFFFFFFFFFFFFFFFFFFFFFFFFFFFFFFFF
310
FFFFFFFFFFFFFFFFFFFFFFFFFFFFFFFFFFFFFFFFFFFFFFFFF000FFFFFFFFFFFF
310
FFFFFFFFFFFFFFFFFFFFFFFFFFFFFFFFFFFFFFFFFFFFFFFFFFFFFFFFFFFFFFFF
310
FFFFFFFFFFFFFFFFFFFFFFFFFFFFFFFFFFFFFFFFFFFFFFFFFFFFFFFFFFFFFFFF
310
FFFFFFFFFFFFFFFFFFFFFFFFFFFFFFFFF000FFFFFFFFFFFFFFFFFFFFFFFFFFFF
310
FFFFFFFFFFFFFFFFFFFFFFFFFFFFFFFFFFFFFFFFFFFFFFFFFFFFFFFFFFFFFFFF
310
FFFFFFFFFFFFFFFFFFFFFFFFFFFFFFFFFFFFFFFFFFFFFFFFFFFFFFFFFFFFFFFF
310
FFFFFFFFFFFFFFFFF000FFFFFFFFFFFFFFFFFFFFFFFFFFFFFFFFFFFFFFFFFFFF
310
FFFFFFFFFFFFFFFFFFFFFFFFFFFFFFFFFFFFFFFFFFFFFFFFFFFFFFFFFFFFFFFF
310
FFFFFFFFFFFFFFFFFFFFFFFFFFFFFFFFFFFFFFFFFFFFFFFFFFFFFFFFFFFFFFFF
310
F000FFFFFFFFFFFFFFFFFFFFFFFFFFFFFFFFFFFFFFFFFFFFFFFFFFFFFFFFFFFF
310
FFFFFFFFFFFFFFFFFFFFFFFFFFFFFFFFFFFFFFFFFFFFFFFFFFFFFFFFFFFFFFFF
310
FFFFFFFFFFFFFFFFFFFFFFFFFFFFFFFFFFFFFFFFFFFFFFFFF000FFFFFFFFFFFF
310
FFFFFFFFFFFFFFFFFFFFFFFFFFFFFFFFFFFFFFFFFFFFFFFFFFFFFFFFFFFFFFFF
310
FFFFFFFFFFFFFFFFFFFFFFFFFFFFFFFFFFFFFFFFFFFFFFFFFFFFFFFFFFFFFFFF
310
FFFFFFFFFFFFFFFFFFFFFFFFFFFFFFFFF0000000000000000000000000000000
310
0000000000000000000000000000000000000000000000000000000000000000
310
0000000000000000000000000000000000000000000000000000000000000000
310
0000000000000000000000000000000000000000000000000000000000000000
310
0000000000000000000000000000000000000000000000000000000000000000
310
0000000000000000000000000000000000000000000000000000000000000000
310
0000000000000000000000000000000000000000000000000000000000000000
310
0000000000000000000000000000000000000000000000000000000000000000
310
0000000000000000000000000000000000000000000000000000000000000000
310
0000000000000000000000000000000000000000000000000000000000000000
310
0000000000000000000000000000000000000000000000000000000000000000
310
0000000000000000000000000000000000000000000000000000000000000000
310
0000000000000000000000000000000000000000000000000000000000000000
310
0000000000000000000000000000000000000000000000000000000000000000
310
0000000000000000000000000000000000000000000000000000000000000000
310
0000000000000000000000000000000000000000000000000000000000000000
  1
OLE
  0
ENDSEC
  0
SECTION
  2
OBJECTS
  0
DICTIONARY
  5
C
330
0
100
AcDbDictionary
281
     1
  3
ACAD_GROUP
350
D
  3
ACAD_LAYOUT
350
1A
  3
ACAD_MLINESTYLE
350
17
  3
ACAD_PLOTSETTINGS
350
19
  3
ACAD_PLOTSTYLENAME
350
E
  0
DICTIONARY
  5
D
102
{ACAD_REACTORS
330
C
102
}
330
C
100
AcDbDictionary
281
     1
  0
DICTIONARY
  5
1A
102
{ACAD_REACTORS
330
C
102
}
330
C
100
AcDbDictionary
281
     1
  3
Layout1
350
1E
  3
Layout2
350
26
  3
Model
350
22
  0
DICTIONARY
  5
17
102
{ACAD_REACTORS
330
C
102
}
330
C
100
AcDbDictionary
281
     1
  3
Standard
350
18
  0
DICTIONARY
  5
19
102
{ACAD_REACTORS
330
C
102
}
330
C
100
AcDbDictionary
281
     1
  0
ACDBDICTIONARYWDFLT
  5
E
102
{ACAD_REACTORS
330
C
102
}
330
C
100
AcDbDictionary
281
     1
  3
Normal
350
F
100
AcDbDictionaryWithDefault
340
F
  0
LAYOUT
  5
1E
102
{ACAD_REACTORS
330
1A
102
}
330
1A
100
AcDbPlotSettings
  1

  2
none_device
  4

  6

 40
0.0
 41
0.0
 42
0.0
 43
0.0
 44
0.0
 45
0.0
 46
0.0
 47
0.0
 48
0.0
 49
0.0
140
0.0
141
0.0
142
1.0
143
1.0
 70
   688
 72
     0
 73
     0
 74
     5
  7

 75
    16
147
1.0
148
0.0
149
0.0
100
AcDbLayout
  1
Layout1
 70
     1
 71
     1
 10
0.0
 20
0.0
 11
420.0
 21
297.0
 12
0.0
 22
0.0
 32
0.0
 14
1.0000000000E+20
 24
1.0000000000E+20
 34
1.0000000000E+20
 15
-1.0000000000E+20
 25
-1.0000000000E+20
 35
-1.0000000000E+20
146
0.0
 13
0.0
 23
0.0
 33
0.0
 16
1.0
 26
0.0
 36
0.0
 17
0.0
 27
1.0
 37
0.0
 76
     0
330
1B
  0
LAYOUT
  5
26
102
{ACAD_REACTORS
330
1A
102
}
330
1A
100
AcDbPlotSettings
  1

  2
none_device
  4

  6

 40
0.0
 41
0.0
 42
0.0
 43
0.0
 44
0.0
 45
0.0
 46
0.0
 47
0.0
 48
0.0
 49
0.0
140
0.0
141
0.0
142
1.0
143
1.0
 70
   688
 72
     0
 73
     0
 74
     5
  7

 75
    16
147
1.0
148
0.0
149
0.0
100
AcDbLayout
  1
Layout2
 70
     1
 71
     2
 10
0.0
 20
0.0
 11
0.0
 21
0.0
 12
0.0
 22
0.0
 32
0.0
 14
0.0
 24
0.0
 34
0.0
 15
0.0
 25
0.0
 35
0.0
146
0.0
 13
0.0
 23
0.0
 33
0.0
 16
1.0
 26
0.0
 36
0.0
 17
0.0
 27
1.0
 37
0.0
 76
     0
330
23
  0
LAYOUT
  5
22
102
{ACAD_REACTORS
330
1A
102
}
330
1A
100
AcDbPlotSettings
  1

  2
none_device
  4

  6

 40
0.0
 41
0.0
 42
0.0
 43
0.0
 44
0.0
 45
0.0
 46
0.0
 47
0.0
 48
0.0
 49
0.0
140
0.0
141
0.0
142
1.0
143
1.0
 70
  1712
 72
     0
 73
     0
 74
     0
  7

 75
     0
147
1.0
148
0.0
149
0.0
100
AcDbLayout
  1
Model
 70
     1
 71
     0
 10
0.0
 20
0.0
 11
297.0
 21
210.0
 12
0.0
 22
0.0
 32
0.0
 14
0.0
 24
0.0
 34
0.0
 15
297.0
 25
210.0
 35
0.0
146
0.0
 13
0.0
 23
0.0
 33
0.0
 16
1.0
 26
0.0
 36
0.0
 17
0.0
 27
1.0
 37
0.0
 76
     0
330
1F
331
29
  0
MLINESTYLE
  5
18
102
{ACAD_REACTORS
330
17
102
}
330
17
100
AcDbMlineStyle
  2
Standard
 70
     0
  3

 62
   256
 51
90.0
 52
90.0
 71
     2
 49
0.5
 62
   256
  6
BYLAYER
 49
-0.5
 62
   256
  6
BYLAYER
  0
ACDBPLACEHOLDER
  5
F
102
{ACAD_REACTORS
330
E
102
}
330
E
  0
ENDSEC
  0
EOF
