  0
SECTION
  2
HEADER
  9
$ACADVER
  1
AC1015
  9
$ACADMAINTVER
 70
     6
  9
$DWGCODEPAGE
  3
ANSI_1252
  9
$INSBASE
 10
0.0
 20
0.0
 30
0.0
  9
$EXTMIN
 10
0.0
 20
0.0
 30
0.0
  9
$EXTMAX
 10
297.0
 20
210.0
 30
0.0
  9
$LIMMIN
 10
0.0
 20
0.0
  9
$LIMMAX
 10
297.0
 20
210.0
  9
$ORTHOMODE
 70
     0
  9
$REGENMODE
 70
     1
  9
$FILLMODE
 70
     1
  9
$QTEXTMODE
 70
     0
  9
$MIRRTEXT
 70
     1
  9
$LTSCALE
 40
1.0
  9
$ATTMODE
 70
     1
  9
$TEXTSIZE
 40
2.0
  9
$TRACEWID
 40
1.0
  9
$TEXTSTYLE
  7
Standard
  9
$CLAYER
  8
0
  9
$CELTYPE
  6
ByLayer
  9
$CECOLOR
 62
   256
  9
$CELTSCALE
 40
1.0
  9
$DISPSILH
 70
     0
  9
$DIMSCALE
 40
1.0
  9
$DIMASZ
 40
3.0
  9
$DIMEXO
 40
0.0
  9
$DIMDLI
 40
3.75
  9
$DIMRND
 40
0.0
  9
$DIMDLE
 40
0.0
  9
$DIMEXE
 40
1.0
  9
$DIMTP
 40
0.0
  9
$DIMTM
 40
0.0
  9
$DIMTXT
 40
2.0
  9
$DIMCEN
 40
2.5
  9
$DIMTSZ
 40
0.0
  9
$DIMTOL
 70
     0
  9
$DIMLIM
 70
     0
  9
$DIMTIH
 70
     1
  9
$DIMTOH
 70
     1
  9
$DIMSE1
 70
     0
  9
$DIMSE2
 70
     0
  9
$DIMTAD
 70
     1
  9
$DIMZIN
 70
     0
  9
$DIMBLK
  1

  9
$DIMASO
 70
     1
  9
$DIMSHO
 70
     1
  9
$DIMPOST
  1

  9
$DIMAPOST
  1

  9
$DIMALT
 70
     0
  9
$DIMALTD
 70
     3
  9
$DIMALTF
 40
0.0393700787
  9
$DIMLFAC
 40
1.0
  9
$DIMTOFL
 70
     1
  9
$DIMTVP
 40
0.0
  9
$DIMTIX
 70
     0
  9
$DIMSOXD
 70
     0
  9
$DIMSAH
 70
     0
  9
$DIMBLK1
  1

  9
$DIMBLK2
  1

  9
$DIMSTYLE
  2
ISO-25
  9
$DIMCLRD
 70
     0
  9
$DIMCLRE
 70
     0
  9
$DIMCLRT
 70
     0
  9
$DIMTFAC
 40
1.0
  9
$DIMGAP
 40
1.524
  9
$DIMJUST
 70
     0
  9
$DIMSD1
 70
     0
  9
$DIMSD2
 70
     0
  9
$DIMTOLJ
 70
     0
  9
$DIMTZIN
 70
     0
  9
$DIMALTZ
 70
     0
  9
$DIMALTTZ
 70
     0
  9
$DIMUPT
 70
     0
  9
$DIMDEC
 70
     2
  9
$DIMTDEC
 70
     3
  9
$DIMALTU
 70
     2
  9
$DIMALTTD
 70
     3
  9
$DIMTXSTY
  7
Standard
  9
$DIMAUNIT
 70
     0
  9
$DIMADEC
 70
     2
  9
$DIMALTRND
 40
0.0
  9
$DIMAZIN
 70
     0
  9
$DIMDSEP
 70
    44
  9
$DIMATFIT
 70
     3
  9
$DIMFRAC
 70
     0
  9
$DIMLDRBLK
  1

  9
$DIMLUNIT
 70
     2
  9
$DIMLWD
 70
    -2
  9
$DIMLWE
 70
    -2
  9
$DIMTMOVE
 70
     0
  9
$LUNITS
 70
     2
  9
$LUPREC
 70
     2
  9
$SKETCHINC
 40
1.0
  9
$FILLETRAD
 40
10.0
  9
$AUNITS
 70
     0
  9
$AUPREC
 70
     2
  9
$MENU
  1
.
  9
$ELEVATION
 40
0.0
  9
$PELEVATION
 40
0.0
  9
$THICKNESS
 40
0.0
  9
$LIMCHECK
 70
     0
  9
$CHAMFERA
 40
10.0
  9
$CHAMFERB
 40
10.0
  9
$CHAMFERC
 40
20.0
  9
$CHAMFERD
 40
0.0
  9
$SKPOLY
 70
     0
  9
$TDCREATE
 40
2456070.637324595
  9
$TDUCREATE
 40
2456070.553991261
  9
$TDUPDATE
 40
2456070.637326227
  9
$TDUUPDATE
 40
2456070.553992894
  9
$TDINDWG
 40
0.0000000116
  9
$TDUSRTIMER
 40
0.0000000116
  9
$USRTIMER
 70
     1
  9
$ANGBASE
 50
0.0
  9
$ANGDIR
 70
     0
  9
$PDMODE
 70
     0
  9
$PDSIZE
 40
-1.0
  9
$PLINEWID
 40
0.0
  9
$SPLFRAME
 70
     0
  9
$SPLINETYPE
 70
     6
  9
$SPLINESEGS
 70
     8
  9
$HANDSEED
  5
1FD
  9
$SURFTAB1
 70
     6
  9
$SURFTAB2
 70
     6
  9
$SURFTYPE
 70
     6
  9
$SURFU
 70
     6
  9
$SURFV
 70
     6
  9
$UCSBASE
  2

  9
$UCSNAME
  2

  9
$UCSORG
 10
0.0
 20
0.0
 30
0.0
  9
$UCSXDIR
 10
1.0
 20
0.0
 30
0.0
  9
$UCSYDIR
 10
0.0
 20
1.0
 30
0.0
  9
$UCSORTHOREF
  2

  9
$UCSORTHOVIEW
 70
     0
  9
$UCSORGTOP
 10
0.0
 20
0.0
 30
0.0
  9
$UCSORGBOTTOM
 10
0.0
 20
0.0
 30
0.0
  9
$UCSORGLEFT
 10
0.0
 20
0.0
 30
0.0
  9
$UCSORGRIGHT
 10
0.0
 20
0.0
 30
0.0
  9
$UCSORGFRONT
 10
0.0
 20
0.0
 30
0.0
  9
$UCSORGBACK
 10
0.0
 20
0.0
 30
0.0
  9
$PUCSBASE
  2

  9
$PUCSNAME
  2

  9
$PUCSORG
 10
0.0
 20
0.0
 30
0.0
  9
$PUCSXDIR
 10
1.0
 20
0.0
 30
0.0
  9
$PUCSYDIR
 10
0.0
 20
1.0
 30
0.0
  9
$PUCSORTHOREF
  2

  9
$PUCSORTHOVIEW
 70
     0
  9
$PUCSORGTOP
 10
0.0
 20
0.0
 30
0.0
  9
$PUCSORGBOTTOM
 10
0.0
 20
0.0
 30
0.0
  9
$PUCSORGLEFT
 10
0.0
 20
0.0
 30
0.0
  9
$PUCSORGRIGHT
 10
0.0
 20
0.0
 30
0.0
  9
$PUCSORGFRONT
 10
0.0
 20
0.0
 30
0.0
  9
$PUCSORGBACK
 10
0.0
 20
0.0
 30
0.0
  9
$USERI1
 70
     0
  9
$USERI2
 70
     0
  9
$USERI3
 70
     0
  9
$USERI4
 70
     0
  9
$USERI5
 70
     0
  9
$USERR1
 40
0.0
  9
$USERR2
 40
0.0
  9
$USERR3
 40
0.0
  9
$USERR4
 40
0.0
  9
$USERR5
 40
0.0
  9
$WORLDVIEW
 70
     1
  9
$SHADEDGE
 70
     3
  9
$SHADEDIF
 70
    70
  9
$TILEMODE
 70
     1
  9
$MAXACTVP
 70
    64
  9
$PINSBASE
 10
0.0
 20
0.0
 30
0.0
  9
$PLIMCHECK
 70
     0
  9
$PEXTMIN
 10
1.0000000000E+20
 20
1.0000000000E+20
 30
1.0000000000E+20
  9
$PEXTMAX
 10
-1.0000000000E+20
 20
-1.0000000000E+20
 30
-1.0000000000E+20
  9
$PLIMMIN
 10
0.0
 20
0.0
  9
$PLIMMAX
 10
420.0
 20
297.0
  9
$UNITMODE
 70
     0
  9
$VISRETAIN
 70
     1
  9
$PLINEGEN
 70
     0
  9
$PSLTSCALE
 70
     1
  9
$TREEDEPTH
 70
  3020
  9
$CMLSTYLE
  2
Standard
  9
$CMLJUST
 70
     0
  9
$CMLSCALE
 40
20.0
  9
$PROXYGRAPHICS
 70
     1
  9
$MEASUREMENT
 70
     1
  9
$CELWEIGHT
370
    -1
  9
$ENDCAPS
280
     0
  9
$JOINSTYLE
280
     0
  9
$LWDISPLAY
290
     1
  9
$INSUNITS
 70
     4
  9
$HYPERLINKBASE
  1

  9
$STYLESHEET
  1

  9
$XEDIT
290
     1
  9
$CEPSNTYPE
380
     0
  9
$PSTYLEMODE
290
     1
  9
$FINGERPRINTGUID
  2
{BFD612E1-EE06-4DFF-9800-B6F5F66AF29E}
  9
$VERSIONGUID
  2
{FAEB1C32-E019-11D5-929B-00C0DF256EC4}
  9
$EXTNAMES
290
     1
  9
$PSVPSCALE
 40
0.0
  9
$OLESTARTUP
290
     0
  0
ENDSEC
  0
SECTION
  2
CLASSES
  0
CLASS
  1
ACDBDICTIONARYWDFLT
  2
AcDbDictionaryWithDefault
  3
ObjectDBX Classes
 90
        0
280
     0
281
     0
  0
CLASS
  1
VISUALSTYLE
  2
AcDbVisualStyle
  3
ObjectDBX Classes
 90
     4095
280
     0
281
     0
  0
CLASS
  1
MATERIAL
  2
AcDbMaterial
  3
ObjectDBX Classes
 90
     1153
280
     0
281
     0
  0
CLASS
  1
ACDBPLACEHOLDER
  2
AcDbPlaceHolder
  3
ObjectDBX Classes
 90
        0
280
     0
281
     0
  0
CLASS
  1
LAYOUT
  2
AcDbLayout
  3
ObjectDBX Classes
 90
        0
280
     0
281
     0
  0
ENDSEC
  0
SECTION
  2
TABLES
  0
TABLE
  2
VPORT
  5
8
330
0
100
AcDbSymbolTable
 70
     1
  0
VPORT
  5
29
330
8
100
AcDbSymbolTableRecord
100
AcDbViewportTableRecord
  2
*Active
 70
     0
 10
0.0
 20
0.0
 11
1.0
 21
1.0
 12
148.5
 22
105.0
 13
0.0
 23
0.0
 14
10.0
 24
10.0
 15
10.0
 25
10.0
 16
0.0
 26
0.0
 36
1.0
 17
0.0
 27
0.0
 37
0.0
 40
210.0
 41
1.4142857143
 42
50.0
 43
0.0
 44
0.0
 50
0.0
 51
0.0
 71
     0
 72
  2000
 73
     1
 74
     3
 75
     0
 76
     0
 77
     0
 78
     0
281
     0
 65
     1
110
0.0
120
0.0
130
0.0
111
1.0
121
0.0
131
0.0
112
0.0
122
1.0
132
0.0
 79
     0
146
0.0
  0
ENDTAB
  0
TABLE
  2
LTYPE
  5
5
330
0
100
AcDbSymbolTable
 70
     6
  0
LTYPE
  5
14
330
5
100
AcDbSymbolTableRecord
100
AcDbLinetypeTableRecord
  2
ByBlock
 70
     0
  3

 72
    65
 73
     0
 40
0.0
  0
LTYPE
  5
15
330
5
100
AcDbSymbolTableRecord
100
AcDbLinetypeTableRecord
  2
ByLayer
 70
     0
  3

 72
    65
 73
     0
 40
0.0
  0
LTYPE
  5
16
330
5
100
AcDbSymbolTableRecord
100
AcDbLinetypeTableRecord
  2
Continuous
 70
     0
  3
Solid line
 72
    65
 73
     0
 40
0.0
  0
LTYPE
  5
3F
330
5
100
AcDbSymbolTableRecord
100
AcDbLinetypeTableRecord
  2
HIDDEN
 70
     0
  3
Hidden __ __ __ __ __ __ __ __ __ __ __ __ __ __
 72
    65
 73
     2
 40
1.905
 49
1.27
 74
     0
 49
-0.635
 74
     0
  0
LTYPE
  5
40
330
5
100
AcDbSymbolTableRecord
100
AcDbLinetypeTableRecord
  2
PHANTOM
 70
     0
  3
Phantom ______  __  __  ______  __  __  ______
 72
    65
 73
     6
 40
12.7
 49
6.35
 74
     0
 49
-1.27
 74
     0
 49
1.27
 74
     0
 49
-1.27
 74
     0
 49
1.27
 74
     0
 49
-1.27
 74
     0
  0
LTYPE
  5
41
330
5
100
AcDbSymbolTableRecord
100
AcDbLinetypeTableRecord
  2
CENTER
 70
     0
  3
Center ____ _ ____ _ ____ _ ____ _ ____ _ ____
 72
    65
 73
     4
 40
10.16
 49
6.35
 74
     0
 49
-1.27
 74
     0
 49
1.27
 74
     0
 49
-1.27
 74
     0
  0
LTYPE
  5
42
330
5
100
AcDbSymbolTableRecord
100
AcDbLinetypeTableRecord
  2
CENTERX2
 70
     0
  3
Center (2x) ________  __  ________  __  _____
 72
    65
 73
     4
 40
20.32
 49
12.7
 74
     0
 49
-2.54
 74
     0
 49
2.54
 74
     0
 49
-2.54
 74
     0
  0
LTYPE
  5
43
330
5
100
AcDbSymbolTableRecord
100
AcDbLinetypeTableRecord
  2
DOT2
 70
     0
  3
Dot (.5x) ........................................
 72
    65
 73
     2
 40
0.635
 49
0.0
 74
     0
 49
-0.635
 74
     0
  0
ENDTAB
  0
TABLE
  2
LAYER
  5
2
330
0
100
AcDbSymbolTable
 70
     5
  0
LAYER
  5
10
330
2
100
AcDbSymbolTableRecord
100
AcDbLayerTableRecord
  2
0
 70
     0
 62
     7
  6
Continuous
370
    -3
390
F
  0
LAYER
  5
44
330
2
100
AcDbSymbolTableRecord
100
AcDbLayerTableRecord
  2
FORMAT
 70
     0
 62
     7
  6
Continuous
370
    -3
390
F
  0
LAYER
  5
45
330
2
100
AcDbSymbolTableRecord
100
AcDbLayerTableRecord
  2
VERMASSUNG
 70
     0
 62
     7
  6
Continuous
370
    -3
390
F
  0
LAYER
  5
46
330
2
100
AcDbSymbolTableRecord
100
AcDbLayerTableRecord
  2
KOPF_DÜNN
 70
     0
 62
     7
  6
Continuous
370
    -3
390
F
  0
LAYER
  5
47
330
2
100
AcDbSymbolTableRecord
100
AcDbLayerTableRecord
  2
KOPF_DICK
 70
     0
 62
     7
  6
Continuous
370
    15
390
F
  0
ENDTAB
  0
TABLE
  2
STYLE
  5
3
330
0
100
AcDbSymbolTable
 70
     2
  0
STYLE
  5
11
330
3
100
AcDbSymbolTableRecord
100
AcDbTextStyleTableRecord
  2
Standard
 70
     0
 40
0.0
 41
1.0
 50
0.0
 71
     0
 42
2.0
  3
txt
  4

  0
STYLE
  5
48
330
3
100
AcDbSymbolTableRecord
100
AcDbTextStyleTableRecord
  2
SLDTEXTSTYLE0
 70
     0
 40
0.0
 41
0.7
 50
0.0
 71
     0
 42
0.2
  3
TXT
  4

  0
ENDTAB
  0
TABLE
  2
VIEW
  5
6
330
0
100
AcDbSymbolTable
 70
     0
  0
ENDTAB
  0
TABLE
  2
UCS
  5
7
330
0
100
AcDbSymbolTable
 70
     0
  0
ENDTAB
  0
TABLE
  2
APPID
  5
9
330
0
100
AcDbSymbolTable
 70
     1
  0
APPID
  5
12
330
9
100
AcDbSymbolTableRecord
100
AcDbRegAppTableRecord
  2
ACAD
 70
     0
  0
ENDTAB
  0
TABLE
  2
DIMSTYLE
  5
A
330
0
100
AcDbSymbolTable
 70
     5
100
AcDbDimStyleTable
  0
DIMSTYLE
105
27
330
A
100
AcDbSymbolTableRecord
100
AcDbDimStyleTableRecord
  2
ISO-25
 70
     0
 41
2.5
 42
0.625
 43
3.75
 44
1.25
 73
     0
 74
     0
 77
     1
 78
     8
140
2.5
141
2.5
143
0.0393700787
147
0.625
171
     3
172
     1
178
     0
271
     2
272
     2
274
     3
278
    44
283
     0
284
     8
340
11
  0
DIMSTYLE
105
188
102
{ACAD_REACTORS
330
187
102
}
330
A
100
AcDbSymbolTableRecord
100
AcDbDimStyleTableRecord
  2
SLDDIMSTYLE0
 70
     0
 41
3.0
 44
0.0
 73
     0
 74
     0
 77
     1
 78
    12
 79
     3
140
2.0
147
0.5
173
     1
178
     0
179
     2
272
     3
276
     2
284
    12
340
48
  0
DIMSTYLE
105
191
102
{ACAD_REACTORS
330
190
330
1A8
102
}
330
A
100
AcDbSymbolTableRecord
100
AcDbDimStyleTableRecord
  2
SLDDIMSTYLE1
 70
     0
 41
3.0
 44
0.0
 45
0.000000001
 47
0.1
 48
0.1
 71
     1
 73
     0
 74
     0
 77
     1
 78
    12
 79
     3
140
2.0
147
0.5
173
     1
178
     0
271
     2
272
     1
276
     2
284
     8
340
48
  0
DIMSTYLE
105
19E
102
{ACAD_REACTORS
330
19D
330
1B4
102
}
330
A
100
AcDbSymbolTableRecord
100
AcDbDimStyleTableRecord
  2
SLDDIMSTYLE2
 70
     0
 41
3.0
 44
0.0
 45
0.000000001
 73
     0
 74
     0
 77
     1
 78
    12
 79
     3
140
2.0
147
0.5
173
     1
178
     0
271
     2
272
     3
276
     2
284
    12
340
48
  0
DIMSTYLE
105
1E2
102
{ACAD_REACTORS
330
1E1
102
}
330
A
100
AcDbSymbolTableRecord
100
AcDbDimStyleTableRecord
  2
SLDDIMSTYLE3
 70
     0
 41
3.0
 44
0.0
 45
0.000000001
 73
     0
 74
     0
 77
     1
 78
    12
 79
     3
140
2.0
147
0.5
172
     1
173
     1
178
     0
271
     2
272
     3
276
     2
284
    12
289
     0
340
48
  0
ENDTAB
  0
TABLE
  2
BLOCK_RECORD
  5
1
330
0
100
AcDbSymbolTable
 70
     8
  0
BLOCK_RECORD
  5
1F
330
1
100
AcDbSymbolTableRecord
100
AcDbBlockTableRecord
  2
*Model_Space
340
22
  0
BLOCK_RECORD
  5
1B
330
1
100
AcDbSymbolTableRecord
100
AcDbBlockTableRecord
  2
*Paper_Space
340
1E
  0
BLOCK_RECORD
  5
23
330
1
100
AcDbSymbolTableRecord
100
AcDbBlockTableRecord
  2
*Paper_Space0
340
26
  0
BLOCK_RECORD
  5
189
330
1
100
AcDbSymbolTableRecord
100
AcDbBlockTableRecord
  2
_D
340
0
  0
BLOCK_RECORD
  5
192
330
1
100
AcDbSymbolTableRecord
100
AcDbBlockTableRecord
  2
_D_1
340
0
  0
BLOCK_RECORD
  5
19F
330
1
100
AcDbSymbolTableRecord
100
AcDbBlockTableRecord
  2
_D_2
340
0
  0
BLOCK_RECORD
  5
1A9
330
1
100
AcDbSymbolTableRecord
100
AcDbBlockTableRecord
  2
_D_3
340
0
  0
BLOCK_RECORD
  5
1B5
330
1
100
AcDbSymbolTableRecord
100
AcDbBlockTableRecord
  2
_D_4
340
0
  0
BLOCK_RECORD
  5
1E3
330
1
100
AcDbSymbolTableRecord
100
AcDbBlockTableRecord
  2
_D_5
340
0
  0
BLOCK_RECORD
  5
1F0
330
1
100
AcDbSymbolTableRecord
100
AcDbBlockTableRecord
  2
SW_CENTERMARKSYMBOL_0
340
0
102
{BLKREFS
331
1FB
102
}
  0
ENDTAB
  0
ENDSEC
  0
SECTION
  2
BLOCKS
  0
BLOCK
  5
20
330
1F
100
AcDbEntity
  8
0
100
AcDbBlockBegin
  2
*Model_Space
 70
     0
 10
0.0
 20
0.0
 30
0.0
  3
*Model_Space
  1

  0
ENDBLK
  5
21
330
1F
100
AcDbEntity
  8
0
100
AcDbBlockEnd
  0
BLOCK
  5
1C
330
1B
100
AcDbEntity
 67
     1
  8
0
100
AcDbBlockBegin
  2
*Paper_Space
 70
     0
 10
0.0
 20
0.0
 30
0.0
  3
*Paper_Space
  1

  0
ENDBLK
  5
1D
330
1B
100
AcDbEntity
 67
     1
  8
0
100
AcDbBlockEnd
  0
BLOCK
  5
24
330
23
100
AcDbEntity
  8
0
100
AcDbBlockBegin
  2
*Paper_Space0
 70
     0
 10
0.0
 20
0.0
 30
0.0
  3
*Paper_Space0
  1

  0
ENDBLK
  5
25
330
23
100
AcDbEntity
  8
0
100
AcDbBlockEnd
  0
BLOCK
  5
18A
330
189
100
AcDbEntity
  8
0
100
AcDbBlockBegin
  2
_D
 70
     0
 10
0.0
 20
0.0
 30
0.0
  3
_D
  1

  0
ARC
  5
18C
330
189
100
AcDbEntity
  8
VERMASSUNG
100
AcDbCircle
 10
250.3759026208
 20
151.0220706454
 30
0.0
 40
10.11779441003395
100
AcDbArc
 50
90.0
 51
183.0
  0
SOLID
  5
18D
330
189
100
AcDbEntity
  8
VERMASSUNG
100
AcDbTrace
 10
250.3759026208
 20
161.1398650555
 30
0.0
 11
247.3423748006
 21
161.154320647
 31
0.0
 12
247.4716384431
 22
160.2636518473
 32
0.0
 13
247.4716384431
 23
160.2636518473
 33
0.0
  0
SOLID
  5
18E
330
189
100
AcDbEntity
  8
VERMASSUNG
100
AcDbTrace
 10
240.2719742963
 20
150.4925461999
 30
0.0
 11
240.9949892418
 21
153.4386876406
 31
0.0
 12
240.0987759364
 22
153.5211601284
 32
0.0
 13
240.0987759364
 23
153.5211601284
 33
0.0
  0
MTEXT
  5
18F
330
189
100
AcDbEntity
  8
VERMASSUNG
100
AcDbMText
 10
239.1703721427
 20
157.6577861794
 30
0.1
 40
2.0
 41
0.0
 71
     1
 72
     1
  1
93°
  7
SLDTEXTSTYLE0
 11
0.6883545756937478
 21
0.7253743710122935
 31
0.0
 73
     1
 44
1.0
  0
ENDBLK
  5
18B
330
189
100
AcDbEntity
  8
0
100
AcDbBlockEnd
  0
BLOCK
  5
193
330
192
100
AcDbEntity
  8
0
100
AcDbBlockBegin
  2
_D_1
 70
     0
 10
0.0
 20
0.0
 30
0.0
  3
_D_1
  1

  0
SOLID
  5
195
330
192
100
AcDbEntity
  8
VERMASSUNG
100
AcDbTrace
 10
190.3759026208
 20
165.8536579121
 30
0.0
 11
193.3759026208
 21
165.4036579121
 31
0.0
 12
193.3759026208
 22
166.3036579121
 32
0.0
 13
193.3759026208
 23
166.3036579121
 33
0.0
  0
SOLID
  5
196
330
192
100
AcDbEntity
  8
VERMASSUNG
100
AcDbTrace
 10
250.3759026208
 20
165.8536579121
 30
0.0
 11
247.3759026208
 21
166.3036579121
 31
0.0
 12
247.3759026208
 22
165.4036579121
 32
0.0
 13
247.3759026208
 23
165.4036579121
 33
0.0
  0
LINE
  5
197
330
192
100
AcDbEntity
  8
VERMASSUNG
100
AcDbLine
 10
190.3759026208
 20
140.7005585953
 30
0.0
 11
190.3759026208
 21
166.8536579121
 31
0.0
  0
LINE
  5
198
330
192
100
AcDbEntity
  8
VERMASSUNG
100
AcDbLine
 10
250.3759026208
 20
151.0005585953
 30
0.0
 11
250.3759026208
 21
166.8536579121
 31
0.0
  0
LINE
  5
199
330
192
100
AcDbEntity
  8
VERMASSUNG
100
AcDbLine
 10
190.3759026208
 20
165.8536579121
 30
0.0
 11
250.3759026208
 21
165.8536579121
 31
0.0
  0
MTEXT
  5
19A
330
192
100
AcDbEntity
  8
VERMASSUNG
100
AcDbMText
 10
215.8259024338
 20
168.4317932752
 30
0.1
 40
2.0
 41
0.0
 71
     1
 72
     1
  1
60
  7
SLDTEXTSTYLE0
 73
     1
 44
1.0
  0
MTEXT
  5
19B
330
192
100
AcDbEntity
  8
VERMASSUNG
100
AcDbMText
 10
221.6134025358
 20
168.4317932752
 30
0.1
 40
2.0
 41
0.0
 71
     1
 72
     1
  1

  7
SLDTEXTSTYLE0
 73
     1
 44
1.0
  0
MTEXT
  5
19C
330
192
100
AcDbEntity
  8
VERMASSUNG
100
AcDbMText
 10
221.6259028257
 20
167.9372594124
 30
0.1
 40
1.5
 41
0.0
 71
     1
 72
     1
  1
±0.1
  7
SLDTEXTSTYLE0
 73
     1
 44
1.0
  0
ENDBLK
  5
194
330
192
100
AcDbEntity
  8
0
100
AcDbBlockEnd
  0
BLOCK
  5
1A0
330
19F
100
AcDbEntity
  8
0
100
AcDbBlockBegin
  2
_D_2
 70
     0
 10
0.0
 20
0.0
 30
0.0
  3
_D_2
  1

  0
SOLID
  5
1A2
330
19F
100
AcDbEntity
  8
VERMASSUNG
100
AcDbTrace
 10
250.3759026208
 20
171.8536579121
 30
0.0
 11
247.3759026208
 21
172.3036579121
 31
0.0
 12
247.3759026208
 22
171.4036579121
 32
0.0
 13
247.3759026208
 23
171.4036579121
 33
0.0
  0
SOLID
  5
1A3
330
19F
100
AcDbEntity
  8
VERMASSUNG
100
AcDbTrace
 10
160.3759026208
 20
171.8536579121
 30
0.0
 11
163.3759026208
 21
171.4036579121
 31
0.0
 12
163.3759026208
 22
172.3036579121
 32
0.0
 13
163.3759026208
 23
172.3036579121
 33
0.0
  0
LINE
  5
1A4
330
19F
100
AcDbEntity
  8
VERMASSUNG
100
AcDbLine
 10
250.3759026208
 20
151.0005585953
 30
0.0
 11
250.3759026208
 21
172.8536579121
 31
0.0
  0
LINE
  5
1A5
330
19F
100
AcDbEntity
  8
VERMASSUNG
100
AcDbLine
 10
160.3759026208
 20
131.9938844335
 30
0.0
 11
160.3759026208
 21
172.8536579121
 31
0.0
  0
LINE
  5
1A6
330
19F
100
AcDbEntity
  8
VERMASSUNG
100
AcDbLine
 10
250.3759026208
 20
171.8536579121
 30
0.0
 11
160.3759026208
 21
171.8536579121
 31
0.0
  0
MTEXT
  5
1A7
330
19F
100
AcDbEntity
  8
VERMASSUNG
100
AcDbMText
 10
203.0759025697
 20
174.4317932752
 30
0.1
 40
2.0
 41
0.0
 71
     1
 72
     1
  1
90
  7
SLDTEXTSTYLE0
 73
     1
 44
1.0
  0
ENDBLK
  5
1A1
330
19F
100
AcDbEntity
  8
0
100
AcDbBlockEnd
  0
BLOCK
  5
1AA
330
1A9
100
AcDbEntity
  8
0
100
AcDbBlockBegin
  2
_D_3
 70
     0
 10
0.0
 20
0.0
 30
0.0
  3
_D_3
  1

  0
SOLID
  5
1AC
330
1A9
100
AcDbEntity
  8
VERMASSUNG
100
AcDbTrace
 10
259.6872191551
 20
151.0005585953
 30
0.0
 11
259.2372191551
 21
148.0005585953
 31
0.0
 12
260.1372191551
 22
148.0005585953
 32
0.0
 13
260.1372191551
 23
148.0005585953
 33
0.0
  0
SOLID
  5
1AD
330
1A9
100
AcDbEntity
  8
VERMASSUNG
100
AcDbTrace
 10
259.6872191551
 20
116.0005585953
 30
0.0
 11
260.1372191551
 21
119.0005585953
 31
0.0
 12
259.2372191551
 22
119.0005585953
 32
0.0
 13
259.2372191551
 23
119.0005585953
 33
0.0
  0
LINE
  5
1AE
330
1A9
100
AcDbEntity
  8
VERMASSUNG
100
AcDbLine
 10
250.3759026208
 20
151.0005585953
 30
0.0
 11
260.6872191551
 21
151.0005585953
 31
0.0
  0
LINE
  5
1AF
330
1A9
100
AcDbEntity
  8
VERMASSUNG
100
AcDbLine
 10
250.3759026208
 20
116.0005585953
 30
0.0
 11
260.6872191551
 21
116.0005585953
 31
0.0
  0
LINE
  5
1B0
330
1A9
100
AcDbEntity
  8
VERMASSUNG
100
AcDbLine
 10
259.6872191551
 20
151.0005585953
 30
0.0
 11
259.6872191551
 21
116.0005585953
 31
0.0
  0
MTEXT
  5
1B1
330
1A9
100
AcDbEntity
  8
VERMASSUNG
100
AcDbMText
 10
257.109083792
 20
128.9505584083
 30
0.1
 40
2.0
 41
0.0
 71
     1
 72
     1
  1
35
  7
SLDTEXTSTYLE0
 11
-7.044195017643634E-15
 21
1.0
 31
0.0
 73
     1
 44
1.0
  0
MTEXT
  5
1B2
330
1A9
100
AcDbEntity
  8
VERMASSUNG
100
AcDbMText
 10
257.109083792
 20
134.7380585104
 30
0.1
 40
2.0
 41
0.0
 71
     1
 72
     1
  1

  7
SLDTEXTSTYLE0
 11
-7.044195017643634E-15
 21
1.0
 31
0.0
 73
     1
 44
1.0
  0
MTEXT
  5
1B3
330
1A9
100
AcDbEntity
  8
VERMASSUNG
100
AcDbMText
 10
257.6036176547
 20
134.7505588002
 30
0.1
 40
1.5
 41
0.0
 71
     1
 72
     1
  1
±0.1
  7
SLDTEXTSTYLE0
 11
-7.044195017643634E-15
 21
1.0
 31
0.0
 73
     1
 44
1.0
  0
ENDBLK
  5
1AB
330
1A9
100
AcDbEntity
  8
0
100
AcDbBlockEnd
  0
BLOCK
  5
1B6
330
1B5
100
AcDbEntity
  8
0
100
AcDbBlockBegin
  2
_D_4
 70
     0
 10
0.0
 20
0.0
 30
0.0
  3
_D_4
  1

  0
SOLID
  5
1B8
330
1B5
100
AcDbEntity
  8
VERMASSUNG
100
AcDbTrace
 10
150.3759026208
 20
141.0005585953
 30
0.0
 11
149.9259026208
 21
138.0005585953
 31
0.0
 12
150.8259026208
 22
138.0005585953
 32
0.0
 13
150.8259026208
 23
138.0005585953
 33
0.0
  0
SOLID
  5
1B9
330
1B5
100
AcDbEntity
  8
VERMASSUNG
100
AcDbTrace
 10
150.3759026208
 20
91.0005585953
 30
0.0
 11
150.8259026208
 21
94.0005585953
 31
0.0
 12
149.9259026208
 22
94.0005585953
 32
0.0
 13
149.9259026208
 23
94.0005585953
 33
0.0
  0
LINE
  5
1BA
330
1B5
100
AcDbEntity
  8
VERMASSUNG
100
AcDbLine
 10
190.6759026208
 20
141.0005585953
 30
0.0
 11
149.3759026208
 21
141.0005585953
 31
0.0
  0
LINE
  5
1BB
330
1B5
100
AcDbEntity
  8
VERMASSUNG
100
AcDbLine
 10
190.6759026208
 20
91.0005585953
 30
0.0
 11
149.3759026208
 21
91.0005585953
 31
0.0
  0
LINE
  5
1BC
330
1B5
100
AcDbEntity
  8
VERMASSUNG
100
AcDbLine
 10
150.3759026208
 20
141.0005585953
 30
0.0
 11
150.3759026208
 21
91.0005585953
 31
0.0
  0
MTEXT
  5
1BD
330
1B5
100
AcDbEntity
  8
VERMASSUNG
100
AcDbMText
 10
147.5977671317
 20
109.5955584861
 30
0.6021093424
 40
2.0
 41
0.0
 71
     1
 72
     1
  1
PSC
  7
SLDTEXTSTYLE0
 11
-7.044195017643634E-15
 21
1.0
 31
0.0
 73
     1
 44
1.0
  0
MTEXT
  5
1BE
330
1B5
100
AcDbEntity
  8
VERMASSUNG
100
AcDbMText
 10
147.7977671412
 20
114.1955585882
 30
0.6021093424
 40
2.0
 41
0.0
 71
     1
 72
     1
  1
%%c
  7
SLDTEXTSTYLE0
 11
-7.044195017643634E-15
 21
1.0
 31
0.0
 73
     1
 44
1.0
  0
MTEXT
  5
1BF
330
1B5
100
AcDbEntity
  8
VERMASSUNG
100
AcDbMText
 10
147.5977671317
 20
117.8055590681
 30
0.6021093424
 40
2.0
 41
0.0
 71
     1
 72
     1
  1
50
  7
SLDTEXTSTYLE0
 11
-7.044195017643634E-15
 21
1.0
 31
0.0
 73
     1
 44
1.0
  0
ENDBLK
  5
1B7
330
1B5
100
AcDbEntity
  8
0
100
AcDbBlockEnd
  0
BLOCK
  5
1E4
330
1E3
100
AcDbEntity
  8
0
100
AcDbBlockBegin
  2
_D_5
 70
     0
 10
0.0
 20
0.0
 30
0.0
  3
_D_5
  1

  0
SOLID
  5
1E6
330
1E3
100
AcDbEntity
  8
VERMASSUNG
100
AcDbTrace
 10
104.3963971193
 20
95.4686650307
 30
0.0
 11
106.1995194113
 21
93.0291466356
 31
0.0
 12
106.8359155144
 22
93.6655427386
 32
0.0
 13
106.8359155144
 23
93.6655427386
 33
0.0
  0
SOLID
  5
1E7
330
1E3
100
AcDbEntity
  8
VERMASSUNG
100
AcDbTrace
 10
58.4344563422
 20
141.4306058078
 30
0.0
 11
56.6313340501
 21
143.8701242029
 31
0.0
 12
55.9949379471
 22
143.2337280998
 32
0.0
 13
55.9949379471
 23
143.2337280998
 33
0.0
  0
LINE
  5
1E8
330
1E3
100
AcDbEntity
  8
VERMASSUNG
100
AcDbLine
 10
104.3963971193
 20
95.4686650307
 30
0.0
 11
105.1035039005
 21
96.1757718119
 31
0.0
  0
LINE
  5
1E9
330
1E3
100
AcDbEntity
  8
VERMASSUNG
100
AcDbLine
 10
58.4344563422
 20
141.4306058078
 30
0.0
 11
59.1415631233
 21
142.137712589
 31
0.0
  0
LINE
  5
1EA
330
1E3
100
AcDbEntity
  8
VERMASSUNG
100
AcDbLine
 10
104.3963971193
 20
95.4686650307
 30
0.0
 11
108.6390378064
 21
91.2260243435
 31
0.0
  0
LINE
  5
1EB
330
1E3
100
AcDbEntity
  8
VERMASSUNG
100
AcDbLine
 10
104.3963971193
 20
95.4686650307
 30
0.0
 11
58.4344563422
 21
141.4306058078
 31
0.0
  0
LINE
  5
1EC
330
1E3
100
AcDbEntity
  8
VERMASSUNG
100
AcDbLine
 10
58.4344563422
 20
141.4306058078
 30
0.0
 11
46.3556325261
 21
153.5094296238
 31
0.0
  0
MTEXT
  5
1ED
330
1E3
100
AcDbEntity
  8
VERMASSUNG
100
AcDbMText
 10
48.1786496065
 20
155.3324467042
 30
0.1
 40
2.0
 41
0.0
 71
     1
 72
     1
  1
%%c
  7
SLDTEXTSTYLE0
 11
0.7071067811865464
 21
-0.7071067811865488
 31
0.0
 73
     1
 44
1.0
  0
MTEXT
  5
1EE
330
1E3
100
AcDbEntity
  8
VERMASSUNG
100
AcDbMText
 10
50.8727264597
 20
152.921212577
 30
0.1
 40
2.0
 41
0.0
 71
     1
 72
     1
  1
65
  7
SLDTEXTSTYLE0
 11
0.7071067811865464
 21
-0.7071067811865488
 31
0.0
 73
     1
 44
1.0
  0
MTEXT
  5
1EF
330
1E3
100
AcDbEntity
  8
VERMASSUNG
100
AcDbMText
 10
54.9651073572
 20
148.8288316794
 30
0.1
 40
2.0
 41
0.0
 71
     1
 72
     1
  1
min.
  7
SLDTEXTSTYLE0
 11
0.7071067811865464
 21
-0.7071067811865488
 31
0.0
 73
     1
 44
1.0
  0
ENDBLK
  5
1E5
330
1E3
100
AcDbEntity
  8
0
100
AcDbBlockEnd
  0
BLOCK
  5
1F1
330
1F0
100
AcDbEntity
  8
0
100
AcDbBlockBegin
  2
SW_CENTERMARKSYMBOL_0
 70
     0
 10
0.0
 20
0.0
 30
0.0
  3
SW_CENTERMARKSYMBOL_0
  1

  0
LINE
  5
1F3
330
1F0
100
AcDbEntity
  8
VERMASSUNG
 62
     0
100
AcDbLine
 10
0.0
 20
0.0
 30
0.0
 11
0.0
 21
2.5
 31
0.0
  0
LINE
  5
1F4
330
1F0
100
AcDbEntity
  8
VERMASSUNG
 62
     0
100
AcDbLine
 10
0.0
 20
0.0
 30
0.0
 11
-2.5
 21
0.0
 31
0.0
  0
LINE
  5
1F5
330
1F0
100
AcDbEntity
  8
VERMASSUNG
 62
     0
100
AcDbLine
 10
0.0
 20
0.0
 30
0.0
 11
0.0
 21
-2.5
 31
0.0
  0
LINE
  5
1F6
330
1F0
100
AcDbEntity
  8
VERMASSUNG
 62
     0
100
AcDbLine
 10
0.0
 20
0.0
 30
0.0
 11
2.5
 21
0.0
 31
0.0
  0
LINE
  5
1F7
330
1F0
100
AcDbEntity
  8
VERMASSUNG
 62
     0
100
AcDbLine
 10
0.0
 20
5.0
 30
0.0
 11
0.0
 21
27.5
 31
0.0
  0
LINE
  5
1F8
330
1F0
100
AcDbEntity
  8
VERMASSUNG
 62
     0
100
AcDbLine
 10
-5.0
 20
0.0
 30
0.0
 11
-27.5
 21
0.0
 31
0.0
  0
LINE
  5
1F9
330
1F0
100
AcDbEntity
  8
VERMASSUNG
 62
     0
100
AcDbLine
 10
0.0
 20
-5.0
 30
0.0
 11
0.0
 21
-27.5
 31
0.0
  0
LINE
  5
1FA
330
1F0
100
AcDbEntity
  8
VERMASSUNG
 62
     0
100
AcDbLine
 10
5.0
 20
0.0
 30
0.0
 11
27.5
 21
0.0
 31
0.0
  0
ENDBLK
  5
1F2
330
1F0
100
AcDbEntity
  8
0
100
AcDbBlockEnd
  0
ENDSEC
  0
SECTION
  2
ENTITIES
  0
MTEXT
  5
49
330
1F
100
AcDbEntity
  8
KOPF_DÜNN
100
AcDbMText
 10
13.8892156294
 20
23.8442973028
 30
0.0
 40
3.0
 41
0.0
 71
     1
 72
     1
  1
PS5.KDB.RJA.060
  7
SLDTEXTSTYLE0
 73
     1
 44
1.0
  0
MTEXT
  5
4A
330
1F
100
AcDbEntity
  8
VERMASSUNG
100
AcDbMText
 10
13.9329988022
 20
28.8834360957
 30
0.0
 40
3.0
 41
0.0
 71
     1
 72
     1
  1
Klemmhalter rechts_Turning tool right 55°/93°
  7
SLDTEXTSTYLE0
 73
     1
 44
1.0
  0
MTEXT
  5
4B
330
1F
100
AcDbEntity
  8
VERMASSUNG
100
AcDbMText
 10
98.8601118557
 20
13.8365368179
 30
0.0
 40
2.0
 41
0.0
 71
     1
 72
     1
  1
Datum: 22.05.2012
  7
SLDTEXTSTYLE0
 73
     1
 44
1.0
  0
MTEXT
  5
4C
330
1F
100
AcDbEntity
  8
VERMASSUNG
100
AcDbMText
 10
13.933048693
 20
18.0482802738
 30
0.0
 40
2.0
 41
0.0
 71
     1
 72
     1
  1
PSC ø50 / DC..11 T3 ..
  7
SLDTEXTSTYLE0
 73
     1
 44
1.0
  0
MTEXT
  5
4D
330
1F
100
AcDbEntity
  8
VERMASSUNG
100
AcDbMText
 10
13.9808475933
 20
13.9090973692
 30
0.0
 40
2.0
 41
0.0
 71
     1
 72
     1
  1
Gewicht: 688g
  7
SLDTEXTSTYLE0
 73
     1
 44
1.0
  0
ARC
  5
4E
330
1F
100
AcDbEntity
  8
0
  6
Continuous
 62
     7
370
    15
100
AcDbCircle
 10
208.3759026208
 20
127.3290505236
 30
0.0
 40
2.500000000000002
100
AcDbArc
 50
23.7564891757
 51
156.2435108243
  0
ARC
  5
4F
330
1F
100
AcDbEntity
  8
0
  6
Continuous
 62
     7
370
    15
100
AcDbCircle
 10
190.6759026208
 20
91.3005585953
 30
0.0
 40
0.3000000000000114
100
AcDbArc
 50
180.0
 51
270.0
  0
ARC
  5
50
330
1F
100
AcDbEntity
  8
0
  6
Continuous
 62
     7
370
    15
100
AcDbCircle
 10
190.6759026208
 20
140.7005585953
 30
0.0
 40
0.3000000000000114
100
AcDbArc
 50
90.0
 51
180.0
  0
LINE
  5
51
330
1F
100
AcDbEntity
  8
0
  6
Continuous
 62
     7
370
    15
100
AcDbLine
 10
221.3825399046
 20
141.0005585953
 30
0.0
 11
190.6759026208
 21
141.0005585953
 31
0.0
  0
LINE
  5
52
330
1F
100
AcDbEntity
  8
0
  6
Continuous
 62
     7
370
    15
100
AcDbLine
 10
190.6759026208
 20
91.0005585953
 30
0.0
 11
220.7463316873
 21
91.0005585953
 31
0.0
  0
LWPOLYLINE
  5
53
330
1F
100
AcDbEntity
  8
0
  6
Continuous
 62
     7
370
    15
100
AcDbPolyline
 90
        3
 70
   128
 43
0.0
 10
190.1759026208
 20
98.1607383164
 10
190.3013575642
 20
98.0924362015
 10
190.3759026208
 20
98.0396984434
  0
LWPOLYLINE
  5
54
330
1F
100
AcDbEntity
  8
0
  6
Continuous
 62
     7
370
    15
100
AcDbPolyline
 90
        3
 70
   128
 43
0.0
 10
190.3759026208
 20
133.9614187473
 10
190.3013575642
 20
133.9086809891
 10
190.1759026208
 20
133.8403788742
  0
LWPOLYLINE
  5
55
330
1F
100
AcDbEntity
  8
0
  6
Continuous
 62
     7
370
    15
100
AcDbPolyline
 90
        3
 70
   128
 43
0.0
 10
211.1955723579
 20
129.9637354209
 10
211.3440703604
 20
129.470122821
 10
211.3759026208
 20
129.1045737778
  0
ARC
  5
56
330
1F
100
AcDbEntity
  8
0
  6
Continuous
 62
     7
370
    15
100
AcDbCircle
 10
208.4121212114
 20
128.6094207454
 30
0.0
 40
3.095443187164546
100
AcDbArc
 50
25.9456794489
 51
168.4206415369
  0
ARC
  5
57
330
1F
100
AcDbEntity
  8
0
  6
Continuous
 62
     7
370
    15
100
AcDbCircle
 10
209.1947062485
 20
129.1812031088
 30
0.0
 40
2.040701531144262
100
AcDbArc
 50
339.0725567356
 51
23.6519338247
  0
LWPOLYLINE
  5
58
330
1F
100
AcDbEntity
  8
0
  6
Continuous
 62
     7
370
    15
100
AcDbPolyline
 90
       16
 70
   128
 43
0.0
 10
205.5988680081
 20
128.6072812439
 10
205.5435066305
 20
128.8483742353
 10
205.5229850858
 20
129.349522278
 10
205.6271497271
 20
129.8432973633
 10
205.8514480599
 20
130.3081191506
 10
206.1860771707
 20
130.7236726973
 10
206.6164121616
 20
131.0717963195
 10
207.1236453285
 20
131.3372753444
 10
207.6856081481
 20
131.5085070645
 10
208.2777401485
 20
131.5780078323
 10
208.8741623201
 20
131.5427401304
 10
209.4488081518
 20
131.4042453269
 10
209.9765628635
 20
131.1685763091
 10
210.4343610417
 20
130.846032944
 10
210.8021947094
 20
130.4507119244
 10
211.0639877701
 20
129.9998906758
  0
LWPOLYLINE
  5
59
330
1F
100
AcDbEntity
  8
0
  6
Continuous
 62
     7
370
    15
100
AcDbPolyline
 90
       29
 70
   128
 43
0.0
 10
210.7256274017
 20
129.8967912786
 10
210.8566796829
 20
129.4403306956
 10
210.8633354434
 20
128.9708573252
 10
210.7452609356
 20
128.5119125227
 10
210.5083769082
 20
128.0865096968
 10
210.1645617157
 20
127.7159803216
 10
209.7310556874
 20
127.4189042871
 10
209.2295966256
 20
127.2101782262
 10
208.6853297818
 20
127.100268535
 10
208.125546968
 20
127.0946865446
 10
207.5783180321
 20
127.1937121591
 10
207.0710833179
 20
127.3923798209
 10
206.6292776919
 20
127.6807275037
 10
206.2750551332
 20
128.0442962507
 10
206.0261778398
 20
128.4648552068
 10
205.8951255586
 20
128.9213157898
 10
205.8884697981
 20
129.3907891602
 10
206.006544306
 20
129.8497339627
 10
206.2434283333
 20
130.2751367885
 10
206.5872435258
 20
130.6456661637
 10
207.0207495542
 20
130.9427421983
 10
207.5222086159
 20
131.1514682592
 10
208.0664754597
 20
131.2613779503
 10
208.6262582735
 20
131.2669599408
 10
209.1734872094
 20
131.1679343262
 10
209.6807219237
 20
130.9692666645
 10
210.1225275496
 20
130.6809189817
 10
210.4767501083
 20
130.3173502347
 10
210.7256274017
 20
129.8967912786
  0
LINE
  5
5A
330
1F
100
AcDbEntity
  8
0
  6
Continuous
 62
     7
370
    15
100
AcDbLine
 10
239.3392415131
 20
150.0431148077
 30
0.0
 11
239.3193538498
 21
150.4225940306
 31
0.0
  0
LINE
  5
5B
330
1F
100
AcDbEntity
  8
0
  6
Continuous
 62
     7
370
    15
100
AcDbLine
 10
249.9560149574
 20
150.9800378185
 30
0.0
 11
239.3193538498
 21
150.4225940306
 31
0.0
  0
LINE
  5
5C
330
1F
100
AcDbEntity
  8
0
  6
Continuous
 62
     7
370
    15
100
AcDbLine
 10
249.9759026208
 20
150.6005585953
 30
0.0
 11
249.9560149574
 21
150.9800378185
 31
0.0
  0
LINE
  5
5D
330
1F
100
AcDbEntity
  8
0
  6
Continuous
 62
     7
370
    15
100
AcDbLine
 10
248.24621831
 20
149.5816966721
 30
0.0
 11
249.9759026208
 21
150.6005585953
 31
0.0
  0
LINE
  5
5E
330
1F
100
AcDbEntity
  8
0
  6
Continuous
 62
     7
370
    15
100
AcDbLine
 10
239.4653967667
 20
149.8289456863
 30
0.0
 11
239.3392415131
 21
150.0431148077
 31
0.0
  0
SPLINE
  5
5F
330
1F
100
AcDbEntity
  8
0
  6
Continuous
 62
     7
370
    15
100
AcDbSpline
210
0.0
220
0.0
230
1.0
 70
    24
 71
     3
 72
    11
 73
     7
 74
     0
 42
0.00000001
 43
0.00000001
 12
1.0
 22
0.0
 32
0.0
 13
1.0
 23
0.0
 33
0.0
 40
0.0
 40
0.0
 40
0.0
 40
0.0
 40
0.3277695037502333
 40
0.6551509568910026
 40
0.9907861901609808
 40
1.0
 40
1.0
 40
1.0
 40
1.0
 10
239.4653967667226
 20
149.828945686332
 30
0.0
 10
239.5031222032129
 20
149.764900604142
 30
0.0
 10
239.5785284125549
 20
149.6368862635738
 30
0.0
 10
239.7028663093881
 20
149.4258024017856
 30
0.0
 10
239.7812875472779
 20
149.2926695584481
 30
0.0
 10
239.8178916939355
 20
149.230528048653
 30
0.0
 10
239.8188696976544
 20
149.2288677278089
 30
0.0
  0
LINE
  5
60
330
1F
100
AcDbEntity
  8
0
  6
Continuous
 62
     7
370
    15
100
AcDbLine
 10
244.3315956662
 20
141.5677792834
 30
0.0
 11
244.3514833296
 21
141.1883000602
 31
0.0
  0
LINE
  5
61
330
1F
100
AcDbEntity
  8
0
  6
Continuous
 62
     7
370
    15
100
AcDbLine
 10
233.7148222219
 20
140.6308562726
 30
0.0
 11
244.3514833296
 21
141.1883000602
 31
0.0
  0
LINE
  5
62
330
1F
100
AcDbEntity
  8
0
  6
Continuous
 62
     7
370
    15
100
AcDbLine
 10
233.6949345585
 20
141.0103354958
 30
0.0
 11
233.7148222219
 21
140.6308562726
 31
0.0
  0
LINE
  5
63
330
1F
100
AcDbEntity
  8
0
  6
Continuous
 62
     7
370
    15
100
AcDbLine
 10
235.4246188693
 20
142.029197419
 30
0.0
 11
233.6949345585
 21
141.0103354958
 31
0.0
  0
LINE
  5
64
330
1F
100
AcDbEntity
  8
0
  6
Continuous
 62
     7
370
    15
100
AcDbLine
 10
244.2054404126
 20
141.7819484048
 30
0.0
 11
244.3315956662
 21
141.5677792834
 31
0.0
  0
SPLINE
  5
65
330
1F
100
AcDbEntity
  8
0
  6
Continuous
 62
     7
370
    15
100
AcDbSpline
210
0.0
220
0.0
230
1.0
 70
    24
 71
     3
 72
    11
 73
     7
 74
     0
 42
0.00000001
 43
0.00000001
 12
1.0
 22
0.0
 32
0.0
 13
1.0
 23
0.0
 33
0.0
 40
0.0
 40
0.0
 40
0.0
 40
0.0
 40
0.0092138098389923
 40
0.3448490431109469
 40
0.6722304962507369
 40
0.9999999999999999
 40
0.9999999999999999
 40
0.9999999999999999
 40
0.9999999999999999
 10
243.851967481654
 20
142.3820263632769
 30
0.0
 10
243.852945485373
 20
142.3803660424327
 30
0.0
 10
243.8895496320309
 20
142.3182245326372
 30
0.0
 10
243.9679708699211
 20
142.1850916892989
 30
0.0
 10
244.0923087667547
 20
141.9740078275102
 30
0.0
 10
244.1677149760966
 20
141.8459934869422
 30
0.0
 10
244.2054404125868
 20
141.7819484047523
 30
0.0
  0
LINE
  5
66
330
1F
100
AcDbEntity
  8
0
  6
Continuous
 62
     7
370
    15
100
AcDbLine
 10
249.9636475018
 20
151.0004652701
 30
0.0
 11
239.3167522274
 21
150.4424851326
 31
0.0
  0
LINE
  5
67
330
1F
100
AcDbEntity
  8
0
  6
Continuous
 62
     7
370
    15
100
AcDbLine
 10
244.6699898007
 20
141.3544911354
 30
0.0
 11
250.31972748
 21
150.3959614236
 31
0.0
  0
LINE
  5
68
330
1F
100
AcDbEntity
  8
0
  6
Continuous
 62
     7
370
    15
100
AcDbLine
 10
233.7071896776
 20
140.6104288209
 30
0.0
 11
244.3540849519
 21
141.1684089585
 31
0.0
  0
LINE
  5
69
330
1F
100
AcDbEntity
  8
0
  6
Continuous
 62
     7
370
    15
100
AcDbLine
 10
239.0008473786
 20
150.2564029557
 30
0.0
 11
233.3511096993
 21
141.2149326675
 31
0.0
  0
ARC
  5
6A
330
1F
100
AcDbEntity
  8
0
  6
Continuous
 62
     7
370
    15
100
AcDbCircle
 10
249.9759026208
 20
150.6005585953
 30
0.0
 40
0.3800000000000218
100
AcDbArc
 50
328.0
 51
93.0
  0
ARC
  5
6B
330
1F
100
AcDbEntity
  8
0
  6
Continuous
 62
     7
370
    15
100
AcDbCircle
 10
239.3392415131
 20
150.0431148077
 30
0.0
 40
0.3800000000000128
100
AcDbArc
 50
93.0
 51
148.0
  0
LINE
  5
6C
330
1F
100
AcDbEntity
  8
0
  6
Continuous
 62
     7
370
    15
100
AcDbLine
 10
239.0169832366
 20
150.2444841281
 30
0.0
 11
233.372676282
 21
141.2117048162
 31
0.0
  0
ARC
  5
6D
330
1F
100
AcDbEntity
  8
0
  6
Continuous
 62
     7
370
    15
100
AcDbCircle
 10
233.6949345585
 20
141.0103354958
 30
0.0
 40
0.3800000000000279
100
AcDbArc
 50
148.0
 51
273.0
  0
ARC
  5
6E
330
1F
100
AcDbEntity
  8
0
  6
Continuous
 62
     7
370
    15
100
AcDbCircle
 10
244.3315956662
 20
141.5677792834
 30
0.0
 40
0.3800000000000324
100
AcDbArc
 50
273.0
 51
328.0
  0
LINE
  5
6F
330
1F
100
AcDbEntity
  8
0
  6
Continuous
 62
     7
370
    15
100
AcDbLine
 10
244.6538539427
 20
141.366409963
 30
0.0
 11
250.2981608973
 21
150.3991892749
 31
0.0
  0
SPLINE
  5
70
330
1F
100
AcDbEntity
  8
0
  6
Continuous
 62
     7
370
    15
100
AcDbSpline
210
0.0
220
0.0
230
1.0
 70
     8
 71
     3
 72
    10
 73
     6
 74
     0
 42
0.00000001
 43
0.00000001
 12
1.0
 22
0.0
 32
0.0
 13
1.0
 23
0.0
 33
0.0
 40
0.0
 40
0.0
 40
0.0
 40
0.0
 40
0.3518022785810145
 40
0.7034245935032293
 40
1.0
 40
1.0
 40
1.0
 40
1.0
 10
239.3167522273779
 20
150.4424851325562
 30
0.0
 10
239.2724655365618
 20
150.4356874744206
 30
0.0
 10
239.1839148096858
 20
150.4220956354761
 30
0.0
 10
239.0728525808096
 20
150.3523578577179
 30
0.0
 10
239.0234506592146
 20
150.2865243290233
 30
0.0
 10
239.0008473786189
 20
150.2564029557316
 30
0.0
  0
SPLINE
  5
71
330
1F
100
AcDbEntity
  8
0
  6
Continuous
 62
     7
370
    15
100
AcDbSpline
210
0.0
220
0.0
230
1.0
 70
     8
 71
     3
 72
    10
 73
     6
 74
     0
 42
0.00000001
 43
0.00000001
 12
1.0
 22
0.0
 32
0.0
 13
1.0
 23
0.0
 33
0.0
 40
0.0
 40
0.0
 40
0.0
 40
0.0
 40
0.3518022785810789
 40
0.7034245935032126
 40
1.0
 40
1.0
 40
1.0
 40
1.0
 10
244.3540849519305
 20
141.1684089585296
 30
0.0
 10
244.3983716427467
 20
141.1752066166652
 30
0.0
 10
244.4869223696226
 20
141.1887984556097
 30
0.0
 10
244.5979845984989
 20
141.2585362333678
 30
0.0
 10
244.6473865200939
 20
141.3243697620625
 30
0.0
 10
244.6699898006896
 20
141.3544911353542
 30
0.0
  0
SPLINE
  5
72
330
1F
100
AcDbEntity
  8
0
  6
Continuous
 62
     7
370
    15
100
AcDbSpline
210
0.0
220
0.0
230
1.0
 70
     8
 71
     3
 72
    14
 73
    10
 74
     0
 42
0.00000001
 43
0.00000001
 12
1.0
 22
0.0
 32
0.0
 13
1.0
 23
0.0
 33
0.0
 40
0.0
 40
0.0
 40
0.0
 40
0.0
 40
0.1588501103507894
 40
0.3173321153185052
 40
0.4720153553661129
 40
0.6236441635915788
 40
0.7746618341644458
 40
0.9277417761108044
 40
1.0
 40
1.0
 40
1.0
 40
1.0
 10
233.3511096993178
 20
141.2149326675218
 30
0.0
 10
233.3305908037591
 20
141.1736590982681
 30
0.0
 10
233.2896005613398
 20
141.0912076035281
 30
0.0
 10
233.2849894287795
 20
140.9515735479736
 30
0.0
 10
233.3242763281337
 20
140.8216646617547
 30
0.0
 10
233.4044712976714
 20
140.713993169289
 30
0.0
 10
233.5149233819098
 20
140.6397689017658
 30
0.0
 10
233.6215385484603
 20
140.6098736774736
 30
0.0
 10
233.6863930594625
 20
140.6102940287107
 30
0.0
 10
233.7071896775536
 20
140.6104288209403
 30
0.0
  0
SPLINE
  5
73
330
1F
100
AcDbEntity
  8
0
  6
Continuous
 62
     7
370
    15
100
AcDbSpline
210
0.0
220
0.0
230
1.0
 70
     8
 71
     3
 72
    14
 73
    10
 74
     0
 42
0.00000001
 43
0.00000001
 12
1.0
 22
0.0
 32
0.0
 13
1.0
 23
0.0
 33
0.0
 40
0.0
 40
0.0
 40
0.0
 40
0.0
 40
0.1588501103508032
 40
0.3173321153184893
 40
0.4720153553660849
 40
0.6236441635915667
 40
0.7746618341644318
 40
0.9277417761107916
 40
0.9999999999999999
 40
0.9999999999999999
 40
0.9999999999999999
 40
0.9999999999999999
 10
250.3197274799907
 20
150.395961423564
 30
0.0
 10
250.3402463755494
 20
150.4372349928177
 30
0.0
 10
250.3812366179686
 20
150.5196864875576
 30
0.0
 10
250.385847750529
 20
150.6593205431122
 30
0.0
 10
250.3465608511748
 20
150.7892294293311
 30
0.0
 10
250.266365881637
 20
150.8969009217967
 30
0.0
 10
250.1559137973986
 20
150.97112518932
 30
0.0
 10
250.0492986308482
 20
151.0010204136123
 30
0.0
 10
249.9844441198459
 20
151.0006000623751
 30
0.0
 10
249.9636475017548
 20
151.0004652701454
 30
0.0
  0
LINE
  5
74
330
1F
100
AcDbEntity
  8
0
  6
Continuous
 62
     7
370
    15
100
AcDbLine
 10
249.9759026208
 20
150.6005585953
 30
0.0
 11
250.2981608973
 21
150.3991892749
 31
0.0
  0
LINE
  5
75
330
1F
100
AcDbEntity
  8
0
  6
Continuous
 62
     7
370
    15
100
AcDbLine
 10
244.3315956662
 20
141.5677792834
 30
0.0
 11
244.6538539427
 21
141.366409963
 31
0.0
  0
ARC
  5
76
330
1F
100
AcDbEntity
  8
0
  6
Continuous
 62
     7
370
    15
100
AcDbCircle
 10
245.8333525809
 20
148.160410139
 30
0.0
 40
1.000000000295368
100
AcDbArc
 50
328.0
 51
93.0
  0
LINE
  5
77
330
1F
100
AcDbEntity
  8
0
  6
Continuous
 62
     7
370
    15
100
AcDbLine
 10
237.8898205547
 20
142.4518544173
 30
0.0
 11
243.1136707376
 21
142.7256248047
 31
0.0
  0
ARC
  5
78
330
1F
100
AcDbEntity
  8
0
  6
Continuous
 62
     7
370
    15
100
AcDbCircle
 10
237.8374845984
 20
143.450483952
 30
0.0
 40
1.000000000000024
100
AcDbArc
 50
148.0
 51
273.0
  0
LINE
  5
79
330
1F
100
AcDbEntity
  8
0
  6
Continuous
 62
     7
370
    15
100
AcDbLine
 10
239.7614543018
 20
148.4165590159
 30
0.0
 11
236.9894365023
 21
143.9804032163
 31
0.0
  0
ARC
  5
7A
330
1F
100
AcDbEntity
  8
0
  6
Continuous
 62
     7
370
    15
100
AcDbCircle
 10
240.6095023979
 20
147.8866397516
 30
0.0
 40
1.000000000000026
100
AcDbArc
 50
93.0
 51
148.0
  0
LINE
  5
7B
330
1F
100
AcDbEntity
  8
0
  6
Continuous
 62
     7
370
    15
100
AcDbLine
 10
245.7810166246
 20
149.1590396738
 30
0.0
 11
240.5571664417
 21
148.8852692864
 31
0.0
  0
LINE
  5
7C
330
1F
100
AcDbEntity
  8
0
  6
Continuous
 62
     7
370
    15
100
AcDbLine
 10
243.9093828776
 20
143.1943350752
 30
0.0
 11
246.6814006773
 21
147.6304908747
 31
0.0
  0
ARC
  5
7D
330
1F
100
AcDbEntity
  8
0
  6
Continuous
 62
     7
370
    15
100
AcDbCircle
 10
243.0613347814
 20
143.7242543394
 30
0.0
 40
1.000000000000024
100
AcDbArc
 50
273.0
 51
328.0
  0
CIRCLE
  5
7E
330
1F
100
AcDbEntity
  8
0
  6
Continuous
 62
     7
370
    15
100
AcDbCircle
 10
241.8354185897
 20
145.8054470455
 30
0.0
 40
3.04999999999998
  0
LINE
  5
7F
330
1F
100
AcDbEntity
  8
0
  6
Continuous
 62
     7
370
    15
100
AcDbLine
 10
233.6949345585
 20
141.0103354958
 30
0.0
 11
233.372676282
 21
141.2117048162
 31
0.0
  0
LINE
  5
80
330
1F
100
AcDbEntity
  8
0
  6
Continuous
 62
     7
370
    15
100
AcDbLine
 10
239.3392415131
 20
150.0431148077
 30
0.0
 11
239.0169832366
 21
150.2444841281
 31
0.0
  0
SPLINE
  5
81
330
1F
100
AcDbEntity
  8
0
  6
Continuous
 62
     7
370
    15
100
AcDbSpline
210
0.0
220
0.0
230
1.0
 70
    24
 71
     3
 72
    11
 73
     7
 74
     0
 42
0.00000001
 43
0.00000001
 12
1.0
 22
0.0
 32
0.0
 13
1.0
 23
0.0
 33
0.0
 40
0.0
 40
0.0
 40
0.0
 40
0.0
 40
0.0072987238691186
 40
0.1268462096078875
 40
0.5874298328382866
 40
1.0
 40
1.0
 40
1.0
 40
1.0
 10
247.6538059220577
 20
149.2327391072996
 30
0.0
 10
247.6550983766166
 20
149.2335004212165
 30
0.0
 10
247.677560243214
 20
149.2467314717953
 30
0.0
 10
247.7839413231179
 20
149.3093947167539
 30
0.0
 10
247.9835274115045
 20
149.4269599074654
 30
0.0
 10
248.1619246112967
 20
149.5320438889455
 30
0.0
 10
248.246218310012
 20
149.5816966720889
 30
0.0
  0
SPLINE
  5
82
330
1F
100
AcDbEntity
  8
0
  6
Continuous
 62
     7
370
    15
100
AcDbSpline
210
0.0
220
0.0
230
1.0
 70
    24
 71
     3
 72
    11
 73
     7
 74
     0
 42
0.00000001
 43
0.00000001
 12
1.0
 22
0.0
 32
0.0
 13
1.0
 23
0.0
 33
0.0
 40
0.0
 40
0.0
 40
0.0
 40
0.0
 40
0.4125701671612717
 40
0.8731537903910055
 40
0.9927012761302844
 40
1.0
 40
1.0
 40
1.0
 40
1.0
 10
235.4246188692965
 20
142.0291974189959
 30
0.0
 10
235.5089125680118
 20
142.0788502021398
 30
0.0
 10
235.6873097678038
 20
142.1839341836208
 30
0.0
 10
235.8868958561894
 20
142.3014993743307
 30
0.0
 10
235.9932769360949
 20
142.3641626192911
 30
0.0
 10
236.015738802692
 20
142.3773936698694
 30
0.0
 10
236.0170312572509
 20
142.3781549837863
 30
0.0
  0
ARC
  5
83
330
1F
100
AcDbEntity
  8
0
  6
Continuous
 62
     7
370
    15
100
AcDbCircle
 10
241.7249092852
 20
145.7403520905
 30
0.0
 40
1.675000000000024
100
AcDbArc
 50
149.07804828
 51
207.6779814073
  0
ARC
  5
84
330
1F
100
AcDbEntity
  8
0
  6
Continuous
 62
     7
370
    15
100
AcDbCircle
 10
241.7249092852
 20
145.7403520905
 30
0.0
 40
1.675000000000024
100
AcDbArc
 50
207.6779814073
 51
267.784823142
  0
ARC
  5
85
330
1F
100
AcDbEntity
  8
0
  6
Continuous
 62
     7
370
    15
100
AcDbCircle
 10
241.7249092852
 20
145.7403520905
 30
0.0
 40
1.674999999999996
100
AcDbArc
 50
267.784823142
 51
326.3847562692
  0
LINE
  5
86
330
1F
100
AcDbEntity
  8
0
  6
Continuous
 62
     7
370
    15
100
AcDbLine
 10
243.1650332724
 20
144.8849762074
 30
0.0
 11
243.119805701
 21
144.8130500959
 31
0.0
  0
ARC
  5
87
330
1F
100
AcDbEntity
  8
0
  6
Continuous
 62
     7
370
    15
100
AcDbCircle
 10
241.7249092852
 20
145.7403520905
 30
0.0
 40
1.674999999999973
100
AcDbArc
 50
329.2913870411
 51
25.7351052074
  0
LINE
  5
88
330
1F
100
AcDbEntity
  8
0
  6
Continuous
 62
     7
370
    15
100
AcDbLine
 10
243.1779193223
 20
146.5736508557
 30
0.0
 11
243.2337679592
 21
146.4676556735
 31
0.0
  0
ARC
  5
89
330
1F
100
AcDbEntity
  8
0
  6
Continuous
 62
     7
370
    15
100
AcDbCircle
 10
241.7249092852
 20
145.7403520905
 30
0.0
 40
1.675000000000006
100
AcDbArc
 50
29.8341971076
 51
85.6286074416
  0
LINE
  5
8A
330
1F
100
AcDbEntity
  8
0
  6
Continuous
 62
     7
370
    15
100
AcDbLine
 10
241.7328697648
 20
147.4153331742
 30
0.0
 11
241.8525797886
 21
147.4104794038
 31
0.0
  0
ARC
  5
8B
330
1F
100
AcDbEntity
  8
0
  6
Continuous
 62
     7
370
    15
100
AcDbCircle
 10
241.7249092852
 20
145.7403520905
 30
0.0
 40
1.675000000000036
100
AcDbArc
 50
89.7276993419
 51
146.1714175082
  0
LINE
  5
8C
330
1F
100
AcDbEntity
  8
0
  6
Continuous
 62
     7
370
    15
100
AcDbLine
 10
240.2879802348
 20
146.6010842812
 30
0.0
 11
240.3334753063
 21
146.6728414912
 31
0.0
  0
CIRCLE
  5
8D
330
1F
100
AcDbEntity
  8
0
  6
Continuous
 62
     7
370
    15
100
AcDbCircle
 10
241.7249092852
 20
145.7403520905
 30
0.0
 40
1.800000000000013
  0
SPLINE
  5
8E
330
1F
100
AcDbEntity
  8
0
  6
Continuous
 62
     7
370
    15
100
AcDbSpline
210
0.0
220
0.0
230
1.0
 70
     8
 71
     3
 72
    11
 73
     7
 74
     0
 42
0.00000001
 43
0.00000001
 12
1.0
 22
0.0
 32
0.0
 13
1.0
 23
0.0
 33
0.0
 40
0.0
 40
0.0
 40
0.0
 40
0.0
 40
0.2669010467950499
 40
0.5546143410793123
 40
0.8439070439786228
 40
1.0
 40
1.0
 40
1.0
 40
1.0
 10
243.1779193222738
 20
146.5736508556948
 30
0.0
 10
243.1540166234337
 20
146.5990432587791
 30
0.0
 10
243.1043473556417
 20
146.651808098311
 30
0.0
 10
243.0018521026117
 20
146.6962497926892
 30
0.0
 10
242.9061724541002
 20
146.7066659519768
 30
0.0
 10
242.8500909063784
 20
146.6953302712775
 30
0.0
 10
242.830436177074
 20
146.6913574897713
 30
0.0
  0
SPLINE
  5
8F
330
1F
100
AcDbEntity
  8
0
  6
Continuous
 62
     7
370
    15
100
AcDbSpline
210
0.0
220
0.0
230
1.0
 70
     8
 71
     3
 72
    12
 73
     8
 74
     0
 42
0.00000001
 43
0.00000001
 12
1.0
 22
0.0
 32
0.0
 13
1.0
 23
0.0
 33
0.0
 40
0.0
 40
0.0
 40
0.0
 40
0.0
 40
0.2058401281338189
 40
0.4120619935510235
 40
0.6141387330969525
 40
0.8132772113524567
 40
1.0
 40
1.0
 40
1.0
 40
1.0
 10
242.830436177074
 20
146.6913574897713
 30
0.0
 10
242.7656645124046
 20
146.6811538656769
 30
0.0
 10
242.6360010618845
 20
146.6607276945319
 30
0.0
 10
242.4416206360132
 20
146.7134481210119
 30
0.0
 10
242.2779452770286
 20
146.8218460338787
 30
0.0
 10
242.1584498538457
 20
146.9723631615309
 30
0.0
 10
242.1246168424897
 20
147.0902886756033
 30
0.0
 10
242.108244651833
 20
147.1473542137358
 30
0.0
  0
SPLINE
  5
90
330
1F
100
AcDbEntity
  8
0
  6
Continuous
 62
     7
370
    15
100
AcDbSpline
210
0.0
220
0.0
230
1.0
 70
     8
 71
     3
 72
    11
 73
     7
 74
     0
 42
0.00000001
 43
0.00000001
 12
1.0
 22
0.0
 32
0.0
 13
1.0
 23
0.0
 33
0.0
 40
0.0
 40
0.0
 40
0.0
 40
0.0
 40
0.2928993220619516
 40
0.5864344719079414
 40
0.8775178868032647
 40
1.0
 40
1.0
 40
1.0
 40
1.0
 10
242.108244651833
 20
147.1473542137358
 30
0.0
 10
242.0974357636077
 20
147.183687325874
 30
0.0
 10
242.0757945231509
 20
147.2564324223102
 30
0.0
 10
241.9994780386926
 20
147.3439123547376
 30
0.0
 10
241.919731405076
 20
147.3923771509167
 30
0.0
 10
241.867923335078
 20
147.4063432001578
 30
0.0
 10
241.8525797886192
 20
147.4104794037527
 30
0.0
  0
SPLINE
  5
91
330
1F
100
AcDbEntity
  8
0
  6
Continuous
 62
     7
370
    15
100
AcDbSpline
210
0.0
220
0.0
230
1.0
 70
     8
 71
     3
 72
    12
 73
     8
 74
     0
 42
0.00000001
 43
0.00000001
 12
1.0
 22
0.0
 32
0.0
 13
1.0
 23
0.0
 33
0.0
 40
0.0
 40
0.0
 40
0.0
 40
0.0
 40
0.2057904614204166
 40
0.4120344203360218
 40
0.6141302471428152
 40
0.813263324211285
 40
1.0
 40
1.0
 40
1.0
 40
1.0
 10
241.4565746890869
 20
147.1731702521088
 30
0.0
 10
241.4330332843631
 20
147.1119905474701
 30
0.0
 10
241.3858985970586
 20
146.989496317353
 30
0.0
 10
241.2430679852137
 20
146.8475123438699
 30
0.0
 10
241.067347200196
 20
146.7599497096574
 30
0.0
 10
240.87723453863
 20
146.7317145046986
 30
0.0
 10
240.7581861212211
 20
146.7613774217893
 30
0.0
 10
240.7005741794707
 20
146.7757324068346
 30
0.0
  0
SPLINE
  5
92
330
1F
100
AcDbEntity
  8
0
  6
Continuous
 62
     7
370
    15
100
AcDbSpline
210
0.0
220
0.0
230
1.0
 70
     8
 71
     3
 72
    11
 73
     7
 74
     0
 42
0.00000001
 43
0.00000001
 12
1.0
 22
0.0
 32
0.0
 13
1.0
 23
0.0
 33
0.0
 40
0.0
 40
0.0
 40
0.0
 40
0.0
 40
0.2802371411014044
 40
0.5612869875923373
 40
0.8399906057823842
 40
1.0
 40
1.0
 40
1.0
 40
1.0
 10
240.7005741794707
 20
146.7757324068346
 30
0.0
 10
240.6637287851964
 20
146.7845368179185
 30
0.0
 10
240.5899311426796
 20
146.8021711734339
 30
0.0
 10
240.4760998871994
 20
146.779814070346
 30
0.0
 10
240.3888759885477
 20
146.7323098771442
 30
0.0
 10
240.3482812155596
 20
146.6887344999125
 30
0.0
 10
240.3334753063421
 20
146.6728414912338
 30
0.0
  0
SPLINE
  5
93
330
1F
100
AcDbEntity
  8
0
  6
Continuous
 62
     7
370
    15
100
AcDbSpline
210
0.0
220
0.0
230
1.0
 70
     8
 71
     3
 72
    11
 73
     7
 74
     0
 42
0.00000001
 43
0.00000001
 12
1.0
 22
0.0
 32
0.0
 13
1.0
 23
0.0
 33
0.0
 40
0.0
 40
0.0
 40
0.0
 40
0.0
 40
0.2657596322625012
 40
0.5530029385954123
 40
0.8418208483438407
 40
1.0
 40
1.0
 40
1.0
 40
1.0
 10
241.7328697648081
 20
147.4153331741795
 30
0.0
 10
241.6990030863814
 20
147.407421556478
 30
0.0
 10
241.6285319898833
 20
147.3909587558609
 30
0.0
 10
241.5386977590675
 20
147.3247167774239
 30
0.0
 10
241.4814346783455
 20
147.2469705044186
 30
0.0
 10
241.4630725188533
 20
147.1924599417074
 30
0.0
 10
241.4565746890869
 20
147.1731702521088
 30
0.0
  0
SPLINE
  5
94
330
1F
100
AcDbEntity
  8
0
  6
Continuous
 62
     7
370
    15
100
AcDbSpline
210
0.0
220
0.0
230
1.0
 70
     8
 71
     3
 72
    11
 73
     7
 74
     0
 42
0.00000001
 43
0.00000001
 12
1.0
 22
0.0
 32
0.0
 13
1.0
 23
0.0
 33
0.0
 40
0.0
 40
0.0
 40
0.0
 40
0.0
 40
0.243109089344301
 40
0.5182793655622024
 40
0.7947794085751885
 40
1.0
 40
1.0
 40
1.0
 40
1.0
 10
243.1650332724356
 20
144.8849762074042
 30
0.0
 10
243.1763408443952
 20
144.9161468857968
 30
0.0
 10
243.2004472290519
 20
144.9825990265418
 30
0.0
 10
243.1952252800016
 20
145.092338589381
 30
0.0
 10
243.1599477490931
 20
145.1902148654081
 30
0.0
 10
243.1179826313494
 20
145.2396093351925
 30
0.0
 10
243.1001048290157
 20
145.2606521587247
 30
0.0
  0
SPLINE
  5
95
330
1F
100
AcDbEntity
  8
0
  6
Continuous
 62
     7
370
    15
100
AcDbSpline
210
0.0
220
0.0
230
1.0
 70
     8
 71
     3
 72
    12
 73
     8
 74
     0
 42
0.00000001
 43
0.00000001
 12
1.0
 22
0.0
 32
0.0
 13
1.0
 23
0.0
 33
0.0
 40
0.0
 40
0.0
 40
0.0
 40
0.0
 40
0.2058179564998856
 40
0.4120215045907271
 40
0.6140779969167923
 40
0.8132130006453829
 40
0.9999999999999999
 40
0.9999999999999999
 40
0.9999999999999999
 40
0.9999999999999999
 10
243.1001048290157
 20
145.2606521587247
 30
0.0
 10
243.0588856064658
 20
145.3116393406231
 30
0.0
 10
242.976369938825
 20
145.4137092268365
 30
0.0
 10
242.9248330699089
 20
145.6083907530878
 30
0.0
 10
242.936857347875
 20
145.8043233421193
 30
0.0
 10
243.0074478217321
 20
145.9830823974326
 30
0.0
 10
243.092667381081
 20
146.0713601326102
 30
0.0
 10
243.1339138133909
 20
146.1140867279634
 30
0.0
  0
SPLINE
  5
96
330
1F
100
AcDbEntity
  8
0
  6
Continuous
 62
     7
370
    15
100
AcDbSpline
210
0.0
220
0.0
230
1.0
 70
     8
 71
     3
 72
    11
 73
     7
 74
     0
 42
0.00000001
 43
0.00000001
 12
1.0
 22
0.0
 32
0.0
 13
1.0
 23
0.0
 33
0.0
 40
0.0
 40
0.0
 40
0.0
 40
0.0
 40
0.290864166607666
 40
0.5839560789891888
 40
0.8745988053617616
 40
0.9999999999999999
 40
0.9999999999999999
 40
0.9999999999999999
 40
0.9999999999999999
 10
243.133913813391
 20
146.1140867279634
 30
0.0
 10
243.1598465047058
 20
146.1414506897237
 30
0.0
 10
243.2119105073446
 20
146.1963881954383
 30
0.0
 10
243.2496425296552
 20
146.3059522975123
 30
0.0
 10
243.2519336675798
 20
146.3996703393812
 30
0.0
 10
243.2379752213168
 20
146.4519099554922
 30
0.0
 10
243.2337679591786
 20
146.4676556735209
 30
0.0
  0
SPLINE
  5
97
330
1F
100
AcDbEntity
  8
0
  6
Continuous
 62
     7
370
    15
100
AcDbSpline
210
0.0
220
0.0
230
1.0
 70
     8
 71
     3
 72
    12
 73
     8
 74
     0
 42
0.00000001
 43
0.00000001
 12
1.0
 22
0.0
 32
0.0
 13
1.0
 23
0.0
 33
0.0
 40
0.0
 40
0.0
 40
0.0
 40
0.0
 40
0.2058585741214
 40
0.4121026961457093
 40
0.6141937841967364
 40
0.8133180967416396
 40
1.0
 40
1.0
 40
1.0
 40
1.0
 10
240.3523818530415
 20
146.2242776833997
 30
0.0
 10
240.3936065818726
 20
146.1732820545228
 30
0.0
 10
240.476133248404
 20
146.0711952882002
 30
0.0
 10
240.5276632493471
 20
145.8764814260711
 30
0.0
 10
240.5156131608373
 20
145.6805260466691
 30
0.0
 10
240.4449997568584
 20
145.5017951586665
 30
0.0
 10
240.3597992475638
 20
145.4135450953723
 30
0.0
 10
240.3185728686663
 20
145.370843114161
 30
0.0
  0
SPLINE
  5
98
330
1F
100
AcDbEntity
  8
0
  6
Continuous
 62
     7
370
    15
100
AcDbSpline
210
0.0
220
0.0
230
1.0
 70
     8
 71
     3
 72
    11
 73
     7
 74
     0
 42
0.00000001
 43
0.00000001
 12
1.0
 22
0.0
 32
0.0
 13
1.0
 23
0.0
 33
0.0
 40
0.0
 40
0.0
 40
0.0
 40
0.0
 40
0.2524782265335727
 40
0.5068902417933547
 40
0.7591786113117045
 40
1.0
 40
1.0
 40
1.0
 40
1.0
 10
240.3185728686663
 20
145.370843114161
 30
0.0
 10
240.2926298152332
 20
145.3434725953827
 30
0.0
 10
240.2405450045623
 20
145.2885219207364
 30
0.0
 10
240.2029854566029
 20
145.1790846284982
 30
0.0
 10
240.1995542870284
 20
145.0648315973195
 30
0.0
 10
240.2277875140767
 20
144.9959510379282
 30
0.0
 10
240.2415758539581
 20
144.9623116469201
 30
0.0
  0
SPLINE
  5
99
330
1F
100
AcDbEntity
  8
0
  6
Continuous
 62
     7
370
    15
100
AcDbSpline
210
0.0
220
0.0
230
1.0
 70
     8
 71
     3
 72
    11
 73
     7
 74
     0
 42
0.00000001
 43
0.00000001
 12
1.0
 22
0.0
 32
0.0
 13
1.0
 23
0.0
 33
0.0
 40
0.0
 40
0.0
 40
0.0
 40
0.0
 40
0.2423611237745819
 40
0.516684792845854
 40
0.7923341374633868
 40
0.9999999999999999
 40
0.9999999999999999
 40
0.9999999999999999
 40
0.9999999999999999
 10
240.2879802347696
 20
146.6010842811583
 30
0.0
 10
240.2765565699715
 20
146.5699557355505
 30
0.0
 10
240.2522026893334
 20
146.5035934168398
 30
0.0
 10
240.2570179074799
 20
146.3938384613527
 30
0.0
 10
240.2920662360183
 20
146.2954200868763
 30
0.0
 10
240.3342547361306
 20
146.2456586578271
 30
0.0
 10
240.3523818530415
 20
146.2242776833997
 30
0.0
  0
SPLINE
  5
9A
330
1F
100
AcDbEntity
  8
0
  6
Continuous
 62
     7
370
    15
100
AcDbSpline
210
0.0
220
0.0
230
1.0
 70
     8
 71
     3
 72
    12
 73
     8
 74
     0
 42
0.00000001
 43
0.00000001
 12
1.0
 22
0.0
 32
0.0
 13
1.0
 23
0.0
 33
0.0
 40
0.0
 40
0.0
 40
0.0
 40
0.0
 40
0.0091735205189233
 40
0.2576775215524905
 40
0.5061895192299101
 40
0.7560357430218946
 40
1.0
 40
1.0
 40
1.0
 40
1.0
 10
241.660166349967
 20
144.0666037962755
 30
0.0
 10
241.6615371075952
 20
144.0665562880052
 30
0.0
 10
241.7000406927285
 20
144.0652218152338
 30
0.0
 10
241.7767678998081
 20
144.076121108826
 30
0.0
 10
241.8770631715536
 20
144.1281495087109
 30
0.0
 10
241.9566593684349
 20
144.2089702289378
 30
0.0
 10
241.9829320996652
 20
144.2777696350638
 30
0.0
 10
241.9959119929703
 20
144.3117595900156
 30
0.0
  0
SPLINE
  5
9B
330
1F
100
AcDbEntity
  8
0
  6
Continuous
 62
     7
370
    15
100
AcDbSpline
210
0.0
220
0.0
230
1.0
 70
     8
 71
     3
 72
    12
 73
     8
 74
     0
 42
0.00000001
 43
0.00000001
 12
1.0
 22
0.0
 32
0.0
 13
1.0
 23
0.0
 33
0.0
 40
0.0
 40
0.0
 40
0.0
 40
0.0
 40
0.2057532787804141
 40
0.411960408804445
 40
0.6140154573248852
 40
0.8131414684040735
 40
1.0
 40
1.0
 40
1.0
 40
1.0
 10
241.9959119929703
 20
144.3117595900156
 30
0.0
 10
242.0194491283912
 20
144.372930921394
 30
0.0
 10
242.0665753175218
 20
144.4954085160704
 30
0.0
 10
242.2093757888271
 20
144.63738206254
 30
0.0
 10
242.3850608205545
 20
144.7249524307866
 30
0.0
 10
242.5751829426995
 20
144.7532229084655
 30
0.0
 10
242.6942642084318
 20
144.7235583233583
 30
0.0
 10
242.7519125025865
 20
144.7091974352898
 30
0.0
  0
SPLINE
  5
9C
330
1F
100
AcDbEntity
  8
0
  6
Continuous
 62
     7
370
    15
100
AcDbSpline
210
0.0
220
0.0
230
1.0
 70
     8
 71
     3
 72
    11
 73
     7
 74
     0
 42
0.00000001
 43
0.00000001
 12
1.0
 22
0.0
 32
0.0
 13
1.0
 23
0.0
 33
0.0
 40
0.0
 40
0.0
 40
0.0
 40
0.0
 40
0.2794069064555947
 40
0.5596240257154976
 40
0.83750073922196
 40
1.0
 40
1.0
 40
1.0
 40
1.0
 10
242.7519125025865
 20
144.7091974352898
 30
0.0
 10
242.7887611696
 20
144.7003924700408
 30
0.0
 10
242.8625653558955
 20
144.6827570072622
 30
0.0
 10
242.976400312563
 20
144.7051226890802
 30
0.0
 10
243.0640028120933
 20
144.7528253669807
 30
0.0
 10
243.1047645653369
 20
144.7968170954995
 30
0.0
 10
243.1198057009957
 20
144.8130500958949
 30
0.0
  0
SPLINE
  5
9D
330
1F
100
AcDbEntity
  8
0
  6
Continuous
 62
     7
370
    15
100
AcDbSpline
210
0.0
220
0.0
230
1.0
 70
     8
 71
     3
 72
    12
 73
     8
 74
     0
 42
0.00000001
 43
0.00000001
 12
1.0
 22
0.0
 32
0.0
 13
1.0
 23
0.0
 33
0.0
 40
0.0
 40
0.0
 40
0.0
 40
0.0
 40
0.0091681771491511
 40
0.2573268097002494
 40
0.5054934687429462
 40
0.7549925359452548
 40
1.0
 40
1.0
 40
1.0
 40
1.0
 10
240.2415758539581
 20
144.9623116469201
 30
0.0
 10
240.2422183530957
 20
144.9610986050675
 30
0.0
 10
240.260251627393
 20
144.9270516855047
 30
0.0
 10
240.3079420388564
 20
144.8659638951523
 30
0.0
 10
240.4030336382293
 20
144.8049447774171
 30
0.0
 10
240.5129793850704
 20
144.7761603767933
 30
0.0
 10
240.5859142876015
 20
144.7878036123385
 30
0.0
 10
240.6220505049833
 20
144.7935723523531
 30
0.0
  0
SPLINE
  5
9E
330
1F
100
AcDbEntity
  8
0
  6
Continuous
 62
     7
370
    15
100
AcDbSpline
210
0.0
220
0.0
230
1.0
 70
     8
 71
     3
 72
    12
 73
     8
 74
     0
 42
0.00000001
 43
0.00000001
 12
1.0
 22
0.0
 32
0.0
 13
1.0
 23
0.0
 33
0.0
 40
0.0
 40
0.0
 40
0.0
 40
0.0
 40
0.2058435564094967
 40
0.4120691620553169
 40
0.6141397217726933
 40
0.813260457956112
 40
1.0
 40
1.0
 40
1.0
 40
1.0
 10
240.6220505049833
 20
144.7935723523531
 30
0.0
 10
240.6868228507476
 20
144.8037760327671
 30
0.0
 10
240.8164877608815
 20
144.8242023318042
 30
0.0
 10
241.0108686559359
 20
144.7714806850958
 30
0.0
 10
241.1745396734492
 20
144.6630838582705
 30
0.0
 10
241.294034517331
 20
144.5125703913635
 30
0.0
 10
241.3278680677587
 20
144.3946459255509
 30
0.0
 10
241.3442420302241
 20
144.3375756283885
 30
0.0
  0
SPLINE
  5
9F
330
1F
100
AcDbEntity
  8
0
  6
Continuous
 62
     7
370
    15
100
AcDbSpline
210
0.0
220
0.0
230
1.0
 70
     8
 71
     3
 72
    11
 73
     7
 74
     0
 42
0.00000001
 43
0.00000001
 12
1.0
 22
0.0
 32
0.0
 13
1.0
 23
0.0
 33
0.0
 40
0.0
 40
0.0
 40
0.0
 40
0.0
 40
0.2535086227483786
 40
0.5075674742604784
 40
0.7595056251924494
 40
1.0
 40
1.0
 40
1.0
 40
1.0
 10
241.3442420302241
 20
144.3375756283885
 30
0.0
 10
241.3550525649672
 20
144.3012269795861
 30
0.0
 10
241.3766970982199
 20
144.2284507889167
 30
0.0
 10
241.4529995005637
 20
144.1411858077807
 30
0.0
 10
241.5503405950566
 20
144.0812679345197
 30
0.0
 10
241.624129364225
 20
144.0714155213691
 30
0.0
 10
241.660166349967
 20
144.0666037962755
 30
0.0
  0
CIRCLE
  5
A0
330
1F
100
AcDbEntity
  8
0
  6
Continuous
 62
     7
370
    15
100
AcDbCircle
 10
241.7249092852
 20
145.7403520905
 30
0.0
 40
2.62500000000002
  0
LINE
  5
A1
330
1F
100
AcDbEntity
  8
0
  6
Continuous
 62
     7
370
    15
100
AcDbLine
 10
190.3759026208
 20
91.3005585953
 30
0.0
 11
190.3759026208
 21
140.7005585913
 31
0.0
  0
SPLINE
  5
A2
330
1F
100
AcDbEntity
  8
0
  6
Continuous
 62
     7
370
    15
100
AcDbSpline
210
0.0
220
0.0
230
1.0
 70
     8
 71
     3
 72
    70
 73
    66
 74
     0
 42
0.00000001
 43
0.00000001
 12
1.0
 22
0.0
 32
0.0
 13
1.0
 23
0.0
 33
0.0
 40
-0.0312499999999998
 40
-0.0312499999999998
 40
0.0
 40
0.0
 40
0.03125
 40
0.03125
 40
0.0625
 40
0.0625
 40
0.09375
 40
0.09375
 40
0.1250000000000001
 40
0.1250000000000001
 40
0.1562500000000001
 40
0.1562500000000001
 40
0.1875000000000001
 40
0.1875000000000001
 40
0.2187500000000001
 40
0.2187500000000001
 40
0.2500000000000001
 40
0.2500000000000001
 40
0.2812500000000001
 40
0.2812500000000001
 40
0.3125000000000001
 40
0.3125000000000001
 40
0.3437500000000002
 40
0.3437500000000002
 40
0.3750000000000002
 40
0.3750000000000002
 40
0.4062500000000002
 40
0.4062500000000002
 40
0.4375000000000002
 40
0.4375000000000002
 40
0.4687500000000002
 40
0.4687500000000002
 40
0.5000000000000002
 40
0.5000000000000002
 40
0.5312500000000002
 40
0.5312500000000002
 40
0.5625000000000002
 40
0.5625000000000002
 40
0.5937500000000002
 40
0.5937500000000002
 40
0.6250000000000002
 40
0.6250000000000002
 40
0.6562500000000003
 40
0.6562500000000003
 40
0.6875000000000003
 40
0.6875000000000003
 40
0.7187500000000003
 40
0.7187500000000003
 40
0.7500000000000003
 40
0.7500000000000003
 40
0.7812500000000003
 40
0.7812500000000003
 40
0.8125000000000003
 40
0.8125000000000003
 40
0.8437500000000003
 40
0.8437500000000003
 40
0.8750000000000004
 40
0.8750000000000004
 40
0.9062500000000004
 40
0.9062500000000004
 40
0.9375000000000003
 40
0.9375000000000003
 40
0.9687500000000002
 40
0.9687500000000002
 40
1.0
 40
1.0
 40
1.03125
 40
1.03125
 10
208.1775167068229
 20
132.034155657962
 30
0.0
 10
208.5742885347019
 20
132.034155657962
 30
0.0
 10
208.7693232238431
 20
132.0191093444863
 30
0.0
 10
209.1529754035284
 20
131.9600362722356
 30
0.0
 10
209.3435945323998
 20
131.9152801009397
 30
0.0
 10
209.7068088939811
 20
131.7980932806906
 30
0.0
 10
209.8790485354922
 20
131.7262224159516
 30
0.0
 10
210.2050185969694
 20
131.5555379138548
 30
0.0
 10
210.3592178188718
 20
131.4558808491675
 30
0.0
 10
210.6356710631141
 20
131.2368028545378
 30
0.0
 10
210.7597896177431
 20
131.1166131048065
 30
0.0
 10
210.9791070207484
 20
130.8535837475391
 30
0.0
 10
211.0721962463298
 20
130.7128163412144
 30
0.0
 10
211.2218731936109
 20
130.4191841817315
 30
0.0
 10
211.2795603540601
 20
130.2641427709
 30
0.0
 10
211.3566942450565
 20
129.9442503115729
 30
0.0
 10
211.3757937947458
 20
129.7821666334248
 30
0.0
 10
211.3760105282333
 20
129.4536866527279
 30
0.0
 10
211.3564977136075
 20
129.2855442250963
 30
0.0
 10
211.2798966705283
 20
128.9578377764326
 30
0.0
 10
211.2232215055153
 20
128.7973320591024
 30
0.0
 10
211.072872292571
 20
128.4834460928387
 30
0.0
 10
210.9790163885297
 20
128.3308167391017
 30
0.0
 10
210.7619863211884
 20
128.0465211896559
 30
0.0
 10
210.6379684742609
 20
127.9130021423328
 30
0.0
 10
210.3581532519387
 20
127.6651605354764
 30
0.0
 10
210.2068248957811
 20
127.5547715770945
 30
0.0
 10
209.8821592260448
 20
127.3606768896477
 30
0.0
 10
209.7067376077783
 20
127.2762851124157
 30
0.0
 10
209.3435562201392
 20
127.1408168960253
 30
0.0
 10
209.1565685020602
 20
127.0895267294448
 30
0.0
 10
208.7718443002761
 20
127.0200351229066
 30
0.0
 10
208.5728884337574
 20
127.0021986556526
 30
0.0
 10
208.1811593841747
 20
127.0020662239996
 30
0.0
 10
207.9863707190008
 20
127.0191948939093
 30
0.0
 10
207.5989961412969
 20
127.0885383587829
 30
0.0
 10
207.4096724534545
 20
127.1404531687572
 30
0.0
 10
207.0485320544623
 20
127.2748278980116
 30
0.0
 10
206.8739451703374
 20
127.3583316971055
 30
0.0
 10
206.5460359911505
 20
127.5539191577822
 30
0.0
 10
206.3950243188293
 20
127.6642708643379
 30
0.0
 10
206.1182052541968
 20
127.9088136750812
 30
0.0
 10
205.9914587749566
 20
128.044592599344
 30
0.0
 10
205.773577824867
 20
128.329566156357
 30
0.0
 10
205.6812798004127
 20
128.4793242340658
 30
0.0
 10
205.5303079800611
 20
128.7929753755663
 30
0.0
 10
205.4723887059666
 20
128.956445886658
 30
0.0
 10
205.3957461314511
 20
129.2830135711247
 30
0.0
 10
205.3760854800001
 20
129.4478484615267
 30
0.0
 10
205.3757222756779
 20
129.7806137436548
 30
0.0
 10
205.3950305732951
 20
129.9429549223773
 30
0.0
 10
205.4709979143624
 20
130.2599165204086
 30
0.0
 10
205.5285943085037
 20
130.4161771845965
 30
0.0
 10
205.6789103740156
 20
130.7118233180522
 30
0.0
 10
205.7709172761223
 20
130.8509647867797
 30
0.0
 10
205.9883479427482
 20
131.1126855386326
 30
0.0
 10
206.1148011675853
 20
131.2355934825376
 30
0.0
 10
206.3910581123964
 20
131.4548203710024
 30
0.0
 10
206.5418616747093
 20
131.5526461388618
 30
0.0
 10
206.869568744653
 20
131.7248584476042
 30
0.0
 10
207.0437911271079
 20
131.79755753214
 30
0.0
 10
207.4045579040316
 20
131.9142465004779
 30
0.0
 10
207.5935322819747
 20
131.9590487445759
 30
0.0
 10
207.9813759040808
 20
132.0191080497369
 30
0.0
 10
208.1775167068229
 20
132.034155657962
 30
0.0
 10
208.5742885347019
 20
132.034155657962
 30
0.0
  0
SPLINE
  5
A3
330
1F
100
AcDbEntity
  8
0
  6
Continuous
 62
     7
370
    15
100
AcDbSpline
210
0.0
220
0.0
230
1.0
 70
     8
 71
     3
 72
    18
 73
    14
 74
     0
 42
0.00000001
 43
0.00000001
 12
1.0
 22
0.0
 32
0.0
 13
1.0
 23
0.0
 33
0.0
 40
0.0
 40
0.0
 40
0.0
 40
0.0
 40
0.2499999999999998
 40
0.2499999999999998
 40
0.4999999999999996
 40
0.4999999999999996
 40
0.6249999999999984
 40
0.6249999999999984
 40
0.7499999999999973
 40
0.7499999999999973
 40
0.8749999999999987
 40
0.8749999999999987
 40
1.0
 40
1.0
 40
1.0
 40
1.0
 10
219.780106105832
 20
140.9264484058683
 30
0.0
 10
219.8638564627791
 20
140.9505688562118
 30
0.0
 10
219.9947682263048
 20
140.967172370912
 30
0.0
 10
220.350745592989
 20
140.9898722205019
 30
0.0
 10
220.5682950380936
 20
140.9954662440463
 30
0.0
 10
220.9489523917457
 20
140.9995772928439
 30
0.0
 10
221.0841189560527
 20
141.0002087063285
 30
0.0
 10
221.3641303228881
 20
141.0006788421851
 30
0.0
 10
221.5098956427541
 20
141.0005257689888
 30
0.0
 10
221.8131895385752
 20
140.9999902219918
 30
0.0
 10
221.9703355315423
 20
140.9996097148883
 30
0.0
 10
222.2863190384147
 20
140.9990226879328
 30
0.0
 10
222.4463819305172
 20
140.9988129872721
 30
0.0
 10
222.6085756327834
 20
140.9987681268466
 30
0.0
  0
ELLIPSE
  5
A4
330
1F
100
AcDbEntity
  8
0
  6
Continuous
 62
     7
370
    15
100
AcDbEllipse
 10
220.295517863
 20
116.0005585953
 30
0.0
 11
0.0
 21
25.0
 31
0.0
210
0.0
220
0.0
230
1.0
 40
0.2679491924
 41
0.0770178337218596
 42
3.064574819867933
  0
SPLINE
  5
A5
330
1F
100
AcDbEntity
  8
0
  6
Continuous
 62
     7
370
    15
100
AcDbSpline
210
0.0
220
0.0
230
1.0
 70
     8
 71
     3
 72
    12
 73
     8
 74
     0
 42
0.00000001
 43
0.00000001
 12
1.0
 22
0.0
 32
0.0
 13
1.0
 23
0.0
 33
0.0
 40
0.0
 40
0.0
 40
0.0
 40
0.0
 40
0.4999999999999987
 40
0.4999999999999987
 40
0.7499999999999993
 40
0.7499999999999993
 40
1.0
 40
1.0
 40
1.0
 40
1.0
 10
220.7931541516199
 20
91.00323710941714
 30
0.0
 10
220.5467668988045
 20
91.00614972878496
 30
0.0
 10
220.3358320211899
 20
91.01192404601942
 30
0.0
 10
220.0776422624572
 20
91.02880705493753
 30
0.0
 10
220.001630951802
 20
91.03583152640753
 30
0.0
 10
219.8737154755938
 20
91.0528402873041
 30
0.0
 10
219.8210996623938
 20
91.06286247036522
 30
0.0
 10
219.780106105832
 20
91.07466878476788
 30
0.0
  0
ELLIPSE
  5
A6
330
1F
100
AcDbEntity
  8
0
  6
Continuous
 62
     7
370
    15
100
AcDbEllipse
 10
238.3829810524
 20
116.0005585953
 30
0.0
 11
17.78525842695177
 21
24.95772869071248
 31
0.0
210
0.0
220
0.0
230
1.0
 40
0.0817078932
 41
3.199753277442024
 42
3.214391752581175
  0
SPLINE
  5
A7
330
1F
100
AcDbEntity
  8
0
  6
Continuous
 62
     7
370
    15
100
AcDbSpline
210
0.0
220
0.0
230
1.0
 70
     8
 71
     3
 72
    12
 73
     8
 74
     0
 42
0.00000001
 43
0.00000001
 12
1.0
 22
0.0
 32
0.0
 13
1.0
 23
0.0
 33
0.0
 40
0.0
 40
0.0
 40
0.0
 40
0.0
 40
0.5000000000000032
 40
0.5000000000000032
 40
0.7500000000000016
 40
0.7500000000000016
 40
1.0
 40
1.0
 40
1.0
 40
1.0
 10
198.4706467324366
 20
124.0970115933622
 30
0.0
 10
198.5013461158039
 20
123.9826759262983
 30
0.0
 10
198.5426961839104
 20
123.871322573457
 30
0.0
 10
198.6424521121299
 20
123.7185858012082
 30
0.0
 10
198.6821490298626
 20
123.6707259153561
 30
0.0
 10
198.7794071815102
 20
123.5961228020066
 30
0.0
 10
198.8401833395009
 20
123.5693685644985
 30
0.0
 10
198.9036594343288
 20
123.5693685644985
 30
0.0
  0
LINE
  5
A8
330
1F
100
AcDbEntity
  8
0
  6
Continuous
 62
     7
370
    15
100
AcDbLine
 10
198.9036594343
 20
123.5693685645
 30
0.0
 11
201.8481458072
 21
123.5693685645
 31
0.0
  0
SPLINE
  5
A9
330
1F
100
AcDbEntity
  8
0
  6
Continuous
 62
     7
370
    15
100
AcDbSpline
210
0.0
220
0.0
230
1.0
 70
     8
 71
     3
 72
    12
 73
     8
 74
     0
 42
0.00000001
 43
0.00000001
 12
1.0
 22
0.0
 32
0.0
 13
1.0
 23
0.0
 33
0.0
 40
0.0
 40
0.0
 40
0.0
 40
0.0
 40
0.2500000000000004
 40
0.2500000000000004
 40
0.5000000000000009
 40
0.5000000000000009
 40
1.0
 40
1.0
 40
1.0
 40
1.0
 10
201.8481458071959
 20
123.5693685644985
 30
0.0
 10
201.9118110437265
 20
123.5693685644985
 30
0.0
 10
201.9714172759498
 20
123.5954407129782
 30
0.0
 10
202.0700778008807
 20
123.6709794637993
 30
0.0
 10
202.1090447908959
 20
123.7182304008956
 30
0.0
 10
202.2084316228204
 20
123.870054218862
 30
0.0
 10
202.2505078702438
 20
123.9828574686271
 30
0.0
 10
202.2811585090882
 20
124.0970115933622
 30
0.0
  0
ELLIPSE
  5
AA
330
1F
100
AcDbEntity
  8
0
  6
Continuous
 62
     7
370
    15
100
AcDbEllipse
 10
189.3196449658
 20
116.0005585953
 30
0.0
 11
11.70927234972708
 21
24.67718644093742
 31
0.0
210
0.0
220
0.0
230
1.0
 40
0.3419987131
 41
5.20306880937045
 42
6.114256032590492
  0
SPLINE
  5
AB
330
1F
100
AcDbEntity
  8
0
  6
Continuous
 62
     7
370
    15
100
AcDbSpline
210
0.0
220
0.0
230
1.0
 70
     8
 71
     3
 72
    12
 73
     8
 74
     0
 42
0.00000001
 43
0.00000001
 12
1.0
 22
0.0
 32
0.0
 13
1.0
 23
0.0
 33
0.0
 40
0.0
 40
0.0
 40
0.0
 40
0.0
 40
0.5000000000000032
 40
0.5000000000000032
 40
0.7500000000000016
 40
0.7500000000000016
 40
1.0
 40
1.0
 40
1.0
 40
1.0
 10
202.2811585090882
 20
139.6532000725497
 30
0.0
 10
202.2504591257209
 20
139.6923379149456
 30
0.0
 10
202.2091090576143
 20
139.729497697671
 30
0.0
 10
202.1093531293949
 20
139.7794342032988
 30
0.0
 10
202.0696562116622
 20
139.7948870734426
 30
0.0
 10
201.9723980600146
 20
139.8188066170416
 30
0.0
 10
201.9116219020239
 20
139.82728971082
 30
0.0
 10
201.8481458071959
 20
139.82728971082
 30
0.0
  0
LINE
  5
AC
330
1F
100
AcDbEntity
  8
0
  6
Continuous
 62
     7
370
    15
100
AcDbLine
 10
201.8481458072
 20
139.8272897108
 30
0.0
 11
198.9036594343
 21
139.8272897108
 31
0.0
  0
SPLINE
  5
AD
330
1F
100
AcDbEntity
  8
0
  6
Continuous
 62
     7
370
    15
100
AcDbSpline
210
0.0
220
0.0
230
1.0
 70
     8
 71
     3
 72
    12
 73
     8
 74
     0
 42
0.00000001
 43
0.00000001
 12
1.0
 22
0.0
 32
0.0
 13
1.0
 23
0.0
 33
0.0
 40
0.0
 40
0.0
 40
0.0
 40
0.0
 40
0.2500000000000016
 40
0.2500000000000016
 40
0.5000000000000032
 40
0.5000000000000032
 40
1.0
 40
1.0
 40
1.0
 40
1.0
 10
198.9036594343288
 20
139.82728971082
 30
0.0
 10
198.8399941977983
 20
139.82728971082
 30
0.0
 10
198.780387965575
 20
139.8190249351541
 30
0.0
 10
198.6817274406441
 20
139.794806153571
 30
0.0
 10
198.6427604506289
 20
139.7795488342618
 30
0.0
 10
198.5433736187044
 20
139.7299154799999
 30
0.0
 10
198.5012973712809
 20
139.6922757718258
 30
0.0
 10
198.4706467324366
 20
139.6532000725497
 30
0.0
  0
ELLIPSE
  5
AE
330
1F
100
AcDbEntity
  8
0
  6
Continuous
 62
     7
370
    15
100
AcDbEllipse
 10
211.4321602757
 20
116.0005585953
 30
0.0
 11
-11.70927234972697
 21
24.67718644093745
 31
0.0
210
0.0
220
0.0
230
1.0
 40
0.3419987131
 41
0.1689292745891331
 42
1.08011649780915
  0
SPLINE
  5
AF
330
1F
100
AcDbEntity
  8
0
  6
Continuous
 62
     7
370
    15
100
AcDbSpline
210
0.0
220
0.0
230
1.0
 70
     8
 71
     3
 72
    12
 73
     8
 74
     0
 42
0.00000001
 43
0.00000001
 12
1.0
 22
0.0
 32
0.0
 13
1.0
 23
0.0
 33
0.0
 40
0.0
 40
0.0
 40
0.0
 40
0.0
 40
0.4999999999999982
 40
0.4999999999999982
 40
0.7499999999999991
 40
0.7499999999999991
 40
1.0
 40
1.0
 40
1.0
 40
1.0
 10
198.4706467324366
 20
92.34791711808644
 30
0.0
 10
198.5014984430008
 20
92.30858507772396
 30
0.0
 10
198.5433913064614
 20
92.27117331219569
 30
0.0
 10
198.6429121842546
 20
92.22150238757979
 30
0.0
 10
198.682526348979
 20
92.20611330497195
 30
0.0
 10
198.7796293827584
 20
92.1822800893047
 30
0.0
 10
198.8401280554088
 20
92.17382747981591
 30
0.0
 10
198.9036594343287
 20
92.1738274798159
 30
0.0
  0
LINE
  5
B0
330
1F
100
AcDbEntity
  8
0
  6
Continuous
 62
     7
370
    15
100
AcDbLine
 10
198.9036594343
 20
92.1738274798
 30
0.0
 11
201.8481458072
 21
92.1738274798
 31
0.0
  0
SPLINE
  5
B1
330
1F
100
AcDbEntity
  8
0
  6
Continuous
 62
     7
370
    15
100
AcDbSpline
210
0.0
220
0.0
230
1.0
 70
     8
 71
     3
 72
    12
 73
     8
 74
     0
 42
0.00000001
 43
0.00000001
 12
1.0
 22
0.0
 32
0.0
 13
1.0
 23
0.0
 33
0.0
 40
0.0
 40
0.0
 40
0.0
 40
0.0
 40
0.2500000000000026
 40
0.2500000000000026
 40
0.5000000000000051
 40
0.5000000000000051
 40
1.0
 40
1.0
 40
1.0
 40
1.0
 10
201.8481458071959
 20
92.17382747981611
 30
0.0
 10
201.9117823614096
 20
92.17382747981611
 30
0.0
 10
201.9713624882758
 20
92.18208425074786
 30
0.0
 10
202.0699992296423
 20
92.2062863127557
 30
0.0
 10
202.1089578540225
 20
92.22153313178983
 30
0.0
 10
202.2083367935304
 20
92.27113800384996
 30
0.0
 10
202.2502946986959
 20
92.30856965196877
 30
0.0
 10
202.2811585090884
 20
92.34791711808643
 30
0.0
  0
ELLIPSE
  5
B2
330
1F
100
AcDbEntity
  8
0
  6
Continuous
 62
     7
370
    15
100
AcDbEllipse
 10
189.3196449658
 20
116.0005585953
 30
0.0
 11
-11.7092723497272
 21
24.67718644093742
 31
0.0
210
0.0
220
0.0
230
1.0
 40
0.3419987131
 41
3.310521928178954
 42
4.221709151398943
  0
SPLINE
  5
B3
330
1F
100
AcDbEntity
  8
0
  6
Continuous
 62
     7
370
    15
100
AcDbSpline
210
0.0
220
0.0
230
1.0
 70
     8
 71
     3
 72
    12
 73
     8
 74
     0
 42
0.00000001
 43
0.00000001
 12
1.0
 22
0.0
 32
0.0
 13
1.0
 23
0.0
 33
0.0
 40
0.0
 40
0.0
 40
0.0
 40
0.0
 40
0.4999999999999982
 40
0.4999999999999982
 40
0.7499999999999991
 40
0.7499999999999991
 40
1.0
 40
1.0
 40
1.0
 40
1.0
 10
202.2811585090882
 20
107.9041055972737
 30
0.0
 10
202.250306798524
 20
108.0190085862105
 30
0.0
 10
202.2084139350633
 20
108.1311474822594
 30
0.0
 10
202.1088930572701
 20
108.2830897638603
 30
0.0
 10
202.0692788925458
 20
108.3307543733852
 30
0.0
 10
201.9721758587664
 20
108.4050907040006
 30
0.0
 10
201.911677186116
 20
108.4317486261377
 30
0.0
 10
201.848145807196
 20
108.4317486261377
 30
0.0
  0
LINE
  5
B4
330
1F
100
AcDbEntity
  8
0
  6
Continuous
 62
     7
370
    15
100
AcDbLine
 10
201.8481458072
 20
108.4317486261
 30
0.0
 11
198.9036594343
 21
108.4317486261
 31
0.0
  0
SPLINE
  5
B5
330
1F
100
AcDbEntity
  8
0
  6
Continuous
 62
     7
370
    15
100
AcDbSpline
210
0.0
220
0.0
230
1.0
 70
     8
 71
     3
 72
    12
 73
     8
 74
     0
 42
0.00000001
 43
0.00000001
 12
1.0
 22
0.0
 32
0.0
 13
1.0
 23
0.0
 33
0.0
 40
0.0
 40
0.0
 40
0.0
 40
0.0
 40
0.2500000000000016
 40
0.2500000000000016
 40
0.5000000000000032
 40
0.5000000000000032
 40
1.0
 40
1.0
 40
1.0
 40
1.0
 10
198.9036594343288
 20
108.4317486261373
 30
0.0
 10
198.8400228801152
 20
108.4317486261373
 30
0.0
 10
198.7804427532489
 20
108.4057017230794
 30
0.0
 10
198.6818060118825
 20
108.3302145641795
 30
0.0
 10
198.6428473875023
 20
108.2829955256488
 30
0.0
 10
198.5434684479944
 20
108.1312558745552
 30
0.0
 10
198.5015105428289
 20
108.019053650371
 30
0.0
 10
198.4706467324364
 20
107.9041055972738
 30
0.0
  0
ELLIPSE
  5
B6
330
1F
100
AcDbEntity
  8
0
  6
Continuous
 62
     7
370
    15
100
AcDbEllipse
 10
211.4321602757
 20
116.0005585953
 30
0.0
 11
11.70927234972709
 21
24.67718644093745
 31
0.0
210
0.0
220
0.0
230
1.0
 40
0.3419987131
 41
2.061476155780654
 42
2.972663379000672
  0
ELLIPSE
  5
B7
330
1F
100
AcDbEntity
  8
0
  6
Continuous
 62
     7
370
    15
100
AcDbEllipse
 10
217.8532649418
 20
130.0175510429
 30
0.0
 11
0.206987687708903
 21
3.097652266562762
 31
0.0
210
0.0
220
0.0
230
1.0
 40
0.2251679941
 41
0.0
 42
6.283185307179586
  0
SPLINE
  5
B8
330
1F
100
AcDbEntity
  8
0
  6
Continuous
 62
     7
370
    15
100
AcDbSpline
210
0.0
220
0.0
230
1.0
 70
     8
 71
     3
 72
    16
 73
    12
 74
     0
 42
0.00000001
 43
0.00000001
 12
1.0
 22
0.0
 32
0.0
 13
1.0
 23
0.0
 33
0.0
 40
0.0
 40
0.0
 40
0.0
 40
0.0
 40
0.25
 40
0.25
 40
0.5
 40
0.5
 40
0.6250000000000001
 40
0.6250000000000001
 40
0.7500000000000002
 40
0.7500000000000002
 40
1.0
 40
1.0
 40
1.0
 40
1.0
 10
189.3350415926333
 20
98.65140131412554
 30
0.0
 10
189.366769553826
 20
98.65060419730459
 30
0.0
 10
189.4013971441766
 20
98.65001312244932
 30
0.0
 10
189.4810909062402
 20
98.64900159701487
 30
0.0
 10
189.5261323662439
 20
98.64860148884
 30
0.0
 10
189.6089850930943
 20
98.64764361693615
 30
0.0
 10
189.6388995542942
 20
98.64726193567573
 30
0.0
 10
189.7048858848521
 20
98.6461857216172
 30
0.0
 10
189.7416195103139
 20
98.64546815572305
 30
0.0
 10
189.8541162298837
 20
98.64270727804137
 30
0.0
 10
189.924457577982
 20
98.6402201861698
 30
0.0
 10
189.9809257318872
 20
98.63804690776269
 30
0.0
  0
SPLINE
  5
B9
330
1F
100
AcDbEntity
  8
0
  6
Continuous
 62
     7
370
    15
100
AcDbSpline
210
0.0
220
0.0
230
1.0
 70
     8
 71
     3
 72
    14
 73
    10
 74
     0
 42
0.00000001
 43
0.00000001
 12
1.0
 22
0.0
 32
0.0
 13
1.0
 23
0.0
 33
0.0
 40
0.0
 40
0.0
 40
0.0
 40
0.0
 40
0.1250000000000013
 40
0.1250000000000013
 40
0.2500000000000027
 40
0.2500000000000027
 40
0.499999999999998
 40
0.499999999999998
 40
1.0
 40
1.0
 40
1.0
 40
1.0
 10
189.9809257318555
 20
98.63804690778541
 30
0.0
 10
189.9935175258003
 20
98.63756228996307
 30
0.0
 10
190.0083886340944
 20
98.63585211203073
 30
0.0
 10
190.0405727255275
 20
98.62773656327987
 30
0.0
 10
190.0561768570034
 20
98.62152077501854
 30
0.0
 10
190.0920639967155
 20
98.60330166331696
 30
0.0
 10
190.1059160379841
 20
98.59153663498333
 30
0.0
 10
190.1394057799167
 20
98.55974149856603
 30
0.0
 10
190.1500680404925
 20
98.5419480667229
 30
0.0
 10
190.1582059973874
 20
98.5255169358785
 30
0.0
  0
LINE
  5
BA
330
1F
100
AcDbEntity
  8
0
  6
Continuous
 62
     7
370
    15
100
AcDbLine
 10
190.1759026208
 20
110.0160783627
 30
0.0
 11
190.1759026208
 21
98.1607383164
 31
0.0
  0
SPLINE
  5
BB
330
1F
100
AcDbEntity
  8
0
  6
Continuous
 62
     7
370
    15
100
AcDbSpline
210
0.0
220
0.0
230
1.0
 70
     8
 71
     3
 72
    16
 73
    12
 74
     0
 42
0.00000001
 43
0.00000001
 12
1.0
 22
0.0
 32
0.0
 13
1.0
 23
0.0
 33
0.0
 40
0.0
 40
0.0
 40
0.0
 40
0.0
 40
0.499999999999998
 40
0.499999999999998
 40
0.7499999999999988
 40
0.7499999999999988
 40
0.8749999999999997
 40
0.8749999999999997
 40
0.9374999999999999
 40
0.9374999999999999
 40
1.0
 40
1.0
 40
1.0
 40
1.0
 10
190.1759026207624
 20
110.0160783627435
 30
0.0
 10
190.1759026207624
 20
110.1306080934425
 30
0.0
 10
190.1718453186473
 20
110.245924168632
 30
0.0
 10
190.1461880758525
 20
110.4208472584595
 30
0.0
 10
190.1348726301104
 20
110.4806765614544
 30
0.0
 10
190.1008412628018
 20
110.5652677477026
 30
0.0
 10
190.086962281598
 20
110.5939373338467
 30
0.0
 10
190.0510265998306
 20
110.623745120793
 30
0.0
 10
190.0360762805678
 20
110.6300802741526
 30
0.0
 10
190.006177767826
 20
110.6288548112823
 30
0.0
 10
189.9926449074607
 20
110.6222562252475
 30
0.0
 10
189.9809257318867
 20
110.6136085371911
 30
0.0
  0
SPLINE
  5
BC
330
1F
100
AcDbEntity
  8
0
  6
Continuous
 62
     7
370
    15
100
AcDbSpline
210
0.0
220
0.0
230
1.0
 70
     8
 71
     3
 72
    14
 73
    10
 74
     0
 42
0.00000001
 43
0.00000001
 12
1.0
 22
0.0
 32
0.0
 13
1.0
 23
0.0
 33
0.0
 40
0.0
 40
0.0
 40
0.0
 40
0.0
 40
0.25
 40
0.25
 40
0.5
 40
0.5
 40
0.75
 40
0.75
 40
1.0
 40
1.0
 40
1.0
 40
1.0
 10
189.9809257318936
 20
110.6136085371824
 30
0.0
 10
189.9244660660098
 20
110.5719464274836
 30
0.0
 10
189.8535935911476
 20
110.5411129468954
 30
0.0
 10
189.7051272332657
 20
110.5468274555086
 30
0.0
 10
189.6359320300579
 20
110.5823983829415
 30
0.0
 10
189.5262148439884
 20
110.6693422954154
 30
0.0
 10
189.4809689550563
 20
110.7217746087805
 30
0.0
 10
189.4013518240895
 20
110.830327690299
 30
0.0
 10
189.3667492046326
 20
110.8873107765415
 30
0.0
 10
189.3350415926338
 20
110.9458768591994
 30
0.0
  0
SPLINE
  5
BD
330
1F
100
AcDbEntity
  8
0
  6
Continuous
 62
     7
370
    15
100
AcDbSpline
210
0.0
220
0.0
230
1.0
 70
     8
 71
     3
 72
    10
 73
     6
 74
     0
 42
0.00000001
 43
0.00000001
 12
1.0
 22
0.0
 32
0.0
 13
1.0
 23
0.0
 33
0.0
 40
0.0
 40
0.0
 40
0.0
 40
0.0
 40
0.5
 40
0.5
 40
1.0
 40
1.0
 40
1.0
 40
1.0
 10
189.0545822772028
 20
111.7986954508457
 30
0.0
 10
189.0854608608147
 20
111.649066898986
 30
0.0
 10
189.1214535685381
 20
111.5025714814624
 30
0.0
 10
189.2107938200352
 20
111.2173798429217
 30
0.0
 10
189.2632521228807
 20
111.0784768172057
 30
0.0
 10
189.3350415926339
 20
110.9458768591992
 30
0.0
  0
SPLINE
  5
BE
330
1F
100
AcDbEntity
  8
0
  6
Continuous
 62
     7
370
    15
100
AcDbSpline
210
0.0
220
0.0
230
1.0
 70
     8
 71
     3
 72
    10
 73
     6
 74
     0
 42
0.00000001
 43
0.00000001
 12
1.0
 22
0.0
 32
0.0
 13
1.0
 23
0.0
 33
0.0
 40
0.0
 40
0.0
 40
0.0
 40
0.0
 40
0.5
 40
0.5
 40
1.0
 40
1.0
 40
1.0
 40
1.0
 10
189.3350415926332
 20
121.0552403314357
 30
0.0
 10
189.2632521228803
 20
120.9226403734293
 30
0.0
 10
189.2107938200349
 20
120.7837373477136
 30
0.0
 10
189.121453568538
 20
120.4985457091733
 30
0.0
 10
189.0854608608147
 20
120.3520502916499
 30
0.0
 10
189.0545822772028
 20
120.2024217397905
 30
0.0
  0
SPLINE
  5
BF
330
1F
100
AcDbEntity
  8
0
  6
Continuous
 62
     7
370
    15
100
AcDbSpline
210
0.0
220
0.0
230
1.0
 70
     8
 71
     3
 72
    14
 73
    10
 74
     0
 42
0.00000001
 43
0.00000001
 12
1.0
 22
0.0
 32
0.0
 13
1.0
 23
0.0
 33
0.0
 40
0.0
 40
0.0
 40
0.0
 40
0.0
 40
0.25
 40
0.25
 40
0.5
 40
0.5
 40
0.75
 40
0.75
 40
1.0
 40
1.0
 40
1.0
 40
1.0
 10
189.3350415926325
 20
121.0552403314345
 30
0.0
 10
189.3667502921179
 20
121.1138084227531
 30
0.0
 10
189.4013581107585
 20
121.1708026846931
 30
0.0
 10
189.4810165212478
 20
121.279402819457
 30
0.0
 10
189.5260787911427
 20
121.3317309548356
 30
0.0
 10
189.6366606367211
 20
121.4192319661979
 30
0.0
 10
189.7043047575364
 20
121.4542774224521
 30
0.0
 10
189.8545530479335
 20
121.4600218112082
 30
0.0
 10
189.9245054461639
 20
121.4291417041582
 30
0.0
 10
189.9809257318874
 20
121.3875086534451
 30
0.0
  0
SPLINE
  5
C0
330
1F
100
AcDbEntity
  8
0
  6
Continuous
 62
     7
370
    15
100
AcDbSpline
210
0.0
220
0.0
230
1.0
 70
     8
 71
     3
 72
    16
 73
    12
 74
     0
 42
0.00000001
 43
0.00000001
 12
1.0
 22
0.0
 32
0.0
 13
1.0
 23
0.0
 33
0.0
 40
0.0
 40
0.0
 40
0.0
 40
0.0
 40
0.0624999999999997
 40
0.0624999999999997
 40
0.1249999999999994
 40
0.1249999999999994
 40
0.2499999999999994
 40
0.2499999999999994
 40
0.4999999999999997
 40
0.4999999999999997
 40
1.0
 40
1.0
 40
1.0
 40
1.0
 10
189.9809257318555
 20
121.3875086533917
 30
0.0
 10
189.9926599663024
 20
121.3788498532475
 30
0.0
 10
190.0061917217814
 20
121.3722457680122
 30
0.0
 10
190.0361791822112
 20
121.371048800838
 30
0.0
 10
190.0511738886195
 20
121.3774705479039
 30
0.0
 10
190.0869143110143
 20
121.4071877013132
 30
0.0
 10
190.1009276480155
 20
121.4359950986966
 30
0.0
 10
190.1350717367968
 20
121.5210748203225
 30
0.0
 10
190.1460436409152
 20
121.5794497695922
 30
0.0
 10
190.1718891811815
 20
121.7551652943808
 30
0.0
 10
190.1759026207624
 20
121.8709603022453
 30
0.0
 10
190.1759026207624
 20
121.9850388278927
 30
0.0
  0
LINE
  5
C1
330
1F
100
AcDbEntity
  8
0
  6
Continuous
 62
     7
370
    15
100
AcDbLine
 10
190.1759026208
 20
133.8403788742
 30
0.0
 11
190.1759026208
 21
121.9850388279
 31
0.0
  0
SPLINE
  5
C2
330
1F
100
AcDbEntity
  8
0
  6
Continuous
 62
     7
370
    15
100
AcDbSpline
210
0.0
220
0.0
230
1.0
 70
     8
 71
     3
 72
    16
 73
    12
 74
     0
 42
0.00000001
 43
0.00000001
 12
1.0
 22
0.0
 32
0.0
 13
1.0
 23
0.0
 33
0.0
 40
0.0
 40
0.0
 40
0.0
 40
0.0
 40
0.5000000000000057
 40
0.5000000000000057
 40
0.7500000000000058
 40
0.7500000000000058
 40
0.8750000000000059
 40
0.8750000000000059
 40
0.937500000000003
 40
0.937500000000003
 40
1.0
 40
1.0
 40
1.0
 40
1.0
 10
190.1759026207625
 20
133.5473130609857
 30
0.0
 10
190.1759026207623
 20
133.5252980464063
 30
0.0
 10
190.1717780779083
 20
133.4999444117026
 30
0.0
 10
190.1458616322752
 20
133.4527839095141
 30
0.0
 10
190.1345840512554
 20
133.4355849212853
 30
0.0
 10
190.100848672714
 20
133.4056069557161
 30
0.0
 10
190.0864598574696
 20
133.3942555471742
 30
0.0
 10
190.0512131680306
 20
133.3775676876968
 30
0.0
 10
190.0360077435736
 20
133.3720046608115
 30
0.0
 10
190.0063611644043
 20
133.3650350777764
 30
0.0
 10
189.9926558284068
 20
133.363521736721
 30
0.0
 10
189.9809257318831
 20
133.3630702828711
 30
0.0
  0
SPLINE
  5
C3
330
1F
100
AcDbEntity
  8
0
  6
Continuous
 62
     7
370
    15
100
AcDbSpline
210
0.0
220
0.0
230
1.0
 70
     8
 71
     3
 72
    14
 73
    10
 74
     0
 42
0.00000001
 43
0.00000001
 12
1.0
 22
0.0
 32
0.0
 13
1.0
 23
0.0
 33
0.0
 40
0.0
 40
0.0
 40
0.0
 40
0.0
 40
0.25
 40
0.25
 40
0.5
 40
0.5
 40
0.75
 40
0.75
 40
1.0
 40
1.0
 40
1.0
 40
1.0
 10
189.9809257318936
 20
133.3630702828736
 30
0.0
 10
189.9244786498351
 20
133.3608978154543
 30
0.0
 10
189.8536282657919
 20
133.3583997175369
 30
0.0
 10
189.7051918309749
 20
133.3547532587487
 30
0.0
 10
189.6360025792879
 20
133.3537855118975
 30
0.0
 10
189.5262910310469
 20
133.3525179525348
 30
0.0
 10
189.4810493817045
 20
133.3521151116064
 30
0.0
 10
189.4014013635206
 20
133.3511040766788
 30
0.0
 10
189.3667744477546
 20
133.3505131162842
 30
0.0
 10
189.3350415926332
 20
133.3497158765107
 30
0.0
  0
SPLINE
  5
C4
330
1F
100
AcDbEntity
  8
0
  6
Continuous
 62
     7
370
    15
100
AcDbSpline
210
0.0
220
0.0
230
1.0
 70
     8
 71
     3
 72
    18
 73
    14
 74
     0
 42
0.00000001
 43
0.00000001
 12
1.0
 22
0.0
 32
0.0
 13
1.0
 23
0.0
 33
0.0
 40
0.0
 40
0.0
 40
0.0
 40
0.0
 40
0.2499999999999998
 40
0.2499999999999998
 40
0.3749999999999998
 40
0.3749999999999998
 40
0.4999999999999998
 40
0.4999999999999998
 40
0.6249999999999999
 40
0.6249999999999999
 40
0.75
 40
0.75
 40
1.0
 40
1.0
 40
1.0
 40
1.0
 10
189.0545822772028
 20
120.2024217397905
 30
0.0
 10
188.9192966709004
 20
119.5468674043693
 30
0.0
 10
188.8181289246575
 20
118.8672463105716
 30
0.0
 10
188.7152675817885
 20
117.8118823040776
 30
0.0
 10
188.6891647362652
 20
117.453068239493
 30
0.0
 10
188.6542747527204
 20
116.7269552953701
 30
0.0
 10
188.6456884944304
 20
116.364865616354
 30
0.0
 10
188.6455887848648
 20
115.6425559589356
 30
0.0
 10
188.6540771560133
 20
115.2823361568272
 30
0.0
 10
188.6882205355339
 20
114.5637700877333
 30
0.0
 10
188.7140175173877
 20
114.2040043718179
 30
0.0
 10
188.8174186487757
 20
113.1373597848236
 30
0.0
 10
188.919276640947
 20
112.4543468455412
 30
0.0
 10
189.0545822772028
 20
111.7986954508457
 30
0.0
  0
LINE
  5
C5
330
1F
100
AcDbEntity
  8
0
  6
Continuous
 62
     7
370
    15
100
AcDbLine
 10
188.1759026208
 20
121.1407110831
 30
0.0
 11
188.1759026208
 21
110.8604061075
 31
0.0
  0
LINE
  5
C6
330
1F
100
AcDbEntity
  8
0
  6
Continuous
 62
     7
370
    15
100
AcDbLine
 10
161.8759026208
 20
120.8103373118
 30
0.0
 11
161.8759026208
 21
111.1907798788
 31
0.0
  0
LINE
  5
C7
330
1F
100
AcDbEntity
  8
0
  6
Continuous
 62
     7
370
    15
100
AcDbLine
 10
160.3759026208
 20
120.3773246099
 30
0.0
 11
160.3759026208
 21
111.6237925807
 31
0.0
  0
LINE
  5
C8
330
1F
100
AcDbEntity
  8
0
  6
Continuous
 62
     7
370
    15
100
AcDbLine
 10
161.8759026208
 20
120.8103373118
 30
0.0
 11
161.8759026208
 21
132.8599098373
 31
0.0
  0
LINE
  5
C9
330
1F
100
AcDbEntity
  8
0
  6
Continuous
 62
     7
370
    15
100
AcDbLine
 10
161.8759026208
 20
132.8599098373
 30
0.0
 11
188.1759026208
 21
133.5206573799
 31
0.0
  0
LINE
  5
CA
330
1F
100
AcDbEntity
  8
0
  6
Continuous
 62
     7
370
    15
100
AcDbLine
 10
188.1759026208
 20
121.1407110831
 30
0.0
 11
188.1759026208
 21
133.5206573799
 31
0.0
  0
ARC
  5
CB
330
1F
100
AcDbEntity
  8
0
  6
Continuous
 62
     7
370
    15
100
AcDbCircle
 10
188.3758395317
 20
133.525680491
 30
0.0
 40
0.2000000000000059
100
AcDbArc
 50
181.4391666667
 51
271.4391666667
  0
LINE
  5
CC
330
1F
100
AcDbEntity
  8
0
  6
Continuous
 62
     7
370
    15
100
AcDbLine
 10
188.1759026208
 20
98.4804598108
 30
0.0
 11
188.1759026208
 21
110.8604061075
 31
0.0
  0
ARC
  5
CD
330
1F
100
AcDbEntity
  8
0
  6
Continuous
 62
     7
370
    15
100
AcDbCircle
 10
188.3758395317
 20
98.4754366996
 30
0.0
 40
0.2000000000000059
100
AcDbArc
 50
88.5608333333
 51
178.5608333333
  0
LINE
  5
CE
330
1F
100
AcDbEntity
  8
0
  6
Continuous
 62
     7
370
    15
100
AcDbLine
 10
161.8759026208
 20
99.1412073534
 30
0.0
 11
161.8759026208
 21
111.1907798788
 31
0.0
  0
LINE
  5
CF
330
1F
100
AcDbEntity
  8
0
  6
Continuous
 62
     7
370
    15
100
AcDbLine
 10
161.8759026208
 20
99.1412073534
 30
0.0
 11
188.1759026208
 21
98.4804598108
 31
0.0
  0
LINE
  5
D0
330
1F
100
AcDbEntity
  8
0
  6
Continuous
 62
     7
370
    15
100
AcDbLine
 10
188.3808626428
 20
98.6753736106
 30
0.0
 11
189.3350415926
 21
98.6514013141
 31
0.0
  0
LINE
  5
D1
330
1F
100
AcDbEntity
  8
0
  6
Continuous
 62
     7
370
    15
100
AcDbLine
 10
188.3808626428
 20
133.3257435801
 30
0.0
 11
189.3350415926
 21
133.3497158765
 31
0.0
  0
LINE
  5
D2
330
1F
100
AcDbEntity
  8
0
  6
Continuous
 62
     7
370
    15
100
AcDbLine
 10
160.3759026208
 20
100.0072327572
 30
0.0
 11
161.8759026208
 21
99.1412073534
 31
0.0
  0
LINE
  5
D3
330
1F
100
AcDbEntity
  8
0
  6
Continuous
 62
     7
370
    15
100
AcDbLine
 10
160.3759026208
 20
100.0072327572
 30
0.0
 11
160.3759026208
 21
111.6237925807
 31
0.0
  0
LINE
  5
D4
330
1F
100
AcDbEntity
  8
0
  6
Continuous
 62
     7
370
    15
100
AcDbLine
 10
160.3759026208
 20
131.9938844335
 30
0.0
 11
161.8759026208
 21
132.8599098373
 31
0.0
  0
LINE
  5
D5
330
1F
100
AcDbEntity
  8
0
  6
Continuous
 62
     7
370
    15
100
AcDbLine
 10
160.3759026208
 20
120.3773246099
 30
0.0
 11
160.3759026208
 21
131.9938844335
 31
0.0
  0
SPLINE
  5
D6
330
1F
100
AcDbEntity
  8
0
  6
Continuous
 62
     7
370
    15
100
AcDbSpline
210
0.0
220
0.0
230
1.0
 70
     8
 71
     3
 72
     8
 73
     4
 74
     0
 42
0.00000001
 43
0.00000001
 12
1.0
 22
0.0
 32
0.0
 13
1.0
 23
0.0
 33
0.0
 40
0.0
 40
0.0
 40
0.0
 40
0.0
 40
1.0
 40
1.0
 40
1.0
 40
1.0
 10
222.6085756327834
 20
140.9987681268466
 30
0.0
 10
222.6315960547723
 20
140.9987617597318
 30
0.0
 10
222.6548332213415
 20
140.9995618513199
 30
0.0
 10
222.6778835846993
 20
141.001163391013
 30
0.0
  0
ELLIPSE
  5
D7
330
1F
100
AcDbEntity
  8
0
  6
Continuous
 62
     7
370
    15
100
AcDbEllipse
 10
222.6778835847
 20
93.2686106922
 30
0.0
 11
2.989902051179399
 21
4.280999517015445
 31
0.0
210
0.0
220
0.0
230
1.0
 40
0.05744884
 41
1.488724736779499
 42
2.168017764231899
  0
LINE
  5
D8
330
1F
100
AcDbEntity
  8
0
  6
Continuous
 62
     7
370
    15
100
AcDbLine
 10
234.9343679988
 20
143.7486755926
 30
0.0
 11
232.6230113594
 21
143.627542524
 31
0.0
  0
ARC
  5
D9
330
1F
100
AcDbEntity
  8
0
  6
Continuous
 62
     7
370
    15
100
AcDbCircle
 10
232.7023758276
 20
142.1131782586
 30
0.0
 40
1.516442497159302
100
AcDbArc
 50
93.0
 51
273.0
  0
LINE
  5
DA
330
1F
100
AcDbEntity
  8
0
  6
Continuous
 62
     7
370
    15
100
AcDbLine
 10
232.7817402958
 20
140.5988139931
 30
0.0
 11
233.5453378642
 21
140.638832446
 31
0.0
  0
ELLIPSE
  5
DB
330
1F
100
AcDbEntity
  8
0
  6
Continuous
 62
     7
370
    15
100
AcDbEllipse
 10
268.4742441108
 20
130.7480462203
 30
0.0
 11
26.19525546193006
 21
0.0
 31
1.894873147278986E-13
210
-7.233650193000912E-15
220
0.0
230
1.0
 40
0.9925461516
 41
2.727363149086794
 42
3.141592653589793
  0
LINE
  5
DC
330
1F
100
AcDbEntity
  8
0
  6
Continuous
 62
     7
370
    15
100
AcDbLine
 10
242.2789886488
 20
130.7480462203
 30
0.0
 11
242.2789886488
 21
121.5753745414
 31
0.0
  0
LINE
  5
DD
330
1F
100
AcDbEntity
  8
0
  6
Continuous
 62
     7
370
    15
100
AcDbLine
 10
238.8521622227
 20
150.0184569668
 30
0.0
 11
225.6066006186
 21
149.3242864978
 31
0.0
  0
LINE
  5
DE
330
1F
100
AcDbEntity
  8
0
  6
Continuous
 62
     7
370
    15
100
AcDbLine
 10
223.5745014591
 20
141.7399913193
 30
0.0
 11
225.6066006186
 21
149.3242864978
 31
0.0
  0
SPLINE
  5
DF
330
1F
100
AcDbEntity
  8
0
  6
Continuous
 62
     7
370
    15
100
AcDbSpline
210
0.0
220
0.0
230
1.0
 70
     8
 71
     3
 72
    10
 73
     6
 74
     0
 42
0.00000001
 43
0.00000001
 12
1.0
 22
0.0
 32
0.0
 13
1.0
 23
0.0
 33
0.0
 40
0.0
 40
0.0
 40
0.0
 40
0.0
 40
0.5
 40
0.5
 40
1.0
 40
1.0
 40
1.0
 40
1.0
 10
222.6778835846993
 20
141.001163391013
 30
0.0
 10
222.8842995784283
 20
141.0155051782601
 30
0.0
 10
223.0852476421881
 20
141.0955120807614
 30
0.0
 10
223.4053502775483
 20
141.3598529570896
 30
0.0
 10
223.5208333295759
 20
141.5396855293667
 30
0.0
 10
223.5745014590725
 20
141.7399913193075
 30
0.0
  0
LINE
  5
E0
330
1F
100
AcDbEntity
  8
0
  6
Continuous
 62
     7
370
    15
100
AcDbLine
 10
242.2789886488
 20
121.5753745414
 30
0.0
 11
222.6778835847
 21
93.7907530718
 31
0.0
  0
LINE
  5
E1
330
1F
100
AcDbEntity
  8
0
  6
Continuous
 62
     7
370
    15
100
AcDbLine
 10
232.7677957729
 20
140.8648913401
 30
0.0
 11
233.3104389721
 21
140.8933300651
 31
0.0
  0
LINE
  5
E2
330
1F
100
AcDbEntity
  8
0
  6
Continuous
 62
     7
370
    15
100
AcDbLine
 10
232.6369558823
 20
143.361465177
 30
0.0
 11
234.7620031576
 21
143.4728341856
 31
0.0
  0
ARC
  5
E3
330
1F
100
AcDbEntity
  8
0
  6
Continuous
 62
     7
370
    15
100
AcDbCircle
 10
232.7023758276
 20
142.1131782586
 30
0.0
 40
1.250000000000012
100
AcDbArc
 50
93.0
 51
273.0
  0
LINE
  5
E4
330
1F
100
AcDbEntity
  8
0
  6
HIDDEN
 62
     7
370
     0
100
AcDbLine
 10
190.3759026208
 20
140.7005585913
 30
0.0
 11
190.3759026208
 21
91.3005585953
 31
0.0
  0
ELLIPSE
  5
E5
330
1F
100
AcDbEntity
  8
0
  6
HIDDEN
 62
     7
370
     0
100
AcDbEllipse
 10
238.3829810524
 20
116.0005585953
 30
0.0
 11
17.78525842695177
 21
24.95772869071248
 31
0.0
210
0.0
220
0.0
230
1.0
 40
0.0817078932
 41
2.534953689145318
 42
3.199753277442024
  0
SPLINE
  5
E6
330
1F
100
AcDbEntity
  8
0
  6
HIDDEN
 62
     7
370
     0
100
AcDbSpline
210
0.0
220
0.0
230
1.0
 70
     8
 71
     3
 72
    58
 73
    54
 74
     0
 42
0.00000001
 43
0.00000001
 12
1.0
 22
0.0
 32
0.0
 13
1.0
 23
0.0
 33
0.0
 40
-0.0625
 40
-0.0625
 40
0.0
 40
0.0
 40
0.03125
 40
0.03125
 40
0.0625
 40
0.0625
 40
0.09375
 40
0.09375
 40
0.1250000000000001
 40
0.1250000000000001
 40
0.1875000000000001
 40
0.1875000000000001
 40
0.2500000000000001
 40
0.2500000000000001
 40
0.2812500000000001
 40
0.2812500000000001
 40
0.3125
 40
0.3125
 40
0.34375
 40
0.34375
 40
0.3749999999999999
 40
0.3749999999999999
 40
0.4062499999999999
 40
0.4062499999999999
 40
0.4374999999999998
 40
0.4374999999999998
 40
0.4687499999999998
 40
0.4687499999999998
 40
0.4999999999999998
 40
0.4999999999999998
 40
0.5624999999999998
 40
0.5624999999999998
 40
0.6249999999999998
 40
0.6249999999999998
 40
0.6562499999999999
 40
0.6562499999999999
 40
0.6874999999999999
 40
0.6874999999999999
 40
0.7187499999999999
 40
0.7187499999999999
 40
0.7499999999999999
 40
0.7499999999999999
 40
0.7812499999999999
 40
0.7812499999999999
 40
0.8124999999999999
 40
0.8124999999999999
 40
0.8437499999999999
 40
0.8437499999999999
 40
0.8749999999999999
 40
0.8749999999999999
 40
0.9375
 40
0.9375
 40
1.0
 40
1.0
 40
1.03125
 40
1.03125
 10
204.3759026207624
 20
115.7361862247746
 30
0.0
 10
204.3759026207624
 20
116.1327447805898
 30
0.0
 10
204.3629267287519
 20
116.2627115201346
 30
0.0
 10
204.312094426646
 20
116.5183908582667
 30
0.0
 10
204.2736173553246
 20
116.6454319501081
 30
0.0
 10
204.1732123941682
 20
116.8876101360487
 30
0.0
 10
204.1117781518489
 20
117.0024637946382
 30
0.0
 10
203.9666438856672
 20
117.219828916444
 30
0.0
 10
203.8822019645199
 20
117.3227043885283
 30
0.0
 10
203.60552993491
 20
117.5993223409454
 30
0.0
 10
203.3824837799418
 20
117.7483144607783
 30
0.0
 10
202.9012197813973
 20
117.9478382557696
 30
0.0
 10
202.6379619260775
 20
118.0004171202718
 30
0.0
 10
202.2464958947927
 20
118.0006288938594
 30
0.0
 10
202.1139471511792
 20
117.98763792227
 30
0.0
 10
201.857402842164
 20
117.9366016989802
 30
0.0
 10
201.7327069557923
 20
117.8988401575773
 30
0.0
 10
201.4905039853585
 20
117.7986806182839
 30
0.0
 10
201.3734406221079
 20
117.7360828085334
 30
0.0
 10
201.1567543028618
 20
117.5913608244978
 30
0.0
 10
201.0557403347941
 20
117.5087367193295
 30
0.0
 10
200.8689471405086
 20
117.3221163487185
 30
0.0
 10
200.7861467765543
 20
117.2210679808273
 30
0.0
 10
200.6412683376597
 20
117.0045559599534
 30
0.0
 10
200.5786175543323
 20
116.8876666047545
 30
0.0
 10
200.4781771599584
 20
116.6454092026955
 30
0.0
 10
200.4403181481885
 20
116.5207465378802
 30
0.0
 10
200.389080443725
 20
116.2644153422254
 30
0.0
 10
200.3759500689519
 20
116.131827402875
 30
0.0
 10
200.375808118513
 20
115.7401957343056
 30
0.0
 10
200.428149034761
 20
115.4769829012714
 30
0.0
 10
200.6272792614992
 20
114.9954755705801
 30
0.0
 10
200.7761163491414
 20
114.7722750893045
 30
0.0
 10
201.0524283856808
 20
114.4954290093428
 30
0.0
 10
201.1551939229321
 20
114.410916915124
 30
0.0
 10
201.3725108552859
 20
114.2655383183925
 30
0.0
 10
201.4872977658228
 20
114.2040228867907
 30
0.0
 10
201.7292172559287
 20
114.1034668265451
 30
0.0
 10
201.8563441584287
 20
114.0648281007105
 30
0.0
 10
202.1120129940649
 20
114.0137632338231
 30
0.0
 10
202.2419081994428
 20
114.0006887534469
 30
0.0
 10
202.5059829818672
 20
114.0004303521732
 30
0.0
 10
202.6363121213525
 20
114.0133064201362
 30
0.0
 10
202.8920014354964
 20
114.0639052114642
 30
0.0
 10
203.0189293018841
 20
114.1022105573018
 30
0.0
 10
203.2613815907262
 20
114.2024663897217
 30
0.0
 10
203.3762982847078
 20
114.2638174086338
 30
0.0
 10
203.5936890764783
 20
114.408686244204
 30
0.0
 10
203.6966743561598
 20
114.4930501974733
 30
0.0
 10
203.9736387238171
 20
114.7695762512594
 30
0.0
 10
204.1227710021756
 20
114.9924360932551
 30
0.0
 10
204.32272312089
 20
115.4735386133159
 30
0.0
 10
204.3759026207624
 20
115.7361862247746
 30
0.0
 10
204.3759026207624
 20
116.1327447805898
 30
0.0
  0
SPLINE
  5
E7
330
1F
100
AcDbEntity
  8
0
  6
HIDDEN
 62
     7
370
     0
100
AcDbSpline
210
0.0
220
0.0
230
1.0
 70
     8
 71
     3
 72
    12
 73
     8
 74
     0
 42
0.00000001
 43
0.00000001
 12
1.0
 22
0.0
 32
0.0
 13
1.0
 23
0.0
 33
0.0
 40
0.0
 40
0.0
 40
0.0
 40
0.0
 40
0.5000000000000032
 40
0.5000000000000032
 40
0.7500000000000016
 40
0.7500000000000016
 40
1.0
 40
1.0
 40
1.0
 40
1.0
 10
198.4706467324366
 20
107.9041055972739
 30
0.0
 10
198.5013461158039
 20
108.0184412643377
 30
0.0
 10
198.5426961839104
 20
108.1297946171791
 30
0.0
 10
198.6424521121299
 20
108.2825313894278
 30
0.0
 10
198.6821490298626
 20
108.33039127528
 30
0.0
 10
198.7794071815102
 20
108.4049943886294
 30
0.0
 10
198.8401833395009
 20
108.4317486261375
 30
0.0
 10
198.9036594343288
 20
108.4317486261375
 30
0.0
  0
LINE
  5
E8
330
1F
100
AcDbEntity
  8
0
  6
HIDDEN
 62
     7
370
     0
100
AcDbLine
 10
198.9036594343
 20
108.4317486261
 30
0.0
 11
201.8481458072
 21
108.4317486261
 31
0.0
  0
SPLINE
  5
E9
330
1F
100
AcDbEntity
  8
0
  6
HIDDEN
 62
     7
370
     0
100
AcDbSpline
210
0.0
220
0.0
230
1.0
 70
     8
 71
     3
 72
    12
 73
     8
 74
     0
 42
0.00000001
 43
0.00000001
 12
1.0
 22
0.0
 32
0.0
 13
1.0
 23
0.0
 33
0.0
 40
0.0
 40
0.0
 40
0.0
 40
0.0
 40
0.2499999999999993
 40
0.2499999999999993
 40
0.4999999999999987
 40
0.4999999999999987
 40
1.0
 40
1.0
 40
1.0
 40
1.0
 10
201.8481458071959
 20
108.4317486261375
 30
0.0
 10
201.9118110437264
 20
108.4317486261375
 30
0.0
 10
201.9714172759498
 20
108.4056764776578
 30
0.0
 10
202.0700778008807
 20
108.3301377268367
 30
0.0
 10
202.1090447908959
 20
108.2828867897405
 30
0.0
 10
202.2084316228204
 20
108.131062971774
 30
0.0
 10
202.2505078702438
 20
108.018259722009
 30
0.0
 10
202.2811585090882
 20
107.9041055972739
 30
0.0
  0
ELLIPSE
  5
EA
330
1F
100
AcDbEntity
  8
0
  6
HIDDEN
 62
     7
370
     0
100
AcDbEllipse
 10
189.3196449658
 20
116.0005585953
 30
0.0
 11
-11.70927234972715
 21
24.67718644093742
 31
0.0
210
0.0
220
0.0
230
1.0
 40
0.3419987131
 41
3.31052192817896
 42
4.221709151398948
  0
SPLINE
  5
EB
330
1F
100
AcDbEntity
  8
0
  6
HIDDEN
 62
     7
370
     0
100
AcDbSpline
210
0.0
220
0.0
230
1.0
 70
     8
 71
     3
 72
    12
 73
     8
 74
     0
 42
0.00000001
 43
0.00000001
 12
1.0
 22
0.0
 32
0.0
 13
1.0
 23
0.0
 33
0.0
 40
0.0
 40
0.0
 40
0.0
 40
0.0
 40
0.4999999999999982
 40
0.4999999999999982
 40
0.7499999999999991
 40
0.7499999999999991
 40
1.0
 40
1.0
 40
1.0
 40
1.0
 10
202.2811585090882
 20
92.3479171180865
 30
0.0
 10
202.2504591257209
 20
92.30877927569058
 30
0.0
 10
202.2091090576143
 20
92.2716194929651
 30
0.0
 10
202.1093531293949
 20
92.22168298733736
 30
0.0
 10
202.0696562116622
 20
92.2062301171936
 30
0.0
 10
201.9723980600145
 20
92.18231057359458
 30
0.0
 10
201.9116219020239
 20
92.17382747981617
 30
0.0
 10
201.8481458071959
 20
92.17382747981617
 30
0.0
  0
LINE
  5
EC
330
1F
100
AcDbEntity
  8
0
  6
HIDDEN
 62
     7
370
     0
100
AcDbLine
 10
201.8481458072
 20
92.1738274798
 30
0.0
 11
198.9036594343
 21
92.1738274798
 31
0.0
  0
SPLINE
  5
ED
330
1F
100
AcDbEntity
  8
0
  6
HIDDEN
 62
     7
370
     0
100
AcDbSpline
210
0.0
220
0.0
230
1.0
 70
     8
 71
     3
 72
    12
 73
     8
 74
     0
 42
0.00000001
 43
0.00000001
 12
1.0
 22
0.0
 32
0.0
 13
1.0
 23
0.0
 33
0.0
 40
0.0
 40
0.0
 40
0.0
 40
0.0
 40
0.25
 40
0.25
 40
0.5
 40
0.5
 40
1.0
 40
1.0
 40
1.0
 40
1.0
 10
198.9036594343288
 20
92.17382747981617
 30
0.0
 10
198.8399941977983
 20
92.17382747981617
 30
0.0
 10
198.780387965575
 20
92.18209225548202
 30
0.0
 10
198.6817274406441
 20
92.20631103706518
 30
0.0
 10
198.6427604506289
 20
92.22156835637432
 30
0.0
 10
198.5433736187044
 20
92.27120171063626
 30
0.0
 10
198.5012973712809
 20
92.30884141881036
 30
0.0
 10
198.4706467324366
 20
92.34791711808651
 30
0.0
  0
ELLIPSE
  5
EE
330
1F
100
AcDbEntity
  8
0
  6
HIDDEN
 62
     7
370
     0
100
AcDbEllipse
 10
211.4321602757
 20
116.0005585953
 30
0.0
 11
11.70927234972703
 21
24.67718644093745
 31
0.0
210
0.0
220
0.0
230
1.0
 40
0.3419987131
 41
2.061476155780649
 42
2.972663379000665
  0
SPLINE
  5
EF
330
1F
100
AcDbEntity
  8
0
  6
HIDDEN
 62
     7
370
     0
100
AcDbSpline
210
0.0
220
0.0
230
1.0
 70
     8
 71
     3
 72
    12
 73
     8
 74
     0
 42
0.00000001
 43
0.00000001
 12
1.0
 22
0.0
 32
0.0
 13
1.0
 23
0.0
 33
0.0
 40
0.0
 40
0.0
 40
0.0
 40
0.0
 40
0.5000000000000018
 40
0.5000000000000018
 40
0.7500000000000009
 40
0.7500000000000009
 40
1.0
 40
1.0
 40
1.0
 40
1.0
 10
198.4706467324366
 20
139.6532000725498
 30
0.0
 10
198.5013461158039
 20
139.6923379149457
 30
0.0
 10
198.5426961839104
 20
139.7294976976712
 30
0.0
 10
198.6424521121299
 20
139.7794342032989
 30
0.0
 10
198.6821490298626
 20
139.7948870734427
 30
0.0
 10
198.7794071815102
 20
139.8188066170418
 30
0.0
 10
198.8401833395009
 20
139.8272897108201
 30
0.0
 10
198.9036594343288
 20
139.8272897108201
 30
0.0
  0
LINE
  5
F0
330
1F
100
AcDbEntity
  8
0
  6
HIDDEN
 62
     7
370
     0
100
AcDbLine
 10
198.9036594343
 20
139.8272897108
 30
0.0
 11
201.8481458072
 21
139.8272897108
 31
0.0
  0
SPLINE
  5
F1
330
1F
100
AcDbEntity
  8
0
  6
HIDDEN
 62
     7
370
     0
100
AcDbSpline
210
0.0
220
0.0
230
1.0
 70
     8
 71
     3
 72
    12
 73
     8
 74
     0
 42
0.00000001
 43
0.00000001
 12
1.0
 22
0.0
 32
0.0
 13
1.0
 23
0.0
 33
0.0
 40
0.0
 40
0.0
 40
0.0
 40
0.0
 40
0.2500000000000009
 40
0.2500000000000009
 40
0.5000000000000019
 40
0.5000000000000019
 40
1.0
 40
1.0
 40
1.0
 40
1.0
 10
201.8481458071959
 20
139.8272897108201
 30
0.0
 10
201.9118110437265
 20
139.8272897108201
 30
0.0
 10
201.9714172759498
 20
139.8190249351543
 30
0.0
 10
202.0700778008807
 20
139.7948061535711
 30
0.0
 10
202.1090447908959
 20
139.779548834262
 30
0.0
 10
202.2084316228204
 20
139.72991548
 30
0.0
 10
202.2505078702438
 20
139.6922757718259
 30
0.0
 10
202.2811585090882
 20
139.6532000725498
 30
0.0
  0
ELLIPSE
  5
F2
330
1F
100
AcDbEntity
  8
0
  6
HIDDEN
 62
     7
370
     0
100
AcDbEllipse
 10
189.3196449658
 20
116.0005585953
 30
0.0
 11
11.70927234972726
 21
24.67718644093742
 31
0.0
210
0.0
220
0.0
230
1.0
 40
0.3419987131
 41
5.203068809370469
 42
6.114256032590513
  0
SPLINE
  5
F3
330
1F
100
AcDbEntity
  8
0
  6
HIDDEN
 62
     7
370
     0
100
AcDbSpline
210
0.0
220
0.0
230
1.0
 70
     8
 71
     3
 72
    12
 73
     8
 74
     0
 42
0.00000001
 43
0.00000001
 12
1.0
 22
0.0
 32
0.0
 13
1.0
 23
0.0
 33
0.0
 40
0.0
 40
0.0
 40
0.0
 40
0.0
 40
0.5000000000000013
 40
0.5000000000000013
 40
0.7500000000000007
 40
0.7500000000000007
 40
1.0
 40
1.0
 40
1.0
 40
1.0
 10
202.2811585090882
 20
124.0970115933627
 30
0.0
 10
202.2504591257209
 20
123.9826759262988
 30
0.0
 10
202.2091090576143
 20
123.8713225734574
 30
0.0
 10
202.1093531293949
 20
123.7185858012087
 30
0.0
 10
202.0696562116622
 20
123.6707259153566
 30
0.0
 10
201.9723980600145
 20
123.5961228020071
 30
0.0
 10
201.9116219020239
 20
123.569368564499
 30
0.0
 10
201.8481458071959
 20
123.569368564499
 30
0.0
  0
LINE
  5
F4
330
1F
100
AcDbEntity
  8
0
  6
HIDDEN
 62
     7
370
     0
100
AcDbLine
 10
201.8481458072
 20
123.5693685645
 30
0.0
 11
198.9036594343
 21
123.5693685645
 31
0.0
  0
SPLINE
  5
F5
330
1F
100
AcDbEntity
  8
0
  6
HIDDEN
 62
     7
370
     0
100
AcDbSpline
210
0.0
220
0.0
230
1.0
 70
     8
 71
     3
 72
    12
 73
     8
 74
     0
 42
0.00000001
 43
0.00000001
 12
1.0
 22
0.0
 32
0.0
 13
1.0
 23
0.0
 33
0.0
 40
0.0
 40
0.0
 40
0.0
 40
0.0
 40
0.2499999999999993
 40
0.2499999999999993
 40
0.4999999999999987
 40
0.4999999999999987
 40
1.0
 40
1.0
 40
1.0
 40
1.0
 10
198.9036594343288
 20
123.569368564499
 30
0.0
 10
198.8399941977983
 20
123.569368564499
 30
0.0
 10
198.780387965575
 20
123.5954407129787
 30
0.0
 10
198.6817274406441
 20
123.6709794637998
 30
0.0
 10
198.6427604506289
 20
123.718230400896
 30
0.0
 10
198.5433736187044
 20
123.8700542188625
 30
0.0
 10
198.5012973712809
 20
123.9828574686276
 30
0.0
 10
198.4706467324366
 20
124.0970115933626
 30
0.0
  0
ELLIPSE
  5
F6
330
1F
100
AcDbEntity
  8
0
  6
HIDDEN
 62
     7
370
     0
100
AcDbEllipse
 10
211.4321602757
 20
116.0005585953
 30
0.0
 11
-11.70927234972711
 21
24.67718644093745
 31
0.0
210
0.0
220
0.0
230
1.0
 40
0.3419987131
 41
0.168929274589117
 42
1.080116497809134
  0
LWPOLYLINE
  5
F7
330
1F
100
AcDbEntity
  8
0
  6
HIDDEN
 62
     7
370
     0
100
AcDbPolyline
 90
       32
 70
   128
 43
0.0
 10
208.3759026208
 20
128.3200729294
 10
208.979798181
 20
128.268570022
 10
209.5589701861
 20
128.116169835
 10
210.089707266
 20
127.8691116497
 10
210.5502809824
 20
127.5375100575
 10
210.9218353932
 20
127.1349408665
 10
211.1891590172
 20
126.6778853065
 10
211.3413075937
 20
126.1850552861
 10
211.3720521423
 20
125.676627324
 10
211.2801339774
 20
125.1734165208
 10
211.0693162395
 20
124.696024386
 10
210.7482298316
 20
124.2639954095
 10
210.3300200689
 20
123.8950169085
 10
209.8318085084
 20
123.6041949062
 10
209.2739919897
 20
123.4034356894
 10
208.6794075867
 20
123.3009583641
 10
208.0723976548
 20
123.3009583641
 10
207.4778132518
 20
123.4034356894
 10
206.9199967332
 20
123.6041949062
 10
206.4217851726
 20
123.8950169085
 10
206.0035754099
 20
124.2639954095
 10
205.6824890021
 20
124.696024386
 10
205.4716712642
 20
125.1734165208
 10
205.3797530992
 20
125.676627324
 10
205.4104976478
 20
126.1850552861
 10
205.5626462243
 20
126.6778853065
 10
205.8299698483
 20
127.1349408665
 10
206.2015242591
 20
127.5375100575
 10
206.6620979755
 20
127.8691116497
 10
207.1928350554
 20
128.116169835
 10
207.7720070605
 20
128.268570022
 10
208.3759026208
 20
128.3200729294
  0
LINE
  5
F8
330
1F
100
AcDbEntity
  8
0
  6
HIDDEN
 62
     7
370
     0
100
AcDbLine
 10
190.3759026208
 20
96.4505585953
 30
0.0
 11
190.3759026208
 21
135.5351023111
 31
0.0
  0
SPLINE
  5
F9
330
1F
100
AcDbEntity
  8
0
  6
HIDDEN
 62
     7
370
     0
100
AcDbSpline
210
0.0
220
0.0
230
1.0
 70
     8
 71
     3
 72
    14
 73
    10
 74
     0
 42
0.00000001
 43
0.00000001
 12
1.0
 22
0.0
 32
0.0
 13
1.0
 23
0.0
 33
0.0
 40
0.0
 40
0.0
 40
0.0
 40
0.0
 40
0.25
 40
0.25
 40
0.5
 40
0.5
 40
0.75
 40
0.75
 40
1.0
 40
1.0
 40
1.0
 40
1.0
 10
189.335041592634
 20
128.2950341403915
 30
0.0
 10
189.3667567269647
 20
128.2372509580484
 30
0.0
 10
189.4013712522651
 20
128.1808382969734
 30
0.0
 10
189.4810424476804
 20
128.073238846958
 30
0.0
 10
189.5260983247109
 20
128.021326220037
 30
0.0
 10
189.6366527372163
 20
127.9351275953397
 30
0.0
 10
189.7040381514204
 20
127.901038175368
 30
0.0
 10
189.8546676713185
 20
127.8989357833512
 30
0.0
 10
189.9244949080839
 20
127.9323075561959
 30
0.0
 10
189.9809257318873
 20
127.9761202247466
 30
0.0
  0
SPLINE
  5
FA
330
1F
100
AcDbEntity
  8
0
  6
HIDDEN
 62
     7
370
     0
100
AcDbSpline
210
0.0
220
0.0
230
1.0
 70
     8
 71
     3
 72
    16
 73
    12
 74
     0
 42
0.00000001
 43
0.00000001
 12
1.0
 22
0.0
 32
0.0
 13
1.0
 23
0.0
 33
0.0
 40
0.0
 40
0.0
 40
0.0
 40
0.0
 40
0.0624999999999998
 40
0.0624999999999998
 40
0.1249999999999997
 40
0.1249999999999997
 40
0.2499999999999972
 40
0.2499999999999972
 40
0.4999999999999964
 40
0.4999999999999964
 40
1.0
 40
1.0
 40
1.0
 40
1.0
 10
189.9809257318555
 20
127.9761202247772
 30
0.0
 10
189.9926599663024
 20
127.9852306380251
 30
0.0
 10
190.0061917217814
 20
127.9933079939715
 30
0.0
 10
190.0361791822112
 20
128.0015548356485
 30
0.0
 10
190.0511738886195
 20
128.0006275180609
 30
0.0
 10
190.0869143110143
 20
127.9878609985291
 30
0.0
 10
190.1009276480155
 20
127.9702123520187
 30
0.0
 10
190.1350717367968
 20
127.9155594319872
 30
0.0
 10
190.1460436409152
 20
127.8741597643287
 30
0.0
 10
190.1718891811815
 20
127.7456700206059
 30
0.0
 10
190.1759026207624
 20
127.6550519329672
 30
0.0
 10
190.1759026207624
 20
127.5628328284132
 30
0.0
  0
LINE
  5
FB
330
1F
100
AcDbEntity
  8
0
  6
HIDDEN
 62
     7
370
     0
100
AcDbLine
 10
190.1759026208
 20
104.4382843622
 30
0.0
 11
190.1759026208
 21
127.5628328284
 31
0.0
  0
SPLINE
  5
FC
330
1F
100
AcDbEntity
  8
0
  6
HIDDEN
 62
     7
370
     0
100
AcDbSpline
210
0.0
220
0.0
230
1.0
 70
     8
 71
     3
 72
    16
 73
    12
 74
     0
 42
0.00000001
 43
0.00000001
 12
1.0
 22
0.0
 32
0.0
 13
1.0
 23
0.0
 33
0.0
 40
0.0
 40
0.0
 40
0.0
 40
0.0
 40
0.5000000000000027
 40
0.5000000000000027
 40
0.750000000000004
 40
0.750000000000004
 40
0.8750000000000021
 40
0.8750000000000021
 40
0.9375000000000011
 40
0.9375000000000011
 40
1.0
 40
1.0
 40
1.0
 40
1.0
 10
190.1759026207624
 20
104.438284362223
 30
0.0
 10
190.1759026207624
 20
104.3457005113191
 30
0.0
 10
190.1718453186473
 20
104.2554880554589
 30
0.0
 10
190.1461880758525
 20
104.1275469283405
 30
0.0
 10
190.1348726301104
 20
104.0851337139286
 30
0.0
 10
190.1008412628018
 20
104.0308196704774
 30
0.0
 10
190.086962281598
 20
104.0132383350876
 30
0.0
 10
190.0510265998306
 20
104.0004546471526
 30
0.0
 10
190.0360762805679
 20
103.9995791490045
 30
0.0
 10
190.006177767826
 20
104.0078245841239
 30
0.0
 10
189.9926449074608
 20
104.0158982442956
 30
0.0
 10
189.9809257318867
 20
104.0249969658897
 30
0.0
  0
SPLINE
  5
FD
330
1F
100
AcDbEntity
  8
0
  6
HIDDEN
 62
     7
370
     0
100
AcDbSpline
210
0.0
220
0.0
230
1.0
 70
     8
 71
     3
 72
    14
 73
    10
 74
     0
 42
0.00000001
 43
0.00000001
 12
1.0
 22
0.0
 32
0.0
 13
1.0
 23
0.0
 33
0.0
 40
0.0
 40
0.0
 40
0.0
 40
0.0
 40
0.25
 40
0.25
 40
0.5
 40
0.5
 40
0.75
 40
0.75
 40
1.0
 40
1.0
 40
1.0
 40
1.0
 10
189.9809257318936
 20
104.0249969658982
 30
0.0
 10
189.9244699672848
 20
104.068828998393
 30
0.0
 10
189.8536043410349
 20
104.1021600348148
 30
0.0
 10
189.7051472598623
 20
104.1001010246674
 30
0.0
 10
189.6359539005548
 20
104.0655050002657
 30
0.0
 10
189.5262384624206
 20
103.9798396436029
 30
0.0
 10
189.4809938830892
 20
103.9278171988949
 30
0.0
 10
189.4013671736654
 20
103.8202689385649
 30
0.0
 10
189.366757025132
 20
103.7638667758319
 30
0.0
 10
189.3350415926328
 20
103.7060830502424
 30
0.0
  0
SPLINE
  5
FE
330
1F
100
AcDbEntity
  8
0
  6
HIDDEN
 62
     7
370
     0
100
AcDbSpline
210
0.0
220
0.0
230
1.0
 70
     8
 71
     3
 72
    10
 73
     6
 74
     0
 42
0.00000001
 43
0.00000001
 12
1.0
 22
0.0
 32
0.0
 13
1.0
 23
0.0
 33
0.0
 40
0.0
 40
0.0
 40
0.0
 40
0.0
 40
0.5
 40
0.5
 40
1.0
 40
1.0
 40
1.0
 40
1.0
 10
189.3350415926333
 20
103.7060830502434
 30
0.0
 10
189.2632618047099
 20
103.5753043333415
 30
0.0
 10
189.2108022904018
 20
103.4412041838383
 30
0.0
 10
189.1214592263006
 20
103.1731116208496
 30
0.0
 10
189.0854636168009
 20
103.0388662492607
 30
0.0
 10
189.0545822772028
 20
102.9055118717856
 30
0.0
  0
SPLINE
  5
FF
330
1F
100
AcDbEntity
  8
0
  6
HIDDEN
 62
     7
370
     0
100
AcDbSpline
210
0.0
220
0.0
230
1.0
 70
     8
 71
     3
 72
    10
 73
     6
 74
     0
 42
0.00000001
 43
0.00000001
 12
1.0
 22
0.0
 32
0.0
 13
1.0
 23
0.0
 33
0.0
 40
0.0
 40
0.0
 40
0.0
 40
0.0
 40
0.5
 40
0.5
 40
1.0
 40
1.0
 40
1.0
 40
1.0
 10
189.0545822772028
 20
98.70364872731328
 30
0.0
 10
189.085455309015
 20
98.68736557994616
 30
0.0
 10
189.121442171928
 20
98.67510799022057
 30
0.0
 10
189.2107767578191
 20
98.65800500139186
 30
0.0
 10
189.2632326172417
 20
98.65320540553348
 30
0.0
 10
189.335041592634
 20
98.65140131412556
 30
0.0
  0
SPLINE
  5
100
330
1F
100
AcDbEntity
  8
0
  6
HIDDEN
 62
     7
370
     0
100
AcDbSpline
210
0.0
220
0.0
230
1.0
 70
     8
 71
     3
 72
     8
 73
     4
 74
     0
 42
0.00000001
 43
0.00000001
 12
1.0
 22
0.0
 32
0.0
 13
1.0
 23
0.0
 33
0.0
 40
0.0
 40
0.0
 40
0.0
 40
0.0
 40
1.0
 40
1.0
 40
1.0
 40
1.0
 10
190.1582059973874
 20
98.5255169358785
 30
0.0
 10
190.1721928059295
 20
98.49727654529678
 30
0.0
 10
190.1759026207622
 20
98.47414450248603
 30
0.0
 10
190.1759026207625
 20
98.45380412965088
 30
0.0
  0
LINE
  5
101
330
1F
100
AcDbEntity
  8
0
  6
HIDDEN
 62
     7
370
     0
100
AcDbLine
 10
190.1759026208
 20
98.1607383164
 30
0.0
 11
190.1759026208
 21
98.4538041296
 31
0.0
  0
LINE
  5
102
330
1F
100
AcDbEntity
  8
0
  6
HIDDEN
 62
     7
370
     0
100
AcDbLine
 10
190.1759026208
 20
133.547313061
 30
0.0
 11
190.1759026208
 21
133.8403788742
 31
0.0
  0
SPLINE
  5
103
330
1F
100
AcDbEntity
  8
0
  6
HIDDEN
 62
     7
370
     0
100
AcDbSpline
210
0.0
220
0.0
230
1.0
 70
     8
 71
     3
 72
    10
 73
     6
 74
     0
 42
0.00000001
 43
0.00000001
 12
1.0
 22
0.0
 32
0.0
 13
1.0
 23
0.0
 33
0.0
 40
0.0
 40
0.0
 40
0.0
 40
0.0
 40
0.5
 40
0.5
 40
1.0
 40
1.0
 40
1.0
 40
1.0
 10
189.335041592634
 20
133.3497158765107
 30
0.0
 10
189.2632326172417
 20
133.3479117851027
 30
0.0
 10
189.2107767578191
 20
133.3431121892444
 30
0.0
 10
189.121442171928
 20
133.3260092004156
 30
0.0
 10
189.085455309015
 20
133.31375161069
 30
0.0
 10
189.0545822772028
 20
133.2974684633229
 30
0.0
  0
SPLINE
  5
104
330
1F
100
AcDbEntity
  8
0
  6
HIDDEN
 62
     7
370
     0
100
AcDbSpline
210
0.0
220
0.0
230
1.0
 70
     8
 71
     3
 72
    10
 73
     6
 74
     0
 42
0.00000001
 43
0.00000001
 12
1.0
 22
0.0
 32
0.0
 13
1.0
 23
0.0
 33
0.0
 40
0.0
 40
0.0
 40
0.0
 40
0.0
 40
0.5
 40
0.5
 40
1.0
 40
1.0
 40
1.0
 40
1.0
 10
189.0545822772028
 20
129.0956053188506
 30
0.0
 10
189.0854636168009
 20
128.9622509413753
 30
0.0
 10
189.1214592263007
 20
128.8280055697862
 30
0.0
 10
189.2108022904021
 20
128.559913006797
 30
0.0
 10
189.2632618047103
 20
128.4258128572936
 30
0.0
 10
189.335041592634
 20
128.2950341403915
 30
0.0
  0
LINE
  5
105
330
1F
100
AcDbEntity
  8
0
  6
HIDDEN
 62
     7
370
     0
100
AcDbLine
 10
190.1759026208
 20
98.4538041296
 30
0.0
 11
190.1759026208
 21
110.0160783627
 31
0.0
  0
LINE
  5
106
330
1F
100
AcDbEntity
  8
0
  6
HIDDEN
 62
     7
370
     0
100
AcDbLine
 10
190.1759026208
 20
121.9850388279
 30
0.0
 11
190.1759026208
 21
133.547313061
 31
0.0
  0
LWPOLYLINE
  5
107
330
1F
100
AcDbEntity
  8
0
  6
HIDDEN
 62
     7
370
     0
100
AcDbPolyline
 90
       29
 70
   128
 43
0.0
 10
208.3759026208
 20
127.7371115716
 10
208.9322049557
 20
127.6845435163
 10
209.4606119686
 20
127.5294753321
 10
209.9346271254
 20
127.2796827853
 10
210.3304813269
 20
126.9476915173
 10
210.6283247905
 20
126.5501489565
 10
210.8132224012
 20
126.1069895469
 10
210.8759026208
 20
125.6404351517
 10
210.8132224012
 20
125.1738807566
 10
210.6283247905
 20
124.730721347
 10
210.3304813269
 20
124.3331787861
 10
209.9346271254
 20
124.0011875181
 10
209.4606119686
 20
123.7513949714
 10
208.9322049557
 20
123.5963267872
 10
208.3759026208
 20
123.5437587319
 10
207.8196002859
 20
123.5963267872
 10
207.291193273
 20
123.7513949714
 10
206.8171781161
 20
124.0011875181
 10
206.4213239146
 20
124.3331787861
 10
206.123480451
 20
124.730721347
 10
205.9385828403
 20
125.1738807566
 10
205.8759026208
 20
125.6404351517
 10
205.9385828403
 20
126.1069895469
 10
206.123480451
 20
126.5501489565
 10
206.4213239146
 20
126.9476915173
 10
206.8171781161
 20
127.2796827853
 10
207.291193273
 20
127.5294753321
 10
207.8196002859
 20
127.6845435163
 10
208.3759026208
 20
127.7371115716
  0
SPLINE
  5
108
330
1F
100
AcDbEntity
  8
0
  6
HIDDEN
 62
     7
370
     0
100
AcDbSpline
210
0.0
220
0.0
230
1.0
 70
     8
 71
     3
 72
    66
 73
    62
 74
     0
 42
0.00000001
 43
0.00000001
 12
1.0
 22
0.0
 32
0.0
 13
1.0
 23
0.0
 33
0.0
 40
-0.0312499999999999
 40
-0.0312499999999999
 40
0.0
 40
0.0
 40
0.03125
 40
0.03125
 40
0.0625
 40
0.0625
 40
0.0937500000000001
 40
0.0937500000000001
 40
0.1250000000000001
 40
0.1250000000000001
 40
0.1875000000000001
 40
0.1875000000000001
 40
0.2187500000000001
 40
0.2187500000000001
 40
0.2500000000000002
 40
0.2500000000000002
 40
0.2812500000000001
 40
0.2812500000000001
 40
0.3125000000000001
 40
0.3125000000000001
 40
0.3437500000000001
 40
0.3437500000000001
 40
0.375
 40
0.375
 40
0.40625
 40
0.40625
 40
0.4374999999999999
 40
0.4374999999999999
 40
0.4687499999999999
 40
0.4687499999999999
 40
0.4999999999999999
 40
0.4999999999999999
 40
0.5312499999999999
 40
0.5312499999999999
 40
0.5624999999999999
 40
0.5624999999999999
 40
0.59375
 40
0.59375
 40
0.6249999999999999
 40
0.6249999999999999
 40
0.6874999999999999
 40
0.6874999999999999
 40
0.7187499999999999
 40
0.7187499999999999
 40
0.7499999999999999
 40
0.7499999999999999
 40
0.78125
 40
0.78125
 40
0.8125
 40
0.8125
 40
0.84375
 40
0.84375
 40
0.875
 40
0.875
 40
0.90625
 40
0.90625
 40
0.9375000000000001
 40
0.9375000000000001
 40
0.9687500000000001
 40
0.9687500000000001
 40
1.0
 40
1.0
 40
1.03125
 40
1.03125
 10
208.5424555285193
 20
121.803682722728
 30
0.0
 10
208.2093497130058
 20
121.803682722728
 30
0.0
 10
208.0458587594159
 20
121.7931963146208
 30
0.0
 10
207.7246566140469
 20
121.7518592014216
 30
0.0
 10
207.5652442564907
 20
121.7204490773499
 30
0.0
 10
207.2632055293503
 20
121.6379023979064
 30
0.0
 10
207.1201574919886
 20
121.5870125084422
 30
0.0
 10
206.8494242700377
 20
121.4644834964266
 30
0.0
 10
206.7223547550712
 20
121.3927517296568
 30
0.0
 10
206.3793467440984
 20
121.1520146956713
 30
0.0
 10
206.1935144826945
 20
120.9509476673884
 30
0.0
 10
206.0057091195358
 20
120.6058894343287
 30
0.0
 10
205.9569690427574
 20
120.4815061246921
 30
0.0
 10
205.8922049906427
 20
120.2222724557043
 30
0.0
 10
205.8760128801086
 20
120.088550944684
 30
0.0
 10
205.8757934729418
 20
119.8126281343926
 30
0.0
 10
205.8923415669752
 20
119.669382243584
 30
0.0
 10
205.9567707206788
 20
119.3876170526055
 30
0.0
 10
206.0044291898637
 20
119.2475953262887
 30
0.0
 10
206.1311251576624
 20
118.9700929181147
 30
0.0
 10
206.2086987434614
 20
118.8360871173279
 30
0.0
 10
206.3893053696415
 20
118.581309341714
 30
0.0
 10
206.4938584187572
 20
118.4588439836363
 30
0.0
 10
206.7238670591014
 20
118.2346176378897
 30
0.0
 10
206.8487471174762
 20
118.1329028084522
 30
0.0
 10
207.118646689106
 20
117.9516765195604
 30
0.0
 10
207.264743055589
 20
117.8720560516735
 30
0.0
 10
207.5654556793977
 20
117.7441714668688
 30
0.0
 10
207.7214033677551
 20
117.6947873075718
 30
0.0
 10
208.0451832315036
 20
117.6274797238606
 30
0.0
 10
208.2108815752536
 20
117.6103981804546
 30
0.0
 10
208.5389254552609
 20
117.6102620003038
 30
0.0
 10
208.7042510065976
 20
117.6271358071812
 30
0.0
 10
209.028579462608
 20
117.6942614081638
 30
0.0
 10
209.1849322634697
 20
117.7436385423303
 30
0.0
 10
209.4866484416989
 20
117.8718107078122
 30
0.0
 10
209.6327389714135
 20
117.9514405275033
 30
0.0
 10
209.9024527488185
 20
118.1324507587072
 30
0.0
 10
210.0276340824616
 20
118.2342942785645
 30
0.0
 10
210.3742446228893
 20
118.5722720074731
 30
0.0
 10
210.5573874577776
 20
118.8316114361441
 30
0.0
 10
210.7470540179169
 20
119.2468159120209
 30
0.0
 10
210.7946917653454
 20
119.3865452511991
 30
0.0
 10
210.8592100002776
 20
119.6678496413595
 30
0.0
 10
210.8759071060193
 20
119.8110818532639
 30
0.0
 10
210.8758981336519
 20
120.087415533511
 30
0.0
 10
210.8597672977054
 20
120.2212882446275
 30
0.0
 10
210.7951076210367
 20
120.4807331276459
 30
0.0
 10
210.7464372663975
 20
120.6051790558691
 30
0.0
 10
210.6210078940787
 20
120.8357996102612
 30
0.0
 10
210.5432642415886
 20
120.944114456452
 30
0.0
 10
210.3609647545757
 20
121.1430818775229
 30
0.0
 10
210.2580016012814
 20
121.2323838507855
 30
0.0
 10
210.0288006289889
 20
121.3931690662021
 30
0.0
 10
209.9011696508809
 20
121.4650843155291
 30
0.0
 10
209.6313239894443
 20
121.5871061392891
 30
0.0
 10
209.4884692460572
 20
121.6379543801004
 30
0.0
 10
209.1860717188111
 20
121.720566433475
 30
0.0
 10
209.0268564878664
 20
121.7519027798413
 30
0.0
 10
208.7059687565483
 20
121.7931874614696
 30
0.0
 10
208.5424555285193
 20
121.803682722728
 30
0.0
 10
208.2093497130058
 20
121.803682722728
 30
0.0
  0
SPLINE
  5
109
330
1F
100
AcDbEntity
  8
0
  6
HIDDEN
 62
     7
370
     0
100
AcDbSpline
210
0.0
220
0.0
230
1.0
 70
     8
 71
     3
 72
    10
 73
     6
 74
     0
 42
0.00000001
 43
0.00000001
 12
1.0
 22
0.0
 32
0.0
 13
1.0
 23
0.0
 33
0.0
 40
0.0
 40
0.0
 40
0.0
 40
0.0
 40
0.5
 40
0.5
 40
1.0
 40
1.0
 40
1.0
 40
1.0
 10
207.1530771595627
 20
125.8932120904942
 30
0.0
 10
207.1021935709311
 20
125.6331920344933
 30
0.0
 10
207.0920572419527
 20
125.3923890116296
 30
0.0
 10
207.2111279531935
 20
124.9768346052405
 30
0.0
 10
207.3364810879068
 20
124.8097928623569
 30
0.0
 10
207.5034590629952
 20
124.646435295949
 30
0.0
  0
SPLINE
  5
10A
330
1F
100
AcDbEntity
  8
0
  6
HIDDEN
 62
     7
370
     0
100
AcDbSpline
210
0.0
220
0.0
230
1.0
 70
     8
 71
     3
 72
    60
 73
    56
 74
     0
 42
0.00000001
 43
0.00000001
 12
1.0
 22
0.0
 32
0.0
 13
1.0
 23
0.0
 33
0.0
 40
0.0
 40
0.0
 40
0.0
 40
0.0
 40
0.0312500000000002
 40
0.0312500000000002
 40
0.0625000000000004
 40
0.0625000000000004
 40
0.0937500000000006
 40
0.0937500000000006
 40
0.1250000000000008
 40
0.1250000000000008
 40
0.156250000000001
 40
0.156250000000001
 40
0.1875000000000012
 40
0.1875000000000012
 40
0.2187500000000012
 40
0.2187500000000012
 40
0.2500000000000013
 40
0.2500000000000013
 40
0.3125000000000014
 40
0.3125000000000014
 40
0.3750000000000014
 40
0.3750000000000014
 40
0.4062500000000013
 40
0.4062500000000013
 40
0.4375000000000012
 40
0.4375000000000012
 40
0.468750000000001
 40
0.468750000000001
 40
0.5000000000000009
 40
0.5000000000000009
 40
0.5312500000000008
 40
0.5312500000000008
 40
0.5625000000000006
 40
0.5625000000000006
 40
0.6250000000000006
 40
0.6250000000000006
 40
0.6562500000000004
 40
0.6562500000000004
 40
0.6875000000000002
 40
0.6875000000000002
 40
0.7187500000000001
 40
0.7187500000000001
 40
0.75
 40
0.75
 40
0.8124999999999992
 40
0.8124999999999992
 40
0.8437499999999992
 40
0.8437499999999992
 40
0.8749999999999992
 40
0.8749999999999992
 40
0.9374999999999996
 40
0.9374999999999996
 40
0.9687499999999998
 40
0.9687499999999998
 40
1.0
 40
1.0
 40
1.0
 40
1.0
 10
207.5034590629953
 20
124.646435295949
 30
0.0
 10
207.6519421260211
 20
124.6728124762887
 30
0.0
 10
207.7978263346345
 20
124.6767321325652
 30
0.0
 10
208.0905537997241
 20
124.6568150682966
 30
0.0
 10
208.2382228303733
 20
124.6323986292638
 30
0.0
 10
208.5335500098596
 20
124.5615875934447
 30
0.0
 10
208.6796535010167
 20
124.5156313825401
 30
0.0
 10
208.9710293654784
 20
124.4053110767248
 30
0.0
 10
209.1177208836137
 20
124.3401053088548
 30
0.0
 10
209.4026728651656
 20
124.1949751187356
 30
0.0
 10
209.5410609526489
 20
124.1152122132522
 30
0.0
 10
209.8096037720378
 20
123.9411842421717
 30
0.0
 10
209.9384451796805
 20
123.8474460148566
 30
0.0
 10
210.173439257694
 20
123.655863766576
 30
0.0
 10
210.2824473140165
 20
123.5557473623093
 30
0.0
 10
210.4747971644395
 20
123.3551572549897
 30
0.0
 10
210.5563435595327
 20
123.2568827870518
 30
0.0
 10
210.7606589130498
 20
122.9698153659715
 30
0.0
 10
210.8369548698169
 20
122.7950372030518
 30
0.0
 10
210.8908547268353
 20
122.5153772696511
 30
0.0
 10
210.869543164765
 20
122.4073903649039
 30
0.0
 10
210.800382695151
 20
122.3135107039648
 30
0.0
 10
210.7710930751616
 20
122.2932522996715
 30
0.0
 10
210.7089538799443
 20
122.283859411989
 30
0.0
 10
210.6767021226695
 20
122.2946171370249
 30
0.0
 10
210.6257199826604
 20
122.3639817261601
 30
0.0
 10
210.6088693127144
 20
122.4228024795657
 30
0.0
 10
210.6057860556384
 20
122.5945477713345
 30
0.0
 10
210.6193153249594
 20
122.7032682525087
 30
0.0
 10
210.6617120648624
 20
122.946501568656
 30
0.0
 10
210.6894238090437
 20
123.0780360469405
 30
0.0
 10
210.7450619019857
 20
123.3546920416267
 30
0.0
 10
210.7731399329629
 20
123.5002410503993
 30
0.0
 10
210.8450532776581
 20
123.9431490545238
 30
0.0
 10
210.8782017968648
 20
124.2516589062895
 30
0.0
 10
210.8745692717378
 20
124.731538031489
 30
0.0
 10
210.8644342505155
 20
124.8909872156432
 30
0.0
 10
210.8209939437219
 20
125.2083927872562
 30
0.0
 10
210.7870560274418
 20
125.3681160461759
 30
0.0
 10
210.6916033803928
 20
125.6716408347024
 30
0.0
 10
210.6294230961442
 20
125.8179598342694
 30
0.0
 10
210.4743169443284
 20
126.0864085531191
 30
0.0
 10
210.3837243587784
 20
126.2052127941386
 30
0.0
 10
210.0702621223958
 20
126.5137419342026
 30
0.0
 10
209.8127955236901
 20
126.6412653847702
 30
0.0
 10
209.4187072747065
 20
126.7210066405387
 30
0.0
 10
209.2841170247708
 20
126.7305057252919
 30
0.0
 10
209.0140773577622
 20
126.7209011072277
 30
0.0
 10
208.8804955907152
 20
126.702096694008
 30
0.0
 10
208.4811797424139
 20
126.6123586450579
 30
0.0
 10
208.2150142300599
 20
126.5067686372888
 30
0.0
 10
207.8220276550999
 20
126.3059273673012
 30
0.0
 10
207.6913468876235
 20
126.2316747683909
 30
0.0
 10
207.42452849847
 20
126.0697757461915
 30
0.0
 10
207.2889668232658
 20
125.9824645543328
 30
0.0
 10
207.1530771595626
 20
125.8932120904943
 30
0.0
  0
CIRCLE
  5
10B
330
1F
100
AcDbEntity
  8
0
  6
HIDDEN
 62
     7
370
     0
100
AcDbCircle
 10
176.3759026208
 20
116.0005585953
 30
0.0
 40
3.050000000000011
  0
LWPOLYLINE
  5
10C
330
1F
100
AcDbEntity
  8
0
  6
HIDDEN
 62
     7
370
     0
100
AcDbPolyline
 90
        9
 70
   128
 43
0.0
 10
207.503459063
 20
124.6464352959
 10
207.3771839104
 20
124.8967519927
 10
207.2717216924
 20
125.1272309892
 10
207.1889875984
 20
125.3336867968
 10
207.1304840757
 20
125.5123701871
 10
207.097273546
 20
125.6600362776
 10
207.0899591108
 20
125.7740034585
 10
207.1086736001
 20
125.8522020907
 10
207.1530771596
 20
125.8932120905
  0
LINE
  5
10D
330
1F
100
AcDbEntity
  8
0
  6
HIDDEN
 62
     7
370
     0
100
AcDbLine
 10
165.4039424764
 20
126.7892337299
 30
0.0
 11
165.4039424764
 21
105.2118834607
 31
0.0
  0
LINE
  5
10E
330
1F
100
AcDbEntity
  8
0
  6
HIDDEN
 62
     7
370
     0
100
AcDbLine
 10
161.4039424764
 20
127.1704315764
 30
0.0
 11
161.4039424764
 21
104.8306856142
 31
0.0
  0
LINE
  5
10F
330
1F
100
AcDbEntity
  8
0
  6
HIDDEN
 62
     7
370
     0
100
AcDbLine
 10
160.3759026208
 20
104.2371465269
 30
0.0
 11
160.3759026208
 21
127.7483734367
 31
0.0
  0
LINE
  5
110
330
1F
100
AcDbEntity
  8
0
  6
HIDDEN
 62
     7
370
     0
100
AcDbLine
 10
170.0039424764
 20
126.5005585953
 30
0.0
 11
170.0039424764
 21
105.5005585953
 31
0.0
  0
LINE
  5
111
330
1F
100
AcDbEntity
  8
0
  6
HIDDEN
 62
     7
370
     0
100
AcDbLine
 10
163.9039424764
 20
126.5005585953
 30
0.0
 11
163.9039424764
 21
105.5005585953
 31
0.0
  0
LINE
  5
112
330
1F
100
AcDbEntity
  8
0
  6
HIDDEN
 62
     7
370
     0
100
AcDbLine
 10
164.9039424764
 20
126.5005585953
 30
0.0
 11
164.9039424764
 21
105.5005585953
 31
0.0
  0
SPLINE
  5
113
330
1F
100
AcDbEntity
  8
0
  6
HIDDEN
 62
     7
370
     0
100
AcDbSpline
210
0.0
220
0.0
230
1.0
 70
     8
 71
     3
 72
    66
 73
    62
 74
     0
 42
0.00000001
 43
0.00000001
 12
1.0
 22
0.0
 32
0.0
 13
1.0
 23
0.0
 33
0.0
 40
-0.03125
 40
-0.03125
 40
0.0
 40
0.0
 40
0.0312499999999998
 40
0.0312499999999998
 40
0.0624999999999997
 40
0.0624999999999997
 40
0.0937499999999995
 40
0.0937499999999995
 40
0.1249999999999994
 40
0.1249999999999994
 40
0.1874999999999992
 40
0.1874999999999992
 40
0.2187499999999991
 40
0.2187499999999991
 40
0.249999999999999
 40
0.249999999999999
 40
0.2812499999999989
 40
0.2812499999999989
 40
0.3124999999999988
 40
0.3124999999999988
 40
0.3437499999999988
 40
0.3437499999999988
 40
0.3749999999999987
 40
0.3749999999999987
 40
0.4062499999999987
 40
0.4062499999999987
 40
0.4374999999999986
 40
0.4374999999999986
 40
0.4687499999999986
 40
0.4687499999999986
 40
0.4999999999999986
 40
0.4999999999999986
 40
0.5312499999999986
 40
0.5312499999999986
 40
0.5624999999999984
 40
0.5624999999999984
 40
0.5937499999999984
 40
0.5937499999999984
 40
0.6249999999999986
 40
0.6249999999999986
 40
0.6562499999999988
 40
0.6562499999999988
 40
0.687499999999999
 40
0.687499999999999
 40
0.7187499999999991
 40
0.7187499999999991
 40
0.7499999999999993
 40
0.7499999999999993
 40
0.7812499999999996
 40
0.7812499999999996
 40
0.8124999999999997
 40
0.8124999999999997
 40
0.8749999999999999
 40
0.8749999999999999
 40
0.9062500000000001
 40
0.9062500000000001
 40
0.9375000000000001
 40
0.9375000000000001
 40
0.96875
 40
0.96875
 40
1.0
 40
1.0
 40
1.03125
 40
1.03125
 10
176.1732239738146
 20
119.0505585953181
 30
0.0
 10
176.5785812677102
 20
119.0505585953181
 30
0.0
 10
176.777641159046
 20
119.0305590357015
 30
0.0
 10
177.1688951436257
 20
118.9524155330014
 30
0.0
 10
177.3631679023734
 20
118.8932544314806
 30
0.0
 10
177.7319313289247
 20
118.7398227445863
 30
0.0
 10
177.906656487303
 20
118.6460959347441
 30
0.0
 10
178.2373337908367
 20
118.4248418323392
 30
0.0
 10
178.3929813348396
 20
118.2968604653446
 30
0.0
 10
178.8124487045083
 20
117.8773053683445
 30
0.0
 10
179.0393368460385
 20
117.5388268096412
 30
0.0
 10
179.2681334694233
 20
116.988947921923
 30
0.0
 10
179.3273257242722
 20
116.7955480761796
 30
0.0
 10
179.4061331345327
 20
116.4013199258216
 30
0.0
 10
179.4257725508131
 20
116.2026810983893
 30
0.0
 10
179.4260314152347
 20
115.8023808124909
 30
0.0
 10
179.4059607306017
 20
115.5990414857698
 30
0.0
 10
179.3276230479718
 20
115.2069499651622
 30
0.0
 10
179.2696732799334
 20
115.016244096847
 30
0.0
 10
179.1157301380533
 20
114.6455202802604
 30
0.0
 10
179.0207915243306
 20
114.4687936204516
 30
0.0
 10
178.8004341084535
 20
114.1395405095272
 30
0.0
 10
178.6731540825252
 20
113.9844192859308
 30
0.0
 10
178.3913984911947
 20
113.7027425910004
 30
0.0
 10
178.2386101617371
 20
113.577309406096
 30
0.0
 10
177.9091830795803
 20
113.3565338127419
 30
0.0
 10
177.7306370764286
 20
113.2607025600417
 30
0.0
 10
177.3630647508784
 20
113.1078734295466
 30
0.0
 10
177.1729107241674
 20
113.0497016716024
 30
0.0
 10
176.7793703014649
 20
112.9707083792575
 30
0.0
 10
176.5769362302037
 20
112.9506452536152
 30
0.0
 10
176.1775071548384
 20
112.9504725074965
 30
0.0
 10
175.9774881762824
 20
112.9699558815858
 30
0.0
 10
175.5813722288331
 20
113.048947453187
 30
0.0
 10
175.3906394006412
 20
113.107227673039
 30
0.0
 10
175.0230079600615
 20
113.259795293647
 30
0.0
 10
174.8445215278937
 20
113.3554040804202
 30
0.0
 10
174.5143162689297
 20
113.5764161255053
 30
0.0
 10
174.3614276908678
 20
113.7018660242754
 30
0.0
 10
174.0798312963296
 20
113.9830965132807
 30
0.0
 10
173.9522003734542
 20
114.1384793911947
 30
0.0
 10
173.7318749384544
 20
114.4673302492376
 30
0.0
 10
173.637648481489
 20
114.6422183556516
 30
0.0
 10
173.4827139608859
 20
115.0143622070124
 30
0.0
 10
173.4247016752837
 20
115.2051682488214
 30
0.0
 10
173.3462824210055
 20
115.5960412667401
 30
0.0
 10
173.325968341039
 20
115.7984988281224
 30
0.0
 10
173.325837224735
 20
116.2006294330418
 30
0.0
 10
173.3454619180943
 20
116.3993534782169
 30
0.0
 10
173.423628368508
 20
116.7921929493536
 30
0.0
 10
173.4829158138479
 20
116.9868372267562
 30
0.0
 10
173.7119966569308
 20
117.5382769801704
 30
0.0
 10
173.938827507825
 20
117.8766165458696
 30
0.0
 10
174.3581662091457
 20
118.2962822085211
 30
0.0
 10
174.5135192048956
 20
118.4241282142943
 30
0.0
 10
174.8444870380328
 20
118.6457292889962
 30
0.0
 10
175.0190483382292
 20
118.7393700229731
 30
0.0
 10
175.386621645804
 20
118.8925241436723
 30
0.0
 10
175.5813085074421
 20
118.9520278893184
 30
0.0
 10
175.9737844573785
 20
119.0305506383813
 30
0.0
 10
176.1732239738146
 20
119.0505585953181
 30
0.0
 10
176.5785812677102
 20
119.0505585953181
 30
0.0
  0
SPLINE
  5
114
330
1F
100
AcDbEntity
  8
0
  6
HIDDEN
 62
     7
370
     0
100
AcDbSpline
210
0.0
220
0.0
230
1.0
 70
     8
 71
     3
 72
    66
 73
    62
 74
     0
 42
0.00000001
 43
0.00000001
 12
1.0
 22
0.0
 32
0.0
 13
1.0
 23
0.0
 33
0.0
 40
-0.0312499999999999
 40
-0.0312499999999999
 40
0.0
 40
0.0
 40
0.03125
 40
0.03125
 40
0.0625000000000001
 40
0.0625000000000001
 40
0.0937500000000001
 40
0.0937500000000001
 40
0.1250000000000001
 40
0.1250000000000001
 40
0.1874999999999999
 40
0.1874999999999999
 40
0.2187499999999998
 40
0.2187499999999998
 40
0.2499999999999996
 40
0.2499999999999996
 40
0.2812499999999995
 40
0.2812499999999995
 40
0.3124999999999993
 40
0.3124999999999993
 40
0.3437499999999992
 40
0.3437499999999992
 40
0.3749999999999991
 40
0.3749999999999991
 40
0.4062499999999989
 40
0.4062499999999989
 40
0.4374999999999991
 40
0.4374999999999991
 40
0.4687499999999991
 40
0.4687499999999991
 40
0.4999999999999992
 40
0.4999999999999992
 40
0.5312499999999992
 40
0.5312499999999992
 40
0.5624999999999993
 40
0.5624999999999993
 40
0.5937499999999993
 40
0.5937499999999993
 40
0.6249999999999993
 40
0.6249999999999993
 40
0.6562499999999994
 40
0.6562499999999994
 40
0.6874999999999994
 40
0.6874999999999994
 40
0.7187499999999994
 40
0.7187499999999994
 40
0.7499999999999994
 40
0.7499999999999994
 40
0.7812499999999997
 40
0.7812499999999997
 40
0.8124999999999998
 40
0.8124999999999998
 40
0.875
 40
0.875
 40
0.90625
 40
0.90625
 40
0.9375
 40
0.9375
 40
0.9687500000000001
 40
0.9687500000000001
 40
1.0
 40
1.0
 40
1.03125
 40
1.03125
 10
176.5785812677102
 20
119.0505585953181
 30
0.0
 10
176.1732239738146
 20
119.0505585953181
 30
0.0
 10
175.9741640824787
 20
119.0305590357015
 30
0.0
 10
175.582910097899
 20
118.9524155330014
 30
0.0
 10
175.3886373391514
 20
118.8932544314806
 30
0.0
 10
175.0198739126001
 20
118.7398227445863
 30
0.0
 10
174.8451487542218
 20
118.6460959347441
 30
0.0
 10
174.514471450688
 20
118.4248418323392
 30
0.0
 10
174.3588239066852
 20
118.2968604653446
 30
0.0
 10
173.9393565370165
 20
117.8773053683445
 30
0.0
 10
173.7124683954862
 20
117.5388268096412
 30
0.0
 10
173.4836717721014
 20
116.988947921923
 30
0.0
 10
173.4244795172526
 20
116.7955480761796
 30
0.0
 10
173.3456721069921
 20
116.4013199258216
 30
0.0
 10
173.3260326907117
 20
116.2026810983893
 30
0.0
 10
173.3257738262901
 20
115.8023808124909
 30
0.0
 10
173.3458445109231
 20
115.5990414857698
 30
0.0
 10
173.424182193553
 20
115.2069499651622
 30
0.0
 10
173.4821319615914
 20
115.016244096847
 30
0.0
 10
173.6360751034714
 20
114.6455202802604
 30
0.0
 10
173.7310137171941
 20
114.4687936204516
 30
0.0
 10
173.9513711330713
 20
114.1395405095272
 30
0.0
 10
174.0786511589996
 20
113.9844192859308
 30
0.0
 10
174.3604067503301
 20
113.7027425910004
 30
0.0
 10
174.5131950797876
 20
113.577309406096
 30
0.0
 10
174.8426221619445
 20
113.3565338127419
 30
0.0
 10
175.0211681650962
 20
113.2607025600417
 30
0.0
 10
175.3887404906464
 20
113.1078734295466
 30
0.0
 10
175.5788945173574
 20
113.0497016716024
 30
0.0
 10
175.9724349400599
 20
112.9707083792575
 30
0.0
 10
176.1748690113211
 20
112.9506452536152
 30
0.0
 10
176.5742980866864
 20
112.9504725074965
 30
0.0
 10
176.7743170652423
 20
112.9699558815858
 30
0.0
 10
177.1704330126917
 20
113.048947453187
 30
0.0
 10
177.3611658408836
 20
113.107227673039
 30
0.0
 10
177.7287972814633
 20
113.259795293647
 30
0.0
 10
177.907283713631
 20
113.3554040804202
 30
0.0
 10
178.2374889725951
 20
113.5764161255053
 30
0.0
 10
178.390377550657
 20
113.7018660242754
 30
0.0
 10
178.6719739451951
 20
113.9830965132807
 30
0.0
 10
178.7996048680706
 20
114.1384793911947
 30
0.0
 10
179.0199303030704
 20
114.4673302492376
 30
0.0
 10
179.1141567600358
 20
114.6422183556516
 30
0.0
 10
179.2690912806389
 20
115.0143622070124
 30
0.0
 10
179.3271035662411
 20
115.2051682488214
 30
0.0
 10
179.4055228205193
 20
115.5960412667401
 30
0.0
 10
179.4258369004858
 20
115.7984988281224
 30
0.0
 10
179.4259680167898
 20
116.2006294330418
 30
0.0
 10
179.4063433234304
 20
116.3993534782169
 30
0.0
 10
179.3281768730168
 20
116.7921929493536
 30
0.0
 10
179.2688894276768
 20
116.9868372267562
 30
0.0
 10
179.039808584594
 20
117.5382769801704
 30
0.0
 10
178.8129777336998
 20
117.8766165458696
 30
0.0
 10
178.3936390323791
 20
118.2962822085211
 30
0.0
 10
178.2382860366292
 20
118.4241282142943
 30
0.0
 10
177.907318203492
 20
118.6457292889962
 30
0.0
 10
177.7327569032956
 20
118.7393700229731
 30
0.0
 10
177.3651835957208
 20
118.8925241436723
 30
0.0
 10
177.1704967340827
 20
118.9520278893184
 30
0.0
 10
176.7780207841462
 20
119.0305506383813
 30
0.0
 10
176.5785812677102
 20
119.0505585953181
 30
0.0
 10
176.1732239738146
 20
119.0505585953181
 30
0.0
  0
LINE
  5
115
330
1F
100
AcDbEntity
  8
0
  6
HIDDEN
 62
     7
370
     0
100
AcDbLine
 10
180.3759026208
 20
126.0005585953
 30
0.0
 11
180.3759026208
 21
106.0005585953
 31
0.0
  0
LINE
  5
116
330
1F
100
AcDbEntity
  8
0
  6
HIDDEN
 62
     7
370
     0
100
AcDbLine
 10
181.3759026208
 20
123.2505585953
 30
0.0
 11
181.3759026208
 21
108.7505585953
 31
0.0
  0
LINE
  5
117
330
1F
100
AcDbEntity
  8
0
  6
HIDDEN
 62
     7
370
     0
100
AcDbLine
 10
180.3759026208
 20
107.7505585953
 30
0.0
 11
180.3759026208
 21
124.2349110574
 31
0.0
  0
LINE
  5
118
330
1F
100
AcDbEntity
  8
0
  6
HIDDEN
 62
     7
370
     0
100
AcDbLine
 10
214.3759026208
 20
108.7505585953
 30
0.0
 11
214.3759026208
 21
123.2505585953
 31
0.0
  0
SPLINE
  5
119
330
1F
100
AcDbEntity
  8
0
  6
HIDDEN
 62
     7
370
     0
100
AcDbSpline
210
0.0
220
0.0
230
1.0
 70
     8
 71
     3
 72
    12
 73
     8
 74
     0
 42
0.00000001
 43
0.00000001
 12
1.0
 22
0.0
 32
0.0
 13
1.0
 23
0.0
 33
0.0
 40
0.0
 40
0.0
 40
0.0
 40
0.0
 40
0.5000000000000021
 40
0.5000000000000021
 40
0.750000000000001
 40
0.750000000000001
 40
1.0
 40
1.0
 40
1.0
 40
1.0
 10
222.6085756327836
 20
96.32454771540988
 30
0.0
 10
222.7837114652937
 20
96.64366236213536
 30
0.0
 10
222.9430712399435
 20
96.94372398437979
 30
0.0
 10
223.1631515758451
 20
97.37091890386738
 30
0.0
 10
223.2331418423506
 20
97.50930642078552
 30
0.0
 10
223.3629116195087
 20
97.7730464465003
 30
0.0
 10
223.4229380482286
 20
97.89877100847967
 30
0.0
 10
223.474601036568
 20
98.013916680539
 30
0.0
  0
LINE
  5
11A
330
1F
100
AcDbEntity
  8
0
  6
HIDDEN
 62
     7
370
     0
100
AcDbLine
 10
234.9792740537
 20
143.7510290192
 30
0.0
 11
234.9343679988
 21
143.7486755926
 31
0.0
  0
LINE
  5
11B
330
1F
100
AcDbEntity
  8
0
  6
HIDDEN
 62
     7
370
     0
100
AcDbLine
 10
233.5453378642
 20
140.638832446
 30
0.0
 11
244.4944077204
 21
141.2126488824
 31
0.0
  0
LINE
  5
11C
330
1F
100
AcDbEntity
  8
0
  6
HIDDEN
 62
     7
370
     0
100
AcDbLine
 10
238.8970682776
 20
150.0208103934
 30
0.0
 11
238.8521622227
 21
150.0184569668
 31
0.0
  0
LINE
  5
11D
330
1F
100
AcDbEntity
  8
0
  6
HIDDEN
 62
     7
370
     0
100
AcDbLine
 10
238.8970682776
 20
150.0208103934
 30
0.0
 11
234.9792740537
 21
143.7510290192
 31
0.0
  0
LINE
  5
11E
330
1F
100
AcDbEntity
  8
0
  6
HIDDEN
 62
     7
370
     0
100
AcDbLine
 10
233.3104389721
 20
140.8933300651
 30
0.0
 11
244.3443720711
 21
141.4715939956
 31
0.0
  0
ELLIPSE
  5
11F
330
1F
100
AcDbEntity
  8
0
  6
HIDDEN
 62
     7
370
     0
100
AcDbEllipse
 10
280.8259514832
 20
130.7480462203
 30
0.0
 11
38.0597088328061
 21
-21.75919211935655
 31
0.0
210
0.0
220
0.0
230
1.0
 40
0.373927429
 41
3.708037495345913
 42
3.71894340467076
  0
LINE
  5
120
330
1F
100
AcDbEntity
  8
0
  6
HIDDEN
 62
     7
370
     0
100
AcDbLine
 10
242.2789886488
 20
121.5753745414
 30
0.0
 11
239.1848177141
 21
121.5753745414
 31
0.0
  0
LINE
  5
121
330
1F
100
AcDbEntity
  8
0
  6
HIDDEN
 62
     7
370
     0
100
AcDbLine
 10
239.1201107407
 20
149.8749546637
 30
0.0
 11
235.1317296763
 21
143.4922107314
 31
0.0
  0
LINE
  5
122
330
1F
100
AcDbEntity
  8
0
  6
HIDDEN
 62
     7
370
     0
100
AcDbLine
 10
234.9792740537
 20
143.7510290192
 30
0.0
 11
235.1317296763
 21
143.4922107314
 31
0.0
  0
ELLIPSE
  5
123
330
1F
100
AcDbEntity
  8
0
  6
HIDDEN
 62
     7
370
     0
100
AcDbEllipse
 10
217.3709516001
 20
115.8730381606
 30
0.0
 11
21.64480921375241
 21
34.09633474462863
 31
0.0
210
0.0
220
0.0
230
1.0
 40
0.1000778042
 41
6.248861820293826
 42
6.314803944265917
  0
LINE
  5
124
330
1F
100
AcDbEntity
  8
0
  6
HIDDEN
 62
     7
370
     0
100
AcDbLine
 10
234.7620031576
 20
143.4728341856
 30
0.0
 11
235.1317296763
 21
143.4922107314
 31
0.0
  0
SPLINE
  5
125
330
1F
100
AcDbEntity
  8
0
  6
HIDDEN
 62
     7
370
     0
100
AcDbSpline
210
0.0
220
0.0
230
1.0
 70
     8
 71
     3
 72
    18
 73
    14
 74
     0
 42
0.00000001
 43
0.00000001
 12
1.0
 22
0.0
 32
0.0
 13
1.0
 23
0.0
 33
0.0
 40
0.0
 40
0.0
 40
0.0
 40
0.0
 40
0.2499999999999999
 40
0.2499999999999999
 40
0.3749999999999998
 40
0.3749999999999998
 40
0.4999999999999997
 40
0.4999999999999997
 40
0.7499999999999998
 40
0.7499999999999998
 40
0.8749999999999999
 40
0.8749999999999999
 40
1.0
 40
1.0
 40
1.0
 40
1.0
 10
225.6066006185902
 20
149.3242864977814
 30
0.0
 10
225.5861008094889
 20
149.2254936241503
 30
0.0
 10
225.5651216788028
 20
148.8529550563243
 30
0.0
 10
225.533005858898
 20
147.8992511586502
 30
0.0
 10
225.522192251264
 20
147.5149163294427
 30
0.0
 10
225.5003554108062
 20
146.6084033472307
 30
0.0
 10
225.4895233621943
 20
146.0940547480798
 30
0.0
 10
225.4573811639034
 20
144.3779754604269
 30
0.0
 10
225.4363843269442
 20
143.0039097604605
 30
0.0
 10
225.4056987238649
 20
140.5858503600628
 30
0.0
 10
225.3957411061568
 20
139.7301761971613
 30
0.0
 10
225.3764604621058
 20
137.927680650984
 30
0.0
 10
225.3671243940002
 20
136.9798384583378
 30
0.0
 10
225.3581103638929
 20
135.9845763555691
 30
0.0
  0
LINE
  5
126
330
1F
100
AcDbEntity
  8
0
  6
HIDDEN
 62
     7
370
     0
100
AcDbLine
 10
244.3443720711
 20
141.4715939956
 30
0.0
 11
244.1556871046
 21
141.4617054355
 31
0.0
  0
LINE
  5
127
330
1F
100
AcDbEntity
  8
0
  6
HIDDEN
 62
     7
370
     0
100
AcDbLine
 10
239.1201107407
 20
149.8749546637
 30
0.0
 11
238.9949606196
 21
149.6746726035
 31
0.0
  0
SPLINE
  5
128
330
1F
100
AcDbEntity
  8
0
  6
HIDDEN
 62
     7
370
     0
100
AcDbSpline
210
0.0
220
0.0
230
1.0
 70
     8
 71
     3
 72
    33
 73
    29
 74
     0
 42
0.00000001
 43
0.00000001
 12
1.0
 22
0.0
 32
0.0
 13
1.0
 23
0.0
 33
0.0
 40
0.0
 40
0.0
 40
0.0
 40
0.0
 40
0.0354969527754861
 40
0.0712045938738896
 40
0.1071265929326121
 40
0.1432665542912906
 40
0.1796280174725567
 40
0.2162144577117475
 40
0.2530292865319608
 40
0.2900758523608346
 40
0.3273574411856746
 40
0.3648772772435472
 40
0.4026385237431274
 40
0.4406442836152287
 40
0.4788976002890037
 40
0.5174014584910129
 40
0.556158785064429
 40
0.595172449805786
 40
0.6344452663168499
 40
0.6739799928692548
 40
0.7137793332797342
 40
0.7538459377938701
 40
0.7941824039764057
 40
0.8347912776063204
 40
0.8756750535749238
 40
0.9168361767854204
 40
0.9582770430524107
 40
1.0
 40
1.0
 40
1.0
 40
1.0
 10
248.8120996882067
 20
150.1891560763043
 30
0.0
 10
248.7729364764833
 20
150.1598834409285
 30
0.0
 10
248.6943776040301
 20
150.1011644256163
 30
0.0
 10
248.5698839502588
 20
150.0022098734627
 30
0.0
 10
248.4401016909761
 20
149.8949126912592
 30
0.0
 10
248.3045722704719
 20
149.7784410320961
 30
0.0
 10
248.1634235939297
 20
149.6529455133615
 30
0.0
 10
248.0166248351262
 20
149.518314247089
 30
0.0
 10
247.86418791923
 20
149.3745095507337
 30
0.0
 10
247.7061130353411
 20
149.2214769896694
 30
0.0
 10
247.5424033668289
 20
149.0591700671338
 30
0.0
 10
247.3730611026141
 20
148.8875436389635
 30
0.0
 10
247.1980885111979
 20
148.7065557870895
 30
0.0
 10
247.0174876452987
 20
148.5161674050912
 30
0.0
 10
246.8312604169928
 20
148.3163424027559
 30
0.0
 10
246.6394085723398
 20
148.1070477425305
 30
0.0
 10
246.4419336943221
 20
147.8882535234277
 30
0.0
 10
246.2388371939504
 20
147.6599330438609
 30
0.0
 10
246.0301203203667
 20
147.4220629001293
 30
0.0
 10
245.815784106352
 20
147.1746229609798
 30
0.0
 10
245.5958295555201
 20
146.9175968047675
 30
0.0
 10
245.3702569190522
 20
146.6509704120092
 30
0.0
 10
245.139068404577
 20
146.3747374325077
 30
0.0
 10
244.9022579465618
 20
146.0888796652824
 30
0.0
 10
244.6598497541944
 20
145.7934409823802
 30
0.0
 10
244.4117529666021
 20
145.4882489633683
 30
0.0
 10
244.1583096045726
 20
145.1739646978181
 30
0.0
 10
243.9855116278651
 20
144.95747664721
 30
0.0
 10
243.8988195751897
 20
144.8488654594838
 30
0.0
  0
LINE
  5
129
330
1F
100
AcDbEntity
  8
0
  6
HIDDEN
 62
     7
370
     0
100
AcDbLine
 10
245.7623171904
 20
144.4518557657
 30
0.0
 11
249.0701910842
 21
149.7455605757
 31
0.0
  0
CIRCLE
  5
12A
330
1F
100
AcDbEntity
  8
0
  6
HIDDEN
 62
     7
370
     0
100
AcDbCircle
 10
241.7249092852
 20
145.7403520905
 30
0.0
 40
2.400000000000006
  0
LINE
  5
12B
330
1F
100
AcDbEntity
  8
0
  6
HIDDEN
 62
     7
370
     0
100
AcDbLine
 10
249.0702137763
 20
149.7455896915
 30
0.0
 11
248.8121088255
 21
150.1896735032
 31
0.0
  0
ARC
  5
12C
330
1F
100
AcDbEntity
  8
0
  6
HIDDEN
 62
     7
370
     0
100
AcDbCircle
 10
232.7023758276
 20
142.1131782586
 30
0.0
 40
1.25000000000001
100
AcDbArc
 50
93.0
 51
273.0
  0
LINE
  5
12D
330
1F
100
AcDbEntity
  8
0
  6
HIDDEN
 62
     7
370
     0
100
AcDbLine
 10
235.1317296763
 20
143.4922107314
 30
0.0
 11
232.6369558823
 21
143.361465177
 31
0.0
  0
LINE
  5
12E
330
1F
100
AcDbEntity
  8
0
  6
HIDDEN
 62
     7
370
     0
100
AcDbLine
 10
238.9949606196
 20
149.6746726035
 30
0.0
 11
235.1317296763
 21
143.4922107314
 31
0.0
  0
LINE
  5
12F
330
1F
100
AcDbEntity
  8
0
  6
HIDDEN
 62
     7
370
     0
100
AcDbLine
 10
232.7677957729
 20
140.8648913401
 30
0.0
 11
244.1556871046
 21
141.4617054355
 31
0.0
  0
LINE
  5
130
330
1F
100
AcDbEntity
  8
0
  6
HIDDEN
 62
     7
370
     0
100
AcDbLine
 10
238.9949606196
 20
149.6746726035
 30
0.0
 11
248.8117804061
 21
150.1891503281
 31
0.0
  0
ELLIPSE
  5
131
330
1F
100
AcDbEntity
  8
0
  6
HIDDEN
 62
     7
370
     0
100
AcDbEllipse
 10
268.0236247722
 20
130.7480462203
 30
0.0
 11
26.19525546193012
 21
0.0
 31
1.891820033961266E-13
210
-7.221994978100792E-15
220
0.0
230
1.0
 40
0.9925461516
 41
2.586444043810496
 42
2.716874693603157
  0
SPLINE
  5
132
330
1F
100
AcDbEntity
  8
0
  6
HIDDEN
 62
     7
370
     0
100
AcDbSpline
210
0.0
220
0.0
230
1.0
 70
     8
 71
     3
 72
    27
 73
    23
 74
     0
 42
0.00000001
 43
0.00000001
 12
1.0
 22
0.0
 32
0.0
 13
1.0
 23
0.0
 33
0.0
 40
0.0
 40
0.0
 40
0.0
 40
0.0
 40
0.0400521771815268
 40
0.0799317352552883
 40
0.1196497738349231
 40
0.1592175284634709
 40
0.1986463631578076
 40
0.2379477624412742
 40
0.27713332288387
 40
0.316214744173775
 40
0.3552038197482794
 40
0.394112427016422
 40
0.4329525172096172
 40
0.4717361049003044
 40
0.5104752572320685
 40
0.5819485574797701
 40
0.652770248647023
 40
0.7230212198334931
 40
0.7927843453860076
 40
0.8621442483734706
 40
0.9311870345235537
 40
1.0
 40
1.0
 40
1.0
 40
1.0
 10
244.1576688386188
 20
144.4518557657109
 30
0.0
 10
244.2408221462593
 20
144.5552155895485
 30
0.0
 10
244.4067703827758
 20
144.7614897712881
 30
0.0
 10
244.6508034060878
 20
145.0616595875118
 30
0.0
 10
244.8905328744153
 20
145.3541581362291
 30
0.0
 10
245.1256535326608
 20
145.6383817517708
 30
0.0
 10
245.3562465811862
 20
145.9144910644083
 30
0.0
 10
245.5822902758854
 20
146.1824431130106
 30
0.0
 10
245.803790305596
 20
146.4422491937821
 30
0.0
 10
246.0207450485751
 20
146.6939061426996
 30
0.0
 10
246.2331548257273
 20
146.9374146541502
 30
0.0
 10
246.4410194735793
 20
147.1727744109974
 30
0.0
 10
246.6443388420767
 20
147.3999853283163
 30
0.0
 10
246.8431132228219
 20
147.6190474339247
 30
0.0
 10
247.0920962728209
 20
147.8894188653517
 30
0.0
 10
247.3849022732492
 20
148.2002431667584
 30
0.0
 10
247.7131039630739
 20
148.5371382537179
 30
0.0
 10
248.0225500097806
 20
148.8425998354807
 30
0.0
 10
248.3133580184441
 20
149.1168297719776
 30
0.0
 10
248.5850729035587
 20
149.3590550582838
 30
0.0
 10
248.8393720914152
 20
149.572127677185
 30
0.0
 10
248.9933281686167
 20
149.6878194019024
 30
0.0
 10
249.0701778763754
 20
149.7455688288574
 30
0.0
  0
CIRCLE
  5
133
330
1F
100
AcDbEntity
  8
0
  6
HIDDEN
 62
     7
370
     0
100
AcDbCircle
 10
241.7249092852
 20
145.7403520905
 30
0.0
 40
1.650000000000006
  0
SPLINE
  5
134
330
1F
100
AcDbEntity
  8
0
  6
HIDDEN
 62
     7
370
     0
100
AcDbSpline
210
0.0
220
0.0
230
1.0
 70
     8
 71
     3
 72
    18
 73
    14
 74
     0
 42
0.00000001
 43
0.00000001
 12
1.0
 22
0.0
 32
0.0
 13
1.0
 23
0.0
 33
0.0
 40
0.0
 40
0.0
 40
0.0
 40
0.0
 40
0.2499999999999998
 40
0.2499999999999998
 40
0.3749999999999997
 40
0.3749999999999997
 40
0.4999999999999997
 40
0.4999999999999997
 40
0.6249999999999997
 40
0.6249999999999997
 40
0.7499999999999996
 40
0.7499999999999996
 40
1.0
 40
1.0
 40
1.0
 40
1.0
 10
189.0545822772028
 20
133.2974684633229
 30
0.0
 10
188.9192966709004
 20
133.2261157216334
 30
0.0
 10
188.8181289246575
 20
133.0807123150439
 30
0.0
 10
188.7152675817886
 20
132.7512450794383
 30
0.0
 10
188.6891647362653
 20
132.6223115026336
 30
0.0
 10
188.6542747527204
 20
132.3267695032975
 30
0.0
 10
188.6456884944304
 20
132.1623747297755
 30
0.0
 10
188.6455887848648
 20
131.8014131150349
 30
0.0
 10
188.6540771560133
 20
131.6048433228727
 30
0.0
 10
188.6882205355339
 20
131.1794885267477
 30
0.0
 10
188.7140175173877
 20
130.9497188769482
 30
0.0
 10
188.8174186487757
 20
130.2171301825158
 30
0.0
 10
188.919276640947
 20
129.6798934075982
 30
0.0
 10
189.0545822772028
 20
129.0956053188506
 30
0.0
  0
LINE
  5
135
330
1F
100
AcDbEntity
  8
0
  6
HIDDEN
 62
     7
370
     0
100
AcDbLine
 10
188.1759026208
 20
133.5206573799
 30
0.0
 11
188.1759026208
 21
128.3805048921
 31
0.0
  0
LINE
  5
136
330
1F
100
AcDbEntity
  8
0
  6
HIDDEN
 62
     7
370
     0
100
AcDbLine
 10
161.8759026208
 20
132.8599098373
 30
0.0
 11
161.8759026208
 21
128.0501311208
 31
0.0
  0
LINE
  5
137
330
1F
100
AcDbEntity
  8
0
  6
HIDDEN
 62
     7
370
     0
100
AcDbLine
 10
160.3759026208
 20
131.9938844335
 30
0.0
 11
160.3759026208
 21
127.6171184189
 31
0.0
  0
LINE
  5
138
330
1F
100
AcDbEntity
  8
0
  6
HIDDEN
 62
     7
370
     0
100
AcDbLine
 10
161.8759026208
 20
103.9509860699
 30
0.0
 11
161.8759026208
 21
99.1412073534
 31
0.0
  0
LINE
  5
139
330
1F
100
AcDbEntity
  8
0
  6
HIDDEN
 62
     7
370
     0
100
AcDbLine
 10
160.3759026208
 20
104.3839987718
 30
0.0
 11
160.3759026208
 21
100.0072327572
 31
0.0
  0
SPLINE
  5
13A
330
1F
100
AcDbEntity
  8
0
  6
HIDDEN
 62
     7
370
     0
100
AcDbSpline
210
0.0
220
0.0
230
1.0
 70
     8
 71
     3
 72
    18
 73
    14
 74
     0
 42
0.00000001
 43
0.00000001
 12
1.0
 22
0.0
 32
0.0
 13
1.0
 23
0.0
 33
0.0
 40
0.0
 40
0.0
 40
0.0
 40
0.0
 40
0.2499999999999997
 40
0.2499999999999997
 40
0.3749999999999993
 40
0.3749999999999993
 40
0.4999999999999989
 40
0.4999999999999989
 40
0.6249999999999991
 40
0.6249999999999991
 40
0.7499999999999994
 40
0.7499999999999994
 40
1.0
 40
1.0
 40
1.0
 40
1.0
 10
189.0545822772028
 20
102.9055118717856
 30
0.0
 10
188.9192966709004
 20
102.321310278054
 30
0.0
 10
188.8181289246575
 20
101.7870925908458
 30
0.0
 10
188.7152675817886
 20
101.0611958199574
 30
0.0
 10
188.6891647362653
 20
100.8313153321775
 30
0.0
 10
188.6542747527204
 20
100.4007443873907
 30
0.0
 10
188.6456884944304
 20
100.2030494818966
 30
0.0
 10
188.6455887848648
 20
99.84170143921874
 30
0.0
 10
188.6540771560133
 20
99.67805142927261
 30
0.0
 10
188.6882205355339
 20
99.38484015630365
 30
0.0
 10
188.7140175173877
 20
99.25484409018785
 30
0.0
 10
188.8174186487757
 20
98.92078819762592
 30
0.0
 10
188.919276640947
 20
98.77501203326113
 30
0.0
 10
189.0545822772028
 20
98.70364872731328
 30
0.0
  0
LINE
  5
13B
330
1F
100
AcDbEntity
  8
0
  6
HIDDEN
 62
     7
370
     0
100
AcDbLine
 10
188.1759026208
 20
103.6206122986
 30
0.0
 11
188.1759026208
 21
98.4804598108
 31
0.0
  0
SPLINE
  5
13C
330
1F
100
AcDbEntity
  8
0
  6
HIDDEN
 62
     7
370
     0
100
AcDbSpline
210
0.0
220
0.0
230
1.0
 70
     8
 71
     3
 72
    22
 73
    18
 74
     0
 42
0.00000001
 43
0.00000001
 12
1.0
 22
0.0
 32
0.0
 13
1.0
 23
0.0
 33
0.0
 40
0.0
 40
0.0
 40
0.0
 40
0.0
 40
0.1249999999999994
 40
0.1249999999999994
 40
0.2499999999999988
 40
0.2499999999999988
 40
0.374999999999999
 40
0.374999999999999
 40
0.4999999999999992
 40
0.4999999999999992
 40
0.6249999999999994
 40
0.6249999999999994
 40
0.7499999999999996
 40
0.7499999999999996
 40
0.8749999999999998
 40
0.8749999999999998
 40
1.0
 40
1.0
 40
1.0
 40
1.0
 10
242.8892391639557
 20
146.9094696779747
 30
0.0
 10
242.8282652827683
 20
146.9701938621374
 30
0.0
 10
242.760778731438
 20
147.02809091456
 30
0.0
 10
242.6081794532112
 20
147.1371808555755
 30
0.0
 10
242.5233655908814
 20
147.1884541495788
 30
0.0
 10
242.324648949841
 20
147.2814051007009
 30
0.0
 10
242.2114008630417
 20
147.3226860710442
 30
0.0
 10
241.9497085093805
 20
147.3804497065307
 30
0.0
 10
241.7962460564177
 20
147.3963818105097
 30
0.0
 10
241.4803069136485
 20
147.3797705997056
 30
0.0
 10
241.3302690955153
 20
147.3481325979142
 30
0.0
 10
241.0743519967169
 20
147.2626773690622
 30
0.0
 10
240.9677698643602
 20
147.2104474667295
 30
0.0
 10
240.7805158832039
 20
147.0977619844078
 30
0.0
 10
240.7007137050859
 20
147.0374052215161
 30
0.0
 10
240.5601278769749
 20
146.9127887335931
 30
0.0
 10
240.4990379446477
 20
146.848116963356
 30
0.0
 10
240.4447516625127
 20
146.7813595165389
 30
0.0
  0
LINE
  5
13D
330
1F
100
AcDbEntity
  8
0
  6
HIDDEN
 62
     7
370
     0
100
AcDbLine
 10
160.3759026208
 20
127.6171184189
 30
0.0
 11
160.3759026208
 21
118.3397295236
 31
0.0
  0
LINE
  5
13E
330
1F
100
AcDbEntity
  8
0
  6
HIDDEN
 62
     7
370
     0
100
AcDbLine
 10
160.3759026208
 20
113.6613876671
 30
0.0
 11
160.3759026208
 21
104.3839987718
 31
0.0
  0
LINE
  5
13F
330
1F
100
AcDbEntity
  8
0
  6
HIDDEN
 62
     7
370
     0
100
AcDbLine
 10
161.8759026208
 20
112.852081477
 30
0.0
 11
161.8759026208
 21
103.9509860699
 31
0.0
  0
LINE
  5
140
330
1F
100
AcDbEntity
  8
0
  6
HIDDEN
 62
     7
370
     0
100
AcDbLine
 10
161.8759026208
 20
128.0501311208
 30
0.0
 11
161.8759026208
 21
119.1490357137
 31
0.0
  0
LINE
  5
141
330
1F
100
AcDbEntity
  8
0
  6
HIDDEN
 62
     7
370
     0
100
AcDbLine
 10
188.1759026208
 20
128.3805048921
 30
0.0
 11
188.1759026208
 21
103.6206122986
 31
0.0
  0
LINE
  5
142
330
1F
100
AcDbEntity
  8
0
  6
HIDDEN
 62
     7
370
     0
100
AcDbLine
 10
190.1759026208
 20
127.5628328284
 30
0.0
 11
190.1759026208
 21
104.4382843622
 31
0.0
  0
ARC
  5
143
330
1F
100
AcDbEntity
  8
0
  6
HIDDEN
 62
     7
370
     0
100
AcDbCircle
 10
241.7249092852
 20
145.7403520905
 30
0.0
 40
1.650000000000022
100
AcDbArc
 50
140.882442128
 51
45.117557872
  0
SPLINE
  5
144
330
1F
100
AcDbEntity
  8
0
  6
HIDDEN
 62
     7
370
     0
100
AcDbSpline
210
0.0
220
0.0
230
1.0
 70
     8
 71
     3
 72
    18
 73
    14
 74
     0
 42
0.00000001
 43
0.00000001
 12
1.0
 22
0.0
 32
0.0
 13
1.0
 23
0.0
 33
0.0
 40
0.0
 40
0.0
 40
0.0
 40
0.0
 40
0.2500000000000055
 40
0.2500000000000055
 40
0.3750000000000047
 40
0.3750000000000047
 40
0.500000000000004
 40
0.500000000000004
 40
0.6250000000000032
 40
0.6250000000000032
 40
0.7500000000000023
 40
0.7500000000000023
 40
1.0
 40
1.0
 40
1.0
 40
1.0
 10
240.4447516625127
 20
146.7813595165389
 30
0.0
 10
240.6381857664408
 20
146.7397312728533
 30
0.0
 10
240.8335916818133
 20
146.6984929537442
 30
0.0
 10
241.1377557151483
 20
146.647362333525
 30
0.0
 10
241.2408225534153
 20
146.6322137517755
 30
0.0
 10
241.4555958220488
 20
146.6122234642299
 30
0.0
 10
241.567632675786
 20
146.6080547223877
 30
0.0
 10
241.7906950798081
 20
146.6197488933725
 30
0.0
 10
241.9025020130549
 20
146.6357627038449
 30
0.0
 10
242.1129601800312
 20
146.6779106984348
 30
0.0
 10
242.2148045712444
 20
146.7039665278828
 30
0.0
 10
242.512263797007
 20
146.7867398775091
 30
0.0
 10
242.7014372175423
 20
146.8479225907584
 30
0.0
 10
242.889239163956
 20
146.9094696779746
 30
0.0
  0
SPLINE
  5
145
330
1F
100
AcDbEntity
  8
0
  6
HIDDEN
 62
     7
370
     0
100
AcDbSpline
210
0.0
220
0.0
230
1.0
 70
     8
 71
     3
 72
     8
 73
     4
 74
     0
 42
0.00000001
 43
0.00000001
 12
1.0
 22
0.0
 32
0.0
 13
1.0
 23
0.0
 33
0.0
 40
0.0000202085968836
 40
0.0000202085968836
 40
0.0000202085968836
 40
0.0000202085968836
 40
0.0040218806502652
 40
0.0040218806502652
 40
0.0040218806502652
 40
0.0040218806502652
 10
161.8759026207624
 20
112.8520814769814
 30
0.0
 10
163.209225746553
 20
112.8280832458178
 30
0.0
 10
164.5425596197756
 20
112.8047555056494
 30
0.0
 10
165.8759026207624
 20
112.782060834869
 30
0.0
  0
SPLINE
  5
146
330
1F
100
AcDbEntity
  8
0
  6
HIDDEN
 62
     7
370
     0
100
AcDbSpline
210
0.0
220
0.0
230
1.0
 70
     8
 71
     3
 72
     8
 73
     4
 74
     0
 42
0.00000001
 43
0.00000001
 12
1.0
 22
0.0
 32
0.0
 13
1.0
 23
0.0
 33
0.0
 40
0.0000202082942178
 40
0.0000202082942178
 40
0.0000202082942178
 40
0.0000202082942178
 40
0.0040218803475994
 40
0.0040218803475994
 40
0.0040218803475994
 40
0.0040218803475994
 10
165.8759026207624
 20
119.2190563557672
 30
0.0
 10
164.5425596197756
 20
119.1963616849868
 30
0.0
 10
163.209225746553
 20
119.1730339448185
 30
0.0
 10
161.8759026207624
 20
119.1490357136548
 30
0.0
  0
SPLINE
  5
147
330
1F
100
AcDbEntity
  8
0
  6
HIDDEN
 62
     7
370
     0
100
AcDbSpline
210
0.0
220
0.0
230
1.0
 70
     8
 71
     3
 72
     8
 73
     4
 74
     0
 42
0.00000001
 43
0.00000001
 12
1.0
 22
0.0
 32
0.0
 13
1.0
 23
0.0
 33
0.0
 40
0.0
 40
0.0
 40
0.0
 40
0.0
 40
1.0
 40
1.0
 40
1.0
 40
1.0
 10
160.3759026207624
 20
113.6613876670831
 30
0.0
 10
160.8501140312001
 20
113.3266584397883
 30
0.0
 10
161.3548503783016
 20
113.0676000259556
 30
0.0
 10
161.8759026207624
 20
112.8520814769814
 30
0.0
  0
SPLINE
  5
148
330
1F
100
AcDbEntity
  8
0
  6
HIDDEN
 62
     7
370
     0
100
AcDbSpline
210
0.0
220
0.0
230
1.0
 70
     8
 71
     3
 72
     8
 73
     4
 74
     0
 42
0.00000001
 43
0.00000001
 12
1.0
 22
0.0
 32
0.0
 13
1.0
 23
0.0
 33
0.0
 40
0.0
 40
0.0
 40
0.0
 40
0.0
 40
1.0
 40
1.0
 40
1.0
 40
1.0
 10
161.8759026207624
 20
119.1490357136548
 30
0.0
 10
161.3548503783016
 20
118.9335171646807
 30
0.0
 10
160.8501140312001
 20
118.6744587508479
 30
0.0
 10
160.3759026207624
 20
118.3397295235531
 30
0.0
  0
LINE
  5
149
330
1F
100
AcDbEntity
  8
0
  6
HIDDEN
 62
     7
370
     0
100
AcDbLine
 10
160.3759026208
 20
113.6613876671
 30
0.0
 11
160.3759026208
 21
118.3397295236
 31
0.0
  0
LINE
  5
14A
330
1F
100
AcDbEntity
  8
0
  6
HIDDEN
 62
     7
370
     0
100
AcDbLine
 10
165.8759026208
 20
112.7820608349
 30
0.0
 11
165.8759026208
 21
119.2190563558
 31
0.0
  0
SPLINE
  5
14B
330
1F
100
AcDbEntity
  8
0
  6
HIDDEN
 62
     7
370
     0
100
AcDbSpline
210
0.0
220
0.0
230
1.0
 70
     8
 71
     3
 72
    26
 73
    22
 74
     0
 42
0.00000001
 43
0.00000001
 12
1.0
 22
0.0
 32
0.0
 13
1.0
 23
0.0
 33
0.0
 40
0.0
 40
0.0
 40
0.0
 40
0.0
 40
0.1249999999999998
 40
0.1249999999999998
 40
0.2499999999999996
 40
0.2499999999999996
 40
0.3749999999999993
 40
0.3749999999999993
 40
0.4374999999999992
 40
0.4374999999999992
 40
0.4999999999999991
 40
0.4999999999999991
 40
0.562499999999999
 40
0.562499999999999
 40
0.6249999999999989
 40
0.6249999999999989
 40
0.7499999999999992
 40
0.7499999999999992
 40
0.8749999999999997
 40
0.8749999999999997
 40
1.0
 40
1.0
 40
1.0
 40
1.0
 10
165.8759026207624
 20
112.782060834869
 30
0.0
 10
166.0865459827623
 20
113.0166778658141
 30
0.0
 10
166.2937424205193
 20
113.2545610017735
 30
0.0
 10
166.6952415551517
 20
113.7418753080424
 30
0.0
 10
166.8905179741977
 20
113.9920005328314
 30
0.0
 10
167.2502984668932
 20
114.5105906782824
 30
0.0
 10
167.4155573270425
 20
114.7780216621692
 30
0.0
 10
167.6082152364687
 20
115.2094367945677
 30
0.0
 10
167.6631799766787
 20
115.3594556764921
 30
0.0
 10
167.7409157616428
 20
115.6721928552221
 30
0.0
 10
167.7621818999511
 20
115.8299471020294
 30
0.0
 10
167.7640758292369
 20
116.1486523818752
 30
0.0
 10
167.7438500921699
 20
116.3110891820557
 30
0.0
 10
167.6693856818841
 20
116.6220411816383
 30
0.0
 10
167.6157465561381
 20
116.772712419966
 30
0.0
 10
167.4210022507374
 20
117.2147961779346
 30
0.0
 10
167.2539521375592
 20
117.4848401911023
 30
0.0
 10
166.8936960188556
 20
118.0049478193837
 30
0.0
 10
166.6989436438352
 20
118.2546090321934
 30
0.0
 10
166.2959344193629
 20
118.7440331440362
 30
0.0
 10
166.0874979009994
 20
118.9833790672001
 30
0.0
 10
165.8759026207633
 20
119.219056355768
 30
0.0
  0
SPLINE
  5
14C
330
1F
100
AcDbEntity
  8
0
  6
HIDDEN
 62
     7
370
     0
100
AcDbSpline
210
0.0
220
0.0
230
1.0
 70
     8
 71
     3
 72
    68
 73
    64
 74
     0
 42
0.00000001
 43
0.00000001
 12
1.0
 22
0.0
 32
0.0
 13
1.0
 23
0.0
 33
0.0
 40
-0.0312499999999999
 40
-0.0312499999999999
 40
0.0
 40
0.0
 40
0.0312500000000001
 40
0.0312500000000001
 40
0.0625000000000002
 40
0.0625000000000002
 40
0.0937500000000003
 40
0.0937500000000003
 40
0.1250000000000004
 40
0.1250000000000004
 40
0.1562500000000004
 40
0.1562500000000004
 40
0.1875000000000006
 40
0.1875000000000006
 40
0.2500000000000005
 40
0.2500000000000005
 40
0.2812500000000006
 40
0.2812500000000006
 40
0.3125000000000005
 40
0.3125000000000005
 40
0.3437500000000005
 40
0.3437500000000005
 40
0.3750000000000004
 40
0.3750000000000004
 40
0.4062500000000004
 40
0.4062500000000004
 40
0.4375000000000004
 40
0.4375000000000004
 40
0.4687500000000004
 40
0.4687500000000004
 40
0.5000000000000004
 40
0.5000000000000004
 40
0.5312500000000004
 40
0.5312500000000004
 40
0.5625000000000004
 40
0.5625000000000004
 40
0.5937500000000003
 40
0.5937500000000003
 40
0.6250000000000003
 40
0.6250000000000003
 40
0.6562500000000003
 40
0.6562500000000003
 40
0.6875000000000003
 40
0.6875000000000003
 40
0.7187500000000003
 40
0.7187500000000003
 40
0.7500000000000002
 40
0.7500000000000002
 40
0.7812500000000002
 40
0.7812500000000002
 40
0.8125000000000002
 40
0.8125000000000002
 40
0.8437500000000002
 40
0.8437500000000002
 40
0.8750000000000002
 40
0.8750000000000002
 40
0.9062500000000002
 40
0.9062500000000002
 40
0.9375000000000001
 40
0.9375000000000001
 40
0.9687500000000001
 40
0.9687500000000001
 40
1.0
 40
1.0
 40
1.03125
 40
1.03125
 10
174.095663285506
 20
118.2584462863098
 30
0.0
 10
174.4305508051789
 20
118.5296875230568
 30
0.0
 10
174.6088170271146
 20
118.6473288159285
 30
0.0
 10
174.9858417240079
 20
118.8486603399383
 30
0.0
 10
175.1860304453843
 20
118.9324685431519
 30
0.0
 10
175.5926984850151
 20
119.0605605667203
 30
0.0
 10
175.8006136510353
 20
119.1058653636804
 30
0.0
 10
176.2256019502587
 20
119.159023074986
 30
0.0
 10
176.4416386012427
 20
119.1663052590215
 30
0.0
 10
176.8661495700942
 20
119.1427578214842
 30
0.0
 10
177.076676543484
 20
119.1122536190073
 30
0.0
 10
177.494161754271
 20
119.01239400554
 30
0.0
 10
177.6970252878494
 20
118.9437981177793
 30
0.0
 10
178.2783418068642
 20
118.6864566745603
 30
0.0
 10
178.63874905964
 20
118.4399067832504
 30
0.0
 10
179.0834880564016
 20
117.9866682271755
 30
0.0
 10
179.2186772765442
 20
117.8190876476991
 30
0.0
 10
179.4516171511464
 20
117.4602255727878
 30
0.0
 10
179.5483004968011
 20
117.2714670524336
 30
0.0
 10
179.7015317614506
 20
116.8749533762253
 30
0.0
 10
179.7581487188187
 20
116.6646089671384
 30
0.0
 10
179.8236009206536
 20
116.2432204388556
 30
0.0
 10
179.8335592792808
 20
116.0307043196919
 30
0.0
 10
179.8067252701136
 20
115.6019295445917
 30
0.0
 10
179.7697056063408
 20
115.3893633164447
 30
0.0
 10
179.652542327304
 20
114.9800686723668
 30
0.0
 10
179.5710034498092
 20
114.7792200006591
 30
0.0
 10
179.3697642384052
 20
114.402093242148
 30
0.0
 10
179.2508325032343
 20
114.2258729206184
 30
0.0
 10
178.9776586901421
 20
113.8971167996363
 30
0.0
 10
178.8237979154319
 20
113.7458186317367
 30
0.0
 10
178.493875317416
 20
113.4782314782574
 30
0.0
 10
178.3155534923444
 20
113.3597603175466
 30
0.0
 10
177.937529492422
 20
113.1568735136118
 30
0.0
 10
177.7416004936408
 20
113.0742545591638
 30
0.0
 10
177.3365152058064
 20
112.944814382633
 30
0.0
 10
177.1251804079365
 20
112.8978391522025
 30
0.0
 10
176.701295618284
 20
112.8431241972843
 30
0.0
 10
176.4888603450218
 20
112.8348944488412
 30
0.0
 10
176.0630082777268
 20
112.8563859466419
 30
0.0
 10
175.8478641143172
 20
112.8867835688604
 30
0.0
 10
175.4327345745768
 20
112.9845260257486
 30
0.0
 10
175.2311096088331
 20
113.0516445394974
 30
0.0
 10
174.840023109562
 20
113.2232876396577
 30
0.0
 10
174.6502035006711
 20
113.3286336984423
 30
0.0
 10
174.2996128804994
 20
113.569336640137
 30
0.0
 10
174.1366064008529
 20
113.7054595164696
 30
0.0
 10
173.8365440781643
 20
114.0111129857037
 30
0.0
 10
173.70127518096
 20
114.1795646651925
 30
0.0
 10
173.4703312281271
 20
114.535845351476
 30
0.0
 10
173.3728490086548
 20
114.7255990308826
 30
0.0
 10
173.2178664492503
 20
115.1282073931669
 30
0.0
 10
173.1629999284332
 20
115.3340471368399
 30
0.0
 10
173.097592057769
 20
115.7546267731623
 30
0.0
 10
173.087445811936
 20
115.97212859046
 30
0.0
 10
173.1141141744755
 20
116.3988687294206
 30
0.0
 10
173.150151566302
 20
116.6087714385078
 30
0.0
 10
173.2675627118699
 20
117.0216602591663
 30
0.0
 10
173.3486902464881
 20
117.2219832039502
 30
0.0
 10
173.5484472906775
 20
117.5982217224153
 30
0.0
 10
173.6689497898036
 20
117.777676467663
 30
0.0
 10
173.9430302351695
 20
118.1080243957528
 30
0.0
 10
174.095663285506
 20
118.2584462863098
 30
0.0
 10
174.4305508051789
 20
118.5296875230568
 30
0.0
  0
CIRCLE
  5
14D
330
1F
100
AcDbEntity
  8
0
  6
HIDDEN
 62
     7
370
     0
100
AcDbCircle
 10
176.3759026208
 20
116.0005585953
 30
0.0
 40
3.050000000000011
  0
SPLINE
  5
14E
330
1F
100
AcDbEntity
  8
0
  6
HIDDEN
 62
     7
370
     0
100
AcDbSpline
210
0.0
220
0.0
230
1.0
 70
     8
 71
     3
 72
    24
 73
    20
 74
     0
 42
0.00000001
 43
0.00000001
 12
1.0
 22
0.0
 32
0.0
 13
1.0
 23
0.0
 33
0.0
 40
0.0
 40
0.0
 40
0.0
 40
0.0
 40
0.052922772167722
 40
0.1043445292594982
 40
0.1542659369889459
 40
0.2026877232293756
 40
0.2496106859200921
 40
0.295035702265894
 40
0.3389637394908305
 40
0.3813958674704298
 40
0.4223332736478717
 40
0.4617772807447725
 40
0.4997293679145601
 40
0.5888293651541754
 40
0.675606393774893
 40
0.7600846282323226
 40
0.8422902716342946
 40
0.9222517618728552
 40
1.0
 40
1.0
 40
1.0
 40
1.0
 10
243.8988195751897
 20
144.8488654594838
 30
0.0
 10
243.8084976337812
 20
144.7340742594624
 30
0.0
 10
243.6304154949959
 20
144.5077476095393
 30
0.0
 10
243.3702559253562
 20
144.1618060393625
 30
0.0
 10
243.1200502517826
 20
143.8182052567045
 30
0.0
 10
242.8799671091301
 20
143.4768972621216
 30
0.0
 10
242.6499151863942
 20
143.1388076741252
 30
0.0
 10
242.4298716758045
 20
142.8045727876082
 30
0.0
 10
242.2197987197001
 20
142.4748635459446
 30
0.0
 10
242.0196626586394
 20
142.1503038224698
 30
0.0
 10
241.8294363816115
 20
141.8314909199442
 30
0.0
 10
241.6490728035415
 20
141.5189953935364
 30
0.0
 10
241.3997920899
 20
141.0720416214783
 30
0.0
 10
241.0895318964486
 20
140.4826446461221
 30
0.0
 10
240.7293770901457
 20
139.7393445973429
 30
0.0
 10
240.3967987227042
 20
138.9916409782806
 30
0.0
 10
240.0922387514846
 20
138.2408937370316
 30
0.0
 10
239.8135694379242
 20
137.4907491387057
 30
0.0
 10
239.6475557366186
 20
136.9806403348694
 30
0.0
 10
239.5657137797829
 20
136.7291652916846
 30
0.0
  0
SPLINE
  5
14F
330
1F
100
AcDbEntity
  8
0
  6
HIDDEN
 62
     7
370
     0
100
AcDbSpline
210
0.0
220
0.0
230
1.0
 70
     8
 71
     3
 72
    29
 73
    25
 74
     0
 42
0.00000001
 43
0.00000001
 12
1.0
 22
0.0
 32
0.0
 13
1.0
 23
0.0
 33
0.0
 40
0.0
 40
0.0
 40
0.0
 40
0.0
 40
0.0436256799166397
 40
0.0873712557716877
 40
0.1312452832027457
 40
0.1752562429392387
 40
0.2194125368161705
 40
0.2637224839997946
 40
0.3081943174302775
 40
0.3528361804854671
 40
0.3976561238684244
 40
0.4426621027205188
 40
0.4878619739605143
 40
0.5332634938492021
 40
0.5788743157780525
 40
0.6247019882794328
 40
0.6707539532551113
 40
0.7170375444188997
 40
0.7635599859486298
 40
0.8103283913419772
 40
0.8573497624700742
 40
0.9046309888223479
 40
0.9521788469356
 40
1.0
 40
1.0
 40
1.0
 40
1.0
 10
239.7709438395086
 20
136.2168943242461
 30
0.0
 10
239.8159130324638
 20
136.3611876324651
 30
0.0
 10
239.9059750066735
 20
136.6501708084899
 30
0.0
 10
240.0501098605625
 20
137.0763404479809
 30
0.0
 10
240.2008222627004
 20
137.4977779086946
 30
0.0
 10
240.3585701371025
 20
137.9138477091287
 30
0.0
 10
240.5229786801331
 20
138.3246327244352
 30
0.0
 10
240.6938985333826
 20
138.7300296896628
 30
0.0
 10
240.8711210995167
 20
139.1299925184819
 30
0.0
 10
241.0544553490552
 20
139.5244666273286
 30
0.0
 10
241.2437072798494
 20
139.913406462456
 30
0.0
 10
241.4386855896256
 20
140.296770614929
 30
0.0
 10
241.6392002787379
 20
140.6745229750927
 30
0.0
 10
241.8450631534054
 20
141.0466322503744
 30
0.0
 10
242.0560878016961
 20
141.4130719554342
 30
0.0
 10
242.2720897358566
 20
141.7738201556823
 30
0.0
 10
242.4928863673711
 20
142.1288597245254
 30
0.0
 10
242.7182974564679
 20
142.478176780524
 30
0.0
 10
242.9481437889856
 20
142.8217659392571
 30
0.0
 10
243.1822524874843
 20
143.1596099444512
 30
0.0
 10
243.4204373460553
 20
143.4917556769669
 30
0.0
 10
243.6625731132569
 20
143.8180275544435
 30
0.0
 10
243.9083162208324
 20
144.1391054559944
 30
0.0
 10
244.074392659942
 20
144.3474066891207
 30
0.0
 10
244.1576688386188
 20
144.4518557657109
 30
0.0
  0
LINE
  5
150
330
1F
100
AcDbEntity
  8
0
  6
HIDDEN
 62
     7
370
     0
100
AcDbLine
 10
223.4746010366
 20
98.0139166805
 30
0.0
 11
223.4746010366
 21
116.0005585953
 31
0.0
  0
ELLIPSE
  5
151
330
1F
100
AcDbEntity
  8
0
  6
HIDDEN
 62
     7
370
     0
100
AcDbEllipse
 10
238.3829810524
 20
116.0005585953
 30
0.0
 11
18.14096359549069
 21
25.45688326452665
 31
0.0
210
0.0
220
0.0
230
1.0
 40
0.0817078932
 41
1.628956950646967
 42
2.41188572664392
  0
CIRCLE
  5
152
330
1F
100
AcDbEntity
  8
0
  6
HIDDEN
 62
     7
370
     0
100
AcDbCircle
 10
202.3759026208
 20
116.0005585953
 30
0.0
 40
2.0
  0
LINE
  5
153
330
1F
100
AcDbEntity
  8
0
  6
HIDDEN
 62
     7
370
     0
100
AcDbLine
 10
239.5649469233
 20
136.7279018118
 30
0.0
 11
239.7710837186
 21
136.2165162597
 31
0.0
  0
LINE
  5
154
330
1F
100
AcDbEntity
  8
0
  6
HIDDEN
 62
     7
370
     0
100
AcDbLine
 10
225.3581103639
 20
135.9845763556
 30
0.0
 11
239.5657137794
 21
136.7291652995
 31
0.0
  0
LINE
  5
155
330
1F
100
AcDbEntity
  8
0
  6
HIDDEN
 62
     7
370
     0
100
AcDbLine
 10
239.1848177141
 20
130.7480462203
 30
0.0
 11
239.1848177141
 21
121.5753745414
 31
0.0
  0
ELLIPSE
  5
156
330
1F
100
AcDbEntity
  8
0
  6
HIDDEN
 62
     7
370
     0
100
AcDbEllipse
 10
265.380073176
 20
130.7480462203
 30
0.0
 11
26.19525546193006
 21
5.684341886080801E-14
 31
0.0
210
2.965134601306149E-31
220
-1.366428338000193E-16
230
1.0
 40
0.9925461516
 41
2.929668859340778
 42
3.141592653589791
  0
SPLINE
  5
157
330
1F
100
AcDbEntity
  8
0
  6
HIDDEN
 62
     7
370
     0
100
AcDbSpline
210
0.0
220
0.0
230
1.0
 70
     8
 71
     3
 72
     8
 73
     4
 74
     0
 42
0.00000001
 43
0.00000001
 12
1.0
 22
0.0
 32
0.0
 13
1.0
 23
0.0
 33
0.0
 40
0.0
 40
0.0
 40
0.0
 40
0.0
 40
1.0
 40
1.0
 40
1.0
 40
1.0
 10
225.3581103638929
 20
135.9845763555691
 30
0.0
 10
224.458374530563
 20
130.5408794382866
 30
0.0
 10
223.7775339094903
 20
125.0643157142665
 30
0.0
 10
223.5745014590725
 20
119.516009768749
 30
0.0
  0
SPLINE
  5
158
330
1F
100
AcDbEntity
  8
0
  6
HIDDEN
 62
     7
370
     0
100
AcDbSpline
210
0.0
220
0.0
230
1.0
 70
     8
 71
     3
 72
    10
 73
     6
 74
     0
 42
0.00000001
 43
0.00000001
 12
1.0
 22
0.0
 32
0.0
 13
1.0
 23
0.0
 33
0.0
 40
0.0
 40
0.0
 40
0.0
 40
0.0
 40
0.5
 40
0.5
 40
1.0
 40
1.0
 40
1.0
 40
1.0
 10
223.5745014590725
 20
119.516009768749
 30
0.0
 10
223.55306226558
 20
118.9301368973098
 30
0.0
 10
223.5265406736533
 20
118.3443018669213
 30
0.0
 10
223.4871130551487
 20
117.1725304313101
 30
0.0
 10
223.4746010365679
 20
116.5865910924967
 30
0.0
 10
223.4746010365679
 20
116.0005585953181
 30
0.0
  0
LINE
  5
159
330
1F
100
AcDbEntity
  8
0
  6
HIDDEN
 62
     7
370
     0
100
AcDbLine
 10
239.1848177141
 20
121.5753745414
 30
0.0
 11
235.2519747494
 21
116.0005585953
 31
0.0
  0
LINE
  5
15A
330
1F
100
AcDbEntity
  8
0
  6
HIDDEN
 62
     7
370
     0
100
AcDbLine
 10
211.3759026208
 20
125.8040612256
 30
0.0
 11
211.3759026208
 21
129.6163829248
 31
0.0
  0
LINE
  5
15B
330
1F
100
AcDbEntity
  8
0
  6
HIDDEN
 62
     7
370
     0
100
AcDbLine
 10
205.3759026208
 20
129.6165254826
 30
0.0
 11
205.3759026208
 21
125.8040612256
 31
0.0
  0
LINE
  5
15C
330
1F
100
AcDbEntity
  8
0
  6
HIDDEN
 62
     7
370
     0
100
AcDbLine
 10
190.3759026208
 20
96.4505585953
 30
0.0
 11
190.4687958396
 21
96.5434518141
 31
0.0
  0
LINE
  5
15D
330
1F
100
AcDbEntity
  8
0
  6
HIDDEN
 62
     7
370
     0
100
AcDbLine
 10
190.4687958396
 20
135.4576653765
 30
0.0
 11
190.3759026208
 21
135.5505585953
 31
0.0
  0
ARC
  5
15E
330
1F
100
AcDbEntity
  8
0
  6
HIDDEN
 62
     7
370
     0
100
AcDbCircle
 10
189.7616890584
 20
97.2505585953
 30
0.0
 40
1.0
100
AcDbArc
 50
315.0
 51
0.0
  0
ARC
  5
15F
330
1F
100
AcDbEntity
  8
0
  6
HIDDEN
 62
     7
370
     0
100
AcDbCircle
 10
189.7616890584
 20
97.2505585953
 30
0.0
 40
1.000000000000004
100
AcDbArc
 50
0.0
 51
52.1052014664
  0
ARC
  5
160
330
1F
100
AcDbEntity
  8
0
  6
HIDDEN
 62
     7
370
     0
100
AcDbCircle
 10
189.7616890584
 20
134.7505585953
 30
0.0
 40
1.00000000000003
100
AcDbArc
 50
351.8087250651
 51
45.0
  0
ARC
  5
161
330
1F
100
AcDbEntity
  8
0
  6
HIDDEN
 62
     7
370
     0
100
AcDbCircle
 10
189.7616890584
 20
134.7505585953
 30
0.0
 40
1.00000000000003
100
AcDbArc
 50
307.8947985336
 51
351.8087250651
  0
LINE
  5
162
330
1F
100
AcDbEntity
  8
0
  6
HIDDEN
 62
     7
370
     0
100
AcDbLine
 10
190.7616890584
 20
97.2505585953
 30
0.0
 11
190.7616890584
 21
134.7505585953
 31
0.0
  0
LINE
  5
163
330
1F
100
AcDbEntity
  8
0
  6
HIDDEN
 62
     7
370
     0
100
AcDbLine
 10
190.7616890584
 20
97.2505585953
 30
0.0
 11
190.7616890584
 21
134.7505585953
 31
0.0
  0
LINE
  5
164
330
1F
100
AcDbEntity
  8
0
  6
HIDDEN
 62
     7
370
     0
100
AcDbLine
 10
210.8759026208
 20
124.5389220294
 30
0.0
 11
210.8759026208
 21
125.6404351517
 31
0.0
  0
LINE
  5
165
330
1F
100
AcDbEntity
  8
0
  6
HIDDEN
 62
     7
370
     0
100
AcDbLine
 10
210.8759026208
 20
119.9476708921
 30
0.0
 11
210.8759026208
 21
122.5397875546
 31
0.0
  0
LINE
  5
166
330
1F
100
AcDbEntity
  8
0
  6
HIDDEN
 62
     7
370
     0
100
AcDbLine
 10
205.8759026208
 20
125.6404351517
 30
0.0
 11
205.8759026208
 21
119.9491371839
 31
0.0
  0
LINE
  5
167
330
1F
100
AcDbEntity
  8
0
  6
HIDDEN
 62
     7
370
     0
100
AcDbLine
 10
217.9385492999
 20
133.0779595479
 30
0.0
 11
207.1375742806
 21
125.8851912732
 31
0.0
  0
LINE
  5
168
330
1F
100
AcDbEntity
  8
0
  6
HIDDEN
 62
     7
370
     0
100
AcDbLine
 10
210.7839854344
 20
122.3062421654
 30
0.0
 11
217.7679805837
 21
126.9571425379
 31
0.0
  0
ARC
  5
169
330
1F
100
AcDbEntity
  8
0
  6
HIDDEN
 62
     7
370
     0
100
AcDbCircle
 10
167.8826221328
 20
105.5005585953
 30
0.0
 40
1.500000000000014
100
AcDbArc
 50
270.0
 51
315.0
  0
ARC
  5
16A
330
1F
100
AcDbEntity
  8
0
  6
HIDDEN
 62
     7
370
     0
100
AcDbCircle
 10
167.8826221328
 20
126.5005585953
 30
0.0
 40
1.500000000000043
100
AcDbArc
 50
45.0
 51
90.0
  0
LINE
  5
16B
330
1F
100
AcDbEntity
  8
0
  6
HIDDEN
 62
     7
370
     0
100
AcDbLine
 10
166.8759026208
 20
104.0005585953
 30
0.0
 11
167.8826221328
 21
104.0005585953
 31
0.0
  0
LINE
  5
16C
330
1F
100
AcDbEntity
  8
0
  6
HIDDEN
 62
     7
370
     0
100
AcDbLine
 10
167.8826221328
 20
128.0005585953
 30
0.0
 11
166.8759026208
 21
128.0005585953
 31
0.0
  0
ARC
  5
16D
330
1F
100
AcDbEntity
  8
0
  6
HIDDEN
 62
     7
370
     0
100
AcDbCircle
 10
166.8759026208
 20
105.5005585953
 30
0.0
 40
1.500000000000017
100
AcDbArc
 50
191.0958032831
 51
270.0
  0
ARC
  5
16E
330
1F
100
AcDbEntity
  8
0
  6
HIDDEN
 62
     7
370
     0
100
AcDbCircle
 10
166.8759026208
 20
126.5005585953
 30
0.0
 40
1.500000000000014
100
AcDbArc
 50
90.0
 51
168.9041967169
  0
LINE
  5
16F
330
1F
100
AcDbEntity
  8
0
  6
HIDDEN
 62
     7
370
     0
100
AcDbLine
 10
160.3759026208
 20
104.2371465269
 30
0.0
 11
161.4039424764
 21
104.8306856142
 31
0.0
  0
LINE
  5
170
330
1F
100
AcDbEntity
  8
0
  6
HIDDEN
 62
     7
370
     0
100
AcDbLine
 10
161.4039424764
 20
127.1704315764
 30
0.0
 11
160.3759026208
 21
127.7639706638
 31
0.0
  0
LINE
  5
171
330
1F
100
AcDbEntity
  8
0
  6
HIDDEN
 62
     7
370
     0
100
AcDbLine
 10
168.9432823046
 20
104.4398984235
 30
0.0
 11
170.0039424764
 21
105.5005585953
 31
0.0
  0
LINE
  5
172
330
1F
100
AcDbEntity
  8
0
  6
HIDDEN
 62
     7
370
     0
100
AcDbLine
 10
170.0039424764
 20
126.5005585953
 30
0.0
 11
168.9432823046
 21
127.5612187671
 31
0.0
  0
LINE
  5
173
330
1F
100
AcDbEntity
  8
0
  6
HIDDEN
 62
     7
370
     0
100
AcDbLine
 10
207.0907379778
 20
125.7159066241
 30
0.0
 11
207.1139689263
 21
125.4019019392
 31
0.0
  0
LINE
  5
174
330
1F
100
AcDbEntity
  8
0
  6
HIDDEN
 62
     7
370
     0
100
AcDbLine
 10
161.4039424764
 20
104.8306856142
 30
0.0
 11
163.9039424764
 21
105.5005585953
 31
0.0
  0
LINE
  5
175
330
1F
100
AcDbEntity
  8
0
  6
HIDDEN
 62
     7
370
     0
100
AcDbLine
 10
163.9039424764
 20
126.5005585953
 30
0.0
 11
161.4039424764
 21
127.1704315764
 31
0.0
  0
LINE
  5
176
330
1F
100
AcDbEntity
  8
0
  6
HIDDEN
 62
     7
370
     0
100
AcDbLine
 10
165.4039424764
 20
126.7892337299
 30
0.0
 11
164.9039424764
 21
126.5005585953
 31
0.0
  0
LINE
  5
177
330
1F
100
AcDbEntity
  8
0
  6
HIDDEN
 62
     7
370
     0
100
AcDbLine
 10
164.9039424764
 20
105.5005585953
 30
0.0
 11
165.4039424764
 21
105.2118834607
 31
0.0
  0
LINE
  5
178
330
1F
100
AcDbEntity
  8
0
  6
HIDDEN
 62
     7
370
     0
100
AcDbLine
 10
170.0039424764
 20
105.5005585953
 30
0.0
 11
179.8759026208
 21
105.5005585953
 31
0.0
  0
LINE
  5
179
330
1F
100
AcDbEntity
  8
0
  6
HIDDEN
 62
     7
370
     0
100
AcDbLine
 10
179.8759026208
 20
126.5005585953
 30
0.0
 11
170.0039424764
 21
126.5005585953
 31
0.0
  0
LINE
  5
17A
330
1F
100
AcDbEntity
  8
0
  6
HIDDEN
 62
     7
370
     0
100
AcDbLine
 10
163.9039424764
 20
105.5005585953
 30
0.0
 11
164.9039424764
 21
105.5005585953
 31
0.0
  0
LINE
  5
17B
330
1F
100
AcDbEntity
  8
0
  6
HIDDEN
 62
     7
370
     0
100
AcDbLine
 10
164.9039424764
 20
126.5005585953
 30
0.0
 11
163.9039424764
 21
126.5005585953
 31
0.0
  0
ARC
  5
17C
330
1F
100
AcDbEntity
  8
0
  6
HIDDEN
 62
     7
370
     0
100
AcDbCircle
 10
179.8759026208
 20
106.0005585953
 30
0.0
 40
0.5
100
AcDbArc
 50
270.0
 51
0.0
  0
ARC
  5
17D
330
1F
100
AcDbEntity
  8
0
  6
HIDDEN
 62
     7
370
     0
100
AcDbCircle
 10
179.8759026208
 20
126.0005585953
 30
0.0
 40
0.5
100
AcDbArc
 50
0.0
 51
90.0
  0
LINE
  5
17E
330
1F
100
AcDbEntity
  8
0
  6
HIDDEN
 62
     7
370
     0
100
AcDbLine
 10
180.3759026208
 20
107.7505585953
 30
0.0
 11
181.3759026208
 21
108.7505585953
 31
0.0
  0
LINE
  5
17F
330
1F
100
AcDbEntity
  8
0
  6
HIDDEN
 62
     7
370
     0
100
AcDbLine
 10
181.3759026208
 20
123.2505585953
 30
0.0
 11
180.3759026208
 21
124.2505585953
 31
0.0
  0
LINE
  5
180
330
1F
100
AcDbEntity
  8
0
  6
HIDDEN
 62
     7
370
     0
100
AcDbLine
 10
214.3759026208
 20
123.2505585953
 30
0.0
 11
181.3759026208
 21
123.2505585953
 31
0.0
  0
LINE
  5
181
330
1F
100
AcDbEntity
  8
0
  6
HIDDEN
 62
     7
370
     0
100
AcDbLine
 10
181.3759026208
 20
108.7505585953
 30
0.0
 11
214.3759026208
 21
108.7505585953
 31
0.0
  0
LINE
  5
182
330
1F
100
AcDbEntity
  8
0
  6
HIDDEN
 62
     7
370
     0
100
AcDbLine
 10
214.3759026208
 20
108.7505585953
 30
0.0
 11
218.7321421087
 21
116.0005585953
 31
0.0
  0
LINE
  5
183
330
1F
100
AcDbEntity
  8
0
  6
HIDDEN
 62
     7
370
     0
100
AcDbLine
 10
218.7321421087
 20
116.0005585953
 30
0.0
 11
214.3759026208
 21
123.2505585953
 31
0.0
  0
LINE
  5
184
330
1F
100
AcDbEntity
  8
VERMASSUNG
  6
CENTERX2
100
AcDbLine
 10
250.3759026208
 20
151.0005585953
 30
0.0
 11
250.3759026208
 21
116.0005585953
 31
0.0
  0
LINE
  5
185
330
1F
100
AcDbEntity
  8
VERMASSUNG
  6
CENTERX2
100
AcDbLine
 10
156.6064663619
 20
116.0005585953
 30
0.0
 11
250.3759026208
 21
116.0005585953
 31
0.0
  0
LINE
  5
186
330
1F
100
AcDbEntity
  8
VERMASSUNG
  6
CENTERX2
100
AcDbLine
 10
250.3759026208
 20
151.0005585953
 30
0.0
 11
250.3759026208
 21
164.7478367143
 31
0.0
  0
DIMENSION
  5
187
330
1F
100
AcDbEntity
  8
VERMASSUNG
100
AcDbDimension
  2
_D
 10
249.9636475018
 20
151.0004652701
 30
0.0
 11
243.0367138646
 21
157.9867007235
 31
0.0
 70
   162
  1
<>
 71
     1
 42
-1.0
  3
SLDDIMSTYLE0
100
AcDb2LineAngularDimension
 13
250.3759026208
 23
164.7478367143
 33
0.0
 14
250.3759026208
 24
151.0005585953
 34
0.0
 15
239.3167522274
 25
150.4424851326
 35
0.0
 16
243.0367138646
 26
157.9867007235
 36
0.0
  0
DIMENSION
  5
190
330
1F
100
AcDbEntity
  8
VERMASSUNG
100
AcDbDimension
  2
_D_1
 10
250.3759026208
 20
165.8536579121
 30
0.0
 11
220.3759026208
 21
165.8536579121
 31
0.0
 70
   160
  1
<>
 71
     2
 42
-1.0
  3
SLDDIMSTYLE1
100
AcDbAlignedDimension
 13
190.3759026208
 23
140.7005585953
 33
0.0
 14
250.3759026208
 24
151.0005585953
 34
0.0
100
AcDbRotatedDimension
  0
DIMENSION
  5
19D
330
1F
100
AcDbEntity
  8
VERMASSUNG
100
AcDbDimension
  2
_D_2
 10
160.3759026208
 20
171.8536579121
 30
0.0
 11
205.3759026208
 21
171.8536579121
 31
0.0
 70
   160
  1
<>
 71
     2
 42
-1.0
  3
SLDDIMSTYLE2
100
AcDbAlignedDimension
 13
250.3759026208
 23
151.0005585953
 33
0.0
 14
160.3759026208
 24
131.9938844335
 34
0.0
100
AcDbRotatedDimension
  0
DIMENSION
  5
1A8
330
1F
100
AcDbEntity
  8
VERMASSUNG
100
AcDbDimension
  2
_D_3
 10
259.6872191551
 20
116.0005585953
 30
0.0
 11
259.6872191551
 21
133.5005585953
 31
0.0
 70
   160
  1
<>
 71
     2
 42
-1.0
  3
SLDDIMSTYLE1
100
AcDbAlignedDimension
 13
250.3759026208
 23
151.0005585953
 33
0.0
 14
250.3759026208
 24
116.0005585953
 34
0.0
 50
90.0
100
AcDbRotatedDimension
  0
DIMENSION
  5
1B4
330
1F
100
AcDbEntity
  8
VERMASSUNG
100
AcDbDimension
  2
_D_4
 10
150.3759026208
 20
91.0005585953
 30
0.0
 11
150.3759026208
 21
116.0005585953
 31
0.0
 70
   160
  1
PSC%%c<>
 71
     2
 42
-1.0
  3
SLDDIMSTYLE2
100
AcDbAlignedDimension
 13
190.6759026208
 23
141.0005585953
 33
0.0
 14
190.6759026208
 24
91.0005585953
 34
0.0
 50
90.0
100
AcDbRotatedDimension
  0
SPLINE
  5
1C0
330
1F
100
AcDbEntity
  8
0
  6
Continuous
 62
     7
370
    15
100
AcDbSpline
210
0.0
220
0.0
230
1.0
 70
    24
 71
     3
 72
    14
 73
    10
 74
     0
 42
0.00000001
 43
0.00000001
 12
1.0
 22
0.0
 32
0.0
 13
1.0
 23
0.0
 33
0.0
 40
0.0
 40
0.0
 40
0.0
 40
0.0
 40
0.1588501103508032
 40
0.3173321153184893
 40
0.4720153553660849
 40
0.6236441635915667
 40
0.7746618341644318
 40
0.9277417761107916
 40
0.9999999999999999
 40
0.9999999999999999
 40
0.9999999999999999
 40
0.9999999999999999
 10
81.41542673072586
 20
150.395961423564
 30
0.0
 10
81.41542673072584
 20
150.4372349928177
 30
0.0
 10
81.41542673072583
 20
150.5196864875576
 30
0.0
 10
81.41542673072595
 20
150.6593205431122
 30
0.0
 10
81.4154267307255
 20
150.7892294293311
 30
0.0
 10
81.41542673072594
 20
150.8969009217967
 30
0.0
 10
81.41542673072583
 20
150.97112518932
 30
0.0
 10
81.41542673072586
 20
151.0010204136123
 30
0.0
 10
81.41542673072586
 20
151.0006000623751
 30
0.0
 10
81.41542673072586
 20
151.0004652701454
 30
0.0
  0
SPLINE
  5
1C1
330
1F
100
AcDbEntity
  8
0
  6
Continuous
 62
     7
370
    15
100
AcDbSpline
210
0.0
220
0.0
230
1.0
 70
     8
 71
     3
 72
    10
 73
     6
 74
     0
 42
0.00000001
 43
0.00000001
 12
1.0
 22
0.0
 32
0.0
 13
1.0
 23
0.0
 33
0.0
 40
0.0
 40
0.0
 40
0.0
 40
0.0
 40
0.2789471803881305
 40
0.5613894457331594
 40
1.0
 40
1.0
 40
1.0
 40
1.0
 10
81.41542673072598
 20
151.0004652701454
 30
0.0
 10
81.78312913947268
 20
150.9526198963448
 30
0.0
 10
82.52314110573039
 20
150.8563296673435
 30
0.0
 10
83.85645946559872
 20
150.6934402135992
 30
0.0
 10
84.80713720747374
 20
150.5697141863793
 30
0.0
 10
85.38542673072587
 20
150.4944526522723
 30
0.0
  0
SPLINE
  5
1C2
330
1F
100
AcDbEntity
  8
0
  6
Continuous
 62
     7
370
    15
100
AcDbSpline
210
0.0
220
0.0
230
1.0
 70
    24
 71
     3
 72
    14
 73
    10
 74
     0
 42
0.00000001
 43
0.00000001
 12
1.0
 22
0.0
 32
0.0
 13
1.0
 23
0.0
 33
0.0
 40
0.0
 40
0.0
 40
0.0
 40
0.0
 40
0.1583203796596253
 40
0.3168008057739489
 40
0.4713744813488266
 40
0.6221259069006175
 40
0.772126273174427
 40
0.9245922366698142
 40
1.0
 40
1.0
 40
1.0
 40
1.0
 10
85.38542673072587
 20
150.4944526522723
 30
0.0
 10
85.38542673072558
 20
150.4939552504369
 30
0.0
 10
85.38542673072502
 20
150.4929599439414
 30
0.0
 10
85.38542673072608
 20
150.4771318777961
 30
0.0
 10
85.3854267307258
 20
150.4527839522115
 30
0.0
 10
85.38542673072587
 20
150.4221959105905
 30
0.0
 10
85.38542673072585
 20
150.3890666883602
 30
0.0
 10
85.38542673072585
 20
150.3618689684103
 30
0.0
 10
85.38542673072585
 20
150.3474940606693
 30
0.0
 10
85.38542673072585
 20
150.3427371294692
 30
0.0
  0
LINE
  5
1C3
330
1F
100
AcDbEntity
  8
0
  6
Continuous
 62
     7
370
    15
100
AcDbLine
 10
85.3854267307
 20
141.6965490154
 30
0.0
 11
85.3854267307
 21
150.3427371295
 31
0.0
  0
LINE
  5
1C4
330
1F
100
AcDbEntity
  8
0
  6
Continuous
 62
     7
370
    15
100
AcDbLine
 10
81.4154267307
 20
141.3544911354
 30
0.0
 11
81.4154267307
 21
150.3959614236
 31
0.0
  0
SPLINE
  5
1C5
330
1F
100
AcDbEntity
  8
0
  6
Continuous
 62
     7
370
    15
100
AcDbSpline
210
0.0
220
0.0
230
1.0
 70
    24
 71
     3
 72
    10
 73
     6
 74
     0
 42
0.00000001
 43
0.00000001
 12
1.0
 22
0.0
 32
0.0
 13
1.0
 23
0.0
 33
0.0
 40
0.0
 40
0.0
 40
0.0
 40
0.0
 40
0.2657122957245609
 40
0.6165157621684056
 40
0.9999999999999999
 40
0.9999999999999999
 40
0.9999999999999999
 40
0.9999999999999999
 10
85.3854267307259
 20
141.6965490154105
 30
0.0
 10
85.38542673072577
 20
141.6897712746189
 30
0.0
 10
85.38542673072548
 20
141.674045302968
 30
0.0
 10
85.38542673072604
 20
141.6557315015511
 30
0.0
 10
85.38542673072594
 20
141.6519843305955
 30
0.0
 10
85.3854267307259
 20
141.6500273578864
 30
0.0
  0
SPLINE
  5
1C6
330
1F
100
AcDbEntity
  8
0
  6
Continuous
 62
     7
370
    15
100
AcDbSpline
210
0.0
220
0.0
230
1.0
 70
    24
 71
     3
 72
    10
 73
     6
 74
     0
 42
0.00000001
 43
0.00000001
 12
1.0
 22
0.0
 32
0.0
 13
1.0
 23
0.0
 33
0.0
 40
0.0
 40
0.0
 40
0.0
 40
0.0
 40
0.3518022785810789
 40
0.7034245935032126
 40
1.0
 40
1.0
 40
1.0
 40
1.0
 10
81.4154267307259
 20
141.1684089585296
 30
0.0
 10
81.4154267307259
 20
141.1752066166652
 30
0.0
 10
81.4154267307259
 20
141.1887984556097
 30
0.0
 10
81.4154267307259
 20
141.2585362333678
 30
0.0
 10
81.4154267307259
 20
141.3243697620625
 30
0.0
 10
81.4154267307259
 20
141.3544911353542
 30
0.0
  0
LINE
  5
1C7
330
1F
100
AcDbEntity
  8
0
  6
Continuous
 62
     7
370
    15
100
AcDbLine
 10
81.4154267307
 20
140.6104288209
 30
0.0
 11
81.7154267307
 21
140.6490658971
 31
0.0
  0
LINE
  5
1C8
330
1F
100
AcDbEntity
  8
0
  6
Continuous
 62
     7
370
    15
100
AcDbLine
 10
81.4154267307
 20
140.6104288209
 30
0.0
 11
81.4154267307
 21
141.1684089585
 31
0.0
  0
SPLINE
  5
1C9
330
1F
100
AcDbEntity
  8
0
  6
Continuous
 62
     7
370
    15
100
AcDbSpline
210
0.0
220
0.0
230
1.0
 70
     8
 71
     3
 72
    27
 73
    23
 74
     0
 42
0.00000001
 43
0.00000001
 12
1.0
 22
0.0
 32
0.0
 13
1.0
 23
0.0
 33
0.0
 40
0.0
 40
0.0
 40
0.0
 40
0.0
 40
0.0400521771815268
 40
0.0799317352552883
 40
0.1196497738349231
 40
0.1592175284634709
 40
0.1986463631578076
 40
0.2379477624412742
 40
0.27713332288387
 40
0.316214744173775
 40
0.3552038197482794
 40
0.394112427016422
 40
0.4329525172096172
 40
0.4717361049003044
 40
0.5104752572320685
 40
0.5819485574797701
 40
0.652770248647023
 40
0.7230212198334931
 40
0.7927843453860076
 40
0.8621442483734706
 40
0.9311870345235537
 40
1.0
 40
1.0
 40
1.0
 40
1.0
 10
98.45423880237047
 20
144.4518557657109
 30
0.0
 10
98.30302336152708
 20
144.5552155895485
 30
0.0
 10
98.00124419658367
 20
144.7614897712881
 30
0.0
 10
97.541364677771
 20
145.0616595875118
 30
0.0
 10
97.07749455161537
 20
145.3541581362291
 30
0.0
 10
96.60904777474288
 20
145.6383817517708
 30
0.0
 10
96.13618049522107
 20
145.9144910644083
 30
0.0
 10
95.65885116883594
 20
146.1824431130106
 30
0.0
 10
95.17707095182982
 20
146.4422491937821
 30
0.0
 10
94.69083695004178
 20
146.6939061426996
 30
0.0
 10
94.20015008375665
 20
146.9374146541502
 30
0.0
 10
93.7050100704007
 20
147.1727744109974
 30
0.0
 10
93.20541769987362
 20
147.3999853283163
 30
0.0
 10
92.70137073883349
 20
147.6190474339247
 30
0.0
 10
92.04952796414034
 20
147.8894188653517
 30
0.0
 10
91.24664672299976
 20
148.2002431667584
 30
0.0
 10
90.2881689281573
 20
148.5371382537179
 30
0.0
 10
89.32247368760314
 20
148.8425998354807
 30
0.0
 10
88.34963048083489
 20
149.1168297719776
 30
0.0
 10
87.3694117419362
 20
149.3590550582838
 30
0.0
 10
86.38267010533993
 20
149.572127677185
 30
0.0
 10
85.71757130500642
 20
149.6878194019024
 30
0.0
 10
85.38557630120152
 20
149.7455688288574
 30
0.0
  0
SPLINE
  5
1CA
330
1F
100
AcDbEntity
  8
0
  6
Continuous
 62
     7
370
    15
100
AcDbSpline
210
0.0
220
0.0
230
1.0
 70
     8
 71
     3
 72
    33
 73
    29
 74
     0
 42
0.00000001
 43
0.00000001
 12
1.0
 22
0.0
 32
0.0
 13
1.0
 23
0.0
 33
0.0
 40
0.0
 40
0.0
 40
0.0
 40
0.0
 40
0.0354969527754861
 40
0.0712045938738896
 40
0.1071265929326121
 40
0.1432665542912906
 40
0.1796280174725567
 40
0.2162144577117475
 40
0.2530292865319608
 40
0.2900758523608346
 40
0.3273574411856746
 40
0.3648772772435472
 40
0.4026385237431274
 40
0.4406442836152287
 40
0.4788976002890037
 40
0.5174014584910129
 40
0.556158785064429
 40
0.595172449805786
 40
0.6344452663168499
 40
0.6739799928692548
 40
0.7137793332797342
 40
0.7538459377938701
 40
0.7941824039764057
 40
0.8347912776063204
 40
0.8756750535749238
 40
0.9168361767854204
 40
0.9582770430524107
 40
1.0
 40
1.0
 40
1.0
 40
1.0
 10
85.38549873613887
 20
150.1891560763043
 30
0.0
 10
85.558569340027
 20
150.1598834409285
 30
0.0
 10
85.90573778964875
 20
150.1011644256163
 30
0.0
 10
86.42470458024
 20
150.0022098734627
 30
0.0
 10
86.94411049879567
 20
149.8949126912592
 30
0.0
 10
87.46357559580078
 20
149.7784410320961
 30
0.0
 10
87.9830094749513
 20
149.6529455133615
 30
0.0
 10
88.50224043307631
 20
149.518314247089
 30
0.0
 10
89.02111576995881
 20
149.3745095507337
 30
0.0
 10
89.53947470151964
 20
149.2214769896694
 30
0.0
 10
90.05715572518245
 20
149.0591700671338
 30
0.0
 10
90.57399467054194
 20
148.8875436389635
 30
0.0
 10
91.08982527176981
 20
148.7065557870895
 30
0.0
 10
91.60447906041554
 20
148.5161674050912
 30
0.0
 10
92.11778544473113
 20
148.3163424027559
 30
0.0
 10
92.62957174056142
 20
148.1070477425305
 30
0.0
 10
93.13966322001775
 20
147.8882535234277
 30
0.0
 10
93.64788315014552
 20
147.6599330438609
 30
0.0
 10
94.15405286645378
 20
147.4220629001293
 30
0.0
 10
94.65799172851248
 20
147.1746229609798
 30
0.0
 10
95.15951752926863
 20
146.9175968047675
 30
0.0
 10
95.65844520447277
 20
146.6509704120092
 30
0.0
 10
96.15459196044696
 20
146.3747374325077
 30
0.0
 10
96.64775821609598
 20
146.0888796652824
 30
0.0
 10
97.13779973429146
 20
145.7934409823802
 30
0.0
 10
97.62435597670535
 20
145.4882489633683
 30
0.0
 10
98.10787454607203
 20
145.1739646978181
 30
0.0
 10
98.42537480404971
 20
144.95747664721
 30
0.0
 10
98.58466341155243
 20
144.8488654594838
 30
0.0
  0
LINE
  5
1CB
330
1F
100
AcDbEntity
  8
0
  6
Continuous
 62
     7
370
    15
100
AcDbLine
 10
81.7154267307
 20
141.2126488824
 30
0.0
 11
81.7154267307
 21
130.7480462203
 31
0.0
  0
ELLIPSE
  5
1CC
330
1F
100
AcDbEntity
  8
0
  6
Continuous
 62
     7
370
    15
100
AcDbEllipse
 10
-18.8811570872
 20
130.7480462203
 30
0.0
 11
223.4518953884005
 21
25.96478972643484
 31
0.0
210
0.0
220
0.0
230
1.0
 40
0.0060534818
 41
5.178667443820907
 42
5.189573353145777
  0
ELLIPSE
  5
1CD
330
1F
100
AcDbEntity
  8
0
  6
Continuous
 62
     7
370
    15
100
AcDbEllipse
 10
1944.7131133768
 20
130.7480462203
 30
0.0
 11
4046.116558414823
 21
-25.96383481333564
 31
0.0
210
0.0
220
0.0
230
1.0
 40
0.000338811
 41
4.234503375984541
 42
4.234920829825742
  0
SPLINE
  5
1CE
330
1F
100
AcDbEntity
  8
0
  6
Continuous
 62
     7
370
    15
100
AcDbSpline
210
0.0
220
0.0
230
1.0
 70
     8
 71
     3
 72
    29
 73
    25
 74
     0
 42
0.00000001
 43
0.00000001
 12
1.0
 22
0.0
 32
0.0
 13
1.0
 23
0.0
 33
0.0
 40
0.0
 40
0.0
 40
0.0
 40
0.0
 40
0.0436256799166397
 40
0.0873712557716877
 40
0.1312452832027457
 40
0.1752562429392387
 40
0.2194125368161705
 40
0.2637224839997946
 40
0.3081943174302775
 40
0.3528361804854671
 40
0.3976561238684244
 40
0.4426621027205188
 40
0.4878619739605143
 40
0.5332634938492021
 40
0.5788743157780525
 40
0.6247019882794328
 40
0.6707539532551113
 40
0.7170375444188997
 40
0.7635599859486298
 40
0.8103283913419772
 40
0.8573497624700742
 40
0.9046309888223479
 40
0.9521788469356
 40
1.0
 40
1.0
 40
1.0
 40
1.0
 10
106.9146786119078
 20
136.2168943242461
 30
0.0
 10
106.8093175767497
 20
136.3611876324651
 30
0.0
 10
106.5983059439509
 20
136.6501708084899
 30
0.0
 10
106.2744866745339
 20
137.0763404479809
 30
0.0
 10
105.9447796365045
 20
137.4977779086946
 30
0.0
 10
105.6086621303306
 20
137.9138477091287
 30
0.0
 10
105.2662440386888
 20
138.3246327244352
 30
0.0
 10
104.9174651317011
 20
138.7300296896628
 30
0.0
 10
104.5623111599656
 20
139.1299925184819
 30
0.0
 10
104.2007556881427
 20
139.5244666273286
 30
0.0
 10
103.8327757786341
 20
139.913406462456
 30
0.0
 10
103.4583477829125
 20
140.296770614929
 30
0.0
 10
103.0774484925239
 20
140.6745229750927
 30
0.0
 10
102.6900548403655
 20
141.0466322503744
 30
0.0
 10
102.2961440090447
 20
141.4130719554342
 30
0.0
 10
101.8956933643622
 20
141.7738201556823
 30
0.0
 10
101.4886806769612
 20
142.1288597245254
 30
0.0
 10
101.0750833565002
 20
142.478176780524
 30
0.0
 10
100.6548813695253
 20
142.8217659392571
 30
0.0
 10
100.2280463073317
 20
143.1596099444512
 30
0.0
 10
99.79458254904982
 20
143.4917556769669
 30
0.0
 10
99.354372419283
 20
143.8180275544435
 30
0.0
 10
98.90775892400819
 20
144.1391054559944
 30
0.0
 10
98.60570070807768
 20
144.3474066891207
 30
0.0
 10
98.45423880237053
 20
144.4518557657109
 30
0.0
  0
LINE
  5
1CF
330
1F
100
AcDbEntity
  8
0
  6
Continuous
 62
     7
370
    15
100
AcDbLine
 10
106.9154267307
 20
136.216913343
 30
0.0
 11
106.9154267307
 21
130.7480462203
 31
0.0
  0
LINE
  5
1D0
330
1F
100
AcDbEntity
  8
0
  6
Continuous
 62
     7
370
    15
100
AcDbLine
 10
85.3854267307
 20
141.4617054355
 30
0.0
 11
85.3854267307
 21
141.6559463775
 31
0.0
  0
LINE
  5
1D1
330
1F
100
AcDbEntity
  8
0
  6
Continuous
 62
     7
370
    15
100
AcDbLine
 10
106.9154267307
 20
136.7279018118
 30
0.0
 11
106.9154267307
 21
136.2165162597
 31
0.0
  0
SPLINE
  5
1D2
330
1F
100
AcDbEntity
  8
0
  6
Continuous
 62
     7
370
    15
100
AcDbSpline
210
0.0
220
0.0
230
1.0
 70
     8
 71
     3
 72
    24
 73
    20
 74
     0
 42
0.00000001
 43
0.00000001
 12
1.0
 22
0.0
 32
0.0
 13
1.0
 23
0.0
 33
0.0
 40
0.0
 40
0.0
 40
0.0
 40
0.0
 40
0.052922772167722
 40
0.1043445292594982
 40
0.1542659369889459
 40
0.2026877232293756
 40
0.2496106859200921
 40
0.295035702265894
 40
0.3389637394908305
 40
0.3813958674704298
 40
0.4223332736478717
 40
0.4617772807447725
 40
0.4997293679145601
 40
0.5888293651541754
 40
0.675606393774893
 40
0.7600846282323226
 40
0.8422902716342946
 40
0.9222517618728552
 40
1.0
 40
1.0
 40
1.0
 40
1.0
 10
98.58466341155246
 20
144.8488654594838
 30
0.0
 10
98.74943750428302
 20
144.7340742594624
 30
0.0
 10
99.07431230648811
 20
144.5077476095393
 30
0.0
 10
99.54828429413747
 20
144.1618060393625
 30
0.0
 10
100.0039432823548
 20
143.8182052567045
 30
0.0
 10
100.4411957458771
 20
143.4768972621216
 30
0.0
 10
100.8605076687001
 20
143.1388076741252
 30
0.0
 10
101.2622118891229
 20
142.8045727876082
 30
0.0
 10
101.6466832316847
 20
142.4748635459446
 30
0.0
 10
102.0142910882135
 20
142.1503038224698
 30
0.0
 10
102.3654109208498
 20
141.8314909199442
 30
0.0
 10
102.7004139887436
 20
141.5189953935364
 30
0.0
 10
103.1672913725405
 20
141.0720416214783
 30
0.0
 10
103.7573340324667
 20
140.4826446461221
 30
0.0
 10
104.4584578068185
 20
139.7393445973429
 30
0.0
 10
105.1239206010973
 20
138.9916409782806
 30
0.0
 10
105.7539804388132
 20
138.2408937370316
 30
0.0
 10
106.3511246554941
 20
137.4907491387057
 30
0.0
 10
106.7290941472196
 20
136.9806403348694
 30
0.0
 10
106.9154267365405
 20
136.7291652916846
 30
0.0
  0
ARC
  5
1D3
330
1F
100
AcDbEntity
  8
0
  6
Continuous
 62
     7
370
    15
100
AcDbCircle
 10
81.4154267307
 20
116.0005585953
 30
0.0
 40
25.0
100
AcDbArc
 50
269.161277156
 51
308.0902106314
  0
ELLIPSE
  5
1D4
330
1F
100
AcDbEntity
  8
0
  6
Continuous
 62
     7
370
    15
100
AcDbEllipse
 10
78.7154267307
 20
93.2686106922
 30
0.0
 11
0.693920324617082
 21
4.257959140539555
 31
0.0
210
0.0
220
0.0
230
1.0
 40
0.6854557539
 41
4.266516623121696
 42
4.945809650574097
  0
LINE
  5
1D5
330
1F
100
AcDbEntity
  8
0
  6
Continuous
 62
     7
370
    15
100
AcDbLine
 10
81.7154267307
 20
121.5753745414
 30
0.0
 11
106.9154267307
 21
121.5753745414
 31
0.0
  0
LINE
  5
1D6
330
1F
100
AcDbEntity
  8
0
  6
Continuous
 62
     7
370
    15
100
AcDbLine
 10
106.9154267307
 20
121.5753745414
 30
0.0
 11
106.9154267307
 21
116.0005585953
 31
0.0
  0
ARC
  5
1D7
330
1F
100
AcDbEntity
  8
0
  6
Continuous
 62
     7
370
    15
100
AcDbCircle
 10
81.4154267307
 20
116.0005585953
 30
0.0
 40
25.50000000000028
100
AcDbArc
 50
315.141485476
 51
0.0
  0
SPLINE
  5
1D8
330
1F
100
AcDbEntity
  8
0
  6
Continuous
 62
     7
370
    15
100
AcDbSpline
210
0.0
220
0.0
230
1.0
 70
     8
 71
     3
 72
    12
 73
     8
 74
     0
 42
0.00000001
 43
0.00000001
 12
1.0
 22
0.0
 32
0.0
 13
1.0
 23
0.0
 33
0.0
 40
0.0
 40
0.0
 40
0.0
 40
0.0
 40
0.5000000000000021
 40
0.5000000000000021
 40
0.750000000000001
 40
0.750000000000001
 40
1.0
 40
1.0
 40
1.0
 40
1.0
 10
96.83796205581866
 20
96.32454771540988
 30
0.0
 10
97.24508728708292
 20
96.64366236213536
 30
0.0
 10
97.67122791701352
 20
96.94372398437979
 30
0.0
 10
98.33329115789584
 20
97.37091890386738
 30
0.0
 10
98.55837986438605
 20
97.50930642078552
 30
0.0
 10
99.01682379831115
 20
97.7730464465003
 30
0.0
 10
99.25030569308673
 20
97.89877100847967
 30
0.0
 10
99.49112070438954
 20
98.013916680539
 30
0.0
  0
LINE
  5
1D9
330
1F
100
AcDbEntity
  8
0
  6
Continuous
 62
     7
370
    15
100
AcDbLine
 10
81.7154267307
 20
121.5753745414
 30
0.0
 11
81.7154267307
 21
93.7907530718
 31
0.0
  0
LINE
  5
1DA
330
1F
100
AcDbEntity
  8
0
  6
Continuous
 62
     7
370
    15
100
AcDbLine
 10
106.9154267307
 20
130.7480462203
 30
0.0
 11
106.9154267307
 21
121.5753745414
 31
0.0
  0
LINE
  5
1DB
330
1F
100
AcDbEntity
  8
0
  6
Continuous
 62
     7
370
    15
100
AcDbLine
 10
81.7154267307
 20
130.7480462203
 30
0.0
 11
81.7154267307
 21
121.5753745414
 31
0.0
  0
SPLINE
  5
1DC
330
1F
100
AcDbEntity
  8
0
  6
Continuous
 62
     7
370
    15
100
AcDbSpline
210
0.0
220
0.0
230
1.0
 70
     8
 71
     3
 72
    12
 73
     8
 74
     0
 42
0.00000001
 43
0.00000001
 12
1.0
 22
0.0
 32
0.0
 13
1.0
 23
0.0
 33
0.0
 40
0.0
 40
0.0
 40
0.0
 40
0.0
 40
0.4999999999999987
 40
0.4999999999999987
 40
0.7499999999999993
 40
0.7499999999999993
 40
1.0
 40
1.0
 40
1.0
 40
1.0
 10
81.04947792212839
 20
91.00323710941714
 30
0.0
 10
80.85052199989859
 20
91.00614972878496
 30
0.0
 10
80.616565983247
 20
91.01192404601942
 30
0.0
 10
80.21996289247456
 20
91.02880705493753
 30
0.0
 10
80.08010964514934
 20
91.03583152640753
 30
0.0
 10
79.79307640844306
 20
91.0528402873041
 30
0.0
 10
79.64487390190534
 20
91.06286247036522
 30
0.0
 10
79.49188386603406
 20
91.07466878476788
 30
0.0
  0
SPLINE
  5
1DD
330
1F
100
AcDbEntity
  8
0
  6
Continuous
 62
     7
370
    15
100
AcDbSpline
210
0.0
220
0.0
230
1.0
 70
     8
 71
     3
 72
    13
 73
     9
 74
     0
 42
0.00000001
 43
0.00000001
 12
1.0
 22
0.0
 32
0.0
 13
1.0
 23
0.0
 33
0.0
 40
0.0
 40
0.0
 40
0.0
 40
0.0
 40
0.1920559039125352
 40
0.3896863334547132
 40
0.581742204098538
 40
0.7793563462404881
 40
0.9716435836503773
 40
1.0
 40
1.0
 40
1.0
 40
1.0
 10
79.49188386603407
 20
140.9264484058683
 30
0.0
 10
79.6494600914317
 20
140.9377086396676
 30
0.0
 10
79.96918627669287
 20
140.9605559415923
 30
0.0
 10
80.40611090714236
 20
140.9812282332544
 30
0.0
 10
80.80299869236724
 20
140.993974712129
 30
0.0
 10
81.13001470108823
 20
140.9994837446608
 30
0.0
 10
81.33648865849383
 20
141.0007328133331
 30
0.0
 10
81.40643717164232
 20
141.0004976747349
 30
0.0
 10
81.41542673072586
 20
141.0004674554747
 30
0.0
  0
ELLIPSE
  5
1DE
330
1F
100
AcDbEntity
  8
0
  6
Continuous
 62
     7
370
    15
100
AcDbEllipse
 10
72.3008147438
 20
130.0175510429
 30
0.0
 11
1.756445035685374
 21
2.815924377711212
 31
0.0
210
0.0
220
0.0
230
1.0
 40
0.7353403728
 41
0.0
 42
6.283185307179586
  0
ARC
  5
1DF
330
1F
100
AcDbEntity
  8
0
  6
Continuous
 62
     7
370
    15
100
AcDbCircle
 10
81.4154267307
 20
116.0005585953
 30
0.0
 40
24.99999999999999
100
AcDbArc
 50
94.4127968195
 51
265.5872031805
  0
CIRCLE
  5
1E0
330
1F
100
AcDbEntity
  8
VERMASSUNG
  6
CENTERX2
100
AcDbCircle
 10
81.4154267307
 20
118.4496354192
 30
0.0
 40
32.49999999999999
  0
DIMENSION
  5
1E1
330
1F
100
AcDbEntity
  8
VERMASSUNG
100
AcDbDimension
  2
_D_5
 10
58.4344563422
 20
141.4306058078
 30
0.0
 11
51.2382046561
 21
148.6268574938
 31
0.0
 70
   160
  1
%%c<> min. 
 71
     2
 42
-1.0
  3
SLDDIMSTYLE3
100
AcDbAlignedDimension
 13
104.3963971193
 23
95.4686650307
 33
0.0
 14
58.4344563422
 24
141.4306058078
 34
0.0
 50
-45.0
100
AcDbRotatedDimension
  0
INSERT
  5
1FB
330
1F
100
AcDbEntity
  8
VERMASSUNG
100
AcDbBlockReference
  2
SW_CENTERMARKSYMBOL_0
 10
81.4154267307
 20
116.0005585953
 30
0.0
  0
OLE2FRAME
  5
1FC
330
1F
100
AcDbEntity
  8
0
100
AcDbOle2Frame
 70
     2
  3
Paintbrush-Bild
 10
13.8511154363
 20
38.264191557
 30
0.0
 11
51.6290888628
 21
31.9806341108
 31
0.0
 71
     2
 72
     0
 73
     1
 90
    12928
310
80552BED0767C5B32B40DDAF6807D121434000000000000000006FFBDDFB85D0
310
4940DDAF6807D121434000000000000000006FFBDDFB85D04940416F4BD60AFB
310
3F4000000000000000002BED0767C5B32B40416F4BD60AFB3F40000000000000
310
0000000000000100000000010000010000000100000000000100000000320000
310
D0CF11E0A1B11AE1000000000000000000000000000000003E000300FEFF0900
310
0600000000000000000000000100000001000000000000000010000002000000
310
01000000FEFFFFFF0000000000000000FFFFFFFFFFFFFFFFFFFFFFFFFFFFFFFF
310
FFFFFFFFFFFFFFFFFFFFFFFFFFFFFFFFFFFFFFFFFFFFFFFFFFFFFFFFFFFFFFFF
310
FFFFFFFFFFFFFFFFFFFFFFFFFFFFFFFFFFFFFFFFFFFFFFFFFFFFFFFFFFFFFFFF
310
FFFFFFFFFFFFFFFFFFFFFFFFFFFFFFFFFFFFFFFFFFFFFFFFFFFFFFFFFFFFFFFF
310
FFFFFFFFFFFFFFFFFFFFFFFFFFFFFFFFFFFFFFFFFFFFFFFFFFFFFFFFFFFFFFFF
310
FFFFFFFFFFFFFFFFFFFFFFFFFFFFFFFFFFFFFFFFFFFFFFFFFFFFFFFFFFFFFFFF
310
FFFFFFFFFFFFFFFFFFFFFFFFFFFFFFFFFFFFFFFFFFFFFFFFFFFFFFFFFFFFFFFF
310
FFFFFFFFFFFFFFFFFFFFFFFFFFFFFFFFFFFFFFFFFFFFFFFFFFFFFFFFFFFFFFFF
310
FFFFFFFFFFFFFFFFFFFFFFFFFFFFFFFFFFFFFFFFFFFFFFFFFFFFFFFFFFFFFFFF
310
FFFFFFFFFFFFFFFFFFFFFFFFFFFFFFFFFFFFFFFFFFFFFFFFFFFFFFFFFFFFFFFF
310
FFFFFFFFFFFFFFFFFFFFFFFFFFFFFFFFFFFFFFFFFFFFFFFFFFFFFFFFFFFFFFFF
310
FFFFFFFFFFFFFFFFFFFFFFFFFFFFFFFFFFFFFFFFFFFFFFFFFFFFFFFFFFFFFFFF
310
FFFFFFFFFFFFFFFFFFFFFFFFFFFFFFFFFFFFFFFFFFFFFFFFFFFFFFFFFFFFFFFF
310
FFFFFFFFFFFFFFFFFFFFFFFFFFFFFFFFFFFFFFFFFFFFFFFFFFFFFFFFFFFFFFFF
310
FDFFFFFFFEFFFFFFFEFFFFFFFEFFFFFF05000000060000000700000008000000
310
090000000A0000000B0000000C0000000D0000000E0000000F00000010000000
310
11000000120000001300000014000000150000001600000017000000FEFFFFFF
310
FFFFFFFFFFFFFFFFFFFFFFFFFFFFFFFFFFFFFFFFFFFFFFFFFFFFFFFFFFFFFFFF
310
FFFFFFFFFFFFFFFFFFFFFFFFFFFFFFFFFFFFFFFFFFFFFFFFFFFFFFFFFFFFFFFF
310
FFFFFFFFFFFFFFFFFFFFFFFFFFFFFFFFFFFFFFFFFFFFFFFFFFFFFFFFFFFFFFFF
310
FFFFFFFFFFFFFFFFFFFFFFFFFFFFFFFFFFFFFFFFFFFFFFFFFFFFFFFFFFFFFFFF
310
FFFFFFFFFFFFFFFFFFFFFFFFFFFFFFFFFFFFFFFFFFFFFFFFFFFFFFFFFFFFFFFF
310
FFFFFFFFFFFFFFFFFFFFFFFFFFFFFFFFFFFFFFFFFFFFFFFFFFFFFFFFFFFFFFFF
310
FFFFFFFFFFFFFFFFFFFFFFFFFFFFFFFFFFFFFFFFFFFFFFFFFFFFFFFFFFFFFFFF
310
FFFFFFFFFFFFFFFFFFFFFFFFFFFFFFFFFFFFFFFFFFFFFFFFFFFFFFFFFFFFFFFF
310
FFFFFFFFFFFFFFFFFFFFFFFFFFFFFFFFFFFFFFFFFFFFFFFFFFFFFFFFFFFFFFFF
310
FFFFFFFFFFFFFFFFFFFFFFFFFFFFFFFFFFFFFFFFFFFFFFFFFFFFFFFFFFFFFFFF
310
FFFFFFFFFFFFFFFFFFFFFFFFFFFFFFFFFFFFFFFFFFFFFFFFFFFFFFFFFFFFFFFF
310
FFFFFFFFFFFFFFFFFFFFFFFFFFFFFFFFFFFFFFFFFFFFFFFFFFFFFFFFFFFFFFFF
310
FFFFFFFFFFFFFFFFFFFFFFFFFFFFFFFFFFFFFFFFFFFFFFFFFFFFFFFFFFFFFFFF
310
52006F006F007400200045006E00740072007900000000000000000000000000
310
0000000000000000000000000000000000000000000000000000000000000000
310
16000500FFFFFFFFFFFFFFFF020000000A00030000000000C000000000000046
310
000000000000000000000000A03F65461D38CD0103000000C000000000000000
310
01004F006C006500000000000000000000000000000000000000000000000000
310
0000000000000000000000000000000000000000000000000000000000000000
310
0A000200FFFFFFFFFFFFFFFFFFFFFFFF00000000000000000000000000000000
310
0000000000000000000000000000000000000000000000001400000000000000
310
010043006F006D0070004F0062006A0000000000000000000000000000000000
310
0000000000000000000000000000000000000000000000000000000000000000
310
120002010100000003000000FFFFFFFF00000000000000000000000000000000
310
0000000000000000000000000000000000000000010000004D00000000000000
310
01004F006C006500310030004E00610074006900760065000000000000000000
310
0000000000000000000000000000000000000000000000000000000000000000
310
1A000200FFFFFFFFFFFFFFFFFFFFFFFF00000000000000000000000000000000
310
0000000000000000000000000000000000000000040000002426000000000000
310
FEFFFFFF02000000FEFFFFFFFFFFFFFFFFFFFFFFFFFFFFFFFFFFFFFFFFFFFFFF
310
FFFFFFFFFFFFFFFFFFFFFFFFFFFFFFFFFFFFFFFFFFFFFFFFFFFFFFFFFFFFFFFF
310
FFFFFFFFFFFFFFFFFFFFFFFFFFFFFFFFFFFFFFFFFFFFFFFFFFFFFFFFFFFFFFFF
310
FFFFFFFFFFFFFFFFFFFFFFFFFFFFFFFFFFFFFFFFFFFFFFFFFFFFFFFFFFFFFFFF
310
FFFFFFFFFFFFFFFFFFFFFFFFFFFFFFFFFFFFFFFFFFFFFFFFFFFFFFFFFFFFFFFF
310
FFFFFFFFFFFFFFFFFFFFFFFFFFFFFFFFFFFFFFFFFFFFFFFFFFFFFFFFFFFFFFFF
310
FFFFFFFFFFFFFFFFFFFFFFFFFFFFFFFFFFFFFFFFFFFFFFFFFFFFFFFFFFFFFFFF
310
FFFFFFFFFFFFFFFFFFFFFFFFFFFFFFFFFFFFFFFFFFFFFFFFFFFFFFFFFFFFFFFF
310
FFFFFFFFFFFFFFFFFFFFFFFFFFFFFFFFFFFFFFFFFFFFFFFFFFFFFFFFFFFFFFFF
310
FFFFFFFFFFFFFFFFFFFFFFFFFFFFFFFFFFFFFFFFFFFFFFFFFFFFFFFFFFFFFFFF
310
FFFFFFFFFFFFFFFFFFFFFFFFFFFFFFFFFFFFFFFFFFFFFFFFFFFFFFFFFFFFFFFF
310
FFFFFFFFFFFFFFFFFFFFFFFFFFFFFFFFFFFFFFFFFFFFFFFFFFFFFFFFFFFFFFFF
310
FFFFFFFFFFFFFFFFFFFFFFFFFFFFFFFFFFFFFFFFFFFFFFFFFFFFFFFFFFFFFFFF
310
FFFFFFFFFFFFFFFFFFFFFFFFFFFFFFFFFFFFFFFFFFFFFFFFFFFFFFFFFFFFFFFF
310
FFFFFFFFFFFFFFFFFFFFFFFFFFFFFFFFFFFFFFFFFFFFFFFFFFFFFFFFFFFFFFFF
310
FFFFFFFFFFFFFFFFFFFFFFFFFFFFFFFFFFFFFFFFFFFFFFFFFFFFFFFFFFFFFFFF
310
0100000200000000000000000000000000000000000000000000000000000000
310
0000000000000000000000000000000000000000000000000000000000000000
310
0100FEFF030A0000FFFFFFFF0A00030000000000C00000000000004607000000
310
5042727573680007000000504272757368000700000050427275736800F439B2
310
7100000000000000000000000000000000000000000000000000000000000000
310
0000000000000000000000000000000000000000000000000000000000000000
310
0000000000000000000000000000000000000000000000000000000000000000
310
0000000000000000000000000000000000000000000000000000000000000000
310
0000000000000000000000000000000000000000000000000000000000000000
310
0000000000000000000000000000000000000000000000000000000000000000
310
0000000000000000000000000000000000000000000000000000000000000000
310
0000000000000000000000000000000000000000000000000000000000000000
310
0000000000000000000000000000000000000000000000000000000000000000
310
0000000000000000000000000000000000000000000000000000000000000000
310
0000000000000000000000000000000000000000000000000000000000000000
310
0000000000000000000000000000000000000000000000000000000000000000
310
20260000424D0E260000000000003E00000028000000B40200006E0000000100
310
01000000000000000000130B0000130B00000200000002000000000000FFFFFF
310
FFFFFFFFFFFFFFFFFFFFFFFFFFFFFFFFFFFFFFFFFFFFFFFFFFFFFFFFFFFFFFFF
310
FFFFFFFFFFFFFFFFFFFFFFFFFFFFFFFFFFFFFFFFFFFFFFFFFFFFFFFFFFFFFFFF
310
FFFFFFFFFFFFFFFFFFFFFFFFFFFFFFFFFFFFFFFFFFFFFFFFF000FFFFFFFFFFFF
310
FFFFFFFFFFFFFFFFFFFFFFFFFFFFFFFFFFFFFFFFFFFFFFFFFFFFFFFFFFFFFFFF
310
FFFFFFFFFFFFFFFFFFFFFFFFFFFFFFFFFFFFFFFFFFFFFFFFFFFFFFFFFFFFFFFF
310
FFFFFFFFFFFFFFFFFFFFFFFFFFFFFFFFF000FFFFFFFFFFFFFFFFFFFFFFFFFFFF
310
FFFFFFFFFFFFFFFFFFFFFFFFFFFFFFFFFFFFFFFFFFFFFFFFFFFFFFFFFFFFFFFF
310
FFFFFFFFFFFFFFFFFFFFFFFFFFFFFFFFFFFFFFFFFFFFFFFFFFFFFFFFFFFFFFFF
310
FFFFFFFFFFFFFFFFF000FFFFFFFFFFFFFFFFFFFFFFFFFFFFFFFFFFFFFFFFFFFF
310
FFFFFFFFFFFFFFFFFFFFFFFFFFFFFFFFFFFFFFFFFFFFFFFFFFFFFFFFFFFFFFFF
310
FFFFFFFFFFFFFFFFFFFFFFFFFFFFFFFFFFFFFFFFFFFFFFFFFFFFFFFFFFFFFFFF
310
F000FFFFFFFFFFFFFFFFFFFFFFFFFFFFFFFFFFFFFFFFFFFFFFFFFFFFFFFFFFFF
310
FFFFFFFFFFFFFFFFFFFFFFFFFFFFFFFFFFFFFFFFFFFFFFFFFFFFFFFFFFFFFFFF
310
FFFFFFFFFFFFFFFFFFFFFFFFFFFFFFFFFFFFFFFFFFFFFFFFF000FFFFFFFFFFFF
310
FFFFFFFFFFFFFFFFFFFFFFFFFFFFFFFFFFFFFFFFFFFFFFFFFFFFFFFFFFFFFFFF
310
FFFFFFFFFFFFFFFFFFFFFFFFFFFFFFFFFFFFFFFFFFFFFFFFFFFFFFFFFFFFFFFF
310
FFFFFFFFFFFFFFFFFFFFFFFFFFFFFFFFF000FFFFFFFFFFFFFFFFFFFFFFFFFFFF
310
FFFFFFFFFFFFFFFFFFFFFFFFFFFFFFFFFFFFFFFFFFFFFFFFFFFFFFFFFFFFFFFF
310
FFFFFFFFFFFFFFFFFFFFFFFFFFFFFFFFFFFFFFFFFFFFFFFFFFFFFFFFFFFFFFFF
310
FFFFFFFFFFFFFFFFF000FFFFFFFFFFFFFFFFFFFFFFFFFFFFFFFFFFFFFFFFFFFF
310
FFFFFFFFFFFFFFFFFFFFFFFFFFFFFFFFFFFFFFFFFFFFFFFFFFFFFFFFFFFFFFFF
310
FFFFFFFFFFFFFFFFFFFFFFFFFFFFFFFFFFFFFFFFFFFFFFFFFFFFFFFFFFFFFFFF
310
F000FFFFFFFFFFFFFFFFFFFFFFFFFFFFFFFFFFFFFFFFFFFFFFFFFFFFFFFFFFFF
310
FFFFFFFFFFFFFFFFFFFFFFFFFFFFFFFFFFFFFFFFFFFFFFFFFFFFFFFFFFFFFFFF
310
FFFFFFFFFFFFFFFFFFFFFFFFFFFFFFFFFFFFFFFFFFFFFFFFF000FFFFFFFFFFFF
310
FFFFFFFFFFFFFFFFFFFFFFFFFFFFFFFFFFFFFFFFFFFFFFFFFFFFFFFFFFFFFFFF
310
FFFFFFFFFFFFFFFFFFFFFFFFFFFFFFFFFFFFFFFFFFFFFFFFFFFFFFFFFFFFFFFF
310
FFFFFFFFFFFFFFFFFFFFFFFFFFFFFFFFF000FFFFFFFFFFFFFFFFFFFFFFFFFFFF
310
FFFFFFFFFFFFFFFFFFFFFFFFFFFFFFFFFFFFFFFFFFFFFFFFFFFFFFFFFFFFFFFF
310
FFFFFFFFFFFFFFFFFFFFFFFFFFFFFFFFFFFFFFFFFFFFFFFFFFFFFFFFFFFFFFFF
310
FFFFFFFFFFFFFFFFF000FFFFFFFFFFFFFFFFFFFFFFFFFFFFFFFFFFFFFFFFFFFF
310
FFFFFFFFFFFFFFFFFFFFFFFFFFFFFFFFFFFFFFFFFFFFFFFFFFFFFFFFFFFFFFFF
310
FFFFFFFFFFFFFFFFFFFFFFFFFFFFFFFFFFFFFFFFFFFFFFFFFFFFFFFFFFFFFFFF
310
F000FFFFFFFFFFFFFFFFFFFFFFFFFFFFFFFFFFFFFFFFFFFFFFFFFFFFFFFFFFFF
310
FFFFFFFFFFFFFFFFFFFFFFFFFFFFFFFFFFFFFFFFFFFFFFFFFFFFFFFFFFFFFFFF
310
FFFFFFFFFFFFFFFFFFFFFFFFFFFFFFFFFFFFFFFFFFFFFFFFF000FFFFFFFFFFFF
310
FFFFFFFFFFFFFFFFFFFFFFFFFFFFFFFFFFFFFFFFFFFFFFFFFFFFFFFFFFFFFFFF
310
FFFFFFFFFFFFFFFFFFFFFFFFFFFFFFFFFFFFFFFFFFFFFFFFFFFFFFFFFFFFFFFF
310
FFFFFFFFFFFFFFFFFFFFFFFFFFFFFFFFF000FFFFFFFFFFFFFFFFFFFFFFFFFFFF
310
FFFFFFFFFFFFFFFFFFFFFFFFFFFFFFFFFFFFFFFFFFFFFFFFFFFFFFFFFFFFFFFF
310
FFFFFFFFFFFFFFFFFFFFFFFFFFFFFFFFFFFFFFFFFFFFFFFFFFFFFFFFFFFFFFFF
310
FFFFFFFFFFFFFFFFF000FFFFFFFFFFFFFFFFFFFFFFFFFFFFFFFFFFFFFFFFFFFF
310
FFFFFFFFFFFFFFFFFFFFFFFFFFFFFFFFFFFFFFFFFFFFFFFFFFFFFFFFFFFFFFFF
310
FFFFFFFFFFFFFFFFFFFFFFFFFFFFFFFFFFFFFFFFFFFFFFFFFFFFFFFFFFFFFFFF
310
F000FFFFFFFFFFFFFFFFFFFFFFFFFFFFFFFFFFFFFFFFFFFFFFFFFFFFFFFFFFFF
310
FFFFFFFFFFFFFFFFFFFFFFFFFFFFFFFFFFFFFFFFFFFFFFFFFFFFFFFFFFFFFFFF
310
FFFFFFFFFFFFFFFFFFFFFFFFFFFFFFFFFFFFFFFFFFFFFFFFF000FFFFFFFFFFFF
310
FFFFFFFFFFFFFFFFFFFFFFFFFFFFFFFFFFFFFFFFFFFFFFFFFFFFFFFFFFFFFFFF
310
FFFFFFFFFFFFFFFFFFFFFFFFFFFFFFFFFFFFFFFFFFFFFFFFFFFFFFFFFFFFFFFF
310
FFFFFFFFFFFFFFFFFFFFFFFFFFFFFFFFF000FFFFFFFFFFFFFFFFFFFFFFFFFFFF
310
FFFFFFFFFFFFFFFFFFFFFFFFFFFFFFFFFFFFFFFFFFFFFFFFFFFFFFFFFFFFFFFF
310
FFFFFFFFFFFFFFFFFFFFFFFFFFFFFFFFFFFFFFFFFFFFFFFFFFFFFFFFFFFFFFFF
310
FFFFFFFFFFFFFFFFF000FFFFF80003FFFFFFFFFFFFFFFFFFFFFFFFFFFFFFFFFF
310
FFFFF00007FFFFFFFFFF00007FFFFFF800000000000000007FFFFFFFFFFFFFFF
310
FFFFFFFC001FFFFFFFFFFFFFFC001FFFFFFFFFFFFFFFFFFFFFFFFFFE0007FFFF
310
F000FFFF8000007FFFFFFFF8000FFFFFC0007FFFFF80007FFFFF0000007FFFFF
310
FFF8000007FFFFF800000000000000007FFFFFF0001FFFFFFFFFFFC00001FFFF
310
FFFFFFFFC00001FFFFFFFF000000000003FFFFE000007FFFF000FFFE0000000F
310
FFFFFFF0000FFFFF80007FFFFF80007FFFFC0000001FFFFFFFC0000001FFFFF8
310
00000000000000007FFFFFF0001FFFFFFFFFFE0000003FFFFFFFFFFE0000003F
310
FFFFFF000000000003FFFF0000000FFFF000FFF800000003FFFFFFF00007FFFF
310
80007FFFFF80007FFFF000000007FFFFFF000000003FFFF80000000000000000
310
7FFFFFF0001FFFFFFFFFF80000000FFFFFFFFFF80000000FFFFFFF0000000000
310
03FFFC00000003FFF000FFE000000000FFFFFFF00007FFFF80003FFFFF80007F
310
FFC000000001FFFFFC000000001FFFF800000000000000007FFFFFF0001FFFFF
310
FFFFE000000003FFFFFFFFE000000003FFFFFF000000000003FFF000000000FF
310
F000FF80000000007FFFFFF00007FFFF80003FFFFF80007FFF8000000000FFFF
310
F80000000007FFF800000000000000007FFFFFF0001FFFFFFFFFC000000001FF
310
FFFFFFC000000001FFFFFF000000000003FFC0000000007FF000FF0000000000
310
3FFFFFE00007FFFF00003FFFFF80007FFE00000000003FFFF00000000003FFF8
310
00000000000000007FFFFFF0001FFFFFFFFF8000000000FFFFFFFF8000000000
310
FFFFFF000000000003FF80000000003FF000FE00000000001FFFFFE00003FFFF
310
00003FFFFF80007FFC00000000001FFFE00000000001FFF8000001FFFE000000
310
7FFFFFF0001FFFFFFFFE00000000003FFFFFFE00000000003FFFFF0000000000
310
03FF00000000001FF000FC00000000000FFFFFE00003FFFF00001FFFFF80007F
310
F800000000001FFFC00000000000FFF8000001FFFE0000007FFFFFF0001FFFFF
310
FFFC00000000001FFFFFFC00000000001FFFFF000000000003FE00000000000F
310
F000F8000000000007FFFFE00003FFFF00001FFFFF80007FF800000000000FFF
310
800000000000FFF8000001FFFE0000007FFFFFF0001FFFFFFFF800000000000F
310
FFFFF800000000000FFFFF000000000003FC000000000007F000F80000000000
310
03FFFFC00003FFFE00001FFFFF80007FF0000000000007FF0000000000007FF8
310
000001FFFE0000007FFFFFF0001FFFFFFFF0000000000007FFFFF00000000000
310
07FFFF000000000003F8000000000003F000F0000000000003FFFFC00001FFFE
310
00001FFFFF80007FE0000000000007FE0000000000003FF8000001FFFE000000
310
7FFFFFF0001FFFFFFFF0000000000007FFFFF0000000000007FFFF0000000000
310
03F800001F800003F000E00001FFF00001FFFFC00001FFFE00000FFFFF80007F
310
E00001FFE00003FE00001FFF00003FF8000001FFFE0000007FFFFFF0001FFFFF
310
FFE000003E000003FFFFE000003E000003FFFF000000000003F00001FFF80001
310
F000E00007FFFC0001FFFFC00001FFFE00000FFFFF80007FC0000FFFFC0003FC
310
0000FFFFC0001FF8000001FFFE0000007FFFFFF0001FFFFFFFC00003FFE00001
310
FFFFC00003FFE00001FFFF0001FFFFFFFFF00007FFFE0001F000E0000FFFFF00
310
00FFFF800001FFFC00000FFFFF80007FC0001FFFFE0001FC0001FFFFE0001FF8
310
000001FFFE0000007FFFFFF0001FFFFFFF80000FFFF80000FFFF80000FFFF800
310
00FFFF0003FFFFFFFFE0000FFFFF8000F000C0003FFFFF8000FFFF800000FFFC
310
000007FFFF80007F80003FFFFF0001FC0003FFFFF0001FF8000001FFFE000000
310
7FFFFFF0001FFFFFFF80003FFFFE0000FFFF80003FFFFE0000FFFF0003FFFFFF
310
FFE0003FFFFF8000F000C0003FFFFF8000FFFF800000FFFC000007FFFF80007F
310
80007FFFFF8001F80007FFFFF8000FF8000001FFFE0000007FFFFFF0001FFFFF
310
FF00007FFFFF00007FFF00007FFFFF00007FFF0003FFFFFFFFE0003FFFFFC000
310
F000C0007FFFFFC000FFFF000000FFFC000007FFFF80007F8000FFFFFF8000F8
310
000FFFFFF8000FF8000001FFFE0000007FFFFFF0001FFFFFFF0000FFFFFF8000
310
7FFF0000FFFFFF80007FFF0003FFFFFFFFC0007FFFFFC00070008000FFFFFFC0
310
00FFFF000000FFF8000007FFFF80007F8000FFFFFF8000F8000FFFFFF8000FF8
310
000001FFFE0000007FFFFFF0001FFFFFFE0001FFFFFFC0003FFE0001FFFFFFC0
310
003FFF0003FFFFFFFFC0007FFFFFE00070008000FFFFFFC0007FFF0000007FF8
310
000003FFFF80007F0001FFFFFF8000F8000FFFFFF8000FF8000001FFFE000000
310
7FFFFFF0001FFFFFFE0001FFFFFFC0003FFE0001FFFFFFC0003FFF0003FFFFFF
310
FFC000FFFFFFE00070008000FFFFFFC0007FFF0000007FF8000003FFFF80007F
310
0001FFFFFF8000F8001FFFFFF8000FF8000001FFFE0000007FFFFFF0001FFFFF
310
FE0003FFFFFFE0003FFE0003FFFFFFE0003FFF0003FFFFFFFFC000FFFFFFE000
310
70008000FFFFFFC0007FFE0000007FF8000003FFFF80007F0001FFFFFF8000F0
310
001FFFFFF8000FF8000001FFFE0000007FFFFFF0001FFFFFFC0003FFFFFFE000
310
1FFC0003FFFFFFE0001FFF0003FFFFFFFFC000FFFFFFC00070008000FFFFFF80
310
007FFE0000007FF0000003FFFF80007F0001FFFFFF0000F0001FFFFFF8000FF8
310
000001FFFE0000007FFFFFF0001FFFFFFC0007FFFFFFF0001FFC0007FFFFFFF0
310
001FFF0003FFFFFFFFC000FFFFFFC00070008001FFFFFF0000FFFE0000003FF0
310
000001FFFF80007F0001FFFFFF0000F8001FFFFFF0000FF8000001FFFE000000
310
7FFFFFF0001FFFFFFC0007FFFFFFF0001FFC0007FFFFFFF0001FFF0003FFFFFF
310
FFC001FFFFFF80007000FFFFFFFFFE0000FFFE0008003FF0008001FFFF80007F
310
FFFFFFFFFC0000FFFFFFFFFFE0000FF8000001FFFE0000007FFFFFF0001FFFFF
310
F8000FFFFFFFF8000FF8000FFFFFFFF8000FFF0003FFFFFFFFFFFFFFFFFF0000
310
7000FFFFFFFFFC0000FFFC0008003FF0008001FFFF80007FFFFFFFFFF80001FF
310
FFFFFFFF80000FF8000001FFFE0000007FFFFFF0001FFFFFF8000FFFFFFFF800
310
0FF8000FFFFFFFF8000FFF0003FFFFFFFFFFFFFFFFFE0000F000FFFFFFFFE000
310
00FFFC000C003FE000C001FFFF80007FFFFFFFFFC00001FFFFFFFFFE00001FF8
310
000001FFFE0000007FFFFFF0001FFFFFF8000FFFFFFFF8000FF8000FFFFFFFF8
310
000FFF0003FFFFFFFFFFFFFFFFF00000F000FFFFFFFE000001FFFC000C001FE0
310
00C000FFFF80007FFFFFFFFE000001FFFFFFFFE000001FF80FFFFFFFFFFFFFC0
310
7FFFFFF0001FFFFFF8000FFFFFFFF8000FF8000FFFFFFFF8000FFF0003FFFFFF
310
FFFFFFFFFF800000F000FFFFFFC0000001FFFC001C001FE001C000FFFF80007F
310
FFFFFF80000003FFFFFFF80000001FF80FFFFFFFFFFFFFC07FFFFFF0001FFFFF
310
F8001FFFFFFFFC000FF8001FFFFFFFFC000FFF0003FFFFFFFFFFFFFFF0000001
310
F000FFFFF800000001FFF8001C001FE001C000FFFF80007FFFFFF800000003FF
310
FFFF800000003FF80FFFFFFFFFFFFFC07FFFFFF0001FFFFFF8001FFFFFFFFC00
310
0FF8001FFFFFFFFC000FFF0003FFFFFFFFFFFFFE00000001F000FFFFC0000000
310
03FFF8001E001FC001E000FFFF80007FFFFF8000000007FFFFFC000000003FF8
310
0FFFFFFFFFFFFFC07FFFFFF0001FFFFFF8001FFFFFFFFC000FF8001FFFFFFFFC
310
000FFF0003FFFFFFFFFFFFE000000003F000FFFE0000000007FFF8001E000FC0
310
01E0007FFF80007FFFFE0000000007FFFFE0000000007FF80FFFFFFFFFFFFFC0
310
7FFFFFF0001FFFFFF0001FFFFFFFFC0007F0001FFFFFFFFC0007FF0003FFFFFF
310
FFFFFF0000000003F000FFF80000000007FFF8001E000FC003E0007FFF80007F
310
FFF0000000000FFFFF8000000000FFF80FFFFFFFFFFFFFC07FFFFFF0001FFFFF
310
F0001FFFFFFFFC0007F0001FFFFFFFFC0007FF0003FFFFFFFFFFFC0000000007
310
F000FFE0000000000FFFF0003E000FC003E0007FFF80007FFFC0000000001FFF
310
FE0000000001FFF80FFFFFFFFFFFFFC07FFFFFF0001FFFFFF0001FFFFFFFFC00
310
07F0001FFFFFFFFC0007FF0003FFFFFFFFFFF0000000000FF000FFC000000000
310
1FFFF0003F000F8003F0003FFF80007FFF80000000003FFFF80000000003FFF8
310
0FFFFFFFFFFFFFC07FFFFFF0001FFFFFF0001FFFFFFFFC0007F0001FFFFFFFFC
310
0007FF0003FFFFFFFFFFE0000000001FF000FF00000000007FFFF0003F000780
310
03F0003FFF80007FFF00000000007FFFF00000000007FFF80FFFFFFFFFFFFFC0
310
7FFFFFF0001FFFFFF0001FFFFFFFFC0007F0001FFFFFFFFC0007FF0003FFFFFF
310
FFFF80000000007FF000FE0000000000FFFFE0003F00078007F0003FFF80007F
310
FE0000000001FFFFE0000000001FFFF80FFFFFFFFFFFFFC07FFFFFF0001FFFFF
310
F0001FFFFFFFFC0007F0001FFFFFFFFC0007FF0003FFFFFFFFFF0000000000FF
310
F000FC0000000003FFFFE0007F00078007F0003FFF80007FFC0000000007FFFF
310
C0000000007FFFF80FFFFFFFFFFFFFC07FFFFFF0001FFFFFF8001FFFFFFFFC00
310
0FF8001FFFFFFFFC000FFF0003FFFFFFFFFE0000000003FFF000FC000000000F
310
FFFFE0007F80070007F8001FFF80007FF8000000001FFFFF8000000001FFFFF8
310
0FFFFFFFFFFFFFC07FFFFFF0001FFFFFF8001FFFFFFFFC000FF8001FFFFFFFFC
310
000FFF0003FFFFFFFFFC000000000FFFF000F8000000007FFFFFE0007F800700
310
07F8001FFF80007FF000000000FFFFFF800000000FFFFFF80FFFFFFFFFFFFFC0
310
7FFFFFF0001FFFFFF8000FFFFFFFF8000FF8000FFFFFFFF8000FFF0003FFFFFF
310
FFFC000000007FFFF000F800000007FFFFFFC0007F8003000FF8001FFF80007F
310
F000000007FFFFFF000000007FFFFFF80FFFFFFFFFFFFFC07FFFFFF0001FFFFF
310
F8000FFFFFFFF8000FF8000FFFFFFFF8000FFF0003FFFFFFFFF80000000FFFFF
310
F000F0000000FFFFFFFFC000FF8003000FF8001FFF80007FE0000000FFFFFFFF
310
0000000FFFFFFFF8000001FFFE0000007FFFFFF0001FFFFFF8000FFFFFFFF800
310
0FF8000FFFFFFFF8000FFF0003FFFFFFFFF8000000FFFFFFF000F000000FFFFF
310
FFFFC000FFC002000FF8000FFF80007FE000001FFFFFFFFE000001FFFFFFFFF8
310
000001FFFE0000007FFFFFF0001FFFFFF8000FFFFFFFF8000FF8000FFFFFFFF8
310
000FFF0003FFFFFFFFF000001FFFFFFFF000E00000FFFFFFFFFFC000FFC00200
310
0FFC000FFF80007FE00001FFFFFFFFFE00001FFFFFFFFFF8000001FFFE000000
310
7FFFFFF0001FFFFFFC000FFFFFFFF8001FFC000FFFFFFFF8001FFF0003FFFFFF
310
FFF00001FFFFFFFFF000E00007FFFFFFFFFF8000FFC000001FFC000FFF80007F
310
C0000FFFFFFFFFFE0000FFFFFFFFFFF8000001FFFE0000007FFFFFF0001FFFFF
310
FC0007FFFFFFF0001FFC0007FFFFFFF0001FFF0003FFFFFFFFF00007FFFFFFFF
310
F000E0001FFFFFFFFFFF8000FFC000001FFC000FFF80007FC0003FFFFFFFFFFE
310
0001FFFFFFFFFFF8000001FFFE0000007FFFFFF0001FFFFFFC0007FFFFFFF000
310
1FFC0007FFFFFFF0001FFF0003FFFFFFFFF0001FFFFFFFFFF000E0003FFFFF00
310
03FF8001FFE000001FFC0007FF80007FC0007FFFFF0007FC0003FFFFF0003FF8
310
000001FFFE0000007FFFFFF0001FFFFFFC0003FFFFFFE0001FFC0003FFFFFFE0
310
001FFF0003FFFFFFFFF0003FFFFFFFFFF000E0003FFFFF0001FF8001FFE00000
310
1FFE0007FF80007FC0007FFFFE0003FC0007FFFFE0003FF8000001FFFE000000
310
7FFFFFF0001FFFFFFE0003FFFFFFE0003FFE0003FFFFFFE0003FFF0003FFFFFF
310
FFF0003FFFFF8001F000E0003FFFFF0001FF0001FFE000001FFE0007FF80007F
310
C0007FFFFE0003FC0007FFFFE0003FF8000001FFFE0000007FFFFFF0001FFFFF
310
FE0001FFFFFFC0003FFE0001FFFFFFC0003FFF0003FFFFFFFFF0003FFFFF0001
310
F000E0003FFFFF0003FF0001FFE000003FFE0007FF80007FC0007FFFFE0003FC
310
0007FFFFE0003FF8000001FFFE0000007FFFFFF0001FFFFFFF0001FFFFFFC000
310
7FFF0001FFFFFFC0007FFF0003FFFFFFFFF0003FFFFF0001F000E0003FFFFE00
310
03FF0003FFF000003FFE0003FF80007FC0007FFFFC0003FE0007FFFFE0003FF8
310
000001FFFE0000007FFFFFF0001FFFFFFF0000FFFFFF80007FFF0000FFFFFF80
310
007FFF0003FFFFFFFFF0003FFFFF0001F000E0003FFFFE0003FF0003FFF00000
310
3FFF0003FF80007FC0007FFFFC0007FE0007FFFFC0003FF8000001FFFE000000
310
7FFFFFF0001FFFFFFF80007FFFFF0000FFFF80007FFFFF0000FFFF0003FFFFFF
310
FFF0003FFFFF0003F000E0003FFFFC0003FE0003FFF000003FFF0003FF80007F
310
E0003FFFF80007FE0003FFFFC0007FF8000001FFFE0000007FFFFFF0001FFFFF
310
FF80003FFFFE0000FFFF80003FFFFE0000FFFF0003FFFFFFFFF0001FFFFE0003
310
F000F0001FFFF80003FE0003FFF000007FFF0001FF80007FE0003FFFF00007FE
310
0001FFFF80007FF8000001FFFE0000007FFFFFF0001FFFFFFFC0000FFFF80001
310
FFFFC0000FFFF80001FFFF0003FFFFFFFFF0001FFFFC0003F000F0000FFFF000
310
07FE0007FFF800007FFF0001FF80007FE0001FFFE00007FF0000FFFE00007FF8
310
000001FFFE0000007FFFFFF0001FFFFFFFC00003FFE00001FFFFC00003FFE000
310
01FFFF0003FFFFFFFFF8000FFFF80003F000F00003FFC00007FC0007FFF80000
310
7FFF8001FF80007FF00007FF80000FFF00007FF80000FFF8000001FFFE000000
310
7F80000000000001FFE000003E000003FFFFE000003E000003FFFF0003FFFFFF
310
FFF80003FFE00007F000F800000000000FFC0007FFF800007FFF8001FF80007F
310
F000000000000FFF000000000000FFF8000001FFFE0000007F80000000000001
310
FFF0000000000007FFFFF0000000000007FFFF0003FFFFFFFFFC00007E000007
310
F000F800000000000FFC0007FFF80000FFFF8000FF80007FF800000000001FFF
310
800000000001FFF8000001FFFE0000007F80000000000001FFF800000000000F
310
FFFFF800000000000FFFFF0003FFFFFFFFFC00000000000FF000FC0000000000
310
1FFC0007FFFC0000FFFF8000FF80007FF800000000003FFFC00000000001FFF8
310
000001FFFE0000007F80000000000001FFF800000000000FFFFFF80000000000
310
0FFFFF0003FFFFFFFFFE00000000001FF000FE00000000003FF8000FFFFC0000
310
FFFF8000FF80007FFC00000000003FFFC00000000003FFF8000001FFFE000000
310
7F80000000000001FFFC00000000001FFFFFFC00000000001FFFFF0003FFFFFF
310
FFFF00000000001FF000FF00000000003FF8000FFFFC0000FFFFC000FF80007F
310
FE00000000007FFFE00000000007FFF8000001FFFE0000007F80000000000001
310
FFFE00000000003FFFFFFE00000000003FFFFF0003FFFFFFFFFF80000000003F
310
F000FF80000000007FF8000FFFFC0001FFFFC0007F80007FFF0000000000FFFF
310
F0000000000FFFF800000000000000007F80000000000001FFFF8000000000FF
310
FFFFFF8000000000FFFFFF0003FFFFFFFFFFC0000000007FF000FFC000000000
310
FFF8000FFFFE0001FFFFC0007F80007FFF8000000001FFFFF8000000001FFFF8
310
00000000000000007F80000000000001FFFFC000000001FFFFFFFFC000000001
310
FFFFFF0003FFFFFFFFFFE000000000FFF000FFE000000003FFF0001FFFFE0001
310
FFFFC0007F80007FFFC000000007FFFFFE000000003FFFF80000000000000000
310
7F80000000000001FFFFE000000003FFFFFFFFE000000003FFFFFF0003FFFFFF
310
FFFFF000000003FFF000FFF80000000FFFF0001FFFFE0001FFFFE0007F80007F
310
FFF00000000FFFFFFF00000000FFFFF800000000000000007F80000000000001
310
FFFFF80000000FFFFFFFFFF80000000FFFFFFF0003FFFFFFFFFFFC0000000FFF
310
F000FFFE0000003FFFF0001FFFFE0003FFFFE0003F80007FFFFC0000003FFFFF
310
FFC0000003FFFFF800000000000000007F80000000000001FFFFFE0000003FFF
310
FFFFFFFE0000003FFFFFFF0003FFFFFFFFFFFF0000003FFFF000FFFF800000FF
310
FFF0001FFFFF0003FFFFE0003F80007FFFFF000001FFFFFFFFF800001FFFFFF8
310
00000000000000007F80000000000001FFFFFFC00001FFFFFFFFFFFFC00001FF
310
FFFFFF0003FFFFFFFFFFFFC00000FFFFF000FFFFF8000FFFFFFFFFFFFFFFFFFF
310
FFFFFFFFFFFFFFFFFFFFF0001FFFFFFFFFFF0000FFFFFFF80000000000000000
310
7FFFFFFFFFFFFFFFFFFFFFFC001FFFFFFFFFFFFFFC001FFFFFFFFFFFFFFFFFFF
310
FFFFFFFC001FFFFFF000FFFFFFFFFFFFFFFFFFFFFFFFFFFFFFFFFFFFFFFFFFFF
310
FFFFFFFFFFFFFFFFFFFFFFFFFFFFFFFFFFFFFFFFFFFFFFFFFFFFFFFFFFFFFFFF
310
FFFFFFFFFFFFFFFFFFFFFFFFFFFFFFFFFFFFFFFFFFFFFFFFFFFFFFFFFFFFFFFF
310
F000FFFFFFFFFFFFFFFFFFFFFFFFFFFFFFFFFFFFFFFFFFFFFFFFFFFFFFFFFFFF
310
FFFFFFFFFFFFFFFFFFFFFFFFFFFFFFFFFFFFFFFFFFFFFFFFFFFFFFFFFFFFFFFF
310
FFFFFFFFFFFFFFFFFFFFFFFFFFFFFFFFFFFFFFFFFFFFFFFFF000FFFFFFFFFFFF
310
FFFFFFFFFFFFFFFFFFFFFFFFFFFFFFFFFFFFFFFFFFFFFFFFFFFFFFFFFFFFFFFF
310
FFFFFFFFFFFFFFFFFFFFFFFFFFFFFFFFFFFFFFFFFFFFFFFFFFFFFFFFFFFFFFFF
310
FFFFFFFFFFFFFFFFFFFFFFFFFFFFFFFFF000FFFFFFFFFFFFFFFFFFFFFFFFFFFF
310
FFFFFFFFFFFFFFFFFFFFFFFFFFFFFFFFFFFFFFFFFFFFFFFFFFFFFFFFFFFFFFFF
310
FFFFFFFFFFFFFFFFFFFFFFFFFFFFFFFFFFFFFFFFFFFFFFFFFFFFFFFFFFFFFFFF
310
FFFFFFFFFFFFFFFFF000FFFFFFFFFFFFFFFFFFFFFFFFFFFFFFFFFFFFFFFFFFFF
310
FFFFFFFFFFFFFFFFFFFFFFFFFFFFFFFFFFFFFFFFFFFFFFFFFFFFFFFFFFFFFFFF
310
FFFFFFFFFFFFFFFFFFFFFFFFFFFFFFFFFFFFFFFFFFFFFFFFFFFFFFFFFFFFFFFF
310
F000FFFFFFFFFFFFFFFFFFFFFFFFFFFFFFFFFFFFFFFFFFFFFFFFFFFFFFFFFFFF
310
FFFFFFFFFFFFFFFFFFFFFFFFFFFFFFFFFFFFFFFFFFFFFFFFFFFFFFFFFFFFFFFF
310
FFFFFFFFFFFFFFFFFFFFFFFFFFFFFFFFFFFFFFFFFFFFFFFFF000FFFFFFFFFFFF
310
FFFFFFFFFFFFFFFFFFFFFFFFFFFFFFFFFFFFFFFFFFFFFFFFFFFFFFFFFFFFFFFF
310
FFFFFFFFFFFFFFFFFFFFFFFFFFFFFFFFFFFFFFFFFFFFFFFFFFFFFFFFFFFFFFFF
310
FFFFFFFFFFFFFFFFFFFFFFFFFFFFFFFFF000FFFFFFFFFFFFFFFFFFFFFFFFFFFF
310
FFFFFFFFFFFFFFFFFFFFFFFFFFFFFFFFFFFFFFFFFFFFFFFFFFFFFFFFFFFFFFFF
310
FFFFFFFFFFFFFFFFFFFFFFFFFFFFFFFFFFFFFFFFFFFFFFFFFFFFFFFFFFFFFFFF
310
FFFFFFFFFFFFFFFFF000FFFFFFFFFFFFFFFFFFFFFFFFFFFFFFFFFFFFFFFFFFFF
310
FFFFFFFFFFFFFFFFFFFFFFFFFFFFFFFFFFFFFFFFFFFFFFFFFFFFFFFFFFFFFFFF
310
FFFFFFFFFFFFFFFFFFFFFFFFFFFFFFFFFFFFFFFFFFFFFFFFFFFFFFFFFFFFFFFF
310
F000FFFFFFFFFFFFFFFFFFFFFFFFFFFFFFFFFFFFFFFFFFFFFFFFFFFFFFFFFFFF
310
FFFFFFFFFFFFFFFFFFFFFFFFFFFFFFFFFFFFFFFFFFFFFFFFFFFFFFFFFFFFFFFF
310
FFFFFFFFFFFFFFFFFFFFFFFFFFFFFFFFFFFFFFFFFFFFFFFFF000FFFFFFFFFFFF
310
FFFFFFFFFFFFFFFFFFFFFFFFFFFFFFFFFFFFFFFFFFFFFFFFFFFFFFFFFFFFFFFF
310
FFFFFFFFFFFFFFFFFFFFFFFFFFFFFFFFFFFFFFFFFFFFFFFFFFFFFFFFFFFFFFFF
310
FFFFFFFFFFFFFFFFFFFFFFFFFFFFFFFFF000FFFFFFFFFFFFFFFFFFFFFFFFFFFF
310
FFFFFFFFFFFFFFFFFFFFFFFFFFFFFFFFFFFFFFFFFFFFFFFFFFFFFFFFFFFFFFFF
310
FFFFFFFFFFFFFFFFFFFFFFFFFFFFFFFFFFFFFFFFFFFFFFFFFFFFFFFFFFFFFFFF
310
FFFFFFFFFFFFFFFFF000FFFFFFFFFFFFFFFFFFFFFFFFFFFFFFFFFFFFFFFFFFFF
310
FFFFFFFFFFFFFFFFFFFFFFFFFFFFFFFFFFFFFFFFFFFFFFFFFFFFFFFFFFFFFFFF
310
FFFFFFFFFFFFFFFFFFFFFFFFFFFFFFFFFFFFFFFFFFFFFFFFFFFFFFFFFFFFFFFF
310
F000FFFFFFFFFFFFFFFFFFFFFFFFFFFFFFFFFFFFFFFFFFFFFFFFFFFFFFFFFFFF
310
FFFFFFFFFFFFFFFFFFFFFFFFFFFFFFFFFFFFFFFFFFFFFFFFFFFFFFFFFFFFFFFF
310
FFFFFFFFFFFFFFFFFFFFFFFFFFFFFFFFFFFFFFFFFFFFFFFFF000FFFFFFFFFFFF
310
FFFFFFFFFFFFFFFFFFFFFFFFFFFFFFFFFFFFFFFFFFFFFFFFFFFFFFFFFFFFFFFF
310
FFFFFFFFFFFFFFFFFFFFFFFFFFFFFFFFFFFFFFFFFFFFFFFFFFFFFFFFFFFFFFFF
310
FFFFFFFFFFFFFFFFFFFFFFFFFFFFFFFFF000FFFFFFFFFFFFFFFFFFFFFFFFFFFF
310
FFFFFFFFFFFFFFFFFFFFFFFFFFFFFFFFFFFFFFFFFFFFFFFFFFFFFFFFFFFFFFFF
310
FFFFFFFFFFFFFFFFFFFFFFFFFFFFFFFFFFFFFFFFFFFFFFFFFFFFFFFFFFFFFFFF
310
FFFFFFFFFFFFFFFFF000FFFFFFFFFFFFFFFFFFFFFFFFFFFFFFFFFFFFFFFFFFFF
310
FFFFFFFFFFFFFFFFFFFFFFFFFFFFFFFFFFFFFFFFFFFFFFFFFFFFFFFFFFFFFFFF
310
FFFFFFFFFFFFFFFFFFFFFFFFFFFFFFFFFFFFFFFFFFFFFFFFFFFFFFFFFFFFFFFF
310
F000FFFFFFFFFFFFFFFFFFFFFFFFFFFFFFFFFFFFFFFFFFFFFFFFFFFFFFFFFFFF
310
FFFFFFFFFFFFFFFFFFFFFFFFFFFFFFFFFFFFFFFFFFFFFFFFFFFFFFFFFFFFFFFF
310
FFFFFFFFFFFFFFFFFFFFFFFFFFFFFFFFFFFFFFFFFFFFFFFFF000FFFFFFFFFFFF
310
FFFFFFFFFFFFFFFFFFFFFFFFFFFFFFFFFFFFFFFFFFFFFFFFFFFFFFFFFFFFFFFF
310
FFFFFFFFFFFFFFFFFFFFFFFFFFFFFFFFFFFFFFFFFFFFFFFFFFFFFFFFFFFFFFFF
310
FFFFFFFFFFFFFFFFFFFFFFFFFFFFFFFFF000FFFFFFFFFFFFFFFFFFFFFFFFFFFF
310
FFFFFFFFFFFFFFFFFFFFFFFFFFFFFFFFFFFFFFFFFFFFFFFFFFFFFFFFFFFFFFFF
310
FFFFFFFFFFFFFFFFFFFFFFFFFFFFFFFFFFFFFFFFFFFFFFFFFFFFFFFFFFFFFFFF
310
FFFFFFFFFFFFFFFFF000FFFFFFFFFFFFFFFFFFFFFFFFFFFFFFFFFFFFFFFFFFFF
310
FFFFFFFFFFFFFFFFFFFFFFFFFFFFFFFFFFFFFFFFFFFFFFFFFFFFFFFFFFFFFFFF
310
FFFFFFFFFFFFFFFFFFFFFFFFFFFFFFFFFFFFFFFFFFFFFFFFFFFFFFFFFFFFFFFF
310
F000FFFFFFFFFFFFFFFFFFFFFFFFFFFFFFFFFFFFFFFFFFFFFFFFFFFFFFFFFFFF
310
FFFFFFFFFFFFFFFFFFFFFFFFFFFFFFFFFFFFFFFFFFFFFFFFFFFFFFFFFFFFFFFF
310
FFFFFFFFFFFFFFFFFFFFFFFFFFFFFFFFFFFFFFFFFFFFFFFFF000FFFFFFFFFFFF
310
FFFFFFFFFFFFFFFFFFFFFFFFFFFFFFFFFFFFFFFFFFFFFFFFFFFFFFFFFFFFFFFF
310
FFFFFFFFFFFFFFFFFFFFFFFFFFFFFFFFFFFFFFFFFFFFFFFFFFFFFFFFFFFFFFFF
310
FFFFFFFFFFFFFFFFFFFFFFFFFFFFFFFFF0000000000000000000000000000000
310
0000000000000000000000000000000000000000000000000000000000000000
310
0000000000000000000000000000000000000000000000000000000000000000
310
0000000000000000000000000000000000000000000000000000000000000000
310
0000000000000000000000000000000000000000000000000000000000000000
310
0000000000000000000000000000000000000000000000000000000000000000
310
0000000000000000000000000000000000000000000000000000000000000000
310
0000000000000000000000000000000000000000000000000000000000000000
310
0000000000000000000000000000000000000000000000000000000000000000
310
0000000000000000000000000000000000000000000000000000000000000000
310
0000000000000000000000000000000000000000000000000000000000000000
310
0000000000000000000000000000000000000000000000000000000000000000
310
0000000000000000000000000000000000000000000000000000000000000000
310
0000000000000000000000000000000000000000000000000000000000000000
310
0000000000000000000000000000000000000000000000000000000000000000
310
0000000000000000000000000000000000000000000000000000000000000000
  1
OLE
  0
ENDSEC
  0
SECTION
  2
OBJECTS
  0
DICTIONARY
  5
C
330
0
100
AcDbDictionary
281
     1
  3
ACAD_GROUP
350
D
  3
ACAD_LAYOUT
350
1A
  3
ACAD_MLINESTYLE
350
17
  3
ACAD_PLOTSETTINGS
350
19
  3
ACAD_PLOTSTYLENAME
350
E
  0
DICTIONARY
  5
D
102
{ACAD_REACTORS
330
C
102
}
330
C
100
AcDbDictionary
281
     1
  0
DICTIONARY
  5
1A
102
{ACAD_REACTORS
330
C
102
}
330
C
100
AcDbDictionary
281
     1
  3
Layout1
350
1E
  3
Layout2
350
26
  3
Model
350
22
  0
DICTIONARY
  5
17
102
{ACAD_REACTORS
330
C
102
}
330
C
100
AcDbDictionary
281
     1
  3
Standard
350
18
  0
DICTIONARY
  5
19
102
{ACAD_REACTORS
330
C
102
}
330
C
100
AcDbDictionary
281
     1
  0
ACDBDICTIONARYWDFLT
  5
E
102
{ACAD_REACTORS
330
C
102
}
330
C
100
AcDbDictionary
281
     1
  3
Normal
350
F
100
AcDbDictionaryWithDefault
340
F
  0
LAYOUT
  5
1E
102
{ACAD_REACTORS
330
1A
102
}
330
1A
100
AcDbPlotSettings
  1

  2
none_device
  4

  6

 40
0.0
 41
0.0
 42
0.0
 43
0.0
 44
0.0
 45
0.0
 46
0.0
 47
0.0
 48
0.0
 49
0.0
140
0.0
141
0.0
142
1.0
143
1.0
 70
   688
 72
     0
 73
     0
 74
     5
  7

 75
    16
147
1.0
148
0.0
149
0.0
100
AcDbLayout
  1
Layout1
 70
     1
 71
     1
 10
0.0
 20
0.0
 11
420.0
 21
297.0
 12
0.0
 22
0.0
 32
0.0
 14
1.0000000000E+20
 24
1.0000000000E+20
 34
1.0000000000E+20
 15
-1.0000000000E+20
 25
-1.0000000000E+20
 35
-1.0000000000E+20
146
0.0
 13
0.0
 23
0.0
 33
0.0
 16
1.0
 26
0.0
 36
0.0
 17
0.0
 27
1.0
 37
0.0
 76
     0
330
1B
  0
LAYOUT
  5
26
102
{ACAD_REACTORS
330
1A
102
}
330
1A
100
AcDbPlotSettings
  1

  2
none_device
  4

  6

 40
0.0
 41
0.0
 42
0.0
 43
0.0
 44
0.0
 45
0.0
 46
0.0
 47
0.0
 48
0.0
 49
0.0
140
0.0
141
0.0
142
1.0
143
1.0
 70
   688
 72
     0
 73
     0
 74
     5
  7

 75
    16
147
1.0
148
0.0
149
0.0
100
AcDbLayout
  1
Layout2
 70
     1
 71
     2
 10
0.0
 20
0.0
 11
0.0
 21
0.0
 12
0.0
 22
0.0
 32
0.0
 14
0.0
 24
0.0
 34
0.0
 15
0.0
 25
0.0
 35
0.0
146
0.0
 13
0.0
 23
0.0
 33
0.0
 16
1.0
 26
0.0
 36
0.0
 17
0.0
 27
1.0
 37
0.0
 76
     0
330
23
  0
LAYOUT
  5
22
102
{ACAD_REACTORS
330
1A
102
}
330
1A
100
AcDbPlotSettings
  1

  2
none_device
  4

  6

 40
0.0
 41
0.0
 42
0.0
 43
0.0
 44
0.0
 45
0.0
 46
0.0
 47
0.0
 48
0.0
 49
0.0
140
0.0
141
0.0
142
1.0
143
1.0
 70
  1712
 72
     0
 73
     0
 74
     0
  7

 75
     0
147
1.0
148
0.0
149
0.0
100
AcDbLayout
  1
Model
 70
     1
 71
     0
 10
0.0
 20
0.0
 11
297.0
 21
210.0
 12
0.0
 22
0.0
 32
0.0
 14
0.0
 24
0.0
 34
0.0
 15
297.0
 25
210.0
 35
0.0
146
0.0
 13
0.0
 23
0.0
 33
0.0
 16
1.0
 26
0.0
 36
0.0
 17
0.0
 27
1.0
 37
0.0
 76
     0
330
1F
331
29
  0
MLINESTYLE
  5
18
102
{ACAD_REACTORS
330
17
102
}
330
17
100
AcDbMlineStyle
  2
Standard
 70
     0
  3

 62
   256
 51
90.0
 52
90.0
 71
     2
 49
0.5
 62
   256
  6
BYLAYER
 49
-0.5
 62
   256
  6
BYLAYER
  0
ACDBPLACEHOLDER
  5
F
102
{ACAD_REACTORS
330
E
102
}
330
E
  0
ENDSEC
  0
EOF
