  0
SECTION
  2
HEADER
  9
$ACADVER
  1
AC1015
  9
$ACADMAINTVER
 70
     6
  9
$DWGCODEPAGE
  3
ANSI_1252
  9
$INSBASE
 10
0.0
 20
0.0
 30
0.0
  9
$EXTMIN
 10
0.0
 20
0.0
 30
0.0
  9
$EXTMAX
 10
297.0
 20
210.0
 30
0.0
  9
$LIMMIN
 10
0.0
 20
0.0
  9
$LIMMAX
 10
297.0
 20
210.0
  9
$ORTHOMODE
 70
     0
  9
$REGENMODE
 70
     1
  9
$FILLMODE
 70
     1
  9
$QTEXTMODE
 70
     0
  9
$MIRRTEXT
 70
     1
  9
$LTSCALE
 40
1.0
  9
$ATTMODE
 70
     1
  9
$TEXTSIZE
 40
2.0
  9
$TRACEWID
 40
1.0
  9
$TEXTSTYLE
  7
Standard
  9
$CLAYER
  8
0
  9
$CELTYPE
  6
ByLayer
  9
$CECOLOR
 62
   256
  9
$CELTSCALE
 40
1.0
  9
$DISPSILH
 70
     0
  9
$DIMSCALE
 40
1.0
  9
$DIMASZ
 40
3.0
  9
$DIMEXO
 40
0.0
  9
$DIMDLI
 40
3.75
  9
$DIMRND
 40
0.0
  9
$DIMDLE
 40
0.0
  9
$DIMEXE
 40
1.0
  9
$DIMTP
 40
0.0
  9
$DIMTM
 40
0.0
  9
$DIMTXT
 40
2.0
  9
$DIMCEN
 40
2.5
  9
$DIMTSZ
 40
0.0
  9
$DIMTOL
 70
     0
  9
$DIMLIM
 70
     0
  9
$DIMTIH
 70
     1
  9
$DIMTOH
 70
     1
  9
$DIMSE1
 70
     0
  9
$DIMSE2
 70
     0
  9
$DIMTAD
 70
     1
  9
$DIMZIN
 70
     0
  9
$DIMBLK
  1

  9
$DIMASO
 70
     1
  9
$DIMSHO
 70
     1
  9
$DIMPOST
  1

  9
$DIMAPOST
  1

  9
$DIMALT
 70
     0
  9
$DIMALTD
 70
     3
  9
$DIMALTF
 40
0.0393700787
  9
$DIMLFAC
 40
1.0
  9
$DIMTOFL
 70
     1
  9
$DIMTVP
 40
0.0
  9
$DIMTIX
 70
     0
  9
$DIMSOXD
 70
     0
  9
$DIMSAH
 70
     0
  9
$DIMBLK1
  1

  9
$DIMBLK2
  1

  9
$DIMSTYLE
  2
ISO-25
  9
$DIMCLRD
 70
     0
  9
$DIMCLRE
 70
     0
  9
$DIMCLRT
 70
     0
  9
$DIMTFAC
 40
1.0
  9
$DIMGAP
 40
1.524
  9
$DIMJUST
 70
     0
  9
$DIMSD1
 70
     0
  9
$DIMSD2
 70
     0
  9
$DIMTOLJ
 70
     0
  9
$DIMTZIN
 70
     0
  9
$DIMALTZ
 70
     0
  9
$DIMALTTZ
 70
     0
  9
$DIMUPT
 70
     0
  9
$DIMDEC
 70
     2
  9
$DIMTDEC
 70
     3
  9
$DIMALTU
 70
     2
  9
$DIMALTTD
 70
     3
  9
$DIMTXSTY
  7
Standard
  9
$DIMAUNIT
 70
     0
  9
$DIMADEC
 70
     2
  9
$DIMALTRND
 40
0.0
  9
$DIMAZIN
 70
     0
  9
$DIMDSEP
 70
    44
  9
$DIMATFIT
 70
     3
  9
$DIMFRAC
 70
     0
  9
$DIMLDRBLK
  1

  9
$DIMLUNIT
 70
     2
  9
$DIMLWD
 70
    -2
  9
$DIMLWE
 70
    -2
  9
$DIMTMOVE
 70
     0
  9
$LUNITS
 70
     2
  9
$LUPREC
 70
     2
  9
$SKETCHINC
 40
1.0
  9
$FILLETRAD
 40
10.0
  9
$AUNITS
 70
     0
  9
$AUPREC
 70
     2
  9
$MENU
  1
.
  9
$ELEVATION
 40
0.0
  9
$PELEVATION
 40
0.0
  9
$THICKNESS
 40
0.0
  9
$LIMCHECK
 70
     0
  9
$CHAMFERA
 40
10.0
  9
$CHAMFERB
 40
10.0
  9
$CHAMFERC
 40
20.0
  9
$CHAMFERD
 40
0.0
  9
$SKPOLY
 70
     0
  9
$TDCREATE
 40
2456045.605796203
  9
$TDUCREATE
 40
2456045.52246287
  9
$TDUPDATE
 40
2456045.60579765
  9
$TDUUPDATE
 40
2456045.522464317
  9
$TDINDWG
 40
0.0000000116
  9
$TDUSRTIMER
 40
0.0000000116
  9
$USRTIMER
 70
     1
  9
$ANGBASE
 50
0.0
  9
$ANGDIR
 70
     0
  9
$PDMODE
 70
     0
  9
$PDSIZE
 40
-1.0
  9
$PLINEWID
 40
0.0
  9
$SPLFRAME
 70
     0
  9
$SPLINETYPE
 70
     6
  9
$SPLINESEGS
 70
     8
  9
$HANDSEED
  5
1F6
  9
$SURFTAB1
 70
     6
  9
$SURFTAB2
 70
     6
  9
$SURFTYPE
 70
     6
  9
$SURFU
 70
     6
  9
$SURFV
 70
     6
  9
$UCSBASE
  2

  9
$UCSNAME
  2

  9
$UCSORG
 10
0.0
 20
0.0
 30
0.0
  9
$UCSXDIR
 10
1.0
 20
0.0
 30
0.0
  9
$UCSYDIR
 10
0.0
 20
1.0
 30
0.0
  9
$UCSORTHOREF
  2

  9
$UCSORTHOVIEW
 70
     0
  9
$UCSORGTOP
 10
0.0
 20
0.0
 30
0.0
  9
$UCSORGBOTTOM
 10
0.0
 20
0.0
 30
0.0
  9
$UCSORGLEFT
 10
0.0
 20
0.0
 30
0.0
  9
$UCSORGRIGHT
 10
0.0
 20
0.0
 30
0.0
  9
$UCSORGFRONT
 10
0.0
 20
0.0
 30
0.0
  9
$UCSORGBACK
 10
0.0
 20
0.0
 30
0.0
  9
$PUCSBASE
  2

  9
$PUCSNAME
  2

  9
$PUCSORG
 10
0.0
 20
0.0
 30
0.0
  9
$PUCSXDIR
 10
1.0
 20
0.0
 30
0.0
  9
$PUCSYDIR
 10
0.0
 20
1.0
 30
0.0
  9
$PUCSORTHOREF
  2

  9
$PUCSORTHOVIEW
 70
     0
  9
$PUCSORGTOP
 10
0.0
 20
0.0
 30
0.0
  9
$PUCSORGBOTTOM
 10
0.0
 20
0.0
 30
0.0
  9
$PUCSORGLEFT
 10
0.0
 20
0.0
 30
0.0
  9
$PUCSORGRIGHT
 10
0.0
 20
0.0
 30
0.0
  9
$PUCSORGFRONT
 10
0.0
 20
0.0
 30
0.0
  9
$PUCSORGBACK
 10
0.0
 20
0.0
 30
0.0
  9
$USERI1
 70
     0
  9
$USERI2
 70
     0
  9
$USERI3
 70
     0
  9
$USERI4
 70
     0
  9
$USERI5
 70
     0
  9
$USERR1
 40
0.0
  9
$USERR2
 40
0.0
  9
$USERR3
 40
0.0
  9
$USERR4
 40
0.0
  9
$USERR5
 40
0.0
  9
$WORLDVIEW
 70
     1
  9
$SHADEDGE
 70
     3
  9
$SHADEDIF
 70
    70
  9
$TILEMODE
 70
     1
  9
$MAXACTVP
 70
    64
  9
$PINSBASE
 10
0.0
 20
0.0
 30
0.0
  9
$PLIMCHECK
 70
     0
  9
$PEXTMIN
 10
1.0000000000E+20
 20
1.0000000000E+20
 30
1.0000000000E+20
  9
$PEXTMAX
 10
-1.0000000000E+20
 20
-1.0000000000E+20
 30
-1.0000000000E+20
  9
$PLIMMIN
 10
0.0
 20
0.0
  9
$PLIMMAX
 10
420.0
 20
297.0
  9
$UNITMODE
 70
     0
  9
$VISRETAIN
 70
     1
  9
$PLINEGEN
 70
     0
  9
$PSLTSCALE
 70
     1
  9
$TREEDEPTH
 70
  3020
  9
$CMLSTYLE
  2
Standard
  9
$CMLJUST
 70
     0
  9
$CMLSCALE
 40
20.0
  9
$PROXYGRAPHICS
 70
     1
  9
$MEASUREMENT
 70
     1
  9
$CELWEIGHT
370
    -1
  9
$ENDCAPS
280
     0
  9
$JOINSTYLE
280
     0
  9
$LWDISPLAY
290
     1
  9
$INSUNITS
 70
     4
  9
$HYPERLINKBASE
  1

  9
$STYLESHEET
  1

  9
$XEDIT
290
     1
  9
$CEPSNTYPE
380
     0
  9
$PSTYLEMODE
290
     1
  9
$FINGERPRINTGUID
  2
{187D9A56-3ABA-4950-B8CC-2CB236468980}
  9
$VERSIONGUID
  2
{FAEB1C32-E019-11D5-929B-00C0DF256EC4}
  9
$EXTNAMES
290
     1
  9
$PSVPSCALE
 40
0.0
  9
$OLESTARTUP
290
     0
  0
ENDSEC
  0
SECTION
  2
CLASSES
  0
CLASS
  1
ACDBDICTIONARYWDFLT
  2
AcDbDictionaryWithDefault
  3
ObjectDBX Classes
 90
        0
280
     0
281
     0
  0
CLASS
  1
VISUALSTYLE
  2
AcDbVisualStyle
  3
ObjectDBX Classes
 90
     4095
280
     0
281
     0
  0
CLASS
  1
MATERIAL
  2
AcDbMaterial
  3
ObjectDBX Classes
 90
     1153
280
     0
281
     0
  0
CLASS
  1
ACDBPLACEHOLDER
  2
AcDbPlaceHolder
  3
ObjectDBX Classes
 90
        0
280
     0
281
     0
  0
CLASS
  1
LAYOUT
  2
AcDbLayout
  3
ObjectDBX Classes
 90
        0
280
     0
281
     0
  0
ENDSEC
  0
SECTION
  2
TABLES
  0
TABLE
  2
VPORT
  5
8
330
0
100
AcDbSymbolTable
 70
     1
  0
VPORT
  5
29
330
8
100
AcDbSymbolTableRecord
100
AcDbViewportTableRecord
  2
*Active
 70
     0
 10
0.0
 20
0.0
 11
1.0
 21
1.0
 12
148.5
 22
105.0
 13
0.0
 23
0.0
 14
10.0
 24
10.0
 15
10.0
 25
10.0
 16
0.0
 26
0.0
 36
1.0
 17
0.0
 27
0.0
 37
0.0
 40
210.0
 41
1.4142857143
 42
50.0
 43
0.0
 44
0.0
 50
0.0
 51
0.0
 71
     0
 72
  2000
 73
     1
 74
     3
 75
     0
 76
     0
 77
     0
 78
     0
281
     0
 65
     1
110
0.0
120
0.0
130
0.0
111
1.0
121
0.0
131
0.0
112
0.0
122
1.0
132
0.0
 79
     0
146
0.0
  0
ENDTAB
  0
TABLE
  2
LTYPE
  5
5
330
0
100
AcDbSymbolTable
 70
     6
  0
LTYPE
  5
14
330
5
100
AcDbSymbolTableRecord
100
AcDbLinetypeTableRecord
  2
ByBlock
 70
     0
  3

 72
    65
 73
     0
 40
0.0
  0
LTYPE
  5
15
330
5
100
AcDbSymbolTableRecord
100
AcDbLinetypeTableRecord
  2
ByLayer
 70
     0
  3

 72
    65
 73
     0
 40
0.0
  0
LTYPE
  5
16
330
5
100
AcDbSymbolTableRecord
100
AcDbLinetypeTableRecord
  2
Continuous
 70
     0
  3
Solid line
 72
    65
 73
     0
 40
0.0
  0
LTYPE
  5
3F
330
5
100
AcDbSymbolTableRecord
100
AcDbLinetypeTableRecord
  2
HIDDEN
 70
     0
  3
Hidden __ __ __ __ __ __ __ __ __ __ __ __ __ __
 72
    65
 73
     2
 40
1.905
 49
1.27
 74
     0
 49
-0.635
 74
     0
  0
LTYPE
  5
40
330
5
100
AcDbSymbolTableRecord
100
AcDbLinetypeTableRecord
  2
PHANTOM
 70
     0
  3
Phantom ______  __  __  ______  __  __  ______
 72
    65
 73
     6
 40
12.7
 49
6.35
 74
     0
 49
-1.27
 74
     0
 49
1.27
 74
     0
 49
-1.27
 74
     0
 49
1.27
 74
     0
 49
-1.27
 74
     0
  0
LTYPE
  5
41
330
5
100
AcDbSymbolTableRecord
100
AcDbLinetypeTableRecord
  2
CENTER
 70
     0
  3
Center ____ _ ____ _ ____ _ ____ _ ____ _ ____
 72
    65
 73
     4
 40
10.16
 49
6.35
 74
     0
 49
-1.27
 74
     0
 49
1.27
 74
     0
 49
-1.27
 74
     0
  0
LTYPE
  5
42
330
5
100
AcDbSymbolTableRecord
100
AcDbLinetypeTableRecord
  2
CENTERX2
 70
     0
  3
Center (2x) ________  __  ________  __  _____
 72
    65
 73
     4
 40
20.32
 49
12.7
 74
     0
 49
-2.54
 74
     0
 49
2.54
 74
     0
 49
-2.54
 74
     0
  0
LTYPE
  5
43
330
5
100
AcDbSymbolTableRecord
100
AcDbLinetypeTableRecord
  2
DOT2
 70
     0
  3
Dot (.5x) ........................................
 72
    65
 73
     2
 40
0.635
 49
0.0
 74
     0
 49
-0.635
 74
     0
  0
ENDTAB
  0
TABLE
  2
LAYER
  5
2
330
0
100
AcDbSymbolTable
 70
     5
  0
LAYER
  5
10
330
2
100
AcDbSymbolTableRecord
100
AcDbLayerTableRecord
  2
0
 70
     0
 62
     7
  6
Continuous
370
    -3
390
F
  0
LAYER
  5
44
330
2
100
AcDbSymbolTableRecord
100
AcDbLayerTableRecord
  2
FORMAT
 70
     0
 62
     7
  6
Continuous
370
    -3
390
F
  0
LAYER
  5
45
330
2
100
AcDbSymbolTableRecord
100
AcDbLayerTableRecord
  2
VERMASSUNG
 70
     0
 62
     7
  6
Continuous
370
    -3
390
F
  0
LAYER
  5
46
330
2
100
AcDbSymbolTableRecord
100
AcDbLayerTableRecord
  2
KOPF_DÜNN
 70
     0
 62
     7
  6
Continuous
370
    -3
390
F
  0
LAYER
  5
47
330
2
100
AcDbSymbolTableRecord
100
AcDbLayerTableRecord
  2
KOPF_DICK
 70
     0
 62
     7
  6
Continuous
370
    15
390
F
  0
ENDTAB
  0
TABLE
  2
STYLE
  5
3
330
0
100
AcDbSymbolTable
 70
     2
  0
STYLE
  5
11
330
3
100
AcDbSymbolTableRecord
100
AcDbTextStyleTableRecord
  2
Standard
 70
     0
 40
0.0
 41
1.0
 50
0.0
 71
     0
 42
2.0
  3
txt
  4

  0
STYLE
  5
48
330
3
100
AcDbSymbolTableRecord
100
AcDbTextStyleTableRecord
  2
SLDTEXTSTYLE0
 70
     0
 40
0.0
 41
0.7
 50
0.0
 71
     0
 42
0.2
  3
TXT
  4

  0
ENDTAB
  0
TABLE
  2
VIEW
  5
6
330
0
100
AcDbSymbolTable
 70
     0
  0
ENDTAB
  0
TABLE
  2
UCS
  5
7
330
0
100
AcDbSymbolTable
 70
     0
  0
ENDTAB
  0
TABLE
  2
APPID
  5
9
330
0
100
AcDbSymbolTable
 70
     1
  0
APPID
  5
12
330
9
100
AcDbSymbolTableRecord
100
AcDbRegAppTableRecord
  2
ACAD
 70
     0
  0
ENDTAB
  0
TABLE
  2
DIMSTYLE
  5
A
330
0
100
AcDbSymbolTable
 70
     5
100
AcDbDimStyleTable
  0
DIMSTYLE
105
27
330
A
100
AcDbSymbolTableRecord
100
AcDbDimStyleTableRecord
  2
ISO-25
 70
     0
 41
2.5
 42
0.625
 43
3.75
 44
1.25
 73
     0
 74
     0
 77
     1
 78
     8
140
2.5
141
2.5
143
0.0393700787
147
0.625
171
     3
172
     1
178
     0
271
     2
272
     2
274
     3
278
    44
283
     0
284
     8
340
11
  0
DIMSTYLE
105
185
102
{ACAD_REACTORS
330
184
330
1B1
102
}
330
A
100
AcDbSymbolTableRecord
100
AcDbDimStyleTableRecord
  2
SLDDIMSTYLE0
 70
     0
 41
3.0
 44
0.0
 45
0.000000001
 73
     0
 74
     0
 77
     1
 78
    12
 79
     3
140
2.0
147
0.5
173
     1
178
     0
271
     2
272
     3
276
     2
284
    12
340
48
  0
DIMSTYLE
105
190
102
{ACAD_REACTORS
330
18F
330
19C
102
}
330
A
100
AcDbSymbolTableRecord
100
AcDbDimStyleTableRecord
  2
SLDDIMSTYLE1
 70
     0
 41
3.0
 44
0.0
 45
0.000000001
 47
0.1
 48
0.1
 71
     1
 73
     0
 74
     0
 77
     1
 78
    12
 79
     3
140
2.0
147
0.5
173
     1
178
     0
271
     2
272
     1
276
     2
284
     8
340
48
  0
DIMSTYLE
105
1A9
102
{ACAD_REACTORS
330
1A8
102
}
330
A
100
AcDbSymbolTableRecord
100
AcDbDimStyleTableRecord
  2
SLDDIMSTYLE2
 70
     0
 41
3.0
 44
0.0
 73
     0
 74
     0
 77
     1
 78
    12
 79
     3
140
2.0
147
0.5
173
     1
178
     0
179
     2
272
     3
276
     2
284
    12
340
48
  0
DIMSTYLE
105
1DB
102
{ACAD_REACTORS
330
1DA
102
}
330
A
100
AcDbSymbolTableRecord
100
AcDbDimStyleTableRecord
  2
SLDDIMSTYLE3
 70
     0
 41
3.0
 44
0.0
 45
0.000000001
 73
     0
 74
     0
 77
     1
 78
    12
 79
     3
140
2.0
147
0.5
172
     1
173
     1
178
     0
271
     2
272
     3
276
     2
284
    12
289
     0
340
48
  0
ENDTAB
  0
TABLE
  2
BLOCK_RECORD
  5
1
330
0
100
AcDbSymbolTable
 70
     8
  0
BLOCK_RECORD
  5
1F
330
1
100
AcDbSymbolTableRecord
100
AcDbBlockTableRecord
  2
*Model_Space
340
22
  0
BLOCK_RECORD
  5
1B
330
1
100
AcDbSymbolTableRecord
100
AcDbBlockTableRecord
  2
*Paper_Space
340
1E
  0
BLOCK_RECORD
  5
23
330
1
100
AcDbSymbolTableRecord
100
AcDbBlockTableRecord
  2
*Paper_Space0
340
26
  0
BLOCK_RECORD
  5
186
330
1
100
AcDbSymbolTableRecord
100
AcDbBlockTableRecord
  2
_D
340
0
  0
BLOCK_RECORD
  5
191
330
1
100
AcDbSymbolTableRecord
100
AcDbBlockTableRecord
  2
_D_1
340
0
  0
BLOCK_RECORD
  5
19D
330
1
100
AcDbSymbolTableRecord
100
AcDbBlockTableRecord
  2
_D_2
340
0
  0
BLOCK_RECORD
  5
1AA
330
1
100
AcDbSymbolTableRecord
100
AcDbBlockTableRecord
  2
_D_3
340
0
  0
BLOCK_RECORD
  5
1B2
330
1
100
AcDbSymbolTableRecord
100
AcDbBlockTableRecord
  2
_D_4
340
0
  0
BLOCK_RECORD
  5
1DC
330
1
100
AcDbSymbolTableRecord
100
AcDbBlockTableRecord
  2
_D_5
340
0
  0
BLOCK_RECORD
  5
1E9
330
1
100
AcDbSymbolTableRecord
100
AcDbBlockTableRecord
  2
SW_CENTERMARKSYMBOL_0
340
0
102
{BLKREFS
331
1F4
102
}
  0
ENDTAB
  0
ENDSEC
  0
SECTION
  2
BLOCKS
  0
BLOCK
  5
20
330
1F
100
AcDbEntity
  8
0
100
AcDbBlockBegin
  2
*Model_Space
 70
     0
 10
0.0
 20
0.0
 30
0.0
  3
*Model_Space
  1

  0
ENDBLK
  5
21
330
1F
100
AcDbEntity
  8
0
100
AcDbBlockEnd
  0
BLOCK
  5
1C
330
1B
100
AcDbEntity
 67
     1
  8
0
100
AcDbBlockBegin
  2
*Paper_Space
 70
     0
 10
0.0
 20
0.0
 30
0.0
  3
*Paper_Space
  1

  0
ENDBLK
  5
1D
330
1B
100
AcDbEntity
 67
     1
  8
0
100
AcDbBlockEnd
  0
BLOCK
  5
24
330
23
100
AcDbEntity
  8
0
100
AcDbBlockBegin
  2
*Paper_Space0
 70
     0
 10
0.0
 20
0.0
 30
0.0
  3
*Paper_Space0
  1

  0
ENDBLK
  5
25
330
23
100
AcDbEntity
  8
0
100
AcDbBlockEnd
  0
BLOCK
  5
187
330
186
100
AcDbEntity
  8
0
100
AcDbBlockBegin
  2
_D
 70
     0
 10
0.0
 20
0.0
 30
0.0
  3
_D
  1

  0
SOLID
  5
189
330
186
100
AcDbEntity
  8
VERMASSUNG
100
AcDbTrace
 10
145.1662583912
 20
73.3569314326
 30
0.0
 11
148.1662583912
 21
72.9069314326
 31
0.0
 12
148.1662583912
 22
73.8069314326
 32
0.0
 13
148.1662583912
 23
73.8069314326
 33
0.0
  0
SOLID
  5
18A
330
186
100
AcDbEntity
  8
VERMASSUNG
100
AcDbTrace
 10
235.1662583912
 20
73.3569314326
 30
0.0
 11
232.1662583912
 21
73.8069314326
 31
0.0
 12
232.1662583912
 22
72.9069314326
 32
0.0
 13
232.1662583912
 23
72.9069314326
 33
0.0
  0
LINE
  5
18B
330
186
100
AcDbEntity
  8
VERMASSUNG
100
AcDbLine
 10
145.1662583912
 20
111.2822443571
 30
0.0
 11
145.1662583912
 21
72.3569314326
 31
0.0
  0
LINE
  5
18C
330
186
100
AcDbEntity
  8
VERMASSUNG
100
AcDbLine
 10
235.1662583912
 20
92.2755701953
 30
0.0
 11
235.1662583912
 21
72.3569314326
 31
0.0
  0
LINE
  5
18D
330
186
100
AcDbEntity
  8
VERMASSUNG
100
AcDbLine
 10
145.1662583912
 20
73.3569314326
 30
0.0
 11
235.1662583912
 21
73.3569314326
 31
0.0
  0
MTEXT
  5
18E
330
186
100
AcDbEntity
  8
VERMASSUNG
100
AcDbMText
 10
187.8662583402
 20
75.9350667957
 30
0.1
 40
2.0
 41
0.0
 71
     1
 72
     1
  1
90
  7
SLDTEXTSTYLE0
 73
     1
 44
1.0
  0
ENDBLK
  5
188
330
186
100
AcDbEntity
  8
0
100
AcDbBlockEnd
  0
BLOCK
  5
192
330
191
100
AcDbEntity
  8
0
100
AcDbBlockBegin
  2
_D_1
 70
     0
 10
0.0
 20
0.0
 30
0.0
  3
_D_1
  1

  0
SOLID
  5
194
330
191
100
AcDbEntity
  8
VERMASSUNG
100
AcDbTrace
 10
235.1662583912
 20
82.0632070423
 30
0.0
 11
232.1662583912
 21
82.5132070423
 31
0.0
 12
232.1662583912
 22
81.6132070423
 32
0.0
 13
232.1662583912
 23
81.6132070423
 33
0.0
  0
SOLID
  5
195
330
191
100
AcDbEntity
  8
VERMASSUNG
100
AcDbTrace
 10
175.1662583912
 20
82.0632070423
 30
0.0
 11
178.1662583912
 21
81.6132070423
 31
0.0
 12
178.1662583912
 22
82.5132070423
 32
0.0
 13
178.1662583912
 23
82.5132070423
 33
0.0
  0
LINE
  5
196
330
191
100
AcDbEntity
  8
VERMASSUNG
100
AcDbLine
 10
235.1662583912
 20
92.2755701953
 30
0.0
 11
235.1662583912
 21
81.0632070423
 31
0.0
  0
LINE
  5
197
330
191
100
AcDbEntity
  8
VERMASSUNG
100
AcDbLine
 10
175.1662583912
 20
102.5755701953
 30
0.0
 11
175.1662583912
 21
81.0632070423
 31
0.0
  0
LINE
  5
198
330
191
100
AcDbEntity
  8
VERMASSUNG
100
AcDbLine
 10
235.1662583912
 20
82.0632070423
 30
0.0
 11
175.1662583912
 21
82.0632070423
 31
0.0
  0
MTEXT
  5
199
330
191
100
AcDbEntity
  8
VERMASSUNG
100
AcDbMText
 10
200.6162582042
 20
84.6413424055
 30
0.1
 40
2.0
 41
0.0
 71
     1
 72
     1
  1
60
  7
SLDTEXTSTYLE0
 73
     1
 44
1.0
  0
MTEXT
  5
19A
330
191
100
AcDbEntity
  8
VERMASSUNG
100
AcDbMText
 10
206.4037583063
 20
84.6413424055
 30
0.1
 40
2.0
 41
0.0
 71
     1
 72
     1
  1

  7
SLDTEXTSTYLE0
 73
     1
 44
1.0
  0
MTEXT
  5
19B
330
191
100
AcDbEntity
  8
VERMASSUNG
100
AcDbMText
 10
206.4162585961
 20
84.1468085427
 30
0.1
 40
1.5
 41
0.0
 71
     1
 72
     1
  1
±0.1
  7
SLDTEXTSTYLE0
 73
     1
 44
1.0
  0
ENDBLK
  5
193
330
191
100
AcDbEntity
  8
0
100
AcDbBlockEnd
  0
BLOCK
  5
19E
330
19D
100
AcDbEntity
  8
0
100
AcDbBlockBegin
  2
_D_2
 70
     0
 10
0.0
 20
0.0
 30
0.0
  3
_D_2
  1

  0
SOLID
  5
1A0
330
19D
100
AcDbEntity
  8
VERMASSUNG
100
AcDbTrace
 10
254.5015565923
 20
92.2755701953
 30
0.0
 11
254.9515565923
 21
95.2755701953
 31
0.0
 12
254.0515565923
 22
95.2755701953
 32
0.0
 13
254.0515565923
 23
95.2755701953
 33
0.0
  0
SOLID
  5
1A1
330
19D
100
AcDbEntity
  8
VERMASSUNG
100
AcDbTrace
 10
254.5015565923
 20
127.2755701953
 30
0.0
 11
254.0515565923
 21
124.2755701953
 31
0.0
 12
254.9515565923
 22
124.2755701953
 32
0.0
 13
254.9515565923
 23
124.2755701953
 33
0.0
  0
LINE
  5
1A2
330
19D
100
AcDbEntity
  8
VERMASSUNG
100
AcDbLine
 10
235.1662583912
 20
92.2755701953
 30
0.0
 11
255.5015565923
 21
92.2755701953
 31
0.0
  0
LINE
  5
1A3
330
19D
100
AcDbEntity
  8
VERMASSUNG
100
AcDbLine
 10
235.1662583912
 20
127.2755701953
 30
0.0
 11
255.5015565923
 21
127.2755701953
 31
0.0
  0
LINE
  5
1A4
330
19D
100
AcDbEntity
  8
VERMASSUNG
100
AcDbLine
 10
254.5015565923
 20
92.2755701953
 30
0.0
 11
254.5015565923
 21
127.2755701953
 31
0.0
  0
MTEXT
  5
1A5
330
19D
100
AcDbEntity
  8
VERMASSUNG
100
AcDbMText
 10
251.9234212292
 20
105.2255700083
 30
0.1
 40
2.0
 41
0.0
 71
     1
 72
     1
  1
35
  7
SLDTEXTSTYLE0
 11
6.123233995736766E-17
 21
1.0
 31
0.0
 73
     1
 44
1.0
  0
MTEXT
  5
1A6
330
19D
100
AcDbEntity
  8
VERMASSUNG
100
AcDbMText
 10
251.9234212292
 20
111.0130701104
 30
0.1
 40
2.0
 41
0.0
 71
     1
 72
     1
  1

  7
SLDTEXTSTYLE0
 11
6.123233995736766E-17
 21
1.0
 31
0.0
 73
     1
 44
1.0
  0
MTEXT
  5
1A7
330
19D
100
AcDbEntity
  8
VERMASSUNG
100
AcDbMText
 10
252.4179550919
 20
111.0255704002
 30
0.1
 40
1.5
 41
0.0
 71
     1
 72
     1
  1
±0.1
  7
SLDTEXTSTYLE0
 11
6.123233995736766E-17
 21
1.0
 31
0.0
 73
     1
 44
1.0
  0
ENDBLK
  5
19F
330
19D
100
AcDbEntity
  8
0
100
AcDbBlockEnd
  0
BLOCK
  5
1AB
330
1AA
100
AcDbEntity
  8
0
100
AcDbBlockBegin
  2
_D_3
 70
     0
 10
0.0
 20
0.0
 30
0.0
  3
_D_3
  1

  0
ARC
  5
1AD
330
1AA
100
AcDbEntity
  8
VERMASSUNG
100
AcDbCircle
 10
235.1877704413
 20
92.2755701953
 30
0.0
 40
9.698225488464857
100
AcDbArc
 50
0.0
 51
93.0
  0
SOLID
  5
1AE
330
1AA
100
AcDbEntity
  8
VERMASSUNG
100
AcDbTrace
 10
244.8859959298
 20
92.2755701953
 30
0.0
 11
244.8826303303
 21
95.3091305907
 31
0.0
 12
243.9927362798
 22
95.1746368033
 32
0.0
 13
243.9927362798
 23
95.1746368033
 33
0.0
  0
SOLID
  5
1AF
330
1AA
100
AcDbEntity
  8
VERMASSUNG
100
AcDbTrace
 10
234.6802045365
 20
101.9605046028
 30
0.0
 11
237.6220476725
 21
101.2201945572
 31
0.0
 12
237.7097836847
 22
102.1159078999
 32
0.0
 13
237.7097836847
 23
102.1159078999
 33
0.0
  0
MTEXT
  5
1B0
330
1AA
100
AcDbEntity
  8
VERMASSUNG
100
AcDbMText
 10
241.5346737883
 20
103.1767561307
 30
0.1
 40
2.0
 41
0.0
 71
     1
 72
     1
  1
93°
  7
SLDTEXTSTYLE0
 11
0.7253743710122853
 21
-0.6883545756937565
 31
0.0
 73
     1
 44
1.0
  0
ENDBLK
  5
1AC
330
1AA
100
AcDbEntity
  8
0
100
AcDbBlockEnd
  0
BLOCK
  5
1B3
330
1B2
100
AcDbEntity
  8
0
100
AcDbBlockBegin
  2
_D_4
 70
     0
 10
0.0
 20
0.0
 30
0.0
  3
_D_4
  1

  0
SOLID
  5
1B5
330
1B2
100
AcDbEntity
  8
VERMASSUNG
100
AcDbTrace
 10
135.1662583912
 20
152.2755701953
 30
0.0
 11
134.7162583912
 21
149.2755701953
 31
0.0
 12
135.6162583912
 22
149.2755701953
 32
0.0
 13
135.6162583912
 23
149.2755701953
 33
0.0
  0
SOLID
  5
1B6
330
1B2
100
AcDbEntity
  8
VERMASSUNG
100
AcDbTrace
 10
135.1662583912
 20
102.2755701953
 30
0.0
 11
135.6162583912
 21
105.2755701953
 31
0.0
 12
134.7162583912
 22
105.2755701953
 32
0.0
 13
134.7162583912
 23
105.2755701953
 33
0.0
  0
LINE
  5
1B7
330
1B2
100
AcDbEntity
  8
VERMASSUNG
100
AcDbLine
 10
175.4662583912
 20
152.2755701953
 30
0.0
 11
134.1662583912
 21
152.2755701953
 31
0.0
  0
LINE
  5
1B8
330
1B2
100
AcDbEntity
  8
VERMASSUNG
100
AcDbLine
 10
175.4662583912
 20
102.2755701953
 30
0.0
 11
134.1662583912
 21
102.2755701953
 31
0.0
  0
LINE
  5
1B9
330
1B2
100
AcDbEntity
  8
VERMASSUNG
100
AcDbLine
 10
135.1662583912
 20
152.2755701953
 30
0.0
 11
135.1662583912
 21
102.2755701953
 31
0.0
  0
MTEXT
  5
1BA
330
1B2
100
AcDbEntity
  8
VERMASSUNG
100
AcDbMText
 10
132.3881229022
 20
120.8705700861
 30
0.35
 40
2.0
 41
0.0
 71
     1
 72
     1
  1
PSC
  7
SLDTEXTSTYLE0
 11
-7.044195017643634E-15
 21
1.0
 31
0.0
 73
     1
 44
1.0
  0
MTEXT
  5
1BB
330
1B2
100
AcDbEntity
  8
VERMASSUNG
100
AcDbMText
 10
132.5881229117
 20
125.4705701882
 30
0.35
 40
2.0
 41
0.0
 71
     1
 72
     1
  1
%%c
  7
SLDTEXTSTYLE0
 11
-7.044195017643634E-15
 21
1.0
 31
0.0
 73
     1
 44
1.0
  0
MTEXT
  5
1BC
330
1B2
100
AcDbEntity
  8
VERMASSUNG
100
AcDbMText
 10
132.3881229022
 20
129.0805706681
 30
0.35
 40
2.0
 41
0.0
 71
     1
 72
     1
  1
50
  7
SLDTEXTSTYLE0
 11
-7.044195017643634E-15
 21
1.0
 31
0.0
 73
     1
 44
1.0
  0
ENDBLK
  5
1B4
330
1B2
100
AcDbEntity
  8
0
100
AcDbBlockEnd
  0
BLOCK
  5
1DD
330
1DC
100
AcDbEntity
  8
0
100
AcDbBlockBegin
  2
_D_5
 70
     0
 10
0.0
 20
0.0
 30
0.0
  3
_D_5
  1

  0
SOLID
  5
1DF
330
1DC
100
AcDbEntity
  8
VERMASSUNG
100
AcDbTrace
 10
53.3452506815
 20
98.6641840838
 30
0.0
 11
51.2317054294
 21
96.4880805781
 31
0.0
 12
51.9631876671
 22
95.9637393382
 32
0.0
 13
51.9631876671
 23
95.9637393382
 33
0.0
  0
SOLID
  5
1E0
330
1DC
100
AcDbEntity
  8
VERMASSUNG
100
AcDbTrace
 10
91.2143402349
 20
151.4934568064
 30
0.0
 11
93.327885487
 21
153.6695603121
 31
0.0
 12
92.5964032493
 22
154.1939015521
 32
0.0
 13
92.5964032493
 23
154.1939015521
 33
0.0
  0
LINE
  5
1E1
330
1DC
100
AcDbEntity
  8
VERMASSUNG
100
AcDbLine
 10
53.3452506815
 20
98.6641840838
 30
0.0
 11
54.1580087234
 21
98.0815827061
 31
0.0
  0
LINE
  5
1E2
330
1DC
100
AcDbEntity
  8
VERMASSUNG
100
AcDbLine
 10
91.2143402349
 20
151.4934568064
 30
0.0
 11
90.401582193
 21
152.0760581842
 31
0.0
  0
LINE
  5
1E3
330
1DC
100
AcDbEntity
  8
VERMASSUNG
100
AcDbLine
 10
53.3452506815
 20
98.6641840838
 30
0.0
 11
49.8496424151
 21
93.7876358325
 31
0.0
  0
LINE
  5
1E4
330
1DC
100
AcDbEntity
  8
VERMASSUNG
100
AcDbLine
 10
53.3452506815
 20
98.6641840838
 30
0.0
 11
91.2143402349
 21
151.4934568064
 31
0.0
  0
LINE
  5
1E5
330
1DC
100
AcDbEntity
  8
VERMASSUNG
100
AcDbLine
 10
91.2143402349
 20
151.4934568064
 30
0.0
 11
102.4071344364
 21
167.1079641626
 31
0.0
  0
MTEXT
  5
1E6
330
1DC
100
AcDbEntity
  8
VERMASSUNG
100
AcDbMText
 10
92.2660093855
 20
157.3858013327
 30
0.1
 40
2.0
 41
0.0
 71
     1
 72
     1
  1
%%c
  7
SLDTEXTSTYLE0
 11
0.5826013777439217
 21
0.8127580418863195
 31
0.0
 73
     1
 44
1.0
  0
MTEXT
  5
1E7
330
1DC
100
AcDbEntity
  8
VERMASSUNG
100
AcDbMText
 10
94.2066487514
 20
160.4363781566
 30
0.1
 40
2.0
 41
0.0
 71
     1
 72
     1
  1
65
  7
SLDTEXTSTYLE0
 11
0.5826013777439217
 21
0.8127580418863195
 31
0.0
 73
     1
 44
1.0
  0
MTEXT
  5
1E8
330
1DC
100
AcDbEntity
  8
VERMASSUNG
100
AcDbMText
 10
97.5784545559
 20
165.1402157854
 30
0.1
 40
2.0
 41
0.0
 71
     1
 72
     1
  1
min.
  7
SLDTEXTSTYLE0
 11
0.5826013777439217
 21
0.8127580418863195
 31
0.0
 73
     1
 44
1.0
  0
ENDBLK
  5
1DE
330
1DC
100
AcDbEntity
  8
0
100
AcDbBlockEnd
  0
BLOCK
  5
1EA
330
1E9
100
AcDbEntity
  8
0
100
AcDbBlockBegin
  2
SW_CENTERMARKSYMBOL_0
 70
     0
 10
0.0
 20
0.0
 30
0.0
  3
SW_CENTERMARKSYMBOL_0
  1

  0
LINE
  5
1EC
330
1E9
100
AcDbEntity
  8
VERMASSUNG
 62
     0
100
AcDbLine
 10
0.0
 20
0.0
 30
0.0
 11
0.0
 21
2.5
 31
0.0
  0
LINE
  5
1ED
330
1E9
100
AcDbEntity
  8
VERMASSUNG
 62
     0
100
AcDbLine
 10
0.0
 20
0.0
 30
0.0
 11
-2.5
 21
0.0
 31
0.0
  0
LINE
  5
1EE
330
1E9
100
AcDbEntity
  8
VERMASSUNG
 62
     0
100
AcDbLine
 10
0.0
 20
0.0
 30
0.0
 11
0.0
 21
-2.5
 31
0.0
  0
LINE
  5
1EF
330
1E9
100
AcDbEntity
  8
VERMASSUNG
 62
     0
100
AcDbLine
 10
0.0
 20
0.0
 30
0.0
 11
2.5
 21
0.0
 31
0.0
  0
LINE
  5
1F0
330
1E9
100
AcDbEntity
  8
VERMASSUNG
 62
     0
100
AcDbLine
 10
0.0
 20
5.0
 30
0.0
 11
0.0
 21
27.5
 31
0.0
  0
LINE
  5
1F1
330
1E9
100
AcDbEntity
  8
VERMASSUNG
 62
     0
100
AcDbLine
 10
-5.0
 20
0.0
 30
0.0
 11
-27.5
 21
0.0
 31
0.0
  0
LINE
  5
1F2
330
1E9
100
AcDbEntity
  8
VERMASSUNG
 62
     0
100
AcDbLine
 10
0.0
 20
-5.0
 30
0.0
 11
0.0
 21
-27.5
 31
0.0
  0
LINE
  5
1F3
330
1E9
100
AcDbEntity
  8
VERMASSUNG
 62
     0
100
AcDbLine
 10
5.0
 20
0.0
 30
0.0
 11
27.5
 21
0.0
 31
0.0
  0
ENDBLK
  5
1EB
330
1E9
100
AcDbEntity
  8
0
100
AcDbBlockEnd
  0
ENDSEC
  0
SECTION
  2
ENTITIES
  0
MTEXT
  5
49
330
1F
100
AcDbEntity
  8
KOPF_DÜNN
100
AcDbMText
 10
13.8892156294
 20
23.8442973028
 30
0.0
 40
3.0
 41
0.0
 71
     1
 72
     1
  1
PS5.KDB.LUA.060
  7
SLDTEXTSTYLE0
 73
     1
 44
1.0
  0
MTEXT
  5
4A
330
1F
100
AcDbEntity
  8
VERMASSUNG
100
AcDbMText
 10
13.9329988022
 20
28.8834360957
 30
0.0
 40
3.0
 41
0.0
 71
     1
 72
     1
  1
Klemmhalter links_Turning tool left 93° /55°
  7
SLDTEXTSTYLE0
 73
     1
 44
1.0
  0
MTEXT
  5
4B
330
1F
100
AcDbEntity
  8
VERMASSUNG
100
AcDbMText
 10
98.8601118557
 20
13.8365368179
 30
0.0
 40
2.0
 41
0.0
 71
     1
 72
     1
  1
Datum: 27.04.2012
  7
SLDTEXTSTYLE0
 73
     1
 44
1.0
  0
MTEXT
  5
4C
330
1F
100
AcDbEntity
  8
VERMASSUNG
100
AcDbMText
 10
13.933048693
 20
18.0482802738
 30
0.0
 40
2.0
 41
0.0
 71
     1
 72
     1
  1
PSC ø50 / DC..11 T3..
  7
SLDTEXTSTYLE0
 73
     1
 44
1.0
  0
MTEXT
  5
4D
330
1F
100
AcDbEntity
  8
VERMASSUNG
100
AcDbMText
 10
13.9808475933
 20
13.9090973692
 30
0.0
 40
2.0
 41
0.0
 71
     1
 72
     1
  1
Gewicht: 733g
  7
SLDTEXTSTYLE0
 73
     1
 44
1.0
  0
LINE
  5
4E
330
1F
100
AcDbEntity
  8
0
  6
Continuous
 62
     7
370
    15
100
AcDbLine
 10
206.1845155323
 20
152.2755705678
 30
0.0
 11
175.4662584055
 21
152.2755705678
 31
0.0
  0
LINE
  5
4F
330
1F
100
AcDbEntity
  8
0
  6
Continuous
 62
     7
370
    15
100
AcDbLine
 10
175.4662584055
 20
102.2755698228
 30
0.0
 11
206.1728963519
 21
102.2755698228
 31
0.0
  0
ARC
  5
50
330
1F
100
AcDbEntity
  8
0
  6
Continuous
 62
     7
370
    15
100
AcDbCircle
 10
175.4662583912
 20
102.5755701953
 30
0.0
 40
0.2999999999999829
100
AcDbArc
 50
180.0
 51
270.0
  0
ARC
  5
51
330
1F
100
AcDbEntity
  8
0
  6
Continuous
 62
     7
370
    15
100
AcDbCircle
 10
175.4662583912
 20
151.9755701953
 30
0.0
 40
0.2999999999999829
100
AcDbArc
 50
90.0
 51
180.0
  0
LWPOLYLINE
  5
52
330
1F
100
AcDbEntity
  8
0
  6
Continuous
 62
     7
370
    15
100
AcDbPolyline
 90
        3
 70
   128
 43
0.0
 10
174.9662583963
 20
109.4357491398
 10
175.0917133314
 20
109.3674478048
 10
175.1662583912
 20
109.3147107327
  0
LWPOLYLINE
  5
53
330
1F
100
AcDbEntity
  8
0
  6
Continuous
 62
     7
370
    15
100
AcDbPolyline
 90
        3
 70
   128
 43
0.0
 10
175.1662583912
 20
145.2364296579
 10
175.0917133314
 20
145.1836925858
 10
174.9662583963
 20
145.1153912508
  0
ARC
  5
54
330
1F
100
AcDbEntity
  8
0
  6
Continuous
 62
     7
370
    15
100
AcDbCircle
 10
193.1662583912
 20
115.3451803192
 30
0.0
 40
2.5
100
AcDbArc
 50
284.2709816961
 51
334.6081678764
  0
ARC
  5
55
330
1F
100
AcDbEntity
  8
0
  6
Continuous
 62
     7
370
    15
100
AcDbCircle
 10
193.1662583912
 20
115.3451803192
 30
0.0
 40
2.5
100
AcDbArc
 50
205.3918321236
 51
284.2709816961
  0
SPLINE
  5
56
330
1F
100
AcDbEntity
  8
0
  6
Continuous
 62
     7
370
    15
100
AcDbSpline
210
0.0
220
0.0
230
1.0
 70
     8
 71
     3
 72
    70
 73
    66
 74
     0
 42
0.00000001
 43
0.00000001
 12
1.0
 22
0.0
 32
0.0
 13
1.0
 23
0.0
 33
0.0
 40
-0.0312499999999998
 40
-0.0312499999999998
 40
0.0
 40
0.0
 40
0.03125
 40
0.03125
 40
0.0625000000000001
 40
0.0625000000000001
 40
0.0937500000000001
 40
0.0937500000000001
 40
0.1250000000000001
 40
0.1250000000000001
 40
0.1562500000000001
 40
0.1562500000000001
 40
0.1875000000000002
 40
0.1875000000000002
 40
0.2187500000000002
 40
0.2187500000000002
 40
0.2500000000000002
 40
0.2500000000000002
 40
0.2812500000000002
 40
0.2812500000000002
 40
0.3125000000000003
 40
0.3125000000000003
 40
0.3437500000000003
 40
0.3437500000000003
 40
0.3750000000000005
 40
0.3750000000000005
 40
0.4062500000000007
 40
0.4062500000000007
 40
0.4375000000000009
 40
0.4375000000000009
 40
0.4687500000000011
 40
0.4687500000000011
 40
0.5000000000000013
 40
0.5000000000000013
 40
0.5312500000000016
 40
0.5312500000000016
 40
0.5625000000000019
 40
0.5625000000000019
 40
0.5937500000000021
 40
0.5937500000000021
 40
0.6250000000000023
 40
0.6250000000000023
 40
0.6562500000000021
 40
0.6562500000000021
 40
0.687500000000002
 40
0.687500000000002
 40
0.7187500000000018
 40
0.7187500000000018
 40
0.7500000000000016
 40
0.7500000000000016
 40
0.7812500000000013
 40
0.7812500000000013
 40
0.8125000000000012
 40
0.8125000000000012
 40
0.843750000000001
 40
0.843750000000001
 40
0.8750000000000008
 40
0.8750000000000008
 40
0.9062500000000006
 40
0.9062500000000006
 40
0.9375000000000003
 40
0.9375000000000003
 40
0.9687500000000002
 40
0.9687500000000002
 40
1.0
 40
1.0
 40
1.03125
 40
1.03125
 10
192.9678724772699
 20
115.4972335558782
 30
0.0
 10
193.364644305149
 20
115.4972335558782
 30
0.0
 10
193.5596789942902
 20
115.4799094124413
 30
0.0
 10
193.9433311739755
 20
115.4122125385883
 30
0.0
 10
194.1339503028468
 20
115.3610090888104
 30
0.0
 10
194.4971646644281
 20
115.2279751666154
 30
0.0
 10
194.6694043059392
 20
115.1467790351847
 30
0.0
 10
194.9953743674164
 20
114.9559292755043
 30
0.0
 10
195.1495735893188
 20
114.845370804558
 30
0.0
 10
195.4260268335611
 20
114.6053613083651
 30
0.0
 10
195.5501453881902
 20
114.475031189684
 30
0.0
 10
195.7694627911955
 20
114.1938855327597
 30
0.0
 10
195.8625520167769
 20
114.0453278905034
 30
0.0
 10
196.0122289640579
 20
113.7401680744194
 30
0.0
 10
196.0699161245072
 20
113.581306995947
 30
0.0
 10
196.1470500155036
 20
113.2588208096028
 30
0.0
 10
196.1661495651929
 20
113.0979511009703
 30
0.0
 10
196.1663662986803
 20
112.7770871381793
 30
0.0
 10
196.1468534840546
 20
112.6154703634405
 30
0.0
 10
196.0702524409754
 20
112.305360207718
 30
0.0
 10
196.0135772759624
 20
112.1558928422518
 30
0.0
 10
195.8632280630181
 20
111.8677625289272
 30
0.0
 10
195.7693721589768
 20
111.7298362906741
 30
0.0
 10
195.5523420916355
 20
111.4761522702909
 30
0.0
 10
195.428324244708
 20
111.3586958523558
 30
0.0
 10
195.1485090223858
 20
111.142976601826
 30
0.0
 10
194.9971806662282
 20
111.0481219133913
 30
0.0
 10
194.6725149964919
 20
110.8826207784142
 30
0.0
 10
194.4970933782254
 20
110.8114079009638
 30
0.0
 10
194.1339119905863
 20
110.6976643005089
 30
0.0
 10
193.9469242725073
 20
110.654935175134
 30
0.0
 10
193.5622000707232
 20
110.5971397619362
 30
0.0
 10
193.3632442042044
 20
110.582376339378
 30
0.0
 10
192.9715151546218
 20
110.5822665551576
 30
0.0
 10
192.7767264894479
 20
110.5964426033931
 30
0.0
 10
192.389351911744
 20
110.654111550198
 30
0.0
 10
192.2000282239016
 20
110.6973621009952
 30
0.0
 10
191.8388878249093
 20
110.8101812205946
 30
0.0
 10
191.6643009407845
 20
110.880629399666
 30
0.0
 10
191.3363917615976
 20
111.0473868796222
 30
0.0
 10
191.1853800892764
 20
111.142219202278
 30
0.0
 10
190.9085610246439
 20
111.355033631587
 30
0.0
 10
190.7818145454037
 20
111.4744440311662
 30
0.0
 10
190.5639335953141
 20
111.7287078150551
 30
0.0
 10
190.4716355708597
 20
111.864017790528
 30
0.0
 10
190.3206637505081
 20
112.1518557758035
 30
0.0
 10
190.2627444764137
 20
112.304062428078
 30
0.0
 10
190.1861019018981
 20
112.6130564527654
 30
0.0
 10
190.1664412504471
 20
112.771423394696
 30
0.0
 10
190.166078046125
 20
113.0963959890557
 30
0.0
 10
190.1853863437421
 20
113.2575439922293
 30
0.0
 10
190.2613536848094
 20
113.5770179056575
 30
0.0
 10
190.3189500789508
 20
113.7370635858061
 30
0.0
 10
190.4692661444626
 20
114.0442755989897
 30
0.0
 10
190.5612730465694
 20
114.1911175447128
 30
0.0
 10
190.7787037131953
 20
114.4708025296133
 30
0.0
 10
190.9051569380324
 20
114.6040458143885
 30
0.0
 10
191.1814138828435
 20
114.8441996757929
 30
0.0
 10
191.3322174451563
 20
114.9527103430921
 30
0.0
 10
191.6599245151
 20
115.1452397896632
 30
0.0
 10
191.8341468975549
 20
115.2273706677661
 30
0.0
 10
192.1949136744787
 20
115.359832065953
 30
0.0
 10
192.3838880524217
 20
115.4110820683837
 30
0.0
 10
192.7717316745278
 20
115.4799067266321
 30
0.0
 10
192.9678724772699
 20
115.4972335558782
 30
0.0
 10
193.364644305149
 20
115.4972335558782
 30
0.0
  0
ELLIPSE
  5
57
330
1F
100
AcDbEntity
  8
0
  6
Continuous
 62
     7
370
    15
100
AcDbEllipse
 10
205.0858736335
 20
127.2755701953
 30
0.0
 11
0.0
 21
25.0
 31
0.0
210
0.0
220
0.0
230
1.0
 40
0.2679491924
 41
0.077017833721855
 42
3.064574819867939
  0
SPLINE
  5
58
330
1F
100
AcDbEntity
  8
0
  6
Continuous
 62
     7
370
    15
100
AcDbSpline
210
0.0
220
0.0
230
1.0
 70
     8
 71
     3
 72
    18
 73
    14
 74
     0
 42
0.00000001
 43
0.00000001
 12
1.0
 22
0.0
 32
0.0
 13
1.0
 23
0.0
 33
0.0
 40
0.0
 40
0.0
 40
0.0
 40
0.0
 40
0.2500000000000002
 40
0.2500000000000002
 40
0.5000000000000003
 40
0.5000000000000003
 40
0.6250000000000016
 40
0.6250000000000016
 40
0.7500000000000028
 40
0.7500000000000028
 40
0.8750000000000013
 40
0.8750000000000013
 40
1.0
 40
1.0
 40
1.0
 40
1.0
 10
204.5704618762791
 20
102.3496803847549
 30
0.0
 10
204.6542122332262
 20
102.3255599344113
 30
0.0
 10
204.7851239967518
 20
102.3089564197112
 30
0.0
 10
205.1411013634361
 20
102.2862565701213
 30
0.0
 10
205.3586508085406
 20
102.2806625465769
 30
0.0
 10
205.7393081621928
 20
102.2765514977793
 30
0.0
 10
205.8744747264997
 20
102.2759200842947
 30
0.0
 10
206.1544860933352
 20
102.2754499484381
 30
0.0
 10
206.3002514132011
 20
102.2756030216344
 30
0.0
 10
206.6035453090223
 20
102.2761385686314
 30
0.0
 10
206.7606913019893
 20
102.2765190757349
 30
0.0
 10
207.0766748088617
 20
102.2771061026904
 30
0.0
 10
207.2367377009642
 20
102.2773158033511
 30
0.0
 10
207.3989314032304
 20
102.2773606637766
 30
0.0
  0
SPLINE
  5
59
330
1F
100
AcDbEntity
  8
0
  6
Continuous
 62
     7
370
    15
100
AcDbSpline
210
0.0
220
0.0
230
1.0
 70
     8
 71
     3
 72
    18
 73
    14
 74
     0
 42
0.00000001
 43
0.00000001
 12
1.0
 22
0.0
 32
0.0
 13
1.0
 23
0.0
 33
0.0
 40
0.0
 40
0.0
 40
0.0
 40
0.0
 40
0.25
 40
0.25
 40
0.5
 40
0.5
 40
0.625
 40
0.625
 40
0.75
 40
0.75
 40
0.875
 40
0.875
 40
1.0
 40
1.0
 40
1.0
 40
1.0
 10
207.3989314032305
 20
152.2737797268336
 30
0.0
 10
207.0745378406895
 20
152.2738694493878
 30
0.0
 10
206.7600637040892
 20
152.2747219897882
 30
0.0
 10
206.1507963615128
 20
152.2758046889674
 30
0.0
 10
205.8694183625247
 20
152.2759674139899
 30
0.0
 10
205.4885113220495
 20
152.27189340663
 30
0.0
 10
205.3694118146145
 20
152.2697868830067
 30
0.0
 10
205.1526515031937
 20
152.2634909691453
 30
0.0
 10
205.0539897328957
 20
152.2592954389047
 30
0.0
 10
204.876474553079
 20
152.2480418680658
 30
0.0
 10
204.7980127049298
 20
152.240960724504
 30
0.0
 10
204.6663390559585
 20
152.2237194097696
 30
0.0
 10
204.6123380228087
 20
152.2135205098312
 30
0.0
 10
204.5704618762791
 20
152.2014600058553
 30
0.0
  0
SPLINE
  5
5A
330
1F
100
AcDbEntity
  8
0
  6
Continuous
 62
     7
370
    15
100
AcDbSpline
210
0.0
220
0.0
230
1.0
 70
     8
 71
     3
 72
    12
 73
     8
 74
     0
 42
0.00000001
 43
0.00000001
 12
1.0
 22
0.0
 32
0.0
 13
1.0
 23
0.0
 33
0.0
 40
0.0
 40
0.0
 40
0.0
 40
0.0
 40
0.4999999999999982
 40
0.4999999999999982
 40
0.7499999999999991
 40
0.7499999999999991
 40
1.0
 40
1.0
 40
1.0
 40
1.0
 10
183.2610025028837
 20
103.6229287180734
 30
0.0
 10
183.2918542134479
 20
103.5835966777109
 30
0.0
 10
183.3337470769085
 20
103.5461849121827
 30
0.0
 10
183.4332679547017
 20
103.4965139875668
 30
0.0
 10
183.472882119426
 20
103.4811249049589
 30
0.0
 10
183.5699851532055
 20
103.4572916892917
 30
0.0
 10
183.6304838258559
 20
103.4488390798029
 30
0.0
 10
183.6940152047758
 20
103.4488390798029
 30
0.0
  0
LINE
  5
5B
330
1F
100
AcDbEntity
  8
0
  6
Continuous
 62
     7
370
    15
100
AcDbLine
 10
183.6940150598
 20
103.4488388264
 30
0.0
 11
186.6385012755
 21
103.4488388264
 31
0.0
  0
SPLINE
  5
5C
330
1F
100
AcDbEntity
  8
0
  6
Continuous
 62
     7
370
    15
100
AcDbSpline
210
0.0
220
0.0
230
1.0
 70
     8
 71
     3
 72
    12
 73
     8
 74
     0
 42
0.00000001
 43
0.00000001
 12
1.0
 22
0.0
 32
0.0
 13
1.0
 23
0.0
 33
0.0
 40
0.0
 40
0.0
 40
0.0
 40
0.0
 40
0.2500000000000026
 40
0.2500000000000026
 40
0.5000000000000051
 40
0.5000000000000051
 40
1.0
 40
1.0
 40
1.0
 40
1.0
 10
186.638501577643
 20
103.4488390798031
 30
0.0
 10
186.7021381318567
 20
103.4488390798031
 30
0.0
 10
186.7617182587229
 20
103.4570958507348
 30
0.0
 10
186.8603550000893
 20
103.4812979127427
 30
0.0
 10
186.8993136244696
 20
103.4965447317768
 30
0.0
 10
186.9986925639775
 20
103.5461496038369
 30
0.0
 10
187.0406504691429
 20
103.5835812519557
 30
0.0
 10
187.0715142795354
 20
103.6229287180734
 30
0.0
  0
ELLIPSE
  5
5D
330
1F
100
AcDbEntity
  8
0
  6
Continuous
 62
     7
370
    15
100
AcDbEllipse
 10
174.1100007362
 20
127.2755701953
 30
0.0
 11
-11.7092723497272
 21
24.67718644093742
 31
0.0
210
0.0
220
0.0
230
1.0
 40
0.3419987131
 41
3.310521928178951
 42
4.221709151398941
  0
SPLINE
  5
5E
330
1F
100
AcDbEntity
  8
0
  6
Continuous
 62
     7
370
    15
100
AcDbSpline
210
0.0
220
0.0
230
1.0
 70
     8
 71
     3
 72
    12
 73
     8
 74
     0
 42
0.00000001
 43
0.00000001
 12
1.0
 22
0.0
 32
0.0
 13
1.0
 23
0.0
 33
0.0
 40
0.0
 40
0.0
 40
0.0
 40
0.0
 40
0.4999999999999982
 40
0.4999999999999982
 40
0.7499999999999991
 40
0.7499999999999991
 40
1.0
 40
1.0
 40
1.0
 40
1.0
 10
187.0715142795352
 20
119.1791171972607
 30
0.0
 10
187.040662568971
 20
119.2940201861975
 30
0.0
 10
186.9987697055104
 20
119.4061590822464
 30
0.0
 10
186.8992488277172
 20
119.5581013638472
 30
0.0
 10
186.8596346629929
 20
119.6057659733721
 30
0.0
 10
186.7625316292134
 20
119.6801023039875
 30
0.0
 10
186.702032956563
 20
119.7067602261247
 30
0.0
 10
186.6385015776431
 20
119.7067602261247
 30
0.0
  0
LINE
  5
5F
330
1F
100
AcDbEntity
  8
0
  6
Continuous
 62
     7
370
    15
100
AcDbLine
 10
186.6385012755
 20
119.7067600602
 30
0.0
 11
183.6940150598
 21
119.7067600602
 31
0.0
  0
SPLINE
  5
60
330
1F
100
AcDbEntity
  8
0
  6
Continuous
 62
     7
370
    15
100
AcDbSpline
210
0.0
220
0.0
230
1.0
 70
     8
 71
     3
 72
    12
 73
     8
 74
     0
 42
0.00000001
 43
0.00000001
 12
1.0
 22
0.0
 32
0.0
 13
1.0
 23
0.0
 33
0.0
 40
0.0
 40
0.0
 40
0.0
 40
0.0
 40
0.2500000000000016
 40
0.2500000000000016
 40
0.5000000000000032
 40
0.5000000000000032
 40
1.0
 40
1.0
 40
1.0
 40
1.0
 10
183.6940152047759
 20
119.7067602261243
 30
0.0
 10
183.6303786505622
 20
119.7067602261243
 30
0.0
 10
183.570798523696
 20
119.6807133230664
 30
0.0
 10
183.4721617823296
 20
119.6052261641664
 30
0.0
 10
183.4332031579493
 20
119.5580071256357
 30
0.0
 10
183.3338242184414
 20
119.4062674745422
 30
0.0
 10
183.291866313276
 20
119.294065250358
 30
0.0
 10
183.2610025028835
 20
119.1791171972608
 30
0.0
  0
ELLIPSE
  5
61
330
1F
100
AcDbEntity
  8
0
  6
Continuous
 62
     7
370
    15
100
AcDbEllipse
 10
196.2225160462
 20
127.2755701953
 30
0.0
 11
11.70927234972706
 21
24.67718644093745
 31
0.0
210
0.0
220
0.0
230
1.0
 40
0.3419987131
 41
2.061476155780654
 42
2.97266337900067
  0
SPLINE
  5
62
330
1F
100
AcDbEntity
  8
0
  6
Continuous
 62
     7
370
    15
100
AcDbSpline
210
0.0
220
0.0
230
1.0
 70
     8
 71
     3
 72
    12
 73
     8
 74
     0
 42
0.00000001
 43
0.00000001
 12
1.0
 22
0.0
 32
0.0
 13
1.0
 23
0.0
 33
0.0
 40
0.0
 40
0.0
 40
0.0
 40
0.0
 40
0.5000000000000032
 40
0.5000000000000032
 40
0.7500000000000016
 40
0.7500000000000016
 40
1.0
 40
1.0
 40
1.0
 40
1.0
 10
183.2610025028837
 20
135.3720231933492
 30
0.0
 10
183.291701886251
 20
135.2576875262853
 30
0.0
 10
183.3330519543575
 20
135.1463341734439
 30
0.0
 10
183.4328078825769
 20
134.9935974011952
 30
0.0
 10
183.4725048003096
 20
134.9457375153431
 30
0.0
 10
183.5697629519573
 20
134.8711344019936
 30
0.0
 10
183.630539109948
 20
134.8443801644855
 30
0.0
 10
183.6940152047759
 20
134.8443801644855
 30
0.0
  0
LINE
  5
63
330
1F
100
AcDbEntity
  8
0
  6
Continuous
 62
     7
370
    15
100
AcDbLine
 10
183.6940150598
 20
134.8443803304
 30
0.0
 11
186.6385012755
 21
134.8443803304
 31
0.0
  0
SPLINE
  5
64
330
1F
100
AcDbEntity
  8
0
  6
Continuous
 62
     7
370
    15
100
AcDbSpline
210
0.0
220
0.0
230
1.0
 70
     8
 71
     3
 72
    12
 73
     8
 74
     0
 42
0.00000001
 43
0.00000001
 12
1.0
 22
0.0
 32
0.0
 13
1.0
 23
0.0
 33
0.0
 40
0.0
 40
0.0
 40
0.0
 40
0.0
 40
0.2500000000000004
 40
0.2500000000000004
 40
0.5000000000000009
 40
0.5000000000000009
 40
1.0
 40
1.0
 40
1.0
 40
1.0
 10
186.638501577643
 20
134.8443801644855
 30
0.0
 10
186.7021668141735
 20
134.8443801644855
 30
0.0
 10
186.7617730463969
 20
134.8704523129652
 30
0.0
 10
186.8604335713277
 20
134.9459910637863
 30
0.0
 10
186.899400561343
 20
134.9932420008825
 30
0.0
 10
186.9987873932674
 20
135.145065818849
 30
0.0
 10
187.0408636406909
 20
135.2578690686141
 30
0.0
 10
187.0715142795352
 20
135.3720231933492
 30
0.0
  0
ELLIPSE
  5
65
330
1F
100
AcDbEntity
  8
0
  6
Continuous
 62
     7
370
    15
100
AcDbEllipse
 10
174.1100007362
 20
127.2755701953
 30
0.0
 11
11.70927234972708
 21
24.67718644093742
 31
0.0
210
0.0
220
0.0
230
1.0
 40
0.3419987131
 41
5.203068809370451
 42
6.114256032590494
  0
SPLINE
  5
66
330
1F
100
AcDbEntity
  8
0
  6
Continuous
 62
     7
370
    15
100
AcDbSpline
210
0.0
220
0.0
230
1.0
 70
     8
 71
     3
 72
    12
 73
     8
 74
     0
 42
0.00000001
 43
0.00000001
 12
1.0
 22
0.0
 32
0.0
 13
1.0
 23
0.0
 33
0.0
 40
0.0
 40
0.0
 40
0.0
 40
0.0
 40
0.5000000000000032
 40
0.5000000000000032
 40
0.7500000000000016
 40
0.7500000000000016
 40
1.0
 40
1.0
 40
1.0
 40
1.0
 10
187.0715142795352
 20
150.9282116725366
 30
0.0
 10
187.0408148961679
 20
150.9673495149325
 30
0.0
 10
186.9994648280614
 20
151.004509297658
 30
0.0
 10
186.899708899842
 20
151.0544458032858
 30
0.0
 10
186.8600119821093
 20
151.0698986734295
 30
0.0
 10
186.7627538304616
 20
151.0938182170286
 30
0.0
 10
186.7019776724709
 20
151.102301310807
 30
0.0
 10
186.638501577643
 20
151.102301310807
 30
0.0
  0
LINE
  5
67
330
1F
100
AcDbEntity
  8
0
  6
Continuous
 62
     7
370
    15
100
AcDbLine
 10
186.6385012755
 20
151.1023015642
 30
0.0
 11
183.6940150598
 21
151.1023015642
 31
0.0
  0
SPLINE
  5
68
330
1F
100
AcDbEntity
  8
0
  6
Continuous
 62
     7
370
    15
100
AcDbSpline
210
0.0
220
0.0
230
1.0
 70
     8
 71
     3
 72
    12
 73
     8
 74
     0
 42
0.00000001
 43
0.00000001
 12
1.0
 22
0.0
 32
0.0
 13
1.0
 23
0.0
 33
0.0
 40
0.0
 40
0.0
 40
0.0
 40
0.0
 40
0.2500000000000016
 40
0.2500000000000016
 40
0.5000000000000032
 40
0.5000000000000032
 40
1.0
 40
1.0
 40
1.0
 40
1.0
 10
183.6940152047759
 20
151.102301310807
 30
0.0
 10
183.6303499682454
 20
151.102301310807
 30
0.0
 10
183.570743736022
 20
151.0940365351411
 30
0.0
 10
183.4720832110912
 20
151.069817753558
 30
0.0
 10
183.4331162210759
 20
151.0545604342488
 30
0.0
 10
183.3337293891515
 20
151.0049270799869
 30
0.0
 10
183.291653141728
 20
150.9672873718127
 30
0.0
 10
183.2610025028837
 20
150.9282116725366
 30
0.0
  0
ELLIPSE
  5
69
330
1F
100
AcDbEntity
  8
0
  6
Continuous
 62
     7
370
    15
100
AcDbEllipse
 10
196.2225160462
 20
127.2755701953
 30
0.0
 11
-11.70927234972697
 21
24.67718644093745
 31
0.0
210
0.0
220
0.0
230
1.0
 40
0.3419987131
 41
0.1689292745891346
 42
1.080116497809149
  0
LINE
  5
6A
330
1F
100
AcDbEntity
  8
0
  6
Continuous
 62
     7
370
    15
100
AcDbLine
 10
175.1662583912
 20
102.5755693132
 30
0.0
 11
175.1662583912
 21
151.9755710775
 31
0.0
  0
ELLIPSE
  5
6B
330
1F
100
AcDbEntity
  8
0
  6
Continuous
 62
     7
370
    15
100
AcDbEllipse
 10
202.6436207123
 20
113.2585777477
 30
0.0
 11
-0.2069876877089598
 21
3.097652266562775
 31
0.0
210
0.0
220
0.0
230
1.0
 40
0.2251679941
 41
0.0
 42
6.283185307179586
  0
SPLINE
  5
6C
330
1F
100
AcDbEntity
  8
0
  6
Continuous
 62
     7
370
    15
100
AcDbSpline
210
0.0
220
0.0
230
1.0
 70
     8
 71
     3
 72
    16
 73
    12
 74
     0
 42
0.00000001
 43
0.00000001
 12
1.0
 22
0.0
 32
0.0
 13
1.0
 23
0.0
 33
0.0
 40
0.0
 40
0.0
 40
0.0
 40
0.0
 40
0.2499999999999999
 40
0.2499999999999999
 40
0.4999999999999999
 40
0.4999999999999999
 40
0.625
 40
0.625
 40
0.75
 40
0.75
 40
1.0
 40
1.0
 40
1.0
 40
1.0
 10
174.1253973630804
 20
109.9264129141125
 30
0.0
 10
174.157125324273
 20
109.9256157972916
 30
0.0
 10
174.1917529146236
 20
109.9250247224363
 30
0.0
 10
174.2714466766872
 20
109.9240131970018
 30
0.0
 10
174.3164881366909
 20
109.923613088827
 30
0.0
 10
174.3993408635414
 20
109.9226552169231
 30
0.0
 10
174.4292553247412
 20
109.9222735356627
 30
0.0
 10
174.4952416552992
 20
109.9211973216042
 30
0.0
 10
174.531975280761
 20
109.92047975571
 30
0.0
 10
174.6444720003308
 20
109.9177188780284
 30
0.0
 10
174.7148133484291
 20
109.9152317861568
 30
0.0
 10
174.7712815023342
 20
109.9130585077497
 30
0.0
  0
SPLINE
  5
6D
330
1F
100
AcDbEntity
  8
0
  6
Continuous
 62
     7
370
    15
100
AcDbSpline
210
0.0
220
0.0
230
1.0
 70
     8
 71
     3
 72
    14
 73
    10
 74
     0
 42
0.00000001
 43
0.00000001
 12
1.0
 22
0.0
 32
0.0
 13
1.0
 23
0.0
 33
0.0
 40
0.0
 40
0.0
 40
0.0
 40
0.0
 40
0.1249999999999973
 40
0.1249999999999973
 40
0.2499999999999947
 40
0.2499999999999947
 40
0.4999999999999993
 40
0.4999999999999993
 40
1.0
 40
1.0
 40
1.0
 40
1.0
 10
174.7712815023026
 20
109.9130585077724
 30
0.0
 10
174.7838732962474
 20
109.91257388995
 30
0.0
 10
174.7987444045414
 20
109.9108637120177
 30
0.0
 10
174.8309284959746
 20
109.9027481632668
 30
0.0
 10
174.8465326274504
 20
109.8965323750055
 30
0.0
 10
174.8824197671625
 20
109.8783132633039
 30
0.0
 10
174.8962718084312
 20
109.8665482349703
 30
0.0
 10
174.9297615503638
 20
109.834753098553
 30
0.0
 10
174.9404238109395
 20
109.8169596667099
 30
0.0
 10
174.9485617678345
 20
109.8005285358655
 30
0.0
  0
LINE
  5
6E
330
1F
100
AcDbEntity
  8
0
  6
Continuous
 62
     7
370
    15
100
AcDbLine
 10
174.9662583963
 20
121.2910901682
 30
0.0
 11
174.9662583963
 21
109.4357491398
 31
0.0
  0
SPLINE
  5
6F
330
1F
100
AcDbEntity
  8
0
  6
Continuous
 62
     7
370
    15
100
AcDbSpline
210
0.0
220
0.0
230
1.0
 70
     8
 71
     3
 72
    16
 73
    12
 74
     0
 42
0.00000001
 43
0.00000001
 12
1.0
 22
0.0
 32
0.0
 13
1.0
 23
0.0
 33
0.0
 40
0.0
 40
0.0
 40
0.0
 40
0.0
 40
0.5
 40
0.5
 40
0.75
 40
0.75
 40
0.8749999999999984
 40
0.8749999999999984
 40
0.9374999999999992
 40
0.9374999999999992
 40
1.0
 40
1.0
 40
1.0
 40
1.0
 10
174.9662583912094
 20
121.2910899627305
 30
0.0
 10
174.9662583912094
 20
121.4056196934295
 30
0.0
 10
174.9622010890944
 20
121.520935768619
 30
0.0
 10
174.9365438462996
 20
121.6958588584465
 30
0.0
 10
174.9252284005575
 20
121.7556881614414
 30
0.0
 10
174.8911970332489
 20
121.8402793476896
 30
0.0
 10
174.877318052045
 20
121.8689489338337
 30
0.0
 10
174.8413823702777
 20
121.8987567207799
 30
0.0
 10
174.8264320510149
 20
121.9050918741395
 30
0.0
 10
174.7965335382731
 20
121.9038664112693
 30
0.0
 10
174.7830006779078
 20
121.8972678252345
 30
0.0
 10
174.7712815023338
 20
121.8886201371781
 30
0.0
  0
SPLINE
  5
70
330
1F
100
AcDbEntity
  8
0
  6
Continuous
 62
     7
370
    15
100
AcDbSpline
210
0.0
220
0.0
230
1.0
 70
     8
 71
     3
 72
    14
 73
    10
 74
     0
 42
0.00000001
 43
0.00000001
 12
1.0
 22
0.0
 32
0.0
 13
1.0
 23
0.0
 33
0.0
 40
0.0
 40
0.0
 40
0.0
 40
0.0
 40
0.25
 40
0.25
 40
0.5
 40
0.5
 40
0.75
 40
0.75
 40
1.0
 40
1.0
 40
1.0
 40
1.0
 10
174.7712815023406
 20
121.8886201371694
 30
0.0
 10
174.7148218364569
 20
121.8469580274706
 30
0.0
 10
174.6439493615947
 20
121.8161245468824
 30
0.0
 10
174.4954830037127
 20
121.8218390554955
 30
0.0
 10
174.426287800505
 20
121.8574099829285
 30
0.0
 10
174.3165706144354
 20
121.9443538954024
 30
0.0
 10
174.2713247255034
 20
121.9967862087675
 30
0.0
 10
174.1917075945365
 20
122.105339290286
 30
0.0
 10
174.1571049750796
 20
122.1623223765285
 30
0.0
 10
174.1253973630808
 20
122.2208884591864
 30
0.0
  0
SPLINE
  5
71
330
1F
100
AcDbEntity
  8
0
  6
Continuous
 62
     7
370
    15
100
AcDbSpline
210
0.0
220
0.0
230
1.0
 70
     8
 71
     3
 72
    10
 73
     6
 74
     0
 42
0.00000001
 43
0.00000001
 12
1.0
 22
0.0
 32
0.0
 13
1.0
 23
0.0
 33
0.0
 40
0.0
 40
0.0
 40
0.0
 40
0.0
 40
0.5
 40
0.5
 40
1.0
 40
1.0
 40
1.0
 40
1.0
 10
173.8449380476498
 20
123.0737070508327
 30
0.0
 10
173.8758166312618
 20
122.924078498973
 30
0.0
 10
173.9118093389851
 20
122.7775830814494
 30
0.0
 10
174.0011495904822
 20
122.4923914429086
 30
0.0
 10
174.0536078933278
 20
122.3534884171927
 30
0.0
 10
174.1253973630809
 20
122.2208884591862
 30
0.0
  0
SPLINE
  5
72
330
1F
100
AcDbEntity
  8
0
  6
Continuous
 62
     7
370
    15
100
AcDbSpline
210
0.0
220
0.0
230
1.0
 70
     8
 71
     3
 72
    10
 73
     6
 74
     0
 42
0.00000001
 43
0.00000001
 12
1.0
 22
0.0
 32
0.0
 13
1.0
 23
0.0
 33
0.0
 40
0.0
 40
0.0
 40
0.0
 40
0.0
 40
0.5
 40
0.5
 40
1.0
 40
1.0
 40
1.0
 40
1.0
 10
174.1253973630802
 20
132.3302519314227
 30
0.0
 10
174.0536078933274
 20
132.1976519734163
 30
0.0
 10
174.0011495904819
 20
132.0587489477006
 30
0.0
 10
173.911809338985
 20
131.7735573091603
 30
0.0
 10
173.8758166312617
 20
131.6270618916369
 30
0.0
 10
173.8449380476498
 20
131.4774333397775
 30
0.0
  0
SPLINE
  5
73
330
1F
100
AcDbEntity
  8
0
  6
Continuous
 62
     7
370
    15
100
AcDbSpline
210
0.0
220
0.0
230
1.0
 70
     8
 71
     3
 72
    14
 73
    10
 74
     0
 42
0.00000001
 43
0.00000001
 12
1.0
 22
0.0
 32
0.0
 13
1.0
 23
0.0
 33
0.0
 40
0.0
 40
0.0
 40
0.0
 40
0.0
 40
0.25
 40
0.25
 40
0.5
 40
0.5
 40
0.75
 40
0.75
 40
1.0
 40
1.0
 40
1.0
 40
1.0
 10
174.1253973630796
 20
132.3302519314215
 30
0.0
 10
174.157106062565
 20
132.38882002274
 30
0.0
 10
174.1917138812055
 20
132.44581428468
 30
0.0
 10
174.2713722916949
 20
132.554414419444
 30
0.0
 10
174.3164345615898
 20
132.6067425548226
 30
0.0
 10
174.4270164071682
 20
132.6942435661849
 30
0.0
 10
174.4946605279835
 20
132.7292890224391
 30
0.0
 10
174.6449088183806
 20
132.7350334111952
 30
0.0
 10
174.7148612166109
 20
132.7041533041452
 30
0.0
 10
174.7712815023345
 20
132.6625202534321
 30
0.0
  0
SPLINE
  5
74
330
1F
100
AcDbEntity
  8
0
  6
Continuous
 62
     7
370
    15
100
AcDbSpline
210
0.0
220
0.0
230
1.0
 70
     8
 71
     3
 72
    16
 73
    12
 74
     0
 42
0.00000001
 43
0.00000001
 12
1.0
 22
0.0
 32
0.0
 13
1.0
 23
0.0
 33
0.0
 40
0.0
 40
0.0
 40
0.0
 40
0.0
 40
0.0625000000000006
 40
0.0625000000000006
 40
0.1250000000000013
 40
0.1250000000000013
 40
0.2500000000000002
 40
0.2500000000000002
 40
0.5
 40
0.5
 40
1.0
 40
1.0
 40
1.0
 40
1.0
 10
174.7712815023026
 20
132.6625202533787
 30
0.0
 10
174.7830157367495
 20
132.6538614532344
 30
0.0
 10
174.7965474922284
 20
132.6472573679991
 30
0.0
 10
174.8265349526582
 20
132.646060400825
 30
0.0
 10
174.8415296590665
 20
132.6524821478909
 30
0.0
 10
174.8772700814613
 20
132.6821993013002
 30
0.0
 10
174.8912834184625
 20
132.7110066986835
 30
0.0
 10
174.9254275072439
 20
132.7960864203094
 30
0.0
 10
174.9363994113622
 20
132.8544613695792
 30
0.0
 10
174.9622449516285
 20
133.0301768943678
 30
0.0
 10
174.9662583912095
 20
133.1459719022322
 30
0.0
 10
174.9662583912095
 20
133.2600504278796
 30
0.0
  0
LINE
  5
75
330
1F
100
AcDbEntity
  8
0
  6
Continuous
 62
     7
370
    15
100
AcDbLine
 10
174.9662583963
 20
145.1153912508
 30
0.0
 11
174.9662583963
 21
133.2600502224
 31
0.0
  0
SPLINE
  5
76
330
1F
100
AcDbEntity
  8
0
  6
Continuous
 62
     7
370
    15
100
AcDbSpline
210
0.0
220
0.0
230
1.0
 70
     8
 71
     3
 72
    16
 73
    12
 74
     0
 42
0.00000001
 43
0.00000001
 12
1.0
 22
0.0
 32
0.0
 13
1.0
 23
0.0
 33
0.0
 40
0.0
 40
0.0
 40
0.0
 40
0.0
 40
0.4999999999999978
 40
0.4999999999999978
 40
0.7499999999999993
 40
0.7499999999999993
 40
0.8750000000000001
 40
0.8750000000000001
 40
0.9375
 40
0.9375
 40
1.0
 40
1.0
 40
1.0
 40
1.0
 10
174.9662583912096
 20
144.8223246609727
 30
0.0
 10
174.9662583912093
 20
144.8003096463933
 30
0.0
 10
174.9621338483553
 20
144.7749560116896
 30
0.0
 10
174.9362174027223
 20
144.727795509501
 30
0.0
 10
174.9249398217025
 20
144.7105965212723
 30
0.0
 10
174.8912044431611
 20
144.680618555703
 30
0.0
 10
174.8768156279167
 20
144.6692671471612
 30
0.0
 10
174.8415689384776
 20
144.6525792876837
 30
0.0
 10
174.8263635140207
 20
144.6470162607985
 30
0.0
 10
174.7967169348513
 20
144.6400466777633
 30
0.0
 10
174.7830115988539
 20
144.638533336708
 30
0.0
 10
174.7712815023302
 20
144.6380818828581
 30
0.0
  0
SPLINE
  5
77
330
1F
100
AcDbEntity
  8
0
  6
Continuous
 62
     7
370
    15
100
AcDbSpline
210
0.0
220
0.0
230
1.0
 70
     8
 71
     3
 72
    14
 73
    10
 74
     0
 42
0.00000001
 43
0.00000001
 12
1.0
 22
0.0
 32
0.0
 13
1.0
 23
0.0
 33
0.0
 40
0.0
 40
0.0
 40
0.0
 40
0.0
 40
0.25
 40
0.25
 40
0.5
 40
0.5
 40
0.75
 40
0.75
 40
1.0
 40
1.0
 40
1.0
 40
1.0
 10
174.7712815023406
 20
144.6380818828606
 30
0.0
 10
174.7148344202822
 20
144.6359094154413
 30
0.0
 10
174.6439840362389
 20
144.6334113175239
 30
0.0
 10
174.495547601422
 20
144.6297648587357
 30
0.0
 10
174.426358349735
 20
144.6287971118844
 30
0.0
 10
174.316646801494
 20
144.6275295525217
 30
0.0
 10
174.2714051521516
 20
144.6271267115934
 30
0.0
 10
174.1917571339677
 20
144.6261156766658
 30
0.0
 10
174.1571302182016
 20
144.6255247162711
 30
0.0
 10
174.1253973630802
 20
144.6247274764977
 30
0.0
  0
SPLINE
  5
78
330
1F
100
AcDbEntity
  8
0
  6
Continuous
 62
     7
370
    15
100
AcDbSpline
210
0.0
220
0.0
230
1.0
 70
     8
 71
     3
 72
    18
 73
    14
 74
     0
 42
0.00000001
 43
0.00000001
 12
1.0
 22
0.0
 32
0.0
 13
1.0
 23
0.0
 33
0.0
 40
0.0
 40
0.0
 40
0.0
 40
0.0
 40
0.2499999999999999
 40
0.2499999999999999
 40
0.3749999999999999
 40
0.3749999999999999
 40
0.5
 40
0.5
 40
0.6249999999999999
 40
0.6249999999999999
 40
0.7499999999999999
 40
0.7499999999999999
 40
1.0
 40
1.0
 40
1.0
 40
1.0
 10
173.8449380476498
 20
131.4774333397775
 30
0.0
 10
173.7096524413475
 20
130.8218790043562
 30
0.0
 10
173.6084846951046
 20
130.1422579105586
 30
0.0
 10
173.5056233522356
 20
129.0868939040646
 30
0.0
 10
173.4795205067123
 20
128.72807983948
 30
0.0
 10
173.4446305231675
 20
128.0019668953571
 30
0.0
 10
173.4360442648775
 20
127.6398772163409
 30
0.0
 10
173.4359445553118
 20
126.9175675589226
 30
0.0
 10
173.4444329264604
 20
126.5573477568142
 30
0.0
 10
173.478576305981
 20
125.8387816877203
 30
0.0
 10
173.5043732878348
 20
125.4790159718049
 30
0.0
 10
173.6077744192227
 20
124.4123713848105
 30
0.0
 10
173.7096324113941
 20
123.7293584455282
 30
0.0
 10
173.8449380476498
 20
123.0737070508327
 30
0.0
  0
LINE
  5
79
330
1F
100
AcDbEntity
  8
0
  6
Continuous
 62
     7
370
    15
100
AcDbLine
 10
172.9662584031
 20
132.4157224895
 30
0.0
 11
172.9662584031
 21
122.1354179011
 31
0.0
  0
LINE
  5
7A
330
1F
100
AcDbEntity
  8
0
  6
Continuous
 62
     7
370
    15
100
AcDbLine
 10
146.6662583763
 20
132.0853488447
 30
0.0
 11
146.6662583763
 21
122.4657915459
 31
0.0
  0
LINE
  5
7B
330
1F
100
AcDbEntity
  8
0
  6
Continuous
 62
     7
370
    15
100
AcDbLine
 10
145.1662590618
 20
131.6523360015
 30
0.0
 11
145.1662590618
 21
122.8988043891
 31
0.0
  0
LINE
  5
7C
330
1F
100
AcDbEntity
  8
0
  6
Continuous
 62
     7
370
    15
100
AcDbLine
 10
146.6662583763
 20
110.4162194693
 30
0.0
 11
146.6662583763
 21
122.4657915459
 31
0.0
  0
LINE
  5
7D
330
1F
100
AcDbEntity
  8
0
  6
Continuous
 62
     7
370
    15
100
AcDbLine
 10
172.9662584031
 20
109.7554721796
 30
0.0
 11
172.9662584031
 21
122.1354179011
 31
0.0
  0
LINE
  5
7E
330
1F
100
AcDbEntity
  8
0
  6
Continuous
 62
     7
370
    15
100
AcDbLine
 10
146.6662583763
 20
110.4162194693
 30
0.0
 11
172.9662584031
 21
109.7554721796
 31
0.0
  0
LINE
  5
7F
330
1F
100
AcDbEntity
  8
0
  6
Continuous
 62
     7
370
    15
100
AcDbLine
 10
172.9662584031
 20
132.4157224895
 30
0.0
 11
172.9662584031
 21
144.795668211
 31
0.0
  0
ARC
  5
80
330
1F
100
AcDbEntity
  8
0
  6
Continuous
 62
     7
370
    15
100
AcDbCircle
 10
173.1661953021
 20
144.800692091
 30
0.0
 40
0.2000000000000066
100
AcDbArc
 50
181.4391666667
 51
271.4391666667
  0
LINE
  5
81
330
1F
100
AcDbEntity
  8
0
  6
Continuous
 62
     7
370
    15
100
AcDbLine
 10
146.6662583763
 20
132.0853488447
 30
0.0
 11
146.6662583763
 21
144.1349209213
 31
0.0
  0
LINE
  5
82
330
1F
100
AcDbEntity
  8
0
  6
Continuous
 62
     7
370
    15
100
AcDbLine
 10
146.6662583763
 20
144.1349209213
 30
0.0
 11
172.9662584031
 21
144.795668211
 31
0.0
  0
ARC
  5
83
330
1F
100
AcDbEntity
  8
0
  6
Continuous
 62
     7
370
    15
100
AcDbCircle
 10
173.1661953021
 20
109.7504482996
 30
0.0
 40
0.2000000000000066
100
AcDbArc
 50
88.5608333333
 51
178.5608333333
  0
LINE
  5
84
330
1F
100
AcDbEntity
  8
0
  6
Continuous
 62
     7
370
    15
100
AcDbLine
 10
173.1712185202
 20
109.950384956
 30
0.0
 11
174.1253973807
 21
109.9264127129
 31
0.0
  0
LINE
  5
85
330
1F
100
AcDbEntity
  8
0
  6
Continuous
 62
     7
370
    15
100
AcDbLine
 10
173.1712185202
 20
144.6007554346
 30
0.0
 11
174.1253973807
 21
144.6247276777
 31
0.0
  0
LINE
  5
86
330
1F
100
AcDbEntity
  8
0
  6
Continuous
 62
     7
370
    15
100
AcDbLine
 10
145.1662590618
 20
143.268895235
 30
0.0
 11
146.6662583763
 21
144.1349209213
 31
0.0
  0
LINE
  5
87
330
1F
100
AcDbEntity
  8
0
  6
Continuous
 62
     7
370
    15
100
AcDbLine
 10
145.1662590618
 20
131.6523360015
 30
0.0
 11
145.1662590618
 21
143.268895235
 31
0.0
  0
LINE
  5
88
330
1F
100
AcDbEntity
  8
0
  6
Continuous
 62
     7
370
    15
100
AcDbLine
 10
145.1662590618
 20
111.2822451556
 30
0.0
 11
146.6662583763
 21
110.4162194693
 31
0.0
  0
LINE
  5
89
330
1F
100
AcDbEntity
  8
0
  6
Continuous
 62
     7
370
    15
100
AcDbLine
 10
145.1662590618
 20
111.2822451556
 30
0.0
 11
145.1662590618
 21
122.8988043891
 31
0.0
  0
SPLINE
  5
8A
330
1F
100
AcDbEntity
  8
0
  6
Continuous
 62
     7
370
    15
100
AcDbSpline
210
0.0
220
0.0
230
1.0
 70
     8
 71
     3
 72
     8
 73
     4
 74
     0
 42
0.00000001
 43
0.00000001
 12
1.0
 22
0.0
 32
0.0
 13
1.0
 23
0.0
 33
0.0
 40
0.0
 40
0.0
 40
0.0
 40
0.0
 40
1.0
 40
1.0
 40
1.0
 40
1.0
 10
207.4682393551521
 20
152.2761749910004
 30
0.0
 10
207.4452432140212
 20
152.2745772186685
 30
0.0
 10
207.422141308013
 20
152.2737733073106
 30
0.0
 10
207.3989314032305
 20
152.2737797268336
 30
0.0
  0
SPLINE
  5
8B
330
1F
100
AcDbEntity
  8
0
  6
Continuous
 62
     7
370
    15
100
AcDbSpline
210
0.0
220
0.0
230
1.0
 70
     8
 71
     3
 72
     8
 73
     4
 74
     0
 42
0.00000001
 43
0.00000001
 12
1.0
 22
0.0
 32
0.0
 13
1.0
 23
0.0
 33
0.0
 40
0.0
 40
0.0
 40
0.0
 40
0.0
 40
1.0
 40
1.0
 40
1.0
 40
1.0
 10
207.3989314032305
 20
102.2773606637766
 30
0.0
 10
207.4219518252194
 20
102.2773670308914
 30
0.0
 10
207.4451889917885
 20
102.2765669393033
 30
0.0
 10
207.4682393551463
 20
102.2749653996102
 30
0.0
  0
LINE
  5
8C
330
1F
100
AcDbEntity
  8
0
  6
Continuous
 62
     7
370
    15
100
AcDbLine
 10
208.2649560536
 20
152.7738057935
 30
0.0
 11
212.3657816911
 21
152.7738057935
 31
0.0
  0
LINE
  5
8D
330
1F
100
AcDbEntity
  8
0
  6
Continuous
 62
     7
370
    15
100
AcDbLine
 10
233.3506697679
 20
122.8042812014
 30
0.0
 11
212.3657816911
 21
152.7738057935
 31
0.0
  0
LINE
  5
8E
330
1F
100
AcDbEntity
  8
0
  6
Continuous
 62
     7
370
    15
100
AcDbLine
 10
234.3521805371
 20
103.6943186933
 30
0.0
 11
233.3506697679
 21
122.8042812014
 31
0.0
  0
LINE
  5
8F
330
1F
100
AcDbEntity
  8
0
  6
Continuous
 62
     7
370
    15
100
AcDbLine
 10
227.7932407225
 20
110.0284614527
 30
0.0
 11
227.9143759871
 21
107.717105087
 31
0.0
  0
ARC
  5
90
330
1F
100
AcDbEntity
  8
0
  6
Continuous
 62
     7
370
    15
100
AcDbCircle
 10
226.2788780545
 20
109.9490969885
 30
0.0
 40
1.516442497159242
100
AcDbArc
 50
3.0
 51
183.0
  0
LINE
  5
91
330
1F
100
AcDbEntity
  8
0
  6
Continuous
 62
     7
370
    15
100
AcDbLine
 10
224.8045334483
 20
109.1061354542
 30
0.0
 11
224.7645126546
 21
109.869732421
 31
0.0
  0
ELLIPSE
  5
92
330
1F
100
AcDbEntity
  8
0
  6
Continuous
 62
     7
370
    15
100
AcDbEllipse
 10
212.9158550277
 20
75.4256495524
 30
0.0
 11
-1.563194018672221E-12
 21
26.19525546193007
 31
0.0
210
0.0
220
0.0
230
1.0
 40
0.9925461516
 41
5.78390916591696
 42
6.283185307179586
  0
LINE
  5
93
330
1F
100
AcDbEntity
  8
0
  6
Continuous
 62
     7
370
    15
100
AcDbLine
 10
208.3380536998
 20
101.6209059322
 30
0.0
 11
212.9158543313
 21
101.6209059322
 31
0.0
  0
SPLINE
  5
94
330
1F
100
AcDbEntity
  8
0
  6
Continuous
 62
     7
370
    15
100
AcDbSpline
210
0.0
220
0.0
230
1.0
 70
     8
 71
     3
 72
    10
 73
     6
 74
     0
 42
0.00000001
 43
0.00000001
 12
1.0
 22
0.0
 32
0.0
 13
1.0
 23
0.0
 33
0.0
 40
0.0
 40
0.0
 40
0.0
 40
0.0
 40
0.5
 40
0.5
 40
1.0
 40
1.0
 40
1.0
 40
1.0
 10
208.2649568070144
 20
152.7738054283552
 30
0.0
 10
208.1839343351029
 20
152.6334606776744
 30
0.0
 10
208.0655901830301
 20
152.5109488915153
 30
0.0
 10
207.7900255716315
 20
152.3392154021688
 30
0.0
 10
207.6305634453014
 20
152.2874532719326
 30
0.0
 10
207.4682393551521
 20
152.2761749910004
 30
0.0
  0
SPLINE
  5
95
330
1F
100
AcDbEntity
  8
0
  6
Continuous
 62
     7
370
    15
100
AcDbSpline
210
0.0
220
0.0
230
1.0
 70
     8
 71
     3
 72
    12
 73
     8
 74
     0
 42
0.00000001
 43
0.00000001
 12
1.0
 22
0.0
 32
0.0
 13
1.0
 23
0.0
 33
0.0
 40
0.0
 40
0.0
 40
0.0
 40
0.0
 40
0.2500000000000022
 40
0.2500000000000022
 40
0.5000000000000044
 40
0.5000000000000044
 40
1.0
 40
1.0
 40
1.0
 40
1.0
 10
207.4682393551463
 20
102.2749653996102
 30
0.0
 10
207.5639016286304
 20
102.2683187829935
 30
0.0
 10
207.6594052307089
 20
102.2476509284879
 30
0.0
 10
207.8399788702637
 20
102.1800107554949
 30
0.0
 10
207.9235385341313
 20
102.1341250413294
 30
0.0
 10
208.1541543870471
 20
101.9604832472925
 30
0.0
 10
208.2725086906147
 20
101.800076284778
 30
0.0
 10
208.3380545184617
 20
101.6209050143753
 30
0.0
  0
LINE
  5
96
330
1F
100
AcDbEntity
  8
0
  6
Continuous
 62
     7
370
    15
100
AcDbLine
 10
227.5271655882
 20
110.0145176911
 30
0.0
 11
227.6385331417
 21
107.8894705438
 31
0.0
  0
ARC
  5
97
330
1F
100
AcDbEntity
  8
0
  6
Continuous
 62
     7
370
    15
100
AcDbCircle
 10
226.2788780545
 20
109.9490969885
 30
0.0
 40
1.250000000000011
100
AcDbArc
 50
3.0
 51
183.0
  0
LINE
  5
98
330
1F
100
AcDbEntity
  8
0
  6
Continuous
 62
     7
370
    15
100
AcDbLine
 10
225.0305915142
 20
109.8836761826
 30
0.0
 11
225.0590303803
 21
109.3410336339
 31
0.0
  0
LWPOLYLINE
  5
99
330
1F
100
AcDbEntity
  8
0
  6
Continuous
 62
     7
370
    15
100
AcDbPolyline
 90
       17
 70
   128
 43
0.0
 10
196.1473820621
 20
113.2000786179
 10
196.1454654003
 20
113.1864887589
 10
196.0070522392
 20
112.6854083428
 10
195.7444844658
 20
112.2188501918
 10
195.369235974
 20
111.8072065452
 10
194.8977054918
 20
111.4684668296
 10
194.3505031878
 20
111.2174362802
 10
193.7515417004
 20
111.0650868082
 10
193.1270023698
 20
111.0180755073
 10
192.5041785354
 20
111.0784568751
 10
191.9102908934
 20
111.2435952687
 10
191.3712954039
 20
111.5062692129
 10
190.9107470775
 20
111.8549992257
 10
190.548777383
 20
112.2745460757
 10
190.3012029717
 20
112.7465729529
 10
190.1788448805
 20
113.2504491994
 10
190.1662580559
 20
113.4753207603
  0
LWPOLYLINE
  5
9A
330
1F
100
AcDbEntity
  8
0
  6
Continuous
 62
     7
370
    15
100
AcDbPolyline
 90
       19
 70
   128
 43
0.0
 10
195.8976125235
 20
114.0897608289
 10
196.0142588133
 20
113.6093986148
 10
196.0064357037
 20
113.1196672955
 10
195.874482196
 20
112.6419705266
 10
195.6241669024
 20
112.1971848348
 10
195.2664291377
 20
111.8047506475
 10
194.8169039453
 20
111.4818201327
 10
194.2952385063
 20
111.2425037587
 10
193.7242297346
 20
111.0972640031
 10
193.1288352127
 20
111.0524468982
 10
192.5350760931
 20
111.1100100839
 10
191.9689027483
 20
111.2674408519
 10
191.4550604189
 20
111.5178567284
 10
191.0160051549
 20
111.8503137419
 10
190.6709259266
 20
112.2502813974
 10
190.4349055032
 20
112.700280633
 10
190.3182573507
 20
113.1806419158
 10
190.3260813916
 20
113.670373235
 10
190.3457509244
 20
113.7830055246
  0
LWPOLYLINE
  5
9B
330
1F
100
AcDbEntity
  8
0
  6
Continuous
 62
     7
370
    15
100
AcDbPolyline
 90
       29
 70
   128
 43
0.0
 10
195.5538054819
 20
114.0023105705
 10
195.658912685
 20
113.5518866518
 10
195.639028948
 20
113.0935958513
 10
195.4951507861
 20
112.6504204163
 10
195.2344922239
 20
112.2445826346
 10
194.8701215798
 20
111.8964319044
 10
194.420315128
 20
111.6234258675
 10
193.9076239134
 20
111.4392568284
 10
193.3577561641
 20
111.353157919
 10
192.7982864792
 20
111.3694448882
 10
192.2572700197
 20
111.48730376
 10
191.7618324871
 20
111.7008234301
 10
191.3368197048
 20
111.9992964828
 10
191.0035421962
 20
112.3677574956
 10
190.7787116135
 20
112.7877299601
 10
190.673603479
 20
113.2381548101
 10
190.693487216
 20
113.6964446792
 10
190.8373663092
 20
114.1396201143
 10
191.0980248714
 20
114.5454588273
 10
191.4623936529
 20
114.8936095574
 10
191.9122019673
 20
115.1666137317
 10
192.424893182
 20
115.3507837021
 10
192.9747609312
 20
115.4368835428
 10
193.5342287535
 20
115.4205956423
 10
194.0752470756
 20
115.3027377018
 10
194.5706846083
 20
115.0892180318
 10
194.9956973905
 20
114.7907440477
 10
195.3289748991
 20
114.4222830349
 10
195.5538054819
 20
114.0023105705
  0
LINE
  5
9C
330
1F
100
AcDbEntity
  8
0
  6
Continuous
 62
     7
370
    15
100
AcDbLine
 10
234.2088164652
 20
103.3122305685
 30
0.0
 11
234.5882931615
 21
103.3321198934
 31
0.0
  0
LINE
  5
9D
330
1F
100
AcDbEntity
  8
0
  6
Continuous
 62
     7
370
    15
100
AcDbLine
 10
235.1457381511
 20
92.6954586917
 30
0.0
 11
234.5882931615
 21
103.3321198934
 31
0.0
  0
LINE
  5
9E
330
1F
100
AcDbEntity
  8
0
  6
Continuous
 62
     7
370
    15
100
AcDbLine
 10
234.7662577296
 20
92.6755693668
 30
0.0
 11
235.1457381511
 21
92.6954586917
 31
0.0
  0
LINE
  5
9F
330
1F
100
AcDbEntity
  8
0
  6
Continuous
 62
     7
370
    15
100
AcDbLine
 10
233.7473982835
 20
94.40525518
 30
0.0
 11
234.7662577296
 21
92.6755693668
 31
0.0
  0
LINE
  5
A0
330
1F
100
AcDbEntity
  8
0
  6
Continuous
 62
     7
370
    15
100
AcDbLine
 10
233.9946458007
 20
103.1860754752
 30
0.0
 11
234.2088164652
 21
103.3122305685
 31
0.0
  0
SPLINE
  5
A1
330
1F
100
AcDbEntity
  8
0
  6
Continuous
 62
     7
370
    15
100
AcDbSpline
210
0.0
220
0.0
230
1.0
 70
     8
 71
     3
 72
    11
 73
     7
 74
     0
 42
0.00000001
 43
0.00000001
 12
1.0
 22
0.0
 32
0.0
 13
1.0
 23
0.0
 33
0.0
 40
0.0
 40
0.0
 40
0.0
 40
0.0
 40
0.3277701200369268
 40
0.6551510263738705
 40
0.9907866442477964
 40
1.0
 40
1.0
 40
1.0
 40
1.0
 10
233.9946458006581
 20
103.1860754752037
 30
0.0
 10
233.9306001888428
 20
103.1483507577824
 30
0.0
 10
233.8025850167741
 20
103.0729461195089
 30
0.0
 10
233.5915060016453
 20
102.9486016669911
 30
0.0
 10
233.4583615867496
 20
102.8701974543522
 30
0.0
 10
233.3962286004315
 20
102.8335814406488
 30
0.0
 10
233.3945685888012
 20
102.8326031678793
 30
0.0
  0
LINE
  5
A2
330
1F
100
AcDbEntity
  8
0
  6
Continuous
 62
     7
370
    15
100
AcDbLine
 10
225.7334792877
 20
98.3198777699
 30
0.0
 11
225.3539988661
 21
98.2999903077
 31
0.0
  0
LINE
  5
A3
330
1F
100
AcDbEntity
  8
0
  6
Continuous
 62
     7
370
    15
100
AcDbLine
 10
224.7965576018
 20
108.9366515094
 30
0.0
 11
225.3539988661
 21
98.2999903077
 31
0.0
  0
LINE
  5
A4
330
1F
100
AcDbEntity
  8
0
  6
Continuous
 62
     7
370
    15
100
AcDbLine
 10
225.176034298
 20
108.9565389717
 30
0.0
 11
224.7965576018
 21
108.9366515094
 31
0.0
  0
LINE
  5
A5
330
1F
100
AcDbEntity
  8
0
  6
Continuous
 62
     7
370
    15
100
AcDbLine
 10
226.1948974693
 20
107.2268531585
 30
0.0
 11
225.176034298
 21
108.9565389717
 31
0.0
  0
LINE
  5
A6
330
1F
100
AcDbEntity
  8
0
  6
Continuous
 62
     7
370
    15
100
AcDbLine
 10
225.9476499522
 20
98.4460328632
 30
0.0
 11
225.7334792877
 21
98.3198777699
 31
0.0
  0
SPLINE
  5
A7
330
1F
100
AcDbEntity
  8
0
  6
Continuous
 62
     7
370
    15
100
AcDbSpline
210
0.0
220
0.0
230
1.0
 70
     8
 71
     3
 72
    11
 73
     7
 74
     0
 42
0.00000001
 43
0.00000001
 12
1.0
 22
0.0
 32
0.0
 13
1.0
 23
0.0
 33
0.0
 40
0.0
 40
0.0
 40
0.0
 40
0.0
 40
0.0092160744625554
 40
0.3448487630240277
 40
0.6722341108356404
 40
1.0
 40
1.0
 40
1.0
 40
1.0
 10
226.5477271640976
 20
98.79950517057154
 30
0.0
 10
226.5460658995942
 20
98.79852753379208
 30
0.0
 10
226.4839043999891
 20
98.76194614163296
 30
0.0
 10
226.3508015588274
 20
98.68348932441859
 30
0.0
 10
226.1397049365877
 20
98.55916810809632
 30
0.0
 10
226.011693065377
 20
98.48375921182489
 30
0.0
 10
225.9476499522408
 20
98.44603286324713
 30
0.0
  0
LINE
  5
A8
330
1F
100
AcDbEntity
  8
0
  6
Continuous
 62
     7
370
    15
100
AcDbLine
 10
235.1661639178
 20
92.6878255719
 30
0.0
 11
234.6081862117
 21
103.334720146
 31
0.0
  0
LINE
  5
A9
330
1F
100
AcDbEntity
  8
0
  6
Continuous
 62
     7
370
    15
100
AcDbLine
 10
225.5201915169
 20
97.9814835751
 30
0.0
 11
234.5616610611
 21
92.3317436987
 31
0.0
  0
LINE
  5
AA
330
1F
100
AcDbEntity
  8
0
  6
Continuous
 62
     7
370
    15
100
AcDbLine
 10
224.7761281098
 20
108.9442827666
 30
0.0
 11
225.3341095412
 21
98.2973881924
 31
0.0
  0
LINE
  5
AB
330
1F
100
AcDbEntity
  8
0
  6
Continuous
 62
     7
370
    15
100
AcDbLine
 10
234.422104236
 20
103.6506247634
 30
0.0
 11
225.3806309665
 21
109.3003627771
 31
0.0
  0
ARC
  5
AC
330
1F
100
AcDbEntity
  8
0
  6
Continuous
 62
     7
370
    15
100
AcDbCircle
 10
234.7662583912
 20
92.6755701953
 30
0.0
 40
0.3799999999998949
100
AcDbArc
 50
238.0
 51
3.0
  0
ARC
  5
AD
330
1F
100
AcDbEntity
  8
0
  6
Continuous
 62
     7
370
    15
100
AcDbCircle
 10
234.2088146036
 20
103.3122313029
 30
0.0
 40
0.3800000000000068
100
AcDbArc
 50
3.0
 51
58.0
  0
LINE
  5
AE
330
1F
100
AcDbEntity
  8
0
  6
Continuous
 62
     7
370
    15
100
AcDbLine
 10
234.410183307
 20
103.6344886684
 30
0.0
 11
225.3774048651
 21
109.2787970716
 31
0.0
  0
ARC
  5
AF
330
1F
100
AcDbEntity
  8
0
  6
Continuous
 62
     7
370
    15
100
AcDbCircle
 10
225.1760352917
 20
108.9565382575
 30
0.0
 40
0.3799999999999785
100
AcDbArc
 50
58.0
 51
183.0
  0
ARC
  5
B0
330
1F
100
AcDbEntity
  8
0
  6
Continuous
 62
     7
370
    15
100
AcDbCircle
 10
225.7334790793
 20
98.3198771499
 30
0.0
 40
0.379999999999942
100
AcDbArc
 50
183.0
 51
238.0
  0
LINE
  5
B1
330
1F
100
AcDbEntity
  8
0
  6
Continuous
 62
     7
370
    15
100
AcDbLine
 10
225.5321087206
 20
97.99761967
 30
0.0
 11
234.5648908878
 21
92.3533131295
 31
0.0
  0
SPLINE
  5
B2
330
1F
100
AcDbEntity
  8
0
  6
Continuous
 62
     7
370
    15
100
AcDbSpline
210
0.0
220
0.0
230
1.0
 70
     8
 71
     3
 72
    10
 73
     6
 74
     0
 42
0.00000001
 43
0.00000001
 12
1.0
 22
0.0
 32
0.0
 13
1.0
 23
0.0
 33
0.0
 40
0.0
 40
0.0
 40
0.0
 40
0.0
 40
0.3518034513547346
 40
0.7034217845129612
 40
1.0
 40
1.0
 40
1.0
 40
1.0
 10
225.3341095412453
 20
98.29738819240305
 30
0.0
 10
225.3409065950782
 20
98.25310114590346
 30
0.0
 10
225.3544971261494
 20
98.16455035664998
 30
0.0
 10
225.4242359915088
 20
98.05348844103811
 30
0.0
 10
225.4900697148169
 20
98.0040869250759
 30
0.0
 10
225.5201915169438
 20
97.98148357509348
 30
0.0
  0
SPLINE
  5
B3
330
1F
100
AcDbEntity
  8
0
  6
Continuous
 62
     7
370
    15
100
AcDbSpline
210
0.0
220
0.0
230
1.0
 70
     8
 71
     3
 72
    10
 73
     6
 74
     0
 42
0.00000001
 43
0.00000001
 12
1.0
 22
0.0
 32
0.0
 13
1.0
 23
0.0
 33
0.0
 40
0.0
 40
0.0
 40
0.0
 40
0.0
 40
0.3518071359394271
 40
0.7034311620717099
 40
1.0
 40
1.0
 40
1.0
 40
1.0
 10
234.6081862116536
 20
103.3347201460478
 30
0.0
 10
234.601387520195
 20
103.3790070732033
 30
0.0
 10
234.5877936758846
 20
103.4675578768996
 30
0.0
 10
234.5180574915305
 20
103.5786202825902
 30
0.0
 10
234.4522247895736
 20
103.6280219364839
 30
0.0
 10
234.4221042359551
 20
103.6506247633574
 30
0.0
  0
SPLINE
  5
B4
330
1F
100
AcDbEntity
  8
0
  6
Continuous
 62
     7
370
    15
100
AcDbSpline
210
0.0
220
0.0
230
1.0
 70
     8
 71
     3
 72
    14
 73
    10
 74
     0
 42
0.00000001
 43
0.00000001
 12
1.0
 22
0.0
 32
0.0
 13
1.0
 23
0.0
 33
0.0
 40
0.0
 40
0.0
 40
0.0
 40
0.0
 40
0.1588495327235338
 40
0.3173324877375396
 40
0.4720145379537303
 40
0.6236429824990586
 40
0.7746613120970028
 40
0.9277416850482528
 40
1.0
 40
1.0
 40
1.0
 40
1.0
 10
225.3806309664925
 20
109.3003627771017
 30
0.0
 10
225.3393577244647
 20
109.3208820082761
 30
0.0
 10
225.2569064868369
 20
109.361873118312
 30
0.0
 10
225.1172728906554
 20
109.3664828721367
 30
0.0
 10
224.9873633789915
 20
109.3271981153626
 30
0.0
 10
224.8796948650649
 20
109.2469996951086
 30
0.0
 10
224.8054689106303
 20
109.1365494231392
 30
0.0
 10
224.7755721585126
 20
109.0299339996095
 30
0.0
 10
224.7759931215051
 20
108.9650793932606
 30
0.0
 10
224.7761281097611
 20
108.9442827665684
 30
0.0
  0
SPLINE
  5
B5
330
1F
100
AcDbEntity
  8
0
  6
Continuous
 62
     7
370
    15
100
AcDbSpline
210
0.0
220
0.0
230
1.0
 70
     8
 71
     3
 72
    20
 73
    16
 74
     0
 42
0.00000001
 43
0.00000001
 12
1.0
 22
0.0
 32
0.0
 13
1.0
 23
0.0
 33
0.0
 40
0.0
 40
0.0
 40
0.0
 40
0.0
 40
0.0783091664655297
 40
0.1588893719699742
 40
0.2369768450078834
 40
0.3174393665266616
 40
0.393663102160747
 40
0.4721808429610094
 40
0.5469222029589117
 40
0.6238533465768471
 40
0.698318546459979
 40
0.7748881918824253
 40
0.8503872391997367
 40
0.9279792969368715
 40
1.0
 40
1.0
 40
1.0
 40
1.0
 10
234.5616610611161
 20
92.33174369870397
 30
0.0
 10
234.5814061969518
 20
92.32068122646199
 30
0.0
 10
234.6214690960222
 20
92.29823545994066
 30
0.0
 10
234.6872854144809
 20
92.27804080149012
 30
0.0
 10
234.755835872779
 20
92.26849859822114
 30
0.0
 10
234.8238733596385
 20
92.27106450973987
 30
0.0
 10
234.8905124668233
 20
92.2852559473199
 30
0.0
 10
234.9522312763022
 20
92.3100792938113
 30
0.0
 10
235.0089488800355
 20
92.34514423342418
 30
0.0
 10
235.0580788960611
 20
92.38852052535867
 30
0.0
 10
235.0995473482391
 20
92.43989690524928
 30
0.0
 10
235.1317909651328
 20
92.49709141519727
 30
0.0
 10
235.1542721776605
 20
92.55963009380797
 30
0.0
 10
235.1666944538334
 20
92.62379509169871
 30
0.0
 10
235.166336317692
 20
92.66701860473988
 30
0.0
 10
235.1661639178475
 20
92.68782557188246
 30
0.0
  0
LINE
  5
B6
330
1F
100
AcDbEntity
  8
0
  6
Continuous
 62
     7
370
    15
100
AcDbLine
 10
226.6175540055
 20
104.7616516167
 30
0.0
 11
226.8913255895
 21
99.5378018284
 31
0.0
  0
ARC
  5
B7
330
1F
100
AcDbEntity
  8
0
  6
Continuous
 62
     7
370
    15
100
AcDbCircle
 10
227.6161837479
 20
104.8139882176
 30
0.0
 40
1.000000000000082
100
AcDbArc
 50
58.0
 51
183.0
  0
LINE
  5
B8
330
1F
100
AcDbEntity
  8
0
  6
Continuous
 62
     7
370
    15
100
AcDbLine
 10
232.5822578634
 20
102.8900192046
 30
0.0
 11
228.1461039448
 21
105.6620356554
 31
0.0
  0
ARC
  5
B9
330
1F
100
AcDbEntity
  8
0
  6
Continuous
 62
     7
370
    15
100
AcDbCircle
 10
232.0523395475
 20
102.0419704182
 30
0.0
 40
1.000000000000058
100
AcDbArc
 50
3.0
 51
58.0
  0
LINE
  5
BA
330
1F
100
AcDbEntity
  8
0
  6
Continuous
 62
     7
370
    15
100
AcDbLine
 10
233.3247380222
 20
96.8704567218
 30
0.0
 11
233.0509701634
 21
102.0943065101
 31
0.0
  0
ARC
  5
BB
330
1F
100
AcDbEntity
  8
0
  6
Continuous
 62
     7
370
    15
100
AcDbCircle
 10
232.3261099349
 20
96.8181202352
 30
0.0
 40
1.000000000295398
100
AcDbArc
 50
238.0
 51
3.0
  0
LINE
  5
BC
330
1F
100
AcDbEntity
  8
0
  6
Continuous
 62
     7
370
    15
100
AcDbLine
 10
227.3600341643
 20
98.7420891338
 30
0.0
 11
231.7961918081
 21
95.9700708204
 31
0.0
  0
ARC
  5
BD
330
1F
100
AcDbEntity
  8
0
  6
Continuous
 62
     7
370
    15
100
AcDbCircle
 10
227.8899541353
 20
99.5901380347
 30
0.0
 40
1.000000000000021
100
AcDbArc
 50
183.0
 51
238.0
  0
CIRCLE
  5
BE
330
1F
100
AcDbEntity
  8
0
  6
Continuous
 62
     7
370
    15
100
AcDbCircle
 10
229.9711468414
 20
100.8160542264
 30
0.0
 40
3.049999999999992
  0
LINE
  5
BF
330
1F
100
AcDbEntity
  8
0
  6
Continuous
 62
     7
370
    15
100
AcDbLine
 10
234.7662577296
 20
92.6755693668
 30
0.0
 11
234.5648908878
 21
92.3533131295
 31
0.0
  0
LINE
  5
C0
330
1F
100
AcDbEntity
  8
0
  6
Continuous
 62
     7
370
    15
100
AcDbLine
 10
225.7334792877
 20
98.3198777699
 30
0.0
 11
225.5321087206
 21
97.99761967
 31
0.0
  0
LINE
  5
C1
330
1F
100
AcDbEntity
  8
0
  6
Continuous
 62
     7
370
    15
100
AcDbLine
 10
225.176034298
 20
108.9565389717
 30
0.0
 11
225.3774048651
 21
109.2787970716
 31
0.0
  0
LINE
  5
C2
330
1F
100
AcDbEntity
  8
0
  6
Continuous
 62
     7
370
    15
100
AcDbLine
 10
234.2088164652
 20
103.3122305685
 30
0.0
 11
234.410183307
 21
103.6344886684
 31
0.0
  0
SPLINE
  5
C3
330
1F
100
AcDbEntity
  8
0
  6
Continuous
 62
     7
370
    15
100
AcDbSpline
210
0.0
220
0.0
230
1.0
 70
     8
 71
     3
 72
    11
 73
     7
 74
     0
 42
0.00000001
 43
0.00000001
 12
1.0
 22
0.0
 32
0.0
 13
1.0
 23
0.0
 33
0.0
 40
0.0
 40
0.0
 40
0.0
 40
0.0
 40
0.0072968539398184
 40
0.1268445307124996
 40
0.5874303285399356
 40
0.9999999999999999
 40
0.9999999999999999
 40
0.9999999999999999
 40
0.9999999999999999
 10
233.3984391654213
 20
94.99766574441168
 30
0.0
 10
233.3992000275755
 20
94.99637363076512
 30
0.0
 10
233.4124264404482
 20
94.97391223158185
 30
0.0
 10
233.4751018717077
 20
94.86753130077734
 30
0.0
 10
233.5926544287482
 20
94.66794331731008
 30
0.0
 10
233.6977433306262
 20
94.48954781383145
 30
0.0
 10
233.7473982835492
 20
94.40525517998907
 30
0.0
  0
SPLINE
  5
C4
330
1F
100
AcDbEntity
  8
0
  6
Continuous
 62
     7
370
    15
100
AcDbSpline
210
0.0
220
0.0
230
1.0
 70
     8
 71
     3
 72
    11
 73
     7
 74
     0
 42
0.00000001
 43
0.00000001
 12
1.0
 22
0.0
 32
0.0
 13
1.0
 23
0.0
 33
0.0
 40
0.0
 40
0.0
 40
0.0
 40
0.0
 40
0.4125685721879126
 40
0.8731514216997863
 40
0.9926988961150807
 40
0.9999999999999999
 40
0.9999999999999999
 40
0.9999999999999999
 40
0.9999999999999999
 10
226.1948974693497
 20
107.2268531584618
 30
0.0
 10
226.2445484274205
 20
107.1425592570009
 30
0.0
 10
226.3496286675325
 20
106.9641614224036
 30
0.0
 10
226.4672134848738
 20
106.7645805853272
 30
0.0
 10
226.5298533343525
 20
106.6581932066842
 30
0.0
 10
226.5430944596504
 20
106.6357334611776
 30
0.0
 10
226.5438565874775
 20
106.634440731394
 30
0.0
  0
ARC
  5
C5
330
1F
100
AcDbEntity
  8
0
  6
Continuous
 62
     7
370
    15
100
AcDbCircle
 10
229.9060518864
 20
100.9265635309
 30
0.0
 40
1.675000000000025
100
AcDbArc
 50
149.07804828
 51
207.6779814073
  0
ARC
  5
C6
330
1F
100
AcDbEntity
  8
0
  6
Continuous
 62
     7
370
    15
100
AcDbCircle
 10
229.9060518864
 20
100.9265635309
 30
0.0
 40
1.675000000000019
100
AcDbArc
 50
207.6779814073
 51
267.784823142
  0
ARC
  5
C7
330
1F
100
AcDbEntity
  8
0
  6
Continuous
 62
     7
370
    15
100
AcDbCircle
 10
229.9060518864
 20
100.9265635309
 30
0.0
 40
1.67500000000001
100
AcDbArc
 50
267.784823142
 51
326.3847562692
  0
LINE
  5
C8
330
1F
100
AcDbEntity
  8
0
  6
Continuous
 62
     7
370
    15
100
AcDbLine
 10
231.34617674
 20
100.0711870307
 30
0.0
 11
231.3009479905
 21
99.9992609882
 31
0.0
  0
ARC
  5
C9
330
1F
100
AcDbEntity
  8
0
  6
Continuous
 62
     7
370
    15
100
AcDbCircle
 10
229.9060518864
 20
100.9265635309
 30
0.0
 40
1.675000000000014
100
AcDbArc
 50
329.2913870411
 51
25.7351052074
  0
LINE
  5
CA
330
1F
100
AcDbEntity
  8
0
  6
Continuous
 62
     7
370
    15
100
AcDbLine
 10
231.3590625191
 20
101.7598629856
 30
0.0
 11
231.4149120713
 21
101.6538673007
 31
0.0
  0
ARC
  5
CB
330
1F
100
AcDbEntity
  8
0
  6
Continuous
 62
     7
370
    15
100
AcDbCircle
 10
229.9060518864
 20
100.9265635309
 30
0.0
 40
1.675000000000004
100
AcDbArc
 50
29.8341971076
 51
85.6286074416
  0
LINE
  5
CC
330
1F
100
AcDbEntity
  8
0
  6
Continuous
 62
     7
370
    15
100
AcDbLine
 10
229.9140112365
 20
102.6015438998
 30
0.0
 11
230.0337234402
 21
102.5966917091
 31
0.0
  0
ARC
  5
CD
330
1F
100
AcDbEntity
  8
0
  6
Continuous
 62
     7
370
    15
100
AcDbCircle
 10
229.9060518864
 20
100.9265635309
 30
0.0
 40
1.675000000000013
100
AcDbArc
 50
89.7276993419
 51
146.1714175082
  0
LINE
  5
CE
330
1F
100
AcDbEntity
  8
0
  6
Continuous
 62
     7
370
    15
100
AcDbLine
 10
228.4691238666
 20
101.7872960234
 30
0.0
 11
228.5146171118
 21
101.8590525651
 31
0.0
  0
CIRCLE
  5
CF
330
1F
100
AcDbEntity
  8
0
  6
Continuous
 62
     7
370
    15
100
AcDbCircle
 10
229.9060518864
 20
100.9265635309
 30
0.0
 40
1.8
  0
SPLINE
  5
D0
330
1F
100
AcDbEntity
  8
0
  6
Continuous
 62
     7
370
    15
100
AcDbSpline
210
0.0
220
0.0
230
1.0
 70
     8
 71
     3
 72
    12
 73
     8
 74
     0
 42
0.00000001
 43
0.00000001
 12
1.0
 22
0.0
 32
0.0
 13
1.0
 23
0.0
 33
0.0
 40
0.0
 40
0.0
 40
0.0
 40
0.0
 40
0.2058409890849756
 40
0.4120607291286709
 40
0.6141397959012209
 40
0.8132766799896154
 40
1.0
 40
1.0
 40
1.0
 40
1.0
 10
231.0115786159714
 20
101.8775691205141
 30
0.0
 10
230.9468066737581
 20
101.8673651321906
 30
0.0
 10
230.8171436078442
 20
101.8469383800296
 30
0.0
 10
230.6227633565166
 20
101.8996600088969
 30
0.0
 10
230.4590876526193
 20
102.0080567640708
 30
0.0
 10
230.3395931891733
 20
102.1585749180634
 30
0.0
 10
230.3057591620286
 20
102.2764996587089
 30
0.0
 10
230.289386388131
 20
102.3335651421425
 30
0.0
  0
SPLINE
  5
D1
330
1F
100
AcDbEntity
  8
0
  6
Continuous
 62
     7
370
    15
100
AcDbSpline
210
0.0
220
0.0
230
1.0
 70
     8
 71
     3
 72
    11
 73
     7
 74
     0
 42
0.00000001
 43
0.00000001
 12
1.0
 22
0.0
 32
0.0
 13
1.0
 23
0.0
 33
0.0
 40
0.0
 40
0.0
 40
0.0
 40
0.0
 40
0.2928993046821513
 40
0.586435981804466
 40
0.877523417578291
 40
1.0
 40
1.0
 40
1.0
 40
1.0
 10
230.289386388131
 20
102.3335651421425
 30
0.0
 10
230.2785784040413
 20
102.3698986035287
 30
0.0
 10
230.2569389168193
 20
102.4426445908347
 30
0.0
 10
230.1806199215812
 20
102.5301236706985
 30
0.0
 10
230.1008737989943
 20
102.5785885034312
 30
0.0
 10
230.0490662080047
 20
102.5925554202843
 30
0.0
 10
230.0337234402378
 20
102.5966917091486
 30
0.0
  0
SPLINE
  5
D2
330
1F
100
AcDbEntity
  8
0
  6
Continuous
 62
     7
370
    15
100
AcDbSpline
210
0.0
220
0.0
230
1.0
 70
     8
 71
     3
 72
    11
 73
     7
 74
     0
 42
0.00000001
 43
0.00000001
 12
1.0
 22
0.0
 32
0.0
 13
1.0
 23
0.0
 33
0.0
 40
0.0
 40
0.0
 40
0.0
 40
0.0
 40
0.2669016266258686
 40
0.5546112691160716
 40
0.8439031404760455
 40
0.9999999999999999
 40
0.9999999999999999
 40
0.9999999999999999
 40
0.9999999999999999
 10
231.359062519141
 20
101.7598629855988
 30
0.0
 10
231.3351594531485
 20
101.785255142844
 30
0.0
 10
231.2854898054454
 20
101.8380190646431
 30
0.0
 10
231.1829954954738
 20
101.8824611325569
 30
0.0
 10
231.087315839271
 20
101.8928780476198
 30
0.0
 10
231.0312338544254
 20
101.8815420759465
 30
0.0
 10
231.0115786159714
 20
101.8775691205141
 30
0.0
  0
SPLINE
  5
D3
330
1F
100
AcDbEntity
  8
0
  6
Continuous
 62
     7
370
    15
100
AcDbSpline
210
0.0
220
0.0
230
1.0
 70
     8
 71
     3
 72
    12
 73
     8
 74
     0
 42
0.00000001
 43
0.00000001
 12
1.0
 22
0.0
 32
0.0
 13
1.0
 23
0.0
 33
0.0
 40
0.0
 40
0.0
 40
0.0
 40
0.0
 40
0.2057904305342803
 40
0.412035112366796
 40
0.6141320820943676
 40
0.8132658479822639
 40
1.0
 40
1.0
 40
1.0
 40
1.0
 10
229.6377176309308
 20
102.3593814039108
 30
0.0
 10
229.6141754194071
 20
102.2982023710819
 30
0.0
 10
229.5670390304831
 20
102.1757092619479
 30
0.0
 10
229.4242117592457
 20
102.0337214295099
 30
0.0
 10
229.2484883195538
 20
101.946162773999
 30
0.0
 10
229.0583769942768
 20
101.9179243761928
 30
0.0
 10
228.9393294218149
 20
101.9475880129266
 30
0.0
 10
228.8817183936318
 20
101.961943220484
 30
0.0
  0
SPLINE
  5
D4
330
1F
100
AcDbEntity
  8
0
  6
Continuous
 62
     7
370
    15
100
AcDbSpline
210
0.0
220
0.0
230
1.0
 70
     8
 71
     3
 72
    11
 73
     7
 74
     0
 42
0.00000001
 43
0.00000001
 12
1.0
 22
0.0
 32
0.0
 13
1.0
 23
0.0
 33
0.0
 40
0.0
 40
0.0
 40
0.0
 40
0.0
 40
0.2802410145347298
 40
0.561289812883146
 40
0.8399906989610184
 40
1.0
 40
1.0
 40
1.0
 40
1.0
 10
228.8817183936318
 20
101.961943220484
 30
0.0
 10
228.8448722020337
 20
101.9707485370752
 30
0.0
 10
228.7710736111246
 20
101.9883845512397
 30
0.0
 10
228.6572425001124
 20
101.9660234759534
 30
0.0
 10
228.5700164031843
 20
101.9185228394406
 30
0.0
 10
228.5294227128303
 20
101.8749461466716
 30
0.0
 10
228.5146171117505
 20
101.8590525650856
 30
0.0
  0
SPLINE
  5
D5
330
1F
100
AcDbEntity
  8
0
  6
Continuous
 62
     7
370
    15
100
AcDbSpline
210
0.0
220
0.0
230
1.0
 70
     8
 71
     3
 72
    11
 73
     7
 74
     0
 42
0.00000001
 43
0.00000001
 12
1.0
 22
0.0
 32
0.0
 13
1.0
 23
0.0
 33
0.0
 40
0.0
 40
0.0
 40
0.0
 40
0.0
 40
0.265752504014274
 40
0.5530025995523026
 40
0.8418196870873386
 40
1.0
 40
1.0
 40
1.0
 40
1.0
 10
229.9140112364968
 20
102.6015438997624
 30
0.0
 10
229.8801454541733
 20
102.5936327450625
 30
0.0
 10
229.8096743753393
 20
102.5771704764163
 30
0.0
 10
229.7198409398288
 20
102.51092822597
 30
0.0
 10
229.6625753280765
 20
102.4331826271017
 30
0.0
 10
229.6442148931828
 20
102.3786714410684
 30
0.0
 10
229.6377176309308
 20
102.3593814039108
 30
0.0
  0
SPLINE
  5
D6
330
1F
100
AcDbEntity
  8
0
  6
Continuous
 62
     7
370
    15
100
AcDbSpline
210
0.0
220
0.0
230
1.0
 70
     8
 71
     3
 72
    11
 73
     7
 74
     0
 42
0.00000001
 43
0.00000001
 12
1.0
 22
0.0
 32
0.0
 13
1.0
 23
0.0
 33
0.0
 40
0.0
 40
0.0
 40
0.0
 40
0.0
 40
0.2431109107733062
 40
0.5182801842065371
 40
0.7947808509927953
 40
1.0
 40
1.0
 40
1.0
 40
1.0
 10
231.3461767399987
 20
100.0711870306608
 30
0.0
 10
231.357483913557
 20
100.102358027392
 30
0.0
 10
231.3815893063425
 20
100.1688104538848
 30
0.0
 10
231.3763709358999
 20
100.2785507454438
 30
0.0
 10
231.3410887962991
 20
100.3764251006326
 30
0.0
 10
231.2991255606487
 20
100.4258207267888
 30
0.0
 10
231.2812486553868
 20
100.4468639308092
 30
0.0
  0
SPLINE
  5
D7
330
1F
100
AcDbEntity
  8
0
  6
Continuous
 62
     7
370
    15
100
AcDbSpline
210
0.0
220
0.0
230
1.0
 70
     8
 71
     3
 72
    12
 73
     8
 74
     0
 42
0.00000001
 43
0.00000001
 12
1.0
 22
0.0
 32
0.0
 13
1.0
 23
0.0
 33
0.0
 40
0.0
 40
0.0
 40
0.0
 40
0.0
 40
0.2058183108224882
 40
0.4120227284648677
 40
0.6140784511237962
 40
0.8132138233043897
 40
1.0
 40
1.0
 40
1.0
 40
1.0
 10
231.2812486553868
 20
100.4468639308092
 30
0.0
 10
231.2400298572144
 20
100.4978512974764
 30
0.0
 10
231.1575149360727
 20
100.5999216810467
 30
0.0
 10
231.1059753377344
 20
100.7946022366882
 30
0.0
 10
231.1180019351143
 20
100.990534799274
 30
0.0
 10
231.1885924230994
 20
101.1692924586448
 30
0.0
 10
231.2738102191082
 20
101.257571194214
 30
0.0
 10
231.3150556648453
 20
101.3002981358645
 30
0.0
  0
SPLINE
  5
D8
330
1F
100
AcDbEntity
  8
0
  6
Continuous
 62
     7
370
    15
100
AcDbSpline
210
0.0
220
0.0
230
1.0
 70
     8
 71
     3
 72
    11
 73
     7
 74
     0
 42
0.00000001
 43
0.00000001
 12
1.0
 22
0.0
 32
0.0
 13
1.0
 23
0.0
 33
0.0
 40
0.0
 40
0.0
 40
0.0
 40
0.0
 40
0.2908617906074693
 40
0.5839576805984027
 40
0.8745993455404154
 40
0.9999999999999999
 40
0.9999999999999999
 40
0.9999999999999999
 40
0.9999999999999999
 10
231.3150556648453
 20
101.3002981358645
 30
0.0
 10
231.3409877692168
 20
101.3276621568415
 30
0.0
 10
231.3930511615591
 20
101.3826003808969
 30
0.0
 10
231.4307870544437
 20
101.4921633143598
 30
0.0
 10
231.4330781103457
 20
101.5858822225765
 30
0.0
 10
231.4191194085329
 20
101.6381216475352
 30
0.0
 10
231.4149120712956
 20
101.6538673007366
 30
0.0
  0
SPLINE
  5
D9
330
1F
100
AcDbEntity
  8
0
  6
Continuous
 62
     7
370
    15
100
AcDbSpline
210
0.0
220
0.0
230
1.0
 70
     8
 71
     3
 72
    12
 73
     8
 74
     0
 42
0.00000001
 43
0.00000001
 12
1.0
 22
0.0
 32
0.0
 13
1.0
 23
0.0
 33
0.0
 40
0.0
 40
0.0
 40
0.0
 40
0.0
 40
0.2058591011237619
 40
0.4121028906251692
 40
0.614193281253086
 40
0.8133191914782005
 40
1.0
 40
1.0
 40
1.0
 40
1.0
 10
228.5335229600151
 20
101.4104884976027
 30
0.0
 10
228.5747483745187
 20
101.35949308327
 30
0.0
 10
228.6572762413528
 20
101.2574069596039
 30
0.0
 10
228.7088057105504
 20
101.0626931742831
 30
0.0
 10
228.6967578345618
 20
100.8667370800602
 30
0.0
 10
228.6261405814409
 20
100.6880077391665
 30
0.0
 10
228.5409413942325
 20
100.5997565246995
 30
0.0
 10
228.4997159505566
 20
100.5570542925474
 30
0.0
  0
SPLINE
  5
DA
330
1F
100
AcDbEntity
  8
0
  6
Continuous
 62
     7
370
    15
100
AcDbSpline
210
0.0
220
0.0
230
1.0
 70
     8
 71
     3
 72
    11
 73
     7
 74
     0
 42
0.00000001
 43
0.00000001
 12
1.0
 22
0.0
 32
0.0
 13
1.0
 23
0.0
 33
0.0
 40
0.0
 40
0.0
 40
0.0
 40
0.0
 40
0.2524782103832734
 40
0.5068914393055542
 40
0.7591790230934211
 40
1.0
 40
1.0
 40
1.0
 40
1.0
 10
228.4997159505566
 20
100.5570542925474
 30
0.0
 10
228.4737719535593
 20
100.5296843675925
 30
0.0
 10
228.4216851221478
 20
100.4747347518096
 30
0.0
 10
228.3841287029467
 20
100.3652955024277
 30
0.0
 10
228.3806978970479
 20
100.2510427606777
 30
0.0
 10
228.4089300836932
 20
100.1821618038769
 30
0.0
 10
228.4227179253777
 20
100.1485221946118
 30
0.0
  0
SPLINE
  5
DB
330
1F
100
AcDbEntity
  8
0
  6
Continuous
 62
     7
370
    15
100
AcDbSpline
210
0.0
220
0.0
230
1.0
 70
     8
 71
     3
 72
    11
 73
     7
 74
     0
 42
0.00000001
 43
0.00000001
 12
1.0
 22
0.0
 32
0.0
 13
1.0
 23
0.0
 33
0.0
 40
0.0
 40
0.0
 40
0.0
 40
0.0
 40
0.2423641648465487
 40
0.5166870307660019
 40
0.7923357639988942
 40
1.0
 40
1.0
 40
1.0
 40
1.0
 10
228.4691238666256
 20
101.7872960233566
 30
0.0
 10
228.4576997015032
 20
101.7561671263418
 30
0.0
 10
228.4333449543407
 20
101.6898046037312
 30
0.0
 10
228.4381603283827
 20
101.5800492252306
 30
0.0
 10
228.4732077359795
 20
101.4816307919404
 30
0.0
 10
228.515396001812
 20
101.4318693913414
 30
0.0
 10
228.5335229600151
 20
101.4104884976027
 30
0.0
  0
SPLINE
  5
DC
330
1F
100
AcDbEntity
  8
0
  6
Continuous
 62
     7
370
    15
100
AcDbSpline
210
0.0
220
0.0
230
1.0
 70
     8
 71
     3
 72
    12
 73
     8
 74
     0
 42
0.00000001
 43
0.00000001
 12
1.0
 22
0.0
 32
0.0
 13
1.0
 23
0.0
 33
0.0
 40
0.0
 40
0.0
 40
0.0
 40
0.0
 40
0.0091729547878265
 40
0.2576769046729048
 40
0.5061926702967897
 40
0.7560399353899666
 40
1.0
 40
1.0
 40
1.0
 40
1.0
 10
229.841308471032
 20
99.25281525789472
 30
0.0
 10
229.8426791435361
 20
99.25276764468349
 30
0.0
 10
229.8811826199344
 20
99.25143014491634
 30
0.0
 10
229.9579103837129
 20
99.26233421271007
 30
0.0
 10
230.0582072204413
 20
99.31435982928633
 30
0.0
 10
230.1378035668851
 20
99.39518184976895
 30
0.0
 10
230.1640749148022
 20
99.46398137694798
 30
0.0
 10
230.1770539844712
 20
99.49797102450106
 30
0.0
  0
SPLINE
  5
DD
330
1F
100
AcDbEntity
  8
0
  6
Continuous
 62
     7
370
    15
100
AcDbSpline
210
0.0
220
0.0
230
1.0
 70
     8
 71
     3
 72
    12
 73
     8
 74
     0
 42
0.00000001
 43
0.00000001
 12
1.0
 22
0.0
 32
0.0
 13
1.0
 23
0.0
 33
0.0
 40
0.0
 40
0.0
 40
0.0
 40
0.0
 40
0.205753024132228
 40
0.4119583199344855
 40
0.6140160819487368
 40
0.8131418239281815
 40
1.0
 40
1.0
 40
1.0
 40
1.0
 10
230.1770539844712
 20
99.49797102450106
 30
0.0
 10
230.2005921089664
 20
99.55914185631468
 30
0.0
 10
230.2477200977888
 20
99.68161798131555
 30
0.0
 10
230.3905180471809
 20
99.82359396802177
 30
0.0
 10
230.5662040925507
 20
99.9111650107291
 30
0.0
 10
230.7563272260236
 20
99.93943289237899
 30
0.0
 10
230.8754086113857
 20
99.90976950977179
 30
0.0
 10
230.9330569470604
 20
99.89540920792791
 30
0.0
  0
SPLINE
  5
DE
330
1F
100
AcDbEntity
  8
0
  6
Continuous
 62
     7
370
    15
100
AcDbSpline
210
0.0
220
0.0
230
1.0
 70
     8
 71
     3
 72
    11
 73
     7
 74
     0
 42
0.00000001
 43
0.00000001
 12
1.0
 22
0.0
 32
0.0
 13
1.0
 23
0.0
 33
0.0
 40
0.0
 40
0.0
 40
0.0
 40
0.0
 40
0.2794019514674005
 40
0.5596203625397629
 40
0.8374982691839875
 40
1.0
 40
1.0
 40
1.0
 40
1.0
 10
230.9330569470604
 20
99.89540920792791
 30
0.0
 10
230.9699046308253
 20
99.8866045168339
 30
0.0
 10
231.0437076734988
 20
99.86896940585414
 30
0.0
 10
231.1575418816924
 20
99.89133384204696
 30
0.0
 10
231.245143537321
 20
99.93903752614283
 30
0.0
 10
231.2859063575808
 20
99.98302824768962
 30
0.0
 10
231.300947990485
 20
99.99926098822328
 30
0.0
  0
SPLINE
  5
DF
330
1F
100
AcDbEntity
  8
0
  6
Continuous
 62
     7
370
    15
100
AcDbSpline
210
0.0
220
0.0
230
1.0
 70
     8
 71
     3
 72
    12
 73
     8
 74
     0
 42
0.00000001
 43
0.00000001
 12
1.0
 22
0.0
 32
0.0
 13
1.0
 23
0.0
 33
0.0
 40
0.0
 40
0.0
 40
0.0
 40
0.0
 40
0.0091673233955225
 40
0.2573237483984885
 40
0.5054930904683155
 40
0.7549893596450572
 40
1.0
 40
1.0
 40
1.0
 40
1.0
 10
228.4227179253777
 20
100.1485221946118
 30
0.0
 10
228.4233610142737
 20
100.1473096139018
 30
0.0
 10
228.4414123077778
 20
100.113272872744
 30
0.0
 10
228.4890758446213
 20
100.0521702488149
 30
0.0
 10
228.5841782607598
 20
99.99115858022562
 30
0.0
 10
228.6941207882491
 20
99.9623701583922
 30
0.0
 10
228.7670561257206
 20
99.97401413188348
 30
0.0
 10
228.8031929994305
 20
99.97978330789778
 30
0.0
  0
SPLINE
  5
E0
330
1F
100
AcDbEntity
  8
0
  6
Continuous
 62
     7
370
    15
100
AcDbSpline
210
0.0
220
0.0
230
1.0
 70
     8
 71
     3
 72
    12
 73
     8
 74
     0
 42
0.00000001
 43
0.00000001
 12
1.0
 22
0.0
 32
0.0
 13
1.0
 23
0.0
 33
0.0
 40
0.0
 40
0.0
 40
0.0
 40
0.0
 40
0.2058420215018044
 40
0.4120693547337281
 40
0.6141391163019573
 40
0.8132602146943304
 40
1.0
 40
1.0
 40
1.0
 40
1.0
 10
228.8031929994305
 20
99.97978330789778
 30
0.0
 10
228.8679647876154
 20
99.98998712227312
 30
0.0
 10
228.9976296090527
 20
100.0104138513481
 30
0.0
 10
229.192010988658
 20
99.95769381932027
 30
0.0
 10
229.3556818177199
 20
99.84929546019971
 30
0.0
 10
229.4751755311915
 20
99.69878158395007
 30
0.0
 10
229.5090105557526
 20
99.58085742143963
 30
0.0
 10
229.5253852272709
 20
99.5237872862694
 30
0.0
  0
SPLINE
  5
E1
330
1F
100
AcDbEntity
  8
0
  6
Continuous
 62
     7
370
    15
100
AcDbSpline
210
0.0
220
0.0
230
1.0
 70
     8
 71
     3
 72
    11
 73
     7
 74
     0
 42
0.00000001
 43
0.00000001
 12
1.0
 22
0.0
 32
0.0
 13
1.0
 23
0.0
 33
0.0
 40
0.0
 40
0.0
 40
0.0
 40
0.0
 40
0.2535079949789177
 40
0.5075644918803739
 40
0.7595022385378994
 40
1.0
 40
1.0
 40
1.0
 40
1.0
 10
229.5253852272709
 20
99.5237872862694
 30
0.0
 10
229.5361959579851
 20
99.48743895356516
 30
0.0
 10
229.5578408100231
 20
99.41466364317994
 30
0.0
 10
229.6341401578179
 20
99.32739691644409
 30
0.0
 10
229.7314822299011
 20
99.2674804110587
 30
0.0
 10
229.8052711314297
 20
99.25762734195996
 30
0.0
 10
229.841308471032
 20
99.25281525789472
 30
0.0
  0
CIRCLE
  5
E2
330
1F
100
AcDbEntity
  8
0
  6
Continuous
 62
     7
370
    15
100
AcDbCircle
 10
229.9060518864
 20
100.9265635309
 30
0.0
 40
2.62500000000002
  0
SPLINE
  5
E3
330
1F
100
AcDbEntity
  8
0
  6
HIDDEN
 62
     7
370
     0
100
AcDbSpline
210
0.0
220
0.0
230
1.0
 70
     8
 71
     3
 72
    12
 73
     8
 74
     0
 42
0.00000001
 43
0.00000001
 12
1.0
 22
0.0
 32
0.0
 13
1.0
 23
0.0
 33
0.0
 40
0.0
 40
0.0
 40
0.0
 40
0.0
 40
0.5000000000000018
 40
0.5000000000000018
 40
0.7500000000000009
 40
0.7500000000000009
 40
1.0
 40
1.0
 40
1.0
 40
1.0
 10
183.2610025028837
 20
150.9282116725368
 30
0.0
 10
183.291701886251
 20
150.9673495149327
 30
0.0
 10
183.3330519543574
 20
151.0045092976582
 30
0.0
 10
183.4328078825769
 20
151.0544458032859
 30
0.0
 10
183.4725048003096
 20
151.0698986734297
 30
0.0
 10
183.5697629519573
 20
151.0938182170287
 30
0.0
 10
183.630539109948
 20
151.1023013108071
 30
0.0
 10
183.6940152047759
 20
151.1023013108071
 30
0.0
  0
LINE
  5
E4
330
1F
100
AcDbEntity
  8
0
  6
HIDDEN
 62
     7
370
     0
100
AcDbLine
 10
183.6940150598
 20
151.1023015642
 30
0.0
 11
186.6385012755
 21
151.1023015642
 31
0.0
  0
SPLINE
  5
E5
330
1F
100
AcDbEntity
  8
0
  6
HIDDEN
 62
     7
370
     0
100
AcDbSpline
210
0.0
220
0.0
230
1.0
 70
     8
 71
     3
 72
    12
 73
     8
 74
     0
 42
0.00000001
 43
0.00000001
 12
1.0
 22
0.0
 32
0.0
 13
1.0
 23
0.0
 33
0.0
 40
0.0
 40
0.0
 40
0.0
 40
0.0
 40
0.2500000000000009
 40
0.2500000000000009
 40
0.5000000000000019
 40
0.5000000000000019
 40
1.0
 40
1.0
 40
1.0
 40
1.0
 10
186.638501577643
 20
151.1023013108071
 30
0.0
 10
186.7021668141735
 20
151.1023013108071
 30
0.0
 10
186.7617730463969
 20
151.0940365351412
 30
0.0
 10
186.8604335713277
 20
151.0698177535581
 30
0.0
 10
186.899400561343
 20
151.054560434249
 30
0.0
 10
186.9987873932674
 20
151.004927079987
 30
0.0
 10
187.0408636406909
 20
150.9672873718129
 30
0.0
 10
187.0715142795352
 20
150.9282116725368
 30
0.0
  0
ELLIPSE
  5
E6
330
1F
100
AcDbEntity
  8
0
  6
HIDDEN
 62
     7
370
     0
100
AcDbEllipse
 10
174.1100007362
 20
127.2755701953
 30
0.0
 11
11.70927234972726
 21
24.67718644093745
 31
0.0
210
0.0
220
0.0
230
1.0
 40
0.3419987131
 41
5.203068809370471
 42
6.114256032590513
  0
SPLINE
  5
E7
330
1F
100
AcDbEntity
  8
0
  6
HIDDEN
 62
     7
370
     0
100
AcDbSpline
210
0.0
220
0.0
230
1.0
 70
     8
 71
     3
 72
    12
 73
     8
 74
     0
 42
0.00000001
 43
0.00000001
 12
1.0
 22
0.0
 32
0.0
 13
1.0
 23
0.0
 33
0.0
 40
0.0
 40
0.0
 40
0.0
 40
0.0
 40
0.5000000000000013
 40
0.5000000000000013
 40
0.7500000000000007
 40
0.7500000000000007
 40
1.0
 40
1.0
 40
1.0
 40
1.0
 10
187.0715142795352
 20
135.3720231933497
 30
0.0
 10
187.0408148961679
 20
135.2576875262858
 30
0.0
 10
186.9994648280614
 20
135.1463341734444
 30
0.0
 10
186.899708899842
 20
134.9935974011957
 30
0.0
 10
186.8600119821093
 20
134.9457375153436
 30
0.0
 10
186.7627538304616
 20
134.8711344019941
 30
0.0
 10
186.7019776724709
 20
134.844380164486
 30
0.0
 10
186.638501577643
 20
134.844380164486
 30
0.0
  0
LINE
  5
E8
330
1F
100
AcDbEntity
  8
0
  6
HIDDEN
 62
     7
370
     0
100
AcDbLine
 10
186.6385012755
 20
134.8443803304
 30
0.0
 11
183.6940150598
 21
134.8443803304
 31
0.0
  0
SPLINE
  5
E9
330
1F
100
AcDbEntity
  8
0
  6
HIDDEN
 62
     7
370
     0
100
AcDbSpline
210
0.0
220
0.0
230
1.0
 70
     8
 71
     3
 72
    12
 73
     8
 74
     0
 42
0.00000001
 43
0.00000001
 12
1.0
 22
0.0
 32
0.0
 13
1.0
 23
0.0
 33
0.0
 40
0.0
 40
0.0
 40
0.0
 40
0.0
 40
0.2499999999999993
 40
0.2499999999999993
 40
0.4999999999999987
 40
0.4999999999999987
 40
1.0
 40
1.0
 40
1.0
 40
1.0
 10
183.6940152047759
 20
134.844380164486
 30
0.0
 10
183.6303499682454
 20
134.844380164486
 30
0.0
 10
183.570743736022
 20
134.8704523129657
 30
0.0
 10
183.4720832110912
 20
134.9459910637868
 30
0.0
 10
183.4331162210759
 20
134.993242000883
 30
0.0
 10
183.3337293891515
 20
135.1450658188495
 30
0.0
 10
183.291653141728
 20
135.2578690686145
 30
0.0
 10
183.2610025028837
 20
135.3720231933496
 30
0.0
  0
ELLIPSE
  5
EA
330
1F
100
AcDbEntity
  8
0
  6
HIDDEN
 62
     7
370
     0
100
AcDbEllipse
 10
196.2225160462
 20
127.2755701953
 30
0.0
 11
-11.70927234972714
 21
24.67718644093745
 31
0.0
210
0.0
220
0.0
230
1.0
 40
0.3419987131
 41
0.1689292745891142
 42
1.080116497809132
  0
SPLINE
  5
EB
330
1F
100
AcDbEntity
  8
0
  6
HIDDEN
 62
     7
370
     0
100
AcDbSpline
210
0.0
220
0.0
230
1.0
 70
     8
 71
     3
 72
    12
 73
     8
 74
     0
 42
0.00000001
 43
0.00000001
 12
1.0
 22
0.0
 32
0.0
 13
1.0
 23
0.0
 33
0.0
 40
0.0
 40
0.0
 40
0.0
 40
0.0
 40
0.5000000000000032
 40
0.5000000000000032
 40
0.7500000000000016
 40
0.7500000000000016
 40
1.0
 40
1.0
 40
1.0
 40
1.0
 10
183.2610025028837
 20
119.1791171972609
 30
0.0
 10
183.291701886251
 20
119.2934528643247
 30
0.0
 10
183.3330519543575
 20
119.4048062171661
 30
0.0
 10
183.4328078825769
 20
119.5575429894148
 30
0.0
 10
183.4725048003096
 20
119.6054028752669
 30
0.0
 10
183.5697629519573
 20
119.6800059886164
 30
0.0
 10
183.630539109948
 20
119.7067602261245
 30
0.0
 10
183.6940152047759
 20
119.7067602261245
 30
0.0
  0
LINE
  5
EC
330
1F
100
AcDbEntity
  8
0
  6
HIDDEN
 62
     7
370
     0
100
AcDbLine
 10
183.6940150598
 20
119.7067600602
 30
0.0
 11
186.6385012755
 21
119.7067600602
 31
0.0
  0
SPLINE
  5
ED
330
1F
100
AcDbEntity
  8
0
  6
HIDDEN
 62
     7
370
     0
100
AcDbSpline
210
0.0
220
0.0
230
1.0
 70
     8
 71
     3
 72
    12
 73
     8
 74
     0
 42
0.00000001
 43
0.00000001
 12
1.0
 22
0.0
 32
0.0
 13
1.0
 23
0.0
 33
0.0
 40
0.0
 40
0.0
 40
0.0
 40
0.0
 40
0.2499999999999993
 40
0.2499999999999993
 40
0.4999999999999987
 40
0.4999999999999987
 40
1.0
 40
1.0
 40
1.0
 40
1.0
 10
186.638501577643
 20
119.7067602261245
 30
0.0
 10
186.7021668141735
 20
119.7067602261245
 30
0.0
 10
186.7617730463969
 20
119.6806880776448
 30
0.0
 10
186.8604335713277
 20
119.6051493268237
 30
0.0
 10
186.899400561343
 20
119.5578983897275
 30
0.0
 10
186.9987873932674
 20
119.406074571761
 30
0.0
 10
187.0408636406909
 20
119.2932713219959
 30
0.0
 10
187.0715142795352
 20
119.1791171972609
 30
0.0
  0
ELLIPSE
  5
EE
330
1F
100
AcDbEntity
  8
0
  6
HIDDEN
 62
     7
370
     0
100
AcDbEllipse
 10
174.1100007362
 20
127.2755701953
 30
0.0
 11
-11.70927234972715
 21
24.67718644093742
 31
0.0
210
0.0
220
0.0
230
1.0
 40
0.3419987131
 41
3.310521928178958
 42
4.221709151398948
  0
SPLINE
  5
EF
330
1F
100
AcDbEntity
  8
0
  6
HIDDEN
 62
     7
370
     0
100
AcDbSpline
210
0.0
220
0.0
230
1.0
 70
     8
 71
     3
 72
    12
 73
     8
 74
     0
 42
0.00000001
 43
0.00000001
 12
1.0
 22
0.0
 32
0.0
 13
1.0
 23
0.0
 33
0.0
 40
0.0
 40
0.0
 40
0.0
 40
0.0
 40
0.4999999999999982
 40
0.4999999999999982
 40
0.7499999999999991
 40
0.7499999999999991
 40
1.0
 40
1.0
 40
1.0
 40
1.0
 10
187.0715142795352
 20
103.6229287180735
 30
0.0
 10
187.0408148961679
 20
103.5837908756776
 30
0.0
 10
186.9994648280614
 20
103.5466310929521
 30
0.0
 10
186.899708899842
 20
103.4966945873243
 30
0.0
 10
186.8600119821093
 20
103.4812417171806
 30
0.0
 10
186.7627538304616
 20
103.4573221735816
 30
0.0
 10
186.7019776724709
 20
103.4488390798032
 30
0.0
 10
186.638501577643
 20
103.4488390798032
 30
0.0
  0
LINE
  5
F0
330
1F
100
AcDbEntity
  8
0
  6
HIDDEN
 62
     7
370
     0
100
AcDbLine
 10
186.6385012755
 20
103.4488388264
 30
0.0
 11
183.6940150598
 21
103.4488388264
 31
0.0
  0
SPLINE
  5
F1
330
1F
100
AcDbEntity
  8
0
  6
HIDDEN
 62
     7
370
     0
100
AcDbSpline
210
0.0
220
0.0
230
1.0
 70
     8
 71
     3
 72
    12
 73
     8
 74
     0
 42
0.00000001
 43
0.00000001
 12
1.0
 22
0.0
 32
0.0
 13
1.0
 23
0.0
 33
0.0
 40
0.0
 40
0.0
 40
0.0
 40
0.0
 40
0.25
 40
0.25
 40
0.5
 40
0.5
 40
1.0
 40
1.0
 40
1.0
 40
1.0
 10
183.6940152047759
 20
103.4488390798032
 30
0.0
 10
183.6303499682454
 20
103.4488390798032
 30
0.0
 10
183.570743736022
 20
103.457103855469
 30
0.0
 10
183.4720832110912
 20
103.4813226370522
 30
0.0
 10
183.4331162210759
 20
103.4965799563613
 30
0.0
 10
183.3337293891515
 20
103.5462133106232
 30
0.0
 10
183.291653141728
 20
103.5838530187973
 30
0.0
 10
183.2610025028837
 20
103.6229287180735
 30
0.0
  0
ELLIPSE
  5
F2
330
1F
100
AcDbEntity
  8
0
  6
HIDDEN
 62
     7
370
     0
100
AcDbEllipse
 10
196.2225160462
 20
127.2755701953
 30
0.0
 11
11.709272349727
 21
24.67718644093745
 31
0.0
210
0.0
220
0.0
230
1.0
 40
0.3419987131
 41
2.061476155780648
 42
2.972663379000663
  0
SPLINE
  5
F3
330
1F
100
AcDbEntity
  8
0
  6
HIDDEN
 62
     7
370
     0
100
AcDbSpline
210
0.0
220
0.0
230
1.0
 70
     8
 71
     3
 72
    58
 73
    54
 74
     0
 42
0.00000001
 43
0.00000001
 12
1.0
 22
0.0
 32
0.0
 13
1.0
 23
0.0
 33
0.0
 40
-0.0624999999999997
 40
-0.0624999999999997
 40
0.0
 40
0.0
 40
0.0312500000000002
 40
0.0312500000000002
 40
0.0625000000000004
 40
0.0625000000000004
 40
0.0937500000000006
 40
0.0937500000000006
 40
0.1250000000000008
 40
0.1250000000000008
 40
0.1875000000000012
 40
0.1875000000000012
 40
0.2500000000000017
 40
0.2500000000000017
 40
0.2812500000000017
 40
0.2812500000000017
 40
0.3125000000000016
 40
0.3125000000000016
 40
0.3437500000000016
 40
0.3437500000000016
 40
0.3750000000000016
 40
0.3750000000000016
 40
0.4062500000000016
 40
0.4062500000000016
 40
0.4375000000000016
 40
0.4375000000000016
 40
0.4687500000000016
 40
0.4687500000000016
 40
0.5000000000000016
 40
0.5000000000000016
 40
0.5625000000000017
 40
0.5625000000000017
 40
0.6250000000000016
 40
0.6250000000000016
 40
0.6562500000000014
 40
0.6562500000000014
 40
0.6875000000000013
 40
0.6875000000000013
 40
0.7187500000000012
 40
0.7187500000000012
 40
0.7500000000000011
 40
0.7500000000000011
 40
0.781250000000001
 40
0.781250000000001
 40
0.8125000000000009
 40
0.8125000000000009
 40
0.8437500000000008
 40
0.8437500000000008
 40
0.8750000000000006
 40
0.8750000000000006
 40
0.9375000000000003
 40
0.9375000000000003
 40
1.0
 40
1.0
 40
1.03125
 40
1.03125
 10
189.1662583912094
 20
127.0111978247616
 30
0.0
 10
189.1662583912094
 20
127.4077563805768
 30
0.0
 10
189.153282499199
 20
127.5377231201215
 30
0.0
 10
189.102450197093
 20
127.7934024582537
 30
0.0
 10
189.0639731257716
 20
127.9204435500951
 30
0.0
 10
188.9635681646153
 20
128.1626217360357
 30
0.0
 10
188.9021339222959
 20
128.2774753946252
 30
0.0
 10
188.7569996561142
 20
128.494840516431
 30
0.0
 10
188.6725577349669
 20
128.5977159885153
 30
0.0
 10
188.395885705357
 20
128.8743339409324
 30
0.0
 10
188.1728395503889
 20
129.0233260607653
 30
0.0
 10
187.6915755518444
 20
129.2228498557566
 30
0.0
 10
187.4283176965246
 20
129.2754287202588
 30
0.0
 10
187.0368516652398
 20
129.2756404938463
 30
0.0
 10
186.9043029216263
 20
129.2626495222569
 30
0.0
 10
186.647758612611
 20
129.2116132989671
 30
0.0
 10
186.5230627262394
 20
129.1738517575643
 30
0.0
 10
186.2808597558056
 20
129.0736922182709
 30
0.0
 10
186.163796392555
 20
129.0110944085204
 30
0.0
 10
185.9471100733088
 20
128.8663724244848
 30
0.0
 10
185.8460961052411
 20
128.7837483193165
 30
0.0
 10
185.6593029109556
 20
128.5971279487055
 30
0.0
 10
185.5765025470013
 20
128.4960795808143
 30
0.0
 10
185.4316241081068
 20
128.2795675599404
 30
0.0
 10
185.3689733247794
 20
128.1626782047415
 30
0.0
 10
185.2685329304055
 20
127.9204208026825
 30
0.0
 10
185.2306739186355
 20
127.7957581378672
 30
0.0
 10
185.1794362141721
 20
127.5394269422124
 30
0.0
 10
185.1663058393989
 20
127.406839002862
 30
0.0
 10
185.1661638889601
 20
127.0152073342926
 30
0.0
 10
185.2185048052081
 20
126.7519945012584
 30
0.0
 10
185.4176350319462
 20
126.2704871705671
 30
0.0
 10
185.5664721195886
 20
126.0472866892915
 30
0.0
 10
185.8427841561279
 20
125.7704406093297
 30
0.0
 10
185.9455496933792
 20
125.685928515111
 30
0.0
 10
186.162866625733
 20
125.5405499183795
 30
0.0
 10
186.2776535362698
 20
125.4790344867777
 30
0.0
 10
186.5195730263757
 20
125.3784784265321
 30
0.0
 10
186.6466999288758
 20
125.3398397006975
 30
0.0
 10
186.9023687645119
 20
125.2887748338101
 30
0.0
 10
187.0322639698899
 20
125.2757003534338
 30
0.0
 10
187.2963387523143
 20
125.2754419521602
 30
0.0
 10
187.4266678917996
 20
125.2883180201232
 30
0.0
 10
187.6823572059434
 20
125.3389168114511
 30
0.0
 10
187.8092850723311
 20
125.3772221572888
 30
0.0
 10
188.0517373611733
 20
125.4774779897086
 30
0.0
 10
188.1666540551549
 20
125.5388290086207
 30
0.0
 10
188.3840448469253
 20
125.683697844191
 30
0.0
 10
188.4870301266068
 20
125.7680617974603
 30
0.0
 10
188.7639944942642
 20
126.0445878512464
 30
0.0
 10
188.9131267726226
 20
126.2674476932421
 30
0.0
 10
189.1130788913371
 20
126.7485502133029
 30
0.0
 10
189.1662583912094
 20
127.0111978247616
 30
0.0
 10
189.1662583912094
 20
127.4077563805768
 30
0.0
  0
LINE
  5
F4
330
1F
100
AcDbEntity
  8
0
  6
HIDDEN
 62
     7
370
     0
100
AcDbLine
 10
175.1662583912
 20
102.5755693132
 30
0.0
 11
175.1662583912
 21
151.9755710775
 31
0.0
  0
LWPOLYLINE
  5
F5
330
1F
100
AcDbEntity
  8
0
  6
HIDDEN
 62
     7
370
     0
100
AcDbPolyline
 90
       31
 70
   128
 43
0.0
 10
193.1662576163
 20
119.4086502233
 10
193.7899941469
 20
119.3549492323
 10
194.386469003
 20
119.196192261
 10
194.9296144659
 20
118.9393176624
 10
195.3956929857
 20
118.5955534616
 10
195.7643346751
 20
118.179922823
 10
196.0194276536
 20
117.7105902621
 10
196.1498239899
 20
117.2080681586
 10
196.1498239899
 20
116.6943198928
 10
196.0194276536
 20
116.1917987206
 10
195.7643346751
 20
115.7224661597
 10
195.3956929857
 20
115.3068355211
 10
194.9296144659
 20
114.963070389
 10
194.386469003
 20
114.7061967218
 10
193.7899941469
 20
114.5474397504
 10
193.1662576163
 20
114.4937378281
 10
192.5425229485
 20
114.5474397504
 10
191.9460480923
 20
114.7061967218
 10
191.4029026294
 20
114.963070389
 10
190.9368241096
 20
115.3068355211
 10
190.5681824202
 20
115.7224661597
 10
190.3130885104
 20
116.1917987206
 10
190.1826931054
 20
116.6943198928
 10
190.1826931054
 20
117.2080681586
 10
190.3130885104
 20
117.7105902621
 10
190.5681824202
 20
118.179922823
 10
190.9368241096
 20
118.5955534616
 10
191.4029026294
 20
118.9393176624
 10
191.9460480923
 20
119.196192261
 10
192.5425229485
 20
119.3549492323
 10
193.1662576163
 20
119.4086502233
  0
LINE
  5
F6
330
1F
100
AcDbEntity
  8
0
  6
HIDDEN
 62
     7
370
     0
100
AcDbLine
 10
175.1662583912
 20
107.7255708092
 30
0.0
 11
175.1662583912
 21
146.8101133519
 31
0.0
  0
SPLINE
  5
F7
330
1F
100
AcDbEntity
  8
0
  6
HIDDEN
 62
     7
370
     0
100
AcDbSpline
210
0.0
220
0.0
230
1.0
 70
     8
 71
     3
 72
    14
 73
    10
 74
     0
 42
0.00000001
 43
0.00000001
 12
1.0
 22
0.0
 32
0.0
 13
1.0
 23
0.0
 33
0.0
 40
0.0
 40
0.0
 40
0.0
 40
0.0
 40
0.25
 40
0.25
 40
0.5
 40
0.5
 40
0.75
 40
0.75
 40
1.0
 40
1.0
 40
1.0
 40
1.0
 10
174.1253973630811
 20
139.5700457403785
 30
0.0
 10
174.1571124974118
 20
139.5122625580353
 30
0.0
 10
174.1917270227121
 20
139.4558498969604
 30
0.0
 10
174.2713982181275
 20
139.348250446945
 30
0.0
 10
174.3164540951579
 20
139.2963378200239
 30
0.0
 10
174.4270085076633
 20
139.2101391953267
 30
0.0
 10
174.4943939218675
 20
139.176049775355
 30
0.0
 10
174.6450234417655
 20
139.1739473833381
 30
0.0
 10
174.7148506785309
 20
139.2073191561829
 30
0.0
 10
174.7712815023343
 20
139.2511318247336
 30
0.0
  0
SPLINE
  5
F8
330
1F
100
AcDbEntity
  8
0
  6
HIDDEN
 62
     7
370
     0
100
AcDbSpline
210
0.0
220
0.0
230
1.0
 70
     8
 71
     3
 72
    16
 73
    12
 74
     0
 42
0.00000001
 43
0.00000001
 12
1.0
 22
0.0
 32
0.0
 13
1.0
 23
0.0
 33
0.0
 40
0.0
 40
0.0
 40
0.0
 40
0.0
 40
0.0624999999999973
 40
0.0624999999999973
 40
0.1249999999999946
 40
0.1249999999999946
 40
0.2499999999999932
 40
0.2499999999999932
 40
0.4999999999999954
 40
0.4999999999999954
 40
1.0
 40
1.0
 40
1.0
 40
1.0
 10
174.7712815023026
 20
139.2511318247642
 30
0.0
 10
174.7830157367495
 20
139.2602422380121
 30
0.0
 10
174.7965474922284
 20
139.2683195939585
 30
0.0
 10
174.8265349526582
 20
139.2765664356355
 30
0.0
 10
174.8415296590665
 20
139.2756391180479
 30
0.0
 10
174.8772700814613
 20
139.2628725985161
 30
0.0
 10
174.8912834184625
 20
139.2452239520057
 30
0.0
 10
174.9254275072439
 20
139.1905710319742
 30
0.0
 10
174.9363994113622
 20
139.1491713643157
 30
0.0
 10
174.9622449516285
 20
139.020681620593
 30
0.0
 10
174.9662583912095
 20
138.9300635329543
 30
0.0
 10
174.9662583912095
 20
138.8378444284002
 30
0.0
  0
LINE
  5
F9
330
1F
100
AcDbEntity
  8
0
  6
HIDDEN
 62
     7
370
     0
100
AcDbLine
 10
174.9662583963
 20
115.7132963577
 30
0.0
 11
174.9662583963
 21
138.8378440329
 31
0.0
  0
SPLINE
  5
FA
330
1F
100
AcDbEntity
  8
0
  6
HIDDEN
 62
     7
370
     0
100
AcDbSpline
210
0.0
220
0.0
230
1.0
 70
     8
 71
     3
 72
    16
 73
    12
 74
     0
 42
0.00000001
 43
0.00000001
 12
1.0
 22
0.0
 32
0.0
 13
1.0
 23
0.0
 33
0.0
 40
0.0
 40
0.0
 40
0.0
 40
0.0
 40
0.5000000000000047
 40
0.5000000000000047
 40
0.750000000000007
 40
0.750000000000007
 40
0.8750000000000034
 40
0.8750000000000034
 40
0.9375000000000018
 40
0.9375000000000018
 40
1.0
 40
1.0
 40
1.0
 40
1.0
 10
174.9662583912094
 20
115.71329596221
 30
0.0
 10
174.9662583912094
 20
115.6207121113061
 30
0.0
 10
174.9622010890944
 20
115.5304996554458
 30
0.0
 10
174.9365438462996
 20
115.4025585283274
 30
0.0
 10
174.9252284005575
 20
115.3601453139155
 30
0.0
 10
174.8911970332488
 20
115.3058312704644
 30
0.0
 10
174.877318052045
 20
115.2882499350745
 30
0.0
 10
174.8413823702777
 20
115.2754662471395
 30
0.0
 10
174.8264320510149
 20
115.2745907489914
 30
0.0
 10
174.7965335382731
 20
115.2828361841108
 30
0.0
 10
174.7830006779078
 20
115.2909098442826
 30
0.0
 10
174.7712815023338
 20
115.3000085658767
 30
0.0
  0
SPLINE
  5
FB
330
1F
100
AcDbEntity
  8
0
  6
HIDDEN
 62
     7
370
     0
100
AcDbSpline
210
0.0
220
0.0
230
1.0
 70
     8
 71
     3
 72
    14
 73
    10
 74
     0
 42
0.00000001
 43
0.00000001
 12
1.0
 22
0.0
 32
0.0
 13
1.0
 23
0.0
 33
0.0
 40
0.0
 40
0.0
 40
0.0
 40
0.0
 40
0.25
 40
0.25
 40
0.5
 40
0.5
 40
0.75
 40
0.75
 40
1.0
 40
1.0
 40
1.0
 40
1.0
 10
174.7712815023406
 20
115.3000085658852
 30
0.0
 10
174.7148257377318
 20
115.34384059838
 30
0.0
 10
174.643960111482
 20
115.3771716348018
 30
0.0
 10
174.4955030303094
 20
115.3751126246544
 30
0.0
 10
174.4263096710018
 20
115.3405166002527
 30
0.0
 10
174.3165942328676
 20
115.2548512435899
 30
0.0
 10
174.2713496535363
 20
115.2028287988818
 30
0.0
 10
174.1917229441125
 20
115.0952805385519
 30
0.0
 10
174.1571127955791
 20
115.0388783758189
 30
0.0
 10
174.1253973630798
 20
114.9810946502294
 30
0.0
  0
SPLINE
  5
FC
330
1F
100
AcDbEntity
  8
0
  6
HIDDEN
 62
     7
370
     0
100
AcDbSpline
210
0.0
220
0.0
230
1.0
 70
     8
 71
     3
 72
    10
 73
     6
 74
     0
 42
0.00000001
 43
0.00000001
 12
1.0
 22
0.0
 32
0.0
 13
1.0
 23
0.0
 33
0.0
 40
0.0
 40
0.0
 40
0.0
 40
0.0
 40
0.5
 40
0.5
 40
1.0
 40
1.0
 40
1.0
 40
1.0
 10
174.1253973630804
 20
114.9810946502304
 30
0.0
 10
174.0536175751569
 20
114.8503159333285
 30
0.0
 10
174.0011580608488
 20
114.7162157838253
 30
0.0
 10
173.9118149967477
 20
114.4481232208366
 30
0.0
 10
173.8758193872479
 20
114.3138778492477
 30
0.0
 10
173.8449380476498
 20
114.1805234717727
 30
0.0
  0
SPLINE
  5
FD
330
1F
100
AcDbEntity
  8
0
  6
HIDDEN
 62
     7
370
     0
100
AcDbSpline
210
0.0
220
0.0
230
1.0
 70
     8
 71
     3
 72
    10
 73
     6
 74
     0
 42
0.00000001
 43
0.00000001
 12
1.0
 22
0.0
 32
0.0
 13
1.0
 23
0.0
 33
0.0
 40
0.0
 40
0.0
 40
0.0
 40
0.0
 40
0.5
 40
0.5
 40
1.0
 40
1.0
 40
1.0
 40
1.0
 10
173.8449380476498
 20
109.9786603273003
 30
0.0
 10
173.8758110794621
 20
109.9623771799331
 30
0.0
 10
173.911797942375
 20
109.9501195902075
 30
0.0
 10
174.0011325282662
 20
109.9330166013788
 30
0.0
 10
174.0535883876888
 20
109.9282170055205
 30
0.0
 10
174.125397363081
 20
109.9264129141125
 30
0.0
  0
SPLINE
  5
FE
330
1F
100
AcDbEntity
  8
0
  6
HIDDEN
 62
     7
370
     0
100
AcDbSpline
210
0.0
220
0.0
230
1.0
 70
     8
 71
     3
 72
     8
 73
     4
 74
     0
 42
0.00000001
 43
0.00000001
 12
1.0
 22
0.0
 32
0.0
 13
1.0
 23
0.0
 33
0.0
 40
0.0
 40
0.0
 40
0.0
 40
0.0
 40
1.0
 40
1.0
 40
1.0
 40
1.0
 10
174.9485617678345
 20
109.8005285358655
 30
0.0
 10
174.9625485763765
 20
109.7722881452838
 30
0.0
 10
174.9662583912092
 20
109.749156102473
 30
0.0
 10
174.9662583912095
 20
109.7288157296378
 30
0.0
  0
LINE
  5
FF
330
1F
100
AcDbEntity
  8
0
  6
HIDDEN
 62
     7
370
     0
100
AcDbLine
 10
174.9662583963
 20
109.4357491398
 30
0.0
 11
174.9662583963
 21
109.7288158649
 31
0.0
  0
LINE
  5
100
330
1F
100
AcDbEntity
  8
0
  6
HIDDEN
 62
     7
370
     0
100
AcDbLine
 10
174.9662583963
 20
144.8223245257
 30
0.0
 11
174.9662583963
 21
145.1153912508
 31
0.0
  0
SPLINE
  5
101
330
1F
100
AcDbEntity
  8
0
  6
HIDDEN
 62
     7
370
     0
100
AcDbSpline
210
0.0
220
0.0
230
1.0
 70
     8
 71
     3
 72
    10
 73
     6
 74
     0
 42
0.00000001
 43
0.00000001
 12
1.0
 22
0.0
 32
0.0
 13
1.0
 23
0.0
 33
0.0
 40
0.0
 40
0.0
 40
0.0
 40
0.0
 40
0.5
 40
0.5
 40
1.0
 40
1.0
 40
1.0
 40
1.0
 10
174.125397363081
 20
144.6247274764976
 30
0.0
 10
174.0535883876887
 20
144.6229233850897
 30
0.0
 10
174.0011325282662
 20
144.6181237892313
 30
0.0
 10
173.911797942375
 20
144.6010208004026
 30
0.0
 10
173.8758110794621
 20
144.588763210677
 30
0.0
 10
173.8449380476498
 20
144.5724800633099
 30
0.0
  0
SPLINE
  5
102
330
1F
100
AcDbEntity
  8
0
  6
HIDDEN
 62
     7
370
     0
100
AcDbSpline
210
0.0
220
0.0
230
1.0
 70
     8
 71
     3
 72
    10
 73
     6
 74
     0
 42
0.00000001
 43
0.00000001
 12
1.0
 22
0.0
 32
0.0
 13
1.0
 23
0.0
 33
0.0
 40
0.0
 40
0.0
 40
0.0
 40
0.0
 40
0.5
 40
0.5
 40
1.0
 40
1.0
 40
1.0
 40
1.0
 10
173.8449380476498
 20
140.3706169188375
 30
0.0
 10
173.875819387248
 20
140.2372625413623
 30
0.0
 10
173.9118149967478
 20
140.1030171697731
 30
0.0
 10
174.0011580608491
 20
139.8349246067839
 30
0.0
 10
174.0536175751573
 20
139.7008244572806
 30
0.0
 10
174.1253973630811
 20
139.5700457403785
 30
0.0
  0
LINE
  5
103
330
1F
100
AcDbEntity
  8
0
  6
HIDDEN
 62
     7
370
     0
100
AcDbLine
 10
174.9662583963
 20
109.7288158649
 30
0.0
 11
174.9662583963
 21
121.2910901682
 31
0.0
  0
LINE
  5
104
330
1F
100
AcDbEntity
  8
0
  6
HIDDEN
 62
     7
370
     0
100
AcDbLine
 10
174.9662583963
 20
133.2600502224
 30
0.0
 11
174.9662583963
 21
144.8223245257
 31
0.0
  0
LWPOLYLINE
  5
105
330
1F
100
AcDbEntity
  8
0
  6
HIDDEN
 62
     7
370
     0
100
AcDbPolyline
 90
       29
 70
   128
 43
0.0
 10
193.1662576163
 20
119.1713939348
 10
193.7225608046
 20
119.1200491899
 10
194.2509671564
 20
118.9685900622
 10
194.7249824072
 20
118.7246114874
 10
195.1208373422
 20
118.4003463873
 10
195.4186798895
 20
118.0120556542
 10
195.6035790855
 20
117.5792104491
 10
195.6662589575
 20
117.1235143134
 10
195.6035790855
 20
116.6678181776
 10
195.4186798895
 20
116.2349720412
 10
195.1208373422
 20
115.8466813081
 10
194.7249824072
 20
115.5224171394
 10
194.2509671564
 20
115.2784376332
 10
193.7225608046
 20
115.1269785055
 10
193.1662576163
 20
115.0756337607
 10
192.6099562908
 20
115.1269785055
 10
192.081549939
 20
115.2784376332
 10
191.6075346882
 20
115.5224171394
 10
191.2116797531
 20
115.8466813081
 10
190.9138353432
 20
116.2349720412
 10
190.7289389411
 20
116.6678181776
 10
190.6662581379
 20
117.1235143134
 10
190.7289389411
 20
117.5792104491
 10
190.9138353432
 20
118.0120556542
 10
191.2116797531
 20
118.4003463873
 10
191.6075346882
 20
118.7246114874
 10
192.081549939
 20
118.9685900622
 10
192.6099562908
 20
119.1200491899
 10
193.1662576163
 20
119.1713939348
  0
SPLINE
  5
106
330
1F
100
AcDbEntity
  8
0
  6
HIDDEN
 62
     7
370
     0
100
AcDbSpline
210
0.0
220
0.0
230
1.0
 70
     8
 71
     3
 72
    66
 73
    62
 74
     0
 42
0.00000001
 43
0.00000001
 12
1.0
 22
0.0
 32
0.0
 13
1.0
 23
0.0
 33
0.0
 40
-0.03125
 40
-0.03125
 40
0.0
 40
0.0
 40
0.03125
 40
0.03125
 40
0.0624999999999999
 40
0.0624999999999999
 40
0.0937499999999999
 40
0.0937499999999999
 40
0.1249999999999999
 40
0.1249999999999999
 40
0.1874999999999998
 40
0.1874999999999998
 40
0.2187499999999998
 40
0.2187499999999998
 40
0.2499999999999997
 40
0.2499999999999997
 40
0.2812499999999997
 40
0.2812499999999997
 40
0.3124999999999997
 40
0.3124999999999997
 40
0.3437499999999996
 40
0.3437499999999996
 40
0.3749999999999996
 40
0.3749999999999996
 40
0.4062499999999996
 40
0.4062499999999996
 40
0.4374999999999995
 40
0.4374999999999995
 40
0.4687499999999995
 40
0.4687499999999995
 40
0.4999999999999994
 40
0.4999999999999994
 40
0.5312499999999994
 40
0.5312499999999994
 40
0.5624999999999993
 40
0.5624999999999993
 40
0.5937499999999993
 40
0.5937499999999993
 40
0.6249999999999993
 40
0.6249999999999993
 40
0.6874999999999993
 40
0.6874999999999993
 40
0.7187499999999994
 40
0.7187499999999994
 40
0.7499999999999994
 40
0.7499999999999994
 40
0.7812499999999996
 40
0.7812499999999996
 40
0.8124999999999997
 40
0.8124999999999997
 40
0.8437499999999998
 40
0.8437499999999998
 40
0.8749999999999998
 40
0.8749999999999998
 40
0.9062499999999999
 40
0.9062499999999999
 40
0.9375
 40
0.9375
 40
0.96875
 40
0.96875
 40
1.0
 40
1.0
 40
1.03125
 40
1.03125
 10
193.3328112989663
 20
125.4200740679338
 30
0.0
 10
192.9997054834528
 20
125.4200740679338
 30
0.0
 10
192.836214529863
 20
125.4030710865105
 30
0.0
 10
192.515012384494
 20
125.3371604644771
 30
0.0
 10
192.3556000269377
 20
125.2873901871838
 30
0.0
 10
192.0535612997973
 20
125.1600423532967
 30
0.0
 10
191.9105132624356
 20
125.0828386567007
 30
0.0
 10
191.6397800404848
 20
124.903218106658
 30
0.0
 10
191.5127105255182
 20
124.8007680831166
 30
0.0
 10
191.1697025145454
 20
124.4702877829953
 30
0.0
 10
190.9838702531415
 20
124.2108730811267
 30
0.0
 10
190.7960648899829
 20
123.8071710803606
 30
0.0
 10
190.7473248132045
 20
123.6675989688483
 30
0.0
 10
190.6825607610897
 20
123.3901341862438
 30
0.0
 10
190.6663686505556
 20
123.2532990765048
 30
0.0
 10
190.6661492433889
 20
122.9837142224637
 30
0.0
 10
190.6826973374223
 20
122.8501625173111
 30
0.0
 10
190.7471264911259
 20
122.5990939960795
 30
0.0
 10
190.7947849603108
 20
122.4800297001014
 30
0.0
 10
190.9214809281095
 20
122.253974388109
 30
0.0
 10
190.9990545139084
 20
122.1498319226842
 30
0.0
 10
191.1796611400886
 20
121.9592659720246
 30
0.0
 10
191.2842141892043
 20
121.8716407633615
 30
0.0
 10
191.5142228295485
 20
121.7165398121831
 30
0.0
 10
191.6391028879233
 20
121.6490012923839
 30
0.0
 10
191.9090024595531
 20
121.5317964191114
 30
0.0
 10
192.0550988260361
 20
121.4820977087295
 30
0.0
 10
192.3558114498448
 20
121.4036650746588
 30
0.0
 10
192.5117591382022
 20
121.3741992948912
 30
0.0
 10
192.8355390019506
 20
121.3343011757654
 30
0.0
 10
193.0012373457006
 20
121.3243538514885
 30
0.0
 10
193.3292812257079
 20
121.3242740844314
 30
0.0
 10
193.4946067770447
 20
121.3340993482042
 30
0.0
 10
193.818935233055
 20
121.3738855451757
 30
0.0
 10
193.9752880339167
 20
121.4033417499208
 30
0.0
 10
194.277004212146
 20
121.4819437365833
 30
0.0
 10
194.4230947418605
 20
121.5316483112041
 30
0.0
 10
194.6928085192656
 20
121.6487044386477
 30
0.0
 10
194.8179898529087
 20
121.7163123551313
 30
0.0
 10
195.1646003933363
 20
121.9501083220984
 30
0.0
 10
195.3477432282247
 20
122.1411870935922
 30
0.0
 10
195.537409788364
 20
122.4793844860367
 30
0.0
 10
195.5850475357925
 20
122.5981742485483
 30
0.0
 10
195.6495657707246
 20
122.8487619209708
 30
0.0
 10
195.6662628764664
 20
122.9822438277267
 30
0.0
 10
195.6662539040989
 20
123.2521497673942
 30
0.0
 10
195.6501230681524
 20
123.3891093335049
 30
0.0
 10
195.5854633914838
 20
123.6667432272682
 30
0.0
 10
195.5367930368446
 20
123.8063541434026
 30
0.0
 10
195.4113636645258
 20
124.0761411164478
 30
0.0
 10
195.3336200120356
 20
124.2087567656653
 30
0.0
 10
195.1513205250227
 20
124.4619043678313
 30
0.0
 10
195.0483573717285
 20
124.5806085852248
 30
0.0
 10
194.819156399436
 20
124.8013498317296
 30
0.0
 10
194.691525421328
 20
124.9040889187982
 30
0.0
 10
194.4216797598914
 20
125.082985925429
 30
0.0
 10
194.2788250165043
 20
125.1601206886474
 30
0.0
 10
193.9764274892582
 20
125.2875731001746
 30
0.0
 10
193.8172122583134
 20
125.3372297420116
 30
0.0
 10
193.4963245269953
 20
125.4030571774102
 30
0.0
 10
193.3328112989663
 20
125.4200740679338
 30
0.0
 10
192.9997054834528
 20
125.4200740679338
 30
0.0
  0
SPLINE
  5
107
330
1F
100
AcDbEntity
  8
0
  6
HIDDEN
 62
     7
370
     0
100
AcDbSpline
210
0.0
220
0.0
230
1.0
 70
     8
 71
     3
 72
    74
 73
    70
 74
     0
 42
0.00000001
 43
0.00000001
 12
1.0
 22
0.0
 32
0.0
 13
1.0
 23
0.0
 33
0.0
 40
0.0
 40
0.0
 40
0.0
 40
0.0
 40
0.0156250000000003
 40
0.0156250000000003
 40
0.0312500000000005
 40
0.0312500000000005
 40
0.0625000000000007
 40
0.0625000000000007
 40
0.1250000000000013
 40
0.1250000000000013
 40
0.1562500000000014
 40
0.1562500000000014
 40
0.1875000000000016
 40
0.1875000000000016
 40
0.2187500000000019
 40
0.2187500000000019
 40
0.2500000000000021
 40
0.2500000000000021
 40
0.2812500000000023
 40
0.2812500000000023
 40
0.3125000000000024
 40
0.3125000000000024
 40
0.3437500000000027
 40
0.3437500000000027
 40
0.3750000000000028
 40
0.3750000000000028
 40
0.4062500000000031
 40
0.4062500000000031
 40
0.4375000000000033
 40
0.4375000000000033
 40
0.4531250000000036
 40
0.4531250000000036
 40
0.4687500000000039
 40
0.4687500000000039
 40
0.4843750000000042
 40
0.4843750000000042
 40
0.5000000000000046
 40
0.5000000000000046
 40
0.5312500000000048
 40
0.5312500000000048
 40
0.562500000000005
 40
0.562500000000005
 40
0.6250000000000048
 40
0.6250000000000048
 40
0.6562500000000044
 40
0.6562500000000044
 40
0.6875000000000041
 40
0.6875000000000041
 40
0.7187500000000038
 40
0.7187500000000038
 40
0.7500000000000033
 40
0.7500000000000033
 40
0.781250000000003
 40
0.781250000000003
 40
0.8125000000000027
 40
0.8125000000000027
 40
0.8437500000000023
 40
0.8437500000000023
 40
0.875000000000002
 40
0.875000000000002
 40
0.9062500000000017
 40
0.9062500000000017
 40
0.9375000000000012
 40
0.9375000000000012
 40
0.9687500000000009
 40
0.9687500000000009
 40
0.9843750000000006
 40
0.9843750000000006
 40
1.0
 40
1.0
 40
1.0
 40
1.0
 10
194.7472778374083
 20
121.4346167870143
 30
0.0
 10
194.8185011961511
 20
121.3966354661915
 30
0.0
 10
194.8815124518197
 20
121.3671587707859
 30
0.0
 10
194.9985989572457
 20
121.3126014786986
 30
0.0
 10
195.0524965317651
 20
121.2877711751544
 30
0.0
 10
195.2040984462725
 20
121.2130166605093
 30
0.0
 10
195.2895535884479
 20
121.1637266089992
 30
0.0
 10
195.5095054715901
 20
120.9975942233015
 30
0.0
 10
195.6094322646323
 20
120.8605356212467
 30
0.0
 10
195.6677147503805
 20
120.6038838970491
 30
0.0
 10
195.6719320293702
 20
120.5086718104695
 30
0.0
 10
195.6443554369521
 20
120.3021092163821
 30
0.0
 10
195.6131238473993
 20
120.191915348658
 30
0.0
 10
195.5105219384291
 20
119.9547707990683
 30
0.0
 10
195.440169566354
 20
119.8310051429191
 30
0.0
 10
195.264234445886
 20
119.5794649643804
 30
0.0
 10
195.1563378364197
 20
119.4491233648141
 30
0.0
 10
194.9174798880673
 20
119.1983429335237
 30
0.0
 10
194.7834682134593
 20
119.0744262864155
 30
0.0
 10
194.5030744136217
 20
118.8416004612121
 30
0.0
 10
194.3558884681868
 20
118.7317342241942
 30
0.0
 10
194.0560394535023
 20
118.5273285193705
 30
0.0
 10
193.9062420168528
 20
118.4346039032284
 30
0.0
 10
193.6076833786333
 20
118.2638711870715
 30
0.0
 10
193.4577636904119
 20
118.1854565172677
 30
0.0
 10
193.168903296927
 20
118.0441553333398
 30
0.0
 10
193.0291446383464
 20
117.9809738506019
 30
0.0
 10
192.7630375174624
 20
117.8621885592452
 30
0.0
 10
192.6357021061196
 20
117.8076918133475
 30
0.0
 10
192.4749247600385
 20
117.7165668597039
 30
0.0
 10
192.4267089711537
 20
117.6844751237205
 30
0.0
 10
192.3540317982725
 20
117.6085664521655
 30
0.0
 10
192.3307702055848
 20
117.5638656956168
 30
0.0
 10
192.3251947441199
 20
117.459896967568
 30
0.0
 10
192.3423458892828
 20
117.4022860435989
 30
0.0
 10
192.3985143359413
 20
117.2870791758353
 30
0.0
 10
192.4363077594243
 20
117.2303155075884
 30
0.0
 10
192.5634612321783
 20
117.0639154655209
 30
0.0
 10
192.6668309977544
 20
116.9579535638384
 30
0.0
 10
192.8845047740033
 20
116.7642951741866
 30
0.0
 10
193.0002376456119
 20
116.6757860490869
 30
0.0
 10
193.3623498317122
 20
116.4380566809121
 30
0.0
 10
193.6254460102427
 20
116.3156143338306
 30
0.0
 10
194.0306726921928
 20
116.2216018086088
 30
0.0
 10
194.1698407066974
 20
116.2050144074175
 30
0.0
 10
194.4453184172385
 20
116.2112963324629
 30
0.0
 10
194.581575233597
 20
116.2335767587419
 30
0.0
 10
194.849629212348
 20
116.3288403275111
 30
0.0
 10
194.9753623512459
 20
116.3997827749227
 30
0.0
 10
195.2067925309476
 20
116.5968616306441
 30
0.0
 10
195.3074163700278
 20
116.7194044103985
 30
0.0
 10
195.4732834141758
 20
117.0060824852011
 30
0.0
 10
195.5369650114568
 20
117.1679516075001
 30
0.0
 10
195.6261055782134
 20
117.5102862431236
 30
0.0
 10
195.6515245970539
 20
117.6895099387216
 30
0.0
 10
195.6712711396406
 20
118.0495795366478
 30
0.0
 10
195.665659243771
 20
118.2339983096376
 30
0.0
 10
195.6299915217476
 20
118.5951277749978
 30
0.0
 10
195.6001921922831
 20
118.7728600065805
 30
0.0
 10
195.5205462854521
 20
119.1236960655008
 30
0.0
 10
195.4703066341829
 20
119.2977505898558
 30
0.0
 10
195.3524364944248
 20
119.6359195855144
 30
0.0
 10
195.2850394069106
 20
119.8000949351958
 30
0.0
 10
195.1314249214219
 20
120.1191388817347
 30
0.0
 10
195.045399017496
 20
120.2749021318628
 30
0.0
 10
194.8934409187791
 20
120.4972842639203
 30
0.0
 10
194.8392404851862
 20
120.569038791346
 30
0.0
 10
194.7179984729068
 20
120.7048829238814
 30
0.0
 10
194.6510209721804
 20
120.7685229297941
 30
0.0
 10
194.5764437796283
 20
120.8209900772088
 30
0.0
  0
SPLINE
  5
108
330
1F
100
AcDbEntity
  8
0
  6
HIDDEN
 62
     7
370
     0
100
AcDbSpline
210
0.0
220
0.0
230
1.0
 70
     8
 71
     3
 72
    10
 73
     6
 74
     0
 42
0.00000001
 43
0.00000001
 12
1.0
 22
0.0
 32
0.0
 13
1.0
 23
0.0
 33
0.0
 40
0.0
 40
0.0
 40
0.0
 40
0.0
 40
0.5
 40
0.5
 40
1.0
 40
1.0
 40
1.0
 40
1.0
 10
194.5764437796284
 20
120.8209900772089
 30
0.0
 10
194.580244837991
 20
120.9396426067422
 30
0.0
 10
194.596372517338
 20
121.0518870212089
 30
0.0
 10
194.654990869122
 20
121.2586593105709
 30
0.0
 10
194.6968735485364
 20
121.3516998922761
 30
0.0
 10
194.7472778374082
 20
121.4346167870143
 30
0.0
  0
CIRCLE
  5
109
330
1F
100
AcDbEntity
  8
0
  6
HIDDEN
 62
     7
370
     0
100
AcDbCircle
 10
161.1662583912
 20
127.2755701953
 30
0.0
 40
3.050000000000011
  0
ARC
  5
10A
330
1F
100
AcDbEntity
  8
0
  6
HIDDEN
 62
     7
370
     0
100
AcDbCircle
 10
193.0540462076
 20
121.5754210487
 30
0.0
 40
1.699076415155055
100
AcDbArc
 50
333.6390830783
 51
355.2463854053
  0
LINE
  5
10B
330
1F
100
AcDbEntity
  8
0
  6
HIDDEN
 62
     7
370
     0
100
AcDbLine
 10
150.1942982788
 20
138.0642455929
 30
0.0
 11
150.1942982788
 21
116.4868947977
 31
0.0
  0
LINE
  5
10C
330
1F
100
AcDbEntity
  8
0
  6
HIDDEN
 62
     7
370
     0
100
AcDbLine
 10
146.1942976231
 20
138.4454433733
 30
0.0
 11
146.1942976231
 21
116.1056970173
 31
0.0
  0
LINE
  5
10D
330
1F
100
AcDbEntity
  8
0
  6
HIDDEN
 62
     7
370
     0
100
AcDbLine
 10
145.1662590618
 20
115.5121576899
 30
0.0
 11
145.1662590618
 21
139.0233849102
 31
0.0
  0
LINE
  5
10E
330
1F
100
AcDbEntity
  8
0
  6
HIDDEN
 62
     7
370
     0
100
AcDbLine
 10
154.7942979152
 20
137.7755700537
 30
0.0
 11
154.7942979152
 21
116.7755703369
 31
0.0
  0
LINE
  5
10F
330
1F
100
AcDbEntity
  8
0
  6
HIDDEN
 62
     7
370
     0
100
AcDbLine
 10
148.6942989642
 20
137.7755700537
 30
0.0
 11
148.6942989642
 21
116.7755703369
 31
0.0
  0
LINE
  5
110
330
1F
100
AcDbEntity
  8
0
  6
HIDDEN
 62
     7
370
     0
100
AcDbLine
 10
149.6942991281
 20
137.7755700537
 30
0.0
 11
149.6942991281
 21
116.7755703369
 31
0.0
  0
LINE
  5
111
330
1F
100
AcDbEntity
  8
0
  6
HIDDEN
 62
     7
370
     0
100
AcDbLine
 10
165.1662586147
 20
137.2755699718
 30
0.0
 11
165.1662586147
 21
117.2755704188
 31
0.0
  0
SPLINE
  5
112
330
1F
100
AcDbEntity
  8
0
  6
HIDDEN
 62
     7
370
     0
100
AcDbSpline
210
0.0
220
0.0
230
1.0
 70
     8
 71
     3
 72
    66
 73
    62
 74
     0
 42
0.00000001
 43
0.00000001
 12
1.0
 22
0.0
 32
0.0
 13
1.0
 23
0.0
 33
0.0
 40
-0.0312499999999999
 40
-0.0312499999999999
 40
0.0
 40
0.0
 40
0.0312499999999998
 40
0.0312499999999998
 40
0.0624999999999996
 40
0.0624999999999996
 40
0.0937499999999995
 40
0.0937499999999995
 40
0.1249999999999993
 40
0.1249999999999993
 40
0.1874999999999991
 40
0.1874999999999991
 40
0.218749999999999
 40
0.218749999999999
 40
0.249999999999999
 40
0.249999999999999
 40
0.281249999999999
 40
0.281249999999999
 40
0.3124999999999989
 40
0.3124999999999989
 40
0.3437499999999989
 40
0.3437499999999989
 40
0.3749999999999989
 40
0.3749999999999989
 40
0.4062499999999989
 40
0.4062499999999989
 40
0.4374999999999989
 40
0.4374999999999989
 40
0.4687499999999989
 40
0.4687499999999989
 40
0.4999999999999989
 40
0.4999999999999989
 40
0.5312499999999988
 40
0.5312499999999988
 40
0.5624999999999988
 40
0.5624999999999988
 40
0.5937499999999987
 40
0.5937499999999987
 40
0.6249999999999988
 40
0.6249999999999988
 40
0.656249999999999
 40
0.656249999999999
 40
0.6874999999999991
 40
0.6874999999999991
 40
0.7187499999999993
 40
0.7187499999999993
 40
0.7499999999999994
 40
0.7499999999999994
 40
0.7812499999999996
 40
0.7812499999999996
 40
0.8124999999999998
 40
0.8124999999999998
 40
0.875
 40
0.875
 40
0.9062500000000002
 40
0.9062500000000002
 40
0.9375000000000001
 40
0.9375000000000001
 40
0.9687500000000001
 40
0.9687500000000001
 40
1.0
 40
1.0
 40
1.03125
 40
1.03125
 10
160.9635797442616
 20
130.3255701953051
 30
0.0
 10
161.3689370381572
 20
130.3255701953051
 30
0.0
 10
161.5679969294931
 20
130.3055706356885
 30
0.0
 10
161.9592509140728
 20
130.2274271329883
 30
0.0
 10
162.1535236728204
 20
130.1682660314676
 30
0.0
 10
162.5222870993717
 20
130.0148343445732
 30
0.0
 10
162.69701225775
 20
129.921107534731
 30
0.0
 10
163.0276895612838
 20
129.6998534323262
 30
0.0
 10
163.1833371052867
 20
129.5718720653316
 30
0.0
 10
163.6028044749553
 20
129.1523169683315
 30
0.0
 10
163.8296926164856
 20
128.8138384096281
 30
0.0
 10
164.0584892398703
 20
128.26395952191
 30
0.0
 10
164.1176814947192
 20
128.0705596761665
 30
0.0
 10
164.1964889049798
 20
127.6763315258086
 30
0.0
 10
164.2161283212602
 20
127.4776926983762
 30
0.0
 10
164.2163871856817
 20
127.0773924124779
 30
0.0
 10
164.1963165010488
 20
126.8740530857568
 30
0.0
 10
164.1179788184188
 20
126.4819615651492
 30
0.0
 10
164.0600290503804
 20
126.2912556968339
 30
0.0
 10
163.9060859085004
 20
125.9205318802474
 30
0.0
 10
163.8111472947777
 20
125.7438052204386
 30
0.0
 10
163.5907898789005
 20
125.4145521095142
 30
0.0
 10
163.4635098529723
 20
125.2594308859178
 30
0.0
 10
163.1817542616417
 20
124.9777541909874
 30
0.0
 10
163.0289659321842
 20
124.852321006083
 30
0.0
 10
162.6995388500273
 20
124.6315454127289
 30
0.0
 10
162.5209928468756
 20
124.5357141600287
 30
0.0
 10
162.1534205213254
 20
124.3828850295336
 30
0.0
 10
161.9632664946144
 20
124.3247132715894
 30
0.0
 10
161.569726071912
 20
124.2457199792445
 30
0.0
 10
161.3672920006508
 20
124.2256568536022
 30
0.0
 10
160.9678629252854
 20
124.2254841074835
 30
0.0
 10
160.7678439467295
 20
124.2449674815728
 30
0.0
 10
160.3717279992801
 20
124.323959053174
 30
0.0
 10
160.1809951710883
 20
124.3822392730259
 30
0.0
 10
159.8133637305086
 20
124.534806893634
 30
0.0
 10
159.6348772983408
 20
124.6304156804072
 30
0.0
 10
159.3046720393768
 20
124.8514277254922
 30
0.0
 10
159.1517834613148
 20
124.9768776242624
 30
0.0
 10
158.8701870667767
 20
125.2581081132677
 30
0.0
 10
158.7425561439012
 20
125.4134909911816
 30
0.0
 10
158.5222307089014
 20
125.7423418492246
 30
0.0
 10
158.428004251936
 20
125.9172299556386
 30
0.0
 10
158.273069731333
 20
126.2893738069994
 30
0.0
 10
158.2150574457307
 20
126.4801798488083
 30
0.0
 10
158.1366381914526
 20
126.8710528667271
 30
0.0
 10
158.1163241114861
 20
127.0735104281094
 30
0.0
 10
158.1161929951821
 20
127.4756410330288
 30
0.0
 10
158.1358176885414
 20
127.6743650782039
 30
0.0
 10
158.2139841389551
 20
128.0672045493406
 30
0.0
 10
158.273271584295
 20
128.2618488267432
 30
0.0
 10
158.5023524273779
 20
128.8132885801574
 30
0.0
 10
158.729183278272
 20
129.1516281458566
 30
0.0
 10
159.1485219795927
 20
129.571293808508
 30
0.0
 10
159.3038749753427
 20
129.6991398142813
 30
0.0
 10
159.6348428084799
 20
129.9207408889831
 30
0.0
 10
159.8094041086762
 20
130.0143816229601
 30
0.0
 10
160.176977416251
 20
130.1675357436593
 30
0.0
 10
160.3716642778891
 20
130.2270394893053
 30
0.0
 10
160.7641402278256
 20
130.3055622383683
 30
0.0
 10
160.9635797442616
 20
130.3255701953051
 30
0.0
 10
161.3689370381572
 20
130.3255701953051
 30
0.0
  0
SPLINE
  5
113
330
1F
100
AcDbEntity
  8
0
  6
HIDDEN
 62
     7
370
     0
100
AcDbSpline
210
0.0
220
0.0
230
1.0
 70
     8
 71
     3
 72
    66
 73
    62
 74
     0
 42
0.00000001
 43
0.00000001
 12
1.0
 22
0.0
 32
0.0
 13
1.0
 23
0.0
 33
0.0
 40
-0.0312500000000002
 40
-0.0312500000000002
 40
0.0
 40
0.0
 40
0.0312499999999999
 40
0.0312499999999999
 40
0.0624999999999997
 40
0.0624999999999997
 40
0.0937499999999996
 40
0.0937499999999996
 40
0.1249999999999995
 40
0.1249999999999995
 40
0.1874999999999992
 40
0.1874999999999992
 40
0.2187499999999991
 40
0.2187499999999991
 40
0.2499999999999989
 40
0.2499999999999989
 40
0.2812499999999988
 40
0.2812499999999988
 40
0.3124999999999987
 40
0.3124999999999987
 40
0.3437499999999986
 40
0.3437499999999986
 40
0.3749999999999984
 40
0.3749999999999984
 40
0.4062499999999983
 40
0.4062499999999983
 40
0.4374999999999984
 40
0.4374999999999984
 40
0.4687499999999984
 40
0.4687499999999984
 40
0.4999999999999986
 40
0.4999999999999986
 40
0.5312499999999987
 40
0.5312499999999987
 40
0.5624999999999988
 40
0.5624999999999988
 40
0.5937499999999988
 40
0.5937499999999988
 40
0.6249999999999989
 40
0.6249999999999989
 40
0.656249999999999
 40
0.656249999999999
 40
0.6874999999999991
 40
0.6874999999999991
 40
0.7187499999999992
 40
0.7187499999999992
 40
0.7499999999999992
 40
0.7499999999999992
 40
0.7812499999999993
 40
0.7812499999999993
 40
0.8124999999999994
 40
0.8124999999999994
 40
0.8749999999999996
 40
0.8749999999999996
 40
0.9062499999999997
 40
0.9062499999999997
 40
0.9374999999999997
 40
0.9374999999999997
 40
0.9687499999999998
 40
0.9687499999999998
 40
1.0
 40
1.0
 40
1.03125
 40
1.03125
 10
161.3689370381572
 20
130.3255701953051
 30
0.0
 10
160.9635797442616
 20
130.3255701953051
 30
0.0
 10
160.7645198529258
 20
130.3055706356885
 30
0.0
 10
160.3732658683461
 20
130.2274271329883
 30
0.0
 10
160.1789931095984
 20
130.1682660314676
 30
0.0
 10
159.8102296830471
 20
130.0148343445732
 30
0.0
 10
159.6355045246688
 20
129.921107534731
 30
0.0
 10
159.3048272211351
 20
129.6998534323262
 30
0.0
 10
159.1491796771322
 20
129.5718720653316
 30
0.0
 10
158.7297123074636
 20
129.1523169683315
 30
0.0
 10
158.5028241659333
 20
128.8138384096281
 30
0.0
 10
158.2740275425485
 20
128.26395952191
 30
0.0
 10
158.2148352876997
 20
128.0705596761665
 30
0.0
 10
158.1360278774391
 20
127.6763315258086
 30
0.0
 10
158.1163884611587
 20
127.4776926983762
 30
0.0
 10
158.1161295967372
 20
127.0773924124779
 30
0.0
 10
158.1362002813701
 20
126.8740530857568
 30
0.0
 10
158.214537964
 20
126.4819615651492
 30
0.0
 10
158.2724877320385
 20
126.2912556968339
 30
0.0
 10
158.4264308739185
 20
125.9205318802474
 30
0.0
 10
158.5213694876412
 20
125.7438052204386
 30
0.0
 10
158.7417269035184
 20
125.4145521095142
 30
0.0
 10
158.8690069294466
 20
125.2594308859178
 30
0.0
 10
159.1507625207772
 20
124.9777541909874
 30
0.0
 10
159.3035508502347
 20
124.852321006083
 30
0.0
 10
159.6329779323916
 20
124.6315454127289
 30
0.0
 10
159.8115239355433
 20
124.5357141600287
 30
0.0
 10
160.1790962610935
 20
124.3828850295336
 30
0.0
 10
160.3692502878045
 20
124.3247132715894
 30
0.0
 10
160.7627907105069
 20
124.2457199792445
 30
0.0
 10
160.9652247817681
 20
124.2256568536022
 30
0.0
 10
161.3646538571335
 20
124.2254841074835
 30
0.0
 10
161.5646728356894
 20
124.2449674815728
 30
0.0
 10
161.9607887831388
 20
124.323959053174
 30
0.0
 10
162.1515216113306
 20
124.3822392730259
 30
0.0
 10
162.5191530519103
 20
124.534806893634
 30
0.0
 10
162.6976394840781
 20
124.6304156804072
 30
0.0
 10
163.0278447430421
 20
124.8514277254922
 30
0.0
 10
163.180733321104
 20
124.9768776242624
 30
0.0
 10
163.4623297156421
 20
125.2581081132677
 30
0.0
 10
163.5899606385177
 20
125.4134909911816
 30
0.0
 10
163.8102860735174
 20
125.7423418492246
 30
0.0
 10
163.9045125304828
 20
125.9172299556386
 30
0.0
 10
164.0594470510859
 20
126.2893738069994
 30
0.0
 10
164.1174593366881
 20
126.4801798488083
 30
0.0
 10
164.1958785909663
 20
126.8710528667271
 30
0.0
 10
164.2161926709329
 20
127.0735104281094
 30
0.0
 10
164.2163237872368
 20
127.4756410330288
 30
0.0
 10
164.1966990938775
 20
127.6743650782039
 30
0.0
 10
164.1185326434638
 20
128.0672045493406
 30
0.0
 10
164.0592451981239
 20
128.2618488267432
 30
0.0
 10
163.830164355041
 20
128.8132885801574
 30
0.0
 10
163.6033335041468
 20
129.1516281458566
 30
0.0
 10
163.1839948028261
 20
129.571293808508
 30
0.0
 10
163.0286418070762
 20
129.6991398142813
 30
0.0
 10
162.697673973939
 20
129.9207408889831
 30
0.0
 10
162.5231126737426
 20
130.0143816229601
 30
0.0
 10
162.1555393661678
 20
130.1675357436593
 30
0.0
 10
161.9608525045297
 20
130.2270394893053
 30
0.0
 10
161.5683765545933
 20
130.3055622383683
 30
0.0
 10
161.3689370381572
 20
130.3255701953051
 30
0.0
 10
160.9635797442616
 20
130.3255701953051
 30
0.0
  0
LINE
  5
114
330
1F
100
AcDbEntity
  8
0
  6
HIDDEN
 62
     7
370
     0
100
AcDbLine
 10
166.1662587786
 20
134.5255699867
 30
0.0
 11
166.1662587786
 21
120.0255704039
 31
0.0
  0
LINE
  5
115
330
1F
100
AcDbEntity
  8
0
  6
HIDDEN
 62
     7
370
     0
100
AcDbLine
 10
165.1662586147
 20
119.02557024
 30
0.0
 11
165.1662586147
 21
135.509923
 31
0.0
  0
LINE
  5
116
330
1F
100
AcDbEntity
  8
0
  6
HIDDEN
 62
     7
370
     0
100
AcDbLine
 10
199.1662585998
 20
120.0255704039
 30
0.0
 11
199.1662585998
 21
134.5255699867
 31
0.0
  0
LINE
  5
117
330
1F
100
AcDbEntity
  8
0
  6
HIDDEN
 62
     7
370
     0
100
AcDbLine
 10
234.3545311952
 20
103.6494121814
 30
0.0
 11
234.3521805371
 21
103.6943186933
 31
0.0
  0
LINE
  5
118
330
1F
100
AcDbEntity
  8
0
  6
HIDDEN
 62
     7
370
     0
100
AcDbLine
 10
227.9167303706
 20
107.6721985751
 30
0.0
 11
234.3545311952
 21
103.6494121814
 31
0.0
  0
LINE
  5
119
330
1F
100
AcDbEntity
  8
0
  6
HIDDEN
 62
     7
370
     0
100
AcDbLine
 10
227.9143759871
 20
107.717105087
 30
0.0
 11
227.9167303706
 21
107.6721985751
 31
0.0
  0
LINE
  5
11A
330
1F
100
AcDbEntity
  8
0
  6
HIDDEN
 62
     7
370
     0
100
AcDbLine
 10
225.3643998767
 20
98.4232340866
 30
0.0
 11
224.8045334483
 21
109.1061354542
 31
0.0
  0
LINE
  5
11B
330
1F
100
AcDbEntity
  8
0
  6
HIDDEN
 62
     7
370
     0
100
AcDbLine
 10
227.9167303706
 20
107.6721985751
 30
0.0
 11
227.6579121018
 21
107.5197429323
 31
0.0
  0
LINE
  5
11C
330
1F
100
AcDbEntity
  8
0
  6
HIDDEN
 62
     7
370
     0
100
AcDbLine
 10
234.0957129265
 20
103.4969565385
 30
0.0
 11
234.3545311952
 21
103.6494121814
 31
0.0
  0
LINE
  5
11D
330
1F
100
AcDbEntity
  8
0
  6
HIDDEN
 62
     7
370
     0
100
AcDbLine
 10
234.0957129265
 20
103.4969565385
 30
0.0
 11
227.6579121018
 21
107.5197429323
 31
0.0
  0
LINE
  5
11E
330
1F
100
AcDbEntity
  8
0
  6
HIDDEN
 62
     7
370
     0
100
AcDbLine
 10
227.6385331417
 20
107.8894705438
 30
0.0
 11
227.6579121018
 21
107.5197429323
 31
0.0
  0
LINE
  5
11F
330
1F
100
AcDbEntity
  8
0
  6
HIDDEN
 62
     7
370
     0
100
AcDbLine
 10
230.307170924
 20
121.7563216501
 30
0.0
 11
233.3506697679
 21
122.8042812014
 31
0.0
  0
LINE
  5
120
330
1F
100
AcDbEntity
  8
0
  6
HIDDEN
 62
     7
370
     0
100
AcDbLine
 10
225.0590303803
 20
109.3410336339
 30
0.0
 11
225.6248460973
 21
98.5446170831
 31
0.0
  0
ELLIPSE
  5
121
330
1F
100
AcDbEntity
  8
0
  6
HIDDEN
 62
     7
370
     0
100
AcDbEllipse
 10
212.9158550277
 20
61.0375499985
 30
0.0
 11
21.75919211935644
 21
38.05970883280526
 31
0.0
210
0.0
220
0.0
230
1.0
 40
0.373927429
 41
0.4808581322623575
 42
0.4923041143213513
  0
ELLIPSE
  5
122
330
1F
100
AcDbEntity
  8
0
  6
HIDDEN
 62
     7
370
     0
100
AcDbEllipse
 10
230.2648056237
 20
127.2755701953
 30
0.0
 11
-18.08151684771542
 21
25.43571304338339
 31
0.0
210
0.0
220
0.0
230
1.0
 40
0.1000778042
 41
6.223927511738161
 42
7.782958861244827
  0
LINE
  5
123
330
1F
100
AcDbEntity
  8
0
  6
HIDDEN
 62
     7
370
     0
100
AcDbLine
 10
208.2649560536
 20
152.7738057935
 30
0.0
 11
208.2649560536
 21
127.2755701953
 31
0.0
  0
SPLINE
  5
124
330
1F
100
AcDbEntity
  8
0
  6
HIDDEN
 62
     7
370
     0
100
AcDbSpline
210
0.0
220
0.0
230
1.0
 70
     8
 71
     3
 72
    12
 73
     8
 74
     0
 42
0.00000001
 43
0.00000001
 12
1.0
 22
0.0
 32
0.0
 13
1.0
 23
0.0
 33
0.0
 40
0.0
 40
0.0
 40
0.0
 40
0.0
 40
0.25
 40
0.25
 40
0.5000000000000001
 40
0.5000000000000001
 40
1.0
 40
1.0
 40
1.0
 40
1.0
 10
208.3380545184617
 20
101.6209050143753
 30
0.0
 10
208.3167412553062
 20
101.6852980660665
 30
0.0
 10
208.2954525157957
 20
101.749691215722
 30
0.0
 10
208.2680572644479
 20
101.8785381632925
 30
0.0
 10
208.2622043012372
 20
101.9429877969927
 30
0.0
 10
208.2744417642159
 20
102.1363078213961
 30
0.0
 10
208.3261583996166
 20
102.2651885435421
 30
0.0
 10
208.3648572295195
 20
102.3940690547303
 30
0.0
  0
LINE
  5
125
330
1F
100
AcDbEntity
  8
0
  6
HIDDEN
 62
     7
370
     0
100
AcDbLine
 10
233.9050413931
 20
103.6161024982
 30
0.0
 11
234.0957129265
 21
103.4969565385
 31
0.0
  0
LINE
  5
126
330
1F
100
AcDbEntity
  8
0
  6
HIDDEN
 62
     7
370
     0
100
AcDbLine
 10
225.6248460973
 20
98.5446170831
 30
0.0
 11
225.6148995722
 21
98.7344057226
 31
0.0
  0
LINE
  5
127
330
1F
100
AcDbEntity
  8
0
  6
HIDDEN
 62
     7
370
     0
100
AcDbLine
 10
234.4217913116
 20
93.7559147292
 30
0.0
 11
233.4577308858
 21
95.243225705
 31
0.0
  0
CIRCLE
  5
128
330
1F
100
AcDbEntity
  8
0
  6
HIDDEN
 62
     7
370
     0
100
AcDbCircle
 10
229.9060518864
 20
100.9265635309
 30
0.0
 40
2.400000000000006
  0
LINE
  5
129
330
1F
100
AcDbEntity
  8
0
  6
HIDDEN
 62
     7
370
     0
100
AcDbLine
 10
234.0142259265
 20
93.5169410819
 30
0.0
 11
226.6196662451
 21
98.1375769639
 31
0.0
  0
LINE
  5
12A
330
1F
100
AcDbEntity
  8
0
  6
HIDDEN
 62
     7
370
     0
100
AcDbLine
 10
234.0142259265
 20
93.5169410819
 30
0.0
 11
234.4217913116
 21
93.7559147292
 31
0.0
  0
LINE
  5
12B
330
1F
100
AcDbEntity
  8
0
  6
HIDDEN
 62
     7
370
     0
100
AcDbLine
 10
225.0305915142
 20
109.8836761826
 30
0.0
 11
225.6148995722
 21
98.7344057226
 31
0.0
  0
ARC
  5
12C
330
1F
100
AcDbEntity
  8
0
  6
HIDDEN
 62
     7
370
     0
100
AcDbCircle
 10
226.2788780545
 20
109.9490969885
 30
0.0
 40
1.250000000000012
100
AcDbArc
 50
3.0
 51
183.0
  0
LINE
  5
12D
330
1F
100
AcDbEntity
  8
0
  6
HIDDEN
 62
     7
370
     0
100
AcDbLine
 10
227.6579121018
 20
107.5197429323
 30
0.0
 11
227.5271655882
 21
110.0145176911
 31
0.0
  0
LINE
  5
12E
330
1F
100
AcDbEntity
  8
0
  6
HIDDEN
 62
     7
370
     0
100
AcDbLine
 10
233.9050413931
 20
103.6161024982
 30
0.0
 11
227.6579121018
 21
107.5197429323
 31
0.0
  0
ELLIPSE
  5
12F
330
1F
100
AcDbEntity
  8
0
  6
HIDDEN
 62
     7
370
     0
100
AcDbEllipse
 10
212.9158550277
 20
75.876268891
 30
0.0
 11
-1.563194018672220E-12
 21
26.19525546193009
 31
0.0
210
-7.242070191401014E-15
220
-4.321683681403703E-28
230
1.0
 40
0.9925461516
 41
5.728036697400242
 42
5.772901642091423
  0
LINE
  5
130
330
1F
100
AcDbEntity
  8
0
  6
HIDDEN
 62
     7
370
     0
100
AcDbLine
 10
233.9050413931
 20
103.6161024982
 30
0.0
 11
234.4217913116
 21
93.7559147292
 31
0.0
  0
LINE
  5
131
330
1F
100
AcDbEntity
  8
0
  6
HIDDEN
 62
     7
370
     0
100
AcDbLine
 10
233.1901805366
 20
94.788244825
 30
0.0
 11
234.0142259265
 21
93.5169410819
 31
0.0
  0
CIRCLE
  5
132
330
1F
100
AcDbEntity
  8
0
  6
HIDDEN
 62
     7
370
     0
100
AcDbCircle
 10
229.9060518864
 20
100.9265635309
 30
0.0
 40
1.650000000000006
  0
LINE
  5
133
330
1F
100
AcDbEntity
  8
0
  6
HIDDEN
 62
     7
370
     0
100
AcDbLine
 10
146.6662583763
 20
144.1349209213
 30
0.0
 11
146.6662583763
 21
139.3251427376
 31
0.0
  0
LINE
  5
134
330
1F
100
AcDbEntity
  8
0
  6
HIDDEN
 62
     7
370
     0
100
AcDbLine
 10
145.1662590618
 20
143.268895235
 30
0.0
 11
145.1662590618
 21
138.8921298945
 31
0.0
  0
LINE
  5
135
330
1F
100
AcDbEntity
  8
0
  6
HIDDEN
 62
     7
370
     0
100
AcDbLine
 10
172.9662584031
 20
114.8956240082
 30
0.0
 11
172.9662584031
 21
109.7554721796
 31
0.0
  0
SPLINE
  5
136
330
1F
100
AcDbEntity
  8
0
  6
HIDDEN
 62
     7
370
     0
100
AcDbSpline
210
0.0
220
0.0
230
1.0
 70
     8
 71
     3
 72
    18
 73
    14
 74
     0
 42
0.00000001
 43
0.00000001
 12
1.0
 22
0.0
 32
0.0
 13
1.0
 23
0.0
 33
0.0
 40
0.0
 40
0.0
 40
0.0
 40
0.0
 40
0.2500000000000003
 40
0.2500000000000003
 40
0.3750000000000002
 40
0.3750000000000002
 40
0.5000000000000001
 40
0.5000000000000001
 40
0.625
 40
0.625
 40
0.7499999999999999
 40
0.7499999999999999
 40
1.0
 40
1.0
 40
1.0
 40
1.0
 10
173.8449380476498
 20
114.1805234717726
 30
0.0
 10
173.7096524413475
 20
113.596321878041
 30
0.0
 10
173.6084846951046
 20
113.0621041908328
 30
0.0
 10
173.5056233522356
 20
112.3362074199444
 30
0.0
 10
173.4795205067123
 20
112.1063269321645
 30
0.0
 10
173.4446305231675
 20
111.6757559873777
 30
0.0
 10
173.4360442648775
 20
111.4780610818835
 30
0.0
 10
173.4359445553118
 20
111.1167130392057
 30
0.0
 10
173.4444329264604
 20
110.9530630292596
 30
0.0
 10
173.478576305981
 20
110.6598517562906
 30
0.0
 10
173.5043732878348
 20
110.5298556901748
 30
0.0
 10
173.6077744192227
 20
110.1957997976129
 30
0.0
 10
173.7096324113941
 20
110.0500236332481
 30
0.0
 10
173.8449380476498
 20
109.9786603273003
 30
0.0
  0
LINE
  5
137
330
1F
100
AcDbEntity
  8
0
  6
HIDDEN
 62
     7
370
     0
100
AcDbLine
 10
172.9662584031
 20
144.795668211
 30
0.0
 11
172.9662584031
 21
139.6555163824
 31
0.0
  0
SPLINE
  5
138
330
1F
100
AcDbEntity
  8
0
  6
HIDDEN
 62
     7
370
     0
100
AcDbSpline
210
0.0
220
0.0
230
1.0
 70
     8
 71
     3
 72
    18
 73
    14
 74
     0
 42
0.00000001
 43
0.00000001
 12
1.0
 22
0.0
 32
0.0
 13
1.0
 23
0.0
 33
0.0
 40
0.0
 40
0.0
 40
0.0
 40
0.0
 40
0.2499999999999995
 40
0.2499999999999995
 40
0.3749999999999996
 40
0.3749999999999996
 40
0.4999999999999997
 40
0.4999999999999997
 40
0.6249999999999998
 40
0.6249999999999998
 40
0.7499999999999998
 40
0.7499999999999998
 40
1.0
 40
1.0
 40
1.0
 40
1.0
 10
173.8449380476498
 20
144.5724800633099
 30
0.0
 10
173.7096524413475
 20
144.5011273216203
 30
0.0
 10
173.6084846951046
 20
144.3557239150309
 30
0.0
 10
173.5056233522356
 20
144.0262566794253
 30
0.0
 10
173.4795205067123
 20
143.8973231026206
 30
0.0
 10
173.4446305231675
 20
143.6017811032845
 30
0.0
 10
173.4360442648775
 20
143.4373863297625
 30
0.0
 10
173.4359445553118
 20
143.0764247150219
 30
0.0
 10
173.4444329264604
 20
142.8798549228597
 30
0.0
 10
173.478576305981
 20
142.4545001267347
 30
0.0
 10
173.5043732878348
 20
142.2247304769352
 30
0.0
 10
173.6077744192227
 20
141.4921417825027
 30
0.0
 10
173.7096324113941
 20
140.9549050075852
 30
0.0
 10
173.8449380476498
 20
140.3706169188375
 30
0.0
  0
LINE
  5
139
330
1F
100
AcDbEntity
  8
0
  6
HIDDEN
 62
     7
370
     0
100
AcDbLine
 10
146.6662583763
 20
115.225997653
 30
0.0
 11
146.6662583763
 21
110.4162194693
 31
0.0
  0
LINE
  5
13A
330
1F
100
AcDbEntity
  8
0
  6
HIDDEN
 62
     7
370
     0
100
AcDbLine
 10
145.1662590618
 20
115.6590104961
 30
0.0
 11
145.1662590618
 21
111.2822451556
 31
0.0
  0
SPLINE
  5
13B
330
1F
100
AcDbEntity
  8
0
  6
HIDDEN
 62
     7
370
     0
100
AcDbSpline
210
0.0
220
0.0
230
1.0
 70
     8
 71
     3
 72
    12
 73
     8
 74
     0
 42
0.00000001
 43
0.00000001
 12
1.0
 22
0.0
 32
0.0
 13
1.0
 23
0.0
 33
0.0
 40
0.0
 40
0.0
 40
0.0
 40
0.0
 40
0.4999999999999999
 40
0.4999999999999999
 40
0.7499999999999999
 40
0.7499999999999999
 40
1.0
 40
1.0
 40
1.0
 40
1.0
 10
208.3648572295195
 20
102.3940690547303
 30
0.0
 10
208.4660925832944
 20
102.7312178568396
 30
0.0
 10
208.6865112148542
 20
103.0686840758548
 30
0.0
 10
209.1549708466451
 20
103.5752504869719
 30
0.0
 10
209.3339085989158
 20
103.7442605296273
 30
0.0
 10
209.7271839111451
 20
104.0811579464527
 30
0.0
 10
209.9416152064396
 20
104.2492028408133
 30
0.0
 10
210.1700032910138
 20
104.4169309957156
 30
0.0
  0
SPLINE
  5
13C
330
1F
100
AcDbEntity
  8
0
  6
HIDDEN
 62
     7
370
     0
100
AcDbSpline
210
0.0
220
0.0
230
1.0
 70
     8
 71
     3
 72
     8
 73
     4
 74
     0
 42
0.00000001
 43
0.00000001
 12
1.0
 22
0.0
 32
0.0
 13
1.0
 23
0.0
 33
0.0
 40
0.0
 40
0.0
 40
0.0
 40
0.0
 40
1.0
 40
1.0
 40
1.0
 40
1.0
 10
210.0632576402684
 20
107.8113209987321
 30
0.0
 10
210.0985353560591
 20
106.6246981576111
 30
0.0
 10
210.1341243434454
 20
105.4935939886394
 30
0.0
 10
210.1700032910138
 20
104.4169309957156
 30
0.0
  0
ELLIPSE
  5
13D
330
1F
100
AcDbEntity
  8
0
  6
HIDDEN
 62
     7
370
     0
100
AcDbEllipse
 10
181.9184646405
 20
125.2755701953
 30
0.0
 11
53.17719480370405
 21
-32.8713128159002
 31
0.0
210
0.0
220
0.0
230
1.0
 40
0.0547507893
 41
0.3044125800582329
 42
0.6071092785698237
  0
ELLIPSE
  5
13E
330
1F
100
AcDbEntity
  8
0
  6
HIDDEN
 62
     7
370
     0
100
AcDbEllipse
 10
291.3206772366
 20
125.2755701953
 30
0.0
 11
58.39324670794105
 21
32.26196341354074
 31
0.0
210
0.0
220
0.0
230
1.0
 40
0.1188519716
 41
2.926141505771225
 42
2.960727776683037
  0
LINE
  5
13F
330
1F
100
AcDbEntity
  8
0
  6
HIDDEN
 62
     7
370
     0
100
AcDbLine
 10
212.9158543313
 20
104.4169318789
 30
0.0
 11
210.170002457
 21
104.4169318789
 31
0.0
  0
SPLINE
  5
140
330
1F
100
AcDbEntity
  8
0
  6
HIDDEN
 62
     7
370
     0
100
AcDbSpline
210
0.0
220
0.0
230
1.0
 70
     8
 71
     3
 72
    20
 73
    16
 74
     0
 42
0.00000001
 43
0.00000001
 12
1.0
 22
0.0
 32
0.0
 13
1.0
 23
0.0
 33
0.0
 40
0.0
 40
0.0
 40
0.0
 40
0.0
 40
0.2500000000000019
 40
0.2500000000000019
 40
0.3750000000000033
 40
0.3750000000000033
 40
0.4375000000000034
 40
0.4375000000000034
 40
0.5000000000000034
 40
0.5000000000000034
 40
0.7500000000000018
 40
0.7500000000000018
 40
0.8750000000000009
 40
0.8750000000000009
 40
1.0
 40
1.0
 40
1.0
 40
1.0
 10
226.6196645731678
 20
99.93933599383402
 30
0.0
 10
225.7594309859374
 20
100.5695989690232
 30
0.0
 10
224.8173473845966
 20
101.1680766744409
 30
0.0
 10
223.2749589171808
 20
101.9859250234343
 30
0.0
 10
222.7392160881018
 20
102.2452312687924
 30
0.0
 10
221.9014732484993
 20
102.6098678955457
 30
0.0
 10
221.6165622953093
 20
102.7272849166929
 30
0.0
 10
221.0423524496661
 20
102.9505584352849
 30
0.0
 10
220.7521863758594
 20
103.0568053793169
 30
0.0
 10
219.2862433599843
 20
103.5604012735133
 30
0.0
 10
218.0655776755576
 20
103.8752803851963
 30
0.0
 10
216.1612910756213
 20
104.198030936324
 30
0.0
 10
215.5142721202959
 20
104.2802331285648
 30
0.0
 10
214.2198931570713
 20
104.3893826634673
 30
0.0
 10
213.569495972305
 20
104.4169309957156
 30
0.0
 10
212.915855027743
 20
104.4169309957156
 30
0.0
  0
ELLIPSE
  5
141
330
1F
100
AcDbEntity
  8
0
  6
HIDDEN
 62
     7
370
     0
100
AcDbEllipse
 10
233.5654219153
 20
125.2755701953
 30
0.0
 11
-1.755890694273177
 21
32.99929771149286
 31
0.0
210
0.0
220
0.0
230
1.0
 40
0.1226111485
 41
2.121952917080423
 42
2.707727827784518
  0
LINE
  5
142
330
1F
100
AcDbEntity
  8
0
  6
HIDDEN
 62
     7
370
     0
100
AcDbLine
 10
145.1662590618
 20
138.8921298945
 30
0.0
 11
145.1662590618
 21
129.6147412082
 31
0.0
  0
LINE
  5
143
330
1F
100
AcDbEntity
  8
0
  6
HIDDEN
 62
     7
370
     0
100
AcDbLine
 10
145.1662590618
 20
124.9363991824
 30
0.0
 11
145.1662590618
 21
115.6590104961
 31
0.0
  0
LINE
  5
144
330
1F
100
AcDbEntity
  8
0
  6
HIDDEN
 62
     7
370
     0
100
AcDbLine
 10
146.6662583763
 20
124.1270931364
 30
0.0
 11
146.6662583763
 21
115.225997653
 31
0.0
  0
LINE
  5
145
330
1F
100
AcDbEntity
  8
0
  6
HIDDEN
 62
     7
370
     0
100
AcDbLine
 10
146.6662583763
 20
139.3251427376
 30
0.0
 11
146.6662583763
 21
130.4240472542
 31
0.0
  0
LINE
  5
146
330
1F
100
AcDbEntity
  8
0
  6
HIDDEN
 62
     7
370
     0
100
AcDbLine
 10
172.9662584031
 20
139.6555163824
 30
0.0
 11
172.9662584031
 21
114.8956240082
 31
0.0
  0
LINE
  5
147
330
1F
100
AcDbEntity
  8
0
  6
HIDDEN
 62
     7
370
     0
100
AcDbLine
 10
174.9662583963
 20
138.8378440329
 30
0.0
 11
174.9662583963
 21
115.7132963577
 31
0.0
  0
CIRCLE
  5
148
330
1F
100
AcDbEntity
  8
0
  6
HIDDEN
 62
     7
370
     0
100
AcDbCircle
 10
229.9060518864
 20
100.9265635309
 30
0.0
 40
1.650000000000006
  0
SPLINE
  5
149
330
1F
100
AcDbEntity
  8
0
  6
HIDDEN
 62
     7
370
     0
100
AcDbSpline
210
0.0
220
0.0
230
1.0
 70
     8
 71
     3
 72
     8
 73
     4
 74
     0
 42
0.00000001
 43
0.00000001
 12
1.0
 22
0.0
 32
0.0
 13
1.0
 23
0.0
 33
0.0
 40
0.0000202085968836
 40
0.0000202085968836
 40
0.0000202085968836
 40
0.0000202085968836
 40
0.0040218806502652
 40
0.0040218806502652
 40
0.0040218806502652
 40
0.0040218806502652
 10
146.6662583912095
 20
124.1270930769684
 30
0.0
 10
147.9995815170001
 20
124.1030948458047
 30
0.0
 10
149.3329153902227
 20
124.0797671056364
 30
0.0
 10
150.6662583912095
 20
124.057072434856
 30
0.0
  0
SPLINE
  5
14A
330
1F
100
AcDbEntity
  8
0
  6
HIDDEN
 62
     7
370
     0
100
AcDbSpline
210
0.0
220
0.0
230
1.0
 70
     8
 71
     3
 72
     8
 73
     4
 74
     0
 42
0.00000001
 43
0.00000001
 12
1.0
 22
0.0
 32
0.0
 13
1.0
 23
0.0
 33
0.0
 40
0.0000202082942178
 40
0.0000202082942178
 40
0.0000202082942178
 40
0.0000202082942178
 40
0.0040218803475994
 40
0.0040218803475994
 40
0.0040218803475994
 40
0.0040218803475994
 10
150.6662583912095
 20
130.4940679557542
 30
0.0
 10
149.3329153902227
 20
130.4713732849737
 30
0.0
 10
147.9995815170001
 20
130.4480455448054
 30
0.0
 10
146.6662583912095
 20
130.4240473136418
 30
0.0
  0
SPLINE
  5
14B
330
1F
100
AcDbEntity
  8
0
  6
HIDDEN
 62
     7
370
     0
100
AcDbSpline
210
0.0
220
0.0
230
1.0
 70
     8
 71
     3
 72
     8
 73
     4
 74
     0
 42
0.00000001
 43
0.00000001
 12
1.0
 22
0.0
 32
0.0
 13
1.0
 23
0.0
 33
0.0
 40
0.0
 40
0.0
 40
0.0
 40
0.0
 40
1.0
 40
1.0
 40
1.0
 40
1.0
 10
145.1662583912085
 20
124.9363992670707
 30
0.0
 10
145.6404698016465
 20
124.6016700397756
 30
0.0
 10
146.1452061487484
 20
124.3426116259427
 30
0.0
 10
146.6662583912095
 20
124.1270930769684
 30
0.0
  0
SPLINE
  5
14C
330
1F
100
AcDbEntity
  8
0
  6
HIDDEN
 62
     7
370
     0
100
AcDbSpline
210
0.0
220
0.0
230
1.0
 70
     8
 71
     3
 72
     8
 73
     4
 74
     0
 42
0.00000001
 43
0.00000001
 12
1.0
 22
0.0
 32
0.0
 13
1.0
 23
0.0
 33
0.0
 40
0.0
 40
0.0
 40
0.0
 40
0.0
 40
1.0
 40
1.0
 40
1.0
 40
1.0
 10
146.6662583912095
 20
130.4240473136418
 30
0.0
 10
146.1452061487487
 20
130.2085287646676
 30
0.0
 10
145.6404698016471
 20
129.9494703508349
 30
0.0
 10
145.1662583912095
 20
129.6147411235401
 30
0.0
  0
LINE
  5
14D
330
1F
100
AcDbEntity
  8
0
  6
HIDDEN
 62
     7
370
     0
100
AcDbLine
 10
145.1662590618
 20
124.9363991824
 30
0.0
 11
145.1662590618
 21
129.6147412082
 31
0.0
  0
LINE
  5
14E
330
1F
100
AcDbEntity
  8
0
  6
HIDDEN
 62
     7
370
     0
100
AcDbLine
 10
150.666259032
 20
124.0570723472
 30
0.0
 11
150.666259032
 21
130.4940680434
 31
0.0
  0
SPLINE
  5
14F
330
1F
100
AcDbEntity
  8
0
  6
HIDDEN
 62
     7
370
     0
100
AcDbSpline
210
0.0
220
0.0
230
1.0
 70
     8
 71
     3
 72
    26
 73
    22
 74
     0
 42
0.00000001
 43
0.00000001
 12
1.0
 22
0.0
 32
0.0
 13
1.0
 23
0.0
 33
0.0
 40
0.0
 40
0.0
 40
0.0
 40
0.0
 40
0.1250000000000001
 40
0.1250000000000001
 40
0.2500000000000003
 40
0.2500000000000003
 40
0.3750000000000006
 40
0.3750000000000006
 40
0.4375000000000007
 40
0.4375000000000007
 40
0.5000000000000008
 40
0.5000000000000008
 40
0.5625000000000009
 40
0.5625000000000009
 40
0.6250000000000009
 40
0.6250000000000009
 40
0.7500000000000006
 40
0.7500000000000006
 40
0.8750000000000003
 40
0.8750000000000003
 40
1.0
 40
1.0
 40
1.0
 40
1.0
 10
150.6662583912095
 20
124.057072434856
 30
0.0
 10
150.8769017532094
 20
124.2916894658011
 30
0.0
 10
151.0840981909664
 20
124.5295726017605
 30
0.0
 10
151.4855973255987
 20
125.0168869080294
 30
0.0
 10
151.6808737446447
 20
125.2670121328184
 30
0.0
 10
152.0406542373402
 20
125.7856022782694
 30
0.0
 10
152.2059130974896
 20
126.0530332621562
 30
0.0
 10
152.3985710069157
 20
126.4844483945547
 30
0.0
 10
152.4535357471258
 20
126.6344672764791
 30
0.0
 10
152.53127153209
 20
126.9472044552091
 30
0.0
 10
152.5525376703983
 20
127.1049587020163
 30
0.0
 10
152.554431599684
 20
127.4236639818621
 30
0.0
 10
152.5342058626169
 20
127.5861007820427
 30
0.0
 10
152.4597414523311
 20
127.8970527816253
 30
0.0
 10
152.4061023265852
 20
128.047724019953
 30
0.0
 10
152.2113580211845
 20
128.4898077779216
 30
0.0
 10
152.0443079080062
 20
128.7598517910893
 30
0.0
 10
151.6840517893026
 20
129.2799594193707
 30
0.0
 10
151.4892994142822
 20
129.5296206321804
 30
0.0
 10
151.0862901898099
 20
130.0190447440231
 30
0.0
 10
150.8778536714464
 20
130.2583906671871
 30
0.0
 10
150.6662583912104
 20
130.494067955755
 30
0.0
  0
SPLINE
  5
150
330
1F
100
AcDbEntity
  8
0
  6
HIDDEN
 62
     7
370
     0
100
AcDbSpline
210
0.0
220
0.0
230
1.0
 70
     8
 71
     3
 72
    68
 73
    64
 74
     0
 42
0.00000001
 43
0.00000001
 12
1.0
 22
0.0
 32
0.0
 13
1.0
 23
0.0
 33
0.0
 40
-0.03125
 40
-0.03125
 40
0.0
 40
0.0
 40
0.0312500000000001
 40
0.0312500000000001
 40
0.0625000000000002
 40
0.0625000000000002
 40
0.0937500000000002
 40
0.0937500000000002
 40
0.1250000000000003
 40
0.1250000000000003
 40
0.1875000000000002
 40
0.1875000000000002
 40
0.2187500000000001
 40
0.2187500000000001
 40
0.2500000000000001
 40
0.2500000000000001
 40
0.2812500000000001
 40
0.2812500000000001
 40
0.3125000000000001
 40
0.3125000000000001
 40
0.34375
 40
0.34375
 40
0.3749999999999999
 40
0.3749999999999999
 40
0.4062499999999999
 40
0.4062499999999999
 40
0.4374999999999999
 40
0.4374999999999999
 40
0.4687499999999999
 40
0.4687499999999999
 40
0.4999999999999998
 40
0.4999999999999998
 40
0.5312499999999999
 40
0.5312499999999999
 40
0.5624999999999998
 40
0.5624999999999998
 40
0.5937499999999998
 40
0.5937499999999998
 40
0.6249999999999998
 40
0.6249999999999998
 40
0.6562499999999997
 40
0.6562499999999997
 40
0.6874999999999997
 40
0.6874999999999997
 40
0.7187499999999997
 40
0.7187499999999997
 40
0.7499999999999996
 40
0.7499999999999996
 40
0.7812499999999996
 40
0.7812499999999996
 40
0.8124999999999997
 40
0.8124999999999997
 40
0.8437499999999998
 40
0.8437499999999998
 40
0.8749999999999998
 40
0.8749999999999998
 40
0.9062499999999999
 40
0.9062499999999999
 40
0.9375
 40
0.9375
 40
0.96875
 40
0.96875
 40
1.0
 40
1.0
 40
1.03125
 40
1.03125
 10
158.5500846785459
 20
129.1723877719217
 30
0.0
 10
158.8405491608377
 20
129.4908200129222
 30
0.0
 10
158.9994654592192
 20
129.6333375386259
 30
0.0
 10
159.3430461448571
 20
129.8870520757156
 30
0.0
 10
159.5292174977627
 20
129.9986159022245
 30
0.0
 10
159.9137475703485
 20
130.1828649388936
 30
0.0
 10
160.1133580725132
 20
130.2567792049824
 30
0.0
 10
160.5271976574867
 20
130.3684210945426
 30
0.0
 10
160.7400074671579
 20
130.4053451488314
 30
0.0
 10
161.3759389414987
 20
130.4579469694069
 30
0.0
 10
161.8110051621264
 20
130.4157385787467
 30
0.0
 10
162.4232480291141
 20
130.2419039735513
 30
0.0
 10
162.6230931172261
 20
130.1652857457392
 30
0.0
 10
163.0074704259543
 20
129.9751108773963
 30
0.0
 10
163.1880188168168
 20
129.8637514431778
 30
0.0
 10
163.5260787445264
 20
129.6086461744554
 30
0.0
 10
163.6851105609376
 20
129.4631403862627
 30
0.0
 10
163.96990724116
 20
129.1449017320898
 30
0.0
 10
164.0948527700349
 20
128.9738494135707
 30
0.0
 10
164.3091549104486
 20
128.6072888274576
 30
0.0
 10
164.3990536896233
 20
128.4092200936549
 30
0.0
 10
164.5327059787523
 20
128.0046373404455
 30
0.0
 10
164.5777139140664
 20
127.7970221604284
 30
0.0
 10
164.6224933946837
 20
127.3707324039996
 30
0.0
 10
164.6214197336679
 20
127.1540941060512
 30
0.0
 10
164.5733999399524
 20
126.7311340790939
 30
0.0
 10
164.5259869627276
 20
126.5201373938346
 30
0.0
 10
164.3876717139109
 20
126.1143486784027
 30
0.0
 10
164.2979908556887
 20
125.9214020197402
 30
0.0
 10
164.0793081453615
 20
125.5544953967567
 30
0.0
 10
163.9498604275329
 20
125.3809902485347
 30
0.0
 10
163.6633548235034
 20
125.066988150544
 30
0.0
 10
163.5044960052654
 20
124.9238852240897
 30
0.0
 10
163.1594981833125
 20
124.6685543082367
 30
0.0
 10
162.9772810791922
 20
124.5590221306362
 30
0.0
 10
162.5944410025532
 20
124.374095303848
 30
0.0
 10
162.39169677748
 20
124.2982794770065
 30
0.0
 10
161.9798682030167
 20
124.1856989847644
 30
0.0
 10
161.7706494264171
 20
124.1483587651797
 30
0.0
 10
161.3456565921827
 20
124.1111277456496
 30
0.0
 10
161.1284993151095
 20
124.1116937095812
 30
0.0
 10
160.7041214759563
 20
124.1510914134706
 30
0.0
 10
160.4950048281066
 20
124.1895206481048
 30
0.0
 10
160.0830638392127
 20
124.3047256826422
 30
0.0
 10
159.8804957343196
 20
124.3819906131467
 30
0.0
 10
159.4988952918522
 20
124.5696728832786
 30
0.0
 10
159.3175843559731
 20
124.6805862350906
 30
0.0
 10
158.974992459039
 20
124.9385396738214
 30
0.0
 10
158.8161688420848
 20
125.0842553694308
 30
0.0
 10
158.5331240629845
 20
125.4005765271403
 30
0.0
 10
158.4071141309987
 20
125.5726102385394
 30
0.0
 10
158.1900070871837
 20
125.9451528165285
 30
0.0
 10
158.1025717909098
 20
126.1392746018025
 30
0.0
 10
157.9693785103623
 20
126.5430493308821
 30
0.0
 10
157.9234779282577
 20
126.7555462574896
 30
0.0
 10
157.8791613873238
 20
127.1811421183478
 30
0.0
 10
157.8800035748062
 20
127.3939759566169
 30
0.0
 10
157.9278422692273
 20
127.8197156864468
 30
0.0
 10
157.9753781246964
 20
128.03147785186
 30
0.0
 10
158.1121167199244
 20
128.4349673863173
 30
0.0
 10
158.2024002652
 20
128.6307260072703
 30
0.0
 10
158.422111157465
 20
129.0003262340185
 30
0.0
 10
158.5500846785459
 20
129.1723877719217
 30
0.0
 10
158.8405491608377
 20
129.4908200129222
 30
0.0
  0
CIRCLE
  5
151
330
1F
100
AcDbEntity
  8
0
  6
HIDDEN
 62
     7
370
     0
100
AcDbCircle
 10
161.1662583912
 20
127.2755701953
 30
0.0
 40
3.050000000000011
  0
CIRCLE
  5
152
330
1F
100
AcDbEntity
  8
0
  6
HIDDEN
 62
     7
370
     0
100
AcDbCircle
 10
187.1662583912
 20
127.2755701953
 30
0.0
 40
2.0
  0
LINE
  5
153
330
1F
100
AcDbEntity
  8
0
  6
HIDDEN
 62
     7
370
     0
100
AcDbLine
 10
210.0632579888
 20
107.811321404
 30
0.0
 11
231.0379983748
 21
107.811321404
 31
0.0
  0
SPLINE
  5
154
330
1F
100
AcDbEntity
  8
0
  6
HIDDEN
 62
     7
370
     0
100
AcDbSpline
210
0.0
220
0.0
230
1.0
 70
     8
 71
     3
 72
     8
 73
     4
 74
     0
 42
0.00000001
 43
0.00000001
 12
1.0
 22
0.0
 32
0.0
 13
1.0
 23
0.0
 33
0.0
 40
0.0
 40
0.0
 40
0.0
 40
0.0
 40
1.0
 40
1.0
 40
1.0
 40
1.0
 10
210.0632576402684
 20
107.8113209987321
 30
0.0
 10
209.2060587186789
 20
113.0838839403145
 30
0.0
 10
208.5614290525681
 20
118.3883638551652
 30
0.0
 10
208.3648572295195
 20
123.760119021874
 30
0.0
  0
LINE
  5
155
330
1F
100
AcDbEntity
  8
0
  6
HIDDEN
 62
     7
370
     0
100
AcDbLine
 10
230.307170924
 20
121.7563216501
 30
0.0
 11
226.4425510431
 21
127.2755701953
 31
0.0
  0
LINE
  5
156
330
1F
100
AcDbEntity
  8
0
  6
HIDDEN
 62
     7
370
     0
100
AcDbLine
 10
231.0379983748
 20
107.811321404
 30
0.0
 11
230.307170924
 21
121.7563216501
 31
0.0
  0
SPLINE
  5
157
330
1F
100
AcDbEntity
  8
0
  6
HIDDEN
 62
     7
370
     0
100
AcDbSpline
210
0.0
220
0.0
230
1.0
 70
     8
 71
     3
 72
    10
 73
     6
 74
     0
 42
0.00000001
 43
0.00000001
 12
1.0
 22
0.0
 32
0.0
 13
1.0
 23
0.0
 33
0.0
 40
0.0
 40
0.0
 40
0.0
 40
0.0
 40
0.5
 40
0.5
 40
1.0
 40
1.0
 40
1.0
 40
1.0
 10
208.3648572295195
 20
123.760119021874
 30
0.0
 10
208.343418036027
 20
124.3459918933132
 30
0.0
 10
208.3168964441004
 20
124.9318269237017
 30
0.0
 10
208.2774688255957
 20
126.103598359313
 30
0.0
 10
208.2649568070149
 20
126.6895376981264
 30
0.0
 10
208.2649568070149
 20
127.2755701953051
 30
0.0
  0
LINE
  5
158
330
1F
100
AcDbEntity
  8
0
  6
HIDDEN
 62
     7
370
     0
100
AcDbLine
 10
190.1662580559
 20
116.9511944914
 30
0.0
 11
190.1662580559
 21
112.9361688086
 31
0.0
  0
LINE
  5
159
330
1F
100
AcDbEntity
  8
0
  6
HIDDEN
 62
     7
370
     0
100
AcDbLine
 10
196.1662581081
 20
112.9368347043
 30
0.0
 11
196.1662581081
 21
116.9511944914
 31
0.0
  0
LINE
  5
15A
330
1F
100
AcDbEntity
  8
0
  6
HIDDEN
 62
     7
370
     0
100
AcDbLine
 10
175.1662583912
 20
107.7255708092
 30
0.0
 11
175.2591516116
 21
107.8184627855
 31
0.0
  0
LINE
  5
15B
330
1F
100
AcDbEntity
  8
0
  6
HIDDEN
 62
     7
370
     0
100
AcDbLine
 10
175.2591516116
 20
146.7326776051
 30
0.0
 11
175.1662583912
 21
146.8255695814
 31
0.0
  0
ARC
  5
15C
330
1F
100
AcDbEntity
  8
0
  6
HIDDEN
 62
     7
370
     0
100
AcDbCircle
 10
174.5520448288
 20
108.5255701953
 30
0.0
 40
1.0
100
AcDbArc
 50
315.0
 51
0.0
  0
ARC
  5
15D
330
1F
100
AcDbEntity
  8
0
  6
HIDDEN
 62
     7
370
     0
100
AcDbCircle
 10
174.5520448288
 20
108.5255701953
 30
0.0
 40
1.0
100
AcDbArc
 50
0.0
 51
52.1052014664
  0
ARC
  5
15E
330
1F
100
AcDbEntity
  8
0
  6
HIDDEN
 62
     7
370
     0
100
AcDbCircle
 10
174.5520448288
 20
146.0255701953
 30
0.0
 40
0.9999999999999736
100
AcDbArc
 50
351.8087250651
 51
45.0
  0
ARC
  5
15F
330
1F
100
AcDbEntity
  8
0
  6
HIDDEN
 62
     7
370
     0
100
AcDbCircle
 10
174.5520448288
 20
146.0255701953
 30
0.0
 40
0.9999999999999765
100
AcDbArc
 50
307.8947985336
 51
351.8087250651
  0
LINE
  5
160
330
1F
100
AcDbEntity
  8
0
  6
HIDDEN
 62
     7
370
     0
100
AcDbLine
 10
175.552044827
 20
108.5255694502
 30
0.0
 11
175.552044827
 21
146.0255709404
 31
0.0
  0
LINE
  5
161
330
1F
100
AcDbEntity
  8
0
  6
HIDDEN
 62
     7
370
     0
100
AcDbLine
 10
175.552044827
 20
108.5255694502
 30
0.0
 11
175.552044827
 21
146.0255709404
 31
0.0
  0
LINE
  5
162
330
1F
100
AcDbEntity
  8
0
  6
HIDDEN
 62
     7
370
     0
100
AcDbLine
 10
190.6662581379
 20
123.1172563435
 30
0.0
 11
190.6662581379
 21
117.1235143134
 31
0.0
  0
LINE
  5
163
330
1F
100
AcDbEntity
  8
0
  6
HIDDEN
 62
     7
370
     0
100
AcDbLine
 10
195.6662589575
 20
120.523282692
 30
0.0
 11
195.6662589575
 21
123.117184166
 31
0.0
  0
LINE
  5
164
330
1F
100
AcDbEntity
  8
0
  6
HIDDEN
 62
     7
370
     0
100
AcDbLine
 10
195.6662589575
 20
117.1235143134
 30
0.0
 11
195.6662589575
 21
118.0524303505
 31
0.0
  0
LINE
  5
165
330
1F
100
AcDbEntity
  8
0
  6
HIDDEN
 62
     7
370
     0
100
AcDbLine
 10
202.5583365823
 20
116.3189866507
 30
0.0
 11
195.3053844983
 21
121.1489945577
 31
0.0
  0
LINE
  5
166
330
1F
100
AcDbEntity
  8
0
  6
HIDDEN
 62
     7
370
     0
100
AcDbLine
 10
193.1043693686
 20
116.6075038651
 30
0.0
 11
202.7289045865
 21
110.1981689149
 31
0.0
  0
ARC
  5
167
330
1F
100
AcDbEntity
  8
0
  6
HIDDEN
 62
     7
370
     0
100
AcDbCircle
 10
151.6662583912
 20
116.7755701953
 30
0.0
 40
1.50000000000002
100
AcDbArc
 50
191.0958032831
 51
270.0
  0
ARC
  5
168
330
1F
100
AcDbEntity
  8
0
  6
HIDDEN
 62
     7
370
     0
100
AcDbCircle
 10
151.6662583912
 20
137.7755701953
 30
0.0
 40
1.500000000000014
100
AcDbArc
 50
90.0
 51
168.9041967169
  0
ARC
  5
169
330
1F
100
AcDbEntity
  8
0
  6
HIDDEN
 62
     7
370
     0
100
AcDbCircle
 10
152.6729779033
 20
116.7755701953
 30
0.0
 40
1.500000000000014
100
AcDbArc
 50
270.0
 51
315.0
  0
ARC
  5
16A
330
1F
100
AcDbEntity
  8
0
  6
HIDDEN
 62
     7
370
     0
100
AcDbCircle
 10
152.6729779033
 20
137.7755701953
 30
0.0
 40
1.500000000000012
100
AcDbArc
 50
45.0
 51
90.0
  0
LINE
  5
16B
330
1F
100
AcDbEntity
  8
0
  6
HIDDEN
 62
     7
370
     0
100
AcDbLine
 10
151.6662591959
 20
115.275570091
 30
0.0
 11
152.6729779208
 21
115.275570091
 31
0.0
  0
LINE
  5
16C
330
1F
100
AcDbEntity
  8
0
  6
HIDDEN
 62
     7
370
     0
100
AcDbLine
 10
152.6729779208
 20
139.2755702996
 30
0.0
 11
151.6662591959
 21
139.2755702996
 31
0.0
  0
LINE
  5
16D
330
1F
100
AcDbEntity
  8
0
  6
HIDDEN
 62
     7
370
     0
100
AcDbLine
 10
145.1662590618
 20
115.5121576899
 30
0.0
 11
146.1942976231
 21
116.1056970173
 31
0.0
  0
LINE
  5
16E
330
1F
100
AcDbEntity
  8
0
  6
HIDDEN
 62
     7
370
     0
100
AcDbLine
 10
146.1942976231
 20
138.4454433733
 30
0.0
 11
145.1662590618
 21
139.0389827007
 31
0.0
  0
LINE
  5
16F
330
1F
100
AcDbEntity
  8
0
  6
HIDDEN
 62
     7
370
     0
100
AcDbLine
 10
153.7336388493
 20
115.7149103397
 30
0.0
 11
154.7942979152
 21
116.7755703369
 31
0.0
  0
LINE
  5
170
330
1F
100
AcDbEntity
  8
0
  6
HIDDEN
 62
     7
370
     0
100
AcDbLine
 10
154.7942979152
 20
137.7755700537
 30
0.0
 11
153.7336388493
 21
138.8362300509
 31
0.0
  0
LINE
  5
171
330
1F
100
AcDbEntity
  8
0
  6
HIDDEN
 62
     7
370
     0
100
AcDbLine
 10
146.1942976231
 20
116.1056970173
 30
0.0
 11
148.6942989642
 21
116.7755703369
 31
0.0
  0
LINE
  5
172
330
1F
100
AcDbEntity
  8
0
  6
HIDDEN
 62
     7
370
     0
100
AcDbLine
 10
148.6942989642
 20
137.7755700537
 30
0.0
 11
146.1942976231
 21
138.4454433733
 31
0.0
  0
LINE
  5
173
330
1F
100
AcDbEntity
  8
0
  6
HIDDEN
 62
     7
370
     0
100
AcDbLine
 10
150.1942982788
 20
138.0642455929
 30
0.0
 11
149.6942991281
 21
137.7755700537
 31
0.0
  0
LINE
  5
174
330
1F
100
AcDbEntity
  8
0
  6
HIDDEN
 62
     7
370
     0
100
AcDbLine
 10
149.6942991281
 20
116.7755703369
 30
0.0
 11
150.1942982788
 21
116.4868947977
 31
0.0
  0
ARC
  5
175
330
1F
100
AcDbEntity
  8
0
  6
HIDDEN
 62
     7
370
     0
100
AcDbCircle
 10
164.6662583912
 20
117.2755701953
 30
0.0
 40
0.5
100
AcDbArc
 50
270.0
 51
0.0
  0
ARC
  5
176
330
1F
100
AcDbEntity
  8
0
  6
HIDDEN
 62
     7
370
     0
100
AcDbCircle
 10
164.6662583912
 20
137.2755701953
 30
0.0
 40
0.5
100
AcDbArc
 50
0.0
 51
90.0
  0
LINE
  5
177
330
1F
100
AcDbEntity
  8
0
  6
HIDDEN
 62
     7
370
     0
100
AcDbLine
 10
154.7942979152
 20
116.7755703369
 30
0.0
 11
164.6662585328
 21
116.7755703369
 31
0.0
  0
LINE
  5
178
330
1F
100
AcDbEntity
  8
0
  6
HIDDEN
 62
     7
370
     0
100
AcDbLine
 10
164.6662585328
 20
137.7755700537
 30
0.0
 11
154.7942979152
 21
137.7755700537
 31
0.0
  0
LINE
  5
179
330
1F
100
AcDbEntity
  8
0
  6
HIDDEN
 62
     7
370
     0
100
AcDbLine
 10
148.6942989642
 20
116.7755703369
 30
0.0
 11
149.6942991281
 21
116.7755703369
 31
0.0
  0
LINE
  5
17A
330
1F
100
AcDbEntity
  8
0
  6
HIDDEN
 62
     7
370
     0
100
AcDbLine
 10
149.6942991281
 20
137.7755700537
 30
0.0
 11
148.6942989642
 21
137.7755700537
 31
0.0
  0
LINE
  5
17B
330
1F
100
AcDbEntity
  8
0
  6
HIDDEN
 62
     7
370
     0
100
AcDbLine
 10
165.1662586147
 20
119.02557024
 30
0.0
 11
166.1662587786
 21
120.0255704039
 31
0.0
  0
LINE
  5
17C
330
1F
100
AcDbEntity
  8
0
  6
HIDDEN
 62
     7
370
     0
100
AcDbLine
 10
166.1662587786
 20
134.5255699867
 30
0.0
 11
165.1662586147
 21
135.5255701506
 31
0.0
  0
LINE
  5
17D
330
1F
100
AcDbEntity
  8
0
  6
HIDDEN
 62
     7
370
     0
100
AcDbLine
 10
199.1662585998
 20
134.5255699867
 30
0.0
 11
166.1662587786
 21
134.5255699867
 31
0.0
  0
LINE
  5
17E
330
1F
100
AcDbEntity
  8
0
  6
HIDDEN
 62
     7
370
     0
100
AcDbLine
 10
166.1662587786
 20
120.0255704039
 30
0.0
 11
199.1662585998
 21
120.0255704039
 31
0.0
  0
LINE
  5
17F
330
1F
100
AcDbEntity
  8
0
  6
HIDDEN
 62
     7
370
     0
100
AcDbLine
 10
199.1662585998
 20
120.0255704039
 30
0.0
 11
203.5224975908
 21
127.2755701953
 31
0.0
  0
LINE
  5
180
330
1F
100
AcDbEntity
  8
0
  6
HIDDEN
 62
     7
370
     0
100
AcDbLine
 10
203.5224975908
 20
127.2755701953
 30
0.0
 11
199.1662585998
 21
134.5255699867
 31
0.0
  0
LINE
  5
181
330
1F
100
AcDbEntity
  8
VERMASSUNG
  6
CENTERX2
100
AcDbLine
 10
235.1662583912
 20
92.2755701953
 30
0.0
 11
235.1662583912
 21
127.2755701953
 31
0.0
  0
LINE
  5
182
330
1F
100
AcDbEntity
  8
VERMASSUNG
  6
CENTERX2
100
AcDbLine
 10
235.1662583912
 20
92.2755701953
 30
0.0
 11
249.5828954425
 21
92.2755701953
 31
0.0
  0
LINE
  5
183
330
1F
100
AcDbEntity
  8
VERMASSUNG
  6
CENTERX2
100
AcDbLine
 10
140.8621098216
 20
127.2755701953
 30
0.0
 11
235.1662583912
 21
127.2755701953
 31
0.0
  0
DIMENSION
  5
184
330
1F
100
AcDbEntity
  8
VERMASSUNG
100
AcDbDimension
  2
_D
 10
235.1662583912
 20
73.3569314326
 30
0.0
 11
190.1662583912
 21
73.3569314326
 31
0.0
 70
   160
  1
<>
 71
     2
 42
-1.0
  3
SLDDIMSTYLE0
100
AcDbAlignedDimension
 13
145.1662583912
 23
111.2822443571
 33
0.0
 14
235.1662583912
 24
92.2755701953
 34
0.0
100
AcDbRotatedDimension
  0
DIMENSION
  5
18F
330
1F
100
AcDbEntity
  8
VERMASSUNG
100
AcDbDimension
  2
_D_1
 10
175.1662583912
 20
82.0632070423
 30
0.0
 11
205.1662583912
 21
82.0632070423
 31
0.0
 70
   160
  1
<>
 71
     2
 42
-1.0
  3
SLDDIMSTYLE1
100
AcDbAlignedDimension
 13
235.1662583912
 23
92.2755701953
 33
0.0
 14
175.1662583912
 24
102.5755701953
 34
0.0
100
AcDbRotatedDimension
  0
DIMENSION
  5
19C
330
1F
100
AcDbEntity
  8
VERMASSUNG
100
AcDbDimension
  2
_D_2
 10
254.5015565923
 20
127.2755701953
 30
0.0
 11
254.5015565923
 21
109.7755701953
 31
0.0
 70
   160
  1
<>
 71
     2
 42
-1.0
  3
SLDDIMSTYLE1
100
AcDbAlignedDimension
 13
235.1662583912
 23
92.2755701953
 33
0.0
 14
235.1662583912
 24
127.2755701953
 34
0.0
 50
90.0
100
AcDbRotatedDimension
  0
DIMENSION
  5
1A8
330
1F
100
AcDbEntity
  8
VERMASSUNG
100
AcDbDimension
  2
_D_3
 10
235.166165066
 20
92.6878253143
 30
0.0
 11
241.8635883324
 21
99.3104144089
 31
0.0
 70
   162
  1
<>
 71
     1
 42
-1.0
  3
SLDDIMSTYLE2
100
AcDb2LineAngularDimension
 13
235.1662583912
 23
92.2755701953
 33
0.0
 14
249.5828954425
 24
92.2755701953
 34
0.0
 15
234.6081849284
 25
103.3347205887
 35
0.0
 16
241.8635883324
 26
99.3104144089
 36
0.0
  0
DIMENSION
  5
1B1
330
1F
100
AcDbEntity
  8
VERMASSUNG
100
AcDbDimension
  2
_D_4
 10
135.1662583912
 20
102.2755701953
 30
0.0
 11
135.1662583912
 21
127.2755701953
 31
0.0
 70
   160
  1
PSC%%c<>
 71
     2
 42
-1.0
  3
SLDDIMSTYLE0
100
AcDbAlignedDimension
 13
175.4662583912
 23
152.2755701953
 33
0.0
 14
175.4662583912
 24
102.2755701953
 34
0.0
 50
90.0
100
AcDbRotatedDimension
  0
SPLINE
  5
1BD
330
1F
100
AcDbEntity
  8
0
  6
Continuous
 62
     7
370
    15
100
AcDbSpline
210
0.0
220
0.0
230
1.0
 70
     8
 71
     3
 72
    10
 73
     6
 74
     0
 42
0.00000001
 43
0.00000001
 12
1.0
 22
0.0
 32
0.0
 13
1.0
 23
0.0
 33
0.0
 40
0.0
 40
0.0
 40
0.0
 40
0.0
 40
0.3327513567288174
 40
0.6676347882051438
 40
1.0
 40
1.0
 40
1.0
 40
1.0
 10
72.24157779598352
 20
92.26171941696379
 30
0.0
 10
72.68796481894611
 20
92.34526506233057
 30
0.0
 10
73.5835990500517
 20
92.51289166436236
 30
0.0
 10
74.94615619413845
 20
92.66625837717254
 30
0.0
 10
75.8386020779459
 20
92.84352555379662
 30
0.0
 10
76.28314095888379
 20
92.93182463585111
 30
0.0
  0
LINE
  5
1BE
330
1F
100
AcDbEntity
  8
0
  6
Continuous
 62
     7
370
    15
100
AcDbLine
 10
72.5797954725
 20
109.3113356197
 30
0.0
 11
72.241577796
 21
109.3703907841
 31
0.0
  0
LINE
  5
1BF
330
1F
100
AcDbEntity
  8
0
  6
Continuous
 62
     7
370
    15
100
AcDbLine
 10
76.2497954198
 20
103.6161024982
 30
0.0
 11
76.2497954198
 21
103.3915736639
 31
0.0
  0
LINE
  5
1C0
330
1F
100
AcDbEntity
  8
0
  6
Continuous
 62
     7
370
    15
100
AcDbLine
 10
76.2497954198
 20
103.2895714903
 30
0.0
 11
76.2497954198
 21
103.280302968
 31
0.0
  0
LINE
  5
1C1
330
1F
100
AcDbEntity
  8
0
  6
Continuous
 62
     7
370
    15
100
AcDbLine
 10
76.2497954198
 20
103.6161024982
 30
0.0
 11
74.7497954067
 21
103.4969565385
 31
0.0
  0
LINE
  5
1C2
330
1F
100
AcDbEntity
  8
0
  6
Continuous
 62
     7
370
    15
100
AcDbLine
 10
72.5797954725
 20
103.6494121814
 30
0.0
 11
72.5797954725
 21
122.8042812014
 31
0.0
  0
LINE
  5
1C3
330
1F
100
AcDbEntity
  8
0
  6
Continuous
 62
     7
370
    15
100
AcDbLine
 10
97.7797949814
 20
121.7563216501
 30
0.0
 11
72.5797954725
 21
122.8042812014
 31
0.0
  0
LINE
  5
1C4
330
1F
100
AcDbEntity
  8
0
  6
Continuous
 62
     7
370
    15
100
AcDbLine
 10
97.7797949814
 20
107.811321404
 30
0.0
 11
97.7797949814
 21
121.7563216501
 31
0.0
  0
ARC
  5
1C5
330
1F
100
AcDbEntity
  8
0
  6
Continuous
 62
     7
370
    15
100
AcDbCircle
 10
69.7797954582
 20
125.2755701953
 30
0.0
 40
33.0
100
AcDbArc
 50
294.4848234717
 51
328.0472535997
  0
LINE
  5
1C6
330
1F
100
AcDbEntity
  8
0
  6
Continuous
 62
     7
370
    15
100
AcDbLine
 10
76.2497954198
 20
93.7559147292
 30
0.0
 11
83.4567178168
 21
95.243225705
 31
0.0
  0
LINE
  5
1C7
330
1F
100
AcDbEntity
  8
0
  6
Continuous
 62
     7
370
    15
100
AcDbLine
 10
82.4100388341
 20
94.788244825
 30
0.0
 11
76.2497954198
 21
93.5169410819
 31
0.0
  0
ARC
  5
1C8
330
1F
100
AcDbEntity
  8
0
  6
Continuous
 62
     7
370
    15
100
AcDbCircle
 10
69.7797954582
 20
125.2755701953
 30
0.0
 40
32.99999999999999
100
AcDbArc
 50
292.5031761194
 51
294.4848234717
  0
LINE
  5
1C9
330
1F
100
AcDbEntity
  8
0
  6
Continuous
 62
     7
370
    15
100
AcDbLine
 10
97.7797949814
 20
121.7563216501
 30
0.0
 11
97.7797949814
 21
127.2755701953
 31
0.0
  0
ARC
  5
1CA
330
1F
100
AcDbEntity
  8
0
  6
Continuous
 62
     7
370
    15
100
AcDbCircle
 10
72.2797954582
 20
127.2755701953
 30
0.0
 40
25.5
100
AcDbArc
 50
0.0
 51
89.3259164553
  0
LINE
  5
1CB
330
1F
100
AcDbEntity
  8
0
  6
Continuous
 62
     7
370
    15
100
AcDbLine
 10
72.5797954725
 20
122.8042812014
 30
0.0
 11
72.5797954725
 21
152.7738057935
 31
0.0
  0
SPLINE
  5
1CC
330
1F
100
AcDbEntity
  8
0
  6
Continuous
 62
     7
370
    15
100
AcDbSpline
210
0.0
220
0.0
230
1.0
 70
     8
 71
     3
 72
    18
 73
    14
 74
     0
 42
0.00000001
 43
0.00000001
 12
1.0
 22
0.0
 32
0.0
 13
1.0
 23
0.0
 33
0.0
 40
0.0
 40
0.0
 40
0.0
 40
0.0
 40
0.25
 40
0.25
 40
0.5
 40
0.5
 40
0.625
 40
0.625
 40
0.75
 40
0.75
 40
0.875
 40
0.875
 40
1.0
 40
1.0
 40
1.0
 40
1.0
 10
72.57899475265148
 20
152.2737797268336
 30
0.0
 10
72.57149840071648
 20
152.2738694493878
 30
0.0
 10
72.51292121218417
 20
152.2747219897882
 30
0.0
 10
72.29440102806801
 20
152.2758046889674
 30
0.0
 10
72.13870465643572
 20
152.2759674139899
 30
0.0
 10
71.8396047704665
 20
152.27189340663
 30
0.0
 10
71.72933752031831
 20
152.2697868830067
 30
0.0
 10
71.4938646893401
 20
152.2634909691453
 30
0.0
 10
71.36790139490854
 20
152.2592954389047
 30
0.0
 10
71.09922932980854
 20
152.2480418680658
 30
0.0
 10
70.95662399220863
 20
152.240960724504
 30
0.0
 10
70.66382584937658
 20
152.2237194097696
 30
0.0
 10
70.51253649998738
 20
152.2135205098312
 30
0.0
 10
70.35625259351374
 20
152.2014600058553
 30
0.0
  0
SPLINE
  5
1CD
330
1F
100
AcDbEntity
  8
0
  6
Continuous
 62
     7
370
    15
100
AcDbSpline
210
0.0
220
0.0
230
1.0
 70
     8
 71
     3
 72
    13
 73
     9
 74
     0
 42
0.00000001
 43
0.00000001
 12
1.0
 22
0.0
 32
0.0
 13
1.0
 23
0.0
 33
0.0
 40
0.0
 40
0.0
 40
0.0
 40
0.0
 40
0.1920558079990045
 40
0.3896861935414078
 40
0.5817419231413427
 40
0.7793563662468984
 40
0.9716438136644395
 40
1.0
 40
1.0
 40
1.0
 40
1.0
 10
70.35625263922009
 20
102.3496807479737
 30
0.0
 10
70.51382886325963
 20
102.338420843584
 30
0.0
 10
70.83355509064305
 20
102.3155742068331
 30
0.0
 10
71.27047952083002
 20
102.2948998501233
 30
0.0
 10
71.66736790019458
 20
102.2821551386332
 30
0.0
 10
71.99438350679411
 20
102.2766466499641
 30
0.0
 10
72.20085674071656
 20
102.2753941825976
 30
0.0
 10
72.27080588938153
 20
102.2756306966083
 30
0.0
 10
72.27979545803494
 20
102.2756610923884
 30
0.0
  0
ELLIPSE
  5
1CE
330
1F
100
AcDbEntity
  8
0
  6
Continuous
 62
     7
370
    15
100
AcDbEllipse
 10
63.1651834713
 20
113.2585777477
 30
0.0
 11
-1.756445035685396
 21
2.815924377711227
 31
0.0
210
0.0
220
0.0
230
1.0
 40
0.7353403728
 41
0.0
 42
6.283185307179586
  0
ARC
  5
1CF
330
1F
100
AcDbEntity
  8
0
  6
Continuous
 62
     7
370
    15
100
AcDbCircle
 10
72.2797954582
 20
127.2755701953
 30
0.0
 40
25.0
100
AcDbArc
 50
94.4127968195
 51
265.5872031805
  0
LINE
  5
1D0
330
1F
100
AcDbEntity
  8
0
  6
Continuous
 62
     7
370
    15
100
AcDbLine
 10
76.2497954198
 20
93.0291664713
 30
0.0
 11
76.2497954198
 21
103.2105934733
 31
0.0
  0
LINE
  5
1D1
330
1F
100
AcDbEntity
  8
0
  6
Continuous
 62
     7
370
    15
100
AcDbLine
 10
72.2797954582
 20
92.6878255719
 30
0.0
 11
72.2797954582
 21
103.334720146
 31
0.0
  0
SPLINE
  5
1D2
330
1F
100
AcDbEntity
  8
0
  6
Continuous
 62
     7
370
    15
100
AcDbSpline
210
0.0
220
0.0
230
1.0
 70
    24
 71
     3
 72
    14
 73
    10
 74
     0
 42
0.00000001
 43
0.00000001
 12
1.0
 22
0.0
 32
0.0
 13
1.0
 23
0.0
 33
0.0
 40
0.0
 40
0.0
 40
0.0
 40
0.0
 40
0.1583228306284085
 40
0.316811546472538
 40
0.4713711984850451
 40
0.6221210202480436
 40
0.7721278498954997
 40
0.9245931648123168
 40
1.0
 40
1.0
 40
1.0
 40
1.0
 10
76.24979541976097
 20
93.02916647134992
 30
0.0
 10
76.24979541976097
 20
93.01763469197282
 30
0.0
 10
76.24979541976097
 20
92.99455905061684
 30
0.0
 10
76.24979541976097
 20
92.96327997492872
 30
0.0
 10
76.24979541976097
 20
92.93948568754656
 30
0.0
 10
76.24979541976097
 20
92.92559921739627
 30
0.0
 10
76.24979541976097
 20
92.92270773287676
 30
0.0
 10
76.24979541976097
 20
92.92905969171925
 30
0.0
 10
76.24979541976097
 20
92.93712990818796
 30
0.0
 10
76.24979541976097
 20
92.93980048238012
 30
0.0
  0
SPLINE
  5
1D3
330
1F
100
AcDbEntity
  8
0
  6
Continuous
 62
     7
370
    15
100
AcDbSpline
210
0.0
220
0.0
230
1.0
 70
    24
 71
     3
 72
    17
 73
    13
 74
     0
 42
0.00000001
 43
0.00000001
 12
1.0
 22
0.0
 32
0.0
 13
1.0
 23
0.0
 33
0.0
 40
0.0
 40
0.0
 40
0.0
 40
0.0
 40
0.0826832103284325
 40
0.1851229190365448
 40
0.2906456204508425
 40
0.3910931133864877
 40
0.4944835320958952
 40
0.5945598839233469
 40
0.6974644727329684
 40
0.7989302478040458
 40
0.9032088918055967
 40
1.0
 40
1.0
 40
1.0
 40
1.0
 10
72.27979545820553
 20
92.27116302787039
 30
0.0
 10
72.27979545820553
 20
92.27124163408729
 30
0.0
 10
72.27979545820554
 20
92.27141762885421
 30
0.0
 10
72.27979545820564
 20
92.28549434414316
 30
0.0
 10
72.2797954582052
 20
92.3100181234047
 30
0.0
 10
72.27979545820563
 20
92.34516082301073
 30
0.0
 10
72.2797954582056
 20
92.38851619017147
 30
0.0
 10
72.27979545820529
 20
92.43989808741884
 30
0.0
 10
72.27979545820598
 20
92.49709110003667
 30
0.0
 10
72.27979545820405
 20
92.55963018015204
 30
0.0
 10
72.2797954582059
 20
92.62379507168473
 30
0.0
 10
72.27979545820565
 20
92.66701859823625
 30
0.0
 10
72.27979545820556
 20
92.68782557188246
 30
0.0
  0
SPLINE
  5
1D4
330
1F
100
AcDbEntity
  8
0
  6
Continuous
 62
     7
370
    15
100
AcDbSpline
210
0.0
220
0.0
230
1.0
 70
    24
 71
     3
 72
    10
 73
     6
 74
     0
 42
0.00000001
 43
0.00000001
 12
1.0
 22
0.0
 32
0.0
 13
1.0
 23
0.0
 33
0.0
 40
0.0
 40
0.0
 40
0.0
 40
0.0
 40
0.2657117471551175
 40
0.6165210698292893
 40
1.0
 40
1.0
 40
1.0
 40
1.0
 10
76.24979541976097
 20
103.2895714902756
 30
0.0
 10
76.24979541976097
 20
103.2845725986413
 30
0.0
 10
76.24979541976097
 20
103.2729738565784
 30
0.0
 10
76.24979541976097
 20
103.245788651493
 30
0.0
 10
76.24979541976097
 20
103.2226680890947
 30
0.0
 10
76.24979541976097
 20
103.210593473303
 30
0.0
  0
SPLINE
  5
1D5
330
1F
100
AcDbEntity
  8
0
  6
Continuous
 62
     7
370
    15
100
AcDbSpline
210
0.0
220
0.0
230
1.0
 70
    24
 71
     3
 72
    10
 73
     6
 74
     0
 42
0.00000001
 43
0.00000001
 12
1.0
 22
0.0
 32
0.0
 13
1.0
 23
0.0
 33
0.0
 40
0.0
 40
0.0
 40
0.0
 40
0.0
 40
0.3518071359394271
 40
0.7034311620717099
 40
1.0
 40
1.0
 40
1.0
 40
1.0
 10
72.27979545820554
 20
103.3347201460478
 30
0.0
 10
72.27979545820554
 20
103.3790070732033
 30
0.0
 10
72.27979545820556
 20
103.4675578768996
 30
0.0
 10
72.27979545820556
 20
103.5786202825902
 30
0.0
 10
72.27979545820556
 20
103.6280219364839
 30
0.0
 10
72.27979545820556
 20
103.6506247633574
 30
0.0
  0
LINE
  5
1D6
330
1F
100
AcDbEntity
  8
0
  6
Continuous
 62
     7
370
    15
100
AcDbLine
 10
76.2497954198
 20
103.2895714903
 30
0.0
 11
76.2497954198
 21
103.3915736639
 31
0.0
  0
LINE
  5
1D7
330
1F
100
AcDbEntity
  8
0
  6
Continuous
 62
     7
370
    15
100
AcDbLine
 10
72.2797954582
 20
103.6506247634
 30
0.0
 11
72.2797954582
 21
109.3003627771
 31
0.0
  0
SPLINE
  5
1D8
330
1F
100
AcDbEntity
  8
0
  6
Continuous
 62
     7
370
    15
100
AcDbSpline
210
0.0
220
0.0
230
1.0
 70
    24
 71
     3
 72
     9
 73
     5
 74
     0
 42
0.00000001
 43
0.00000001
 12
1.0
 22
0.0
 32
0.0
 13
1.0
 23
0.0
 33
0.0
 40
0.0
 40
0.0
 40
0.0
 40
0.0
 40
0.6204306637463031
 40
1.0
 40
1.0
 40
1.0
 40
1.0
 10
72.27979545820561
 20
109.3003627771017
 30
0.0
 10
72.27979545820561
 20
109.3224237193666
 30
0.0
 10
72.27979545820561
 20
109.3579811854204
 30
0.0
 10
72.27979545820561
 20
109.3568569746679
 30
0.0
 10
72.27979545820561
 20
109.3564302587387
 30
0.0
  0
CIRCLE
  5
1D9
330
1F
100
AcDbEntity
  8
VERMASSUNG
  6
CENTERX2
100
AcDbCircle
 10
72.2797954582
 20
125.0788204451
 30
0.0
 40
32.50000000000001
  0
DIMENSION
  5
1DA
330
1F
100
AcDbEntity
  8
VERMASSUNG
100
AcDbDimension
  2
_D_5
 10
91.2143402349
 20
151.4934568064
 30
0.0
 11
98.384272083
 21
161.4958701064
 31
0.0
 70
   160
  1
%%c<> min. 
 71
     2
 42
-1.0
  3
SLDDIMSTYLE3
100
AcDbAlignedDimension
 13
53.3452506815
 23
98.6641840838
 33
0.0
 14
91.2143402349
 24
151.4934568064
 34
0.0
 50
54.366281531
100
AcDbRotatedDimension
  0
INSERT
  5
1F4
330
1F
100
AcDbEntity
  8
VERMASSUNG
100
AcDbBlockReference
  2
SW_CENTERMARKSYMBOL_0
 10
72.2797954582
 20
127.2755701953
 30
0.0
  0
OLE2FRAME
  5
1F5
330
1F
100
AcDbEntity
  8
0
100
AcDbOle2Frame
 70
     2
  3
Paintbrush-Bild
 10
13.8511154363
 20
38.264191557
 30
0.0
 11
51.6290888628
 21
31.9806341108
 31
0.0
 71
     2
 72
     0
 73
     1
 90
    12928
310
80552BED0767C5B32B40DDAF6807D121434000000000000000006FFBDDFB85D0
310
4940DDAF6807D121434000000000000000006FFBDDFB85D04940416F4BD60AFB
310
3F4000000000000000002BED0767C5B32B40416F4BD60AFB3F40000000000000
310
0000000000000100000000010000010000000100000000000100000000320000
310
D0CF11E0A1B11AE1000000000000000000000000000000003E000300FEFF0900
310
0600000000000000000000000100000001000000000000000010000002000000
310
01000000FEFFFFFF0000000000000000FFFFFFFFFFFFFFFFFFFFFFFFFFFFFFFF
310
FFFFFFFFFFFFFFFFFFFFFFFFFFFFFFFFFFFFFFFFFFFFFFFFFFFFFFFFFFFFFFFF
310
FFFFFFFFFFFFFFFFFFFFFFFFFFFFFFFFFFFFFFFFFFFFFFFFFFFFFFFFFFFFFFFF
310
FFFFFFFFFFFFFFFFFFFFFFFFFFFFFFFFFFFFFFFFFFFFFFFFFFFFFFFFFFFFFFFF
310
FFFFFFFFFFFFFFFFFFFFFFFFFFFFFFFFFFFFFFFFFFFFFFFFFFFFFFFFFFFFFFFF
310
FFFFFFFFFFFFFFFFFFFFFFFFFFFFFFFFFFFFFFFFFFFFFFFFFFFFFFFFFFFFFFFF
310
FFFFFFFFFFFFFFFFFFFFFFFFFFFFFFFFFFFFFFFFFFFFFFFFFFFFFFFFFFFFFFFF
310
FFFFFFFFFFFFFFFFFFFFFFFFFFFFFFFFFFFFFFFFFFFFFFFFFFFFFFFFFFFFFFFF
310
FFFFFFFFFFFFFFFFFFFFFFFFFFFFFFFFFFFFFFFFFFFFFFFFFFFFFFFFFFFFFFFF
310
FFFFFFFFFFFFFFFFFFFFFFFFFFFFFFFFFFFFFFFFFFFFFFFFFFFFFFFFFFFFFFFF
310
FFFFFFFFFFFFFFFFFFFFFFFFFFFFFFFFFFFFFFFFFFFFFFFFFFFFFFFFFFFFFFFF
310
FFFFFFFFFFFFFFFFFFFFFFFFFFFFFFFFFFFFFFFFFFFFFFFFFFFFFFFFFFFFFFFF
310
FFFFFFFFFFFFFFFFFFFFFFFFFFFFFFFFFFFFFFFFFFFFFFFFFFFFFFFFFFFFFFFF
310
FFFFFFFFFFFFFFFFFFFFFFFFFFFFFFFFFFFFFFFFFFFFFFFFFFFFFFFFFFFFFFFF
310
FDFFFFFFFEFFFFFFFEFFFFFFFEFFFFFF05000000060000000700000008000000
310
090000000A0000000B0000000C0000000D0000000E0000000F00000010000000
310
11000000120000001300000014000000150000001600000017000000FEFFFFFF
310
FFFFFFFFFFFFFFFFFFFFFFFFFFFFFFFFFFFFFFFFFFFFFFFFFFFFFFFFFFFFFFFF
310
FFFFFFFFFFFFFFFFFFFFFFFFFFFFFFFFFFFFFFFFFFFFFFFFFFFFFFFFFFFFFFFF
310
FFFFFFFFFFFFFFFFFFFFFFFFFFFFFFFFFFFFFFFFFFFFFFFFFFFFFFFFFFFFFFFF
310
FFFFFFFFFFFFFFFFFFFFFFFFFFFFFFFFFFFFFFFFFFFFFFFFFFFFFFFFFFFFFFFF
310
FFFFFFFFFFFFFFFFFFFFFFFFFFFFFFFFFFFFFFFFFFFFFFFFFFFFFFFFFFFFFFFF
310
FFFFFFFFFFFFFFFFFFFFFFFFFFFFFFFFFFFFFFFFFFFFFFFFFFFFFFFFFFFFFFFF
310
FFFFFFFFFFFFFFFFFFFFFFFFFFFFFFFFFFFFFFFFFFFFFFFFFFFFFFFFFFFFFFFF
310
FFFFFFFFFFFFFFFFFFFFFFFFFFFFFFFFFFFFFFFFFFFFFFFFFFFFFFFFFFFFFFFF
310
FFFFFFFFFFFFFFFFFFFFFFFFFFFFFFFFFFFFFFFFFFFFFFFFFFFFFFFFFFFFFFFF
310
FFFFFFFFFFFFFFFFFFFFFFFFFFFFFFFFFFFFFFFFFFFFFFFFFFFFFFFFFFFFFFFF
310
FFFFFFFFFFFFFFFFFFFFFFFFFFFFFFFFFFFFFFFFFFFFFFFFFFFFFFFFFFFFFFFF
310
FFFFFFFFFFFFFFFFFFFFFFFFFFFFFFFFFFFFFFFFFFFFFFFFFFFFFFFFFFFFFFFF
310
FFFFFFFFFFFFFFFFFFFFFFFFFFFFFFFFFFFFFFFFFFFFFFFFFFFFFFFFFFFFFFFF
310
52006F006F007400200045006E00740072007900000000000000000000000000
310
0000000000000000000000000000000000000000000000000000000000000000
310
16000500FFFFFFFFFFFFFFFF020000000A00030000000000C000000000000046
310
000000000000000000000000501D63CA7124CD0103000000C000000000000000
310
01004F006C006500000000000000000000000000000000000000000000000000
310
0000000000000000000000000000000000000000000000000000000000000000
310
0A000200FFFFFFFFFFFFFFFFFFFFFFFF00000000000000000000000000000000
310
0000000000000000000000000000000000000000000000001400000000000000
310
010043006F006D0070004F0062006A0000000000000000000000000000000000
310
0000000000000000000000000000000000000000000000000000000000000000
310
120002010100000003000000FFFFFFFF00000000000000000000000000000000
310
0000000000000000000000000000000000000000010000004D00000000000000
310
01004F006C006500310030004E00610074006900760065000000000000000000
310
0000000000000000000000000000000000000000000000000000000000000000
310
1A000200FFFFFFFFFFFFFFFFFFFFFFFF00000000000000000000000000000000
310
0000000000000000000000000000000000000000040000002426000000000000
310
FEFFFFFF02000000FEFFFFFFFFFFFFFFFFFFFFFFFFFFFFFFFFFFFFFFFFFFFFFF
310
FFFFFFFFFFFFFFFFFFFFFFFFFFFFFFFFFFFFFFFFFFFFFFFFFFFFFFFFFFFFFFFF
310
FFFFFFFFFFFFFFFFFFFFFFFFFFFFFFFFFFFFFFFFFFFFFFFFFFFFFFFFFFFFFFFF
310
FFFFFFFFFFFFFFFFFFFFFFFFFFFFFFFFFFFFFFFFFFFFFFFFFFFFFFFFFFFFFFFF
310
FFFFFFFFFFFFFFFFFFFFFFFFFFFFFFFFFFFFFFFFFFFFFFFFFFFFFFFFFFFFFFFF
310
FFFFFFFFFFFFFFFFFFFFFFFFFFFFFFFFFFFFFFFFFFFFFFFFFFFFFFFFFFFFFFFF
310
FFFFFFFFFFFFFFFFFFFFFFFFFFFFFFFFFFFFFFFFFFFFFFFFFFFFFFFFFFFFFFFF
310
FFFFFFFFFFFFFFFFFFFFFFFFFFFFFFFFFFFFFFFFFFFFFFFFFFFFFFFFFFFFFFFF
310
FFFFFFFFFFFFFFFFFFFFFFFFFFFFFFFFFFFFFFFFFFFFFFFFFFFFFFFFFFFFFFFF
310
FFFFFFFFFFFFFFFFFFFFFFFFFFFFFFFFFFFFFFFFFFFFFFFFFFFFFFFFFFFFFFFF
310
FFFFFFFFFFFFFFFFFFFFFFFFFFFFFFFFFFFFFFFFFFFFFFFFFFFFFFFFFFFFFFFF
310
FFFFFFFFFFFFFFFFFFFFFFFFFFFFFFFFFFFFFFFFFFFFFFFFFFFFFFFFFFFFFFFF
310
FFFFFFFFFFFFFFFFFFFFFFFFFFFFFFFFFFFFFFFFFFFFFFFFFFFFFFFFFFFFFFFF
310
FFFFFFFFFFFFFFFFFFFFFFFFFFFFFFFFFFFFFFFFFFFFFFFFFFFFFFFFFFFFFFFF
310
FFFFFFFFFFFFFFFFFFFFFFFFFFFFFFFFFFFFFFFFFFFFFFFFFFFFFFFFFFFFFFFF
310
FFFFFFFFFFFFFFFFFFFFFFFFFFFFFFFFFFFFFFFFFFFFFFFFFFFFFFFFFFFFFFFF
310
0100000200000000000000000000000000000000000000000000000000000000
310
0000000000000000000000000000000000000000000000000000000000000000
310
0100FEFF030A0000FFFFFFFF0A00030000000000C00000000000004607000000
310
5042727573680007000000504272757368000700000050427275736800F439B2
310
7100000000000000000000000000000000000000000000000000000000000000
310
0000000000000000000000000000000000000000000000000000000000000000
310
0000000000000000000000000000000000000000000000000000000000000000
310
0000000000000000000000000000000000000000000000000000000000000000
310
0000000000000000000000000000000000000000000000000000000000000000
310
0000000000000000000000000000000000000000000000000000000000000000
310
0000000000000000000000000000000000000000000000000000000000000000
310
0000000000000000000000000000000000000000000000000000000000000000
310
0000000000000000000000000000000000000000000000000000000000000000
310
0000000000000000000000000000000000000000000000000000000000000000
310
0000000000000000000000000000000000000000000000000000000000000000
310
0000000000000000000000000000000000000000000000000000000000000000
310
20260000424D0E260000000000003E00000028000000B40200006E0000000100
310
01000000000000000000130B0000130B00000200000002000000000000FFFFFF
310
FFFFFFFFFFFFFFFFFFFFFFFFFFFFFFFFFFFFFFFFFFFFFFFFFFFFFFFFFFFFFFFF
310
FFFFFFFFFFFFFFFFFFFFFFFFFFFFFFFFFFFFFFFFFFFFFFFFFFFFFFFFFFFFFFFF
310
FFFFFFFFFFFFFFFFFFFFFFFFFFFFFFFFFFFFFFFFFFFFFFFFF000FFFFFFFFFFFF
310
FFFFFFFFFFFFFFFFFFFFFFFFFFFFFFFFFFFFFFFFFFFFFFFFFFFFFFFFFFFFFFFF
310
FFFFFFFFFFFFFFFFFFFFFFFFFFFFFFFFFFFFFFFFFFFFFFFFFFFFFFFFFFFFFFFF
310
FFFFFFFFFFFFFFFFFFFFFFFFFFFFFFFFF000FFFFFFFFFFFFFFFFFFFFFFFFFFFF
310
FFFFFFFFFFFFFFFFFFFFFFFFFFFFFFFFFFFFFFFFFFFFFFFFFFFFFFFFFFFFFFFF
310
FFFFFFFFFFFFFFFFFFFFFFFFFFFFFFFFFFFFFFFFFFFFFFFFFFFFFFFFFFFFFFFF
310
FFFFFFFFFFFFFFFFF000FFFFFFFFFFFFFFFFFFFFFFFFFFFFFFFFFFFFFFFFFFFF
310
FFFFFFFFFFFFFFFFFFFFFFFFFFFFFFFFFFFFFFFFFFFFFFFFFFFFFFFFFFFFFFFF
310
FFFFFFFFFFFFFFFFFFFFFFFFFFFFFFFFFFFFFFFFFFFFFFFFFFFFFFFFFFFFFFFF
310
F000FFFFFFFFFFFFFFFFFFFFFFFFFFFFFFFFFFFFFFFFFFFFFFFFFFFFFFFFFFFF
310
FFFFFFFFFFFFFFFFFFFFFFFFFFFFFFFFFFFFFFFFFFFFFFFFFFFFFFFFFFFFFFFF
310
FFFFFFFFFFFFFFFFFFFFFFFFFFFFFFFFFFFFFFFFFFFFFFFFF000FFFFFFFFFFFF
310
FFFFFFFFFFFFFFFFFFFFFFFFFFFFFFFFFFFFFFFFFFFFFFFFFFFFFFFFFFFFFFFF
310
FFFFFFFFFFFFFFFFFFFFFFFFFFFFFFFFFFFFFFFFFFFFFFFFFFFFFFFFFFFFFFFF
310
FFFFFFFFFFFFFFFFFFFFFFFFFFFFFFFFF000FFFFFFFFFFFFFFFFFFFFFFFFFFFF
310
FFFFFFFFFFFFFFFFFFFFFFFFFFFFFFFFFFFFFFFFFFFFFFFFFFFFFFFFFFFFFFFF
310
FFFFFFFFFFFFFFFFFFFFFFFFFFFFFFFFFFFFFFFFFFFFFFFFFFFFFFFFFFFFFFFF
310
FFFFFFFFFFFFFFFFF000FFFFFFFFFFFFFFFFFFFFFFFFFFFFFFFFFFFFFFFFFFFF
310
FFFFFFFFFFFFFFFFFFFFFFFFFFFFFFFFFFFFFFFFFFFFFFFFFFFFFFFFFFFFFFFF
310
FFFFFFFFFFFFFFFFFFFFFFFFFFFFFFFFFFFFFFFFFFFFFFFFFFFFFFFFFFFFFFFF
310
F000FFFFFFFFFFFFFFFFFFFFFFFFFFFFFFFFFFFFFFFFFFFFFFFFFFFFFFFFFFFF
310
FFFFFFFFFFFFFFFFFFFFFFFFFFFFFFFFFFFFFFFFFFFFFFFFFFFFFFFFFFFFFFFF
310
FFFFFFFFFFFFFFFFFFFFFFFFFFFFFFFFFFFFFFFFFFFFFFFFF000FFFFFFFFFFFF
310
FFFFFFFFFFFFFFFFFFFFFFFFFFFFFFFFFFFFFFFFFFFFFFFFFFFFFFFFFFFFFFFF
310
FFFFFFFFFFFFFFFFFFFFFFFFFFFFFFFFFFFFFFFFFFFFFFFFFFFFFFFFFFFFFFFF
310
FFFFFFFFFFFFFFFFFFFFFFFFFFFFFFFFF000FFFFFFFFFFFFFFFFFFFFFFFFFFFF
310
FFFFFFFFFFFFFFFFFFFFFFFFFFFFFFFFFFFFFFFFFFFFFFFFFFFFFFFFFFFFFFFF
310
FFFFFFFFFFFFFFFFFFFFFFFFFFFFFFFFFFFFFFFFFFFFFFFFFFFFFFFFFFFFFFFF
310
FFFFFFFFFFFFFFFFF000FFFFFFFFFFFFFFFFFFFFFFFFFFFFFFFFFFFFFFFFFFFF
310
FFFFFFFFFFFFFFFFFFFFFFFFFFFFFFFFFFFFFFFFFFFFFFFFFFFFFFFFFFFFFFFF
310
FFFFFFFFFFFFFFFFFFFFFFFFFFFFFFFFFFFFFFFFFFFFFFFFFFFFFFFFFFFFFFFF
310
F000FFFFFFFFFFFFFFFFFFFFFFFFFFFFFFFFFFFFFFFFFFFFFFFFFFFFFFFFFFFF
310
FFFFFFFFFFFFFFFFFFFFFFFFFFFFFFFFFFFFFFFFFFFFFFFFFFFFFFFFFFFFFFFF
310
FFFFFFFFFFFFFFFFFFFFFFFFFFFFFFFFFFFFFFFFFFFFFFFFF000FFFFFFFFFFFF
310
FFFFFFFFFFFFFFFFFFFFFFFFFFFFFFFFFFFFFFFFFFFFFFFFFFFFFFFFFFFFFFFF
310
FFFFFFFFFFFFFFFFFFFFFFFFFFFFFFFFFFFFFFFFFFFFFFFFFFFFFFFFFFFFFFFF
310
FFFFFFFFFFFFFFFFFFFFFFFFFFFFFFFFF000FFFFFFFFFFFFFFFFFFFFFFFFFFFF
310
FFFFFFFFFFFFFFFFFFFFFFFFFFFFFFFFFFFFFFFFFFFFFFFFFFFFFFFFFFFFFFFF
310
FFFFFFFFFFFFFFFFFFFFFFFFFFFFFFFFFFFFFFFFFFFFFFFFFFFFFFFFFFFFFFFF
310
FFFFFFFFFFFFFFFFF000FFFFFFFFFFFFFFFFFFFFFFFFFFFFFFFFFFFFFFFFFFFF
310
FFFFFFFFFFFFFFFFFFFFFFFFFFFFFFFFFFFFFFFFFFFFFFFFFFFFFFFFFFFFFFFF
310
FFFFFFFFFFFFFFFFFFFFFFFFFFFFFFFFFFFFFFFFFFFFFFFFFFFFFFFFFFFFFFFF
310
F000FFFFFFFFFFFFFFFFFFFFFFFFFFFFFFFFFFFFFFFFFFFFFFFFFFFFFFFFFFFF
310
FFFFFFFFFFFFFFFFFFFFFFFFFFFFFFFFFFFFFFFFFFFFFFFFFFFFFFFFFFFFFFFF
310
FFFFFFFFFFFFFFFFFFFFFFFFFFFFFFFFFFFFFFFFFFFFFFFFF000FFFFFFFFFFFF
310
FFFFFFFFFFFFFFFFFFFFFFFFFFFFFFFFFFFFFFFFFFFFFFFFFFFFFFFFFFFFFFFF
310
FFFFFFFFFFFFFFFFFFFFFFFFFFFFFFFFFFFFFFFFFFFFFFFFFFFFFFFFFFFFFFFF
310
FFFFFFFFFFFFFFFFFFFFFFFFFFFFFFFFF000FFFFFFFFFFFFFFFFFFFFFFFFFFFF
310
FFFFFFFFFFFFFFFFFFFFFFFFFFFFFFFFFFFFFFFFFFFFFFFFFFFFFFFFFFFFFFFF
310
FFFFFFFFFFFFFFFFFFFFFFFFFFFFFFFFFFFFFFFFFFFFFFFFFFFFFFFFFFFFFFFF
310
FFFFFFFFFFFFFFFFF000FFFFF80003FFFFFFFFFFFFFFFFFFFFFFFFFFFFFFFFFF
310
FFFFF00007FFFFFFFFFF00007FFFFFF800000000000000007FFFFFFFFFFFFFFF
310
FFFFFFFC001FFFFFFFFFFFFFFC001FFFFFFFFFFFFFFFFFFFFFFFFFFE0007FFFF
310
F000FFFF8000007FFFFFFFF8000FFFFFC0007FFFFF80007FFFFF0000007FFFFF
310
FFF8000007FFFFF800000000000000007FFFFFF0001FFFFFFFFFFFC00001FFFF
310
FFFFFFFFC00001FFFFFFFF000000000003FFFFE000007FFFF000FFFE0000000F
310
FFFFFFF0000FFFFF80007FFFFF80007FFFFC0000001FFFFFFFC0000001FFFFF8
310
00000000000000007FFFFFF0001FFFFFFFFFFE0000003FFFFFFFFFFE0000003F
310
FFFFFF000000000003FFFF0000000FFFF000FFF800000003FFFFFFF00007FFFF
310
80007FFFFF80007FFFF000000007FFFFFF000000003FFFF80000000000000000
310
7FFFFFF0001FFFFFFFFFF80000000FFFFFFFFFF80000000FFFFFFF0000000000
310
03FFFC00000003FFF000FFE000000000FFFFFFF00007FFFF80003FFFFF80007F
310
FFC000000001FFFFFC000000001FFFF800000000000000007FFFFFF0001FFFFF
310
FFFFE000000003FFFFFFFFE000000003FFFFFF000000000003FFF000000000FF
310
F000FF80000000007FFFFFF00007FFFF80003FFFFF80007FFF8000000000FFFF
310
F80000000007FFF800000000000000007FFFFFF0001FFFFFFFFFC000000001FF
310
FFFFFFC000000001FFFFFF000000000003FFC0000000007FF000FF0000000000
310
3FFFFFE00007FFFF00003FFFFF80007FFE00000000003FFFF00000000003FFF8
310
00000000000000007FFFFFF0001FFFFFFFFF8000000000FFFFFFFF8000000000
310
FFFFFF000000000003FF80000000003FF000FE00000000001FFFFFE00003FFFF
310
00003FFFFF80007FFC00000000001FFFE00000000001FFF8000001FFFE000000
310
7FFFFFF0001FFFFFFFFE00000000003FFFFFFE00000000003FFFFF0000000000
310
03FF00000000001FF000FC00000000000FFFFFE00003FFFF00001FFFFF80007F
310
F800000000001FFFC00000000000FFF8000001FFFE0000007FFFFFF0001FFFFF
310
FFFC00000000001FFFFFFC00000000001FFFFF000000000003FE00000000000F
310
F000F8000000000007FFFFE00003FFFF00001FFFFF80007FF800000000000FFF
310
800000000000FFF8000001FFFE0000007FFFFFF0001FFFFFFFF800000000000F
310
FFFFF800000000000FFFFF000000000003FC000000000007F000F80000000000
310
03FFFFC00003FFFE00001FFFFF80007FF0000000000007FF0000000000007FF8
310
000001FFFE0000007FFFFFF0001FFFFFFFF0000000000007FFFFF00000000000
310
07FFFF000000000003F8000000000003F000F0000000000003FFFFC00001FFFE
310
00001FFFFF80007FE0000000000007FE0000000000003FF8000001FFFE000000
310
7FFFFFF0001FFFFFFFF0000000000007FFFFF0000000000007FFFF0000000000
310
03F800001F800003F000E00001FFF00001FFFFC00001FFFE00000FFFFF80007F
310
E00001FFE00003FE00001FFF00003FF8000001FFFE0000007FFFFFF0001FFFFF
310
FFE000003E000003FFFFE000003E000003FFFF000000000003F00001FFF80001
310
F000E00007FFFC0001FFFFC00001FFFE00000FFFFF80007FC0000FFFFC0003FC
310
0000FFFFC0001FF8000001FFFE0000007FFFFFF0001FFFFFFFC00003FFE00001
310
FFFFC00003FFE00001FFFF0001FFFFFFFFF00007FFFE0001F000E0000FFFFF00
310
00FFFF800001FFFC00000FFFFF80007FC0001FFFFE0001FC0001FFFFE0001FF8
310
000001FFFE0000007FFFFFF0001FFFFFFF80000FFFF80000FFFF80000FFFF800
310
00FFFF0003FFFFFFFFE0000FFFFF8000F000C0003FFFFF8000FFFF800000FFFC
310
000007FFFF80007F80003FFFFF0001FC0003FFFFF0001FF8000001FFFE000000
310
7FFFFFF0001FFFFFFF80003FFFFE0000FFFF80003FFFFE0000FFFF0003FFFFFF
310
FFE0003FFFFF8000F000C0003FFFFF8000FFFF800000FFFC000007FFFF80007F
310
80007FFFFF8001F80007FFFFF8000FF8000001FFFE0000007FFFFFF0001FFFFF
310
FF00007FFFFF00007FFF00007FFFFF00007FFF0003FFFFFFFFE0003FFFFFC000
310
F000C0007FFFFFC000FFFF000000FFFC000007FFFF80007F8000FFFFFF8000F8
310
000FFFFFF8000FF8000001FFFE0000007FFFFFF0001FFFFFFF0000FFFFFF8000
310
7FFF0000FFFFFF80007FFF0003FFFFFFFFC0007FFFFFC00070008000FFFFFFC0
310
00FFFF000000FFF8000007FFFF80007F8000FFFFFF8000F8000FFFFFF8000FF8
310
000001FFFE0000007FFFFFF0001FFFFFFE0001FFFFFFC0003FFE0001FFFFFFC0
310
003FFF0003FFFFFFFFC0007FFFFFE00070008000FFFFFFC0007FFF0000007FF8
310
000003FFFF80007F0001FFFFFF8000F8000FFFFFF8000FF8000001FFFE000000
310
7FFFFFF0001FFFFFFE0001FFFFFFC0003FFE0001FFFFFFC0003FFF0003FFFFFF
310
FFC000FFFFFFE00070008000FFFFFFC0007FFF0000007FF8000003FFFF80007F
310
0001FFFFFF8000F8001FFFFFF8000FF8000001FFFE0000007FFFFFF0001FFFFF
310
FE0003FFFFFFE0003FFE0003FFFFFFE0003FFF0003FFFFFFFFC000FFFFFFE000
310
70008000FFFFFFC0007FFE0000007FF8000003FFFF80007F0001FFFFFF8000F0
310
001FFFFFF8000FF8000001FFFE0000007FFFFFF0001FFFFFFC0003FFFFFFE000
310
1FFC0003FFFFFFE0001FFF0003FFFFFFFFC000FFFFFFC00070008000FFFFFF80
310
007FFE0000007FF0000003FFFF80007F0001FFFFFF0000F0001FFFFFF8000FF8
310
000001FFFE0000007FFFFFF0001FFFFFFC0007FFFFFFF0001FFC0007FFFFFFF0
310
001FFF0003FFFFFFFFC000FFFFFFC00070008001FFFFFF0000FFFE0000003FF0
310
000001FFFF80007F0001FFFFFF0000F8001FFFFFF0000FF8000001FFFE000000
310
7FFFFFF0001FFFFFFC0007FFFFFFF0001FFC0007FFFFFFF0001FFF0003FFFFFF
310
FFC001FFFFFF80007000FFFFFFFFFE0000FFFE0008003FF0008001FFFF80007F
310
FFFFFFFFFC0000FFFFFFFFFFE0000FF8000001FFFE0000007FFFFFF0001FFFFF
310
F8000FFFFFFFF8000FF8000FFFFFFFF8000FFF0003FFFFFFFFFFFFFFFFFF0000
310
7000FFFFFFFFFC0000FFFC0008003FF0008001FFFF80007FFFFFFFFFF80001FF
310
FFFFFFFF80000FF8000001FFFE0000007FFFFFF0001FFFFFF8000FFFFFFFF800
310
0FF8000FFFFFFFF8000FFF0003FFFFFFFFFFFFFFFFFE0000F000FFFFFFFFE000
310
00FFFC000C003FE000C001FFFF80007FFFFFFFFFC00001FFFFFFFFFE00001FF8
310
000001FFFE0000007FFFFFF0001FFFFFF8000FFFFFFFF8000FF8000FFFFFFFF8
310
000FFF0003FFFFFFFFFFFFFFFFF00000F000FFFFFFFE000001FFFC000C001FE0
310
00C000FFFF80007FFFFFFFFE000001FFFFFFFFE000001FF80FFFFFFFFFFFFFC0
310
7FFFFFF0001FFFFFF8000FFFFFFFF8000FF8000FFFFFFFF8000FFF0003FFFFFF
310
FFFFFFFFFF800000F000FFFFFFC0000001FFFC001C001FE001C000FFFF80007F
310
FFFFFF80000003FFFFFFF80000001FF80FFFFFFFFFFFFFC07FFFFFF0001FFFFF
310
F8001FFFFFFFFC000FF8001FFFFFFFFC000FFF0003FFFFFFFFFFFFFFF0000001
310
F000FFFFF800000001FFF8001C001FE001C000FFFF80007FFFFFF800000003FF
310
FFFF800000003FF80FFFFFFFFFFFFFC07FFFFFF0001FFFFFF8001FFFFFFFFC00
310
0FF8001FFFFFFFFC000FFF0003FFFFFFFFFFFFFE00000001F000FFFFC0000000
310
03FFF8001E001FC001E000FFFF80007FFFFF8000000007FFFFFC000000003FF8
310
0FFFFFFFFFFFFFC07FFFFFF0001FFFFFF8001FFFFFFFFC000FF8001FFFFFFFFC
310
000FFF0003FFFFFFFFFFFFE000000003F000FFFE0000000007FFF8001E000FC0
310
01E0007FFF80007FFFFE0000000007FFFFE0000000007FF80FFFFFFFFFFFFFC0
310
7FFFFFF0001FFFFFF0001FFFFFFFFC0007F0001FFFFFFFFC0007FF0003FFFFFF
310
FFFFFF0000000003F000FFF80000000007FFF8001E000FC003E0007FFF80007F
310
FFF0000000000FFFFF8000000000FFF80FFFFFFFFFFFFFC07FFFFFF0001FFFFF
310
F0001FFFFFFFFC0007F0001FFFFFFFFC0007FF0003FFFFFFFFFFFC0000000007
310
F000FFE0000000000FFFF0003E000FC003E0007FFF80007FFFC0000000001FFF
310
FE0000000001FFF80FFFFFFFFFFFFFC07FFFFFF0001FFFFFF0001FFFFFFFFC00
310
07F0001FFFFFFFFC0007FF0003FFFFFFFFFFF0000000000FF000FFC000000000
310
1FFFF0003F000F8003F0003FFF80007FFF80000000003FFFF80000000003FFF8
310
0FFFFFFFFFFFFFC07FFFFFF0001FFFFFF0001FFFFFFFFC0007F0001FFFFFFFFC
310
0007FF0003FFFFFFFFFFE0000000001FF000FF00000000007FFFF0003F000780
310
03F0003FFF80007FFF00000000007FFFF00000000007FFF80FFFFFFFFFFFFFC0
310
7FFFFFF0001FFFFFF0001FFFFFFFFC0007F0001FFFFFFFFC0007FF0003FFFFFF
310
FFFF80000000007FF000FE0000000000FFFFE0003F00078007F0003FFF80007F
310
FE0000000001FFFFE0000000001FFFF80FFFFFFFFFFFFFC07FFFFFF0001FFFFF
310
F0001FFFFFFFFC0007F0001FFFFFFFFC0007FF0003FFFFFFFFFF0000000000FF
310
F000FC0000000003FFFFE0007F00078007F0003FFF80007FFC0000000007FFFF
310
C0000000007FFFF80FFFFFFFFFFFFFC07FFFFFF0001FFFFFF8001FFFFFFFFC00
310
0FF8001FFFFFFFFC000FFF0003FFFFFFFFFE0000000003FFF000FC000000000F
310
FFFFE0007F80070007F8001FFF80007FF8000000001FFFFF8000000001FFFFF8
310
0FFFFFFFFFFFFFC07FFFFFF0001FFFFFF8001FFFFFFFFC000FF8001FFFFFFFFC
310
000FFF0003FFFFFFFFFC000000000FFFF000F8000000007FFFFFE0007F800700
310
07F8001FFF80007FF000000000FFFFFF800000000FFFFFF80FFFFFFFFFFFFFC0
310
7FFFFFF0001FFFFFF8000FFFFFFFF8000FF8000FFFFFFFF8000FFF0003FFFFFF
310
FFFC000000007FFFF000F800000007FFFFFFC0007F8003000FF8001FFF80007F
310
F000000007FFFFFF000000007FFFFFF80FFFFFFFFFFFFFC07FFFFFF0001FFFFF
310
F8000FFFFFFFF8000FF8000FFFFFFFF8000FFF0003FFFFFFFFF80000000FFFFF
310
F000F0000000FFFFFFFFC000FF8003000FF8001FFF80007FE0000000FFFFFFFF
310
0000000FFFFFFFF8000001FFFE0000007FFFFFF0001FFFFFF8000FFFFFFFF800
310
0FF8000FFFFFFFF8000FFF0003FFFFFFFFF8000000FFFFFFF000F000000FFFFF
310
FFFFC000FFC002000FF8000FFF80007FE000001FFFFFFFFE000001FFFFFFFFF8
310
000001FFFE0000007FFFFFF0001FFFFFF8000FFFFFFFF8000FF8000FFFFFFFF8
310
000FFF0003FFFFFFFFF000001FFFFFFFF000E00000FFFFFFFFFFC000FFC00200
310
0FFC000FFF80007FE00001FFFFFFFFFE00001FFFFFFFFFF8000001FFFE000000
310
7FFFFFF0001FFFFFFC000FFFFFFFF8001FFC000FFFFFFFF8001FFF0003FFFFFF
310
FFF00001FFFFFFFFF000E00007FFFFFFFFFF8000FFC000001FFC000FFF80007F
310
C0000FFFFFFFFFFE0000FFFFFFFFFFF8000001FFFE0000007FFFFFF0001FFFFF
310
FC0007FFFFFFF0001FFC0007FFFFFFF0001FFF0003FFFFFFFFF00007FFFFFFFF
310
F000E0001FFFFFFFFFFF8000FFC000001FFC000FFF80007FC0003FFFFFFFFFFE
310
0001FFFFFFFFFFF8000001FFFE0000007FFFFFF0001FFFFFFC0007FFFFFFF000
310
1FFC0007FFFFFFF0001FFF0003FFFFFFFFF0001FFFFFFFFFF000E0003FFFFF00
310
03FF8001FFE000001FFC0007FF80007FC0007FFFFF0007FC0003FFFFF0003FF8
310
000001FFFE0000007FFFFFF0001FFFFFFC0003FFFFFFE0001FFC0003FFFFFFE0
310
001FFF0003FFFFFFFFF0003FFFFFFFFFF000E0003FFFFF0001FF8001FFE00000
310
1FFE0007FF80007FC0007FFFFE0003FC0007FFFFE0003FF8000001FFFE000000
310
7FFFFFF0001FFFFFFE0003FFFFFFE0003FFE0003FFFFFFE0003FFF0003FFFFFF
310
FFF0003FFFFF8001F000E0003FFFFF0001FF0001FFE000001FFE0007FF80007F
310
C0007FFFFE0003FC0007FFFFE0003FF8000001FFFE0000007FFFFFF0001FFFFF
310
FE0001FFFFFFC0003FFE0001FFFFFFC0003FFF0003FFFFFFFFF0003FFFFF0001
310
F000E0003FFFFF0003FF0001FFE000003FFE0007FF80007FC0007FFFFE0003FC
310
0007FFFFE0003FF8000001FFFE0000007FFFFFF0001FFFFFFF0001FFFFFFC000
310
7FFF0001FFFFFFC0007FFF0003FFFFFFFFF0003FFFFF0001F000E0003FFFFE00
310
03FF0003FFF000003FFE0003FF80007FC0007FFFFC0003FE0007FFFFE0003FF8
310
000001FFFE0000007FFFFFF0001FFFFFFF0000FFFFFF80007FFF0000FFFFFF80
310
007FFF0003FFFFFFFFF0003FFFFF0001F000E0003FFFFE0003FF0003FFF00000
310
3FFF0003FF80007FC0007FFFFC0007FE0007FFFFC0003FF8000001FFFE000000
310
7FFFFFF0001FFFFFFF80007FFFFF0000FFFF80007FFFFF0000FFFF0003FFFFFF
310
FFF0003FFFFF0003F000E0003FFFFC0003FE0003FFF000003FFF0003FF80007F
310
E0003FFFF80007FE0003FFFFC0007FF8000001FFFE0000007FFFFFF0001FFFFF
310
FF80003FFFFE0000FFFF80003FFFFE0000FFFF0003FFFFFFFFF0001FFFFE0003
310
F000F0001FFFF80003FE0003FFF000007FFF0001FF80007FE0003FFFF00007FE
310
0001FFFF80007FF8000001FFFE0000007FFFFFF0001FFFFFFFC0000FFFF80001
310
FFFFC0000FFFF80001FFFF0003FFFFFFFFF0001FFFFC0003F000F0000FFFF000
310
07FE0007FFF800007FFF0001FF80007FE0001FFFE00007FF0000FFFE00007FF8
310
000001FFFE0000007FFFFFF0001FFFFFFFC00003FFE00001FFFFC00003FFE000
310
01FFFF0003FFFFFFFFF8000FFFF80003F000F00003FFC00007FC0007FFF80000
310
7FFF8001FF80007FF00007FF80000FFF00007FF80000FFF8000001FFFE000000
310
7F80000000000001FFE000003E000003FFFFE000003E000003FFFF0003FFFFFF
310
FFF80003FFE00007F000F800000000000FFC0007FFF800007FFF8001FF80007F
310
F000000000000FFF000000000000FFF8000001FFFE0000007F80000000000001
310
FFF0000000000007FFFFF0000000000007FFFF0003FFFFFFFFFC00007E000007
310
F000F800000000000FFC0007FFF80000FFFF8000FF80007FF800000000001FFF
310
800000000001FFF8000001FFFE0000007F80000000000001FFF800000000000F
310
FFFFF800000000000FFFFF0003FFFFFFFFFC00000000000FF000FC0000000000
310
1FFC0007FFFC0000FFFF8000FF80007FF800000000003FFFC00000000001FFF8
310
000001FFFE0000007F80000000000001FFF800000000000FFFFFF80000000000
310
0FFFFF0003FFFFFFFFFE00000000001FF000FE00000000003FF8000FFFFC0000
310
FFFF8000FF80007FFC00000000003FFFC00000000003FFF8000001FFFE000000
310
7F80000000000001FFFC00000000001FFFFFFC00000000001FFFFF0003FFFFFF
310
FFFF00000000001FF000FF00000000003FF8000FFFFC0000FFFFC000FF80007F
310
FE00000000007FFFE00000000007FFF8000001FFFE0000007F80000000000001
310
FFFE00000000003FFFFFFE00000000003FFFFF0003FFFFFFFFFF80000000003F
310
F000FF80000000007FF8000FFFFC0001FFFFC0007F80007FFF0000000000FFFF
310
F0000000000FFFF800000000000000007F80000000000001FFFF8000000000FF
310
FFFFFF8000000000FFFFFF0003FFFFFFFFFFC0000000007FF000FFC000000000
310
FFF8000FFFFE0001FFFFC0007F80007FFF8000000001FFFFF8000000001FFFF8
310
00000000000000007F80000000000001FFFFC000000001FFFFFFFFC000000001
310
FFFFFF0003FFFFFFFFFFE000000000FFF000FFE000000003FFF0001FFFFE0001
310
FFFFC0007F80007FFFC000000007FFFFFE000000003FFFF80000000000000000
310
7F80000000000001FFFFE000000003FFFFFFFFE000000003FFFFFF0003FFFFFF
310
FFFFF000000003FFF000FFF80000000FFFF0001FFFFE0001FFFFE0007F80007F
310
FFF00000000FFFFFFF00000000FFFFF800000000000000007F80000000000001
310
FFFFF80000000FFFFFFFFFF80000000FFFFFFF0003FFFFFFFFFFFC0000000FFF
310
F000FFFE0000003FFFF0001FFFFE0003FFFFE0003F80007FFFFC0000003FFFFF
310
FFC0000003FFFFF800000000000000007F80000000000001FFFFFE0000003FFF
310
FFFFFFFE0000003FFFFFFF0003FFFFFFFFFFFF0000003FFFF000FFFF800000FF
310
FFF0001FFFFF0003FFFFE0003F80007FFFFF000001FFFFFFFFF800001FFFFFF8
310
00000000000000007F80000000000001FFFFFFC00001FFFFFFFFFFFFC00001FF
310
FFFFFF0003FFFFFFFFFFFFC00000FFFFF000FFFFF8000FFFFFFFFFFFFFFFFFFF
310
FFFFFFFFFFFFFFFFFFFFF0001FFFFFFFFFFF0000FFFFFFF80000000000000000
310
7FFFFFFFFFFFFFFFFFFFFFFC001FFFFFFFFFFFFFFC001FFFFFFFFFFFFFFFFFFF
310
FFFFFFFC001FFFFFF000FFFFFFFFFFFFFFFFFFFFFFFFFFFFFFFFFFFFFFFFFFFF
310
FFFFFFFFFFFFFFFFFFFFFFFFFFFFFFFFFFFFFFFFFFFFFFFFFFFFFFFFFFFFFFFF
310
FFFFFFFFFFFFFFFFFFFFFFFFFFFFFFFFFFFFFFFFFFFFFFFFFFFFFFFFFFFFFFFF
310
F000FFFFFFFFFFFFFFFFFFFFFFFFFFFFFFFFFFFFFFFFFFFFFFFFFFFFFFFFFFFF
310
FFFFFFFFFFFFFFFFFFFFFFFFFFFFFFFFFFFFFFFFFFFFFFFFFFFFFFFFFFFFFFFF
310
FFFFFFFFFFFFFFFFFFFFFFFFFFFFFFFFFFFFFFFFFFFFFFFFF000FFFFFFFFFFFF
310
FFFFFFFFFFFFFFFFFFFFFFFFFFFFFFFFFFFFFFFFFFFFFFFFFFFFFFFFFFFFFFFF
310
FFFFFFFFFFFFFFFFFFFFFFFFFFFFFFFFFFFFFFFFFFFFFFFFFFFFFFFFFFFFFFFF
310
FFFFFFFFFFFFFFFFFFFFFFFFFFFFFFFFF000FFFFFFFFFFFFFFFFFFFFFFFFFFFF
310
FFFFFFFFFFFFFFFFFFFFFFFFFFFFFFFFFFFFFFFFFFFFFFFFFFFFFFFFFFFFFFFF
310
FFFFFFFFFFFFFFFFFFFFFFFFFFFFFFFFFFFFFFFFFFFFFFFFFFFFFFFFFFFFFFFF
310
FFFFFFFFFFFFFFFFF000FFFFFFFFFFFFFFFFFFFFFFFFFFFFFFFFFFFFFFFFFFFF
310
FFFFFFFFFFFFFFFFFFFFFFFFFFFFFFFFFFFFFFFFFFFFFFFFFFFFFFFFFFFFFFFF
310
FFFFFFFFFFFFFFFFFFFFFFFFFFFFFFFFFFFFFFFFFFFFFFFFFFFFFFFFFFFFFFFF
310
F000FFFFFFFFFFFFFFFFFFFFFFFFFFFFFFFFFFFFFFFFFFFFFFFFFFFFFFFFFFFF
310
FFFFFFFFFFFFFFFFFFFFFFFFFFFFFFFFFFFFFFFFFFFFFFFFFFFFFFFFFFFFFFFF
310
FFFFFFFFFFFFFFFFFFFFFFFFFFFFFFFFFFFFFFFFFFFFFFFFF000FFFFFFFFFFFF
310
FFFFFFFFFFFFFFFFFFFFFFFFFFFFFFFFFFFFFFFFFFFFFFFFFFFFFFFFFFFFFFFF
310
FFFFFFFFFFFFFFFFFFFFFFFFFFFFFFFFFFFFFFFFFFFFFFFFFFFFFFFFFFFFFFFF
310
FFFFFFFFFFFFFFFFFFFFFFFFFFFFFFFFF000FFFFFFFFFFFFFFFFFFFFFFFFFFFF
310
FFFFFFFFFFFFFFFFFFFFFFFFFFFFFFFFFFFFFFFFFFFFFFFFFFFFFFFFFFFFFFFF
310
FFFFFFFFFFFFFFFFFFFFFFFFFFFFFFFFFFFFFFFFFFFFFFFFFFFFFFFFFFFFFFFF
310
FFFFFFFFFFFFFFFFF000FFFFFFFFFFFFFFFFFFFFFFFFFFFFFFFFFFFFFFFFFFFF
310
FFFFFFFFFFFFFFFFFFFFFFFFFFFFFFFFFFFFFFFFFFFFFFFFFFFFFFFFFFFFFFFF
310
FFFFFFFFFFFFFFFFFFFFFFFFFFFFFFFFFFFFFFFFFFFFFFFFFFFFFFFFFFFFFFFF
310
F000FFFFFFFFFFFFFFFFFFFFFFFFFFFFFFFFFFFFFFFFFFFFFFFFFFFFFFFFFFFF
310
FFFFFFFFFFFFFFFFFFFFFFFFFFFFFFFFFFFFFFFFFFFFFFFFFFFFFFFFFFFFFFFF
310
FFFFFFFFFFFFFFFFFFFFFFFFFFFFFFFFFFFFFFFFFFFFFFFFF000FFFFFFFFFFFF
310
FFFFFFFFFFFFFFFFFFFFFFFFFFFFFFFFFFFFFFFFFFFFFFFFFFFFFFFFFFFFFFFF
310
FFFFFFFFFFFFFFFFFFFFFFFFFFFFFFFFFFFFFFFFFFFFFFFFFFFFFFFFFFFFFFFF
310
FFFFFFFFFFFFFFFFFFFFFFFFFFFFFFFFF000FFFFFFFFFFFFFFFFFFFFFFFFFFFF
310
FFFFFFFFFFFFFFFFFFFFFFFFFFFFFFFFFFFFFFFFFFFFFFFFFFFFFFFFFFFFFFFF
310
FFFFFFFFFFFFFFFFFFFFFFFFFFFFFFFFFFFFFFFFFFFFFFFFFFFFFFFFFFFFFFFF
310
FFFFFFFFFFFFFFFFF000FFFFFFFFFFFFFFFFFFFFFFFFFFFFFFFFFFFFFFFFFFFF
310
FFFFFFFFFFFFFFFFFFFFFFFFFFFFFFFFFFFFFFFFFFFFFFFFFFFFFFFFFFFFFFFF
310
FFFFFFFFFFFFFFFFFFFFFFFFFFFFFFFFFFFFFFFFFFFFFFFFFFFFFFFFFFFFFFFF
310
F000FFFFFFFFFFFFFFFFFFFFFFFFFFFFFFFFFFFFFFFFFFFFFFFFFFFFFFFFFFFF
310
FFFFFFFFFFFFFFFFFFFFFFFFFFFFFFFFFFFFFFFFFFFFFFFFFFFFFFFFFFFFFFFF
310
FFFFFFFFFFFFFFFFFFFFFFFFFFFFFFFFFFFFFFFFFFFFFFFFF000FFFFFFFFFFFF
310
FFFFFFFFFFFFFFFFFFFFFFFFFFFFFFFFFFFFFFFFFFFFFFFFFFFFFFFFFFFFFFFF
310
FFFFFFFFFFFFFFFFFFFFFFFFFFFFFFFFFFFFFFFFFFFFFFFFFFFFFFFFFFFFFFFF
310
FFFFFFFFFFFFFFFFFFFFFFFFFFFFFFFFF000FFFFFFFFFFFFFFFFFFFFFFFFFFFF
310
FFFFFFFFFFFFFFFFFFFFFFFFFFFFFFFFFFFFFFFFFFFFFFFFFFFFFFFFFFFFFFFF
310
FFFFFFFFFFFFFFFFFFFFFFFFFFFFFFFFFFFFFFFFFFFFFFFFFFFFFFFFFFFFFFFF
310
FFFFFFFFFFFFFFFFF000FFFFFFFFFFFFFFFFFFFFFFFFFFFFFFFFFFFFFFFFFFFF
310
FFFFFFFFFFFFFFFFFFFFFFFFFFFFFFFFFFFFFFFFFFFFFFFFFFFFFFFFFFFFFFFF
310
FFFFFFFFFFFFFFFFFFFFFFFFFFFFFFFFFFFFFFFFFFFFFFFFFFFFFFFFFFFFFFFF
310
F000FFFFFFFFFFFFFFFFFFFFFFFFFFFFFFFFFFFFFFFFFFFFFFFFFFFFFFFFFFFF
310
FFFFFFFFFFFFFFFFFFFFFFFFFFFFFFFFFFFFFFFFFFFFFFFFFFFFFFFFFFFFFFFF
310
FFFFFFFFFFFFFFFFFFFFFFFFFFFFFFFFFFFFFFFFFFFFFFFFF000FFFFFFFFFFFF
310
FFFFFFFFFFFFFFFFFFFFFFFFFFFFFFFFFFFFFFFFFFFFFFFFFFFFFFFFFFFFFFFF
310
FFFFFFFFFFFFFFFFFFFFFFFFFFFFFFFFFFFFFFFFFFFFFFFFFFFFFFFFFFFFFFFF
310
FFFFFFFFFFFFFFFFFFFFFFFFFFFFFFFFF000FFFFFFFFFFFFFFFFFFFFFFFFFFFF
310
FFFFFFFFFFFFFFFFFFFFFFFFFFFFFFFFFFFFFFFFFFFFFFFFFFFFFFFFFFFFFFFF
310
FFFFFFFFFFFFFFFFFFFFFFFFFFFFFFFFFFFFFFFFFFFFFFFFFFFFFFFFFFFFFFFF
310
FFFFFFFFFFFFFFFFF000FFFFFFFFFFFFFFFFFFFFFFFFFFFFFFFFFFFFFFFFFFFF
310
FFFFFFFFFFFFFFFFFFFFFFFFFFFFFFFFFFFFFFFFFFFFFFFFFFFFFFFFFFFFFFFF
310
FFFFFFFFFFFFFFFFFFFFFFFFFFFFFFFFFFFFFFFFFFFFFFFFFFFFFFFFFFFFFFFF
310
F000FFFFFFFFFFFFFFFFFFFFFFFFFFFFFFFFFFFFFFFFFFFFFFFFFFFFFFFFFFFF
310
FFFFFFFFFFFFFFFFFFFFFFFFFFFFFFFFFFFFFFFFFFFFFFFFFFFFFFFFFFFFFFFF
310
FFFFFFFFFFFFFFFFFFFFFFFFFFFFFFFFFFFFFFFFFFFFFFFFF000FFFFFFFFFFFF
310
FFFFFFFFFFFFFFFFFFFFFFFFFFFFFFFFFFFFFFFFFFFFFFFFFFFFFFFFFFFFFFFF
310
FFFFFFFFFFFFFFFFFFFFFFFFFFFFFFFFFFFFFFFFFFFFFFFFFFFFFFFFFFFFFFFF
310
FFFFFFFFFFFFFFFFFFFFFFFFFFFFFFFFF0000000000000000000000000000000
310
0000000000000000000000000000000000000000000000000000000000000000
310
0000000000000000000000000000000000000000000000000000000000000000
310
0000000000000000000000000000000000000000000000000000000000000000
310
0000000000000000000000000000000000000000000000000000000000000000
310
0000000000000000000000000000000000000000000000000000000000000000
310
0000000000000000000000000000000000000000000000000000000000000000
310
0000000000000000000000000000000000000000000000000000000000000000
310
0000000000000000000000000000000000000000000000000000000000000000
310
0000000000000000000000000000000000000000000000000000000000000000
310
0000000000000000000000000000000000000000000000000000000000000000
310
0000000000000000000000000000000000000000000000000000000000000000
310
0000000000000000000000000000000000000000000000000000000000000000
310
0000000000000000000000000000000000000000000000000000000000000000
310
0000000000000000000000000000000000000000000000000000000000000000
310
0000000000000000000000000000000000000000000000000000000000000000
  1
OLE
  0
ENDSEC
  0
SECTION
  2
OBJECTS
  0
DICTIONARY
  5
C
330
0
100
AcDbDictionary
281
     1
  3
ACAD_GROUP
350
D
  3
ACAD_LAYOUT
350
1A
  3
ACAD_MLINESTYLE
350
17
  3
ACAD_PLOTSETTINGS
350
19
  3
ACAD_PLOTSTYLENAME
350
E
  0
DICTIONARY
  5
D
102
{ACAD_REACTORS
330
C
102
}
330
C
100
AcDbDictionary
281
     1
  0
DICTIONARY
  5
1A
102
{ACAD_REACTORS
330
C
102
}
330
C
100
AcDbDictionary
281
     1
  3
Layout1
350
1E
  3
Layout2
350
26
  3
Model
350
22
  0
DICTIONARY
  5
17
102
{ACAD_REACTORS
330
C
102
}
330
C
100
AcDbDictionary
281
     1
  3
Standard
350
18
  0
DICTIONARY
  5
19
102
{ACAD_REACTORS
330
C
102
}
330
C
100
AcDbDictionary
281
     1
  0
ACDBDICTIONARYWDFLT
  5
E
102
{ACAD_REACTORS
330
C
102
}
330
C
100
AcDbDictionary
281
     1
  3
Normal
350
F
100
AcDbDictionaryWithDefault
340
F
  0
LAYOUT
  5
1E
102
{ACAD_REACTORS
330
1A
102
}
330
1A
100
AcDbPlotSettings
  1

  2
none_device
  4

  6

 40
0.0
 41
0.0
 42
0.0
 43
0.0
 44
0.0
 45
0.0
 46
0.0
 47
0.0
 48
0.0
 49
0.0
140
0.0
141
0.0
142
1.0
143
1.0
 70
   688
 72
     0
 73
     0
 74
     5
  7

 75
    16
147
1.0
148
0.0
149
0.0
100
AcDbLayout
  1
Layout1
 70
     1
 71
     1
 10
0.0
 20
0.0
 11
420.0
 21
297.0
 12
0.0
 22
0.0
 32
0.0
 14
1.0000000000E+20
 24
1.0000000000E+20
 34
1.0000000000E+20
 15
-1.0000000000E+20
 25
-1.0000000000E+20
 35
-1.0000000000E+20
146
0.0
 13
0.0
 23
0.0
 33
0.0
 16
1.0
 26
0.0
 36
0.0
 17
0.0
 27
1.0
 37
0.0
 76
     0
330
1B
  0
LAYOUT
  5
26
102
{ACAD_REACTORS
330
1A
102
}
330
1A
100
AcDbPlotSettings
  1

  2
none_device
  4

  6

 40
0.0
 41
0.0
 42
0.0
 43
0.0
 44
0.0
 45
0.0
 46
0.0
 47
0.0
 48
0.0
 49
0.0
140
0.0
141
0.0
142
1.0
143
1.0
 70
   688
 72
     0
 73
     0
 74
     5
  7

 75
    16
147
1.0
148
0.0
149
0.0
100
AcDbLayout
  1
Layout2
 70
     1
 71
     2
 10
0.0
 20
0.0
 11
0.0
 21
0.0
 12
0.0
 22
0.0
 32
0.0
 14
0.0
 24
0.0
 34
0.0
 15
0.0
 25
0.0
 35
0.0
146
0.0
 13
0.0
 23
0.0
 33
0.0
 16
1.0
 26
0.0
 36
0.0
 17
0.0
 27
1.0
 37
0.0
 76
     0
330
23
  0
LAYOUT
  5
22
102
{ACAD_REACTORS
330
1A
102
}
330
1A
100
AcDbPlotSettings
  1

  2
none_device
  4

  6

 40
0.0
 41
0.0
 42
0.0
 43
0.0
 44
0.0
 45
0.0
 46
0.0
 47
0.0
 48
0.0
 49
0.0
140
0.0
141
0.0
142
1.0
143
1.0
 70
  1712
 72
     0
 73
     0
 74
     0
  7

 75
     0
147
1.0
148
0.0
149
0.0
100
AcDbLayout
  1
Model
 70
     1
 71
     0
 10
0.0
 20
0.0
 11
297.0
 21
210.0
 12
0.0
 22
0.0
 32
0.0
 14
0.0
 24
0.0
 34
0.0
 15
297.0
 25
210.0
 35
0.0
146
0.0
 13
0.0
 23
0.0
 33
0.0
 16
1.0
 26
0.0
 36
0.0
 17
0.0
 27
1.0
 37
0.0
 76
     0
330
1F
331
29
  0
MLINESTYLE
  5
18
102
{ACAD_REACTORS
330
17
102
}
330
17
100
AcDbMlineStyle
  2
Standard
 70
     0
  3

 62
   256
 51
90.0
 52
90.0
 71
     2
 49
0.5
 62
   256
  6
BYLAYER
 49
-0.5
 62
   256
  6
BYLAYER
  0
ACDBPLACEHOLDER
  5
F
102
{ACAD_REACTORS
330
E
102
}
330
E
  0
ENDSEC
  0
EOF
