  0
SECTION
  2
HEADER
  9
$ACADVER
  1
AC1015
  9
$ACADMAINTVER
 70
     6
  9
$DWGCODEPAGE
  3
ANSI_1252
  9
$INSBASE
 10
0.0
 20
0.0
 30
0.0
  9
$EXTMIN
 10
0.0
 20
0.0
 30
0.0
  9
$EXTMAX
 10
297.0
 20
210.0
 30
0.0
  9
$LIMMIN
 10
0.0
 20
0.0
  9
$LIMMAX
 10
297.0
 20
210.0
  9
$ORTHOMODE
 70
     0
  9
$REGENMODE
 70
     1
  9
$FILLMODE
 70
     1
  9
$QTEXTMODE
 70
     0
  9
$MIRRTEXT
 70
     1
  9
$LTSCALE
 40
1.0
  9
$ATTMODE
 70
     1
  9
$TEXTSIZE
 40
2.0
  9
$TRACEWID
 40
1.0
  9
$TEXTSTYLE
  7
Standard
  9
$CLAYER
  8
0
  9
$CELTYPE
  6
ByLayer
  9
$CECOLOR
 62
   256
  9
$CELTSCALE
 40
1.0
  9
$DISPSILH
 70
     0
  9
$DIMSCALE
 40
1.0
  9
$DIMASZ
 40
3.0
  9
$DIMEXO
 40
0.0
  9
$DIMDLI
 40
3.75
  9
$DIMRND
 40
0.0
  9
$DIMDLE
 40
0.0
  9
$DIMEXE
 40
1.0
  9
$DIMTP
 40
0.0
  9
$DIMTM
 40
0.0
  9
$DIMTXT
 40
2.0
  9
$DIMCEN
 40
2.5
  9
$DIMTSZ
 40
0.0
  9
$DIMTOL
 70
     0
  9
$DIMLIM
 70
     0
  9
$DIMTIH
 70
     1
  9
$DIMTOH
 70
     1
  9
$DIMSE1
 70
     0
  9
$DIMSE2
 70
     0
  9
$DIMTAD
 70
     1
  9
$DIMZIN
 70
     0
  9
$DIMBLK
  1

  9
$DIMASO
 70
     1
  9
$DIMSHO
 70
     1
  9
$DIMPOST
  1

  9
$DIMAPOST
  1

  9
$DIMALT
 70
     0
  9
$DIMALTD
 70
     3
  9
$DIMALTF
 40
0.0393700787
  9
$DIMLFAC
 40
1.0
  9
$DIMTOFL
 70
     1
  9
$DIMTVP
 40
0.0
  9
$DIMTIX
 70
     0
  9
$DIMSOXD
 70
     0
  9
$DIMSAH
 70
     0
  9
$DIMBLK1
  1

  9
$DIMBLK2
  1

  9
$DIMSTYLE
  2
ISO-25
  9
$DIMCLRD
 70
     0
  9
$DIMCLRE
 70
     0
  9
$DIMCLRT
 70
     0
  9
$DIMTFAC
 40
1.0
  9
$DIMGAP
 40
1.524
  9
$DIMJUST
 70
     0
  9
$DIMSD1
 70
     0
  9
$DIMSD2
 70
     0
  9
$DIMTOLJ
 70
     0
  9
$DIMTZIN
 70
     0
  9
$DIMALTZ
 70
     0
  9
$DIMALTTZ
 70
     0
  9
$DIMUPT
 70
     0
  9
$DIMDEC
 70
     2
  9
$DIMTDEC
 70
     3
  9
$DIMALTU
 70
     2
  9
$DIMALTTD
 70
     3
  9
$DIMTXSTY
  7
Standard
  9
$DIMAUNIT
 70
     0
  9
$DIMADEC
 70
     2
  9
$DIMALTRND
 40
0.0
  9
$DIMAZIN
 70
     0
  9
$DIMDSEP
 70
    44
  9
$DIMATFIT
 70
     3
  9
$DIMFRAC
 70
     0
  9
$DIMLDRBLK
  1

  9
$DIMLUNIT
 70
     2
  9
$DIMLWD
 70
    -2
  9
$DIMLWE
 70
    -2
  9
$DIMTMOVE
 70
     0
  9
$LUNITS
 70
     2
  9
$LUPREC
 70
     2
  9
$SKETCHINC
 40
1.0
  9
$FILLETRAD
 40
10.0
  9
$AUNITS
 70
     0
  9
$AUPREC
 70
     2
  9
$MENU
  1
.
  9
$ELEVATION
 40
0.0
  9
$PELEVATION
 40
0.0
  9
$THICKNESS
 40
0.0
  9
$LIMCHECK
 70
     0
  9
$CHAMFERA
 40
10.0
  9
$CHAMFERB
 40
10.0
  9
$CHAMFERC
 40
20.0
  9
$CHAMFERD
 40
0.0
  9
$SKPOLY
 70
     0
  9
$TDCREATE
 40
2456085.644272662
  9
$TDUCREATE
 40
2456085.560939329
  9
$TDUPDATE
 40
2456085.644274109
  9
$TDUUPDATE
 40
2456085.560940776
  9
$TDINDWG
 40
0.0000000116
  9
$TDUSRTIMER
 40
0.0000000116
  9
$USRTIMER
 70
     1
  9
$ANGBASE
 50
0.0
  9
$ANGDIR
 70
     0
  9
$PDMODE
 70
     0
  9
$PDSIZE
 40
-1.0
  9
$PLINEWID
 40
0.0
  9
$SPLFRAME
 70
     0
  9
$SPLINETYPE
 70
     6
  9
$SPLINESEGS
 70
     8
  9
$HANDSEED
  5
228
  9
$SURFTAB1
 70
     6
  9
$SURFTAB2
 70
     6
  9
$SURFTYPE
 70
     6
  9
$SURFU
 70
     6
  9
$SURFV
 70
     6
  9
$UCSBASE
  2

  9
$UCSNAME
  2

  9
$UCSORG
 10
0.0
 20
0.0
 30
0.0
  9
$UCSXDIR
 10
1.0
 20
0.0
 30
0.0
  9
$UCSYDIR
 10
0.0
 20
1.0
 30
0.0
  9
$UCSORTHOREF
  2

  9
$UCSORTHOVIEW
 70
     0
  9
$UCSORGTOP
 10
0.0
 20
0.0
 30
0.0
  9
$UCSORGBOTTOM
 10
0.0
 20
0.0
 30
0.0
  9
$UCSORGLEFT
 10
0.0
 20
0.0
 30
0.0
  9
$UCSORGRIGHT
 10
0.0
 20
0.0
 30
0.0
  9
$UCSORGFRONT
 10
0.0
 20
0.0
 30
0.0
  9
$UCSORGBACK
 10
0.0
 20
0.0
 30
0.0
  9
$PUCSBASE
  2

  9
$PUCSNAME
  2

  9
$PUCSORG
 10
0.0
 20
0.0
 30
0.0
  9
$PUCSXDIR
 10
1.0
 20
0.0
 30
0.0
  9
$PUCSYDIR
 10
0.0
 20
1.0
 30
0.0
  9
$PUCSORTHOREF
  2

  9
$PUCSORTHOVIEW
 70
     0
  9
$PUCSORGTOP
 10
0.0
 20
0.0
 30
0.0
  9
$PUCSORGBOTTOM
 10
0.0
 20
0.0
 30
0.0
  9
$PUCSORGLEFT
 10
0.0
 20
0.0
 30
0.0
  9
$PUCSORGRIGHT
 10
0.0
 20
0.0
 30
0.0
  9
$PUCSORGFRONT
 10
0.0
 20
0.0
 30
0.0
  9
$PUCSORGBACK
 10
0.0
 20
0.0
 30
0.0
  9
$USERI1
 70
     0
  9
$USERI2
 70
     0
  9
$USERI3
 70
     0
  9
$USERI4
 70
     0
  9
$USERI5
 70
     0
  9
$USERR1
 40
0.0
  9
$USERR2
 40
0.0
  9
$USERR3
 40
0.0
  9
$USERR4
 40
0.0
  9
$USERR5
 40
0.0
  9
$WORLDVIEW
 70
     1
  9
$SHADEDGE
 70
     3
  9
$SHADEDIF
 70
    70
  9
$TILEMODE
 70
     1
  9
$MAXACTVP
 70
    64
  9
$PINSBASE
 10
0.0
 20
0.0
 30
0.0
  9
$PLIMCHECK
 70
     0
  9
$PEXTMIN
 10
1.0000000000E+20
 20
1.0000000000E+20
 30
1.0000000000E+20
  9
$PEXTMAX
 10
-1.0000000000E+20
 20
-1.0000000000E+20
 30
-1.0000000000E+20
  9
$PLIMMIN
 10
0.0
 20
0.0
  9
$PLIMMAX
 10
420.0
 20
297.0
  9
$UNITMODE
 70
     0
  9
$VISRETAIN
 70
     1
  9
$PLINEGEN
 70
     0
  9
$PSLTSCALE
 70
     1
  9
$TREEDEPTH
 70
  3020
  9
$CMLSTYLE
  2
Standard
  9
$CMLJUST
 70
     0
  9
$CMLSCALE
 40
20.0
  9
$PROXYGRAPHICS
 70
     1
  9
$MEASUREMENT
 70
     1
  9
$CELWEIGHT
370
    -1
  9
$ENDCAPS
280
     0
  9
$JOINSTYLE
280
     0
  9
$LWDISPLAY
290
     1
  9
$INSUNITS
 70
     4
  9
$HYPERLINKBASE
  1

  9
$STYLESHEET
  1

  9
$XEDIT
290
     1
  9
$CEPSNTYPE
380
     0
  9
$PSTYLEMODE
290
     1
  9
$FINGERPRINTGUID
  2
{41819F33-A670-4A35-B5A3-3C7FFE4B7BBE}
  9
$VERSIONGUID
  2
{FAEB1C32-E019-11D5-929B-00C0DF256EC4}
  9
$EXTNAMES
290
     1
  9
$PSVPSCALE
 40
0.0
  9
$OLESTARTUP
290
     0
  0
ENDSEC
  0
SECTION
  2
CLASSES
  0
CLASS
  1
ACDBDICTIONARYWDFLT
  2
AcDbDictionaryWithDefault
  3
ObjectDBX Classes
 90
        0
280
     0
281
     0
  0
CLASS
  1
VISUALSTYLE
  2
AcDbVisualStyle
  3
ObjectDBX Classes
 90
     4095
280
     0
281
     0
  0
CLASS
  1
MATERIAL
  2
AcDbMaterial
  3
ObjectDBX Classes
 90
     1153
280
     0
281
     0
  0
CLASS
  1
ACDBPLACEHOLDER
  2
AcDbPlaceHolder
  3
ObjectDBX Classes
 90
        0
280
     0
281
     0
  0
CLASS
  1
LAYOUT
  2
AcDbLayout
  3
ObjectDBX Classes
 90
        0
280
     0
281
     0
  0
ENDSEC
  0
SECTION
  2
TABLES
  0
TABLE
  2
VPORT
  5
8
330
0
100
AcDbSymbolTable
 70
     1
  0
VPORT
  5
29
330
8
100
AcDbSymbolTableRecord
100
AcDbViewportTableRecord
  2
*Active
 70
     0
 10
0.0
 20
0.0
 11
1.0
 21
1.0
 12
148.5
 22
105.0
 13
0.0
 23
0.0
 14
10.0
 24
10.0
 15
10.0
 25
10.0
 16
0.0
 26
0.0
 36
1.0
 17
0.0
 27
0.0
 37
0.0
 40
210.0
 41
1.4142857143
 42
50.0
 43
0.0
 44
0.0
 50
0.0
 51
0.0
 71
     0
 72
  2000
 73
     1
 74
     3
 75
     0
 76
     0
 77
     0
 78
     0
281
     0
 65
     1
110
0.0
120
0.0
130
0.0
111
1.0
121
0.0
131
0.0
112
0.0
122
1.0
132
0.0
 79
     0
146
0.0
  0
ENDTAB
  0
TABLE
  2
LTYPE
  5
5
330
0
100
AcDbSymbolTable
 70
     6
  0
LTYPE
  5
14
330
5
100
AcDbSymbolTableRecord
100
AcDbLinetypeTableRecord
  2
ByBlock
 70
     0
  3

 72
    65
 73
     0
 40
0.0
  0
LTYPE
  5
15
330
5
100
AcDbSymbolTableRecord
100
AcDbLinetypeTableRecord
  2
ByLayer
 70
     0
  3

 72
    65
 73
     0
 40
0.0
  0
LTYPE
  5
16
330
5
100
AcDbSymbolTableRecord
100
AcDbLinetypeTableRecord
  2
Continuous
 70
     0
  3
Solid line
 72
    65
 73
     0
 40
0.0
  0
LTYPE
  5
3F
330
5
100
AcDbSymbolTableRecord
100
AcDbLinetypeTableRecord
  2
HIDDEN
 70
     0
  3
Hidden __ __ __ __ __ __ __ __ __ __ __ __ __ __
 72
    65
 73
     2
 40
1.905
 49
1.27
 74
     0
 49
-0.635
 74
     0
  0
LTYPE
  5
40
330
5
100
AcDbSymbolTableRecord
100
AcDbLinetypeTableRecord
  2
PHANTOM
 70
     0
  3
Phantom ______  __  __  ______  __  __  ______
 72
    65
 73
     6
 40
12.7
 49
6.35
 74
     0
 49
-1.27
 74
     0
 49
1.27
 74
     0
 49
-1.27
 74
     0
 49
1.27
 74
     0
 49
-1.27
 74
     0
  0
LTYPE
  5
41
330
5
100
AcDbSymbolTableRecord
100
AcDbLinetypeTableRecord
  2
CENTER
 70
     0
  3
Center ____ _ ____ _ ____ _ ____ _ ____ _ ____
 72
    65
 73
     4
 40
10.16
 49
6.35
 74
     0
 49
-1.27
 74
     0
 49
1.27
 74
     0
 49
-1.27
 74
     0
  0
LTYPE
  5
42
330
5
100
AcDbSymbolTableRecord
100
AcDbLinetypeTableRecord
  2
CENTERX2
 70
     0
  3
Center (2x) ________  __  ________  __  _____
 72
    65
 73
     4
 40
20.32
 49
12.7
 74
     0
 49
-2.54
 74
     0
 49
2.54
 74
     0
 49
-2.54
 74
     0
  0
LTYPE
  5
43
330
5
100
AcDbSymbolTableRecord
100
AcDbLinetypeTableRecord
  2
DOT2
 70
     0
  3
Dot (.5x) ........................................
 72
    65
 73
     2
 40
0.635
 49
0.0
 74
     0
 49
-0.635
 74
     0
  0
ENDTAB
  0
TABLE
  2
LAYER
  5
2
330
0
100
AcDbSymbolTable
 70
     5
  0
LAYER
  5
10
330
2
100
AcDbSymbolTableRecord
100
AcDbLayerTableRecord
  2
0
 70
     0
 62
     7
  6
Continuous
370
    -3
390
F
  0
LAYER
  5
44
330
2
100
AcDbSymbolTableRecord
100
AcDbLayerTableRecord
  2
FORMAT
 70
     0
 62
     7
  6
Continuous
370
    -3
390
F
  0
LAYER
  5
45
330
2
100
AcDbSymbolTableRecord
100
AcDbLayerTableRecord
  2
VERMASSUNG
 70
     0
 62
     7
  6
Continuous
370
    -3
390
F
  0
LAYER
  5
46
330
2
100
AcDbSymbolTableRecord
100
AcDbLayerTableRecord
  2
KOPF_DÜNN
 70
     0
 62
     7
  6
Continuous
370
    -3
390
F
  0
LAYER
  5
47
330
2
100
AcDbSymbolTableRecord
100
AcDbLayerTableRecord
  2
KOPF_DICK
 70
     0
 62
     7
  6
Continuous
370
    15
390
F
  0
ENDTAB
  0
TABLE
  2
STYLE
  5
3
330
0
100
AcDbSymbolTable
 70
     2
  0
STYLE
  5
11
330
3
100
AcDbSymbolTableRecord
100
AcDbTextStyleTableRecord
  2
Standard
 70
     0
 40
0.0
 41
1.0
 50
0.0
 71
     0
 42
2.0
  3
txt
  4

  0
STYLE
  5
48
330
3
100
AcDbSymbolTableRecord
100
AcDbTextStyleTableRecord
  2
SLDTEXTSTYLE0
 70
     0
 40
0.0
 41
0.7
 50
0.0
 71
     0
 42
0.2
  3
TXT
  4

  0
ENDTAB
  0
TABLE
  2
VIEW
  5
6
330
0
100
AcDbSymbolTable
 70
     0
  0
ENDTAB
  0
TABLE
  2
UCS
  5
7
330
0
100
AcDbSymbolTable
 70
     0
  0
ENDTAB
  0
TABLE
  2
APPID
  5
9
330
0
100
AcDbSymbolTable
 70
     1
  0
APPID
  5
12
330
9
100
AcDbSymbolTableRecord
100
AcDbRegAppTableRecord
  2
ACAD
 70
     0
  0
ENDTAB
  0
TABLE
  2
DIMSTYLE
  5
A
330
0
100
AcDbSymbolTable
 70
     5
100
AcDbDimStyleTable
  0
DIMSTYLE
105
27
330
A
100
AcDbSymbolTableRecord
100
AcDbDimStyleTableRecord
  2
ISO-25
 70
     0
 41
2.5
 42
0.625
 43
3.75
 44
1.25
 73
     0
 74
     0
 77
     1
 78
     8
140
2.5
141
2.5
143
0.0393700787
147
0.625
171
     3
172
     1
178
     0
271
     2
272
     2
274
     3
278
    44
283
     0
284
     8
340
11
  0
DIMSTYLE
105
1A7
102
{ACAD_REACTORS
330
1A6
330
1B1
330
1BB
330
1CE
330
1D7
102
}
330
A
100
AcDbSymbolTableRecord
100
AcDbDimStyleTableRecord
  2
SLDDIMSTYLE0
 70
     0
 41
3.0
 44
0.0
 45
0.000000001
 73
     0
 74
     0
 77
     1
 78
    12
 79
     3
140
2.0
147
0.5
173
     1
178
     0
271
     2
272
     3
276
     2
284
    12
340
48
  0
DIMSTYLE
105
1C6
102
{ACAD_REACTORS
330
1C5
102
}
330
A
100
AcDbSymbolTableRecord
100
AcDbDimStyleTableRecord
  2
SLDDIMSTYLE1
 70
     0
 41
3.0
 44
0.0
 73
     0
 74
     0
 77
     1
 78
    12
 79
     3
140
2.0
147
0.5
173
     1
178
     0
179
     1
272
     3
276
     2
284
    12
340
48
  0
DIMSTYLE
105
200
102
{ACAD_REACTORS
330
1FF
102
}
330
A
100
AcDbSymbolTableRecord
100
AcDbDimStyleTableRecord
  2
SLDDIMSTYLE2
 70
     0
 41
3.0
 44
0.0
 45
0.000000001
 73
     0
 74
     0
 77
     1
 78
    12
 79
     3
140
2.0
147
0.5
172
     1
173
     1
178
     0
271
     2
272
     3
276
     2
284
    12
289
     0
340
48
  0
DIMSTYLE
105
20F
102
{ACAD_REACTORS
330
20E
102
}
330
A
100
AcDbSymbolTableRecord
100
AcDbDimStyleTableRecord
  2
SLDDIMSTYLE3
 70
     0
 41
3.0
 44
0.0
 73
     0
 74
     0
 77
     1
 78
    12
 79
     3
140
2.0
147
0.5
173
     1
178
     0
179
     2
272
     3
276
     2
284
    12
340
48
  0
ENDTAB
  0
TABLE
  2
BLOCK_RECORD
  5
1
330
0
100
AcDbSymbolTable
 70
    10
  0
BLOCK_RECORD
  5
1F
330
1
100
AcDbSymbolTableRecord
100
AcDbBlockTableRecord
  2
*Model_Space
340
22
  0
BLOCK_RECORD
  5
1B
330
1
100
AcDbSymbolTableRecord
100
AcDbBlockTableRecord
  2
*Paper_Space
340
1E
  0
BLOCK_RECORD
  5
23
330
1
100
AcDbSymbolTableRecord
100
AcDbBlockTableRecord
  2
*Paper_Space0
340
26
  0
BLOCK_RECORD
  5
1A8
330
1
100
AcDbSymbolTableRecord
100
AcDbBlockTableRecord
  2
_D
340
0
  0
BLOCK_RECORD
  5
1B2
330
1
100
AcDbSymbolTableRecord
100
AcDbBlockTableRecord
  2
_D_1
340
0
  0
BLOCK_RECORD
  5
1BC
330
1
100
AcDbSymbolTableRecord
100
AcDbBlockTableRecord
  2
_D_2
340
0
  0
BLOCK_RECORD
  5
1C7
330
1
100
AcDbSymbolTableRecord
100
AcDbBlockTableRecord
  2
_D_3
340
0
  0
BLOCK_RECORD
  5
1CF
330
1
100
AcDbSymbolTableRecord
100
AcDbBlockTableRecord
  2
_D_4
340
0
  0
BLOCK_RECORD
  5
1D8
330
1
100
AcDbSymbolTableRecord
100
AcDbBlockTableRecord
  2
_D_5
340
0
  0
BLOCK_RECORD
  5
201
330
1
100
AcDbSymbolTableRecord
100
AcDbBlockTableRecord
  2
_D_6
340
0
  0
BLOCK_RECORD
  5
210
330
1
100
AcDbSymbolTableRecord
100
AcDbBlockTableRecord
  2
_D_7
340
0
  0
BLOCK_RECORD
  5
21B
330
1
100
AcDbSymbolTableRecord
100
AcDbBlockTableRecord
  2
SW_CENTERMARKSYMBOL_0
340
0
102
{BLKREFS
331
226
102
}
  0
ENDTAB
  0
ENDSEC
  0
SECTION
  2
BLOCKS
  0
BLOCK
  5
20
330
1F
100
AcDbEntity
  8
0
100
AcDbBlockBegin
  2
*Model_Space
 70
     0
 10
0.0
 20
0.0
 30
0.0
  3
*Model_Space
  1

  0
ENDBLK
  5
21
330
1F
100
AcDbEntity
  8
0
100
AcDbBlockEnd
  0
BLOCK
  5
1C
330
1B
100
AcDbEntity
 67
     1
  8
0
100
AcDbBlockBegin
  2
*Paper_Space
 70
     0
 10
0.0
 20
0.0
 30
0.0
  3
*Paper_Space
  1

  0
ENDBLK
  5
1D
330
1B
100
AcDbEntity
 67
     1
  8
0
100
AcDbBlockEnd
  0
BLOCK
  5
24
330
23
100
AcDbEntity
  8
0
100
AcDbBlockBegin
  2
*Paper_Space0
 70
     0
 10
0.0
 20
0.0
 30
0.0
  3
*Paper_Space0
  1

  0
ENDBLK
  5
25
330
23
100
AcDbEntity
  8
0
100
AcDbBlockEnd
  0
BLOCK
  5
1A9
330
1A8
100
AcDbEntity
  8
0
100
AcDbBlockBegin
  2
_D
 70
     0
 10
0.0
 20
0.0
 30
0.0
  3
_D
  1

  0
SOLID
  5
1AB
330
1A8
100
AcDbEntity
  8
VERMASSUNG
100
AcDbTrace
 10
150.9846030075
 20
140.1444063803
 30
0.0
 11
153.9846030075
 21
139.6944063803
 31
0.0
 12
153.9846030075
 22
140.5944063803
 32
0.0
 13
153.9846030075
 23
140.5944063803
 33
0.0
  0
SOLID
  5
1AC
330
1A8
100
AcDbEntity
  8
VERMASSUNG
100
AcDbTrace
 10
260.9846030075
 20
140.1444063803
 30
0.0
 11
257.9846030075
 21
140.5944063803
 31
0.0
 12
257.9846030075
 22
139.6944063803
 32
0.0
 13
257.9846030075
 23
139.6944063803
 33
0.0
  0
LINE
  5
1AD
330
1A8
100
AcDbEntity
  8
VERMASSUNG
100
AcDbLine
 10
150.9846030075
 20
131.9662599264
 30
0.0
 11
150.9846030075
 21
141.1444063803
 31
0.0
  0
LINE
  5
1AE
330
1A8
100
AcDbEntity
  8
VERMASSUNG
100
AcDbLine
 10
260.9846030075
 20
129.2662599264
 30
0.0
 11
260.9846030075
 21
141.1444063803
 31
0.0
  0
LINE
  5
1AF
330
1A8
100
AcDbEntity
  8
VERMASSUNG
100
AcDbLine
 10
150.9846030075
 20
140.1444063803
 30
0.0
 11
260.9846030075
 21
140.1444063803
 31
0.0
  0
MTEXT
  5
1B0
330
1A8
100
AcDbEntity
  8
VERMASSUNG
100
AcDbMText
 10
203.3846027676
 20
142.7225417434
 30
0.1
 40
2.0
 41
0.0
 71
     1
 72
     1
  1
110
  7
SLDTEXTSTYLE0
 73
     1
 44
1.0
  0
ENDBLK
  5
1AA
330
1A8
100
AcDbEntity
  8
0
100
AcDbBlockEnd
  0
BLOCK
  5
1B3
330
1B2
100
AcDbEntity
  8
0
100
AcDbBlockBegin
  2
_D_1
 70
     0
 10
0.0
 20
0.0
 30
0.0
  3
_D_1
  1

  0
SOLID
  5
1B5
330
1B2
100
AcDbEntity
  8
VERMASSUNG
100
AcDbTrace
 10
260.9846030075
 20
148.2662599264
 30
0.0
 11
257.9846030075
 21
148.7162599264
 31
0.0
 12
257.9846030075
 22
147.8162599264
 32
0.0
 13
257.9846030075
 23
147.8162599264
 33
0.0
  0
SOLID
  5
1B6
330
1B2
100
AcDbEntity
  8
VERMASSUNG
100
AcDbTrace
 10
120.9846030075
 20
148.2662599264
 30
0.0
 11
123.9846030075
 21
147.8162599264
 31
0.0
 12
123.9846030075
 22
148.7162599264
 32
0.0
 13
123.9846030075
 23
148.7162599264
 33
0.0
  0
LINE
  5
1B7
330
1B2
100
AcDbEntity
  8
VERMASSUNG
100
AcDbLine
 10
260.9846030075
 20
129.2662599264
 30
0.0
 11
260.9846030075
 21
149.2662599264
 31
0.0
  0
LINE
  5
1B8
330
1B2
100
AcDbEntity
  8
VERMASSUNG
100
AcDbLine
 10
120.9846030075
 20
123.2595857646
 30
0.0
 11
120.9846030075
 21
149.2662599264
 31
0.0
  0
LINE
  5
1B9
330
1B2
100
AcDbEntity
  8
VERMASSUNG
100
AcDbLine
 10
260.9846030075
 20
148.2662599264
 30
0.0
 11
120.9846030075
 21
148.2662599264
 31
0.0
  0
MTEXT
  5
1BA
330
1B2
100
AcDbEntity
  8
VERMASSUNG
100
AcDbMText
 10
188.0846028116
 20
150.8443952895
 30
0.1
 40
2.0
 41
0.0
 71
     1
 72
     1
  1
140
  7
SLDTEXTSTYLE0
 73
     1
 44
1.0
  0
ENDBLK
  5
1B4
330
1B2
100
AcDbEntity
  8
0
100
AcDbBlockEnd
  0
BLOCK
  5
1BD
330
1BC
100
AcDbEntity
  8
0
100
AcDbBlockBegin
  2
_D_2
 70
     0
 10
0.0
 20
0.0
 30
0.0
  3
_D_2
  1

  0
SOLID
  5
1BF
330
1BC
100
AcDbEntity
  8
VERMASSUNG
100
AcDbTrace
 10
277.1322448614
 20
129.2662599264
 30
0.0
 11
276.6822448614
 21
126.2662599264
 31
0.0
 12
277.5822448614
 22
126.2662599264
 32
0.0
 13
277.5822448614
 23
126.2662599264
 33
0.0
  0
SOLID
  5
1C0
330
1BC
100
AcDbEntity
  8
VERMASSUNG
100
AcDbTrace
 10
277.1322448614
 20
107.2662599264
 30
0.0
 11
277.5822448614
 21
110.2662599264
 31
0.0
 12
276.6822448614
 22
110.2662599264
 32
0.0
 13
276.6822448614
 23
110.2662599264
 33
0.0
  0
LINE
  5
1C1
330
1BC
100
AcDbEntity
  8
VERMASSUNG
100
AcDbLine
 10
260.9846030075
 20
129.2662599264
 30
0.0
 11
278.1322448614
 21
129.2662599264
 31
0.0
  0
LINE
  5
1C2
330
1BC
100
AcDbEntity
  8
VERMASSUNG
100
AcDbLine
 10
260.9846030075
 20
107.2662599264
 30
0.0
 11
278.1322448614
 21
107.2662599264
 31
0.0
  0
LINE
  5
1C3
330
1BC
100
AcDbEntity
  8
VERMASSUNG
100
AcDbLine
 10
277.1322448614
 20
129.2662599264
 30
0.0
 11
277.1322448614
 21
107.2662599264
 31
0.0
  0
MTEXT
  5
1C4
330
1BC
100
AcDbEntity
  8
VERMASSUNG
100
AcDbMText
 10
274.5541094983
 20
115.9662598754
 30
0.1
 40
2.0
 41
0.0
 71
     1
 72
     1
  1
22
  7
SLDTEXTSTYLE0
 11
-7.044195017643634E-15
 21
1.0
 31
0.0
 73
     1
 44
1.0
  0
ENDBLK
  5
1BE
330
1BC
100
AcDbEntity
  8
0
100
AcDbBlockEnd
  0
BLOCK
  5
1C8
330
1C7
100
AcDbEntity
  8
0
100
AcDbBlockBegin
  2
_D_3
 70
     0
 10
0.0
 20
0.0
 30
0.0
  3
_D_3
  1

  0
ARC
  5
1CA
330
1C7
100
AcDbEntity
  8
VERMASSUNG
100
AcDbCircle
 10
261.1301341731
 20
129.2662599264
 30
0.0
 40
9.761099899647876
100
AcDbArc
 50
252.4598841946
 51
0.0
  0
SOLID
  5
1CB
330
1C7
100
AcDbEntity
  8
VERMASSUNG
100
AcDbTrace
 10
258.1883975919
 20
119.9589908781
 30
0.0
 11
261.0811004495
 21
119.0453332958
 31
0.0
 12
261.2218590276
 22
119.9342579398
 32
0.0
 13
261.2218590276
 23
119.9342579398
 33
0.0
  0
SOLID
  5
1CC
330
1C7
100
AcDbEntity
  8
VERMASSUNG
100
AcDbTrace
 10
270.8912340727
 20
129.2662599264
 30
0.0
 11
270.0006122728
 21
126.3663818584
 31
0.0
 12
270.8906283133
 22
126.2326977245
 32
0.0
 13
270.8906283133
 23
126.2326977245
 33
0.0
  0
MTEXT
  5
1CD
330
1C7
100
AcDbEntity
  8
VERMASSUNG
100
AcDbMText
 10
261.8261954345
 20
120.8715903055
 30
0.1
 40
2.0
 41
0.0
 71
     1
 72
     1
  1
107.5°
  7
SLDTEXTSTYLE0
 11
0.8066515584257096
 21
0.5910272948767883
 31
0.0
 73
     1
 44
1.0
  0
ENDBLK
  5
1C9
330
1C7
100
AcDbEntity
  8
0
100
AcDbBlockEnd
  0
BLOCK
  5
1D0
330
1CF
100
AcDbEntity
  8
0
100
AcDbBlockBegin
  2
_D_4
 70
     0
 10
0.0
 20
0.0
 30
0.0
  3
_D_4
  1

  0
SOLID
  5
1D2
330
1CF
100
AcDbEntity
  8
VERMASSUNG
100
AcDbTrace
 10
193.0991343821
 20
91.2662599264
 30
0.0
 11
193.5491343821
 21
94.2662599264
 31
0.0
 12
192.6491343821
 22
94.2662599264
 32
0.0
 13
192.6491343821
 23
94.2662599264
 33
0.0
  0
SOLID
  5
1D3
330
1CF
100
AcDbEntity
  8
VERMASSUNG
100
AcDbTrace
 10
193.0991343821
 20
123.2662599264
 30
0.0
 11
192.6491343821
 21
120.2662599264
 31
0.0
 12
193.5491343821
 22
120.2662599264
 32
0.0
 13
193.5491343821
 23
120.2662599264
 33
0.0
  0
LINE
  5
1D4
330
1CF
100
AcDbEntity
  8
VERMASSUNG
100
AcDbLine
 10
193.0991343821
 20
91.2662599264
 30
0.0
 11
193.0991343821
 21
123.2662599264
 31
0.0
  0
MTEXT
  5
1D5
330
1CF
100
AcDbEntity
  8
VERMASSUNG
100
AcDbMText
 10
190.5209989025
 20
112.3523786212
 30
0.1
 40
2.0
 41
0.0
 71
     1
 72
     1
  1
%%c
  7
SLDTEXTSTYLE0
 11
6.123233995736766E-17
 21
1.0
 31
0.0
 73
     1
 44
1.0
  0
MTEXT
  5
1D6
330
1CF
100
AcDbEntity
  8
VERMASSUNG
100
AcDbMText
 10
190.320998893
 20
115.9623786355
 30
0.1
 40
2.0
 41
0.0
 71
     1
 72
     1
  1
32
  7
SLDTEXTSTYLE0
 11
6.123233995736766E-17
 21
1.0
 31
0.0
 73
     1
 44
1.0
  0
ENDBLK
  5
1D1
330
1CF
100
AcDbEntity
  8
0
100
AcDbBlockEnd
  0
BLOCK
  5
1D9
330
1D8
100
AcDbEntity
  8
0
100
AcDbBlockBegin
  2
_D_5
 70
     0
 10
0.0
 20
0.0
 30
0.0
  3
_D_5
  1

  0
SOLID
  5
1DB
330
1D8
100
AcDbEntity
  8
VERMASSUNG
100
AcDbTrace
 10
114.6686330237
 20
132.2662599264
 30
0.0
 11
114.2186330237
 21
129.2662599264
 31
0.0
 12
115.1186330237
 22
129.2662599264
 32
0.0
 13
115.1186330237
 23
129.2662599264
 33
0.0
  0
SOLID
  5
1DC
330
1D8
100
AcDbEntity
  8
VERMASSUNG
100
AcDbTrace
 10
114.6686330237
 20
82.2662599264
 30
0.0
 11
115.1186330237
 21
85.2662599264
 31
0.0
 12
114.2186330237
 22
85.2662599264
 32
0.0
 13
114.2186330237
 23
85.2662599264
 33
0.0
  0
LINE
  5
1DD
330
1D8
100
AcDbEntity
  8
VERMASSUNG
100
AcDbLine
 10
151.2846030075
 20
132.2662599264
 30
0.0
 11
113.6686330237
 21
132.2662599264
 31
0.0
  0
LINE
  5
1DE
330
1D8
100
AcDbEntity
  8
VERMASSUNG
100
AcDbLine
 10
151.2846030075
 20
82.2662599264
 30
0.0
 11
113.6686330237
 21
82.2662599264
 31
0.0
  0
LINE
  5
1DF
330
1D8
100
AcDbEntity
  8
VERMASSUNG
100
AcDbLine
 10
114.6686330237
 20
132.2662599264
 30
0.0
 11
114.6686330237
 21
82.2662599264
 31
0.0
  0
MTEXT
  5
1E0
330
1D8
100
AcDbEntity
  8
VERMASSUNG
100
AcDbMText
 10
111.8904975347
 20
100.8612598172
 30
0.1
 40
2.0
 41
0.0
 71
     1
 72
     1
  1
PSC
  7
SLDTEXTSTYLE0
 11
-7.044195017643634E-15
 21
1.0
 31
0.0
 73
     1
 44
1.0
  0
MTEXT
  5
1E1
330
1D8
100
AcDbEntity
  8
VERMASSUNG
100
AcDbMText
 10
112.0904975442
 20
105.4612599192
 30
0.1
 40
2.0
 41
0.0
 71
     1
 72
     1
  1
%%c
  7
SLDTEXTSTYLE0
 11
-7.044195017643634E-15
 21
1.0
 31
0.0
 73
     1
 44
1.0
  0
MTEXT
  5
1E2
330
1D8
100
AcDbEntity
  8
VERMASSUNG
100
AcDbMText
 10
111.8904975347
 20
109.0712603992
 30
0.1
 40
2.0
 41
0.0
 71
     1
 72
     1
  1
50
  7
SLDTEXTSTYLE0
 11
-7.044195017643634E-15
 21
1.0
 31
0.0
 73
     1
 44
1.0
  0
ENDBLK
  5
1DA
330
1D8
100
AcDbEntity
  8
0
100
AcDbBlockEnd
  0
BLOCK
  5
202
330
201
100
AcDbEntity
  8
0
100
AcDbBlockBegin
  2
_D_6
 70
     0
 10
0.0
 20
0.0
 30
0.0
  3
_D_6
  1

  0
SOLID
  5
204
330
201
100
AcDbEntity
  8
VERMASSUNG
100
AcDbTrace
 10
74.2322239462
 20
93.0355324305
 30
0.0
 11
75.6585017288
 21
90.3581770774
 31
0.0
 12
76.3812636904
 22
90.8944747064
 32
0.0
 13
76.3812636904
 23
90.8944747064
 33
0.0
  0
SOLID
  5
205
330
201
100
AcDbEntity
  8
VERMASSUNG
100
AcDbTrace
 10
50.3967737678
 20
125.1582862787
 30
0.0
 11
48.9704959852
 21
127.8356416318
 31
0.0
 12
48.2477340236
 22
127.2993440028
 32
0.0
 13
48.2477340236
 23
127.2993440028
 33
0.0
  0
LINE
  5
206
330
201
100
AcDbEntity
  8
VERMASSUNG
100
AcDbLine
 10
74.2322239462
 20
93.0355324305
 30
0.0
 11
73.4291551
 21
92.439646176
 31
0.0
  0
LINE
  5
207
330
201
100
AcDbEntity
  8
VERMASSUNG
100
AcDbLine
 10
50.3967737678
 20
125.1582862787
 30
0.0
 11
49.5937049216
 21
124.5624000242
 31
0.0
  0
LINE
  5
208
330
201
100
AcDbEntity
  8
VERMASSUNG
100
AcDbLine
 10
74.2322239462
 20
93.0355324305
 30
0.0
 11
77.807541473
 21
88.2171193533
 31
0.0
  0
LINE
  5
209
330
201
100
AcDbEntity
  8
VERMASSUNG
100
AcDbLine
 10
74.2322239462
 20
93.0355324305
 30
0.0
 11
50.3967737678
 21
125.1582862787
 31
0.0
  0
LINE
  5
20A
330
201
100
AcDbEntity
  8
VERMASSUNG
100
AcDbLine
 10
50.3967737678
 20
125.1582862787
 30
0.0
 11
39.1039579845
 21
140.3774803339
 31
0.0
  0
MTEXT
  5
20B
330
201
100
AcDbEntity
  8
VERMASSUNG
100
AcDbMText
 10
41.1743782694
 20
141.9137558283
 30
0.1
 40
2.0
 41
0.0
 71
     1
 72
     1
  1
%%c
  7
SLDTEXTSTYLE0
 11
0.5958862544617193
 21
-0.8030688462040991
 31
0.0
 73
     1
 44
1.0
  0
MTEXT
  5
20C
330
201
100
AcDbEntity
  8
VERMASSUNG
100
AcDbMText
 10
43.4861414334
 20
139.1338545385
 30
0.1
 40
2.0
 41
0.0
 71
     1
 72
     1
  1
40
  7
SLDTEXTSTYLE0
 11
0.5958862544617193
 21
-0.8030688462040991
 31
0.0
 73
     1
 44
1.0
  0
MTEXT
  5
20D
330
201
100
AcDbEntity
  8
VERMASSUNG
100
AcDbMText
 10
47.0540105178
 20
134.3254796388
 30
0.1
 40
2.0
 41
0.0
 71
     1
 72
     1
  1
min.
  7
SLDTEXTSTYLE0
 11
0.5958862544617193
 21
-0.8030688462040991
 31
0.0
 73
     1
 44
1.0
  0
ENDBLK
  5
203
330
201
100
AcDbEntity
  8
0
100
AcDbBlockEnd
  0
BLOCK
  5
211
330
210
100
AcDbEntity
  8
0
100
AcDbBlockBegin
  2
_D_7
 70
     0
 10
0.0
 20
0.0
 30
0.0
  3
_D_7
  1

  0
ARC
  5
213
330
210
100
AcDbEntity
  8
VERMASSUNG
100
AcDbCircle
 10
62.314498857
 20
124.9655838185
 30
0.0
 40
52.20974079942445
100
AcDbArc
 50
266.0
 51
270.0
  0
ARC
  5
214
330
210
100
AcDbEntity
  8
VERMASSUNG
100
AcDbCircle
 10
62.314498857
 20
124.9655838185
 30
0.0
 40
52.20974079942445
100
AcDbArc
 50
255.9297591861
 51
266.0
  0
ARC
  5
215
330
210
100
AcDbEntity
  8
VERMASSUNG
100
AcDbCircle
 10
62.314498857
 20
124.9655838185
 30
0.0
 40
52.20974079942445
100
AcDbArc
 50
270.0
 51
276.5745493602
  0
SOLID
  5
216
330
210
100
AcDbEntity
  8
VERMASSUNG
100
AcDbTrace
 10
58.6725314438
 20
72.8830233237
 30
0.0
 11
55.7313352432
 21
73.6258994305
 31
0.0
 12
55.6428178809
 22
72.730262966
 32
0.0
 13
55.6428178809
 23
72.730262966
 33
0.0
  0
SOLID
  5
217
330
210
100
AcDbEntity
  8
VERMASSUNG
100
AcDbTrace
 10
62.314498857
 20
72.7558430191
 30
0.0
 11
65.3261761661
 21
72.3921126434
 31
0.0
 12
65.300350869
 22
73.2917420416
 32
0.0
 13
65.300350869
 23
73.2917420416
 33
0.0
  0
LINE
  5
218
330
210
100
AcDbEntity
  8
VERMASSUNG
100
AcDbLine
 10
59.9351088713
 20
90.9387217379
 30
0.0
 11
58.60277497
 21
71.8854592734
 31
0.0
  0
LINE
  5
219
330
210
100
AcDbEntity
  8
VERMASSUNG
100
AcDbLine
 10
62.314498857
 20
79.7662599264
 30
0.0
 11
62.314498857
 21
71.7558430191
 31
0.0
  0
MTEXT
  5
21A
330
210
100
AcDbEntity
  8
VERMASSUNG
100
AcDbMText
 10
50.1255198964
 20
76.799049271
 30
-39.9738209269
 40
2.0
 41
0.0
 71
     1
 72
     1
  1
4°
  7
SLDTEXTSTYLE0
 11
0.9797579816701869
 21
-0.2001856572124031
 31
0.0
 73
     1
 44
1.0
  0
ENDBLK
  5
212
330
210
100
AcDbEntity
  8
0
100
AcDbBlockEnd
  0
BLOCK
  5
21C
330
21B
100
AcDbEntity
  8
0
100
AcDbBlockBegin
  2
SW_CENTERMARKSYMBOL_0
 70
     0
 10
0.0
 20
0.0
 30
0.0
  3
SW_CENTERMARKSYMBOL_0
  1

  0
LINE
  5
21E
330
21B
100
AcDbEntity
  8
VERMASSUNG
 62
     0
100
AcDbLine
 10
0.0
 20
0.0
 30
0.0
 11
0.0
 21
2.5
 31
0.0
  0
LINE
  5
21F
330
21B
100
AcDbEntity
  8
VERMASSUNG
 62
     0
100
AcDbLine
 10
0.0
 20
0.0
 30
0.0
 11
-2.5
 21
0.0
 31
0.0
  0
LINE
  5
220
330
21B
100
AcDbEntity
  8
VERMASSUNG
 62
     0
100
AcDbLine
 10
0.0
 20
0.0
 30
0.0
 11
0.0
 21
-2.5
 31
0.0
  0
LINE
  5
221
330
21B
100
AcDbEntity
  8
VERMASSUNG
 62
     0
100
AcDbLine
 10
0.0
 20
0.0
 30
0.0
 11
2.5
 21
0.0
 31
0.0
  0
LINE
  5
222
330
21B
100
AcDbEntity
  8
VERMASSUNG
 62
     0
100
AcDbLine
 10
0.0
 20
5.0
 30
0.0
 11
0.0
 21
27.5
 31
0.0
  0
LINE
  5
223
330
21B
100
AcDbEntity
  8
VERMASSUNG
 62
     0
100
AcDbLine
 10
-5.0
 20
0.0
 30
0.0
 11
-27.5
 21
0.0
 31
0.0
  0
LINE
  5
224
330
21B
100
AcDbEntity
  8
VERMASSUNG
 62
     0
100
AcDbLine
 10
0.0
 20
-5.0
 30
0.0
 11
0.0
 21
-27.5
 31
0.0
  0
LINE
  5
225
330
21B
100
AcDbEntity
  8
VERMASSUNG
 62
     0
100
AcDbLine
 10
5.0
 20
0.0
 30
0.0
 11
27.5
 21
0.0
 31
0.0
  0
ENDBLK
  5
21D
330
21B
100
AcDbEntity
  8
0
100
AcDbBlockEnd
  0
ENDSEC
  0
SECTION
  2
ENTITIES
  0
MTEXT
  5
49
330
1F
100
AcDbEntity
  8
KOPF_DÜNN
100
AcDbMText
 10
13.8892156294
 20
23.8442973028
 30
0.0
 40
3.0
 41
0.0
 71
     1
 72
     1
  1
PS5.BDB.RQB.110
  7
SLDTEXTSTYLE0
 73
     1
 44
1.0
  0
MTEXT
  5
4A
330
1F
100
AcDbEntity
  8
VERMASSUNG
100
AcDbMText
 10
13.9329988022
 20
28.8834360957
 30
0.0
 40
3.0
 41
0.0
 71
     1
 72
     1
  1
Bohrstange rechts_Boring bar right
  7
SLDTEXTSTYLE0
 73
     1
 44
1.0
  0
MTEXT
  5
4B
330
1F
100
AcDbEntity
  8
VERMASSUNG
100
AcDbMText
 10
98.8601118557
 20
13.8365368179
 30
0.0
 40
2.0
 41
0.0
 71
     1
 72
     1
  1
Datum: 06.06.2012
  7
SLDTEXTSTYLE0
 73
     1
 44
1.0
  0
MTEXT
  5
4C
330
1F
100
AcDbEntity
  8
VERMASSUNG
100
AcDbMText
 10
13.933048693
 20
18.0482802738
 30
0.0
 40
2.0
 41
0.0
 71
     1
 72
     1
  1
PSC ø50 / Wp.: DC..11 T3..
  7
SLDTEXTSTYLE0
 73
     1
 44
1.0
  0
MTEXT
  5
4D
330
1F
100
AcDbEntity
  8
VERMASSUNG
100
AcDbMText
 10
13.9808475933
 20
13.9090973692
 30
0.0
 40
2.0
 41
0.0
 71
     1
 72
     1
  1
Gewicht: 858g
  7
SLDTEXTSTYLE0
 73
     1
 44
1.0
  0
ARC
  5
4E
330
1F
100
AcDbEntity
  8
0
  6
Continuous
 62
     7
370
    15
100
AcDbCircle
 10
170.3846030075
 20
82.8662599264
 30
0.0
 40
0.5999999999999943
100
AcDbArc
 50
270.0
 51
0.0
  0
ARC
  5
4F
330
1F
100
AcDbEntity
  8
0
  6
Continuous
 62
     7
370
    15
100
AcDbCircle
 10
170.3846030075
 20
131.6662599264
 30
0.0
 40
0.5999999999999943
100
AcDbArc
 50
0.0
 51
90.0
  0
LINE
  5
50
330
1F
100
AcDbEntity
  8
0
  6
Continuous
 62
     7
370
    15
100
AcDbLine
 10
151.2846030218
 20
82.2662595539
 30
0.0
 11
170.3846035797
 21
82.2662595539
 31
0.0
  0
LINE
  5
51
330
1F
100
AcDbEntity
  8
0
  6
Continuous
 62
     7
370
    15
100
AcDbLine
 10
170.3846035797
 20
132.2662602989
 30
0.0
 11
151.2846030218
 21
132.2662602989
 31
0.0
  0
ARC
  5
52
330
1F
100
AcDbEntity
  8
0
  6
Continuous
 62
     7
370
    15
100
AcDbCircle
 10
151.2846030075
 20
82.5662599264
 30
0.0
 40
0.3000000000000114
100
AcDbArc
 50
180.0
 51
270.0
  0
ARC
  5
53
330
1F
100
AcDbEntity
  8
0
  6
Continuous
 62
     7
370
    15
100
AcDbCircle
 10
151.2846030075
 20
131.9662599264
 30
0.0
 40
0.3000000000000114
100
AcDbArc
 50
90.0
 51
180.0
  0
ARC
  5
54
330
1F
100
AcDbEntity
  8
0
  6
Continuous
 62
     7
370
    15
100
AcDbCircle
 10
174.9846030075
 20
87.2662599264
 30
0.0
 40
4.000000000000014
100
AcDbArc
 50
90.0
 51
180.0
  0
ARC
  5
55
330
1F
100
AcDbEntity
  8
0
  6
Continuous
 62
     7
370
    15
100
AcDbCircle
 10
174.9846030075
 20
127.2662599264
 30
0.0
 40
4.0
100
AcDbArc
 50
180.0
 51
270.0
  0
LWPOLYLINE
  5
56
330
1F
100
AcDbEntity
  8
0
  6
Continuous
 62
     7
370
    15
100
AcDbPolyline
 90
        3
 70
   128
 43
0.0
 10
150.7846030126
 20
89.4264388709
 10
150.9100579477
 20
89.3581375359
 10
150.9846030075
 20
89.3054004638
  0
LWPOLYLINE
  5
57
330
1F
100
AcDbEntity
  8
0
  6
Continuous
 62
     7
370
    15
100
AcDbPolyline
 90
        3
 70
   128
 43
0.0
 10
150.9846030075
 20
125.227119389
 10
150.9100579477
 20
125.1743823169
 10
150.7846030126
 20
125.1060809819
  0
LINE
  5
58
330
1F
100
AcDbEntity
  8
0
  6
Continuous
 62
     7
370
    15
100
AcDbLine
 10
234.5703868467
 20
123.2662606864
 30
0.0
 11
174.9846032161
 21
123.2662606864
 31
0.0
  0
LINE
  5
59
330
1F
100
AcDbEntity
  8
0
  6
Continuous
 62
     7
370
    15
100
AcDbLine
 10
174.9846032161
 20
91.2662591664
 30
0.0
 11
234.5703868467
 21
91.2662591664
 31
0.0
  0
ARC
  5
5A
330
1F
100
AcDbEntity
  8
0
  6
Continuous
 62
     7
370
    15
100
AcDbCircle
 10
234.5703894451
 20
90.2662599264
 30
0.0
 40
0.999999999999998
100
AcDbArc
 50
45.0
 51
90.0
  0
LINE
  5
5B
330
1F
100
AcDbEntity
  8
0
  6
Continuous
 62
     7
370
    15
100
AcDbLine
 10
235.7955305178
 20
124.0771893291
 30
0.0
 11
235.2774990994
 21
123.5591523229
 31
0.0
  0
LINE
  5
5C
330
1F
100
AcDbEntity
  8
0
  6
Continuous
 62
     7
370
    15
100
AcDbLine
 10
235.2774990994
 20
90.97336753
 30
0.0
 11
235.4846028883
 21
90.7662600158
 31
0.0
  0
LINE
  5
5D
330
1F
100
AcDbEntity
  8
0
  6
Continuous
 62
     7
370
    15
100
AcDbLine
 10
235.4846028883
 20
90.7662600158
 30
0.0
 11
248.6087186534
 21
90.7662600158
 31
0.0
  0
LINE
  5
5E
330
1F
100
AcDbEntity
  8
0
  6
Continuous
 62
     7
370
    15
100
AcDbLine
 10
252.6080115039
 20
121.9652971132
 30
0.0
 11
252.6080115039
 21
122.0573378606
 31
0.0
  0
LINE
  5
5F
330
1F
100
AcDbEntity
  8
0
  6
Continuous
 62
     7
370
    15
100
AcDbLine
 10
255.0212471086
 20
122.1520999326
 30
0.0
 11
255.0212471086
 21
122.0600303142
 31
0.0
  0
LINE
  5
60
330
1F
100
AcDbEntity
  8
0
  6
Continuous
 62
     7
370
    15
100
AcDbLine
 10
251.1883182723
 20
122.0932338266
 30
0.0
 11
251.1883182723
 21
122.0426909505
 31
0.0
  0
LINE
  5
61
330
1F
100
AcDbEntity
  8
0
  6
Continuous
 62
     7
370
    15
100
AcDbLine
 10
256.4383251864
 20
122.0426909505
 30
0.0
 11
256.4383251864
 21
122.0932338266
 31
0.0
  0
LINE
  5
62
330
1F
100
AcDbEntity
  8
0
  6
Continuous
 62
     7
370
    15
100
AcDbLine
 10
170.9846025605
 20
131.6662594555
 30
0.0
 11
170.9846025605
 21
82.8662603973
 31
0.0
  0
SPLINE
  5
63
330
1F
100
AcDbEntity
  8
0
  6
Continuous
 62
     7
370
    15
100
AcDbSpline
210
0.0
220
0.0
230
1.0
 70
     8
 71
     3
 72
    12
 73
     8
 74
     0
 42
0.00000001
 43
0.00000001
 12
1.0
 22
0.0
 32
0.0
 13
1.0
 23
0.0
 33
0.0
 40
0.0
 40
0.0
 40
0.0
 40
0.0
 40
0.2499999999999993
 40
0.2499999999999993
 40
0.4999999999999987
 40
0.4999999999999987
 40
1.0
 40
1.0
 40
1.0
 40
1.0
 10
159.5123598210722
 20
114.8350698955826
 30
0.0
 10
159.4486945845417
 20
114.8350698955825
 30
0.0
 10
159.3890883523183
 20
114.8611420440622
 30
0.0
 10
159.2904278273874
 20
114.9366807948833
 30
0.0
 10
159.2514608373722
 20
114.9839317319796
 30
0.0
 10
159.1520740054477
 20
115.135755549946
 30
0.0
 10
159.1099977580243
 20
115.2485587997111
 30
0.0
 10
159.0793471191799
 20
115.3627129244462
 30
0.0
  0
LINE
  5
64
330
1F
100
AcDbEntity
  8
0
  6
Continuous
 62
     7
370
    15
100
AcDbLine
 10
162.4568458918
 20
114.8350700615
 30
0.0
 11
159.5123596761
 21
114.8350700615
 31
0.0
  0
SPLINE
  5
65
330
1F
100
AcDbEntity
  8
0
  6
Continuous
 62
     7
370
    15
100
AcDbSpline
210
0.0
220
0.0
230
1.0
 70
     8
 71
     3
 72
    12
 73
     8
 74
     0
 42
0.00000001
 43
0.00000001
 12
1.0
 22
0.0
 32
0.0
 13
1.0
 23
0.0
 33
0.0
 40
0.0
 40
0.0
 40
0.0
 40
0.0
 40
0.4999999999999996
 40
0.4999999999999996
 40
0.7499999999999998
 40
0.7499999999999998
 40
1.0
 40
1.0
 40
1.0
 40
1.0
 10
162.8898588958315
 20
115.3627129244462
 30
0.0
 10
162.8591595124642
 20
115.2483772573823
 30
0.0
 10
162.8178094443577
 20
115.1370239045409
 30
0.0
 10
162.7180535161382
 20
114.9842871322922
 30
0.0
 10
162.6783565984055
 20
114.9364272464401
 30
0.0
 10
162.5810984467579
 20
114.8618241330906
 30
0.0
 10
162.5203222887672
 20
114.8350698955825
 30
0.0
 10
162.4568461939393
 20
114.8350698955826
 30
0.0
  0
ELLIPSE
  5
66
330
1F
100
AcDbEntity
  8
0
  6
Continuous
 62
     7
370
    15
100
AcDbEllipse
 10
149.9283453525
 20
107.2662599264
 30
0.0
 11
11.70927234972709
 21
24.6771864409374
 31
0.0
210
0.0
220
0.0
230
1.0
 40
0.3419987131
 41
5.203068809370452
 42
6.114256032590495
  0
SPLINE
  5
67
330
1F
100
AcDbEntity
  8
0
  6
Continuous
 62
     7
370
    15
100
AcDbSpline
210
0.0
220
0.0
230
1.0
 70
     8
 71
     3
 72
    12
 73
     8
 74
     0
 42
0.00000001
 43
0.00000001
 12
1.0
 22
0.0
 32
0.0
 13
1.0
 23
0.0
 33
0.0
 40
0.0
 40
0.0
 40
0.0
 40
0.0
 40
0.2500000000000026
 40
0.2500000000000026
 40
0.5000000000000051
 40
0.5000000000000051
 40
1.0
 40
1.0
 40
1.0
 40
1.0
 10
162.4568461939393
 20
131.092991041904
 30
0.0
 10
162.5205114304698
 20
131.092991041904
 30
0.0
 10
162.5801176626932
 20
131.0847262662382
 30
0.0
 10
162.678778187624
 20
131.060507484655
 30
0.0
 10
162.7177451776393
 20
131.0452501653459
 30
0.0
 10
162.8171320095637
 20
130.9956168110839
 30
0.0
 10
162.8592082569872
 20
130.9579771029098
 30
0.0
 10
162.8898588958315
 20
130.9189014036337
 30
0.0
  0
LINE
  5
68
330
1F
100
AcDbEntity
  8
0
  6
Continuous
 62
     7
370
    15
100
AcDbLine
 10
159.5123596761
 20
131.0929912953
 30
0.0
 11
162.4568458918
 21
131.0929912953
 31
0.0
  0
SPLINE
  5
69
330
1F
100
AcDbEntity
  8
0
  6
Continuous
 62
     7
370
    15
100
AcDbSpline
210
0.0
220
0.0
230
1.0
 70
     8
 71
     3
 72
    12
 73
     8
 74
     0
 42
0.00000001
 43
0.00000001
 12
1.0
 22
0.0
 32
0.0
 13
1.0
 23
0.0
 33
0.0
 40
0.0
 40
0.0
 40
0.0
 40
0.0
 40
0.5000000000000018
 40
0.5000000000000018
 40
0.7500000000000009
 40
0.7500000000000009
 40
1.0
 40
1.0
 40
1.0
 40
1.0
 10
159.0793471191799
 20
130.9189014036337
 30
0.0
 10
159.1100465025472
 20
130.9580392460296
 30
0.0
 10
159.1513965706538
 20
130.9951990287551
 30
0.0
 10
159.2511524988732
 20
131.0451355343828
 30
0.0
 10
159.2908494166059
 20
131.0605884045266
 30
0.0
 10
159.3881075682535
 20
131.0845079481256
 30
0.0
 10
159.4488837262442
 20
131.092991041904
 30
0.0
 10
159.5123598210722
 20
131.092991041904
 30
0.0
  0
ELLIPSE
  5
6A
330
1F
100
AcDbEntity
  8
0
  6
Continuous
 62
     7
370
    15
100
AcDbEllipse
 10
172.0408606625
 20
107.2662599264
 30
0.0
 11
-11.70927234972697
 21
24.67718644093741
 31
0.0
210
0.0
220
0.0
230
1.0
 40
0.3419987131
 41
0.168929274589132
 42
1.08011649780915
  0
SPLINE
  5
6B
330
1F
100
AcDbEntity
  8
0
  6
Continuous
 62
     7
370
    15
100
AcDbSpline
210
0.0
220
0.0
230
1.0
 70
     8
 71
     3
 72
    12
 73
     8
 74
     0
 42
0.00000001
 43
0.00000001
 12
1.0
 22
0.0
 32
0.0
 13
1.0
 23
0.0
 33
0.0
 40
0.0
 40
0.0
 40
0.0
 40
0.0
 40
0.2500000000000007
 40
0.2500000000000007
 40
0.5000000000000013
 40
0.5000000000000013
 40
1.0
 40
1.0
 40
1.0
 40
1.0
 10
159.5123598210722
 20
83.43952881090014
 30
0.0
 10
159.4487232668585
 20
83.43952881090013
 30
0.0
 10
159.3891431399923
 20
83.44778558183188
 30
0.0
 10
159.2905063986259
 20
83.4719876438397
 30
0.0
 10
159.2515477742456
 20
83.48723446287384
 30
0.0
 10
159.1521688347377
 20
83.53683933493396
 30
0.0
 10
159.1102109295722
 20
83.57427098305278
 30
0.0
 10
159.0793471191798
 20
83.61361844917043
 30
0.0
  0
LINE
  5
6C
330
1F
100
AcDbEntity
  8
0
  6
Continuous
 62
     7
370
    15
100
AcDbLine
 10
162.4568458918
 20
83.4395285575
 30
0.0
 11
159.5123596761
 21
83.4395285575
 31
0.0
  0
SPLINE
  5
6D
330
1F
100
AcDbEntity
  8
0
  6
Continuous
 62
     7
370
    15
100
AcDbSpline
210
0.0
220
0.0
230
1.0
 70
     8
 71
     3
 72
    12
 73
     8
 74
     0
 42
0.00000001
 43
0.00000001
 12
1.0
 22
0.0
 32
0.0
 13
1.0
 23
0.0
 33
0.0
 40
0.0
 40
0.0
 40
0.0
 40
0.0
 40
0.5000000000000004
 40
0.5000000000000004
 40
0.7500000000000002
 40
0.7500000000000002
 40
1.0
 40
1.0
 40
1.0
 40
1.0
 10
162.8898588958315
 20
83.61361844917046
 30
0.0
 10
162.8590071852673
 20
83.57428640880796
 30
0.0
 10
162.8171143218067
 20
83.5368746432797
 30
0.0
 10
162.7175934440135
 20
83.4872037186638
 30
0.0
 10
162.6779792792892
 20
83.47181463605597
 30
0.0
 10
162.5808762455097
 20
83.4479814203887
 30
0.0
 10
162.5203775728593
 20
83.43952881089992
 30
0.0
 10
162.4568461939394
 20
83.43952881089992
 30
0.0
  0
ELLIPSE
  5
6E
330
1F
100
AcDbEntity
  8
0
  6
Continuous
 62
     7
370
    15
100
AcDbEllipse
 10
149.9283453525
 20
107.2662599264
 30
0.0
 11
-11.7092723497272
 21
24.67718644093743
 31
0.0
210
0.0
220
0.0
230
1.0
 40
0.3419987131
 41
3.310521928178952
 42
4.221709151398942
  0
SPLINE
  5
6F
330
1F
100
AcDbEntity
  8
0
  6
Continuous
 62
     7
370
    15
100
AcDbSpline
210
0.0
220
0.0
230
1.0
 70
     8
 71
     3
 72
    12
 73
     8
 74
     0
 42
0.00000001
 43
0.00000001
 12
1.0
 22
0.0
 32
0.0
 13
1.0
 23
0.0
 33
0.0
 40
0.0
 40
0.0
 40
0.0
 40
0.0
 40
0.2500000000000005
 40
0.2500000000000005
 40
0.500000000000001
 40
0.500000000000001
 40
1.0
 40
1.0
 40
1.0
 40
1.0
 10
162.4568461939393
 20
99.69744995722135
 30
0.0
 10
162.520482748153
 20
99.69744995722135
 30
0.0
 10
162.5800628750192
 20
99.67140305416339
 30
0.0
 10
162.6786996163856
 20
99.59591589526346
 30
0.0
 10
162.7176582407659
 20
99.54869685673275
 30
0.0
 10
162.8170371802738
 20
99.39695720563921
 30
0.0
 10
162.8589950854392
 20
99.28475498145505
 30
0.0
 10
162.8898588958317
 20
99.16980692835779
 30
0.0
  0
LINE
  5
70
330
1F
100
AcDbEntity
  8
0
  6
Continuous
 62
     7
370
    15
100
AcDbLine
 10
159.5123596761
 20
99.6974497913
 30
0.0
 11
162.4568458918
 21
99.6974497913
 31
0.0
  0
SPLINE
  5
71
330
1F
100
AcDbEntity
  8
0
  6
Continuous
 62
     7
370
    15
100
AcDbSpline
210
0.0
220
0.0
230
1.0
 70
     8
 71
     3
 72
    12
 73
     8
 74
     0
 42
0.00000001
 43
0.00000001
 12
1.0
 22
0.0
 32
0.0
 13
1.0
 23
0.0
 33
0.0
 40
0.0
 40
0.0
 40
0.0
 40
0.0
 40
0.5000000000000004
 40
0.5000000000000004
 40
0.7500000000000002
 40
0.7500000000000002
 40
1.0
 40
1.0
 40
1.0
 40
1.0
 10
159.0793471191799
 20
99.16980692835774
 30
0.0
 10
159.1101988297442
 20
99.28470991729458
 30
0.0
 10
159.1520916932048
 20
99.39684881334342
 30
0.0
 10
159.251612570998
 20
99.54879109494432
 30
0.0
 10
159.2912267357223
 20
99.59645570446922
 30
0.0
 10
159.3883297695018
 20
99.6707920350846
 30
0.0
 10
159.4488284421522
 20
99.69744995722174
 30
0.0
 10
159.5123598210721
 20
99.69744995722175
 30
0.0
  0
ELLIPSE
  5
72
330
1F
100
AcDbEntity
  8
0
  6
Continuous
 62
     7
370
    15
100
AcDbEllipse
 10
172.0408606625
 20
107.2662599264
 30
0.0
 11
11.70927234972706
 21
24.67718644093743
 31
0.0
210
0.0
220
0.0
230
1.0
 40
0.3419987131
 41
2.061476155780653
 42
2.972663379000667
  0
LINE
  5
73
330
1F
100
AcDbEntity
  8
0
  6
Continuous
 62
     7
370
    15
100
AcDbLine
 10
150.9846030075
 20
82.5662590443
 30
0.0
 11
150.9846030075
 21
131.9662608086
 31
0.0
  0
SPLINE
  5
74
330
1F
100
AcDbEntity
  8
0
  6
Continuous
 62
     7
370
    15
100
AcDbSpline
210
0.0
220
0.0
230
1.0
 70
     8
 71
     3
 72
    16
 73
    12
 74
     0
 42
0.00000001
 43
0.00000001
 12
1.0
 22
0.0
 32
0.0
 13
1.0
 23
0.0
 33
0.0
 40
0.0
 40
0.0
 40
0.0
 40
0.0
 40
0.2499999999999997
 40
0.2499999999999997
 40
0.4999999999999993
 40
0.4999999999999993
 40
0.6249999999999996
 40
0.6249999999999996
 40
0.7499999999999999
 40
0.7499999999999999
 40
1.0
 40
1.0
 40
1.0
 40
1.0
 10
149.9437419793767
 20
89.91710264520954
 30
0.0
 10
149.9754699405694
 20
89.91630552838862
 30
0.0
 10
150.0100975309199
 20
89.91571445353335
 30
0.0
 10
150.0897912929835
 20
89.9147029280989
 30
0.0
 10
150.1348327529872
 20
89.914302819924
 30
0.0
 10
150.2176854798377
 20
89.91334494802017
 30
0.0
 10
150.2475999410375
 20
89.91296326675973
 30
0.0
 10
150.3135862715955
 20
89.9118870527012
 30
0.0
 10
150.3503198970572
 20
89.91116948680707
 30
0.0
 10
150.462816616627
 20
89.90840860912542
 30
0.0
 10
150.5331579647253
 20
89.90592151725382
 30
0.0
 10
150.5896261186305
 20
89.90374823884672
 30
0.0
  0
SPLINE
  5
75
330
1F
100
AcDbEntity
  8
0
  6
Continuous
 62
     7
370
    15
100
AcDbSpline
210
0.0
220
0.0
230
1.0
 70
     8
 71
     3
 72
    14
 73
    10
 74
     0
 42
0.00000001
 43
0.00000001
 12
1.0
 22
0.0
 32
0.0
 13
1.0
 23
0.0
 33
0.0
 40
0.0
 40
0.0
 40
0.0
 40
0.0
 40
0.1250000000000054
 40
0.1250000000000054
 40
0.2500000000000107
 40
0.2500000000000107
 40
0.5000000000000099
 40
0.5000000000000099
 40
1.0
 40
1.0
 40
1.0
 40
1.0
 10
150.5896261185989
 20
89.90374823886943
 30
0.0
 10
150.6022179125436
 20
89.90326362104709
 30
0.0
 10
150.6170890208377
 20
89.90155344311474
 30
0.0
 10
150.6492731122709
 20
89.89343789436388
 30
0.0
 10
150.6648772437467
 20
89.88722210610256
 30
0.0
 10
150.7007643834588
 20
89.86900299440099
 30
0.0
 10
150.7146164247274
 20
89.85723796606736
 30
0.0
 10
150.7481061666601
 20
89.82544282965006
 30
0.0
 10
150.7587684272358
 20
89.80764939780693
 30
0.0
 10
150.7669063841307
 20
89.79121826696252
 30
0.0
  0
LINE
  5
76
330
1F
100
AcDbEntity
  8
0
  6
Continuous
 62
     7
370
    15
100
AcDbLine
 10
150.7846030126
 20
101.2817798993
 30
0.0
 11
150.7846030126
 21
89.4264388709
 31
0.0
  0
SPLINE
  5
77
330
1F
100
AcDbEntity
  8
0
  6
Continuous
 62
     7
370
    15
100
AcDbSpline
210
0.0
220
0.0
230
1.0
 70
     8
 71
     3
 72
    16
 73
    12
 74
     0
 42
0.00000001
 43
0.00000001
 12
1.0
 22
0.0
 32
0.0
 13
1.0
 23
0.0
 33
0.0
 40
0.0
 40
0.0
 40
0.0
 40
0.0
 40
0.5
 40
0.5
 40
0.75
 40
0.75
 40
0.875
 40
0.875
 40
0.9375
 40
0.9375
 40
1.0
 40
1.0
 40
1.0
 40
1.0
 10
150.7846030075057
 20
101.2817796938275
 30
0.0
 10
150.7846030075057
 20
101.3963094245265
 30
0.0
 10
150.7805457053907
 20
101.511625499716
 30
0.0
 10
150.7548884625959
 20
101.6865485895435
 30
0.0
 10
150.7435730168538
 20
101.7463778925384
 30
0.0
 10
150.7095416495451
 20
101.8309690787866
 30
0.0
 10
150.6956626683413
 20
101.8596386649307
 30
0.0
 10
150.659726986574
 20
101.889446451877
 30
0.0
 10
150.6447766673112
 20
101.8957816052366
 30
0.0
 10
150.6148781545693
 20
101.8945561423663
 30
0.0
 10
150.6013452942041
 20
101.8879575563315
 30
0.0
 10
150.5896261186301
 20
101.8793098682751
 30
0.0
  0
SPLINE
  5
78
330
1F
100
AcDbEntity
  8
0
  6
Continuous
 62
     7
370
    15
100
AcDbSpline
210
0.0
220
0.0
230
1.0
 70
     8
 71
     3
 72
    14
 73
    10
 74
     0
 42
0.00000001
 43
0.00000001
 12
1.0
 22
0.0
 32
0.0
 13
1.0
 23
0.0
 33
0.0
 40
0.0
 40
0.0
 40
0.0
 40
0.0
 40
0.25
 40
0.25
 40
0.5
 40
0.5
 40
0.75
 40
0.75
 40
1.0
 40
1.0
 40
1.0
 40
1.0
 10
150.5896261186369
 20
101.8793098682665
 30
0.0
 10
150.5331664527532
 20
101.8376477585677
 30
0.0
 10
150.462293977891
 20
101.8068142779795
 30
0.0
 10
150.313827620009
 20
101.8125287865926
 30
0.0
 10
150.2446324168012
 20
101.8480997140255
 30
0.0
 10
150.1349152307317
 20
101.9350436264994
 30
0.0
 10
150.0896693417997
 20
101.9874759398645
 30
0.0
 10
150.0100522108328
 20
102.096029021383
 30
0.0
 10
149.9754495913759
 20
102.1530121076255
 30
0.0
 10
149.9437419793771
 20
102.2115781902834
 30
0.0
  0
SPLINE
  5
79
330
1F
100
AcDbEntity
  8
0
  6
Continuous
 62
     7
370
    15
100
AcDbSpline
210
0.0
220
0.0
230
1.0
 70
     8
 71
     3
 72
    10
 73
     6
 74
     0
 42
0.00000001
 43
0.00000001
 12
1.0
 22
0.0
 32
0.0
 13
1.0
 23
0.0
 33
0.0
 40
0.0
 40
0.0
 40
0.0
 40
0.0
 40
0.5
 40
0.5
 40
1.0
 40
1.0
 40
1.0
 40
1.0
 10
149.6632826639461
 20
103.0643967819297
 30
0.0
 10
149.6941612475581
 20
102.91476823007
 30
0.0
 10
149.7301539552814
 20
102.7682728125464
 30
0.0
 10
149.8194942067785
 20
102.4830811740057
 30
0.0
 10
149.8719525096241
 20
102.3441781482897
 30
0.0
 10
149.9437419793772
 20
102.2115781902832
 30
0.0
  0
SPLINE
  5
7A
330
1F
100
AcDbEntity
  8
0
  6
Continuous
 62
     7
370
    15
100
AcDbSpline
210
0.0
220
0.0
230
1.0
 70
     8
 71
     3
 72
    10
 73
     6
 74
     0
 42
0.00000001
 43
0.00000001
 12
1.0
 22
0.0
 32
0.0
 13
1.0
 23
0.0
 33
0.0
 40
0.0
 40
0.0
 40
0.0
 40
0.0
 40
0.5
 40
0.5
 40
1.0
 40
1.0
 40
1.0
 40
1.0
 10
149.9437419793765
 20
112.3209416625197
 30
0.0
 10
149.8719525096236
 20
112.1883417045134
 30
0.0
 10
149.8194942067782
 20
112.0494386787976
 30
0.0
 10
149.7301539552813
 20
111.7642470402573
 30
0.0
 10
149.694161247558
 20
111.617751622734
 30
0.0
 10
149.6632826639461
 20
111.4681230708745
 30
0.0
  0
SPLINE
  5
7B
330
1F
100
AcDbEntity
  8
0
  6
Continuous
 62
     7
370
    15
100
AcDbSpline
210
0.0
220
0.0
230
1.0
 70
     8
 71
     3
 72
    14
 73
    10
 74
     0
 42
0.00000001
 43
0.00000001
 12
1.0
 22
0.0
 32
0.0
 13
1.0
 23
0.0
 33
0.0
 40
0.0
 40
0.0
 40
0.0
 40
0.0
 40
0.25
 40
0.25
 40
0.5
 40
0.5
 40
0.75
 40
0.75
 40
1.0
 40
1.0
 40
1.0
 40
1.0
 10
149.9437419793759
 20
112.3209416625185
 30
0.0
 10
149.9754506788612
 20
112.3795097538371
 30
0.0
 10
150.0100584975019
 20
112.4365040157771
 30
0.0
 10
150.0897169079912
 20
112.5451041505411
 30
0.0
 10
150.134779177886
 20
112.5974322859197
 30
0.0
 10
150.2453610234645
 20
112.6849332972819
 30
0.0
 10
150.3130051442797
 20
112.7199787535362
 30
0.0
 10
150.4632534346768
 20
112.7257231422922
 30
0.0
 10
150.5332058329072
 20
112.6948430352422
 30
0.0
 10
150.5896261186307
 20
112.6532099845291
 30
0.0
  0
SPLINE
  5
7C
330
1F
100
AcDbEntity
  8
0
  6
Continuous
 62
     7
370
    15
100
AcDbSpline
210
0.0
220
0.0
230
1.0
 70
     8
 71
     3
 72
    16
 73
    12
 74
     0
 42
0.00000001
 43
0.00000001
 12
1.0
 22
0.0
 32
0.0
 13
1.0
 23
0.0
 33
0.0
 40
0.0
 40
0.0
 40
0.0
 40
0.0
 40
0.0625000000000013
 40
0.0625000000000013
 40
0.1250000000000026
 40
0.1250000000000026
 40
0.2500000000000028
 40
0.2500000000000028
 40
0.500000000000003
 40
0.500000000000003
 40
1.0
 40
1.0
 40
1.0
 40
1.0
 10
150.5896261185989
 20
112.6532099844757
 30
0.0
 10
150.6013603530457
 20
112.6445511843315
 30
0.0
 10
150.6148921085247
 20
112.6379470990962
 30
0.0
 10
150.6448795689545
 20
112.636750131922
 30
0.0
 10
150.6598742753628
 20
112.643171878988
 30
0.0
 10
150.6956146977576
 20
112.6728890323972
 30
0.0
 10
150.7096280347588
 20
112.7016964297806
 30
0.0
 10
150.7437721235401
 20
112.7867761514065
 30
0.0
 10
150.7547440276585
 20
112.8451511006762
 30
0.0
 10
150.7805895679248
 20
113.0208666254648
 30
0.0
 10
150.7846030075057
 20
113.1366616333293
 30
0.0
 10
150.7846030075057
 20
113.2507401589767
 30
0.0
  0
LINE
  5
7D
330
1F
100
AcDbEntity
  8
0
  6
Continuous
 62
     7
370
    15
100
AcDbLine
 10
150.7846030126
 20
125.1060809819
 30
0.0
 11
150.7846030126
 21
113.2507399535
 31
0.0
  0
SPLINE
  5
7E
330
1F
100
AcDbEntity
  8
0
  6
Continuous
 62
     7
370
    15
100
AcDbSpline
210
0.0
220
0.0
230
1.0
 70
     8
 71
     3
 72
    16
 73
    12
 74
     0
 42
0.00000001
 43
0.00000001
 12
1.0
 22
0.0
 32
0.0
 13
1.0
 23
0.0
 33
0.0
 40
0.0
 40
0.0
 40
0.0
 40
0.0
 40
0.4999999999999982
 40
0.4999999999999982
 40
0.75
 40
0.75
 40
0.8750000000000001
 40
0.8750000000000001
 40
0.9375000000000001
 40
0.9375000000000001
 40
1.0
 40
1.0
 40
1.0
 40
1.0
 10
150.7846030075059
 20
124.8130143920697
 30
0.0
 10
150.7846030075056
 20
124.7909993774904
 30
0.0
 10
150.7804784646517
 20
124.7656457427866
 30
0.0
 10
150.7545620190185
 20
124.7184852405981
 30
0.0
 10
150.7432844379987
 20
124.7012862523693
 30
0.0
 10
150.7095490594573
 20
124.6713082868001
 30
0.0
 10
150.695160244213
 20
124.6599568782582
 30
0.0
 10
150.6599135547739
 20
124.6432690187808
 30
0.0
 10
150.6447081303169
 20
124.6377059918955
 30
0.0
 10
150.6150615511476
 20
124.6307364088604
 30
0.0
 10
150.6013562151502
 20
124.629223067805
 30
0.0
 10
150.5896261186265
 20
124.6287716139551
 30
0.0
  0
SPLINE
  5
7F
330
1F
100
AcDbEntity
  8
0
  6
Continuous
 62
     7
370
    15
100
AcDbSpline
210
0.0
220
0.0
230
1.0
 70
     8
 71
     3
 72
    14
 73
    10
 74
     0
 42
0.00000001
 43
0.00000001
 12
1.0
 22
0.0
 32
0.0
 13
1.0
 23
0.0
 33
0.0
 40
0.0
 40
0.0
 40
0.0
 40
0.0
 40
0.2500000000000005
 40
0.2500000000000005
 40
0.500000000000001
 40
0.500000000000001
 40
0.7500000000000004
 40
0.7500000000000004
 40
1.0
 40
1.0
 40
1.0
 40
1.0
 10
150.5896261186369
 20
124.6287716139577
 30
0.0
 10
150.5331790365786
 20
124.6265991465384
 30
0.0
 10
150.4623286525358
 20
124.6241010486209
 30
0.0
 10
150.3138922177194
 20
124.6204545898327
 30
0.0
 10
150.2447029660325
 20
124.6194868429815
 30
0.0
 10
150.1349914177916
 20
124.6182192836188
 30
0.0
 10
150.0897497684493
 20
124.6178164426905
 30
0.0
 10
150.0101017502654
 20
124.6168054077628
 30
0.0
 10
149.9754748344993
 20
124.6162144473682
 30
0.0
 10
149.943741979378
 20
124.6154172075948
 30
0.0
  0
SPLINE
  5
80
330
1F
100
AcDbEntity
  8
0
  6
Continuous
 62
     7
370
    15
100
AcDbSpline
210
0.0
220
0.0
230
1.0
 70
     8
 71
     3
 72
    18
 73
    14
 74
     0
 42
0.00000001
 43
0.00000001
 12
1.0
 22
0.0
 32
0.0
 13
1.0
 23
0.0
 33
0.0
 40
0.0
 40
0.0
 40
0.0
 40
0.0
 40
0.2499999999999998
 40
0.2499999999999998
 40
0.3749999999999998
 40
0.3749999999999998
 40
0.4999999999999999
 40
0.4999999999999999
 40
0.6249999999999999
 40
0.6249999999999999
 40
0.7499999999999999
 40
0.7499999999999999
 40
1.0
 40
1.0
 40
1.0
 40
1.0
 10
149.6632826639461
 20
111.4681230708745
 30
0.0
 10
149.5279970576437
 20
110.8125687354533
 30
0.0
 10
149.4268293114008
 20
110.1329476416557
 30
0.0
 10
149.3239679685319
 20
109.0775836351617
 30
0.0
 10
149.2978651230086
 20
108.718769570577
 30
0.0
 10
149.2629751394637
 20
107.9926566264541
 30
0.0
 10
149.2543888811738
 20
107.630566947438
 30
0.0
 10
149.2542891716081
 20
106.9082572900196
 30
0.0
 10
149.2627775427567
 20
106.5480374879112
 30
0.0
 10
149.2969209222773
 20
105.8294714188173
 30
0.0
 10
149.3227179041311
 20
105.4697057029019
 30
0.0
 10
149.426119035519
 20
104.4030611159075
 30
0.0
 10
149.5279770276904
 20
103.7200481766252
 30
0.0
 10
149.6632826639461
 20
103.0643967819297
 30
0.0
  0
LINE
  5
81
330
1F
100
AcDbEntity
  8
0
  6
Continuous
 62
     7
370
    15
100
AcDbLine
 10
148.7846030194
 20
112.4064122206
 30
0.0
 11
148.7846030194
 21
102.1261076322
 31
0.0
  0
LINE
  5
82
330
1F
100
AcDbEntity
  8
0
  6
Continuous
 62
     7
370
    15
100
AcDbLine
 10
122.4846029926
 20
112.0760385758
 30
0.0
 11
122.4846029926
 21
102.456481277
 31
0.0
  0
LINE
  5
83
330
1F
100
AcDbEntity
  8
0
  6
Continuous
 62
     7
370
    15
100
AcDbLine
 10
120.9846036781
 20
111.6430257326
 30
0.0
 11
120.9846036781
 21
102.8894941202
 31
0.0
  0
LINE
  5
84
330
1F
100
AcDbEntity
  8
0
  6
Continuous
 62
     7
370
    15
100
AcDbLine
 10
148.7846030194
 20
89.7461619107
 30
0.0
 11
148.7846030194
 21
102.1261076322
 31
0.0
  0
ARC
  5
85
330
1F
100
AcDbEntity
  8
0
  6
Continuous
 62
     7
370
    15
100
AcDbCircle
 10
148.9845399184
 20
89.7411380307
 30
0.0
 40
0.2000000000000063
100
AcDbArc
 50
88.5608333333
 51
178.5608333333
  0
LINE
  5
86
330
1F
100
AcDbEntity
  8
0
  6
Continuous
 62
     7
370
    15
100
AcDbLine
 10
122.4846029926
 20
90.4069092004
 30
0.0
 11
122.4846029926
 21
102.456481277
 31
0.0
  0
LINE
  5
87
330
1F
100
AcDbEntity
  8
0
  6
Continuous
 62
     7
370
    15
100
AcDbLine
 10
122.4846029926
 20
90.4069092004
 30
0.0
 11
148.7846030194
 21
89.7461619107
 31
0.0
  0
LINE
  5
88
330
1F
100
AcDbEntity
  8
0
  6
Continuous
 62
     7
370
    15
100
AcDbLine
 10
148.7846030194
 20
112.4064122206
 30
0.0
 11
148.7846030194
 21
124.7863579421
 31
0.0
  0
ARC
  5
89
330
1F
100
AcDbEntity
  8
0
  6
Continuous
 62
     7
370
    15
100
AcDbCircle
 10
148.9845399184
 20
124.7913818221
 30
0.0
 40
0.2000000000000059
100
AcDbArc
 50
181.4391666667
 51
271.4391666667
  0
LINE
  5
8A
330
1F
100
AcDbEntity
  8
0
  6
Continuous
 62
     7
370
    15
100
AcDbLine
 10
122.4846029926
 20
112.0760385758
 30
0.0
 11
122.4846029926
 21
124.1256106524
 31
0.0
  0
LINE
  5
8B
330
1F
100
AcDbEntity
  8
0
  6
Continuous
 62
     7
370
    15
100
AcDbLine
 10
122.4846029926
 20
124.1256106524
 30
0.0
 11
148.7846030194
 21
124.7863579421
 31
0.0
  0
LINE
  5
8C
330
1F
100
AcDbEntity
  8
0
  6
Continuous
 62
     7
370
    15
100
AcDbLine
 10
148.9895631365
 20
89.9410746871
 30
0.0
 11
149.943741997
 21
89.917102444
 31
0.0
  0
LINE
  5
8D
330
1F
100
AcDbEntity
  8
0
  6
Continuous
 62
     7
370
    15
100
AcDbLine
 10
148.9895631365
 20
124.5914451657
 30
0.0
 11
149.943741997
 21
124.6154174088
 31
0.0
  0
LINE
  5
8E
330
1F
100
AcDbEntity
  8
0
  6
Continuous
 62
     7
370
    15
100
AcDbLine
 10
120.9846036781
 20
123.2595849661
 30
0.0
 11
122.4846029926
 21
124.1256106524
 31
0.0
  0
LINE
  5
8F
330
1F
100
AcDbEntity
  8
0
  6
Continuous
 62
     7
370
    15
100
AcDbLine
 10
120.9846036781
 20
111.6430257326
 30
0.0
 11
120.9846036781
 21
123.2595849661
 31
0.0
  0
LINE
  5
90
330
1F
100
AcDbEntity
  8
0
  6
Continuous
 62
     7
370
    15
100
AcDbLine
 10
120.9846036781
 20
91.2729348867
 30
0.0
 11
122.4846029926
 21
90.4069092004
 31
0.0
  0
LINE
  5
91
330
1F
100
AcDbEntity
  8
0
  6
Continuous
 62
     7
370
    15
100
AcDbLine
 10
120.9846036781
 20
91.2729348867
 30
0.0
 11
120.9846036781
 21
102.8894941202
 31
0.0
  0
LINE
  5
92
330
1F
100
AcDbEntity
  8
0
  6
Continuous
 62
     7
370
    15
100
AcDbLine
 10
233.2865847547
 20
123.2658192395
 30
0.0
 11
234.5703868467
 21
123.2658192395
 31
0.0
  0
SPLINE
  5
93
330
1F
100
AcDbEntity
  8
0
  6
Continuous
 62
     7
370
    15
100
AcDbSpline
210
0.0
220
0.0
230
1.0
 70
     8
 71
     3
 72
    14
 73
    10
 74
     0
 42
0.00000001
 43
0.00000001
 12
1.0
 22
0.0
 32
0.0
 13
1.0
 23
0.0
 33
0.0
 40
0.0
 40
0.0
 40
0.0
 40
0.0
 40
0.25
 40
0.25
 40
0.5
 40
0.5
 40
0.75
 40
0.75
 40
1.0
 40
1.0
 40
1.0
 40
1.0
 10
230.3888064925754
 20
123.0912470120977
 30
0.0
 10
230.472839152249
 20
123.1386257476256
 30
0.0
 10
230.6049373685171
 20
123.1732592057192
 30
0.0
 10
230.9682206418924
 20
123.2241907493744
 30
0.0
 10
231.1905095418805
 20
123.2392556287751
 30
0.0
 10
231.7132099547485
 20
123.2582740942765
 30
0.0
 10
232.0027797938849
 20
123.2619093133531
 30
0.0
 10
232.6286959986284
 20
123.2656811127997
 30
0.0
 10
232.9545057046399
 20
123.2658184358327
 30
0.0
 10
233.2865839714426
 20
123.2658184358327
 30
0.0
  0
ELLIPSE
  5
94
330
1F
100
AcDbEntity
  8
0
  6
Continuous
 62
     7
370
    15
100
AcDbEllipse
 10
231.3154244475
 20
107.2662599264
 30
0.0
 11
-0.3220561513869029
 21
15.99976859320063
 31
0.0
210
0.0
220
0.0
230
1.0
 40
0.2671959542
 41
0.1426643238695718
 42
2.848545425119173
  0
SPLINE
  5
95
330
1F
100
AcDbEntity
  8
0
  6
Continuous
 62
     7
370
    15
100
AcDbSpline
210
0.0
220
0.0
230
1.0
 70
     8
 71
     3
 72
    14
 73
    10
 74
     0
 42
0.00000001
 43
0.00000001
 12
1.0
 22
0.0
 32
0.0
 13
1.0
 23
0.0
 33
0.0
 40
0.0
 40
0.0
 40
0.0
 40
0.0
 40
0.25
 40
0.25
 40
0.5
 40
0.5
 40
0.75
 40
0.75
 40
1.0
 40
1.0
 40
1.0
 40
1.0
 10
233.2865839714426
 20
91.43895002041045
 30
0.0
 10
232.9545083972225
 20
91.43895002041045
 30
0.0
 10
232.6315873919635
 20
91.44656578483992
 30
0.0
 10
232.0040122684155
 20
91.48020358872354
 30
0.0
 10
231.7153141969414
 20
91.50548185534504
 30
0.0
 10
231.1920807201638
 20
91.58078877828335
 30
0.0
 10
230.9692413192559
 20
91.62932980552446
 30
0.0
 10
230.6062729976621
 20
91.75629972669635
 30
0.0
 10
230.4728415303437
 20
91.83259991334106
 30
0.0
 10
230.3888064925754
 20
91.92373446306513
 30
0.0
  0
LINE
  5
96
330
1F
100
AcDbEntity
  8
0
  6
Continuous
 62
     7
370
    15
100
AcDbLine
 10
234.5703868467
 20
91.4389505862
 30
0.0
 11
233.2865847547
 21
91.4389505862
 31
0.0
  0
ELLIPSE
  5
97
330
1F
100
AcDbEntity
  8
0
  6
Continuous
 62
     7
370
    15
100
AcDbEllipse
 10
229.0986920048
 20
114.1847106884
 30
0.0
 11
0.08998737201207517
 21
2.357478075397736
 31
0.0
210
0.0
220
0.0
230
1.0
 40
0.2521532344
 41
0.0
 42
6.283185307179586
  0
SPLINE
  5
98
330
1F
100
AcDbEntity
  8
0
  6
Continuous
 62
     7
370
    15
100
AcDbSpline
210
0.0
220
0.0
230
1.0
 70
     8
 71
     3
 72
    10
 73
     6
 74
     0
 42
0.00000001
 43
0.00000001
 12
1.0
 22
0.0
 32
0.0
 13
1.0
 23
0.0
 33
0.0
 40
0.0
 40
0.0
 40
0.0
 40
0.0
 40
0.5
 40
0.5
 40
1.0
 40
1.0
 40
1.0
 40
1.0
 10
234.5703894451326
 20
123.2658184358327
 30
0.0
 10
234.7024519358202
 20
123.2658184358327
 30
0.0
 10
234.8320503604313
 20
123.2918287390724
 30
0.0
 10
235.0740375774364
 20
123.3921062776778
 30
0.0
 10
235.184250108863
 20
123.4655689934564
 30
0.0
 10
235.2774962263195
 20
123.5588561952771
 30
0.0
  0
SPLINE
  5
99
330
1F
100
AcDbEntity
  8
0
  6
Continuous
 62
     7
370
    15
100
AcDbSpline
210
0.0
220
0.0
230
1.0
 70
     8
 71
     3
 72
    10
 73
     6
 74
     0
 42
0.00000001
 43
0.00000001
 12
1.0
 22
0.0
 32
0.0
 13
1.0
 23
0.0
 33
0.0
 40
0.0
 40
0.0
 40
0.0
 40
0.0
 40
0.5
 40
0.5
 40
1.0
 40
1.0
 40
1.0
 40
1.0
 10
235.2774962263192
 20
91.14591226096577
 30
0.0
 10
235.1842512666537
 20
91.23919830448546
 30
0.0
 10
235.0743552170993
 20
91.31247990564533
 30
0.0
 10
234.8323916276105
 20
91.41284880672482
 30
0.0
 10
234.7024585545023
 20
91.43895002041063
 30
0.0
 10
234.5703894451326
 20
91.43895002041063
 30
0.0
  0
LINE
  5
9A
330
1F
100
AcDbEntity
  8
0
  6
Continuous
 62
     7
370
    15
100
AcDbLine
 10
235.2774990994
 20
123.5591523229
 30
0.0
 11
235.2774990994
 21
123.5588561623
 31
0.0
  0
LINE
  5
9B
330
1F
100
AcDbEntity
  8
0
  6
Continuous
 62
     7
370
    15
100
AcDbLine
 10
247.7304069597
 20
118.4695964558
 30
0.0
 11
245.530347367
 21
117.7776098131
 31
0.0
  0
ARC
  5
9C
330
1F
100
AcDbEntity
  8
0
  6
Continuous
 62
     7
370
    15
100
AcDbCircle
 10
245.9842838749
 20
116.3342231819
 30
0.0
 40
1.513084042725711
100
AcDbArc
 50
107.4580514862
 51
287.6220755332
  0
LINE
  5
9D
330
1F
100
AcDbEntity
  8
0
  6
Continuous
 62
     7
370
    15
100
AcDbLine
 10
246.4423505861
 20
114.8921419746
 30
0.0
 11
247.2358970243
 21
115.1417350276
 31
0.0
  0
LINE
  5
9E
330
1F
100
AcDbEntity
  8
0
  6
Continuous
 62
     7
370
    15
100
AcDbLine
 10
257.5976727802
 20
118.4008341162
 30
0.0
 11
248.917761286
 21
90.9387223302
 31
0.0
  0
LINE
  5
9F
330
1F
100
AcDbEntity
  8
0
  6
Continuous
 62
     7
370
    15
100
AcDbLine
 10
248.917761286
 20
90.9387223302
 30
0.0
 11
235.4846028883
 21
90.9387223302
 31
0.0
  0
LINE
  5
A0
330
1F
100
AcDbEntity
  8
0
  6
Continuous
 62
     7
370
    15
100
AcDbLine
 10
235.4846028883
 20
90.9387223302
 30
0.0
 11
235.2774990994
 21
91.1459118007
 31
0.0
  0
LINE
  5
A1
330
1F
100
AcDbEntity
  8
0
  6
Continuous
 62
     7
370
    15
100
AcDbLine
 10
235.2774990994
 20
123.5588561623
 30
0.0
 11
235.8054844934
 21
124.0870278208
 31
0.0
  0
LINE
  5
A2
330
1F
100
AcDbEntity
  8
0
  6
Continuous
 62
     7
370
    15
100
AcDbLine
 10
235.8054844934
 20
124.0870278208
 30
0.0
 11
240.601363619
 21
124.0870278208
 31
0.0
  0
ELLIPSE
  5
A3
330
1F
100
AcDbEntity
  8
0
  6
Continuous
 62
     7
370
    15
100
AcDbEllipse
 10
240.6013613424
 20
150.2184722198
 30
0.0
 11
5.684341886080801E-14
 21
26.13144513619378
 31
0.0
210
0.0
220
0.0
230
1.0
 40
0.9949698482
 41
3.141592653589791
 42
3.444886158282749
  0
LINE
  5
A4
330
1F
100
AcDbEntity
  8
0
  6
Continuous
 62
     7
370
    15
100
AcDbLine
 10
248.3666492898
 20
125.2797186254
 30
0.0
 11
250.053281923
 21
125.8102167277
 31
0.0
  0
LINE
  5
A5
330
1F
100
AcDbEntity
  8
0
  6
Continuous
 62
     7
370
    15
100
AcDbLine
 10
235.4846028883
 20
90.9387223302
 30
0.0
 11
235.4846028883
 21
90.7662600158
 31
0.0
  0
ELLIPSE
  5
A6
330
1F
100
AcDbEntity
  8
0
  6
Continuous
 62
     7
370
    15
100
AcDbEllipse
 10
253.9466532476
 20
107.2662599264
 30
0.0
 11
5.390524936199171
 21
16.49183944377624
 31
0.0
210
0.0
220
0.0
230
1.0
 40
0.0962569477
 41
3.173044837569625
 42
3.317754824184844
  0
ARC
  5
A7
330
1F
100
AcDbEntity
  8
0
  6
Continuous
 62
     7
370
    15
100
AcDbCircle
 10
245.9844382259
 20
116.1829008425
 30
0.0
 40
1.247233460115705
100
AcDbArc
 50
107.4481997518
 51
287.632313368
  0
LINE
  5
A8
330
1F
100
AcDbEntity
  8
0
  6
Continuous
 62
     7
370
    15
100
AcDbLine
 10
246.362234493
 20
114.9942624262
 30
0.0
 11
247.0068140227
 21
115.1970034344
 31
0.0
  0
LINE
  5
A9
330
1F
100
AcDbEntity
  8
0
  6
Continuous
 62
     7
370
    15
100
AcDbLine
 10
245.6104634602
 20
117.3727471261
 30
0.0
 11
247.579473098
 21
117.9920589431
 31
0.0
  0
ARC
  5
AA
330
1F
100
AcDbEntity
  8
0
  6
Continuous
 62
     7
370
    15
100
AcDbCircle
 10
245.9834341079
 20
116.0780732219
 30
0.0
 40
1.247116531775208
100
AcDbArc
 50
107.4015374
 51
177.5590750256
  0
LINE
  5
AB
330
1F
100
AcDbEntity
  8
0
  6
Continuous
 62
     7
370
    15
100
AcDbLine
 10
247.5427491862
 20
117.8758745892
 30
0.0
 11
245.6104634602
 21
117.2681121035
 31
0.0
  0
CIRCLE
  5
AC
330
1F
100
AcDbEntity
  8
0
  6
Continuous
 62
     7
370
    15
100
AcDbCircle
 10
253.8177759336
 20
122.0940782863
 30
0.0
 40
2.620524739151024
  0
CIRCLE
  5
AD
330
1F
100
AcDbEntity
  8
0
  6
Continuous
 62
     7
370
    15
100
AcDbCircle
 10
253.8163861031
 20
122.1131424266
 30
0.0
 40
1.796915504234925
  0
ARC
  5
AE
330
1F
100
AcDbEntity
  8
0
  6
Continuous
 62
     7
370
    15
100
AcDbCircle
 10
253.8139316133
 20
122.1073070771
 30
0.0
 40
1.67607716007885
100
AcDbArc
 50
32.9590940605
 51
91.483467327
  0
ARC
  5
AF
330
1F
100
AcDbEntity
  8
0
  6
Continuous
 62
     7
370
    15
100
AcDbCircle
 10
253.8124282176
 20
122.1078778053
 30
0.0
 40
1.675468363398339
100
AcDbArc
 50
91.4325783872
 51
151.4769569384
  0
ARC
  5
B0
330
1F
100
AcDbEntity
  8
0
  6
Continuous
 62
     7
370
    15
100
AcDbCircle
 10
253.8057887462
 20
122.1124425009
 30
0.0
 40
1.667455270913545
100
AcDbArc
 50
151.5058281898
 51
210.2394401187
  0
LINE
  5
B1
330
1F
100
AcDbEntity
  8
0
  6
Continuous
 62
     7
370
    15
100
AcDbLine
 10
252.4097739059
 20
121.2005164353
 30
0.0
 11
252.3652268846
 21
121.2726874156
 31
0.0
  0
ARC
  5
B2
330
1F
100
AcDbEntity
  8
0
  6
Continuous
 62
     7
370
    15
100
AcDbCircle
 10
253.8126321839
 20
122.1175040885
 30
0.0
 40
1.675970675190427
100
AcDbArc
 50
213.1709052427
 51
269.5447132678
  0
LINE
  5
B3
330
1F
100
AcDbEntity
  8
0
  6
Continuous
 62
     7
370
    15
100
AcDbLine
 10
253.9190752704
 20
120.4448617874
 30
0.0
 11
253.7993146379
 21
120.4415863259
 31
0.0
  0
ARC
  5
B4
330
1F
100
AcDbEntity
  8
0
  6
Continuous
 62
     7
370
    15
100
AcDbCircle
 10
253.8142575451
 20
122.1170752905
 30
0.0
 40
1.675495376112399
100
AcDbArc
 50
273.5867228253
 51
329.3228644088
  0
LINE
  5
B5
330
1F
100
AcDbEntity
  8
0
  6
Continuous
 62
     7
370
    15
100
AcDbLine
 10
255.3125126559
 20
121.3672352834
 30
0.0
 11
255.2552772958
 21
121.2622379763
 31
0.0
  0
ARC
  5
B6
330
1F
100
AcDbEntity
  8
0
  6
Continuous
 62
     7
370
    15
100
AcDbCircle
 10
253.820907333
 20
122.1124553299
 30
0.0
 40
1.667404976912035
100
AcDbArc
 50
333.4528552174
 51
30.02638202
  0
LINE
  5
B7
330
1F
100
AcDbEntity
  8
0
  6
Continuous
 62
     7
370
    15
100
AcDbLine
 10
255.220259567
 20
123.0191603182
 30
0.0
 11
255.2645383675
 21
122.9468226312
 31
0.0
  0
SPLINE
  5
B8
330
1F
100
AcDbEntity
  8
0
  6
Continuous
 62
     7
370
    15
100
AcDbSpline
210
0.0
220
0.0
230
1.0
 70
     8
 71
     3
 72
    11
 73
     7
 74
     0
 42
0.00000001
 43
0.00000001
 12
1.0
 22
0.0
 32
0.0
 13
1.0
 23
0.0
 33
0.0
 40
0.0
 40
0.0
 40
0.0
 40
0.0
 40
0.2431068382133509
 40
0.5182869121812179
 40
0.7947845836961679
 40
1.0
 40
1.0
 40
1.0
 40
1.0
 10
252.4097739059432
 20
121.2005164353485
 30
0.0
 10
252.4327433330649
 20
121.1765917823531
 30
0.0
 10
252.4817125580565
 20
121.1255860820727
 30
0.0
 10
252.5824742268568
 20
121.0812713042503
 30
0.0
 10
252.6858673297546
 20
121.0688584665593
 30
0.0
 10
252.748717988509
 20
121.0839597887465
 30
0.0
 10
252.7754931051238
 20
121.0903931288357
 30
0.0
  0
SPLINE
  5
B9
330
1F
100
AcDbEntity
  8
0
  6
Continuous
 62
     7
370
    15
100
AcDbSpline
210
0.0
220
0.0
230
1.0
 70
     8
 71
     3
 72
    12
 73
     8
 74
     0
 42
0.00000001
 43
0.00000001
 12
1.0
 22
0.0
 32
0.0
 13
1.0
 23
0.0
 33
0.0
 40
0.0
 40
0.0
 40
0.0
 40
0.0
 40
0.2058195489379775
 40
0.412022021337396
 40
0.6140803510316546
 40
0.8132162436720365
 40
1.0
 40
1.0
 40
1.0
 40
1.0
 10
252.7754931051238
 20
121.0903931288357
 30
0.0
 10
252.8394445345838
 20
121.1041350033917
 30
0.0
 10
252.9674663739547
 20
121.1316443190069
 30
0.0
 10
253.1648905318614
 20
121.0908880915431
 30
0.0
 10
253.3353607862084
 20
120.9938749384157
 30
0.0
 10
253.4645542249179
 20
120.8530884848064
 30
0.0
 10
253.5061037713492
 20
120.7392019751079
 30
0.0
 10
253.5262136060699
 20
120.6840813039179
 30
0.0
  0
SPLINE
  5
BA
330
1F
100
AcDbEntity
  8
0
  6
Continuous
 62
     7
370
    15
100
AcDbSpline
210
0.0
220
0.0
230
1.0
 70
     8
 71
     3
 72
    11
 73
     7
 74
     0
 42
0.00000001
 43
0.00000001
 12
1.0
 22
0.0
 32
0.0
 13
1.0
 23
0.0
 33
0.0
 40
0.0
 40
0.0
 40
0.0
 40
0.0
 40
0.2908614005114298
 40
0.5839520822362994
 40
0.8745985169675561
 40
1.0
 40
1.0
 40
1.0
 40
1.0
 10
253.5262136060699
 20
120.6840813039179
 30
0.0
 10
253.5393080773045
 20
120.6492108872539
 30
0.0
 10
253.5655973811785
 20
120.5792027927334
 30
0.0
 10
253.6472273003739
 20
120.4980225966822
 30
0.0
 10
253.7302958075554
 20
120.4551319222317
 30
0.0
 10
253.7833296470765
 20
120.4447235310924
 30
0.0
 10
253.7993146378501
 20
120.4415863259073
 30
0.0
  0
SPLINE
  5
BB
330
1F
100
AcDbEntity
  8
0
  6
Continuous
 62
     7
370
    15
100
AcDbSpline
210
0.0
220
0.0
230
1.0
 70
     8
 71
     3
 72
    12
 73
     8
 74
     0
 42
0.00000001
 43
0.00000001
 12
1.0
 22
0.0
 32
0.0
 13
1.0
 23
0.0
 33
0.0
 40
0.0
 40
0.0
 40
0.0
 40
0.0
 40
0.2058387317800432
 40
0.4120656300129186
 40
0.6141423132876698
 40
0.8132819236759313
 40
1.0
 40
1.0
 40
1.0
 40
1.0
 10
254.1781692106231
 20
120.7013126341935
 30
0.0
 10
254.1976250220814
 20
120.7630962766012
 30
0.0
 10
254.2365733343678
 20
120.8867800717406
 30
0.0
 10
254.3697423019567
 20
121.0364127296794
 30
0.0
 10
254.5392908547176
 20
121.1352130999625
 30
0.0
 10
254.7271106337568
 20
121.176987354516
 30
0.0
 10
254.8478506319202
 20
121.1565830150128
 30
0.0
 10
254.9062771994575
 20
121.1467092736001
 30
0.0
  0
SPLINE
  5
BC
330
1F
100
AcDbEntity
  8
0
  6
Continuous
 62
     7
370
    15
100
AcDbSpline
210
0.0
220
0.0
230
1.0
 70
     8
 71
     3
 72
    11
 73
     7
 74
     0
 42
0.00000001
 43
0.00000001
 12
1.0
 22
0.0
 32
0.0
 13
1.0
 23
0.0
 33
0.0
 40
0.0
 40
0.0
 40
0.0
 40
0.0
 40
0.2929036239022043
 40
0.5864390857210959
 40
0.8775231859231343
 40
1.0
 40
1.0
 40
1.0
 40
1.0
 10
254.9062771994575
 20
121.1467092736001
 30
0.0
 10
254.9436488812919
 20
121.1407705372083
 30
0.0
 10
255.0184728613945
 20
121.1288802536618
 30
0.0
 10
255.1306675714789
 20
121.1594999309142
 30
0.0
 10
255.2093755036306
 20
121.2099645134783
 30
0.0
 10
255.2447894047863
 20
121.2502942513837
 30
0.0
 10
255.2552772957786
 20
121.262237976336
 30
0.0
  0
SPLINE
  5
BD
330
1F
100
AcDbEntity
  8
0
  6
Continuous
 62
     7
370
    15
100
AcDbSpline
210
0.0
220
0.0
230
1.0
 70
     8
 71
     3
 72
    11
 73
     7
 74
     0
 42
0.00000001
 43
0.00000001
 12
1.0
 22
0.0
 32
0.0
 13
1.0
 23
0.0
 33
0.0
 40
0.0
 40
0.0
 40
0.0
 40
0.0
 40
0.2668981744872582
 40
0.5546178825850736
 40
0.8439052277064434
 40
1.0
 40
1.0
 40
1.0
 40
1.0
 10
253.9190752703651
 20
120.4448617874022
 30
0.0
 10
253.9524139382253
 20
120.4549728855357
 30
0.0
 10
254.0216921242315
 20
120.475983879141
 30
0.0
 10
254.1068426478791
 20
120.5474162661654
 30
0.0
 10
254.1584469562849
 20
120.6276174865619
 30
0.0
 10
254.1730509079041
 20
120.6821873319823
 30
0.0
 10
254.1781692106231
 20
120.7013126341935
 30
0.0
  0
ARC
  5
BE
330
1F
100
AcDbEntity
  8
0
  6
Continuous
 62
     7
370
    15
100
AcDbCircle
 10
254.995598489
 20
121.3741056284
 30
0.0
 40
0.3337364104737308
100
AcDbArc
 50
8.026770378
 51
48.3708719717
  0
SPLINE
  5
BF
330
1F
100
AcDbEntity
  8
0
  6
Continuous
 62
     7
370
    15
100
AcDbSpline
210
0.0
220
0.0
230
1.0
 70
     8
 71
     3
 72
    11
 73
     7
 74
     0
 42
0.00000001
 43
0.00000001
 12
1.0
 22
0.0
 32
0.0
 13
1.0
 23
0.0
 33
0.0
 40
0.0
 40
0.0
 40
0.0
 40
0.0
 40
0.2657591244642641
 40
0.5530033694040694
 40
0.8418162883330466
 40
1.0
 40
1.0
 40
1.0
 40
1.0
 10
255.3125126559241
 20
121.3672352833982
 30
0.0
 10
255.3203734430327
 20
121.4009395899466
 30
0.0
 10
255.3367305173794
 20
121.4710730053928
 30
0.0
 10
255.3169820319057
 20
121.5799512397216
 30
0.0
 10
255.2725324055143
 20
121.6646171796789
 30
0.0
 10
255.2317380445753
 20
121.7044506170515
 30
0.0
 10
255.217301686476
 20
121.7185469223495
 30
0.0
  0
LWPOLYLINE
  5
C0
330
1F
100
AcDbEntity
  8
0
  6
Continuous
 62
     7
370
    15
100
AcDbPolyline
 90
        3
 70
   128
 43
0.0
 10
252.3396937448
 20
121.3657498239
 10
252.3694886167
 20
121.4595135181
 10
252.4345619876
 20
121.5500417976
  0
SPLINE
  5
C1
330
1F
100
AcDbEntity
  8
0
  6
Continuous
 62
     7
370
    15
100
AcDbSpline
210
0.0
220
0.0
230
1.0
 70
     8
 71
     3
 72
    11
 73
     7
 74
     0
 42
0.00000001
 43
0.00000001
 12
1.0
 22
0.0
 32
0.0
 13
1.0
 23
0.0
 33
0.0
 40
0.0
 40
0.0
 40
0.0
 40
0.0
 40
0.2794058418193772
 40
0.5596222242369499
 40
0.8375008573825106
 40
0.9999999999999999
 40
0.9999999999999999
 40
0.9999999999999999
 40
0.9999999999999999
 10
252.4345619875892
 20
121.6449994473095
 30
0.0
 10
252.4103859302873
 20
121.6162997221639
 30
0.0
 10
252.361963682304
 20
121.5588170155877
 30
0.0
 10
252.3317480241282
 20
121.4479511008995
 30
0.0
 10
252.335849446149
 20
121.3490184971677
 30
0.0
 10
252.3573085045208
 20
121.2932616571108
 30
0.0
 10
252.3652268845542
 20
121.2726874156232
 30
0.0
  0
SPLINE
  5
C2
330
1F
100
AcDbEntity
  8
0
  6
Continuous
 62
     7
370
    15
100
AcDbSpline
210
0.0
220
0.0
230
1.0
 70
     8
 71
     3
 72
    12
 73
     8
 74
     0
 42
0.00000001
 43
0.00000001
 12
1.0
 22
0.0
 32
0.0
 13
1.0
 23
0.0
 33
0.0
 40
0.0
 40
0.0
 40
0.0
 40
0.0
 40
0.2057900610955149
 40
0.412033926379135
 40
0.6141308218349875
 40
0.8132627269600029
 40
1.0
 40
1.0
 40
1.0
 40
1.0
 10
255.217301686476
 20
121.7185469223495
 30
0.0
 10
255.1728138689532
 20
121.7658931828739
 30
0.0
 10
255.0837401302489
 20
121.8606901109637
 30
0.0
 10
255.0194527620022
 20
122.0499852033054
 30
0.0
 10
255.0185197519321
 20
122.2459089134322
 30
0.0
 10
255.0771620702624
 20
122.4296487176855
 30
0.0
 10
255.1563614697391
 20
122.5244016480124
 30
0.0
 10
255.1946891743644
 20
122.5702563179965
 30
0.0
  0
SPLINE
  5
C3
330
1F
100
AcDbEntity
  8
0
  6
Continuous
 62
     7
370
    15
100
AcDbSpline
210
0.0
220
0.0
230
1.0
 70
     8
 71
     3
 72
    11
 73
     7
 74
     0
 42
0.00000001
 43
0.00000001
 12
1.0
 22
0.0
 32
0.0
 13
1.0
 23
0.0
 33
0.0
 40
0.0
 40
0.0
 40
0.0
 40
0.0
 40
0.2802379567747659
 40
0.5612874512501487
 40
0.8399901229076705
 40
1.0
 40
1.0
 40
1.0
 40
1.0
 10
255.1946891743644
 20
122.5702563179965
 30
0.0
 10
255.2188643324542
 20
122.5997494481025
 30
0.0
 10
255.2672846571811
 20
122.6588211171121
 30
0.0
 10
255.2975137441136
 20
122.7714117853873
 30
0.0
 10
255.2934241671135
 20
122.8708904458458
 30
0.0
 10
255.2722581605611
 20
122.9265295886817
 30
0.0
 10
255.2645383674605
 20
122.9468226312037
 30
0.0
  0
SPLINE
  5
C4
330
1F
100
AcDbEntity
  8
0
  6
Continuous
 62
     7
370
    15
100
AcDbSpline
210
0.0
220
0.0
230
1.0
 70
     8
 71
     3
 72
    12
 73
     8
 74
     0
 42
0.00000001
 43
0.00000001
 12
1.0
 22
0.0
 32
0.0
 13
1.0
 23
0.0
 33
0.0
 40
0.0
 40
0.0
 40
0.0
 40
0.0
 40
0.0091714287916962
 40
0.2576761265772602
 40
0.5061916019652017
 40
0.7560436511782674
 40
1.0
 40
1.0
 40
1.0
 40
1.0
 10
252.3403195936187
 20
122.907934325778
 30
0.0
 10
252.3396713657509
 20
122.9067288536919
 30
0.0
 10
252.3214590620959
 20
122.8728604799743
 30
0.0
 10
252.2973624576879
 20
122.7992476350507
 30
0.0
 10
252.2997216239917
 20
122.6860027731452
 30
0.0
 10
252.3370801320493
 20
122.5782931814939
 30
0.0
 10
252.3871924621623
 20
122.5236863007918
 30
0.0
 10
252.4119494754775
 20
122.4967088429566
 30
0.0
  0
SPLINE
  5
C5
330
1F
100
AcDbEntity
  8
0
  6
Continuous
 62
     7
370
    15
100
AcDbSpline
210
0.0
220
0.0
230
1.0
 70
     8
 71
     3
 72
    12
 73
     8
 74
     0
 42
0.00000001
 43
0.00000001
 12
1.0
 22
0.0
 32
0.0
 13
1.0
 23
0.0
 33
0.0
 40
0.0
 40
0.0
 40
0.0
 40
0.0
 40
0.2057552981699632
 40
0.411962569060933
 40
0.6140159252976309
 40
0.8131417903285039
 40
0.9999999999999999
 40
0.9999999999999999
 40
0.9999999999999999
 40
0.9999999999999999
 10
252.4119494754775
 20
122.4967088429566
 30
0.0
 10
252.456433677643
 20
122.4480082810374
 30
0.0
 10
252.545499798271
 20
122.3505001790281
 30
0.0
 10
252.6097957892671
 20
122.159045333025
 30
0.0
 10
252.6107493255664
 20
121.9633094453851
 30
0.0
 10
252.5521269764926
 20
121.7818610382442
 30
0.0
 10
252.4729110828738
 20
121.6896429950232
 30
0.0
 10
252.4345619875892
 20
121.6449994473095
 30
0.0
  0
ARC
  5
C6
330
1F
100
AcDbEntity
  8
0
  6
Continuous
 62
     7
370
    15
100
AcDbCircle
 10
252.0238970235
 20
121.9654259933
 30
0.0
 40
0.5841144945872352
100
AcDbArc
 50
314.6726718838
 51
359.9873581497
  0
ARC
  5
C7
330
1F
100
AcDbEntity
  8
0
  6
Continuous
 62
     7
370
    15
100
AcDbCircle
 10
255.6055431266
 20
122.0602186848
 30
0.0
 40
0.5842960482821138
100
AcDbArc
 50
180.0184715286
 51
228.3590770791
  0
ARC
  5
C8
330
1F
100
AcDbEntity
  8
0
  6
Continuous
 62
     7
370
    15
100
AcDbCircle
 10
254.9589723866
 20
122.7119769413
 30
0.0
 40
0.3348840422155791
100
AcDbArc
 50
6.5457307359
 51
108.3100586831
  0
SPLINE
  5
C9
330
1F
100
AcDbEntity
  8
0
  6
Continuous
 62
     7
370
    15
100
AcDbSpline
210
0.0
220
0.0
230
1.0
 70
     8
 71
     3
 72
    11
 73
     7
 74
     0
 42
0.00000001
 43
0.00000001
 12
1.0
 22
0.0
 32
0.0
 13
1.0
 23
0.0
 33
0.0
 40
0.0
 40
0.0
 40
0.0
 40
0.0
 40
0.2423545885889602
 40
0.5166949938536136
 40
0.7923354442387872
 40
1.0
 40
1.0
 40
1.0
 40
1.0
 10
255.220259566973
 20
123.0191603182192
 30
0.0
 10
255.1973807356652
 20
123.0430322316056
 30
0.0
 10
255.1486035382917
 20
123.0939266595274
 30
0.0
 10
255.0480074526106
 20
123.1373410276692
 30
0.0
 10
254.9442311909094
 20
123.1484890236663
 30
0.0
 10
254.8809541377223
 20
123.1319626787282
 30
0.0
 10
254.8537655074103
 20
123.1248617051478
 30
0.0
  0
ARC
  5
CA
330
1F
100
AcDbEntity
  8
0
  6
Continuous
 62
     7
370
    15
100
AcDbCircle
 10
252.6347184243
 20
122.6506030196
 30
0.0
 40
0.3348482052986582
100
AcDbArc
 50
74.7180722717
 51
174.4587012975
  0
SPLINE
  5
CB
330
1F
100
AcDbEntity
  8
0
  6
Continuous
 62
     7
370
    15
100
AcDbSpline
210
0.0
220
0.0
230
1.0
 70
     8
 71
     3
 72
    11
 73
     7
 74
     0
 42
0.00000001
 43
0.00000001
 12
1.0
 22
0.0
 32
0.0
 13
1.0
 23
0.0
 33
0.0
 40
0.0
 40
0.0
 40
0.0
 40
0.0
 40
0.2535072801095059
 40
0.5075629842844277
 40
0.7595012256435358
 40
0.9999999999999999
 40
0.9999999999999999
 40
0.9999999999999999
 40
0.9999999999999999
 10
252.7229739624961
 20
123.0685464917059
 30
0.0
 10
252.6855888111969
 20
123.075286826535
 30
0.0
 10
252.6107376315654
 20
123.0887820778725
 30
0.0
 10
252.4987438715628
 20
123.0598142139829
 30
0.0
 10
252.4019912667255
 20
122.9996600514864
 30
0.0
 10
252.3605559662936
 20
122.9380323574319
 30
0.0
 10
252.3403195936187
 20
122.907934325778
 30
0.0
  0
SPLINE
  5
CC
330
1F
100
AcDbEntity
  8
0
  6
Continuous
 62
     7
370
    15
100
AcDbSpline
210
0.0
220
0.0
230
1.0
 70
     8
 71
     3
 72
    12
 73
     8
 74
     0
 42
0.00000001
 43
0.00000001
 12
1.0
 22
0.0
 32
0.0
 13
1.0
 23
0.0
 33
0.0
 40
0.0
 40
0.0
 40
0.0
 40
0.0
 40
0.2058594447737137
 40
0.4121039464195682
 40
0.614194025612241
 40
0.8133196164670241
 40
1.0
 40
1.0
 40
1.0
 40
1.0
 10
254.8537655074103
 20
123.1248617051478
 30
0.0
 10
254.7898040486588
 20
123.1097568096965
 30
0.0
 10
254.6617614922472
 20
123.0795187653231
 30
0.0
 10
254.4643108060552
 20
123.1181029691073
 30
0.0
 10
254.2938323053831
 20
123.2153134853085
 30
0.0
 10
254.1646727887033
 20
123.3584200116161
 30
0.0
 10
254.1231360066899
 20
123.4748408460905
 30
0.0
 10
254.1030375558837
 20
123.5311735300656
 30
0.0
  0
SPLINE
  5
CD
330
1F
100
AcDbEntity
  8
0
  6
Continuous
 62
     7
370
    15
100
AcDbSpline
210
0.0
220
0.0
230
1.0
 70
     8
 71
     3
 72
    11
 73
     7
 74
     0
 42
0.00000001
 43
0.00000001
 12
1.0
 22
0.0
 32
0.0
 13
1.0
 23
0.0
 33
0.0
 40
0.0
 40
0.0
 40
0.0
 40
0.0
 40
0.2524767303808105
 40
0.5068904234249451
 40
0.7591843927302906
 40
1.0
 40
1.0
 40
1.0
 40
1.0
 10
254.1030375558837
 20
123.5311735300656
 30
0.0
 10
254.089943423834
 20
123.5668487880694
 30
0.0
 10
254.0636547035664
 20
123.6384729991721
 30
0.0
 10
253.9820638694236
 20
123.7211766437698
 30
0.0
 10
253.8810766286179
 20
123.7751512644509
 30
0.0
 10
253.8068096229939
 20
123.7803053983895
 30
0.0
 10
253.7705404955848
 20
123.7828224776621
 30
0.0
  0
SPLINE
  5
CE
330
1F
100
AcDbEntity
  8
0
  6
Continuous
 62
     7
370
    15
100
AcDbSpline
210
0.0
220
0.0
230
1.0
 70
     8
 71
     3
 72
    12
 73
     8
 74
     0
 42
0.00000001
 43
0.00000001
 12
1.0
 22
0.0
 32
0.0
 13
1.0
 23
0.0
 33
0.0
 40
0.0
 40
0.0
 40
0.0
 40
0.0
 40
0.0091764936089372
 40
0.2573287377660694
 40
0.505498527405625
 40
0.7549912030325838
 40
1.0
 40
1.0
 40
1.0
 40
1.0
 10
253.7705404955848
 20
123.7828224776621
 30
0.0
 10
253.7691671525217
 20
123.782781965745
 30
0.0
 10
253.7306556412613
 20
123.7816459239249
 30
0.0
 10
253.6547841674765
 20
123.7657442619511
 30
0.0
 10
253.5580345922776
 20
123.706974246948
 30
0.0
 10
253.4836475587813
 20
123.6203923093643
 30
0.0
 10
253.4618763174883
 20
123.5492104230418
 30
0.0
 10
253.4510894019111
 20
123.51394219979
 30
0.0
  0
SPLINE
  5
CF
330
1F
100
AcDbEntity
  8
0
  6
Continuous
 62
     7
370
    15
100
AcDbSpline
210
0.0
220
0.0
230
1.0
 70
     8
 71
     3
 72
    12
 73
     8
 74
     0
 42
0.00000001
 43
0.00000001
 12
1.0
 22
0.0
 32
0.0
 13
1.0
 23
0.0
 33
0.0
 40
0.0
 40
0.0
 40
0.0
 40
0.0
 40
0.205843886371796
 40
0.4120703735306401
 40
0.6141361612204513
 40
0.813258781675168
 40
1.0
 40
1.0
 40
1.0
 40
1.0
 10
253.4510894019111
 20
123.51394219979
 30
0.0
 10
253.4316307325674
 20
123.4507956415935
 30
0.0
 10
253.3926772261689
 20
123.3243851550745
 30
0.0
 10
253.2595121247235
 20
123.1725614069519
 30
0.0
 10
253.089968990679
 20
123.0739232179208
 30
0.0
 10
252.9021501919815
 20
123.0344664157002
 30
0.0
 10
252.7814079336492
 20
123.0574321034641
 30
0.0
 10
252.7229739624961
 20
123.0685464917059
 30
0.0
  0
ARC
  5
D0
330
1F
100
AcDbEntity
  8
0
  6
Continuous
 62
     7
370
    15
100
AcDbCircle
 10
252.877261064
 20
123.5392333264
 30
0.0
 40
0.5862873925081744
100
AcDbArc
 50
254.7423809201
 51
348.1669417398
  0
ARC
  5
D1
330
1F
100
AcDbEntity
  8
0
  6
Continuous
 62
     7
370
    15
100
AcDbCircle
 10
254.6698288284
 20
123.5867497386
 30
0.0
 40
0.5864364776614414
100
AcDbArc
 50
194.8722035585
 51
288.2794250713
  0
ARC
  5
D2
330
1F
100
AcDbEntity
  8
0
  6
Continuous
 62
     7
370
    15
100
AcDbCircle
 10
253.8133217294
 20
122.0475385996
 30
0.0
 40
2.625007933193378
100
AcDbArc
 50
180.1058092011
 51
359.8941907989
  0
ARC
  5
D3
330
1F
100
AcDbEntity
  8
0
  6
Continuous
 62
     7
370
    15
100
AcDbCircle
 10
253.7791087561
 20
123.3502040759
 30
0.0
 40
0.33515784622436
100
AcDbArc
 50
14.8732004959
 51
168.1535006471
  0
LINE
  5
D4
330
1F
100
AcDbEntity
  8
0
  6
Continuous
 62
     7
370
    15
100
AcDbLine
 10
247.3376868565
 20
115.1770712687
 30
0.0
 11
257.4959723551
 21
118.372164282
 31
0.0
  0
LINE
  5
D5
330
1F
100
AcDbEntity
  8
0
  6
Continuous
 62
     7
370
    15
100
AcDbLine
 10
248.6429093678
 20
116.9019942982
 30
0.0
 11
247.2234247524
 21
115.5232969551
 31
0.0
  0
LINE
  5
D6
330
1F
100
AcDbEntity
  8
0
  6
Continuous
 62
     7
370
    15
100
AcDbLine
 10
257.2059436042
 20
118.8848424582
 30
0.0
 11
257.381710251
 21
118.7183899684
 31
0.0
  0
SPLINE
  5
D7
330
1F
100
AcDbEntity
  8
0
  6
Continuous
 62
     7
370
    15
100
AcDbSpline
210
0.0
220
0.0
230
1.0
 70
     8
 71
     3
 72
    10
 73
     6
 74
     0
 42
0.00000001
 43
0.00000001
 12
1.0
 22
0.0
 32
0.0
 13
1.0
 23
0.0
 33
0.0
 40
0.0
 40
0.0
 40
0.0
 40
0.0
 40
0.3518049947670181
 40
0.7034264592363386
 40
1.0
 40
1.0
 40
1.0
 40
1.0
 10
257.5034750897391
 20
118.3536030231352
 30
0.0
 10
257.5446493983987
 20
118.3712298028456
 30
0.0
 10
257.6269765358263
 20
118.4064741666945
 30
0.0
 10
257.7170413294141
 20
118.501565439662
 30
0.0
 10
257.748384716379
 20
118.5774862844892
 30
0.0
 10
257.7627254921897
 20
118.6122229202028
 30
0.0
  0
LINE
  5
D8
330
1F
100
AcDbEntity
  8
0
  6
Continuous
 62
     7
370
    15
100
AcDbLine
 10
247.3354144294
 20
115.155435714
 30
0.0
 11
257.5034750897
 21
118.3536030231
 31
0.0
  0
SPLINE
  5
D9
330
1F
100
AcDbEntity
  8
0
  6
Continuous
 62
     7
370
    15
100
AcDbSpline
210
0.0
220
0.0
230
1.0
 70
     8
 71
     3
 72
    14
 73
    10
 74
     0
 42
0.00000001
 43
0.00000001
 12
1.0
 22
0.0
 32
0.0
 13
1.0
 23
0.0
 33
0.0
 40
0.0
 40
0.0
 40
0.0
 40
0.0
 40
0.1588507222896881
 40
0.3173327424647698
 40
0.4720136986135731
 40
0.6236461427688725
 40
0.7746640401563378
 40
0.927743134465197
 40
0.9999999999999999
 40
0.9999999999999999
 40
0.9999999999999999
 40
0.9999999999999999
 10
246.8393249709113
 20
115.6503209723468
 30
0.0
 10
246.8297930885743
 20
115.605334331536
 30
0.0
 10
246.8107514479744
 20
115.5154654666231
 30
0.0
 10
246.8412510862564
 20
115.3794585273654
 30
0.0
 10
246.9118075388884
 20
115.2638030350284
 30
0.0
 10
247.016410207006
 20
115.1798481572403
 30
0.0
 10
247.1419280496117
 20
115.1357502090532
 30
0.0
 10
247.2526318237287
 20
115.1335062684046
 30
0.0
 10
247.3153144434403
 20
115.1501111467618
 30
0.0
 10
247.3354144293769
 20
115.1554357139702
 30
0.0
  0
LINE
  5
DA
330
1F
100
AcDbEntity
  8
0
  6
Continuous
 62
     7
370
    15
100
AcDbLine
 10
250.0453023512
 20
125.7936112462
 30
0.0
 11
246.8393249709
 21
115.6503209723
 31
0.0
  0
SPLINE
  5
DB
330
1F
100
AcDbEntity
  8
0
  6
Continuous
 62
     7
370
    15
100
AcDbSpline
210
0.0
220
0.0
230
1.0
 70
     8
 71
     3
 72
    10
 73
     6
 74
     0
 42
0.00000001
 43
0.00000001
 12
1.0
 22
0.0
 32
0.0
 13
1.0
 23
0.0
 33
0.0
 40
0.0
 40
0.0
 40
0.0
 40
0.0
 40
0.3518030188042782
 40
0.7034271855535061
 40
0.9999999999999999
 40
0.9999999999999999
 40
0.9999999999999999
 40
0.9999999999999999
 10
250.3045527536376
 20
126.0522320745821
 30
0.0
 10
250.2633783236081
 20
126.0346057454923
 30
0.0
 10
250.1810503960907
 20
125.999362048308
 30
0.0
 10
250.0909870004307
 20
125.9042688328423
 30
0.0
 10
250.0596432256156
 20
125.8283477841975
 30
0.0
 10
250.045302351187
 20
125.793611246192
 30
0.0
  0
LINE
  5
DC
330
1F
100
AcDbEntity
  8
0
  6
Continuous
 62
     7
370
    15
100
AcDbLine
 10
260.4726059634
 20
129.2503993837
 30
0.0
 11
250.3045527536
 21
126.0522320746
 31
0.0
  0
SPLINE
  5
DD
330
1F
100
AcDbEntity
  8
0
  6
Continuous
 62
     7
370
    15
100
AcDbSpline
210
0.0
220
0.0
230
1.0
 70
     8
 71
     3
 72
    14
 73
    10
 74
     0
 42
0.00000001
 43
0.00000001
 12
1.0
 22
0.0
 32
0.0
 13
1.0
 23
0.0
 33
0.0
 40
0.0
 40
0.0
 40
0.0
 40
0.0
 40
0.1588496346985167
 40
0.3173316248491931
 40
0.4720169663455823
 40
0.6236402910640718
 40
0.7746571544582685
 40
0.9277352132707353
 40
1.0
 40
1.0
 40
1.0
 40
1.0
 10
260.9687028724654
 20
128.7555131940479
 30
0.0
 10
260.9782345624222
 20
128.8004997218297
 30
0.0
 10
260.9972758820153
 20
128.8903686597371
 30
0.0
 10
260.9667784824816
 20
129.0263791565008
 30
0.0
 10
260.8962128199557
 20
129.1420280419115
 30
0.0
 10
260.7916168196136
 20
129.2259882072885
 30
0.0
 10
260.666099305245
 20
129.2700836323294
 30
0.0
 10
260.5553938785048
 20
129.2723277804426
 30
0.0
 10
260.4927084419134
 20
129.2557240150357
 30
0.0
 10
260.4726059634193
 20
129.2503993837471
 30
0.0
  0
LINE
  5
DE
330
1F
100
AcDbEntity
  8
0
  6
Continuous
 62
     7
370
    15
100
AcDbLine
 10
257.7627254922
 20
118.6122229202
 30
0.0
 11
260.9687028725
 21
128.755513194
 31
0.0
  0
ARC
  5
DF
330
1F
100
AcDbEntity
  8
0
  6
Continuous
 62
     7
370
    15
100
AcDbCircle
 10
247.2231216534
 20
115.5389083777
 30
0.0
 40
0.3795408794383472
100
AcDbArc
 50
162.5708853287
 51
287.5688772176
  0
ARC
  5
E0
330
1F
100
AcDbEntity
  8
0
  6
Continuous
 62
     7
370
    15
100
AcDbCircle
 10
257.382304254
 20
118.7342618561
 30
0.0
 40
0.3795195520185194
100
AcDbArc
 50
287.4278901644
 51
342.4313038828
  0
LINE
  5
E1
330
1F
100
AcDbEntity
  8
0
  6
Continuous
 62
     7
370
    15
100
AcDbLine
 10
257.7441213924
 20
118.6197042344
 30
0.0
 11
260.9470142323
 21
128.7532444923
 31
0.0
  0
ARC
  5
E2
330
1F
100
AcDbEntity
  8
0
  6
Continuous
 62
     7
370
    15
100
AcDbCircle
 10
260.5849035951
 20
128.8669322963
 30
0.0
 40
0.3795379169632924
100
AcDbArc
 50
342.5698626227
 51
107.569787708
  0
LINE
  5
E3
330
1F
100
AcDbEntity
  8
0
  6
Continuous
 62
     7
370
    15
100
AcDbLine
 10
260.4703335363
 20
129.2287647603
 30
0.0
 11
250.3120480377
 21
126.0336708157
 31
0.0
  0
ARC
  5
E4
330
1F
100
AcDbEntity
  8
0
  6
Continuous
 62
     7
370
    15
100
AcDbCircle
 10
250.4257352276
 20
125.6715649965
 30
0.0
 40
0.3795331361455086
100
AcDbArc
 50
107.4302667923
 51
162.4306475597
  0
LINE
  5
E5
330
1F
100
AcDbEntity
  8
0
  6
Continuous
 62
     7
370
    15
100
AcDbLine
 10
250.0639064509
 20
125.7861308633
 30
0.0
 11
246.8610061604
 21
115.6525906055
 31
0.0
  0
LINE
  5
E6
330
1F
100
AcDbEntity
  8
0
  6
Continuous
 62
     7
370
    15
100
AcDbLine
 10
250.6020767886
 20
125.4726253329
 30
0.0
 11
250.4263175923
 21
125.6568372129
 31
0.0
  0
SPLINE
  5
E7
330
1F
100
AcDbEntity
  8
0
  6
Continuous
 62
     7
370
    15
100
AcDbSpline
210
0.0
220
0.0
230
1.0
 70
     8
 71
     3
 72
    11
 73
     7
 74
     0
 42
0.00000001
 43
0.00000001
 12
1.0
 22
0.0
 32
0.0
 13
1.0
 23
0.0
 33
0.0
 40
0.0
 40
0.0
 40
0.0
 40
0.0
 40
0.0073038909729019
 40
0.1268494238022935
 40
0.5874319130292882
 40
0.9999999999999999
 40
0.9999999999999999
 40
0.9999999999999999
 40
0.9999999999999999
 10
249.1290821034415
 20
117.3947999133106
 30
0.0
 10
249.1280195828349
 20
117.3936814715807
 30
0.0
 10
249.1095663875132
 20
117.374257073063
 30
0.0
 10
249.0223135282862
 20
117.2826816602653
 30
0.0
 10
248.8584778397478
 20
117.1140421399931
 30
0.0
 10
248.7120820994304
 20
116.9700373117912
 30
0.0
 10
248.6429093677505
 20
116.9019942982431
 30
0.0
  0
LINE
  5
E8
330
1F
100
AcDbEntity
  8
0
  6
Continuous
 62
     7
370
    15
100
AcDbLine
 10
250.9237630565
 20
117.978561285
 30
0.0
 11
255.9126718242
 21
119.5477271332
 31
0.0
  0
LINE
  5
E9
330
1F
100
AcDbEntity
  8
0
  6
Continuous
 62
     7
370
    15
100
AcDbLine
 10
256.8842647869
 20
126.4272738127
 30
0.0
 11
251.8953485686
 21
124.8581070332
 31
0.0
  0
ARC
  5
EA
330
1F
100
AcDbEntity
  8
0
  6
Continuous
 62
     7
370
    15
100
AcDbCircle
 10
257.1857638016
 20
125.4750867591
 30
0.0
 40
0.9987801765283881
100
AcDbArc
 50
342.5696515949
 51
107.5697884259
  0
LINE
  5
EB
330
1F
100
AcDbEntity
  8
0
  6
Continuous
 62
     7
370
    15
100
AcDbLine
 10
256.5656854112
 20
120.1991481586
 30
0.0
 11
258.1386817891
 21
125.1759059606
 31
0.0
  0
ARC
  5
EC
330
1F
100
AcDbEntity
  8
0
  6
Continuous
 62
     7
370
    15
100
AcDbCircle
 10
255.6135103146
 20
120.5006355516
 30
0.0
 40
0.9987652690543537
100
AcDbArc
 50
287.4294571132
 51
342.4306401086
  0
ARC
  5
ED
330
1F
100
AcDbEntity
  8
0
  6
Continuous
 62
     7
370
    15
100
AcDbCircle
 10
250.6222655871
 20
118.9307553387
 30
0.0
 40
0.9987863835817143
100
AcDbArc
 50
162.5702402726
 51
287.5695826951
  0
LINE
  5
EE
330
1F
100
AcDbEntity
  8
0
  6
Continuous
 62
     7
370
    15
100
AcDbLine
 10
251.2423424322
 20
124.2066878705
 30
0.0
 11
249.6693386037
 21
119.2299282058
 31
0.0
  0
ARC
  5
EF
330
1F
100
AcDbEntity
  8
0
  6
Continuous
 62
     7
370
    15
100
AcDbCircle
 10
252.1945232207
 20
123.9051954687
 30
0.0
 40
0.9987722073958797
100
AcDbArc
 50
107.4301223717
 51
162.4304647413
  0
CIRCLE
  5
F0
330
1F
100
AcDbEntity
  8
0
  6
Continuous
 62
     7
370
    15
100
AcDbCircle
 10
253.8989238596
 20
122.1991642301
 30
0.0
 40
3.045604051472933
  0
SPLINE
  5
F1
330
1F
100
AcDbEntity
  8
0
  6
Continuous
 62
     7
370
    15
100
AcDbSpline
210
0.0
220
0.0
230
1.0
 70
     8
 71
     3
 72
    11
 73
     7
 74
     0
 42
0.00000001
 43
0.00000001
 12
1.0
 22
0.0
 32
0.0
 13
1.0
 23
0.0
 33
0.0
 40
0.0
 40
0.0
 40
0.0
 40
0.0
 40
0.3277697749931978
 40
0.6551482086907537
 40
0.9907806430003532
 40
1.0
 40
1.0
 40
1.0
 40
1.0
 10
257.2059436041816
 20
118.8848424582119
 30
0.0
 10
257.1533859346565
 20
118.9352490895944
 30
0.0
 10
257.0483333469278
 20
119.0360021692736
 30
0.0
 10
256.8750802074687
 20
119.2096686661775
 30
0.0
 10
256.7658963538622
 20
119.3226615164192
 30
0.0
 10
256.7148473361133
 20
119.3763877619007
 30
0.0
 10
256.7134825784667
 20
119.377824093246
 30
0.0
  0
LWPOLYLINE
  5
F2
330
1F
100
AcDbEntity
  8
0
  6
Continuous
 62
     7
370
    15
100
AcDbPolyline
 90
        3
 70
   128
 43
0.0
 10
250.9951768715
 20
123.0481821923
 10
250.8620722491
 20
122.3543310417
 10
250.8540107209
 20
122.1332639335
  0
ARC
  5
F3
330
1F
100
AcDbEntity
  8
0
  6
Continuous
 62
     7
370
    15
100
AcDbCircle
 10
253.9033466552
 20
122.1266961717
 30
0.0
 40
3.050670086544206
100
AcDbArc
 50
0.1233516941
 51
162.4186143047
  0
LINE
  5
F4
330
1F
100
AcDbEntity
  8
0
  6
Continuous
 62
     7
370
    15
100
AcDbLine
 10
259.1651184756
 20
127.3985687523
 30
0.0
 11
260.584603091
 21
128.8519292949
 31
0.0
  0
SPLINE
  5
F5
330
1F
100
AcDbEntity
  8
0
  6
Continuous
 62
     7
370
    15
100
AcDbSpline
210
0.0
220
0.0
230
1.0
 70
     8
 71
     3
 72
    11
 73
     7
 74
     0
 42
0.00000001
 43
0.00000001
 12
1.0
 22
0.0
 32
0.0
 13
1.0
 23
0.0
 33
0.0
 40
0.0
 40
0.0
 40
0.0
 40
0.0
 40
0.0092125878314733
 40
0.344845551830649
 40
0.6722295346988182
 40
1.0
 40
1.0
 40
1.0
 40
1.0
 10
251.0945378143294
 20
124.9830830721493
 30
0.0
 10
251.0931755609936
 20
124.9843650313965
 30
0.0
 10
251.0421836994311
 20
125.0323513249452
 30
0.0
 10
250.9329252274558
 20
125.1373925118651
 30
0.0
 10
250.7596919531699
 20
125.3093155729139
 30
0.0
 10
250.6546358346992
 20
125.4181673419841
 30
0.0
 10
250.6020767886146
 20
125.4726253329153
 30
0.0
  0
SPLINE
  5
F6
330
1F
100
AcDbEntity
  8
0
  6
Continuous
 62
     7
370
    15
100
AcDbSpline
210
0.0
220
0.0
230
1.0
 70
     8
 71
     3
 72
    11
 73
     7
 74
     0
 42
0.00000001
 43
0.00000001
 12
1.0
 22
0.0
 32
0.0
 13
1.0
 23
0.0
 33
0.0
 40
0.0
 40
0.0
 40
0.0
 40
0.0
 40
0.4125754717133717
 40
0.8731572324322295
 40
0.9927031395529122
 40
0.9999999999999999
 40
0.9999999999999999
 40
0.9999999999999999
 40
0.9999999999999999
 10
259.1651184756263
 20
127.3985687522526
 30
0.0
 10
259.0959386827532
 20
127.328593798803
 30
0.0
 10
258.9495295027926
 20
127.1805017747185
 30
0.0
 10
258.7857485007972
 20
127.022373633081
 30
0.0
 10
258.6984318113002
 20
126.9397452138617
 30
0.0
 10
258.680005733507
 20
126.9223997359596
 30
0.0
 10
258.6789457399352
 20
126.9214019058581
 30
0.0
  0
LINE
  5
F7
330
1F
100
AcDbEntity
  8
0
  6
HIDDEN
 62
     7
370
     0
100
AcDbLine
 10
170.9846025605
 20
82.8662603973
 30
0.0
 11
170.9846025605
 21
131.6662594555
 31
0.0
  0
SPLINE
  5
F8
330
1F
100
AcDbEntity
  8
0
  6
HIDDEN
 62
     7
370
     0
100
AcDbSpline
210
0.0
220
0.0
230
1.0
 70
     8
 71
     3
 72
    58
 73
    54
 74
     0
 42
0.00000001
 43
0.00000001
 12
1.0
 22
0.0
 32
0.0
 13
1.0
 23
0.0
 33
0.0
 40
-0.0624999999999997
 40
-0.0624999999999997
 40
0.0
 40
0.0
 40
0.03125
 40
0.03125
 40
0.0625000000000001
 40
0.0625000000000001
 40
0.0937500000000001
 40
0.0937500000000001
 40
0.1250000000000001
 40
0.1250000000000001
 40
0.1875000000000003
 40
0.1875000000000003
 40
0.2500000000000004
 40
0.2500000000000004
 40
0.2812500000000006
 40
0.2812500000000006
 40
0.3125000000000006
 40
0.3125000000000006
 40
0.3437500000000007
 40
0.3437500000000007
 40
0.3750000000000007
 40
0.3750000000000007
 40
0.4062500000000007
 40
0.4062500000000007
 40
0.4375000000000008
 40
0.4375000000000008
 40
0.4687500000000008
 40
0.4687500000000008
 40
0.5000000000000009
 40
0.5000000000000009
 40
0.562500000000001
 40
0.562500000000001
 40
0.6250000000000011
 40
0.6250000000000011
 40
0.656250000000001
 40
0.656250000000001
 40
0.687500000000001
 40
0.687500000000001
 40
0.7187500000000009
 40
0.7187500000000009
 40
0.7500000000000008
 40
0.7500000000000008
 40
0.7812500000000008
 40
0.7812500000000008
 40
0.8125000000000007
 40
0.8125000000000007
 40
0.8437500000000007
 40
0.8437500000000007
 40
0.8750000000000006
 40
0.8750000000000006
 40
0.9375000000000003
 40
0.9375000000000003
 40
1.0
 40
1.0
 40
1.03125
 40
1.03125
 10
160.9846030075057
 20
107.0018875558587
 30
0.0
 10
160.9846030075057
 20
107.3984461116738
 30
0.0
 10
160.9975788995162
 20
107.5284128512186
 30
0.0
 10
161.0484112016221
 20
107.7840921893507
 30
0.0
 10
161.0868882729436
 20
107.9111332811922
 30
0.0
 10
161.1872932340999
 20
108.1533114671327
 30
0.0
 10
161.2487274764192
 20
108.2681651257222
 30
0.0
 10
161.3938617426009
 20
108.485530247528
 30
0.0
 10
161.4783036637483
 20
108.5884057196123
 30
0.0
 10
161.7549756933581
 20
108.8650236720295
 30
0.0
 10
161.9780218483263
 20
109.0140157918624
 30
0.0
 10
162.4592858468708
 20
109.2135395868536
 30
0.0
 10
162.7225437021906
 20
109.2661184513559
 30
0.0
 10
163.1140097334754
 20
109.2663302249434
 30
0.0
 10
163.2465584770889
 20
109.253339253354
 30
0.0
 10
163.5031027861041
 20
109.2023030300642
 30
0.0
 10
163.6277986724758
 20
109.1645414886614
 30
0.0
 10
163.8700016429096
 20
109.0643819493679
 30
0.0
 10
163.9870650061602
 20
109.0017841396174
 30
0.0
 10
164.2037513254063
 20
108.8570621555818
 30
0.0
 10
164.304765293474
 20
108.7744380504135
 30
0.0
 10
164.4915584877595
 20
108.5878176798025
 30
0.0
 10
164.5743588517138
 20
108.4867693119113
 30
0.0
 10
164.7192372906084
 20
108.2702572910375
 30
0.0
 10
164.7818880739358
 20
108.1533679358385
 30
0.0
 10
164.8823284683097
 20
107.9111105337796
 30
0.0
 10
164.9201874800796
 20
107.7864478689642
 30
0.0
 10
164.9714251845431
 20
107.5301166733094
 30
0.0
 10
164.9845555593162
 20
107.397528733959
 30
0.0
 10
164.9846975097551
 20
107.0058970653897
 30
0.0
 10
164.9323565935071
 20
106.7426842323554
 30
0.0
 10
164.7332263667689
 20
106.2611769016641
 30
0.0
 10
164.5843892791266
 20
106.0379764203885
 30
0.0
 10
164.3080772425872
 20
105.7611303404268
 30
0.0
 10
164.205311705336
 20
105.676618246208
 30
0.0
 10
163.9879947729822
 20
105.5312396494766
 30
0.0
 10
163.8732078624454
 20
105.4697242178747
 30
0.0
 10
163.6312883723394
 20
105.3691681576291
 30
0.0
 10
163.5041614698394
 20
105.3305294317945
 30
0.0
 10
163.2484926342032
 20
105.2794645649072
 30
0.0
 10
163.1185974288253
 20
105.2663900845309
 30
0.0
 10
162.8545226464009
 20
105.2661316832573
 30
0.0
 10
162.7241935069156
 20
105.2790077512202
 30
0.0
 10
162.4685041927717
 20
105.3296065425482
 30
0.0
 10
162.3415763263841
 20
105.3679118883858
 30
0.0
 10
162.0991240375419
 20
105.4681677208057
 30
0.0
 10
161.9842073435603
 20
105.5295187397178
 30
0.0
 10
161.7668165517898
 20
105.674387575288
 30
0.0
 10
161.6638312721083
 20
105.7587515285574
 30
0.0
 10
161.386866904451
 20
106.0352775823435
 30
0.0
 10
161.2377346260925
 20
106.2581374243392
 30
0.0
 10
161.0377825073781
 20
106.7392399443999
 30
0.0
 10
160.9846030075057
 20
107.0018875558587
 30
0.0
 10
160.9846030075057
 20
107.3984461116738
 30
0.0
  0
SPLINE
  5
F9
330
1F
100
AcDbEntity
  8
0
  6
HIDDEN
 62
     7
370
     0
100
AcDbSpline
210
0.0
220
0.0
230
1.0
 70
     8
 71
     3
 72
    12
 73
     8
 74
     0
 42
0.00000001
 43
0.00000001
 12
1.0
 22
0.0
 32
0.0
 13
1.0
 23
0.0
 33
0.0
 40
0.0
 40
0.0
 40
0.0
 40
0.0
 40
0.2500000000000002
 40
0.2500000000000002
 40
0.5000000000000004
 40
0.5000000000000004
 40
1.0
 40
1.0
 40
1.0
 40
1.0
 10
159.5123598210722
 20
99.69744995722154
 30
0.0
 10
159.4486945845417
 20
99.69744995722154
 30
0.0
 10
159.3890883523183
 20
99.67137780874184
 30
0.0
 10
159.2904278273874
 20
99.59583905792074
 30
0.0
 10
159.2514608373722
 20
99.5485881208245
 30
0.0
 10
159.1520740054477
 20
99.39676430285807
 30
0.0
 10
159.1099977580243
 20
99.283961053093
 30
0.0
 10
159.0793471191799
 20
99.16980692835789
 30
0.0
  0
LINE
  5
FA
330
1F
100
AcDbEntity
  8
0
  6
HIDDEN
 62
     7
370
     0
100
AcDbLine
 10
162.4568458918
 20
99.6974497913
 30
0.0
 11
159.5123596761
 21
99.6974497913
 31
0.0
  0
SPLINE
  5
FB
330
1F
100
AcDbEntity
  8
0
  6
HIDDEN
 62
     7
370
     0
100
AcDbSpline
210
0.0
220
0.0
230
1.0
 70
     8
 71
     3
 72
    12
 73
     8
 74
     0
 42
0.00000001
 43
0.00000001
 12
1.0
 22
0.0
 32
0.0
 13
1.0
 23
0.0
 33
0.0
 40
0.0
 40
0.0
 40
0.0
 40
0.0
 40
0.5000000000000018
 40
0.5000000000000018
 40
0.7500000000000009
 40
0.7500000000000009
 40
1.0
 40
1.0
 40
1.0
 40
1.0
 10
162.8898588958315
 20
99.16980692835791
 30
0.0
 10
162.8591595124642
 20
99.28414259542177
 30
0.0
 10
162.8178094443577
 20
99.39549594826313
 30
0.0
 10
162.7180535161382
 20
99.54823272051188
 30
0.0
 10
162.6783565984055
 20
99.59609260636401
 30
0.0
 10
162.5810984467579
 20
99.67069571971346
 30
0.0
 10
162.5203222887672
 20
99.69744995722152
 30
0.0
 10
162.4568461939393
 20
99.69744995722154
 30
0.0
  0
ELLIPSE
  5
FC
330
1F
100
AcDbEntity
  8
0
  6
HIDDEN
 62
     7
370
     0
100
AcDbEllipse
 10
149.9283453525
 20
107.2662599264
 30
0.0
 11
-11.70927234972717
 21
24.67718644093743
 31
0.0
210
0.0
220
0.0
230
1.0
 40
0.3419987131
 41
3.310521928178955
 42
4.221709151398948
  0
SPLINE
  5
FD
330
1F
100
AcDbEntity
  8
0
  6
HIDDEN
 62
     7
370
     0
100
AcDbSpline
210
0.0
220
0.0
230
1.0
 70
     8
 71
     3
 72
    12
 73
     8
 74
     0
 42
0.00000001
 43
0.00000001
 12
1.0
 22
0.0
 32
0.0
 13
1.0
 23
0.0
 33
0.0
 40
0.0
 40
0.0
 40
0.0
 40
0.0
 40
0.25
 40
0.25
 40
0.5
 40
0.5
 40
1.0
 40
1.0
 40
1.0
 40
1.0
 10
162.4568461939393
 20
83.43952881090019
 30
0.0
 10
162.5205114304698
 20
83.4395288109002
 30
0.0
 10
162.5801176626932
 20
83.44779358656605
 30
0.0
 10
162.678778187624
 20
83.47201236814921
 30
0.0
 10
162.7177451776393
 20
83.48726968745834
 30
0.0
 10
162.8171320095637
 20
83.53690304172028
 30
0.0
 10
162.8592082569872
 20
83.57454274989439
 30
0.0
 10
162.8898588958315
 20
83.61361844917052
 30
0.0
  0
LINE
  5
FE
330
1F
100
AcDbEntity
  8
0
  6
HIDDEN
 62
     7
370
     0
100
AcDbLine
 10
159.5123596761
 20
83.4395285575
 30
0.0
 11
162.4568458918
 21
83.4395285575
 31
0.0
  0
SPLINE
  5
FF
330
1F
100
AcDbEntity
  8
0
  6
HIDDEN
 62
     7
370
     0
100
AcDbSpline
210
0.0
220
0.0
230
1.0
 70
     8
 71
     3
 72
    12
 73
     8
 74
     0
 42
0.00000001
 43
0.00000001
 12
1.0
 22
0.0
 32
0.0
 13
1.0
 23
0.0
 33
0.0
 40
0.0
 40
0.0
 40
0.0
 40
0.0
 40
0.5000000000000013
 40
0.5000000000000013
 40
0.7500000000000007
 40
0.7500000000000007
 40
1.0
 40
1.0
 40
1.0
 40
1.0
 10
159.0793471191799
 20
83.61361844917052
 30
0.0
 10
159.1100465025472
 20
83.57448060677463
 30
0.0
 10
159.1513965706538
 20
83.53732082404912
 30
0.0
 10
159.2511524988732
 20
83.48738431842138
 30
0.0
 10
159.2908494166059
 20
83.47193144827762
 30
0.0
 10
159.3881075682535
 20
83.44801190467857
 30
0.0
 10
159.4488837262442
 20
83.43952881090017
 30
0.0
 10
159.5123598210722
 20
83.43952881090017
 30
0.0
  0
ELLIPSE
  5
100
330
1F
100
AcDbEntity
  8
0
  6
HIDDEN
 62
     7
370
     0
100
AcDbEllipse
 10
172.0408606625
 20
107.2662599264
 30
0.0
 11
11.709272349727
 21
24.67718644093743
 31
0.0
210
0.0
220
0.0
230
1.0
 40
0.3419987131
 41
2.061476155780649
 42
2.972663379000662
  0
SPLINE
  5
101
330
1F
100
AcDbEntity
  8
0
  6
HIDDEN
 62
     7
370
     0
100
AcDbSpline
210
0.0
220
0.0
230
1.0
 70
     8
 71
     3
 72
    12
 73
     8
 74
     0
 42
0.00000001
 43
0.00000001
 12
1.0
 22
0.0
 32
0.0
 13
1.0
 23
0.0
 33
0.0
 40
0.0
 40
0.0
 40
0.0
 40
0.0
 40
0.2500000000000002
 40
0.2500000000000002
 40
0.5000000000000004
 40
0.5000000000000004
 40
1.0
 40
1.0
 40
1.0
 40
1.0
 10
159.5123598210722
 20
131.0929910419042
 30
0.0
 10
159.4486945845417
 20
131.0929910419042
 30
0.0
 10
159.3890883523183
 20
131.0847262662383
 30
0.0
 10
159.2904278273874
 20
131.0605074846552
 30
0.0
 10
159.2514608373722
 20
131.045250165346
 30
0.0
 10
159.1520740054477
 20
130.9956168110841
 30
0.0
 10
159.1099977580243
 20
130.95797710291
 30
0.0
 10
159.0793471191799
 20
130.9189014036338
 30
0.0
  0
LINE
  5
102
330
1F
100
AcDbEntity
  8
0
  6
HIDDEN
 62
     7
370
     0
100
AcDbLine
 10
162.4568458918
 20
131.0929912953
 30
0.0
 11
159.5123596761
 21
131.0929912953
 31
0.0
  0
SPLINE
  5
103
330
1F
100
AcDbEntity
  8
0
  6
HIDDEN
 62
     7
370
     0
100
AcDbSpline
210
0.0
220
0.0
230
1.0
 70
     8
 71
     3
 72
    12
 73
     8
 74
     0
 42
0.00000001
 43
0.00000001
 12
1.0
 22
0.0
 32
0.0
 13
1.0
 23
0.0
 33
0.0
 40
0.0
 40
0.0
 40
0.0
 40
0.0
 40
0.4999999999999991
 40
0.4999999999999991
 40
0.7499999999999996
 40
0.7499999999999996
 40
1.0
 40
1.0
 40
1.0
 40
1.0
 10
162.8898588958315
 20
130.9189014036338
 30
0.0
 10
162.8591595124642
 20
130.9580392460298
 30
0.0
 10
162.8178094443577
 20
130.9951990287552
 30
0.0
 10
162.7180535161382
 20
131.045135534383
 30
0.0
 10
162.6783565984055
 20
131.0605884045268
 30
0.0
 10
162.5810984467579
 20
131.0845079481258
 30
0.0
 10
162.5203222887672
 20
131.0929910419042
 30
0.0
 10
162.4568461939393
 20
131.0929910419042
 30
0.0
  0
ELLIPSE
  5
104
330
1F
100
AcDbEntity
  8
0
  6
HIDDEN
 62
     7
370
     0
100
AcDbEllipse
 10
149.9283453525
 20
107.2662599264
 30
0.0
 11
11.70927234972723
 21
24.67718644093744
 31
0.0
210
0.0
220
0.0
230
1.0
 40
0.3419987131
 41
5.203068809370469
 42
6.114256032590513
  0
SPLINE
  5
105
330
1F
100
AcDbEntity
  8
0
  6
HIDDEN
 62
     7
370
     0
100
AcDbSpline
210
0.0
220
0.0
230
1.0
 70
     8
 71
     3
 72
    12
 73
     8
 74
     0
 42
0.00000001
 43
0.00000001
 12
1.0
 22
0.0
 32
0.0
 13
1.0
 23
0.0
 33
0.0
 40
0.0
 40
0.0
 40
0.0
 40
0.0
 40
0.2499999999999984
 40
0.2499999999999984
 40
0.4999999999999968
 40
0.4999999999999968
 40
1.0
 40
1.0
 40
1.0
 40
1.0
 10
162.4568461939393
 20
114.835069895583
 30
0.0
 10
162.5205114304698
 20
114.835069895583
 30
0.0
 10
162.5801176626932
 20
114.8611420440628
 30
0.0
 10
162.678778187624
 20
114.9366807948839
 30
0.0
 10
162.7177451776393
 20
114.9839317319801
 30
0.0
 10
162.8171320095637
 20
115.1357555499465
 30
0.0
 10
162.8592082569872
 20
115.2485587997116
 30
0.0
 10
162.8898588958315
 20
115.3627129244467
 30
0.0
  0
LINE
  5
106
330
1F
100
AcDbEntity
  8
0
  6
HIDDEN
 62
     7
370
     0
100
AcDbLine
 10
159.5123596761
 20
114.8350700615
 30
0.0
 11
162.4568458918
 21
114.8350700615
 31
0.0
  0
SPLINE
  5
107
330
1F
100
AcDbEntity
  8
0
  6
HIDDEN
 62
     7
370
     0
100
AcDbSpline
210
0.0
220
0.0
230
1.0
 70
     8
 71
     3
 72
    12
 73
     8
 74
     0
 42
0.00000001
 43
0.00000001
 12
1.0
 22
0.0
 32
0.0
 13
1.0
 23
0.0
 33
0.0
 40
0.0
 40
0.0
 40
0.0
 40
0.0
 40
0.5000000000000046
 40
0.5000000000000046
 40
0.7500000000000022
 40
0.7500000000000022
 40
1.0
 40
1.0
 40
1.0
 40
1.0
 10
159.0793471191799
 20
115.3627129244467
 30
0.0
 10
159.1100465025472
 20
115.2483772573828
 30
0.0
 10
159.1513965706538
 20
115.1370239045415
 30
0.0
 10
159.2511524988732
 20
114.9842871322927
 30
0.0
 10
159.2908494166059
 20
114.9364272464406
 30
0.0
 10
159.3881075682535
 20
114.8618241330911
 30
0.0
 10
159.4488837262442
 20
114.835069895583
 30
0.0
 10
159.5123598210722
 20
114.835069895583
 30
0.0
  0
ELLIPSE
  5
108
330
1F
100
AcDbEntity
  8
0
  6
HIDDEN
 62
     7
370
     0
100
AcDbEllipse
 10
172.0408606625
 20
107.2662599264
 30
0.0
 11
-11.70927234972714
 21
24.67718644093743
 31
0.0
210
0.0
220
0.0
230
1.0
 40
0.3419987131
 41
0.1689292745891166
 42
1.080116497809131
  0
LINE
  5
109
330
1F
100
AcDbEntity
  8
0
  6
HIDDEN
 62
     7
370
     0
100
AcDbLine
 10
150.9846030075
 20
131.9662608086
 30
0.0
 11
150.9846030075
 21
82.5662590443
 31
0.0
  0
LINE
  5
10A
330
1F
100
AcDbEntity
  8
0
  6
HIDDEN
 62
     7
370
     0
100
AcDbLine
 10
170.9846025605
 20
87.2662603734
 30
0.0
 11
170.9846025605
 21
127.2662594794
 31
0.0
  0
LINE
  5
10B
330
1F
100
AcDbEntity
  8
0
  6
HIDDEN
 62
     7
370
     0
100
AcDbLine
 10
150.9846030075
 20
87.7162605403
 30
0.0
 11
150.9846030075
 21
126.8162593125
 31
0.0
  0
SPLINE
  5
10C
330
1F
100
AcDbEntity
  8
0
  6
HIDDEN
 62
     7
370
     0
100
AcDbSpline
210
0.0
220
0.0
230
1.0
 70
     8
 71
     3
 72
    14
 73
    10
 74
     0
 42
0.00000001
 43
0.00000001
 12
1.0
 22
0.0
 32
0.0
 13
1.0
 23
0.0
 33
0.0
 40
0.0
 40
0.0
 40
0.0
 40
0.0
 40
0.25
 40
0.25
 40
0.5
 40
0.5
 40
0.75
 40
0.75
 40
1.0
 40
1.0
 40
1.0
 40
1.0
 10
149.9437419793774
 20
119.5607354714755
 30
0.0
 10
149.9754571137081
 20
119.5029522891324
 30
0.0
 10
150.0100716390085
 20
119.4465396280574
 30
0.0
 10
150.0897428344238
 20
119.338940178042
 30
0.0
 10
150.1347987114542
 20
119.2870275511209
 30
0.0
 10
150.2453531239596
 20
119.2008289264237
 30
0.0
 10
150.3127385381637
 20
119.166739506452
 30
0.0
 10
150.4633680580618
 20
119.1646371144352
 30
0.0
 10
150.5331952948272
 20
119.1980088872799
 30
0.0
 10
150.5896261186306
 20
119.2418215558306
 30
0.0
  0
SPLINE
  5
10D
330
1F
100
AcDbEntity
  8
0
  6
HIDDEN
 62
     7
370
     0
100
AcDbSpline
210
0.0
220
0.0
230
1.0
 70
     8
 71
     3
 72
    16
 73
    12
 74
     0
 42
0.00000001
 43
0.00000001
 12
1.0
 22
0.0
 32
0.0
 13
1.0
 23
0.0
 33
0.0
 40
0.0
 40
0.0
 40
0.0
 40
0.0
 40
0.0625000000000014
 40
0.0625000000000014
 40
0.1250000000000029
 40
0.1250000000000029
 40
0.25
 40
0.25
 40
0.4999999999999983
 40
0.4999999999999983
 40
1.0
 40
1.0
 40
1.0
 40
1.0
 10
150.5896261185989
 20
119.2418215558612
 30
0.0
 10
150.6013603530457
 20
119.2509319691091
 30
0.0
 10
150.6148921085247
 20
119.2590093250555
 30
0.0
 10
150.6448795689546
 20
119.2672561667325
 30
0.0
 10
150.6598742753628
 20
119.2663288491449
 30
0.0
 10
150.6956146977576
 20
119.2535623296131
 30
0.0
 10
150.7096280347588
 20
119.2359136831028
 30
0.0
 10
150.7437721235401
 20
119.1812607630712
 30
0.0
 10
150.7547440276585
 20
119.1398610954127
 30
0.0
 10
150.7805895679248
 20
119.01137135169
 30
0.0
 10
150.7846030075057
 20
118.9207532640512
 30
0.0
 10
150.7846030075057
 20
118.8285341594972
 30
0.0
  0
LINE
  5
10E
330
1F
100
AcDbEntity
  8
0
  6
HIDDEN
 62
     7
370
     0
100
AcDbLine
 10
150.7846030126
 20
95.7039860888
 30
0.0
 11
150.7846030126
 21
118.828533764
 31
0.0
  0
SPLINE
  5
10F
330
1F
100
AcDbEntity
  8
0
  6
HIDDEN
 62
     7
370
     0
100
AcDbSpline
210
0.0
220
0.0
230
1.0
 70
     8
 71
     3
 72
    16
 73
    12
 74
     0
 42
0.00000001
 43
0.00000001
 12
1.0
 22
0.0
 32
0.0
 13
1.0
 23
0.0
 33
0.0
 40
0.0
 40
0.0
 40
0.0
 40
0.0
 40
0.4999999999999969
 40
0.4999999999999969
 40
0.7499999999999929
 40
0.7499999999999929
 40
0.8749999999999956
 40
0.8749999999999956
 40
0.9374999999999978
 40
0.9374999999999978
 40
1.0
 40
1.0
 40
1.0
 40
1.0
 10
150.7846030075057
 20
95.70398569330708
 30
0.0
 10
150.7846030075057
 20
95.61140184240315
 30
0.0
 10
150.7805457053907
 20
95.5211893865429
 30
0.0
 10
150.7548884625959
 20
95.39324825942451
 30
0.0
 10
150.7435730168538
 20
95.35083504501262
 30
0.0
 10
150.7095416495451
 20
95.29652100156147
 30
0.0
 10
150.6956626683413
 20
95.27893966617158
 30
0.0
 10
150.659726986574
 20
95.26615597823663
 30
0.0
 10
150.6447766673112
 20
95.26528048008853
 30
0.0
 10
150.6148781545693
 20
95.27352591520791
 30
0.0
 10
150.6013452942041
 20
95.28159957537964
 30
0.0
 10
150.5896261186301
 20
95.29069829697376
 30
0.0
  0
SPLINE
  5
110
330
1F
100
AcDbEntity
  8
0
  6
HIDDEN
 62
     7
370
     0
100
AcDbSpline
210
0.0
220
0.0
230
1.0
 70
     8
 71
     3
 72
    14
 73
    10
 74
     0
 42
0.00000001
 43
0.00000001
 12
1.0
 22
0.0
 32
0.0
 13
1.0
 23
0.0
 33
0.0
 40
0.0
 40
0.0
 40
0.0
 40
0.0
 40
0.25
 40
0.25
 40
0.5
 40
0.5
 40
0.75
 40
0.75
 40
1.0
 40
1.0
 40
1.0
 40
1.0
 10
150.5896261186369
 20
95.2906982969823
 30
0.0
 10
150.5331703540281
 20
95.33453032947703
 30
0.0
 10
150.4623047277782
 20
95.36786136589888
 30
0.0
 10
150.3138476466056
 20
95.36580235575146
 30
0.0
 10
150.2446542872981
 20
95.33120633134975
 30
0.0
 10
150.1349388491639
 20
95.24554097468689
 30
0.0
 10
150.0896942698325
 20
95.19351852997887
 30
0.0
 10
150.0100675604088
 20
95.08597026964897
 30
0.0
 10
149.9754574118753
 20
95.02956810691593
 30
0.0
 10
149.9437419793761
 20
94.97178438132644
 30
0.0
  0
SPLINE
  5
111
330
1F
100
AcDbEntity
  8
0
  6
HIDDEN
 62
     7
370
     0
100
AcDbSpline
210
0.0
220
0.0
230
1.0
 70
     8
 71
     3
 72
    10
 73
     6
 74
     0
 42
0.00000001
 43
0.00000001
 12
1.0
 22
0.0
 32
0.0
 13
1.0
 23
0.0
 33
0.0
 40
0.0
 40
0.0
 40
0.0
 40
0.0
 40
0.5
 40
0.5
 40
1.0
 40
1.0
 40
1.0
 40
1.0
 10
149.9437419793767
 20
94.97178438132744
 30
0.0
 10
149.8719621914532
 20
94.8410056644256
 30
0.0
 10
149.8195026771452
 20
94.7069055149224
 30
0.0
 10
149.730159613044
 20
94.43881295193366
 30
0.0
 10
149.6941640035442
 20
94.30456758034478
 30
0.0
 10
149.6632826639461
 20
94.17121320286974
 30
0.0
  0
SPLINE
  5
112
330
1F
100
AcDbEntity
  8
0
  6
HIDDEN
 62
     7
370
     0
100
AcDbSpline
210
0.0
220
0.0
230
1.0
 70
     8
 71
     3
 72
    10
 73
     6
 74
     0
 42
0.00000001
 43
0.00000001
 12
1.0
 22
0.0
 32
0.0
 13
1.0
 23
0.0
 33
0.0
 40
0.0
 40
0.0
 40
0.0
 40
0.0
 40
0.5
 40
0.5
 40
1.0
 40
1.0
 40
1.0
 40
1.0
 10
149.6632826639461
 20
89.9693500583973
 30
0.0
 10
149.6941556957584
 20
89.95306691103016
 30
0.0
 10
149.7301425586713
 20
89.94080932130458
 30
0.0
 10
149.8194771445625
 20
89.92370633247586
 30
0.0
 10
149.871933003985
 20
89.91890673661752
 30
0.0
 10
149.9437419793773
 20
89.91710264520958
 30
0.0
  0
SPLINE
  5
113
330
1F
100
AcDbEntity
  8
0
  6
HIDDEN
 62
     7
370
     0
100
AcDbSpline
210
0.0
220
0.0
230
1.0
 70
     8
 71
     3
 72
     8
 73
     4
 74
     0
 42
0.00000001
 43
0.00000001
 12
1.0
 22
0.0
 32
0.0
 13
1.0
 23
0.0
 33
0.0
 40
0.0
 40
0.0
 40
0.0
 40
0.0
 40
1.0
 40
1.0
 40
1.0
 40
1.0
 10
150.7669063841307
 20
89.79121826696252
 30
0.0
 10
150.7808931926728
 20
89.7629778763808
 30
0.0
 10
150.7846030075055
 20
89.73984583357004
 30
0.0
 10
150.7846030075058
 20
89.71950546073487
 30
0.0
  0
LINE
  5
114
330
1F
100
AcDbEntity
  8
0
  6
HIDDEN
 62
     7
370
     0
100
AcDbLine
 10
150.7846030126
 20
89.4264388709
 30
0.0
 11
150.7846030126
 21
89.719505596
 31
0.0
  0
LINE
  5
115
330
1F
100
AcDbEntity
  8
0
  6
HIDDEN
 62
     7
370
     0
100
AcDbLine
 10
150.7846030126
 20
124.8130142568
 30
0.0
 11
150.7846030126
 21
125.1060809819
 31
0.0
  0
SPLINE
  5
116
330
1F
100
AcDbEntity
  8
0
  6
HIDDEN
 62
     7
370
     0
100
AcDbSpline
210
0.0
220
0.0
230
1.0
 70
     8
 71
     3
 72
    10
 73
     6
 74
     0
 42
0.00000001
 43
0.00000001
 12
1.0
 22
0.0
 32
0.0
 13
1.0
 23
0.0
 33
0.0
 40
0.0
 40
0.0
 40
0.0
 40
0.0
 40
0.5
 40
0.5
 40
1.0
 40
1.0
 40
1.0
 40
1.0
 10
149.9437419793782
 20
124.6154172075947
 30
0.0
 10
149.8719330039856
 20
124.6136131161868
 30
0.0
 10
149.8194771445629
 20
124.6088135203284
 30
0.0
 10
149.7301425586714
 20
124.5917105314997
 30
0.0
 10
149.6941556957584
 20
124.5794529417741
 30
0.0
 10
149.6632826639461
 20
124.563169794407
 30
0.0
  0
SPLINE
  5
117
330
1F
100
AcDbEntity
  8
0
  6
HIDDEN
 62
     7
370
     0
100
AcDbSpline
210
0.0
220
0.0
230
1.0
 70
     8
 71
     3
 72
    10
 73
     6
 74
     0
 42
0.00000001
 43
0.00000001
 12
1.0
 22
0.0
 32
0.0
 13
1.0
 23
0.0
 33
0.0
 40
0.0
 40
0.0
 40
0.0
 40
0.0
 40
0.5
 40
0.5
 40
1.0
 40
1.0
 40
1.0
 40
1.0
 10
149.6632826639461
 20
120.3613066499345
 30
0.0
 10
149.6941640035443
 20
120.2279522724592
 30
0.0
 10
149.7301596130441
 20
120.0937069008702
 30
0.0
 10
149.8195026771454
 20
119.825614337881
 30
0.0
 10
149.8719621914537
 20
119.6915141883776
 30
0.0
 10
149.9437419793773
 20
119.5607354714755
 30
0.0
  0
LINE
  5
118
330
1F
100
AcDbEntity
  8
0
  6
HIDDEN
 62
     7
370
     0
100
AcDbLine
 10
150.7846030126
 20
89.719505596
 30
0.0
 11
150.7846030126
 21
101.2817798993
 31
0.0
  0
LINE
  5
119
330
1F
100
AcDbEntity
  8
0
  6
HIDDEN
 62
     7
370
     0
100
AcDbLine
 10
150.7846030126
 20
113.2507399535
 30
0.0
 11
150.7846030126
 21
124.8130142568
 31
0.0
  0
SPLINE
  5
11A
330
1F
100
AcDbEntity
  8
0
  6
HIDDEN
 62
     7
370
     0
100
AcDbSpline
210
0.0
220
0.0
230
1.0
 70
     8
 71
     3
 72
    66
 73
    62
 74
     0
 42
0.00000001
 43
0.00000001
 12
1.0
 22
0.0
 32
0.0
 13
1.0
 23
0.0
 33
0.0
 40
-0.0312500000000004
 40
-0.0312500000000004
 40
0.0
 40
0.0
 40
0.0312500000000006
 40
0.0312500000000006
 40
0.0625000000000013
 40
0.0625000000000013
 40
0.0937500000000019
 40
0.0937500000000019
 40
0.1250000000000025
 40
0.1250000000000025
 40
0.1562500000000032
 40
0.1562500000000032
 40
0.1875000000000038
 40
0.1875000000000038
 40
0.2187500000000044
 40
0.2187500000000044
 40
0.2500000000000051
 40
0.2500000000000051
 40
0.2812500000000057
 40
0.2812500000000057
 40
0.3125000000000063
 40
0.3125000000000063
 40
0.3437500000000069
 40
0.3437500000000069
 40
0.3750000000000074
 40
0.3750000000000074
 40
0.406250000000008
 40
0.406250000000008
 40
0.4375000000000086
 40
0.4375000000000086
 40
0.4687500000000092
 40
0.4687500000000092
 40
0.5000000000000098
 40
0.5000000000000098
 40
0.5625000000000082
 40
0.5625000000000082
 40
0.5937500000000074
 40
0.5937500000000074
 40
0.6250000000000067
 40
0.6250000000000067
 40
0.6562500000000058
 40
0.6562500000000058
 40
0.687500000000005
 40
0.687500000000005
 40
0.7187500000000043
 40
0.7187500000000043
 40
0.7500000000000036
 40
0.7500000000000036
 40
0.7812500000000029
 40
0.7812500000000029
 40
0.8125000000000022
 40
0.8125000000000022
 40
0.8437500000000016
 40
0.8437500000000016
 40
0.8750000000000008
 40
0.8750000000000008
 40
0.9374999999999992
 40
0.9374999999999992
 40
0.9687499999999996
 40
0.9687499999999996
 40
1.0
 40
1.0
 40
1.031250000000001
 40
1.031250000000001
 10
220.8191692597844
 20
100.0050745509419
 30
0.0
 10
221.1500367552271
 20
100.0050745509419
 30
0.0
 10
221.3126545029545
 20
100.0197351372285
 30
0.0
 10
221.6325043616896
 20
100.0772251900587
 30
0.0
 10
221.7914128535462
 20
100.1207705561799
 30
0.0
 10
222.0940359028718
 20
100.2345331597983
 30
0.0
 10
222.2375259563976
 20
100.3042274933285
 30
0.0
 10
222.5090859317478
 20
100.4694115143117
 30
0.0
 10
222.6374634883075
 20
100.5656526203326
 30
0.0
 10
222.8676706048054
 20
100.7767324360841
 30
0.0
 10
222.9710652487174
 20
100.8923380135794
 30
0.0
 10
223.153835215833
 20
101.1447875530032
 30
0.0
 10
223.2313434400085
 20
101.2794516667494
 30
0.0
 10
223.3561110138092
 20
101.5598647802489
 30
0.0
 10
223.4042467935373
 20
101.7076950331564
 30
0.0
 10
223.4685684284294
 20
102.0116664136851
 30
0.0
 10
223.4845097092686
 20
102.165316001267
 30
0.0
 10
223.4846954969293
 20
102.4759552995127
 30
0.0
 10
223.4684074851424
 20
102.634554003511
 30
0.0
 10
223.4045235907132
 20
102.9426986385559
 30
0.0
 10
223.3572591579452
 20
103.0932433648597
 30
0.0
 10
223.2318510471202
 20
103.3870078057595
 30
0.0
 10
223.1536842443605
 20
103.5292733247507
 30
0.0
 10
222.9728766108445
 20
103.7939147628772
 30
0.0
 10
222.8693401335186
 20
103.9181701913045
 30
0.0
 10
222.6365069270786
 20
104.1477472835997
 30
0.0
 10
222.510536592286
 20
104.2498907930742
 30
0.0
 10
222.2400813768432
 20
104.4294037466994
 30
0.0
 10
222.0938201244583
 20
104.5074042238693
 30
0.0
 10
221.7913780336606
 20
104.6323914121158
 30
0.0
 10
221.635558553037
 20
104.6797191191834
 30
0.0
 10
221.3147077918367
 20
104.743855629423
 30
0.0
 10
221.1488470362419
 20
104.7602936835949
 30
0.0
 10
220.659021002802
 20
104.7604834670871
 30
0.0
 10
220.3295787467754
 20
104.6948007970442
 30
0.0
 10
219.8781208332387
 20
104.5086845207616
 30
0.0
 10
219.7324014548995
 20
104.4313826258276
 30
0.0
 10
219.4595784200174
 20
104.2506872352049
 30
0.0
 10
219.3338331984723
 20
104.1485829741404
 30
0.0
 10
219.1031672497439
 20
103.9217025656079
 30
0.0
 10
218.9975965428413
 20
103.7955701515768
 30
0.0
 10
218.8162111552401
 20
103.5304794876319
 30
0.0
 10
218.7392657553909
 20
103.3907767356312
 30
0.0
 10
218.6133059891179
 20
103.097115959747
 30
0.0
 10
218.5650938723328
 20
102.9440399490282
 30
0.0
 10
218.5011749236735
 20
102.637004959936
 30
0.0
 10
218.4847410363242
 20
102.4811062757258
 30
0.0
 10
218.4844667017172
 20
102.1668176180572
 30
0.0
 10
218.5005503076474
 20
102.0129912243886
 30
0.0
 10
218.5639361940004
 20
101.7116331093291
 30
0.0
 10
218.6120622161941
 20
101.5625325613277
 30
0.0
 10
218.7372679811637
 20
101.2804458649221
 30
0.0
 10
218.8139286919217
 20
101.1472144458843
 30
0.0
 10
218.9952750906084
 20
100.8958714109899
 30
0.0
 10
219.1005121182494
 20
100.7778107574559
 30
0.0
 10
219.445456674012
 20
100.4611086583725
 30
0.0
 10
219.723852201271
 20
100.2916991158171
 30
0.0
 10
220.1747685451469
 20
100.121767865096
 30
0.0
 10
220.3327167264465
 20
100.0780919275247
 30
0.0
 10
220.6557173066635
 20
100.0197368225478
 30
0.0
 10
220.8191692597844
 20
100.0050745509419
 30
0.0
 10
221.1500367552271
 20
100.0050745509419
 30
0.0
  0
CIRCLE
  5
11B
330
1F
100
AcDbEntity
  8
0
  6
HIDDEN
 62
     7
370
     0
100
AcDbCircle
 10
136.9846030075
 20
107.2662599264
 30
0.0
 40
3.049999999999997
  0
SPLINE
  5
11C
330
1F
100
AcDbEntity
  8
0
  6
HIDDEN
 62
     7
370
     0
100
AcDbSpline
210
0.0
220
0.0
230
1.0
 70
     8
 71
     3
 72
    62
 73
    58
 74
     0
 42
0.00000001
 43
0.00000001
 12
1.0
 22
0.0
 32
0.0
 13
1.0
 23
0.0
 33
0.0
 40
-0.0312499999999991
 40
-0.0312499999999991
 40
0.0
 40
0.0
 40
0.031249999999999
 40
0.031249999999999
 40
0.0624999999999981
 40
0.0624999999999981
 40
0.124999999999999
 40
0.124999999999999
 40
0.1874999999999999
 40
0.1874999999999999
 40
0.2187500000000009
 40
0.2187500000000009
 40
0.2500000000000019
 40
0.2500000000000019
 40
0.281250000000003
 40
0.281250000000003
 40
0.312500000000004
 40
0.312500000000004
 40
0.3437500000000051
 40
0.3437500000000051
 40
0.3750000000000062
 40
0.3750000000000062
 40
0.4375000000000084
 40
0.4375000000000084
 40
0.468750000000008
 40
0.468750000000008
 40
0.5000000000000078
 40
0.5000000000000078
 40
0.5312500000000074
 40
0.5312500000000074
 40
0.5625000000000072
 40
0.5625000000000072
 40
0.5937500000000069
 40
0.5937500000000069
 40
0.6250000000000066
 40
0.6250000000000066
 40
0.6562500000000063
 40
0.6562500000000063
 40
0.687500000000006
 40
0.687500000000006
 40
0.7187500000000058
 40
0.7187500000000058
 40
0.7500000000000056
 40
0.7500000000000056
 40
0.7812500000000053
 40
0.7812500000000053
 40
0.8125000000000051
 40
0.8125000000000051
 40
0.8750000000000033
 40
0.8750000000000033
 40
0.9062500000000026
 40
0.9062500000000026
 40
0.9375000000000017
 40
0.9375000000000017
 40
0.9687500000000009
 40
0.9687500000000009
 40
1.0
 40
1.0
 40
1.031249999999999
 40
1.031249999999999
 10
220.8434047835259
 20
106.4108370830172
 30
0.0
 10
221.1258012314856
 20
106.4108370830172
 30
0.0
 10
221.2640791084994
 20
106.426741145035
 30
0.0
 10
221.5352451797072
 20
106.4880930032319
 30
0.0
 10
221.6694485071667
 20
106.5343568160638
 30
0.0
 10
222.0485116869569
 20
106.7104544835233
 30
0.0
 10
222.2775186086508
 20
106.8802123365282
 30
0.0
 10
222.6585492276535
 20
107.2857347339936
 30
0.0
 10
222.8141723045751
 20
107.525724526004
 30
0.0
 10
222.9732427811437
 20
107.9080610980417
 30
0.0
 10
223.0149699262872
 20
108.0421938854963
 30
0.0
 10
223.0702406274291
 20
108.3093807560861
 30
0.0
 10
223.084320558919
 20
108.4426817025057
 30
0.0
 10
223.0848771252401
 20
108.7085254092521
 30
0.0
 10
223.0708878478196
 20
108.8407405589639
 30
0.0
 10
223.0164063285839
 20
109.0910485332395
 30
0.0
 10
222.9755558704289
 20
109.2118704453119
 30
0.0
 10
222.8689419035695
 20
109.43923030484
 30
0.0
 10
222.8041897612966
 20
109.544245952776
 30
0.0
 10
222.652631219344
 20
109.7390707777549
 30
0.0
 10
222.5652930961709
 20
109.8289557316967
 30
0.0
 10
222.2795166752094
 20
110.0679909836797
 30
0.0
 10
222.0499803267436
 20
110.1926308851932
 30
0.0
 10
221.6736621907494
 20
110.3182005574887
 30
0.0
 10
221.5413292823886
 20
110.3505197487554
 30
0.0
 10
221.2672966233978
 20
110.3941229339802
 30
0.0
 10
221.1292714637757
 20
110.4049794110859
 30
0.0
 10
220.8512000825569
 20
110.4055577761763
 30
0.0
 10
220.7094871438865
 20
110.3948593210939
 30
0.0
 10
220.4370648882062
 20
110.3524230603057
 30
0.0
 10
220.3052367437092
 20
110.3209474342876
 30
0.0
 10
220.0498378481046
 20
110.2366733504166
 30
0.0
 10
219.9296718449153
 20
110.1849411605424
 30
0.0
 10
219.7045004323589
 20
110.0626694267535
 30
0.0
 10
219.5983493710246
 20
109.9911828295266
 30
0.0
 10
219.4069020823224
 20
109.8318491428066
 30
0.0
 10
219.3209680684029
 20
109.7439315351198
 30
0.0
 10
219.1685557503629
 20
109.5495425705238
 30
0.0
 10
219.1023722600754
 20
109.4427469631851
 30
0.0
 10
218.9961905615243
 20
109.218225009845
 30
0.0
 10
218.9552104983085
 20
109.0994317500079
 30
0.0
 10
218.8991303575111
 20
108.8470131489098
 30
0.0
 10
218.8849061820698
 20
108.7160788477077
 30
0.0
 10
218.8843094981984
 20
108.4516534209777
 30
0.0
 10
218.8980780656968
 20
108.3154714703871
 30
0.0
 10
218.9529281326388
 20
108.0467856989885
 30
0.0
 10
218.9934246459153
 20
107.9151971409469
 30
0.0
 10
219.1528871170915
 20
107.5288837488071
 30
0.0
 10
219.3075555414057
 20
107.2894016794722
 30
0.0
 10
219.5958635727503
 20
106.9820143373015
 30
0.0
 10
219.6998883880981
 20
106.8895516151235
 30
0.0
 10
219.9243076462769
 20
106.7249326390008
 30
0.0
 10
220.0462384341374
 20
106.6522093969593
 30
0.0
 10
220.2986955855634
 20
106.5347730082535
 30
0.0
 10
220.4295821154806
 20
106.4893937871687
 30
0.0
 10
220.7015230331934
 20
106.4272554078882
 30
0.0
 10
220.8434047835259
 20
106.4108370830172
 30
0.0
 10
221.1258012314856
 20
106.4108370830172
 30
0.0
  0
SPLINE
  5
11D
330
1F
100
AcDbEntity
  8
0
  6
HIDDEN
 62
     7
370
     0
100
AcDbSpline
210
0.0
220
0.0
230
1.0
 70
     8
 71
     3
 72
    10
 73
     6
 74
     0
 42
0.00000001
 43
0.00000001
 12
1.0
 22
0.0
 32
0.0
 13
1.0
 23
0.0
 33
0.0
 40
0.0
 40
0.0
 40
0.0
 40
0.0
 40
0.5
 40
0.5
 40
1.0
 40
1.0
 40
1.0
 40
1.0
 10
221.7616529824027
 20
108.2904123355097
 30
0.0
 10
221.7267298733587
 20
108.3490306415991
 30
0.0
 10
221.7113371359065
 20
108.4156556895718
 30
0.0
 10
221.7330782774458
 20
108.5667987514219
 30
0.0
 10
221.7706018526445
 20
108.6520526125991
 30
0.0
 10
221.8249465486533
 20
108.7451082073532
 30
0.0
  0
SPLINE
  5
11E
330
1F
100
AcDbEntity
  8
0
  6
HIDDEN
 62
     7
370
     0
100
AcDbSpline
210
0.0
220
0.0
230
1.0
 70
     8
 71
     3
 72
    74
 73
    70
 74
     0
 42
0.00000001
 43
0.00000001
 12
1.0
 22
0.0
 32
0.0
 13
1.0
 23
0.0
 33
0.0
 40
0.0
 40
0.0
 40
0.0
 40
0.0
 40
0.0156250000000009
 40
0.0156250000000009
 40
0.0312500000000018
 40
0.0312500000000018
 40
0.0625000000000015
 40
0.0625000000000015
 40
0.0937500000000012
 40
0.0937500000000012
 40
0.1250000000000009
 40
0.1250000000000009
 40
0.1875000000000012
 40
0.1875000000000012
 40
0.2187500000000013
 40
0.2187500000000013
 40
0.2500000000000014
 40
0.2500000000000014
 40
0.2812500000000015
 40
0.2812500000000015
 40
0.3125000000000016
 40
0.3125000000000016
 40
0.3437500000000017
 40
0.3437500000000017
 40
0.3750000000000018
 40
0.3750000000000018
 40
0.4062500000000019
 40
0.4062500000000019
 40
0.437500000000002
 40
0.437500000000002
 40
0.4687500000000021
 40
0.4687500000000021
 40
0.4843750000000021
 40
0.4843750000000021
 40
0.5000000000000019
 40
0.5000000000000019
 40
0.5312500000000018
 40
0.5312500000000018
 40
0.5625000000000018
 40
0.5625000000000018
 40
0.5937500000000017
 40
0.5937500000000017
 40
0.6250000000000017
 40
0.6250000000000017
 40
0.6562500000000016
 40
0.6562500000000016
 40
0.6875000000000016
 40
0.6875000000000016
 40
0.7187500000000013
 40
0.7187500000000013
 40
0.7500000000000011
 40
0.7500000000000011
 40
0.781250000000001
 40
0.781250000000001
 40
0.8125000000000008
 40
0.8125000000000008
 40
0.8437500000000007
 40
0.8437500000000007
 40
0.8750000000000004
 40
0.8750000000000004
 40
0.9062500000000003
 40
0.9062500000000003
 40
0.9375000000000001
 40
0.9375000000000001
 40
0.96875
 40
0.96875
 40
0.984375
 40
0.984375
 40
1.0
 40
1.0
 40
1.0
 40
1.0
 10
221.8249465486518
 20
108.7451082073452
 30
0.0
 10
221.8943267175989
 20
108.7677232902345
 30
0.0
 10
221.9628590557145
 20
108.7976709735613
 30
0.0
 10
222.0982116214689
 20
108.8742222010684
 30
0.0
 10
222.1619009069157
 20
108.9190336883938
 30
0.0
 10
222.3409328579663
 20
109.0662115796777
 30
0.0
 10
222.4410229811272
 20
109.1766418736216
 30
0.0
 10
222.6203432785128
 20
109.4119600188049
 30
0.0
 10
222.6981112787436
 20
109.5362234294765
 30
0.0
 10
222.8337028974701
 20
109.7948446871525
 30
0.0
 10
222.8917389596783
 20
109.9297589531634
 30
0.0
 10
223.0358744410307
 20
110.354344857169
 30
0.0
 10
223.0901349276442
 20
110.659539871521
 30
0.0
 10
223.0811744044057
 20
111.1241976613246
 30
0.0
 10
223.063238192366
 20
111.2769819331008
 30
0.0
 10
222.9926120359012
 20
111.5776141796957
 30
0.0
 10
222.9408606690089
 20
111.7200186437493
 30
0.0
 10
222.8063191006866
 20
111.9816025202184
 30
0.0
 10
222.7224876693773
 20
112.1014693391165
 30
0.0
 10
222.5355317317683
 20
112.3039646814174
 30
0.0
 10
222.4301447229176
 20
112.3893787647035
 30
0.0
 10
222.2111911220792
 20
112.5233968983726
 30
0.0
 10
222.0952349549124
 20
112.573719305511
 30
0.0
 10
221.8634173101227
 20
112.642550745126
 30
0.0
 10
221.7471625362501
 20
112.6616563135076
 30
0.0
 10
221.5154644101428
 20
112.6744304177181
 30
0.0
 10
221.3998331709853
 20
112.6677940772957
 30
0.0
 10
221.1790730543074
 20
112.6328907141748
 30
0.0
 10
221.072719214454
 20
112.6046873298118
 30
0.0
 10
220.8758862081309
 20
112.5297348866812
 30
0.0
 10
220.7847797072842
 20
112.4828199956849
 30
0.0
 10
220.6891171617121
 20
112.4055316456326
 30
0.0
 10
220.6652441385694
 20
112.3792835675289
 30
0.0
 10
220.6423859843515
 20
112.3280615004556
 30
0.0
 10
220.6444788840191
 20
112.3044722415321
 30
0.0
 10
220.6870429627
 20
112.2402544511118
 30
0.0
 10
220.7591310543479
 20
112.2068317188775
 30
0.0
 10
220.9257006816179
 20
112.1369602561769
 30
0.0
 10
221.021022492687
 20
112.1009020576059
 30
0.0
 10
221.2223273341124
 20
112.0166552695912
 30
0.0
 10
221.3295954787991
 20
111.9683358271793
 30
0.0
 10
221.5476826938775
 20
111.8570470808675
 30
0.0
 10
221.6586119030957
 20
111.794249566878
 30
0.0
 10
221.8827585911081
 20
111.6502650101866
 30
0.0
 10
221.9972624770628
 20
111.5681204050289
 30
0.0
 10
222.2216374339091
 20
111.3839578350718
 30
0.0
 10
222.3306425227535
 20
111.2829514755921
 30
0.0
 10
222.5398089096211
 20
111.0578603498244
 30
0.0
 10
222.6367285928382
 20
110.9369877629056
 30
0.0
 10
222.8080278120772
 20
110.6809838744451
 30
0.0
 10
222.8812263976843
 20
110.5470035281793
 30
0.0
 10
222.9941780501553
 20
110.2810751394403
 30
0.0
 10
223.0346732746949
 20
110.1471354751669
 30
0.0
 10
223.0816657392841
 20
109.893934660223
 30
0.0
 10
223.0888486902887
 20
109.7720019891142
 30
0.0
 10
223.0755844261081
 20
109.5478279724635
 30
0.0
 10
223.0553501486755
 20
109.4431578650926
 30
0.0
 10
222.9922615385578
 20
109.2492459464165
 30
0.0
 10
222.9500961297533
 20
109.161501687723
 30
0.0
 10
222.8473152174083
 20
108.9996858104949
 30
0.0
 10
222.7865748145304
 20
108.9255717345544
 30
0.0
 10
222.6460542172888
 20
108.7879118179781
 30
0.0
 10
222.56752940414
 20
108.7254815161424
 30
0.0
 10
222.3875733250092
 20
108.6056867300871
 30
0.0
 10
222.2859541944613
 20
108.5484850808009
 30
0.0
 10
222.104261447897
 20
108.4553390729387
 30
0.0
 10
222.0395612942398
 20
108.423322861338
 30
0.0
 10
221.9027692174585
 20
108.3568166880827
 30
0.0
 10
221.8320081135552
 20
108.3229681836751
 30
0.0
 10
221.7616529824019
 20
108.2904123355117
 30
0.0
  0
LWPOLYLINE
  5
11F
330
1F
100
AcDbEntity
  8
0
  6
HIDDEN
 62
     7
370
     0
100
AcDbPolyline
 90
       23
 70
   128
 43
0.0
 10
220.9846033055
 20
109.2862622692
 10
221.5762390096
 20
109.3671634673
 10
222.1199451286
 20
109.6033135774
 10
222.5716738302
 20
109.9755806728
 10
222.8948278625
 20
110.4538062001
 10
223.0632258851
 20
110.9992469075
 10
223.0632258851
 20
111.5677147983
 10
222.8948278625
 20
112.1131555057
 10
222.5716738302
 20
112.5913808002
 10
222.1199451286
 20
112.9636481284
 10
221.5762390096
 20
113.1997980057
 10
220.9846033055
 20
113.2806996694
 10
220.3929676015
 20
113.1997980057
 10
219.8492540318
 20
112.9636481284
 10
219.3975253303
 20
112.5913808002
 10
219.0743787486
 20
112.1131555057
 10
218.905980726
 20
111.5677147983
 10
218.905980726
 20
110.9992469075
 10
219.0743787486
 20
110.4538062001
 10
219.3975253303
 20
109.9755806728
 10
219.8492540318
 20
109.6033135774
 10
220.3929676015
 20
109.3671634673
 10
220.9846033055
 20
109.2862622692
  0
LINE
  5
120
330
1F
100
AcDbEntity
  8
0
  6
HIDDEN
 62
     7
370
     0
100
AcDbLine
 10
126.0126428951
 20
118.054935324
 30
0.0
 11
126.0126428951
 21
96.4775845288
 31
0.0
  0
LINE
  5
121
330
1F
100
AcDbEntity
  8
0
  6
HIDDEN
 62
     7
370
     0
100
AcDbLine
 10
122.0126422394
 20
118.4361331044
 30
0.0
 11
122.0126422394
 21
96.0963867484
 31
0.0
  0
LINE
  5
122
330
1F
100
AcDbEntity
  8
0
  6
HIDDEN
 62
     7
370
     0
100
AcDbLine
 10
120.9846036781
 20
95.502847421
 30
0.0
 11
120.9846036781
 21
119.0296724318
 31
0.0
  0
LINE
  5
123
330
1F
100
AcDbEntity
  8
0
  6
HIDDEN
 62
     7
370
     0
100
AcDbLine
 10
130.6126425315
 20
117.7662597848
 30
0.0
 11
130.6126425315
 21
96.766260068
 31
0.0
  0
LWPOLYLINE
  5
124
330
1F
100
AcDbEntity
  8
0
  6
HIDDEN
 62
     7
370
     0
100
AcDbPolyline
 90
        9
 70
   128
 43
0.0
 10
221.8249468405
 20
108.7451082068
 10
221.8413604695
 20
108.6462161849
 10
221.850837608
 20
108.5583007308
 10
221.8533037502
 20
108.4819882755
 10
221.8487439949
 20
108.4178228276
 10
221.837195595
 20
108.3662614338
 10
221.8187330563
 20
108.3276716173
 10
221.7934904892
 20
108.302328351
 10
221.7616541583
 20
108.2904123115
  0
LINE
  5
125
330
1F
100
AcDbEntity
  8
0
  6
HIDDEN
 62
     7
370
     0
100
AcDbLine
 10
124.5126435805
 20
117.7662597848
 30
0.0
 11
124.5126435805
 21
96.766260068
 31
0.0
  0
LINE
  5
126
330
1F
100
AcDbEntity
  8
0
  6
HIDDEN
 62
     7
370
     0
100
AcDbLine
 10
125.5126437444
 20
117.7662597848
 30
0.0
 11
125.5126437444
 21
96.766260068
 31
0.0
  0
LINE
  5
127
330
1F
100
AcDbEntity
  8
0
  6
HIDDEN
 62
     7
370
     0
100
AcDbLine
 10
140.984603231
 20
117.2662597029
 30
0.0
 11
140.984603231
 21
97.2662601499
 31
0.0
  0
SPLINE
  5
128
330
1F
100
AcDbEntity
  8
0
  6
HIDDEN
 62
     7
370
     0
100
AcDbSpline
210
0.0
220
0.0
230
1.0
 70
     8
 71
     3
 72
    66
 73
    62
 74
     0
 42
0.00000001
 43
0.00000001
 12
1.0
 22
0.0
 32
0.0
 13
1.0
 23
0.0
 33
0.0
 40
-0.0312499999999999
 40
-0.0312499999999999
 40
0.0
 40
0.0
 40
0.03125
 40
0.03125
 40
0.0625000000000001
 40
0.0625000000000001
 40
0.0937500000000001
 40
0.0937500000000001
 40
0.1250000000000002
 40
0.1250000000000002
 40
0.1875000000000001
 40
0.1875000000000001
 40
0.21875
 40
0.21875
 40
0.2499999999999999
 40
0.2499999999999999
 40
0.2812499999999999
 40
0.2812499999999999
 40
0.3124999999999998
 40
0.3124999999999998
 40
0.3437499999999997
 40
0.3437499999999997
 40
0.3749999999999997
 40
0.3749999999999997
 40
0.4062499999999996
 40
0.4062499999999996
 40
0.4374999999999994
 40
0.4374999999999994
 40
0.4687499999999993
 40
0.4687499999999993
 40
0.4999999999999992
 40
0.4999999999999992
 40
0.531249999999999
 40
0.531249999999999
 40
0.562499999999999
 40
0.562499999999999
 40
0.5937499999999989
 40
0.5937499999999989
 40
0.624999999999999
 40
0.624999999999999
 40
0.6562499999999991
 40
0.6562499999999991
 40
0.6874999999999991
 40
0.6874999999999991
 40
0.7187499999999992
 40
0.7187499999999992
 40
0.7499999999999992
 40
0.7499999999999992
 40
0.7812499999999993
 40
0.7812499999999993
 40
0.8124999999999996
 40
0.8124999999999996
 40
0.8749999999999997
 40
0.8749999999999997
 40
0.90625
 40
0.90625
 40
0.9375
 40
0.9375
 40
0.9687500000000001
 40
0.9687500000000001
 40
1.0
 40
1.0
 40
1.03125
 40
1.03125
 10
136.7819243605579
 20
110.3162599264021
 30
0.0
 10
137.1872816544535
 20
110.3162599264021
 30
0.0
 10
137.3863415457894
 20
110.2962603667855
 30
0.0
 10
137.7775955303691
 20
110.2181168640854
 30
0.0
 10
137.9718682891167
 20
110.1589557625646
 30
0.0
 10
138.340631715668
 20
110.0055240756703
 30
0.0
 10
138.5153568740463
 20
109.9117972658281
 30
0.0
 10
138.8460341775801
 20
109.6905431634232
 30
0.0
 10
139.0016817215829
 20
109.5625617964286
 30
0.0
 10
139.4211490912516
 20
109.1430066994286
 30
0.0
 10
139.6480372327819
 20
108.8045281407252
 30
0.0
 10
139.8768338561667
 20
108.254649253007
 30
0.0
 10
139.9360261110155
 20
108.0612494072636
 30
0.0
 10
140.014833521276
 20
107.6670212569057
 30
0.0
 10
140.0344729375564
 20
107.4683824294733
 30
0.0
 10
140.034731801978
 20
107.0680821435749
 30
0.0
 10
140.0146611173451
 20
106.8647428168538
 30
0.0
 10
139.9363234347151
 20
106.4726512962462
 30
0.0
 10
139.8783736666767
 20
106.281945427931
 30
0.0
 10
139.7244305247967
 20
105.9112216113444
 30
0.0
 10
139.629491911074
 20
105.7344949515356
 30
0.0
 10
139.4091344951968
 20
105.4052418406112
 30
0.0
 10
139.2818544692686
 20
105.2501206170148
 30
0.0
 10
139.000098877938
 20
104.9684439220844
 30
0.0
 10
138.8473105484805
 20
104.84301073718
 30
0.0
 10
138.5178834663236
 20
104.6222351438259
 30
0.0
 10
138.3393374631719
 20
104.5264038911257
 30
0.0
 10
137.9717651376217
 20
104.3735747606306
 30
0.0
 10
137.7816111109107
 20
104.3154030026864
 30
0.0
 10
137.3880706882082
 20
104.2364097103415
 30
0.0
 10
137.1856366169471
 20
104.2163465846993
 30
0.0
 10
136.7862075415817
 20
104.2161738385805
 30
0.0
 10
136.5861885630258
 20
104.2356572126698
 30
0.0
 10
136.1900726155764
 20
104.314648784271
 30
0.0
 10
135.9993397873846
 20
104.372929004123
 30
0.0
 10
135.6317083468049
 20
104.525496624731
 30
0.0
 10
135.4532219146371
 20
104.6211054115043
 30
0.0
 10
135.1230166556731
 20
104.8421174565893
 30
0.0
 10
134.9701280776111
 20
104.9675673553594
 30
0.0
 10
134.688531683073
 20
105.2487978443647
 30
0.0
 10
134.5609007601975
 20
105.4041807222787
 30
0.0
 10
134.3405753251977
 20
105.7330315803216
 30
0.0
 10
134.2463488682323
 20
105.9079196867356
 30
0.0
 10
134.0914143476292
 20
106.2800635380964
 30
0.0
 10
134.033402062027
 20
106.4708695799054
 30
0.0
 10
133.9549828077489
 20
106.8617425978241
 30
0.0
 10
133.9346687277823
 20
107.0642001592064
 30
0.0
 10
133.9345376114783
 20
107.4663307641258
 30
0.0
 10
133.9541623048377
 20
107.6650548093009
 30
0.0
 10
134.0323287552514
 20
108.0578942804376
 30
0.0
 10
134.0916162005913
 20
108.2525385578402
 30
0.0
 10
134.3206970436742
 20
108.8039783112544
 30
0.0
 10
134.5475278945683
 20
109.1423178769536
 30
0.0
 10
134.966866595889
 20
109.5619835396051
 30
0.0
 10
135.122219591639
 20
109.6898295453783
 30
0.0
 10
135.4531874247761
 20
109.9114306200802
 30
0.0
 10
135.6277487249725
 20
110.0050713540571
 30
0.0
 10
135.9953220325473
 20
110.1582254747563
 30
0.0
 10
136.1900088941854
 20
110.2177292204024
 30
0.0
 10
136.5824848441219
 20
110.2962519694654
 30
0.0
 10
136.7819243605579
 20
110.3162599264021
 30
0.0
 10
137.1872816544535
 20
110.3162599264021
 30
0.0
  0
SPLINE
  5
129
330
1F
100
AcDbEntity
  8
0
  6
HIDDEN
 62
     7
370
     0
100
AcDbSpline
210
0.0
220
0.0
230
1.0
 70
     8
 71
     3
 72
    66
 73
    62
 74
     0
 42
0.00000001
 43
0.00000001
 12
1.0
 22
0.0
 32
0.0
 13
1.0
 23
0.0
 33
0.0
 40
-0.0312500000000001
 40
-0.0312500000000001
 40
0.0
 40
0.0
 40
0.0312499999999999
 40
0.0312499999999999
 40
0.0624999999999998
 40
0.0624999999999998
 40
0.0937499999999996
 40
0.0937499999999996
 40
0.1249999999999995
 40
0.1249999999999995
 40
0.1874999999999993
 40
0.1874999999999993
 40
0.2187499999999991
 40
0.2187499999999991
 40
0.249999999999999
 40
0.249999999999999
 40
0.2812499999999989
 40
0.2812499999999989
 40
0.3124999999999988
 40
0.3124999999999988
 40
0.3437499999999987
 40
0.3437499999999987
 40
0.3749999999999986
 40
0.3749999999999986
 40
0.4062499999999984
 40
0.4062499999999984
 40
0.4374999999999986
 40
0.4374999999999986
 40
0.4687499999999987
 40
0.4687499999999987
 40
0.4999999999999988
 40
0.4999999999999988
 40
0.5312499999999989
 40
0.5312499999999989
 40
0.562499999999999
 40
0.562499999999999
 40
0.5937499999999991
 40
0.5937499999999991
 40
0.6249999999999992
 40
0.6249999999999992
 40
0.6562499999999993
 40
0.6562499999999993
 40
0.6874999999999994
 40
0.6874999999999994
 40
0.7187499999999996
 40
0.7187499999999996
 40
0.7499999999999996
 40
0.7499999999999996
 40
0.7812499999999997
 40
0.7812499999999997
 40
0.8124999999999998
 40
0.8124999999999998
 40
0.8749999999999999
 40
0.8749999999999999
 40
0.9062499999999999
 40
0.9062499999999999
 40
0.9374999999999999
 40
0.9374999999999999
 40
0.9687499999999999
 40
0.9687499999999999
 40
1.0
 40
1.0
 40
1.03125
 40
1.03125
 10
137.1872816544535
 20
110.3162599264021
 30
0.0
 10
136.7819243605579
 20
110.3162599264021
 30
0.0
 10
136.5828644692221
 20
110.2962603667855
 30
0.0
 10
136.1916104846424
 20
110.2181168640854
 30
0.0
 10
135.9973377258947
 20
110.1589557625646
 30
0.0
 10
135.6285742993434
 20
110.0055240756703
 30
0.0
 10
135.4538491409651
 20
109.9117972658281
 30
0.0
 10
135.1231718374313
 20
109.6905431634232
 30
0.0
 10
134.9675242934285
 20
109.5625617964286
 30
0.0
 10
134.5480569237599
 20
109.1430066994286
 30
0.0
 10
134.3211687822296
 20
108.8045281407252
 30
0.0
 10
134.0923721588448
 20
108.254649253007
 30
0.0
 10
134.0331799039959
 20
108.0612494072636
 30
0.0
 10
133.9543724937354
 20
107.6670212569057
 30
0.0
 10
133.934733077455
 20
107.4683824294733
 30
0.0
 10
133.9344742130334
 20
107.0680821435749
 30
0.0
 10
133.9545448976664
 20
106.8647428168538
 30
0.0
 10
134.0328825802963
 20
106.4726512962462
 30
0.0
 10
134.0908323483348
 20
106.281945427931
 30
0.0
 10
134.2447754902148
 20
105.9112216113444
 30
0.0
 10
134.3397141039375
 20
105.7344949515356
 30
0.0
 10
134.5600715198146
 20
105.4052418406112
 30
0.0
 10
134.6873515457429
 20
105.2501206170148
 30
0.0
 10
134.9691071370735
 20
104.9684439220844
 30
0.0
 10
135.121895466531
 20
104.84301073718
 30
0.0
 10
135.4513225486879
 20
104.6222351438259
 30
0.0
 10
135.6298685518396
 20
104.5264038911257
 30
0.0
 10
135.9974408773897
 20
104.3735747606306
 30
0.0
 10
136.1875949041007
 20
104.3154030026864
 30
0.0
 10
136.5811353268032
 20
104.2364097103415
 30
0.0
 10
136.7835693980643
 20
104.2163465846993
 30
0.0
 10
137.1829984734297
 20
104.2161738385805
 30
0.0
 10
137.3830174519857
 20
104.2356572126698
 30
0.0
 10
137.779133399435
 20
104.314648784271
 30
0.0
 10
137.9698662276269
 20
104.372929004123
 30
0.0
 10
138.3374976682066
 20
104.525496624731
 30
0.0
 10
138.5159841003744
 20
104.6211054115043
 30
0.0
 10
138.8461893593384
 20
104.8421174565893
 30
0.0
 10
138.9990779374004
 20
104.9675673553594
 30
0.0
 10
139.2806743319384
 20
105.2487978443647
 30
0.0
 10
139.408305254814
 20
105.4041807222787
 30
0.0
 10
139.6286306898137
 20
105.7330315803216
 30
0.0
 10
139.7228571467791
 20
105.9079196867356
 30
0.0
 10
139.8777916673822
 20
106.2800635380964
 30
0.0
 10
139.9358039529844
 20
106.4708695799054
 30
0.0
 10
140.0142232072626
 20
106.8617425978241
 30
0.0
 10
140.0345372872291
 20
107.0642001592064
 30
0.0
 10
140.0346684035331
 20
107.4663307641258
 30
0.0
 10
140.0150437101737
 20
107.665054809301
 30
0.0
 10
139.9368772597601
 20
108.0578942804376
 30
0.0
 10
139.8775898144202
 20
108.2525385578402
 30
0.0
 10
139.6485089713373
 20
108.8039783112544
 30
0.0
 10
139.4216781204431
 20
109.1423178769536
 30
0.0
 10
139.0023394191224
 20
109.5619835396051
 30
0.0
 10
138.8469864233725
 20
109.6898295453784
 30
0.0
 10
138.5160185902353
 20
109.9114306200802
 30
0.0
 10
138.3414572900389
 20
110.0050713540571
 30
0.0
 10
137.9738839824641
 20
110.1582254747563
 30
0.0
 10
137.779197120826
 20
110.2177292204024
 30
0.0
 10
137.3867211708896
 20
110.2962519694654
 30
0.0
 10
137.1872816544535
 20
110.3162599264021
 30
0.0
 10
136.7819243605579
 20
110.3162599264021
 30
0.0
  0
LINE
  5
12A
330
1F
100
AcDbEntity
  8
0
  6
HIDDEN
 62
     7
370
     0
100
AcDbLine
 10
141.9846033949
 20
114.5162597178
 30
0.0
 11
141.9846033949
 21
100.016260135
 31
0.0
  0
LINE
  5
12B
330
1F
100
AcDbEntity
  8
0
  6
HIDDEN
 62
     7
370
     0
100
AcDbLine
 10
140.984603231
 20
99.0162599711
 30
0.0
 11
140.984603231
 21
115.4961638032
 31
0.0
  0
LINE
  5
12C
330
1F
100
AcDbEntity
  8
0
  6
HIDDEN
 62
     7
370
     0
100
AcDbLine
 10
165.9846026722
 20
114.5162597178
 30
0.0
 11
165.9846026722
 21
100.016260135
 31
0.0
  0
LINE
  5
12D
330
1F
100
AcDbEntity
  8
0
  6
HIDDEN
 62
     7
370
     0
100
AcDbLine
 10
167.7871840347
 20
111.5162601574
 30
0.0
 11
167.7871840347
 21
103.0162596954
 31
0.0
  0
SPLINE
  5
12E
330
1F
100
AcDbEntity
  8
0
  6
HIDDEN
 62
     7
370
     0
100
AcDbSpline
210
0.0
220
0.0
230
1.0
 70
     8
 71
     3
 72
    62
 73
    58
 74
     0
 42
0.00000001
 43
0.00000001
 12
1.0
 22
0.0
 32
0.0
 13
1.0
 23
0.0
 33
0.0
 40
-0.0312499999999999
 40
-0.0312499999999999
 40
0.0
 40
0.0
 40
0.0312499999999976
 40
0.0312499999999976
 40
0.0624999999999952
 40
0.0624999999999952
 40
0.1249999999999932
 40
0.1249999999999932
 40
0.1874999999999912
 40
0.1874999999999912
 40
0.2187499999999907
 40
0.2187499999999907
 40
0.2499999999999902
 40
0.2499999999999902
 40
0.2812499999999898
 40
0.2812499999999898
 40
0.3124999999999893
 40
0.3124999999999893
 40
0.3437499999999889
 40
0.3437499999999889
 40
0.3749999999999884
 40
0.3749999999999884
 40
0.4374999999999875
 40
0.4374999999999875
 40
0.4687499999999884
 40
0.4687499999999884
 40
0.4999999999999893
 40
0.4999999999999893
 40
0.5312499999999902
 40
0.5312499999999902
 40
0.5624999999999912
 40
0.5624999999999912
 40
0.5937499999999921
 40
0.5937499999999921
 40
0.6249999999999931
 40
0.6249999999999931
 40
0.656249999999994
 40
0.656249999999994
 40
0.687499999999995
 40
0.687499999999995
 40
0.7187499999999959
 40
0.7187499999999959
 40
0.7499999999999968
 40
0.7499999999999968
 40
0.7812499999999978
 40
0.7812499999999978
 40
0.8124999999999987
 40
0.8124999999999987
 40
0.8750000000000006
 40
0.8750000000000006
 40
0.9062500000000004
 40
0.9062500000000004
 40
0.9375000000000002
 40
0.9375000000000002
 40
0.9687500000000001
 40
0.9687500000000001
 40
1.0
 40
1.0
 40
1.031249999999998
 40
1.031249999999998
 10
221.1258012314857
 20
104.1272454013474
 30
0.0
 10
220.8434047835259
 20
104.1272454013474
 30
0.0
 10
220.7051269065121
 20
104.1381409058689
 30
0.0
 10
220.4339608353043
 20
104.1807847078877
 30
0.0
 10
220.2997575078448
 20
104.2131243212226
 30
0.0
 10
219.9206943280546
 20
104.3389849819539
 30
0.0
 10
219.6916874063608
 20
104.4633222530901
 30
0.0
 10
219.310656787358
 20
104.7811076245629
 30
0.0
 10
219.1550337104364
 20
104.9781797669814
 30
0.0
 10
218.9959632338677
 20
105.3148960863057
 30
0.0
 10
218.9542360887243
 20
105.4365881739048
 30
0.0
 10
218.8989653875824
 20
105.6871534061967
 30
0.0
 10
218.8848854560925
 20
105.8161235047636
 30
0.0
 10
218.8843288897713
 20
106.0817972467066
 30
0.0
 10
218.8983181671919
 20
106.2183153444435
 30
0.0
 10
218.9527996864276
 20
106.485013954364
 30
0.0
 10
218.9936501445825
 20
106.6180292428166
 30
0.0
 10
219.1002641114419
 20
106.875990359032
 30
0.0
 10
219.1650162537149
 20
106.9991237930322
 30
0.0
 10
219.3165747956675
 20
107.2339264627126
 30
0.0
 10
219.4039129188406
 20
107.345776270533
 30
0.0
 10
219.6896893398021
 20
107.6506914837758
 30
0.0
 10
219.9192256882679
 20
107.8208369480031
 30
0.0
 10
220.2955438242622
 20
107.9964732529058
 30
0.0
 10
220.4278767326228
 20
108.0426853496074
 30
0.0
 10
220.7019093916137
 20
108.1054035193809
 30
0.0
 10
220.8399345512358
 20
108.1212540812082
 30
0.0
 10
221.1180059324545
 20
108.1220944357107
 30
0.0
 10
221.2597188711249
 20
108.1064752957621
 30
0.0
 10
221.5321411268052
 20
108.0454112343492
 30
0.0
 10
221.6639692713023
 20
108.0003574533566
 30
0.0
 10
221.9193681669069
 20
107.8824001402578
 30
0.0
 10
222.0395341700962
 20
107.8110264398632
 30
0.0
 10
222.2647055826525
 20
107.6468254174721
 30
0.0
 10
222.3708566439869
 20
107.5527817600949
 30
0.0
 10
222.5623039326891
 20
107.3494021694563
 30
0.0
 10
222.6482379466086
 20
107.2399076797533
 30
0.0
 10
222.8006502646486
 20
107.0053904959558
 30
0.0
 10
222.8668337549361
 20
106.8800974601665
 30
0.0
 10
222.9730154534872
 20
106.6251270079749
 30
0.0
 10
223.0139955167029
 20
106.4941172741781
 30
0.0
 10
223.0700756575003
 20
106.2248371743173
 30
0.0
 10
223.0842998329416
 20
106.0895269792642
 30
0.0
 10
223.0848965168131
 20
105.8249193366353
 30
0.0
 10
223.0711279493148
 20
105.6929738510328
 30
0.0
 10
223.0162778823726
 20
105.4407899333725
 30
0.0
 10
222.9757813690961
 20
105.321288869348
 30
0.0
 10
222.81631889792
 20
104.9807527742994
 30
0.0
 10
222.6616504736059
 20
104.7840240853568
 30
0.0
 10
222.3733424422612
 20
104.5430776201952
 30
0.0
 10
222.2693176269134
 20
104.4727658718147
 30
0.0
 10
222.0448983687346
 20
104.3500983640969
 30
0.0
 10
221.9229675808741
 20
104.2973596934758
 30
0.0
 10
221.6705104294481
 20
104.2134181249104
 30
0.0
 10
221.539623899531
 20
104.1816930244436
 30
0.0
 10
221.2676829818181
 20
104.1384942932593
 30
0.0
 10
221.1258012314857
 20
104.1272454013474
 30
0.0
 10
220.8434047835259
 20
104.1272454013474
 30
0.0
  0
LINE
  5
12F
330
1F
100
AcDbEntity
  8
0
  6
HIDDEN
 62
     7
370
     0
100
AcDbLine
 10
223.9846019346
 20
103.0162596954
 30
0.0
 11
223.9846019346
 21
111.5162601574
 31
0.0
  0
LINE
  5
130
330
1F
100
AcDbEntity
  8
0
  6
HIDDEN
 62
     7
370
     0
100
AcDbLine
 10
250.1004739005
 20
125.8250582842
 30
0.0
 11
247.7806387741
 21
118.485395412
 31
0.0
  0
LINE
  5
131
330
1F
100
AcDbEntity
  8
0
  6
HIDDEN
 62
     7
370
     0
100
AcDbLine
 10
247.7806387741
 20
118.485395412
 30
0.0
 11
247.7304069597
 21
118.4695964558
 31
0.0
  0
LINE
  5
132
330
1F
100
AcDbEntity
  8
0
  6
HIDDEN
 62
     7
370
     0
100
AcDbLine
 10
247.2358970243
 20
115.1417350276
 30
0.0
 11
257.5976727802
 21
118.4008341162
 31
0.0
  0
LINE
  5
133
330
1F
100
AcDbEntity
  8
0
  6
HIDDEN
 62
     7
370
     0
100
AcDbLine
 10
250.053281923
 20
125.8102167277
 30
0.0
 11
250.1004739005
 21
125.8250582842
 31
0.0
  0
LINE
  5
134
330
1F
100
AcDbEntity
  8
0
  6
HIDDEN
 62
     7
370
     0
100
AcDbLine
 10
235.4846028883
 20
90.7662600158
 30
0.0
 11
235.4846028883
 21
107.2662599264
 31
0.0
  0
SPLINE
  5
135
330
1F
100
AcDbEntity
  8
0
  6
HIDDEN
 62
     7
370
     0
100
AcDbSpline
210
0.0
220
0.0
230
1.0
 70
     8
 71
     3
 72
     8
 73
     4
 74
     0
 42
0.00000001
 43
0.00000001
 12
1.0
 22
0.0
 32
0.0
 13
1.0
 23
0.0
 33
0.0
 40
0.0
 40
0.0
 40
0.0
 40
0.0
 40
1.0
 40
1.0
 40
1.0
 40
1.0
 10
235.4846030075057
 20
107.2662599264021
 30
0.0
 10
235.4846030075057
 20
107.7657048128006
 30
0.0
 10
235.5076500478
 20
108.26927959042
 30
0.0
 10
235.5526445332866
 20
108.7662599264021
 30
0.0
  0
SPLINE
  5
136
330
1F
100
AcDbEntity
  8
0
  6
HIDDEN
 62
     7
370
     0
100
AcDbSpline
210
0.0
220
0.0
230
1.0
 70
     8
 71
     3
 72
    16
 73
    12
 74
     0
 42
0.00000001
 43
0.00000001
 12
1.0
 22
0.0
 32
0.0
 13
1.0
 23
0.0
 33
0.0
 40
0.0
 40
0.0
 40
0.0
 40
0.0
 40
0.2499999999999999
 40
0.2499999999999999
 40
0.4999999999999998
 40
0.4999999999999998
 40
0.6249999999999998
 40
0.6249999999999998
 40
0.7499999999999999
 40
0.7499999999999999
 40
1.0
 40
1.0
 40
1.0
 40
1.0
 10
235.5526445332866
 20
108.7662599264021
 30
0.0
 10
235.6581183036406
 20
109.9312557978064
 30
0.0
 10
235.7954257410485
 20
111.0772950848824
 30
0.0
 10
236.1255723850142
 20
113.3343604688032
 30
0.0
 10
236.3184249545993
 20
114.4453766061499
 30
0.0
 10
236.6458377585397
 20
116.0859681406474
 30
0.0
 10
236.7612757850309
 20
116.6277393359602
 30
0.0
 10
237.0004057939248
 20
117.685286928909
 30
0.0
 10
237.1245344832858
 20
118.2033165319223
 30
0.0
 10
237.5094050072454
 20
119.7261901444699
 30
0.0
 10
237.7825384473637
 20
120.6999948352579
 30
0.0
 10
238.0702592609053
 20
121.6328107765999
 30
0.0
  0
SPLINE
  5
137
330
1F
100
AcDbEntity
  8
0
  6
HIDDEN
 62
     7
370
     0
100
AcDbSpline
210
0.0
220
0.0
230
1.0
 70
     8
 71
     3
 72
    18
 73
    14
 74
     0
 42
0.00000001
 43
0.00000001
 12
1.0
 22
0.0
 32
0.0
 13
1.0
 23
0.0
 33
0.0
 40
0.0
 40
0.0
 40
0.0
 40
0.0
 40
0.2500000000000003
 40
0.2500000000000003
 40
0.3750000000000002
 40
0.3750000000000002
 40
0.5000000000000001
 40
0.5000000000000001
 40
0.7500000000000001
 40
0.7500000000000001
 40
0.8750000000000001
 40
0.8750000000000001
 40
1.0
 40
1.0
 40
1.0
 40
1.0
 10
238.0702592609053
 20
121.6328107765999
 30
0.0
 10
237.5743945310238
 20
121.8210656716872
 30
0.0
 10
237.1238252087998
 20
122.013504680892
 30
0.0
 10
236.5474005341345
 20
122.3113478691643
 30
0.0
 10
236.3716543908787
 20
122.4123780613378
 30
0.0
 10
236.0619425943832
 20
122.6172872234446
 30
0.0
 10
235.9293211882028
 20
122.7202662819699
 30
0.0
 10
235.6053173756419
 20
123.0309457109277
 30
0.0
 10
235.4884315084673
 20
123.2404033401464
 30
0.0
 10
235.4828284650828
 20
123.5585933535578
 30
0.0
 10
235.5095306737598
 20
123.6658544448858
 30
0.0
 10
235.6179976521931
 20
123.8778982719102
 30
0.0
 10
235.6994170833947
 20
123.9829172782966
 30
0.0
 10
235.8054823536024
 20
124.0870270836121
 30
0.0
  0
ELLIPSE
  5
138
330
1F
100
AcDbEntity
  8
0
  6
HIDDEN
 62
     7
370
     0
100
AcDbEllipse
 10
253.9466532476
 20
107.2662599264
 30
0.0
 11
5.390524936199171
 21
16.49183944377624
 31
0.0
210
0.0
220
0.0
230
1.0
 40
0.0962569477
 41
1.60224851077457
 42
3.173044837569625
  0
LINE
  5
139
330
1F
100
AcDbEntity
  8
0
  6
HIDDEN
 62
     7
370
     0
100
AcDbLine
 10
247.0068140227
 20
115.1970034344
 30
0.0
 11
257.3852716286
 21
118.4613477318
 31
0.0
  0
LINE
  5
13A
330
1F
100
AcDbEntity
  8
0
  6
HIDDEN
 62
     7
370
     0
100
AcDbLine
 10
257.5976727802
 20
118.4008341162
 30
0.0
 11
257.3852716286
 21
118.4613477318
 31
0.0
  0
LINE
  5
13B
330
1F
100
AcDbEntity
  8
0
  6
HIDDEN
 62
     7
370
     0
100
AcDbLine
 10
247.7806387741
 20
118.485395412
 30
0.0
 11
247.9930399258
 21
118.122139561
 31
0.0
  0
LINE
  5
13C
330
1F
100
AcDbEntity
  8
0
  6
HIDDEN
 62
     7
370
     0
100
AcDbLine
 10
247.579473098
 20
117.9920589431
 30
0.0
 11
247.9930399258
 21
118.122139561
 31
0.0
  0
LINE
  5
13D
330
1F
100
AcDbEntity
  8
0
  6
HIDDEN
 62
     7
370
     0
100
AcDbLine
 10
250.3174050052
 20
125.4761252432
 30
0.0
 11
250.1004739005
 21
125.8250582842
 31
0.0
  0
LINE
  5
13E
330
1F
100
AcDbEntity
  8
0
  6
HIDDEN
 62
     7
370
     0
100
AcDbLine
 10
250.3174050052
 20
125.4761252432
 30
0.0
 11
247.9930399258
 21
118.122139561
 31
0.0
  0
ARC
  5
13F
330
1F
100
AcDbEntity
  8
0
  6
HIDDEN
 62
     7
370
     0
100
AcDbCircle
 10
245.9857924123
 20
116.0809204174
 30
0.0
 40
1.249354907482035
100
AcDbArc
 50
177.6941360325
 51
287.536251421
  0
LINE
  5
140
330
1F
100
AcDbEntity
  8
0
  6
HIDDEN
 62
     7
370
     0
100
AcDbLine
 10
257.3852716286
 20
118.4613477318
 30
0.0
 11
257.1708364684
 21
118.2892672597
 31
0.0
  0
LINE
  5
141
330
1F
100
AcDbEntity
  8
0
  6
HIDDEN
 62
     7
370
     0
100
AcDbLine
 10
247.9930399258
 20
118.122139561
 30
0.0
 11
247.9930399258
 21
118.0175045384
 31
0.0
  0
LINE
  5
142
330
1F
100
AcDbEntity
  8
0
  6
HIDDEN
 62
     7
370
     0
100
AcDbLine
 10
247.9930399258
 20
118.0175045384
 30
0.0
 11
247.5427491862
 21
117.8758745892
 31
0.0
  0
LINE
  5
143
330
1F
100
AcDbEntity
  8
0
  6
HIDDEN
 62
     7
370
     0
100
AcDbLine
 10
250.2529276807
 20
125.1674812166
 30
0.0
 11
247.9930399258
 21
118.0175045384
 31
0.0
  0
LINE
  5
144
330
1F
100
AcDbEntity
  8
0
  6
HIDDEN
 62
     7
370
     0
100
AcDbLine
 10
250.2529276807
 20
125.1674812166
 30
0.0
 11
250.3174050052
 21
125.4761252432
 31
0.0
  0
LWPOLYLINE
  5
145
330
1F
100
AcDbEntity
  8
0
  6
HIDDEN
 62
     7
370
     0
100
AcDbPolyline
 90
       23
 70
   128
 43
0.0
 10
220.9846033055
 20
102.178871247
 10
221.5762390096
 20
102.2597729108
 10
222.1199451286
 20
102.4959227881
 10
222.5716738302
 20
102.8681901163
 10
222.8948278625
 20
103.3464154108
 10
223.0632258851
 20
103.8918561181
 10
223.0632258851
 20
104.4603237761
 10
222.8948278625
 20
105.0057647163
 10
222.5716738302
 20
105.4839901273
 10
222.1199451286
 20
105.8562572226
 10
221.5762390096
 20
106.0924073328
 10
220.9846033055
 20
106.1733086473
 10
220.3929676015
 20
106.0924073328
 10
219.8492540318
 20
105.8562572226
 10
219.3975253303
 20
105.4839901273
 10
219.0743787486
 20
105.0057647163
 10
218.905980726
 20
104.4603237761
 10
218.905980726
 20
103.8918561181
 10
219.0743787486
 20
103.3464154108
 10
219.3975253303
 20
102.8681901163
 10
219.8492540318
 20
102.4959227881
 10
220.3929676015
 20
102.2597729108
 10
220.9846033055
 20
102.178871247
  0
CIRCLE
  5
146
330
1F
100
AcDbEntity
  8
0
  6
HIDDEN
 62
     7
370
     0
100
AcDbCircle
 10
253.8123158365
 20
121.839352561
 30
0.0
 40
2.397991990058167
  0
LINE
  5
147
330
1F
100
AcDbEntity
  8
0
  6
HIDDEN
 62
     7
370
     0
100
AcDbLine
 10
260.1942746241
 20
127.8550136714
 30
0.0
 11
259.8591177065
 21
128.1889244793
 31
0.0
  0
LINE
  5
148
330
1F
100
AcDbEntity
  8
0
  6
HIDDEN
 62
     7
370
     0
100
AcDbLine
 10
246.362234493
 20
114.8896274036
 30
0.0
 11
257.1708364684
 21
118.2892672597
 31
0.0
  0
LINE
  5
149
330
1F
100
AcDbEntity
  8
0
  6
HIDDEN
 62
     7
370
     0
100
AcDbLine
 10
250.2529276807
 20
125.1674812166
 30
0.0
 11
259.8591177065
 21
128.1889244793
 31
0.0
  0
LINE
  5
14A
330
1F
100
AcDbEntity
  8
0
  6
HIDDEN
 62
     7
370
     0
100
AcDbLine
 10
260.1942746241
 20
127.8550136714
 30
0.0
 11
257.1708364684
 21
118.2892672597
 31
0.0
  0
CIRCLE
  5
14B
330
1F
100
AcDbEntity
  8
0
  6
HIDDEN
 62
     7
370
     0
100
AcDbCircle
 10
253.8124929701
 20
121.7858124448
 30
0.0
 40
1.648596514383898
  0
LINE
  5
14C
330
1F
100
AcDbEntity
  8
0
  6
HIDDEN
 62
     7
370
     0
100
AcDbLine
 10
259.8591177065
 20
128.1889244793
 30
0.0
 11
259.2800734837
 21
127.4081352977
 31
0.0
  0
LINE
  5
14D
330
1F
100
AcDbEntity
  8
0
  6
HIDDEN
 62
     7
370
     0
100
AcDbLine
 10
259.4816712934
 20
126.8941309182
 30
0.0
 11
260.1942746241
 21
127.8550136714
 31
0.0
  0
SPLINE
  5
14E
330
1F
100
AcDbEntity
  8
0
  6
HIDDEN
 62
     7
370
     0
100
AcDbSpline
210
0.0
220
0.0
230
1.0
 70
     8
 71
     3
 72
    32
 73
    28
 74
     0
 42
0.00000001
 43
0.00000001
 12
1.0
 22
0.0
 32
0.0
 13
1.0
 23
0.0
 33
0.0
 40
0.0
 40
0.0
 40
0.0
 40
0.0
 40
0.1250000000000005
 40
0.1250000000000005
 40
0.250000000000001
 40
0.250000000000001
 40
0.3125000000000009
 40
0.3125000000000009
 40
0.3750000000000009
 40
0.3750000000000009
 40
0.4375000000000009
 40
0.4375000000000009
 40
0.5000000000000007
 40
0.5000000000000007
 40
0.5625000000000004
 40
0.5625000000000004
 40
0.6250000000000002
 40
0.6250000000000002
 40
0.6875000000000001
 40
0.6875000000000001
 40
0.7499999999999999
 40
0.7499999999999999
 40
0.8124999999999997
 40
0.8124999999999997
 40
0.8749999999999994
 40
0.8749999999999994
 40
1.0
 40
1.0
 40
1.0
 40
1.0
 10
252.1663133923
 20
121.0737557069416
 30
0.0
 10
252.1537079511031
 20
121.2930248689751
 30
0.0
 10
252.1800147363604
 20
121.5061097629967
 30
0.0
 10
252.3078544655153
 20
121.9206424582128
 30
0.0
 10
252.4076192788604
 20
122.1150110400152
 30
0.0
 10
252.6153818635285
 20
122.3781321107352
 30
0.0
 10
252.6954805508727
 20
122.4617869393199
 30
0.0
 10
252.8728502248129
 20
122.611494934273
 30
0.0
 10
252.9712563648549
 20
122.6788654040564
 30
0.0
 10
253.1883230790738
 20
122.7929599509436
 30
0.0
 10
253.3038397446527
 20
122.8381881945236
 30
0.0
 10
253.5513512104714
 20
122.9012681960608
 30
0.0
 10
253.6798867946663
 20
122.9178174898191
 30
0.0
 10
253.9377331342735
 20
122.9185650863605
 30
0.0
 10
254.0684357281049
 20
122.9023571609447
 30
0.0
 10
254.3147771601723
 20
122.8408537197915
 30
0.0
 10
254.4333878812045
 20
122.7950285465545
 30
0.0
 10
254.6496783812571
 20
122.6823650059611
 30
0.0
 10
254.7498989013491
 20
122.614350630281
 30
0.0
 10
254.9279316290188
 20
122.4649288825687
 30
0.0
 10
255.0067875195217
 20
122.3831618335529
 30
0.0
 10
255.1469010787373
 20
122.2069556593245
 30
0.0
 10
255.2073979903898
 20
122.1131255760917
 30
0.0
 10
255.30843136647
 20
121.9201021627611
 30
0.0
 10
255.3495532821626
 20
121.8201505872522
 30
0.0
 10
255.445859362482
 20
121.5100415268084
 30
0.0
 10
255.4729480022025
 20
121.2932396382766
 30
0.0
 10
255.4603302142543
 20
121.0737557069416
 30
0.0
  0
ARC
  5
14F
330
1F
100
AcDbEntity
  8
0
  6
HIDDEN
 62
     7
370
     0
100
AcDbCircle
 10
253.8133217294
 20
121.1761851621
 30
0.0
 40
1.650192456887928
100
AcDbArc
 50
183.5586969061
 51
356.441303094
  0
LINE
  5
150
330
1F
100
AcDbEntity
  8
0
  6
HIDDEN
 62
     7
370
     0
100
AcDbLine
 10
122.4846029926
 20
124.1256106524
 30
0.0
 11
122.4846029926
 21
119.3158324687
 31
0.0
  0
LINE
  5
151
330
1F
100
AcDbEntity
  8
0
  6
HIDDEN
 62
     7
370
     0
100
AcDbLine
 10
120.9846036781
 20
123.2595849661
 30
0.0
 11
120.9846036781
 21
118.8828196256
 31
0.0
  0
SPLINE
  5
152
330
1F
100
AcDbEntity
  8
0
  6
HIDDEN
 62
     7
370
     0
100
AcDbSpline
210
0.0
220
0.0
230
1.0
 70
     8
 71
     3
 72
    18
 73
    14
 74
     0
 42
0.00000001
 43
0.00000001
 12
1.0
 22
0.0
 32
0.0
 13
1.0
 23
0.0
 33
0.0
 40
0.0
 40
0.0
 40
0.0
 40
0.0
 40
0.2500000000000002
 40
0.2500000000000002
 40
0.375
 40
0.375
 40
0.4999999999999999
 40
0.4999999999999999
 40
0.6249999999999998
 40
0.6249999999999998
 40
0.7499999999999996
 40
0.7499999999999996
 40
1.0
 40
1.0
 40
1.0
 40
1.0
 10
149.6632826639461
 20
94.17121320286974
 30
0.0
 10
149.5279970576437
 20
93.58701160913807
 30
0.0
 10
149.4268293114008
 20
93.05279392192986
 30
0.0
 10
149.3239679685319
 20
92.32689715104148
 30
0.0
 10
149.2978651230086
 20
92.09701666326154
 30
0.0
 10
149.2629751394637
 20
91.66644571847475
 30
0.0
 10
149.2543888811738
 20
91.46875081298057
 30
0.0
 10
149.2542891716081
 20
91.10740277030277
 30
0.0
 10
149.2627775427567
 20
90.94375276035665
 30
0.0
 10
149.2969209222773
 20
90.65054148738767
 30
0.0
 10
149.3227179041311
 20
90.52054542127186
 30
0.0
 10
149.426119035519
 20
90.18648952870991
 30
0.0
 10
149.5279770276904
 20
90.04071336434514
 30
0.0
 10
149.6632826639461
 20
89.9693500583973
 30
0.0
  0
LINE
  5
153
330
1F
100
AcDbEntity
  8
0
  6
HIDDEN
 62
     7
370
     0
100
AcDbLine
 10
148.7846030194
 20
94.8863137393
 30
0.0
 11
148.7846030194
 21
89.7461619107
 31
0.0
  0
LINE
  5
154
330
1F
100
AcDbEntity
  8
0
  6
HIDDEN
 62
     7
370
     0
100
AcDbLine
 10
148.7846030194
 20
124.7863579421
 30
0.0
 11
148.7846030194
 21
119.6462061135
 31
0.0
  0
SPLINE
  5
155
330
1F
100
AcDbEntity
  8
0
  6
HIDDEN
 62
     7
370
     0
100
AcDbSpline
210
0.0
220
0.0
230
1.0
 70
     8
 71
     3
 72
    18
 73
    14
 74
     0
 42
0.00000001
 43
0.00000001
 12
1.0
 22
0.0
 32
0.0
 13
1.0
 23
0.0
 33
0.0
 40
0.0
 40
0.0
 40
0.0
 40
0.0
 40
0.2499999999999998
 40
0.2499999999999998
 40
0.3749999999999999
 40
0.3749999999999999
 40
0.5
 40
0.5
 40
0.6250000000000001
 40
0.6250000000000001
 40
0.7500000000000002
 40
0.7500000000000002
 40
1.0
 40
1.0
 40
1.0
 40
1.0
 10
149.6632826639461
 20
124.563169794407
 30
0.0
 10
149.5279970576437
 20
124.4918170527174
 30
0.0
 10
149.4268293114008
 20
124.346413646128
 30
0.0
 10
149.3239679685319
 20
124.0169464105223
 30
0.0
 10
149.2978651230086
 20
123.8880128337176
 30
0.0
 10
149.2629751394637
 20
123.5924708343815
 30
0.0
 10
149.2543888811738
 20
123.4280760608595
 30
0.0
 10
149.2542891716081
 20
123.0671144461189
 30
0.0
 10
149.2627775427567
 20
122.8705446539567
 30
0.0
 10
149.2969209222773
 20
122.4451898578317
 30
0.0
 10
149.3227179041311
 20
122.2154202080322
 30
0.0
 10
149.426119035519
 20
121.4828315135997
 30
0.0
 10
149.5279770276904
 20
120.9455947386821
 30
0.0
 10
149.6632826639461
 20
120.3613066499345
 30
0.0
  0
LINE
  5
156
330
1F
100
AcDbEntity
  8
0
  6
HIDDEN
 62
     7
370
     0
100
AcDbLine
 10
122.4846029926
 20
95.2166873841
 30
0.0
 11
122.4846029926
 21
90.4069092004
 31
0.0
  0
LINE
  5
157
330
1F
100
AcDbEntity
  8
0
  6
HIDDEN
 62
     7
370
     0
100
AcDbLine
 10
120.9846036781
 20
95.6497002272
 30
0.0
 11
120.9846036781
 21
91.2729348867
 31
0.0
  0
ELLIPSE
  5
158
330
1F
100
AcDbEntity
  8
0
  6
HIDDEN
 62
     7
370
     0
100
AcDbEllipse
 10
283.3033774017
 20
108.7662599264
 30
0.0
 11
24.06101560154258
 21
-22.4188799991057
 31
0.0
210
0.0
220
0.0
230
1.0
 40
0.2135193148
 41
3.542086208490084
 42
3.579292178252515
  0
ELLIPSE
  5
159
330
1F
100
AcDbEntity
  8
0
  6
HIDDEN
 62
     7
370
     0
100
AcDbEllipse
 10
192.5922865657
 20
108.7662599264
 30
0.0
 11
73.48411303275151
 21
22.64800636057875
 31
0.0
210
0.0
220
0.0
230
1.0
 40
0.054548757
 41
5.557188037262494
 42
5.832597835267137
  0
LINE
  5
15A
330
1F
100
AcDbEntity
  8
0
  6
HIDDEN
 62
     7
370
     0
100
AcDbLine
 10
238.0702598292
 20
121.6328112288
 30
0.0
 11
240.601363619
 21
121.6328112288
 31
0.0
  0
SPLINE
  5
15B
330
1F
100
AcDbEntity
  8
0
  6
HIDDEN
 62
     7
370
     0
100
AcDbSpline
210
0.0
220
0.0
230
1.0
 70
     8
 71
     3
 72
    12
 73
     8
 74
     0
 42
0.00000001
 43
0.00000001
 12
1.0
 22
0.0
 32
0.0
 13
1.0
 23
0.0
 33
0.0
 40
0.0
 40
0.0
 40
0.0
 40
0.0
 40
0.5
 40
0.5
 40
0.75
 40
0.75
 40
1.0
 40
1.0
 40
1.0
 40
1.0
 10
240.601361342356
 20
121.6328107765999
 30
0.0
 10
241.948486551883
 20
121.6328107765998
 30
0.0
 10
243.2712434356758
 20
121.7544797181411
 30
0.0
 10
245.2194090499879
 20
122.1095069613087
 30
0.0
 10
245.8627354012983
 20
122.2568005516092
 30
0.0
 10
247.136537977432
 20
122.6097460001596
 30
0.0
 10
247.7592662252094
 20
122.8132921472158
 30
0.0
 10
248.3666514308957
 20
123.0421460983903
 30
0.0
  0
ELLIPSE
  5
15C
330
1F
100
AcDbEntity
  8
0
  6
HIDDEN
 62
     7
370
     0
100
AcDbEllipse
 10
255.123750749
 20
108.7662599264
 30
0.0
 11
7.514065062580642
 21
22.98862467920323
 31
0.0
210
0.0
220
0.0
230
1.0
 40
0.0962569477
 41
0.6944213496677031
 42
1.602248510774582
  0
LWPOLYLINE
  5
15D
330
1F
100
AcDbEntity
  8
0
  6
HIDDEN
 62
     7
370
     0
100
AcDbPolyline
 90
       26
 70
   128
 43
0.0
 10
220.9846033055
 20
101.7241781457
 10
221.606324454
 20
101.7988762698
 10
222.188989659
 20
102.0182767762
 10
222.6959718663
 20
102.3685937627
 10
223.0954198439
 20
102.82781542
 10
223.3622474868
 20
103.367087978
 10
223.479668637
 20
103.9525261959
 10
223.4403221209
 20
104.5473451605
 10
223.2466740806
 20
105.1141699655
 10
222.9108838636
 20
105.6173850894
 10
222.4540664155
 20
106.0253717816
 10
221.904913922
 20
106.312494515
 10
221.2979374725
 20
106.4607124073
 10
220.6712691385
 20
106.4607124073
 10
220.064292689
 20
106.312494515
 10
219.5151401956
 20
106.0253717816
 10
219.0583227474
 20
105.6173850894
 10
218.7225325305
 20
105.1141699655
 10
218.5288844902
 20
104.5473451605
 10
218.4895379741
 20
103.9525261959
 10
218.6069591243
 20
103.367087978
 10
218.8737867672
 20
102.82781542
 10
219.2732347447
 20
102.3685937627
 10
219.780216952
 20
102.0182767762
 10
220.3628747065
 20
101.7988762698
 10
220.9846033055
 20
101.7241781457
  0
LINE
  5
15E
330
1F
100
AcDbEntity
  8
0
  6
HIDDEN
 62
     7
370
     0
100
AcDbLine
 10
120.9846036781
 20
118.8828196256
 30
0.0
 11
120.9846036781
 21
109.6054309393
 31
0.0
  0
LINE
  5
15F
330
1F
100
AcDbEntity
  8
0
  6
HIDDEN
 62
     7
370
     0
100
AcDbLine
 10
120.9846036781
 20
104.9270889135
 30
0.0
 11
120.9846036781
 21
95.6497002272
 31
0.0
  0
LINE
  5
160
330
1F
100
AcDbEntity
  8
0
  6
HIDDEN
 62
     7
370
     0
100
AcDbLine
 10
122.4846029926
 20
104.1177828675
 30
0.0
 11
122.4846029926
 21
95.2166873841
 31
0.0
  0
LINE
  5
161
330
1F
100
AcDbEntity
  8
0
  6
HIDDEN
 62
     7
370
     0
100
AcDbLine
 10
122.4846029926
 20
119.3158324687
 30
0.0
 11
122.4846029926
 21
110.4147369853
 31
0.0
  0
SPLINE
  5
162
330
1F
100
AcDbEntity
  8
0
  6
HIDDEN
 62
     7
370
     0
100
AcDbSpline
210
0.0
220
0.0
230
1.0
 70
     8
 71
     3
 72
    20
 73
    16
 74
     0
 42
0.00000001
 43
0.00000001
 12
1.0
 22
0.0
 32
0.0
 13
1.0
 23
0.0
 33
0.0
 40
0.0
 40
0.0
 40
0.0
 40
0.0
 40
0.2499999999999995
 40
0.2499999999999995
 40
0.3749999999999996
 40
0.3749999999999996
 40
0.4999999999999997
 40
0.4999999999999997
 40
0.6249999999999998
 40
0.6249999999999998
 40
0.7499999999999998
 40
0.7499999999999998
 40
0.8749999999999999
 40
0.8749999999999999
 40
1.0
 40
1.0
 40
1.0
 40
1.0
 10
255.4603302142543
 20
121.0737557069416
 30
0.0
 10
255.2311295179335
 20
120.887009089944
 30
0.0
 10
254.9868133923283
 20
120.7074738121026
 30
0.0
 10
254.578622203989
 20
120.4968937905424
 30
0.0
 10
254.4336098410047
 20
120.4362463708998
 30
0.0
 10
254.1300492936624
 20
120.3514844162117
 30
0.0
 10
253.971447282735
 20
120.3278159192253
 30
0.0
 10
253.6515070787446
 20
120.3281726022115
 30
0.0
 10
253.494499955955
 20
120.3518143438784
 30
0.0
 10
253.1893013985768
 20
120.4375483284735
 30
0.0
 10
253.0468321181752
 20
120.4974221020479
 30
0.0
 10
252.774596982519
 20
120.6380355607137
 30
0.0
 10
252.6447344988114
 20
120.7191092302348
 30
0.0
 10
252.398211259277
 20
120.8901357856085
 30
0.0
 10
252.2806164210457
 20
120.9806246463755
 30
0.0
 10
252.1663133923
 20
121.0737557069416
 30
0.0
  0
LINE
  5
163
330
1F
100
AcDbEntity
  8
0
  6
HIDDEN
 62
     7
370
     0
100
AcDbLine
 10
148.7846030194
 20
119.6462061135
 30
0.0
 11
148.7846030194
 21
94.8863137393
 31
0.0
  0
LINE
  5
164
330
1F
100
AcDbEntity
  8
0
  6
HIDDEN
 62
     7
370
     0
100
AcDbLine
 10
150.7846030126
 20
118.828533764
 30
0.0
 11
150.7846030126
 21
95.7039860888
 31
0.0
  0
SPLINE
  5
165
330
1F
100
AcDbEntity
  8
0
  6
HIDDEN
 62
     7
370
     0
100
AcDbSpline
210
0.0
220
0.0
230
1.0
 70
     8
 71
     3
 72
    26
 73
    22
 74
     0
 42
0.00000001
 43
0.00000001
 12
1.0
 22
0.0
 32
0.0
 13
1.0
 23
0.0
 33
0.0
 40
0.0
 40
0.0
 40
0.0
 40
0.0
 40
0.1250000000000003
 40
0.1250000000000003
 40
0.2500000000000006
 40
0.2500000000000006
 40
0.3750000000000008
 40
0.3750000000000008
 40
0.4375000000000008
 40
0.4375000000000008
 40
0.5000000000000009
 40
0.5000000000000009
 40
0.562500000000001
 40
0.562500000000001
 40
0.625000000000001
 40
0.625000000000001
 40
0.7500000000000007
 40
0.7500000000000007
 40
0.8750000000000003
 40
0.8750000000000003
 40
1.0
 40
1.0
 40
1.0
 40
1.0
 10
126.4846030075057
 20
104.0477621659531
 30
0.0
 10
126.6952463695057
 20
104.2823791968981
 30
0.0
 10
126.9024428072627
 20
104.5202623328576
 30
0.0
 10
127.303941941895
 20
105.0075766391264
 30
0.0
 10
127.499218360941
 20
105.2577018639154
 30
0.0
 10
127.8589988536365
 20
105.7762920093664
 30
0.0
 10
128.0242577137858
 20
106.0437229932532
 30
0.0
 10
128.216915623212
 20
106.4751381256517
 30
0.0
 10
128.271880363422
 20
106.6251570075761
 30
0.0
 10
128.3496161483862
 20
106.9378941863061
 30
0.0
 10
128.3708822866945
 20
107.0956484331134
 30
0.0
 10
128.3727762159803
 20
107.4143537129592
 30
0.0
 10
128.3525504789132
 20
107.5767905131397
 30
0.0
 10
128.2780860686274
 20
107.8877425127224
 30
0.0
 10
128.2244469428814
 20
108.03841375105
 30
0.0
 10
128.0297026374808
 20
108.4804975090186
 30
0.0
 10
127.8626525243025
 20
108.7505415221864
 30
0.0
 10
127.5023964055989
 20
109.2706491504678
 30
0.0
 10
127.3076440305785
 20
109.5203103632774
 30
0.0
 10
126.9046348061062
 20
110.0097344751202
 30
0.0
 10
126.6961982877427
 20
110.2490803982841
 30
0.0
 10
126.4846030075067
 20
110.484757686852
 30
0.0
  0
LINE
  5
166
330
1F
100
AcDbEntity
  8
0
  6
HIDDEN
 62
     7
370
     0
100
AcDbLine
 10
126.4846036483
 20
104.0477620783
 30
0.0
 11
126.4846036483
 21
110.4847577745
 31
0.0
  0
SPLINE
  5
167
330
1F
100
AcDbEntity
  8
0
  6
HIDDEN
 62
     7
370
     0
100
AcDbSpline
210
0.0
220
0.0
230
1.0
 70
     8
 71
     3
 72
     8
 73
     4
 74
     0
 42
0.00000001
 43
0.00000001
 12
1.0
 22
0.0
 32
0.0
 13
1.0
 23
0.0
 33
0.0
 40
0.0000202085968836
 40
0.0000202085968836
 40
0.0000202085968836
 40
0.0000202085968836
 40
0.0040218806502652
 40
0.0040218806502652
 40
0.0040218806502652
 40
0.0040218806502652
 10
122.4846030075057
 20
104.1177828080654
 30
0.0
 10
123.8179261332964
 20
104.0937845769018
 30
0.0
 10
125.1512600065189
 20
104.0704568367335
 30
0.0
 10
126.4846030075057
 20
104.0477621659531
 30
0.0
  0
SPLINE
  5
168
330
1F
100
AcDbEntity
  8
0
  6
HIDDEN
 62
     7
370
     0
100
AcDbSpline
210
0.0
220
0.0
230
1.0
 70
     8
 71
     3
 72
     8
 73
     4
 74
     0
 42
0.00000001
 43
0.00000001
 12
1.0
 22
0.0
 32
0.0
 13
1.0
 23
0.0
 33
0.0
 40
0.0000202082942178
 40
0.0000202082942178
 40
0.0000202082942178
 40
0.0000202082942178
 40
0.0040218803475994
 40
0.0040218803475994
 40
0.0040218803475994
 40
0.0040218803475994
 10
126.4846030075057
 20
110.4847576868512
 30
0.0
 10
125.1512600065189
 20
110.4620630160708
 30
0.0
 10
123.8179261332964
 20
110.4387352759025
 30
0.0
 10
122.4846030075057
 20
110.4147370447388
 30
0.0
  0
SPLINE
  5
169
330
1F
100
AcDbEntity
  8
0
  6
HIDDEN
 62
     7
370
     0
100
AcDbSpline
210
0.0
220
0.0
230
1.0
 70
     8
 71
     3
 72
     8
 73
     4
 74
     0
 42
0.00000001
 43
0.00000001
 12
1.0
 22
0.0
 32
0.0
 13
1.0
 23
0.0
 33
0.0
 40
0.0
 40
0.0
 40
0.0
 40
0.0
 40
1.0
 40
1.0
 40
1.0
 40
1.0
 10
120.9846030075048
 20
104.9270889981677
 30
0.0
 10
121.4588144179428
 20
104.5923597708726
 30
0.0
 10
121.9635507650447
 20
104.3333013570397
 30
0.0
 10
122.4846030075057
 20
104.1177828080654
 30
0.0
  0
SPLINE
  5
16A
330
1F
100
AcDbEntity
  8
0
  6
HIDDEN
 62
     7
370
     0
100
AcDbSpline
210
0.0
220
0.0
230
1.0
 70
     8
 71
     3
 72
     8
 73
     4
 74
     0
 42
0.00000001
 43
0.00000001
 12
1.0
 22
0.0
 32
0.0
 13
1.0
 23
0.0
 33
0.0
 40
0.0
 40
0.0
 40
0.0
 40
0.0
 40
1.0
 40
1.0
 40
1.0
 40
1.0
 10
122.4846030075057
 20
110.4147370447388
 30
0.0
 10
121.963550765045
 20
110.1992184957647
 30
0.0
 10
121.4588144179434
 20
109.9401600819319
 30
0.0
 10
120.9846030075057
 20
109.6054308546372
 30
0.0
  0
LINE
  5
16B
330
1F
100
AcDbEntity
  8
0
  6
HIDDEN
 62
     7
370
     0
100
AcDbLine
 10
120.9846036781
 20
104.9270889135
 30
0.0
 11
120.9846036781
 21
109.6054309393
 31
0.0
  0
SPLINE
  5
16C
330
1F
100
AcDbEntity
  8
0
  6
HIDDEN
 62
     7
370
     0
100
AcDbSpline
210
0.0
220
0.0
230
1.0
 70
     8
 71
     3
 72
    68
 73
    64
 74
     0
 42
0.00000001
 43
0.00000001
 12
1.0
 22
0.0
 32
0.0
 13
1.0
 23
0.0
 33
0.0
 40
-0.0312499999999998
 40
-0.0312499999999998
 40
0.0
 40
0.0
 40
0.0312500000000004
 40
0.0312500000000004
 40
0.0625000000000008
 40
0.0625000000000008
 40
0.0937500000000007
 40
0.0937500000000007
 40
0.1250000000000006
 40
0.1250000000000006
 40
0.1875000000000007
 40
0.1875000000000007
 40
0.2187500000000007
 40
0.2187500000000007
 40
0.2500000000000008
 40
0.2500000000000008
 40
0.2812500000000009
 40
0.2812500000000009
 40
0.3125000000000009
 40
0.3125000000000009
 40
0.343750000000001
 40
0.343750000000001
 40
0.375000000000001
 40
0.375000000000001
 40
0.4062500000000011
 40
0.4062500000000011
 40
0.4375000000000011
 40
0.4375000000000011
 40
0.4687500000000012
 40
0.4687500000000012
 40
0.5000000000000012
 40
0.5000000000000012
 40
0.5312500000000012
 40
0.5312500000000012
 40
0.5625000000000013
 40
0.5625000000000013
 40
0.5937500000000013
 40
0.5937500000000013
 40
0.6250000000000014
 40
0.6250000000000014
 40
0.6562500000000014
 40
0.6562500000000014
 40
0.6875000000000016
 40
0.6875000000000016
 40
0.7187500000000016
 40
0.7187500000000016
 40
0.7500000000000013
 40
0.7500000000000013
 40
0.7812500000000012
 40
0.7812500000000012
 40
0.812500000000001
 40
0.812500000000001
 40
0.8437500000000009
 40
0.8437500000000009
 40
0.8750000000000007
 40
0.8750000000000007
 40
0.9062500000000006
 40
0.9062500000000006
 40
0.9375000000000003
 40
0.9375000000000003
 40
0.9687500000000002
 40
0.9687500000000002
 40
1.0
 40
1.0
 40
1.03125
 40
1.03125
 10
134.3684292948422
 20
109.1630775030188
 30
0.0
 10
134.658893777134
 20
109.4815097440193
 30
0.0
 10
134.8178100755155
 20
109.6240272697229
 30
0.0
 10
135.1613907611533
 20
109.8777418068127
 30
0.0
 10
135.347562114059
 20
109.9893056333216
 30
0.0
 10
135.7320921866448
 20
110.1735546699907
 30
0.0
 10
135.9317026888095
 20
110.2474689360795
 30
0.0
 10
136.345542273783
 20
110.3591108256396
 30
0.0
 10
136.5583520834542
 20
110.3960348799285
 30
0.0
 10
137.194283557795
 20
110.4486367005039
 30
0.0
 10
137.6293497784227
 20
110.4064283098437
 30
0.0
 10
138.2415926454103
 20
110.2325937046483
 30
0.0
 10
138.4414377335224
 20
110.1559754768363
 30
0.0
 10
138.8258150422505
 20
109.9658006084933
 30
0.0
 10
139.0063634331131
 20
109.8544411742748
 30
0.0
 10
139.3444233608226
 20
109.5993359055525
 30
0.0
 10
139.5034551772339
 20
109.4538301173597
 30
0.0
 10
139.7882518574563
 20
109.1355914631869
 30
0.0
 10
139.9131973863312
 20
108.9645391446678
 30
0.0
 10
140.1274995267449
 20
108.5979785585547
 30
0.0
 10
140.2173983059196
 20
108.399909824752
 30
0.0
 10
140.3510505950486
 20
107.9953270715426
 30
0.0
 10
140.3960585303626
 20
107.7877118915255
 30
0.0
 10
140.44083801098
 20
107.3614221350966
 30
0.0
 10
140.4397643499642
 20
107.1447838371483
 30
0.0
 10
140.3917445562487
 20
106.7218238101909
 30
0.0
 10
140.3443315790239
 20
106.5108271249316
 30
0.0
 10
140.2060163302072
 20
106.1050384094998
 30
0.0
 10
140.1163354719851
 20
105.9120917508372
 30
0.0
 10
139.8976527616578
 20
105.5451851278538
 30
0.0
 10
139.7682050438292
 20
105.3716799796317
 30
0.0
 10
139.4816994397997
 20
105.0576778816411
 30
0.0
 10
139.3228406215617
 20
104.9145749551867
 30
0.0
 10
138.9778427996088
 20
104.6592440393337
 30
0.0
 10
138.7956256954885
 20
104.5497118617332
 30
0.0
 10
138.4127856188495
 20
104.364785034945
 30
0.0
 10
138.2100413937762
 20
104.2889692081035
 30
0.0
 10
137.798212819313
 20
104.1763887158614
 30
0.0
 10
137.5889940427134
 20
104.1390484962767
 30
0.0
 10
137.164001208479
 20
104.1018174767466
 30
0.0
 10
136.9468439314058
 20
104.1023834406783
 30
0.0
 10
136.5224660922526
 20
104.1417811445677
 30
0.0
 10
136.3133494444029
 20
104.1802103792019
 30
0.0
 10
135.9014084555089
 20
104.2954154137393
 30
0.0
 10
135.6988403506159
 20
104.3726803442437
 30
0.0
 10
135.3172399081485
 20
104.5603626143756
 30
0.0
 10
135.1359289722693
 20
104.6712759661876
 30
0.0
 10
134.7933370753353
 20
104.9292294049185
 30
0.0
 10
134.6345134583811
 20
105.0749451005279
 30
0.0
 10
134.3514686792808
 20
105.3912662582373
 30
0.0
 10
134.2254587472949
 20
105.5632999696365
 30
0.0
 10
134.00835170348
 20
105.9358425476255
 30
0.0
 10
133.9209164072061
 20
106.1299643328995
 30
0.0
 10
133.7877231266586
 20
106.5337390619791
 30
0.0
 10
133.741822544554
 20
106.7462359885866
 30
0.0
 10
133.6975060036201
 20
107.1718318494448
 30
0.0
 10
133.6983481911025
 20
107.384665687714
 30
0.0
 10
133.7461868855236
 20
107.8104054175439
 30
0.0
 10
133.7937227409927
 20
108.022167582957
 30
0.0
 10
133.9304613362206
 20
108.4256571174143
 30
0.0
 10
134.0207448814963
 20
108.6214157383674
 30
0.0
 10
134.2404557737613
 20
108.9910159651155
 30
0.0
 10
134.3684292948422
 20
109.1630775030188
 30
0.0
 10
134.658893777134
 20
109.4815097440193
 30
0.0
  0
CIRCLE
  5
16D
330
1F
100
AcDbEntity
  8
0
  6
HIDDEN
 62
     7
370
     0
100
AcDbCircle
 10
136.9846030075
 20
107.2662599264
 30
0.0
 40
3.049999999999997
  0
LINE
  5
16E
330
1F
100
AcDbEntity
  8
0
  6
HIDDEN
 62
     7
370
     0
100
AcDbLine
 10
252.1904660661
 20
107.2662599264
 30
0.0
 11
252.6757372815
 21
108.7662599394
 31
0.0
  0
CIRCLE
  5
16F
330
1F
100
AcDbEntity
  8
0
  6
HIDDEN
 62
     7
370
     0
100
AcDbCircle
 10
162.9846030075
 20
107.2662599264
 30
0.0
 40
2.0
  0
LINE
  5
170
330
1F
100
AcDbEntity
  8
0
  6
HIDDEN
 62
     7
370
     0
100
AcDbLine
 10
150.9846030075
 20
87.7162605403
 30
0.0
 11
151.0774962279
 21
87.8091525166
 31
0.0
  0
LINE
  5
171
330
1F
100
AcDbEntity
  8
0
  6
HIDDEN
 62
     7
370
     0
100
AcDbLine
 10
151.0774962279
 20
126.7233673362
 30
0.0
 11
150.9846030075
 21
126.8162593125
 31
0.0
  0
ARC
  5
172
330
1F
100
AcDbEntity
  8
0
  6
HIDDEN
 62
     7
370
     0
100
AcDbCircle
 10
150.3703894451
 20
88.5162599264
 30
0.0
 40
1.000000000000008
100
AcDbArc
 50
315.0
 51
0.0
  0
ARC
  5
173
330
1F
100
AcDbEntity
  8
0
  6
HIDDEN
 62
     7
370
     0
100
AcDbCircle
 10
150.3703894451
 20
88.5162599264
 30
0.0
 40
1.0
100
AcDbArc
 50
0.0
 51
52.1052014664
  0
ARC
  5
174
330
1F
100
AcDbEntity
  8
0
  6
HIDDEN
 62
     7
370
     0
100
AcDbCircle
 10
150.3703894451
 20
126.0162599264
 30
0.0
 40
0.999999999999998
100
AcDbArc
 50
351.8087250651
 51
45.0
  0
ARC
  5
175
330
1F
100
AcDbEntity
  8
0
  6
HIDDEN
 62
     7
370
     0
100
AcDbCircle
 10
150.3703894451
 20
126.0162599264
 30
0.0
 40
0.9999999999999815
100
AcDbArc
 50
307.8947985336
 51
351.8087250651
  0
LINE
  5
176
330
1F
100
AcDbEntity
  8
0
  6
HIDDEN
 62
     7
370
     0
100
AcDbLine
 10
151.3703894433
 20
88.5162591813
 30
0.0
 11
151.3703894433
 21
126.0162606715
 31
0.0
  0
LINE
  5
177
330
1F
100
AcDbEntity
  8
0
  6
HIDDEN
 62
     7
370
     0
100
AcDbLine
 10
151.3703894433
 20
88.5162591813
 30
0.0
 11
151.3703894433
 21
126.0162606715
 31
0.0
  0
LINE
  5
178
330
1F
100
AcDbEntity
  8
0
  6
HIDDEN
 62
     7
370
     0
100
AcDbLine
 10
218.8846050102
 20
111.2834807365
 30
0.0
 11
218.8846050102
 21
108.575440093
 31
0.0
  0
LINE
  5
179
330
1F
100
AcDbEntity
  8
0
  6
HIDDEN
 62
     7
370
     0
100
AcDbLine
 10
223.0846016008
 20
110.9223611066
 30
0.0
 11
223.0846016008
 21
111.2834807365
 31
0.0
  0
LINE
  5
17A
330
1F
100
AcDbEntity
  8
0
  6
HIDDEN
 62
     7
370
     0
100
AcDbLine
 10
223.0846016008
 20
108.5769914436
 30
0.0
 11
223.0846016008
 21
109.7456052313
 31
0.0
  0
ARC
  5
17B
330
1F
100
AcDbEntity
  8
0
  6
HIDDEN
 62
     7
370
     0
100
AcDbCircle
 10
127.4846030075
 20
96.7662599264
 30
0.0
 40
1.500000000000003
100
AcDbArc
 50
191.0958032831
 51
270.0
  0
ARC
  5
17C
330
1F
100
AcDbEntity
  8
0
  6
HIDDEN
 62
     7
370
     0
100
AcDbCircle
 10
127.4846030075
 20
117.7662599264
 30
0.0
 40
1.500000000000003
100
AcDbArc
 50
90.0
 51
168.9041967169
  0
LINE
  5
17D
330
1F
100
AcDbEntity
  8
0
  6
HIDDEN
 62
     7
370
     0
100
AcDbLine
 10
127.4846038122
 20
95.2662598221
 30
0.0
 11
128.4913225371
 21
95.2662598221
 31
0.0
  0
LINE
  5
17E
330
1F
100
AcDbEntity
  8
0
  6
HIDDEN
 62
     7
370
     0
100
AcDbLine
 10
128.4913225371
 20
119.2662600307
 30
0.0
 11
127.4846038122
 21
119.2662600307
 31
0.0
  0
ARC
  5
17F
330
1F
100
AcDbEntity
  8
0
  6
HIDDEN
 62
     7
370
     0
100
AcDbCircle
 10
128.4913225196
 20
96.7662599264
 30
0.0
 40
1.5
100
AcDbArc
 50
270.0
 51
315.0
  0
ARC
  5
180
330
1F
100
AcDbEntity
  8
0
  6
HIDDEN
 62
     7
370
     0
100
AcDbCircle
 10
128.4913225196
 20
117.7662599264
 30
0.0
 40
1.500000000000014
100
AcDbArc
 50
45.0
 51
90.0
  0
LINE
  5
181
330
1F
100
AcDbEntity
  8
0
  6
HIDDEN
 62
     7
370
     0
100
AcDbLine
 10
120.9846036781
 20
95.502847421
 30
0.0
 11
122.0126422394
 21
96.0963867484
 31
0.0
  0
LINE
  5
182
330
1F
100
AcDbEntity
  8
0
  6
HIDDEN
 62
     7
370
     0
100
AcDbLine
 10
122.0126422394
 20
118.4361331044
 30
0.0
 11
120.9846036781
 21
119.0296724318
 31
0.0
  0
LINE
  5
183
330
1F
100
AcDbEntity
  8
0
  6
HIDDEN
 62
     7
370
     0
100
AcDbLine
 10
129.5519834656
 20
95.7056000708
 30
0.0
 11
130.6126425315
 21
96.766260068
 31
0.0
  0
LINE
  5
184
330
1F
100
AcDbEntity
  8
0
  6
HIDDEN
 62
     7
370
     0
100
AcDbLine
 10
130.6126425315
 20
117.7662597848
 30
0.0
 11
129.5519834656
 21
118.826919782
 31
0.0
  0
LINE
  5
185
330
1F
100
AcDbEntity
  8
0
  6
HIDDEN
 62
     7
370
     0
100
AcDbLine
 10
229.1085748274
 20
116.5241455539
 30
0.0
 11
220.8753479917
 21
112.5249314001
 31
0.0
  0
LINE
  5
186
330
1F
100
AcDbEntity
  8
0
  6
HIDDEN
 62
     7
370
     0
100
AcDbLine
 10
221.7850266296
 20
108.2975335531
 30
0.0
 11
229.0888084371
 21
111.8452759339
 31
0.0
  0
LINE
  5
187
330
1F
100
AcDbEntity
  8
0
  6
HIDDEN
 62
     7
370
     0
100
AcDbLine
 10
122.0126422394
 20
96.0963867484
 30
0.0
 11
124.5126435805
 21
96.766260068
 31
0.0
  0
LINE
  5
188
330
1F
100
AcDbEntity
  8
0
  6
HIDDEN
 62
     7
370
     0
100
AcDbLine
 10
124.5126435805
 20
117.7662597848
 30
0.0
 11
122.0126422394
 21
118.4361331044
 31
0.0
  0
LINE
  5
189
330
1F
100
AcDbEntity
  8
0
  6
HIDDEN
 62
     7
370
     0
100
AcDbLine
 10
126.0126428951
 20
118.054935324
 30
0.0
 11
125.5126437444
 21
117.7662597848
 31
0.0
  0
LINE
  5
18A
330
1F
100
AcDbEntity
  8
0
  6
HIDDEN
 62
     7
370
     0
100
AcDbLine
 10
125.5126437444
 20
96.766260068
 30
0.0
 11
126.0126428951
 21
96.4775845288
 31
0.0
  0
ARC
  5
18B
330
1F
100
AcDbEntity
  8
0
  6
HIDDEN
 62
     7
370
     0
100
AcDbCircle
 10
140.4846030075
 20
97.2662599264
 30
0.0
 40
0.5
100
AcDbArc
 50
270.0
 51
0.0
  0
ARC
  5
18C
330
1F
100
AcDbEntity
  8
0
  6
HIDDEN
 62
     7
370
     0
100
AcDbCircle
 10
140.4846030075
 20
117.2662599264
 30
0.0
 40
0.5
100
AcDbArc
 50
0.0
 51
90.0
  0
LINE
  5
18D
330
1F
100
AcDbEntity
  8
0
  6
HIDDEN
 62
     7
370
     0
100
AcDbLine
 10
130.6126425315
 20
96.766260068
 30
0.0
 11
140.4846031491
 21
96.766260068
 31
0.0
  0
LINE
  5
18E
330
1F
100
AcDbEntity
  8
0
  6
HIDDEN
 62
     7
370
     0
100
AcDbLine
 10
140.4846031491
 20
117.7662597848
 30
0.0
 11
130.6126425315
 21
117.7662597848
 31
0.0
  0
LINE
  5
18F
330
1F
100
AcDbEntity
  8
0
  6
HIDDEN
 62
     7
370
     0
100
AcDbLine
 10
124.5126435805
 20
96.766260068
 30
0.0
 11
125.5126437444
 21
96.766260068
 31
0.0
  0
LINE
  5
190
330
1F
100
AcDbEntity
  8
0
  6
HIDDEN
 62
     7
370
     0
100
AcDbLine
 10
125.5126437444
 20
117.7662597848
 30
0.0
 11
124.5126435805
 21
117.7662597848
 31
0.0
  0
LINE
  5
191
330
1F
100
AcDbEntity
  8
0
  6
HIDDEN
 62
     7
370
     0
100
AcDbLine
 10
140.984603231
 20
99.0162599711
 30
0.0
 11
141.9846033949
 21
100.016260135
 31
0.0
  0
LINE
  5
192
330
1F
100
AcDbEntity
  8
0
  6
HIDDEN
 62
     7
370
     0
100
AcDbLine
 10
141.9846033949
 20
114.5162597178
 30
0.0
 11
140.984603231
 21
115.5162598817
 31
0.0
  0
LINE
  5
193
330
1F
100
AcDbEntity
  8
0
  6
HIDDEN
 62
     7
370
     0
100
AcDbLine
 10
141.9846033949
 20
100.016260135
 30
0.0
 11
165.9846026722
 21
100.016260135
 31
0.0
  0
LINE
  5
194
330
1F
100
AcDbEntity
  8
0
  6
HIDDEN
 62
     7
370
     0
100
AcDbLine
 10
165.9846026722
 20
114.5162597178
 30
0.0
 11
141.9846033949
 21
114.5162597178
 31
0.0
  0
LINE
  5
195
330
1F
100
AcDbEntity
  8
0
  6
HIDDEN
 62
     7
370
     0
100
AcDbLine
 10
165.9846026722
 20
100.016260135
 30
0.0
 11
167.7871840347
 21
103.0162596954
 31
0.0
  0
LINE
  5
196
330
1F
100
AcDbEntity
  8
0
  6
HIDDEN
 62
     7
370
     0
100
AcDbLine
 10
167.7871840347
 20
111.5162601574
 30
0.0
 11
165.9846026722
 21
114.5162597178
 31
0.0
  0
LINE
  5
197
330
1F
100
AcDbEntity
  8
0
  6
HIDDEN
 62
     7
370
     0
100
AcDbLine
 10
223.9846019346
 20
111.5162601574
 30
0.0
 11
167.7871840347
 21
111.5162601574
 31
0.0
  0
LINE
  5
198
330
1F
100
AcDbEntity
  8
0
  6
HIDDEN
 62
     7
370
     0
100
AcDbLine
 10
167.7871840347
 20
103.0162596954
 30
0.0
 11
223.9846019346
 21
103.0162596954
 31
0.0
  0
LINE
  5
199
330
1F
100
AcDbEntity
  8
0
  6
HIDDEN
 62
     7
370
     0
100
AcDbLine
 10
223.9846019346
 20
103.0162596954
 30
0.0
 11
226.5382586319
 21
107.2662599264
 31
0.0
  0
LINE
  5
19A
330
1F
100
AcDbEntity
  8
0
  6
HIDDEN
 62
     7
370
     0
100
AcDbLine
 10
226.5382586319
 20
107.2662599264
 30
0.0
 11
223.9846019346
 21
111.5162601574
 31
0.0
  0
ARC
  5
19B
330
1F
100
AcDbEntity
  8
0
  6
HIDDEN
 62
     7
370
     0
100
AcDbCircle
 10
234.5703894451
 20
124.2662599264
 30
0.0
 40
1.000000000000003
100
AcDbArc
 50
270.0
 51
290.335377491
  0
LINE
  5
19C
330
1F
100
AcDbEntity
  8
0
  6
HIDDEN
 62
     7
370
     0
100
AcDbLine
 10
244.7363464434
 20
116.1835040776
 30
0.0
 11
244.7363464434
 21
116.0788699864
 31
0.0
  0
LINE
  5
19D
330
1F
100
AcDbEntity
  8
0
  6
HIDDEN
 62
     7
370
     0
100
AcDbLine
 10
218.8846050102
 20
105.9555284093
 30
0.0
 11
218.8846050102
 21
104.1760899471
 31
0.0
  0
LINE
  5
19E
330
1F
100
AcDbEntity
  8
0
  6
HIDDEN
 62
     7
370
     0
100
AcDbLine
 10
223.0846016008
 20
104.1760899471
 30
0.0
 11
223.0846016008
 21
105.9570797598
 31
0.0
  0
LINE
  5
19F
330
1F
100
AcDbEntity
  8
0
  6
HIDDEN
 62
     7
370
     0
100
AcDbLine
 10
252.163323601
 20
121.7831974728
 30
0.0
 11
252.163323601
 21
121.1779914676
 31
0.0
  0
LINE
  5
1A0
330
1F
100
AcDbEntity
  8
0
  6
HIDDEN
 62
     7
370
     0
100
AcDbLine
 10
255.4633198578
 20
121.1780138193
 30
0.0
 11
255.4633198578
 21
121.7831974728
 31
0.0
  0
LINE
  5
1A1
330
1F
100
AcDbEntity
  8
0
  6
HIDDEN
 62
     7
370
     0
100
AcDbLine
 10
218.4846056897
 20
104.101819533
 30
0.0
 11
218.4846056897
 21
102.3221463776
 31
0.0
  0
LINE
  5
1A2
330
1F
100
AcDbEntity
  8
0
  6
HIDDEN
 62
     7
370
     0
100
AcDbLine
 10
223.4846009213
 20
102.3234721152
 30
0.0
 11
223.4846009213
 21
104.101819533
 31
0.0
  0
LINE
  5
1A3
330
1F
100
AcDbEntity
  8
VERMASSUNG
  6
CENTERX2
100
AcDbLine
 10
118.6036540291
 20
107.2662599264
 30
0.0
 11
260.9846030075
 21
107.2662599264
 31
0.0
  0
LINE
  5
1A4
330
1F
100
AcDbEntity
  8
VERMASSUNG
  6
CENTERX2
100
AcDbLine
 10
260.9846030075
 20
129.2662599264
 30
0.0
 11
260.9846030075
 21
107.2662599264
 31
0.0
  0
LINE
  5
1A5
330
1F
100
AcDbEntity
  8
VERMASSUNG
  6
CENTERX2
100
AcDbLine
 10
260.9846030075
 20
129.2662599264
 30
0.0
 11
271.2775607475
 21
129.2662599264
 31
0.0
  0
DIMENSION
  5
1A6
330
1F
100
AcDbEntity
  8
VERMASSUNG
100
AcDbDimension
  2
_D
 10
260.9846030075
 20
140.1444063803
 30
0.0
 11
205.9846030075
 21
140.1444063803
 31
0.0
 70
   160
  1
<>
 71
     2
 42
-1.0
  3
SLDDIMSTYLE0
100
AcDbAlignedDimension
 13
150.9846030075
 23
131.9662599264
 33
0.0
 14
260.9846030075
 24
129.2662599264
 34
0.0
100
AcDbRotatedDimension
  0
DIMENSION
  5
1B1
330
1F
100
AcDbEntity
  8
VERMASSUNG
100
AcDbDimension
  2
_D_1
 10
120.9846030075
 20
148.2662599264
 30
0.0
 11
190.9846030075
 21
148.2662599264
 31
0.0
 70
   160
  1
<>
 71
     2
 42
-1.0
  3
SLDDIMSTYLE0
100
AcDbAlignedDimension
 13
260.9846030075
 23
129.2662599264
 33
0.0
 14
120.9846030075
 24
123.2595857646
 34
0.0
100
AcDbRotatedDimension
  0
DIMENSION
  5
1BB
330
1F
100
AcDbEntity
  8
VERMASSUNG
100
AcDbDimension
  2
_D_2
 10
277.1322448614
 20
107.2662599264
 30
0.0
 11
277.1322448614
 21
118.2662599264
 31
0.0
 70
   160
  1
<>
 71
     2
 42
-1.0
  3
SLDDIMSTYLE0
100
AcDbAlignedDimension
 13
260.9846030075
 23
129.2662599264
 33
0.0
 14
260.9846030075
 24
107.2662599264
 34
0.0
 50
90.0
100
AcDbRotatedDimension
  0
DIMENSION
  5
1C5
330
1F
100
AcDbEntity
  8
VERMASSUNG
100
AcDbDimension
  2
_D_3
 10
271.2775607475
 20
129.2662599264
 30
0.0
 11
266.8992106418
 21
121.3924534804
 31
0.0
 70
   162
  1
<>
 71
     1
 42
-1.0
  3
SLDDIMSTYLE1
100
AcDb2LineAngularDimension
 13
260.9687032743
 23
128.7555137172
 33
0.0
 14
257.7627264388
 24
118.6122231308
 34
0.0
 15
260.9846030075
 25
129.2662599264
 35
0.0
 16
266.8992106418
 26
121.3924534804
 36
0.0
  0
DIMENSION
  5
1CE
330
1F
100
AcDbEntity
  8
VERMASSUNG
100
AcDbDimension
  2
_D_4
 10
193.0991343821
 20
123.2662599264
 30
0.0
 11
193.0991343821
 21
116.4573784465
 31
0.0
 70
   160
  1
%%c<>
 71
     2
 42
-1.0
  3
SLDDIMSTYLE0
100
AcDbAlignedDimension
 13
174.9846030075
 23
91.2662599264
 33
0.0
 14
174.9846030075
 24
123.2662599264
 34
0.0
 50
90.0
100
AcDbRotatedDimension
  0
DIMENSION
  5
1D7
330
1F
100
AcDbEntity
  8
VERMASSUNG
100
AcDbDimension
  2
_D_5
 10
114.6686330237
 20
82.2662599264
 30
0.0
 11
114.6686330237
 21
107.2662599264
 31
0.0
 70
   160
  1
PSC%%c<>
 71
     2
 42
-1.0
  3
SLDDIMSTYLE0
100
AcDbAlignedDimension
 13
151.2846030075
 23
132.2662599264
 33
0.0
 14
151.2846030075
 24
82.2662599264
 34
0.0
 50
90.0
100
AcDbRotatedDimension
  0
LINE
  5
1E3
330
1F
100
AcDbEntity
  8
0
  6
Continuous
 62
     7
370
    15
100
AcDbLine
 10
61.6656928108
 20
120.4399136706
 30
0.0
 11
61.6971467756
 21
120.4377138866
 31
0.0
  0
LINE
  5
1E4
330
1F
100
AcDbEntity
  8
0
  6
Continuous
 62
     7
370
    15
100
AcDbLine
 10
78.8144987676
 20
107.2662599264
 30
0.0
 11
78.8144987676
 21
108.7662599394
 31
0.0
  0
ARC
  5
1E5
330
1F
100
AcDbEntity
  8
0
  6
Continuous
 62
     7
370
    15
100
AcDbCircle
 10
62.314498857
 20
107.2662599264
 30
0.0
 40
16.49999999999999
100
AcDbArc
 50
261.7087285136
 51
0.0
  0
LINE
  5
1E6
330
1F
100
AcDbEntity
  8
0
  6
Continuous
 62
     7
370
    15
100
AcDbLine
 10
61.8554468168
 20
118.4008341162
 30
0.0
 11
59.9351089116
 21
90.9387223302
 31
0.0
  0
LINE
  5
1E7
330
1F
100
AcDbEntity
  8
0
  6
Continuous
 62
     7
370
    15
100
AcDbLine
 10
61.8554468168
 20
118.4008341162
 30
0.0
 11
64.034977266
 21
118.4613477318
 31
0.0
  0
LINE
  5
1E8
330
1F
100
AcDbEntity
  8
0
  6
Continuous
 62
     7
370
    15
100
AcDbLine
 10
64.034977266
 20
118.4613477318
 30
0.0
 11
65.5266071338
 21
118.2892672597
 31
0.0
  0
LINE
  5
1E9
330
1F
100
AcDbEntity
  8
0
  6
Continuous
 62
     7
370
    15
100
AcDbLine
 10
65.5415651057
 20
118.5031771539
 30
0.0
 11
65.5266071338
 21
118.2892672597
 31
0.0
  0
LINE
  5
1EA
330
1F
100
AcDbEntity
  8
0
  6
Continuous
 62
     7
370
    15
100
AcDbLine
 10
69.9700733315
 20
126.8941309182
 30
0.0
 11
66.1955093168
 21
127.8550136714
 31
0.0
  0
ARC
  5
1EB
330
1F
100
AcDbEntity
  8
0
  6
Continuous
 62
     7
370
    15
100
AcDbCircle
 10
55.814498857
 20
108.7662599264
 30
0.0
 40
23.0
100
AcDbArc
 50
0.0
 51
52.0146648588
  0
LINE
  5
1EC
330
1F
100
AcDbEntity
  8
0
  6
Continuous
 62
     7
370
    15
100
AcDbLine
 10
66.218858505
 20
128.1889244793
 30
0.0
 11
69.2859675403
 21
127.4081352977
 31
0.0
  0
ARC
  5
1ED
330
1F
100
AcDbEntity
  8
0
  6
Continuous
 62
     7
370
    15
100
AcDbCircle
 10
55.814498857
 20
108.7662599264
 30
0.0
 40
23.00000000000001
100
AcDbArc
 50
52.0146648588
 51
54.1464098988
  0
SPLINE
  5
1EE
330
1F
100
AcDbEntity
  8
0
  6
Continuous
 62
     7
370
    15
100
AcDbSpline
210
0.0
220
0.0
230
1.0
 70
     8
 71
     3
 72
    10
 73
     6
 74
     0
 42
0.00000001
 43
0.00000001
 12
1.0
 22
0.0
 32
0.0
 13
1.0
 23
0.0
 33
0.0
 40
0.0
 40
0.0
 40
0.0
 40
0.0
 40
0.3780963866427928
 40
0.756357150135271
 40
0.9999999999999999
 40
0.9999999999999999
 40
0.9999999999999999
 40
0.9999999999999999
 10
59.95445993205339
 20
123.0912465481396
 30
0.0
 10
60.26761588486391
 20
123.1321328260704
 30
0.0
 10
60.89406393457626
 20
123.2139231571813
 30
0.0
 10
61.57863531476436
 20
123.2518150446569
 30
0.0
 10
61.80554979268362
 20
123.2571582485141
 30
0.0
 10
61.89444795775034
 20
123.2592515526648
 30
0.0
  0
SPLINE
  5
1EF
330
1F
100
AcDbEntity
  8
0
  6
Continuous
 62
     7
370
    15
100
AcDbSpline
210
0.0
220
0.0
230
1.0
 70
     8
 71
     3
 72
    14
 73
    10
 74
     0
 42
0.00000001
 43
0.00000001
 12
1.0
 22
0.0
 32
0.0
 13
1.0
 23
0.0
 33
0.0
 40
0.0
 40
0.0
 40
0.0
 40
0.0
 40
0.25
 40
0.25
 40
0.5
 40
0.5
 40
0.75
 40
0.75
 40
1.0
 40
1.0
 40
1.0
 40
1.0
 10
59.97008824031535
 20
91.43895002041045
 30
0.0
 10
59.97008824031535
 20
91.43895002041045
 30
0.0
 10
59.91682738604268
 20
91.44656578483992
 30
0.0
 10
59.70452251249984
 20
91.48020358872354
 30
0.0
 10
59.5505890595195
 20
91.50548185534504
 30
0.0
 10
59.1510643886976
 20
91.58078877828335
 30
0.0
 10
58.91405384455739
 20
91.62932980552446
 30
0.0
 10
58.37524201193602
 20
91.75629972669635
 30
0.0
 10
58.08303125864657
 20
91.83259991334106
 30
0.0
 10
57.77501514112288
 20
91.92373446306513
 30
0.0
  0
ELLIPSE
  5
1F0
330
1F
100
AcDbEntity
  8
0
  6
Continuous
 62
     7
370
    15
100
AcDbEllipse
 10
54.5051242389
 20
114.1847106884
 30
0.0
 11
1.654506653606632
 21
1.945141503315682
 31
0.0
210
0.0
220
0.0
230
1.0
 40
0.8051687171
 41
0.0
 42
6.283185307179586
  0
ARC
  5
1F1
330
1F
100
AcDbEntity
  8
0
  6
Continuous
 62
     7
370
    15
100
AcDbCircle
 10
62.314498857
 20
107.2662599264
 30
0.0
 40
16.0
100
AcDbArc
 50
98.4822165171
 51
253.5177834829
  0
SPLINE
  5
1F2
330
1F
100
AcDbEntity
  8
0
  6
Continuous
 62
     7
370
    15
100
AcDbSpline
210
0.0
220
0.0
230
1.0
 70
     8
 71
     3
 72
    14
 73
    10
 74
     0
 42
0.00000001
 43
0.00000001
 12
1.0
 22
0.0
 32
0.0
 13
1.0
 23
0.0
 33
0.0
 40
0.0
 40
0.0
 40
0.0
 40
0.0
 40
0.15226335141224
 40
0.3037835435105553
 40
0.4102363946367331
 40
0.517613109557175
 40
0.6629926356683808
 40
0.9923935679999751
 40
1.0
 40
1.0
 40
1.0
 40
1.0
 10
52.58491045271784
 20
112.6041459730204
 30
0.0
 10
52.67105374696103
 20
112.5904711500828
 30
0.0
 10
52.84291989158581
 20
112.5631882475962
 30
0.0
 10
53.10773257327999
 20
112.450101364728
 30
0.0
 10
53.37798891796484
 20
112.3470716794184
 30
0.0
 10
53.66865159838902
 20
112.2578884597368
 30
0.0
 10
54.08467956994243
 20
112.1457846881134
 30
0.0
 10
54.40871272956871
 20
112.0868053025534
 30
0.0
 10
54.5539109029544
 20
111.963506529186
 30
0.0
 10
54.55718810146481
 20
111.960723611557
 30
0.0
  0
CIRCLE
  5
1F3
330
1F
100
AcDbEntity
  8
0
  6
Continuous
 62
     7
370
    15
100
AcDbCircle
 10
62.314498857
 20
107.2662599264
 30
0.0
 40
25.0
  0
SPLINE
  5
1F4
330
1F
100
AcDbEntity
  8
0
  6
Continuous
 62
     7
370
    15
100
AcDbSpline
210
0.0
220
0.0
230
1.0
 70
     8
 71
     3
 72
    14
 73
    10
 74
     0
 42
0.00000001
 43
0.00000001
 12
1.0
 22
0.0
 32
0.0
 13
1.0
 23
0.0
 33
0.0
 40
0.0
 40
0.0
 40
0.0
 40
0.0
 40
0.1588496346985167
 40
0.3173316248491931
 40
0.4720169663455823
 40
0.6236402910640718
 40
0.7746571544582685
 40
0.9277352132707353
 40
1.0
 40
1.0
 40
1.0
 40
1.0
 10
62.2787840041592
 20
128.7555131940479
 30
0.0
 10
62.28192976910259
 20
128.8004997218297
 30
0.0
 10
62.2882140183725
 20
128.8903686597371
 30
0.0
 10
62.29772477487553
 20
129.0263791565008
 30
0.0
 10
62.30581161964827
 20
129.1420280419115
 30
0.0
 10
62.31168285161088
 20
129.2259882072885
 30
0.0
 10
62.31476632493096
 20
129.2700836323294
 30
0.0
 10
62.31492311697037
 20
129.2723277804426
 30
0.0
 10
62.31376207886331
 20
129.2557240150357
 30
0.0
 10
62.31338974766731
 20
129.2503993837471
 30
0.0
  0
SPLINE
  5
1F5
330
1F
100
AcDbEntity
  8
0
  6
Continuous
 62
     7
370
    15
100
AcDbSpline
210
0.0
220
0.0
230
1.0
 70
     8
 71
     3
 72
    10
 73
     6
 74
     0
 42
0.00000001
 43
0.00000001
 12
1.0
 22
0.0
 32
0.0
 13
1.0
 23
0.0
 33
0.0
 40
0.0
 40
0.0
 40
0.0
 40
0.0
 40
0.2789471457226
 40
0.5613893721587673
 40
1.0
 40
1.0
 40
1.0
 40
1.0
 10
62.31338974766731
 20
129.2503993837471
 30
0.0
 10
62.6760869715303
 20
129.1659816024617
 30
0.0
 10
63.40602585031221
 20
128.9960883235321
 30
0.0
 10
64.72544472926894
 20
128.7507513352733
 30
0.0
 10
65.6631719711671
 20
128.5323558805865
 30
0.0
 10
66.23358387907774
 20
128.3995076893206
 30
0.0
  0
SPLINE
  5
1F6
330
1F
100
AcDbEntity
  8
0
  6
Continuous
 62
     7
370
    15
100
AcDbSpline
210
0.0
220
0.0
230
1.0
 70
     8
 71
     3
 72
    14
 73
    10
 74
     0
 42
0.00000001
 43
0.00000001
 12
1.0
 22
0.0
 32
0.0
 13
1.0
 23
0.0
 33
0.0
 40
0.0
 40
0.0
 40
0.0
 40
0.0
 40
0.1583226926276926
 40
0.3168005982998489
 40
0.4713921226896925
 40
0.6221377572154888
 40
0.7721313065280204
 40
0.9245920655656608
 40
1.0
 40
1.0
 40
1.0
 40
1.0
 10
66.23358387907774
 20
128.3995076893206
 30
0.0
 10
66.23375174710118
 20
128.4019077265227
 30
0.0
 10
66.23408764771898
 20
128.4067101538244
 30
0.0
 10
66.2335651850756
 20
128.3992352017464
 30
0.0
 10
66.23233604123313
 20
128.3816646070556
 30
0.0
 10
66.23051335545019
 20
128.3555912018543
 30
0.0
 10
66.22832596405496
 20
128.3243176608224
 30
0.0
 10
66.22637851267692
 20
128.2964634313863
 30
0.0
 10
66.22526674462654
 20
128.2805642545553
 30
0.0
 10
66.22489883040816
 20
128.2753027854796
 30
0.0
  0
LINE
  5
1F7
330
1F
100
AcDbEntity
  8
0
  6
Continuous
 62
     7
370
    15
100
AcDbLine
 10
65.5466200918
 20
118.5754654808
 30
0.0
 11
66.2248988304
 21
128.2753027855
 31
0.0
  0
LINE
  5
1F8
330
1F
100
AcDbEntity
  8
0
  6
Continuous
 62
     7
370
    15
100
AcDbLine
 10
61.5694960364
 20
118.6122229202
 30
0.0
 11
62.2787840042
 21
128.755513194
 31
0.0
  0
SPLINE
  5
1F9
330
1F
100
AcDbEntity
  8
0
  6
Continuous
 62
     7
370
    15
100
AcDbSpline
210
0.0
220
0.0
230
1.0
 70
     8
 71
     3
 72
    10
 73
     6
 74
     0
 42
0.00000001
 43
0.00000001
 12
1.0
 22
0.0
 32
0.0
 13
1.0
 23
0.0
 33
0.0
 40
0.0
 40
0.0
 40
0.0
 40
0.0
 40
0.2657356536001607
 40
0.6165664955274722
 40
1.0
 40
1.0
 40
1.0
 40
1.0
 10
65.54662009177537
 20
118.5754654808278
 30
0.0
 10
65.54607503127929
 20
118.5676707948072
 30
0.0
 10
65.54481036831305
 20
118.5495853697679
 30
0.0
 10
65.5430988317574
 20
118.5251110903339
 30
0.0
 10
65.54244183684338
 20
118.5157150380626
 30
0.0
 10
65.54209875350625
 20
118.5108084110852
 30
0.0
  0
SPLINE
  5
1FA
330
1F
100
AcDbEntity
  8
0
  6
Continuous
 62
     7
370
    15
100
AcDbSpline
210
0.0
220
0.0
230
1.0
 70
     8
 71
     3
 72
    10
 73
     6
 74
     0
 42
0.00000001
 43
0.00000001
 12
1.0
 22
0.0
 32
0.0
 13
1.0
 23
0.0
 33
0.0
 40
0.0
 40
0.0
 40
0.0
 40
0.0
 40
0.3518049947670181
 40
0.7034264592363386
 40
1.0
 40
1.0
 40
1.0
 40
1.0
 10
61.55141155643195
 20
118.3536030231352
 30
0.0
 10
61.55264413962762
 20
118.3712298028456
 30
0.0
 10
61.55510866300261
 20
118.4064741666945
 30
0.0
 10
61.56175809876332
 20
118.501565439662
 30
0.0
 10
61.56706701018288
 20
118.5774862844892
 30
0.0
 10
61.5694960363935
 20
118.6122229202028
 30
0.0
  0
LINE
  5
1FB
330
1F
100
AcDbEntity
  8
0
  6
Continuous
 62
     7
370
    15
100
AcDbLine
 10
61.3277738815
 20
115.155435714
 30
0.0
 11
61.6302360798
 21
115.1801707102
 31
0.0
  0
LINE
  5
1FC
330
1F
100
AcDbEntity
  8
0
  6
Continuous
 62
     7
370
    15
100
AcDbLine
 10
65.5415651057
 20
118.5031771539
 30
0.0
 11
65.5420987535
 21
118.5108084111
 31
0.0
  0
LINE
  5
1FD
330
1F
100
AcDbEntity
  8
0
  6
Continuous
 62
     7
370
    15
100
AcDbLine
 10
61.3277738815
 20
115.155435714
 30
0.0
 11
61.5514115564
 21
118.3536030231
 31
0.0
  0
CIRCLE
  5
1FE
330
1F
100
AcDbEntity
  8
VERMASSUNG
  6
CENTERX2
100
AcDbCircle
 10
62.314498857
 20
109.0969093546
 30
0.0
 40
20.0
  0
DIMENSION
  5
1FF
330
1F
100
AcDbEntity
  8
VERMASSUNG
100
AcDbDimension
  2
_D_6
 10
50.3967737678
 20
125.1582862787
 30
0.0
 11
43.2781412097
 21
134.7519830491
 31
0.0
 70
   160
  1
%%c<> min. 
 71
     2
 42
-1.0
  3
SLDDIMSTYLE2
100
AcDbAlignedDimension
 13
74.2322239462
 23
93.0355324305
 33
0.0
 14
50.3967737678
 24
125.1582862787
 34
0.0
 50
-53.4241630123
100
AcDbRotatedDimension
  0
DIMENSION
  5
20E
330
1F
100
AcDbEntity
  8
VERMASSUNG
100
AcDbDimension
  2
_D_7
 10
62.314498857
 20
134.7662599264
 30
0.0
 11
51.8628575822
 21
73.8126735494
 31
0.0
 70
   162
  1
<>
 71
     1
 42
-1.0
  3
SLDDIMSTYLE3
100
AcDb2LineAngularDimension
 13
59.9351088713
 23
90.9387217379
 33
0.0
 14
61.85544682
 24
118.4008338433
 34
0.0
 15
62.314498857
 25
79.7662599264
 35
0.0
 16
60.4924051801
 26
72.7876477826
 36
0.0
  0
INSERT
  5
226
330
1F
100
AcDbEntity
  8
VERMASSUNG
100
AcDbBlockReference
  2
SW_CENTERMARKSYMBOL_0
 10
62.314498857
 20
107.2662599264
 30
0.0
  0
OLE2FRAME
  5
227
330
1F
100
AcDbEntity
  8
0
100
AcDbOle2Frame
 70
     2
  3
Paintbrush-Bild
 10
13.8511154363
 20
38.264191557
 30
0.0
 11
51.6290888628
 21
31.9806341108
 31
0.0
 71
     2
 72
     0
 73
     1
 90
    12928
310
80552BED0767C5B32B40DDAF6807D121434000000000000000006FFBDDFB85D0
310
4940DDAF6807D121434000000000000000006FFBDDFB85D04940416F4BD60AFB
310
3F4000000000000000002BED0767C5B32B40416F4BD60AFB3F40000000000000
310
0000000000000100000000010000010000000100000000000100000000320000
310
D0CF11E0A1B11AE1000000000000000000000000000000003E000300FEFF0900
310
0600000000000000000000000100000001000000000000000010000002000000
310
01000000FEFFFFFF0000000000000000FFFFFFFFFFFFFFFFFFFFFFFFFFFFFFFF
310
FFFFFFFFFFFFFFFFFFFFFFFFFFFFFFFFFFFFFFFFFFFFFFFFFFFFFFFFFFFFFFFF
310
FFFFFFFFFFFFFFFFFFFFFFFFFFFFFFFFFFFFFFFFFFFFFFFFFFFFFFFFFFFFFFFF
310
FFFFFFFFFFFFFFFFFFFFFFFFFFFFFFFFFFFFFFFFFFFFFFFFFFFFFFFFFFFFFFFF
310
FFFFFFFFFFFFFFFFFFFFFFFFFFFFFFFFFFFFFFFFFFFFFFFFFFFFFFFFFFFFFFFF
310
FFFFFFFFFFFFFFFFFFFFFFFFFFFFFFFFFFFFFFFFFFFFFFFFFFFFFFFFFFFFFFFF
310
FFFFFFFFFFFFFFFFFFFFFFFFFFFFFFFFFFFFFFFFFFFFFFFFFFFFFFFFFFFFFFFF
310
FFFFFFFFFFFFFFFFFFFFFFFFFFFFFFFFFFFFFFFFFFFFFFFFFFFFFFFFFFFFFFFF
310
FFFFFFFFFFFFFFFFFFFFFFFFFFFFFFFFFFFFFFFFFFFFFFFFFFFFFFFFFFFFFFFF
310
FFFFFFFFFFFFFFFFFFFFFFFFFFFFFFFFFFFFFFFFFFFFFFFFFFFFFFFFFFFFFFFF
310
FFFFFFFFFFFFFFFFFFFFFFFFFFFFFFFFFFFFFFFFFFFFFFFFFFFFFFFFFFFFFFFF
310
FFFFFFFFFFFFFFFFFFFFFFFFFFFFFFFFFFFFFFFFFFFFFFFFFFFFFFFFFFFFFFFF
310
FFFFFFFFFFFFFFFFFFFFFFFFFFFFFFFFFFFFFFFFFFFFFFFFFFFFFFFFFFFFFFFF
310
FFFFFFFFFFFFFFFFFFFFFFFFFFFFFFFFFFFFFFFFFFFFFFFFFFFFFFFFFFFFFFFF
310
FDFFFFFFFEFFFFFFFEFFFFFFFEFFFFFF05000000060000000700000008000000
310
090000000A0000000B0000000C0000000D0000000E0000000F00000010000000
310
11000000120000001300000014000000150000001600000017000000FEFFFFFF
310
FFFFFFFFFFFFFFFFFFFFFFFFFFFFFFFFFFFFFFFFFFFFFFFFFFFFFFFFFFFFFFFF
310
FFFFFFFFFFFFFFFFFFFFFFFFFFFFFFFFFFFFFFFFFFFFFFFFFFFFFFFFFFFFFFFF
310
FFFFFFFFFFFFFFFFFFFFFFFFFFFFFFFFFFFFFFFFFFFFFFFFFFFFFFFFFFFFFFFF
310
FFFFFFFFFFFFFFFFFFFFFFFFFFFFFFFFFFFFFFFFFFFFFFFFFFFFFFFFFFFFFFFF
310
FFFFFFFFFFFFFFFFFFFFFFFFFFFFFFFFFFFFFFFFFFFFFFFFFFFFFFFFFFFFFFFF
310
FFFFFFFFFFFFFFFFFFFFFFFFFFFFFFFFFFFFFFFFFFFFFFFFFFFFFFFFFFFFFFFF
310
FFFFFFFFFFFFFFFFFFFFFFFFFFFFFFFFFFFFFFFFFFFFFFFFFFFFFFFFFFFFFFFF
310
FFFFFFFFFFFFFFFFFFFFFFFFFFFFFFFFFFFFFFFFFFFFFFFFFFFFFFFFFFFFFFFF
310
FFFFFFFFFFFFFFFFFFFFFFFFFFFFFFFFFFFFFFFFFFFFFFFFFFFFFFFFFFFFFFFF
310
FFFFFFFFFFFFFFFFFFFFFFFFFFFFFFFFFFFFFFFFFFFFFFFFFFFFFFFFFFFFFFFF
310
FFFFFFFFFFFFFFFFFFFFFFFFFFFFFFFFFFFFFFFFFFFFFFFFFFFFFFFFFFFFFFFF
310
FFFFFFFFFFFFFFFFFFFFFFFFFFFFFFFFFFFFFFFFFFFFFFFFFFFFFFFFFFFFFFFF
310
FFFFFFFFFFFFFFFFFFFFFFFFFFFFFFFFFFFFFFFFFFFFFFFFFFFFFFFFFFFFFFFF
310
52006F006F007400200045006E00740072007900000000000000000000000000
310
0000000000000000000000000000000000000000000000000000000000000000
310
16000500FFFFFFFFFFFFFFFF020000000A00030000000000C000000000000046
310
000000000000000000000000308D6528E843CD0103000000C000000000000000
310
01004F006C006500000000000000000000000000000000000000000000000000
310
0000000000000000000000000000000000000000000000000000000000000000
310
0A000200FFFFFFFFFFFFFFFFFFFFFFFF00000000000000000000000000000000
310
0000000000000000000000000000000000000000000000001400000000000000
310
010043006F006D0070004F0062006A0000000000000000000000000000000000
310
0000000000000000000000000000000000000000000000000000000000000000
310
120002010100000003000000FFFFFFFF00000000000000000000000000000000
310
0000000000000000000000000000000000000000010000004D00000000000000
310
01004F006C006500310030004E00610074006900760065000000000000000000
310
0000000000000000000000000000000000000000000000000000000000000000
310
1A000200FFFFFFFFFFFFFFFFFFFFFFFF00000000000000000000000000000000
310
0000000000000000000000000000000000000000040000002426000000000000
310
FEFFFFFF02000000FEFFFFFFFFFFFFFFFFFFFFFFFFFFFFFFFFFFFFFFFFFFFFFF
310
FFFFFFFFFFFFFFFFFFFFFFFFFFFFFFFFFFFFFFFFFFFFFFFFFFFFFFFFFFFFFFFF
310
FFFFFFFFFFFFFFFFFFFFFFFFFFFFFFFFFFFFFFFFFFFFFFFFFFFFFFFFFFFFFFFF
310
FFFFFFFFFFFFFFFFFFFFFFFFFFFFFFFFFFFFFFFFFFFFFFFFFFFFFFFFFFFFFFFF
310
FFFFFFFFFFFFFFFFFFFFFFFFFFFFFFFFFFFFFFFFFFFFFFFFFFFFFFFFFFFFFFFF
310
FFFFFFFFFFFFFFFFFFFFFFFFFFFFFFFFFFFFFFFFFFFFFFFFFFFFFFFFFFFFFFFF
310
FFFFFFFFFFFFFFFFFFFFFFFFFFFFFFFFFFFFFFFFFFFFFFFFFFFFFFFFFFFFFFFF
310
FFFFFFFFFFFFFFFFFFFFFFFFFFFFFFFFFFFFFFFFFFFFFFFFFFFFFFFFFFFFFFFF
310
FFFFFFFFFFFFFFFFFFFFFFFFFFFFFFFFFFFFFFFFFFFFFFFFFFFFFFFFFFFFFFFF
310
FFFFFFFFFFFFFFFFFFFFFFFFFFFFFFFFFFFFFFFFFFFFFFFFFFFFFFFFFFFFFFFF
310
FFFFFFFFFFFFFFFFFFFFFFFFFFFFFFFFFFFFFFFFFFFFFFFFFFFFFFFFFFFFFFFF
310
FFFFFFFFFFFFFFFFFFFFFFFFFFFFFFFFFFFFFFFFFFFFFFFFFFFFFFFFFFFFFFFF
310
FFFFFFFFFFFFFFFFFFFFFFFFFFFFFFFFFFFFFFFFFFFFFFFFFFFFFFFFFFFFFFFF
310
FFFFFFFFFFFFFFFFFFFFFFFFFFFFFFFFFFFFFFFFFFFFFFFFFFFFFFFFFFFFFFFF
310
FFFFFFFFFFFFFFFFFFFFFFFFFFFFFFFFFFFFFFFFFFFFFFFFFFFFFFFFFFFFFFFF
310
FFFFFFFFFFFFFFFFFFFFFFFFFFFFFFFFFFFFFFFFFFFFFFFFFFFFFFFFFFFFFFFF
310
0100000200000000000000000000000000000000000000000000000000000000
310
0000000000000000000000000000000000000000000000000000000000000000
310
0100FEFF030A0000FFFFFFFF0A00030000000000C00000000000004607000000
310
5042727573680007000000504272757368000700000050427275736800F439B2
310
7100000000000000000000000000000000000000000000000000000000000000
310
0000000000000000000000000000000000000000000000000000000000000000
310
0000000000000000000000000000000000000000000000000000000000000000
310
0000000000000000000000000000000000000000000000000000000000000000
310
0000000000000000000000000000000000000000000000000000000000000000
310
0000000000000000000000000000000000000000000000000000000000000000
310
0000000000000000000000000000000000000000000000000000000000000000
310
0000000000000000000000000000000000000000000000000000000000000000
310
0000000000000000000000000000000000000000000000000000000000000000
310
0000000000000000000000000000000000000000000000000000000000000000
310
0000000000000000000000000000000000000000000000000000000000000000
310
0000000000000000000000000000000000000000000000000000000000000000
310
20260000424D0E260000000000003E00000028000000B40200006E0000000100
310
01000000000000000000130B0000130B00000200000002000000000000FFFFFF
310
FFFFFFFFFFFFFFFFFFFFFFFFFFFFFFFFFFFFFFFFFFFFFFFFFFFFFFFFFFFFFFFF
310
FFFFFFFFFFFFFFFFFFFFFFFFFFFFFFFFFFFFFFFFFFFFFFFFFFFFFFFFFFFFFFFF
310
FFFFFFFFFFFFFFFFFFFFFFFFFFFFFFFFFFFFFFFFFFFFFFFFF000FFFFFFFFFFFF
310
FFFFFFFFFFFFFFFFFFFFFFFFFFFFFFFFFFFFFFFFFFFFFFFFFFFFFFFFFFFFFFFF
310
FFFFFFFFFFFFFFFFFFFFFFFFFFFFFFFFFFFFFFFFFFFFFFFFFFFFFFFFFFFFFFFF
310
FFFFFFFFFFFFFFFFFFFFFFFFFFFFFFFFF000FFFFFFFFFFFFFFFFFFFFFFFFFFFF
310
FFFFFFFFFFFFFFFFFFFFFFFFFFFFFFFFFFFFFFFFFFFFFFFFFFFFFFFFFFFFFFFF
310
FFFFFFFFFFFFFFFFFFFFFFFFFFFFFFFFFFFFFFFFFFFFFFFFFFFFFFFFFFFFFFFF
310
FFFFFFFFFFFFFFFFF000FFFFFFFFFFFFFFFFFFFFFFFFFFFFFFFFFFFFFFFFFFFF
310
FFFFFFFFFFFFFFFFFFFFFFFFFFFFFFFFFFFFFFFFFFFFFFFFFFFFFFFFFFFFFFFF
310
FFFFFFFFFFFFFFFFFFFFFFFFFFFFFFFFFFFFFFFFFFFFFFFFFFFFFFFFFFFFFFFF
310
F000FFFFFFFFFFFFFFFFFFFFFFFFFFFFFFFFFFFFFFFFFFFFFFFFFFFFFFFFFFFF
310
FFFFFFFFFFFFFFFFFFFFFFFFFFFFFFFFFFFFFFFFFFFFFFFFFFFFFFFFFFFFFFFF
310
FFFFFFFFFFFFFFFFFFFFFFFFFFFFFFFFFFFFFFFFFFFFFFFFF000FFFFFFFFFFFF
310
FFFFFFFFFFFFFFFFFFFFFFFFFFFFFFFFFFFFFFFFFFFFFFFFFFFFFFFFFFFFFFFF
310
FFFFFFFFFFFFFFFFFFFFFFFFFFFFFFFFFFFFFFFFFFFFFFFFFFFFFFFFFFFFFFFF
310
FFFFFFFFFFFFFFFFFFFFFFFFFFFFFFFFF000FFFFFFFFFFFFFFFFFFFFFFFFFFFF
310
FFFFFFFFFFFFFFFFFFFFFFFFFFFFFFFFFFFFFFFFFFFFFFFFFFFFFFFFFFFFFFFF
310
FFFFFFFFFFFFFFFFFFFFFFFFFFFFFFFFFFFFFFFFFFFFFFFFFFFFFFFFFFFFFFFF
310
FFFFFFFFFFFFFFFFF000FFFFFFFFFFFFFFFFFFFFFFFFFFFFFFFFFFFFFFFFFFFF
310
FFFFFFFFFFFFFFFFFFFFFFFFFFFFFFFFFFFFFFFFFFFFFFFFFFFFFFFFFFFFFFFF
310
FFFFFFFFFFFFFFFFFFFFFFFFFFFFFFFFFFFFFFFFFFFFFFFFFFFFFFFFFFFFFFFF
310
F000FFFFFFFFFFFFFFFFFFFFFFFFFFFFFFFFFFFFFFFFFFFFFFFFFFFFFFFFFFFF
310
FFFFFFFFFFFFFFFFFFFFFFFFFFFFFFFFFFFFFFFFFFFFFFFFFFFFFFFFFFFFFFFF
310
FFFFFFFFFFFFFFFFFFFFFFFFFFFFFFFFFFFFFFFFFFFFFFFFF000FFFFFFFFFFFF
310
FFFFFFFFFFFFFFFFFFFFFFFFFFFFFFFFFFFFFFFFFFFFFFFFFFFFFFFFFFFFFFFF
310
FFFFFFFFFFFFFFFFFFFFFFFFFFFFFFFFFFFFFFFFFFFFFFFFFFFFFFFFFFFFFFFF
310
FFFFFFFFFFFFFFFFFFFFFFFFFFFFFFFFF000FFFFFFFFFFFFFFFFFFFFFFFFFFFF
310
FFFFFFFFFFFFFFFFFFFFFFFFFFFFFFFFFFFFFFFFFFFFFFFFFFFFFFFFFFFFFFFF
310
FFFFFFFFFFFFFFFFFFFFFFFFFFFFFFFFFFFFFFFFFFFFFFFFFFFFFFFFFFFFFFFF
310
FFFFFFFFFFFFFFFFF000FFFFFFFFFFFFFFFFFFFFFFFFFFFFFFFFFFFFFFFFFFFF
310
FFFFFFFFFFFFFFFFFFFFFFFFFFFFFFFFFFFFFFFFFFFFFFFFFFFFFFFFFFFFFFFF
310
FFFFFFFFFFFFFFFFFFFFFFFFFFFFFFFFFFFFFFFFFFFFFFFFFFFFFFFFFFFFFFFF
310
F000FFFFFFFFFFFFFFFFFFFFFFFFFFFFFFFFFFFFFFFFFFFFFFFFFFFFFFFFFFFF
310
FFFFFFFFFFFFFFFFFFFFFFFFFFFFFFFFFFFFFFFFFFFFFFFFFFFFFFFFFFFFFFFF
310
FFFFFFFFFFFFFFFFFFFFFFFFFFFFFFFFFFFFFFFFFFFFFFFFF000FFFFFFFFFFFF
310
FFFFFFFFFFFFFFFFFFFFFFFFFFFFFFFFFFFFFFFFFFFFFFFFFFFFFFFFFFFFFFFF
310
FFFFFFFFFFFFFFFFFFFFFFFFFFFFFFFFFFFFFFFFFFFFFFFFFFFFFFFFFFFFFFFF
310
FFFFFFFFFFFFFFFFFFFFFFFFFFFFFFFFF000FFFFFFFFFFFFFFFFFFFFFFFFFFFF
310
FFFFFFFFFFFFFFFFFFFFFFFFFFFFFFFFFFFFFFFFFFFFFFFFFFFFFFFFFFFFFFFF
310
FFFFFFFFFFFFFFFFFFFFFFFFFFFFFFFFFFFFFFFFFFFFFFFFFFFFFFFFFFFFFFFF
310
FFFFFFFFFFFFFFFFF000FFFFFFFFFFFFFFFFFFFFFFFFFFFFFFFFFFFFFFFFFFFF
310
FFFFFFFFFFFFFFFFFFFFFFFFFFFFFFFFFFFFFFFFFFFFFFFFFFFFFFFFFFFFFFFF
310
FFFFFFFFFFFFFFFFFFFFFFFFFFFFFFFFFFFFFFFFFFFFFFFFFFFFFFFFFFFFFFFF
310
F000FFFFFFFFFFFFFFFFFFFFFFFFFFFFFFFFFFFFFFFFFFFFFFFFFFFFFFFFFFFF
310
FFFFFFFFFFFFFFFFFFFFFFFFFFFFFFFFFFFFFFFFFFFFFFFFFFFFFFFFFFFFFFFF
310
FFFFFFFFFFFFFFFFFFFFFFFFFFFFFFFFFFFFFFFFFFFFFFFFF000FFFFFFFFFFFF
310
FFFFFFFFFFFFFFFFFFFFFFFFFFFFFFFFFFFFFFFFFFFFFFFFFFFFFFFFFFFFFFFF
310
FFFFFFFFFFFFFFFFFFFFFFFFFFFFFFFFFFFFFFFFFFFFFFFFFFFFFFFFFFFFFFFF
310
FFFFFFFFFFFFFFFFFFFFFFFFFFFFFFFFF000FFFFFFFFFFFFFFFFFFFFFFFFFFFF
310
FFFFFFFFFFFFFFFFFFFFFFFFFFFFFFFFFFFFFFFFFFFFFFFFFFFFFFFFFFFFFFFF
310
FFFFFFFFFFFFFFFFFFFFFFFFFFFFFFFFFFFFFFFFFFFFFFFFFFFFFFFFFFFFFFFF
310
FFFFFFFFFFFFFFFFF000FFFFF80003FFFFFFFFFFFFFFFFFFFFFFFFFFFFFFFFFF
310
FFFFF00007FFFFFFFFFF00007FFFFFF800000000000000007FFFFFFFFFFFFFFF
310
FFFFFFFC001FFFFFFFFFFFFFFC001FFFFFFFFFFFFFFFFFFFFFFFFFFE0007FFFF
310
F000FFFF8000007FFFFFFFF8000FFFFFC0007FFFFF80007FFFFF0000007FFFFF
310
FFF8000007FFFFF800000000000000007FFFFFF0001FFFFFFFFFFFC00001FFFF
310
FFFFFFFFC00001FFFFFFFF000000000003FFFFE000007FFFF000FFFE0000000F
310
FFFFFFF0000FFFFF80007FFFFF80007FFFFC0000001FFFFFFFC0000001FFFFF8
310
00000000000000007FFFFFF0001FFFFFFFFFFE0000003FFFFFFFFFFE0000003F
310
FFFFFF000000000003FFFF0000000FFFF000FFF800000003FFFFFFF00007FFFF
310
80007FFFFF80007FFFF000000007FFFFFF000000003FFFF80000000000000000
310
7FFFFFF0001FFFFFFFFFF80000000FFFFFFFFFF80000000FFFFFFF0000000000
310
03FFFC00000003FFF000FFE000000000FFFFFFF00007FFFF80003FFFFF80007F
310
FFC000000001FFFFFC000000001FFFF800000000000000007FFFFFF0001FFFFF
310
FFFFE000000003FFFFFFFFE000000003FFFFFF000000000003FFF000000000FF
310
F000FF80000000007FFFFFF00007FFFF80003FFFFF80007FFF8000000000FFFF
310
F80000000007FFF800000000000000007FFFFFF0001FFFFFFFFFC000000001FF
310
FFFFFFC000000001FFFFFF000000000003FFC0000000007FF000FF0000000000
310
3FFFFFE00007FFFF00003FFFFF80007FFE00000000003FFFF00000000003FFF8
310
00000000000000007FFFFFF0001FFFFFFFFF8000000000FFFFFFFF8000000000
310
FFFFFF000000000003FF80000000003FF000FE00000000001FFFFFE00003FFFF
310
00003FFFFF80007FFC00000000001FFFE00000000001FFF8000001FFFE000000
310
7FFFFFF0001FFFFFFFFE00000000003FFFFFFE00000000003FFFFF0000000000
310
03FF00000000001FF000FC00000000000FFFFFE00003FFFF00001FFFFF80007F
310
F800000000001FFFC00000000000FFF8000001FFFE0000007FFFFFF0001FFFFF
310
FFFC00000000001FFFFFFC00000000001FFFFF000000000003FE00000000000F
310
F000F8000000000007FFFFE00003FFFF00001FFFFF80007FF800000000000FFF
310
800000000000FFF8000001FFFE0000007FFFFFF0001FFFFFFFF800000000000F
310
FFFFF800000000000FFFFF000000000003FC000000000007F000F80000000000
310
03FFFFC00003FFFE00001FFFFF80007FF0000000000007FF0000000000007FF8
310
000001FFFE0000007FFFFFF0001FFFFFFFF0000000000007FFFFF00000000000
310
07FFFF000000000003F8000000000003F000F0000000000003FFFFC00001FFFE
310
00001FFFFF80007FE0000000000007FE0000000000003FF8000001FFFE000000
310
7FFFFFF0001FFFFFFFF0000000000007FFFFF0000000000007FFFF0000000000
310
03F800001F800003F000E00001FFF00001FFFFC00001FFFE00000FFFFF80007F
310
E00001FFE00003FE00001FFF00003FF8000001FFFE0000007FFFFFF0001FFFFF
310
FFE000003E000003FFFFE000003E000003FFFF000000000003F00001FFF80001
310
F000E00007FFFC0001FFFFC00001FFFE00000FFFFF80007FC0000FFFFC0003FC
310
0000FFFFC0001FF8000001FFFE0000007FFFFFF0001FFFFFFFC00003FFE00001
310
FFFFC00003FFE00001FFFF0001FFFFFFFFF00007FFFE0001F000E0000FFFFF00
310
00FFFF800001FFFC00000FFFFF80007FC0001FFFFE0001FC0001FFFFE0001FF8
310
000001FFFE0000007FFFFFF0001FFFFFFF80000FFFF80000FFFF80000FFFF800
310
00FFFF0003FFFFFFFFE0000FFFFF8000F000C0003FFFFF8000FFFF800000FFFC
310
000007FFFF80007F80003FFFFF0001FC0003FFFFF0001FF8000001FFFE000000
310
7FFFFFF0001FFFFFFF80003FFFFE0000FFFF80003FFFFE0000FFFF0003FFFFFF
310
FFE0003FFFFF8000F000C0003FFFFF8000FFFF800000FFFC000007FFFF80007F
310
80007FFFFF8001F80007FFFFF8000FF8000001FFFE0000007FFFFFF0001FFFFF
310
FF00007FFFFF00007FFF00007FFFFF00007FFF0003FFFFFFFFE0003FFFFFC000
310
F000C0007FFFFFC000FFFF000000FFFC000007FFFF80007F8000FFFFFF8000F8
310
000FFFFFF8000FF8000001FFFE0000007FFFFFF0001FFFFFFF0000FFFFFF8000
310
7FFF0000FFFFFF80007FFF0003FFFFFFFFC0007FFFFFC00070008000FFFFFFC0
310
00FFFF000000FFF8000007FFFF80007F8000FFFFFF8000F8000FFFFFF8000FF8
310
000001FFFE0000007FFFFFF0001FFFFFFE0001FFFFFFC0003FFE0001FFFFFFC0
310
003FFF0003FFFFFFFFC0007FFFFFE00070008000FFFFFFC0007FFF0000007FF8
310
000003FFFF80007F0001FFFFFF8000F8000FFFFFF8000FF8000001FFFE000000
310
7FFFFFF0001FFFFFFE0001FFFFFFC0003FFE0001FFFFFFC0003FFF0003FFFFFF
310
FFC000FFFFFFE00070008000FFFFFFC0007FFF0000007FF8000003FFFF80007F
310
0001FFFFFF8000F8001FFFFFF8000FF8000001FFFE0000007FFFFFF0001FFFFF
310
FE0003FFFFFFE0003FFE0003FFFFFFE0003FFF0003FFFFFFFFC000FFFFFFE000
310
70008000FFFFFFC0007FFE0000007FF8000003FFFF80007F0001FFFFFF8000F0
310
001FFFFFF8000FF8000001FFFE0000007FFFFFF0001FFFFFFC0003FFFFFFE000
310
1FFC0003FFFFFFE0001FFF0003FFFFFFFFC000FFFFFFC00070008000FFFFFF80
310
007FFE0000007FF0000003FFFF80007F0001FFFFFF0000F0001FFFFFF8000FF8
310
000001FFFE0000007FFFFFF0001FFFFFFC0007FFFFFFF0001FFC0007FFFFFFF0
310
001FFF0003FFFFFFFFC000FFFFFFC00070008001FFFFFF0000FFFE0000003FF0
310
000001FFFF80007F0001FFFFFF0000F8001FFFFFF0000FF8000001FFFE000000
310
7FFFFFF0001FFFFFFC0007FFFFFFF0001FFC0007FFFFFFF0001FFF0003FFFFFF
310
FFC001FFFFFF80007000FFFFFFFFFE0000FFFE0008003FF0008001FFFF80007F
310
FFFFFFFFFC0000FFFFFFFFFFE0000FF8000001FFFE0000007FFFFFF0001FFFFF
310
F8000FFFFFFFF8000FF8000FFFFFFFF8000FFF0003FFFFFFFFFFFFFFFFFF0000
310
7000FFFFFFFFFC0000FFFC0008003FF0008001FFFF80007FFFFFFFFFF80001FF
310
FFFFFFFF80000FF8000001FFFE0000007FFFFFF0001FFFFFF8000FFFFFFFF800
310
0FF8000FFFFFFFF8000FFF0003FFFFFFFFFFFFFFFFFE0000F000FFFFFFFFE000
310
00FFFC000C003FE000C001FFFF80007FFFFFFFFFC00001FFFFFFFFFE00001FF8
310
000001FFFE0000007FFFFFF0001FFFFFF8000FFFFFFFF8000FF8000FFFFFFFF8
310
000FFF0003FFFFFFFFFFFFFFFFF00000F000FFFFFFFE000001FFFC000C001FE0
310
00C000FFFF80007FFFFFFFFE000001FFFFFFFFE000001FF80FFFFFFFFFFFFFC0
310
7FFFFFF0001FFFFFF8000FFFFFFFF8000FF8000FFFFFFFF8000FFF0003FFFFFF
310
FFFFFFFFFF800000F000FFFFFFC0000001FFFC001C001FE001C000FFFF80007F
310
FFFFFF80000003FFFFFFF80000001FF80FFFFFFFFFFFFFC07FFFFFF0001FFFFF
310
F8001FFFFFFFFC000FF8001FFFFFFFFC000FFF0003FFFFFFFFFFFFFFF0000001
310
F000FFFFF800000001FFF8001C001FE001C000FFFF80007FFFFFF800000003FF
310
FFFF800000003FF80FFFFFFFFFFFFFC07FFFFFF0001FFFFFF8001FFFFFFFFC00
310
0FF8001FFFFFFFFC000FFF0003FFFFFFFFFFFFFE00000001F000FFFFC0000000
310
03FFF8001E001FC001E000FFFF80007FFFFF8000000007FFFFFC000000003FF8
310
0FFFFFFFFFFFFFC07FFFFFF0001FFFFFF8001FFFFFFFFC000FF8001FFFFFFFFC
310
000FFF0003FFFFFFFFFFFFE000000003F000FFFE0000000007FFF8001E000FC0
310
01E0007FFF80007FFFFE0000000007FFFFE0000000007FF80FFFFFFFFFFFFFC0
310
7FFFFFF0001FFFFFF0001FFFFFFFFC0007F0001FFFFFFFFC0007FF0003FFFFFF
310
FFFFFF0000000003F000FFF80000000007FFF8001E000FC003E0007FFF80007F
310
FFF0000000000FFFFF8000000000FFF80FFFFFFFFFFFFFC07FFFFFF0001FFFFF
310
F0001FFFFFFFFC0007F0001FFFFFFFFC0007FF0003FFFFFFFFFFFC0000000007
310
F000FFE0000000000FFFF0003E000FC003E0007FFF80007FFFC0000000001FFF
310
FE0000000001FFF80FFFFFFFFFFFFFC07FFFFFF0001FFFFFF0001FFFFFFFFC00
310
07F0001FFFFFFFFC0007FF0003FFFFFFFFFFF0000000000FF000FFC000000000
310
1FFFF0003F000F8003F0003FFF80007FFF80000000003FFFF80000000003FFF8
310
0FFFFFFFFFFFFFC07FFFFFF0001FFFFFF0001FFFFFFFFC0007F0001FFFFFFFFC
310
0007FF0003FFFFFFFFFFE0000000001FF000FF00000000007FFFF0003F000780
310
03F0003FFF80007FFF00000000007FFFF00000000007FFF80FFFFFFFFFFFFFC0
310
7FFFFFF0001FFFFFF0001FFFFFFFFC0007F0001FFFFFFFFC0007FF0003FFFFFF
310
FFFF80000000007FF000FE0000000000FFFFE0003F00078007F0003FFF80007F
310
FE0000000001FFFFE0000000001FFFF80FFFFFFFFFFFFFC07FFFFFF0001FFFFF
310
F0001FFFFFFFFC0007F0001FFFFFFFFC0007FF0003FFFFFFFFFF0000000000FF
310
F000FC0000000003FFFFE0007F00078007F0003FFF80007FFC0000000007FFFF
310
C0000000007FFFF80FFFFFFFFFFFFFC07FFFFFF0001FFFFFF8001FFFFFFFFC00
310
0FF8001FFFFFFFFC000FFF0003FFFFFFFFFE0000000003FFF000FC000000000F
310
FFFFE0007F80070007F8001FFF80007FF8000000001FFFFF8000000001FFFFF8
310
0FFFFFFFFFFFFFC07FFFFFF0001FFFFFF8001FFFFFFFFC000FF8001FFFFFFFFC
310
000FFF0003FFFFFFFFFC000000000FFFF000F8000000007FFFFFE0007F800700
310
07F8001FFF80007FF000000000FFFFFF800000000FFFFFF80FFFFFFFFFFFFFC0
310
7FFFFFF0001FFFFFF8000FFFFFFFF8000FF8000FFFFFFFF8000FFF0003FFFFFF
310
FFFC000000007FFFF000F800000007FFFFFFC0007F8003000FF8001FFF80007F
310
F000000007FFFFFF000000007FFFFFF80FFFFFFFFFFFFFC07FFFFFF0001FFFFF
310
F8000FFFFFFFF8000FF8000FFFFFFFF8000FFF0003FFFFFFFFF80000000FFFFF
310
F000F0000000FFFFFFFFC000FF8003000FF8001FFF80007FE0000000FFFFFFFF
310
0000000FFFFFFFF8000001FFFE0000007FFFFFF0001FFFFFF8000FFFFFFFF800
310
0FF8000FFFFFFFF8000FFF0003FFFFFFFFF8000000FFFFFFF000F000000FFFFF
310
FFFFC000FFC002000FF8000FFF80007FE000001FFFFFFFFE000001FFFFFFFFF8
310
000001FFFE0000007FFFFFF0001FFFFFF8000FFFFFFFF8000FF8000FFFFFFFF8
310
000FFF0003FFFFFFFFF000001FFFFFFFF000E00000FFFFFFFFFFC000FFC00200
310
0FFC000FFF80007FE00001FFFFFFFFFE00001FFFFFFFFFF8000001FFFE000000
310
7FFFFFF0001FFFFFFC000FFFFFFFF8001FFC000FFFFFFFF8001FFF0003FFFFFF
310
FFF00001FFFFFFFFF000E00007FFFFFFFFFF8000FFC000001FFC000FFF80007F
310
C0000FFFFFFFFFFE0000FFFFFFFFFFF8000001FFFE0000007FFFFFF0001FFFFF
310
FC0007FFFFFFF0001FFC0007FFFFFFF0001FFF0003FFFFFFFFF00007FFFFFFFF
310
F000E0001FFFFFFFFFFF8000FFC000001FFC000FFF80007FC0003FFFFFFFFFFE
310
0001FFFFFFFFFFF8000001FFFE0000007FFFFFF0001FFFFFFC0007FFFFFFF000
310
1FFC0007FFFFFFF0001FFF0003FFFFFFFFF0001FFFFFFFFFF000E0003FFFFF00
310
03FF8001FFE000001FFC0007FF80007FC0007FFFFF0007FC0003FFFFF0003FF8
310
000001FFFE0000007FFFFFF0001FFFFFFC0003FFFFFFE0001FFC0003FFFFFFE0
310
001FFF0003FFFFFFFFF0003FFFFFFFFFF000E0003FFFFF0001FF8001FFE00000
310
1FFE0007FF80007FC0007FFFFE0003FC0007FFFFE0003FF8000001FFFE000000
310
7FFFFFF0001FFFFFFE0003FFFFFFE0003FFE0003FFFFFFE0003FFF0003FFFFFF
310
FFF0003FFFFF8001F000E0003FFFFF0001FF0001FFE000001FFE0007FF80007F
310
C0007FFFFE0003FC0007FFFFE0003FF8000001FFFE0000007FFFFFF0001FFFFF
310
FE0001FFFFFFC0003FFE0001FFFFFFC0003FFF0003FFFFFFFFF0003FFFFF0001
310
F000E0003FFFFF0003FF0001FFE000003FFE0007FF80007FC0007FFFFE0003FC
310
0007FFFFE0003FF8000001FFFE0000007FFFFFF0001FFFFFFF0001FFFFFFC000
310
7FFF0001FFFFFFC0007FFF0003FFFFFFFFF0003FFFFF0001F000E0003FFFFE00
310
03FF0003FFF000003FFE0003FF80007FC0007FFFFC0003FE0007FFFFE0003FF8
310
000001FFFE0000007FFFFFF0001FFFFFFF0000FFFFFF80007FFF0000FFFFFF80
310
007FFF0003FFFFFFFFF0003FFFFF0001F000E0003FFFFE0003FF0003FFF00000
310
3FFF0003FF80007FC0007FFFFC0007FE0007FFFFC0003FF8000001FFFE000000
310
7FFFFFF0001FFFFFFF80007FFFFF0000FFFF80007FFFFF0000FFFF0003FFFFFF
310
FFF0003FFFFF0003F000E0003FFFFC0003FE0003FFF000003FFF0003FF80007F
310
E0003FFFF80007FE0003FFFFC0007FF8000001FFFE0000007FFFFFF0001FFFFF
310
FF80003FFFFE0000FFFF80003FFFFE0000FFFF0003FFFFFFFFF0001FFFFE0003
310
F000F0001FFFF80003FE0003FFF000007FFF0001FF80007FE0003FFFF00007FE
310
0001FFFF80007FF8000001FFFE0000007FFFFFF0001FFFFFFFC0000FFFF80001
310
FFFFC0000FFFF80001FFFF0003FFFFFFFFF0001FFFFC0003F000F0000FFFF000
310
07FE0007FFF800007FFF0001FF80007FE0001FFFE00007FF0000FFFE00007FF8
310
000001FFFE0000007FFFFFF0001FFFFFFFC00003FFE00001FFFFC00003FFE000
310
01FFFF0003FFFFFFFFF8000FFFF80003F000F00003FFC00007FC0007FFF80000
310
7FFF8001FF80007FF00007FF80000FFF00007FF80000FFF8000001FFFE000000
310
7F80000000000001FFE000003E000003FFFFE000003E000003FFFF0003FFFFFF
310
FFF80003FFE00007F000F800000000000FFC0007FFF800007FFF8001FF80007F
310
F000000000000FFF000000000000FFF8000001FFFE0000007F80000000000001
310
FFF0000000000007FFFFF0000000000007FFFF0003FFFFFFFFFC00007E000007
310
F000F800000000000FFC0007FFF80000FFFF8000FF80007FF800000000001FFF
310
800000000001FFF8000001FFFE0000007F80000000000001FFF800000000000F
310
FFFFF800000000000FFFFF0003FFFFFFFFFC00000000000FF000FC0000000000
310
1FFC0007FFFC0000FFFF8000FF80007FF800000000003FFFC00000000001FFF8
310
000001FFFE0000007F80000000000001FFF800000000000FFFFFF80000000000
310
0FFFFF0003FFFFFFFFFE00000000001FF000FE00000000003FF8000FFFFC0000
310
FFFF8000FF80007FFC00000000003FFFC00000000003FFF8000001FFFE000000
310
7F80000000000001FFFC00000000001FFFFFFC00000000001FFFFF0003FFFFFF
310
FFFF00000000001FF000FF00000000003FF8000FFFFC0000FFFFC000FF80007F
310
FE00000000007FFFE00000000007FFF8000001FFFE0000007F80000000000001
310
FFFE00000000003FFFFFFE00000000003FFFFF0003FFFFFFFFFF80000000003F
310
F000FF80000000007FF8000FFFFC0001FFFFC0007F80007FFF0000000000FFFF
310
F0000000000FFFF800000000000000007F80000000000001FFFF8000000000FF
310
FFFFFF8000000000FFFFFF0003FFFFFFFFFFC0000000007FF000FFC000000000
310
FFF8000FFFFE0001FFFFC0007F80007FFF8000000001FFFFF8000000001FFFF8
310
00000000000000007F80000000000001FFFFC000000001FFFFFFFFC000000001
310
FFFFFF0003FFFFFFFFFFE000000000FFF000FFE000000003FFF0001FFFFE0001
310
FFFFC0007F80007FFFC000000007FFFFFE000000003FFFF80000000000000000
310
7F80000000000001FFFFE000000003FFFFFFFFE000000003FFFFFF0003FFFFFF
310
FFFFF000000003FFF000FFF80000000FFFF0001FFFFE0001FFFFE0007F80007F
310
FFF00000000FFFFFFF00000000FFFFF800000000000000007F80000000000001
310
FFFFF80000000FFFFFFFFFF80000000FFFFFFF0003FFFFFFFFFFFC0000000FFF
310
F000FFFE0000003FFFF0001FFFFE0003FFFFE0003F80007FFFFC0000003FFFFF
310
FFC0000003FFFFF800000000000000007F80000000000001FFFFFE0000003FFF
310
FFFFFFFE0000003FFFFFFF0003FFFFFFFFFFFF0000003FFFF000FFFF800000FF
310
FFF0001FFFFF0003FFFFE0003F80007FFFFF000001FFFFFFFFF800001FFFFFF8
310
00000000000000007F80000000000001FFFFFFC00001FFFFFFFFFFFFC00001FF
310
FFFFFF0003FFFFFFFFFFFFC00000FFFFF000FFFFF8000FFFFFFFFFFFFFFFFFFF
310
FFFFFFFFFFFFFFFFFFFFF0001FFFFFFFFFFF0000FFFFFFF80000000000000000
310
7FFFFFFFFFFFFFFFFFFFFFFC001FFFFFFFFFFFFFFC001FFFFFFFFFFFFFFFFFFF
310
FFFFFFFC001FFFFFF000FFFFFFFFFFFFFFFFFFFFFFFFFFFFFFFFFFFFFFFFFFFF
310
FFFFFFFFFFFFFFFFFFFFFFFFFFFFFFFFFFFFFFFFFFFFFFFFFFFFFFFFFFFFFFFF
310
FFFFFFFFFFFFFFFFFFFFFFFFFFFFFFFFFFFFFFFFFFFFFFFFFFFFFFFFFFFFFFFF
310
F000FFFFFFFFFFFFFFFFFFFFFFFFFFFFFFFFFFFFFFFFFFFFFFFFFFFFFFFFFFFF
310
FFFFFFFFFFFFFFFFFFFFFFFFFFFFFFFFFFFFFFFFFFFFFFFFFFFFFFFFFFFFFFFF
310
FFFFFFFFFFFFFFFFFFFFFFFFFFFFFFFFFFFFFFFFFFFFFFFFF000FFFFFFFFFFFF
310
FFFFFFFFFFFFFFFFFFFFFFFFFFFFFFFFFFFFFFFFFFFFFFFFFFFFFFFFFFFFFFFF
310
FFFFFFFFFFFFFFFFFFFFFFFFFFFFFFFFFFFFFFFFFFFFFFFFFFFFFFFFFFFFFFFF
310
FFFFFFFFFFFFFFFFFFFFFFFFFFFFFFFFF000FFFFFFFFFFFFFFFFFFFFFFFFFFFF
310
FFFFFFFFFFFFFFFFFFFFFFFFFFFFFFFFFFFFFFFFFFFFFFFFFFFFFFFFFFFFFFFF
310
FFFFFFFFFFFFFFFFFFFFFFFFFFFFFFFFFFFFFFFFFFFFFFFFFFFFFFFFFFFFFFFF
310
FFFFFFFFFFFFFFFFF000FFFFFFFFFFFFFFFFFFFFFFFFFFFFFFFFFFFFFFFFFFFF
310
FFFFFFFFFFFFFFFFFFFFFFFFFFFFFFFFFFFFFFFFFFFFFFFFFFFFFFFFFFFFFFFF
310
FFFFFFFFFFFFFFFFFFFFFFFFFFFFFFFFFFFFFFFFFFFFFFFFFFFFFFFFFFFFFFFF
310
F000FFFFFFFFFFFFFFFFFFFFFFFFFFFFFFFFFFFFFFFFFFFFFFFFFFFFFFFFFFFF
310
FFFFFFFFFFFFFFFFFFFFFFFFFFFFFFFFFFFFFFFFFFFFFFFFFFFFFFFFFFFFFFFF
310
FFFFFFFFFFFFFFFFFFFFFFFFFFFFFFFFFFFFFFFFFFFFFFFFF000FFFFFFFFFFFF
310
FFFFFFFFFFFFFFFFFFFFFFFFFFFFFFFFFFFFFFFFFFFFFFFFFFFFFFFFFFFFFFFF
310
FFFFFFFFFFFFFFFFFFFFFFFFFFFFFFFFFFFFFFFFFFFFFFFFFFFFFFFFFFFFFFFF
310
FFFFFFFFFFFFFFFFFFFFFFFFFFFFFFFFF000FFFFFFFFFFFFFFFFFFFFFFFFFFFF
310
FFFFFFFFFFFFFFFFFFFFFFFFFFFFFFFFFFFFFFFFFFFFFFFFFFFFFFFFFFFFFFFF
310
FFFFFFFFFFFFFFFFFFFFFFFFFFFFFFFFFFFFFFFFFFFFFFFFFFFFFFFFFFFFFFFF
310
FFFFFFFFFFFFFFFFF000FFFFFFFFFFFFFFFFFFFFFFFFFFFFFFFFFFFFFFFFFFFF
310
FFFFFFFFFFFFFFFFFFFFFFFFFFFFFFFFFFFFFFFFFFFFFFFFFFFFFFFFFFFFFFFF
310
FFFFFFFFFFFFFFFFFFFFFFFFFFFFFFFFFFFFFFFFFFFFFFFFFFFFFFFFFFFFFFFF
310
F000FFFFFFFFFFFFFFFFFFFFFFFFFFFFFFFFFFFFFFFFFFFFFFFFFFFFFFFFFFFF
310
FFFFFFFFFFFFFFFFFFFFFFFFFFFFFFFFFFFFFFFFFFFFFFFFFFFFFFFFFFFFFFFF
310
FFFFFFFFFFFFFFFFFFFFFFFFFFFFFFFFFFFFFFFFFFFFFFFFF000FFFFFFFFFFFF
310
FFFFFFFFFFFFFFFFFFFFFFFFFFFFFFFFFFFFFFFFFFFFFFFFFFFFFFFFFFFFFFFF
310
FFFFFFFFFFFFFFFFFFFFFFFFFFFFFFFFFFFFFFFFFFFFFFFFFFFFFFFFFFFFFFFF
310
FFFFFFFFFFFFFFFFFFFFFFFFFFFFFFFFF000FFFFFFFFFFFFFFFFFFFFFFFFFFFF
310
FFFFFFFFFFFFFFFFFFFFFFFFFFFFFFFFFFFFFFFFFFFFFFFFFFFFFFFFFFFFFFFF
310
FFFFFFFFFFFFFFFFFFFFFFFFFFFFFFFFFFFFFFFFFFFFFFFFFFFFFFFFFFFFFFFF
310
FFFFFFFFFFFFFFFFF000FFFFFFFFFFFFFFFFFFFFFFFFFFFFFFFFFFFFFFFFFFFF
310
FFFFFFFFFFFFFFFFFFFFFFFFFFFFFFFFFFFFFFFFFFFFFFFFFFFFFFFFFFFFFFFF
310
FFFFFFFFFFFFFFFFFFFFFFFFFFFFFFFFFFFFFFFFFFFFFFFFFFFFFFFFFFFFFFFF
310
F000FFFFFFFFFFFFFFFFFFFFFFFFFFFFFFFFFFFFFFFFFFFFFFFFFFFFFFFFFFFF
310
FFFFFFFFFFFFFFFFFFFFFFFFFFFFFFFFFFFFFFFFFFFFFFFFFFFFFFFFFFFFFFFF
310
FFFFFFFFFFFFFFFFFFFFFFFFFFFFFFFFFFFFFFFFFFFFFFFFF000FFFFFFFFFFFF
310
FFFFFFFFFFFFFFFFFFFFFFFFFFFFFFFFFFFFFFFFFFFFFFFFFFFFFFFFFFFFFFFF
310
FFFFFFFFFFFFFFFFFFFFFFFFFFFFFFFFFFFFFFFFFFFFFFFFFFFFFFFFFFFFFFFF
310
FFFFFFFFFFFFFFFFFFFFFFFFFFFFFFFFF000FFFFFFFFFFFFFFFFFFFFFFFFFFFF
310
FFFFFFFFFFFFFFFFFFFFFFFFFFFFFFFFFFFFFFFFFFFFFFFFFFFFFFFFFFFFFFFF
310
FFFFFFFFFFFFFFFFFFFFFFFFFFFFFFFFFFFFFFFFFFFFFFFFFFFFFFFFFFFFFFFF
310
FFFFFFFFFFFFFFFFF000FFFFFFFFFFFFFFFFFFFFFFFFFFFFFFFFFFFFFFFFFFFF
310
FFFFFFFFFFFFFFFFFFFFFFFFFFFFFFFFFFFFFFFFFFFFFFFFFFFFFFFFFFFFFFFF
310
FFFFFFFFFFFFFFFFFFFFFFFFFFFFFFFFFFFFFFFFFFFFFFFFFFFFFFFFFFFFFFFF
310
F000FFFFFFFFFFFFFFFFFFFFFFFFFFFFFFFFFFFFFFFFFFFFFFFFFFFFFFFFFFFF
310
FFFFFFFFFFFFFFFFFFFFFFFFFFFFFFFFFFFFFFFFFFFFFFFFFFFFFFFFFFFFFFFF
310
FFFFFFFFFFFFFFFFFFFFFFFFFFFFFFFFFFFFFFFFFFFFFFFFF000FFFFFFFFFFFF
310
FFFFFFFFFFFFFFFFFFFFFFFFFFFFFFFFFFFFFFFFFFFFFFFFFFFFFFFFFFFFFFFF
310
FFFFFFFFFFFFFFFFFFFFFFFFFFFFFFFFFFFFFFFFFFFFFFFFFFFFFFFFFFFFFFFF
310
FFFFFFFFFFFFFFFFFFFFFFFFFFFFFFFFF000FFFFFFFFFFFFFFFFFFFFFFFFFFFF
310
FFFFFFFFFFFFFFFFFFFFFFFFFFFFFFFFFFFFFFFFFFFFFFFFFFFFFFFFFFFFFFFF
310
FFFFFFFFFFFFFFFFFFFFFFFFFFFFFFFFFFFFFFFFFFFFFFFFFFFFFFFFFFFFFFFF
310
FFFFFFFFFFFFFFFFF000FFFFFFFFFFFFFFFFFFFFFFFFFFFFFFFFFFFFFFFFFFFF
310
FFFFFFFFFFFFFFFFFFFFFFFFFFFFFFFFFFFFFFFFFFFFFFFFFFFFFFFFFFFFFFFF
310
FFFFFFFFFFFFFFFFFFFFFFFFFFFFFFFFFFFFFFFFFFFFFFFFFFFFFFFFFFFFFFFF
310
F000FFFFFFFFFFFFFFFFFFFFFFFFFFFFFFFFFFFFFFFFFFFFFFFFFFFFFFFFFFFF
310
FFFFFFFFFFFFFFFFFFFFFFFFFFFFFFFFFFFFFFFFFFFFFFFFFFFFFFFFFFFFFFFF
310
FFFFFFFFFFFFFFFFFFFFFFFFFFFFFFFFFFFFFFFFFFFFFFFFF000FFFFFFFFFFFF
310
FFFFFFFFFFFFFFFFFFFFFFFFFFFFFFFFFFFFFFFFFFFFFFFFFFFFFFFFFFFFFFFF
310
FFFFFFFFFFFFFFFFFFFFFFFFFFFFFFFFFFFFFFFFFFFFFFFFFFFFFFFFFFFFFFFF
310
FFFFFFFFFFFFFFFFFFFFFFFFFFFFFFFFF0000000000000000000000000000000
310
0000000000000000000000000000000000000000000000000000000000000000
310
0000000000000000000000000000000000000000000000000000000000000000
310
0000000000000000000000000000000000000000000000000000000000000000
310
0000000000000000000000000000000000000000000000000000000000000000
310
0000000000000000000000000000000000000000000000000000000000000000
310
0000000000000000000000000000000000000000000000000000000000000000
310
0000000000000000000000000000000000000000000000000000000000000000
310
0000000000000000000000000000000000000000000000000000000000000000
310
0000000000000000000000000000000000000000000000000000000000000000
310
0000000000000000000000000000000000000000000000000000000000000000
310
0000000000000000000000000000000000000000000000000000000000000000
310
0000000000000000000000000000000000000000000000000000000000000000
310
0000000000000000000000000000000000000000000000000000000000000000
310
0000000000000000000000000000000000000000000000000000000000000000
310
0000000000000000000000000000000000000000000000000000000000000000
  1
OLE
  0
ENDSEC
  0
SECTION
  2
OBJECTS
  0
DICTIONARY
  5
C
330
0
100
AcDbDictionary
281
     1
  3
ACAD_GROUP
350
D
  3
ACAD_LAYOUT
350
1A
  3
ACAD_MLINESTYLE
350
17
  3
ACAD_PLOTSETTINGS
350
19
  3
ACAD_PLOTSTYLENAME
350
E
  0
DICTIONARY
  5
D
102
{ACAD_REACTORS
330
C
102
}
330
C
100
AcDbDictionary
281
     1
  0
DICTIONARY
  5
1A
102
{ACAD_REACTORS
330
C
102
}
330
C
100
AcDbDictionary
281
     1
  3
Layout1
350
1E
  3
Layout2
350
26
  3
Model
350
22
  0
DICTIONARY
  5
17
102
{ACAD_REACTORS
330
C
102
}
330
C
100
AcDbDictionary
281
     1
  3
Standard
350
18
  0
DICTIONARY
  5
19
102
{ACAD_REACTORS
330
C
102
}
330
C
100
AcDbDictionary
281
     1
  0
ACDBDICTIONARYWDFLT
  5
E
102
{ACAD_REACTORS
330
C
102
}
330
C
100
AcDbDictionary
281
     1
  3
Normal
350
F
100
AcDbDictionaryWithDefault
340
F
  0
LAYOUT
  5
1E
102
{ACAD_REACTORS
330
1A
102
}
330
1A
100
AcDbPlotSettings
  1

  2
none_device
  4

  6

 40
0.0
 41
0.0
 42
0.0
 43
0.0
 44
0.0
 45
0.0
 46
0.0
 47
0.0
 48
0.0
 49
0.0
140
0.0
141
0.0
142
1.0
143
1.0
 70
   688
 72
     0
 73
     0
 74
     5
  7

 75
    16
147
1.0
148
0.0
149
0.0
100
AcDbLayout
  1
Layout1
 70
     1
 71
     1
 10
0.0
 20
0.0
 11
420.0
 21
297.0
 12
0.0
 22
0.0
 32
0.0
 14
1.0000000000E+20
 24
1.0000000000E+20
 34
1.0000000000E+20
 15
-1.0000000000E+20
 25
-1.0000000000E+20
 35
-1.0000000000E+20
146
0.0
 13
0.0
 23
0.0
 33
0.0
 16
1.0
 26
0.0
 36
0.0
 17
0.0
 27
1.0
 37
0.0
 76
     0
330
1B
  0
LAYOUT
  5
26
102
{ACAD_REACTORS
330
1A
102
}
330
1A
100
AcDbPlotSettings
  1

  2
none_device
  4

  6

 40
0.0
 41
0.0
 42
0.0
 43
0.0
 44
0.0
 45
0.0
 46
0.0
 47
0.0
 48
0.0
 49
0.0
140
0.0
141
0.0
142
1.0
143
1.0
 70
   688
 72
     0
 73
     0
 74
     5
  7

 75
    16
147
1.0
148
0.0
149
0.0
100
AcDbLayout
  1
Layout2
 70
     1
 71
     2
 10
0.0
 20
0.0
 11
0.0
 21
0.0
 12
0.0
 22
0.0
 32
0.0
 14
0.0
 24
0.0
 34
0.0
 15
0.0
 25
0.0
 35
0.0
146
0.0
 13
0.0
 23
0.0
 33
0.0
 16
1.0
 26
0.0
 36
0.0
 17
0.0
 27
1.0
 37
0.0
 76
     0
330
23
  0
LAYOUT
  5
22
102
{ACAD_REACTORS
330
1A
102
}
330
1A
100
AcDbPlotSettings
  1

  2
none_device
  4

  6

 40
0.0
 41
0.0
 42
0.0
 43
0.0
 44
0.0
 45
0.0
 46
0.0
 47
0.0
 48
0.0
 49
0.0
140
0.0
141
0.0
142
1.0
143
1.0
 70
  1712
 72
     0
 73
     0
 74
     0
  7

 75
     0
147
1.0
148
0.0
149
0.0
100
AcDbLayout
  1
Model
 70
     1
 71
     0
 10
0.0
 20
0.0
 11
297.0
 21
210.0
 12
0.0
 22
0.0
 32
0.0
 14
0.0
 24
0.0
 34
0.0
 15
297.0
 25
210.0
 35
0.0
146
0.0
 13
0.0
 23
0.0
 33
0.0
 16
1.0
 26
0.0
 36
0.0
 17
0.0
 27
1.0
 37
0.0
 76
     0
330
1F
331
29
  0
MLINESTYLE
  5
18
102
{ACAD_REACTORS
330
17
102
}
330
17
100
AcDbMlineStyle
  2
Standard
 70
     0
  3

 62
   256
 51
90.0
 52
90.0
 71
     2
 49
0.5
 62
   256
  6
BYLAYER
 49
-0.5
 62
   256
  6
BYLAYER
  0
ACDBPLACEHOLDER
  5
F
102
{ACAD_REACTORS
330
E
102
}
330
E
  0
ENDSEC
  0
EOF
