  0
SECTION
  2
HEADER
  9
$ACADVER
  1
AC1015
  9
$ACADMAINTVER
 70
     6
  9
$DWGCODEPAGE
  3
ANSI_1252
  9
$INSBASE
 10
0.0
 20
0.0
 30
0.0
  9
$EXTMIN
 10
0.0
 20
0.0
 30
0.0
  9
$EXTMAX
 10
297.0
 20
210.0
 30
0.0
  9
$LIMMIN
 10
0.0
 20
0.0
  9
$LIMMAX
 10
297.0
 20
210.0
  9
$ORTHOMODE
 70
     0
  9
$REGENMODE
 70
     1
  9
$FILLMODE
 70
     1
  9
$QTEXTMODE
 70
     0
  9
$MIRRTEXT
 70
     1
  9
$LTSCALE
 40
1.0
  9
$ATTMODE
 70
     1
  9
$TEXTSIZE
 40
2.0
  9
$TRACEWID
 40
1.0
  9
$TEXTSTYLE
  7
Standard
  9
$CLAYER
  8
0
  9
$CELTYPE
  6
ByLayer
  9
$CECOLOR
 62
   256
  9
$CELTSCALE
 40
1.0
  9
$DISPSILH
 70
     0
  9
$DIMSCALE
 40
1.0
  9
$DIMASZ
 40
3.0
  9
$DIMEXO
 40
0.0
  9
$DIMDLI
 40
3.75
  9
$DIMRND
 40
0.0
  9
$DIMDLE
 40
0.0
  9
$DIMEXE
 40
1.0
  9
$DIMTP
 40
0.0
  9
$DIMTM
 40
0.0
  9
$DIMTXT
 40
2.0
  9
$DIMCEN
 40
2.5
  9
$DIMTSZ
 40
0.0
  9
$DIMTOL
 70
     0
  9
$DIMLIM
 70
     0
  9
$DIMTIH
 70
     1
  9
$DIMTOH
 70
     1
  9
$DIMSE1
 70
     0
  9
$DIMSE2
 70
     0
  9
$DIMTAD
 70
     1
  9
$DIMZIN
 70
     0
  9
$DIMBLK
  1

  9
$DIMASO
 70
     1
  9
$DIMSHO
 70
     1
  9
$DIMPOST
  1

  9
$DIMAPOST
  1

  9
$DIMALT
 70
     0
  9
$DIMALTD
 70
     3
  9
$DIMALTF
 40
0.0393700787
  9
$DIMLFAC
 40
1.0
  9
$DIMTOFL
 70
     1
  9
$DIMTVP
 40
0.0
  9
$DIMTIX
 70
     0
  9
$DIMSOXD
 70
     0
  9
$DIMSAH
 70
     0
  9
$DIMBLK1
  1

  9
$DIMBLK2
  1

  9
$DIMSTYLE
  2
ISO-25
  9
$DIMCLRD
 70
     0
  9
$DIMCLRE
 70
     0
  9
$DIMCLRT
 70
     0
  9
$DIMTFAC
 40
1.0
  9
$DIMGAP
 40
1.524
  9
$DIMJUST
 70
     0
  9
$DIMSD1
 70
     0
  9
$DIMSD2
 70
     0
  9
$DIMTOLJ
 70
     0
  9
$DIMTZIN
 70
     0
  9
$DIMALTZ
 70
     0
  9
$DIMALTTZ
 70
     0
  9
$DIMUPT
 70
     0
  9
$DIMDEC
 70
     2
  9
$DIMTDEC
 70
     3
  9
$DIMALTU
 70
     2
  9
$DIMALTTD
 70
     3
  9
$DIMTXSTY
  7
Standard
  9
$DIMAUNIT
 70
     0
  9
$DIMADEC
 70
     2
  9
$DIMALTRND
 40
0.0
  9
$DIMAZIN
 70
     0
  9
$DIMDSEP
 70
    44
  9
$DIMATFIT
 70
     3
  9
$DIMFRAC
 70
     0
  9
$DIMLDRBLK
  1

  9
$DIMLUNIT
 70
     2
  9
$DIMLWD
 70
    -2
  9
$DIMLWE
 70
    -2
  9
$DIMTMOVE
 70
     0
  9
$LUNITS
 70
     2
  9
$LUPREC
 70
     2
  9
$SKETCHINC
 40
1.0
  9
$FILLETRAD
 40
10.0
  9
$AUNITS
 70
     0
  9
$AUPREC
 70
     2
  9
$MENU
  1
.
  9
$ELEVATION
 40
0.0
  9
$PELEVATION
 40
0.0
  9
$THICKNESS
 40
0.0
  9
$LIMCHECK
 70
     0
  9
$CHAMFERA
 40
10.0
  9
$CHAMFERB
 40
10.0
  9
$CHAMFERC
 40
20.0
  9
$CHAMFERD
 40
0.0
  9
$SKPOLY
 70
     0
  9
$TDCREATE
 40
2456086.504014931
  9
$TDUCREATE
 40
2456086.420681597
  9
$TDUPDATE
 40
2456086.504016377
  9
$TDUUPDATE
 40
2456086.420683044
  9
$TDINDWG
 40
0.0000000116
  9
$TDUSRTIMER
 40
0.0000000116
  9
$USRTIMER
 70
     1
  9
$ANGBASE
 50
0.0
  9
$ANGDIR
 70
     0
  9
$PDMODE
 70
     0
  9
$PDSIZE
 40
-1.0
  9
$PLINEWID
 40
0.0
  9
$SPLFRAME
 70
     0
  9
$SPLINETYPE
 70
     6
  9
$SPLINESEGS
 70
     8
  9
$HANDSEED
  5
225
  9
$SURFTAB1
 70
     6
  9
$SURFTAB2
 70
     6
  9
$SURFTYPE
 70
     6
  9
$SURFU
 70
     6
  9
$SURFV
 70
     6
  9
$UCSBASE
  2

  9
$UCSNAME
  2

  9
$UCSORG
 10
0.0
 20
0.0
 30
0.0
  9
$UCSXDIR
 10
1.0
 20
0.0
 30
0.0
  9
$UCSYDIR
 10
0.0
 20
1.0
 30
0.0
  9
$UCSORTHOREF
  2

  9
$UCSORTHOVIEW
 70
     0
  9
$UCSORGTOP
 10
0.0
 20
0.0
 30
0.0
  9
$UCSORGBOTTOM
 10
0.0
 20
0.0
 30
0.0
  9
$UCSORGLEFT
 10
0.0
 20
0.0
 30
0.0
  9
$UCSORGRIGHT
 10
0.0
 20
0.0
 30
0.0
  9
$UCSORGFRONT
 10
0.0
 20
0.0
 30
0.0
  9
$UCSORGBACK
 10
0.0
 20
0.0
 30
0.0
  9
$PUCSBASE
  2

  9
$PUCSNAME
  2

  9
$PUCSORG
 10
0.0
 20
0.0
 30
0.0
  9
$PUCSXDIR
 10
1.0
 20
0.0
 30
0.0
  9
$PUCSYDIR
 10
0.0
 20
1.0
 30
0.0
  9
$PUCSORTHOREF
  2

  9
$PUCSORTHOVIEW
 70
     0
  9
$PUCSORGTOP
 10
0.0
 20
0.0
 30
0.0
  9
$PUCSORGBOTTOM
 10
0.0
 20
0.0
 30
0.0
  9
$PUCSORGLEFT
 10
0.0
 20
0.0
 30
0.0
  9
$PUCSORGRIGHT
 10
0.0
 20
0.0
 30
0.0
  9
$PUCSORGFRONT
 10
0.0
 20
0.0
 30
0.0
  9
$PUCSORGBACK
 10
0.0
 20
0.0
 30
0.0
  9
$USERI1
 70
     0
  9
$USERI2
 70
     0
  9
$USERI3
 70
     0
  9
$USERI4
 70
     0
  9
$USERI5
 70
     0
  9
$USERR1
 40
0.0
  9
$USERR2
 40
0.0
  9
$USERR3
 40
0.0
  9
$USERR4
 40
0.0
  9
$USERR5
 40
0.0
  9
$WORLDVIEW
 70
     1
  9
$SHADEDGE
 70
     3
  9
$SHADEDIF
 70
    70
  9
$TILEMODE
 70
     1
  9
$MAXACTVP
 70
    64
  9
$PINSBASE
 10
0.0
 20
0.0
 30
0.0
  9
$PLIMCHECK
 70
     0
  9
$PEXTMIN
 10
1.0000000000E+20
 20
1.0000000000E+20
 30
1.0000000000E+20
  9
$PEXTMAX
 10
-1.0000000000E+20
 20
-1.0000000000E+20
 30
-1.0000000000E+20
  9
$PLIMMIN
 10
0.0
 20
0.0
  9
$PLIMMAX
 10
420.0
 20
297.0
  9
$UNITMODE
 70
     0
  9
$VISRETAIN
 70
     1
  9
$PLINEGEN
 70
     0
  9
$PSLTSCALE
 70
     1
  9
$TREEDEPTH
 70
  3020
  9
$CMLSTYLE
  2
Standard
  9
$CMLJUST
 70
     0
  9
$CMLSCALE
 40
20.0
  9
$PROXYGRAPHICS
 70
     1
  9
$MEASUREMENT
 70
     1
  9
$CELWEIGHT
370
    -1
  9
$ENDCAPS
280
     0
  9
$JOINSTYLE
280
     0
  9
$LWDISPLAY
290
     1
  9
$INSUNITS
 70
     4
  9
$HYPERLINKBASE
  1

  9
$STYLESHEET
  1

  9
$XEDIT
290
     1
  9
$CEPSNTYPE
380
     0
  9
$PSTYLEMODE
290
     1
  9
$FINGERPRINTGUID
  2
{C0F4A15B-8174-4C0E-BC7E-CF765F9F40CC}
  9
$VERSIONGUID
  2
{FAEB1C32-E019-11D5-929B-00C0DF256EC4}
  9
$EXTNAMES
290
     1
  9
$PSVPSCALE
 40
0.0
  9
$OLESTARTUP
290
     0
  0
ENDSEC
  0
SECTION
  2
CLASSES
  0
CLASS
  1
ACDBDICTIONARYWDFLT
  2
AcDbDictionaryWithDefault
  3
ObjectDBX Classes
 90
        0
280
     0
281
     0
  0
CLASS
  1
VISUALSTYLE
  2
AcDbVisualStyle
  3
ObjectDBX Classes
 90
     4095
280
     0
281
     0
  0
CLASS
  1
MATERIAL
  2
AcDbMaterial
  3
ObjectDBX Classes
 90
     1153
280
     0
281
     0
  0
CLASS
  1
ACDBPLACEHOLDER
  2
AcDbPlaceHolder
  3
ObjectDBX Classes
 90
        0
280
     0
281
     0
  0
CLASS
  1
LAYOUT
  2
AcDbLayout
  3
ObjectDBX Classes
 90
        0
280
     0
281
     0
  0
ENDSEC
  0
SECTION
  2
TABLES
  0
TABLE
  2
VPORT
  5
8
330
0
100
AcDbSymbolTable
 70
     1
  0
VPORT
  5
29
330
8
100
AcDbSymbolTableRecord
100
AcDbViewportTableRecord
  2
*Active
 70
     0
 10
0.0
 20
0.0
 11
1.0
 21
1.0
 12
148.5
 22
105.0
 13
0.0
 23
0.0
 14
10.0
 24
10.0
 15
10.0
 25
10.0
 16
0.0
 26
0.0
 36
1.0
 17
0.0
 27
0.0
 37
0.0
 40
210.0
 41
1.4142857143
 42
50.0
 43
0.0
 44
0.0
 50
0.0
 51
0.0
 71
     0
 72
  2000
 73
     1
 74
     3
 75
     0
 76
     0
 77
     0
 78
     0
281
     0
 65
     1
110
0.0
120
0.0
130
0.0
111
1.0
121
0.0
131
0.0
112
0.0
122
1.0
132
0.0
 79
     0
146
0.0
  0
ENDTAB
  0
TABLE
  2
LTYPE
  5
5
330
0
100
AcDbSymbolTable
 70
     6
  0
LTYPE
  5
14
330
5
100
AcDbSymbolTableRecord
100
AcDbLinetypeTableRecord
  2
ByBlock
 70
     0
  3

 72
    65
 73
     0
 40
0.0
  0
LTYPE
  5
15
330
5
100
AcDbSymbolTableRecord
100
AcDbLinetypeTableRecord
  2
ByLayer
 70
     0
  3

 72
    65
 73
     0
 40
0.0
  0
LTYPE
  5
16
330
5
100
AcDbSymbolTableRecord
100
AcDbLinetypeTableRecord
  2
Continuous
 70
     0
  3
Solid line
 72
    65
 73
     0
 40
0.0
  0
LTYPE
  5
3F
330
5
100
AcDbSymbolTableRecord
100
AcDbLinetypeTableRecord
  2
HIDDEN
 70
     0
  3
Hidden __ __ __ __ __ __ __ __ __ __ __ __ __ __
 72
    65
 73
     2
 40
1.905
 49
1.27
 74
     0
 49
-0.635
 74
     0
  0
LTYPE
  5
40
330
5
100
AcDbSymbolTableRecord
100
AcDbLinetypeTableRecord
  2
PHANTOM
 70
     0
  3
Phantom ______  __  __  ______  __  __  ______
 72
    65
 73
     6
 40
12.7
 49
6.35
 74
     0
 49
-1.27
 74
     0
 49
1.27
 74
     0
 49
-1.27
 74
     0
 49
1.27
 74
     0
 49
-1.27
 74
     0
  0
LTYPE
  5
41
330
5
100
AcDbSymbolTableRecord
100
AcDbLinetypeTableRecord
  2
CENTER
 70
     0
  3
Center ____ _ ____ _ ____ _ ____ _ ____ _ ____
 72
    65
 73
     4
 40
10.16
 49
6.35
 74
     0
 49
-1.27
 74
     0
 49
1.27
 74
     0
 49
-1.27
 74
     0
  0
LTYPE
  5
42
330
5
100
AcDbSymbolTableRecord
100
AcDbLinetypeTableRecord
  2
CENTERX2
 70
     0
  3
Center (2x) ________  __  ________  __  _____
 72
    65
 73
     4
 40
20.32
 49
12.7
 74
     0
 49
-2.54
 74
     0
 49
2.54
 74
     0
 49
-2.54
 74
     0
  0
LTYPE
  5
43
330
5
100
AcDbSymbolTableRecord
100
AcDbLinetypeTableRecord
  2
DOT2
 70
     0
  3
Dot (.5x) ........................................
 72
    65
 73
     2
 40
0.635
 49
0.0
 74
     0
 49
-0.635
 74
     0
  0
ENDTAB
  0
TABLE
  2
LAYER
  5
2
330
0
100
AcDbSymbolTable
 70
     5
  0
LAYER
  5
10
330
2
100
AcDbSymbolTableRecord
100
AcDbLayerTableRecord
  2
0
 70
     0
 62
     7
  6
Continuous
370
    -3
390
F
  0
LAYER
  5
44
330
2
100
AcDbSymbolTableRecord
100
AcDbLayerTableRecord
  2
FORMAT
 70
     0
 62
     7
  6
Continuous
370
    -3
390
F
  0
LAYER
  5
45
330
2
100
AcDbSymbolTableRecord
100
AcDbLayerTableRecord
  2
VERMASSUNG
 70
     0
 62
     7
  6
Continuous
370
    -3
390
F
  0
LAYER
  5
46
330
2
100
AcDbSymbolTableRecord
100
AcDbLayerTableRecord
  2
KOPF_DÜNN
 70
     0
 62
     7
  6
Continuous
370
    -3
390
F
  0
LAYER
  5
47
330
2
100
AcDbSymbolTableRecord
100
AcDbLayerTableRecord
  2
KOPF_DICK
 70
     0
 62
     7
  6
Continuous
370
    15
390
F
  0
ENDTAB
  0
TABLE
  2
STYLE
  5
3
330
0
100
AcDbSymbolTable
 70
     2
  0
STYLE
  5
11
330
3
100
AcDbSymbolTableRecord
100
AcDbTextStyleTableRecord
  2
Standard
 70
     0
 40
0.0
 41
1.0
 50
0.0
 71
     0
 42
2.0
  3
txt
  4

  0
STYLE
  5
48
330
3
100
AcDbSymbolTableRecord
100
AcDbTextStyleTableRecord
  2
SLDTEXTSTYLE0
 70
     0
 40
0.0
 41
0.7
 50
0.0
 71
     0
 42
0.2
  3
TXT
  4

  0
ENDTAB
  0
TABLE
  2
VIEW
  5
6
330
0
100
AcDbSymbolTable
 70
     0
  0
ENDTAB
  0
TABLE
  2
UCS
  5
7
330
0
100
AcDbSymbolTable
 70
     0
  0
ENDTAB
  0
TABLE
  2
APPID
  5
9
330
0
100
AcDbSymbolTable
 70
     1
  0
APPID
  5
12
330
9
100
AcDbSymbolTableRecord
100
AcDbRegAppTableRecord
  2
ACAD
 70
     0
  0
ENDTAB
  0
TABLE
  2
DIMSTYLE
  5
A
330
0
100
AcDbSymbolTable
 70
     5
100
AcDbDimStyleTable
  0
DIMSTYLE
105
27
330
A
100
AcDbSymbolTableRecord
100
AcDbDimStyleTableRecord
  2
ISO-25
 70
     0
 41
2.5
 42
0.625
 43
3.75
 44
1.25
 73
     0
 74
     0
 77
     1
 78
     8
140
2.5
141
2.5
143
0.0393700787
147
0.625
171
     3
172
     1
178
     0
271
     2
272
     2
274
     3
278
    44
283
     0
284
     8
340
11
  0
DIMSTYLE
105
1A2
102
{ACAD_REACTORS
330
1A1
330
1AC
330
1B6
330
1C9
330
1D5
102
}
330
A
100
AcDbSymbolTableRecord
100
AcDbDimStyleTableRecord
  2
SLDDIMSTYLE0
 70
     0
 41
3.0
 44
0.0
 45
0.000000001
 73
     0
 74
     0
 77
     1
 78
    12
 79
     3
140
2.0
147
0.5
173
     1
178
     0
271
     2
272
     3
276
     2
284
    12
340
48
  0
DIMSTYLE
105
1C1
102
{ACAD_REACTORS
330
1C0
102
}
330
A
100
AcDbSymbolTableRecord
100
AcDbDimStyleTableRecord
  2
SLDDIMSTYLE1
 70
     0
 41
3.0
 44
0.0
 73
     0
 74
     0
 77
     1
 78
    12
 79
     3
140
2.0
147
0.5
173
     1
178
     0
179
     1
272
     3
276
     2
284
    12
340
48
  0
DIMSTYLE
105
1FD
102
{ACAD_REACTORS
330
1FC
102
}
330
A
100
AcDbSymbolTableRecord
100
AcDbDimStyleTableRecord
  2
SLDDIMSTYLE2
 70
     0
 41
3.0
 44
0.0
 45
0.000000001
 73
     0
 74
     0
 77
     1
 78
    12
 79
     3
140
2.0
147
0.5
172
     1
173
     1
178
     0
271
     2
272
     3
276
     2
284
    12
289
     0
340
48
  0
DIMSTYLE
105
20C
102
{ACAD_REACTORS
330
20B
102
}
330
A
100
AcDbSymbolTableRecord
100
AcDbDimStyleTableRecord
  2
SLDDIMSTYLE3
 70
     0
 41
3.0
 44
0.0
 73
     0
 74
     0
 77
     1
 78
    12
 79
     3
140
2.0
147
0.5
173
     1
178
     0
179
     2
272
     3
276
     2
284
    12
340
48
  0
ENDTAB
  0
TABLE
  2
BLOCK_RECORD
  5
1
330
0
100
AcDbSymbolTable
 70
    10
  0
BLOCK_RECORD
  5
1F
330
1
100
AcDbSymbolTableRecord
100
AcDbBlockTableRecord
  2
*Model_Space
340
22
  0
BLOCK_RECORD
  5
1B
330
1
100
AcDbSymbolTableRecord
100
AcDbBlockTableRecord
  2
*Paper_Space
340
1E
  0
BLOCK_RECORD
  5
23
330
1
100
AcDbSymbolTableRecord
100
AcDbBlockTableRecord
  2
*Paper_Space0
340
26
  0
BLOCK_RECORD
  5
1A3
330
1
100
AcDbSymbolTableRecord
100
AcDbBlockTableRecord
  2
_D
340
0
  0
BLOCK_RECORD
  5
1AD
330
1
100
AcDbSymbolTableRecord
100
AcDbBlockTableRecord
  2
_D_1
340
0
  0
BLOCK_RECORD
  5
1B7
330
1
100
AcDbSymbolTableRecord
100
AcDbBlockTableRecord
  2
_D_2
340
0
  0
BLOCK_RECORD
  5
1C2
330
1
100
AcDbSymbolTableRecord
100
AcDbBlockTableRecord
  2
_D_3
340
0
  0
BLOCK_RECORD
  5
1CA
330
1
100
AcDbSymbolTableRecord
100
AcDbBlockTableRecord
  2
_D_4
340
0
  0
BLOCK_RECORD
  5
1D6
330
1
100
AcDbSymbolTableRecord
100
AcDbBlockTableRecord
  2
_D_5
340
0
  0
BLOCK_RECORD
  5
1FE
330
1
100
AcDbSymbolTableRecord
100
AcDbBlockTableRecord
  2
_D_6
340
0
  0
BLOCK_RECORD
  5
20D
330
1
100
AcDbSymbolTableRecord
100
AcDbBlockTableRecord
  2
_D_7
340
0
  0
BLOCK_RECORD
  5
218
330
1
100
AcDbSymbolTableRecord
100
AcDbBlockTableRecord
  2
SW_CENTERMARKSYMBOL_0
340
0
102
{BLKREFS
331
223
102
}
  0
ENDTAB
  0
ENDSEC
  0
SECTION
  2
BLOCKS
  0
BLOCK
  5
20
330
1F
100
AcDbEntity
  8
0
100
AcDbBlockBegin
  2
*Model_Space
 70
     0
 10
0.0
 20
0.0
 30
0.0
  3
*Model_Space
  1

  0
ENDBLK
  5
21
330
1F
100
AcDbEntity
  8
0
100
AcDbBlockEnd
  0
BLOCK
  5
1C
330
1B
100
AcDbEntity
 67
     1
  8
0
100
AcDbBlockBegin
  2
*Paper_Space
 70
     0
 10
0.0
 20
0.0
 30
0.0
  3
*Paper_Space
  1

  0
ENDBLK
  5
1D
330
1B
100
AcDbEntity
 67
     1
  8
0
100
AcDbBlockEnd
  0
BLOCK
  5
24
330
23
100
AcDbEntity
  8
0
100
AcDbBlockBegin
  2
*Paper_Space0
 70
     0
 10
0.0
 20
0.0
 30
0.0
  3
*Paper_Space0
  1

  0
ENDBLK
  5
25
330
23
100
AcDbEntity
  8
0
100
AcDbBlockEnd
  0
BLOCK
  5
1A4
330
1A3
100
AcDbEntity
  8
0
100
AcDbBlockBegin
  2
_D
 70
     0
 10
0.0
 20
0.0
 30
0.0
  3
_D
  1

  0
SOLID
  5
1A6
330
1A3
100
AcDbEntity
  8
VERMASSUNG
100
AcDbTrace
 10
164.375889857
 20
79.9601493468
 30
0.0
 11
167.375889857
 21
79.5101493468
 31
0.0
 12
167.375889857
 22
80.4101493468
 32
0.0
 13
167.375889857
 23
80.4101493468
 33
0.0
  0
SOLID
  5
1A7
330
1A3
100
AcDbEntity
  8
VERMASSUNG
100
AcDbTrace
 10
254.375889857
 20
79.9601493468
 30
0.0
 11
251.375889857
 21
80.4101493468
 31
0.0
 12
251.375889857
 22
79.5101493468
 32
0.0
 13
251.375889857
 23
79.5101493468
 33
0.0
  0
LINE
  5
1A8
330
1A3
100
AcDbEntity
  8
VERMASSUNG
100
AcDbLine
 10
164.375889857
 20
90.2601493468
 30
0.0
 11
164.375889857
 21
78.9601493468
 31
0.0
  0
LINE
  5
1A9
330
1A3
100
AcDbEntity
  8
VERMASSUNG
100
AcDbLine
 10
254.375889857
 20
97.9601493468
 30
0.0
 11
254.375889857
 21
78.9601493468
 31
0.0
  0
LINE
  5
1AA
330
1A3
100
AcDbEntity
  8
VERMASSUNG
100
AcDbLine
 10
164.375889857
 20
79.9601493468
 30
0.0
 11
254.375889857
 21
79.9601493468
 31
0.0
  0
MTEXT
  5
1AB
330
1A3
100
AcDbEntity
  8
VERMASSUNG
100
AcDbMText
 10
207.0758898059
 20
82.5382847099
 30
0.1
 40
2.0
 41
0.0
 71
     1
 72
     1
  1
90
  7
SLDTEXTSTYLE0
 73
     1
 44
1.0
  0
ENDBLK
  5
1A5
330
1A3
100
AcDbEntity
  8
0
100
AcDbBlockEnd
  0
BLOCK
  5
1AE
330
1AD
100
AcDbEntity
  8
0
100
AcDbBlockBegin
  2
_D_1
 70
     0
 10
0.0
 20
0.0
 30
0.0
  3
_D_1
  1

  0
SOLID
  5
1B0
330
1AD
100
AcDbEntity
  8
VERMASSUNG
100
AcDbTrace
 10
134.375889857
 20
73.9601493468
 30
0.0
 11
137.375889857
 21
73.5101493468
 31
0.0
 12
137.375889857
 22
74.4101493468
 32
0.0
 13
137.375889857
 23
74.4101493468
 33
0.0
  0
SOLID
  5
1B1
330
1AD
100
AcDbEntity
  8
VERMASSUNG
100
AcDbTrace
 10
254.375889857
 20
73.9601493468
 30
0.0
 11
251.375889857
 21
74.4101493468
 31
0.0
 12
251.375889857
 22
73.5101493468
 32
0.0
 13
251.375889857
 23
73.5101493468
 33
0.0
  0
LINE
  5
1B2
330
1AD
100
AcDbEntity
  8
VERMASSUNG
100
AcDbLine
 10
134.375889857
 20
98.9668235086
 30
0.0
 11
134.375889857
 21
72.9601493468
 31
0.0
  0
LINE
  5
1B3
330
1AD
100
AcDbEntity
  8
VERMASSUNG
100
AcDbLine
 10
254.375889857
 20
97.9601493468
 30
0.0
 11
254.375889857
 21
72.9601493468
 31
0.0
  0
LINE
  5
1B4
330
1AD
100
AcDbEntity
  8
VERMASSUNG
100
AcDbLine
 10
134.375889857
 20
73.9601493468
 30
0.0
 11
254.375889857
 21
73.9601493468
 31
0.0
  0
MTEXT
  5
1B5
330
1AD
100
AcDbEntity
  8
VERMASSUNG
100
AcDbMText
 10
191.575889724
 20
76.5382847099
 30
0.1
 40
2.0
 41
0.0
 71
     1
 72
     1
  1
120
  7
SLDTEXTSTYLE0
 73
     1
 44
1.0
  0
ENDBLK
  5
1AF
330
1AD
100
AcDbEntity
  8
0
100
AcDbBlockEnd
  0
BLOCK
  5
1B8
330
1B7
100
AcDbEntity
  8
0
100
AcDbBlockBegin
  2
_D_2
 70
     0
 10
0.0
 20
0.0
 30
0.0
  3
_D_2
  1

  0
SOLID
  5
1BA
330
1B7
100
AcDbEntity
  8
VERMASSUNG
100
AcDbTrace
 10
270.4997458883
 20
97.9601493468
 30
0.0
 11
270.9497458883
 21
100.9601493468
 31
0.0
 12
270.0497458883
 22
100.9601493468
 32
0.0
 13
270.0497458883
 23
100.9601493468
 33
0.0
  0
SOLID
  5
1BB
330
1B7
100
AcDbEntity
  8
VERMASSUNG
100
AcDbTrace
 10
270.4997458883
 20
114.9601493468
 30
0.0
 11
270.0497458883
 21
111.9601493468
 31
0.0
 12
270.9497458883
 22
111.9601493468
 32
0.0
 13
270.9497458883
 23
111.9601493468
 33
0.0
  0
LINE
  5
1BC
330
1B7
100
AcDbEntity
  8
VERMASSUNG
100
AcDbLine
 10
254.375889857
 20
97.9601493468
 30
0.0
 11
271.4997458883
 21
97.9601493468
 31
0.0
  0
LINE
  5
1BD
330
1B7
100
AcDbEntity
  8
VERMASSUNG
100
AcDbLine
 10
254.375889857
 20
114.9601493468
 30
0.0
 11
271.4997458883
 21
114.9601493468
 31
0.0
  0
LINE
  5
1BE
330
1B7
100
AcDbEntity
  8
VERMASSUNG
100
AcDbLine
 10
270.4997458883
 20
97.9601493468
 30
0.0
 11
270.4997458883
 21
114.9601493468
 31
0.0
  0
MTEXT
  5
1BF
330
1B7
100
AcDbEntity
  8
VERMASSUNG
100
AcDbMText
 10
267.9216105252
 20
104.3601491888
 30
0.1
 40
2.0
 41
0.0
 71
     1
 72
     1
  1
17
  7
SLDTEXTSTYLE0
 11
6.123233995736766E-17
 21
1.0
 31
0.0
 73
     1
 44
1.0
  0
ENDBLK
  5
1B9
330
1B7
100
AcDbEntity
  8
0
100
AcDbBlockEnd
  0
BLOCK
  5
1C3
330
1C2
100
AcDbEntity
  8
0
100
AcDbBlockBegin
  2
_D_3
 70
     0
 10
0.0
 20
0.0
 30
0.0
  3
_D_3
  1

  0
ARC
  5
1C5
330
1C2
100
AcDbEntity
  8
VERMASSUNG
100
AcDbCircle
 10
254.5214210226
 20
97.9601493468
 30
0.0
 40
10.12833385144856
100
AcDbArc
 50
0.0
 51
107.5401158054
  0
SOLID
  5
1C6
330
1C2
100
AcDbEntity
  8
VERMASSUNG
100
AcDbTrace
 10
264.649754874
 20
97.9601493468
 30
0.0
 11
264.6646406689
 21
100.9936750864
 31
0.0
 12
263.7739535465
 22
100.8645377565
 32
0.0
 13
263.7739535465
 23
100.8645377565
 33
0.0
  0
SOLID
  5
1C7
330
1C2
100
AcDbEntity
  8
VERMASSUNG
100
AcDbTrace
 10
251.4690098698
 20
107.6175782365
 30
0.0
 11
254.5023054469
 21
107.6578018841
 31
0.0
 12
254.3570092168
 22
108.5459961227
 32
0.0
 13
254.3570092168
 23
108.5459961227
 33
0.0
  0
MTEXT
  5
1C8
330
1C2
100
AcDbEntity
  8
VERMASSUNG
100
AcDbMText
 10
258.4820243121
 20
110.8103626241
 30
0.1
 40
2.0
 41
0.0
 71
     1
 72
     1
  1
107.5°
  7
SLDTEXTSTYLE0
 11
0.8066515584256988
 21
-0.5910272948768031
 31
0.0
 73
     1
 44
1.0
  0
ENDBLK
  5
1C4
330
1C2
100
AcDbEntity
  8
0
100
AcDbBlockEnd
  0
BLOCK
  5
1CB
330
1CA
100
AcDbEntity
  8
0
100
AcDbBlockBegin
  2
_D_4
 70
     0
 10
0.0
 20
0.0
 30
0.0
  3
_D_4
  1

  0
SOLID
  5
1CD
330
1CA
100
AcDbEntity
  8
VERMASSUNG
100
AcDbTrace
 10
124.375889857
 20
139.9601493468
 30
0.0
 11
123.925889857
 21
136.9601493468
 31
0.0
 12
124.825889857
 22
136.9601493468
 32
0.0
 13
124.825889857
 23
136.9601493468
 33
0.0
  0
SOLID
  5
1CE
330
1CA
100
AcDbEntity
  8
VERMASSUNG
100
AcDbTrace
 10
124.375889857
 20
89.9601493468
 30
0.0
 11
124.825889857
 21
92.9601493468
 31
0.0
 12
123.925889857
 22
92.9601493468
 32
0.0
 13
123.925889857
 23
92.9601493468
 33
0.0
  0
LINE
  5
1CF
330
1CA
100
AcDbEntity
  8
VERMASSUNG
100
AcDbLine
 10
164.675889857
 20
139.9601493468
 30
0.0
 11
123.375889857
 21
139.9601493468
 31
0.0
  0
LINE
  5
1D0
330
1CA
100
AcDbEntity
  8
VERMASSUNG
100
AcDbLine
 10
164.675889857
 20
89.9601493468
 30
0.0
 11
123.375889857
 21
89.9601493468
 31
0.0
  0
LINE
  5
1D1
330
1CA
100
AcDbEntity
  8
VERMASSUNG
100
AcDbLine
 10
124.375889857
 20
139.9601493468
 30
0.0
 11
124.375889857
 21
89.9601493468
 31
0.0
  0
MTEXT
  5
1D2
330
1CA
100
AcDbEntity
  8
VERMASSUNG
100
AcDbMText
 10
121.5977543679
 20
108.5551492375
 30
0.1
 40
2.0
 41
0.0
 71
     1
 72
     1
  1
PSC
  7
SLDTEXTSTYLE0
 11
-7.044195017643634E-15
 21
1.0
 31
0.0
 73
     1
 44
1.0
  0
MTEXT
  5
1D3
330
1CA
100
AcDbEntity
  8
VERMASSUNG
100
AcDbMText
 10
121.7977543774
 20
113.1551493396
 30
0.1
 40
2.0
 41
0.0
 71
     1
 72
     1
  1
%%c
  7
SLDTEXTSTYLE0
 11
-7.044195017643634E-15
 21
1.0
 31
0.0
 73
     1
 44
1.0
  0
MTEXT
  5
1D4
330
1CA
100
AcDbEntity
  8
VERMASSUNG
100
AcDbMText
 10
121.5977543679
 20
116.7651498196
 30
0.1
 40
2.0
 41
0.0
 71
     1
 72
     1
  1
50
  7
SLDTEXTSTYLE0
 11
-7.044195017643634E-15
 21
1.0
 31
0.0
 73
     1
 44
1.0
  0
ENDBLK
  5
1CC
330
1CA
100
AcDbEntity
  8
0
100
AcDbBlockEnd
  0
BLOCK
  5
1D7
330
1D6
100
AcDbEntity
  8
0
100
AcDbBlockBegin
  2
_D_5
 70
     0
 10
0.0
 20
0.0
 30
0.0
  3
_D_5
  1

  0
SOLID
  5
1D9
330
1D6
100
AcDbEntity
  8
VERMASSUNG
100
AcDbTrace
 10
200.3981985502
 20
102.4601493468
 30
0.0
 11
200.8481985502
 21
105.4601493468
 31
0.0
 12
199.9481985502
 22
105.4601493468
 32
0.0
 13
199.9481985502
 23
105.4601493468
 33
0.0
  0
SOLID
  5
1DA
330
1D6
100
AcDbEntity
  8
VERMASSUNG
100
AcDbTrace
 10
200.3981985502
 20
127.4601493468
 30
0.0
 11
199.9481985502
 21
124.4601493468
 31
0.0
 12
200.8481985502
 22
124.4601493468
 32
0.0
 13
200.8481985502
 23
124.4601493468
 33
0.0
  0
LINE
  5
1DB
330
1D6
100
AcDbEntity
  8
VERMASSUNG
100
AcDbLine
 10
200.3981985502
 20
102.4601493468
 30
0.0
 11
200.3981985502
 21
127.4601493468
 31
0.0
  0
MTEXT
  5
1DC
330
1D6
100
AcDbEntity
  8
VERMASSUNG
100
AcDbMText
 10
197.8200630707
 20
103.8527088254
 30
0.1
 40
2.0
 41
0.0
 71
     1
 72
     1
  1
%%c
  7
SLDTEXTSTYLE0
 11
6.123233995736766E-17
 21
1.0
 31
0.0
 73
     1
 44
1.0
  0
MTEXT
  5
1DD
330
1D6
100
AcDbEntity
  8
VERMASSUNG
100
AcDbMText
 10
197.6200630612
 20
107.4627088397
 30
0.1
 40
2.0
 41
0.0
 71
     1
 72
     1
  1
25
  7
SLDTEXTSTYLE0
 11
6.123233995736766E-17
 21
1.0
 31
0.0
 73
     1
 44
1.0
  0
ENDBLK
  5
1D8
330
1D6
100
AcDbEntity
  8
0
100
AcDbBlockEnd
  0
BLOCK
  5
1FF
330
1FE
100
AcDbEntity
  8
0
100
AcDbBlockBegin
  2
_D_6
 70
     0
 10
0.0
 20
0.0
 30
0.0
  3
_D_6
  1

  0
SOLID
  5
201
330
1FE
100
AcDbEntity
  8
VERMASSUNG
100
AcDbTrace
 10
74.4041994087
 20
126.776410452
 30
0.0
 11
76.5975433248
 21
128.8720589114
 31
0.0
 12
75.886154558
 22
129.4233537712
 32
0.0
 13
75.886154558
 23
129.4233537712
 33
0.0
  0
SOLID
  5
202
330
1FE
100
AcDbEntity
  8
VERMASSUNG
100
AcDbTrace
 10
54.802604393
 20
101.4825876322
 30
0.0
 11
52.6092604769
 21
99.3869391727
 31
0.0
 12
53.3206492437
 22
98.8356443129
 32
0.0
 13
53.3206492437
 23
98.8356443129
 33
0.0
  0
LINE
  5
203
330
1FE
100
AcDbEntity
  8
VERMASSUNG
100
AcDbLine
 10
74.4041994087
 20
126.776410452
 30
0.0
 11
73.6137674456
 21
127.3889602962
 31
0.0
  0
LINE
  5
204
330
1FE
100
AcDbEntity
  8
VERMASSUNG
100
AcDbLine
 10
54.802604393
 20
101.4825876322
 30
0.0
 11
54.0121724299
 21
102.0951374764
 31
0.0
  0
LINE
  5
205
330
1FE
100
AcDbEntity
  8
VERMASSUNG
100
AcDbLine
 10
74.4041994087
 20
126.776410452
 30
0.0
 11
78.0794984742
 21
131.5190022307
 31
0.0
  0
LINE
  5
206
330
1FE
100
AcDbEntity
  8
VERMASSUNG
100
AcDbLine
 10
74.4041994087
 20
126.776410452
 30
0.0
 11
54.802604393
 21
101.4825876322
 31
0.0
  0
LINE
  5
207
330
1FE
100
AcDbEntity
  8
VERMASSUNG
100
AcDbLine
 10
54.802604393
 20
101.4825876322
 30
0.0
 11
39.5842339104
 21
81.8448608918
 31
0.0
  0
MTEXT
  5
208
330
1FE
100
AcDbEntity
  8
VERMASSUNG
100
AcDbMText
 10
37.5463932221
 20
83.4240973782
 30
0.1
 40
2.0
 41
0.0
 71
     1
 72
     1
  1
%%c
  7
SLDTEXTSTYLE0
 11
0.612549844241277
 21
0.7904319631188932
 31
0.0
 73
     1
 44
1.0
  0
MTEXT
  5
209
330
1FE
100
AcDbEntity
  8
VERMASSUNG
100
AcDbMText
 10
39.5996117684
 20
86.4000667511
 30
0.1
 40
2.0
 41
0.0
 71
     1
 72
     1
  1
32
  7
SLDTEXTSTYLE0
 11
0.612549844241277
 21
0.7904319631188932
 31
0.0
 73
     1
 44
1.0
  0
MTEXT
  5
20A
330
1FE
100
AcDbEntity
  8
VERMASSUNG
100
AcDbMText
 10
43.1447443397
 20
90.9746921864
 30
0.1
 40
2.0
 41
0.0
 71
     1
 72
     1
  1
min.
  7
SLDTEXTSTYLE0
 11
0.612549844241277
 21
0.7904319631188932
 31
0.0
 73
     1
 44
1.0
  0
ENDBLK
  5
200
330
1FE
100
AcDbEntity
  8
0
100
AcDbBlockEnd
  0
BLOCK
  5
20E
330
20D
100
AcDbEntity
  8
0
100
AcDbBlockBegin
  2
_D_7
 70
     0
 10
0.0
 20
0.0
 30
0.0
  3
_D_7
  1

  0
ARC
  5
210
330
20D
100
AcDbEntity
  8
VERMASSUNG
100
AcDbCircle
 10
64.6034019009
 20
102.2608254546
 30
0.0
 40
43.82954300813932
100
AcDbArc
 50
90.0
 51
94.0
  0
ARC
  5
211
330
20D
100
AcDbEntity
  8
VERMASSUNG
100
AcDbCircle
 10
64.6034019009
 20
102.2608254546
 30
0.0
 40
43.82954300813935
100
AcDbArc
 50
82.1733464666
 51
90.0
  0
ARC
  5
212
330
20D
100
AcDbEntity
  8
VERMASSUNG
100
AcDbCircle
 10
64.6034019009
 20
102.2608254546
 30
0.0
 40
43.82954300813935
100
AcDbArc
 50
94.0
 51
105.4346324656
  0
SOLID
  5
213
330
20D
100
AcDbEntity
  8
VERMASSUNG
100
AcDbTrace
 10
64.6034019009
 20
146.0903684627
 30
0.0
 11
67.5862770718
 21
145.5381405076
 31
0.0
 12
67.6170242638
 22
146.4376151377
 32
0.0
 13
67.6170242638
 23
146.4376151377
 33
0.0
  0
SOLID
  5
214
330
20D
100
AcDbEntity
  8
VERMASSUNG
100
AcDbTrace
 10
61.5460075348
 20
145.9836018988
 30
0.0
 11
58.5155035008
 21
146.1197830291
 31
0.0
 12
58.6089199727
 22
145.2246442897
 32
0.0
 13
58.6089199727
 23
145.2246442897
 33
0.0
  0
LINE
  5
215
330
20D
100
AcDbEntity
  8
VERMASSUNG
100
AcDbLine
 10
64.6034019009
 20
142.4601493468
 30
0.0
 11
64.6034019009
 21
147.0903684627
 31
0.0
  0
LINE
  5
216
330
20D
100
AcDbEntity
  8
VERMASSUNG
100
AcDbLine
 10
62.8149734818
 20
127.836543399
 30
0.0
 11
61.476251061
 21
146.9811659491
 31
0.0
  0
MTEXT
  5
217
330
20D
100
AcDbEntity
  8
VERMASSUNG
100
AcDbMText
 10
52.3676421259
 20
147.0854704033
 30
-31.3032932109
 40
2.0
 41
0.0
 71
     1
 72
     1
  1
4°
  7
SLDTEXTSTYLE0
 11
0.9765569548207407
 21
0.2152591786457477
 31
0.0
 73
     1
 44
1.0
  0
ENDBLK
  5
20F
330
20D
100
AcDbEntity
  8
0
100
AcDbBlockEnd
  0
BLOCK
  5
219
330
218
100
AcDbEntity
  8
0
100
AcDbBlockBegin
  2
SW_CENTERMARKSYMBOL_0
 70
     0
 10
0.0
 20
0.0
 30
0.0
  3
SW_CENTERMARKSYMBOL_0
  1

  0
LINE
  5
21B
330
218
100
AcDbEntity
  8
VERMASSUNG
 62
     0
100
AcDbLine
 10
0.0
 20
0.0
 30
0.0
 11
0.0
 21
2.5
 31
0.0
  0
LINE
  5
21C
330
218
100
AcDbEntity
  8
VERMASSUNG
 62
     0
100
AcDbLine
 10
0.0
 20
0.0
 30
0.0
 11
-2.5
 21
0.0
 31
0.0
  0
LINE
  5
21D
330
218
100
AcDbEntity
  8
VERMASSUNG
 62
     0
100
AcDbLine
 10
0.0
 20
0.0
 30
0.0
 11
0.0
 21
-2.5
 31
0.0
  0
LINE
  5
21E
330
218
100
AcDbEntity
  8
VERMASSUNG
 62
     0
100
AcDbLine
 10
0.0
 20
0.0
 30
0.0
 11
2.5
 21
0.0
 31
0.0
  0
LINE
  5
21F
330
218
100
AcDbEntity
  8
VERMASSUNG
 62
     0
100
AcDbLine
 10
0.0
 20
5.0
 30
0.0
 11
0.0
 21
27.5
 31
0.0
  0
LINE
  5
220
330
218
100
AcDbEntity
  8
VERMASSUNG
 62
     0
100
AcDbLine
 10
-5.0
 20
0.0
 30
0.0
 11
-27.5
 21
0.0
 31
0.0
  0
LINE
  5
221
330
218
100
AcDbEntity
  8
VERMASSUNG
 62
     0
100
AcDbLine
 10
0.0
 20
-5.0
 30
0.0
 11
0.0
 21
-27.5
 31
0.0
  0
LINE
  5
222
330
218
100
AcDbEntity
  8
VERMASSUNG
 62
     0
100
AcDbLine
 10
5.0
 20
0.0
 30
0.0
 11
27.5
 21
0.0
 31
0.0
  0
ENDBLK
  5
21A
330
218
100
AcDbEntity
  8
0
100
AcDbBlockEnd
  0
ENDSEC
  0
SECTION
  2
ENTITIES
  0
MTEXT
  5
49
330
1F
100
AcDbEntity
  8
KOPF_DÜNN
100
AcDbMText
 10
13.8892156294
 20
23.8442973028
 30
0.0
 40
3.0
 41
0.0
 71
     1
 72
     1
  1
PS5.BDB.LQA.090
  7
SLDTEXTSTYLE0
 73
     1
 44
1.0
  0
MTEXT
  5
4A
330
1F
100
AcDbEntity
  8
VERMASSUNG
100
AcDbMText
 10
13.9329988022
 20
28.8834360957
 30
0.0
 40
3.0
 41
0.0
 71
     1
 72
     1
  1
Bohrstange links_Boring bar left
  7
SLDTEXTSTYLE0
 73
     1
 44
1.0
  0
MTEXT
  5
4B
330
1F
100
AcDbEntity
  8
VERMASSUNG
100
AcDbMText
 10
98.8601118557
 20
13.8365368179
 30
0.0
 40
2.0
 41
0.0
 71
     1
 72
     1
  1
Datum: 07.06.2012
  7
SLDTEXTSTYLE0
 73
     1
 44
1.0
  0
MTEXT
  5
4C
330
1F
100
AcDbEntity
  8
VERMASSUNG
100
AcDbMText
 10
13.933048693
 20
18.0482802738
 30
0.0
 40
2.0
 41
0.0
 71
     1
 72
     1
  1
PSC ø50 / Wp.: DC..11 T3..
  7
SLDTEXTSTYLE0
 73
     1
 44
1.0
  0
MTEXT
  5
4D
330
1F
100
AcDbEntity
  8
VERMASSUNG
100
AcDbMText
 10
13.9808475933
 20
13.9090973692
 30
0.0
 40
2.0
 41
0.0
 71
     1
 72
     1
  1
Gewicht: 624g
  7
SLDTEXTSTYLE0
 73
     1
 44
1.0
  0
ARC
  5
4E
330
1F
100
AcDbEntity
  8
0
  6
Continuous
 62
     7
370
    15
100
AcDbCircle
 10
183.775889857
 20
90.5601493468
 30
0.0
 40
0.6000000000000227
100
AcDbArc
 50
270.0
 51
360.0
  0
ARC
  5
4F
330
1F
100
AcDbEntity
  8
0
  6
Continuous
 62
     7
370
    15
100
AcDbCircle
 10
183.775889857
 20
139.3601493468
 30
0.0
 40
0.6000000000000227
100
AcDbArc
 50
0.0
 51
90.0
  0
LINE
  5
50
330
1F
100
AcDbEntity
  8
0
  6
Continuous
 62
     7
370
    15
100
AcDbLine
 10
164.6758898712
 20
89.9601489742
 30
0.0
 11
183.7758904292
 21
89.9601489742
 31
0.0
  0
LINE
  5
51
330
1F
100
AcDbEntity
  8
0
  6
Continuous
 62
     7
370
    15
100
AcDbLine
 10
183.7758904292
 20
139.9601497193
 30
0.0
 11
164.6758898712
 21
139.9601497193
 31
0.0
  0
ARC
  5
52
330
1F
100
AcDbEntity
  8
0
  6
Continuous
 62
     7
370
    15
100
AcDbCircle
 10
164.675889857
 20
90.2601493468
 30
0.0
 40
0.3000000000000114
100
AcDbArc
 50
180.0
 51
270.0
  0
ARC
  5
53
330
1F
100
AcDbEntity
  8
0
  6
Continuous
 62
     7
370
    15
100
AcDbCircle
 10
164.675889857
 20
139.6601493468
 30
0.0
 40
0.3000000000000114
100
AcDbArc
 50
90.0
 51
180.0
  0
LWPOLYLINE
  5
54
330
1F
100
AcDbEntity
  8
0
  6
Continuous
 62
     7
370
    15
100
AcDbPolyline
 90
        3
 70
   128
 43
0.0
 10
164.175889862
 20
97.1203282912
 10
164.3013447972
 20
97.0520269562
 10
164.375889857
 20
96.9992898841
  0
LWPOLYLINE
  5
55
330
1F
100
AcDbEntity
  8
0
  6
Continuous
 62
     7
370
    15
100
AcDbPolyline
 90
        3
 70
   128
 43
0.0
 10
164.375889857
 20
132.9210088094
 10
164.3013447972
 20
132.8682717373
 10
164.175889862
 20
132.7999704023
  0
ARC
  5
56
330
1F
100
AcDbEntity
  8
0
  6
Continuous
 62
     7
370
    15
100
AcDbCircle
 10
188.375889857
 20
98.4601493468
 30
0.0
 40
4.0
100
AcDbArc
 50
90.0
 51
180.0
  0
ARC
  5
57
330
1F
100
AcDbEntity
  8
0
  6
Continuous
 62
     7
370
    15
100
AcDbCircle
 10
188.375889857
 20
131.4601493468
 30
0.0
 40
4.0
100
AcDbArc
 50
180.0
 51
270.0
  0
LINE
  5
58
330
1F
100
AcDbEntity
  8
0
  6
Continuous
 62
     7
370
    15
100
AcDbLine
 10
227.9616778685
 20
127.460149533
 30
0.0
 11
188.3758900656
 21
127.460149533
 31
0.0
  0
LINE
  5
59
330
1F
100
AcDbEntity
  8
0
  6
Continuous
 62
     7
370
    15
100
AcDbLine
 10
188.3758900656
 20
102.4601491605
 30
0.0
 11
227.9616778685
 21
102.4601491605
 31
0.0
  0
ARC
  5
5A
330
1F
100
AcDbEntity
  8
0
  6
Continuous
 62
     7
370
    15
100
AcDbCircle
 10
227.9616762946
 20
128.4601493468
 30
0.0
 40
1.000000000000018
100
AcDbArc
 50
270.0
 51
315.0
  0
ARC
  5
5B
330
1F
100
AcDbEntity
  8
0
  6
Continuous
 62
     7
370
    15
100
AcDbCircle
 10
227.9616762946
 20
101.4601493468
 30
0.0
 40
1.000000000000025
100
AcDbArc
 50
50.5675581036
 51
64.6825126226
  0
LINE
  5
5C
330
1F
100
AcDbEntity
  8
0
  6
Continuous
 62
     7
370
    15
100
AcDbLine
 10
244.7498476102
 20
127.960149615
 30
0.0
 11
228.8758864595
 21
127.960149615
 31
0.0
  0
LINE
  5
5D
330
1F
100
AcDbEntity
  8
0
  6
Continuous
 62
     7
370
    15
100
AcDbLine
 10
228.8758864595
 20
127.960149615
 30
0.0
 11
228.6687826707
 21
127.7530421008
 31
0.0
  0
LINE
  5
5E
330
1F
100
AcDbEntity
  8
0
  6
Continuous
 62
     7
370
    15
100
AcDbLine
 10
248.4125306799
 20
105.2568624233
 30
0.0
 11
248.4125306799
 21
105.1647918736
 31
0.0
  0
LINE
  5
5F
330
1F
100
AcDbEntity
  8
0
  6
Continuous
 62
     7
370
    15
100
AcDbLine
 10
245.9992950751
 20
105.0700894062
 30
0.0
 11
245.9992950751
 21
105.1621292223
 31
0.0
  0
LINE
  5
60
330
1F
100
AcDbEntity
  8
0
  6
Continuous
 62
     7
370
    15
100
AcDbLine
 10
249.8296087577
 20
105.1331753348
 30
0.0
 11
249.8296087577
 21
105.1837182109
 31
0.0
  0
LINE
  5
61
330
1F
100
AcDbEntity
  8
0
  6
Continuous
 62
     7
370
    15
100
AcDbLine
 10
244.5796092941
 20
105.1837182109
 30
0.0
 11
244.5796092941
 21
105.1331753348
 31
0.0
  0
LINE
  5
62
330
1F
100
AcDbEntity
  8
0
  6
Continuous
 62
     7
370
    15
100
AcDbLine
 10
184.3758894099
 20
139.3601488759
 30
0.0
 11
184.3758894099
 21
90.5601498176
 31
0.0
  0
SPLINE
  5
63
330
1F
100
AcDbEntity
  8
0
  6
Continuous
 62
     7
370
    15
100
AcDbSpline
210
0.0
220
0.0
230
1.0
 70
     8
 71
     3
 72
    12
 73
     8
 74
     0
 42
0.00000001
 43
0.00000001
 12
1.0
 22
0.0
 32
0.0
 13
1.0
 23
0.0
 33
0.0
 40
0.0
 40
0.0
 40
0.0
 40
0.0
 40
0.25
 40
0.25
 40
0.5
 40
0.5
 40
1.0
 40
1.0
 40
1.0
 40
1.0
 10
172.9036466705504
 20
122.528959315932
 30
0.0
 10
172.8399814340198
 20
122.528959315932
 30
0.0
 10
172.7803752017965
 20
122.5550314644117
 30
0.0
 10
172.6817146768657
 20
122.6305702152328
 30
0.0
 10
172.6427476868504
 20
122.677821152329
 30
0.0
 10
172.5433608549259
 20
122.8296449702955
 30
0.0
 10
172.5012846075025
 20
122.9424482200606
 30
0.0
 10
172.4706339686581
 20
123.0566023447957
 30
0.0
  0
LINE
  5
64
330
1F
100
AcDbEntity
  8
0
  6
Continuous
 62
     7
370
    15
100
AcDbLine
 10
175.8481327413
 20
122.5289594819
 30
0.0
 11
172.9036465256
 21
122.5289594819
 31
0.0
  0
SPLINE
  5
65
330
1F
100
AcDbEntity
  8
0
  6
Continuous
 62
     7
370
    15
100
AcDbSpline
210
0.0
220
0.0
230
1.0
 70
     8
 71
     3
 72
    12
 73
     8
 74
     0
 42
0.00000001
 43
0.00000001
 12
1.0
 22
0.0
 32
0.0
 13
1.0
 23
0.0
 33
0.0
 40
0.0
 40
0.0
 40
0.0
 40
0.0
 40
0.4999999999999968
 40
0.4999999999999968
 40
0.7499999999999983
 40
0.7499999999999983
 40
1.0
 40
1.0
 40
1.0
 40
1.0
 10
176.2811457453097
 20
123.0566023447956
 30
0.0
 10
176.2504463619424
 20
122.9422666777318
 30
0.0
 10
176.2090962938358
 20
122.8309133248904
 30
0.0
 10
176.1093403656164
 20
122.6781765526417
 30
0.0
 10
176.0696434478837
 20
122.6303166667896
 30
0.0
 10
175.972385296236
 20
122.5557135534401
 30
0.0
 10
175.9116091382454
 20
122.528959315932
 30
0.0
 10
175.8481330434175
 20
122.528959315932
 30
0.0
  0
ELLIPSE
  5
66
330
1F
100
AcDbEntity
  8
0
  6
Continuous
 62
     7
370
    15
100
AcDbEllipse
 10
163.319632202
 20
114.9601493468
 30
0.0
 11
11.70927234972709
 21
24.67718644093745
 31
0.0
210
0.0
220
0.0
230
1.0
 40
0.3419987131
 41
5.203068809370449
 42
6.114256032590494
  0
SPLINE
  5
67
330
1F
100
AcDbEntity
  8
0
  6
Continuous
 62
     7
370
    15
100
AcDbSpline
210
0.0
220
0.0
230
1.0
 70
     8
 71
     3
 72
    12
 73
     8
 74
     0
 42
0.00000001
 43
0.00000001
 12
1.0
 22
0.0
 32
0.0
 13
1.0
 23
0.0
 33
0.0
 40
0.0
 40
0.0
 40
0.0
 40
0.0
 40
0.2499999999999993
 40
0.2499999999999993
 40
0.4999999999999987
 40
0.4999999999999987
 40
1.0
 40
1.0
 40
1.0
 40
1.0
 10
175.8481330434175
 20
138.7868804622535
 30
0.0
 10
175.911798279948
 20
138.7868804622535
 30
0.0
 10
175.9714045121713
 20
138.7786156865876
 30
0.0
 10
176.0700650371022
 20
138.7543969050045
 30
0.0
 10
176.1090320271174
 20
138.7391395856953
 30
0.0
 10
176.2084188590419
 20
138.6895062314334
 30
0.0
 10
176.2504951064653
 20
138.6518665232593
 30
0.0
 10
176.2811457453097
 20
138.6127908239831
 30
0.0
  0
LINE
  5
68
330
1F
100
AcDbEntity
  8
0
  6
Continuous
 62
     7
370
    15
100
AcDbLine
 10
172.9036465256
 20
138.7868807157
 30
0.0
 11
175.8481327413
 21
138.7868807157
 31
0.0
  0
SPLINE
  5
69
330
1F
100
AcDbEntity
  8
0
  6
Continuous
 62
     7
370
    15
100
AcDbSpline
210
0.0
220
0.0
230
1.0
 70
     8
 71
     3
 72
    12
 73
     8
 74
     0
 42
0.00000001
 43
0.00000001
 12
1.0
 22
0.0
 32
0.0
 13
1.0
 23
0.0
 33
0.0
 40
0.0
 40
0.0
 40
0.0
 40
0.0
 40
0.4999999999999987
 40
0.4999999999999987
 40
0.7499999999999993
 40
0.7499999999999993
 40
1.0
 40
1.0
 40
1.0
 40
1.0
 10
172.4706339686581
 20
138.6127908239831
 30
0.0
 10
172.5013333520255
 20
138.651928666379
 30
0.0
 10
172.542683420132
 20
138.6890884491046
 30
0.0
 10
172.6424393483514
 20
138.7390249547323
 30
0.0
 10
172.6821362660841
 20
138.754477824876
 30
0.0
 10
172.7793944177317
 20
138.7783973684751
 30
0.0
 10
172.8401705757224
 20
138.7868804622535
 30
0.0
 10
172.9036466705504
 20
138.7868804622535
 30
0.0
  0
ELLIPSE
  5
6A
330
1F
100
AcDbEntity
  8
0
  6
Continuous
 62
     7
370
    15
100
AcDbEllipse
 10
185.432147512
 20
114.9601493468
 30
0.0
 11
-11.70927234972697
 21
24.67718644093745
 31
0.0
210
0.0
220
0.0
230
1.0
 40
0.3419987131
 41
0.1689292745891331
 42
1.08011649780915
  0
SPLINE
  5
6B
330
1F
100
AcDbEntity
  8
0
  6
Continuous
 62
     7
370
    15
100
AcDbSpline
210
0.0
220
0.0
230
1.0
 70
     8
 71
     3
 72
    12
 73
     8
 74
     0
 42
0.00000001
 43
0.00000001
 12
1.0
 22
0.0
 32
0.0
 13
1.0
 23
0.0
 33
0.0
 40
0.0
 40
0.0
 40
0.0
 40
0.0
 40
0.2500000000000026
 40
0.2500000000000026
 40
0.5000000000000051
 40
0.5000000000000051
 40
1.0
 40
1.0
 40
1.0
 40
1.0
 10
172.9036466705504
 20
91.13341823124958
 30
0.0
 10
172.8400101163367
 20
91.13341823124956
 30
0.0
 10
172.7804299894705
 20
91.14167500218136
 30
0.0
 10
172.6817932481041
 20
91.16587706418917
 30
0.0
 10
172.6428346237238
 20
91.18112388322331
 30
0.0
 10
172.5434556842159
 20
91.23072875528344
 30
0.0
 10
172.5014977790504
 20
91.26816040340223
 30
0.0
 10
172.4706339686579
 20
91.3075078695199
 30
0.0
  0
LINE
  5
6C
330
1F
100
AcDbEntity
  8
0
  6
Continuous
 62
     7
370
    15
100
AcDbLine
 10
175.8481327413
 20
91.1334179779
 30
0.0
 11
172.9036465256
 21
91.1334179779
 31
0.0
  0
SPLINE
  5
6D
330
1F
100
AcDbEntity
  8
0
  6
Continuous
 62
     7
370
    15
100
AcDbSpline
210
0.0
220
0.0
230
1.0
 70
     8
 71
     3
 72
    12
 73
     8
 74
     0
 42
0.00000001
 43
0.00000001
 12
1.0
 22
0.0
 32
0.0
 13
1.0
 23
0.0
 33
0.0
 40
0.0
 40
0.0
 40
0.0
 40
0.0
 40
0.4999999999999968
 40
0.4999999999999968
 40
0.7499999999999983
 40
0.7499999999999983
 40
1.0
 40
1.0
 40
1.0
 40
1.0
 10
176.2811457453097
 20
91.30750786951991
 30
0.0
 10
176.2502940347455
 20
91.26817582915741
 30
0.0
 10
176.2084011712848
 20
91.2307640636292
 30
0.0
 10
176.1088802934916
 20
91.18109313901327
 30
0.0
 10
176.0692661287673
 20
91.16570405640545
 30
0.0
 10
175.9721630949878
 20
91.14187084073819
 30
0.0
 10
175.9116644223375
 20
91.13341823124938
 30
0.0
 10
175.8481330434176
 20
91.13341823124937
 30
0.0
  0
ELLIPSE
  5
6E
330
1F
100
AcDbEntity
  8
0
  6
Continuous
 62
     7
370
    15
100
AcDbEllipse
 10
163.319632202
 20
114.9601493468
 30
0.0
 11
-11.70927234972717
 21
24.67718644093745
 31
0.0
210
0.0
220
0.0
230
1.0
 40
0.3419987131
 41
3.310521928178953
 42
4.221709151398942
  0
SPLINE
  5
6F
330
1F
100
AcDbEntity
  8
0
  6
Continuous
 62
     7
370
    15
100
AcDbSpline
210
0.0
220
0.0
230
1.0
 70
     8
 71
     3
 72
    12
 73
     8
 74
     0
 42
0.00000001
 43
0.00000001
 12
1.0
 22
0.0
 32
0.0
 13
1.0
 23
0.0
 33
0.0
 40
0.0
 40
0.0
 40
0.0
 40
0.0
 40
0.2499999999999982
 40
0.2499999999999982
 40
0.4999999999999963
 40
0.4999999999999963
 40
1.0
 40
1.0
 40
1.0
 40
1.0
 10
175.8481330434174
 20
107.3913393775708
 30
0.0
 10
175.9117695976311
 20
107.3913393775708
 30
0.0
 10
175.9713497244974
 20
107.3652924745128
 30
0.0
 10
176.0699864658638
 20
107.2898053156129
 30
0.0
 10
176.108945090244
 20
107.2425862770822
 30
0.0
 10
176.208324029752
 20
107.0908466259887
 30
0.0
 10
176.2502819349174
 20
106.9786444018045
 30
0.0
 10
176.2811457453099
 20
106.8636963487073
 30
0.0
  0
LINE
  5
70
330
1F
100
AcDbEntity
  8
0
  6
Continuous
 62
     7
370
    15
100
AcDbLine
 10
172.9036465256
 20
107.3913392116
 30
0.0
 11
175.8481327413
 21
107.3913392116
 31
0.0
  0
SPLINE
  5
71
330
1F
100
AcDbEntity
  8
0
  6
Continuous
 62
     7
370
    15
100
AcDbSpline
210
0.0
220
0.0
230
1.0
 70
     8
 71
     3
 72
    12
 73
     8
 74
     0
 42
0.00000001
 43
0.00000001
 12
1.0
 22
0.0
 32
0.0
 13
1.0
 23
0.0
 33
0.0
 40
0.0
 40
0.0
 40
0.0
 40
0.0
 40
0.5000000000000019
 40
0.5000000000000019
 40
0.7500000000000009
 40
0.7500000000000009
 40
1.0
 40
1.0
 40
1.0
 40
1.0
 10
172.4706339686581
 20
106.8636963487072
 30
0.0
 10
172.5014856792224
 20
106.978599337644
 30
0.0
 10
172.543378542683
 20
107.0907382336929
 30
0.0
 10
172.6428994204762
 20
107.2426805152938
 30
0.0
 10
172.6825135852005
 20
107.2903451248187
 30
0.0
 10
172.77961661898
 20
107.3646814554341
 30
0.0
 10
172.8401152916304
 20
107.3913393775712
 30
0.0
 10
172.9036466705503
 20
107.3913393775712
 30
0.0
  0
ELLIPSE
  5
72
330
1F
100
AcDbEntity
  8
0
  6
Continuous
 62
     7
370
    15
100
AcDbEllipse
 10
185.432147512
 20
114.9601493468
 30
0.0
 11
11.70927234972709
 21
24.67718644093745
 31
0.0
210
0.0
220
0.0
230
1.0
 40
0.3419987131
 41
2.061476155780655
 42
2.972663379000672
  0
LINE
  5
73
330
1F
100
AcDbEntity
  8
0
  6
Continuous
 62
     7
370
    15
100
AcDbLine
 10
164.375889857
 20
90.2601484646
 30
0.0
 11
164.375889857
 21
139.6601502289
 31
0.0
  0
SPLINE
  5
74
330
1F
100
AcDbEntity
  8
0
  6
Continuous
 62
     7
370
    15
100
AcDbSpline
210
0.0
220
0.0
230
1.0
 70
     8
 71
     3
 72
    16
 73
    12
 74
     0
 42
0.00000001
 43
0.00000001
 12
1.0
 22
0.0
 32
0.0
 13
1.0
 23
0.0
 33
0.0
 40
0.0
 40
0.0
 40
0.0
 40
0.0
 40
0.2500000000000007
 40
0.2500000000000007
 40
0.5000000000000014
 40
0.5000000000000014
 40
0.6250000000000011
 40
0.6250000000000011
 40
0.7500000000000008
 40
0.7500000000000008
 40
1.0
 40
1.0
 40
1.0
 40
1.0
 10
163.3350288288549
 20
97.61099206555902
 30
0.0
 10
163.3667567900475
 20
97.6101949487381
 30
0.0
 10
163.4013843803981
 20
97.60960387388283
 30
0.0
 10
163.4810781424617
 20
97.60859234844837
 30
0.0
 10
163.5261196024654
 20
97.6081922402735
 30
0.0
 10
163.6089723293159
 20
97.60723436836966
 30
0.0
 10
163.6388867905157
 20
97.60685268710921
 30
0.0
 10
163.7048731210737
 20
97.60577647305068
 30
0.0
 10
163.7416067465354
 20
97.60505890715653
 30
0.0
 10
163.8541034661052
 20
97.6022980294749
 30
0.0
 10
163.9244448142035
 20
97.59981093760331
 30
0.0
 10
163.9809129681087
 20
97.59763765919618
 30
0.0
  0
SPLINE
  5
75
330
1F
100
AcDbEntity
  8
0
  6
Continuous
 62
     7
370
    15
100
AcDbSpline
210
0.0
220
0.0
230
1.0
 70
     8
 71
     3
 72
    14
 73
    10
 74
     0
 42
0.00000001
 43
0.00000001
 12
1.0
 22
0.0
 32
0.0
 13
1.0
 23
0.0
 33
0.0
 40
0.0
 40
0.0
 40
0.0
 40
0.0
 40
0.124999999999997
 40
0.124999999999997
 40
0.249999999999994
 40
0.249999999999994
 40
0.4999999999999998
 40
0.4999999999999998
 40
1.0
 40
1.0
 40
1.0
 40
1.0
 10
163.980912968077
 20
97.5976376592189
 30
0.0
 10
163.9935047620218
 20
97.59715304139657
 30
0.0
 10
164.0083758703159
 20
97.59544286346421
 30
0.0
 10
164.0405599617491
 20
97.58732731471333
 30
0.0
 10
164.056164093225
 20
97.581111526452
 30
0.0
 10
164.092051232937
 20
97.56289241475042
 30
0.0
 10
164.1059032742057
 20
97.5511273864168
 30
0.0
 10
164.1393930161383
 20
97.51933224999947
 30
0.0
 10
164.150055276714
 20
97.50153881815632
 30
0.0
 10
164.158193233609
 20
97.48510768731192
 30
0.0
  0
LINE
  5
76
330
1F
100
AcDbEntity
  8
0
  6
Continuous
 62
     7
370
    15
100
AcDbLine
 10
164.175889862
 20
108.9756693196
 30
0.0
 11
164.175889862
 21
97.1203282912
 31
0.0
  0
SPLINE
  5
77
330
1F
100
AcDbEntity
  8
0
  6
Continuous
 62
     7
370
    15
100
AcDbSpline
210
0.0
220
0.0
230
1.0
 70
     8
 71
     3
 72
    16
 73
    12
 74
     0
 42
0.00000001
 43
0.00000001
 12
1.0
 22
0.0
 32
0.0
 13
1.0
 23
0.0
 33
0.0
 40
0.0
 40
0.0
 40
0.0
 40
0.0
 40
0.4999999999999988
 40
0.4999999999999988
 40
0.7499999999999981
 40
0.7499999999999981
 40
0.8749999999999988
 40
0.8749999999999988
 40
0.9374999999999993
 40
0.9374999999999993
 40
1.0
 40
1.0
 40
1.0
 40
1.0
 10
164.1758898569839
 20
108.975669114177
 30
0.0
 10
164.1758898569839
 20
109.0901988448759
 30
0.0
 10
164.1718325548688
 20
109.2055149200654
 30
0.0
 10
164.1461753120741
 20
109.380438009893
 30
0.0
 10
164.1348598663319
 20
109.4402673128879
 30
0.0
 10
164.1008284990233
 20
109.5248584991361
 30
0.0
 10
164.0869495178195
 20
109.5535280852801
 30
0.0
 10
164.0510138360522
 20
109.5833358722264
 30
0.0
 10
164.0360635167894
 20
109.5896710255861
 30
0.0
 10
164.0061650040475
 20
109.5884455627158
 30
0.0
 10
163.9926321436823
 20
109.581846976681
 30
0.0
 10
163.9809129681082
 20
109.5731992886246
 30
0.0
  0
SPLINE
  5
78
330
1F
100
AcDbEntity
  8
0
  6
Continuous
 62
     7
370
    15
100
AcDbSpline
210
0.0
220
0.0
230
1.0
 70
     8
 71
     3
 72
    14
 73
    10
 74
     0
 42
0.00000001
 43
0.00000001
 12
1.0
 22
0.0
 32
0.0
 13
1.0
 23
0.0
 33
0.0
 40
0.0
 40
0.0
 40
0.0
 40
0.0
 40
0.25
 40
0.25
 40
0.5
 40
0.5
 40
0.75
 40
0.75
 40
1.0
 40
1.0
 40
1.0
 40
1.0
 10
163.9809129681151
 20
109.573199288616
 30
0.0
 10
163.9244533022313
 20
109.5315371789171
 30
0.0
 10
163.8535808273692
 20
109.5007036983289
 30
0.0
 10
163.7051144694872
 20
109.5064182069421
 30
0.0
 10
163.6359192662794
 20
109.541989134375
 30
0.0
 10
163.5262020802099
 20
109.6289330468489
 30
0.0
 10
163.4809561912779
 20
109.681365360214
 30
0.0
 10
163.401339060311
 20
109.7899184417325
 30
0.0
 10
163.3667364408541
 20
109.846901527975
 30
0.0
 10
163.3350288288553
 20
109.9054676106329
 30
0.0
  0
SPLINE
  5
79
330
1F
100
AcDbEntity
  8
0
  6
Continuous
 62
     7
370
    15
100
AcDbSpline
210
0.0
220
0.0
230
1.0
 70
     8
 71
     3
 72
    10
 73
     6
 74
     0
 42
0.00000001
 43
0.00000001
 12
1.0
 22
0.0
 32
0.0
 13
1.0
 23
0.0
 33
0.0
 40
0.0
 40
0.0
 40
0.0
 40
0.0
 40
0.5
 40
0.5
 40
1.0
 40
1.0
 40
1.0
 40
1.0
 10
163.0545695134243
 20
110.7582862022792
 30
0.0
 10
163.0854480970362
 20
110.6086576504195
 30
0.0
 10
163.1214408047596
 20
110.4621622328959
 30
0.0
 10
163.2107810562567
 20
110.1769705943552
 30
0.0
 10
163.2632393591022
 20
110.0380675686392
 30
0.0
 10
163.3350288288554
 20
109.9054676106327
 30
0.0
  0
SPLINE
  5
7A
330
1F
100
AcDbEntity
  8
0
  6
Continuous
 62
     7
370
    15
100
AcDbSpline
210
0.0
220
0.0
230
1.0
 70
     8
 71
     3
 72
    10
 73
     6
 74
     0
 42
0.00000001
 43
0.00000001
 12
1.0
 22
0.0
 32
0.0
 13
1.0
 23
0.0
 33
0.0
 40
0.0
 40
0.0
 40
0.0
 40
0.0
 40
0.5
 40
0.5
 40
1.0
 40
1.0
 40
1.0
 40
1.0
 10
163.3350288288547
 20
120.0148310828692
 30
0.0
 10
163.2632393591018
 20
119.8822311248628
 30
0.0
 10
163.2107810562564
 20
119.7433280991471
 30
0.0
 10
163.1214408047595
 20
119.4581364606068
 30
0.0
 10
163.0854480970362
 20
119.3116410430835
 30
0.0
 10
163.0545695134243
 20
119.162012491224
 30
0.0
  0
SPLINE
  5
7B
330
1F
100
AcDbEntity
  8
0
  6
Continuous
 62
     7
370
    15
100
AcDbSpline
210
0.0
220
0.0
230
1.0
 70
     8
 71
     3
 72
    14
 73
    10
 74
     0
 42
0.00000001
 43
0.00000001
 12
1.0
 22
0.0
 32
0.0
 13
1.0
 23
0.0
 33
0.0
 40
0.0
 40
0.0
 40
0.0
 40
0.0
 40
0.25
 40
0.25
 40
0.5
 40
0.5
 40
0.75
 40
0.75
 40
1.0
 40
1.0
 40
1.0
 40
1.0
 10
163.3350288288541
 20
120.014831082868
 30
0.0
 10
163.3667375283394
 20
120.0733991741866
 30
0.0
 10
163.40134534698
 20
120.1303934361266
 30
0.0
 10
163.4810037574694
 20
120.2389935708905
 30
0.0
 10
163.5260660273642
 20
120.2913217062691
 30
0.0
 10
163.6366478729426
 20
120.3788227176314
 30
0.0
 10
163.7042919937579
 20
120.4138681738856
 30
0.0
 10
163.854540284155
 20
120.4196125626417
 30
0.0
 10
163.9244926823853
 20
120.3887324555917
 30
0.0
 10
163.9809129681089
 20
120.3470994048786
 30
0.0
  0
SPLINE
  5
7C
330
1F
100
AcDbEntity
  8
0
  6
Continuous
 62
     7
370
    15
100
AcDbSpline
210
0.0
220
0.0
230
1.0
 70
     8
 71
     3
 72
    16
 73
    12
 74
     0
 42
0.00000001
 43
0.00000001
 12
1.0
 22
0.0
 32
0.0
 13
1.0
 23
0.0
 33
0.0
 40
0.0
 40
0.0
 40
0.0
 40
0.0
 40
0.0625000000000013
 40
0.0625000000000013
 40
0.1250000000000025
 40
0.1250000000000025
 40
0.2500000000000036
 40
0.2500000000000036
 40
0.5000000000000023
 40
0.5000000000000023
 40
1.0
 40
1.0
 40
1.0
 40
1.0
 10
163.980912968077
 20
120.3470994048252
 30
0.0
 10
163.9926472025239
 20
120.338440604681
 30
0.0
 10
164.0061789580029
 20
120.3318365194457
 30
0.0
 10
164.0361664184327
 20
120.3306395522715
 30
0.0
 10
164.051161124841
 20
120.3370612993374
 30
0.0
 10
164.0869015472358
 20
120.3667784527467
 30
0.0
 10
164.100914884237
 20
120.3955858501301
 30
0.0
 10
164.1350589730183
 20
120.480665571756
 30
0.0
 10
164.1460308771367
 20
120.5390405210257
 30
0.0
 10
164.171876417403
 20
120.7147560458143
 30
0.0
 10
164.1758898569839
 20
120.8305510536788
 30
0.0
 10
164.1758898569839
 20
120.9446295793262
 30
0.0
  0
LINE
  5
7D
330
1F
100
AcDbEntity
  8
0
  6
Continuous
 62
     7
370
    15
100
AcDbLine
 10
164.175889862
 20
132.7999704023
 30
0.0
 11
164.175889862
 21
120.9446293739
 31
0.0
  0
SPLINE
  5
7E
330
1F
100
AcDbEntity
  8
0
  6
Continuous
 62
     7
370
    15
100
AcDbSpline
210
0.0
220
0.0
230
1.0
 70
     8
 71
     3
 72
    16
 73
    12
 74
     0
 42
0.00000001
 43
0.00000001
 12
1.0
 22
0.0
 32
0.0
 13
1.0
 23
0.0
 33
0.0
 40
0.0
 40
0.0
 40
0.0
 40
0.0
 40
0.4999999999999983
 40
0.4999999999999983
 40
0.7499999999999992
 40
0.7499999999999992
 40
0.8749999999999998
 40
0.8749999999999998
 40
0.9374999999999999
 40
0.9374999999999999
 40
1.0
 40
1.0
 40
1.0
 40
1.0
 10
164.1758898569841
 20
132.5069038124192
 30
0.0
 10
164.1758898569838
 20
132.4848887978398
 30
0.0
 10
164.1717653141298
 20
132.4595351631361
 30
0.0
 10
164.1458488684967
 20
132.4123746609475
 30
0.0
 10
164.1345712874769
 20
132.3951756727188
 30
0.0
 10
164.1008359089356
 20
132.3651977071495
 30
0.0
 10
164.0864470936911
 20
132.3538462986077
 30
0.0
 10
164.0512004042521
 20
132.3371584391302
 30
0.0
 10
164.0359949797951
 20
132.331595412245
 30
0.0
 10
164.0063484006258
 20
132.3246258292099
 30
0.0
 10
163.9926430646283
 20
132.3231124881545
 30
0.0
 10
163.9809129681046
 20
132.3226610343046
 30
0.0
  0
SPLINE
  5
7F
330
1F
100
AcDbEntity
  8
0
  6
Continuous
 62
     7
370
    15
100
AcDbSpline
210
0.0
220
0.0
230
1.0
 70
     8
 71
     3
 72
    14
 73
    10
 74
     0
 42
0.00000001
 43
0.00000001
 12
1.0
 22
0.0
 32
0.0
 13
1.0
 23
0.0
 33
0.0
 40
0.0
 40
0.0
 40
0.0
 40
0.0
 40
0.25
 40
0.25
 40
0.5
 40
0.5
 40
0.75
 40
0.75
 40
1.0
 40
1.0
 40
1.0
 40
1.0
 10
163.9809129681151
 20
132.3226610343071
 30
0.0
 10
163.9244658860568
 20
132.3204885668879
 30
0.0
 10
163.853615502014
 20
132.3179904689704
 30
0.0
 10
163.7051790671976
 20
132.3143440101822
 30
0.0
 10
163.6359898155107
 20
132.313376263331
 30
0.0
 10
163.5262782672698
 20
132.3121087039682
 30
0.0
 10
163.4810366179274
 20
132.3117058630399
 30
0.0
 10
163.4013885997435
 20
132.3106948281123
 30
0.0
 10
163.3667616839775
 20
132.3101038677177
 30
0.0
 10
163.3350288288562
 20
132.3093066279442
 30
0.0
  0
SPLINE
  5
80
330
1F
100
AcDbEntity
  8
0
  6
Continuous
 62
     7
370
    15
100
AcDbSpline
210
0.0
220
0.0
230
1.0
 70
     8
 71
     3
 72
    18
 73
    14
 74
     0
 42
0.00000001
 43
0.00000001
 12
1.0
 22
0.0
 32
0.0
 13
1.0
 23
0.0
 33
0.0
 40
0.0
 40
0.0
 40
0.0
 40
0.0
 40
0.2500000000000001
 40
0.2500000000000001
 40
0.3750000000000001
 40
0.3750000000000001
 40
0.5000000000000001
 40
0.5000000000000001
 40
0.6250000000000001
 40
0.6250000000000001
 40
0.7500000000000002
 40
0.7500000000000002
 40
1.0
 40
1.0
 40
1.0
 40
1.0
 10
163.0545695134243
 20
119.162012491224
 30
0.0
 10
162.9192839071219
 20
118.5064581558028
 30
0.0
 10
162.818116160879
 20
117.8268370620052
 30
0.0
 10
162.71525481801
 20
116.7714730555111
 30
0.0
 10
162.6891519724868
 20
116.4126589909265
 30
0.0
 10
162.6542619889419
 20
115.6865460468036
 30
0.0
 10
162.645675730652
 20
115.3244563677875
 30
0.0
 10
162.6455760210863
 20
114.6021467103691
 30
0.0
 10
162.6540643922348
 20
114.2419269082607
 30
0.0
 10
162.6882077717554
 20
113.5233608391668
 30
0.0
 10
162.7140047536092
 20
113.1635951232514
 30
0.0
 10
162.8174058849972
 20
112.096950536257
 30
0.0
 10
162.9192638771686
 20
111.4139375969746
 30
0.0
 10
163.0545695134243
 20
110.7582862022792
 30
0.0
  0
LINE
  5
81
330
1F
100
AcDbEntity
  8
0
  6
Continuous
 62
     7
370
    15
100
AcDbLine
 10
162.1758898689
 20
120.1003016409
 30
0.0
 11
162.1758898689
 21
109.8199970526
 31
0.0
  0
LINE
  5
82
330
1F
100
AcDbEntity
  8
0
  6
Continuous
 62
     7
370
    15
100
AcDbLine
 10
135.8758898421
 20
119.7699279961
 30
0.0
 11
135.8758898421
 21
110.1503706974
 31
0.0
  0
LINE
  5
83
330
1F
100
AcDbEntity
  8
0
  6
Continuous
 62
     7
370
    15
100
AcDbLine
 10
134.3758905275
 20
119.336915153
 30
0.0
 11
134.3758905275
 21
110.5833835405
 31
0.0
  0
LINE
  5
84
330
1F
100
AcDbEntity
  8
0
  6
Continuous
 62
     7
370
    15
100
AcDbLine
 10
162.1758898689
 20
97.4400513311
 30
0.0
 11
162.1758898689
 21
109.8199970526
 31
0.0
  0
ARC
  5
85
330
1F
100
AcDbEntity
  8
0
  6
Continuous
 62
     7
370
    15
100
AcDbCircle
 10
162.3758267679
 20
97.4350274511
 30
0.0
 40
0.1999999999999917
100
AcDbArc
 50
88.5608333333
 51
178.5608333333
  0
LINE
  5
86
330
1F
100
AcDbEntity
  8
0
  6
Continuous
 62
     7
370
    15
100
AcDbLine
 10
135.8758898421
 20
98.1007986207
 30
0.0
 11
135.8758898421
 21
110.1503706974
 31
0.0
  0
LINE
  5
87
330
1F
100
AcDbEntity
  8
0
  6
Continuous
 62
     7
370
    15
100
AcDbLine
 10
135.8758898421
 20
98.1007986207
 30
0.0
 11
162.1758898689
 21
97.4400513311
 31
0.0
  0
LINE
  5
88
330
1F
100
AcDbEntity
  8
0
  6
Continuous
 62
     7
370
    15
100
AcDbLine
 10
162.1758898689
 20
120.1003016409
 30
0.0
 11
162.1758898689
 21
132.4802473624
 31
0.0
  0
ARC
  5
89
330
1F
100
AcDbEntity
  8
0
  6
Continuous
 62
     7
370
    15
100
AcDbCircle
 10
162.3758267679
 20
132.4852712424
 30
0.0
 40
0.2000000000000343
100
AcDbArc
 50
181.4391666667
 51
271.4391666667
  0
LINE
  5
8A
330
1F
100
AcDbEntity
  8
0
  6
Continuous
 62
     7
370
    15
100
AcDbLine
 10
135.8758898421
 20
119.7699279961
 30
0.0
 11
135.8758898421
 21
131.8195000728
 31
0.0
  0
LINE
  5
8B
330
1F
100
AcDbEntity
  8
0
  6
Continuous
 62
     7
370
    15
100
AcDbLine
 10
135.8758898421
 20
131.8195000728
 30
0.0
 11
162.1758898689
 21
132.4802473624
 31
0.0
  0
LINE
  5
8C
330
1F
100
AcDbEntity
  8
0
  6
Continuous
 62
     7
370
    15
100
AcDbLine
 10
162.380849986
 20
97.6349641074
 30
0.0
 11
163.3350288464
 21
97.6109918644
 31
0.0
  0
LINE
  5
8D
330
1F
100
AcDbEntity
  8
0
  6
Continuous
 62
     7
370
    15
100
AcDbLine
 10
162.380849986
 20
132.2853345861
 30
0.0
 11
163.3350288464
 21
132.3093068291
 31
0.0
  0
LINE
  5
8E
330
1F
100
AcDbEntity
  8
0
  6
Continuous
 62
     7
370
    15
100
AcDbLine
 10
134.3758905275
 20
130.9534743865
 30
0.0
 11
135.8758898421
 21
131.8195000728
 31
0.0
  0
LINE
  5
8F
330
1F
100
AcDbEntity
  8
0
  6
Continuous
 62
     7
370
    15
100
AcDbLine
 10
134.3758905275
 20
119.336915153
 30
0.0
 11
134.3758905275
 21
130.9534743865
 31
0.0
  0
LINE
  5
90
330
1F
100
AcDbEntity
  8
0
  6
Continuous
 62
     7
370
    15
100
AcDbLine
 10
134.3758905275
 20
98.966824307
 30
0.0
 11
135.8758898421
 21
98.1007986207
 31
0.0
  0
LINE
  5
91
330
1F
100
AcDbEntity
  8
0
  6
Continuous
 62
     7
370
    15
100
AcDbLine
 10
134.3758905275
 20
98.966824307
 30
0.0
 11
134.3758905275
 21
110.5833835405
 31
0.0
  0
SPLINE
  5
92
330
1F
100
AcDbEntity
  8
0
  6
Continuous
 62
     7
370
    15
100
AcDbSpline
210
0.0
220
0.0
230
1.0
 70
     8
 71
     3
 72
    16
 73
    12
 74
     0
 42
0.00000001
 43
0.00000001
 12
1.0
 22
0.0
 32
0.0
 13
1.0
 23
0.0
 33
0.0
 40
0.0
 40
0.0
 40
0.0
 40
0.0
 40
0.2500000000000003
 40
0.2500000000000003
 40
0.3750000000000019
 40
0.3750000000000019
 40
0.5000000000000034
 40
0.5000000000000034
 40
0.7500000000000018
 40
0.7500000000000018
 40
1.0
 40
1.0
 40
1.0
 40
1.0
 10
225.7800933420536
 20
126.8208454922155
 30
0.0
 10
225.8483146677328
 20
126.9038356254539
 30
0.0
 10
225.9486950099978
 20
126.9743818958236
 30
0.0
 10
226.148223200279
 20
127.0651589631957
 30
0.0
 10
226.2235513480326
 20
127.0930072065849
 30
0.0
 10
226.38681699109
 20
127.1427211285419
 30
0.0
 10
226.4750780062472
 20
127.1648022820166
 30
0.0
 10
226.7596015145014
 20
127.2240611923986
 30
0.0
 10
226.9785272730593
 20
127.2544381651336
 30
0.0
 10
227.4455195376306
 20
127.2992905116786
 30
0.0
 10
227.6979497885225
 20
127.3144808959946
 30
0.0
 10
227.9616762946108
 20
127.3240511922699
 30
0.0
  0
ELLIPSE
  5
93
330
1F
100
AcDbEntity
  8
0
  6
Continuous
 62
     7
370
    15
100
AcDbEllipse
 10
226.613255343
 20
114.9601493468
 30
0.0
 11
0.251606368271041
 21
12.49981921343797
 31
0.0
210
0.0
220
0.0
230
1.0
 40
0.2671959542
 41
0.326583233678866
 42
2.965392324511988
  0
SPLINE
  5
94
330
1F
100
AcDbEntity
  8
0
  6
Continuous
 62
     7
370
    15
100
AcDbSpline
210
0.0
220
0.0
230
1.0
 70
     8
 71
     3
 72
    16
 73
    12
 74
     0
 42
0.00000001
 43
0.00000001
 12
1.0
 22
0.0
 32
0.0
 13
1.0
 23
0.0
 33
0.0
 40
0.0
 40
0.0
 40
0.0
 40
0.0
 40
0.2500000000000064
 40
0.2500000000000064
 40
0.3750000000000097
 40
0.3750000000000097
 40
0.5000000000000078
 40
0.5000000000000078
 40
0.7500000000000039
 40
0.7500000000000039
 40
1.0
 40
1.0
 40
1.0
 40
1.0
 10
227.9616762946108
 20
102.4605567597936
 30
0.0
 10
227.697955009299
 20
102.4610817968485
 30
0.0
 10
227.4489297502836
 20
102.4622587479296
 30
0.0
 10
227.0969036064627
 20
102.4685330239017
 30
0.0
 10
226.9826458192253
 20
102.4714360224247
 30
0.0
 10
226.7681041826475
 20
102.4794701266744
 30
0.0
 10
226.6670408380304
 20
102.4846037964049
 30
0.0
 10
226.3821985007406
 20
102.5045957681326
 30
0.0
 10
226.2155715123497
 20
102.5244513555679
 30
0.0
 10
225.9503740083994
 20
102.5810175841892
 30
0.0
 10
225.8483201217361
 20
102.6181780642867
 30
0.0
 10
225.7800933420536
 20
102.6656512352213
 30
0.0
  0
ELLIPSE
  5
95
330
1F
100
AcDbEntity
  8
0
  6
Continuous
 62
     7
370
    15
100
AcDbEllipse
 10
224.6559434806
 20
111.3872946366
 30
0.0
 11
-0.08291753437345051
 21
2.335796540899949
 31
0.0
210
0.0
220
0.0
230
1.0
 40
0.2540400005
 41
0.0
 42
6.283185307179586
  0
SPLINE
  5
96
330
1F
100
AcDbEntity
  8
0
  6
Continuous
 62
     7
370
    15
100
AcDbSpline
210
0.0
220
0.0
230
1.0
 70
     8
 71
     3
 72
     8
 73
     4
 74
     0
 42
0.00000001
 43
0.00000001
 12
1.0
 22
0.0
 32
0.0
 13
1.0
 23
0.0
 33
0.0
 40
0.0
 40
0.0
 40
0.0
 40
0.0
 40
1.0
 40
1.0
 40
1.0
 40
1.0
 10
228.6778708209207
 20
102.1581703953385
 30
0.0
 10
228.6748414072366
 20
102.1611996907219
 30
0.0
 10
228.6718121587614
 20
102.1642288234944
 30
0.0
 10
228.6687830757973
 20
102.1672577940592
 30
0.0
  0
SPLINE
  5
97
330
1F
100
AcDbEntity
  8
0
  6
Continuous
 62
     7
370
    15
100
AcDbSpline
210
0.0
220
0.0
230
1.0
 70
     8
 71
     3
 72
    10
 73
     6
 74
     0
 42
0.00000001
 43
0.00000001
 12
1.0
 22
0.0
 32
0.0
 13
1.0
 23
0.0
 33
0.0
 40
0.0
 40
0.0
 40
0.0
 40
0.0
 40
0.5
 40
0.5
 40
1.0
 40
1.0
 40
1.0
 40
1.0
 10
228.6687830757974
 20
102.1672577940593
 30
0.0
 10
228.5745577293172
 20
102.2614796441476
 30
0.0
 10
228.4632887684639
 20
102.335117325031
 30
0.0
 10
228.220721798465
 20
102.4349444358671
 30
0.0
 10
228.0912164088723
 20
102.4602988611566
 30
0.0
 10
227.9616762946108
 20
102.4605567597939
 30
0.0
  0
SPLINE
  5
98
330
1F
100
AcDbEntity
  8
0
  6
Continuous
 62
     7
370
    15
100
AcDbSpline
210
0.0
220
0.0
230
1.0
 70
     8
 71
     3
 72
    10
 73
     6
 74
     0
 42
0.00000001
 43
0.00000001
 12
1.0
 22
0.0
 32
0.0
 13
1.0
 23
0.0
 33
0.0
 40
0.0
 40
0.0
 40
0.0
 40
0.0
 40
0.5
 40
0.5
 40
1.0
 40
1.0
 40
1.0
 40
1.0
 10
227.9616762946108
 20
127.3240511922699
 30
0.0
 10
228.0912067091041
 20
127.3287516846919
 30
0.0
 10
228.220321174652
 20
127.3571083193786
 30
0.0
 10
228.4629877379184
 20
127.460687279298
 30
0.0
 10
228.5745395376888
 20
127.5351701615943
 30
0.0
 10
228.6687830757977
 20
127.6294500319638
 30
0.0
  0
SPLINE
  5
99
330
1F
100
AcDbEntity
  8
0
  6
Continuous
 62
     7
370
    15
100
AcDbSpline
210
0.0
220
0.0
230
1.0
 70
     8
 71
     3
 72
     8
 73
     4
 74
     0
 42
0.00000001
 43
0.00000001
 12
1.0
 22
0.0
 32
0.0
 13
1.0
 23
0.0
 33
0.0
 40
0.0
 40
0.0
 40
0.0
 40
0.0
 40
1.0
 40
1.0
 40
1.0
 40
1.0
 10
228.6687830757973
 20
127.6294500319642
 30
0.0
 10
228.6718121587614
 20
127.6324802826841
 30
0.0
 10
228.6748414072366
 20
127.6355100556345
 30
0.0
 10
228.6778708209207
 20
127.6385393510179
 30
0.0
  0
ELLIPSE
  5
9A
330
1F
100
AcDbEntity
  8
0
  6
Continuous
 62
     7
370
    15
100
AcDbEllipse
 10
248.9554971356
 20
114.9601493468
 30
0.0
 11
-4.247080252762999
 21
12.993570470854
 31
0.0
210
0.0
220
0.0
230
1.0
 40
0.0962569477
 41
6.113724024734366
 42
6.251733123200049
  0
LINE
  5
9B
330
1F
100
AcDbEntity
  8
0
  6
Continuous
 62
     7
370
    15
100
AcDbLine
 10
228.8758864595
 20
127.8365435515
 30
0.0
 11
244.9801897599
 21
127.8365435515
 31
0.0
  0
LINE
  5
9C
330
1F
100
AcDbEntity
  8
0
  6
Continuous
 62
     7
370
    15
100
AcDbLine
 10
228.8758864595
 20
127.960149615
 30
0.0
 11
228.8758864595
 21
127.8365435515
 31
0.0
  0
LINE
  5
9D
330
1F
100
AcDbEntity
  8
0
  6
Continuous
 62
     7
370
    15
100
AcDbLine
 10
229.1119655563
 20
101.7241277237
 30
0.0
 11
228.677872379
 21
102.1581706096
 31
0.0
  0
LINE
  5
9E
330
1F
100
AcDbEntity
  8
0
  6
Continuous
 62
     7
370
    15
100
AcDbLine
 10
228.677872379
 20
127.6385397156
 30
0.0
 11
228.8758864595
 21
127.8365435515
 31
0.0
  0
LINE
  5
9F
330
1F
100
AcDbEntity
  8
0
  6
Continuous
 62
     7
370
    15
100
AcDbLine
 10
244.9801897599
 20
127.8365435515
 30
0.0
 11
250.988963802
 21
108.8255755109
 31
0.0
  0
LINE
  5
A0
330
1F
100
AcDbEntity
  8
0
  6
Continuous
 62
     7
370
    15
100
AcDbLine
 10
243.5835039212
 20
111.1724224844
 30
0.0
 11
242.8801616623
 21
113.3976873913
 31
0.0
  0
ARC
  5
A1
330
1F
100
AcDbEntity
  8
0
  6
Continuous
 62
     7
370
    15
100
AcDbCircle
 10
241.4345648656
 20
112.9407038814
 30
0.0
 40
1.516108184455814
100
AcDbArc
 50
17.5428394904
 51
197.3771451374
  0
LINE
  5
A2
330
1F
100
AcDbEntity
  8
0
  6
Continuous
 62
     7
370
    15
100
AcDbLine
 10
239.9876525594
 20
112.4879028154
 30
0.0
 11
240.2178084447
 21
111.7597170611
 31
0.0
  0
LINE
  5
A3
330
1F
100
AcDbEntity
  8
0
  6
Continuous
 62
     7
370
    15
100
AcDbLine
 10
243.5285409881
 20
101.2849877094
 30
0.0
 11
243.5473611547
 21
101.2254547764
 31
0.0
  0
ELLIPSE
  5
A4
330
1F
100
AcDbEntity
  8
0
  6
Continuous
 62
     7
370
    15
100
AcDbEllipse
 10
238.492223903
 20
75.5926821893
 30
0.0
 11
-5.684341886080801E-14
 21
26.13144513619379
 31
0.0
210
0.0
220
0.0
230
1.0
 40
0.9949698482
 41
6.08751079361211
 42
6.283185307179586
  0
LINE
  5
A5
330
1F
100
AcDbEntity
  8
0
  6
Continuous
 62
     7
370
    15
100
AcDbLine
 10
238.4922241761
 20
101.7241277237
 30
0.0
 11
229.1119655563
 21
101.7241277237
 31
0.0
  0
ARC
  5
A6
330
1F
100
AcDbEntity
  8
0
  6
Continuous
 62
     7
370
    15
100
AcDbCircle
 10
241.4345041481
 20
113.0922685046
 30
0.0
 40
1.249725476887734
100
AcDbArc
 50
17.551209893
 51
197.3687526839
  0
LINE
  5
A7
330
1F
100
AcDbEntity
  8
0
  6
Continuous
 62
     7
370
    15
100
AcDbLine
 10
242.6260521604
 20
113.4691333369
 30
0.0
 11
243.3264141871
 21
111.2532841013
 31
0.0
  0
LINE
  5
A8
330
1F
100
AcDbEntity
  8
0
  6
Continuous
 62
     7
370
    15
100
AcDbLine
 10
240.2417620613
 20
112.7192000364
 30
0.0
 11
240.4507880999
 21
112.0578753267
 31
0.0
  0
LINE
  5
A9
330
1F
100
AcDbEntity
  8
0
  6
Continuous
 62
     7
370
    15
100
AcDbLine
 10
240.1850109889
 20
113.1464840815
 30
0.0
 11
240.2417620613
 21
112.8238348261
 31
0.0
  0
LINE
  5
AA
330
1F
100
AcDbEntity
  8
0
  6
Continuous
 62
     7
370
    15
100
AcDbLine
 10
240.2417620613
 20
112.8238348261
 30
0.0
 11
240.4810449077
 21
112.0667736483
 31
0.0
  0
CIRCLE
  5
AB
330
1F
100
AcDbEntity
  8
0
  6
Continuous
 62
     7
370
    15
100
AcDbCircle
 10
247.2093148397
 20
105.1339383806
 30
0.0
 40
2.620271538538494
  0
CIRCLE
  5
AC
330
1F
100
AcDbEntity
  8
0
  6
Continuous
 62
     7
370
    15
100
AcDbCircle
 10
247.2078819203
 20
105.1146060113
 30
0.0
 40
1.796712046877965
  0
ARC
  5
AD
330
1F
100
AcDbEntity
  8
0
  6
Continuous
 62
     7
370
    15
100
AcDbCircle
 10
247.2052097982
 20
105.1087984506
 30
0.0
 40
1.676099846994273
100
AcDbArc
 50
32.9594835475
 51
91.4832630545
  0
ARC
  5
AE
330
1F
100
AcDbEntity
  8
0
  6
Continuous
 62
     7
370
    15
100
AcDbCircle
 10
247.2037017385
 20
105.1094209789
 30
0.0
 40
1.675439155012199
100
AcDbArc
 50
91.4322595629
 51
151.4775414937
  0
ARC
  5
AF
330
1F
100
AcDbEntity
  8
0
  6
Continuous
 62
     7
370
    15
100
AcDbCircle
 10
247.1970854385
 20
105.1139502312
 30
0.0
 40
1.667463344584607
100
AcDbArc
 50
151.5057255397
 51
210.239020783
  0
LINE
  5
B0
330
1F
100
AcDbEntity
  8
0
  6
Continuous
 62
     7
370
    15
100
AcDbLine
 10
245.8010649277
 20
104.2020297115
 30
0.0
 11
245.7565104558
 21
104.2742016231
 31
0.0
  0
ARC
  5
B1
330
1F
100
AcDbEntity
  8
0
  6
Continuous
 62
     7
370
    15
100
AcDbCircle
 10
247.2039102561
 20
105.118995581
 30
0.0
 40
1.675947917206931
100
AcDbArc
 50
213.1705241022
 51
269.5448950854
  0
LINE
  5
B2
330
1F
100
AcDbEntity
  8
0
  6
Continuous
 62
     7
370
    15
100
AcDbLine
 10
247.3103588416
 20
103.4463750635
 30
0.0
 11
247.1905982091
 21
103.4431005333
 31
0.0
  0
ARC
  5
B3
330
1F
100
AcDbEntity
  8
0
  6
Continuous
 62
     7
370
    15
100
AcDbCircle
 10
247.2055480519
 20
105.1185762548
 30
0.0
 40
1.675482654587838
100
AcDbArc
 50
273.5865124581
 51
329.3231328968
  0
LINE
  5
B4
330
1F
100
AcDbEntity
  8
0
  6
Continuous
 62
     7
370
    15
100
AcDbLine
 10
248.7037962271
 20
104.3687494908
 30
0.0
 11
248.646560867
 21
104.2637521838
 31
0.0
  0
ARC
  5
B5
330
1F
100
AcDbEntity
  8
0
  6
Continuous
 62
     7
370
    15
100
AcDbCircle
 10
247.2121843764
 20
105.1139761485
 30
0.0
 40
1.667413771263077
100
AcDbArc
 50
333.4527522504
 51
30.0259449807
  0
LINE
  5
B6
330
1F
100
AcDbEntity
  8
0
  6
Continuous
 62
     7
370
    15
100
AcDbLine
 10
248.6115505888
 20
106.0206735943
 30
0.0
 11
248.6558293893
 21
105.9483368386
 31
0.0
  0
SPLINE
  5
B7
330
1F
100
AcDbEntity
  8
0
  6
Continuous
 62
     7
370
    15
100
AcDbSpline
210
0.0
220
0.0
230
1.0
 70
     8
 71
     3
 72
    12
 73
     8
 74
     0
 42
0.00000001
 43
0.00000001
 12
1.0
 22
0.0
 32
0.0
 13
1.0
 23
0.0
 33
0.0
 40
0.0
 40
0.0
 40
0.0
 40
0.0
 40
0.2058606223863642
 40
0.4121062383261404
 40
0.6141974483366301
 40
0.8133185331907301
 40
1.0
 40
1.0
 40
1.0
 40
1.0
 10
248.2450490786331
 20
106.1317803774899
 30
0.0
 10
248.1810875903094
 20
106.1180388155108
 30
0.0
 10
248.0530449950563
 20
106.0905299925493
 30
0.0
 10
247.855594780736
 20
106.1313149608301
 30
0.0
 10
247.6851158921846
 20
106.2283693130941
 30
0.0
 10
247.5559642622879
 20
106.3691727443481
 30
0.0
 10
247.5144273745753
 20
106.4830299228202
 30
0.0
 10
247.494328577687
 20
106.5381229360527
 30
0.0
  0
SPLINE
  5
B8
330
1F
100
AcDbEntity
  8
0
  6
Continuous
 62
     7
370
    15
100
AcDbSpline
210
0.0
220
0.0
230
1.0
 70
     8
 71
     3
 72
    11
 73
     7
 74
     0
 42
0.00000001
 43
0.00000001
 12
1.0
 22
0.0
 32
0.0
 13
1.0
 23
0.0
 33
0.0
 40
0.0
 40
0.0
 40
0.0
 40
0.0
 40
0.2524805397215616
 40
0.5068911661425152
 40
0.7591694744977634
 40
1.0
 40
1.0
 40
1.0
 40
1.0
 10
247.494328577687
 20
106.5381229360527
 30
0.0
 10
247.4812315626631
 20
106.573005808591
 30
0.0
 10
247.4549374125245
 20
106.643038215678
 30
0.0
 10
247.3733485530926
 20
106.7240114478983
 30
0.0
 10
247.2723638627356
 20
106.7768711807803
 30
0.0
 10
247.1980959424098
 20
106.7818869986189
 30
0.0
 10
247.1618240668075
 20
106.7843366851038
 30
0.0
  0
SPLINE
  5
B9
330
1F
100
AcDbEntity
  8
0
  6
Continuous
 62
     7
370
    15
100
AcDbSpline
210
0.0
220
0.0
230
1.0
 70
     8
 71
     3
 72
    11
 73
     7
 74
     0
 42
0.00000001
 43
0.00000001
 12
1.0
 22
0.0
 32
0.0
 13
1.0
 23
0.0
 33
0.0
 40
0.0
 40
0.0
 40
0.0
 40
0.0
 40
0.2423649374705514
 40
0.516685430127671
 40
0.792339455584331
 40
1.0
 40
1.0
 40
1.0
 40
1.0
 10
248.6115505887764
 20
106.0206735943383
 30
0.0
 10
248.5886689857308
 20
106.0446833906106
 30
0.0
 10
248.5398888649963
 20
106.0958686488567
 30
0.0
 10
248.4392951090796
 20
106.1405576148723
 30
0.0
 10
248.3355170846956
 20
106.1534168602035
 30
0.0
 10
248.2722376632907
 20
106.138282845794
 30
0.0
 10
248.2450490786331
 20
106.1317803774899
 30
0.0
  0
SPLINE
  5
BA
330
1F
100
AcDbEntity
  8
0
  6
Continuous
 62
     7
370
    15
100
AcDbSpline
210
0.0
220
0.0
230
1.0
 70
     8
 71
     3
 72
    12
 73
     8
 74
     0
 42
0.00000001
 43
0.00000001
 12
1.0
 22
0.0
 32
0.0
 13
1.0
 23
0.0
 33
0.0
 40
0.0
 40
0.0
 40
0.0
 40
0.0
 40
0.2058450049138114
 40
0.4120676223134133
 40
0.6141412318110653
 40
0.8132653115119334
 40
1.0
 40
1.0
 40
1.0
 40
1.0
 10
246.8423729731338
 20
106.5209055756158
 30
0.0
 10
246.8229138132949
 20
106.4591223160028
 30
0.0
 10
246.7839597967504
 20
106.3354424584412
 30
0.0
 10
246.6508025541104
 20
106.1858024552462
 30
0.0
 10
246.481253301548
 20
106.0870102317501
 30
0.0
 10
246.2934365663563
 20
106.0452322949966
 30
0.0
 10
246.1726965803492
 20
106.065635090989
 30
0.0
 10
246.1142649842994
 20
106.0755089362091
 30
0.0
  0
SPLINE
  5
BB
330
1F
100
AcDbEntity
  8
0
  6
Continuous
 62
     7
370
    15
100
AcDbSpline
210
0.0
220
0.0
230
1.0
 70
     8
 71
     3
 72
    11
 73
     7
 74
     0
 42
0.00000001
 43
0.00000001
 12
1.0
 22
0.0
 32
0.0
 13
1.0
 23
0.0
 33
0.0
 40
0.0
 40
0.0
 40
0.0
 40
0.0
 40
0.2535059777766656
 40
0.5075765953030321
 40
0.7595134085347259
 40
1.0
 40
1.0
 40
1.0
 40
1.0
 10
246.1142649842994
 20
106.0755089362091
 30
0.0
 10
246.0768798533334
 20
106.0814524238097
 30
0.0
 10
246.0020263226312
 20
106.0933526370788
 30
0.0
 10
245.890029886178
 20
106.0626534634389
 30
0.0
 10
245.7932748557594
 20
106.0013793155923
 30
0.0
 10
245.7518442362645
 20
105.9396133837734
 30
0.0
 10
245.731610615422
 20
105.9094485332197
 30
0.0
  0
SPLINE
  5
BC
330
1F
100
AcDbEntity
  8
0
  6
Continuous
 62
     7
370
    15
100
AcDbSpline
210
0.0
220
0.0
230
1.0
 70
     8
 71
     3
 72
    12
 73
     8
 74
     0
 42
0.00000001
 43
0.00000001
 12
1.0
 22
0.0
 32
0.0
 13
1.0
 23
0.0
 33
0.0
 40
0.0
 40
0.0
 40
0.0
 40
0.0
 40
0.0091600078284242
 40
0.2573301140210675
 40
0.5054870657570741
 40
0.7549917807670475
 40
1.0
 40
1.0
 40
1.0
 40
1.0
 10
247.1618240668075
 20
106.7843366851038
 30
0.0
 10
247.1604532076586
 20
106.7842960997784
 30
0.0
 10
247.1219419587925
 20
106.7831559450318
 30
0.0
 10
247.0460705331425
 20
106.7675386634149
 30
0.0
 10
246.9493251437221
 20
106.7098749805055
 30
0.0
 10
246.8749303804281
 20
106.6250320627086
 30
0.0
 10
246.8531594561796
 20
106.5554033652431
 30
0.0
 10
246.8423729731338
 20
106.5209055756158
 30
0.0
  0
SPLINE
  5
BD
330
1F
100
AcDbEntity
  8
0
  6
Continuous
 62
     7
370
    15
100
AcDbSpline
210
0.0
220
0.0
230
1.0
 70
     8
 71
     3
 72
    11
 73
     7
 74
     0
 42
0.00000001
 43
0.00000001
 12
1.0
 22
0.0
 32
0.0
 13
1.0
 23
0.0
 33
0.0
 40
0.0
 40
0.0
 40
0.0
 40
0.0
 40
0.2657623578939129
 40
0.5530068953029385
 40
0.8418291154004263
 40
0.9999999999999999
 40
0.9999999999999999
 40
0.9999999999999999
 40
0.9999999999999999
 10
248.7037962271469
 20
104.3687494908399
 30
0.0
 10
248.7116599555779
 20
104.4026367060712
 30
0.0
 10
248.728023055603
 20
104.473150317683
 30
0.0
 10
248.7082750326445
 20
104.5834480738048
 30
0.0
 10
248.6638146491839
 20
104.6697954602995
 30
0.0
 10
248.623025991483
 20
104.7108711419086
 30
0.0
 10
248.6085927082794
 20
104.7254059900469
 30
0.0
  0
SPLINE
  5
BE
330
1F
100
AcDbEntity
  8
0
  6
Continuous
 62
     7
370
    15
100
AcDbSpline
210
0.0
220
0.0
230
1.0
 70
     8
 71
     3
 72
    12
 73
     8
 74
     0
 42
0.00000001
 43
0.00000001
 12
1.0
 22
0.0
 32
0.0
 13
1.0
 23
0.0
 33
0.0
 40
0.0
 40
0.0
 40
0.0
 40
0.0
 40
0.2057937134144644
 40
0.4120364111609459
 40
0.6141304190961749
 40
0.8132641140596425
 40
1.0
 40
1.0
 40
1.0
 40
1.0
 10
248.6085927082794
 20
104.7254059900469
 30
0.0
 10
248.5641018177438
 20
104.7741150102154
 30
0.0
 10
248.4750229699914
 20
104.871639320013
 30
0.0
 10
248.4107373784153
 20
105.0631343431914
 30
0.0
 10
248.4098010612248
 20
105.2589066318306
 30
0.0
 10
248.4684545829224
 20
105.4403375754356
 30
0.0
 10
248.5476531965479
 20
105.5325306447595
 30
0.0
 10
248.5859801961677
 20
105.5771461193389
 30
0.0
  0
SPLINE
  5
BF
330
1F
100
AcDbEntity
  8
0
  6
Continuous
 62
     7
370
    15
100
AcDbSpline
210
0.0
220
0.0
230
1.0
 70
     8
 71
     3
 72
    11
 73
     7
 74
     0
 42
0.00000001
 43
0.00000001
 12
1.0
 22
0.0
 32
0.0
 13
1.0
 23
0.0
 33
0.0
 40
0.0
 40
0.0
 40
0.0
 40
0.0
 40
0.2802311442793958
 40
0.561286190952064
 40
0.8399921876036005
 40
1.0
 40
1.0
 40
1.0
 40
1.0
 10
248.5859801961677
 20
105.5771461193389
 30
0.0
 10
248.6101522181826
 20
105.6058442248125
 30
0.0
 10
248.6585673299263
 20
105.6633248105277
 30
0.0
 10
248.6887986470736
 20
105.7741842943839
 30
0.0
 10
248.6847043559616
 20
105.8726969425561
 30
0.0
 10
248.6635461980258
 20
105.9281221447548
 30
0.0
 10
248.6558293892639
 20
105.9483368386454
 30
0.0
  0
LWPOLYLINE
  5
C0
330
1F
100
AcDbEntity
  8
0
  6
Continuous
 62
     7
370
    15
100
AcDbPolyline
 90
        3
 70
   128
 43
0.0
 10
248.6808484389
 20
105.8564153005
 10
248.6510535671
 20
105.7626460184
 10
248.5859801962
 20
105.6721168076
  0
SPLINE
  5
C1
330
1F
100
AcDbEntity
  8
0
  6
Continuous
 62
     7
370
    15
100
AcDbSpline
210
0.0
220
0.0
230
1.0
 70
     8
 71
     3
 72
    12
 73
     8
 74
     0
 42
0.00000001
 43
0.00000001
 12
1.0
 22
0.0
 32
0.0
 13
1.0
 23
0.0
 33
0.0
 40
0.0
 40
0.0
 40
0.0
 40
0.0
 40
0.0091741413551608
 40
0.2576797971195918
 40
0.5061904551059054
 40
0.7560339958365212
 40
1.0
 40
1.0
 40
1.0
 40
1.0
 10
245.731610615422
 20
105.9094485332197
 30
0.0
 10
245.730962393154
 20
105.9082426917733
 30
0.0
 10
245.71275537235
 20
105.8743734753252
 30
0.0
 10
245.6886369352233
 20
105.8010381075494
 30
0.0
 10
245.6910194943021
 20
105.688911203022
 30
0.0
 10
245.7283606851913
 20
105.5829235191165
 30
0.0
 10
245.7784794048709
 20
105.5298688916815
 30
0.0
 10
245.8032404972809
 20
105.5036573176211
 30
0.0
  0
SPLINE
  5
C2
330
1F
100
AcDbEntity
  8
0
  6
Continuous
 62
     7
370
    15
100
AcDbSpline
210
0.0
220
0.0
230
1.0
 70
     8
 71
     3
 72
    12
 73
     8
 74
     0
 42
0.00000001
 43
0.00000001
 12
1.0
 22
0.0
 32
0.0
 13
1.0
 23
0.0
 33
0.0
 40
0.0
 40
0.0
 40
0.0
 40
0.0
 40
0.2057520732979714
 40
0.4119602819057792
 40
0.6140155117502798
 40
0.8131408023907332
 40
0.9999999999999999
 40
0.9999999999999999
 40
0.9999999999999999
 40
0.9999999999999999
 10
245.8032404972809
 20
105.5036573176211
 30
0.0
 10
245.8477216025005
 20
105.4563171160455
 30
0.0
 10
245.9367824238671
 20
105.3615317635872
 30
0.0
 10
246.0010804401148
 20
105.1722633219961
 30
0.0
 10
246.0020303584031
 20
104.9763592579853
 30
0.0
 10
245.9434199331346
 20
104.7925869585601
 30
0.0
 10
245.8642028447458
 20
104.6978030749019
 30
0.0
 10
245.8258530093925
 20
104.6519171883291
 30
0.0
  0
SPLINE
  5
C3
330
1F
100
AcDbEntity
  8
0
  6
Continuous
 62
     7
370
    15
100
AcDbSpline
210
0.0
220
0.0
230
1.0
 70
     8
 71
     3
 72
    11
 73
     7
 74
     0
 42
0.00000001
 43
0.00000001
 12
1.0
 22
0.0
 32
0.0
 13
1.0
 23
0.0
 33
0.0
 40
0.0
 40
0.0
 40
0.0
 40
0.0
 40
0.2794056911105572
 40
0.5596259629892476
 40
0.8375013269640341
 40
1.0
 40
1.0
 40
1.0
 40
1.0
 10
245.8258530093925
 20
104.6519171883291
 30
0.0
 10
245.8016777688649
 20
104.6224201031327
 30
0.0
 10
245.7532568071908
 20
104.5633399367882
 30
0.0
 10
245.7230291582698
 20
104.4507405298964
 30
0.0
 10
245.7271334527239
 20
104.350831535945
 30
0.0
 10
245.7485921606968
 20
104.2948564958936
 30
0.0
 10
245.7565104557769
 20
104.2742016230649
 30
0.0
  0
ARC
  5
C4
330
1F
100
AcDbEntity
  8
0
  6
Continuous
 62
     7
370
    15
100
AcDbCircle
 10
246.0250027649
 20
105.8480864141
 30
0.0
 40
0.3337999488726828
100
AcDbArc
 50
186.888903143
 51
228.366999851
  0
ARC
  5
C5
330
1F
100
AcDbEntity
  8
0
  6
Continuous
 62
     7
370
    15
100
AcDbCircle
 10
248.9966401403
 20
105.2567347084
 30
0.0
 40
0.5841094743444774
100
AcDbArc
 50
134.6724662943
 51
179.9874723373
  0
ARC
  5
C6
330
1F
100
AcDbEntity
  8
0
  6
Continuous
 62
     7
370
    15
100
AcDbCircle
 10
245.4150508668
 20
105.1619641237
 30
0.0
 40
0.584244231640239
100
AcDbArc
 50
0.0161909276
 51
48.3613576802
  0
ARC
  5
C7
330
1F
100
AcDbEntity
  8
0
  6
Continuous
 62
     7
370
    15
100
AcDbCircle
 10
248.3858380482
 20
104.5715472681
 30
0.0
 40
0.3348430499992887
100
AcDbArc
 50
254.7152966133
 51
352.5022949162
  0
SPLINE
  5
C8
330
1F
100
AcDbEntity
  8
0
  6
Continuous
 62
     7
370
    15
100
AcDbSpline
210
0.0
220
0.0
230
1.0
 70
     8
 71
     3
 72
    11
 73
     7
 74
     0
 42
0.00000001
 43
0.00000001
 12
1.0
 22
0.0
 32
0.0
 13
1.0
 23
0.0
 33
0.0
 40
0.0
 40
0.0
 40
0.0
 40
0.0
 40
0.2928900887811134
 40
0.5864306379424994
 40
0.8775207024369316
 40
0.9999999999999999
 40
0.9999999999999999
 40
0.9999999999999999
 40
0.9999999999999999
 10
248.2975682212608
 20
104.1535543714589
 30
0.0
 10
248.3349373840933
 20
104.1468196740254
 30
0.0
 10
248.40975870048
 20
104.1333353225107
 30
0.0
 10
248.5219513764598
 20
104.1622210125198
 30
0.0
 10
248.600659055749
 20
104.2117820830658
 30
0.0
 10
248.6360729728556
 20
104.2518777740292
 30
0.0
 10
248.6465608670013
 20
104.2637521837777
 30
0.0
  0
ARC
  5
C9
330
1F
100
AcDbEntity
  8
0
  6
Continuous
 62
     7
370
    15
100
AcDbCircle
 10
246.0615706974
 20
104.5101821338
 30
0.0
 40
0.3348847778510869
100
AcDbArc
 50
186.5454764375
 51
288.3111975033
  0
SPLINE
  5
CA
330
1F
100
AcDbEntity
  8
0
  6
Continuous
 62
     7
370
    15
100
AcDbSpline
210
0.0
220
0.0
230
1.0
 70
     8
 71
     3
 72
    11
 73
     7
 74
     0
 42
0.00000001
 43
0.00000001
 12
1.0
 22
0.0
 32
0.0
 13
1.0
 23
0.0
 33
0.0
 40
0.0
 40
0.0
 40
0.0
 40
0.0
 40
0.2431063086438508
 40
0.5182690579900795
 40
0.7947669679295752
 40
1.0
 40
1.0
 40
1.0
 40
1.0
 10
245.8010649277466
 20
104.2020297114676
 30
0.0
 10
245.8240344252067
 20
104.1782435834146
 30
0.0
 10
245.8730022199035
 20
104.1275348451345
 30
0.0
 10
245.9737598058672
 20
104.0844826569187
 30
0.0
 10
246.0771531153615
 20
104.0737822263198
 30
0.0
 10
246.1400065301896
 20
104.0902620078436
 30
0.0
 10
246.1667841269272
 20
104.0972829301781
 30
0.0
  0
SPLINE
  5
CB
330
1F
100
AcDbEntity
  8
0
  6
Continuous
 62
     7
370
    15
100
AcDbSpline
210
0.0
220
0.0
230
1.0
 70
     8
 71
     3
 72
    11
 73
     7
 74
     0
 42
0.00000001
 43
0.00000001
 12
1.0
 22
0.0
 32
0.0
 13
1.0
 23
0.0
 33
0.0
 40
0.0
 40
0.0
 40
0.0
 40
0.0
 40
0.2669150018430154
 40
0.5546181483502641
 40
0.8439123640786534
 40
1.0
 40
1.0
 40
1.0
 40
1.0
 10
247.3103588415878
 20
103.4463750635213
 30
0.0
 10
247.3437007626703
 20
103.4566694014423
 30
0.0
 10
247.4129813741216
 20
103.4780598313424
 30
0.0
 10
247.4981236330481
 20
103.5509202251811
 30
0.0
 10
247.5497419636652
 20
103.6327969986569
 30
0.0
 10
247.5643376179423
 20
103.6886008318935
 30
0.0
 10
247.5694527818458
 20
103.7081577320522
 30
0.0
  0
SPLINE
  5
CC
330
1F
100
AcDbEntity
  8
0
  6
Continuous
 62
     7
370
    15
100
AcDbSpline
210
0.0
220
0.0
230
1.0
 70
     8
 71
     3
 72
    12
 73
     8
 74
     0
 42
0.00000001
 43
0.00000001
 12
1.0
 22
0.0
 32
0.0
 13
1.0
 23
0.0
 33
0.0
 40
0.0
 40
0.0
 40
0.0
 40
0.0
 40
0.2058403993589416
 40
0.4120608027715464
 40
0.6141367787813553
 40
0.8132752623466581
 40
1.0
 40
1.0
 40
1.0
 40
1.0
 10
247.5694527818458
 20
103.7081577320522
 30
0.0
 10
247.5889119711392
 20
103.771302756168
 30
0.0
 10
247.6278662735331
 20
103.8977093770704
 30
0.0
 10
247.7610255275089
 20
104.0495367404145
 30
0.0
 10
247.9305747203685
 20
104.1481737494884
 30
0.0
 10
248.1183965086615
 20
104.1876353564397
 30
0.0
 10
248.2391391353682
 20
104.1646684070947
 30
0.0
 10
248.2975682212608
 20
104.1535543714589
 30
0.0
  0
SPLINE
  5
CD
330
1F
100
AcDbEntity
  8
0
  6
Continuous
 62
     7
370
    15
100
AcDbSpline
210
0.0
220
0.0
230
1.0
 70
     8
 71
     3
 72
    12
 73
     8
 74
     0
 42
0.00000001
 43
0.00000001
 12
1.0
 22
0.0
 32
0.0
 13
1.0
 23
0.0
 33
0.0
 40
0.0
 40
0.0
 40
0.0
 40
0.0
 40
0.2058129575240198
 40
0.4120164415178733
 40
0.614075566590462
 40
0.8132123720508792
 40
1.0
 40
1.0
 40
1.0
 40
1.0
 10
246.1667841269272
 20
104.0972829301781
 30
0.0
 10
246.2307330807186
 20
104.1123855754274
 30
0.0
 10
246.3587523303174
 20
104.14261952293
 30
0.0
 10
246.5561738677425
 20
104.1040442755865
 30
0.0
 10
246.7266449581972
 20
104.0068618185907
 30
0.0
 10
246.8558365401928
 20
103.8637538172942
 30
0.0
 10
246.8973918406715
 20
103.7473027494558
 30
0.0
 10
246.9175046278732
 20
103.6909403716153
 30
0.0
  0
SPLINE
  5
CE
330
1F
100
AcDbEntity
  8
0
  6
Continuous
 62
     7
370
    15
100
AcDbSpline
210
0.0
220
0.0
230
1.0
 70
     8
 71
     3
 72
    11
 73
     7
 74
     0
 42
0.00000001
 43
0.00000001
 12
1.0
 22
0.0
 32
0.0
 13
1.0
 23
0.0
 33
0.0
 40
0.0
 40
0.0
 40
0.0
 40
0.0
 40
0.2908661484117321
 40
0.583962329444376
 40
0.8745960006634985
 40
1.0
 40
1.0
 40
1.0
 40
1.0
 10
246.9175046278732
 20
103.6909403716153
 30
0.0
 10
246.9305990909595
 20
103.6552769888596
 30
0.0
 10
246.9568884106638
 20
103.5836767968689
 30
0.0
 10
247.0385169373403
 20
103.5007622107035
 30
0.0
 10
247.1215815813146
 20
103.4569546964203
 30
0.0
 10
247.1746131794328
 20
103.4463093138201
 30
0.0
 10
247.1905982090728
 20
103.4431005333489
 30
0.0
  0
ARC
  5
CF
330
1F
100
AcDbEntity
  8
0
  6
Continuous
 62
     7
370
    15
100
AcDbCircle
 10
247.2414335143
 20
103.8719521799
 30
0.0
 40
0.3351570879138283
100
AcDbArc
 50
194.872654639
 51
348.154046504
  0
ARC
  5
D0
330
1F
100
AcDbEntity
  8
0
  6
Continuous
 62
     7
370
    15
100
AcDbCircle
 10
248.1432810812
 20
103.682926273
 30
0.0
 40
0.5862873419490374
100
AcDbArc
 50
74.7423756746
 51
168.1669469853
  0
ARC
  5
D1
330
1F
100
AcDbEntity
  8
0
  6
Continuous
 62
     7
370
    15
100
AcDbCircle
 10
246.3507185611
 20
103.6354173195
 30
0.0
 40
0.5864295158318857
100
AcDbArc
 50
14.8716238375
 51
108.279418767
  0
ARC
  5
D2
330
1F
100
AcDbEntity
  8
0
  6
Continuous
 62
     7
370
    15
100
AcDbCircle
 10
247.2046090259
 20
105.1791828716
 30
0.0
 40
2.625003649739071
100
AcDbArc
 50
0.0989925988
 51
179.9010074012
  0
LINE
  5
D3
330
1F
100
AcDbEntity
  8
0
  6
Continuous
 62
     7
370
    15
100
AcDbLine
 10
240.2522971823
 20
111.5738185559
 30
0.0
 11
243.4551900222
 21
101.4402782981
 31
0.0
  0
LINE
  5
D4
330
1F
100
AcDbEntity
  8
0
  6
Continuous
 62
     7
370
    15
100
AcDbLine
 10
242.034192939
 20
110.3244148632
 30
0.0
 11
240.6147083236
 21
111.703112672
 31
0.0
  0
LINE
  5
D5
330
1F
100
AcDbEntity
  8
0
  6
Continuous
 62
     7
370
    15
100
AcDbLine
 10
243.9933678104
 20
101.7537838285
 30
0.0
 11
243.8176011636
 21
101.5695719485
 31
0.0
  0
SPLINE
  5
D6
330
1F
100
AcDbEntity
  8
0
  6
Continuous
 62
     7
370
    15
100
AcDbSpline
210
0.0
220
0.0
230
1.0
 70
     8
 71
     3
 72
    10
 73
     6
 74
     0
 42
0.00000001
 43
0.00000001
 12
1.0
 22
0.0
 32
0.0
 13
1.0
 23
0.0
 33
0.0
 40
0.0
 40
0.0
 40
0.0
 40
0.0
 40
0.3518050093704894
 40
0.7034183217834665
 40
1.0
 40
1.0
 40
1.0
 40
1.0
 10
243.4365859224098
 20
101.4327969838804
 30
0.0
 10
243.4542566305009
 20
101.3917237171726
 30
0.0
 10
243.4895884179944
 20
101.3095995643942
 30
0.0
 10
243.5849072287569
 20
101.2197503263409
 30
0.0
 10
243.6610137698902
 20
101.1884839510543
 30
0.0
 10
243.6958363248604
 20
101.1741780181354
 30
0.0
  0
LINE
  5
D7
330
1F
100
AcDbEntity
  8
0
  6
Continuous
 62
     7
370
    15
100
AcDbLine
 10
240.2306085421
 20
111.5760879562
 30
0.0
 11
243.4365859224
 21
101.4327969839
 31
0.0
  0
LINE
  5
D8
330
1F
100
AcDbEntity
  8
0
  6
Continuous
 62
     7
370
    15
100
AcDbLine
 10
250.894758661
 20
108.8728056726
 30
0.0
 11
240.7267054512
 21
112.0709732146
 31
0.0
  0
SPLINE
  5
D9
330
1F
100
AcDbEntity
  8
0
  6
Continuous
 62
     7
370
    15
100
AcDbSpline
210
0.0
220
0.0
230
1.0
 70
     8
 71
     3
 72
    10
 73
     6
 74
     0
 42
0.00000001
 43
0.00000001
 12
1.0
 22
0.0
 32
0.0
 13
1.0
 23
0.0
 33
0.0
 40
0.0
 40
0.0
 40
0.0
 40
0.0
 40
0.3517998062522462
 40
0.7034221777855859
 40
1.0
 40
1.0
 40
1.0
 40
1.0
 10
251.154016513993
 20
108.6141862411922
 30
0.0
 10
251.1363461554323
 20
108.6552598988674
 30
0.0
 10
251.1010143505816
 20
108.7373864981946
 30
0.0
 10
251.0056882497358
 20
108.8272309647867
 30
0.0
 10
250.9295808681914
 20
108.8584991928091
 30
0.0
 10
250.8947586609619
 20
108.8728056725985
 30
0.0
  0
LINE
  5
DA
330
1F
100
AcDbEntity
  8
0
  6
Continuous
 62
     7
370
    15
100
AcDbLine
 10
254.3599864437
 20
98.470895036
 30
0.0
 11
251.154016514
 21
108.6141862412
 31
0.0
  0
SPLINE
  5
DB
330
1F
100
AcDbEntity
  8
0
  6
Continuous
 62
     7
370
    15
100
AcDbSpline
210
0.0
220
0.0
230
1.0
 70
     8
 71
     3
 72
    14
 73
    10
 74
     0
 42
0.00000001
 43
0.00000001
 12
1.0
 22
0.0
 32
0.0
 13
1.0
 23
0.0
 33
0.0
 40
0.0
 40
0.0
 40
0.0
 40
0.0
 40
0.1588491702073092
 40
0.3173274282144439
 40
0.4720176585680534
 40
0.6236448892803423
 40
0.7746624195806358
 40
0.9277423666933293
 40
0.9999999999999999
 40
0.9999999999999999
 40
0.9999999999999999
 40
0.9999999999999999
 10
253.8638969852226
 20
97.97601070897045
 30
0.0
 10
253.9089932156179
 20
97.96650250362524
 30
0.0
 10
253.9990803768842
 20
97.94750829455762
 30
0.0
 10
254.1354208712388
 20
97.97793320813368
 30
0.0
 10
254.2513591370095
 20
98.04831829503868
 30
0.0
 10
254.3355212653925
 20
98.15266617723451
 30
0.0
 10
254.3797236268104
 20
98.27787886326814
 30
0.0
 10
254.3819705232264
 20
98.38831343771592
 30
0.0
 10
254.3653242901474
 20
98.45084380343324
 30
0.0
 10
254.3599864436882
 20
98.47089503602447
 30
0.0
  0
LINE
  5
DC
330
1F
100
AcDbEntity
  8
0
  6
Continuous
 62
     7
370
    15
100
AcDbLine
 10
243.6958363249
 20
101.1741780181
 30
0.0
 11
253.8638969852
 21
97.976010709
 31
0.0
  0
ARC
  5
DD
330
1F
100
AcDbEntity
  8
0
  6
Continuous
 62
     7
370
    15
100
AcDbCircle
 10
240.6144073502
 20
111.687506299
 30
0.0
 40
0.3795374508775953
100
AcDbArc
 50
72.4301156881
 51
197.4301498195
  0
ARC
  5
DE
330
1F
100
AcDbEntity
  8
0
  6
Continuous
 62
     7
370
    15
100
AcDbCircle
 10
243.8170357014
 20
101.5548645308
 30
0.0
 40
0.3795553982096159
100
AcDbArc
 50
197.5715131582
 51
252.5692927945
  0
LINE
  5
DF
330
1F
100
AcDbEntity
  8
0
  6
Continuous
 62
     7
370
    15
100
AcDbLine
 10
243.7033390595
 20
101.1927383457
 30
0.0
 11
253.8616245581
 21
97.9976453324
 31
0.0
  0
ARC
  5
E0
330
1F
100
AcDbEntity
  8
0
  6
Continuous
 62
     7
370
    15
100
AcDbCircle
 10
253.9761938194
 20
98.3594785958
 30
0.0
 40
0.3795384383375551
100
AcDbArc
 50
252.4303634872
 51
17.4299861821
  0
LINE
  5
E1
330
1F
100
AcDbEntity
  8
0
  6
Continuous
 62
     7
370
    15
100
AcDbLine
 10
254.3383052542
 20
98.4731656005
 30
0.0
 11
251.1354049637
 21
108.6067053926
 31
0.0
  0
ARC
  5
E2
330
1F
100
AcDbEntity
  8
0
  6
Continuous
 62
     7
370
    15
100
AcDbCircle
 10
250.7735880956
 20
108.4921507821
 30
0.0
 40
0.3795183853326677
100
AcDbArc
 50
17.568275039
 51
72.5709183911
  0
LINE
  5
E3
330
1F
100
AcDbEntity
  8
0
  6
Continuous
 62
     7
370
    15
100
AcDbLine
 10
250.8872633769
 20
108.8542448793
 30
0.0
 11
240.7289778783
 21
112.0493381255
 31
0.0
  0
SPLINE
  5
E4
330
1F
100
AcDbEntity
  8
0
  6
Continuous
 62
     7
370
    15
100
AcDbSpline
210
0.0
220
0.0
230
1.0
 70
     8
 71
     3
 72
    14
 73
    10
 74
     0
 42
0.00000001
 43
0.00000001
 12
1.0
 22
0.0
 32
0.0
 13
1.0
 23
0.0
 33
0.0
 40
0.0
 40
0.0
 40
0.0
 40
0.0
 40
0.1588484633924519
 40
0.317334677913253
 40
0.4720167531560533
 40
0.6236435520984129
 40
0.7746625812510901
 40
0.9277418847724324
 40
1.0
 40
1.0
 40
1.0
 40
1.0
 10
240.7267054511802
 20
112.0709732145941
 30
0.0
 10
240.6816092941095
 20
112.08048101924
 30
0.0
 10
240.5915198203209
 20
112.0994749462853
 30
0.0
 10
240.4551778290915
 20
112.0690529171076
 30
0.0
 10
240.3392416636813
 20
111.9986625233466
 30
0.0
 10
240.2550832900195
 20
111.8943156773129
 30
0.0
 10
240.2108688319333
 20
111.7691062872628
 30
0.0
 10
240.2086248386279
 20
111.6586699640411
 30
0.0
 10
240.2252707571215
 20
111.5961394003952
 30
0.0
 10
240.2306085421341
 20
111.5760879562175
 30
0.0
  0
LINE
  5
E5
330
1F
100
AcDbEntity
  8
0
  6
Continuous
 62
     7
370
    15
100
AcDbLine
 10
250.597234626
 20
108.3415667032
 30
0.0
 11
250.7729938223
 21
108.5080196586
 31
0.0
  0
SPLINE
  5
E6
330
1F
100
AcDbEntity
  8
0
  6
Continuous
 62
     7
370
    15
100
AcDbSpline
210
0.0
220
0.0
230
1.0
 70
     8
 71
     3
 72
    11
 73
     7
 74
     0
 42
0.00000001
 43
0.00000001
 12
1.0
 22
0.0
 32
0.0
 13
1.0
 23
0.0
 33
0.0
 40
0.0
 40
0.0
 40
0.0
 40
0.0
 40
0.0072970386478794
 40
0.1268425069377022
 40
0.5874252039710403
 40
1.0
 40
1.0
 40
1.0
 40
1.0
 10
242.5203656746643
 20
109.8316097137457
 30
0.0
 10
242.5193056820528
 20
109.8327280281699
 30
0.0
 10
242.5008801087944
 20
109.852167394185
 30
0.0
 10
242.413561549767
 20
109.9437017555245
 30
0.0
 10
242.2497827963021
 20
110.1123781064927
 30
0.0
 10
242.1033729247043
 20
110.2563750212878
 30
0.0
 10
242.0341929389732
 20
110.3244148631519
 30
0.0
  0
ARC
  5
E7
330
1F
100
AcDbEntity
  8
0
  6
Continuous
 62
     7
370
    15
100
AcDbCircle
 10
244.0135497632
 20
108.2956606851
 30
0.0
 40
0.9987819077785667
100
AcDbArc
 50
72.4299240814
 51
197.4302529509
  0
LINE
  5
E8
330
1F
100
AcDbEntity
  8
0
  6
Continuous
 62
     7
370
    15
100
AcDbLine
 10
252.5564020468
 20
99.8278394778
 30
0.0
 11
253.9758866622
 21
98.3744789352
 31
0.0
  0
LINE
  5
E9
330
1F
100
AcDbEntity
  8
0
  6
Continuous
 62
     7
370
    15
100
AcDbLine
 10
249.303962846
 20
107.6786820282
 30
0.0
 11
244.3150540783
 21
109.2478478764
 31
0.0
  0
LINE
  5
EA
330
1F
100
AcDbEntity
  8
0
  6
Continuous
 62
     7
370
    15
100
AcDbLine
 10
251.5299728109
 20
102.0505022694
 30
0.0
 11
249.956976433
 21
107.0272610028
 31
0.0
  0
ARC
  5
EB
330
1F
100
AcDbEntity
  8
0
  6
Continuous
 62
     7
370
    15
100
AcDbCircle
 10
250.5770458275
 20
101.7513294024
 30
0.0
 40
0.9987863835817493
100
AcDbArc
 50
252.430417305
 51
17.4297597274
  0
LINE
  5
EC
330
1F
100
AcDbEntity
  8
0
  6
Continuous
 62
     7
370
    15
100
AcDbLine
 10
245.2866395904
 20
102.3683011969
 30
0.0
 11
250.2755483581
 21
100.7991353487
 31
0.0
  0
ARC
  5
ED
330
1F
100
AcDbEntity
  8
0
  6
Continuous
 62
     7
370
    15
100
AcDbCircle
 10
245.5858011
 20
103.3212096153
 30
0.0
 40
0.9987652690543537
100
AcDbArc
 50
197.5693598914
 51
252.5705428868
  0
LINE
  5
EE
330
1F
100
AcDbEntity
  8
0
  6
Continuous
 62
     7
370
    15
100
AcDbLine
 10
243.0606296255
 20
107.9964809556
 30
0.0
 11
244.6336260034
 21
103.0197222223
 31
0.0
  0
ARC
  5
EF
330
1F
100
AcDbEntity
  8
0
  6
Continuous
 62
     7
370
    15
100
AcDbCircle
 10
249.0047625028
 20
106.7257346812
 30
0.0
 40
0.9988140424935934
100
AcDbArc
 50
17.5708163768
 51
72.5690864014
  0
CIRCLE
  5
F0
330
1F
100
AcDbEntity
  8
0
  6
Continuous
 62
     7
370
    15
100
AcDbCircle
 10
247.2989957084
 20
105.0183959605
 30
0.0
 40
3.046992250525665
  0
SPLINE
  5
F1
330
1F
100
AcDbEntity
  8
0
  6
Continuous
 62
     7
370
    15
100
AcDbSpline
210
0.0
220
0.0
230
1.0
 70
     8
 71
     3
 72
    11
 73
     7
 74
     0
 42
0.00000001
 43
0.00000001
 12
1.0
 22
0.0
 32
0.0
 13
1.0
 23
0.0
 33
0.0
 40
0.0
 40
0.0
 40
0.0
 40
0.0
 40
0.0092130259419561
 40
0.3448516747789676
 40
0.672230394501255
 40
0.9999999999999999
 40
0.9999999999999999
 40
0.9999999999999999
 40
0.9999999999999999
 10
250.1047736002701
 20
107.848585068149
 30
0.0
 10
250.1061358514403
 20
107.8500214167048
 30
0.0
 10
250.157126112457
 20
107.9037852081185
 30
0.0
 10
250.2663968205941
 20
108.0167216554192
 30
0.0
 10
250.4396176385885
 20
108.1904112713582
 30
0.0
 10
250.5446747365331
 20
108.29116152213
 30
0.0
 10
250.5972346259849
 20
108.3415667031831
 30
0.0
  0
ARC
  5
F2
330
1F
100
AcDbEntity
  8
0
  6
Continuous
 62
     7
370
    15
100
AcDbCircle
 10
247.2953012182
 20
105.09883432
 30
0.0
 40
3.050004781339282
100
AcDbArc
 50
180.1068723435
 51
359.8931276565
  0
SPLINE
  5
F3
330
1F
100
AcDbEntity
  8
0
  6
Continuous
 62
     7
370
    15
100
AcDbSpline
210
0.0
220
0.0
230
1.0
 70
     8
 71
     3
 72
    11
 73
     7
 74
     0
 42
0.00000001
 43
0.00000001
 12
1.0
 22
0.0
 32
0.0
 13
1.0
 23
0.0
 33
0.0
 40
0.0
 40
0.0
 40
0.0
 40
0.0
 40
0.3277696877853182
 40
0.6551483166694219
 40
0.9907874088985542
 40
1.0
 40
1.0
 40
1.0
 40
1.0
 10
243.9933678104179
 20
101.7537838284797
 30
0.0
 10
244.0459275985947
 20
101.8082407979713
 30
0.0
 10
244.1509844663643
 20
101.9170897648616
 30
0.0
 10
244.3242068426899
 20
102.08902298211
 30
0.0
 10
244.4334738719456
 20
102.1940569648266
 30
0.0
 10
244.4844665838187
 20
102.2420441290764
 30
0.0
 10
244.4858288361328
 20
102.2433260892457
 30
0.0
  0
SPLINE
  5
F4
330
1F
100
AcDbEntity
  8
0
  6
Continuous
 62
     7
370
    15
100
AcDbSpline
210
0.0
220
0.0
230
1.0
 70
     8
 71
     3
 72
    11
 73
     7
 74
     0
 42
0.00000001
 43
0.00000001
 12
1.0
 22
0.0
 32
0.0
 13
1.0
 23
0.0
 33
0.0
 40
0.0
 40
0.0
 40
0.0
 40
0.0
 40
0.4125681241410747
 40
0.8731507940008411
 40
0.9926967132295712
 40
1.0
 40
1.0
 40
1.0
 40
1.0
 10
252.556402046849
 20
99.82783947781982
 30
0.0
 10
252.4872295981345
 20
99.89781727234957
 30
0.0
 10
252.3408344333509
 20
100.0459168546508
 30
0.0
 10
252.1769950182859
 20
100.2040101150114
 30
0.0
 10
252.0897465746493
 20
100.2866788394321
 30
0.0
 10
252.0712918346289
 20
100.3040094531398
 30
0.0
 10
252.070229311158
 20
100.3050072555369
 30
0.0
  0
LINE
  5
F5
330
1F
100
AcDbEntity
  8
0
  6
HIDDEN
 62
     7
370
     0
100
AcDbLine
 10
184.3758894099
 20
90.5601498176
 30
0.0
 11
184.3758894099
 21
139.3601488759
 31
0.0
  0
SPLINE
  5
F6
330
1F
100
AcDbEntity
  8
0
  6
HIDDEN
 62
     7
370
     0
100
AcDbSpline
210
0.0
220
0.0
230
1.0
 70
     8
 71
     3
 72
    58
 73
    54
 74
     0
 42
0.00000001
 43
0.00000001
 12
1.0
 22
0.0
 32
0.0
 13
1.0
 23
0.0
 33
0.0
 40
-0.0624999999999996
 40
-0.0624999999999996
 40
0.0
 40
0.0
 40
0.03125
 40
0.03125
 40
0.0625000000000001
 40
0.0625000000000001
 40
0.0937500000000001
 40
0.0937500000000001
 40
0.1250000000000001
 40
0.1250000000000001
 40
0.1875000000000002
 40
0.1875000000000002
 40
0.2500000000000003
 40
0.2500000000000003
 40
0.2812500000000003
 40
0.2812500000000003
 40
0.3125000000000003
 40
0.3125000000000003
 40
0.3437500000000003
 40
0.3437500000000003
 40
0.3750000000000004
 40
0.3750000000000004
 40
0.4062500000000004
 40
0.4062500000000004
 40
0.4375000000000004
 40
0.4375000000000004
 40
0.4687500000000004
 40
0.4687500000000004
 40
0.5000000000000004
 40
0.5000000000000004
 40
0.5625000000000004
 40
0.5625000000000004
 40
0.6250000000000006
 40
0.6250000000000006
 40
0.6562500000000006
 40
0.6562500000000006
 40
0.6875000000000006
 40
0.6875000000000006
 40
0.7187500000000006
 40
0.7187500000000006
 40
0.7500000000000007
 40
0.7500000000000007
 40
0.7812500000000007
 40
0.7812500000000007
 40
0.8125000000000007
 40
0.8125000000000007
 40
0.8437500000000007
 40
0.8437500000000007
 40
0.8750000000000007
 40
0.8750000000000007
 40
0.9375000000000004
 40
0.9375000000000004
 40
1.0
 40
1.0
 40
1.03125
 40
1.03125
 10
174.3758898569839
 20
114.6957769762081
 30
0.0
 10
174.3758898569839
 20
115.0923355320233
 30
0.0
 10
174.3888657489944
 20
115.2223022715681
 30
0.0
 10
174.4396980511003
 20
115.4779816097002
 30
0.0
 10
174.4781751224217
 20
115.6050227015416
 30
0.0
 10
174.5785800835781
 20
115.8472008874822
 30
0.0
 10
174.6400143258974
 20
115.9620545460717
 30
0.0
 10
174.7851485920791
 20
116.1794196678775
 30
0.0
 10
174.8695905132265
 20
116.2822951399618
 30
0.0
 10
175.1462625428363
 20
116.5589130923789
 30
0.0
 10
175.3693086978045
 20
116.7079052122118
 30
0.0
 10
175.8505726963489
 20
116.9074290072031
 30
0.0
 10
176.1138305516687
 20
116.9600078717053
 30
0.0
 10
176.5052965829535
 20
116.9602196452929
 30
0.0
 10
176.637845326567
 20
116.9472286737034
 30
0.0
 10
176.8943896355823
 20
116.8961924504137
 30
0.0
 10
177.019085521954
 20
116.8584309090108
 30
0.0
 10
177.2612884923878
 20
116.7582713697174
 30
0.0
 10
177.3783518556384
 20
116.6956735599669
 30
0.0
 10
177.5950381748845
 20
116.5509515759313
 30
0.0
 10
177.6960521429522
 20
116.468327470763
 30
0.0
 10
177.8828453372377
 20
116.281707100152
 30
0.0
 10
177.965645701192
 20
116.1806587322608
 30
0.0
 10
178.1105241400866
 20
115.9641467113869
 30
0.0
 10
178.1731749234139
 20
115.847257356188
 30
0.0
 10
178.2736153177879
 20
115.604999954129
 30
0.0
 10
178.3114743295578
 20
115.4803372893137
 30
0.0
 10
178.3627120340213
 20
115.2240060936589
 30
0.0
 10
178.3758424087944
 20
115.0914181543085
 30
0.0
 10
178.3759843592333
 20
114.6997864857391
 30
0.0
 10
178.3236434429852
 20
114.4365736527049
 30
0.0
 10
178.1245132162472
 20
113.9550663220136
 30
0.0
 10
177.9756761286048
 20
113.731865840738
 30
0.0
 10
177.6993640920654
 20
113.4550197607763
 30
0.0
 10
177.5965985548142
 20
113.3705076665575
 30
0.0
 10
177.3792816224604
 20
113.225129069826
 30
0.0
 10
177.2644947119235
 20
113.1636136382242
 30
0.0
 10
177.0225752218176
 20
113.0630575779786
 30
0.0
 10
176.8954483193176
 20
113.024418852144
 30
0.0
 10
176.6397794836814
 20
112.9733539852566
 30
0.0
 10
176.5098842783034
 20
112.9602795048803
 30
0.0
 10
176.2458094958791
 20
112.9600211036067
 30
0.0
 10
176.1154803563937
 20
112.9728971715697
 30
0.0
 10
175.8597910422499
 20
113.0234959628977
 30
0.0
 10
175.7328631758622
 20
113.0618013087353
 30
0.0
 10
175.4904108870201
 20
113.1620571411552
 30
0.0
 10
175.3754941930385
 20
113.2234081600673
 30
0.0
 10
175.158103401268
 20
113.3682769956375
 30
0.0
 10
175.0551181215865
 20
113.4526409489068
 30
0.0
 10
174.7781537539292
 20
113.7291670026929
 30
0.0
 10
174.6290214755707
 20
113.9520268446886
 30
0.0
 10
174.4290693568563
 20
114.4331293647494
 30
0.0
 10
174.3758898569839
 20
114.6957769762081
 30
0.0
 10
174.3758898569839
 20
115.0923355320233
 30
0.0
  0
SPLINE
  5
F7
330
1F
100
AcDbEntity
  8
0
  6
HIDDEN
 62
     7
370
     0
100
AcDbSpline
210
0.0
220
0.0
230
1.0
 70
     8
 71
     3
 72
    12
 73
     8
 74
     0
 42
0.00000001
 43
0.00000001
 12
1.0
 22
0.0
 32
0.0
 13
1.0
 23
0.0
 33
0.0
 40
0.0
 40
0.0
 40
0.0
 40
0.0
 40
0.2499999999999982
 40
0.2499999999999982
 40
0.4999999999999963
 40
0.4999999999999963
 40
1.0
 40
1.0
 40
1.0
 40
1.0
 10
172.9036466705504
 20
107.391339377571
 30
0.0
 10
172.8399814340198
 20
107.391339377571
 30
0.0
 10
172.7803752017965
 20
107.3652672290913
 30
0.0
 10
172.6817146768657
 20
107.2897284782702
 30
0.0
 10
172.6427476868504
 20
107.242477541174
 30
0.0
 10
172.5433608549259
 20
107.0906537232075
 30
0.0
 10
172.5012846075025
 20
106.9778504734425
 30
0.0
 10
172.4706339686581
 20
106.8636963487074
 30
0.0
  0
LINE
  5
F8
330
1F
100
AcDbEntity
  8
0
  6
HIDDEN
 62
     7
370
     0
100
AcDbLine
 10
175.8481327413
 20
107.3913392116
 30
0.0
 11
172.9036465256
 21
107.3913392116
 31
0.0
  0
SPLINE
  5
F9
330
1F
100
AcDbEntity
  8
0
  6
HIDDEN
 62
     7
370
     0
100
AcDbSpline
210
0.0
220
0.0
230
1.0
 70
     8
 71
     3
 72
    12
 73
     8
 74
     0
 42
0.00000001
 43
0.00000001
 12
1.0
 22
0.0
 32
0.0
 13
1.0
 23
0.0
 33
0.0
 40
0.0
 40
0.0
 40
0.0
 40
0.0
 40
0.5
 40
0.5
 40
0.75
 40
0.75
 40
1.0
 40
1.0
 40
1.0
 40
1.0
 10
176.2811457453097
 20
106.8636963487074
 30
0.0
 10
176.2504463619424
 20
106.9780320157713
 30
0.0
 10
176.2090962938358
 20
107.0893853686126
 30
0.0
 10
176.1093403656164
 20
107.2421221408613
 30
0.0
 10
176.0696434478837
 20
107.2899820267135
 30
0.0
 10
175.972385296236
 20
107.3645851400629
 30
0.0
 10
175.9116091382454
 20
107.391339377571
 30
0.0
 10
175.8481330434174
 20
107.391339377571
 30
0.0
  0
ELLIPSE
  5
FA
330
1F
100
AcDbEntity
  8
0
  6
HIDDEN
 62
     7
370
     0
100
AcDbEllipse
 10
163.319632202
 20
114.9601493468
 30
0.0
 11
-11.70927234972711
 21
24.67718644093745
 31
0.0
210
0.0
220
0.0
230
1.0
 40
0.3419987131
 41
3.310521928178963
 42
4.221709151398952
  0
SPLINE
  5
FB
330
1F
100
AcDbEntity
  8
0
  6
HIDDEN
 62
     7
370
     0
100
AcDbSpline
210
0.0
220
0.0
230
1.0
 70
     8
 71
     3
 72
    12
 73
     8
 74
     0
 42
0.00000001
 43
0.00000001
 12
1.0
 22
0.0
 32
0.0
 13
1.0
 23
0.0
 33
0.0
 40
0.0
 40
0.0
 40
0.0
 40
0.0
 40
0.2500000000000016
 40
0.2500000000000016
 40
0.5000000000000032
 40
0.5000000000000032
 40
1.0
 40
1.0
 40
1.0
 40
1.0
 10
175.8481330434174
 20
91.13341823124964
 30
0.0
 10
175.911798279948
 20
91.13341823124962
 30
0.0
 10
175.9714045121713
 20
91.14168300691553
 30
0.0
 10
176.0700650371022
 20
91.16590178849866
 30
0.0
 10
176.1090320271174
 20
91.18115910780782
 30
0.0
 10
176.2084188590419
 20
91.23079246206974
 30
0.0
 10
176.2504951064653
 20
91.26843217024386
 30
0.0
 10
176.2811457453097
 20
91.30750786952
 30
0.0
  0
LINE
  5
FC
330
1F
100
AcDbEntity
  8
0
  6
HIDDEN
 62
     7
370
     0
100
AcDbLine
 10
172.9036465256
 20
91.1334179779
 30
0.0
 11
175.8481327413
 21
91.1334179779
 31
0.0
  0
SPLINE
  5
FD
330
1F
100
AcDbEntity
  8
0
  6
HIDDEN
 62
     7
370
     0
100
AcDbSpline
210
0.0
220
0.0
230
1.0
 70
     8
 71
     3
 72
    12
 73
     8
 74
     0
 42
0.00000001
 43
0.00000001
 12
1.0
 22
0.0
 32
0.0
 13
1.0
 23
0.0
 33
0.0
 40
0.0
 40
0.0
 40
0.0
 40
0.0
 40
0.5000000000000032
 40
0.5000000000000032
 40
0.7500000000000016
 40
0.7500000000000016
 40
1.0
 40
1.0
 40
1.0
 40
1.0
 10
172.4706339686581
 20
91.30750786952
 30
0.0
 10
172.5013333520255
 20
91.26837002712409
 30
0.0
 10
172.5426834201319
 20
91.2312102443986
 30
0.0
 10
172.6424393483514
 20
91.18127373877086
 30
0.0
 10
172.6821362660841
 20
91.1658208686271
 30
0.0
 10
172.7793944177317
 20
91.14190132502804
 30
0.0
 10
172.8401705757224
 20
91.13341823124962
 30
0.0
 10
172.9036466705504
 20
91.13341823124962
 30
0.0
  0
ELLIPSE
  5
FE
330
1F
100
AcDbEntity
  8
0
  6
HIDDEN
 62
     7
370
     0
100
AcDbEllipse
 10
185.432147512
 20
114.9601493468
 30
0.0
 11
11.70927234972703
 21
24.67718644093745
 31
0.0
210
0.0
220
0.0
230
1.0
 40
0.3419987131
 41
2.061476155780649
 42
2.972663379000666
  0
SPLINE
  5
FF
330
1F
100
AcDbEntity
  8
0
  6
HIDDEN
 62
     7
370
     0
100
AcDbSpline
210
0.0
220
0.0
230
1.0
 70
     8
 71
     3
 72
    12
 73
     8
 74
     0
 42
0.00000001
 43
0.00000001
 12
1.0
 22
0.0
 32
0.0
 13
1.0
 23
0.0
 33
0.0
 40
0.0
 40
0.0
 40
0.0
 40
0.0
 40
0.2500000000000009
 40
0.2500000000000009
 40
0.5000000000000019
 40
0.5000000000000019
 40
1.0
 40
1.0
 40
1.0
 40
1.0
 10
172.9036466705504
 20
138.7868804622537
 30
0.0
 10
172.8399814340198
 20
138.7868804622537
 30
0.0
 10
172.7803752017965
 20
138.7786156865878
 30
0.0
 10
172.6817146768657
 20
138.7543969050046
 30
0.0
 10
172.6427476868504
 20
138.7391395856955
 30
0.0
 10
172.5433608549259
 20
138.6895062314336
 30
0.0
 10
172.5012846075025
 20
138.6518665232595
 30
0.0
 10
172.4706339686581
 20
138.6127908239833
 30
0.0
  0
LINE
  5
100
330
1F
100
AcDbEntity
  8
0
  6
HIDDEN
 62
     7
370
     0
100
AcDbLine
 10
175.8481327413
 20
138.7868807157
 30
0.0
 11
172.9036465256
 21
138.7868807157
 31
0.0
  0
SPLINE
  5
101
330
1F
100
AcDbEntity
  8
0
  6
HIDDEN
 62
     7
370
     0
100
AcDbSpline
210
0.0
220
0.0
230
1.0
 70
     8
 71
     3
 72
    12
 73
     8
 74
     0
 42
0.00000001
 43
0.00000001
 12
1.0
 22
0.0
 32
0.0
 13
1.0
 23
0.0
 33
0.0
 40
0.0
 40
0.0
 40
0.0
 40
0.0
 40
0.5
 40
0.5
 40
0.75
 40
0.75
 40
1.0
 40
1.0
 40
1.0
 40
1.0
 10
176.2811457453097
 20
138.6127908239833
 30
0.0
 10
176.2504463619424
 20
138.6519286663792
 30
0.0
 10
176.2090962938358
 20
138.6890884491047
 30
0.0
 10
176.1093403656164
 20
138.7390249547325
 30
0.0
 10
176.0696434478837
 20
138.7544778248762
 30
0.0
 10
175.972385296236
 20
138.7783973684753
 30
0.0
 10
175.9116091382454
 20
138.7868804622537
 30
0.0
 10
175.8481330434174
 20
138.7868804622537
 30
0.0
  0
ELLIPSE
  5
102
330
1F
100
AcDbEntity
  8
0
  6
HIDDEN
 62
     7
370
     0
100
AcDbEllipse
 10
163.319632202
 20
114.9601493468
 30
0.0
 11
11.70927234972726
 21
24.67718644093748
 31
0.0
210
0.0
220
0.0
230
1.0
 40
0.3419987131
 41
5.203068809370468
 42
6.114256032590514
  0
SPLINE
  5
103
330
1F
100
AcDbEntity
  8
0
  6
HIDDEN
 62
     7
370
     0
100
AcDbSpline
210
0.0
220
0.0
230
1.0
 70
     8
 71
     3
 72
    12
 73
     8
 74
     0
 42
0.00000001
 43
0.00000001
 12
1.0
 22
0.0
 32
0.0
 13
1.0
 23
0.0
 33
0.0
 40
0.0
 40
0.0
 40
0.0
 40
0.0
 40
0.2500000000000007
 40
0.2500000000000007
 40
0.5000000000000014
 40
0.5000000000000014
 40
1.0
 40
1.0
 40
1.0
 40
1.0
 10
175.8481330434174
 20
122.5289593159325
 30
0.0
 10
175.911798279948
 20
122.5289593159325
 30
0.0
 10
175.9714045121713
 20
122.5550314644123
 30
0.0
 10
176.0700650371022
 20
122.6305702152333
 30
0.0
 10
176.1090320271174
 20
122.6778211523296
 30
0.0
 10
176.2084188590419
 20
122.829644970296
 30
0.0
 10
176.2504951064653
 20
122.9424482200611
 30
0.0
 10
176.2811457453097
 20
123.0566023447961
 30
0.0
  0
LINE
  5
104
330
1F
100
AcDbEntity
  8
0
  6
HIDDEN
 62
     7
370
     0
100
AcDbLine
 10
172.9036465256
 20
122.5289594819
 30
0.0
 11
175.8481327413
 21
122.5289594819
 31
0.0
  0
SPLINE
  5
105
330
1F
100
AcDbEntity
  8
0
  6
HIDDEN
 62
     7
370
     0
100
AcDbSpline
210
0.0
220
0.0
230
1.0
 70
     8
 71
     3
 72
    12
 73
     8
 74
     0
 42
0.00000001
 43
0.00000001
 12
1.0
 22
0.0
 32
0.0
 13
1.0
 23
0.0
 33
0.0
 40
0.0
 40
0.0
 40
0.0
 40
0.0
 40
0.4999999999999987
 40
0.4999999999999987
 40
0.7499999999999993
 40
0.7499999999999993
 40
1.0
 40
1.0
 40
1.0
 40
1.0
 10
172.4706339686581
 20
123.0566023447962
 30
0.0
 10
172.5013333520255
 20
122.9422666777323
 30
0.0
 10
172.542683420132
 20
122.8309133248909
 30
0.0
 10
172.6424393483514
 20
122.6781765526422
 30
0.0
 10
172.6821362660841
 20
122.6303166667901
 30
0.0
 10
172.7793944177317
 20
122.5557135534406
 30
0.0
 10
172.8401705757224
 20
122.5289593159325
 30
0.0
 10
172.9036466705504
 20
122.5289593159325
 30
0.0
  0
ELLIPSE
  5
106
330
1F
100
AcDbEntity
  8
0
  6
HIDDEN
 62
     7
370
     0
100
AcDbEllipse
 10
185.432147512
 20
114.9601493468
 30
0.0
 11
-11.70927234972711
 21
24.67718644093745
 31
0.0
210
0.0
220
0.0
230
1.0
 40
0.3419987131
 41
0.1689292745891145
 42
1.080116497809133
  0
LINE
  5
107
330
1F
100
AcDbEntity
  8
0
  6
HIDDEN
 62
     7
370
     0
100
AcDbLine
 10
164.375889857
 20
139.6601502289
 30
0.0
 11
164.375889857
 21
90.2601484646
 31
0.0
  0
LINE
  5
108
330
1F
100
AcDbEntity
  8
0
  6
HIDDEN
 62
     7
370
     0
100
AcDbLine
 10
164.375889857
 20
95.4101499607
 30
0.0
 11
164.375889857
 21
134.4920475473
 31
0.0
  0
SPLINE
  5
109
330
1F
100
AcDbEntity
  8
0
  6
HIDDEN
 62
     7
370
     0
100
AcDbSpline
210
0.0
220
0.0
230
1.0
 70
     8
 71
     3
 72
    14
 73
    10
 74
     0
 42
0.00000001
 43
0.00000001
 12
1.0
 22
0.0
 32
0.0
 13
1.0
 23
0.0
 33
0.0
 40
0.0
 40
0.0
 40
0.0
 40
0.0
 40
0.25
 40
0.25
 40
0.5
 40
0.5
 40
0.75
 40
0.75
 40
1.0
 40
1.0
 40
1.0
 40
1.0
 10
163.3350288288555
 20
127.254624891825
 30
0.0
 10
163.3667439631863
 20
127.1968417094818
 30
0.0
 10
163.4013584884866
 20
127.1404290484069
 30
0.0
 10
163.481029683902
 20
127.0328295983915
 30
0.0
 10
163.5260855609324
 20
126.9809169714704
 30
0.0
 10
163.6366399734378
 20
126.8947183467732
 30
0.0
 10
163.7040253876419
 20
126.8606289268015
 30
0.0
 10
163.85465490754
 20
126.8585265347847
 30
0.0
 10
163.9244821443054
 20
126.8918983076294
 30
0.0
 10
163.9809129681088
 20
126.9357109761801
 30
0.0
  0
SPLINE
  5
10A
330
1F
100
AcDbEntity
  8
0
  6
HIDDEN
 62
     7
370
     0
100
AcDbSpline
210
0.0
220
0.0
230
1.0
 70
     8
 71
     3
 72
    16
 73
    12
 74
     0
 42
0.00000001
 43
0.00000001
 12
1.0
 22
0.0
 32
0.0
 13
1.0
 23
0.0
 33
0.0
 40
0.0
 40
0.0
 40
0.0
 40
0.0
 40
0.0624999999999978
 40
0.0624999999999978
 40
0.1249999999999956
 40
0.1249999999999956
 40
0.2499999999999952
 40
0.2499999999999952
 40
0.4999999999999951
 40
0.4999999999999951
 40
1.0
 40
1.0
 40
1.0
 40
1.0
 10
163.980912968077
 20
126.9357109762107
 30
0.0
 10
163.9926472025239
 20
126.9448213894586
 30
0.0
 10
164.0061789580029
 20
126.952898745405
 30
0.0
 10
164.0361664184327
 20
126.9611455870819
 30
0.0
 10
164.051161124841
 20
126.9602182694944
 30
0.0
 10
164.0869015472358
 20
126.9474517499626
 30
0.0
 10
164.100914884237
 20
126.9298031034523
 30
0.0
 10
164.1350589730184
 20
126.8751501834207
 30
0.0
 10
164.1460308771367
 20
126.8337505157622
 30
0.0
 10
164.171876417403
 20
126.7052607720394
 30
0.0
 10
164.1758898569839
 20
126.6146426844007
 30
0.0
 10
164.1758898569839
 20
126.5224235798466
 30
0.0
  0
LINE
  5
10B
330
1F
100
AcDbEntity
  8
0
  6
HIDDEN
 62
     7
370
     0
100
AcDbLine
 10
164.175889862
 20
103.3978755091
 30
0.0
 11
164.175889862
 21
126.5224231844
 31
0.0
  0
SPLINE
  5
10C
330
1F
100
AcDbEntity
  8
0
  6
HIDDEN
 62
     7
370
     0
100
AcDbSpline
210
0.0
220
0.0
230
1.0
 70
     8
 71
     3
 72
    16
 73
    12
 74
     0
 42
0.00000001
 43
0.00000001
 12
1.0
 22
0.0
 32
0.0
 13
1.0
 23
0.0
 33
0.0
 40
0.0
 40
0.0
 40
0.0
 40
0.0
 40
0.4999999999999943
 40
0.4999999999999943
 40
0.7499999999999939
 40
0.7499999999999939
 40
0.8749999999999959
 40
0.8749999999999959
 40
0.9374999999999979
 40
0.9374999999999979
 40
1.0
 40
1.0
 40
1.0
 40
1.0
 10
164.1758898569839
 20
103.3978751136566
 30
0.0
 10
164.1758898569839
 20
103.3052912627526
 30
0.0
 10
164.1718325548689
 20
103.2150788068924
 30
0.0
 10
164.1461753120741
 20
103.087137679774
 30
0.0
 10
164.1348598663319
 20
103.0447244653621
 30
0.0
 10
164.1008284990233
 20
102.9904104219109
 30
0.0
 10
164.0869495178195
 20
102.9728290865211
 30
0.0
 10
164.0510138360521
 20
102.9600453985861
 30
0.0
 10
164.0360635167893
 20
102.959169900438
 30
0.0
 10
164.0061650040475
 20
102.9674153355574
 30
0.0
 10
163.9926321436823
 20
102.9754889957291
 30
0.0
 10
163.9809129681082
 20
102.9845877173233
 30
0.0
  0
SPLINE
  5
10D
330
1F
100
AcDbEntity
  8
0
  6
HIDDEN
 62
     7
370
     0
100
AcDbSpline
210
0.0
220
0.0
230
1.0
 70
     8
 71
     3
 72
    14
 73
    10
 74
     0
 42
0.00000001
 43
0.00000001
 12
1.0
 22
0.0
 32
0.0
 13
1.0
 23
0.0
 33
0.0
 40
0.0
 40
0.0
 40
0.0
 40
0.0
 40
0.25
 40
0.25
 40
0.5
 40
0.5
 40
0.75
 40
0.75
 40
1.0
 40
1.0
 40
1.0
 40
1.0
 10
163.9809129681151
 20
102.9845877173318
 30
0.0
 10
163.9244572035063
 20
103.0284197498265
 30
0.0
 10
163.8535915772564
 20
103.0617507862484
 30
0.0
 10
163.7051344960838
 20
103.0596917761009
 30
0.0
 10
163.6359411367763
 20
103.0250957516992
 30
0.0
 10
163.5262256986421
 20
102.9394303950364
 30
0.0
 10
163.4809811193107
 20
102.8874079503284
 30
0.0
 10
163.4013544098869
 20
102.7798596899984
 30
0.0
 10
163.3667442613535
 20
102.7234575272654
 30
0.0
 10
163.3350288288543
 20
102.6656738016759
 30
0.0
  0
SPLINE
  5
10E
330
1F
100
AcDbEntity
  8
0
  6
HIDDEN
 62
     7
370
     0
100
AcDbSpline
210
0.0
220
0.0
230
1.0
 70
     8
 71
     3
 72
    10
 73
     6
 74
     0
 42
0.00000001
 43
0.00000001
 12
1.0
 22
0.0
 32
0.0
 13
1.0
 23
0.0
 33
0.0
 40
0.0
 40
0.0
 40
0.0
 40
0.0
 40
0.5
 40
0.5
 40
1.0
 40
1.0
 40
1.0
 40
1.0
 10
163.3350288288548
 20
102.6656738016769
 30
0.0
 10
163.2632490409314
 20
102.534895084775
 30
0.0
 10
163.2107895266233
 20
102.4007949352718
 30
0.0
 10
163.1214464625221
 20
102.1327023722831
 30
0.0
 10
163.0854508530224
 20
101.9984570006942
 30
0.0
 10
163.0545695134243
 20
101.8651026232192
 30
0.0
  0
SPLINE
  5
10F
330
1F
100
AcDbEntity
  8
0
  6
HIDDEN
 62
     7
370
     0
100
AcDbSpline
210
0.0
220
0.0
230
1.0
 70
     8
 71
     3
 72
    10
 73
     6
 74
     0
 42
0.00000001
 43
0.00000001
 12
1.0
 22
0.0
 32
0.0
 13
1.0
 23
0.0
 33
0.0
 40
0.0
 40
0.0
 40
0.0
 40
0.0
 40
0.5
 40
0.5
 40
1.0
 40
1.0
 40
1.0
 40
1.0
 10
163.0545695134243
 20
97.66323947874676
 30
0.0
 10
163.0854425452366
 20
97.64695633137964
 30
0.0
 10
163.1214294081495
 20
97.63469874165406
 30
0.0
 10
163.2107639940406
 20
97.61759575282534
 30
0.0
 10
163.2632198534632
 20
97.61279615696697
 30
0.0
 10
163.3350288288555
 20
97.61099206555905
 30
0.0
  0
SPLINE
  5
110
330
1F
100
AcDbEntity
  8
0
  6
HIDDEN
 62
     7
370
     0
100
AcDbSpline
210
0.0
220
0.0
230
1.0
 70
     8
 71
     3
 72
     8
 73
     4
 74
     0
 42
0.00000001
 43
0.00000001
 12
1.0
 22
0.0
 32
0.0
 13
1.0
 23
0.0
 33
0.0
 40
0.0
 40
0.0
 40
0.0
 40
0.0
 40
1.0
 40
1.0
 40
1.0
 40
1.0
 10
164.158193233609
 20
97.48510768731192
 30
0.0
 10
164.172180042151
 20
97.45686729673024
 30
0.0
 10
164.1758898569837
 20
97.43373525391951
 30
0.0
 10
164.175889856984
 20
97.41339488108436
 30
0.0
  0
LINE
  5
111
330
1F
100
AcDbEntity
  8
0
  6
HIDDEN
 62
     7
370
     0
100
AcDbLine
 10
164.175889862
 20
97.1203282912
 30
0.0
 11
164.175889862
 21
97.4133950164
 31
0.0
  0
LINE
  5
112
330
1F
100
AcDbEntity
  8
0
  6
HIDDEN
 62
     7
370
     0
100
AcDbLine
 10
164.175889862
 20
132.5069036771
 30
0.0
 11
164.175889862
 21
132.7999704023
 31
0.0
  0
SPLINE
  5
113
330
1F
100
AcDbEntity
  8
0
  6
HIDDEN
 62
     7
370
     0
100
AcDbSpline
210
0.0
220
0.0
230
1.0
 70
     8
 71
     3
 72
    10
 73
     6
 74
     0
 42
0.00000001
 43
0.00000001
 12
1.0
 22
0.0
 32
0.0
 13
1.0
 23
0.0
 33
0.0
 40
0.0
 40
0.0
 40
0.0
 40
0.0
 40
0.5
 40
0.5
 40
1.0
 40
1.0
 40
1.0
 40
1.0
 10
163.3350288288563
 20
132.3093066279442
 30
0.0
 10
163.2632198534637
 20
132.3075025365362
 30
0.0
 10
163.210763994041
 20
132.3027029406779
 30
0.0
 10
163.1214294081496
 20
132.2855999518492
 30
0.0
 10
163.0854425452366
 20
132.2733423621236
 30
0.0
 10
163.0545695134243
 20
132.2570592147565
 30
0.0
  0
SPLINE
  5
114
330
1F
100
AcDbEntity
  8
0
  6
HIDDEN
 62
     7
370
     0
100
AcDbSpline
210
0.0
220
0.0
230
1.0
 70
     8
 71
     3
 72
    10
 73
     6
 74
     0
 42
0.00000001
 43
0.00000001
 12
1.0
 22
0.0
 32
0.0
 13
1.0
 23
0.0
 33
0.0
 40
0.0
 40
0.0
 40
0.0
 40
0.0
 40
0.5
 40
0.5
 40
1.0
 40
1.0
 40
1.0
 40
1.0
 10
163.0545695134243
 20
128.055196070284
 30
0.0
 10
163.0854508530225
 20
127.9218416928087
 30
0.0
 10
163.1214464625223
 20
127.7875963212196
 30
0.0
 10
163.2107895266236
 20
127.5195037582305
 30
0.0
 10
163.2632490409318
 20
127.385403608727
 30
0.0
 10
163.3350288288555
 20
127.254624891825
 30
0.0
  0
LINE
  5
115
330
1F
100
AcDbEntity
  8
0
  6
HIDDEN
 62
     7
370
     0
100
AcDbLine
 10
164.175889862
 20
97.4133950164
 30
0.0
 11
164.175889862
 21
108.9756693196
 31
0.0
  0
LINE
  5
116
330
1F
100
AcDbEntity
  8
0
  6
HIDDEN
 62
     7
370
     0
100
AcDbLine
 10
164.175889862
 20
120.9446293739
 30
0.0
 11
164.175889862
 21
132.5069036771
 31
0.0
  0
LINE
  5
117
330
1F
100
AcDbEntity
  8
0
  6
HIDDEN
 62
     7
370
     0
100
AcDbLine
 10
184.3758894099
 20
98.4601494362
 30
0.0
 11
184.3758894099
 21
131.4420145442
 31
0.0
  0
CIRCLE
  5
118
330
1F
100
AcDbEntity
  8
0
  6
HIDDEN
 62
     7
370
     0
100
AcDbCircle
 10
150.375889857
 20
114.9601493468
 30
0.0
 40
3.049999999999997
  0
SPLINE
  5
119
330
1F
100
AcDbEntity
  8
0
  6
HIDDEN
 62
     7
370
     0
100
AcDbSpline
210
0.0
220
0.0
230
1.0
 70
     8
 71
     3
 72
    62
 73
    58
 74
     0
 42
0.00000001
 43
0.00000001
 12
1.0
 22
0.0
 32
0.0
 13
1.0
 23
0.0
 33
0.0
 40
-0.03125
 40
-0.03125
 40
0.0
 40
0.0
 40
0.03125
 40
0.03125
 40
0.0625
 40
0.0625
 40
0.09375
 40
0.09375
 40
0.125
 40
0.125
 40
0.1875
 40
0.1875
 40
0.21875
 40
0.21875
 40
0.2500000000000001
 40
0.2500000000000001
 40
0.2812500000000001
 40
0.2812500000000001
 40
0.3125000000000001
 40
0.3125000000000001
 40
0.3437500000000001
 40
0.3437500000000001
 40
0.3750000000000001
 40
0.3750000000000001
 40
0.4062500000000001
 40
0.4062500000000001
 40
0.4375000000000001
 40
0.4375000000000001
 40
0.4687500000000001
 40
0.4687500000000001
 40
0.5
 40
0.5
 40
0.5625
 40
0.5625
 40
0.59375
 40
0.59375
 40
0.625
 40
0.625
 40
0.65625
 40
0.65625
 40
0.6875
 40
0.6875
 40
0.75
 40
0.75
 40
0.78125
 40
0.78125
 40
0.8125
 40
0.8125
 40
0.84375
 40
0.84375
 40
0.875
 40
0.875
 40
0.9375
 40
0.9375
 40
0.96875
 40
0.96875
 40
1.0
 40
1.0
 40
1.03125
 40
1.03125
 10
214.8758898569839
 20
115.1257584790006
 30
0.0
 10
214.8758898569839
 20
114.7945402145026
 30
0.0
 10
214.8921823810238
 20
114.6317806835113
 30
0.0
 10
214.9559423749349
 20
114.3117027496726
 30
0.0
 10
215.004212985314
 20
114.1526967624344
 30
0.0
 10
215.1298459858565
 20
113.8501413339401
 30
0.0
 10
215.2066643570907
 20
113.7067108398065
 30
0.0
 10
215.3880774442696
 20
113.4352725740455
 30
0.0
 10
215.4933841796661
 20
113.3070865451655
 30
0.0
 10
215.8383986005573
 20
112.9621759633211
 30
0.0
 10
216.1166238822433
 20
112.7760709206337
 30
0.0
 10
216.5675490072931
 20
112.5888475075999
 30
0.0
 10
216.7255332552114
 20
112.5406169000156
 30
0.0
 10
217.0484232007061
 20
112.4762277378228
 30
0.0
 10
217.2109039120925
 20
112.4602471176417
 30
0.0
 10
217.5378993716803
 20
112.4600524617753
 30
0.0
 10
217.704027101627
 20
112.4763818677714
 30
0.0
 10
218.0249767767314
 20
112.540343339739
 30
0.0
 10
218.1810156492074
 20
112.5876620536792
 30
0.0
 10
218.4842024225089
 20
112.7132477569634
 30
0.0
 10
218.6299380099123
 20
112.7913236372285
 30
0.0
 10
218.9003198517167
 20
112.9720459995107
 30
0.0
 10
219.0270627784719
 20
113.0758401081242
 30
0.0
 10
219.2594646987862
 20
113.3081387115675
 30
0.0
 10
219.3626045803605
 20
113.4339033367795
 30
0.0
 10
219.5436370889533
 20
113.7042296784105
 30
0.0
 10
219.6221378509076
 20
113.850588223743
 30
0.0
 10
219.7475636364356
 20
114.1527340758038
 30
0.0
 10
219.7950377019106
 20
114.3085644533441
 30
0.0
 10
219.8593820290626
 20
114.6298376755164
 30
0.0
 10
219.8758234493289
 20
114.795765667593
 30
0.0
 10
219.8760220565067
 20
115.285877493131
 30
0.0
 10
219.8103230190917
 20
115.6156683340091
 30
0.0
 10
219.6233129791817
 20
116.0672319094663
 30
0.0
 10
219.5453528817635
 20
116.2132373618442
 30
0.0
 10
219.3634184976313
 20
116.4854458071358
 30
0.0
 10
219.2603160849739
 20
116.6110559797986
 30
0.0
 10
219.0300601673127
 20
116.8417113319655
 30
0.0
 10
218.9018021027295
 20
116.9471309006115
 30
0.0
 10
218.6312232372933
 20
117.1282457425275
 30
0.0
 10
218.4878923888639
 20
117.2052395434078
 30
0.0
 10
218.0329355754246
 20
117.3945300507493
 30
0.0
 10
217.707821317219
 20
117.4599156726163
 30
0.0
 10
217.2125710988511
 20
117.4602652496244
 30
0.0
 10
217.0499612763523
 20
117.4441883313712
 30
0.0
 10
216.7295224365848
 20
117.380663398483
 30
0.0
 10
216.5701072070617
 20
117.3323717863859
 30
0.0
 10
216.2680453594653
 20
117.2072375851922
 30
0.0
 10
216.1244945798367
 20
117.1305829407427
 30
0.0
 10
215.8522770663928
 20
116.9489621056455
 30
0.0
 10
215.7244270182748
 20
116.8440480567076
 30
0.0
 10
215.3794711168427
 20
116.4996062776392
 30
0.0
 10
215.192985704547
 20
116.2214940574991
 30
0.0
 10
215.0052669368155
 20
115.7704963248335
 30
0.0
 10
214.9567382448573
 20
115.6118996904189
 30
0.0
 10
214.8921852735546
 20
115.2892155637618
 30
0.0
 10
214.8758898569839
 20
115.1257584790006
 30
0.0
 10
214.8758898569839
 20
114.7945402145026
 30
0.0
  0
LINE
  5
11A
330
1F
100
AcDbEntity
  8
0
  6
HIDDEN
 62
     7
370
     0
100
AcDbLine
 10
139.4039297445
 20
125.7488247444
 30
0.0
 11
139.4039297445
 21
104.1714739491
 31
0.0
  0
LINE
  5
11B
330
1F
100
AcDbEntity
  8
0
  6
HIDDEN
 62
     7
370
     0
100
AcDbLine
 10
135.4039290889
 20
126.1300225248
 30
0.0
 11
135.4039290889
 21
103.7902761687
 31
0.0
  0
LINE
  5
11C
330
1F
100
AcDbEntity
  8
0
  6
HIDDEN
 62
     7
370
     0
100
AcDbLine
 10
134.3758905275
 20
103.1967368414
 30
0.0
 11
134.3758905275
 21
126.7056990852
 31
0.0
  0
LINE
  5
11D
330
1F
100
AcDbEntity
  8
0
  6
HIDDEN
 62
     7
370
     0
100
AcDbLine
 10
144.0039293809
 20
125.4601492052
 30
0.0
 11
144.0039293809
 21
104.4601494883
 31
0.0
  0
LINE
  5
11E
330
1F
100
AcDbEntity
  8
0
  6
HIDDEN
 62
     7
370
     0
100
AcDbLine
 10
137.90393043
 20
125.4601492052
 30
0.0
 11
137.90393043
 21
104.4601494883
 31
0.0
  0
LWPOLYLINE
  5
11F
330
1F
100
AcDbEntity
  8
0
  6
HIDDEN
 62
     7
370
     0
100
AcDbPolyline
 90
       20
 70
   128
 43
0.0
 10
216.336291094
 20
116.7847674311
 10
216.5624869956
 20
117.0861843944
 10
216.7499063505
 20
117.2682065022
 10
216.8852126195
 20
117.3178818514
 10
216.9587796523
 20
117.2316753742
 10
216.9653659655
 20
117.0157214598
 10
216.9045133485
 20
116.6853866977
 10
216.780543138
 20
116.2641761563
 10
216.6022805466
 20
115.7820617751
 10
216.3824064626
 20
115.2733489376
 10
216.1365708305
 20
114.7742357222
 10
215.8822676136
 20
114.3202371983
 10
215.6375868215
 20
113.9436581376
 10
215.4199404611
 20
113.6712944805
 10
215.2448145642
 20
113.5225265258
 10
215.124673952
 20
113.507940268
 10
215.0680644407
 20
113.6285734334
 10
215.0790167941
 20
113.8758422545
 10
215.1567487015
 20
114.2321519525
 10
215.295731832
 20
114.6721489873
  0
SPLINE
  5
120
330
1F
100
AcDbEntity
  8
0
  6
HIDDEN
 62
     7
370
     0
100
AcDbSpline
210
0.0
220
0.0
230
1.0
 70
     8
 71
     3
 72
    22
 73
    18
 74
     0
 42
0.00000001
 43
0.00000001
 12
1.0
 22
0.0
 32
0.0
 13
1.0
 23
0.0
 33
0.0
 40
0.0
 40
0.0
 40
0.0
 40
0.0
 40
0.1249999999999999
 40
0.1249999999999999
 40
0.2499999999999999
 40
0.2499999999999999
 40
0.3749999999999998
 40
0.3749999999999998
 40
0.4999999999999998
 40
0.4999999999999998
 40
0.6249999999999998
 40
0.6249999999999998
 40
0.7499999999999999
 40
0.7499999999999999
 40
0.8749999999999999
 40
0.8749999999999999
 40
1.0
 40
1.0
 40
1.0
 40
1.0
 10
215.2957322208352
 20
114.6721489843001
 30
0.0
 10
215.2848697103914
 20
114.7506062954475
 30
0.0
 10
215.2773947733144
 20
114.8362040497478
 30
0.0
 10
215.2747814146765
 20
115.026386545509
 30
0.0
 10
215.2798559502459
 20
115.127012432788
 30
0.0
 10
215.3072535288988
 20
115.336905461239
 30
0.0
 10
215.3299889696535
 20
115.4466297039821
 30
0.0
 10
215.3928309643503
 20
115.6600429151583
 30
0.0
 10
215.4329160712182
 20
115.7649695128102
 30
0.0
 10
215.5309798743068
 20
115.9696986460359
 30
0.0
 10
215.5889776350109
 20
116.0692363353126
 30
0.0
 10
215.7202574544496
 20
116.2570728544844
 30
0.0
 10
215.7954054767369
 20
116.3476271827876
 30
0.0
 10
215.9550822897873
 20
116.510740033778
 30
0.0
 10
216.0403644299682
 20
116.5837190276784
 30
0.0
 10
216.1973952042326
 20
116.7010563024695
 30
0.0
 10
216.2701535923763
 20
116.7470856087976
 30
0.0
 10
216.3362895834987
 20
116.7847674633364
 30
0.0
  0
SPLINE
  5
121
330
1F
100
AcDbEntity
  8
0
  6
HIDDEN
 62
     7
370
     0
100
AcDbSpline
210
0.0
220
0.0
230
1.0
 70
     8
 71
     3
 72
    10
 73
     6
 74
     0
 42
0.00000001
 43
0.00000001
 12
1.0
 22
0.0
 32
0.0
 13
1.0
 23
0.0
 33
0.0
 40
0.0
 40
0.0
 40
0.0
 40
0.0
 40
0.5
 40
0.5
 40
1.0
 40
1.0
 40
1.0
 40
1.0
 10
217.4095105328514
 20
117.0598801985882
 30
0.0
 10
217.6658343383121
 20
116.9553118281884
 30
0.0
 10
217.9190052517181
 20
116.8395368564265
 30
0.0
 10
218.4289385461061
 20
116.6021491097067
 30
0.0
 10
218.6860546818397
 20
116.4812214165762
 30
0.0
 10
218.9369287487301
 20
116.3648406218905
 30
0.0
  0
SPLINE
  5
122
330
1F
100
AcDbEntity
  8
0
  6
HIDDEN
 62
     7
370
     0
100
AcDbSpline
210
0.0
220
0.0
230
1.0
 70
     8
 71
     3
 72
    12
 73
     8
 74
     0
 42
0.00000001
 43
0.00000001
 12
1.0
 22
0.0
 32
0.0
 13
1.0
 23
0.0
 33
0.0
 40
0.0
 40
0.0
 40
0.0
 40
0.0
 40
0.4999999999999951
 40
0.4999999999999951
 40
0.7499999999999976
 40
0.7499999999999976
 40
1.0
 40
1.0
 40
1.0
 40
1.0
 10
216.3362895834988
 20
116.7847674633365
 30
0.0
 10
216.542969637507
 20
116.9025261541649
 30
0.0
 10
216.7498984728249
 20
116.9745486385044
 30
0.0
 10
217.0422956083922
 20
117.0358738726029
 30
0.0
 10
217.1347718178062
 20
117.047856868645
 30
0.0
 10
217.2975239687195
 20
117.0602730081924
 30
0.0
 10
217.3682493915443
 20
117.0605408677671
 30
0.0
 10
217.4095105328515
 20
117.0598801985881
 30
0.0
  0
SPLINE
  5
123
330
1F
100
AcDbEntity
  8
0
  6
HIDDEN
 62
     7
370
     0
100
AcDbSpline
210
0.0
220
0.0
230
1.0
 70
     8
 71
     3
 72
    42
 73
    38
 74
     0
 42
0.00000001
 43
0.00000001
 12
1.0
 22
0.0
 32
0.0
 13
1.0
 23
0.0
 33
0.0
 40
0.0
 40
0.0
 40
0.0
 40
0.0
 40
0.062500000000001
 40
0.062500000000001
 40
0.1250000000000022
 40
0.1250000000000022
 40
0.1875000000000034
 40
0.1875000000000034
 40
0.2500000000000046
 40
0.2500000000000046
 40
0.3125000000000058
 40
0.3125000000000058
 40
0.375000000000007
 40
0.375000000000007
 40
0.4062500000000076
 40
0.4062500000000076
 40
0.4375000000000082
 40
0.4375000000000082
 40
0.4687500000000088
 40
0.4687500000000088
 40
0.5000000000000094
 40
0.5000000000000094
 40
0.6250000000000102
 40
0.6250000000000102
 40
0.6875000000000107
 40
0.6875000000000107
 40
0.7500000000000109
 40
0.7500000000000109
 40
0.7812500000000102
 40
0.7812500000000102
 40
0.8125000000000094
 40
0.8125000000000094
 40
0.8750000000000063
 40
0.8750000000000063
 40
0.9375000000000032
 40
0.9375000000000032
 40
1.0
 40
1.0
 40
1.0
 40
1.0
 10
218.9369287487326
 20
116.3648406218893
 30
0.0
 10
218.9273947538481
 20
116.3754357875829
 30
0.0
 10
218.971434681742
 20
116.3283544769628
 30
0.0
 10
219.0803388676798
 20
116.1900282578997
 30
0.0
 10
219.1454861218529
 20
116.0973678413103
 30
0.0
 10
219.264739880514
 20
115.8858828038629
 30
0.0
 10
219.3199897998568
 20
115.7665520194577
 30
0.0
 10
219.4102130356784
 20
115.4999076843922
 30
0.0
 10
219.4456234532449
 20
115.3505039691734
 30
0.0
 10
219.4809909402149
 20
115.0288757617416
 30
0.0
 10
219.4812422856446
 20
114.8527794905449
 30
0.0
 10
219.4302711940772
 20
114.4873338894194
 30
0.0
 10
219.3774019506739
 20
114.2938986065523
 30
0.0
 10
219.2562004495789
 20
114.0197147382455
 30
0.0
 10
219.2083139629565
 20
113.9293437632903
 30
0.0
 10
219.1001575870346
 20
113.7571368571448
 30
0.0
 10
219.0409534308626
 20
113.6766675837774
 30
0.0
 10
218.9130909200082
 20
113.5260032479242
 30
0.0
 10
218.8443130768729
 20
113.4559518569256
 30
0.0
 10
218.7037122025549
 20
113.3304976478569
 30
0.0
 10
218.6311803787745
 20
113.2742146309389
 30
0.0
 10
218.25835291916
 20
113.0207315204037
 30
0.0
 10
217.9441918738231
 20
112.9143603406544
 30
0.0
 10
217.4776320972768
 20
112.8567702852192
 30
0.0
 10
217.3229357198941
 20
112.8546625102761
 30
0.0
 10
217.0028561175135
 20
112.8872950854918
 30
0.0
 10
216.8361414449193
 20
112.9217778951925
 30
0.0
 10
216.5676624481033
 20
113.0195720908175
 30
0.0
 10
216.4766589543314
 20
113.0596675320071
 30
0.0
 10
216.2963442943297
 20
113.1559795314034
 30
0.0
 10
216.2105071068566
 20
113.2103415365877
 30
0.0
 10
215.9696581119079
 20
113.3877977364684
 30
0.0
 10
215.8372600553222
 20
113.5192148512793
 30
0.0
 10
215.6106610877237
 20
113.8079161763475
 30
0.0
 10
215.5189766137901
 20
113.9624506107068
 30
0.0
 10
215.374323020786
 20
114.2988931476227
 30
0.0
 10
215.3222073176503
 20
114.4809257013187
 30
0.0
 10
215.2957322208352
 20
114.6721489843001
 30
0.0
  0
LINE
  5
124
330
1F
100
AcDbEntity
  8
0
  6
HIDDEN
 62
     7
370
     0
100
AcDbLine
 10
138.9039305939
 20
125.4601492052
 30
0.0
 11
138.9039305939
 21
104.4601494883
 31
0.0
  0
SPLINE
  5
125
330
1F
100
AcDbEntity
  8
0
  6
HIDDEN
 62
     7
370
     0
100
AcDbSpline
210
0.0
220
0.0
230
1.0
 70
     8
 71
     3
 72
    66
 73
    62
 74
     0
 42
0.00000001
 43
0.00000001
 12
1.0
 22
0.0
 32
0.0
 13
1.0
 23
0.0
 33
0.0
 40
-0.0312500000000002
 40
-0.0312500000000002
 40
0.0
 40
0.0
 40
0.0312500000000001
 40
0.0312500000000001
 40
0.0625000000000003
 40
0.0625000000000003
 40
0.0937500000000004
 40
0.0937500000000004
 40
0.1250000000000006
 40
0.1250000000000006
 40
0.1875000000000007
 40
0.1875000000000007
 40
0.2187500000000007
 40
0.2187500000000007
 40
0.2500000000000007
 40
0.2500000000000007
 40
0.2812500000000008
 40
0.2812500000000008
 40
0.3125000000000008
 40
0.3125000000000008
 40
0.3437500000000008
 40
0.3437500000000008
 40
0.3750000000000009
 40
0.3750000000000009
 40
0.4062500000000008
 40
0.4062500000000008
 40
0.4375000000000008
 40
0.4375000000000008
 40
0.4687500000000008
 40
0.4687500000000008
 40
0.5000000000000008
 40
0.5000000000000008
 40
0.5312500000000008
 40
0.5312500000000008
 40
0.5625000000000008
 40
0.5625000000000008
 40
0.5937500000000009
 40
0.5937500000000009
 40
0.6250000000000007
 40
0.6250000000000007
 40
0.6562500000000004
 40
0.6562500000000004
 40
0.6875000000000002
 40
0.6875000000000002
 40
0.7187500000000001
 40
0.7187500000000001
 40
0.7499999999999999
 40
0.7499999999999999
 40
0.7812499999999997
 40
0.7812499999999997
 40
0.8124999999999994
 40
0.8124999999999994
 40
0.8749999999999992
 40
0.8749999999999992
 40
0.9062499999999992
 40
0.9062499999999992
 40
0.9374999999999994
 40
0.9374999999999994
 40
0.9687499999999998
 40
0.9687499999999998
 40
1.0
 40
1.0
 40
1.03125
 40
1.03125
 10
150.1732112100361
 20
118.0101493467516
 30
0.0
 10
150.5785685039317
 20
118.0101493467516
 30
0.0
 10
150.7776283952676
 20
117.990149787135
 30
0.0
 10
151.1688823798473
 20
117.9120062844348
 30
0.0
 10
151.3631551385949
 20
117.8528451829141
 30
0.0
 10
151.7319185651462
 20
117.6994134960198
 30
0.0
 10
151.9066437235245
 20
117.6056866861775
 30
0.0
 10
152.2373210270583
 20
117.3844325837727
 30
0.0
 10
152.3929685710611
 20
117.2564512167781
 30
0.0
 10
152.8124359407298
 20
116.836896119778
 30
0.0
 10
153.0393240822601
 20
116.4984175610747
 30
0.0
 10
153.2681207056448
 20
115.9485386733564
 30
0.0
 10
153.3273129604937
 20
115.7551388276131
 30
0.0
 10
153.4061203707542
 20
115.3609106772551
 30
0.0
 10
153.4257597870346
 20
115.1622718498228
 30
0.0
 10
153.4260186514562
 20
114.7619715639244
 30
0.0
 10
153.4059479668232
 20
114.5586322372033
 30
0.0
 10
153.3276102841933
 20
114.1665407165957
 30
0.0
 10
153.2696605161549
 20
113.9758348482805
 30
0.0
 10
153.1157173742749
 20
113.6051110316939
 30
0.0
 10
153.0207787605522
 20
113.4283843718851
 30
0.0
 10
152.800421344675
 20
113.0991312609607
 30
0.0
 10
152.6731413187467
 20
112.9440100373643
 30
0.0
 10
152.3913857274162
 20
112.6623333424339
 30
0.0
 10
152.2385973979587
 20
112.5369001575295
 30
0.0
 10
151.9091703158018
 20
112.3161245641754
 30
0.0
 10
151.7306243126501
 20
112.2202933114752
 30
0.0
 10
151.3630519870999
 20
112.0674641809801
 30
0.0
 10
151.1728979603889
 20
112.0092924230359
 30
0.0
 10
150.7793575376865
 20
111.930299130691
 30
0.0
 10
150.5769234664253
 20
111.9102360050487
 30
0.0
 10
150.1774943910599
 20
111.91006325893
 30
0.0
 10
149.977475412504
 20
111.9295466330193
 30
0.0
 10
149.5813594650546
 20
112.0085382046205
 30
0.0
 10
149.3906266368627
 20
112.0668184244725
 30
0.0
 10
149.022995196283
 20
112.2193860450805
 30
0.0
 10
148.8445087641153
 20
112.3149948318538
 30
0.0
 10
148.5143035051512
 20
112.5360068769388
 30
0.0
 10
148.3614149270893
 20
112.6614567757089
 30
0.0
 10
148.0798185325512
 20
112.9426872647142
 30
0.0
 10
147.9521876096757
 20
113.0980701426282
 30
0.0
 10
147.7318621746759
 20
113.4269210006711
 30
0.0
 10
147.6376357177105
 20
113.6018091070851
 30
0.0
 10
147.4827011971074
 20
113.9739529584459
 30
0.0
 10
147.4246889115052
 20
114.1647590002548
 30
0.0
 10
147.3462696572271
 20
114.5556320181736
 30
0.0
 10
147.3259555772605
 20
114.7580895795559
 30
0.0
 10
147.3258244609565
 20
115.1602201844753
 30
0.0
 10
147.3454491543159
 20
115.3589442296504
 30
0.0
 10
147.4236156047295
 20
115.7517837007871
 30
0.0
 10
147.4829030500694
 20
115.9464279781897
 30
0.0
 10
147.7119838931523
 20
116.4978677316039
 30
0.0
 10
147.9388147440465
 20
116.8362072973031
 30
0.0
 10
148.3581534453672
 20
117.2558729599546
 30
0.0
 10
148.5135064411172
 20
117.3837189657278
 30
0.0
 10
148.8444742742543
 20
117.6053200404296
 30
0.0
 10
149.0190355744507
 20
117.6989607744066
 30
0.0
 10
149.3866088820255
 20
117.8521148951058
 30
0.0
 10
149.5812957436636
 20
117.9116186407519
 30
0.0
 10
149.9737716936
 20
117.9901413898148
 30
0.0
 10
150.1732112100361
 20
118.0101493467516
 30
0.0
 10
150.5785685039317
 20
118.0101493467516
 30
0.0
  0
SPLINE
  5
126
330
1F
100
AcDbEntity
  8
0
  6
HIDDEN
 62
     7
370
     0
100
AcDbSpline
210
0.0
220
0.0
230
1.0
 70
     8
 71
     3
 72
    66
 73
    62
 74
     0
 42
0.00000001
 43
0.00000001
 12
1.0
 22
0.0
 32
0.0
 13
1.0
 23
0.0
 33
0.0
 40
-0.0312499999999999
 40
-0.0312499999999999
 40
0.0
 40
0.0
 40
0.0312500000000002
 40
0.0312500000000002
 40
0.0625000000000003
 40
0.0625000000000003
 40
0.0937500000000005
 40
0.0937500000000005
 40
0.1250000000000004
 40
0.1250000000000004
 40
0.1875000000000003
 40
0.1875000000000003
 40
0.2187500000000002
 40
0.2187500000000002
 40
0.2500000000000001
 40
0.2500000000000001
 40
0.2812499999999999
 40
0.2812499999999999
 40
0.3124999999999997
 40
0.3124999999999997
 40
0.3437499999999996
 40
0.3437499999999996
 40
0.3749999999999993
 40
0.3749999999999993
 40
0.4062499999999992
 40
0.4062499999999992
 40
0.4374999999999992
 40
0.4374999999999992
 40
0.4687499999999993
 40
0.4687499999999993
 40
0.4999999999999993
 40
0.4999999999999993
 40
0.5312499999999993
 40
0.5312499999999993
 40
0.5624999999999994
 40
0.5624999999999994
 40
0.5937499999999994
 40
0.5937499999999994
 40
0.6249999999999996
 40
0.6249999999999996
 40
0.6562499999999996
 40
0.6562499999999996
 40
0.6874999999999997
 40
0.6874999999999997
 40
0.7187499999999997
 40
0.7187499999999997
 40
0.7499999999999997
 40
0.7499999999999997
 40
0.7812499999999998
 40
0.7812499999999998
 40
0.8124999999999998
 40
0.8124999999999998
 40
0.8749999999999999
 40
0.8749999999999999
 40
0.90625
 40
0.90625
 40
0.9375
 40
0.9375
 40
0.9687500000000001
 40
0.9687500000000001
 40
1.0
 40
1.0
 40
1.03125
 40
1.03125
 10
150.5785685039317
 20
118.0101493467516
 30
0.0
 10
150.1732112100361
 20
118.0101493467516
 30
0.0
 10
149.9741513187003
 20
117.990149787135
 30
0.0
 10
149.5828973341206
 20
117.9120062844349
 30
0.0
 10
149.3886245753729
 20
117.8528451829141
 30
0.0
 10
149.0198611488216
 20
117.6994134960198
 30
0.0
 10
148.8451359904433
 20
117.6056866861775
 30
0.0
 10
148.5144586869095
 20
117.3844325837727
 30
0.0
 10
148.3588111429067
 20
117.2564512167781
 30
0.0
 10
147.9393437732381
 20
116.836896119778
 30
0.0
 10
147.7124556317078
 20
116.4984175610746
 30
0.0
 10
147.483659008323
 20
115.9485386733564
 30
0.0
 10
147.4244667534741
 20
115.7551388276131
 30
0.0
 10
147.3456593432136
 20
115.3609106772551
 30
0.0
 10
147.3260199269332
 20
115.1622718498228
 30
0.0
 10
147.3257610625116
 20
114.7619715639244
 30
0.0
 10
147.3458317471446
 20
114.5586322372033
 30
0.0
 10
147.4241694297745
 20
114.1665407165957
 30
0.0
 10
147.4821191978129
 20
113.9758348482805
 30
0.0
 10
147.636062339693
 20
113.6051110316939
 30
0.0
 10
147.7310009534156
 20
113.4283843718851
 30
0.0
 10
147.9513583692928
 20
113.0991312609607
 30
0.0
 10
148.0786383952211
 20
112.9440100373643
 30
0.0
 10
148.3603939865517
 20
112.6623333424339
 30
0.0
 10
148.5131823160092
 20
112.5369001575295
 30
0.0
 10
148.8426093981661
 20
112.3161245641754
 30
0.0
 10
149.0211554013178
 20
112.2202933114752
 30
0.0
 10
149.3887277268679
 20
112.0674641809801
 30
0.0
 10
149.5788817535789
 20
112.0092924230359
 30
0.0
 10
149.9724221762814
 20
111.930299130691
 30
0.0
 10
150.1748562475426
 20
111.9102360050487
 30
0.0
 10
150.5742853229079
 20
111.91006325893
 30
0.0
 10
150.7743043014638
 20
111.9295466330193
 30
0.0
 10
151.1704202489132
 20
112.0085382046205
 30
0.0
 10
151.3611530771051
 20
112.0668184244725
 30
0.0
 10
151.7287845176848
 20
112.2193860450805
 30
0.0
 10
151.9072709498526
 20
112.3149948318538
 30
0.0
 10
152.2374762088166
 20
112.5360068769388
 30
0.0
 10
152.3903647868785
 20
112.6614567757089
 30
0.0
 10
152.6719611814166
 20
112.9426872647142
 30
0.0
 10
152.7995921042921
 20
113.0980701426282
 30
0.0
 10
153.019917539292
 20
113.4269210006711
 30
0.0
 10
153.1141439962573
 20
113.6018091070851
 30
0.0
 10
153.2690785168604
 20
113.9739529584459
 30
0.0
 10
153.3270908024626
 20
114.1647590002548
 30
0.0
 10
153.4055100567408
 20
114.5556320181736
 30
0.0
 10
153.4258241367073
 20
114.7580895795559
 30
0.0
 10
153.4259552530113
 20
115.1602201844753
 30
0.0
 10
153.4063305596519
 20
115.3589442296504
 30
0.0
 10
153.3281641092383
 20
115.7517837007871
 30
0.0
 10
153.2688766638984
 20
115.9464279781897
 30
0.0
 10
153.0397958208155
 20
116.4978677316039
 30
0.0
 10
152.8129649699213
 20
116.8362072973031
 30
0.0
 10
152.3936262686006
 20
117.2558729599546
 30
0.0
 10
152.2382732728507
 20
117.3837189657278
 30
0.0
 10
151.9073054397135
 20
117.6053200404296
 30
0.0
 10
151.7327441395171
 20
117.6989607744066
 30
0.0
 10
151.3651708319423
 20
117.8521148951058
 30
0.0
 10
151.1704839703042
 20
117.9116186407519
 30
0.0
 10
150.7780080203678
 20
117.9901413898148
 30
0.0
 10
150.5785685039317
 20
118.0101493467516
 30
0.0
 10
150.1732112100361
 20
118.0101493467516
 30
0.0
  0
LINE
  5
127
330
1F
100
AcDbEntity
  8
0
  6
HIDDEN
 62
     7
370
     0
100
AcDbLine
 10
154.3758900805
 20
124.9601491232
 30
0.0
 11
154.3758900805
 21
104.9601495703
 31
0.0
  0
ARC
  5
128
330
1F
100
AcDbEntity
  8
0
  6
HIDDEN
 62
     7
370
     0
100
AcDbCircle
 10
217.375889857
 20
114.9601493468
 30
0.0
 40
2.100000000000011
100
AcDbArc
 50
41.9822697479
 51
89.0826642228
  0
LINE
  5
129
330
1F
100
AcDbEntity
  8
0
  6
HIDDEN
 62
     7
370
     0
100
AcDbLine
 10
155.3758902444
 20
122.2101491381
 30
0.0
 11
155.3758902444
 21
107.7101495554
 31
0.0
  0
LINE
  5
12A
330
1F
100
AcDbEntity
  8
0
  6
HIDDEN
 62
     7
370
     0
100
AcDbLine
 10
154.3758900805
 20
106.7101493915
 30
0.0
 11
154.3758900805
 21
123.1917258789
 31
0.0
  0
LINE
  5
12B
330
1F
100
AcDbEntity
  8
0
  6
HIDDEN
 62
     7
370
     0
100
AcDbLine
 10
179.3758895217
 20
122.2101491381
 30
0.0
 11
179.3758895217
 21
107.7101495554
 31
0.0
  0
LINE
  5
12C
330
1F
100
AcDbEntity
  8
0
  6
HIDDEN
 62
     7
370
     0
100
AcDbLine
 10
181.7793322696
 20
118.2101494138
 30
0.0
 11
181.7793322696
 21
111.7101492797
 31
0.0
  0
LINE
  5
12D
330
1F
100
AcDbEntity
  8
0
  6
HIDDEN
 62
     7
370
     0
100
AcDbLine
 10
220.3758915855
 20
111.7101492797
 30
0.0
 11
220.3758915855
 21
118.2101494138
 31
0.0
  0
SPLINE
  5
12E
330
1F
100
AcDbEntity
  8
0
  6
HIDDEN
 62
     7
370
     0
100
AcDbSpline
210
0.0
220
0.0
230
1.0
 70
    11
 71
     3
 72
    35
 73
    31
 74
     0
 42
0.00000001
 43
0.00000001
 12
1.0
 22
0.0
 32
0.0
 13
1.0
 23
0.0
 33
0.0
 40
0.0
 40
0.0
 40
0.0
 40
0.0
 40
0.029690691374214
 40
0.0764151003949386
 40
0.1229860291928758
 40
0.1734505510049877
 40
0.1750943627595839
 40
0.2170633026111818
 40
0.2312283558338762
 40
0.2731120374551246
 40
0.2733853324237586
 40
0.293491705193525
 40
0.3151036837764233
 40
0.3557944397059903
 40
0.4044905648658853
 40
0.4094910360616231
 40
0.4507192133449846
 40
0.4623432247751904
 40
0.5087085081972663
 40
0.5551960655801378
 40
0.5990821869967191
 40
0.6461442348551556
 40
0.7004749378784668
 40
0.7479036240929258
 40
0.7956750457825743
 40
0.8361602414532742
 40
0.8906066981556598
 40
0.9457997053533375
 40
0.9941670694435325
 40
1.0
 40
1.0
 40
1.0
 40
1.0
 10
215.321861018111
 20
114.5610789623051
 30
0.0
 10
215.3008384374261
 20
114.6935701472014
 30
0.0
 10
215.2467325025608
 20
115.0345634594719
 30
0.0
 10
215.3419285268527
 20
115.600397672903
 30
0.0
 10
215.6291354531254
 20
116.1565640584679
 30
0.0
 10
215.8879839619911
 20
116.5099706157071
 30
0.0
 10
216.2466561627419
 20
116.6991059441923
 30
0.0
 10
216.4691547271074
 20
116.8130067945566
 30
0.0
 10
216.8316151132816
 20
117.0229929518617
 30
0.0
 10
217.099867424814
 20
117.0758157591746
 30
0.0
 10
217.3793473795524
 20
117.0495378849451
 30
0.0
 10
217.5667344291674
 20
117.028690807514
 30
0.0
 10
217.9437640084205
 20
117.0147893823443
 30
0.0
 10
218.3877929897857
 20
116.8097861663571
 30
0.0
 10
218.749188279676
 20
116.6080665075025
 30
0.0
 10
218.9793518687176
 20
116.2691264313741
 30
0.0
 10
219.1198054087601
 20
116.0641006304628
 30
0.0
 10
219.376520172736
 20
115.7226653635841
 30
0.0
 10
219.4790060955571
 20
115.2437114516948
 30
0.0
 10
219.4809308190532
 20
114.6202839526979
 30
0.0
 10
219.288872121631
 20
114.0273979135061
 30
0.0
 10
218.9353301552999
 20
113.5041443898874
 30
0.0
 10
218.4342506981609
 20
113.1069043125811
 30
0.0
 10
217.8150721696925
 20
112.872574306318
 30
0.0
 10
217.1847021123703
 20
112.8394160911401
 30
0.0
 10
216.5605665886506
 20
112.9914079022984
 30
0.0
 10
215.9970753133185
 20
113.3221964552016
 30
0.0
 10
215.5661071963796
 20
113.8432034674165
 30
0.0
 10
215.3495719367237
 20
114.291252218339
 30
0.0
 10
215.3245534582286
 20
114.5348621356311
 30
0.0
 10
215.321861018111
 20
114.5610789623051
 30
0.0
  0
SPLINE
  5
12F
330
1F
100
AcDbEntity
  8
0
  6
HIDDEN
 62
     7
370
     0
100
AcDbSpline
210
0.0
220
0.0
230
1.0
 70
     8
 71
     3
 72
    62
 73
    58
 74
     0
 42
0.00000001
 43
0.00000001
 12
1.0
 22
0.0
 32
0.0
 13
1.0
 23
0.0
 33
0.0
 40
-0.0625000000000002
 40
-0.0625000000000002
 40
0.0
 40
0.0
 40
0.0312500000000007
 40
0.0312500000000007
 40
0.0625000000000014
 40
0.0625000000000014
 40
0.1250000000000022
 40
0.1250000000000022
 40
0.1562500000000021
 40
0.1562500000000021
 40
0.1875000000000019
 40
0.1875000000000019
 40
0.2187500000000019
 40
0.2187500000000019
 40
0.2500000000000017
 40
0.2500000000000017
 40
0.2812500000000017
 40
0.2812500000000017
 40
0.3125000000000015
 40
0.3125000000000015
 40
0.3437500000000014
 40
0.3437500000000014
 40
0.3750000000000012
 40
0.3750000000000012
 40
0.4062500000000011
 40
0.4062500000000011
 40
0.437500000000001
 40
0.437500000000001
 40
0.4687500000000008
 40
0.4687500000000008
 40
0.5000000000000007
 40
0.5000000000000007
 40
0.5312500000000006
 40
0.5312500000000006
 40
0.5625000000000004
 40
0.5625000000000004
 40
0.6250000000000001
 40
0.6250000000000001
 40
0.6562500000000001
 40
0.6562500000000001
 40
0.6874999999999999
 40
0.6874999999999999
 40
0.7500000000000009
 40
0.7500000000000009
 40
0.7812500000000008
 40
0.7812500000000008
 40
0.8125000000000006
 40
0.8125000000000006
 40
0.8437500000000003
 40
0.8437500000000003
 40
0.8750000000000002
 40
0.8750000000000002
 40
0.90625
 40
0.90625
 40
0.9374999999999998
 40
0.9374999999999998
 40
1.0
 40
1.0
 40
1.031250000000001
 40
1.031250000000001
 10
215.2758898569839
 20
115.2465456934493
 30
0.0
 10
215.2758898569839
 20
114.8169511734027
 30
0.0
 10
215.2903775082862
 20
114.6768665221366
 30
0.0
 10
215.3464578938805
 20
114.4024605245339
 30
0.0
 10
215.388796215615
 20
114.2670560281616
 30
0.0
 10
215.5498708584655
 20
113.8871476839281
 30
0.0
 10
215.70511592921
 20
113.6604637639689
 30
0.0
 10
215.9875371710046
 20
113.3789650272336
 30
0.0
 10
216.0916146176288
 20
113.2932953035775
 30
0.0
 10
216.3126609905217
 20
113.144299774461
 30
0.0
 10
216.4297748278036
 20
113.080449105453
 30
0.0
 10
216.679507483766
 20
112.9743350966642
 30
0.0
 10
216.8135431564476
 20
112.9320385970301
 30
0.0
 10
217.0867975537184
 20
112.8754688760481
 30
0.0
 10
217.2291493163296
 20
112.8604561845851
 30
0.0
 10
217.5137126326813
 20
112.859851976373
 30
0.0
 10
217.6537061277751
 20
112.8738603125584
 30
0.0
 10
217.9294496857365
 20
112.9295446756
 30
0.0
 10
218.0625540966651
 20
112.9709033041199
 30
0.0
 10
218.3141288050584
 20
113.0764521119235
 30
0.0
 10
218.4342467439292
 20
113.1414346150374
 30
0.0
 10
218.6561532445358
 20
113.2901887981179
 30
0.0
 10
218.7590780790573
 20
113.3743213251856
 30
0.0
 10
218.9499354589394
 20
113.5635675859403
 30
0.0
 10
219.035180634283
 20
113.66603786589
 30
0.0
 10
219.1862615521861
 20
113.8875241868108
 30
0.0
 10
219.2525510896759
 20
114.0075964872021
 30
0.0
 10
219.3614746033861
 20
114.2625337309718
 30
0.0
 10
219.4032940552445
 20
114.3949623093702
 30
0.0
 10
219.4605774664674
 20
114.6705258994717
 30
0.0
 10
219.4755423087042
 20
114.8139115375869
 30
0.0
 10
219.4762251211309
 20
115.0962290771502
 30
0.0
 10
219.4621598991093
 20
115.2385178264609
 30
0.0
 10
219.4059771105998
 20
115.5158088124964
 30
0.0
 10
219.3646415922523
 20
115.6486503893989
 30
0.0
 10
219.2032407743561
 20
116.0313436455679
 30
0.0
 10
219.0480823062063
 20
116.2583113790117
 30
0.0
 10
218.7641807108389
 20
116.5414499403809
 30
0.0
 10
218.6618456343646
 20
116.6257296234573
 30
0.0
 10
218.4404653668776
 20
116.7752303100324
 30
0.0
 10
218.3203917408812
 20
116.8406878000752
 30
0.0
 10
217.9445898033372
 20
116.9999079362604
 30
0.0
 10
217.6624932577217
 20
117.0595262557101
 30
0.0
 10
217.2394918396392
 20
117.0604533270507
 30
0.0
 10
217.0955266318338
 20
117.0460578345855
 30
0.0
 10
216.8209951602749
 20
116.9903487540016
 30
0.0
 10
216.6875963616377
 20
116.9488719585927
 30
0.0
 10
216.435071418852
 20
116.8426015318164
 30
0.0
 10
216.3172427121309
 20
116.7786847272283
 30
0.0
 10
216.095585910201
 20
116.6300674618708
 30
0.0
 10
215.9910380928761
 20
116.5444282039034
 30
0.0
 10
215.8019067051353
 20
116.356691842871
 30
0.0
 10
215.716574925035
 20
116.25434842851
 30
0.0
 10
215.5643243999172
 20
116.030900438918
 30
0.0
 10
215.4977169348403
 20
115.9095579220639
 30
0.0
 10
215.3360607547096
 20
115.5300071420957
 30
0.0
 10
215.2758898569839
 20
115.2465456934493
 30
0.0
 10
215.2758898569839
 20
114.8169511734027
 30
0.0
  0
ELLIPSE
  5
130
330
1F
100
AcDbEntity
  8
0
  6
HIDDEN
 62
     7
370
     0
100
AcDbEllipse
 10
248.9554971356
 20
114.9601493468
 30
0.0
 11
-4.247080252762999
 21
12.993570470854
 31
0.0
210
0.0
220
0.0
230
1.0
 40
0.0962569477
 41
6.251733123200049
 42
7.822529449994797
  0
LINE
  5
131
330
1F
100
AcDbEntity
  8
0
  6
HIDDEN
 62
     7
370
     0
100
AcDbLine
 10
228.8758864595
 20
114.9601493468
 30
0.0
 11
228.8758864595
 21
127.960149615
 31
0.0
  0
LINE
  5
132
330
1F
100
AcDbEntity
  8
0
  6
HIDDEN
 62
     7
370
     0
100
AcDbLine
 10
250.988963802
 20
108.8255755109
 30
0.0
 11
243.5896804525
 21
111.152877516
 31
0.0
  0
LINE
  5
133
330
1F
100
AcDbEntity
  8
0
  6
HIDDEN
 62
     7
370
     0
100
AcDbLine
 10
243.5896804525
 20
111.152877516
 30
0.0
 11
243.5835039212
 21
111.1724224844
 31
0.0
  0
LINE
  5
134
330
1F
100
AcDbEntity
  8
0
  6
HIDDEN
 62
     7
370
     0
100
AcDbLine
 10
240.2178084447
 20
111.7597170611
 30
0.0
 11
243.5285409881
 21
101.2849877094
 31
0.0
  0
SPLINE
  5
135
330
1F
100
AcDbEntity
  8
0
  6
HIDDEN
 62
     7
370
     0
100
AcDbSpline
210
0.0
220
0.0
230
1.0
 70
     8
 71
     3
 72
    16
 73
    12
 74
     0
 42
0.00000001
 43
0.00000001
 12
1.0
 22
0.0
 32
0.0
 13
1.0
 23
0.0
 33
0.0
 40
0.0
 40
0.0
 40
0.0
 40
0.0
 40
0.2499999999999994
 40
0.2499999999999994
 40
0.3749999999999991
 40
0.3749999999999991
 40
0.499999999999999
 40
0.499999999999999
 40
0.7499999999999996
 40
0.7499999999999996
 40
1.0
 40
1.0
 40
1.0
 40
1.0
 10
231.1034165862842
 20
103.7120231102074
 30
0.0
 10
230.8995271592767
 20
104.3879418323933
 30
0.0
 10
230.7006040177759
 20
105.0929118002948
 30
0.0
 10
230.4107576297046
 20
106.1947589491598
 30
0.0
 10
230.3155748357947
 20
106.5694688381526
 30
0.0
 10
230.1283903933305
 20
107.3342582819729
 30
0.0
 10
230.0364430055517
 20
107.7242730593569
 30
0.0
 10
229.7702732928906
 20
108.8987177300579
 30
0.0
 10
229.6041105687963
 20
109.6937068155832
 30
0.0
 10
229.2967044539604
 20
111.3081043167797
 30
0.0
 10
229.1554460879657
 20
112.1275034337215
 30
0.0
 10
229.0288362949498
 20
112.9601493467516
 30
0.0
  0
SPLINE
  5
136
330
1F
100
AcDbEntity
  8
0
  6
HIDDEN
 62
     7
370
     0
100
AcDbSpline
210
0.0
220
0.0
230
1.0
 70
     8
 71
     3
 72
    10
 73
     6
 74
     0
 42
0.00000001
 43
0.00000001
 12
1.0
 22
0.0
 32
0.0
 13
1.0
 23
0.0
 33
0.0
 40
0.0
 40
0.0
 40
0.0
 40
0.0
 40
0.5
 40
0.5
 40
1.0
 40
1.0
 40
1.0
 40
1.0
 10
229.0288362949499
 20
112.9601493467516
 30
0.0
 10
228.9788672828657
 20
113.2887692165018
 30
0.0
 10
228.9405568208923
 20
113.6198914576188
 30
0.0
 10
228.8890240226477
 20
114.2875208124839
 30
0.0
 10
228.8758898569839
 20
114.6250515154134
 30
0.0
 10
228.8758898569839
 20
114.9601493467516
 30
0.0
  0
SPLINE
  5
137
330
1F
100
AcDbEntity
  8
0
  6
HIDDEN
 62
     7
370
     0
100
AcDbSpline
210
0.0
220
0.0
230
1.0
 70
     8
 71
     3
 72
    18
 73
    14
 74
     0
 42
0.00000001
 43
0.00000001
 12
1.0
 22
0.0
 32
0.0
 13
1.0
 23
0.0
 33
0.0
 40
0.0
 40
0.0
 40
0.0
 40
0.0
 40
0.1250000000000001
 40
0.1250000000000001
 40
0.2500000000000002
 40
0.2500000000000002
 40
0.5000000000000002
 40
0.5000000000000002
 40
0.6249999999999998
 40
0.6249999999999998
 40
0.7499999999999992
 40
0.7499999999999992
 40
1.0
 40
1.0
 40
1.0
 40
1.0
 10
229.1119650840974
 20
101.724127325474
 30
0.0
 10
229.0286606945623
 20
101.8086651983672
 30
0.0
 10
228.9661546291463
 20
101.8939026318405
 30
0.0
 10
228.8868410572328
 20
102.0659145894777
 30
0.0
 10
228.8702372595736
 20
102.1531592939727
 30
0.0
 10
228.8923909214087
 20
102.4121450879656
 30
0.0
 10
229.0020082482378
 20
102.5820158954498
 30
0.0
 10
229.2873128019017
 20
102.8332710158478
 30
0.0
 10
229.4024402438026
 20
102.91643441424
 30
0.0
 10
229.6683408128756
 20
103.0817140355582
 30
0.0
 10
229.8187473855873
 20
103.1635459740281
 30
0.0
 10
230.308651235205
 20
103.4043566490755
 30
0.0
 10
230.6882017483187
 20
103.5598796796207
 30
0.0
 10
231.1034165862842
 20
103.7120231102074
 30
0.0
  0
LINE
  5
138
330
1F
100
AcDbEntity
  8
0
  6
HIDDEN
 62
     7
370
     0
100
AcDbLine
 10
243.5896804525
 20
111.152877516
 30
0.0
 11
243.3772718503
 21
111.0923639004
 31
0.0
  0
LINE
  5
139
330
1F
100
AcDbEntity
  8
0
  6
HIDDEN
 62
     7
370
     0
100
AcDbLine
 10
243.3264141871
 20
111.2532841013
 30
0.0
 11
243.3772718503
 21
111.0923639004
 31
0.0
  0
LINE
  5
13A
330
1F
100
AcDbEntity
  8
0
  6
HIDDEN
 62
     7
370
     0
100
AcDbLine
 10
240.4507880999
 20
112.0578753267
 30
0.0
 11
243.7561487748
 21
101.6001305048
 31
0.0
  0
ELLIPSE
  5
13B
330
1F
100
AcDbEntity
  8
0
  6
HIDDEN
 62
     7
370
     0
100
AcDbEllipse
 10
238.492223903
 20
47.4985313482
 30
0.0
 11
21.39702621087628
 21
70.55389860331948
 31
0.0
210
0.0
220
0.0
230
1.0
 40
0.2093503934
 41
0.7627383773348111
 42
0.7709318511262968
  0
LINE
  5
13C
330
1F
100
AcDbEntity
  8
0
  6
HIDDEN
 62
     7
370
     0
100
AcDbLine
 10
250.7765551998
 20
108.7650618953
 30
0.0
 11
243.3772718503
 21
111.0923639004
 31
0.0
  0
LINE
  5
13D
330
1F
100
AcDbEntity
  8
0
  6
HIDDEN
 62
     7
370
     0
100
AcDbLine
 10
250.7765551998
 20
108.7650618953
 30
0.0
 11
250.988963802
 21
108.8255755109
 31
0.0
  0
ARC
  5
13E
330
1F
100
AcDbEntity
  8
0
  6
HIDDEN
 62
     7
370
     0
100
AcDbCircle
 10
241.4341774539
 20
113.1964742774
 30
0.0
 40
1.250166339717856
100
AcDbArc
 50
17.5654364658
 51
182.2916879066
  0
LINE
  5
13F
330
1F
100
AcDbEntity
  8
0
  6
HIDDEN
 62
     7
370
     0
100
AcDbLine
 10
240.4810449077
 20
112.0667736483
 30
0.0
 11
243.6940258338
 21
101.9013230194
 31
0.0
  0
ELLIPSE
  5
140
330
1F
100
AcDbEntity
  8
0
  6
HIDDEN
 62
     7
370
     0
100
AcDbEllipse
 10
238.492223903
 20
142.3131837185
 30
0.0
 11
-25.84177378472353
 21
129.9623072976375
 31
0.0
210
0.0
220
0.0
230
1.0
 40
0.02203747
 41
1.882604348066414
 42
1.885043715948168
  0
LINE
  5
141
330
1F
100
AcDbEntity
  8
0
  6
HIDDEN
 62
     7
370
     0
100
AcDbLine
 10
243.3772718503
 20
111.0923639004
 30
0.0
 11
243.3772718503
 21
111.1969986902
 31
0.0
  0
LINE
  5
142
330
1F
100
AcDbEntity
  8
0
  6
HIDDEN
 62
     7
370
     0
100
AcDbLine
 10
250.5621274902
 20
108.9371419017
 30
0.0
 11
250.7765551998
 21
108.7650618953
 31
0.0
  0
CIRCLE
  5
143
330
1F
100
AcDbEntity
  8
0
  6
HIDDEN
 62
     7
370
     0
100
AcDbCircle
 10
247.203672375
 20
105.3949597057
 30
0.0
 40
2.398218980712748
  0
LINE
  5
144
330
1F
100
AcDbEntity
  8
0
  6
HIDDEN
 62
     7
370
     0
100
AcDbLine
 10
253.2504012777
 20
99.0374856134
 30
0.0
 11
253.5855581953
 21
99.3713945587
 31
0.0
  0
LINE
  5
145
330
1F
100
AcDbEntity
  8
0
  6
HIDDEN
 62
     7
370
     0
100
AcDbLine
 10
253.2504012777
 20
99.0374856134
 30
0.0
 11
246.2575172974
 21
101.2369640608
 31
0.0
  0
LINE
  5
146
330
1F
100
AcDbEntity
  8
0
  6
HIDDEN
 62
     7
370
     0
100
AcDbLine
 10
250.5621274902
 20
108.9371419017
 30
0.0
 11
243.3772718503
 21
111.1969986902
 31
0.0
  0
LINE
  5
147
330
1F
100
AcDbEntity
  8
0
  6
HIDDEN
 62
     7
370
     0
100
AcDbLine
 10
243.3772718503
 20
111.1969986902
 30
0.0
 11
242.6260521604
 21
113.5737680103
 31
0.0
  0
ELLIPSE
  5
148
330
1F
100
AcDbEntity
  8
0
  6
HIDDEN
 62
     7
370
     0
100
AcDbEllipse
 10
238.492223903
 20
76.2982101004
 30
0.0
 11
-5.684341886080801E-14
 21
26.13144513619379
 31
0.0
210
0.0
220
0.0
230
1.0
 40
0.9949698482
 41
5.979891802486659
 42
6.081756687702378
  0
LINE
  5
149
330
1F
100
AcDbEntity
  8
0
  6
HIDDEN
 62
     7
370
     0
100
AcDbLine
 10
250.5621274902
 20
108.9371419017
 30
0.0
 11
253.5855581953
 21
99.3713945587
 31
0.0
  0
CIRCLE
  5
14A
330
1F
100
AcDbEntity
  8
0
  6
HIDDEN
 62
     7
370
     0
100
AcDbCircle
 10
247.2038463623
 20
105.4460166304
 30
0.0
 40
1.648785519371468
  0
LINE
  5
14B
330
1F
100
AcDbEntity
  8
0
  6
HIDDEN
 62
     7
370
     0
100
AcDbLine
 10
252.7228703691
 20
99.7488176887
 30
0.0
 11
253.2504012777
 21
99.0374856134
 31
0.0
  0
LINE
  5
14C
330
1F
100
AcDbEntity
  8
0
  6
HIDDEN
 62
     7
370
     0
100
AcDbLine
 10
253.5855581953
 20
99.3713945587
 30
0.0
 11
252.9453298046
 21
100.2346840193
 31
0.0
  0
SPLINE
  5
14D
330
1F
100
AcDbEntity
  8
0
  6
HIDDEN
 62
     7
370
     0
100
AcDbSpline
210
0.0
220
0.0
230
1.0
 70
     8
 71
     3
 72
    54
 73
    50
 74
     0
 42
0.00000001
 43
0.00000001
 12
1.0
 22
0.0
 32
0.0
 13
1.0
 23
0.0
 33
0.0
 40
-0.0625000000000032
 40
-0.0625000000000032
 40
0.0
 40
0.0
 40
0.0312500000000008
 40
0.0312500000000008
 40
0.0625000000000015
 40
0.0625000000000015
 40
0.1249999999999999
 40
0.1249999999999999
 40
0.1562499999999991
 40
0.1562499999999991
 40
0.1874999999999984
 40
0.1874999999999984
 40
0.2499999999999978
 40
0.2499999999999978
 40
0.3124999999999971
 40
0.3124999999999971
 40
0.3749999999999964
 40
0.3749999999999964
 40
0.4374999999999958
 40
0.4374999999999958
 40
0.4687499999999938
 40
0.4687499999999938
 40
0.4999999999999919
 40
0.4999999999999919
 40
0.5624999999999918
 40
0.5624999999999918
 40
0.5937499999999934
 40
0.5937499999999934
 40
0.624999999999995
 40
0.624999999999995
 40
0.687499999999996
 40
0.687499999999996
 40
0.7187499999999961
 40
0.7187499999999961
 40
0.7499999999999962
 40
0.7499999999999962
 40
0.7812499999999963
 40
0.7812499999999963
 40
0.8124999999999964
 40
0.8124999999999964
 40
0.8437499999999966
 40
0.8437499999999966
 40
0.8749999999999966
 40
0.8749999999999966
 40
0.9062499999999967
 40
0.9062499999999967
 40
0.9374999999999968
 40
0.9374999999999968
 40
1.0
 40
1.0
 40
1.031250000000001
 40
1.031250000000001
 10
247.4384534032855
 20
104.2354661812875
 30
0.0
 10
247.0876862774903
 20
104.2354661812875
 30
0.0
 10
246.973462527422
 20
104.2483181803709
 30
0.0
 10
246.7500191276397
 20
104.2979652943028
 30
0.0
 10
246.640403935803
 20
104.3353253727452
 30
0.0
 10
246.3350962045413
 20
104.476093941737
 30
0.0
 10
246.1560945337455
 20
104.6104435056052
 30
0.0
 10
245.9386088978978
 20
104.8479621610634
 30
0.0
 10
245.8739625343122
 20
104.9337939096185
 30
0.0
 10
245.7630326847
 20
105.1125961611299
 30
0.0
 10
245.716089590461
 20
105.2062513272545
 30
0.0
 10
245.6003676037556
 20
105.5001055610467
 30
0.0
 10
245.5592773173926
 20
105.7047644580403
 30
0.0
 10
245.5506715112145
 20
106.1278781870479
 30
0.0
 10
245.5834486351158
 20
106.3375078238036
 30
0.0
 10
245.7289641572924
 20
106.7453636821339
 30
0.0
 10
245.839443210354
 20
106.9358249820796
 30
0.0
 10
246.1373819640109
 20
107.2701595526014
 30
0.0
 10
246.319789863275
 20
107.4078114457501
 30
0.0
 10
246.6344710140239
 20
107.5526748018939
 30
0.0
 10
246.7430491795872
 20
107.5892683370205
 30
0.0
 10
246.9674937988942
 20
107.6391644286167
 30
0.0
 10
247.0847479528955
 20
107.6522777508417
 30
0.0
 10
247.4312000240247
 20
107.6532206410891
 30
0.0
 10
247.6633010549021
 20
107.6025797111902
 30
0.0
 10
247.975714996414
 20
107.4608184714463
 30
0.0
 10
248.075776241411
 20
107.4018488489485
 30
0.0
 10
248.2579060461345
 20
107.2674871213665
 30
0.0
 10
248.3409523148537
 20
107.1918762674344
 30
0.0
 10
248.5666127664979
 20
106.9407536966389
 30
0.0
 10
248.6788580223345
 20
106.7480623491881
 30
0.0
 10
248.7884511292335
 20
106.4426950165908
 30
0.0
 10
248.8149473283424
 20
106.339156472455
 30
0.0
 10
248.8489925773567
 20
106.1289258213336
 30
0.0
 10
248.8563583348359
 20
106.0218632750031
 30
0.0
 10
248.8521486056682
 20
105.8118272640771
 30
0.0
 10
248.840790108843
 20
105.7079591734735
 30
0.0
 10
248.799720910478
 20
105.5024753939863
 30
0.0
 10
248.7697975902794
 20
105.4008839225823
 30
0.0
 10
248.6933509873418
 20
105.2068746145058
 30
0.0
 10
248.646700390807
 20
105.1135248922392
 30
0.0
 10
248.5356256063628
 20
104.9342950267919
 30
0.0
 10
248.4706735206904
 20
104.8481189671208
 30
0.0
 10
248.3267927402665
 20
104.6908143961927
 30
0.0
 10
248.2474109617399
 20
104.6187210001684
 30
0.0
 10
248.0720497496795
 20
104.4887598353584
 30
0.0
 10
247.9749276185387
 20
104.4305685373041
 30
0.0
 10
247.669279136768
 20
104.2890208430236
 30
0.0
 10
247.4384534032855
 20
104.2354661812875
 30
0.0
 10
247.0876862774903
 20
104.2354661812875
 30
0.0
  0
LINE
  5
14E
330
1F
100
AcDbEntity
  8
0
  6
HIDDEN
 62
     7
370
     0
100
AcDbLine
 10
162.1758898689
 20
102.5802031596
 30
0.0
 11
162.1758898689
 21
97.4400513311
 31
0.0
  0
SPLINE
  5
14F
330
1F
100
AcDbEntity
  8
0
  6
HIDDEN
 62
     7
370
     0
100
AcDbSpline
210
0.0
220
0.0
230
1.0
 70
     8
 71
     3
 72
    18
 73
    14
 74
     0
 42
0.00000001
 43
0.00000001
 12
1.0
 22
0.0
 32
0.0
 13
1.0
 23
0.0
 33
0.0
 40
0.0
 40
0.0
 40
0.0
 40
0.0
 40
0.2499999999999998
 40
0.2499999999999998
 40
0.3749999999999999
 40
0.3749999999999999
 40
0.5
 40
0.5
 40
0.6250000000000001
 40
0.6250000000000001
 40
0.7500000000000002
 40
0.7500000000000002
 40
1.0
 40
1.0
 40
1.0
 40
1.0
 10
163.0545695134243
 20
101.8651026232192
 30
0.0
 10
162.9192839071219
 20
101.2809010294875
 30
0.0
 10
162.818116160879
 20
100.7466833422793
 30
0.0
 10
162.71525481801
 20
100.0207865713909
 30
0.0
 10
162.6891519724868
 20
99.79090608361102
 30
0.0
 10
162.6542619889419
 20
99.36033513882423
 30
0.0
 10
162.645675730652
 20
99.16264023333005
 30
0.0
 10
162.6455760210863
 20
98.80129219065223
 30
0.0
 10
162.6540643922348
 20
98.63764218070611
 30
0.0
 10
162.6882077717554
 20
98.34443090773713
 30
0.0
 10
162.7140047536093
 20
98.21443484162131
 30
0.0
 10
162.8174058849972
 20
97.88037894905938
 30
0.0
 10
162.9192638771686
 20
97.7346027846946
 30
0.0
 10
163.0545695134243
 20
97.66323947874676
 30
0.0
  0
SPLINE
  5
150
330
1F
100
AcDbEntity
  8
0
  6
HIDDEN
 62
     7
370
     0
100
AcDbSpline
210
0.0
220
0.0
230
1.0
 70
     8
 71
     3
 72
    18
 73
    14
 74
     0
 42
0.00000001
 43
0.00000001
 12
1.0
 22
0.0
 32
0.0
 13
1.0
 23
0.0
 33
0.0
 40
0.0
 40
0.0
 40
0.0
 40
0.0
 40
0.2500000000000004
 40
0.2500000000000004
 40
0.3750000000000004
 40
0.3750000000000004
 40
0.5000000000000004
 40
0.5000000000000004
 40
0.6250000000000004
 40
0.6250000000000004
 40
0.7500000000000003
 40
0.7500000000000003
 40
1.0
 40
1.0
 40
1.0
 40
1.0
 10
163.0545695134243
 20
132.2570592147565
 30
0.0
 10
162.9192839071219
 20
132.1857064730669
 30
0.0
 10
162.818116160879
 20
132.0403030664775
 30
0.0
 10
162.71525481801
 20
131.7108358308718
 30
0.0
 10
162.6891519724868
 20
131.5819022540671
 30
0.0
 10
162.6542619889419
 20
131.286360254731
 30
0.0
 10
162.645675730652
 20
131.121965481209
 30
0.0
 10
162.6455760210863
 20
130.7610038664684
 30
0.0
 10
162.6540643922348
 20
130.5644340743062
 30
0.0
 10
162.6882077717554
 20
130.1390792781812
 30
0.0
 10
162.7140047536092
 20
129.9093096283817
 30
0.0
 10
162.8174058849972
 20
129.1767209339492
 30
0.0
 10
162.9192638771686
 20
128.6394841590316
 30
0.0
 10
163.0545695134243
 20
128.055196070284
 30
0.0
  0
LINE
  5
151
330
1F
100
AcDbEntity
  8
0
  6
HIDDEN
 62
     7
370
     0
100
AcDbLine
 10
135.8758898421
 20
102.9105768044
 30
0.0
 11
135.8758898421
 21
98.1007986207
 31
0.0
  0
LINE
  5
152
330
1F
100
AcDbEntity
  8
0
  6
HIDDEN
 62
     7
370
     0
100
AcDbLine
 10
135.8758898421
 20
131.8195000728
 30
0.0
 11
135.8758898421
 21
127.0097218891
 31
0.0
  0
LINE
  5
153
330
1F
100
AcDbEntity
  8
0
  6
HIDDEN
 62
     7
370
     0
100
AcDbLine
 10
134.3758905275
 20
130.9534743865
 30
0.0
 11
134.3758905275
 21
126.5767090459
 31
0.0
  0
LINE
  5
154
330
1F
100
AcDbEntity
  8
0
  6
HIDDEN
 62
     7
370
     0
100
AcDbLine
 10
162.1758898689
 20
132.4802473624
 30
0.0
 11
162.1758898689
 21
127.3400955339
 31
0.0
  0
LINE
  5
155
330
1F
100
AcDbEntity
  8
0
  6
HIDDEN
 62
     7
370
     0
100
AcDbLine
 10
134.3758905275
 20
103.3435896476
 30
0.0
 11
134.3758905275
 21
98.966824307
 31
0.0
  0
CIRCLE
  5
156
330
1F
100
AcDbEntity
  8
0
  6
HIDDEN
 62
     7
370
     0
100
AcDbCircle
 10
217.375889857
 20
114.9601493468
 30
0.0
 40
2.100000000000023
  0
ELLIPSE
  5
157
330
1F
100
AcDbEntity
  8
0
  6
HIDDEN
 62
     7
370
     0
100
AcDbEllipse
 10
270.2506557504
 20
112.9601493468
 30
0.0
 11
17.78422892287915
 21
16.57047652107815
 31
0.0
210
0.0
220
0.0
230
1.0
 40
0.2135193148
 41
2.64194882334193
 42
2.686169862211867
  0
ELLIPSE
  5
158
330
1F
100
AcDbEntity
  8
0
  6
HIDDEN
 62
     7
370
     0
100
AcDbEllipse
 10
204.7597302871
 20
112.9601493468
 30
0.0
 11
54.31434441551218
 21
-16.73983078825393
 31
0.0
210
0.0
220
0.0
230
1.0
 40
0.054548757
 41
0.5055167083903478
 42
0.7182377289169349
  0
SPLINE
  5
159
330
1F
100
AcDbEntity
  8
0
  6
HIDDEN
 62
     7
370
     0
100
AcDbSpline
210
0.0
220
0.0
230
1.0
 70
     8
 71
     3
 72
    10
 73
     6
 74
     0
 42
0.00000001
 43
0.00000001
 12
1.0
 22
0.0
 32
0.0
 13
1.0
 23
0.0
 33
0.0
 40
0.0
 40
0.0
 40
0.0
 40
0.0
 40
0.5
 40
0.5
 40
1.0
 40
1.0
 40
1.0
 40
1.0
 10
246.2575139915372
 20
102.3052996069493
 30
0.0
 10
245.043718868735
 20
102.7639783418981
 30
0.0
 10
243.7843569034599
 20
103.113720945203
 30
0.0
 10
241.1863992169759
 20
103.5882776789961
 30
0.0
 10
239.8391719622718
 20
103.7120231102074
 30
0.0
 10
238.4922239029975
 20
103.7120231102074
 30
0.0
  0
LINE
  5
15A
330
1F
100
AcDbEntity
  8
0
  6
HIDDEN
 62
     7
370
     0
100
AcDbLine
 10
238.4922241761
 20
103.7120227207
 30
0.0
 11
231.1034163429
 21
103.7120227207
 31
0.0
  0
ELLIPSE
  5
15B
330
1F
100
AcDbEntity
  8
0
  6
HIDDEN
 62
     7
370
     0
100
AcDbEllipse
 10
250.0282617294
 20
112.9601493468
 30
0.0
 11
-5.553874176690044
 21
16.99159215419371
 31
0.0
210
0.0
220
0.0
230
1.0
 40
0.0962569477
 41
1.539344142815211
 42
2.385226998336909
  0
CIRCLE
  5
15C
330
1F
100
AcDbEntity
  8
0
  6
HIDDEN
 62
     7
370
     0
100
AcDbCircle
 10
217.375889857
 20
114.9601493468
 30
0.0
 40
2.5
  0
LINE
  5
15D
330
1F
100
AcDbEntity
  8
0
  6
HIDDEN
 62
     7
370
     0
100
AcDbLine
 10
134.3758905275
 20
126.5767090459
 30
0.0
 11
134.3758905275
 21
117.2993203596
 31
0.0
  0
LINE
  5
15E
330
1F
100
AcDbEntity
  8
0
  6
HIDDEN
 62
     7
370
     0
100
AcDbLine
 10
134.3758905275
 20
112.6209783339
 30
0.0
 11
134.3758905275
 21
103.3435896476
 31
0.0
  0
LINE
  5
15F
330
1F
100
AcDbEntity
  8
0
  6
HIDDEN
 62
     7
370
     0
100
AcDbLine
 10
135.8758898421
 20
111.8116722879
 30
0.0
 11
135.8758898421
 21
102.9105768044
 31
0.0
  0
LINE
  5
160
330
1F
100
AcDbEntity
  8
0
  6
HIDDEN
 62
     7
370
     0
100
AcDbLine
 10
135.8758898421
 20
127.0097218891
 30
0.0
 11
135.8758898421
 21
118.1086264056
 31
0.0
  0
LINE
  5
161
330
1F
100
AcDbEntity
  8
0
  6
HIDDEN
 62
     7
370
     0
100
AcDbLine
 10
162.1758898689
 20
127.3400955339
 30
0.0
 11
162.1758898689
 21
102.5802031596
 31
0.0
  0
LINE
  5
162
330
1F
100
AcDbEntity
  8
0
  6
HIDDEN
 62
     7
370
     0
100
AcDbLine
 10
248.2188602878
 20
112.9601492518
 30
0.0
 11
247.5718369676
 21
114.9601493468
 31
0.0
  0
LINE
  5
163
330
1F
100
AcDbEntity
  8
0
  6
HIDDEN
 62
     7
370
     0
100
AcDbLine
 10
164.175889862
 20
126.5224231844
 30
0.0
 11
164.175889862
 21
103.3978755091
 31
0.0
  0
SPLINE
  5
164
330
1F
100
AcDbEntity
  8
0
  6
HIDDEN
 62
     7
370
     0
100
AcDbSpline
210
0.0
220
0.0
230
1.0
 70
     8
 71
     3
 72
     8
 73
     4
 74
     0
 42
0.00000001
 43
0.00000001
 12
1.0
 22
0.0
 32
0.0
 13
1.0
 23
0.0
 33
0.0
 40
0.0000202085968836
 40
0.0000202085968836
 40
0.0000202085968836
 40
0.0000202085968836
 40
0.0040218806502652
 40
0.0040218806502652
 40
0.0040218806502652
 40
0.0040218806502652
 10
135.8758898569839
 20
111.8116722284149
 30
0.0
 10
137.2092129827745
 20
111.7876739972513
 30
0.0
 10
138.5425468559971
 20
111.7643462570829
 30
0.0
 10
139.8758898569839
 20
111.7416515863025
 30
0.0
  0
SPLINE
  5
165
330
1F
100
AcDbEntity
  8
0
  6
HIDDEN
 62
     7
370
     0
100
AcDbSpline
210
0.0
220
0.0
230
1.0
 70
     8
 71
     3
 72
     8
 73
     4
 74
     0
 42
0.00000001
 43
0.00000001
 12
1.0
 22
0.0
 32
0.0
 13
1.0
 23
0.0
 33
0.0
 40
0.0000202082942178
 40
0.0000202082942178
 40
0.0000202082942178
 40
0.0000202082942178
 40
0.0040218803475994
 40
0.0040218803475994
 40
0.0040218803475994
 40
0.0040218803475994
 10
139.8758898569839
 20
118.1786471072006
 30
0.0
 10
138.5425468559971
 20
118.1559524364202
 30
0.0
 10
137.2092129827745
 20
118.1326246962519
 30
0.0
 10
135.8758898569839
 20
118.1086264650883
 30
0.0
  0
SPLINE
  5
166
330
1F
100
AcDbEntity
  8
0
  6
HIDDEN
 62
     7
370
     0
100
AcDbSpline
210
0.0
220
0.0
230
1.0
 70
     8
 71
     3
 72
     8
 73
     4
 74
     0
 42
0.00000001
 43
0.00000001
 12
1.0
 22
0.0
 32
0.0
 13
1.0
 23
0.0
 33
0.0
 40
0.0
 40
0.0
 40
0.0
 40
0.0
 40
1.0
 40
1.0
 40
1.0
 40
1.0
 10
134.375889856983
 20
112.6209784185172
 30
0.0
 10
134.850101267421
 20
112.2862491912221
 30
0.0
 10
135.3548376145229
 20
112.0271907773892
 30
0.0
 10
135.8758898569839
 20
111.8116722284149
 30
0.0
  0
SPLINE
  5
167
330
1F
100
AcDbEntity
  8
0
  6
HIDDEN
 62
     7
370
     0
100
AcDbSpline
210
0.0
220
0.0
230
1.0
 70
     8
 71
     3
 72
     8
 73
     4
 74
     0
 42
0.00000001
 43
0.00000001
 12
1.0
 22
0.0
 32
0.0
 13
1.0
 23
0.0
 33
0.0
 40
0.0
 40
0.0
 40
0.0
 40
0.0
 40
1.0
 40
1.0
 40
1.0
 40
1.0
 10
135.8758898569839
 20
118.1086264650883
 30
0.0
 10
135.3548376145232
 20
117.8931079161141
 30
0.0
 10
134.8501012674216
 20
117.6340495022814
 30
0.0
 10
134.3758898569839
 20
117.2993202749866
 30
0.0
  0
LINE
  5
168
330
1F
100
AcDbEntity
  8
0
  6
HIDDEN
 62
     7
370
     0
100
AcDbLine
 10
134.3758905275
 20
112.6209783339
 30
0.0
 11
134.3758905275
 21
117.2993203596
 31
0.0
  0
LINE
  5
169
330
1F
100
AcDbEntity
  8
0
  6
HIDDEN
 62
     7
370
     0
100
AcDbLine
 10
139.8758904977
 20
111.7416514986
 30
0.0
 11
139.8758904977
 21
118.1786471949
 31
0.0
  0
SPLINE
  5
16A
330
1F
100
AcDbEntity
  8
0
  6
HIDDEN
 62
     7
370
     0
100
AcDbSpline
210
0.0
220
0.0
230
1.0
 70
     8
 71
     3
 72
    26
 73
    22
 74
     0
 42
0.00000001
 43
0.00000001
 12
1.0
 22
0.0
 32
0.0
 13
1.0
 23
0.0
 33
0.0
 40
0.0
 40
0.0
 40
0.0
 40
0.0
 40
0.1249999999999998
 40
0.1249999999999998
 40
0.2499999999999996
 40
0.2499999999999996
 40
0.3749999999999993
 40
0.3749999999999993
 40
0.4374999999999995
 40
0.4374999999999995
 40
0.4999999999999997
 40
0.4999999999999997
 40
0.5624999999999999
 40
0.5624999999999999
 40
0.6250000000000001
 40
0.6250000000000001
 40
0.75
 40
0.75
 40
0.875
 40
0.875
 40
1.0
 40
1.0
 40
1.0
 40
1.0
 10
139.8758898569839
 20
111.7416515863025
 30
0.0
 10
140.0865332189838
 20
111.9762686172476
 30
0.0
 10
140.2937296567409
 20
112.214151753207
 30
0.0
 10
140.6952287913732
 20
112.7014660594759
 30
0.0
 10
140.8905052104192
 20
112.9515912842649
 30
0.0
 10
141.2502857031147
 20
113.4701814297159
 30
0.0
 10
141.415544563264
 20
113.7376124136027
 30
0.0
 10
141.6082024726902
 20
114.1690275460012
 30
0.0
 10
141.6631672129002
 20
114.3190464279256
 30
0.0
 10
141.7409029978644
 20
114.6317836066556
 30
0.0
 10
141.7621691361727
 20
114.7895378534628
 30
0.0
 10
141.7640630654585
 20
115.1082431333086
 30
0.0
 10
141.7438373283914
 20
115.2706799334892
 30
0.0
 10
141.6693729181056
 20
115.5816319330718
 30
0.0
 10
141.6157337923596
 20
115.7323031713995
 30
0.0
 10
141.420989486959
 20
116.1743869293681
 30
0.0
 10
141.2539393737807
 20
116.4444309425358
 30
0.0
 10
140.8936832550771
 20
116.9645385708172
 30
0.0
 10
140.6989308800567
 20
117.2141997836269
 30
0.0
 10
140.2959216555844
 20
117.7036238954697
 30
0.0
 10
140.0874851372209
 20
117.9429698186336
 30
0.0
 10
139.8758898569849
 20
118.1786471072015
 30
0.0
  0
SPLINE
  5
16B
330
1F
100
AcDbEntity
  8
0
  6
HIDDEN
 62
     7
370
     0
100
AcDbSpline
210
0.0
220
0.0
230
1.0
 70
     8
 71
     3
 72
    68
 73
    64
 74
     0
 42
0.00000001
 43
0.00000001
 12
1.0
 22
0.0
 32
0.0
 13
1.0
 23
0.0
 33
0.0
 40
-0.03125
 40
-0.03125
 40
0.0
 40
0.0
 40
0.03125
 40
0.03125
 40
0.0625
 40
0.0625
 40
0.09375
 40
0.09375
 40
0.125
 40
0.125
 40
0.1875
 40
0.1875
 40
0.21875
 40
0.21875
 40
0.25
 40
0.25
 40
0.28125
 40
0.28125
 40
0.3125
 40
0.3125
 40
0.34375
 40
0.34375
 40
0.375
 40
0.375
 40
0.40625
 40
0.40625
 40
0.4375
 40
0.4375
 40
0.46875
 40
0.46875
 40
0.5
 40
0.5
 40
0.53125
 40
0.53125
 40
0.5625
 40
0.5625
 40
0.59375
 40
0.59375
 40
0.625
 40
0.625
 40
0.65625
 40
0.65625
 40
0.6875
 40
0.6875
 40
0.71875
 40
0.71875
 40
0.75
 40
0.75
 40
0.78125
 40
0.78125
 40
0.8125
 40
0.8125
 40
0.84375
 40
0.84375
 40
0.875
 40
0.875
 40
0.90625
 40
0.90625
 40
0.9375
 40
0.9375
 40
0.96875
 40
0.96875
 40
1.0
 40
1.0
 40
1.03125
 40
1.03125
 10
147.7597161443204
 20
116.8569669233682
 30
0.0
 10
148.0501806266122
 20
117.1753991643687
 30
0.0
 10
148.2090969249937
 20
117.3179166900724
 30
0.0
 10
148.5526776106315
 20
117.5716312271621
 30
0.0
 10
148.7388489635372
 20
117.6831950536711
 30
0.0
 10
149.1233790361229
 20
117.8674440903401
 30
0.0
 10
149.3229895382877
 20
117.9413583564289
 30
0.0
 10
149.7368291232612
 20
118.0530002459891
 30
0.0
 10
149.9496389329324
 20
118.0899243002779
 30
0.0
 10
150.5855704072732
 20
118.1425261208534
 30
0.0
 10
151.0206366279009
 20
118.1003177301932
 30
0.0
 10
151.6328794948886
 20
117.9264831249978
 30
0.0
 10
151.8327245830006
 20
117.8498648971857
 30
0.0
 10
152.2171018917287
 20
117.6596900288428
 30
0.0
 10
152.3976502825913
 20
117.5483305946243
 30
0.0
 10
152.7357102103008
 20
117.2932253259019
 30
0.0
 10
152.8947420267121
 20
117.1477195377092
 30
0.0
 10
153.1795387069345
 20
116.8294808835363
 30
0.0
 10
153.3044842358093
 20
116.6584285650172
 30
0.0
 10
153.518786376223
 20
116.2918679789041
 30
0.0
 10
153.6086851553978
 20
116.0937992451015
 30
0.0
 10
153.7423374445268
 20
115.689216491892
 30
0.0
 10
153.7873453798408
 20
115.4816013118749
 30
0.0
 10
153.8321248604582
 20
115.0553115554461
 30
0.0
 10
153.8310511994424
 20
114.8386732574978
 30
0.0
 10
153.7830314057269
 20
114.4157132305404
 30
0.0
 10
153.7356184285021
 20
114.2047165452811
 30
0.0
 10
153.5973031796854
 20
113.7989278298492
 30
0.0
 10
153.5076223214632
 20
113.6059811711867
 30
0.0
 10
153.288939611136
 20
113.2390745482033
 30
0.0
 10
153.1594918933073
 20
113.0655693999812
 30
0.0
 10
152.8729862892779
 20
112.7515673019906
 30
0.0
 10
152.7141274710399
 20
112.6084643755362
 30
0.0
 10
152.369129649087
 20
112.3531334596832
 30
0.0
 10
152.1869125449667
 20
112.2436012820827
 30
0.0
 10
151.8040724683276
 20
112.0586744552945
 30
0.0
 10
151.6013282432544
 20
111.982858628453
 30
0.0
 10
151.1894996687911
 20
111.8702781362109
 30
0.0
 10
150.9802808921916
 20
111.8329379166262
 30
0.0
 10
150.5552880579571
 20
111.7957068970961
 30
0.0
 10
150.338130780884
 20
111.7962728610278
 30
0.0
 10
149.9137529417308
 20
111.8356705649172
 30
0.0
 10
149.7046362938811
 20
111.8740997995514
 30
0.0
 10
149.2926953049871
 20
111.9893048340888
 30
0.0
 10
149.090127200094
 20
112.0665697645932
 30
0.0
 10
148.7085267576267
 20
112.2542520347251
 30
0.0
 10
148.5272158217475
 20
112.3651653865371
 30
0.0
 10
148.1846239248135
 20
112.623118825268
 30
0.0
 10
148.0258003078593
 20
112.7688345208773
 30
0.0
 10
147.7427555287589
 20
113.0851556785868
 30
0.0
 10
147.6167455967731
 20
113.257189389986
 30
0.0
 10
147.3996385529582
 20
113.629731967975
 30
0.0
 10
147.3122032566843
 20
113.823853753249
 30
0.0
 10
147.1790099761368
 20
114.2276284823286
 30
0.0
 10
147.1331093940321
 20
114.4401254089361
 30
0.0
 10
147.0887928530983
 20
114.8657212697942
 30
0.0
 10
147.0896350405808
 20
115.0785551080635
 30
0.0
 10
147.1374737350018
 20
115.5042948378933
 30
0.0
 10
147.1850095904709
 20
115.7160570033065
 30
0.0
 10
147.3217481856988
 20
116.1195465377638
 30
0.0
 10
147.4120317309744
 20
116.3153051587168
 30
0.0
 10
147.6317426232394
 20
116.684905385465
 30
0.0
 10
147.7597161443204
 20
116.8569669233682
 30
0.0
 10
148.0501806266122
 20
117.1753991643687
 30
0.0
  0
CIRCLE
  5
16C
330
1F
100
AcDbEntity
  8
0
  6
HIDDEN
 62
     7
370
     0
100
AcDbCircle
 10
150.375889857
 20
114.9601493468
 30
0.0
 40
3.049999999999997
  0
CIRCLE
  5
16D
330
1F
100
AcDbEntity
  8
0
  6
HIDDEN
 62
     7
370
     0
100
AcDbCircle
 10
176.375889857
 20
114.9601493468
 30
0.0
 40
2.0
  0
LINE
  5
16E
330
1F
100
AcDbEntity
  8
0
  6
HIDDEN
 62
     7
370
     0
100
AcDbLine
 10
164.375889857
 20
95.4101499607
 30
0.0
 11
164.4687830774
 21
95.5030419369
 31
0.0
  0
LINE
  5
16F
330
1F
100
AcDbEntity
  8
0
  6
HIDDEN
 62
     7
370
     0
100
AcDbLine
 10
164.4687830774
 20
134.4172567566
 30
0.0
 11
164.375889857
 21
134.5101487328
 31
0.0
  0
ARC
  5
170
330
1F
100
AcDbEntity
  8
0
  6
HIDDEN
 62
     7
370
     0
100
AcDbCircle
 10
163.7616762946
 20
96.2101493468
 30
0.0
 40
1.0
100
AcDbArc
 50
315.0
 51
0.0
  0
ARC
  5
171
330
1F
100
AcDbEntity
  8
0
  6
HIDDEN
 62
     7
370
     0
100
AcDbCircle
 10
163.7616762946
 20
96.2101493468
 30
0.0
 40
1.00000000000001
100
AcDbArc
 50
0.0
 51
52.1052014664
  0
ARC
  5
172
330
1F
100
AcDbEntity
  8
0
  6
HIDDEN
 62
     7
370
     0
100
AcDbCircle
 10
163.7616762946
 20
133.7101493468
 30
0.0
 40
1.000000000000008
100
AcDbArc
 50
351.8087250651
 51
45.0
  0
ARC
  5
173
330
1F
100
AcDbEntity
  8
0
  6
HIDDEN
 62
     7
370
     0
100
AcDbCircle
 10
163.7616762946
 20
133.7101493468
 30
0.0
 40
1.000000000000021
100
AcDbArc
 50
307.8947985336
 51
351.8087250651
  0
LINE
  5
174
330
1F
100
AcDbEntity
  8
0
  6
HIDDEN
 62
     7
370
     0
100
AcDbLine
 10
164.7616762928
 20
96.2101486017
 30
0.0
 11
164.7616762928
 21
133.7101500918
 31
0.0
  0
LINE
  5
175
330
1F
100
AcDbEntity
  8
0
  6
HIDDEN
 62
     7
370
     0
100
AcDbLine
 10
164.7616762928
 20
96.2101486017
 30
0.0
 11
164.7616762928
 21
133.7101500918
 31
0.0
  0
ARC
  5
176
330
1F
100
AcDbEntity
  8
0
  6
HIDDEN
 62
     7
370
     0
100
AcDbCircle
 10
140.875889857
 20
104.4601493468
 30
0.0
 40
1.50000000000002
100
AcDbArc
 50
191.0958032831
 51
270.0
  0
ARC
  5
177
330
1F
100
AcDbEntity
  8
0
  6
HIDDEN
 62
     7
370
     0
100
AcDbCircle
 10
140.875889857
 20
125.4601493468
 30
0.0
 40
1.50000000000002
100
AcDbArc
 50
90.0
 51
168.9041967169
  0
ARC
  5
178
330
1F
100
AcDbEntity
  8
0
  6
HIDDEN
 62
     7
370
     0
100
AcDbCircle
 10
141.882609369
 20
104.4601493468
 30
0.0
 40
1.500000000000022
100
AcDbArc
 50
270.0
 51
315.0
  0
ARC
  5
179
330
1F
100
AcDbEntity
  8
0
  6
HIDDEN
 62
     7
370
     0
100
AcDbCircle
 10
141.882609369
 20
125.4601493468
 30
0.0
 40
1.500000000000012
100
AcDbArc
 50
45.0
 51
90.0
  0
LINE
  5
17A
330
1F
100
AcDbEntity
  8
0
  6
HIDDEN
 62
     7
370
     0
100
AcDbLine
 10
140.8758906616
 20
102.9601492424
 30
0.0
 11
141.8826093866
 21
102.9601492424
 31
0.0
  0
LINE
  5
17B
330
1F
100
AcDbEntity
  8
0
  6
HIDDEN
 62
     7
370
     0
100
AcDbLine
 10
141.8826093866
 20
126.9601494511
 30
0.0
 11
140.8758906616
 21
126.9601494511
 31
0.0
  0
LINE
  5
17C
330
1F
100
AcDbEntity
  8
0
  6
HIDDEN
 62
     7
370
     0
100
AcDbLine
 10
134.3758905275
 20
103.1967368414
 30
0.0
 11
135.4039290889
 21
103.7902761687
 31
0.0
  0
LINE
  5
17D
330
1F
100
AcDbEntity
  8
0
  6
HIDDEN
 62
     7
370
     0
100
AcDbLine
 10
135.4039290889
 20
126.1300225248
 30
0.0
 11
134.3758905275
 21
126.7235618521
 31
0.0
  0
LINE
  5
17E
330
1F
100
AcDbEntity
  8
0
  6
HIDDEN
 62
     7
370
     0
100
AcDbLine
 10
142.9432703151
 20
103.3994894911
 30
0.0
 11
144.0039293809
 21
104.4601494883
 31
0.0
  0
LINE
  5
17F
330
1F
100
AcDbEntity
  8
0
  6
HIDDEN
 62
     7
370
     0
100
AcDbLine
 10
144.0039293809
 20
125.4601492052
 30
0.0
 11
142.9432703151
 21
126.5208092024
 31
0.0
  0
LINE
  5
180
330
1F
100
AcDbEntity
  8
0
  6
HIDDEN
 62
     7
370
     0
100
AcDbLine
 10
135.4039290889
 20
103.7902761687
 30
0.0
 11
137.90393043
 21
104.4601494883
 31
0.0
  0
LINE
  5
181
330
1F
100
AcDbEntity
  8
0
  6
HIDDEN
 62
     7
370
     0
100
AcDbLine
 10
137.90393043
 20
125.4601492052
 30
0.0
 11
135.4039290889
 21
126.1300225248
 31
0.0
  0
LINE
  5
182
330
1F
100
AcDbEntity
  8
0
  6
HIDDEN
 62
     7
370
     0
100
AcDbLine
 10
216.7493550076
 20
117.2678099916
 30
0.0
 11
214.8932477428
 21
115.9315814817
 31
0.0
  0
LINE
  5
183
330
1F
100
AcDbEntity
  8
0
  6
HIDDEN
 62
     7
370
     0
100
AcDbLine
 10
214.8932477428
 20
115.9315814817
 30
0.0
 11
215.0658404423
 21
113.651045083
 31
0.0
  0
LINE
  5
184
330
1F
100
AcDbEntity
  8
0
  6
HIDDEN
 62
     7
370
     0
100
AcDbLine
 10
218.2936554744
 20
116.6651325271
 30
0.0
 11
216.903723587
 21
117.3121116095
 31
0.0
  0
LINE
  5
185
330
1F
100
AcDbEntity
  8
0
  6
HIDDEN
 62
     7
370
     0
100
AcDbLine
 10
224.6498649909
 20
113.7064793817
 30
0.0
 11
218.9440762593
 21
116.3623793487
 31
0.0
  0
LINE
  5
186
330
1F
100
AcDbEntity
  8
0
  6
HIDDEN
 62
     7
370
     0
100
AcDbLine
 10
215.1313310458
 20
113.5044049676
 30
0.0
 11
224.6620243384
 21
109.0681100701
 31
0.0
  0
LINE
  5
187
330
1F
100
AcDbEntity
  8
0
  6
HIDDEN
 62
     7
370
     0
100
AcDbLine
 10
139.4039297445
 20
125.7488247444
 30
0.0
 11
138.9039305939
 21
125.4601492052
 31
0.0
  0
LINE
  5
188
330
1F
100
AcDbEntity
  8
0
  6
HIDDEN
 62
     7
370
     0
100
AcDbLine
 10
138.9039305939
 20
104.4601494883
 30
0.0
 11
139.4039297445
 21
104.1714739491
 31
0.0
  0
LINE
  5
189
330
1F
100
AcDbEntity
  8
0
  6
HIDDEN
 62
     7
370
     0
100
AcDbLine
 10
144.0039293809
 20
104.4601494883
 30
0.0
 11
153.8758899985
 21
104.4601494883
 31
0.0
  0
LINE
  5
18A
330
1F
100
AcDbEntity
  8
0
  6
HIDDEN
 62
     7
370
     0
100
AcDbLine
 10
153.8758899985
 20
125.4601492052
 30
0.0
 11
144.0039293809
 21
125.4601492052
 31
0.0
  0
ARC
  5
18B
330
1F
100
AcDbEntity
  8
0
  6
HIDDEN
 62
     7
370
     0
100
AcDbCircle
 10
153.875889857
 20
104.9601493468
 30
0.0
 40
0.5000000000000142
100
AcDbArc
 50
270.0
 51
360.0
  0
ARC
  5
18C
330
1F
100
AcDbEntity
  8
0
  6
HIDDEN
 62
     7
370
     0
100
AcDbCircle
 10
153.875889857
 20
124.9601493468
 30
0.0
 40
0.5
100
AcDbArc
 50
0.0
 51
90.0
  0
LINE
  5
18D
330
1F
100
AcDbEntity
  8
0
  6
HIDDEN
 62
     7
370
     0
100
AcDbLine
 10
137.90393043
 20
104.4601494883
 30
0.0
 11
138.9039305939
 21
104.4601494883
 31
0.0
  0
LINE
  5
18E
330
1F
100
AcDbEntity
  8
0
  6
HIDDEN
 62
     7
370
     0
100
AcDbLine
 10
138.9039305939
 20
125.4601492052
 30
0.0
 11
137.90393043
 21
125.4601492052
 31
0.0
  0
LINE
  5
18F
330
1F
100
AcDbEntity
  8
0
  6
HIDDEN
 62
     7
370
     0
100
AcDbLine
 10
154.3758900805
 20
106.7101493915
 30
0.0
 11
155.3758902444
 21
107.7101495554
 31
0.0
  0
LINE
  5
190
330
1F
100
AcDbEntity
  8
0
  6
HIDDEN
 62
     7
370
     0
100
AcDbLine
 10
155.3758902444
 20
122.2101491381
 30
0.0
 11
154.3758900805
 21
123.210149302
 31
0.0
  0
LINE
  5
191
330
1F
100
AcDbEntity
  8
0
  6
HIDDEN
 62
     7
370
     0
100
AcDbLine
 10
179.3758895217
 20
107.7101495554
 30
0.0
 11
181.7793322696
 21
111.7101492797
 31
0.0
  0
LINE
  5
192
330
1F
100
AcDbEntity
  8
0
  6
HIDDEN
 62
     7
370
     0
100
AcDbLine
 10
181.7793322696
 20
118.2101494138
 30
0.0
 11
179.3758895217
 21
122.2101491381
 31
0.0
  0
LINE
  5
193
330
1F
100
AcDbEntity
  8
0
  6
HIDDEN
 62
     7
370
     0
100
AcDbLine
 10
155.3758902444
 20
107.7101495554
 30
0.0
 11
179.3758895217
 21
107.7101495554
 31
0.0
  0
LINE
  5
194
330
1F
100
AcDbEntity
  8
0
  6
HIDDEN
 62
     7
370
     0
100
AcDbLine
 10
179.3758895217
 20
122.2101491381
 30
0.0
 11
155.3758902444
 21
122.2101491381
 31
0.0
  0
LINE
  5
195
330
1F
100
AcDbEntity
  8
0
  6
HIDDEN
 62
     7
370
     0
100
AcDbLine
 10
220.3758915855
 20
111.7101492797
 30
0.0
 11
222.3286850347
 21
114.9601493468
 31
0.0
  0
LINE
  5
196
330
1F
100
AcDbEntity
  8
0
  6
HIDDEN
 62
     7
370
     0
100
AcDbLine
 10
222.3286850347
 20
114.9601493468
 30
0.0
 11
220.3758915855
 21
118.2101494138
 31
0.0
  0
LINE
  5
197
330
1F
100
AcDbEntity
  8
0
  6
HIDDEN
 62
     7
370
     0
100
AcDbLine
 10
220.3758915855
 20
118.2101494138
 30
0.0
 11
181.7793322696
 21
118.2101494138
 31
0.0
  0
LINE
  5
198
330
1F
100
AcDbEntity
  8
0
  6
HIDDEN
 62
     7
370
     0
100
AcDbLine
 10
181.7793322696
 20
111.7101492797
 30
0.0
 11
220.3758915855
 21
111.7101492797
 31
0.0
  0
ARC
  5
199
330
1F
100
AcDbEntity
  8
0
  6
HIDDEN
 62
     7
370
     0
100
AcDbCircle
 10
227.9616762946
 20
101.4601493468
 30
0.0
 40
1.000000000000028
100
AcDbArc
 50
64.6825126226
 51
90.0
  0
LINE
  5
19A
330
1F
100
AcDbEntity
  8
0
  6
HIDDEN
 62
     7
370
     0
100
AcDbLine
 10
240.183908303
 20
113.1988014764
 30
0.0
 11
240.183908303
 21
113.0941666867
 31
0.0
  0
LINE
  5
19B
330
1F
100
AcDbEntity
  8
0
  6
HIDDEN
 62
     7
370
     0
100
AcDbLine
 10
248.8546108796
 20
105.4432126199
 30
0.0
 11
248.8546108796
 21
105.9521599178
 31
0.0
  0
LINE
  5
19C
330
1F
100
AcDbEntity
  8
0
  6
HIDDEN
 62
     7
370
     0
100
AcDbLine
 10
245.5546071722
 20
105.9522632946
 30
0.0
 11
245.5546071722
 21
105.4432126199
 31
0.0
  0
LINE
  5
19D
330
1F
100
AcDbEntity
  8
0
  6
HIDDEN
 62
     7
370
     0
100
AcDbLine
 10
164.175889862
 20
103.2145847072
 30
0.0
 11
164.175889862
 21
103.3978755091
 31
0.0
  0
LINE
  5
19E
330
1F
100
AcDbEntity
  8
VERMASSUNG
  6
CENTERX2
100
AcDbLine
 10
131.5452899996
 20
114.9601493468
 30
0.0
 11
254.375889857
 21
114.9601493468
 31
0.0
  0
LINE
  5
19F
330
1F
100
AcDbEntity
  8
VERMASSUNG
  6
CENTERX2
100
AcDbLine
 10
254.375889857
 20
97.9601493468
 30
0.0
 11
254.375889857
 21
114.9601493468
 31
0.0
  0
LINE
  5
1A0
330
1F
100
AcDbEntity
  8
VERMASSUNG
  6
CENTERX2
100
AcDbLine
 10
254.375889857
 20
97.9601493468
 30
0.0
 11
265.3215536236
 21
97.9601493468
 31
0.0
  0
DIMENSION
  5
1A1
330
1F
100
AcDbEntity
  8
VERMASSUNG
100
AcDbDimension
  2
_D
 10
254.375889857
 20
79.9601493468
 30
0.0
 11
209.375889857
 21
79.9601493468
 31
0.0
 70
   160
  1
<>
 71
     2
 42
-1.0
  3
SLDDIMSTYLE0
100
AcDbAlignedDimension
 13
164.375889857
 23
90.2601493468
 33
0.0
 14
254.375889857
 24
97.9601493468
 34
0.0
100
AcDbRotatedDimension
  0
DIMENSION
  5
1AC
330
1F
100
AcDbEntity
  8
VERMASSUNG
100
AcDbDimension
  2
_D_1
 10
254.375889857
 20
73.9601493468
 30
0.0
 11
194.375889857
 21
73.9601493468
 31
0.0
 70
   160
  1
<>
 71
     2
 42
-1.0
  3
SLDDIMSTYLE0
100
AcDbAlignedDimension
 13
134.375889857
 23
98.9668235086
 33
0.0
 14
254.375889857
 24
97.9601493468
 34
0.0
100
AcDbRotatedDimension
  0
DIMENSION
  5
1B6
330
1F
100
AcDbEntity
  8
VERMASSUNG
100
AcDbDimension
  2
_D_2
 10
270.4997458883
 20
114.9601493468
 30
0.0
 11
270.4997458883
 21
106.4601493468
 31
0.0
 70
   160
  1
<>
 71
     2
 42
-1.0
  3
SLDDIMSTYLE0
100
AcDbAlignedDimension
 13
254.375889857
 23
97.9601493468
 33
0.0
 14
254.375889857
 24
114.9601493468
 34
0.0
 50
90.0
100
AcDbRotatedDimension
  0
DIMENSION
  5
1C0
330
1F
100
AcDbEntity
  8
VERMASSUNG
100
AcDbDimension
  2
_D_3
 10
254.3599901238
 20
98.470895556
 30
0.0
 11
260.5075427804
 21
106.1301856323
 31
0.0
 70
   162
  1
<>
 71
     1
 42
-1.0
  3
SLDDIMSTYLE1
100
AcDb2LineAngularDimension
 13
265.3215536236
 23
97.9601493468
 33
0.0
 14
254.375889857
 24
97.9601493468
 34
0.0
 15
251.1540132883
 25
108.6141861423
 35
0.0
 16
260.5075427804
 26
106.1301856323
 36
0.0
  0
DIMENSION
  5
1C9
330
1F
100
AcDbEntity
  8
VERMASSUNG
100
AcDbDimension
  2
_D_4
 10
124.375889857
 20
89.9601493468
 30
0.0
 11
124.375889857
 21
114.9601493468
 31
0.0
 70
   160
  1
PSC%%c<>
 71
     2
 42
-1.0
  3
SLDDIMSTYLE0
100
AcDbAlignedDimension
 13
164.675889857
 23
139.9601493468
 33
0.0
 14
164.675889857
 24
89.9601493468
 34
0.0
 50
90.0
100
AcDbRotatedDimension
  0
DIMENSION
  5
1D5
330
1F
100
AcDbEntity
  8
VERMASSUNG
100
AcDbDimension
  2
_D_5
 10
200.3981985502
 20
127.4601493468
 30
0.0
 11
200.3981985502
 21
107.9577086507
 31
0.0
 70
   160
  1
%%c<>
 71
     2
 42
-1.0
  3
SLDDIMSTYLE0
100
AcDbAlignedDimension
 13
188.375889857
 23
102.4601493468
 33
0.0
 14
188.375889857
 24
127.4601493468
 34
0.0
 50
90.0
100
AcDbRotatedDimension
  0
LINE
  5
1DE
330
1F
100
AcDbEntity
  8
0
  6
Continuous
 62
     7
370
    15
100
AcDbLine
 10
64.1888133831
 20
103.4370283102
 30
0.0
 11
64.220267377
 21
103.4392280941
 31
0.0
  0
SPLINE
  5
1DF
330
1F
100
AcDbEntity
  8
0
  6
Continuous
 62
     7
370
    15
100
AcDbSpline
210
0.0
220
0.0
230
1.0
 70
     8
 71
     3
 72
    10
 73
     6
 74
     0
 42
0.00000001
 43
0.00000001
 12
1.0
 22
0.0
 32
0.0
 13
1.0
 23
0.0
 33
0.0
 40
0.0
 40
0.0
 40
0.0
 40
0.0
 40
0.3326244556838674
 40
0.6678450967289952
 40
1.0
 40
1.0
 40
1.0
 40
1.0
 10
64.55629378968173
 20
97.94616740838947
 30
0.0
 10
64.9972852176697
 20
98.04967160970504
 30
0.0
 10
65.8827100799991
 20
98.25748787864816
 30
0.0
 10
67.23269262149569
 20
98.51079039758453
 30
0.0
 10
68.11439779299991
 20
98.72413705577692
 30
0.0
 10
68.55322522449445
 20
98.83032035724582
 30
0.0
  0
LINE
  5
1E0
330
1F
100
AcDbEntity
  8
0
  6
Continuous
 62
     7
370
    15
100
AcDbLine
 10
63.9178410346
 20
112.0648027369
 30
0.0
 11
63.5669721231
 21
112.0941247296
 31
0.0
  0
LINE
  5
1E1
330
1F
100
AcDbEntity
  8
0
  6
Continuous
 62
     7
370
    15
100
AcDbLine
 10
67.8155101776
 20
108.9371419017
 30
0.0
 11
66.3238803098
 21
108.7650618953
 31
0.0
  0
LINE
  5
1E2
330
1F
100
AcDbEntity
  8
0
  6
Continuous
 62
     7
370
    15
100
AcDbLine
 10
66.3238803098
 20
108.7650618953
 30
0.0
 11
64.1443498606
 21
108.8255755109
 31
0.0
  0
LINE
  5
1E3
330
1F
100
AcDbEntity
  8
0
  6
Continuous
 62
     7
370
    15
100
AcDbLine
 10
62.8149734984
 20
127.8365435515
 30
0.0
 11
64.1443498606
 21
108.8255755109
 31
0.0
  0
ARC
  5
1E4
330
1F
100
AcDbEntity
  8
0
  6
Continuous
 62
     7
370
    15
100
AcDbCircle
 10
64.6034019009
 20
114.9601493468
 30
0.0
 40
13.00000000000001
100
AcDbArc
 50
0.0
 51
97.9073388765
  0
LINE
  5
1E5
330
1F
100
AcDbEntity
  8
0
  6
Continuous
 62
     7
370
    15
100
AcDbLine
 10
77.6034021691
 20
112.9601492518
 30
0.0
 11
77.6034021691
 21
114.9601493468
 31
0.0
  0
ARC
  5
1E6
330
1F
100
AcDbEntity
  8
0
  6
Continuous
 62
     7
370
    15
100
AcDbCircle
 10
60.6034019009
 20
112.9601493468
 30
0.0
 40
17.00000000000001
100
AcDbArc
 50
311.5344824161
 51
0.0
  0
LINE
  5
1E7
330
1F
100
AcDbEntity
  8
0
  6
Continuous
 62
     7
370
    15
100
AcDbLine
 10
68.4844123606
 20
99.3713945587
 30
0.0
 11
71.8756034911
 21
100.2346840193
 31
0.0
  0
LINE
  5
1E8
330
1F
100
AcDbEntity
  8
0
  6
Continuous
 62
     7
370
    15
100
AcDbLine
 10
67.8155101776
 20
108.9371419017
 30
0.0
 11
67.8304681495
 21
108.7232324731
 31
0.0
  0
ARC
  5
1E9
330
1F
100
AcDbEntity
  8
0
  6
Continuous
 62
     7
370
    15
100
AcDbCircle
 10
60.6034019009
 20
112.9601493468
 30
0.0
 40
17.00000000000002
100
AcDbArc
 50
309.0008035232
 51
311.5344824161
  0
LINE
  5
1EA
330
1F
100
AcDbEntity
  8
0
  6
Continuous
 62
     7
370
    15
100
AcDbLine
 10
71.302034048
 20
99.7488176887
 30
0.0
 11
68.5077615489
 21
99.0374856134
 31
0.0
  0
SPLINE
  5
1EB
330
1F
100
AcDbEntity
  8
0
  6
Continuous
 62
     7
370
    15
100
AcDbSpline
210
0.0
220
0.0
230
1.0
 70
     8
 71
     3
 72
    11
 73
     7
 74
     0
 42
0.00000001
 43
0.00000001
 12
1.0
 22
0.0
 32
0.0
 13
1.0
 23
0.0
 33
0.0
 40
0.0
 40
0.0
 40
0.0
 40
0.0
 40
0.1725471048294368
 40
0.5457880904319256
 40
0.9170390421264281
 40
1.0
 40
1.0
 40
1.0
 40
1.0
 10
64.2883431281722
 20
102.4656998430318
 30
0.0
 10
64.23320446700951
 20
102.4665611801401
 30
0.0
 10
64.05879398000249
 20
102.4692856972278
 30
0.0
 10
63.45036109541432
 20
102.5047764045143
 30
0.0
 10
62.80098526698527
 20
102.5847260857557
 30
0.0
 10
62.41637034803858
 20
102.653153022227
 30
0.0
 10
62.34612115065706
 20
102.6656510745114
 30
0.0
  0
SPLINE
  5
1EC
330
1F
100
AcDbEntity
  8
0
  6
Continuous
 62
     7
370
    15
100
AcDbSpline
210
0.0
220
0.0
230
1.0
 70
     8
 71
     3
 72
    16
 73
    12
 74
     0
 42
0.00000001
 43
0.00000001
 12
1.0
 22
0.0
 32
0.0
 13
1.0
 23
0.0
 33
0.0
 40
0.0
 40
0.0
 40
0.0
 40
0.0
 40
0.2500000000000003
 40
0.2500000000000003
 40
0.3750000000000019
 40
0.3750000000000019
 40
0.5000000000000034
 40
0.5000000000000034
 40
0.7500000000000018
 40
0.7500000000000018
 40
1.0
 40
1.0
 40
1.0
 40
1.0
 10
60.65702546861218
 20
126.8208454922155
 30
0.0
 10
60.90644940733495
 20
126.9038356254539
 30
0.0
 10
61.14464844894628
 20
126.9743818958236
 30
0.0
 10
61.48371730432063
 20
127.0651589631957
 30
0.0
 10
61.59421616157653
 20
127.0930072065849
 30
0.0
 10
61.80226223244789
 20
127.1427211285419
 30
0.0
 10
61.9005526691518
 20
127.1648022820166
 30
0.0
 10
62.17806580031142
 20
127.2240611923986
 30
0.0
 10
62.34115985272716
 20
127.2544381651336
 30
0.0
 10
62.60018649902818
 20
127.2992905116786
 30
0.0
 10
62.69953187267375
 20
127.3144808959946
 30
0.0
 10
62.76385544741041
 20
127.3240511922699
 30
0.0
  0
SPLINE
  5
1ED
330
1F
100
AcDbEntity
  8
0
  6
Continuous
 62
     7
370
    15
100
AcDbSpline
210
0.0
220
0.0
230
1.0
 70
     8
 71
     3
 72
    10
 73
     6
 74
     0
 42
0.00000001
 43
0.00000001
 12
1.0
 22
0.0
 32
0.0
 13
1.0
 23
0.0
 33
0.0
 40
0.0
 40
0.0
 40
0.0
 40
0.0
 40
0.5
 40
0.5
 40
1.0
 40
1.0
 40
1.0
 40
1.0
 10
62.76385544741041
 20
127.3240511922699
 30
0.0
 10
62.79544824944198
 20
127.3287516846919
 30
0.0
 10
62.81583521904039
 20
127.3571083193786
 30
0.0
 10
62.83602768040917
 20
127.460687279298
 30
0.0
 10
62.83574756784732
 20
127.5351701615943
 30
0.0
 10
62.82944106260999
 20
127.6294500319638
 30
0.0
  0
ELLIPSE
  5
1EE
330
1F
100
AcDbEntity
  8
0
  6
Continuous
 62
     7
370
    15
100
AcDbEllipse
 10
57.5306153775
 20
111.3872946366
 30
0.0
 11
-1.650444768084881
 21
1.909937113548338
 31
0.0
210
0.0
220
0.0
230
1.0
 40
0.8148202105
 41
0.0
 42
6.283185307179586
  0
ARC
  5
1EF
330
1F
100
AcDbEntity
  8
0
  6
Continuous
 62
     7
370
    15
100
AcDbCircle
 10
64.6034019009
 20
114.9601493468
 30
0.0
 40
12.50000000000001
100
AcDbArc
 50
108.4036880773
 51
259.5963119227
  0
SPLINE
  5
1F0
330
1F
100
AcDbEntity
  8
0
  6
Continuous
 62
     7
370
    15
100
AcDbSpline
210
0.0
220
0.0
230
1.0
 70
     8
 71
     3
 72
    15
 73
    11
 74
     0
 42
0.00000001
 43
0.00000001
 12
1.0
 22
0.0
 32
0.0
 13
1.0
 23
0.0
 33
0.0
 40
0.0
 40
0.0
 40
0.0
 40
0.0
 40
0.0755149925441566
 40
0.2962842445877029
 40
0.5900037221868882
 40
0.6898595116169514
 40
0.766313483369933
 40
0.8427382572118849
 40
0.9794829122725967
 40
1.0
 40
1.0
 40
1.0
 40
1.0
 10
58.34159124049497
 20
113.3475149487084
 30
0.0
 10
58.30579873619513
 20
113.2882585508945
 30
0.0
 10
58.16536629038407
 20
113.0557651549237
 30
0.0
 10
57.6996384858482
 20
112.8610402308197
 30
0.0
 10
57.17748585558171
 20
112.8351499152333
 30
0.0
 10
56.87692451898385
 20
112.9780799353597
 30
0.0
 10
56.81030575693308
 20
113.111306097281
 30
0.0
 10
56.86149208528406
 20
113.3171902503676
 30
0.0
 10
56.97999609031427
 20
113.493293438082
 30
0.0
 10
57.06679153243056
 20
113.6532389223719
 30
0.0
 10
57.07811526361061
 20
113.6741061433158
 30
0.0
  0
CIRCLE
  5
1F1
330
1F
100
AcDbEntity
  8
0
  6
Continuous
 62
     7
370
    15
100
AcDbCircle
 10
64.6034019009
 20
114.9601493468
 30
0.0
 40
25.00000000000001
  0
LINE
  5
1F2
330
1F
100
AcDbEntity
  8
0
  6
Continuous
 62
     7
370
    15
100
AcDbLine
 10
68.5138018742
 20
98.9511054446
 30
0.0
 11
67.8355231356
 21
108.6509441462
 31
0.0
  0
LINE
  5
1F3
330
1F
100
AcDbEntity
  8
0
  6
Continuous
 62
     7
370
    15
100
AcDbLine
 10
64.567687048
 20
98.470895036
 30
0.0
 11
63.8583990802
 21
108.6141862412
 31
0.0
  0
SPLINE
  5
1F4
330
1F
100
AcDbEntity
  8
0
  6
Continuous
 62
     7
370
    15
100
AcDbSpline
210
0.0
220
0.0
230
1.0
 70
     8
 71
     3
 72
    14
 73
    10
 74
     0
 42
0.00000001
 43
0.00000001
 12
1.0
 22
0.0
 32
0.0
 13
1.0
 23
0.0
 33
0.0
 40
0.0
 40
0.0
 40
0.0
 40
0.0
 40
0.1583244498993917
 40
0.3168036723697623
 40
0.4713678433351516
 40
0.622128944054328
 40
0.7721385608825518
 40
0.9245849024365713
 40
1.0
 40
1.0
 40
1.0
 40
1.0
 10
68.5138018742497
 20
98.95110544459286
 30
0.0
 10
68.5145893078007
 20
98.93984390206832
 30
0.0
 10
68.51616494467082
 20
98.91730980812018
 30
0.0
 10
68.51855369339148
 20
98.88314896090684
 30
0.0
 10
68.5205863016051
 20
98.85408223678527
 30
0.0
 10
68.52205814345034
 20
98.83303521232067
 30
0.0
 10
68.52283215640311
 20
98.82196263665753
 30
0.0
 10
68.52287808186601
 20
98.82131172528292
 30
0.0
 10
68.52258419153904
 20
98.82551218198378
 30
0.0
 10
68.52248692291927
 20
98.82690240339699
 30
0.0
  0
SPLINE
  5
1F5
330
1F
100
AcDbEntity
  8
0
  6
Continuous
 62
     7
370
    15
100
AcDbSpline
210
0.0
220
0.0
230
1.0
 70
     8
 71
     3
 72
    13
 73
     9
 74
     0
 42
0.00000001
 43
0.00000001
 12
1.0
 22
0.0
 32
0.0
 13
1.0
 23
0.0
 33
0.0
 40
0.0
 40
0.0
 40
0.0
 40
0.0
 40
0.166973506987356
 40
0.3557331926998557
 40
0.5407552742449071
 40
0.7250333730711792
 40
0.9118281217752552
 40
1.0
 40
1.0
 40
1.0
 40
1.0
 10
64.60333093812996
 20
97.96116356448593
 30
0.0
 10
64.60295274492813
 20
97.96657202607453
 30
0.0
 10
64.60214701306344
 20
97.97809462833173
 30
0.0
 10
64.59717647752976
 20
98.04917694587222
 30
0.0
 10
64.58995564884539
 20
98.15243885432271
 30
0.0
 10
64.58117970783528
 20
98.27794179349448
 30
0.0
 10
64.57346225332607
 20
98.38830685982673
 30
0.0
 10
64.56908929726222
 20
98.45084220628824
 30
0.0
 10
64.56768704800074
 20
98.47089503602447
 30
0.0
  0
SPLINE
  5
1F6
330
1F
100
AcDbEntity
  8
0
  6
Continuous
 62
     7
370
    15
100
AcDbSpline
210
0.0
220
0.0
230
1.0
 70
     8
 71
     3
 72
    10
 73
     6
 74
     0
 42
0.00000001
 43
0.00000001
 12
1.0
 22
0.0
 32
0.0
 13
1.0
 23
0.0
 33
0.0
 40
0.0
 40
0.0
 40
0.0
 40
0.0
 40
0.265696792088522
 40
0.6165103092009817
 40
1.0
 40
1.0
 40
1.0
 40
1.0
 10
67.83100179734778
 20
108.7156007503098
 30
0.0
 10
67.83122108224329
 20
108.712465509404
 30
0.0
 10
67.83172990057592
 20
108.7051906442274
 30
0.0
 10
67.83324560862889
 20
108.6835111753247
 30
0.0
 10
67.83474176715282
 20
108.6621171639966
 30
0.0
 10
67.8355231356169
 20
108.6509441462285
 30
0.0
  0
SPLINE
  5
1F7
330
1F
100
AcDbEntity
  8
0
  6
Continuous
 62
     7
370
    15
100
AcDbSpline
210
0.0
220
0.0
230
1.0
 70
     8
 71
     3
 72
    10
 73
     6
 74
     0
 42
0.00000001
 43
0.00000001
 12
1.0
 22
0.0
 32
0.0
 13
1.0
 23
0.0
 33
0.0
 40
0.0
 40
0.0
 40
0.0
 40
0.0
 40
0.3517998062522462
 40
0.7034221777855859
 40
1.0
 40
1.0
 40
1.0
 40
1.0
 10
63.85839908023504
 20
108.6141862411922
 30
0.0
 10
63.85552693271043
 20
108.6552598988674
 30
0.0
 10
63.84978408626544
 20
108.7373864981946
 30
0.0
 10
63.84350148165539
 20
108.8272309647867
 30
0.0
 10
63.84131500282725
 20
108.8584991928091
 30
0.0
 10
63.84031460027349
 20
108.8728056725985
 30
0.0
  0
LINE
  5
1F8
330
1F
100
AcDbEntity
  8
0
  6
Continuous
 62
     7
370
    15
100
AcDbLine
 10
67.8310017973
 20
108.7156007503
 30
0.0
 11
67.8304681495
 21
108.7232324731
 31
0.0
  0
LINE
  5
1F9
330
1F
100
AcDbEntity
  8
0
  6
Continuous
 62
     7
370
    15
100
AcDbLine
 10
63.8403146003
 20
108.8728056726
 30
0.0
 11
63.6166769253
 21
112.0709732146
 31
0.0
  0
LINE
  5
1FA
330
1F
100
AcDbEntity
  8
0
  6
Continuous
 62
     7
370
    15
100
AcDbLine
 10
63.8583990802
 20
108.6141862412
 30
0.0
 11
63.8403146003
 21
108.8728056726
 31
0.0
  0
CIRCLE
  5
1FB
330
1F
100
AcDbEntity
  8
VERMASSUNG
  6
CENTERX2
100
AcDbCircle
 10
64.6034019009
 20
114.1294990421
 30
0.0
 40
15.99999999999999
  0
DIMENSION
  5
1FC
330
1F
100
AcDbEntity
  8
VERMASSUNG
100
AcDbDimension
  2
_D_6
 10
54.802604393
 20
101.4825876322
 30
0.0
 11
43.8138904167
 21
87.3027933802
 31
0.0
 70
   160
  1
%%c<> min. 
 71
     2
 42
-1.0
  3
SLDDIMSTYLE2
100
AcDbAlignedDimension
 13
74.4041994087
 23
126.776410452
 33
0.0
 14
54.802604393
 24
101.4825876322
 34
0.0
 50
52.2258974567
100
AcDbRotatedDimension
  0
DIMENSION
  5
20B
330
1F
100
AcDbEntity
  8
VERMASSUNG
100
AcDbDimension
  2
_D_7
 10
64.6034019009
 20
87.4601493468
 30
0.0
 11
55.1686904725
 21
145.0628705058
 31
0.0
 70
   162
  1
<>
 71
     1
 42
-1.0
  3
SLDDIMSTYLE3
100
AcDb2LineAngularDimension
 13
62.8149734818
 23
127.836543399
 33
0.0
 14
64.1443498639
 24
108.8255754299
 34
0.0
 15
64.6034019009
 25
142.4601493468
 35
0.0
 16
63.0737729092
 26
146.0636686894
 36
0.0
  0
INSERT
  5
223
330
1F
100
AcDbEntity
  8
VERMASSUNG
100
AcDbBlockReference
  2
SW_CENTERMARKSYMBOL_0
 10
64.6034019009
 20
114.9601493468
 30
0.0
  0
OLE2FRAME
  5
224
330
1F
100
AcDbEntity
  8
0
100
AcDbOle2Frame
 70
     2
  3
Paintbrush-Bild
 10
13.8511154363
 20
38.264191557
 30
0.0
 11
51.6290888628
 21
31.9806341108
 31
0.0
 71
     2
 72
     0
 73
     1
 90
    12928
310
80552BED0767C5B32B40DDAF6807D121434000000000000000006FFBDDFB85D0
310
4940DDAF6807D121434000000000000000006FFBDDFB85D04940416F4BD60AFB
310
3F4000000000000000002BED0767C5B32B40416F4BD60AFB3F40000000000000
310
0000000000000100000000010000010000000100000000000100000000320000
310
D0CF11E0A1B11AE1000000000000000000000000000000003E000300FEFF0900
310
0600000000000000000000000100000001000000000000000010000002000000
310
01000000FEFFFFFF0000000000000000FFFFFFFFFFFFFFFFFFFFFFFFFFFFFFFF
310
FFFFFFFFFFFFFFFFFFFFFFFFFFFFFFFFFFFFFFFFFFFFFFFFFFFFFFFFFFFFFFFF
310
FFFFFFFFFFFFFFFFFFFFFFFFFFFFFFFFFFFFFFFFFFFFFFFFFFFFFFFFFFFFFFFF
310
FFFFFFFFFFFFFFFFFFFFFFFFFFFFFFFFFFFFFFFFFFFFFFFFFFFFFFFFFFFFFFFF
310
FFFFFFFFFFFFFFFFFFFFFFFFFFFFFFFFFFFFFFFFFFFFFFFFFFFFFFFFFFFFFFFF
310
FFFFFFFFFFFFFFFFFFFFFFFFFFFFFFFFFFFFFFFFFFFFFFFFFFFFFFFFFFFFFFFF
310
FFFFFFFFFFFFFFFFFFFFFFFFFFFFFFFFFFFFFFFFFFFFFFFFFFFFFFFFFFFFFFFF
310
FFFFFFFFFFFFFFFFFFFFFFFFFFFFFFFFFFFFFFFFFFFFFFFFFFFFFFFFFFFFFFFF
310
FFFFFFFFFFFFFFFFFFFFFFFFFFFFFFFFFFFFFFFFFFFFFFFFFFFFFFFFFFFFFFFF
310
FFFFFFFFFFFFFFFFFFFFFFFFFFFFFFFFFFFFFFFFFFFFFFFFFFFFFFFFFFFFFFFF
310
FFFFFFFFFFFFFFFFFFFFFFFFFFFFFFFFFFFFFFFFFFFFFFFFFFFFFFFFFFFFFFFF
310
FFFFFFFFFFFFFFFFFFFFFFFFFFFFFFFFFFFFFFFFFFFFFFFFFFFFFFFFFFFFFFFF
310
FFFFFFFFFFFFFFFFFFFFFFFFFFFFFFFFFFFFFFFFFFFFFFFFFFFFFFFFFFFFFFFF
310
FFFFFFFFFFFFFFFFFFFFFFFFFFFFFFFFFFFFFFFFFFFFFFFFFFFFFFFFFFFFFFFF
310
FDFFFFFFFEFFFFFFFEFFFFFFFEFFFFFF05000000060000000700000008000000
310
090000000A0000000B0000000C0000000D0000000E0000000F00000010000000
310
11000000120000001300000014000000150000001600000017000000FEFFFFFF
310
FFFFFFFFFFFFFFFFFFFFFFFFFFFFFFFFFFFFFFFFFFFFFFFFFFFFFFFFFFFFFFFF
310
FFFFFFFFFFFFFFFFFFFFFFFFFFFFFFFFFFFFFFFFFFFFFFFFFFFFFFFFFFFFFFFF
310
FFFFFFFFFFFFFFFFFFFFFFFFFFFFFFFFFFFFFFFFFFFFFFFFFFFFFFFFFFFFFFFF
310
FFFFFFFFFFFFFFFFFFFFFFFFFFFFFFFFFFFFFFFFFFFFFFFFFFFFFFFFFFFFFFFF
310
FFFFFFFFFFFFFFFFFFFFFFFFFFFFFFFFFFFFFFFFFFFFFFFFFFFFFFFFFFFFFFFF
310
FFFFFFFFFFFFFFFFFFFFFFFFFFFFFFFFFFFFFFFFFFFFFFFFFFFFFFFFFFFFFFFF
310
FFFFFFFFFFFFFFFFFFFFFFFFFFFFFFFFFFFFFFFFFFFFFFFFFFFFFFFFFFFFFFFF
310
FFFFFFFFFFFFFFFFFFFFFFFFFFFFFFFFFFFFFFFFFFFFFFFFFFFFFFFFFFFFFFFF
310
FFFFFFFFFFFFFFFFFFFFFFFFFFFFFFFFFFFFFFFFFFFFFFFFFFFFFFFFFFFFFFFF
310
FFFFFFFFFFFFFFFFFFFFFFFFFFFFFFFFFFFFFFFFFFFFFFFFFFFFFFFFFFFFFFFF
310
FFFFFFFFFFFFFFFFFFFFFFFFFFFFFFFFFFFFFFFFFFFFFFFFFFFFFFFFFFFFFFFF
310
FFFFFFFFFFFFFFFFFFFFFFFFFFFFFFFFFFFFFFFFFFFFFFFFFFFFFFFFFFFFFFFF
310
FFFFFFFFFFFFFFFFFFFFFFFFFFFFFFFFFFFFFFFFFFFFFFFFFFFFFFFFFFFFFFFF
310
52006F006F007400200045006E00740072007900000000000000000000000000
310
0000000000000000000000000000000000000000000000000000000000000000
310
16000500FFFFFFFFFFFFFFFF020000000A00030000000000C000000000000046
310
0000000000000000000000007059C21B9544CD0103000000C000000000000000
310
01004F006C006500000000000000000000000000000000000000000000000000
310
0000000000000000000000000000000000000000000000000000000000000000
310
0A000200FFFFFFFFFFFFFFFFFFFFFFFF00000000000000000000000000000000
310
0000000000000000000000000000000000000000000000001400000000000000
310
010043006F006D0070004F0062006A0000000000000000000000000000000000
310
0000000000000000000000000000000000000000000000000000000000000000
310
120002010100000003000000FFFFFFFF00000000000000000000000000000000
310
0000000000000000000000000000000000000000010000004D00000000000000
310
01004F006C006500310030004E00610074006900760065000000000000000000
310
0000000000000000000000000000000000000000000000000000000000000000
310
1A000200FFFFFFFFFFFFFFFFFFFFFFFF00000000000000000000000000000000
310
0000000000000000000000000000000000000000040000002426000000000000
310
FEFFFFFF02000000FEFFFFFFFFFFFFFFFFFFFFFFFFFFFFFFFFFFFFFFFFFFFFFF
310
FFFFFFFFFFFFFFFFFFFFFFFFFFFFFFFFFFFFFFFFFFFFFFFFFFFFFFFFFFFFFFFF
310
FFFFFFFFFFFFFFFFFFFFFFFFFFFFFFFFFFFFFFFFFFFFFFFFFFFFFFFFFFFFFFFF
310
FFFFFFFFFFFFFFFFFFFFFFFFFFFFFFFFFFFFFFFFFFFFFFFFFFFFFFFFFFFFFFFF
310
FFFFFFFFFFFFFFFFFFFFFFFFFFFFFFFFFFFFFFFFFFFFFFFFFFFFFFFFFFFFFFFF
310
FFFFFFFFFFFFFFFFFFFFFFFFFFFFFFFFFFFFFFFFFFFFFFFFFFFFFFFFFFFFFFFF
310
FFFFFFFFFFFFFFFFFFFFFFFFFFFFFFFFFFFFFFFFFFFFFFFFFFFFFFFFFFFFFFFF
310
FFFFFFFFFFFFFFFFFFFFFFFFFFFFFFFFFFFFFFFFFFFFFFFFFFFFFFFFFFFFFFFF
310
FFFFFFFFFFFFFFFFFFFFFFFFFFFFFFFFFFFFFFFFFFFFFFFFFFFFFFFFFFFFFFFF
310
FFFFFFFFFFFFFFFFFFFFFFFFFFFFFFFFFFFFFFFFFFFFFFFFFFFFFFFFFFFFFFFF
310
FFFFFFFFFFFFFFFFFFFFFFFFFFFFFFFFFFFFFFFFFFFFFFFFFFFFFFFFFFFFFFFF
310
FFFFFFFFFFFFFFFFFFFFFFFFFFFFFFFFFFFFFFFFFFFFFFFFFFFFFFFFFFFFFFFF
310
FFFFFFFFFFFFFFFFFFFFFFFFFFFFFFFFFFFFFFFFFFFFFFFFFFFFFFFFFFFFFFFF
310
FFFFFFFFFFFFFFFFFFFFFFFFFFFFFFFFFFFFFFFFFFFFFFFFFFFFFFFFFFFFFFFF
310
FFFFFFFFFFFFFFFFFFFFFFFFFFFFFFFFFFFFFFFFFFFFFFFFFFFFFFFFFFFFFFFF
310
FFFFFFFFFFFFFFFFFFFFFFFFFFFFFFFFFFFFFFFFFFFFFFFFFFFFFFFFFFFFFFFF
310
0100000200000000000000000000000000000000000000000000000000000000
310
0000000000000000000000000000000000000000000000000000000000000000
310
0100FEFF030A0000FFFFFFFF0A00030000000000C00000000000004607000000
310
5042727573680007000000504272757368000700000050427275736800F439B2
310
7100000000000000000000000000000000000000000000000000000000000000
310
0000000000000000000000000000000000000000000000000000000000000000
310
0000000000000000000000000000000000000000000000000000000000000000
310
0000000000000000000000000000000000000000000000000000000000000000
310
0000000000000000000000000000000000000000000000000000000000000000
310
0000000000000000000000000000000000000000000000000000000000000000
310
0000000000000000000000000000000000000000000000000000000000000000
310
0000000000000000000000000000000000000000000000000000000000000000
310
0000000000000000000000000000000000000000000000000000000000000000
310
0000000000000000000000000000000000000000000000000000000000000000
310
0000000000000000000000000000000000000000000000000000000000000000
310
0000000000000000000000000000000000000000000000000000000000000000
310
20260000424D0E260000000000003E00000028000000B40200006E0000000100
310
01000000000000000000130B0000130B00000200000002000000000000FFFFFF
310
FFFFFFFFFFFFFFFFFFFFFFFFFFFFFFFFFFFFFFFFFFFFFFFFFFFFFFFFFFFFFFFF
310
FFFFFFFFFFFFFFFFFFFFFFFFFFFFFFFFFFFFFFFFFFFFFFFFFFFFFFFFFFFFFFFF
310
FFFFFFFFFFFFFFFFFFFFFFFFFFFFFFFFFFFFFFFFFFFFFFFFF000FFFFFFFFFFFF
310
FFFFFFFFFFFFFFFFFFFFFFFFFFFFFFFFFFFFFFFFFFFFFFFFFFFFFFFFFFFFFFFF
310
FFFFFFFFFFFFFFFFFFFFFFFFFFFFFFFFFFFFFFFFFFFFFFFFFFFFFFFFFFFFFFFF
310
FFFFFFFFFFFFFFFFFFFFFFFFFFFFFFFFF000FFFFFFFFFFFFFFFFFFFFFFFFFFFF
310
FFFFFFFFFFFFFFFFFFFFFFFFFFFFFFFFFFFFFFFFFFFFFFFFFFFFFFFFFFFFFFFF
310
FFFFFFFFFFFFFFFFFFFFFFFFFFFFFFFFFFFFFFFFFFFFFFFFFFFFFFFFFFFFFFFF
310
FFFFFFFFFFFFFFFFF000FFFFFFFFFFFFFFFFFFFFFFFFFFFFFFFFFFFFFFFFFFFF
310
FFFFFFFFFFFFFFFFFFFFFFFFFFFFFFFFFFFFFFFFFFFFFFFFFFFFFFFFFFFFFFFF
310
FFFFFFFFFFFFFFFFFFFFFFFFFFFFFFFFFFFFFFFFFFFFFFFFFFFFFFFFFFFFFFFF
310
F000FFFFFFFFFFFFFFFFFFFFFFFFFFFFFFFFFFFFFFFFFFFFFFFFFFFFFFFFFFFF
310
FFFFFFFFFFFFFFFFFFFFFFFFFFFFFFFFFFFFFFFFFFFFFFFFFFFFFFFFFFFFFFFF
310
FFFFFFFFFFFFFFFFFFFFFFFFFFFFFFFFFFFFFFFFFFFFFFFFF000FFFFFFFFFFFF
310
FFFFFFFFFFFFFFFFFFFFFFFFFFFFFFFFFFFFFFFFFFFFFFFFFFFFFFFFFFFFFFFF
310
FFFFFFFFFFFFFFFFFFFFFFFFFFFFFFFFFFFFFFFFFFFFFFFFFFFFFFFFFFFFFFFF
310
FFFFFFFFFFFFFFFFFFFFFFFFFFFFFFFFF000FFFFFFFFFFFFFFFFFFFFFFFFFFFF
310
FFFFFFFFFFFFFFFFFFFFFFFFFFFFFFFFFFFFFFFFFFFFFFFFFFFFFFFFFFFFFFFF
310
FFFFFFFFFFFFFFFFFFFFFFFFFFFFFFFFFFFFFFFFFFFFFFFFFFFFFFFFFFFFFFFF
310
FFFFFFFFFFFFFFFFF000FFFFFFFFFFFFFFFFFFFFFFFFFFFFFFFFFFFFFFFFFFFF
310
FFFFFFFFFFFFFFFFFFFFFFFFFFFFFFFFFFFFFFFFFFFFFFFFFFFFFFFFFFFFFFFF
310
FFFFFFFFFFFFFFFFFFFFFFFFFFFFFFFFFFFFFFFFFFFFFFFFFFFFFFFFFFFFFFFF
310
F000FFFFFFFFFFFFFFFFFFFFFFFFFFFFFFFFFFFFFFFFFFFFFFFFFFFFFFFFFFFF
310
FFFFFFFFFFFFFFFFFFFFFFFFFFFFFFFFFFFFFFFFFFFFFFFFFFFFFFFFFFFFFFFF
310
FFFFFFFFFFFFFFFFFFFFFFFFFFFFFFFFFFFFFFFFFFFFFFFFF000FFFFFFFFFFFF
310
FFFFFFFFFFFFFFFFFFFFFFFFFFFFFFFFFFFFFFFFFFFFFFFFFFFFFFFFFFFFFFFF
310
FFFFFFFFFFFFFFFFFFFFFFFFFFFFFFFFFFFFFFFFFFFFFFFFFFFFFFFFFFFFFFFF
310
FFFFFFFFFFFFFFFFFFFFFFFFFFFFFFFFF000FFFFFFFFFFFFFFFFFFFFFFFFFFFF
310
FFFFFFFFFFFFFFFFFFFFFFFFFFFFFFFFFFFFFFFFFFFFFFFFFFFFFFFFFFFFFFFF
310
FFFFFFFFFFFFFFFFFFFFFFFFFFFFFFFFFFFFFFFFFFFFFFFFFFFFFFFFFFFFFFFF
310
FFFFFFFFFFFFFFFFF000FFFFFFFFFFFFFFFFFFFFFFFFFFFFFFFFFFFFFFFFFFFF
310
FFFFFFFFFFFFFFFFFFFFFFFFFFFFFFFFFFFFFFFFFFFFFFFFFFFFFFFFFFFFFFFF
310
FFFFFFFFFFFFFFFFFFFFFFFFFFFFFFFFFFFFFFFFFFFFFFFFFFFFFFFFFFFFFFFF
310
F000FFFFFFFFFFFFFFFFFFFFFFFFFFFFFFFFFFFFFFFFFFFFFFFFFFFFFFFFFFFF
310
FFFFFFFFFFFFFFFFFFFFFFFFFFFFFFFFFFFFFFFFFFFFFFFFFFFFFFFFFFFFFFFF
310
FFFFFFFFFFFFFFFFFFFFFFFFFFFFFFFFFFFFFFFFFFFFFFFFF000FFFFFFFFFFFF
310
FFFFFFFFFFFFFFFFFFFFFFFFFFFFFFFFFFFFFFFFFFFFFFFFFFFFFFFFFFFFFFFF
310
FFFFFFFFFFFFFFFFFFFFFFFFFFFFFFFFFFFFFFFFFFFFFFFFFFFFFFFFFFFFFFFF
310
FFFFFFFFFFFFFFFFFFFFFFFFFFFFFFFFF000FFFFFFFFFFFFFFFFFFFFFFFFFFFF
310
FFFFFFFFFFFFFFFFFFFFFFFFFFFFFFFFFFFFFFFFFFFFFFFFFFFFFFFFFFFFFFFF
310
FFFFFFFFFFFFFFFFFFFFFFFFFFFFFFFFFFFFFFFFFFFFFFFFFFFFFFFFFFFFFFFF
310
FFFFFFFFFFFFFFFFF000FFFFFFFFFFFFFFFFFFFFFFFFFFFFFFFFFFFFFFFFFFFF
310
FFFFFFFFFFFFFFFFFFFFFFFFFFFFFFFFFFFFFFFFFFFFFFFFFFFFFFFFFFFFFFFF
310
FFFFFFFFFFFFFFFFFFFFFFFFFFFFFFFFFFFFFFFFFFFFFFFFFFFFFFFFFFFFFFFF
310
F000FFFFFFFFFFFFFFFFFFFFFFFFFFFFFFFFFFFFFFFFFFFFFFFFFFFFFFFFFFFF
310
FFFFFFFFFFFFFFFFFFFFFFFFFFFFFFFFFFFFFFFFFFFFFFFFFFFFFFFFFFFFFFFF
310
FFFFFFFFFFFFFFFFFFFFFFFFFFFFFFFFFFFFFFFFFFFFFFFFF000FFFFFFFFFFFF
310
FFFFFFFFFFFFFFFFFFFFFFFFFFFFFFFFFFFFFFFFFFFFFFFFFFFFFFFFFFFFFFFF
310
FFFFFFFFFFFFFFFFFFFFFFFFFFFFFFFFFFFFFFFFFFFFFFFFFFFFFFFFFFFFFFFF
310
FFFFFFFFFFFFFFFFFFFFFFFFFFFFFFFFF000FFFFFFFFFFFFFFFFFFFFFFFFFFFF
310
FFFFFFFFFFFFFFFFFFFFFFFFFFFFFFFFFFFFFFFFFFFFFFFFFFFFFFFFFFFFFFFF
310
FFFFFFFFFFFFFFFFFFFFFFFFFFFFFFFFFFFFFFFFFFFFFFFFFFFFFFFFFFFFFFFF
310
FFFFFFFFFFFFFFFFF000FFFFF80003FFFFFFFFFFFFFFFFFFFFFFFFFFFFFFFFFF
310
FFFFF00007FFFFFFFFFF00007FFFFFF800000000000000007FFFFFFFFFFFFFFF
310
FFFFFFFC001FFFFFFFFFFFFFFC001FFFFFFFFFFFFFFFFFFFFFFFFFFE0007FFFF
310
F000FFFF8000007FFFFFFFF8000FFFFFC0007FFFFF80007FFFFF0000007FFFFF
310
FFF8000007FFFFF800000000000000007FFFFFF0001FFFFFFFFFFFC00001FFFF
310
FFFFFFFFC00001FFFFFFFF000000000003FFFFE000007FFFF000FFFE0000000F
310
FFFFFFF0000FFFFF80007FFFFF80007FFFFC0000001FFFFFFFC0000001FFFFF8
310
00000000000000007FFFFFF0001FFFFFFFFFFE0000003FFFFFFFFFFE0000003F
310
FFFFFF000000000003FFFF0000000FFFF000FFF800000003FFFFFFF00007FFFF
310
80007FFFFF80007FFFF000000007FFFFFF000000003FFFF80000000000000000
310
7FFFFFF0001FFFFFFFFFF80000000FFFFFFFFFF80000000FFFFFFF0000000000
310
03FFFC00000003FFF000FFE000000000FFFFFFF00007FFFF80003FFFFF80007F
310
FFC000000001FFFFFC000000001FFFF800000000000000007FFFFFF0001FFFFF
310
FFFFE000000003FFFFFFFFE000000003FFFFFF000000000003FFF000000000FF
310
F000FF80000000007FFFFFF00007FFFF80003FFFFF80007FFF8000000000FFFF
310
F80000000007FFF800000000000000007FFFFFF0001FFFFFFFFFC000000001FF
310
FFFFFFC000000001FFFFFF000000000003FFC0000000007FF000FF0000000000
310
3FFFFFE00007FFFF00003FFFFF80007FFE00000000003FFFF00000000003FFF8
310
00000000000000007FFFFFF0001FFFFFFFFF8000000000FFFFFFFF8000000000
310
FFFFFF000000000003FF80000000003FF000FE00000000001FFFFFE00003FFFF
310
00003FFFFF80007FFC00000000001FFFE00000000001FFF8000001FFFE000000
310
7FFFFFF0001FFFFFFFFE00000000003FFFFFFE00000000003FFFFF0000000000
310
03FF00000000001FF000FC00000000000FFFFFE00003FFFF00001FFFFF80007F
310
F800000000001FFFC00000000000FFF8000001FFFE0000007FFFFFF0001FFFFF
310
FFFC00000000001FFFFFFC00000000001FFFFF000000000003FE00000000000F
310
F000F8000000000007FFFFE00003FFFF00001FFFFF80007FF800000000000FFF
310
800000000000FFF8000001FFFE0000007FFFFFF0001FFFFFFFF800000000000F
310
FFFFF800000000000FFFFF000000000003FC000000000007F000F80000000000
310
03FFFFC00003FFFE00001FFFFF80007FF0000000000007FF0000000000007FF8
310
000001FFFE0000007FFFFFF0001FFFFFFFF0000000000007FFFFF00000000000
310
07FFFF000000000003F8000000000003F000F0000000000003FFFFC00001FFFE
310
00001FFFFF80007FE0000000000007FE0000000000003FF8000001FFFE000000
310
7FFFFFF0001FFFFFFFF0000000000007FFFFF0000000000007FFFF0000000000
310
03F800001F800003F000E00001FFF00001FFFFC00001FFFE00000FFFFF80007F
310
E00001FFE00003FE00001FFF00003FF8000001FFFE0000007FFFFFF0001FFFFF
310
FFE000003E000003FFFFE000003E000003FFFF000000000003F00001FFF80001
310
F000E00007FFFC0001FFFFC00001FFFE00000FFFFF80007FC0000FFFFC0003FC
310
0000FFFFC0001FF8000001FFFE0000007FFFFFF0001FFFFFFFC00003FFE00001
310
FFFFC00003FFE00001FFFF0001FFFFFFFFF00007FFFE0001F000E0000FFFFF00
310
00FFFF800001FFFC00000FFFFF80007FC0001FFFFE0001FC0001FFFFE0001FF8
310
000001FFFE0000007FFFFFF0001FFFFFFF80000FFFF80000FFFF80000FFFF800
310
00FFFF0003FFFFFFFFE0000FFFFF8000F000C0003FFFFF8000FFFF800000FFFC
310
000007FFFF80007F80003FFFFF0001FC0003FFFFF0001FF8000001FFFE000000
310
7FFFFFF0001FFFFFFF80003FFFFE0000FFFF80003FFFFE0000FFFF0003FFFFFF
310
FFE0003FFFFF8000F000C0003FFFFF8000FFFF800000FFFC000007FFFF80007F
310
80007FFFFF8001F80007FFFFF8000FF8000001FFFE0000007FFFFFF0001FFFFF
310
FF00007FFFFF00007FFF00007FFFFF00007FFF0003FFFFFFFFE0003FFFFFC000
310
F000C0007FFFFFC000FFFF000000FFFC000007FFFF80007F8000FFFFFF8000F8
310
000FFFFFF8000FF8000001FFFE0000007FFFFFF0001FFFFFFF0000FFFFFF8000
310
7FFF0000FFFFFF80007FFF0003FFFFFFFFC0007FFFFFC00070008000FFFFFFC0
310
00FFFF000000FFF8000007FFFF80007F8000FFFFFF8000F8000FFFFFF8000FF8
310
000001FFFE0000007FFFFFF0001FFFFFFE0001FFFFFFC0003FFE0001FFFFFFC0
310
003FFF0003FFFFFFFFC0007FFFFFE00070008000FFFFFFC0007FFF0000007FF8
310
000003FFFF80007F0001FFFFFF8000F8000FFFFFF8000FF8000001FFFE000000
310
7FFFFFF0001FFFFFFE0001FFFFFFC0003FFE0001FFFFFFC0003FFF0003FFFFFF
310
FFC000FFFFFFE00070008000FFFFFFC0007FFF0000007FF8000003FFFF80007F
310
0001FFFFFF8000F8001FFFFFF8000FF8000001FFFE0000007FFFFFF0001FFFFF
310
FE0003FFFFFFE0003FFE0003FFFFFFE0003FFF0003FFFFFFFFC000FFFFFFE000
310
70008000FFFFFFC0007FFE0000007FF8000003FFFF80007F0001FFFFFF8000F0
310
001FFFFFF8000FF8000001FFFE0000007FFFFFF0001FFFFFFC0003FFFFFFE000
310
1FFC0003FFFFFFE0001FFF0003FFFFFFFFC000FFFFFFC00070008000FFFFFF80
310
007FFE0000007FF0000003FFFF80007F0001FFFFFF0000F0001FFFFFF8000FF8
310
000001FFFE0000007FFFFFF0001FFFFFFC0007FFFFFFF0001FFC0007FFFFFFF0
310
001FFF0003FFFFFFFFC000FFFFFFC00070008001FFFFFF0000FFFE0000003FF0
310
000001FFFF80007F0001FFFFFF0000F8001FFFFFF0000FF8000001FFFE000000
310
7FFFFFF0001FFFFFFC0007FFFFFFF0001FFC0007FFFFFFF0001FFF0003FFFFFF
310
FFC001FFFFFF80007000FFFFFFFFFE0000FFFE0008003FF0008001FFFF80007F
310
FFFFFFFFFC0000FFFFFFFFFFE0000FF8000001FFFE0000007FFFFFF0001FFFFF
310
F8000FFFFFFFF8000FF8000FFFFFFFF8000FFF0003FFFFFFFFFFFFFFFFFF0000
310
7000FFFFFFFFFC0000FFFC0008003FF0008001FFFF80007FFFFFFFFFF80001FF
310
FFFFFFFF80000FF8000001FFFE0000007FFFFFF0001FFFFFF8000FFFFFFFF800
310
0FF8000FFFFFFFF8000FFF0003FFFFFFFFFFFFFFFFFE0000F000FFFFFFFFE000
310
00FFFC000C003FE000C001FFFF80007FFFFFFFFFC00001FFFFFFFFFE00001FF8
310
000001FFFE0000007FFFFFF0001FFFFFF8000FFFFFFFF8000FF8000FFFFFFFF8
310
000FFF0003FFFFFFFFFFFFFFFFF00000F000FFFFFFFE000001FFFC000C001FE0
310
00C000FFFF80007FFFFFFFFE000001FFFFFFFFE000001FF80FFFFFFFFFFFFFC0
310
7FFFFFF0001FFFFFF8000FFFFFFFF8000FF8000FFFFFFFF8000FFF0003FFFFFF
310
FFFFFFFFFF800000F000FFFFFFC0000001FFFC001C001FE001C000FFFF80007F
310
FFFFFF80000003FFFFFFF80000001FF80FFFFFFFFFFFFFC07FFFFFF0001FFFFF
310
F8001FFFFFFFFC000FF8001FFFFFFFFC000FFF0003FFFFFFFFFFFFFFF0000001
310
F000FFFFF800000001FFF8001C001FE001C000FFFF80007FFFFFF800000003FF
310
FFFF800000003FF80FFFFFFFFFFFFFC07FFFFFF0001FFFFFF8001FFFFFFFFC00
310
0FF8001FFFFFFFFC000FFF0003FFFFFFFFFFFFFE00000001F000FFFFC0000000
310
03FFF8001E001FC001E000FFFF80007FFFFF8000000007FFFFFC000000003FF8
310
0FFFFFFFFFFFFFC07FFFFFF0001FFFFFF8001FFFFFFFFC000FF8001FFFFFFFFC
310
000FFF0003FFFFFFFFFFFFE000000003F000FFFE0000000007FFF8001E000FC0
310
01E0007FFF80007FFFFE0000000007FFFFE0000000007FF80FFFFFFFFFFFFFC0
310
7FFFFFF0001FFFFFF0001FFFFFFFFC0007F0001FFFFFFFFC0007FF0003FFFFFF
310
FFFFFF0000000003F000FFF80000000007FFF8001E000FC003E0007FFF80007F
310
FFF0000000000FFFFF8000000000FFF80FFFFFFFFFFFFFC07FFFFFF0001FFFFF
310
F0001FFFFFFFFC0007F0001FFFFFFFFC0007FF0003FFFFFFFFFFFC0000000007
310
F000FFE0000000000FFFF0003E000FC003E0007FFF80007FFFC0000000001FFF
310
FE0000000001FFF80FFFFFFFFFFFFFC07FFFFFF0001FFFFFF0001FFFFFFFFC00
310
07F0001FFFFFFFFC0007FF0003FFFFFFFFFFF0000000000FF000FFC000000000
310
1FFFF0003F000F8003F0003FFF80007FFF80000000003FFFF80000000003FFF8
310
0FFFFFFFFFFFFFC07FFFFFF0001FFFFFF0001FFFFFFFFC0007F0001FFFFFFFFC
310
0007FF0003FFFFFFFFFFE0000000001FF000FF00000000007FFFF0003F000780
310
03F0003FFF80007FFF00000000007FFFF00000000007FFF80FFFFFFFFFFFFFC0
310
7FFFFFF0001FFFFFF0001FFFFFFFFC0007F0001FFFFFFFFC0007FF0003FFFFFF
310
FFFF80000000007FF000FE0000000000FFFFE0003F00078007F0003FFF80007F
310
FE0000000001FFFFE0000000001FFFF80FFFFFFFFFFFFFC07FFFFFF0001FFFFF
310
F0001FFFFFFFFC0007F0001FFFFFFFFC0007FF0003FFFFFFFFFF0000000000FF
310
F000FC0000000003FFFFE0007F00078007F0003FFF80007FFC0000000007FFFF
310
C0000000007FFFF80FFFFFFFFFFFFFC07FFFFFF0001FFFFFF8001FFFFFFFFC00
310
0FF8001FFFFFFFFC000FFF0003FFFFFFFFFE0000000003FFF000FC000000000F
310
FFFFE0007F80070007F8001FFF80007FF8000000001FFFFF8000000001FFFFF8
310
0FFFFFFFFFFFFFC07FFFFFF0001FFFFFF8001FFFFFFFFC000FF8001FFFFFFFFC
310
000FFF0003FFFFFFFFFC000000000FFFF000F8000000007FFFFFE0007F800700
310
07F8001FFF80007FF000000000FFFFFF800000000FFFFFF80FFFFFFFFFFFFFC0
310
7FFFFFF0001FFFFFF8000FFFFFFFF8000FF8000FFFFFFFF8000FFF0003FFFFFF
310
FFFC000000007FFFF000F800000007FFFFFFC0007F8003000FF8001FFF80007F
310
F000000007FFFFFF000000007FFFFFF80FFFFFFFFFFFFFC07FFFFFF0001FFFFF
310
F8000FFFFFFFF8000FF8000FFFFFFFF8000FFF0003FFFFFFFFF80000000FFFFF
310
F000F0000000FFFFFFFFC000FF8003000FF8001FFF80007FE0000000FFFFFFFF
310
0000000FFFFFFFF8000001FFFE0000007FFFFFF0001FFFFFF8000FFFFFFFF800
310
0FF8000FFFFFFFF8000FFF0003FFFFFFFFF8000000FFFFFFF000F000000FFFFF
310
FFFFC000FFC002000FF8000FFF80007FE000001FFFFFFFFE000001FFFFFFFFF8
310
000001FFFE0000007FFFFFF0001FFFFFF8000FFFFFFFF8000FF8000FFFFFFFF8
310
000FFF0003FFFFFFFFF000001FFFFFFFF000E00000FFFFFFFFFFC000FFC00200
310
0FFC000FFF80007FE00001FFFFFFFFFE00001FFFFFFFFFF8000001FFFE000000
310
7FFFFFF0001FFFFFFC000FFFFFFFF8001FFC000FFFFFFFF8001FFF0003FFFFFF
310
FFF00001FFFFFFFFF000E00007FFFFFFFFFF8000FFC000001FFC000FFF80007F
310
C0000FFFFFFFFFFE0000FFFFFFFFFFF8000001FFFE0000007FFFFFF0001FFFFF
310
FC0007FFFFFFF0001FFC0007FFFFFFF0001FFF0003FFFFFFFFF00007FFFFFFFF
310
F000E0001FFFFFFFFFFF8000FFC000001FFC000FFF80007FC0003FFFFFFFFFFE
310
0001FFFFFFFFFFF8000001FFFE0000007FFFFFF0001FFFFFFC0007FFFFFFF000
310
1FFC0007FFFFFFF0001FFF0003FFFFFFFFF0001FFFFFFFFFF000E0003FFFFF00
310
03FF8001FFE000001FFC0007FF80007FC0007FFFFF0007FC0003FFFFF0003FF8
310
000001FFFE0000007FFFFFF0001FFFFFFC0003FFFFFFE0001FFC0003FFFFFFE0
310
001FFF0003FFFFFFFFF0003FFFFFFFFFF000E0003FFFFF0001FF8001FFE00000
310
1FFE0007FF80007FC0007FFFFE0003FC0007FFFFE0003FF8000001FFFE000000
310
7FFFFFF0001FFFFFFE0003FFFFFFE0003FFE0003FFFFFFE0003FFF0003FFFFFF
310
FFF0003FFFFF8001F000E0003FFFFF0001FF0001FFE000001FFE0007FF80007F
310
C0007FFFFE0003FC0007FFFFE0003FF8000001FFFE0000007FFFFFF0001FFFFF
310
FE0001FFFFFFC0003FFE0001FFFFFFC0003FFF0003FFFFFFFFF0003FFFFF0001
310
F000E0003FFFFF0003FF0001FFE000003FFE0007FF80007FC0007FFFFE0003FC
310
0007FFFFE0003FF8000001FFFE0000007FFFFFF0001FFFFFFF0001FFFFFFC000
310
7FFF0001FFFFFFC0007FFF0003FFFFFFFFF0003FFFFF0001F000E0003FFFFE00
310
03FF0003FFF000003FFE0003FF80007FC0007FFFFC0003FE0007FFFFE0003FF8
310
000001FFFE0000007FFFFFF0001FFFFFFF0000FFFFFF80007FFF0000FFFFFF80
310
007FFF0003FFFFFFFFF0003FFFFF0001F000E0003FFFFE0003FF0003FFF00000
310
3FFF0003FF80007FC0007FFFFC0007FE0007FFFFC0003FF8000001FFFE000000
310
7FFFFFF0001FFFFFFF80007FFFFF0000FFFF80007FFFFF0000FFFF0003FFFFFF
310
FFF0003FFFFF0003F000E0003FFFFC0003FE0003FFF000003FFF0003FF80007F
310
E0003FFFF80007FE0003FFFFC0007FF8000001FFFE0000007FFFFFF0001FFFFF
310
FF80003FFFFE0000FFFF80003FFFFE0000FFFF0003FFFFFFFFF0001FFFFE0003
310
F000F0001FFFF80003FE0003FFF000007FFF0001FF80007FE0003FFFF00007FE
310
0001FFFF80007FF8000001FFFE0000007FFFFFF0001FFFFFFFC0000FFFF80001
310
FFFFC0000FFFF80001FFFF0003FFFFFFFFF0001FFFFC0003F000F0000FFFF000
310
07FE0007FFF800007FFF0001FF80007FE0001FFFE00007FF0000FFFE00007FF8
310
000001FFFE0000007FFFFFF0001FFFFFFFC00003FFE00001FFFFC00003FFE000
310
01FFFF0003FFFFFFFFF8000FFFF80003F000F00003FFC00007FC0007FFF80000
310
7FFF8001FF80007FF00007FF80000FFF00007FF80000FFF8000001FFFE000000
310
7F80000000000001FFE000003E000003FFFFE000003E000003FFFF0003FFFFFF
310
FFF80003FFE00007F000F800000000000FFC0007FFF800007FFF8001FF80007F
310
F000000000000FFF000000000000FFF8000001FFFE0000007F80000000000001
310
FFF0000000000007FFFFF0000000000007FFFF0003FFFFFFFFFC00007E000007
310
F000F800000000000FFC0007FFF80000FFFF8000FF80007FF800000000001FFF
310
800000000001FFF8000001FFFE0000007F80000000000001FFF800000000000F
310
FFFFF800000000000FFFFF0003FFFFFFFFFC00000000000FF000FC0000000000
310
1FFC0007FFFC0000FFFF8000FF80007FF800000000003FFFC00000000001FFF8
310
000001FFFE0000007F80000000000001FFF800000000000FFFFFF80000000000
310
0FFFFF0003FFFFFFFFFE00000000001FF000FE00000000003FF8000FFFFC0000
310
FFFF8000FF80007FFC00000000003FFFC00000000003FFF8000001FFFE000000
310
7F80000000000001FFFC00000000001FFFFFFC00000000001FFFFF0003FFFFFF
310
FFFF00000000001FF000FF00000000003FF8000FFFFC0000FFFFC000FF80007F
310
FE00000000007FFFE00000000007FFF8000001FFFE0000007F80000000000001
310
FFFE00000000003FFFFFFE00000000003FFFFF0003FFFFFFFFFF80000000003F
310
F000FF80000000007FF8000FFFFC0001FFFFC0007F80007FFF0000000000FFFF
310
F0000000000FFFF800000000000000007F80000000000001FFFF8000000000FF
310
FFFFFF8000000000FFFFFF0003FFFFFFFFFFC0000000007FF000FFC000000000
310
FFF8000FFFFE0001FFFFC0007F80007FFF8000000001FFFFF8000000001FFFF8
310
00000000000000007F80000000000001FFFFC000000001FFFFFFFFC000000001
310
FFFFFF0003FFFFFFFFFFE000000000FFF000FFE000000003FFF0001FFFFE0001
310
FFFFC0007F80007FFFC000000007FFFFFE000000003FFFF80000000000000000
310
7F80000000000001FFFFE000000003FFFFFFFFE000000003FFFFFF0003FFFFFF
310
FFFFF000000003FFF000FFF80000000FFFF0001FFFFE0001FFFFE0007F80007F
310
FFF00000000FFFFFFF00000000FFFFF800000000000000007F80000000000001
310
FFFFF80000000FFFFFFFFFF80000000FFFFFFF0003FFFFFFFFFFFC0000000FFF
310
F000FFFE0000003FFFF0001FFFFE0003FFFFE0003F80007FFFFC0000003FFFFF
310
FFC0000003FFFFF800000000000000007F80000000000001FFFFFE0000003FFF
310
FFFFFFFE0000003FFFFFFF0003FFFFFFFFFFFF0000003FFFF000FFFF800000FF
310
FFF0001FFFFF0003FFFFE0003F80007FFFFF000001FFFFFFFFF800001FFFFFF8
310
00000000000000007F80000000000001FFFFFFC00001FFFFFFFFFFFFC00001FF
310
FFFFFF0003FFFFFFFFFFFFC00000FFFFF000FFFFF8000FFFFFFFFFFFFFFFFFFF
310
FFFFFFFFFFFFFFFFFFFFF0001FFFFFFFFFFF0000FFFFFFF80000000000000000
310
7FFFFFFFFFFFFFFFFFFFFFFC001FFFFFFFFFFFFFFC001FFFFFFFFFFFFFFFFFFF
310
FFFFFFFC001FFFFFF000FFFFFFFFFFFFFFFFFFFFFFFFFFFFFFFFFFFFFFFFFFFF
310
FFFFFFFFFFFFFFFFFFFFFFFFFFFFFFFFFFFFFFFFFFFFFFFFFFFFFFFFFFFFFFFF
310
FFFFFFFFFFFFFFFFFFFFFFFFFFFFFFFFFFFFFFFFFFFFFFFFFFFFFFFFFFFFFFFF
310
F000FFFFFFFFFFFFFFFFFFFFFFFFFFFFFFFFFFFFFFFFFFFFFFFFFFFFFFFFFFFF
310
FFFFFFFFFFFFFFFFFFFFFFFFFFFFFFFFFFFFFFFFFFFFFFFFFFFFFFFFFFFFFFFF
310
FFFFFFFFFFFFFFFFFFFFFFFFFFFFFFFFFFFFFFFFFFFFFFFFF000FFFFFFFFFFFF
310
FFFFFFFFFFFFFFFFFFFFFFFFFFFFFFFFFFFFFFFFFFFFFFFFFFFFFFFFFFFFFFFF
310
FFFFFFFFFFFFFFFFFFFFFFFFFFFFFFFFFFFFFFFFFFFFFFFFFFFFFFFFFFFFFFFF
310
FFFFFFFFFFFFFFFFFFFFFFFFFFFFFFFFF000FFFFFFFFFFFFFFFFFFFFFFFFFFFF
310
FFFFFFFFFFFFFFFFFFFFFFFFFFFFFFFFFFFFFFFFFFFFFFFFFFFFFFFFFFFFFFFF
310
FFFFFFFFFFFFFFFFFFFFFFFFFFFFFFFFFFFFFFFFFFFFFFFFFFFFFFFFFFFFFFFF
310
FFFFFFFFFFFFFFFFF000FFFFFFFFFFFFFFFFFFFFFFFFFFFFFFFFFFFFFFFFFFFF
310
FFFFFFFFFFFFFFFFFFFFFFFFFFFFFFFFFFFFFFFFFFFFFFFFFFFFFFFFFFFFFFFF
310
FFFFFFFFFFFFFFFFFFFFFFFFFFFFFFFFFFFFFFFFFFFFFFFFFFFFFFFFFFFFFFFF
310
F000FFFFFFFFFFFFFFFFFFFFFFFFFFFFFFFFFFFFFFFFFFFFFFFFFFFFFFFFFFFF
310
FFFFFFFFFFFFFFFFFFFFFFFFFFFFFFFFFFFFFFFFFFFFFFFFFFFFFFFFFFFFFFFF
310
FFFFFFFFFFFFFFFFFFFFFFFFFFFFFFFFFFFFFFFFFFFFFFFFF000FFFFFFFFFFFF
310
FFFFFFFFFFFFFFFFFFFFFFFFFFFFFFFFFFFFFFFFFFFFFFFFFFFFFFFFFFFFFFFF
310
FFFFFFFFFFFFFFFFFFFFFFFFFFFFFFFFFFFFFFFFFFFFFFFFFFFFFFFFFFFFFFFF
310
FFFFFFFFFFFFFFFFFFFFFFFFFFFFFFFFF000FFFFFFFFFFFFFFFFFFFFFFFFFFFF
310
FFFFFFFFFFFFFFFFFFFFFFFFFFFFFFFFFFFFFFFFFFFFFFFFFFFFFFFFFFFFFFFF
310
FFFFFFFFFFFFFFFFFFFFFFFFFFFFFFFFFFFFFFFFFFFFFFFFFFFFFFFFFFFFFFFF
310
FFFFFFFFFFFFFFFFF000FFFFFFFFFFFFFFFFFFFFFFFFFFFFFFFFFFFFFFFFFFFF
310
FFFFFFFFFFFFFFFFFFFFFFFFFFFFFFFFFFFFFFFFFFFFFFFFFFFFFFFFFFFFFFFF
310
FFFFFFFFFFFFFFFFFFFFFFFFFFFFFFFFFFFFFFFFFFFFFFFFFFFFFFFFFFFFFFFF
310
F000FFFFFFFFFFFFFFFFFFFFFFFFFFFFFFFFFFFFFFFFFFFFFFFFFFFFFFFFFFFF
310
FFFFFFFFFFFFFFFFFFFFFFFFFFFFFFFFFFFFFFFFFFFFFFFFFFFFFFFFFFFFFFFF
310
FFFFFFFFFFFFFFFFFFFFFFFFFFFFFFFFFFFFFFFFFFFFFFFFF000FFFFFFFFFFFF
310
FFFFFFFFFFFFFFFFFFFFFFFFFFFFFFFFFFFFFFFFFFFFFFFFFFFFFFFFFFFFFFFF
310
FFFFFFFFFFFFFFFFFFFFFFFFFFFFFFFFFFFFFFFFFFFFFFFFFFFFFFFFFFFFFFFF
310
FFFFFFFFFFFFFFFFFFFFFFFFFFFFFFFFF000FFFFFFFFFFFFFFFFFFFFFFFFFFFF
310
FFFFFFFFFFFFFFFFFFFFFFFFFFFFFFFFFFFFFFFFFFFFFFFFFFFFFFFFFFFFFFFF
310
FFFFFFFFFFFFFFFFFFFFFFFFFFFFFFFFFFFFFFFFFFFFFFFFFFFFFFFFFFFFFFFF
310
FFFFFFFFFFFFFFFFF000FFFFFFFFFFFFFFFFFFFFFFFFFFFFFFFFFFFFFFFFFFFF
310
FFFFFFFFFFFFFFFFFFFFFFFFFFFFFFFFFFFFFFFFFFFFFFFFFFFFFFFFFFFFFFFF
310
FFFFFFFFFFFFFFFFFFFFFFFFFFFFFFFFFFFFFFFFFFFFFFFFFFFFFFFFFFFFFFFF
310
F000FFFFFFFFFFFFFFFFFFFFFFFFFFFFFFFFFFFFFFFFFFFFFFFFFFFFFFFFFFFF
310
FFFFFFFFFFFFFFFFFFFFFFFFFFFFFFFFFFFFFFFFFFFFFFFFFFFFFFFFFFFFFFFF
310
FFFFFFFFFFFFFFFFFFFFFFFFFFFFFFFFFFFFFFFFFFFFFFFFF000FFFFFFFFFFFF
310
FFFFFFFFFFFFFFFFFFFFFFFFFFFFFFFFFFFFFFFFFFFFFFFFFFFFFFFFFFFFFFFF
310
FFFFFFFFFFFFFFFFFFFFFFFFFFFFFFFFFFFFFFFFFFFFFFFFFFFFFFFFFFFFFFFF
310
FFFFFFFFFFFFFFFFFFFFFFFFFFFFFFFFF000FFFFFFFFFFFFFFFFFFFFFFFFFFFF
310
FFFFFFFFFFFFFFFFFFFFFFFFFFFFFFFFFFFFFFFFFFFFFFFFFFFFFFFFFFFFFFFF
310
FFFFFFFFFFFFFFFFFFFFFFFFFFFFFFFFFFFFFFFFFFFFFFFFFFFFFFFFFFFFFFFF
310
FFFFFFFFFFFFFFFFF000FFFFFFFFFFFFFFFFFFFFFFFFFFFFFFFFFFFFFFFFFFFF
310
FFFFFFFFFFFFFFFFFFFFFFFFFFFFFFFFFFFFFFFFFFFFFFFFFFFFFFFFFFFFFFFF
310
FFFFFFFFFFFFFFFFFFFFFFFFFFFFFFFFFFFFFFFFFFFFFFFFFFFFFFFFFFFFFFFF
310
F000FFFFFFFFFFFFFFFFFFFFFFFFFFFFFFFFFFFFFFFFFFFFFFFFFFFFFFFFFFFF
310
FFFFFFFFFFFFFFFFFFFFFFFFFFFFFFFFFFFFFFFFFFFFFFFFFFFFFFFFFFFFFFFF
310
FFFFFFFFFFFFFFFFFFFFFFFFFFFFFFFFFFFFFFFFFFFFFFFFF000FFFFFFFFFFFF
310
FFFFFFFFFFFFFFFFFFFFFFFFFFFFFFFFFFFFFFFFFFFFFFFFFFFFFFFFFFFFFFFF
310
FFFFFFFFFFFFFFFFFFFFFFFFFFFFFFFFFFFFFFFFFFFFFFFFFFFFFFFFFFFFFFFF
310
FFFFFFFFFFFFFFFFFFFFFFFFFFFFFFFFF000FFFFFFFFFFFFFFFFFFFFFFFFFFFF
310
FFFFFFFFFFFFFFFFFFFFFFFFFFFFFFFFFFFFFFFFFFFFFFFFFFFFFFFFFFFFFFFF
310
FFFFFFFFFFFFFFFFFFFFFFFFFFFFFFFFFFFFFFFFFFFFFFFFFFFFFFFFFFFFFFFF
310
FFFFFFFFFFFFFFFFF000FFFFFFFFFFFFFFFFFFFFFFFFFFFFFFFFFFFFFFFFFFFF
310
FFFFFFFFFFFFFFFFFFFFFFFFFFFFFFFFFFFFFFFFFFFFFFFFFFFFFFFFFFFFFFFF
310
FFFFFFFFFFFFFFFFFFFFFFFFFFFFFFFFFFFFFFFFFFFFFFFFFFFFFFFFFFFFFFFF
310
F000FFFFFFFFFFFFFFFFFFFFFFFFFFFFFFFFFFFFFFFFFFFFFFFFFFFFFFFFFFFF
310
FFFFFFFFFFFFFFFFFFFFFFFFFFFFFFFFFFFFFFFFFFFFFFFFFFFFFFFFFFFFFFFF
310
FFFFFFFFFFFFFFFFFFFFFFFFFFFFFFFFFFFFFFFFFFFFFFFFF000FFFFFFFFFFFF
310
FFFFFFFFFFFFFFFFFFFFFFFFFFFFFFFFFFFFFFFFFFFFFFFFFFFFFFFFFFFFFFFF
310
FFFFFFFFFFFFFFFFFFFFFFFFFFFFFFFFFFFFFFFFFFFFFFFFFFFFFFFFFFFFFFFF
310
FFFFFFFFFFFFFFFFFFFFFFFFFFFFFFFFF0000000000000000000000000000000
310
0000000000000000000000000000000000000000000000000000000000000000
310
0000000000000000000000000000000000000000000000000000000000000000
310
0000000000000000000000000000000000000000000000000000000000000000
310
0000000000000000000000000000000000000000000000000000000000000000
310
0000000000000000000000000000000000000000000000000000000000000000
310
0000000000000000000000000000000000000000000000000000000000000000
310
0000000000000000000000000000000000000000000000000000000000000000
310
0000000000000000000000000000000000000000000000000000000000000000
310
0000000000000000000000000000000000000000000000000000000000000000
310
0000000000000000000000000000000000000000000000000000000000000000
310
0000000000000000000000000000000000000000000000000000000000000000
310
0000000000000000000000000000000000000000000000000000000000000000
310
0000000000000000000000000000000000000000000000000000000000000000
310
0000000000000000000000000000000000000000000000000000000000000000
310
0000000000000000000000000000000000000000000000000000000000000000
  1
OLE
  0
ENDSEC
  0
SECTION
  2
OBJECTS
  0
DICTIONARY
  5
C
330
0
100
AcDbDictionary
281
     1
  3
ACAD_GROUP
350
D
  3
ACAD_LAYOUT
350
1A
  3
ACAD_MLINESTYLE
350
17
  3
ACAD_PLOTSETTINGS
350
19
  3
ACAD_PLOTSTYLENAME
350
E
  0
DICTIONARY
  5
D
102
{ACAD_REACTORS
330
C
102
}
330
C
100
AcDbDictionary
281
     1
  0
DICTIONARY
  5
1A
102
{ACAD_REACTORS
330
C
102
}
330
C
100
AcDbDictionary
281
     1
  3
Layout1
350
1E
  3
Layout2
350
26
  3
Model
350
22
  0
DICTIONARY
  5
17
102
{ACAD_REACTORS
330
C
102
}
330
C
100
AcDbDictionary
281
     1
  3
Standard
350
18
  0
DICTIONARY
  5
19
102
{ACAD_REACTORS
330
C
102
}
330
C
100
AcDbDictionary
281
     1
  0
ACDBDICTIONARYWDFLT
  5
E
102
{ACAD_REACTORS
330
C
102
}
330
C
100
AcDbDictionary
281
     1
  3
Normal
350
F
100
AcDbDictionaryWithDefault
340
F
  0
LAYOUT
  5
1E
102
{ACAD_REACTORS
330
1A
102
}
330
1A
100
AcDbPlotSettings
  1

  2
none_device
  4

  6

 40
0.0
 41
0.0
 42
0.0
 43
0.0
 44
0.0
 45
0.0
 46
0.0
 47
0.0
 48
0.0
 49
0.0
140
0.0
141
0.0
142
1.0
143
1.0
 70
   688
 72
     0
 73
     0
 74
     5
  7

 75
    16
147
1.0
148
0.0
149
0.0
100
AcDbLayout
  1
Layout1
 70
     1
 71
     1
 10
0.0
 20
0.0
 11
420.0
 21
297.0
 12
0.0
 22
0.0
 32
0.0
 14
1.0000000000E+20
 24
1.0000000000E+20
 34
1.0000000000E+20
 15
-1.0000000000E+20
 25
-1.0000000000E+20
 35
-1.0000000000E+20
146
0.0
 13
0.0
 23
0.0
 33
0.0
 16
1.0
 26
0.0
 36
0.0
 17
0.0
 27
1.0
 37
0.0
 76
     0
330
1B
  0
LAYOUT
  5
26
102
{ACAD_REACTORS
330
1A
102
}
330
1A
100
AcDbPlotSettings
  1

  2
none_device
  4

  6

 40
0.0
 41
0.0
 42
0.0
 43
0.0
 44
0.0
 45
0.0
 46
0.0
 47
0.0
 48
0.0
 49
0.0
140
0.0
141
0.0
142
1.0
143
1.0
 70
   688
 72
     0
 73
     0
 74
     5
  7

 75
    16
147
1.0
148
0.0
149
0.0
100
AcDbLayout
  1
Layout2
 70
     1
 71
     2
 10
0.0
 20
0.0
 11
0.0
 21
0.0
 12
0.0
 22
0.0
 32
0.0
 14
0.0
 24
0.0
 34
0.0
 15
0.0
 25
0.0
 35
0.0
146
0.0
 13
0.0
 23
0.0
 33
0.0
 16
1.0
 26
0.0
 36
0.0
 17
0.0
 27
1.0
 37
0.0
 76
     0
330
23
  0
LAYOUT
  5
22
102
{ACAD_REACTORS
330
1A
102
}
330
1A
100
AcDbPlotSettings
  1

  2
none_device
  4

  6

 40
0.0
 41
0.0
 42
0.0
 43
0.0
 44
0.0
 45
0.0
 46
0.0
 47
0.0
 48
0.0
 49
0.0
140
0.0
141
0.0
142
1.0
143
1.0
 70
  1712
 72
     0
 73
     0
 74
     0
  7

 75
     0
147
1.0
148
0.0
149
0.0
100
AcDbLayout
  1
Model
 70
     1
 71
     0
 10
0.0
 20
0.0
 11
297.0
 21
210.0
 12
0.0
 22
0.0
 32
0.0
 14
0.0
 24
0.0
 34
0.0
 15
297.0
 25
210.0
 35
0.0
146
0.0
 13
0.0
 23
0.0
 33
0.0
 16
1.0
 26
0.0
 36
0.0
 17
0.0
 27
1.0
 37
0.0
 76
     0
330
1F
331
29
  0
MLINESTYLE
  5
18
102
{ACAD_REACTORS
330
17
102
}
330
17
100
AcDbMlineStyle
  2
Standard
 70
     0
  3

 62
   256
 51
90.0
 52
90.0
 71
     2
 49
0.5
 62
   256
  6
BYLAYER
 49
-0.5
 62
   256
  6
BYLAYER
  0
ACDBPLACEHOLDER
  5
F
102
{ACAD_REACTORS
330
E
102
}
330
E
  0
ENDSEC
  0
EOF
