  0
SECTION
  2
HEADER
  9
$ACADVER
  1
AC1015
  9
$ACADMAINTVER
 70
     6
  9
$DWGCODEPAGE
  3
ANSI_1252
  9
$INSBASE
 10
0.0
 20
0.0
 30
0.0
  9
$EXTMIN
 10
0.0
 20
0.0
 30
0.0
  9
$EXTMAX
 10
297.0
 20
210.0
 30
0.0
  9
$LIMMIN
 10
0.0
 20
0.0
  9
$LIMMAX
 10
297.0
 20
210.0
  9
$ORTHOMODE
 70
     0
  9
$REGENMODE
 70
     1
  9
$FILLMODE
 70
     1
  9
$QTEXTMODE
 70
     0
  9
$MIRRTEXT
 70
     1
  9
$LTSCALE
 40
1.0
  9
$ATTMODE
 70
     1
  9
$TEXTSIZE
 40
2.0
  9
$TRACEWID
 40
1.0
  9
$TEXTSTYLE
  7
Standard
  9
$CLAYER
  8
0
  9
$CELTYPE
  6
ByLayer
  9
$CECOLOR
 62
   256
  9
$CELTSCALE
 40
1.0
  9
$DISPSILH
 70
     0
  9
$DIMSCALE
 40
1.0
  9
$DIMASZ
 40
3.0
  9
$DIMEXO
 40
0.0
  9
$DIMDLI
 40
3.75
  9
$DIMRND
 40
0.0
  9
$DIMDLE
 40
0.0
  9
$DIMEXE
 40
1.0
  9
$DIMTP
 40
0.0
  9
$DIMTM
 40
0.0
  9
$DIMTXT
 40
2.0
  9
$DIMCEN
 40
2.5
  9
$DIMTSZ
 40
0.0
  9
$DIMTOL
 70
     0
  9
$DIMLIM
 70
     0
  9
$DIMTIH
 70
     1
  9
$DIMTOH
 70
     1
  9
$DIMSE1
 70
     0
  9
$DIMSE2
 70
     0
  9
$DIMTAD
 70
     1
  9
$DIMZIN
 70
     0
  9
$DIMBLK
  1

  9
$DIMASO
 70
     1
  9
$DIMSHO
 70
     1
  9
$DIMPOST
  1

  9
$DIMAPOST
  1

  9
$DIMALT
 70
     0
  9
$DIMALTD
 70
     3
  9
$DIMALTF
 40
0.0393700787
  9
$DIMLFAC
 40
1.0
  9
$DIMTOFL
 70
     1
  9
$DIMTVP
 40
0.0
  9
$DIMTIX
 70
     0
  9
$DIMSOXD
 70
     0
  9
$DIMSAH
 70
     0
  9
$DIMBLK1
  1

  9
$DIMBLK2
  1

  9
$DIMSTYLE
  2
ISO-25
  9
$DIMCLRD
 70
     0
  9
$DIMCLRE
 70
     0
  9
$DIMCLRT
 70
     0
  9
$DIMTFAC
 40
1.0
  9
$DIMGAP
 40
1.524
  9
$DIMJUST
 70
     0
  9
$DIMSD1
 70
     0
  9
$DIMSD2
 70
     0
  9
$DIMTOLJ
 70
     0
  9
$DIMTZIN
 70
     0
  9
$DIMALTZ
 70
     0
  9
$DIMALTTZ
 70
     0
  9
$DIMUPT
 70
     0
  9
$DIMDEC
 70
     2
  9
$DIMTDEC
 70
     3
  9
$DIMALTU
 70
     2
  9
$DIMALTTD
 70
     3
  9
$DIMTXSTY
  7
Standard
  9
$DIMAUNIT
 70
     0
  9
$DIMADEC
 70
     2
  9
$DIMALTRND
 40
0.0
  9
$DIMAZIN
 70
     0
  9
$DIMDSEP
 70
    44
  9
$DIMATFIT
 70
     3
  9
$DIMFRAC
 70
     0
  9
$DIMLDRBLK
  1

  9
$DIMLUNIT
 70
     2
  9
$DIMLWD
 70
    -2
  9
$DIMLWE
 70
    -2
  9
$DIMTMOVE
 70
     0
  9
$LUNITS
 70
     2
  9
$LUPREC
 70
     2
  9
$SKETCHINC
 40
1.0
  9
$FILLETRAD
 40
10.0
  9
$AUNITS
 70
     0
  9
$AUPREC
 70
     2
  9
$MENU
  1
.
  9
$ELEVATION
 40
0.0
  9
$PELEVATION
 40
0.0
  9
$THICKNESS
 40
0.0
  9
$LIMCHECK
 70
     0
  9
$CHAMFERA
 40
10.0
  9
$CHAMFERB
 40
10.0
  9
$CHAMFERC
 40
20.0
  9
$CHAMFERD
 40
0.0
  9
$SKPOLY
 70
     0
  9
$TDCREATE
 40
2456083.639546921
  9
$TDUCREATE
 40
2456083.556213588
  9
$TDUPDATE
 40
2456083.639548368
  9
$TDUUPDATE
 40
2456083.556215035
  9
$TDINDWG
 40
0.0000000116
  9
$TDUSRTIMER
 40
0.0000000116
  9
$USRTIMER
 70
     1
  9
$ANGBASE
 50
0.0
  9
$ANGDIR
 70
     0
  9
$PDMODE
 70
     0
  9
$PDSIZE
 40
-1.0
  9
$PLINEWID
 40
0.0
  9
$SPLFRAME
 70
     0
  9
$SPLINETYPE
 70
     6
  9
$SPLINESEGS
 70
     8
  9
$HANDSEED
  5
21F
  9
$SURFTAB1
 70
     6
  9
$SURFTAB2
 70
     6
  9
$SURFTYPE
 70
     6
  9
$SURFU
 70
     6
  9
$SURFV
 70
     6
  9
$UCSBASE
  2

  9
$UCSNAME
  2

  9
$UCSORG
 10
0.0
 20
0.0
 30
0.0
  9
$UCSXDIR
 10
1.0
 20
0.0
 30
0.0
  9
$UCSYDIR
 10
0.0
 20
1.0
 30
0.0
  9
$UCSORTHOREF
  2

  9
$UCSORTHOVIEW
 70
     0
  9
$UCSORGTOP
 10
0.0
 20
0.0
 30
0.0
  9
$UCSORGBOTTOM
 10
0.0
 20
0.0
 30
0.0
  9
$UCSORGLEFT
 10
0.0
 20
0.0
 30
0.0
  9
$UCSORGRIGHT
 10
0.0
 20
0.0
 30
0.0
  9
$UCSORGFRONT
 10
0.0
 20
0.0
 30
0.0
  9
$UCSORGBACK
 10
0.0
 20
0.0
 30
0.0
  9
$PUCSBASE
  2

  9
$PUCSNAME
  2

  9
$PUCSORG
 10
0.0
 20
0.0
 30
0.0
  9
$PUCSXDIR
 10
1.0
 20
0.0
 30
0.0
  9
$PUCSYDIR
 10
0.0
 20
1.0
 30
0.0
  9
$PUCSORTHOREF
  2

  9
$PUCSORTHOVIEW
 70
     0
  9
$PUCSORGTOP
 10
0.0
 20
0.0
 30
0.0
  9
$PUCSORGBOTTOM
 10
0.0
 20
0.0
 30
0.0
  9
$PUCSORGLEFT
 10
0.0
 20
0.0
 30
0.0
  9
$PUCSORGRIGHT
 10
0.0
 20
0.0
 30
0.0
  9
$PUCSORGFRONT
 10
0.0
 20
0.0
 30
0.0
  9
$PUCSORGBACK
 10
0.0
 20
0.0
 30
0.0
  9
$USERI1
 70
     0
  9
$USERI2
 70
     0
  9
$USERI3
 70
     0
  9
$USERI4
 70
     0
  9
$USERI5
 70
     0
  9
$USERR1
 40
0.0
  9
$USERR2
 40
0.0
  9
$USERR3
 40
0.0
  9
$USERR4
 40
0.0
  9
$USERR5
 40
0.0
  9
$WORLDVIEW
 70
     1
  9
$SHADEDGE
 70
     3
  9
$SHADEDIF
 70
    70
  9
$TILEMODE
 70
     1
  9
$MAXACTVP
 70
    64
  9
$PINSBASE
 10
0.0
 20
0.0
 30
0.0
  9
$PLIMCHECK
 70
     0
  9
$PEXTMIN
 10
1.0000000000E+20
 20
1.0000000000E+20
 30
1.0000000000E+20
  9
$PEXTMAX
 10
-1.0000000000E+20
 20
-1.0000000000E+20
 30
-1.0000000000E+20
  9
$PLIMMIN
 10
0.0
 20
0.0
  9
$PLIMMAX
 10
420.0
 20
297.0
  9
$UNITMODE
 70
     0
  9
$VISRETAIN
 70
     1
  9
$PLINEGEN
 70
     0
  9
$PSLTSCALE
 70
     1
  9
$TREEDEPTH
 70
  3020
  9
$CMLSTYLE
  2
Standard
  9
$CMLJUST
 70
     0
  9
$CMLSCALE
 40
20.0
  9
$PROXYGRAPHICS
 70
     1
  9
$MEASUREMENT
 70
     1
  9
$CELWEIGHT
370
    -1
  9
$ENDCAPS
280
     0
  9
$JOINSTYLE
280
     0
  9
$LWDISPLAY
290
     1
  9
$INSUNITS
 70
     4
  9
$HYPERLINKBASE
  1

  9
$STYLESHEET
  1

  9
$XEDIT
290
     1
  9
$CEPSNTYPE
380
     0
  9
$PSTYLEMODE
290
     1
  9
$FINGERPRINTGUID
  2
{D2C423E7-7967-49A5-984E-9DBB1DC9062F}
  9
$VERSIONGUID
  2
{FAEB1C32-E019-11D5-929B-00C0DF256EC4}
  9
$EXTNAMES
290
     1
  9
$PSVPSCALE
 40
0.0
  9
$OLESTARTUP
290
     0
  0
ENDSEC
  0
SECTION
  2
CLASSES
  0
CLASS
  1
ACDBDICTIONARYWDFLT
  2
AcDbDictionaryWithDefault
  3
ObjectDBX Classes
 90
        0
280
     0
281
     0
  0
CLASS
  1
VISUALSTYLE
  2
AcDbVisualStyle
  3
ObjectDBX Classes
 90
     4095
280
     0
281
     0
  0
CLASS
  1
MATERIAL
  2
AcDbMaterial
  3
ObjectDBX Classes
 90
     1153
280
     0
281
     0
  0
CLASS
  1
ACDBPLACEHOLDER
  2
AcDbPlaceHolder
  3
ObjectDBX Classes
 90
        0
280
     0
281
     0
  0
CLASS
  1
LAYOUT
  2
AcDbLayout
  3
ObjectDBX Classes
 90
        0
280
     0
281
     0
  0
ENDSEC
  0
SECTION
  2
TABLES
  0
TABLE
  2
VPORT
  5
8
330
0
100
AcDbSymbolTable
 70
     1
  0
VPORT
  5
29
330
8
100
AcDbSymbolTableRecord
100
AcDbViewportTableRecord
  2
*Active
 70
     0
 10
0.0
 20
0.0
 11
1.0
 21
1.0
 12
148.5
 22
105.0
 13
0.0
 23
0.0
 14
10.0
 24
10.0
 15
10.0
 25
10.0
 16
0.0
 26
0.0
 36
1.0
 17
0.0
 27
0.0
 37
0.0
 40
210.0
 41
1.4142857143
 42
50.0
 43
0.0
 44
0.0
 50
0.0
 51
0.0
 71
     0
 72
  2000
 73
     1
 74
     3
 75
     0
 76
     0
 77
     0
 78
     0
281
     0
 65
     1
110
0.0
120
0.0
130
0.0
111
1.0
121
0.0
131
0.0
112
0.0
122
1.0
132
0.0
 79
     0
146
0.0
  0
ENDTAB
  0
TABLE
  2
LTYPE
  5
5
330
0
100
AcDbSymbolTable
 70
     6
  0
LTYPE
  5
14
330
5
100
AcDbSymbolTableRecord
100
AcDbLinetypeTableRecord
  2
ByBlock
 70
     0
  3

 72
    65
 73
     0
 40
0.0
  0
LTYPE
  5
15
330
5
100
AcDbSymbolTableRecord
100
AcDbLinetypeTableRecord
  2
ByLayer
 70
     0
  3

 72
    65
 73
     0
 40
0.0
  0
LTYPE
  5
16
330
5
100
AcDbSymbolTableRecord
100
AcDbLinetypeTableRecord
  2
Continuous
 70
     0
  3
Solid line
 72
    65
 73
     0
 40
0.0
  0
LTYPE
  5
3F
330
5
100
AcDbSymbolTableRecord
100
AcDbLinetypeTableRecord
  2
HIDDEN
 70
     0
  3
Hidden __ __ __ __ __ __ __ __ __ __ __ __ __ __
 72
    65
 73
     2
 40
1.905
 49
1.27
 74
     0
 49
-0.635
 74
     0
  0
LTYPE
  5
40
330
5
100
AcDbSymbolTableRecord
100
AcDbLinetypeTableRecord
  2
PHANTOM
 70
     0
  3
Phantom ______  __  __  ______  __  __  ______
 72
    65
 73
     6
 40
12.7
 49
6.35
 74
     0
 49
-1.27
 74
     0
 49
1.27
 74
     0
 49
-1.27
 74
     0
 49
1.27
 74
     0
 49
-1.27
 74
     0
  0
LTYPE
  5
41
330
5
100
AcDbSymbolTableRecord
100
AcDbLinetypeTableRecord
  2
CENTER
 70
     0
  3
Center ____ _ ____ _ ____ _ ____ _ ____ _ ____
 72
    65
 73
     4
 40
10.16
 49
6.35
 74
     0
 49
-1.27
 74
     0
 49
1.27
 74
     0
 49
-1.27
 74
     0
  0
LTYPE
  5
42
330
5
100
AcDbSymbolTableRecord
100
AcDbLinetypeTableRecord
  2
CENTERX2
 70
     0
  3
Center (2x) ________  __  ________  __  _____
 72
    65
 73
     4
 40
20.32
 49
12.7
 74
     0
 49
-2.54
 74
     0
 49
2.54
 74
     0
 49
-2.54
 74
     0
  0
LTYPE
  5
43
330
5
100
AcDbSymbolTableRecord
100
AcDbLinetypeTableRecord
  2
DOT2
 70
     0
  3
Dot (.5x) ........................................
 72
    65
 73
     2
 40
0.635
 49
0.0
 74
     0
 49
-0.635
 74
     0
  0
ENDTAB
  0
TABLE
  2
LAYER
  5
2
330
0
100
AcDbSymbolTable
 70
     5
  0
LAYER
  5
10
330
2
100
AcDbSymbolTableRecord
100
AcDbLayerTableRecord
  2
0
 70
     0
 62
     7
  6
Continuous
370
    -3
390
F
  0
LAYER
  5
44
330
2
100
AcDbSymbolTableRecord
100
AcDbLayerTableRecord
  2
FORMAT
 70
     0
 62
     7
  6
Continuous
370
    -3
390
F
  0
LAYER
  5
45
330
2
100
AcDbSymbolTableRecord
100
AcDbLayerTableRecord
  2
VERMASSUNG
 70
     0
 62
     7
  6
Continuous
370
    -3
390
F
  0
LAYER
  5
46
330
2
100
AcDbSymbolTableRecord
100
AcDbLayerTableRecord
  2
KOPF_DÜNN
 70
     0
 62
     7
  6
Continuous
370
    -3
390
F
  0
LAYER
  5
47
330
2
100
AcDbSymbolTableRecord
100
AcDbLayerTableRecord
  2
KOPF_DICK
 70
     0
 62
     7
  6
Continuous
370
    15
390
F
  0
ENDTAB
  0
TABLE
  2
STYLE
  5
3
330
0
100
AcDbSymbolTable
 70
     2
  0
STYLE
  5
11
330
3
100
AcDbSymbolTableRecord
100
AcDbTextStyleTableRecord
  2
Standard
 70
     0
 40
0.0
 41
1.0
 50
0.0
 71
     0
 42
2.0
  3
txt
  4

  0
STYLE
  5
48
330
3
100
AcDbSymbolTableRecord
100
AcDbTextStyleTableRecord
  2
SLDTEXTSTYLE0
 70
     0
 40
0.0
 41
0.7
 50
0.0
 71
     0
 42
0.2
  3
TXT
  4

  0
ENDTAB
  0
TABLE
  2
VIEW
  5
6
330
0
100
AcDbSymbolTable
 70
     0
  0
ENDTAB
  0
TABLE
  2
UCS
  5
7
330
0
100
AcDbSymbolTable
 70
     0
  0
ENDTAB
  0
TABLE
  2
APPID
  5
9
330
0
100
AcDbSymbolTable
 70
     1
  0
APPID
  5
12
330
9
100
AcDbSymbolTableRecord
100
AcDbRegAppTableRecord
  2
ACAD
 70
     0
  0
ENDTAB
  0
TABLE
  2
DIMSTYLE
  5
A
330
0
100
AcDbSymbolTable
 70
     5
100
AcDbDimStyleTable
  0
DIMSTYLE
105
27
330
A
100
AcDbSymbolTableRecord
100
AcDbDimStyleTableRecord
  2
ISO-25
 70
     0
 41
2.5
 42
0.625
 43
3.75
 44
1.25
 73
     0
 74
     0
 77
     1
 78
     8
140
2.5
141
2.5
143
0.0393700787
147
0.625
171
     3
172
     1
178
     0
271
     2
272
     2
274
     3
278
    44
283
     0
284
     8
340
11
  0
DIMSTYLE
105
198
102
{ACAD_REACTORS
330
197
330
1A2
330
1AC
330
1BF
330
1CB
102
}
330
A
100
AcDbSymbolTableRecord
100
AcDbDimStyleTableRecord
  2
SLDDIMSTYLE0
 70
     0
 41
3.0
 44
0.0
 45
0.000000001
 73
     0
 74
     0
 77
     1
 78
    12
 79
     3
140
2.0
147
0.5
173
     1
178
     0
271
     2
272
     3
276
     2
284
    12
340
48
  0
DIMSTYLE
105
1B7
102
{ACAD_REACTORS
330
1B6
102
}
330
A
100
AcDbSymbolTableRecord
100
AcDbDimStyleTableRecord
  2
SLDDIMSTYLE1
 70
     0
 41
3.0
 44
0.0
 73
     0
 74
     0
 77
     1
 78
    12
 79
     3
140
2.0
147
0.5
173
     1
178
     0
179
     1
272
     3
276
     2
284
    12
340
48
  0
DIMSTYLE
105
1F7
102
{ACAD_REACTORS
330
1F6
102
}
330
A
100
AcDbSymbolTableRecord
100
AcDbDimStyleTableRecord
  2
SLDDIMSTYLE2
 70
     0
 41
3.0
 44
0.0
 45
0.000000001
 73
     0
 74
     0
 77
     1
 78
    12
 79
     3
140
2.0
147
0.5
172
     1
173
     1
178
     0
271
     2
272
     3
276
     2
284
    12
289
     0
340
48
  0
DIMSTYLE
105
206
102
{ACAD_REACTORS
330
205
102
}
330
A
100
AcDbSymbolTableRecord
100
AcDbDimStyleTableRecord
  2
SLDDIMSTYLE3
 70
     0
 41
3.0
 44
0.0
 73
     0
 74
     0
 77
     1
 78
    12
 79
     3
140
2.0
147
0.5
173
     1
178
     0
179
     2
272
     3
276
     2
284
    12
340
48
  0
ENDTAB
  0
TABLE
  2
BLOCK_RECORD
  5
1
330
0
100
AcDbSymbolTable
 70
    10
  0
BLOCK_RECORD
  5
1F
330
1
100
AcDbSymbolTableRecord
100
AcDbBlockTableRecord
  2
*Model_Space
340
22
  0
BLOCK_RECORD
  5
1B
330
1
100
AcDbSymbolTableRecord
100
AcDbBlockTableRecord
  2
*Paper_Space
340
1E
  0
BLOCK_RECORD
  5
23
330
1
100
AcDbSymbolTableRecord
100
AcDbBlockTableRecord
  2
*Paper_Space0
340
26
  0
BLOCK_RECORD
  5
199
330
1
100
AcDbSymbolTableRecord
100
AcDbBlockTableRecord
  2
_D
340
0
  0
BLOCK_RECORD
  5
1A3
330
1
100
AcDbSymbolTableRecord
100
AcDbBlockTableRecord
  2
_D_1
340
0
  0
BLOCK_RECORD
  5
1AD
330
1
100
AcDbSymbolTableRecord
100
AcDbBlockTableRecord
  2
_D_2
340
0
  0
BLOCK_RECORD
  5
1B8
330
1
100
AcDbSymbolTableRecord
100
AcDbBlockTableRecord
  2
_D_3
340
0
  0
BLOCK_RECORD
  5
1C0
330
1
100
AcDbSymbolTableRecord
100
AcDbBlockTableRecord
  2
_D_4
340
0
  0
BLOCK_RECORD
  5
1CC
330
1
100
AcDbSymbolTableRecord
100
AcDbBlockTableRecord
  2
_D_5
340
0
  0
BLOCK_RECORD
  5
1F8
330
1
100
AcDbSymbolTableRecord
100
AcDbBlockTableRecord
  2
_D_6
340
0
  0
BLOCK_RECORD
  5
207
330
1
100
AcDbSymbolTableRecord
100
AcDbBlockTableRecord
  2
_D_7
340
0
  0
BLOCK_RECORD
  5
212
330
1
100
AcDbSymbolTableRecord
100
AcDbBlockTableRecord
  2
SW_CENTERMARKSYMBOL_0
340
0
102
{BLKREFS
331
21D
102
}
  0
ENDTAB
  0
ENDSEC
  0
SECTION
  2
BLOCKS
  0
BLOCK
  5
20
330
1F
100
AcDbEntity
  8
0
100
AcDbBlockBegin
  2
*Model_Space
 70
     0
 10
0.0
 20
0.0
 30
0.0
  3
*Model_Space
  1

  0
ENDBLK
  5
21
330
1F
100
AcDbEntity
  8
0
100
AcDbBlockEnd
  0
BLOCK
  5
1C
330
1B
100
AcDbEntity
 67
     1
  8
0
100
AcDbBlockBegin
  2
*Paper_Space
 70
     0
 10
0.0
 20
0.0
 30
0.0
  3
*Paper_Space
  1

  0
ENDBLK
  5
1D
330
1B
100
AcDbEntity
 67
     1
  8
0
100
AcDbBlockEnd
  0
BLOCK
  5
24
330
23
100
AcDbEntity
  8
0
100
AcDbBlockBegin
  2
*Paper_Space0
 70
     0
 10
0.0
 20
0.0
 30
0.0
  3
*Paper_Space0
  1

  0
ENDBLK
  5
25
330
23
100
AcDbEntity
  8
0
100
AcDbBlockEnd
  0
BLOCK
  5
19A
330
199
100
AcDbEntity
  8
0
100
AcDbBlockBegin
  2
_D
 70
     0
 10
0.0
 20
0.0
 30
0.0
  3
_D
  1

  0
SOLID
  5
19C
330
199
100
AcDbEntity
  8
VERMASSUNG
100
AcDbTrace
 10
110.4539875894
 20
64.7283411522
 30
0.0
 11
113.4539875894
 21
64.2783411522
 31
0.0
 12
113.4539875894
 22
65.1783411522
 32
0.0
 13
113.4539875894
 23
65.1783411522
 33
0.0
  0
SOLID
  5
19D
330
199
100
AcDbEntity
  8
VERMASSUNG
100
AcDbTrace
 10
250.4539875894
 20
64.7283411522
 30
0.0
 11
247.4539875894
 21
65.1783411522
 31
0.0
 12
247.4539875894
 22
64.2783411522
 32
0.0
 13
247.4539875894
 23
64.2783411522
 33
0.0
  0
LINE
  5
19E
330
199
100
AcDbEntity
  8
VERMASSUNG
100
AcDbLine
 10
110.4539875894
 20
95.735015314
 30
0.0
 11
110.4539875894
 21
63.7283411522
 31
0.0
  0
LINE
  5
19F
330
199
100
AcDbEntity
  8
VERMASSUNG
100
AcDbLine
 10
250.4539875894
 20
89.7283411522
 30
0.0
 11
250.4539875894
 21
63.7283411522
 31
0.0
  0
LINE
  5
1A0
330
199
100
AcDbEntity
  8
VERMASSUNG
100
AcDbLine
 10
110.4539875894
 20
64.7283411522
 30
0.0
 11
250.4539875894
 21
64.7283411522
 31
0.0
  0
MTEXT
  5
1A1
330
199
100
AcDbEntity
  8
VERMASSUNG
100
AcDbMText
 10
177.5539873934
 20
67.3064765153
 30
0.1
 40
2.0
 41
0.0
 71
     1
 72
     1
  1
140
  7
SLDTEXTSTYLE0
 73
     1
 44
1.0
  0
ENDBLK
  5
19B
330
199
100
AcDbEntity
  8
0
100
AcDbBlockEnd
  0
BLOCK
  5
1A4
330
1A3
100
AcDbEntity
  8
0
100
AcDbBlockBegin
  2
_D_1
 70
     0
 10
0.0
 20
0.0
 30
0.0
  3
_D_1
  1

  0
SOLID
  5
1A6
330
1A3
100
AcDbEntity
  8
VERMASSUNG
100
AcDbTrace
 10
250.4539875894
 20
70.7283411522
 30
0.0
 11
247.4539875894
 21
71.1783411522
 31
0.0
 12
247.4539875894
 22
70.2783411522
 32
0.0
 13
247.4539875894
 23
70.2783411522
 33
0.0
  0
SOLID
  5
1A7
330
1A3
100
AcDbEntity
  8
VERMASSUNG
100
AcDbTrace
 10
140.4539875894
 20
70.7283411522
 30
0.0
 11
143.4539875894
 21
70.2783411522
 31
0.0
 12
143.4539875894
 22
71.1783411522
 32
0.0
 13
143.4539875894
 23
71.1783411522
 33
0.0
  0
LINE
  5
1A8
330
1A3
100
AcDbEntity
  8
VERMASSUNG
100
AcDbLine
 10
250.4539875894
 20
89.7283411522
 30
0.0
 11
250.4539875894
 21
69.7283411522
 31
0.0
  0
LINE
  5
1A9
330
1A3
100
AcDbEntity
  8
VERMASSUNG
100
AcDbLine
 10
140.4539875894
 20
87.0283411522
 30
0.0
 11
140.4539875894
 21
69.7283411522
 31
0.0
  0
LINE
  5
1AA
330
1A3
100
AcDbEntity
  8
VERMASSUNG
100
AcDbLine
 10
250.4539875894
 20
70.7283411522
 30
0.0
 11
140.4539875894
 21
70.7283411522
 31
0.0
  0
MTEXT
  5
1AB
330
1A3
100
AcDbEntity
  8
VERMASSUNG
100
AcDbMText
 10
192.8539873495
 20
73.3064765153
 30
0.1
 40
2.0
 41
0.0
 71
     1
 72
     1
  1
110
  7
SLDTEXTSTYLE0
 73
     1
 44
1.0
  0
ENDBLK
  5
1A5
330
1A3
100
AcDbEntity
  8
0
100
AcDbBlockEnd
  0
BLOCK
  5
1AE
330
1AD
100
AcDbEntity
  8
0
100
AcDbBlockBegin
  2
_D_2
 70
     0
 10
0.0
 20
0.0
 30
0.0
  3
_D_2
  1

  0
SOLID
  5
1B0
330
1AD
100
AcDbEntity
  8
VERMASSUNG
100
AcDbTrace
 10
268.0680566273
 20
89.7283411522
 30
0.0
 11
268.5180566273
 21
92.7283411522
 31
0.0
 12
267.6180566273
 22
92.7283411522
 32
0.0
 13
267.6180566273
 23
92.7283411522
 33
0.0
  0
SOLID
  5
1B1
330
1AD
100
AcDbEntity
  8
VERMASSUNG
100
AcDbTrace
 10
268.0680566273
 20
111.7283411522
 30
0.0
 11
267.6180566273
 21
108.7283411522
 31
0.0
 12
268.5180566273
 22
108.7283411522
 32
0.0
 13
268.5180566273
 23
108.7283411522
 33
0.0
  0
LINE
  5
1B2
330
1AD
100
AcDbEntity
  8
VERMASSUNG
100
AcDbLine
 10
250.4539875894
 20
89.7283411522
 30
0.0
 11
269.0680566273
 21
89.7283411522
 31
0.0
  0
LINE
  5
1B3
330
1AD
100
AcDbEntity
  8
VERMASSUNG
100
AcDbLine
 10
250.4539875894
 20
111.7283411522
 30
0.0
 11
269.0680566273
 21
111.7283411522
 31
0.0
  0
LINE
  5
1B4
330
1AD
100
AcDbEntity
  8
VERMASSUNG
100
AcDbLine
 10
268.0680566273
 20
89.7283411522
 30
0.0
 11
268.0680566273
 21
111.7283411522
 31
0.0
  0
MTEXT
  5
1B5
330
1AD
100
AcDbEntity
  8
VERMASSUNG
100
AcDbMText
 10
265.4899212641
 20
98.4283411011
 30
0.1
 40
2.0
 41
0.0
 71
     1
 72
     1
  1
22
  7
SLDTEXTSTYLE0
 11
6.123233995736766E-17
 21
1.0
 31
0.0
 73
     1
 44
1.0
  0
ENDBLK
  5
1AF
330
1AD
100
AcDbEntity
  8
0
100
AcDbBlockEnd
  0
BLOCK
  5
1B9
330
1B8
100
AcDbEntity
  8
0
100
AcDbBlockBegin
  2
_D_3
 70
     0
 10
0.0
 20
0.0
 30
0.0
  3
_D_3
  1

  0
ARC
  5
1BB
330
1B8
100
AcDbEntity
  8
VERMASSUNG
100
AcDbCircle
 10
250.4905109898
 20
89.7283411522
 30
0.0
 40
9.701369771802606
100
AcDbArc
 50
0.0
 51
95.0121473722
  0
SOLID
  5
1BC
330
1B8
100
AcDbEntity
  8
VERMASSUNG
100
AcDbTrace
 10
260.1918807616
 20
89.7283411522
 30
0.0
 11
260.1886539545
 21
92.7619016984
 31
0.0
 12
259.2987537515
 22
92.6274486258
 32
0.0
 13
259.2987537515
 23
92.6274486258
 33
0.0
  0
SOLID
  5
1BD
330
1B8
100
AcDbEntity
  8
VERMASSUNG
100
AcDbTrace
 10
249.6429319441
 20
99.3926148036
 30
0.0
 11
252.6089835828
 21
98.7561890998
 31
0.0
 12
252.6651746708
 22
99.6544332546
 32
0.0
 13
252.6651746708
 23
99.6544332546
 33
0.0
  0
MTEXT
  5
1BE
330
1B8
100
AcDbEntity
  8
VERMASSUNG
100
AcDbMText
 10
256.6471525565
 20
100.7416064316
 30
0.1
 40
2.0
 41
0.0
 71
     1
 72
     1
  1
95°
  7
SLDTEXTSTYLE0
 11
0.7373489491615008
 21
-0.6755120481312162
 31
0.0
 73
     1
 44
1.0
  0
ENDBLK
  5
1BA
330
1B8
100
AcDbEntity
  8
0
100
AcDbBlockEnd
  0
BLOCK
  5
1C1
330
1C0
100
AcDbEntity
  8
0
100
AcDbBlockBegin
  2
_D_4
 70
     0
 10
0.0
 20
0.0
 30
0.0
  3
_D_4
  1

  0
SOLID
  5
1C3
330
1C0
100
AcDbEntity
  8
VERMASSUNG
100
AcDbTrace
 10
102.7618048507
 20
136.7283411522
 30
0.0
 11
102.3118048507
 21
133.7283411522
 31
0.0
 12
103.2118048507
 22
133.7283411522
 32
0.0
 13
103.2118048507
 23
133.7283411522
 33
0.0
  0
SOLID
  5
1C4
330
1C0
100
AcDbEntity
  8
VERMASSUNG
100
AcDbTrace
 10
102.7618048507
 20
86.7283411522
 30
0.0
 11
103.2118048507
 21
89.7283411522
 31
0.0
 12
102.3118048507
 22
89.7283411522
 32
0.0
 13
102.3118048507
 23
89.7283411522
 33
0.0
  0
LINE
  5
1C5
330
1C0
100
AcDbEntity
  8
VERMASSUNG
100
AcDbLine
 10
140.7539875894
 20
136.7283411522
 30
0.0
 11
101.7618048507
 21
136.7283411522
 31
0.0
  0
LINE
  5
1C6
330
1C0
100
AcDbEntity
  8
VERMASSUNG
100
AcDbLine
 10
140.7539875894
 20
86.7283411522
 30
0.0
 11
101.7618048507
 21
86.7283411522
 31
0.0
  0
LINE
  5
1C7
330
1C0
100
AcDbEntity
  8
VERMASSUNG
100
AcDbLine
 10
102.7618048507
 20
136.7283411522
 30
0.0
 11
102.7618048507
 21
86.7283411522
 31
0.0
  0
MTEXT
  5
1C8
330
1C0
100
AcDbEntity
  8
VERMASSUNG
100
AcDbMText
 10
99.9836693617
 20
105.3233410429
 30
0.1
 40
2.0
 41
0.0
 71
     1
 72
     1
  1
PSC
  7
SLDTEXTSTYLE0
 11
-7.044195017643634E-15
 21
1.0
 31
0.0
 73
     1
 44
1.0
  0
MTEXT
  5
1C9
330
1C0
100
AcDbEntity
  8
VERMASSUNG
100
AcDbMText
 10
100.1836693712
 20
109.923341145
 30
0.1
 40
2.0
 41
0.0
 71
     1
 72
     1
  1
%%c
  7
SLDTEXTSTYLE0
 11
-7.044195017643634E-15
 21
1.0
 31
0.0
 73
     1
 44
1.0
  0
MTEXT
  5
1CA
330
1C0
100
AcDbEntity
  8
VERMASSUNG
100
AcDbMText
 10
99.9836693617
 20
113.533341625
 30
0.1
 40
2.0
 41
0.0
 71
     1
 72
     1
  1
50
  7
SLDTEXTSTYLE0
 11
-7.044195017643634E-15
 21
1.0
 31
0.0
 73
     1
 44
1.0
  0
ENDBLK
  5
1C2
330
1C0
100
AcDbEntity
  8
0
100
AcDbBlockEnd
  0
BLOCK
  5
1CD
330
1CC
100
AcDbEntity
  8
0
100
AcDbBlockBegin
  2
_D_5
 70
     0
 10
0.0
 20
0.0
 30
0.0
  3
_D_5
  1

  0
SOLID
  5
1CF
330
1CC
100
AcDbEntity
  8
VERMASSUNG
100
AcDbTrace
 10
182.48115868
 20
95.7283411522
 30
0.0
 11
182.93115868
 21
98.7283411522
 31
0.0
 12
182.03115868
 22
98.7283411522
 32
0.0
 13
182.03115868
 23
98.7283411522
 33
0.0
  0
SOLID
  5
1D0
330
1CC
100
AcDbEntity
  8
VERMASSUNG
100
AcDbTrace
 10
182.48115868
 20
127.7283411522
 30
0.0
 11
182.03115868
 21
124.7283411522
 31
0.0
 12
182.93115868
 22
124.7283411522
 32
0.0
 13
182.93115868
 23
124.7283411522
 33
0.0
  0
LINE
  5
1D1
330
1CC
100
AcDbEntity
  8
VERMASSUNG
100
AcDbLine
 10
182.48115868
 20
95.7283411522
 30
0.0
 11
182.48115868
 21
127.7283411522
 31
0.0
  0
MTEXT
  5
1D2
330
1CC
100
AcDbEntity
  8
VERMASSUNG
100
AcDbMText
 10
179.9030232004
 20
99.0078641917
 30
0.1
 40
2.0
 41
0.0
 71
     1
 72
     1
  1
%%c
  7
SLDTEXTSTYLE0
 11
6.123233995736766E-17
 21
1.0
 31
0.0
 73
     1
 44
1.0
  0
MTEXT
  5
1D3
330
1CC
100
AcDbEntity
  8
VERMASSUNG
100
AcDbMText
 10
179.7030231909
 20
102.617864206
 30
0.1
 40
2.0
 41
0.0
 71
     1
 72
     1
  1
32
  7
SLDTEXTSTYLE0
 11
6.123233995736766E-17
 21
1.0
 31
0.0
 73
     1
 44
1.0
  0
ENDBLK
  5
1CE
330
1CC
100
AcDbEntity
  8
0
100
AcDbBlockEnd
  0
BLOCK
  5
1F9
330
1F8
100
AcDbEntity
  8
0
100
AcDbBlockBegin
  2
_D_6
 70
     0
 10
0.0
 20
0.0
 30
0.0
  3
_D_6
  1

  0
SOLID
  5
1FB
330
1F8
100
AcDbEntity
  8
VERMASSUNG
100
AcDbTrace
 10
70.2453630536
 20
123.9213175742
 30
0.0
 11
72.6848814487
 21
125.7244398662
 31
0.0
 12
72.0484853457
 22
126.3608359693
 32
0.0
 13
72.0484853457
 23
126.3608359693
 33
0.0
  0
SOLID
  5
1FC
330
1F8
100
AcDbEntity
  8
VERMASSUNG
100
AcDbTrace
 10
41.9610918062
 20
95.6370463267
 30
0.0
 11
39.5215734111
 21
93.8339240347
 31
0.0
 12
40.1579695141
 22
93.1975279316
 32
0.0
 13
40.1579695141
 23
93.1975279316
 33
0.0
  0
LINE
  5
1FD
330
1F8
100
AcDbEntity
  8
VERMASSUNG
100
AcDbLine
 10
70.2453630536
 20
123.9213175742
 30
0.0
 11
69.5382562724
 21
124.6284243554
 31
0.0
  0
LINE
  5
1FE
330
1F8
100
AcDbEntity
  8
VERMASSUNG
100
AcDbLine
 10
41.9610918062
 20
95.6370463267
 30
0.0
 11
42.6681985874
 21
94.9299395455
 31
0.0
  0
LINE
  5
1FF
330
1F8
100
AcDbEntity
  8
VERMASSUNG
100
AcDbLine
 10
70.2453630536
 20
123.9213175742
 30
0.0
 11
74.4880037407
 21
128.1639582613
 31
0.0
  0
LINE
  5
200
330
1F8
100
AcDbEntity
  8
VERMASSUNG
100
AcDbLine
 10
70.2453630536
 20
123.9213175742
 30
0.0
 11
41.9610918062
 21
95.6370463267
 31
0.0
  0
LINE
  5
201
330
1F8
100
AcDbEntity
  8
VERMASSUNG
100
AcDbLine
 10
41.9610918062
 20
95.6370463267
 30
0.0
 11
28.1204350489
 21
81.7963895695
 31
0.0
  0
MTEXT
  5
202
330
1F8
100
AcDbEntity
  8
VERMASSUNG
100
AcDbMText
 10
26.2974179685
 20
83.6194066499
 30
0.1
 40
2.0
 41
0.0
 71
     1
 72
     1
  1
%%c
  7
SLDTEXTSTYLE0
 11
0.7071067811865469
 21
0.7071067811865481
 31
0.0
 73
     1
 44
1.0
  0
MTEXT
  5
203
330
1F8
100
AcDbEntity
  8
VERMASSUNG
100
AcDbMText
 10
28.7086520958
 20
86.3134835031
 30
0.1
 40
2.0
 41
0.0
 71
     1
 72
     1
  1
40
  7
SLDTEXTSTYLE0
 11
0.7071067811865469
 21
0.7071067811865481
 31
0.0
 73
     1
 44
1.0
  0
MTEXT
  5
204
330
1F8
100
AcDbEntity
  8
VERMASSUNG
100
AcDbMText
 10
32.9424541093
 20
90.5472855166
 30
0.1
 40
2.0
 41
0.0
 71
     1
 72
     1
  1
min.
  7
SLDTEXTSTYLE0
 11
0.7071067811865469
 21
0.7071067811865481
 31
0.0
 73
     1
 44
1.0
  0
ENDBLK
  5
1FA
330
1F8
100
AcDbEntity
  8
0
100
AcDbBlockEnd
  0
BLOCK
  5
208
330
207
100
AcDbEntity
  8
0
100
AcDbBlockBegin
  2
_D_7
 70
     0
 10
0.0
 20
0.0
 30
0.0
  3
_D_7
  1

  0
ARC
  5
20A
330
207
100
AcDbEntity
  8
VERMASSUNG
100
AcDbCircle
 10
56.1032274299
 20
94.02901726
 30
0.0
 40
49.37643216964767
100
AcDbArc
 50
90.0
 51
94.0
  0
ARC
  5
20B
330
207
100
AcDbEntity
  8
VERMASSUNG
100
AcDbCircle
 10
56.1032274299
 20
94.02901726
 30
0.0
 40
49.37643216964767
100
AcDbArc
 50
83.0494295774
 51
90.0
  0
ARC
  5
20C
330
207
100
AcDbEntity
  8
VERMASSUNG
100
AcDbCircle
 10
56.1032274299
 20
94.02901726
 30
0.0
 40
49.37643216964767
100
AcDbArc
 50
94.0
 51
108.424213649
  0
SOLID
  5
20D
330
207
100
AcDbEntity
  8
VERMASSUNG
100
AcDbTrace
 10
56.1032274299
 20
143.4054494297
 30
0.0
 11
59.0881950095
 21
142.8646458158
 31
0.0
 12
59.1154982301
 22
143.7642315728
 32
0.0
 13
59.1154982301
 23
143.7642315728
 33
0.0
  0
SOLID
  5
20E
330
207
100
AcDbEntity
  8
VERMASSUNG
100
AcDbTrace
 10
52.6589016357
 20
143.2851709225
 30
0.0
 11
49.6289411986
 21
143.4329537014
 31
0.0
 12
49.7189298402
 22
142.5374638665
 32
0.0
 13
49.7189298402
 23
142.5374638665
 33
0.0
  0
LINE
  5
20F
330
207
100
AcDbEntity
  8
VERMASSUNG
100
AcDbLine
 10
56.1032274299
 20
139.2283411522
 30
0.0
 11
56.1032274299
 21
144.4054494297
 31
0.0
  0
LINE
  5
210
330
207
100
AcDbEntity
  8
VERMASSUNG
100
AcDbLine
 10
55.415768039
 20
103.8601445743
 30
0.0
 11
52.5891451619
 21
144.2827349728
 31
0.0
  0
MTEXT
  5
211
330
207
100
AcDbEntity
  8
VERMASSUNG
100
AcDbMText
 10
39.780760239
 20
143.4065845609
 30
-40.4352467575
 40
2.0
 41
0.0
 71
     1
 72
     1
  1
4°
  7
SLDTEXTSTYLE0
 11
0.9624208776696829
 21
0.2715622474231595
 31
0.0
 73
     1
 44
1.0
  0
ENDBLK
  5
209
330
207
100
AcDbEntity
  8
0
100
AcDbBlockEnd
  0
BLOCK
  5
213
330
212
100
AcDbEntity
  8
0
100
AcDbBlockBegin
  2
SW_CENTERMARKSYMBOL_0
 70
     0
 10
0.0
 20
0.0
 30
0.0
  3
SW_CENTERMARKSYMBOL_0
  1

  0
LINE
  5
215
330
212
100
AcDbEntity
  8
VERMASSUNG
 62
     0
100
AcDbLine
 10
0.0
 20
0.0
 30
0.0
 11
0.0
 21
2.5
 31
0.0
  0
LINE
  5
216
330
212
100
AcDbEntity
  8
VERMASSUNG
 62
     0
100
AcDbLine
 10
0.0
 20
0.0
 30
0.0
 11
-2.5
 21
0.0
 31
0.0
  0
LINE
  5
217
330
212
100
AcDbEntity
  8
VERMASSUNG
 62
     0
100
AcDbLine
 10
0.0
 20
0.0
 30
0.0
 11
0.0
 21
-2.5
 31
0.0
  0
LINE
  5
218
330
212
100
AcDbEntity
  8
VERMASSUNG
 62
     0
100
AcDbLine
 10
0.0
 20
0.0
 30
0.0
 11
2.5
 21
0.0
 31
0.0
  0
LINE
  5
219
330
212
100
AcDbEntity
  8
VERMASSUNG
 62
     0
100
AcDbLine
 10
0.0
 20
5.0
 30
0.0
 11
0.0
 21
27.5
 31
0.0
  0
LINE
  5
21A
330
212
100
AcDbEntity
  8
VERMASSUNG
 62
     0
100
AcDbLine
 10
-5.0
 20
0.0
 30
0.0
 11
-27.5
 21
0.0
 31
0.0
  0
LINE
  5
21B
330
212
100
AcDbEntity
  8
VERMASSUNG
 62
     0
100
AcDbLine
 10
0.0
 20
-5.0
 30
0.0
 11
0.0
 21
-27.5
 31
0.0
  0
LINE
  5
21C
330
212
100
AcDbEntity
  8
VERMASSUNG
 62
     0
100
AcDbLine
 10
5.0
 20
0.0
 30
0.0
 11
27.5
 21
0.0
 31
0.0
  0
ENDBLK
  5
214
330
212
100
AcDbEntity
  8
0
100
AcDbBlockEnd
  0
ENDSEC
  0
SECTION
  2
ENTITIES
  0
MTEXT
  5
49
330
1F
100
AcDbEntity
  8
KOPF_DÜNN
100
AcDbMText
 10
13.8892156294
 20
23.8442973028
 30
0.0
 40
3.0
 41
0.0
 71
     1
 72
     1
  1
PS5.BCC.LLB.110
  7
SLDTEXTSTYLE0
 73
     1
 44
1.0
  0
MTEXT
  5
4A
330
1F
100
AcDbEntity
  8
VERMASSUNG
100
AcDbMText
 10
13.9329988022
 20
28.8834360957
 30
0.0
 40
3.0
 41
0.0
 71
     1
 72
     1
  1
Bohrstange links_Boring bar left
  7
SLDTEXTSTYLE0
 73
     1
 44
1.0
  0
MTEXT
  5
4B
330
1F
100
AcDbEntity
  8
VERMASSUNG
100
AcDbMText
 10
98.8601118557
 20
13.8365368179
 30
0.0
 40
2.0
 41
0.0
 71
     1
 72
     1
  1
Datum: 04.06.2012
  7
SLDTEXTSTYLE0
 73
     1
 44
1.0
  0
MTEXT
  5
4C
330
1F
100
AcDbEntity
  8
VERMASSUNG
100
AcDbMText
 10
13.933048693
 20
18.0482802738
 30
0.0
 40
2.0
 41
0.0
 71
     1
 72
     1
  1
PSC ø50 / Wp.: CC..12 04..
  7
SLDTEXTSTYLE0
 73
     1
 44
1.0
  0
MTEXT
  5
4D
330
1F
100
AcDbEntity
  8
VERMASSUNG
100
AcDbMText
 10
13.9808475933
 20
13.9090973692
 30
0.0
 40
2.0
 41
0.0
 71
     1
 72
     1
  1
Gewicht: 858g
  7
SLDTEXTSTYLE0
 73
     1
 44
1.0
  0
ARC
  5
4E
330
1F
100
AcDbEntity
  8
0
  6
Continuous
 62
     7
370
    15
100
AcDbCircle
 10
140.7539875894
 20
87.0283411522
 30
0.0
 40
0.3000000000000114
100
AcDbArc
 50
180.0
 51
270.0
  0
ARC
  5
4F
330
1F
100
AcDbEntity
  8
0
  6
Continuous
 62
     7
370
    15
100
AcDbCircle
 10
140.7539875894
 20
136.4283411522
 30
0.0
 40
0.3000000000000114
100
AcDbArc
 50
90.0
 51
180.0
  0
ARC
  5
50
330
1F
100
AcDbEntity
  8
0
  6
Continuous
 62
     7
370
    15
100
AcDbCircle
 10
159.8539875894
 20
87.3283411522
 30
0.0
 40
0.6000000000000227
100
AcDbArc
 50
270.0
 51
0.0
  0
ARC
  5
51
330
1F
100
AcDbEntity
  8
0
  6
Continuous
 62
     7
370
    15
100
AcDbCircle
 10
159.8539875894
 20
136.1283411522
 30
0.0
 40
0.6000000000000227
100
AcDbArc
 50
0.0
 51
90.0
  0
LINE
  5
52
330
1F
100
AcDbEntity
  8
0
  6
Continuous
 62
     7
370
    15
100
AcDbLine
 10
140.7539875894
 20
86.7283411522
 30
0.0
 11
159.8539875894
 21
86.7283411522
 31
0.0
  0
LINE
  5
53
330
1F
100
AcDbEntity
  8
0
  6
Continuous
 62
     7
370
    15
100
AcDbLine
 10
159.8539875894
 20
136.7283411522
 30
0.0
 11
140.7539875894
 21
136.7283411522
 31
0.0
  0
ARC
  5
54
330
1F
100
AcDbEntity
  8
0
  6
Continuous
 62
     7
370
    15
100
AcDbCircle
 10
164.4539875894
 20
91.7283411522
 30
0.0
 40
4.0
100
AcDbArc
 50
90.0
 51
180.0
  0
ARC
  5
55
330
1F
100
AcDbEntity
  8
0
  6
Continuous
 62
     7
370
    15
100
AcDbCircle
 10
164.4539875894
 20
131.7283411522
 30
0.0
 40
4.0
100
AcDbArc
 50
180.0
 51
270.0
  0
LWPOLYLINE
  5
56
330
1F
100
AcDbEntity
  8
0
  6
Continuous
 62
     7
370
    15
100
AcDbPolyline
 90
        3
 70
   128
 43
0.0
 10
140.2539875894
 20
93.8885208733
 10
140.3794425329
 20
93.8202187583
 10
140.4539875894
 20
93.7674810002
  0
LWPOLYLINE
  5
57
330
1F
100
AcDbEntity
  8
0
  6
Continuous
 62
     7
370
    15
100
AcDbPolyline
 90
        3
 70
   128
 43
0.0
 10
140.4539875894
 20
129.6892013041
 10
140.3794425329
 20
129.636463546
 10
140.2539875894
 20
129.568161431
  0
LINE
  5
58
330
1F
100
AcDbEntity
  8
0
  6
Continuous
 62
     7
370
    15
100
AcDbLine
 10
224.039774027
 20
127.7283411522
 30
0.0
 11
164.4539875894
 21
127.7283411522
 31
0.0
  0
LINE
  5
59
330
1F
100
AcDbEntity
  8
0
  6
Continuous
 62
     7
370
    15
100
AcDbLine
 10
164.4539875894
 20
95.7283411522
 30
0.0
 11
224.039774027
 21
95.7283411522
 31
0.0
  0
ARC
  5
5A
330
1F
100
AcDbEntity
  8
0
  6
Continuous
 62
     7
370
    15
100
AcDbCircle
 10
224.039774027
 20
128.7283411522
 30
0.0
 40
1.0
100
AcDbArc
 50
270.0
 51
315.0
  0
LINE
  5
5B
330
1F
100
AcDbEntity
  8
0
  6
Continuous
 62
     7
370
    15
100
AcDbLine
 10
231.6065694991
 20
128.2283411522
 30
0.0
 11
224.9539875894
 21
128.2283411522
 31
0.0
  0
LINE
  5
5C
330
1F
100
AcDbEntity
  8
0
  6
Continuous
 62
     7
370
    15
100
AcDbLine
 10
224.9539875894
 20
128.2283411522
 30
0.0
 11
224.7468808082
 21
128.021234371
 31
0.0
  0
LINE
  5
5D
330
1F
100
AcDbEntity
  8
0
  6
Continuous
 62
     7
370
    15
100
AcDbLine
 10
224.7468808082
 20
95.4354479333
 30
0.0
 11
225.0236273399
 21
95.1587014016
 31
0.0
  0
LINE
  5
5E
330
1F
100
AcDbEntity
  8
0
  6
Continuous
 62
     7
370
    15
100
AcDbLine
 10
244.8742751839
 20
96.8834610856
 30
0.0
 11
244.8742751839
 21
96.7718169873
 31
0.0
  0
LINE
  5
5F
330
1F
100
AcDbEntity
  8
0
  6
Continuous
 62
     7
370
    15
100
AcDbLine
 10
242.0360181439
 20
96.6604353309
 30
0.0
 11
242.0360181439
 21
96.7720440981
 31
0.0
  0
LINE
  5
60
330
1F
100
AcDbEntity
  8
0
  6
Continuous
 62
     7
370
    15
100
AcDbLine
 10
246.9536103836
 20
96.7465440277
 30
0.0
 11
246.9536103836
 21
96.7604953225
 31
0.0
  0
LINE
  5
61
330
1F
100
AcDbEntity
  8
0
  6
Continuous
 62
     7
370
    15
100
AcDbLine
 10
239.9536103836
 20
96.7604953225
 30
0.0
 11
239.9536103836
 21
96.7465440277
 31
0.0
  0
LINE
  5
62
330
1F
100
AcDbEntity
  8
0
  6
Continuous
 62
     7
370
    15
100
AcDbLine
 10
140.4539875894
 20
87.0283411522
 30
0.0
 11
140.4539875894
 21
136.4283411522
 31
0.0
  0
LINE
  5
63
330
1F
100
AcDbEntity
  8
0
  6
Continuous
 62
     7
370
    15
100
AcDbLine
 10
160.4539875894
 20
136.1283411519
 30
0.0
 11
160.4539875894
 21
87.3283411522
 31
0.0
  0
SPLINE
  5
64
330
1F
100
AcDbEntity
  8
0
  6
Continuous
 62
     7
370
    15
100
AcDbSpline
210
0.0
220
0.0
230
1.0
 70
     8
 71
     3
 72
    12
 73
     8
 74
     0
 42
0.00000001
 43
0.00000001
 12
1.0
 22
0.0
 32
0.0
 13
1.0
 23
0.0
 33
0.0
 40
0.0
 40
0.0
 40
0.0
 40
0.0
 40
0.2499999999999993
 40
0.2499999999999993
 40
0.4999999999999987
 40
0.4999999999999987
 40
1.0
 40
1.0
 40
1.0
 40
1.0
 10
148.9817444029501
 20
119.2971511213326
 30
0.0
 10
148.9180791664196
 20
119.2971511213326
 30
0.0
 10
148.8584729341963
 20
119.3232232698122
 30
0.0
 10
148.7598124092654
 20
119.3987620206333
 30
0.0
 10
148.7208454192502
 20
119.4460129577296
 30
0.0
 10
148.6214585873257
 20
119.597836775696
 30
0.0
 10
148.5793823399023
 20
119.7106400254611
 30
0.0
 10
148.5487317010579
 20
119.8247941501962
 30
0.0
  0
LINE
  5
65
330
1F
100
AcDbEntity
  8
0
  6
Continuous
 62
     7
370
    15
100
AcDbLine
 10
151.9262307758
 20
119.2971511213
 30
0.0
 11
148.981744403
 21
119.2971511213
 31
0.0
  0
SPLINE
  5
66
330
1F
100
AcDbEntity
  8
0
  6
Continuous
 62
     7
370
    15
100
AcDbSpline
210
0.0
220
0.0
230
1.0
 70
     8
 71
     3
 72
    12
 73
     8
 74
     0
 42
0.00000001
 43
0.00000001
 12
1.0
 22
0.0
 32
0.0
 13
1.0
 23
0.0
 33
0.0
 40
0.0
 40
0.0
 40
0.0
 40
0.0
 40
0.4999999999999996
 40
0.4999999999999996
 40
0.7499999999999998
 40
0.7499999999999998
 40
1.0
 40
1.0
 40
1.0
 40
1.0
 10
152.3592434777095
 20
119.8247941501962
 30
0.0
 10
152.3285440943422
 20
119.7104584831323
 30
0.0
 10
152.2871940262357
 20
119.5991051302909
 30
0.0
 10
152.1874380980162
 20
119.4463683580422
 30
0.0
 10
152.1477411802835
 20
119.3985084721901
 30
0.0
 10
152.0504830286359
 20
119.3239053588406
 30
0.0
 10
151.9897068706452
 20
119.2971511213326
 30
0.0
 10
151.9262307758172
 20
119.2971511213326
 30
0.0
  0
ELLIPSE
  5
67
330
1F
100
AcDbEntity
  8
0
  6
Continuous
 62
     7
370
    15
100
AcDbEllipse
 10
139.3977299344
 20
111.7283411522
 30
0.0
 11
11.70927234972708
 21
24.67718644093742
 31
0.0
210
0.0
220
0.0
230
1.0
 40
0.3419987131
 41
5.203068809370451
 42
6.114256032590499
  0
SPLINE
  5
68
330
1F
100
AcDbEntity
  8
0
  6
Continuous
 62
     7
370
    15
100
AcDbSpline
210
0.0
220
0.0
230
1.0
 70
     8
 71
     3
 72
    12
 73
     8
 74
     0
 42
0.00000001
 43
0.00000001
 12
1.0
 22
0.0
 32
0.0
 13
1.0
 23
0.0
 33
0.0
 40
0.0
 40
0.0
 40
0.0
 40
0.0
 40
0.2500000000000026
 40
0.2500000000000026
 40
0.5000000000000051
 40
0.5000000000000051
 40
1.0
 40
1.0
 40
1.0
 40
1.0
 10
151.9262307758172
 20
135.555072267654
 30
0.0
 10
151.9898960123478
 20
135.555072267654
 30
0.0
 10
152.0495022445712
 20
135.5468074919882
 30
0.0
 10
152.148162769502
 20
135.522588710405
 30
0.0
 10
152.1871297595172
 20
135.5073313910958
 30
0.0
 10
152.2865165914417
 20
135.4576980368339
 30
0.0
 10
152.3285928388651
 20
135.4200583286598
 30
0.0
 10
152.3592434777095
 20
135.3809826293837
 30
0.0
  0
LINE
  5
69
330
1F
100
AcDbEntity
  8
0
  6
Continuous
 62
     7
370
    15
100
AcDbLine
 10
148.981744403
 20
135.5550722677
 30
0.0
 11
151.9262307758
 21
135.5550722677
 31
0.0
  0
SPLINE
  5
6A
330
1F
100
AcDbEntity
  8
0
  6
Continuous
 62
     7
370
    15
100
AcDbSpline
210
0.0
220
0.0
230
1.0
 70
     8
 71
     3
 72
    12
 73
     8
 74
     0
 42
0.00000001
 43
0.00000001
 12
1.0
 22
0.0
 32
0.0
 13
1.0
 23
0.0
 33
0.0
 40
0.0
 40
0.0
 40
0.0
 40
0.0
 40
0.5000000000000018
 40
0.5000000000000018
 40
0.7500000000000009
 40
0.7500000000000009
 40
1.0
 40
1.0
 40
1.0
 40
1.0
 10
148.5487317010579
 20
135.3809826293837
 30
0.0
 10
148.5794310844252
 20
135.4201204717796
 30
0.0
 10
148.6207811525317
 20
135.4572802545051
 30
0.0
 10
148.7205370807512
 20
135.5072167601328
 30
0.0
 10
148.7602339984839
 20
135.5226696302766
 30
0.0
 10
148.8574921501315
 20
135.5465891738756
 30
0.0
 10
148.9182683081222
 20
135.555072267654
 30
0.0
 10
148.9817444029501
 20
135.555072267654
 30
0.0
  0
ELLIPSE
  5
6B
330
1F
100
AcDbEntity
  8
0
  6
Continuous
 62
     7
370
    15
100
AcDbEllipse
 10
161.5102452444
 20
111.7283411522
 30
0.0
 11
-11.70927234972698
 21
24.67718644093743
 31
0.0
210
0.0
220
0.0
230
1.0
 40
0.3419987131
 41
0.1689292745891319
 42
1.08011649780915
  0
SPLINE
  5
6C
330
1F
100
AcDbEntity
  8
0
  6
Continuous
 62
     7
370
    15
100
AcDbSpline
210
0.0
220
0.0
230
1.0
 70
     8
 71
     3
 72
    12
 73
     8
 74
     0
 42
0.00000001
 43
0.00000001
 12
1.0
 22
0.0
 32
0.0
 13
1.0
 23
0.0
 33
0.0
 40
0.0
 40
0.0
 40
0.0
 40
0.0
 40
0.2500000000000007
 40
0.2500000000000007
 40
0.5000000000000013
 40
0.5000000000000013
 40
1.0
 40
1.0
 40
1.0
 40
1.0
 10
148.9817444029501
 20
87.90161003665014
 30
0.0
 10
148.9181078487364
 20
87.90161003665013
 30
0.0
 10
148.8585277218702
 20
87.90986680758189
 30
0.0
 10
148.7598909805039
 20
87.93406886958971
 30
0.0
 10
148.7209323561235
 20
87.94931568862386
 30
0.0
 10
148.6215534166157
 20
87.99892056068397
 30
0.0
 10
148.5795955114502
 20
88.0363522088028
 30
0.0
 10
148.5487317010577
 20
88.07569967492044
 30
0.0
  0
LINE
  5
6D
330
1F
100
AcDbEntity
  8
0
  6
Continuous
 62
     7
370
    15
100
AcDbLine
 10
151.9262307758
 20
87.9016100366
 30
0.0
 11
148.981744403
 21
87.9016100367
 31
0.0
  0
SPLINE
  5
6E
330
1F
100
AcDbEntity
  8
0
  6
Continuous
 62
     7
370
    15
100
AcDbSpline
210
0.0
220
0.0
230
1.0
 70
     8
 71
     3
 72
    12
 73
     8
 74
     0
 42
0.00000001
 43
0.00000001
 12
1.0
 22
0.0
 32
0.0
 13
1.0
 23
0.0
 33
0.0
 40
0.0
 40
0.0
 40
0.0
 40
0.0
 40
0.5000000000000004
 40
0.5000000000000004
 40
0.7500000000000002
 40
0.7500000000000002
 40
1.0
 40
1.0
 40
1.0
 40
1.0
 10
152.3592434777095
 20
88.07569967492047
 30
0.0
 10
152.3283917671453
 20
88.03636763455796
 30
0.0
 10
152.2864989036846
 20
87.99895586902971
 30
0.0
 10
152.1869780258914
 20
87.94928494441382
 30
0.0
 10
152.1473638611671
 20
87.93389586180596
 30
0.0
 10
152.0502608273877
 20
87.91006264613871
 30
0.0
 10
151.9897621547373
 20
87.90161003664993
 30
0.0
 10
151.9262307758173
 20
87.90161003664993
 30
0.0
  0
ELLIPSE
  5
6F
330
1F
100
AcDbEntity
  8
0
  6
Continuous
 62
     7
370
    15
100
AcDbEllipse
 10
139.3977299344
 20
111.7283411522
 30
0.0
 11
-11.7092723497272
 21
24.67718644093742
 31
0.0
210
0.0
220
0.0
230
1.0
 40
0.3419987131
 41
3.310521928178951
 42
4.22170915139894
  0
SPLINE
  5
70
330
1F
100
AcDbEntity
  8
0
  6
Continuous
 62
     7
370
    15
100
AcDbSpline
210
0.0
220
0.0
230
1.0
 70
     8
 71
     3
 72
    12
 73
     8
 74
     0
 42
0.00000001
 43
0.00000001
 12
1.0
 22
0.0
 32
0.0
 13
1.0
 23
0.0
 33
0.0
 40
0.0
 40
0.0
 40
0.0
 40
0.0
 40
0.2500000000000005
 40
0.2500000000000005
 40
0.500000000000001
 40
0.500000000000001
 40
1.0
 40
1.0
 40
1.0
 40
1.0
 10
151.9262307758172
 20
104.1595311829714
 30
0.0
 10
151.989867330031
 20
104.1595311829714
 30
0.0
 10
152.0494474568972
 20
104.1334842799134
 30
0.0
 10
152.1480841982636
 20
104.0579971210135
 30
0.0
 10
152.1870428226438
 20
104.0107780824828
 30
0.0
 10
152.2864217621517
 20
103.8590384313892
 30
0.0
 10
152.3283796673172
 20
103.746836207205
 30
0.0
 10
152.3592434777097
 20
103.6318881541078
 30
0.0
  0
LINE
  5
71
330
1F
100
AcDbEntity
  8
0
  6
Continuous
 62
     7
370
    15
100
AcDbLine
 10
148.981744403
 20
104.159531183
 30
0.0
 11
151.9262307758
 21
104.159531183
 31
0.0
  0
SPLINE
  5
72
330
1F
100
AcDbEntity
  8
0
  6
Continuous
 62
     7
370
    15
100
AcDbSpline
210
0.0
220
0.0
230
1.0
 70
     8
 71
     3
 72
    12
 73
     8
 74
     0
 42
0.00000001
 43
0.00000001
 12
1.0
 22
0.0
 32
0.0
 13
1.0
 23
0.0
 33
0.0
 40
0.0
 40
0.0
 40
0.0
 40
0.0
 40
0.5000000000000004
 40
0.5000000000000004
 40
0.7500000000000002
 40
0.7500000000000002
 40
1.0
 40
1.0
 40
1.0
 40
1.0
 10
148.5487317010579
 20
103.6318881541077
 30
0.0
 10
148.5795834116221
 20
103.7467911430446
 30
0.0
 10
148.6214762750828
 20
103.8589300390934
 30
0.0
 10
148.720997152876
 20
104.0108723206943
 30
0.0
 10
148.7606113176003
 20
104.0585369302192
 30
0.0
 10
148.8577143513797
 20
104.1328732608346
 30
0.0
 10
148.9182130240301
 20
104.1595311829717
 30
0.0
 10
148.9817444029501
 20
104.1595311829718
 30
0.0
  0
ELLIPSE
  5
73
330
1F
100
AcDbEntity
  8
0
  6
Continuous
 62
     7
370
    15
100
AcDbEllipse
 10
161.5102452444
 20
111.7283411522
 30
0.0
 11
11.70927234972709
 21
24.67718644093745
 31
0.0
210
0.0
220
0.0
230
1.0
 40
0.3419987131
 41
2.061476155780655
 42
2.972663379000672
  0
SPLINE
  5
74
330
1F
100
AcDbEntity
  8
0
  6
Continuous
 62
     7
370
    15
100
AcDbSpline
210
0.0
220
0.0
230
1.0
 70
     8
 71
     3
 72
    16
 73
    12
 74
     0
 42
0.00000001
 43
0.00000001
 12
1.0
 22
0.0
 32
0.0
 13
1.0
 23
0.0
 33
0.0
 40
0.0
 40
0.0
 40
0.0
 40
0.0
 40
0.2499999999999997
 40
0.2499999999999997
 40
0.4999999999999993
 40
0.4999999999999993
 40
0.6249999999999996
 40
0.6249999999999996
 40
0.7499999999999999
 40
0.7499999999999999
 40
1.0
 40
1.0
 40
1.0
 40
1.0
 10
139.4131265612546
 20
94.37918387095955
 30
0.0
 10
139.4448545224473
 20
94.37838675413862
 30
0.0
 10
139.4794821127979
 20
94.37779567928337
 30
0.0
 10
139.5591758748615
 20
94.37678415384892
 30
0.0
 10
139.6042173348652
 20
94.37638404567402
 30
0.0
 10
139.6870700617156
 20
94.37542617377018
 30
0.0
 10
139.7169845229155
 20
94.37504449250974
 30
0.0
 10
139.7829708534734
 20
94.37396827845122
 30
0.0
 10
139.8197044789352
 20
94.37325071255708
 30
0.0
 10
139.932201198505
 20
94.37048983487541
 30
0.0
 10
140.0025425466033
 20
94.36800274300383
 30
0.0
 10
140.0590107005085
 20
94.36582946459671
 30
0.0
  0
SPLINE
  5
75
330
1F
100
AcDbEntity
  8
0
  6
Continuous
 62
     7
370
    15
100
AcDbSpline
210
0.0
220
0.0
230
1.0
 70
     8
 71
     3
 72
    14
 73
    10
 74
     0
 42
0.00000001
 43
0.00000001
 12
1.0
 22
0.0
 32
0.0
 13
1.0
 23
0.0
 33
0.0
 40
0.0
 40
0.0
 40
0.0
 40
0.0
 40
0.1250000000000054
 40
0.1250000000000054
 40
0.2500000000000107
 40
0.2500000000000107
 40
0.5000000000000099
 40
0.5000000000000099
 40
1.0
 40
1.0
 40
1.0
 40
1.0
 10
140.0590107004768
 20
94.36582946461944
 30
0.0
 10
140.0716024944216
 20
94.3653448467971
 30
0.0
 10
140.0864736027157
 20
94.36363466886475
 30
0.0
 10
140.1186576941488
 20
94.3555191201139
 30
0.0
 10
140.1342618256247
 20
94.34930333185257
 30
0.0
 10
140.1701489653368
 20
94.33108422015098
 30
0.0
 10
140.1840010066054
 20
94.31931919181737
 30
0.0
 10
140.217490748538
 20
94.28752405540007
 30
0.0
 10
140.2281530091138
 20
94.26973062355694
 30
0.0
 10
140.2362909660087
 20
94.25329949271253
 30
0.0
  0
LINE
  5
76
330
1F
100
AcDbEntity
  8
0
  6
Continuous
 62
     7
370
    15
100
AcDbLine
 10
140.2539875894
 20
105.7438609196
 30
0.0
 11
140.2539875894
 21
93.8885208733
 31
0.0
  0
SPLINE
  5
77
330
1F
100
AcDbEntity
  8
0
  6
Continuous
 62
     7
370
    15
100
AcDbSpline
210
0.0
220
0.0
230
1.0
 70
     8
 71
     3
 72
    16
 73
    12
 74
     0
 42
0.00000001
 43
0.00000001
 12
1.0
 22
0.0
 32
0.0
 13
1.0
 23
0.0
 33
0.0
 40
0.0
 40
0.0
 40
0.0
 40
0.0
 40
0.5
 40
0.5
 40
0.75
 40
0.75
 40
0.875
 40
0.875
 40
0.9375
 40
0.9375
 40
1.0
 40
1.0
 40
1.0
 40
1.0
 10
140.2539875893837
 20
105.7438609195775
 30
0.0
 10
140.2539875893837
 20
105.8583906502765
 30
0.0
 10
140.2499302872687
 20
105.973706725466
 30
0.0
 10
140.2242730444738
 20
106.1486298152935
 30
0.0
 10
140.2129575987317
 20
106.2084591182885
 30
0.0
 10
140.1789262314231
 20
106.2930503045366
 30
0.0
 10
140.1650472502193
 20
106.3217198906807
 30
0.0
 10
140.1291115684519
 20
106.351527677627
 30
0.0
 10
140.1141612491892
 20
106.3578628309866
 30
0.0
 10
140.0842627364473
 20
106.3566373681164
 30
0.0
 10
140.0707298760821
 20
106.3500387820815
 30
0.0
 10
140.059010700508
 20
106.3413910940251
 30
0.0
  0
SPLINE
  5
78
330
1F
100
AcDbEntity
  8
0
  6
Continuous
 62
     7
370
    15
100
AcDbSpline
210
0.0
220
0.0
230
1.0
 70
     8
 71
     3
 72
    14
 73
    10
 74
     0
 42
0.00000001
 43
0.00000001
 12
1.0
 22
0.0
 32
0.0
 13
1.0
 23
0.0
 33
0.0
 40
0.0
 40
0.0
 40
0.0
 40
0.0
 40
0.25
 40
0.25
 40
0.5
 40
0.5
 40
0.75
 40
0.75
 40
1.0
 40
1.0
 40
1.0
 40
1.0
 10
140.0590107005149
 20
106.3413910940165
 30
0.0
 10
140.0025510346311
 20
106.2997289843177
 30
0.0
 10
139.931678559769
 20
106.2688955037295
 30
0.0
 10
139.783212201887
 20
106.2746100123426
 30
0.0
 10
139.7140169986792
 20
106.3101809397755
 30
0.0
 10
139.6042998126096
 20
106.3971248522494
 30
0.0
 10
139.5590539236777
 20
106.4495571656145
 30
0.0
 10
139.4794367927108
 20
106.558110247133
 30
0.0
 10
139.4448341732539
 20
106.6150933333755
 30
0.0
 10
139.4131265612551
 20
106.6736594160334
 30
0.0
  0
SPLINE
  5
79
330
1F
100
AcDbEntity
  8
0
  6
Continuous
 62
     7
370
    15
100
AcDbSpline
210
0.0
220
0.0
230
1.0
 70
     8
 71
     3
 72
    10
 73
     6
 74
     0
 42
0.00000001
 43
0.00000001
 12
1.0
 22
0.0
 32
0.0
 13
1.0
 23
0.0
 33
0.0
 40
0.0
 40
0.0
 40
0.0
 40
0.0
 40
0.5
 40
0.5
 40
1.0
 40
1.0
 40
1.0
 40
1.0
 10
139.1326672458241
 20
107.5264780076797
 30
0.0
 10
139.1635458294361
 20
107.37684945582
 30
0.0
 10
139.1995385371594
 20
107.2303540382964
 30
0.0
 10
139.2888787886565
 20
106.9451623997557
 30
0.0
 10
139.3413370915021
 20
106.8062593740397
 30
0.0
 10
139.4131265612552
 20
106.6736594160333
 30
0.0
  0
SPLINE
  5
7A
330
1F
100
AcDbEntity
  8
0
  6
Continuous
 62
     7
370
    15
100
AcDbSpline
210
0.0
220
0.0
230
1.0
 70
     8
 71
     3
 72
    10
 73
     6
 74
     0
 42
0.00000001
 43
0.00000001
 12
1.0
 22
0.0
 32
0.0
 13
1.0
 23
0.0
 33
0.0
 40
0.0
 40
0.0
 40
0.0
 40
0.0
 40
0.5
 40
0.5
 40
1.0
 40
1.0
 40
1.0
 40
1.0
 10
139.4131265612545
 20
116.7830228882697
 30
0.0
 10
139.3413370915016
 20
116.6504229302634
 30
0.0
 10
139.2888787886562
 20
116.5115199045477
 30
0.0
 10
139.1995385371593
 20
116.2263282660073
 30
0.0
 10
139.163545829436
 20
116.079832848484
 30
0.0
 10
139.1326672458241
 20
115.9302042966246
 30
0.0
  0
SPLINE
  5
7B
330
1F
100
AcDbEntity
  8
0
  6
Continuous
 62
     7
370
    15
100
AcDbSpline
210
0.0
220
0.0
230
1.0
 70
     8
 71
     3
 72
    14
 73
    10
 74
     0
 42
0.00000001
 43
0.00000001
 12
1.0
 22
0.0
 32
0.0
 13
1.0
 23
0.0
 33
0.0
 40
0.0
 40
0.0
 40
0.0
 40
0.0
 40
0.25
 40
0.25
 40
0.5
 40
0.5
 40
0.75
 40
0.75
 40
1.0
 40
1.0
 40
1.0
 40
1.0
 10
139.4131265612538
 20
116.7830228882685
 30
0.0
 10
139.4448352607392
 20
116.8415909795871
 30
0.0
 10
139.4794430793798
 20
116.8985852415271
 30
0.0
 10
139.5591014898691
 20
117.0071853762911
 30
0.0
 10
139.604163759764
 20
117.0595135116697
 30
0.0
 10
139.7147456053424
 20
117.1470145230319
 30
0.0
 10
139.7823897261577
 20
117.1820599792862
 30
0.0
 10
139.9326380165548
 20
117.1878043680422
 30
0.0
 10
140.0025904147851
 20
117.1569242609922
 30
0.0
 10
140.0590107005087
 20
117.1152912102792
 30
0.0
  0
SPLINE
  5
7C
330
1F
100
AcDbEntity
  8
0
  6
Continuous
 62
     7
370
    15
100
AcDbSpline
210
0.0
220
0.0
230
1.0
 70
     8
 71
     3
 72
    16
 73
    12
 74
     0
 42
0.00000001
 43
0.00000001
 12
1.0
 22
0.0
 32
0.0
 13
1.0
 23
0.0
 33
0.0
 40
0.0
 40
0.0
 40
0.0
 40
0.0
 40
0.0625000000000013
 40
0.0625000000000013
 40
0.1250000000000026
 40
0.1250000000000026
 40
0.2500000000000028
 40
0.2500000000000028
 40
0.500000000000003
 40
0.500000000000003
 40
1.0
 40
1.0
 40
1.0
 40
1.0
 10
140.0590107004768
 20
117.1152912102257
 30
0.0
 10
140.0707449349237
 20
117.1066324100815
 30
0.0
 10
140.0842766904027
 20
117.1000283248462
 30
0.0
 10
140.1142641508325
 20
117.098831357672
 30
0.0
 10
140.1292588572408
 20
117.105253104738
 30
0.0
 10
140.1649992796355
 20
117.1349702581472
 30
0.0
 10
140.1790126166368
 20
117.1637776555306
 30
0.0
 10
140.2131567054181
 20
117.2488573771565
 30
0.0
 10
140.2241286095365
 20
117.3072323264263
 30
0.0
 10
140.2499741498028
 20
117.4829478512149
 30
0.0
 10
140.2539875893837
 20
117.5987428590793
 30
0.0
 10
140.2539875893837
 20
117.7128213847267
 30
0.0
  0
LINE
  5
7D
330
1F
100
AcDbEntity
  8
0
  6
Continuous
 62
     7
370
    15
100
AcDbLine
 10
140.2539875894
 20
129.568161431
 30
0.0
 11
140.2539875894
 21
117.7128213847
 31
0.0
  0
SPLINE
  5
7E
330
1F
100
AcDbEntity
  8
0
  6
Continuous
 62
     7
370
    15
100
AcDbSpline
210
0.0
220
0.0
230
1.0
 70
     8
 71
     3
 72
    16
 73
    12
 74
     0
 42
0.00000001
 43
0.00000001
 12
1.0
 22
0.0
 32
0.0
 13
1.0
 23
0.0
 33
0.0
 40
0.0
 40
0.0
 40
0.0
 40
0.0
 40
0.4999999999999982
 40
0.4999999999999982
 40
0.75
 40
0.75
 40
0.8750000000000001
 40
0.8750000000000001
 40
0.9375000000000001
 40
0.9375000000000001
 40
1.0
 40
1.0
 40
1.0
 40
1.0
 10
140.2539875893839
 20
129.2750956178197
 30
0.0
 10
140.2539875893836
 20
129.2530806032404
 30
0.0
 10
140.2498630465296
 20
129.2277269685366
 30
0.0
 10
140.2239466008965
 20
129.1805664663481
 30
0.0
 10
140.2126690198767
 20
129.1633674781193
 30
0.0
 10
140.1789336413353
 20
129.1333895125501
 30
0.0
 10
140.1645448260909
 20
129.1220381040082
 30
0.0
 10
140.1292981366519
 20
129.1053502445308
 30
0.0
 10
140.1140927121949
 20
129.0997872176455
 30
0.0
 10
140.0844461330256
 20
129.0928176346104
 30
0.0
 10
140.0707407970282
 20
129.091304293555
 30
0.0
 10
140.0590107005044
 20
129.0908528397051
 30
0.0
  0
SPLINE
  5
7F
330
1F
100
AcDbEntity
  8
0
  6
Continuous
 62
     7
370
    15
100
AcDbSpline
210
0.0
220
0.0
230
1.0
 70
     8
 71
     3
 72
    14
 73
    10
 74
     0
 42
0.00000001
 43
0.00000001
 12
1.0
 22
0.0
 32
0.0
 13
1.0
 23
0.0
 33
0.0
 40
0.0
 40
0.0
 40
0.0
 40
0.0
 40
0.2500000000000005
 40
0.2500000000000005
 40
0.500000000000001
 40
0.500000000000001
 40
0.7500000000000004
 40
0.7500000000000004
 40
1.0
 40
1.0
 40
1.0
 40
1.0
 10
140.0590107005149
 20
129.0908528397077
 30
0.0
 10
140.0025636184566
 20
129.0886803722884
 30
0.0
 10
139.9317132344138
 20
129.0861822743709
 30
0.0
 10
139.7832767995974
 20
129.0825358155827
 30
0.0
 10
139.7140875479105
 20
129.0815680687315
 30
0.0
 10
139.6043759996696
 20
129.0803005093688
 30
0.0
 10
139.5591343503272
 20
129.0798976684405
 30
0.0
 10
139.4794863321433
 20
129.0788866335128
 30
0.0
 10
139.4448594163773
 20
129.0782956731182
 30
0.0
 10
139.413126561256
 20
129.0774984333448
 30
0.0
  0
SPLINE
  5
80
330
1F
100
AcDbEntity
  8
0
  6
Continuous
 62
     7
370
    15
100
AcDbSpline
210
0.0
220
0.0
230
1.0
 70
     8
 71
     3
 72
    18
 73
    14
 74
     0
 42
0.00000001
 43
0.00000001
 12
1.0
 22
0.0
 32
0.0
 13
1.0
 23
0.0
 33
0.0
 40
0.0
 40
0.0
 40
0.0
 40
0.0
 40
0.2499999999999998
 40
0.2499999999999998
 40
0.3749999999999998
 40
0.3749999999999998
 40
0.4999999999999999
 40
0.4999999999999999
 40
0.6249999999999999
 40
0.6249999999999999
 40
0.7499999999999999
 40
0.7499999999999999
 40
1.0
 40
1.0
 40
1.0
 40
1.0
 10
139.1326672458241
 20
115.9302042966246
 30
0.0
 10
138.9973816395217
 20
115.2746499612033
 30
0.0
 10
138.8962138932788
 20
114.5950288674057
 30
0.0
 10
138.7933525504099
 20
113.5396648609117
 30
0.0
 10
138.7672497048866
 20
113.180850796327
 30
0.0
 10
138.7323597213417
 20
112.4547378522041
 30
0.0
 10
138.7237734630517
 20
112.092648173188
 30
0.0
 10
138.7236737534861
 20
111.3703385157696
 30
0.0
 10
138.7321621246346
 20
111.0101187136613
 30
0.0
 10
138.7663055041552
 20
110.2915526445673
 30
0.0
 10
138.792102486009
 20
109.9317869286519
 30
0.0
 10
138.895503617397
 20
108.8651423416575
 30
0.0
 10
138.9973616095684
 20
108.1821294023752
 30
0.0
 10
139.1326672458241
 20
107.5264780076797
 30
0.0
  0
LINE
  5
81
330
1F
100
AcDbEntity
  8
0
  6
Continuous
 62
     7
370
    15
100
AcDbLine
 10
138.2539875894
 20
116.86849364
 30
0.0
 11
138.2539875894
 21
106.5881886643
 31
0.0
  0
LINE
  5
82
330
1F
100
AcDbEntity
  8
0
  6
Continuous
 62
     7
370
    15
100
AcDbLine
 10
111.9539875894
 20
116.5381198686
 30
0.0
 11
111.9539875894
 21
106.9185624357
 31
0.0
  0
LINE
  5
83
330
1F
100
AcDbEntity
  8
0
  6
Continuous
 62
     7
370
    15
100
AcDbLine
 10
110.4539875894
 20
116.1051071668
 30
0.0
 11
110.4539875894
 21
107.3515751375
 31
0.0
  0
LINE
  5
84
330
1F
100
AcDbEntity
  8
0
  6
Continuous
 62
     7
370
    15
100
AcDbLine
 10
111.9539875894
 20
116.5381198686
 30
0.0
 11
111.9539875894
 21
128.5876923941
 31
0.0
  0
LINE
  5
85
330
1F
100
AcDbEntity
  8
0
  6
Continuous
 62
     7
370
    15
100
AcDbLine
 10
111.9539875894
 20
128.5876923941
 30
0.0
 11
138.2539875894
 21
129.2484399367
 31
0.0
  0
LINE
  5
86
330
1F
100
AcDbEntity
  8
0
  6
Continuous
 62
     7
370
    15
100
AcDbLine
 10
138.2539875894
 20
116.86849364
 30
0.0
 11
138.2539875894
 21
129.2484399367
 31
0.0
  0
LINE
  5
87
330
1F
100
AcDbEntity
  8
0
  6
Continuous
 62
     7
370
    15
100
AcDbLine
 10
111.9539875894
 20
94.8689899102
 30
0.0
 11
111.9539875894
 21
106.9185624357
 31
0.0
  0
LINE
  5
88
330
1F
100
AcDbEntity
  8
0
  6
Continuous
 62
     7
370
    15
100
AcDbLine
 10
138.2539875894
 20
94.2082423676
 30
0.0
 11
138.2539875894
 21
106.5881886643
 31
0.0
  0
LINE
  5
89
330
1F
100
AcDbEntity
  8
0
  6
Continuous
 62
     7
370
    15
100
AcDbLine
 10
111.9539875894
 20
94.8689899102
 30
0.0
 11
138.2539875894
 21
94.2082423676
 31
0.0
  0
ARC
  5
8A
330
1F
100
AcDbEntity
  8
0
  6
Continuous
 62
     7
370
    15
100
AcDbCircle
 10
138.4539245003
 20
94.2032192565
 30
0.0
 40
0.2000000000000059
100
AcDbArc
 50
88.5608333333
 51
178.5608333333
  0
ARC
  5
8B
330
1F
100
AcDbEntity
  8
0
  6
Continuous
 62
     7
370
    15
100
AcDbCircle
 10
138.4539245003
 20
129.2534630478
 30
0.0
 40
0.2000000000000059
100
AcDbArc
 50
181.4391666667
 51
271.4391666667
  0
LINE
  5
8C
330
1F
100
AcDbEntity
  8
0
  6
Continuous
 62
     7
370
    15
100
AcDbLine
 10
138.4589476114
 20
94.4031561674
 30
0.0
 11
139.4131265613
 21
94.379183871
 31
0.0
  0
LINE
  5
8D
330
1F
100
AcDbEntity
  8
0
  6
Continuous
 62
     7
370
    15
100
AcDbLine
 10
138.4589476114
 20
129.0535261369
 30
0.0
 11
139.4131265613
 21
129.0774984333
 31
0.0
  0
LINE
  5
8E
330
1F
100
AcDbEntity
  8
0
  6
Continuous
 62
     7
370
    15
100
AcDbLine
 10
110.4539875894
 20
127.7216669903
 30
0.0
 11
111.9539875894
 21
128.5876923941
 31
0.0
  0
LINE
  5
8F
330
1F
100
AcDbEntity
  8
0
  6
Continuous
 62
     7
370
    15
100
AcDbLine
 10
110.4539875894
 20
116.1051071668
 30
0.0
 11
110.4539875894
 21
127.7216669903
 31
0.0
  0
LINE
  5
90
330
1F
100
AcDbEntity
  8
0
  6
Continuous
 62
     7
370
    15
100
AcDbLine
 10
110.4539875894
 20
95.735015314
 30
0.0
 11
111.9539875894
 21
94.8689899102
 31
0.0
  0
LINE
  5
91
330
1F
100
AcDbEntity
  8
0
  6
Continuous
 62
     7
370
    15
100
AcDbLine
 10
110.4539875894
 20
95.735015314
 30
0.0
 11
110.4539875894
 21
107.3515751375
 31
0.0
  0
ELLIPSE
  5
92
330
1F
100
AcDbEntity
  8
0
  6
Continuous
 62
     7
370
    15
100
AcDbEllipse
 10
220.7848090294
 20
111.7283411522
 30
0.0
 11
0.3220561513869029
 21
15.99976859320063
 31
0.0
210
0.0
220
0.0
230
1.0
 40
0.2671959542
 41
0.2930472284706208
 42
2.998928329720222
  0
ELLIPSE
  5
93
330
1F
100
AcDbEntity
  8
0
  6
Continuous
 62
     7
370
    15
100
AcDbEllipse
 10
218.5680765867
 20
104.8098903901
 30
0.0
 11
-0.08998737201207517
 21
2.35747807539775
 31
0.0
210
0.0
220
0.0
230
1.0
 40
0.2521532344
 41
0.0
 42
6.283185307179586
  0
LINE
  5
94
330
1F
100
AcDbEntity
  8
0
  6
Continuous
 62
     7
370
    15
100
AcDbLine
 10
222.7559685533
 20
127.5556510581
 30
0.0
 11
224.039774027
 21
127.5556510581
 31
0.0
  0
SPLINE
  5
95
330
1F
100
AcDbEntity
  8
0
  6
Continuous
 62
     7
370
    15
100
AcDbSpline
210
0.0
220
0.0
230
1.0
 70
     8
 71
     3
 72
    14
 73
    10
 74
     0
 42
0.00000001
 43
0.00000001
 12
1.0
 22
0.0
 32
0.0
 13
1.0
 23
0.0
 33
0.0
 40
0.0
 40
0.0
 40
0.0
 40
0.0
 40
0.2499999999999998
 40
0.2499999999999998
 40
0.4999999999999999
 40
0.4999999999999999
 40
0.7499999999999999
 40
0.7499999999999999
 40
1.0
 40
1.0
 40
1.0
 40
1.0
 10
219.8581910744534
 20
127.0708666154891
 30
0.0
 10
219.942223734127
 20
127.1619985862105
 30
0.0
 10
220.074321950395
 20
127.2377042049622
 30
0.0
 10
220.4376052237704
 20
127.3650433209976
 30
0.0
 10
220.6598941237585
 20
127.4135074139996
 30
0.0
 10
221.1825945366265
 20
127.4888945691725
 30
0.0
 10
221.4721643757628
 20
127.5142866540228
 30
0.0
 10
222.0980805805064
 20
127.547924797701
 30
0.0
 10
222.4238902865179
 20
127.5556510581438
 30
0.0
 10
222.7559685533206
 20
127.5556510581438
 30
0.0
  0
SPLINE
  5
96
330
1F
100
AcDbEntity
  8
0
  6
Continuous
 62
     7
370
    15
100
AcDbSpline
210
0.0
220
0.0
230
1.0
 70
     8
 71
     3
 72
    14
 73
    10
 74
     0
 42
0.00000001
 43
0.00000001
 12
1.0
 22
0.0
 32
0.0
 13
1.0
 23
0.0
 33
0.0
 40
0.0
 40
0.0
 40
0.0
 40
0.0
 40
0.25
 40
0.25
 40
0.5
 40
0.5
 40
0.75
 40
0.75
 40
1.0
 40
1.0
 40
1.0
 40
1.0
 10
222.7559685533206
 20
95.72878264272153
 30
0.0
 10
222.4238929791004
 20
95.72878264272154
 30
0.0
 10
222.1009719738416
 20
95.72891181280623
 30
0.0
 10
221.4733968502935
 20
95.73267512829486
 30
0.0
 10
221.1846987788194
 20
95.7362839925705
 30
0.0
 10
220.6614653020418
 20
95.75525494636318
 30
0.0
 10
220.4386259011338
 20
95.77033808327575
 30
0.0
 10
220.0756575795401
 20
95.82108422832304
 30
0.0
 10
219.9422261122217
 20
95.85597399012713
 30
0.0
 10
219.8581910744534
 20
95.90335406645659
 30
0.0
  0
LINE
  5
97
330
1F
100
AcDbEntity
  8
0
  6
Continuous
 62
     7
370
    15
100
AcDbLine
 10
224.039774027
 20
95.7287826427
 30
0.0
 11
222.7559685533
 21
95.7287826427
 31
0.0
  0
SPLINE
  5
98
330
1F
100
AcDbEntity
  8
0
  6
Continuous
 62
     7
370
    15
100
AcDbSpline
210
0.0
220
0.0
230
1.0
 70
     8
 71
     3
 72
    10
 73
     6
 74
     0
 42
0.00000001
 43
0.00000001
 12
1.0
 22
0.0
 32
0.0
 13
1.0
 23
0.0
 33
0.0
 40
0.0
 40
0.0
 40
0.0
 40
0.0
 40
0.5
 40
0.5
 40
1.0
 40
1.0
 40
1.0
 40
1.0
 10
224.7468808081971
 20
95.43574488327687
 30
0.0
 10
224.6536358485316
 20
95.52903092679654
 30
0.0
 10
224.5437397989773
 20
95.60231252795644
 30
0.0
 10
224.3017762094885
 20
95.70268142903595
 30
0.0
 10
224.1718431363803
 20
95.72878264272174
 30
0.0
 10
224.0397740270106
 20
95.72878264272174
 30
0.0
  0
SPLINE
  5
99
330
1F
100
AcDbEntity
  8
0
  6
Continuous
 62
     7
370
    15
100
AcDbSpline
210
0.0
220
0.0
230
1.0
 70
     8
 71
     3
 72
    10
 73
     6
 74
     0
 42
0.00000001
 43
0.00000001
 12
1.0
 22
0.0
 32
0.0
 13
1.0
 23
0.0
 33
0.0
 40
0.0
 40
0.0
 40
0.0
 40
0.0
 40
0.5
 40
0.5
 40
1.0
 40
1.0
 40
1.0
 40
1.0
 10
224.0397740270106
 20
127.5556510581438
 30
0.0
 10
224.1718365176982
 20
127.5556510581438
 30
0.0
 10
224.3014349423093
 20
127.5816613613835
 30
0.0
 10
224.5434221593143
 20
127.6819388999889
 30
0.0
 10
224.653634690741
 20
127.7554016157675
 30
0.0
 10
224.7468808081974
 20
127.8486888175882
 30
0.0
  0
LINE
  5
9A
330
1F
100
AcDbEntity
  8
0
  6
Continuous
 62
     7
370
    15
100
AcDbLine
 10
224.7468808082
 20
127.8486888176
 30
0.0
 11
224.9539875894
 21
128.0558793406
 31
0.0
  0
LINE
  5
9B
330
1F
100
AcDbEntity
  8
0
  6
Continuous
 62
     7
370
    15
100
AcDbLine
 10
224.9539875894
 20
128.0558793406
 30
0.0
 11
231.9684020883
 21
128.0558793406
 31
0.0
  0
LINE
  5
9C
330
1F
100
AcDbEntity
  8
0
  6
Continuous
 62
     7
370
    15
100
AcDbLine
 10
231.9684020883
 20
128.0558793406
 30
0.0
 11
248.9518086891
 21
103.8601445743
 31
0.0
  0
LINE
  5
9D
330
1F
100
AcDbEntity
  8
0
  6
Continuous
 62
     7
370
    15
100
AcDbLine
 10
248.9518086891
 20
103.8601445743
 30
0.0
 11
249.0685616301
 21
102.5289031073
 31
0.0
  0
ARC
  5
9E
330
1F
100
AcDbEntity
  8
0
  6
Continuous
 62
     7
370
    15
100
AcDbCircle
 10
237.7892074673
 20
102.3853575963
 30
0.0
 40
2.097562433824129
100
AcDbArc
 50
26.9354234283
 51
241.6721645808
  0
ELLIPSE
  5
9F
330
1F
100
AcDbEntity
  8
0
  6
Continuous
 62
     7
370
    15
100
AcDbEllipse
 10
259.4691676827
 20
108.3296835167
 30
0.0
 11
3113.331223476239
 21
-271.0557416021187
 31
0.0
210
0.0
220
0.0
230
1.0
 40
0.0060650906
 41
4.702857618506777
 42
4.705909117463257
  0
SPLINE
  5
A0
330
1F
100
AcDbEntity
  8
0
  6
Continuous
 62
     7
370
    15
100
AcDbSpline
210
0.0
220
0.0
230
1.0
 70
     8
 71
     3
 72
     8
 73
     4
 74
     0
 42
0.00000001
 43
0.00000001
 12
1.0
 22
0.0
 32
0.0
 13
1.0
 23
0.0
 33
0.0
 40
0.0
 40
0.0
 40
0.0
 40
0.0
 40
1.0
 40
1.0
 40
1.0
 40
1.0
 10
228.151427493196
 20
92.03139656073559
 30
0.0
 10
227.0163441094487
 20
93.16594585530919
 30
0.0
 10
225.8814460870142
 20
94.30067971347844
 30
0.0
 10
224.7468808081971
 20
95.43574488327687
 30
0.0
  0
LINE
  5
A1
330
1F
100
AcDbEntity
  8
0
  6
Continuous
 62
     7
370
    15
100
AcDbLine
 10
224.7468808082
 20
95.4357448833
 30
0.0
 11
224.7468808082
 21
95.4354479333
 31
0.0
  0
ELLIPSE
  5
A2
330
1F
100
AcDbEntity
  8
0
  6
Continuous
 62
     7
370
    15
100
AcDbEllipse
 10
243.3043735978
 20
111.7283411522
 30
0.0
 11
-11.76369068746814
 21
16.4812471237079
 31
0.0
210
0.0
220
0.0
230
1.0
 40
0.0668534593
 41
6.090794017965129
 42
6.235504004580386
  0
LINE
  5
A3
330
1F
100
AcDbEntity
  8
0
  6
Continuous
 62
     7
370
    15
100
AcDbLine
 10
224.9539875894
 20
128.2283411522
 30
0.0
 11
224.9539875894
 21
128.0558793406
 31
0.0
  0
ARC
  5
A4
330
1F
100
AcDbEntity
  8
0
  6
Continuous
 62
     7
370
    15
100
AcDbCircle
 10
237.7830026527
 20
102.7204283595
 30
0.0
 40
2.094819172117742
100
AcDbArc
 50
184.6245456352
 51
240.8629681994
  0
CIRCLE
  5
A5
330
1F
100
AcDbEntity
  8
0
  6
Continuous
 62
     7
370
    15
100
AcDbCircle
 10
243.4595276356
 20
96.7474553075
 30
0.0
 40
3.494055976583873
  0
CIRCLE
  5
A6
330
1F
100
AcDbEntity
  8
0
  6
Continuous
 62
     7
370
    15
100
AcDbCircle
 10
243.4580799335
 20
96.7124897694
 30
0.0
 40
2.629481417089431
  0
CIRCLE
  5
A7
330
1F
100
AcDbEntity
  8
0
  6
Continuous
 62
     7
370
    15
100
AcDbCircle
 10
243.4572462364
 20
96.7123661231
 30
0.0
 40
1.996344400781109
  0
SPLINE
  5
A8
330
1F
100
AcDbEntity
  8
0
  6
Continuous
 62
     7
370
    15
100
AcDbSpline
210
0.0
220
0.0
230
1.0
 70
     8
 71
     3
 72
    15
 73
    11
 74
     0
 42
0.00000001
 43
0.00000001
 12
1.0
 22
0.0
 32
0.0
 13
1.0
 23
0.0
 33
0.0
 40
0.0
 40
0.0
 40
0.0
 40
0.0
 40
0.1262470803730717
 40
0.2533633350512879
 40
0.3794185517356778
 40
0.5042689738351221
 40
0.6284502821606849
 40
0.7526361292231208
 40
0.8774891912114303
 40
1.0
 40
1.0
 40
1.0
 40
1.0
 10
243.7943527859738
 20
98.38701865445493
 30
0.0
 10
243.7789372924627
 20
98.42803211405474
 30
0.0
 10
243.7480001742665
 20
98.51034139895464
 30
0.0
 10
243.6519692079913
 20
98.60623828905595
 30
0.0
 10
243.5318228904644
 20
98.66663552813606
 30
0.0
 10
243.3982999109947
 20
98.68379044997936
 30
0.0
 10
243.26716552856
 20
98.65683886673796
 30
0.0
 10
243.1532573113044
 20
98.58894743819147
 30
0.0
 10
243.0658505207291
 20
98.48917323049164
 30
0.0
 10
243.0402552400252
 20
98.40731211869165
 30
0.0
 10
243.0275787787039
 20
98.36676912838571
 30
0.0
  0
SPLINE
  5
A9
330
1F
100
AcDbEntity
  8
0
  6
Continuous
 62
     7
370
    15
100
AcDbSpline
210
0.0
220
0.0
230
1.0
 70
     8
 71
     3
 72
    17
 73
    13
 74
     0
 42
0.00000001
 43
0.00000001
 12
1.0
 22
0.0
 32
0.0
 13
1.0
 23
0.0
 33
0.0
 40
0.0
 40
0.0
 40
0.0
 40
0.0
 40
0.1015021851812568
 40
0.205885158816214
 40
0.3074937179049098
 40
0.4121649835730022
 40
0.5117335401580644
 40
0.6142795520905936
 40
0.7124580058480555
 40
0.8133988273150328
 40
0.9056223946751496
 40
1.0
 40
1.0
 40
1.0
 40
1.0
 10
243.0275787787039
 20
98.36676912838571
 30
0.0
 10
243.0181264490696
 20
98.33059158071792
 30
0.0
 10
242.9989535181177
 20
98.25720971082161
 30
0.0
 10
242.9472478038592
 20
98.15493288265672
 30
0.0
 10
242.879355823137
 20
98.06080300356037
 30
0.0
 10
242.7970976107519
 20
97.98018486394011
 30
0.0
 10
242.7021390161563
 20
97.9137357752356
 30
0.0
 10
242.5996378358015
 20
97.86457702079281
 30
0.0
 10
242.4902515291256
 20
97.83235638553268
 30
0.0
 10
242.381427177099
 20
97.81880075306965
 30
0.0
 10
242.2734688120483
 20
97.82105038440959
 30
0.0
 10
242.2055734663646
 20
97.83558006701801
 30
0.0
 10
242.1712339172282
 20
97.84292877030312
 30
0.0
  0
SPLINE
  5
AA
330
1F
100
AcDbEntity
  8
0
  6
Continuous
 62
     7
370
    15
100
AcDbSpline
210
0.0
220
0.0
230
1.0
 70
     8
 71
     3
 72
    23
 73
    19
 74
     0
 42
0.00000001
 43
0.00000001
 12
1.0
 22
0.0
 32
0.0
 13
1.0
 23
0.0
 33
0.0
 40
0.0
 40
0.0
 40
0.0
 40
0.0
 40
0.0625415897567493
 40
0.126876634257704
 40
0.1895183544881082
 40
0.2540059658422489
 40
0.3161227144820564
 40
0.3800751997670674
 40
0.4416034412086513
 40
0.504935325590284
 40
0.5661404248701721
 40
0.6291209679675626
 40
0.690334783686015
 40
0.7533059380537844
 40
0.8148536299082524
 40
0.8781541077289913
 40
0.9382805140941594
 40
1.0
 40
1.0
 40
1.0
 40
1.0
 10
242.1712339172282
 20
97.84292877030312
 30
0.0
 10
242.1498734200792
 20
97.84740938900752
 30
0.0
 10
242.1065398880266
 20
97.85649911350633
 30
0.0
 10
242.0397333996991
 20
97.85617809538361
 30
0.0
 10
241.9731450648412
 20
97.84534621088979
 30
0.0
 10
241.9098063854267
 20
97.82349689279005
 30
0.0
 10
241.8505168718387
 20
97.7911666971483
 30
0.0
 10
241.7981924819447
 20
97.749982560426
 30
0.0
 10
241.753188833138
 20
97.7003768190578
 30
0.0
 10
241.7176021110565
 20
97.6448330945664
 30
0.0
 10
241.6916109564213
 20
97.58380964197687
 30
0.0
 10
241.6763478430155
 20
97.52017218736694
 30
0.0
 10
241.6718923339141
 20
97.45447159692485
 30
0.0
 10
241.6784291531664
 20
97.38963855877928
 30
0.0
 10
241.6958557191673
 20
97.32628470469076
 30
0.0
 10
241.7233384453776
 20
97.26796103831008
 30
0.0
 10
241.7595866398368
 20
97.21451999331208
 30
0.0
 10
241.7900185050699
 20
97.18521017402372
 30
0.0
 10
241.8054333790745
 20
97.17036365811126
 30
0.0
  0
SPLINE
  5
AB
330
1F
100
AcDbEntity
  8
0
  6
Continuous
 62
     7
370
    15
100
AcDbSpline
210
0.0
220
0.0
230
1.0
 70
     8
 71
     3
 72
    12
 73
     8
 74
     0
 42
0.00000001
 43
0.00000001
 12
1.0
 22
0.0
 32
0.0
 13
1.0
 23
0.0
 33
0.0
 40
0.0
 40
0.0
 40
0.0
 40
0.0
 40
0.2057949882087505
 40
0.4120010155283252
 40
0.6140549927930217
 40
0.8131810826684109
 40
1.0
 40
1.0
 40
1.0
 40
1.0
 10
241.8054333790745
 20
97.17036365811126
 30
0.0
 10
241.8577600630604
 20
97.11467376574211
 30
0.0
 10
241.9625179443339
 20
97.00318275028805
 30
0.0
 10
242.0381224188389
 20
96.78055780041939
 30
0.0
 10
242.0392340374623
 20
96.55015111464952
 30
0.0
 10
241.9702805871145
 20
96.33403545165247
 30
0.0
 10
241.8771218309382
 20
96.22257049378402
 30
0.0
 10
241.832027795146
 20
96.16861523497631
 30
0.0
  0
SPLINE
  5
AC
330
1F
100
AcDbEntity
  8
0
  6
Continuous
 62
     7
370
    15
100
AcDbSpline
210
0.0
220
0.0
230
1.0
 70
     8
 71
     3
 72
    23
 73
    19
 74
     0
 42
0.00000001
 43
0.00000001
 12
1.0
 22
0.0
 32
0.0
 13
1.0
 23
0.0
 33
0.0
 40
0.0
 40
0.0
 40
0.0
 40
0.0
 40
0.0625065224134656
 40
0.1268032294228859
 40
0.1894476925803605
 40
0.2539381432713895
 40
0.3160572949799615
 40
0.3800123143127885
 40
0.4415418845481628
 40
0.5048752096397569
 40
0.566080361205202
 40
0.6290610219317413
 40
0.6902737759322606
 40
0.7532438799216774
 40
0.8147897755419835
 40
0.8780884206728599
 40
0.9382463322173228
 40
1.0
 40
1.0
 40
1.0
 40
1.0
 10
241.832027795146
 20
96.16861523497631
 30
0.0
 10
241.8172608229949
 20
96.15229347517021
 30
0.0
 10
241.7873039531316
 20
96.11918250093315
 30
0.0
 10
241.7536331968164
 20
96.06101735071358
 30
0.0
 10
241.7292447375254
 20
95.99780835744563
 30
0.0
 10
241.716124898899
 20
95.93193068878492
 30
0.0
 10
241.7142113009926
 20
95.8643558426275
 30
0.0
 10
241.7235619381918
 20
95.79842383349921
 30
0.0
 10
241.7439769995176
 20
95.73465673115442
 30
0.0
 10
241.7743525017179
 20
95.67611029038125
 30
0.0
 10
241.814378856694
 20
95.62316701806672
 30
0.0
 10
241.8621318884161
 20
95.57823735383026
 30
0.0
 10
241.9171736663855
 20
95.54166526777128
 30
0.0
 10
241.9770445080702
 20
95.51507169913431
 30
0.0
 10
242.0411631028303
 20
95.4986739528131
 30
0.0
 10
242.1060250770874
 20
95.49351746063522
 30
0.0
 10
242.1711078468767
 20
95.4984156840555
 30
0.0
 10
242.2121908736453
 20
95.51028654853964
 30
0.0
 10
242.2330012642626
 20
95.51629967236015
 30
0.0
  0
SPLINE
  5
AD
330
1F
100
AcDbEntity
  8
0
  6
Continuous
 62
     7
370
    15
100
AcDbSpline
210
0.0
220
0.0
230
1.0
 70
     8
 71
     3
 72
    17
 73
    13
 74
     0
 42
0.00000001
 43
0.00000001
 12
1.0
 22
0.0
 32
0.0
 13
1.0
 23
0.0
 33
0.0
 40
0.0
 40
0.0
 40
0.0
 40
0.0
 40
0.1014898822866564
 40
0.2058601172581589
 40
0.3074578824584696
 40
0.4121178416800674
 40
0.5116797789145615
 40
0.6142181466596595
 40
0.7124037419662334
 40
0.8133516758228897
 40
0.9055981370557284
 40
1.0
 40
1.0
 40
1.0
 40
1.0
 10
242.2330012642626
 20
95.51629967236015
 30
0.0
 10
242.2694835927394
 20
95.526830375309
 30
0.0
 10
242.3434836432753
 20
95.54819064980157
 30
0.0
 10
242.4590032035802
 20
95.55619143895899
 30
0.0
 10
242.5753462060913
 20
95.54579641361889
 30
0.0
 10
242.6868688735626
 20
95.5157607982145
 30
0.0
 10
242.7921453295496
 20
95.46715776095195
 30
0.0
 10
242.8858868549258
 20
95.40286919043298
 30
0.0
 10
242.9680894326247
 20
95.3236731081135
 30
0.0
 10
243.0335950531641
 20
95.23524101552091
 30
0.0
 10
243.0847860819492
 20
95.13936734192983
 30
0.0
 10
243.1054760796438
 20
95.0723083364956
 30
0.0
 10
243.1159405418098
 20
95.03839163744088
 30
0.0
  0
SPLINE
  5
AE
330
1F
100
AcDbEntity
  8
0
  6
Continuous
 62
     7
370
    15
100
AcDbSpline
210
0.0
220
0.0
230
1.0
 70
     8
 71
     3
 72
    23
 73
    19
 74
     0
 42
0.00000001
 43
0.00000001
 12
1.0
 22
0.0
 32
0.0
 13
1.0
 23
0.0
 33
0.0
 40
0.0
 40
0.0
 40
0.0
 40
0.0
 40
0.0622426492047992
 40
0.1262521514661651
 40
0.1888981177529395
 40
0.253390129644154
 40
0.3155105033804701
 40
0.3794668212466576
 40
0.4409968994993672
 40
0.5043307901200428
 40
0.5655357116527586
 40
0.6285161663438762
 40
0.6897281621782905
 40
0.7526974991099483
 40
0.8142424170099046
 40
0.8775400527690237
 40
0.9379613017252683
 40
1.0
 40
1.0
 40
1.0
 40
1.0
 10
243.1159405418097
 20
95.0383916374409
 30
0.0
 10
243.1224895611446
 20
95.01744303460565
 30
0.0
 10
243.1357735037722
 20
94.97495117071573
 30
0.0
 10
243.168718760254
 20
94.91659912762393
 30
0.0
 10
243.2107686979811
 20
94.86365904802463
 30
0.0
 10
243.2609292896048
 20
94.8190772229294
 30
0.0
 10
243.3182622025726
 20
94.78336520137098
 30
0.0
 10
243.3799106357355
 20
94.75825443557531
 30
0.0
 10
243.4453193667237
 20
94.74383269500692
 30
0.0
 10
243.5112879091958
 20
94.74068099508267
 30
0.0
 10
243.5773283896347
 20
94.74872305160132
 30
0.0
 10
243.6403827583732
 20
94.76750462333553
 30
0.0
 10
243.6999337195836
 20
94.79682024617006
 30
0.0
 10
243.753334549854
 20
94.83535468279105
 30
0.0
 10
243.8001063868682
 20
94.88271563878332
 30
0.0
 10
243.8376221540223
 20
94.93646885491847
 30
0.0
 10
243.8666057242277
 20
94.99559976899805
 30
0.0
 10
243.8772978669041
 20
95.03744315866966
 30
0.0
 10
243.8827145490798
 20
95.05864118696647
 30
0.0
  0
SPLINE
  5
AF
330
1F
100
AcDbEntity
  8
0
  6
Continuous
 62
     7
370
    15
100
AcDbSpline
210
0.0
220
0.0
230
1.0
 70
     8
 71
     3
 72
    17
 73
    13
 74
     0
 42
0.00000001
 43
0.00000001
 12
1.0
 22
0.0
 32
0.0
 13
1.0
 23
0.0
 33
0.0
 40
0.0
 40
0.0
 40
0.0
 40
0.0
 40
0.1015004730475855
 40
0.2058817751692866
 40
0.307488596890404
 40
0.4121578043088346
 40
0.5117295539132155
 40
0.6142784881921107
 40
0.7124655806084746
 40
0.813415618921297
 40
0.9056310190755723
 40
1.0
 40
1.0
 40
1.0
 40
1.0
 10
243.8827145490798
 20
95.05864118696648
 30
0.0
 10
243.8921667401638
 20
95.09563047683365
 30
0.0
 10
243.9113393983908
 20
95.170658902135
 30
0.0
 10
243.9630442351877
 20
95.27497618935266
 30
0.0
 10
244.0309346735822
 20
95.37069097375824
 30
0.0
 10
244.113191657652
 20
95.45226044186737
 30
0.0
 10
244.2081501139575
 20
95.51897721292741
 30
0.0
 10
244.3106552457412
 20
95.56770751401889
 30
0.0
 10
244.4200489330498
 20
95.59884924122919
 30
0.0
 10
244.5288774960374
 20
95.61081843592842
 30
0.0
 10
244.6368334179105
 20
95.60661076573031
 30
0.0
 10
244.7047228833784
 20
95.59058627086533
 30
0.0
 10
244.7390594105554
 20
95.58248154504909
 30
0.0
  0
SPLINE
  5
B0
330
1F
100
AcDbEntity
  8
0
  6
Continuous
 62
     7
370
    15
100
AcDbSpline
210
0.0
220
0.0
230
1.0
 70
     8
 71
     3
 72
    23
 73
    19
 74
     0
 42
0.00000001
 43
0.00000001
 12
1.0
 22
0.0
 32
0.0
 13
1.0
 23
0.0
 33
0.0
 40
0.0
 40
0.0
 40
0.0
 40
0.0
 40
0.062538490697316
 40
0.126870332246561
 40
0.1895089567155598
 40
0.2539934004621564
 40
0.3161067687093194
 40
0.3800557579598476
 40
0.441580968572717
 40
0.5049096679479824
 40
0.5661129323448169
 40
0.6290914837165988
 40
0.6903053232552033
 40
0.7532763836340587
 40
0.814826226766965
 40
0.8781288171895708
 40
0.9382674905199268
 40
1.0
 40
1.0
 40
1.0
 40
1.0
 10
244.7390594105554
 20
95.58248154504909
 30
0.0
 10
244.7604192132731
 20
95.57752894251017
 30
0.0
 10
244.8037513314181
 20
95.56748171683218
 30
0.0
 10
244.8705558454296
 20
95.56653396290172
 30
0.0
 10
244.9371424287994
 20
95.57623667412267
 30
0.0
 10
245.0004795831962
 20
95.59715042309972
 30
0.0
 10
245.0597678471684
 20
95.6287345605844
 30
0.0
 10
245.1120915115551
 20
95.66938934718539
 30
0.0
 10
245.1570951310954
 20
95.7186772717664
 30
0.0
 10
245.1926828726397
 20
95.77412410763381
 30
0.0
 10
245.2186759997953
 20
95.83526909066232
 30
0.0
 10
245.2339421157296
 20
95.89924168313561
 30
0.0
 10
245.2384013196463
 20
95.96549145848779
 30
0.0
 10
245.2318684763443
 20
96.03107096194934
 30
0.0
 10
245.2144458210921
 20
96.09536933667484
 30
0.0
 10
245.1869648688919
 20
96.15480064222623
 30
0.0
 10
245.1507147482459
 20
96.20949528108834
 30
0.0
 10
245.1202775681034
 20
96.23973104139601
 30
0.0
 10
245.1048599487092
 20
96.25504663378452
 30
0.0
  0
SPLINE
  5
B1
330
1F
100
AcDbEntity
  8
0
  6
Continuous
 62
     7
370
    15
100
AcDbSpline
210
0.0
220
0.0
230
1.0
 70
     8
 71
     3
 72
    12
 73
     8
 74
     0
 42
0.00000001
 43
0.00000001
 12
1.0
 22
0.0
 32
0.0
 13
1.0
 23
0.0
 33
0.0
 40
0.0
 40
0.0
 40
0.0
 40
0.0
 40
0.2058321750920799
 40
0.4120750343576712
 40
0.614169787928431
 40
0.8133029339857356
 40
1.0
 40
1.0
 40
1.0
 40
1.0
 10
245.1048599487092
 20
96.25504663378452
 30
0.0
 10
245.0525266475011
 20
96.3123474400449
 30
0.0
 10
244.9477556276947
 20
96.42706338131065
 30
0.0
 10
244.8721558139159
 20
96.65230187583305
 30
0.0
 10
244.8710709351305
 20
96.88255204108606
 30
0.0
 10
244.9400566842705
 20
97.09591845118892
 30
0.0
 10
245.0331966119503
 20
97.20433432176132
 30
0.0
 10
245.0782655326375
 20
97.2567950267864
 30
0.0
  0
SPLINE
  5
B2
330
1F
100
AcDbEntity
  8
0
  6
Continuous
 62
     7
370
    15
100
AcDbSpline
210
0.0
220
0.0
230
1.0
 70
     8
 71
     3
 72
    23
 73
    19
 74
     0
 42
0.00000001
 43
0.00000001
 12
1.0
 22
0.0
 32
0.0
 13
1.0
 23
0.0
 33
0.0
 40
0.0
 40
0.0
 40
0.0
 40
0.0
 40
0.0624988066048042
 40
0.1267875659926363
 40
0.1894243117293541
 40
0.253906806815953
 40
0.3160185992639479
 40
0.3799659197983597
 40
0.4414903780363496
 40
0.504818251371153
 40
0.5660216610165764
 40
0.6290003214446444
 40
0.6902150064541898
 40
0.753186915244018
 40
0.8147379738801566
 40
0.878041812857427
 40
0.9382223043076062
 40
0.9999999999999999
 40
0.9999999999999999
 40
0.9999999999999999
 40
0.9999999999999999
 10
245.0782655326375
 20
97.2567950267864
 30
0.0
 10
245.0930313724123
 20
97.27264359818744
 30
0.0
 10
245.1229859425328
 20
97.30479464076825
 30
0.0
 10
245.1566553514185
 20
97.36168689220061
 30
0.0
 10
245.1810439895106
 20
97.4237623322893
 30
0.0
 10
245.1941657865602
 20
97.48870023983442
 30
0.0
 10
245.1960831913594
 20
97.55552542893341
 30
0.0
 10
245.186738139788
 20
97.62092623764005
 30
0.0
 10
245.166330250415
 20
97.68437544531817
 30
0.0
 10
245.1359624375216
 20
97.74282763139611
 30
0.0
 10
245.0959441258649
 20
97.79589701816315
 30
0.0
 10
245.0481977313468
 20
97.84116829701046
 30
0.0
 10
244.9931614860861
 20
97.87829699429294
 30
0.0
 10
244.9332933216922
 20
97.9056443744734
 30
0.0
 10
244.869175365806
 20
97.92299336479095
 30
0.0
 10
244.8043055706626
 20
97.9292602107451
 30
0.0
 10
244.7392070321206
 20
97.92561226643522
 30
0.0
 10
244.6981097940043
 20
97.91465896442006
 30
0.0
 10
244.6772920635212
 20
97.90911058940259
 30
0.0
  0
SPLINE
  5
B3
330
1F
100
AcDbEntity
  8
0
  6
Continuous
 62
     7
370
    15
100
AcDbSpline
210
0.0
220
0.0
230
1.0
 70
     8
 71
     3
 72
    17
 73
    13
 74
     0
 42
0.00000001
 43
0.00000001
 12
1.0
 22
0.0
 32
0.0
 13
1.0
 23
0.0
 33
0.0
 40
0.0
 40
0.0
 40
0.0
 40
0.0
 40
0.101509846972914
 40
0.2059006998423717
 40
0.3075184015869723
 40
0.4121990015724817
 40
0.511777495083212
 40
0.6143342058937911
 40
0.7125142060558116
 40
0.8134571906890278
 40
0.9056523878265506
 40
1.0
 40
1.0
 40
1.0
 40
1.0
 10
244.6772920635212
 20
97.90911058940259
 30
0.0
 10
244.6408039295758
 20
97.89939075221024
 30
0.0
 10
244.5667920722106
 20
97.87967521386653
 30
0.0
 10
244.451255314406
 20
97.87371944983065
 30
0.0
 10
244.334895616134
 20
97.885709446122
 30
0.0
 10
244.2233582073852
 20
97.91671086466154
 30
0.0
 10
244.1180687869159
 20
97.9656011829792
 30
0.0
 10
244.0243252872132
 20
98.02948009610043
 30
0.0
 10
243.9421301906317
 20
98.10761379203973
 30
0.0
 10
243.8766494479964
 20
98.19445681940648
 30
0.0
 10
243.8254881730029
 20
98.28834812456455
 30
0.0
 10
243.8048107766905
 20
98.35387644605262
 30
0.0
 10
243.7943527859738
 20
98.38701865445493
 30
0.0
  0
LWPOLYLINE
  5
B4
330
1F
100
AcDbEntity
  8
0
  6
Continuous
 62
     7
370
    15
100
AcDbPolyline
 90
        3
 70
   128
 43
0.0
 10
245.1907063611
 20
97.5942044973
 10
245.1548048196
 20
97.4783233175
 10
245.0782655326
 20
97.371850584
  0
ARC
  5
B5
330
1F
100
AcDbEntity
  8
0
  6
Continuous
 62
     7
370
    15
100
AcDbCircle
 10
242.0663047868
 20
97.5788392329
 30
0.0
 40
0.3926442253856706
100
AcDbArc
 50
186.8658130177
 51
228.3639649205
  0
ARC
  5
B6
330
1F
100
AcDbEntity
  8
0
  6
Continuous
 62
     7
370
    15
100
AcDbCircle
 10
245.5612562355
 20
96.8833191456
 30
0.0
 40
0.6869810662747377
100
AcDbArc
 50
134.6732371703
 51
179.9881618794
  0
ARC
  5
B7
330
1F
100
AcDbEntity
  8
0
  6
Continuous
 62
     7
370
    15
100
AcDbCircle
 10
241.3489593052
 20
96.7718855749
 30
0.0
 40
0.6870588570077609
100
AcDbArc
 50
0.0132197031
 51
48.3645622672
  0
ARC
  5
B8
330
1F
100
AcDbEntity
  8
0
  6
Continuous
 62
     7
370
    15
100
AcDbCircle
 10
244.8428682665
 20
96.0774467095
 30
0.0
 40
0.3938115076683809
100
AcDbArc
 50
254.7161973502
 51
354.3291909951
  0
ARC
  5
B9
330
1F
100
AcDbEntity
  8
0
  6
Continuous
 62
     7
370
    15
100
AcDbCircle
 10
242.1092707837
 20
96.0052866788
 30
0.0
 40
0.3938704870291631
100
AcDbArc
 50
185.6756058455
 51
288.3089050775
  0
ARC
  5
BA
330
1F
100
AcDbEntity
  8
0
  6
Continuous
 62
     7
370
    15
100
AcDbCircle
 10
244.5575988043
 20
95.0323326927
 30
0.0
 40
0.6895360957958986
100
AcDbArc
 50
74.7421546755
 51
168.1674797951
  0
ARC
  5
BB
330
1F
100
AcDbEntity
  8
0
  6
Continuous
 62
     7
370
    15
100
AcDbCircle
 10
242.4493310258
 20
94.9764465218
 30
0.0
 40
0.6897129701929838
100
AcDbArc
 50
14.8717374618
 51
108.2794474723
  0
ARC
  5
BC
330
1F
100
AcDbEntity
  8
0
  6
Continuous
 62
     7
370
    15
100
AcDbCircle
 10
243.4969220109
 20
95.2546465227
 30
0.0
 40
0.3941883688610732
100
AcDbArc
 50
194.8732623077
 51
348.1534626332
  0
ARC
  5
BD
330
1F
100
AcDbEntity
  8
0
  6
Continuous
 62
     7
370
    15
100
AcDbCircle
 10
243.4536103836
 20
96.7539684249
 30
0.0
 40
3.500006085765053
100
AcDbArc
 50
0.1068466434
 51
179.8931533566
  0
LINE
  5
BE
330
1F
100
AcDbEntity
  8
0
  6
Continuous
 62
     7
370
    15
100
AcDbLine
 10
250.4524654686
 20
90.1621441466
 30
0.0
 11
249.3993123679
 21
102.1704161941
 31
0.0
  0
ARC
  5
BF
330
1F
100
AcDbEntity
  8
0
  6
Continuous
 62
     7
370
    15
100
AcDbCircle
 10
250.0544299246
 20
90.1278101876
 30
0.0
 40
0.3995135980504393
100
AcDbArc
 50
264.9302140244
 51
4.9300462061
  0
LINE
  5
C0
330
1F
100
AcDbEntity
  8
0
  6
Continuous
 62
     7
370
    15
100
AcDbLine
 10
237.9815302682
 20
90.7804472378
 30
0.0
 11
250.0191252923
 21
89.7298595651
 31
0.0
  0
ARC
  5
C1
330
1F
100
AcDbEntity
  8
0
  6
Continuous
 62
     7
370
    15
100
AcDbCircle
 10
238.0158654107
 20
91.1784828868
 30
0.0
 40
0.3995138043829802
100
AcDbArc
 50
185.0699537939
 51
265.0697859756
  0
LINE
  5
C2
330
1F
100
AcDbEntity
  8
0
  6
Continuous
 62
     7
370
    15
100
AcDbLine
 10
236.5647615854
 20
103.1514491182
 30
0.0
 11
237.6179146861
 21
91.1431770707
 31
0.0
  0
ARC
  5
C3
330
1F
100
AcDbEntity
  8
0
  6
Continuous
 62
     7
370
    15
100
AcDbCircle
 10
236.9627971294
 20
103.1857830771
 30
0.0
 40
0.3995135980502455
100
AcDbArc
 50
84.9302140243
 51
184.9300462061
  0
LINE
  5
C4
330
1F
100
AcDbEntity
  8
0
  6
Continuous
 62
     7
370
    15
100
AcDbLine
 10
249.0356967858
 20
102.533146027
 30
0.0
 11
236.9981017617
 21
103.5837336997
 31
0.0
  0
ARC
  5
C5
330
1F
100
AcDbEntity
  8
0
  6
Continuous
 62
     7
370
    15
100
AcDbCircle
 10
249.0013616433
 20
102.135110378
 30
0.0
 40
0.3995138043827488
100
AcDbArc
 50
5.0699537939
 51
85.0697859756
  0
ARC
  5
C6
330
1F
100
AcDbEntity
  8
0
  6
Continuous
 62
     7
370
    15
100
AcDbCircle
 10
236.9628192462
 20
103.1858052479
 30
0.0
 40
0.3795379181477935
100
AcDbArc
 50
84.9302140244
 51
184.9300462061
  0
LINE
  5
C7
330
1F
100
AcDbEntity
  8
0
  6
Continuous
 62
     7
370
    15
100
AcDbLine
 10
236.5846854794
 20
103.1531879869
 30
0.0
 11
237.6378385804
 21
91.1449159394
 31
0.0
  0
ARC
  5
C8
330
1F
100
AcDbEntity
  8
0
  6
Continuous
 62
     7
370
    15
100
AcDbCircle
 10
238.0158917692
 20
91.1784564651
 30
0.0
 40
0.3795381146289161
100
AcDbArc
 50
185.0699538432
 51
265.0697858713
  0
LINE
  5
C9
330
1F
100
AcDbEntity
  8
0
  6
Continuous
 62
     7
370
    15
100
AcDbLine
 10
237.9832733831
 20
90.8003225981
 30
0.0
 11
250.0208684071
 21
89.7497349255
 31
0.0
  0
ARC
  5
CA
330
1F
100
AcDbEntity
  8
0
  6
Continuous
 62
     7
370
    15
100
AcDbCircle
 10
250.0544078079
 20
90.1277880168
 30
0.0
 40
0.3795379181480244
100
AcDbArc
 50
264.9302140244
 51
4.9300462061
  0
LINE
  5
CB
330
1F
100
AcDbEntity
  8
0
  6
Continuous
 62
     7
370
    15
100
AcDbLine
 10
250.4325415747
 20
90.1604052778
 30
0.0
 11
249.3793884739
 21
102.1686773254
 31
0.0
  0
ARC
  5
CC
330
1F
100
AcDbEntity
  8
0
  6
Continuous
 62
     7
370
    15
100
AcDbCircle
 10
249.0013352855
 20
102.1351368
 30
0.0
 40
0.3795381141638811
100
AcDbArc
 50
5.0699537939
 51
85.0697859756
  0
LINE
  5
CD
330
1F
100
AcDbEntity
  8
0
  6
Continuous
 62
     7
370
    15
100
AcDbLine
 10
249.0339536709
 20
102.5132706666
 30
0.0
 11
236.9963586469
 21
103.5638583393
 31
0.0
  0
LINE
  5
CE
330
1F
100
AcDbEntity
  8
0
  6
Continuous
 62
     7
370
    15
100
AcDbLine
 10
236.9632394646
 20
103.2015305817
 30
0.0
 11
236.5846854794
 21
103.1531879869
 31
0.0
  0
LINE
  5
CF
330
1F
100
AcDbEntity
  8
0
  6
Continuous
 62
     7
370
    15
100
AcDbLine
 10
236.9632394646
 20
103.2015305817
 30
0.0
 11
236.9963586469
 21
103.5638583393
 31
0.0
  0
LINE
  5
D0
330
1F
100
AcDbEntity
  8
0
  6
Continuous
 62
     7
370
    15
100
AcDbLine
 10
249.0008344887
 20
102.150942909
 30
0.0
 11
249.0339536709
 21
102.5132706666
 31
0.0
  0
LINE
  5
D1
330
1F
100
AcDbEntity
  8
0
  6
Continuous
 62
     7
370
    15
100
AcDbLine
 10
248.4271401594
 20
101.6036767944
 30
0.0
 11
249.0008344887
 21
102.150942909
 31
0.0
  0
LINE
  5
D2
330
1F
100
AcDbEntity
  8
0
  6
Continuous
 62
     7
370
    15
100
AcDbLine
 10
237.8822398091
 20
102.3184139942
 30
0.0
 11
236.9632394646
 21
103.2015305817
 31
0.0
  0
LINE
  5
D3
330
1F
100
AcDbEntity
  8
0
  6
Continuous
 62
     7
370
    15
100
AcDbLine
 10
238.0163925653
 20
91.1932585341
 30
0.0
 11
237.6378385804
 21
91.1449159394
 31
0.0
  0
LINE
  5
D4
330
1F
100
AcDbEntity
  8
0
  6
Continuous
 62
     7
370
    15
100
AcDbLine
 10
238.5900868946
 20
91.7905860969
 30
0.0
 11
238.0163925653
 21
91.1932585341
 31
0.0
  0
LINE
  5
D5
330
1F
100
AcDbEntity
  8
0
  6
Continuous
 62
     7
370
    15
100
AcDbLine
 10
249.0008344887
 20
102.150942909
 30
0.0
 11
249.3793884739
 21
102.1686773254
 31
0.0
  0
LINE
  5
D6
330
1F
100
AcDbEntity
  8
0
  6
Continuous
 62
     7
370
    15
100
AcDbLine
 10
250.0539875894
 20
90.1426708614
 30
0.0
 11
250.4325415747
 21
90.1604052778
 31
0.0
  0
LINE
  5
D7
330
1F
100
AcDbEntity
  8
0
  6
Continuous
 62
     7
370
    15
100
AcDbLine
 10
249.1349872449
 20
91.0930776856
 30
0.0
 11
250.0539875894
 21
90.1426708614
 31
0.0
  0
ARC
  5
D8
330
1F
100
AcDbEntity
  8
0
  6
Continuous
 62
     7
370
    15
100
AcDbCircle
 10
239.8442983395
 20
100.3099740498
 30
0.0
 40
0.9987839949519042
100
AcDbArc
 50
84.9302140094
 51
184.9300462358
  0
LINE
  5
D9
330
1F
100
AcDbEntity
  8
0
  6
Continuous
 62
     7
370
    15
100
AcDbLine
 10
246.6695668836
 20
100.7168746476
 30
0.0
 11
239.9325599206
 21
101.3048506059
 31
0.0
  0
ARC
  5
DA
330
1F
100
AcDbEntity
  8
0
  6
Continuous
 62
     7
370
    15
100
AcDbCircle
 10
246.5837290273
 20
99.7217855251
 30
0.0
 40
0.9987845109570002
100
AcDbArc
 50
5.0699537939
 51
85.0697859757
  0
LINE
  5
DB
330
1F
100
AcDbEntity
  8
0
  6
Continuous
 62
     7
370
    15
100
AcDbLine
 10
248.1680175743
 20
93.0894541128
 30
0.0
 11
247.5786058389
 21
99.8100500655
 31
0.0
  0
ARC
  5
DC
330
1F
100
AcDbEntity
  8
0
  6
Continuous
 62
     7
370
    15
100
AcDbCircle
 10
247.1729287143
 20
93.0036192155
 30
0.0
 40
0.998783995126275
100
AcDbArc
 50
264.9302140244
 51
4.9300462061
  0
LINE
  5
DD
330
1F
100
AcDbEntity
  8
0
  6
Continuous
 62
     7
370
    15
100
AcDbLine
 10
240.3476601704
 20
92.5967186172
 30
0.0
 11
247.0846671335
 21
92.0087426592
 31
0.0
  0
ARC
  5
DE
330
1F
100
AcDbEntity
  8
0
  6
Continuous
 62
     7
370
    15
100
AcDbCircle
 10
240.4334980267
 20
93.5918077397
 30
0.0
 40
0.9987845109571084
100
AcDbArc
 50
185.0699537939
 51
265.0697859757
  0
LINE
  5
DF
330
1F
100
AcDbEntity
  8
0
  6
Continuous
 62
     7
370
    15
100
AcDbLine
 10
238.8492094797
 20
100.224139152
 30
0.0
 11
239.4386212151
 21
93.5035431993
 31
0.0
  0
CIRCLE
  5
E0
330
1F
100
AcDbEntity
  8
0
  6
Continuous
 62
     7
370
    15
100
AcDbCircle
 10
243.510815038
 20
96.6500544904
 30
0.0
 40
3.797338831769301
  0
ARC
  5
E1
330
1F
100
AcDbEntity
  8
0
  6
Continuous
 62
     7
370
    15
100
AcDbCircle
 10
243.508613527
 20
96.744212688
 30
0.0
 40
3.800006813679647
100
AcDbArc
 50
180.1085016547
 51
359.8914983453
  0
SPLINE
  5
E2
330
1F
100
AcDbEntity
  8
0
  6
Continuous
 62
     7
370
    15
100
AcDbSpline
210
0.0
220
0.0
230
1.0
 70
     8
 71
     3
 72
    14
 73
    10
 74
     0
 42
0.00000001
 43
0.00000001
 12
1.0
 22
0.0
 32
0.0
 13
1.0
 23
0.0
 33
0.0
 40
0.0
 40
0.0
 40
0.0
 40
0.0
 40
0.0076078452722369
 40
0.1629874631620849
 40
0.32072206323461
 40
0.4900060525181973
 40
0.6629673458729773
 40
0.8292185822132941
 40
1.0
 40
1.0
 40
1.0
 40
1.0
 10
238.3711673867206
 20
101.8254208093155
 30
0.0
 10
238.3700518370509
 20
101.8265968979245
 30
0.0
 10
238.346152742868
 20
101.8517929543606
 30
0.0
 10
238.2973503851984
 20
101.9028478648119
 30
0.0
 10
238.220132601671
 20
101.9825345260318
 30
0.0
 10
238.1369922779698
 20
102.0671598374032
 30
0.0
 10
238.0508594398458
 20
102.1535287588831
 30
0.0
 10
237.9643943304074
 20
102.2390014209751
 30
0.0
 10
237.9098689482143
 20
102.2917069913574
 30
0.0
 10
237.8822398091316
 20
102.3184139941505
 30
0.0
  0
SPLINE
  5
E3
330
1F
100
AcDbEntity
  8
0
  6
Continuous
 62
     7
370
    15
100
AcDbSpline
210
0.0
220
0.0
230
1.0
 70
     8
 71
     3
 72
    11
 73
     7
 74
     0
 42
0.00000001
 43
0.00000001
 12
1.0
 22
0.0
 32
0.0
 13
1.0
 23
0.0
 33
0.0
 40
0.0
 40
0.0
 40
0.0
 40
0.0
 40
0.0081164391030483
 40
0.3263678516927158
 40
0.662768581347826
 40
1.0
 40
1.0
 40
1.0
 40
1.0
 10
247.9364843259769
 20
101.1107299288637
 30
0.0
 10
247.9376769483337
 20
101.1119872218849
 30
0.0
 10
247.9856331507428
 20
101.1625438782045
 30
0.0
 10
248.0911117949389
 20
101.2718812789901
 30
0.0
 10
248.2625639639919
 20
101.4447509247353
 30
0.0
 10
248.3722363468117
 20
101.5506579714243
 30
0.0
 10
248.4271401594314
 20
101.6036767943679
 30
0.0
  0
LINE
  5
E4
330
1F
100
AcDbEntity
  8
0
  6
Continuous
 62
     7
370
    15
100
AcDbLine
 10
250.0539875894
 20
90.1426708614
 30
0.0
 11
250.0208684071
 21
89.7497349255
 31
0.0
  0
LINE
  5
E5
330
1F
100
AcDbEntity
  8
0
  6
Continuous
 62
     7
370
    15
100
AcDbLine
 10
238.0163925653
 20
91.1932585341
 30
0.0
 11
237.9832733831
 21
90.8003225981
 31
0.0
  0
SPLINE
  5
E6
330
1F
100
AcDbEntity
  8
0
  6
Continuous
 62
     7
370
    15
100
AcDbSpline
210
0.0
220
0.0
230
1.0
 70
     8
 71
     3
 72
    11
 73
     7
 74
     0
 42
0.00000001
 43
0.00000001
 12
1.0
 22
0.0
 32
0.0
 13
1.0
 23
0.0
 33
0.0
 40
0.0
 40
0.0
 40
0.0
 40
0.0
 40
0.3372314186522663
 40
0.6736321483073544
 40
0.9918835608970122
 40
1.0
 40
1.0
 40
1.0
 40
1.0
 10
238.5900868945807
 20
91.79058609686187
 30
0.0
 10
238.6449907072005
 20
91.84710741330149
 30
0.0
 10
238.7546630900206
 20
91.96001081942697
 30
0.0
 10
238.926115259073
 20
92.12921021405609
 30
0.0
 10
239.0315939032706
 20
92.23031622030652
 30
0.0
 10
239.0795501056787
 20
92.27543833101072
 30
0.0
 10
239.0807427280355
 20
92.27656047236695
 30
0.0
  0
SPLINE
  5
E7
330
1F
100
AcDbEntity
  8
0
  6
Continuous
 62
     7
370
    15
100
AcDbSpline
210
0.0
220
0.0
230
1.0
 70
     8
 71
     3
 72
    11
 73
     7
 74
     0
 42
0.00000001
 43
0.00000001
 12
1.0
 22
0.0
 32
0.0
 13
1.0
 23
0.0
 33
0.0
 40
0.0
 40
0.0
 40
0.0
 40
0.0
 40
0.3367831131414843
 40
0.67901113476884
 40
0.9923717339918734
 40
1.0
 40
1.0
 40
1.0
 40
1.0
 10
249.1349872448809
 20
91.09307768559383
 30
0.0
 10
249.0794974070839
 20
91.14984802115595
 30
0.0
 10
248.9676206048915
 20
91.26430652120266
 30
0.0
 10
248.7981727408022
 20
91.43079982357162
 30
0.0
 10
248.6941167680924
 20
91.53034280146434
 30
0.0
 10
248.6471752279659
 20
91.57450806711692
 30
0.0
 10
248.6460596672917
 20
91.57555764992557
 30
0.0
  0
LINE
  5
E8
330
1F
100
AcDbEntity
  8
0
  6
HIDDEN
 62
     7
370
     0
100
AcDbLine
 10
140.4539875894
 20
136.4283411457
 30
0.0
 11
140.4539875894
 21
87.0283411522
 31
0.0
  0
LINE
  5
E9
330
1F
100
AcDbEntity
  8
0
  6
HIDDEN
 62
     7
370
     0
100
AcDbLine
 10
160.4539875894
 20
87.3283411522
 30
0.0
 11
160.4539875894
 21
136.1283411522
 31
0.0
  0
SPLINE
  5
EA
330
1F
100
AcDbEntity
  8
0
  6
HIDDEN
 62
     7
370
     0
100
AcDbSpline
210
0.0
220
0.0
230
1.0
 70
    11
 71
     3
 72
    28
 73
    24
 74
     0
 42
0.00000001
 43
0.00000001
 12
1.0
 22
0.0
 32
0.0
 13
1.0
 23
0.0
 33
0.0
 40
0.0
 40
0.0
 40
0.0
 40
0.0
 40
0.0201595725599027
 40
0.0566448940127176
 40
0.0737314759067902
 40
0.1272992561464796
 40
0.1809741654660225
 40
0.2347203471356778
 40
0.2883496247004221
 40
0.3418562055443795
 40
0.3954257570346327
 40
0.4491454896446316
 40
0.5028686982507867
 40
0.5564436149986002
 40
0.6099499264675301
 40
0.6635731764401588
 40
0.7173178449624739
 40
0.770998687852835
 40
0.8245292458973296
 40
0.8780579484281031
 40
0.9317356517665834
 40
0.9854811639822461
 40
1.0
 40
1.0
 40
1.0
 40
1.0
 10
150.4813514095172
 20
111.4775807579266
 30
0.0
 10
150.467375561601
 20
111.5613628777279
 30
0.0
 10
150.4281058587538
 20
111.7967760682706
 30
0.0
 10
150.5266568078553
 20
112.0971784395665
 30
0.0
 10
150.5745725942718
 20
112.5430800093834
 30
0.0
 10
150.8724902720683
 20
112.9974996875349
 30
0.0
 10
151.3677323297601
 20
113.4556149848142
 30
0.0
 10
152.0042508157086
 20
113.7160938429772
 30
0.0
 10
152.6861601221837
 20
113.7532529824001
 30
0.0
 10
153.3422674224792
 20
113.562669041804
 30
0.0
 10
153.8983550043906
 20
113.1663959285871
 30
0.0
 10
154.2928789793495
 20
112.6077319521151
 30
0.0
 10
154.4802375383453
 20
111.9494862888107
 30
0.0
 10
154.4392245173833
 20
111.267114376982
 30
0.0
 10
154.1754818302919
 20
110.6373377416194
 30
0.0
 10
153.718327821867
 20
110.1296183694786
 30
0.0
 10
153.1181243057222
 20
109.8012145431122
 30
0.0
 10
152.4428092801818
 20
109.6901379662165
 30
0.0
 10
151.7704614925815
 20
109.8084955641214
 30
0.0
 10
151.1726424723107
 20
110.1418927681995
 30
0.0
 10
150.7278259051689
 20
110.6547512165314
 30
0.0
 10
150.5104021796512
 20
111.1329190925611
 30
0.0
 10
150.486446446288
 20
111.4171326579131
 30
0.0
 10
150.4813514095172
 20
111.4775807579266
 30
0.0
  0
SPLINE
  5
EB
330
1F
100
AcDbEntity
  8
0
  6
HIDDEN
 62
     7
370
     0
100
AcDbSpline
210
0.0
220
0.0
230
1.0
 70
     8
 71
     3
 72
    12
 73
     8
 74
     0
 42
0.00000001
 43
0.00000001
 12
1.0
 22
0.0
 32
0.0
 13
1.0
 23
0.0
 33
0.0
 40
0.0
 40
0.0
 40
0.0
 40
0.0
 40
0.2500000000000002
 40
0.2500000000000002
 40
0.5000000000000004
 40
0.5000000000000004
 40
1.0
 40
1.0
 40
1.0
 40
1.0
 10
148.9817444029501
 20
104.1595311829715
 30
0.0
 10
148.9180791664196
 20
104.1595311829715
 30
0.0
 10
148.8584729341963
 20
104.1334590344918
 30
0.0
 10
148.7598124092654
 20
104.0579202836708
 30
0.0
 10
148.7208454192502
 20
104.0106693465745
 30
0.0
 10
148.6214585873257
 20
103.8588455286081
 30
0.0
 10
148.5793823399023
 20
103.746042278843
 30
0.0
 10
148.5487317010579
 20
103.6318881541079
 30
0.0
  0
LINE
  5
EC
330
1F
100
AcDbEntity
  8
0
  6
HIDDEN
 62
     7
370
     0
100
AcDbLine
 10
151.9262307758
 20
104.159531183
 30
0.0
 11
148.981744403
 21
104.159531183
 31
0.0
  0
SPLINE
  5
ED
330
1F
100
AcDbEntity
  8
0
  6
HIDDEN
 62
     7
370
     0
100
AcDbSpline
210
0.0
220
0.0
230
1.0
 70
     8
 71
     3
 72
    12
 73
     8
 74
     0
 42
0.00000001
 43
0.00000001
 12
1.0
 22
0.0
 32
0.0
 13
1.0
 23
0.0
 33
0.0
 40
0.0
 40
0.0
 40
0.0
 40
0.0
 40
0.5000000000000018
 40
0.5000000000000018
 40
0.7500000000000009
 40
0.7500000000000009
 40
1.0
 40
1.0
 40
1.0
 40
1.0
 10
152.3592434777095
 20
103.6318881541079
 30
0.0
 10
152.3285440943422
 20
103.7462238211718
 30
0.0
 10
152.2871940262357
 20
103.8575771740131
 30
0.0
 10
152.1874380980162
 20
104.0103139462619
 30
0.0
 10
152.1477411802835
 20
104.058173832114
 30
0.0
 10
152.0504830286359
 20
104.1327769454635
 30
0.0
 10
151.9897068706452
 20
104.1595311829715
 30
0.0
 10
151.9262307758172
 20
104.1595311829715
 30
0.0
  0
ELLIPSE
  5
EE
330
1F
100
AcDbEntity
  8
0
  6
HIDDEN
 62
     7
370
     0
100
AcDbEllipse
 10
139.3977299344
 20
111.7283411522
 30
0.0
 11
-11.70927234972711
 21
24.67718644093742
 31
0.0
210
0.0
220
0.0
230
1.0
 40
0.3419987131
 41
3.310521928178963
 42
4.221709151398953
  0
SPLINE
  5
EF
330
1F
100
AcDbEntity
  8
0
  6
HIDDEN
 62
     7
370
     0
100
AcDbSpline
210
0.0
220
0.0
230
1.0
 70
     8
 71
     3
 72
    12
 73
     8
 74
     0
 42
0.00000001
 43
0.00000001
 12
1.0
 22
0.0
 32
0.0
 13
1.0
 23
0.0
 33
0.0
 40
0.0
 40
0.0
 40
0.0
 40
0.0
 40
0.25
 40
0.25
 40
0.5
 40
0.5
 40
1.0
 40
1.0
 40
1.0
 40
1.0
 10
151.9262307758172
 20
87.90161003665018
 30
0.0
 10
151.9898960123477
 20
87.9016100366502
 30
0.0
 10
152.0495022445712
 20
87.90987481231606
 30
0.0
 10
152.148162769502
 20
87.9340935938992
 30
0.0
 10
152.1871297595172
 20
87.94935091320835
 30
0.0
 10
152.2865165914417
 20
87.99898426747029
 30
0.0
 10
152.3285928388651
 20
88.03662397564439
 30
0.0
 10
152.3592434777095
 20
88.07569967492053
 30
0.0
  0
LINE
  5
F0
330
1F
100
AcDbEntity
  8
0
  6
HIDDEN
 62
     7
370
     0
100
AcDbLine
 10
148.981744403
 20
87.9016100367
 30
0.0
 11
151.9262307758
 21
87.9016100366
 31
0.0
  0
SPLINE
  5
F1
330
1F
100
AcDbEntity
  8
0
  6
HIDDEN
 62
     7
370
     0
100
AcDbSpline
210
0.0
220
0.0
230
1.0
 70
     8
 71
     3
 72
    12
 73
     8
 74
     0
 42
0.00000001
 43
0.00000001
 12
1.0
 22
0.0
 32
0.0
 13
1.0
 23
0.0
 33
0.0
 40
0.0
 40
0.0
 40
0.0
 40
0.0
 40
0.5000000000000013
 40
0.5000000000000013
 40
0.7500000000000007
 40
0.7500000000000007
 40
1.0
 40
1.0
 40
1.0
 40
1.0
 10
148.5487317010579
 20
88.07569967492053
 30
0.0
 10
148.5794310844252
 20
88.03656183252463
 30
0.0
 10
148.6207811525317
 20
87.99940204979913
 30
0.0
 10
148.7205370807512
 20
87.94946554417137
 30
0.0
 10
148.7602339984839
 20
87.93401267402761
 30
0.0
 10
148.8574921501315
 20
87.91009313042858
 30
0.0
 10
148.9182683081222
 20
87.90161003665017
 30
0.0
 10
148.9817444029501
 20
87.90161003665017
 30
0.0
  0
ELLIPSE
  5
F2
330
1F
100
AcDbEntity
  8
0
  6
HIDDEN
 62
     7
370
     0
100
AcDbEllipse
 10
161.5102452444
 20
111.7283411522
 30
0.0
 11
11.70927234972703
 21
24.67718644093742
 31
0.0
210
0.0
220
0.0
230
1.0
 40
0.3419987131
 41
2.061476155780649
 42
2.972663379000667
  0
SPLINE
  5
F3
330
1F
100
AcDbEntity
  8
0
  6
HIDDEN
 62
     7
370
     0
100
AcDbSpline
210
0.0
220
0.0
230
1.0
 70
     8
 71
     3
 72
    12
 73
     8
 74
     0
 42
0.00000001
 43
0.00000001
 12
1.0
 22
0.0
 32
0.0
 13
1.0
 23
0.0
 33
0.0
 40
0.0
 40
0.0
 40
0.0
 40
0.0
 40
0.2500000000000002
 40
0.2500000000000002
 40
0.5000000000000004
 40
0.5000000000000004
 40
1.0
 40
1.0
 40
1.0
 40
1.0
 10
148.9817444029501
 20
135.5550722676542
 30
0.0
 10
148.9180791664196
 20
135.5550722676542
 30
0.0
 10
148.8584729341963
 20
135.5468074919883
 30
0.0
 10
148.7598124092654
 20
135.5225887104052
 30
0.0
 10
148.7208454192502
 20
135.507331391096
 30
0.0
 10
148.6214585873257
 20
135.4576980368341
 30
0.0
 10
148.5793823399023
 20
135.42005832866
 30
0.0
 10
148.5487317010579
 20
135.3809826293839
 30
0.0
  0
LINE
  5
F4
330
1F
100
AcDbEntity
  8
0
  6
HIDDEN
 62
     7
370
     0
100
AcDbLine
 10
151.9262307758
 20
135.5550722677
 30
0.0
 11
148.981744403
 21
135.5550722677
 31
0.0
  0
SPLINE
  5
F5
330
1F
100
AcDbEntity
  8
0
  6
HIDDEN
 62
     7
370
     0
100
AcDbSpline
210
0.0
220
0.0
230
1.0
 70
     8
 71
     3
 72
    12
 73
     8
 74
     0
 42
0.00000001
 43
0.00000001
 12
1.0
 22
0.0
 32
0.0
 13
1.0
 23
0.0
 33
0.0
 40
0.0
 40
0.0
 40
0.0
 40
0.0
 40
0.4999999999999991
 40
0.4999999999999991
 40
0.7499999999999996
 40
0.7499999999999996
 40
1.0
 40
1.0
 40
1.0
 40
1.0
 10
152.3592434777095
 20
135.3809826293839
 30
0.0
 10
152.3285440943422
 20
135.4201204717798
 30
0.0
 10
152.2871940262357
 20
135.4572802545052
 30
0.0
 10
152.1874380980162
 20
135.507216760133
 30
0.0
 10
152.1477411802835
 20
135.5226696302768
 30
0.0
 10
152.0504830286359
 20
135.5465891738758
 30
0.0
 10
151.9897068706452
 20
135.5550722676542
 30
0.0
 10
151.9262307758172
 20
135.5550722676542
 30
0.0
  0
ELLIPSE
  5
F6
330
1F
100
AcDbEntity
  8
0
  6
HIDDEN
 62
     7
370
     0
100
AcDbEllipse
 10
139.3977299344
 20
111.7283411522
 30
0.0
 11
11.70927234972726
 21
24.67718644093742
 31
0.0
210
0.0
220
0.0
230
1.0
 40
0.3419987131
 41
5.203068809370469
 42
6.114256032590515
  0
SPLINE
  5
F7
330
1F
100
AcDbEntity
  8
0
  6
HIDDEN
 62
     7
370
     0
100
AcDbSpline
210
0.0
220
0.0
230
1.0
 70
     8
 71
     3
 72
    12
 73
     8
 74
     0
 42
0.00000001
 43
0.00000001
 12
1.0
 22
0.0
 32
0.0
 13
1.0
 23
0.0
 33
0.0
 40
0.0
 40
0.0
 40
0.0
 40
0.0
 40
0.2499999999999984
 40
0.2499999999999984
 40
0.4999999999999968
 40
0.4999999999999968
 40
1.0
 40
1.0
 40
1.0
 40
1.0
 10
151.9262307758172
 20
119.297151121333
 30
0.0
 10
151.9898960123477
 20
119.297151121333
 30
0.0
 10
152.0495022445712
 20
119.3232232698128
 30
0.0
 10
152.148162769502
 20
119.3987620206339
 30
0.0
 10
152.1871297595172
 20
119.4460129577301
 30
0.0
 10
152.2865165914417
 20
119.5978367756965
 30
0.0
 10
152.3285928388651
 20
119.7106400254616
 30
0.0
 10
152.3592434777095
 20
119.8247941501967
 30
0.0
  0
LINE
  5
F8
330
1F
100
AcDbEntity
  8
0
  6
HIDDEN
 62
     7
370
     0
100
AcDbLine
 10
148.981744403
 20
119.2971511213
 30
0.0
 11
151.9262307758
 21
119.2971511213
 31
0.0
  0
SPLINE
  5
F9
330
1F
100
AcDbEntity
  8
0
  6
HIDDEN
 62
     7
370
     0
100
AcDbSpline
210
0.0
220
0.0
230
1.0
 70
     8
 71
     3
 72
    12
 73
     8
 74
     0
 42
0.00000001
 43
0.00000001
 12
1.0
 22
0.0
 32
0.0
 13
1.0
 23
0.0
 33
0.0
 40
0.0
 40
0.0
 40
0.0
 40
0.0
 40
0.5000000000000046
 40
0.5000000000000046
 40
0.7500000000000022
 40
0.7500000000000022
 40
1.0
 40
1.0
 40
1.0
 40
1.0
 10
148.5487317010579
 20
119.8247941501967
 30
0.0
 10
148.5794310844252
 20
119.7104584831328
 30
0.0
 10
148.6207811525317
 20
119.5991051302915
 30
0.0
 10
148.7205370807512
 20
119.4463683580427
 30
0.0
 10
148.7602339984839
 20
119.3985084721906
 30
0.0
 10
148.8574921501315
 20
119.3239053588411
 30
0.0
 10
148.9182683081222
 20
119.2971511213331
 30
0.0
 10
148.9817444029501
 20
119.2971511213331
 30
0.0
  0
ELLIPSE
  5
FA
330
1F
100
AcDbEntity
  8
0
  6
HIDDEN
 62
     7
370
     0
100
AcDbEllipse
 10
161.5102452444
 20
111.7283411522
 30
0.0
 11
-11.70927234972711
 21
24.67718644093745
 31
0.0
210
0.0
220
0.0
230
1.0
 40
0.3419987131
 41
0.1689292745891171
 42
1.080116497809132
  0
LINE
  5
FB
330
1F
100
AcDbEntity
  8
0
  6
HIDDEN
 62
     7
370
     0
100
AcDbLine
 10
160.4539875894
 20
91.7283411522
 30
0.0
 11
160.4539875894
 21
131.7283411522
 31
0.0
  0
LINE
  5
FC
330
1F
100
AcDbEntity
  8
0
  6
HIDDEN
 62
     7
370
     0
100
AcDbLine
 10
140.4539875894
 20
92.1783411522
 30
0.0
 11
140.4539875894
 21
131.2580809719
 31
0.0
  0
SPLINE
  5
FD
330
1F
100
AcDbEntity
  8
0
  6
HIDDEN
 62
     7
370
     0
100
AcDbSpline
210
0.0
220
0.0
230
1.0
 70
     8
 71
     3
 72
    14
 73
    10
 74
     0
 42
0.00000001
 43
0.00000001
 12
1.0
 22
0.0
 32
0.0
 13
1.0
 23
0.0
 33
0.0
 40
0.0
 40
0.0
 40
0.0
 40
0.0
 40
0.25
 40
0.25
 40
0.5
 40
0.5
 40
0.75
 40
0.75
 40
1.0
 40
1.0
 40
1.0
 40
1.0
 10
139.4131265612553
 20
124.0228166972255
 30
0.0
 10
139.4448416955861
 20
123.9650335148824
 30
0.0
 10
139.4794562208864
 20
123.9086208538074
 30
0.0
 10
139.5591274163017
 20
123.801021403792
 30
0.0
 10
139.6041832933322
 20
123.749108776871
 30
0.0
 10
139.7147377058376
 20
123.6629101521737
 30
0.0
 10
139.7821231200417
 20
123.628820732202
 30
0.0
 10
139.9327526399398
 20
123.6267183401852
 30
0.0
 10
140.0025798767052
 20
123.6600901130299
 30
0.0
 10
140.0590107005086
 20
123.7039027815806
 30
0.0
  0
SPLINE
  5
FE
330
1F
100
AcDbEntity
  8
0
  6
HIDDEN
 62
     7
370
     0
100
AcDbSpline
210
0.0
220
0.0
230
1.0
 70
     8
 71
     3
 72
    16
 73
    12
 74
     0
 42
0.00000001
 43
0.00000001
 12
1.0
 22
0.0
 32
0.0
 13
1.0
 23
0.0
 33
0.0
 40
0.0
 40
0.0
 40
0.0
 40
0.0
 40
0.0625000000000014
 40
0.0625000000000014
 40
0.1250000000000029
 40
0.1250000000000029
 40
0.25
 40
0.25
 40
0.4999999999999983
 40
0.4999999999999983
 40
1.0
 40
1.0
 40
1.0
 40
1.0
 10
140.0590107004768
 20
123.7039027816112
 30
0.0
 10
140.0707449349237
 20
123.7130131948592
 30
0.0
 10
140.0842766904027
 20
123.7210905508055
 30
0.0
 10
140.1142641508325
 20
123.7293373924825
 30
0.0
 10
140.1292588572408
 20
123.7284100748949
 30
0.0
 10
140.1649992796355
 20
123.7156435553631
 30
0.0
 10
140.1790126166368
 20
123.6979949088528
 30
0.0
 10
140.2131567054181
 20
123.6433419888212
 30
0.0
 10
140.2241286095365
 20
123.6019423211628
 30
0.0
 10
140.2499741498028
 20
123.47345257744
 30
0.0
 10
140.2539875893837
 20
123.3828344898013
 30
0.0
 10
140.2539875893837
 20
123.2906153852472
 30
0.0
  0
LINE
  5
FF
330
1F
100
AcDbEntity
  8
0
  6
HIDDEN
 62
     7
370
     0
100
AcDbLine
 10
140.2539875894
 20
100.1660669191
 30
0.0
 11
140.2539875894
 21
123.2906153852
 31
0.0
  0
SPLINE
  5
100
330
1F
100
AcDbEntity
  8
0
  6
HIDDEN
 62
     7
370
     0
100
AcDbSpline
210
0.0
220
0.0
230
1.0
 70
     8
 71
     3
 72
    16
 73
    12
 74
     0
 42
0.00000001
 43
0.00000001
 12
1.0
 22
0.0
 32
0.0
 13
1.0
 23
0.0
 33
0.0
 40
0.0
 40
0.0
 40
0.0
 40
0.0
 40
0.4999999999999969
 40
0.4999999999999969
 40
0.7499999999999929
 40
0.7499999999999929
 40
0.8749999999999956
 40
0.8749999999999956
 40
0.9374999999999978
 40
0.9374999999999978
 40
1.0
 40
1.0
 40
1.0
 40
1.0
 10
140.2539875893837
 20
100.1660669190571
 30
0.0
 10
140.2539875893837
 20
100.0734830681532
 30
0.0
 10
140.2499302872687
 20
99.98327061229291
 30
0.0
 10
140.2242730444738
 20
99.85532948517452
 30
0.0
 10
140.2129575987317
 20
99.81291627076263
 30
0.0
 10
140.1789262314231
 20
99.75860222731147
 30
0.0
 10
140.1650472502193
 20
99.7410208919216
 30
0.0
 10
140.1291115684519
 20
99.72823720398664
 30
0.0
 10
140.1141612491892
 20
99.72736170583855
 30
0.0
 10
140.0842627364473
 20
99.73560714095791
 30
0.0
 10
140.0707298760821
 20
99.74368080112966
 30
0.0
 10
140.059010700508
 20
99.75277952272377
 30
0.0
  0
SPLINE
  5
101
330
1F
100
AcDbEntity
  8
0
  6
HIDDEN
 62
     7
370
     0
100
AcDbSpline
210
0.0
220
0.0
230
1.0
 70
     8
 71
     3
 72
    14
 73
    10
 74
     0
 42
0.00000001
 43
0.00000001
 12
1.0
 22
0.0
 32
0.0
 13
1.0
 23
0.0
 33
0.0
 40
0.0
 40
0.0
 40
0.0
 40
0.0
 40
0.25
 40
0.25
 40
0.5
 40
0.5
 40
0.75
 40
0.75
 40
1.0
 40
1.0
 40
1.0
 40
1.0
 10
140.0590107005149
 20
99.7527795227323
 30
0.0
 10
140.0025549359061
 20
99.79661155522705
 30
0.0
 10
139.9316893096562
 20
99.82994259164889
 30
0.0
 10
139.7832322284836
 20
99.82788358150147
 30
0.0
 10
139.7140388691761
 20
99.79328755709975
 30
0.0
 10
139.6043234310419
 20
99.7076222004369
 30
0.0
 10
139.5590788517106
 20
99.65559975572889
 30
0.0
 10
139.4794521422868
 20
99.54805149539897
 30
0.0
 10
139.4448419937533
 20
99.49164933266594
 30
0.0
 10
139.4131265612541
 20
99.43386560707646
 30
0.0
  0
SPLINE
  5
102
330
1F
100
AcDbEntity
  8
0
  6
HIDDEN
 62
     7
370
     0
100
AcDbSpline
210
0.0
220
0.0
230
1.0
 70
     8
 71
     3
 72
    10
 73
     6
 74
     0
 42
0.00000001
 43
0.00000001
 12
1.0
 22
0.0
 32
0.0
 13
1.0
 23
0.0
 33
0.0
 40
0.0
 40
0.0
 40
0.0
 40
0.0
 40
0.5
 40
0.5
 40
1.0
 40
1.0
 40
1.0
 40
1.0
 10
139.4131265612546
 20
99.43386560707745
 30
0.0
 10
139.3413467733312
 20
99.30308689017559
 30
0.0
 10
139.2888872590231
 20
99.1689867406724
 30
0.0
 10
139.1995441949219
 20
98.90089417768367
 30
0.0
 10
139.1635485854222
 20
98.76664880609479
 30
0.0
 10
139.1326672458241
 20
98.63329442861975
 30
0.0
  0
SPLINE
  5
103
330
1F
100
AcDbEntity
  8
0
  6
HIDDEN
 62
     7
370
     0
100
AcDbSpline
210
0.0
220
0.0
230
1.0
 70
     8
 71
     3
 72
    10
 73
     6
 74
     0
 42
0.00000001
 43
0.00000001
 12
1.0
 22
0.0
 32
0.0
 13
1.0
 23
0.0
 33
0.0
 40
0.0
 40
0.0
 40
0.0
 40
0.0
 40
0.5
 40
0.5
 40
1.0
 40
1.0
 40
1.0
 40
1.0
 10
139.1326672458241
 20
94.4314312841473
 30
0.0
 10
139.1635402776363
 20
94.41514813678018
 30
0.0
 10
139.1995271405493
 20
94.4028905470546
 30
0.0
 10
139.2888617264404
 20
94.38578755822587
 30
0.0
 10
139.341317585863
 20
94.38098796236751
 30
0.0
 10
139.4131265612553
 20
94.3791838709596
 30
0.0
  0
SPLINE
  5
104
330
1F
100
AcDbEntity
  8
0
  6
HIDDEN
 62
     7
370
     0
100
AcDbSpline
210
0.0
220
0.0
230
1.0
 70
     8
 71
     3
 72
     8
 73
     4
 74
     0
 42
0.00000001
 43
0.00000001
 12
1.0
 22
0.0
 32
0.0
 13
1.0
 23
0.0
 33
0.0
 40
0.0
 40
0.0
 40
0.0
 40
0.0
 40
1.0
 40
1.0
 40
1.0
 40
1.0
 10
140.2362909660087
 20
94.25329949271253
 30
0.0
 10
140.2502777745508
 20
94.22505910213081
 30
0.0
 10
140.2539875893835
 20
94.20192705932006
 30
0.0
 10
140.2539875893838
 20
94.18158668648488
 30
0.0
  0
LINE
  5
105
330
1F
100
AcDbEntity
  8
0
  6
HIDDEN
 62
     7
370
     0
100
AcDbLine
 10
140.2539875894
 20
93.8885208733
 30
0.0
 11
140.2539875894
 21
94.1815866865
 31
0.0
  0
LINE
  5
106
330
1F
100
AcDbEntity
  8
0
  6
HIDDEN
 62
     7
370
     0
100
AcDbLine
 10
140.2539875894
 20
129.2750956178
 30
0.0
 11
140.2539875894
 21
129.568161431
 31
0.0
  0
SPLINE
  5
107
330
1F
100
AcDbEntity
  8
0
  6
HIDDEN
 62
     7
370
     0
100
AcDbSpline
210
0.0
220
0.0
230
1.0
 70
     8
 71
     3
 72
    10
 73
     6
 74
     0
 42
0.00000001
 43
0.00000001
 12
1.0
 22
0.0
 32
0.0
 13
1.0
 23
0.0
 33
0.0
 40
0.0
 40
0.0
 40
0.0
 40
0.0
 40
0.5
 40
0.5
 40
1.0
 40
1.0
 40
1.0
 40
1.0
 10
139.4131265612561
 20
129.0774984333447
 30
0.0
 10
139.3413175858635
 20
129.0756943419368
 30
0.0
 10
139.2888617264408
 20
129.0708947460784
 30
0.0
 10
139.1995271405494
 20
129.0537917572497
 30
0.0
 10
139.1635402776364
 20
129.0415341675241
 30
0.0
 10
139.1326672458241
 20
129.025251020157
 30
0.0
  0
SPLINE
  5
108
330
1F
100
AcDbEntity
  8
0
  6
HIDDEN
 62
     7
370
     0
100
AcDbSpline
210
0.0
220
0.0
230
1.0
 70
     8
 71
     3
 72
    10
 73
     6
 74
     0
 42
0.00000001
 43
0.00000001
 12
1.0
 22
0.0
 32
0.0
 13
1.0
 23
0.0
 33
0.0
 40
0.0
 40
0.0
 40
0.0
 40
0.0
 40
0.5
 40
0.5
 40
1.0
 40
1.0
 40
1.0
 40
1.0
 10
139.1326672458241
 20
124.8233878756845
 30
0.0
 10
139.1635485854222
 20
124.6900334982093
 30
0.0
 10
139.1995441949221
 20
124.5557881266202
 30
0.0
 10
139.2888872590235
 20
124.287695563631
 30
0.0
 10
139.3413467733316
 20
124.1535954141276
 30
0.0
 10
139.4131265612553
 20
124.0228166972255
 30
0.0
  0
LINE
  5
109
330
1F
100
AcDbEntity
  8
0
  6
HIDDEN
 62
     7
370
     0
100
AcDbLine
 10
140.2539875894
 20
94.1815866865
 30
0.0
 11
140.2539875894
 21
105.7438609196
 31
0.0
  0
LINE
  5
10A
330
1F
100
AcDbEntity
  8
0
  6
HIDDEN
 62
     7
370
     0
100
AcDbLine
 10
140.2539875894
 20
117.7128213847
 30
0.0
 11
140.2539875894
 21
129.2750956178
 31
0.0
  0
SPLINE
  5
10B
330
1F
100
AcDbEntity
  8
0
  6
HIDDEN
 62
     7
370
     0
100
AcDbSpline
210
0.0
220
0.0
230
1.0
 70
     8
 71
     3
 72
    66
 73
    62
 74
     0
 42
0.00000001
 43
0.00000001
 12
1.0
 22
0.0
 32
0.0
 13
1.0
 23
0.0
 33
0.0
 40
-0.0312500000000003
 40
-0.0312500000000003
 40
0.0
 40
0.0
 40
0.0312500000000006
 40
0.0312500000000006
 40
0.0625000000000012
 40
0.0625000000000012
 40
0.0937500000000018
 40
0.0937500000000018
 40
0.1250000000000024
 40
0.1250000000000024
 40
0.1562500000000029
 40
0.1562500000000029
 40
0.1875000000000036
 40
0.1875000000000036
 40
0.2187500000000041
 40
0.2187500000000041
 40
0.2500000000000047
 40
0.2500000000000047
 40
0.2812500000000053
 40
0.2812500000000053
 40
0.3125000000000059
 40
0.3125000000000059
 40
0.3437500000000065
 40
0.3437500000000065
 40
0.3750000000000071
 40
0.3750000000000071
 40
0.4062500000000077
 40
0.4062500000000077
 40
0.4375000000000083
 40
0.4375000000000083
 40
0.4687500000000088
 40
0.4687500000000088
 40
0.5000000000000094
 40
0.5000000000000094
 40
0.562500000000008
 40
0.562500000000008
 40
0.5937500000000072
 40
0.5937500000000072
 40
0.6250000000000064
 40
0.6250000000000064
 40
0.6562500000000058
 40
0.6562500000000058
 40
0.687500000000005
 40
0.687500000000005
 40
0.7187500000000042
 40
0.7187500000000042
 40
0.7500000000000034
 40
0.7500000000000034
 40
0.7812500000000028
 40
0.7812500000000028
 40
0.812500000000002
 40
0.812500000000002
 40
0.8437500000000012
 40
0.8437500000000012
 40
0.8750000000000006
 40
0.8750000000000006
 40
0.9374999999999991
 40
0.9374999999999991
 40
0.9687499999999997
 40
0.9687499999999997
 40
1.0
 40
1.0
 40
1.031250000000001
 40
1.031250000000001
 10
210.2885538416624
 20
114.2342439461366
 30
0.0
 10
210.6194213371051
 20
114.2342439461366
 30
0.0
 10
210.7820390848325
 20
114.2505091002109
 30
0.0
 10
211.1018889435676
 20
114.3141001060182
 30
0.0
 10
211.2607974354241
 20
114.3622145385079
 30
0.0
 10
211.5634204847497
 20
114.487295552728
 30
0.0
 10
211.7069105382756
 20
114.563687939533
 30
0.0
 10
211.9784705136257
 20
114.7435634023272
 30
0.0
 10
212.1068480701854
 20
114.8478420151239
 30
0.0
 10
212.3370551866833
 20
115.0747398095463
 30
0.0
 10
212.4404498305954
 20
115.1982053924999
 30
0.0
 10
212.623219797711
 20
115.4653799654557
 30
0.0
 10
212.7007280218865
 20
115.6067576828301
 30
0.0
 10
212.8254955956872
 20
115.8983194245465
 30
0.0
 10
212.8736313754152
 20
116.0506624934254
 30
0.0
 10
212.9379530103074
 20
116.360728370513
 30
0.0
 10
212.9538942911465
 20
116.5159320374099
 30
0.0
 10
212.9540800788073
 20
116.8265892767603
 30
0.0
 10
212.9377920670203
 20
116.983600780796
 30
0.0
 10
212.8739081725912
 20
117.2856922556895
 30
0.0
 10
212.8266437398232
 20
117.4318025815307
 30
0.0
 10
212.7012356289981
 20
117.7143572253742
 30
0.0
 10
212.6230688262384
 20
117.8498564477786
 30
0.0
 10
212.4422611927224
 20
118.0999252284195
 30
0.0
 10
212.3387247153966
 20
118.2162938767501
 30
0.0
 10
212.1058915089566
 20
118.429869360668
 30
0.0
 10
211.9799211741641
 20
118.5241317108318
 30
0.0
 10
211.7094659587212
 20
118.6889920479426
 30
0.0
 10
211.5632047063364
 20
118.760157809835
 30
0.0
 10
211.2607626155386
 20
118.8738348293867
 30
0.0
 10
211.104943134915
 20
118.9166684181563
 30
0.0
 10
210.7840923737147
 20
118.974652886331
 30
0.0
 10
210.6182316181199
 20
118.9894692824618
 30
0.0
 10
210.12840558468
 20
118.9896405099819
 30
0.0
 10
209.7989633286534
 20
118.9305928083182
 30
0.0
 10
209.3475054151166
 20
118.7613242031553
 30
0.0
 10
209.2017860367774
 20
118.6908045184361
 30
0.0
 10
208.9289630018953
 20
118.5248679535398
 30
0.0
 10
208.8032177803502
 20
118.4306370212591
 30
0.0
 10
208.5725518316218
 20
118.219589638728
 30
0.0
 10
208.4669811247192
 20
118.1014818886146
 30
0.0
 10
208.2855957371181
 20
117.8510036846017
 30
0.0
 10
208.2086503372689
 20
117.7179593084788
 30
0.0
 10
208.0826905709959
 20
117.4355498376682
 30
0.0
 10
208.0344784542108
 20
117.2869950584405
 30
0.0
 10
207.9705595055514
 20
116.9860156007964
 30
0.0
 10
207.9541256182022
 20
116.8317179923374
 30
0.0
 10
207.9538512835952
 20
116.5174558265523
 30
0.0
 10
207.9699348895254
 20
116.3620621206932
 30
0.0
 10
208.0333207758784
 20
116.0546968436577
 30
0.0
 10
208.0814467980721
 20
115.901081432802
 30
0.0
 10
208.2066525630417
 20
115.6078030936303
 30
0.0
 10
208.2833132737997
 20
115.4679305751128
 30
0.0
 10
208.4646596724863
 20
115.2019623105217
 30
0.0
 10
208.5698967001273
 20
115.0758935233595
 30
0.0
 10
208.91484125589
 20
114.735474448362
 30
0.0
 10
209.193236783149
 20
114.5501446318324
 30
0.0
 10
209.6441531270249
 20
114.363313250542
 30
0.0
 10
209.8021013083245
 20
114.3150581637007
 30
0.0
 10
210.1251018885415
 20
114.2505116142361
 30
0.0
 10
210.2885538416624
 20
114.2342439461366
 30
0.0
 10
210.6194213371051
 20
114.2342439461366
 30
0.0
  0
CIRCLE
  5
10C
330
1F
100
AcDbEntity
  8
0
  6
HIDDEN
 62
     7
370
     0
100
AcDbCircle
 10
126.4539875894
 20
111.7283411522
 30
0.0
 40
3.050000000000011
  0
SPLINE
  5
10D
330
1F
100
AcDbEntity
  8
0
  6
HIDDEN
 62
     7
370
     0
100
AcDbSpline
210
0.0
220
0.0
230
1.0
 70
     8
 71
     3
 72
    62
 73
    58
 74
     0
 42
0.00000001
 43
0.00000001
 12
1.0
 22
0.0
 32
0.0
 13
1.0
 23
0.0
 33
0.0
 40
-0.0312499999999987
 40
-0.0312499999999987
 40
0.0
 40
0.0
 40
0.0312499999999984
 40
0.0312499999999984
 40
0.0624999999999967
 40
0.0624999999999967
 40
0.1249999999999963
 40
0.1249999999999963
 40
0.1874999999999958
 40
0.1874999999999958
 40
0.2187499999999963
 40
0.2187499999999963
 40
0.2499999999999967
 40
0.2499999999999967
 40
0.2812499999999971
 40
0.2812499999999971
 40
0.3124999999999976
 40
0.3124999999999976
 40
0.3437499999999981
 40
0.3437499999999981
 40
0.3749999999999986
 40
0.3749999999999986
 40
0.4374999999999995
 40
0.4374999999999995
 40
0.4687499999999999
 40
0.4687499999999999
 40
0.5000000000000004
 40
0.5000000000000004
 40
0.5312500000000009
 40
0.5312500000000009
 40
0.5625000000000013
 40
0.5625000000000013
 40
0.5937500000000019
 40
0.5937500000000019
 40
0.6250000000000023
 40
0.6250000000000023
 40
0.6562500000000028
 40
0.6562500000000028
 40
0.6875000000000032
 40
0.6875000000000032
 40
0.7187500000000038
 40
0.7187500000000038
 40
0.7500000000000042
 40
0.7500000000000042
 40
0.7812500000000047
 40
0.7812500000000047
 40
0.8125000000000051
 40
0.8125000000000051
 40
0.8750000000000049
 40
0.8750000000000049
 40
0.9062500000000037
 40
0.9062500000000037
 40
0.9375000000000024
 40
0.9375000000000024
 40
0.9687500000000013
 40
0.9687500000000013
 40
1.0
 40
1.0
 40
1.031249999999998
 40
1.031249999999998
 10
210.3127893654039
 20
108.5893266270974
 30
0.0
 10
210.5951858133636
 20
108.5893266270974
 30
0.0
 10
210.7334636903774
 20
108.6002221316189
 30
0.0
 10
211.0046297615852
 20
108.6428659336377
 30
0.0
 10
211.1388330890447
 20
108.6752055469726
 30
0.0
 10
211.5178962688349
 20
108.8010662077039
 30
0.0
 10
211.7469031905287
 20
108.9254034788401
 30
0.0
 10
212.1279338095314
 20
109.243188850313
 30
0.0
 10
212.283556886453
 20
109.4402609927314
 30
0.0
 10
212.4426273630217
 20
109.7769773120557
 30
0.0
 10
212.4843545081651
 20
109.8986693996548
 30
0.0
 10
212.5396252093071
 20
110.1492346319468
 30
0.0
 10
212.5537051407969
 20
110.2782047305136
 30
0.0
 10
212.5542617071181
 20
110.5438784724566
 30
0.0
 10
212.5402724296975
 20
110.6803965701936
 30
0.0
 10
212.4857909104619
 20
110.947095180114
 30
0.0
 10
212.444940452307
 20
111.0801104685666
 30
0.0
 10
212.3383264854475
 20
111.3380715847821
 30
0.0
 10
212.2735743431745
 20
111.4612050187823
 30
0.0
 10
212.1220158012219
 20
111.6960076884626
 30
0.0
 10
212.034677678049
 20
111.807857496283
 30
0.0
 10
211.7489012570873
 20
112.1127727095258
 30
0.0
 10
211.5193649086215
 20
112.2829181737531
 30
0.0
 10
211.1430467726273
 20
112.4585544786558
 30
0.0
 10
211.0107138642666
 20
112.5047665753574
 30
0.0
 10
210.7366812052757
 20
112.5674847451309
 30
0.0
 10
210.5986560456537
 20
112.5833353069582
 30
0.0
 10
210.3205846644349
 20
112.5841756614608
 30
0.0
 10
210.1788717257645
 20
112.5685565215121
 30
0.0
 10
209.9064494700842
 20
112.5074924600992
 30
0.0
 10
209.7746213255872
 20
112.4624386791066
 30
0.0
 10
209.5192224299826
 20
112.3444813660078
 30
0.0
 10
209.3990564267932
 20
112.2731076656133
 30
0.0
 10
209.1738850142369
 20
112.1089066432221
 30
0.0
 10
209.0677339529026
 20
112.0148629858449
 30
0.0
 10
208.8762866642004
 20
111.8114833952063
 30
0.0
 10
208.7903526502809
 20
111.7019889055033
 30
0.0
 10
208.6379403322409
 20
111.4674717217057
 30
0.0
 10
208.5717568419533
 20
111.3421786859165
 30
0.0
 10
208.4655751434023
 20
111.0872082337249
 30
0.0
 10
208.4245950801865
 20
110.9561984999281
 30
0.0
 10
208.3685149393891
 20
110.6869184000673
 30
0.0
 10
208.3542907639478
 20
110.5516082050142
 30
0.0
 10
208.3536940800763
 20
110.2870005623853
 30
0.0
 10
208.3674626475747
 20
110.1550550767828
 30
0.0
 10
208.4223127145168
 20
109.9028711591225
 30
0.0
 10
208.4628092277933
 20
109.783370095098
 30
0.0
 10
208.6222716989695
 20
109.4428340000494
 30
0.0
 10
208.7769401232837
 20
109.2461053111068
 30
0.0
 10
209.0652481546283
 20
109.0051588459452
 30
0.0
 10
209.1692729699761
 20
108.9348470975647
 30
0.0
 10
209.3936922281549
 20
108.8121795898469
 30
0.0
 10
209.5156230160154
 20
108.7594409192258
 30
0.0
 10
209.7680801674414
 20
108.6754993506605
 30
0.0
 10
209.8989666973585
 20
108.6437742501936
 30
0.0
 10
210.1709076150713
 20
108.6005755190093
 30
0.0
 10
210.3127893654039
 20
108.5893266270974
 30
0.0
 10
210.5951858133636
 20
108.5893266270974
 30
0.0
  0
SPLINE
  5
10E
330
1F
100
AcDbEntity
  8
0
  6
HIDDEN
 62
     7
370
     0
100
AcDbSpline
210
0.0
220
0.0
230
1.0
 70
     8
 71
     3
 72
    74
 73
    70
 74
     0
 42
0.00000001
 43
0.00000001
 12
1.0
 22
0.0
 32
0.0
 13
1.0
 23
0.0
 33
0.0
 40
0.0
 40
0.0
 40
0.0
 40
0.0
 40
0.0156250000000001
 40
0.0156250000000001
 40
0.0312500000000001
 40
0.0312500000000001
 40
0.0625000000000002
 40
0.0625000000000002
 40
0.0937500000000003
 40
0.0937500000000003
 40
0.1250000000000004
 40
0.1250000000000004
 40
0.1875000000000006
 40
0.1875000000000006
 40
0.2187500000000007
 40
0.2187500000000007
 40
0.2500000000000007
 40
0.2500000000000007
 40
0.2812500000000008
 40
0.2812500000000008
 40
0.3125000000000008
 40
0.3125000000000008
 40
0.3437500000000009
 40
0.3437500000000009
 40
0.3750000000000009
 40
0.3750000000000009
 40
0.4062500000000009
 40
0.4062500000000009
 40
0.437500000000001
 40
0.437500000000001
 40
0.4687500000000011
 40
0.4687500000000011
 40
0.5000000000000011
 40
0.5000000000000011
 40
0.5156250000000011
 40
0.5156250000000011
 40
0.5312500000000012
 40
0.5312500000000012
 40
0.5625000000000013
 40
0.5625000000000013
 40
0.5937500000000014
 40
0.5937500000000014
 40
0.6250000000000016
 40
0.6250000000000016
 40
0.6562500000000017
 40
0.6562500000000017
 40
0.6875000000000018
 40
0.6875000000000018
 40
0.7187500000000019
 40
0.7187500000000019
 40
0.7500000000000019
 40
0.7500000000000019
 40
0.781250000000002
 40
0.781250000000002
 40
0.8125000000000021
 40
0.8125000000000021
 40
0.8437500000000021
 40
0.8437500000000021
 40
0.8750000000000021
 40
0.8750000000000021
 40
0.9062500000000021
 40
0.9062500000000021
 40
0.9375000000000021
 40
0.9375000000000021
 40
0.9687500000000022
 40
0.9687500000000022
 40
0.9843750000000012
 40
0.9843750000000012
 40
1.0
 40
1.0
 40
1.0
 40
1.0
 10
211.2310375642792
 20
110.704188743043
 30
0.0
 10
211.3015837544735
 20
110.6715444849935
 30
0.0
 10
211.3712961602209
 20
110.6381996653681
 30
0.0
 10
211.5092639453183
 20
110.5711252661773
 30
0.0
 10
211.5740745241223
 20
110.5390500030108
 30
0.0
 10
211.7562180604672
 20
110.4456497809161
 30
0.0
 10
211.8569683956628
 20
110.3889586993142
 30
0.0
 10
212.0382513192176
 20
110.2681775983422
 30
0.0
 10
212.1164961385903
 20
110.2057031002993
 30
0.0
 10
212.2556219254865
 20
110.069310033141
 30
0.0
 10
212.3162842150547
 20
109.9955839665814
 30
0.0
 10
212.4718545719243
 20
109.7506143577323
 30
0.0
 10
212.5387447933021
 20
109.559185145206
 30
0.0
 10
212.5582509164091
 20
109.2186304830691
 30
0.0
 10
212.5509327119917
 20
109.0990383301692
 30
0.0
 10
212.5033091081945
 20
108.8444439875464
 30
0.0
 10
212.4628998879644
 20
108.7117064352781
 30
0.0
 10
212.3500898117017
 20
108.4466324411042
 30
0.0
 10
212.2757978904092
 20
108.3109369439622
 30
0.0
 10
212.1048252395775
 20
108.0559605111885
 30
0.0
 10
212.0059322615078
 20
107.9329317766264
 30
0.0
 10
211.7975021297379
 20
107.7092402588571
 30
0.0
 10
211.6859415827419
 20
107.6061322804316
 30
0.0
 10
211.4616937759876
 20
107.4227717831274
 30
0.0
 10
211.3486654142784
 20
107.3418693335394
 30
0.0
 10
211.1221523677349
 20
107.1968399613591
 30
0.0
 10
211.0090086261293
 20
107.1331587370337
 30
0.0
 10
210.7914766372645
 20
107.0227402882328
 30
0.0
 10
210.6859410683986
 20
106.9754165194986
 30
0.0
 10
210.484946896847
 20
106.891534672106
 30
0.0
 10
210.3884023002898
 20
106.8550700991852
 30
0.0
 10
210.2232412980219
 20
106.7853071268015
 30
0.0
 10
210.1522376375729
 20
106.7518499438316
 30
0.0
 10
210.1129070695624
 20
106.6865529858943
 30
0.0
 10
210.1123784676712
 20
106.6625706098153
 30
0.0
 10
210.1377942865356
 20
106.6112743314957
 30
0.0
 10
210.1629834657926
 20
106.5847889399252
 30
0.0
 10
210.2601853963208
 20
106.508403601237
 30
0.0
 10
210.3517870191531
 20
106.4618826899499
 30
0.0
 10
210.5479140898649
 20
106.3882360693169
 30
0.0
 10
210.6556539438081
 20
106.3600993677691
 30
0.0
 10
210.8761135707523
 20
106.3262212157681
 30
0.0
 10
210.9893054355544
 20
106.3201598038027
 30
0.0
 10
211.2191825066693
 20
106.333354649974
 30
0.0
 10
211.3372266526873
 20
106.3529809270898
 30
0.0
 10
211.5688884108129
 20
106.4225471459284
 30
0.0
 10
211.6822004701873
 20
106.4719676205209
 30
0.0
 10
211.9016554317588
 20
106.6067587188935
 30
0.0
 10
212.0054678980327
 20
106.6911494320073
 30
0.0
 10
212.1921678503286
 20
106.8935366879819
 30
0.0
 10
212.2756545684763
 20
107.0130187574824
 30
0.0
 10
212.4097323288344
 20
107.2734699750021
 30
0.0
 10
212.462360119425
 20
107.4185275136593
 30
0.0
 10
212.532268502843
 20
107.7161178216426
 30
0.0
 10
212.5506384752608
 20
107.8718004363209
 30
0.0
 10
212.5564840410669
 20
108.1803929162826
 30
0.0
 10
212.5442982050485
 20
108.3345334782601
 30
0.0
 10
212.4944341928619
 20
108.6360027551557
 30
0.0
 10
212.4573420629649
 20
108.781133343674
 30
0.0
 10
212.3620716665817
 20
109.0623199867798
 30
0.0
 10
212.3033323277666
 20
109.1993428260841
 30
0.0
 10
212.1668125662245
 20
109.4596273142672
 30
0.0
 10
212.089542632591
 20
109.582757941283
 30
0.0
 10
211.9120898096877
 20
109.8158767580676
 30
0.0
 10
211.8106617079464
 20
109.9279316732414
 30
0.0
 10
211.632676468217
 20
110.0745101584245
 30
0.0
 10
211.5680156481549
 20
110.1200383029012
 30
0.0
 10
211.4342310005228
 20
110.1959076210694
 30
0.0
 10
211.3638142747746
 20
110.2268442226001
 30
0.0
 10
211.2943311305286
 20
110.2494928712037
 30
0.0
  0
SPLINE
  5
10F
330
1F
100
AcDbEntity
  8
0
  6
HIDDEN
 62
     7
370
     0
100
AcDbSpline
210
0.0
220
0.0
230
1.0
 70
     8
 71
     3
 72
    10
 73
     6
 74
     0
 42
0.00000001
 43
0.00000001
 12
1.0
 22
0.0
 32
0.0
 13
1.0
 23
0.0
 33
0.0
 40
0.0
 40
0.0
 40
0.0
 40
0.0
 40
0.5
 40
0.5
 40
1.0
 40
1.0
 40
1.0
 40
1.0
 10
211.2943311305289
 20
110.2494928712033
 30
0.0
 10
211.2403306525775
 20
110.3419590539561
 30
0.0
 10
211.2031262713097
 20
110.4258018108724
 30
0.0
 10
211.1805751135041
 20
110.5774132963645
 30
0.0
 10
211.196044570244
 20
110.6454531352598
 30
0.0
 10
211.2310375642795
 20
110.7041887430432
 30
0.0
  0
LWPOLYLINE
  5
110
330
1F
100
AcDbEntity
  8
0
  6
HIDDEN
 62
     7
370
     0
100
AcDbPolyline
 90
       23
 70
   128
 43
0.0
 10
210.4539875894
 20
105.7139015411
 10
211.0456259588
 20
105.794802931
 10
211.589333306
 20
106.0309529513
 10
212.0410616955
 20
106.4032201319
 10
212.3642147796
 20
106.8814455996
 10
212.5326126173
 20
107.4268863712
 10
212.5326126173
 20
107.9953540793
 10
212.3642147796
 20
108.540794851
 10
212.0410616955
 20
109.0190203187
 10
211.589333306
 20
109.3912874992
 10
211.0456259588
 20
109.6274375196
 10
210.4539875894
 20
109.7083389095
 10
209.86234922
 20
109.6274375196
 10
209.3186418727
 20
109.3912874992
 10
208.8669134832
 20
109.0190203187
 10
208.5437603991
 20
108.540794851
 10
208.3753625614
 20
107.9953540793
 10
208.3753625614
 20
107.4268863712
 10
208.5437603991
 20
106.8814455996
 10
208.8669134832
 20
106.4032201319
 10
209.3186418727
 20
106.0309529513
 10
209.86234922
 20
105.794802931
 10
210.4539875894
 20
105.7139015411
  0
LINE
  5
111
330
1F
100
AcDbEntity
  8
0
  6
HIDDEN
 62
     7
370
     0
100
AcDbLine
 10
115.482027445
 20
122.5170162867
 30
0.0
 11
115.482027445
 21
100.9396660176
 31
0.0
  0
LINE
  5
112
330
1F
100
AcDbEntity
  8
0
  6
HIDDEN
 62
     7
370
     0
100
AcDbLine
 10
111.482027445
 20
122.8982141332
 30
0.0
 11
111.482027445
 21
100.5584681711
 31
0.0
  0
LINE
  5
113
330
1F
100
AcDbEntity
  8
0
  6
HIDDEN
 62
     7
370
     0
100
AcDbLine
 10
110.4539875894
 20
99.9649290837
 30
0.0
 11
110.4539875894
 21
123.4917532206
 31
0.0
  0
LINE
  5
114
330
1F
100
AcDbEntity
  8
0
  6
HIDDEN
 62
     7
370
     0
100
AcDbLine
 10
120.082027445
 20
122.2283411522
 30
0.0
 11
120.082027445
 21
101.2283411522
 31
0.0
  0
LWPOLYLINE
  5
115
330
1F
100
AcDbEntity
  8
0
  6
HIDDEN
 62
     7
370
     0
100
AcDbPolyline
 90
        9
 70
   128
 43
0.0
 10
211.2310375643
 20
110.704188743
 10
211.2628769878
 20
110.69227273
 10
211.2881173671
 20
110.6669295147
 10
211.3065788294
 20
110.6283397025
 10
211.3181298111
 20
110.5767782995
 10
211.3226879956
 20
110.5126127522
 10
211.3202208994
 20
110.4363003292
 10
211.310746104
 20
110.3483848623
 10
211.2943311305
 20
110.2494928712
  0
LINE
  5
116
330
1F
100
AcDbEntity
  8
0
  6
HIDDEN
 62
     7
370
     0
100
AcDbLine
 10
113.982027445
 20
122.2283411522
 30
0.0
 11
113.982027445
 21
101.2283411522
 31
0.0
  0
LINE
  5
117
330
1F
100
AcDbEntity
  8
0
  6
HIDDEN
 62
     7
370
     0
100
AcDbLine
 10
114.982027445
 20
122.2283411522
 30
0.0
 11
114.982027445
 21
101.2283411522
 31
0.0
  0
SPLINE
  5
118
330
1F
100
AcDbEntity
  8
0
  6
HIDDEN
 62
     7
370
     0
100
AcDbSpline
210
0.0
220
0.0
230
1.0
 70
     8
 71
     3
 72
    66
 73
    62
 74
     0
 42
0.00000001
 43
0.00000001
 12
1.0
 22
0.0
 32
0.0
 13
1.0
 23
0.0
 33
0.0
 40
-0.0312499999999999
 40
-0.0312499999999999
 40
0.0
 40
0.0
 40
0.03125
 40
0.03125
 40
0.0625000000000001
 40
0.0625000000000001
 40
0.0937500000000001
 40
0.0937500000000001
 40
0.1250000000000002
 40
0.1250000000000002
 40
0.1875000000000001
 40
0.1875000000000001
 40
0.21875
 40
0.21875
 40
0.2499999999999999
 40
0.2499999999999999
 40
0.2812499999999999
 40
0.2812499999999999
 40
0.3124999999999998
 40
0.3124999999999998
 40
0.3437499999999997
 40
0.3437499999999997
 40
0.3749999999999997
 40
0.3749999999999997
 40
0.4062499999999996
 40
0.4062499999999996
 40
0.4374999999999994
 40
0.4374999999999994
 40
0.4687499999999993
 40
0.4687499999999993
 40
0.4999999999999992
 40
0.4999999999999992
 40
0.531249999999999
 40
0.531249999999999
 40
0.562499999999999
 40
0.562499999999999
 40
0.5937499999999989
 40
0.5937499999999989
 40
0.624999999999999
 40
0.624999999999999
 40
0.6562499999999991
 40
0.6562499999999991
 40
0.6874999999999991
 40
0.6874999999999991
 40
0.7187499999999992
 40
0.7187499999999992
 40
0.7499999999999992
 40
0.7499999999999992
 40
0.7812499999999993
 40
0.7812499999999993
 40
0.8124999999999996
 40
0.8124999999999996
 40
0.8749999999999997
 40
0.8749999999999997
 40
0.90625
 40
0.90625
 40
0.9375
 40
0.9375
 40
0.9687500000000001
 40
0.9687500000000001
 40
1.0
 40
1.0
 40
1.03125
 40
1.03125
 10
126.2513089424359
 20
114.7783411521521
 30
0.0
 10
126.6566662363315
 20
114.7783411521521
 30
0.0
 10
126.8557261276674
 20
114.7583415925355
 30
0.0
 10
127.2469801122471
 20
114.6801980898354
 30
0.0
 10
127.4412528709947
 20
114.6210369883146
 30
0.0
 10
127.810016297546
 20
114.4676053014203
 30
0.0
 10
127.9847414559243
 20
114.3738784915781
 30
0.0
 10
128.3154187594581
 20
114.1526243891732
 30
0.0
 10
128.4710663034609
 20
114.0246430221786
 30
0.0
 10
128.8905336731296
 20
113.6050879251786
 30
0.0
 10
129.1174218146598
 20
113.2666093664752
 30
0.0
 10
129.3462184380446
 20
112.716730478757
 30
0.0
 10
129.4054106928935
 20
112.5233306330136
 30
0.0
 10
129.484218103154
 20
112.1291024826557
 30
0.0
 10
129.5038575194344
 20
111.9304636552233
 30
0.0
 10
129.504116383856
 20
111.5301633693249
 30
0.0
 10
129.484045699223
 20
111.3268240426038
 30
0.0
 10
129.4057080165931
 20
110.9347325219962
 30
0.0
 10
129.3477582485546
 20
110.744026653681
 30
0.0
 10
129.1938151066747
 20
110.3733028370944
 30
0.0
 10
129.0988764929519
 20
110.1965761772856
 30
0.0
 10
128.8785190770748
 20
109.8673230663613
 30
0.0
 10
128.7512390511465
 20
109.7122018427648
 30
0.0
 10
128.469483459816
 20
109.4305251478344
 30
0.0
 10
128.3166951303585
 20
109.30509196293
 30
0.0
 10
127.9872680482015
 20
109.0843163695759
 30
0.0
 10
127.8087220450498
 20
108.9884851168757
 30
0.0
 10
127.4411497194997
 20
108.8356559863806
 30
0.0
 10
127.2509956927887
 20
108.7774842284364
 30
0.0
 10
126.8574552700862
 20
108.6984909360915
 30
0.0
 10
126.655021198825
 20
108.6784278104493
 30
0.0
 10
126.2555921234597
 20
108.6782550643305
 30
0.0
 10
126.0555731449038
 20
108.6977384384198
 30
0.0
 10
125.6594571974544
 20
108.776730010021
 30
0.0
 10
125.4687243692625
 20
108.835010229873
 30
0.0
 10
125.1010929286828
 20
108.987577850481
 30
0.0
 10
124.9226064965151
 20
109.0831866372543
 30
0.0
 10
124.592401237551
 20
109.3041986823393
 30
0.0
 10
124.4395126594891
 20
109.4296485811095
 30
0.0
 10
124.157916264951
 20
109.7108790701148
 30
0.0
 10
124.0302853420755
 20
109.8662619480287
 30
0.0
 10
123.8099599070757
 20
110.1951128060716
 30
0.0
 10
123.7157334501103
 20
110.3700009124857
 30
0.0
 10
123.5607989295072
 20
110.7421447638464
 30
0.0
 10
123.502786643905
 20
110.9329508056554
 30
0.0
 10
123.4243673896268
 20
111.3238238235741
 30
0.0
 10
123.4040533096603
 20
111.5262813849564
 30
0.0
 10
123.4039221933563
 20
111.9284119898758
 30
0.0
 10
123.4235468867157
 20
112.127136035051
 30
0.0
 10
123.5017133371293
 20
112.5199755061876
 30
0.0
 10
123.5610007824692
 20
112.7146197835902
 30
0.0
 10
123.7900816255521
 20
113.2660595370044
 30
0.0
 10
124.0169124764463
 20
113.6043991027036
 30
0.0
 10
124.436251177767
 20
114.0240647653551
 30
0.0
 10
124.5916041735169
 20
114.1519107711284
 30
0.0
 10
124.9225720066541
 20
114.3735118458302
 30
0.0
 10
125.0971333068505
 20
114.4671525798071
 30
0.0
 10
125.4647066144253
 20
114.6203067005063
 30
0.0
 10
125.6593934760634
 20
114.6798104461524
 30
0.0
 10
126.0518694259998
 20
114.7583331952154
 30
0.0
 10
126.2513089424359
 20
114.7783411521521
 30
0.0
 10
126.6566662363315
 20
114.7783411521521
 30
0.0
  0
SPLINE
  5
119
330
1F
100
AcDbEntity
  8
0
  6
HIDDEN
 62
     7
370
     0
100
AcDbSpline
210
0.0
220
0.0
230
1.0
 70
     8
 71
     3
 72
    66
 73
    62
 74
     0
 42
0.00000001
 43
0.00000001
 12
1.0
 22
0.0
 32
0.0
 13
1.0
 23
0.0
 33
0.0
 40
-0.0312500000000001
 40
-0.0312500000000001
 40
0.0
 40
0.0
 40
0.0312499999999999
 40
0.0312499999999999
 40
0.0624999999999998
 40
0.0624999999999998
 40
0.0937499999999996
 40
0.0937499999999996
 40
0.1249999999999995
 40
0.1249999999999995
 40
0.1874999999999993
 40
0.1874999999999993
 40
0.2187499999999991
 40
0.2187499999999991
 40
0.249999999999999
 40
0.249999999999999
 40
0.2812499999999989
 40
0.2812499999999989
 40
0.3124999999999988
 40
0.3124999999999988
 40
0.3437499999999987
 40
0.3437499999999987
 40
0.3749999999999986
 40
0.3749999999999986
 40
0.4062499999999984
 40
0.4062499999999984
 40
0.4374999999999986
 40
0.4374999999999986
 40
0.4687499999999987
 40
0.4687499999999987
 40
0.4999999999999988
 40
0.4999999999999988
 40
0.5312499999999989
 40
0.5312499999999989
 40
0.562499999999999
 40
0.562499999999999
 40
0.5937499999999991
 40
0.5937499999999991
 40
0.6249999999999992
 40
0.6249999999999992
 40
0.6562499999999993
 40
0.6562499999999993
 40
0.6874999999999994
 40
0.6874999999999994
 40
0.7187499999999996
 40
0.7187499999999996
 40
0.7499999999999996
 40
0.7499999999999996
 40
0.7812499999999997
 40
0.7812499999999997
 40
0.8124999999999998
 40
0.8124999999999998
 40
0.8749999999999999
 40
0.8749999999999999
 40
0.9062499999999999
 40
0.9062499999999999
 40
0.9374999999999999
 40
0.9374999999999999
 40
0.9687499999999999
 40
0.9687499999999999
 40
1.0
 40
1.0
 40
1.03125
 40
1.03125
 10
126.6566662363315
 20
114.7783411521521
 30
0.0
 10
126.2513089424359
 20
114.7783411521521
 30
0.0
 10
126.0522490511
 20
114.7583415925355
 30
0.0
 10
125.6609950665203
 20
114.6801980898354
 30
0.0
 10
125.4667223077727
 20
114.6210369883146
 30
0.0
 10
125.0979588812214
 20
114.4676053014203
 30
0.0
 10
124.9232337228431
 20
114.3738784915781
 30
0.0
 10
124.5925564193093
 20
114.1526243891732
 30
0.0
 10
124.4369088753065
 20
114.0246430221786
 30
0.0
 10
124.0174415056378
 20
113.6050879251786
 30
0.0
 10
123.7905533641076
 20
113.2666093664752
 30
0.0
 10
123.5617567407228
 20
112.716730478757
 30
0.0
 10
123.5025644858739
 20
112.5233306330136
 30
0.0
 10
123.4237570756134
 20
112.1291024826557
 30
0.0
 10
123.404117659333
 20
111.9304636552233
 30
0.0
 10
123.4038587949114
 20
111.5301633693249
 30
0.0
 10
123.4239294795444
 20
111.3268240426038
 30
0.0
 10
123.5022671621743
 20
110.9347325219962
 30
0.0
 10
123.5602169302128
 20
110.744026653681
 30
0.0
 10
123.7141600720928
 20
110.3733028370944
 30
0.0
 10
123.8090986858154
 20
110.1965761772856
 30
0.0
 10
124.0294561016926
 20
109.8673230663613
 30
0.0
 10
124.1567361276209
 20
109.7122018427648
 30
0.0
 10
124.4384917189514
 20
109.4305251478344
 30
0.0
 10
124.5912800484089
 20
109.30509196293
 30
0.0
 10
124.9207071305658
 20
109.0843163695759
 30
0.0
 10
125.0992531337176
 20
108.9884851168757
 30
0.0
 10
125.4668254592677
 20
108.8356559863806
 30
0.0
 10
125.6569794859787
 20
108.7774842284364
 30
0.0
 10
126.0505199086812
 20
108.6984909360915
 30
0.0
 10
126.2529539799423
 20
108.6784278104493
 30
0.0
 10
126.6523830553077
 20
108.6782550643305
 30
0.0
 10
126.8524020338636
 20
108.6977384384198
 30
0.0
 10
127.248517981313
 20
108.776730010021
 30
0.0
 10
127.4392508095049
 20
108.835010229873
 30
0.0
 10
127.8068822500846
 20
108.987577850481
 30
0.0
 10
127.9853686822524
 20
109.0831866372543
 30
0.0
 10
128.3155739412164
 20
109.3041986823393
 30
0.0
 10
128.4684625192783
 20
109.4296485811095
 30
0.0
 10
128.7500589138164
 20
109.7108790701148
 30
0.0
 10
128.8776898366919
 20
109.8662619480287
 30
0.0
 10
129.0980152716917
 20
110.1951128060716
 30
0.0
 10
129.1922417286571
 20
110.3700009124857
 30
0.0
 10
129.3471762492602
 20
110.7421447638464
 30
0.0
 10
129.4051885348624
 20
110.9329508056554
 30
0.0
 10
129.4836077891406
 20
111.3238238235741
 30
0.0
 10
129.5039218691071
 20
111.5262813849564
 30
0.0
 10
129.5040529854111
 20
111.9284119898758
 30
0.0
 10
129.4844282920517
 20
112.127136035051
 30
0.0
 10
129.4062618416381
 20
112.5199755061876
 30
0.0
 10
129.3469743962982
 20
112.7146197835902
 30
0.0
 10
129.1178935532153
 20
113.2660595370044
 30
0.0
 10
128.8910627023211
 20
113.6043991027036
 30
0.0
 10
128.4717240010004
 20
114.0240647653551
 30
0.0
 10
128.3163710052505
 20
114.1519107711284
 30
0.0
 10
127.9854031721133
 20
114.3735118458302
 30
0.0
 10
127.8108418719169
 20
114.4671525798071
 30
0.0
 10
127.4432685643421
 20
114.6203067005063
 30
0.0
 10
127.248581702704
 20
114.6798104461524
 30
0.0
 10
126.8561057527676
 20
114.7583331952154
 30
0.0
 10
126.6566662363315
 20
114.7783411521521
 30
0.0
 10
126.2513089424359
 20
114.7783411521521
 30
0.0
  0
LINE
  5
11A
330
1F
100
AcDbEntity
  8
0
  6
HIDDEN
 62
     7
370
     0
100
AcDbLine
 10
130.4539875894
 20
121.7283411521
 30
0.0
 11
130.4539875894
 21
101.7283411522
 31
0.0
  0
LINE
  5
11B
330
1F
100
AcDbEntity
  8
0
  6
HIDDEN
 62
     7
370
     0
100
AcDbLine
 10
131.4539875894
 20
118.9783411522
 30
0.0
 11
131.4539875894
 21
104.4783411522
 31
0.0
  0
LINE
  5
11C
330
1F
100
AcDbEntity
  8
0
  6
HIDDEN
 62
     7
370
     0
100
AcDbLine
 10
130.4539875894
 20
103.4783411522
 30
0.0
 11
130.4539875894
 21
119.9582445668
 31
0.0
  0
LINE
  5
11D
330
1F
100
AcDbEntity
  8
0
  6
HIDDEN
 62
     7
370
     0
100
AcDbLine
 10
155.4539875894
 20
118.9783411522
 30
0.0
 11
155.4539875894
 21
104.4783411522
 31
0.0
  0
LINE
  5
11E
330
1F
100
AcDbEntity
  8
0
  6
HIDDEN
 62
     7
370
     0
100
AcDbLine
 10
157.2565694465
 20
115.9783411522
 30
0.0
 11
157.2565694465
 21
107.4783411522
 31
0.0
  0
SPLINE
  5
11F
330
1F
100
AcDbEntity
  8
0
  6
HIDDEN
 62
     7
370
     0
100
AcDbSpline
210
0.0
220
0.0
230
1.0
 70
     8
 71
     3
 72
    62
 73
    58
 74
     0
 42
0.00000001
 43
0.00000001
 12
1.0
 22
0.0
 32
0.0
 13
1.0
 23
0.0
 33
0.0
 40
-0.0312500000000004
 40
-0.0312500000000004
 40
0.0
 40
0.0
 40
0.0312499999999974
 40
0.0312499999999974
 40
0.0624999999999948
 40
0.0624999999999948
 40
0.1249999999999924
 40
0.1249999999999924
 40
0.18749999999999
 40
0.18749999999999
 40
0.2187499999999895
 40
0.2187499999999895
 40
0.2499999999999888
 40
0.2499999999999888
 40
0.2812499999999882
 40
0.2812499999999882
 40
0.3124999999999876
 40
0.3124999999999876
 40
0.343749999999987
 40
0.343749999999987
 40
0.3749999999999864
 40
0.3749999999999864
 40
0.4374999999999853
 40
0.4374999999999853
 40
0.4687499999999862
 40
0.4687499999999862
 40
0.499999999999987
 40
0.499999999999987
 40
0.5312499999999879
 40
0.5312499999999879
 40
0.5624999999999887
 40
0.5624999999999887
 40
0.5937499999999896
 40
0.5937499999999896
 40
0.6249999999999903
 40
0.6249999999999903
 40
0.6562499999999912
 40
0.6562499999999912
 40
0.687499999999992
 40
0.687499999999992
 40
0.7187499999999929
 40
0.7187499999999929
 40
0.7499999999999937
 40
0.7499999999999937
 40
0.7812499999999946
 40
0.7812499999999946
 40
0.8124999999999954
 40
0.8124999999999954
 40
0.8749999999999984
 40
0.8749999999999984
 40
0.9062499999999988
 40
0.9062499999999988
 40
0.9374999999999992
 40
0.9374999999999992
 40
0.9687499999999996
 40
0.9687499999999996
 40
1.0
 40
1.0
 40
1.031249999999997
 40
1.031249999999997
 10
210.5951858133636
 20
110.8729183087672
 30
0.0
 10
210.3127893654038
 20
110.8729183087672
 30
0.0
 10
210.1745114883901
 20
110.888822370785
 30
0.0
 10
209.9033454171822
 20
110.9501742289819
 30
0.0
 10
209.7691420897227
 20
110.9964380418139
 30
0.0
 10
209.3900789099326
 20
111.1725357092733
 30
0.0
 10
209.1610719882387
 20
111.3422935622782
 30
0.0
 10
208.780041369236
 20
111.7478159597436
 30
0.0
 10
208.6244182923144
 20
111.987805751754
 30
0.0
 10
208.4653478157457
 20
112.3701423237917
 30
0.0
 10
208.4236206706023
 20
112.5042751112463
 30
0.0
 10
208.3683499694603
 20
112.7714619818362
 30
0.0
 10
208.3542700379705
 20
112.9047629282557
 30
0.0
 10
208.3537134716493
 20
113.1706066350021
 30
0.0
 10
208.3677027490699
 20
113.3028217847139
 30
0.0
 10
208.4221842683056
 20
113.5531297589895
 30
0.0
 10
208.4630347264605
 20
113.6739516710619
 30
0.0
 10
208.5696486933199
 20
113.90131153059
 30
0.0
 10
208.6344008355929
 20
114.006327178526
 30
0.0
 10
208.7859593775455
 20
114.2011520035049
 30
0.0
 10
208.8732975007185
 20
114.2910369574467
 30
0.0
 10
209.1590739216801
 20
114.5300722094298
 30
0.0
 10
209.3886102701459
 20
114.6547121109432
 30
0.0
 10
209.7649284061401
 20
114.7802817832387
 30
0.0
 10
209.8972613145008
 20
114.8126009745054
 30
0.0
 10
210.1712939734917
 20
114.8562041597302
 30
0.0
 10
210.3093191331138
 20
114.8670606368359
 30
0.0
 10
210.5873905143325
 20
114.8676390019263
 30
0.0
 10
210.7291034530029
 20
114.8569405468439
 30
0.0
 10
211.0015257086832
 20
114.8145042860557
 30
0.0
 10
211.1333538531803
 20
114.7830286600376
 30
0.0
 10
211.3887527487849
 20
114.6987545761666
 30
0.0
 10
211.5089187519742
 20
114.6470223862924
 30
0.0
 10
211.7340901645305
 20
114.5247506525035
 30
0.0
 10
211.8402412258648
 20
114.4532640552766
 30
0.0
 10
212.0316885145671
 20
114.2939303685566
 30
0.0
 10
212.1176225284865
 20
114.2060127608698
 30
0.0
 10
212.2700348465266
 20
114.0116237962738
 30
0.0
 10
212.3362183368141
 20
113.9048281889351
 30
0.0
 10
212.4424000353651
 20
113.680306235595
 30
0.0
 10
212.483380098581
 20
113.5615129757579
 30
0.0
 10
212.5394602393783
 20
113.3090943746598
 30
0.0
 10
212.5536844148196
 20
113.1781600734577
 30
0.0
 10
212.5542810986911
 20
112.9137346467277
 30
0.0
 10
212.5405125311927
 20
112.7775526961371
 30
0.0
 10
212.4856624642506
 20
112.5088669247385
 30
0.0
 10
212.4451659509741
 20
112.3772783666969
 30
0.0
 10
212.2857034797979
 20
111.9909649745571
 30
0.0
 10
212.1310350554839
 20
111.7514829052222
 30
0.0
 10
211.8427270241392
 20
111.4440955630516
 30
0.0
 10
211.7387022087913
 20
111.3516328408735
 30
0.0
 10
211.5142829506125
 20
111.1870138647508
 30
0.0
 10
211.3923521627521
 20
111.1142906227093
 30
0.0
 10
211.139895011326
 20
110.9968542340035
 30
0.0
 10
211.0090084814089
 20
110.9514750129187
 30
0.0
 10
210.7370675636961
 20
110.8893366336382
 30
0.0
 10
210.5951858133636
 20
110.8729183087672
 30
0.0
 10
210.3127893654038
 20
110.8729183087672
 30
0.0
  0
LINE
  5
120
330
1F
100
AcDbEntity
  8
0
  6
HIDDEN
 62
     7
370
     0
100
AcDbLine
 10
213.4539875894
 20
107.4783411522
 30
0.0
 11
213.4539875894
 21
115.9783411522
 31
0.0
  0
LINE
  5
121
330
1F
100
AcDbEntity
  8
0
  6
HIDDEN
 62
     7
370
     0
100
AcDbLine
 10
249.0685616301
 20
102.5289031073
 30
0.0
 11
249.0698505848
 21
102.5142061761
 31
0.0
  0
LINE
  5
122
330
1F
100
AcDbEntity
  8
0
  6
HIDDEN
 62
     7
370
     0
100
AcDbLine
 10
249.0698505848
 20
102.5142061761
 30
0.0
 11
239.6592213759
 21
103.3355239742
 31
0.0
  0
LINE
  5
123
330
1F
100
AcDbEntity
  8
0
  6
HIDDEN
 62
     7
370
     0
100
AcDbLine
 10
236.7938807279
 20
100.5389847072
 30
0.0
 11
236.8345554573
 21
100.5177387998
 31
0.0
  0
LINE
  5
124
330
1F
100
AcDbEntity
  8
0
  6
HIDDEN
 62
     7
370
     0
100
AcDbLine
 10
236.8345554573
 20
100.5177387998
 30
0.0
 11
237.6514061909
 21
91.203835793
 31
0.0
  0
ELLIPSE
  5
125
330
1F
100
AcDbEntity
  8
0
  6
HIDDEN
 62
     7
370
     0
100
AcDbEllipse
 10
243.3043735978
 20
111.7283411522
 30
0.0
 11
-11.76369068746814
 21
16.4812471237079
 31
0.0
210
0.0
220
0.0
230
1.0
 40
0.0668534593
 41
6.235504004580386
 42
7.806300331375068
  0
LINE
  5
126
330
1F
100
AcDbEntity
  8
0
  6
HIDDEN
 62
     7
370
     0
100
AcDbLine
 10
224.9539875894
 20
111.7283411522
 30
0.0
 11
224.9539875894
 21
128.2283411522
 31
0.0
  0
SPLINE
  5
127
330
1F
100
AcDbEntity
  8
0
  6
HIDDEN
 62
     7
370
     0
100
AcDbSpline
210
0.0
220
0.0
230
1.0
 70
     8
 71
     3
 72
    20
 73
    16
 74
     0
 42
0.00000001
 43
0.00000001
 12
1.0
 22
0.0
 32
0.0
 13
1.0
 23
0.0
 33
0.0
 40
0.0
 40
0.0
 40
0.0
 40
0.0
 40
0.2500000000000001
 40
0.2500000000000001
 40
0.375
 40
0.375
 40
0.5
 40
0.5
 40
0.6249999999999999
 40
0.6249999999999999
 40
0.7499999999999999
 40
0.7499999999999999
 40
0.875
 40
0.875
 40
1.0
 40
1.0
 40
1.0
 40
1.0
 10
226.7762965411863
 20
103.7623506095198
 30
0.0
 10
226.8706081420241
 20
102.1180519893693
 30
0.0
 10
226.97584420007
 20
100.5995700699316
 30
0.0
 10
227.1482909161459
 20
98.51009971382112
 30
0.0
 10
227.2072041388399
 20
97.85802915518416
 30
0.0
 10
227.3267484993966
 20
96.64643147757826
 30
0.0
 10
227.3874827217923
 20
96.08567860048637
 30
0.0
 10
227.5104396794219
 20
95.05568722272437
 30
0.0
 10
227.573041006729
 20
94.58448985800979
 30
0.0
 10
227.695648336158
 20
93.76303667303769
 30
0.0
 10
227.7560222599808
 20
93.40909744442894
 30
0.0
 10
227.8745096260209
 20
92.813769901645
 30
0.0
 10
227.9327254028179
 20
92.57204005172484
 30
0.0
 10
228.0460127727097
 20
92.20810308869687
 30
0.0
 10
228.1000517983219
 20
92.08901971723508
 30
0.0
 10
228.151427493196
 20
92.03139656073559
 30
0.0
  0
SPLINE
  5
128
330
1F
100
AcDbEntity
  8
0
  6
HIDDEN
 62
     7
370
     0
100
AcDbSpline
210
0.0
220
0.0
230
1.0
 70
     8
 71
     3
 72
    14
 73
    10
 74
     0
 42
0.00000001
 43
0.00000001
 12
1.0
 22
0.0
 32
0.0
 13
1.0
 23
0.0
 33
0.0
 40
0.0
 40
0.0
 40
0.0
 40
0.0
 40
0.2500000000000001
 40
0.2500000000000001
 40
0.5000000000000002
 40
0.5000000000000002
 40
0.7500000000000001
 40
0.7500000000000001
 40
1.0
 40
1.0
 40
1.0
 40
1.0
 10
226.7762965411863
 20
103.7623506095198
 30
0.0
 10
226.5049327491124
 20
104.3865054098679
 30
0.0
 10
226.254636595773
 20
105.0213568900331
 30
0.0
 10
225.8076166966623
 20
106.3182601881897
 30
0.0
 10
225.6108051027868
 20
106.9817987653362
 30
0.0
 10
225.2893401049451
 20
108.3221157096948
 30
0.0
 10
225.1639629923116
 20
109.0027356712087
 30
0.0
 10
224.9966061798279
 20
110.3631023085043
 30
0.0
 10
224.9539875893837
 20
111.0448894009761
 30
0.0
 10
224.9539875893837
 20
111.7283411521521
 30
0.0
  0
ELLIPSE
  5
129
330
1F
100
AcDbEntity
  8
0
  6
HIDDEN
 62
     7
370
     0
100
AcDbEllipse
 10
237.7882866153
 20
103.0165281361
 30
0.0
 11
1.616902374425223
 21
2.318196838028328
 31
0.0
210
0.0
220
0.0
230
1.0
 40
0.57803977
 41
3.548934393834067
 42
3.686857627939805
  0
ELLIPSE
  5
12A
330
1F
100
AcDbEntity
  8
0
  6
HIDDEN
 62
     7
370
     0
100
AcDbEllipse
 10
237.7882866153
 20
103.0165281361
 30
0.0
 11
2.099281448397704
 21
-0.1276543563555492
 31
0.0
210
0.0
220
0.0
230
1.0
 40
0.4303093993
 41
0.35966386043849
 42
0.4975870945442148
  0
LINE
  5
12B
330
1F
100
AcDbEntity
  8
0
  6
HIDDEN
 62
     7
370
     0
100
AcDbLine
 10
239.7725793748
 20
103.2149811144
 30
0.0
 11
239.7725793748
 21
103.3810015219
 31
0.0
  0
ARC
  5
12C
330
1F
100
AcDbEntity
  8
0
  6
HIDDEN
 62
     7
370
     0
100
AcDbCircle
 10
237.7898642181
 20
102.6968113853
 30
0.0
 40
2.097445001810051
100
AcDbArc
 50
250.8218643824
 51
19.038395848
  0
LINE
  5
12D
330
1F
100
AcDbEntity
  8
0
  6
HIDDEN
 62
     7
370
     0
100
AcDbLine
 10
237.1008404393
 20
100.7157708082
 30
0.0
 11
237.1008404393
 21
100.5497504007
 31
0.0
  0
ARC
  5
12E
330
1F
100
AcDbEntity
  8
0
  6
HIDDEN
 62
     7
370
     0
100
AcDbCircle
 10
237.7853773097
 20
102.7213185979
 30
0.0
 40
2.097257990083354
100
AcDbArc
 50
270.079480439
 51
184.6435566761
  0
LWPOLYLINE
  5
12F
330
1F
100
AcDbEntity
  8
0
  6
HIDDEN
 62
     7
370
     0
100
AcDbPolyline
 90
        3
 70
   128
 43
0.0
 10
236.7630351533
 20
100.8906924048
 10
237.196648246
 20
100.7089201677
 10
237.7882866153
 20
100.6240626257
  0
LINE
  5
130
330
1F
100
AcDbEntity
  8
0
  6
HIDDEN
 62
     7
370
     0
100
AcDbLine
 10
246.8999928578
 20
104.313385317
 30
0.0
 11
248.9518086891
 21
103.8601445743
 31
0.0
  0
LINE
  5
131
330
1F
100
AcDbEntity
  8
0
  6
HIDDEN
 62
     7
370
     0
100
AcDbLine
 10
248.8341079506
 20
102.4241312645
 30
0.0
 11
239.7725793748
 21
103.2149811144
 31
0.0
  0
LINE
  5
132
330
1F
100
AcDbEntity
  8
0
  6
HIDDEN
 62
     7
370
     0
100
AcDbLine
 10
248.8341079506
 20
102.4241312645
 30
0.0
 11
249.0698505848
 21
102.5142061761
 31
0.0
  0
LINE
  5
133
330
1F
100
AcDbEntity
  8
0
  6
HIDDEN
 62
     7
370
     0
100
AcDbLine
 10
237.1008404393
 20
100.5497504007
 30
0.0
 11
237.9008260102
 21
91.4281475084
 31
0.0
  0
ELLIPSE
  5
134
330
1F
100
AcDbEntity
  8
0
  6
HIDDEN
 62
     7
370
     0
100
AcDbEllipse
 10
235.9877978749
 20
110.384037179
 30
0.0
 11
-1.563905465413569
 21
19.20496181771458
 31
0.0
210
0.0
220
0.0
230
1.0
 40
0.1268365588
 41
3.183087968823044
 42
3.292820353496238
  0
LINE
  5
135
330
1F
100
AcDbEntity
  8
0
  6
HIDDEN
 62
     7
370
     0
100
AcDbLine
 10
248.5385017868
 20
102.6159508612
 30
0.0
 11
248.8341079506
 21
102.4241312645
 31
0.0
  0
LINE
  5
136
330
1F
100
AcDbEntity
  8
0
  6
HIDDEN
 62
     7
370
     0
100
AcDbLine
 10
237.1008404393
 20
100.7157708082
 30
0.0
 11
237.8653720705
 21
91.9984211562
 31
0.0
  0
ELLIPSE
  5
137
330
1F
100
AcDbEntity
  8
0
  6
HIDDEN
 62
     7
370
     0
100
AcDbEllipse
 10
236.2283392112
 20
110.3629925389
 30
0.0
 11
-1.677499657206852
 21
19.2193285120198
 31
0.0
210
0.0
220
0.0
230
1.0
 40
0.0059876405
 41
3.313341589854337
 42
3.44042795846092
  0
LWPOLYLINE
  5
138
330
1F
100
AcDbEntity
  8
0
  6
HIDDEN
 62
     7
370
     0
100
AcDbPolyline
 90
       23
 70
   128
 43
0.0
 10
210.4539875894
 20
112.8212924117
 10
211.0456259588
 20
112.9021938016
 10
211.589333306
 20
113.138343822
 10
212.0410616955
 20
113.5106110025
 10
212.3642147796
 20
113.9888364702
 10
212.5326126173
 20
114.5342772419
 10
212.5326126173
 20
115.1027449499
 10
212.3642147796
 20
115.6481857216
 10
212.0410616955
 20
116.1264111893
 10
211.589333306
 20
116.4986783698
 10
211.0456259588
 20
116.7348283902
 10
210.4539875894
 20
116.8157297801
 10
209.86234922
 20
116.7348283902
 10
209.3186418727
 20
116.4986783698
 10
208.8669134832
 20
116.1264111893
 10
208.5437603991
 20
115.6481857216
 10
208.3753625614
 20
115.1027449499
 10
208.3753625614
 20
114.5342772419
 10
208.5437603991
 20
113.9888364702
 10
208.8669134832
 20
113.5106110025
 10
209.3186418727
 20
113.138343822
 10
209.86234922
 20
112.9021938016
 10
210.4539875894
 20
112.8212924117
  0
LINE
  5
139
330
1F
100
AcDbEntity
  8
0
  6
HIDDEN
 62
     7
370
     0
100
AcDbLine
 10
249.0093797335
 20
91.0442969453
 30
0.0
 11
249.5085488847
 21
91.5552697689
 31
0.0
  0
CIRCLE
  5
13A
330
1F
100
AcDbEntity
  8
0
  6
HIDDEN
 62
     7
370
     0
100
AcDbCircle
 10
243.4525191511
 20
97.0487840365
 30
0.0
 40
2.997769779958655
  0
LINE
  5
13B
330
1F
100
AcDbEntity
  8
0
  6
HIDDEN
 62
     7
370
     0
100
AcDbLine
 10
248.5385017868
 20
102.6159508612
 30
0.0
 11
239.7725793748
 21
103.3810015219
 31
0.0
  0
ELLIPSE
  5
13C
330
1F
100
AcDbEntity
  8
0
  6
HIDDEN
 62
     7
370
     0
100
AcDbEllipse
 10
-471.3308646888
 20
172.2664016536
 30
0.0
 11
3113.331223476239
 21
-271.0557416021187
 31
0.0
210
0.0
220
0.0
230
1.0
 40
0.0060650906
 41
4.942727870743414
 42
4.946405554949567
  0
LINE
  5
13D
330
1F
100
AcDbEntity
  8
0
  6
HIDDEN
 62
     7
370
     0
100
AcDbLine
 10
249.5085490073
 20
91.5552694507
 30
0.0
 11
248.5385017868
 21
102.6159508612
 31
0.0
  0
CIRCLE
  5
13E
330
1F
100
AcDbEntity
  8
0
  6
HIDDEN
 62
     7
370
     0
100
AcDbCircle
 10
243.4507137814
 20
97.1093522257
 30
0.0
 40
2.097224378561029
  0
LINE
  5
13F
330
1F
100
AcDbEntity
  8
0
  6
HIDDEN
 62
     7
370
     0
100
AcDbLine
 10
111.9539875894
 20
128.5876923941
 30
0.0
 11
111.9539875894
 21
123.7779136776
 31
0.0
  0
LINE
  5
140
330
1F
100
AcDbEntity
  8
0
  6
HIDDEN
 62
     7
370
     0
100
AcDbLine
 10
110.4539875894
 20
127.7216669903
 30
0.0
 11
110.4539875894
 21
123.3449009757
 31
0.0
  0
SPLINE
  5
141
330
1F
100
AcDbEntity
  8
0
  6
HIDDEN
 62
     7
370
     0
100
AcDbSpline
210
0.0
220
0.0
230
1.0
 70
     8
 71
     3
 72
    18
 73
    14
 74
     0
 42
0.00000001
 43
0.00000001
 12
1.0
 22
0.0
 32
0.0
 13
1.0
 23
0.0
 33
0.0
 40
0.0
 40
0.0
 40
0.0
 40
0.0
 40
0.2500000000000002
 40
0.2500000000000002
 40
0.375
 40
0.375
 40
0.4999999999999999
 40
0.4999999999999999
 40
0.6249999999999998
 40
0.6249999999999998
 40
0.7499999999999996
 40
0.7499999999999996
 40
1.0
 40
1.0
 40
1.0
 40
1.0
 10
139.1326672458241
 20
98.63329442861975
 30
0.0
 10
138.9973816395217
 20
98.04909283488809
 30
0.0
 10
138.8962138932788
 20
97.51487514767987
 30
0.0
 10
138.7933525504099
 20
96.78897837679149
 30
0.0
 10
138.7672497048866
 20
96.55909788901155
 30
0.0
 10
138.7323597213417
 20
96.12852694422476
 30
0.0
 10
138.7237734630517
 20
95.93083203873059
 30
0.0
 10
138.7236737534861
 20
95.56948399605278
 30
0.0
 10
138.7321621246346
 20
95.40583398610666
 30
0.0
 10
138.7663055041552
 20
95.11262271313768
 30
0.0
 10
138.792102486009
 20
94.98262664702187
 30
0.0
 10
138.895503617397
 20
94.64857075445993
 30
0.0
 10
138.9973616095683
 20
94.50279459009514
 30
0.0
 10
139.1326672458241
 20
94.4314312841473
 30
0.0
  0
LINE
  5
142
330
1F
100
AcDbEntity
  8
0
  6
HIDDEN
 62
     7
370
     0
100
AcDbLine
 10
138.2539875894
 20
99.3483948554
 30
0.0
 11
138.2539875894
 21
94.2082423676
 31
0.0
  0
LINE
  5
143
330
1F
100
AcDbEntity
  8
0
  6
HIDDEN
 62
     7
370
     0
100
AcDbLine
 10
138.2539875894
 20
129.2484399367
 30
0.0
 11
138.2539875894
 21
124.1082874489
 31
0.0
  0
SPLINE
  5
144
330
1F
100
AcDbEntity
  8
0
  6
HIDDEN
 62
     7
370
     0
100
AcDbSpline
210
0.0
220
0.0
230
1.0
 70
     8
 71
     3
 72
    18
 73
    14
 74
     0
 42
0.00000001
 43
0.00000001
 12
1.0
 22
0.0
 32
0.0
 13
1.0
 23
0.0
 33
0.0
 40
0.0
 40
0.0
 40
0.0
 40
0.0
 40
0.2499999999999998
 40
0.2499999999999998
 40
0.3749999999999999
 40
0.3749999999999999
 40
0.5
 40
0.5
 40
0.6250000000000001
 40
0.6250000000000001
 40
0.7500000000000002
 40
0.7500000000000002
 40
1.0
 40
1.0
 40
1.0
 40
1.0
 10
139.1326672458241
 20
129.025251020157
 30
0.0
 10
138.9973816395217
 20
128.9538982784674
 30
0.0
 10
138.8962138932788
 20
128.808494871878
 30
0.0
 10
138.7933525504099
 20
128.4790276362723
 30
0.0
 10
138.7672497048866
 20
128.3500940594676
 30
0.0
 10
138.7323597213417
 20
128.0545520601315
 30
0.0
 10
138.7237734630517
 20
127.8901572866096
 30
0.0
 10
138.7236737534861
 20
127.529195671869
 30
0.0
 10
138.7321621246346
 20
127.3326258797068
 30
0.0
 10
138.7663055041552
 20
126.9072710835817
 30
0.0
 10
138.792102486009
 20
126.6775014337822
 30
0.0
 10
138.895503617397
 20
125.9449127393497
 30
0.0
 10
138.9973616095683
 20
125.4076759644322
 30
0.0
 10
139.1326672458241
 20
124.8233878756845
 30
0.0
  0
LINE
  5
145
330
1F
100
AcDbEntity
  8
0
  6
HIDDEN
 62
     7
370
     0
100
AcDbLine
 10
111.9539875894
 20
99.6787686267
 30
0.0
 11
111.9539875894
 21
94.8689899102
 31
0.0
  0
LINE
  5
146
330
1F
100
AcDbEntity
  8
0
  6
HIDDEN
 62
     7
370
     0
100
AcDbLine
 10
110.4539875894
 20
100.1117813286
 30
0.0
 11
110.4539875894
 21
95.735015314
 31
0.0
  0
SPLINE
  5
147
330
1F
100
AcDbEntity
  8
0
  6
HIDDEN
 62
     7
370
     0
100
AcDbSpline
210
0.0
220
0.0
230
1.0
 70
     8
 71
     3
 72
    25
 73
    21
 74
     0
 42
0.00000001
 43
0.00000001
 12
1.0
 22
0.0
 32
0.0
 13
1.0
 23
0.0
 33
0.0
 40
0.0
 40
0.0
 40
0.0
 40
0.0
 40
0.019999885503709
 40
0.04088284193481
 40
0.0626488720922865
 40
0.0923707151455009
 40
0.1253136303742936
 40
0.1879819105471891
 40
0.250651141927114
 40
0.3133132887856428
 40
0.3759603830168221
 40
0.5011343245870197
 40
0.626158168207475
 40
0.6898548645415409
 40
0.7510243910057829
 40
0.8143052716328021
 40
0.8756460386477739
 40
0.9177870009274177
 40
0.9592380417273998
 40
1.0
 40
1.0
 40
1.0
 40
1.0
 10
246.6587489672521
 20
102.0228614442582
 30
0.0
 10
246.6730267428009
 20
101.9204943312113
 30
0.0
 10
246.7022127119323
 20
101.7112402081693
 30
0.0
 10
246.7474513859258
 20
101.3936727405755
 30
0.0
 10
246.8001446538549
 20
101.0297250907358
 30
0.0
 10
246.8622765423915
 20
100.6097090396733
 30
0.0
 10
246.955582226759
 20
99.99479483506269
 30
0.0
 10
247.0754155714857
 20
99.2355614780414
 30
0.0
 10
247.2204066106069
 20
98.36349041844593
 30
0.0
 10
247.3676519123736
 20
97.52360520082372
 30
0.0
 10
247.5663006609475
 20
96.45050693049704
 30
0.0
 10
247.8181190667484
 20
95.20134095914106
 30
0.0
 10
248.0727418234147
 20
94.08537174367646
 30
0.0
 10
248.2747516484113
 20
93.28775776196886
 30
0.0
 10
248.4261670267199
 20
92.73398548045125
 30
0.0
 10
248.5745220916681
 20
92.23497383487256
 30
0.0
 10
248.7063115237257
 20
91.83123164080736
 30
0.0
 10
248.8195053686503
 20
91.51385121240041
 30
0.0
 10
248.9156985121285
 20
91.2630996457892
 30
0.0
 10
248.9783275141947
 20
91.11681868514842
 30
0.0
 10
249.0093795472999
 20
91.0442912444641
 30
0.0
  0
SPLINE
  5
148
330
1F
100
AcDbEntity
  8
0
  6
HIDDEN
 62
     7
370
     0
100
AcDbSpline
210
0.0
220
0.0
230
1.0
 70
     8
 71
     3
 72
    29
 73
    25
 74
     0
 42
0.00000001
 43
0.00000001
 12
1.0
 22
0.0
 32
0.0
 13
1.0
 23
0.0
 33
0.0
 40
0.0
 40
0.0
 40
0.0
 40
0.0
 40
0.0248585524659857
 40
0.0497062406956554
 40
0.0745560622304613
 40
0.0994210112664569
 40
0.1243140583099935
 40
0.1554263774914606
 40
0.1865867279805269
 40
0.2489251963033728
 40
0.311330381802546
 40
0.373796082780507
 40
0.4363152917591029
 40
0.4988803158591476
 40
0.5614828870091134
 40
0.6241142219351267
 40
0.6867652256274506
 40
0.7494264786089487
 40
0.8120885030433328
 40
0.8434043211225412
 40
0.8747479337716951
 40
0.9164935886811159
 40
0.9582246595435644
 40
1.0
 40
1.0
 40
1.0
 40
1.0
 10
249.508549195416
 20
91.55526935983559
 30
0.0
 10
249.4883381870178
 20
91.60104792892916
 30
0.0
 10
249.4479250032849
 20
91.69258505995
 30
0.0
 10
249.3866719358774
 20
91.84168097428983
 30
0.0
 10
249.3249881774284
 20
91.99933615544045
 30
0.0
 10
249.2628256848804
 20
92.16640378123425
 30
0.0
 10
249.1950179086825
 20
92.35722403199954
 30
0.0
 10
249.1214490147222
 20
92.57466052369425
 30
0.0
 10
249.0156048576693
 20
92.90384866940933
 30
0.0
 10
248.8820504678276
 20
93.34975454294515
 30
0.0
 10
248.7204390365932
 20
93.9376816213647
 30
0.0
 10
248.5579398057143
 20
94.5767249706269
 30
0.0
 10
248.3950940512672
 20
95.26481858269528
 30
0.0
 10
248.2324395872552
 20
95.99960314982775
 30
0.0
 10
248.0705164891526
 20
96.77874057910091
 30
0.0
 10
247.909858494031
 20
97.59955320311968
 30
0.0
 10
247.7509998821318
 20
98.45941612289232
 30
0.0
 10
247.5944663854168
 20
99.35539335083936
 30
0.0
 10
247.4663895167426
 20
100.1297213928754
 30
0.0
 10
247.3656038205106
 20
100.7642581617842
 30
0.0
 10
247.2826213255424
 20
101.3008488991191
 30
0.0
 10
247.1927474767851
 20
101.9008343355581
 30
0.0
 10
247.0963914923688
 20
102.5658570784433
 30
0.0
 10
247.0338352834014
 20
103.0177211347884
 30
0.0
 10
247.0025405973287
 20
103.2437729372274
 30
0.0
  0
SPLINE
  5
149
330
1F
100
AcDbEntity
  8
0
  6
HIDDEN
 62
     7
370
     0
100
AcDbSpline
210
0.0
220
0.0
230
1.0
 70
     8
 71
     3
 72
    62
 73
    58
 74
     0
 42
0.00000001
 43
0.00000001
 12
1.0
 22
0.0
 32
0.0
 13
1.0
 23
0.0
 33
0.0
 40
-0.0312500000000001
 40
-0.0312500000000001
 40
0.0
 40
0.0
 40
0.0312499999999999
 40
0.0312499999999999
 40
0.0624999999999998
 40
0.0624999999999998
 40
0.0937499999999997
 40
0.0937499999999997
 40
0.1249999999999996
 40
0.1249999999999996
 40
0.1562499999999995
 40
0.1562499999999995
 40
0.1874999999999994
 40
0.1874999999999994
 40
0.2499999999999994
 40
0.2499999999999994
 40
0.2812499999999993
 40
0.2812499999999993
 40
0.3124999999999993
 40
0.3124999999999993
 40
0.3437499999999992
 40
0.3437499999999992
 40
0.3749999999999992
 40
0.3749999999999992
 40
0.4062499999999992
 40
0.4062499999999992
 40
0.4374999999999991
 40
0.4374999999999991
 40
0.4687499999999991
 40
0.4687499999999991
 40
0.499999999999999
 40
0.499999999999999
 40
0.531249999999999
 40
0.531249999999999
 40
0.562499999999999
 40
0.562499999999999
 40
0.593749999999999
 40
0.593749999999999
 40
0.624999999999999
 40
0.624999999999999
 40
0.656249999999999
 40
0.656249999999999
 40
0.687499999999999
 40
0.687499999999999
 40
0.7499999999999989
 40
0.7499999999999989
 40
0.8124999999999989
 40
0.8124999999999989
 40
0.8437499999999992
 40
0.8437499999999992
 40
0.8749999999999996
 40
0.8749999999999996
 40
0.9374999999999998
 40
0.9374999999999998
 40
0.9687499999999999
 40
0.9687499999999999
 40
1.0
 40
1.0
 40
1.03125
 40
1.03125
 10
243.2869813496127
 20
95.45028396412197
 30
0.0
 10
243.620239417637
 20
95.45277361870777
 30
0.0
 10
243.7776457430891
 20
95.47507703764278
 30
0.0
 10
244.0783416676522
 20
95.5530454243074
 30
0.0
 10
244.2180162051976
 20
95.60817712505663
 30
0.0
 10
244.4731272933773
 20
95.73970536022759
 30
0.0
 10
244.5895985721009
 20
95.81666039599124
 30
0.0
 10
244.7986539985737
 20
95.98344132279288
 30
0.0
 10
244.8925272232714
 20
96.07401746030716
 30
0.0
 10
245.0625085314
 20
96.26816433405912
 30
0.0
 10
245.1381410692807
 20
96.37151126303135
 30
0.0
 10
245.2695411572292
 20
96.58498270950908
 30
0.0
 10
245.3259062038722
 20
96.69580034727463
 30
0.0
 10
245.4684403056094
 20
97.0404730523888
 30
0.0
 10
245.5282971364522
 20
97.28932005112617
 30
0.0
 10
245.5565113592638
 20
97.66944140286499
 30
0.0
 10
245.5558975168369
 20
97.79788827840513
 30
0.0
 10
245.5325835117037
 20
98.05828956349063
 30
0.0
 10
245.5095598958853
 20
98.1914126600097
 30
0.0
 10
245.4388375807988
 20
98.45489239211881
 30
0.0
 10
245.3915024646637
 20
98.58483940542821
 30
0.0
 10
245.2697220141477
 20
98.83994234271948
 30
0.0
 10
245.1942420842702
 20
98.96636043130525
 30
0.0
 10
245.0165651930299
 20
99.20341352504397
 30
0.0
 10
244.9145123755051
 20
99.31464244360542
 30
0.0
 10
244.6793062810703
 20
99.51895368474808
 30
0.0
 10
244.5487142220772
 20
99.60934332423702
 30
0.0
 10
244.2671263740098
 20
99.75866786173292
 30
0.0
 10
244.1120132465108
 20
99.81916923689582
 30
0.0
 10
243.7932995735595
 20
99.89953072560945
 30
0.0
 10
243.6294236112095
 20
99.92028737627842
 30
0.0
 10
243.2957330227915
 20
99.92050528961806
 30
0.0
 10
243.1332825985691
 20
99.90010537248932
 30
0.0
 10
242.816658078687
 20
99.8212938334278
 30
0.0
 10
242.6660265569467
 20
99.7633532463908
 30
0.0
 10
242.387424098867
 20
99.61860411765272
 30
0.0
 10
242.2582528626629
 20
99.53098635189006
 30
0.0
 10
242.0287259578477
 20
99.33762935413381
 30
0.0
 10
241.9258251102397
 20
99.22983249949402
 30
0.0
 10
241.7485287303992
 20
99.00405318498717
 30
0.0
 10
241.6736665027078
 20
98.88610766947751
 30
0.0
 10
241.547709206321
 20
98.6422253368785
 30
0.0
 10
241.4964655874292
 20
98.51529343573246
 30
0.0
 10
241.3793136318356
 20
98.1351814512909
 30
0.0
 10
241.347138602492
 20
97.88058412860883
 30
0.0
 10
241.3621486501598
 20
97.37128718025082
 30
0.0
 10
241.4090886255309
 20
97.12581135627755
 30
0.0
 10
241.5372428219086
 20
96.77067434499342
 30
0.0
 10
241.590210211732
 20
96.65389437029802
 30
0.0
 10
241.7154215435206
 20
96.43015327889954
 30
0.0
 10
241.7877257145864
 20
96.32260408192393
 30
0.0
 10
242.0388221738457
 20
96.01370871183842
 30
0.0
 10
242.2520829195631
 20
95.8245227855917
 30
0.0
 10
242.6581807800453
 20
95.60943424411768
 30
0.0
 10
242.8051526915503
 20
95.55103577577549
 30
0.0
 10
243.1238909543845
 20
95.47037529958956
 30
0.0
 10
243.2869813496127
 20
95.45028396412197
 30
0.0
 10
243.620239417637
 20
95.45277361870777
 30
0.0
  0
LWPOLYLINE
  5
14A
330
1F
100
AcDbEntity
  8
0
  6
HIDDEN
 62
     7
370
     0
100
AcDbPolyline
 90
       25
 70
   128
 43
0.0
 10
210.4539875894
 20
112.5151402622
 10
211.1010352021
 20
112.5961564245
 10
211.7039875894
 20
112.833683794
 10
212.2217545424
 20
113.211535273
 10
212.6190510988
 20
113.7039609075
 10
212.8688021551
 20
114.2774027044
 10
212.9539875894
 20
114.8927815529
 10
212.8688021551
 20
115.5081604014
 10
212.6190510988
 20
116.0816021983
 10
212.2217545424
 20
116.5740278328
 10
211.7039875894
 20
116.9518793118
 10
211.1010352021
 20
117.1894066813
 10
210.4539875894
 20
117.2704228437
 10
209.8069399766
 20
117.1894066813
 10
209.2039875894
 20
116.9518793118
 10
208.6862206364
 20
116.5740278328
 10
208.2889240799
 20
116.0816021983
 10
208.0391730237
 20
115.5081604014
 10
207.9539875894
 20
114.8927815529
 10
208.0391730237
 20
114.2774027044
 10
208.2889240799
 20
113.7039609075
 10
208.6862206364
 20
113.211535273
 10
209.2039875894
 20
112.833683794
 10
209.8069399766
 20
112.5961564245
 10
210.4539875894
 20
112.5151402622
  0
LINE
  5
14B
330
1F
100
AcDbEntity
  8
0
  6
HIDDEN
 62
     7
370
     0
100
AcDbLine
 10
110.4539875894
 20
123.3449009757
 30
0.0
 11
110.4539875894
 21
114.0675120804
 31
0.0
  0
LINE
  5
14C
330
1F
100
AcDbEntity
  8
0
  6
HIDDEN
 62
     7
370
     0
100
AcDbLine
 10
110.4539875894
 20
109.3891702239
 30
0.0
 11
110.4539875894
 21
100.1117813286
 31
0.0
  0
LINE
  5
14D
330
1F
100
AcDbEntity
  8
0
  6
HIDDEN
 62
     7
370
     0
100
AcDbLine
 10
111.9539875894
 20
108.5798640338
 30
0.0
 11
111.9539875894
 21
99.6787686267
 31
0.0
  0
LINE
  5
14E
330
1F
100
AcDbEntity
  8
0
  6
HIDDEN
 62
     7
370
     0
100
AcDbLine
 10
111.9539875894
 20
123.7779136776
 30
0.0
 11
111.9539875894
 21
114.8768182705
 31
0.0
  0
LINE
  5
14F
330
1F
100
AcDbEntity
  8
0
  6
HIDDEN
 62
     7
370
     0
100
AcDbLine
 10
138.2539875894
 20
124.1082874489
 30
0.0
 11
138.2539875894
 21
99.3483948554
 31
0.0
  0
LINE
  5
150
330
1F
100
AcDbEntity
  8
0
  6
HIDDEN
 62
     7
370
     0
100
AcDbLine
 10
140.2539875894
 20
123.2906153852
 30
0.0
 11
140.2539875894
 21
100.1660669191
 31
0.0
  0
SPLINE
  5
151
330
1F
100
AcDbEntity
  8
0
  6
HIDDEN
 62
     7
370
     0
100
AcDbSpline
210
0.0
220
0.0
230
1.0
 70
     8
 71
     3
 72
     8
 73
     4
 74
     0
 42
0.00000001
 43
0.00000001
 12
1.0
 22
0.0
 32
0.0
 13
1.0
 23
0.0
 33
0.0
 40
0.0000202085968836
 40
0.0000202085968836
 40
0.0000202085968836
 40
0.0000202085968836
 40
0.0040218806502652
 40
0.0040218806502652
 40
0.0040218806502652
 40
0.0040218806502652
 10
111.9539875893837
 20
108.5798640338154
 30
0.0
 10
113.2873107151743
 20
108.5558658026518
 30
0.0
 10
114.6206445883969
 20
108.5325380624835
 30
0.0
 10
115.9539875893837
 20
108.5098433917031
 30
0.0
  0
SPLINE
  5
152
330
1F
100
AcDbEntity
  8
0
  6
HIDDEN
 62
     7
370
     0
100
AcDbSpline
210
0.0
220
0.0
230
1.0
 70
     8
 71
     3
 72
     8
 73
     4
 74
     0
 42
0.00000001
 43
0.00000001
 12
1.0
 22
0.0
 32
0.0
 13
1.0
 23
0.0
 33
0.0
 40
0.0000202082942178
 40
0.0000202082942178
 40
0.0000202082942178
 40
0.0000202082942178
 40
0.0040218803475994
 40
0.0040218803475994
 40
0.0040218803475994
 40
0.0040218803475994
 10
115.9539875893837
 20
114.9468389126012
 30
0.0
 10
114.6206445883969
 20
114.9241442418208
 30
0.0
 10
113.2873107151743
 20
114.9008165016525
 30
0.0
 10
111.9539875893837
 20
114.8768182704888
 30
0.0
  0
SPLINE
  5
153
330
1F
100
AcDbEntity
  8
0
  6
HIDDEN
 62
     7
370
     0
100
AcDbSpline
210
0.0
220
0.0
230
1.0
 70
     8
 71
     3
 72
     8
 73
     4
 74
     0
 42
0.00000001
 43
0.00000001
 12
1.0
 22
0.0
 32
0.0
 13
1.0
 23
0.0
 33
0.0
 40
0.0
 40
0.0
 40
0.0
 40
0.0
 40
1.0
 40
1.0
 40
1.0
 40
1.0
 10
110.4539875893828
 20
109.3891702239177
 30
0.0
 10
110.9281989998207
 20
109.0544409966226
 30
0.0
 10
111.4329353469226
 20
108.7953825827897
 30
0.0
 10
111.9539875893837
 20
108.5798640338154
 30
0.0
  0
SPLINE
  5
154
330
1F
100
AcDbEntity
  8
0
  6
HIDDEN
 62
     7
370
     0
100
AcDbSpline
210
0.0
220
0.0
230
1.0
 70
     8
 71
     3
 72
     8
 73
     4
 74
     0
 42
0.00000001
 43
0.00000001
 12
1.0
 22
0.0
 32
0.0
 13
1.0
 23
0.0
 33
0.0
 40
0.0
 40
0.0
 40
0.0
 40
0.0
 40
1.0
 40
1.0
 40
1.0
 40
1.0
 10
111.9539875893837
 20
114.8768182704888
 30
0.0
 10
111.432935346923
 20
114.6612997215147
 30
0.0
 10
110.9281989998214
 20
114.402241307682
 30
0.0
 10
110.4539875893837
 20
114.0675120803872
 30
0.0
  0
LINE
  5
155
330
1F
100
AcDbEntity
  8
0
  6
HIDDEN
 62
     7
370
     0
100
AcDbLine
 10
110.4539875894
 20
109.3891702239
 30
0.0
 11
110.4539875894
 21
114.0675120804
 31
0.0
  0
LINE
  5
156
330
1F
100
AcDbEntity
  8
0
  6
HIDDEN
 62
     7
370
     0
100
AcDbLine
 10
115.9539875894
 20
108.5098433917
 30
0.0
 11
115.9539875894
 21
114.9468389126
 31
0.0
  0
SPLINE
  5
157
330
1F
100
AcDbEntity
  8
0
  6
HIDDEN
 62
     7
370
     0
100
AcDbSpline
210
0.0
220
0.0
230
1.0
 70
     8
 71
     3
 72
    26
 73
    22
 74
     0
 42
0.00000001
 43
0.00000001
 12
1.0
 22
0.0
 32
0.0
 13
1.0
 23
0.0
 33
0.0
 40
0.0
 40
0.0
 40
0.0
 40
0.0
 40
0.1250000000000003
 40
0.1250000000000003
 40
0.2500000000000006
 40
0.2500000000000006
 40
0.3750000000000008
 40
0.3750000000000008
 40
0.4375000000000008
 40
0.4375000000000008
 40
0.5000000000000009
 40
0.5000000000000009
 40
0.562500000000001
 40
0.562500000000001
 40
0.625000000000001
 40
0.625000000000001
 40
0.7500000000000007
 40
0.7500000000000007
 40
0.8750000000000003
 40
0.8750000000000003
 40
1.0
 40
1.0
 40
1.0
 40
1.0
 10
115.9539875893837
 20
108.5098433917031
 30
0.0
 10
116.1646309513836
 20
108.7444604226481
 30
0.0
 10
116.3718273891406
 20
108.9823435586076
 30
0.0
 10
116.773326523773
 20
109.4696578648764
 30
0.0
 10
116.968602942819
 20
109.7197830896655
 30
0.0
 10
117.3283834355144
 20
110.2383732351164
 30
0.0
 10
117.4936422956638
 20
110.5058042190032
 30
0.0
 10
117.68630020509
 20
110.9372193514017
 30
0.0
 10
117.7412649453
 20
111.0872382333261
 30
0.0
 10
117.8190007302642
 20
111.3999754120561
 30
0.0
 10
117.8402668685725
 20
111.5577296588634
 30
0.0
 10
117.8421607978583
 20
111.8764349387092
 30
0.0
 10
117.8219350607912
 20
112.0388717388897
 30
0.0
 10
117.7474706505054
 20
112.3498237384724
 30
0.0
 10
117.6938315247594
 20
112.5004949768
 30
0.0
 10
117.4990872193588
 20
112.9425787347686
 30
0.0
 10
117.3320371061805
 20
113.2126227479364
 30
0.0
 10
116.9717809874769
 20
113.7327303762178
 30
0.0
 10
116.7770286124564
 20
113.9823915890274
 30
0.0
 10
116.3740193879842
 20
114.4718157008702
 30
0.0
 10
116.1655828696207
 20
114.7111616240341
 30
0.0
 10
115.9539875893846
 20
114.946838912602
 30
0.0
  0
SPLINE
  5
158
330
1F
100
AcDbEntity
  8
0
  6
HIDDEN
 62
     7
370
     0
100
AcDbSpline
210
0.0
220
0.0
230
1.0
 70
     8
 71
     3
 72
    68
 73
    64
 74
     0
 42
0.00000001
 43
0.00000001
 12
1.0
 22
0.0
 32
0.0
 13
1.0
 23
0.0
 33
0.0
 40
-0.0312499999999998
 40
-0.0312499999999998
 40
0.0
 40
0.0
 40
0.0312500000000004
 40
0.0312500000000004
 40
0.0625000000000008
 40
0.0625000000000008
 40
0.0937500000000007
 40
0.0937500000000007
 40
0.1250000000000006
 40
0.1250000000000006
 40
0.1875000000000007
 40
0.1875000000000007
 40
0.2187500000000007
 40
0.2187500000000007
 40
0.2500000000000008
 40
0.2500000000000008
 40
0.2812500000000009
 40
0.2812500000000009
 40
0.3125000000000009
 40
0.3125000000000009
 40
0.343750000000001
 40
0.343750000000001
 40
0.375000000000001
 40
0.375000000000001
 40
0.4062500000000011
 40
0.4062500000000011
 40
0.4375000000000011
 40
0.4375000000000011
 40
0.4687500000000012
 40
0.4687500000000012
 40
0.5000000000000012
 40
0.5000000000000012
 40
0.5312500000000012
 40
0.5312500000000012
 40
0.5625000000000013
 40
0.5625000000000013
 40
0.5937500000000013
 40
0.5937500000000013
 40
0.6250000000000014
 40
0.6250000000000014
 40
0.6562500000000014
 40
0.6562500000000014
 40
0.6875000000000016
 40
0.6875000000000016
 40
0.7187500000000016
 40
0.7187500000000016
 40
0.7500000000000013
 40
0.7500000000000013
 40
0.7812500000000012
 40
0.7812500000000012
 40
0.812500000000001
 40
0.812500000000001
 40
0.8437500000000009
 40
0.8437500000000009
 40
0.8750000000000007
 40
0.8750000000000007
 40
0.9062500000000006
 40
0.9062500000000006
 40
0.9375000000000003
 40
0.9375000000000003
 40
0.9687500000000002
 40
0.9687500000000002
 40
1.0
 40
1.0
 40
1.03125
 40
1.03125
 10
123.8378138767202
 20
113.6251587287688
 30
0.0
 10
124.128278359012
 20
113.9435909697693
 30
0.0
 10
124.2871946573935
 20
114.0861084954729
 30
0.0
 10
124.6307753430313
 20
114.3398230325626
 30
0.0
 10
124.816946695937
 20
114.4513868590716
 30
0.0
 10
125.2014767685227
 20
114.6356358957407
 30
0.0
 10
125.4010872706874
 20
114.7095501618295
 30
0.0
 10
125.814926855661
 20
114.8211920513896
 30
0.0
 10
126.0277366653322
 20
114.8581161056785
 30
0.0
 10
126.663668139673
 20
114.9107179262539
 30
0.0
 10
127.0987343603007
 20
114.8685095355937
 30
0.0
 10
127.7109772272883
 20
114.6946749303983
 30
0.0
 10
127.9108223154004
 20
114.6180567025863
 30
0.0
 10
128.2951996241285
 20
114.4278818342434
 30
0.0
 10
128.475748014991
 20
114.3165224000248
 30
0.0
 10
128.8138079427006
 20
114.0614171313025
 30
0.0
 10
128.9728397591118
 20
113.9159113431098
 30
0.0
 10
129.2576364393342
 20
113.5976726889369
 30
0.0
 10
129.3825819682091
 20
113.4266203704178
 30
0.0
 10
129.5968841086228
 20
113.0600597843047
 30
0.0
 10
129.6867828877976
 20
112.861991050502
 30
0.0
 10
129.8204351769266
 20
112.4574082972926
 30
0.0
 10
129.8654431122406
 20
112.2497931172755
 30
0.0
 10
129.910222592858
 20
111.8235033608466
 30
0.0
 10
129.9091489318422
 20
111.6068650628983
 30
0.0
 10
129.8611291381267
 20
111.1839050359409
 30
0.0
 10
129.8137161609019
 20
110.9729083506816
 30
0.0
 10
129.6754009120852
 20
110.5671196352498
 30
0.0
 10
129.585720053863
 20
110.3741729765872
 30
0.0
 10
129.3670373435358
 20
110.0072663536038
 30
0.0
 10
129.2375896257071
 20
109.8337612053817
 30
0.0
 10
128.9510840216776
 20
109.5197591073911
 30
0.0
 10
128.7922252034397
 20
109.3766561809367
 30
0.0
 10
128.4472273814868
 20
109.1213252650837
 30
0.0
 10
128.2650102773665
 20
109.0117930874832
 30
0.0
 10
127.8821702007274
 20
108.826866260695
 30
0.0
 10
127.6794259756542
 20
108.7510504338535
 30
0.0
 10
127.2675974011909
 20
108.6384699416115
 30
0.0
 10
127.0583786245914
 20
108.6011297220268
 30
0.0
 10
126.6333857903569
 20
108.5638987024966
 30
0.0
 10
126.4162285132838
 20
108.5644646664283
 30
0.0
 10
125.9918506741306
 20
108.6038623703177
 30
0.0
 10
125.7827340262809
 20
108.6422916049519
 30
0.0
 10
125.3707930373869
 20
108.7574966394893
 30
0.0
 10
125.1682249324938
 20
108.8347615699938
 30
0.0
 10
124.7866244900265
 20
109.0224438401256
 30
0.0
 10
124.6053135541473
 20
109.1333571919376
 30
0.0
 10
124.2627216572132
 20
109.3913106306685
 30
0.0
 10
124.1038980402591
 20
109.5370263262779
 30
0.0
 10
123.8208532611587
 20
109.8533474839873
 30
0.0
 10
123.6948433291729
 20
110.0253811953865
 30
0.0
 10
123.477736285358
 20
110.3979237733755
 30
0.0
 10
123.3903009890841
 20
110.5920455586495
 30
0.0
 10
123.2571077085366
 20
110.9958202877291
 30
0.0
 10
123.2112071264319
 20
111.2083172143367
 30
0.0
 10
123.1668905854981
 20
111.6339130751948
 30
0.0
 10
123.1677327729805
 20
111.846746913464
 30
0.0
 10
123.2155714674015
 20
112.2724866432939
 30
0.0
 10
123.2631073228707
 20
112.484248808707
 30
0.0
 10
123.3998459180986
 20
112.8877383431643
 30
0.0
 10
123.4901294633742
 20
113.0834969641174
 30
0.0
 10
123.7098403556392
 20
113.4530971908655
 30
0.0
 10
123.8378138767202
 20
113.6251587287688
 30
0.0
 10
124.128278359012
 20
113.9435909697693
 30
0.0
  0
CIRCLE
  5
159
330
1F
100
AcDbEntity
  8
0
  6
HIDDEN
 62
     7
370
     0
100
AcDbCircle
 10
126.4539875894
 20
111.7283411522
 30
0.0
 40
3.050000000000011
  0
SPLINE
  5
15A
330
1F
100
AcDbEntity
  8
0
  6
HIDDEN
 62
     7
370
     0
100
AcDbSpline
210
0.0
220
0.0
230
1.0
 70
     8
 71
     3
 72
    10
 73
     6
 74
     0
 42
0.00000001
 43
0.00000001
 12
1.0
 22
0.0
 32
0.0
 13
1.0
 23
0.0
 33
0.0
 40
0.0
 40
0.0
 40
0.0
 40
0.0
 40
0.3293635822219668
 40
0.6626577436969632
 40
1.0
 40
1.0
 40
1.0
 40
1.0
 10
247.0025362339506
 20
103.2437740316905
 30
0.0
 10
246.9678554215197
 20
103.1088880512663
 30
0.0
 10
246.8980799206583
 20
102.8375063798584
 30
0.0
 10
246.7833707817572
 20
102.4304647133889
 30
0.0
 10
246.7004542316375
 20
102.1592765202947
 30
0.0
 10
246.6587457061821
 20
102.022863950807
 30
0.0
  0
LINE
  5
15B
330
1F
100
AcDbEntity
  8
0
  6
HIDDEN
 62
     7
370
     0
100
AcDbLine
 10
226.7762965412
 20
103.7623506095
 30
0.0
 11
246.6587455111
 21
102.0228617215
 31
0.0
  0
LINE
  5
15C
330
1F
100
AcDbEntity
  8
0
  6
HIDDEN
 62
     7
370
     0
100
AcDbLine
 10
247.0025399662
 20
103.2437743895
 30
0.0
 11
246.8999928578
 21
104.313385317
 31
0.0
  0
LINE
  5
15D
330
1F
100
AcDbEntity
  8
0
  6
HIDDEN
 62
     7
370
     0
100
AcDbLine
 10
246.8999928578
 20
104.313385317
 30
0.0
 11
241.6431019026
 21
111.7283411522
 31
0.0
  0
CIRCLE
  5
15E
330
1F
100
AcDbEntity
  8
0
  6
HIDDEN
 62
     7
370
     0
100
AcDbCircle
 10
152.4539875894
 20
111.7283411522
 30
0.0
 40
2.0
  0
LINE
  5
15F
330
1F
100
AcDbEntity
  8
0
  6
HIDDEN
 62
     7
370
     0
100
AcDbLine
 10
140.4539875894
 20
92.1783411522
 30
0.0
 11
140.5468808082
 21
92.271234371
 31
0.0
  0
LINE
  5
160
330
1F
100
AcDbEntity
  8
0
  6
HIDDEN
 62
     7
370
     0
100
AcDbLine
 10
140.5468808082
 20
131.1854479333
 30
0.0
 11
140.4539875894
 21
131.2783411522
 31
0.0
  0
ARC
  5
161
330
1F
100
AcDbEntity
  8
0
  6
HIDDEN
 62
     7
370
     0
100
AcDbCircle
 10
139.839774027
 20
92.9783411522
 30
0.0
 40
1.0
100
AcDbArc
 50
315.0
 51
0.0
  0
ARC
  5
162
330
1F
100
AcDbEntity
  8
0
  6
HIDDEN
 62
     7
370
     0
100
AcDbCircle
 10
139.839774027
 20
92.9783411522
 30
0.0
 40
1.00000000000001
100
AcDbArc
 50
0.0
 51
52.1052014664
  0
ARC
  5
163
330
1F
100
AcDbEntity
  8
0
  6
HIDDEN
 62
     7
370
     0
100
AcDbCircle
 10
139.839774027
 20
130.4783411522
 30
0.0
 40
1.000000000000008
100
AcDbArc
 50
351.8087250651
 51
45.0
  0
ARC
  5
164
330
1F
100
AcDbEntity
  8
0
  6
HIDDEN
 62
     7
370
     0
100
AcDbCircle
 10
139.839774027
 20
130.4783411522
 30
0.0
 40
1.000000000000002
100
AcDbArc
 50
307.8947985336
 51
351.8087250651
  0
LINE
  5
165
330
1F
100
AcDbEntity
  8
0
  6
HIDDEN
 62
     7
370
     0
100
AcDbLine
 10
140.839774027
 20
92.9783411522
 30
0.0
 11
140.839774027
 21
130.4783411522
 31
0.0
  0
LINE
  5
166
330
1F
100
AcDbEntity
  8
0
  6
HIDDEN
 62
     7
370
     0
100
AcDbLine
 10
140.839774027
 20
92.9783411522
 30
0.0
 11
140.839774027
 21
130.4783411522
 31
0.0
  0
LINE
  5
167
330
1F
100
AcDbEntity
  8
0
  6
HIDDEN
 62
     7
370
     0
100
AcDbLine
 10
212.5539875894
 20
109.2496129481
 30
0.0
 11
212.5539875894
 21
110.417609608
 31
0.0
  0
LINE
  5
168
330
1F
100
AcDbEntity
  8
0
  6
HIDDEN
 62
     7
370
     0
100
AcDbLine
 10
212.5539875894
 20
107.7111202253
 30
0.0
 11
212.5539875894
 21
108.0746780416
 31
0.0
  0
LINE
  5
169
330
1F
100
AcDbEntity
  8
0
  6
HIDDEN
 62
     7
370
     0
100
AcDbLine
 10
208.3539875894
 20
110.419160948
 30
0.0
 11
208.3539875894
 21
107.7111202253
 31
0.0
  0
ARC
  5
16A
330
1F
100
AcDbEntity
  8
0
  6
HIDDEN
 62
     7
370
     0
100
AcDbCircle
 10
116.9539875894
 20
101.2283411522
 30
0.0
 40
1.49999999999999
100
AcDbArc
 50
191.0958032831
 51
270.0
  0
ARC
  5
16B
330
1F
100
AcDbEntity
  8
0
  6
HIDDEN
 62
     7
370
     0
100
AcDbCircle
 10
116.9539875894
 20
122.2283411522
 30
0.0
 40
1.49999999999999
100
AcDbArc
 50
90.0
 51
168.9041967169
  0
LINE
  5
16C
330
1F
100
AcDbEntity
  8
0
  6
HIDDEN
 62
     7
370
     0
100
AcDbLine
 10
116.9539875894
 20
99.7283411522
 30
0.0
 11
117.9607071014
 21
99.7283411522
 31
0.0
  0
LINE
  5
16D
330
1F
100
AcDbEntity
  8
0
  6
HIDDEN
 62
     7
370
     0
100
AcDbLine
 10
117.9607071014
 20
123.7283411522
 30
0.0
 11
116.9539875894
 21
123.7283411522
 31
0.0
  0
ARC
  5
16E
330
1F
100
AcDbEntity
  8
0
  6
HIDDEN
 62
     7
370
     0
100
AcDbCircle
 10
117.9607071014
 20
101.2283411522
 30
0.0
 40
1.5
100
AcDbArc
 50
270.0
 51
315.0
  0
ARC
  5
16F
330
1F
100
AcDbEntity
  8
0
  6
HIDDEN
 62
     7
370
     0
100
AcDbCircle
 10
117.9607071014
 20
122.2283411522
 30
0.0
 40
1.5
100
AcDbArc
 50
45.0
 51
90.0
  0
LINE
  5
170
330
1F
100
AcDbEntity
  8
0
  6
HIDDEN
 62
     7
370
     0
100
AcDbLine
 10
110.4539875894
 20
99.9649290837
 30
0.0
 11
111.482027445
 21
100.5584681711
 31
0.0
  0
LINE
  5
171
330
1F
100
AcDbEntity
  8
0
  6
HIDDEN
 62
     7
370
     0
100
AcDbLine
 10
111.482027445
 20
122.8982141332
 30
0.0
 11
110.4539875894
 21
123.4917532206
 31
0.0
  0
LINE
  5
172
330
1F
100
AcDbEntity
  8
0
  6
HIDDEN
 62
     7
370
     0
100
AcDbLine
 10
119.0213672732
 20
100.1676809804
 30
0.0
 11
120.082027445
 21
101.2283411522
 31
0.0
  0
LINE
  5
173
330
1F
100
AcDbEntity
  8
0
  6
HIDDEN
 62
     7
370
     0
100
AcDbLine
 10
120.082027445
 20
122.2283411522
 30
0.0
 11
119.0213672732
 21
123.2890013239
 31
0.0
  0
LINE
  5
174
330
1F
100
AcDbEntity
  8
0
  6
HIDDEN
 62
     7
370
     0
100
AcDbLine
 10
218.5581917786
 20
107.1493252878
 30
0.0
 11
211.2544143992
 21
110.6970674882
 31
0.0
  0
LINE
  5
175
330
1F
100
AcDbEntity
  8
0
  6
HIDDEN
 62
     7
370
     0
100
AcDbLine
 10
210.3502591635
 20
106.4669856305
 30
0.0
 11
218.5779613947
 21
102.4704554925
 31
0.0
  0
LINE
  5
176
330
1F
100
AcDbEntity
  8
0
  6
HIDDEN
 62
     7
370
     0
100
AcDbLine
 10
111.482027445
 20
100.5584681711
 30
0.0
 11
113.982027445
 21
101.2283411522
 31
0.0
  0
LINE
  5
177
330
1F
100
AcDbEntity
  8
0
  6
HIDDEN
 62
     7
370
     0
100
AcDbLine
 10
113.982027445
 20
122.2283411522
 30
0.0
 11
111.482027445
 21
122.8982141332
 31
0.0
  0
LINE
  5
178
330
1F
100
AcDbEntity
  8
0
  6
HIDDEN
 62
     7
370
     0
100
AcDbLine
 10
115.482027445
 20
122.5170162867
 30
0.0
 11
114.982027445
 21
122.2283411522
 31
0.0
  0
LINE
  5
179
330
1F
100
AcDbEntity
  8
0
  6
HIDDEN
 62
     7
370
     0
100
AcDbLine
 10
114.982027445
 20
101.2283411522
 30
0.0
 11
115.482027445
 21
100.9396660176
 31
0.0
  0
LINE
  5
17A
330
1F
100
AcDbEntity
  8
0
  6
HIDDEN
 62
     7
370
     0
100
AcDbLine
 10
120.082027445
 20
101.2283411522
 30
0.0
 11
129.9539875894
 21
101.2283411522
 31
0.0
  0
LINE
  5
17B
330
1F
100
AcDbEntity
  8
0
  6
HIDDEN
 62
     7
370
     0
100
AcDbLine
 10
129.9539875894
 20
122.2283411522
 30
0.0
 11
120.082027445
 21
122.2283411522
 31
0.0
  0
ARC
  5
17C
330
1F
100
AcDbEntity
  8
0
  6
HIDDEN
 62
     7
370
     0
100
AcDbCircle
 10
129.9539875894
 20
101.7283411522
 30
0.0
 40
0.5
100
AcDbArc
 50
270.0
 51
0.0
  0
ARC
  5
17D
330
1F
100
AcDbEntity
  8
0
  6
HIDDEN
 62
     7
370
     0
100
AcDbCircle
 10
129.9539875894
 20
121.7283411522
 30
0.0
 40
0.5
100
AcDbArc
 50
0.0
 51
90.0
  0
LINE
  5
17E
330
1F
100
AcDbEntity
  8
0
  6
HIDDEN
 62
     7
370
     0
100
AcDbLine
 10
113.982027445
 20
101.2283411522
 30
0.0
 11
114.982027445
 21
101.2283411522
 31
0.0
  0
LINE
  5
17F
330
1F
100
AcDbEntity
  8
0
  6
HIDDEN
 62
     7
370
     0
100
AcDbLine
 10
114.982027445
 20
122.2283411522
 30
0.0
 11
113.982027445
 21
122.2283411522
 31
0.0
  0
LINE
  5
180
330
1F
100
AcDbEntity
  8
0
  6
HIDDEN
 62
     7
370
     0
100
AcDbLine
 10
130.4539875894
 20
103.4783411522
 30
0.0
 11
131.4539875894
 21
104.4783411522
 31
0.0
  0
LINE
  5
181
330
1F
100
AcDbEntity
  8
0
  6
HIDDEN
 62
     7
370
     0
100
AcDbLine
 10
131.4539875894
 20
118.9783411522
 30
0.0
 11
130.4539875894
 21
119.9783411522
 31
0.0
  0
LINE
  5
182
330
1F
100
AcDbEntity
  8
0
  6
HIDDEN
 62
     7
370
     0
100
AcDbLine
 10
131.4539875894
 20
104.4783411522
 30
0.0
 11
155.4539875894
 21
104.4783411522
 31
0.0
  0
LINE
  5
183
330
1F
100
AcDbEntity
  8
0
  6
HIDDEN
 62
     7
370
     0
100
AcDbLine
 10
155.4539875894
 20
118.9783411522
 30
0.0
 11
131.4539875894
 21
118.9783411522
 31
0.0
  0
LINE
  5
184
330
1F
100
AcDbEntity
  8
0
  6
HIDDEN
 62
     7
370
     0
100
AcDbLine
 10
155.4539875894
 20
104.4783411522
 30
0.0
 11
157.2565694465
 21
107.4783411522
 31
0.0
  0
LINE
  5
185
330
1F
100
AcDbEntity
  8
0
  6
HIDDEN
 62
     7
370
     0
100
AcDbLine
 10
157.2565694465
 20
115.9783411522
 30
0.0
 11
155.4539875894
 21
118.9783411522
 31
0.0
  0
LINE
  5
186
330
1F
100
AcDbEntity
  8
0
  6
HIDDEN
 62
     7
370
     0
100
AcDbLine
 10
213.4539875894
 20
115.9783411522
 30
0.0
 11
157.2565694465
 21
115.9783411522
 31
0.0
  0
LINE
  5
187
330
1F
100
AcDbEntity
  8
0
  6
HIDDEN
 62
     7
370
     0
100
AcDbLine
 10
157.2565694465
 20
107.4783411522
 30
0.0
 11
213.4539875894
 21
107.4783411522
 31
0.0
  0
LINE
  5
188
330
1F
100
AcDbEntity
  8
0
  6
HIDDEN
 62
     7
370
     0
100
AcDbLine
 10
213.4539875894
 20
107.4783411522
 30
0.0
 11
216.0076452203
 21
111.7283411522
 31
0.0
  0
LINE
  5
189
330
1F
100
AcDbEntity
  8
0
  6
HIDDEN
 62
     7
370
     0
100
AcDbLine
 10
216.0076452203
 20
111.7283411522
 30
0.0
 11
213.4539875894
 21
115.9783411522
 31
0.0
  0
LINE
  5
18A
330
1F
100
AcDbEntity
  8
0
  6
HIDDEN
 62
     7
370
     0
100
AcDbLine
 10
224.039774027
 20
95.7283411522
 30
0.0
 11
224.0678472875
 21
95.7279470205
 31
0.0
  0
ARC
  5
18B
330
1F
100
AcDbEntity
  8
0
  6
HIDDEN
 62
     7
370
     0
100
AcDbCircle
 10
224.039774027
 20
94.7283411522
 30
0.0
 40
0.9999999999999967
100
AcDbArc
 50
45.0
 51
64.8454287542
  0
LINE
  5
18C
330
1F
100
AcDbEntity
  8
0
  6
HIDDEN
 62
     7
370
     0
100
AcDbLine
 10
239.8882866153
 20
102.6952299302
 30
0.0
 11
239.8882866153
 21
102.7189471313
 31
0.0
  0
LINE
  5
18D
330
1F
100
AcDbEntity
  8
0
  6
HIDDEN
 62
     7
370
     0
100
AcDbLine
 10
235.6882866153
 20
102.7189471313
 30
0.0
 11
235.6882866153
 21
102.3841160573
 31
0.0
  0
LINE
  5
18E
330
1F
100
AcDbEntity
  8
0
  6
HIDDEN
 62
     7
370
     0
100
AcDbLine
 10
212.5539875894
 20
113.0375213563
 30
0.0
 11
212.5539875894
 21
114.8185110959
 31
0.0
  0
LINE
  5
18F
330
1F
100
AcDbEntity
  8
0
  6
HIDDEN
 62
     7
370
     0
100
AcDbLine
 10
208.3539875894
 20
114.8185110959
 30
0.0
 11
208.3539875894
 21
113.0390726963
 31
0.0
  0
LINE
  5
190
330
1F
100
AcDbEntity
  8
0
  6
HIDDEN
 62
     7
370
     0
100
AcDbLine
 10
245.5536103836
 20
97.1064874323
 30
0.0
 11
245.5536103836
 21
97.716736577
 31
0.0
  0
LINE
  5
191
330
1F
100
AcDbEntity
  8
0
  6
HIDDEN
 62
     7
370
     0
100
AcDbLine
 10
241.3536103836
 20
97.6956886621
 30
0.0
 11
241.3536103836
 21
97.1064874323
 31
0.0
  0
LINE
  5
192
330
1F
100
AcDbEntity
  8
0
  6
HIDDEN
 62
     7
370
     0
100
AcDbLine
 10
212.9539875894
 20
114.8927815529
 30
0.0
 11
212.9539875894
 21
116.6711287311
 31
0.0
  0
LINE
  5
193
330
1F
100
AcDbEntity
  8
0
  6
HIDDEN
 62
     7
370
     0
100
AcDbLine
 10
207.9539875894
 20
116.6724548146
 30
0.0
 11
207.9539875894
 21
114.8927815529
 31
0.0
  0
LINE
  5
194
330
1F
100
AcDbEntity
  8
VERMASSUNG
  6
CENTERX2
100
AcDbLine
 10
107.712078987
 20
111.7283411522
 30
0.0
 11
250.4539875894
 21
111.7283411522
 31
0.0
  0
LINE
  5
195
330
1F
100
AcDbEntity
  8
VERMASSUNG
  6
CENTERX2
100
AcDbLine
 10
250.4539875894
 20
89.7283411522
 30
0.0
 11
250.4539875894
 21
111.7283411522
 31
0.0
  0
LINE
  5
196
330
1F
100
AcDbEntity
  8
VERMASSUNG
  6
CENTERX2
100
AcDbLine
 10
250.4539875894
 20
89.7283411522
 30
0.0
 11
260.6201783585
 21
89.7283411522
 31
0.0
  0
DIMENSION
  5
197
330
1F
100
AcDbEntity
  8
VERMASSUNG
100
AcDbDimension
  2
_D
 10
250.4539875894
 20
64.7283411522
 30
0.0
 11
180.4539875894
 21
64.7283411522
 31
0.0
 70
   160
  1
<>
 71
     2
 42
-1.0
  3
SLDDIMSTYLE0
100
AcDbAlignedDimension
 13
110.4539875894
 23
95.735015314
 33
0.0
 14
250.4539875894
 24
89.7283411522
 34
0.0
100
AcDbRotatedDimension
  0
DIMENSION
  5
1A2
330
1F
100
AcDbEntity
  8
VERMASSUNG
100
AcDbDimension
  2
_D_1
 10
140.4539875894
 20
70.7283411522
 30
0.0
 11
195.4539875894
 21
70.7283411522
 31
0.0
 70
   160
  1
<>
 71
     2
 42
-1.0
  3
SLDDIMSTYLE0
100
AcDbAlignedDimension
 13
250.4539875894
 23
89.7283411522
 33
0.0
 14
140.4539875894
 24
87.0283411522
 34
0.0
100
AcDbRotatedDimension
  0
DIMENSION
  5
1AC
330
1F
100
AcDbEntity
  8
VERMASSUNG
100
AcDbDimension
  2
_D_2
 10
268.0680566273
 20
111.7283411522
 30
0.0
 11
268.0680566273
 21
100.7283411522
 31
0.0
 70
   160
  1
<>
 71
     2
 42
-1.0
  3
SLDDIMSTYLE0
100
AcDbAlignedDimension
 13
250.4539875894
 23
89.7283411522
 33
0.0
 14
250.4539875894
 24
111.7283411522
 34
0.0
 50
90.0
100
AcDbRotatedDimension
  0
DIMENSION
  5
1B6
330
1F
100
AcDbEntity
  8
VERMASSUNG
100
AcDbDimension
  2
_D_3
 10
250.4524654686
 20
90.1621441466
 30
0.0
 11
257.043903154
 21
96.8816359588
 31
0.0
 70
   162
  1
<>
 71
     1
 42
-1.0
  3
SLDDIMSTYLE1
100
AcDb2LineAngularDimension
 13
260.6201783585
 23
89.7283411522
 33
0.0
 14
250.4539875894
 24
89.7283411522
 34
0.0
 15
249.3993123679
 25
102.1704161941
 35
0.0
 16
257.043903154
 26
96.8816359588
 36
0.0
  0
DIMENSION
  5
1BF
330
1F
100
AcDbEntity
  8
VERMASSUNG
100
AcDbDimension
  2
_D_4
 10
102.7618048507
 20
86.7283411522
 30
0.0
 11
102.7618048507
 21
111.7283411522
 31
0.0
 70
   160
  1
PSC%%c<>
 71
     2
 42
-1.0
  3
SLDDIMSTYLE0
100
AcDbAlignedDimension
 13
140.7539875894
 23
136.7283411522
 33
0.0
 14
140.7539875894
 24
86.7283411522
 34
0.0
 50
90.0
100
AcDbRotatedDimension
  0
DIMENSION
  5
1CB
330
1F
100
AcDbEntity
  8
VERMASSUNG
100
AcDbDimension
  2
_D_5
 10
182.48115868
 20
127.7283411522
 30
0.0
 11
182.48115868
 21
103.1128640171
 31
0.0
 70
   160
  1
%%c<>
 71
     2
 42
-1.0
  3
SLDDIMSTYLE0
100
AcDbAlignedDimension
 13
164.4539875894
 23
95.7283411522
 33
0.0
 14
164.4539875894
 24
127.7283411522
 34
0.0
 50
90.0
100
AcDbRotatedDimension
  0
LINE
  5
1D4
330
1F
100
AcDbEntity
  8
0
  6
Continuous
 62
     7
370
    15
100
AcDbLine
 10
56.1032274299
 20
89.7283411522
 30
0.0
 11
59.3251277242
 21
90.3546151274
 31
0.0
  0
LINE
  5
1D5
330
1F
100
AcDbEntity
  8
0
  6
Continuous
 62
     7
370
    15
100
AcDbLine
 10
55.4360965435
 20
103.5694334156
 30
0.0
 11
55.134257823
 21
103.5852521126
 31
0.0
  0
SPLINE
  5
1D6
330
1F
100
AcDbEntity
  8
0
  6
Continuous
 62
     7
370
    15
100
AcDbSpline
210
0.0
220
0.0
230
1.0
 70
     8
 71
     3
 72
    29
 73
    25
 74
     0
 42
0.00000001
 43
0.00000001
 12
1.0
 22
0.0
 32
0.0
 13
1.0
 23
0.0
 33
0.0
 40
0.0
 40
0.0
 40
0.0
 40
0.0
 40
0.0248585524659857
 40
0.0497062406956554
 40
0.0745560622304613
 40
0.0994210112664569
 40
0.1243140583099935
 40
0.1554263774914606
 40
0.1865867279805269
 40
0.2489251963033728
 40
0.311330381802546
 40
0.373796082780507
 40
0.4363152917591029
 40
0.4988803158591476
 40
0.5614828870091134
 40
0.6241142219351267
 40
0.6867652256274506
 40
0.7494264786089487
 40
0.8120885030433328
 40
0.8434043211225412
 40
0.8747479337716951
 40
0.9164935886811159
 40
0.9582246595435644
 40
1.0
 40
1.0
 40
1.0
 40
1.0
 10
60.74709805820281
 20
91.55526935983559
 30
0.0
 10
60.88250248714833
 20
91.60104792892916
 30
0.0
 10
61.15325216759062
 20
91.69258505995
 30
0.0
 10
61.55512274568739
 20
91.84168097428983
 30
0.0
 10
61.95365646040804
 20
91.99933615544045
 30
0.0
 10
62.34856444762028
 20
92.16640378123425
 30
0.0
 10
62.77229596032927
 20
92.35722403199954
 30
0.0
 10
63.22349276533883
 20
92.57466052369425
 30
0.0
 10
63.85920976406781
 20
92.90384866940933
 30
0.0
 10
64.6363051062593
 20
93.34975454294515
 30
0.0
 10
65.53698580123047
 20
93.9376816213647
 30
0.0
 10
66.4033244346369
 20
94.5767249706269
 30
0.0
 10
67.23238390915219
 20
95.26481858269528
 30
0.0
 10
68.02149740181655
 20
95.99960314982775
 30
0.0
 10
68.7679613298151
 20
96.77874057910091
 30
0.0
 10
69.46940496763291
 20
97.59955320311968
 30
0.0
 10
70.1234096459917
 20
98.45941612289232
 30
0.0
 10
70.72788509286855
 20
99.35539335083936
 30
0.0
 10
71.18864074004152
 20
100.1297213928754
 30
0.0
 10
71.53053569005299
 20
100.7642581617842
 30
0.0
 10
71.80043438517649
 20
101.3008488991191
 30
0.0
 10
72.07729493713259
 20
101.9008343355581
 30
0.0
 10
72.35626755421012
 20
102.5658570784433
 30
0.0
 10
72.52087557709382
 20
103.0177211347884
 30
0.0
 10
72.6032232206965
 20
103.2437729372274
 30
0.0
  0
SPLINE
  5
1D7
330
1F
100
AcDbEntity
  8
0
  6
Continuous
 62
     7
370
    15
100
AcDbSpline
210
0.0
220
0.0
230
1.0
 70
    24
 71
     3
 72
    10
 73
     6
 74
     0
 42
0.00000001
 43
0.00000001
 12
1.0
 22
0.0
 32
0.0
 13
1.0
 23
0.0
 33
0.0
 40
0.0
 40
0.0
 40
0.0
 40
0.0
 40
0.3293635822219668
 40
0.6626577436969632
 40
1.0
 40
1.0
 40
1.0
 40
1.0
 10
72.60322742989638
 20
103.2437740316905
 30
0.0
 10
72.60322742989638
 20
103.1088880512663
 30
0.0
 10
72.60322742989638
 20
102.8375063798584
 30
0.0
 10
72.60322742989639
 20
102.4304647133889
 30
0.0
 10
72.60322742989638
 20
102.1592765202947
 30
0.0
 10
72.60322742989638
 20
102.022863950807
 30
0.0
  0
SPLINE
  5
1D8
330
1F
100
AcDbEntity
  8
0
  6
Continuous
 62
     7
370
    15
100
AcDbSpline
210
0.0
220
0.0
230
1.0
 70
     8
 71
     3
 72
    25
 73
    21
 74
     0
 42
0.00000001
 43
0.00000001
 12
1.0
 22
0.0
 32
0.0
 13
1.0
 23
0.0
 33
0.0
 40
0.0
 40
0.0
 40
0.0
 40
0.0
 40
0.019999885503709
 40
0.04088284193481
 40
0.0626488720922865
 40
0.0923707151455009
 40
0.1253136303742936
 40
0.1879819105471891
 40
0.250651141927114
 40
0.3133132887856428
 40
0.3759603830168221
 40
0.5011343245870197
 40
0.626158168207475
 40
0.6898548645415409
 40
0.7510243910057829
 40
0.8143052716328021
 40
0.8756460386477739
 40
0.9177870009274177
 40
0.9592380417273998
 40
1.0
 40
1.0
 40
1.0
 40
1.0
 10
72.60322744047401
 20
102.0228614442582
 30
0.0
 10
72.56003904071085
 20
101.9204943312113
 30
0.0
 10
72.4717553092561
 20
101.7112402081693
 30
0.0
 10
72.32947365083362
 20
101.3936727405755
 30
0.0
 10
72.15895602583156
 20
101.0297250907358
 30
0.0
 10
71.95063773913584
 20
100.6097090396733
 30
0.0
 10
71.62500285992351
 20
99.99479483506269
 30
0.0
 10
71.18240708087063
 20
99.2355614780414
 30
0.0
 10
70.60953777413397
 20
98.36349041844593
 30
0.0
 10
69.99110299406274
 20
97.52360520082372
 30
0.0
 10
69.10866719038567
 20
96.45050693049704
 30
0.0
 10
67.90092040338749
 20
95.20134095914106
 30
0.0
 10
66.56188194549728
 20
94.08537174367646
 30
0.0
 10
65.42896848626549
 20
93.28775776196886
 30
0.0
 10
64.54470943953814
 20
92.73398548045125
 30
0.0
 10
63.64314100566672
 20
92.23497383487256
 30
0.0
 10
62.81074149715861
 20
91.83123164080736
 30
0.0
 10
62.0721009284248
 20
91.51385121240041
 30
0.0
 10
61.42923269820465
 20
91.2630996457892
 30
0.0
 10
60.99709057769407
 20
91.11681868514842
 30
0.0
 10
60.7828305545494
 20
91.0442912444641
 30
0.0
  0
LINE
  5
1D9
330
1F
100
AcDbEntity
  8
0
  6
Continuous
 62
     7
370
    15
100
AcDbLine
 10
59.9736614042
 20
102.6159508612
 30
0.0
 11
57.6012630197
 21
102.4241312645
 31
0.0
  0
LINE
  5
1DA
330
1F
100
AcDbEntity
  8
0
  6
Continuous
 62
     7
370
    15
100
AcDbLine
 10
57.6012630197
 20
102.4241312645
 30
0.0
 11
55.5098852203
 21
102.5142061761
 31
0.0
  0
LINE
  5
1DB
330
1F
100
AcDbEntity
  8
0
  6
Continuous
 62
     7
370
    15
100
AcDbLine
 10
55.415768039
 20
103.8601445743
 30
0.0
 11
55.5098852203
 21
102.5142061761
 31
0.0
  0
LINE
  5
1DC
330
1F
100
AcDbEntity
  8
0
  6
Continuous
 62
     7
370
    15
100
AcDbLine
 10
72.6032274299
 20
104.313385317
 30
0.0
 11
55.415768039
 21
103.8601445743
 31
0.0
  0
LINE
  5
1DD
330
1F
100
AcDbEntity
  8
0
  6
Continuous
 62
     7
370
    15
100
AcDbLine
 10
72.6032274299
 20
103.2437743895
 30
0.0
 11
72.6032274299
 21
104.313385317
 31
0.0
  0
LINE
  5
1DE
330
1F
100
AcDbEntity
  8
0
  6
Continuous
 62
     7
370
    15
100
AcDbLine
 10
59.9959064858
 20
102.2978313743
 30
0.0
 11
59.9736614042
 21
102.6159508612
 31
0.0
  0
ARC
  5
1DF
330
1F
100
AcDbEntity
  8
0
  6
Continuous
 62
     7
370
    15
100
AcDbCircle
 10
56.1032274299
 20
111.7283411522
 30
0.0
 40
16.50000000000002
100
AcDbArc
 50
0.0
 51
98.2912714864
  0
LINE
  5
1E0
330
1F
100
AcDbEntity
  8
0
  6
Continuous
 62
     7
370
    15
100
AcDbLine
 10
72.6032274299
 20
104.313385317
 30
0.0
 11
72.6032274299
 21
111.7283411522
 31
0.0
  0
LINE
  5
1E1
330
1F
100
AcDbEntity
  8
0
  6
Continuous
 62
     7
370
    15
100
AcDbLine
 10
53.7238374442
 20
128.0558793406
 30
0.0
 11
55.415768039
 21
103.8601445743
 31
0.0
  0
SPLINE
  5
1E2
330
1F
100
AcDbEntity
  8
0
  6
Continuous
 62
     7
370
    15
100
AcDbSpline
210
0.0
220
0.0
230
1.0
 70
     8
 71
     3
 72
    14
 73
    10
 74
     0
 42
0.00000001
 43
0.00000001
 12
1.0
 22
0.0
 32
0.0
 13
1.0
 23
0.0
 33
0.0
 40
0.0
 40
0.0
 40
0.0
 40
0.0
 40
0.2499999999999998
 40
0.2499999999999998
 40
0.4999999999999999
 40
0.4999999999999999
 40
0.7499999999999999
 40
0.7499999999999999
 40
1.0
 40
1.0
 40
1.0
 40
1.0
 10
51.56374371400359
 20
127.0708666154891
 30
0.0
 10
51.87175111502644
 20
127.1619985862105
 30
0.0
 10
52.16157291609487
 20
127.2377042049622
 30
0.0
 10
52.70167956269441
 20
127.3650433209976
 30
0.0
 10
52.9382738769157
 20
127.4135074139996
 30
0.0
 10
53.33802804403457
 20
127.4888945691725
 30
0.0
 10
53.49258198873432
 20
127.5142866540228
 30
0.0
 10
53.70482832028716
 20
127.547924797701
 30
0.0
 10
53.75881681319606
 20
127.5556510581438
 30
0.0
 10
53.75881681319606
 20
127.5556510581438
 30
0.0
  0
SPLINE
  5
1E3
330
1F
100
AcDbEntity
  8
0
  6
Continuous
 62
     7
370
    15
100
AcDbSpline
210
0.0
220
0.0
230
1.0
 70
     8
 71
     3
 72
    10
 73
     6
 74
     0
 42
0.00000001
 43
0.00000001
 12
1.0
 22
0.0
 32
0.0
 13
1.0
 23
0.0
 33
0.0
 40
0.0
 40
0.0
 40
0.0
 40
0.0
 40
0.2747854777246564
 40
0.6521794191128313
 40
1.0
 40
1.0
 40
1.0
 40
1.0
 10
55.68317821514326
 20
95.73532478128547
 30
0.0
 10
55.57748556785668
 20
95.73798798526383
 30
0.0
 10
55.32663326706319
 20
95.74430886815021
 30
0.0
 10
54.63055276643416
 20
95.78612648092597
 30
0.0
 10
54.03082452952616
 20
95.86535515404908
 30
0.0
 10
53.74318850276637
 20
95.90335406645659
 30
0.0
  0
ELLIPSE
  5
1E4
330
1F
100
AcDbEntity
  8
0
  6
Continuous
 62
     7
370
    15
100
AcDbEllipse
 10
48.2938528118
 20
104.8098903901
 30
0.0
 11
-1.654506653606625
 21
1.94514150331571
 31
0.0
210
0.0
220
0.0
230
1.0
 40
0.8051687171
 41
0.0
 42
6.283185307179586
  0
ARC
  5
1E5
330
1F
100
AcDbEntity
  8
0
  6
Continuous
 62
     7
370
    15
100
AcDbCircle
 10
56.1032274299
 20
111.7283411522
 30
0.0
 40
16.00000000000001
100
AcDbArc
 50
106.4822165171
 51
261.5177834829
  0
SPLINE
  5
1E6
330
1F
100
AcDbEntity
  8
0
  6
Continuous
 62
     7
370
    15
100
AcDbSpline
210
0.0
220
0.0
230
1.0
 70
     8
 71
     3
 72
    14
 73
    10
 74
     0
 42
0.00000001
 43
0.00000001
 12
1.0
 22
0.0
 32
0.0
 13
1.0
 23
0.0
 33
0.0
 40
0.0
 40
0.0
 40
0.0
 40
0.0
 40
0.2215459959057454
 40
0.3821721991706396
 40
0.4939548034223857
 40
0.5871782803638455
 40
0.7076723936028247
 40
0.9610123655515362
 40
1.0
 40
1.0
 40
1.0
 40
1.0
 10
48.3005825839284
 20
107.0492683169598
 30
0.0
 10
48.18701263803528
 20
106.9826226495231
 30
0.0
 10
47.99110173563228
 20
106.8676572619277
 30
0.0
 10
47.64546319665853
 20
106.7862619930075
 30
0.0
 10
47.36159197735714
 20
106.7098492838455
 30
0.0
 10
47.09522094809588
 20
106.6210996608818
 30
0.0
 10
46.7563098069234
 20
106.4915273111361
 30
0.0
 10
46.49914193936156
 20
106.3657962774716
 30
0.0
 10
46.33465972458868
 20
106.3677122447011
 30
0.0
 10
46.31272278697997
 20
106.3679677766055
 30
0.0
  0
CIRCLE
  5
1E7
330
1F
100
AcDbEntity
  8
0
  6
Continuous
 62
     7
370
    15
100
AcDbCircle
 10
56.1032274299
 20
111.7283411522
 30
0.0
 40
24.99999999999999
  0
LINE
  5
1E8
330
1F
100
AcDbEntity
  8
0
  6
Continuous
 62
     7
370
    15
100
AcDbLine
 10
58.4854275429
 20
102.3628871749
 30
0.0
 11
55.2331927883
 21
102.1704161941
 31
0.0
  0
LINE
  5
1E9
330
1F
100
AcDbEntity
  8
0
  6
Continuous
 62
     7
370
    15
100
AcDbLine
 10
59.9959064858
 20
102.2978313743
 30
0.0
 11
58.4854275429
 21
102.3628871749
 31
0.0
  0
LINE
  5
1EA
330
1F
100
AcDbEntity
  8
0
  6
Continuous
 62
     7
370
    15
100
AcDbLine
 10
60.8095753249
 20
90.661824862
 30
0.0
 11
59.9959064858
 21
102.2978313743
 31
0.0
  0
LINE
  5
1EB
330
1F
100
AcDbEntity
  8
0
  6
Continuous
 62
     7
370
    15
100
AcDbLine
 10
60.8095753249
 20
90.661824862
 30
0.0
 11
59.3251277242
 21
90.3546151274
 31
0.0
  0
LINE
  5
1EC
330
1F
100
AcDbEntity
  8
0
  6
Continuous
 62
     7
370
    15
100
AcDbLine
 10
59.3251277242
 20
90.3546151274
 30
0.0
 11
56.0728929695
 21
90.1621441466
 31
0.0
  0
LINE
  5
1ED
330
1F
100
AcDbEntity
  8
0
  6
Continuous
 62
     7
370
    15
100
AcDbLine
 10
56.0728929695
 20
90.1621441466
 30
0.0
 11
55.2331927883
 21
102.1704161941
 31
0.0
  0
LINE
  5
1EE
330
1F
100
AcDbEntity
  8
0
  6
Continuous
 62
     7
370
    15
100
AcDbLine
 10
56.1032274299
 20
89.7283411522
 30
0.0
 11
56.0728929695
 21
90.1621441466
 31
0.0
  0
LINE
  5
1EF
330
1F
100
AcDbEntity
  8
0
  6
Continuous
 62
     7
370
    15
100
AcDbLine
 10
58.4854275429
 20
102.3628871749
 30
0.0
 11
55.8759209495
 21
102.4984411451
 31
0.0
  0
LINE
  5
1F0
330
1F
100
AcDbEntity
  8
0
  6
Continuous
 62
     7
370
    15
100
AcDbLine
 10
55.5096571902
 20
102.5174671582
 30
0.0
 11
55.2078282474
 21
102.533146027
 31
0.0
  0
LINE
  5
1F1
330
1F
100
AcDbEntity
  8
0
  6
Continuous
 62
     7
370
    15
100
AcDbLine
 10
55.2331927883
 20
102.1704161941
 30
0.0
 11
55.2078282474
 21
102.533146027
 31
0.0
  0
LINE
  5
1F2
330
1F
100
AcDbEntity
  8
0
  6
Continuous
 62
     7
370
    15
100
AcDbLine
 10
55.4361929436
 20
103.5680548309
 30
0.0
 11
55.1343640008
 21
103.5837336997
 31
0.0
  0
LINE
  5
1F3
330
1F
100
AcDbEntity
  8
0
  6
Continuous
 62
     7
370
    15
100
AcDbLine
 10
55.2078282474
 20
102.533146027
 30
0.0
 11
55.1343640008
 21
103.5837336997
 31
0.0
  0
LINE
  5
1F4
330
1F
100
AcDbEntity
  8
0
  6
Continuous
 62
     7
370
    15
100
AcDbLine
 10
55.1343640008
 20
103.5837336997
 30
0.0
 11
55.134257823
 21
103.5852521126
 31
0.0
  0
CIRCLE
  5
1F5
330
1F
100
AcDbEntity
  8
VERMASSUNG
  6
CENTERX2
100
AcDbCircle
 10
56.1032274299
 20
109.7791819505
 30
0.0
 40
20.00000000000001
  0
DIMENSION
  5
1F6
330
1F
100
AcDbEntity
  8
VERMASSUNG
100
AcDbDimension
  2
_D_6
 10
41.9610918062
 20
95.6370463267
 30
0.0
 11
33.0737180662
 21
86.7496725868
 31
0.0
 70
   160
  1
%%c<> min. 
 71
     2
 42
-1.0
  3
SLDDIMSTYLE2
100
AcDbAlignedDimension
 13
70.2453630536
 23
123.9213175742
 33
0.0
 14
41.9610918062
 24
95.6370463267
 34
0.0
 50
45.0
100
AcDbRotatedDimension
  0
DIMENSION
  5
205
330
1F
100
AcDbEntity
  8
VERMASSUNG
100
AcDbDimension
  2
_D_7
 10
56.1032274299
 20
84.2283411522
 30
0.0
 11
42.6944525402
 21
141.5499264449
 31
0.0
 70
   162
  1
<>
 71
     1
 42
-1.0
  3
SLDDIMSTYLE3
100
AcDb2LineAngularDimension
 13
55.415768039
 23
103.8601445743
 33
0.0
 14
55.5098852203
 24
102.5142061761
 34
0.0
 15
56.1032274299
 25
139.2283411522
 35
0.0
 16
54.3800147982
 26
143.3753706413
 36
0.0
  0
INSERT
  5
21D
330
1F
100
AcDbEntity
  8
VERMASSUNG
100
AcDbBlockReference
  2
SW_CENTERMARKSYMBOL_0
 10
56.1032274299
 20
111.7283411522
 30
0.0
  0
OLE2FRAME
  5
21E
330
1F
100
AcDbEntity
  8
0
100
AcDbOle2Frame
 70
     2
  3
Paintbrush-Bild
 10
13.8511154363
 20
38.264191557
 30
0.0
 11
51.6290888628
 21
31.9806341108
 31
0.0
 71
     2
 72
     0
 73
     1
 90
    12928
310
80552BED0767C5B32B40DDAF6807D121434000000000000000006FFBDDFB85D0
310
4940DDAF6807D121434000000000000000006FFBDDFB85D04940416F4BD60AFB
310
3F4000000000000000002BED0767C5B32B40416F4BD60AFB3F40000000000000
310
0000000000000100000000010000010000000100000000000100000000320000
310
D0CF11E0A1B11AE1000000000000000000000000000000003E000300FEFF0900
310
0600000000000000000000000100000001000000000000000010000002000000
310
01000000FEFFFFFF0000000000000000FFFFFFFFFFFFFFFFFFFFFFFFFFFFFFFF
310
FFFFFFFFFFFFFFFFFFFFFFFFFFFFFFFFFFFFFFFFFFFFFFFFFFFFFFFFFFFFFFFF
310
FFFFFFFFFFFFFFFFFFFFFFFFFFFFFFFFFFFFFFFFFFFFFFFFFFFFFFFFFFFFFFFF
310
FFFFFFFFFFFFFFFFFFFFFFFFFFFFFFFFFFFFFFFFFFFFFFFFFFFFFFFFFFFFFFFF
310
FFFFFFFFFFFFFFFFFFFFFFFFFFFFFFFFFFFFFFFFFFFFFFFFFFFFFFFFFFFFFFFF
310
FFFFFFFFFFFFFFFFFFFFFFFFFFFFFFFFFFFFFFFFFFFFFFFFFFFFFFFFFFFFFFFF
310
FFFFFFFFFFFFFFFFFFFFFFFFFFFFFFFFFFFFFFFFFFFFFFFFFFFFFFFFFFFFFFFF
310
FFFFFFFFFFFFFFFFFFFFFFFFFFFFFFFFFFFFFFFFFFFFFFFFFFFFFFFFFFFFFFFF
310
FFFFFFFFFFFFFFFFFFFFFFFFFFFFFFFFFFFFFFFFFFFFFFFFFFFFFFFFFFFFFFFF
310
FFFFFFFFFFFFFFFFFFFFFFFFFFFFFFFFFFFFFFFFFFFFFFFFFFFFFFFFFFFFFFFF
310
FFFFFFFFFFFFFFFFFFFFFFFFFFFFFFFFFFFFFFFFFFFFFFFFFFFFFFFFFFFFFFFF
310
FFFFFFFFFFFFFFFFFFFFFFFFFFFFFFFFFFFFFFFFFFFFFFFFFFFFFFFFFFFFFFFF
310
FFFFFFFFFFFFFFFFFFFFFFFFFFFFFFFFFFFFFFFFFFFFFFFFFFFFFFFFFFFFFFFF
310
FFFFFFFFFFFFFFFFFFFFFFFFFFFFFFFFFFFFFFFFFFFFFFFFFFFFFFFFFFFFFFFF
310
FDFFFFFFFEFFFFFFFEFFFFFFFEFFFFFF05000000060000000700000008000000
310
090000000A0000000B0000000C0000000D0000000E0000000F00000010000000
310
11000000120000001300000014000000150000001600000017000000FEFFFFFF
310
FFFFFFFFFFFFFFFFFFFFFFFFFFFFFFFFFFFFFFFFFFFFFFFFFFFFFFFFFFFFFFFF
310
FFFFFFFFFFFFFFFFFFFFFFFFFFFFFFFFFFFFFFFFFFFFFFFFFFFFFFFFFFFFFFFF
310
FFFFFFFFFFFFFFFFFFFFFFFFFFFFFFFFFFFFFFFFFFFFFFFFFFFFFFFFFFFFFFFF
310
FFFFFFFFFFFFFFFFFFFFFFFFFFFFFFFFFFFFFFFFFFFFFFFFFFFFFFFFFFFFFFFF
310
FFFFFFFFFFFFFFFFFFFFFFFFFFFFFFFFFFFFFFFFFFFFFFFFFFFFFFFFFFFFFFFF
310
FFFFFFFFFFFFFFFFFFFFFFFFFFFFFFFFFFFFFFFFFFFFFFFFFFFFFFFFFFFFFFFF
310
FFFFFFFFFFFFFFFFFFFFFFFFFFFFFFFFFFFFFFFFFFFFFFFFFFFFFFFFFFFFFFFF
310
FFFFFFFFFFFFFFFFFFFFFFFFFFFFFFFFFFFFFFFFFFFFFFFFFFFFFFFFFFFFFFFF
310
FFFFFFFFFFFFFFFFFFFFFFFFFFFFFFFFFFFFFFFFFFFFFFFFFFFFFFFFFFFFFFFF
310
FFFFFFFFFFFFFFFFFFFFFFFFFFFFFFFFFFFFFFFFFFFFFFFFFFFFFFFFFFFFFFFF
310
FFFFFFFFFFFFFFFFFFFFFFFFFFFFFFFFFFFFFFFFFFFFFFFFFFFFFFFFFFFFFFFF
310
FFFFFFFFFFFFFFFFFFFFFFFFFFFFFFFFFFFFFFFFFFFFFFFFFFFFFFFFFFFFFFFF
310
FFFFFFFFFFFFFFFFFFFFFFFFFFFFFFFFFFFFFFFFFFFFFFFFFFFFFFFFFFFFFFFF
310
52006F006F007400200045006E00740072007900000000000000000000000000
310
0000000000000000000000000000000000000000000000000000000000000000
310
16000500FFFFFFFFFFFFFFFF020000000A00030000000000C000000000000046
310
00000000000000000000000030CE33E05442CD0103000000C000000000000000
310
01004F006C006500000000000000000000000000000000000000000000000000
310
0000000000000000000000000000000000000000000000000000000000000000
310
0A000200FFFFFFFFFFFFFFFFFFFFFFFF00000000000000000000000000000000
310
0000000000000000000000000000000000000000000000001400000000000000
310
010043006F006D0070004F0062006A0000000000000000000000000000000000
310
0000000000000000000000000000000000000000000000000000000000000000
310
120002010100000003000000FFFFFFFF00000000000000000000000000000000
310
0000000000000000000000000000000000000000010000004D00000000000000
310
01004F006C006500310030004E00610074006900760065000000000000000000
310
0000000000000000000000000000000000000000000000000000000000000000
310
1A000200FFFFFFFFFFFFFFFFFFFFFFFF00000000000000000000000000000000
310
0000000000000000000000000000000000000000040000002426000000000000
310
FEFFFFFF02000000FEFFFFFFFFFFFFFFFFFFFFFFFFFFFFFFFFFFFFFFFFFFFFFF
310
FFFFFFFFFFFFFFFFFFFFFFFFFFFFFFFFFFFFFFFFFFFFFFFFFFFFFFFFFFFFFFFF
310
FFFFFFFFFFFFFFFFFFFFFFFFFFFFFFFFFFFFFFFFFFFFFFFFFFFFFFFFFFFFFFFF
310
FFFFFFFFFFFFFFFFFFFFFFFFFFFFFFFFFFFFFFFFFFFFFFFFFFFFFFFFFFFFFFFF
310
FFFFFFFFFFFFFFFFFFFFFFFFFFFFFFFFFFFFFFFFFFFFFFFFFFFFFFFFFFFFFFFF
310
FFFFFFFFFFFFFFFFFFFFFFFFFFFFFFFFFFFFFFFFFFFFFFFFFFFFFFFFFFFFFFFF
310
FFFFFFFFFFFFFFFFFFFFFFFFFFFFFFFFFFFFFFFFFFFFFFFFFFFFFFFFFFFFFFFF
310
FFFFFFFFFFFFFFFFFFFFFFFFFFFFFFFFFFFFFFFFFFFFFFFFFFFFFFFFFFFFFFFF
310
FFFFFFFFFFFFFFFFFFFFFFFFFFFFFFFFFFFFFFFFFFFFFFFFFFFFFFFFFFFFFFFF
310
FFFFFFFFFFFFFFFFFFFFFFFFFFFFFFFFFFFFFFFFFFFFFFFFFFFFFFFFFFFFFFFF
310
FFFFFFFFFFFFFFFFFFFFFFFFFFFFFFFFFFFFFFFFFFFFFFFFFFFFFFFFFFFFFFFF
310
FFFFFFFFFFFFFFFFFFFFFFFFFFFFFFFFFFFFFFFFFFFFFFFFFFFFFFFFFFFFFFFF
310
FFFFFFFFFFFFFFFFFFFFFFFFFFFFFFFFFFFFFFFFFFFFFFFFFFFFFFFFFFFFFFFF
310
FFFFFFFFFFFFFFFFFFFFFFFFFFFFFFFFFFFFFFFFFFFFFFFFFFFFFFFFFFFFFFFF
310
FFFFFFFFFFFFFFFFFFFFFFFFFFFFFFFFFFFFFFFFFFFFFFFFFFFFFFFFFFFFFFFF
310
FFFFFFFFFFFFFFFFFFFFFFFFFFFFFFFFFFFFFFFFFFFFFFFFFFFFFFFFFFFFFFFF
310
0100000200000000000000000000000000000000000000000000000000000000
310
0000000000000000000000000000000000000000000000000000000000000000
310
0100FEFF030A0000FFFFFFFF0A00030000000000C00000000000004607000000
310
5042727573680007000000504272757368000700000050427275736800F439B2
310
7100000000000000000000000000000000000000000000000000000000000000
310
0000000000000000000000000000000000000000000000000000000000000000
310
0000000000000000000000000000000000000000000000000000000000000000
310
0000000000000000000000000000000000000000000000000000000000000000
310
0000000000000000000000000000000000000000000000000000000000000000
310
0000000000000000000000000000000000000000000000000000000000000000
310
0000000000000000000000000000000000000000000000000000000000000000
310
0000000000000000000000000000000000000000000000000000000000000000
310
0000000000000000000000000000000000000000000000000000000000000000
310
0000000000000000000000000000000000000000000000000000000000000000
310
0000000000000000000000000000000000000000000000000000000000000000
310
0000000000000000000000000000000000000000000000000000000000000000
310
20260000424D0E260000000000003E00000028000000B40200006E0000000100
310
01000000000000000000130B0000130B00000200000002000000000000FFFFFF
310
FFFFFFFFFFFFFFFFFFFFFFFFFFFFFFFFFFFFFFFFFFFFFFFFFFFFFFFFFFFFFFFF
310
FFFFFFFFFFFFFFFFFFFFFFFFFFFFFFFFFFFFFFFFFFFFFFFFFFFFFFFFFFFFFFFF
310
FFFFFFFFFFFFFFFFFFFFFFFFFFFFFFFFFFFFFFFFFFFFFFFFF000FFFFFFFFFFFF
310
FFFFFFFFFFFFFFFFFFFFFFFFFFFFFFFFFFFFFFFFFFFFFFFFFFFFFFFFFFFFFFFF
310
FFFFFFFFFFFFFFFFFFFFFFFFFFFFFFFFFFFFFFFFFFFFFFFFFFFFFFFFFFFFFFFF
310
FFFFFFFFFFFFFFFFFFFFFFFFFFFFFFFFF000FFFFFFFFFFFFFFFFFFFFFFFFFFFF
310
FFFFFFFFFFFFFFFFFFFFFFFFFFFFFFFFFFFFFFFFFFFFFFFFFFFFFFFFFFFFFFFF
310
FFFFFFFFFFFFFFFFFFFFFFFFFFFFFFFFFFFFFFFFFFFFFFFFFFFFFFFFFFFFFFFF
310
FFFFFFFFFFFFFFFFF000FFFFFFFFFFFFFFFFFFFFFFFFFFFFFFFFFFFFFFFFFFFF
310
FFFFFFFFFFFFFFFFFFFFFFFFFFFFFFFFFFFFFFFFFFFFFFFFFFFFFFFFFFFFFFFF
310
FFFFFFFFFFFFFFFFFFFFFFFFFFFFFFFFFFFFFFFFFFFFFFFFFFFFFFFFFFFFFFFF
310
F000FFFFFFFFFFFFFFFFFFFFFFFFFFFFFFFFFFFFFFFFFFFFFFFFFFFFFFFFFFFF
310
FFFFFFFFFFFFFFFFFFFFFFFFFFFFFFFFFFFFFFFFFFFFFFFFFFFFFFFFFFFFFFFF
310
FFFFFFFFFFFFFFFFFFFFFFFFFFFFFFFFFFFFFFFFFFFFFFFFF000FFFFFFFFFFFF
310
FFFFFFFFFFFFFFFFFFFFFFFFFFFFFFFFFFFFFFFFFFFFFFFFFFFFFFFFFFFFFFFF
310
FFFFFFFFFFFFFFFFFFFFFFFFFFFFFFFFFFFFFFFFFFFFFFFFFFFFFFFFFFFFFFFF
310
FFFFFFFFFFFFFFFFFFFFFFFFFFFFFFFFF000FFFFFFFFFFFFFFFFFFFFFFFFFFFF
310
FFFFFFFFFFFFFFFFFFFFFFFFFFFFFFFFFFFFFFFFFFFFFFFFFFFFFFFFFFFFFFFF
310
FFFFFFFFFFFFFFFFFFFFFFFFFFFFFFFFFFFFFFFFFFFFFFFFFFFFFFFFFFFFFFFF
310
FFFFFFFFFFFFFFFFF000FFFFFFFFFFFFFFFFFFFFFFFFFFFFFFFFFFFFFFFFFFFF
310
FFFFFFFFFFFFFFFFFFFFFFFFFFFFFFFFFFFFFFFFFFFFFFFFFFFFFFFFFFFFFFFF
310
FFFFFFFFFFFFFFFFFFFFFFFFFFFFFFFFFFFFFFFFFFFFFFFFFFFFFFFFFFFFFFFF
310
F000FFFFFFFFFFFFFFFFFFFFFFFFFFFFFFFFFFFFFFFFFFFFFFFFFFFFFFFFFFFF
310
FFFFFFFFFFFFFFFFFFFFFFFFFFFFFFFFFFFFFFFFFFFFFFFFFFFFFFFFFFFFFFFF
310
FFFFFFFFFFFFFFFFFFFFFFFFFFFFFFFFFFFFFFFFFFFFFFFFF000FFFFFFFFFFFF
310
FFFFFFFFFFFFFFFFFFFFFFFFFFFFFFFFFFFFFFFFFFFFFFFFFFFFFFFFFFFFFFFF
310
FFFFFFFFFFFFFFFFFFFFFFFFFFFFFFFFFFFFFFFFFFFFFFFFFFFFFFFFFFFFFFFF
310
FFFFFFFFFFFFFFFFFFFFFFFFFFFFFFFFF000FFFFFFFFFFFFFFFFFFFFFFFFFFFF
310
FFFFFFFFFFFFFFFFFFFFFFFFFFFFFFFFFFFFFFFFFFFFFFFFFFFFFFFFFFFFFFFF
310
FFFFFFFFFFFFFFFFFFFFFFFFFFFFFFFFFFFFFFFFFFFFFFFFFFFFFFFFFFFFFFFF
310
FFFFFFFFFFFFFFFFF000FFFFFFFFFFFFFFFFFFFFFFFFFFFFFFFFFFFFFFFFFFFF
310
FFFFFFFFFFFFFFFFFFFFFFFFFFFFFFFFFFFFFFFFFFFFFFFFFFFFFFFFFFFFFFFF
310
FFFFFFFFFFFFFFFFFFFFFFFFFFFFFFFFFFFFFFFFFFFFFFFFFFFFFFFFFFFFFFFF
310
F000FFFFFFFFFFFFFFFFFFFFFFFFFFFFFFFFFFFFFFFFFFFFFFFFFFFFFFFFFFFF
310
FFFFFFFFFFFFFFFFFFFFFFFFFFFFFFFFFFFFFFFFFFFFFFFFFFFFFFFFFFFFFFFF
310
FFFFFFFFFFFFFFFFFFFFFFFFFFFFFFFFFFFFFFFFFFFFFFFFF000FFFFFFFFFFFF
310
FFFFFFFFFFFFFFFFFFFFFFFFFFFFFFFFFFFFFFFFFFFFFFFFFFFFFFFFFFFFFFFF
310
FFFFFFFFFFFFFFFFFFFFFFFFFFFFFFFFFFFFFFFFFFFFFFFFFFFFFFFFFFFFFFFF
310
FFFFFFFFFFFFFFFFFFFFFFFFFFFFFFFFF000FFFFFFFFFFFFFFFFFFFFFFFFFFFF
310
FFFFFFFFFFFFFFFFFFFFFFFFFFFFFFFFFFFFFFFFFFFFFFFFFFFFFFFFFFFFFFFF
310
FFFFFFFFFFFFFFFFFFFFFFFFFFFFFFFFFFFFFFFFFFFFFFFFFFFFFFFFFFFFFFFF
310
FFFFFFFFFFFFFFFFF000FFFFFFFFFFFFFFFFFFFFFFFFFFFFFFFFFFFFFFFFFFFF
310
FFFFFFFFFFFFFFFFFFFFFFFFFFFFFFFFFFFFFFFFFFFFFFFFFFFFFFFFFFFFFFFF
310
FFFFFFFFFFFFFFFFFFFFFFFFFFFFFFFFFFFFFFFFFFFFFFFFFFFFFFFFFFFFFFFF
310
F000FFFFFFFFFFFFFFFFFFFFFFFFFFFFFFFFFFFFFFFFFFFFFFFFFFFFFFFFFFFF
310
FFFFFFFFFFFFFFFFFFFFFFFFFFFFFFFFFFFFFFFFFFFFFFFFFFFFFFFFFFFFFFFF
310
FFFFFFFFFFFFFFFFFFFFFFFFFFFFFFFFFFFFFFFFFFFFFFFFF000FFFFFFFFFFFF
310
FFFFFFFFFFFFFFFFFFFFFFFFFFFFFFFFFFFFFFFFFFFFFFFFFFFFFFFFFFFFFFFF
310
FFFFFFFFFFFFFFFFFFFFFFFFFFFFFFFFFFFFFFFFFFFFFFFFFFFFFFFFFFFFFFFF
310
FFFFFFFFFFFFFFFFFFFFFFFFFFFFFFFFF000FFFFFFFFFFFFFFFFFFFFFFFFFFFF
310
FFFFFFFFFFFFFFFFFFFFFFFFFFFFFFFFFFFFFFFFFFFFFFFFFFFFFFFFFFFFFFFF
310
FFFFFFFFFFFFFFFFFFFFFFFFFFFFFFFFFFFFFFFFFFFFFFFFFFFFFFFFFFFFFFFF
310
FFFFFFFFFFFFFFFFF000FFFFF80003FFFFFFFFFFFFFFFFFFFFFFFFFFFFFFFFFF
310
FFFFF00007FFFFFFFFFF00007FFFFFF800000000000000007FFFFFFFFFFFFFFF
310
FFFFFFFC001FFFFFFFFFFFFFFC001FFFFFFFFFFFFFFFFFFFFFFFFFFE0007FFFF
310
F000FFFF8000007FFFFFFFF8000FFFFFC0007FFFFF80007FFFFF0000007FFFFF
310
FFF8000007FFFFF800000000000000007FFFFFF0001FFFFFFFFFFFC00001FFFF
310
FFFFFFFFC00001FFFFFFFF000000000003FFFFE000007FFFF000FFFE0000000F
310
FFFFFFF0000FFFFF80007FFFFF80007FFFFC0000001FFFFFFFC0000001FFFFF8
310
00000000000000007FFFFFF0001FFFFFFFFFFE0000003FFFFFFFFFFE0000003F
310
FFFFFF000000000003FFFF0000000FFFF000FFF800000003FFFFFFF00007FFFF
310
80007FFFFF80007FFFF000000007FFFFFF000000003FFFF80000000000000000
310
7FFFFFF0001FFFFFFFFFF80000000FFFFFFFFFF80000000FFFFFFF0000000000
310
03FFFC00000003FFF000FFE000000000FFFFFFF00007FFFF80003FFFFF80007F
310
FFC000000001FFFFFC000000001FFFF800000000000000007FFFFFF0001FFFFF
310
FFFFE000000003FFFFFFFFE000000003FFFFFF000000000003FFF000000000FF
310
F000FF80000000007FFFFFF00007FFFF80003FFFFF80007FFF8000000000FFFF
310
F80000000007FFF800000000000000007FFFFFF0001FFFFFFFFFC000000001FF
310
FFFFFFC000000001FFFFFF000000000003FFC0000000007FF000FF0000000000
310
3FFFFFE00007FFFF00003FFFFF80007FFE00000000003FFFF00000000003FFF8
310
00000000000000007FFFFFF0001FFFFFFFFF8000000000FFFFFFFF8000000000
310
FFFFFF000000000003FF80000000003FF000FE00000000001FFFFFE00003FFFF
310
00003FFFFF80007FFC00000000001FFFE00000000001FFF8000001FFFE000000
310
7FFFFFF0001FFFFFFFFE00000000003FFFFFFE00000000003FFFFF0000000000
310
03FF00000000001FF000FC00000000000FFFFFE00003FFFF00001FFFFF80007F
310
F800000000001FFFC00000000000FFF8000001FFFE0000007FFFFFF0001FFFFF
310
FFFC00000000001FFFFFFC00000000001FFFFF000000000003FE00000000000F
310
F000F8000000000007FFFFE00003FFFF00001FFFFF80007FF800000000000FFF
310
800000000000FFF8000001FFFE0000007FFFFFF0001FFFFFFFF800000000000F
310
FFFFF800000000000FFFFF000000000003FC000000000007F000F80000000000
310
03FFFFC00003FFFE00001FFFFF80007FF0000000000007FF0000000000007FF8
310
000001FFFE0000007FFFFFF0001FFFFFFFF0000000000007FFFFF00000000000
310
07FFFF000000000003F8000000000003F000F0000000000003FFFFC00001FFFE
310
00001FFFFF80007FE0000000000007FE0000000000003FF8000001FFFE000000
310
7FFFFFF0001FFFFFFFF0000000000007FFFFF0000000000007FFFF0000000000
310
03F800001F800003F000E00001FFF00001FFFFC00001FFFE00000FFFFF80007F
310
E00001FFE00003FE00001FFF00003FF8000001FFFE0000007FFFFFF0001FFFFF
310
FFE000003E000003FFFFE000003E000003FFFF000000000003F00001FFF80001
310
F000E00007FFFC0001FFFFC00001FFFE00000FFFFF80007FC0000FFFFC0003FC
310
0000FFFFC0001FF8000001FFFE0000007FFFFFF0001FFFFFFFC00003FFE00001
310
FFFFC00003FFE00001FFFF0001FFFFFFFFF00007FFFE0001F000E0000FFFFF00
310
00FFFF800001FFFC00000FFFFF80007FC0001FFFFE0001FC0001FFFFE0001FF8
310
000001FFFE0000007FFFFFF0001FFFFFFF80000FFFF80000FFFF80000FFFF800
310
00FFFF0003FFFFFFFFE0000FFFFF8000F000C0003FFFFF8000FFFF800000FFFC
310
000007FFFF80007F80003FFFFF0001FC0003FFFFF0001FF8000001FFFE000000
310
7FFFFFF0001FFFFFFF80003FFFFE0000FFFF80003FFFFE0000FFFF0003FFFFFF
310
FFE0003FFFFF8000F000C0003FFFFF8000FFFF800000FFFC000007FFFF80007F
310
80007FFFFF8001F80007FFFFF8000FF8000001FFFE0000007FFFFFF0001FFFFF
310
FF00007FFFFF00007FFF00007FFFFF00007FFF0003FFFFFFFFE0003FFFFFC000
310
F000C0007FFFFFC000FFFF000000FFFC000007FFFF80007F8000FFFFFF8000F8
310
000FFFFFF8000FF8000001FFFE0000007FFFFFF0001FFFFFFF0000FFFFFF8000
310
7FFF0000FFFFFF80007FFF0003FFFFFFFFC0007FFFFFC00070008000FFFFFFC0
310
00FFFF000000FFF8000007FFFF80007F8000FFFFFF8000F8000FFFFFF8000FF8
310
000001FFFE0000007FFFFFF0001FFFFFFE0001FFFFFFC0003FFE0001FFFFFFC0
310
003FFF0003FFFFFFFFC0007FFFFFE00070008000FFFFFFC0007FFF0000007FF8
310
000003FFFF80007F0001FFFFFF8000F8000FFFFFF8000FF8000001FFFE000000
310
7FFFFFF0001FFFFFFE0001FFFFFFC0003FFE0001FFFFFFC0003FFF0003FFFFFF
310
FFC000FFFFFFE00070008000FFFFFFC0007FFF0000007FF8000003FFFF80007F
310
0001FFFFFF8000F8001FFFFFF8000FF8000001FFFE0000007FFFFFF0001FFFFF
310
FE0003FFFFFFE0003FFE0003FFFFFFE0003FFF0003FFFFFFFFC000FFFFFFE000
310
70008000FFFFFFC0007FFE0000007FF8000003FFFF80007F0001FFFFFF8000F0
310
001FFFFFF8000FF8000001FFFE0000007FFFFFF0001FFFFFFC0003FFFFFFE000
310
1FFC0003FFFFFFE0001FFF0003FFFFFFFFC000FFFFFFC00070008000FFFFFF80
310
007FFE0000007FF0000003FFFF80007F0001FFFFFF0000F0001FFFFFF8000FF8
310
000001FFFE0000007FFFFFF0001FFFFFFC0007FFFFFFF0001FFC0007FFFFFFF0
310
001FFF0003FFFFFFFFC000FFFFFFC00070008001FFFFFF0000FFFE0000003FF0
310
000001FFFF80007F0001FFFFFF0000F8001FFFFFF0000FF8000001FFFE000000
310
7FFFFFF0001FFFFFFC0007FFFFFFF0001FFC0007FFFFFFF0001FFF0003FFFFFF
310
FFC001FFFFFF80007000FFFFFFFFFE0000FFFE0008003FF0008001FFFF80007F
310
FFFFFFFFFC0000FFFFFFFFFFE0000FF8000001FFFE0000007FFFFFF0001FFFFF
310
F8000FFFFFFFF8000FF8000FFFFFFFF8000FFF0003FFFFFFFFFFFFFFFFFF0000
310
7000FFFFFFFFFC0000FFFC0008003FF0008001FFFF80007FFFFFFFFFF80001FF
310
FFFFFFFF80000FF8000001FFFE0000007FFFFFF0001FFFFFF8000FFFFFFFF800
310
0FF8000FFFFFFFF8000FFF0003FFFFFFFFFFFFFFFFFE0000F000FFFFFFFFE000
310
00FFFC000C003FE000C001FFFF80007FFFFFFFFFC00001FFFFFFFFFE00001FF8
310
000001FFFE0000007FFFFFF0001FFFFFF8000FFFFFFFF8000FF8000FFFFFFFF8
310
000FFF0003FFFFFFFFFFFFFFFFF00000F000FFFFFFFE000001FFFC000C001FE0
310
00C000FFFF80007FFFFFFFFE000001FFFFFFFFE000001FF80FFFFFFFFFFFFFC0
310
7FFFFFF0001FFFFFF8000FFFFFFFF8000FF8000FFFFFFFF8000FFF0003FFFFFF
310
FFFFFFFFFF800000F000FFFFFFC0000001FFFC001C001FE001C000FFFF80007F
310
FFFFFF80000003FFFFFFF80000001FF80FFFFFFFFFFFFFC07FFFFFF0001FFFFF
310
F8001FFFFFFFFC000FF8001FFFFFFFFC000FFF0003FFFFFFFFFFFFFFF0000001
310
F000FFFFF800000001FFF8001C001FE001C000FFFF80007FFFFFF800000003FF
310
FFFF800000003FF80FFFFFFFFFFFFFC07FFFFFF0001FFFFFF8001FFFFFFFFC00
310
0FF8001FFFFFFFFC000FFF0003FFFFFFFFFFFFFE00000001F000FFFFC0000000
310
03FFF8001E001FC001E000FFFF80007FFFFF8000000007FFFFFC000000003FF8
310
0FFFFFFFFFFFFFC07FFFFFF0001FFFFFF8001FFFFFFFFC000FF8001FFFFFFFFC
310
000FFF0003FFFFFFFFFFFFE000000003F000FFFE0000000007FFF8001E000FC0
310
01E0007FFF80007FFFFE0000000007FFFFE0000000007FF80FFFFFFFFFFFFFC0
310
7FFFFFF0001FFFFFF0001FFFFFFFFC0007F0001FFFFFFFFC0007FF0003FFFFFF
310
FFFFFF0000000003F000FFF80000000007FFF8001E000FC003E0007FFF80007F
310
FFF0000000000FFFFF8000000000FFF80FFFFFFFFFFFFFC07FFFFFF0001FFFFF
310
F0001FFFFFFFFC0007F0001FFFFFFFFC0007FF0003FFFFFFFFFFFC0000000007
310
F000FFE0000000000FFFF0003E000FC003E0007FFF80007FFFC0000000001FFF
310
FE0000000001FFF80FFFFFFFFFFFFFC07FFFFFF0001FFFFFF0001FFFFFFFFC00
310
07F0001FFFFFFFFC0007FF0003FFFFFFFFFFF0000000000FF000FFC000000000
310
1FFFF0003F000F8003F0003FFF80007FFF80000000003FFFF80000000003FFF8
310
0FFFFFFFFFFFFFC07FFFFFF0001FFFFFF0001FFFFFFFFC0007F0001FFFFFFFFC
310
0007FF0003FFFFFFFFFFE0000000001FF000FF00000000007FFFF0003F000780
310
03F0003FFF80007FFF00000000007FFFF00000000007FFF80FFFFFFFFFFFFFC0
310
7FFFFFF0001FFFFFF0001FFFFFFFFC0007F0001FFFFFFFFC0007FF0003FFFFFF
310
FFFF80000000007FF000FE0000000000FFFFE0003F00078007F0003FFF80007F
310
FE0000000001FFFFE0000000001FFFF80FFFFFFFFFFFFFC07FFFFFF0001FFFFF
310
F0001FFFFFFFFC0007F0001FFFFFFFFC0007FF0003FFFFFFFFFF0000000000FF
310
F000FC0000000003FFFFE0007F00078007F0003FFF80007FFC0000000007FFFF
310
C0000000007FFFF80FFFFFFFFFFFFFC07FFFFFF0001FFFFFF8001FFFFFFFFC00
310
0FF8001FFFFFFFFC000FFF0003FFFFFFFFFE0000000003FFF000FC000000000F
310
FFFFE0007F80070007F8001FFF80007FF8000000001FFFFF8000000001FFFFF8
310
0FFFFFFFFFFFFFC07FFFFFF0001FFFFFF8001FFFFFFFFC000FF8001FFFFFFFFC
310
000FFF0003FFFFFFFFFC000000000FFFF000F8000000007FFFFFE0007F800700
310
07F8001FFF80007FF000000000FFFFFF800000000FFFFFF80FFFFFFFFFFFFFC0
310
7FFFFFF0001FFFFFF8000FFFFFFFF8000FF8000FFFFFFFF8000FFF0003FFFFFF
310
FFFC000000007FFFF000F800000007FFFFFFC0007F8003000FF8001FFF80007F
310
F000000007FFFFFF000000007FFFFFF80FFFFFFFFFFFFFC07FFFFFF0001FFFFF
310
F8000FFFFFFFF8000FF8000FFFFFFFF8000FFF0003FFFFFFFFF80000000FFFFF
310
F000F0000000FFFFFFFFC000FF8003000FF8001FFF80007FE0000000FFFFFFFF
310
0000000FFFFFFFF8000001FFFE0000007FFFFFF0001FFFFFF8000FFFFFFFF800
310
0FF8000FFFFFFFF8000FFF0003FFFFFFFFF8000000FFFFFFF000F000000FFFFF
310
FFFFC000FFC002000FF8000FFF80007FE000001FFFFFFFFE000001FFFFFFFFF8
310
000001FFFE0000007FFFFFF0001FFFFFF8000FFFFFFFF8000FF8000FFFFFFFF8
310
000FFF0003FFFFFFFFF000001FFFFFFFF000E00000FFFFFFFFFFC000FFC00200
310
0FFC000FFF80007FE00001FFFFFFFFFE00001FFFFFFFFFF8000001FFFE000000
310
7FFFFFF0001FFFFFFC000FFFFFFFF8001FFC000FFFFFFFF8001FFF0003FFFFFF
310
FFF00001FFFFFFFFF000E00007FFFFFFFFFF8000FFC000001FFC000FFF80007F
310
C0000FFFFFFFFFFE0000FFFFFFFFFFF8000001FFFE0000007FFFFFF0001FFFFF
310
FC0007FFFFFFF0001FFC0007FFFFFFF0001FFF0003FFFFFFFFF00007FFFFFFFF
310
F000E0001FFFFFFFFFFF8000FFC000001FFC000FFF80007FC0003FFFFFFFFFFE
310
0001FFFFFFFFFFF8000001FFFE0000007FFFFFF0001FFFFFFC0007FFFFFFF000
310
1FFC0007FFFFFFF0001FFF0003FFFFFFFFF0001FFFFFFFFFF000E0003FFFFF00
310
03FF8001FFE000001FFC0007FF80007FC0007FFFFF0007FC0003FFFFF0003FF8
310
000001FFFE0000007FFFFFF0001FFFFFFC0003FFFFFFE0001FFC0003FFFFFFE0
310
001FFF0003FFFFFFFFF0003FFFFFFFFFF000E0003FFFFF0001FF8001FFE00000
310
1FFE0007FF80007FC0007FFFFE0003FC0007FFFFE0003FF8000001FFFE000000
310
7FFFFFF0001FFFFFFE0003FFFFFFE0003FFE0003FFFFFFE0003FFF0003FFFFFF
310
FFF0003FFFFF8001F000E0003FFFFF0001FF0001FFE000001FFE0007FF80007F
310
C0007FFFFE0003FC0007FFFFE0003FF8000001FFFE0000007FFFFFF0001FFFFF
310
FE0001FFFFFFC0003FFE0001FFFFFFC0003FFF0003FFFFFFFFF0003FFFFF0001
310
F000E0003FFFFF0003FF0001FFE000003FFE0007FF80007FC0007FFFFE0003FC
310
0007FFFFE0003FF8000001FFFE0000007FFFFFF0001FFFFFFF0001FFFFFFC000
310
7FFF0001FFFFFFC0007FFF0003FFFFFFFFF0003FFFFF0001F000E0003FFFFE00
310
03FF0003FFF000003FFE0003FF80007FC0007FFFFC0003FE0007FFFFE0003FF8
310
000001FFFE0000007FFFFFF0001FFFFFFF0000FFFFFF80007FFF0000FFFFFF80
310
007FFF0003FFFFFFFFF0003FFFFF0001F000E0003FFFFE0003FF0003FFF00000
310
3FFF0003FF80007FC0007FFFFC0007FE0007FFFFC0003FF8000001FFFE000000
310
7FFFFFF0001FFFFFFF80007FFFFF0000FFFF80007FFFFF0000FFFF0003FFFFFF
310
FFF0003FFFFF0003F000E0003FFFFC0003FE0003FFF000003FFF0003FF80007F
310
E0003FFFF80007FE0003FFFFC0007FF8000001FFFE0000007FFFFFF0001FFFFF
310
FF80003FFFFE0000FFFF80003FFFFE0000FFFF0003FFFFFFFFF0001FFFFE0003
310
F000F0001FFFF80003FE0003FFF000007FFF0001FF80007FE0003FFFF00007FE
310
0001FFFF80007FF8000001FFFE0000007FFFFFF0001FFFFFFFC0000FFFF80001
310
FFFFC0000FFFF80001FFFF0003FFFFFFFFF0001FFFFC0003F000F0000FFFF000
310
07FE0007FFF800007FFF0001FF80007FE0001FFFE00007FF0000FFFE00007FF8
310
000001FFFE0000007FFFFFF0001FFFFFFFC00003FFE00001FFFFC00003FFE000
310
01FFFF0003FFFFFFFFF8000FFFF80003F000F00003FFC00007FC0007FFF80000
310
7FFF8001FF80007FF00007FF80000FFF00007FF80000FFF8000001FFFE000000
310
7F80000000000001FFE000003E000003FFFFE000003E000003FFFF0003FFFFFF
310
FFF80003FFE00007F000F800000000000FFC0007FFF800007FFF8001FF80007F
310
F000000000000FFF000000000000FFF8000001FFFE0000007F80000000000001
310
FFF0000000000007FFFFF0000000000007FFFF0003FFFFFFFFFC00007E000007
310
F000F800000000000FFC0007FFF80000FFFF8000FF80007FF800000000001FFF
310
800000000001FFF8000001FFFE0000007F80000000000001FFF800000000000F
310
FFFFF800000000000FFFFF0003FFFFFFFFFC00000000000FF000FC0000000000
310
1FFC0007FFFC0000FFFF8000FF80007FF800000000003FFFC00000000001FFF8
310
000001FFFE0000007F80000000000001FFF800000000000FFFFFF80000000000
310
0FFFFF0003FFFFFFFFFE00000000001FF000FE00000000003FF8000FFFFC0000
310
FFFF8000FF80007FFC00000000003FFFC00000000003FFF8000001FFFE000000
310
7F80000000000001FFFC00000000001FFFFFFC00000000001FFFFF0003FFFFFF
310
FFFF00000000001FF000FF00000000003FF8000FFFFC0000FFFFC000FF80007F
310
FE00000000007FFFE00000000007FFF8000001FFFE0000007F80000000000001
310
FFFE00000000003FFFFFFE00000000003FFFFF0003FFFFFFFFFF80000000003F
310
F000FF80000000007FF8000FFFFC0001FFFFC0007F80007FFF0000000000FFFF
310
F0000000000FFFF800000000000000007F80000000000001FFFF8000000000FF
310
FFFFFF8000000000FFFFFF0003FFFFFFFFFFC0000000007FF000FFC000000000
310
FFF8000FFFFE0001FFFFC0007F80007FFF8000000001FFFFF8000000001FFFF8
310
00000000000000007F80000000000001FFFFC000000001FFFFFFFFC000000001
310
FFFFFF0003FFFFFFFFFFE000000000FFF000FFE000000003FFF0001FFFFE0001
310
FFFFC0007F80007FFFC000000007FFFFFE000000003FFFF80000000000000000
310
7F80000000000001FFFFE000000003FFFFFFFFE000000003FFFFFF0003FFFFFF
310
FFFFF000000003FFF000FFF80000000FFFF0001FFFFE0001FFFFE0007F80007F
310
FFF00000000FFFFFFF00000000FFFFF800000000000000007F80000000000001
310
FFFFF80000000FFFFFFFFFF80000000FFFFFFF0003FFFFFFFFFFFC0000000FFF
310
F000FFFE0000003FFFF0001FFFFE0003FFFFE0003F80007FFFFC0000003FFFFF
310
FFC0000003FFFFF800000000000000007F80000000000001FFFFFE0000003FFF
310
FFFFFFFE0000003FFFFFFF0003FFFFFFFFFFFF0000003FFFF000FFFF800000FF
310
FFF0001FFFFF0003FFFFE0003F80007FFFFF000001FFFFFFFFF800001FFFFFF8
310
00000000000000007F80000000000001FFFFFFC00001FFFFFFFFFFFFC00001FF
310
FFFFFF0003FFFFFFFFFFFFC00000FFFFF000FFFFF8000FFFFFFFFFFFFFFFFFFF
310
FFFFFFFFFFFFFFFFFFFFF0001FFFFFFFFFFF0000FFFFFFF80000000000000000
310
7FFFFFFFFFFFFFFFFFFFFFFC001FFFFFFFFFFFFFFC001FFFFFFFFFFFFFFFFFFF
310
FFFFFFFC001FFFFFF000FFFFFFFFFFFFFFFFFFFFFFFFFFFFFFFFFFFFFFFFFFFF
310
FFFFFFFFFFFFFFFFFFFFFFFFFFFFFFFFFFFFFFFFFFFFFFFFFFFFFFFFFFFFFFFF
310
FFFFFFFFFFFFFFFFFFFFFFFFFFFFFFFFFFFFFFFFFFFFFFFFFFFFFFFFFFFFFFFF
310
F000FFFFFFFFFFFFFFFFFFFFFFFFFFFFFFFFFFFFFFFFFFFFFFFFFFFFFFFFFFFF
310
FFFFFFFFFFFFFFFFFFFFFFFFFFFFFFFFFFFFFFFFFFFFFFFFFFFFFFFFFFFFFFFF
310
FFFFFFFFFFFFFFFFFFFFFFFFFFFFFFFFFFFFFFFFFFFFFFFFF000FFFFFFFFFFFF
310
FFFFFFFFFFFFFFFFFFFFFFFFFFFFFFFFFFFFFFFFFFFFFFFFFFFFFFFFFFFFFFFF
310
FFFFFFFFFFFFFFFFFFFFFFFFFFFFFFFFFFFFFFFFFFFFFFFFFFFFFFFFFFFFFFFF
310
FFFFFFFFFFFFFFFFFFFFFFFFFFFFFFFFF000FFFFFFFFFFFFFFFFFFFFFFFFFFFF
310
FFFFFFFFFFFFFFFFFFFFFFFFFFFFFFFFFFFFFFFFFFFFFFFFFFFFFFFFFFFFFFFF
310
FFFFFFFFFFFFFFFFFFFFFFFFFFFFFFFFFFFFFFFFFFFFFFFFFFFFFFFFFFFFFFFF
310
FFFFFFFFFFFFFFFFF000FFFFFFFFFFFFFFFFFFFFFFFFFFFFFFFFFFFFFFFFFFFF
310
FFFFFFFFFFFFFFFFFFFFFFFFFFFFFFFFFFFFFFFFFFFFFFFFFFFFFFFFFFFFFFFF
310
FFFFFFFFFFFFFFFFFFFFFFFFFFFFFFFFFFFFFFFFFFFFFFFFFFFFFFFFFFFFFFFF
310
F000FFFFFFFFFFFFFFFFFFFFFFFFFFFFFFFFFFFFFFFFFFFFFFFFFFFFFFFFFFFF
310
FFFFFFFFFFFFFFFFFFFFFFFFFFFFFFFFFFFFFFFFFFFFFFFFFFFFFFFFFFFFFFFF
310
FFFFFFFFFFFFFFFFFFFFFFFFFFFFFFFFFFFFFFFFFFFFFFFFF000FFFFFFFFFFFF
310
FFFFFFFFFFFFFFFFFFFFFFFFFFFFFFFFFFFFFFFFFFFFFFFFFFFFFFFFFFFFFFFF
310
FFFFFFFFFFFFFFFFFFFFFFFFFFFFFFFFFFFFFFFFFFFFFFFFFFFFFFFFFFFFFFFF
310
FFFFFFFFFFFFFFFFFFFFFFFFFFFFFFFFF000FFFFFFFFFFFFFFFFFFFFFFFFFFFF
310
FFFFFFFFFFFFFFFFFFFFFFFFFFFFFFFFFFFFFFFFFFFFFFFFFFFFFFFFFFFFFFFF
310
FFFFFFFFFFFFFFFFFFFFFFFFFFFFFFFFFFFFFFFFFFFFFFFFFFFFFFFFFFFFFFFF
310
FFFFFFFFFFFFFFFFF000FFFFFFFFFFFFFFFFFFFFFFFFFFFFFFFFFFFFFFFFFFFF
310
FFFFFFFFFFFFFFFFFFFFFFFFFFFFFFFFFFFFFFFFFFFFFFFFFFFFFFFFFFFFFFFF
310
FFFFFFFFFFFFFFFFFFFFFFFFFFFFFFFFFFFFFFFFFFFFFFFFFFFFFFFFFFFFFFFF
310
F000FFFFFFFFFFFFFFFFFFFFFFFFFFFFFFFFFFFFFFFFFFFFFFFFFFFFFFFFFFFF
310
FFFFFFFFFFFFFFFFFFFFFFFFFFFFFFFFFFFFFFFFFFFFFFFFFFFFFFFFFFFFFFFF
310
FFFFFFFFFFFFFFFFFFFFFFFFFFFFFFFFFFFFFFFFFFFFFFFFF000FFFFFFFFFFFF
310
FFFFFFFFFFFFFFFFFFFFFFFFFFFFFFFFFFFFFFFFFFFFFFFFFFFFFFFFFFFFFFFF
310
FFFFFFFFFFFFFFFFFFFFFFFFFFFFFFFFFFFFFFFFFFFFFFFFFFFFFFFFFFFFFFFF
310
FFFFFFFFFFFFFFFFFFFFFFFFFFFFFFFFF000FFFFFFFFFFFFFFFFFFFFFFFFFFFF
310
FFFFFFFFFFFFFFFFFFFFFFFFFFFFFFFFFFFFFFFFFFFFFFFFFFFFFFFFFFFFFFFF
310
FFFFFFFFFFFFFFFFFFFFFFFFFFFFFFFFFFFFFFFFFFFFFFFFFFFFFFFFFFFFFFFF
310
FFFFFFFFFFFFFFFFF000FFFFFFFFFFFFFFFFFFFFFFFFFFFFFFFFFFFFFFFFFFFF
310
FFFFFFFFFFFFFFFFFFFFFFFFFFFFFFFFFFFFFFFFFFFFFFFFFFFFFFFFFFFFFFFF
310
FFFFFFFFFFFFFFFFFFFFFFFFFFFFFFFFFFFFFFFFFFFFFFFFFFFFFFFFFFFFFFFF
310
F000FFFFFFFFFFFFFFFFFFFFFFFFFFFFFFFFFFFFFFFFFFFFFFFFFFFFFFFFFFFF
310
FFFFFFFFFFFFFFFFFFFFFFFFFFFFFFFFFFFFFFFFFFFFFFFFFFFFFFFFFFFFFFFF
310
FFFFFFFFFFFFFFFFFFFFFFFFFFFFFFFFFFFFFFFFFFFFFFFFF000FFFFFFFFFFFF
310
FFFFFFFFFFFFFFFFFFFFFFFFFFFFFFFFFFFFFFFFFFFFFFFFFFFFFFFFFFFFFFFF
310
FFFFFFFFFFFFFFFFFFFFFFFFFFFFFFFFFFFFFFFFFFFFFFFFFFFFFFFFFFFFFFFF
310
FFFFFFFFFFFFFFFFFFFFFFFFFFFFFFFFF000FFFFFFFFFFFFFFFFFFFFFFFFFFFF
310
FFFFFFFFFFFFFFFFFFFFFFFFFFFFFFFFFFFFFFFFFFFFFFFFFFFFFFFFFFFFFFFF
310
FFFFFFFFFFFFFFFFFFFFFFFFFFFFFFFFFFFFFFFFFFFFFFFFFFFFFFFFFFFFFFFF
310
FFFFFFFFFFFFFFFFF000FFFFFFFFFFFFFFFFFFFFFFFFFFFFFFFFFFFFFFFFFFFF
310
FFFFFFFFFFFFFFFFFFFFFFFFFFFFFFFFFFFFFFFFFFFFFFFFFFFFFFFFFFFFFFFF
310
FFFFFFFFFFFFFFFFFFFFFFFFFFFFFFFFFFFFFFFFFFFFFFFFFFFFFFFFFFFFFFFF
310
F000FFFFFFFFFFFFFFFFFFFFFFFFFFFFFFFFFFFFFFFFFFFFFFFFFFFFFFFFFFFF
310
FFFFFFFFFFFFFFFFFFFFFFFFFFFFFFFFFFFFFFFFFFFFFFFFFFFFFFFFFFFFFFFF
310
FFFFFFFFFFFFFFFFFFFFFFFFFFFFFFFFFFFFFFFFFFFFFFFFF000FFFFFFFFFFFF
310
FFFFFFFFFFFFFFFFFFFFFFFFFFFFFFFFFFFFFFFFFFFFFFFFFFFFFFFFFFFFFFFF
310
FFFFFFFFFFFFFFFFFFFFFFFFFFFFFFFFFFFFFFFFFFFFFFFFFFFFFFFFFFFFFFFF
310
FFFFFFFFFFFFFFFFFFFFFFFFFFFFFFFFF000FFFFFFFFFFFFFFFFFFFFFFFFFFFF
310
FFFFFFFFFFFFFFFFFFFFFFFFFFFFFFFFFFFFFFFFFFFFFFFFFFFFFFFFFFFFFFFF
310
FFFFFFFFFFFFFFFFFFFFFFFFFFFFFFFFFFFFFFFFFFFFFFFFFFFFFFFFFFFFFFFF
310
FFFFFFFFFFFFFFFFF000FFFFFFFFFFFFFFFFFFFFFFFFFFFFFFFFFFFFFFFFFFFF
310
FFFFFFFFFFFFFFFFFFFFFFFFFFFFFFFFFFFFFFFFFFFFFFFFFFFFFFFFFFFFFFFF
310
FFFFFFFFFFFFFFFFFFFFFFFFFFFFFFFFFFFFFFFFFFFFFFFFFFFFFFFFFFFFFFFF
310
F000FFFFFFFFFFFFFFFFFFFFFFFFFFFFFFFFFFFFFFFFFFFFFFFFFFFFFFFFFFFF
310
FFFFFFFFFFFFFFFFFFFFFFFFFFFFFFFFFFFFFFFFFFFFFFFFFFFFFFFFFFFFFFFF
310
FFFFFFFFFFFFFFFFFFFFFFFFFFFFFFFFFFFFFFFFFFFFFFFFF000FFFFFFFFFFFF
310
FFFFFFFFFFFFFFFFFFFFFFFFFFFFFFFFFFFFFFFFFFFFFFFFFFFFFFFFFFFFFFFF
310
FFFFFFFFFFFFFFFFFFFFFFFFFFFFFFFFFFFFFFFFFFFFFFFFFFFFFFFFFFFFFFFF
310
FFFFFFFFFFFFFFFFFFFFFFFFFFFFFFFFF0000000000000000000000000000000
310
0000000000000000000000000000000000000000000000000000000000000000
310
0000000000000000000000000000000000000000000000000000000000000000
310
0000000000000000000000000000000000000000000000000000000000000000
310
0000000000000000000000000000000000000000000000000000000000000000
310
0000000000000000000000000000000000000000000000000000000000000000
310
0000000000000000000000000000000000000000000000000000000000000000
310
0000000000000000000000000000000000000000000000000000000000000000
310
0000000000000000000000000000000000000000000000000000000000000000
310
0000000000000000000000000000000000000000000000000000000000000000
310
0000000000000000000000000000000000000000000000000000000000000000
310
0000000000000000000000000000000000000000000000000000000000000000
310
0000000000000000000000000000000000000000000000000000000000000000
310
0000000000000000000000000000000000000000000000000000000000000000
310
0000000000000000000000000000000000000000000000000000000000000000
310
0000000000000000000000000000000000000000000000000000000000000000
  1
OLE
  0
ENDSEC
  0
SECTION
  2
OBJECTS
  0
DICTIONARY
  5
C
330
0
100
AcDbDictionary
281
     1
  3
ACAD_GROUP
350
D
  3
ACAD_LAYOUT
350
1A
  3
ACAD_MLINESTYLE
350
17
  3
ACAD_PLOTSETTINGS
350
19
  3
ACAD_PLOTSTYLENAME
350
E
  0
DICTIONARY
  5
D
102
{ACAD_REACTORS
330
C
102
}
330
C
100
AcDbDictionary
281
     1
  0
DICTIONARY
  5
1A
102
{ACAD_REACTORS
330
C
102
}
330
C
100
AcDbDictionary
281
     1
  3
Layout1
350
1E
  3
Layout2
350
26
  3
Model
350
22
  0
DICTIONARY
  5
17
102
{ACAD_REACTORS
330
C
102
}
330
C
100
AcDbDictionary
281
     1
  3
Standard
350
18
  0
DICTIONARY
  5
19
102
{ACAD_REACTORS
330
C
102
}
330
C
100
AcDbDictionary
281
     1
  0
ACDBDICTIONARYWDFLT
  5
E
102
{ACAD_REACTORS
330
C
102
}
330
C
100
AcDbDictionary
281
     1
  3
Normal
350
F
100
AcDbDictionaryWithDefault
340
F
  0
LAYOUT
  5
1E
102
{ACAD_REACTORS
330
1A
102
}
330
1A
100
AcDbPlotSettings
  1

  2
none_device
  4

  6

 40
0.0
 41
0.0
 42
0.0
 43
0.0
 44
0.0
 45
0.0
 46
0.0
 47
0.0
 48
0.0
 49
0.0
140
0.0
141
0.0
142
1.0
143
1.0
 70
   688
 72
     0
 73
     0
 74
     5
  7

 75
    16
147
1.0
148
0.0
149
0.0
100
AcDbLayout
  1
Layout1
 70
     1
 71
     1
 10
0.0
 20
0.0
 11
420.0
 21
297.0
 12
0.0
 22
0.0
 32
0.0
 14
1.0000000000E+20
 24
1.0000000000E+20
 34
1.0000000000E+20
 15
-1.0000000000E+20
 25
-1.0000000000E+20
 35
-1.0000000000E+20
146
0.0
 13
0.0
 23
0.0
 33
0.0
 16
1.0
 26
0.0
 36
0.0
 17
0.0
 27
1.0
 37
0.0
 76
     0
330
1B
  0
LAYOUT
  5
26
102
{ACAD_REACTORS
330
1A
102
}
330
1A
100
AcDbPlotSettings
  1

  2
none_device
  4

  6

 40
0.0
 41
0.0
 42
0.0
 43
0.0
 44
0.0
 45
0.0
 46
0.0
 47
0.0
 48
0.0
 49
0.0
140
0.0
141
0.0
142
1.0
143
1.0
 70
   688
 72
     0
 73
     0
 74
     5
  7

 75
    16
147
1.0
148
0.0
149
0.0
100
AcDbLayout
  1
Layout2
 70
     1
 71
     2
 10
0.0
 20
0.0
 11
0.0
 21
0.0
 12
0.0
 22
0.0
 32
0.0
 14
0.0
 24
0.0
 34
0.0
 15
0.0
 25
0.0
 35
0.0
146
0.0
 13
0.0
 23
0.0
 33
0.0
 16
1.0
 26
0.0
 36
0.0
 17
0.0
 27
1.0
 37
0.0
 76
     0
330
23
  0
LAYOUT
  5
22
102
{ACAD_REACTORS
330
1A
102
}
330
1A
100
AcDbPlotSettings
  1

  2
none_device
  4

  6

 40
0.0
 41
0.0
 42
0.0
 43
0.0
 44
0.0
 45
0.0
 46
0.0
 47
0.0
 48
0.0
 49
0.0
140
0.0
141
0.0
142
1.0
143
1.0
 70
  1712
 72
     0
 73
     0
 74
     0
  7

 75
     0
147
1.0
148
0.0
149
0.0
100
AcDbLayout
  1
Model
 70
     1
 71
     0
 10
0.0
 20
0.0
 11
297.0
 21
210.0
 12
0.0
 22
0.0
 32
0.0
 14
0.0
 24
0.0
 34
0.0
 15
297.0
 25
210.0
 35
0.0
146
0.0
 13
0.0
 23
0.0
 33
0.0
 16
1.0
 26
0.0
 36
0.0
 17
0.0
 27
1.0
 37
0.0
 76
     0
330
1F
331
29
  0
MLINESTYLE
  5
18
102
{ACAD_REACTORS
330
17
102
}
330
17
100
AcDbMlineStyle
  2
Standard
 70
     0
  3

 62
   256
 51
90.0
 52
90.0
 71
     2
 49
0.5
 62
   256
  6
BYLAYER
 49
-0.5
 62
   256
  6
BYLAYER
  0
ACDBPLACEHOLDER
  5
F
102
{ACAD_REACTORS
330
E
102
}
330
E
  0
ENDSEC
  0
EOF
