  0
SECTION
  2
HEADER
  9
$ACADVER
  1
AC1015
  9
$ACADMAINTVER
 70
     6
  9
$DWGCODEPAGE
  3
ANSI_1252
  9
$INSBASE
 10
0.0
 20
0.0
 30
0.0
  9
$EXTMIN
 10
0.0
 20
0.0
 30
0.0
  9
$EXTMAX
 10
297.0
 20
210.0
 30
0.0
  9
$LIMMIN
 10
0.0
 20
0.0
  9
$LIMMAX
 10
297.0
 20
210.0
  9
$ORTHOMODE
 70
     0
  9
$REGENMODE
 70
     1
  9
$FILLMODE
 70
     1
  9
$QTEXTMODE
 70
     0
  9
$MIRRTEXT
 70
     1
  9
$LTSCALE
 40
1.0
  9
$ATTMODE
 70
     1
  9
$TEXTSIZE
 40
2.0
  9
$TRACEWID
 40
1.0
  9
$TEXTSTYLE
  7
STANDARD
  9
$CLAYER
  8
0
  9
$CELTYPE
  6
ByLayer
  9
$CECOLOR
 62
   256
  9
$CELTSCALE
 40
1.0
  9
$DISPSILH
 70
     0
  9
$DIMSCALE
 40
1.0
  9
$DIMASZ
 40
3.0
  9
$DIMEXO
 40
0.0
  9
$DIMDLI
 40
3.75
  9
$DIMRND
 40
0.0
  9
$DIMDLE
 40
0.0
  9
$DIMEXE
 40
1.0
  9
$DIMTP
 40
0.0
  9
$DIMTM
 40
0.0
  9
$DIMTXT
 40
2.0
  9
$DIMCEN
 40
2.5
  9
$DIMTSZ
 40
0.0
  9
$DIMTOL
 70
     0
  9
$DIMLIM
 70
     0
  9
$DIMTIH
 70
     1
  9
$DIMTOH
 70
     1
  9
$DIMSE1
 70
     0
  9
$DIMSE2
 70
     0
  9
$DIMTAD
 70
     1
  9
$DIMZIN
 70
     0
  9
$DIMBLK
  1

  9
$DIMASO
 70
     1
  9
$DIMSHO
 70
     1
  9
$DIMPOST
  1

  9
$DIMAPOST
  1

  9
$DIMALT
 70
     0
  9
$DIMALTD
 70
     3
  9
$DIMALTF
 40
0.0393700787
  9
$DIMLFAC
 40
1.0
  9
$DIMTOFL
 70
     1
  9
$DIMTVP
 40
0.0
  9
$DIMTIX
 70
     0
  9
$DIMSOXD
 70
     0
  9
$DIMSAH
 70
     0
  9
$DIMBLK1
  1

  9
$DIMBLK2
  1

  9
$DIMSTYLE
  2
ISO-25
  9
$DIMCLRD
 70
     0
  9
$DIMCLRE
 70
     0
  9
$DIMCLRT
 70
     0
  9
$DIMTFAC
 40
1.0
  9
$DIMGAP
 40
1.524
  9
$DIMJUST
 70
     0
  9
$DIMSD1
 70
     0
  9
$DIMSD2
 70
     0
  9
$DIMTOLJ
 70
     0
  9
$DIMTZIN
 70
     0
  9
$DIMALTZ
 70
     0
  9
$DIMALTTZ
 70
     0
  9
$DIMUPT
 70
     0
  9
$DIMDEC
 70
     2
  9
$DIMTDEC
 70
     3
  9
$DIMALTU
 70
     2
  9
$DIMALTTD
 70
     3
  9
$DIMTXSTY
  7
STANDARD
  9
$DIMAUNIT
 70
     0
  9
$DIMADEC
 70
     2
  9
$DIMALTRND
 40
0.0
  9
$DIMAZIN
 70
     0
  9
$DIMDSEP
 70
    44
  9
$DIMATFIT
 70
     3
  9
$DIMFRAC
 70
     0
  9
$DIMLDRBLK
  1

  9
$DIMLUNIT
 70
     2
  9
$DIMLWD
 70
    -2
  9
$DIMLWE
 70
    -2
  9
$DIMTMOVE
 70
     0
  9
$LUNITS
 70
     2
  9
$LUPREC
 70
     2
  9
$SKETCHINC
 40
1.0
  9
$FILLETRAD
 40
10.0
  9
$AUNITS
 70
     0
  9
$AUPREC
 70
     2
  9
$MENU
  1
.
  9
$ELEVATION
 40
0.0
  9
$PELEVATION
 40
0.0
  9
$THICKNESS
 40
0.0
  9
$LIMCHECK
 70
     0
  9
$CHAMFERA
 40
10.0
  9
$CHAMFERB
 40
10.0
  9
$CHAMFERC
 40
20.0
  9
$CHAMFERD
 40
0.0
  9
$SKPOLY
 70
     0
  9
$TDCREATE
 40
2457149.376582627
  9
$TDUCREATE
 40
2457149.293249294
  9
$TDUPDATE
 40
2457149.376583356
  9
$TDUUPDATE
 40
2457149.293250023
  9
$TDINDWG
 40
0.0000000116
  9
$TDUSRTIMER
 40
0.0000000116
  9
$USRTIMER
 70
     1
  9
$ANGBASE
 50
0.0
  9
$ANGDIR
 70
     0
  9
$PDMODE
 70
     0
  9
$PDSIZE
 40
-1.0
  9
$PLINEWID
 40
0.0
  9
$SPLFRAME
 70
     0
  9
$SPLINETYPE
 70
     6
  9
$SPLINESEGS
 70
     8
  9
$HANDSEED
  5
42C
  9
$SURFTAB1
 70
     6
  9
$SURFTAB2
 70
     6
  9
$SURFTYPE
 70
     6
  9
$SURFU
 70
     6
  9
$SURFV
 70
     6
  9
$UCSBASE
  2

  9
$UCSNAME
  2

  9
$UCSORG
 10
0.0
 20
0.0
 30
0.0
  9
$UCSXDIR
 10
1.0
 20
0.0
 30
0.0
  9
$UCSYDIR
 10
0.0
 20
1.0
 30
0.0
  9
$UCSORTHOREF
  2

  9
$UCSORTHOVIEW
 70
     0
  9
$UCSORGTOP
 10
0.0
 20
0.0
 30
0.0
  9
$UCSORGBOTTOM
 10
0.0
 20
0.0
 30
0.0
  9
$UCSORGLEFT
 10
0.0
 20
0.0
 30
0.0
  9
$UCSORGRIGHT
 10
0.0
 20
0.0
 30
0.0
  9
$UCSORGFRONT
 10
0.0
 20
0.0
 30
0.0
  9
$UCSORGBACK
 10
0.0
 20
0.0
 30
0.0
  9
$PUCSBASE
  2

  9
$PUCSNAME
  2

  9
$PUCSORG
 10
0.0
 20
0.0
 30
0.0
  9
$PUCSXDIR
 10
1.0
 20
0.0
 30
0.0
  9
$PUCSYDIR
 10
0.0
 20
1.0
 30
0.0
  9
$PUCSORTHOREF
  2

  9
$PUCSORTHOVIEW
 70
     0
  9
$PUCSORGTOP
 10
0.0
 20
0.0
 30
0.0
  9
$PUCSORGBOTTOM
 10
0.0
 20
0.0
 30
0.0
  9
$PUCSORGLEFT
 10
0.0
 20
0.0
 30
0.0
  9
$PUCSORGRIGHT
 10
0.0
 20
0.0
 30
0.0
  9
$PUCSORGFRONT
 10
0.0
 20
0.0
 30
0.0
  9
$PUCSORGBACK
 10
0.0
 20
0.0
 30
0.0
  9
$USERI1
 70
     0
  9
$USERI2
 70
     0
  9
$USERI3
 70
     0
  9
$USERI4
 70
     0
  9
$USERI5
 70
     0
  9
$USERR1
 40
0.0
  9
$USERR2
 40
0.0
  9
$USERR3
 40
0.0
  9
$USERR4
 40
0.0
  9
$USERR5
 40
0.0
  9
$WORLDVIEW
 70
     1
  9
$SHADEDGE
 70
     3
  9
$SHADEDIF
 70
    70
  9
$TILEMODE
 70
     1
  9
$MAXACTVP
 70
    64
  9
$PINSBASE
 10
0.0
 20
0.0
 30
0.0
  9
$PLIMCHECK
 70
     0
  9
$PEXTMIN
 10
1.0000000000E+20
 20
1.0000000000E+20
 30
1.0000000000E+20
  9
$PEXTMAX
 10
-1.0000000000E+20
 20
-1.0000000000E+20
 30
-1.0000000000E+20
  9
$PLIMMIN
 10
0.0
 20
0.0
  9
$PLIMMAX
 10
420.0
 20
297.0
  9
$UNITMODE
 70
     0
  9
$VISRETAIN
 70
     1
  9
$PLINEGEN
 70
     0
  9
$PSLTSCALE
 70
     1
  9
$TREEDEPTH
 70
  3020
  9
$CMLSTYLE
  2
Standard
  9
$CMLJUST
 70
     0
  9
$CMLSCALE
 40
20.0
  9
$PROXYGRAPHICS
 70
     1
  9
$MEASUREMENT
 70
     1
  9
$CELWEIGHT
370
    -1
  9
$ENDCAPS
280
     0
  9
$JOINSTYLE
280
     0
  9
$LWDISPLAY
290
     1
  9
$INSUNITS
 70
     4
  9
$HYPERLINKBASE
  1

  9
$STYLESHEET
  1

  9
$XEDIT
290
     1
  9
$CEPSNTYPE
380
     0
  9
$PSTYLEMODE
290
     1
  9
$FINGERPRINTGUID
  2
{20569EB4-E67D-46CC-A393-034ABA396478}
  9
$VERSIONGUID
  2
{FAEB1C32-E019-11D5-929B-00C0DF256EC4}
  9
$EXTNAMES
290
     1
  9
$PSVPSCALE
 40
0.0
  9
$OLESTARTUP
290
     0
  0
ENDSEC
  0
SECTION
  2
CLASSES
  0
CLASS
  1
ACDBDICTIONARYWDFLT
  2
AcDbDictionaryWithDefault
  3
ObjectDBX Classes
 90
        0
280
     0
281
     0
  0
CLASS
  1
VISUALSTYLE
  2
AcDbVisualStyle
  3
ObjectDBX Classes
 90
     4095
280
     0
281
     0
  0
CLASS
  1
MATERIAL
  2
AcDbMaterial
  3
ObjectDBX Classes
 90
     1153
280
     0
281
     0
  0
CLASS
  1
ACDBPLACEHOLDER
  2
AcDbPlaceHolder
  3
ObjectDBX Classes
 90
        0
280
     0
281
     0
  0
CLASS
  1
LAYOUT
  2
AcDbLayout
  3
ObjectDBX Classes
 90
        0
280
     0
281
     0
  0
ENDSEC
  0
SECTION
  2
TABLES
  0
TABLE
  2
VPORT
  5
8
330
0
100
AcDbSymbolTable
 70
     1
  0
VPORT
  5
29
330
8
100
AcDbSymbolTableRecord
100
AcDbViewportTableRecord
  2
*Active
 70
     0
 10
0.0
 20
0.0
 11
1.0
 21
1.0
 12
148.5
 22
105.0
 13
0.0
 23
0.0
 14
10.0
 24
10.0
 15
10.0
 25
10.0
 16
0.0
 26
0.0
 36
1.0
 17
0.0
 27
0.0
 37
0.0
 40
210.0
 41
1.4142857143
 42
50.0
 43
0.0
 44
0.0
 50
0.0
 51
0.0
 71
     0
 72
  2000
 73
     1
 74
     3
 75
     0
 76
     0
 77
     0
 78
     0
281
     0
 65
     1
110
0.0
120
0.0
130
0.0
111
1.0
121
0.0
131
0.0
112
0.0
122
1.0
132
0.0
 79
     0
146
0.0
  0
ENDTAB
  0
TABLE
  2
LTYPE
  5
5
330
0
100
AcDbSymbolTable
 70
     8
  0
LTYPE
  5
14
330
5
100
AcDbSymbolTableRecord
100
AcDbLinetypeTableRecord
  2
ByBlock
 70
     0
  3

 72
    65
 73
     0
 40
0.0
  0
LTYPE
  5
15
330
5
100
AcDbSymbolTableRecord
100
AcDbLinetypeTableRecord
  2
ByLayer
 70
     0
  3

 72
    65
 73
     0
 40
0.0
  0
LTYPE
  5
16
330
5
100
AcDbSymbolTableRecord
100
AcDbLinetypeTableRecord
  2
Continuous
 70
     0
  3
Solid line
 72
    65
 73
     0
 40
0.0
  0
LTYPE
  5
3F
330
5
100
AcDbSymbolTableRecord
100
AcDbLinetypeTableRecord
  2
SLD-Durchgehend
 70
     0
  3
SolidWorks Line Style
 72
    65
 73
     0
 40
0.0
  0
LTYPE
  5
40
330
5
100
AcDbSymbolTableRecord
100
AcDbLinetypeTableRecord
  2
SLD-Gestrichelt
 70
     0
  3
SolidWorks Line Style
 72
    65
 73
     2
 40
1.905
 49
1.27
 74
     0
 49
-0.635
 74
     0
  0
LTYPE
  5
41
330
5
100
AcDbSymbolTableRecord
100
AcDbLinetypeTableRecord
  2
SLD-Phantom
 70
     0
  3
SolidWorks Line Style
 72
    65
 73
     6
 40
12.7
 49
6.35
 74
     0
 49
-1.27
 74
     0
 49
1.27
 74
     0
 49
-1.27
 74
     0
 49
1.27
 74
     0
 49
-1.27
 74
     0
  0
LTYPE
  5
42
330
5
100
AcDbSymbolTableRecord
100
AcDbLinetypeTableRecord
  2
SLD-Kette
 70
     0
  3
SolidWorks Line Style
 72
    65
 73
     4
 40
10.16
 49
6.35
 74
     0
 49
-1.27
 74
     0
 49
1.27
 74
     0
 49
-1.27
 74
     0
  0
LTYPE
  5
43
330
5
100
AcDbSymbolTableRecord
100
AcDbLinetypeTableRecord
  2
SLD-Punktstrich
 70
     0
  3
SolidWorks Line Style
 72
    65
 73
     4
 40
19.05
 49
15.24
 74
     0
 49
-1.27
 74
     0
 49
1.27
 74
     0
 49
-1.27
 74
     0
  0
LTYPE
  5
44
330
5
100
AcDbSymbolTableRecord
100
AcDbLinetypeTableRecord
  2
SLD-Naht
 70
     0
  3
SolidWorks Line Style
 72
    65
 73
     2
 40
0.635
 49
0.0
 74
     0
 49
-0.635
 74
     0
  0
LTYPE
  5
45
330
5
100
AcDbSymbolTableRecord
100
AcDbLinetypeTableRecord
  2
SLD-Dicke-Dünne-Kette
 70
     0
  3
SolidWorks Line Style
 72
    65
 73
     4
 40
10.16
 49
6.35
 74
     0
 49
-1.27
 74
     0
 49
1.27
 74
     0
 49
-1.27
 74
     0
  0
ENDTAB
  0
TABLE
  2
LAYER
  5
2
330
0
100
AcDbSymbolTable
 70
     5
  0
LAYER
  5
10
330
2
100
AcDbSymbolTableRecord
100
AcDbLayerTableRecord
  2
0
 70
     0
 62
     7
  6
Continuous
370
    -3
390
F
  0
LAYER
  5
46
330
2
100
AcDbSymbolTableRecord
100
AcDbLayerTableRecord
  2
FORMAT
 70
     0
 62
     7
  6
SLD-Durchgehend
370
    -3
390
F
  0
LAYER
  5
47
330
2
100
AcDbSymbolTableRecord
100
AcDbLayerTableRecord
  2
VERMASSUNG
 70
     0
 62
     7
  6
SLD-Durchgehend
370
    -3
390
F
  0
LAYER
  5
48
330
2
100
AcDbSymbolTableRecord
100
AcDbLayerTableRecord
  2
KOPF_DÜNN
 70
     0
 62
     7
  6
SLD-Durchgehend
370
    -3
390
F
  0
LAYER
  5
49
330
2
100
AcDbSymbolTableRecord
100
AcDbLayerTableRecord
  2
KOPF_DICK
 70
     0
 62
     7
  6
SLD-Durchgehend
370
    15
390
F
  0
ENDTAB
  0
TABLE
  2
STYLE
  5
3
330
0
100
AcDbSymbolTable
 70
     2
  0
STYLE
  5
11
330
3
100
AcDbSymbolTableRecord
100
AcDbTextStyleTableRecord
  2
STANDARD
 70
     0
 40
0.0
 41
1.0
 50
0.0
 71
     0
 42
2.0
  3
ISOCPEUR.TTF
  4

1001
ACAD
1000
ISOCPEUR
1071
       34
  0
STYLE
  5
4A
330
3
100
AcDbSymbolTableRecord
100
AcDbTextStyleTableRecord
  2
SLDTEXTSTYLE0
 70
     0
 40
0.0
 41
1.0
 50
0.0
 71
     0
 42
0.2
  3
ISOCPEUR.TTF
  4

1001
ACAD
1000
ISOCPEUR
1071
      290
  0
ENDTAB
  0
TABLE
  2
VIEW
  5
6
330
0
100
AcDbSymbolTable
 70
     0
  0
ENDTAB
  0
TABLE
  2
UCS
  5
7
330
0
100
AcDbSymbolTable
 70
     0
  0
ENDTAB
  0
TABLE
  2
APPID
  5
9
330
0
100
AcDbSymbolTable
 70
     1
  0
APPID
  5
12
330
9
100
AcDbSymbolTableRecord
100
AcDbRegAppTableRecord
  2
ACAD
 70
     0
  0
ENDTAB
  0
TABLE
  2
DIMSTYLE
  5
A
330
0
100
AcDbSymbolTable
 70
     3
100
AcDbDimStyleTable
  0
DIMSTYLE
105
27
330
A
100
AcDbSymbolTableRecord
100
AcDbDimStyleTableRecord
  2
ISO-25
 70
     0
 41
2.5
 42
0.625
 43
3.75
 44
1.25
 73
     0
 74
     0
 77
     1
 78
     8
140
2.5
141
2.5
143
0.0393700787
147
0.625
171
     3
172
     1
178
     0
271
     2
272
     2
274
     3
278
    44
283
     0
284
     8
340
11
  0
DIMSTYLE
105
274
102
{ACAD_REACTORS
330
273
330
27E
330
2A0
102
}
330
A
100
AcDbSymbolTableRecord
100
AcDbDimStyleTableRecord
  2
SLDDIMSTYLE0
 70
     0
 41
3.0
 44
0.0
 45
0.000000001
 73
     0
 74
     0
 77
     1
 78
    12
 79
     3
140
2.0
147
0.5
173
     1
178
     0
271
     2
272
     3
276
     2
284
    12
340
4A
  0
DIMSTYLE
105
289
102
{ACAD_REACTORS
330
288
330
295
102
}
330
A
100
AcDbSymbolTableRecord
100
AcDbDimStyleTableRecord
  2
SLDDIMSTYLE1
 70
     0
 41
3.0
 44
0.0
 45
0.000000001
 73
     0
 74
     0
 77
     1
 78
    12
 79
     3
140
2.0
147
0.5
172
     1
173
     1
178
     0
271
     2
272
     3
276
     2
284
    12
289
     0
340
4A
  0
ENDTAB
  0
TABLE
  2
BLOCK_RECORD
  5
1
330
0
100
AcDbSymbolTable
 70
     7
  0
BLOCK_RECORD
  5
1F
330
1
100
AcDbSymbolTableRecord
100
AcDbBlockTableRecord
  2
*Model_Space
340
22
  0
BLOCK_RECORD
  5
1B
330
1
100
AcDbSymbolTableRecord
100
AcDbBlockTableRecord
  2
*Paper_Space
340
1E
  0
BLOCK_RECORD
  5
23
330
1
100
AcDbSymbolTableRecord
100
AcDbBlockTableRecord
  2
*Paper_Space0
340
26
  0
BLOCK_RECORD
  5
275
330
1
100
AcDbSymbolTableRecord
100
AcDbBlockTableRecord
  2
_D
340
0
  0
BLOCK_RECORD
  5
27F
330
1
100
AcDbSymbolTableRecord
100
AcDbBlockTableRecord
  2
_D_1
340
0
  0
BLOCK_RECORD
  5
28A
330
1
100
AcDbSymbolTableRecord
100
AcDbBlockTableRecord
  2
_D_2
340
0
  0
BLOCK_RECORD
  5
296
330
1
100
AcDbSymbolTableRecord
100
AcDbBlockTableRecord
  2
_D_3
340
0
  0
BLOCK_RECORD
  5
2A1
330
1
100
AcDbSymbolTableRecord
100
AcDbBlockTableRecord
  2
_D_4
340
0
  0
BLOCK_RECORD
  5
41F
330
1
100
AcDbSymbolTableRecord
100
AcDbBlockTableRecord
  2
SW_CENTERMARKSYMBOL_0
340
0
102
{BLKREFS
331
42A
102
}
  0
ENDTAB
  0
ENDSEC
  0
SECTION
  2
BLOCKS
  0
BLOCK
  5
20
330
1F
100
AcDbEntity
  8
0
100
AcDbBlockBegin
  2
*Model_Space
 70
     0
 10
0.0
 20
0.0
 30
0.0
  3
*Model_Space
  1

  0
ENDBLK
  5
21
330
1F
100
AcDbEntity
  8
0
100
AcDbBlockEnd
  0
BLOCK
  5
1C
330
1B
100
AcDbEntity
 67
     1
  8
0
100
AcDbBlockBegin
  2
*Paper_Space
 70
     0
 10
0.0
 20
0.0
 30
0.0
  3
*Paper_Space
  1

  0
ENDBLK
  5
1D
330
1B
100
AcDbEntity
 67
     1
  8
0
100
AcDbBlockEnd
  0
BLOCK
  5
24
330
23
100
AcDbEntity
  8
0
100
AcDbBlockBegin
  2
*Paper_Space0
 70
     0
 10
0.0
 20
0.0
 30
0.0
  3
*Paper_Space0
  1

  0
ENDBLK
  5
25
330
23
100
AcDbEntity
  8
0
100
AcDbBlockEnd
  0
BLOCK
  5
276
330
275
100
AcDbEntity
  8
0
100
AcDbBlockBegin
  2
_D
 70
     0
 10
0.0
 20
0.0
 30
0.0
  3
_D
  1

  0
SOLID
  5
278
330
275
100
AcDbEntity
  8
VERMASSUNG
100
AcDbTrace
 10
284.32446466
 20
155.9552578955
 30
0.0
 11
281.32446466
 21
156.4052578955
 31
0.0
 12
281.32446466
 22
155.5052578955
 32
0.0
 13
281.32446466
 23
155.5052578955
 33
0.0
  0
SOLID
  5
279
330
275
100
AcDbEntity
  8
VERMASSUNG
100
AcDbTrace
 10
174.32446466
 20
155.9552578955
 30
0.0
 11
177.32446466
 21
155.5052578955
 31
0.0
 12
177.32446466
 22
156.4052578955
 32
0.0
 13
177.32446466
 23
156.4052578955
 33
0.0
  0
LINE
  5
27A
330
275
100
AcDbEntity
  8
VERMASSUNG
100
AcDbLine
 10
284.32446466
 20
148.4000506108
 30
0.0
 11
284.32446466
 21
156.9552578955
 31
0.0
  0
LINE
  5
27B
330
275
100
AcDbEntity
  8
VERMASSUNG
100
AcDbLine
 10
174.32446466
 20
137.6616929487
 30
0.0
 11
174.32446466
 21
156.9552578955
 31
0.0
  0
LINE
  5
27C
330
275
100
AcDbEntity
  8
VERMASSUNG
100
AcDbLine
 10
284.32446466
 20
155.9552578955
 30
0.0
 11
174.32446466
 21
155.9552578955
 31
0.0
  0
MTEXT
  5
27D
330
275
100
AcDbEntity
  8
VERMASSUNG
100
AcDbMText
 10
226.7244644201
 20
158.5552577791
 30
0.1
 40
2.0
 41
0.0
 71
     1
 72
     1
  1
110
  7
SLDTEXTSTYLE0
 73
     1
 44
1.0
  0
ENDBLK
  5
277
330
275
100
AcDbEntity
  8
0
100
AcDbBlockEnd
  0
BLOCK
  5
280
330
27F
100
AcDbEntity
  8
0
100
AcDbBlockBegin
  2
_D_1
 70
     0
 10
0.0
 20
0.0
 30
0.0
  3
_D_1
  1

  0
SOLID
  5
282
330
27F
100
AcDbEntity
  8
VERMASSUNG
100
AcDbTrace
 10
174.32446466
 20
151.4302176348
 30
0.0
 11
177.32446466
 21
150.9802176348
 31
0.0
 12
177.32446466
 22
151.8802176348
 32
0.0
 13
177.32446466
 23
151.8802176348
 33
0.0
  0
SOLID
  5
283
330
27F
100
AcDbEntity
  8
VERMASSUNG
100
AcDbTrace
 10
249.32446466
 20
151.4302176348
 30
0.0
 11
246.32446466
 21
151.8802176348
 31
0.0
 12
246.32446466
 22
150.9802176348
 32
0.0
 13
246.32446466
 23
150.9802176348
 33
0.0
  0
LINE
  5
284
330
27F
100
AcDbEntity
  8
VERMASSUNG
100
AcDbLine
 10
174.32446466
 20
137.6616929487
 30
0.0
 11
174.32446466
 21
152.4302176348
 31
0.0
  0
LINE
  5
285
330
27F
100
AcDbEntity
  8
VERMASSUNG
100
AcDbLine
 10
249.32446466
 20
135.2326077063
 30
0.0
 11
249.32446466
 21
152.4302176348
 31
0.0
  0
LINE
  5
286
330
27F
100
AcDbEntity
  8
VERMASSUNG
100
AcDbLine
 10
174.32446466
 20
151.4302176348
 30
0.0
 11
249.32446466
 21
151.4302176348
 31
0.0
  0
MTEXT
  5
287
330
27F
100
AcDbEntity
  8
VERMASSUNG
100
AcDbMText
 10
209.524464609
 20
154.0302175184
 30
0.1
 40
2.0
 41
0.0
 71
     1
 72
     1
  1
75
  7
SLDTEXTSTYLE0
 73
     1
 44
1.0
  0
ENDBLK
  5
281
330
27F
100
AcDbEntity
  8
0
100
AcDbBlockEnd
  0
BLOCK
  5
28B
330
28A
100
AcDbEntity
  8
0
100
AcDbBlockBegin
  2
_D_2
 70
     0
 10
0.0
 20
0.0
 30
0.0
  3
_D_2
  1

  0
SOLID
  5
28D
330
28A
100
AcDbEntity
  8
VERMASSUNG
100
AcDbTrace
 10
253.5857089686
 20
123.2398675417
 30
0.0
 11
253.1357089686
 21
120.2398675417
 31
0.0
 12
254.0357089686
 22
120.2398675417
 32
0.0
 13
254.0357089686
 23
120.2398675417
 33
0.0
  0
SOLID
  5
28E
330
28A
100
AcDbEntity
  8
VERMASSUNG
100
AcDbTrace
 10
253.5857089686
 20
128.2398675417
 30
0.0
 11
254.0357089686
 21
131.2398675417
 31
0.0
 12
253.1357089686
 22
131.2398675417
 32
0.0
 13
253.1357089686
 23
131.2398675417
 33
0.0
  0
LINE
  5
28F
330
28A
100
AcDbEntity
  8
VERMASSUNG
100
AcDbLine
 10
254.52446466
 20
128.2398675417
 30
0.0
 11
254.5857089686
 21
128.2398675417
 31
0.0
  0
LINE
  5
290
330
28A
100
AcDbEntity
  8
VERMASSUNG
100
AcDbLine
 10
253.5857089686
 20
123.2398675417
 30
0.0
 11
253.5857089686
 21
117.2398675417
 31
0.0
  0
LINE
  5
291
330
28A
100
AcDbEntity
  8
VERMASSUNG
100
AcDbLine
 10
253.5857089686
 20
123.2398675417
 30
0.0
 11
253.5857089686
 21
128.2398675417
 31
0.0
  0
LINE
  5
292
330
28A
100
AcDbEntity
  8
VERMASSUNG
100
AcDbLine
 10
253.5857089686
 20
128.2398675417
 30
0.0
 11
253.5857089686
 21
140.7957275283
 31
0.0
  0
MTEXT
  5
293
330
28A
100
AcDbEntity
  8
VERMASSUNG
100
AcDbMText
 10
250.985709085
 20
135.7957271744
 30
0.1
 40
2.0
 41
0.0
 71
     1
 72
     1
  1
M
  7
SLDTEXTSTYLE0
 11
6.123233995736766E-17
 21
1.0
 31
0.0
 73
     1
 44
1.0
  0
MTEXT
  5
294
330
28A
100
AcDbEntity
  8
VERMASSUNG
100
AcDbMText
 10
250.985709085
 20
137.5957272599
 30
0.1
 40
2.0
 41
0.0
 71
     1
 72
     1
  1
5
  7
SLDTEXTSTYLE0
 11
6.123233995736766E-17
 21
1.0
 31
0.0
 73
     1
 44
1.0
  0
ENDBLK
  5
28C
330
28A
100
AcDbEntity
  8
0
100
AcDbBlockEnd
  0
BLOCK
  5
297
330
296
100
AcDbEntity
  8
0
100
AcDbBlockBegin
  2
_D_3
 70
     0
 10
0.0
 20
0.0
 30
0.0
  3
_D_3
  1

  0
SOLID
  5
299
330
296
100
AcDbEntity
  8
VERMASSUNG
100
AcDbTrace
 10
212.6334346143
 20
101.9616929487
 30
0.0
 11
212.1834346143
 21
98.9616929487
 31
0.0
 12
213.0834346143
 22
98.9616929487
 32
0.0
 13
213.0834346143
 23
98.9616929487
 33
0.0
  0
SOLID
  5
29A
330
296
100
AcDbEntity
  8
VERMASSUNG
100
AcDbTrace
 10
212.6334346143
 20
133.9616929487
 30
0.0
 11
213.0834346143
 21
136.9616929487
 31
0.0
 12
212.1834346143
 22
136.9616929487
 32
0.0
 13
212.1834346143
 23
136.9616929487
 33
0.0
  0
LINE
  5
29B
330
296
100
AcDbEntity
  8
VERMASSUNG
100
AcDbLine
 10
212.6334346143
 20
101.9616929487
 30
0.0
 11
212.6334346143
 21
95.9616929487
 31
0.0
  0
LINE
  5
29C
330
296
100
AcDbEntity
  8
VERMASSUNG
100
AcDbLine
 10
212.6334346143
 20
101.9616929487
 30
0.0
 11
212.6334346143
 21
133.9616929487
 31
0.0
  0
LINE
  5
29D
330
296
100
AcDbEntity
  8
VERMASSUNG
100
AcDbLine
 10
212.6334346143
 20
133.9616929487
 30
0.0
 11
212.6334346143
 21
146.5492989808
 31
0.0
  0
MTEXT
  5
29E
330
296
100
AcDbEntity
  8
VERMASSUNG
100
AcDbMText
 10
210.0334346143
 20
138.3392993301
 30
0.1
 40
2.0
 41
0.0
 71
     1
 72
     1
  1
%%c
  7
SLDTEXTSTYLE0
 11
6.123233995736766E-17
 21
1.0
 31
0.0
 73
     1
 44
1.0
  0
MTEXT
  5
29F
330
296
100
AcDbEntity
  8
VERMASSUNG
100
AcDbMText
 10
209.8334346048
 20
141.9492993444
 30
0.1
 40
2.0
 41
0.0
 71
     1
 72
     1
  1
32
  7
SLDTEXTSTYLE0
 11
6.123233995736766E-17
 21
1.0
 31
0.0
 73
     1
 44
1.0
  0
ENDBLK
  5
298
330
296
100
AcDbEntity
  8
0
100
AcDbBlockEnd
  0
BLOCK
  5
2A2
330
2A1
100
AcDbEntity
  8
0
100
AcDbBlockBegin
  2
_D_4
 70
     0
 10
0.0
 20
0.0
 30
0.0
  3
_D_4
  1

  0
SOLID
  5
2A4
330
2A1
100
AcDbEntity
  8
VERMASSUNG
100
AcDbTrace
 10
140.32446466
 20
97.9616929487
 30
0.0
 11
140.77446466
 21
100.9616929487
 31
0.0
 12
139.87446466
 22
100.9616929487
 32
0.0
 13
139.87446466
 23
100.9616929487
 33
0.0
  0
SOLID
  5
2A5
330
2A1
100
AcDbEntity
  8
VERMASSUNG
100
AcDbTrace
 10
140.32446466
 20
137.9616929487
 30
0.0
 11
139.87446466
 21
134.9616929487
 31
0.0
 12
140.77446466
 22
134.9616929487
 32
0.0
 13
140.77446466
 23
134.9616929487
 33
0.0
  0
LINE
  5
2A6
330
2A1
100
AcDbEntity
  8
VERMASSUNG
100
AcDbLine
 10
174.62446466
 20
97.9616929487
 30
0.0
 11
139.32446466
 21
97.9616929487
 31
0.0
  0
LINE
  5
2A7
330
2A1
100
AcDbEntity
  8
VERMASSUNG
100
AcDbLine
 10
174.62446466
 20
137.9616929487
 30
0.0
 11
139.32446466
 21
137.9616929487
 31
0.0
  0
LINE
  5
2A8
330
2A1
100
AcDbEntity
  8
VERMASSUNG
100
AcDbLine
 10
140.32446466
 20
97.9616929487
 30
0.0
 11
140.32446466
 21
137.9616929487
 31
0.0
  0
MTEXT
  5
2A9
330
2A1
100
AcDbEntity
  8
VERMASSUNG
100
AcDbMText
 10
137.5244646505
 20
110.8566926316
 30
0.1
 40
2.0
 41
0.0
 71
     1
 72
     1
  1
PSC 
  7
SLDTEXTSTYLE0
 11
6.123233995736766E-17
 21
1.0
 31
0.0
 73
     1
 44
1.0
  0
MTEXT
  5
2AA
330
2A1
100
AcDbEntity
  8
VERMASSUNG
100
AcDbMText
 10
137.72446466
 20
116.6566930235
 30
0.1
 40
2.0
 41
0.0
 71
     1
 72
     1
  1
%%c
  7
SLDTEXTSTYLE0
 11
6.123233995736766E-17
 21
1.0
 31
0.0
 73
     1
 44
1.0
  0
MTEXT
  5
2AB
330
2A1
100
AcDbEntity
  8
VERMASSUNG
100
AcDbMText
 10
137.5244646505
 20
120.2666930378
 30
0.1
 40
2.0
 41
0.0
 71
     1
 72
     1
  1
40
  7
SLDTEXTSTYLE0
 11
6.123233995736766E-17
 21
1.0
 31
0.0
 73
     1
 44
1.0
  0
ENDBLK
  5
2A3
330
2A1
100
AcDbEntity
  8
0
100
AcDbBlockEnd
  0
BLOCK
  5
420
330
41F
100
AcDbEntity
  8
0
100
AcDbBlockBegin
  2
SW_CENTERMARKSYMBOL_0
 70
     0
 10
0.0
 20
0.0
 30
0.0
  3
SW_CENTERMARKSYMBOL_0
  1

  0
LINE
  5
422
330
41F
100
AcDbEntity
  8
VERMASSUNG
 62
     0
100
AcDbLine
 10
0.0
 20
0.0
 30
0.0
 11
0.0
 21
2.5
 31
0.0
  0
LINE
  5
423
330
41F
100
AcDbEntity
  8
VERMASSUNG
 62
     0
100
AcDbLine
 10
0.0
 20
0.0
 30
0.0
 11
-2.5
 21
0.0
 31
0.0
  0
LINE
  5
424
330
41F
100
AcDbEntity
  8
VERMASSUNG
 62
     0
100
AcDbLine
 10
0.0
 20
0.0
 30
0.0
 11
0.0
 21
-2.5
 31
0.0
  0
LINE
  5
425
330
41F
100
AcDbEntity
  8
VERMASSUNG
 62
     0
100
AcDbLine
 10
0.0
 20
0.0
 30
0.0
 11
2.5
 21
0.0
 31
0.0
  0
LINE
  5
426
330
41F
100
AcDbEntity
  8
VERMASSUNG
 62
     0
100
AcDbLine
 10
0.0
 20
5.0
 30
0.0
 11
0.0
 21
34.0
 31
0.0
  0
LINE
  5
427
330
41F
100
AcDbEntity
  8
VERMASSUNG
 62
     0
100
AcDbLine
 10
-5.0
 20
0.0
 30
0.0
 11
-34.0
 21
0.0
 31
0.0
  0
LINE
  5
428
330
41F
100
AcDbEntity
  8
VERMASSUNG
 62
     0
100
AcDbLine
 10
0.0
 20
-5.0
 30
0.0
 11
0.0
 21
-34.0
 31
0.0
  0
LINE
  5
429
330
41F
100
AcDbEntity
  8
VERMASSUNG
 62
     0
100
AcDbLine
 10
5.0
 20
0.0
 30
0.0
 11
34.0
 21
0.0
 31
0.0
  0
ENDBLK
  5
421
330
41F
100
AcDbEntity
  8
0
100
AcDbBlockEnd
  0
ENDSEC
  0
SECTION
  2
ENTITIES
  0
MTEXT
  5
4B
330
1F
100
AcDbEntity
  8
KOPF_DÜNN
100
AcDbMText
 10
13.8892156294
 20
23.8770940835
 30
0.0
 40
3.0
 41
0.0
 71
     1
 72
     1
  1
PS4.WK2.032.110
  7
SLDTEXTSTYLE0
 73
     1
 44
1.0
  0
MTEXT
  5
4C
330
1F
100
AcDbEntity
  8
VERMASSUNG
100
AcDbMText
 10
13.9329988022
 20
28.9162328764
 30
0.0
 40
3.0
 41
0.0
 71
     1
 72
     1
  1
Bohrstange  ø32
  7
SLDTEXTSTYLE0
 73
     1
 44
1.0
  0
MTEXT
  5
4D
330
1F
100
AcDbEntity
  8
VERMASSUNG
100
AcDbMText
 10
98.8601118557
 20
13.8584013384
 30
0.0
 40
2.0
 41
0.0
 71
     1
 72
     1
  1
Datum: 06.05.2015
  7
SLDTEXTSTYLE0
 73
     1
 44
1.0
  0
MTEXT
  5
4E
330
1F
100
AcDbEntity
  8
VERMASSUNG
100
AcDbMText
 10
13.933048693
 20
18.0701447943
 30
0.0
 40
2.0
 41
0.0
 71
     1
 72
     1
  1
PSC ø40 / Wechselkopf-Bohrstange
  7
SLDTEXTSTYLE0
 73
     1
 44
1.0
  0
MTEXT
  5
4F
330
1F
100
AcDbEntity
  8
VERMASSUNG
100
AcDbMText
 10
13.9808475933
 20
13.9309618897
 30
0.0
 40
2.0
 41
0.0
 71
     1
 72
     1
  1
Gewicht: 575g
  7
SLDTEXTSTYLE0
 73
     1
 44
1.0
  0
LINE
  5
50
330
1F
100
AcDbEntity
  8
0
  6
SLD-Durchgehend
 62
     7
370
    15
100
AcDbLine
 10
259.4744680932
 20
129.9898674235
 30
0.0
 11
254.7244621924
 21
129.9898674235
 31
0.0
  0
LINE
  5
51
330
1F
100
AcDbEntity
  8
0
  6
SLD-Durchgehend
 62
     7
370
    15
100
AcDbLine
 10
254.7244621924
 20
121.4898674272
 30
0.0
 11
259.4744680932
 21
121.4898674272
 31
0.0
  0
ARC
  5
52
330
1F
100
AcDbEntity
  8
0
  6
SLD-Durchgehend
 62
     7
370
    15
100
AcDbCircle
 10
259.47446466
 20
129.7398675417
 30
0.0
 40
0.25
100
AcDbArc
 50
0.0
 51
90.0
  0
ARC
  5
53
330
1F
100
AcDbEntity
  8
0
  6
SLD-Durchgehend
 62
     7
370
    15
100
AcDbCircle
 10
259.47446466
 20
121.7398675417
 30
0.0
 40
0.25
100
AcDbArc
 50
270.0
 51
0.0
  0
ARC
  5
54
330
1F
100
AcDbEntity
  8
0
  6
SLD-Durchgehend
 62
     7
370
    15
100
AcDbCircle
 10
254.52446466
 20
123.0398675417
 30
0.0
 40
0.2000000000000171
100
AcDbArc
 50
0.0
 51
90.0
  0
ARC
  5
55
330
1F
100
AcDbEntity
  8
0
  6
SLD-Durchgehend
 62
     7
370
    15
100
AcDbCircle
 10
254.52446466
 20
128.4398675417
 30
0.0
 40
0.2000000000000171
100
AcDbArc
 50
270.0
 51
0.0
  0
LINE
  5
56
330
1F
100
AcDbEntity
  8
0
  6
SLD-Durchgehend
 62
     7
370
    15
100
AcDbLine
 10
254.5244662574
 20
128.2398676023
 30
0.0
 11
249.058675628
 21
128.2398676023
 31
0.0
  0
LINE
  5
57
330
1F
100
AcDbEntity
  8
0
  6
SLD-Durchgehend
 62
     7
370
    15
100
AcDbLine
 10
249.7244669608
 20
123.2398677141
 30
0.0
 11
254.5244662574
 21
123.2398677141
 31
0.0
  0
LINE
  5
58
330
1F
100
AcDbEntity
  8
0
  6
SLD-Durchgehend
 62
     7
370
    15
100
AcDbLine
 10
259.4744680932
 20
114.4335184701
 30
0.0
 11
254.7244621924
 21
114.4335184701
 31
0.0
  0
LINE
  5
59
330
1F
100
AcDbEntity
  8
0
  6
SLD-Durchgehend
 62
     7
370
    15
100
AcDbLine
 10
254.7244621924
 20
105.9335184738
 30
0.0
 11
259.4744680932
 21
105.9335184738
 31
0.0
  0
ARC
  5
5A
330
1F
100
AcDbEntity
  8
0
  6
SLD-Durchgehend
 62
     7
370
    15
100
AcDbCircle
 10
259.47446466
 20
114.1835183556
 30
0.0
 40
0.25
100
AcDbArc
 50
0.0
 51
90.0
  0
ARC
  5
5B
330
1F
100
AcDbEntity
  8
0
  6
SLD-Durchgehend
 62
     7
370
    15
100
AcDbCircle
 10
259.47446466
 20
106.1835183556
 30
0.0
 40
0.25
100
AcDbArc
 50
270.0
 51
0.0
  0
ARC
  5
5C
330
1F
100
AcDbEntity
  8
0
  6
SLD-Durchgehend
 62
     7
370
    15
100
AcDbCircle
 10
254.52446466
 20
107.4835183556
 30
0.0
 40
0.2000000000000171
100
AcDbArc
 50
0.0
 51
90.0
  0
ARC
  5
5D
330
1F
100
AcDbEntity
  8
0
  6
SLD-Durchgehend
 62
     7
370
    15
100
AcDbCircle
 10
254.52446466
 20
112.8835183556
 30
0.0
 40
0.2000000000000171
100
AcDbArc
 50
270.0
 51
0.0
  0
LINE
  5
5E
330
1F
100
AcDbEntity
  8
0
  6
SLD-Durchgehend
 62
     7
370
    15
100
AcDbLine
 10
254.5244662574
 20
112.6835181833
 30
0.0
 11
249.7244669608
 21
112.6835181833
 31
0.0
  0
LINE
  5
5F
330
1F
100
AcDbEntity
  8
0
  6
SLD-Durchgehend
 62
     7
370
    15
100
AcDbLine
 10
249.058675628
 20
107.683518295
 30
0.0
 11
254.5244662574
 21
107.683518295
 31
0.0
  0
ARC
  5
60
330
1F
100
AcDbEntity
  8
0
  6
SLD-Durchgehend
 62
     7
370
    15
100
AcDbCircle
 10
193.72446466
 20
98.5616929487
 30
0.0
 40
0.6000000000000085
100
AcDbArc
 50
270.0
 51
0.0
  0
ARC
  5
61
330
1F
100
AcDbEntity
  8
0
  6
SLD-Durchgehend
 62
     7
370
    15
100
AcDbCircle
 10
193.72446466
 20
137.3616929487
 30
0.0
 40
0.6000000000000227
100
AcDbArc
 50
0.0
 51
90.0
  0
ARC
  5
62
330
1F
100
AcDbEntity
  8
0
  6
SLD-Durchgehend
 62
     7
370
    15
100
AcDbCircle
 10
174.62446466
 20
98.2616929487
 30
0.0
 40
0.3000000000000114
100
AcDbArc
 50
180.0
 51
270.0
  0
ARC
  5
63
330
1F
100
AcDbEntity
  8
0
  6
SLD-Durchgehend
 62
     7
370
    15
100
AcDbCircle
 10
174.62446466
 20
137.6616929487
 30
0.0
 40
0.3000000000000398
100
AcDbArc
 50
90.0
 51
180.0
  0
LINE
  5
64
330
1F
100
AcDbEntity
  8
0
  6
SLD-Durchgehend
 62
     7
370
    15
100
AcDbLine
 10
188.2995624578
 20
97.9616933957
 30
0.0
 11
193.7244652322
 21
97.9616933957
 31
0.0
  0
LINE
  5
65
330
1F
100
AcDbEntity
  8
0
  6
SLD-Durchgehend
 62
     7
370
    15
100
AcDbLine
 10
174.6244646743
 20
97.9616933957
 30
0.0
 11
184.3244644365
 21
97.9616933957
 31
0.0
  0
LINE
  5
66
330
1F
100
AcDbEntity
  8
0
  6
SLD-Durchgehend
 62
     7
370
    15
100
AcDbLine
 10
193.7244652322
 20
137.9616925016
 30
0.0
 11
174.6244646743
 21
137.9616925016
 31
0.0
  0
ARC
  5
67
330
1F
100
AcDbEntity
  8
0
  6
SLD-Durchgehend
 62
     7
370
    15
100
AcDbCircle
 10
196.32446466
 20
99.9616929487
 30
0.0
 40
2.0
100
AcDbArc
 50
90.0
 51
180.0
  0
ARC
  5
68
330
1F
100
AcDbEntity
  8
0
  6
SLD-Durchgehend
 62
     7
370
    15
100
AcDbCircle
 10
196.32446466
 20
135.9616929487
 30
0.0
 40
2.0
100
AcDbArc
 50
180.0
 51
270.0
  0
LINE
  5
69
330
1F
100
AcDbEntity
  8
0
  6
SLD-Durchgehend
 62
     7
370
    15
100
AcDbLine
 10
248.6244632414
 20
101.9616921887
 30
0.0
 11
249.272954326
 21
102.6101851359
 31
0.0
  0
LINE
  5
6A
330
1F
100
AcDbEntity
  8
0
  6
SLD-Durchgehend
 62
     7
370
    15
100
AcDbLine
 10
249.272954326
 20
133.3132007614
 30
0.0
 11
248.6244632414
 21
133.9616937086
 31
0.0
  0
LINE
  5
6B
330
1F
100
AcDbEntity
  8
0
  6
SLD-Durchgehend
 62
     7
370
    15
100
AcDbLine
 10
248.6244632414
 20
133.9616937086
 30
0.0
 11
196.3244645408
 21
133.9616937086
 31
0.0
  0
LINE
  5
6C
330
1F
100
AcDbEntity
  8
0
  6
SLD-Durchgehend
 62
     7
370
    15
100
AcDbLine
 10
196.3244645408
 20
101.9616921887
 30
0.0
 11
248.6244632414
 21
101.9616921887
 31
0.0
  0
LWPOLYLINE
  5
6D
330
1F
100
AcDbEntity
  8
0
  6
SLD-Durchgehend
 62
     7
370
    15
100
AcDbPolyline
 90
        3
 70
   128
 43
0.0
 10
174.1244646651
 20
103.8718729735
 10
174.2499196003
 20
103.8035707072
 10
174.32446466
 20
103.7508327037
  0
ARC
  5
6E
330
1F
100
AcDbEntity
  8
0
  6
SLD-Durchgehend
 62
     7
370
    15
100
AcDbCircle
 10
173.7102510976
 20
132.9616929487
 30
0.0
 40
1.000000000000008
100
AcDbArc
 50
225.0
 51
307.8947985336
  0
ARC
  5
6F
330
1F
100
AcDbEntity
  8
0
  6
SLD-Durchgehend
 62
     7
370
    15
100
AcDbCircle
 10
172.824401571
 20
104.836571053
 30
0.0
 40
0.2000000000000208
100
AcDbArc
 50
88.5608333333
 51
178.5608333333
  0
LINE
  5
70
330
1F
100
AcDbEntity
  8
0
  6
SLD-Durchgehend
 62
     7
370
    15
100
AcDbLine
 10
165.5059909931
 20
105.0204349205
 30
0.0
 11
172.6244646375
 21
104.8415939778
 31
0.0
  0
LINE
  5
71
330
1F
100
AcDbEntity
  8
0
  6
SLD-Durchgehend
 62
     7
370
    15
100
AcDbLine
 10
156.2283995113
 20
105.2535207466
 30
0.0
 11
160.2912625781
 21
105.1514468611
 31
0.0
  0
LINE
  5
72
330
1F
100
AcDbEntity
  8
0
  6
SLD-Durchgehend
 62
     7
370
    15
100
AcDbLine
 10
172.8294246382
 20
105.0365076855
 30
0.0
 11
173.9294877584
 21
105.0088706881
 31
0.0
  0
ARC
  5
73
330
1F
100
AcDbEntity
  8
0
  6
SLD-Durchgehend
 62
     7
370
    15
100
AcDbCircle
 10
173.92446466
 20
104.8089336392
 30
0.0
 40
0.2000000000000171
100
AcDbArc
 50
0.0
 51
88.5608333333
  0
LINE
  5
74
330
1F
100
AcDbEntity
  8
0
  6
SLD-Durchgehend
 62
     7
370
    15
100
AcDbLine
 10
172.391355412
 20
132.8759354994
 30
0.0
 11
151.824463766
 21
132.3592237652
 31
0.0
  0
LINE
  5
75
330
1F
100
AcDbEntity
  8
0
  6
SLD-Durchgehend
 62
     7
370
    15
100
AcDbLine
 10
151.824463766
 20
132.3592237652
 30
0.0
 11
150.3244644514
 21
131.4931980789
 31
0.0
  0
LINE
  5
76
330
1F
100
AcDbEntity
  8
0
  6
SLD-Durchgehend
 62
     7
370
    15
100
AcDbLine
 10
173.0031443544
 20
132.2545859486
 30
0.0
 11
172.3981077335
 21
132.8596224532
 31
0.0
  0
LINE
  5
77
330
1F
100
AcDbEntity
  8
0
  6
SLD-Durchgehend
 62
     7
370
    15
100
AcDbLine
 10
254.7244621924
 20
122.0673586697
 30
0.0
 11
254.7244621924
 21
121.4898674272
 31
0.0
  0
LINE
  5
78
330
1F
100
AcDbEntity
  8
0
  6
SLD-Durchgehend
 62
     7
370
    15
100
AcDbLine
 10
254.7244621924
 20
129.9898674235
 30
0.0
 11
254.7244621924
 21
122.0673586697
 31
0.0
  0
LINE
  5
79
330
1F
100
AcDbEntity
  8
0
  6
SLD-Durchgehend
 62
     7
370
    15
100
AcDbLine
 10
259.7244648746
 20
122.2833887197
 30
0.0
 11
259.7244648746
 21
121.7398674682
 31
0.0
  0
LINE
  5
7A
330
1F
100
AcDbEntity
  8
0
  6
SLD-Durchgehend
 62
     7
370
    15
100
AcDbLine
 10
259.7244648746
 20
129.7398678482
 30
0.0
 11
259.7244648746
 21
122.2833887197
 31
0.0
  0
LINE
  5
7B
330
1F
100
AcDbEntity
  8
0
  6
SLD-Durchgehend
 62
     7
370
    15
100
AcDbLine
 10
254.7244621924
 20
114.4335184701
 30
0.0
 11
254.7244621924
 21
105.9335184738
 31
0.0
  0
LINE
  5
7C
330
1F
100
AcDbEntity
  8
0
  6
SLD-Durchgehend
 62
     7
370
    15
100
AcDbLine
 10
259.7244648746
 20
114.1835184291
 30
0.0
 11
259.7244648746
 21
106.1835180492
 31
0.0
  0
LINE
  5
7D
330
1F
100
AcDbEntity
  8
0
  6
SLD-Durchgehend
 62
     7
370
    15
100
AcDbLine
 10
194.324464213
 20
117.9616929487
 30
0.0
 11
194.324464213
 21
98.5616923765
 31
0.0
  0
LINE
  5
7E
330
1F
100
AcDbEntity
  8
0
  6
SLD-Durchgehend
 62
     7
370
    15
100
AcDbLine
 10
194.324464213
 20
137.3616935209
 30
0.0
 11
194.324464213
 21
117.9616929487
 31
0.0
  0
LINE
  5
7F
330
1F
100
AcDbEntity
  8
0
  6
SLD-Durchgehend
 62
     7
370
    15
100
AcDbLine
 10
174.32446466
 20
117.9616929487
 30
0.0
 11
174.32446466
 21
137.6616930113
 31
0.0
  0
LINE
  5
80
330
1F
100
AcDbEntity
  8
0
  6
SLD-Durchgehend
 62
     7
370
    15
100
AcDbLine
 10
174.32446466
 20
98.2616928861
 30
0.0
 11
174.32446466
 21
117.9616929487
 31
0.0
  0
ARC
  5
81
330
1F
100
AcDbEntity
  8
0
  6
SLD-Durchgehend
 62
     7
370
    15
100
AcDbCircle
 10
186.3243895336
 20
78.0142968817
 30
0.0
 40
20.04740202818733
100
AcDbArc
 50
84.3457526741
 51
95.7253396711
  0
ARC
  5
82
330
1F
100
AcDbEntity
  8
0
  6
SLD-Durchgehend
 62
     7
370
    15
100
AcDbCircle
 10
181.234048906
 20
99.1669437909
 30
0.0
 40
0.3376459602488099
100
AcDbArc
 50
225.3020793184
 51
273.7898894239
  0
LINE
  5
83
330
1F
100
AcDbEntity
  8
0
  6
SLD-Durchgehend
 62
     7
370
    15
100
AcDbLine
 10
183.3925625792
 20
98.8300362125
 30
0.0
 11
181.2563665694
 21
98.8300362125
 31
0.0
  0
ARC
  5
84
330
1F
100
AcDbEntity
  8
0
  6
SLD-Durchgehend
 62
     7
370
    15
100
AcDbCircle
 10
183.412030183
 20
99.1745853124
 30
0.0
 40
0.3450986377754305
100
AcDbArc
 50
266.7661304573
 51
314.1419008004
  0
ELLIPSE
  5
85
330
1F
100
AcDbEntity
  8
0
  6
SLD-Durchgehend
 62
     7
370
    15
100
AcDbEllipse
 10
173.3755354876
 20
117.9616929487
 30
0.0
 11
-9.367417879781812
 21
19.74174915274996
 31
0.0
210
0.0
220
0.0
230
1.0
 40
0.3419987131
 41
3.29266438251689
 42
4.239566697060994
  0
ARC
  5
86
330
1F
100
AcDbEntity
  8
0
  6
SLD-Durchgehend
 62
     7
370
    15
100
AcDbCircle
 10
183.2870823968
 20
111.7800734022
 30
0.0
 40
0.3678536543011373
100
AcDbArc
 50
6.7716254957
 51
73.3368183237
  0
LINE
  5
87
330
1F
100
AcDbEntity
  8
0
  6
SLD-Durchgehend
 62
     7
370
    15
100
AcDbLine
 10
181.2563665694
 20
112.1324797616
 30
0.0
 11
183.3925625792
 21
112.1324797616
 31
0.0
  0
ARC
  5
88
330
1F
100
AcDbEntity
  8
0
  6
SLD-Durchgehend
 62
     7
370
    15
100
AcDbCircle
 10
181.3481314255
 20
111.7916040634
 30
0.0
 40
0.3530113743224774
100
AcDbArc
 50
105.0670195834
 51
174.8245365972
  0
ELLIPSE
  5
89
330
1F
100
AcDbEntity
  8
0
  6
SLD-Durchgehend
 62
     7
370
    15
100
AcDbEllipse
 10
191.2733938325
 20
117.9616929487
 30
0.0
 11
9.367417879781698
 21
19.74174915274996
 31
0.0
210
0.0
220
0.0
230
1.0
 40
0.3419987131
 41
2.0436186101186
 42
2.990520924662737
  0
ARC
  5
8A
330
1F
100
AcDbEntity
  8
0
  6
SLD-Durchgehend
 62
     7
370
    15
100
AcDbCircle
 10
181.3618467519
 20
124.1433124951
 30
0.0
 40
0.3678536543011672
100
AcDbArc
 50
186.7716254957
 51
253.3368183237
  0
LINE
  5
8B
330
1F
100
AcDbEntity
  8
0
  6
SLD-Durchgehend
 62
     7
370
    15
100
AcDbLine
 10
183.3925625792
 20
123.7909061358
 30
0.0
 11
181.2563665694
 21
123.7909061358
 31
0.0
  0
LWPOLYLINE
  5
8C
330
1F
100
AcDbEntity
  8
0
  6
SLD-Durchgehend
 62
     7
370
    15
100
AcDbPolyline
 90
        6
 70
   128
 43
0.0
 10
183.6523699126
 20
124.0999380581
 10
183.576213803
 20
123.9192796395
 10
183.5279768816
 20
123.8567813754
 10
183.4636271483
 20
123.8082850807
 10
183.4143694973
 20
123.7925201178
 10
183.3925625792
 20
123.7909061358
  0
ELLIPSE
  5
8D
330
1F
100
AcDbEntity
  8
0
  6
SLD-Durchgehend
 62
     7
370
    15
100
AcDbEllipse
 10
173.3755354876
 20
117.9616929487
 30
0.0
 11
9.367417879781755
 21
19.74174915274996
 31
0.0
210
0.0
220
0.0
230
1.0
 40
0.3419987131
 41
5.185211263708403
 42
6.13211357825256
  0
ARC
  5
8E
330
1F
100
AcDbEntity
  8
0
  6
SLD-Durchgehend
 62
     7
370
    15
100
AcDbCircle
 10
183.4148802427
 20
136.7564421064
 30
0.0
 40
0.3376459602487843
100
AcDbArc
 50
45.3020793184
 51
93.7898894239
  0
LINE
  5
8F
330
1F
100
AcDbEntity
  8
0
  6
SLD-Durchgehend
 62
     7
370
    15
100
AcDbLine
 10
181.2563665694
 20
137.0933496848
 30
0.0
 11
183.3925625792
 21
137.0933496848
 31
0.0
  0
ARC
  5
90
330
1F
100
AcDbEntity
  8
0
  6
SLD-Durchgehend
 62
     7
370
    15
100
AcDbCircle
 10
181.244772411
 20
136.7276904651
 30
0.0
 40
0.3658429847666215
100
AcDbArc
 50
88.1838995836
 51
132.7241316742
  0
ELLIPSE
  5
91
330
1F
100
AcDbEntity
  8
0
  6
SLD-Durchgehend
 62
     7
370
    15
100
AcDbEllipse
 10
191.2733938325
 20
117.9616929487
 30
0.0
 11
-9.367417879781643
 21
19.74174915274997
 31
0.0
210
0.0
220
0.0
230
1.0
 40
0.3419987131
 41
0.1510717289270681
 42
1.097974043471199
  0
LINE
  5
92
330
1F
100
AcDbEntity
  8
0
  6
SLD-Durchgehend
 62
     7
370
    15
100
AcDbLine
 10
248.6244632414
 20
133.9616937086
 30
0.0
 11
248.6244632414
 21
101.9616921887
 31
0.0
  0
LWPOLYLINE
  5
93
330
1F
100
AcDbEntity
  8
0
  6
SLD-Durchgehend
 62
     7
370
    15
100
AcDbPolyline
 90
        4
 70
   128
 43
0.0
 10
249.2588354758
 20
133.2990800485
 10
249.260057371
 20
133.2997850597
 10
249.1222663334
 20
133.220233348
 10
248.8544626645
 20
133.0656161055
  0
ARC
  5
94
330
1F
100
AcDbEntity
  8
0
  6
SLD-Durchgehend
 62
     7
370
    15
100
AcDbCircle
 10
248.91446766
 20
132.9616930791
 30
0.0
 40
0.1200024788242574
100
AcDbArc
 50
120.0020708546
 51
239.9979291454
  0
LINE
  5
95
330
1F
100
AcDbEntity
  8
0
  6
SLD-Durchgehend
 62
     7
370
    15
100
AcDbLine
 10
248.8544626645
 20
132.8577700526
 30
0.0
 11
249.7244669608
 21
132.3554751918
 31
0.0
  0
LINE
  5
96
330
1F
100
AcDbEntity
  8
0
  6
SLD-Durchgehend
 62
     7
370
    15
100
AcDbLine
 10
249.7244669608
 20
132.3554751918
 30
0.0
 11
249.7244669608
 21
132.0679107204
 31
0.0
  0
LWPOLYLINE
  5
97
330
1F
100
AcDbEntity
  8
0
  6
SLD-Durchgehend
 62
     7
370
    15
100
AcDbPolyline
 90
        3
 70
   128
 43
0.0
 10
249.7244669608
 20
132.0679107204
 10
249.3372677377
 20
131.8443625689
 10
248.8544626645
 20
131.5656158597
  0
LWPOLYLINE
  5
98
330
1F
100
AcDbEntity
  8
0
  6
SLD-Durchgehend
 62
     7
370
    15
100
AcDbPolyline
 90
       10
 70
   128
 43
0.0
 10
248.8544626645
 20
131.5656158597
 10
248.801869016
 20
131.5031967581
 10
248.7946419528
 20
131.4681473643
 10
248.7983374408
 20
131.4314448729
 10
248.803627353
 20
131.4157064528
 10
248.8127468637
 20
131.3980318129
 10
248.8217620662
 20
131.3854906231
 10
248.8324909023
 20
131.3740558446
 10
248.8462446741
 20
131.362970312
 10
248.8544626645
 20
131.3577698067
  0
LINE
  5
99
330
1F
100
AcDbEntity
  8
0
  6
SLD-Durchgehend
 62
     7
370
    15
100
AcDbLine
 10
248.8544626645
 20
131.3577698067
 30
0.0
 11
249.7244669608
 21
130.8554749459
 31
0.0
  0
LINE
  5
9A
330
1F
100
AcDbEntity
  8
0
  6
SLD-Durchgehend
 62
     7
370
    15
100
AcDbLine
 10
249.7244669608
 20
130.8554749459
 30
0.0
 11
249.7244669608
 21
130.5679104746
 31
0.0
  0
LINE
  5
9B
330
1F
100
AcDbEntity
  8
0
  6
SLD-Durchgehend
 62
     7
370
    15
100
AcDbLine
 10
249.7244669608
 20
130.5679104746
 30
0.0
 11
248.8544626645
 21
130.0656156138
 31
0.0
  0
LWPOLYLINE
  5
9C
330
1F
100
AcDbEntity
  8
0
  6
SLD-Durchgehend
 62
     7
370
    15
100
AcDbPolyline
 90
        8
 70
   128
 43
0.0
 10
248.8544626645
 20
130.0656156138
 10
248.801958423
 20
130.0034293428
 10
248.7953870109
 20
129.9468431145
 10
248.8012282661
 20
129.9219842524
 10
248.8096846751
 20
129.9032059953
 10
248.8224326185
 20
129.8846857146
 10
248.8354338816
 20
129.8713948101
 10
248.8544626645
 20
129.8577695608
  0
LINE
  5
9D
330
1F
100
AcDbEntity
  8
0
  6
SLD-Durchgehend
 62
     7
370
    15
100
AcDbLine
 10
248.8544626645
 20
129.8577695608
 30
0.0
 11
249.7244669608
 21
129.3554756314
 31
0.0
  0
LINE
  5
9E
330
1F
100
AcDbEntity
  8
0
  6
SLD-Durchgehend
 62
     7
370
    15
100
AcDbLine
 10
249.7244669608
 20
129.3554756314
 30
0.0
 11
249.7244669608
 21
129.06791116
 31
0.0
  0
LINE
  5
9F
330
1F
100
AcDbEntity
  8
0
  6
SLD-Durchgehend
 62
     7
370
    15
100
AcDbLine
 10
249.7244669608
 20
129.06791116
 30
0.0
 11
248.8544626645
 21
128.5656162992
 31
0.0
  0
ARC
  5
A0
330
1F
100
AcDbEntity
  8
0
  6
SLD-Durchgehend
 62
     7
370
    15
100
AcDbCircle
 10
248.9144661616
 20
128.4616932728
 30
0.0
 40
0.1200017295927164
100
AcDbArc
 50
120.0014513
 51
239.9985487
  0
LINE
  5
A1
330
1F
100
AcDbEntity
  8
0
  6
SLD-Durchgehend
 62
     7
370
    15
100
AcDbLine
 10
248.8544626645
 20
128.3577702463
 30
0.0
 11
249.7244669608
 21
127.8554753855
 31
0.0
  0
LINE
  5
A2
330
1F
100
AcDbEntity
  8
0
  6
SLD-Durchgehend
 62
     7
370
    15
100
AcDbLine
 10
249.7244669608
 20
127.8554753855
 30
0.0
 11
249.7244669608
 21
127.5679109142
 31
0.0
  0
LINE
  5
A3
330
1F
100
AcDbEntity
  8
0
  6
SLD-Durchgehend
 62
     7
370
    15
100
AcDbLine
 10
249.7244669608
 20
127.5679109142
 30
0.0
 11
248.8544626645
 21
127.0656160534
 31
0.0
  0
ARC
  5
A4
330
1F
100
AcDbEntity
  8
0
  6
SLD-Durchgehend
 62
     7
370
    15
100
AcDbCircle
 10
248.9144734101
 20
126.9616930269
 30
0.0
 40
0.1200053541356937
100
AcDbArc
 50
120.0044483281
 51
239.9955516719
  0
LINE
  5
A5
330
1F
100
AcDbEntity
  8
0
  6
SLD-Durchgehend
 62
     7
370
    15
100
AcDbLine
 10
248.8544626645
 20
126.8577700004
 30
0.0
 11
249.7244669608
 21
126.3554751397
 31
0.0
  0
LINE
  5
A6
330
1F
100
AcDbEntity
  8
0
  6
SLD-Durchgehend
 62
     7
370
    15
100
AcDbLine
 10
249.7244669608
 20
126.3554751397
 30
0.0
 11
249.7244669608
 21
126.0679106683
 31
0.0
  0
LINE
  5
A7
330
1F
100
AcDbEntity
  8
0
  6
SLD-Durchgehend
 62
     7
370
    15
100
AcDbLine
 10
249.7244669608
 20
126.0679106683
 30
0.0
 11
248.8544626645
 21
125.5656158075
 31
0.0
  0
ARC
  5
A8
330
1F
100
AcDbEntity
  8
0
  6
SLD-Durchgehend
 62
     7
370
    15
100
AcDbCircle
 10
248.914470633
 20
125.461692781
 30
0.0
 40
0.1200039654414176
100
AcDbArc
 50
120.003300111
 51
239.9966998889
  0
LINE
  5
A9
330
1F
100
AcDbEntity
  8
0
  6
SLD-Durchgehend
 62
     7
370
    15
100
AcDbLine
 10
248.8544626645
 20
125.3577697546
 30
0.0
 11
249.7244669608
 21
124.8554753594
 31
0.0
  0
LINE
  5
AA
330
1F
100
AcDbEntity
  8
0
  6
SLD-Durchgehend
 62
     7
370
    15
100
AcDbLine
 10
249.7244669608
 20
124.8554753594
 30
0.0
 11
249.7244669608
 21
124.5679108881
 31
0.0
  0
LINE
  5
AB
330
1F
100
AcDbEntity
  8
0
  6
SLD-Durchgehend
 62
     7
370
    15
100
AcDbLine
 10
249.7244669608
 20
124.5679108881
 30
0.0
 11
248.8544626645
 21
124.0656160273
 31
0.0
  0
ARC
  5
AC
330
1F
100
AcDbEntity
  8
0
  6
SLD-Durchgehend
 62
     7
370
    15
100
AcDbCircle
 10
248.9144692524
 20
123.9616930008
 30
0.0
 40
0.1200032750520777
100
AcDbArc
 50
120.0027292503
 51
239.9972707497
  0
LINE
  5
AD
330
1F
100
AcDbEntity
  8
0
  6
SLD-Durchgehend
 62
     7
370
    15
100
AcDbLine
 10
248.8544626645
 20
123.8577699744
 30
0.0
 11
249.7244669608
 21
123.3554751136
 31
0.0
  0
LINE
  5
AE
330
1F
100
AcDbEntity
  8
0
  6
SLD-Durchgehend
 62
     7
370
    15
100
AcDbLine
 10
249.7244669608
 20
123.3554751136
 30
0.0
 11
249.7244669608
 21
123.0679106422
 31
0.0
  0
LINE
  5
AF
330
1F
100
AcDbEntity
  8
0
  6
SLD-Durchgehend
 62
     7
370
    15
100
AcDbLine
 10
249.7244669608
 20
123.0679106422
 30
0.0
 11
248.8544626645
 21
122.5656157814
 31
0.0
  0
ARC
  5
B0
330
1F
100
AcDbEntity
  8
0
  6
SLD-Durchgehend
 62
     7
370
    15
100
AcDbCircle
 10
248.9144637238
 20
122.461692755
 30
0.0
 40
0.1200005106291514
100
AcDbArc
 50
120.0004432731
 51
239.9995567269
  0
LINE
  5
B1
330
1F
100
AcDbEntity
  8
0
  6
SLD-Durchgehend
 62
     7
370
    15
100
AcDbLine
 10
248.8544626645
 20
122.3577697285
 30
0.0
 11
249.7244669608
 21
121.8554751005
 31
0.0
  0
LINE
  5
B2
330
1F
100
AcDbEntity
  8
0
  6
SLD-Durchgehend
 62
     7
370
    15
100
AcDbLine
 10
249.7244669608
 20
121.8554751005
 30
0.0
 11
249.7244669608
 21
121.5679106292
 31
0.0
  0
LINE
  5
B3
330
1F
100
AcDbEntity
  8
0
  6
SLD-Durchgehend
 62
     7
370
    15
100
AcDbLine
 10
249.7244669608
 20
121.5679106292
 30
0.0
 11
248.8544626645
 21
121.0656160012
 31
0.0
  0
ARC
  5
B4
330
1F
100
AcDbEntity
  8
0
  6
SLD-Durchgehend
 62
     7
370
    15
100
AcDbCircle
 10
248.9144650887
 20
120.9616929747
 30
0.0
 40
0.1200011931218234
100
AcDbArc
 50
120.0010076695
 51
239.9989923305
  0
LINE
  5
B5
330
1F
100
AcDbEntity
  8
0
  6
SLD-Durchgehend
 62
     7
370
    15
100
AcDbLine
 10
248.8544626645
 20
120.8577699483
 30
0.0
 11
249.7244669608
 21
120.3554750875
 31
0.0
  0
LINE
  5
B6
330
1F
100
AcDbEntity
  8
0
  6
SLD-Durchgehend
 62
     7
370
    15
100
AcDbLine
 10
249.7244669608
 20
120.3554750875
 30
0.0
 11
249.7244669608
 21
120.0679106161
 31
0.0
  0
LINE
  5
B7
330
1F
100
AcDbEntity
  8
0
  6
SLD-Durchgehend
 62
     7
370
    15
100
AcDbLine
 10
249.7244669608
 20
120.0679106161
 30
0.0
 11
248.8544626645
 21
119.5656159882
 31
0.0
  0
ARC
  5
B8
330
1F
100
AcDbEntity
  8
0
  6
SLD-Durchgehend
 62
     7
370
    15
100
AcDbCircle
 10
248.9144674151
 20
119.4616929617
 30
0.0
 40
0.1200023563327099
100
AcDbArc
 50
120.0019695652
 51
239.9980304348
  0
LINE
  5
B9
330
1F
100
AcDbEntity
  8
0
  6
SLD-Durchgehend
 62
     7
370
    15
100
AcDbLine
 10
248.8544626645
 20
119.3577699352
 30
0.0
 11
249.7244669608
 21
118.8554751909
 31
0.0
  0
LINE
  5
BA
330
1F
100
AcDbEntity
  8
0
  6
SLD-Durchgehend
 62
     7
370
    15
100
AcDbLine
 10
249.7244669608
 20
118.8554751909
 30
0.0
 11
249.7244669608
 21
118.5679107195
 31
0.0
  0
LINE
  5
BB
330
1F
100
AcDbEntity
  8
0
  6
SLD-Durchgehend
 62
     7
370
    15
100
AcDbLine
 10
249.7244669608
 20
118.5679107195
 30
0.0
 11
248.8544626645
 21
118.065615997
 31
0.0
  0
ARC
  5
BC
330
1F
100
AcDbEntity
  8
0
  6
SLD-Durchgehend
 62
     7
370
    15
100
AcDbCircle
 10
248.9144670482
 20
117.9616929487
 30
0.0
 40
0.1200021918053571
100
AcDbArc
 50
120.0018126727
 51
239.9981873273
  0
LINE
  5
BD
330
1F
100
AcDbEntity
  8
0
  6
SLD-Durchgehend
 62
     7
370
    15
100
AcDbLine
 10
248.8544626645
 20
117.8577699004
 30
0.0
 11
249.7244669608
 21
117.3554751778
 31
0.0
  0
LINE
  5
BE
330
1F
100
AcDbEntity
  8
0
  6
SLD-Durchgehend
 62
     7
370
    15
100
AcDbLine
 10
249.7244669608
 20
117.3554751778
 30
0.0
 11
249.7244669608
 21
117.0679107065
 31
0.0
  0
LINE
  5
BF
330
1F
100
AcDbEntity
  8
0
  6
SLD-Durchgehend
 62
     7
370
    15
100
AcDbLine
 10
249.7244669608
 20
117.0679107065
 30
0.0
 11
248.8544626645
 21
116.5656159621
 31
0.0
  0
ARC
  5
C0
330
1F
100
AcDbEntity
  8
0
  6
SLD-Durchgehend
 62
     7
370
    15
100
AcDbCircle
 10
248.9144693209
 20
116.4616929356
 30
0.0
 40
0.1200033093097718
100
AcDbArc
 50
120.0027575772
 51
239.9972424228
  0
LINE
  5
C1
330
1F
100
AcDbEntity
  8
0
  6
SLD-Durchgehend
 62
     7
370
    15
100
AcDbLine
 10
248.8544626645
 20
116.3577699092
 30
0.0
 11
249.7244669608
 21
115.8554752812
 31
0.0
  0
LINE
  5
C2
330
1F
100
AcDbEntity
  8
0
  6
SLD-Durchgehend
 62
     7
370
    15
100
AcDbLine
 10
249.7244669608
 20
115.8554752812
 30
0.0
 11
249.7244669608
 21
115.5679108098
 31
0.0
  0
LINE
  5
C3
330
1F
100
AcDbEntity
  8
0
  6
SLD-Durchgehend
 62
     7
370
    15
100
AcDbLine
 10
249.7244669608
 20
115.5679108098
 30
0.0
 11
248.8544626645
 21
115.0656159491
 31
0.0
  0
ARC
  5
C4
330
1F
100
AcDbEntity
  8
0
  6
SLD-Durchgehend
 62
     7
370
    15
100
AcDbCircle
 10
248.9144698131
 20
114.9616929226
 30
0.0
 40
0.1200035554328211
100
AcDbArc
 50
120.0029610901
 51
239.9970389099
  0
LINE
  5
C5
330
1F
100
AcDbEntity
  8
0
  6
SLD-Durchgehend
 62
     7
370
    15
100
AcDbLine
 10
248.8544626645
 20
114.8577698961
 30
0.0
 11
249.7244669608
 21
114.3554752682
 31
0.0
  0
LINE
  5
C6
330
1F
100
AcDbEntity
  8
0
  6
SLD-Durchgehend
 62
     7
370
    15
100
AcDbLine
 10
249.7244669608
 20
114.3554752682
 30
0.0
 11
249.7244669608
 21
114.0679107968
 31
0.0
  0
LINE
  5
C7
330
1F
100
AcDbEntity
  8
0
  6
SLD-Durchgehend
 62
     7
370
    15
100
AcDbLine
 10
249.7244669608
 20
114.0679107968
 30
0.0
 11
248.8544626645
 21
113.5656161689
 31
0.0
  0
ARC
  5
C8
330
1F
100
AcDbEntity
  8
0
  6
SLD-Durchgehend
 62
     7
370
    15
100
AcDbCircle
 10
248.9144712274
 20
113.4616931424
 30
0.0
 40
0.1200042626650837
100
AcDbArc
 50
120.0035458707
 51
239.9964541293
  0
LINE
  5
C9
330
1F
100
AcDbEntity
  8
0
  6
SLD-Durchgehend
 62
     7
370
    15
100
AcDbLine
 10
248.8544626645
 20
113.3577701159
 30
0.0
 11
249.7244669608
 21
112.8554752551
 31
0.0
  0
LINE
  5
CA
330
1F
100
AcDbEntity
  8
0
  6
SLD-Durchgehend
 62
     7
370
    15
100
AcDbLine
 10
249.7244669608
 20
112.8554752551
 30
0.0
 11
249.7244669608
 21
112.5679107838
 31
0.0
  0
LINE
  5
CB
330
1F
100
AcDbEntity
  8
0
  6
SLD-Durchgehend
 62
     7
370
    15
100
AcDbLine
 10
249.7244669608
 20
112.5679107838
 30
0.0
 11
248.8544626645
 21
112.065615923
 31
0.0
  0
ARC
  5
CC
330
1F
100
AcDbEntity
  8
0
  6
SLD-Durchgehend
 62
     7
370
    15
100
AcDbCircle
 10
248.9144661968
 20
111.9616928965
 30
0.0
 40
0.1200017471595853
100
AcDbArc
 50
120.0014658266
 51
239.9985341734
  0
LINE
  5
CD
330
1F
100
AcDbEntity
  8
0
  6
SLD-Durchgehend
 62
     7
370
    15
100
AcDbLine
 10
248.8544626645
 20
111.85776987
 30
0.0
 11
249.7244669608
 21
111.3554750093
 31
0.0
  0
LINE
  5
CE
330
1F
100
AcDbEntity
  8
0
  6
SLD-Durchgehend
 62
     7
370
    15
100
AcDbLine
 10
249.7244669608
 20
111.3554750093
 30
0.0
 11
249.7244669608
 21
111.0679105379
 31
0.0
  0
LINE
  5
CF
330
1F
100
AcDbEntity
  8
0
  6
SLD-Durchgehend
 62
     7
370
    15
100
AcDbLine
 10
249.7244669608
 20
111.0679105379
 30
0.0
 11
248.8544626645
 21
110.5656161428
 31
0.0
  0
ARC
  5
D0
330
1F
100
AcDbEntity
  8
0
  6
SLD-Durchgehend
 62
     7
370
    15
100
AcDbCircle
 10
248.9144657166
 20
110.4616931163
 30
0.0
 40
0.1200015070412319
100
AcDbArc
 50
120.001267264
 51
239.998732736
  0
LINE
  5
D1
330
1F
100
AcDbEntity
  8
0
  6
SLD-Durchgehend
 62
     7
370
    15
100
AcDbLine
 10
248.8544626645
 20
110.3577700898
 30
0.0
 11
249.7244669608
 21
109.8554752291
 31
0.0
  0
LINE
  5
D2
330
1F
100
AcDbEntity
  8
0
  6
SLD-Durchgehend
 62
     7
370
    15
100
AcDbLine
 10
249.7244669608
 20
109.8554752291
 30
0.0
 11
249.7244669608
 21
109.5679107577
 31
0.0
  0
LINE
  5
D3
330
1F
100
AcDbEntity
  8
0
  6
SLD-Durchgehend
 62
     7
370
    15
100
AcDbLine
 10
249.7244669608
 20
109.5679107577
 30
0.0
 11
248.8544626645
 21
109.0656158969
 31
0.0
  0
ARC
  5
D4
330
1F
100
AcDbEntity
  8
0
  6
SLD-Durchgehend
 62
     7
370
    15
100
AcDbCircle
 10
248.9144720992
 20
108.9616928704
 30
0.0
 40
0.1200046986166187
100
AcDbArc
 50
120.0039063321
 51
239.9960936679
  0
LINE
  5
D5
330
1F
100
AcDbEntity
  8
0
  6
SLD-Durchgehend
 62
     7
370
    15
100
AcDbLine
 10
248.8544626645
 20
108.857769844
 30
0.0
 11
249.7244669608
 21
108.3554749832
 31
0.0
  0
LINE
  5
D6
330
1F
100
AcDbEntity
  8
0
  6
SLD-Durchgehend
 62
     7
370
    15
100
AcDbLine
 10
249.7244669608
 20
108.3554749832
 30
0.0
 11
249.7244669608
 21
108.0679105118
 31
0.0
  0
LINE
  5
D7
330
1F
100
AcDbEntity
  8
0
  6
SLD-Durchgehend
 62
     7
370
    15
100
AcDbLine
 10
249.7244669608
 20
108.0679105118
 30
0.0
 11
248.8544626645
 21
107.565615651
 31
0.0
  0
ARC
  5
D8
330
1F
100
AcDbEntity
  8
0
  6
SLD-Durchgehend
 62
     7
370
    15
100
AcDbCircle
 10
248.9144646303
 20
107.4616926246
 30
0.0
 40
0.1200009639157563
100
AcDbArc
 50
120.0008181263
 51
239.9991818737
  0
LINE
  5
D9
330
1F
100
AcDbEntity
  8
0
  6
SLD-Durchgehend
 62
     7
370
    15
100
AcDbLine
 10
248.8544626645
 20
107.3577695981
 30
0.0
 11
249.7244669608
 21
106.8554747373
 31
0.0
  0
LINE
  5
DA
330
1F
100
AcDbEntity
  8
0
  6
SLD-Durchgehend
 62
     7
370
    15
100
AcDbLine
 10
249.7244669608
 20
106.8554747373
 30
0.0
 11
249.7244669608
 21
106.567910266
 31
0.0
  0
LINE
  5
DB
330
1F
100
AcDbEntity
  8
0
  6
SLD-Durchgehend
 62
     7
370
    15
100
AcDbLine
 10
249.7244669608
 20
106.567910266
 30
0.0
 11
248.8544626645
 21
106.0656163365
 31
0.0
  0
ARC
  5
DC
330
1F
100
AcDbEntity
  8
0
  6
SLD-Durchgehend
 62
     7
370
    15
100
AcDbCircle
 10
248.9144708114
 20
105.96169331
 30
0.0
 40
0.1200040546651987
100
AcDbArc
 50
120.0033738861
 51
239.9966261139
  0
LINE
  5
DD
330
1F
100
AcDbEntity
  8
0
  6
SLD-Durchgehend
 62
     7
370
    15
100
AcDbLine
 10
248.8544626645
 20
105.8577702836
 30
0.0
 11
249.7244669608
 21
105.3554754228
 31
0.0
  0
LINE
  5
DE
330
1F
100
AcDbEntity
  8
0
  6
SLD-Durchgehend
 62
     7
370
    15
100
AcDbLine
 10
249.7244669608
 20
105.3554754228
 30
0.0
 11
249.7244669608
 21
105.0679109514
 31
0.0
  0
LINE
  5
DF
330
1F
100
AcDbEntity
  8
0
  6
SLD-Durchgehend
 62
     7
370
    15
100
AcDbLine
 10
249.7244669608
 20
105.0679109514
 30
0.0
 11
248.8544626645
 21
104.5656160906
 31
0.0
  0
LWPOLYLINE
  5
E0
330
1F
100
AcDbEntity
  8
0
  6
SLD-Durchgehend
 62
     7
370
    15
100
AcDbPolyline
 90
        9
 70
   128
 43
0.0
 10
248.8544626645
 20
104.5656160906
 10
248.8467364124
 20
104.5607536555
 10
248.8318874052
 20
104.5487628773
 10
248.8214565924
 20
104.5375190199
 10
248.8126649073
 20
104.5252311498
 10
248.804089289
 20
104.5087849245
 10
248.796594005
 20
104.4842101157
 10
248.7975476793
 20
104.4346721366
 10
248.8544626645
 20
104.3577700377
  0
LWPOLYLINE
  5
E1
330
1F
100
AcDbEntity
  8
0
  6
SLD-Durchgehend
 62
     7
370
    15
100
AcDbPolyline
 90
        3
 70
   128
 43
0.0
 10
248.8544626645
 20
104.3577700377
 10
249.3352486304
 20
104.080188413
 10
249.7244669608
 20
103.8554751769
  0
LINE
  5
E2
330
1F
100
AcDbEntity
  8
0
  6
SLD-Durchgehend
 62
     7
370
    15
100
AcDbLine
 10
249.7244669608
 20
103.8554751769
 30
0.0
 11
249.7244669608
 21
103.5679107055
 31
0.0
  0
LINE
  5
E3
330
1F
100
AcDbEntity
  8
0
  6
SLD-Durchgehend
 62
     7
370
    15
100
AcDbLine
 10
249.7244669608
 20
103.5679107055
 30
0.0
 11
248.8544626645
 21
103.0656158448
 31
0.0
  0
LWPOLYLINE
  5
E4
330
1F
100
AcDbEntity
  8
0
  6
SLD-Durchgehend
 62
     7
370
    15
100
AcDbPolyline
 90
       10
 70
   128
 43
0.0
 10
248.8544626645
 20
103.0656158448
 10
248.8432122878
 20
103.0582490832
 10
248.8355456403
 20
103.0520939723
 10
248.827469211
 20
103.0443481624
 10
248.820860546
 20
103.0367820978
 10
248.8141475728
 20
103.0275498972
 10
248.8062797597
 20
103.0136219681
 10
248.796184223
 20
102.9819271982
 10
248.8084851316
 20
102.9054097355
 10
248.8544626645
 20
102.8577697918
  0
LWPOLYLINE
  5
E5
330
1F
100
AcDbEntity
  8
0
  6
SLD-Durchgehend
 62
     7
370
    15
100
AcDbPolyline
 90
        4
 70
   128
 43
0.0
 10
248.8544626645
 20
102.8577697918
 10
249.1195617727
 20
102.7047153086
 10
249.2575092724
 20
102.6250704646
 10
249.2588354758
 20
102.6243058488
  0
LINE
  5
E6
330
1F
100
AcDbEntity
  8
0
  6
SLD-Durchgehend
 62
     7
370
    15
100
AcDbLine
 10
174.1244646651
 20
106.7089879409
 30
0.0
 11
174.1244646651
 21
103.8718729735
 31
0.0
  0
LWPOLYLINE
  5
E7
330
1F
100
AcDbEntity
  8
0
  6
SLD-Durchgehend
 62
     7
370
    15
100
AcDbPolyline
 90
        9
 70
   128
 43
0.0
 10
174.1244646651
 20
106.7089879409
 10
174.08412533
 20
107.0279314638
 10
174.0630966047
 20
107.0804068342
 10
174.0284575749
 20
107.1328775481
 10
174.0076407691
 20
107.1511771053
 10
173.9904171805
 20
107.1606216476
 10
173.9711891819
 20
107.1658882767
 10
173.9545833512
 20
107.166359526
 10
173.9294877584
 20
107.1603664652
  0
LWPOLYLINE
  5
E8
330
1F
100
AcDbEntity
  8
0
  6
SLD-Durchgehend
 62
     7
370
    15
100
AcDbPolyline
 90
        8
 70
   128
 43
0.0
 10
173.9294877584
 20
107.1603664652
 10
173.8535634609
 20
107.1367267043
 10
173.7632670224
 20
107.1247796983
 10
173.6768613005
 20
107.1293655306
 10
173.5919690941
 20
107.1490797669
 10
173.4767690318
 20
107.2005744547
 10
173.2479039597
 20
107.396820885
 10
173.0683803576
 20
107.6629556239
  0
LINE
  5
E9
330
1F
100
AcDbEntity
  8
0
  6
SLD-Durchgehend
 62
     7
370
    15
100
AcDbLine
 10
173.0683803576
 20
107.6629556239
 30
0.0
 11
173.0031443544
 21
107.8022861377
 31
0.0
  0
LINE
  5
EA
330
1F
100
AcDbEntity
  8
0
  6
SLD-Durchgehend
 62
     7
370
    15
100
AcDbLine
 10
173.0031443544
 20
114.3347931549
 30
0.0
 11
173.0683803576
 21
114.6028471168
 31
0.0
  0
LWPOLYLINE
  5
EB
330
1F
100
AcDbEntity
  8
0
  6
SLD-Durchgehend
 62
     7
370
    15
100
AcDbPolyline
 90
        9
 70
   128
 43
0.0
 10
173.0683803576
 20
114.6028471168
 10
173.2209943252
 20
115.089618693
 10
173.462509028
 20
115.5316187989
 10
173.582999119
 20
115.6506506715
 10
173.6612209602
 20
115.6914749638
 10
173.7494902004
 20
115.703583787
 10
173.8235458283
 20
115.6859158993
 10
173.9156497893
 20
115.6279706385
 10
173.9294877584
 20
115.6157533162
  0
LWPOLYLINE
  5
EC
330
1F
100
AcDbEntity
  8
0
  6
SLD-Durchgehend
 62
     7
370
    15
100
AcDbPolyline
 90
        9
 70
   128
 43
0.0
 10
173.9294877584
 20
115.6157533162
 10
173.9501067746
 20
115.6006498251
 10
173.9693687082
 20
115.5935419713
 10
173.9896110335
 20
115.5938453496
 10
174.0052087366
 20
115.6000777603
 10
174.0262147173
 20
115.6180487935
 10
174.0546170872
 20
115.664749964
 10
174.1016136471
 20
115.8502680239
 10
174.1244646651
 20
116.2446980354
  0
LINE
  5
ED
330
1F
100
AcDbEntity
  8
0
  6
SLD-Durchgehend
 62
     7
370
    15
100
AcDbLine
 10
174.1244646651
 20
130.9313926369
 30
0.0
 11
174.1244646651
 21
116.2446980354
 31
0.0
  0
LWPOLYLINE
  5
EE
330
1F
100
AcDbEntity
  8
0
  6
SLD-Durchgehend
 62
     7
370
    15
100
AcDbPolyline
 90
        9
 70
   128
 43
0.0
 10
174.1244646651
 20
130.9313926369
 10
174.08412533
 20
131.1010255933
 10
174.0630966047
 20
131.1193298072
 10
174.0284575749
 20
131.131495674
 10
174.0076407691
 20
131.1323366583
 10
173.9904171805
 20
131.1304237217
 10
173.9711891819
 20
131.1259570986
 10
173.9545833512
 20
131.1203356356
 10
173.9294877584
 20
131.108958599
  0
LWPOLYLINE
  5
EF
330
1F
100
AcDbEntity
  8
0
  6
SLD-Durchgehend
 62
     7
370
    15
100
AcDbPolyline
 90
        8
 70
   128
 43
0.0
 10
173.9294877584
 20
131.108958599
 10
173.8535634609
 20
131.0768987507
 10
173.7632670224
 20
131.0580729962
 10
173.6768613005
 20
131.0594718427
 10
173.5919690941
 20
131.0792251945
 10
173.4767690318
 20
131.1351809174
 10
173.2479039597
 20
131.3482367888
 10
173.0683803576
 20
131.6192758724
  0
LINE
  5
F0
330
1F
100
AcDbEntity
  8
0
  6
SLD-Durchgehend
 62
     7
370
    15
100
AcDbLine
 10
173.0031443544
 20
131.7479995534
 30
0.0
 11
173.0683803576
 21
131.6192758724
 31
0.0
  0
LWPOLYLINE
  5
F1
330
1F
100
AcDbEntity
  8
0
  6
SLD-Durchgehend
 62
     7
370
    15
100
AcDbPolyline
 90
       15
 70
   128
 43
0.0
 10
172.8294246382
 20
108.3282719821
 10
172.7544004348
 20
108.5693271354
 10
172.729000125
 20
108.6240376801
 10
172.7182005084
 20
108.6407698214
 10
172.7092884498
 20
108.6509203062
 10
172.6977319008
 20
108.6582563341
 10
172.6921890181
 20
108.6590675161
 10
172.6856912969
 20
108.6574377016
 10
172.6809280476
 20
108.6542646855
 10
172.6764716691
 20
108.6496034161
 10
172.6707935118
 20
108.6410035834
 10
172.6627844869
 20
108.6229443074
 10
172.6466764481
 20
108.557413657
 10
172.626181065
 20
108.3176241711
 10
172.6244646375
 20
108.223852095
  0
ARC
  5
F2
330
1F
100
AcDbEntity
  8
0
  6
SLD-Durchgehend
 62
     7
370
    15
100
AcDbCircle
 10
186.0689269775
 20
110.7753348526
 30
0.0
 40
13.68443027222486
100
AcDbArc
 50
169.254229336
 51
190.745770664
  0
LWPOLYLINE
  5
F3
330
1F
100
AcDbEntity
  8
0
  6
SLD-Durchgehend
 62
     7
370
    15
100
AcDbPolyline
 90
       13
 70
   128
 43
0.0
 10
172.6244646375
 20
113.3268176101
 10
172.6248967712
 20
113.2768689178
 10
172.6520956977
 20
112.9088726349
 10
172.6643311809
 20
112.8712933034
 10
172.671453121
 20
112.8608871706
 10
172.676268408
 20
112.85756654
 10
172.681044463
 20
112.8568363831
 10
172.686175119
 20
112.8585909948
 10
172.6918762102
 20
112.8633020901
 10
172.7001172508
 20
112.8746511869
 10
172.7190297347
 20
112.9174859718
 10
172.7731649549
 20
113.1283401966
 10
172.8294246382
 20
113.4317432054
  0
LINE
  5
F4
330
1F
100
AcDbEntity
  8
0
  6
SLD-Durchgehend
 62
     7
370
    15
100
AcDbLine
 10
172.8294246382
 20
113.4317432054
 30
0.0
 11
173.0031443544
 21
114.3347931549
 31
0.0
  0
LINE
  5
F5
330
1F
100
AcDbEntity
  8
0
  6
SLD-Durchgehend
 62
     7
370
    15
100
AcDbLine
 10
173.0031443544
 20
107.8022861377
 30
0.0
 11
172.8294246382
 21
108.3282719821
 31
0.0
  0
LINE
  5
F6
330
1F
100
AcDbEntity
  8
0
  6
SLD-Durchgehend
 62
     7
370
    15
100
AcDbLine
 10
172.6244646375
 20
107.4993539125
 30
0.0
 11
172.6244646375
 21
108.223852095
 31
0.0
  0
LINE
  5
F7
330
1F
100
AcDbEntity
  8
0
  6
SLD-Durchgehend
 62
     7
370
    15
100
AcDbLine
 10
151.824463766
 20
107.9519114912
 30
0.0
 11
151.824463766
 21
114.6028471168
 31
0.0
  0
LINE
  5
F8
330
1F
100
AcDbEntity
  8
0
  6
SLD-Durchgehend
 62
     7
370
    15
100
AcDbLine
 10
172.6244646375
 20
113.3268176101
 30
0.0
 11
172.6244646375
 21
114.6028471168
 31
0.0
  0
LINE
  5
F9
330
1F
100
AcDbEntity
  8
0
  6
SLD-Durchgehend
 62
     7
370
    15
100
AcDbLine
 10
151.824463766
 20
114.6028471168
 30
0.0
 11
151.824463766
 21
131.3303200052
 31
0.0
  0
LINE
  5
FA
330
1F
100
AcDbEntity
  8
0
  6
SLD-Durchgehend
 62
     7
370
    15
100
AcDbLine
 10
172.6244646375
 20
114.6028471168
 30
0.0
 11
172.6244646375
 21
131.7828775838
 31
0.0
  0
LINE
  5
FB
330
1F
100
AcDbEntity
  8
0
  6
SLD-Durchgehend
 62
     7
370
    15
100
AcDbLine
 10
150.3244644514
 20
114.6028471168
 30
0.0
 11
150.3244644514
 21
130.5803203479
 31
0.0
  0
LINE
  5
FC
330
1F
100
AcDbEntity
  8
0
  6
SLD-Durchgehend
 62
     7
370
    15
100
AcDbLine
 10
150.3244644514
 20
108.7019111485
 30
0.0
 11
150.3244644514
 21
114.6028471168
 31
0.0
  0
LINE
  5
FD
330
1F
100
AcDbEntity
  8
0
  6
SLD-Durchgehend
 62
     7
370
    15
100
AcDbLine
 10
172.6244646375
 20
104.8415939778
 30
0.0
 11
172.6244646375
 21
107.4993539125
 31
0.0
  0
LINE
  5
FE
330
1F
100
AcDbEntity
  8
0
  6
SLD-Durchgehend
 62
     7
370
    15
100
AcDbLine
 10
151.824463766
 20
105.5338982016
 30
0.0
 11
154.5244647673
 21
105.4705459148
 31
0.0
  0
LINE
  5
FF
330
1F
100
AcDbEntity
  8
0
  6
SLD-Durchgehend
 62
     7
370
    15
100
AcDbLine
 10
151.824463766
 20
105.5338982016
 30
0.0
 11
151.824463766
 21
107.9519114912
 31
0.0
  0
ARC
  5
100
330
1F
100
AcDbEntity
  8
0
  6
SLD-Durchgehend
 62
     7
370
    15
100
AcDbCircle
 10
158.0460481176
 20
126.3482749812
 30
0.0
 40
21.17265028906764
100
AcDbArc
 50
260.4256688773
 51
265.075178892
  0
ARC
  5
101
330
1F
100
AcDbEntity
  8
0
  6
SLD-Durchgehend
 62
     7
370
    15
100
AcDbCircle
 10
162.3344832655
 20
82.9609740463
 30
0.0
 40
22.28840237818529
100
AcDbArc
 50
81.8192430794
 51
95.2595319842
  0
LWPOLYLINE
  5
102
330
1F
100
AcDbEntity
  8
0
  6
SLD-Durchgehend
 62
     7
370
    15
100
AcDbPolyline
 90
        3
 70
   128
 43
0.0
 10
150.3244644514
 20
106.3231987402
 10
151.0514474026
 20
105.9451804951
 10
151.824463766
 20
105.5338982016
  0
LINE
  5
103
330
1F
100
AcDbEntity
  8
0
  6
SLD-Durchgehend
 62
     7
370
    15
100
AcDbLine
 10
150.3244644514
 20
106.3231987402
 30
0.0
 11
150.3244644514
 21
108.7019111485
 31
0.0
  0
ARC
  5
104
330
1F
100
AcDbEntity
  8
0
  6
SLD-Durchgehend
 62
     7
370
    15
100
AcDbCircle
 10
261.7884866713
 20
172.5939643141
 30
0.0
 40
97.83176705700541
100
AcDbArc
 50
203.967149507
 51
204.3002433912
  0
LINE
  5
105
330
1F
100
AcDbEntity
  8
0
  6
SLD-Durchgehend
 62
     7
370
    15
100
AcDbLine
 10
172.6244646375
 20
132.3344086752
 30
0.0
 11
172.6244646375
 21
131.7828775838
 31
0.0
  0
LINE
  5
106
330
1F
100
AcDbEntity
  8
0
  6
SLD-Durchgehend
 62
     7
370
    15
100
AcDbLine
 10
151.824463766
 20
132.3592237652
 30
0.0
 11
151.824463766
 21
131.3303200052
 31
0.0
  0
LWPOLYLINE
  5
107
330
1F
100
AcDbEntity
  8
0
  6
SLD-Durchgehend
 62
     7
370
    15
100
AcDbPolyline
 90
       13
 70
   128
 43
0.0
 10
172.6244646375
 20
132.3344086752
 10
172.6323197613
 20
132.3789668724
 10
172.6519733452
 20
132.3912919954
 10
172.6632905443
 20
132.3873282865
 10
172.6729374164
 20
132.3808863283
 10
172.6776621322
 20
132.3769570783
 10
172.6832147938
 20
132.3717947573
 10
172.6880389283
 20
132.3668838933
 10
172.6943835634
 20
132.3598877982
 10
172.7043125097
 20
132.3478560418
 10
172.7298450674
 20
132.3119544879
 10
172.7935353079
 20
132.1996667877
 10
172.8294246382
 20
132.1250641242
  0
LINE
  5
108
330
1F
100
AcDbEntity
  8
0
  6
SLD-Durchgehend
 62
     7
370
    15
100
AcDbLine
 10
172.8294246382
 20
132.1250641242
 30
0.0
 11
173.0031443544
 21
131.7479995534
 31
0.0
  0
LINE
  5
109
330
1F
100
AcDbEntity
  8
0
  6
SLD-Durchgehend
 62
     7
370
    15
100
AcDbLine
 10
150.3244644514
 20
131.4931980789
 30
0.0
 11
150.3244644514
 21
130.5803203479
 31
0.0
  0
LINE
  5
10A
330
1F
100
AcDbEntity
  8
0
  6
SLD-Gestrichelt
 62
     7
370
     0
100
AcDbLine
 10
194.324464213
 20
98.5616923765
 30
0.0
 11
194.324464213
 21
137.3616935209
 31
0.0
  0
LINE
  5
10B
330
1F
100
AcDbEntity
  8
0
  6
SLD-Gestrichelt
 62
     7
370
     0
100
AcDbLine
 10
174.32446466
 20
137.6616930113
 30
0.0
 11
174.32446466
 21
98.2616928861
 31
0.0
  0
LWPOLYLINE
  5
10C
330
1F
100
AcDbEntity
  8
0
  6
SLD-Gestrichelt
 62
     7
370
     0
100
AcDbPolyline
 90
       11
 70
   128
 43
0.0
 10
184.3244644365
 20
97.9616933957
 10
184.4365528336
 20
97.9725898698
 10
184.7598912677
 20
98.0005332724
 10
185.259895075
 20
98.033489053
 10
185.8814662806
 20
98.0570142612
 10
186.5512567124
 20
98.0606520072
 10
187.1931298188
 20
98.0429941312
 10
187.7385709918
 20
98.01176316
 10
188.1271318084
 20
97.9804614082
 10
188.3123448602
 20
97.9629003898
 10
188.2995624578
 20
97.9641595379
  0
ARC
  5
10D
330
1F
100
AcDbEntity
  8
0
  6
SLD-Gestrichelt
 62
     7
370
     0
100
AcDbCircle
 10
181.3618467519
 20
111.7800734022
 30
0.0
 40
0.3678536543011655
100
AcDbArc
 50
106.6631816763
 51
173.2283745043
  0
LINE
  5
10E
330
1F
100
AcDbEntity
  8
0
  6
SLD-Gestrichelt
 62
     7
370
     0
100
AcDbLine
 10
183.3925625792
 20
112.1324797616
 30
0.0
 11
181.2563665694
 21
112.1324797616
 31
0.0
  0
ARC
  5
10F
330
1F
100
AcDbEntity
  8
0
  6
SLD-Gestrichelt
 62
     7
370
     0
100
AcDbCircle
 10
183.3007979911
 20
111.7916042886
 30
0.0
 40
0.3530110871912777
100
AcDbArc
 50
5.1754309177
 51
74.9330129017
  0
ELLIPSE
  5
110
330
1F
100
AcDbEntity
  8
0
  6
SLD-Gestrichelt
 62
     7
370
     0
100
AcDbEllipse
 10
173.3755354876
 20
117.9616929487
 30
0.0
 11
-9.367417879781726
 21
19.74174915274994
 31
0.0
210
0.0
220
0.0
230
1.0
 40
0.3419987131
 41
3.292664382516903
 42
4.239566697061008
  0
ARC
  5
111
330
1F
100
AcDbEntity
  8
0
  6
SLD-Gestrichelt
 62
     7
370
     0
100
AcDbCircle
 10
183.4148802427
 20
99.1669437909
 30
0.0
 40
0.3376459602488099
100
AcDbArc
 50
266.2101105761
 51
314.6979206816
  0
LINE
  5
112
330
1F
100
AcDbEntity
  8
0
  6
SLD-Gestrichelt
 62
     7
370
     0
100
AcDbLine
 10
181.2563665694
 20
98.8300362125
 30
0.0
 11
183.3925625792
 21
98.8300362125
 31
0.0
  0
ARC
  5
113
330
1F
100
AcDbEntity
  8
0
  6
SLD-Gestrichelt
 62
     7
370
     0
100
AcDbCircle
 10
181.2368991298
 20
99.1745857524
 30
0.0
 40
0.3450990678326843
100
AcDbArc
 50
225.8581305245
 51
273.2338382178
  0
ELLIPSE
  5
114
330
1F
100
AcDbEntity
  8
0
  6
SLD-Gestrichelt
 62
     7
370
     0
100
AcDbEllipse
 10
191.2733938325
 20
117.9616929487
 30
0.0
 11
9.367417879781613
 21
19.74174915274996
 31
0.0
210
0.0
220
0.0
230
1.0
 40
0.3419987131
 41
2.043618610118588
 42
2.990520924662725
  0
ARC
  5
115
330
1F
100
AcDbEntity
  8
0
  6
SLD-Gestrichelt
 62
     7
370
     0
100
AcDbCircle
 10
181.234048906
 20
136.7564421064
 30
0.0
 40
0.3376459602487843
100
AcDbArc
 50
86.2101105761
 51
134.6979206816
  0
LINE
  5
116
330
1F
100
AcDbEntity
  8
0
  6
SLD-Gestrichelt
 62
     7
370
     0
100
AcDbLine
 10
183.3925625792
 20
137.0933496848
 30
0.0
 11
181.2563665694
 21
137.0933496848
 31
0.0
  0
ARC
  5
117
330
1F
100
AcDbEntity
  8
0
  6
SLD-Gestrichelt
 62
     7
370
     0
100
AcDbCircle
 10
183.412030183
 20
136.748800585
 30
0.0
 40
0.3450986377754509
100
AcDbArc
 50
45.8580991996
 51
93.2338695427
  0
ELLIPSE
  5
118
330
1F
100
AcDbEntity
  8
0
  6
SLD-Gestrichelt
 62
     7
370
     0
100
AcDbEllipse
 10
173.3755354876
 20
117.9616929487
 30
0.0
 11
9.367417879781868
 21
19.74174915274996
 31
0.0
210
0.0
220
0.0
230
1.0
 40
0.3419987131
 41
5.185211263708416
 42
6.132113578252578
  0
ARC
  5
119
330
1F
100
AcDbEntity
  8
0
  6
SLD-Gestrichelt
 62
     7
370
     0
100
AcDbCircle
 10
183.2870823968
 20
124.1433124951
 30
0.0
 40
0.367853654301139
100
AcDbArc
 50
286.6631816763
 51
353.2283745043
  0
LINE
  5
11A
330
1F
100
AcDbEntity
  8
0
  6
SLD-Gestrichelt
 62
     7
370
     0
100
AcDbLine
 10
181.2563665694
 20
123.7909061358
 30
0.0
 11
183.3925625792
 21
123.7909061358
 31
0.0
  0
ARC
  5
11B
330
1F
100
AcDbEntity
  8
0
  6
SLD-Gestrichelt
 62
     7
370
     0
100
AcDbCircle
 10
181.3481314255
 20
124.1317818339
 30
0.0
 40
0.3530113743224786
100
AcDbArc
 50
185.1754634028
 51
254.9329804166
  0
ELLIPSE
  5
11C
330
1F
100
AcDbEntity
  8
0
  6
SLD-Gestrichelt
 62
     7
370
     0
100
AcDbEllipse
 10
191.2733938325
 20
117.9616929487
 30
0.0
 11
-9.367417879781728
 21
19.74174915274996
 31
0.0
210
0.0
220
0.0
230
1.0
 40
0.3419987131
 41
0.1510717289270501
 42
1.097974043471186
  0
LINE
  5
11D
330
1F
100
AcDbEntity
  8
0
  6
SLD-Gestrichelt
 62
     7
370
     0
100
AcDbLine
 10
194.324464213
 20
99.9656406686
 30
0.0
 11
194.324464213
 21
135.9577452287
 31
0.0
  0
LINE
  5
11E
330
1F
100
AcDbEntity
  8
0
  6
SLD-Gestrichelt
 62
     7
370
     0
100
AcDbLine
 10
248.6244632414
 20
117.9616929487
 30
0.0
 11
248.6244632414
 21
133.9616937086
 31
0.0
  0
LINE
  5
11F
330
1F
100
AcDbEntity
  8
0
  6
SLD-Gestrichelt
 62
     7
370
     0
100
AcDbLine
 10
248.6244632414
 20
101.9616921887
 30
0.0
 11
248.6244632414
 21
117.9616929487
 31
0.0
  0
LINE
  5
120
330
1F
100
AcDbEntity
  8
0
  6
SLD-Gestrichelt
 62
     7
370
     0
100
AcDbLine
 10
249.7244669608
 20
118.8554751909
 30
0.0
 11
248.8544626645
 21
119.3577699352
 31
0.0
  0
ARC
  5
121
330
1F
100
AcDbEntity
  8
0
  6
SLD-Gestrichelt
 62
     7
370
     0
100
AcDbCircle
 10
248.9144693209
 20
119.4616929617
 30
0.0
 40
0.1200033093097718
100
AcDbArc
 50
120.0027575772
 51
239.9972424228
  0
LINE
  5
122
330
1F
100
AcDbEntity
  8
0
  6
SLD-Gestrichelt
 62
     7
370
     0
100
AcDbLine
 10
248.8544626645
 20
119.5656159882
 30
0.0
 11
249.7244669608
 21
120.0679106161
 31
0.0
  0
LINE
  5
123
330
1F
100
AcDbEntity
  8
0
  6
SLD-Gestrichelt
 62
     7
370
     0
100
AcDbLine
 10
249.7244669608
 20
120.0679106161
 30
0.0
 11
249.7244669608
 21
120.3554750875
 31
0.0
  0
LINE
  5
124
330
1F
100
AcDbEntity
  8
0
  6
SLD-Gestrichelt
 62
     7
370
     0
100
AcDbLine
 10
249.7244669608
 20
120.3554750875
 30
0.0
 11
248.8544626645
 21
120.8577699483
 31
0.0
  0
ARC
  5
125
330
1F
100
AcDbEntity
  8
0
  6
SLD-Gestrichelt
 62
     7
370
     0
100
AcDbCircle
 10
248.9144698131
 20
120.9616929747
 30
0.0
 40
0.1200035554328211
100
AcDbArc
 50
120.0029610901
 51
239.9970389099
  0
LINE
  5
126
330
1F
100
AcDbEntity
  8
0
  6
SLD-Gestrichelt
 62
     7
370
     0
100
AcDbLine
 10
248.8544626645
 20
121.0656160012
 30
0.0
 11
249.7244669608
 21
121.5679106292
 31
0.0
  0
LINE
  5
127
330
1F
100
AcDbEntity
  8
0
  6
SLD-Gestrichelt
 62
     7
370
     0
100
AcDbLine
 10
249.7244669608
 20
121.5679106292
 30
0.0
 11
249.7244669608
 21
121.8554751005
 31
0.0
  0
LINE
  5
128
330
1F
100
AcDbEntity
  8
0
  6
SLD-Gestrichelt
 62
     7
370
     0
100
AcDbLine
 10
249.7244669608
 20
121.8554751005
 30
0.0
 11
248.8544626645
 21
122.3577697285
 31
0.0
  0
ARC
  5
129
330
1F
100
AcDbEntity
  8
0
  6
SLD-Gestrichelt
 62
     7
370
     0
100
AcDbCircle
 10
248.9144712274
 20
122.461692755
 30
0.0
 40
0.1200042626650837
100
AcDbArc
 50
120.0035458707
 51
239.9964541293
  0
LINE
  5
12A
330
1F
100
AcDbEntity
  8
0
  6
SLD-Gestrichelt
 62
     7
370
     0
100
AcDbLine
 10
248.8544626645
 20
122.5656157814
 30
0.0
 11
249.7244669608
 21
123.0679106422
 31
0.0
  0
LINE
  5
12B
330
1F
100
AcDbEntity
  8
0
  6
SLD-Gestrichelt
 62
     7
370
     0
100
AcDbLine
 10
249.7244669608
 20
123.0679106422
 30
0.0
 11
249.7244669608
 21
123.3554751136
 31
0.0
  0
LINE
  5
12C
330
1F
100
AcDbEntity
  8
0
  6
SLD-Gestrichelt
 62
     7
370
     0
100
AcDbLine
 10
249.7244669608
 20
123.3554751136
 30
0.0
 11
248.8544626645
 21
123.8577699744
 31
0.0
  0
ARC
  5
12D
330
1F
100
AcDbEntity
  8
0
  6
SLD-Gestrichelt
 62
     7
370
     0
100
AcDbCircle
 10
248.9144661968
 20
123.9616930008
 30
0.0
 40
0.1200017471595853
100
AcDbArc
 50
120.0014658266
 51
239.9985341734
  0
LINE
  5
12E
330
1F
100
AcDbEntity
  8
0
  6
SLD-Gestrichelt
 62
     7
370
     0
100
AcDbLine
 10
248.8544626645
 20
124.0656160273
 30
0.0
 11
249.7244669608
 21
124.5679108881
 31
0.0
  0
LINE
  5
12F
330
1F
100
AcDbEntity
  8
0
  6
SLD-Gestrichelt
 62
     7
370
     0
100
AcDbLine
 10
249.7244669608
 20
124.5679108881
 30
0.0
 11
249.7244669608
 21
124.8554753594
 31
0.0
  0
LINE
  5
130
330
1F
100
AcDbEntity
  8
0
  6
SLD-Gestrichelt
 62
     7
370
     0
100
AcDbLine
 10
249.7244669608
 20
124.8554753594
 30
0.0
 11
248.8544626645
 21
125.3577697546
 31
0.0
  0
ARC
  5
131
330
1F
100
AcDbEntity
  8
0
  6
SLD-Gestrichelt
 62
     7
370
     0
100
AcDbCircle
 10
248.9144657166
 20
125.461692781
 30
0.0
 40
0.1200015070412442
100
AcDbArc
 50
120.0012672639
 51
239.998732736
  0
LINE
  5
132
330
1F
100
AcDbEntity
  8
0
  6
SLD-Gestrichelt
 62
     7
370
     0
100
AcDbLine
 10
248.8544626645
 20
125.5656158075
 30
0.0
 11
249.7244669608
 21
126.0679106683
 31
0.0
  0
LINE
  5
133
330
1F
100
AcDbEntity
  8
0
  6
SLD-Gestrichelt
 62
     7
370
     0
100
AcDbLine
 10
249.7244669608
 20
126.0679106683
 30
0.0
 11
249.7244669608
 21
126.3554751397
 31
0.0
  0
LINE
  5
134
330
1F
100
AcDbEntity
  8
0
  6
SLD-Gestrichelt
 62
     7
370
     0
100
AcDbLine
 10
249.7244669608
 20
126.3554751397
 30
0.0
 11
248.8544626645
 21
126.8577700004
 31
0.0
  0
ARC
  5
135
330
1F
100
AcDbEntity
  8
0
  6
SLD-Gestrichelt
 62
     7
370
     0
100
AcDbCircle
 10
248.9144720992
 20
126.9616930269
 30
0.0
 40
0.120004698616631
100
AcDbArc
 50
120.0039063321
 51
239.9960936679
  0
LINE
  5
136
330
1F
100
AcDbEntity
  8
0
  6
SLD-Gestrichelt
 62
     7
370
     0
100
AcDbLine
 10
248.8544626645
 20
127.0656160534
 30
0.0
 11
249.7244669608
 21
127.5679109142
 31
0.0
  0
LINE
  5
137
330
1F
100
AcDbEntity
  8
0
  6
SLD-Gestrichelt
 62
     7
370
     0
100
AcDbLine
 10
249.7244669608
 20
127.5679109142
 30
0.0
 11
249.7244669608
 21
127.8554753855
 31
0.0
  0
LINE
  5
138
330
1F
100
AcDbEntity
  8
0
  6
SLD-Gestrichelt
 62
     7
370
     0
100
AcDbLine
 10
249.7244669608
 20
127.8554753855
 30
0.0
 11
248.8544626645
 21
128.3577702463
 31
0.0
  0
ARC
  5
139
330
1F
100
AcDbEntity
  8
0
  6
SLD-Gestrichelt
 62
     7
370
     0
100
AcDbCircle
 10
248.9144646303
 20
128.4616932728
 30
0.0
 40
0.1200009639157563
100
AcDbArc
 50
120.0008181263
 51
239.9991818737
  0
LINE
  5
13A
330
1F
100
AcDbEntity
  8
0
  6
SLD-Gestrichelt
 62
     7
370
     0
100
AcDbLine
 10
248.8544626645
 20
128.5656162992
 30
0.0
 11
249.7244669608
 21
129.06791116
 31
0.0
  0
LINE
  5
13B
330
1F
100
AcDbEntity
  8
0
  6
SLD-Gestrichelt
 62
     7
370
     0
100
AcDbLine
 10
249.7244669608
 20
129.06791116
 30
0.0
 11
249.7244669608
 21
129.3554756314
 31
0.0
  0
LINE
  5
13C
330
1F
100
AcDbEntity
  8
0
  6
SLD-Gestrichelt
 62
     7
370
     0
100
AcDbLine
 10
249.7244669608
 20
129.3554756314
 30
0.0
 11
248.8544626645
 21
129.8577695608
 31
0.0
  0
ARC
  5
13D
330
1F
100
AcDbEntity
  8
0
  6
SLD-Gestrichelt
 62
     7
370
     0
100
AcDbCircle
 10
248.9144708114
 20
129.9616925873
 30
0.0
 40
0.1200040546651987
100
AcDbArc
 50
120.0033738861
 51
239.9966261139
  0
LINE
  5
13E
330
1F
100
AcDbEntity
  8
0
  6
SLD-Gestrichelt
 62
     7
370
     0
100
AcDbLine
 10
248.8544626645
 20
130.0656156138
 30
0.0
 11
249.7244669608
 21
130.5679104746
 31
0.0
  0
LINE
  5
13F
330
1F
100
AcDbEntity
  8
0
  6
SLD-Gestrichelt
 62
     7
370
     0
100
AcDbLine
 10
249.7244669608
 20
130.5679104746
 30
0.0
 11
249.7244669608
 21
130.8554749459
 31
0.0
  0
LINE
  5
140
330
1F
100
AcDbEntity
  8
0
  6
SLD-Gestrichelt
 62
     7
370
     0
100
AcDbLine
 10
249.7244669608
 20
130.8554749459
 30
0.0
 11
248.8544626645
 21
131.3577698067
 31
0.0
  0
LWPOLYLINE
  5
141
330
1F
100
AcDbEntity
  8
0
  6
SLD-Gestrichelt
 62
     7
370
     0
100
AcDbPolyline
 90
        9
 70
   128
 43
0.0
 10
248.8544626645
 20
131.3577698067
 10
248.8467364124
 20
131.3626322419
 10
248.8318874052
 20
131.37462302
 10
248.8214565924
 20
131.3858668775
 10
248.8126649073
 20
131.3981547475
 10
248.804089289
 20
131.4146009729
 10
248.796594005
 20
131.4391757816
 10
248.7975476793
 20
131.4887137607
 10
248.8544626645
 20
131.5656158597
  0
LWPOLYLINE
  5
142
330
1F
100
AcDbEntity
  8
0
  6
SLD-Gestrichelt
 62
     7
370
     0
100
AcDbPolyline
 90
        3
 70
   128
 43
0.0
 10
248.8544626645
 20
131.5656158597
 10
249.3352486304
 20
131.8431974843
 10
249.7244669608
 20
132.0679107204
  0
LINE
  5
143
330
1F
100
AcDbEntity
  8
0
  6
SLD-Gestrichelt
 62
     7
370
     0
100
AcDbLine
 10
249.7244669608
 20
132.0679107204
 30
0.0
 11
249.7244669608
 21
132.3554751918
 31
0.0
  0
LINE
  5
144
330
1F
100
AcDbEntity
  8
0
  6
SLD-Gestrichelt
 62
     7
370
     0
100
AcDbLine
 10
249.7244669608
 20
132.3554751918
 30
0.0
 11
248.8544626645
 21
132.8577700526
 31
0.0
  0
LWPOLYLINE
  5
145
330
1F
100
AcDbEntity
  8
0
  6
SLD-Gestrichelt
 62
     7
370
     0
100
AcDbPolyline
 90
       10
 70
   128
 43
0.0
 10
248.8544626645
 20
132.8577700526
 10
248.8432122878
 20
132.8651368141
 10
248.8355456403
 20
132.871291925
 10
248.827469211
 20
132.8790377349
 10
248.820860546
 20
132.8866037995
 10
248.8141475728
 20
132.8958360002
 10
248.8062797597
 20
132.9097639293
 10
248.796184223
 20
132.9414586991
 10
248.8084851316
 20
133.0179761619
 10
248.8544626645
 20
133.0656161055
  0
LWPOLYLINE
  5
146
330
1F
100
AcDbEntity
  8
0
  6
SLD-Gestrichelt
 62
     7
370
     0
100
AcDbPolyline
 90
        4
 70
   128
 43
0.0
 10
248.8544626645
 20
133.0656161055
 10
249.1195617727
 20
133.2186705888
 10
249.2575092724
 20
133.2983154327
 10
249.2588354758
 20
133.2990800485
  0
LWPOLYLINE
  5
147
330
1F
100
AcDbEntity
  8
0
  6
SLD-Gestrichelt
 62
     7
370
     0
100
AcDbPolyline
 90
        4
 70
   128
 43
0.0
 10
249.2588354758
 20
102.6243058488
 10
249.260057371
 20
102.6236008376
 10
249.1222663334
 20
102.7031525493
 10
248.8544626645
 20
102.8577697918
  0
ARC
  5
148
330
1F
100
AcDbEntity
  8
0
  6
SLD-Gestrichelt
 62
     7
370
     0
100
AcDbCircle
 10
248.91446766
 20
102.9616928183
 30
0.0
 40
0.1200024788242574
100
AcDbArc
 50
120.0020708546
 51
239.9979291454
  0
LINE
  5
149
330
1F
100
AcDbEntity
  8
0
  6
SLD-Gestrichelt
 62
     7
370
     0
100
AcDbLine
 10
248.8544626645
 20
103.0656158448
 30
0.0
 11
249.7244669608
 21
103.5679107055
 31
0.0
  0
LINE
  5
14A
330
1F
100
AcDbEntity
  8
0
  6
SLD-Gestrichelt
 62
     7
370
     0
100
AcDbLine
 10
249.7244669608
 20
103.5679107055
 30
0.0
 11
249.7244669608
 21
103.8554751769
 31
0.0
  0
LWPOLYLINE
  5
14B
330
1F
100
AcDbEntity
  8
0
  6
SLD-Gestrichelt
 62
     7
370
     0
100
AcDbPolyline
 90
        3
 70
   128
 43
0.0
 10
249.7244669608
 20
103.8554751769
 10
249.3372677377
 20
104.0790233285
 10
248.8544626645
 20
104.3577700377
  0
LWPOLYLINE
  5
14C
330
1F
100
AcDbEntity
  8
0
  6
SLD-Gestrichelt
 62
     7
370
     0
100
AcDbPolyline
 90
       10
 70
   128
 43
0.0
 10
248.8544626645
 20
104.3577700377
 10
248.801869016
 20
104.4201891393
 10
248.7946419528
 20
104.4552385331
 10
248.7983374408
 20
104.4919410244
 10
248.803627353
 20
104.5076794446
 10
248.8127468637
 20
104.5253540844
 10
248.8217620662
 20
104.5378952742
 10
248.8324909023
 20
104.5493300528
 10
248.8462446741
 20
104.5604155854
 10
248.8544626645
 20
104.5656160906
  0
LINE
  5
14D
330
1F
100
AcDbEntity
  8
0
  6
SLD-Gestrichelt
 62
     7
370
     0
100
AcDbLine
 10
248.8544626645
 20
104.5656160906
 30
0.0
 11
249.7244669608
 21
105.0679109514
 31
0.0
  0
LINE
  5
14E
330
1F
100
AcDbEntity
  8
0
  6
SLD-Gestrichelt
 62
     7
370
     0
100
AcDbLine
 10
249.7244669608
 20
105.0679109514
 30
0.0
 11
249.7244669608
 21
105.3554754228
 31
0.0
  0
LINE
  5
14F
330
1F
100
AcDbEntity
  8
0
  6
SLD-Gestrichelt
 62
     7
370
     0
100
AcDbLine
 10
249.7244669608
 20
105.3554754228
 30
0.0
 11
248.8544626645
 21
105.8577702836
 31
0.0
  0
LWPOLYLINE
  5
150
330
1F
100
AcDbEntity
  8
0
  6
SLD-Gestrichelt
 62
     7
370
     0
100
AcDbPolyline
 90
        8
 70
   128
 43
0.0
 10
248.8544626645
 20
105.8577702836
 10
248.801958423
 20
105.9199565545
 10
248.7953870109
 20
105.9765427828
 10
248.8012282661
 20
106.001401645
 10
248.8096846751
 20
106.020179902
 10
248.8224326185
 20
106.0387001828
 10
248.8354338816
 20
106.0519910872
 10
248.8544626645
 20
106.0656163365
  0
LINE
  5
151
330
1F
100
AcDbEntity
  8
0
  6
SLD-Gestrichelt
 62
     7
370
     0
100
AcDbLine
 10
248.8544626645
 20
106.0656163365
 30
0.0
 11
249.7244669608
 21
106.567910266
 31
0.0
  0
LINE
  5
152
330
1F
100
AcDbEntity
  8
0
  6
SLD-Gestrichelt
 62
     7
370
     0
100
AcDbLine
 10
249.7244669608
 20
106.567910266
 30
0.0
 11
249.7244669608
 21
106.8554747373
 31
0.0
  0
LINE
  5
153
330
1F
100
AcDbEntity
  8
0
  6
SLD-Gestrichelt
 62
     7
370
     0
100
AcDbLine
 10
249.7244669608
 20
106.8554747373
 30
0.0
 11
248.8544626645
 21
107.3577695981
 31
0.0
  0
ARC
  5
154
330
1F
100
AcDbEntity
  8
0
  6
SLD-Gestrichelt
 62
     7
370
     0
100
AcDbCircle
 10
248.9144661616
 20
107.4616926246
 30
0.0
 40
0.1200017295927164
100
AcDbArc
 50
120.0014513
 51
239.9985487
  0
LINE
  5
155
330
1F
100
AcDbEntity
  8
0
  6
SLD-Gestrichelt
 62
     7
370
     0
100
AcDbLine
 10
248.8544626645
 20
107.565615651
 30
0.0
 11
249.7244669608
 21
108.0679105118
 31
0.0
  0
LINE
  5
156
330
1F
100
AcDbEntity
  8
0
  6
SLD-Gestrichelt
 62
     7
370
     0
100
AcDbLine
 10
249.7244669608
 20
108.0679105118
 30
0.0
 11
249.7244669608
 21
108.3554749832
 31
0.0
  0
LINE
  5
157
330
1F
100
AcDbEntity
  8
0
  6
SLD-Gestrichelt
 62
     7
370
     0
100
AcDbLine
 10
249.7244669608
 20
108.3554749832
 30
0.0
 11
248.8544626645
 21
108.857769844
 31
0.0
  0
ARC
  5
158
330
1F
100
AcDbEntity
  8
0
  6
SLD-Gestrichelt
 62
     7
370
     0
100
AcDbCircle
 10
248.9144734101
 20
108.9616928704
 30
0.0
 40
0.1200053541356814
100
AcDbArc
 50
120.0044483281
 51
239.9955516719
  0
LINE
  5
159
330
1F
100
AcDbEntity
  8
0
  6
SLD-Gestrichelt
 62
     7
370
     0
100
AcDbLine
 10
248.8544626645
 20
109.0656158969
 30
0.0
 11
249.7244669608
 21
109.5679107577
 31
0.0
  0
LINE
  5
15A
330
1F
100
AcDbEntity
  8
0
  6
SLD-Gestrichelt
 62
     7
370
     0
100
AcDbLine
 10
249.7244669608
 20
109.5679107577
 30
0.0
 11
249.7244669608
 21
109.8554752291
 31
0.0
  0
LINE
  5
15B
330
1F
100
AcDbEntity
  8
0
  6
SLD-Gestrichelt
 62
     7
370
     0
100
AcDbLine
 10
249.7244669608
 20
109.8554752291
 30
0.0
 11
248.8544626645
 21
110.3577700898
 31
0.0
  0
ARC
  5
15C
330
1F
100
AcDbEntity
  8
0
  6
SLD-Gestrichelt
 62
     7
370
     0
100
AcDbCircle
 10
248.914470633
 20
110.4616931163
 30
0.0
 40
0.1200039654414053
100
AcDbArc
 50
120.003300111
 51
239.996699889
  0
LINE
  5
15D
330
1F
100
AcDbEntity
  8
0
  6
SLD-Gestrichelt
 62
     7
370
     0
100
AcDbLine
 10
248.8544626645
 20
110.5656161428
 30
0.0
 11
249.7244669608
 21
111.0679105379
 31
0.0
  0
LINE
  5
15E
330
1F
100
AcDbEntity
  8
0
  6
SLD-Gestrichelt
 62
     7
370
     0
100
AcDbLine
 10
249.7244669608
 20
111.0679105379
 30
0.0
 11
249.7244669608
 21
111.3554750093
 31
0.0
  0
LINE
  5
15F
330
1F
100
AcDbEntity
  8
0
  6
SLD-Gestrichelt
 62
     7
370
     0
100
AcDbLine
 10
249.7244669608
 20
111.3554750093
 30
0.0
 11
248.8544626645
 21
111.85776987
 31
0.0
  0
ARC
  5
160
330
1F
100
AcDbEntity
  8
0
  6
SLD-Gestrichelt
 62
     7
370
     0
100
AcDbCircle
 10
248.9144692524
 20
111.9616928965
 30
0.0
 40
0.1200032750520777
100
AcDbArc
 50
120.0027292503
 51
239.9972707497
  0
LINE
  5
161
330
1F
100
AcDbEntity
  8
0
  6
SLD-Gestrichelt
 62
     7
370
     0
100
AcDbLine
 10
248.8544626645
 20
112.065615923
 30
0.0
 11
249.7244669608
 21
112.5679107838
 31
0.0
  0
LINE
  5
162
330
1F
100
AcDbEntity
  8
0
  6
SLD-Gestrichelt
 62
     7
370
     0
100
AcDbLine
 10
249.7244669608
 20
112.5679107838
 30
0.0
 11
249.7244669608
 21
112.8554752551
 31
0.0
  0
LINE
  5
163
330
1F
100
AcDbEntity
  8
0
  6
SLD-Gestrichelt
 62
     7
370
     0
100
AcDbLine
 10
249.7244669608
 20
112.8554752551
 30
0.0
 11
248.8544626645
 21
113.3577701159
 31
0.0
  0
ARC
  5
164
330
1F
100
AcDbEntity
  8
0
  6
SLD-Gestrichelt
 62
     7
370
     0
100
AcDbCircle
 10
248.9144637238
 20
113.4616931424
 30
0.0
 40
0.1200005106291514
100
AcDbArc
 50
120.0004432731
 51
239.9995567269
  0
LINE
  5
165
330
1F
100
AcDbEntity
  8
0
  6
SLD-Gestrichelt
 62
     7
370
     0
100
AcDbLine
 10
248.8544626645
 20
113.5656161689
 30
0.0
 11
249.7244669608
 21
114.0679107968
 31
0.0
  0
LINE
  5
166
330
1F
100
AcDbEntity
  8
0
  6
SLD-Gestrichelt
 62
     7
370
     0
100
AcDbLine
 10
249.7244669608
 20
114.0679107968
 30
0.0
 11
249.7244669608
 21
114.3554752682
 31
0.0
  0
LINE
  5
167
330
1F
100
AcDbEntity
  8
0
  6
SLD-Gestrichelt
 62
     7
370
     0
100
AcDbLine
 10
249.7244669608
 20
114.3554752682
 30
0.0
 11
248.8544626645
 21
114.8577698961
 31
0.0
  0
ARC
  5
168
330
1F
100
AcDbEntity
  8
0
  6
SLD-Gestrichelt
 62
     7
370
     0
100
AcDbCircle
 10
248.9144650887
 20
114.9616929226
 30
0.0
 40
0.1200011931218234
100
AcDbArc
 50
120.0010076695
 51
239.9989923305
  0
LINE
  5
169
330
1F
100
AcDbEntity
  8
0
  6
SLD-Gestrichelt
 62
     7
370
     0
100
AcDbLine
 10
248.8544626645
 20
115.0656159491
 30
0.0
 11
249.7244669608
 21
115.5679108098
 31
0.0
  0
LINE
  5
16A
330
1F
100
AcDbEntity
  8
0
  6
SLD-Gestrichelt
 62
     7
370
     0
100
AcDbLine
 10
249.7244669608
 20
115.5679108098
 30
0.0
 11
249.7244669608
 21
115.8554752812
 31
0.0
  0
LINE
  5
16B
330
1F
100
AcDbEntity
  8
0
  6
SLD-Gestrichelt
 62
     7
370
     0
100
AcDbLine
 10
249.7244669608
 20
115.8554752812
 30
0.0
 11
248.8544626645
 21
116.3577699092
 31
0.0
  0
ARC
  5
16C
330
1F
100
AcDbEntity
  8
0
  6
SLD-Gestrichelt
 62
     7
370
     0
100
AcDbCircle
 10
248.9144674151
 20
116.4616929356
 30
0.0
 40
0.1200023563327099
100
AcDbArc
 50
120.0019695652
 51
239.9980304348
  0
LINE
  5
16D
330
1F
100
AcDbEntity
  8
0
  6
SLD-Gestrichelt
 62
     7
370
     0
100
AcDbLine
 10
248.8544626645
 20
116.5656159621
 30
0.0
 11
249.7244669608
 21
117.0679107065
 31
0.0
  0
LINE
  5
16E
330
1F
100
AcDbEntity
  8
0
  6
SLD-Gestrichelt
 62
     7
370
     0
100
AcDbLine
 10
249.7244669608
 20
117.0679107065
 30
0.0
 11
249.7244669608
 21
117.3554751778
 31
0.0
  0
LINE
  5
16F
330
1F
100
AcDbEntity
  8
0
  6
SLD-Gestrichelt
 62
     7
370
     0
100
AcDbLine
 10
249.7244669608
 20
117.3554751778
 30
0.0
 11
248.8544626645
 21
117.8577699004
 31
0.0
  0
ARC
  5
170
330
1F
100
AcDbEntity
  8
0
  6
SLD-Gestrichelt
 62
     7
370
     0
100
AcDbCircle
 10
248.9144670482
 20
117.9616929487
 30
0.0
 40
0.1200021918053571
100
AcDbArc
 50
120.0018126727
 51
239.9981873273
  0
LINE
  5
171
330
1F
100
AcDbEntity
  8
0
  6
SLD-Gestrichelt
 62
     7
370
     0
100
AcDbLine
 10
248.8544626645
 20
118.065615997
 30
0.0
 11
249.7244669608
 21
118.5679107195
 31
0.0
  0
LINE
  5
172
330
1F
100
AcDbEntity
  8
0
  6
SLD-Gestrichelt
 62
     7
370
     0
100
AcDbLine
 10
249.7244669608
 20
118.5679107195
 30
0.0
 11
249.7244669608
 21
118.8554751909
 31
0.0
  0
LINE
  5
173
330
1F
100
AcDbEntity
  8
0
  6
SLD-Gestrichelt
 62
     7
370
     0
100
AcDbLine
 10
174.32446466
 20
102.1655587003
 30
0.0
 11
174.32446466
 21
133.757827197
 31
0.0
  0
LWPOLYLINE
  5
174
330
1F
100
AcDbEntity
  8
0
  6
SLD-Gestrichelt
 62
     7
370
     0
100
AcDbPolyline
 90
        9
 70
   128
 43
0.0
 10
173.0683803576
 20
107.6629556239
 10
173.2192355226
 20
107.4244727835
 10
173.4554816171
 20
107.2133326426
 10
173.5791788338
 20
107.1533713013
 10
173.6572761106
 20
107.1325702116
 10
173.745855132
 20
107.1244500101
 10
173.8207414997
 20
107.1303834662
 10
173.911968795
 20
107.1537820146
 10
173.9294877584
 20
107.1603664652
  0
LWPOLYLINE
  5
175
330
1F
100
AcDbEntity
  8
0
  6
SLD-Gestrichelt
 62
     7
370
     0
100
AcDbPolyline
 90
        9
 70
   128
 43
0.0
 10
173.9294877584
 20
107.1603664652
 10
173.9501067746
 20
107.1658724442
 10
173.9693687082
 20
107.1661183134
 10
173.9896110335
 20
107.1609494731
 10
174.0052087366
 20
107.1528031946
 10
174.0262147173
 20
107.1352542833
 10
174.0546170872
 20
107.09640975
 10
174.1016136471
 20
106.9618578524
 10
174.1244646651
 20
106.7089879409
  0
LINE
  5
176
330
1F
100
AcDbEntity
  8
0
  6
SLD-Gestrichelt
 62
     7
370
     0
100
AcDbLine
 10
174.1244646651
 20
103.8718729735
 30
0.0
 11
174.1244646651
 21
106.7089879409
 31
0.0
  0
LINE
  5
177
330
1F
100
AcDbEntity
  8
0
  6
SLD-Gestrichelt
 62
     7
370
     0
100
AcDbLine
 10
173.0683803576
 20
131.6192758724
 30
0.0
 11
173.0031443544
 21
131.7479995534
 31
0.0
  0
LWPOLYLINE
  5
178
330
1F
100
AcDbEntity
  8
0
  6
SLD-Gestrichelt
 62
     7
370
     0
100
AcDbPolyline
 90
        9
 70
   128
 43
0.0
 10
173.0683803576
 20
131.6192758724
 10
173.2204099203
 20
131.374767375
 10
173.4601545864
 20
131.1460364133
 10
173.5817052209
 20
131.0828461767
 10
173.6598907987
 20
131.0619659245
 10
173.7482734857
 20
131.0569591344
 10
173.8226022822
 20
131.0680949584
 10
173.9144083654
 20
131.101399985
 10
173.9294877584
 20
131.108958599
  0
LWPOLYLINE
  5
179
330
1F
100
AcDbEntity
  8
0
  6
SLD-Gestrichelt
 62
     7
370
     0
100
AcDbPolyline
 90
        9
 70
   128
 43
0.0
 10
173.9294877584
 20
131.108958599
 10
173.9501067746
 20
131.1185568095
 10
173.9693687082
 20
131.1254178629
 10
173.9896110335
 20
131.1302840233
 10
174.0052087366
 20
131.1321978912
 10
174.0262147173
 20
131.1317760021
 10
174.0546170872
 20
131.1239193648
 10
174.1016136471
 20
131.0729527369
 10
174.1244646651
 20
130.9313926369
  0
LINE
  5
17A
330
1F
100
AcDbEntity
  8
0
  6
SLD-Gestrichelt
 62
     7
370
     0
100
AcDbLine
 10
174.1244646651
 20
116.2446980354
 30
0.0
 11
174.1244646651
 21
130.9313926369
 31
0.0
  0
LWPOLYLINE
  5
17B
330
1F
100
AcDbEntity
  8
0
  6
SLD-Gestrichelt
 62
     7
370
     0
100
AcDbPolyline
 90
        9
 70
   128
 43
0.0
 10
174.1244646651
 20
116.2446980354
 10
174.08412533
 20
115.7561215561
 10
174.0630966047
 20
115.6853415061
 10
174.0284575749
 20
115.6207060896
 10
174.0076407691
 20
115.6015646167
 10
173.9904171805
 20
115.5940334767
 10
173.9711891819
 20
115.5932332378
 10
173.9545833512
 20
115.5983834517
 10
173.9294877584
 20
115.6157533162
  0
LWPOLYLINE
  5
17C
330
1F
100
AcDbEntity
  8
0
  6
SLD-Gestrichelt
 62
     7
370
     0
100
AcDbPolyline
 90
        8
 70
   128
 43
0.0
 10
173.9294877584
 20
115.6157533162
 10
173.8535634609
 20
115.6714531582
 10
173.7632670224
 20
115.7022261516
 10
173.6768613005
 20
115.6962414727
 10
173.5919690941
 20
115.6567743503
 10
173.4767690318
 20
115.5493241724
 10
173.2479039597
 20
115.1400211722
 10
173.0683803576
 20
114.6028471168
  0
LINE
  5
17D
330
1F
100
AcDbEntity
  8
0
  6
SLD-Gestrichelt
 62
     7
370
     0
100
AcDbLine
 10
173.0683803576
 20
114.6028471168
 30
0.0
 11
173.0031443544
 21
114.3347931549
 31
0.0
  0
LINE
  5
17E
330
1F
100
AcDbEntity
  8
0
  6
SLD-Gestrichelt
 62
     7
370
     0
100
AcDbLine
 10
173.0031443544
 20
107.8022861377
 30
0.0
 11
173.0683803576
 21
107.6629556239
 31
0.0
  0
LINE
  5
17F
330
1F
100
AcDbEntity
  8
0
  6
SLD-Gestrichelt
 62
     7
370
     0
100
AcDbLine
 10
174.1244646651
 20
116.2446980354
 30
0.0
 11
174.1244646651
 21
130.9313926369
 31
0.0
  0
LINE
  5
180
330
1F
100
AcDbEntity
  8
0
  6
SLD-Gestrichelt
 62
     7
370
     0
100
AcDbLine
 10
248.5244615487
 20
123.6398675002
 30
0.0
 11
248.5244615487
 21
127.8398673505
 31
0.0
  0
LINE
  5
181
330
1F
100
AcDbEntity
  8
0
  6
SLD-Gestrichelt
 62
     7
370
     0
100
AcDbLine
 10
249.7244669608
 20
127.5679109142
 30
0.0
 11
249.7244669608
 21
127.8554753855
 31
0.0
  0
ARC
  5
182
330
1F
100
AcDbEntity
  8
0
  6
SLD-Gestrichelt
 62
     7
370
     0
100
AcDbCircle
 10
248.9144670165
 20
126.9616930269
 30
0.0
 40
0.1200021570628748
100
AcDbArc
 50
120.001804786
 51
239.998195214
  0
LINE
  5
183
330
1F
100
AcDbEntity
  8
0
  6
SLD-Gestrichelt
 62
     7
370
     0
100
AcDbLine
 10
249.7244669608
 20
126.0679106683
 30
0.0
 11
249.7244669608
 21
126.3554751397
 31
0.0
  0
ARC
  5
184
330
1F
100
AcDbEntity
  8
0
  6
SLD-Gestrichelt
 62
     7
370
     0
100
AcDbCircle
 10
248.914466857
 20
125.461692781
 30
0.0
 40
0.1200020772885415
100
AcDbArc
 50
120.0017388191
 51
239.9982611809
  0
LINE
  5
185
330
1F
100
AcDbEntity
  8
0
  6
SLD-Gestrichelt
 62
     7
370
     0
100
AcDbLine
 10
249.7244669608
 20
124.5679108881
 30
0.0
 11
249.7244669608
 21
124.8554753594
 31
0.0
  0
ARC
  5
186
330
1F
100
AcDbEntity
  8
0
  6
SLD-Gestrichelt
 62
     7
370
     0
100
AcDbCircle
 10
248.9144655214
 20
123.9616930008
 30
0.0
 40
0.1200014094528669
100
AcDbArc
 50
120.001186564
 51
239.998813436
  0
LINE
  5
187
330
1F
100
AcDbEntity
  8
0
  6
SLD-Gestrichelt
 62
     7
370
     0
100
AcDbLine
 10
249.7244669608
 20
123.0679106422
 30
0.0
 11
249.7244669608
 21
123.3554751136
 31
0.0
  0
LINE
  5
188
330
1F
100
AcDbEntity
  8
0
  6
SLD-Gestrichelt
 62
     7
370
     0
100
AcDbLine
 10
249.7244669608
 20
127.8554753855
 30
0.0
 11
249.7244669608
 21
127.5679109142
 31
0.0
  0
LWPOLYLINE
  5
189
330
1F
100
AcDbEntity
  8
0
  6
SLD-Gestrichelt
 62
     7
370
     0
100
AcDbPolyline
 90
        6
 70
   128
 43
0.0
 10
249.7244669608
 20
127.8554753855
 10
249.31150363
 20
128.0938986212
 10
249.0414647869
 20
128.2498057455
 10
249.0037424973
 20
128.2715856552
 10
249.31150363
 20
128.0938967586
 10
249.7244669608
 20
127.8554753855
  0
LINE
  5
18A
330
1F
100
AcDbEntity
  8
0
  6
SLD-Gestrichelt
 62
     7
370
     0
100
AcDbLine
 10
249.7244669608
 20
126.3554751397
 30
0.0
 11
249.7244669608
 21
126.0679106683
 31
0.0
  0
ARC
  5
18B
330
1F
100
AcDbEntity
  8
0
  6
SLD-Gestrichelt
 62
     7
370
     0
100
AcDbCircle
 10
248.9144687038
 20
126.9616930269
 30
0.0
 40
0.1200030007456139
100
AcDbArc
 50
120.0025024305
 51
239.9974975695
  0
LINE
  5
18C
330
1F
100
AcDbEntity
  8
0
  6
SLD-Gestrichelt
 62
     7
370
     0
100
AcDbLine
 10
249.7244669608
 20
124.8554753594
 30
0.0
 11
249.7244669608
 21
124.5679108881
 31
0.0
  0
ARC
  5
18D
330
1F
100
AcDbEntity
  8
0
  6
SLD-Gestrichelt
 62
     7
370
     0
100
AcDbCircle
 10
248.9144679383
 20
125.461692781
 30
0.0
 40
0.1200026179507238
100
AcDbArc
 50
120.002185899
 51
239.997814101
  0
LINE
  5
18E
330
1F
100
AcDbEntity
  8
0
  6
SLD-Gestrichelt
 62
     7
370
     0
100
AcDbLine
 10
249.7244669608
 20
123.3554751136
 30
0.0
 11
249.7244669608
 21
123.0679106422
 31
0.0
  0
ARC
  5
18F
330
1F
100
AcDbEntity
  8
0
  6
SLD-Gestrichelt
 62
     7
370
     0
100
AcDbCircle
 10
248.9144634019
 20
123.9616930008
 30
0.0
 40
0.1200003496841309
100
AcDbArc
 50
120.0003101752
 51
239.9996898248
  0
LWPOLYLINE
  5
190
330
1F
100
AcDbEntity
  8
0
  6
SLD-Gestrichelt
 62
     7
370
     0
100
AcDbPolyline
 90
        6
 70
   128
 43
0.0
 10
249.7244669608
 20
123.0679106422
 10
249.4604407361
 20
122.9154750228
 10
249.3315084389
 20
122.8410367377
 10
249.3617577961
 20
122.858500433
 10
249.5277343801
 20
122.954327938
 10
249.7244669608
 20
123.0679106422
  0
LINE
  5
191
330
1F
100
AcDbEntity
  8
0
  6
SLD-Gestrichelt
 62
     7
370
     0
100
AcDbLine
 10
248.5244615487
 20
108.0835185469
 30
0.0
 11
248.5244615487
 21
112.2835183971
 31
0.0
  0
ARC
  5
192
330
1F
100
AcDbEntity
  8
0
  6
SLD-Gestrichelt
 62
     7
370
     0
100
AcDbCircle
 10
248.9144634019
 20
111.9616928965
 30
0.0
 40
0.1200003496841309
100
AcDbArc
 50
120.0003101752
 51
239.9996898248
  0
LINE
  5
193
330
1F
100
AcDbEntity
  8
0
  6
SLD-Gestrichelt
 62
     7
370
     0
100
AcDbLine
 10
249.7244669608
 20
111.0679105379
 30
0.0
 11
249.7244669608
 21
111.3554750093
 31
0.0
  0
ARC
  5
194
330
1F
100
AcDbEntity
  8
0
  6
SLD-Gestrichelt
 62
     7
370
     0
100
AcDbCircle
 10
248.9144679383
 20
110.4616931163
 30
0.0
 40
0.1200026179507115
100
AcDbArc
 50
120.002185899
 51
239.997814101
  0
LINE
  5
195
330
1F
100
AcDbEntity
  8
0
  6
SLD-Gestrichelt
 62
     7
370
     0
100
AcDbLine
 10
249.7244669608
 20
109.5679107577
 30
0.0
 11
249.7244669608
 21
109.8554752291
 31
0.0
  0
ARC
  5
196
330
1F
100
AcDbEntity
  8
0
  6
SLD-Gestrichelt
 62
     7
370
     0
100
AcDbCircle
 10
248.9144687038
 20
108.9616928704
 30
0.0
 40
0.1200030007456016
100
AcDbArc
 50
120.0025024305
 51
239.9974975695
  0
LINE
  5
197
330
1F
100
AcDbEntity
  8
0
  6
SLD-Gestrichelt
 62
     7
370
     0
100
AcDbLine
 10
249.7244669608
 20
108.0679105118
 30
0.0
 11
249.7244669608
 21
108.3554749832
 31
0.0
  0
LINE
  5
198
330
1F
100
AcDbEntity
  8
0
  6
SLD-Gestrichelt
 62
     7
370
     0
100
AcDbLine
 10
249.7244669608
 20
112.5679107838
 30
0.0
 11
249.7244669608
 21
112.8554752551
 31
0.0
  0
LINE
  5
199
330
1F
100
AcDbEntity
  8
0
  6
SLD-Gestrichelt
 62
     7
370
     0
100
AcDbLine
 10
249.7244669608
 20
108.3554749832
 30
0.0
 11
249.7244669608
 21
108.0679105118
 31
0.0
  0
LWPOLYLINE
  5
19A
330
1F
100
AcDbEntity
  8
0
  6
SLD-Gestrichelt
 62
     7
370
     0
100
AcDbPolyline
 90
        6
 70
   128
 43
0.0
 10
249.7244669608
 20
108.0679105118
 10
249.31150363
 20
107.8294872761
 10
249.0414647869
 20
107.6735801518
 10
249.0037424973
 20
107.6518002421
 10
249.31150363
 20
107.8294891388
 10
249.7244669608
 20
108.0679105118
  0
LINE
  5
19B
330
1F
100
AcDbEntity
  8
0
  6
SLD-Gestrichelt
 62
     7
370
     0
100
AcDbLine
 10
249.7244669608
 20
109.8554752291
 30
0.0
 11
249.7244669608
 21
109.5679107577
 31
0.0
  0
ARC
  5
19C
330
1F
100
AcDbEntity
  8
0
  6
SLD-Gestrichelt
 62
     7
370
     0
100
AcDbCircle
 10
248.9144670165
 20
108.9616928704
 30
0.0
 40
0.1200021570628625
100
AcDbArc
 50
120.001804786
 51
239.998195214
  0
LINE
  5
19D
330
1F
100
AcDbEntity
  8
0
  6
SLD-Gestrichelt
 62
     7
370
     0
100
AcDbLine
 10
249.7244669608
 20
111.3554750093
 30
0.0
 11
249.7244669608
 21
111.0679105379
 31
0.0
  0
ARC
  5
19E
330
1F
100
AcDbEntity
  8
0
  6
SLD-Gestrichelt
 62
     7
370
     0
100
AcDbCircle
 10
248.914466857
 20
110.4616931163
 30
0.0
 40
0.1200020772885291
100
AcDbArc
 50
120.0017388191
 51
239.9982611809
  0
LINE
  5
19F
330
1F
100
AcDbEntity
  8
0
  6
SLD-Gestrichelt
 62
     7
370
     0
100
AcDbLine
 10
249.7244669608
 20
112.8554752551
 30
0.0
 11
249.7244669608
 21
112.5679107838
 31
0.0
  0
ARC
  5
1A0
330
1F
100
AcDbEntity
  8
0
  6
SLD-Gestrichelt
 62
     7
370
     0
100
AcDbCircle
 10
248.9144655214
 20
111.9616928965
 30
0.0
 40
0.1200014094528669
100
AcDbArc
 50
120.001186564
 51
239.998813436
  0
LWPOLYLINE
  5
1A1
330
1F
100
AcDbEntity
  8
0
  6
SLD-Gestrichelt
 62
     7
370
     0
100
AcDbPolyline
 90
        6
 70
   128
 43
0.0
 10
249.7244669608
 20
112.8554752551
 10
249.4604407361
 20
113.0079108745
 10
249.3315084389
 20
113.0823491596
 10
249.3617577961
 20
113.0648854643
 10
249.5277343801
 20
112.9690579594
 10
249.7244669608
 20
112.8554752551
  0
LINE
  5
1A2
330
1F
100
AcDbEntity
  8
0
  6
SLD-Gestrichelt
 62
     7
370
     0
100
AcDbLine
 10
151.3514971844
 20
108.3989994124
 30
0.0
 11
151.3514971844
 21
127.524386485
 31
0.0
  0
LINE
  5
1A3
330
1F
100
AcDbEntity
  8
0
  6
SLD-Gestrichelt
 62
     7
370
     0
100
AcDbLine
 10
150.3244644514
 20
107.8098987684
 30
0.0
 11
150.3244644514
 21
128.1134871289
 31
0.0
  0
LINE
  5
1A4
330
1F
100
AcDbEntity
  8
0
  6
SLD-Gestrichelt
 62
     7
370
     0
100
AcDbLine
 10
154.8514968267
 20
108.7307532773
 30
0.0
 11
154.8514968267
 21
127.1926326201
 31
0.0
  0
LINE
  5
1A5
330
1F
100
AcDbEntity
  8
0
  6
SLD-Gestrichelt
 62
     7
370
     0
100
AcDbLine
 10
172.6244646375
 20
107.4993539125
 30
0.0
 11
172.6244646375
 21
104.8415939778
 31
0.0
  0
LINE
  5
1A6
330
1F
100
AcDbEntity
  8
0
  6
SLD-Gestrichelt
 62
     7
370
     0
100
AcDbLine
 10
151.824463766
 20
107.9519114912
 30
0.0
 11
151.824463766
 21
105.5338982016
 31
0.0
  0
LINE
  5
1A7
330
1F
100
AcDbEntity
  8
0
  6
SLD-Gestrichelt
 62
     7
370
     0
100
AcDbLine
 10
154.5244647673
 20
105.4705459148
 30
0.0
 11
151.824463766
 21
105.5338982016
 31
0.0
  0
LWPOLYLINE
  5
1A8
330
1F
100
AcDbEntity
  8
0
  6
SLD-Gestrichelt
 62
     7
370
     0
100
AcDbPolyline
 90
        5
 70
   128
 43
0.0
 10
156.2284069619
 20
105.2537898988
 10
156.2324451766
 20
105.2534369275
 10
156.1515113822
 20
105.2605485067
 10
155.6732865534
 20
105.3090210528
 10
154.5244647673
 20
105.4705459148
  0
LWPOLYLINE
  5
1A9
330
1F
100
AcDbEntity
  8
0
  6
SLD-Gestrichelt
 62
     7
370
     0
100
AcDbPolyline
 90
       10
 70
   128
 43
0.0
 10
160.8919870591
 20
105.2030048788
 10
161.033737149
 20
105.2104480088
 10
161.4680221787
 20
105.2332523734
 10
162.276021812
 20
105.2502424911
 10
163.1820925063
 20
105.2338400379
 10
164.0746813751
 20
105.1811951667
 10
164.8273371643
 20
105.109031637
 10
165.326813843
 20
105.0473631814
 10
165.5208195111
 20
105.0204907999
 10
165.5060450098
 20
105.0225713745
  0
LWPOLYLINE
  5
1AA
330
1F
100
AcDbEntity
  8
0
  6
SLD-Gestrichelt
 62
     7
370
     0
100
AcDbPolyline
 90
        5
 70
   128
 43
0.0
 10
160.2913659549
 20
105.1555353672
 10
160.2906777075
 20
105.1554711059
 10
160.5475625506
 20
105.1777613804
 10
160.6228683627
 20
105.183280398
 10
160.8919870591
 20
105.2030048788
  0
LINE
  5
1AB
330
1F
100
AcDbEntity
  8
0
  6
SLD-Gestrichelt
 62
     7
370
     0
100
AcDbLine
 10
235.9244643262
 20
108.0835185469
 30
0.0
 11
235.9244643262
 21
112.2835183971
 31
0.0
  0
LINE
  5
1AC
330
1F
100
AcDbEntity
  8
0
  6
SLD-Gestrichelt
 62
     7
370
     0
100
AcDbLine
 10
235.9244643262
 20
123.6398675002
 30
0.0
 11
235.9244643262
 21
127.8398673505
 31
0.0
  0
LINE
  5
1AD
330
1F
100
AcDbEntity
  8
0
  6
SLD-Gestrichelt
 62
     7
370
     0
100
AcDbLine
 10
158.251496639
 20
108.9616933361
 30
0.0
 11
158.251496639
 21
126.9616925612
 31
0.0
  0
LINE
  5
1AE
330
1F
100
AcDbEntity
  8
0
  6
SLD-Gestrichelt
 62
     7
370
     0
100
AcDbLine
 10
153.4514973423
 20
108.9616933361
 30
0.0
 11
153.4514973423
 21
126.9616925612
 31
0.0
  0
LINE
  5
1AF
330
1F
100
AcDbEntity
  8
0
  6
SLD-Gestrichelt
 62
     7
370
     0
100
AcDbLine
 10
154.4514975062
 20
108.9616933361
 30
0.0
 11
154.4514975062
 21
126.9616925612
 31
0.0
  0
LINE
  5
1B0
330
1F
100
AcDbEntity
  8
0
  6
SLD-Gestrichelt
 62
     7
370
     0
100
AcDbLine
 10
174.1244646651
 20
106.7089879409
 30
0.0
 11
174.1244646651
 21
104.8248916388
 31
0.0
  0
ARC
  5
1B1
330
1F
100
AcDbEntity
  8
0
  6
SLD-Gestrichelt
 62
     7
370
     0
100
AcDbCircle
 10
162.810524182
 20
100.1067745051
 30
0.0
 40
9.151230283504972
100
AcDbArc
 50
77.2866659709
 51
104.4494395912
  0
ARC
  5
1B2
330
1F
100
AcDbEntity
  8
0
  6
SLD-Gestrichelt
 62
     7
370
     0
100
AcDbCircle
 10
162.810524182
 20
135.8166113923
 30
0.0
 40
9.151230283504985
100
AcDbArc
 50
255.5505604088
 51
282.7133340291
  0
LWPOLYLINE
  5
1B3
330
1F
100
AcDbEntity
  8
0
  6
SLD-Gestrichelt
 62
     7
370
     0
100
AcDbPolyline
 90
        6
 70
   128
 43
0.0
 10
164.8244649655
 20
109.0336473182
 10
165.0241703278
 20
109.028530632
 10
165.1125863678
 20
109.0575711325
 10
165.1230898238
 20
109.0610207513
 10
164.9758523813
 20
109.0220858798
 10
164.8244649655
 20
109.0336473182
  0
LWPOLYLINE
  5
1B4
330
1F
100
AcDbEntity
  8
0
  6
SLD-Gestrichelt
 62
     7
370
     0
100
AcDbPolyline
 90
        6
 70
   128
 43
0.0
 10
164.8244649655
 20
126.8897385791
 10
165.0241703278
 20
126.8948552654
 10
165.1125966123
 20
126.8658119709
 10
165.1230898238
 20
126.862365146
 10
164.9758523813
 20
126.9013000176
 10
164.8244649655
 20
126.8897385791
  0
LINE
  5
1B5
330
1F
100
AcDbEntity
  8
0
  6
SLD-Gestrichelt
 62
     7
370
     0
100
AcDbLine
 10
165.3244650475
 20
109.4616924867
 30
0.0
 11
165.3244650475
 21
126.4616934106
 31
0.0
  0
LINE
  5
1B6
330
1F
100
AcDbEntity
  8
0
  6
SLD-Gestrichelt
 62
     7
370
     0
100
AcDbLine
 10
166.2244644499
 20
111.7116928555
 30
0.0
 11
166.2244644499
 21
124.2116930418
 31
0.0
  0
LINE
  5
1B7
330
1F
100
AcDbEntity
  8
0
  6
SLD-Gestrichelt
 62
     7
370
     0
100
AcDbLine
 10
165.3244650475
 20
110.8156855673
 30
0.0
 11
165.3244650475
 21
125.1077003301
 31
0.0
  0
LINE
  5
1B8
330
1F
100
AcDbEntity
  8
0
  6
SLD-Gestrichelt
 62
     7
370
     0
100
AcDbLine
 10
248.7244649342
 20
111.9616928965
 30
0.0
 11
248.7244649342
 21
123.9616930008
 31
0.0
  0
LINE
  5
1B9
330
1F
100
AcDbEntity
  8
0
  6
SLD-Gestrichelt
 62
     7
370
     0
100
AcDbLine
 10
249.7244669608
 20
123.0679106422
 30
0.0
 11
249.7244669608
 21
123.3554751136
 31
0.0
  0
LWPOLYLINE
  5
1BA
330
1F
100
AcDbEntity
  8
0
  6
SLD-Gestrichelt
 62
     7
370
     0
100
AcDbPolyline
 90
        3
 70
   128
 43
0.0
 10
249.7244669608
 20
123.3554751136
 10
249.2114646843
 20
123.6516543188
 10
248.8544626645
 20
123.8577699744
  0
LWPOLYLINE
  5
1BB
330
1F
100
AcDbEntity
  8
0
  6
SLD-Gestrichelt
 62
     7
370
     0
100
AcDbPolyline
 90
       16
 70
   128
 43
0.0
 10
248.8544626645
 20
123.8577699744
 10
248.8252563885
 20
123.8814288274
 10
248.8070173672
 20
124.0151220456
 10
248.8113163522
 20
124.0230150044
 10
248.8147436193
 20
124.0284450807
 10
248.8176418951
 20
124.0325862065
 10
248.8201527408
 20
124.0358910047
 10
248.8233862928
 20
124.0398267739
 10
248.8253681472
 20
124.0420745209
 10
248.8274617604
 20
124.0443404287
 10
248.829138141
 20
124.0460712917
 10
248.830896478
 20
124.047812865
 10
248.8329006842
 20
124.0497132287
 10
248.8357840589
 20
124.0522985801
 10
248.8423778227
 20
124.0576252796
 10
248.8544626645
 20
124.0656160273
  0
LWPOLYLINE
  5
1BC
330
1F
100
AcDbEntity
  8
0
  6
SLD-Gestrichelt
 62
     7
370
     0
100
AcDbPolyline
 90
        4
 70
   128
 43
0.0
 10
248.8544626645
 20
124.0656160273
 10
249.0879117063
 20
124.2003984273
 10
249.4460834673
 20
124.4071855665
 10
249.7244669608
 20
124.5679108881
  0
LINE
  5
1BD
330
1F
100
AcDbEntity
  8
0
  6
SLD-Gestrichelt
 62
     7
370
     0
100
AcDbLine
 10
249.7244669608
 20
124.5679108881
 30
0.0
 11
249.7244669608
 21
124.8554753594
 31
0.0
  0
LINE
  5
1BE
330
1F
100
AcDbEntity
  8
0
  6
SLD-Gestrichelt
 62
     7
370
     0
100
AcDbLine
 10
249.7244669608
 20
124.8554753594
 30
0.0
 11
249.6571286133
 21
124.894351092
 31
0.0
  0
LINE
  5
1BF
330
1F
100
AcDbEntity
  8
0
  6
SLD-Gestrichelt
 62
     7
370
     0
100
AcDbLine
 10
249.7244669608
 20
124.8554753594
 30
0.0
 11
249.7244669608
 21
124.5679108881
 31
0.0
  0
LWPOLYLINE
  5
1C0
330
1F
100
AcDbEntity
  8
0
  6
SLD-Gestrichelt
 62
     7
370
     0
100
AcDbPolyline
 90
        4
 70
   128
 43
0.0
 10
249.7244669608
 20
124.5679108881
 10
249.3297948054
 20
124.340049316
 10
249.0030942968
 20
124.1514294863
 10
248.8544626645
 20
124.0656160273
  0
LWPOLYLINE
  5
1C1
330
1F
100
AcDbEntity
  8
0
  6
SLD-Gestrichelt
 62
     7
370
     0
100
AcDbPolyline
 90
       16
 70
   128
 43
0.0
 10
248.8544626645
 20
124.0656160273
 10
248.8527341298
 20
124.0645994887
 10
248.8473324588
 20
124.0611591831
 10
248.8432197383
 20
124.0582553193
 10
248.8399340323
 20
124.0557444737
 10
248.8360224775
 20
124.0525025398
 10
248.8337873033
 20
124.0505258076
 10
248.8315297774
 20
124.0484219499
 10
248.8298086933
 20
124.04673905
 10
248.828072708
 20
124.0449760564
 10
248.8261728099
 20
124.0429634683
 10
248.823594909
 20
124.0400651925
 10
248.8182677439
 20
124.0334267252
 10
248.8067044428
 20
124.0144938685
 10
248.7944631389
 20
123.9613563277
 10
248.8544626645
 20
123.8577699744
  0
LWPOLYLINE
  5
1C2
330
1F
100
AcDbEntity
  8
0
  6
SLD-Gestrichelt
 62
     7
370
     0
100
AcDbPolyline
 90
        3
 70
   128
 43
0.0
 10
248.8544626645
 20
123.8577699744
 10
249.2033137492
 20
123.6563607574
 10
249.7244669608
 20
123.3554751136
  0
LINE
  5
1C3
330
1F
100
AcDbEntity
  8
0
  6
SLD-Gestrichelt
 62
     7
370
     0
100
AcDbLine
 10
249.7244669608
 20
123.3554751136
 30
0.0
 11
249.7244669608
 21
123.0679106422
 31
0.0
  0
ARC
  5
1C4
330
1F
100
AcDbEntity
  8
0
  6
SLD-Gestrichelt
 62
     7
370
     0
100
AcDbCircle
 10
248.9144645897
 20
122.461692755
 30
0.0
 40
0.1200009435729883
100
AcDbArc
 50
120.0008013036
 51
239.9991986964
  0
LINE
  5
1C5
330
1F
100
AcDbEntity
  8
0
  6
SLD-Gestrichelt
 62
     7
370
     0
100
AcDbLine
 10
249.7244669608
 20
121.8554751005
 30
0.0
 11
249.7244669608
 21
121.5679106292
 31
0.0
  0
ARC
  5
1C6
330
1F
100
AcDbEntity
  8
0
  6
SLD-Gestrichelt
 62
     7
370
     0
100
AcDbCircle
 10
248.9144637331
 20
120.9616929747
 30
0.0
 40
0.1200005152910282
100
AcDbArc
 50
120.0004471284
 51
239.9995528716
  0
LINE
  5
1C7
330
1F
100
AcDbEntity
  8
0
  6
SLD-Gestrichelt
 62
     7
370
     0
100
AcDbLine
 10
249.7244669608
 20
120.3554750875
 30
0.0
 11
249.7244669608
 21
120.0679106161
 31
0.0
  0
ARC
  5
1C8
330
1F
100
AcDbEntity
  8
0
  6
SLD-Gestrichelt
 62
     7
370
     0
100
AcDbCircle
 10
248.9144726215
 20
119.4616929617
 30
0.0
 40
0.120004959796255
100
AcDbArc
 50
120.0041222823
 51
239.9958777177
  0
LINE
  5
1C9
330
1F
100
AcDbEntity
  8
0
  6
SLD-Gestrichelt
 62
     7
370
     0
100
AcDbLine
 10
249.7244669608
 20
118.8554751909
 30
0.0
 11
249.7244669608
 21
118.5679107195
 31
0.0
  0
ARC
  5
1CA
330
1F
100
AcDbEntity
  8
0
  6
SLD-Gestrichelt
 62
     7
370
     0
100
AcDbCircle
 10
248.9144606306
 20
117.9616929487
 30
0.0
 40
0.119998982941307
100
AcDbArc
 50
119.9991590284
 51
240.0008409716
  0
LINE
  5
1CB
330
1F
100
AcDbEntity
  8
0
  6
SLD-Gestrichelt
 62
     7
370
     0
100
AcDbLine
 10
249.7244669608
 20
117.3554751778
 30
0.0
 11
249.7244669608
 21
117.0679107065
 31
0.0
  0
ARC
  5
1CC
330
1F
100
AcDbEntity
  8
0
  6
SLD-Gestrichelt
 62
     7
370
     0
100
AcDbCircle
 10
248.9144637253
 20
116.4616929356
 30
0.0
 40
0.1200005113795657
100
AcDbArc
 50
120.0004438937
 51
239.9995561063
  0
LINE
  5
1CD
330
1F
100
AcDbEntity
  8
0
  6
SLD-Gestrichelt
 62
     7
370
     0
100
AcDbLine
 10
249.7244669608
 20
115.8554752812
 30
0.0
 11
249.7244669608
 21
115.5679108098
 31
0.0
  0
ARC
  5
1CE
330
1F
100
AcDbEntity
  8
0
  6
SLD-Gestrichelt
 62
     7
370
     0
100
AcDbCircle
 10
248.9144653394
 20
114.9616929226
 30
0.0
 40
0.1200013184725399
100
AcDbArc
 50
120.0011113282
 51
239.9988886718
  0
LINE
  5
1CF
330
1F
100
AcDbEntity
  8
0
  6
SLD-Gestrichelt
 62
     7
370
     0
100
AcDbLine
 10
249.7244669608
 20
114.3554752682
 30
0.0
 11
249.7244669608
 21
114.0679107968
 31
0.0
  0
ARC
  5
1D0
330
1F
100
AcDbEntity
  8
0
  6
SLD-Gestrichelt
 62
     7
370
     0
100
AcDbCircle
 10
248.9144642888
 20
113.4616931424
 30
0.0
 40
0.1200007931266551
100
AcDbArc
 50
120.0006768901
 51
239.9993231099
  0
LINE
  5
1D1
330
1F
100
AcDbEntity
  8
0
  6
SLD-Gestrichelt
 62
     7
370
     0
100
AcDbLine
 10
249.7244669608
 20
112.8554752551
 30
0.0
 11
249.7244669608
 21
112.5679107838
 31
0.0
  0
LWPOLYLINE
  5
1D2
330
1F
100
AcDbEntity
  8
0
  6
SLD-Gestrichelt
 62
     7
370
     0
100
AcDbPolyline
 90
        3
 70
   128
 43
0.0
 10
249.7244669608
 20
112.5679107838
 10
249.2114646843
 20
112.2717315786
 10
248.8544626645
 20
112.065615923
  0
LWPOLYLINE
  5
1D3
330
1F
100
AcDbEntity
  8
0
  6
SLD-Gestrichelt
 62
     7
370
     0
100
AcDbPolyline
 90
       16
 70
   128
 43
0.0
 10
248.8544626645
 20
112.065615923
 10
248.8252563885
 20
112.04195707
 10
248.8070173672
 20
111.9082638517
 10
248.8113163522
 20
111.9003708929
 10
248.8147436193
 20
111.8949408166
 10
248.8176418951
 20
111.8907996908
 10
248.8201527408
 20
111.8874948927
 10
248.8233862928
 20
111.8835591235
 10
248.8253681472
 20
111.8813113764
 10
248.8274617604
 20
111.8790454686
 10
248.829138141
 20
111.8773146056
 10
248.830896478
 20
111.8755730324
 10
248.8329006842
 20
111.8736726687
 10
248.8357840589
 20
111.8710873172
 10
248.8423778227
 20
111.8657606177
 10
248.8544626645
 20
111.85776987
  0
LWPOLYLINE
  5
1D4
330
1F
100
AcDbEntity
  8
0
  6
SLD-Gestrichelt
 62
     7
370
     0
100
AcDbPolyline
 90
        4
 70
   128
 43
0.0
 10
248.8544626645
 20
111.85776987
 10
249.0879117063
 20
111.7229874701
 10
249.4460834673
 20
111.5162003309
 10
249.7244669608
 20
111.3554750093
  0
LINE
  5
1D5
330
1F
100
AcDbEntity
  8
0
  6
SLD-Gestrichelt
 62
     7
370
     0
100
AcDbLine
 10
249.7244669608
 20
111.3554750093
 30
0.0
 11
249.7244669608
 21
111.0679105379
 31
0.0
  0
LINE
  5
1D6
330
1F
100
AcDbEntity
  8
0
  6
SLD-Gestrichelt
 62
     7
370
     0
100
AcDbLine
 10
249.7244669608
 20
111.0679105379
 30
0.0
 11
249.6571286133
 21
111.0290348053
 31
0.0
  0
LINE
  5
1D7
330
1F
100
AcDbEntity
  8
0
  6
SLD-Gestrichelt
 62
     7
370
     0
100
AcDbLine
 10
249.7244669608
 20
111.0679105379
 30
0.0
 11
249.7244669608
 21
111.3554750093
 31
0.0
  0
LWPOLYLINE
  5
1D8
330
1F
100
AcDbEntity
  8
0
  6
SLD-Gestrichelt
 62
     7
370
     0
100
AcDbPolyline
 90
        4
 70
   128
 43
0.0
 10
249.7244669608
 20
111.3554750093
 10
249.3297948054
 20
111.5833365813
 10
249.0030942968
 20
111.771956411
 10
248.8544626645
 20
111.85776987
  0
LWPOLYLINE
  5
1D9
330
1F
100
AcDbEntity
  8
0
  6
SLD-Gestrichelt
 62
     7
370
     0
100
AcDbPolyline
 90
       16
 70
   128
 43
0.0
 10
248.8544626645
 20
111.85776987
 10
248.8527341298
 20
111.8587864086
 10
248.8473324588
 20
111.8622267142
 10
248.8432197383
 20
111.865130578
 10
248.8399340323
 20
111.8676414237
 10
248.8360224775
 20
111.8708833576
 10
248.8337873033
 20
111.8728600897
 10
248.8315297774
 20
111.8749639474
 10
248.8298086933
 20
111.8766468473
 10
248.828072708
 20
111.8784098409
 10
248.8261728099
 20
111.880422429
 10
248.823594909
 20
111.8833207049
 10
248.8182677439
 20
111.8899591722
 10
248.8067044428
 20
111.9088920288
 10
248.7944631389
 20
111.9620295696
 10
248.8544626645
 20
112.065615923
  0
LWPOLYLINE
  5
1DA
330
1F
100
AcDbEntity
  8
0
  6
SLD-Gestrichelt
 62
     7
370
     0
100
AcDbPolyline
 90
        3
 70
   128
 43
0.0
 10
248.8544626645
 20
112.065615923
 10
249.2033137492
 20
112.26702514
 10
249.7244669608
 20
112.5679107838
  0
LINE
  5
1DB
330
1F
100
AcDbEntity
  8
0
  6
SLD-Gestrichelt
 62
     7
370
     0
100
AcDbLine
 10
249.7244669608
 20
112.5679107838
 30
0.0
 11
249.7244669608
 21
112.8554752551
 31
0.0
  0
LINE
  5
1DC
330
1F
100
AcDbEntity
  8
0
  6
SLD-Gestrichelt
 62
     7
370
     0
100
AcDbLine
 10
249.7244669608
 20
114.0679107968
 30
0.0
 11
249.7244669608
 21
114.3554752682
 31
0.0
  0
LINE
  5
1DD
330
1F
100
AcDbEntity
  8
0
  6
SLD-Gestrichelt
 62
     7
370
     0
100
AcDbLine
 10
249.7244669608
 20
121.5679106292
 30
0.0
 11
249.7244669608
 21
121.8554751005
 31
0.0
  0
LINE
  5
1DE
330
1F
100
AcDbEntity
  8
0
  6
SLD-Gestrichelt
 62
     7
370
     0
100
AcDbLine
 10
249.7244669608
 20
115.5679108098
 30
0.0
 11
249.7244669608
 21
115.8554752812
 31
0.0
  0
LINE
  5
1DF
330
1F
100
AcDbEntity
  8
0
  6
SLD-Gestrichelt
 62
     7
370
     0
100
AcDbLine
 10
249.7244669608
 20
120.0679106161
 30
0.0
 11
249.7244669608
 21
120.3554750875
 31
0.0
  0
LINE
  5
1E0
330
1F
100
AcDbEntity
  8
0
  6
SLD-Gestrichelt
 62
     7
370
     0
100
AcDbLine
 10
249.7244669608
 20
117.0679107065
 30
0.0
 11
249.7244669608
 21
117.3554751778
 31
0.0
  0
LINE
  5
1E1
330
1F
100
AcDbEntity
  8
0
  6
SLD-Gestrichelt
 62
     7
370
     0
100
AcDbLine
 10
249.7244669608
 20
118.5679107195
 30
0.0
 11
249.7244669608
 21
118.8554751909
 31
0.0
  0
ARC
  5
1E2
330
1F
100
AcDbEntity
  8
0
  6
SLD-Gestrichelt
 62
     7
370
     0
100
AcDbCircle
 10
248.9144642888
 20
122.461692755
 30
0.0
 40
0.1200007931266551
100
AcDbArc
 50
120.0006768901
 51
239.9993231099
  0
ARC
  5
1E3
330
1F
100
AcDbEntity
  8
0
  6
SLD-Gestrichelt
 62
     7
370
     0
100
AcDbCircle
 10
248.9144645897
 20
113.4616931424
 30
0.0
 40
0.1200009435729883
100
AcDbArc
 50
120.0008013036
 51
239.9991986964
  0
ARC
  5
1E4
330
1F
100
AcDbEntity
  8
0
  6
SLD-Gestrichelt
 62
     7
370
     0
100
AcDbCircle
 10
248.9144653394
 20
120.9616929747
 30
0.0
 40
0.1200013184725399
100
AcDbArc
 50
120.0011113282
 51
239.9988886718
  0
ARC
  5
1E5
330
1F
100
AcDbEntity
  8
0
  6
SLD-Gestrichelt
 62
     7
370
     0
100
AcDbCircle
 10
248.9144637331
 20
114.9616929226
 30
0.0
 40
0.1200005152910282
100
AcDbArc
 50
120.0004471284
 51
239.9995528716
  0
ARC
  5
1E6
330
1F
100
AcDbEntity
  8
0
  6
SLD-Gestrichelt
 62
     7
370
     0
100
AcDbCircle
 10
248.9144637253
 20
119.4616929617
 30
0.0
 40
0.1200005113795657
100
AcDbArc
 50
120.0004438937
 51
239.9995561063
  0
ARC
  5
1E7
330
1F
100
AcDbEntity
  8
0
  6
SLD-Gestrichelt
 62
     7
370
     0
100
AcDbCircle
 10
248.9144726215
 20
116.4616929356
 30
0.0
 40
0.120004959796255
100
AcDbArc
 50
120.0041222823
 51
239.9958777177
  0
ARC
  5
1E8
330
1F
100
AcDbEntity
  8
0
  6
SLD-Gestrichelt
 62
     7
370
     0
100
AcDbCircle
 10
248.9144606306
 20
117.9616929487
 30
0.0
 40
0.119998982941307
100
AcDbArc
 50
119.9991590284
 51
240.0008409716
  0
LINE
  5
1E9
330
1F
100
AcDbEntity
  8
0
  6
SLD-Gestrichelt
 62
     7
370
     0
100
AcDbLine
 10
185.3244646004
 20
111.7116928555
 30
0.0
 11
185.3244646004
 21
124.2116930418
 31
0.0
  0
LINE
  5
1EA
330
1F
100
AcDbEntity
  8
0
  6
SLD-Gestrichelt
 62
     7
370
     0
100
AcDbLine
 10
187.0369172207
 20
114.5616929036
 30
0.0
 11
187.0369172207
 21
121.3616929937
 31
0.0
  0
LWPOLYLINE
  5
1EB
330
1F
100
AcDbEntity
  8
0
  6
SLD-Gestrichelt
 62
     7
370
     0
100
AcDbPolyline
 90
        4
 70
   128
 43
0.0
 10
172.6244646375
 20
132.3344086752
 10
172.4643724988
 20
132.690870528
 10
172.3874802951
 20
132.8634352878
 10
172.3919203755
 20
132.8534487158
  0
LINE
  5
1EC
330
1F
100
AcDbEntity
  8
0
  6
SLD-Gestrichelt
 62
     7
370
     0
100
AcDbLine
 10
151.824463766
 20
131.3303200052
 30
0.0
 11
151.824463766
 21
132.3592237652
 31
0.0
  0
LINE
  5
1ED
330
1F
100
AcDbEntity
  8
0
  6
SLD-Gestrichelt
 62
     7
370
     0
100
AcDbLine
 10
172.6244646375
 20
131.7828775838
 30
0.0
 11
172.6244646375
 21
132.3344086752
 31
0.0
  0
LINE
  5
1EE
330
1F
100
AcDbEntity
  8
0
  6
SLD-Gestrichelt
 62
     7
370
     0
100
AcDbLine
 10
150.3244644514
 20
130.5803203479
 30
0.0
 11
150.3244644514
 21
131.4931980789
 31
0.0
  0
LWPOLYLINE
  5
1EF
330
1F
100
AcDbEntity
  8
0
  6
SLD-Gestrichelt
 62
     7
370
     0
100
AcDbPolyline
 90
       15
 70
   128
 43
0.0
 10
172.8294246382
 20
132.1250641242
 10
172.7544701676
 20
132.2719122738
 10
172.7290440135
 20
132.3131745205
 10
172.71823683
 20
132.3290740595
 10
172.709318485
 20
132.3413423717
 10
172.6977598405
 20
132.3559361965
 10
172.6922124176
 20
132.3623464898
 10
172.6857074787
 20
132.3693044007
 10
172.6809435309
 20
132.3739731208
 10
172.676484824
 20
132.3779787392
 10
172.6708106248
 20
132.3825003103
 10
172.6628106803
 20
132.3875844002
 10
172.6467258082
 20
132.3912491545
 10
172.6262140105
 20
132.3572214216
 10
172.6244646375
 20
132.3344086752
  0
LINE
  5
1F0
330
1F
100
AcDbEntity
  8
0
  6
SLD-Gestrichelt
 62
     7
370
     0
100
AcDbLine
 10
173.0031443544
 20
131.7479995534
 30
0.0
 11
172.8294246382
 21
132.1250641242
 31
0.0
  0
LINE
  5
1F1
330
1F
100
AcDbEntity
  8
0
  6
SLD-Gestrichelt
 62
     7
370
     0
100
AcDbLine
 10
247.2744627408
 20
114.2616929476
 30
0.0
 11
247.2744627408
 21
121.6616929498
 31
0.0
  0
LINE
  5
1F2
330
1F
100
AcDbEntity
  8
0
  6
SLD-Gestrichelt
 62
     7
370
     0
100
AcDbLine
 10
245.7744671515
 20
114.2616929476
 30
0.0
 11
245.7744671515
 21
121.6616929498
 31
0.0
  0
LINE
  5
1F3
330
1F
100
AcDbEntity
  8
0
  6
SLD-Gestrichelt
 62
     7
370
     0
100
AcDbLine
 10
243.4244646243
 20
114.5616929036
 30
0.0
 11
243.4244646243
 21
121.3616929937
 31
0.0
  0
LINE
  5
1F4
330
1F
100
AcDbEntity
  8
0
  6
SLD-Gestrichelt
 62
     7
370
     0
100
AcDbLine
 10
243.6648054532
 20
114.9616929226
 30
0.0
 11
243.6648054532
 21
120.9616929747
 31
0.0
  0
LINE
  5
1F5
330
1F
100
AcDbEntity
  8
0
  6
SLD-Gestrichelt
 62
     7
370
     0
100
AcDbLine
 10
248.2914520911
 20
114.9616929226
 30
0.0
 11
248.2914520911
 21
120.9616929747
 31
0.0
  0
LINE
  5
1F6
330
1F
100
AcDbEntity
  8
0
  6
SLD-Gestrichelt
 62
     7
370
     0
100
AcDbLine
 10
248.7244649342
 20
121.2116930157
 30
0.0
 11
248.7244649342
 21
114.7116928816
 31
0.0
  0
LINE
  5
1F7
330
1F
100
AcDbEntity
  8
0
  6
SLD-Gestrichelt
 62
     7
370
     0
100
AcDbLine
 10
245.7744671515
 20
114.9781272736
 30
0.0
 11
245.7744671515
 21
120.9452586238
 31
0.0
  0
LINE
  5
1F8
330
1F
100
AcDbEntity
  8
0
  6
SLD-Gestrichelt
 62
     7
370
     0
100
AcDbLine
 10
247.2744627408
 20
114.9781272736
 30
0.0
 11
247.2744627408
 21
120.9452586238
 31
0.0
  0
LINE
  5
1F9
330
1F
100
AcDbEntity
  8
0
  6
SLD-Gestrichelt
 62
     7
370
     0
100
AcDbLine
 10
160.5244648195
 20
105.4199704424
 30
0.0
 11
165.1244644559
 21
105.4199704424
 31
0.0
  0
LWPOLYLINE
  5
1FA
330
1F
100
AcDbEntity
  8
0
  6
SLD-Gestrichelt
 62
     7
370
     0
100
AcDbPolyline
 90
        3
 70
   128
 43
0.0
 10
151.824463766
 20
105.5338982016
 10
151.0626139602
 20
105.9393085063
 10
150.3244644514
 20
106.3231987402
  0
LINE
  5
1FB
330
1F
100
AcDbEntity
  8
0
  6
SLD-Gestrichelt
 62
     7
370
     0
100
AcDbLine
 10
154.5244647673
 20
105.4705459148
 30
0.0
 11
154.5244647673
 21
106.9616930083
 31
0.0
  0
LINE
  5
1FC
330
1F
100
AcDbEntity
  8
0
  6
SLD-Gestrichelt
 62
     7
370
     0
100
AcDbLine
 10
150.3244644514
 20
106.3231987402
 30
0.0
 11
150.3244644514
 21
106.9616930083
 31
0.0
  0
LINE
  5
1FD
330
1F
100
AcDbEntity
  8
0
  6
SLD-Gestrichelt
 62
     7
370
     0
100
AcDbLine
 10
160.5244648195
 20
128.9616928891
 30
0.0
 11
165.1244644559
 21
128.9616928891
 31
0.0
  0
LINE
  5
1FE
330
1F
100
AcDbEntity
  8
0
  6
SLD-Gestrichelt
 62
     7
370
     0
100
AcDbLine
 10
184.3244644365
 20
98.4616925463
 30
0.0
 11
188.3244650922
 21
98.4616925463
 31
0.0
  0
LINE
  5
1FF
330
1F
100
AcDbEntity
  8
0
  6
SLD-Gestrichelt
 62
     7
370
     0
100
AcDbLine
 10
150.3244644514
 20
108.7019111485
 30
0.0
 11
150.3244644514
 21
106.3231987402
 31
0.0
  0
LINE
  5
200
330
1F
100
AcDbEntity
  8
0
  6
SLD-Gestrichelt
 62
     7
370
     0
100
AcDbLine
 10
150.3244644514
 20
130.5803203479
 30
0.0
 11
150.3244644514
 21
114.6028471168
 31
0.0
  0
LINE
  5
201
330
1F
100
AcDbEntity
  8
0
  6
SLD-Gestrichelt
 62
     7
370
     0
100
AcDbLine
 10
151.824463766
 20
131.3303200052
 30
0.0
 11
151.824463766
 21
114.6028471168
 31
0.0
  0
LINE
  5
202
330
1F
100
AcDbEntity
  8
0
  6
SLD-Gestrichelt
 62
     7
370
     0
100
AcDbLine
 10
172.6244646375
 20
131.7828775838
 30
0.0
 11
172.6244646375
 21
114.6028471168
 31
0.0
  0
LINE
  5
203
330
1F
100
AcDbEntity
  8
0
  6
SLD-Gestrichelt
 62
     7
370
     0
100
AcDbLine
 10
248.5244615487
 20
123.64401142
 30
0.0
 11
248.5244615487
 21
127.8357238964
 31
0.0
  0
LINE
  5
204
330
1F
100
AcDbEntity
  8
0
  6
SLD-Gestrichelt
 62
     7
370
     0
100
AcDbLine
 10
249.7244669608
 20
127.5679109142
 30
0.0
 11
249.7244669608
 21
127.8554753855
 31
0.0
  0
LINE
  5
205
330
1F
100
AcDbEntity
  8
0
  6
SLD-Gestrichelt
 62
     7
370
     0
100
AcDbLine
 10
249.7244669608
 20
126.0679106683
 30
0.0
 11
249.7244669608
 21
126.3554751397
 31
0.0
  0
LINE
  5
206
330
1F
100
AcDbEntity
  8
0
  6
SLD-Gestrichelt
 62
     7
370
     0
100
AcDbLine
 10
249.7244669608
 20
124.5679108881
 30
0.0
 11
249.7244669608
 21
124.8554753594
 31
0.0
  0
LINE
  5
207
330
1F
100
AcDbEntity
  8
0
  6
SLD-Gestrichelt
 62
     7
370
     0
100
AcDbLine
 10
249.7244669608
 20
123.0679106422
 30
0.0
 11
249.7244669608
 21
123.3554751136
 31
0.0
  0
LINE
  5
208
330
1F
100
AcDbEntity
  8
0
  6
SLD-Gestrichelt
 62
     7
370
     0
100
AcDbLine
 10
249.7244669608
 20
123.3554751136
 30
0.0
 11
249.7244669608
 21
123.0679106422
 31
0.0
  0
LWPOLYLINE
  5
209
330
1F
100
AcDbEntity
  8
0
  6
SLD-Gestrichelt
 62
     7
370
     0
100
AcDbPolyline
 90
        6
 70
   128
 43
0.0
 10
249.7244669608
 20
123.0679106422
 10
249.4604407361
 20
122.9154750228
 10
249.3315084389
 20
122.8410367377
 10
249.3617577961
 20
122.858500433
 10
249.5277343801
 20
122.954327938
 10
249.7244669608
 20
123.0679106422
  0
LINE
  5
20A
330
1F
100
AcDbEntity
  8
0
  6
SLD-Gestrichelt
 62
     7
370
     0
100
AcDbLine
 10
249.7244669608
 20
124.8554753594
 30
0.0
 11
249.7244669608
 21
124.5679108881
 31
0.0
  0
LINE
  5
20B
330
1F
100
AcDbEntity
  8
0
  6
SLD-Gestrichelt
 62
     7
370
     0
100
AcDbLine
 10
249.7244669608
 20
126.3554751397
 30
0.0
 11
249.7244669608
 21
126.0679106683
 31
0.0
  0
LINE
  5
20C
330
1F
100
AcDbEntity
  8
0
  6
SLD-Gestrichelt
 62
     7
370
     0
100
AcDbLine
 10
249.7244669608
 20
127.8554753855
 30
0.0
 11
249.7244669608
 21
127.5679109142
 31
0.0
  0
LWPOLYLINE
  5
20D
330
1F
100
AcDbEntity
  8
0
  6
SLD-Gestrichelt
 62
     7
370
     0
100
AcDbPolyline
 90
        6
 70
   128
 43
0.0
 10
249.7244669608
 20
127.8554753855
 10
249.31150363
 20
128.0938986212
 10
249.0414647869
 20
128.2498057455
 10
249.0037424973
 20
128.2715856552
 10
249.31150363
 20
128.0938967586
 10
249.7244669608
 20
127.8554753855
  0
LINE
  5
20E
330
1F
100
AcDbEntity
  8
0
  6
SLD-Gestrichelt
 62
     7
370
     0
100
AcDbLine
 10
248.5244615487
 20
108.087662001
 30
0.0
 11
248.5244615487
 21
112.2793744773
 31
0.0
  0
LINE
  5
20F
330
1F
100
AcDbEntity
  8
0
  6
SLD-Gestrichelt
 62
     7
370
     0
100
AcDbLine
 10
249.7244669608
 20
111.0679105379
 30
0.0
 11
249.7244669608
 21
111.3554750093
 31
0.0
  0
LINE
  5
210
330
1F
100
AcDbEntity
  8
0
  6
SLD-Gestrichelt
 62
     7
370
     0
100
AcDbLine
 10
249.7244669608
 20
109.5679107577
 30
0.0
 11
249.7244669608
 21
109.8554752291
 31
0.0
  0
LINE
  5
211
330
1F
100
AcDbEntity
  8
0
  6
SLD-Gestrichelt
 62
     7
370
     0
100
AcDbLine
 10
249.7244669608
 20
108.0679105118
 30
0.0
 11
249.7244669608
 21
108.3554749832
 31
0.0
  0
LINE
  5
212
330
1F
100
AcDbEntity
  8
0
  6
SLD-Gestrichelt
 62
     7
370
     0
100
AcDbLine
 10
249.7244669608
 20
112.5679107838
 30
0.0
 11
249.7244669608
 21
112.8554752551
 31
0.0
  0
LINE
  5
213
330
1F
100
AcDbEntity
  8
0
  6
SLD-Gestrichelt
 62
     7
370
     0
100
AcDbLine
 10
249.7244669608
 20
112.8554752551
 30
0.0
 11
249.7244669608
 21
112.5679107838
 31
0.0
  0
LWPOLYLINE
  5
214
330
1F
100
AcDbEntity
  8
0
  6
SLD-Gestrichelt
 62
     7
370
     0
100
AcDbPolyline
 90
        6
 70
   128
 43
0.0
 10
249.7244669608
 20
112.8554752551
 10
249.4604407361
 20
113.0079108745
 10
249.3315084389
 20
113.0823491596
 10
249.3617577961
 20
113.0648854643
 10
249.5277343801
 20
112.9690579594
 10
249.7244669608
 20
112.8554752551
  0
LINE
  5
215
330
1F
100
AcDbEntity
  8
0
  6
SLD-Gestrichelt
 62
     7
370
     0
100
AcDbLine
 10
249.7244669608
 20
111.3554750093
 30
0.0
 11
249.7244669608
 21
111.0679105379
 31
0.0
  0
LINE
  5
216
330
1F
100
AcDbEntity
  8
0
  6
SLD-Gestrichelt
 62
     7
370
     0
100
AcDbLine
 10
249.7244669608
 20
109.8554752291
 30
0.0
 11
249.7244669608
 21
109.5679107577
 31
0.0
  0
LINE
  5
217
330
1F
100
AcDbEntity
  8
0
  6
SLD-Gestrichelt
 62
     7
370
     0
100
AcDbLine
 10
249.7244669608
 20
108.3554749832
 30
0.0
 11
249.7244669608
 21
108.0679105118
 31
0.0
  0
LWPOLYLINE
  5
218
330
1F
100
AcDbEntity
  8
0
  6
SLD-Gestrichelt
 62
     7
370
     0
100
AcDbPolyline
 90
        6
 70
   128
 43
0.0
 10
249.7244669608
 20
108.0679105118
 10
249.31150363
 20
107.8294872761
 10
249.0414647869
 20
107.6735801518
 10
249.0037424973
 20
107.6518002421
 10
249.31150363
 20
107.8294891388
 10
249.7244669608
 20
108.0679105118
  0
LINE
  5
219
330
1F
100
AcDbEntity
  8
0
  6
SLD-Gestrichelt
 62
     7
370
     0
100
AcDbLine
 10
174.1244646651
 20
130.9313926369
 30
0.0
 11
174.1244646651
 21
116.2446980354
 31
0.0
  0
LINE
  5
21A
330
1F
100
AcDbEntity
  8
0
  6
SLD-Gestrichelt
 62
     7
370
     0
100
AcDbLine
 10
235.9244643262
 20
108.087662001
 30
0.0
 11
235.9244643262
 21
112.2793744773
 31
0.0
  0
LINE
  5
21B
330
1F
100
AcDbEntity
  8
0
  6
SLD-Gestrichelt
 62
     7
370
     0
100
AcDbLine
 10
235.9244643262
 20
123.64401142
 30
0.0
 11
235.9244643262
 21
127.8357238964
 31
0.0
  0
LINE
  5
21C
330
1F
100
AcDbEntity
  8
0
  6
SLD-Gestrichelt
 62
     7
370
     0
100
AcDbLine
 10
150.3244644514
 20
114.6028471168
 30
0.0
 11
150.3244644514
 21
108.7019111485
 31
0.0
  0
LINE
  5
21D
330
1F
100
AcDbEntity
  8
0
  6
SLD-Gestrichelt
 62
     7
370
     0
100
AcDbLine
 10
151.824463766
 20
114.6028471168
 30
0.0
 11
151.824463766
 21
107.9519114912
 31
0.0
  0
LINE
  5
21E
330
1F
100
AcDbEntity
  8
0
  6
SLD-Gestrichelt
 62
     7
370
     0
100
AcDbLine
 10
172.6244646375
 20
108.223852095
 30
0.0
 11
172.6244646375
 21
107.4993539125
 31
0.0
  0
LINE
  5
21F
330
1F
100
AcDbEntity
  8
0
  6
SLD-Gestrichelt
 62
     7
370
     0
100
AcDbLine
 10
172.8294246382
 20
108.3282719821
 30
0.0
 11
173.0031443544
 21
107.8022861377
 31
0.0
  0
LWPOLYLINE
  5
220
330
1F
100
AcDbEntity
  8
0
  6
SLD-Gestrichelt
 62
     7
370
     0
100
AcDbPolyline
 90
       13
 70
   128
 43
0.0
 10
172.6244646375
 20
108.223852095
 10
172.6315870433
 20
108.4247393057
 10
172.6479408349
 20
108.5644507304
 10
172.6596578042
 20
108.613681373
 10
172.6697902445
 20
108.6391446635
 10
172.6756555977
 20
108.6485584721
 10
172.6803592424
 20
108.6537645653
 10
172.6855027041
 20
108.6573445693
 10
172.6910184621
 20
108.6589883536
 10
172.6987638063
 20
108.6578987062
 10
172.7158531098
 20
108.6437863753
 10
172.7640033019
 20
108.5441162333
 10
172.8294246382
 20
108.3282719821
  0
ARC
  5
221
330
1F
100
AcDbEntity
  8
0
  6
SLD-Gestrichelt
 62
     7
370
     0
100
AcDbCircle
 10
185.3138196694
 20
110.7753348526
 30
0.0
 40
12.94333015060985
100
AcDbArc
 50
168.6309829651
 51
191.3690170349
  0
LWPOLYLINE
  5
222
330
1F
100
AcDbEntity
  8
0
  6
SLD-Gestrichelt
 62
     7
370
     0
100
AcDbPolyline
 90
       15
 70
   128
 43
0.0
 10
172.8294246382
 20
113.4317432054
 10
172.7544004348
 20
113.0437188305
 10
172.729000125
 20
112.9478000559
 10
172.7182005084
 20
112.9151837424
 10
172.7092884498
 20
112.8927765869
 10
172.6977319008
 20
112.8708527878
 10
172.6921890181
 20
112.8636382975
 10
172.6856912969
 20
112.8583204456
 10
172.6809280476
 20
112.8568261385
 10
172.6764716691
 20
112.8574855149
 10
172.6707935118
 20
112.8615619138
 10
172.6627844869
 20
112.8745361686
 10
172.6466764481
 20
112.936423485
 10
172.626181065
 20
113.2104595647
 10
172.6244646375
 20
113.3268176101
  0
LINE
  5
223
330
1F
100
AcDbEntity
  8
0
  6
SLD-Gestrichelt
 62
     7
370
     0
100
AcDbLine
 10
172.6244646375
 20
114.6028471168
 30
0.0
 11
172.6244646375
 21
113.3268176101
 31
0.0
  0
LINE
  5
224
330
1F
100
AcDbEntity
  8
0
  6
SLD-Gestrichelt
 62
     7
370
     0
100
AcDbLine
 10
173.0031443544
 20
114.3347931549
 30
0.0
 11
172.8294246382
 21
113.4317432054
 31
0.0
  0
LINE
  5
225
330
1F
100
AcDbEntity
  8
0
  6
SLD-Gestrichelt
 62
     7
370
     0
100
AcDbLine
 10
174.32446466
 20
102.1616937116
 30
0.0
 11
174.4173578804
 21
102.2545856878
 31
0.0
  0
LINE
  5
226
330
1F
100
AcDbEntity
  8
0
  6
SLD-Gestrichelt
 62
     7
370
     0
100
AcDbLine
 10
174.4173578804
 20
133.6688002095
 30
0.0
 11
174.32446466
 21
133.7616921857
 31
0.0
  0
ARC
  5
227
330
1F
100
AcDbEntity
  8
0
  6
SLD-Gestrichelt
 62
     7
370
     0
100
AcDbCircle
 10
173.7102510976
 20
102.9616929487
 30
0.0
 40
1.0
100
AcDbArc
 50
315.0
 51
0.0
  0
ARC
  5
228
330
1F
100
AcDbEntity
  8
0
  6
SLD-Gestrichelt
 62
     7
370
     0
100
AcDbCircle
 10
173.7102510976
 20
102.9616929487
 30
0.0
 40
1.000000000000021
100
AcDbArc
 50
0.0
 51
52.1052014664
  0
ARC
  5
229
330
1F
100
AcDbEntity
  8
0
  6
SLD-Gestrichelt
 62
     7
370
     0
100
AcDbCircle
 10
173.7102510976
 20
132.9616929487
 30
0.0
 40
0.9999999999999998
100
AcDbArc
 50
343.125
 51
45.0
  0
ARC
  5
22A
330
1F
100
AcDbEntity
  8
0
  6
SLD-Gestrichelt
 62
     7
370
     0
100
AcDbCircle
 10
173.7102510976
 20
132.9616929487
 30
0.0
 40
0.9999999999999998
100
AcDbArc
 50
307.8947985336
 51
343.125
  0
LINE
  5
22B
330
1F
100
AcDbEntity
  8
0
  6
SLD-Gestrichelt
 62
     7
370
     0
100
AcDbLine
 10
174.7102510958
 20
102.9616932839
 30
0.0
 11
174.7102510958
 21
132.9616926134
 31
0.0
  0
LINE
  5
22C
330
1F
100
AcDbEntity
  8
0
  6
SLD-Gestrichelt
 62
     7
370
     0
100
AcDbLine
 10
174.7102510958
 20
102.9616932839
 30
0.0
 11
174.7102510958
 21
132.9616926134
 31
0.0
  0
LINE
  5
22D
330
1F
100
AcDbEntity
  8
0
  6
SLD-Gestrichelt
 62
     7
370
     0
100
AcDbLine
 10
248.9831341914
 20
128.2985390619
 30
0.0
 11
248.5244615487
 21
127.8398673505
 31
0.0
  0
LINE
  5
22E
330
1F
100
AcDbEntity
  8
0
  6
SLD-Gestrichelt
 62
     7
370
     0
100
AcDbLine
 10
248.5244615487
 20
123.6398675002
 30
0.0
 11
249.3291689566
 21
122.8351666116
 31
0.0
  0
LINE
  5
22F
330
1F
100
AcDbEntity
  8
0
  6
SLD-Gestrichelt
 62
     7
370
     0
100
AcDbLine
 10
249.3291689566
 20
113.0882192858
 30
0.0
 11
248.5244615487
 21
112.2835183971
 31
0.0
  0
LINE
  5
230
330
1F
100
AcDbEntity
  8
0
  6
SLD-Gestrichelt
 62
     7
370
     0
100
AcDbLine
 10
248.5244615487
 20
108.0835185469
 30
0.0
 11
248.9831341914
 21
107.6248468355
 31
0.0
  0
LINE
  5
231
330
1F
100
AcDbEntity
  8
0
  6
SLD-Gestrichelt
 62
     7
370
     0
100
AcDbLine
 10
150.3244644514
 20
107.8060421616
 30
0.0
 11
151.3514971844
 21
108.3989994124
 31
0.0
  0
LINE
  5
232
330
1F
100
AcDbEntity
  8
0
  6
SLD-Gestrichelt
 62
     7
370
     0
100
AcDbLine
 10
151.3514971844
 20
127.524386485
 30
0.0
 11
150.3244644514
 21
128.1173437357
 31
0.0
  0
LINE
  5
233
330
1F
100
AcDbEntity
  8
0
  6
SLD-Gestrichelt
 62
     7
370
     0
100
AcDbLine
 10
155.8244644216
 20
107.9616931722
 30
0.0
 11
156.8372833094
 21
107.9616931722
 31
0.0
  0
LINE
  5
234
330
1F
100
AcDbEntity
  8
0
  6
SLD-Gestrichelt
 62
     7
370
     0
100
AcDbLine
 10
156.8372833094
 20
127.9616927252
 30
0.0
 11
155.8244644216
 21
127.9616927252
 31
0.0
  0
ARC
  5
235
330
1F
100
AcDbEntity
  8
0
  6
SLD-Gestrichelt
 62
     7
370
     0
100
AcDbCircle
 10
156.8372831297
 20
108.9616929487
 30
0.0
 40
1.000000000000008
100
AcDbArc
 50
270.0
 51
315.0
  0
ARC
  5
236
330
1F
100
AcDbEntity
  8
0
  6
SLD-Gestrichelt
 62
     7
370
     0
100
AcDbCircle
 10
156.8372831297
 20
126.9616929487
 30
0.0
 40
1.0
100
AcDbArc
 50
45.0
 51
90.0
  0
ARC
  5
237
330
1F
100
AcDbEntity
  8
0
  6
SLD-Gestrichelt
 62
     7
370
     0
100
AcDbCircle
 10
155.82446466
 20
108.9616929487
 30
0.0
 40
1.000000000000004
100
AcDbArc
 50
193.3524261238
 51
270.0
  0
ARC
  5
238
330
1F
100
AcDbEntity
  8
0
  6
SLD-Gestrichelt
 62
     7
370
     0
100
AcDbCircle
 10
155.82446466
 20
126.9616929487
 30
0.0
 40
1.000000000000004
100
AcDbArc
 50
90.0
 51
166.6475738762
  0
LINE
  5
239
330
1F
100
AcDbEntity
  8
0
  6
SLD-Gestrichelt
 62
     7
370
     0
100
AcDbLine
 10
248.5244615487
 20
112.2835183971
 30
0.0
 11
235.9244643262
 21
112.2835183971
 31
0.0
  0
LINE
  5
23A
330
1F
100
AcDbEntity
  8
0
  6
SLD-Gestrichelt
 62
     7
370
     0
100
AcDbLine
 10
235.9244643262
 20
108.0835185469
 30
0.0
 11
248.5244615487
 21
108.0835185469
 31
0.0
  0
LINE
  5
23B
330
1F
100
AcDbEntity
  8
0
  6
SLD-Gestrichelt
 62
     7
370
     0
100
AcDbLine
 10
248.5244615487
 20
127.8398673505
 30
0.0
 11
235.9244643262
 21
127.8398673505
 31
0.0
  0
LINE
  5
23C
330
1F
100
AcDbEntity
  8
0
  6
SLD-Gestrichelt
 62
     7
370
     0
100
AcDbLine
 10
235.9244643262
 20
123.6398675002
 30
0.0
 11
248.5244615487
 21
123.6398675002
 31
0.0
  0
LINE
  5
23D
330
1F
100
AcDbEntity
  8
0
  6
SLD-Gestrichelt
 62
     7
370
     0
100
AcDbLine
 10
235.9244643262
 20
112.2835183971
 30
0.0
 11
234.6626563481
 21
110.1835182391
 31
0.0
  0
LINE
  5
23E
330
1F
100
AcDbEntity
  8
0
  6
SLD-Gestrichelt
 62
     7
370
     0
100
AcDbLine
 10
234.6626563481
 20
110.1835182391
 30
0.0
 11
235.9244643262
 21
108.0835185469
 31
0.0
  0
LINE
  5
23F
330
1F
100
AcDbEntity
  8
0
  6
SLD-Gestrichelt
 62
     7
370
     0
100
AcDbLine
 10
235.9244643262
 20
127.8398673505
 30
0.0
 11
234.6626563481
 21
125.7398676582
 31
0.0
  0
LINE
  5
240
330
1F
100
AcDbEntity
  8
0
  6
SLD-Gestrichelt
 62
     7
370
     0
100
AcDbLine
 10
234.6626563481
 20
125.7398676582
 30
0.0
 11
235.9244643262
 21
123.6398675002
 31
0.0
  0
LINE
  5
241
330
1F
100
AcDbEntity
  8
0
  6
SLD-Gestrichelt
 62
     7
370
     0
100
AcDbLine
 10
157.5443899742
 20
108.25458574
 30
0.0
 11
158.251496639
 21
108.9616933361
 31
0.0
  0
LINE
  5
242
330
1F
100
AcDbEntity
  8
0
  6
SLD-Gestrichelt
 62
     7
370
     0
100
AcDbLine
 10
158.251496639
 20
126.9616925612
 30
0.0
 11
157.5443899742
 21
127.6688001573
 31
0.0
  0
LINE
  5
243
330
1F
100
AcDbEntity
  8
0
  6
SLD-Gestrichelt
 62
     7
370
     0
100
AcDbLine
 10
151.3514971844
 20
108.3989994124
 30
0.0
 11
153.4514973423
 21
108.9616933361
 31
0.0
  0
LINE
  5
244
330
1F
100
AcDbEntity
  8
0
  6
SLD-Gestrichelt
 62
     7
370
     0
100
AcDbLine
 10
153.4514973423
 20
126.9616925612
 30
0.0
 11
151.3514971844
 21
127.524386485
 31
0.0
  0
LINE
  5
245
330
1F
100
AcDbEntity
  8
0
  6
SLD-Gestrichelt
 62
     7
370
     0
100
AcDbLine
 10
154.8514968267
 20
127.1926326201
 30
0.0
 11
154.4514975062
 21
126.9616925612
 31
0.0
  0
LINE
  5
246
330
1F
100
AcDbEntity
  8
0
  6
SLD-Gestrichelt
 62
     7
370
     0
100
AcDbLine
 10
154.4514975062
 20
108.9616933361
 30
0.0
 11
154.8514968267
 21
108.7307532773
 31
0.0
  0
LINE
  5
247
330
1F
100
AcDbEntity
  8
0
  6
SLD-Gestrichelt
 62
     7
370
     0
100
AcDbLine
 10
153.4514973423
 20
108.9616933361
 30
0.0
 11
154.4514975062
 21
108.9616933361
 31
0.0
  0
LINE
  5
248
330
1F
100
AcDbEntity
  8
0
  6
SLD-Gestrichelt
 62
     7
370
     0
100
AcDbLine
 10
154.4514975062
 20
126.9616925612
 30
0.0
 11
153.4514973423
 21
126.9616925612
 31
0.0
  0
LINE
  5
249
330
1F
100
AcDbEntity
  8
0
  6
SLD-Gestrichelt
 62
     7
370
     0
100
AcDbLine
 10
158.251496639
 20
108.9616933361
 30
0.0
 11
160.5434824264
 21
108.9616933361
 31
0.0
  0
LINE
  5
24A
330
1F
100
AcDbEntity
  8
0
  6
SLD-Gestrichelt
 62
     7
370
     0
100
AcDbLine
 10
160.5434824264
 20
126.9616925612
 30
0.0
 11
158.251496639
 21
126.9616925612
 31
0.0
  0
ARC
  5
24B
330
1F
100
AcDbEntity
  8
0
  6
SLD-Gestrichelt
 62
     7
370
     0
100
AcDbCircle
 10
164.82446466
 20
109.4616929487
 30
0.0
 40
0.500000000000003
100
AcDbArc
 50
305.4878521107
 51
0.0
  0
ARC
  5
24C
330
1F
100
AcDbEntity
  8
0
  6
SLD-Gestrichelt
 62
     7
370
     0
100
AcDbCircle
 10
164.82446466
 20
126.4616929487
 30
0.0
 40
0.5000000000000145
100
AcDbArc
 50
0.0
 51
54.5148009417
  0
LINE
  5
24D
330
1F
100
AcDbEntity
  8
0
  6
SLD-Gestrichelt
 62
     7
370
     0
100
AcDbLine
 10
165.3244650475
 20
110.8116929874
 30
0.0
 11
166.2244644499
 21
111.7116928555
 31
0.0
  0
LINE
  5
24E
330
1F
100
AcDbEntity
  8
0
  6
SLD-Gestrichelt
 62
     7
370
     0
100
AcDbLine
 10
166.2244644499
 20
124.2116930418
 30
0.0
 11
165.3244650475
 21
125.1116929099
 31
0.0
  0
LINE
  5
24F
330
1F
100
AcDbEntity
  8
0
  6
SLD-Gestrichelt
 62
     7
370
     0
100
AcDbLine
 10
249.657240372
 20
124.89446937
 30
0.0
 11
248.7244649342
 21
123.9616930008
 31
0.0
  0
LINE
  5
250
330
1F
100
AcDbEntity
  8
0
  6
SLD-Gestrichelt
 62
     7
370
     0
100
AcDbLine
 10
248.7244649342
 20
111.9616928965
 30
0.0
 11
249.657240372
 21
111.0289165274
 31
0.0
  0
LINE
  5
251
330
1F
100
AcDbEntity
  8
0
  6
SLD-Gestrichelt
 62
     7
370
     0
100
AcDbLine
 10
166.2244644499
 20
111.7116928555
 30
0.0
 11
185.3244646004
 21
111.7116928555
 31
0.0
  0
LINE
  5
252
330
1F
100
AcDbEntity
  8
0
  6
SLD-Gestrichelt
 62
     7
370
     0
100
AcDbLine
 10
185.3244646004
 20
124.2116930418
 30
0.0
 11
166.2244644499
 21
124.2116930418
 31
0.0
  0
LINE
  5
253
330
1F
100
AcDbEntity
  8
0
  6
SLD-Gestrichelt
 62
     7
370
     0
100
AcDbLine
 10
185.3244646004
 20
111.7116928555
 30
0.0
 11
187.0369172207
 21
114.5616929036
 31
0.0
  0
LINE
  5
254
330
1F
100
AcDbEntity
  8
0
  6
SLD-Gestrichelt
 62
     7
370
     0
100
AcDbLine
 10
187.0369172207
 20
121.3616929937
 30
0.0
 11
185.3244646004
 21
124.2116930418
 31
0.0
  0
LINE
  5
255
330
1F
100
AcDbEntity
  8
0
  6
SLD-Gestrichelt
 62
     7
370
     0
100
AcDbLine
 10
247.2744627408
 20
121.6616929498
 30
0.0
 11
245.7744671515
 21
121.6616929498
 31
0.0
  0
LINE
  5
256
330
1F
100
AcDbEntity
  8
0
  6
SLD-Gestrichelt
 62
     7
370
     0
100
AcDbLine
 10
245.7744671515
 20
114.2616929476
 30
0.0
 11
247.2744627408
 21
114.2616929476
 31
0.0
  0
LINE
  5
257
330
1F
100
AcDbEntity
  8
0
  6
SLD-Gestrichelt
 62
     7
370
     0
100
AcDbLine
 10
243.4244646243
 20
121.3616929937
 30
0.0
 11
187.0369172207
 21
121.3616929937
 31
0.0
  0
LINE
  5
258
330
1F
100
AcDbEntity
  8
0
  6
SLD-Gestrichelt
 62
     7
370
     0
100
AcDbLine
 10
187.0369172207
 20
114.5616929036
 30
0.0
 11
243.4244646243
 21
114.5616929036
 31
0.0
  0
LINE
  5
259
330
1F
100
AcDbEntity
  8
0
  6
SLD-Gestrichelt
 62
     7
370
     0
100
AcDbLine
 10
243.4244646243
 20
114.5616929036
 30
0.0
 11
243.6648054532
 21
114.9616929226
 31
0.0
  0
LINE
  5
25A
330
1F
100
AcDbEntity
  8
0
  6
SLD-Gestrichelt
 62
     7
370
     0
100
AcDbLine
 10
243.6648054532
 20
120.9616929747
 30
0.0
 11
243.4244646243
 21
121.3616929937
 31
0.0
  0
LINE
  5
25B
330
1F
100
AcDbEntity
  8
0
  6
SLD-Gestrichelt
 62
     7
370
     0
100
AcDbLine
 10
248.7244649342
 20
121.2116930157
 30
0.0
 11
248.2914520911
 21
120.9616929747
 31
0.0
  0
LINE
  5
25C
330
1F
100
AcDbEntity
  8
0
  6
SLD-Gestrichelt
 62
     7
370
     0
100
AcDbLine
 10
248.2914520911
 20
114.9616929226
 30
0.0
 11
248.7244649342
 21
114.7116928816
 31
0.0
  0
LINE
  5
25D
330
1F
100
AcDbEntity
  8
0
  6
SLD-Gestrichelt
 62
     7
370
     0
100
AcDbLine
 10
245.7744671515
 20
120.9616929747
 30
0.0
 11
243.6648054532
 21
120.9616929747
 31
0.0
  0
LINE
  5
25E
330
1F
100
AcDbEntity
  8
0
  6
SLD-Gestrichelt
 62
     7
370
     0
100
AcDbLine
 10
243.6648054532
 20
114.9616929226
 30
0.0
 11
245.7744671515
 21
114.9616929226
 31
0.0
  0
LINE
  5
25F
330
1F
100
AcDbEntity
  8
0
  6
SLD-Gestrichelt
 62
     7
370
     0
100
AcDbLine
 10
248.2914520911
 20
120.9616929747
 30
0.0
 11
247.2744627408
 21
120.9616929747
 31
0.0
  0
LINE
  5
260
330
1F
100
AcDbEntity
  8
0
  6
SLD-Gestrichelt
 62
     7
370
     0
100
AcDbLine
 10
247.2744627408
 20
114.9616929226
 30
0.0
 11
248.2914520911
 21
114.9616929226
 31
0.0
  0
LINE
  5
261
330
1F
100
AcDbEntity
  8
0
  6
SLD-Gestrichelt
 62
     7
370
     0
100
AcDbLine
 10
165.5140022299
 20
105.0304326684
 30
0.0
 11
165.1244644559
 21
105.4199704424
 31
0.0
  0
LINE
  5
262
330
1F
100
AcDbEntity
  8
0
  6
SLD-Gestrichelt
 62
     7
370
     0
100
AcDbLine
 10
160.5244648195
 20
105.4199704424
 30
0.0
 11
160.2756973839
 21
105.1712030068
 31
0.0
  0
LINE
  5
263
330
1F
100
AcDbEntity
  8
0
  6
SLD-Gestrichelt
 62
     7
370
     0
100
AcDbLine
 10
154.5244647673
 20
106.9616930083
 30
0.0
 11
150.3244644514
 21
106.9616930083
 31
0.0
  0
LINE
  5
264
330
1F
100
AcDbEntity
  8
0
  6
SLD-Gestrichelt
 62
     7
370
     0
100
AcDbLine
 10
156.2304093054
 20
105.2557484702
 30
0.0
 11
154.5244647673
 21
106.9616930083
 31
0.0
  0
LINE
  5
265
330
1F
100
AcDbEntity
  8
0
  6
SLD-Gestrichelt
 62
     7
370
     0
100
AcDbLine
 10
165.1244644559
 20
126.8657365337
 30
0.0
 11
165.1244644559
 21
128.9616928891
 31
0.0
  0
LINE
  5
266
330
1F
100
AcDbEntity
  8
0
  6
SLD-Gestrichelt
 62
     7
370
     0
100
AcDbLine
 10
160.5244648195
 20
128.9616928891
 30
0.0
 11
160.5244648195
 21
126.9569577173
 31
0.0
  0
LINE
  5
267
330
1F
100
AcDbEntity
  8
0
  6
SLD-Gestrichelt
 62
     7
370
     0
100
AcDbLine
 10
165.1244644559
 20
128.9616928891
 30
0.0
 11
162.8244646377
 21
130.343672213
 31
0.0
  0
LINE
  5
268
330
1F
100
AcDbEntity
  8
0
  6
SLD-Gestrichelt
 62
     7
370
     0
100
AcDbLine
 10
162.8244646377
 20
130.343672213
 30
0.0
 11
160.5244648195
 21
128.9616928891
 31
0.0
  0
LINE
  5
269
330
1F
100
AcDbEntity
  8
0
  6
SLD-Gestrichelt
 62
     7
370
     0
100
AcDbLine
 10
165.1244644559
 20
105.4199704424
 30
0.0
 11
165.1244644559
 21
109.0576493636
 31
0.0
  0
LINE
  5
26A
330
1F
100
AcDbEntity
  8
0
  6
SLD-Gestrichelt
 62
     7
370
     0
100
AcDbLine
 10
160.5244648195
 20
108.9664281801
 30
0.0
 11
160.5244648195
 21
105.4199704424
 31
0.0
  0
LINE
  5
26B
330
1F
100
AcDbEntity
  8
0
  6
SLD-Gestrichelt
 62
     7
370
     0
100
AcDbLine
 10
188.3244650922
 20
98.4616925463
 30
0.0
 11
186.3244647643
 21
99.6634134546
 31
0.0
  0
LINE
  5
26C
330
1F
100
AcDbEntity
  8
0
  6
SLD-Gestrichelt
 62
     7
370
     0
100
AcDbLine
 10
186.3244647643
 20
99.6634134546
 30
0.0
 11
184.3244644365
 21
98.4616925463
 31
0.0
  0
LINE
  5
26D
330
1F
100
AcDbEntity
  8
0
  6
SLD-Gestrichelt
 62
     7
370
     0
100
AcDbLine
 10
184.3244644365
 20
98.4616925463
 30
0.0
 11
184.3244644365
 21
97.9616933957
 31
0.0
  0
LINE
  5
26E
330
1F
100
AcDbEntity
  8
0
  6
SLD-Gestrichelt
 62
     7
370
     0
100
AcDbLine
 10
188.3244650922
 20
97.9616933957
 30
0.0
 11
188.3244650922
 21
98.4616925463
 31
0.0
  0
LINE
  5
26F
330
1F
100
AcDbEntity
  8
0
  6
SLD-Gestrichelt
 62
     7
370
     0
100
AcDbLine
 10
174.1244646651
 20
115.9970751953
 30
0.0
 11
174.1244646651
 21
116.2446980354
 31
0.0
  0
LINE
  5
270
330
1F
100
AcDbEntity
  8
VERMASSUNG
  6
SLD-Punktstrich
100
AcDbLine
 10
144.9003225701
 20
117.9616929487
 30
0.0
 11
284.32446466
 21
117.9616929487
 31
0.0
  0
LINE
  5
271
330
1F
100
AcDbEntity
  8
VERMASSUNG
  6
SLD-Punktstrich
100
AcDbLine
 10
284.32446466
 20
148.4000506108
 30
0.0
 11
284.32446466
 21
117.9616929487
 31
0.0
  0
LINE
  5
272
330
1F
100
AcDbEntity
  8
VERMASSUNG
  6
SLD-Punktstrich
100
AcDbLine
 10
249.32446466
 20
135.2326077063
 30
0.0
 11
249.32446466
 21
99.8763760489
 31
0.0
  0
DIMENSION
  5
273
330
1F
100
AcDbEntity
  8
VERMASSUNG
100
AcDbDimension
  2
_D
 10
174.32446466
 20
155.9552578955
 30
0.0
 11
229.32446466
 21
155.9552578955
 31
0.0
 70
   160
  1
<>
 71
     2
 42
-1.0
  3
SLDDIMSTYLE0
100
AcDbAlignedDimension
 13
284.32446466
 23
148.4000506108
 33
0.0
 14
174.32446466
 24
137.6616929487
 34
0.0
100
AcDbRotatedDimension
  0
DIMENSION
  5
27E
330
1F
100
AcDbEntity
  8
VERMASSUNG
100
AcDbDimension
  2
_D_1
 10
249.32446466
 20
151.4302176348
 30
0.0
 11
211.82446466
 21
151.4302176348
 31
0.0
 70
   160
  1
<>
 71
     2
 42
-1.0
  3
SLDDIMSTYLE0
100
AcDbAlignedDimension
 13
174.32446466
 23
137.6616929487
 33
0.0
 14
249.32446466
 24
135.2326077063
 34
0.0
100
AcDbRotatedDimension
  0
DIMENSION
  5
288
330
1F
100
AcDbEntity
  8
VERMASSUNG
100
AcDbDimension
  2
_D_2
 10
253.5857089686
 20
128.2398675417
 30
0.0
 11
253.5857089686
 21
138.2957273514
 31
0.0
 70
   160
  1
M<>
 71
     2
 42
-1.0
  3
SLDDIMSTYLE1
100
AcDbAlignedDimension
 13
254.52446466
 23
123.2398675417
 33
0.0
 14
254.52446466
 24
128.2398675417
 34
0.0
 50
90.0
100
AcDbRotatedDimension
  0
DIMENSION
  5
295
330
1F
100
AcDbEntity
  8
VERMASSUNG
100
AcDbDimension
  2
_D_3
 10
212.6334346143
 20
133.9616929487
 30
0.0
 11
212.6334346143
 21
142.4442991554
 31
0.0
 70
   160
  1
%%c<>
 71
     2
 42
-1.0
  3
SLDDIMSTYLE1
100
AcDbAlignedDimension
 13
196.32446466
 23
101.9616929487
 33
0.0
 14
196.32446466
 24
133.9616929487
 34
0.0
 50
90.0
100
AcDbRotatedDimension
  0
DIMENSION
  5
2A0
330
1F
100
AcDbEntity
  8
VERMASSUNG
100
AcDbDimension
  2
_D_4
 10
140.32446466
 20
137.9616929487
 30
0.0
 11
140.32446466
 21
117.9616929487
 31
0.0
 70
   160
  1
PSC %%c<>
 71
     2
 42
-1.0
  3
SLDDIMSTYLE0
100
AcDbAlignedDimension
 13
174.62446466
 23
97.9616929487
 33
0.0
 14
174.62446466
 24
137.9616929487
 34
0.0
 50
90.0
100
AcDbRotatedDimension
  0
LINE
  5
2AC
330
1F
100
AcDbEntity
  8
VERMASSUNG
  6
SLD-Punktstrich
370
     0
100
AcDbLine
 10
231.2085030443
 20
125.7398675417
 30
0.0
 11
261.1735842298
 21
125.7398675417
 31
0.0
  0
LINE
  5
2AD
330
1F
100
AcDbEntity
  8
VERMASSUNG
  6
SLD-Punktstrich
370
     0
100
AcDbLine
 10
231.4624444103
 20
110.1835183556
 30
0.0
 11
261.9354083277
 21
110.1835183556
 31
0.0
  0
CIRCLE
  5
2AE
330
1F
100
AcDbEntity
  8
0
  6
SLD-Durchgehend
 62
     7
370
    15
100
AcDbCircle
 10
78.8492332394
 20
125.7398675417
 30
0.0
 40
4.249999999999997
  0
LINE
  5
2AF
330
1F
100
AcDbEntity
  8
0
  6
SLD-Durchgehend
 62
     7
370
    15
100
AcDbLine
 10
80.895697134
 20
126.9110509649
 30
0.0
 11
78.8581905835
 21
128.0977487088
 31
0.0
  0
LINE
  5
2B0
330
1F
100
AcDbEntity
  8
0
  6
SLD-Durchgehend
 62
     7
370
    15
100
AcDbLine
 10
76.811727038
 20
126.9265658677
 30
0.0
 11
78.8581905835
 21
128.0977487088
 31
0.0
  0
LINE
  5
2B1
330
1F
100
AcDbEntity
  8
0
  6
SLD-Durchgehend
 62
     7
370
    15
100
AcDbLine
 10
76.8027695775
 20
124.5686838858
 30
0.0
 11
76.811727038
 21
126.9265658677
 31
0.0
  0
LINE
  5
2B2
330
1F
100
AcDbEntity
  8
0
  6
SLD-Durchgehend
 62
     7
370
    15
100
AcDbLine
 10
76.8027695775
 20
124.5686838858
 30
0.0
 11
78.8402761281
 21
123.381986142
 31
0.0
  0
LINE
  5
2B3
330
1F
100
AcDbEntity
  8
0
  6
SLD-Durchgehend
 62
     7
370
    15
100
AcDbLine
 10
80.8867396735
 20
124.5531694487
 30
0.0
 11
78.8402761281
 21
123.381986142
 31
0.0
  0
LINE
  5
2B4
330
1F
100
AcDbEntity
  8
0
  6
SLD-Durchgehend
 62
     7
370
    15
100
AcDbLine
 10
80.8867396735
 20
124.5531694487
 30
0.0
 11
80.895697134
 21
126.9110509649
 31
0.0
  0
ARC
  5
2B5
330
1F
100
AcDbEntity
  8
0
  6
SLD-Durchgehend
 62
     7
370
    15
100
AcDbCircle
 10
78.8492332394
 20
125.7398675417
 30
0.0
 40
2.042000000000011
100
AcDbArc
 50
179.7823417911
 51
239.7823417911
  0
ARC
  5
2B6
330
1F
100
AcDbEntity
  8
0
  6
SLD-Durchgehend
 62
     7
370
    15
100
AcDbCircle
 10
78.8492332394
 20
125.7398675417
 30
0.0
 40
2.042000000000013
100
AcDbArc
 50
119.7823417911
 51
179.7823417911
  0
ARC
  5
2B7
330
1F
100
AcDbEntity
  8
0
  6
SLD-Durchgehend
 62
     7
370
    15
100
AcDbCircle
 10
78.8492332394
 20
125.7398675417
 30
0.0
 40
2.042000000000013
100
AcDbArc
 50
59.7823417911
 51
119.7823417911
  0
ARC
  5
2B8
330
1F
100
AcDbEntity
  8
0
  6
SLD-Durchgehend
 62
     7
370
    15
100
AcDbCircle
 10
78.8492332394
 20
125.7398675417
 30
0.0
 40
2.041999999999997
100
AcDbArc
 50
359.7823417911
 51
59.7823417911
  0
ARC
  5
2B9
330
1F
100
AcDbEntity
  8
0
  6
SLD-Durchgehend
 62
     7
370
    15
100
AcDbCircle
 10
78.8492332394
 20
125.7398675417
 30
0.0
 40
2.041999999999997
100
AcDbArc
 50
299.7823417911
 51
359.7823417911
  0
ARC
  5
2BA
330
1F
100
AcDbEntity
  8
0
  6
SLD-Durchgehend
 62
     7
370
    15
100
AcDbCircle
 10
78.8492332394
 20
125.7398675417
 30
0.0
 40
2.041999999999998
100
AcDbArc
 50
239.7823417911
 51
299.7823417911
  0
CIRCLE
  5
2BB
330
1F
100
AcDbEntity
  8
0
  6
SLD-Durchgehend
 62
     7
370
    15
100
AcDbCircle
 10
94.4055824255
 20
125.7398675417
 30
0.0
 40
4.249999999999989
  0
LINE
  5
2BC
330
1F
100
AcDbEntity
  8
0
  6
SLD-Durchgehend
 62
     7
370
    15
100
AcDbLine
 10
94.5343197271
 20
128.0942487985
 30
0.0
 11
92.4309970759
 21
127.0285484836
 31
0.0
  0
LINE
  5
2BD
330
1F
100
AcDbEntity
  8
0
  6
SLD-Durchgehend
 62
     7
370
    15
100
AcDbLine
 10
92.4309970759
 20
127.0285484836
 30
0.0
 11
92.3022594251
 21
124.6741668776
 31
0.0
  0
LINE
  5
2BE
330
1F
100
AcDbEntity
  8
0
  6
SLD-Durchgehend
 62
     7
370
    15
100
AcDbLine
 10
94.2768448912
 20
123.3854860522
 30
0.0
 11
92.3022594251
 21
124.6741668776
 31
0.0
  0
LINE
  5
2BF
330
1F
100
AcDbEntity
  8
0
  6
SLD-Durchgehend
 62
     7
370
    15
100
AcDbLine
 10
96.3801675424
 20
124.4511868328
 30
0.0
 11
94.2768448912
 21
123.3854860522
 31
0.0
  0
LINE
  5
2C0
330
1F
100
AcDbEntity
  8
0
  6
SLD-Durchgehend
 62
     7
370
    15
100
AcDbLine
 10
96.3801675424
 20
124.4511868328
 30
0.0
 11
96.5089051932
 21
126.8055684388
 31
0.0
  0
LINE
  5
2C1
330
1F
100
AcDbEntity
  8
0
  6
SLD-Durchgehend
 62
     7
370
    15
100
AcDbLine
 10
94.5343197271
 20
128.0942487985
 30
0.0
 11
96.5089051932
 21
126.8055684388
 31
0.0
  0
ARC
  5
2C2
330
1F
100
AcDbEntity
  8
0
  6
SLD-Durchgehend
 62
     7
370
    15
100
AcDbCircle
 10
94.4055824255
 20
125.7398675417
 30
0.0
 40
2.042000000000004
100
AcDbArc
 50
236.8701833941
 51
296.8701833941
  0
ARC
  5
2C3
330
1F
100
AcDbEntity
  8
0
  6
SLD-Durchgehend
 62
     7
370
    15
100
AcDbCircle
 10
94.4055824255
 20
125.7398675417
 30
0.0
 40
2.042000000000004
100
AcDbArc
 50
296.8701833941
 51
356.8701833941
  0
ARC
  5
2C4
330
1F
100
AcDbEntity
  8
0
  6
SLD-Durchgehend
 62
     7
370
    15
100
AcDbCircle
 10
94.4055824255
 20
125.7398675417
 30
0.0
 40
2.042000000000004
100
AcDbArc
 50
176.8701833941
 51
236.8701833941
  0
ARC
  5
2C5
330
1F
100
AcDbEntity
  8
0
  6
SLD-Durchgehend
 62
     7
370
    15
100
AcDbCircle
 10
94.4055824255
 20
125.7398675417
 30
0.0
 40
2.042
100
AcDbArc
 50
116.8701833941
 51
176.8701833941
  0
ARC
  5
2C6
330
1F
100
AcDbEntity
  8
0
  6
SLD-Durchgehend
 62
     7
370
    15
100
AcDbCircle
 10
94.4055824255
 20
125.7398675417
 30
0.0
 40
2.041999999999997
100
AcDbArc
 50
56.8701833941
 51
116.8701833941
  0
ARC
  5
2C7
330
1F
100
AcDbEntity
  8
0
  6
SLD-Durchgehend
 62
     7
370
    15
100
AcDbCircle
 10
94.4055824255
 20
125.7398675417
 30
0.0
 40
2.041999999999997
100
AcDbArc
 50
356.8701833941
 51
56.8701833941
  0
CIRCLE
  5
2C8
330
1F
100
AcDbEntity
  8
0
  6
SLD-Durchgehend
 62
     7
370
    15
100
AcDbCircle
 10
94.4055824255
 20
110.1835183556
 30
0.0
 40
4.250000000000005
  0
LINE
  5
2C9
330
1F
100
AcDbEntity
  8
0
  6
SLD-Durchgehend
 62
     7
370
    15
100
AcDbLine
 10
93.0766820856
 20
112.1312629886
 30
0.0
 11
95.4279283941
 21
112.3082519964
 31
0.0
  0
LINE
  5
2CA
330
1F
100
AcDbEntity
  8
0
  6
SLD-Durchgehend
 62
     7
370
    15
100
AcDbLine
 10
92.0543357678
 20
110.0065292314
 30
0.0
 11
93.0766820856
 21
112.1312629886
 31
0.0
  0
LINE
  5
2CB
330
1F
100
AcDbEntity
  8
0
  6
SLD-Durchgehend
 62
     7
370
    15
100
AcDbLine
 10
92.0543357678
 20
110.0065292314
 30
0.0
 11
93.3832362242
 21
108.0587844819
 31
0.0
  0
LINE
  5
2CC
330
1F
100
AcDbEntity
  8
0
  6
SLD-Durchgehend
 62
     7
370
    15
100
AcDbLine
 10
95.7344825328
 20
108.2357739553
 30
0.0
 11
93.3832362242
 21
108.0587844819
 31
0.0
  0
LINE
  5
2CD
330
1F
100
AcDbEntity
  8
0
  6
SLD-Durchgehend
 62
     7
370
    15
100
AcDbLine
 10
96.7568288505
 20
110.3605077125
 30
0.0
 11
95.4279283941
 21
112.3082519964
 31
0.0
  0
LINE
  5
2CE
330
1F
100
AcDbEntity
  8
0
  6
SLD-Durchgehend
 62
     7
370
    15
100
AcDbLine
 10
95.7344825328
 20
108.2357739553
 30
0.0
 11
96.7568288505
 21
110.3605077125
 31
0.0
  0
ARC
  5
2CF
330
1F
100
AcDbEntity
  8
0
  6
SLD-Durchgehend
 62
     7
370
    15
100
AcDbCircle
 10
94.4055824255
 20
110.1835183556
 30
0.0
 40
2.041999999999998
100
AcDbArc
 50
334.3048024535
 51
34.3048024535
  0
ARC
  5
2D0
330
1F
100
AcDbEntity
  8
0
  6
SLD-Durchgehend
 62
     7
370
    15
100
AcDbCircle
 10
94.4055824255
 20
110.1835183556
 30
0.0
 40
2.042000000000001
100
AcDbArc
 50
274.3048024535
 51
334.3048024535
  0
ARC
  5
2D1
330
1F
100
AcDbEntity
  8
0
  6
SLD-Durchgehend
 62
     7
370
    15
100
AcDbCircle
 10
94.4055824255
 20
110.1835183556
 30
0.0
 40
2.041999999999998
100
AcDbArc
 50
154.3048024535
 51
214.3048024535
  0
ARC
  5
2D2
330
1F
100
AcDbEntity
  8
0
  6
SLD-Durchgehend
 62
     7
370
    15
100
AcDbCircle
 10
94.4055824255
 20
110.1835183556
 30
0.0
 40
2.042000000000001
100
AcDbArc
 50
94.3048024535
 51
154.3048024535
  0
ARC
  5
2D3
330
1F
100
AcDbEntity
  8
0
  6
SLD-Durchgehend
 62
     7
370
    15
100
AcDbCircle
 10
94.4055824255
 20
110.1835183556
 30
0.0
 40
2.042000000000001
100
AcDbArc
 50
34.3048024535
 51
94.3048024535
  0
ARC
  5
2D4
330
1F
100
AcDbEntity
  8
0
  6
SLD-Durchgehend
 62
     7
370
    15
100
AcDbCircle
 10
94.4055824255
 20
110.1835183556
 30
0.0
 40
2.042000000000001
100
AcDbArc
 50
214.3048024535
 51
274.3048024535
  0
CIRCLE
  5
2D5
330
1F
100
AcDbEntity
  8
0
  6
SLD-Durchgehend
 62
     7
370
    15
100
AcDbCircle
 10
78.8492332394
 20
110.1835183556
 30
0.0
 40
4.249999999999993
  0
LINE
  5
2D6
330
1F
100
AcDbEntity
  8
0
  6
SLD-Durchgehend
 62
     7
370
    15
100
AcDbLine
 10
78.3105547488
 20
112.4790598162
 30
0.0
 11
76.5918967262
 21
110.8647793055
 31
0.0
  0
LINE
  5
2D7
330
1F
100
AcDbEntity
  8
0
  6
SLD-Durchgehend
 62
     7
370
    15
100
AcDbLine
 10
76.5918967262
 20
110.8647793055
 30
0.0
 11
77.130575566
 21
108.5692377284
 31
0.0
  0
LINE
  5
2D8
330
1F
100
AcDbEntity
  8
0
  6
SLD-Durchgehend
 62
     7
370
    15
100
AcDbLine
 10
79.3879119627
 20
107.8879771278
 30
0.0
 11
77.130575566
 21
108.5692377284
 31
0.0
  0
LINE
  5
2D9
330
1F
100
AcDbEntity
  8
0
  6
SLD-Durchgehend
 62
     7
370
    15
100
AcDbLine
 10
81.1065699853
 20
109.5022571728
 30
0.0
 11
79.3879119627
 21
107.8879771278
 31
0.0
  0
LINE
  5
2DA
330
1F
100
AcDbEntity
  8
0
  6
SLD-Durchgehend
 62
     7
370
    15
100
AcDbLine
 10
81.1065699853
 20
109.5022571728
 30
0.0
 11
80.5678911455
 21
111.7977987498
 31
0.0
  0
LINE
  5
2DB
330
1F
100
AcDbEntity
  8
0
  6
SLD-Durchgehend
 62
     7
370
    15
100
AcDbLine
 10
78.3105547488
 20
112.4790598162
 30
0.0
 11
80.5678911455
 21
111.7977987498
 31
0.0
  0
ARC
  5
2DC
330
1F
100
AcDbEntity
  8
0
  6
SLD-Durchgehend
 62
     7
370
    15
100
AcDbCircle
 10
78.8492332394
 20
110.1835183556
 30
0.0
 40
2.041999999999998
100
AcDbArc
 50
313.2062589409
 51
13.2062589409
  0
ARC
  5
2DD
330
1F
100
AcDbEntity
  8
0
  6
SLD-Durchgehend
 62
     7
370
    15
100
AcDbCircle
 10
78.8492332394
 20
110.1835183556
 30
0.0
 40
2.042000000000015
100
AcDbArc
 50
253.2062589409
 51
313.2062589409
  0
ARC
  5
2DE
330
1F
100
AcDbEntity
  8
0
  6
SLD-Durchgehend
 62
     7
370
    15
100
AcDbCircle
 10
78.8492332394
 20
110.1835183556
 30
0.0
 40
2.042000000000015
100
AcDbArc
 50
193.2062589409
 51
253.2062589409
  0
ARC
  5
2DF
330
1F
100
AcDbEntity
  8
0
  6
SLD-Durchgehend
 62
     7
370
    15
100
AcDbCircle
 10
78.8492332394
 20
110.1835183556
 30
0.0
 40
2.042000000000017
100
AcDbArc
 50
133.2062589409
 51
193.2062589409
  0
ARC
  5
2E0
330
1F
100
AcDbEntity
  8
0
  6
SLD-Durchgehend
 62
     7
370
    15
100
AcDbCircle
 10
78.8492332394
 20
110.1835183556
 30
0.0
 40
2.042000000000017
100
AcDbArc
 50
73.2062589409
 51
133.2062589409
  0
ARC
  5
2E1
330
1F
100
AcDbEntity
  8
0
  6
SLD-Durchgehend
 62
     7
370
    15
100
AcDbCircle
 10
78.8492332394
 20
110.1835183556
 30
0.0
 40
2.041999999999985
100
AcDbArc
 50
13.2062589409
 51
73.2062589409
  0
CIRCLE
  5
2E2
330
1F
100
AcDbEntity
  8
0
  6
SLD-Durchgehend
 62
     7
370
    15
100
AcDbCircle
 10
86.6274078325
 20
117.9616929487
 30
0.0
 40
15.99999999999999
  0
LINE
  5
2E3
330
1F
100
AcDbEntity
  8
0
  6
SLD-Durchgehend
 62
     7
370
    15
100
AcDbLine
 10
101.500577195
 20
118.8554751909
 30
0.0
 11
102.3354911193
 21
119.3577699352
 31
0.0
  0
ARC
  5
2E4
330
1F
100
AcDbEntity
  8
0
  6
SLD-Durchgehend
 62
     7
370
    15
100
AcDbCircle
 10
102.2647241018
 20
119.4558795548
 30
0.0
 40
0.1209688729090101
100
AcDbArc
 50
305.8031224906
 51
65.1138868821
  0
LINE
  5
2E5
330
1F
100
AcDbEntity
  8
0
  6
SLD-Durchgehend
 62
     7
370
    15
100
AcDbLine
 10
102.3156297341
 20
119.5656159882
 30
0.0
 11
101.3777925581
 21
120.0679106161
 31
0.0
  0
ARC
  5
2E6
330
1F
100
AcDbEntity
  8
0
  6
SLD-Durchgehend
 62
     7
370
    15
100
AcDbCircle
 10
86.6274078325
 20
117.9616929487
 30
0.0
 40
14.9
100
AcDbArc
 50
8.1263717008
 51
9.2450053025
  0
LINE
  5
2E7
330
1F
100
AcDbEntity
  8
0
  6
SLD-Durchgehend
 62
     7
370
    15
100
AcDbLine
 10
101.3338620722
 20
120.3554750875
 30
0.0
 11
102.1292022377
 21
120.8577699483
 31
0.0
  0
LWPOLYLINE
  5
2E8
330
1F
100
AcDbEntity
  8
0
  6
SLD-Durchgehend
 62
     7
370
    15
100
AcDbPolyline
 90
        9
 70
   128
 43
0.0
 10
102.1292022377
 20
120.8577699483
 10
102.1518203378
 20
120.8779475175
 10
102.1663759783
 20
120.9036084812
 10
102.1723215416
 20
120.9304419801
 10
102.1708975494
 20
120.9597481404
 10
102.1630343929
 20
120.986632862
 10
102.1443241224
 20
121.0192603514
 10
102.1098409727
 20
121.0528792337
 10
102.0889262617
 20
121.0656160012
  0
LINE
  5
2E9
330
1F
100
AcDbEntity
  8
0
  6
SLD-Durchgehend
 62
     7
370
    15
100
AcDbLine
 10
102.0889262617
 20
121.0656160012
 30
0.0
 11
101.0844194278
 21
121.5679106292
 31
0.0
  0
ARC
  5
2EA
330
1F
100
AcDbEntity
  8
0
  6
SLD-Durchgehend
 62
     7
370
    15
100
AcDbCircle
 10
86.6274078325
 20
117.9616929487
 30
0.0
 40
14.89999999999999
100
AcDbArc
 50
14.0062678394
 51
15.1488557102
  0
LINE
  5
2EB
330
1F
100
AcDbEntity
  8
0
  6
SLD-Durchgehend
 62
     7
370
    15
100
AcDbLine
 10
101.0096351564
 20
121.8554751005
 30
0.0
 11
101.7722886935
 21
122.3577697285
 31
0.0
  0
LWPOLYLINE
  5
2EC
330
1F
100
AcDbEntity
  8
0
  6
SLD-Durchgehend
 62
     7
370
    15
100
AcDbPolyline
 90
        9
 70
   128
 43
0.0
 10
101.7722886935
 20
122.3577697285
 10
101.791870682
 20
122.3758499593
 10
101.8046763674
 20
122.3999386177
 10
101.8092417106
 20
122.430498571
 10
101.8052863836
 20
122.4582883053
 10
101.795271872
 20
122.484485478
 10
101.7721080169
 20
122.5188824803
 10
101.730287908
 20
122.554692299
 10
101.7104041711
 20
122.5656157814
  0
LINE
  5
2ED
330
1F
100
AcDbEntity
  8
0
  6
SLD-Durchgehend
 62
     7
370
    15
100
AcDbLine
 10
101.7104041711
 20
122.5656157814
 30
0.0
 11
100.6251414255
 21
123.0679106422
 31
0.0
  0
ARC
  5
2EE
330
1F
100
AcDbEntity
  8
0
  6
SLD-Durchgehend
 62
     7
370
    15
100
AcDbCircle
 10
86.6274078325
 20
117.9616929487
 30
0.0
 40
14.9
100
AcDbArc
 50
20.0414082842
 51
21.2230004203
  0
LINE
  5
2EF
330
1F
100
AcDbEntity
  8
0
  6
SLD-Durchgehend
 62
     7
370
    15
100
AcDbLine
 10
100.5168686569
 20
123.3554751136
 30
0.0
 11
101.25372549
 21
123.8577699744
 31
0.0
  0
LWPOLYLINE
  5
2F0
330
1F
100
AcDbEntity
  8
0
  6
SLD-Durchgehend
 62
     7
370
    15
100
AcDbPolyline
 90
        9
 70
   128
 43
0.0
 10
101.25372549
 20
123.8577699744
 10
101.2706438959
 20
123.8737822034
 10
101.2819315255
 20
123.8961865649
 10
101.285057044
 20
123.9245630324
 10
101.2802430377
 20
123.9506060712
 10
101.2694378332
 20
123.9760549262
 10
101.2440714002
 20
124.0114735894
 10
101.1975071341
 20
124.0501798213
 10
101.1682133138
 20
124.0656160273
  0
LINE
  5
2F1
330
1F
100
AcDbEntity
  8
0
  6
SLD-Durchgehend
 62
     7
370
    15
100
AcDbLine
 10
101.1682133138
 20
124.0656160273
 30
0.0
 11
99.9828520179
 21
124.5679108881
 31
0.0
  0
ARC
  5
2F2
330
1F
100
AcDbEntity
  8
0
  6
SLD-Durchgehend
 62
     7
370
    15
100
AcDbCircle
 10
86.6274078325
 20
117.9616929487
 30
0.0
 40
14.89999999999999
100
AcDbArc
 50
26.3191194298
 51
27.5595289824
  0
LINE
  5
2F3
330
1F
100
AcDbEntity
  8
0
  6
SLD-Durchgehend
 62
     7
370
    15
100
AcDbLine
 10
99.8367135361
 20
124.8554753594
 30
0.0
 11
100.5554710463
 21
125.3577697546
 31
0.0
  0
LWPOLYLINE
  5
2F4
330
1F
100
AcDbEntity
  8
0
  6
SLD-Durchgehend
 62
     7
370
    15
100
AcDbPolyline
 90
        9
 70
   128
 43
0.0
 10
100.5554710463
 20
125.3577697546
 10
100.5700266868
 20
125.3717130505
 10
100.5800346792
 20
125.392298539
 10
100.5820044264
 20
125.4183415778
 10
100.5765450135
 20
125.4424060218
 10
100.5615442008
 20
125.4725608498
 10
100.530568412
 20
125.5097499572
 10
100.4730545864
 20
125.5515803106
 10
100.4430967331
 20
125.5656158075
  0
LINE
  5
2F5
330
1F
100
AcDbEntity
  8
0
  6
SLD-Durchgehend
 62
     7
370
    15
100
AcDbLine
 10
100.4430967331
 20
125.5656158075
 30
0.0
 11
99.1293768347
 21
126.0679106683
 31
0.0
  0
ARC
  5
2F6
330
1F
100
AcDbEntity
  8
0
  6
SLD-Durchgehend
 62
     7
370
    15
100
AcDbCircle
 10
86.6274078325
 20
117.9616929487
 30
0.0
 40
14.89999999999998
100
AcDbArc
 50
32.9591848067
 51
34.2871726543
  0
LINE
  5
2F7
330
1F
100
AcDbEntity
  8
0
  6
SLD-Durchgehend
 62
     7
370
    15
100
AcDbLine
 10
98.9381520957
 20
126.3554751397
 30
0.0
 11
99.6486487746
 21
126.8577700004
 31
0.0
  0
LWPOLYLINE
  5
2F8
330
1F
100
AcDbEntity
  8
0
  6
SLD-Durchgehend
 62
     7
370
    15
100
AcDbPolyline
 90
        9
 70
   128
 43
0.0
 10
99.6486487746
 20
126.8577700004
 10
99.6610828623
 20
126.8696108356
 10
99.6700775758
 20
126.8882140041
 10
99.6712119267
 20
126.9117522508
 10
99.6653827787
 20
126.9335433364
 10
99.6495307371
 20
126.9624236495
 10
99.6158587694
 20
126.999975507
 10
99.5499798045
 20
127.0455320821
 10
99.5041885361
 20
127.0656160534
  0
LINE
  5
2F9
330
1F
100
AcDbEntity
  8
0
  6
SLD-Durchgehend
 62
     7
370
    15
100
AcDbLine
 10
99.5041885361
 20
127.0656160534
 30
0.0
 11
98.2741721854
 21
127.4811470405
 31
0.0
  0
LINE
  5
2FA
330
1F
100
AcDbEntity
  8
0
  6
SLD-Durchgehend
 62
     7
370
    15
100
AcDbLine
 10
97.9478479311
 20
127.9811368779
 30
0.0
 11
98.4855060414
 21
128.3577702463
 31
0.0
  0
LWPOLYLINE
  5
2FB
330
1F
100
AcDbEntity
  8
0
  6
SLD-Durchgehend
 62
     7
370
    15
100
AcDbPolyline
 90
        9
 70
   128
 43
0.0
 10
98.4855060414
 20
128.3577702463
 10
98.4960029781
 20
128.367432718
 10
98.5049958289
 20
128.3870584786
 10
98.5042824358
 20
128.4083978728
 10
98.4974688798
 20
128.4274965048
 10
98.4792130947
 20
128.4554259375
 10
98.4390600532
 20
128.4941344977
 10
98.3555325255
 20
128.5444175348
 10
98.3000135929
 20
128.5656162992
  0
LINE
  5
2FC
330
1F
100
AcDbEntity
  8
0
  6
SLD-Durchgehend
 62
     7
370
    15
100
AcDbLine
 10
98.3000135929
 20
128.5656162992
 30
0.0
 11
97.2111848131
 21
128.8799814403
 31
0.0
  0
LINE
  5
2FD
330
1F
100
AcDbEntity
  8
0
  6
SLD-Durchgehend
 62
     7
370
    15
100
AcDbLine
 10
96.3974296063
 20
129.4680948824
 30
0.0
 11
96.9800044731
 21
129.8577695608
 31
0.0
  0
LWPOLYLINE
  5
2FE
330
1F
100
AcDbEntity
  8
0
  6
SLD-Durchgehend
 62
     7
370
    15
100
AcDbPolyline
 90
        9
 70
   128
 43
0.0
 10
96.9800044731
 20
129.8577695608
 10
96.988668567
 20
129.8651251465
 10
96.997206001
 20
129.8809892953
 10
96.99764186
 20
129.8959938333
 10
96.9926434517
 20
129.9120014057
 10
96.9782303035
 20
129.9346474454
 10
96.9444707915
 20
129.9676274404
 10
96.86496844
 20
130.0175761327
 10
96.736213094
 20
130.0656156138
  0
LINE
  5
2FF
330
1F
100
AcDbEntity
  8
0
  6
SLD-Durchgehend
 62
     7
370
    15
100
AcDbLine
 10
96.736213094
 20
130.0656156138
 30
0.0
 11
94.5705351368
 21
130.5679104746
 31
0.0
  0
ARC
  5
300
330
1F
100
AcDbEntity
  8
0
  6
SLD-Durchgehend
 62
     7
370
    15
100
AcDbCircle
 10
86.6274078325
 20
117.9616929487
 30
0.0
 40
14.89999999999999
100
AcDbArc
 50
57.7851348081
 51
59.923210481
  0
LINE
  5
301
330
1F
100
AcDbEntity
  8
0
  6
SLD-Durchgehend
 62
     7
370
    15
100
AcDbLine
 10
94.0946949594
 20
130.8554749459
 30
0.0
 11
94.9483466283
 21
131.3577698067
 31
0.0
  0
LWPOLYLINE
  5
302
330
1F
100
AcDbEntity
  8
0
  6
SLD-Durchgehend
 62
     7
370
    15
100
AcDbPolyline
 90
        9
 70
   128
 43
0.0
 10
94.9483466283
 20
131.3577698067
 10
94.9551629782
 20
131.3626322419
 10
94.9640002981
 20
131.37462302
 10
94.9656692282
 20
131.3858668775
 10
94.962541847
 20
131.3981547475
 10
94.9522796035
 20
131.4146009729
 10
94.9267380819
 20
131.4391757816
 10
94.8439192906
 20
131.4887137607
 10
94.6040096641
 20
131.5656158597
  0
LWPOLYLINE
  5
303
330
1F
100
AcDbEntity
  8
0
  6
SLD-Durchgehend
 62
     7
370
    15
100
AcDbPolyline
 90
        3
 70
   128
 43
0.0
 10
94.6040096641
 20
131.5656158597
 10
93.0355199561
 20
131.8431974843
 10
91.4258052543
 20
132.0679107204
  0
ARC
  5
304
330
1F
100
AcDbEntity
  8
0
  6
SLD-Durchgehend
 62
     7
370
    15
100
AcDbCircle
 10
86.6274078325
 20
117.9616929487
 30
0.0
 40
14.90000000000001
100
AcDbArc
 50
71.2136529668
 51
75.0221147726
  0
LINE
  5
305
330
1F
100
AcDbEntity
  8
0
  6
SLD-Durchgehend
 62
     7
370
    15
100
AcDbLine
 10
90.4782562465
 20
132.3554751918
 30
0.0
 11
91.8042593584
 21
132.8577700526
 31
0.0
  0
LWPOLYLINE
  5
306
330
1F
100
AcDbEntity
  8
0
  6
SLD-Durchgehend
 62
     7
370
    15
100
AcDbPolyline
 90
       10
 70
   128
 43
0.0
 10
91.8042593584
 20
132.8577700526
 10
91.8173295394
 20
132.8651368141
 10
91.8229551934
 20
132.871291925
 10
91.8252797745
 20
132.8790377349
 10
91.8236490287
 20
132.8866037995
 10
91.8175330334
 20
132.8958360002
 10
91.8013871595
 20
132.9097639293
 10
91.7402462982
 20
132.9414586991
 10
91.4703043126
 20
133.0179761619
 10
91.1622074381
 20
133.0656161055
  0
ARC
  5
307
330
1F
100
AcDbEntity
  8
0
  6
SLD-Durchgehend
 62
     7
370
    15
100
AcDbCircle
 10
86.6274078325
 20
90.8929451823
 30
0.0
 40
42.41578220734644
100
AcDbArc
 50
83.86260463
 51
96.13739537
  0
LWPOLYLINE
  5
308
330
1F
100
AcDbEntity
  8
0
  6
SLD-Durchgehend
 62
     7
370
    15
100
AcDbPolyline
 90
       11
 70
   128
 43
0.0
 10
82.0926082269
 20
133.0656161055
 10
81.8904218212
 20
133.0377956376
 10
81.618802058
 20
132.9773602531
 10
81.5039876797
 20
132.9369287461
 10
81.4510638774
 20
132.9080642656
 10
81.437385077
 20
132.8959524155
 10
81.4314683847
 20
132.8872734204
 10
81.4295452036
 20
132.8799057275
 10
81.4309440501
 20
132.8729971767
 10
81.4366744779
 20
132.8658082977
 10
81.4505563066
 20
132.8577700526
  0
LINE
  5
309
330
1F
100
AcDbEntity
  8
0
  6
SLD-Durchgehend
 62
     7
370
    15
100
AcDbLine
 10
81.4505563066
 20
132.8577700526
 30
0.0
 11
82.7765594185
 21
132.3554751918
 31
0.0
  0
ARC
  5
30A
330
1F
100
AcDbEntity
  8
0
  6
SLD-Durchgehend
 62
     7
370
    15
100
AcDbCircle
 10
86.6274078325
 20
117.9616929487
 30
0.0
 40
14.89999999999998
100
AcDbArc
 50
104.9778852274
 51
108.7863470332
  0
LWPOLYLINE
  5
30B
330
1F
100
AcDbEntity
  8
0
  6
SLD-Durchgehend
 62
     7
370
    15
100
AcDbPolyline
 90
        3
 70
   128
 43
0.0
 10
81.8290104106
 20
132.0679107204
 10
80.2266363934
 20
131.8443625689
 10
78.6508060008
 20
131.5656158597
  0
LWPOLYLINE
  5
30C
330
1F
100
AcDbEntity
  8
0
  6
SLD-Durchgehend
 62
     7
370
    15
100
AcDbPolyline
 90
       10
 70
   128
 43
0.0
 10
78.6508060008
 20
131.5656158597
 10
78.4431452811
 20
131.5031967581
 10
78.3715563774
 20
131.4681473643
 10
78.3188565582
 20
131.4314448729
 10
78.303438513
 20
131.4157064528
 10
78.2922207326
 20
131.3980318129
 10
78.289124085
 20
131.3854906231
 10
78.2910435409
 20
131.3740558446
 10
78.2992652565
 20
131.362970312
 10
78.3064690367
 20
131.3577698067
  0
LINE
  5
30D
330
1F
100
AcDbEntity
  8
0
  6
SLD-Durchgehend
 62
     7
370
    15
100
AcDbLine
 10
78.3064690367
 20
131.3577698067
 30
0.0
 11
79.1601207055
 21
130.8554749459
 31
0.0
  0
ARC
  5
30E
330
1F
100
AcDbEntity
  8
0
  6
SLD-Durchgehend
 62
     7
370
    15
100
AcDbCircle
 10
86.6274078325
 20
117.9616929487
 30
0.0
 40
14.89999999999998
100
AcDbArc
 50
120.076789519
 51
122.2148651919
  0
LINE
  5
30F
330
1F
100
AcDbEntity
  8
0
  6
SLD-Durchgehend
 62
     7
370
    15
100
AcDbLine
 10
78.6842805281
 20
130.5679104746
 30
0.0
 11
76.5186025709
 21
130.0656156138
 31
0.0
  0
LWPOLYLINE
  5
310
330
1F
100
AcDbEntity
  8
0
  6
SLD-Durchgehend
 62
     7
370
    15
100
AcDbPolyline
 90
        8
 70
   128
 43
0.0
 10
76.5186025709
 20
130.0656156138
 10
76.363473101
 20
130.0034293428
 10
76.2873942912
 20
129.9468431145
 10
76.2675655022
 20
129.9219842524
 10
76.2588203833
 20
129.9032059953
 10
76.2569465623
 20
129.8846857146
 10
76.2614746526
 20
129.8713948101
 10
76.2748111919
 20
129.8577695608
  0
LINE
  5
311
330
1F
100
AcDbEntity
  8
0
  6
SLD-Durchgehend
 62
     7
370
    15
100
AcDbLine
 10
76.2748111919
 20
129.8577695608
 30
0.0
 11
76.8778826058
 21
129.4543848828
 31
0.0
  0
LINE
  5
312
330
1F
100
AcDbEntity
  8
0
  6
SLD-Durchgehend
 62
     7
370
    15
100
AcDbLine
 10
76.0919841886
 20
128.8939419657
 30
0.0
 11
74.9548020721
 21
128.5656162992
 31
0.0
  0
LWPOLYLINE
  5
313
330
1F
100
AcDbEntity
  8
0
  6
SLD-Durchgehend
 62
     7
370
    15
100
AcDbPolyline
 90
        9
 70
   128
 43
0.0
 10
74.9548020721
 20
128.5656162992
 10
74.863313599
 20
128.5259792105
 10
74.812003313
 20
128.491130051
 10
74.7674553603
 20
128.444620733
 10
74.7549933329
 20
128.4222866863
 10
74.749190262
 20
128.3990362183
 10
74.7515185684
 20
128.380508487
 10
74.759402214
 20
128.3667211876
 10
74.7693096236
 20
128.3577702463
  0
LINE
  5
314
330
1F
100
AcDbEntity
  8
0
  6
SLD-Durchgehend
 62
     7
370
    15
100
AcDbLine
 10
74.7693096236
 20
128.3577702463
 30
0.0
 11
75.300371176
 21
127.9857581005
 31
0.0
  0
LINE
  5
315
330
1F
100
AcDbEntity
  8
0
  6
SLD-Durchgehend
 62
     7
370
    15
100
AcDbLine
 10
75.0419226423
 20
127.5018484786
 30
0.0
 11
73.7506271288
 21
127.0656160534
 31
0.0
  0
LWPOLYLINE
  5
316
330
1F
100
AcDbEntity
  8
0
  6
SLD-Durchgehend
 62
     7
370
    15
100
AcDbPolyline
 90
        9
 70
   128
 43
0.0
 10
73.7506271288
 20
127.0656160534
 10
73.6644984171
 20
127.0205735684
 10
73.6257945135
 20
126.9872145251
 10
73.5987582192
 20
126.9523327694
 10
73.5870263487
 20
126.9268089429
 10
73.5830207303
 20
126.9007551939
 10
73.5870105162
 20
126.8813110411
 10
73.599672778
 20
126.86305805
 10
73.6061668903
 20
126.8577700004
  0
LINE
  5
317
330
1F
100
AcDbEntity
  8
0
  6
SLD-Durchgehend
 62
     7
370
    15
100
AcDbLine
 10
73.6061668903
 20
126.8577700004
 30
0.0
 11
74.3166635692
 21
126.3554751397
 31
0.0
  0
ARC
  5
318
330
1F
100
AcDbEntity
  8
0
  6
SLD-Durchgehend
 62
     7
370
    15
100
AcDbCircle
 10
86.6274078325
 20
117.9616929487
 30
0.0
 40
14.89999999999997
100
AcDbArc
 50
145.7128273457
 51
147.0408151933
  0
LINE
  5
319
330
1F
100
AcDbEntity
  8
0
  6
SLD-Durchgehend
 62
     7
370
    15
100
AcDbLine
 10
74.1254388303
 20
126.0679106683
 30
0.0
 11
72.8117189318
 21
125.5656158075
 31
0.0
  0
LWPOLYLINE
  5
31A
330
1F
100
AcDbEntity
  8
0
  6
SLD-Durchgehend
 62
     7
370
    15
100
AcDbPolyline
 90
        9
 70
   128
 43
0.0
 10
72.8117189318
 20
125.5656158075
 10
72.7425728873
 20
125.5257235363
 10
72.7071891487
 20
125.491472286
 10
72.6850348473
 20
125.4581933365
 10
72.6749672502
 20
125.4312101275
 10
72.6727106556
 20
125.4041132972
 10
72.6778720454
 20
125.3835264117
 10
72.6923932269
 20
125.3633409262
 10
72.6993446186
 20
125.3577697546
  0
LINE
  5
31B
330
1F
100
AcDbEntity
  8
0
  6
SLD-Durchgehend
 62
     7
370
    15
100
AcDbLine
 10
72.6993446186
 20
125.3577697546
 30
0.0
 11
73.4181021288
 21
124.8554753594
 31
0.0
  0
ARC
  5
31C
330
1F
100
AcDbEntity
  8
0
  6
SLD-Durchgehend
 62
     7
370
    15
100
AcDbCircle
 10
86.6274078325
 20
117.9616929487
 30
0.0
 40
14.89999999999997
100
AcDbArc
 50
152.4404710176
 51
153.6808805702
  0
LINE
  5
31D
330
1F
100
AcDbEntity
  8
0
  6
SLD-Durchgehend
 62
     7
370
    15
100
AcDbLine
 10
73.271963647
 20
124.5679108881
 30
0.0
 11
72.0866023511
 21
124.0656160273
 31
0.0
  0
LWPOLYLINE
  5
31E
330
1F
100
AcDbEntity
  8
0
  6
SLD-Durchgehend
 62
     7
370
    15
100
AcDbPolyline
 90
        9
 70
   128
 43
0.0
 10
72.0866023511
 20
124.0656160273
 10
72.0295364917
 20
124.0297526576
 10
71.9980726898
 20
123.9960024588
 10
71.9793335483
 20
123.963557043
 10
71.9710159064
 20
123.9357230708
 10
71.970350942
 20
123.9080884017
 10
71.9766001165
 20
123.8863718219
 10
71.9928395882
 20
123.8642892324
 10
72.0010901749
 20
123.8577699744
  0
LINE
  5
31F
330
1F
100
AcDbEntity
  8
0
  6
SLD-Durchgehend
 62
     7
370
    15
100
AcDbLine
 10
72.0010901749
 20
123.8577699744
 30
0.0
 11
72.737947008
 21
123.3554751136
 31
0.0
  0
ARC
  5
320
330
1F
100
AcDbEntity
  8
0
  6
SLD-Durchgehend
 62
     7
370
    15
100
AcDbCircle
 10
86.6274078325
 20
117.9616929487
 30
0.0
 40
14.89999999999998
100
AcDbArc
 50
158.7769995797
 51
159.9585917158
  0
LINE
  5
321
330
1F
100
AcDbEntity
  8
0
  6
SLD-Durchgehend
 62
     7
370
    15
100
AcDbLine
 10
72.6296742395
 20
123.0679106422
 30
0.0
 11
71.5444114939
 21
122.5656157814
 31
0.0
  0
LWPOLYLINE
  5
322
330
1F
100
AcDbEntity
  8
0
  6
SLD-Durchgehend
 62
     7
370
    15
100
AcDbPolyline
 90
        9
 70
   128
 43
0.0
 10
71.5444114939
 20
122.5656157814
 10
71.4964530379
 20
122.5331019134
 10
71.4687284962
 20
122.5004222699
 10
71.4527795971
 20
122.4686967664
 10
71.4461700008
 20
122.4403403223
 10
71.4469951526
 20
122.412406233
 10
71.4543535322
 20
122.3896349304
 10
71.4723625168
 20
122.3656659469
 10
71.4825269714
 20
122.3577697285
  0
LINE
  5
323
330
1F
100
AcDbEntity
  8
0
  6
SLD-Durchgehend
 62
     7
370
    15
100
AcDbLine
 10
71.4825269714
 20
122.3577697285
 30
0.0
 11
72.2451805085
 21
121.8554751005
 31
0.0
  0
ARC
  5
324
330
1F
100
AcDbEntity
  8
0
  6
SLD-Durchgehend
 62
     7
370
    15
100
AcDbCircle
 10
86.6274078325
 20
117.9616929487
 30
0.0
 40
14.89999999999998
100
AcDbArc
 50
164.8511442898
 51
165.9937321606
  0
LINE
  5
325
330
1F
100
AcDbEntity
  8
0
  6
SLD-Durchgehend
 62
     7
370
    15
100
AcDbLine
 10
72.1703962371
 20
121.5679106292
 30
0.0
 11
71.1658894032
 21
121.0656160012
 31
0.0
  0
LWPOLYLINE
  5
326
330
1F
100
AcDbEntity
  8
0
  6
SLD-Durchgehend
 62
     7
370
    15
100
AcDbPolyline
 90
        9
 70
   128
 43
0.0
 10
71.1658894032
 20
121.0656160012
 10
71.131569235
 20
121.0421266489
 10
71.1042153597
 20
121.0102940433
 10
71.0889118672
 20
120.979016506
 10
71.0826114699
 20
120.9500465531
 10
71.0837076366
 20
120.9210509889
 10
71.0912979156
 20
120.8967828181
 10
71.1095145852
 20
120.8706694644
 10
71.1256134272
 20
120.8577699483
  0
LINE
  5
327
330
1F
100
AcDbEntity
  8
0
  6
SLD-Durchgehend
 62
     7
370
    15
100
AcDbLine
 10
71.1256134272
 20
120.8577699483
 30
0.0
 11
71.9209535927
 21
120.3554750875
 31
0.0
  0
ARC
  5
328
330
1F
100
AcDbEntity
  8
0
  6
SLD-Durchgehend
 62
     7
370
    15
100
AcDbCircle
 10
86.6274078325
 20
117.9616929487
 30
0.0
 40
14.89999999999998
100
AcDbArc
 50
170.7549946975
 51
171.8736282992
  0
LINE
  5
329
330
1F
100
AcDbEntity
  8
0
  6
SLD-Durchgehend
 62
     7
370
    15
100
AcDbLine
 10
71.8770231068
 20
120.0679106161
 30
0.0
 11
70.9391859308
 21
119.5656159882
 31
0.0
  0
ARC
  5
32A
330
1F
100
AcDbEntity
  8
0
  6
SLD-Durchgehend
 62
     7
370
    15
100
AcDbCircle
 10
70.9878951172
 20
119.4560894431
 30
0.0
 40
0.1198692993128821
100
AcDbArc
 50
113.9759079556
 51
235.1070826717
  0
LINE
  5
32B
330
1F
100
AcDbEntity
  8
0
  6
SLD-Durchgehend
 62
     7
370
    15
100
AcDbLine
 10
70.9193245456
 20
119.3577699352
 30
0.0
 11
71.7542384699
 21
118.8554751909
 31
0.0
  0
ARC
  5
32C
330
1F
100
AcDbEntity
  8
0
  6
SLD-Durchgehend
 62
     7
370
    15
100
AcDbCircle
 10
86.6274078325
 20
117.9616929487
 30
0.0
 40
14.89999999999997
100
AcDbArc
 50
176.5610261951
 51
177.6682342154
  0
LINE
  5
32D
330
1F
100
AcDbEntity
  8
0
  6
SLD-Durchgehend
 62
     7
370
    15
100
AcDbLine
 10
71.739745228
 20
118.5679107195
 30
0.0
 11
70.8577510849
 21
118.065615997
 31
0.0
  0
ARC
  5
32E
330
1F
100
AcDbEntity
  8
0
  6
SLD-Durchgehend
 62
     7
370
    15
100
AcDbCircle
 10
70.917156587
 20
117.9616929487
 30
0.0
 40
0.1197038581464562
100
AcDbArc
 50
119.7535682453
 51
240.2464317547
  0
LINE
  5
32F
330
1F
100
AcDbEntity
  8
0
  6
SLD-Durchgehend
 62
     7
370
    15
100
AcDbLine
 10
70.8577510849
 20
117.8577699004
 30
0.0
 11
71.739745228
 21
117.3554751778
 31
0.0
  0
ARC
  5
330
330
1F
100
AcDbEntity
  8
0
  6
SLD-Durchgehend
 62
     7
370
    15
100
AcDbCircle
 10
86.6274078325
 20
117.9616929487
 30
0.0
 40
14.89999999999997
100
AcDbArc
 50
182.3317657846
 51
183.4389738049
  0
LINE
  5
331
330
1F
100
AcDbEntity
  8
0
  6
SLD-Durchgehend
 62
     7
370
    15
100
AcDbLine
 10
71.7542384699
 20
117.0679107065
 30
0.0
 11
70.9193245456
 21
116.5656159621
 31
0.0
  0
ARC
  5
332
330
1F
100
AcDbEntity
  8
0
  6
SLD-Durchgehend
 62
     7
370
    15
100
AcDbCircle
 10
70.9900915631
 20
116.4675063426
 30
0.0
 40
0.1209688729090025
100
AcDbArc
 50
125.8031224906
 51
245.1138868821
  0
LINE
  5
333
330
1F
100
AcDbEntity
  8
0
  6
SLD-Durchgehend
 62
     7
370
    15
100
AcDbLine
 10
70.9391859308
 20
116.3577699092
 30
0.0
 11
71.8770231068
 21
115.8554752812
 31
0.0
  0
ARC
  5
334
330
1F
100
AcDbEntity
  8
0
  6
SLD-Durchgehend
 62
     7
370
    15
100
AcDbCircle
 10
86.6274078325
 20
117.9616929487
 30
0.0
 40
14.89999999999997
100
AcDbArc
 50
188.1263717008
 51
189.2450053025
  0
LINE
  5
335
330
1F
100
AcDbEntity
  8
0
  6
SLD-Durchgehend
 62
     7
370
    15
100
AcDbLine
 10
71.9209535927
 20
115.5679108098
 30
0.0
 11
71.1256134272
 21
115.0656159491
 31
0.0
  0
LWPOLYLINE
  5
336
330
1F
100
AcDbEntity
  8
0
  6
SLD-Durchgehend
 62
     7
370
    15
100
AcDbPolyline
 90
        9
 70
   128
 43
0.0
 10
71.1256134272
 20
115.0656159491
 10
71.1029953271
 20
115.0454383798
 10
71.0884396866
 20
115.0197774161
 10
71.0824941233
 20
114.9929439172
 10
71.0839181155
 20
114.963637757
 10
71.091781272
 20
114.9367530354
 10
71.1104915425
 20
114.904125546
 10
71.1449746922
 20
114.8705066637
 10
71.1658894032
 20
114.8577698961
  0
LINE
  5
337
330
1F
100
AcDbEntity
  8
0
  6
SLD-Durchgehend
 62
     7
370
    15
100
AcDbLine
 10
71.1658894032
 20
114.8577698961
 30
0.0
 11
72.1703962371
 21
114.3554752682
 31
0.0
  0
ARC
  5
338
330
1F
100
AcDbEntity
  8
0
  6
SLD-Durchgehend
 62
     7
370
    15
100
AcDbCircle
 10
86.6274078325
 20
117.9616929487
 30
0.0
 40
14.89999999999998
100
AcDbArc
 50
194.0062678394
 51
195.1488557102
  0
LINE
  5
339
330
1F
100
AcDbEntity
  8
0
  6
SLD-Durchgehend
 62
     7
370
    15
100
AcDbLine
 10
72.2451805085
 20
114.0679107968
 30
0.0
 11
71.4825269714
 21
113.5656161689
 31
0.0
  0
LWPOLYLINE
  5
33A
330
1F
100
AcDbEntity
  8
0
  6
SLD-Durchgehend
 62
     7
370
    15
100
AcDbPolyline
 90
        9
 70
   128
 43
0.0
 10
71.4825269714
 20
113.5656161689
 10
71.462944983
 20
113.5475359381
 10
71.4501392976
 20
113.5234472797
 10
71.4455739543
 20
113.4928873264
 10
71.4495292813
 20
113.4650975921
 10
71.4595437929
 20
113.4389004194
 10
71.482707648
 20
113.404503417
 10
71.5245277569
 20
113.3686935984
 10
71.5444114939
 20
113.3577701159
  0
LINE
  5
33B
330
1F
100
AcDbEntity
  8
0
  6
SLD-Durchgehend
 62
     7
370
    15
100
AcDbLine
 10
71.5444114939
 20
113.3577701159
 30
0.0
 11
72.6296742395
 21
112.8554752551
 31
0.0
  0
ARC
  5
33C
330
1F
100
AcDbEntity
  8
0
  6
SLD-Durchgehend
 62
     7
370
    15
100
AcDbCircle
 10
86.6274078325
 20
117.9616929487
 30
0.0
 40
14.89999999999998
100
AcDbArc
 50
200.0414082842
 51
201.2230004203
  0
LINE
  5
33D
330
1F
100
AcDbEntity
  8
0
  6
SLD-Durchgehend
 62
     7
370
    15
100
AcDbLine
 10
72.737947008
 20
112.5679107838
 30
0.0
 11
72.0010901749
 21
112.065615923
 31
0.0
  0
LWPOLYLINE
  5
33E
330
1F
100
AcDbEntity
  8
0
  6
SLD-Durchgehend
 62
     7
370
    15
100
AcDbPolyline
 90
        9
 70
   128
 43
0.0
 10
72.0010901749
 20
112.065615923
 10
71.984171769
 20
112.049603694
 10
71.9728841394
 20
112.0271993324
 10
71.9697586209
 20
111.9988228649
 10
71.9745726273
 20
111.9727798261
 10
71.9853778318
 20
111.9473309711
 10
72.0107442647
 20
111.9119123079
 10
72.0573085308
 20
111.8732060761
 10
72.0866023511
 20
111.85776987
  0
LINE
  5
33F
330
1F
100
AcDbEntity
  8
0
  6
SLD-Durchgehend
 62
     7
370
    15
100
AcDbLine
 10
72.0866023511
 20
111.85776987
 30
0.0
 11
73.271963647
 21
111.3554750093
 31
0.0
  0
ARC
  5
340
330
1F
100
AcDbEntity
  8
0
  6
SLD-Durchgehend
 62
     7
370
    15
100
AcDbCircle
 10
86.6274078325
 20
117.9616929487
 30
0.0
 40
14.89999999999997
100
AcDbArc
 50
206.3191194298
 51
207.5595289824
  0
LINE
  5
341
330
1F
100
AcDbEntity
  8
0
  6
SLD-Durchgehend
 62
     7
370
    15
100
AcDbLine
 10
73.4181021288
 20
111.0679105379
 30
0.0
 11
72.6993446186
 21
110.5656161428
 31
0.0
  0
LWPOLYLINE
  5
342
330
1F
100
AcDbEntity
  8
0
  6
SLD-Durchgehend
 62
     7
370
    15
100
AcDbPolyline
 90
        9
 70
   128
 43
0.0
 10
72.6993446186
 20
110.5656161428
 10
72.6847889781
 20
110.5516728469
 10
72.6747809857
 20
110.5310873583
 10
72.6728112385
 20
110.5050443195
 10
72.6782706514
 20
110.4809798755
 10
72.6932714641
 20
110.4508250475
 10
72.724247253
 20
110.4136359401
 10
72.7817610786
 20
110.3718055867
 10
72.8117189318
 20
110.3577700898
  0
LINE
  5
343
330
1F
100
AcDbEntity
  8
0
  6
SLD-Durchgehend
 62
     7
370
    15
100
AcDbLine
 10
72.8117189318
 20
110.3577700898
 30
0.0
 11
74.1254388303
 21
109.8554752291
 31
0.0
  0
ARC
  5
344
330
1F
100
AcDbEntity
  8
0
  6
SLD-Durchgehend
 62
     7
370
    15
100
AcDbCircle
 10
86.6274078325
 20
117.9616929487
 30
0.0
 40
14.89999999999998
100
AcDbArc
 50
212.9591848067
 51
214.2871726543
  0
LINE
  5
345
330
1F
100
AcDbEntity
  8
0
  6
SLD-Durchgehend
 62
     7
370
    15
100
AcDbLine
 10
74.3166635692
 20
109.5679107577
 30
0.0
 11
73.6061668903
 21
109.0656158969
 31
0.0
  0
LWPOLYLINE
  5
346
330
1F
100
AcDbEntity
  8
0
  6
SLD-Durchgehend
 62
     7
370
    15
100
AcDbPolyline
 90
        9
 70
   128
 43
0.0
 10
73.6061668903
 20
109.0656158969
 10
73.5937328026
 20
109.0537750617
 10
73.5847380892
 20
109.0351718933
 10
73.5836037383
 20
109.0116336465
 10
73.5894328863
 20
108.9898425609
 10
73.6052849278
 20
108.9609622479
 10
73.6389568955
 20
108.9234103903
 10
73.7048358605
 20
108.8778538153
 10
73.7506271288
 20
108.857769844
  0
LINE
  5
347
330
1F
100
AcDbEntity
  8
0
  6
SLD-Durchgehend
 62
     7
370
    15
100
AcDbLine
 10
73.7506271288
 20
108.857769844
 30
0.0
 11
75.0463808835
 21
108.4200314701
 31
0.0
  0
LINE
  5
348
330
1F
100
AcDbEntity
  8
0
  6
SLD-Durchgehend
 62
     7
370
    15
100
AcDbLine
 10
75.295870094
 20
107.9344752699
 30
0.0
 11
74.7693096236
 21
107.565615651
 31
0.0
  0
LWPOLYLINE
  5
349
330
1F
100
AcDbEntity
  8
0
  6
SLD-Durchgehend
 62
     7
370
    15
100
AcDbPolyline
 90
        9
 70
   128
 43
0.0
 10
74.7693096236
 20
107.565615651
 10
74.7588126868
 20
107.5559531793
 10
74.749819836
 20
107.5363274187
 10
74.7505332291
 20
107.5149880246
 10
74.7573467851
 20
107.4958893925
 10
74.7756025702
 20
107.4679599598
 10
74.8157556117
 20
107.4292513997
 10
74.8992831394
 20
107.3789683625
 10
74.9548020721
 20
107.3577695981
  0
LINE
  5
34A
330
1F
100
AcDbEntity
  8
0
  6
SLD-Durchgehend
 62
     7
370
    15
100
AcDbLine
 10
74.9548020721
 20
107.3577695981
 30
0.0
 11
76.0879264161
 21
107.0306155354
 31
0.0
  0
LINE
  5
34B
330
1F
100
AcDbEntity
  8
0
  6
SLD-Durchgehend
 62
     7
370
    15
100
AcDbLine
 10
76.8832432986
 20
106.4725866065
 30
0.0
 11
76.2748111919
 21
106.0656163365
 31
0.0
  0
LWPOLYLINE
  5
34C
330
1F
100
AcDbEntity
  8
0
  6
SLD-Durchgehend
 62
     7
370
    15
100
AcDbPolyline
 90
        9
 70
   128
 43
0.0
 10
76.2748111919
 20
106.0656163365
 10
76.266147098
 20
106.0582607508
 10
76.2576096639
 20
106.0423966021
 10
76.257173805
 20
106.0273920641
 10
76.2621722132
 20
106.0113844917
 10
76.2765853614
 20
105.9887384519
 10
76.3103448734
 20
105.9557584569
 10
76.389847225
 20
105.9058097646
 10
76.5186025709
 20
105.8577702836
  0
LINE
  5
34D
330
1F
100
AcDbEntity
  8
0
  6
SLD-Durchgehend
 62
     7
370
    15
100
AcDbLine
 10
76.5186025709
 20
105.8577702836
 30
0.0
 11
78.6842805281
 21
105.3554754228
 31
0.0
  0
ARC
  5
34E
330
1F
100
AcDbEntity
  8
0
  6
SLD-Durchgehend
 62
     7
370
    15
100
AcDbCircle
 10
86.6274078325
 20
117.9616929487
 30
0.0
 40
14.89999999999998
100
AcDbArc
 50
237.7851348081
 51
239.923210481
  0
LINE
  5
34F
330
1F
100
AcDbEntity
  8
0
  6
SLD-Durchgehend
 62
     7
370
    15
100
AcDbLine
 10
79.1601207055
 20
105.0679109514
 30
0.0
 11
78.3064690367
 21
104.5656160906
 31
0.0
  0
LWPOLYLINE
  5
350
330
1F
100
AcDbEntity
  8
0
  6
SLD-Durchgehend
 62
     7
370
    15
100
AcDbPolyline
 90
        9
 70
   128
 43
0.0
 10
78.3064690367
 20
104.5656160906
 10
78.2996526867
 20
104.5607536555
 10
78.2908153668
 20
104.5487628773
 10
78.2891464368
 20
104.5375190199
 10
78.292273818
 20
104.5252311498
 10
78.3025360614
 20
104.5087849245
 10
78.328077583
 20
104.4842101157
 10
78.4108963743
 20
104.4346721366
 10
78.6508060008
 20
104.3577700377
  0
LWPOLYLINE
  5
351
330
1F
100
AcDbEntity
  8
0
  6
SLD-Durchgehend
 62
     7
370
    15
100
AcDbPolyline
 90
        3
 70
   128
 43
0.0
 10
78.6508060008
 20
104.3577700377
 10
80.2192957089
 20
104.080188413
 10
81.8290104106
 20
103.8554751769
  0
ARC
  5
352
330
1F
100
AcDbEntity
  8
0
  6
SLD-Durchgehend
 62
     7
370
    15
100
AcDbCircle
 10
86.6274078325
 20
117.9616929487
 30
0.0
 40
14.90000000000001
100
AcDbArc
 50
251.2136529668
 51
255.0221147726
  0
LINE
  5
353
330
1F
100
AcDbEntity
  8
0
  6
SLD-Durchgehend
 62
     7
370
    15
100
AcDbLine
 10
82.7765594185
 20
103.5679107055
 30
0.0
 11
81.4505563066
 21
103.0656158448
 31
0.0
  0
LWPOLYLINE
  5
354
330
1F
100
AcDbEntity
  8
0
  6
SLD-Durchgehend
 62
     7
370
    15
100
AcDbPolyline
 90
       10
 70
   128
 43
0.0
 10
81.4505563066
 20
103.0656158448
 10
81.4374861255
 20
103.0582490832
 10
81.4318604715
 20
103.0520939723
 10
81.4295358904
 20
103.0443481624
 10
81.4311666362
 20
103.0367820978
 10
81.4372826316
 20
103.0275498972
 10
81.4534285054
 20
103.0136219681
 10
81.5145693667
 20
102.9819271982
 10
81.7845113524
 20
102.9054097355
 10
82.0926082269
 20
102.8577697918
  0
ARC
  5
355
330
1F
100
AcDbEntity
  8
0
  6
SLD-Durchgehend
 62
     7
370
    15
100
AcDbCircle
 10
86.6274078325
 20
145.030440715
 30
0.0
 40
42.41578220734645
100
AcDbArc
 50
263.86260463
 51
276.13739537
  0
LWPOLYLINE
  5
356
330
1F
100
AcDbEntity
  8
0
  6
SLD-Durchgehend
 62
     7
370
    15
100
AcDbPolyline
 90
       11
 70
   128
 43
0.0
 10
91.1622074381
 20
102.8577697918
 10
91.3643938437
 20
102.8855902598
 10
91.636013607
 20
102.9460256443
 10
91.7508279853
 20
102.9864571512
 10
91.8037517876
 20
103.0153216318
 10
91.8174305879
 20
103.0274334818
 10
91.8233472802
 20
103.0361124769
 10
91.8252704613
 20
103.0434801698
 10
91.8238716148
 20
103.0503887207
 10
91.818141187
 20
103.0575775996
 10
91.8042593584
 20
103.0656158448
  0
LINE
  5
357
330
1F
100
AcDbEntity
  8
0
  6
SLD-Durchgehend
 62
     7
370
    15
100
AcDbLine
 10
91.8042593584
 20
103.0656158448
 30
0.0
 11
90.4782562465
 21
103.5679107055
 31
0.0
  0
ARC
  5
358
330
1F
100
AcDbEntity
  8
0
  6
SLD-Durchgehend
 62
     7
370
    15
100
AcDbCircle
 10
86.6274078325
 20
117.9616929487
 30
0.0
 40
14.9
100
AcDbArc
 50
284.9778852274
 51
288.7863470332
  0
LWPOLYLINE
  5
359
330
1F
100
AcDbEntity
  8
0
  6
SLD-Durchgehend
 62
     7
370
    15
100
AcDbPolyline
 90
        3
 70
   128
 43
0.0
 10
91.4258052543
 20
103.8554751769
 10
93.0281792715
 20
104.0790233285
 10
94.6040096641
 20
104.3577700377
  0
LWPOLYLINE
  5
35A
330
1F
100
AcDbEntity
  8
0
  6
SLD-Durchgehend
 62
     7
370
    15
100
AcDbPolyline
 90
       10
 70
   128
 43
0.0
 10
94.6040096641
 20
104.3577700377
 10
94.8116703838
 20
104.4201891393
 10
94.8832592875
 20
104.4552385331
 10
94.9359591067
 20
104.4919410244
 10
94.9513771519
 20
104.5076794446
 10
94.9625949323
 20
104.5253540844
 10
94.9656915799
 20
104.5378952742
 10
94.9637721241
 20
104.5493300528
 10
94.9555504084
 20
104.5604155854
 10
94.9483466283
 20
104.5656160906
  0
LINE
  5
35B
330
1F
100
AcDbEntity
  8
0
  6
SLD-Durchgehend
 62
     7
370
    15
100
AcDbLine
 10
94.9483466283
 20
104.5656160906
 30
0.0
 11
94.0946949594
 21
105.0679109514
 31
0.0
  0
ARC
  5
35C
330
1F
100
AcDbEntity
  8
0
  6
SLD-Durchgehend
 62
     7
370
    15
100
AcDbCircle
 10
86.6274078325
 20
117.9616929487
 30
0.0
 40
14.89999999999999
100
AcDbArc
 50
300.076789519
 51
302.2148651919
  0
LINE
  5
35D
330
1F
100
AcDbEntity
  8
0
  6
SLD-Durchgehend
 62
     7
370
    15
100
AcDbLine
 10
94.5705351368
 20
105.3554754228
 30
0.0
 11
96.736213094
 21
105.8577702836
 31
0.0
  0
LWPOLYLINE
  5
35E
330
1F
100
AcDbEntity
  8
0
  6
SLD-Durchgehend
 62
     7
370
    15
100
AcDbPolyline
 90
        8
 70
   128
 43
0.0
 10
96.736213094
 20
105.8577702836
 10
96.8913425639
 20
105.9199565545
 10
96.9674213737
 20
105.9765427828
 10
96.9872501627
 20
106.001401645
 10
96.9959952817
 20
106.020179902
 10
96.9978691027
 20
106.0387001828
 10
96.9933410123
 20
106.0519910872
 10
96.9800044731
 20
106.0656163365
  0
LINE
  5
35F
330
1F
100
AcDbEntity
  8
0
  6
SLD-Durchgehend
 62
     7
370
    15
100
AcDbLine
 10
96.9800044731
 20
106.0656163365
 30
0.0
 11
96.3903338596
 21
106.4600379661
 31
0.0
  0
LINE
  5
360
330
1F
100
AcDbEntity
  8
0
  6
SLD-Durchgehend
 62
     7
370
    15
100
AcDbLine
 10
97.1610908345
 20
107.0289410174
 30
0.0
 11
98.3000135929
 21
107.3577695981
 31
0.0
  0
LWPOLYLINE
  5
361
330
1F
100
AcDbEntity
  8
0
  6
SLD-Durchgehend
 62
     7
370
    15
100
AcDbPolyline
 90
        9
 70
   128
 43
0.0
 10
98.3000135929
 20
107.3577695981
 10
98.391502066
 20
107.3974066869
 10
98.4428123519
 20
107.4322558463
 10
98.4873603046
 20
107.4787651643
 10
98.499822332
 20
107.501099211
 10
98.5056254029
 20
107.5243496791
 10
98.5032970965
 20
107.5428774104
 10
98.4954134509
 20
107.5566647098
 10
98.4855060414
 20
107.565615651
  0
LINE
  5
362
330
1F
100
AcDbEntity
  8
0
  6
SLD-Durchgehend
 62
     7
370
    15
100
AcDbLine
 10
98.4855060414
 20
107.565615651
 30
0.0
 11
97.9483564332
 21
107.9418932543
 31
0.0
  0
LINE
  5
363
330
1F
100
AcDbEntity
  8
0
  6
SLD-Durchgehend
 62
     7
370
    15
100
AcDbLine
 10
98.2258970797
 20
108.4259304673
 30
0.0
 11
99.5041885361
 21
108.857769844
 31
0.0
  0
LWPOLYLINE
  5
364
330
1F
100
AcDbEntity
  8
0
  6
SLD-Durchgehend
 62
     7
370
    15
100
AcDbPolyline
 90
        9
 70
   128
 43
0.0
 10
99.5041885361
 20
108.857769844
 10
99.5903172478
 20
108.902812329
 10
99.6290211514
 20
108.9361713723
 10
99.6560574457
 20
108.971053128
 10
99.6677893162
 20
108.9965769545
 10
99.6717949346
 20
109.0226307035
 10
99.6678051487
 20
109.0420748562
 10
99.655142887
 20
109.0603278473
 10
99.6486487746
 20
109.0656158969
  0
LINE
  5
365
330
1F
100
AcDbEntity
  8
0
  6
SLD-Durchgehend
 62
     7
370
    15
100
AcDbLine
 10
99.6486487746
 20
109.0656158969
 30
0.0
 11
98.9381520957
 21
109.5679107577
 31
0.0
  0
ARC
  5
366
330
1F
100
AcDbEntity
  8
0
  6
SLD-Durchgehend
 62
     7
370
    15
100
AcDbCircle
 10
86.6274078325
 20
117.9616929487
 30
0.0
 40
14.89999999999999
100
AcDbArc
 50
325.7128273457
 51
327.0408151933
  0
LINE
  5
367
330
1F
100
AcDbEntity
  8
0
  6
SLD-Durchgehend
 62
     7
370
    15
100
AcDbLine
 10
99.1293768347
 20
109.8554752291
 30
0.0
 11
100.4430967331
 21
110.3577700898
 31
0.0
  0
LWPOLYLINE
  5
368
330
1F
100
AcDbEntity
  8
0
  6
SLD-Durchgehend
 62
     7
370
    15
100
AcDbPolyline
 90
        9
 70
   128
 43
0.0
 10
100.4430967331
 20
110.3577700898
 10
100.5122427777
 20
110.397662361
 10
100.5476265162
 20
110.4319136113
 10
100.5697808176
 20
110.4651925609
 10
100.5798484147
 20
110.4921757698
 10
100.5821050093
 20
110.5192726001
 10
100.5769436196
 20
110.5398594857
 10
100.562422438
 20
110.5600449711
 10
100.5554710463
 20
110.5656161428
  0
LINE
  5
369
330
1F
100
AcDbEntity
  8
0
  6
SLD-Durchgehend
 62
     7
370
    15
100
AcDbLine
 10
100.5554710463
 20
110.5656161428
 30
0.0
 11
99.8367135361
 21
111.0679105379
 31
0.0
  0
ARC
  5
36A
330
1F
100
AcDbEntity
  8
0
  6
SLD-Durchgehend
 62
     7
370
    15
100
AcDbCircle
 10
86.6274078325
 20
117.9616929487
 30
0.0
 40
14.89999999999999
100
AcDbArc
 50
332.4404710176
 51
333.6808805702
  0
LINE
  5
36B
330
1F
100
AcDbEntity
  8
0
  6
SLD-Durchgehend
 62
     7
370
    15
100
AcDbLine
 10
99.9828520179
 20
111.3554750093
 30
0.0
 11
101.1682133138
 21
111.85776987
 31
0.0
  0
LWPOLYLINE
  5
36C
330
1F
100
AcDbEntity
  8
0
  6
SLD-Durchgehend
 62
     7
370
    15
100
AcDbPolyline
 90
        9
 70
   128
 43
0.0
 10
101.1682133138
 20
111.85776987
 10
101.2252791733
 20
111.8936332397
 10
101.2567429751
 20
111.9273834385
 10
101.2754821167
 20
111.9598288544
 10
101.2837997586
 20
111.9876628265
 10
101.2844647229
 20
112.0152974956
 10
101.2782155484
 20
112.0370140754
 10
101.2619760767
 20
112.059096665
 10
101.25372549
 20
112.065615923
  0
LINE
  5
36D
330
1F
100
AcDbEntity
  8
0
  6
SLD-Durchgehend
 62
     7
370
    15
100
AcDbLine
 10
101.25372549
 20
112.065615923
 30
0.0
 11
100.5168686569
 21
112.5679107838
 31
0.0
  0
ARC
  5
36E
330
1F
100
AcDbEntity
  8
0
  6
SLD-Durchgehend
 62
     7
370
    15
100
AcDbCircle
 10
86.6274078325
 20
117.9616929487
 30
0.0
 40
14.89999999999999
100
AcDbArc
 50
338.7769995797
 51
339.9585917158
  0
LINE
  5
36F
330
1F
100
AcDbEntity
  8
0
  6
SLD-Durchgehend
 62
     7
370
    15
100
AcDbLine
 10
100.6251414255
 20
112.8554752551
 30
0.0
 11
101.7104041711
 21
113.3577701159
 31
0.0
  0
LWPOLYLINE
  5
370
330
1F
100
AcDbEntity
  8
0
  6
SLD-Durchgehend
 62
     7
370
    15
100
AcDbPolyline
 90
        9
 70
   128
 43
0.0
 10
101.7104041711
 20
113.3577701159
 10
101.758362627
 20
113.390283984
 10
101.7860871688
 20
113.4229636275
 10
101.8020360679
 20
113.454689131
 10
101.8086456642
 20
113.4830455751
 10
101.8078205124
 20
113.5109796644
 10
101.8004621327
 20
113.533750967
 10
101.7824531481
 20
113.5577199504
 10
101.7722886935
 20
113.5656161689
  0
LINE
  5
371
330
1F
100
AcDbEntity
  8
0
  6
SLD-Durchgehend
 62
     7
370
    15
100
AcDbLine
 10
101.7722886935
 20
113.5656161689
 30
0.0
 11
101.0096351564
 21
114.0679107968
 31
0.0
  0
ARC
  5
372
330
1F
100
AcDbEntity
  8
0
  6
SLD-Durchgehend
 62
     7
370
    15
100
AcDbCircle
 10
86.6274078325
 20
117.9616929487
 30
0.0
 40
14.89999999999998
100
AcDbArc
 50
344.8511442898
 51
345.9937321606
  0
LINE
  5
373
330
1F
100
AcDbEntity
  8
0
  6
SLD-Durchgehend
 62
     7
370
    15
100
AcDbLine
 10
101.0844194278
 20
114.3554752682
 30
0.0
 11
102.0889262617
 21
114.8577698961
 31
0.0
  0
LWPOLYLINE
  5
374
330
1F
100
AcDbEntity
  8
0
  6
SLD-Durchgehend
 62
     7
370
    15
100
AcDbPolyline
 90
        9
 70
   128
 43
0.0
 10
102.0889262617
 20
114.8577698961
 10
102.1232464299
 20
114.8812592484
 10
102.1506003052
 20
114.913091854
 10
102.1659037978
 20
114.9443693914
 10
102.172204195
 20
114.9733393442
 10
102.1711080283
 20
115.0023349084
 10
102.1635177493
 20
115.0266030792
 10
102.1453010798
 20
115.0527164329
 10
102.1292022377
 20
115.0656159491
  0
LINE
  5
375
330
1F
100
AcDbEntity
  8
0
  6
SLD-Durchgehend
 62
     7
370
    15
100
AcDbLine
 10
102.1292022377
 20
115.0656159491
 30
0.0
 11
101.3338620722
 21
115.5679108098
 31
0.0
  0
ARC
  5
376
330
1F
100
AcDbEntity
  8
0
  6
SLD-Durchgehend
 62
     7
370
    15
100
AcDbCircle
 10
86.6274078325
 20
117.9616929487
 30
0.0
 40
14.89999999999999
100
AcDbArc
 50
350.7549946975
 51
351.8736282992
  0
LINE
  5
377
330
1F
100
AcDbEntity
  8
0
  6
SLD-Durchgehend
 62
     7
370
    15
100
AcDbLine
 10
101.3777925581
 20
115.8554752812
 30
0.0
 11
102.3156297341
 21
116.3577699092
 31
0.0
  0
ARC
  5
378
330
1F
100
AcDbEntity
  8
0
  6
SLD-Durchgehend
 62
     7
370
    15
100
AcDbCircle
 10
102.2669205477
 20
116.4672964542
 30
0.0
 40
0.1198692993128902
100
AcDbArc
 50
293.9759079556
 51
55.1070826717
  0
LINE
  5
379
330
1F
100
AcDbEntity
  8
0
  6
SLD-Durchgehend
 62
     7
370
    15
100
AcDbLine
 10
102.3354911193
 20
116.5656159621
 30
0.0
 11
101.500577195
 21
117.0679107065
 31
0.0
  0
ARC
  5
37A
330
1F
100
AcDbEntity
  8
0
  6
SLD-Durchgehend
 62
     7
370
    15
100
AcDbCircle
 10
86.6274078325
 20
117.9616929487
 30
0.0
 40
14.89999999999999
100
AcDbArc
 50
356.5610261951
 51
357.6682342154
  0
LINE
  5
37B
330
1F
100
AcDbEntity
  8
0
  6
SLD-Durchgehend
 62
     7
370
    15
100
AcDbLine
 10
101.5150704369
 20
117.3554751778
 30
0.0
 11
102.39706458
 21
117.8577699004
 31
0.0
  0
ARC
  5
37C
330
1F
100
AcDbEntity
  8
0
  6
SLD-Durchgehend
 62
     7
370
    15
100
AcDbCircle
 10
102.3376590779
 20
117.9616929487
 30
0.0
 40
0.1197038581464632
100
AcDbArc
 50
299.7535682453
 51
60.2464317547
  0
LINE
  5
37D
330
1F
100
AcDbEntity
  8
0
  6
SLD-Durchgehend
 62
     7
370
    15
100
AcDbLine
 10
102.39706458
 20
118.065615997
 30
0.0
 11
101.5150704369
 21
118.5679107195
 31
0.0
  0
ARC
  5
37E
330
1F
100
AcDbEntity
  8
0
  6
SLD-Durchgehend
 62
     7
370
    15
100
AcDbCircle
 10
86.6274078325
 20
117.9616929487
 30
0.0
 40
14.9
100
AcDbArc
 50
2.3317657846
 51
3.4389738049
  0
LINE
  5
37F
330
1F
100
AcDbEntity
  8
0
  6
SLD-Durchgehend
 62
     7
370
    15
100
AcDbLine
 10
90.7195675135
 20
127.8554753855
 30
0.0
 11
82.5352481514
 21
127.8554753855
 31
0.0
  0
LINE
  5
380
330
1F
100
AcDbEntity
  8
0
  6
SLD-Durchgehend
 62
     7
370
    15
100
AcDbLine
 10
90.7195675135
 20
108.0679105118
 30
0.0
 11
82.5352481514
 21
108.0679105118
 31
0.0
  0
LINE
  5
381
330
1F
100
AcDbEntity
  8
0
  6
SLD-Durchgehend
 62
     7
370
    15
100
AcDbLine
 10
91.2273362227
 20
122.9402849906
 30
0.0
 11
90.6747271255
 21
122.5656157814
 31
0.0
  0
LINE
  5
382
330
1F
100
AcDbEntity
  8
0
  6
SLD-Durchgehend
 62
     7
370
    15
100
AcDbLine
 10
100.6251414255
 20
123.0679106422
 30
0.0
 11
97.7106009558
 21
123.0679106422
 31
0.0
  0
LINE
  5
383
330
1F
100
AcDbEntity
  8
0
  6
SLD-Durchgehend
 62
     7
370
    15
100
AcDbLine
 10
100.6251414255
 20
112.8554752551
 30
0.0
 11
97.7106009558
 21
112.8554752551
 31
0.0
  0
LINE
  5
384
330
1F
100
AcDbEntity
  8
0
  6
SLD-Durchgehend
 62
     7
370
    15
100
AcDbLine
 10
90.6747271255
 20
113.3577701159
 30
0.0
 11
91.2376585365
 21
112.9761024833
 31
0.0
  0
LINE
  5
385
330
1F
100
AcDbEntity
  8
0
  6
SLD-Durchgehend
 62
     7
370
    15
100
AcDbLine
 10
75.5442147091
 20
123.0679106422
 30
0.0
 11
72.6296742395
 21
123.0679106422
 31
0.0
  0
LINE
  5
386
330
1F
100
AcDbEntity
  8
0
  6
SLD-Durchgehend
 62
     7
370
    15
100
AcDbLine
 10
82.5800885394
 20
122.5656157814
 30
0.0
 11
81.9902963884
 21
122.965495427
 31
0.0
  0
LINE
  5
387
330
1F
100
AcDbEntity
  8
0
  6
SLD-Durchgehend
 62
     7
370
    15
100
AcDbLine
 10
82.0378324896
 20
112.9901198194
 30
0.0
 11
82.5800885394
 21
113.3577701159
 31
0.0
  0
LINE
  5
388
330
1F
100
AcDbEntity
  8
0
  6
SLD-Durchgehend
 62
     7
370
    15
100
AcDbLine
 10
75.5442147091
 20
112.8554752551
 30
0.0
 11
72.6296742395
 21
112.8554752551
 31
0.0
  0
CIRCLE
  5
389
330
1F
100
AcDbEntity
  8
0
  6
SLD-Durchgehend
 62
     7
370
    15
100
AcDbCircle
 10
86.6274078325
 20
117.9616929487
 30
0.0
 40
6.0
  0
LINE
  5
38A
330
1F
100
AcDbEntity
  8
0
  6
SLD-Durchgehend
 62
     7
370
    15
100
AcDbLine
 10
79.6847025812
 20
118.8554751909
 30
0.0
 11
80.6584995188
 21
119.3577699352
 31
0.0
  0
LWPOLYLINE
  5
38B
330
1F
100
AcDbEntity
  8
0
  6
SLD-Durchgehend
 62
     7
370
    15
100
AcDbPolyline
 90
        9
 70
   128
 43
0.0
 10
80.6584995188
 20
119.3577699352
 10
80.6933174789
 20
119.3807536958
 10
80.7235803403
 20
119.4140759519
 10
80.7407502033
 20
119.4463309123
 10
80.7484117285
 20
119.4757306705
 10
80.7484727301
 20
119.505324493
 10
80.7417024806
 20
119.5293727553
 10
80.724937743
 20
119.5541625832
 10
80.7109618508
 20
119.5656159882
  0
LINE
  5
38C
330
1F
100
AcDbEntity
  8
0
  6
SLD-Durchgehend
 62
     7
370
    15
100
AcDbLine
 10
80.7109618508
 20
119.5656159882
 30
0.0
 11
79.9517919257
 21
120.0679106161
 31
0.0
  0
ARC
  5
38D
330
1F
100
AcDbEntity
  8
0
  6
SLD-Durchgehend
 62
     7
370
    15
100
AcDbCircle
 10
86.6274078325
 20
117.9616929487
 30
0.0
 40
7.000000000000006
100
AcDbArc
 50
160.0031251428
 51
162.4890384396
  0
LINE
  5
38E
330
1F
100
AcDbEntity
  8
0
  6
SLD-Durchgehend
 62
     7
370
    15
100
AcDbLine
 10
80.0494289905
 20
120.3554750875
 30
0.0
 11
81.2246640161
 21
120.8577699483
 31
0.0
  0
LWPOLYLINE
  5
38F
330
1F
100
AcDbEntity
  8
0
  6
SLD-Durchgehend
 62
     7
370
    15
100
AcDbPolyline
 90
        9
 70
   128
 43
0.0
 10
81.2246640161
 20
120.8577699483
 10
81.293204701
 20
120.8973916702
 10
81.3305363007
 20
120.9331854236
 10
81.3533504442
 20
120.9667763662
 10
81.3639302686
 20
120.9938613221
 10
81.3665901259
 20
121.0210789915
 10
81.361588458
 20
121.041364827
 10
81.3473666966
 20
121.0608208541
 10
81.3413354516
 20
121.0656160012
  0
LINE
  5
390
330
1F
100
AcDbEntity
  8
0
  6
SLD-Durchgehend
 62
     7
370
    15
100
AcDbLine
 10
81.3413354516
 20
121.0656160012
 30
0.0
 11
80.627808249
 21
121.5679106292
 31
0.0
  0
ARC
  5
391
330
1F
100
AcDbEntity
  8
0
  6
SLD-Durchgehend
 62
     7
370
    15
100
AcDbCircle
 10
86.6274078325
 20
117.9616929487
 30
0.0
 40
6.999999999999999
100
AcDbArc
 50
146.2028277715
 51
148.9909159789
  0
LINE
  5
392
330
1F
100
AcDbEntity
  8
0
  6
SLD-Durchgehend
 62
     7
370
    15
100
AcDbLine
 10
80.8103241906
 20
121.8554751005
 30
0.0
 11
82.3552411929
 21
122.3577697285
 31
0.0
  0
LWPOLYLINE
  5
393
330
1F
100
AcDbEntity
  8
0
  6
SLD-Durchgehend
 62
     7
370
    15
100
AcDbPolyline
 90
        9
 70
   128
 43
0.0
 10
82.3552411929
 20
122.3577697285
 10
82.4848771043
 20
122.412694943
 10
82.5482689724
 20
122.4568792142
 10
82.5746430963
 20
122.4831359916
 10
82.5913300686
 20
122.5077499159
 10
82.5975401275
 20
122.5255530782
 10
82.5973175414
 20
122.5423620537
 10
82.5915149361
 20
122.5548757695
 10
82.5800885394
 20
122.5656157814
  0
LWPOLYLINE
  5
394
330
1F
100
AcDbEntity
  8
0
  6
SLD-Durchgehend
 62
     7
370
    15
100
AcDbPolyline
 90
        3
 70
   128
 43
0.0
 10
82.3966035567
 20
123.4062768974
 10
83.5120351002
 20
123.6516543188
 10
84.950155131
 20
123.8577699744
  0
LWPOLYLINE
  5
395
330
1F
100
AcDbEntity
  8
0
  6
SLD-Durchgehend
 62
     7
370
    15
100
AcDbPolyline
 90
       16
 70
   128
 43
0.0
 10
84.950155131
 20
123.8577699744
 10
85.152138974
 20
123.8814288274
 10
86.0329152964
 20
124.0151220456
 10
86.0705084814
 20
124.0230150044
 10
86.0925960768
 20
124.0284450807
 10
86.1067393743
 20
124.0325862065
 10
86.1160005624
 20
124.0358910047
 10
86.1242722784
 20
124.0398267739
 10
86.1274667149
 20
124.0420745209
 10
86.129430816
 20
124.0443404287
 10
86.1300133
 20
124.0460712917
 10
86.1297389091
 20
124.047812865
 10
86.128390354
 20
124.0497132287
 10
86.1246659368
 20
124.0522985801
 10
86.1093059829
 20
124.0576252796
 10
86.0625862441
 20
124.0656160273
  0
ARC
  5
396
330
1F
100
AcDbEntity
  8
0
  6
SLD-Durchgehend
 62
     7
370
    15
100
AcDbCircle
 10
87.0676157253
 20
130.8661971713
 30
0.0
 40
6.874444570629054
100
AcDbArc
 50
246.375061473
 51
261.5933459011
  0
ARC
  5
397
330
1F
100
AcDbEntity
  8
0
  6
SLD-Durchgehend
 62
     7
370
    15
100
AcDbCircle
 10
86.6274078325
 20
117.9616929487
 30
0.0
 40
7.000000000000004
100
AcDbArc
 50
99.9939673009
 51
109.3096281731
  0
LWPOLYLINE
  5
398
330
1F
100
AcDbEntity
  8
0
  6
SLD-Durchgehend
 62
     7
370
    15
100
AcDbPolyline
 90
        3
 70
   128
 43
0.0
 10
85.4125964869
 20
124.8554753594
 10
86.617474837
 20
124.894351092
 10
87.842219178
 20
124.8554753594
  0
ARC
  5
399
330
1F
100
AcDbEntity
  8
0
  6
SLD-Durchgehend
 62
     7
370
    15
100
AcDbCircle
 10
86.6274078325
 20
117.9616929487
 30
0.0
 40
7.000000000000006
100
AcDbArc
 50
70.6903718269
 51
80.0060326991
  0
ARC
  5
39A
330
1F
100
AcDbEntity
  8
0
  6
SLD-Durchgehend
 62
     7
370
    15
100
AcDbCircle
 10
86.2460664549
 20
130.6611186422
 30
0.0
 40
6.663023270326944
100
AcDbArc
 50
278.1637128744
 51
293.8678797515
  0
LWPOLYLINE
  5
39B
330
1F
100
AcDbEntity
  8
0
  6
SLD-Durchgehend
 62
     7
370
    15
100
AcDbPolyline
 90
       16
 70
   128
 43
0.0
 10
87.1922294208
 20
124.0656160273
 10
87.1844176035
 20
124.0645994887
 10
87.1622405429
 20
124.0611591831
 10
87.1480832756
 20
124.0582553193
 10
87.1388206905
 20
124.0557444737
 10
87.1305408254
 20
124.0525025398
 10
87.1273539559
 20
124.0505258076
 10
87.1253864788
 20
124.0484219499
 10
87.1248027141
 20
124.04673905
 10
87.1250750678
 20
124.0449760564
 10
87.1264221677
 20
124.0429634683
 10
87.1301484475
 20
124.0400651925
 10
87.1455373889
 20
124.0334267252
 10
87.2251153522
 20
124.0144938685
 10
87.5487910415
 20
123.9613563277
 10
88.3046605339
 20
123.8577699744
  0
LWPOLYLINE
  5
39C
330
1F
100
AcDbEntity
  8
0
  6
SLD-Durchgehend
 62
     7
370
    15
100
AcDbPolyline
 90
        3
 70
   128
 43
0.0
 10
88.3046605339
 20
123.8577699744
 10
89.7171109863
 20
123.6563607574
 10
90.9275933117
 20
123.3909035556
  0
LWPOLYLINE
  5
39D
330
1F
100
AcDbEntity
  8
0
  6
SLD-Durchgehend
 62
     7
370
    15
100
AcDbPolyline
 90
        9
 70
   128
 43
0.0
 10
90.6747271255
 20
122.5656157814
 10
90.6659754873
 20
122.5581521623
 10
90.6574385189
 20
122.5421068713
 10
90.6570538826
 20
122.5268634491
 10
90.6621207431
 20
122.5106067479
 10
90.6768272579
 20
122.4872286886
 10
90.7111870073
 20
122.4529634685
 10
90.7896150783
 20
122.4018669211
 10
90.899574472
 20
122.3577697285
  0
LINE
  5
39E
330
1F
100
AcDbEntity
  8
0
  6
SLD-Durchgehend
 62
     7
370
    15
100
AcDbLine
 10
90.899574472
 20
122.3577697285
 30
0.0
 11
92.4444914744
 21
121.8554751005
 31
0.0
  0
ARC
  5
39F
330
1F
100
AcDbEntity
  8
0
  6
SLD-Durchgehend
 62
     7
370
    15
100
AcDbCircle
 10
86.6274078325
 20
117.9616929487
 30
0.0
 40
7.000000000000012
100
AcDbArc
 50
31.0090840211
 51
33.7971722285
  0
LINE
  5
3A0
330
1F
100
AcDbEntity
  8
0
  6
SLD-Durchgehend
 62
     7
370
    15
100
AcDbLine
 10
92.6270074159
 20
121.5679106292
 30
0.0
 11
91.9134802133
 21
121.0656160012
 31
0.0
  0
LWPOLYLINE
  5
3A1
330
1F
100
AcDbEntity
  8
0
  6
SLD-Durchgehend
 62
     7
370
    15
100
AcDbPolyline
 90
        9
 70
   128
 43
0.0
 10
91.9134802133
 20
121.0656160012
 10
91.8997315638
 20
121.0524266109
 10
91.8901175209
 20
121.0324634787
 10
91.8884588354
 20
121.0072216101
 10
91.8940160372
 20
120.9836791724
 10
91.9092892617
 20
120.9533709091
 10
91.9407586515
 20
120.9155519948
 10
91.9984359242
 20
120.8729116235
 10
92.0301516488
 20
120.8577699483
  0
LINE
  5
3A2
330
1F
100
AcDbEntity
  8
0
  6
SLD-Durchgehend
 62
     7
370
    15
100
AcDbLine
 10
92.0301516488
 20
120.8577699483
 30
0.0
 11
93.2053866744
 21
120.3554750875
 31
0.0
  0
ARC
  5
3A3
330
1F
100
AcDbEntity
  8
0
  6
SLD-Durchgehend
 62
     7
370
    15
100
AcDbCircle
 10
86.6274078325
 20
117.9616929487
 30
0.0
 40
7.000000000000019
100
AcDbArc
 50
17.5109615604
 51
19.9968748572
  0
LINE
  5
3A4
330
1F
100
AcDbEntity
  8
0
  6
SLD-Durchgehend
 62
     7
370
    15
100
AcDbLine
 10
93.3030237392
 20
120.0679106161
 30
0.0
 11
92.5438538142
 21
119.5656159882
 31
0.0
  0
LWPOLYLINE
  5
3A5
330
1F
100
AcDbEntity
  8
0
  6
SLD-Durchgehend
 62
     7
370
    15
100
AcDbPolyline
 90
        9
 70
   128
 43
0.0
 10
92.5438538142
 20
119.5656159882
 10
92.5236413203
 20
119.5470399445
 10
92.5103834778
 20
119.5223667648
 10
92.5053538703
 20
119.4910676906
 10
92.5089436531
 20
119.4625159016
 10
92.5186345302
 20
119.435743288
 10
92.5407916255
 20
119.401554087
 10
92.5801153243
 20
119.3669666292
 10
92.5963161461
 20
119.3577699352
  0
LINE
  5
3A6
330
1F
100
AcDbEntity
  8
0
  6
SLD-Durchgehend
 62
     7
370
    15
100
AcDbLine
 10
92.5963161461
 20
119.3577699352
 30
0.0
 11
93.5701130837
 21
118.8554751909
 31
0.0
  0
ARC
  5
3A7
330
1F
100
AcDbEntity
  8
0
  6
SLD-Durchgehend
 62
     7
370
    15
100
AcDbCircle
 10
86.6274078325
 20
117.9616929487
 30
0.0
 40
7.000000000000014
100
AcDbArc
 50
4.9681835361
 51
7.3357322291
  0
LINE
  5
3A8
330
1F
100
AcDbEntity
  8
0
  6
SLD-Durchgehend
 62
     7
370
    15
100
AcDbLine
 10
93.6011084303
 20
118.5679107195
 30
0.0
 11
92.756526912
 21
118.065615997
 31
0.0
  0
ARC
  5
3A9
330
1F
100
AcDbEntity
  8
0
  6
SLD-Durchgehend
 62
     7
370
    15
100
AcDbCircle
 10
92.8180665979
 20
117.9616929487
 30
0.0
 40
0.1207772036096537
100
AcDbArc
 50
120.6325710055
 51
239.3674289945
  0
LINE
  5
3AA
330
1F
100
AcDbEntity
  8
0
  6
SLD-Durchgehend
 62
     7
370
    15
100
AcDbLine
 10
92.756526912
 20
117.8577699004
 30
0.0
 11
93.6011084303
 21
117.3554751778
 31
0.0
  0
ARC
  5
3AB
330
1F
100
AcDbEntity
  8
0
  6
SLD-Durchgehend
 62
     7
370
    15
100
AcDbCircle
 10
86.6274078325
 20
117.9616929487
 30
0.0
 40
7.000000000000016
100
AcDbArc
 50
352.6642677709
 51
355.0318164639
  0
LINE
  5
3AC
330
1F
100
AcDbEntity
  8
0
  6
SLD-Durchgehend
 62
     7
370
    15
100
AcDbLine
 10
93.5701130837
 20
117.0679107065
 30
0.0
 11
92.5963161461
 21
116.5656159621
 31
0.0
  0
LWPOLYLINE
  5
3AD
330
1F
100
AcDbEntity
  8
0
  6
SLD-Durchgehend
 62
     7
370
    15
100
AcDbPolyline
 90
        9
 70
   128
 43
0.0
 10
92.5963161461
 20
116.5656159621
 10
92.561498186
 20
116.5426322015
 10
92.5312353246
 20
116.5093099455
 10
92.5140654616
 20
116.4770549851
 10
92.5064039365
 20
116.4476552269
 10
92.5063429348
 20
116.4180614043
 10
92.5131131843
 20
116.3940131421
 10
92.529877922
 20
116.3692233142
 10
92.5438538142
 20
116.3577699092
  0
LINE
  5
3AE
330
1F
100
AcDbEntity
  8
0
  6
SLD-Durchgehend
 62
     7
370
    15
100
AcDbLine
 10
92.5438538142
 20
116.3577699092
 30
0.0
 11
93.3030237392
 21
115.8554752812
 31
0.0
  0
ARC
  5
3AF
330
1F
100
AcDbEntity
  8
0
  6
SLD-Durchgehend
 62
     7
370
    15
100
AcDbCircle
 10
86.6274078325
 20
117.9616929487
 30
0.0
 40
7.000000000000009
100
AcDbArc
 50
340.0031251428
 51
342.4890384396
  0
LINE
  5
3B0
330
1F
100
AcDbEntity
  8
0
  6
SLD-Durchgehend
 62
     7
370
    15
100
AcDbLine
 10
93.2053866744
 20
115.5679108098
 30
0.0
 11
92.0301516488
 21
115.0656159491
 31
0.0
  0
LWPOLYLINE
  5
3B1
330
1F
100
AcDbEntity
  8
0
  6
SLD-Durchgehend
 62
     7
370
    15
100
AcDbPolyline
 90
        9
 70
   128
 43
0.0
 10
92.0301516488
 20
115.0656159491
 10
91.961610964
 20
115.0259942271
 10
91.9242793642
 20
114.9902004738
 10
91.9014652208
 20
114.9566095312
 10
91.8908853963
 20
114.9295245752
 10
91.888225539
 20
114.9023069058
 10
91.8932272069
 20
114.8820210703
 10
91.9074489683
 20
114.8625650432
 10
91.9134802133
 20
114.8577698961
  0
LINE
  5
3B2
330
1F
100
AcDbEntity
  8
0
  6
SLD-Durchgehend
 62
     7
370
    15
100
AcDbLine
 10
91.9134802133
 20
114.8577698961
 30
0.0
 11
92.6270074159
 21
114.3554752682
 31
0.0
  0
ARC
  5
3B3
330
1F
100
AcDbEntity
  8
0
  6
SLD-Durchgehend
 62
     7
370
    15
100
AcDbCircle
 10
86.6274078325
 20
117.9616929487
 30
0.0
 40
7.000000000000012
100
AcDbArc
 50
326.2028277715
 51
328.9909159789
  0
LINE
  5
3B4
330
1F
100
AcDbEntity
  8
0
  6
SLD-Durchgehend
 62
     7
370
    15
100
AcDbLine
 10
92.4444914744
 20
114.0679107968
 30
0.0
 11
90.899574472
 21
113.5656161689
 31
0.0
  0
LWPOLYLINE
  5
3B5
330
1F
100
AcDbEntity
  8
0
  6
SLD-Durchgehend
 62
     7
370
    15
100
AcDbPolyline
 90
        9
 70
   128
 43
0.0
 10
90.899574472
 20
113.5656161689
 10
90.7699385606
 20
113.5106909544
 10
90.7065466926
 20
113.4665066831
 10
90.6801725686
 20
113.4402499058
 10
90.6634855963
 20
113.4156359814
 10
90.6572755374
 20
113.3978328191
 10
90.6574981235
 20
113.3810238436
 10
90.6633007288
 20
113.3685101278
 10
90.6747271255
 20
113.3577701159
  0
LWPOLYLINE
  5
3B6
330
1F
100
AcDbEntity
  8
0
  6
SLD-Durchgehend
 62
     7
370
    15
100
AcDbPolyline
 90
        3
 70
   128
 43
0.0
 10
90.9395393864
 20
112.5349997066
 10
89.7427805647
 20
112.2717315786
 10
88.3046605339
 20
112.065615923
  0
LWPOLYLINE
  5
3B7
330
1F
100
AcDbEntity
  8
0
  6
SLD-Durchgehend
 62
     7
370
    15
100
AcDbPolyline
 90
       16
 70
   128
 43
0.0
 10
88.3046605339
 20
112.065615923
 10
88.1026766909
 20
112.04195707
 10
87.2219003685
 20
111.9082638517
 10
87.1843071835
 20
111.9003708929
 10
87.1622195881
 20
111.8949408166
 10
87.1480762907
 20
111.8907996908
 10
87.1388151026
 20
111.8874948927
 10
87.1305433865
 20
111.8835591235
 10
87.1273489501
 20
111.8813113764
 10
87.125384849
 20
111.8790454686
 10
87.1248023649
 20
111.8773146056
 10
87.1250767558
 20
111.8755730324
 10
87.1264253109
 20
111.8736726687
 10
87.1301497281
 20
111.8710873172
 10
87.1455096821
 20
111.8657606177
 10
87.1922294208
 20
111.85776987
  0
ARC
  5
3B8
330
1F
100
AcDbEntity
  8
0
  6
SLD-Durchgehend
 62
     7
370
    15
100
AcDbCircle
 10
86.1871999396
 20
105.057188726
 30
0.0
 40
6.874444570629076
100
AcDbArc
 50
66.375061473
 51
81.5933459011
  0
ARC
  5
3B9
330
1F
100
AcDbEntity
  8
0
  6
SLD-Durchgehend
 62
     7
370
    15
100
AcDbCircle
 10
86.6274078325
 20
117.9616929487
 30
0.0
 40
7.000000000005918
100
AcDbArc
 50
279.9939673009
 51
289.3096281732
  0
LWPOLYLINE
  5
3BA
330
1F
100
AcDbEntity
  8
0
  6
SLD-Durchgehend
 62
     7
370
    15
100
AcDbPolyline
 90
        3
 70
   128
 43
0.0
 10
87.842219178
 20
111.0679105379
 10
86.6373408279
 20
111.0290348053
 10
85.4125964869
 20
111.0679105379
  0
ARC
  5
3BB
330
1F
100
AcDbEntity
  8
0
  6
SLD-Durchgehend
 62
     7
370
    15
100
AcDbCircle
 10
86.6274078325
 20
117.9616929487
 30
0.0
 40
6.999999999999984
100
AcDbArc
 50
250.6903718269
 51
260.0060326991
  0
ARC
  5
3BC
330
1F
100
AcDbEntity
  8
0
  6
SLD-Durchgehend
 62
     7
370
    15
100
AcDbCircle
 10
87.00874921
 20
105.2622672552
 30
0.0
 40
6.663023270326915
100
AcDbArc
 50
98.1637128744
 51
113.8678797515
  0
LWPOLYLINE
  5
3BD
330
1F
100
AcDbEntity
  8
0
  6
SLD-Durchgehend
 62
     7
370
    15
100
AcDbPolyline
 90
       16
 70
   128
 43
0.0
 10
86.0625862441
 20
111.85776987
 10
86.0703980615
 20
111.8587864086
 10
86.0925751221
 20
111.8622267142
 10
86.1067323894
 20
111.865130578
 10
86.1159949744
 20
111.8676414237
 10
86.1242748396
 20
111.8708833576
 10
86.127461709
 20
111.8728600897
 10
86.1294291862
 20
111.8749639474
 10
86.1300129508
 20
111.8766468473
 10
86.1297405971
 20
111.8784098409
 10
86.1283934972
 20
111.880422429
 10
86.1246672174
 20
111.8833207049
 10
86.109278276
 20
111.8899591722
 10
86.0297003127
 20
111.9088920288
 10
85.7060246234
 20
111.9620295696
 10
84.950155131
 20
112.065615923
  0
LWPOLYLINE
  5
3BE
330
1F
100
AcDbEntity
  8
0
  6
SLD-Durchgehend
 62
     7
370
    15
100
AcDbPolyline
 90
        3
 70
   128
 43
0.0
 10
84.950155131
 20
112.065615923
 10
83.5377046786
 20
112.26702514
 10
82.3216549069
 20
112.5337033056
  0
LWPOLYLINE
  5
3BF
330
1F
100
AcDbEntity
  8
0
  6
SLD-Durchgehend
 62
     7
370
    15
100
AcDbPolyline
 90
        9
 70
   128
 43
0.0
 10
82.5800885394
 20
113.3577701159
 10
82.5888401777
 20
113.365233735
 10
82.5973771461
 20
113.381279026
 10
82.5977617823
 20
113.3965224482
 10
82.5926949218
 20
113.4127791494
 10
82.577988407
 20
113.4361572087
 10
82.5436286576
 20
113.4704224289
 10
82.4652005866
 20
113.5215189763
 10
82.3552411929
 20
113.5656161689
  0
LINE
  5
3C0
330
1F
100
AcDbEntity
  8
0
  6
SLD-Durchgehend
 62
     7
370
    15
100
AcDbLine
 10
82.3552411929
 20
113.5656161689
 30
0.0
 11
80.8103241906
 21
114.0679107968
 31
0.0
  0
ARC
  5
3C1
330
1F
100
AcDbEntity
  8
0
  6
SLD-Durchgehend
 62
     7
370
    15
100
AcDbCircle
 10
86.6274078325
 20
117.9616929487
 30
0.0
 40
7.000000000000004
100
AcDbArc
 50
211.0090840211
 51
213.7971722285
  0
LINE
  5
3C2
330
1F
100
AcDbEntity
  8
0
  6
SLD-Durchgehend
 62
     7
370
    15
100
AcDbLine
 10
80.627808249
 20
114.3554752682
 30
0.0
 11
81.3413354516
 21
114.8577698961
 31
0.0
  0
LWPOLYLINE
  5
3C3
330
1F
100
AcDbEntity
  8
0
  6
SLD-Durchgehend
 62
     7
370
    15
100
AcDbPolyline
 90
        9
 70
   128
 43
0.0
 10
81.3413354516
 20
114.8577698961
 10
81.3550841011
 20
114.8709592864
 10
81.3646981441
 20
114.8909224186
 10
81.3663568296
 20
114.9161642872
 10
81.3607996278
 20
114.9397067249
 10
81.3455264032
 20
114.9700149883
 10
81.3140570134
 20
115.0078339026
 10
81.2563797407
 20
115.0504742738
 10
81.2246640161
 20
115.0656159491
  0
LINE
  5
3C4
330
1F
100
AcDbEntity
  8
0
  6
SLD-Durchgehend
 62
     7
370
    15
100
AcDbLine
 10
81.2246640161
 20
115.0656159491
 30
0.0
 11
80.0494289905
 21
115.5679108098
 31
0.0
  0
ARC
  5
3C5
330
1F
100
AcDbEntity
  8
0
  6
SLD-Durchgehend
 62
     7
370
    15
100
AcDbCircle
 10
86.6274078325
 20
117.9616929487
 30
0.0
 40
7.000000000000003
100
AcDbArc
 50
197.5109615604
 51
199.9968748572
  0
LINE
  5
3C6
330
1F
100
AcDbEntity
  8
0
  6
SLD-Durchgehend
 62
     7
370
    15
100
AcDbLine
 10
79.9517919257
 20
115.8554752812
 30
0.0
 11
80.7109618508
 21
116.3577699092
 31
0.0
  0
LWPOLYLINE
  5
3C7
330
1F
100
AcDbEntity
  8
0
  6
SLD-Durchgehend
 62
     7
370
    15
100
AcDbPolyline
 90
        9
 70
   128
 43
0.0
 10
80.7109618508
 20
116.3577699092
 10
80.7311743446
 20
116.3763459528
 10
80.7444321871
 20
116.4010191325
 10
80.7494617947
 20
116.4323182067
 10
80.7458720118
 20
116.4608699957
 10
80.7361811348
 20
116.4876426094
 10
80.7140240394
 20
116.5218318103
 10
80.6747003406
 20
116.5564192681
 10
80.6584995188
 20
116.5656159621
  0
LINE
  5
3C8
330
1F
100
AcDbEntity
  8
0
  6
SLD-Durchgehend
 62
     7
370
    15
100
AcDbLine
 10
80.6584995188
 20
116.5656159621
 30
0.0
 11
79.6847025812
 21
117.0679107065
 31
0.0
  0
ARC
  5
3C9
330
1F
100
AcDbEntity
  8
0
  6
SLD-Durchgehend
 62
     7
370
    15
100
AcDbCircle
 10
86.6274078325
 20
117.9616929487
 30
0.0
 40
6.999999999999999
100
AcDbArc
 50
184.9681835361
 51
187.3357322291
  0
LINE
  5
3CA
330
1F
100
AcDbEntity
  8
0
  6
SLD-Durchgehend
 62
     7
370
    15
100
AcDbLine
 10
79.6537072346
 20
117.3554751778
 30
0.0
 11
80.4982887529
 21
117.8577699004
 31
0.0
  0
ARC
  5
3CB
330
1F
100
AcDbEntity
  8
0
  6
SLD-Durchgehend
 62
     7
370
    15
100
AcDbCircle
 10
80.436749067
 20
117.9616929487
 30
0.0
 40
0.1207772036096392
100
AcDbArc
 50
300.6325710054
 51
59.3674289946
  0
LINE
  5
3CC
330
1F
100
AcDbEntity
  8
0
  6
SLD-Durchgehend
 62
     7
370
    15
100
AcDbLine
 10
80.4982887529
 20
118.065615997
 30
0.0
 11
79.6537072346
 21
118.5679107195
 31
0.0
  0
ARC
  5
3CD
330
1F
100
AcDbEntity
  8
0
  6
SLD-Durchgehend
 62
     7
370
    15
100
AcDbCircle
 10
86.6274078325
 20
117.9616929487
 30
0.0
 40
6.999999999999997
100
AcDbArc
 50
172.6642677709
 51
175.0318164639
  0
LINE
  5
3CE
330
1F
100
AcDbEntity
  8
0
  6
SLD-Durchgehend
 62
     7
370
    15
100
AcDbLine
 10
90.3203630768
 20
111.3554750093
 30
0.0
 11
88.9421188221
 21
111.3554750093
 31
0.0
  0
LINE
  5
3CF
330
1F
100
AcDbEntity
  8
0
  6
SLD-Durchgehend
 62
     7
370
    15
100
AcDbLine
 10
84.3126968429
 20
124.5679108881
 30
0.0
 11
82.9344525881
 21
124.5679108881
 31
0.0
  0
LINE
  5
3D0
330
1F
100
AcDbEntity
  8
0
  6
SLD-Durchgehend
 62
     7
370
    15
100
AcDbLine
 10
85.4125964869
 20
124.8554753594
 30
0.0
 11
83.0061972555
 21
124.8554753594
 31
0.0
  0
LINE
  5
3D1
330
1F
100
AcDbEntity
  8
0
  6
SLD-Durchgehend
 62
     7
370
    15
100
AcDbLine
 10
90.2486184094
 20
124.8554753594
 30
0.0
 11
87.842219178
 21
124.8554753594
 31
0.0
  0
LINE
  5
3D2
330
1F
100
AcDbEntity
  8
0
  6
SLD-Durchgehend
 62
     7
370
    15
100
AcDbLine
 10
90.2486184094
 20
111.0679105379
 30
0.0
 11
87.842219178
 21
111.0679105379
 31
0.0
  0
LINE
  5
3D3
330
1F
100
AcDbEntity
  8
0
  6
SLD-Durchgehend
 62
     7
370
    15
100
AcDbLine
 10
85.4125964869
 20
111.0679105379
 30
0.0
 11
83.0061972555
 21
111.0679105379
 31
0.0
  0
LINE
  5
3D4
330
1F
100
AcDbEntity
  8
0
  6
SLD-Durchgehend
 62
     7
370
    15
100
AcDbLine
 10
90.3203630768
 20
124.5679108881
 30
0.0
 11
88.9421188221
 21
124.5679108881
 31
0.0
  0
LINE
  5
3D5
330
1F
100
AcDbEntity
  8
0
  6
SLD-Durchgehend
 62
     7
370
    15
100
AcDbLine
 10
84.3126968429
 20
111.3554750093
 30
0.0
 11
82.9344525881
 21
111.3554750093
 31
0.0
  0
LINE
  5
3D6
330
1F
100
AcDbEntity
  8
0
  6
SLD-Durchgehend
 62
     7
370
    15
100
AcDbLine
 10
101.5150704369
 20
118.5679107195
 30
0.0
 11
93.6011084303
 21
118.5679107195
 31
0.0
  0
LINE
  5
3D7
330
1F
100
AcDbEntity
  8
0
  6
SLD-Durchgehend
 62
     7
370
    15
100
AcDbLine
 10
101.3777925581
 20
120.0679106161
 30
0.0
 11
93.3030237392
 21
120.0679106161
 31
0.0
  0
LINE
  5
3D8
330
1F
100
AcDbEntity
  8
0
  6
SLD-Durchgehend
 62
     7
370
    15
100
AcDbLine
 10
101.3338620722
 20
120.3554750875
 30
0.0
 11
93.2053866744
 21
120.3554750875
 31
0.0
  0
LINE
  5
3D9
330
1F
100
AcDbEntity
  8
0
  6
SLD-Durchgehend
 62
     7
370
    15
100
AcDbLine
 10
101.500577195
 20
118.8554751909
 30
0.0
 11
93.5701130837
 21
118.8554751909
 31
0.0
  0
LINE
  5
3DA
330
1F
100
AcDbEntity
  8
0
  6
SLD-Durchgehend
 62
     7
370
    15
100
AcDbLine
 10
101.0844194278
 20
121.5679106292
 30
0.0
 11
95.2163086221
 21
121.5679106292
 31
0.0
  0
LINE
  5
3DB
330
1F
100
AcDbEntity
  8
0
  6
SLD-Durchgehend
 62
     7
370
    15
100
AcDbLine
 10
93.5948564619
 20
121.5679106292
 30
0.0
 11
92.6270074159
 21
121.5679106292
 31
0.0
  0
LINE
  5
3DC
330
1F
100
AcDbEntity
  8
0
  6
SLD-Durchgehend
 62
     7
370
    15
100
AcDbLine
 10
101.0096351564
 20
121.8554751005
 30
0.0
 11
96.1301102251
 21
121.8554751005
 31
0.0
  0
LINE
  5
3DD
330
1F
100
AcDbEntity
  8
0
  6
SLD-Durchgehend
 62
     7
370
    15
100
AcDbLine
 10
92.6810548589
 20
121.8554751005
 30
0.0
 11
92.4444914744
 21
121.8554751005
 31
0.0
  0
LINE
  5
3DE
330
1F
100
AcDbEntity
  8
0
  6
SLD-Durchgehend
 62
     7
370
    15
100
AcDbLine
 10
101.3777925581
 20
115.8554752812
 30
0.0
 11
93.3030237392
 21
115.8554752812
 31
0.0
  0
LINE
  5
3DF
330
1F
100
AcDbEntity
  8
0
  6
SLD-Durchgehend
 62
     7
370
    15
100
AcDbLine
 10
99.8367135361
 20
111.0679105379
 30
0.0
 11
98.5625469074
 21
111.0679105379
 31
0.0
  0
LINE
  5
3E0
330
1F
100
AcDbEntity
  8
0
  6
SLD-Durchgehend
 62
     7
370
    15
100
AcDbLine
 10
99.9828520179
 20
124.5679108881
 30
0.0
 11
98.4908015415
 21
124.5679108881
 31
0.0
  0
LINE
  5
3E1
330
1F
100
AcDbEntity
  8
0
  6
SLD-Durchgehend
 62
     7
370
    15
100
AcDbLine
 10
100.5168686569
 20
123.3554751136
 30
0.0
 11
97.9237033934
 21
123.3554751136
 31
0.0
  0
LINE
  5
3E2
330
1F
100
AcDbEntity
  8
0
  6
SLD-Durchgehend
 62
     7
370
    15
100
AcDbLine
 10
101.500577195
 20
117.0679107065
 30
0.0
 11
93.5701130837
 21
117.0679107065
 31
0.0
  0
LINE
  5
3E3
330
1F
100
AcDbEntity
  8
0
  6
SLD-Durchgehend
 62
     7
370
    15
100
AcDbLine
 10
101.0096351564
 20
114.0679107968
 30
0.0
 11
96.1301102251
 21
114.0679107968
 31
0.0
  0
LINE
  5
3E4
330
1F
100
AcDbEntity
  8
0
  6
SLD-Durchgehend
 62
     7
370
    15
100
AcDbLine
 10
92.6810548589
 20
114.0679107968
 30
0.0
 11
92.4444914744
 21
114.0679107968
 31
0.0
  0
LINE
  5
3E5
330
1F
100
AcDbEntity
  8
0
  6
SLD-Durchgehend
 62
     7
370
    15
100
AcDbLine
 10
99.9828520179
 20
111.3554750093
 30
0.0
 11
98.4908015415
 21
111.3554750093
 31
0.0
  0
LINE
  5
3E6
330
1F
100
AcDbEntity
  8
0
  6
SLD-Durchgehend
 62
     7
370
    15
100
AcDbLine
 10
101.3338620722
 20
115.5679108098
 30
0.0
 11
93.2053866744
 21
115.5679108098
 31
0.0
  0
LINE
  5
3E7
330
1F
100
AcDbEntity
  8
0
  6
SLD-Durchgehend
 62
     7
370
    15
100
AcDbLine
 10
99.8367135361
 20
124.8554753594
 30
0.0
 11
98.5625469074
 21
124.8554753594
 31
0.0
  0
LINE
  5
3E8
330
1F
100
AcDbEntity
  8
0
  6
SLD-Durchgehend
 62
     7
370
    15
100
AcDbLine
 10
101.5150704369
 20
117.3554751778
 30
0.0
 11
93.6011084303
 21
117.3554751778
 31
0.0
  0
LINE
  5
3E9
330
1F
100
AcDbEntity
  8
0
  6
SLD-Durchgehend
 62
     7
370
    15
100
AcDbLine
 10
100.5168686569
 20
112.5679107838
 30
0.0
 11
97.9237033934
 21
112.5679107838
 31
0.0
  0
LINE
  5
3EA
330
1F
100
AcDbEntity
  8
0
  6
SLD-Durchgehend
 62
     7
370
    15
100
AcDbLine
 10
101.0844194278
 20
114.3554752682
 30
0.0
 11
95.2163086221
 21
114.3554752682
 31
0.0
  0
LINE
  5
3EB
330
1F
100
AcDbEntity
  8
0
  6
SLD-Durchgehend
 62
     7
370
    15
100
AcDbLine
 10
93.5948564619
 20
114.3554752682
 30
0.0
 11
92.6270074159
 21
114.3554752682
 31
0.0
  0
LINE
  5
3EC
330
1F
100
AcDbEntity
  8
0
  6
SLD-Durchgehend
 62
     7
370
    15
100
AcDbLine
 10
94.5705351368
 20
130.5679104746
 30
0.0
 11
78.6842805281
 21
130.5679104746
 31
0.0
  0
LINE
  5
3ED
330
1F
100
AcDbEntity
  8
0
  6
SLD-Durchgehend
 62
     7
370
    15
100
AcDbLine
 10
98.9381520957
 20
126.3554751397
 30
0.0
 11
98.6107614771
 21
126.3554751397
 31
0.0
  0
LINE
  5
3EE
330
1F
100
AcDbEntity
  8
0
  6
SLD-Durchgehend
 62
     7
370
    15
100
AcDbLine
 10
99.1293768347
 20
126.0679106683
 30
0.0
 11
98.6429032818
 21
126.0679106683
 31
0.0
  0
LINE
  5
3EF
330
1F
100
AcDbEntity
  8
0
  6
SLD-Durchgehend
 62
     7
370
    15
100
AcDbLine
 10
98.9381520957
 20
109.5679107577
 30
0.0
 11
98.6107614771
 21
109.5679107577
 31
0.0
  0
LINE
  5
3F0
330
1F
100
AcDbEntity
  8
0
  6
SLD-Durchgehend
 62
     7
370
    15
100
AcDbLine
 10
91.7623591557
 20
129.06791116
 30
0.0
 11
81.4924565092
 21
129.06791116
 31
0.0
  0
LINE
  5
3F1
330
1F
100
AcDbEntity
  8
0
  6
SLD-Durchgehend
 62
     7
370
    15
100
AcDbLine
 10
92.1717783384
 20
106.567910266
 30
0.0
 11
81.0830373265
 21
106.567910266
 31
0.0
  0
LINE
  5
3F2
330
1F
100
AcDbEntity
  8
0
  6
SLD-Durchgehend
 62
     7
370
    15
100
AcDbLine
 10
92.1717783384
 20
129.3554756314
 30
0.0
 11
81.0830373265
 21
129.3554756314
 31
0.0
  0
LINE
  5
3F3
330
1F
100
AcDbEntity
  8
0
  6
SLD-Durchgehend
 62
     7
370
    15
100
AcDbLine
 10
99.1293768347
 20
109.8554752291
 30
0.0
 11
98.6429032818
 21
109.8554752291
 31
0.0
  0
LINE
  5
3F4
330
1F
100
AcDbEntity
  8
0
  6
SLD-Durchgehend
 62
     7
370
    15
100
AcDbLine
 10
94.5705351368
 20
105.3554754228
 30
0.0
 11
78.6842805281
 21
105.3554754228
 31
0.0
  0
LINE
  5
3F5
330
1F
100
AcDbEntity
  8
0
  6
SLD-Durchgehend
 62
     7
370
    15
100
AcDbLine
 10
91.7623591557
 20
106.8554747373
 30
0.0
 11
81.4924565092
 21
106.8554747373
 31
0.0
  0
LINE
  5
3F6
330
1F
100
AcDbEntity
  8
0
  6
SLD-Durchgehend
 62
     7
370
    15
100
AcDbLine
 10
94.0946949594
 20
105.0679109514
 30
0.0
 11
79.1601207055
 21
105.0679109514
 31
0.0
  0
LINE
  5
3F7
330
1F
100
AcDbEntity
  8
0
  6
SLD-Durchgehend
 62
     7
370
    15
100
AcDbLine
 10
94.0946949594
 20
130.8554749459
 30
0.0
 11
79.1601207055
 21
130.8554749459
 31
0.0
  0
LINE
  5
3F8
330
1F
100
AcDbEntity
  8
0
  6
SLD-Durchgehend
 62
     7
370
    15
100
AcDbLine
 10
91.4258052543
 20
132.0679107204
 30
0.0
 11
81.8290104106
 21
132.0679107204
 31
0.0
  0
LINE
  5
3F9
330
1F
100
AcDbEntity
  8
0
  6
SLD-Durchgehend
 62
     7
370
    15
100
AcDbLine
 10
91.4258052543
 20
103.8554751769
 30
0.0
 11
81.8290104106
 21
103.8554751769
 31
0.0
  0
LINE
  5
3FA
330
1F
100
AcDbEntity
  8
0
  6
SLD-Durchgehend
 62
     7
370
    15
100
AcDbLine
 10
90.1682615694
 20
109.8554752291
 30
0.0
 11
83.0865540955
 21
109.8554752291
 31
0.0
  0
LINE
  5
3FB
330
1F
100
AcDbEntity
  8
0
  6
SLD-Durchgehend
 62
     7
370
    15
100
AcDbLine
 10
90.2004038397
 20
109.5679107577
 30
0.0
 11
83.0544118252
 21
109.5679107577
 31
0.0
  0
LINE
  5
3FC
330
1F
100
AcDbEntity
  8
0
  6
SLD-Durchgehend
 62
     7
370
    15
100
AcDbLine
 10
90.5688185193
 20
127.5679109142
 30
0.0
 11
82.6859971456
 21
127.5679109142
 31
0.0
  0
LINE
  5
3FD
330
1F
100
AcDbEntity
  8
0
  6
SLD-Durchgehend
 62
     7
370
    15
100
AcDbLine
 10
90.4782562465
 20
132.3554751918
 30
0.0
 11
82.7765594185
 21
132.3554751918
 31
0.0
  0
LINE
  5
3FE
330
1F
100
AcDbEntity
  8
0
  6
SLD-Durchgehend
 62
     7
370
    15
100
AcDbLine
 10
90.2004038397
 20
126.3554751397
 30
0.0
 11
83.0544118252
 21
126.3554751397
 31
0.0
  0
LINE
  5
3FF
330
1F
100
AcDbEntity
  8
0
  6
SLD-Durchgehend
 62
     7
370
    15
100
AcDbLine
 10
90.5688185193
 20
108.3554749832
 30
0.0
 11
82.6859971456
 21
108.3554749832
 31
0.0
  0
LINE
  5
400
330
1F
100
AcDbEntity
  8
0
  6
SLD-Durchgehend
 62
     7
370
    15
100
AcDbLine
 10
90.4782562465
 20
103.5679107055
 30
0.0
 11
82.7765594185
 21
103.5679107055
 31
0.0
  0
LINE
  5
401
330
1F
100
AcDbEntity
  8
0
  6
SLD-Durchgehend
 62
     7
370
    15
100
AcDbLine
 10
90.1682615694
 20
126.0679106683
 30
0.0
 11
83.0865540955
 21
126.0679106683
 31
0.0
  0
LINE
  5
402
330
1F
100
AcDbEntity
  8
0
  6
SLD-Durchgehend
 62
     7
370
    15
100
AcDbLine
 10
80.8103241906
 20
114.0679107968
 30
0.0
 11
80.573760806
 21
114.0679107968
 31
0.0
  0
LINE
  5
403
330
1F
100
AcDbEntity
  8
0
  6
SLD-Durchgehend
 62
     7
370
    15
100
AcDbLine
 10
77.1247054398
 20
114.0679107968
 30
0.0
 11
72.2451805085
 21
114.0679107968
 31
0.0
  0
LINE
  5
404
330
1F
100
AcDbEntity
  8
0
  6
SLD-Durchgehend
 62
     7
370
    15
100
AcDbLine
 10
80.8103241906
 20
121.8554751005
 30
0.0
 11
80.573760806
 21
121.8554751005
 31
0.0
  0
LINE
  5
405
330
1F
100
AcDbEntity
  8
0
  6
SLD-Durchgehend
 62
     7
370
    15
100
AcDbLine
 10
77.1247054398
 20
121.8554751005
 30
0.0
 11
72.2451805085
 21
121.8554751005
 31
0.0
  0
LINE
  5
406
330
1F
100
AcDbEntity
  8
0
  6
SLD-Durchgehend
 62
     7
370
    15
100
AcDbLine
 10
80.627808249
 20
121.5679106292
 30
0.0
 11
79.659959203
 21
121.5679106292
 31
0.0
  0
LINE
  5
407
330
1F
100
AcDbEntity
  8
0
  6
SLD-Durchgehend
 62
     7
370
    15
100
AcDbLine
 10
78.0385070428
 20
121.5679106292
 30
0.0
 11
72.1703962371
 21
121.5679106292
 31
0.0
  0
LINE
  5
408
330
1F
100
AcDbEntity
  8
0
  6
SLD-Durchgehend
 62
     7
370
    15
100
AcDbLine
 10
80.0494289905
 20
115.5679108098
 30
0.0
 11
71.9209535927
 21
115.5679108098
 31
0.0
  0
LINE
  5
409
330
1F
100
AcDbEntity
  8
0
  6
SLD-Durchgehend
 62
     7
370
    15
100
AcDbLine
 10
80.0494289905
 20
120.3554750875
 30
0.0
 11
71.9209535927
 21
120.3554750875
 31
0.0
  0
LINE
  5
40A
330
1F
100
AcDbEntity
  8
0
  6
SLD-Durchgehend
 62
     7
370
    15
100
AcDbLine
 10
79.9517919257
 20
115.8554752812
 30
0.0
 11
71.8770231068
 21
115.8554752812
 31
0.0
  0
LINE
  5
40B
330
1F
100
AcDbEntity
  8
0
  6
SLD-Durchgehend
 62
     7
370
    15
100
AcDbLine
 10
79.9517919257
 20
120.0679106161
 30
0.0
 11
71.8770231068
 21
120.0679106161
 31
0.0
  0
LINE
  5
40C
330
1F
100
AcDbEntity
  8
0
  6
SLD-Durchgehend
 62
     7
370
    15
100
AcDbLine
 10
80.627808249
 20
114.3554752682
 30
0.0
 11
79.659959203
 21
114.3554752682
 31
0.0
  0
LINE
  5
40D
330
1F
100
AcDbEntity
  8
0
  6
SLD-Durchgehend
 62
     7
370
    15
100
AcDbLine
 10
78.0385070428
 20
114.3554752682
 30
0.0
 11
72.1703962371
 21
114.3554752682
 31
0.0
  0
LINE
  5
40E
330
1F
100
AcDbEntity
  8
0
  6
SLD-Durchgehend
 62
     7
370
    15
100
AcDbLine
 10
74.6440541879
 20
126.3554751397
 30
0.0
 11
74.3166635692
 21
126.3554751397
 31
0.0
  0
LINE
  5
40F
330
1F
100
AcDbEntity
  8
0
  6
SLD-Durchgehend
 62
     7
370
    15
100
AcDbLine
 10
79.6847025812
 20
117.0679107065
 30
0.0
 11
71.7542384699
 21
117.0679107065
 31
0.0
  0
LINE
  5
410
330
1F
100
AcDbEntity
  8
0
  6
SLD-Durchgehend
 62
     7
370
    15
100
AcDbLine
 10
74.6440541879
 20
109.5679107577
 30
0.0
 11
74.3166635692
 21
109.5679107577
 31
0.0
  0
LINE
  5
411
330
1F
100
AcDbEntity
  8
0
  6
SLD-Durchgehend
 62
     7
370
    15
100
AcDbLine
 10
74.7640141234
 20
124.5679108881
 30
0.0
 11
73.271963647
 21
124.5679108881
 31
0.0
  0
LINE
  5
412
330
1F
100
AcDbEntity
  8
0
  6
SLD-Durchgehend
 62
     7
370
    15
100
AcDbLine
 10
79.6537072346
 20
117.3554751778
 30
0.0
 11
71.739745228
 21
117.3554751778
 31
0.0
  0
LINE
  5
413
330
1F
100
AcDbEntity
  8
0
  6
SLD-Durchgehend
 62
     7
370
    15
100
AcDbLine
 10
75.3311122716
 20
123.3554751136
 30
0.0
 11
72.737947008
 21
123.3554751136
 31
0.0
  0
LINE
  5
414
330
1F
100
AcDbEntity
  8
0
  6
SLD-Durchgehend
 62
     7
370
    15
100
AcDbLine
 10
75.3311122716
 20
112.5679107838
 30
0.0
 11
72.737947008
 21
112.5679107838
 31
0.0
  0
LINE
  5
415
330
1F
100
AcDbEntity
  8
0
  6
SLD-Durchgehend
 62
     7
370
    15
100
AcDbLine
 10
79.6537072346
 20
118.5679107195
 30
0.0
 11
71.739745228
 21
118.5679107195
 31
0.0
  0
LINE
  5
416
330
1F
100
AcDbEntity
  8
0
  6
SLD-Durchgehend
 62
     7
370
    15
100
AcDbLine
 10
74.7640141234
 20
111.3554750093
 30
0.0
 11
73.271963647
 21
111.3554750093
 31
0.0
  0
LINE
  5
417
330
1F
100
AcDbEntity
  8
0
  6
SLD-Durchgehend
 62
     7
370
    15
100
AcDbLine
 10
79.6847025812
 20
118.8554751909
 30
0.0
 11
71.7542384699
 21
118.8554751909
 31
0.0
  0
LINE
  5
418
330
1F
100
AcDbEntity
  8
0
  6
SLD-Durchgehend
 62
     7
370
    15
100
AcDbLine
 10
74.6119123832
 20
126.0679106683
 30
0.0
 11
74.1254388303
 21
126.0679106683
 31
0.0
  0
LINE
  5
419
330
1F
100
AcDbEntity
  8
0
  6
SLD-Durchgehend
 62
     7
370
    15
100
AcDbLine
 10
74.6922687575
 20
124.8554753594
 30
0.0
 11
73.4181021288
 21
124.8554753594
 31
0.0
  0
LINE
  5
41A
330
1F
100
AcDbEntity
  8
0
  6
SLD-Durchgehend
 62
     7
370
    15
100
AcDbLine
 10
74.6119123832
 20
109.8554752291
 30
0.0
 11
74.1254388303
 21
109.8554752291
 31
0.0
  0
LINE
  5
41B
330
1F
100
AcDbEntity
  8
0
  6
SLD-Durchgehend
 62
     7
370
    15
100
AcDbLine
 10
74.6922687575
 20
111.0679105379
 30
0.0
 11
73.4181021288
 21
111.0679105379
 31
0.0
  0
CIRCLE
  5
41C
330
1F
100
AcDbEntity
  8
0
  6
SLD-Durchgehend
 62
     7
370
    15
100
AcDbCircle
 10
86.6274078325
 20
117.9616929487
 30
0.0
 40
3.249999999999986
  0
CIRCLE
  5
41D
330
1F
100
AcDbEntity
  8
0
  6
SLD-Durchgehend
 62
     7
370
    15
100
AcDbCircle
 10
86.6274078325
 20
117.9616929487
 30
0.0
 40
2.999999999999986
  0
CIRCLE
  5
41E
330
1F
100
AcDbEntity
  8
0
  6
SLD-Durchgehend
 62
     7
370
    15
100
AcDbCircle
 10
86.6274078325
 20
117.9616929487
 30
0.0
 40
19.99999999999999
  0
INSERT
  5
42A
330
1F
100
AcDbEntity
  8
VERMASSUNG
100
AcDbBlockReference
  2
SW_CENTERMARKSYMBOL_0
 10
86.6274078325
 20
117.9616929487
 30
0.0
  0
OLE2FRAME
  5
42B
330
1F
100
AcDbEntity
  8
0
100
AcDbOle2Frame
 70
     2
  3
Paintbrush-Bild
 10
13.8511154363
 20
38.264191557
 30
0.0
 11
51.6290888628
 21
31.9806341108
 31
0.0
 71
     2
 72
     0
 73
     1
 90
    12928
310
80552BED0767C5B32B40DDAF6807D121434000000000000000006FFBDDFB85D0
310
4940DDAF6807D121434000000000000000006FFBDDFB85D04940416F4BD60AFB
310
3F4000000000000000002BED0767C5B32B40416F4BD60AFB3F40000000000000
310
0000000000000100000000010000010000000100000000000100000000320000
310
D0CF11E0A1B11AE1000000000000000000000000000000003E000300FEFF0900
310
0600000000000000000000000100000001000000000000000010000002000000
310
01000000FEFFFFFF0000000000000000FFFFFFFFFFFFFFFFFFFFFFFFFFFFFFFF
310
FFFFFFFFFFFFFFFFFFFFFFFFFFFFFFFFFFFFFFFFFFFFFFFFFFFFFFFFFFFFFFFF
310
FFFFFFFFFFFFFFFFFFFFFFFFFFFFFFFFFFFFFFFFFFFFFFFFFFFFFFFFFFFFFFFF
310
FFFFFFFFFFFFFFFFFFFFFFFFFFFFFFFFFFFFFFFFFFFFFFFFFFFFFFFFFFFFFFFF
310
FFFFFFFFFFFFFFFFFFFFFFFFFFFFFFFFFFFFFFFFFFFFFFFFFFFFFFFFFFFFFFFF
310
FFFFFFFFFFFFFFFFFFFFFFFFFFFFFFFFFFFFFFFFFFFFFFFFFFFFFFFFFFFFFFFF
310
FFFFFFFFFFFFFFFFFFFFFFFFFFFFFFFFFFFFFFFFFFFFFFFFFFFFFFFFFFFFFFFF
310
FFFFFFFFFFFFFFFFFFFFFFFFFFFFFFFFFFFFFFFFFFFFFFFFFFFFFFFFFFFFFFFF
310
FFFFFFFFFFFFFFFFFFFFFFFFFFFFFFFFFFFFFFFFFFFFFFFFFFFFFFFFFFFFFFFF
310
FFFFFFFFFFFFFFFFFFFFFFFFFFFFFFFFFFFFFFFFFFFFFFFFFFFFFFFFFFFFFFFF
310
FFFFFFFFFFFFFFFFFFFFFFFFFFFFFFFFFFFFFFFFFFFFFFFFFFFFFFFFFFFFFFFF
310
FFFFFFFFFFFFFFFFFFFFFFFFFFFFFFFFFFFFFFFFFFFFFFFFFFFFFFFFFFFFFFFF
310
FFFFFFFFFFFFFFFFFFFFFFFFFFFFFFFFFFFFFFFFFFFFFFFFFFFFFFFFFFFFFFFF
310
FFFFFFFFFFFFFFFFFFFFFFFFFFFFFFFFFFFFFFFFFFFFFFFFFFFFFFFFFFFFFFFF
310
FDFFFFFFFEFFFFFFFEFFFFFFFEFFFFFF05000000060000000700000008000000
310
090000000A0000000B0000000C0000000D0000000E0000000F00000010000000
310
11000000120000001300000014000000150000001600000017000000FEFFFFFF
310
FFFFFFFFFFFFFFFFFFFFFFFFFFFFFFFFFFFFFFFFFFFFFFFFFFFFFFFFFFFFFFFF
310
FFFFFFFFFFFFFFFFFFFFFFFFFFFFFFFFFFFFFFFFFFFFFFFFFFFFFFFFFFFFFFFF
310
FFFFFFFFFFFFFFFFFFFFFFFFFFFFFFFFFFFFFFFFFFFFFFFFFFFFFFFFFFFFFFFF
310
FFFFFFFFFFFFFFFFFFFFFFFFFFFFFFFFFFFFFFFFFFFFFFFFFFFFFFFFFFFFFFFF
310
FFFFFFFFFFFFFFFFFFFFFFFFFFFFFFFFFFFFFFFFFFFFFFFFFFFFFFFFFFFFFFFF
310
FFFFFFFFFFFFFFFFFFFFFFFFFFFFFFFFFFFFFFFFFFFFFFFFFFFFFFFFFFFFFFFF
310
FFFFFFFFFFFFFFFFFFFFFFFFFFFFFFFFFFFFFFFFFFFFFFFFFFFFFFFFFFFFFFFF
310
FFFFFFFFFFFFFFFFFFFFFFFFFFFFFFFFFFFFFFFFFFFFFFFFFFFFFFFFFFFFFFFF
310
FFFFFFFFFFFFFFFFFFFFFFFFFFFFFFFFFFFFFFFFFFFFFFFFFFFFFFFFFFFFFFFF
310
FFFFFFFFFFFFFFFFFFFFFFFFFFFFFFFFFFFFFFFFFFFFFFFFFFFFFFFFFFFFFFFF
310
FFFFFFFFFFFFFFFFFFFFFFFFFFFFFFFFFFFFFFFFFFFFFFFFFFFFFFFFFFFFFFFF
310
FFFFFFFFFFFFFFFFFFFFFFFFFFFFFFFFFFFFFFFFFFFFFFFFFFFFFFFFFFFFFFFF
310
FFFFFFFFFFFFFFFFFFFFFFFFFFFFFFFFFFFFFFFFFFFFFFFFFFFFFFFFFFFFFFFF
310
52006F006F007400200045006E00740072007900000000000000000000000000
310
0000000000000000000000000000000000000000000000000000000000000000
310
16000500FFFFFFFFFFFFFFFF020000000A00030000000000C000000000000046
310
000000000000000000000000206C4596CA87D00103000000C000000000000000
310
01004F006C006500000000000000000000000000000000000000000000000000
310
0000000000000000000000000000000000000000000000000000000000000000
310
0A000200FFFFFFFFFFFFFFFFFFFFFFFF00000000000000000000000000000000
310
0000000000000000000000000000000000000000000000001400000000000000
310
010043006F006D0070004F0062006A0000000000000000000000000000000000
310
0000000000000000000000000000000000000000000000000000000000000000
310
120002010100000003000000FFFFFFFF00000000000000000000000000000000
310
0000000000000000000000000000000000000000010000004D00000000000000
310
01004F006C006500310030004E00610074006900760065000000000000000000
310
0000000000000000000000000000000000000000000000000000000000000000
310
1A000200FFFFFFFFFFFFFFFFFFFFFFFF00000000000000000000000000000000
310
0000000000000000000000000000000000000000040000002426000000000000
310
FEFFFFFF02000000FEFFFFFFFFFFFFFFFFFFFFFFFFFFFFFFFFFFFFFFFFFFFFFF
310
FFFFFFFFFFFFFFFFFFFFFFFFFFFFFFFFFFFFFFFFFFFFFFFFFFFFFFFFFFFFFFFF
310
FFFFFFFFFFFFFFFFFFFFFFFFFFFFFFFFFFFFFFFFFFFFFFFFFFFFFFFFFFFFFFFF
310
FFFFFFFFFFFFFFFFFFFFFFFFFFFFFFFFFFFFFFFFFFFFFFFFFFFFFFFFFFFFFFFF
310
FFFFFFFFFFFFFFFFFFFFFFFFFFFFFFFFFFFFFFFFFFFFFFFFFFFFFFFFFFFFFFFF
310
FFFFFFFFFFFFFFFFFFFFFFFFFFFFFFFFFFFFFFFFFFFFFFFFFFFFFFFFFFFFFFFF
310
FFFFFFFFFFFFFFFFFFFFFFFFFFFFFFFFFFFFFFFFFFFFFFFFFFFFFFFFFFFFFFFF
310
FFFFFFFFFFFFFFFFFFFFFFFFFFFFFFFFFFFFFFFFFFFFFFFFFFFFFFFFFFFFFFFF
310
FFFFFFFFFFFFFFFFFFFFFFFFFFFFFFFFFFFFFFFFFFFFFFFFFFFFFFFFFFFFFFFF
310
FFFFFFFFFFFFFFFFFFFFFFFFFFFFFFFFFFFFFFFFFFFFFFFFFFFFFFFFFFFFFFFF
310
FFFFFFFFFFFFFFFFFFFFFFFFFFFFFFFFFFFFFFFFFFFFFFFFFFFFFFFFFFFFFFFF
310
FFFFFFFFFFFFFFFFFFFFFFFFFFFFFFFFFFFFFFFFFFFFFFFFFFFFFFFFFFFFFFFF
310
FFFFFFFFFFFFFFFFFFFFFFFFFFFFFFFFFFFFFFFFFFFFFFFFFFFFFFFFFFFFFFFF
310
FFFFFFFFFFFFFFFFFFFFFFFFFFFFFFFFFFFFFFFFFFFFFFFFFFFFFFFFFFFFFFFF
310
FFFFFFFFFFFFFFFFFFFFFFFFFFFFFFFFFFFFFFFFFFFFFFFFFFFFFFFFFFFFFFFF
310
FFFFFFFFFFFFFFFFFFFFFFFFFFFFFFFFFFFFFFFFFFFFFFFFFFFFFFFFFFFFFFFF
310
0100000200000000000000000000000000000000000000000000000000000000
310
0000000000000000000000000000000000000000000000000000000000000000
310
0100FEFF030A0000FFFFFFFF0A00030000000000C00000000000004607000000
310
5042727573680007000000504272757368000700000050427275736800F439B2
310
7100000000000000000000000000000000000000000000000000000000000000
310
0000000000000000000000000000000000000000000000000000000000000000
310
0000000000000000000000000000000000000000000000000000000000000000
310
0000000000000000000000000000000000000000000000000000000000000000
310
0000000000000000000000000000000000000000000000000000000000000000
310
0000000000000000000000000000000000000000000000000000000000000000
310
0000000000000000000000000000000000000000000000000000000000000000
310
0000000000000000000000000000000000000000000000000000000000000000
310
0000000000000000000000000000000000000000000000000000000000000000
310
0000000000000000000000000000000000000000000000000000000000000000
310
0000000000000000000000000000000000000000000000000000000000000000
310
0000000000000000000000000000000000000000000000000000000000000000
310
20260000424D0E260000000000003E00000028000000B40200006E0000000100
310
01000000000000000000130B0000130B00000200000002000000000000FFFFFF
310
FFFFFFFFFFFFFFFFFFFFFFFFFFFFFFFFFFFFFFFFFFFFFFFFFFFFFFFFFFFFFFFF
310
FFFFFFFFFFFFFFFFFFFFFFFFFFFFFFFFFFFFFFFFFFFFFFFFFFFFFFFFFFFFFFFF
310
FFFFFFFFFFFFFFFFFFFFFFFFFFFFFFFFFFFFFFFFFFFFFFFFF000FFFFFFFFFFFF
310
FFFFFFFFFFFFFFFFFFFFFFFFFFFFFFFFFFFFFFFFFFFFFFFFFFFFFFFFFFFFFFFF
310
FFFFFFFFFFFFFFFFFFFFFFFFFFFFFFFFFFFFFFFFFFFFFFFFFFFFFFFFFFFFFFFF
310
FFFFFFFFFFFFFFFFFFFFFFFFFFFFFFFFF000FFFFFFFFFFFFFFFFFFFFFFFFFFFF
310
FFFFFFFFFFFFFFFFFFFFFFFFFFFFFFFFFFFFFFFFFFFFFFFFFFFFFFFFFFFFFFFF
310
FFFFFFFFFFFFFFFFFFFFFFFFFFFFFFFFFFFFFFFFFFFFFFFFFFFFFFFFFFFFFFFF
310
FFFFFFFFFFFFFFFFF000FFFFFFFFFFFFFFFFFFFFFFFFFFFFFFFFFFFFFFFFFFFF
310
FFFFFFFFFFFFFFFFFFFFFFFFFFFFFFFFFFFFFFFFFFFFFFFFFFFFFFFFFFFFFFFF
310
FFFFFFFFFFFFFFFFFFFFFFFFFFFFFFFFFFFFFFFFFFFFFFFFFFFFFFFFFFFFFFFF
310
F000FFFFFFFFFFFFFFFFFFFFFFFFFFFFFFFFFFFFFFFFFFFFFFFFFFFFFFFFFFFF
310
FFFFFFFFFFFFFFFFFFFFFFFFFFFFFFFFFFFFFFFFFFFFFFFFFFFFFFFFFFFFFFFF
310
FFFFFFFFFFFFFFFFFFFFFFFFFFFFFFFFFFFFFFFFFFFFFFFFF000FFFFFFFFFFFF
310
FFFFFFFFFFFFFFFFFFFFFFFFFFFFFFFFFFFFFFFFFFFFFFFFFFFFFFFFFFFFFFFF
310
FFFFFFFFFFFFFFFFFFFFFFFFFFFFFFFFFFFFFFFFFFFFFFFFFFFFFFFFFFFFFFFF
310
FFFFFFFFFFFFFFFFFFFFFFFFFFFFFFFFF000FFFFFFFFFFFFFFFFFFFFFFFFFFFF
310
FFFFFFFFFFFFFFFFFFFFFFFFFFFFFFFFFFFFFFFFFFFFFFFFFFFFFFFFFFFFFFFF
310
FFFFFFFFFFFFFFFFFFFFFFFFFFFFFFFFFFFFFFFFFFFFFFFFFFFFFFFFFFFFFFFF
310
FFFFFFFFFFFFFFFFF000FFFFFFFFFFFFFFFFFFFFFFFFFFFFFFFFFFFFFFFFFFFF
310
FFFFFFFFFFFFFFFFFFFFFFFFFFFFFFFFFFFFFFFFFFFFFFFFFFFFFFFFFFFFFFFF
310
FFFFFFFFFFFFFFFFFFFFFFFFFFFFFFFFFFFFFFFFFFFFFFFFFFFFFFFFFFFFFFFF
310
F000FFFFFFFFFFFFFFFFFFFFFFFFFFFFFFFFFFFFFFFFFFFFFFFFFFFFFFFFFFFF
310
FFFFFFFFFFFFFFFFFFFFFFFFFFFFFFFFFFFFFFFFFFFFFFFFFFFFFFFFFFFFFFFF
310
FFFFFFFFFFFFFFFFFFFFFFFFFFFFFFFFFFFFFFFFFFFFFFFFF000FFFFFFFFFFFF
310
FFFFFFFFFFFFFFFFFFFFFFFFFFFFFFFFFFFFFFFFFFFFFFFFFFFFFFFFFFFFFFFF
310
FFFFFFFFFFFFFFFFFFFFFFFFFFFFFFFFFFFFFFFFFFFFFFFFFFFFFFFFFFFFFFFF
310
FFFFFFFFFFFFFFFFFFFFFFFFFFFFFFFFF000FFFFFFFFFFFFFFFFFFFFFFFFFFFF
310
FFFFFFFFFFFFFFFFFFFFFFFFFFFFFFFFFFFFFFFFFFFFFFFFFFFFFFFFFFFFFFFF
310
FFFFFFFFFFFFFFFFFFFFFFFFFFFFFFFFFFFFFFFFFFFFFFFFFFFFFFFFFFFFFFFF
310
FFFFFFFFFFFFFFFFF000FFFFFFFFFFFFFFFFFFFFFFFFFFFFFFFFFFFFFFFFFFFF
310
FFFFFFFFFFFFFFFFFFFFFFFFFFFFFFFFFFFFFFFFFFFFFFFFFFFFFFFFFFFFFFFF
310
FFFFFFFFFFFFFFFFFFFFFFFFFFFFFFFFFFFFFFFFFFFFFFFFFFFFFFFFFFFFFFFF
310
F000FFFFFFFFFFFFFFFFFFFFFFFFFFFFFFFFFFFFFFFFFFFFFFFFFFFFFFFFFFFF
310
FFFFFFFFFFFFFFFFFFFFFFFFFFFFFFFFFFFFFFFFFFFFFFFFFFFFFFFFFFFFFFFF
310
FFFFFFFFFFFFFFFFFFFFFFFFFFFFFFFFFFFFFFFFFFFFFFFFF000FFFFFFFFFFFF
310
FFFFFFFFFFFFFFFFFFFFFFFFFFFFFFFFFFFFFFFFFFFFFFFFFFFFFFFFFFFFFFFF
310
FFFFFFFFFFFFFFFFFFFFFFFFFFFFFFFFFFFFFFFFFFFFFFFFFFFFFFFFFFFFFFFF
310
FFFFFFFFFFFFFFFFFFFFFFFFFFFFFFFFF000FFFFFFFFFFFFFFFFFFFFFFFFFFFF
310
FFFFFFFFFFFFFFFFFFFFFFFFFFFFFFFFFFFFFFFFFFFFFFFFFFFFFFFFFFFFFFFF
310
FFFFFFFFFFFFFFFFFFFFFFFFFFFFFFFFFFFFFFFFFFFFFFFFFFFFFFFFFFFFFFFF
310
FFFFFFFFFFFFFFFFF000FFFFFFFFFFFFFFFFFFFFFFFFFFFFFFFFFFFFFFFFFFFF
310
FFFFFFFFFFFFFFFFFFFFFFFFFFFFFFFFFFFFFFFFFFFFFFFFFFFFFFFFFFFFFFFF
310
FFFFFFFFFFFFFFFFFFFFFFFFFFFFFFFFFFFFFFFFFFFFFFFFFFFFFFFFFFFFFFFF
310
F000FFFFFFFFFFFFFFFFFFFFFFFFFFFFFFFFFFFFFFFFFFFFFFFFFFFFFFFFFFFF
310
FFFFFFFFFFFFFFFFFFFFFFFFFFFFFFFFFFFFFFFFFFFFFFFFFFFFFFFFFFFFFFFF
310
FFFFFFFFFFFFFFFFFFFFFFFFFFFFFFFFFFFFFFFFFFFFFFFFF000FFFFFFFFFFFF
310
FFFFFFFFFFFFFFFFFFFFFFFFFFFFFFFFFFFFFFFFFFFFFFFFFFFFFFFFFFFFFFFF
310
FFFFFFFFFFFFFFFFFFFFFFFFFFFFFFFFFFFFFFFFFFFFFFFFFFFFFFFFFFFFFFFF
310
FFFFFFFFFFFFFFFFFFFFFFFFFFFFFFFFF000FFFFFFFFFFFFFFFFFFFFFFFFFFFF
310
FFFFFFFFFFFFFFFFFFFFFFFFFFFFFFFFFFFFFFFFFFFFFFFFFFFFFFFFFFFFFFFF
310
FFFFFFFFFFFFFFFFFFFFFFFFFFFFFFFFFFFFFFFFFFFFFFFFFFFFFFFFFFFFFFFF
310
FFFFFFFFFFFFFFFFF000FFFFF80003FFFFFFFFFFFFFFFFFFFFFFFFFFFFFFFFFF
310
FFFFF00007FFFFFFFFFF00007FFFFFF800000000000000007FFFFFFFFFFFFFFF
310
FFFFFFFC001FFFFFFFFFFFFFFC001FFFFFFFFFFFFFFFFFFFFFFFFFFE0007FFFF
310
F000FFFF8000007FFFFFFFF8000FFFFFC0007FFFFF80007FFFFF0000007FFFFF
310
FFF8000007FFFFF800000000000000007FFFFFF0001FFFFFFFFFFFC00001FFFF
310
FFFFFFFFC00001FFFFFFFF000000000003FFFFE000007FFFF000FFFE0000000F
310
FFFFFFF0000FFFFF80007FFFFF80007FFFFC0000001FFFFFFFC0000001FFFFF8
310
00000000000000007FFFFFF0001FFFFFFFFFFE0000003FFFFFFFFFFE0000003F
310
FFFFFF000000000003FFFF0000000FFFF000FFF800000003FFFFFFF00007FFFF
310
80007FFFFF80007FFFF000000007FFFFFF000000003FFFF80000000000000000
310
7FFFFFF0001FFFFFFFFFF80000000FFFFFFFFFF80000000FFFFFFF0000000000
310
03FFFC00000003FFF000FFE000000000FFFFFFF00007FFFF80003FFFFF80007F
310
FFC000000001FFFFFC000000001FFFF800000000000000007FFFFFF0001FFFFF
310
FFFFE000000003FFFFFFFFE000000003FFFFFF000000000003FFF000000000FF
310
F000FF80000000007FFFFFF00007FFFF80003FFFFF80007FFF8000000000FFFF
310
F80000000007FFF800000000000000007FFFFFF0001FFFFFFFFFC000000001FF
310
FFFFFFC000000001FFFFFF000000000003FFC0000000007FF000FF0000000000
310
3FFFFFE00007FFFF00003FFFFF80007FFE00000000003FFFF00000000003FFF8
310
00000000000000007FFFFFF0001FFFFFFFFF8000000000FFFFFFFF8000000000
310
FFFFFF000000000003FF80000000003FF000FE00000000001FFFFFE00003FFFF
310
00003FFFFF80007FFC00000000001FFFE00000000001FFF8000001FFFE000000
310
7FFFFFF0001FFFFFFFFE00000000003FFFFFFE00000000003FFFFF0000000000
310
03FF00000000001FF000FC00000000000FFFFFE00003FFFF00001FFFFF80007F
310
F800000000001FFFC00000000000FFF8000001FFFE0000007FFFFFF0001FFFFF
310
FFFC00000000001FFFFFFC00000000001FFFFF000000000003FE00000000000F
310
F000F8000000000007FFFFE00003FFFF00001FFFFF80007FF800000000000FFF
310
800000000000FFF8000001FFFE0000007FFFFFF0001FFFFFFFF800000000000F
310
FFFFF800000000000FFFFF000000000003FC000000000007F000F80000000000
310
03FFFFC00003FFFE00001FFFFF80007FF0000000000007FF0000000000007FF8
310
000001FFFE0000007FFFFFF0001FFFFFFFF0000000000007FFFFF00000000000
310
07FFFF000000000003F8000000000003F000F0000000000003FFFFC00001FFFE
310
00001FFFFF80007FE0000000000007FE0000000000003FF8000001FFFE000000
310
7FFFFFF0001FFFFFFFF0000000000007FFFFF0000000000007FFFF0000000000
310
03F800001F800003F000E00001FFF00001FFFFC00001FFFE00000FFFFF80007F
310
E00001FFE00003FE00001FFF00003FF8000001FFFE0000007FFFFFF0001FFFFF
310
FFE000003E000003FFFFE000003E000003FFFF000000000003F00001FFF80001
310
F000E00007FFFC0001FFFFC00001FFFE00000FFFFF80007FC0000FFFFC0003FC
310
0000FFFFC0001FF8000001FFFE0000007FFFFFF0001FFFFFFFC00003FFE00001
310
FFFFC00003FFE00001FFFF0001FFFFFFFFF00007FFFE0001F000E0000FFFFF00
310
00FFFF800001FFFC00000FFFFF80007FC0001FFFFE0001FC0001FFFFE0001FF8
310
000001FFFE0000007FFFFFF0001FFFFFFF80000FFFF80000FFFF80000FFFF800
310
00FFFF0003FFFFFFFFE0000FFFFF8000F000C0003FFFFF8000FFFF800000FFFC
310
000007FFFF80007F80003FFFFF0001FC0003FFFFF0001FF8000001FFFE000000
310
7FFFFFF0001FFFFFFF80003FFFFE0000FFFF80003FFFFE0000FFFF0003FFFFFF
310
FFE0003FFFFF8000F000C0003FFFFF8000FFFF800000FFFC000007FFFF80007F
310
80007FFFFF8001F80007FFFFF8000FF8000001FFFE0000007FFFFFF0001FFFFF
310
FF00007FFFFF00007FFF00007FFFFF00007FFF0003FFFFFFFFE0003FFFFFC000
310
F000C0007FFFFFC000FFFF000000FFFC000007FFFF80007F8000FFFFFF8000F8
310
000FFFFFF8000FF8000001FFFE0000007FFFFFF0001FFFFFFF0000FFFFFF8000
310
7FFF0000FFFFFF80007FFF0003FFFFFFFFC0007FFFFFC00070008000FFFFFFC0
310
00FFFF000000FFF8000007FFFF80007F8000FFFFFF8000F8000FFFFFF8000FF8
310
000001FFFE0000007FFFFFF0001FFFFFFE0001FFFFFFC0003FFE0001FFFFFFC0
310
003FFF0003FFFFFFFFC0007FFFFFE00070008000FFFFFFC0007FFF0000007FF8
310
000003FFFF80007F0001FFFFFF8000F8000FFFFFF8000FF8000001FFFE000000
310
7FFFFFF0001FFFFFFE0001FFFFFFC0003FFE0001FFFFFFC0003FFF0003FFFFFF
310
FFC000FFFFFFE00070008000FFFFFFC0007FFF0000007FF8000003FFFF80007F
310
0001FFFFFF8000F8001FFFFFF8000FF8000001FFFE0000007FFFFFF0001FFFFF
310
FE0003FFFFFFE0003FFE0003FFFFFFE0003FFF0003FFFFFFFFC000FFFFFFE000
310
70008000FFFFFFC0007FFE0000007FF8000003FFFF80007F0001FFFFFF8000F0
310
001FFFFFF8000FF8000001FFFE0000007FFFFFF0001FFFFFFC0003FFFFFFE000
310
1FFC0003FFFFFFE0001FFF0003FFFFFFFFC000FFFFFFC00070008000FFFFFF80
310
007FFE0000007FF0000003FFFF80007F0001FFFFFF0000F0001FFFFFF8000FF8
310
000001FFFE0000007FFFFFF0001FFFFFFC0007FFFFFFF0001FFC0007FFFFFFF0
310
001FFF0003FFFFFFFFC000FFFFFFC00070008001FFFFFF0000FFFE0000003FF0
310
000001FFFF80007F0001FFFFFF0000F8001FFFFFF0000FF8000001FFFE000000
310
7FFFFFF0001FFFFFFC0007FFFFFFF0001FFC0007FFFFFFF0001FFF0003FFFFFF
310
FFC001FFFFFF80007000FFFFFFFFFE0000FFFE0008003FF0008001FFFF80007F
310
FFFFFFFFFC0000FFFFFFFFFFE0000FF8000001FFFE0000007FFFFFF0001FFFFF
310
F8000FFFFFFFF8000FF8000FFFFFFFF8000FFF0003FFFFFFFFFFFFFFFFFF0000
310
7000FFFFFFFFFC0000FFFC0008003FF0008001FFFF80007FFFFFFFFFF80001FF
310
FFFFFFFF80000FF8000001FFFE0000007FFFFFF0001FFFFFF8000FFFFFFFF800
310
0FF8000FFFFFFFF8000FFF0003FFFFFFFFFFFFFFFFFE0000F000FFFFFFFFE000
310
00FFFC000C003FE000C001FFFF80007FFFFFFFFFC00001FFFFFFFFFE00001FF8
310
000001FFFE0000007FFFFFF0001FFFFFF8000FFFFFFFF8000FF8000FFFFFFFF8
310
000FFF0003FFFFFFFFFFFFFFFFF00000F000FFFFFFFE000001FFFC000C001FE0
310
00C000FFFF80007FFFFFFFFE000001FFFFFFFFE000001FF80FFFFFFFFFFFFFC0
310
7FFFFFF0001FFFFFF8000FFFFFFFF8000FF8000FFFFFFFF8000FFF0003FFFFFF
310
FFFFFFFFFF800000F000FFFFFFC0000001FFFC001C001FE001C000FFFF80007F
310
FFFFFF80000003FFFFFFF80000001FF80FFFFFFFFFFFFFC07FFFFFF0001FFFFF
310
F8001FFFFFFFFC000FF8001FFFFFFFFC000FFF0003FFFFFFFFFFFFFFF0000001
310
F000FFFFF800000001FFF8001C001FE001C000FFFF80007FFFFFF800000003FF
310
FFFF800000003FF80FFFFFFFFFFFFFC07FFFFFF0001FFFFFF8001FFFFFFFFC00
310
0FF8001FFFFFFFFC000FFF0003FFFFFFFFFFFFFE00000001F000FFFFC0000000
310
03FFF8001E001FC001E000FFFF80007FFFFF8000000007FFFFFC000000003FF8
310
0FFFFFFFFFFFFFC07FFFFFF0001FFFFFF8001FFFFFFFFC000FF8001FFFFFFFFC
310
000FFF0003FFFFFFFFFFFFE000000003F000FFFE0000000007FFF8001E000FC0
310
01E0007FFF80007FFFFE0000000007FFFFE0000000007FF80FFFFFFFFFFFFFC0
310
7FFFFFF0001FFFFFF0001FFFFFFFFC0007F0001FFFFFFFFC0007FF0003FFFFFF
310
FFFFFF0000000003F000FFF80000000007FFF8001E000FC003E0007FFF80007F
310
FFF0000000000FFFFF8000000000FFF80FFFFFFFFFFFFFC07FFFFFF0001FFFFF
310
F0001FFFFFFFFC0007F0001FFFFFFFFC0007FF0003FFFFFFFFFFFC0000000007
310
F000FFE0000000000FFFF0003E000FC003E0007FFF80007FFFC0000000001FFF
310
FE0000000001FFF80FFFFFFFFFFFFFC07FFFFFF0001FFFFFF0001FFFFFFFFC00
310
07F0001FFFFFFFFC0007FF0003FFFFFFFFFFF0000000000FF000FFC000000000
310
1FFFF0003F000F8003F0003FFF80007FFF80000000003FFFF80000000003FFF8
310
0FFFFFFFFFFFFFC07FFFFFF0001FFFFFF0001FFFFFFFFC0007F0001FFFFFFFFC
310
0007FF0003FFFFFFFFFFE0000000001FF000FF00000000007FFFF0003F000780
310
03F0003FFF80007FFF00000000007FFFF00000000007FFF80FFFFFFFFFFFFFC0
310
7FFFFFF0001FFFFFF0001FFFFFFFFC0007F0001FFFFFFFFC0007FF0003FFFFFF
310
FFFF80000000007FF000FE0000000000FFFFE0003F00078007F0003FFF80007F
310
FE0000000001FFFFE0000000001FFFF80FFFFFFFFFFFFFC07FFFFFF0001FFFFF
310
F0001FFFFFFFFC0007F0001FFFFFFFFC0007FF0003FFFFFFFFFF0000000000FF
310
F000FC0000000003FFFFE0007F00078007F0003FFF80007FFC0000000007FFFF
310
C0000000007FFFF80FFFFFFFFFFFFFC07FFFFFF0001FFFFFF8001FFFFFFFFC00
310
0FF8001FFFFFFFFC000FFF0003FFFFFFFFFE0000000003FFF000FC000000000F
310
FFFFE0007F80070007F8001FFF80007FF8000000001FFFFF8000000001FFFFF8
310
0FFFFFFFFFFFFFC07FFFFFF0001FFFFFF8001FFFFFFFFC000FF8001FFFFFFFFC
310
000FFF0003FFFFFFFFFC000000000FFFF000F8000000007FFFFFE0007F800700
310
07F8001FFF80007FF000000000FFFFFF800000000FFFFFF80FFFFFFFFFFFFFC0
310
7FFFFFF0001FFFFFF8000FFFFFFFF8000FF8000FFFFFFFF8000FFF0003FFFFFF
310
FFFC000000007FFFF000F800000007FFFFFFC0007F8003000FF8001FFF80007F
310
F000000007FFFFFF000000007FFFFFF80FFFFFFFFFFFFFC07FFFFFF0001FFFFF
310
F8000FFFFFFFF8000FF8000FFFFFFFF8000FFF0003FFFFFFFFF80000000FFFFF
310
F000F0000000FFFFFFFFC000FF8003000FF8001FFF80007FE0000000FFFFFFFF
310
0000000FFFFFFFF8000001FFFE0000007FFFFFF0001FFFFFF8000FFFFFFFF800
310
0FF8000FFFFFFFF8000FFF0003FFFFFFFFF8000000FFFFFFF000F000000FFFFF
310
FFFFC000FFC002000FF8000FFF80007FE000001FFFFFFFFE000001FFFFFFFFF8
310
000001FFFE0000007FFFFFF0001FFFFFF8000FFFFFFFF8000FF8000FFFFFFFF8
310
000FFF0003FFFFFFFFF000001FFFFFFFF000E00000FFFFFFFFFFC000FFC00200
310
0FFC000FFF80007FE00001FFFFFFFFFE00001FFFFFFFFFF8000001FFFE000000
310
7FFFFFF0001FFFFFFC000FFFFFFFF8001FFC000FFFFFFFF8001FFF0003FFFFFF
310
FFF00001FFFFFFFFF000E00007FFFFFFFFFF8000FFC000001FFC000FFF80007F
310
C0000FFFFFFFFFFE0000FFFFFFFFFFF8000001FFFE0000007FFFFFF0001FFFFF
310
FC0007FFFFFFF0001FFC0007FFFFFFF0001FFF0003FFFFFFFFF00007FFFFFFFF
310
F000E0001FFFFFFFFFFF8000FFC000001FFC000FFF80007FC0003FFFFFFFFFFE
310
0001FFFFFFFFFFF8000001FFFE0000007FFFFFF0001FFFFFFC0007FFFFFFF000
310
1FFC0007FFFFFFF0001FFF0003FFFFFFFFF0001FFFFFFFFFF000E0003FFFFF00
310
03FF8001FFE000001FFC0007FF80007FC0007FFFFF0007FC0003FFFFF0003FF8
310
000001FFFE0000007FFFFFF0001FFFFFFC0003FFFFFFE0001FFC0003FFFFFFE0
310
001FFF0003FFFFFFFFF0003FFFFFFFFFF000E0003FFFFF0001FF8001FFE00000
310
1FFE0007FF80007FC0007FFFFE0003FC0007FFFFE0003FF8000001FFFE000000
310
7FFFFFF0001FFFFFFE0003FFFFFFE0003FFE0003FFFFFFE0003FFF0003FFFFFF
310
FFF0003FFFFF8001F000E0003FFFFF0001FF0001FFE000001FFE0007FF80007F
310
C0007FFFFE0003FC0007FFFFE0003FF8000001FFFE0000007FFFFFF0001FFFFF
310
FE0001FFFFFFC0003FFE0001FFFFFFC0003FFF0003FFFFFFFFF0003FFFFF0001
310
F000E0003FFFFF0003FF0001FFE000003FFE0007FF80007FC0007FFFFE0003FC
310
0007FFFFE0003FF8000001FFFE0000007FFFFFF0001FFFFFFF0001FFFFFFC000
310
7FFF0001FFFFFFC0007FFF0003FFFFFFFFF0003FFFFF0001F000E0003FFFFE00
310
03FF0003FFF000003FFE0003FF80007FC0007FFFFC0003FE0007FFFFE0003FF8
310
000001FFFE0000007FFFFFF0001FFFFFFF0000FFFFFF80007FFF0000FFFFFF80
310
007FFF0003FFFFFFFFF0003FFFFF0001F000E0003FFFFE0003FF0003FFF00000
310
3FFF0003FF80007FC0007FFFFC0007FE0007FFFFC0003FF8000001FFFE000000
310
7FFFFFF0001FFFFFFF80007FFFFF0000FFFF80007FFFFF0000FFFF0003FFFFFF
310
FFF0003FFFFF0003F000E0003FFFFC0003FE0003FFF000003FFF0003FF80007F
310
E0003FFFF80007FE0003FFFFC0007FF8000001FFFE0000007FFFFFF0001FFFFF
310
FF80003FFFFE0000FFFF80003FFFFE0000FFFF0003FFFFFFFFF0001FFFFE0003
310
F000F0001FFFF80003FE0003FFF000007FFF0001FF80007FE0003FFFF00007FE
310
0001FFFF80007FF8000001FFFE0000007FFFFFF0001FFFFFFFC0000FFFF80001
310
FFFFC0000FFFF80001FFFF0003FFFFFFFFF0001FFFFC0003F000F0000FFFF000
310
07FE0007FFF800007FFF0001FF80007FE0001FFFE00007FF0000FFFE00007FF8
310
000001FFFE0000007FFFFFF0001FFFFFFFC00003FFE00001FFFFC00003FFE000
310
01FFFF0003FFFFFFFFF8000FFFF80003F000F00003FFC00007FC0007FFF80000
310
7FFF8001FF80007FF00007FF80000FFF00007FF80000FFF8000001FFFE000000
310
7F80000000000001FFE000003E000003FFFFE000003E000003FFFF0003FFFFFF
310
FFF80003FFE00007F000F800000000000FFC0007FFF800007FFF8001FF80007F
310
F000000000000FFF000000000000FFF8000001FFFE0000007F80000000000001
310
FFF0000000000007FFFFF0000000000007FFFF0003FFFFFFFFFC00007E000007
310
F000F800000000000FFC0007FFF80000FFFF8000FF80007FF800000000001FFF
310
800000000001FFF8000001FFFE0000007F80000000000001FFF800000000000F
310
FFFFF800000000000FFFFF0003FFFFFFFFFC00000000000FF000FC0000000000
310
1FFC0007FFFC0000FFFF8000FF80007FF800000000003FFFC00000000001FFF8
310
000001FFFE0000007F80000000000001FFF800000000000FFFFFF80000000000
310
0FFFFF0003FFFFFFFFFE00000000001FF000FE00000000003FF8000FFFFC0000
310
FFFF8000FF80007FFC00000000003FFFC00000000003FFF8000001FFFE000000
310
7F80000000000001FFFC00000000001FFFFFFC00000000001FFFFF0003FFFFFF
310
FFFF00000000001FF000FF00000000003FF8000FFFFC0000FFFFC000FF80007F
310
FE00000000007FFFE00000000007FFF8000001FFFE0000007F80000000000001
310
FFFE00000000003FFFFFFE00000000003FFFFF0003FFFFFFFFFF80000000003F
310
F000FF80000000007FF8000FFFFC0001FFFFC0007F80007FFF0000000000FFFF
310
F0000000000FFFF800000000000000007F80000000000001FFFF8000000000FF
310
FFFFFF8000000000FFFFFF0003FFFFFFFFFFC0000000007FF000FFC000000000
310
FFF8000FFFFE0001FFFFC0007F80007FFF8000000001FFFFF8000000001FFFF8
310
00000000000000007F80000000000001FFFFC000000001FFFFFFFFC000000001
310
FFFFFF0003FFFFFFFFFFE000000000FFF000FFE000000003FFF0001FFFFE0001
310
FFFFC0007F80007FFFC000000007FFFFFE000000003FFFF80000000000000000
310
7F80000000000001FFFFE000000003FFFFFFFFE000000003FFFFFF0003FFFFFF
310
FFFFF000000003FFF000FFF80000000FFFF0001FFFFE0001FFFFE0007F80007F
310
FFF00000000FFFFFFF00000000FFFFF800000000000000007F80000000000001
310
FFFFF80000000FFFFFFFFFF80000000FFFFFFF0003FFFFFFFFFFFC0000000FFF
310
F000FFFE0000003FFFF0001FFFFE0003FFFFE0003F80007FFFFC0000003FFFFF
310
FFC0000003FFFFF800000000000000007F80000000000001FFFFFE0000003FFF
310
FFFFFFFE0000003FFFFFFF0003FFFFFFFFFFFF0000003FFFF000FFFF800000FF
310
FFF0001FFFFF0003FFFFE0003F80007FFFFF000001FFFFFFFFF800001FFFFFF8
310
00000000000000007F80000000000001FFFFFFC00001FFFFFFFFFFFFC00001FF
310
FFFFFF0003FFFFFFFFFFFFC00000FFFFF000FFFFF8000FFFFFFFFFFFFFFFFFFF
310
FFFFFFFFFFFFFFFFFFFFF0001FFFFFFFFFFF0000FFFFFFF80000000000000000
310
7FFFFFFFFFFFFFFFFFFFFFFC001FFFFFFFFFFFFFFC001FFFFFFFFFFFFFFFFFFF
310
FFFFFFFC001FFFFFF000FFFFFFFFFFFFFFFFFFFFFFFFFFFFFFFFFFFFFFFFFFFF
310
FFFFFFFFFFFFFFFFFFFFFFFFFFFFFFFFFFFFFFFFFFFFFFFFFFFFFFFFFFFFFFFF
310
FFFFFFFFFFFFFFFFFFFFFFFFFFFFFFFFFFFFFFFFFFFFFFFFFFFFFFFFFFFFFFFF
310
F000FFFFFFFFFFFFFFFFFFFFFFFFFFFFFFFFFFFFFFFFFFFFFFFFFFFFFFFFFFFF
310
FFFFFFFFFFFFFFFFFFFFFFFFFFFFFFFFFFFFFFFFFFFFFFFFFFFFFFFFFFFFFFFF
310
FFFFFFFFFFFFFFFFFFFFFFFFFFFFFFFFFFFFFFFFFFFFFFFFF000FFFFFFFFFFFF
310
FFFFFFFFFFFFFFFFFFFFFFFFFFFFFFFFFFFFFFFFFFFFFFFFFFFFFFFFFFFFFFFF
310
FFFFFFFFFFFFFFFFFFFFFFFFFFFFFFFFFFFFFFFFFFFFFFFFFFFFFFFFFFFFFFFF
310
FFFFFFFFFFFFFFFFFFFFFFFFFFFFFFFFF000FFFFFFFFFFFFFFFFFFFFFFFFFFFF
310
FFFFFFFFFFFFFFFFFFFFFFFFFFFFFFFFFFFFFFFFFFFFFFFFFFFFFFFFFFFFFFFF
310
FFFFFFFFFFFFFFFFFFFFFFFFFFFFFFFFFFFFFFFFFFFFFFFFFFFFFFFFFFFFFFFF
310
FFFFFFFFFFFFFFFFF000FFFFFFFFFFFFFFFFFFFFFFFFFFFFFFFFFFFFFFFFFFFF
310
FFFFFFFFFFFFFFFFFFFFFFFFFFFFFFFFFFFFFFFFFFFFFFFFFFFFFFFFFFFFFFFF
310
FFFFFFFFFFFFFFFFFFFFFFFFFFFFFFFFFFFFFFFFFFFFFFFFFFFFFFFFFFFFFFFF
310
F000FFFFFFFFFFFFFFFFFFFFFFFFFFFFFFFFFFFFFFFFFFFFFFFFFFFFFFFFFFFF
310
FFFFFFFFFFFFFFFFFFFFFFFFFFFFFFFFFFFFFFFFFFFFFFFFFFFFFFFFFFFFFFFF
310
FFFFFFFFFFFFFFFFFFFFFFFFFFFFFFFFFFFFFFFFFFFFFFFFF000FFFFFFFFFFFF
310
FFFFFFFFFFFFFFFFFFFFFFFFFFFFFFFFFFFFFFFFFFFFFFFFFFFFFFFFFFFFFFFF
310
FFFFFFFFFFFFFFFFFFFFFFFFFFFFFFFFFFFFFFFFFFFFFFFFFFFFFFFFFFFFFFFF
310
FFFFFFFFFFFFFFFFFFFFFFFFFFFFFFFFF000FFFFFFFFFFFFFFFFFFFFFFFFFFFF
310
FFFFFFFFFFFFFFFFFFFFFFFFFFFFFFFFFFFFFFFFFFFFFFFFFFFFFFFFFFFFFFFF
310
FFFFFFFFFFFFFFFFFFFFFFFFFFFFFFFFFFFFFFFFFFFFFFFFFFFFFFFFFFFFFFFF
310
FFFFFFFFFFFFFFFFF000FFFFFFFFFFFFFFFFFFFFFFFFFFFFFFFFFFFFFFFFFFFF
310
FFFFFFFFFFFFFFFFFFFFFFFFFFFFFFFFFFFFFFFFFFFFFFFFFFFFFFFFFFFFFFFF
310
FFFFFFFFFFFFFFFFFFFFFFFFFFFFFFFFFFFFFFFFFFFFFFFFFFFFFFFFFFFFFFFF
310
F000FFFFFFFFFFFFFFFFFFFFFFFFFFFFFFFFFFFFFFFFFFFFFFFFFFFFFFFFFFFF
310
FFFFFFFFFFFFFFFFFFFFFFFFFFFFFFFFFFFFFFFFFFFFFFFFFFFFFFFFFFFFFFFF
310
FFFFFFFFFFFFFFFFFFFFFFFFFFFFFFFFFFFFFFFFFFFFFFFFF000FFFFFFFFFFFF
310
FFFFFFFFFFFFFFFFFFFFFFFFFFFFFFFFFFFFFFFFFFFFFFFFFFFFFFFFFFFFFFFF
310
FFFFFFFFFFFFFFFFFFFFFFFFFFFFFFFFFFFFFFFFFFFFFFFFFFFFFFFFFFFFFFFF
310
FFFFFFFFFFFFFFFFFFFFFFFFFFFFFFFFF000FFFFFFFFFFFFFFFFFFFFFFFFFFFF
310
FFFFFFFFFFFFFFFFFFFFFFFFFFFFFFFFFFFFFFFFFFFFFFFFFFFFFFFFFFFFFFFF
310
FFFFFFFFFFFFFFFFFFFFFFFFFFFFFFFFFFFFFFFFFFFFFFFFFFFFFFFFFFFFFFFF
310
FFFFFFFFFFFFFFFFF000FFFFFFFFFFFFFFFFFFFFFFFFFFFFFFFFFFFFFFFFFFFF
310
FFFFFFFFFFFFFFFFFFFFFFFFFFFFFFFFFFFFFFFFFFFFFFFFFFFFFFFFFFFFFFFF
310
FFFFFFFFFFFFFFFFFFFFFFFFFFFFFFFFFFFFFFFFFFFFFFFFFFFFFFFFFFFFFFFF
310
F000FFFFFFFFFFFFFFFFFFFFFFFFFFFFFFFFFFFFFFFFFFFFFFFFFFFFFFFFFFFF
310
FFFFFFFFFFFFFFFFFFFFFFFFFFFFFFFFFFFFFFFFFFFFFFFFFFFFFFFFFFFFFFFF
310
FFFFFFFFFFFFFFFFFFFFFFFFFFFFFFFFFFFFFFFFFFFFFFFFF000FFFFFFFFFFFF
310
FFFFFFFFFFFFFFFFFFFFFFFFFFFFFFFFFFFFFFFFFFFFFFFFFFFFFFFFFFFFFFFF
310
FFFFFFFFFFFFFFFFFFFFFFFFFFFFFFFFFFFFFFFFFFFFFFFFFFFFFFFFFFFFFFFF
310
FFFFFFFFFFFFFFFFFFFFFFFFFFFFFFFFF000FFFFFFFFFFFFFFFFFFFFFFFFFFFF
310
FFFFFFFFFFFFFFFFFFFFFFFFFFFFFFFFFFFFFFFFFFFFFFFFFFFFFFFFFFFFFFFF
310
FFFFFFFFFFFFFFFFFFFFFFFFFFFFFFFFFFFFFFFFFFFFFFFFFFFFFFFFFFFFFFFF
310
FFFFFFFFFFFFFFFFF000FFFFFFFFFFFFFFFFFFFFFFFFFFFFFFFFFFFFFFFFFFFF
310
FFFFFFFFFFFFFFFFFFFFFFFFFFFFFFFFFFFFFFFFFFFFFFFFFFFFFFFFFFFFFFFF
310
FFFFFFFFFFFFFFFFFFFFFFFFFFFFFFFFFFFFFFFFFFFFFFFFFFFFFFFFFFFFFFFF
310
F000FFFFFFFFFFFFFFFFFFFFFFFFFFFFFFFFFFFFFFFFFFFFFFFFFFFFFFFFFFFF
310
FFFFFFFFFFFFFFFFFFFFFFFFFFFFFFFFFFFFFFFFFFFFFFFFFFFFFFFFFFFFFFFF
310
FFFFFFFFFFFFFFFFFFFFFFFFFFFFFFFFFFFFFFFFFFFFFFFFF000FFFFFFFFFFFF
310
FFFFFFFFFFFFFFFFFFFFFFFFFFFFFFFFFFFFFFFFFFFFFFFFFFFFFFFFFFFFFFFF
310
FFFFFFFFFFFFFFFFFFFFFFFFFFFFFFFFFFFFFFFFFFFFFFFFFFFFFFFFFFFFFFFF
310
FFFFFFFFFFFFFFFFFFFFFFFFFFFFFFFFF000FFFFFFFFFFFFFFFFFFFFFFFFFFFF
310
FFFFFFFFFFFFFFFFFFFFFFFFFFFFFFFFFFFFFFFFFFFFFFFFFFFFFFFFFFFFFFFF
310
FFFFFFFFFFFFFFFFFFFFFFFFFFFFFFFFFFFFFFFFFFFFFFFFFFFFFFFFFFFFFFFF
310
FFFFFFFFFFFFFFFFF000FFFFFFFFFFFFFFFFFFFFFFFFFFFFFFFFFFFFFFFFFFFF
310
FFFFFFFFFFFFFFFFFFFFFFFFFFFFFFFFFFFFFFFFFFFFFFFFFFFFFFFFFFFFFFFF
310
FFFFFFFFFFFFFFFFFFFFFFFFFFFFFFFFFFFFFFFFFFFFFFFFFFFFFFFFFFFFFFFF
310
F000FFFFFFFFFFFFFFFFFFFFFFFFFFFFFFFFFFFFFFFFFFFFFFFFFFFFFFFFFFFF
310
FFFFFFFFFFFFFFFFFFFFFFFFFFFFFFFFFFFFFFFFFFFFFFFFFFFFFFFFFFFFFFFF
310
FFFFFFFFFFFFFFFFFFFFFFFFFFFFFFFFFFFFFFFFFFFFFFFFF000FFFFFFFFFFFF
310
FFFFFFFFFFFFFFFFFFFFFFFFFFFFFFFFFFFFFFFFFFFFFFFFFFFFFFFFFFFFFFFF
310
FFFFFFFFFFFFFFFFFFFFFFFFFFFFFFFFFFFFFFFFFFFFFFFFFFFFFFFFFFFFFFFF
310
FFFFFFFFFFFFFFFFFFFFFFFFFFFFFFFFF0000000000000000000000000000000
310
0000000000000000000000000000000000000000000000000000000000000000
310
0000000000000000000000000000000000000000000000000000000000000000
310
0000000000000000000000000000000000000000000000000000000000000000
310
0000000000000000000000000000000000000000000000000000000000000000
310
0000000000000000000000000000000000000000000000000000000000000000
310
0000000000000000000000000000000000000000000000000000000000000000
310
0000000000000000000000000000000000000000000000000000000000000000
310
0000000000000000000000000000000000000000000000000000000000000000
310
0000000000000000000000000000000000000000000000000000000000000000
310
0000000000000000000000000000000000000000000000000000000000000000
310
0000000000000000000000000000000000000000000000000000000000000000
310
0000000000000000000000000000000000000000000000000000000000000000
310
0000000000000000000000000000000000000000000000000000000000000000
310
0000000000000000000000000000000000000000000000000000000000000000
310
0000000000000000000000000000000000000000000000000000000000000000
  1
OLE
  0
ENDSEC
  0
SECTION
  2
OBJECTS
  0
DICTIONARY
  5
C
330
0
100
AcDbDictionary
281
     1
  3
ACAD_GROUP
350
D
  3
ACAD_LAYOUT
350
1A
  3
ACAD_MLINESTYLE
350
17
  3
ACAD_PLOTSETTINGS
350
19
  3
ACAD_PLOTSTYLENAME
350
E
  0
DICTIONARY
  5
D
102
{ACAD_REACTORS
330
C
102
}
330
C
100
AcDbDictionary
281
     1
  0
DICTIONARY
  5
1A
102
{ACAD_REACTORS
330
C
102
}
330
C
100
AcDbDictionary
281
     1
  3
Layout1
350
1E
  3
Layout2
350
26
  3
Model
350
22
  0
DICTIONARY
  5
17
102
{ACAD_REACTORS
330
C
102
}
330
C
100
AcDbDictionary
281
     1
  3
Standard
350
18
  0
DICTIONARY
  5
19
102
{ACAD_REACTORS
330
C
102
}
330
C
100
AcDbDictionary
281
     1
  0
ACDBDICTIONARYWDFLT
  5
E
102
{ACAD_REACTORS
330
C
102
}
330
C
100
AcDbDictionary
281
     1
  3
Normal
350
F
100
AcDbDictionaryWithDefault
340
F
  0
LAYOUT
  5
1E
102
{ACAD_REACTORS
330
1A
102
}
330
1A
100
AcDbPlotSettings
  1

  2
none_device
  4

  6

 40
0.0
 41
0.0
 42
0.0
 43
0.0
 44
0.0
 45
0.0
 46
0.0
 47
0.0
 48
0.0
 49
0.0
140
0.0
141
0.0
142
1.0
143
1.0
 70
   688
 72
     0
 73
     0
 74
     5
  7

 75
    16
147
1.0
148
0.0
149
0.0
100
AcDbLayout
  1
Layout1
 70
     1
 71
     1
 10
0.0
 20
0.0
 11
420.0
 21
297.0
 12
0.0
 22
0.0
 32
0.0
 14
1.0000000000E+20
 24
1.0000000000E+20
 34
1.0000000000E+20
 15
-1.0000000000E+20
 25
-1.0000000000E+20
 35
-1.0000000000E+20
146
0.0
 13
0.0
 23
0.0
 33
0.0
 16
1.0
 26
0.0
 36
0.0
 17
0.0
 27
1.0
 37
0.0
 76
     0
330
1B
  0
LAYOUT
  5
26
102
{ACAD_REACTORS
330
1A
102
}
330
1A
100
AcDbPlotSettings
  1

  2
none_device
  4

  6

 40
0.0
 41
0.0
 42
0.0
 43
0.0
 44
0.0
 45
0.0
 46
0.0
 47
0.0
 48
0.0
 49
0.0
140
0.0
141
0.0
142
1.0
143
1.0
 70
   688
 72
     0
 73
     0
 74
     5
  7

 75
    16
147
1.0
148
0.0
149
0.0
100
AcDbLayout
  1
Layout2
 70
     1
 71
     2
 10
0.0
 20
0.0
 11
0.0
 21
0.0
 12
0.0
 22
0.0
 32
0.0
 14
0.0
 24
0.0
 34
0.0
 15
0.0
 25
0.0
 35
0.0
146
0.0
 13
0.0
 23
0.0
 33
0.0
 16
1.0
 26
0.0
 36
0.0
 17
0.0
 27
1.0
 37
0.0
 76
     0
330
23
  0
LAYOUT
  5
22
102
{ACAD_REACTORS
330
1A
102
}
330
1A
100
AcDbPlotSettings
  1

  2
none_device
  4

  6

 40
0.0
 41
0.0
 42
0.0
 43
0.0
 44
0.0
 45
0.0
 46
0.0
 47
0.0
 48
0.0
 49
0.0
140
0.0
141
0.0
142
1.0
143
1.0
 70
  1712
 72
     0
 73
     0
 74
     0
  7

 75
     0
147
1.0
148
0.0
149
0.0
100
AcDbLayout
  1
Model
 70
     1
 71
     0
 10
0.0
 20
0.0
 11
297.0
 21
210.0
 12
0.0
 22
0.0
 32
0.0
 14
0.0
 24
0.0
 34
0.0
 15
297.0
 25
210.0
 35
0.0
146
0.0
 13
0.0
 23
0.0
 33
0.0
 16
1.0
 26
0.0
 36
0.0
 17
0.0
 27
1.0
 37
0.0
 76
     0
330
1F
331
29
  0
MLINESTYLE
  5
18
102
{ACAD_REACTORS
330
17
102
}
330
17
100
AcDbMlineStyle
  2
Standard
 70
     0
  3

 62
   256
 51
90.0
 52
90.0
 71
     2
 49
0.5
 62
   256
  6
BYLAYER
 49
-0.5
 62
   256
  6
BYLAYER
  0
ACDBPLACEHOLDER
  5
F
102
{ACAD_REACTORS
330
E
102
}
330
E
  0
ENDSEC
  0
EOF
